  0
SECTION
  2
HEADER
  9
$ACADVER
  1
AC1018
  9
$ACADMAINTVER
 70
   104
  9
$DWGCODEPAGE
  3
ANSI_1252
  9
$AUTHOR
  1
PS
  9
$REVISIONNUMBER
  1
-
  9
$CUSTOMPROPERTYTAG
  1
Manager
  9
$CUSTOMPROPERTY
  1

  9
$CUSTOMPROPERTYTAG
  1
Company
  9
$CUSTOMPROPERTY
  1

  9
$CUSTOMPROPERTYTAG
  1
Category
  9
$CUSTOMPROPERTY
  1

  9
$CUSTOMPROPERTYTAG
  1
Part Number
  9
$CUSTOMPROPERTY
  1
N1P0808PP-S
  9
$CUSTOMPROPERTYTAG
  1
Description
  9
$CUSTOMPROPERTY
  1

  9
$CUSTOMPROPERTYTAG
  1
Project
  9
$CUSTOMPROPERTY
  1

  9
$CUSTOMPROPERTYTAG
  1
Designer
  9
$CUSTOMPROPERTY
  1
PS
  9
$CUSTOMPROPERTYTAG
  1
Engineer
  9
$CUSTOMPROPERTY
  1

  9
$CUSTOMPROPERTYTAG
  1
Authority
  9
$CUSTOMPROPERTY
  1

  9
$CUSTOMPROPERTYTAG
  1
Cost Center
  9
$CUSTOMPROPERTY
  1

  9
$CUSTOMPROPERTYTAG
  1
Vendor
  9
$CUSTOMPROPERTY
  1

  9
$CUSTOMPROPERTYTAG
  1
User Status
  9
$CUSTOMPROPERTY
  1

  9
$CUSTOMPROPERTYTAG
  1
Design Status
  9
$CUSTOMPROPERTY
  1
WorkInProgress
  9
$CUSTOMPROPERTYTAG
  1
Checked by
  9
$CUSTOMPROPERTY
  1
NJ
  9
$CUSTOMPROPERTYTAG
  1
Date Checked
  9
$CUSTOMPROPERTY
  1
06/21/2013
  9
$CUSTOMPROPERTYTAG
  1
Engr Approved by
  9
$CUSTOMPROPERTY
  1

  9
$CUSTOMPROPERTYTAG
  1
Date Eng Approved
  9
$CUSTOMPROPERTY
  1
06/21/2013
  9
$CUSTOMPROPERTYTAG
  1
Mfg Approved by
  9
$CUSTOMPROPERTY
  1

  9
$CUSTOMPROPERTYTAG
  1
DWG. NO
  9
$CUSTOMPROPERTY
  1

  9
$CUSTOMPROPERTYTAG
  1
NUMBER OF SHEETS
  9
$CUSTOMPROPERTY
  1
1
  9
$CUSTOMPROPERTYTAG
  1
DRAWING #
  9
$CUSTOMPROPERTY
  1
1
  9
$INSBASE
 10
0.0
 20
0.0
 30
0.0
  9
$EXTMIN
 10
0.0
 20
0.0
 30
0.0
  9
$EXTMAX
 10
26.15384615384615
 20
16.92307692307692
 30
0.0
  9
$LIMMIN
 10
0.0
 20
0.0
  9
$LIMMAX
 10
26.15384615384615
 20
16.92307692307692
  9
$ORTHOMODE
 70
     0
  9
$REGENMODE
 70
     1
  9
$FILLMODE
 70
     1
  9
$QTEXTMODE
 70
     0
  9
$MIRRTEXT
 70
     0
  9
$LTSCALE
 40
1.538461538461538
  9
$ATTMODE
 70
     1
  9
$TEXTSIZE
 40
0.2
  9
$TRACEWID
 40
0.05
  9
$TEXTSTYLE
  7
Standard
  9
$CLAYER
  8
0
  9
$CELTYPE
  6
ByLayer
  9
$CECOLOR
 62
   256
  9
$CELTSCALE
 40
1.0
  9
$DISPSILH
 70
     0
  9
$DIMSCALE
 40
1.0
  9
$DIMASZ
 40
0.0708661417322835
  9
$DIMEXO
 40
0.0625
  9
$DIMDLI
 40
0.38
  9
$DIMRND
 40
0.0
  9
$DIMDLE
 40
0.0
  9
$DIMEXE
 40
0.18
  9
$DIMTP
 40
0.0
  9
$DIMTM
 40
0.0
  9
$DIMTXT
 40
0.0708661417322835
  9
$DIMCEN
 40
0.09
  9
$DIMTSZ
 40
0.0
  9
$DIMTOL
 70
     0
  9
$DIMLIM
 70
     0
  9
$DIMTIH
 70
     1
  9
$DIMTOH
 70
     1
  9
$DIMSE1
 70
     0
  9
$DIMSE2
 70
     0
  9
$DIMTAD
 70
     0
  9
$DIMZIN
 70
     0
  9
$DIMBLK
  1

  9
$DIMASO
 70
     1
  9
$DIMSHO
 70
     1
  9
$DIMPOST
  1

  9
$DIMAPOST
  1

  9
$DIMALT
 70
     0
  9
$DIMALTD
 70
     2
  9
$DIMALTF
 40
25.4
  9
$DIMLFAC
 40
1.0
  9
$DIMTOFL
 70
     0
  9
$DIMTVP
 40
0.0
  9
$DIMTIX
 70
     0
  9
$DIMSOXD
 70
     0
  9
$DIMSAH
 70
     0
  9
$DIMBLK1
  1

  9
$DIMBLK2
  1

  9
$DIMSTYLE
  2
STANDARD
  9
$DIMCLRD
 70
     0
  9
$DIMCLRE
 70
     0
  9
$DIMCLRT
 70
     0
  9
$DIMTFAC
 40
1.0
  9
$DIMGAP
 40
0.09
  9
$DIMJUST
 70
     0
  9
$DIMSD1
 70
     0
  9
$DIMSD2
 70
     0
  9
$DIMTOLJ
 70
     1
  9
$DIMTZIN
 70
     0
  9
$DIMALTZ
 70
     0
  9
$DIMALTTZ
 70
     0
  9
$DIMUPT
 70
     0
  9
$DIMDEC
 70
     4
  9
$DIMTDEC
 70
     4
  9
$DIMALTU
 70
     2
  9
$DIMALTTD
 70
     2
  9
$DIMTXSTY
  7
Standard
  9
$DIMAUNIT
 70
     0
  9
$DIMADEC
 70
     0
  9
$DIMALTRND
 40
0.0
  9
$DIMAZIN
 70
     0
  9
$DIMDSEP
 70
    46
  9
$DIMATFIT
 70
     3
  9
$DIMFRAC
 70
     0
  9
$DIMLDRBLK
  1

  9
$DIMLUNIT
 70
     2
  9
$DIMLWD
 70
    -2
  9
$DIMLWE
 70
    -2
  9
$DIMTMOVE
 70
     0
  9
$LUNITS
 70
     2
  9
$LUPREC
 70
     4
  9
$SKETCHINC
 40
0.1
  9
$FILLETRAD
 40
0.0
  9
$AUNITS
 70
     0
  9
$AUPREC
 70
     0
  9
$MENU
  1
.
  9
$ELEVATION
 40
0.0
  9
$PELEVATION
 40
0.0
  9
$THICKNESS
 40
0.0
  9
$LIMCHECK
 70
     0
  9
$CHAMFERA
 40
0.0
  9
$CHAMFERB
 40
0.0
  9
$CHAMFERC
 40
0.0
  9
$CHAMFERD
 40
0.0
  9
$SKPOLY
 70
     0
  9
$TDCREATE
 40
2456476.363760371
  9
$TDUCREATE
 40
2456476.134593704
  9
$TDUPDATE
 40
2456476.363760382
  9
$TDUUPDATE
 40
2456476.134593716
  9
$TDINDWG
 40
0.0000416898
  9
$TDUSRTIMER
 40
0.0000416898
  9
$USRTIMER
 70
     1
  9
$ANGBASE
 50
0.0
  9
$ANGDIR
 70
     0
  9
$PDMODE
 70
     0
  9
$PDSIZE
 40
0.0
  9
$PLINEWID
 40
0.0
  9
$SPLFRAME
 70
     0
  9
$SPLINETYPE
 70
     6
  9
$SPLINESEGS
 70
     8
  9
$HANDSEED
  5
E9F
  9
$SURFTAB1
 70
     6
  9
$SURFTAB2
 70
     6
  9
$SURFTYPE
 70
     6
  9
$SURFU
 70
     6
  9
$SURFV
 70
     6
  9
$UCSBASE
  2

  9
$UCSNAME
  2

  9
$UCSORG
 10
0.0
 20
0.0
 30
0.0
  9
$UCSXDIR
 10
1.0
 20
0.0
 30
0.0
  9
$UCSYDIR
 10
0.0
 20
1.0
 30
0.0
  9
$UCSORTHOREF
  2

  9
$UCSORTHOVIEW
 70
     0
  9
$UCSORGTOP
 10
0.0
 20
0.0
 30
0.0
  9
$UCSORGBOTTOM
 10
0.0
 20
0.0
 30
0.0
  9
$UCSORGLEFT
 10
0.0
 20
0.0
 30
0.0
  9
$UCSORGRIGHT
 10
0.0
 20
0.0
 30
0.0
  9
$UCSORGFRONT
 10
0.0
 20
0.0
 30
0.0
  9
$UCSORGBACK
 10
0.0
 20
0.0
 30
0.0
  9
$PUCSBASE
  2

  9
$PUCSNAME
  2

  9
$PUCSORG
 10
0.0
 20
0.0
 30
0.0
  9
$PUCSXDIR
 10
1.0
 20
0.0
 30
0.0
  9
$PUCSYDIR
 10
0.0
 20
1.0
 30
0.0
  9
$PUCSORTHOREF
  2

  9
$PUCSORTHOVIEW
 70
     0
  9
$PUCSORGTOP
 10
0.0
 20
0.0
 30
0.0
  9
$PUCSORGBOTTOM
 10
0.0
 20
0.0
 30
0.0
  9
$PUCSORGLEFT
 10
0.0
 20
0.0
 30
0.0
  9
$PUCSORGRIGHT
 10
0.0
 20
0.0
 30
0.0
  9
$PUCSORGFRONT
 10
0.0
 20
0.0
 30
0.0
  9
$PUCSORGBACK
 10
0.0
 20
0.0
 30
0.0
  9
$USERI1
 70
     0
  9
$USERI2
 70
     0
  9
$USERI3
 70
     0
  9
$USERI4
 70
     0
  9
$USERI5
 70
     0
  9
$USERR1
 40
0.0
  9
$USERR2
 40
0.0
  9
$USERR3
 40
0.0
  9
$USERR4
 40
0.0
  9
$USERR5
 40
0.0
  9
$WORLDVIEW
 70
     1
  9
$SHADEDGE
 70
     3
  9
$SHADEDIF
 70
    70
  9
$TILEMODE
 70
     1
  9
$MAXACTVP
 70
    64
  9
$PINSBASE
 10
0.0
 20
0.0
 30
0.0
  9
$PLIMCHECK
 70
     0
  9
$PEXTMIN
 10
0.0
 20
0.0
 30
0.0
  9
$PEXTMAX
 10
26.15384615384615
 20
16.92307692307692
 30
0.0
  9
$PLIMMIN
 10
0.0
 20
0.0
  9
$PLIMMAX
 10
26.15384615384615
 20
16.92307692307692
  9
$UNITMODE
 70
     0
  9
$VISRETAIN
 70
     1
  9
$PLINEGEN
 70
     0
  9
$PSLTSCALE
 70
     1
  9
$TREEDEPTH
 70
  3020
  9
$CMLSTYLE
  2
Standard
  9
$CMLJUST
 70
     0
  9
$CMLSCALE
 40
1.0
  9
$PROXYGRAPHICS
 70
     1
  9
$MEASUREMENT
 70
     0
  9
$CELWEIGHT
370
    -1
  9
$ENDCAPS
280
     0
  9
$JOINSTYLE
280
     0
  9
$LWDISPLAY
290
     0
  9
$INSUNITS
 70
     1
  9
$HYPERLINKBASE
  1

  9
$STYLESHEET
  1

  9
$XEDIT
290
     1
  9
$CEPSNTYPE
380
     0
  9
$PSTYLEMODE
290
     1
  9
$FINGERPRINTGUID
  2
{36481EEC-7FC4-4F4C-9A92-3DFBA5E56183}
  9
$VERSIONGUID
  2
{82D50A91-9C7B-4CA2-9A67-DC89511A637B}
  9
$EXTNAMES
290
     1
  9
$PSVPSCALE
 40
0.0
  9
$OLESTARTUP
290
     0
  9
$SORTENTS
280
   127
  9
$INDEXCTL
280
     0
  9
$HIDETEXT
280
     1
  9
$XCLIPFRAME
290
     0
  9
$HALOGAP
280
     0
  9
$OBSCOLOR
 70
   257
  9
$OBSLTYPE
280
     0
  9
$INTERSECTIONDISPLAY
280
     0
  9
$INTERSECTIONCOLOR
 70
   257
  9
$DIMASSOC
280
     1
  9
$PROJECTNAME
  1

  0
ENDSEC
  0
SECTION
  2
CLASSES
  0
CLASS
  1
ACDBDICTIONARYWDFLT
  2
AcDbDictionaryWithDefault
  3
ObjectDBX Classes
 90
        0
 91
        1
280
     0
281
     0
  0
CLASS
  1
MATERIAL
  2
AcDbMaterial
  3
ObjectDBX Classes
 90
     1153
 91
        3
280
     0
281
     0
  0
CLASS
  1
VISUALSTYLE
  2
AcDbVisualStyle
  3
ObjectDBX Classes
 90
     4095
 91
       24
280
     0
281
     0
  0
CLASS
  1
SCALE
  2
AcDbScale
  3
ObjectDBX Classes
 90
     1153
 91
       17
280
     0
281
     0
  0
CLASS
  1
TABLESTYLE
  2
AcDbTableStyle
  3
ObjectDBX Classes
 90
     4095
 91
        1
280
     0
281
     0
  0
CLASS
  1
MLEADERSTYLE
  2
AcDbMLeaderStyle
  3
ACDB_MLEADERSTYLE_CLASS
 90
     4095
 91
        1
280
     0
281
     0
  0
CLASS
  1
DICTIONARYVAR
  2
AcDbDictionaryVar
  3
ObjectDBX Classes
 90
        0
 91
        8
280
     0
281
     0
  0
CLASS
  1
CELLSTYLEMAP
  2
AcDbCellStyleMap
  3
ObjectDBX Classes
 90
     1152
 91
        1
280
     0
281
     0
  0
ENDSEC
  0
SECTION
  2
TABLES
  0
TABLE
  2
VPORT
  5
8
330
0
100
AcDbSymbolTable
 70
     1
  0
VPORT
  5
57
330
8
100
AcDbSymbolTableRecord
100
AcDbViewportTableRecord
  2
*Active
 70
     0
 10
0.0
 20
0.0
 11
1.0
 21
1.0
 12
13.07692307692307
 22
8.461538461538459
 13
0.0
 23
0.0
 14
1.0
 24
1.0
 15
0.0
 25
0.0
 16
0.0
 26
0.0
 36
1.0
 17
0.0
 27
0.0
 37
0.0
 40
16.92307692307692
 41
1.545454545454545
 42
50.0
 43
0.0
 44
0.0
 50
0.0
 51
0.0
 71
     0
 72
   100
 73
     1
 74
     1
 75
     0
 76
     0
 77
     0
 78
     0
281
     0
 65
     1
110
0.0
120
0.0
130
0.0
111
1.0
121
0.0
131
0.0
112
0.0
122
1.0
132
0.0
 79
     0
146
0.0
  0
ENDTAB
  0
TABLE
  2
LTYPE
  5
5
330
0
100
AcDbSymbolTable
 70
    59
  0
LTYPE
  5
5B
330
5
100
AcDbSymbolTableRecord
100
AcDbLinetypeTableRecord
  2
ByBlock
 70
     0
  3

 72
    65
 73
     0
 40
0.0
  0
LTYPE
  5
5C
330
5
100
AcDbSymbolTableRecord
100
AcDbLinetypeTableRecord
  2
ByLayer
 70
     0
  3

 72
    65
 73
     0
 40
0.0
  0
LTYPE
  5
5D
330
5
100
AcDbSymbolTableRecord
100
AcDbLinetypeTableRecord
  2
Continuous
 70
     0
  3
Solid line
 72
    65
 73
     0
 40
0.0
  0
LTYPE
  5
7C
330
5
100
AcDbSymbolTableRecord
100
AcDbLinetypeTableRecord
  2
BY_STANDARD
 70
     0
  3
By Standard ____________    ____    ____   _
 72
    65
 73
     6
 40
1.240299999999999
 49
0.6614
 74
     0
 49
-0.0827
 74
     0
 49
0.1654
 74
     0
 49
-0.0827
 74
     0
 49
0.1654
 74
     0
 49
-0.0827
 74
     0
  0
LTYPE
  5
7D
330
5
100
AcDbSymbolTableRecord
100
AcDbLinetypeTableRecord
  2
CHAIN
 70
     0
  3
Chain ____ _ ____ _ ____ _ ____ _ ____ _ ____
 72
    65
 73
     4
 40
0.7087
 49
0.4724000000000001
 74
     0
 49
-0.0591
 74
     0
 49
0.1181
 74
     0
 49
-0.0591
 74
     0
  0
LTYPE
  5
7E
330
5
100
AcDbSymbolTableRecord
100
AcDbLinetypeTableRecord
  2
DASH_DOT
 70
     0
  3
Dash dot __ . __ . __ . __ . __ . __ . __ . __
 72
    65
 73
     4
 40
0.37
 49
0.24
 74
     0
 49
-0.06
 74
     0
 49
0.01
 74
     0
 49
-0.06
 74
     0
  0
LTYPE
  5
7F
330
5
100
AcDbSymbolTableRecord
100
AcDbLinetypeTableRecord
  2
DOUBLE_DASH_DOT
 70
     0
  3
Double-Dash Dot __ __ . __ __ . __ __ . __ _
 72
    65
 73
     6
 40
0.4398
 49
0.24
 74
     0
 49
-0.06
 74
     0
 49
0.0098
 74
     0
 49
-0.06
 74
     0
 49
0.01
 74
     0
 49
-0.06
 74
     0
  0
LTYPE
  5
80
330
5
100
AcDbSymbolTableRecord
100
AcDbLinetypeTableRecord
  2
DASH_TRIPLE_DOT
 70
     0
  3
Dash Triple-Dot _ . . . _ . . . _ . . . _
 72
    65
 73
     8
 40
0.51
 49
0.24
 74
     0
 49
-0.06
 74
     0
 49
0.01
 74
     0
 49
-0.06
 74
     0
 49
0.01
 74
     0
 49
-0.06
 74
     0
 49
0.01
 74
     0
 49
-0.06
 74
     0
  0
LTYPE
  5
81
330
5
100
AcDbSymbolTableRecord
100
AcDbLinetypeTableRecord
  2
DASHED
 70
     0
  3
Dashed __ __ __ __ __ __ __ __ __ __ __ __ __ _
 72
    65
 73
     2
 40
0.2067
 49
0.1654
 74
     0
 49
-0.0413
 74
     0
  0
LTYPE
  5
82
330
5
100
AcDbSymbolTableRecord
100
AcDbLinetypeTableRecord
  2
DASH_DOUBLE_DOT
 70
     0
  3
Dash Double-Dot __ . . __ . . __ . . __ . .
 72
    65
 73
     6
 40
0.4398
 49
0.24
 74
     0
 49
-0.06
 74
     0
 49
0.0098
 74
     0
 49
-0.06
 74
     0
 49
0.01
 74
     0
 49
-0.06
 74
     0
  0
LTYPE
  5
83
330
5
100
AcDbSymbolTableRecord
100
AcDbLinetypeTableRecord
  2
DASHED_SPACE
 70
     0
  3
Dashed Space __ __ __ __ __ __ __ __ __ __ __ _
 72
    65
 73
     2
 40
0.2067
 49
0.1654
 74
     0
 49
-0.0413
 74
     0
  0
LTYPE
  5
84
330
5
100
AcDbSymbolTableRecord
100
AcDbLinetypeTableRecord
  2
DOTTED
 70
     0
  3
Dotted . . . . . . . . . . . . . . . . . . . . 
 72
    65
 73
     2
 40
0.0482
 49
0.0069
 74
     0
 49
-0.0413
 74
     0
  0
LTYPE
  5
85
330
5
100
AcDbSymbolTableRecord
100
AcDbLinetypeTableRecord
  2
DOUBLE_DASH_CHAIN
 70
     0
  3
Double-Dash Chain ______  __  __  ______  __  _
 72
    65
 73
     6
 40
1.240299999999999
 49
0.6614
 74
     0
 49
-0.0827
 74
     0
 49
0.1654
 74
     0
 49
-0.0827
 74
     0
 49
0.1654
 74
     0
 49
-0.0827
 74
     0
  0
LTYPE
  5
87
330
5
100
AcDbSymbolTableRecord
100
AcDbLinetypeTableRecord
  2
DOUBLE_DASH_DOUBLE_DOT
 70
     0
  3
Double-Dash Double-dot _ _ . . _ _ . . _
 72
    65
 73
     8
 40
0.7400000000000001
 49
0.24
 74
     0
 49
-0.06
 74
     0
 49
0.24
 74
     0
 49
-0.06
 74
     0
 49
0.01
 74
     0
 49
-0.06
 74
     0
 49
0.01
 74
     0
 49
-0.06
 74
     0
  0
LTYPE
  5
88
330
5
100
AcDbSymbolTableRecord
100
AcDbLinetypeTableRecord
  2
DOUBLE_DASH_TRIPLE_DOT
 70
     0
  3
Double Dash Triple Dot __ __ . . . __ __ . .
 72
    65
 73
    10
 40
0.8100000000000001
 49
0.24
 74
     0
 49
-0.06
 74
     0
 49
0.24
 74
     0
 49
-0.06
 74
     0
 49
0.01
 74
     0
 49
-0.06
 74
     0
 49
0.01
 74
     0
 49
-0.06
 74
     0
 49
0.01
 74
     0
 49
-0.06
 74
     0
  0
LTYPE
  5
89
330
5
100
AcDbSymbolTableRecord
100
AcDbLinetypeTableRecord
  2
LONG_DASH_DOTTED
 70
     0
  3
Long Dash Dotted ____ . ____ . ____ . ____ . _
 72
    65
 73
     4
 40
0.3543
 49
0.2362
 74
     0
 49
-0.0295
 74
     0
 49
0.0591
 74
     0
 49
-0.0295
 74
     0
  0
LTYPE
  5
8A
330
5
100
AcDbSymbolTableRecord
100
AcDbLinetypeTableRecord
  2
LONG_DASH_DOUBLE_DOT
 70
     0
  3
Long Dash Double Dot ________  .  .  ________  
 72
    65
 73
     6
 40
0.6799999999999999
 49
0.48
 74
     0
 49
-0.06
 74
     0
 49
0.01
 74
     0
 49
-0.06
 74
     0
 49
0.01
 74
     0
 49
-0.06
 74
     0
  0
LTYPE
  5
8B
330
5
100
AcDbSymbolTableRecord
100
AcDbLinetypeTableRecord
  2
LONG_DASH_TRIPLE_DOT
 70
     0
  3
Long Dash Triple Dot ____ ... ____ ... ____
 72
    65
 73
     8
 40
0.3689
 49
0.2362
 74
     0
 49
-0.0295
 74
     0
 49
0.0049
 74
     0
 49
-0.0295
 74
     0
 49
0.0049
 74
     0
 49
-0.0295
 74
     0
 49
0.0049
 74
     0
 49
-0.0295
 74
     0
  0
LTYPE
  5
8C
330
5
100
AcDbSymbolTableRecord
100
AcDbLinetypeTableRecord
  2
BORDER
 70
     0
  3
Border __ __ . __ __ . __ __ . __ __ . __ __ .
 72
    65
 73
     6
 40
1.75
 49
0.5
 74
     0
 49
-0.25
 74
     0
 49
0.5
 74
     0
 49
-0.25
 74
     0
 49
0.0
 74
     0
 49
-0.25
 74
     0
  0
LTYPE
  5
8D
330
5
100
AcDbSymbolTableRecord
100
AcDbLinetypeTableRecord
  2
BORDER2
 70
     0
  3
Border (.5x) __.__.__.__.__.__.__.__.__.__.__.
 72
    65
 73
     6
 40
0.875
 49
0.25
 74
     0
 49
-0.125
 74
     0
 49
0.25
 74
     0
 49
-0.125
 74
     0
 49
0.0
 74
     0
 49
-0.125
 74
     0
  0
LTYPE
  5
8E
330
5
100
AcDbSymbolTableRecord
100
AcDbLinetypeTableRecord
  2
BORDERX2
 70
     0
  3
Border (2x) ____  ____  .  ____  ____  .  ___
 72
    65
 73
     6
 40
3.5
 49
1.0
 74
     0
 49
-0.5
 74
     0
 49
1.0
 74
     0
 49
-0.5
 74
     0
 49
0.0
 74
     0
 49
-0.5
 74
     0
  0
LTYPE
  5
8F
330
5
100
AcDbSymbolTableRecord
100
AcDbLinetypeTableRecord
  2
CENTER
 70
     0
  3
Center ____ _ ____ _ ____ _ ____ _ ____ _ ____
 72
    65
 73
     4
 40
2.0
 49
1.25
 74
     0
 49
-0.25
 74
     0
 49
0.25
 74
     0
 49
-0.25
 74
     0
  0
LTYPE
  5
90
330
5
100
AcDbSymbolTableRecord
100
AcDbLinetypeTableRecord
  2
CENTER2
 70
     0
  3
Center (.5x) ___ _ ___ _ ___ _ ___ _ ___ _ ___
 72
    65
 73
     4
 40
1.125
 49
0.75
 74
     0
 49
-0.125
 74
     0
 49
0.125
 74
     0
 49
-0.125
 74
     0
  0
LTYPE
  5
91
330
5
100
AcDbSymbolTableRecord
100
AcDbLinetypeTableRecord
  2
CENTERX2
 70
     0
  3
Center (2x) ________  __  ________  __  _____
 72
    65
 73
     4
 40
4.0
 49
2.5
 74
     0
 49
-0.5
 74
     0
 49
0.5
 74
     0
 49
-0.5
 74
     0
  0
LTYPE
  5
92
330
5
100
AcDbSymbolTableRecord
100
AcDbLinetypeTableRecord
  2
DASHDOT2
 70
     0
  3
Dash dot (.5x) _._._._._._._._._._._._._._._.
 72
    65
 73
     4
 40
0.5
 49
0.25
 74
     0
 49
-0.125
 74
     0
 49
0.0
 74
     0
 49
-0.125
 74
     0
  0
LTYPE
  5
93
330
5
100
AcDbSymbolTableRecord
100
AcDbLinetypeTableRecord
  2
DASHDOTX2
 70
     0
  3
Dash dot (2x) ____  .  ____  .  ____  .  ___
 72
    65
 73
     4
 40
2.0
 49
1.0
 74
     0
 49
-0.5
 74
     0
 49
0.0
 74
     0
 49
-0.5
 74
     0
  0
LTYPE
  5
95
330
5
100
AcDbSymbolTableRecord
100
AcDbLinetypeTableRecord
  2
DASHED2
 70
     0
  3
Dashed (.5x) _ _ _ _ _ _ _ _ _ _ _ _ _ _ _ _ _
 72
    65
 73
     2
 40
0.375
 49
0.25
 74
     0
 49
-0.125
 74
     0
  0
LTYPE
  5
96
330
5
100
AcDbSymbolTableRecord
100
AcDbLinetypeTableRecord
  2
DASHEDX2
 70
     0
  3
Dashed (2x) ____  ____  ____  ____  ____  ___
 72
    65
 73
     2
 40
1.5
 49
1.0
 74
     0
 49
-0.5
 74
     0
  0
LTYPE
  5
97
330
5
100
AcDbSymbolTableRecord
100
AcDbLinetypeTableRecord
  2
DIVIDE
 70
     0
  3
Divide ____ . . ____ . . ____ . . ____ . . ____
 72
    65
 73
     6
 40
1.25
 49
0.5
 74
     0
 49
-0.25
 74
     0
 49
0.0
 74
     0
 49
-0.25
 74
     0
 49
0.0
 74
     0
 49
-0.25
 74
     0
  0
LTYPE
  5
98
330
5
100
AcDbSymbolTableRecord
100
AcDbLinetypeTableRecord
  2
DIVIDE2
 70
     0
  3
Divide (.5x) __..__..__..__..__..__..__..__.._
 72
    65
 73
     6
 40
0.625
 49
0.25
 74
     0
 49
-0.125
 74
     0
 49
0.0
 74
     0
 49
-0.125
 74
     0
 49
0.0
 74
     0
 49
-0.125
 74
     0
  0
LTYPE
  5
99
330
5
100
AcDbSymbolTableRecord
100
AcDbLinetypeTableRecord
  2
DIVIDEX2
 70
     0
  3
Divide (2x) ________  .  .  ________  .  .  _
 72
    65
 73
     6
 40
2.5
 49
1.0
 74
     0
 49
-0.5
 74
     0
 49
0.0
 74
     0
 49
-0.5
 74
     0
 49
0.0
 74
     0
 49
-0.5
 74
     0
  0
LTYPE
  5
9A
330
5
100
AcDbSymbolTableRecord
100
AcDbLinetypeTableRecord
  2
DOT
 70
     0
  3
Dot . . . . . . . . . . . . . . . . . . . . . .
 72
    65
 73
     2
 40
0.25
 49
0.0
 74
     0
 49
-0.25
 74
     0
  0
LTYPE
  5
9B
330
5
100
AcDbSymbolTableRecord
100
AcDbLinetypeTableRecord
  2
DOT2
 70
     0
  3
Dot (.5x) .....................................
 72
    65
 73
     2
 40
0.125
 49
0.0
 74
     0
 49
-0.125
 74
     0
  0
LTYPE
  5
9C
330
5
100
AcDbSymbolTableRecord
100
AcDbLinetypeTableRecord
  2
DOTX2
 70
     0
  3
Dot (2x) .  .  .  .  .  .  .  .  .  .  .  .  . 
 72
    65
 73
     2
 40
0.5
 49
0.0
 74
     0
 49
-0.5
 74
     0
  0
LTYPE
  5
9D
330
5
100
AcDbSymbolTableRecord
100
AcDbLinetypeTableRecord
  2
HIDDEN
 70
     0
  3
Hidden __ __ __ __ __ __ __ __ __ __ __ __ __ _
 72
    65
 73
     2
 40
0.375
 49
0.25
 74
     0
 49
-0.125
 74
     0
  0
LTYPE
  5
9E
330
5
100
AcDbSymbolTableRecord
100
AcDbLinetypeTableRecord
  2
HIDDEN2
 70
     0
  3
Hidden (.5x) _ _ _ _ _ _ _ _ _ _ _ _ _ _ _ _ _
 72
    65
 73
     2
 40
0.1875
 49
0.125
 74
     0
 49
-0.0625
 74
     0
  0
LTYPE
  5
9F
330
5
100
AcDbSymbolTableRecord
100
AcDbLinetypeTableRecord
  2
HIDDENX2
 70
     0
  3
Hidden (2x) ____ ____ ____ ____ ____ ____ ____
 72
    65
 73
     2
 40
0.75
 49
0.5
 74
     0
 49
-0.25
 74
     0
  0
LTYPE
  5
A0
330
5
100
AcDbSymbolTableRecord
100
AcDbLinetypeTableRecord
  2
PHANTOM
 70
     0
  3
Phantom ______  __  __  ______  __  __  ______
 72
    65
 73
     6
 40
2.5
 49
1.25
 74
     0
 49
-0.25
 74
     0
 49
0.25
 74
     0
 49
-0.25
 74
     0
 49
0.25
 74
     0
 49
-0.25
 74
     0
  0
LTYPE
  5
A1
330
5
100
AcDbSymbolTableRecord
100
AcDbLinetypeTableRecord
  2
PHANTOM2
 70
     0
  3
Phantom (.5x) ___ _ _ ___ _ _ ___ _ _ ___ _ _
 72
    65
 73
     6
 40
1.25
 49
0.625
 74
     0
 49
-0.125
 74
     0
 49
0.125
 74
     0
 49
-0.125
 74
     0
 49
0.125
 74
     0
 49
-0.125
 74
     0
  0
LTYPE
  5
A2
330
5
100
AcDbSymbolTableRecord
100
AcDbLinetypeTableRecord
  2
PHANTOMX2
 70
     0
  3
Phantom (2x) ____________    ____    ____   _
 72
    65
 73
     6
 40
5.0
 49
2.5
 74
     0
 49
-0.5
 74
     0
 49
0.5
 74
     0
 49
-0.5
 74
     0
 49
0.5
 74
     0
 49
-0.5
 74
     0
  0
LTYPE
  5
A3
330
5
100
AcDbSymbolTableRecord
100
AcDbLinetypeTableRecord
  2
ACAD_ISO02W100
 70
     0
  3
ISO dash __ __ __ __ __ __ __ __ __ __ __ __ __
 72
    65
 73
     2
 40
0.59
 49
0.47
 74
     0
 49
-0.12
 74
     0
  0
LTYPE
  5
A4
330
5
100
AcDbSymbolTableRecord
100
AcDbLinetypeTableRecord
  2
ACAD_ISO03W100
 70
     0
  3
ISO dash space __    __    __    __    __    __
 72
    65
 73
     2
 40
1.179999999999999
 49
0.47
 74
     0
 49
-0.71
 74
     0
  0
LTYPE
  5
A5
330
5
100
AcDbSymbolTableRecord
100
AcDbLinetypeTableRecord
  2
ACAD_ISO04W100
 70
     0
  3
ISO long-dash dot ____ . ____ . ____ . ____ . _
 72
    65
 73
     4
 40
1.179999999999999
 49
0.9399999999999998
 74
     0
 49
-0.12
 74
     0
 49
0.0
 74
     0
 49
-0.12
 74
     0
  0
LTYPE
  5
A6
330
5
100
AcDbSymbolTableRecord
100
AcDbLinetypeTableRecord
  2
ACAD_ISO05W100
 70
     0
  3
ISO long-dash double-dot ____ .. ____ .. ____ .
 72
    65
 73
     6
 40
1.299999999999999
 49
0.9399999999999998
 74
     0
 49
-0.12
 74
     0
 49
0.0
 74
     0
 49
-0.12
 74
     0
 49
0.0
 74
     0
 49
-0.12
 74
     0
  0
LTYPE
  5
A7
330
5
100
AcDbSymbolTableRecord
100
AcDbLinetypeTableRecord
  2
ACAD_ISO06W100
 70
     0
  3
ISO long-dash triple-dot ____ ... ____ ... ____
 72
    65
 73
     8
 40
1.419999999999999
 49
0.9399999999999998
 74
     0
 49
-0.12
 74
     0
 49
0.0
 74
     0
 49
-0.12
 74
     0
 49
0.0
 74
     0
 49
-0.12
 74
     0
 49
0.0
 74
     0
 49
-0.12
 74
     0
  0
LTYPE
  5
A8
330
5
100
AcDbSymbolTableRecord
100
AcDbLinetypeTableRecord
  2
ACAD_ISO07W100
 70
     0
  3
ISO dot . . . . . . . . . . . . . . . . . . . .
 72
    65
 73
     2
 40
0.12
 49
0.0
 74
     0
 49
-0.12
 74
     0
  0
LTYPE
  5
A9
330
5
100
AcDbSymbolTableRecord
100
AcDbLinetypeTableRecord
  2
ACAD_ISO08W100
 70
     0
  3
ISO long-dash short-dash ____ __ ____ __ ____ _
 72
    65
 73
     4
 40
0.95
 49
0.47
 74
     0
 49
-0.12
 74
     0
 49
0.24
 74
     0
 49
-0.12
 74
     0
  0
LTYPE
  5
AA
330
5
100
AcDbSymbolTableRecord
100
AcDbLinetypeTableRecord
  2
ACAD_ISO09W100
 70
     0
  3
ISO long-dash double-short-dash ____ __ __ ____
 72
    65
 73
     6
 40
1.31
 49
0.47
 74
     0
 49
-0.12
 74
     0
 49
0.24
 74
     0
 49
-0.12
 74
     0
 49
0.24
 74
     0
 49
-0.12
 74
     0
  0
LTYPE
  5
AB
330
5
100
AcDbSymbolTableRecord
100
AcDbLinetypeTableRecord
  2
ACAD_ISO10W100
 70
     0
  3
ISO dash dot __ . __ . __ . __ . __ . __ . __ .
 72
    65
 73
     4
 40
0.71
 49
0.47
 74
     0
 49
-0.12
 74
     0
 49
0.0
 74
     0
 49
-0.12
 74
     0
  0
LTYPE
  5
AC
330
5
100
AcDbSymbolTableRecord
100
AcDbLinetypeTableRecord
  2
ACAD_ISO11W100
 70
     0
  3
ISO double-dash dot __ __ . __ __ . __ __ . __ 
 72
    65
 73
     6
 40
1.299999999999999
 49
0.47
 74
     0
 49
-0.12
 74
     0
 49
0.47
 74
     0
 49
-0.12
 74
     0
 49
0.0
 74
     0
 49
-0.12
 74
     0
  0
LTYPE
  5
AD
330
5
100
AcDbSymbolTableRecord
100
AcDbLinetypeTableRecord
  2
ACAD_ISO12W100
 70
     0
  3
ISO dash double-dot __ . . __ . . __ . . __ . .
 72
    65
 73
     6
 40
0.8299999999999998
 49
0.47
 74
     0
 49
-0.12
 74
     0
 49
0.0
 74
     0
 49
-0.12
 74
     0
 49
0.0
 74
     0
 49
-0.12
 74
     0
  0
LTYPE
  5
AE
330
5
100
AcDbSymbolTableRecord
100
AcDbLinetypeTableRecord
  2
ACAD_ISO13W100
 70
     0
  3
ISO double-dash double-dot __ __ . . __ __ . . 
 72
    65
 73
     8
 40
1.419999999999999
 49
0.47
 74
     0
 49
-0.12
 74
     0
 49
0.47
 74
     0
 49
-0.12
 74
     0
 49
0.0
 74
     0
 49
-0.12
 74
     0
 49
0.0
 74
     0
 49
-0.12
 74
     0
  0
LTYPE
  5
AF
330
5
100
AcDbSymbolTableRecord
100
AcDbLinetypeTableRecord
  2
ACAD_ISO14W100
 70
     0
  3
ISO dash triple-dot __ . . . __ . . . __ . . . 
 72
    65
 73
     8
 40
0.95
 49
0.47
 74
     0
 49
-0.12
 74
     0
 49
0.0
 74
     0
 49
-0.12
 74
     0
 49
0.0
 74
     0
 49
-0.12
 74
     0
 49
0.0
 74
     0
 49
-0.12
 74
     0
  0
LTYPE
  5
B0
330
5
100
AcDbSymbolTableRecord
100
AcDbLinetypeTableRecord
  2
ACAD_ISO15W100
 70
     0
  3
ISO double-dash triple-dot __ __ . . . __ __ . 
 72
    65
 73
    10
 40
1.539999999999999
 49
0.47
 74
     0
 49
-0.12
 74
     0
 49
0.47
 74
     0
 49
-0.12
 74
     0
 49
0.0
 74
     0
 49
-0.12
 74
     0
 49
0.0
 74
     0
 49
-0.12
 74
     0
 49
0.0
 74
     0
 49
-0.12
 74
     0
  0
LTYPE
  5
B3
330
5
100
AcDbSymbolTableRecord
100
AcDbLinetypeTableRecord
  2
FENCELINE1
 70
     0
  3
Fenceline circle ----0-----0----0-----0----0---
 72
    65
 73
     4
 40
1.45
 49
0.25
 74
     0
 49
-0.1
 74
     4
 75
   133
340
B2
 46
0.1
 50
0.0
 44
-0.1
 45
0.0
 49
-0.1
 74
     0
 49
1.0
 74
     0
  0
LTYPE
  5
B4
330
5
100
AcDbSymbolTableRecord
100
AcDbLinetypeTableRecord
  2
FENCELINE2
 70
     0
  3
Fenceline square ----[]-----[]----[]-----[]----
 72
    65
 73
     4
 40
1.45
 49
0.25
 74
     0
 49
-0.1
 74
     4
 75
   132
340
B2
 46
0.1
 50
0.0
 44
-0.1
 45
0.0
 49
-0.1
 74
     0
 49
1.0
 74
     0
  0
LTYPE
  5
B5
330
5
100
AcDbSymbolTableRecord
100
AcDbLinetypeTableRecord
  2
TRACKS
 70
     0
  3
Tracks -|-|-|-|-|-|-|-|-|-|-|-|-|-|-|-|-|-|-|-|
 72
    65
 73
     2
 40
0.3
 49
0.15
 74
     4
 75
   130
340
B2
 46
0.25
 50
0.0
 44
0.0
 45
0.0
 49
0.15
 74
     0
  0
LTYPE
  5
B6
330
5
100
AcDbSymbolTableRecord
100
AcDbLinetypeTableRecord
  2
BATTING
 70
     0
  3
Batting SSSSSSSSSSSSSSSSSSSSSSSSSSSSSSSSSSSSSSS
 72
    65
 73
     4
 40
0.4001000000000001
 49
0.0001
 74
     0
 49
-0.1
 74
     4
 75
   134
340
B2
 46
0.1
 50
0.0
 44
-0.1
 45
0.0
 49
-0.2
 74
     4
 75
   134
340
B2
 46
0.1
 50
180.0
 44
0.1
 45
0.0
 49
-0.1
 74
     0
  0
LTYPE
  5
B7
330
5
100
AcDbSymbolTableRecord
100
AcDbLinetypeTableRecord
  2
HOT_WATER_SUPPLY
 70
     0
  3
Hot water supply ---- HW ---- HW ---- HW ----
 72
    65
 73
     3
 40
0.9
 49
0.5
 74
     0
 49
-0.2
 74
     2
 75
     0
340
55
 46
0.1
 50
0.0
 44
-0.1
 45
-0.05
  9
HW
 49
-0.2
 74
     0
  0
LTYPE
  5
B8
330
5
100
AcDbSymbolTableRecord
100
AcDbLinetypeTableRecord
  2
GAS_LINE
 70
     0
  3
Gas line ----GAS----GAS----GAS----GAS----GAS---
 72
    65
 73
     3
 40
0.95
 49
0.5
 74
     0
 49
-0.2
 74
     2
 75
     0
340
55
 46
0.1
 50
0.0
 44
-0.1
 45
-0.05
  9
GAS
 49
-0.25
 74
     0
  0
LTYPE
  5
B9
330
5
100
AcDbSymbolTableRecord
100
AcDbLinetypeTableRecord
  2
ZIGZAG
 70
     0
  3
Zig zag /\/\/\/\/\/\/\/\/\/\/\/\/\/\/\/\/\/\/\/
 72
    65
 73
     4
 40
0.8001000000000001
 49
0.0001
 74
     0
 49
-0.2
 74
     4
 75
   131
340
B2
 46
0.2
 50
0.0
 44
-0.2
 45
0.0
 49
-0.4
 74
     4
 75
   131
340
B2
 46
0.2
 50
180.0
 44
0.2
 45
0.0
 49
-0.2
 74
     0
  0
ENDTAB
  0
TABLE
  2
LAYER
  5
2
330
0
100
AcDbSymbolTable
 70
    27
  0
LAYER
  5
54
330
2
100
AcDbSymbolTableRecord
100
AcDbLayerTableRecord
  2
0
 70
     0
 62
     7
  6
Continuous
370
    18
390
F
  0
LAYER
  5
C0
330
2
100
AcDbSymbolTableRecord
100
AcDbLayerTableRecord
  2
Center Mark (ANSI)
 70
     0
 62
     7
  6
Continuous
370
    15
390
F
  0
LAYER
  5
C1
330
2
100
AcDbSymbolTableRecord
100
AcDbLayerTableRecord
  2
Centerline (ANSI)
 70
     0
 62
     7
  6
Continuous
370
    15
390
F
  0
LAYER
  5
C3
330
2
100
AcDbSymbolTableRecord
100
AcDbLayerTableRecord
  2
Dimension (ANSI)
 70
     0
 62
     7
  6
Continuous
370
    13
390
F
  0
LAYER
  5
C5
330
2
100
AcDbSymbolTableRecord
100
AcDbLayerTableRecord
  2
Hidden (ANSI)
 70
     0
 62
     7
  6
DASHED
370
    15
390
F
  0
LAYER
  5
CB
330
2
100
AcDbSymbolTableRecord
100
AcDbLayerTableRecord
  2
Sketch Geometry (ANSI)
 70
     0
 62
     7
  6
Continuous
370
    20
390
F
  0
LAYER
  5
CC
330
2
100
AcDbSymbolTableRecord
100
AcDbLayerTableRecord
  2
Symbol (ANSI)
 70
     0
 62
     7
  6
Continuous
370
    18
390
F
  0
LAYER
  5
CF
330
2
100
AcDbSymbolTableRecord
100
AcDbLayerTableRecord
  2
Visible (ANSI)
 70
     0
 62
     7
  6
Continuous
370
    13
390
F
  0
LAYER
  5
D0
330
2
100
AcDbSymbolTableRecord
100
AcDbLayerTableRecord
  2
Visible Narrow (ANSI)
 70
     0
 62
     7
  6
Continuous
370
    18
390
F
  0
LAYER
  5
16F
330
2
100
AcDbSymbolTableRecord
100
AcDbLayerTableRecord
  2
Defpoints
 70
     0
 62
     7
  6
Continuous
290
     0
370
    -3
390
F
  0
ENDTAB
  0
TABLE
  2
STYLE
  5
3
330
0
100
AcDbSymbolTable
 70
    18
  0
STYLE
  5
55
330
3
100
AcDbSymbolTableRecord
100
AcDbTextStyleTableRecord
  2
Standard
 70
     0
 40
0.0
 41
1.0
 50
0.0
 71
     0
 42
0.2
  3
txt
  4

  0
STYLE
  5
5A
330
3
100
AcDbSymbolTableRecord
100
AcDbTextStyleTableRecord
  2
Annotative
 70
     0
 40
0.0
 41
1.0
 50
0.0
 71
     0
 42
0.2
  3
txt
  4

1001
AcadAnnotative
1000
AnnotativeData
1002
{
1070
     1
1070
     1
1002
}
  0
STYLE
  5
B2
330
3
100
AcDbSymbolTableRecord
100
AcDbTextStyleTableRecord
  2

 70
     1
 40
0.0
 41
1.0
 50
0.0
 71
     0
 42
0.2
  3
ltypeshp.shx
  4

  0
STYLE
  5
D4
330
3
100
AcDbSymbolTableRecord
100
AcDbTextStyleTableRecord
  2
ITALICC_120
 70
     0
 40
0.0
 41
1.0
 50
0.0
 71
     0
 42
0.2
  3
italicc.shx
  4

  0
STYLE
  5
D5
330
3
100
AcDbSymbolTableRecord
100
AcDbTextStyleTableRecord
  2
Label Text (ANSI)
 70
     0
 40
0.0
 41
1.0
 50
0.0
 71
     0
 42
0.2
  3
tahoma.ttf
  4

1001
ACAD
1000
Tahoma
1071
      256
  0
STYLE
  5
D6
330
3
100
AcDbSymbolTableRecord
100
AcDbTextStyleTableRecord
  2
Note Text (ANSI)
 70
     0
 40
0.0
 41
1.0
 50
0.0
 71
     0
 42
0.2
  3
tahoma.ttf
  4

1001
ACAD
1000
Tahoma
1071
      256
  0
STYLE
  5
D7
330
3
100
AcDbSymbolTableRecord
100
AcDbTextStyleTableRecord
  2
ROMANS
 70
     0
 40
0.0
 41
1.0
 50
0.0
 71
     0
 42
0.2
  3
romans.shx
  4

  0
STYLE
  5
D8
330
3
100
AcDbSymbolTableRecord
100
AcDbTextStyleTableRecord
  2
SANSSERIF_114
 70
     0
 40
0.0
 41
1.0
 50
0.0
 71
     0
 42
0.2
  3
tahoma.ttf
  4

1001
ACAD
1000
Tahoma
1071
      256
  0
STYLE
  5
D9
330
3
100
AcDbSymbolTableRecord
100
AcDbTextStyleTableRecord
  2
SANSSERIF_117
 70
     0
 40
0.0
 41
1.0
 50
0.0
 71
     0
 42
0.2
  3
tahoma.ttf
  4

1001
ACAD
1000
Tahoma
1071
      256
  0
STYLE
  5
DA
330
3
100
AcDbSymbolTableRecord
100
AcDbTextStyleTableRecord
  2
STANDARDAM_ANSI
 70
     0
 40
0.0
 41
1.0
 50
0.0
 71
     0
 42
0.2
  3
txt.shx
  4

  0
STYLE
  5
DB
330
3
100
AcDbSymbolTableRecord
100
AcDbTextStyleTableRecord
  2
StandardAM_ANSI$0
 70
     0
 40
0.0
 41
1.0
 50
0.0
 71
     0
 42
0.2
  3
txt.shx
  4

  0
STYLE
  5
DC
330
3
100
AcDbSymbolTableRecord
100
AcDbTextStyleTableRecord
  2
STANDARDAM_ANSI$3
 70
     0
 40
0.0
 41
1.0
 50
0.0
 71
     0
 42
0.2
  3
txt.shx
  4

  0
STYLE
  5
DD
330
3
100
AcDbSymbolTableRecord
100
AcDbTextStyleTableRecord
  2
STANDARDAM_ANSI$4
 70
     0
 40
0.0
 41
1.0
 50
0.0
 71
     0
 42
0.2
  3
txt.shx
  4

  0
STYLE
  5
DE
330
3
100
AcDbSymbolTableRecord
100
AcDbTextStyleTableRecord
  2
STANDARDAM_ANSI$7
 70
     0
 40
0.0
 41
1.0
 50
0.0
 71
     0
 42
0.2
  3
txt.shx
  4

  0
STYLE
  5
DF
330
3
100
AcDbSymbolTableRecord
100
AcDbTextStyleTableRecord
  2
STANDARDAM_ANSI$SF
 70
     0
 40
0.0
 41
1.0
 50
0.0
 71
     0
 42
0.2
  3
txt.shx
  4

  0
STYLE
  5
E0
330
3
100
AcDbSymbolTableRecord
100
AcDbTextStyleTableRecord
  2
STANDARDAM_ANSI$SH
 70
     0
 40
0.0
 41
1.0
 50
0.0
 71
     0
 42
0.2
  3
txt.shx
  4

  0
STYLE
  5
E1
330
3
100
AcDbSymbolTableRecord
100
AcDbTextStyleTableRecord
  2
STANDARDSTANDARD
 70
     0
 40
0.0
 41
1.0
 50
0.0
 71
     0
 42
0.2
  3
txt.shx
  4

  0
STYLE
  5
130
330
3
100
AcDbSymbolTableRecord
100
AcDbTextStyleTableRecord
  2
Text Style166
 70
     0
 40
0.0
 41
1.0
 50
0.0
 71
     0
 42
0.2
  3
tahoma.ttf
  4

1001
ACAD
1000
Tahoma
1071
      256
  0
ENDTAB
  0
TABLE
  2
VIEW
  5
6
330
0
100
AcDbSymbolTable
 70
     0
  0
ENDTAB
  0
TABLE
  2
UCS
  5
7
330
0
100
AcDbSymbolTable
 70
     0
  0
ENDTAB
  0
TABLE
  2
APPID
  5
9
330
0
100
AcDbSymbolTable
 70
     4
  0
APPID
  5
56
330
9
100
AcDbSymbolTableRecord
100
AcDbRegAppTableRecord
  2
ACAD
 70
     0
  0
APPID
  5
5E
330
9
100
AcDbSymbolTableRecord
100
AcDbRegAppTableRecord
  2
AcadAnnotative
 70
     0
  0
APPID
  5
5C4
330
9
100
AcDbSymbolTableRecord
100
AcDbRegAppTableRecord
  2
ACAD_DSTYLE_DIMRADIAL_EXTENSION
 70
     0
  0
APPID
  5
E9A
330
9
100
AcDbSymbolTableRecord
100
AcDbRegAppTableRecord
  2
ACAD_MLEADERVER
 70
     0
  0
ENDTAB
  0
TABLE
  2
DIMSTYLE
  5
A
330
0
100
AcDbSymbolTable
 70
    27
100
AcDbDimStyleTable
 71
     2
340
F6
340
58
  0
DIMSTYLE
105
58
330
A
100
AcDbSymbolTableRecord
100
AcDbDimStyleTableRecord
  2
STANDARD
 70
     0
 41
0.1800000071525573
 42
0.0625
140
0.1800000071525574
144
1.0
147
0.0900000035762787
176
   256
177
   256
178
   256
274
     3
340
55
371
    -1
372
    -1
  0
DIMSTYLE
105
59
330
A
100
AcDbSymbolTableRecord
100
AcDbDimStyleTableRecord
  2
Annotative
 70
     0
340
55
1001
AcadAnnotative
1000
AnnotativeData
1002
{
1070
     1
1070
     1
1002
}
  0
DIMSTYLE
105
E2
330
A
100
AcDbSymbolTableRecord
100
AcDbDimStyleTableRecord
  2
AM_ANSI
 70
     0
  4
 mm
 40
1.538461538461538
 41
0.119999997317791
 42
0.05
 43
0.5
 44
0.1
 45
0.00000001
 78
     4
 79
     2
140
0.1200000047683716
146
0.7099999189376831
147
0.0599999986588955
176
   256
177
   256
178
     2
284
     4
340
DA
371
    -1
372
    -1
  0
DIMSTYLE
105
E3
330
A
100
AcDbSymbolTableRecord
100
AcDbDimStyleTableRecord
  2
AM_ANSI$7
 70
     0
  4
 mm
 40
1.538461538461538
 41
0.119999997317791
 42
0.05
 43
0.5
 44
0.1
 45
0.00000001
 78
     4
 79
     2
140
0.1200000047683716
146
0.7099999189376831
147
0.0599999986588955
176
   256
177
   256
178
     2
284
     4
340
DA
371
    -1
372
    -1
  0
DIMSTYLE
105
E4
330
A
100
AcDbSymbolTableRecord
100
AcDbDimStyleTableRecord
  2
AM_ANSI$0
 70
     0
  4
 mm
 40
1.538461538461538
 41
0.119999997317791
 42
0.05
 43
0.5
 44
0.1
 45
0.00000001
 78
     4
 79
     2
140
0.1200000047683716
146
0.7099999189376831
147
0.0599999986588955
176
   256
177
   256
178
     2
284
     4
340
DB
371
    -1
372
    -1
  0
DIMSTYLE
105
E5
330
A
100
AcDbSymbolTableRecord
100
AcDbDimStyleTableRecord
  2
AM_ANSI$0$7
 70
     0
  4
 mm
 40
1.538461538461538
 41
0.119999997317791
 42
0.05
 43
0.5
 44
0.1
 45
0.00000001
 78
     4
 79
     2
140
0.1200000047683716
146
0.7099999189376831
147
0.0599999986588955
176
   256
177
   256
178
     2
284
     4
340
DB
371
    -1
372
    -1
  0
DIMSTYLE
105
E6
330
A
100
AcDbSymbolTableRecord
100
AcDbDimStyleTableRecord
  2
AM_ANSI$3
 70
     0
  4
 mm
 40
1.538461538461538
 41
0.119999997317791
 42
0.05
 43
0.5
 44
0.1
 45
0.00000001
 78
     4
 79
     2
140
0.1200000047683716
146
0.7099999189376831
147
0.0599999986588955
176
   256
177
   256
178
     2
284
     4
340
DC
371
    -1
372
    -1
  0
DIMSTYLE
105
E7
330
A
100
AcDbSymbolTableRecord
100
AcDbDimStyleTableRecord
  2
AM_ANSI$3$7
 70
     0
  4
 mm
 40
1.538461538461538
 41
0.119999997317791
 42
0.05
 43
0.5
 44
0.1
 45
0.00000001
 78
     4
 79
     2
140
0.1200000047683716
146
0.7099999189376831
147
0.0599999986588955
176
   256
177
   256
178
     2
284
     4
340
DC
371
    -1
372
    -1
  0
DIMSTYLE
105
E8
330
A
100
AcDbSymbolTableRecord
100
AcDbDimStyleTableRecord
  2
AM_ANSI$4
 70
     0
  4
 mm
 40
1.538461538461538
 41
0.119999997317791
 42
0.05
 43
0.5
 44
0.1
 45
0.00000001
 78
     4
 79
     2
140
0.1200000047683716
146
0.7099999189376831
147
0.0599999986588955
176
   256
177
   256
178
     2
284
     4
340
DD
371
    -1
372
    -1
  0
DIMSTYLE
105
E9
330
A
100
AcDbSymbolTableRecord
100
AcDbDimStyleTableRecord
  2
AM_ANSI$4$7
 70
     0
  4
 mm
 40
1.538461538461538
 41
0.119999997317791
 42
0.05
 43
0.5
 44
0.1
 45
0.00000001
 78
     4
 79
     2
140
0.1200000047683716
146
0.7099999189376831
147
0.0599999986588955
176
   256
177
   256
178
     2
284
     4
340
DD
371
    -1
372
    -1
  0
DIMSTYLE
105
EA
330
A
100
AcDbSymbolTableRecord
100
AcDbDimStyleTableRecord
  2
AM_ANSI$SF
 70
     0
  4
 mm
 40
1.538461538461538
 41
0.119999997317791
 42
0.05
 43
0.5
 44
0.1
 45
0.00000001
 75
     1
 76
     1
 78
     4
 79
     2
140
0.1200000047683716
146
0.7099999189376831
147
0.0599999986588955
176
   256
177
   256
178
     2
284
     4
340
DF
371
    -1
372
    -1
  0
DIMSTYLE
105
EB
330
A
100
AcDbSymbolTableRecord
100
AcDbDimStyleTableRecord
  2
AM_ANSI$SF$7
 70
     0
  4
 mm
 40
1.538461538461538
 41
0.119999997317791
 42
0.05
 43
0.5
 44
0.1
 45
0.00000001
 75
     1
 76
     1
 78
     4
 79
     2
140
0.1200000047683716
146
0.7099999189376831
147
0.0599999986588955
176
   256
177
   256
178
     2
284
     4
340
DF
371
    -1
372
    -1
  0
DIMSTYLE
105
EC
330
A
100
AcDbSymbolTableRecord
100
AcDbDimStyleTableRecord
  2
AM_ANSI$SH
 70
     0
  4
 mm
 40
1.538461538461538
 41
0.119999997317791
 42
0.05
 43
0.5
 44
0.1
 45
0.00000001
 75
     1
 76
     1
 78
     4
 79
     2
140
0.1200000047683716
146
0.7099999189376831
147
0.0599999986588955
176
   256
177
   256
178
     2
284
     4
340
E0
371
    -1
372
    -1
  0
DIMSTYLE
105
ED
330
A
100
AcDbSymbolTableRecord
100
AcDbDimStyleTableRecord
  2
AM_ANSI$SH$7
 70
     0
  4
 mm
 40
1.538461538461538
 41
0.119999997317791
 42
0.05
 43
0.5
 44
0.1
 45
0.00000001
 75
     1
 76
     1
 78
     4
 79
     2
140
0.1200000047683716
146
0.7099999189376831
147
0.0599999986588955
176
   256
177
   256
178
     2
284
     4
340
E0
371
    -1
372
    -1
  0
DIMSTYLE
105
EE
330
A
100
AcDbSymbolTableRecord
100
AcDbDimStyleTableRecord
  2
Architectural (ANSI)
 70
     0
 40
1.538461538461538
 41
0.0984251946210861
 43
0.2362204724409449
 44
0.125
 45
0.00000001
 46
0.3937007874015748
 78
     3
 79
     3
140
0.1200000047683716
147
0.031496062992126
171
     1
176
   256
177
   256
178
   256
272
     2
274
     1
276
     2
277
     4
284
    12
285
     4
286
    12
340
D6
371
    -1
372
    -1
  0
DIMSTYLE
105
EF
330
A
100
AcDbSymbolTableRecord
100
AcDbDimStyleTableRecord
  2
Architectural (ANSI)$7
 70
     0
 40
1.538461538461538
 41
0.0984251946210861
 43
0.2362204724409449
 44
0.125
 45
0.00000001
 46
0.3937007874015748
 78
     3
 79
     3
140
0.1200000047683716
147
0.031496062992126
171
     1
176
   256
177
   256
178
   256
272
     2
274
     1
276
     2
277
     4
284
    12
285
     4
286
    12
340
D6
371
    -1
372
    -1
  0
DIMSTYLE
105
F0
330
A
100
AcDbSymbolTableRecord
100
AcDbDimStyleTableRecord
  2
Default - Fraction (ANSI)
 70
     0
 40
1.538461538461538
 41
0.0984251946210861
 43
0.2362204724409449
 44
0.125
 45
0.00000001
 46
0.3937007874015748
 79
     3
140
0.1200000047683716
147
0.031496062992126
171
     1
176
   256
177
   256
178
   256
272
     2
274
     1
276
     2
277
     5
284
    12
285
     4
286
    12
340
D6
371
    -1
372
    -1
  0
DIMSTYLE
105
F1
330
A
100
AcDbSymbolTableRecord
100
AcDbDimStyleTableRecord
  2
Default - Fraction (ANSI)$7
 70
     0
 40
1.538461538461538
 41
0.0984251946210861
 43
0.2362204724409449
 44
0.125
 45
0.00000001
 46
0.3937007874015748
 79
     3
140
0.1200000047683716
147
0.031496062992126
171
     1
176
   256
177
   256
178
   256
272
     2
274
     1
276
     2
277
     5
284
    12
285
     4
286
    12
340
D6
371
    -1
372
    -1
  0
DIMSTYLE
105
F2
330
A
100
AcDbSymbolTableRecord
100
AcDbDimStyleTableRecord
  2
Default - mm (ANSI)
 70
     0
 40
1.538461538461538
 41
0.0984251946210861
 42
0.063
 43
0.2362204724409449
 44
0.125
 45
0.00000001
 46
0.3937007874015748
 73
     0
 78
     4
 79
     1
140
0.1200000047683716
143
1.0
144
25.4
147
0.031496062992126
171
     1
176
   256
177
   256
178
   256
179
     1
271
     2
272
     2
274
     1
284
     4
285
     4
340
D6
371
    -1
372
    -1
  0
DIMSTYLE
105
F3
330
A
100
AcDbSymbolTableRecord
100
AcDbDimStyleTableRecord
  2
Default - mm (ANSI)$7
 70
     0
 40
1.538461538461538
 41
0.0984251946210861
 42
0.063
 43
0.2362204724409449
 44
0.125
 45
0.00000001
 46
0.3937007874015748
 73
     0
 78
     4
 79
     1
140
0.1200000047683716
143
1.0
144
25.4
147
0.031496062992126
171
     1
176
   256
177
   256
178
   256
179
     1
271
     2
272
     2
274
     1
284
     4
285
     4
340
D6
371
    -1
372
    -1
  0
DIMSTYLE
105
F4
330
A
100
AcDbSymbolTableRecord
100
AcDbDimStyleTableRecord
  2
Default - mm [in] (ANSI)
 70
     0
  4
 in
 40
1.538461538461538
 41
0.0984251946210861
 42
0.063
 43
0.25
 44
0.125
 45
0.00000001
 46
0.3937007874015748
 73
     0
 78
     4
 79
     1
140
0.1200000047683716
143
0.03937
144
25.4
147
0.031496062992126
170
     1
171
     3
176
   256
177
   256
178
   256
179
     1
271
     2
272
     2
274
     3
284
     4
285
     4
286
     4
340
D6
371
    -1
372
    -1
  0
DIMSTYLE
105
F5
330
A
100
AcDbSymbolTableRecord
100
AcDbDimStyleTableRecord
  2
Default - mm [in] (ANSI)$7
 70
     0
  4
 in
 40
1.538461538461538
 41
0.0984251946210861
 42
0.063
 43
0.25
 44
0.125
 45
0.00000001
 46
0.3937007874015748
 73
     0
 78
     4
 79
     1
140
0.1200000047683716
143
0.03937
144
25.4
147
0.031496062992126
170
     1
171
     3
176
   256
177
   256
178
   256
179
     1
271
     2
272
     2
274
     3
284
     4
285
     4
286
     4
340
D6
371
    -1
372
    -1
  0
DIMSTYLE
105
F6
102
{ACAD_REACTORS
330
16D
330
259
330
343
330
42D
330
52A
330
5E5
330
6ED
330
7D7
330
8C1
330
9D1
330
ACF
330
BB8
330
CA2
330
D9C
102
}
330
A
100
AcDbSymbolTableRecord
100
AcDbDimStyleTableRecord
  2
Default (ANSI)
 70
     0
 40
1.538461538461538
 41
0.0984251946210861
 43
0.2362204724409449
 44
0.125
 45
0.00000001
 46
0.3937007874015748
 79
     1
140
0.1200000047683716
147
0.031496062992126
171
     1
176
   256
177
   256
178
   256
271
     2
272
     2
274
     1
284
     4
285
     4
340
D6
371
    -1
372
    -1
  0
DIMSTYLE
105
F7
330
A
100
AcDbSymbolTableRecord
100
AcDbDimStyleTableRecord
  2
Default (ANSI)$7
 70
     0
 40
1.538461538461538
 41
0.0984251946210861
 43
0.2362204724409449
 44
0.125
 45
0.00000001
 46
0.3937007874015748
 79
     1
140
0.1200000047683716
147
0.031496062992126
171
     1
176
   256
177
   256
178
   256
271
     2
272
     2
274
     1
284
     4
285
     4
340
D6
371
    -1
372
    -1
  0
DIMSTYLE
105
F8
330
A
100
AcDbSymbolTableRecord
100
AcDbDimStyleTableRecord
  2
Alternate (ANSI)
 70
     0
 40
1.538461538461538
 41
0.0979999974370003
340
55
342
F9
  0
DIMSTYLE
105
10B
330
A
100
AcDbSymbolTableRecord
100
AcDbDimStyleTableRecord
  2
Datum (ANSI)
 70
     0
 40
1.538461538461538
 41
0.0979999974370003
340
55
342
F9
  0
DIMSTYLE
105
11A
330
A
100
AcDbSymbolTableRecord
100
AcDbDimStyleTableRecord
  2
Large (ANSI)
 70
     0
 40
1.538461538461538
 41
0.1959999948740005
340
55
342
F9
  0
ENDTAB
  0
TABLE
  2
BLOCK_RECORD
  5
1
330
0
100
AcDbSymbolTable
 70
    18
  0
BLOCK_RECORD
  5
6C
330
1
100
AcDbSymbolTableRecord
100
AcDbBlockTableRecord
  2
*Model_Space
340
6F
  0
BLOCK_RECORD
  5
68
330
1
100
AcDbSymbolTableRecord
100
AcDbBlockTableRecord
  2
*Paper_Space
340
6B
  0
BLOCK_RECORD
  5
70
330
1
100
AcDbSymbolTableRecord
100
AcDbBlockTableRecord
  2
*Paper_Space0
340
73
  0
BLOCK_RECORD
  5
F9
330
1
100
AcDbSymbolTableRecord
100
AcDbBlockTableRecord
  2
_Closed
340
0
  0
BLOCK_RECORD
  5
100
330
1
100
AcDbSymbolTableRecord
100
AcDbBlockTableRecord
  2
DatumFilled45
340
0
  0
BLOCK_RECORD
  5
10C
330
1
100
AcDbSymbolTableRecord
100
AcDbBlockTableRecord
  2
Filled-1
340
0
  0
BLOCK_RECORD
  5
170
330
1
100
AcDbSymbolTableRecord
100
AcDbBlockTableRecord
  2
*D4
340
0
  0
BLOCK_RECORD
  5
25A
330
1
100
AcDbSymbolTableRecord
100
AcDbBlockTableRecord
  2
*D5
340
0
  0
BLOCK_RECORD
  5
344
330
1
100
AcDbSymbolTableRecord
100
AcDbBlockTableRecord
  2
*D6
340
0
  0
BLOCK_RECORD
  5
42E
330
1
100
AcDbSymbolTableRecord
100
AcDbBlockTableRecord
  2
*D7
340
0
  0
BLOCK_RECORD
  5
52B
330
1
100
AcDbSymbolTableRecord
100
AcDbBlockTableRecord
  2
*D8
340
0
  0
BLOCK_RECORD
  5
5E6
330
1
100
AcDbSymbolTableRecord
100
AcDbBlockTableRecord
  2
*D9
340
0
  0
BLOCK_RECORD
  5
6EE
330
1
100
AcDbSymbolTableRecord
100
AcDbBlockTableRecord
  2
*D10
340
0
  0
BLOCK_RECORD
  5
7D8
330
1
100
AcDbSymbolTableRecord
100
AcDbBlockTableRecord
  2
*D11
340
0
  0
BLOCK_RECORD
  5
8C2
330
1
100
AcDbSymbolTableRecord
100
AcDbBlockTableRecord
  2
*D12
340
0
  0
BLOCK_RECORD
  5
9D2
330
1
100
AcDbSymbolTableRecord
100
AcDbBlockTableRecord
  2
*D13
340
0
  0
BLOCK_RECORD
  5
AD0
330
1
100
AcDbSymbolTableRecord
100
AcDbBlockTableRecord
  2
*D14
340
0
  0
BLOCK_RECORD
  5
BB9
330
1
100
AcDbSymbolTableRecord
100
AcDbBlockTableRecord
  2
*D15
340
0
  0
BLOCK_RECORD
  5
CA3
330
1
100
AcDbSymbolTableRecord
100
AcDbBlockTableRecord
  2
*D16
340
0
  0
BLOCK_RECORD
  5
D9D
330
1
100
AcDbSymbolTableRecord
100
AcDbBlockTableRecord
  2
*D17
340
0
  0
ENDTAB
  0
ENDSEC
  0
SECTION
  2
BLOCKS
  0
BLOCK
  5
6D
330
6C
100
AcDbEntity
  8
0
100
AcDbBlockBegin
  2
*Model_Space
 70
     0
 10
0.0
 20
0.0
 30
0.0
  3
*Model_Space
  1

  0
ENDBLK
  5
6E
330
6C
100
AcDbEntity
  8
0
100
AcDbBlockEnd
  0
BLOCK
  5
69
330
68
100
AcDbEntity
 67
     1
  8
0
100
AcDbBlockBegin
  2
*Paper_Space
 70
     0
 10
0.0
 20
0.0
 30
0.0
  3
*Paper_Space
  1

  0
ENDBLK
  5
6A
330
68
100
AcDbEntity
 67
     1
  8
0
100
AcDbBlockEnd
  0
BLOCK
  5
71
330
70
100
AcDbEntity
 67
     1
  8
0
100
AcDbBlockBegin
  2
*Paper_Space0
 70
     0
 10
0.0
 20
0.0
 30
0.0
  3
*Paper_Space0
  1

  0
ENDBLK
  5
72
330
70
100
AcDbEntity
 67
     1
  8
0
100
AcDbBlockEnd
  0
BLOCK
  5
FE
330
F9
100
AcDbEntity
  8
0
100
AcDbBlockBegin
  2
_Closed
 70
     0
 10
0.0
 20
0.0
 30
0.0
  3
_Closed
  1

  0
LINE
  5
FA
330
F9
100
AcDbEntity
  8
0
  6
ByBlock
 62
     0
370
    -2
100
AcDbLine
 10
-1.0
 20
0.1666666666666666
 30
0.0
 11
0.0
 21
0.0
 31
0.0
  0
LINE
  5
FB
330
F9
100
AcDbEntity
  8
0
  6
ByBlock
 62
     0
370
    -2
100
AcDbLine
 10
0.0
 20
0.0
 30
0.0
 11
-1.0
 21
-0.1666666666666666
 31
0.0
  0
LINE
  5
FC
330
F9
100
AcDbEntity
  8
0
  6
ByBlock
 62
     0
370
    -2
100
AcDbLine
 10
-1.0
 20
0.1666666666666666
 30
0.0
 11
-1.0
 21
-0.1666666666666666
 31
0.0
  0
LINE
  5
FD
330
F9
100
AcDbEntity
  8
0
  6
ByBlock
 62
     0
370
    -2
100
AcDbLine
 10
0.0
 20
0.0
 30
0.0
 11
-1.0
 21
0.0
 31
0.0
  0
ENDBLK
  5
FF
330
F9
100
AcDbEntity
  8
0
100
AcDbBlockEnd
  0
BLOCK
  5
101
330
100
100
AcDbEntity
  8
0
100
AcDbBlockBegin
  2
DatumFilled45
 70
     0
 10
0.0
 20
0.0
 30
0.0
  3
DatumFilled45
  1

  0
POLYLINE
  5
103
330
100
100
AcDbEntity
  8
0
 62
     0
100
AcDb2dPolyline
 66
     1
 10
0.0
 20
0.0
 30
0.0
 70
   128
  0
VERTEX
  5
104
330
103
100
AcDbEntity
  8
0
 62
     0
100
AcDbVertex
100
AcDb2dVertex
 10
0.0
 20
0.9999999999999998
 30
0.0
  0
VERTEX
  5
105
330
103
100
AcDbEntity
  8
0
 62
     0
100
AcDbVertex
100
AcDb2dVertex
 10
0.0
 20
-0.9999999999999998
 30
0.0
  0
VERTEX
  5
107
330
103
100
AcDbEntity
  8
0
 62
     0
100
AcDbVertex
100
AcDb2dVertex
 10
-0.9999999999999998
 20
0.0
 30
0.0
  0
VERTEX
  5
108
330
103
100
AcDbEntity
  8
0
 62
     0
100
AcDbVertex
100
AcDb2dVertex
 10
0.0
 20
0.9999999999999998
 30
0.0
  0
SEQEND
  5
106
330
103
100
AcDbEntity
  8
0
 62
     0
  0
SOLID
  5
10A
330
100
100
AcDbEntity
  8
0
 62
     0
100
AcDbTrace
 10
0.0
 20
0.9999999999999998
 30
0.0
 11
0.0
 21
-0.9999999999999998
 31
0.0
 12
-0.9999999999999998
 22
0.0
 32
0.0
 13
0.0
 23
0.9999999999999998
 33
0.0
  0
ENDBLK
  5
102
330
100
100
AcDbEntity
  8
0
100
AcDbBlockEnd
  0
BLOCK
  5
10D
330
10C
100
AcDbEntity
  8
0
100
AcDbBlockBegin
  2
Filled-1
 70
     0
 10
0.0
 20
0.0
 30
0.0
  3
Filled-1
  1

  0
LINE
  5
10F
330
10C
100
AcDbEntity
  8
0
 62
     0
100
AcDbLine
 10
-0.9999999999999998
 20
0.0
 30
0.0
 11
0.0
 21
0.0
 31
0.0
  0
POLYLINE
  5
110
330
10C
100
AcDbEntity
  8
0
 62
     0
100
AcDb2dPolyline
 66
     1
 10
0.0
 20
0.0
 30
0.0
 70
   128
  0
VERTEX
  5
111
330
110
100
AcDbEntity
  8
0
 62
     0
100
AcDbVertex
100
AcDb2dVertex
 10
-0.9999999999999998
 20
-0.0994897959183674
 30
0.0
  0
VERTEX
  5
112
330
110
100
AcDbEntity
  8
0
 62
     0
100
AcDbVertex
100
AcDb2dVertex
 10
0.0
 20
0.0
 30
0.0
  0
VERTEX
  5
114
330
110
100
AcDbEntity
  8
0
 62
     0
100
AcDbVertex
100
AcDb2dVertex
 10
-0.9999999999999998
 20
0.0994897959183674
 30
0.0
  0
VERTEX
  5
115
330
110
100
AcDbEntity
  8
0
 62
     0
100
AcDbVertex
100
AcDb2dVertex
 10
-0.9999999999999998
 20
-0.0994897959183674
 30
0.0
  0
SEQEND
  5
113
330
110
100
AcDbEntity
  8
0
 62
     0
  0
SOLID
  5
116
330
10C
100
AcDbEntity
  8
0
 62
     0
100
AcDbTrace
 10
-0.9999999999999998
 20
-0.0994897959183674
 30
0.0
 11
0.0
 21
0.0
 31
0.0
 12
-0.9999999999999998
 22
0.0994897959183674
 32
0.0
 13
-0.9999999999999998
 23
-0.0994897959183674
 33
0.0
  0
LINE
  5
117
330
10C
100
AcDbEntity
  8
0
 62
     0
100
AcDbLine
 10
-0.9999999999999998
 20
-0.0994897959183674
 30
0.0
 11
0.0
 21
0.0
 31
0.0
  0
LINE
  5
118
330
10C
100
AcDbEntity
  8
0
 62
     0
100
AcDbLine
 10
0.0
 20
0.0
 30
0.0
 11
-0.9999999999999998
 21
0.0994897959183674
 31
0.0
  0
LINE
  5
119
330
10C
100
AcDbEntity
  8
0
 62
     0
100
AcDbLine
 10
-0.9999999999999998
 20
0.0994897959183674
 30
0.0
 11
-0.9999999999999998
 21
-0.0994897959183674
 31
0.0
  0
ENDBLK
  5
10E
330
10C
100
AcDbEntity
  8
0
100
AcDbBlockEnd
  0
BLOCK
  5
171
330
170
100
AcDbEntity
  8
0
100
AcDbBlockBegin
  2
*D4
 70
     1
 10
0.0
 20
0.0
 30
0.0
  3
*D4
  1

  0
LINE
  5
24F
330
170
100
AcDbEntity
  8
Dimension (ANSI)
440
 16777216
100
AcDbLine
 10
5.278517716490039
 20
5.595739518838914
 30
0.0
 11
3.738579664631375
 21
5.595739518838914
 31
0.0
  0
LINE
  5
250
330
170
100
AcDbEntity
  8
Dimension (ANSI)
440
 16777216
100
AcDbLine
 10
5.278517716490037
 20
11.84573951883891
 30
0.0
 11
3.738579664631377
 21
11.84573951883891
 31
0.0
  0
LINE
  5
251
330
170
100
AcDbEntity
  8
Dimension (ANSI)
440
 16777216
100
AcDbLine
 10
3.930887356939068
 20
5.747162895179046
 30
0.0
 11
3.930887356939068
 21
8.576132771004143
 31
0.0
  0
LINE
  5
252
330
170
100
AcDbEntity
  8
Dimension (ANSI)
440
 16777216
100
AcDbLine
 10
3.930887356939069
 20
11.69431614249878
 30
0.0
 11
3.930887356939068
 21
8.865346266673682
 31
0.0
  0
SOLID
  5
253
330
170
100
AcDbEntity
  8
Dimension (ANSI)
440
 16777216
100
AcDbTrace
 10
3.905650127549046
 20
5.747162895179046
 30
0.0
 11
3.95612458632909
 21
5.747162895179046
 31
0.0
 12
3.930887356939068
 22
5.595739518838914
 32
0.0
 13
3.930887356939068
 23
5.595739518838914
 33
0.0
  0
SOLID
  5
254
330
170
100
AcDbEntity
  8
Dimension (ANSI)
440
 16777216
100
AcDbTrace
 10
3.905650127549047
 20
11.69431614249878
 30
0.0
 11
3.956124586329091
 21
11.69431614249878
 31
0.0
 12
3.930887356939069
 22
11.84573951883891
 32
0.0
 13
3.930887356939069
 23
11.84573951883891
 33
0.0
  0
MTEXT
  5
255
330
170
100
AcDbEntity
  8
Dimension (ANSI)
440
 16777216
100
AcDbMText
 10
3.696429530260502
 20
8.816890785147336
 30
0.0
 40
0.1846153919513409
 41
0.0
 71
     1
 72
     1
  1
\A1;6.25
  7
Note Text (ANSI)
 73
     1
 44
1.0
  0
POINT
  5
256
330
170
100
AcDbEntity
  8
Defpoints
 62
     0
440
 16777216
100
AcDbPoint
 10
5.374671562643885
 20
5.595739518838914
 30
0.0
  0
POINT
  5
257
330
170
100
AcDbEntity
  8
Defpoints
 62
     0
440
 16777216
100
AcDbPoint
 10
5.374671562643883
 20
11.84573951883891
 30
0.0
  0
POINT
  5
258
330
170
100
AcDbEntity
  8
Defpoints
 62
     0
440
 16777216
100
AcDbPoint
 10
3.930887356939069
 20
11.84573951883891
 30
0.0
  0
ENDBLK
  5
172
330
170
100
AcDbEntity
  8
0
100
AcDbBlockEnd
  0
BLOCK
  5
25B
330
25A
100
AcDbEntity
  8
0
100
AcDbBlockBegin
  2
*D5
 70
     1
 10
0.0
 20
0.0
 30
0.0
  3
*D5
  1

  0
LINE
  5
339
330
25A
100
AcDbEntity
  8
Dimension (ANSI)
440
 16777216
100
AcDbLine
 10
5.374671562643883
 20
11.94189336499276
 30
0.0
 11
5.374671562643883
 21
13.62908771824826
 31
0.0
  0
LINE
  5
33A
330
25A
100
AcDbEntity
  8
Dimension (ANSI)
440
 16777216
100
AcDbLine
 10
11.62467156264388
 20
11.94189336499276
 30
0.0
 11
11.62467156264388
 21
13.62908771824826
 31
0.0
  0
LINE
  5
33B
330
25A
100
AcDbEntity
  8
Dimension (ANSI)
440
 16777216
100
AcDbLine
 10
5.526094938984016
 20
13.43678002594057
 30
0.0
 11
8.249779483417832
 21
13.43678002594057
 31
0.0
  0
LINE
  5
33C
330
25A
100
AcDbEntity
  8
Dimension (ANSI)
440
 16777216
100
AcDbLine
 10
11.47324818630375
 20
13.43678002594057
 30
0.0
 11
8.815606099827657
 21
13.43678002594057
 31
0.0
  0
SOLID
  5
33D
330
25A
100
AcDbEntity
  8
Dimension (ANSI)
440
 16777216
100
AcDbTrace
 10
5.526094938984016
 20
13.46201725533059
 30
0.0
 11
5.526094938984016
 21
13.41154279655055
 31
0.0
 12
5.374671562643883
 22
13.43678002594057
 32
0.0
 13
5.374671562643883
 23
13.43678002594057
 33
0.0
  0
SOLID
  5
33E
330
25A
100
AcDbEntity
  8
Dimension (ANSI)
440
 16777216
100
AcDbTrace
 10
11.47324818630375
 20
13.46201725533059
 30
0.0
 11
11.47324818630375
 21
13.41154279655055
 31
0.0
 12
11.62467156264388
 22
13.43678002594057
 32
0.0
 13
11.62467156264388
 23
13.43678002594057
 33
0.0
  0
MTEXT
  5
33F
330
25A
100
AcDbEntity
  8
Dimension (ANSI)
440
 16777216
100
AcDbMText
 10
8.29823496494418
 20
13.53293129224899
 30
0.0
 40
0.1846153919513409
 41
0.0
 71
     1
 72
     1
  1
\A1;6.25
  7
Note Text (ANSI)
 73
     1
 44
1.0
  0
POINT
  5
340
330
25A
100
AcDbEntity
  8
Defpoints
 62
     0
440
 16777216
100
AcDbPoint
 10
5.374671562643883
 20
11.84573951883891
 30
0.0
  0
POINT
  5
341
330
25A
100
AcDbEntity
  8
Defpoints
 62
     0
440
 16777216
100
AcDbPoint
 10
11.62467156264388
 20
11.84573951883891
 30
0.0
  0
POINT
  5
342
330
25A
100
AcDbEntity
  8
Defpoints
 62
     0
440
 16777216
100
AcDbPoint
 10
11.62467156264388
 20
13.43678002594057
 30
0.0
  0
ENDBLK
  5
25C
330
25A
100
AcDbEntity
  8
0
100
AcDbBlockEnd
  0
BLOCK
  5
345
330
344
100
AcDbEntity
  8
0
100
AcDbBlockBegin
  2
*D6
 70
     1
 10
0.0
 20
0.0
 30
0.0
  3
*D6
  1

  0
LINE
  5
423
330
344
100
AcDbEntity
  8
Dimension (ANSI)
440
 16777216
100
AcDbLine
 10
11.62467156264388
 20
11.94189336499276
 30
0.0
 11
11.62467156264388
 21
13.15159525243306
 31
0.0
  0
LINE
  5
424
330
344
100
AcDbEntity
  8
Dimension (ANSI)
440
 16777216
100
AcDbLine
 10
11.31167156264388
 20
11.94620105730045
 30
0.0
 11
11.31167156264388
 21
13.15159525243306
 31
0.0
  0
LINE
  5
425
330
344
100
AcDbEntity
  8
Dimension (ANSI)
440
 16777216
100
AcDbLine
 10
11.16024818630375
 20
12.95928756012537
 30
0.0
 11
11.00882480996361
 21
12.95928756012537
 31
0.0
  0
LINE
  5
426
330
344
100
AcDbEntity
  8
Dimension (ANSI)
440
 16777216
100
AcDbLine
 10
11.77609493898401
 20
12.95928756012537
 30
0.0
 11
12.27007007400278
 21
12.95928756012537
 31
0.0
  0
SOLID
  5
427
330
344
100
AcDbEntity
  8
Dimension (ANSI)
440
 16777216
100
AcDbTrace
 10
11.16024818630375
 20
12.98452478951539
 30
0.0
 11
11.16024818630375
 21
12.93405033073534
 31
0.0
 12
11.31167156264388
 22
12.95928756012537
 32
0.0
 13
11.31167156264388
 23
12.95928756012537
 33
0.0
  0
SOLID
  5
428
330
344
100
AcDbEntity
  8
Dimension (ANSI)
440
 16777216
100
AcDbTrace
 10
11.77609493898401
 20
12.98452478951539
 30
0.0
 11
11.77609493898401
 21
12.93405033073534
 31
0.0
 12
11.62467156264388
 22
12.95928756012537
 32
0.0
 13
11.62467156264388
 23
12.95928756012537
 33
0.0
  0
MTEXT
  5
429
330
344
100
AcDbEntity
  8
Dimension (ANSI)
440
 16777216
100
AcDbMText
 10
12.621857693535
 20
12.95928756012537
 30
0.0
 40
0.1846153919513409
 41
0.0
 71
     5
 72
     1
  1
\A1;0.313
  7
Note Text (ANSI)
 73
     1
 44
1.0
  0
POINT
  5
42A
330
344
100
AcDbEntity
  8
Defpoints
 62
     0
440
 16777216
100
AcDbPoint
 10
11.62467156264388
 20
11.84573951883891
 30
0.0
  0
POINT
  5
42B
330
344
100
AcDbEntity
  8
Defpoints
 62
     0
440
 16777216
100
AcDbPoint
 10
11.31167156264388
 20
11.8500472111466
 30
0.0
  0
POINT
  5
42C
330
344
100
AcDbEntity
  8
Defpoints
 62
     0
440
 16777216
100
AcDbPoint
 10
11.31167156264388
 20
12.95928756012537
 30
0.0
  0
ENDBLK
  5
346
330
344
100
AcDbEntity
  8
0
100
AcDbBlockEnd
  0
BLOCK
  5
42F
330
42E
100
AcDbEntity
  8
0
100
AcDbBlockBegin
  2
*D7
 70
     1
 10
0.0
 20
0.0
 30
0.0
  3
*D7
  1

  0
LINE
  5
51F
330
42E
100
AcDbEntity
  8
Dimension (ANSI)
440
 16777216
100
AcDbLine
 10
11.72082540879773
 20
11.84573951883891
 30
0.0
 11
12.3679517842155
 21
11.84573951883891
 31
0.0
  0
LINE
  5
520
330
42E
100
AcDbEntity
  8
Dimension (ANSI)
440
 16777216
100
AcDbLine
 10
11.56382540879773
 20
11.53273951883891
 30
0.0
 11
12.3679517842155
 21
11.53273951883891
 31
0.0
  0
LINE
  5
521
330
42E
100
AcDbEntity
  8
Dimension (ANSI)
440
 16777216
100
AcDbLine
 10
12.17564409190781
 20
11.38131614249878
 30
0.0
 11
12.17564409190781
 21
11.22989276615864
 31
0.0
  0
LINE
  5
522
330
42E
100
AcDbEntity
  8
Dimension (ANSI)
440
 16777216
100
AcDbLine
 10
12.17564409190781
 20
11.99716289517904
 30
0.0
 11
12.17564409190781
 21
12.30211075258352
 31
0.0
  0
LINE
  5
523
330
42E
100
AcDbEntity
  8
Dimension (ANSI)
440
 16777216
100
AcDbLine
 10
12.17564409190781
 20
12.30211075258352
 30
0.0
 11
12.32706746824794
 21
12.30211075258352
 31
0.0
  0
SOLID
  5
524
330
42E
100
AcDbEntity
  8
Dimension (ANSI)
440
 16777216
100
AcDbTrace
 10
12.15040686251779
 20
11.38131614249878
 30
0.0
 11
12.20088132129783
 21
11.38131614249878
 31
0.0
 12
12.17564409190781
 22
11.53273951883891
 32
0.0
 13
12.17564409190781
 23
11.53273951883891
 33
0.0
  0
SOLID
  5
525
330
42E
100
AcDbEntity
  8
Dimension (ANSI)
440
 16777216
100
AcDbTrace
 10
12.15040686251779
 20
11.99716289517904
 30
0.0
 11
12.20088132129783
 21
11.99716289517904
 31
0.0
 12
12.17564409190781
 22
11.84573951883891
 32
0.0
 13
12.17564409190781
 23
11.84573951883891
 33
0.0
  0
MTEXT
  5
526
330
42E
100
AcDbEntity
  8
Dimension (ANSI)
440
 16777216
100
AcDbMText
 10
12.37552294977429
 20
12.39826201889195
 30
0.0
 40
0.1846153919513409
 41
0.0
 71
     1
 72
     1
  1
\A1;0.313
  7
Note Text (ANSI)
 73
     1
 44
1.0
  0
POINT
  5
527
330
42E
100
AcDbEntity
  8
Defpoints
 62
     0
440
 16777216
100
AcDbPoint
 10
11.62467156264388
 20
11.84573951883891
 30
0.0
  0
POINT
  5
528
330
42E
100
AcDbEntity
  8
Defpoints
 62
     0
440
 16777216
100
AcDbPoint
 10
11.46767156264388
 20
11.53273951883891
 30
0.0
  0
POINT
  5
529
330
42E
100
AcDbEntity
  8
Defpoints
 62
     0
440
 16777216
100
AcDbPoint
 10
12.17564409190781
 20
11.53273951883891
 30
0.0
  0
ENDBLK
  5
430
330
42E
100
AcDbEntity
  8
0
100
AcDbBlockEnd
  0
BLOCK
  5
52C
330
52B
100
AcDbEntity
  8
0
100
AcDbBlockBegin
  2
*D8
 70
     1
 10
0.0
 20
0.0
 30
0.0
  3
*D8
  1

  0
LINE
  5
5DD
330
52B
100
AcDbEntity
  8
Dimension (ANSI)
440
 16777216
100
AcDbLine
 10
7.72111638685071
 20
5.06515684347774
 30
0.0
 11
7.531254238005317
 21
5.065156843477739
 31
0.0
  0
LINE
  5
5DE
330
52B
100
AcDbEntity
  8
Dimension (ANSI)
440
 16777216
100
AcDbLine
 10
7.531254238005317
 20
5.065156843477739
 30
0.0
 11
6.883132406532502
 21
5.713278674950355
 31
0.0
  0
MTEXT
  5
5DF
102
{ACAD_XDICTIONARY
360
E9B
102
}
330
52B
100
AcDbEntity
  8
Dimension (ANSI)
440
 16777216
100
AcDbMText
 10
7.769571868377057
 20
5.191855630417741
 30
0.0
 40
0.1846153919513409
 41
0.0
 71
     1
 72
     1
  1
\A1;\U+22050.250{\PGROUND HOLE}
  7
Note Text (ANSI)
 73
     1
 44
1.0
  0
SOLID
  5
5E0
330
52B
100
AcDbEntity
  8
Dimension (ANSI)
440
 16777216
100
AcDbTrace
 10
6.900977822572545
 20
5.731124090990403
 30
0.0
 11
6.86528699049246
 21
5.695433258910306
 31
0.0
 12
6.776059910292215
 22
5.820351171190608
 32
0.0
 13
6.776059910292215
 23
5.820351171190608
 33
0.0
  0
LINE
  5
5E1
330
52B
100
AcDbEntity
  8
Dimension (ANSI)
440
 16777216
100
AcDbLine
 10
6.549210024182346
 20
5.908739518838913
 30
0.0
 11
6.826133101105423
 21
5.908739518838912
 31
0.0
  0
LINE
  5
5E2
330
52B
100
AcDbEntity
  8
Dimension (ANSI)
440
 16777216
100
AcDbLine
 10
6.687671562643884
 20
5.770277980377373
 30
0.0
 11
6.687671562643884
 21
6.047201057300451
 31
0.0
  0
POINT
  5
5E3
330
52B
100
AcDbEntity
  8
Defpoints
 62
     0
440
 16777216
100
AcDbPoint
 10
6.776059910292215
 20
5.820351171190608
 30
0.0
  0
POINT
  5
5E4
330
52B
100
AcDbEntity
  8
Defpoints
 62
     0
440
 16777216
100
AcDbPoint
 10
6.599283214995553
 20
5.997127866487216
 30
0.0
  0
ENDBLK
  5
52D
330
52B
100
AcDbEntity
  8
0
100
AcDbBlockEnd
  0
BLOCK
  5
5E7
330
5E6
100
AcDbEntity
  8
0
100
AcDbBlockBegin
  2
*D9
 70
     1
 10
0.0
 20
0.0
 30
0.0
  3
*D9
  1

  0
LINE
  5
6E3
330
5E6
100
AcDbEntity
  8
Dimension (ANSI)
440
 16777216
100
AcDbLine
 10
16.93678082187303
 20
11.94189336499276
 30
0.0
 11
16.93678082187303
 21
12.64374073022595
 31
0.0
  0
LINE
  5
6E4
330
5E6
100
AcDbEntity
  8
Dimension (ANSI)
440
 16777216
100
AcDbLine
 10
17.01078082187303
 20
11.94189336499276
 30
0.0
 11
17.01078082187303
 21
12.64374073022595
 31
0.0
  0
LINE
  5
6E5
330
5E6
100
AcDbEntity
  8
Dimension (ANSI)
440
 16777216
100
AcDbLine
 10
17.16220419821317
 20
12.45143303791826
 30
0.0
 11
17.3136275745533
 21
12.45143303791826
 31
0.0
  0
LINE
  5
6E6
330
5E6
100
AcDbEntity
  8
Dimension (ANSI)
440
 16777216
100
AcDbLine
 10
16.7853574455329
 20
12.45143303791826
 30
0.0
 11
16.5247984293363
 21
12.45143303791826
 31
0.0
  0
SOLID
  5
6E7
330
5E6
100
AcDbEntity
  8
Dimension (ANSI)
440
 16777216
100
AcDbTrace
 10
17.16220419821317
 20
12.47667026730828
 30
0.0
 11
17.16220419821317
 21
12.42619580852824
 31
0.0
 12
17.01078082187303
 22
12.45143303791826
 32
0.0
 13
17.01078082187303
 23
12.45143303791826
 33
0.0
  0
SOLID
  5
6E8
330
5E6
100
AcDbEntity
  8
Dimension (ANSI)
440
 16777216
100
AcDbTrace
 10
16.7853574455329
 20
12.47667026730828
 30
0.0
 11
16.7853574455329
 21
12.42619580852824
 31
0.0
 12
16.93678082187303
 22
12.45143303791826
 32
0.0
 13
16.93678082187303
 23
12.45143303791826
 33
0.0
  0
MTEXT
  5
6E9
330
5E6
100
AcDbEntity
  8
Dimension (ANSI)
440
 16777216
100
AcDbMText
 10
15.77358939856928
 20
12.45143303791826
 30
0.0
 40
0.1846153919513409
 41
0.0
 71
     5
 72
     1
  1
\A1;{14 GA. C.R.S\P}(0.074)
  7
Note Text (ANSI)
 73
     1
 44
1.0
  0
POINT
  5
6EA
330
5E6
100
AcDbEntity
  8
Defpoints
 62
     0
440
 16777216
100
AcDbPoint
 10
16.93678082187303
 20
11.84573951883891
 30
0.0
  0
POINT
  5
6EB
330
5E6
100
AcDbEntity
  8
Defpoints
 62
     0
440
 16777216
100
AcDbPoint
 10
17.01078082187303
 20
11.84573951883891
 30
0.0
  0
POINT
  5
6EC
330
5E6
100
AcDbEntity
  8
Defpoints
 62
     0
440
 16777216
100
AcDbPoint
 10
17.01078082187303
 20
12.45143303791826
 30
0.0
  0
ENDBLK
  5
5E8
330
5E6
100
AcDbEntity
  8
0
100
AcDbBlockEnd
  0
BLOCK
  5
6EF
330
6EE
100
AcDbEntity
  8
0
100
AcDbBlockBegin
  2
*D10
 70
     1
 10
0.0
 20
0.0
 30
0.0
  3
*D10
  1

  0
LINE
  5
7CD
330
6EE
100
AcDbEntity
  8
Dimension (ANSI)
440
 16777216
100
AcDbLine
 10
5.62782540879773
 20
5.908739518838912
 30
0.0
 11
12.87116278008786
 21
5.90873951883891
 31
0.0
  0
LINE
  5
7CE
330
6EE
100
AcDbEntity
  8
Dimension (ANSI)
440
 16777216
100
AcDbLine
 10
5.627825408797727
 20
11.53273951883891
 30
0.0
 11
12.87116278008786
 21
11.53273951883891
 31
0.0
  0
LINE
  5
7CF
330
6EE
100
AcDbEntity
  8
Dimension (ANSI)
440
 16777216
100
AcDbLine
 10
12.67885508778016
 20
6.060162895179043
 30
0.0
 11
12.67885508778016
 21
8.576132771004139
 31
0.0
  0
LINE
  5
7D0
330
6EE
100
AcDbEntity
  8
Dimension (ANSI)
440
 16777216
100
AcDbLine
 10
12.67885508778016
 20
11.38131614249878
 30
0.0
 11
12.67885508778016
 21
8.865346266673679
 31
0.0
  0
SOLID
  5
7D1
330
6EE
100
AcDbEntity
  8
Dimension (ANSI)
440
 16777216
100
AcDbTrace
 10
12.65361785839014
 20
6.060162895179043
 30
0.0
 11
12.70409231717019
 21
6.060162895179043
 31
0.0
 12
12.67885508778016
 22
5.908739518838911
 32
0.0
 13
12.67885508778016
 23
5.908739518838911
 33
0.0
  0
SOLID
  5
7D2
330
6EE
100
AcDbEntity
  8
Dimension (ANSI)
440
 16777216
100
AcDbTrace
 10
12.65361785839014
 20
11.38131614249878
 30
0.0
 11
12.70409231717019
 21
11.38131614249878
 31
0.0
 12
12.67885508778016
 22
11.53273951883891
 32
0.0
 13
12.67885508778016
 23
11.53273951883891
 33
0.0
  0
MTEXT
  5
7D3
330
6EE
100
AcDbEntity
  8
Dimension (ANSI)
440
 16777216
100
AcDbMText
 10
12.37403511586623
 20
8.816890785147336
 30
0.0
 40
0.1846153919513409
 41
0.0
 71
     1
 72
     1
  1
\A1;5.624
  7
Note Text (ANSI)
 73
     1
 44
1.0
  0
POINT
  5
7D4
330
6EE
100
AcDbEntity
  8
Defpoints
 62
     0
440
 16777216
100
AcDbPoint
 10
5.531671562643884
 20
5.908739518838912
 30
0.0
  0
POINT
  5
7D5
330
6EE
100
AcDbEntity
  8
Defpoints
 62
     0
440
 16777216
100
AcDbPoint
 10
5.531671562643881
 20
11.53273951883891
 30
0.0
  0
POINT
  5
7D6
330
6EE
100
AcDbEntity
  8
Defpoints
 62
     0
440
 16777216
100
AcDbPoint
 10
12.67885508778016
 20
11.53273951883891
 30
0.0
  0
ENDBLK
  5
6F0
330
6EE
100
AcDbEntity
  8
0
100
AcDbBlockEnd
  0
BLOCK
  5
7D9
330
7D8
100
AcDbEntity
  8
0
100
AcDbBlockBegin
  2
*D11
 70
     1
 10
0.0
 20
0.0
 30
0.0
  3
*D11
  1

  0
LINE
  5
8B7
330
7D8
100
AcDbEntity
  8
Dimension (ANSI)
440
 16777216
100
AcDbLine
 10
5.687671562643881
 20
11.94620105730045
 30
0.0
 11
5.687671562643881
 21
13.15159525243306
 31
0.0
  0
LINE
  5
8B8
330
7D8
100
AcDbEntity
  8
Dimension (ANSI)
440
 16777216
100
AcDbLine
 10
11.31167156264388
 20
11.94620105730045
 30
0.0
 11
11.31167156264388
 21
13.15159525243306
 31
0.0
  0
LINE
  5
8B9
330
7D8
100
AcDbEntity
  8
Dimension (ANSI)
440
 16777216
100
AcDbLine
 10
5.839094938984014
 20
12.95928756012537
 30
0.0
 11
8.189365097783479
 21
12.95928756012537
 31
0.0
  0
LINE
  5
8BA
330
7D8
100
AcDbEntity
  8
Dimension (ANSI)
440
 16777216
100
AcDbLine
 10
11.16024818630375
 20
12.95928756012537
 30
0.0
 11
8.895916004664044
 21
12.95928756012537
 31
0.0
  0
SOLID
  5
8BB
330
7D8
100
AcDbEntity
  8
Dimension (ANSI)
440
 16777216
100
AcDbTrace
 10
5.839094938984014
 20
12.98452478951539
 30
0.0
 11
5.839094938984014
 21
12.93405033073534
 31
0.0
 12
5.687671562643881
 22
12.95928756012537
 32
0.0
 13
5.687671562643881
 23
12.95928756012537
 33
0.0
  0
SOLID
  5
8BC
330
7D8
100
AcDbEntity
  8
Dimension (ANSI)
440
 16777216
100
AcDbTrace
 10
11.16024818630375
 20
12.98452478951539
 30
0.0
 11
11.16024818630375
 21
12.93405033073534
 31
0.0
 12
11.31167156264388
 22
12.95928756012537
 32
0.0
 13
11.31167156264388
 23
12.95928756012537
 33
0.0
  0
MTEXT
  5
8BD
330
7D8
100
AcDbEntity
  8
Dimension (ANSI)
440
 16777216
100
AcDbMText
 10
8.237820579309826
 20
13.05543882643379
 30
0.0
 40
0.1846153919513409
 41
0.0
 71
     1
 72
     1
  1
\A1;5.624
  7
Note Text (ANSI)
 73
     1
 44
1.0
  0
POINT
  5
8BE
330
7D8
100
AcDbEntity
  8
Defpoints
 62
     0
440
 16777216
100
AcDbPoint
 10
5.687671562643881
 20
11.8500472111466
 30
0.0
  0
POINT
  5
8BF
330
7D8
100
AcDbEntity
  8
Defpoints
 62
     0
440
 16777216
100
AcDbPoint
 10
11.31167156264388
 20
11.8500472111466
 30
0.0
  0
POINT
  5
8C0
330
7D8
100
AcDbEntity
  8
Defpoints
 62
     0
440
 16777216
100
AcDbPoint
 10
11.31167156264388
 20
12.95928756012537
 30
0.0
  0
ENDBLK
  5
7DA
330
7D8
100
AcDbEntity
  8
0
100
AcDbBlockEnd
  0
BLOCK
  5
8C3
330
8C2
100
AcDbEntity
  8
0
100
AcDbBlockBegin
  2
*D12
 70
     1
 10
0.0
 20
0.0
 30
0.0
  3
*D12
  1

  0
LINE
  5
9A1
330
8C2
100
AcDbEntity
  8
Dimension (ANSI)
440
 16777216
100
AcDbLine
 10
5.687671562643883
 20
5.687585672685068
 30
0.0
 11
5.687671562643883
 21
4.763134262607643
 31
0.0
  0
LINE
  5
9A2
330
8C2
100
AcDbEntity
  8
Dimension (ANSI)
440
 16777216
100
AcDbLine
 10
6.687671562643883
 20
5.687585672685067
 30
0.0
 11
6.687671562643883
 21
4.763134262607643
 31
0.0
  0
LINE
  5
9A3
330
8C2
100
AcDbEntity
  8
Dimension (ANSI)
440
 16777216
100
AcDbLine
 10
5.53624818630375
 20
4.955441954915335
 30
0.0
 11
5.384824809963618
 21
4.955441954915335
 31
0.0
  0
LINE
  5
9A4
330
8C2
100
AcDbEntity
  8
Dimension (ANSI)
440
 16777216
100
AcDbLine
 10
6.839094938984016
 20
4.955441954915335
 30
0.0
 11
6.990518315324148
 21
4.955441954915335
 31
0.0
  0
SOLID
  5
9A5
330
8C2
100
AcDbEntity
  8
Dimension (ANSI)
440
 16777216
100
AcDbTrace
 10
5.53624818630375
 20
4.980679184305357
 30
0.0
 11
5.53624818630375
 21
4.930204725525313
 31
0.0
 12
5.687671562643883
 22
4.955441954915335
 32
0.0
 13
5.687671562643883
 23
4.955441954915335
 33
0.0
  0
SOLID
  5
9A6
330
8C2
100
AcDbEntity
  8
Dimension (ANSI)
440
 16777216
100
AcDbTrace
 10
6.839094938984016
 20
4.980679184305357
 30
0.0
 11
6.839094938984016
 21
4.930204725525313
 31
0.0
 12
6.687671562643883
 22
4.955441954915335
 32
0.0
 13
6.687671562643883
 23
4.955441954915335
 33
0.0
  0
MTEXT
  5
9A7
330
8C2
100
AcDbEntity
  8
Dimension (ANSI)
440
 16777216
100
AcDbMText
 10
5.891158663383286
 20
5.051531228144256
 30
0.0
 40
0.1846153919513409
 41
0.0
 71
     1
 72
     1
  1
\A1;1.000
  7
Note Text (ANSI)
 73
     1
 44
1.0
  0
POINT
  5
9A8
330
8C2
100
AcDbEntity
  8
Defpoints
 62
     0
440
 16777216
100
AcDbPoint
 10
5.687671562643883
 20
5.783739518838914
 30
0.0
  0
POINT
  5
9A9
330
8C2
100
AcDbEntity
  8
Defpoints
 62
     0
440
 16777216
100
AcDbPoint
 10
6.687671562643883
 20
5.783739518838913
 30
0.0
  0
POINT
  5
9AA
330
8C2
100
AcDbEntity
  8
Defpoints
 62
     0
440
 16777216
100
AcDbPoint
 10
6.687671562643883
 20
4.955441954915335
 30
0.0
  0
ENDBLK
  5
8C4
330
8C2
100
AcDbEntity
  8
0
100
AcDbBlockEnd
  0
BLOCK
  5
9D3
330
9D2
100
AcDbEntity
  8
0
100
AcDbBlockBegin
  2
*D13
 70
     1
 10
0.0
 20
0.0
 30
0.0
  3
*D13
  1

  0
LINE
  5
AC4
330
9D2
100
AcDbEntity
  8
Dimension (ANSI)
440
 16777216
100
AcDbLine
 10
5.463517716489994
 20
10.59573951883891
 30
0.0
 11
5.574322791327873
 21
10.59573951883891
 31
0.0
  0
LINE
  5
AC5
330
9D2
100
AcDbEntity
  8
Dimension (ANSI)
440
 16777216
100
AcDbLine
 10
5.463517716489994
 20
10.84573951883891
 30
0.0
 11
5.574322791327873
 21
10.84573951883891
 31
0.0
  0
LINE
  5
AC6
330
9D2
100
AcDbEntity
  8
Dimension (ANSI)
440
 16777216
100
AcDbLine
 10
5.38201509902018
 20
10.99716289517904
 30
0.0
 11
5.38201509902018
 21
11.14858627151918
 31
0.0
  0
LINE
  5
AC7
330
9D2
100
AcDbEntity
  8
Dimension (ANSI)
440
 16777216
100
AcDbLine
 10
5.38201509902018
 20
10.44431614249878
 30
0.0
 11
5.38201509902018
 21
10.07627338729928
 31
0.0
  0
LINE
  5
AC8
330
9D2
100
AcDbEntity
  8
Dimension (ANSI)
440
 16777216
100
AcDbLine
 10
5.38201509902018
 20
10.07627338729928
 30
0.0
 11
5.230591722680047
 21
10.07627338729928
 31
0.0
  0
SOLID
  5
AC9
330
9D2
100
AcDbEntity
  8
Dimension (ANSI)
440
 16777216
100
AcDbTrace
 10
5.356777869630158
 20
10.99716289517904
 30
0.0
 11
5.407252328410202
 21
10.99716289517904
 31
0.0
 12
5.38201509902018
 22
10.84573951883891
 32
0.0
 13
5.38201509902018
 23
10.84573951883891
 33
0.0
  0
SOLID
  5
ACA
330
9D2
100
AcDbEntity
  8
Dimension (ANSI)
440
 16777216
100
AcDbTrace
 10
5.356777869630158
 20
10.44431614249878
 30
0.0
 11
5.407252328410202
 21
10.44431614249878
 31
0.0
 12
5.38201509902018
 22
10.59573951883891
 32
0.0
 13
5.38201509902018
 23
10.59573951883891
 33
0.0
  0
MTEXT
  5
ACB
330
9D2
100
AcDbEntity
  8
Dimension (ANSI)
440
 16777216
100
AcDbMText
 10
4.571380421894782
 20
10.17242465360771
 30
0.0
 40
0.1846153919513409
 41
0.0
 71
     1
 72
     1
  1
\A1;0.250
  7
Note Text (ANSI)
 73
     1
 44
1.0
  0
POINT
  5
ACC
330
9D2
100
AcDbEntity
  8
Defpoints
 62
     0
440
 16777216
100
AcDbPoint
 10
5.367363870336149
 20
10.59573951883891
 30
0.0
  0
POINT
  5
ACD
330
9D2
100
AcDbEntity
  8
Defpoints
 62
     0
440
 16777216
100
AcDbPoint
 10
5.367363870336149
 20
10.84573951883891
 30
0.0
  0
POINT
  5
ACE
330
9D2
100
AcDbEntity
  8
Defpoints
 62
     0
440
 16777216
100
AcDbPoint
 10
5.38201509902018
 20
10.84573951883891
 30
0.0
  0
ENDBLK
  5
9D4
330
9D2
100
AcDbEntity
  8
0
100
AcDbBlockEnd
  0
BLOCK
  5
AD1
330
AD0
100
AcDbEntity
  8
0
100
AcDbBlockBegin
  2
*D14
 70
     1
 10
0.0
 20
0.0
 30
0.0
  3
*D14
  1

  0
LINE
  5
BAB
330
AD0
100
AcDbEntity
  8
Dimension (ANSI)
440
 16777216
100
AcDbLine
 10
5.624671562643841
 20
10.24227798037737
 30
0.0
 11
5.624671562643841
 21
9.364833571180691
 31
0.0
  0
LINE
  5
BAC
330
AD0
100
AcDbEntity
  8
Dimension (ANSI)
440
 16777216
100
AcDbLine
 10
5.776094938983974
 20
9.557141263488382
 30
0.0
 11
5.927518315324107
 21
9.557141263488382
 31
0.0
  0
LINE
  5
BAD
330
AD0
100
AcDbEntity
  8
Dimension (ANSI)
440
 16777216
100
AcDbLine
 10
5.223248186303751
 20
9.557141263488382
 30
0.0
 11
5.071824809963619
 21
9.557141263488382
 31
0.0
  0
SOLID
  5
BAE
330
AD0
100
AcDbEntity
  8
Dimension (ANSI)
440
 16777216
100
AcDbTrace
 10
5.776094938983974
 20
9.582378492878405
 30
0.0
 11
5.776094938983974
 21
9.53190403409836
 31
0.0
 12
5.624671562643841
 22
9.557141263488382
 32
0.0
 13
5.624671562643841
 23
9.557141263488382
 33
0.0
  0
SOLID
  5
BAF
330
AD0
100
AcDbEntity
  8
Dimension (ANSI)
440
 16777216
100
AcDbTrace
 10
5.223248186303751
 20
9.582378492878405
 30
0.0
 11
5.223248186303751
 21
9.53190403409836
 31
0.0
 12
5.374671562643884
 22
9.557141263488382
 32
0.0
 13
5.374671562643884
 23
9.557141263488382
 33
0.0
  0
MTEXT
  5
BB0
330
AD0
100
AcDbEntity
  8
Dimension (ANSI)
440
 16777216
100
AcDbMText
 10
4.412613509178355
 20
9.653292529796805
 30
0.0
 40
0.1846153919513409
 41
0.0
 71
     1
 72
     1
  1
\A1;0.250
  7
Note Text (ANSI)
 73
     1
 44
1.0
  0
POINT
  5
BB1
330
AD0
100
AcDbEntity
  8
Defpoints
 62
     0
440
 16777216
100
AcDbPoint
 10
5.624671562643841
 20
10.33843182653122
 30
0.0
  0
POINT
  5
BB2
330
AD0
100
AcDbEntity
  8
Defpoints
 62
     0
440
 16777216
100
AcDbPoint
 10
5.374671562643884
 20
8.868072303715655
 30
0.0
  0
POINT
  5
BB3
330
AD0
100
AcDbEntity
  8
Defpoints
 62
     0
440
 16777216
100
AcDbPoint
 10
5.374671562643884
 20
9.557141263488382
 30
0.0
  0
ENDBLK
  5
AD2
330
AD0
100
AcDbEntity
  8
0
100
AcDbBlockEnd
  0
BLOCK
  5
BBA
330
BB9
100
AcDbEntity
  8
0
100
AcDbBlockBegin
  2
*D15
 70
     1
 10
0.0
 20
0.0
 30
0.0
  3
*D15
  1

  0
LINE
  5
C98
330
BB9
100
AcDbEntity
  8
Dimension (ANSI)
440
 16777216
100
AcDbLine
 10
6.124671562643882
 20
11.94920105730045
 30
0.0
 11
6.124671562643882
 21
12.64406596335259
 31
0.0
  0
LINE
  5
C99
330
BB9
100
AcDbEntity
  8
Dimension (ANSI)
440
 16777216
100
AcDbLine
 10
6.374671562643882
 20
11.94920105730045
 30
0.0
 11
6.374671562643882
 21
12.64406596335259
 31
0.0
  0
LINE
  5
C9A
330
BB9
100
AcDbEntity
  8
Dimension (ANSI)
440
 16777216
100
AcDbLine
 10
5.97324818630375
 20
12.4517582710449
 30
0.0
 11
5.821824809963617
 21
12.4517582710449
 31
0.0
  0
LINE
  5
C9B
330
BB9
100
AcDbEntity
  8
Dimension (ANSI)
440
 16777216
100
AcDbLine
 10
6.526094938984015
 20
12.4517582710449
 30
0.0
 11
6.679647230477044
 21
12.4517582710449
 31
0.0
  0
SOLID
  5
C9C
330
BB9
100
AcDbEntity
  8
Dimension (ANSI)
440
 16777216
100
AcDbTrace
 10
5.97324818630375
 20
12.47699550043492
 30
0.0
 11
5.97324818630375
 21
12.42652104165488
 31
0.0
 12
6.124671562643882
 22
12.4517582710449
 32
0.0
 13
6.124671562643882
 23
12.4517582710449
 33
0.0
  0
SOLID
  5
C9D
330
BB9
100
AcDbEntity
  8
Dimension (ANSI)
440
 16777216
100
AcDbTrace
 10
6.526094938984015
 20
12.47699550043492
 30
0.0
 11
6.526094938984015
 21
12.42652104165488
 31
0.0
 12
6.374671562643882
 22
12.4517582710449
 32
0.0
 13
6.374671562643882
 23
12.4517582710449
 33
0.0
  0
MTEXT
  5
C9E
330
BB9
100
AcDbEntity
  8
Dimension (ANSI)
440
 16777216
100
AcDbMText
 10
6.728102712003392
 20
12.54790953735332
 30
0.0
 40
0.1846153919513409
 41
0.0
 71
     1
 72
     1
  1
\A1;0.250
  7
Note Text (ANSI)
 73
     1
 44
1.0
  0
POINT
  5
C9F
330
BB9
100
AcDbEntity
  8
Defpoints
 62
     0
440
 16777216
100
AcDbPoint
 10
6.124671562643882
 20
11.8530472111466
 30
0.0
  0
POINT
  5
CA0
330
BB9
100
AcDbEntity
  8
Defpoints
 62
     0
440
 16777216
100
AcDbPoint
 10
6.374671562643882
 20
11.8530472111466
 30
0.0
  0
POINT
  5
CA1
330
BB9
100
AcDbEntity
  8
Defpoints
 62
     0
440
 16777216
100
AcDbPoint
 10
6.374671562643882
 20
12.4517582710449
 30
0.0
  0
ENDBLK
  5
BBB
330
BB9
100
AcDbEntity
  8
0
100
AcDbBlockEnd
  0
BLOCK
  5
CA4
330
CA3
100
AcDbEntity
  8
0
100
AcDbBlockBegin
  2
*D16
 70
     1
 10
0.0
 20
0.0
 30
0.0
  3
*D16
  1

  0
LINE
  5
D92
330
CA3
100
AcDbEntity
  8
Dimension (ANSI)
440
 16777216
100
AcDbLine
 10
6.728133101105421
 20
11.59573951883891
 30
0.0
 11
7.542751884684545
 21
11.59573951883891
 31
0.0
  0
LINE
  5
D93
330
CA3
100
AcDbEntity
  8
Dimension (ANSI)
440
 16777216
100
AcDbLine
 10
7.350444192376852
 20
11.44431614249878
 30
0.0
 11
7.350444192376852
 21
11.29289276615865
 31
0.0
  0
LINE
  5
D94
330
CA3
100
AcDbEntity
  8
Dimension (ANSI)
440
 16777216
100
AcDbLine
 10
7.350444192376852
 20
11.99716289517904
 30
0.0
 11
7.350444192376852
 21
12.4570058546575
 31
0.0
  0
LINE
  5
D95
330
CA3
100
AcDbEntity
  8
Dimension (ANSI)
440
 16777216
100
AcDbLine
 10
7.350444192376852
 20
12.4570058546575
 30
0.0
 11
7.501867568716985
 21
12.4570058546575
 31
0.0
  0
SOLID
  5
D96
330
CA3
100
AcDbEntity
  8
Dimension (ANSI)
440
 16777216
100
AcDbTrace
 10
7.32520696298683
 20
11.44431614249878
 30
0.0
 11
7.375681421766874
 21
11.44431614249878
 31
0.0
 12
7.350444192376852
 22
11.59573951883891
 32
0.0
 13
7.350444192376852
 23
11.59573951883891
 33
0.0
  0
SOLID
  5
D97
330
CA3
100
AcDbEntity
  8
Dimension (ANSI)
440
 16777216
100
AcDbTrace
 10
7.32520696298683
 20
11.99716289517904
 30
0.0
 11
7.375681421766874
 21
11.99716289517904
 31
0.0
 12
7.350444192376852
 22
11.84573951883891
 32
0.0
 13
7.350444192376852
 23
11.84573951883891
 33
0.0
  0
MTEXT
  5
D98
330
CA3
100
AcDbEntity
  8
Dimension (ANSI)
440
 16777216
100
AcDbMText
 10
7.55032305024333
 20
12.55315712096592
 30
0.0
 40
0.1846153919513409
 41
0.0
 71
     1
 72
     1
  1
\A1;0.250
  7
Note Text (ANSI)
 73
     1
 44
1.0
  0
POINT
  5
D99
330
CA3
100
AcDbEntity
  8
Defpoints
 62
     0
440
 16777216
100
AcDbPoint
 10
6.631979254951575
 20
11.59573951883891
 30
0.0
  0
POINT
  5
D9A
330
CA3
100
AcDbEntity
  8
Defpoints
 62
     0
440
 16777216
100
AcDbPoint
 10
8.354799048310729
 20
11.84573951883891
 30
0.0
  0
POINT
  5
D9B
330
CA3
100
AcDbEntity
  8
Defpoints
 62
     0
440
 16777216
100
AcDbPoint
 10
7.350444192376852
 20
11.84573951883891
 30
0.0
  0
ENDBLK
  5
CA5
330
CA3
100
AcDbEntity
  8
0
100
AcDbBlockEnd
  0
BLOCK
  5
D9E
330
D9D
100
AcDbEntity
  8
0
100
AcDbBlockBegin
  2
*D17
 70
     1
 10
0.0
 20
0.0
 30
0.0
  3
*D17
  1

  0
LINE
  5
E4D
330
D9D
100
AcDbEntity
  8
Dimension (ANSI)
440
 16777216
100
AcDbLine
 10
7.236757307947261
 20
10.178727267162
 30
0.0
 11
7.041683814320919
 21
10.178727267162
 31
0.0
  0
LINE
  5
E4E
330
D9D
100
AcDbEntity
  8
Dimension (ANSI)
440
 16777216
100
AcDbLine
 10
7.041683814320919
 20
10.178727267162
 30
0.0
 11
6.7777059996613
 21
10.44270508182154
 31
0.0
  0
MTEXT
  5
E4F
102
{ACAD_XDICTIONARY
360
E9D
102
}
330
D9D
100
AcDbEntity
  8
Dimension (ANSI)
440
 16777216
100
AcDbMText
 10
7.690814311423869
 20
10.178727267162
 30
0.0
 40
0.1846153919513409
 41
0.0
 71
     5
 72
     1
  1
\A1;\U+22050.130{\PTYP.}
  7
Note Text (ANSI)
 73
     1
 44
1.0
  0
SOLID
  5
E50
330
D9D
100
AcDbEntity
  8
Dimension (ANSI)
440
 16777216
100
AcDbTrace
 10
6.795551415701343
 20
10.46055049786159
 30
0.0
 11
6.759860583621257
 21
10.42485966578149
 31
0.0
 12
6.670633503421013
 22
10.54977757806179
 32
0.0
 13
6.670633503421013
 23
10.54977757806179
 33
0.0
  0
LINE
  5
E51
330
D9D
100
AcDbEntity
  8
Dimension (ANSI)
440
 16777216
100
AcDbLine
 10
6.486210024182342
 20
10.59573951883891
 30
0.0
 11
6.76313310110542
 21
10.59573951883891
 31
0.0
  0
LINE
  5
E52
330
D9D
100
AcDbEntity
  8
Dimension (ANSI)
440
 16777216
100
AcDbLine
 10
6.62467156264388
 20
10.45727798037737
 30
0.0
 11
6.62467156264388
 21
10.73420105730044
 31
0.0
  0
POINT
  5
E53
330
D9D
100
AcDbEntity
  8
Defpoints
 62
     0
440
 16777216
100
AcDbPoint
 10
6.670633503421013
 20
10.54977757806179
 30
0.0
  0
POINT
  5
E54
330
D9D
100
AcDbEntity
  8
Defpoints
 62
     0
440
 16777216
100
AcDbPoint
 10
6.57870962186675
 20
10.64170145961603
 30
0.0
  0
ENDBLK
  5
D9F
330
D9D
100
AcDbEntity
  8
0
100
AcDbBlockEnd
  0
ENDSEC
  0
SECTION
  2
ENTITIES
  0
CIRCLE
  5
11B
330
6C
100
AcDbEntity
  8
Visible (ANSI)
100
AcDbCircle
 10
6.687671562643886
 20
5.908739518838912
 30
0.0
 40
0.125
  0
LINE
  5
11C
330
6C
100
AcDbEntity
  8
Visible (ANSI)
100
AcDbLine
 10
11.34267156264388
 20
5.783739518838915
 30
0.0
 11
11.28067156264388
 21
5.783739518838915
 31
0.0
  0
ARC
  5
11D
330
6C
100
AcDbEntity
  8
Visible (ANSI)
100
AcDbCircle
 10
11.34267156264388
 20
5.908739518838913
 30
0.0
 40
0.125
100
AcDbArc
 50
270.0
 51
90.0
  0
LINE
  5
11E
330
6C
100
AcDbEntity
  8
Visible (ANSI)
100
AcDbLine
 10
11.28067156264388
 20
6.033739518838913
 30
0.0
 11
11.34267156264388
 21
6.033739518838913
 31
0.0
  0
ARC
  5
11F
330
6C
100
AcDbEntity
  8
Visible (ANSI)
100
AcDbCircle
 10
11.28067156264388
 20
5.908739518838913
 30
0.0
 40
0.125
100
AcDbArc
 50
90.0
 51
270.0
  0
LINE
  5
120
330
6C
100
AcDbEntity
  8
Visible (ANSI)
100
AcDbLine
 10
5.718671562643885
 20
5.783739518838914
 30
0.0
 11
5.656671562643885
 21
5.783739518838914
 31
0.0
  0
ARC
  5
121
330
6C
100
AcDbEntity
  8
Visible (ANSI)
100
AcDbCircle
 10
5.718671562643885
 20
5.908739518838912
 30
0.0
 40
0.125
100
AcDbArc
 50
270.0
 51
90.0
  0
LINE
  5
122
330
6C
100
AcDbEntity
  8
Visible (ANSI)
100
AcDbLine
 10
5.656671562643885
 20
6.033739518838912
 30
0.0
 11
5.718671562643885
 21
6.033739518838912
 31
0.0
  0
ARC
  5
123
330
6C
100
AcDbEntity
  8
Visible (ANSI)
100
AcDbCircle
 10
5.656671562643885
 20
5.908739518838912
 30
0.0
 40
0.125
100
AcDbArc
 50
90.0
 51
270.0
  0
LINE
  5
124
330
6C
100
AcDbEntity
  8
Visible (ANSI)
100
AcDbLine
 10
11.34267156264388
 20
11.40773951883891
 30
0.0
 11
11.28067156264388
 21
11.40773951883891
 31
0.0
  0
ARC
  5
125
330
6C
100
AcDbEntity
  8
Visible (ANSI)
100
AcDbCircle
 10
11.34267156264388
 20
11.53273951883891
 30
0.0
 40
0.1250000000000003
100
AcDbArc
 50
270.0
 51
90.0
  0
LINE
  5
126
330
6C
100
AcDbEntity
  8
Visible (ANSI)
100
AcDbLine
 10
11.28067156264388
 20
11.65773951883891
 30
0.0
 11
11.34267156264388
 21
11.65773951883891
 31
0.0
  0
ARC
  5
127
330
6C
100
AcDbEntity
  8
Visible (ANSI)
100
AcDbCircle
 10
11.28067156264388
 20
11.53273951883891
 30
0.0
 40
0.1250000000000003
100
AcDbArc
 50
90.0
 51
270.0
  0
LINE
  5
128
330
6C
100
AcDbEntity
  8
Visible (ANSI)
100
AcDbLine
 10
5.718671562643883
 20
11.40773951883891
 30
0.0
 11
5.656671562643883
 21
11.40773951883891
 31
0.0
  0
ARC
  5
129
330
6C
100
AcDbEntity
  8
Visible (ANSI)
100
AcDbCircle
 10
5.718671562643882
 20
11.53273951883891
 30
0.0
 40
0.1250000000000003
100
AcDbArc
 50
269.9999999999995
 51
89.99999999999952
  0
LINE
  5
12A
330
6C
100
AcDbEntity
  8
Visible (ANSI)
100
AcDbLine
 10
5.656671562643883
 20
11.65773951883891
 30
0.0
 11
5.718671562643883
 21
11.65773951883891
 31
0.0
  0
ARC
  5
12B
330
6C
100
AcDbEntity
  8
Visible (ANSI)
100
AcDbCircle
 10
5.656671562643883
 20
11.53273951883891
 30
0.0
 40
0.1250000000000003
100
AcDbArc
 50
89.99999999999952
 51
269.9999999999995
  0
LINE
  5
12C
330
6C
100
AcDbEntity
  8
Visible (ANSI)
100
AcDbLine
 10
5.374671562643885
 20
5.595739518838914
 30
0.0
 11
5.374671562643883
 21
11.84573951883891
 31
0.0
  0
LINE
  5
12D
330
6C
100
AcDbEntity
  8
Visible (ANSI)
100
AcDbLine
 10
5.374671562643883
 20
11.84573951883891
 30
0.0
 11
11.62467156264388
 21
11.84573951883891
 31
0.0
  0
LINE
  5
12E
330
6C
100
AcDbEntity
  8
Visible (ANSI)
100
AcDbLine
 10
11.62467156264388
 20
11.84573951883891
 30
0.0
 11
11.62467156264388
 21
5.595739518838914
 31
0.0
  0
LINE
  5
12F
330
6C
100
AcDbEntity
  8
Visible (ANSI)
100
AcDbLine
 10
11.62467156264388
 20
5.595739518838914
 30
0.0
 11
5.374671562643885
 21
5.595739518838914
 31
0.0
  0
MTEXT
  5
131
330
6C
100
AcDbEntity
  8
Symbol (ANSI)
100
AcDbMText
 10
7.832579639617971
 20
3.670739386990001
 30
0.0
 40
0.1846153868970403
 41
0.0
 71
     7
 72
     1
  1
FRONT VIEW
  7
Text Style166
 73
     1
 44
1.0
  0
LINE
  5
133
330
6C
100
AcDbEntity
  8
Symbol (ANSI)
370
    30
100
AcDbLine
 10
7.814118053666607
 20
3.633090714105555
 30
0.0
 11
9.298371906413803
 21
3.633090714105555
 31
0.0
  0
LINE
  5
134
330
6C
100
AcDbEntity
  8
Hidden (ANSI)
 48
0.0915159061551094
100
AcDbLine
 10
16.93678082187294
 20
5.783739518838915
 30
0.0
 11
17.01078082187295
 21
5.783739518838915
 31
0.0
  0
LINE
  5
135
330
6C
100
AcDbEntity
  8
Hidden (ANSI)
 48
0.0915159061551094
100
AcDbLine
 10
16.93678082187294
 20
6.033739518838913
 30
0.0
 11
17.01078082187295
 21
6.033739518838913
 31
0.0
  0
LINE
  5
136
330
6C
100
AcDbEntity
  8
Hidden (ANSI)
 48
0.0915159061551094
100
AcDbLine
 10
16.93678082187294
 20
11.40773951883891
 30
0.0
 11
17.01078082187295
 21
11.40773951883891
 31
0.0
  0
LINE
  5
137
330
6C
100
AcDbEntity
  8
Hidden (ANSI)
 48
0.0915159061551094
100
AcDbLine
 10
16.93678082187294
 20
11.65773951883891
 30
0.0
 11
17.01078082187295
 21
11.65773951883891
 31
0.0
  0
LINE
  5
138
330
6C
100
AcDbEntity
  8
Visible (ANSI)
100
AcDbLine
 10
17.01078082187303
 20
11.84573951883891
 30
0.0
 11
16.93678082187303
 21
11.84573951883891
 31
0.0
  0
LINE
  5
139
330
6C
100
AcDbEntity
  8
Visible (ANSI)
100
AcDbLine
 10
16.93678082187303
 20
11.84573951883891
 30
0.0
 11
16.93678082187303
 21
5.595739518838914
 31
0.0
  0
LINE
  5
13A
330
6C
100
AcDbEntity
  8
Visible (ANSI)
100
AcDbLine
 10
17.01078082187303
 20
5.595739518838914
 30
0.0
 11
16.93678082187303
 21
5.595739518838914
 31
0.0
  0
LINE
  5
13B
330
6C
100
AcDbEntity
  8
Visible (ANSI)
100
AcDbLine
 10
17.01078082187303
 20
5.595739518838914
 30
0.0
 11
17.01078082187303
 21
11.84573951883891
 31
0.0
  0
MTEXT
  5
13C
330
6C
100
AcDbEntity
  8
Symbol (ANSI)
100
AcDbMText
 10
16.34058779392324
 20
3.766225285836976
 30
0.0
 40
0.1846153868970403
 41
0.0
 71
     7
 72
     1
  1
SIDE VIEW
  7
Text Style166
 73
     1
 44
1.0
  0
LINE
  5
13D
330
6C
100
AcDbEntity
  8
Symbol (ANSI)
370
    30
100
AcDbLine
 10
16.33113546191614
 20
3.727978184045118
 30
0.0
 11
17.57871057023228
 21
3.727978184045118
 31
0.0
  0
ELLIPSE
  5
13E
330
6C
100
AcDbEntity
  8
Visible (ANSI)
100
AcDbEllipse
 10
21.06367826472646
 20
7.752916122587131
 30
0.0
 11
0.0537419304783262
 21
-0.0933243700464002
 31
0.0
210
0.0
220
0.0
230
1.0
 40
0.5780931159158092
 41
3.572615253427331
 42
5.852162707341141
  0
ELLIPSE
  5
13F
330
6C
100
AcDbEntity
  8
Visible (ANSI)
100
AcDbEllipse
 10
21.01859748778436
 20
7.726955829695504
 30
0.0
 11
-0.0537419304783206
 21
0.0933243700464034
 31
0.0
210
0.0
220
0.0
230
0.9999999999999998
 40
0.5780931159158093
 41
0.0
 42
6.283185307179586
  0
LINE
  5
140
330
6C
100
AcDbEntity
  8
Visible (ANSI)
100
AcDbLine
 10
23.86173243357964
 20
6.053580352941255
 30
0.0
 11
23.89950281426087
 21
6.031829837275305
 31
0.0
  0
LINE
  5
141
330
6C
100
AcDbEntity
  8
Visible Narrow (ANSI)
100
AcDbLine
 10
23.81665165663753
 20
6.02762006004963
 30
0.0
 11
23.86173243357964
 21
6.053580352941255
 31
0.0
  0
LINE
  5
142
330
6C
100
AcDbEntity
  8
Visible (ANSI)
100
AcDbLine
 10
23.85442203731876
 20
6.00586954438368
 30
0.0
 11
23.81665165663753
 21
6.02762006004963
 31
0.0
  0
LINE
  5
143
330
6C
100
AcDbEntity
  8
Visible Narrow (ANSI)
100
AcDbLine
 10
23.85442203731876
 20
6.00586954438368
 30
0.0
 11
23.89950281426087
 21
6.031829837275305
 31
0.0
  0
ELLIPSE
  5
144
330
6C
100
AcDbEntity
  8
Visible (ANSI)
100
AcDbEllipse
 10
23.89950281426087
 20
6.11987337379681
 30
0.0
 11
0.0537419304783211
 21
-0.0933243700464042
 31
0.0
210
0.0
220
0.0
230
1.0
 40
0.5780931159158092
 41
5.49972085220502
 42
5.852162707341578
  0
ELLIPSE
  5
145
330
6C
100
AcDbEntity
  8
Visible (ANSI)
100
AcDbEllipse
 10
23.85442203731876
 20
6.093913080905182
 30
0.0
 11
0.053741930478315
 21
-0.0933243700464066
 31
0.0
210
0.0
220
0.0
230
1.0
 40
0.5780931159158092
 41
5.49972085220525
 42
8.641313505795043
  0
LINE
  5
146
330
6C
100
AcDbEntity
  8
Visible (ANSI)
100
AcDbLine
 10
23.81665165663753
 20
6.203707133092637
 30
0.0
 11
23.85442203731876
 21
6.181956617426687
 31
0.0
  0
ELLIPSE
  5
147
330
6C
100
AcDbEntity
  8
Visible (ANSI)
100
AcDbEllipse
 10
23.86173243357964
 20
6.141623889462759
 30
0.0
 11
0.0537419304783262
 21
-0.0933243700464002
 31
0.0
210
0.0
220
0.0
230
1.0
 40
0.5780931159158092
 41
3.572615253427333
 42
5.499720852204678
  0
ELLIPSE
  5
148
330
6C
100
AcDbEntity
  8
Visible (ANSI)
100
AcDbEllipse
 10
23.81665165663753
 20
6.115663596571134
 30
0.0
 11
-0.053741930478315
 21
0.0933243700464066
 31
0.0
210
0.0
220
0.0
230
1.0
 40
0.5780931159158092
 41
5.499720852205249
 42
8.641313505795043
  0
LINE
  5
149
330
6C
100
AcDbEntity
  8
Visible (ANSI)
100
AcDbLine
 10
20.43559338597888
 20
8.026562612704259
 30
0.0
 11
20.47336376666011
 21
8.004812097038307
 31
0.0
  0
LINE
  5
14A
330
6C
100
AcDbEntity
  8
Visible Narrow (ANSI)
100
AcDbLine
 10
20.39051260903678
 20
8.000602319812632
 30
0.0
 11
20.43559338597888
 21
8.026562612704259
 31
0.0
  0
LINE
  5
14B
330
6C
100
AcDbEntity
  8
Visible (ANSI)
100
AcDbLine
 10
20.42828298971802
 20
7.978851804146681
 30
0.0
 11
20.39051260903678
 21
8.000602319812632
 31
0.0
  0
LINE
  5
14C
330
6C
100
AcDbEntity
  8
Visible Narrow (ANSI)
100
AcDbLine
 10
20.42828298971802
 20
7.978851804146681
 30
0.0
 11
20.47336376666011
 21
8.004812097038307
 31
0.0
  0
ELLIPSE
  5
14D
330
6C
100
AcDbEntity
  8
Visible (ANSI)
100
AcDbEllipse
 10
20.47336376666011
 20
8.09285563355981
 30
0.0
 11
0.0537419304783205
 21
-0.0933243700464033
 31
0.0
210
0.0
220
0.0
230
1.0
 40
0.578093115915809
 41
5.499720852205021
 42
5.852162707341583
  0
ELLIPSE
  5
14E
330
6C
100
AcDbEntity
  8
Visible (ANSI)
100
AcDbEllipse
 10
20.42828298971802
 20
8.066895340668184
 30
0.0
 11
0.053741930478315
 21
-0.0933243700464065
 31
0.0
210
0.0
220
0.0
230
1.0
 40
0.5780931159158093
 41
5.499720852205249
 42
8.641313505795043
  0
LINE
  5
14F
330
6C
100
AcDbEntity
  8
Visible (ANSI)
100
AcDbLine
 10
20.39051260903678
 20
8.176689392855639
 30
0.0
 11
20.42828298971802
 21
8.154938877189687
 31
0.0
  0
ELLIPSE
  5
150
330
6C
100
AcDbEntity
  8
Visible (ANSI)
100
AcDbEllipse
 10
20.43559338597888
 20
8.114606149225762
 30
0.0
 11
0.0537419304783262
 21
-0.0933243700464002
 31
0.0
210
0.0
220
0.0
230
1.0
 40
0.578093115915809
 41
3.572615253427333
 42
5.499720852204679
  0
ELLIPSE
  5
151
330
6C
100
AcDbEntity
  8
Visible (ANSI)
100
AcDbEllipse
 10
20.39051260903678
 20
8.088645856334135
 30
0.0
 11
-0.053741930478315
 21
0.0933243700464066
 31
0.0
210
0.0
220
0.0
230
1.0
 40
0.5780931159158092
 41
5.49972085220525
 42
8.641313505795043
  0
LINE
  5
152
330
6C
100
AcDbEntity
  8
Visible (ANSI)
100
AcDbLine
 10
23.86173243357964
 20
10.01483514811676
 30
0.0
 11
23.89950281426088
 21
9.993084632450813
 31
0.0
  0
LINE
  5
153
330
6C
100
AcDbEntity
  8
Visible Narrow (ANSI)
100
AcDbLine
 10
23.81665165663754
 20
9.988874855225139
 30
0.0
 11
23.86173243357964
 21
10.01483514811676
 31
0.0
  0
LINE
  5
154
330
6C
100
AcDbEntity
  8
Visible (ANSI)
100
AcDbLine
 10
23.85442203731878
 20
9.967124339559187
 30
0.0
 11
23.81665165663754
 21
9.988874855225139
 31
0.0
  0
LINE
  5
155
330
6C
100
AcDbEntity
  8
Visible Narrow (ANSI)
100
AcDbLine
 10
23.85442203731878
 20
9.967124339559187
 30
0.0
 11
23.89950281426088
 21
9.993084632450813
 31
0.0
  0
ELLIPSE
  5
156
330
6C
100
AcDbEntity
  8
Visible (ANSI)
100
AcDbEllipse
 10
23.89950281426088
 20
10.08112816897233
 30
0.0
 11
0.0537419304783304
 21
-0.0933243700464204
 31
0.0
210
0.0
220
0.0
230
0.9999999999999998
 40
0.578093115915809
 41
5.499720852205077
 42
5.852162707341578
  0
ELLIPSE
  5
157
330
6C
100
AcDbEntity
  8
Visible (ANSI)
100
AcDbEllipse
 10
23.85442203731878
 20
10.05516787608069
 30
0.0
 11
0.0537419304783152
 21
-0.0933243700464069
 31
0.0
210
0.0
220
0.0
230
1.0
 40
0.5780931159158092
 41
5.499720852205249
 42
8.641313505795043
  0
LINE
  5
158
330
6C
100
AcDbEntity
  8
Visible (ANSI)
100
AcDbLine
 10
23.81665165663754
 20
10.16496192826815
 30
0.0
 11
23.85442203731878
 21
10.14321141260219
 31
0.0
  0
ELLIPSE
  5
159
330
6C
100
AcDbEntity
  8
Visible (ANSI)
100
AcDbEllipse
 10
23.86173243357965
 20
10.10287868463827
 30
0.0
 11
0.0537419304783264
 21
-0.0933243700464006
 31
0.0
210
0.0
220
0.0
230
1.0
 40
0.578093115915809
 41
3.572615253427308
 42
5.499720852204678
  0
ELLIPSE
  5
15A
330
6C
100
AcDbEntity
  8
Visible (ANSI)
100
AcDbEllipse
 10
23.81665165663754
 20
10.07691839174664
 30
0.0
 11
-0.0537419304783152
 21
0.0933243700464069
 31
0.0
210
0.0
220
0.0
230
1.0
 40
0.5780931159158092
 41
5.499720852205249
 42
8.641313505795043
  0
LINE
  5
15B
330
6C
100
AcDbEntity
  8
Visible (ANSI)
100
AcDbLine
 10
20.43559338597889
 20
11.98781740787976
 30
0.0
 11
20.47336376666013
 21
11.96606689221382
 31
0.0
  0
LINE
  5
15C
330
6C
100
AcDbEntity
  8
Visible Narrow (ANSI)
100
AcDbLine
 10
20.39051260903679
 20
11.96185711498814
 30
0.0
 11
20.43559338597889
 21
11.98781740787976
 31
0.0
  0
LINE
  5
15D
330
6C
100
AcDbEntity
  8
Visible (ANSI)
100
AcDbLine
 10
20.42828298971802
 20
11.94010659932219
 30
0.0
 11
20.39051260903679
 21
11.96185711498814
 31
0.0
  0
LINE
  5
15E
330
6C
100
AcDbEntity
  8
Visible Narrow (ANSI)
100
AcDbLine
 10
20.42828298971802
 20
11.94010659932219
 30
0.0
 11
20.47336376666013
 21
11.96606689221382
 31
0.0
  0
ELLIPSE
  5
15F
330
6C
100
AcDbEntity
  8
Visible (ANSI)
100
AcDbEllipse
 10
20.47336376666013
 20
12.05411042873533
 30
0.0
 11
0.0537419304783291
 21
-0.0933243700464182
 31
0.0
210
0.0
220
0.0
230
1.0
 40
0.5780931159158092
 41
5.499720852205021
 42
5.852162707341586
  0
ELLIPSE
  5
160
330
6C
100
AcDbEntity
  8
Visible (ANSI)
100
AcDbEllipse
 10
20.42828298971802
 20
12.02815013584369
 30
0.0
 11
0.0537419304783152
 21
-0.0933243700464069
 31
0.0
210
0.0
220
0.0
230
0.9999999999999998
 40
0.578093115915809
 41
5.499720852205249
 42
8.641313505795043
  0
LINE
  5
161
330
6C
100
AcDbEntity
  8
Visible (ANSI)
100
AcDbLine
 10
20.39051260903679
 20
12.13794418803115
 30
0.0
 11
20.42828298971802
 21
12.1161936723652
 31
0.0
  0
ELLIPSE
  5
162
330
6C
100
AcDbEntity
  8
Visible (ANSI)
100
AcDbEllipse
 10
20.43559338597889
 20
12.07586094440127
 30
0.0
 11
0.0537419304783263
 21
-0.0933243700464005
 31
0.0
210
0.0
220
0.0
230
1.0
 40
0.578093115915809
 41
3.57261525342731
 42
5.499720852204679
  0
ELLIPSE
  5
163
330
6C
100
AcDbEntity
  8
Visible (ANSI)
100
AcDbEllipse
 10
20.39051260903679
 20
12.04990065150964
 30
0.0
 11
-0.0537419304783152
 21
0.0933243700464069
 31
0.0
210
0.0
220
0.0
230
1.0
 40
0.578093115915809
 41
5.499720852205248
 42
8.641313505795041
  0
LINE
  5
164
330
6C
100
AcDbEntity
  8
Visible (ANSI)
100
AcDbLine
 10
20.21871829690602
 20
7.967114605687484
 30
0.0
 11
20.21871829690603
 21
12.36929143176268
 31
0.0
  0
LINE
  5
165
330
6C
100
AcDbEntity
  8
Visible (ANSI)
100
AcDbLine
 10
20.26379907384812
 20
12.39525172465431
 30
0.0
 11
20.21871829690603
 21
12.36929143176268
 31
0.0
  0
LINE
  5
166
330
6C
100
AcDbEntity
  8
Visible (ANSI)
100
AcDbLine
 10
20.21871829690603
 20
12.36929143176268
 30
0.0
 11
24.02621634944954
 21
10.17669912672734
 31
0.0
  0
LINE
  5
167
330
6C
100
AcDbEntity
  8
Visible (ANSI)
100
AcDbLine
 10
24.07129712639164
 20
10.20265941961897
 30
0.0
 11
24.02621634944954
 21
10.17669912672734
 31
0.0
  0
LINE
  5
168
330
6C
100
AcDbEntity
  8
Visible (ANSI)
100
AcDbLine
 10
24.07129712639164
 20
10.20265941961897
 30
0.0
 11
20.26379907384812
 21
12.39525172465431
 31
0.0
  0
LINE
  5
169
330
6C
100
AcDbEntity
  8
Visible (ANSI)
100
AcDbLine
 10
24.02621634944954
 20
10.17669912672734
 30
0.0
 11
24.02621634944953
 21
5.774522300652142
 31
0.0
  0
LINE
  5
16A
330
6C
100
AcDbEntity
  8
Visible (ANSI)
100
AcDbLine
 10
24.07129712639163
 20
5.800482593543768
 30
0.0
 11
24.02621634944953
 21
5.774522300652142
 31
0.0
  0
LINE
  5
16B
330
6C
100
AcDbEntity
  8
Visible (ANSI)
100
AcDbLine
 10
24.07129712639163
 20
5.800482593543768
 30
0.0
 11
24.07129712639164
 21
10.20265941961897
 31
0.0
  0
LINE
  5
16C
330
6C
100
AcDbEntity
  8
Visible (ANSI)
100
AcDbLine
 10
24.02621634944953
 20
5.774522300652142
 30
0.0
 11
20.21871829690602
 21
7.967114605687484
 31
0.0
  0
DIMENSION
  5
16D
330
6C
100
AcDbEntity
  8
Dimension (ANSI)
100
AcDbDimension
  2
*D4
 10
3.930887356939069
 20
11.84573951883891
 30
0.0
 11
3.930887356939067
 21
8.720739518838913
 31
0.0
 70
   160
  1
<>
 42
6.25
  3
Default (ANSI)
100
AcDbAlignedDimension
 13
5.374671562643885
 23
5.595739518838914
 33
0.0
 14
5.374671562643883
 24
11.84573951883891
 34
0.0
 50
90.0
100
AcDbRotatedDimension
1001
ACAD
1000
DSTYLE
1002
{
1070
   289
1070
     1
1070
   271
1070
     2
1070
   272
1070
     2
1070
    48
1040
0.0
1070
    47
1040
0.0
1002
}
  0
DIMENSION
  5
259
330
6C
100
AcDbEntity
  8
Dimension (ANSI)
100
AcDbDimension
  2
*D5
 10
11.62467156264388
 20
13.43678002594057
 30
0.0
 11
8.532692791622745
 21
13.43678002594057
 31
0.0
 70
   160
  1
<>
 42
6.249999999999999
  3
Default (ANSI)
100
AcDbAlignedDimension
 13
5.374671562643883
 23
11.84573951883891
 33
0.0
 14
11.62467156264388
 24
11.84573951883891
 34
0.0
 50
180.0
100
AcDbRotatedDimension
1001
ACAD
1000
DSTYLE
1002
{
1070
   289
1070
     1
1070
    73
1070
     0
1070
    74
1070
     0
1070
   271
1070
     2
1070
   272
1070
     2
1070
    48
1040
0.0
1070
    47
1040
0.0
1002
}
  0
DIMENSION
  5
343
330
6C
100
AcDbEntity
  8
Dimension (ANSI)
100
AcDbDimension
  2
*D6
 10
11.31167156264388
 20
12.95928756012537
 30
0.0
 11
12.621857693535
 21
12.95928756012537
 31
0.0
 70
   160
  1
<>
 71
     5
 42
0.3130000000000006
  3
Default (ANSI)
100
AcDbAlignedDimension
 13
11.62467156264388
 23
11.84573951883891
 33
0.0
 14
11.31167156264388
 24
11.8500472111466
 34
0.0
 50
180.0
100
AcDbRotatedDimension
1001
ACAD
1000
DSTYLE
1002
{
1070
   289
1070
     1
1070
    73
1070
     0
1070
    74
1070
     0
1070
   271
1070
     3
1070
   272
1070
     3
1070
    48
1040
0.0
1070
    47
1040
0.0
1002
}
  0
DIMENSION
  5
42D
330
6C
100
AcDbEntity
  8
Dimension (ANSI)
100
AcDbDimension
  2
*D7
 10
12.17564409190781
 20
11.53273951883891
 30
0.0
 11
12.67885508778016
 21
12.30211075258352
 31
0.0
 70
   160
  1
<>
 42
0.3130000000000024
  3
Default (ANSI)
100
AcDbAlignedDimension
 13
11.62467156264388
 23
11.84573951883891
 33
0.0
 14
11.46767156264388
 24
11.53273951883891
 34
0.0
 50
90.0
100
AcDbRotatedDimension
1001
ACAD
1000
DSTYLE
1002
{
1070
   289
1070
     1
1070
   271
1070
     3
1070
   272
1070
     3
1070
    48
1040
0.0
1070
    47
1040
0.0
1002
}
  0
DIMENSION
  5
52A
330
6C
100
AcDbEntity
  8
Dimension (ANSI)
100
AcDbDimension
  2
*D8
 10
6.599283214995553
 20
5.997127866487216
 30
0.0
 11
8.618443106005187
 21
5.065156843477739
 31
0.0
 70
   163
  1
<>{\PGROUND HOLE}
 42
0.25
  3
Default (ANSI)
100
AcDbDiametricDimension
 15
6.776059910292215
 25
5.820351171190608
 35
0.0
 40
0.0
1001
ACAD_DSTYLE_DIMRADIAL_EXTENSION
1070
   387
1070
     1
1070
   388
1040
0.0
1070
   390
1040
0.0
1001
ACAD
1000
DSTYLE
1002
{
1070
   145
1040
-0.25
1070
   144
1040
1.00000000000001
1070
   271
1070
     3
1070
   272
1070
     2
1070
    48
1040
0.0
1070
    47
1040
0.0
1002
}
  0
DIMENSION
  5
5E5
330
6C
100
AcDbEntity
  8
Dimension (ANSI)
100
AcDbDimension
  2
*D9
 10
17.01078082187303
 20
12.45143303791826
 30
0.0
 11
15.77358939856928
 21
12.45143303791826
 31
0.0
 70
   160
  1
{14 GA. C.R.S\P}(<>)
 71
     5
 42
0.0740000000000016
  3
Default (ANSI)
100
AcDbAlignedDimension
 13
16.93678082187303
 23
11.84573951883891
 33
0.0
 14
17.01078082187303
 24
11.84573951883891
 34
0.0
 50
180.0
100
AcDbRotatedDimension
1001
ACAD
1000
DSTYLE
1002
{
1070
   289
1070
     1
1070
    73
1070
     0
1070
    74
1070
     0
1070
   271
1070
     3
1070
   147
1040
0.031496062992126
1070
    72
1070
     0
1070
    71
1070
     0
1070
   272
1070
     2
1070
    48
1040
0.0
1070
    47
1040
0.0
1002
}
  0
DIMENSION
  5
6ED
330
6C
100
AcDbEntity
  8
Dimension (ANSI)
100
AcDbDimension
  2
*D10
 10
12.67885508778016
 20
11.53273951883891
 30
0.0
 11
12.67885508778016
 21
8.720739518838913
 31
0.0
 70
   160
  1
<>
 42
5.624
  3
Default (ANSI)
100
AcDbAlignedDimension
 13
5.531671562643884
 23
5.908739518838912
 33
0.0
 14
5.531671562643881
 24
11.53273951883891
 34
0.0
 50
90.0
100
AcDbRotatedDimension
1001
ACAD
1000
DSTYLE
1002
{
1070
   289
1070
     1
1070
   271
1070
     3
1070
   272
1070
     3
1070
    48
1040
0.0
1070
    47
1040
0.0
1002
}
  0
DIMENSION
  5
7D7
330
6C
100
AcDbEntity
  8
Dimension (ANSI)
100
AcDbDimension
  2
*D11
 10
11.31167156264388
 20
12.95928756012537
 30
0.0
 11
8.542640551223762
 21
12.95928756012537
 31
0.0
 70
   160
  1
<>
 42
5.624
  3
Default (ANSI)
100
AcDbAlignedDimension
 13
5.687671562643881
 23
11.8500472111466
 33
0.0
 14
11.31167156264388
 24
11.8500472111466
 34
0.0
 50
180.0
100
AcDbRotatedDimension
1001
ACAD
1000
DSTYLE
1002
{
1070
   289
1070
     1
1070
    73
1070
     0
1070
    74
1070
     0
1070
   271
1070
     3
1070
   272
1070
     3
1070
    48
1040
0.0
1070
    47
1040
0.0
1002
}
  0
DIMENSION
  5
8C1
330
6C
100
AcDbEntity
  8
Dimension (ANSI)
100
AcDbDimension
  2
*D12
 10
6.687671562643883
 20
4.955441954915335
 30
0.0
 11
6.187671562643883
 21
4.955441954915335
 31
0.0
 70
   160
  1
<>
  3
Default (ANSI)
100
AcDbAlignedDimension
 13
5.687671562643883
 23
5.783739518838914
 33
0.0
 14
6.687671562643883
 24
5.783739518838913
 34
0.0
 50
180.0
100
AcDbRotatedDimension
1001
ACAD
1000
DSTYLE
1002
{
1070
   147
1040
1.797693134862314E+99
1070
    73
1070
     0
1070
    74
1070
     0
1070
   271
1070
     3
1070
   272
1070
     3
1070
    48
1040
0.0
1070
    47
1040
0.0
1002
}
  0
CIRCLE
  5
9AB
330
6C
100
AcDbEntity
  8
Sketch Geometry (ANSI)
100
AcDbCircle
 10
6.124671562643882
 20
11.59573951883891
 30
0.0
 40
0.065
  0
CIRCLE
  5
9AC
330
6C
100
AcDbEntity
  8
Sketch Geometry (ANSI)
100
AcDbCircle
 10
6.374671562643882
 20
11.59573951883891
 30
0.0
 40
0.065
  0
CIRCLE
  5
9AD
330
6C
100
AcDbEntity
  8
Sketch Geometry (ANSI)
100
AcDbCircle
 10
6.624671562643882
 20
11.59573951883891
 30
0.0
 40
0.065
  0
CIRCLE
  5
9AE
330
6C
100
AcDbEntity
  8
Sketch Geometry (ANSI)
100
AcDbCircle
 10
5.624671562643841
 20
11.34573951883891
 30
0.0
 40
0.065
  0
CIRCLE
  5
9AF
330
6C
100
AcDbEntity
  8
Sketch Geometry (ANSI)
100
AcDbCircle
 10
5.874671562643882
 20
11.34573951883891
 30
0.0
 40
0.065
  0
CIRCLE
  5
9B0
330
6C
100
AcDbEntity
  8
Sketch Geometry (ANSI)
100
AcDbCircle
 10
6.124671562643882
 20
11.34573951883891
 30
0.0
 40
0.065
  0
CIRCLE
  5
9B1
330
6C
100
AcDbEntity
  8
Sketch Geometry (ANSI)
100
AcDbCircle
 10
6.374671562643882
 20
11.34573951883891
 30
0.0
 40
0.065
  0
CIRCLE
  5
9B2
330
6C
100
AcDbEntity
  8
Sketch Geometry (ANSI)
100
AcDbCircle
 10
6.624671562643882
 20
11.34573951883891
 30
0.0
 40
0.065
  0
CIRCLE
  5
9B3
330
6C
100
AcDbEntity
  8
Sketch Geometry (ANSI)
100
AcDbCircle
 10
5.624671562643841
 20
11.09573951883891
 30
0.0
 40
0.065
  0
CIRCLE
  5
9B4
330
6C
100
AcDbEntity
  8
Sketch Geometry (ANSI)
100
AcDbCircle
 10
5.874671562643882
 20
11.09573951883891
 30
0.0
 40
0.065
  0
CIRCLE
  5
9B5
330
6C
100
AcDbEntity
  8
Sketch Geometry (ANSI)
100
AcDbCircle
 10
6.124671562643882
 20
11.09573951883891
 30
0.0
 40
0.065
  0
CIRCLE
  5
9B6
330
6C
100
AcDbEntity
  8
Sketch Geometry (ANSI)
100
AcDbCircle
 10
6.374671562643882
 20
11.09573951883891
 30
0.0
 40
0.065
  0
CIRCLE
  5
9B7
330
6C
100
AcDbEntity
  8
Sketch Geometry (ANSI)
100
AcDbCircle
 10
6.624671562643882
 20
11.09573951883891
 30
0.0
 40
0.065
  0
CIRCLE
  5
9B8
330
6C
100
AcDbEntity
  8
Sketch Geometry (ANSI)
100
AcDbCircle
 10
5.624671562643841
 20
10.84573951883891
 30
0.0
 40
0.065
  0
CIRCLE
  5
9B9
330
6C
100
AcDbEntity
  8
Sketch Geometry (ANSI)
100
AcDbCircle
 10
5.874671562643882
 20
10.84573951883891
 30
0.0
 40
0.065
  0
CIRCLE
  5
9BA
330
6C
100
AcDbEntity
  8
Sketch Geometry (ANSI)
100
AcDbCircle
 10
6.124671562643882
 20
10.84573951883891
 30
0.0
 40
0.065
  0
CIRCLE
  5
9BB
330
6C
100
AcDbEntity
  8
Sketch Geometry (ANSI)
100
AcDbCircle
 10
6.374671562643882
 20
10.84573951883891
 30
0.0
 40
0.065
  0
CIRCLE
  5
9BC
330
6C
100
AcDbEntity
  8
Sketch Geometry (ANSI)
100
AcDbCircle
 10
6.624671562643882
 20
10.84573951883891
 30
0.0
 40
0.065
  0
CIRCLE
  5
9BD
330
6C
100
AcDbEntity
  8
Sketch Geometry (ANSI)
100
AcDbCircle
 10
5.624671562643841
 20
10.59573951883891
 30
0.0
 40
0.065
  0
CIRCLE
  5
9BE
330
6C
100
AcDbEntity
  8
Sketch Geometry (ANSI)
100
AcDbCircle
 10
5.874671562643882
 20
10.59573951883891
 30
0.0
 40
0.065
  0
CIRCLE
  5
9BF
330
6C
100
AcDbEntity
  8
Sketch Geometry (ANSI)
100
AcDbCircle
 10
6.124671562643882
 20
10.59573951883891
 30
0.0
 40
0.065
  0
CIRCLE
  5
9C0
330
6C
100
AcDbEntity
  8
Sketch Geometry (ANSI)
100
AcDbCircle
 10
6.374671562643882
 20
10.59573951883891
 30
0.0
 40
0.065
  0
CIRCLE
  5
9C1
330
6C
100
AcDbEntity
  8
Sketch Geometry (ANSI)
100
AcDbCircle
 10
6.624671562643882
 20
10.59573951883891
 30
0.0
 40
0.065
  0
CIRCLE
  5
9C2
330
6C
100
AcDbEntity
  8
Sketch Geometry (ANSI)
100
AcDbCircle
 10
5.680770785360584
 20
11.52449400916985
 30
0.0
 40
0.55
  0
MTEXT
  5
9C3
102
{ACAD_REACTORS
330
9C4
102
}
330
6C
100
AcDbEntity
  8
Symbol (ANSI)
100
AcDbMText
 10
4.769709232636783
 20
12.4822816825291
 30
0.0
 40
0.1846153868970403
 41
1.524797430333045
 71
     6
 72
     1
  1
{PREFORATED\PDETAIL}
  7
Note Text (ANSI)
 73
     2
 44
0.9878841638565063
  0
LEADER
  5
9C4
330
6C
100
AcDbEntity
  8
Symbol (ANSI)
100
AcDbLeader
  3
Default (ANSI)$7
 73
     0
 75
     1
 40
0.5501182110624339
 41
1.498248704398876
 76
     3
 10
5.277236694589257
 20
11.89820544542161
 30
0.0
 10
4.969588090503263
 20
12.4822816825291
 30
0.0
 10
4.81816471416313
 20
12.4822816825291
 30
0.0
340
9C3
1001
ACAD
1000
DSTYLE
1002
{
1070
    77
1070
     0
1002
}
  0
LINE
  5
9C5
330
6C
100
AcDbEntity
  8
Centerline (ANSI)
  6
CHAIN
 48
0.9524481296539306
100
AcDbLine
 10
5.687671562643881
 20
11.8500472111466
 30
0.0
 11
5.687671562643883
 21
5.591431826531222
 31
0.0
  0
LINE
  5
9C6
330
6C
100
AcDbEntity
  8
Centerline (ANSI)
  6
CHAIN
 48
0.9524481296539306
100
AcDbLine
 10
5.339363870336191
 20
5.908739518838912
 30
0.0
 11
11.65997925495157
 21
5.908739518838913
 31
0.0
  0
LINE
  5
9C7
330
6C
100
AcDbEntity
  8
Centerline (ANSI)
  6
CHAIN
 48
0.9524481296539306
100
AcDbLine
 10
11.31167156264388
 20
5.591431826531222
 30
0.0
 11
11.31167156264388
 21
11.8500472111466
 31
0.0
  0
LINE
  5
9C8
330
6C
100
AcDbEntity
  8
Centerline (ANSI)
  6
CHAIN
 48
0.9524481296539306
100
AcDbLine
 10
11.65997925495157
 20
11.53273951883891
 30
0.0
 11
5.339363870336189
 21
11.53273951883891
 31
0.0
  0
LINE
  5
9C9
330
6C
100
AcDbEntity
  8
Center Mark (ANSI)
  6
CHAIN
 48
0.2290541976690292
100
AcDbLine
 10
7.004979254951575
 20
5.908739518838912
 30
0.0
 11
6.37036387033619
 21
5.908739518838912
 31
0.0
  0
LINE
  5
9CA
330
6C
100
AcDbEntity
  8
Center Mark (ANSI)
  6
CHAIN
 48
0.2290541976690292
100
AcDbLine
 10
6.687671562643883
 20
6.226047211146605
 30
0.0
 11
6.687671562643883
 21
5.59143182653122
 31
0.0
  0
MTEXT
  5
9CB
102
{ACAD_REACTORS
330
9CC
102
}
330
6C
100
AcDbEntity
  8
Symbol (ANSI)
100
AcDbMText
 10
11.97712870263239
 20
4.961444418528875
 30
0.0
 40
0.1846153868970403
 41
1.290961224551925
 71
     4
 72
     1
  1
{.250 X .312\POBROUND\PHOLE}
  7
Note Text (ANSI)
 73
     2
 44
0.9878841638565063
  0
LEADER
  5
9CC
330
6C
100
AcDbEntity
  8
Symbol (ANSI)
100
AcDbLeader
  3
Default (ANSI)$7
 73
     0
 74
     0
 75
     1
 40
0.8540825729288139
 41
1.256847659424976
 76
     3
 10
11.3673026828776
 20
5.786190312737722
 30
0.0
 10
11.77724984476591
 20
4.961444418528875
 30
0.0
 10
11.92867322110604
 20
4.961444418528875
 30
0.0
340
9CB
1001
ACAD
1000
DSTYLE
1002
{
1070
    77
1070
     0
1002
}
  0
LINE
  5
9CD
330
6C
100
AcDbEntity
  8
Center Mark (ANSI)
  6
CHAIN
 48
0.185723215341568
100
AcDbLine
 10
5.881979254951534
 20
10.84573951883891
 30
0.0
 11
5.367363870336149
 21
10.84573951883891
 31
0.0
  0
LINE
  5
9CE
330
6C
100
AcDbEntity
  8
Center Mark (ANSI)
  6
CHAIN
 48
0.185723215341568
100
AcDbLine
 10
5.624671562643841
 20
11.1030472111466
 30
0.0
 11
5.624671562643841
 21
10.58843182653122
 31
0.0
  0
LINE
  5
9CF
330
6C
100
AcDbEntity
  8
Center Mark (ANSI)
  6
CHAIN
 48
0.185723215341568
100
AcDbLine
 10
5.881979254951534
 20
10.59573951883891
 30
0.0
 11
5.367363870336149
 21
10.59573951883891
 31
0.0
  0
LINE
  5
9D0
330
6C
100
AcDbEntity
  8
Center Mark (ANSI)
  6
CHAIN
 48
0.185723215341568
100
AcDbLine
 10
5.624671562643841
 20
10.85304721114661
 30
0.0
 11
5.624671562643841
 21
10.33843182653122
 31
0.0
  0
DIMENSION
  5
9D1
330
6C
100
AcDbEntity
  8
Dimension (ANSI)
100
AcDbDimension
  2
*D13
 10
5.38201509902018
 20
10.84573951883891
 30
0.0
 11
4.87675833152424
 21
10.07627338729928
 31
0.0
 70
   160
  1
<>
 42
0.25
  3
Default (ANSI)
100
AcDbAlignedDimension
 13
5.367363870336149
 23
10.59573951883891
 33
0.0
 14
5.367363870336149
 24
10.84573951883891
 34
0.0
 50
90.0
100
AcDbRotatedDimension
1001
ACAD
1000
DSTYLE
1002
{
1070
   289
1070
     1
1070
   271
1070
     3
1070
   272
1070
     3
1070
    48
1040
0.0
1070
    47
1040
0.0
1002
}
  0
DIMENSION
  5
ACF
330
6C
100
AcDbEntity
  8
Dimension (ANSI)
100
AcDbDimension
  2
*D14
 10
5.374671562643884
 20
9.557141263488382
 30
0.0
 11
4.717991418807813
 21
9.557141263488382
 31
0.0
 70
   160
  1
<>
 42
0.2499999999999574
  3
Default (ANSI)
100
AcDbAlignedDimension
 13
5.624671562643841
 23
10.33843182653122
 33
0.0
 14
5.374671562643884
 24
8.868072303715655
 34
0.0
 50
180.0
100
AcDbRotatedDimension
1001
ACAD
1000
DSTYLE
1002
{
1070
   289
1070
     1
1070
    73
1070
     0
1070
    74
1070
     0
1070
   271
1070
     3
1070
    76
1070
     1
1070
   272
1070
     3
1070
    48
1040
0.0
1070
    47
1040
0.0
1002
}
  0
LINE
  5
BB4
330
6C
100
AcDbEntity
  8
Center Mark (ANSI)
  6
CHAIN
 48
0.185723215341568
100
AcDbLine
 10
6.381979254951574
 20
11.59573951883891
 30
0.0
 11
5.867363870336189
 21
11.59573951883891
 31
0.0
  0
LINE
  5
BB5
330
6C
100
AcDbEntity
  8
Center Mark (ANSI)
  6
CHAIN
 48
0.185723215341568
100
AcDbLine
 10
6.124671562643882
 20
11.8530472111466
 30
0.0
 11
6.124671562643882
 21
11.33843182653122
 31
0.0
  0
LINE
  5
BB6
330
6C
100
AcDbEntity
  8
Center Mark (ANSI)
  6
CHAIN
 48
0.185723215341568
100
AcDbLine
 10
6.631979254951575
 20
11.59573951883891
 30
0.0
 11
6.11736387033619
 21
11.59573951883891
 31
0.0
  0
LINE
  5
BB7
330
6C
100
AcDbEntity
  8
Center Mark (ANSI)
  6
CHAIN
 48
0.185723215341568
100
AcDbLine
 10
6.374671562643882
 20
11.8530472111466
 30
0.0
 11
6.374671562643882
 21
11.33843182653122
 31
0.0
  0
DIMENSION
  5
BB8
330
6C
100
AcDbEntity
  8
Dimension (ANSI)
100
AcDbDimension
  2
*D15
 10
6.374671562643882
 20
12.4517582710449
 30
0.0
 11
7.03348062163285
 21
12.4517582710449
 31
0.0
 70
   160
  1
<>
 42
0.25
  3
Default (ANSI)
100
AcDbAlignedDimension
 13
6.124671562643882
 23
11.8530472111466
 33
0.0
 14
6.374671562643882
 24
11.8530472111466
 34
0.0
 50
180.0
100
AcDbRotatedDimension
1001
ACAD
1000
DSTYLE
1002
{
1070
   289
1070
     1
1070
    73
1070
     0
1070
    74
1070
     0
1070
   271
1070
     3
1070
   272
1070
     3
1070
    48
1040
0.0
1070
    47
1040
0.0
1002
}
  0
DIMENSION
  5
CA2
330
6C
100
AcDbEntity
  8
Dimension (ANSI)
100
AcDbDimension
  2
*D16
 10
7.350444192376852
 20
11.84573951883891
 30
0.0
 11
7.855700959872788
 21
12.4570058546575
 31
0.0
 70
   160
  1
<>
 42
0.25
  3
Default (ANSI)
100
AcDbAlignedDimension
 13
6.631979254951575
 23
11.59573951883891
 33
0.0
 14
8.354799048310729
 24
11.84573951883891
 34
0.0
 50
90.0
100
AcDbRotatedDimension
1001
ACAD
1000
DSTYLE
1002
{
1070
   289
1070
     1
1070
   271
1070
     3
1070
    76
1070
     1
1070
   272
1070
     3
1070
    48
1040
0.0
1070
    47
1040
0.0
1002
}
  0
DIMENSION
  5
D9C
330
6C
100
AcDbEntity
  8
Dimension (ANSI)
100
AcDbDimension
  2
*D17
 10
6.57870962186675
 20
10.64170145961603
 30
0.0
 11
7.690814311423869
 21
10.178727267162
 31
0.0
 70
   163
  1
<>{\PTYP.}
 71
     5
 42
0.13
  3
Default (ANSI)
100
AcDbDiametricDimension
 15
6.670633503421013
 25
10.54977757806179
 35
0.0
 40
0.0
1001
ACAD
1000
DSTYLE
1002
{
1070
   144
1040
1.000000000000014
1070
   271
1070
     3
1070
   272
1070
     2
1070
    48
1040
0.0
1070
    47
1040
0.0
1002
}
1001
ACAD_DSTYLE_DIMRADIAL_EXTENSION
1070
   387
1070
     1
1070
   388
1040
0.0
1070
   390
1040
0.0
  0
LINE
  5
E55
330
6C
100
AcDbEntity
  8
Center Mark (ANSI)
  6
CHAIN
 48
0.185723215341568
100
AcDbLine
 10
6.881979254951574
 20
11.59573951883891
 30
0.0
 11
6.367363870336189
 21
11.59573951883891
 31
0.0
  0
LINE
  5
E56
330
6C
100
AcDbEntity
  8
Center Mark (ANSI)
  6
CHAIN
 48
0.185723215341568
100
AcDbLine
 10
6.624671562643882
 20
11.8530472111466
 30
0.0
 11
6.624671562643882
 21
11.33843182653122
 31
0.0
  0
MTEXT
  5
E57
102
{ACAD_XDICTIONARY
360
E63
102
}
330
6C
100
AcDbEntity
  8
Symbol (ANSI)
100
AcDbMText
 10
14.52897421585019
 20
1.444295678820249
 30
0.0
 40
0.1538461587560458
 41
11.35905708853654
 71
     4
 72
     1
  3
{\fRomanS|b0|i0|c0|p2;\H2x;PART#: N1P0808PP\P(DATA SUBJECT TO CHANGE WITHOUT NOTICE)\H1.6157x; \H0.61894x;\P \H1.352x; \H0.73963x;\P\H0.59994x;THIS DRAWING IS PROPERTY OF HUBBELL INC. WIEGMANN\H1.5634x; \H0.63964x;\PALL INFORMATION IS PROPRIETARY AND
  1
 NOT TO BE DUPLICATED\H1.234x; \H0.8104x;\P\H1.2571x; }
  7
Note Text (ANSI)
 73
     1
 44
0.8026435375213623
  0
ENDSEC
  0
SECTION
  2
OBJECTS
  0
DICTIONARY
  5
C
330
0
100
AcDbDictionary
281
     1
  3
ACAD_CIP_PREVIOUS_PRODUCT_INFO
350
E59
  3
ACAD_COLOR
350
63
  3
ACAD_GROUP
350
D
  3
ACAD_LAYOUT
350
62
  3
ACAD_MATERIAL
350
10
  3
ACAD_MLEADERSTYLE
350
66
  3
ACAD_MLINESTYLE
350
5F
  3
ACAD_PLOTSETTINGS
350
61
  3
ACAD_PLOTSTYLENAME
350
E
  3
ACAD_SCALELIST
350
42
  3
ACAD_TABLESTYLE
350
64
  3
ACAD_VISUALSTYLE
350
29
  3
ACDB_RECOMPOSE_DATA
350
E65
  3
AcDbVariableDictionary
350
76
  0
DICTIONARY
  5
E9B
330
5DF
100
AcDbDictionary
280
     1
281
     1
  3
ACAD_MTEXT_2008_RT
360
E9C
  0
DICTIONARY
  5
E9D
330
E4F
100
AcDbDictionary
280
     1
281
     1
  3
ACAD_MTEXT_2008_RT
360
E9E
  0
DICTIONARY
  5
E63
330
E57
100
AcDbDictionary
280
     1
281
     1
  3
ACAD_MTEXT_2008_RT
360
E64
  0
XRECORD
  5
E59
102
{ACAD_REACTORS
330
C
102
}
330
C
100
AcDbXrecord
280
     1
300
INVPROSA
300
2012
300
INVPROSA_F_S
  0
DICTIONARY
  5
63
102
{ACAD_REACTORS
330
C
102
}
330
C
100
AcDbDictionary
281
     1
  0
DICTIONARY
  5
D
102
{ACAD_REACTORS
330
C
102
}
330
C
100
AcDbDictionary
281
     1
  0
DICTIONARY
  5
62
102
{ACAD_REACTORS
330
C
102
}
330
C
100
AcDbDictionary
281
     1
  3
Layout1
350
6B
  3
Layout2
350
73
  3
Model
350
6F
  0
DICTIONARY
  5
10
102
{ACAD_REACTORS
330
C
102
}
330
C
100
AcDbDictionary
281
     1
  3
ByBlock
350
19
  3
ByLayer
350
11
  3
Global
350
21
  0
DICTIONARY
  5
66
102
{ACAD_REACTORS
330
C
102
}
330
C
100
AcDbDictionary
281
     1
  3
Standard
350
67
  0
DICTIONARY
  5
5F
102
{ACAD_REACTORS
330
C
102
}
330
C
100
AcDbDictionary
281
     1
  3
Standard
350
60
  0
DICTIONARY
  5
61
102
{ACAD_REACTORS
330
C
102
}
330
C
100
AcDbDictionary
281
     1
  0
ACDBDICTIONARYWDFLT
  5
E
102
{ACAD_REACTORS
330
C
102
}
330
C
100
AcDbDictionary
281
     1
  3
Normal
350
F
100
AcDbDictionaryWithDefault
340
F
  0
DICTIONARY
  5
42
102
{ACAD_REACTORS
330
C
102
}
330
C
100
AcDbDictionary
281
     1
  3
A0
350
43
  3
A1
350
44
  3
A2
350
45
  3
A3
350
46
  3
A4
350
47
  3
A5
350
48
  3
A6
350
49
  3
A7
350
4A
  3
A8
350
4B
  3
A9
350
4C
  3
B0
350
4D
  3
B1
350
4E
  3
B2
350
4F
  3
B3
350
50
  3
B4
350
51
  3
B5
350
52
  3
B6
350
53
  0
DICTIONARY
  5
64
102
{ACAD_REACTORS
330
C
102
}
330
C
100
AcDbDictionary
281
     1
  3
Standard
350
65
  0
DICTIONARY
  5
29
102
{ACAD_REACTORS
330
C
102
}
330
C
100
AcDbDictionary
281
     1
  3
2dWireframe
350
2F
  3
Basic
350
2E
  3
Brighten
350
35
  3
ColorChange
350
39
  3
Conceptual
350
32
  3
Dim
350
34
  3
EdgeColorOff
350
41
  3
Facepattern
350
38
  3
Flat
350
2A
  3
FlatWithEdges
350
2B
  3
Gouraud
350
2C
  3
GouraudWithEdges
350
2D
  3
Hidden
350
31
  3
JitterOff
350
3F
  3
Linepattern
350
37
  3
OverhangOff
350
40
  3
Realistic
350
33
  3
Shaded
350
3E
  3
Shaded with edges
350
3D
  3
Shades of Gray
350
3A
  3
Sketchy
350
3B
  3
Thicken
350
36
  3
Wireframe
350
30
  3
X-Ray
350
3C
  0
XRECORD
  5
E65
102
{ACAD_REACTORS
330
C
102
}
330
C
100
AcDbXrecord
280
     1
 90
        1
330
65
330
E57
  0
DICTIONARY
  5
76
102
{ACAD_REACTORS
330
C
102
}
330
C
100
AcDbDictionary
281
     1
  3
CANNOSCALE
350
79
  3
CMLEADERSTYLE
350
78
  3
CTABLESTYLE
350
77
  3
LAYEREVAL
350
E5C
  3
LAYERNOTIFY
350
E5D
  3
LIGHTINGUNITS
350
E5B
  3
MSLTSCALE
350
E5A
  3
XCLIPFRAME
350
E5E
  0
XRECORD
  5
E9C
102
{ACAD_REACTORS
330
E9B
102
}
330
E9B
100
AcDbXrecord
280
     1
 40
36037.0
  1
\A1;\U+22050.250{\PGROUND HOLE}
  0
XRECORD
  5
E9E
102
{ACAD_REACTORS
330
E9D
102
}
330
E9D
100
AcDbXrecord
280
     1
 40
21816.0
  1
\A1;\U+22050.130{\PTYP.}
  0
XRECORD
  5
E64
102
{ACAD_REACTORS
330
E63
102
}
330
E63
100
AcDbXrecord
280
     1
 40
3147621.0
  1
\pxsm0.94;{\fRomanS|b0|i0;\H0.3077;PART#: N1P0808PP\P(DATA SUBJECT TO CHANGE WITHOUT NOTICE)\P \P\fRomanS|b0|i0;\H0.1846;THIS DRAWING IS PROPERTY OF HUBBELL INC. WIEGMANN\PALL INFORMATION IS PROPRIETARY AND NOT TO BE DUPLICATED\P}
  0
LAYOUT
  5
6B
102
{ACAD_REACTORS
330
62
102
}
330
62
100
AcDbPlotSettings
  1

  2

  4

  6

 40
0.0
 41
0.0
 42
0.0
 43
0.0
 44
0.0
 45
0.0
 46
0.0
 47
0.0
 48
0.0
 49
0.0
140
0.0
141
0.0
142
1.0
143
1.0
 70
   688
 72
     0
 73
     0
 74
     5
  7

 75
    16
147
1.0
 76
     0
 77
     2
 78
   300
148
0.0
149
0.0
100
AcDbLayout
  1
Layout1
 70
     1
 71
     1
 10
0.0
 20
0.0
 11
12.0
 21
9.0
 12
0.0
 22
0.0
 32
0.0
 14
0.0
 24
0.0
 34
0.0
 15
0.0
 25
0.0
 35
0.0
146
0.0
 13
0.0
 23
0.0
 33
0.0
 16
1.0
 26
0.0
 36
0.0
 17
0.0
 27
1.0
 37
0.0
 76
     0
330
68
  0
LAYOUT
  5
73
102
{ACAD_REACTORS
330
62
102
}
330
62
100
AcDbPlotSettings
  1

  2

  4

  6

 40
0.0
 41
0.0
 42
0.0
 43
0.0
 44
0.0
 45
0.0
 46
0.0
 47
0.0
 48
0.0
 49
0.0
140
0.0
141
0.0
142
1.0
143
1.0
 70
   688
 72
     0
 73
     0
 74
     5
  7

 75
    16
147
1.0
 76
     0
 77
     2
 78
   300
148
0.0
149
0.0
100
AcDbLayout
  1
Layout2
 70
     1
 71
     2
 10
0.0
 20
0.0
 11
12.0
 21
9.0
 12
0.0
 22
0.0
 32
0.0
 14
0.0
 24
0.0
 34
0.0
 15
0.0
 25
0.0
 35
0.0
146
0.0
 13
0.0
 23
0.0
 33
0.0
 16
1.0
 26
0.0
 36
0.0
 17
0.0
 27
1.0
 37
0.0
 76
     0
330
70
  0
LAYOUT
  5
6F
102
{ACAD_REACTORS
330
62
102
}
330
62
100
AcDbPlotSettings
  1

  2

  4

  6

 40
0.0
 41
0.0
 42
0.0
 43
0.0
 44
0.0
 45
0.0
 46
0.0
 47
0.0
 48
0.0
 49
0.0
140
0.0
141
0.0
142
1.0
143
1.0
 70
  1712
 72
     0
 73
     0
 74
     0
  7

 75
     0
147
1.0
 76
     0
 77
     2
 78
   300
148
0.0
149
0.0
100
AcDbLayout
  1
Model
 70
     1
 71
     0
 10
0.0
 20
0.0
 11
12.0
 21
9.0
 12
0.0
 22
0.0
 32
0.0
 14
0.0
 24
0.0
 34
0.0
 15
0.0
 25
0.0
 35
0.0
146
0.0
 13
0.0
 23
0.0
 33
0.0
 16
1.0
 26
0.0
 36
0.0
 17
0.0
 27
1.0
 37
0.0
 76
     0
330
6C
  0
MATERIAL
  5
19
102
{ACAD_XDICTIONARY
360
1A
102
}
102
{ACAD_REACTORS
330
10
102
}
330
10
100
AcDbMaterial
  1
ByBlock
 72
     0
 43
0.0208333333333333
 43
0.0
 43
0.0
 43
0.0
 43
0.0
 43
0.0208333333333333
 43
0.0
 43
0.0
 43
0.0
 43
0.0
 43
1.0
 43
0.0
 43
0.0
 43
0.0
 43
0.0
 43
1.0
 77
     0
 47
0.0208333333333333
 47
0.0
 47
0.0
 47
0.0
 47
0.0
 47
0.0208333333333333
 47
0.0
 47
0.0
 47
0.0
 47
0.0
 47
1.0
 47
0.0
 47
0.0
 47
0.0
 47
0.0
 47
1.0
171
     0
 49
0.0208333333333333
 49
0.0
 49
0.0
 49
0.0
 49
0.0
 49
0.0208333333333333
 49
0.0
 49
0.0
 49
0.0
 49
0.0
 49
1.0
 49
0.0
 49
0.0
 49
0.0
 49
0.0
 49
1.0
175
     0
142
0.0208333333333333
142
0.0
142
0.0
142
0.0
142
0.0
142
0.0208333333333333
142
0.0
142
0.0
142
0.0
142
0.0
142
1.0
142
0.0
142
0.0
142
0.0
142
0.0
142
1.0
179
     0
144
0.0208333333333333
144
0.0
144
0.0
144
0.0
144
0.0
144
0.0208333333333333
144
0.0
144
0.0
144
0.0
144
0.0
144
1.0
144
0.0
144
0.0
144
0.0
144
0.0
144
1.0
147
0.0208333333333333
147
0.0
147
0.0
147
0.0
147
0.0
147
0.0208333333333333
147
0.0
147
0.0
147
0.0
147
0.0
147
1.0
147
0.0
147
0.0
147
0.0
147
0.0
147
1.0
  0
MATERIAL
  5
11
102
{ACAD_XDICTIONARY
360
12
102
}
102
{ACAD_REACTORS
330
10
102
}
330
10
100
AcDbMaterial
  1
ByLayer
 72
     0
 43
0.0208333333333333
 43
0.0
 43
0.0
 43
0.0
 43
0.0
 43
0.0208333333333333
 43
0.0
 43
0.0
 43
0.0
 43
0.0
 43
1.0
 43
0.0
 43
0.0
 43
0.0
 43
0.0
 43
1.0
 77
     0
 47
0.0208333333333333
 47
0.0
 47
0.0
 47
0.0
 47
0.0
 47
0.0208333333333333
 47
0.0
 47
0.0
 47
0.0
 47
0.0
 47
1.0
 47
0.0
 47
0.0
 47
0.0
 47
0.0
 47
1.0
171
     0
 49
0.0208333333333333
 49
0.0
 49
0.0
 49
0.0
 49
0.0
 49
0.0208333333333333
 49
0.0
 49
0.0
 49
0.0
 49
0.0
 49
1.0
 49
0.0
 49
0.0
 49
0.0
 49
0.0
 49
1.0
175
     0
142
0.0208333333333333
142
0.0
142
0.0
142
0.0
142
0.0
142
0.0208333333333333
142
0.0
142
0.0
142
0.0
142
0.0
142
1.0
142
0.0
142
0.0
142
0.0
142
0.0
142
1.0
179
     0
144
0.0208333333333333
144
0.0
144
0.0
144
0.0
144
0.0
144
0.0208333333333333
144
0.0
144
0.0
144
0.0
144
0.0
144
1.0
144
0.0
144
0.0
144
0.0
144
0.0
144
1.0
147
0.0208333333333333
147
0.0
147
0.0
147
0.0
147
0.0
147
0.0208333333333333
147
0.0
147
0.0
147
0.0
147
0.0
147
1.0
147
0.0
147
0.0
147
0.0
147
0.0
147
1.0
  0
MATERIAL
  5
21
102
{ACAD_XDICTIONARY
360
22
102
}
102
{ACAD_REACTORS
330
10
102
}
330
10
100
AcDbMaterial
  1
Global
 72
     0
 43
0.0208333333333333
 43
0.0
 43
0.0
 43
0.0
 43
0.0
 43
0.0208333333333333
 43
0.0
 43
0.0
 43
0.0
 43
0.0
 43
1.0
 43
0.0
 43
0.0
 43
0.0
 43
0.0
 43
1.0
 77
     0
 47
0.0208333333333333
 47
0.0
 47
0.0
 47
0.0
 47
0.0
 47
0.0208333333333333
 47
0.0
 47
0.0
 47
0.0
 47
0.0
 47
1.0
 47
0.0
 47
0.0
 47
0.0
 47
0.0
 47
1.0
171
     0
 49
0.0208333333333333
 49
0.0
 49
0.0
 49
0.0
 49
0.0
 49
0.0208333333333333
 49
0.0
 49
0.0
 49
0.0
 49
0.0
 49
1.0
 49
0.0
 49
0.0
 49
0.0
 49
0.0
 49
1.0
175
     0
142
0.0208333333333333
142
0.0
142
0.0
142
0.0
142
0.0
142
0.0208333333333333
142
0.0
142
0.0
142
0.0
142
0.0
142
1.0
142
0.0
142
0.0
142
0.0
142
0.0
142
1.0
179
     0
144
0.0208333333333333
144
0.0
144
0.0
144
0.0
144
0.0
144
0.0208333333333333
144
0.0
144
0.0
144
0.0
144
0.0
144
1.0
144
0.0
144
0.0
144
0.0
144
0.0
144
1.0
147
0.0208333333333333
147
0.0
147
0.0
147
0.0
147
0.0
147
0.0208333333333333
147
0.0
147
0.0
147
0.0
147
0.0
147
1.0
147
0.0
147
0.0
147
0.0
147
0.0
147
1.0
  0
MLEADERSTYLE
  5
67
102
{ACAD_XDICTIONARY
360
E61
102
}
102
{ACAD_REACTORS
330
66
102
}
330
66
100
AcDbMLeaderStyle
170
     2
171
     1
172
     0
 90
        2
 40
0.0
 41
0.0
173
     1
 91
-1056964608
340
5B
 92
       -2
290
     1
 42
0.09
291
     1
 43
0.36
  3
Standard
 44
0.18
300

342
55
174
     1
178
     6
175
     1
176
     0
 93
-1056964608
 45
0.18
292
     0
297
     0
 46
0.18
 94
-1056964608
 47
1.0
 49
1.0
140
1.0
293
     1
141
0.0
294
     1
177
     0
142
1.0
295
     0
296
     0
143
0.125
1001
ACAD_MLEADERVER
1070
     2
  0
MLINESTYLE
  5
60
102
{ACAD_REACTORS
330
5F
102
}
330
5F
100
AcDbMlineStyle
  2
STANDARD
 70
     0
  3

 62
   256
 51
90.0
 52
90.0
 71
     2
 49
0.5
 62
   256
  6
BYLAYER
 49
-0.5
 62
   256
  6
BYLAYER
  0
ACDBPLACEHOLDER
  5
F
102
{ACAD_REACTORS
330
E
102
}
330
E
  0
SCALE
  5
43
102
{ACAD_REACTORS
330
42
102
}
330
42
100
AcDbScale
 70
     0
300
1:1
140
1.0
141
1.0
290
     1
  0
SCALE
  5
44
102
{ACAD_REACTORS
330
42
102
}
330
42
100
AcDbScale
 70
     0
300
1/128" = 1'-0"
140
0.0078125
141
12.0
290
     0
  0
SCALE
  5
45
102
{ACAD_REACTORS
330
42
102
}
330
42
100
AcDbScale
 70
     0
300
1/64" = 1'-0"
140
0.015625
141
12.0
290
     0
  0
SCALE
  5
46
102
{ACAD_REACTORS
330
42
102
}
330
42
100
AcDbScale
 70
     0
300
1/32" = 1'-0"
140
0.03125
141
12.0
290
     0
  0
SCALE
  5
47
102
{ACAD_REACTORS
330
42
102
}
330
42
100
AcDbScale
 70
     0
300
1/16" = 1'-0"
140
0.0625
141
12.0
290
     0
  0
SCALE
  5
48
102
{ACAD_REACTORS
330
42
102
}
330
42
100
AcDbScale
 70
     0
300
3/32" = 1'-0"
140
0.09375
141
12.0
290
     0
  0
SCALE
  5
49
102
{ACAD_REACTORS
330
42
102
}
330
42
100
AcDbScale
 70
     0
300
1/8" = 1'-0"
140
0.125
141
12.0
290
     0
  0
SCALE
  5
4A
102
{ACAD_REACTORS
330
42
102
}
330
42
100
AcDbScale
 70
     0
300
3/16" = 1'-0"
140
0.1875
141
12.0
290
     0
  0
SCALE
  5
4B
102
{ACAD_REACTORS
330
42
102
}
330
42
100
AcDbScale
 70
     0
300
1/4" = 1'-0"
140
0.25
141
12.0
290
     0
  0
SCALE
  5
4C
102
{ACAD_REACTORS
330
42
102
}
330
42
100
AcDbScale
 70
     0
300
3/8" = 1'-0"
140
0.375
141
12.0
290
     0
  0
SCALE
  5
4D
102
{ACAD_REACTORS
330
42
102
}
330
42
100
AcDbScale
 70
     0
300
1/2" = 1'-0"
140
0.5
141
12.0
290
     0
  0
SCALE
  5
4E
102
{ACAD_REACTORS
330
42
102
}
330
42
100
AcDbScale
 70
     0
300
3/4" = 1'-0"
140
0.75
141
12.0
290
     0
  0
SCALE
  5
4F
102
{ACAD_REACTORS
330
42
102
}
330
42
100
AcDbScale
 70
     0
300
1" = 1'-0"
140
1.0
141
12.0
290
     0
  0
SCALE
  5
50
102
{ACAD_REACTORS
330
42
102
}
330
42
100
AcDbScale
 70
     0
300
1-1/2" = 1'-0"
140
1.5
141
12.0
290
     0
  0
SCALE
  5
51
102
{ACAD_REACTORS
330
42
102
}
330
42
100
AcDbScale
 70
     0
300
3" = 1'-0"
140
3.0
141
12.0
290
     0
  0
SCALE
  5
52
102
{ACAD_REACTORS
330
42
102
}
330
42
100
AcDbScale
 70
     0
300
6" = 1'-0"
140
6.0
141
12.0
290
     0
  0
SCALE
  5
53
102
{ACAD_REACTORS
330
42
102
}
330
42
100
AcDbScale
 70
     0
300
1'-0" = 1'-0"
140
12.0
141
12.0
290
     0
  0
TABLESTYLE
  5
65
102
{ACAD_XDICTIONARY
360
E5F
102
}
102
{ACAD_REACTORS
330
64
102
}
330
64
100
AcDbTableStyle
  3
Standard
 70
     0
 71
     0
 40
0.06
 41
0.06
280
     0
281
     0
  7
Standard
140
0.18
170
     2
 62
     0
 63
     7
283
     0
274
    -2
284
     1
 64
     0
275
    -2
285
     1
 65
     0
276
    -2
286
     1
 66
     0
277
    -2
287
     1
 67
     0
278
    -2
288
     1
 68
     0
279
    -2
289
     1
 69
     0
  7
Standard
140
0.25
170
     5
 62
     0
 63
     7
283
     0
274
    -2
284
     1
 64
     0
275
    -2
285
     1
 65
     0
276
    -2
286
     1
 66
     0
277
    -2
287
     1
 67
     0
278
    -2
288
     1
 68
     0
279
    -2
289
     1
 69
     0
  7
Standard
140
0.18
170
     5
 62
     0
 63
     7
283
     0
274
    -2
284
     1
 64
     0
275
    -2
285
     1
 65
     0
276
    -2
286
     1
 66
     0
277
    -2
287
     1
 67
     0
278
    -2
288
     1
 68
     0
279
    -2
289
     1
 69
     0
  0
VISUALSTYLE
  5
2F
102
{ACAD_XDICTIONARY
360
E73
102
}
102
{ACAD_REACTORS
330
29
102
}
330
29
100
AcDbVisualStyle
  2
2dWireframe
 70
     4
 71
     0
 72
     2
 73
     0
 90
        0
 40
-0.6
 41
-30.0
 62
     5
 63
     7
421
 16777215
 74
     1
 91
        4
 64
     7
 65
   257
 75
     1
175
     1
 42
1.0
 92
        0
 66
   257
 43
1.0
 76
     1
 77
     6
 78
     2
 67
     7
 79
     5
170
     0
171
     0
290
     0
174
     0
 93
        1
 44
0.0
173
     0
291
     0
 45
0.0
1001
ACAD
1000
AcDbSavedByObjectVersion
1070
     0
  0
VISUALSTYLE
  5
2E
102
{ACAD_XDICTIONARY
360
E71
102
}
102
{ACAD_REACTORS
330
29
102
}
330
29
100
AcDbVisualStyle
  2
Basic
 70
     7
 71
     1
 72
     0
 73
     1
 90
        0
 40
-0.6
 41
-30.0
 62
     5
 63
     7
421
 16777215
 74
     0
 91
        4
 64
     7
 65
   257
 75
     1
175
     1
 42
1.0
 92
        8
 66
     7
 43
1.0
 76
     1
 77
     6
 78
     2
 67
     7
 79
     5
170
     0
171
     0
290
     0
174
     0
 93
        1
 44
0.0
173
     0
291
     1
 45
0.0
1001
ACAD
1000
AcDbSavedByObjectVersion
1070
     0
  0
VISUALSTYLE
  5
35
102
{ACAD_XDICTIONARY
360
E7F
102
}
102
{ACAD_REACTORS
330
29
102
}
330
29
100
AcDbVisualStyle
  2
Brighten
 70
    12
 71
     2
 72
     2
 73
     0
 90
        0
 40
-0.6
 41
-30.0
 62
     5
 63
     7
421
 16777215
 74
     1
 91
        4
 64
     7
 65
   257
 75
     1
175
     1
 42
1.0
 92
        8
 66
     7
 43
1.0
 76
     1
 77
     6
 78
     2
 67
     7
 79
     5
170
     0
171
     0
290
     0
174
     0
 93
        1
 44
50.0
173
     0
291
     1
 45
0.0
1001
ACAD
1000
AcDbSavedByObjectVersion
1070
     0
  0
VISUALSTYLE
  5
39
102
{ACAD_XDICTIONARY
360
E87
102
}
102
{ACAD_REACTORS
330
29
102
}
330
29
100
AcDbVisualStyle
  2
ColorChange
 70
    16
 71
     2
 72
     2
 73
     3
 90
        0
 40
-0.6
 41
-30.0
 62
     5
 63
     8
421
  8421504
 74
     1
 91
        4
 64
     7
 65
   257
 75
     1
175
     1
 42
1.0
 92
        8
 66
     8
424
  8421504
 43
1.0
 76
     1
 77
     6
 78
     2
 67
     7
 79
     5
170
     0
171
     0
290
     0
174
     0
 93
        1
 44
0.0
173
     0
291
     1
 45
0.0
1001
ACAD
1000
AcDbSavedByObjectVersion
1070
     0
  0
VISUALSTYLE
  5
32
102
{ACAD_XDICTIONARY
360
E79
102
}
102
{ACAD_REACTORS
330
29
102
}
330
29
100
AcDbVisualStyle
  2
Conceptual
 70
     9
 71
     3
 72
     2
 73
     0
 90
        0
 40
-0.6
 41
-30.0
 62
     5
 63
     7
421
 16777215
 74
     2
 91
        2
 64
     7
 65
   257
 75
     1
175
     1
 42
179.0
 92
        8
 66
     7
 43
1.0
 76
     1
 77
     6
 78
     2
 67
     7
 79
     3
170
     0
171
     0
290
     0
174
     0
 93
        1
 44
0.0
173
     0
291
     0
 45
0.0
1001
ACAD
1000
AcDbSavedByObjectVersion
1070
     0
  0
VISUALSTYLE
  5
34
102
{ACAD_XDICTIONARY
360
E7D
102
}
102
{ACAD_REACTORS
330
29
102
}
330
29
100
AcDbVisualStyle
  2
Dim
 70
    11
 71
     2
 72
     2
 73
     0
 90
        0
 40
-0.6
 41
-30.0
 62
     5
 63
     7
421
 16777215
 74
     1
 91
        4
 64
     7
 65
   257
 75
     1
175
     1
 42
1.0
 92
        8
 66
     7
 43
1.0
 76
     1
 77
     6
 78
     2
 67
     7
 79
     5
170
     0
171
     0
290
     0
174
     0
 93
        1
 44
-50.0
173
     0
291
     1
 45
0.0
1001
ACAD
1000
AcDbSavedByObjectVersion
1070
     0
  0
VISUALSTYLE
  5
41
102
{ACAD_XDICTIONARY
360
E97
102
}
102
{ACAD_REACTORS
330
29
102
}
330
29
100
AcDbVisualStyle
  2
EdgeColorOff
 70
    22
 71
     2
 72
     2
 73
     0
 90
        0
 40
-0.6
 41
-30.0
 62
     5
 63
     7
421
 16777215
 74
     1
 91
        4
 64
     7
 65
   257
 75
     1
175
     1
 42
1.0
 92
        8
 66
     7
 43
1.0
 76
     1
 77
     6
 78
     2
 67
     7
 79
     5
170
     0
171
     0
290
     0
174
     0
 93
        1
 44
0.0
173
     0
291
     1
 45
0.0
1001
ACAD
1000
AcDbSavedByObjectVersion
1070
     0
  0
VISUALSTYLE
  5
38
102
{ACAD_XDICTIONARY
360
E85
102
}
102
{ACAD_REACTORS
330
29
102
}
330
29
100
AcDbVisualStyle
  2
Facepattern
 70
    15
 71
     2
 72
     2
 73
     0
 90
        0
 40
-0.6
 41
-30.0
 62
     5
 63
     7
421
 16777215
 74
     1
 91
        4
 64
     7
 65
   257
 75
     1
175
     1
 42
1.0
 92
        8
 66
     7
 43
1.0
 76
     1
 77
     6
 78
     2
 67
     7
 79
     5
170
     0
171
     0
290
     0
174
     0
 93
        1
 44
0.0
173
     0
291
     1
 45
0.0
1001
ACAD
1000
AcDbSavedByObjectVersion
1070
     0
  0
VISUALSTYLE
  5
2A
102
{ACAD_XDICTIONARY
360
E69
102
}
102
{ACAD_REACTORS
330
29
102
}
330
29
100
AcDbVisualStyle
  2
Flat
 70
     0
 71
     2
 72
     1
 73
     1
 90
        2
 40
-0.6
 41
30.0
 62
     5
 63
     7
421
 16777215
 74
     0
 91
        0
 64
     7
 65
   257
 75
     1
175
     1
 42
1.0
 92
        8
 66
     7
 43
1.0
 76
     1
 77
     6
 78
     2
 67
     7
 79
     5
170
     0
171
     0
290
     0
174
     0
 93
       13
 44
0.0
173
     0
291
     1
 45
0.0
1001
ACAD
1000
AcDbSavedByObjectVersion
1070
     0
  0
VISUALSTYLE
  5
2B
102
{ACAD_XDICTIONARY
360
E6B
102
}
102
{ACAD_REACTORS
330
29
102
}
330
29
100
AcDbVisualStyle
  2
FlatWithEdges
 70
     1
 71
     2
 72
     1
 73
     1
 90
        2
 40
-0.6
 41
30.0
 62
     5
 63
     7
421
 16777215
 74
     1
 91
        0
 64
     7
 65
   257
 75
     1
175
     1
 42
1.0
 92
        0
 66
   257
 43
1.0
 76
     1
 77
     6
 78
     2
 67
     7
 79
     5
170
     0
171
     0
290
     0
174
     0
 93
       13
 44
0.0
173
     0
291
     1
 45
0.0
1001
ACAD
1000
AcDbSavedByObjectVersion
1070
     0
  0
VISUALSTYLE
  5
2C
102
{ACAD_XDICTIONARY
360
E6D
102
}
102
{ACAD_REACTORS
330
29
102
}
330
29
100
AcDbVisualStyle
  2
Gouraud
 70
     2
 71
     2
 72
     2
 73
     1
 90
        2
 40
-0.6
 41
30.0
 62
     5
 63
     7
421
 16777215
 74
     0
 91
        0
 64
     7
 65
   257
 75
     1
175
     1
 42
1.0
 92
        0
 66
     7
 43
1.0
 76
     1
 77
     6
 78
     2
 67
     7
 79
     5
170
     0
171
     0
290
     0
174
     0
 93
       13
 44
0.0
173
     0
291
     1
 45
0.0
1001
ACAD
1000
AcDbSavedByObjectVersion
1070
     0
  0
VISUALSTYLE
  5
2D
102
{ACAD_XDICTIONARY
360
E6F
102
}
102
{ACAD_REACTORS
330
29
102
}
330
29
100
AcDbVisualStyle
  2
GouraudWithEdges
 70
     3
 71
     2
 72
     2
 73
     1
 90
        2
 40
-0.6
 41
30.0
 62
     5
 63
     7
421
 16777215
 74
     1
 91
        0
 64
     7
 65
   257
 75
     1
175
     1
 42
1.0
 92
        0
 66
   257
 43
1.0
 76
     1
 77
     6
 78
     2
 67
     7
 79
     5
170
     0
171
     0
290
     0
174
     0
 93
       13
 44
0.0
173
     0
291
     1
 45
0.0
1001
ACAD
1000
AcDbSavedByObjectVersion
1070
     0
  0
VISUALSTYLE
  5
31
102
{ACAD_XDICTIONARY
360
E77
102
}
102
{ACAD_REACTORS
330
29
102
}
330
29
100
AcDbVisualStyle
  2
Hidden
 70
     6
 71
     1
 72
     2
 73
     2
 90
        0
 40
-0.6
 41
-30.0
 62
     5
 63
     7
421
 16777215
 74
     2
 91
        2
 64
     7
 65
   257
 75
     2
175
     1
 42
40.0
 92
        0
 66
   257
 43
1.0
 76
     1
 77
     6
 78
     2
 67
     7
 79
     3
170
     0
171
     0
290
     0
174
     0
 93
        1
 44
0.0
173
     0
291
     0
 45
0.0
1001
ACAD
1000
AcDbSavedByObjectVersion
1070
     0
  0
VISUALSTYLE
  5
3F
102
{ACAD_XDICTIONARY
360
E93
102
}
102
{ACAD_REACTORS
330
29
102
}
330
29
100
AcDbVisualStyle
  2
JitterOff
 70
    20
 71
     2
 72
     2
 73
     0
 90
        0
 40
-0.6
 41
-30.0
 62
     5
 63
     7
421
 16777215
 74
     1
 91
        4
 64
     7
 65
   257
 75
     1
175
     1
 42
1.0
 92
       10
 66
     7
 43
1.0
 76
     1
 77
     6
 78
     2
 67
     7
 79
     5
170
     0
171
     0
290
     0
174
     0
 93
        1
 44
0.0
173
     0
291
     1
 45
0.0
1001
ACAD
1000
AcDbSavedByObjectVersion
1070
     0
  0
VISUALSTYLE
  5
37
102
{ACAD_XDICTIONARY
360
E83
102
}
102
{ACAD_REACTORS
330
29
102
}
330
29
100
AcDbVisualStyle
  2
Linepattern
 70
    14
 71
     2
 72
     2
 73
     0
 90
        0
 40
-0.6
 41
-30.0
 62
     5
 63
     7
421
 16777215
 74
     1
 91
        4
 64
     7
 65
   257
 75
     7
175
     7
 42
1.0
 92
        8
 66
     7
 43
1.0
 76
     1
 77
     6
 78
     2
 67
     7
 79
     5
170
     0
171
     0
290
     0
174
     0
 93
        1
 44
0.0
173
     0
291
     1
 45
0.0
1001
ACAD
1000
AcDbSavedByObjectVersion
1070
     0
  0
VISUALSTYLE
  5
40
102
{ACAD_XDICTIONARY
360
E95
102
}
102
{ACAD_REACTORS
330
29
102
}
330
29
100
AcDbVisualStyle
  2
OverhangOff
 70
    21
 71
     2
 72
     2
 73
     0
 90
        0
 40
-0.6
 41
-30.0
 62
     5
 63
     7
421
 16777215
 74
     1
 91
        4
 64
     7
 65
   257
 75
     1
175
     1
 42
1.0
 92
        9
 66
     7
 43
1.0
 76
     1
 77
     6
 78
     2
 67
     7
 79
     5
170
     0
171
     0
290
     0
174
     0
 93
        1
 44
0.0
173
     0
291
     1
 45
0.0
1001
ACAD
1000
AcDbSavedByObjectVersion
1070
     0
  0
VISUALSTYLE
  5
33
102
{ACAD_XDICTIONARY
360
E7B
102
}
102
{ACAD_REACTORS
330
29
102
}
330
29
100
AcDbVisualStyle
  2
Realistic
 70
     8
 71
     2
 72
     3
 73
     0
 90
        2
 40
-0.6
 41
30.0
 62
     5
 63
     7
421
 16777215
 74
     0
 91
        0
 64
     7
 65
   257
 75
     1
175
     1
 42
1.0
 92
        8
 66
   257
 43
1.0
 76
     1
 77
     6
 78
     2
 67
     7
 79
     3
170
     0
171
     0
290
     0
174
     0
 93
       13
 44
0.0
173
     0
291
     0
 45
0.0
1001
ACAD
1000
AcDbSavedByObjectVersion
1070
     0
  0
VISUALSTYLE
  5
3E
102
{ACAD_XDICTIONARY
360
E91
102
}
102
{ACAD_REACTORS
330
29
102
}
330
29
100
AcDbVisualStyle
  2
Shaded
 70
    27
 71
     2
 72
     2
 73
     1
 90
        2
 40
-0.6
 41
30.0
 62
     5
 63
     7
421
 16777215
 74
     0
 91
        4
 64
     7
 65
   257
 75
     1
175
     1
 42
1.0
 92
        8
 66
   257
 43
1.0
 76
     1
 77
     6
 78
     2
 67
     8
425
  7895160
 79
     3
170
     0
171
     0
290
     0
174
     0
 93
        5
 44
0.0
173
     0
291
     0
 45
0.0
1001
ACAD
1000
AcDbSavedByObjectVersion
1070
     0
  0
VISUALSTYLE
  5
3D
102
{ACAD_XDICTIONARY
360
E8F
102
}
102
{ACAD_REACTORS
330
29
102
}
330
29
100
AcDbVisualStyle
  2
Shaded with edges
 70
    26
 71
     2
 72
     2
 73
     1
 90
        2
 40
-0.6
 41
30.0
 62
     5
 63
     7
421
 16777215
 74
     1
 91
       10
 64
     7
 65
   257
 75
     2
175
     1
 42
1.0
 92
        8
 66
   257
 43
1.0
 76
     1
 77
     6
 78
     2
 67
     7
 79
     3
170
     0
171
     0
290
     0
174
     0
 93
        5
 44
0.0
173
     0
291
     0
 45
0.0
1001
ACAD
1000
AcDbSavedByObjectVersion
1070
     0
  0
VISUALSTYLE
  5
3A
102
{ACAD_XDICTIONARY
360
E89
102
}
102
{ACAD_REACTORS
330
29
102
}
330
29
100
AcDbVisualStyle
  2
Shades of Gray
 70
    23
 71
     2
 72
     2
 73
     3
 90
        0
 40
-0.6
 41
-30.0
 62
     5
 63
     7
421
 16777215
 74
     2
 91
        2
 64
     7
 65
     7
 75
     1
175
     1
 42
40.0
 92
        8
 66
     7
 43
1.0
 76
     1
 77
     6
 78
     2
 67
     7
 79
     3
170
     0
171
     0
290
     0
174
     0
 93
        1
 44
0.0
173
     0
291
     0
 45
0.0
1001
ACAD
1000
AcDbSavedByObjectVersion
1070
     0
  0
VISUALSTYLE
  5
3B
102
{ACAD_XDICTIONARY
360
E8B
102
}
102
{ACAD_REACTORS
330
29
102
}
330
29
100
AcDbVisualStyle
  2
Sketchy
 70
    24
 71
     1
 72
     2
 73
     2
 90
        0
 40
-0.6
 41
-30.0
 62
     5
 63
     7
421
 16777215
 74
     2
 91
        2
 64
     7
 65
     7
 75
     1
175
     1
 42
40.0
 92
       11
 66
     7
 43
1.0
 76
     1
 77
     6
 78
     2
 67
     7
 79
     6
170
     0
171
     0
290
     0
174
     0
 93
        1
 44
0.0
173
     0
291
     0
 45
0.0
1001
ACAD
1000
AcDbSavedByObjectVersion
1070
     0
  0
VISUALSTYLE
  5
36
102
{ACAD_XDICTIONARY
360
E81
102
}
102
{ACAD_REACTORS
330
29
102
}
330
29
100
AcDbVisualStyle
  2
Thicken
 70
    13
 71
     2
 72
     2
 73
     0
 90
        0
 40
-0.6
 41
-30.0
 62
     5
 63
     7
421
 16777215
 74
     1
 91
        4
 64
     7
 65
   257
 75
     1
175
     1
 42
1.0
 92
       12
 66
     7
 43
1.0
 76
     1
 77
     6
 78
     2
 67
     7
 79
     5
170
     0
171
     0
290
     0
174
     0
 93
        1
 44
0.0
173
     0
291
     1
 45
0.0
1001
ACAD
1000
AcDbSavedByObjectVersion
1070
     0
  0
VISUALSTYLE
  5
30
102
{ACAD_XDICTIONARY
360
E75
102
}
102
{ACAD_REACTORS
330
29
102
}
330
29
100
AcDbVisualStyle
  2
Wireframe
 70
     5
 71
     0
 72
     2
 73
     0
 90
        0
 40
-0.6
 41
-30.0
 62
     5
 63
     7
421
 16777215
 74
     1
 91
        4
 64
     7
 65
   257
 75
     1
175
     1
 42
1.0
 92
        0
 66
   257
 43
1.0
 76
     1
 77
     6
 78
     2
 67
     7
 79
     3
170
     0
171
     0
290
     0
174
     0
 93
        1
 44
0.0
173
     0
291
     0
 45
0.0
1001
ACAD
1000
AcDbSavedByObjectVersion
1070
     0
  0
VISUALSTYLE
  5
3C
102
{ACAD_XDICTIONARY
360
E8D
102
}
102
{ACAD_REACTORS
330
29
102
}
330
29
100
AcDbVisualStyle
  2
X-Ray
 70
    25
 71
     2
 72
     2
 73
     1
 90
        1
 40
0.5
 41
-30.0
 62
     5
 63
     7
421
 16777215
 74
     1
 91
        0
 64
     7
 65
   257
 75
     1
175
     1
 42
1.0
 92
        8
 66
     7
 43
1.0
 76
     1
 77
     6
 78
     2
 67
     7
 79
     3
170
     0
171
     0
290
     0
174
     0
 93
       13
 44
0.0
173
     0
291
     0
 45
0.0
1001
ACAD
1000
AcDbSavedByObjectVersion
1070
     0
  0
DICTIONARYVAR
  5
79
102
{ACAD_REACTORS
330
76
102
}
330
76
100
DictionaryVariables
280
     0
  1
1:1
  0
DICTIONARYVAR
  5
78
102
{ACAD_REACTORS
330
76
102
}
330
76
100
DictionaryVariables
280
     0
  1
STANDARD
  0
DICTIONARYVAR
  5
77
102
{ACAD_REACTORS
330
76
102
}
330
76
100
DictionaryVariables
280
     0
  1
STANDARD
  0
DICTIONARYVAR
  5
E5C
102
{ACAD_REACTORS
330
76
102
}
330
76
100
DictionaryVariables
280
     0
  1
0
  0
DICTIONARYVAR
  5
E5D
102
{ACAD_REACTORS
330
76
102
}
330
76
100
DictionaryVariables
280
     0
  1
0
  0
DICTIONARYVAR
  5
E5B
102
{ACAD_REACTORS
330
76
102
}
330
76
100
DictionaryVariables
280
     0
  1
2
  0
DICTIONARYVAR
  5
E5A
102
{ACAD_REACTORS
330
76
102
}
330
76
100
DictionaryVariables
280
     0
  1
1
  0
DICTIONARYVAR
  5
E5E
102
{ACAD_REACTORS
330
76
102
}
330
76
100
DictionaryVariables
280
     0
  1
2
  0
DICTIONARY
  5
1A
330
19
100
AcDbDictionary
280
     1
281
     1
  3
ACAD_XREC_ROUNDTRIP
360
E67
  3
BUMPTILE
360
1C
  3
DIFFUSETILE
360
1B
  3
OPACITYTILE
360
1F
  3
REFLECTIONTILE
360
1E
  3
REFRACTIONTILE
360
20
  3
SPECULARTILE
360
1D
  0
DICTIONARY
  5
12
330
11
100
AcDbDictionary
280
     1
281
     1
  3
ACAD_XREC_ROUNDTRIP
360
E66
  3
BUMPTILE
360
14
  3
DIFFUSETILE
360
13
  3
FBXASSET
360
109
  3
OPACITYTILE
360
17
  3
REFLECTIONTILE
360
16
  3
REFRACTIONTILE
360
18
  3
SPECULARTILE
360
15
  0
DICTIONARY
  5
22
330
21
100
AcDbDictionary
280
     1
281
     1
  3
ACAD_XREC_ROUNDTRIP
360
E68
  3
BUMPTILE
360
24
  3
DIFFUSETILE
360
23
  3
FBXASSET
360
BA
  3
OPACITYTILE
360
27
  3
REFLECTIONTILE
360
26
  3
REFRACTIONTILE
360
28
  3
SPECULARTILE
360
25
  0
DICTIONARY
  5
E61
330
67
100
AcDbDictionary
280
     1
281
     1
  3
ACAD_XREC_ROUNDTRIP
360
E62
  0
DICTIONARY
  5
E5F
330
65
100
AcDbDictionary
280
     1
281
     1
  3
ACAD_ROUNDTRIP_2008_TABLESTYLE_CELLSTYLEMAP
360
E60
  3
ACAD_XREC_ROUNDTRIP
360
E99
  0
DICTIONARY
  5
E73
330
2F
100
AcDbDictionary
280
     1
281
     1
  3
ACAD_XREC_ROUNDTRIP
360
E74
  0
DICTIONARY
  5
E71
330
2E
100
AcDbDictionary
280
     1
281
     1
  3
ACAD_XREC_ROUNDTRIP
360
E72
  0
DICTIONARY
  5
E7F
330
35
100
AcDbDictionary
280
     1
281
     1
  3
ACAD_XREC_ROUNDTRIP
360
E80
  0
DICTIONARY
  5
E87
330
39
100
AcDbDictionary
280
     1
281
     1
  3
ACAD_XREC_ROUNDTRIP
360
E88
  0
DICTIONARY
  5
E79
330
32
100
AcDbDictionary
280
     1
281
     1
  3
ACAD_XREC_ROUNDTRIP
360
E7A
  0
DICTIONARY
  5
E7D
330
34
100
AcDbDictionary
280
     1
281
     1
  3
ACAD_XREC_ROUNDTRIP
360
E7E
  0
DICTIONARY
  5
E97
330
41
100
AcDbDictionary
280
     1
281
     1
  3
ACAD_XREC_ROUNDTRIP
360
E98
  0
DICTIONARY
  5
E85
330
38
100
AcDbDictionary
280
     1
281
     1
  3
ACAD_XREC_ROUNDTRIP
360
E86
  0
DICTIONARY
  5
E69
330
2A
100
AcDbDictionary
280
     1
281
     1
  3
ACAD_XREC_ROUNDTRIP
360
E6A
  0
DICTIONARY
  5
E6B
330
2B
100
AcDbDictionary
280
     1
281
     1
  3
ACAD_XREC_ROUNDTRIP
360
E6C
  0
DICTIONARY
  5
E6D
330
2C
100
AcDbDictionary
280
     1
281
     1
  3
ACAD_XREC_ROUNDTRIP
360
E6E
  0
DICTIONARY
  5
E6F
330
2D
100
AcDbDictionary
280
     1
281
     1
  3
ACAD_XREC_ROUNDTRIP
360
E70
  0
DICTIONARY
  5
E77
330
31
100
AcDbDictionary
280
     1
281
     1
  3
ACAD_XREC_ROUNDTRIP
360
E78
  0
DICTIONARY
  5
E93
330
3F
100
AcDbDictionary
280
     1
281
     1
  3
ACAD_XREC_ROUNDTRIP
360
E94
  0
DICTIONARY
  5
E83
330
37
100
AcDbDictionary
280
     1
281
     1
  3
ACAD_XREC_ROUNDTRIP
360
E84
  0
DICTIONARY
  5
E95
330
40
100
AcDbDictionary
280
     1
281
     1
  3
ACAD_XREC_ROUNDTRIP
360
E96
  0
DICTIONARY
  5
E7B
330
33
100
AcDbDictionary
280
     1
281
     1
  3
ACAD_XREC_ROUNDTRIP
360
E7C
  0
DICTIONARY
  5
E91
330
3E
100
AcDbDictionary
280
     1
281
     1
  3
ACAD_XREC_ROUNDTRIP
360
E92
  0
DICTIONARY
  5
E8F
330
3D
100
AcDbDictionary
280
     1
281
     1
  3
ACAD_XREC_ROUNDTRIP
360
E90
  0
DICTIONARY
  5
E89
330
3A
100
AcDbDictionary
280
     1
281
     1
  3
ACAD_XREC_ROUNDTRIP
360
E8A
  0
DICTIONARY
  5
E8B
330
3B
100
AcDbDictionary
280
     1
281
     1
  3
ACAD_XREC_ROUNDTRIP
360
E8C
  0
DICTIONARY
  5
E81
330
36
100
AcDbDictionary
280
     1
281
     1
  3
ACAD_XREC_ROUNDTRIP
360
E82
  0
DICTIONARY
  5
E75
330
30
100
AcDbDictionary
280
     1
281
     1
  3
ACAD_XREC_ROUNDTRIP
360
E76
  0
DICTIONARY
  5
E8D
330
3C
100
AcDbDictionary
280
     1
281
     1
  3
ACAD_XREC_ROUNDTRIP
360
E8E
  0
XRECORD
  5
E67
102
{ACAD_REACTORS
330
1A
102
}
330
1A
100
AcDbXrecord
280
     1
102
MATERIAL
148
0.0
149
0.0
149
0.0
 93
        0
 94
      127
282
     0
 72
     0
 77
     0
171
     0
175
     0
179
     0
273
     0
  0
XRECORD
  5
1C
102
{ACAD_REACTORS
330
1A
102
}
330
1A
100
AcDbXrecord
280
     1
270
     1
271
     1
  0
XRECORD
  5
1B
102
{ACAD_REACTORS
330
1A
102
}
330
1A
100
AcDbXrecord
280
     1
270
     1
271
     1
  0
XRECORD
  5
1F
102
{ACAD_REACTORS
330
1A
102
}
330
1A
100
AcDbXrecord
280
     1
270
     1
271
     1
  0
XRECORD
  5
1E
102
{ACAD_REACTORS
330
1A
102
}
330
1A
100
AcDbXrecord
280
     1
270
     1
271
     1
  0
XRECORD
  5
20
102
{ACAD_REACTORS
330
1A
102
}
330
1A
100
AcDbXrecord
280
     1
270
     1
271
     1
  0
XRECORD
  5
1D
102
{ACAD_REACTORS
330
1A
102
}
330
1A
100
AcDbXrecord
280
     1
270
     1
271
     1
  0
XRECORD
  5
E66
102
{ACAD_REACTORS
330
12
102
}
330
12
100
AcDbXrecord
280
     1
102
MATERIAL
148
0.0
149
0.0
149
0.0
 93
        0
 94
      127
282
     0
 72
     0
 77
     0
171
     0
175
     0
179
     0
273
     0
  0
XRECORD
  5
14
102
{ACAD_REACTORS
330
12
102
}
330
12
100
AcDbXrecord
280
     1
270
     1
271
     1
  0
XRECORD
  5
13
102
{ACAD_REACTORS
330
12
102
}
330
12
100
AcDbXrecord
280
     1
270
     1
271
     1
  0
XRECORD
  5
109
102
{ACAD_REACTORS
330
12
102
}
330
12
100
AcDbXrecord
280
     1
 70
     1
 90
1959938040
 71
     1
  1
4E9EFB64-0FDE-4EA3-96B2-6B53A030B2E5
311
504B03040A00000800007A45E2423DEE336E79000000790000001B0000006175746F6465736B2D64657369676E2D7061636B6167652E786D6C3C3F786D6C2076657273696F6E3D22312E302220656E636F64696E673D227574662D3822203F3E3C666F726D6174733E3C666F726D61743E687474703A2F2F736368656D612E
311
6175746F6465736B2E636F6D2F64657369676E2D7061636B6167652F323030393C2F666F726D61743E3C2F666F726D6174733E504B03041400060808007A45E242D486FD9CA0000000F4000000130000005B436F6E74656E745F54797065735D2E786D6C7D8EC10E82300C865F65E91D8A1E8C310C0EEA1BF002731658846E
311
D98AC1B77784ABF1D8FE5FBFBF75BBCE937A534CCEB38643598122B6FEE978D0B0485F9C41B54DDD7D022595594E1A469170414C76A4D9A4D207E29CF43ECE46F218070CC6BECC4078ACAA135ACF422C856C0E68EA1BF5669944DDD7BCDE7B1F8E415D77AECB980613C2E4AC91FC167A2B244592486606FC29C8FD7F045B9A
311
EF7053A7E60B504B03041400060808007A45E242101DEE29EC0000007C01000008000000636F72652E786D6C8D90416EC3201045AF82665BE100C66D6C61A2244E4ED00B204C1C94182C03558F5F9C3852BBEB6A467FFE9B197DB1FB1EEFE8CBCCC17AD7022D0820E3B4EFAD1B5A48F182B7807652CCDEC75F36404E8DA685
311
45062986D9A76995B477D1B89855E77BB38A2A041301E97B6E5A08FA6A4655A814B323DC8A49E99B1A4C415F5D8653B23D7A1EB17DDE672FD6CC204F75772487F73D3E75E48039A104D79C76F8CC19ADF9F1BCE7AC129B059622DAF1755FCF4645D383648496987C60C23EC9B6E16553B137523525119BC5FE074A53FF4F28
311
59174BB6BEFBC402489A1F790CA4D82C59E4F2082AD72537F903504B03041400060808007A45E24255019EA25F0000007C00000007000000636E782E786D6C4DCB3B0E80201045D1AD90E915ED2CF8AC45050C11660C8261F98AB1B07AC9C97D42D718D865D3E909258CFD00CCE24AC6E326A164D74DC0B4128928FF326038
311
472BA13128B1252AC747C6BAB984FC68F0B87FE8960A5C09FE86CFB69FBA01504B03041400060808007A45E242BBC625C767010000020300000C0000006662782F636F72652E786D6C8D525B6E833010BC8AE5DF0A6C1E6993C838CAF304BD80631C8A02363236CAF1BB3C229A2A8A222463CDECECCE0EB0CDADAE50A76C5B
311
1A9DE128A418292D4D5EEA22C3DE5D8225461BCEAC31EE4F19465AD42AC33D8C392BACF1CD0449A39DD20E506D723581A26D95C3485670C9702B7F542D42E11D54B4D7B011F22A0A154621D050C759EB2C1840E390FEC4FC72BE3132E29C795FE6135BE630ADBC94CA627E5C1DF674F7B90D8E07BA0B521AD160954687E094
311
C6D12ADD9FB669BC60A41773E6CAFAEE4E5A259CCA318F699404F42BA0F1375DAED364BD883FE8629D5046FAF207916FF23745BED42E8927BBA3ACC53C022303F16F5B88C8A15674E0877046FA10E13524FC18340402213B71AEEE7B5C01EA9474C6A6C0E4C6CF54272AAF602A45C3C3C8C842E7A1016CF6B44FFCA2CFEB1E
311
F001852EC09A70703D7BD74F67E3D4298A46D9A07337A48DAD45359B1B2DCEE73CE8A95C9ACAD877D4645A954C6192FEEFE5BF504B03041400060808007A45E24204BBD8DD7D0000009D0000000B0000006662782F636E782E786D6C4DCCD10A83201886E15B91FFDCA54D62811A5A761FB12C64A6C3E9D8E5AF46073BFAE0
311
E1E3E5DD67F3E86DD3CBC520805E08201BEE7176611550F2826F803AC9538CF9EF06284C9B15703048BEA6589E27CD76998ACFBB7A171E2792415152AB1137A361980DA6C5AA6F3466FD5533CD8869A9814AF2EA57DAF708CB2F504B03041400060808007A45E242D6A44AB52F01000015020000310000006662782F304441
311
31303241462D364645342D344445392D414336422D3443334234423430453931452F636F72652E786D6C8D515B6EC32010BC0AE22B55651BDBC489234C948773825EC00192A0C460F1A872FCAE6B476AFFF2C3A2D999D98165DB67FF40DFCA796D4D83F39460A48CB0529B6B8363B8246B8CB69C396BC31F1A46A6EB558347
311
18737675360E3324AC09CA04408D956A063BEF55C0483CE0D2602F6EAAEFD22E0660F87B3A74E2DE5D559AA7D0061E673E380880A621E3893939EE7252EC4E49756A69428F6D9DEC0ED53EA187724FF794B475DEB26C127216A396B35C4B88A32F5AB9774D46316741F7AFF8C2A92E28897941F23221AB84145F64BDA1E566
311
597C92E5A6242C1BE9FF4471906F8AA236A12CE6B893CC639EB36C6A70266D3C3F5E61D473B02EA071DEC22BF101AF4A0959D575BD2E2B964D5CF80130ADE86CEA8375F0C38BFB19E8F97272AE2867D9B82428BF1B843A2E94FF00504B03041400060808007A45E242714692414F01000033030000300000006662782F3044
311
4131303241462D364645342D344445392D414336422D3443334234423430453931452F636E782E786D6CD593CD6E022114855F85B06DE6CF19AD310C265DF409BAE816E15AA90C4CF869EADBF7A268DDB8E8B21B3239F770CECD17866DBF2743BEC007EDEC48BBBAA504AC744ADB8F91A6B8AFD6946C39F3CEC53B1B25564C
311
30D22C53CE3EBC4B739114EC45321155A3EDB1881E824B5E424039DF24C6496130006C95508469074A812237237EEDC1E32A28EE4E241E80BCBEBC13B7FB0419036B720A674DEEE02C9FA5E9CE44893422849106798049D42245A7201C6B25A2A8BBFADAF560A7DF24922F5C2B93D724978F349F94978D6AE4C81A1C7216A2
311
477AC5144F33502EE6D9682922426ECEC68B87B3A46D5C0DC5AB11BC4777B7EA8701C3CE33CEA29EA038A407114151BE68BBBE6A9FAB76F1D6AE3743BF592E9EDAE5A66F5993ED9CED9C33E512C680773391CE46B091F28E3579FC085FF111A53DB276FEF4079008A0B45EE8DC32FE339FE6FCBE1197C7BF80FF00504B0304
311
1400060808007A45E2420FEE68C2A605000081100000340000006662782F30444131303241462D364645342D344445392D414336422D3443334234423430453931452F6F626A656374732E786D6CAD575B6FDB3614FE2B82F6B23DD8B26C274B0645856F298C2E6D51A3C51E0C189444295CA80B482A71F6EBF751A264C9B5
311
536FE88B2EBC1C9EF39DEF5CE8BDDBA7DC7AA642B23CBBB3DDE1C8B66816E611CB923BBB54F1E0C6B6DEF99EC873D559665B1949E99DAD876DDF4B445E166628A23129B93A1ABD9FFF65C99066D4B6424EA4BCB365F848533224A5CA232A9F8611516498C4FBA13BAC17F6C52682148F47420B2268A6A029C63348B16AA5DC
311
FEEFC8767CCFD1F3BEA79F66D5E4FC2AA7B2A77F3ECBA42259F8DD61476226EE74B91A5FDD0EAEA6D3C9607A3D7607F3FBF972E0FE3E192DAE178BDBD9EA16074B2520C96822686CFBEF818D60A1E7D453BE57B24C4DC66689719023E833D39EB2FDB1E57A4EBDA6B5CE18794AFD30CF321A5658018DCA3E233AA205CD22F8
311
9C5109CD3A088DFABFAEC6B1333DD1FFE6C8EEF065087477740435BA37EFAEA679F0374C9097304848AA195863690CADB93A3A201CE43937734C5A29515430C22DCE0241C4ABED63A95EE27B3D319AC9424783B6C0F6E1857ABA4F1784D18F797E4ACBB8E45CD3D8F6AB28D82156A8929566EC1F2A0EDA7791814EF09566C3
311
8D3148BD16D4F66F6B8ADC1CB1A906D28A3949E07298A9774EC647862E749CAE97B6FFE13ED86F74EC9E3EBC10794185D2F401B51AC7356F8D92D1C9BDC8737A837DA4CA01942F40FE2342FDA00AFC26D87EBA9F9A539420998C7391C237D6C81A8CF018596EF5D4DF9D2FCF6937F7BD770E4F385B43F513F0ECDBD0F56507
311
4EDF7B06E1733131A66D42C291361E58068034492C9E630879380EF6B6BF46964356C62EC27D172643DD677C7A8E118344519DD47967C0F2282D5E90A0015BC548A85193DF2878F0D377E9AC3AD82C3B07EFD54FA1EB6CB9F9B029454C42FA60627A49639631851277E04D57A11EE63D8B9EE8EB4B2E2218FA3DDE9B2EDEA9
311
394A026D8DB9063E6972BAFE399CDC3B20C4BE24D7E9C6FBC109304217D68EFC072643CA39C9685E36E7BE593F50366A8875B06B26B705E65058409A7AE6280651A443C10A0D625BADDAA4393C63DDD7F54730D2F6E7AF7F92D76EF60A0EB937CC792E76C1EBAE4E4B27A1FED6E7B6C1C0D15240F72A489AF837A0EF2216C7
311
A544123C81EBB7F5A2EB3B9D1690221AA975B44C613F828B0843DA462EAAB520A8A479B663A89B88BB930774E50352C3804AE0398D25E5F18E715EA6BB987154A35D4A8A3370FC7FFD83322D7624CDCB4C9D91DD531DD5A1AF7B8FBDF285A8F0D1F637D57B3047EE8D6874860CBA969CC0AAE7DAE9EA76753FBF9E0E46F7CB
311
D560BA9A4D06B7D7F3F1E07A7E35998D26A3F978852C6134AA9A28DF6B4A4D37A2E1259436AF14CCB8EFEB1AF1639280ED3F1025B7EFEBF06CDE5FD743F4C29E833DA897EDC659F48CBE8F463F1670587952D03A2D384D69A6888EA107FDC1BF10F4193D65EAF1754A127A81944FEF3747C660E4827D9F75BCD397A3BD6674
311
A103F2A410F558A64146183FDA98D4480E8B2C31F8353E69DF75A1697EF59F710C3A53997316210F465642F3942A64C30B8A9048A904F5BA3D7D64EE1E17EC7EAE3B4445024E1B4D1E099A642E1116207919AAFEB8F50B9A3ADD57DDD928B7C3273C4CA6B02D70E6CE4693AE5848E5304081D6AD50251C5CEA76F2E02CC912
311
8E5EBBDED4FEB7BB3436BD92DC2EB9A47F3276D529DC18803452A06F404304EF54CAF85EA59B990FFF93E18D3A1651F80C4AD5DA7218688DA98E4188D64699DB029A982773F41E81FAB659EEB05AD343E4A25BD69B24A8A50E1411497553D0FA199566CBCF0E3A146BFDC92A7899C097974B1A080A32973AC0C122B0C2C82C
311
880255177F6C3F8B1C37D9D4BA67A080F5EBFEE6FAB7ED224FD33CAB87B633731FB6368FB8DD465B2407AAAF25723B1EB9E36D751D3037945D40241D92483E61009E15AC05BAE77EF0B2BE33A20ED513ED3A47BBE288A1EBA5650ADB14420D5DBAB9558383C623A31662485F2975C47417146FDE089C6A295410E8E5FD7F01
311
504B03041400060800007A45E242000000000000000000000000350000006662782F30444131303241462D364645342D344445392D414336422D3443334234423430453931452F76657274696365732E62696E504B03041400060808007A45E242F270F1330600000004000000360000006662782F30444131303241462D36
311
4645342D344445392D414336422D3443334234423430453931452F747269616E676C65732E62696E636660600000504B03041400060800007A45E242000000000000000000000000370000006662782F30444131303241462D364645342D344445392D414336422D3443334234423430453931452F61747472696275746573
311
2E62696E504B03041400060808007A45E242D5987DFC8F00000041010000360000006662782F30444131303241462D364645342D344445392D414336422D3443334234423430453931452F6469726563746F72792E786D6C858F410EC2201045AF4266AF15DDB800BA74E7C21B903225242D6328188F2FA5C4183471359997
311
F9FF81E89FF3C41E1816475E02DF1F80A11FC8386F25A438EECEC07A250251FC3803E6F58C12560C4AD840E95E91C151A72936F496F35732D860FE635F62C8F2DA16B505C545B74125BAA2FA9E05D7CC053D063734D5C7665FD55B6B8D15D5E9BFEAFD8490FFA45E504B03041400060808007A45E242ADD48DE8FE000000A0
311
0100003B0000006662782F30444131303241462D364645342D344445392D414336422D3443334234423430453931452F7265736F75726365732F636F72652E786D6C8D50596E833010BD0A9ADFCA60B3B4011947CD76825EC032136225D8C84BD5E3D7042AB57FFD9919BD45F3F4F8FE6B7A649FE8BCB6A6079653C8D0283B
311
6833F610C395EC20DB0BEEAC0DBF64901939610F0B0C828FCEC679839435014D48A8B1036EA0F41E0364EA918E1EBCBAE12473194352F87B3E4B759723E62C4F74D209EE834B01B2F5C9324138F4363A859E172B2B788C7AD8347A483FF555A303716E4F477A786DC9F9440FA4A68C92B6662772A94BD6D6C7CB7B5D36BC58
311
CC82073DFD64540E65C00144495945E81BA1E507DD7575D535E50B6DBA8AF26291FF31C579F8A7296A13AA728BBBDA3C0896823C09C18BA5AFB49E65A6BD742BBE01504B010214000A00000800007A45E2423DEE336E79000000790000001B00000000000000000000000000000000006175746F6465736B2D64657369676E
311
2D7061636B6167652E786D6C504B010214001400060808007A45E242D486FD9CA0000000F40000001300000000000000000000000000B20000005B436F6E74656E745F54797065735D2E786D6C504B010214001400060808007A45E242101DEE29EC0000007C010000080000000000000000000000000083010000636F7265
311
2E786D6C504B010214001400060808007A45E24255019EA25F0000007C000000070000000000000000000000000095020000636E782E786D6C504B010214001400060808007A45E242BBC625C767010000020300000C00000000000000000000000000190300006662782F636F72652E786D6C504B01021400140006080800
311
7A45E24204BBD8DD7D0000009D0000000B00000000000000000000000000AA0400006662782F636E782E786D6C504B010214001400060808007A45E242D6A44AB52F010000150200003100000000000000000000000000500500006662782F30444131303241462D364645342D344445392D414336422D3443334234423430
311
453931452F636F72652E786D6C504B010214001400060808007A45E242714692414F010000330300003000000000000000000000000000CE0600006662782F30444131303241462D364645342D344445392D414336422D3443334234423430453931452F636E782E786D6C504B010214001400060808007A45E2420FEE68C2
311
A60500008110000034000000000000000000000000006B0800006662782F30444131303241462D364645342D344445392D414336422D3443334234423430453931452F6F626A656374732E786D6C504B010214001400060800007A45E2420000000000000000000000003500000000000000000000000000630E0000666278
311
2F30444131303241462D364645342D344445392D414336422D3443334234423430453931452F76657274696365732E62696E504B010214001400060808007A45E242F270F13306000000040000003600000000000000000000000000B60E00006662782F30444131303241462D364645342D344445392D414336422D344333
311
4234423430453931452F747269616E676C65732E62696E504B010214001400060800007A45E2420000000000000000000000003700000000000000000000000000100F00006662782F30444131303241462D364645342D344445392D414336422D3443334234423430453931452F617474726962757465732E62696E504B01
311
0214001400060808007A45E242D5987DFC8F000000410100003600000000000000000000000000650F00006662782F30444131303241462D364645342D344445392D414336422D3443334234423430453931452F6469726563746F72792E786D6C504B010214001400060808007A45E242ADD48DE8FE000000A00100003B00
311
000000000000000000000000481000006662782F30444131303241462D364645342D344445392D414336422D3443334234423430453931452F7265736F75726365732F636F72652E786D6C504B0506000000000E000E00800400009F1100000000
310
504B03040A00000800007A45E2423DEE336E79000000790000001B0000006175746F6465736B2D64657369676E2D7061636B6167652E786D6C3C3F786D6C2076657273696F6E3D22312E302220656E636F64696E673D227574662D3822203F3E3C666F726D6174733E3C666F726D61743E687474703A2F2F736368656D612E
310
6175746F6465736B2E636F6D2F64657369676E2D7061636B6167652F323030393C2F666F726D61743E3C2F666F726D6174733E504B03041400060808007A45E242D486FD9CA0000000F4000000130000005B436F6E74656E745F54797065735D2E786D6C7D8EC10E82300C865F65E91D8A1E8C310C0EEA1BF002731658846E
310
D98AC1B77784ABF1D8FE5FBFBF75BBCE937A534CCEB38643598122B6FEE978D0B0485F9C41B54DDD7D022595594E1A469170414C76A4D9A4D207E29CF43ECE46F218070CC6BECC4078ACAA135ACF422C856C0E68EA1BF5669944DDD7BCDE7B1F8E415D77AECB980613C2E4AC91FC167A2B244592486606FC29C8FD7F045B9A
310
EF7053A7E60B504B03041400060808007A45E242380A24DAEC0000007C01000008000000636F72652E786D6C8D90416EC3201045AF82665BE1808913D7C2446EEC9EA01740405C94182C03558F5F9C3852BBEB6A467FFE9B197D7EFA9E6EE8CB2CC17AD7022D0820E394D7D68D2DA478C135A093E08BF7F1970D9093936961
310
9541F071F169DE24E55D342E66D5796D36518660222075CB4D0B417D9A491632C5EC08D76296EA2A4753D06797E194AC468F2356E77DF662CD0282F4E7735F1D07CC06DAE3FDFBA1C4F5D055B87EED0F75F746D9403ABE5B61C1A39D9EF7D56264341A444928C3E48849F941EA66CF9AAA7C2155C308DFADF63F509AF53FA1
310
645D64E5F6EE030B20687EE43E107CB76691CB3DA85CD7DCC40F504B03041400060808007A45E24255019EA25F0000007C00000007000000636E782E786D6C4DCB3B0E80201045D1AD90E915ED2CF8AC45050C11660C8261F98AB1B07AC9C97D42D718D865D3E909258CFD00CCE24AC6E326A164D74DC0B4128928FF326038
310
472BA13128B1252AC747C6BAB984FC68F0B87FE8960A5C09FE86CFB69FBA01504B03041400060808007A45E24299A696B368010000020300000C0000006662782F636F72652E786D6C8D525B6E833010BC8AE5DF0A6C202434328ED2404FD00B38E05014B091B1518EDFE511D154515421196B66677776801D6E6D830669FA
310
5AAB14073EC548AA4297B5AA52ECECC54B303A7066B4B6BFCA3052A295291E61CC5965B4EB16A8D0CA4A650155BA940B28FA5E5A8C8A062E29EE8B6FD90A5F380B15FDD5EF44711595F4031F68A8E3ACB7060CA079C878627E39DF189971CE9CABCB85AD4B98565F6A6930A7D9E994C5BBDC8BF220F3369FDBD04BF263EC25
310
EFD936397E04514E8F8C8C62CE6CDDDEDD15460A2B4BCC431A441EDD7934FCA2C97E13EDE3F08DC6FB883232963F885C57FE53E46A65A370B13BCB7ACC033032117FB685882CEAC5007E0867640C115E53C28F41432010B215E7E6BEC715A04116569B0D30A5762B3588C649984AD1F43032B3D0796A009B3DED13BEE8F3BA
310
077C40A12AB0262C5CCFCE8ED3D93C7589A293C61BEC0D296D5AD1ACE6668BEBB90E7A2A2F74A3CD7FD46459952C6192F1EFE53F504B03041400060808007A45E2423F4E4EE07D0000009D0000000B0000006662782F636E782E786D6C4DCCD10A83201886E15B91FFDC953930418DA6ED3E6259C84CC3E9D8E5AF46073BFA
310
E0E1E315DD67F5E86DD3CBC520815C6A40363CE2E4C222A1E419B7803A25528CF9EF06288CAB95703028B1A458B693263B8FC5E75DBD0BCF139B7B3B18626ACC18A5F8CA34C13D1F386E98EE293337CDA9814A89EA57DAF708AB2F504B03041400060808007A45E2422CEABBCD2D01000015020000310000006662782F3246
310
3845443144302D373733332D343743312D413945392D3237434133374442433933442F636F72652E786D6C8D515B6EC32010BC0AE2AB5585CDC3094E8489D2383D412FE0D8244589C1E251E5F885DA91DABFFCB068766676B42B76F7F106BE95F3DA9A06920243A04C6F076D2E0D8CE18C6A087652386BC31F1A04A61B5503
310
330CA5B8381BA705EAAD09CA84841A3BA805ECBC570182FE963E0DF4FD971ABBA28B2131FCB598BAFEDA5D54418AD44E3C297C7029009887E4174AFA511F5BD262C43963A8E20782F69BE306517ED833DEBE1F36AC15E52C9422463D2C723DA438FAAC957BD6248BA5087A7CC4EF9DEA821A921E13863047987EE27A5BB1ED
310
8ABEE1D596615166FA3F519C862745519BC0E812779679288928E78614838DA7DB238CBA4FD60590E7BD78D5BF42890B8C6B5A13BAE2A29CB96903C9745D2DA63E589736FC723D253A5B9CD79514653E522ABF174C351F54FE00504B03041400060808007A45E24217E15D565601000033030000300000006662782F324638
310
45443144302D373733332D343743312D413945392D3237434133374442433933442F636E782E786D6CBD93CD6EC32010845F0571ADFCEFA4568489D4439FA0875E316C121A1B2CC055F3F65D1292E69243A5AA1764CD0E33AB4F986DBFA6917C82F3DA9A9E5679490918699536FB9E2E619775946C3973D6863B1B25464CD0
310
D32853CEF6CE2E739214ECC4320654476D8E4974E0EDE2247894E34D325A29460C00932D28C2348052A0C8CD885F3B70B80A8AC389840390D7977762870F90C1B322A67056C40ECEE2999AEE4C94C85178DF532F0F30895C2CC12AF0C75C8920F22ABF763DD8E92789C40BD7CAC56912CB7B1A4FCAD346397264050E39F3C1
310
21BD640AA7192817F33C6A2902422ECEC68B87B3459BB06E9357237887EEA65E771D869D679C053D417248072280A2BC2EAB262B9FB3B27E2BBB4DDB6C56F553B9DA34252BA29DB3C1DA315DC218707626D29A0026505EB1228E1FE14B3EA2B443D6D69D7E011201A4D60B9D5BC65FF2A9D64DDBFE239FE2FCBE1197C3BF80
310
7F03504B03041400060808007A45E242944DE1F9630700009A1B0000340000006662782F32463845443144302D373733332D343743312D413945392D3237434133374442433933442F6F626A656374732E786D6CED595B73A33614FE2B0C7D691F8C8DEDA49B0E6127CE65C7B3CDEECEBABBD307CF3032C8448D108C2492B8
310
BFBE4717301093E06EFAD6071B10D2D139DFB9EA10BC7FCAA8F380B920393B777D6FE23A98C57942587AEE96723B7AE73AEFC380E7B96C4C731D86327CEEAA61370C529E97851D4AF016955476466F167F3A22C60CBB4E4C9110E7AE88EF70863C54CA3CC1E2DE4B90445EBA7DF27CCF4C6C934D392AEE3A440BC43193C029
310
8C33A0E218A6FCF6E3C41D87C158BD0F03F56F67CD06CD9AF7CF1A6BA9DB5C12262462F133963A646683589AF9F3ABEBE9C9D9E8643E9F8DE6A7537FB4B8595C8DFC5F6793CBD3CBCBB38BEB33606F93E7D4CA94E002B304F4B773433F18AB37B5E81681435CC7396338D64002545AAC2E4182056CD5806FD27EF495448DD7
310
5AC2C6F35CBDB72C3486676D2A7DB38601D1A20B82D8ED2A89AB6B53BE7CF317082E861825175802B74272D0AE85878357B8E124189BD130D8EC7541849321893941D4A164C31107A5C05435250CCC024B46390707528E92406BCEBC6EDB1678E6EBAE7388CB6D49A9F20C37D48E1581FB61293467E46FCCF7DC3791019E40
310
DA9230F9CE7229770576C3B360AC07C3405D6653FBD200E96C294A8546C4BCED087AA95C7F79E5861F6F364F2B150E0E6F5EF0BCC05C2AA3537AD47C8121DBAB42C96EEB0FD29C5A00C21850EDCA3D285F01F94F103DF6AC80DE38799A3FCDED5CC91113DB9C67A01B67E28C26F037717CFDAFEE1B77C1B85EDCD65E1F9EE0
310
A60AAA773F8E675B068D95E5BF0167183C80C1E77C665FAD6244C19E6F09038094913834872108EDDBCD931B2E217042A0875588863E880CEC3EC06D30B664F65AA9DCCB7A1D0344ED1EB3214A02D8B445021B3D7AFA00D9839378AFA6A6887DF09EBC89B95E5CAD3EAE4ABE4531BEB53E7D85B784110959F330432DCC5B12
310
DDE3DD63CE1310F439DEAB26DE99DD4A00DA0A73057C5A81A01EF63BB73688615D9AAB7013BCB20308A1727583FE2D1131A614319C97D5BE757453865A7BBCAD19DC706A209E4D3B26CCF10351550538CD7E468B51C8FB31278502D10D3F18C9EAA0E9F548F76DF9092CB29EDF336BC920F43244FFD041EB000E2DCBAE90B6
310
40D4026FF6E13CCE69CEA3CD2E3291CE855A02D8687BCBF7165188F546498A0A7890F6BB2AA4A446DA2821DB6D2920AE1E60F1FBF2B2690E136FE69F38CDFF8E33CE21DA82EF226EFDAEB347443294E2688B92BEED9ABBD5B48526D9439AE32D05B9C80391BB08C96892E0F418688E227EF6A6D4539A0B41181690AF0E82DF
310
4463E2412031DAAC58565AED004D44946189E8310828323DE0EAB4A36BDC184A87D779ACADF7258D3589FE4716C111D492398B0894A290435E65DCF74E2086B4D1352877F0056BAB686B3168092544BC8B1E3149EFE431A81BF23DB8C77024296594172806B31E40F699AF28A57678DFA0F85EE58F282EE95B1988C0741B11
310
4ACB2C821F6170F218E2DA75607A1185067113FB24CEA02843B2E44336393D993CDBC7D40CDD10D8D8684B2884ED2843450FEAAD80A8EB11A706DF52EF51EAA6CC8A086579C906198A37EB7A9325DF55AB223B905F552A42D95811B604C380305967D52A6683A9EBC00A6EA403D52E12282BA83985BD9278FCDA9B34E5DE0D
310
B8F5D3B7DD2083C2AF477BCD883AAF60B03CB60A03F188647CE7862B7D1D2DA0FE4E70B24FF555ADD9AC00013115C94B4EAC8ABE2DA1BCB1359A1BDE2229D61F4CD6ADAEDF961E743F8231AC81DAA55EB85440679849A42A935B7543BF2208C12D1A667CA972EA31542E9244578D88DE903E75B6CA88D6A619F18A3BCCF20C
310
7E6C4D584CCB04AF5122EEA35B49A31551AC5B29BD8C5418BF28E0E70FAB0E3C303240A42FAAC0C38F9DB576F452954B0789C8BB32DB30442008B6444B8D6EBC82A556239596EBAB3A5340DD050666553CFFFF64D16C47FC7FB248AD61FCD0C962B1FB1DED9A7D91463A8F955D1F750CA8F393A2F216C700DD76A8A9D659C4
310
24732BBF75A608826215E507576355D03004FB38FED759BB2F0B9AED3AFC1F97B5FD6715C75159A5355975A90E54AECB560EBB3EBBBE599CCE47939BABEBD1FCFA62363A3B5D4C47A78B93D9C56436594CAFF7C706EDA8615007339DBBE0D904B56A583D590CA02B2B724A1238CD274E8A21E64B38D30F689FF30C0B489ECD
310
6677629BF203563F983EA7441B8A2B4EEE103488A980B40E1895B16C8F3B3F416B52C241FBDC85A691770F7FD62A5D0732CFB90BAD0249622CBC0DB49954434F138794AB73BF2506F82096AA946816D5CFF52A854D2BFCD75386A4012B57AB8701855B01DDAF568742F366798A8F12BC62C741126E37A5846ACDC8B21FA885
310
D1DBECD56F64A384DDDBAD9FC0755F16CBF7F49C1622833E19BC680486EA48229EEA7EB762CCB27471F5650C7D3667F9D9296899822E87531A710CC65CAA820AAC08ACC2D22C900453BDFC6DFD85E7F08927737455E4FCFCF4EEF497F5659E65393343EB0B389525F0A1C859DDC1679F640DC50356CD75B19E4EFCE95A37B5
310
6D9F3DDA20813D5515C140554C28413A260776F9AC4165DB9763A58ACEF4E59563832878B5B1A3673D5EF391CB011F529F5394C7683FAFA47DB1AF3DD653C1263874A4C37F00504B03041400060800007A45E242000000000000000000000000350000006662782F32463845443144302D373733332D343743312D41394539
310
2D3237434133374442433933442F76657274696365732E62696E504B03041400060808007A45E242F270F1330600000004000000360000006662782F32463845443144302D373733332D343743312D413945392D3237434133374442433933442F747269616E676C65732E62696E636660600000504B03041400060800007A
310
45E242000000000000000000000000370000006662782F32463845443144302D373733332D343743312D413945392D3237434133374442433933442F617474726962757465732E62696E504B03041400060808007A45E242D5987DFC8F00000041010000360000006662782F32463845443144302D373733332D343743312D
310
413945392D3237434133374442433933442F6469726563746F72792E786D6C858F410EC2201045AF4266AF15DDB800BA74E7C21B903225242D6328188F2FA5C4183471359997F9FF81E89FF3C41E1816475E02DF1F80A11FC8386F25A438EECEC07A250251FC3803E6F58C12560C4AD840E95E91C151A72936F496F35732D8
310
60FE635F62C8F2DA16B505C545B74125BAA2FA9E05D7CC053D063734D5C7665FD55B6B8D15D5E9BFEAFD8490FFA45E504B03041400060808007A45E2422BA10A42FE000000A00100003B0000006662782F32463845443144302D373733332D343743312D413945392D3237434133374442433933442F7265736F7572636573
310
2F636F72652E786D6C8D504B6E833010BD0A9A6D65301012828C231AE8097A01CB4CA89560237FAA1EBF2650A9DD7533337A1FCDD36397AFF9917CA275CAE816F29442825A9A51E9A985E06FA486E4C29935C6FF9241A2C58C2DAC3070365913961D92467BD43EA2DA8CB883C239F490C8473C5A70F20367918AE0A3C2DDD3
310
45C8BB9830CDD348471D67CEDB1820D99EAC13B845678295E858B6B19C85A0C65DA3C6F853DD145AE0B4BF5EFBEAD49372C87B72783B16A41EBA8AD4E7FE5877AF7939D08E65AB9933AFE69F8CD2A2F038022F685E127A22B478A77573289BAA78A155535296ADF23FA6B08CFF3405A57D59EC71379B039EC7204F82B36CED
310
2BAE679971AFDDF26F504B010214000A00000800007A45E2423DEE336E79000000790000001B00000000000000000000000000000000006175746F6465736B2D64657369676E2D7061636B6167652E786D6C504B010214001400060808007A45E242D486FD9CA0000000F40000001300000000000000000000000000B20000
310
005B436F6E74656E745F54797065735D2E786D6C504B010214001400060808007A45E242380A24DAEC0000007C010000080000000000000000000000000083010000636F72652E786D6C504B010214001400060808007A45E24255019EA25F0000007C000000070000000000000000000000000095020000636E782E786D6C
310
504B010214001400060808007A45E24299A696B368010000020300000C00000000000000000000000000190300006662782F636F72652E786D6C504B010214001400060808007A45E2423F4E4EE07D0000009D0000000B00000000000000000000000000AB0400006662782F636E782E786D6C504B01021400140006080800
310
7A45E2422CEABBCD2D010000150200003100000000000000000000000000510500006662782F32463845443144302D373733332D343743312D413945392D3237434133374442433933442F636F72652E786D6C504B010214001400060808007A45E24217E15D5656010000330300003000000000000000000000000000CD06
310
00006662782F32463845443144302D373733332D343743312D413945392D3237434133374442433933442F636E782E786D6C504B010214001400060808007A45E242944DE1F9630700009A1B00003400000000000000000000000000710800006662782F32463845443144302D373733332D343743312D413945392D323743
310
4133374442433933442F6F626A656374732E786D6C504B010214001400060800007A45E2420000000000000000000000003500000000000000000000000000261000006662782F32463845443144302D373733332D343743312D413945392D3237434133374442433933442F76657274696365732E62696E504B0102140014
310
00060808007A45E242F270F13306000000040000003600000000000000000000000000791000006662782F32463845443144302D373733332D343743312D413945392D3237434133374442433933442F747269616E676C65732E62696E504B010214001400060800007A45E242000000000000000000000000370000000000
310
0000000000000000D31000006662782F32463845443144302D373733332D343743312D413945392D3237434133374442433933442F617474726962757465732E62696E504B010214001400060808007A45E242D5987DFC8F000000410100003600000000000000000000000000281100006662782F32463845443144302D37
310
3733332D343743312D413945392D3237434133374442433933442F6469726563746F72792E786D6C504B010214001400060808007A45E2422BA10A42FE000000A00100003B000000000000000000000000000B1200006662782F32463845443144302D373733332D343743312D413945392D3237434133374442433933442F
310
7265736F75726365732F636F72652E786D6C504B0506000000000E000E0080040000621300000000
  0
XRECORD
  5
17
102
{ACAD_REACTORS
330
12
102
}
330
12
100
AcDbXrecord
280
     1
270
     1
271
     1
  0
XRECORD
  5
16
102
{ACAD_REACTORS
330
12
102
}
330
12
100
AcDbXrecord
280
     1
270
     1
271
     1
  0
XRECORD
  5
18
102
{ACAD_REACTORS
330
12
102
}
330
12
100
AcDbXrecord
280
     1
270
     1
271
     1
  0
XRECORD
  5
15
102
{ACAD_REACTORS
330
12
102
}
330
12
100
AcDbXrecord
280
     1
270
     1
271
     1
  0
XRECORD
  5
E68
102
{ACAD_REACTORS
330
22
102
}
330
22
100
AcDbXrecord
280
     1
102
MATERIAL
148
0.0
149
0.0
149
0.0
 93
        0
 94
      127
282
     0
 72
     0
 77
     0
171
     0
175
     0
179
     0
273
     0
  0
XRECORD
  5
24
102
{ACAD_REACTORS
330
22
102
}
330
22
100
AcDbXrecord
280
     1
270
     1
271
     1
  0
XRECORD
  5
23
102
{ACAD_REACTORS
330
22
102
}
330
22
100
AcDbXrecord
280
     1
270
     1
271
     1
  0
XRECORD
  5
BA
102
{ACAD_REACTORS
330
22
102
}
330
22
100
AcDbXrecord
280
     1
 70
     1
 90
1959938040
 71
     1
  1
A936D636-004C-4BEC-91E7-F8BB654B555F
311
504B03040A00000800007845E2423DEE336E79000000790000001B0000006175746F6465736B2D64657369676E2D7061636B6167652E786D6C3C3F786D6C2076657273696F6E3D22312E302220656E636F64696E673D227574662D3822203F3E3C666F726D6174733E3C666F726D61743E687474703A2F2F736368656D612E
311
6175746F6465736B2E636F6D2F64657369676E2D7061636B6167652F323030393C2F666F726D61743E3C2F666F726D6174733E504B03041400060808007845E242D486FD9CA0000000F4000000130000005B436F6E74656E745F54797065735D2E786D6C7D8EC10E82300C865F65E91D8A1E8C310C0EEA1BF002731658846E
311
D98AC1B77784ABF1D8FE5FBFBF75BBCE937A534CCEB38643598122B6FEE978D0B0485F9C41B54DDD7D022595594E1A469170414C76A4D9A4D207E29CF43ECE46F218070CC6BECC4078ACAA135ACF422C856C0E68EA1BF5669944DDD7BCDE7B1F8E415D77AECB980613C2E4AC91FC167A2B244592486606FC29C8FD7F045B9A
311
EF7053A7E60B504B03041400060808007845E24207EFDD45EB0000007C01000008000000636F72652E786D6C8D90416EC3201045AF82665B6183C1896361A2546D4ED00B20202E4A0C9681AAC72F4E1CA9DD7535A33FFFCD8CBE387E4F37F46597E8821F80560490F53A18E7C70172BAE00ED0518A2584F4CB06C8ABC90EB0
311
CA20C5B8843C6F920E3E599F8AEA83B19BA862B40990BE956680A83FEDA42A955371C46B352B7D55A3ADE8B32B70CECEA0C71167CA3E77717601D912FECACE7C8FDF76FB0E737EEAF081F216BF9F18E5A4A56CD79E45BDC25224373DEFEBC5AA640DC8865086C91E93E683743D673D3FBC90B66744D4ABFD0F9467F34F283B
311
9F58B3BDFBC022485A1EB90FA4A8D72C4AB90755EA9A9BFC01504B03041400060808007845E24255019EA25F0000007C00000007000000636E782E786D6C4DCB3B0E80201045D1AD90E915ED2CF8AC45050C11660C8261F98AB1B07AC9C97D42D718D865D3E909258CFD00CCE24AC6E326A164D74DC0B4128928FF32603847
311
2BA13128B1252AC747C6BAB984FC68F0B87FE8960A5C09FE86CFB69FBA01504B03041400060808007845E242D7513DA467010000020300000C0000006662782F636F72652E786D6C8D525B6E833010BC8AE5DF0A6CC02424328E52B539412FE0804351C046C646397E9747445345518564AC999DDDD9017EB8B50D1A94ED6B
311
A3731C851423A50B53D6BACAB1779720C3E820B835C6FD2AC348CB56E57884B1E09535BE5BA0C268A7B403549B522DA0EC7BE5302A1AB8E4B82FBE552B43E91D54F4D7B093C555562A8C42A0A14EF0DE593080E621E389C5E57CE364C605F7BE2E17B62E615A7DA995C522A5EC3D39B16DF0B1D9660163C72CD8452C0D3E8F
311
49C4681A259BF4C4C92816DCD5EDDD5D619574AAC422A65112D06D40E32F9AED59B267BB379AEE13CAC958FE20F25DF94F91AFB54BE2C5EE2CEBB188C0C844FCD9162272A89703F82182933144784D093F060D8140C84E9E9BFB1E5780065538631930A5F12B35C8C62B984AD1F47032B3D0796A009B3DED13BFE8F3BA077C
311
40A92BB0261D5CCFDE8DD3F93C7589A2533618DC0D69635BD9ACE6668BEBB90E7A2A2F4C63EC7FD46459952C6192F1EF153F504B03041400060808007845E242E43783687E0000009D0000000B0000006662782F636E782E786D6C4DCCD10E82201886E15B61FF392906061BE242EA3E5CA273223482D6E5A7CD838EBEEDD9
311
B757B69FD5A1B78DAF39F806C8A90464FD230CB39F1AC869C41C50AB640C21FDDD00F97EB50DEC0C4A4E31E4E741831DFBECD2A66EF6CB8135D34497D519DF8DE93015378335AF35A6FC5251C688B88A0E0A258B5F69DB3DACBE504B03041400060808007845E2421B244E142E01000015020000310000006662782F363542
311
31423032332D464444432D343945442D423836422D3438373234353531394139432F636F72652E786D6C8D515B6EC32010BC0AE22B55651B6CECD81126AA93F604BD00C1244589C1E251E5F885DA91DABFFCB068766676B44BF7F7E906BEA575CAE81EE21C4120B530A3D2971E067FCE5A08F68C5A63FC1F1A049A4FB28709
311
868C5EAC09F30A09A3BDD43EA2DA8C7205B973D243206EF1D34327BEE4C4731E7C64B86B3E7371E51799E33CB6238F51E76D0C009621E985ACA9073CA0B2CA3E8EC74346BAF76336B4CD9091765B92BAC6DD5B77A0C52264340435AE7235C638EAACA47DD6248919F56A7AC41756722F47C84A84AB0C6D33547EA27647AA1D
311
E95E51BDAB102D12FD9F28CCE393A2A0B4AFCA35EE227390615A2C0D4647134EB74718799F8DF520CDDB38295E204339422D2EABB66968B170E306A269435653E78D8D1BDE5C4F918EEBC5B9218C16E948B1FC5E30D67450F603504B03041400060808007845E2427B69AA9E4F01000033030000300000006662782F363542
311
31423032332D464444432D343945442D423836422D3438373234353531394139432F636E782E786D6CD593BD6E032110845F05D146F7675F9CC4E2B094224F90222D076B9B9883133F51FCF6596CECB87191320D3ACD0E33AB4F1CDB7C4F867C810FDAD98176754B0958E994B6BB81A6B8AD9E29D970E69D8B37364AAC9860
311
A059A69CEDBC4B7391146C45321155A3EDA1881E824B5E424039DF24C6496130006C9550846904A54091AB11BFB6E0711514C723897B206FAF1FC48D9F2063604D4EE1ACC91D9CE5B334DD982891468430D020F730895AA4E8148443AD441475575FBAEEECF49B44F2854B65F29AE4F281E693F2B2518D1C598343CE42F448
311
AF98E27106CAC53C1B2D4544C8CDC978F67096B48DABBE783582F7E8EE56CBBEC7B0D38CB3A827280EE9414450942FDA6E59B54F55BB786F9FD7FD72DDBF3CB48FEB65CB9A6CE76C74CE944B1803DECD443A1BC146CA3BD6E4F13D7CC54794F6C8DAF9E31F402280D27AA673CDF8CF7C9AD3FB465C1EFF02FE03504B030414
311
00060808007845E2425E70486EA405000080100000340000006662782F36354231423032332D464444432D343945442D423836422D3438373234353531394139432F6F626A656374732E786D6CAD57DB6EDB3810FD1541FBB2FBE08B7C6BB25054C476521845DAA2468B7D30605012A570435D405289B35FBF87127573EDD4
311
BBE88B6551C3E1CC993317BAEF0F09B79EA9902C4B6F6C6738B62D9A0659C8D2F8C62E5434B8B2ADF79E2BB24C75C46C2B2509BDB1F5B2EDB9B1C88ADC2C853422055747ABF7CBBF2C19D094DA56C0899437B60C1E694286A4505948E5D330248A0CE3E830748695605F6D2C48FE78A4342782A60A96623D8516AB32CAE9BF
311
8EED91E78EF477CFD5BF466A7A5E6A54FAD33F9FA5529134F8E1B023355367B6BE9BCCAF07F3D96C3A982D26CE6079BF5C0F9C77D3F16AB15A5DDFDE5DE360A90434194B048D6CEF03B0112C7047D527CF2D58AAA6132362023412F499E948D9DEC472DC5125D378679C3C657E90A5290D4AAC8046E99F511DD29CA62162CE
311
A884651D84C6FD5747E3D8F93CD5EFE6C8EEF2650874777414D5B6D7CFAEA599FF375C9097304848AA195861691CADB83A6E11F6B38C9B6F4C5A09515430C22DCE7C41C4ABED41548B786E4F8D66B2D0D9A03DB03D44A1FADCA70BD2E8E73C3F65655470AE696C7B6516EC912B54C9D232F60F15ADF55D64601362A5D97065
311
1C52AF39B5BDEB8A2257476CAA80B4224E62841C6EEA9DD3C991A32B9DA79BB5ED7DBCF70F5B9DBBA70FCF459653A1347D40AD3A70F553A3646C722E8A9CDE601F99D282F215C87F42AAB7A6206E821D66879939450992CA28130962638DADC1183F63CB297FF5FFCE3F77D46CEE47EF1C9E08B686EA17E0D9F7A11BCB0E9C
311
9EFB0CC267626A5CDB0684A36C3CB014006992583CC312EA70E41F6C6F832A87AA8C5D847B0E5C86B9CFF8EB8E8C1A148AF2A4CE3305964765F182020DD84A46C28C8AFCC6C0364E3F94B3F26023760EDEF92FA1EBED7AFB715B888804F4C1E4F49A462C650A2DAEE54DD7A01EE63D8F9EE8EB4B264238FA23DEDB2EDE8939
311
4A026D8DB9063EAE6BBA7E694FEE1D10605F9CE972E3FEE40438A11B6B47FF039301E59CA4342BEA73DFEC1F681B15C43AD935939B06D3361690A6FA72948368D28160B906B1E9564DD11C9EF1EEDBE6131809799EF984B7427E5B7A838C6762EFBFEEABAA7412E9EF7D6A1B08465A0BD85EE6489DFE06F37DC8A2A890A881
311
2760FDBE597543A7AB022A44ADB54A9619DC476E1161385BEB45B316048D344BF70C6D136977F280AE7E206A08502A3C67B1A43CDA33CE8B641F318E66B44F487E068EFF6FBF5F24F99E245991AA33BA7BA6A339F46DEF9157BE10153CDADEB67C0E9628BD210DDB30F784752B3981552FB4B7D7D3C57A315D0CC6E3D96A30
311
5BDEAD06D7CEDDBBC1FDD572B998CF96F3F9FCBE8E53A5DC73EB4ED34D6844099DCD2D0433E1FBB641FA981A607B0F44C9DD872A3BEBE7B7CD10A3B03BC21EB4CB66E36DF88CB18F863F57D04A9E54B449724E139A2AA253E841FFE15F09C68C9E31D5FA262131BD40CBE70FDB2367B072C1BE2F3ADDE9CBD15EB3BAD20979
311
52897A2C123F258C1F6D8C2B2487791A1BFCEA9834CFAACFD4AFFACD040683A9CC380B5106432BA65942158AE1053D482454827ADD913E34578F0B763F5703A2223EA7B5258F04333297480B50AB08547FDDFA0D339D1EAB6E6C74DBE1137E4CA5B02D70E6C6C68CAE5840E5D0477FD69350A91C5CEA0EF298FB491A738CDA
311
D5A6E6BDD9A5B1E975E446E492F1C9F8555570E300CA488EB101F310A2531AE3B9A56DE67BF09F1CAFCDB188C25FBF508D2FED42E34C790C52B472CA5C1630C33C99A30F48D4B7DD7286A54C0F918B2E596F92A0D23A5044C4E54541DB674CBA5D7F196140B1369FAD9C17316279B9A681A02073A1131C2C022B8CCE9C2850
311
75F5E7EE8BC870914DAC7B060A58BF1FAE167FEC5659926469B5B4BB35D7616BFB88CB6DB84371A0FA56227793B133D995B7017341D9FB44D22109E513161059C11AA07BE1072FAB2B23FA50F5A1911BE9501C3174B3B64C639B41A9A14BB7B66A703077A4D4420EE91BA5CE98AE40FEE68560548AC2048151DEFB17504B03
311
041400060800007845E242000000000000000000000000350000006662782F36354231423032332D464444432D343945442D423836422D3438373234353531394139432F76657274696365732E62696E504B03041400060808007845E242F270F1330600000004000000360000006662782F36354231423032332D46444443
311
2D343945442D423836422D3438373234353531394139432F747269616E676C65732E62696E636660600000504B03041400060800007845E242000000000000000000000000370000006662782F36354231423032332D464444432D343945442D423836422D3438373234353531394139432F617474726962757465732E6269
311
6E504B03041400060808007845E242D5987DFC8F00000041010000360000006662782F36354231423032332D464444432D343945442D423836422D3438373234353531394139432F6469726563746F72792E786D6C858F410EC2201045AF4266AF15DDB800BA74E7C21B903225242D6328188F2FA5C4183471359997F9FF81
311
E89FF3C41E1816475E02DF1F80A11FC8386F25A438EECEC07A250251FC3803E6F58C12560C4AD840E95E91C151A72936F496F35732D860FE635F62C8F2DA16B505C545B74125BAA2FA9E05D7CC053D063734D5C7665FD55B6B8D15D5E9BFEAFD8490FFA45E504B03041400060808007845E2421444F3DDFE000000A0010000
311
3B0000006662782F36354231423032332D464444432D343945442D423836422D3438373234353531394139432F7265736F75726365732F636F72652E786D6C8D504B6EC32010BD8A35DB0A1B024E9C0813A56A73825E00E149821283C5A7EAF18B63576A77DDCC8CDE47F3F4E4F16B7C549F18A2F5AE075653A8D0193F5877
311
ED21A70BE9A03A2A19BC4FBF6450393D620F330C4A5E83CFD30A19EF12BA5450E7075C411D2326A8CCA31C3D4473C351D73AA7A288F77AD2E6AEAF58B3BAD045A7644CA104A89627F3041530FA1C0C46D92CAC9239DB61D5D8A1FCB4178B01544BC52B3F8B2D79DBEE3A22C4A9237B265AF27EE24CD096F16D7B96CD6C5632
311
D9F127A309A8130EA03694714277846E3E687710FC20F62FB43D702A9B59FEC794A7E19FA66C5DE29B35EE628BA05809F224946CE6BECA7A9659F6DCADFA06504B010214000A00000800007845E2423DEE336E79000000790000001B00000000000000000000000000000000006175746F6465736B2D64657369676E2D7061
311
636B6167652E786D6C504B010214001400060808007845E242D486FD9CA0000000F40000001300000000000000000000000000B20000005B436F6E74656E745F54797065735D2E786D6C504B010214001400060808007845E24207EFDD45EB0000007C010000080000000000000000000000000083010000636F72652E786D
311
6C504B010214001400060808007845E24255019EA25F0000007C000000070000000000000000000000000094020000636E782E786D6C504B010214001400060808007845E242D7513DA467010000020300000C00000000000000000000000000180300006662782F636F72652E786D6C504B010214001400060808007845E2
311
42E43783687E0000009D0000000B00000000000000000000000000A90400006662782F636E782E786D6C504B010214001400060808007845E2421B244E142E010000150200003100000000000000000000000000500500006662782F36354231423032332D464444432D343945442D423836422D3438373234353531394139
311
432F636F72652E786D6C504B010214001400060808007845E2427B69AA9E4F010000330300003000000000000000000000000000CD0600006662782F36354231423032332D464444432D343945442D423836422D3438373234353531394139432F636E782E786D6C504B010214001400060808007845E2425E70486EA40500
311
008010000034000000000000000000000000006A0800006662782F36354231423032332D464444432D343945442D423836422D3438373234353531394139432F6F626A656374732E786D6C504B010214001400060800007845E2420000000000000000000000003500000000000000000000000000600E00006662782F3635
311
4231423032332D464444432D343945442D423836422D3438373234353531394139432F76657274696365732E62696E504B010214001400060808007845E242F270F13306000000040000003600000000000000000000000000B30E00006662782F36354231423032332D464444432D343945442D423836422D343837323435
311
3531394139432F747269616E676C65732E62696E504B010214001400060800007845E24200000000000000000000000037000000000000000000000000000D0F00006662782F36354231423032332D464444432D343945442D423836422D3438373234353531394139432F617474726962757465732E62696E504B01021400
311
1400060808007845E242D5987DFC8F000000410100003600000000000000000000000000620F00006662782F36354231423032332D464444432D343945442D423836422D3438373234353531394139432F6469726563746F72792E786D6C504B010214001400060808007845E2421444F3DDFE000000A00100003B00000000
311
000000000000000000451000006662782F36354231423032332D464444432D343945442D423836422D3438373234353531394139432F7265736F75726365732F636F72652E786D6C504B0506000000000E000E00800400009C1100000000
310
504B03040A00000800007845E2423DEE336E79000000790000001B0000006175746F6465736B2D64657369676E2D7061636B6167652E786D6C3C3F786D6C2076657273696F6E3D22312E302220656E636F64696E673D227574662D3822203F3E3C666F726D6174733E3C666F726D61743E687474703A2F2F736368656D612E
310
6175746F6465736B2E636F6D2F64657369676E2D7061636B6167652F323030393C2F666F726D61743E3C2F666F726D6174733E504B03041400060808007845E242D486FD9CA0000000F4000000130000005B436F6E74656E745F54797065735D2E786D6C7D8EC10E82300C865F65E91D8A1E8C310C0EEA1BF002731658846E
310
D98AC1B77784ABF1D8FE5FBFBF75BBCE937A534CCEB38643598122B6FEE978D0B0485F9C41B54DDD7D022595594E1A469170414C76A4D9A4D207E29CF43ECE46F218070CC6BECC4078ACAA135ACF422C856C0E68EA1BF5669944DDD7BCDE7B1F8E415D77AECB980613C2E4AC91FC167A2B244592486606FC29C8FD7F045B9A
310
EF7053A7E60B504B03041400060808007845E242E43472E3ED0000007C01000008000000636F72652E786D6C8D904D6EC3201085AF82665B61E3BFC4B1305162C727E8051010072506CB40D5E317278ED4EEBA9AD19BF7CD8C1E3D7E4F0FF4A516A7AD69214B0820658495DA8C2D047FC535A023A38BB5FE970D90E1936A61
310
9581D171B161DE24618D57C647D558A936913BA73C20F1884D0B4EDCD4C4131E7C74B87B327371E7A34AB27717E110B444AF235AC67DFAAAD502ACE877C370EA2EB8DA0F152EFB5389CFE470C1F5407659D99F49DD75345D6146BD9EDEF7C5A2B85712584EB202933D26F927A99BB268CAC307A99A82D074B5FF81C22CFF09
310
056D7C916FEFBE30072C8B8F3C078CA66B16B13C838A75CD8DFD00504B03041400060808007845E24255019EA25F0000007C00000007000000636E782E786D6C4DCB3B0E80201045D1AD90E915ED2CF8AC45050C11660C8261F98AB1B07AC9C97D42D718D865D3E909258CFD00CCE24AC6E326A164D74DC0B4128928FF3260
310
38472BA13128B1252AC747C6BAB984FC68F0B87FE8960A5C09FE86CFB69FBA01504B03041400060808007845E24226E4F9CC68010000020300000C0000006662782F636F72652E786D6C8D52ED8E8230107C95A67F2FD0F2A1A229357EF104F702152A4784969496F8F8B77C18CF8B3186A434333BBBB3036C7B6B6AD44BD3
310
555AA538F0294652E5BAA8549962672F5E82D19633A3B5FD538691128D4CF10063CE4AA35D3B43B956562A0BA8D2859C41D175D26294D770497197FFC846F8C259A8E8AE7E2BF2AB28A51FF840431D679D3560004D438613F3CBF9C6C88473E65C55CC6C55C0B4EA52498379745C66D9EE70F216AB6CE1C5C75DECEDE9FAE4
310
25195D06F1714F93C3819141CC99AD9ABBBBDC48616581794883C8A32B8F86DF34D9C4D1265E7FD1C526A28C0CE54F22D7161F8A5CA56C14CE7627598779004646E2DFB61091459DE8C10FE18C0C21C26B4CF83968080442B6E25CDFF7B802D4CBDC6A13035368F7A07A513B0953291A1F4626163A8F0D60B3977DC2377DDE
310
F7800F285409D68485EBD9D9613A9BA6CE51B4D278BDBD21A54D23EA87B9C9E2E37C0C7A29CF75ADCD276A32AF4AE630C9F0F7F25F504B03041400060808007845E242EC1381CB7E0000009D0000000B0000006662782F636E782E786D6C4DCCDF0A83201C86E15B91DFB92B87F30F9851B6EE239685543A9C8E5DFE6A74B0
310
A30F1E3E5E557FB615BD6D7CB9E02B20971290F58F303A3F5790D38405A05AAB1842FABB01F2C3662B3818B49A63C8CF93463B0D794DBBAECE2F274A7A6D1BC609A68CB7984ADE61696E3D6E08BB974298DE980E0AAD8A5F69DF23ACBF504B03041400060808007845E2425DB2FF7C2D01000015020000310000006662782F
310
39343242413637312D343637422D343937442D394335462D4131364530383843464343442F636F72652E786D6C8D515B6E833010BC8AE5AF5495C1806320328E12D29CA01720E0502BC1467E54397EED42A4F62F3F5E6B766676B4CBF68FE90EBE85B152AB0666098640A85E0F528D0DF4EE8A2A08F69C19ADDD1F1A04AA9B
310
4403230C391B8DF6F30AF55A39A15C40951EC40A76D60A07417F0F9F06DAFE4B4C5DD2791718F696CC5D7FEB4691644968071E67D69910002C43E20B794DF2E381961922B43C2252972754B7DB333A64F40357557B6EDB134B172167DECB6195CB21C4915729CCAB2651CC9993D3337E6F44E7C400798EB302E112E1FC1357
310
3B52EC48FD8EB7BB02B334D2FF89FC3CBC28F252B9225FE32E320B79C6D2A5C1D9A0FDE5FE0C231EB3360EC4791B2BFA37C871827155529253C2D2851B36104C29594DADD3266C7873BB047AB13A53C2591A8F14CAEF05438D07E53F504B03041400060808007845E2421DCE65895601000033030000300000006662782F39
310
343242413637312D343637422D343937442D394335462D4131364530383843464343442F636E782E786D6CBD93CD6EC32010845F0571ADFC17BB691A6122F5D027E8A1570C9B84068305B86ADEBE4B42D25C72A854F582ACD96166F509B3CDD768C827F8A09DED6953D69480954E69BBEBE91CB7C58A920D67DEB97863A3C4
310
8A117A9A64CAD9CEBB79CA9282AD984D44D5687BC8A287E0662F21A09C6E12E3A4301800B69851847100A54091AB11BFB6E07115148723897B20AF2FEFC40D1F206360554AE1AC4A1D9CA53337DD9828914684D0D320F7308A52CCD1290887528928CAA6BC74DDD9E92789A40B97CAD96B92CA7B9A4ECAF346257264150E39
310
0BD123BD6C8AC7092817D364B41411215727E3D9C3D9AC6D5C76D9AB11BC4777BB58AE5618769A7116F508D9213D88088AF245DDB445FD54D48BB77AB5EEDA75F7FC503FAEDB9A55C9CED9E09CC9973006BC9B887436828D9437AC4AE37BF8B28F28ED91B5F3C75F804400B9F54CE79AF1977C9A65DB75FFC8A73ABD6FC4E5
310
F12FE0DF504B03041400060808007845E242C67CDB9562070000991B0000340000006662782F39343242413637312D343637422D343937442D394335462D4131364530383843464343442F6F626A656374732E786D6CED595B73A33614FE2B0C7D691F8C4D6C67930EA1933897F1EC647767DDDDE98367181964A246084612
310
B9F4D7F7E802066212DC4DDFF6C106847474CE77AE3A047F3C65D479C05C909C9DB9BE37711DCCE23C212C3D734BB91D9DB8CE1F61C0F35C36A6B90E43193E73D5B01B0629CFCBC20E25788B4A2A3BA3D7177F3922C60CBB4E4C911067AE88EF70863C54CA3CC1E2DE4B90445EBA7DF27CCF4C6C934D392AEE3A440BC43193
310
C0298C33A0E218A6FCF6E3C41D87C158BD0F03F56F674D07CD9AF5CF1A6BA9DB5C12262462F10B963A64A683589AFAB3CBABA3F9E9683E9B4D47B3E3237F74717D7139F23F4C278BE3C5E2F4FCEA14D8DBE439B53225B8C02C01FD3DBBA11F8CD59B5A748BC03EAEE39C311C6B20012A2D569720C102B66AC037693FFA4AA2
310
C66B2D61E379A6DE5B161AC3D33695BE59C38068D10541EC7695C4D5B5295FBEF91B0417438C920B2C815B213968D7C2C3C12BDC70128CCD68186C76BA20C2C990C49C20EA50B2E188835260AA9A1206668125A39C8303294749A035675EB76D0B3CF36DD7D9C7E5B6A45479861B6AC78AC0FDB0149A33F20FE63BEE9BC800
310
4F206D49983CB15CCAE702BBE16930D68361A02ED323FBD200E96C294A8546C4BCED08BA50AEBFBC74C38FD79BA7950A07FB372F785E602E95D1293D6ABEC090ED55A164B7F507694E2D00610CA876E50E94AF80FC27881E3B56406F9C3CCD9E6676AEE488896DCE33D08D33714613F89B38BEFE57F78DBB605C2F6E6BAF0F
310
4F705305D5C98FE3D996416365F96FC019060F60F0399FDA57AB1851B0E75BC2002065240ECD610842FB76F3E4864B089C10E86115A2A10F2203BB0F701B8C2D999D562AF7B25EC70051BBC774889200366D91C0468F9E6E207B7012EFD4D414B10FDEF9BB98EBF9E5EAE3AAE45B14E35BEBD397784B18919035F733D4C2BC
310
25D13D7E7ECC790282BEC47BD5C43BB35B09405B61AE804F2B10D4C36EE7D60631AC4B73156E823776002154AE6ED0BF2522C6942286F3B2DAB78E6ECA506B8FB735831B1E1988A7471D13E6F881A8AA029C6637A3C528E4FD98934281E8863746B23A687A3DD27D5B7E028BACE7F7CC5A3208BD0CD13F75D0DA8343CBB22B
310
A42D10B5C09B5D388F739AF368F31C9948E7422D016CB4BDE57B8B28C47AA32445053C48FB5D155252236D9490EDB6141057F7B0F87DB9689AC3C49BFA73A7F9DF71C619445BF05DC4ADDF75F6884886521C6D51D2B75D73B79AB6D0247B4873BCA520177920F23942329A24383D049A83889FBE2BF594E642108605E4ABBD
310
E037D1987810488C362B9695563B4013116558227A08028A4C0FB83AEDE81A3786D2E16D1E6BEB7D4D634DA2FF93457004B564CE2202A528E4903719F7BD39C49036BA06E50EBE606D156D2D062DA184889FA3474CD23B7908EA867C0FEE311C494A19E5058AC1AC07907DE12B4AA91DDE3728BE57F9238A4BFA5E062230DD
310
4684D2328BE047189C3C86B8761D985E45A141DCC43E893328CA902CF9904D8EE79317FB989AA11B021B1B6D0985B01D65A8E841BD1510753DE2D4E05BEA3D4ADD945911A12C2FD92043F1A65D6FB2E4BB6A556407F2AB4A45281B2BC29660181026EBAC5AC56C30751D58C18D74A07A8E04CA0A6A4E616F241EBFF6264DB9
310
77036EFDF47D37C8A0F0EBD15E33A2CE2A182C8FADC2403C2219DFB9E14A5F4717507F2738D9A5FAAAD66C568080988AE425275645DF9650DED81ACD0D6F9114EB1B9375ABEBB7A507DD8F600C6BA076A9172E15D0196612A9CAE456DDD0AF0842708B86195FAA9C7A0895F324D15523A2D7A44F9DAD32A2B56946BCE20EB3
310
3C831F5B1316D332C16B9488FBE856D2684514EB564A2F2315C6AF0AF8F966D58107460688F4451578F8B1B3D68E2E54B9B49788BC2BB30D430482604BB4D4E8C62B586A355269B9BEAA3305D45D606056C5B39F278B663BE2E7C922B586F163270B9A6F10DD459B46368F95591F740AA8D393A2F21EA700DD75A8A9D649C4
310
E4722BBEF5A508626215E407176355CC3004FB38FECF49BB2F099AED3AFC1F96B4FD1705C74149A5355935A9F614AECB660A3B3F9D1E5F1E4F8F4793C96C319A5D5C2D46A7FED587D1F5C9C5C5F17C76319FCFAF6B34B59F86411DCB74EA826713D3AA61F5643180A6ACC82949E0309F382986902FE1483FA07BCE332C2077
310
367BDD89EDC90F58FD60DA9C126D28AE38B943D01FA602B23A6054C6B23DEEFC029D4909E7EC33177A46DE3DFC59AB741D483C672E740A2489B1F036D06552FD3C4D1C32AE4EFD9618E08358AA32A259543FD7AB1436ADE85F4F199205AC5CAD1606D46D0534BF5A0D0ACD9BE5293E48F08A1D0749B8DD94128A3523CB6EA0
310
16466FB353BF918D12766FB77E02D77D5D2CDFD3735A880CFA62F0AA1118AA238978AADBDD8A31CBD2F9E59731B4D99CE567A7A0650ABA1C4E69C4311873A9EA29B022B00A4BB340124C75F1FBFA0BCFE10B4FE6E8A2C8F9F5E9E4F8B7F522CFB29C99A1F5391CCA12F84EE4ACEEE0AB4FB286DA01ABDEBA581F4DFCA3B5EE
310
69DB367BB441027BAA288281AA965082744C0EECF2457FCA762FC74A159DE9CB4BC70651E805183B7AD1E235DFB81CF021F53545798CF6F34ADA57DBDA633D156C8243433AFC17504B03041400060800007845E242000000000000000000000000350000006662782F39343242413637312D343637422D343937442D394335
310
462D4131364530383843464343442F76657274696365732E62696E504B03041400060808007845E242F270F1330600000004000000360000006662782F39343242413637312D343637422D343937442D394335462D4131364530383843464343442F747269616E676C65732E62696E636660600000504B0304140006080000
310
7845E242000000000000000000000000370000006662782F39343242413637312D343637422D343937442D394335462D4131364530383843464343442F617474726962757465732E62696E504B03041400060808007845E242D5987DFC8F00000041010000360000006662782F39343242413637312D343637422D34393744
310
2D394335462D4131364530383843464343442F6469726563746F72792E786D6C858F410EC2201045AF4266AF15DDB800BA74E7C21B903225242D6328188F2FA5C4183471359997F9FF81E89FF3C41E1816475E02DF1F80A11FC8386F25A438EECEC07A250251FC3803E6F58C12560C4AD840E95E91C151A72936F496F35732
310
D860FE635F62C8F2DA16B505C545B74125BAA2FA9E05D7CC053D063734D5C7665FD55B6B8D15D5E9BFEAFD8490FFA45E504B03041400060808007845E242F79F5C7BFF000000A00100003B0000006662782F39343242413637312D343637422D343937442D394335462D4131364530383843464343442F7265736F75726365
310
732F636F72652E786D6C8D504B6E833010BD0A9A6D65300112121947492827E8052C332156821DF953F5F8B50395DA5D3733A3F7D13C3D76FC9A1FD9275AA78CEEA0CC2964A8A519959E3A08FE4A5AC88E9C5963FC2F19645ACCD8418281B3C99AF05C2169B447ED23AACD882B289C430F997CC4A303276F388B5C041F15EE
310
9E3F85BC8B09F3328F74D471E6BC8D01B2E5499AC02D3A13AC44C78A85E52C0435AE1A35C69FEAAAD002AFFAED309C2E3D69764343EAFE549333DDBF9376A0DBB2EECFB4BD5C5891CC9C7935FF64941685C711F8869615A13B42371FB43DD4D5A1DEBFD1E650515624F91F53788EFF3405A57DB559E32E3607BC8C415E0467
310
45EA2BAE579971A76EF937504B010214000A00000800007845E2423DEE336E79000000790000001B00000000000000000000000000000000006175746F6465736B2D64657369676E2D7061636B6167652E786D6C504B010214001400060808007845E242D486FD9CA0000000F40000001300000000000000000000000000B2
310
0000005B436F6E74656E745F54797065735D2E786D6C504B010214001400060808007845E242E43472E3ED0000007C010000080000000000000000000000000083010000636F72652E786D6C504B010214001400060808007845E24255019EA25F0000007C000000070000000000000000000000000096020000636E782E78
310
6D6C504B010214001400060808007845E24226E4F9CC68010000020300000C000000000000000000000000001A0300006662782F636F72652E786D6C504B010214001400060808007845E242EC1381CB7E0000009D0000000B00000000000000000000000000AC0400006662782F636E782E786D6C504B0102140014000608
310
08007845E2425DB2FF7C2D010000150200003100000000000000000000000000530500006662782F39343242413637312D343637422D343937442D394335462D4131364530383843464343442F636F72652E786D6C504B010214001400060808007845E2421DCE658956010000330300003000000000000000000000000000
310
CF0600006662782F39343242413637312D343637422D343937442D394335462D4131364530383843464343442F636E782E786D6C504B010214001400060808007845E242C67CDB9562070000991B00003400000000000000000000000000730800006662782F39343242413637312D343637422D343937442D394335462D41
310
31364530383843464343442F6F626A656374732E786D6C504B010214001400060800007845E2420000000000000000000000003500000000000000000000000000271000006662782F39343242413637312D343637422D343937442D394335462D4131364530383843464343442F76657274696365732E62696E504B010214
310
001400060808007845E242F270F133060000000400000036000000000000000000000000007A1000006662782F39343242413637312D343637422D343937442D394335462D4131364530383843464343442F747269616E676C65732E62696E504B010214001400060800007845E24200000000000000000000000037000000
310
00000000000000000000D41000006662782F39343242413637312D343637422D343937442D394335462D4131364530383843464343442F617474726962757465732E62696E504B010214001400060808007845E242D5987DFC8F000000410100003600000000000000000000000000291100006662782F3934324241363731
310
2D343637422D343937442D394335462D4131364530383843464343442F6469726563746F72792E786D6C504B010214001400060808007845E242F79F5C7BFF000000A00100003B000000000000000000000000000C1200006662782F39343242413637312D343637422D343937442D394335462D4131364530383843464343
310
442F7265736F75726365732F636F72652E786D6C504B0506000000000E000E0080040000641300000000
  0
XRECORD
  5
27
102
{ACAD_REACTORS
330
22
102
}
330
22
100
AcDbXrecord
280
     1
270
     1
271
     1
  0
XRECORD
  5
26
102
{ACAD_REACTORS
330
22
102
}
330
22
100
AcDbXrecord
280
     1
270
     1
271
     1
  0
XRECORD
  5
28
102
{ACAD_REACTORS
330
22
102
}
330
22
100
AcDbXrecord
280
     1
270
     1
271
     1
  0
XRECORD
  5
25
102
{ACAD_REACTORS
330
22
102
}
330
22
100
AcDbXrecord
280
     1
270
     1
271
     1
  0
XRECORD
  5
E62
102
{ACAD_REACTORS
330
E61
102
}
330
E61
100
AcDbXrecord
280
     1
102
ACAD_ROUNDTRIP_2012_MLEADER_STYLE
298
     1
  0
CELLSTYLEMAP
  5
E60
102
{ACAD_REACTORS
330
E5F
102
}
330
E5F
100
AcDbCellStyleMap
 90
        3
300
CELLSTYLE
  1
TABLEFORMAT_BEGIN
 90
        5
170
     1
 91
        0
 92
    32768
 62
   257
 93
        1
300
CONTENTFORMAT
  1
CONTENTFORMAT_BEGIN
 90
        0
 91
        0
 92
      512
 93
        0
300

 40
0.0
140
1.0
 94
        5
 62
     0
340
55
144
0.25
309
CONTENTFORMAT_END
171
     0
 94
        0
309
TABLEFORMAT_END
  1
CELLSTYLE_BEGIN
 90
        1
 91
        1
300
_TITLE
309
CELLSTYLE_END
300
CELLSTYLE
  1
TABLEFORMAT_BEGIN
 90
        5
170
     1
 91
        0
 92
        0
 62
   257
 93
        1
300
CONTENTFORMAT
  1
CONTENTFORMAT_BEGIN
 90
        0
 91
        0
 92
      512
 93
        0
300

 40
0.0
140
1.0
 94
        5
 62
     0
340
55
144
0.18
309
CONTENTFORMAT_END
171
     0
 94
        0
309
TABLEFORMAT_END
  1
CELLSTYLE_BEGIN
 90
        2
 91
        1
300
_HEADER
309
CELLSTYLE_END
300
CELLSTYLE
  1
TABLEFORMAT_BEGIN
 90
        5
170
     1
 91
        0
 92
        0
 62
   257
 93
        1
300
CONTENTFORMAT
  1
CONTENTFORMAT_BEGIN
 90
        0
 91
        0
 92
      512
 93
        0
300

 40
0.0
140
1.0
 94
        2
 62
     0
340
55
144
0.18
309
CONTENTFORMAT_END
171
     0
 94
        0
309
TABLEFORMAT_END
  1
CELLSTYLE_BEGIN
 90
        3
 91
        2
300
_DATA
309
CELLSTYLE_END
  0
XRECORD
  5
E99
102
{ACAD_REACTORS
330
E5F
102
}
330
E5F
100
AcDbXrecord
280
     1
102
ACAD_ROUNDTRIP_PRE2007_TABLESTYLE
 90
      512
 91
        0
  1

 92
      512
 93
        0
  2

 94
      512
 95
        0
  3

  0
XRECORD
  5
E74
102
{ACAD_REACTORS
330
E73
102
}
330
E73
100
AcDbXrecord
280
     1
102
RTVSPropertyOp0
 70
     1
102
RTVSPropertyOp1
 70
     1
102
RTVSPropertyOp2
 70
     1
102
RTVSPropertyOp3
 70
     1
102
RTVSPropertyOp4
 70
     1
102
RTVSPropertyOp5
 70
     1
102
RTVSPropertyOp6
 70
     1
102
RTVSPropertyOp7
 70
     1
102
RTVSPropertyOp8
 70
     1
102
RTVSPropertyOp9
 70
     1
102
RTVSPropertyOp10
 70
     1
102
RTVSPropertyOp11
 70
     1
102
RTVSPropertyOp12
 70
     1
102
RTVSPropertyOp13
 70
     1
102
RTVSPropertyOp14
 70
     1
102
RTVSPropertyOp15
 70
     1
102
RTVSPropertyOp16
 70
     1
102
RTVSPropertyOp17
 70
     1
102
RTVSPropertyOp18
 70
     1
102
RTVSPropertyOp19
 70
     1
102
RTVSPropertyOp20
 70
     1
102
RTVSPropertyOp21
 70
     1
102
RTVSPropertyOp22
 70
     1
102
RTVSPropertyOp23
 70
     1
102
RTVSPropertyOp24
 70
     1
102
RTVSPropertyOp25
 70
     1
102
RTVSPropertyOp26
 70
     1
102
RTVSPropertyOp27
 70
     1
102
RTVSPropertyOp28
 70
     1
102
RTVSPropertyOp29
 70
     1
102
RTVSPropertyOp30
 70
     1
102
RTVSPropertyOp31
 70
     1
102
RTVSPropertyOp32
 70
     1
  0
XRECORD
  5
E72
102
{ACAD_REACTORS
330
E71
102
}
330
E71
100
AcDbXrecord
280
     1
102
RTVSPropertyOp0
 70
     1
102
RTVSPropertyOp1
 70
     1
102
RTVSPropertyOp2
 70
     1
102
RTVSPropertyOp3
 70
     1
102
RTVSPropertyOp4
 70
     1
102
RTVSPropertyOp5
 70
     1
102
RTVSPropertyOp6
 70
     1
102
RTVSPropertyOp7
 70
     1
102
RTVSPropertyOp8
 70
     1
102
RTVSPropertyOp9
 70
     1
102
RTVSPropertyOp10
 70
     1
102
RTVSPropertyOp11
 70
     1
102
RTVSPropertyOp12
 70
     1
102
RTVSPropertyOp13
 70
     1
102
RTVSPropertyOp14
 70
     1
102
RTVSPropertyOp15
 70
     1
102
RTVSPropertyOp16
 70
     1
102
RTVSPropertyOp17
 70
     1
102
RTVSPropertyOp18
 70
     1
102
RTVSPropertyOp19
 70
     1
102
RTVSPropertyOp20
 70
     1
102
RTVSPropertyOp21
 70
     1
102
RTVSPropertyOp22
 70
     1
102
RTVSPropertyOp23
 70
     1
102
RTVSPropertyOp24
 70
     1
102
RTVSPropertyOp25
 70
     1
102
RTVSPropertyOp26
 70
     1
102
RTVSPropertyOp27
 70
     1
102
RTVSPropertyOp28
 70
     1
102
RTVSPropertyOp29
 70
     1
102
RTVSPropertyOp30
 70
     1
102
RTVSPropertyOp31
 70
     1
102
RTVSPropertyOp32
 70
     1
  0
XRECORD
  5
E80
102
{ACAD_REACTORS
330
E7F
102
}
330
E7F
100
AcDbXrecord
280
     1
102
RTVSPropertyOp0
 70
     1
102
RTVSPropertyOp1
 70
     1
102
RTVSPropertyOp2
 70
     1
102
RTVSPropertyOp3
 70
     1
102
RTVSPropertyOp4
 70
     1
102
RTVSPropertyOp5
 70
     1
102
RTVSPropertyOp6
 70
     1
102
RTVSPropertyOp7
 70
     1
102
RTVSPropertyOp8
 70
     1
102
RTVSPropertyOp9
 70
     1
102
RTVSPropertyOp10
 70
     1
102
RTVSPropertyOp11
 70
     1
102
RTVSPropertyOp12
 70
     1
102
RTVSPropertyOp13
 70
     1
102
RTVSPropertyOp14
 70
     1
102
RTVSPropertyOp15
 70
     1
102
RTVSPropertyOp16
 70
     1
102
RTVSPropertyOp17
 70
     1
102
RTVSPropertyOp18
 70
     1
102
RTVSPropertyOp19
 70
     1
102
RTVSPropertyOp20
 70
     1
102
RTVSPropertyOp21
 70
     1
102
RTVSPropertyOp22
 70
     1
102
RTVSPropertyOp23
 70
     1
102
RTVSPropertyOp24
 70
     1
102
RTVSPropertyOp25
 70
     1
102
RTVSPropertyOp26
 70
     1
102
RTVSPropertyOp27
 70
     1
102
RTVSPropertyOp28
 70
     1
102
RTVSPropertyOp29
 70
     1
102
RTVSPropertyOp30
 70
     1
102
RTVSPropertyOp31
 70
     1
102
RTVSPropertyOp32
 70
     1
  0
XRECORD
  5
E88
102
{ACAD_REACTORS
330
E87
102
}
330
E87
100
AcDbXrecord
280
     1
102
RTVSPropertyOp0
 70
     1
102
RTVSPropertyOp1
 70
     1
102
RTVSPropertyOp2
 70
     1
102
RTVSPropertyOp3
 70
     1
102
RTVSPropertyOp4
 70
     1
102
RTVSPropertyOp5
 70
     1
102
RTVSPropertyOp6
 70
     1
102
RTVSPropertyOp7
 70
     1
102
RTVSPropertyOp8
 70
     1
102
RTVSPropertyOp9
 70
     1
102
RTVSPropertyOp10
 70
     1
102
RTVSPropertyOp11
 70
     1
102
RTVSPropertyOp12
 70
     1
102
RTVSPropertyOp13
 70
     1
102
RTVSPropertyOp14
 70
     1
102
RTVSPropertyOp15
 70
     1
102
RTVSPropertyOp16
 70
     1
102
RTVSPropertyOp17
 70
     1
102
RTVSPropertyOp18
 70
     1
102
RTVSPropertyOp19
 70
     1
102
RTVSPropertyOp20
 70
     1
102
RTVSPropertyOp21
 70
     1
102
RTVSPropertyOp22
 70
     1
102
RTVSPropertyOp23
 70
     1
102
RTVSPropertyOp24
 70
     1
102
RTVSPropertyOp25
 70
     1
102
RTVSPropertyOp26
 70
     1
102
RTVSPropertyOp27
 70
     1
102
RTVSPropertyOp28
 70
     1
102
RTVSPropertyOp29
 70
     1
102
RTVSPropertyOp30
 70
     1
102
RTVSPropertyOp31
 70
     1
102
RTVSPropertyOp32
 70
     1
  0
XRECORD
  5
E7A
102
{ACAD_REACTORS
330
E79
102
}
330
E79
100
AcDbXrecord
280
     1
102
RTVSPropertyOp0
 70
     1
102
RTVSPropertyOp1
 70
     1
102
RTVSPropertyOp2
 70
     1
102
RTVSPropertyOp3
 70
     1
102
RTVSPropertyOp4
 70
     1
102
RTVSPropertyOp5
 70
     1
102
RTVSPropertyOp6
 70
     1
102
RTVSPropertyOp7
 70
     1
102
RTVSPropertyOp8
 70
     1
102
RTVSPropertyOp9
 70
     1
102
RTVSPropertyOp10
 70
     1
102
RTVSPropertyOp11
 70
     1
102
RTVSPropertyOp12
 70
     1
102
RTVSPropertyOp13
 70
     1
102
RTVSPropertyOp14
 70
     1
102
RTVSPropertyOp15
 70
     1
102
RTVSPropertyOp16
 70
     1
102
RTVSPropertyOp17
 70
     1
102
RTVSPropertyOp18
 70
     1
102
RTVSPropertyOp19
 70
     1
102
RTVSPropertyOp20
 70
     1
102
RTVSPropertyOp21
 70
     1
102
RTVSPropertyOp22
 70
     1
102
RTVSPropertyOp23
 70
     1
102
RTVSPropertyOp24
 70
     1
102
RTVSPropertyOp25
 70
     1
102
RTVSPropertyOp26
 70
     1
102
RTVSPropertyOp27
 70
     1
102
RTVSPropertyOp28
 70
     1
102
RTVSPropertyOp29
 70
     1
102
RTVSPropertyOp30
 70
     1
102
RTVSPropertyOp31
 70
     1
102
RTVSPropertyOp32
 70
     1
  0
XRECORD
  5
E7E
102
{ACAD_REACTORS
330
E7D
102
}
330
E7D
100
AcDbXrecord
280
     1
102
RTVSPropertyOp0
 70
     1
102
RTVSPropertyOp1
 70
     1
102
RTVSPropertyOp2
 70
     1
102
RTVSPropertyOp3
 70
     1
102
RTVSPropertyOp4
 70
     1
102
RTVSPropertyOp5
 70
     1
102
RTVSPropertyOp6
 70
     1
102
RTVSPropertyOp7
 70
     1
102
RTVSPropertyOp8
 70
     1
102
RTVSPropertyOp9
 70
     1
102
RTVSPropertyOp10
 70
     1
102
RTVSPropertyOp11
 70
     1
102
RTVSPropertyOp12
 70
     1
102
RTVSPropertyOp13
 70
     1
102
RTVSPropertyOp14
 70
     1
102
RTVSPropertyOp15
 70
     1
102
RTVSPropertyOp16
 70
     1
102
RTVSPropertyOp17
 70
     1
102
RTVSPropertyOp18
 70
     1
102
RTVSPropertyOp19
 70
     1
102
RTVSPropertyOp20
 70
     1
102
RTVSPropertyOp21
 70
     1
102
RTVSPropertyOp22
 70
     1
102
RTVSPropertyOp23
 70
     1
102
RTVSPropertyOp24
 70
     1
102
RTVSPropertyOp25
 70
     1
102
RTVSPropertyOp26
 70
     1
102
RTVSPropertyOp27
 70
     1
102
RTVSPropertyOp28
 70
     1
102
RTVSPropertyOp29
 70
     1
102
RTVSPropertyOp30
 70
     1
102
RTVSPropertyOp31
 70
     1
102
RTVSPropertyOp32
 70
     1
  0
XRECORD
  5
E98
102
{ACAD_REACTORS
330
E97
102
}
330
E97
100
AcDbXrecord
280
     1
102
RTVSPropertyOp0
 70
     0
102
RTVSPropertyOp1
 70
     0
102
RTVSPropertyOp2
 70
     0
102
RTVSPropertyOp3
 70
     0
102
RTVSPropertyOp4
 70
     0
102
RTVSPropertyOp5
 70
     0
102
RTVSPropertyOp6
 70
     0
102
RTVSPropertyOp7
 70
     0
102
RTVSPropertyOp8
 70
     0
102
RTVSPropertyOp9
 70
     0
102
RTVSPropertyOp10
 70
     0
102
RTVSPropertyOp11
 70
     0
102
RTVSPropertyOp12
 70
     0
102
RTVSPropertyOp13
 70
     0
102
RTVSPropertyOp14
 70
     2
102
RTVSPropertyOp15
 70
     0
102
RTVSPropertyOp16
 70
     0
102
RTVSPropertyOp17
 70
     0
102
RTVSPropertyOp18
 70
     0
102
RTVSPropertyOp19
 70
     0
102
RTVSPropertyOp20
 70
     0
102
RTVSPropertyOp21
 70
     0
102
RTVSPropertyOp22
 70
     0
102
RTVSPropertyOp23
 70
     0
102
RTVSPropertyOp24
 70
     0
102
RTVSPropertyOp25
 70
     0
102
RTVSPropertyOp26
 70
     0
102
RTVSPropertyOp27
 70
     0
102
RTVSPropertyOp28
 70
     1
102
RTVSPropertyOp29
 70
     1
102
RTVSPropertyOp30
 70
     1
102
RTVSPropertyOp31
 70
     1
102
RTVSPropertyOp32
 70
     1
  0
XRECORD
  5
E86
102
{ACAD_REACTORS
330
E85
102
}
330
E85
100
AcDbXrecord
280
     1
102
RTVSPropertyOp0
 70
     1
102
RTVSPropertyOp1
 70
     1
102
RTVSPropertyOp2
 70
     1
102
RTVSPropertyOp3
 70
     1
102
RTVSPropertyOp4
 70
     1
102
RTVSPropertyOp5
 70
     1
102
RTVSPropertyOp6
 70
     1
102
RTVSPropertyOp7
 70
     1
102
RTVSPropertyOp8
 70
     1
102
RTVSPropertyOp9
 70
     1
102
RTVSPropertyOp10
 70
     1
102
RTVSPropertyOp11
 70
     1
102
RTVSPropertyOp12
 70
     1
102
RTVSPropertyOp13
 70
     1
102
RTVSPropertyOp14
 70
     1
102
RTVSPropertyOp15
 70
     1
102
RTVSPropertyOp16
 70
     1
102
RTVSPropertyOp17
 70
     1
102
RTVSPropertyOp18
 70
     1
102
RTVSPropertyOp19
 70
     1
102
RTVSPropertyOp20
 70
     1
102
RTVSPropertyOp21
 70
     1
102
RTVSPropertyOp22
 70
     1
102
RTVSPropertyOp23
 70
     1
102
RTVSPropertyOp24
 70
     1
102
RTVSPropertyOp25
 70
     1
102
RTVSPropertyOp26
 70
     1
102
RTVSPropertyOp27
 70
     1
102
RTVSPropertyOp28
 70
     1
102
RTVSPropertyOp29
 70
     1
102
RTVSPropertyOp30
 70
     1
102
RTVSPropertyOp31
 70
     1
102
RTVSPropertyOp32
 70
     1
  0
XRECORD
  5
E6A
102
{ACAD_REACTORS
330
E69
102
}
330
E69
100
AcDbXrecord
280
     1
102
RTVSPropertyOp0
 70
     1
102
RTVSPropertyOp1
 70
     1
102
RTVSPropertyOp2
 70
     1
102
RTVSPropertyOp3
 70
     1
102
RTVSPropertyOp4
 70
     1
102
RTVSPropertyOp5
 70
     1
102
RTVSPropertyOp6
 70
     1
102
RTVSPropertyOp7
 70
     1
102
RTVSPropertyOp8
 70
     1
102
RTVSPropertyOp9
 70
     1
102
RTVSPropertyOp10
 70
     1
102
RTVSPropertyOp11
 70
     1
102
RTVSPropertyOp12
 70
     1
102
RTVSPropertyOp13
 70
     1
102
RTVSPropertyOp14
 70
     1
102
RTVSPropertyOp15
 70
     1
102
RTVSPropertyOp16
 70
     1
102
RTVSPropertyOp17
 70
     1
102
RTVSPropertyOp18
 70
     1
102
RTVSPropertyOp19
 70
     1
102
RTVSPropertyOp20
 70
     1
102
RTVSPropertyOp21
 70
     1
102
RTVSPropertyOp22
 70
     1
102
RTVSPropertyOp23
 70
     1
102
RTVSPropertyOp24
 70
     1
102
RTVSPropertyOp25
 70
     1
102
RTVSPropertyOp26
 70
     1
102
RTVSPropertyOp27
 70
     1
102
RTVSPropertyOp28
 70
     1
102
RTVSPropertyOp29
 70
     1
102
RTVSPropertyOp30
 70
     1
102
RTVSPropertyOp31
 70
     1
102
RTVSPropertyOp32
 70
     1
  0
XRECORD
  5
E6C
102
{ACAD_REACTORS
330
E6B
102
}
330
E6B
100
AcDbXrecord
280
     1
102
RTVSPropertyOp0
 70
     1
102
RTVSPropertyOp1
 70
     1
102
RTVSPropertyOp2
 70
     1
102
RTVSPropertyOp3
 70
     1
102
RTVSPropertyOp4
 70
     1
102
RTVSPropertyOp5
 70
     1
102
RTVSPropertyOp6
 70
     1
102
RTVSPropertyOp7
 70
     1
102
RTVSPropertyOp8
 70
     1
102
RTVSPropertyOp9
 70
     1
102
RTVSPropertyOp10
 70
     1
102
RTVSPropertyOp11
 70
     1
102
RTVSPropertyOp12
 70
     1
102
RTVSPropertyOp13
 70
     1
102
RTVSPropertyOp14
 70
     1
102
RTVSPropertyOp15
 70
     1
102
RTVSPropertyOp16
 70
     1
102
RTVSPropertyOp17
 70
     1
102
RTVSPropertyOp18
 70
     1
102
RTVSPropertyOp19
 70
     1
102
RTVSPropertyOp20
 70
     1
102
RTVSPropertyOp21
 70
     1
102
RTVSPropertyOp22
 70
     1
102
RTVSPropertyOp23
 70
     1
102
RTVSPropertyOp24
 70
     1
102
RTVSPropertyOp25
 70
     1
102
RTVSPropertyOp26
 70
     1
102
RTVSPropertyOp27
 70
     1
102
RTVSPropertyOp28
 70
     1
102
RTVSPropertyOp29
 70
     1
102
RTVSPropertyOp30
 70
     1
102
RTVSPropertyOp31
 70
     1
102
RTVSPropertyOp32
 70
     1
  0
XRECORD
  5
E6E
102
{ACAD_REACTORS
330
E6D
102
}
330
E6D
100
AcDbXrecord
280
     1
102
RTVSPropertyOp0
 70
     1
102
RTVSPropertyOp1
 70
     1
102
RTVSPropertyOp2
 70
     1
102
RTVSPropertyOp3
 70
     1
102
RTVSPropertyOp4
 70
     1
102
RTVSPropertyOp5
 70
     1
102
RTVSPropertyOp6
 70
     1
102
RTVSPropertyOp7
 70
     1
102
RTVSPropertyOp8
 70
     1
102
RTVSPropertyOp9
 70
     1
102
RTVSPropertyOp10
 70
     1
102
RTVSPropertyOp11
 70
     1
102
RTVSPropertyOp12
 70
     1
102
RTVSPropertyOp13
 70
     1
102
RTVSPropertyOp14
 70
     1
102
RTVSPropertyOp15
 70
     1
102
RTVSPropertyOp16
 70
     1
102
RTVSPropertyOp17
 70
     1
102
RTVSPropertyOp18
 70
     1
102
RTVSPropertyOp19
 70
     1
102
RTVSPropertyOp20
 70
     1
102
RTVSPropertyOp21
 70
     1
102
RTVSPropertyOp22
 70
     1
102
RTVSPropertyOp23
 70
     1
102
RTVSPropertyOp24
 70
     1
102
RTVSPropertyOp25
 70
     1
102
RTVSPropertyOp26
 70
     1
102
RTVSPropertyOp27
 70
     1
102
RTVSPropertyOp28
 70
     1
102
RTVSPropertyOp29
 70
     1
102
RTVSPropertyOp30
 70
     1
102
RTVSPropertyOp31
 70
     1
102
RTVSPropertyOp32
 70
     1
  0
XRECORD
  5
E70
102
{ACAD_REACTORS
330
E6F
102
}
330
E6F
100
AcDbXrecord
280
     1
102
RTVSPropertyOp0
 70
     1
102
RTVSPropertyOp1
 70
     1
102
RTVSPropertyOp2
 70
     1
102
RTVSPropertyOp3
 70
     1
102
RTVSPropertyOp4
 70
     1
102
RTVSPropertyOp5
 70
     1
102
RTVSPropertyOp6
 70
     1
102
RTVSPropertyOp7
 70
     1
102
RTVSPropertyOp8
 70
     1
102
RTVSPropertyOp9
 70
     1
102
RTVSPropertyOp10
 70
     1
102
RTVSPropertyOp11
 70
     1
102
RTVSPropertyOp12
 70
     1
102
RTVSPropertyOp13
 70
     1
102
RTVSPropertyOp14
 70
     1
102
RTVSPropertyOp15
 70
     1
102
RTVSPropertyOp16
 70
     1
102
RTVSPropertyOp17
 70
     1
102
RTVSPropertyOp18
 70
     1
102
RTVSPropertyOp19
 70
     1
102
RTVSPropertyOp20
 70
     1
102
RTVSPropertyOp21
 70
     1
102
RTVSPropertyOp22
 70
     1
102
RTVSPropertyOp23
 70
     1
102
RTVSPropertyOp24
 70
     1
102
RTVSPropertyOp25
 70
     1
102
RTVSPropertyOp26
 70
     1
102
RTVSPropertyOp27
 70
     1
102
RTVSPropertyOp28
 70
     1
102
RTVSPropertyOp29
 70
     1
102
RTVSPropertyOp30
 70
     1
102
RTVSPropertyOp31
 70
     1
102
RTVSPropertyOp32
 70
     1
  0
XRECORD
  5
E78
102
{ACAD_REACTORS
330
E77
102
}
330
E77
100
AcDbXrecord
280
     1
102
RTVSPropertyOp0
 70
     1
102
RTVSPropertyOp1
 70
     1
102
RTVSPropertyOp2
 70
     1
102
RTVSPropertyOp3
 70
     1
102
RTVSPropertyOp4
 70
     1
102
RTVSPropertyOp5
 70
     1
102
RTVSPropertyOp6
 70
     1
102
RTVSPropertyOp7
 70
     1
102
RTVSPropertyOp8
 70
     1
102
RTVSPropertyOp9
 70
     1
102
RTVSPropertyOp10
 70
     1
102
RTVSPropertyOp11
 70
     1
102
RTVSPropertyOp12
 70
     1
102
RTVSPropertyOp13
 70
     1
102
RTVSPropertyOp14
 70
     1
102
RTVSPropertyOp15
 70
     1
102
RTVSPropertyOp16
 70
     1
102
RTVSPropertyOp17
 70
     1
102
RTVSPropertyOp18
 70
     1
102
RTVSPropertyOp19
 70
     1
102
RTVSPropertyOp20
 70
     1
102
RTVSPropertyOp21
 70
     1
102
RTVSPropertyOp22
 70
     1
102
RTVSPropertyOp23
 70
     1
102
RTVSPropertyOp24
 70
     1
102
RTVSPropertyOp25
 70
     1
102
RTVSPropertyOp26
 70
     1
102
RTVSPropertyOp27
 70
     1
102
RTVSPropertyOp28
 70
     1
102
RTVSPropertyOp29
 70
     1
102
RTVSPropertyOp30
 70
     1
102
RTVSPropertyOp31
 70
     1
102
RTVSPropertyOp32
 70
     1
  0
XRECORD
  5
E94
102
{ACAD_REACTORS
330
E93
102
}
330
E93
100
AcDbXrecord
280
     1
102
RTVSPropertyOp0
 70
     0
102
RTVSPropertyOp1
 70
     0
102
RTVSPropertyOp2
 70
     0
102
RTVSPropertyOp3
 70
     0
102
RTVSPropertyOp4
 70
     0
102
RTVSPropertyOp5
 70
     0
102
RTVSPropertyOp6
 70
     0
102
RTVSPropertyOp7
 70
     0
102
RTVSPropertyOp8
 70
     0
102
RTVSPropertyOp9
 70
     0
102
RTVSPropertyOp10
 70
     0
102
RTVSPropertyOp11
 70
     0
102
RTVSPropertyOp12
 70
     0
102
RTVSPropertyOp13
 70
     0
102
RTVSPropertyOp14
 70
     2
102
RTVSPropertyOp15
 70
     0
102
RTVSPropertyOp16
 70
     0
102
RTVSPropertyOp17
 70
     0
102
RTVSPropertyOp18
 70
     0
102
RTVSPropertyOp19
 70
     0
102
RTVSPropertyOp20
 70
     0
102
RTVSPropertyOp21
 70
     0
102
RTVSPropertyOp22
 70
     0
102
RTVSPropertyOp23
 70
     0
102
RTVSPropertyOp24
 70
     0
102
RTVSPropertyOp25
 70
     0
102
RTVSPropertyOp26
 70
     0
102
RTVSPropertyOp27
 70
     0
102
RTVSPropertyOp28
 70
     1
102
RTVSPropertyOp29
 70
     1
102
RTVSPropertyOp30
 70
     1
102
RTVSPropertyOp31
 70
     1
102
RTVSPropertyOp32
 70
     1
  0
XRECORD
  5
E84
102
{ACAD_REACTORS
330
E83
102
}
330
E83
100
AcDbXrecord
280
     1
102
RTVSPropertyOp0
 70
     1
102
RTVSPropertyOp1
 70
     1
102
RTVSPropertyOp2
 70
     1
102
RTVSPropertyOp3
 70
     1
102
RTVSPropertyOp4
 70
     1
102
RTVSPropertyOp5
 70
     1
102
RTVSPropertyOp6
 70
     1
102
RTVSPropertyOp7
 70
     1
102
RTVSPropertyOp8
 70
     1
102
RTVSPropertyOp9
 70
     1
102
RTVSPropertyOp10
 70
     1
102
RTVSPropertyOp11
 70
     1
102
RTVSPropertyOp12
 70
     1
102
RTVSPropertyOp13
 70
     1
102
RTVSPropertyOp14
 70
     1
102
RTVSPropertyOp15
 70
     1
102
RTVSPropertyOp16
 70
     1
102
RTVSPropertyOp17
 70
     1
102
RTVSPropertyOp18
 70
     1
102
RTVSPropertyOp19
 70
     1
102
RTVSPropertyOp20
 70
     1
102
RTVSPropertyOp21
 70
     1
102
RTVSPropertyOp22
 70
     1
102
RTVSPropertyOp23
 70
     1
102
RTVSPropertyOp24
 70
     1
102
RTVSPropertyOp25
 70
     1
102
RTVSPropertyOp26
 70
     1
102
RTVSPropertyOp27
 70
     1
102
RTVSPropertyOp28
 70
     1
102
RTVSPropertyOp29
 70
     1
102
RTVSPropertyOp30
 70
     1
102
RTVSPropertyOp31
 70
     1
102
RTVSPropertyOp32
 70
     1
  0
XRECORD
  5
E96
102
{ACAD_REACTORS
330
E95
102
}
330
E95
100
AcDbXrecord
280
     1
102
RTVSPropertyOp0
 70
     0
102
RTVSPropertyOp1
 70
     0
102
RTVSPropertyOp2
 70
     0
102
RTVSPropertyOp3
 70
     0
102
RTVSPropertyOp4
 70
     0
102
RTVSPropertyOp5
 70
     0
102
RTVSPropertyOp6
 70
     0
102
RTVSPropertyOp7
 70
     0
102
RTVSPropertyOp8
 70
     0
102
RTVSPropertyOp9
 70
     0
102
RTVSPropertyOp10
 70
     0
102
RTVSPropertyOp11
 70
     0
102
RTVSPropertyOp12
 70
     0
102
RTVSPropertyOp13
 70
     0
102
RTVSPropertyOp14
 70
     2
102
RTVSPropertyOp15
 70
     0
102
RTVSPropertyOp16
 70
     0
102
RTVSPropertyOp17
 70
     0
102
RTVSPropertyOp18
 70
     0
102
RTVSPropertyOp19
 70
     0
102
RTVSPropertyOp20
 70
     0
102
RTVSPropertyOp21
 70
     0
102
RTVSPropertyOp22
 70
     0
102
RTVSPropertyOp23
 70
     0
102
RTVSPropertyOp24
 70
     0
102
RTVSPropertyOp25
 70
     0
102
RTVSPropertyOp26
 70
     0
102
RTVSPropertyOp27
 70
     0
102
RTVSPropertyOp28
 70
     1
102
RTVSPropertyOp29
 70
     1
102
RTVSPropertyOp30
 70
     1
102
RTVSPropertyOp31
 70
     1
102
RTVSPropertyOp32
 70
     1
  0
XRECORD
  5
E7C
102
{ACAD_REACTORS
330
E7B
102
}
330
E7B
100
AcDbXrecord
280
     1
102
RTVSPropertyOp0
 70
     1
102
RTVSPropertyOp1
 70
     1
102
RTVSPropertyOp2
 70
     1
102
RTVSPropertyOp3
 70
     1
102
RTVSPropertyOp4
 70
     1
102
RTVSPropertyOp5
 70
     1
102
RTVSPropertyOp6
 70
     1
102
RTVSPropertyOp7
 70
     1
102
RTVSPropertyOp8
 70
     1
102
RTVSPropertyOp9
 70
     1
102
RTVSPropertyOp10
 70
     1
102
RTVSPropertyOp11
 70
     1
102
RTVSPropertyOp12
 70
     1
102
RTVSPropertyOp13
 70
     1
102
RTVSPropertyOp14
 70
     1
102
RTVSPropertyOp15
 70
     1
102
RTVSPropertyOp16
 70
     1
102
RTVSPropertyOp17
 70
     1
102
RTVSPropertyOp18
 70
     1
102
RTVSPropertyOp19
 70
     1
102
RTVSPropertyOp20
 70
     1
102
RTVSPropertyOp21
 70
     1
102
RTVSPropertyOp22
 70
     1
102
RTVSPropertyOp23
 70
     1
102
RTVSPropertyOp24
 70
     1
102
RTVSPropertyOp25
 70
     1
102
RTVSPropertyOp26
 70
     1
102
RTVSPropertyOp27
 70
     1
102
RTVSPropertyOp28
 70
     1
102
RTVSPropertyOp29
 70
     1
102
RTVSPropertyOp30
 70
     1
102
RTVSPropertyOp31
 70
     1
102
RTVSPropertyOp32
 70
     1
  0
XRECORD
  5
E92
102
{ACAD_REACTORS
330
E91
102
}
330
E91
100
AcDbXrecord
280
     1
102
RTVSPropertyOp0
 70
     1
102
RTVSPropertyOp1
 70
     1
102
RTVSPropertyOp2
 70
     1
102
RTVSPropertyOp3
 70
     1
102
RTVSPropertyOp4
 70
     1
102
RTVSPropertyOp5
 70
     1
102
RTVSPropertyOp6
 70
     1
102
RTVSPropertyOp7
 70
     1
102
RTVSPropertyOp8
 70
     1
102
RTVSPropertyOp9
 70
     1
102
RTVSPropertyOp10
 70
     1
102
RTVSPropertyOp11
 70
     1
102
RTVSPropertyOp12
 70
     1
102
RTVSPropertyOp13
 70
     1
102
RTVSPropertyOp14
 70
     1
102
RTVSPropertyOp15
 70
     1
102
RTVSPropertyOp16
 70
     1
102
RTVSPropertyOp17
 70
     1
102
RTVSPropertyOp18
 70
     1
102
RTVSPropertyOp19
 70
     1
102
RTVSPropertyOp20
 70
     1
102
RTVSPropertyOp21
 70
     1
102
RTVSPropertyOp22
 70
     1
102
RTVSPropertyOp23
 70
     1
102
RTVSPropertyOp24
 70
     1
102
RTVSPropertyOp25
 70
     1
102
RTVSPropertyOp26
 70
     1
102
RTVSPropertyOp27
 70
     1
102
RTVSPropertyOp28
 70
     1
102
RTVSPropertyOp29
 70
     1
102
RTVSPropertyOp30
 70
     1
102
RTVSPropertyOp31
 70
     1
102
RTVSPropertyOp32
 70
     1
  0
XRECORD
  5
E90
102
{ACAD_REACTORS
330
E8F
102
}
330
E8F
100
AcDbXrecord
280
     1
102
RTVSPropertyOp0
 70
     1
102
RTVSPropertyOp1
 70
     1
102
RTVSPropertyOp2
 70
     1
102
RTVSPropertyOp3
 70
     1
102
RTVSPropertyOp4
 70
     1
102
RTVSPropertyOp5
 70
     1
102
RTVSPropertyOp6
 70
     1
102
RTVSPropertyOp7
 70
     1
102
RTVSPropertyOp8
 70
     1
102
RTVSPropertyOp9
 70
     1
102
RTVSPropertyOp10
 70
     1
102
RTVSPropertyOp11
 70
     1
102
RTVSPropertyOp12
 70
     1
102
RTVSPropertyOp13
 70
     1
102
RTVSPropertyOp14
 70
     1
102
RTVSPropertyOp15
 70
     1
102
RTVSPropertyOp16
 70
     1
102
RTVSPropertyOp17
 70
     1
102
RTVSPropertyOp18
 70
     1
102
RTVSPropertyOp19
 70
     1
102
RTVSPropertyOp20
 70
     1
102
RTVSPropertyOp21
 70
     1
102
RTVSPropertyOp22
 70
     1
102
RTVSPropertyOp23
 70
     1
102
RTVSPropertyOp24
 70
     1
102
RTVSPropertyOp25
 70
     1
102
RTVSPropertyOp26
 70
     1
102
RTVSPropertyOp27
 70
     1
102
RTVSPropertyOp28
 70
     1
102
RTVSPropertyOp29
 70
     1
102
RTVSPropertyOp30
 70
     1
102
RTVSPropertyOp31
 70
     1
102
RTVSPropertyOp32
 70
     1
  0
XRECORD
  5
E8A
102
{ACAD_REACTORS
330
E89
102
}
330
E89
100
AcDbXrecord
280
     1
102
RTVSPropertyOp0
 70
     1
102
RTVSPropertyOp1
 70
     1
102
RTVSPropertyOp2
 70
     1
102
RTVSPropertyOp3
 70
     1
102
RTVSPropertyOp4
 70
     1
102
RTVSPropertyOp5
 70
     1
102
RTVSPropertyOp6
 70
     1
102
RTVSPropertyOp7
 70
     1
102
RTVSPropertyOp8
 70
     1
102
RTVSPropertyOp9
 70
     1
102
RTVSPropertyOp10
 70
     1
102
RTVSPropertyOp11
 70
     1
102
RTVSPropertyOp12
 70
     1
102
RTVSPropertyOp13
 70
     1
102
RTVSPropertyOp14
 70
     1
102
RTVSPropertyOp15
 70
     1
102
RTVSPropertyOp16
 70
     1
102
RTVSPropertyOp17
 70
     1
102
RTVSPropertyOp18
 70
     1
102
RTVSPropertyOp19
 70
     1
102
RTVSPropertyOp20
 70
     1
102
RTVSPropertyOp21
 70
     1
102
RTVSPropertyOp22
 70
     1
102
RTVSPropertyOp23
 70
     1
102
RTVSPropertyOp24
 70
     1
102
RTVSPropertyOp25
 70
     1
102
RTVSPropertyOp26
 70
     1
102
RTVSPropertyOp27
 70
     1
102
RTVSPropertyOp28
 70
     1
102
RTVSPropertyOp29
 70
     1
102
RTVSPropertyOp30
 70
     1
102
RTVSPropertyOp31
 70
     1
102
RTVSPropertyOp32
 70
     1
  0
XRECORD
  5
E8C
102
{ACAD_REACTORS
330
E8B
102
}
330
E8B
100
AcDbXrecord
280
     1
102
RTVSPropertyOp0
 70
     1
102
RTVSPropertyOp1
 70
     1
102
RTVSPropertyOp2
 70
     1
102
RTVSPropertyOp3
 70
     1
102
RTVSPropertyOp4
 70
     1
102
RTVSPropertyOp5
 70
     1
102
RTVSPropertyOp6
 70
     1
102
RTVSPropertyOp7
 70
     1
102
RTVSPropertyOp8
 70
     1
102
RTVSPropertyOp9
 70
     1
102
RTVSPropertyOp10
 70
     1
102
RTVSPropertyOp11
 70
     1
102
RTVSPropertyOp12
 70
     1
102
RTVSPropertyOp13
 70
     1
102
RTVSPropertyOp14
 70
     1
102
RTVSPropertyOp15
 70
     1
102
RTVSPropertyOp16
 70
     1
102
RTVSPropertyOp17
 70
     1
102
RTVSPropertyOp18
 70
     1
102
RTVSPropertyOp19
 70
     1
102
RTVSPropertyOp20
 70
     1
102
RTVSPropertyOp21
 70
     1
102
RTVSPropertyOp22
 70
     1
102
RTVSPropertyOp23
 70
     1
102
RTVSPropertyOp24
 70
     1
102
RTVSPropertyOp25
 70
     1
102
RTVSPropertyOp26
 70
     1
102
RTVSPropertyOp27
 70
     1
102
RTVSPropertyOp28
 70
     1
102
RTVSPropertyOp29
 70
     1
102
RTVSPropertyOp30
 70
     1
102
RTVSPropertyOp31
 70
     1
102
RTVSPropertyOp32
 70
     1
  0
XRECORD
  5
E82
102
{ACAD_REACTORS
330
E81
102
}
330
E81
100
AcDbXrecord
280
     1
102
RTVSPropertyOp0
 70
     1
102
RTVSPropertyOp1
 70
     1
102
RTVSPropertyOp2
 70
     1
102
RTVSPropertyOp3
 70
     1
102
RTVSPropertyOp4
 70
     1
102
RTVSPropertyOp5
 70
     1
102
RTVSPropertyOp6
 70
     1
102
RTVSPropertyOp7
 70
     1
102
RTVSPropertyOp8
 70
     1
102
RTVSPropertyOp9
 70
     1
102
RTVSPropertyOp10
 70
     1
102
RTVSPropertyOp11
 70
     1
102
RTVSPropertyOp12
 70
     1
102
RTVSPropertyOp13
 70
     1
102
RTVSPropertyOp14
 70
     1
102
RTVSPropertyOp15
 70
     1
102
RTVSPropertyOp16
 70
     1
102
RTVSPropertyOp17
 70
     1
102
RTVSPropertyOp18
 70
     1
102
RTVSPropertyOp19
 70
     1
102
RTVSPropertyOp20
 70
     1
102
RTVSPropertyOp21
 70
     1
102
RTVSPropertyOp22
 70
     1
102
RTVSPropertyOp23
 70
     1
102
RTVSPropertyOp24
 70
     1
102
RTVSPropertyOp25
 70
     1
102
RTVSPropertyOp26
 70
     1
102
RTVSPropertyOp27
 70
     1
102
RTVSPropertyOp28
 70
     1
102
RTVSPropertyOp29
 70
     1
102
RTVSPropertyOp30
 70
     1
102
RTVSPropertyOp31
 70
     1
102
RTVSPropertyOp32
 70
     1
  0
XRECORD
  5
E76
102
{ACAD_REACTORS
330
E75
102
}
330
E75
100
AcDbXrecord
280
     1
102
RTVSPropertyOp0
 70
     1
102
RTVSPropertyOp1
 70
     1
102
RTVSPropertyOp2
 70
     1
102
RTVSPropertyOp3
 70
     1
102
RTVSPropertyOp4
 70
     1
102
RTVSPropertyOp5
 70
     1
102
RTVSPropertyOp6
 70
     1
102
RTVSPropertyOp7
 70
     1
102
RTVSPropertyOp8
 70
     1
102
RTVSPropertyOp9
 70
     1
102
RTVSPropertyOp10
 70
     1
102
RTVSPropertyOp11
 70
     1
102
RTVSPropertyOp12
 70
     1
102
RTVSPropertyOp13
 70
     1
102
RTVSPropertyOp14
 70
     1
102
RTVSPropertyOp15
 70
     1
102
RTVSPropertyOp16
 70
     1
102
RTVSPropertyOp17
 70
     1
102
RTVSPropertyOp18
 70
     1
102
RTVSPropertyOp19
 70
     1
102
RTVSPropertyOp20
 70
     1
102
RTVSPropertyOp21
 70
     1
102
RTVSPropertyOp22
 70
     1
102
RTVSPropertyOp23
 70
     1
102
RTVSPropertyOp24
 70
     1
102
RTVSPropertyOp25
 70
     1
102
RTVSPropertyOp26
 70
     1
102
RTVSPropertyOp27
 70
     1
102
RTVSPropertyOp28
 70
     1
102
RTVSPropertyOp29
 70
     1
102
RTVSPropertyOp30
 70
     1
102
RTVSPropertyOp31
 70
     1
102
RTVSPropertyOp32
 70
     1
  0
XRECORD
  5
E8E
102
{ACAD_REACTORS
330
E8D
102
}
330
E8D
100
AcDbXrecord
280
     1
102
RTVSPropertyOp0
 70
     1
102
RTVSPropertyOp1
 70
     1
102
RTVSPropertyOp2
 70
     1
102
RTVSPropertyOp3
 70
     1
102
RTVSPropertyOp4
 70
     1
102
RTVSPropertyOp5
 70
     1
102
RTVSPropertyOp6
 70
     1
102
RTVSPropertyOp7
 70
     1
102
RTVSPropertyOp8
 70
     1
102
RTVSPropertyOp9
 70
     1
102
RTVSPropertyOp10
 70
     1
102
RTVSPropertyOp11
 70
     1
102
RTVSPropertyOp12
 70
     1
102
RTVSPropertyOp13
 70
     1
102
RTVSPropertyOp14
 70
     1
102
RTVSPropertyOp15
 70
     1
102
RTVSPropertyOp16
 70
     1
102
RTVSPropertyOp17
 70
     1
102
RTVSPropertyOp18
 70
     1
102
RTVSPropertyOp19
 70
     1
102
RTVSPropertyOp20
 70
     1
102
RTVSPropertyOp21
 70
     1
102
RTVSPropertyOp22
 70
     1
102
RTVSPropertyOp23
 70
     1
102
RTVSPropertyOp24
 70
     1
102
RTVSPropertyOp25
 70
     1
102
RTVSPropertyOp26
 70
     1
102
RTVSPropertyOp27
 70
     1
102
RTVSPropertyOp28
 70
     1
102
RTVSPropertyOp29
 70
     1
102
RTVSPropertyOp30
 70
     1
102
RTVSPropertyOp31
 70
     1
102
RTVSPropertyOp32
 70
     1
  0
ENDSEC
  0
EOF
