  0
SECTION
  2
HEADER
  9
$ACADVER
  1
AC1018
  9
$ACADMAINTVER
 70
   104
  9
$DWGCODEPAGE
  3
ANSI_1252
  9
$AUTHOR
  1
PS
  9
$REVISIONNUMBER
  1
-
  9
$CUSTOMPROPERTYTAG
  1
Manager
  9
$CUSTOMPROPERTY
  1

  9
$CUSTOMPROPERTYTAG
  1
Company
  9
$CUSTOMPROPERTY
  1

  9
$CUSTOMPROPERTYTAG
  1
Category
  9
$CUSTOMPROPERTY
  1

  9
$CUSTOMPROPERTYTAG
  1
Part Number
  9
$CUSTOMPROPERTY
  1
N1P0810-S
  9
$CUSTOMPROPERTYTAG
  1
Description
  9
$CUSTOMPROPERTY
  1

  9
$CUSTOMPROPERTYTAG
  1
Project
  9
$CUSTOMPROPERTY
  1

  9
$CUSTOMPROPERTYTAG
  1
Designer
  9
$CUSTOMPROPERTY
  1
PS
  9
$CUSTOMPROPERTYTAG
  1
Engineer
  9
$CUSTOMPROPERTY
  1

  9
$CUSTOMPROPERTYTAG
  1
Authority
  9
$CUSTOMPROPERTY
  1

  9
$CUSTOMPROPERTYTAG
  1
Cost Center
  9
$CUSTOMPROPERTY
  1

  9
$CUSTOMPROPERTYTAG
  1
Vendor
  9
$CUSTOMPROPERTY
  1

  9
$CUSTOMPROPERTYTAG
  1
User Status
  9
$CUSTOMPROPERTY
  1

  9
$CUSTOMPROPERTYTAG
  1
Design Status
  9
$CUSTOMPROPERTY
  1
WorkInProgress
  9
$CUSTOMPROPERTYTAG
  1
Checked by
  9
$CUSTOMPROPERTY
  1
NJ
  9
$CUSTOMPROPERTYTAG
  1
Date Checked
  9
$CUSTOMPROPERTY
  1
06/12/2013
  9
$CUSTOMPROPERTYTAG
  1
Engr Approved by
  9
$CUSTOMPROPERTY
  1

  9
$CUSTOMPROPERTYTAG
  1
Date Eng Approved
  9
$CUSTOMPROPERTY
  1
06/12/2013
  9
$CUSTOMPROPERTYTAG
  1
Mfg Approved by
  9
$CUSTOMPROPERTY
  1

  9
$CUSTOMPROPERTYTAG
  1
DWG. NO
  9
$CUSTOMPROPERTY
  1

  9
$CUSTOMPROPERTYTAG
  1
NUMBER OF SHEETS
  9
$CUSTOMPROPERTY
  1
1
  9
$CUSTOMPROPERTYTAG
  1
DRAWING #
  9
$CUSTOMPROPERTY
  1
1
  9
$INSBASE
 10
0.0
 20
0.0
 30
0.0
  9
$EXTMIN
 10
0.0
 20
0.0
 30
0.0
  9
$EXTMAX
 10
26.15384615384615
 20
16.92307692307692
 30
0.0
  9
$LIMMIN
 10
0.0
 20
0.0
  9
$LIMMAX
 10
26.15384615384615
 20
16.92307692307692
  9
$ORTHOMODE
 70
     0
  9
$REGENMODE
 70
     1
  9
$FILLMODE
 70
     1
  9
$QTEXTMODE
 70
     0
  9
$MIRRTEXT
 70
     0
  9
$LTSCALE
 40
1.538461538461538
  9
$ATTMODE
 70
     1
  9
$TEXTSIZE
 40
0.2
  9
$TRACEWID
 40
0.05
  9
$TEXTSTYLE
  7
Standard
  9
$CLAYER
  8
0
  9
$CELTYPE
  6
ByLayer
  9
$CECOLOR
 62
   256
  9
$CELTSCALE
 40
1.0
  9
$DISPSILH
 70
     0
  9
$DIMSCALE
 40
1.0
  9
$DIMASZ
 40
0.0708661417322835
  9
$DIMEXO
 40
0.0625
  9
$DIMDLI
 40
0.38
  9
$DIMRND
 40
0.0
  9
$DIMDLE
 40
0.0
  9
$DIMEXE
 40
0.18
  9
$DIMTP
 40
0.0
  9
$DIMTM
 40
0.0
  9
$DIMTXT
 40
0.0708661417322835
  9
$DIMCEN
 40
0.09
  9
$DIMTSZ
 40
0.0
  9
$DIMTOL
 70
     0
  9
$DIMLIM
 70
     0
  9
$DIMTIH
 70
     1
  9
$DIMTOH
 70
     1
  9
$DIMSE1
 70
     0
  9
$DIMSE2
 70
     0
  9
$DIMTAD
 70
     0
  9
$DIMZIN
 70
     0
  9
$DIMBLK
  1

  9
$DIMASO
 70
     1
  9
$DIMSHO
 70
     1
  9
$DIMPOST
  1

  9
$DIMAPOST
  1

  9
$DIMALT
 70
     0
  9
$DIMALTD
 70
     2
  9
$DIMALTF
 40
25.4
  9
$DIMLFAC
 40
1.0
  9
$DIMTOFL
 70
     0
  9
$DIMTVP
 40
0.0
  9
$DIMTIX
 70
     0
  9
$DIMSOXD
 70
     0
  9
$DIMSAH
 70
     0
  9
$DIMBLK1
  1

  9
$DIMBLK2
  1

  9
$DIMSTYLE
  2
STANDARD
  9
$DIMCLRD
 70
     0
  9
$DIMCLRE
 70
     0
  9
$DIMCLRT
 70
     0
  9
$DIMTFAC
 40
1.0
  9
$DIMGAP
 40
0.09
  9
$DIMJUST
 70
     0
  9
$DIMSD1
 70
     0
  9
$DIMSD2
 70
     0
  9
$DIMTOLJ
 70
     1
  9
$DIMTZIN
 70
     0
  9
$DIMALTZ
 70
     0
  9
$DIMALTTZ
 70
     0
  9
$DIMUPT
 70
     0
  9
$DIMDEC
 70
     4
  9
$DIMTDEC
 70
     4
  9
$DIMALTU
 70
     2
  9
$DIMALTTD
 70
     2
  9
$DIMTXSTY
  7
Standard
  9
$DIMAUNIT
 70
     0
  9
$DIMADEC
 70
     0
  9
$DIMALTRND
 40
0.0
  9
$DIMAZIN
 70
     0
  9
$DIMDSEP
 70
    46
  9
$DIMATFIT
 70
     3
  9
$DIMFRAC
 70
     0
  9
$DIMLDRBLK
  1

  9
$DIMLUNIT
 70
     2
  9
$DIMLWD
 70
    -2
  9
$DIMLWE
 70
    -2
  9
$DIMTMOVE
 70
     0
  9
$LUNITS
 70
     2
  9
$LUPREC
 70
     4
  9
$SKETCHINC
 40
0.1
  9
$FILLETRAD
 40
0.0
  9
$AUNITS
 70
     0
  9
$AUPREC
 70
     0
  9
$MENU
  1
.
  9
$ELEVATION
 40
0.0
  9
$PELEVATION
 40
0.0
  9
$THICKNESS
 40
0.0
  9
$LIMCHECK
 70
     0
  9
$CHAMFERA
 40
0.0
  9
$CHAMFERB
 40
0.0
  9
$CHAMFERC
 40
0.0
  9
$CHAMFERD
 40
0.0
  9
$SKPOLY
 70
     0
  9
$TDCREATE
 40
2456482.844997350
  9
$TDUCREATE
 40
2456482.615830683
  9
$TDUPDATE
 40
2456482.844997362
  9
$TDUUPDATE
 40
2456482.615830695
  9
$TDINDWG
 40
0.0000400926
  9
$TDUSRTIMER
 40
0.0000400926
  9
$USRTIMER
 70
     1
  9
$ANGBASE
 50
0.0
  9
$ANGDIR
 70
     0
  9
$PDMODE
 70
     0
  9
$PDSIZE
 40
0.0
  9
$PLINEWID
 40
0.0
  9
$SPLFRAME
 70
     0
  9
$SPLINETYPE
 70
     6
  9
$SPLINESEGS
 70
     8
  9
$HANDSEED
  5
850
  9
$SURFTAB1
 70
     6
  9
$SURFTAB2
 70
     6
  9
$SURFTYPE
 70
     6
  9
$SURFU
 70
     6
  9
$SURFV
 70
     6
  9
$UCSBASE
  2

  9
$UCSNAME
  2

  9
$UCSORG
 10
0.0
 20
0.0
 30
0.0
  9
$UCSXDIR
 10
1.0
 20
0.0
 30
0.0
  9
$UCSYDIR
 10
0.0
 20
1.0
 30
0.0
  9
$UCSORTHOREF
  2

  9
$UCSORTHOVIEW
 70
     0
  9
$UCSORGTOP
 10
0.0
 20
0.0
 30
0.0
  9
$UCSORGBOTTOM
 10
0.0
 20
0.0
 30
0.0
  9
$UCSORGLEFT
 10
0.0
 20
0.0
 30
0.0
  9
$UCSORGRIGHT
 10
0.0
 20
0.0
 30
0.0
  9
$UCSORGFRONT
 10
0.0
 20
0.0
 30
0.0
  9
$UCSORGBACK
 10
0.0
 20
0.0
 30
0.0
  9
$PUCSBASE
  2

  9
$PUCSNAME
  2

  9
$PUCSORG
 10
0.0
 20
0.0
 30
0.0
  9
$PUCSXDIR
 10
1.0
 20
0.0
 30
0.0
  9
$PUCSYDIR
 10
0.0
 20
1.0
 30
0.0
  9
$PUCSORTHOREF
  2

  9
$PUCSORTHOVIEW
 70
     0
  9
$PUCSORGTOP
 10
0.0
 20
0.0
 30
0.0
  9
$PUCSORGBOTTOM
 10
0.0
 20
0.0
 30
0.0
  9
$PUCSORGLEFT
 10
0.0
 20
0.0
 30
0.0
  9
$PUCSORGRIGHT
 10
0.0
 20
0.0
 30
0.0
  9
$PUCSORGFRONT
 10
0.0
 20
0.0
 30
0.0
  9
$PUCSORGBACK
 10
0.0
 20
0.0
 30
0.0
  9
$USERI1
 70
     0
  9
$USERI2
 70
     0
  9
$USERI3
 70
     0
  9
$USERI4
 70
     0
  9
$USERI5
 70
     0
  9
$USERR1
 40
0.0
  9
$USERR2
 40
0.0
  9
$USERR3
 40
0.0
  9
$USERR4
 40
0.0
  9
$USERR5
 40
0.0
  9
$WORLDVIEW
 70
     1
  9
$SHADEDGE
 70
     3
  9
$SHADEDIF
 70
    70
  9
$TILEMODE
 70
     1
  9
$MAXACTVP
 70
    64
  9
$PINSBASE
 10
0.0
 20
0.0
 30
0.0
  9
$PLIMCHECK
 70
     0
  9
$PEXTMIN
 10
0.0
 20
0.0
 30
0.0
  9
$PEXTMAX
 10
26.15384615384615
 20
16.92307692307692
 30
0.0
  9
$PLIMMIN
 10
0.0
 20
0.0
  9
$PLIMMAX
 10
26.15384615384615
 20
16.92307692307692
  9
$UNITMODE
 70
     0
  9
$VISRETAIN
 70
     1
  9
$PLINEGEN
 70
     0
  9
$PSLTSCALE
 70
     1
  9
$TREEDEPTH
 70
  3020
  9
$CMLSTYLE
  2
Standard
  9
$CMLJUST
 70
     0
  9
$CMLSCALE
 40
1.0
  9
$PROXYGRAPHICS
 70
     1
  9
$MEASUREMENT
 70
     0
  9
$CELWEIGHT
370
    -1
  9
$ENDCAPS
280
     0
  9
$JOINSTYLE
280
     0
  9
$LWDISPLAY
290
     0
  9
$INSUNITS
 70
     1
  9
$HYPERLINKBASE
  1

  9
$STYLESHEET
  1

  9
$XEDIT
290
     1
  9
$CEPSNTYPE
380
     0
  9
$PSTYLEMODE
290
     1
  9
$FINGERPRINTGUID
  2
{3DD0B175-F9F9-4FA6-87B1-C944D9590EDC}
  9
$VERSIONGUID
  2
{40CF7A11-ACC9-459E-9C40-CDD1C514936F}
  9
$EXTNAMES
290
     1
  9
$PSVPSCALE
 40
0.0
  9
$OLESTARTUP
290
     0
  9
$SORTENTS
280
   127
  9
$INDEXCTL
280
     0
  9
$HIDETEXT
280
     1
  9
$XCLIPFRAME
290
     0
  9
$HALOGAP
280
     0
  9
$OBSCOLOR
 70
   257
  9
$OBSLTYPE
280
     0
  9
$INTERSECTIONDISPLAY
280
     0
  9
$INTERSECTIONCOLOR
 70
   257
  9
$DIMASSOC
280
     1
  9
$PROJECTNAME
  1

  0
ENDSEC
  0
SECTION
  2
CLASSES
  0
CLASS
  1
ACDBDICTIONARYWDFLT
  2
AcDbDictionaryWithDefault
  3
ObjectDBX Classes
 90
        0
 91
        1
280
     0
281
     0
  0
CLASS
  1
MATERIAL
  2
AcDbMaterial
  3
ObjectDBX Classes
 90
     1153
 91
        3
280
     0
281
     0
  0
CLASS
  1
VISUALSTYLE
  2
AcDbVisualStyle
  3
ObjectDBX Classes
 90
     4095
 91
       24
280
     0
281
     0
  0
CLASS
  1
SCALE
  2
AcDbScale
  3
ObjectDBX Classes
 90
     1153
 91
       17
280
     0
281
     0
  0
CLASS
  1
TABLESTYLE
  2
AcDbTableStyle
  3
ObjectDBX Classes
 90
     4095
 91
        1
280
     0
281
     0
  0
CLASS
  1
MLEADERSTYLE
  2
AcDbMLeaderStyle
  3
ACDB_MLEADERSTYLE_CLASS
 90
     4095
 91
        1
280
     0
281
     0
  0
CLASS
  1
DICTIONARYVAR
  2
AcDbDictionaryVar
  3
ObjectDBX Classes
 90
        0
 91
        8
280
     0
281
     0
  0
CLASS
  1
CELLSTYLEMAP
  2
AcDbCellStyleMap
  3
ObjectDBX Classes
 90
     1152
 91
        1
280
     0
281
     0
  0
ENDSEC
  0
SECTION
  2
TABLES
  0
TABLE
  2
VPORT
  5
8
330
0
100
AcDbSymbolTable
 70
     1
  0
VPORT
  5
57
330
8
100
AcDbSymbolTableRecord
100
AcDbViewportTableRecord
  2
*Active
 70
     0
 10
0.0
 20
0.0
 11
1.0
 21
1.0
 12
13.07692307692307
 22
8.461538461538459
 13
0.0
 23
0.0
 14
1.0
 24
1.0
 15
0.0
 25
0.0
 16
0.0
 26
0.0
 36
1.0
 17
0.0
 27
0.0
 37
0.0
 40
16.92307692307692
 41
1.545454545454545
 42
50.0
 43
0.0
 44
0.0
 50
0.0
 51
0.0
 71
     0
 72
   100
 73
     1
 74
     1
 75
     0
 76
     0
 77
     0
 78
     0
281
     0
 65
     1
110
0.0
120
0.0
130
0.0
111
1.0
121
0.0
131
0.0
112
0.0
122
1.0
132
0.0
 79
     0
146
0.0
  0
ENDTAB
  0
TABLE
  2
LTYPE
  5
5
330
0
100
AcDbSymbolTable
 70
    59
  0
LTYPE
  5
5B
330
5
100
AcDbSymbolTableRecord
100
AcDbLinetypeTableRecord
  2
ByBlock
 70
     0
  3

 72
    65
 73
     0
 40
0.0
  0
LTYPE
  5
5C
330
5
100
AcDbSymbolTableRecord
100
AcDbLinetypeTableRecord
  2
ByLayer
 70
     0
  3

 72
    65
 73
     0
 40
0.0
  0
LTYPE
  5
5D
330
5
100
AcDbSymbolTableRecord
100
AcDbLinetypeTableRecord
  2
Continuous
 70
     0
  3
Solid line
 72
    65
 73
     0
 40
0.0
  0
LTYPE
  5
7C
330
5
100
AcDbSymbolTableRecord
100
AcDbLinetypeTableRecord
  2
BY_STANDARD
 70
     0
  3
By Standard ____________    ____    ____   _
 72
    65
 73
     6
 40
1.240299999999999
 49
0.6614
 74
     0
 49
-0.0827
 74
     0
 49
0.1654
 74
     0
 49
-0.0827
 74
     0
 49
0.1654
 74
     0
 49
-0.0827
 74
     0
  0
LTYPE
  5
7D
330
5
100
AcDbSymbolTableRecord
100
AcDbLinetypeTableRecord
  2
CHAIN
 70
     0
  3
Chain ____ _ ____ _ ____ _ ____ _ ____ _ ____
 72
    65
 73
     4
 40
0.7087
 49
0.4724000000000001
 74
     0
 49
-0.0591
 74
     0
 49
0.1181
 74
     0
 49
-0.0591
 74
     0
  0
LTYPE
  5
7E
330
5
100
AcDbSymbolTableRecord
100
AcDbLinetypeTableRecord
  2
DASH_DOT
 70
     0
  3
Dash dot __ . __ . __ . __ . __ . __ . __ . __
 72
    65
 73
     4
 40
0.37
 49
0.24
 74
     0
 49
-0.06
 74
     0
 49
0.01
 74
     0
 49
-0.06
 74
     0
  0
LTYPE
  5
7F
330
5
100
AcDbSymbolTableRecord
100
AcDbLinetypeTableRecord
  2
DOUBLE_DASH_DOT
 70
     0
  3
Double-Dash Dot __ __ . __ __ . __ __ . __ _
 72
    65
 73
     6
 40
0.4398
 49
0.24
 74
     0
 49
-0.06
 74
     0
 49
0.0098
 74
     0
 49
-0.06
 74
     0
 49
0.01
 74
     0
 49
-0.06
 74
     0
  0
LTYPE
  5
80
330
5
100
AcDbSymbolTableRecord
100
AcDbLinetypeTableRecord
  2
DASH_TRIPLE_DOT
 70
     0
  3
Dash Triple-Dot _ . . . _ . . . _ . . . _
 72
    65
 73
     8
 40
0.51
 49
0.24
 74
     0
 49
-0.06
 74
     0
 49
0.01
 74
     0
 49
-0.06
 74
     0
 49
0.01
 74
     0
 49
-0.06
 74
     0
 49
0.01
 74
     0
 49
-0.06
 74
     0
  0
LTYPE
  5
81
330
5
100
AcDbSymbolTableRecord
100
AcDbLinetypeTableRecord
  2
DASHED
 70
     0
  3
Dashed __ __ __ __ __ __ __ __ __ __ __ __ __ _
 72
    65
 73
     2
 40
0.2067
 49
0.1654
 74
     0
 49
-0.0413
 74
     0
  0
LTYPE
  5
82
330
5
100
AcDbSymbolTableRecord
100
AcDbLinetypeTableRecord
  2
DASH_DOUBLE_DOT
 70
     0
  3
Dash Double-Dot __ . . __ . . __ . . __ . .
 72
    65
 73
     6
 40
0.4398
 49
0.24
 74
     0
 49
-0.06
 74
     0
 49
0.0098
 74
     0
 49
-0.06
 74
     0
 49
0.01
 74
     0
 49
-0.06
 74
     0
  0
LTYPE
  5
83
330
5
100
AcDbSymbolTableRecord
100
AcDbLinetypeTableRecord
  2
DASHED_SPACE
 70
     0
  3
Dashed Space __ __ __ __ __ __ __ __ __ __ __ _
 72
    65
 73
     2
 40
0.2067
 49
0.1654
 74
     0
 49
-0.0413
 74
     0
  0
LTYPE
  5
84
330
5
100
AcDbSymbolTableRecord
100
AcDbLinetypeTableRecord
  2
DOTTED
 70
     0
  3
Dotted . . . . . . . . . . . . . . . . . . . . 
 72
    65
 73
     2
 40
0.0482
 49
0.0069
 74
     0
 49
-0.0413
 74
     0
  0
LTYPE
  5
85
330
5
100
AcDbSymbolTableRecord
100
AcDbLinetypeTableRecord
  2
DOUBLE_DASH_CHAIN
 70
     0
  3
Double-Dash Chain ______  __  __  ______  __  _
 72
    65
 73
     6
 40
1.240299999999999
 49
0.6614
 74
     0
 49
-0.0827
 74
     0
 49
0.1654
 74
     0
 49
-0.0827
 74
     0
 49
0.1654
 74
     0
 49
-0.0827
 74
     0
  0
LTYPE
  5
87
330
5
100
AcDbSymbolTableRecord
100
AcDbLinetypeTableRecord
  2
DOUBLE_DASH_DOUBLE_DOT
 70
     0
  3
Double-Dash Double-dot _ _ . . _ _ . . _
 72
    65
 73
     8
 40
0.7400000000000001
 49
0.24
 74
     0
 49
-0.06
 74
     0
 49
0.24
 74
     0
 49
-0.06
 74
     0
 49
0.01
 74
     0
 49
-0.06
 74
     0
 49
0.01
 74
     0
 49
-0.06
 74
     0
  0
LTYPE
  5
88
330
5
100
AcDbSymbolTableRecord
100
AcDbLinetypeTableRecord
  2
DOUBLE_DASH_TRIPLE_DOT
 70
     0
  3
Double Dash Triple Dot __ __ . . . __ __ . .
 72
    65
 73
    10
 40
0.8100000000000001
 49
0.24
 74
     0
 49
-0.06
 74
     0
 49
0.24
 74
     0
 49
-0.06
 74
     0
 49
0.01
 74
     0
 49
-0.06
 74
     0
 49
0.01
 74
     0
 49
-0.06
 74
     0
 49
0.01
 74
     0
 49
-0.06
 74
     0
  0
LTYPE
  5
89
330
5
100
AcDbSymbolTableRecord
100
AcDbLinetypeTableRecord
  2
LONG_DASH_DOTTED
 70
     0
  3
Long Dash Dotted ____ . ____ . ____ . ____ . _
 72
    65
 73
     4
 40
0.3543
 49
0.2362
 74
     0
 49
-0.0295
 74
     0
 49
0.0591
 74
     0
 49
-0.0295
 74
     0
  0
LTYPE
  5
8A
330
5
100
AcDbSymbolTableRecord
100
AcDbLinetypeTableRecord
  2
LONG_DASH_DOUBLE_DOT
 70
     0
  3
Long Dash Double Dot ________  .  .  ________  
 72
    65
 73
     6
 40
0.6799999999999999
 49
0.48
 74
     0
 49
-0.06
 74
     0
 49
0.01
 74
     0
 49
-0.06
 74
     0
 49
0.01
 74
     0
 49
-0.06
 74
     0
  0
LTYPE
  5
8B
330
5
100
AcDbSymbolTableRecord
100
AcDbLinetypeTableRecord
  2
LONG_DASH_TRIPLE_DOT
 70
     0
  3
Long Dash Triple Dot ____ ... ____ ... ____
 72
    65
 73
     8
 40
0.3689
 49
0.2362
 74
     0
 49
-0.0295
 74
     0
 49
0.0049
 74
     0
 49
-0.0295
 74
     0
 49
0.0049
 74
     0
 49
-0.0295
 74
     0
 49
0.0049
 74
     0
 49
-0.0295
 74
     0
  0
LTYPE
  5
8C
330
5
100
AcDbSymbolTableRecord
100
AcDbLinetypeTableRecord
  2
BORDER
 70
     0
  3
Border __ __ . __ __ . __ __ . __ __ . __ __ .
 72
    65
 73
     6
 40
1.75
 49
0.5
 74
     0
 49
-0.25
 74
     0
 49
0.5
 74
     0
 49
-0.25
 74
     0
 49
0.0
 74
     0
 49
-0.25
 74
     0
  0
LTYPE
  5
8D
330
5
100
AcDbSymbolTableRecord
100
AcDbLinetypeTableRecord
  2
BORDER2
 70
     0
  3
Border (.5x) __.__.__.__.__.__.__.__.__.__.__.
 72
    65
 73
     6
 40
0.875
 49
0.25
 74
     0
 49
-0.125
 74
     0
 49
0.25
 74
     0
 49
-0.125
 74
     0
 49
0.0
 74
     0
 49
-0.125
 74
     0
  0
LTYPE
  5
8E
330
5
100
AcDbSymbolTableRecord
100
AcDbLinetypeTableRecord
  2
BORDERX2
 70
     0
  3
Border (2x) ____  ____  .  ____  ____  .  ___
 72
    65
 73
     6
 40
3.5
 49
1.0
 74
     0
 49
-0.5
 74
     0
 49
1.0
 74
     0
 49
-0.5
 74
     0
 49
0.0
 74
     0
 49
-0.5
 74
     0
  0
LTYPE
  5
8F
330
5
100
AcDbSymbolTableRecord
100
AcDbLinetypeTableRecord
  2
CENTER
 70
     0
  3
Center ____ _ ____ _ ____ _ ____ _ ____ _ ____
 72
    65
 73
     4
 40
2.0
 49
1.25
 74
     0
 49
-0.25
 74
     0
 49
0.25
 74
     0
 49
-0.25
 74
     0
  0
LTYPE
  5
90
330
5
100
AcDbSymbolTableRecord
100
AcDbLinetypeTableRecord
  2
CENTER2
 70
     0
  3
Center (.5x) ___ _ ___ _ ___ _ ___ _ ___ _ ___
 72
    65
 73
     4
 40
1.125
 49
0.75
 74
     0
 49
-0.125
 74
     0
 49
0.125
 74
     0
 49
-0.125
 74
     0
  0
LTYPE
  5
91
330
5
100
AcDbSymbolTableRecord
100
AcDbLinetypeTableRecord
  2
CENTERX2
 70
     0
  3
Center (2x) ________  __  ________  __  _____
 72
    65
 73
     4
 40
4.0
 49
2.5
 74
     0
 49
-0.5
 74
     0
 49
0.5
 74
     0
 49
-0.5
 74
     0
  0
LTYPE
  5
92
330
5
100
AcDbSymbolTableRecord
100
AcDbLinetypeTableRecord
  2
DASHDOT2
 70
     0
  3
Dash dot (.5x) _._._._._._._._._._._._._._._.
 72
    65
 73
     4
 40
0.5
 49
0.25
 74
     0
 49
-0.125
 74
     0
 49
0.0
 74
     0
 49
-0.125
 74
     0
  0
LTYPE
  5
93
330
5
100
AcDbSymbolTableRecord
100
AcDbLinetypeTableRecord
  2
DASHDOTX2
 70
     0
  3
Dash dot (2x) ____  .  ____  .  ____  .  ___
 72
    65
 73
     4
 40
2.0
 49
1.0
 74
     0
 49
-0.5
 74
     0
 49
0.0
 74
     0
 49
-0.5
 74
     0
  0
LTYPE
  5
95
330
5
100
AcDbSymbolTableRecord
100
AcDbLinetypeTableRecord
  2
DASHED2
 70
     0
  3
Dashed (.5x) _ _ _ _ _ _ _ _ _ _ _ _ _ _ _ _ _
 72
    65
 73
     2
 40
0.375
 49
0.25
 74
     0
 49
-0.125
 74
     0
  0
LTYPE
  5
96
330
5
100
AcDbSymbolTableRecord
100
AcDbLinetypeTableRecord
  2
DASHEDX2
 70
     0
  3
Dashed (2x) ____  ____  ____  ____  ____  ___
 72
    65
 73
     2
 40
1.5
 49
1.0
 74
     0
 49
-0.5
 74
     0
  0
LTYPE
  5
97
330
5
100
AcDbSymbolTableRecord
100
AcDbLinetypeTableRecord
  2
DIVIDE
 70
     0
  3
Divide ____ . . ____ . . ____ . . ____ . . ____
 72
    65
 73
     6
 40
1.25
 49
0.5
 74
     0
 49
-0.25
 74
     0
 49
0.0
 74
     0
 49
-0.25
 74
     0
 49
0.0
 74
     0
 49
-0.25
 74
     0
  0
LTYPE
  5
98
330
5
100
AcDbSymbolTableRecord
100
AcDbLinetypeTableRecord
  2
DIVIDE2
 70
     0
  3
Divide (.5x) __..__..__..__..__..__..__..__.._
 72
    65
 73
     6
 40
0.625
 49
0.25
 74
     0
 49
-0.125
 74
     0
 49
0.0
 74
     0
 49
-0.125
 74
     0
 49
0.0
 74
     0
 49
-0.125
 74
     0
  0
LTYPE
  5
99
330
5
100
AcDbSymbolTableRecord
100
AcDbLinetypeTableRecord
  2
DIVIDEX2
 70
     0
  3
Divide (2x) ________  .  .  ________  .  .  _
 72
    65
 73
     6
 40
2.5
 49
1.0
 74
     0
 49
-0.5
 74
     0
 49
0.0
 74
     0
 49
-0.5
 74
     0
 49
0.0
 74
     0
 49
-0.5
 74
     0
  0
LTYPE
  5
9A
330
5
100
AcDbSymbolTableRecord
100
AcDbLinetypeTableRecord
  2
DOT
 70
     0
  3
Dot . . . . . . . . . . . . . . . . . . . . . .
 72
    65
 73
     2
 40
0.25
 49
0.0
 74
     0
 49
-0.25
 74
     0
  0
LTYPE
  5
9B
330
5
100
AcDbSymbolTableRecord
100
AcDbLinetypeTableRecord
  2
DOT2
 70
     0
  3
Dot (.5x) .....................................
 72
    65
 73
     2
 40
0.125
 49
0.0
 74
     0
 49
-0.125
 74
     0
  0
LTYPE
  5
9C
330
5
100
AcDbSymbolTableRecord
100
AcDbLinetypeTableRecord
  2
DOTX2
 70
     0
  3
Dot (2x) .  .  .  .  .  .  .  .  .  .  .  .  . 
 72
    65
 73
     2
 40
0.5
 49
0.0
 74
     0
 49
-0.5
 74
     0
  0
LTYPE
  5
9D
330
5
100
AcDbSymbolTableRecord
100
AcDbLinetypeTableRecord
  2
HIDDEN
 70
     0
  3
Hidden __ __ __ __ __ __ __ __ __ __ __ __ __ _
 72
    65
 73
     2
 40
0.375
 49
0.25
 74
     0
 49
-0.125
 74
     0
  0
LTYPE
  5
9E
330
5
100
AcDbSymbolTableRecord
100
AcDbLinetypeTableRecord
  2
HIDDEN2
 70
     0
  3
Hidden (.5x) _ _ _ _ _ _ _ _ _ _ _ _ _ _ _ _ _
 72
    65
 73
     2
 40
0.1875
 49
0.125
 74
     0
 49
-0.0625
 74
     0
  0
LTYPE
  5
9F
330
5
100
AcDbSymbolTableRecord
100
AcDbLinetypeTableRecord
  2
HIDDENX2
 70
     0
  3
Hidden (2x) ____ ____ ____ ____ ____ ____ ____
 72
    65
 73
     2
 40
0.75
 49
0.5
 74
     0
 49
-0.25
 74
     0
  0
LTYPE
  5
A0
330
5
100
AcDbSymbolTableRecord
100
AcDbLinetypeTableRecord
  2
PHANTOM
 70
     0
  3
Phantom ______  __  __  ______  __  __  ______
 72
    65
 73
     6
 40
2.5
 49
1.25
 74
     0
 49
-0.25
 74
     0
 49
0.25
 74
     0
 49
-0.25
 74
     0
 49
0.25
 74
     0
 49
-0.25
 74
     0
  0
LTYPE
  5
A1
330
5
100
AcDbSymbolTableRecord
100
AcDbLinetypeTableRecord
  2
PHANTOM2
 70
     0
  3
Phantom (.5x) ___ _ _ ___ _ _ ___ _ _ ___ _ _
 72
    65
 73
     6
 40
1.25
 49
0.625
 74
     0
 49
-0.125
 74
     0
 49
0.125
 74
     0
 49
-0.125
 74
     0
 49
0.125
 74
     0
 49
-0.125
 74
     0
  0
LTYPE
  5
A2
330
5
100
AcDbSymbolTableRecord
100
AcDbLinetypeTableRecord
  2
PHANTOMX2
 70
     0
  3
Phantom (2x) ____________    ____    ____   _
 72
    65
 73
     6
 40
5.0
 49
2.5
 74
     0
 49
-0.5
 74
     0
 49
0.5
 74
     0
 49
-0.5
 74
     0
 49
0.5
 74
     0
 49
-0.5
 74
     0
  0
LTYPE
  5
A3
330
5
100
AcDbSymbolTableRecord
100
AcDbLinetypeTableRecord
  2
ACAD_ISO02W100
 70
     0
  3
ISO dash __ __ __ __ __ __ __ __ __ __ __ __ __
 72
    65
 73
     2
 40
0.59
 49
0.47
 74
     0
 49
-0.12
 74
     0
  0
LTYPE
  5
A4
330
5
100
AcDbSymbolTableRecord
100
AcDbLinetypeTableRecord
  2
ACAD_ISO03W100
 70
     0
  3
ISO dash space __    __    __    __    __    __
 72
    65
 73
     2
 40
1.179999999999999
 49
0.47
 74
     0
 49
-0.71
 74
     0
  0
LTYPE
  5
A5
330
5
100
AcDbSymbolTableRecord
100
AcDbLinetypeTableRecord
  2
ACAD_ISO04W100
 70
     0
  3
ISO long-dash dot ____ . ____ . ____ . ____ . _
 72
    65
 73
     4
 40
1.179999999999999
 49
0.9399999999999998
 74
     0
 49
-0.12
 74
     0
 49
0.0
 74
     0
 49
-0.12
 74
     0
  0
LTYPE
  5
A6
330
5
100
AcDbSymbolTableRecord
100
AcDbLinetypeTableRecord
  2
ACAD_ISO05W100
 70
     0
  3
ISO long-dash double-dot ____ .. ____ .. ____ .
 72
    65
 73
     6
 40
1.299999999999999
 49
0.9399999999999998
 74
     0
 49
-0.12
 74
     0
 49
0.0
 74
     0
 49
-0.12
 74
     0
 49
0.0
 74
     0
 49
-0.12
 74
     0
  0
LTYPE
  5
A7
330
5
100
AcDbSymbolTableRecord
100
AcDbLinetypeTableRecord
  2
ACAD_ISO06W100
 70
     0
  3
ISO long-dash triple-dot ____ ... ____ ... ____
 72
    65
 73
     8
 40
1.419999999999999
 49
0.9399999999999998
 74
     0
 49
-0.12
 74
     0
 49
0.0
 74
     0
 49
-0.12
 74
     0
 49
0.0
 74
     0
 49
-0.12
 74
     0
 49
0.0
 74
     0
 49
-0.12
 74
     0
  0
LTYPE
  5
A8
330
5
100
AcDbSymbolTableRecord
100
AcDbLinetypeTableRecord
  2
ACAD_ISO07W100
 70
     0
  3
ISO dot . . . . . . . . . . . . . . . . . . . .
 72
    65
 73
     2
 40
0.12
 49
0.0
 74
     0
 49
-0.12
 74
     0
  0
LTYPE
  5
A9
330
5
100
AcDbSymbolTableRecord
100
AcDbLinetypeTableRecord
  2
ACAD_ISO08W100
 70
     0
  3
ISO long-dash short-dash ____ __ ____ __ ____ _
 72
    65
 73
     4
 40
0.95
 49
0.47
 74
     0
 49
-0.12
 74
     0
 49
0.24
 74
     0
 49
-0.12
 74
     0
  0
LTYPE
  5
AA
330
5
100
AcDbSymbolTableRecord
100
AcDbLinetypeTableRecord
  2
ACAD_ISO09W100
 70
     0
  3
ISO long-dash double-short-dash ____ __ __ ____
 72
    65
 73
     6
 40
1.31
 49
0.47
 74
     0
 49
-0.12
 74
     0
 49
0.24
 74
     0
 49
-0.12
 74
     0
 49
0.24
 74
     0
 49
-0.12
 74
     0
  0
LTYPE
  5
AB
330
5
100
AcDbSymbolTableRecord
100
AcDbLinetypeTableRecord
  2
ACAD_ISO10W100
 70
     0
  3
ISO dash dot __ . __ . __ . __ . __ . __ . __ .
 72
    65
 73
     4
 40
0.71
 49
0.47
 74
     0
 49
-0.12
 74
     0
 49
0.0
 74
     0
 49
-0.12
 74
     0
  0
LTYPE
  5
AC
330
5
100
AcDbSymbolTableRecord
100
AcDbLinetypeTableRecord
  2
ACAD_ISO11W100
 70
     0
  3
ISO double-dash dot __ __ . __ __ . __ __ . __ 
 72
    65
 73
     6
 40
1.299999999999999
 49
0.47
 74
     0
 49
-0.12
 74
     0
 49
0.47
 74
     0
 49
-0.12
 74
     0
 49
0.0
 74
     0
 49
-0.12
 74
     0
  0
LTYPE
  5
AD
330
5
100
AcDbSymbolTableRecord
100
AcDbLinetypeTableRecord
  2
ACAD_ISO12W100
 70
     0
  3
ISO dash double-dot __ . . __ . . __ . . __ . .
 72
    65
 73
     6
 40
0.8299999999999998
 49
0.47
 74
     0
 49
-0.12
 74
     0
 49
0.0
 74
     0
 49
-0.12
 74
     0
 49
0.0
 74
     0
 49
-0.12
 74
     0
  0
LTYPE
  5
AE
330
5
100
AcDbSymbolTableRecord
100
AcDbLinetypeTableRecord
  2
ACAD_ISO13W100
 70
     0
  3
ISO double-dash double-dot __ __ . . __ __ . . 
 72
    65
 73
     8
 40
1.419999999999999
 49
0.47
 74
     0
 49
-0.12
 74
     0
 49
0.47
 74
     0
 49
-0.12
 74
     0
 49
0.0
 74
     0
 49
-0.12
 74
     0
 49
0.0
 74
     0
 49
-0.12
 74
     0
  0
LTYPE
  5
AF
330
5
100
AcDbSymbolTableRecord
100
AcDbLinetypeTableRecord
  2
ACAD_ISO14W100
 70
     0
  3
ISO dash triple-dot __ . . . __ . . . __ . . . 
 72
    65
 73
     8
 40
0.95
 49
0.47
 74
     0
 49
-0.12
 74
     0
 49
0.0
 74
     0
 49
-0.12
 74
     0
 49
0.0
 74
     0
 49
-0.12
 74
     0
 49
0.0
 74
     0
 49
-0.12
 74
     0
  0
LTYPE
  5
B0
330
5
100
AcDbSymbolTableRecord
100
AcDbLinetypeTableRecord
  2
ACAD_ISO15W100
 70
     0
  3
ISO double-dash triple-dot __ __ . . . __ __ . 
 72
    65
 73
    10
 40
1.539999999999999
 49
0.47
 74
     0
 49
-0.12
 74
     0
 49
0.47
 74
     0
 49
-0.12
 74
     0
 49
0.0
 74
     0
 49
-0.12
 74
     0
 49
0.0
 74
     0
 49
-0.12
 74
     0
 49
0.0
 74
     0
 49
-0.12
 74
     0
  0
LTYPE
  5
B3
330
5
100
AcDbSymbolTableRecord
100
AcDbLinetypeTableRecord
  2
FENCELINE1
 70
     0
  3
Fenceline circle ----0-----0----0-----0----0---
 72
    65
 73
     4
 40
1.45
 49
0.25
 74
     0
 49
-0.1
 74
     4
 75
   133
340
B2
 46
0.1
 50
0.0
 44
-0.1
 45
0.0
 49
-0.1
 74
     0
 49
1.0
 74
     0
  0
LTYPE
  5
B4
330
5
100
AcDbSymbolTableRecord
100
AcDbLinetypeTableRecord
  2
FENCELINE2
 70
     0
  3
Fenceline square ----[]-----[]----[]-----[]----
 72
    65
 73
     4
 40
1.45
 49
0.25
 74
     0
 49
-0.1
 74
     4
 75
   132
340
B2
 46
0.1
 50
0.0
 44
-0.1
 45
0.0
 49
-0.1
 74
     0
 49
1.0
 74
     0
  0
LTYPE
  5
B5
330
5
100
AcDbSymbolTableRecord
100
AcDbLinetypeTableRecord
  2
TRACKS
 70
     0
  3
Tracks -|-|-|-|-|-|-|-|-|-|-|-|-|-|-|-|-|-|-|-|
 72
    65
 73
     2
 40
0.3
 49
0.15
 74
     4
 75
   130
340
B2
 46
0.25
 50
0.0
 44
0.0
 45
0.0
 49
0.15
 74
     0
  0
LTYPE
  5
B6
330
5
100
AcDbSymbolTableRecord
100
AcDbLinetypeTableRecord
  2
BATTING
 70
     0
  3
Batting SSSSSSSSSSSSSSSSSSSSSSSSSSSSSSSSSSSSSSS
 72
    65
 73
     4
 40
0.4001000000000001
 49
0.0001
 74
     0
 49
-0.1
 74
     4
 75
   134
340
B2
 46
0.1
 50
0.0
 44
-0.1
 45
0.0
 49
-0.2
 74
     4
 75
   134
340
B2
 46
0.1
 50
180.0
 44
0.1
 45
0.0
 49
-0.1
 74
     0
  0
LTYPE
  5
B7
330
5
100
AcDbSymbolTableRecord
100
AcDbLinetypeTableRecord
  2
HOT_WATER_SUPPLY
 70
     0
  3
Hot water supply ---- HW ---- HW ---- HW ----
 72
    65
 73
     3
 40
0.9
 49
0.5
 74
     0
 49
-0.2
 74
     2
 75
     0
340
55
 46
0.1
 50
0.0
 44
-0.1
 45
-0.05
  9
HW
 49
-0.2
 74
     0
  0
LTYPE
  5
B8
330
5
100
AcDbSymbolTableRecord
100
AcDbLinetypeTableRecord
  2
GAS_LINE
 70
     0
  3
Gas line ----GAS----GAS----GAS----GAS----GAS---
 72
    65
 73
     3
 40
0.95
 49
0.5
 74
     0
 49
-0.2
 74
     2
 75
     0
340
55
 46
0.1
 50
0.0
 44
-0.1
 45
-0.05
  9
GAS
 49
-0.25
 74
     0
  0
LTYPE
  5
B9
330
5
100
AcDbSymbolTableRecord
100
AcDbLinetypeTableRecord
  2
ZIGZAG
 70
     0
  3
Zig zag /\/\/\/\/\/\/\/\/\/\/\/\/\/\/\/\/\/\/\/
 72
    65
 73
     4
 40
0.8001000000000001
 49
0.0001
 74
     0
 49
-0.2
 74
     4
 75
   131
340
B2
 46
0.2
 50
0.0
 44
-0.2
 45
0.0
 49
-0.4
 74
     4
 75
   131
340
B2
 46
0.2
 50
180.0
 44
0.2
 45
0.0
 49
-0.2
 74
     0
  0
ENDTAB
  0
TABLE
  2
LAYER
  5
2
330
0
100
AcDbSymbolTable
 70
    27
  0
LAYER
  5
54
330
2
100
AcDbSymbolTableRecord
100
AcDbLayerTableRecord
  2
0
 70
     0
 62
     7
  6
Continuous
370
    18
390
F
  0
LAYER
  5
C0
330
2
100
AcDbSymbolTableRecord
100
AcDbLayerTableRecord
  2
Center Mark (ANSI)
 70
     0
 62
     7
  6
Continuous
370
    15
390
F
  0
LAYER
  5
C1
330
2
100
AcDbSymbolTableRecord
100
AcDbLayerTableRecord
  2
Centerline (ANSI)
 70
     0
 62
     7
  6
Continuous
370
    15
390
F
  0
LAYER
  5
C3
330
2
100
AcDbSymbolTableRecord
100
AcDbLayerTableRecord
  2
Dimension (ANSI)
 70
     0
 62
     7
  6
Continuous
370
    13
390
F
  0
LAYER
  5
C5
330
2
100
AcDbSymbolTableRecord
100
AcDbLayerTableRecord
  2
Hidden (ANSI)
 70
     0
 62
     7
  6
DASHED
370
    15
390
F
  0
LAYER
  5
CC
330
2
100
AcDbSymbolTableRecord
100
AcDbLayerTableRecord
  2
Symbol (ANSI)
 70
     0
 62
     7
  6
Continuous
370
    18
390
F
  0
LAYER
  5
CF
330
2
100
AcDbSymbolTableRecord
100
AcDbLayerTableRecord
  2
Visible (ANSI)
 70
     0
 62
     7
  6
Continuous
370
    13
390
F
  0
LAYER
  5
D0
330
2
100
AcDbSymbolTableRecord
100
AcDbLayerTableRecord
  2
Visible Narrow (ANSI)
 70
     0
 62
     7
  6
Continuous
370
    18
390
F
  0
LAYER
  5
16F
330
2
100
AcDbSymbolTableRecord
100
AcDbLayerTableRecord
  2
Defpoints
 70
     0
 62
     7
  6
Continuous
290
     0
370
    -3
390
F
  0
ENDTAB
  0
TABLE
  2
STYLE
  5
3
330
0
100
AcDbSymbolTable
 70
    18
  0
STYLE
  5
55
330
3
100
AcDbSymbolTableRecord
100
AcDbTextStyleTableRecord
  2
Standard
 70
     0
 40
0.0
 41
1.0
 50
0.0
 71
     0
 42
0.2
  3
txt
  4

  0
STYLE
  5
5A
330
3
100
AcDbSymbolTableRecord
100
AcDbTextStyleTableRecord
  2
Annotative
 70
     0
 40
0.0
 41
1.0
 50
0.0
 71
     0
 42
0.2
  3
txt
  4

1001
AcadAnnotative
1000
AnnotativeData
1002
{
1070
     1
1070
     1
1002
}
  0
STYLE
  5
B2
330
3
100
AcDbSymbolTableRecord
100
AcDbTextStyleTableRecord
  2

 70
     1
 40
0.0
 41
1.0
 50
0.0
 71
     0
 42
0.2
  3
ltypeshp.shx
  4

  0
STYLE
  5
D4
330
3
100
AcDbSymbolTableRecord
100
AcDbTextStyleTableRecord
  2
ITALICC_120
 70
     0
 40
0.0
 41
1.0
 50
0.0
 71
     0
 42
0.2
  3
italicc.shx
  4

  0
STYLE
  5
D5
330
3
100
AcDbSymbolTableRecord
100
AcDbTextStyleTableRecord
  2
Label Text (ANSI)
 70
     0
 40
0.0
 41
1.0
 50
0.0
 71
     0
 42
0.2
  3
tahoma.ttf
  4

1001
ACAD
1000
Tahoma
1071
      256
  0
STYLE
  5
D6
330
3
100
AcDbSymbolTableRecord
100
AcDbTextStyleTableRecord
  2
Note Text (ANSI)
 70
     0
 40
0.0
 41
1.0
 50
0.0
 71
     0
 42
0.2
  3
tahoma.ttf
  4

1001
ACAD
1000
Tahoma
1071
      256
  0
STYLE
  5
D7
330
3
100
AcDbSymbolTableRecord
100
AcDbTextStyleTableRecord
  2
ROMANS
 70
     0
 40
0.0
 41
1.0
 50
0.0
 71
     0
 42
0.2
  3
romans.shx
  4

  0
STYLE
  5
D8
330
3
100
AcDbSymbolTableRecord
100
AcDbTextStyleTableRecord
  2
SANSSERIF_114
 70
     0
 40
0.0
 41
1.0
 50
0.0
 71
     0
 42
0.2
  3
tahoma.ttf
  4

1001
ACAD
1000
Tahoma
1071
      256
  0
STYLE
  5
D9
330
3
100
AcDbSymbolTableRecord
100
AcDbTextStyleTableRecord
  2
SANSSERIF_117
 70
     0
 40
0.0
 41
1.0
 50
0.0
 71
     0
 42
0.2
  3
tahoma.ttf
  4

1001
ACAD
1000
Tahoma
1071
      256
  0
STYLE
  5
DA
330
3
100
AcDbSymbolTableRecord
100
AcDbTextStyleTableRecord
  2
STANDARDAM_ANSI
 70
     0
 40
0.0
 41
1.0
 50
0.0
 71
     0
 42
0.2
  3
txt.shx
  4

  0
STYLE
  5
DB
330
3
100
AcDbSymbolTableRecord
100
AcDbTextStyleTableRecord
  2
StandardAM_ANSI$0
 70
     0
 40
0.0
 41
1.0
 50
0.0
 71
     0
 42
0.2
  3
txt.shx
  4

  0
STYLE
  5
DC
330
3
100
AcDbSymbolTableRecord
100
AcDbTextStyleTableRecord
  2
STANDARDAM_ANSI$3
 70
     0
 40
0.0
 41
1.0
 50
0.0
 71
     0
 42
0.2
  3
txt.shx
  4

  0
STYLE
  5
DD
330
3
100
AcDbSymbolTableRecord
100
AcDbTextStyleTableRecord
  2
STANDARDAM_ANSI$4
 70
     0
 40
0.0
 41
1.0
 50
0.0
 71
     0
 42
0.2
  3
txt.shx
  4

  0
STYLE
  5
DE
330
3
100
AcDbSymbolTableRecord
100
AcDbTextStyleTableRecord
  2
STANDARDAM_ANSI$7
 70
     0
 40
0.0
 41
1.0
 50
0.0
 71
     0
 42
0.2
  3
txt.shx
  4

  0
STYLE
  5
DF
330
3
100
AcDbSymbolTableRecord
100
AcDbTextStyleTableRecord
  2
STANDARDAM_ANSI$SF
 70
     0
 40
0.0
 41
1.0
 50
0.0
 71
     0
 42
0.2
  3
txt.shx
  4

  0
STYLE
  5
E0
330
3
100
AcDbSymbolTableRecord
100
AcDbTextStyleTableRecord
  2
STANDARDAM_ANSI$SH
 70
     0
 40
0.0
 41
1.0
 50
0.0
 71
     0
 42
0.2
  3
txt.shx
  4

  0
STYLE
  5
E1
330
3
100
AcDbSymbolTableRecord
100
AcDbTextStyleTableRecord
  2
STANDARDSTANDARD
 70
     0
 40
0.0
 41
1.0
 50
0.0
 71
     0
 42
0.2
  3
txt.shx
  4

  0
STYLE
  5
130
330
3
100
AcDbSymbolTableRecord
100
AcDbTextStyleTableRecord
  2
Text Style166
 70
     0
 40
0.0
 41
1.0
 50
0.0
 71
     0
 42
0.2
  3
tahoma.ttf
  4

1001
ACAD
1000
Tahoma
1071
      256
  0
ENDTAB
  0
TABLE
  2
VIEW
  5
6
330
0
100
AcDbSymbolTable
 70
     0
  0
ENDTAB
  0
TABLE
  2
UCS
  5
7
330
0
100
AcDbSymbolTable
 70
     0
  0
ENDTAB
  0
TABLE
  2
APPID
  5
9
330
0
100
AcDbSymbolTable
 70
     4
  0
APPID
  5
56
330
9
100
AcDbSymbolTableRecord
100
AcDbRegAppTableRecord
  2
ACAD
 70
     0
  0
APPID
  5
5E
330
9
100
AcDbSymbolTableRecord
100
AcDbRegAppTableRecord
  2
AcadAnnotative
 70
     0
  0
APPID
  5
4EB
330
9
100
AcDbSymbolTableRecord
100
AcDbRegAppTableRecord
  2
ACAD_DSTYLE_DIMRADIAL_EXTENSION
 70
     0
  0
APPID
  5
84D
330
9
100
AcDbSymbolTableRecord
100
AcDbRegAppTableRecord
  2
ACAD_MLEADERVER
 70
     0
  0
ENDTAB
  0
TABLE
  2
DIMSTYLE
  5
A
330
0
100
AcDbSymbolTable
 70
    27
100
AcDbDimStyleTable
 71
     2
340
F6
340
58
  0
DIMSTYLE
105
58
330
A
100
AcDbSymbolTableRecord
100
AcDbDimStyleTableRecord
  2
STANDARD
 70
     0
 41
0.1800000071525573
 42
0.0625
140
0.1800000071525574
144
1.0
147
0.0900000035762787
176
   256
177
   256
178
   256
274
     3
340
55
371
    -1
372
    -1
  0
DIMSTYLE
105
59
330
A
100
AcDbSymbolTableRecord
100
AcDbDimStyleTableRecord
  2
Annotative
 70
     0
340
55
1001
AcadAnnotative
1000
AnnotativeData
1002
{
1070
     1
1070
     1
1002
}
  0
DIMSTYLE
105
E2
330
A
100
AcDbSymbolTableRecord
100
AcDbDimStyleTableRecord
  2
AM_ANSI
 70
     0
  4
 mm
 40
1.538461538461538
 41
0.119999997317791
 42
0.05
 43
0.5
 44
0.1
 45
0.00000001
 78
     4
 79
     2
140
0.1200000047683716
146
0.7099999189376831
147
0.0599999986588955
176
   256
177
   256
178
     2
284
     4
340
DA
371
    -1
372
    -1
  0
DIMSTYLE
105
E3
330
A
100
AcDbSymbolTableRecord
100
AcDbDimStyleTableRecord
  2
AM_ANSI$7
 70
     0
  4
 mm
 40
1.538461538461538
 41
0.119999997317791
 42
0.05
 43
0.5
 44
0.1
 45
0.00000001
 78
     4
 79
     2
140
0.1200000047683716
146
0.7099999189376831
147
0.0599999986588955
176
   256
177
   256
178
     2
284
     4
340
DA
371
    -1
372
    -1
  0
DIMSTYLE
105
E4
330
A
100
AcDbSymbolTableRecord
100
AcDbDimStyleTableRecord
  2
AM_ANSI$0
 70
     0
  4
 mm
 40
1.538461538461538
 41
0.119999997317791
 42
0.05
 43
0.5
 44
0.1
 45
0.00000001
 78
     4
 79
     2
140
0.1200000047683716
146
0.7099999189376831
147
0.0599999986588955
176
   256
177
   256
178
     2
284
     4
340
DB
371
    -1
372
    -1
  0
DIMSTYLE
105
E5
330
A
100
AcDbSymbolTableRecord
100
AcDbDimStyleTableRecord
  2
AM_ANSI$0$7
 70
     0
  4
 mm
 40
1.538461538461538
 41
0.119999997317791
 42
0.05
 43
0.5
 44
0.1
 45
0.00000001
 78
     4
 79
     2
140
0.1200000047683716
146
0.7099999189376831
147
0.0599999986588955
176
   256
177
   256
178
     2
284
     4
340
DB
371
    -1
372
    -1
  0
DIMSTYLE
105
E6
330
A
100
AcDbSymbolTableRecord
100
AcDbDimStyleTableRecord
  2
AM_ANSI$3
 70
     0
  4
 mm
 40
1.538461538461538
 41
0.119999997317791
 42
0.05
 43
0.5
 44
0.1
 45
0.00000001
 78
     4
 79
     2
140
0.1200000047683716
146
0.7099999189376831
147
0.0599999986588955
176
   256
177
   256
178
     2
284
     4
340
DC
371
    -1
372
    -1
  0
DIMSTYLE
105
E7
330
A
100
AcDbSymbolTableRecord
100
AcDbDimStyleTableRecord
  2
AM_ANSI$3$7
 70
     0
  4
 mm
 40
1.538461538461538
 41
0.119999997317791
 42
0.05
 43
0.5
 44
0.1
 45
0.00000001
 78
     4
 79
     2
140
0.1200000047683716
146
0.7099999189376831
147
0.0599999986588955
176
   256
177
   256
178
     2
284
     4
340
DC
371
    -1
372
    -1
  0
DIMSTYLE
105
E8
330
A
100
AcDbSymbolTableRecord
100
AcDbDimStyleTableRecord
  2
AM_ANSI$4
 70
     0
  4
 mm
 40
1.538461538461538
 41
0.119999997317791
 42
0.05
 43
0.5
 44
0.1
 45
0.00000001
 78
     4
 79
     2
140
0.1200000047683716
146
0.7099999189376831
147
0.0599999986588955
176
   256
177
   256
178
     2
284
     4
340
DD
371
    -1
372
    -1
  0
DIMSTYLE
105
E9
330
A
100
AcDbSymbolTableRecord
100
AcDbDimStyleTableRecord
  2
AM_ANSI$4$7
 70
     0
  4
 mm
 40
1.538461538461538
 41
0.119999997317791
 42
0.05
 43
0.5
 44
0.1
 45
0.00000001
 78
     4
 79
     2
140
0.1200000047683716
146
0.7099999189376831
147
0.0599999986588955
176
   256
177
   256
178
     2
284
     4
340
DD
371
    -1
372
    -1
  0
DIMSTYLE
105
EA
330
A
100
AcDbSymbolTableRecord
100
AcDbDimStyleTableRecord
  2
AM_ANSI$SF
 70
     0
  4
 mm
 40
1.538461538461538
 41
0.119999997317791
 42
0.05
 43
0.5
 44
0.1
 45
0.00000001
 75
     1
 76
     1
 78
     4
 79
     2
140
0.1200000047683716
146
0.7099999189376831
147
0.0599999986588955
176
   256
177
   256
178
     2
284
     4
340
DF
371
    -1
372
    -1
  0
DIMSTYLE
105
EB
330
A
100
AcDbSymbolTableRecord
100
AcDbDimStyleTableRecord
  2
AM_ANSI$SF$7
 70
     0
  4
 mm
 40
1.538461538461538
 41
0.119999997317791
 42
0.05
 43
0.5
 44
0.1
 45
0.00000001
 75
     1
 76
     1
 78
     4
 79
     2
140
0.1200000047683716
146
0.7099999189376831
147
0.0599999986588955
176
   256
177
   256
178
     2
284
     4
340
DF
371
    -1
372
    -1
  0
DIMSTYLE
105
EC
330
A
100
AcDbSymbolTableRecord
100
AcDbDimStyleTableRecord
  2
AM_ANSI$SH
 70
     0
  4
 mm
 40
1.538461538461538
 41
0.119999997317791
 42
0.05
 43
0.5
 44
0.1
 45
0.00000001
 75
     1
 76
     1
 78
     4
 79
     2
140
0.1200000047683716
146
0.7099999189376831
147
0.0599999986588955
176
   256
177
   256
178
     2
284
     4
340
E0
371
    -1
372
    -1
  0
DIMSTYLE
105
ED
330
A
100
AcDbSymbolTableRecord
100
AcDbDimStyleTableRecord
  2
AM_ANSI$SH$7
 70
     0
  4
 mm
 40
1.538461538461538
 41
0.119999997317791
 42
0.05
 43
0.5
 44
0.1
 45
0.00000001
 75
     1
 76
     1
 78
     4
 79
     2
140
0.1200000047683716
146
0.7099999189376831
147
0.0599999986588955
176
   256
177
   256
178
     2
284
     4
340
E0
371
    -1
372
    -1
  0
DIMSTYLE
105
EE
330
A
100
AcDbSymbolTableRecord
100
AcDbDimStyleTableRecord
  2
Architectural (ANSI)
 70
     0
 40
1.538461538461538
 41
0.0984251946210861
 43
0.2362204724409449
 44
0.125
 45
0.00000001
 46
0.3937007874015748
 78
     3
 79
     3
140
0.1200000047683716
147
0.031496062992126
171
     1
176
   256
177
   256
178
   256
272
     2
274
     1
276
     2
277
     4
284
    12
285
     4
286
    12
340
D6
371
    -1
372
    -1
  0
DIMSTYLE
105
EF
330
A
100
AcDbSymbolTableRecord
100
AcDbDimStyleTableRecord
  2
Architectural (ANSI)$7
 70
     0
 40
1.538461538461538
 41
0.0984251946210861
 43
0.2362204724409449
 44
0.125
 45
0.00000001
 46
0.3937007874015748
 78
     3
 79
     3
140
0.1200000047683716
147
0.031496062992126
171
     1
176
   256
177
   256
178
   256
272
     2
274
     1
276
     2
277
     4
284
    12
285
     4
286
    12
340
D6
371
    -1
372
    -1
  0
DIMSTYLE
105
F0
330
A
100
AcDbSymbolTableRecord
100
AcDbDimStyleTableRecord
  2
Default - Fraction (ANSI)
 70
     0
 40
1.538461538461538
 41
0.0984251946210861
 43
0.2362204724409449
 44
0.125
 45
0.00000001
 46
0.3937007874015748
 79
     3
140
0.1200000047683716
147
0.031496062992126
171
     1
176
   256
177
   256
178
   256
272
     2
274
     1
276
     2
277
     5
284
    12
285
     4
286
    12
340
D6
371
    -1
372
    -1
  0
DIMSTYLE
105
F1
330
A
100
AcDbSymbolTableRecord
100
AcDbDimStyleTableRecord
  2
Default - Fraction (ANSI)$7
 70
     0
 40
1.538461538461538
 41
0.0984251946210861
 43
0.2362204724409449
 44
0.125
 45
0.00000001
 46
0.3937007874015748
 79
     3
140
0.1200000047683716
147
0.031496062992126
171
     1
176
   256
177
   256
178
   256
272
     2
274
     1
276
     2
277
     5
284
    12
285
     4
286
    12
340
D6
371
    -1
372
    -1
  0
DIMSTYLE
105
F2
330
A
100
AcDbSymbolTableRecord
100
AcDbDimStyleTableRecord
  2
Default - mm (ANSI)
 70
     0
 40
1.538461538461538
 41
0.0984251946210861
 42
0.063
 43
0.2362204724409449
 44
0.125
 45
0.00000001
 46
0.3937007874015748
 73
     0
 78
     4
 79
     1
140
0.1200000047683716
143
1.0
144
25.4
147
0.031496062992126
171
     1
176
   256
177
   256
178
   256
179
     1
271
     2
272
     2
274
     1
284
     4
285
     4
340
D6
371
    -1
372
    -1
  0
DIMSTYLE
105
F3
330
A
100
AcDbSymbolTableRecord
100
AcDbDimStyleTableRecord
  2
Default - mm (ANSI)$7
 70
     0
 40
1.538461538461538
 41
0.0984251946210861
 42
0.063
 43
0.2362204724409449
 44
0.125
 45
0.00000001
 46
0.3937007874015748
 73
     0
 78
     4
 79
     1
140
0.1200000047683716
143
1.0
144
25.4
147
0.031496062992126
171
     1
176
   256
177
   256
178
   256
179
     1
271
     2
272
     2
274
     1
284
     4
285
     4
340
D6
371
    -1
372
    -1
  0
DIMSTYLE
105
F4
330
A
100
AcDbSymbolTableRecord
100
AcDbDimStyleTableRecord
  2
Default - mm [in] (ANSI)
 70
     0
  4
 in
 40
1.538461538461538
 41
0.0984251946210861
 42
0.063
 43
0.25
 44
0.125
 45
0.00000001
 46
0.3937007874015748
 73
     0
 78
     4
 79
     1
140
0.1200000047683716
143
0.03937
144
25.4
147
0.031496062992126
170
     1
171
     3
176
   256
177
   256
178
   256
179
     1
271
     2
272
     2
274
     3
284
     4
285
     4
286
     4
340
D6
371
    -1
372
    -1
  0
DIMSTYLE
105
F5
330
A
100
AcDbSymbolTableRecord
100
AcDbDimStyleTableRecord
  2
Default - mm [in] (ANSI)$7
 70
     0
  4
 in
 40
1.538461538461538
 41
0.0984251946210861
 42
0.063
 43
0.25
 44
0.125
 45
0.00000001
 46
0.3937007874015748
 73
     0
 78
     4
 79
     1
140
0.1200000047683716
143
0.03937
144
25.4
147
0.031496062992126
170
     1
171
     3
176
   256
177
   256
178
   256
179
     1
271
     2
272
     2
274
     3
284
     4
285
     4
286
     4
340
D6
371
    -1
372
    -1
  0
DIMSTYLE
105
F6
102
{ACAD_REACTORS
330
16D
330
277
330
361
330
451
330
50C
330
5F6
330
6F4
102
}
330
A
100
AcDbSymbolTableRecord
100
AcDbDimStyleTableRecord
  2
Default (ANSI)
 70
     0
 40
1.538461538461538
 41
0.0984251946210861
 43
0.2362204724409449
 44
0.125
 45
0.00000001
 46
0.3937007874015748
 79
     1
140
0.1200000047683716
147
0.031496062992126
171
     1
176
   256
177
   256
178
   256
271
     2
272
     2
274
     1
284
     4
285
     4
340
D6
371
    -1
372
    -1
  0
DIMSTYLE
105
F7
330
A
100
AcDbSymbolTableRecord
100
AcDbDimStyleTableRecord
  2
Default (ANSI)$7
 70
     0
 40
1.538461538461538
 41
0.0984251946210861
 43
0.2362204724409449
 44
0.125
 45
0.00000001
 46
0.3937007874015748
 79
     1
140
0.1200000047683716
147
0.031496062992126
171
     1
176
   256
177
   256
178
   256
271
     2
272
     2
274
     1
284
     4
285
     4
340
D6
371
    -1
372
    -1
  0
DIMSTYLE
105
F8
330
A
100
AcDbSymbolTableRecord
100
AcDbDimStyleTableRecord
  2
Alternate (ANSI)
 70
     0
 40
1.538461538461538
 41
0.0979999974370003
340
55
342
F9
  0
DIMSTYLE
105
10B
330
A
100
AcDbSymbolTableRecord
100
AcDbDimStyleTableRecord
  2
Datum (ANSI)
 70
     0
 40
1.538461538461538
 41
0.0979999974370003
340
55
342
F9
  0
DIMSTYLE
105
11A
330
A
100
AcDbSymbolTableRecord
100
AcDbDimStyleTableRecord
  2
Large (ANSI)
 70
     0
 40
1.538461538461538
 41
0.1959999948740005
340
55
342
F9
  0
ENDTAB
  0
TABLE
  2
BLOCK_RECORD
  5
1
330
0
100
AcDbSymbolTable
 70
    11
  0
BLOCK_RECORD
  5
6C
330
1
100
AcDbSymbolTableRecord
100
AcDbBlockTableRecord
  2
*Model_Space
340
6F
  0
BLOCK_RECORD
  5
68
330
1
100
AcDbSymbolTableRecord
100
AcDbBlockTableRecord
  2
*Paper_Space
340
6B
  0
BLOCK_RECORD
  5
70
330
1
100
AcDbSymbolTableRecord
100
AcDbBlockTableRecord
  2
*Paper_Space0
340
73
  0
BLOCK_RECORD
  5
F9
330
1
100
AcDbSymbolTableRecord
100
AcDbBlockTableRecord
  2
_Closed
340
0
  0
BLOCK_RECORD
  5
100
330
1
100
AcDbSymbolTableRecord
100
AcDbBlockTableRecord
  2
DatumFilled45
340
0
  0
BLOCK_RECORD
  5
10C
330
1
100
AcDbSymbolTableRecord
100
AcDbBlockTableRecord
  2
Filled-1
340
0
  0
BLOCK_RECORD
  5
170
330
1
100
AcDbSymbolTableRecord
100
AcDbBlockTableRecord
  2
*D4
340
0
  0
BLOCK_RECORD
  5
278
330
1
100
AcDbSymbolTableRecord
100
AcDbBlockTableRecord
  2
*D5
340
0
  0
BLOCK_RECORD
  5
362
330
1
100
AcDbSymbolTableRecord
100
AcDbBlockTableRecord
  2
*D6
340
0
  0
BLOCK_RECORD
  5
452
330
1
100
AcDbSymbolTableRecord
100
AcDbBlockTableRecord
  2
*D7
340
0
  0
BLOCK_RECORD
  5
50D
330
1
100
AcDbSymbolTableRecord
100
AcDbBlockTableRecord
  2
*D8
340
0
  0
BLOCK_RECORD
  5
5F7
330
1
100
AcDbSymbolTableRecord
100
AcDbBlockTableRecord
  2
*D9
340
0
  0
BLOCK_RECORD
  5
6F5
330
1
100
AcDbSymbolTableRecord
100
AcDbBlockTableRecord
  2
*D10
340
0
  0
ENDTAB
  0
ENDSEC
  0
SECTION
  2
BLOCKS
  0
BLOCK
  5
6D
330
6C
100
AcDbEntity
  8
0
100
AcDbBlockBegin
  2
*Model_Space
 70
     0
 10
0.0
 20
0.0
 30
0.0
  3
*Model_Space
  1

  0
ENDBLK
  5
6E
330
6C
100
AcDbEntity
  8
0
100
AcDbBlockEnd
  0
BLOCK
  5
69
330
68
100
AcDbEntity
 67
     1
  8
0
100
AcDbBlockBegin
  2
*Paper_Space
 70
     0
 10
0.0
 20
0.0
 30
0.0
  3
*Paper_Space
  1

  0
ENDBLK
  5
6A
330
68
100
AcDbEntity
 67
     1
  8
0
100
AcDbBlockEnd
  0
BLOCK
  5
71
330
70
100
AcDbEntity
 67
     1
  8
0
100
AcDbBlockBegin
  2
*Paper_Space0
 70
     0
 10
0.0
 20
0.0
 30
0.0
  3
*Paper_Space0
  1

  0
ENDBLK
  5
72
330
70
100
AcDbEntity
 67
     1
  8
0
100
AcDbBlockEnd
  0
BLOCK
  5
FE
330
F9
100
AcDbEntity
  8
0
100
AcDbBlockBegin
  2
_Closed
 70
     0
 10
0.0
 20
0.0
 30
0.0
  3
_Closed
  1

  0
LINE
  5
FA
330
F9
100
AcDbEntity
  8
0
  6
ByBlock
 62
     0
370
    -2
100
AcDbLine
 10
-1.0
 20
0.1666666666666666
 30
0.0
 11
0.0
 21
0.0
 31
0.0
  0
LINE
  5
FB
330
F9
100
AcDbEntity
  8
0
  6
ByBlock
 62
     0
370
    -2
100
AcDbLine
 10
0.0
 20
0.0
 30
0.0
 11
-1.0
 21
-0.1666666666666666
 31
0.0
  0
LINE
  5
FC
330
F9
100
AcDbEntity
  8
0
  6
ByBlock
 62
     0
370
    -2
100
AcDbLine
 10
-1.0
 20
0.1666666666666666
 30
0.0
 11
-1.0
 21
-0.1666666666666666
 31
0.0
  0
LINE
  5
FD
330
F9
100
AcDbEntity
  8
0
  6
ByBlock
 62
     0
370
    -2
100
AcDbLine
 10
0.0
 20
0.0
 30
0.0
 11
-1.0
 21
0.0
 31
0.0
  0
ENDBLK
  5
FF
330
F9
100
AcDbEntity
  8
0
100
AcDbBlockEnd
  0
BLOCK
  5
101
330
100
100
AcDbEntity
  8
0
100
AcDbBlockBegin
  2
DatumFilled45
 70
     0
 10
0.0
 20
0.0
 30
0.0
  3
DatumFilled45
  1

  0
POLYLINE
  5
103
330
100
100
AcDbEntity
  8
0
 62
     0
100
AcDb2dPolyline
 66
     1
 10
0.0
 20
0.0
 30
0.0
 70
   128
  0
VERTEX
  5
104
330
103
100
AcDbEntity
  8
0
 62
     0
100
AcDbVertex
100
AcDb2dVertex
 10
0.0
 20
0.9999999999999998
 30
0.0
  0
VERTEX
  5
105
330
103
100
AcDbEntity
  8
0
 62
     0
100
AcDbVertex
100
AcDb2dVertex
 10
0.0
 20
-0.9999999999999998
 30
0.0
  0
VERTEX
  5
107
330
103
100
AcDbEntity
  8
0
 62
     0
100
AcDbVertex
100
AcDb2dVertex
 10
-0.9999999999999998
 20
0.0
 30
0.0
  0
VERTEX
  5
108
330
103
100
AcDbEntity
  8
0
 62
     0
100
AcDbVertex
100
AcDb2dVertex
 10
0.0
 20
0.9999999999999998
 30
0.0
  0
SEQEND
  5
106
330
103
100
AcDbEntity
  8
0
 62
     0
  0
SOLID
  5
10A
330
100
100
AcDbEntity
  8
0
 62
     0
100
AcDbTrace
 10
0.0
 20
0.9999999999999998
 30
0.0
 11
0.0
 21
-0.9999999999999998
 31
0.0
 12
-0.9999999999999998
 22
0.0
 32
0.0
 13
0.0
 23
0.9999999999999998
 33
0.0
  0
ENDBLK
  5
102
330
100
100
AcDbEntity
  8
0
100
AcDbBlockEnd
  0
BLOCK
  5
10D
330
10C
100
AcDbEntity
  8
0
100
AcDbBlockBegin
  2
Filled-1
 70
     0
 10
0.0
 20
0.0
 30
0.0
  3
Filled-1
  1

  0
LINE
  5
10F
330
10C
100
AcDbEntity
  8
0
 62
     0
100
AcDbLine
 10
-0.9999999999999998
 20
0.0
 30
0.0
 11
0.0
 21
0.0
 31
0.0
  0
POLYLINE
  5
110
330
10C
100
AcDbEntity
  8
0
 62
     0
100
AcDb2dPolyline
 66
     1
 10
0.0
 20
0.0
 30
0.0
 70
   128
  0
VERTEX
  5
111
330
110
100
AcDbEntity
  8
0
 62
     0
100
AcDbVertex
100
AcDb2dVertex
 10
-0.9999999999999998
 20
-0.0994897959183674
 30
0.0
  0
VERTEX
  5
112
330
110
100
AcDbEntity
  8
0
 62
     0
100
AcDbVertex
100
AcDb2dVertex
 10
0.0
 20
0.0
 30
0.0
  0
VERTEX
  5
114
330
110
100
AcDbEntity
  8
0
 62
     0
100
AcDbVertex
100
AcDb2dVertex
 10
-0.9999999999999998
 20
0.0994897959183674
 30
0.0
  0
VERTEX
  5
115
330
110
100
AcDbEntity
  8
0
 62
     0
100
AcDbVertex
100
AcDb2dVertex
 10
-0.9999999999999998
 20
-0.0994897959183674
 30
0.0
  0
SEQEND
  5
113
330
110
100
AcDbEntity
  8
0
 62
     0
  0
SOLID
  5
116
330
10C
100
AcDbEntity
  8
0
 62
     0
100
AcDbTrace
 10
-0.9999999999999998
 20
-0.0994897959183674
 30
0.0
 11
0.0
 21
0.0
 31
0.0
 12
-0.9999999999999998
 22
0.0994897959183674
 32
0.0
 13
-0.9999999999999998
 23
-0.0994897959183674
 33
0.0
  0
LINE
  5
117
330
10C
100
AcDbEntity
  8
0
 62
     0
100
AcDbLine
 10
-0.9999999999999998
 20
-0.0994897959183674
 30
0.0
 11
0.0
 21
0.0
 31
0.0
  0
LINE
  5
118
330
10C
100
AcDbEntity
  8
0
 62
     0
100
AcDbLine
 10
0.0
 20
0.0
 30
0.0
 11
-0.9999999999999998
 21
0.0994897959183674
 31
0.0
  0
LINE
  5
119
330
10C
100
AcDbEntity
  8
0
 62
     0
100
AcDbLine
 10
-0.9999999999999998
 20
0.0994897959183674
 30
0.0
 11
-0.9999999999999998
 21
-0.0994897959183674
 31
0.0
  0
ENDBLK
  5
10E
330
10C
100
AcDbEntity
  8
0
100
AcDbBlockEnd
  0
BLOCK
  5
171
330
170
100
AcDbEntity
  8
0
100
AcDbBlockBegin
  2
*D4
 70
     1
 10
0.0
 20
0.0
 30
0.0
  3
*D4
  1

  0
LINE
  5
26D
330
170
100
AcDbEntity
  8
Dimension (ANSI)
440
 16777216
100
AcDbLine
 10
16.81123800083467
 20
12.92303555684274
 30
0.0
 11
16.81123800083467
 21
13.4814452019889
 31
0.0
  0
LINE
  5
26E
330
170
100
AcDbEntity
  8
Dimension (ANSI)
440
 16777216
100
AcDbLine
 10
16.88523800083467
 20
12.92303555684274
 30
0.0
 11
16.88523800083467
 21
13.4814452019889
 31
0.0
  0
LINE
  5
26F
330
170
100
AcDbEntity
  8
Dimension (ANSI)
440
 16777216
100
AcDbLine
 10
17.0366613771748
 20
13.28913750968121
 30
0.0
 11
17.18808475351493
 21
13.28913750968121
 31
0.0
  0
LINE
  5
270
330
170
100
AcDbEntity
  8
Dimension (ANSI)
440
 16777216
100
AcDbLine
 10
16.65981462449454
 20
13.28913750968121
 30
0.0
 11
16.28907617296569
 21
13.28913750968121
 31
0.0
  0
SOLID
  5
271
330
170
100
AcDbEntity
  8
Dimension (ANSI)
440
 16777216
100
AcDbTrace
 10
17.0366613771748
 20
13.31437473907123
 30
0.0
 11
17.0366613771748
 21
13.26390028029118
 31
0.0
 12
16.88523800083467
 22
13.28913750968121
 32
0.0
 13
16.88523800083467
 23
13.28913750968121
 33
0.0
  0
SOLID
  5
272
330
170
100
AcDbEntity
  8
Dimension (ANSI)
440
 16777216
100
AcDbTrace
 10
16.65981462449454
 20
13.31437473907123
 30
0.0
 11
16.65981462449454
 21
13.26390028029118
 31
0.0
 12
16.81123800083467
 22
13.28913750968121
 32
0.0
 13
16.81123800083467
 23
13.28913750968121
 33
0.0
  0
MTEXT
  5
273
330
170
100
AcDbEntity
  8
Dimension (ANSI)
440
 16777216
100
AcDbMText
 10
15.53786714219867
 20
13.28913750968121
 30
0.0
 40
0.1846153919513409
 41
0.0
 71
     5
 72
     1
  1
\A1;{14 GA. C.R.S\P}(0.074)
  7
Note Text (ANSI)
 73
     1
 44
1.0
  0
POINT
  5
274
330
170
100
AcDbEntity
  8
Defpoints
 62
     0
440
 16777216
100
AcDbPoint
 10
16.81123800083467
 20
12.82688171068889
 30
0.0
  0
POINT
  5
275
330
170
100
AcDbEntity
  8
Defpoints
 62
     0
440
 16777216
100
AcDbPoint
 10
16.88523800083467
 20
12.82688171068889
 30
0.0
  0
POINT
  5
276
330
170
100
AcDbEntity
  8
Defpoints
 62
     0
440
 16777216
100
AcDbPoint
 10
16.88523800083467
 20
13.28913750968121
 30
0.0
  0
ENDBLK
  5
172
330
170
100
AcDbEntity
  8
0
100
AcDbBlockEnd
  0
BLOCK
  5
279
330
278
100
AcDbEntity
  8
0
100
AcDbBlockBegin
  2
*D5
 70
     1
 10
0.0
 20
0.0
 30
0.0
  3
*D5
  1

  0
LINE
  5
357
330
278
100
AcDbEntity
  8
Dimension (ANSI)
440
 16777216
100
AcDbLine
 10
6.127119086439729
 20
4.576881710688893
 30
0.0
 11
5.237774243379123
 21
4.576881710688894
 31
0.0
  0
LINE
  5
358
330
278
100
AcDbEntity
  8
Dimension (ANSI)
440
 16777216
100
AcDbLine
 10
6.127119086439727
 20
12.82688171068889
 30
0.0
 11
5.237774243379125
 21
12.82688171068889
 31
0.0
  0
LINE
  5
359
330
278
100
AcDbEntity
  8
Dimension (ANSI)
440
 16777216
100
AcDbLine
 10
5.430081935686816
 20
4.728305087029027
 30
0.0
 11
5.430081935686817
 21
8.556903004377105
 31
0.0
  0
LINE
  5
35A
330
278
100
AcDbEntity
  8
Dimension (ANSI)
440
 16777216
100
AcDbLine
 10
5.430081935686818
 20
12.67545833434876
 30
0.0
 11
5.430081935686817
 21
8.846860417000677
 31
0.0
  0
SOLID
  5
35B
330
278
100
AcDbEntity
  8
Dimension (ANSI)
440
 16777216
100
AcDbTrace
 10
5.404844706296794
 20
4.728305087029027
 30
0.0
 11
5.455319165076838
 21
4.728305087029027
 31
0.0
 12
5.430081935686816
 22
4.576881710688894
 32
0.0
 13
5.430081935686816
 23
4.576881710688894
 33
0.0
  0
SOLID
  5
35C
330
278
100
AcDbEntity
  8
Dimension (ANSI)
440
 16777216
100
AcDbTrace
 10
5.404844706296795
 20
12.67545833434876
 30
0.0
 11
5.45531916507684
 21
12.67545833434876
 31
0.0
 12
5.430081935686818
 22
12.82688171068889
 32
0.0
 13
5.430081935686818
 23
12.82688171068889
 33
0.0
  0
MTEXT
  5
35D
330
278
100
AcDbEntity
  8
Dimension (ANSI)
440
 16777216
100
AcDbMText
 10
5.194942185133723
 20
8.79840493547433
 30
0.0
 40
0.1846153919513409
 41
0.0
 71
     1
 72
     1
  1
\A1;8.25
  7
Note Text (ANSI)
 73
     1
 44
1.0
  0
POINT
  5
35E
330
278
100
AcDbEntity
  8
Defpoints
 62
     0
440
 16777216
100
AcDbPoint
 10
6.223272932593575
 20
4.576881710688893
 30
0.0
  0
POINT
  5
35F
330
278
100
AcDbEntity
  8
Defpoints
 62
     0
440
 16777216
100
AcDbPoint
 10
6.223272932593573
 20
12.82688171068889
 30
0.0
  0
POINT
  5
360
330
278
100
AcDbEntity
  8
Defpoints
 62
     0
440
 16777216
100
AcDbPoint
 10
5.430081935686818
 20
12.82688171068889
 30
0.0
  0
ENDBLK
  5
27A
330
278
100
AcDbEntity
  8
0
100
AcDbBlockEnd
  0
BLOCK
  5
363
330
362
100
AcDbEntity
  8
0
100
AcDbBlockBegin
  2
*D6
 70
     1
 10
0.0
 20
0.0
 30
0.0
  3
*D6
  1

  0
LINE
  5
441
330
362
100
AcDbEntity
  8
Dimension (ANSI)
440
 16777216
100
AcDbLine
 10
6.223272932593573
 20
12.92303555684274
 30
0.0
 11
6.223272932593573
 21
13.98829903352354
 31
0.0
  0
LINE
  5
442
330
362
100
AcDbEntity
  8
Dimension (ANSI)
440
 16777216
100
AcDbLine
 10
12.47327293259357
 20
12.92303555684274
 30
0.0
 11
12.47327293259357
 21
13.98829903352354
 31
0.0
  0
LINE
  5
443
330
362
100
AcDbEntity
  8
Dimension (ANSI)
440
 16777216
100
AcDbLine
 10
6.374696308933706
 20
13.79599134121584
 30
0.0
 11
9.06535962438866
 21
13.79599134121584
 31
0.0
  0
LINE
  5
444
330
362
100
AcDbEntity
  8
Dimension (ANSI)
440
 16777216
100
AcDbLine
 10
12.32184955625344
 20
13.79599134121584
 30
0.0
 11
9.631186240798486
 21
13.79599134121584
 31
0.0
  0
SOLID
  5
445
330
362
100
AcDbEntity
  8
Dimension (ANSI)
440
 16777216
100
AcDbTrace
 10
6.374696308933706
 20
13.82122857060587
 30
0.0
 11
6.374696308933706
 21
13.77075411182582
 31
0.0
 12
6.223272932593573
 22
13.79599134121584
 32
0.0
 13
6.223272932593573
 23
13.79599134121584
 33
0.0
  0
SOLID
  5
446
330
362
100
AcDbEntity
  8
Dimension (ANSI)
440
 16777216
100
AcDbTrace
 10
12.32184955625344
 20
13.82122857060587
 30
0.0
 11
12.32184955625344
 21
13.77075411182582
 31
0.0
 12
12.47327293259357
 22
13.79599134121584
 32
0.0
 13
12.47327293259357
 23
13.79599134121584
 33
0.0
  0
MTEXT
  5
447
330
362
100
AcDbEntity
  8
Dimension (ANSI)
440
 16777216
100
AcDbMText
 10
9.113815105915008
 20
13.89214260752427
 30
0.0
 40
0.1846153919513409
 41
0.0
 71
     1
 72
     1
  1
\A1;6.25
  7
Note Text (ANSI)
 73
     1
 44
1.0
  0
POINT
  5
448
330
362
100
AcDbEntity
  8
Defpoints
 62
     0
440
 16777216
100
AcDbPoint
 10
6.223272932593573
 20
12.82688171068889
 30
0.0
  0
POINT
  5
449
330
362
100
AcDbEntity
  8
Defpoints
 62
     0
440
 16777216
100
AcDbPoint
 10
12.47327293259357
 20
12.82688171068889
 30
0.0
  0
POINT
  5
44A
330
362
100
AcDbEntity
  8
Defpoints
 62
     0
440
 16777216
100
AcDbPoint
 10
12.47327293259357
 20
13.79599134121584
 30
0.0
  0
ENDBLK
  5
364
330
362
100
AcDbEntity
  8
0
100
AcDbBlockEnd
  0
BLOCK
  5
453
330
452
100
AcDbEntity
  8
0
100
AcDbBlockBegin
  2
*D7
 70
     1
 10
0.0
 20
0.0
 30
0.0
  3
*D7
  1

  0
LINE
  5
504
330
452
100
AcDbEntity
  8
Dimension (ANSI)
440
 16777216
100
AcDbLine
 10
9.072922308662336
 20
3.826950335248648
 30
0.0
 11
8.883060159816945
 21
3.826950335248648
 31
0.0
  0
LINE
  5
505
330
452
100
AcDbEntity
  8
Dimension (ANSI)
440
 16777216
100
AcDbLine
 10
8.883060159816945
 20
3.826950335248648
 30
0.0
 11
7.753258081694811
 21
4.718629475501165
 31
0.0
  0
MTEXT
  5
506
102
{ACAD_XDICTIONARY
360
84E
102
}
330
452
100
AcDbEntity
  8
Dimension (ANSI)
440
 16777216
100
AcDbMText
 10
9.970249027816816
 20
3.826950335248648
 30
0.0
 40
0.1846153919513409
 41
0.0
 71
     5
 72
     1
  1
\A1;\U+22050.250{\PGROUND HOLE}
  7
Note Text (ANSI)
 73
     1
 44
1.0
  0
SOLID
  5
507
330
452
100
AcDbEntity
  8
Dimension (ANSI)
440
 16777216
100
AcDbTrace
 10
7.768893271454119
 20
4.738440043097147
 30
0.0
 11
7.737622891935503
 21
4.698818907905182
 31
0.0
 12
7.634394676118914
 22
4.812440614057015
 32
0.0
 13
7.634394676118914
 23
4.812440614057015
 33
0.0
  0
LINE
  5
508
330
452
100
AcDbEntity
  8
Dimension (ANSI)
440
 16777216
100
AcDbLine
 10
7.397811394132036
 20
4.889881710688893
 30
0.0
 11
7.674734471055113
 21
4.889881710688892
 31
0.0
  0
LINE
  5
509
330
452
100
AcDbEntity
  8
Dimension (ANSI)
440
 16777216
100
AcDbLine
 10
7.536272932593574
 20
4.751420172227354
 30
0.0
 11
7.536272932593574
 21
5.028343249150431
 31
0.0
  0
POINT
  5
50A
330
452
100
AcDbEntity
  8
Defpoints
 62
     0
440
 16777216
100
AcDbPoint
 10
7.634394676118914
 20
4.812440614057015
 30
0.0
  0
POINT
  5
50B
330
452
100
AcDbEntity
  8
Defpoints
 62
     0
440
 16777216
100
AcDbPoint
 10
7.438151189068236
 20
4.96732280732077
 30
0.0
  0
ENDBLK
  5
454
330
452
100
AcDbEntity
  8
0
100
AcDbBlockEnd
  0
BLOCK
  5
50E
330
50D
100
AcDbEntity
  8
0
100
AcDbBlockBegin
  2
*D8
 70
     1
 10
0.0
 20
0.0
 30
0.0
  3
*D8
  1

  0
LINE
  5
5EC
330
50D
100
AcDbEntity
  8
Dimension (ANSI)
440
 16777216
100
AcDbLine
 10
7.536272932593575
 20
4.476420172227355
 30
0.0
 11
7.536272932593575
 21
3.277806957284057
 31
0.0
  0
LINE
  5
5ED
330
50D
100
AcDbEntity
  8
Dimension (ANSI)
440
 16777216
100
AcDbLine
 10
6.536272932593574
 20
4.5725740183812
 30
0.0
 11
6.536272932593574
 21
3.277806957284057
 31
0.0
  0
LINE
  5
5EE
330
50D
100
AcDbEntity
  8
Dimension (ANSI)
440
 16777216
100
AcDbLine
 10
6.687696308933706
 20
3.470114649591749
 30
0.0
 11
7.384849556253442
 21
3.470114649591749
 31
0.0
  0
LINE
  5
5EF
330
50D
100
AcDbEntity
  8
Dimension (ANSI)
440
 16777216
100
AcDbLine
 10
7.536272932593575
 20
3.470114649591749
 30
0.0
 11
7.809953627445872
 21
3.470114649591749
 31
0.0
  0
SOLID
  5
5F0
330
50D
100
AcDbEntity
  8
Dimension (ANSI)
440
 16777216
100
AcDbTrace
 10
6.687696308933706
 20
3.495351878981771
 30
0.0
 11
6.687696308933706
 21
3.444877420201727
 31
0.0
 12
6.536272932593574
 22
3.470114649591749
 32
0.0
 13
6.536272932593574
 23
3.470114649591749
 33
0.0
  0
SOLID
  5
5F1
330
50D
100
AcDbEntity
  8
Dimension (ANSI)
440
 16777216
100
AcDbTrace
 10
7.384849556253442
 20
3.495351878981771
 30
0.0
 11
7.384849556253442
 21
3.444877420201727
 31
0.0
 12
7.536272932593575
 22
3.470114649591749
 32
0.0
 13
7.536272932593575
 23
3.470114649591749
 33
0.0
  0
MTEXT
  5
5F2
330
50D
100
AcDbEntity
  8
Dimension (ANSI)
440
 16777216
100
AcDbMText
 10
7.858409108972219
 20
3.566203922820669
 30
0.0
 40
0.1846153919513409
 41
0.0
 71
     1
 72
     1
  1
\A1;1.000
  7
Note Text (ANSI)
 73
     1
 44
1.0
  0
POINT
  5
5F3
330
50D
100
AcDbEntity
  8
Defpoints
 62
     0
440
 16777216
100
AcDbPoint
 10
7.536272932593575
 20
4.5725740183812
 30
0.0
  0
POINT
  5
5F4
330
50D
100
AcDbEntity
  8
Defpoints
 62
     0
440
 16777216
100
AcDbPoint
 10
6.536272932593574
 20
4.668727864535046
 30
0.0
  0
POINT
  5
5F5
330
50D
100
AcDbEntity
  8
Defpoints
 62
     0
440
 16777216
100
AcDbPoint
 10
6.536272932593574
 20
3.470114649591749
 30
0.0
  0
ENDBLK
  5
50F
330
50D
100
AcDbEntity
  8
0
100
AcDbBlockEnd
  0
BLOCK
  5
5F8
330
5F7
100
AcDbEntity
  8
0
100
AcDbBlockBegin
  2
*D9
 70
     1
 10
0.0
 20
0.0
 30
0.0
  3
*D9
  1

  0
LINE
  5
6EA
330
5F7
100
AcDbEntity
  8
Dimension (ANSI)
440
 16777216
100
AcDbLine
 10
12.16027293259357
 20
4.5725740183812
 30
0.0
 11
12.16027293259357
 21
3.780628013632349
 31
0.0
  0
LINE
  5
6EB
330
5F7
100
AcDbEntity
  8
Dimension (ANSI)
440
 16777216
100
AcDbLine
 10
12.47327293259357
 20
4.480727864535047
 30
0.0
 11
12.47327293259357
 21
3.780628013632349
 31
0.0
  0
LINE
  5
6EC
330
5F7
100
AcDbEntity
  8
Dimension (ANSI)
440
 16777216
100
AcDbLine
 10
12.00884955625344
 20
3.972935705940041
 30
0.0
 11
11.85742617991331
 21
3.972935705940041
 31
0.0
  0
LINE
  5
6ED
330
5F7
100
AcDbEntity
  8
Dimension (ANSI)
440
 16777216
100
AcDbLine
 10
12.6246963089337
 20
3.972935705940041
 30
0.0
 11
12.77611968527384
 21
3.972935705940041
 31
0.0
  0
SOLID
  5
6EE
330
5F7
100
AcDbEntity
  8
Dimension (ANSI)
440
 16777216
100
AcDbTrace
 10
12.00884955625344
 20
3.998172935330063
 30
0.0
 11
12.00884955625344
 21
3.947698476550019
 31
0.0
 12
12.16027293259357
 22
3.972935705940041
 32
0.0
 13
12.16027293259357
 23
3.972935705940041
 33
0.0
  0
SOLID
  5
6EF
330
5F7
100
AcDbEntity
  8
Dimension (ANSI)
440
 16777216
100
AcDbTrace
 10
12.6246963089337
 20
3.998172935330063
 30
0.0
 11
12.6246963089337
 21
3.947698476550019
 31
0.0
 12
12.47327293259357
 22
3.972935705940041
 32
0.0
 13
12.47327293259357
 23
3.972935705940041
 33
0.0
  0
MTEXT
  5
6F0
330
5F7
100
AcDbEntity
  8
Dimension (ANSI)
440
 16777216
100
AcDbMText
 10
13.12790730480606
 20
3.972935705940041
 30
0.0
 40
0.1846153919513409
 41
0.0
 71
     5
 72
     1
  1
\A1;0.313{\PTYP.}
  7
Note Text (ANSI)
 73
     1
 44
1.0
  0
POINT
  5
6F1
330
5F7
100
AcDbEntity
  8
Defpoints
 62
     0
440
 16777216
100
AcDbPoint
 10
12.16027293259357
 20
4.668727864535046
 30
0.0
  0
POINT
  5
6F2
330
5F7
100
AcDbEntity
  8
Defpoints
 62
     0
440
 16777216
100
AcDbPoint
 10
12.47327293259357
 20
4.576881710688893
 30
0.0
  0
POINT
  5
6F3
330
5F7
100
AcDbEntity
  8
Defpoints
 62
     0
440
 16777216
100
AcDbPoint
 10
12.47327293259357
 20
3.972935705940041
 30
0.0
  0
ENDBLK
  5
5F9
330
5F7
100
AcDbEntity
  8
0
100
AcDbBlockEnd
  0
BLOCK
  5
6F6
330
6F5
100
AcDbEntity
  8
0
100
AcDbBlockBegin
  2
*D10
 70
     1
 10
0.0
 20
0.0
 30
0.0
  3
*D10
  1

  0
LINE
  5
7FD
330
6F5
100
AcDbEntity
  8
Dimension (ANSI)
440
 16777216
100
AcDbLine
 10
12.60473447105511
 20
4.889881710688894
 30
0.0
 11
12.73855042432156
 21
4.889881710688894
 31
0.0
  0
LINE
  5
7FE
330
6F5
100
AcDbEntity
  8
Dimension (ANSI)
440
 16777216
100
AcDbLine
 10
12.56942677874742
 20
4.576881710688893
 30
0.0
 11
12.73855042432156
 21
4.576881710688893
 31
0.0
  0
LINE
  5
7FF
330
6F5
100
AcDbEntity
  8
Dimension (ANSI)
440
 16777216
100
AcDbLine
 10
12.54624273201387
 20
4.425458334348761
 30
0.0
 11
12.54624273201387
 21
4.274034958008628
 31
0.0
  0
LINE
  5
800
330
6F5
100
AcDbEntity
  8
Dimension (ANSI)
440
 16777216
100
AcDbLine
 10
12.54624273201387
 20
5.041305087029027
 30
0.0
 11
12.54624273201387
 21
5.538660069643875
 31
0.0
  0
LINE
  5
801
330
6F5
100
AcDbEntity
  8
Dimension (ANSI)
440
 16777216
100
AcDbLine
 10
12.54624273201387
 20
5.538660069643875
 30
0.0
 11
12.697666108354
 21
5.538660069643875
 31
0.0
  0
SOLID
  5
802
330
6F5
100
AcDbEntity
  8
Dimension (ANSI)
440
 16777216
100
AcDbTrace
 10
12.52100550262385
 20
4.425458334348761
 30
0.0
 11
12.57147996140389
 21
4.425458334348761
 31
0.0
 12
12.54624273201387
 22
4.576881710688893
 32
0.0
 13
12.54624273201387
 23
4.576881710688893
 33
0.0
  0
SOLID
  5
803
330
6F5
100
AcDbEntity
  8
Dimension (ANSI)
440
 16777216
100
AcDbTrace
 10
12.52100550262385
 20
5.041305087029027
 30
0.0
 11
12.57147996140389
 21
5.041305087029027
 31
0.0
 12
12.54624273201387
 22
4.889881710688894
 32
0.0
 13
12.54624273201387
 23
4.889881710688894
 33
0.0
  0
MTEXT
  5
804
330
6F5
100
AcDbEntity
  8
Dimension (ANSI)
440
 16777216
100
AcDbMText
 10
13.04945372788622
 20
5.538660069643877
 30
0.0
 40
0.1846153919513409
 41
0.0
 71
     5
 72
     1
  1
\A1;0.313{\PTYP.}
  7
Note Text (ANSI)
 73
     1
 44
1.0
  0
POINT
  5
805
330
6F5
100
AcDbEntity
  8
Defpoints
 62
     0
440
 16777216
100
AcDbPoint
 10
12.50858062490127
 20
4.889881710688894
 30
0.0
  0
POINT
  5
806
330
6F5
100
AcDbEntity
  8
Defpoints
 62
     0
440
 16777216
100
AcDbPoint
 10
12.47327293259357
 20
4.576881710688893
 30
0.0
  0
POINT
  5
807
330
6F5
100
AcDbEntity
  8
Defpoints
 62
     0
440
 16777216
100
AcDbPoint
 10
12.54624273201387
 20
4.576881710688893
 30
0.0
  0
ENDBLK
  5
6F7
330
6F5
100
AcDbEntity
  8
0
100
AcDbBlockEnd
  0
ENDSEC
  0
SECTION
  2
ENTITIES
  0
CIRCLE
  5
11B
330
6C
100
AcDbEntity
  8
Visible (ANSI)
100
AcDbCircle
 10
7.536272932593576
 20
4.889881710688893
 30
0.0
 40
0.125
  0
LINE
  5
11C
330
6C
100
AcDbEntity
  8
Visible (ANSI)
100
AcDbLine
 10
12.19127293259357
 20
4.764881710688893
 30
0.0
 11
12.12927293259357
 21
4.764881710688893
 31
0.0
  0
ARC
  5
11D
330
6C
100
AcDbEntity
  8
Visible (ANSI)
100
AcDbCircle
 10
12.19127293259357
 20
4.889881710688894
 30
0.0
 40
0.125
100
AcDbArc
 50
270.0
 51
90.0
  0
LINE
  5
11E
330
6C
100
AcDbEntity
  8
Visible (ANSI)
100
AcDbLine
 10
12.12927293259357
 20
5.014881710688893
 30
0.0
 11
12.19127293259357
 21
5.014881710688893
 31
0.0
  0
ARC
  5
11F
330
6C
100
AcDbEntity
  8
Visible (ANSI)
100
AcDbCircle
 10
12.12927293259357
 20
4.889881710688894
 30
0.0
 40
0.125
100
AcDbArc
 50
90.0
 51
270.0
  0
LINE
  5
120
330
6C
100
AcDbEntity
  8
Visible (ANSI)
100
AcDbLine
 10
6.567272932593575
 20
4.764881710688893
 30
0.0
 11
6.505272932593575
 21
4.764881710688893
 31
0.0
  0
ARC
  5
121
330
6C
100
AcDbEntity
  8
Visible (ANSI)
100
AcDbCircle
 10
6.567272932593575
 20
4.889881710688894
 30
0.0
 40
0.125
100
AcDbArc
 50
270.0
 51
90.0
  0
LINE
  5
122
330
6C
100
AcDbEntity
  8
Visible (ANSI)
100
AcDbLine
 10
6.505272932593575
 20
5.014881710688893
 30
0.0
 11
6.567272932593575
 21
5.014881710688893
 31
0.0
  0
ARC
  5
123
330
6C
100
AcDbEntity
  8
Visible (ANSI)
100
AcDbCircle
 10
6.505272932593575
 20
4.889881710688894
 30
0.0
 40
0.125
100
AcDbArc
 50
90.0
 51
270.0
  0
LINE
  5
124
330
6C
100
AcDbEntity
  8
Visible (ANSI)
100
AcDbLine
 10
12.19127293259357
 20
12.38888171068889
 30
0.0
 11
12.12927293259357
 21
12.38888171068889
 31
0.0
  0
ARC
  5
125
330
6C
100
AcDbEntity
  8
Visible (ANSI)
100
AcDbCircle
 10
12.19127293259357
 20
12.51388171068889
 30
0.0
 40
0.1249999999999996
100
AcDbArc
 50
270.0
 51
90.0
  0
LINE
  5
126
330
6C
100
AcDbEntity
  8
Visible (ANSI)
100
AcDbLine
 10
12.12927293259357
 20
12.63888171068889
 30
0.0
 11
12.19127293259357
 21
12.63888171068889
 31
0.0
  0
ARC
  5
127
330
6C
100
AcDbEntity
  8
Visible (ANSI)
100
AcDbCircle
 10
12.12927293259357
 20
12.51388171068889
 30
0.0
 40
0.1249999999999996
100
AcDbArc
 50
90.0
 51
270.0
  0
LINE
  5
128
330
6C
100
AcDbEntity
  8
Visible (ANSI)
100
AcDbLine
 10
6.567272932593573
 20
12.38888171068889
 30
0.0
 11
6.505272932593572
 21
12.38888171068889
 31
0.0
  0
ARC
  5
129
330
6C
100
AcDbEntity
  8
Visible (ANSI)
100
AcDbCircle
 10
6.567272932593573
 20
12.51388171068889
 30
0.0
 40
0.1249999999999996
100
AcDbArc
 50
270.0000000000005
 51
90.00000000000047
  0
LINE
  5
12A
330
6C
100
AcDbEntity
  8
Visible (ANSI)
100
AcDbLine
 10
6.505272932593572
 20
12.63888171068889
 30
0.0
 11
6.567272932593573
 21
12.63888171068889
 31
0.0
  0
ARC
  5
12B
330
6C
100
AcDbEntity
  8
Visible (ANSI)
100
AcDbCircle
 10
6.505272932593571
 20
12.51388171068889
 30
0.0
 40
0.1249999999999996
100
AcDbArc
 50
90.00000000000047
 51
270.0000000000005
  0
LINE
  5
12C
330
6C
100
AcDbEntity
  8
Visible (ANSI)
100
AcDbLine
 10
6.223272932593575
 20
4.576881710688893
 30
0.0
 11
6.223272932593573
 21
12.82688171068889
 31
0.0
  0
LINE
  5
12D
330
6C
100
AcDbEntity
  8
Visible (ANSI)
100
AcDbLine
 10
6.223272932593573
 20
12.82688171068889
 30
0.0
 11
12.47327293259357
 21
12.82688171068889
 31
0.0
  0
LINE
  5
12E
330
6C
100
AcDbEntity
  8
Visible (ANSI)
100
AcDbLine
 10
12.47327293259357
 20
12.82688171068889
 30
0.0
 11
12.47327293259357
 21
4.576881710688893
 31
0.0
  0
LINE
  5
12F
330
6C
100
AcDbEntity
  8
Visible (ANSI)
100
AcDbLine
 10
12.47327293259357
 20
4.576881710688893
 30
0.0
 11
6.223272932593575
 21
4.576881710688893
 31
0.0
  0
MTEXT
  5
131
330
6C
100
AcDbEntity
  8
Symbol (ANSI)
100
AcDbMText
 10
8.85090126175663
 20
2.783886235890124
 30
0.0
 40
0.1846153868970403
 41
0.0
 71
     7
 72
     1
  1
FRONT VIEW
  7
Text Style166
 73
     1
 44
1.0
  0
LINE
  5
133
330
6C
100
AcDbEntity
  8
Symbol (ANSI)
370
    30
100
AcDbLine
 10
8.832439675805266
 20
2.746237563005677
 30
0.0
 11
10.31669352855246
 21
2.746237563005677
 31
0.0
  0
LINE
  5
134
330
6C
100
AcDbEntity
  8
Hidden (ANSI)
 48
0.0915159061551094
100
AcDbLine
 10
16.81123800083459
 20
4.764881710688893
 30
0.0
 11
16.88523800083459
 21
4.764881710688893
 31
0.0
  0
LINE
  5
135
330
6C
100
AcDbEntity
  8
Hidden (ANSI)
 48
0.0915159061551094
100
AcDbLine
 10
16.81123800083459
 20
5.014881710688893
 30
0.0
 11
16.88523800083459
 21
5.014881710688893
 31
0.0
  0
LINE
  5
136
330
6C
100
AcDbEntity
  8
Hidden (ANSI)
 48
0.0915159061551094
100
AcDbLine
 10
16.81123800083459
 20
12.38888171068889
 30
0.0
 11
16.88523800083459
 21
12.38888171068889
 31
0.0
  0
LINE
  5
137
330
6C
100
AcDbEntity
  8
Hidden (ANSI)
 48
0.0915159061551094
100
AcDbLine
 10
16.81123800083459
 20
12.63888171068889
 30
0.0
 11
16.88523800083459
 21
12.63888171068889
 31
0.0
  0
LINE
  5
138
330
6C
100
AcDbEntity
  8
Visible (ANSI)
100
AcDbLine
 10
16.88523800083467
 20
12.82688171068889
 30
0.0
 11
16.81123800083467
 21
12.82688171068889
 31
0.0
  0
LINE
  5
139
330
6C
100
AcDbEntity
  8
Visible (ANSI)
100
AcDbLine
 10
16.81123800083467
 20
12.82688171068889
 30
0.0
 11
16.81123800083467
 21
4.576881710688893
 31
0.0
  0
LINE
  5
13A
330
6C
100
AcDbEntity
  8
Visible (ANSI)
100
AcDbLine
 10
16.88523800083467
 20
4.576881710688893
 30
0.0
 11
16.81123800083467
 21
4.576881710688893
 31
0.0
  0
LINE
  5
13B
330
6C
100
AcDbEntity
  8
Visible (ANSI)
100
AcDbLine
 10
16.88523800083467
 20
4.576881710688893
 30
0.0
 11
16.88523800083467
 21
12.82688171068889
 31
0.0
  0
MTEXT
  5
13C
330
6C
100
AcDbEntity
  8
Symbol (ANSI)
100
AcDbMText
 10
16.17732936128733
 20
3.294243914037537
 30
0.0
 40
0.1846153868970403
 41
0.0
 71
     7
 72
     1
  1
SIDE VIEW
  7
Text Style166
 73
     1
 44
1.0
  0
LINE
  5
13D
330
6C
100
AcDbEntity
  8
Symbol (ANSI)
370
    30
100
AcDbLine
 10
16.16787702928023
 20
3.25599681224568
 30
0.0
 11
17.41545213759638
 21
3.25599681224568
 31
0.0
  0
ELLIPSE
  5
13E
330
6C
100
AcDbEntity
  8
Visible (ANSI)
100
AcDbEllipse
 10
21.59096159588799
 20
8.882356722498929
 30
0.0
 11
0.052782253148356
 21
-0.0916578634384287
 31
0.0
210
0.0
220
0.0
230
1.0
 40
0.578093115915809
 41
3.572615253427358
 42
5.852162707341197
  0
ELLIPSE
  5
13F
330
6C
100
AcDbEntity
  8
Visible (ANSI)
100
AcDbEllipse
 10
21.54668583281985
 20
8.856860006266083
 30
0.0
 11
-0.0527822531483506
 21
0.0916578634384319
 31
0.0
210
0.0
220
0.0
230
0.9999999999999998
 40
0.5780931159158092
 41
0.0
 42
6.283185307179586
  0
LINE
  5
140
330
6C
100
AcDbEntity
  8
Visible (ANSI)
100
AcDbLine
 10
24.33905051172593
 20
7.213366234453873
 30
0.0
 11
24.37614642132357
 21
7.192004120853385
 31
0.0
  0
LINE
  5
141
330
6C
100
AcDbEntity
  8
Visible Narrow (ANSI)
100
AcDbLine
 10
24.2947747486578
 20
7.187869518221026
 30
0.0
 11
24.33905051172593
 21
7.213366234453873
 31
0.0
  0
LINE
  5
142
330
6C
100
AcDbEntity
  8
Visible (ANSI)
100
AcDbLine
 10
24.33187065825543
 20
7.166507404620539
 30
0.0
 11
24.2947747486578
 21
7.187869518221026
 31
0.0
  0
LINE
  5
143
330
6C
100
AcDbEntity
  8
Visible Narrow (ANSI)
100
AcDbLine
 10
24.33187065825543
 20
7.166507404620539
 30
0.0
 11
24.37614642132357
 21
7.192004120853385
 31
0.0
  0
ELLIPSE
  5
144
330
6C
100
AcDbEntity
  8
Visible (ANSI)
100
AcDbEllipse
 10
24.37614642132357
 20
7.278475451365578
 30
0.0
 11
0.0527822531483511
 21
-0.0916578634384327
 31
0.0
210
0.0
220
0.0
230
1.0
 40
0.578093115915809
 41
5.49972085220502
 42
5.852162707341641
  0
ELLIPSE
  5
145
330
6C
100
AcDbEntity
  8
Visible (ANSI)
100
AcDbEllipse
 10
24.33187065825544
 20
7.25297873513273
 30
0.0
 11
0.0527822531483451
 21
-0.091657863438435
 31
0.0
210
0.0
220
0.0
230
1.0
 40
0.578093115915809
 41
5.499720852205251
 42
8.641313505795043
  0
LINE
  5
146
330
6C
100
AcDbEntity
  8
Visible (ANSI)
100
AcDbLine
 10
24.2947747486578
 20
7.360812179245409
 30
0.0
 11
24.33187065825543
 21
7.339450065644922
 31
0.0
  0
ELLIPSE
  5
147
330
6C
100
AcDbEntity
  8
Visible (ANSI)
100
AcDbEllipse
 10
24.33905051172593
 20
7.299837564966066
 30
0.0
 11
0.052782253148356
 21
-0.0916578634384287
 31
0.0
210
0.0
220
0.0
230
1.0
 40
0.578093115915809
 41
3.572615253427358
 42
5.499720852204675
  0
ELLIPSE
  5
148
330
6C
100
AcDbEntity
  8
Visible (ANSI)
100
AcDbEllipse
 10
24.29477474865779
 20
7.274340848733218
 30
0.0
 11
-0.0527822531483451
 21
0.0916578634384351
 31
0.0
210
0.0
220
0.0
230
1.0
 40
0.578093115915809
 41
5.499720852205251
 42
8.641313505795043
  0
LINE
  5
149
330
6C
100
AcDbEntity
  8
Visible (ANSI)
100
AcDbLine
 10
20.97409251854662
 20
9.151116668149679
 30
0.0
 11
21.01118842814426
 21
9.129754554549192
 31
0.0
  0
LINE
  5
14A
330
6C
100
AcDbEntity
  8
Visible Narrow (ANSI)
100
AcDbLine
 10
20.92981675547848
 20
9.125619951916831
 30
0.0
 11
20.97409251854662
 21
9.151116668149679
 31
0.0
  0
LINE
  5
14B
330
6C
100
AcDbEntity
  8
Visible (ANSI)
100
AcDbLine
 10
20.96691266507613
 20
9.104257838316344
 30
0.0
 11
20.92981675547848
 21
9.125619951916831
 31
0.0
  0
LINE
  5
14C
330
6C
100
AcDbEntity
  8
Visible Narrow (ANSI)
100
AcDbLine
 10
20.96691266507613
 20
9.104257838316344
 30
0.0
 11
21.01118842814426
 21
9.129754554549192
 31
0.0
  0
ELLIPSE
  5
14D
330
6C
100
AcDbEntity
  8
Visible (ANSI)
100
AcDbEllipse
 10
21.01118842814426
 20
9.216225885061383
 30
0.0
 11
0.0527822531483505
 21
-0.0916578634384318
 31
0.0
210
0.0
220
0.0
230
1.0
 40
0.578093115915809
 41
5.49972085220502
 42
5.852162707341645
  0
ELLIPSE
  5
14E
330
6C
100
AcDbEntity
  8
Visible (ANSI)
100
AcDbEllipse
 10
20.96691266507613
 20
9.190729168828537
 30
0.0
 11
0.0527822531483451
 21
-0.091657863438435
 31
0.0
210
0.0
220
0.0
230
1.0
 40
0.578093115915809
 41
5.49972085220525
 42
8.641313505795043
  0
LINE
  5
14F
330
6C
100
AcDbEntity
  8
Visible (ANSI)
100
AcDbLine
 10
20.92981675547849
 20
9.298562612941216
 30
0.0
 11
20.96691266507613
 21
9.277200499340729
 31
0.0
  0
ELLIPSE
  5
150
330
6C
100
AcDbEntity
  8
Visible (ANSI)
100
AcDbEllipse
 10
20.97409251854662
 20
9.23758799866187
 30
0.0
 11
0.0527822531483561
 21
-0.0916578634384288
 31
0.0
210
0.0
220
0.0
230
1.0
 40
0.578093115915809
 41
3.572615253427358
 42
5.499720852204675
  0
ELLIPSE
  5
151
330
6C
100
AcDbEntity
  8
Visible (ANSI)
100
AcDbEllipse
 10
20.92981675547849
 20
9.212091282429025
 30
0.0
 11
-0.0527822531483451
 21
0.091657863438435
 31
0.0
210
0.0
220
0.0
230
1.0
 40
0.578093115915809
 41
5.49972085220525
 42
8.641313505795043
  0
LINE
  5
152
330
6C
100
AcDbEntity
  8
Visible (ANSI)
100
AcDbLine
 10
24.33905051172594
 20
12.48742562505345
 30
0.0
 11
24.37614642132358
 21
12.46606351145296
 31
0.0
  0
LINE
  5
153
330
6C
100
AcDbEntity
  8
Visible Narrow (ANSI)
100
AcDbLine
 10
24.29477474865781
 20
12.4619289088206
 30
0.0
 11
24.33905051172594
 21
12.48742562505345
 31
0.0
  0
LINE
  5
154
330
6C
100
AcDbEntity
  8
Visible (ANSI)
100
AcDbLine
 10
24.33187065825544
 20
12.44056679522012
 30
0.0
 11
24.29477474865781
 21
12.4619289088206
 31
0.0
  0
LINE
  5
155
330
6C
100
AcDbEntity
  8
Visible Narrow (ANSI)
100
AcDbLine
 10
24.33187065825544
 20
12.44056679522012
 30
0.0
 11
24.37614642132358
 21
12.46606351145296
 31
0.0
  0
ELLIPSE
  5
156
330
6C
100
AcDbEntity
  8
Visible (ANSI)
100
AcDbEllipse
 10
24.37614642132359
 20
12.55253484196511
 30
0.0
 11
0.0527822531483262
 21
-0.0916578634383895
 31
0.0
210
0.0
220
0.0
230
0.9999999999999998
 40
0.5780931159158092
 41
5.499720852204905
 42
5.852162707341697
  0
ELLIPSE
  5
157
330
6C
100
AcDbEntity
  8
Visible (ANSI)
100
AcDbEllipse
 10
24.33187065825545
 20
12.52703812573231
 30
0.0
 11
0.0527822531483449
 21
-0.0916578634384348
 31
0.0
210
0.0
220
0.0
230
1.0
 40
0.578093115915809
 41
5.499720852205251
 42
8.641313505795043
  0
LINE
  5
158
330
6C
100
AcDbEntity
  8
Visible (ANSI)
100
AcDbLine
 10
24.29477474865781
 20
12.63487156984499
 30
0.0
 11
24.33187065825545
 21
12.6135094562445
 31
0.0
  0
ELLIPSE
  5
159
330
6C
100
AcDbEntity
  8
Visible (ANSI)
100
AcDbEllipse
 10
24.33905051172594
 20
12.57389695556564
 30
0.0
 11
0.0527822531483559
 21
-0.0916578634384285
 31
0.0
210
0.0
220
0.0
230
1.0
 40
0.578093115915809
 41
3.572615253427381
 42
5.499720852204675
  0
ELLIPSE
  5
15A
330
6C
100
AcDbEntity
  8
Visible (ANSI)
100
AcDbEllipse
 10
24.29477474865781
 20
12.54840023933279
 30
0.0
 11
-0.0527822531483449
 21
0.0916578634384348
 31
0.0
210
0.0
220
0.0
230
1.0
 40
0.578093115915809
 41
5.499720852205251
 42
8.641313505795043
  0
LINE
  5
15B
330
6C
100
AcDbEntity
  8
Visible (ANSI)
100
AcDbLine
 10
20.97409251854664
 20
14.42517605874926
 30
0.0
 11
21.01118842814427
 21
14.40381394514877
 31
0.0
  0
LINE
  5
15C
330
6C
100
AcDbEntity
  8
Visible Narrow (ANSI)
100
AcDbLine
 10
20.9298167554785
 20
14.39967934251641
 30
0.0
 11
20.97409251854664
 21
14.42517605874926
 31
0.0
  0
LINE
  5
15D
330
6C
100
AcDbEntity
  8
Visible (ANSI)
100
AcDbLine
 10
20.96691266507614
 20
14.37831722891592
 30
0.0
 11
20.9298167554785
 21
14.39967934251641
 31
0.0
  0
LINE
  5
15E
330
6C
100
AcDbEntity
  8
Visible Narrow (ANSI)
100
AcDbLine
 10
20.96691266507614
 20
14.37831722891592
 30
0.0
 11
21.01118842814427
 21
14.40381394514877
 31
0.0
  0
ELLIPSE
  5
15F
330
6C
100
AcDbEntity
  8
Visible (ANSI)
100
AcDbEllipse
 10
21.01118842814428
 20
14.49028527566091
 30
0.0
 11
0.0527822531483227
 21
-0.0916578634383835
 31
0.0
210
0.0
220
0.0
230
1.0
 40
0.578093115915809
 41
5.499720852204905
 42
5.85216270734165
  0
ELLIPSE
  5
160
330
6C
100
AcDbEntity
  8
Visible (ANSI)
100
AcDbEllipse
 10
20.96691266507614
 20
14.46478855942811
 30
0.0
 11
0.0527822531483449
 21
-0.0916578634384348
 31
0.0
210
0.0
220
0.0
230
1.0
 40
0.578093115915809
 41
5.49972085220525
 42
8.641313505795043
  0
LINE
  5
161
330
6C
100
AcDbEntity
  8
Visible (ANSI)
100
AcDbLine
 10
20.9298167554785
 20
14.57262200354079
 30
0.0
 11
20.96691266507614
 21
14.5512598899403
 31
0.0
  0
ELLIPSE
  5
162
330
6C
100
AcDbEntity
  8
Visible (ANSI)
100
AcDbEllipse
 10
20.97409251854664
 20
14.51164738926145
 30
0.0
 11
0.052782253148356
 21
-0.0916578634384285
 31
0.0
210
0.0
220
0.0
230
1.0
 40
0.578093115915809
 41
3.572615253427381
 42
5.499720852204674
  0
ELLIPSE
  5
163
330
6C
100
AcDbEntity
  8
Visible (ANSI)
100
AcDbEllipse
 10
20.9298167554785
 20
14.4861506730286
 30
0.0
 11
-0.0527822531483449
 21
0.0916578634384348
 31
0.0
210
0.0
220
0.0
230
0.9999999999999998
 40
0.578093115915809
 41
5.49972085220525
 42
8.641313505795043
  0
LINE
  5
164
330
6C
100
AcDbEntity
  8
Visible (ANSI)
100
AcDbLine
 10
20.76109019892149
 20
9.092730232686777
 30
0.0
 11
20.7610901989215
 21
14.79983804649141
 31
0.0
  0
LINE
  5
165
330
6C
100
AcDbEntity
  8
Visible (ANSI)
100
AcDbLine
 10
20.80536596198963
 20
14.82533476272426
 30
0.0
 11
20.7610901989215
 21
14.79983804649141
 31
0.0
  0
LINE
  5
166
330
6C
100
AcDbEntity
  8
Visible (ANSI)
100
AcDbLine
 10
20.7610901989215
 20
14.79983804649141
 30
0.0
 11
24.50059721481245
 21
12.64639917547456
 31
0.0
  0
LINE
  5
167
330
6C
100
AcDbEntity
  8
Visible (ANSI)
100
AcDbLine
 10
24.54487297788058
 20
12.6718958917074
 30
0.0
 11
24.50059721481245
 21
12.64639917547456
 31
0.0
  0
LINE
  5
168
330
6C
100
AcDbEntity
  8
Visible (ANSI)
100
AcDbLine
 10
24.54487297788058
 20
12.6718958917074
 30
0.0
 11
20.80536596198963
 21
14.82533476272426
 31
0.0
  0
LINE
  5
169
330
6C
100
AcDbEntity
  8
Visible (ANSI)
100
AcDbLine
 10
24.50059721481245
 20
12.64639917547456
 30
0.0
 11
24.50059721481244
 21
6.939291361669923
 31
0.0
  0
LINE
  5
16A
330
6C
100
AcDbEntity
  8
Visible (ANSI)
100
AcDbLine
 10
24.54487297788057
 20
6.964788077902769
 30
0.0
 11
24.50059721481244
 21
6.939291361669923
 31
0.0
  0
LINE
  5
16B
330
6C
100
AcDbEntity
  8
Visible (ANSI)
100
AcDbLine
 10
24.54487297788057
 20
6.964788077902769
 30
0.0
 11
24.54487297788058
 21
12.6718958917074
 31
0.0
  0
LINE
  5
16C
330
6C
100
AcDbEntity
  8
Visible (ANSI)
100
AcDbLine
 10
24.50059721481244
 20
6.939291361669923
 30
0.0
 11
20.76109019892149
 21
9.092730232686777
 31
0.0
  0
DIMENSION
  5
16D
330
6C
100
AcDbEntity
  8
Dimension (ANSI)
100
AcDbDimension
  2
*D4
 10
16.88523800083467
 20
13.28913750968121
 30
0.0
 11
15.53786714219867
 21
13.28913750968121
 31
0.0
 70
   160
  1
{14 GA. C.R.S\P}(<>)
 71
     5
 42
0.0740000000000016
  3
Default (ANSI)
100
AcDbAlignedDimension
 13
16.81123800083467
 23
12.82688171068889
 33
0.0
 14
16.88523800083467
 24
12.82688171068889
 34
0.0
 50
180.0
100
AcDbRotatedDimension
1001
ACAD
1000
DSTYLE
1002
{
1070
   289
1070
     1
1070
    73
1070
     0
1070
    74
1070
     0
1070
   271
1070
     3
1070
   147
1040
0.031496062992126
1070
    72
1070
     0
1070
    71
1070
     0
1070
   272
1070
     2
1070
    48
1040
0.0
1070
    47
1040
0.0
1002
}
  0
DIMENSION
  5
277
330
6C
100
AcDbEntity
  8
Dimension (ANSI)
100
AcDbDimension
  2
*D5
 10
5.430081935686818
 20
12.82688171068889
 30
0.0
 11
5.430081935686816
 21
8.701881710688892
 31
0.0
 70
   160
  1
<>
 42
8.25
  3
Default (ANSI)
100
AcDbAlignedDimension
 13
6.223272932593575
 23
4.576881710688893
 33
0.0
 14
6.223272932593573
 24
12.82688171068889
 34
0.0
 50
90.0
100
AcDbRotatedDimension
1001
ACAD
1000
DSTYLE
1002
{
1070
   289
1070
     1
1070
   271
1070
     2
1070
   272
1070
     2
1070
    48
1040
0.0
1070
    47
1040
0.0
1002
}
  0
DIMENSION
  5
361
330
6C
100
AcDbEntity
  8
Dimension (ANSI)
100
AcDbDimension
  2
*D6
 10
12.47327293259357
 20
13.79599134121584
 30
0.0
 11
9.348272932593573
 21
13.79599134121584
 31
0.0
 70
   160
  1
<>
 42
6.25
  3
Default (ANSI)
100
AcDbAlignedDimension
 13
6.223272932593573
 23
12.82688171068889
 33
0.0
 14
12.47327293259357
 24
12.82688171068889
 34
0.0
 50
180.0
100
AcDbRotatedDimension
1001
ACAD
1000
DSTYLE
1002
{
1070
   289
1070
     1
1070
    73
1070
     0
1070
    74
1070
     0
1070
   271
1070
     2
1070
   272
1070
     2
1070
    48
1040
0.0
1070
    47
1040
0.0
1002
}
  0
LINE
  5
44B
330
6C
100
AcDbEntity
  8
Centerline (ANSI)
  6
CHAIN
 48
0.8134612441062927
100
AcDbLine
 10
6.536272932593571
 20
12.73503555684273
 30
0.0
 11
6.536272932593574
 21
4.668727864535046
 31
0.0
  0
LINE
  5
44C
330
6C
100
AcDbEntity
  8
Centerline (ANSI)
  6
CHAIN
 48
0.8134612441062927
100
AcDbLine
 10
6.187965240285882
 20
4.889881710688894
 30
0.0
 11
12.50858062490127
 21
4.889881710688894
 31
0.0
  0
LINE
  5
44D
330
6C
100
AcDbEntity
  8
Centerline (ANSI)
  6
CHAIN
 48
0.8134612441062927
100
AcDbLine
 10
12.16027293259357
 20
12.73503555684273
 30
0.0
 11
12.16027293259357
 21
4.668727864535046
 31
0.0
  0
LINE
  5
44E
330
6C
100
AcDbEntity
  8
Centerline (ANSI)
  6
CHAIN
 48
0.8134612441062927
100
AcDbLine
 10
12.50858062490126
 20
12.51388171068889
 30
0.0
 11
6.187965240285879
 21
12.51388171068889
 31
0.0
  0
LINE
  5
44F
330
6C
100
AcDbEntity
  8
Center Mark (ANSI)
  6
CHAIN
 48
0.2290541976690292
100
AcDbLine
 10
7.853580624901267
 20
4.889881710688893
 30
0.0
 11
7.218965240285882
 21
4.889881710688893
 31
0.0
  0
LINE
  5
450
330
6C
100
AcDbEntity
  8
Center Mark (ANSI)
  6
CHAIN
 48
0.2290541976690292
100
AcDbLine
 10
7.536272932593575
 20
5.207189402996585
 30
0.0
 11
7.536272932593575
 21
4.5725740183812
 31
0.0
  0
DIMENSION
  5
451
330
6C
100
AcDbEntity
  8
Dimension (ANSI)
100
AcDbDimension
  2
*D7
 10
7.438151189068236
 20
4.96732280732077
 30
0.0
 11
9.970249027816816
 21
3.826950335248648
 31
0.0
 70
   163
  1
<>{\PGROUND HOLE}
 71
     5
 42
0.25
  3
Default (ANSI)
100
AcDbDiametricDimension
 15
7.634394676118914
 25
4.812440614057015
 35
0.0
 40
0.0
1001
ACAD
1000
DSTYLE
1002
{
1070
   144
1040
0.9999999999999946
1070
   271
1070
     3
1070
   272
1070
     2
1070
    48
1040
0.0
1070
    47
1040
0.0
1002
}
1001
ACAD_DSTYLE_DIMRADIAL_EXTENSION
1070
   387
1070
     1
1070
   388
1040
0.0
1070
   390
1040
0.0
  0
DIMENSION
  5
50C
330
6C
100
AcDbEntity
  8
Dimension (ANSI)
100
AcDbDimension
  2
*D8
 10
6.536272932593574
 20
3.470114649591749
 30
0.0
 11
8.154922008232816
 21
3.470114649591749
 31
0.0
 70
   160
  1
<>
 42
1.0
  3
Default (ANSI)
100
AcDbAlignedDimension
 13
7.536272932593575
 23
4.5725740183812
 33
0.0
 14
6.536272932593574
 24
4.668727864535046
 34
0.0
 50
180.0
100
AcDbRotatedDimension
1001
ACAD
1000
DSTYLE
1002
{
1070
   289
1070
     2
1070
    73
1070
     0
1070
    74
1070
     0
1070
   271
1070
     3
1070
   272
1070
     3
1070
    48
1040
0.0
1070
    47
1040
0.0
1002
}
  0
DIMENSION
  5
5F6
330
6C
100
AcDbEntity
  8
Dimension (ANSI)
100
AcDbDimension
  2
*D9
 10
12.47327293259357
 20
3.972935705940041
 30
0.0
 11
13.12790730480606
 21
3.972935705940041
 31
0.0
 70
   160
  1
<>{\PTYP.}
 71
     5
 42
0.3130000000000024
  3
Default (ANSI)
100
AcDbAlignedDimension
 13
12.16027293259357
 23
4.668727864535046
 33
0.0
 14
12.47327293259357
 24
4.576881710688893
 34
0.0
 50
180.0
100
AcDbRotatedDimension
1001
ACAD
1000
DSTYLE
1002
{
1070
   289
1070
     1
1070
    73
1070
     0
1070
    74
1070
     0
1070
   271
1070
     3
1070
   272
1070
     3
1070
    48
1040
0.0
1070
    47
1040
0.0
1002
}
  0
DIMENSION
  5
6F4
330
6C
100
AcDbEntity
  8
Dimension (ANSI)
100
AcDbDimension
  2
*D10
 10
12.54624273201387
 20
4.576881710688893
 30
0.0
 11
13.04945372788622
 21
5.538660069643877
 31
0.0
 70
   160
  1
<>{\PTYP.}
 71
     5
 42
0.3130000000000006
  3
Default (ANSI)
100
AcDbAlignedDimension
 13
12.50858062490127
 23
4.889881710688894
 33
0.0
 14
12.47327293259357
 24
4.576881710688893
 34
0.0
 50
90.0
100
AcDbRotatedDimension
1001
ACAD
1000
DSTYLE
1002
{
1070
   289
1070
     1
1070
   271
1070
     3
1070
   272
1070
     3
1070
    48
1040
0.0
1070
    47
1040
0.0
1002
}
  0
MTEXT
  5
808
102
{ACAD_REACTORS
330
809
102
}
330
6C
100
AcDbEntity
  8
Symbol (ANSI)
100
AcDbMText
 10
13.30978551494539
 20
11.6748029284626
 30
0.0
 40
0.1846153868970403
 41
1.290961224551925
 71
     4
 72
     1
  1
{.250 X .312\POBROUND\P(4 PL.)}
  7
Note Text (ANSI)
 73
     2
 44
0.9878841638565063
  0
LEADER
  5
809
330
6C
100
AcDbEntity
  8
Symbol (ANSI)
100
AcDbLeader
  3
Default (ANSI)$7
 73
     0
 74
     0
 75
     1
 40
0.8540825729288139
 41
1.256847659424976
 76
     3
 10
12.30000576300644
 20
12.45221995925086
 30
0.0
 10
13.10990665707891
 20
11.6748029284626
 30
0.0
 10
13.26133003341904
 20
11.6748029284626
 30
0.0
340
808
1001
ACAD
1000
DSTYLE
1002
{
1070
    77
1070
     0
1002
}
  0
MTEXT
  5
80A
102
{ACAD_XDICTIONARY
360
816
102
}
330
6C
100
AcDbEntity
  8
Symbol (ANSI)
100
AcDbMText
 10
14.51954549825904
 20
1.482011295120288
 30
0.0
 40
0.1538461587560458
 41
11.35905708853654
 71
     4
 72
     1
  3
{\fRomanS|b0|i0|c0|p2;\H2x;PART#: N1P0810\P(DATA SUBJECT TO CHANGE WITHOUT NOTICE)\H1.6157x; \H0.61894x;\P \H1.352x; \H0.73963x;\P\H0.59994x;THIS DRAWING IS PROPERTY OF HUBBELL INC. WIEGMANN\H1.5634x; \H0.63964x;\PALL INFORMATION IS PROPRIETARY AND N
  1
OT TO BE DUPLICATED\H1.234x; \H0.8104x;\P\H1.2571x; }
  7
Note Text (ANSI)
 73
     1
 44
0.8026435375213623
  0
ENDSEC
  0
SECTION
  2
OBJECTS
  0
DICTIONARY
  5
C
330
0
100
AcDbDictionary
281
     1
  3
ACAD_CIP_PREVIOUS_PRODUCT_INFO
350
80C
  3
ACAD_COLOR
350
63
  3
ACAD_GROUP
350
D
  3
ACAD_LAYOUT
350
62
  3
ACAD_MATERIAL
350
10
  3
ACAD_MLEADERSTYLE
350
66
  3
ACAD_MLINESTYLE
350
5F
  3
ACAD_PLOTSETTINGS
350
61
  3
ACAD_PLOTSTYLENAME
350
E
  3
ACAD_SCALELIST
350
42
  3
ACAD_TABLESTYLE
350
64
  3
ACAD_VISUALSTYLE
350
29
  3
ACDB_RECOMPOSE_DATA
350
818
  3
AcDbVariableDictionary
350
76
  0
DICTIONARY
  5
84E
330
506
100
AcDbDictionary
280
     1
281
     1
  3
ACAD_MTEXT_2008_RT
360
84F
  0
DICTIONARY
  5
816
330
80A
100
AcDbDictionary
280
     1
281
     1
  3
ACAD_MTEXT_2008_RT
360
817
  0
XRECORD
  5
80C
102
{ACAD_REACTORS
330
C
102
}
330
C
100
AcDbXrecord
280
     1
300
INVPROSA
300
2012
300
INVPROSA_F_S
  0
DICTIONARY
  5
63
102
{ACAD_REACTORS
330
C
102
}
330
C
100
AcDbDictionary
281
     1
  0
DICTIONARY
  5
D
102
{ACAD_REACTORS
330
C
102
}
330
C
100
AcDbDictionary
281
     1
  0
DICTIONARY
  5
62
102
{ACAD_REACTORS
330
C
102
}
330
C
100
AcDbDictionary
281
     1
  3
Layout1
350
6B
  3
Layout2
350
73
  3
Model
350
6F
  0
DICTIONARY
  5
10
102
{ACAD_REACTORS
330
C
102
}
330
C
100
AcDbDictionary
281
     1
  3
ByBlock
350
19
  3
ByLayer
350
11
  3
Global
350
21
  0
DICTIONARY
  5
66
102
{ACAD_REACTORS
330
C
102
}
330
C
100
AcDbDictionary
281
     1
  3
Standard
350
67
  0
DICTIONARY
  5
5F
102
{ACAD_REACTORS
330
C
102
}
330
C
100
AcDbDictionary
281
     1
  3
Standard
350
60
  0
DICTIONARY
  5
61
102
{ACAD_REACTORS
330
C
102
}
330
C
100
AcDbDictionary
281
     1
  0
ACDBDICTIONARYWDFLT
  5
E
102
{ACAD_REACTORS
330
C
102
}
330
C
100
AcDbDictionary
281
     1
  3
Normal
350
F
100
AcDbDictionaryWithDefault
340
F
  0
DICTIONARY
  5
42
102
{ACAD_REACTORS
330
C
102
}
330
C
100
AcDbDictionary
281
     1
  3
A0
350
43
  3
A1
350
44
  3
A2
350
45
  3
A3
350
46
  3
A4
350
47
  3
A5
350
48
  3
A6
350
49
  3
A7
350
4A
  3
A8
350
4B
  3
A9
350
4C
  3
B0
350
4D
  3
B1
350
4E
  3
B2
350
4F
  3
B3
350
50
  3
B4
350
51
  3
B5
350
52
  3
B6
350
53
  0
DICTIONARY
  5
64
102
{ACAD_REACTORS
330
C
102
}
330
C
100
AcDbDictionary
281
     1
  3
Standard
350
65
  0
DICTIONARY
  5
29
102
{ACAD_REACTORS
330
C
102
}
330
C
100
AcDbDictionary
281
     1
  3
2dWireframe
350
2F
  3
Basic
350
2E
  3
Brighten
350
35
  3
ColorChange
350
39
  3
Conceptual
350
32
  3
Dim
350
34
  3
EdgeColorOff
350
41
  3
Facepattern
350
38
  3
Flat
350
2A
  3
FlatWithEdges
350
2B
  3
Gouraud
350
2C
  3
GouraudWithEdges
350
2D
  3
Hidden
350
31
  3
JitterOff
350
3F
  3
Linepattern
350
37
  3
OverhangOff
350
40
  3
Realistic
350
33
  3
Shaded
350
3E
  3
Shaded with edges
350
3D
  3
Shades of Gray
350
3A
  3
Sketchy
350
3B
  3
Thicken
350
36
  3
Wireframe
350
30
  3
X-Ray
350
3C
  0
XRECORD
  5
818
102
{ACAD_REACTORS
330
C
102
}
330
C
100
AcDbXrecord
280
     1
 90
        1
330
65
330
50C
330
80A
  0
DICTIONARY
  5
76
102
{ACAD_REACTORS
330
C
102
}
330
C
100
AcDbDictionary
281
     1
  3
CANNOSCALE
350
79
  3
CMLEADERSTYLE
350
78
  3
CTABLESTYLE
350
77
  3
LAYEREVAL
350
80F
  3
LAYERNOTIFY
350
810
  3
LIGHTINGUNITS
350
80E
  3
MSLTSCALE
350
80D
  3
XCLIPFRAME
350
811
  0
XRECORD
  5
84F
102
{ACAD_REACTORS
330
84E
102
}
330
84E
100
AcDbXrecord
280
     1
 40
36037.0
  1
\A1;\U+22050.250{\PGROUND HOLE}
  0
XRECORD
  5
817
102
{ACAD_REACTORS
330
816
102
}
330
816
100
AcDbXrecord
280
     1
 40
3105291.0
  1
\pxsm0.94;{\fRomanS|b0|i0;\H0.3077;PART#: N1P0810\P(DATA SUBJECT TO CHANGE WITHOUT NOTICE)\P \P\fRomanS|b0|i0;\H0.1846;THIS DRAWING IS PROPERTY OF HUBBELL INC. WIEGMANN\PALL INFORMATION IS PROPRIETARY AND NOT TO BE DUPLICATED\P}
  0
LAYOUT
  5
6B
102
{ACAD_REACTORS
330
62
102
}
330
62
100
AcDbPlotSettings
  1

  2

  4

  6

 40
0.0
 41
0.0
 42
0.0
 43
0.0
 44
0.0
 45
0.0
 46
0.0
 47
0.0
 48
0.0
 49
0.0
140
0.0
141
0.0
142
1.0
143
1.0
 70
   688
 72
     0
 73
     0
 74
     5
  7

 75
    16
147
1.0
 76
     0
 77
     2
 78
   300
148
0.0
149
0.0
100
AcDbLayout
  1
Layout1
 70
     1
 71
     1
 10
0.0
 20
0.0
 11
12.0
 21
9.0
 12
0.0
 22
0.0
 32
0.0
 14
0.0
 24
0.0
 34
0.0
 15
0.0
 25
0.0
 35
0.0
146
0.0
 13
0.0
 23
0.0
 33
0.0
 16
1.0
 26
0.0
 36
0.0
 17
0.0
 27
1.0
 37
0.0
 76
     0
330
68
  0
LAYOUT
  5
73
102
{ACAD_REACTORS
330
62
102
}
330
62
100
AcDbPlotSettings
  1

  2

  4

  6

 40
0.0
 41
0.0
 42
0.0
 43
0.0
 44
0.0
 45
0.0
 46
0.0
 47
0.0
 48
0.0
 49
0.0
140
0.0
141
0.0
142
1.0
143
1.0
 70
   688
 72
     0
 73
     0
 74
     5
  7

 75
    16
147
1.0
 76
     0
 77
     2
 78
   300
148
0.0
149
0.0
100
AcDbLayout
  1
Layout2
 70
     1
 71
     2
 10
0.0
 20
0.0
 11
12.0
 21
9.0
 12
0.0
 22
0.0
 32
0.0
 14
0.0
 24
0.0
 34
0.0
 15
0.0
 25
0.0
 35
0.0
146
0.0
 13
0.0
 23
0.0
 33
0.0
 16
1.0
 26
0.0
 36
0.0
 17
0.0
 27
1.0
 37
0.0
 76
     0
330
70
  0
LAYOUT
  5
6F
102
{ACAD_REACTORS
330
62
102
}
330
62
100
AcDbPlotSettings
  1

  2

  4

  6

 40
0.0
 41
0.0
 42
0.0
 43
0.0
 44
0.0
 45
0.0
 46
0.0
 47
0.0
 48
0.0
 49
0.0
140
0.0
141
0.0
142
1.0
143
1.0
 70
  1712
 72
     0
 73
     0
 74
     0
  7

 75
     0
147
1.0
 76
     0
 77
     2
 78
   300
148
0.0
149
0.0
100
AcDbLayout
  1
Model
 70
     1
 71
     0
 10
0.0
 20
0.0
 11
12.0
 21
9.0
 12
0.0
 22
0.0
 32
0.0
 14
0.0
 24
0.0
 34
0.0
 15
0.0
 25
0.0
 35
0.0
146
0.0
 13
0.0
 23
0.0
 33
0.0
 16
1.0
 26
0.0
 36
0.0
 17
0.0
 27
1.0
 37
0.0
 76
     0
330
6C
  0
MATERIAL
  5
19
102
{ACAD_XDICTIONARY
360
1A
102
}
102
{ACAD_REACTORS
330
10
102
}
330
10
100
AcDbMaterial
  1
ByBlock
 72
     0
 43
0.0208333333333333
 43
0.0
 43
0.0
 43
0.0
 43
0.0
 43
0.0208333333333333
 43
0.0
 43
0.0
 43
0.0
 43
0.0
 43
1.0
 43
0.0
 43
0.0
 43
0.0
 43
0.0
 43
1.0
 77
     0
 47
0.0208333333333333
 47
0.0
 47
0.0
 47
0.0
 47
0.0
 47
0.0208333333333333
 47
0.0
 47
0.0
 47
0.0
 47
0.0
 47
1.0
 47
0.0
 47
0.0
 47
0.0
 47
0.0
 47
1.0
171
     0
 49
0.0208333333333333
 49
0.0
 49
0.0
 49
0.0
 49
0.0
 49
0.0208333333333333
 49
0.0
 49
0.0
 49
0.0
 49
0.0
 49
1.0
 49
0.0
 49
0.0
 49
0.0
 49
0.0
 49
1.0
175
     0
142
0.0208333333333333
142
0.0
142
0.0
142
0.0
142
0.0
142
0.0208333333333333
142
0.0
142
0.0
142
0.0
142
0.0
142
1.0
142
0.0
142
0.0
142
0.0
142
0.0
142
1.0
179
     0
144
0.0208333333333333
144
0.0
144
0.0
144
0.0
144
0.0
144
0.0208333333333333
144
0.0
144
0.0
144
0.0
144
0.0
144
1.0
144
0.0
144
0.0
144
0.0
144
0.0
144
1.0
147
0.0208333333333333
147
0.0
147
0.0
147
0.0
147
0.0
147
0.0208333333333333
147
0.0
147
0.0
147
0.0
147
0.0
147
1.0
147
0.0
147
0.0
147
0.0
147
0.0
147
1.0
  0
MATERIAL
  5
11
102
{ACAD_XDICTIONARY
360
12
102
}
102
{ACAD_REACTORS
330
10
102
}
330
10
100
AcDbMaterial
  1
ByLayer
 72
     0
 43
0.0208333333333333
 43
0.0
 43
0.0
 43
0.0
 43
0.0
 43
0.0208333333333333
 43
0.0
 43
0.0
 43
0.0
 43
0.0
 43
1.0
 43
0.0
 43
0.0
 43
0.0
 43
0.0
 43
1.0
 77
     0
 47
0.0208333333333333
 47
0.0
 47
0.0
 47
0.0
 47
0.0
 47
0.0208333333333333
 47
0.0
 47
0.0
 47
0.0
 47
0.0
 47
1.0
 47
0.0
 47
0.0
 47
0.0
 47
0.0
 47
1.0
171
     0
 49
0.0208333333333333
 49
0.0
 49
0.0
 49
0.0
 49
0.0
 49
0.0208333333333333
 49
0.0
 49
0.0
 49
0.0
 49
0.0
 49
1.0
 49
0.0
 49
0.0
 49
0.0
 49
0.0
 49
1.0
175
     0
142
0.0208333333333333
142
0.0
142
0.0
142
0.0
142
0.0
142
0.0208333333333333
142
0.0
142
0.0
142
0.0
142
0.0
142
1.0
142
0.0
142
0.0
142
0.0
142
0.0
142
1.0
179
     0
144
0.0208333333333333
144
0.0
144
0.0
144
0.0
144
0.0
144
0.0208333333333333
144
0.0
144
0.0
144
0.0
144
0.0
144
1.0
144
0.0
144
0.0
144
0.0
144
0.0
144
1.0
147
0.0208333333333333
147
0.0
147
0.0
147
0.0
147
0.0
147
0.0208333333333333
147
0.0
147
0.0
147
0.0
147
0.0
147
1.0
147
0.0
147
0.0
147
0.0
147
0.0
147
1.0
  0
MATERIAL
  5
21
102
{ACAD_XDICTIONARY
360
22
102
}
102
{ACAD_REACTORS
330
10
102
}
330
10
100
AcDbMaterial
  1
Global
 72
     0
 43
0.0208333333333333
 43
0.0
 43
0.0
 43
0.0
 43
0.0
 43
0.0208333333333333
 43
0.0
 43
0.0
 43
0.0
 43
0.0
 43
1.0
 43
0.0
 43
0.0
 43
0.0
 43
0.0
 43
1.0
 77
     0
 47
0.0208333333333333
 47
0.0
 47
0.0
 47
0.0
 47
0.0
 47
0.0208333333333333
 47
0.0
 47
0.0
 47
0.0
 47
0.0
 47
1.0
 47
0.0
 47
0.0
 47
0.0
 47
0.0
 47
1.0
171
     0
 49
0.0208333333333333
 49
0.0
 49
0.0
 49
0.0
 49
0.0
 49
0.0208333333333333
 49
0.0
 49
0.0
 49
0.0
 49
0.0
 49
1.0
 49
0.0
 49
0.0
 49
0.0
 49
0.0
 49
1.0
175
     0
142
0.0208333333333333
142
0.0
142
0.0
142
0.0
142
0.0
142
0.0208333333333333
142
0.0
142
0.0
142
0.0
142
0.0
142
1.0
142
0.0
142
0.0
142
0.0
142
0.0
142
1.0
179
     0
144
0.0208333333333333
144
0.0
144
0.0
144
0.0
144
0.0
144
0.0208333333333333
144
0.0
144
0.0
144
0.0
144
0.0
144
1.0
144
0.0
144
0.0
144
0.0
144
0.0
144
1.0
147
0.0208333333333333
147
0.0
147
0.0
147
0.0
147
0.0
147
0.0208333333333333
147
0.0
147
0.0
147
0.0
147
0.0
147
1.0
147
0.0
147
0.0
147
0.0
147
0.0
147
1.0
  0
MLEADERSTYLE
  5
67
102
{ACAD_XDICTIONARY
360
814
102
}
102
{ACAD_REACTORS
330
66
102
}
330
66
100
AcDbMLeaderStyle
170
     2
171
     1
172
     0
 90
        2
 40
0.0
 41
0.0
173
     1
 91
-1056964608
340
5B
 92
       -2
290
     1
 42
0.09
291
     1
 43
0.36
  3
Standard
 44
0.18
300

342
55
174
     1
178
     6
175
     1
176
     0
 93
-1056964608
 45
0.18
292
     0
297
     0
 46
0.18
 94
-1056964608
 47
1.0
 49
1.0
140
1.0
293
     1
141
0.0
294
     1
177
     0
142
1.0
295
     0
296
     0
143
0.125
1001
ACAD_MLEADERVER
1070
     2
  0
MLINESTYLE
  5
60
102
{ACAD_REACTORS
330
5F
102
}
330
5F
100
AcDbMlineStyle
  2
STANDARD
 70
     0
  3

 62
   256
 51
90.0
 52
90.0
 71
     2
 49
0.5
 62
   256
  6
BYLAYER
 49
-0.5
 62
   256
  6
BYLAYER
  0
ACDBPLACEHOLDER
  5
F
102
{ACAD_REACTORS
330
E
102
}
330
E
  0
SCALE
  5
43
102
{ACAD_REACTORS
330
42
102
}
330
42
100
AcDbScale
 70
     0
300
1:1
140
1.0
141
1.0
290
     1
  0
SCALE
  5
44
102
{ACAD_REACTORS
330
42
102
}
330
42
100
AcDbScale
 70
     0
300
1/128" = 1'-0"
140
0.0078125
141
12.0
290
     0
  0
SCALE
  5
45
102
{ACAD_REACTORS
330
42
102
}
330
42
100
AcDbScale
 70
     0
300
1/64" = 1'-0"
140
0.015625
141
12.0
290
     0
  0
SCALE
  5
46
102
{ACAD_REACTORS
330
42
102
}
330
42
100
AcDbScale
 70
     0
300
1/32" = 1'-0"
140
0.03125
141
12.0
290
     0
  0
SCALE
  5
47
102
{ACAD_REACTORS
330
42
102
}
330
42
100
AcDbScale
 70
     0
300
1/16" = 1'-0"
140
0.0625
141
12.0
290
     0
  0
SCALE
  5
48
102
{ACAD_REACTORS
330
42
102
}
330
42
100
AcDbScale
 70
     0
300
3/32" = 1'-0"
140
0.09375
141
12.0
290
     0
  0
SCALE
  5
49
102
{ACAD_REACTORS
330
42
102
}
330
42
100
AcDbScale
 70
     0
300
1/8" = 1'-0"
140
0.125
141
12.0
290
     0
  0
SCALE
  5
4A
102
{ACAD_REACTORS
330
42
102
}
330
42
100
AcDbScale
 70
     0
300
3/16" = 1'-0"
140
0.1875
141
12.0
290
     0
  0
SCALE
  5
4B
102
{ACAD_REACTORS
330
42
102
}
330
42
100
AcDbScale
 70
     0
300
1/4" = 1'-0"
140
0.25
141
12.0
290
     0
  0
SCALE
  5
4C
102
{ACAD_REACTORS
330
42
102
}
330
42
100
AcDbScale
 70
     0
300
3/8" = 1'-0"
140
0.375
141
12.0
290
     0
  0
SCALE
  5
4D
102
{ACAD_REACTORS
330
42
102
}
330
42
100
AcDbScale
 70
     0
300
1/2" = 1'-0"
140
0.5
141
12.0
290
     0
  0
SCALE
  5
4E
102
{ACAD_REACTORS
330
42
102
}
330
42
100
AcDbScale
 70
     0
300
3/4" = 1'-0"
140
0.75
141
12.0
290
     0
  0
SCALE
  5
4F
102
{ACAD_REACTORS
330
42
102
}
330
42
100
AcDbScale
 70
     0
300
1" = 1'-0"
140
1.0
141
12.0
290
     0
  0
SCALE
  5
50
102
{ACAD_REACTORS
330
42
102
}
330
42
100
AcDbScale
 70
     0
300
1-1/2" = 1'-0"
140
1.5
141
12.0
290
     0
  0
SCALE
  5
51
102
{ACAD_REACTORS
330
42
102
}
330
42
100
AcDbScale
 70
     0
300
3" = 1'-0"
140
3.0
141
12.0
290
     0
  0
SCALE
  5
52
102
{ACAD_REACTORS
330
42
102
}
330
42
100
AcDbScale
 70
     0
300
6" = 1'-0"
140
6.0
141
12.0
290
     0
  0
SCALE
  5
53
102
{ACAD_REACTORS
330
42
102
}
330
42
100
AcDbScale
 70
     0
300
1'-0" = 1'-0"
140
12.0
141
12.0
290
     0
  0
TABLESTYLE
  5
65
102
{ACAD_XDICTIONARY
360
812
102
}
102
{ACAD_REACTORS
330
64
102
}
330
64
100
AcDbTableStyle
  3
Standard
 70
     0
 71
     0
 40
0.06
 41
0.06
280
     0
281
     0
  7
Standard
140
0.18
170
     2
 62
     0
 63
     7
283
     0
274
    -2
284
     1
 64
     0
275
    -2
285
     1
 65
     0
276
    -2
286
     1
 66
     0
277
    -2
287
     1
 67
     0
278
    -2
288
     1
 68
     0
279
    -2
289
     1
 69
     0
  7
Standard
140
0.25
170
     5
 62
     0
 63
     7
283
     0
274
    -2
284
     1
 64
     0
275
    -2
285
     1
 65
     0
276
    -2
286
     1
 66
     0
277
    -2
287
     1
 67
     0
278
    -2
288
     1
 68
     0
279
    -2
289
     1
 69
     0
  7
Standard
140
0.18
170
     5
 62
     0
 63
     7
283
     0
274
    -2
284
     1
 64
     0
275
    -2
285
     1
 65
     0
276
    -2
286
     1
 66
     0
277
    -2
287
     1
 67
     0
278
    -2
288
     1
 68
     0
279
    -2
289
     1
 69
     0
  0
VISUALSTYLE
  5
2F
102
{ACAD_XDICTIONARY
360
826
102
}
102
{ACAD_REACTORS
330
29
102
}
330
29
100
AcDbVisualStyle
  2
2dWireframe
 70
     4
 71
     0
 72
     2
 73
     0
 90
        0
 40
-0.6
 41
-30.0
 62
     5
 63
     7
421
 16777215
 74
     1
 91
        4
 64
     7
 65
   257
 75
     1
175
     1
 42
1.0
 92
        0
 66
   257
 43
1.0
 76
     1
 77
     6
 78
     2
 67
     7
 79
     5
170
     0
171
     0
290
     0
174
     0
 93
        1
 44
0.0
173
     0
291
     0
 45
0.0
1001
ACAD
1000
AcDbSavedByObjectVersion
1070
     0
  0
VISUALSTYLE
  5
2E
102
{ACAD_XDICTIONARY
360
824
102
}
102
{ACAD_REACTORS
330
29
102
}
330
29
100
AcDbVisualStyle
  2
Basic
 70
     7
 71
     1
 72
     0
 73
     1
 90
        0
 40
-0.6
 41
-30.0
 62
     5
 63
     7
421
 16777215
 74
     0
 91
        4
 64
     7
 65
   257
 75
     1
175
     1
 42
1.0
 92
        8
 66
     7
 43
1.0
 76
     1
 77
     6
 78
     2
 67
     7
 79
     5
170
     0
171
     0
290
     0
174
     0
 93
        1
 44
0.0
173
     0
291
     1
 45
0.0
1001
ACAD
1000
AcDbSavedByObjectVersion
1070
     0
  0
VISUALSTYLE
  5
35
102
{ACAD_XDICTIONARY
360
832
102
}
102
{ACAD_REACTORS
330
29
102
}
330
29
100
AcDbVisualStyle
  2
Brighten
 70
    12
 71
     2
 72
     2
 73
     0
 90
        0
 40
-0.6
 41
-30.0
 62
     5
 63
     7
421
 16777215
 74
     1
 91
        4
 64
     7
 65
   257
 75
     1
175
     1
 42
1.0
 92
        8
 66
     7
 43
1.0
 76
     1
 77
     6
 78
     2
 67
     7
 79
     5
170
     0
171
     0
290
     0
174
     0
 93
        1
 44
50.0
173
     0
291
     1
 45
0.0
1001
ACAD
1000
AcDbSavedByObjectVersion
1070
     0
  0
VISUALSTYLE
  5
39
102
{ACAD_XDICTIONARY
360
83A
102
}
102
{ACAD_REACTORS
330
29
102
}
330
29
100
AcDbVisualStyle
  2
ColorChange
 70
    16
 71
     2
 72
     2
 73
     3
 90
        0
 40
-0.6
 41
-30.0
 62
     5
 63
     8
421
  8421504
 74
     1
 91
        4
 64
     7
 65
   257
 75
     1
175
     1
 42
1.0
 92
        8
 66
     8
424
  8421504
 43
1.0
 76
     1
 77
     6
 78
     2
 67
     7
 79
     5
170
     0
171
     0
290
     0
174
     0
 93
        1
 44
0.0
173
     0
291
     1
 45
0.0
1001
ACAD
1000
AcDbSavedByObjectVersion
1070
     0
  0
VISUALSTYLE
  5
32
102
{ACAD_XDICTIONARY
360
82C
102
}
102
{ACAD_REACTORS
330
29
102
}
330
29
100
AcDbVisualStyle
  2
Conceptual
 70
     9
 71
     3
 72
     2
 73
     0
 90
        0
 40
-0.6
 41
-30.0
 62
     5
 63
     7
421
 16777215
 74
     2
 91
        2
 64
     7
 65
   257
 75
     1
175
     1
 42
179.0
 92
        8
 66
     7
 43
1.0
 76
     1
 77
     6
 78
     2
 67
     7
 79
     3
170
     0
171
     0
290
     0
174
     0
 93
        1
 44
0.0
173
     0
291
     0
 45
0.0
1001
ACAD
1000
AcDbSavedByObjectVersion
1070
     0
  0
VISUALSTYLE
  5
34
102
{ACAD_XDICTIONARY
360
830
102
}
102
{ACAD_REACTORS
330
29
102
}
330
29
100
AcDbVisualStyle
  2
Dim
 70
    11
 71
     2
 72
     2
 73
     0
 90
        0
 40
-0.6
 41
-30.0
 62
     5
 63
     7
421
 16777215
 74
     1
 91
        4
 64
     7
 65
   257
 75
     1
175
     1
 42
1.0
 92
        8
 66
     7
 43
1.0
 76
     1
 77
     6
 78
     2
 67
     7
 79
     5
170
     0
171
     0
290
     0
174
     0
 93
        1
 44
-50.0
173
     0
291
     1
 45
0.0
1001
ACAD
1000
AcDbSavedByObjectVersion
1070
     0
  0
VISUALSTYLE
  5
41
102
{ACAD_XDICTIONARY
360
84A
102
}
102
{ACAD_REACTORS
330
29
102
}
330
29
100
AcDbVisualStyle
  2
EdgeColorOff
 70
    22
 71
     2
 72
     2
 73
     0
 90
        0
 40
-0.6
 41
-30.0
 62
     5
 63
     7
421
 16777215
 74
     1
 91
        4
 64
     7
 65
   257
 75
     1
175
     1
 42
1.0
 92
        8
 66
     7
 43
1.0
 76
     1
 77
     6
 78
     2
 67
     7
 79
     5
170
     0
171
     0
290
     0
174
     0
 93
        1
 44
0.0
173
     0
291
     1
 45
0.0
1001
ACAD
1000
AcDbSavedByObjectVersion
1070
     0
  0
VISUALSTYLE
  5
38
102
{ACAD_XDICTIONARY
360
838
102
}
102
{ACAD_REACTORS
330
29
102
}
330
29
100
AcDbVisualStyle
  2
Facepattern
 70
    15
 71
     2
 72
     2
 73
     0
 90
        0
 40
-0.6
 41
-30.0
 62
     5
 63
     7
421
 16777215
 74
     1
 91
        4
 64
     7
 65
   257
 75
     1
175
     1
 42
1.0
 92
        8
 66
     7
 43
1.0
 76
     1
 77
     6
 78
     2
 67
     7
 79
     5
170
     0
171
     0
290
     0
174
     0
 93
        1
 44
0.0
173
     0
291
     1
 45
0.0
1001
ACAD
1000
AcDbSavedByObjectVersion
1070
     0
  0
VISUALSTYLE
  5
2A
102
{ACAD_XDICTIONARY
360
81C
102
}
102
{ACAD_REACTORS
330
29
102
}
330
29
100
AcDbVisualStyle
  2
Flat
 70
     0
 71
     2
 72
     1
 73
     1
 90
        2
 40
-0.6
 41
30.0
 62
     5
 63
     7
421
 16777215
 74
     0
 91
        0
 64
     7
 65
   257
 75
     1
175
     1
 42
1.0
 92
        8
 66
     7
 43
1.0
 76
     1
 77
     6
 78
     2
 67
     7
 79
     5
170
     0
171
     0
290
     0
174
     0
 93
       13
 44
0.0
173
     0
291
     1
 45
0.0
1001
ACAD
1000
AcDbSavedByObjectVersion
1070
     0
  0
VISUALSTYLE
  5
2B
102
{ACAD_XDICTIONARY
360
81E
102
}
102
{ACAD_REACTORS
330
29
102
}
330
29
100
AcDbVisualStyle
  2
FlatWithEdges
 70
     1
 71
     2
 72
     1
 73
     1
 90
        2
 40
-0.6
 41
30.0
 62
     5
 63
     7
421
 16777215
 74
     1
 91
        0
 64
     7
 65
   257
 75
     1
175
     1
 42
1.0
 92
        0
 66
   257
 43
1.0
 76
     1
 77
     6
 78
     2
 67
     7
 79
     5
170
     0
171
     0
290
     0
174
     0
 93
       13
 44
0.0
173
     0
291
     1
 45
0.0
1001
ACAD
1000
AcDbSavedByObjectVersion
1070
     0
  0
VISUALSTYLE
  5
2C
102
{ACAD_XDICTIONARY
360
820
102
}
102
{ACAD_REACTORS
330
29
102
}
330
29
100
AcDbVisualStyle
  2
Gouraud
 70
     2
 71
     2
 72
     2
 73
     1
 90
        2
 40
-0.6
 41
30.0
 62
     5
 63
     7
421
 16777215
 74
     0
 91
        0
 64
     7
 65
   257
 75
     1
175
     1
 42
1.0
 92
        0
 66
     7
 43
1.0
 76
     1
 77
     6
 78
     2
 67
     7
 79
     5
170
     0
171
     0
290
     0
174
     0
 93
       13
 44
0.0
173
     0
291
     1
 45
0.0
1001
ACAD
1000
AcDbSavedByObjectVersion
1070
     0
  0
VISUALSTYLE
  5
2D
102
{ACAD_XDICTIONARY
360
822
102
}
102
{ACAD_REACTORS
330
29
102
}
330
29
100
AcDbVisualStyle
  2
GouraudWithEdges
 70
     3
 71
     2
 72
     2
 73
     1
 90
        2
 40
-0.6
 41
30.0
 62
     5
 63
     7
421
 16777215
 74
     1
 91
        0
 64
     7
 65
   257
 75
     1
175
     1
 42
1.0
 92
        0
 66
   257
 43
1.0
 76
     1
 77
     6
 78
     2
 67
     7
 79
     5
170
     0
171
     0
290
     0
174
     0
 93
       13
 44
0.0
173
     0
291
     1
 45
0.0
1001
ACAD
1000
AcDbSavedByObjectVersion
1070
     0
  0
VISUALSTYLE
  5
31
102
{ACAD_XDICTIONARY
360
82A
102
}
102
{ACAD_REACTORS
330
29
102
}
330
29
100
AcDbVisualStyle
  2
Hidden
 70
     6
 71
     1
 72
     2
 73
     2
 90
        0
 40
-0.6
 41
-30.0
 62
     5
 63
     7
421
 16777215
 74
     2
 91
        2
 64
     7
 65
   257
 75
     2
175
     1
 42
40.0
 92
        0
 66
   257
 43
1.0
 76
     1
 77
     6
 78
     2
 67
     7
 79
     3
170
     0
171
     0
290
     0
174
     0
 93
        1
 44
0.0
173
     0
291
     0
 45
0.0
1001
ACAD
1000
AcDbSavedByObjectVersion
1070
     0
  0
VISUALSTYLE
  5
3F
102
{ACAD_XDICTIONARY
360
846
102
}
102
{ACAD_REACTORS
330
29
102
}
330
29
100
AcDbVisualStyle
  2
JitterOff
 70
    20
 71
     2
 72
     2
 73
     0
 90
        0
 40
-0.6
 41
-30.0
 62
     5
 63
     7
421
 16777215
 74
     1
 91
        4
 64
     7
 65
   257
 75
     1
175
     1
 42
1.0
 92
       10
 66
     7
 43
1.0
 76
     1
 77
     6
 78
     2
 67
     7
 79
     5
170
     0
171
     0
290
     0
174
     0
 93
        1
 44
0.0
173
     0
291
     1
 45
0.0
1001
ACAD
1000
AcDbSavedByObjectVersion
1070
     0
  0
VISUALSTYLE
  5
37
102
{ACAD_XDICTIONARY
360
836
102
}
102
{ACAD_REACTORS
330
29
102
}
330
29
100
AcDbVisualStyle
  2
Linepattern
 70
    14
 71
     2
 72
     2
 73
     0
 90
        0
 40
-0.6
 41
-30.0
 62
     5
 63
     7
421
 16777215
 74
     1
 91
        4
 64
     7
 65
   257
 75
     7
175
     7
 42
1.0
 92
        8
 66
     7
 43
1.0
 76
     1
 77
     6
 78
     2
 67
     7
 79
     5
170
     0
171
     0
290
     0
174
     0
 93
        1
 44
0.0
173
     0
291
     1
 45
0.0
1001
ACAD
1000
AcDbSavedByObjectVersion
1070
     0
  0
VISUALSTYLE
  5
40
102
{ACAD_XDICTIONARY
360
848
102
}
102
{ACAD_REACTORS
330
29
102
}
330
29
100
AcDbVisualStyle
  2
OverhangOff
 70
    21
 71
     2
 72
     2
 73
     0
 90
        0
 40
-0.6
 41
-30.0
 62
     5
 63
     7
421
 16777215
 74
     1
 91
        4
 64
     7
 65
   257
 75
     1
175
     1
 42
1.0
 92
        9
 66
     7
 43
1.0
 76
     1
 77
     6
 78
     2
 67
     7
 79
     5
170
     0
171
     0
290
     0
174
     0
 93
        1
 44
0.0
173
     0
291
     1
 45
0.0
1001
ACAD
1000
AcDbSavedByObjectVersion
1070
     0
  0
VISUALSTYLE
  5
33
102
{ACAD_XDICTIONARY
360
82E
102
}
102
{ACAD_REACTORS
330
29
102
}
330
29
100
AcDbVisualStyle
  2
Realistic
 70
     8
 71
     2
 72
     3
 73
     0
 90
        2
 40
-0.6
 41
30.0
 62
     5
 63
     7
421
 16777215
 74
     0
 91
        0
 64
     7
 65
   257
 75
     1
175
     1
 42
1.0
 92
        8
 66
   257
 43
1.0
 76
     1
 77
     6
 78
     2
 67
     7
 79
     3
170
     0
171
     0
290
     0
174
     0
 93
       13
 44
0.0
173
     0
291
     0
 45
0.0
1001
ACAD
1000
AcDbSavedByObjectVersion
1070
     0
  0
VISUALSTYLE
  5
3E
102
{ACAD_XDICTIONARY
360
844
102
}
102
{ACAD_REACTORS
330
29
102
}
330
29
100
AcDbVisualStyle
  2
Shaded
 70
    27
 71
     2
 72
     2
 73
     1
 90
        2
 40
-0.6
 41
30.0
 62
     5
 63
     7
421
 16777215
 74
     0
 91
        4
 64
     7
 65
   257
 75
     1
175
     1
 42
1.0
 92
        8
 66
   257
 43
1.0
 76
     1
 77
     6
 78
     2
 67
     8
425
  7895160
 79
     3
170
     0
171
     0
290
     0
174
     0
 93
        5
 44
0.0
173
     0
291
     0
 45
0.0
1001
ACAD
1000
AcDbSavedByObjectVersion
1070
     0
  0
VISUALSTYLE
  5
3D
102
{ACAD_XDICTIONARY
360
842
102
}
102
{ACAD_REACTORS
330
29
102
}
330
29
100
AcDbVisualStyle
  2
Shaded with edges
 70
    26
 71
     2
 72
     2
 73
     1
 90
        2
 40
-0.6
 41
30.0
 62
     5
 63
     7
421
 16777215
 74
     1
 91
       10
 64
     7
 65
   257
 75
     2
175
     1
 42
1.0
 92
        8
 66
   257
 43
1.0
 76
     1
 77
     6
 78
     2
 67
     7
 79
     3
170
     0
171
     0
290
     0
174
     0
 93
        5
 44
0.0
173
     0
291
     0
 45
0.0
1001
ACAD
1000
AcDbSavedByObjectVersion
1070
     0
  0
VISUALSTYLE
  5
3A
102
{ACAD_XDICTIONARY
360
83C
102
}
102
{ACAD_REACTORS
330
29
102
}
330
29
100
AcDbVisualStyle
  2
Shades of Gray
 70
    23
 71
     2
 72
     2
 73
     3
 90
        0
 40
-0.6
 41
-30.0
 62
     5
 63
     7
421
 16777215
 74
     2
 91
        2
 64
     7
 65
     7
 75
     1
175
     1
 42
40.0
 92
        8
 66
     7
 43
1.0
 76
     1
 77
     6
 78
     2
 67
     7
 79
     3
170
     0
171
     0
290
     0
174
     0
 93
        1
 44
0.0
173
     0
291
     0
 45
0.0
1001
ACAD
1000
AcDbSavedByObjectVersion
1070
     0
  0
VISUALSTYLE
  5
3B
102
{ACAD_XDICTIONARY
360
83E
102
}
102
{ACAD_REACTORS
330
29
102
}
330
29
100
AcDbVisualStyle
  2
Sketchy
 70
    24
 71
     1
 72
     2
 73
     2
 90
        0
 40
-0.6
 41
-30.0
 62
     5
 63
     7
421
 16777215
 74
     2
 91
        2
 64
     7
 65
     7
 75
     1
175
     1
 42
40.0
 92
       11
 66
     7
 43
1.0
 76
     1
 77
     6
 78
     2
 67
     7
 79
     6
170
     0
171
     0
290
     0
174
     0
 93
        1
 44
0.0
173
     0
291
     0
 45
0.0
1001
ACAD
1000
AcDbSavedByObjectVersion
1070
     0
  0
VISUALSTYLE
  5
36
102
{ACAD_XDICTIONARY
360
834
102
}
102
{ACAD_REACTORS
330
29
102
}
330
29
100
AcDbVisualStyle
  2
Thicken
 70
    13
 71
     2
 72
     2
 73
     0
 90
        0
 40
-0.6
 41
-30.0
 62
     5
 63
     7
421
 16777215
 74
     1
 91
        4
 64
     7
 65
   257
 75
     1
175
     1
 42
1.0
 92
       12
 66
     7
 43
1.0
 76
     1
 77
     6
 78
     2
 67
     7
 79
     5
170
     0
171
     0
290
     0
174
     0
 93
        1
 44
0.0
173
     0
291
     1
 45
0.0
1001
ACAD
1000
AcDbSavedByObjectVersion
1070
     0
  0
VISUALSTYLE
  5
30
102
{ACAD_XDICTIONARY
360
828
102
}
102
{ACAD_REACTORS
330
29
102
}
330
29
100
AcDbVisualStyle
  2
Wireframe
 70
     5
 71
     0
 72
     2
 73
     0
 90
        0
 40
-0.6
 41
-30.0
 62
     5
 63
     7
421
 16777215
 74
     1
 91
        4
 64
     7
 65
   257
 75
     1
175
     1
 42
1.0
 92
        0
 66
   257
 43
1.0
 76
     1
 77
     6
 78
     2
 67
     7
 79
     3
170
     0
171
     0
290
     0
174
     0
 93
        1
 44
0.0
173
     0
291
     0
 45
0.0
1001
ACAD
1000
AcDbSavedByObjectVersion
1070
     0
  0
VISUALSTYLE
  5
3C
102
{ACAD_XDICTIONARY
360
840
102
}
102
{ACAD_REACTORS
330
29
102
}
330
29
100
AcDbVisualStyle
  2
X-Ray
 70
    25
 71
     2
 72
     2
 73
     1
 90
        1
 40
0.5
 41
-30.0
 62
     5
 63
     7
421
 16777215
 74
     1
 91
        0
 64
     7
 65
   257
 75
     1
175
     1
 42
1.0
 92
        8
 66
     7
 43
1.0
 76
     1
 77
     6
 78
     2
 67
     7
 79
     3
170
     0
171
     0
290
     0
174
     0
 93
       13
 44
0.0
173
     0
291
     0
 45
0.0
1001
ACAD
1000
AcDbSavedByObjectVersion
1070
     0
  0
DICTIONARYVAR
  5
79
102
{ACAD_REACTORS
330
76
102
}
330
76
100
DictionaryVariables
280
     0
  1
1:1
  0
DICTIONARYVAR
  5
78
102
{ACAD_REACTORS
330
76
102
}
330
76
100
DictionaryVariables
280
     0
  1
STANDARD
  0
DICTIONARYVAR
  5
77
102
{ACAD_REACTORS
330
76
102
}
330
76
100
DictionaryVariables
280
     0
  1
STANDARD
  0
DICTIONARYVAR
  5
80F
102
{ACAD_REACTORS
330
76
102
}
330
76
100
DictionaryVariables
280
     0
  1
0
  0
DICTIONARYVAR
  5
810
102
{ACAD_REACTORS
330
76
102
}
330
76
100
DictionaryVariables
280
     0
  1
0
  0
DICTIONARYVAR
  5
80E
102
{ACAD_REACTORS
330
76
102
}
330
76
100
DictionaryVariables
280
     0
  1
2
  0
DICTIONARYVAR
  5
80D
102
{ACAD_REACTORS
330
76
102
}
330
76
100
DictionaryVariables
280
     0
  1
1
  0
DICTIONARYVAR
  5
811
102
{ACAD_REACTORS
330
76
102
}
330
76
100
DictionaryVariables
280
     0
  1
2
  0
DICTIONARY
  5
1A
330
19
100
AcDbDictionary
280
     1
281
     1
  3
ACAD_XREC_ROUNDTRIP
360
81A
  3
BUMPTILE
360
1C
  3
DIFFUSETILE
360
1B
  3
OPACITYTILE
360
1F
  3
REFLECTIONTILE
360
1E
  3
REFRACTIONTILE
360
20
  3
SPECULARTILE
360
1D
  0
DICTIONARY
  5
12
330
11
100
AcDbDictionary
280
     1
281
     1
  3
ACAD_XREC_ROUNDTRIP
360
819
  3
BUMPTILE
360
14
  3
DIFFUSETILE
360
13
  3
FBXASSET
360
109
  3
OPACITYTILE
360
17
  3
REFLECTIONTILE
360
16
  3
REFRACTIONTILE
360
18
  3
SPECULARTILE
360
15
  0
DICTIONARY
  5
22
330
21
100
AcDbDictionary
280
     1
281
     1
  3
ACAD_XREC_ROUNDTRIP
360
81B
  3
BUMPTILE
360
24
  3
DIFFUSETILE
360
23
  3
FBXASSET
360
BA
  3
OPACITYTILE
360
27
  3
REFLECTIONTILE
360
26
  3
REFRACTIONTILE
360
28
  3
SPECULARTILE
360
25
  0
DICTIONARY
  5
814
330
67
100
AcDbDictionary
280
     1
281
     1
  3
ACAD_XREC_ROUNDTRIP
360
815
  0
DICTIONARY
  5
812
330
65
100
AcDbDictionary
280
     1
281
     1
  3
ACAD_ROUNDTRIP_2008_TABLESTYLE_CELLSTYLEMAP
360
813
  3
ACAD_XREC_ROUNDTRIP
360
84C
  0
DICTIONARY
  5
826
330
2F
100
AcDbDictionary
280
     1
281
     1
  3
ACAD_XREC_ROUNDTRIP
360
827
  0
DICTIONARY
  5
824
330
2E
100
AcDbDictionary
280
     1
281
     1
  3
ACAD_XREC_ROUNDTRIP
360
825
  0
DICTIONARY
  5
832
330
35
100
AcDbDictionary
280
     1
281
     1
  3
ACAD_XREC_ROUNDTRIP
360
833
  0
DICTIONARY
  5
83A
330
39
100
AcDbDictionary
280
     1
281
     1
  3
ACAD_XREC_ROUNDTRIP
360
83B
  0
DICTIONARY
  5
82C
330
32
100
AcDbDictionary
280
     1
281
     1
  3
ACAD_XREC_ROUNDTRIP
360
82D
  0
DICTIONARY
  5
830
330
34
100
AcDbDictionary
280
     1
281
     1
  3
ACAD_XREC_ROUNDTRIP
360
831
  0
DICTIONARY
  5
84A
330
41
100
AcDbDictionary
280
     1
281
     1
  3
ACAD_XREC_ROUNDTRIP
360
84B
  0
DICTIONARY
  5
838
330
38
100
AcDbDictionary
280
     1
281
     1
  3
ACAD_XREC_ROUNDTRIP
360
839
  0
DICTIONARY
  5
81C
330
2A
100
AcDbDictionary
280
     1
281
     1
  3
ACAD_XREC_ROUNDTRIP
360
81D
  0
DICTIONARY
  5
81E
330
2B
100
AcDbDictionary
280
     1
281
     1
  3
ACAD_XREC_ROUNDTRIP
360
81F
  0
DICTIONARY
  5
820
330
2C
100
AcDbDictionary
280
     1
281
     1
  3
ACAD_XREC_ROUNDTRIP
360
821
  0
DICTIONARY
  5
822
330
2D
100
AcDbDictionary
280
     1
281
     1
  3
ACAD_XREC_ROUNDTRIP
360
823
  0
DICTIONARY
  5
82A
330
31
100
AcDbDictionary
280
     1
281
     1
  3
ACAD_XREC_ROUNDTRIP
360
82B
  0
DICTIONARY
  5
846
330
3F
100
AcDbDictionary
280
     1
281
     1
  3
ACAD_XREC_ROUNDTRIP
360
847
  0
DICTIONARY
  5
836
330
37
100
AcDbDictionary
280
     1
281
     1
  3
ACAD_XREC_ROUNDTRIP
360
837
  0
DICTIONARY
  5
848
330
40
100
AcDbDictionary
280
     1
281
     1
  3
ACAD_XREC_ROUNDTRIP
360
849
  0
DICTIONARY
  5
82E
330
33
100
AcDbDictionary
280
     1
281
     1
  3
ACAD_XREC_ROUNDTRIP
360
82F
  0
DICTIONARY
  5
844
330
3E
100
AcDbDictionary
280
     1
281
     1
  3
ACAD_XREC_ROUNDTRIP
360
845
  0
DICTIONARY
  5
842
330
3D
100
AcDbDictionary
280
     1
281
     1
  3
ACAD_XREC_ROUNDTRIP
360
843
  0
DICTIONARY
  5
83C
330
3A
100
AcDbDictionary
280
     1
281
     1
  3
ACAD_XREC_ROUNDTRIP
360
83D
  0
DICTIONARY
  5
83E
330
3B
100
AcDbDictionary
280
     1
281
     1
  3
ACAD_XREC_ROUNDTRIP
360
83F
  0
DICTIONARY
  5
834
330
36
100
AcDbDictionary
280
     1
281
     1
  3
ACAD_XREC_ROUNDTRIP
360
835
  0
DICTIONARY
  5
828
330
30
100
AcDbDictionary
280
     1
281
     1
  3
ACAD_XREC_ROUNDTRIP
360
829
  0
DICTIONARY
  5
840
330
3C
100
AcDbDictionary
280
     1
281
     1
  3
ACAD_XREC_ROUNDTRIP
360
841
  0
XRECORD
  5
81A
102
{ACAD_REACTORS
330
1A
102
}
330
1A
100
AcDbXrecord
280
     1
102
MATERIAL
148
0.0
149
0.0
149
0.0
 93
        0
 94
      127
282
     0
 72
     0
 77
     0
171
     0
175
     0
179
     0
273
     0
  0
XRECORD
  5
1C
102
{ACAD_REACTORS
330
1A
102
}
330
1A
100
AcDbXrecord
280
     1
270
     1
271
     1
  0
XRECORD
  5
1B
102
{ACAD_REACTORS
330
1A
102
}
330
1A
100
AcDbXrecord
280
     1
270
     1
271
     1
  0
XRECORD
  5
1F
102
{ACAD_REACTORS
330
1A
102
}
330
1A
100
AcDbXrecord
280
     1
270
     1
271
     1
  0
XRECORD
  5
1E
102
{ACAD_REACTORS
330
1A
102
}
330
1A
100
AcDbXrecord
280
     1
270
     1
271
     1
  0
XRECORD
  5
20
102
{ACAD_REACTORS
330
1A
102
}
330
1A
100
AcDbXrecord
280
     1
270
     1
271
     1
  0
XRECORD
  5
1D
102
{ACAD_REACTORS
330
1A
102
}
330
1A
100
AcDbXrecord
280
     1
270
     1
271
     1
  0
XRECORD
  5
819
102
{ACAD_REACTORS
330
12
102
}
330
12
100
AcDbXrecord
280
     1
102
MATERIAL
148
0.0
149
0.0
149
0.0
 93
        0
 94
      127
282
     0
 72
     0
 77
     0
171
     0
175
     0
179
     0
273
     0
  0
XRECORD
  5
14
102
{ACAD_REACTORS
330
12
102
}
330
12
100
AcDbXrecord
280
     1
270
     1
271
     1
  0
XRECORD
  5
13
102
{ACAD_REACTORS
330
12
102
}
330
12
100
AcDbXrecord
280
     1
270
     1
271
     1
  0
XRECORD
  5
109
102
{ACAD_REACTORS
330
12
102
}
330
12
100
AcDbXrecord
280
     1
 70
     1
 90
1959938040
 71
     1
  1
83B2698C-4129-4FCF-B311-4E3D1D3976BF
311
504B03040A000008000019A2E8423DEE336E79000000790000001B0000006175746F6465736B2D64657369676E2D7061636B6167652E786D6C3C3F786D6C2076657273696F6E3D22312E302220656E636F64696E673D227574662D3822203F3E3C666F726D6174733E3C666F726D61743E687474703A2F2F736368656D612E
311
6175746F6465736B2E636F6D2F64657369676E2D7061636B6167652F323030393C2F666F726D61743E3C2F666F726D6174733E504B030414000608080019A2E842D486FD9CA0000000F4000000130000005B436F6E74656E745F54797065735D2E786D6C7D8EC10E82300C865F65E91D8A1E8C310C0EEA1BF002731658846E
311
D98AC1B77784ABF1D8FE5FBFBF75BBCE937A534CCEB38643598122B6FEE978D0B0485F9C41B54DDD7D022595594E1A469170414C76A4D9A4D207E29CF43ECE46F218070CC6BECC4078ACAA135ACF422C856C0E68EA1BF5669944DDD7BCDE7B1F8E415D77AECB980613C2E4AC91FC167A2B244592486606FC29C8FD7F045B9A
311
EF7053A7E60B504B030414000608080019A2E842DE2DE0CAEC0000007C01000008000000636F72652E786D6C8D904D6EC3201085AF82665B61631CB7C4C244A97F4ED00B204C5C94182C03558F5F9C3852BBEB6A466FDE37337AFCF43DDFD0975EBD71B681222380B4556E34766A20860B66804E82AFCE855F364056CEBA81
311
4D06C1A7D5C5659794B341DB9054EB46BD8BD27B1D00A95B6A1AF0EA53CF3293312487BF668B545739E9AC7876098ED18CE871C48C699FB918BD8238B0331B8E3DC16DC92A7CE8D880CF3D239852D6766D37BC33DAF37C83050F667EDE57AB96418F2028294A4CDE30611F94D4C56B5D911752D525E1F966FF03C565FC2714
311
8D0D25DDDF7D601E44911EB90F04CFB72C52B90795EA969BF801504B030414000608080019A2E84255019EA25F0000007C00000007000000636E782E786D6C4DCB3B0E80201045D1AD90E915ED2CF8AC45050C11660C8261F98AB1B07AC9C97D42D718D865D3E909258CFD00CCE24AC6E326A164D74DC0B4128928FF326038
311
472BA13128B1252AC747C6BAB984FC68F0B87FE8960A5C09FE86CFB69FBA01504B030414000608080019A2E842FA91ED7F68010000020300000C0000006662782F636F72652E786D6C8D525B6E833010BC8AE5DF0A6C2069DDC8384AF338412FE08043AD808D8C8D72FC2E8F284D15451192B16676766707F8FAD2D4A857AE
311
D3D6E438892946CA14B6D4A6CA71F0A78861B416DC59EBFF94616464A3723CC058F0CAD9D0CE50618D57C6036A6CA96650769DF21815355C72DC153FAA91B10C1E2ABA73DCCAE22C2B152731D0502778E71D1840D390E1C4E274BC7032E18287A0CB99D5254CD327AD1C160BB66187CF3D8DB6195B468B1D3B449B3DA3519A
311
B2ED6EBB3B7CB174CFC92016DCEBE6EAAE704A7A556291D2248BE84744D9774A57C9FB6A49DFE87295514E86F23B5168CB1745411B9FA5B3DD49D66191809191F8B72D44E451277BF04304274388F01A13BE0F1A028190BD3CD6D73DCE00F5AAF0D62D80296DB851BDAC8382A9148D0F27130B9DC706B0D9C33EE9933ECF7B
311
C00794A6026BD2C3F518FC309D4F53E7285AE5A2DE5F90B1AE91F5CDDC64F176DE063D9417B6B6EE1535995725739864F87BC52F504B030414000608080019A2E84292EC782D7E0000009D0000000B0000006662782F636E782E786D6C4DCCD10AC2201886E15B91FFDCA6CD950375B8A8FB18CD0DC9F9876974F96DB1838E
311
3E78F87855F7590279BBF4F21835F00303E2E21D471F670D254F5402E98C4A88F9EF06240E8BD3B0311835272CCF9D46370D25E455838F8F1D2DE3372185A4572E5B2ACE4D4DFB13AF696B193BF2FE621B21A132AAFA95D6DDC2E60B504B030414000608080019A2E842E098041D2B01000015020000310000006662782F41
311
303146343834382D453138392D343735332D423631332D3941303032314243413534382F636F72652E786D6C8D515B6EC32010BC0AE22B55651BFC0A89305152B527E80508101725068B4795E3176A476AFFF2C3A2D999D9D12E3DDCA71BF856CE6B6B06884B048132C24A6DC601C67029080407469DB5E10F0D02C32735C0
311
0C43464767E3BC42C29AA04C48A8B152AD20F75E0508C42D7D06E8C5979A78C963480C7F2D672EAE7C54252E533BF118F5C1A5006019925FC88E087FB4A425C53B26BBA2DD764D71EA7153EC8E08D5F8F476EC5A42AB45C8688C5AAE722D531C7DD1CA3D6B92C58C063D3DE20BA7785012B21AA589685B20F259A33DEEF71D
311
7A45DDBE41B4CAF47FA238CB2745519BD0D46BDC45E621C3B45A1A8C4A1BCFB74718759FAD0B20CFDB78255E2043254204D71DE96B5A2DDCB48164DAB7ABA90FD6A50D6FAEE744C7DDE2DCB78C56F948A9FC5E30D57C50F603504B030414000608080019A2E842139AB9704E01000033030000300000006662782F41303146
311
343834382D453138392D343735332D423631332D3941303032314243413534382F636E782E786D6CD593CD6EC32010845F0571AD6CE3FC358A30917AE813F4D02B814D4383C1E2A76ADEBE4B42D25C72E8B11764CD0E33AB4F986FBF474BBE2044E3DD40FB9651024E796DDCC74073DA376B4AB68207EFD39D8D1227471868
311
91A9E01FC1E7A94A1AF632DB84AA35EE58C500D1E7A020A25C6E12EB95B41800AEC928C2B803AD41939B11BFF6107015147727920E405E5FDE89DF7D824A91772545F0AE74085ECEDA7467A2445919E340A33AC0285B9993D7108FAD9649B67D7BED7AB0D36F122917AE95391852CA075A4E2AEA462D72E41D0E058F2920BD
311
6A4AA709A890D3648D9209217767E3C52378362EAD16D56B107C4077BF9A2F1618769E099ECC08D5A102C8049A8A19EBE70D7B6ED8FA6DC636FD6AB3644F6CB99933DE15BBE03BEF6DBD843110FC449477095CA2A2E75D193FC2577D449B80AC7D38FD012402A8AD173AB78CFFCCA73BBF6FC415F02F103F504B0304140006
311
08080019A2E8420EE846A6A405000081100000340000006662782F41303146343834382D453138392D343735332D423631332D3941303032314243413534382F6F626A656374732E786D6CAD57D96EDB3814FD1541F332F3E045B69BC60345456CD785D1A62D6AA4980703062D510A27D402924A9DF9FA3914295972ECD433
311
E88B162E97F79E7BEE42FFDD3EE5CE131592E5D98DEBF587AE43B3308F5896DCB8A58A7BD7AEF32EF0459EABD632D7C9484A6F5C3DEC067E22F2B2B043118D49C9D5D1E872F69723439A51D7093991F2C695E1034D499F942A8FA87CEC4744917E12EFFB5EDF2CEC8A4D04291E8E841644D04C41538C6790E218A5BCEEEFD0
311
1D04FE40CF07BE7EDA55E3F3AB06953DDDF3592615C9C217871D89197B93C5FBD19B69EFCD6432EE4DAE465E6FB69C2D7ADEDBF1707E359F4F6FDF4F71B0540292AC2682C66EF001D80816FA033315F825CBD478649758070D047D62DA536E30723C7F60D634D659234FA91FE65946C30A2BA051D9674547B4A059049F332A
311
A1590BA161F7D7D338B6A6C7FADF1ED91EBE0C81F68E96A05AF7FADDD634DFFD0D13E4250C12926A061A2CADA186ABC303C2BB3CE7768E4927258A0A46B8C3D94E10F1EC0658AA97047E478C66B2D0D1A02D700378C14C77E98230FA39CF4F6919979C6B1ABB4115055BC40A55B2D28CFD43C541FB3632D009BED26CB8B606
311
A9E782BAC1D450E4FA884D064827E62481CB61A6DE391E1D193AD771BA5AB8C1C7E56EBFD6B17BFAF042E405154AD307D4AA1D57BF354A5627EF22CFE90DEE912A0750BE01F9CF08F5832AF09B60FBC97E624F51826432CE450ADF3843A737C463E878D5537FB7BEFC41B3B9EBBD7378C2D91AAA5F8067D786B62F5B7006FE
311
13089F8BB1356D1D128EB471C73200A449E2F01C43C8C3F16EEF062B64396465EC223CF06032D47DC2A73FB0629028AA935AEF0C581EA5C50B123460AB1809350CF9AD82073FBD4867D5C176D93978DFFC12BADE2ED61FD7A5884948EF6C4C2F68CC32A650E20EBC692BD4C1BC63D1237DFE918B0886BEC47BDDC63BB54749
311
A0AD31D7C027754ED73F87933B0784D897E43ADDF83F390146E8C2DA927FC76448392719CDCBFADC57EB07CA86815807BB667253600E8505A43133473188221D0A5668109B6AD524CDFE19EBEE579FC14837983D7F22CFEDECB53BE4DE30E7B9D8EE9EB7262D9D84FA7B97DB1683819602BA574152C7BF057D1BB1382E2592
311
E0095CBFAFE66DDFE9B48014514B35D13281FD082E222C696BB9A8D682A092E6D996A16E22EE4E1ED0960F482D032A81E7349694C75BC679996E63C6518DB62929CEC0F1FFF5DF9569B125695E66EA8CEC8EEAA80E5DDD3BEC953F880A1FDC605DBD7B33E4DE884667C8A06BC909AC3AAEBD1ECF4657D3EB796FE28DA6BDC9
311
72BEECCDC69ED79BBC1F2FBCC578FAF66AB6ACFD643409FCBAD4B4231A5E4269F34BC1ACFBEE57881F9B04DCE08E28B9F960C2B37EDFAFFAE885FD01F6A05E361B6FA327F47D34FAB980C3CA93825669C1694A3345740CDDE90FFE8DA0CFE82863C6572949E80552BE7C581F1983910BF67DD5F14E7F1CEDB5A3731D902785
311
A88732DD6584F1A38D8941B25F6489C5AFF649F33685A6FED57FD631E84C65CE59843C183909CD53AA900D2F284222A512D46BF7F491BD7B5CB0FBC974888AEC38AD3579206892B94458805A65A8BAE3CE6F68EA745F75E3A2DCF61FF1B099C275C0991B174DBA622195FD1D0AB46E852AE1E052BB9347E34FB284A3D7369B
311
9AFF6697C6A653929B2597F44FD62E93C2AD01482305FA063444F04EA54CE057BAD9F9F03F195EABE31085CF5DA91A5B0E038D31D53108516394BD2DA08979B447EF11A8AF9BE5F5AB351D442EBA65BD4A0223B5A78848AA9B82D6CFAA74BBF83A4087E2ACBE38052F13F8F272493D4141E652073858045658990551A0EAFC
311
CFCD5791E3269B3A4B060A38BFEFAFAFFED8CCF334CD3333B4B9B5F76167FD80DB6DB44172A0FA5A2237A3A137DA54D7017B43D9EE88A47D12C9470CC0B382354077DC0F5E9A3B23EA909968D60DB42B8E18BA5A38B6B04D20D4D2A59D5B3538683C32EA2086F49552474C7B41F1EA8D60502D850A02BD7CF02F504B030414
311
000608000019A2E842000000000000000000000000350000006662782F41303146343834382D453138392D343735332D423631332D3941303032314243413534382F76657274696365732E62696E504B030414000608080019A2E842F270F1330600000004000000360000006662782F41303146343834382D453138392D34
311
3735332D423631332D3941303032314243413534382F747269616E676C65732E62696E636660600000504B030414000608000019A2E842000000000000000000000000370000006662782F41303146343834382D453138392D343735332D423631332D3941303032314243413534382F617474726962757465732E62696E50
311
4B030414000608080019A2E842D5987DFC8F00000041010000360000006662782F41303146343834382D453138392D343735332D423631332D3941303032314243413534382F6469726563746F72792E786D6C858F410EC2201045AF4266AF15DDB800BA74E7C21B903225242D6328188F2FA5C4183471359997F9FF81E89F
311
F3C41E1816475E02DF1F80A11FC8386F25A438EECEC07A250251FC3803E6F58C12560C4AD840E95E91C151A72936F496F35732D860FE635F62C8F2DA16B505C545B74125BAA2FA9E05D7CC053D063734D5C7665FD55B6B8D15D5E9BFEAFD8490FFA45E504B030414000608080019A2E8425AC03E6DFE000000A00100003B00
311
00006662782F41303146343834382D453138392D343735332D423631332D3941303032314243413534382F7265736F75726365732F636F72652E786D6C8D504B6E833010BD0A9A6D6530105A171947298413F4029699502BC146FE543D7E4D42A576D7CDCCE87D344F8F1FBF965BF689CE6B6B3A28730A191A65276DE60E62
311
B81006D95170676DF82583CCC8053BD860107C7636AE3BA4AC096842428D9D7007A5F7182053B77474E0D5072E3297312485BFE6AB545739635EE6894E3AC17D702940F678B24D100EBD8D4EA1E7C583153C463DED1A3DA59FFAA2D18138B0131B5F8791F4356BC8616023399D192555C5FAA11FC637569D79B199050F7AF9
311
C9A81CCA8013888A9635A12F84B2F78AB6E573DBD027DAB435E5C526FF638AEBF44F53D426D4D51EF761F320CA14E44E085E6C7DA5752F33EDAD5BF10D504B010214000A000008000019A2E8423DEE336E79000000790000001B00000000000000000000000000000000006175746F6465736B2D64657369676E2D7061636B
311
6167652E786D6C504B0102140014000608080019A2E842D486FD9CA0000000F40000001300000000000000000000000000B20000005B436F6E74656E745F54797065735D2E786D6C504B0102140014000608080019A2E842DE2DE0CAEC0000007C010000080000000000000000000000000083010000636F72652E786D6C50
311
4B0102140014000608080019A2E84255019EA25F0000007C000000070000000000000000000000000095020000636E782E786D6C504B0102140014000608080019A2E842FA91ED7F68010000020300000C00000000000000000000000000190300006662782F636F72652E786D6C504B0102140014000608080019A2E84292
311
EC782D7E0000009D0000000B00000000000000000000000000AB0400006662782F636E782E786D6C504B0102140014000608080019A2E842E098041D2B010000150200003100000000000000000000000000520500006662782F41303146343834382D453138392D343735332D423631332D3941303032314243413534382F
311
636F72652E786D6C504B0102140014000608080019A2E842139AB9704E010000330300003000000000000000000000000000CC0600006662782F41303146343834382D453138392D343735332D423631332D3941303032314243413534382F636E782E786D6C504B0102140014000608080019A2E8420EE846A6A405000081
311
1000003400000000000000000000000000680800006662782F41303146343834382D453138392D343735332D423631332D3941303032314243413534382F6F626A656374732E786D6C504B0102140014000608000019A2E84200000000000000000000000035000000000000000000000000005E0E00006662782F41303146
311
343834382D453138392D343735332D423631332D3941303032314243413534382F76657274696365732E62696E504B0102140014000608080019A2E842F270F13306000000040000003600000000000000000000000000B10E00006662782F41303146343834382D453138392D343735332D423631332D3941303032314243
311
413534382F747269616E676C65732E62696E504B0102140014000608000019A2E84200000000000000000000000037000000000000000000000000000B0F00006662782F41303146343834382D453138392D343735332D423631332D3941303032314243413534382F617474726962757465732E62696E504B010214001400
311
0608080019A2E842D5987DFC8F000000410100003600000000000000000000000000600F00006662782F41303146343834382D453138392D343735332D423631332D3941303032314243413534382F6469726563746F72792E786D6C504B0102140014000608080019A2E8425AC03E6DFE000000A00100003B000000000000
311
00000000000000431000006662782F41303146343834382D453138392D343735332D423631332D3941303032314243413534382F7265736F75726365732F636F72652E786D6C504B0506000000000E000E00800400009A1100000000
310
504B03040A000008000019A2E8423DEE336E79000000790000001B0000006175746F6465736B2D64657369676E2D7061636B6167652E786D6C3C3F786D6C2076657273696F6E3D22312E302220656E636F64696E673D227574662D3822203F3E3C666F726D6174733E3C666F726D61743E687474703A2F2F736368656D612E
310
6175746F6465736B2E636F6D2F64657369676E2D7061636B6167652F323030393C2F666F726D61743E3C2F666F726D6174733E504B030414000608080019A2E842D486FD9CA0000000F4000000130000005B436F6E74656E745F54797065735D2E786D6C7D8EC10E82300C865F65E91D8A1E8C310C0EEA1BF002731658846E
310
D98AC1B77784ABF1D8FE5FBFBF75BBCE937A534CCEB38643598122B6FEE978D0B0485F9C41B54DDD7D022595594E1A469170414C76A4D9A4D207E29CF43ECE46F218070CC6BECC4078ACAA135ACF422C856C0E68EA1BF5669944DDD7BCDE7B1F8E415D77AECB980613C2E4AC91FC167A2B244592486606FC29C8FD7F045B9A
310
EF7053A7E60B504B030414000608080019A2E842BB4751F2EB0000007C01000008000000636F72652E786D6C8D90416EC3201045AF82665B6103AEDDC4C244B6DC9CA01740405C94182C03558F5F9C3852BBEB6A467FFE9B197D7EFA9E6FE8CBACC17AD7012D0820E394D7D64D1DA478C1074027C157EFE32F1B202767D3C1
310
2683E0D3EAD3B24BCABB685CCCAAF3DAECA20CC14440EA969B0E82FA34B32C648AD911AEC522D5554EA6A0CF2EC329598D1E47ACCEFBECC59A15443D9C09690686695513FCCAFA0AF7FDF08EC7BA190F6C3CB2663CF37283058F767EDE57AB91D168108CD00A93374C0E1F8CB4B4696BF242EAB622BCDCEC7FA0B4E87F42C9
310
BA58B1FDDD071640D0FCC87D2078B96591CB3DA85CB7DCC40F504B030414000608080019A2E84255019EA25F0000007C00000007000000636E782E786D6C4DCB3B0E80201045D1AD90E915ED2CF8AC45050C11660C8261F98AB1B07AC9C97D42D718D865D3E909258CFD00CCE24AC6E326A164D74DC0B4128928FF32603847
310
2BA13128B1252AC747C6BAB984FC68F0B87FE8960A5C09FE86CFB69FBA01504B030414000608080019A2E84271643ACF68010000020300000C0000006662782F636F72652E786D6C8D525B6E833010BC8AE5DFCAD840A069641C25A239412FE0804351C046C646397E9747445345518564AC999DDDD901BEBFB50D1A94ED6B
310
A3331C060C23A50B53D6BACAB07717B2C5682FB835C6FD2AC348CB56657884B1E09535BE5BA0C268A7B403549B522DA0EC7BE5302A1AB864B82FBE552B03E91D54F4D7A093C555562A0803A0A14EF0DE593080E621E389C5E57CE374C605F7BE2E17B62E615A7DA995C522399E184B8F1109E384914D7488C9E170FC247992
310
E6DB28FF88D2FCC4E92816DCD5EDDD5D619574AAC42262614CD83B61DBAF88EDC27497B03796EC62C6E958FE20F25DF94F91AFB58BA3C5EE2CEBB108C1C844FCD9162272A89703F8A182D33144784D093F060D8140C84E9E9BFB1E57800655386337C094C6AFD4201BAF602A43D3C3E9CC42E7A9016CF6B44FF4A2CFEB1EF0
310
01A5AEC09A74703D7B374EE7F3D4258A4E5932B81BD2C6B6B259CDCD16D7731DF4545E98C6D8FFA8E9B22A5DC2A4E3DF2B7E00504B030414000608080019A2E842B3BCCEFB7D0000009D0000000B0000006662782F636E782E786D6C4DCCD10AC2201886E15B91FFDCA69262E01CE5EC3E467343723A4CA3CB6F8B1D74F4C1
310
C3C7ABBACF12D0DBE5974FB1057A22805C7CA4D1C7B9855A262C01755AE594CADF0D501C16D7C2CEA0D59C535D0F1ADD34D450360D3E3E0FE442122E2E024BC12D3E1BCBF0ED4E28BE32667A6329A5BD8046ABE657DA760FEB2F504B030414000608080019A2E8423AAEAB102C01000015020000310000006662782F353638
310
30353639362D383635452D344345322D424630312D4132324344434531313144362F636F72652E786D6C8D515B6EC32010BC0AE22B55850DD8264E8489DA243D412F406C92A2C460F1A872FC42ED48ED5F7E58343B333BDAE5BBFB7803DFCA796D4D0749812150A6B78336970EC670462D043BC19DB5E10F0D022347D5C10C
310
43C12FCEC669817A6B823221A1C60E6A01A5F72A40D0DFD2A783BEFF52A32C640C89E1AFC524FBABBCA88214A99D7882FBE05200300FC92F140D6B71C3360CB5AC39A27A7FA4E8FD0313F446E9FEB03F12420E8C97B350F018F5B0C8F590E2E8B356EE59932C163CE8F111BF774A0635404131A9105E23DC7E52BC256CDBE0
310
57DC6C2BCCCB4CFF278AD3F0A4286A132ABAC49D651E0AC2CBB921F860E3E9F608A3EE937501E4792BAFFA17287081715BE3356D6B5ECEDCB48164CAEAC5D407EBD28657D753A2578B33AB052FF39152F9BD60AAF9A0E207504B030414000608080019A2E842753D76675601000033030000300000006662782F3536383035
310
3639362D383635452D344345322D424630312D4132324344434531313144362F636E782E786D6CBD93CD6EC23010845FC5F2B5CA1F011A21C7483DF4097AE8D5B1177049ECC83F5579FBAEC1502E1C2A55BD58D1EC7866F5C961DBAF69249FE0BCB6A6A74D595302465AA5CDBEA731EC8A8E922D67CEDA7067A3C488097A9A
310
64CAD9DED9386749C14EC431A03A6A73CCA2036FA393E0514E37C968A51831004C1151846900A540919B11BF76E07015148713090720AF2FEFC40E1F208367554AE1AC4A1D9CA53337DD992891A3F0BEA75E1E6012A588C12AF0C7528920CAA6BC763DD8E92789A40BD7CAE83449E53D4D27E579A31239B20A879CF9E0905E
310
3685D30C948B791EB51401215767E3C5C359D426AC97D9AB11BC4377BB58771D869D679C053D417648072280A27C51376D513F1775F7B6A837CD7AB3AA9FEAD5A6AD5995EC9C0DD68EF912C680B33391D6043081F2865569FC085FF611A51DB2B6EEF40B900820B75EE8DC32FE924FB36E97CB7FE4539DDF37E272F817F06F
310
504B030414000608080019A2E8423D5D0AD1630700009A1B0000340000006662782F35363830353639362D383635452D344345322D424630312D4132324344434531313144362F6F626A656374732E786D6CED59DD73A33610FF5718FAD23E181BDBC9251DC24D625F6E3CD75C6FEA5EA70F9E616490891A211849E4E2FEF5
310
5D7D80819804B7E9DB3DD8809056BBBFFDD412BC7FCAA8F388B92039BB727D6FE23A98C57942587AE5967237BA709DF761C0F35C36A6B90E4319BE72D5B01B0629CFCBC20E2578874A2A3BA3B7377F3A22C60CBB4E4C911057AE88EF71863C54CA3CC1E2C14B90445EBA7BF27CCF4C6C934D392AEE3B440BC43193C0298C33
310
A0E218A6FCF6E3C41D87C158BD0F03F56F67CD06CD9AF7CF1A6BA9DB5C12262462F133963A646683589AF9F3E587E9D9E5E86C3E9F8DE6E7537F74737BB31CF9EF6693C5F9627179FDE112D8DBE639B53225B8C02C01FDEDDDD00FC6EA4D2DBA45E018D771CE188E3590009516AB4B9060015B35E09BB41F7D2551E3B596B0
310
F13C57EF2D0B8DE1599B4ADFAC6140B4E8822076BB4AE2EADA942FDFFE05828B2146C90596C0AD901CB46BE1E1E0156E3809C666340CB6075D10E16448624E107528D972C4412930554D0903B3C09251CEC18194A324D09A33AFDBB6059EF9BAEB1CE3725752AA3CC30DB56345E07E580ACD19F91BF303F74D64802790B624
310
4C5E582EE5BEC06E78198CF56018A8CB6C6A5F1A209D1D45A9D08898B71D4117CAF5574B37FC74BB7D5AAB70707CF382E705E652199DD2A3E60B0CD95E154A765B7F90E6D40210C6806A571E40F90D90FF0CD1E3C00AE88D93A7F9D3DCCE951C31B1CB7906BA7126CE68027F13C7D7FFEABE71178CEBC56DEDF5E1096EAAA0
310
BAF8EF78B665D05859FE1B7086C123187CCE67F6D53A4614ECF98E300048198943731882D0BEDB3EB9E10A0227047A588568E883C8C0EE23DC06634BE6A095CABDACD73140D4EE311BA224804D5B24B0D1A3A78F903D38890F6A6A8AD807EFD99B98EBF572FD695DF21D8AF19DF5E925DE11462464CDE30CB5306F49F480F7
310
DF729E80A0CFF15E37F1CEEC5602D056982BE0D30A04F570D8B9B5410CEBD25C859BE0951D400895AB1BF4EF888831A588E1BCACF6ADA39B32D4DAE36DCDE0865303F16CDA31618E1F89AA2AC0690E335A8C42DE8F392914886EF8D14856074DAF47BAAFABCF6091F5FC9E592B06A19721FABB0E5A477068597685B405A216
310
787B08E7714E731E6DF79189742ED412C046DB5BFE681185586F94A4A8800769BFAB424A6AA48D12B2DB9502E2EA1116FF582D9AE630F166FE99D3FCEF38E31CA22DF82EE2D6EF3A7B442443298E7628E9DBAEB95B4D5B68923DA439DE51908B3C12B98F908C26094E4F81E624E2976F4A3DA5B910846101F9EA28F84D3426
310
1E0412A3CD8A65A5D50ED044441996889E828022D303AE4E3BBAC68DA174789DC7DA7A5FD25893E8FF64111C412D99B38840290A39E455C67DEF0C62481B5D8372075FB0B68AB61683965042C4FBE81B26E9BD3C057543BE07F7188E24A58CF202C560D603C83EF315A5D40EEF5B143FA8FC11C5257D2B031198EE22426999
310
45F0230C4E1E435CBB0E4C2FA2D0206E629FC419146548967CC826E7679367FB989AA11B021B1BED0885B01D65A8E841BD1510753DE2D4E05BEA3D4ADD965911A12C2FD92043F1665D6FB2E4BB6A556407F2AB4A45281B2BC29660181026EBAC5AC56C30751D58C18D74A0DA4702650535A7B057128F5F7B93A6DCBB01B77E
310
FAB61B6450F8F568AF1951E7150C96C7566120BE2119DFBBE15A5F4737507F273839A4FAAAD66C568080988AE4252756455F5750DED81ACD0DEF90149B8F26EB56D7AF2B0FBA1FC118D640ED522F5C29A033CC245295C99DBAA1BF2108C12D1A667CA572EA2954AE9344578D88DE923E75B6CA88D6A619F18A7BCCF20C7E6C
310
43584CCB046F50221EA23B49A33551AC5B29BD8C5418BF28E0AF1FD71D78606480485F548187BF75D6DAD1852A978E1291F765B6658840106C89961ADD78054BAD462A2DD75775A680BA0B0CCCAA78FEFD64D16C477C3F59A4D630FED3C9E266FF0BDA37FB228D741E2BBB3EE91850E72745E52D8E01BAED5053ADB38849E6
310
567EEB4C1104C52ACA0FAEC6AAA06108F671FCAFB3765F1634DB75F83F2D6BFBCF2A8E93B24A6BB2EA521DA95C57CD1C7631BB999E5F5E2C46737F7A399ADF2E6E473733DF1FCD3FCC96FE7276F9EEFCE6B646533B6A18D4C14CE72E783641AD1A564F1603E8CA8A9C92044EF389936288F912CEF403DAE73CC3029267B3D9
310
9DD8A6FC80D58FA6CF29D196E28A937B040D622A20AD0346652CDBE3CE0FD09A9470D0BE72A169E43DC09FB54AD781CC73E542AB4092180B6F0B6D26D5D0D3C421E5EADC6F89013E88A52A259A45F573BD4A61D30AFFF5942169C0CAD5EA6140E15640F7ABD5A1D0BC599EE29304AFD8719084DB6D29A15A33B21C066A61F4
310
3607F51BD928610F76EB2770DD97C5F23D3DA785C8A04F062F1A81A13A9288A7BADFAD18B32C5D2FBF8CA1CFE6AC7E750A5AA6A0CBE194461C833197AAA0022B02ABB0340B24C154173F6FBEF01C3EF1648EAE8A9C1F9F2ECE7FDA2CF22CCB9919DA5CC3A92C810F45CEFA1E3EFB241B281EB06AAE8BCD74E24F37BAA96DFB
310
ECD11609ECA9AA0806AA624209D23139B0CB670D2ADBBE1C2B5574A6AF968E0DA2D00C3076F4ACC76B3E7239E043EA738AF218EDE795B42FF6B5C77A2AD804878E74F80F504B030414000608000019A2E842000000000000000000000000350000006662782F35363830353639362D383635452D344345322D424630312D41
310
32324344434531313144362F76657274696365732E62696E504B030414000608080019A2E842F270F1330600000004000000360000006662782F35363830353639362D383635452D344345322D424630312D4132324344434531313144362F747269616E676C65732E62696E636660600000504B030414000608000019A2E8
310
42000000000000000000000000370000006662782F35363830353639362D383635452D344345322D424630312D4132324344434531313144362F617474726962757465732E62696E504B030414000608080019A2E842D5987DFC8F00000041010000360000006662782F35363830353639362D383635452D344345322D4246
310
30312D4132324344434531313144362F6469726563746F72792E786D6C858F410EC2201045AF4266AF15DDB800BA74E7C21B903225242D6328188F2FA5C4183471359997F9FF81E89FF3C41E1816475E02DF1F80A11FC8386F25A438EECEC07A250251FC3803E6F58C12560C4AD840E95E91C151A72936F496F35732D860FE
310
635F62C8F2DA16B505C545B74125BAA2FA9E05D7CC053D063734D5C7665FD55B6B8D15D5E9BFEAFD8490FFA45E504B030414000608080019A2E842D3AD0CC3FD000000A00100003B0000006662782F35363830353639362D383635452D344345322D424630312D4132324344434531313144362F7265736F75726365732F63
310
6F72652E786D6C8D504B6E833010BD0A9A6D65B0A1D0141947209A13F4029699502BC146FE543D7E4DA052BBEB6666F43E9AA7C7CF5FCB3DFB44E7B5351DB09C428646D9499BB98318AEE404D95970676DF82583CCC8053BD860107C7636AE07A4AC096842428D9DF000A5F7182053F77474E0D5072E3297312485BFE5AB54
310
373963CEF244279DE03EB81420DB9F6C1384436FA353E879B1B382C7A8A743A3A7F4535F353A10F570A1B4191861554DC973D957A4EF873732D6CD782AC7D7B2192FBCD8CC8207BDFC64540E65C00944495945E80BA1A7F792B6AC696BFA44EBB6A2BCD8E47F4C719DFE698ADA84AA3CE2EE360F82A5200F42F062EB2BAD47
310
99696FDD8A6F504B010214000A000008000019A2E8423DEE336E79000000790000001B00000000000000000000000000000000006175746F6465736B2D64657369676E2D7061636B6167652E786D6C504B0102140014000608080019A2E842D486FD9CA0000000F40000001300000000000000000000000000B20000005B43
310
6F6E74656E745F54797065735D2E786D6C504B0102140014000608080019A2E842BB4751F2EB0000007C010000080000000000000000000000000083010000636F72652E786D6C504B0102140014000608080019A2E84255019EA25F0000007C000000070000000000000000000000000094020000636E782E786D6C504B01
310
02140014000608080019A2E84271643ACF68010000020300000C00000000000000000000000000180300006662782F636F72652E786D6C504B0102140014000608080019A2E842B3BCCEFB7D0000009D0000000B00000000000000000000000000AA0400006662782F636E782E786D6C504B0102140014000608080019A2E8
310
423AAEAB102C010000150200003100000000000000000000000000500500006662782F35363830353639362D383635452D344345322D424630312D4132324344434531313144362F636F72652E786D6C504B0102140014000608080019A2E842753D766756010000330300003000000000000000000000000000CB06000066
310
62782F35363830353639362D383635452D344345322D424630312D4132324344434531313144362F636E782E786D6C504B0102140014000608080019A2E8423D5D0AD1630700009A1B000034000000000000000000000000006F0800006662782F35363830353639362D383635452D344345322D424630312D413232434443
310
4531313144362F6F626A656374732E786D6C504B0102140014000608000019A2E8420000000000000000000000003500000000000000000000000000241000006662782F35363830353639362D383635452D344345322D424630312D4132324344434531313144362F76657274696365732E62696E504B0102140014000608
310
080019A2E842F270F13306000000040000003600000000000000000000000000771000006662782F35363830353639362D383635452D344345322D424630312D4132324344434531313144362F747269616E676C65732E62696E504B0102140014000608000019A2E842000000000000000000000000370000000000000000
310
0000000000D11000006662782F35363830353639362D383635452D344345322D424630312D4132324344434531313144362F617474726962757465732E62696E504B0102140014000608080019A2E842D5987DFC8F000000410100003600000000000000000000000000261100006662782F35363830353639362D38363545
310
2D344345322D424630312D4132324344434531313144362F6469726563746F72792E786D6C504B0102140014000608080019A2E842D3AD0CC3FD000000A00100003B00000000000000000000000000091200006662782F35363830353639362D383635452D344345322D424630312D4132324344434531313144362F726573
310
6F75726365732F636F72652E786D6C504B0506000000000E000E00800400005F1300000000
  0
XRECORD
  5
17
102
{ACAD_REACTORS
330
12
102
}
330
12
100
AcDbXrecord
280
     1
270
     1
271
     1
  0
XRECORD
  5
16
102
{ACAD_REACTORS
330
12
102
}
330
12
100
AcDbXrecord
280
     1
270
     1
271
     1
  0
XRECORD
  5
18
102
{ACAD_REACTORS
330
12
102
}
330
12
100
AcDbXrecord
280
     1
270
     1
271
     1
  0
XRECORD
  5
15
102
{ACAD_REACTORS
330
12
102
}
330
12
100
AcDbXrecord
280
     1
270
     1
271
     1
  0
XRECORD
  5
81B
102
{ACAD_REACTORS
330
22
102
}
330
22
100
AcDbXrecord
280
     1
102
MATERIAL
148
0.0
149
0.0
149
0.0
 93
        0
 94
      127
282
     0
 72
     0
 77
     0
171
     0
175
     0
179
     0
273
     0
  0
XRECORD
  5
24
102
{ACAD_REACTORS
330
22
102
}
330
22
100
AcDbXrecord
280
     1
270
     1
271
     1
  0
XRECORD
  5
23
102
{ACAD_REACTORS
330
22
102
}
330
22
100
AcDbXrecord
280
     1
270
     1
271
     1
  0
XRECORD
  5
BA
102
{ACAD_REACTORS
330
22
102
}
330
22
100
AcDbXrecord
280
     1
 70
     1
 90
1959938040
 71
     1
  1
58D65985-9697-47FB-92B5-E23CD701472B
311
504B03040A000008000018A2E8423DEE336E79000000790000001B0000006175746F6465736B2D64657369676E2D7061636B6167652E786D6C3C3F786D6C2076657273696F6E3D22312E302220656E636F64696E673D227574662D3822203F3E3C666F726D6174733E3C666F726D61743E687474703A2F2F736368656D612E
311
6175746F6465736B2E636F6D2F64657369676E2D7061636B6167652F323030393C2F666F726D61743E3C2F666F726D6174733E504B030414000608080018A2E842D486FD9CA0000000F4000000130000005B436F6E74656E745F54797065735D2E786D6C7D8EC10E82300C865F65E91D8A1E8C310C0EEA1BF002731658846E
311
D98AC1B77784ABF1D8FE5FBFBF75BBCE937A534CCEB38643598122B6FEE978D0B0485F9C41B54DDD7D022595594E1A469170414C76A4D9A4D207E29CF43ECE46F218070CC6BECC4078ACAA135ACF422C856C0E68EA1BF5669944DDD7BCDE7B1F8E415D77AECB980613C2E4AC91FC167A2B244592486606FC29C8FD7F045B9A
311
EF7053A7E60B504B030414000608080018A2E842DEB5B16FEA0000007C01000008000000636F72652E786D6C8D904D6EC3201085AF82D856D860FC832C4C14D5E9097A0104C44189C13250E5F8C18923B5BBAE66F4E67D33A3C70FF7F9067ECC1AAC7703240586C038E5B575D300533C2306C141F0D5FBF8CB068193B319E0
311
2643C1A7D5A765979477D1B89855E7B5D94519828910A85B6E0618D4C5CCB290296647B8168B5457399982BCBB0CA76435781DB13AEFB3676B5628AA638D29A19FE8F4C508AA0925888D2343C7B63B551DA9DAA61979B9C182473BBFEFABD5C86874E631A1087708B3EF0AF7A4ED6BF6819B9E625E6EF63F505AF43FA1645D
311
A4D5FEEE0B0B5090FCC8732078B96591CB33A85CB7DCC403504B030414000608080018A2E84255019EA25F0000007C00000007000000636E782E786D6C4DCB3B0E80201045D1AD90E915ED2CF8AC45050C11660C8261F98AB1B07AC9C97D42D718D865D3E909258CFD00CCE24AC6E326A164D74DC0B4128928FF326038472B
311
A13128B1252AC747C6BAB984FC68F0B87FE8960A5C09FE86CFB69FBA01504B030414000608080018A2E8425033D0B366010000020300000C0000006662782F636F72652E786D6C8D52ED8E8230107C95A67F2FA52DA012536ACCE93DC1BD4085CA11A125A5253EFE2D1FC6F3628C2129CDCCCEEEEC80D85DDB060DDAF5B535
311
39E611C3489BC296B5A9721CFC996418EDA470D6FA3F651819D5EA1C8F3096A27236740B5458E3B5F1801A5BEA05547DAF3D464503971CF7C58F6E55A482878AFE1275AAB8A84A473C021AEAA4E8BD0303681E329E589E4F5741675C8A10EA7261EB12A6D5E75A3B2CE37DCA129E7C92E357C649CA134EB2C32123FBF5E618
311
6F78BC5EAD0E828E62297CDDDEDC154E2BAF4BD0339E10B6212CFB8ED996AFB769F6C156DB84093A963F884257BE290AB5F149BCD89D653D961C8C4CC4BF6D21228F7A35801F2A051D4384D794F063D0100884ECD5A9B9ED710168D085B72E05A6B4E14E0DAA091AA632343D82CE2C749E1AC0664FFBC42FFABCEE011F5099
311
0AAC290FD753F0E374314F5DA2E8B42383BF22635DAB9ABBB9D9E2FDBC0F7A2A2F6C63DD3B6ABAAC4A9730E9F8F7CA5F504B030414000608080018A2E8424206C4707D0000009D0000000B0000006662782F636E782E786D6C4DCCD10A83201886E15B91FFDCCA266E82DA81D97DC4B2909986D3D8E5AF46073BFAE0E1E315
311
DD67F568B7E9ED629040AA06900DCF38B9B0482879C60F409D1229C6FC770314C6D54A38199458522CDB45939DC7E2F3A1DE85D785EDBD6703371C0F8C1B4C35E3985342B1360DD57D7B338C68A895A87FA563CFB0FA02504B030414000608080018A2E84285CCA5472D01000015020000310000006662782F323744364639
311
45392D463639452D344336392D393431342D4345303443443233453631432F636F72652E786D6C8D51CB6EC32010FC158B53AA0A1B6C87D8112607C7F982FE0031244189C1E251E5F30BB523B5B75C58343B333BDAA587E7F4C8BEA575CAE80EE01C814CEAD108A5AF1D08FE021B901D18B5C6F83F3490693EC90E2418307A
311
B526CC2B341AEDA5F611D546C815E4CE490FB2F1113F1D70E34D4E3CE7C14786BBE7331FEFFC2A739CC776E431EABC8D01B265487A012B7747726A87169E483BC0BA272D6C6B5CC37E40757F2CAB81E09E168B90D1109458E54AC438EAA2A47DD7248919F56A7AC51FADE45E8AA847B882680751F355A23D26FBBAF944DB7D
311
856891E8FF4461166F8A82D2BE2AD7B88BCC018669B1341815269C1FAF30F2391BEBB3346FE3E4F80118CA116A76B869CB96160B376E209A927A3575DED8B8E1CDFD1CE978BB38939AD1221D2996DF0BC69A0ECA7E00504B030414000608080018A2E8421A8A0D3D4E01000033030000300000006662782F32374436463945
311
392D463639452D344336392D393431342D4345303443443233453631432F636E782E786D6CD593CD6E022114855F85B06DE64FA7D61806932EFA045D74CBC055A90C4CF869EADBF7A268DDB8E8B21B3239F770CECD17866DBF2743BEC007EDEC40BBBAA504AC744ADBFD4053DC556B4AB69C79E7E29D8D122B261868962967
311
7BEFD25C24053B914C44D5687B2CA287E092971050CE37897152180C005B2514611A412950E466C4AF1D785C05C5F144E201C8DBEB0771E327C818589353386B720767F92C4D77264AA411210C34C8034CA216293A05E1582B1145DDD5D7AE073BFD26917CE15A99BC26B97CA0F9A4BC6C542347D6E090B3103DD22BA6789A
311
817231CF464B11117273365E3C9C256DE3AA2F5E8DE03DBABBD5B2EF31EC3CE32CEA098A437A101114E58BB65B56ED4BD5AEDF17EDA65B6DFAF553FBBC59B6ACC976CE46E74CB98431E0DD4CA4B3116CA4BC634D1E3FC2577C44698FAC9D3FFD01240228AD173AB78CFFCCA739BF6FC4E5F12FE03F504B0304140006080800
311
18A2E842FE44D919A505000080100000340000006662782F32374436463945392D463639452D344336392D393431342D4345303443443233453631432F6F626A656374732E786D6CAD57DB6EDB3810FD1541FBB2FBE08B7C49E285A222B69BC228D216355AEC8301839228851BEA02924A9CFDFA3D94A89B6BA7DE455F2C8B
311
1A0E67CE9CB9D07D7748B8F54C8564597A6B3BC3B16DD134C84296C6B776A1A2C18D6DBDF35C9165AA23665B2949E8ADAD976DCF8D4556E46629A41129B83A5ABD5FFE65C980A6D4B6024EA4BCB565F04813322485CA422A9F86215164184787A133AC04FB6A6341F2C723A539113455B014EB29B45895514EFF756C8F3C77
311
A4BF7BAEFE3552D3F352A3D29FFEF92C958AA4C10F871DA9993AB3F5FBC97C3198CF66D3C1EC6AE20C96F7CBF5C0B99E8E5757ABD5E2EEFD02074B25A0C9582268647B1F808D60813BAA3E796EC152359D181113A091A0CF4C47CAF62696E38E2A99C63BE3E429F3832C4D69506205344AFF8CEA90E6340D117346252CEB20
311
34EEBF3A1AC7CEE7A97E374776972F43A0BBA3A3A8B6BD7E762DCDFCBFE182BC84414252CDC00A4BE368C5D5718BB09F65DC7C63D24A88A282116E71E60B225E6D0FA25AC4737B6A349385CE06ED81ED210AD5E73E5D90463FE7F9292BA382734D63DB2BB3608F5CA14A9696B17FA868ADEF22039B102BCD861BE3907ACDA9
311
ED2D2A8ADC1CB1A902D28A38891172B8A9774E27478EAE749E6ED6B6F7F1DE3F6C75EE9E3E3C17594E85D2F401B5EAC0D54F8D92B1C9B928727A837D644A0BCA5720FF09A9DE9A82B80976981D66E61425482AA34C24888D35B60663FC8C2DA7FCD5FF3BFFDC51B3B91FBD737822D81AAA5F8067DF876E2C3B707AEE33089F
311
89A9716D1B108EB2F1C05200A44962F10C4BA8C3917FB0BD0DAA1CAA327611EE397019E63EE3AF3B326A5028CA933ACF14581E95C50B0A34602B1909332AF21B03DB38FD50CECA838DD83978E7BF84AE77EBEDC76D212212D00793D36B1AB19429B4B896375D837A98F73C7AA2AF2F9908E1E88F786FBB7827E62809B435E6
311
1AF8B8AEE9FAA53DB97740807D71A6CB8DFB9313E0846EAC1DFD0F4C06947392D2ACA8CF7DB37FA06D5410EB64D74C6E1A4CDB58409AEACB510EA2490782E51AC4A65B35457378C6BB6F9B4F6024E479E613DE0AF96DE90D329E89BDFFBAAFAAD249A4BFF7A96D2018692D607B992375FA1BCCF7218BA242A2069E80F5FB66
311
D50D9DAE0AA810B5D62A5966701FB94584E16CAD17CD5A1034D22CDD33B44DA4DDC903BAFA81A82140A9F09CC592F268CF382F927DC4389AD13E21F91938FEBFFD7E91E47B926445AACEE8EE998EE6D0B7BD475EF94254F0687BDBF23958A2F486346CC3DC13D6ADE40456BDD0CE6FD657F3C5CD7CB0B85A5C0F66D7F7CBC1
311
62B29C0FDE4FA6ABF5F5D8995D4F96759C2AE59E5B779A6E42234AE86C6E219809DFB70DD2C7D400DB7B204AEE3E54D9593FBF6D861885DD11F6A05D361BEFC2678C7D34FCB98256F2A4A24D92739AD054119D420FFA0FFF4A3066F48CA9D6370989E9055A3E7FD81E3983950BF67DD1E94E5F8EF69AD5954EC8934AD46391
311
F82961FC68635C2139CCD3D8E057C7A479567DA67ED56F2630184C65C6598832185A31CD12AA500C2FE84122A112D4EB8EF4A1B97A5CB0FBB91A1015F139AD2D79249891B9445A805A45A0FAEBD66F98E9F458756BA3DB0E9FF0632A856D8133B7366674C5022A873EFAB39E844AE5E0527790C7DC4FD29863D4AE3635EFCD
311
2E8D4DAF233722978C4FC6AFAA821B075046728C0D9887109DD218CF2D6D33DF83FFE4786D8E4514FEFA856A7C69171A67CA6390A29553E6B28019E6C91C7D40A2BEED96332C657A885C74C97A930495D68122222E2F0ADA3E63D2DDFACB08038AB5F96CE5BC8811CBCB350D0405990B9DE06011586174E64481AAAB3F775F
311
44868B6C62DD3350C0FAFD7073F5C76E95254996564BBB3B731DB6B68FB8DC863B1407AA6F257237193B935D791B301794BD4F241D92503E61019115AC01BA177EF0B2BA32A20F551F1AB9910EC51143376BCB34B619941ABA746BAB060773474A2DE490BE51EA8CE90AE46F5E0846A5284C1018E5BD7F01504B0304140006
311
08000018A2E842000000000000000000000000350000006662782F32374436463945392D463639452D344336392D393431342D4345303443443233453631432F76657274696365732E62696E504B030414000608080018A2E842F270F1330600000004000000360000006662782F32374436463945392D463639452D344336
311
392D393431342D4345303443443233453631432F747269616E676C65732E62696E636660600000504B030414000608000018A2E842000000000000000000000000370000006662782F32374436463945392D463639452D344336392D393431342D4345303443443233453631432F617474726962757465732E62696E504B03
311
0414000608080018A2E842D5987DFC8F00000041010000360000006662782F32374436463945392D463639452D344336392D393431342D4345303443443233453631432F6469726563746F72792E786D6C858F410EC2201045AF4266AF15DDB800BA74E7C21B903225242D6328188F2FA5C4183471359997F9FF81E89FF3C4
311
1E1816475E02DF1F80A11FC8386F25A438EECEC07A250251FC3803E6F58C12560C4AD840E95E91C151A72936F496F35732D860FE635F62C8F2DA16B505C545B74125BAA2FA9E05D7CC053D063734D5C7665FD55B6B8D15D5E9BFEAFD8490FFA45E504B030414000608080018A2E842CD1E9FF7FC000000A00100003B000000
311
6662782F32374436463945392D463639452D344336392D393431342D4345303443443233453631432F7265736F75726365732F636F72652E786D6C8D50596AC33010BD8AD16F912D798B30B2428AD313F402429AB822B164B4941EBF72EC42FBD79F99E12DCCE3F1F3D7F2283EC107E3EC886849500156396DEC3CA2146F98
311
A1E22CB8772EFE92A1C2CA0546B4C148F0D9BBB41E907236828D19B54EC301CA1020A2423DF231A2A03E6091A54C312BC2BD5CA5BACB194A5A663AEB040FD1E700C5FE649B4878082E790581573B2B784A461F1AA3F34F7333E091A82F2D6968F38AAF6F8CE2963614B36962F8D29FAEF589D67DD74DBCDACC8247B3FC6454
311
1E64049DFD8436989C3061EF3519683FB4EC8574434378B5C9FF98D2AAFF694AC6C6A63EE2EEB68004CD419E84E0D5D6575ECF32F3DEBA15DF504B010214000A000008000018A2E8423DEE336E79000000790000001B00000000000000000000000000000000006175746F6465736B2D64657369676E2D7061636B6167652E
311
786D6C504B0102140014000608080018A2E842D486FD9CA0000000F40000001300000000000000000000000000B20000005B436F6E74656E745F54797065735D2E786D6C504B0102140014000608080018A2E842DEB5B16FEA0000007C010000080000000000000000000000000083010000636F72652E786D6C504B010214
311
0014000608080018A2E84255019EA25F0000007C000000070000000000000000000000000093020000636E782E786D6C504B0102140014000608080018A2E8425033D0B366010000020300000C00000000000000000000000000170300006662782F636F72652E786D6C504B0102140014000608080018A2E8424206C4707D
311
0000009D0000000B00000000000000000000000000A70400006662782F636E782E786D6C504B0102140014000608080018A2E84285CCA5472D0100001502000031000000000000000000000000004D0500006662782F32374436463945392D463639452D344336392D393431342D4345303443443233453631432F636F7265
311
2E786D6C504B0102140014000608080018A2E8421A8A0D3D4E010000330300003000000000000000000000000000C90600006662782F32374436463945392D463639452D344336392D393431342D4345303443443233453631432F636E782E786D6C504B0102140014000608080018A2E842FE44D919A50500008010000034
311
00000000000000000000000000650800006662782F32374436463945392D463639452D344336392D393431342D4345303443443233453631432F6F626A656374732E786D6C504B0102140014000608000018A2E84200000000000000000000000035000000000000000000000000005C0E00006662782F3237443646394539
311
2D463639452D344336392D393431342D4345303443443233453631432F76657274696365732E62696E504B0102140014000608080018A2E842F270F13306000000040000003600000000000000000000000000AF0E00006662782F32374436463945392D463639452D344336392D393431342D434530344344323345363143
311
2F747269616E676C65732E62696E504B0102140014000608000018A2E8420000000000000000000000003700000000000000000000000000090F00006662782F32374436463945392D463639452D344336392D393431342D4345303443443233453631432F617474726962757465732E62696E504B01021400140006080800
311
18A2E842D5987DFC8F0000004101000036000000000000000000000000005E0F00006662782F32374436463945392D463639452D344336392D393431342D4345303443443233453631432F6469726563746F72792E786D6C504B0102140014000608080018A2E842CD1E9FF7FC000000A00100003B00000000000000000000
311
000000411000006662782F32374436463945392D463639452D344336392D393431342D4345303443443233453631432F7265736F75726365732F636F72652E786D6C504B0506000000000E000E0080040000961100000000
310
504B03040A000008000018A2E8423DEE336E79000000790000001B0000006175746F6465736B2D64657369676E2D7061636B6167652E786D6C3C3F786D6C2076657273696F6E3D22312E302220656E636F64696E673D227574662D3822203F3E3C666F726D6174733E3C666F726D61743E687474703A2F2F736368656D612E
310
6175746F6465736B2E636F6D2F64657369676E2D7061636B6167652F323030393C2F666F726D61743E3C2F666F726D6174733E504B030414000608080018A2E842D486FD9CA0000000F4000000130000005B436F6E74656E745F54797065735D2E786D6C7D8EC10E82300C865F65E91D8A1E8C310C0EEA1BF002731658846E
310
D98AC1B77784ABF1D8FE5FBFBF75BBCE937A534CCEB38643598122B6FEE978D0B0485F9C41B54DDD7D022595594E1A469170414C76A4D9A4D207E29CF43ECE46F218070CC6BECC4078ACAA135ACF422C856C0E68EA1BF5669944DDD7BCDE7B1F8E415D77AECB980613C2E4AC91FC167A2B244592486606FC29C8FD7F045B9A
310
EF7053A7E60B504B030414000608080018A2E842570681A8EC0000007C01000008000000636F72652E786D6C8D904D6EC3201085AF82D856D8E09FD8B53091DD2627E805104C5C94182C03558F5F9C3852BBEB6A466FDE37337AFCF83DDFD017ACDE38DB6396518CC02AA78D9D7A1CC385B4181D055F9D0BBF6C185939438F
310
37190B3EAD2E2EBBA49C0D604352ADD3B08BD27B0818A95B6A7AECD527CC3293312487BF668B54573941C69E5D8263341A3D8E189DF6998B81158BA21EDFDBA13891E6AD3A91EAB5AAC878A86B722E1B4ACF031BC6A1E1F9060B1ECCFCBCAF56900174E2292B096D086D3F0ADAB14357B52FB4EE4ACAF3CDFE078A8BFE2714
310
8D0D65B1BFFBC03C162C3D721F089E6F59A4720F2AD52D37F103504B030414000608080018A2E84255019EA25F0000007C00000007000000636E782E786D6C4DCB3B0E80201045D1AD90E915ED2CF8AC45050C11660C8261F98AB1B07AC9C97D42D718D865D3E909258CFD00CCE24AC6E326A164D74DC0B4128928FF326038
310
472BA13128B1252AC747C6BAB984FC68F0B87FE8960A5C09FE86CFB69FBA01504B030414000608080018A2E842E4A70A9468010000020300000C0000006662782F636F72652E786D6C8D525B6E833010BC8AE5DF0A6C5E098D8C23D22627E8051C70280AD8C8D828C7EFF28868AA28AA908C35B3B33B3BC0F6B7B64183347D
310
AD5586039F622455A1CB5A551976F6E2A518ED39335ADB5F651829D1CA0C8F30E6AC32DA750B546865A5B2802A5DCA05147D2F2D464503970CF7C5B76C852F9C858AFEEA77A2B88A4AFA810F34D471D65B0306D03C643C31BF9C6F8CCC3867CED5E5C2D6254CAB2FB5349887C9E133CDC3A3B7FD888F5EFC1EC7DE619324DE
310
29DA527ACA83FC906F1919C59CD9BABDBB2B8C145696A0A741E4D1AD47D3AF90EE82CD2E4EDF68B28B282363F983C875E53F45AE56360A17BBB3ACC73C002313F1675B88C8A25E0CE0877046C610E13525FC18340402215B716EEE7B5C011A6461B5898129B55BA941344EC2548AA687919985CE5303D8EC699FF0459FD73D
310
E0030A55813561E17A76769CCEE6A94B149D34DE606F4869D38A6635375B5CCF75D05379A11B6DFEA326CBAA6409938C7F2FFF01504B030414000608080018A2E84228F14E807C0000009D0000000B0000006662782F636E782E786D6C4D8C410E83201405AF42FEDE8A62A80BC040B1F730150D2982A1D0F4F8C5C645576F
310
327919367C3687DE26BE6CF01C9A0B0664FC23CCD6AF1C725AAA1ED020580C21FDDD00F969331C0E0D82AD31E4FD54B359A6EC52B1CEFAE72929A6DD486453A9F146ABAEED0B69A90BDDAFB8559228A2A116ACFE95CA1E61F105504B030414000608080018A2E8429D330AE32B01000015020000310000006662782F363036
310
34453341312D424543362D343238312D424441442D3432463730324241334233442F636F72652E786D6C8D515B6EC32010BC0AE22B55651B8CE3B811264A9AF404BD8003C44589C1E251E5F85DD78ED4FEE50756B333B3A35DBEBB0F37F4AD7D30CEB698E604236DA553C6F62D4EF1923518ED04F7CEC53F348C6C37E8164F
310
3016BCF72E8D0B249D8DDA4640AD537A01BB1074C448DEA06871905F7AE8F22E4560846B3E76F2DAF53AA739B4812778881E02A079C8F4625193BA3AB13DCD0EA7F73AABCA06AAE3FE08D5C78694873D3BB0232F66A1E02919B5C88D8238E662B47FD664120B1ECDF0882FBDEEA256589484B28C6C32D27C96644BEB6DD5BC
310
92F596115E4CF47FA234AA2745C9D8C8CA25EE2C0B58505ECC0DC1954BE7DB238CBE8FCE4734CD5B052D5FB02039216F745D12D6F062E6C206C0B4AE16D3109D870DAFAE67A0B3C5B9AE042FA623C1F77B41F8A7838A1F504B030414000608080018A2E8427C2DC22A5601000033030000300000006662782F363036344533
310
41312D424543362D343238312D424441442D3432463730324241334233442F636E782E786D6CBD93CD6EC32010845F0571ADFC17BBA9156122F5D027E8A1570C9B86068305B86ADEBE4B42D25C72A854F582ACD96166F509B3EDD764C827F8A09D1D6853D69480954E69FB3ED025EE8A9E922D67DEB97863A3C48A09069A64
310
CAD9BB77CB9C25053BB19888AAD1F690450FC12D5E424039DD24C6496130006CB1A008D3084A812257237EEDC0E32A288E4712F7405E9EDF881B3F40C6C0AA94C259953A384B676EBA3151228D0861A041EE6112A558A253100EA51251944D79E9BAB3D34F1249172E958BD724950F349D94E78D4AE4C82A1C7216A2477AD9
310
148F33502EE6D968292242AE4EC6B387B345DBB8EEB25723788FEE76B5EE7B0C3BCD388B7A82EC901E440445F9AA6EDAA27E2AEAFE75556F9AF5A6EB1FEAC74D5BB32AD9391B9D33F912C680773391CE46B091F28655697C0F5FF611A53DB276FEF80B900820B79EE95C33FE924FB36EBBEE1FF954A7F78DB83CFE05FC1B50
310
4B030414000608080018A2E8423189C00C64070000991B0000340000006662782F36303634453341312D424543362D343238312D424441442D3432463730324241334233442F6F626A656374732E786D6CED595B73A33816FE2B14FB32FB606C7C49E229C2546277BA5C5399E91A6F4FCD83AB281964A28D109424D2C9FCFA
310
3DBA808198044F67DFFAC106847474CE77AE3A04BF3C67D479C25C909C5DBBBE37711DCCE23C212CBD764B79185DB9CE2F61C0F35C36A6B90E4319BE76D5B01B0629CFCBC20E25F8804A2A3BA377B77F3922C60CBB4E4C9110D7AE881F70863C54CA3CC1E2D14B90445E7A78F67CCF4C6C934D392A1E3A440BC43193C0298C
310
33A0E218A6FCF6E3C41D87C158BD0F03F56F67CD06CD9AF7CF1A6BA9DB5C12262462F12B963A646683589AF9F3F5A7E962395ACCE7B3D1FC62EA8F6EEF6ED723FF7236595DAC56CB9B4F4B606F9FE7D4CA94E002B304F4F7E2867E30566F6AD12D02A7B88E73C670AC8104A8B4585D82040BD8AA01DFA4FDE82B891AAFB584
310
8DE7B97A6F59680CCFDA54FA660D03A2451704B1DB551257D7A67CF9FEBF20B81862945C6009DC0AC941BB161E0E5EE18693606C46C3607FD405114E8624E6045187923D471C940253D59430300B2C19E51C1C48394A02AD39F3BA6D5BE099EFBBCE292E0F25A5CA33DC503B5604EE87A5D09C91BF313F72DF44067802694B
310
C2E495E552BE14D80D97C1580F8681BACCA6F6A501D23950940A8D8879DB1174A55C7FB376C35FEFF6CF5B150E4E6F5EF0BCC05C2AA3537AD47C8121DBAB42C96EEB0FD29C5A00C21850EDCA23287F00F2BF41F438B2027AE3E479FE3CB77325474C1C729E816E9C89339AC0DFC4F1F5BFBA6FDC05E37A715B7B7D78829B2A
310
A8AEBE1FCFB60C1A2BCB7F03CE30780283CFF9CCBEDAC688823DDF130600292371680E4310DA0FFB6737DC40E084400FAB100D7D1019D87D82DB606CC91CB552B997F53A0688DA3D66439404B0698B04367AF4F419B20727F1514D4D11FBE05D7C88B9DEACB7BF6E4B7E4031BEB73EBDC607C28884AC799AA116E62D891EF1
310
CBB79C2720E86BBCB74DBC33BB9500B415E60AF8B402413D1C776E6D10C3BA3457E1267867071042E5EA06FD7B22624C2962382FAB7DEBE8A60CB5F6785B33B8E1D4403C9B764C98E327A2AA0A709AE38C16A390F7634E0A05A21B7E3692D541D3EB91EEEBE637B0C87A7ECFAC0D83D0CB10FD8F0E5A277068597685B405A2
310
16787F0CE7714E731EED5F2213E95CA825808DB6B7FCD9220AB1DE284951010FD27E578594D4481B25E4702805C4D5132CFEB95935CD61E2CDFC85D3FCEF38E31CA22DF82EE2D6EF3A7B442443298E0E28E9DBAEB95B4D5B68923DA4393E50908B3C11F91221194D129C9E03CD59C4971F4A3DA5B910846101F9EA24F84D34
310
261E0412A3CD8A65A5D50ED044441996889E838022D303AE4E3BBAC68DA174789FC7DA7ADFD25893E8FFC92238825A32671181521472C8BB8CFBDE0262481B5D8372075FB0B68AB61683965042C42FD1374CD207790EEA867C0FEE311C494A19E5058AC1AC07907DE52B4AA91DDEF7287E54F9238A4BFA510622303D4484D2
310
328BE047189C3C86B8761D98DE44A141DCC43E893328CA902CF9904D2E169357FB989AA11B021B1B1D0885B01D65A8E841BD1510753DE2D4E05BEA3D4ADD975911A12C2FD92043F1665D6FB2E4BB6A556407F2AB4A45281B2BC29660181026EBAC5AC56C30751D58C18D74A07A8904CA0A6A4E61EF241EBFF6264DB977036E
310
FDF46337C8A0F0EBD15E33A2CE2B182C8FADC2407C43327E70C3ADBE8E6EA1FE4E70724CF555ADD9AC00013115C94B4EAC8ABE6EA0BCB1359A1BDE2329769F4DD6ADAE5F371E743F8231AC81DAA55EB85140679849A42A937B7543FF4010825B34CCF846E5D473A8DC2489AE1A11BD237DEA6C9511AD4D33E2150F98E519FC
310
D88EB0989609DEA1443C46F792465BA258B7527A19A9307E53C0DF3F6F3BF0C0C80091BEA8020F7FEBACB5A32B552E9D24221FCA6CCF108120D8122D35BAF10A965A8D545AAEAFEA4C017517189855F1FCC7C9A2D98EF871B248AD617CDFC982E67B448FD1A691CD6365D6679D02EAF4A4A87CC42940771D6AAA751231B9DC
310
8A6F7D2982985805F9C1C55815330CC13E8EFF71D2EE4B8266BB0EFFE7256DFF55C1715652694D564DAA1385EBA699C21657EB8BC5F26A315A5E2C2F47F3CBBBDBD1727ABB187D9ACE56EBCB893FBF9CDED6686A3F0D833A96E9D405CF26A655C3EAC962004D59915392C0613E71520C215FC2917E40F79C675840EE6CF6BA
310
13DB931FB0FAC9B43925DA535C71F280A03F4C056475C0A88C657BDCF9177426259CB3AF5DE819798FF067ADD27520F15CBBD0299024C6C2DB439749F5F33471C8B83AF55B62800F62A9CA886651FD5CAF52D8B4A27F3D654816B072B55A1850B715D0FC6A3528346F96A7F82CC12B761C24E1765F4A28D68C2CC7815A18BD
310
CD51FD46364AD8A3DDFA195CF76DB17C4FCF692132E88BC19B4660A88E24E2A96E772BC62C4B37EB2F6368B3399BDF9D829629E87238A511C760CCA5AAA7C08AC02A2CCD024930D5D5CFBB2F3C872F3C99A38B22E7A7E7AB8B7FEF567996E5CC0CED6EE05096C0772267FB005F7D921DD40E58F5D6C56E3AF1A73BDDD3B66D
310
F6688F04F654510403552DA104E9981CD8E5ABFE94ED5E8E952A3AD3376BC70651E805183B7AD5E235DFB81CF021F53545798CF6F34ADA37DBDA633D156C8243433AFC1F504B030414000608000018A2E842000000000000000000000000350000006662782F36303634453341312D424543362D343238312D424441442D34
310
32463730324241334233442F76657274696365732E62696E504B030414000608080018A2E842F270F1330600000004000000360000006662782F36303634453341312D424543362D343238312D424441442D3432463730324241334233442F747269616E676C65732E62696E636660600000504B030414000608000018A2E8
310
42000000000000000000000000370000006662782F36303634453341312D424543362D343238312D424441442D3432463730324241334233442F617474726962757465732E62696E504B030414000608080018A2E842D5987DFC8F00000041010000360000006662782F36303634453341312D424543362D343238312D4244
310
41442D3432463730324241334233442F6469726563746F72792E786D6C858F410EC2201045AF4266AF15DDB800BA74E7C21B903225242D6328188F2FA5C4183471359997F9FF81E89FF3C41E1816475E02DF1F80A11FC8386F25A438EECEC07A250251FC3803E6F58C12560C4AD840E95E91C151A72936F496F35732D860FE
310
635F62C8F2DA16B505C545B74125BAA2FA9E05D7CC053D063734D5C7665FD55B6B8D15D5E9BFEAFD8490FFA45E504B030414000608080018A2E84244ADAF30FE000000A00100003B0000006662782F36303634453341312D424543362D343238312D424441442D3432463730324241334233442F7265736F75726365732F63
310
6F72652E786D6C8D50596E833010BD0AF26F65B0590241C61134CD097A01CB4CA89560232F558F5F3BA152FBD79F99D15B344F8F9DBED67BF609D629A30744738232D0D2CC4A2F030AFE8A3B949D38B3C6F85F329469B1C280128C385BAC09DB0E49A33D681F516D66D841E11C7894C97B3C06E4E407AC2217C14785BBE59B
310
9037B1404EF348471D67CEDB18207B3E4913710BCE042BC1B1E2C97216829A778D9AE34F755560112F9BE9DC8DE519B7AFF51BAE8F758DA743D3E04BD5127219E9388D2D2B929933AFD69F8CD282F030473FA115262D26DD7B497A7AE8EBEE85347D455891E47F4C619BFF690A4AFBAADCE33E6D0E711A833C08CE8AD4575C
310
8F32E34EDDF26F504B010214000A000008000018A2E8423DEE336E79000000790000001B00000000000000000000000000000000006175746F6465736B2D64657369676E2D7061636B6167652E786D6C504B0102140014000608080018A2E842D486FD9CA0000000F40000001300000000000000000000000000B20000005B
310
436F6E74656E745F54797065735D2E786D6C504B0102140014000608080018A2E842570681A8EC0000007C010000080000000000000000000000000083010000636F72652E786D6C504B0102140014000608080018A2E84255019EA25F0000007C000000070000000000000000000000000095020000636E782E786D6C504B
310
0102140014000608080018A2E842E4A70A9468010000020300000C00000000000000000000000000190300006662782F636F72652E786D6C504B0102140014000608080018A2E84228F14E807C0000009D0000000B00000000000000000000000000AB0400006662782F636E782E786D6C504B0102140014000608080018A2
310
E8429D330AE32B010000150200003100000000000000000000000000500500006662782F36303634453341312D424543362D343238312D424441442D3432463730324241334233442F636F72652E786D6C504B0102140014000608080018A2E8427C2DC22A56010000330300003000000000000000000000000000CA060000
310
6662782F36303634453341312D424543362D343238312D424441442D3432463730324241334233442F636E782E786D6C504B0102140014000608080018A2E8423189C00C64070000991B000034000000000000000000000000006E0800006662782F36303634453341312D424543362D343238312D424441442D3432463730
310
324241334233442F6F626A656374732E786D6C504B0102140014000608000018A2E8420000000000000000000000003500000000000000000000000000241000006662782F36303634453341312D424543362D343238312D424441442D3432463730324241334233442F76657274696365732E62696E504B01021400140006
310
08080018A2E842F270F13306000000040000003600000000000000000000000000771000006662782F36303634453341312D424543362D343238312D424441442D3432463730324241334233442F747269616E676C65732E62696E504B0102140014000608000018A2E8420000000000000000000000003700000000000000
310
000000000000D11000006662782F36303634453341312D424543362D343238312D424441442D3432463730324241334233442F617474726962757465732E62696E504B0102140014000608080018A2E842D5987DFC8F000000410100003600000000000000000000000000261100006662782F36303634453341312D424543
310
362D343238312D424441442D3432463730324241334233442F6469726563746F72792E786D6C504B0102140014000608080018A2E84244ADAF30FE000000A00100003B00000000000000000000000000091200006662782F36303634453341312D424543362D343238312D424441442D3432463730324241334233442F7265
310
736F75726365732F636F72652E786D6C504B0506000000000E000E0080040000601300000000
  0
XRECORD
  5
27
102
{ACAD_REACTORS
330
22
102
}
330
22
100
AcDbXrecord
280
     1
270
     1
271
     1
  0
XRECORD
  5
26
102
{ACAD_REACTORS
330
22
102
}
330
22
100
AcDbXrecord
280
     1
270
     1
271
     1
  0
XRECORD
  5
28
102
{ACAD_REACTORS
330
22
102
}
330
22
100
AcDbXrecord
280
     1
270
     1
271
     1
  0
XRECORD
  5
25
102
{ACAD_REACTORS
330
22
102
}
330
22
100
AcDbXrecord
280
     1
270
     1
271
     1
  0
XRECORD
  5
815
102
{ACAD_REACTORS
330
814
102
}
330
814
100
AcDbXrecord
280
     1
102
ACAD_ROUNDTRIP_2012_MLEADER_STYLE
298
     1
  0
CELLSTYLEMAP
  5
813
102
{ACAD_REACTORS
330
812
102
}
330
812
100
AcDbCellStyleMap
 90
        3
300
CELLSTYLE
  1
TABLEFORMAT_BEGIN
 90
        5
170
     1
 91
        0
 92
    32768
 62
   257
 93
        1
300
CONTENTFORMAT
  1
CONTENTFORMAT_BEGIN
 90
        0
 91
        0
 92
      512
 93
        0
300

 40
0.0
140
1.0
 94
        5
 62
     0
340
55
144
0.25
309
CONTENTFORMAT_END
171
     0
 94
        0
309
TABLEFORMAT_END
  1
CELLSTYLE_BEGIN
 90
        1
 91
        1
300
_TITLE
309
CELLSTYLE_END
300
CELLSTYLE
  1
TABLEFORMAT_BEGIN
 90
        5
170
     1
 91
        0
 92
        0
 62
   257
 93
        1
300
CONTENTFORMAT
  1
CONTENTFORMAT_BEGIN
 90
        0
 91
        0
 92
      512
 93
        0
300

 40
0.0
140
1.0
 94
        5
 62
     0
340
55
144
0.18
309
CONTENTFORMAT_END
171
     0
 94
        0
309
TABLEFORMAT_END
  1
CELLSTYLE_BEGIN
 90
        2
 91
        1
300
_HEADER
309
CELLSTYLE_END
300
CELLSTYLE
  1
TABLEFORMAT_BEGIN
 90
        5
170
     1
 91
        0
 92
        0
 62
   257
 93
        1
300
CONTENTFORMAT
  1
CONTENTFORMAT_BEGIN
 90
        0
 91
        0
 92
      512
 93
        0
300

 40
0.0
140
1.0
 94
        2
 62
     0
340
55
144
0.18
309
CONTENTFORMAT_END
171
     0
 94
        0
309
TABLEFORMAT_END
  1
CELLSTYLE_BEGIN
 90
        3
 91
        2
300
_DATA
309
CELLSTYLE_END
  0
XRECORD
  5
84C
102
{ACAD_REACTORS
330
812
102
}
330
812
100
AcDbXrecord
280
     1
102
ACAD_ROUNDTRIP_PRE2007_TABLESTYLE
 90
      512
 91
        0
  1

 92
      512
 93
        0
  2

 94
      512
 95
        0
  3

  0
XRECORD
  5
827
102
{ACAD_REACTORS
330
826
102
}
330
826
100
AcDbXrecord
280
     1
102
RTVSPropertyOp0
 70
     1
102
RTVSPropertyOp1
 70
     1
102
RTVSPropertyOp2
 70
     1
102
RTVSPropertyOp3
 70
     1
102
RTVSPropertyOp4
 70
     1
102
RTVSPropertyOp5
 70
     1
102
RTVSPropertyOp6
 70
     1
102
RTVSPropertyOp7
 70
     1
102
RTVSPropertyOp8
 70
     1
102
RTVSPropertyOp9
 70
     1
102
RTVSPropertyOp10
 70
     1
102
RTVSPropertyOp11
 70
     1
102
RTVSPropertyOp12
 70
     1
102
RTVSPropertyOp13
 70
     1
102
RTVSPropertyOp14
 70
     1
102
RTVSPropertyOp15
 70
     1
102
RTVSPropertyOp16
 70
     1
102
RTVSPropertyOp17
 70
     1
102
RTVSPropertyOp18
 70
     1
102
RTVSPropertyOp19
 70
     1
102
RTVSPropertyOp20
 70
     1
102
RTVSPropertyOp21
 70
     1
102
RTVSPropertyOp22
 70
     1
102
RTVSPropertyOp23
 70
     1
102
RTVSPropertyOp24
 70
     1
102
RTVSPropertyOp25
 70
     1
102
RTVSPropertyOp26
 70
     1
102
RTVSPropertyOp27
 70
     1
102
RTVSPropertyOp28
 70
     1
102
RTVSPropertyOp29
 70
     1
102
RTVSPropertyOp30
 70
     1
102
RTVSPropertyOp31
 70
     1
102
RTVSPropertyOp32
 70
     1
  0
XRECORD
  5
825
102
{ACAD_REACTORS
330
824
102
}
330
824
100
AcDbXrecord
280
     1
102
RTVSPropertyOp0
 70
     1
102
RTVSPropertyOp1
 70
     1
102
RTVSPropertyOp2
 70
     1
102
RTVSPropertyOp3
 70
     1
102
RTVSPropertyOp4
 70
     1
102
RTVSPropertyOp5
 70
     1
102
RTVSPropertyOp6
 70
     1
102
RTVSPropertyOp7
 70
     1
102
RTVSPropertyOp8
 70
     1
102
RTVSPropertyOp9
 70
     1
102
RTVSPropertyOp10
 70
     1
102
RTVSPropertyOp11
 70
     1
102
RTVSPropertyOp12
 70
     1
102
RTVSPropertyOp13
 70
     1
102
RTVSPropertyOp14
 70
     1
102
RTVSPropertyOp15
 70
     1
102
RTVSPropertyOp16
 70
     1
102
RTVSPropertyOp17
 70
     1
102
RTVSPropertyOp18
 70
     1
102
RTVSPropertyOp19
 70
     1
102
RTVSPropertyOp20
 70
     1
102
RTVSPropertyOp21
 70
     1
102
RTVSPropertyOp22
 70
     1
102
RTVSPropertyOp23
 70
     1
102
RTVSPropertyOp24
 70
     1
102
RTVSPropertyOp25
 70
     1
102
RTVSPropertyOp26
 70
     1
102
RTVSPropertyOp27
 70
     1
102
RTVSPropertyOp28
 70
     1
102
RTVSPropertyOp29
 70
     1
102
RTVSPropertyOp30
 70
     1
102
RTVSPropertyOp31
 70
     1
102
RTVSPropertyOp32
 70
     1
  0
XRECORD
  5
833
102
{ACAD_REACTORS
330
832
102
}
330
832
100
AcDbXrecord
280
     1
102
RTVSPropertyOp0
 70
     1
102
RTVSPropertyOp1
 70
     1
102
RTVSPropertyOp2
 70
     1
102
RTVSPropertyOp3
 70
     1
102
RTVSPropertyOp4
 70
     1
102
RTVSPropertyOp5
 70
     1
102
RTVSPropertyOp6
 70
     1
102
RTVSPropertyOp7
 70
     1
102
RTVSPropertyOp8
 70
     1
102
RTVSPropertyOp9
 70
     1
102
RTVSPropertyOp10
 70
     1
102
RTVSPropertyOp11
 70
     1
102
RTVSPropertyOp12
 70
     1
102
RTVSPropertyOp13
 70
     1
102
RTVSPropertyOp14
 70
     1
102
RTVSPropertyOp15
 70
     1
102
RTVSPropertyOp16
 70
     1
102
RTVSPropertyOp17
 70
     1
102
RTVSPropertyOp18
 70
     1
102
RTVSPropertyOp19
 70
     1
102
RTVSPropertyOp20
 70
     1
102
RTVSPropertyOp21
 70
     1
102
RTVSPropertyOp22
 70
     1
102
RTVSPropertyOp23
 70
     1
102
RTVSPropertyOp24
 70
     1
102
RTVSPropertyOp25
 70
     1
102
RTVSPropertyOp26
 70
     1
102
RTVSPropertyOp27
 70
     1
102
RTVSPropertyOp28
 70
     1
102
RTVSPropertyOp29
 70
     1
102
RTVSPropertyOp30
 70
     1
102
RTVSPropertyOp31
 70
     1
102
RTVSPropertyOp32
 70
     1
  0
XRECORD
  5
83B
102
{ACAD_REACTORS
330
83A
102
}
330
83A
100
AcDbXrecord
280
     1
102
RTVSPropertyOp0
 70
     1
102
RTVSPropertyOp1
 70
     1
102
RTVSPropertyOp2
 70
     1
102
RTVSPropertyOp3
 70
     1
102
RTVSPropertyOp4
 70
     1
102
RTVSPropertyOp5
 70
     1
102
RTVSPropertyOp6
 70
     1
102
RTVSPropertyOp7
 70
     1
102
RTVSPropertyOp8
 70
     1
102
RTVSPropertyOp9
 70
     1
102
RTVSPropertyOp10
 70
     1
102
RTVSPropertyOp11
 70
     1
102
RTVSPropertyOp12
 70
     1
102
RTVSPropertyOp13
 70
     1
102
RTVSPropertyOp14
 70
     1
102
RTVSPropertyOp15
 70
     1
102
RTVSPropertyOp16
 70
     1
102
RTVSPropertyOp17
 70
     1
102
RTVSPropertyOp18
 70
     1
102
RTVSPropertyOp19
 70
     1
102
RTVSPropertyOp20
 70
     1
102
RTVSPropertyOp21
 70
     1
102
RTVSPropertyOp22
 70
     1
102
RTVSPropertyOp23
 70
     1
102
RTVSPropertyOp24
 70
     1
102
RTVSPropertyOp25
 70
     1
102
RTVSPropertyOp26
 70
     1
102
RTVSPropertyOp27
 70
     1
102
RTVSPropertyOp28
 70
     1
102
RTVSPropertyOp29
 70
     1
102
RTVSPropertyOp30
 70
     1
102
RTVSPropertyOp31
 70
     1
102
RTVSPropertyOp32
 70
     1
  0
XRECORD
  5
82D
102
{ACAD_REACTORS
330
82C
102
}
330
82C
100
AcDbXrecord
280
     1
102
RTVSPropertyOp0
 70
     1
102
RTVSPropertyOp1
 70
     1
102
RTVSPropertyOp2
 70
     1
102
RTVSPropertyOp3
 70
     1
102
RTVSPropertyOp4
 70
     1
102
RTVSPropertyOp5
 70
     1
102
RTVSPropertyOp6
 70
     1
102
RTVSPropertyOp7
 70
     1
102
RTVSPropertyOp8
 70
     1
102
RTVSPropertyOp9
 70
     1
102
RTVSPropertyOp10
 70
     1
102
RTVSPropertyOp11
 70
     1
102
RTVSPropertyOp12
 70
     1
102
RTVSPropertyOp13
 70
     1
102
RTVSPropertyOp14
 70
     1
102
RTVSPropertyOp15
 70
     1
102
RTVSPropertyOp16
 70
     1
102
RTVSPropertyOp17
 70
     1
102
RTVSPropertyOp18
 70
     1
102
RTVSPropertyOp19
 70
     1
102
RTVSPropertyOp20
 70
     1
102
RTVSPropertyOp21
 70
     1
102
RTVSPropertyOp22
 70
     1
102
RTVSPropertyOp23
 70
     1
102
RTVSPropertyOp24
 70
     1
102
RTVSPropertyOp25
 70
     1
102
RTVSPropertyOp26
 70
     1
102
RTVSPropertyOp27
 70
     1
102
RTVSPropertyOp28
 70
     1
102
RTVSPropertyOp29
 70
     1
102
RTVSPropertyOp30
 70
     1
102
RTVSPropertyOp31
 70
     1
102
RTVSPropertyOp32
 70
     1
  0
XRECORD
  5
831
102
{ACAD_REACTORS
330
830
102
}
330
830
100
AcDbXrecord
280
     1
102
RTVSPropertyOp0
 70
     1
102
RTVSPropertyOp1
 70
     1
102
RTVSPropertyOp2
 70
     1
102
RTVSPropertyOp3
 70
     1
102
RTVSPropertyOp4
 70
     1
102
RTVSPropertyOp5
 70
     1
102
RTVSPropertyOp6
 70
     1
102
RTVSPropertyOp7
 70
     1
102
RTVSPropertyOp8
 70
     1
102
RTVSPropertyOp9
 70
     1
102
RTVSPropertyOp10
 70
     1
102
RTVSPropertyOp11
 70
     1
102
RTVSPropertyOp12
 70
     1
102
RTVSPropertyOp13
 70
     1
102
RTVSPropertyOp14
 70
     1
102
RTVSPropertyOp15
 70
     1
102
RTVSPropertyOp16
 70
     1
102
RTVSPropertyOp17
 70
     1
102
RTVSPropertyOp18
 70
     1
102
RTVSPropertyOp19
 70
     1
102
RTVSPropertyOp20
 70
     1
102
RTVSPropertyOp21
 70
     1
102
RTVSPropertyOp22
 70
     1
102
RTVSPropertyOp23
 70
     1
102
RTVSPropertyOp24
 70
     1
102
RTVSPropertyOp25
 70
     1
102
RTVSPropertyOp26
 70
     1
102
RTVSPropertyOp27
 70
     1
102
RTVSPropertyOp28
 70
     1
102
RTVSPropertyOp29
 70
     1
102
RTVSPropertyOp30
 70
     1
102
RTVSPropertyOp31
 70
     1
102
RTVSPropertyOp32
 70
     1
  0
XRECORD
  5
84B
102
{ACAD_REACTORS
330
84A
102
}
330
84A
100
AcDbXrecord
280
     1
102
RTVSPropertyOp0
 70
     0
102
RTVSPropertyOp1
 70
     0
102
RTVSPropertyOp2
 70
     0
102
RTVSPropertyOp3
 70
     0
102
RTVSPropertyOp4
 70
     0
102
RTVSPropertyOp5
 70
     0
102
RTVSPropertyOp6
 70
     0
102
RTVSPropertyOp7
 70
     0
102
RTVSPropertyOp8
 70
     0
102
RTVSPropertyOp9
 70
     0
102
RTVSPropertyOp10
 70
     0
102
RTVSPropertyOp11
 70
     0
102
RTVSPropertyOp12
 70
     0
102
RTVSPropertyOp13
 70
     0
102
RTVSPropertyOp14
 70
     2
102
RTVSPropertyOp15
 70
     0
102
RTVSPropertyOp16
 70
     0
102
RTVSPropertyOp17
 70
     0
102
RTVSPropertyOp18
 70
     0
102
RTVSPropertyOp19
 70
     0
102
RTVSPropertyOp20
 70
     0
102
RTVSPropertyOp21
 70
     0
102
RTVSPropertyOp22
 70
     0
102
RTVSPropertyOp23
 70
     0
102
RTVSPropertyOp24
 70
     0
102
RTVSPropertyOp25
 70
     0
102
RTVSPropertyOp26
 70
     0
102
RTVSPropertyOp27
 70
     0
102
RTVSPropertyOp28
 70
     1
102
RTVSPropertyOp29
 70
     1
102
RTVSPropertyOp30
 70
     1
102
RTVSPropertyOp31
 70
     1
102
RTVSPropertyOp32
 70
     1
  0
XRECORD
  5
839
102
{ACAD_REACTORS
330
838
102
}
330
838
100
AcDbXrecord
280
     1
102
RTVSPropertyOp0
 70
     1
102
RTVSPropertyOp1
 70
     1
102
RTVSPropertyOp2
 70
     1
102
RTVSPropertyOp3
 70
     1
102
RTVSPropertyOp4
 70
     1
102
RTVSPropertyOp5
 70
     1
102
RTVSPropertyOp6
 70
     1
102
RTVSPropertyOp7
 70
     1
102
RTVSPropertyOp8
 70
     1
102
RTVSPropertyOp9
 70
     1
102
RTVSPropertyOp10
 70
     1
102
RTVSPropertyOp11
 70
     1
102
RTVSPropertyOp12
 70
     1
102
RTVSPropertyOp13
 70
     1
102
RTVSPropertyOp14
 70
     1
102
RTVSPropertyOp15
 70
     1
102
RTVSPropertyOp16
 70
     1
102
RTVSPropertyOp17
 70
     1
102
RTVSPropertyOp18
 70
     1
102
RTVSPropertyOp19
 70
     1
102
RTVSPropertyOp20
 70
     1
102
RTVSPropertyOp21
 70
     1
102
RTVSPropertyOp22
 70
     1
102
RTVSPropertyOp23
 70
     1
102
RTVSPropertyOp24
 70
     1
102
RTVSPropertyOp25
 70
     1
102
RTVSPropertyOp26
 70
     1
102
RTVSPropertyOp27
 70
     1
102
RTVSPropertyOp28
 70
     1
102
RTVSPropertyOp29
 70
     1
102
RTVSPropertyOp30
 70
     1
102
RTVSPropertyOp31
 70
     1
102
RTVSPropertyOp32
 70
     1
  0
XRECORD
  5
81D
102
{ACAD_REACTORS
330
81C
102
}
330
81C
100
AcDbXrecord
280
     1
102
RTVSPropertyOp0
 70
     1
102
RTVSPropertyOp1
 70
     1
102
RTVSPropertyOp2
 70
     1
102
RTVSPropertyOp3
 70
     1
102
RTVSPropertyOp4
 70
     1
102
RTVSPropertyOp5
 70
     1
102
RTVSPropertyOp6
 70
     1
102
RTVSPropertyOp7
 70
     1
102
RTVSPropertyOp8
 70
     1
102
RTVSPropertyOp9
 70
     1
102
RTVSPropertyOp10
 70
     1
102
RTVSPropertyOp11
 70
     1
102
RTVSPropertyOp12
 70
     1
102
RTVSPropertyOp13
 70
     1
102
RTVSPropertyOp14
 70
     1
102
RTVSPropertyOp15
 70
     1
102
RTVSPropertyOp16
 70
     1
102
RTVSPropertyOp17
 70
     1
102
RTVSPropertyOp18
 70
     1
102
RTVSPropertyOp19
 70
     1
102
RTVSPropertyOp20
 70
     1
102
RTVSPropertyOp21
 70
     1
102
RTVSPropertyOp22
 70
     1
102
RTVSPropertyOp23
 70
     1
102
RTVSPropertyOp24
 70
     1
102
RTVSPropertyOp25
 70
     1
102
RTVSPropertyOp26
 70
     1
102
RTVSPropertyOp27
 70
     1
102
RTVSPropertyOp28
 70
     1
102
RTVSPropertyOp29
 70
     1
102
RTVSPropertyOp30
 70
     1
102
RTVSPropertyOp31
 70
     1
102
RTVSPropertyOp32
 70
     1
  0
XRECORD
  5
81F
102
{ACAD_REACTORS
330
81E
102
}
330
81E
100
AcDbXrecord
280
     1
102
RTVSPropertyOp0
 70
     1
102
RTVSPropertyOp1
 70
     1
102
RTVSPropertyOp2
 70
     1
102
RTVSPropertyOp3
 70
     1
102
RTVSPropertyOp4
 70
     1
102
RTVSPropertyOp5
 70
     1
102
RTVSPropertyOp6
 70
     1
102
RTVSPropertyOp7
 70
     1
102
RTVSPropertyOp8
 70
     1
102
RTVSPropertyOp9
 70
     1
102
RTVSPropertyOp10
 70
     1
102
RTVSPropertyOp11
 70
     1
102
RTVSPropertyOp12
 70
     1
102
RTVSPropertyOp13
 70
     1
102
RTVSPropertyOp14
 70
     1
102
RTVSPropertyOp15
 70
     1
102
RTVSPropertyOp16
 70
     1
102
RTVSPropertyOp17
 70
     1
102
RTVSPropertyOp18
 70
     1
102
RTVSPropertyOp19
 70
     1
102
RTVSPropertyOp20
 70
     1
102
RTVSPropertyOp21
 70
     1
102
RTVSPropertyOp22
 70
     1
102
RTVSPropertyOp23
 70
     1
102
RTVSPropertyOp24
 70
     1
102
RTVSPropertyOp25
 70
     1
102
RTVSPropertyOp26
 70
     1
102
RTVSPropertyOp27
 70
     1
102
RTVSPropertyOp28
 70
     1
102
RTVSPropertyOp29
 70
     1
102
RTVSPropertyOp30
 70
     1
102
RTVSPropertyOp31
 70
     1
102
RTVSPropertyOp32
 70
     1
  0
XRECORD
  5
821
102
{ACAD_REACTORS
330
820
102
}
330
820
100
AcDbXrecord
280
     1
102
RTVSPropertyOp0
 70
     1
102
RTVSPropertyOp1
 70
     1
102
RTVSPropertyOp2
 70
     1
102
RTVSPropertyOp3
 70
     1
102
RTVSPropertyOp4
 70
     1
102
RTVSPropertyOp5
 70
     1
102
RTVSPropertyOp6
 70
     1
102
RTVSPropertyOp7
 70
     1
102
RTVSPropertyOp8
 70
     1
102
RTVSPropertyOp9
 70
     1
102
RTVSPropertyOp10
 70
     1
102
RTVSPropertyOp11
 70
     1
102
RTVSPropertyOp12
 70
     1
102
RTVSPropertyOp13
 70
     1
102
RTVSPropertyOp14
 70
     1
102
RTVSPropertyOp15
 70
     1
102
RTVSPropertyOp16
 70
     1
102
RTVSPropertyOp17
 70
     1
102
RTVSPropertyOp18
 70
     1
102
RTVSPropertyOp19
 70
     1
102
RTVSPropertyOp20
 70
     1
102
RTVSPropertyOp21
 70
     1
102
RTVSPropertyOp22
 70
     1
102
RTVSPropertyOp23
 70
     1
102
RTVSPropertyOp24
 70
     1
102
RTVSPropertyOp25
 70
     1
102
RTVSPropertyOp26
 70
     1
102
RTVSPropertyOp27
 70
     1
102
RTVSPropertyOp28
 70
     1
102
RTVSPropertyOp29
 70
     1
102
RTVSPropertyOp30
 70
     1
102
RTVSPropertyOp31
 70
     1
102
RTVSPropertyOp32
 70
     1
  0
XRECORD
  5
823
102
{ACAD_REACTORS
330
822
102
}
330
822
100
AcDbXrecord
280
     1
102
RTVSPropertyOp0
 70
     1
102
RTVSPropertyOp1
 70
     1
102
RTVSPropertyOp2
 70
     1
102
RTVSPropertyOp3
 70
     1
102
RTVSPropertyOp4
 70
     1
102
RTVSPropertyOp5
 70
     1
102
RTVSPropertyOp6
 70
     1
102
RTVSPropertyOp7
 70
     1
102
RTVSPropertyOp8
 70
     1
102
RTVSPropertyOp9
 70
     1
102
RTVSPropertyOp10
 70
     1
102
RTVSPropertyOp11
 70
     1
102
RTVSPropertyOp12
 70
     1
102
RTVSPropertyOp13
 70
     1
102
RTVSPropertyOp14
 70
     1
102
RTVSPropertyOp15
 70
     1
102
RTVSPropertyOp16
 70
     1
102
RTVSPropertyOp17
 70
     1
102
RTVSPropertyOp18
 70
     1
102
RTVSPropertyOp19
 70
     1
102
RTVSPropertyOp20
 70
     1
102
RTVSPropertyOp21
 70
     1
102
RTVSPropertyOp22
 70
     1
102
RTVSPropertyOp23
 70
     1
102
RTVSPropertyOp24
 70
     1
102
RTVSPropertyOp25
 70
     1
102
RTVSPropertyOp26
 70
     1
102
RTVSPropertyOp27
 70
     1
102
RTVSPropertyOp28
 70
     1
102
RTVSPropertyOp29
 70
     1
102
RTVSPropertyOp30
 70
     1
102
RTVSPropertyOp31
 70
     1
102
RTVSPropertyOp32
 70
     1
  0
XRECORD
  5
82B
102
{ACAD_REACTORS
330
82A
102
}
330
82A
100
AcDbXrecord
280
     1
102
RTVSPropertyOp0
 70
     1
102
RTVSPropertyOp1
 70
     1
102
RTVSPropertyOp2
 70
     1
102
RTVSPropertyOp3
 70
     1
102
RTVSPropertyOp4
 70
     1
102
RTVSPropertyOp5
 70
     1
102
RTVSPropertyOp6
 70
     1
102
RTVSPropertyOp7
 70
     1
102
RTVSPropertyOp8
 70
     1
102
RTVSPropertyOp9
 70
     1
102
RTVSPropertyOp10
 70
     1
102
RTVSPropertyOp11
 70
     1
102
RTVSPropertyOp12
 70
     1
102
RTVSPropertyOp13
 70
     1
102
RTVSPropertyOp14
 70
     1
102
RTVSPropertyOp15
 70
     1
102
RTVSPropertyOp16
 70
     1
102
RTVSPropertyOp17
 70
     1
102
RTVSPropertyOp18
 70
     1
102
RTVSPropertyOp19
 70
     1
102
RTVSPropertyOp20
 70
     1
102
RTVSPropertyOp21
 70
     1
102
RTVSPropertyOp22
 70
     1
102
RTVSPropertyOp23
 70
     1
102
RTVSPropertyOp24
 70
     1
102
RTVSPropertyOp25
 70
     1
102
RTVSPropertyOp26
 70
     1
102
RTVSPropertyOp27
 70
     1
102
RTVSPropertyOp28
 70
     1
102
RTVSPropertyOp29
 70
     1
102
RTVSPropertyOp30
 70
     1
102
RTVSPropertyOp31
 70
     1
102
RTVSPropertyOp32
 70
     1
  0
XRECORD
  5
847
102
{ACAD_REACTORS
330
846
102
}
330
846
100
AcDbXrecord
280
     1
102
RTVSPropertyOp0
 70
     0
102
RTVSPropertyOp1
 70
     0
102
RTVSPropertyOp2
 70
     0
102
RTVSPropertyOp3
 70
     0
102
RTVSPropertyOp4
 70
     0
102
RTVSPropertyOp5
 70
     0
102
RTVSPropertyOp6
 70
     0
102
RTVSPropertyOp7
 70
     0
102
RTVSPropertyOp8
 70
     0
102
RTVSPropertyOp9
 70
     0
102
RTVSPropertyOp10
 70
     0
102
RTVSPropertyOp11
 70
     0
102
RTVSPropertyOp12
 70
     0
102
RTVSPropertyOp13
 70
     0
102
RTVSPropertyOp14
 70
     2
102
RTVSPropertyOp15
 70
     0
102
RTVSPropertyOp16
 70
     0
102
RTVSPropertyOp17
 70
     0
102
RTVSPropertyOp18
 70
     0
102
RTVSPropertyOp19
 70
     0
102
RTVSPropertyOp20
 70
     0
102
RTVSPropertyOp21
 70
     0
102
RTVSPropertyOp22
 70
     0
102
RTVSPropertyOp23
 70
     0
102
RTVSPropertyOp24
 70
     0
102
RTVSPropertyOp25
 70
     0
102
RTVSPropertyOp26
 70
     0
102
RTVSPropertyOp27
 70
     0
102
RTVSPropertyOp28
 70
     1
102
RTVSPropertyOp29
 70
     1
102
RTVSPropertyOp30
 70
     1
102
RTVSPropertyOp31
 70
     1
102
RTVSPropertyOp32
 70
     1
  0
XRECORD
  5
837
102
{ACAD_REACTORS
330
836
102
}
330
836
100
AcDbXrecord
280
     1
102
RTVSPropertyOp0
 70
     1
102
RTVSPropertyOp1
 70
     1
102
RTVSPropertyOp2
 70
     1
102
RTVSPropertyOp3
 70
     1
102
RTVSPropertyOp4
 70
     1
102
RTVSPropertyOp5
 70
     1
102
RTVSPropertyOp6
 70
     1
102
RTVSPropertyOp7
 70
     1
102
RTVSPropertyOp8
 70
     1
102
RTVSPropertyOp9
 70
     1
102
RTVSPropertyOp10
 70
     1
102
RTVSPropertyOp11
 70
     1
102
RTVSPropertyOp12
 70
     1
102
RTVSPropertyOp13
 70
     1
102
RTVSPropertyOp14
 70
     1
102
RTVSPropertyOp15
 70
     1
102
RTVSPropertyOp16
 70
     1
102
RTVSPropertyOp17
 70
     1
102
RTVSPropertyOp18
 70
     1
102
RTVSPropertyOp19
 70
     1
102
RTVSPropertyOp20
 70
     1
102
RTVSPropertyOp21
 70
     1
102
RTVSPropertyOp22
 70
     1
102
RTVSPropertyOp23
 70
     1
102
RTVSPropertyOp24
 70
     1
102
RTVSPropertyOp25
 70
     1
102
RTVSPropertyOp26
 70
     1
102
RTVSPropertyOp27
 70
     1
102
RTVSPropertyOp28
 70
     1
102
RTVSPropertyOp29
 70
     1
102
RTVSPropertyOp30
 70
     1
102
RTVSPropertyOp31
 70
     1
102
RTVSPropertyOp32
 70
     1
  0
XRECORD
  5
849
102
{ACAD_REACTORS
330
848
102
}
330
848
100
AcDbXrecord
280
     1
102
RTVSPropertyOp0
 70
     0
102
RTVSPropertyOp1
 70
     0
102
RTVSPropertyOp2
 70
     0
102
RTVSPropertyOp3
 70
     0
102
RTVSPropertyOp4
 70
     0
102
RTVSPropertyOp5
 70
     0
102
RTVSPropertyOp6
 70
     0
102
RTVSPropertyOp7
 70
     0
102
RTVSPropertyOp8
 70
     0
102
RTVSPropertyOp9
 70
     0
102
RTVSPropertyOp10
 70
     0
102
RTVSPropertyOp11
 70
     0
102
RTVSPropertyOp12
 70
     0
102
RTVSPropertyOp13
 70
     0
102
RTVSPropertyOp14
 70
     2
102
RTVSPropertyOp15
 70
     0
102
RTVSPropertyOp16
 70
     0
102
RTVSPropertyOp17
 70
     0
102
RTVSPropertyOp18
 70
     0
102
RTVSPropertyOp19
 70
     0
102
RTVSPropertyOp20
 70
     0
102
RTVSPropertyOp21
 70
     0
102
RTVSPropertyOp22
 70
     0
102
RTVSPropertyOp23
 70
     0
102
RTVSPropertyOp24
 70
     0
102
RTVSPropertyOp25
 70
     0
102
RTVSPropertyOp26
 70
     0
102
RTVSPropertyOp27
 70
     0
102
RTVSPropertyOp28
 70
     1
102
RTVSPropertyOp29
 70
     1
102
RTVSPropertyOp30
 70
     1
102
RTVSPropertyOp31
 70
     1
102
RTVSPropertyOp32
 70
     1
  0
XRECORD
  5
82F
102
{ACAD_REACTORS
330
82E
102
}
330
82E
100
AcDbXrecord
280
     1
102
RTVSPropertyOp0
 70
     1
102
RTVSPropertyOp1
 70
     1
102
RTVSPropertyOp2
 70
     1
102
RTVSPropertyOp3
 70
     1
102
RTVSPropertyOp4
 70
     1
102
RTVSPropertyOp5
 70
     1
102
RTVSPropertyOp6
 70
     1
102
RTVSPropertyOp7
 70
     1
102
RTVSPropertyOp8
 70
     1
102
RTVSPropertyOp9
 70
     1
102
RTVSPropertyOp10
 70
     1
102
RTVSPropertyOp11
 70
     1
102
RTVSPropertyOp12
 70
     1
102
RTVSPropertyOp13
 70
     1
102
RTVSPropertyOp14
 70
     1
102
RTVSPropertyOp15
 70
     1
102
RTVSPropertyOp16
 70
     1
102
RTVSPropertyOp17
 70
     1
102
RTVSPropertyOp18
 70
     1
102
RTVSPropertyOp19
 70
     1
102
RTVSPropertyOp20
 70
     1
102
RTVSPropertyOp21
 70
     1
102
RTVSPropertyOp22
 70
     1
102
RTVSPropertyOp23
 70
     1
102
RTVSPropertyOp24
 70
     1
102
RTVSPropertyOp25
 70
     1
102
RTVSPropertyOp26
 70
     1
102
RTVSPropertyOp27
 70
     1
102
RTVSPropertyOp28
 70
     1
102
RTVSPropertyOp29
 70
     1
102
RTVSPropertyOp30
 70
     1
102
RTVSPropertyOp31
 70
     1
102
RTVSPropertyOp32
 70
     1
  0
XRECORD
  5
845
102
{ACAD_REACTORS
330
844
102
}
330
844
100
AcDbXrecord
280
     1
102
RTVSPropertyOp0
 70
     1
102
RTVSPropertyOp1
 70
     1
102
RTVSPropertyOp2
 70
     1
102
RTVSPropertyOp3
 70
     1
102
RTVSPropertyOp4
 70
     1
102
RTVSPropertyOp5
 70
     1
102
RTVSPropertyOp6
 70
     1
102
RTVSPropertyOp7
 70
     1
102
RTVSPropertyOp8
 70
     1
102
RTVSPropertyOp9
 70
     1
102
RTVSPropertyOp10
 70
     1
102
RTVSPropertyOp11
 70
     1
102
RTVSPropertyOp12
 70
     1
102
RTVSPropertyOp13
 70
     1
102
RTVSPropertyOp14
 70
     1
102
RTVSPropertyOp15
 70
     1
102
RTVSPropertyOp16
 70
     1
102
RTVSPropertyOp17
 70
     1
102
RTVSPropertyOp18
 70
     1
102
RTVSPropertyOp19
 70
     1
102
RTVSPropertyOp20
 70
     1
102
RTVSPropertyOp21
 70
     1
102
RTVSPropertyOp22
 70
     1
102
RTVSPropertyOp23
 70
     1
102
RTVSPropertyOp24
 70
     1
102
RTVSPropertyOp25
 70
     1
102
RTVSPropertyOp26
 70
     1
102
RTVSPropertyOp27
 70
     1
102
RTVSPropertyOp28
 70
     1
102
RTVSPropertyOp29
 70
     1
102
RTVSPropertyOp30
 70
     1
102
RTVSPropertyOp31
 70
     1
102
RTVSPropertyOp32
 70
     1
  0
XRECORD
  5
843
102
{ACAD_REACTORS
330
842
102
}
330
842
100
AcDbXrecord
280
     1
102
RTVSPropertyOp0
 70
     1
102
RTVSPropertyOp1
 70
     1
102
RTVSPropertyOp2
 70
     1
102
RTVSPropertyOp3
 70
     1
102
RTVSPropertyOp4
 70
     1
102
RTVSPropertyOp5
 70
     1
102
RTVSPropertyOp6
 70
     1
102
RTVSPropertyOp7
 70
     1
102
RTVSPropertyOp8
 70
     1
102
RTVSPropertyOp9
 70
     1
102
RTVSPropertyOp10
 70
     1
102
RTVSPropertyOp11
 70
     1
102
RTVSPropertyOp12
 70
     1
102
RTVSPropertyOp13
 70
     1
102
RTVSPropertyOp14
 70
     1
102
RTVSPropertyOp15
 70
     1
102
RTVSPropertyOp16
 70
     1
102
RTVSPropertyOp17
 70
     1
102
RTVSPropertyOp18
 70
     1
102
RTVSPropertyOp19
 70
     1
102
RTVSPropertyOp20
 70
     1
102
RTVSPropertyOp21
 70
     1
102
RTVSPropertyOp22
 70
     1
102
RTVSPropertyOp23
 70
     1
102
RTVSPropertyOp24
 70
     1
102
RTVSPropertyOp25
 70
     1
102
RTVSPropertyOp26
 70
     1
102
RTVSPropertyOp27
 70
     1
102
RTVSPropertyOp28
 70
     1
102
RTVSPropertyOp29
 70
     1
102
RTVSPropertyOp30
 70
     1
102
RTVSPropertyOp31
 70
     1
102
RTVSPropertyOp32
 70
     1
  0
XRECORD
  5
83D
102
{ACAD_REACTORS
330
83C
102
}
330
83C
100
AcDbXrecord
280
     1
102
RTVSPropertyOp0
 70
     1
102
RTVSPropertyOp1
 70
     1
102
RTVSPropertyOp2
 70
     1
102
RTVSPropertyOp3
 70
     1
102
RTVSPropertyOp4
 70
     1
102
RTVSPropertyOp5
 70
     1
102
RTVSPropertyOp6
 70
     1
102
RTVSPropertyOp7
 70
     1
102
RTVSPropertyOp8
 70
     1
102
RTVSPropertyOp9
 70
     1
102
RTVSPropertyOp10
 70
     1
102
RTVSPropertyOp11
 70
     1
102
RTVSPropertyOp12
 70
     1
102
RTVSPropertyOp13
 70
     1
102
RTVSPropertyOp14
 70
     1
102
RTVSPropertyOp15
 70
     1
102
RTVSPropertyOp16
 70
     1
102
RTVSPropertyOp17
 70
     1
102
RTVSPropertyOp18
 70
     1
102
RTVSPropertyOp19
 70
     1
102
RTVSPropertyOp20
 70
     1
102
RTVSPropertyOp21
 70
     1
102
RTVSPropertyOp22
 70
     1
102
RTVSPropertyOp23
 70
     1
102
RTVSPropertyOp24
 70
     1
102
RTVSPropertyOp25
 70
     1
102
RTVSPropertyOp26
 70
     1
102
RTVSPropertyOp27
 70
     1
102
RTVSPropertyOp28
 70
     1
102
RTVSPropertyOp29
 70
     1
102
RTVSPropertyOp30
 70
     1
102
RTVSPropertyOp31
 70
     1
102
RTVSPropertyOp32
 70
     1
  0
XRECORD
  5
83F
102
{ACAD_REACTORS
330
83E
102
}
330
83E
100
AcDbXrecord
280
     1
102
RTVSPropertyOp0
 70
     1
102
RTVSPropertyOp1
 70
     1
102
RTVSPropertyOp2
 70
     1
102
RTVSPropertyOp3
 70
     1
102
RTVSPropertyOp4
 70
     1
102
RTVSPropertyOp5
 70
     1
102
RTVSPropertyOp6
 70
     1
102
RTVSPropertyOp7
 70
     1
102
RTVSPropertyOp8
 70
     1
102
RTVSPropertyOp9
 70
     1
102
RTVSPropertyOp10
 70
     1
102
RTVSPropertyOp11
 70
     1
102
RTVSPropertyOp12
 70
     1
102
RTVSPropertyOp13
 70
     1
102
RTVSPropertyOp14
 70
     1
102
RTVSPropertyOp15
 70
     1
102
RTVSPropertyOp16
 70
     1
102
RTVSPropertyOp17
 70
     1
102
RTVSPropertyOp18
 70
     1
102
RTVSPropertyOp19
 70
     1
102
RTVSPropertyOp20
 70
     1
102
RTVSPropertyOp21
 70
     1
102
RTVSPropertyOp22
 70
     1
102
RTVSPropertyOp23
 70
     1
102
RTVSPropertyOp24
 70
     1
102
RTVSPropertyOp25
 70
     1
102
RTVSPropertyOp26
 70
     1
102
RTVSPropertyOp27
 70
     1
102
RTVSPropertyOp28
 70
     1
102
RTVSPropertyOp29
 70
     1
102
RTVSPropertyOp30
 70
     1
102
RTVSPropertyOp31
 70
     1
102
RTVSPropertyOp32
 70
     1
  0
XRECORD
  5
835
102
{ACAD_REACTORS
330
834
102
}
330
834
100
AcDbXrecord
280
     1
102
RTVSPropertyOp0
 70
     1
102
RTVSPropertyOp1
 70
     1
102
RTVSPropertyOp2
 70
     1
102
RTVSPropertyOp3
 70
     1
102
RTVSPropertyOp4
 70
     1
102
RTVSPropertyOp5
 70
     1
102
RTVSPropertyOp6
 70
     1
102
RTVSPropertyOp7
 70
     1
102
RTVSPropertyOp8
 70
     1
102
RTVSPropertyOp9
 70
     1
102
RTVSPropertyOp10
 70
     1
102
RTVSPropertyOp11
 70
     1
102
RTVSPropertyOp12
 70
     1
102
RTVSPropertyOp13
 70
     1
102
RTVSPropertyOp14
 70
     1
102
RTVSPropertyOp15
 70
     1
102
RTVSPropertyOp16
 70
     1
102
RTVSPropertyOp17
 70
     1
102
RTVSPropertyOp18
 70
     1
102
RTVSPropertyOp19
 70
     1
102
RTVSPropertyOp20
 70
     1
102
RTVSPropertyOp21
 70
     1
102
RTVSPropertyOp22
 70
     1
102
RTVSPropertyOp23
 70
     1
102
RTVSPropertyOp24
 70
     1
102
RTVSPropertyOp25
 70
     1
102
RTVSPropertyOp26
 70
     1
102
RTVSPropertyOp27
 70
     1
102
RTVSPropertyOp28
 70
     1
102
RTVSPropertyOp29
 70
     1
102
RTVSPropertyOp30
 70
     1
102
RTVSPropertyOp31
 70
     1
102
RTVSPropertyOp32
 70
     1
  0
XRECORD
  5
829
102
{ACAD_REACTORS
330
828
102
}
330
828
100
AcDbXrecord
280
     1
102
RTVSPropertyOp0
 70
     1
102
RTVSPropertyOp1
 70
     1
102
RTVSPropertyOp2
 70
     1
102
RTVSPropertyOp3
 70
     1
102
RTVSPropertyOp4
 70
     1
102
RTVSPropertyOp5
 70
     1
102
RTVSPropertyOp6
 70
     1
102
RTVSPropertyOp7
 70
     1
102
RTVSPropertyOp8
 70
     1
102
RTVSPropertyOp9
 70
     1
102
RTVSPropertyOp10
 70
     1
102
RTVSPropertyOp11
 70
     1
102
RTVSPropertyOp12
 70
     1
102
RTVSPropertyOp13
 70
     1
102
RTVSPropertyOp14
 70
     1
102
RTVSPropertyOp15
 70
     1
102
RTVSPropertyOp16
 70
     1
102
RTVSPropertyOp17
 70
     1
102
RTVSPropertyOp18
 70
     1
102
RTVSPropertyOp19
 70
     1
102
RTVSPropertyOp20
 70
     1
102
RTVSPropertyOp21
 70
     1
102
RTVSPropertyOp22
 70
     1
102
RTVSPropertyOp23
 70
     1
102
RTVSPropertyOp24
 70
     1
102
RTVSPropertyOp25
 70
     1
102
RTVSPropertyOp26
 70
     1
102
RTVSPropertyOp27
 70
     1
102
RTVSPropertyOp28
 70
     1
102
RTVSPropertyOp29
 70
     1
102
RTVSPropertyOp30
 70
     1
102
RTVSPropertyOp31
 70
     1
102
RTVSPropertyOp32
 70
     1
  0
XRECORD
  5
841
102
{ACAD_REACTORS
330
840
102
}
330
840
100
AcDbXrecord
280
     1
102
RTVSPropertyOp0
 70
     1
102
RTVSPropertyOp1
 70
     1
102
RTVSPropertyOp2
 70
     1
102
RTVSPropertyOp3
 70
     1
102
RTVSPropertyOp4
 70
     1
102
RTVSPropertyOp5
 70
     1
102
RTVSPropertyOp6
 70
     1
102
RTVSPropertyOp7
 70
     1
102
RTVSPropertyOp8
 70
     1
102
RTVSPropertyOp9
 70
     1
102
RTVSPropertyOp10
 70
     1
102
RTVSPropertyOp11
 70
     1
102
RTVSPropertyOp12
 70
     1
102
RTVSPropertyOp13
 70
     1
102
RTVSPropertyOp14
 70
     1
102
RTVSPropertyOp15
 70
     1
102
RTVSPropertyOp16
 70
     1
102
RTVSPropertyOp17
 70
     1
102
RTVSPropertyOp18
 70
     1
102
RTVSPropertyOp19
 70
     1
102
RTVSPropertyOp20
 70
     1
102
RTVSPropertyOp21
 70
     1
102
RTVSPropertyOp22
 70
     1
102
RTVSPropertyOp23
 70
     1
102
RTVSPropertyOp24
 70
     1
102
RTVSPropertyOp25
 70
     1
102
RTVSPropertyOp26
 70
     1
102
RTVSPropertyOp27
 70
     1
102
RTVSPropertyOp28
 70
     1
102
RTVSPropertyOp29
 70
     1
102
RTVSPropertyOp30
 70
     1
102
RTVSPropertyOp31
 70
     1
102
RTVSPropertyOp32
 70
     1
  0
ENDSEC
  0
EOF
