  0
SECTION
  2
HEADER
  9
$ACADVER
  1
AC1018
  9
$ACADMAINTVER
 70
   104
  9
$DWGCODEPAGE
  3
ANSI_1252
  9
$AUTHOR
  1
PS
  9
$REVISIONNUMBER
  1
-
  9
$CUSTOMPROPERTYTAG
  1
Manager
  9
$CUSTOMPROPERTY
  1

  9
$CUSTOMPROPERTYTAG
  1
Company
  9
$CUSTOMPROPERTY
  1

  9
$CUSTOMPROPERTYTAG
  1
Category
  9
$CUSTOMPROPERTY
  1

  9
$CUSTOMPROPERTYTAG
  1
Part Number
  9
$CUSTOMPROPERTY
  1
N1P1212-S
  9
$CUSTOMPROPERTYTAG
  1
Description
  9
$CUSTOMPROPERTY
  1

  9
$CUSTOMPROPERTYTAG
  1
Project
  9
$CUSTOMPROPERTY
  1

  9
$CUSTOMPROPERTYTAG
  1
Designer
  9
$CUSTOMPROPERTY
  1
PS
  9
$CUSTOMPROPERTYTAG
  1
Engineer
  9
$CUSTOMPROPERTY
  1

  9
$CUSTOMPROPERTYTAG
  1
Authority
  9
$CUSTOMPROPERTY
  1

  9
$CUSTOMPROPERTYTAG
  1
Cost Center
  9
$CUSTOMPROPERTY
  1

  9
$CUSTOMPROPERTYTAG
  1
Vendor
  9
$CUSTOMPROPERTY
  1

  9
$CUSTOMPROPERTYTAG
  1
User Status
  9
$CUSTOMPROPERTY
  1

  9
$CUSTOMPROPERTYTAG
  1
Design Status
  9
$CUSTOMPROPERTY
  1
WorkInProgress
  9
$CUSTOMPROPERTYTAG
  1
Checked by
  9
$CUSTOMPROPERTY
  1
NJ
  9
$CUSTOMPROPERTYTAG
  1
Date Checked
  9
$CUSTOMPROPERTY
  1
06/12/2013
  9
$CUSTOMPROPERTYTAG
  1
Engr Approved by
  9
$CUSTOMPROPERTY
  1

  9
$CUSTOMPROPERTYTAG
  1
Date Eng Approved
  9
$CUSTOMPROPERTY
  1
06/12/2013
  9
$CUSTOMPROPERTYTAG
  1
Mfg Approved by
  9
$CUSTOMPROPERTY
  1

  9
$CUSTOMPROPERTYTAG
  1
DWG. NO
  9
$CUSTOMPROPERTY
  1

  9
$CUSTOMPROPERTYTAG
  1
NUMBER OF SHEETS
  9
$CUSTOMPROPERTY
  1
1
  9
$CUSTOMPROPERTYTAG
  1
DRAWING #
  9
$CUSTOMPROPERTY
  1
1
  9
$INSBASE
 10
0.0
 20
0.0
 30
0.0
  9
$EXTMIN
 10
0.0
 20
0.0
 30
0.0
  9
$EXTMAX
 10
34.0
 20
22.0
 30
0.0
  9
$LIMMIN
 10
0.0
 20
0.0
  9
$LIMMAX
 10
34.0
 20
22.0
  9
$ORTHOMODE
 70
     0
  9
$REGENMODE
 70
     1
  9
$FILLMODE
 70
     1
  9
$QTEXTMODE
 70
     0
  9
$MIRRTEXT
 70
     0
  9
$LTSCALE
 40
2.0
  9
$ATTMODE
 70
     1
  9
$TEXTSIZE
 40
0.2
  9
$TRACEWID
 40
0.05
  9
$TEXTSTYLE
  7
Standard
  9
$CLAYER
  8
0
  9
$CELTYPE
  6
ByLayer
  9
$CECOLOR
 62
   256
  9
$CELTSCALE
 40
1.0
  9
$DISPSILH
 70
     0
  9
$DIMSCALE
 40
1.0
  9
$DIMASZ
 40
0.0708661417322835
  9
$DIMEXO
 40
0.0625
  9
$DIMDLI
 40
0.38
  9
$DIMRND
 40
0.0
  9
$DIMDLE
 40
0.0
  9
$DIMEXE
 40
0.18
  9
$DIMTP
 40
0.0
  9
$DIMTM
 40
0.0
  9
$DIMTXT
 40
0.0708661417322835
  9
$DIMCEN
 40
0.09
  9
$DIMTSZ
 40
0.0
  9
$DIMTOL
 70
     0
  9
$DIMLIM
 70
     0
  9
$DIMTIH
 70
     1
  9
$DIMTOH
 70
     1
  9
$DIMSE1
 70
     0
  9
$DIMSE2
 70
     0
  9
$DIMTAD
 70
     0
  9
$DIMZIN
 70
     0
  9
$DIMBLK
  1

  9
$DIMASO
 70
     1
  9
$DIMSHO
 70
     1
  9
$DIMPOST
  1

  9
$DIMAPOST
  1

  9
$DIMALT
 70
     0
  9
$DIMALTD
 70
     2
  9
$DIMALTF
 40
25.4
  9
$DIMLFAC
 40
1.0
  9
$DIMTOFL
 70
     0
  9
$DIMTVP
 40
0.0
  9
$DIMTIX
 70
     0
  9
$DIMSOXD
 70
     0
  9
$DIMSAH
 70
     0
  9
$DIMBLK1
  1

  9
$DIMBLK2
  1

  9
$DIMSTYLE
  2
STANDARD
  9
$DIMCLRD
 70
     0
  9
$DIMCLRE
 70
     0
  9
$DIMCLRT
 70
     0
  9
$DIMTFAC
 40
1.0
  9
$DIMGAP
 40
0.09
  9
$DIMJUST
 70
     0
  9
$DIMSD1
 70
     0
  9
$DIMSD2
 70
     0
  9
$DIMTOLJ
 70
     1
  9
$DIMTZIN
 70
     0
  9
$DIMALTZ
 70
     0
  9
$DIMALTTZ
 70
     0
  9
$DIMUPT
 70
     0
  9
$DIMDEC
 70
     4
  9
$DIMTDEC
 70
     4
  9
$DIMALTU
 70
     2
  9
$DIMALTTD
 70
     2
  9
$DIMTXSTY
  7
Standard
  9
$DIMAUNIT
 70
     0
  9
$DIMADEC
 70
     0
  9
$DIMALTRND
 40
0.0
  9
$DIMAZIN
 70
     0
  9
$DIMDSEP
 70
    46
  9
$DIMATFIT
 70
     3
  9
$DIMFRAC
 70
     0
  9
$DIMLDRBLK
  1

  9
$DIMLUNIT
 70
     2
  9
$DIMLWD
 70
    -2
  9
$DIMLWE
 70
    -2
  9
$DIMTMOVE
 70
     0
  9
$LUNITS
 70
     2
  9
$LUPREC
 70
     4
  9
$SKETCHINC
 40
0.1
  9
$FILLETRAD
 40
0.0
  9
$AUNITS
 70
     0
  9
$AUPREC
 70
     0
  9
$MENU
  1
.
  9
$ELEVATION
 40
0.0
  9
$PELEVATION
 40
0.0
  9
$THICKNESS
 40
0.0
  9
$LIMCHECK
 70
     0
  9
$CHAMFERA
 40
0.0
  9
$CHAMFERB
 40
0.0
  9
$CHAMFERC
 40
0.0
  9
$CHAMFERD
 40
0.0
  9
$SKPOLY
 70
     0
  9
$TDCREATE
 40
2456482.845451540
  9
$TDUCREATE
 40
2456482.616284873
  9
$TDUPDATE
 40
2456482.845451551
  9
$TDUUPDATE
 40
2456482.616284884
  9
$TDINDWG
 40
0.0000403009
  9
$TDUSRTIMER
 40
0.0000403009
  9
$USRTIMER
 70
     1
  9
$ANGBASE
 50
0.0
  9
$ANGDIR
 70
     0
  9
$PDMODE
 70
     0
  9
$PDSIZE
 40
0.0
  9
$PLINEWID
 40
0.0
  9
$SPLFRAME
 70
     0
  9
$SPLINETYPE
 70
     6
  9
$SPLINESEGS
 70
     8
  9
$HANDSEED
  5
84C
  9
$SURFTAB1
 70
     6
  9
$SURFTAB2
 70
     6
  9
$SURFTYPE
 70
     6
  9
$SURFU
 70
     6
  9
$SURFV
 70
     6
  9
$UCSBASE
  2

  9
$UCSNAME
  2

  9
$UCSORG
 10
0.0
 20
0.0
 30
0.0
  9
$UCSXDIR
 10
1.0
 20
0.0
 30
0.0
  9
$UCSYDIR
 10
0.0
 20
1.0
 30
0.0
  9
$UCSORTHOREF
  2

  9
$UCSORTHOVIEW
 70
     0
  9
$UCSORGTOP
 10
0.0
 20
0.0
 30
0.0
  9
$UCSORGBOTTOM
 10
0.0
 20
0.0
 30
0.0
  9
$UCSORGLEFT
 10
0.0
 20
0.0
 30
0.0
  9
$UCSORGRIGHT
 10
0.0
 20
0.0
 30
0.0
  9
$UCSORGFRONT
 10
0.0
 20
0.0
 30
0.0
  9
$UCSORGBACK
 10
0.0
 20
0.0
 30
0.0
  9
$PUCSBASE
  2

  9
$PUCSNAME
  2

  9
$PUCSORG
 10
0.0
 20
0.0
 30
0.0
  9
$PUCSXDIR
 10
1.0
 20
0.0
 30
0.0
  9
$PUCSYDIR
 10
0.0
 20
1.0
 30
0.0
  9
$PUCSORTHOREF
  2

  9
$PUCSORTHOVIEW
 70
     0
  9
$PUCSORGTOP
 10
0.0
 20
0.0
 30
0.0
  9
$PUCSORGBOTTOM
 10
0.0
 20
0.0
 30
0.0
  9
$PUCSORGLEFT
 10
0.0
 20
0.0
 30
0.0
  9
$PUCSORGRIGHT
 10
0.0
 20
0.0
 30
0.0
  9
$PUCSORGFRONT
 10
0.0
 20
0.0
 30
0.0
  9
$PUCSORGBACK
 10
0.0
 20
0.0
 30
0.0
  9
$USERI1
 70
     0
  9
$USERI2
 70
     0
  9
$USERI3
 70
     0
  9
$USERI4
 70
     0
  9
$USERI5
 70
     0
  9
$USERR1
 40
0.0
  9
$USERR2
 40
0.0
  9
$USERR3
 40
0.0
  9
$USERR4
 40
0.0
  9
$USERR5
 40
0.0
  9
$WORLDVIEW
 70
     1
  9
$SHADEDGE
 70
     3
  9
$SHADEDIF
 70
    70
  9
$TILEMODE
 70
     1
  9
$MAXACTVP
 70
    64
  9
$PINSBASE
 10
0.0
 20
0.0
 30
0.0
  9
$PLIMCHECK
 70
     0
  9
$PEXTMIN
 10
0.0
 20
0.0
 30
0.0
  9
$PEXTMAX
 10
34.0
 20
22.0
 30
0.0
  9
$PLIMMIN
 10
0.0
 20
0.0
  9
$PLIMMAX
 10
34.0
 20
22.0
  9
$UNITMODE
 70
     0
  9
$VISRETAIN
 70
     1
  9
$PLINEGEN
 70
     0
  9
$PSLTSCALE
 70
     1
  9
$TREEDEPTH
 70
  3020
  9
$CMLSTYLE
  2
Standard
  9
$CMLJUST
 70
     0
  9
$CMLSCALE
 40
1.0
  9
$PROXYGRAPHICS
 70
     1
  9
$MEASUREMENT
 70
     0
  9
$CELWEIGHT
370
    -1
  9
$ENDCAPS
280
     0
  9
$JOINSTYLE
280
     0
  9
$LWDISPLAY
290
     0
  9
$INSUNITS
 70
     1
  9
$HYPERLINKBASE
  1

  9
$STYLESHEET
  1

  9
$XEDIT
290
     1
  9
$CEPSNTYPE
380
     0
  9
$PSTYLEMODE
290
     1
  9
$FINGERPRINTGUID
  2
{EBD24E34-0E21-46DE-9ADB-2F10F69F6245}
  9
$VERSIONGUID
  2
{E1A106EE-FD41-4EA7-9993-06D328C77FC5}
  9
$EXTNAMES
290
     1
  9
$PSVPSCALE
 40
0.0
  9
$OLESTARTUP
290
     0
  9
$SORTENTS
280
   127
  9
$INDEXCTL
280
     0
  9
$HIDETEXT
280
     1
  9
$XCLIPFRAME
290
     0
  9
$HALOGAP
280
     0
  9
$OBSCOLOR
 70
   257
  9
$OBSLTYPE
280
     0
  9
$INTERSECTIONDISPLAY
280
     0
  9
$INTERSECTIONCOLOR
 70
   257
  9
$DIMASSOC
280
     1
  9
$PROJECTNAME
  1

  0
ENDSEC
  0
SECTION
  2
CLASSES
  0
CLASS
  1
ACDBDICTIONARYWDFLT
  2
AcDbDictionaryWithDefault
  3
ObjectDBX Classes
 90
        0
 91
        1
280
     0
281
     0
  0
CLASS
  1
MATERIAL
  2
AcDbMaterial
  3
ObjectDBX Classes
 90
     1153
 91
        3
280
     0
281
     0
  0
CLASS
  1
VISUALSTYLE
  2
AcDbVisualStyle
  3
ObjectDBX Classes
 90
     4095
 91
       24
280
     0
281
     0
  0
CLASS
  1
SCALE
  2
AcDbScale
  3
ObjectDBX Classes
 90
     1153
 91
       17
280
     0
281
     0
  0
CLASS
  1
TABLESTYLE
  2
AcDbTableStyle
  3
ObjectDBX Classes
 90
     4095
 91
        1
280
     0
281
     0
  0
CLASS
  1
MLEADERSTYLE
  2
AcDbMLeaderStyle
  3
ACDB_MLEADERSTYLE_CLASS
 90
     4095
 91
        1
280
     0
281
     0
  0
CLASS
  1
DICTIONARYVAR
  2
AcDbDictionaryVar
  3
ObjectDBX Classes
 90
        0
 91
        8
280
     0
281
     0
  0
CLASS
  1
CELLSTYLEMAP
  2
AcDbCellStyleMap
  3
ObjectDBX Classes
 90
     1152
 91
        1
280
     0
281
     0
  0
ENDSEC
  0
SECTION
  2
TABLES
  0
TABLE
  2
VPORT
  5
8
330
0
100
AcDbSymbolTable
 70
     1
  0
VPORT
  5
57
330
8
100
AcDbSymbolTableRecord
100
AcDbViewportTableRecord
  2
*Active
 70
     0
 10
0.0
 20
0.0
 11
1.0
 21
1.0
 12
17.0
 22
11.0
 13
0.0
 23
0.0
 14
1.0
 24
1.0
 15
0.0
 25
0.0
 16
0.0
 26
0.0
 36
1.0
 17
0.0
 27
0.0
 37
0.0
 40
22.0
 41
1.545454545454545
 42
50.0
 43
0.0
 44
0.0
 50
0.0
 51
0.0
 71
     0
 72
   100
 73
     1
 74
     1
 75
     0
 76
     0
 77
     0
 78
     0
281
     0
 65
     1
110
0.0
120
0.0
130
0.0
111
1.0
121
0.0
131
0.0
112
0.0
122
1.0
132
0.0
 79
     0
146
0.0
  0
ENDTAB
  0
TABLE
  2
LTYPE
  5
5
330
0
100
AcDbSymbolTable
 70
    59
  0
LTYPE
  5
5B
330
5
100
AcDbSymbolTableRecord
100
AcDbLinetypeTableRecord
  2
ByBlock
 70
     0
  3

 72
    65
 73
     0
 40
0.0
  0
LTYPE
  5
5C
330
5
100
AcDbSymbolTableRecord
100
AcDbLinetypeTableRecord
  2
ByLayer
 70
     0
  3

 72
    65
 73
     0
 40
0.0
  0
LTYPE
  5
5D
330
5
100
AcDbSymbolTableRecord
100
AcDbLinetypeTableRecord
  2
Continuous
 70
     0
  3
Solid line
 72
    65
 73
     0
 40
0.0
  0
LTYPE
  5
7C
330
5
100
AcDbSymbolTableRecord
100
AcDbLinetypeTableRecord
  2
BY_STANDARD
 70
     0
  3
By Standard ____________    ____    ____   _
 72
    65
 73
     6
 40
1.240299999999999
 49
0.6614
 74
     0
 49
-0.0827
 74
     0
 49
0.1654
 74
     0
 49
-0.0827
 74
     0
 49
0.1654
 74
     0
 49
-0.0827
 74
     0
  0
LTYPE
  5
7D
330
5
100
AcDbSymbolTableRecord
100
AcDbLinetypeTableRecord
  2
CHAIN
 70
     0
  3
Chain ____ _ ____ _ ____ _ ____ _ ____ _ ____
 72
    65
 73
     4
 40
0.7087
 49
0.4724000000000001
 74
     0
 49
-0.0591
 74
     0
 49
0.1181
 74
     0
 49
-0.0591
 74
     0
  0
LTYPE
  5
7E
330
5
100
AcDbSymbolTableRecord
100
AcDbLinetypeTableRecord
  2
DASH_DOT
 70
     0
  3
Dash dot __ . __ . __ . __ . __ . __ . __ . __
 72
    65
 73
     4
 40
0.37
 49
0.24
 74
     0
 49
-0.06
 74
     0
 49
0.01
 74
     0
 49
-0.06
 74
     0
  0
LTYPE
  5
7F
330
5
100
AcDbSymbolTableRecord
100
AcDbLinetypeTableRecord
  2
DOUBLE_DASH_DOT
 70
     0
  3
Double-Dash Dot __ __ . __ __ . __ __ . __ _
 72
    65
 73
     6
 40
0.4398
 49
0.24
 74
     0
 49
-0.06
 74
     0
 49
0.0098
 74
     0
 49
-0.06
 74
     0
 49
0.01
 74
     0
 49
-0.06
 74
     0
  0
LTYPE
  5
80
330
5
100
AcDbSymbolTableRecord
100
AcDbLinetypeTableRecord
  2
DASH_TRIPLE_DOT
 70
     0
  3
Dash Triple-Dot _ . . . _ . . . _ . . . _
 72
    65
 73
     8
 40
0.51
 49
0.24
 74
     0
 49
-0.06
 74
     0
 49
0.01
 74
     0
 49
-0.06
 74
     0
 49
0.01
 74
     0
 49
-0.06
 74
     0
 49
0.01
 74
     0
 49
-0.06
 74
     0
  0
LTYPE
  5
81
330
5
100
AcDbSymbolTableRecord
100
AcDbLinetypeTableRecord
  2
DASHED
 70
     0
  3
Dashed __ __ __ __ __ __ __ __ __ __ __ __ __ _
 72
    65
 73
     2
 40
0.2067
 49
0.1654
 74
     0
 49
-0.0413
 74
     0
  0
LTYPE
  5
82
330
5
100
AcDbSymbolTableRecord
100
AcDbLinetypeTableRecord
  2
DASH_DOUBLE_DOT
 70
     0
  3
Dash Double-Dot __ . . __ . . __ . . __ . .
 72
    65
 73
     6
 40
0.4398
 49
0.24
 74
     0
 49
-0.06
 74
     0
 49
0.0098
 74
     0
 49
-0.06
 74
     0
 49
0.01
 74
     0
 49
-0.06
 74
     0
  0
LTYPE
  5
83
330
5
100
AcDbSymbolTableRecord
100
AcDbLinetypeTableRecord
  2
DASHED_SPACE
 70
     0
  3
Dashed Space __ __ __ __ __ __ __ __ __ __ __ _
 72
    65
 73
     2
 40
0.2067
 49
0.1654
 74
     0
 49
-0.0413
 74
     0
  0
LTYPE
  5
84
330
5
100
AcDbSymbolTableRecord
100
AcDbLinetypeTableRecord
  2
DOTTED
 70
     0
  3
Dotted . . . . . . . . . . . . . . . . . . . . 
 72
    65
 73
     2
 40
0.0482
 49
0.0069
 74
     0
 49
-0.0413
 74
     0
  0
LTYPE
  5
85
330
5
100
AcDbSymbolTableRecord
100
AcDbLinetypeTableRecord
  2
DOUBLE_DASH_CHAIN
 70
     0
  3
Double-Dash Chain ______  __  __  ______  __  _
 72
    65
 73
     6
 40
1.240299999999999
 49
0.6614
 74
     0
 49
-0.0827
 74
     0
 49
0.1654
 74
     0
 49
-0.0827
 74
     0
 49
0.1654
 74
     0
 49
-0.0827
 74
     0
  0
LTYPE
  5
87
330
5
100
AcDbSymbolTableRecord
100
AcDbLinetypeTableRecord
  2
DOUBLE_DASH_DOUBLE_DOT
 70
     0
  3
Double-Dash Double-dot _ _ . . _ _ . . _
 72
    65
 73
     8
 40
0.7400000000000001
 49
0.24
 74
     0
 49
-0.06
 74
     0
 49
0.24
 74
     0
 49
-0.06
 74
     0
 49
0.01
 74
     0
 49
-0.06
 74
     0
 49
0.01
 74
     0
 49
-0.06
 74
     0
  0
LTYPE
  5
88
330
5
100
AcDbSymbolTableRecord
100
AcDbLinetypeTableRecord
  2
DOUBLE_DASH_TRIPLE_DOT
 70
     0
  3
Double Dash Triple Dot __ __ . . . __ __ . .
 72
    65
 73
    10
 40
0.8100000000000001
 49
0.24
 74
     0
 49
-0.06
 74
     0
 49
0.24
 74
     0
 49
-0.06
 74
     0
 49
0.01
 74
     0
 49
-0.06
 74
     0
 49
0.01
 74
     0
 49
-0.06
 74
     0
 49
0.01
 74
     0
 49
-0.06
 74
     0
  0
LTYPE
  5
89
330
5
100
AcDbSymbolTableRecord
100
AcDbLinetypeTableRecord
  2
LONG_DASH_DOTTED
 70
     0
  3
Long Dash Dotted ____ . ____ . ____ . ____ . _
 72
    65
 73
     4
 40
0.3543
 49
0.2362
 74
     0
 49
-0.0295
 74
     0
 49
0.0591
 74
     0
 49
-0.0295
 74
     0
  0
LTYPE
  5
8A
330
5
100
AcDbSymbolTableRecord
100
AcDbLinetypeTableRecord
  2
LONG_DASH_DOUBLE_DOT
 70
     0
  3
Long Dash Double Dot ________  .  .  ________  
 72
    65
 73
     6
 40
0.6799999999999999
 49
0.48
 74
     0
 49
-0.06
 74
     0
 49
0.01
 74
     0
 49
-0.06
 74
     0
 49
0.01
 74
     0
 49
-0.06
 74
     0
  0
LTYPE
  5
8B
330
5
100
AcDbSymbolTableRecord
100
AcDbLinetypeTableRecord
  2
LONG_DASH_TRIPLE_DOT
 70
     0
  3
Long Dash Triple Dot ____ ... ____ ... ____
 72
    65
 73
     8
 40
0.3689
 49
0.2362
 74
     0
 49
-0.0295
 74
     0
 49
0.0049
 74
     0
 49
-0.0295
 74
     0
 49
0.0049
 74
     0
 49
-0.0295
 74
     0
 49
0.0049
 74
     0
 49
-0.0295
 74
     0
  0
LTYPE
  5
8C
330
5
100
AcDbSymbolTableRecord
100
AcDbLinetypeTableRecord
  2
BORDER
 70
     0
  3
Border __ __ . __ __ . __ __ . __ __ . __ __ .
 72
    65
 73
     6
 40
1.75
 49
0.5
 74
     0
 49
-0.25
 74
     0
 49
0.5
 74
     0
 49
-0.25
 74
     0
 49
0.0
 74
     0
 49
-0.25
 74
     0
  0
LTYPE
  5
8D
330
5
100
AcDbSymbolTableRecord
100
AcDbLinetypeTableRecord
  2
BORDER2
 70
     0
  3
Border (.5x) __.__.__.__.__.__.__.__.__.__.__.
 72
    65
 73
     6
 40
0.875
 49
0.25
 74
     0
 49
-0.125
 74
     0
 49
0.25
 74
     0
 49
-0.125
 74
     0
 49
0.0
 74
     0
 49
-0.125
 74
     0
  0
LTYPE
  5
8E
330
5
100
AcDbSymbolTableRecord
100
AcDbLinetypeTableRecord
  2
BORDERX2
 70
     0
  3
Border (2x) ____  ____  .  ____  ____  .  ___
 72
    65
 73
     6
 40
3.5
 49
1.0
 74
     0
 49
-0.5
 74
     0
 49
1.0
 74
     0
 49
-0.5
 74
     0
 49
0.0
 74
     0
 49
-0.5
 74
     0
  0
LTYPE
  5
8F
330
5
100
AcDbSymbolTableRecord
100
AcDbLinetypeTableRecord
  2
CENTER
 70
     0
  3
Center ____ _ ____ _ ____ _ ____ _ ____ _ ____
 72
    65
 73
     4
 40
2.0
 49
1.25
 74
     0
 49
-0.25
 74
     0
 49
0.25
 74
     0
 49
-0.25
 74
     0
  0
LTYPE
  5
90
330
5
100
AcDbSymbolTableRecord
100
AcDbLinetypeTableRecord
  2
CENTER2
 70
     0
  3
Center (.5x) ___ _ ___ _ ___ _ ___ _ ___ _ ___
 72
    65
 73
     4
 40
1.125
 49
0.75
 74
     0
 49
-0.125
 74
     0
 49
0.125
 74
     0
 49
-0.125
 74
     0
  0
LTYPE
  5
91
330
5
100
AcDbSymbolTableRecord
100
AcDbLinetypeTableRecord
  2
CENTERX2
 70
     0
  3
Center (2x) ________  __  ________  __  _____
 72
    65
 73
     4
 40
4.0
 49
2.5
 74
     0
 49
-0.5
 74
     0
 49
0.5
 74
     0
 49
-0.5
 74
     0
  0
LTYPE
  5
92
330
5
100
AcDbSymbolTableRecord
100
AcDbLinetypeTableRecord
  2
DASHDOT2
 70
     0
  3
Dash dot (.5x) _._._._._._._._._._._._._._._.
 72
    65
 73
     4
 40
0.5
 49
0.25
 74
     0
 49
-0.125
 74
     0
 49
0.0
 74
     0
 49
-0.125
 74
     0
  0
LTYPE
  5
93
330
5
100
AcDbSymbolTableRecord
100
AcDbLinetypeTableRecord
  2
DASHDOTX2
 70
     0
  3
Dash dot (2x) ____  .  ____  .  ____  .  ___
 72
    65
 73
     4
 40
2.0
 49
1.0
 74
     0
 49
-0.5
 74
     0
 49
0.0
 74
     0
 49
-0.5
 74
     0
  0
LTYPE
  5
95
330
5
100
AcDbSymbolTableRecord
100
AcDbLinetypeTableRecord
  2
DASHED2
 70
     0
  3
Dashed (.5x) _ _ _ _ _ _ _ _ _ _ _ _ _ _ _ _ _
 72
    65
 73
     2
 40
0.375
 49
0.25
 74
     0
 49
-0.125
 74
     0
  0
LTYPE
  5
96
330
5
100
AcDbSymbolTableRecord
100
AcDbLinetypeTableRecord
  2
DASHEDX2
 70
     0
  3
Dashed (2x) ____  ____  ____  ____  ____  ___
 72
    65
 73
     2
 40
1.5
 49
1.0
 74
     0
 49
-0.5
 74
     0
  0
LTYPE
  5
97
330
5
100
AcDbSymbolTableRecord
100
AcDbLinetypeTableRecord
  2
DIVIDE
 70
     0
  3
Divide ____ . . ____ . . ____ . . ____ . . ____
 72
    65
 73
     6
 40
1.25
 49
0.5
 74
     0
 49
-0.25
 74
     0
 49
0.0
 74
     0
 49
-0.25
 74
     0
 49
0.0
 74
     0
 49
-0.25
 74
     0
  0
LTYPE
  5
98
330
5
100
AcDbSymbolTableRecord
100
AcDbLinetypeTableRecord
  2
DIVIDE2
 70
     0
  3
Divide (.5x) __..__..__..__..__..__..__..__.._
 72
    65
 73
     6
 40
0.625
 49
0.25
 74
     0
 49
-0.125
 74
     0
 49
0.0
 74
     0
 49
-0.125
 74
     0
 49
0.0
 74
     0
 49
-0.125
 74
     0
  0
LTYPE
  5
99
330
5
100
AcDbSymbolTableRecord
100
AcDbLinetypeTableRecord
  2
DIVIDEX2
 70
     0
  3
Divide (2x) ________  .  .  ________  .  .  _
 72
    65
 73
     6
 40
2.5
 49
1.0
 74
     0
 49
-0.5
 74
     0
 49
0.0
 74
     0
 49
-0.5
 74
     0
 49
0.0
 74
     0
 49
-0.5
 74
     0
  0
LTYPE
  5
9A
330
5
100
AcDbSymbolTableRecord
100
AcDbLinetypeTableRecord
  2
DOT
 70
     0
  3
Dot . . . . . . . . . . . . . . . . . . . . . .
 72
    65
 73
     2
 40
0.25
 49
0.0
 74
     0
 49
-0.25
 74
     0
  0
LTYPE
  5
9B
330
5
100
AcDbSymbolTableRecord
100
AcDbLinetypeTableRecord
  2
DOT2
 70
     0
  3
Dot (.5x) .....................................
 72
    65
 73
     2
 40
0.125
 49
0.0
 74
     0
 49
-0.125
 74
     0
  0
LTYPE
  5
9C
330
5
100
AcDbSymbolTableRecord
100
AcDbLinetypeTableRecord
  2
DOTX2
 70
     0
  3
Dot (2x) .  .  .  .  .  .  .  .  .  .  .  .  . 
 72
    65
 73
     2
 40
0.5
 49
0.0
 74
     0
 49
-0.5
 74
     0
  0
LTYPE
  5
9D
330
5
100
AcDbSymbolTableRecord
100
AcDbLinetypeTableRecord
  2
HIDDEN
 70
     0
  3
Hidden __ __ __ __ __ __ __ __ __ __ __ __ __ _
 72
    65
 73
     2
 40
0.375
 49
0.25
 74
     0
 49
-0.125
 74
     0
  0
LTYPE
  5
9E
330
5
100
AcDbSymbolTableRecord
100
AcDbLinetypeTableRecord
  2
HIDDEN2
 70
     0
  3
Hidden (.5x) _ _ _ _ _ _ _ _ _ _ _ _ _ _ _ _ _
 72
    65
 73
     2
 40
0.1875
 49
0.125
 74
     0
 49
-0.0625
 74
     0
  0
LTYPE
  5
9F
330
5
100
AcDbSymbolTableRecord
100
AcDbLinetypeTableRecord
  2
HIDDENX2
 70
     0
  3
Hidden (2x) ____ ____ ____ ____ ____ ____ ____
 72
    65
 73
     2
 40
0.75
 49
0.5
 74
     0
 49
-0.25
 74
     0
  0
LTYPE
  5
A0
330
5
100
AcDbSymbolTableRecord
100
AcDbLinetypeTableRecord
  2
PHANTOM
 70
     0
  3
Phantom ______  __  __  ______  __  __  ______
 72
    65
 73
     6
 40
2.5
 49
1.25
 74
     0
 49
-0.25
 74
     0
 49
0.25
 74
     0
 49
-0.25
 74
     0
 49
0.25
 74
     0
 49
-0.25
 74
     0
  0
LTYPE
  5
A1
330
5
100
AcDbSymbolTableRecord
100
AcDbLinetypeTableRecord
  2
PHANTOM2
 70
     0
  3
Phantom (.5x) ___ _ _ ___ _ _ ___ _ _ ___ _ _
 72
    65
 73
     6
 40
1.25
 49
0.625
 74
     0
 49
-0.125
 74
     0
 49
0.125
 74
     0
 49
-0.125
 74
     0
 49
0.125
 74
     0
 49
-0.125
 74
     0
  0
LTYPE
  5
A2
330
5
100
AcDbSymbolTableRecord
100
AcDbLinetypeTableRecord
  2
PHANTOMX2
 70
     0
  3
Phantom (2x) ____________    ____    ____   _
 72
    65
 73
     6
 40
5.0
 49
2.5
 74
     0
 49
-0.5
 74
     0
 49
0.5
 74
     0
 49
-0.5
 74
     0
 49
0.5
 74
     0
 49
-0.5
 74
     0
  0
LTYPE
  5
A3
330
5
100
AcDbSymbolTableRecord
100
AcDbLinetypeTableRecord
  2
ACAD_ISO02W100
 70
     0
  3
ISO dash __ __ __ __ __ __ __ __ __ __ __ __ __
 72
    65
 73
     2
 40
0.59
 49
0.47
 74
     0
 49
-0.12
 74
     0
  0
LTYPE
  5
A4
330
5
100
AcDbSymbolTableRecord
100
AcDbLinetypeTableRecord
  2
ACAD_ISO03W100
 70
     0
  3
ISO dash space __    __    __    __    __    __
 72
    65
 73
     2
 40
1.179999999999999
 49
0.47
 74
     0
 49
-0.71
 74
     0
  0
LTYPE
  5
A5
330
5
100
AcDbSymbolTableRecord
100
AcDbLinetypeTableRecord
  2
ACAD_ISO04W100
 70
     0
  3
ISO long-dash dot ____ . ____ . ____ . ____ . _
 72
    65
 73
     4
 40
1.179999999999999
 49
0.9399999999999998
 74
     0
 49
-0.12
 74
     0
 49
0.0
 74
     0
 49
-0.12
 74
     0
  0
LTYPE
  5
A6
330
5
100
AcDbSymbolTableRecord
100
AcDbLinetypeTableRecord
  2
ACAD_ISO05W100
 70
     0
  3
ISO long-dash double-dot ____ .. ____ .. ____ .
 72
    65
 73
     6
 40
1.299999999999999
 49
0.9399999999999998
 74
     0
 49
-0.12
 74
     0
 49
0.0
 74
     0
 49
-0.12
 74
     0
 49
0.0
 74
     0
 49
-0.12
 74
     0
  0
LTYPE
  5
A7
330
5
100
AcDbSymbolTableRecord
100
AcDbLinetypeTableRecord
  2
ACAD_ISO06W100
 70
     0
  3
ISO long-dash triple-dot ____ ... ____ ... ____
 72
    65
 73
     8
 40
1.419999999999999
 49
0.9399999999999998
 74
     0
 49
-0.12
 74
     0
 49
0.0
 74
     0
 49
-0.12
 74
     0
 49
0.0
 74
     0
 49
-0.12
 74
     0
 49
0.0
 74
     0
 49
-0.12
 74
     0
  0
LTYPE
  5
A8
330
5
100
AcDbSymbolTableRecord
100
AcDbLinetypeTableRecord
  2
ACAD_ISO07W100
 70
     0
  3
ISO dot . . . . . . . . . . . . . . . . . . . .
 72
    65
 73
     2
 40
0.12
 49
0.0
 74
     0
 49
-0.12
 74
     0
  0
LTYPE
  5
A9
330
5
100
AcDbSymbolTableRecord
100
AcDbLinetypeTableRecord
  2
ACAD_ISO08W100
 70
     0
  3
ISO long-dash short-dash ____ __ ____ __ ____ _
 72
    65
 73
     4
 40
0.95
 49
0.47
 74
     0
 49
-0.12
 74
     0
 49
0.24
 74
     0
 49
-0.12
 74
     0
  0
LTYPE
  5
AA
330
5
100
AcDbSymbolTableRecord
100
AcDbLinetypeTableRecord
  2
ACAD_ISO09W100
 70
     0
  3
ISO long-dash double-short-dash ____ __ __ ____
 72
    65
 73
     6
 40
1.31
 49
0.47
 74
     0
 49
-0.12
 74
     0
 49
0.24
 74
     0
 49
-0.12
 74
     0
 49
0.24
 74
     0
 49
-0.12
 74
     0
  0
LTYPE
  5
AB
330
5
100
AcDbSymbolTableRecord
100
AcDbLinetypeTableRecord
  2
ACAD_ISO10W100
 70
     0
  3
ISO dash dot __ . __ . __ . __ . __ . __ . __ .
 72
    65
 73
     4
 40
0.71
 49
0.47
 74
     0
 49
-0.12
 74
     0
 49
0.0
 74
     0
 49
-0.12
 74
     0
  0
LTYPE
  5
AC
330
5
100
AcDbSymbolTableRecord
100
AcDbLinetypeTableRecord
  2
ACAD_ISO11W100
 70
     0
  3
ISO double-dash dot __ __ . __ __ . __ __ . __ 
 72
    65
 73
     6
 40
1.299999999999999
 49
0.47
 74
     0
 49
-0.12
 74
     0
 49
0.47
 74
     0
 49
-0.12
 74
     0
 49
0.0
 74
     0
 49
-0.12
 74
     0
  0
LTYPE
  5
AD
330
5
100
AcDbSymbolTableRecord
100
AcDbLinetypeTableRecord
  2
ACAD_ISO12W100
 70
     0
  3
ISO dash double-dot __ . . __ . . __ . . __ . .
 72
    65
 73
     6
 40
0.8299999999999998
 49
0.47
 74
     0
 49
-0.12
 74
     0
 49
0.0
 74
     0
 49
-0.12
 74
     0
 49
0.0
 74
     0
 49
-0.12
 74
     0
  0
LTYPE
  5
AE
330
5
100
AcDbSymbolTableRecord
100
AcDbLinetypeTableRecord
  2
ACAD_ISO13W100
 70
     0
  3
ISO double-dash double-dot __ __ . . __ __ . . 
 72
    65
 73
     8
 40
1.419999999999999
 49
0.47
 74
     0
 49
-0.12
 74
     0
 49
0.47
 74
     0
 49
-0.12
 74
     0
 49
0.0
 74
     0
 49
-0.12
 74
     0
 49
0.0
 74
     0
 49
-0.12
 74
     0
  0
LTYPE
  5
AF
330
5
100
AcDbSymbolTableRecord
100
AcDbLinetypeTableRecord
  2
ACAD_ISO14W100
 70
     0
  3
ISO dash triple-dot __ . . . __ . . . __ . . . 
 72
    65
 73
     8
 40
0.95
 49
0.47
 74
     0
 49
-0.12
 74
     0
 49
0.0
 74
     0
 49
-0.12
 74
     0
 49
0.0
 74
     0
 49
-0.12
 74
     0
 49
0.0
 74
     0
 49
-0.12
 74
     0
  0
LTYPE
  5
B0
330
5
100
AcDbSymbolTableRecord
100
AcDbLinetypeTableRecord
  2
ACAD_ISO15W100
 70
     0
  3
ISO double-dash triple-dot __ __ . . . __ __ . 
 72
    65
 73
    10
 40
1.539999999999999
 49
0.47
 74
     0
 49
-0.12
 74
     0
 49
0.47
 74
     0
 49
-0.12
 74
     0
 49
0.0
 74
     0
 49
-0.12
 74
     0
 49
0.0
 74
     0
 49
-0.12
 74
     0
 49
0.0
 74
     0
 49
-0.12
 74
     0
  0
LTYPE
  5
B3
330
5
100
AcDbSymbolTableRecord
100
AcDbLinetypeTableRecord
  2
FENCELINE1
 70
     0
  3
Fenceline circle ----0-----0----0-----0----0---
 72
    65
 73
     4
 40
1.45
 49
0.25
 74
     0
 49
-0.1
 74
     4
 75
   133
340
B2
 46
0.1
 50
0.0
 44
-0.1
 45
0.0
 49
-0.1
 74
     0
 49
1.0
 74
     0
  0
LTYPE
  5
B4
330
5
100
AcDbSymbolTableRecord
100
AcDbLinetypeTableRecord
  2
FENCELINE2
 70
     0
  3
Fenceline square ----[]-----[]----[]-----[]----
 72
    65
 73
     4
 40
1.45
 49
0.25
 74
     0
 49
-0.1
 74
     4
 75
   132
340
B2
 46
0.1
 50
0.0
 44
-0.1
 45
0.0
 49
-0.1
 74
     0
 49
1.0
 74
     0
  0
LTYPE
  5
B5
330
5
100
AcDbSymbolTableRecord
100
AcDbLinetypeTableRecord
  2
TRACKS
 70
     0
  3
Tracks -|-|-|-|-|-|-|-|-|-|-|-|-|-|-|-|-|-|-|-|
 72
    65
 73
     2
 40
0.3
 49
0.15
 74
     4
 75
   130
340
B2
 46
0.25
 50
0.0
 44
0.0
 45
0.0
 49
0.15
 74
     0
  0
LTYPE
  5
B6
330
5
100
AcDbSymbolTableRecord
100
AcDbLinetypeTableRecord
  2
BATTING
 70
     0
  3
Batting SSSSSSSSSSSSSSSSSSSSSSSSSSSSSSSSSSSSSSS
 72
    65
 73
     4
 40
0.4001000000000001
 49
0.0001
 74
     0
 49
-0.1
 74
     4
 75
   134
340
B2
 46
0.1
 50
0.0
 44
-0.1
 45
0.0
 49
-0.2
 74
     4
 75
   134
340
B2
 46
0.1
 50
180.0
 44
0.1
 45
0.0
 49
-0.1
 74
     0
  0
LTYPE
  5
B7
330
5
100
AcDbSymbolTableRecord
100
AcDbLinetypeTableRecord
  2
HOT_WATER_SUPPLY
 70
     0
  3
Hot water supply ---- HW ---- HW ---- HW ----
 72
    65
 73
     3
 40
0.9
 49
0.5
 74
     0
 49
-0.2
 74
     2
 75
     0
340
55
 46
0.1
 50
0.0
 44
-0.1
 45
-0.05
  9
HW
 49
-0.2
 74
     0
  0
LTYPE
  5
B8
330
5
100
AcDbSymbolTableRecord
100
AcDbLinetypeTableRecord
  2
GAS_LINE
 70
     0
  3
Gas line ----GAS----GAS----GAS----GAS----GAS---
 72
    65
 73
     3
 40
0.95
 49
0.5
 74
     0
 49
-0.2
 74
     2
 75
     0
340
55
 46
0.1
 50
0.0
 44
-0.1
 45
-0.05
  9
GAS
 49
-0.25
 74
     0
  0
LTYPE
  5
B9
330
5
100
AcDbSymbolTableRecord
100
AcDbLinetypeTableRecord
  2
ZIGZAG
 70
     0
  3
Zig zag /\/\/\/\/\/\/\/\/\/\/\/\/\/\/\/\/\/\/\/
 72
    65
 73
     4
 40
0.8001000000000001
 49
0.0001
 74
     0
 49
-0.2
 74
     4
 75
   131
340
B2
 46
0.2
 50
0.0
 44
-0.2
 45
0.0
 49
-0.4
 74
     4
 75
   131
340
B2
 46
0.2
 50
180.0
 44
0.2
 45
0.0
 49
-0.2
 74
     0
  0
ENDTAB
  0
TABLE
  2
LAYER
  5
2
330
0
100
AcDbSymbolTable
 70
    27
  0
LAYER
  5
54
330
2
100
AcDbSymbolTableRecord
100
AcDbLayerTableRecord
  2
0
 70
     0
 62
     7
  6
Continuous
370
    18
390
F
  0
LAYER
  5
C0
330
2
100
AcDbSymbolTableRecord
100
AcDbLayerTableRecord
  2
Center Mark (ANSI)
 70
     0
 62
     7
  6
Continuous
370
    15
390
F
  0
LAYER
  5
C1
330
2
100
AcDbSymbolTableRecord
100
AcDbLayerTableRecord
  2
Centerline (ANSI)
 70
     0
 62
     7
  6
Continuous
370
    15
390
F
  0
LAYER
  5
C3
330
2
100
AcDbSymbolTableRecord
100
AcDbLayerTableRecord
  2
Dimension (ANSI)
 70
     0
 62
     7
  6
Continuous
370
    13
390
F
  0
LAYER
  5
C5
330
2
100
AcDbSymbolTableRecord
100
AcDbLayerTableRecord
  2
Hidden (ANSI)
 70
     0
 62
     7
  6
DASHED
370
    15
390
F
  0
LAYER
  5
CC
330
2
100
AcDbSymbolTableRecord
100
AcDbLayerTableRecord
  2
Symbol (ANSI)
 70
     0
 62
     7
  6
Continuous
370
    18
390
F
  0
LAYER
  5
CF
330
2
100
AcDbSymbolTableRecord
100
AcDbLayerTableRecord
  2
Visible (ANSI)
 70
     0
 62
     7
  6
Continuous
370
    13
390
F
  0
LAYER
  5
D0
330
2
100
AcDbSymbolTableRecord
100
AcDbLayerTableRecord
  2
Visible Narrow (ANSI)
 70
     0
 62
     7
  6
Continuous
370
    18
390
F
  0
LAYER
  5
16F
330
2
100
AcDbSymbolTableRecord
100
AcDbLayerTableRecord
  2
Defpoints
 70
     0
 62
     7
  6
Continuous
290
     0
370
    -3
390
F
  0
ENDTAB
  0
TABLE
  2
STYLE
  5
3
330
0
100
AcDbSymbolTable
 70
    18
  0
STYLE
  5
55
330
3
100
AcDbSymbolTableRecord
100
AcDbTextStyleTableRecord
  2
Standard
 70
     0
 40
0.0
 41
1.0
 50
0.0
 71
     0
 42
0.2
  3
txt
  4

  0
STYLE
  5
5A
330
3
100
AcDbSymbolTableRecord
100
AcDbTextStyleTableRecord
  2
Annotative
 70
     0
 40
0.0
 41
1.0
 50
0.0
 71
     0
 42
0.2
  3
txt
  4

1001
AcadAnnotative
1000
AnnotativeData
1002
{
1070
     1
1070
     1
1002
}
  0
STYLE
  5
B2
330
3
100
AcDbSymbolTableRecord
100
AcDbTextStyleTableRecord
  2

 70
     1
 40
0.0
 41
1.0
 50
0.0
 71
     0
 42
0.2
  3
ltypeshp.shx
  4

  0
STYLE
  5
D4
330
3
100
AcDbSymbolTableRecord
100
AcDbTextStyleTableRecord
  2
ITALICC_120
 70
     0
 40
0.0
 41
1.0
 50
0.0
 71
     0
 42
0.2
  3
italicc.shx
  4

  0
STYLE
  5
D5
330
3
100
AcDbSymbolTableRecord
100
AcDbTextStyleTableRecord
  2
Label Text (ANSI)
 70
     0
 40
0.0
 41
1.0
 50
0.0
 71
     0
 42
0.2
  3
tahoma.ttf
  4

1001
ACAD
1000
Tahoma
1071
      256
  0
STYLE
  5
D6
330
3
100
AcDbSymbolTableRecord
100
AcDbTextStyleTableRecord
  2
Note Text (ANSI)
 70
     0
 40
0.0
 41
1.0
 50
0.0
 71
     0
 42
0.2
  3
tahoma.ttf
  4

1001
ACAD
1000
Tahoma
1071
      256
  0
STYLE
  5
D7
330
3
100
AcDbSymbolTableRecord
100
AcDbTextStyleTableRecord
  2
ROMANS
 70
     0
 40
0.0
 41
1.0
 50
0.0
 71
     0
 42
0.2
  3
romans.shx
  4

  0
STYLE
  5
D8
330
3
100
AcDbSymbolTableRecord
100
AcDbTextStyleTableRecord
  2
SANSSERIF_114
 70
     0
 40
0.0
 41
1.0
 50
0.0
 71
     0
 42
0.2
  3
tahoma.ttf
  4

1001
ACAD
1000
Tahoma
1071
      256
  0
STYLE
  5
D9
330
3
100
AcDbSymbolTableRecord
100
AcDbTextStyleTableRecord
  2
SANSSERIF_117
 70
     0
 40
0.0
 41
1.0
 50
0.0
 71
     0
 42
0.2
  3
tahoma.ttf
  4

1001
ACAD
1000
Tahoma
1071
      256
  0
STYLE
  5
DA
330
3
100
AcDbSymbolTableRecord
100
AcDbTextStyleTableRecord
  2
STANDARDAM_ANSI
 70
     0
 40
0.0
 41
1.0
 50
0.0
 71
     0
 42
0.2
  3
txt.shx
  4

  0
STYLE
  5
DB
330
3
100
AcDbSymbolTableRecord
100
AcDbTextStyleTableRecord
  2
StandardAM_ANSI$0
 70
     0
 40
0.0
 41
1.0
 50
0.0
 71
     0
 42
0.2
  3
txt.shx
  4

  0
STYLE
  5
DC
330
3
100
AcDbSymbolTableRecord
100
AcDbTextStyleTableRecord
  2
STANDARDAM_ANSI$3
 70
     0
 40
0.0
 41
1.0
 50
0.0
 71
     0
 42
0.2
  3
txt.shx
  4

  0
STYLE
  5
DD
330
3
100
AcDbSymbolTableRecord
100
AcDbTextStyleTableRecord
  2
STANDARDAM_ANSI$4
 70
     0
 40
0.0
 41
1.0
 50
0.0
 71
     0
 42
0.2
  3
txt.shx
  4

  0
STYLE
  5
DE
330
3
100
AcDbSymbolTableRecord
100
AcDbTextStyleTableRecord
  2
STANDARDAM_ANSI$7
 70
     0
 40
0.0
 41
1.0
 50
0.0
 71
     0
 42
0.2
  3
txt.shx
  4

  0
STYLE
  5
DF
330
3
100
AcDbSymbolTableRecord
100
AcDbTextStyleTableRecord
  2
STANDARDAM_ANSI$SF
 70
     0
 40
0.0
 41
1.0
 50
0.0
 71
     0
 42
0.2
  3
txt.shx
  4

  0
STYLE
  5
E0
330
3
100
AcDbSymbolTableRecord
100
AcDbTextStyleTableRecord
  2
STANDARDAM_ANSI$SH
 70
     0
 40
0.0
 41
1.0
 50
0.0
 71
     0
 42
0.2
  3
txt.shx
  4

  0
STYLE
  5
E1
330
3
100
AcDbSymbolTableRecord
100
AcDbTextStyleTableRecord
  2
STANDARDSTANDARD
 70
     0
 40
0.0
 41
1.0
 50
0.0
 71
     0
 42
0.2
  3
txt.shx
  4

  0
STYLE
  5
130
330
3
100
AcDbSymbolTableRecord
100
AcDbTextStyleTableRecord
  2
Text Style166
 70
     0
 40
0.0
 41
1.0
 50
0.0
 71
     0
 42
0.2
  3
tahoma.ttf
  4

1001
ACAD
1000
Tahoma
1071
      256
  0
ENDTAB
  0
TABLE
  2
VIEW
  5
6
330
0
100
AcDbSymbolTable
 70
     0
  0
ENDTAB
  0
TABLE
  2
UCS
  5
7
330
0
100
AcDbSymbolTable
 70
     0
  0
ENDTAB
  0
TABLE
  2
APPID
  5
9
330
0
100
AcDbSymbolTable
 70
     4
  0
APPID
  5
56
330
9
100
AcDbSymbolTableRecord
100
AcDbRegAppTableRecord
  2
ACAD
 70
     0
  0
APPID
  5
5E
330
9
100
AcDbSymbolTableRecord
100
AcDbRegAppTableRecord
  2
AcadAnnotative
 70
     0
  0
APPID
  5
4EB
330
9
100
AcDbSymbolTableRecord
100
AcDbRegAppTableRecord
  2
ACAD_DSTYLE_DIMRADIAL_EXTENSION
 70
     0
  0
APPID
  5
849
330
9
100
AcDbSymbolTableRecord
100
AcDbRegAppTableRecord
  2
ACAD_MLEADERVER
 70
     0
  0
ENDTAB
  0
TABLE
  2
DIMSTYLE
  5
A
330
0
100
AcDbSymbolTable
 70
    27
100
AcDbDimStyleTable
 71
     2
340
F6
340
58
  0
DIMSTYLE
105
58
330
A
100
AcDbSymbolTableRecord
100
AcDbDimStyleTableRecord
  2
STANDARD
 70
     0
 41
0.1800000071525573
 42
0.0625
140
0.1800000071525574
144
1.0
147
0.0900000035762787
176
   256
177
   256
178
   256
274
     3
340
55
371
    -1
372
    -1
  0
DIMSTYLE
105
59
330
A
100
AcDbSymbolTableRecord
100
AcDbDimStyleTableRecord
  2
Annotative
 70
     0
340
55
1001
AcadAnnotative
1000
AnnotativeData
1002
{
1070
     1
1070
     1
1002
}
  0
DIMSTYLE
105
E2
330
A
100
AcDbSymbolTableRecord
100
AcDbDimStyleTableRecord
  2
AM_ANSI
 70
     0
  4
 mm
 40
2.0
 41
0.119999997317791
 42
0.05
 43
0.5
 44
0.1
 45
0.00000001
 78
     4
 79
     2
140
0.1200000047683716
146
0.7099999189376831
147
0.0599999986588955
176
   256
177
   256
178
     2
284
     4
340
DA
371
    -1
372
    -1
  0
DIMSTYLE
105
E3
330
A
100
AcDbSymbolTableRecord
100
AcDbDimStyleTableRecord
  2
AM_ANSI$7
 70
     0
  4
 mm
 40
2.0
 41
0.119999997317791
 42
0.05
 43
0.5
 44
0.1
 45
0.00000001
 78
     4
 79
     2
140
0.1200000047683716
146
0.7099999189376831
147
0.0599999986588955
176
   256
177
   256
178
     2
284
     4
340
DA
371
    -1
372
    -1
  0
DIMSTYLE
105
E4
330
A
100
AcDbSymbolTableRecord
100
AcDbDimStyleTableRecord
  2
AM_ANSI$0
 70
     0
  4
 mm
 40
2.0
 41
0.119999997317791
 42
0.05
 43
0.5
 44
0.1
 45
0.00000001
 78
     4
 79
     2
140
0.1200000047683716
146
0.7099999189376831
147
0.0599999986588955
176
   256
177
   256
178
     2
284
     4
340
DB
371
    -1
372
    -1
  0
DIMSTYLE
105
E5
330
A
100
AcDbSymbolTableRecord
100
AcDbDimStyleTableRecord
  2
AM_ANSI$0$7
 70
     0
  4
 mm
 40
2.0
 41
0.119999997317791
 42
0.05
 43
0.5
 44
0.1
 45
0.00000001
 78
     4
 79
     2
140
0.1200000047683716
146
0.7099999189376831
147
0.0599999986588955
176
   256
177
   256
178
     2
284
     4
340
DB
371
    -1
372
    -1
  0
DIMSTYLE
105
E6
330
A
100
AcDbSymbolTableRecord
100
AcDbDimStyleTableRecord
  2
AM_ANSI$3
 70
     0
  4
 mm
 40
2.0
 41
0.119999997317791
 42
0.05
 43
0.5
 44
0.1
 45
0.00000001
 78
     4
 79
     2
140
0.1200000047683716
146
0.7099999189376831
147
0.0599999986588955
176
   256
177
   256
178
     2
284
     4
340
DC
371
    -1
372
    -1
  0
DIMSTYLE
105
E7
330
A
100
AcDbSymbolTableRecord
100
AcDbDimStyleTableRecord
  2
AM_ANSI$3$7
 70
     0
  4
 mm
 40
2.0
 41
0.119999997317791
 42
0.05
 43
0.5
 44
0.1
 45
0.00000001
 78
     4
 79
     2
140
0.1200000047683716
146
0.7099999189376831
147
0.0599999986588955
176
   256
177
   256
178
     2
284
     4
340
DC
371
    -1
372
    -1
  0
DIMSTYLE
105
E8
330
A
100
AcDbSymbolTableRecord
100
AcDbDimStyleTableRecord
  2
AM_ANSI$4
 70
     0
  4
 mm
 40
2.0
 41
0.119999997317791
 42
0.05
 43
0.5
 44
0.1
 45
0.00000001
 78
     4
 79
     2
140
0.1200000047683716
146
0.7099999189376831
147
0.0599999986588955
176
   256
177
   256
178
     2
284
     4
340
DD
371
    -1
372
    -1
  0
DIMSTYLE
105
E9
330
A
100
AcDbSymbolTableRecord
100
AcDbDimStyleTableRecord
  2
AM_ANSI$4$7
 70
     0
  4
 mm
 40
2.0
 41
0.119999997317791
 42
0.05
 43
0.5
 44
0.1
 45
0.00000001
 78
     4
 79
     2
140
0.1200000047683716
146
0.7099999189376831
147
0.0599999986588955
176
   256
177
   256
178
     2
284
     4
340
DD
371
    -1
372
    -1
  0
DIMSTYLE
105
EA
330
A
100
AcDbSymbolTableRecord
100
AcDbDimStyleTableRecord
  2
AM_ANSI$SF
 70
     0
  4
 mm
 40
2.0
 41
0.119999997317791
 42
0.05
 43
0.5
 44
0.1
 45
0.00000001
 75
     1
 76
     1
 78
     4
 79
     2
140
0.1200000047683716
146
0.7099999189376831
147
0.0599999986588955
176
   256
177
   256
178
     2
284
     4
340
DF
371
    -1
372
    -1
  0
DIMSTYLE
105
EB
330
A
100
AcDbSymbolTableRecord
100
AcDbDimStyleTableRecord
  2
AM_ANSI$SF$7
 70
     0
  4
 mm
 40
2.0
 41
0.119999997317791
 42
0.05
 43
0.5
 44
0.1
 45
0.00000001
 75
     1
 76
     1
 78
     4
 79
     2
140
0.1200000047683716
146
0.7099999189376831
147
0.0599999986588955
176
   256
177
   256
178
     2
284
     4
340
DF
371
    -1
372
    -1
  0
DIMSTYLE
105
EC
330
A
100
AcDbSymbolTableRecord
100
AcDbDimStyleTableRecord
  2
AM_ANSI$SH
 70
     0
  4
 mm
 40
2.0
 41
0.119999997317791
 42
0.05
 43
0.5
 44
0.1
 45
0.00000001
 75
     1
 76
     1
 78
     4
 79
     2
140
0.1200000047683716
146
0.7099999189376831
147
0.0599999986588955
176
   256
177
   256
178
     2
284
     4
340
E0
371
    -1
372
    -1
  0
DIMSTYLE
105
ED
330
A
100
AcDbSymbolTableRecord
100
AcDbDimStyleTableRecord
  2
AM_ANSI$SH$7
 70
     0
  4
 mm
 40
2.0
 41
0.119999997317791
 42
0.05
 43
0.5
 44
0.1
 45
0.00000001
 75
     1
 76
     1
 78
     4
 79
     2
140
0.1200000047683716
146
0.7099999189376831
147
0.0599999986588955
176
   256
177
   256
178
     2
284
     4
340
E0
371
    -1
372
    -1
  0
DIMSTYLE
105
EE
330
A
100
AcDbSymbolTableRecord
100
AcDbDimStyleTableRecord
  2
Architectural (ANSI)
 70
     0
 40
2.0
 41
0.0984251946210861
 43
0.2362204724409449
 44
0.125
 45
0.00000001
 46
0.3937007874015748
 78
     3
 79
     3
140
0.1200000047683716
147
0.031496062992126
171
     1
176
   256
177
   256
178
   256
272
     2
274
     1
276
     2
277
     4
284
    12
285
     4
286
    12
340
D6
371
    -1
372
    -1
  0
DIMSTYLE
105
EF
330
A
100
AcDbSymbolTableRecord
100
AcDbDimStyleTableRecord
  2
Architectural (ANSI)$7
 70
     0
 40
2.0
 41
0.0984251946210861
 43
0.2362204724409449
 44
0.125
 45
0.00000001
 46
0.3937007874015748
 78
     3
 79
     3
140
0.1200000047683716
147
0.031496062992126
171
     1
176
   256
177
   256
178
   256
272
     2
274
     1
276
     2
277
     4
284
    12
285
     4
286
    12
340
D6
371
    -1
372
    -1
  0
DIMSTYLE
105
F0
330
A
100
AcDbSymbolTableRecord
100
AcDbDimStyleTableRecord
  2
Default - Fraction (ANSI)
 70
     0
 40
2.0
 41
0.0984251946210861
 43
0.2362204724409449
 44
0.125
 45
0.00000001
 46
0.3937007874015748
 79
     3
140
0.1200000047683716
147
0.031496062992126
171
     1
176
   256
177
   256
178
   256
272
     2
274
     1
276
     2
277
     5
284
    12
285
     4
286
    12
340
D6
371
    -1
372
    -1
  0
DIMSTYLE
105
F1
330
A
100
AcDbSymbolTableRecord
100
AcDbDimStyleTableRecord
  2
Default - Fraction (ANSI)$7
 70
     0
 40
2.0
 41
0.0984251946210861
 43
0.2362204724409449
 44
0.125
 45
0.00000001
 46
0.3937007874015748
 79
     3
140
0.1200000047683716
147
0.031496062992126
171
     1
176
   256
177
   256
178
   256
272
     2
274
     1
276
     2
277
     5
284
    12
285
     4
286
    12
340
D6
371
    -1
372
    -1
  0
DIMSTYLE
105
F2
330
A
100
AcDbSymbolTableRecord
100
AcDbDimStyleTableRecord
  2
Default - mm (ANSI)
 70
     0
 40
2.0
 41
0.0984251946210861
 42
0.063
 43
0.2362204724409449
 44
0.125
 45
0.00000001
 46
0.3937007874015748
 73
     0
 78
     4
 79
     1
140
0.1200000047683716
143
1.0
144
25.4
147
0.031496062992126
171
     1
176
   256
177
   256
178
   256
179
     1
271
     2
272
     2
274
     1
284
     4
285
     4
340
D6
371
    -1
372
    -1
  0
DIMSTYLE
105
F3
330
A
100
AcDbSymbolTableRecord
100
AcDbDimStyleTableRecord
  2
Default - mm (ANSI)$7
 70
     0
 40
2.0
 41
0.0984251946210861
 42
0.063
 43
0.2362204724409449
 44
0.125
 45
0.00000001
 46
0.3937007874015748
 73
     0
 78
     4
 79
     1
140
0.1200000047683716
143
1.0
144
25.4
147
0.031496062992126
171
     1
176
   256
177
   256
178
   256
179
     1
271
     2
272
     2
274
     1
284
     4
285
     4
340
D6
371
    -1
372
    -1
  0
DIMSTYLE
105
F4
330
A
100
AcDbSymbolTableRecord
100
AcDbDimStyleTableRecord
  2
Default - mm [in] (ANSI)
 70
     0
  4
 in
 40
2.0
 41
0.0984251946210861
 42
0.063
 43
0.25
 44
0.125
 45
0.00000001
 46
0.3937007874015748
 73
     0
 78
     4
 79
     1
140
0.1200000047683716
143
0.03937
144
25.4
147
0.031496062992126
170
     1
171
     3
176
   256
177
   256
178
   256
179
     1
271
     2
272
     2
274
     3
284
     4
285
     4
286
     4
340
D6
371
    -1
372
    -1
  0
DIMSTYLE
105
F5
330
A
100
AcDbSymbolTableRecord
100
AcDbDimStyleTableRecord
  2
Default - mm [in] (ANSI)$7
 70
     0
  4
 in
 40
2.0
 41
0.0984251946210861
 42
0.063
 43
0.25
 44
0.125
 45
0.00000001
 46
0.3937007874015748
 73
     0
 78
     4
 79
     1
140
0.1200000047683716
143
0.03937
144
25.4
147
0.031496062992126
170
     1
171
     3
176
   256
177
   256
178
   256
179
     1
271
     2
272
     2
274
     3
284
     4
285
     4
286
     4
340
D6
371
    -1
372
    -1
  0
DIMSTYLE
105
F6
102
{ACAD_REACTORS
330
16D
330
277
330
361
330
451
330
50C
330
5F6
330
6F4
102
}
330
A
100
AcDbSymbolTableRecord
100
AcDbDimStyleTableRecord
  2
Default (ANSI)
 70
     0
 40
2.0
 41
0.0984251946210861
 43
0.2362204724409449
 44
0.125
 45
0.00000001
 46
0.3937007874015748
 79
     1
140
0.1200000047683716
147
0.031496062992126
171
     1
176
   256
177
   256
178
   256
271
     2
272
     2
274
     1
284
     4
285
     4
340
D6
371
    -1
372
    -1
  0
DIMSTYLE
105
F7
330
A
100
AcDbSymbolTableRecord
100
AcDbDimStyleTableRecord
  2
Default (ANSI)$7
 70
     0
 40
2.0
 41
0.0984251946210861
 43
0.2362204724409449
 44
0.125
 45
0.00000001
 46
0.3937007874015748
 79
     1
140
0.1200000047683716
147
0.031496062992126
171
     1
176
   256
177
   256
178
   256
271
     2
272
     2
274
     1
284
     4
285
     4
340
D6
371
    -1
372
    -1
  0
DIMSTYLE
105
F8
330
A
100
AcDbSymbolTableRecord
100
AcDbDimStyleTableRecord
  2
Alternate (ANSI)
 70
     0
 40
2.0
 41
0.0979999974370003
340
55
342
F9
  0
DIMSTYLE
105
10B
330
A
100
AcDbSymbolTableRecord
100
AcDbDimStyleTableRecord
  2
Datum (ANSI)
 70
     0
 40
2.0
 41
0.0979999974370003
340
55
342
F9
  0
DIMSTYLE
105
11A
330
A
100
AcDbSymbolTableRecord
100
AcDbDimStyleTableRecord
  2
Large (ANSI)
 70
     0
 40
2.0
 41
0.1959999948740005
340
55
342
F9
  0
ENDTAB
  0
TABLE
  2
BLOCK_RECORD
  5
1
330
0
100
AcDbSymbolTable
 70
    11
  0
BLOCK_RECORD
  5
6C
330
1
100
AcDbSymbolTableRecord
100
AcDbBlockTableRecord
  2
*Model_Space
340
6F
  0
BLOCK_RECORD
  5
68
330
1
100
AcDbSymbolTableRecord
100
AcDbBlockTableRecord
  2
*Paper_Space
340
6B
  0
BLOCK_RECORD
  5
70
330
1
100
AcDbSymbolTableRecord
100
AcDbBlockTableRecord
  2
*Paper_Space0
340
73
  0
BLOCK_RECORD
  5
F9
330
1
100
AcDbSymbolTableRecord
100
AcDbBlockTableRecord
  2
_Closed
340
0
  0
BLOCK_RECORD
  5
100
330
1
100
AcDbSymbolTableRecord
100
AcDbBlockTableRecord
  2
DatumFilled45
340
0
  0
BLOCK_RECORD
  5
10C
330
1
100
AcDbSymbolTableRecord
100
AcDbBlockTableRecord
  2
Filled-1
340
0
  0
BLOCK_RECORD
  5
170
330
1
100
AcDbSymbolTableRecord
100
AcDbBlockTableRecord
  2
*D4
340
0
  0
BLOCK_RECORD
  5
278
330
1
100
AcDbSymbolTableRecord
100
AcDbBlockTableRecord
  2
*D5
340
0
  0
BLOCK_RECORD
  5
362
330
1
100
AcDbSymbolTableRecord
100
AcDbBlockTableRecord
  2
*D6
340
0
  0
BLOCK_RECORD
  5
452
330
1
100
AcDbSymbolTableRecord
100
AcDbBlockTableRecord
  2
*D7
340
0
  0
BLOCK_RECORD
  5
50D
330
1
100
AcDbSymbolTableRecord
100
AcDbBlockTableRecord
  2
*D8
340
0
  0
BLOCK_RECORD
  5
5F7
330
1
100
AcDbSymbolTableRecord
100
AcDbBlockTableRecord
  2
*D9
340
0
  0
BLOCK_RECORD
  5
6F5
330
1
100
AcDbSymbolTableRecord
100
AcDbBlockTableRecord
  2
*D10
340
0
  0
ENDTAB
  0
ENDSEC
  0
SECTION
  2
BLOCKS
  0
BLOCK
  5
6D
330
6C
100
AcDbEntity
  8
0
100
AcDbBlockBegin
  2
*Model_Space
 70
     0
 10
0.0
 20
0.0
 30
0.0
  3
*Model_Space
  1

  0
ENDBLK
  5
6E
330
6C
100
AcDbEntity
  8
0
100
AcDbBlockEnd
  0
BLOCK
  5
69
330
68
100
AcDbEntity
 67
     1
  8
0
100
AcDbBlockBegin
  2
*Paper_Space
 70
     0
 10
0.0
 20
0.0
 30
0.0
  3
*Paper_Space
  1

  0
ENDBLK
  5
6A
330
68
100
AcDbEntity
 67
     1
  8
0
100
AcDbBlockEnd
  0
BLOCK
  5
71
330
70
100
AcDbEntity
 67
     1
  8
0
100
AcDbBlockBegin
  2
*Paper_Space0
 70
     0
 10
0.0
 20
0.0
 30
0.0
  3
*Paper_Space0
  1

  0
ENDBLK
  5
72
330
70
100
AcDbEntity
 67
     1
  8
0
100
AcDbBlockEnd
  0
BLOCK
  5
FE
330
F9
100
AcDbEntity
  8
0
100
AcDbBlockBegin
  2
_Closed
 70
     0
 10
0.0
 20
0.0
 30
0.0
  3
_Closed
  1

  0
LINE
  5
FA
330
F9
100
AcDbEntity
  8
0
  6
ByBlock
 62
     0
370
    -2
100
AcDbLine
 10
-1.0
 20
0.1666666666666666
 30
0.0
 11
0.0
 21
0.0
 31
0.0
  0
LINE
  5
FB
330
F9
100
AcDbEntity
  8
0
  6
ByBlock
 62
     0
370
    -2
100
AcDbLine
 10
0.0
 20
0.0
 30
0.0
 11
-1.0
 21
-0.1666666666666666
 31
0.0
  0
LINE
  5
FC
330
F9
100
AcDbEntity
  8
0
  6
ByBlock
 62
     0
370
    -2
100
AcDbLine
 10
-1.0
 20
0.1666666666666666
 30
0.0
 11
-1.0
 21
-0.1666666666666666
 31
0.0
  0
LINE
  5
FD
330
F9
100
AcDbEntity
  8
0
  6
ByBlock
 62
     0
370
    -2
100
AcDbLine
 10
0.0
 20
0.0
 30
0.0
 11
-1.0
 21
0.0
 31
0.0
  0
ENDBLK
  5
FF
330
F9
100
AcDbEntity
  8
0
100
AcDbBlockEnd
  0
BLOCK
  5
101
330
100
100
AcDbEntity
  8
0
100
AcDbBlockBegin
  2
DatumFilled45
 70
     0
 10
0.0
 20
0.0
 30
0.0
  3
DatumFilled45
  1

  0
POLYLINE
  5
103
330
100
100
AcDbEntity
  8
0
 62
     0
100
AcDb2dPolyline
 66
     1
 10
0.0
 20
0.0
 30
0.0
 70
   128
  0
VERTEX
  5
104
330
103
100
AcDbEntity
  8
0
 62
     0
100
AcDbVertex
100
AcDb2dVertex
 10
0.0
 20
0.9999999999999998
 30
0.0
  0
VERTEX
  5
105
330
103
100
AcDbEntity
  8
0
 62
     0
100
AcDbVertex
100
AcDb2dVertex
 10
0.0
 20
-0.9999999999999998
 30
0.0
  0
VERTEX
  5
107
330
103
100
AcDbEntity
  8
0
 62
     0
100
AcDbVertex
100
AcDb2dVertex
 10
-0.9999999999999998
 20
0.0
 30
0.0
  0
VERTEX
  5
108
330
103
100
AcDbEntity
  8
0
 62
     0
100
AcDbVertex
100
AcDb2dVertex
 10
0.0
 20
0.9999999999999998
 30
0.0
  0
SEQEND
  5
106
330
103
100
AcDbEntity
  8
0
 62
     0
  0
SOLID
  5
10A
330
100
100
AcDbEntity
  8
0
 62
     0
100
AcDbTrace
 10
0.0
 20
0.9999999999999998
 30
0.0
 11
0.0
 21
-0.9999999999999998
 31
0.0
 12
-0.9999999999999998
 22
0.0
 32
0.0
 13
0.0
 23
0.9999999999999998
 33
0.0
  0
ENDBLK
  5
102
330
100
100
AcDbEntity
  8
0
100
AcDbBlockEnd
  0
BLOCK
  5
10D
330
10C
100
AcDbEntity
  8
0
100
AcDbBlockBegin
  2
Filled-1
 70
     0
 10
0.0
 20
0.0
 30
0.0
  3
Filled-1
  1

  0
LINE
  5
10F
330
10C
100
AcDbEntity
  8
0
 62
     0
100
AcDbLine
 10
-0.9999999999999998
 20
0.0
 30
0.0
 11
0.0
 21
0.0
 31
0.0
  0
POLYLINE
  5
110
330
10C
100
AcDbEntity
  8
0
 62
     0
100
AcDb2dPolyline
 66
     1
 10
0.0
 20
0.0
 30
0.0
 70
   128
  0
VERTEX
  5
111
330
110
100
AcDbEntity
  8
0
 62
     0
100
AcDbVertex
100
AcDb2dVertex
 10
-0.9999999999999998
 20
-0.0994897959183674
 30
0.0
  0
VERTEX
  5
112
330
110
100
AcDbEntity
  8
0
 62
     0
100
AcDbVertex
100
AcDb2dVertex
 10
0.0
 20
0.0
 30
0.0
  0
VERTEX
  5
114
330
110
100
AcDbEntity
  8
0
 62
     0
100
AcDbVertex
100
AcDb2dVertex
 10
-0.9999999999999998
 20
0.0994897959183674
 30
0.0
  0
VERTEX
  5
115
330
110
100
AcDbEntity
  8
0
 62
     0
100
AcDbVertex
100
AcDb2dVertex
 10
-0.9999999999999998
 20
-0.0994897959183674
 30
0.0
  0
SEQEND
  5
113
330
110
100
AcDbEntity
  8
0
 62
     0
  0
SOLID
  5
116
330
10C
100
AcDbEntity
  8
0
 62
     0
100
AcDbTrace
 10
-0.9999999999999998
 20
-0.0994897959183674
 30
0.0
 11
0.0
 21
0.0
 31
0.0
 12
-0.9999999999999998
 22
0.0994897959183674
 32
0.0
 13
-0.9999999999999998
 23
-0.0994897959183674
 33
0.0
  0
LINE
  5
117
330
10C
100
AcDbEntity
  8
0
 62
     0
100
AcDbLine
 10
-0.9999999999999998
 20
-0.0994897959183674
 30
0.0
 11
0.0
 21
0.0
 31
0.0
  0
LINE
  5
118
330
10C
100
AcDbEntity
  8
0
 62
     0
100
AcDbLine
 10
0.0
 20
0.0
 30
0.0
 11
-0.9999999999999998
 21
0.0994897959183674
 31
0.0
  0
LINE
  5
119
330
10C
100
AcDbEntity
  8
0
 62
     0
100
AcDbLine
 10
-0.9999999999999998
 20
0.0994897959183674
 30
0.0
 11
-0.9999999999999998
 21
-0.0994897959183674
 31
0.0
  0
ENDBLK
  5
10E
330
10C
100
AcDbEntity
  8
0
100
AcDbBlockEnd
  0
BLOCK
  5
171
330
170
100
AcDbEntity
  8
0
100
AcDbBlockBegin
  2
*D4
 70
     1
 10
0.0
 20
0.0
 30
0.0
  3
*D4
  1

  0
LINE
  5
26D
330
170
100
AcDbEntity
  8
Dimension (ANSI)
440
 16777216
100
AcDbLine
 10
21.86570940108539
 20
17.10177953698613
 30
0.0
 11
21.86570940108539
 21
17.74443797796079
 31
0.0
  0
LINE
  5
26E
330
170
100
AcDbEntity
  8
Dimension (ANSI)
440
 16777216
100
AcDbLine
 10
21.93970940108539
 20
17.10177953698613
 30
0.0
 11
21.93970940108539
 21
17.74443797796079
 31
0.0
  0
LINE
  5
26F
330
170
100
AcDbEntity
  8
Dimension (ANSI)
440
 16777216
100
AcDbLine
 10
22.13655979032756
 20
17.49443797796079
 30
0.0
 11
22.33341017956973
 21
17.49443797796079
 31
0.0
  0
LINE
  5
270
330
170
100
AcDbEntity
  8
Dimension (ANSI)
440
 16777216
100
AcDbLine
 10
21.66885901184322
 20
17.49443797796079
 30
0.0
 11
21.41885412641423
 21
17.49443797796079
 31
0.0
  0
SOLID
  5
271
330
170
100
AcDbEntity
  8
Dimension (ANSI)
440
 16777216
100
AcDbTrace
 10
22.13655979032756
 20
17.52724637616782
 30
0.0
 11
22.13655979032756
 21
17.46162957975377
 31
0.0
 12
21.93970940108539
 22
17.49443797796079
 32
0.0
 13
21.93970940108539
 23
17.49443797796079
 33
0.0
  0
SOLID
  5
272
330
170
100
AcDbEntity
  8
Dimension (ANSI)
440
 16777216
100
AcDbTrace
 10
21.66885901184322
 20
17.52724637616782
 30
0.0
 11
21.66885901184322
 21
17.46162957975377
 31
0.0
 12
21.86570940108539
 22
17.49443797796079
 32
0.0
 13
21.86570940108539
 23
17.49443797796079
 33
0.0
  0
MTEXT
  5
273
330
170
100
AcDbEntity
  8
Dimension (ANSI)
440
 16777216
100
AcDbMText
 10
20.44228238641711
 20
17.49443797796079
 30
0.0
 40
0.2400000095367432
 41
0.0
 71
     5
 72
     1
  1
\A1;{14 GA. C.R.S\P}(0.074)
  7
Note Text (ANSI)
 73
     1
 44
1.0
  0
POINT
  5
274
330
170
100
AcDbEntity
  8
Defpoints
 62
     0
440
 16777216
100
AcDbPoint
 10
21.86570940108539
 20
16.97677953698613
 30
0.0
  0
POINT
  5
275
330
170
100
AcDbEntity
  8
Defpoints
 62
     0
440
 16777216
100
AcDbPoint
 10
21.93970940108539
 20
16.97677953698613
 30
0.0
  0
POINT
  5
276
330
170
100
AcDbEntity
  8
Defpoints
 62
     0
440
 16777216
100
AcDbPoint
 10
21.93970940108539
 20
17.49443797796079
 30
0.0
  0
ENDBLK
  5
172
330
170
100
AcDbEntity
  8
0
100
AcDbBlockEnd
  0
BLOCK
  5
279
330
278
100
AcDbEntity
  8
0
100
AcDbBlockBegin
  2
*D5
 70
     1
 10
0.0
 20
0.0
 30
0.0
  3
*D5
  1

  0
LINE
  5
357
330
278
100
AcDbEntity
  8
Dimension (ANSI)
440
 16777216
100
AcDbLine
 10
6.338906346560629
 20
6.726779536986133
 30
0.0
 11
5.166591420334683
 21
6.726779536986134
 31
0.0
  0
LINE
  5
358
330
278
100
AcDbEntity
  8
Dimension (ANSI)
440
 16777216
100
AcDbLine
 10
6.338906346560627
 20
16.97677953698613
 30
0.0
 11
5.166591420334685
 21
16.97677953698613
 31
0.0
  0
LINE
  5
359
330
278
100
AcDbEntity
  8
Dimension (ANSI)
440
 16777216
100
AcDbLine
 10
5.416591420334683
 20
6.923629926228306
 30
0.0
 11
5.416591420334684
 21
11.66379076480093
 31
0.0
  0
LINE
  5
35A
330
278
100
AcDbEntity
  8
Dimension (ANSI)
440
 16777216
100
AcDbLine
 10
5.416591420334685
 20
16.77992914774396
 30
0.0
 11
5.416591420334684
 21
12.03976830917133
 31
0.0
  0
SOLID
  5
35B
330
278
100
AcDbEntity
  8
Dimension (ANSI)
440
 16777216
100
AcDbTrace
 10
5.383783022127655
 20
6.923629926228306
 30
0.0
 11
5.449399818541712
 21
6.923629926228306
 31
0.0
 12
5.416591420334683
 22
6.726779536986134
 32
0.0
 13
5.416591420334683
 23
6.726779536986134
 33
0.0
  0
SOLID
  5
35C
330
278
100
AcDbEntity
  8
Dimension (ANSI)
440
 16777216
100
AcDbTrace
 10
5.383783022127657
 20
16.77992914774396
 30
0.0
 11
5.449399818541714
 21
16.77992914774396
 31
0.0
 12
5.416591420334685
 22
16.97677953698613
 32
0.0
 13
5.416591420334685
 23
16.97677953698613
 33
0.0
  0
MTEXT
  5
35D
330
278
100
AcDbEntity
  8
Dimension (ANSI)
440
 16777216
100
AcDbMText
 10
5.033058835376386
 20
11.97677618318708
 30
0.0
 40
0.2400000095367432
 41
0.0
 71
     1
 72
     1
  1
\A1;10.25
  7
Note Text (ANSI)
 73
     1
 44
1.0
  0
POINT
  5
35E
330
278
100
AcDbEntity
  8
Defpoints
 62
     0
440
 16777216
100
AcDbPoint
 10
6.463906346560629
 20
6.726779536986133
 30
0.0
  0
POINT
  5
35F
330
278
100
AcDbEntity
  8
Defpoints
 62
     0
440
 16777216
100
AcDbPoint
 10
6.463906346560627
 20
16.97677953698613
 30
0.0
  0
POINT
  5
360
330
278
100
AcDbEntity
  8
Defpoints
 62
     0
440
 16777216
100
AcDbPoint
 10
5.416591420334685
 20
16.97677953698613
 30
0.0
  0
ENDBLK
  5
27A
330
278
100
AcDbEntity
  8
0
100
AcDbBlockEnd
  0
BLOCK
  5
363
330
362
100
AcDbEntity
  8
0
100
AcDbBlockBegin
  2
*D6
 70
     1
 10
0.0
 20
0.0
 30
0.0
  3
*D6
  1

  0
LINE
  5
441
330
362
100
AcDbEntity
  8
Dimension (ANSI)
440
 16777216
100
AcDbLine
 10
6.463906346560627
 20
17.10177953698613
 30
0.0
 11
6.463906346560627
 21
18.23681812984132
 31
0.0
  0
LINE
  5
442
330
362
100
AcDbEntity
  8
Dimension (ANSI)
440
 16777216
100
AcDbLine
 10
16.71390634656062
 20
17.10177953698613
 30
0.0
 11
16.71390634656062
 21
18.23681812984132
 31
0.0
  0
LINE
  5
443
330
362
100
AcDbEntity
  8
Dimension (ANSI)
440
 16777216
100
AcDbLine
 10
6.660756735802799
 20
17.98681812984132
 30
0.0
 11
11.14238163561808
 21
17.98681812984132
 31
0.0
  0
LINE
  5
444
330
362
100
AcDbEntity
  8
Dimension (ANSI)
440
 16777216
100
AcDbLine
 10
16.51705595731845
 20
17.98681812984132
 30
0.0
 11
12.03543105750317
 21
17.98681812984132
 31
0.0
  0
SOLID
  5
445
330
362
100
AcDbEntity
  8
Dimension (ANSI)
440
 16777216
100
AcDbTrace
 10
6.660756735802799
 20
18.01962652804835
 30
0.0
 11
6.660756735802799
 21
17.95400973163429
 31
0.0
 12
6.463906346560627
 22
17.98681812984132
 32
0.0
 13
6.463906346560627
 23
17.98681812984132
 33
0.0
  0
SOLID
  5
446
330
362
100
AcDbEntity
  8
Dimension (ANSI)
440
 16777216
100
AcDbTrace
 10
16.51705595731845
 20
18.01962652804835
 30
0.0
 11
16.51705595731845
 21
17.95400973163429
 31
0.0
 12
16.71390634656062
 22
17.98681812984132
 32
0.0
 13
16.71390634656062
 23
17.98681812984132
 33
0.0
  0
MTEXT
  5
447
330
362
100
AcDbEntity
  8
Dimension (ANSI)
440
 16777216
100
AcDbMText
 10
11.20537376160233
 20
18.11181477604227
 30
0.0
 40
0.2400000095367432
 41
0.0
 71
     1
 72
     1
  1
\A1;10.25
  7
Note Text (ANSI)
 73
     1
 44
1.0
  0
POINT
  5
448
330
362
100
AcDbEntity
  8
Defpoints
 62
     0
440
 16777216
100
AcDbPoint
 10
6.463906346560627
 20
16.97677953698613
 30
0.0
  0
POINT
  5
449
330
362
100
AcDbEntity
  8
Defpoints
 62
     0
440
 16777216
100
AcDbPoint
 10
16.71390634656062
 20
16.97677953698613
 30
0.0
  0
POINT
  5
44A
330
362
100
AcDbEntity
  8
Defpoints
 62
     0
440
 16777216
100
AcDbPoint
 10
16.71390634656062
 20
17.98681812984132
 30
0.0
  0
ENDBLK
  5
364
330
362
100
AcDbEntity
  8
0
100
AcDbBlockEnd
  0
BLOCK
  5
453
330
452
100
AcDbEntity
  8
0
100
AcDbBlockBegin
  2
*D7
 70
     1
 10
0.0
 20
0.0
 30
0.0
  3
*D7
  1

  0
LINE
  5
504
330
452
100
AcDbEntity
  8
Dimension (ANSI)
440
 16777216
100
AcDbLine
 10
9.906274852170156
 20
5.952890108637064
 30
0.0
 11
9.659454058671189
 21
5.952890108637064
 31
0.0
  0
LINE
  5
505
330
452
100
AcDbEntity
  8
Dimension (ANSI)
440
 16777216
100
AcDbLine
 10
9.659454058671189
 20
5.952890108637064
 30
0.0
 11
8.055636959862281
 21
6.878854342365075
 31
0.0
  0
MTEXT
  5
506
102
{ACAD_XDICTIONARY
360
84A
102
}
330
452
100
AcDbEntity
  8
Dimension (ANSI)
440
 16777216
100
AcDbMText
 10
11.07279958707098
 20
5.952890108637064
 30
0.0
 40
0.2400000095367432
 41
0.0
 71
     5
 72
     1
  1
\A1;\U+22050.250{\PGROUND HOLE}
  7
Note Text (ANSI)
 73
     1
 44
1.0
  0
SOLID
  5
507
330
452
100
AcDbEntity
  8
Dimension (ANSI)
440
 16777216
100
AcDbTrace
 10
8.072041158965793
 20
6.907267248669841
 30
0.0
 11
8.039232760758771
 21
6.850441436060311
 31
0.0
 12
7.885159522033694
 22
6.977279536986142
 32
0.0
 13
7.885159522033694
 23
6.977279536986142
 33
0.0
  0
LINE
  5
508
330
452
100
AcDbEntity
  8
Dimension (ANSI)
440
 16777216
100
AcDbLine
 10
7.596906346560634
 20
7.039779536986131
 30
0.0
 11
7.956906346560632
 21
7.039779536986129
 31
0.0
  0
LINE
  5
509
330
452
100
AcDbEntity
  8
Dimension (ANSI)
440
 16777216
100
AcDbLine
 10
7.776906346560632
 20
6.85977953698613
 30
0.0
 11
7.776906346560632
 21
7.219779536986129
 31
0.0
  0
POINT
  5
50A
330
452
100
AcDbEntity
  8
Defpoints
 62
     0
440
 16777216
100
AcDbPoint
 10
7.885159522033694
 20
6.977279536986142
 30
0.0
  0
POINT
  5
50B
330
452
100
AcDbEntity
  8
Defpoints
 62
     0
440
 16777216
100
AcDbPoint
 10
7.668653171087571
 20
7.102279536986118
 30
0.0
  0
ENDBLK
  5
454
330
452
100
AcDbEntity
  8
0
100
AcDbBlockEnd
  0
BLOCK
  5
50E
330
50D
100
AcDbEntity
  8
0
100
AcDbBlockBegin
  2
*D8
 70
     1
 10
0.0
 20
0.0
 30
0.0
  3
*D8
  1

  0
LINE
  5
5EC
330
50D
100
AcDbEntity
  8
Dimension (ANSI)
440
 16777216
100
AcDbLine
 10
7.776906346560629
 20
6.539779536986132
 30
0.0
 11
7.776906346560629
 21
5.510744103915266
 31
0.0
  0
LINE
  5
5ED
330
50D
100
AcDbEntity
  8
Dimension (ANSI)
440
 16777216
100
AcDbLine
 10
6.77690634656063
 20
6.66477953698613
 30
0.0
 11
6.77690634656063
 21
5.510744103915266
 31
0.0
  0
LINE
  5
5EE
330
50D
100
AcDbEntity
  8
Dimension (ANSI)
440
 16777216
100
AcDbLine
 10
6.973756735802802
 20
5.760744103915266
 30
0.0
 11
7.580055957318457
 21
5.760744103915266
 31
0.0
  0
LINE
  5
5EF
330
50D
100
AcDbEntity
  8
Dimension (ANSI)
440
 16777216
100
AcDbLine
 10
7.776906346560629
 20
5.760744103915266
 30
0.0
 11
8.132691249868615
 21
5.760744103915266
 31
0.0
  0
SOLID
  5
5F0
330
50D
100
AcDbEntity
  8
Dimension (ANSI)
440
 16777216
100
AcDbTrace
 10
6.973756735802802
 20
5.793552502122294
 30
0.0
 11
6.973756735802802
 21
5.727935705708238
 31
0.0
 12
6.77690634656063
 22
5.760744103915266
 32
0.0
 13
6.77690634656063
 23
5.760744103915266
 33
0.0
  0
SOLID
  5
5F1
330
50D
100
AcDbEntity
  8
Dimension (ANSI)
440
 16777216
100
AcDbTrace
 10
7.580055957318457
 20
5.793552502122294
 30
0.0
 11
7.580055957318457
 21
5.727935705708238
 31
0.0
 12
7.776906346560629
 22
5.760744103915266
 32
0.0
 13
7.776906346560629
 23
5.760744103915266
 33
0.0
  0
MTEXT
  5
5F2
330
50D
100
AcDbEntity
  8
Dimension (ANSI)
440
 16777216
100
AcDbMText
 10
8.195683375852867
 20
5.885660159112862
 30
0.0
 40
0.2400000095367432
 41
0.0
 71
     1
 72
     1
  1
\A1;1.000
  7
Note Text (ANSI)
 73
     1
 44
1.0
  0
POINT
  5
5F3
330
50D
100
AcDbEntity
  8
Defpoints
 62
     0
440
 16777216
100
AcDbPoint
 10
7.776906346560629
 20
6.664779536986132
 30
0.0
  0
POINT
  5
5F4
330
50D
100
AcDbEntity
  8
Defpoints
 62
     0
440
 16777216
100
AcDbPoint
 10
6.77690634656063
 20
6.78977953698613
 30
0.0
  0
POINT
  5
5F5
330
50D
100
AcDbEntity
  8
Defpoints
 62
     0
440
 16777216
100
AcDbPoint
 10
6.77690634656063
 20
5.760744103915266
 30
0.0
  0
ENDBLK
  5
50F
330
50D
100
AcDbEntity
  8
0
100
AcDbBlockEnd
  0
BLOCK
  5
5F8
330
5F7
100
AcDbEntity
  8
0
100
AcDbBlockBegin
  2
*D9
 70
     1
 10
0.0
 20
0.0
 30
0.0
  3
*D9
  1

  0
LINE
  5
6EA
330
5F7
100
AcDbEntity
  8
Dimension (ANSI)
440
 16777216
100
AcDbLine
 10
16.40090634656063
 20
6.664779536986131
 30
0.0
 11
16.40090634656063
 21
5.365552093059108
 31
0.0
  0
LINE
  5
6EB
330
5F7
100
AcDbEntity
  8
Dimension (ANSI)
440
 16777216
100
AcDbLine
 10
16.71390634656063
 20
6.601779536986133
 30
0.0
 11
16.71390634656063
 21
5.365552093059108
 31
0.0
  0
LINE
  5
6EC
330
5F7
100
AcDbEntity
  8
Dimension (ANSI)
440
 16777216
100
AcDbLine
 10
16.20405595731846
 20
5.615552093059108
 30
0.0
 11
16.00720556807629
 21
5.615552093059108
 31
0.0
  0
LINE
  5
6ED
330
5F7
100
AcDbEntity
  8
Dimension (ANSI)
440
 16777216
100
AcDbLine
 10
16.9107567358028
 20
5.615552093059108
 30
0.0
 11
17.1955839110663
 21
5.615552093059108
 31
0.0
  0
SOLID
  5
6EE
330
5F7
100
AcDbEntity
  8
Dimension (ANSI)
440
 16777216
100
AcDbTrace
 10
16.20405595731846
 20
5.648360491266136
 30
0.0
 11
16.20405595731846
 21
5.582743694852079
 31
0.0
 12
16.40090634656063
 22
5.615552093059108
 32
0.0
 13
16.40090634656063
 23
5.615552093059108
 33
0.0
  0
SOLID
  5
6EF
330
5F7
100
AcDbEntity
  8
Dimension (ANSI)
440
 16777216
100
AcDbTrace
 10
16.9107567358028
 20
5.648360491266136
 30
0.0
 11
16.9107567358028
 21
5.582743694852079
 31
0.0
 12
16.71390634656063
 22
5.615552093059108
 32
0.0
 13
16.71390634656063
 23
5.615552093059108
 33
0.0
  0
MTEXT
  5
6F0
330
5F7
100
AcDbEntity
  8
Dimension (ANSI)
440
 16777216
100
AcDbMText
 10
17.65290781645819
 20
5.615552093059108
 30
0.0
 40
0.2400000095367432
 41
0.0
 71
     5
 72
     1
  1
\A1;0.313{\PTYP.}
  7
Note Text (ANSI)
 73
     1
 44
1.0
  0
POINT
  5
6F1
330
5F7
100
AcDbEntity
  8
Defpoints
 62
     0
440
 16777216
100
AcDbPoint
 10
16.40090634656063
 20
6.789779536986131
 30
0.0
  0
POINT
  5
6F2
330
5F7
100
AcDbEntity
  8
Defpoints
 62
     0
440
 16777216
100
AcDbPoint
 10
16.71390634656063
 20
6.726779536986133
 30
0.0
  0
POINT
  5
6F3
330
5F7
100
AcDbEntity
  8
Defpoints
 62
     0
440
 16777216
100
AcDbPoint
 10
16.71390634656063
 20
5.615552093059108
 30
0.0
  0
ENDBLK
  5
5F9
330
5F7
100
AcDbEntity
  8
0
100
AcDbBlockEnd
  0
BLOCK
  5
6F6
330
6F5
100
AcDbEntity
  8
0
100
AcDbBlockBegin
  2
*D10
 70
     1
 10
0.0
 20
0.0
 30
0.0
  3
*D10
  1

  0
LINE
  5
7F9
330
6F5
100
AcDbEntity
  8
Dimension (ANSI)
440
 16777216
100
AcDbLine
 10
16.93190634656063
 20
7.039779536986132
 30
0.0
 11
17.19013362672972
 21
7.039779536986132
 31
0.0
  0
LINE
  5
7FA
330
6F5
100
AcDbEntity
  8
Dimension (ANSI)
440
 16777216
100
AcDbLine
 10
16.83890634656063
 20
6.726779536986133
 30
0.0
 11
17.19013362672972
 21
6.726779536986133
 31
0.0
  0
LINE
  5
7FB
330
6F5
100
AcDbEntity
  8
Dimension (ANSI)
440
 16777216
100
AcDbLine
 10
16.94013362672972
 20
6.529929147743961
 30
0.0
 11
16.94013362672972
 21
6.333078758501788
 31
0.0
  0
LINE
  5
7FC
330
6F5
100
AcDbEntity
  8
Dimension (ANSI)
440
 16777216
100
AcDbLine
 10
16.94013362672972
 20
7.236629926228304
 30
0.0
 11
16.94013362672972
 21
7.883191403627608
 31
0.0
  0
LINE
  5
7FD
330
6F5
100
AcDbEntity
  8
Dimension (ANSI)
440
 16777216
100
AcDbLine
 10
16.94013362672972
 20
7.883191403627608
 30
0.0
 11
17.13698401597189
 21
7.883191403627608
 31
0.0
  0
SOLID
  5
7FE
330
6F5
100
AcDbEntity
  8
Dimension (ANSI)
440
 16777216
100
AcDbTrace
 10
16.90732522852269
 20
6.529929147743961
 30
0.0
 11
16.97294202493675
 21
6.529929147743961
 31
0.0
 12
16.94013362672972
 22
6.726779536986133
 32
0.0
 13
16.94013362672972
 23
6.726779536986133
 33
0.0
  0
SOLID
  5
7FF
330
6F5
100
AcDbEntity
  8
Dimension (ANSI)
440
 16777216
100
AcDbTrace
 10
16.90732522852269
 20
7.236629926228304
 30
0.0
 11
16.97294202493675
 21
7.236629926228304
 31
0.0
 12
16.94013362672972
 22
7.039779536986132
 32
0.0
 13
16.94013362672972
 23
7.039779536986132
 33
0.0
  0
MTEXT
  5
800
330
6F5
100
AcDbEntity
  8
Dimension (ANSI)
440
 16777216
100
AcDbMText
 10
17.59430792136378
 20
7.883191403627611
 30
0.0
 40
0.2400000095367432
 41
0.0
 71
     5
 72
     1
  1
\A1;0.313{\PTYP.}
  7
Note Text (ANSI)
 73
     1
 44
1.0
  0
POINT
  5
801
330
6F5
100
AcDbEntity
  8
Defpoints
 62
     0
440
 16777216
100
AcDbPoint
 10
16.80690634656063
 20
7.039779536986132
 30
0.0
  0
POINT
  5
802
330
6F5
100
AcDbEntity
  8
Defpoints
 62
     0
440
 16777216
100
AcDbPoint
 10
16.71390634656063
 20
6.726779536986133
 30
0.0
  0
POINT
  5
803
330
6F5
100
AcDbEntity
  8
Defpoints
 62
     0
440
 16777216
100
AcDbPoint
 10
16.94013362672972
 20
6.726779536986133
 30
0.0
  0
ENDBLK
  5
6F7
330
6F5
100
AcDbEntity
  8
0
100
AcDbBlockEnd
  0
ENDSEC
  0
SECTION
  2
ENTITIES
  0
CIRCLE
  5
11B
330
6C
100
AcDbEntity
  8
Visible (ANSI)
100
AcDbCircle
 10
7.776906346560629
 20
7.039779536986132
 30
0.0
 40
0.125
  0
LINE
  5
11C
330
6C
100
AcDbEntity
  8
Visible (ANSI)
100
AcDbLine
 10
16.43190634656063
 20
6.914779536986131
 30
0.0
 11
16.36990634656063
 21
6.914779536986131
 31
0.0
  0
ARC
  5
11D
330
6C
100
AcDbEntity
  8
Visible (ANSI)
100
AcDbCircle
 10
16.43190634656063
 20
7.039779536986132
 30
0.0
 40
0.125
100
AcDbArc
 50
270.0
 51
90.0
  0
LINE
  5
11E
330
6C
100
AcDbEntity
  8
Visible (ANSI)
100
AcDbLine
 10
16.36990634656063
 20
7.164779536986132
 30
0.0
 11
16.43190634656063
 21
7.164779536986132
 31
0.0
  0
ARC
  5
11F
330
6C
100
AcDbEntity
  8
Visible (ANSI)
100
AcDbCircle
 10
16.36990634656063
 20
7.039779536986132
 30
0.0
 40
0.125
100
AcDbArc
 50
90.00000000000127
 51
270.0000000000013
  0
LINE
  5
120
330
6C
100
AcDbEntity
  8
Visible (ANSI)
100
AcDbLine
 10
6.807906346560629
 20
6.914779536986129
 30
0.0
 11
6.74590634656063
 21
6.914779536986129
 31
0.0
  0
ARC
  5
121
330
6C
100
AcDbEntity
  8
Visible (ANSI)
100
AcDbCircle
 10
6.807906346560629
 20
7.03977953698613
 30
0.0
 40
0.125
100
AcDbArc
 50
270.0
 51
90.0
  0
LINE
  5
122
330
6C
100
AcDbEntity
  8
Visible (ANSI)
100
AcDbLine
 10
6.74590634656063
 20
7.16477953698613
 30
0.0
 11
6.807906346560629
 21
7.16477953698613
 31
0.0
  0
ARC
  5
123
330
6C
100
AcDbEntity
  8
Visible (ANSI)
100
AcDbCircle
 10
6.74590634656063
 20
7.03977953698613
 30
0.0
 40
0.125
100
AcDbArc
 50
90.0
 51
270.0
  0
LINE
  5
124
330
6C
100
AcDbEntity
  8
Visible (ANSI)
100
AcDbLine
 10
16.43190634656062
 20
16.53877953698613
 30
0.0
 11
16.36990634656062
 21
16.53877953698613
 31
0.0
  0
ARC
  5
125
330
6C
100
AcDbEntity
  8
Visible (ANSI)
100
AcDbCircle
 10
16.43190634656062
 20
16.66377953698613
 30
0.0
 40
0.1249999999999996
100
AcDbArc
 50
270.0
 51
90.0
  0
LINE
  5
126
330
6C
100
AcDbEntity
  8
Visible (ANSI)
100
AcDbLine
 10
16.36990634656062
 20
16.78877953698613
 30
0.0
 11
16.43190634656062
 21
16.78877953698613
 31
0.0
  0
ARC
  5
127
330
6C
100
AcDbEntity
  8
Visible (ANSI)
100
AcDbCircle
 10
16.36990634656063
 20
16.66377953698613
 30
0.0
 40
0.1249999999999996
100
AcDbArc
 50
90.0
 51
270.0
  0
LINE
  5
128
330
6C
100
AcDbEntity
  8
Visible (ANSI)
100
AcDbLine
 10
6.807906346560627
 20
16.53877953698613
 30
0.0
 11
6.745906346560626
 21
16.53877953698613
 31
0.0
  0
ARC
  5
129
330
6C
100
AcDbEntity
  8
Visible (ANSI)
100
AcDbCircle
 10
6.807906346560627
 20
16.66377953698613
 30
0.0
 40
0.1249999999999996
100
AcDbArc
 50
270.0000000000006
 51
90.00000000000062
  0
LINE
  5
12A
330
6C
100
AcDbEntity
  8
Visible (ANSI)
100
AcDbLine
 10
6.745906346560626
 20
16.78877953698613
 30
0.0
 11
6.807906346560627
 21
16.78877953698613
 31
0.0
  0
ARC
  5
12B
330
6C
100
AcDbEntity
  8
Visible (ANSI)
100
AcDbCircle
 10
6.745906346560626
 20
16.66377953698613
 30
0.0
 40
0.1249999999999996
100
AcDbArc
 50
90.00000000000062
 51
270.0000000000006
  0
LINE
  5
12C
330
6C
100
AcDbEntity
  8
Visible (ANSI)
100
AcDbLine
 10
6.463906346560629
 20
6.726779536986133
 30
0.0
 11
6.463906346560627
 21
16.97677953698613
 31
0.0
  0
LINE
  5
12D
330
6C
100
AcDbEntity
  8
Visible (ANSI)
100
AcDbLine
 10
6.463906346560627
 20
16.97677953698613
 30
0.0
 11
16.71390634656062
 21
16.97677953698613
 31
0.0
  0
LINE
  5
12E
330
6C
100
AcDbEntity
  8
Visible (ANSI)
100
AcDbLine
 10
16.71390634656062
 20
16.97677953698613
 30
0.0
 11
16.71390634656063
 21
6.726779536986133
 31
0.0
  0
LINE
  5
12F
330
6C
100
AcDbEntity
  8
Visible (ANSI)
100
AcDbLine
 10
16.71390634656063
 20
6.726779536986133
 30
0.0
 11
6.463906346560629
 21
6.726779536986133
 31
0.0
  0
MTEXT
  5
131
330
6C
100
AcDbEntity
  8
Symbol (ANSI)
100
AcDbMText
 10
10.5745959613965
 20
4.567491473912915
 30
0.0
 40
0.2400000029661524
 41
0.0
 71
     7
 72
     1
  1
FRONT VIEW
  7
Text Style166
 73
     1
 44
1.0
  0
LINE
  5
133
330
6C
100
AcDbEntity
  8
Symbol (ANSI)
370
    30
100
AcDbLine
 10
10.55059589965973
 20
4.518548199163135
 30
0.0
 11
12.48012590823109
 21
4.518548199163135
 31
0.0
  0
LINE
  5
134
330
6C
100
AcDbEntity
  8
Hidden (ANSI)
 48
0.0703737735748291
100
AcDbLine
 10
21.86570940108531
 20
6.914779536986129
 30
0.0
 11
21.93970940108531
 21
6.914779536986129
 31
0.0
  0
LINE
  5
135
330
6C
100
AcDbEntity
  8
Hidden (ANSI)
 48
0.0703737735748291
100
AcDbLine
 10
21.86570940108531
 20
7.16477953698613
 30
0.0
 11
21.93970940108531
 21
7.16477953698613
 31
0.0
  0
LINE
  5
136
330
6C
100
AcDbEntity
  8
Hidden (ANSI)
 48
0.0703737735748291
100
AcDbLine
 10
21.86570940108531
 20
16.53877953698613
 30
0.0
 11
21.93970940108531
 21
16.53877953698613
 31
0.0
  0
LINE
  5
137
330
6C
100
AcDbEntity
  8
Hidden (ANSI)
 48
0.0703737735748291
100
AcDbLine
 10
21.86570940108531
 20
16.78877953698613
 30
0.0
 11
21.93970940108531
 21
16.78877953698613
 31
0.0
  0
LINE
  5
138
330
6C
100
AcDbEntity
  8
Visible (ANSI)
100
AcDbLine
 10
21.93970940108539
 20
16.97677953698613
 30
0.0
 11
21.86570940108539
 21
16.97677953698613
 31
0.0
  0
LINE
  5
139
330
6C
100
AcDbEntity
  8
Visible (ANSI)
100
AcDbLine
 10
21.86570940108539
 20
16.97677953698613
 30
0.0
 11
21.86570940108539
 21
6.726779536986131
 31
0.0
  0
LINE
  5
13A
330
6C
100
AcDbEntity
  8
Visible (ANSI)
100
AcDbLine
 10
21.93970940108539
 20
6.726779536986131
 30
0.0
 11
21.86570940108539
 21
6.726779536986131
 31
0.0
  0
LINE
  5
13B
330
6C
100
AcDbEntity
  8
Visible (ANSI)
100
AcDbLine
 10
21.93970940108539
 20
6.726779536986131
 30
0.0
 11
21.93970940108539
 21
16.97677953698613
 31
0.0
  0
MTEXT
  5
13C
330
6C
100
AcDbEntity
  8
Symbol (ANSI)
100
AcDbMText
 10
21.05504331721227
 20
5.181926154314497
 30
0.0
 40
0.2400000029661524
 41
0.0
 71
     7
 72
     1
  1
SIDE VIEW
  7
Text Style166
 73
     1
 44
1.0
  0
LINE
  5
13D
330
6C
100
AcDbEntity
  8
Symbol (ANSI)
370
    30
100
AcDbLine
 10
21.04275528560304
 20
5.132204921985083
 30
0.0
 11
22.66460292641403
 21
5.132204921985083
 31
0.0
  0
ELLIPSE
  5
13E
330
6C
100
AcDbEntity
  8
Visible (ANSI)
100
AcDbEllipse
 10
27.31341358573764
 20
12.25361461097157
 30
0.0
 11
0.0499032211584457
 21
-0.0866583436145145
 31
0.0
210
0.0
220
0.0
230
0.9999999999999998
 40
0.578093115915809
 41
3.572615253427358
 42
5.852162707341187
  0
ELLIPSE
  5
13F
330
6C
100
AcDbEntity
  8
Visible (ANSI)
100
AcDbEllipse
 10
27.27155286429141
 20
12.22950862471506
 30
0.0
 11
-0.0499032211584406
 21
0.0866583436145175
 31
0.0
210
0.0
220
0.0
230
0.9999999999999998
 40
0.578093115915809
 41
0.0
 42
6.283185307179586
  0
LINE
  5
140
330
6C
100
AcDbEntity
  8
Visible (ANSI)
100
AcDbLine
 10
32.17434844232716
 20
9.372633683593685
 30
0.0
 11
32.20942093867402
 21
9.352436776189588
 31
0.0
  0
LINE
  5
141
330
6C
100
AcDbEntity
  8
Visible Narrow (ANSI)
100
AcDbLine
 10
32.13248772088093
 20
9.348527697337173
 30
0.0
 11
32.17434844232716
 21
9.372633683593685
 31
0.0
  0
LINE
  5
142
330
6C
100
AcDbEntity
  8
Visible (ANSI)
100
AcDbLine
 10
32.16756021722778
 20
9.328330789933078
 30
0.0
 11
32.13248772088093
 21
9.348527697337173
 31
0.0
  0
LINE
  5
143
330
6C
100
AcDbEntity
  8
Visible Narrow (ANSI)
100
AcDbLine
 10
32.16756021722778
 20
9.328330789933078
 30
0.0
 11
32.20942093867402
 21
9.352436776189588
 31
0.0
  0
ELLIPSE
  5
144
330
6C
100
AcDbEntity
  8
Visible (ANSI)
100
AcDbEllipse
 10
32.20942093867402
 20
9.434191488673842
 30
0.0
 11
0.049903221158441
 21
-0.0866583436145181
 31
0.0
210
0.0
220
0.0
230
0.9999999999999998
 40
0.5780931159158089
 41
5.49972085220502
 42
5.852162707341618
  0
ELLIPSE
  5
145
330
6C
100
AcDbEntity
  8
Visible (ANSI)
100
AcDbEllipse
 10
32.16756021722778
 20
9.410085502417331
 30
0.0
 11
0.0499032211584354
 21
-0.0866583436145204
 31
0.0
210
0.0
220
0.0
230
0.9999999999999998
 40
0.578093115915809
 41
5.499720852205271
 42
8.641313505795064
  0
LINE
  5
146
330
6C
100
AcDbEntity
  8
Visible (ANSI)
100
AcDbLine
 10
32.13248772088093
 20
9.512037122305681
 30
0.0
 11
32.16756021722778
 21
9.491840214901586
 31
0.0
  0
ELLIPSE
  5
147
330
6C
100
AcDbEntity
  8
Visible (ANSI)
100
AcDbEllipse
 10
32.17434844232716
 20
9.454388396077938
 30
0.0
 11
0.0499032211584457
 21
-0.0866583436145144
 31
0.0
210
0.0
220
0.0
230
1.0
 40
0.5780931159158089
 41
3.572615253427358
 42
5.49972085220461
  0
ELLIPSE
  5
148
330
6C
100
AcDbEntity
  8
Visible (ANSI)
100
AcDbEllipse
 10
32.13248772088093
 20
9.43028240982143
 30
0.0
 11
-0.0499032211584354
 21
0.0866583436145204
 31
0.0
210
0.0
220
0.0
230
1.0
 40
0.578093115915809
 41
5.499720852205271
 42
8.641313505795064
  0
LINE
  5
149
330
6C
100
AcDbEntity
  8
Visible (ANSI)
100
AcDbLine
 10
26.73019191261489
 20
12.50771492322319
 30
0.0
 11
26.76526440896175
 21
12.48751801581909
 31
0.0
  0
LINE
  5
14A
330
6C
100
AcDbEntity
  8
Visible Narrow (ANSI)
100
AcDbLine
 10
26.68833119116865
 20
12.48360893696668
 30
0.0
 11
26.73019191261489
 21
12.50771492322319
 31
0.0
  0
LINE
  5
14B
330
6C
100
AcDbEntity
  8
Visible (ANSI)
100
AcDbLine
 10
26.72340368751552
 20
12.46341202956258
 30
0.0
 11
26.68833119116865
 21
12.48360893696668
 31
0.0
  0
LINE
  5
14C
330
6C
100
AcDbEntity
  8
Visible Narrow (ANSI)
100
AcDbLine
 10
26.72340368751552
 20
12.46341202956258
 30
0.0
 11
26.76526440896175
 21
12.48751801581909
 31
0.0
  0
ELLIPSE
  5
14D
330
6C
100
AcDbEntity
  8
Visible (ANSI)
100
AcDbEllipse
 10
26.76526440896175
 20
12.56927272830334
 30
0.0
 11
0.0499032211584405
 21
-0.0866583436145174
 31
0.0
210
0.0
220
0.0
230
1.0
 40
0.578093115915809
 41
5.49972085220502
 42
5.852162707341618
  0
ELLIPSE
  5
14E
330
6C
100
AcDbEntity
  8
Visible (ANSI)
100
AcDbEllipse
 10
26.72340368751552
 20
12.54516674204684
 30
0.0
 11
0.0499032211584354
 21
-0.0866583436145204
 31
0.0
210
0.0
220
0.0
230
1.0
 40
0.578093115915809
 41
5.499720852205271
 42
8.641313505795064
  0
LINE
  5
14F
330
6C
100
AcDbEntity
  8
Visible (ANSI)
100
AcDbLine
 10
26.68833119116866
 20
12.64711836193519
 30
0.0
 11
26.72340368751552
 21
12.62692145453109
 31
0.0
  0
ELLIPSE
  5
150
330
6C
100
AcDbEntity
  8
Visible (ANSI)
100
AcDbEllipse
 10
26.73019191261489
 20
12.58946963570744
 30
0.0
 11
0.0499032211584458
 21
-0.0866583436145145
 31
0.0
210
0.0
220
0.0
230
1.0
 40
0.578093115915809
 41
3.572615253427356
 42
5.499720852204609
  0
ELLIPSE
  5
151
330
6C
100
AcDbEntity
  8
Visible (ANSI)
100
AcDbEllipse
 10
26.68833119116866
 20
12.56536364945093
 30
0.0
 11
-0.0499032211584354
 21
0.0866583436145204
 31
0.0
210
0.0
220
0.0
230
0.9999999999999998
 40
0.578093115915809
 41
5.499720852205271
 42
8.641313505795064
  0
LINE
  5
152
330
6C
100
AcDbEntity
  8
Visible (ANSI)
100
AcDbLine
 10
32.17434844232718
 20
15.66709250718135
 30
0.0
 11
32.20942093867404
 21
15.64689559977725
 31
0.0
  0
LINE
  5
153
330
6C
100
AcDbEntity
  8
Visible Narrow (ANSI)
100
AcDbLine
 10
32.13248772088094
 20
15.64298652092484
 30
0.0
 11
32.17434844232718
 21
15.66709250718135
 31
0.0
  0
LINE
  5
154
330
6C
100
AcDbEntity
  8
Visible (ANSI)
100
AcDbLine
 10
32.1675602172278
 20
15.62278961352074
 30
0.0
 11
32.13248772088094
 21
15.64298652092484
 31
0.0
  0
LINE
  5
155
330
6C
100
AcDbEntity
  8
Visible Narrow (ANSI)
100
AcDbLine
 10
32.1675602172278
 20
15.62278961352074
 30
0.0
 11
32.20942093867404
 21
15.64689559977725
 31
0.0
  0
ELLIPSE
  5
156
330
6C
100
AcDbEntity
  8
Visible (ANSI)
100
AcDbEllipse
 10
32.20942093867404
 20
15.72865031226146
 30
0.0
 11
0.0499032211584153
 21
-0.0866583436144736
 31
0.0
210
0.0
220
0.0
230
0.9999999999999998
 40
0.5780931159158089
 41
5.499720852204941
 42
5.852162707341637
  0
ELLIPSE
  5
157
330
6C
100
AcDbEntity
  8
Visible (ANSI)
100
AcDbEllipse
 10
32.1675602172278
 20
15.70454432600499
 30
0.0
 11
0.0499032211584352
 21
-0.0866583436145202
 31
0.0
210
0.0
220
0.0
230
1.0
 40
0.5780931159158092
 41
5.499720852205271
 42
8.641313505795064
  0
LINE
  5
158
330
6C
100
AcDbEntity
  8
Visible (ANSI)
100
AcDbLine
 10
32.13248772088094
 20
15.80649594589334
 30
0.0
 11
32.1675602172278
 21
15.78629903848925
 31
0.0
  0
ELLIPSE
  5
159
330
6C
100
AcDbEntity
  8
Visible (ANSI)
100
AcDbEllipse
 10
32.17434844232718
 20
15.7488472196656
 30
0.0
 11
0.0499032211584456
 21
-0.0866583436145142
 31
0.0
210
0.0
220
0.0
230
1.0
 40
0.578093115915809
 41
3.572615253427372
 42
5.49972085220461
  0
ELLIPSE
  5
15A
330
6C
100
AcDbEntity
  8
Visible (ANSI)
100
AcDbEllipse
 10
32.13248772088094
 20
15.72474123340909
 30
0.0
 11
-0.0499032211584352
 21
0.0866583436145202
 31
0.0
210
0.0
220
0.0
230
1.0
 40
0.578093115915809
 41
5.499720852205271
 42
8.641313505795064
  0
LINE
  5
15B
330
6C
100
AcDbEntity
  8
Visible (ANSI)
100
AcDbLine
 10
26.73019191261491
 20
18.80217374681085
 30
0.0
 11
26.76526440896176
 21
18.78197683940675
 31
0.0
  0
LINE
  5
15C
330
6C
100
AcDbEntity
  8
Visible Narrow (ANSI)
100
AcDbLine
 10
26.68833119116867
 20
18.77806776055434
 30
0.0
 11
26.73019191261491
 21
18.80217374681085
 31
0.0
  0
LINE
  5
15D
330
6C
100
AcDbEntity
  8
Visible (ANSI)
100
AcDbLine
 10
26.72340368751553
 20
18.75787085315025
 30
0.0
 11
26.68833119116867
 21
18.77806776055434
 31
0.0
  0
LINE
  5
15E
330
6C
100
AcDbEntity
  8
Visible Narrow (ANSI)
100
AcDbLine
 10
26.72340368751553
 20
18.75787085315025
 30
0.0
 11
26.76526440896176
 21
18.78197683940675
 31
0.0
  0
ELLIPSE
  5
15F
330
6C
100
AcDbEntity
  8
Visible (ANSI)
100
AcDbEllipse
 10
26.76526440896176
 20
18.86373155189102
 30
0.0
 11
0.0499032211584493
 21
-0.0866583436145327
 31
0.0
210
0.0
220
0.0
230
1.0
 40
0.578093115915809
 41
5.49972085220502
 42
5.852162707341554
  0
ELLIPSE
  5
160
330
6C
100
AcDbEntity
  8
Visible (ANSI)
100
AcDbEllipse
 10
26.72340368751553
 20
18.8396255656345
 30
0.0
 11
0.0499032211584352
 21
-0.0866583436145202
 31
0.0
210
0.0
220
0.0
230
1.0
 40
0.5780931159158092
 41
5.499720852205272
 42
8.641313505795066
  0
LINE
  5
161
330
6C
100
AcDbEntity
  8
Visible (ANSI)
100
AcDbLine
 10
26.68833119116867
 20
18.94157718552285
 30
0.0
 11
26.72340368751553
 21
18.92138027811875
 31
0.0
  0
ELLIPSE
  5
162
330
6C
100
AcDbEntity
  8
Visible (ANSI)
100
AcDbEllipse
 10
26.73019191261491
 20
18.88392845929511
 30
0.0
 11
0.0499032211584456
 21
-0.0866583436145142
 31
0.0
210
0.0
220
0.0
230
0.9999999999999998
 40
0.578093115915809
 41
3.572615253427374
 42
5.49972085220461
  0
ELLIPSE
  5
163
330
6C
100
AcDbEntity
  8
Visible (ANSI)
100
AcDbEllipse
 10
26.68833119116867
 20
18.8598224730386
 30
0.0
 11
-0.0499032211584352
 21
0.0866583436145202
 31
0.0
210
0.0
220
0.0
230
1.0
 40
0.5780931159158092
 41
5.499720852205271
 42
8.641313505795064
  0
LINE
  5
164
330
6C
100
AcDbEntity
  8
Visible (ANSI)
100
AcDbLine
 10
26.52880790133294
 20
12.4525132024219
 30
0.0
 11
26.52880790133296
 21
19.1563996261307
 31
0.0
  0
LINE
  5
165
330
6C
100
AcDbEntity
  8
Visible (ANSI)
100
AcDbLine
 10
26.5706686227792
 20
19.18050561238722
 30
0.0
 11
26.52880790133296
 21
19.1563996261307
 31
0.0
  0
LINE
  5
166
330
6C
100
AcDbEntity
  8
Visible (ANSI)
100
AcDbLine
 10
26.52880790133296
 20
19.1563996261307
 30
0.0
 11
32.32708350706352
 21
15.81739477303402
 31
0.0
  0
LINE
  5
167
330
6C
100
AcDbEntity
  8
Visible (ANSI)
100
AcDbLine
 10
32.36894422850975
 20
15.84150075929054
 30
0.0
 11
32.32708350706352
 21
15.81739477303402
 31
0.0
  0
LINE
  5
168
330
6C
100
AcDbEntity
  8
Visible (ANSI)
100
AcDbLine
 10
32.36894422850975
 20
15.84150075929054
 30
0.0
 11
26.5706686227792
 21
19.18050561238722
 31
0.0
  0
LINE
  5
169
330
6C
100
AcDbEntity
  8
Visible (ANSI)
100
AcDbLine
 10
32.32708350706352
 20
15.81739477303402
 30
0.0
 11
32.32708350706349
 21
9.113508349325224
 31
0.0
  0
LINE
  5
16A
330
6C
100
AcDbEntity
  8
Visible (ANSI)
100
AcDbLine
 10
32.36894422850973
 20
9.137614335581734
 30
0.0
 11
32.32708350706349
 21
9.113508349325224
 31
0.0
  0
LINE
  5
16B
330
6C
100
AcDbEntity
  8
Visible (ANSI)
100
AcDbLine
 10
32.36894422850973
 20
9.137614335581734
 30
0.0
 11
32.36894422850975
 21
15.84150075929054
 31
0.0
  0
LINE
  5
16C
330
6C
100
AcDbEntity
  8
Visible (ANSI)
100
AcDbLine
 10
32.32708350706349
 20
9.113508349325224
 30
0.0
 11
26.52880790133294
 21
12.4525132024219
 31
0.0
  0
DIMENSION
  5
16D
330
6C
100
AcDbEntity
  8
Dimension (ANSI)
100
AcDbDimension
  2
*D4
 10
21.93970940108539
 20
17.49443797796079
 30
0.0
 11
20.44228238641711
 21
17.49443797796079
 31
0.0
 70
   160
  1
{14 GA. C.R.S\P}(<>)
 71
     5
 42
0.0739999999999981
  3
Default (ANSI)
100
AcDbAlignedDimension
 13
21.86570940108539
 23
16.97677953698613
 33
0.0
 14
21.93970940108539
 24
16.97677953698613
 34
0.0
 50
180.0
100
AcDbRotatedDimension
1001
ACAD
1000
DSTYLE
1002
{
1070
   289
1070
     1
1070
    73
1070
     0
1070
    74
1070
     0
1070
   271
1070
     3
1070
   147
1040
0.031496062992126
1070
    72
1070
     0
1070
    71
1070
     0
1070
   272
1070
     2
1070
    48
1040
0.0
1070
    47
1040
0.0
1002
}
  0
DIMENSION
  5
277
330
6C
100
AcDbEntity
  8
Dimension (ANSI)
100
AcDbDimension
  2
*D5
 10
5.416591420334685
 20
16.97677953698613
 30
0.0
 11
5.416591420334682
 21
11.85177953698613
 31
0.0
 70
   160
  1
<>
 42
10.24999999999999
  3
Default (ANSI)
100
AcDbAlignedDimension
 13
6.463906346560629
 23
6.726779536986133
 33
0.0
 14
6.463906346560627
 24
16.97677953698613
 34
0.0
 50
90.0
100
AcDbRotatedDimension
1001
ACAD
1000
DSTYLE
1002
{
1070
   289
1070
     1
1070
   271
1070
     2
1070
   272
1070
     2
1070
    48
1040
0.0
1070
    47
1040
0.0
1002
}
  0
DIMENSION
  5
361
330
6C
100
AcDbEntity
  8
Dimension (ANSI)
100
AcDbDimension
  2
*D6
 10
16.71390634656062
 20
17.98681812984132
 30
0.0
 11
11.58890634656063
 21
17.98681812984132
 31
0.0
 70
   160
  1
<>
 42
10.25
  3
Default (ANSI)
100
AcDbAlignedDimension
 13
6.463906346560627
 23
16.97677953698613
 33
0.0
 14
16.71390634656062
 24
16.97677953698613
 34
0.0
 50
180.0
100
AcDbRotatedDimension
1001
ACAD
1000
DSTYLE
1002
{
1070
   289
1070
     1
1070
    73
1070
     0
1070
    74
1070
     0
1070
   271
1070
     2
1070
   272
1070
     2
1070
    48
1040
0.0
1070
    47
1040
0.0
1002
}
  0
LINE
  5
44B
330
6C
100
AcDbEntity
  8
Centerline (ANSI)
  6
CHAIN
 48
0.8134612441062927
100
AcDbLine
 10
6.776906346560627
 20
16.91377953698613
 30
0.0
 11
6.77690634656063
 21
6.78977953698613
 31
0.0
  0
LINE
  5
44C
330
6C
100
AcDbEntity
  8
Centerline (ANSI)
  6
CHAIN
 48
0.8134612441062927
100
AcDbLine
 10
6.370906346560629
 20
7.03977953698613
 30
0.0
 11
16.80690634656063
 21
7.039779536986132
 31
0.0
  0
LINE
  5
44D
330
6C
100
AcDbEntity
  8
Centerline (ANSI)
  6
CHAIN
 48
0.8134612441062927
100
AcDbLine
 10
16.40090634656063
 20
16.91377953698613
 30
0.0
 11
16.40090634656063
 21
6.789779536986131
 31
0.0
  0
LINE
  5
44E
330
6C
100
AcDbEntity
  8
Centerline (ANSI)
  6
CHAIN
 48
0.8134612441062927
100
AcDbLine
 10
16.80690634656063
 20
16.66377953698613
 30
0.0
 11
6.370906346560627
 21
16.66377953698613
 31
0.0
  0
LINE
  5
44F
330
6C
100
AcDbEntity
  8
Center Mark (ANSI)
  6
CHAIN
 48
0.2082219868898392
100
AcDbLine
 10
8.151906346560629
 20
7.039779536986132
 30
0.0
 11
7.401906346560629
 21
7.039779536986132
 31
0.0
  0
LINE
  5
450
330
6C
100
AcDbEntity
  8
Center Mark (ANSI)
  6
CHAIN
 48
0.2082219868898392
100
AcDbLine
 10
7.776906346560629
 20
7.414779536986132
 30
0.0
 11
7.776906346560629
 21
6.664779536986132
 31
0.0
  0
DIMENSION
  5
451
330
6C
100
AcDbEntity
  8
Dimension (ANSI)
100
AcDbDimension
  2
*D7
 10
7.668653171087571
 20
7.102279536986118
 30
0.0
 11
11.07279958707098
 21
5.952890108637064
 31
0.0
 70
   163
  1
<>{\PGROUND HOLE}
 71
     5
 42
0.2500000000000004
  3
Default (ANSI)
100
AcDbDiametricDimension
 15
7.885159522033694
 25
6.977279536986142
 35
0.0
 40
0.0
1001
ACAD
1000
DSTYLE
1002
{
1070
   144
1040
1.000000000000001
1070
   271
1070
     3
1070
   272
1070
     2
1070
    48
1040
0.0
1070
    47
1040
0.0
1002
}
1001
ACAD_DSTYLE_DIMRADIAL_EXTENSION
1070
   387
1070
     1
1070
   388
1040
0.0
1070
   390
1040
0.0
  0
DIMENSION
  5
50C
330
6C
100
AcDbEntity
  8
Dimension (ANSI)
100
AcDbDimension
  2
*D8
 10
6.77690634656063
 20
5.760744103915266
 30
0.0
 11
8.581150144891642
 21
5.760744103915266
 31
0.0
 70
   160
  1
<>
 42
0.9999999999999991
  3
Default (ANSI)
100
AcDbAlignedDimension
 13
7.776906346560629
 23
6.664779536986132
 33
0.0
 14
6.77690634656063
 24
6.78977953698613
 34
0.0
 50
180.0
100
AcDbRotatedDimension
1001
ACAD
1000
DSTYLE
1002
{
1070
   289
1070
     2
1070
    73
1070
     0
1070
    74
1070
     0
1070
   271
1070
     3
1070
   272
1070
     3
1070
    48
1040
0.0
1070
    47
1040
0.0
1002
}
  0
DIMENSION
  5
5F6
330
6C
100
AcDbEntity
  8
Dimension (ANSI)
100
AcDbDimension
  2
*D9
 10
16.71390634656063
 20
5.615552093059108
 30
0.0
 11
17.65290781645819
 21
5.615552093059108
 31
0.0
 70
   160
  1
<>{\PTYP.}
 71
     5
 42
0.3129999999999988
  3
Default (ANSI)
100
AcDbAlignedDimension
 13
16.40090634656063
 23
6.789779536986131
 33
0.0
 14
16.71390634656063
 24
6.726779536986133
 34
0.0
 50
180.0
100
AcDbRotatedDimension
1001
ACAD
1000
DSTYLE
1002
{
1070
   289
1070
     1
1070
    73
1070
     0
1070
    74
1070
     0
1070
   271
1070
     3
1070
   272
1070
     3
1070
    48
1040
0.0
1070
    47
1040
0.0
1002
}
  0
DIMENSION
  5
6F4
330
6C
100
AcDbEntity
  8
Dimension (ANSI)
100
AcDbDimension
  2
*D10
 10
16.94013362672972
 20
6.726779536986133
 30
0.0
 11
17.59430792136378
 21
7.883191403627611
 31
0.0
 70
   160
  1
<>{\PTYP.}
 71
     5
 42
0.3129999999999988
  3
Default (ANSI)
100
AcDbAlignedDimension
 13
16.80690634656063
 23
7.039779536986132
 33
0.0
 14
16.71390634656063
 24
6.726779536986133
 34
0.0
 50
90.0
100
AcDbRotatedDimension
1001
ACAD
1000
DSTYLE
1002
{
1070
   289
1070
     1
1070
   271
1070
     3
1070
   272
1070
     3
1070
    48
1040
0.0
1070
    47
1040
0.0
1002
}
  0
MTEXT
  5
804
102
{ACAD_REACTORS
330
805
102
}
330
6C
100
AcDbEntity
  8
Symbol (ANSI)
100
AcDbMText
 10
17.58371952830277
 20
15.83282653938354
 30
0.0
 40
0.2400000029661524
 41
1.678249591917503
 71
     4
 72
     1
  1
{.250 X .312\POBROUND\P(4 PL.)}
  7
Note Text (ANSI)
 73
     2
 44
0.9878841638565063
  0
LEADER
  5
805
330
6C
100
AcDbEntity
  8
Symbol (ANSI)
100
AcDbLeader
  3
Default (ANSI)$7
 73
     0
 74
     0
 75
     1
 40
1.110307344807458
 41
1.633901957252468
 76
     3
 10
16.5406391769735
 20
16.6021177855481
 30
0.0
 10
17.32387701307635
 20
15.83282653938354
 30
0.0
 10
17.52072740231852
 20
15.83282653938354
 30
0.0
340
804
1001
ACAD
1000
DSTYLE
1002
{
1070
    77
1070
     0
1002
}
  0
MTEXT
  5
806
102
{ACAD_XDICTIONARY
360
812
102
}
330
6C
100
AcDbEntity
  8
Symbol (ANSI)
100
AcDbMText
 10
18.87540914773676
 20
1.755008629491192
 30
0.0
 40
0.2000000063828596
 41
14.7667742150975
 71
     4
 72
     1
  3
{\fRomanS|b0|i0|c0|p2;\H2x;PART#: N1P1212\P(DATA SUBJECT TO CHANGE WITHOUT NOTICE)\H1.6157x; \H0.61894x;\P \H1.352x; \H0.73963x;\P\H0.6x;THIS DRAWING IS PROPERTY OF HUBBELL INC. WIEGMANN\H1.5633x; \H0.63966x;\PALL INFORMATION IS PROPRIETARY AND NOT T
  1
O BE DUPLICATED\H1.234x; \H0.81039x;\P\H1.2571x; }
  7
Note Text (ANSI)
 73
     1
 44
0.8026435375213623
  0
ENDSEC
  0
SECTION
  2
OBJECTS
  0
DICTIONARY
  5
C
330
0
100
AcDbDictionary
281
     1
  3
ACAD_CIP_PREVIOUS_PRODUCT_INFO
350
808
  3
ACAD_COLOR
350
63
  3
ACAD_GROUP
350
D
  3
ACAD_LAYOUT
350
62
  3
ACAD_MATERIAL
350
10
  3
ACAD_MLEADERSTYLE
350
66
  3
ACAD_MLINESTYLE
350
5F
  3
ACAD_PLOTSETTINGS
350
61
  3
ACAD_PLOTSTYLENAME
350
E
  3
ACAD_SCALELIST
350
42
  3
ACAD_TABLESTYLE
350
64
  3
ACAD_VISUALSTYLE
350
29
  3
ACDB_RECOMPOSE_DATA
350
814
  3
AcDbVariableDictionary
350
76
  0
DICTIONARY
  5
84A
330
506
100
AcDbDictionary
280
     1
281
     1
  3
ACAD_MTEXT_2008_RT
360
84B
  0
DICTIONARY
  5
812
330
806
100
AcDbDictionary
280
     1
281
     1
  3
ACAD_MTEXT_2008_RT
360
813
  0
XRECORD
  5
808
102
{ACAD_REACTORS
330
C
102
}
330
C
100
AcDbXrecord
280
     1
300
INVPROSA
300
2012
300
INVPROSA_F_S
  0
DICTIONARY
  5
63
102
{ACAD_REACTORS
330
C
102
}
330
C
100
AcDbDictionary
281
     1
  0
DICTIONARY
  5
D
102
{ACAD_REACTORS
330
C
102
}
330
C
100
AcDbDictionary
281
     1
  0
DICTIONARY
  5
62
102
{ACAD_REACTORS
330
C
102
}
330
C
100
AcDbDictionary
281
     1
  3
Layout1
350
6B
  3
Layout2
350
73
  3
Model
350
6F
  0
DICTIONARY
  5
10
102
{ACAD_REACTORS
330
C
102
}
330
C
100
AcDbDictionary
281
     1
  3
ByBlock
350
19
  3
ByLayer
350
11
  3
Global
350
21
  0
DICTIONARY
  5
66
102
{ACAD_REACTORS
330
C
102
}
330
C
100
AcDbDictionary
281
     1
  3
Standard
350
67
  0
DICTIONARY
  5
5F
102
{ACAD_REACTORS
330
C
102
}
330
C
100
AcDbDictionary
281
     1
  3
Standard
350
60
  0
DICTIONARY
  5
61
102
{ACAD_REACTORS
330
C
102
}
330
C
100
AcDbDictionary
281
     1
  0
ACDBDICTIONARYWDFLT
  5
E
102
{ACAD_REACTORS
330
C
102
}
330
C
100
AcDbDictionary
281
     1
  3
Normal
350
F
100
AcDbDictionaryWithDefault
340
F
  0
DICTIONARY
  5
42
102
{ACAD_REACTORS
330
C
102
}
330
C
100
AcDbDictionary
281
     1
  3
A0
350
43
  3
A1
350
44
  3
A2
350
45
  3
A3
350
46
  3
A4
350
47
  3
A5
350
48
  3
A6
350
49
  3
A7
350
4A
  3
A8
350
4B
  3
A9
350
4C
  3
B0
350
4D
  3
B1
350
4E
  3
B2
350
4F
  3
B3
350
50
  3
B4
350
51
  3
B5
350
52
  3
B6
350
53
  0
DICTIONARY
  5
64
102
{ACAD_REACTORS
330
C
102
}
330
C
100
AcDbDictionary
281
     1
  3
Standard
350
65
  0
DICTIONARY
  5
29
102
{ACAD_REACTORS
330
C
102
}
330
C
100
AcDbDictionary
281
     1
  3
2dWireframe
350
2F
  3
Basic
350
2E
  3
Brighten
350
35
  3
ColorChange
350
39
  3
Conceptual
350
32
  3
Dim
350
34
  3
EdgeColorOff
350
41
  3
Facepattern
350
38
  3
Flat
350
2A
  3
FlatWithEdges
350
2B
  3
Gouraud
350
2C
  3
GouraudWithEdges
350
2D
  3
Hidden
350
31
  3
JitterOff
350
3F
  3
Linepattern
350
37
  3
OverhangOff
350
40
  3
Realistic
350
33
  3
Shaded
350
3E
  3
Shaded with edges
350
3D
  3
Shades of Gray
350
3A
  3
Sketchy
350
3B
  3
Thicken
350
36
  3
Wireframe
350
30
  3
X-Ray
350
3C
  0
XRECORD
  5
814
102
{ACAD_REACTORS
330
C
102
}
330
C
100
AcDbXrecord
280
     1
 90
        1
330
65
330
50C
330
806
  0
DICTIONARY
  5
76
102
{ACAD_REACTORS
330
C
102
}
330
C
100
AcDbDictionary
281
     1
  3
CANNOSCALE
350
79
  3
CMLEADERSTYLE
350
78
  3
CTABLESTYLE
350
77
  3
LAYEREVAL
350
80B
  3
LAYERNOTIFY
350
80C
  3
LIGHTINGUNITS
350
80A
  3
MSLTSCALE
350
809
  3
XCLIPFRAME
350
80D
  0
XRECORD
  5
84B
102
{ACAD_REACTORS
330
84A
102
}
330
84A
100
AcDbXrecord
280
     1
 40
36037.0
  1
\A1;\U+22050.250{\PGROUND HOLE}
  0
XRECORD
  5
813
102
{ACAD_REACTORS
330
812
102
}
330
812
100
AcDbXrecord
280
     1
 40
3047237.0
  1
\pxsm0.94;{\fRomanS|b0|i0;\H0.4000;PART#: N1P1212\P(DATA SUBJECT TO CHANGE WITHOUT NOTICE)\P \P\fRomanS|b0|i0;\H0.2400;THIS DRAWING IS PROPERTY OF HUBBELL INC. WIEGMANN\PALL INFORMATION IS PROPRIETARY AND NOT TO BE DUPLICATED\P}
  0
LAYOUT
  5
6B
102
{ACAD_REACTORS
330
62
102
}
330
62
100
AcDbPlotSettings
  1

  2

  4

  6

 40
0.0
 41
0.0
 42
0.0
 43
0.0
 44
0.0
 45
0.0
 46
0.0
 47
0.0
 48
0.0
 49
0.0
140
0.0
141
0.0
142
1.0
143
1.0
 70
   688
 72
     0
 73
     0
 74
     5
  7

 75
    16
147
1.0
 76
     0
 77
     2
 78
   300
148
0.0
149
0.0
100
AcDbLayout
  1
Layout1
 70
     1
 71
     1
 10
0.0
 20
0.0
 11
12.0
 21
9.0
 12
0.0
 22
0.0
 32
0.0
 14
0.0
 24
0.0
 34
0.0
 15
0.0
 25
0.0
 35
0.0
146
0.0
 13
0.0
 23
0.0
 33
0.0
 16
1.0
 26
0.0
 36
0.0
 17
0.0
 27
1.0
 37
0.0
 76
     0
330
68
  0
LAYOUT
  5
73
102
{ACAD_REACTORS
330
62
102
}
330
62
100
AcDbPlotSettings
  1

  2

  4

  6

 40
0.0
 41
0.0
 42
0.0
 43
0.0
 44
0.0
 45
0.0
 46
0.0
 47
0.0
 48
0.0
 49
0.0
140
0.0
141
0.0
142
1.0
143
1.0
 70
   688
 72
     0
 73
     0
 74
     5
  7

 75
    16
147
1.0
 76
     0
 77
     2
 78
   300
148
0.0
149
0.0
100
AcDbLayout
  1
Layout2
 70
     1
 71
     2
 10
0.0
 20
0.0
 11
12.0
 21
9.0
 12
0.0
 22
0.0
 32
0.0
 14
0.0
 24
0.0
 34
0.0
 15
0.0
 25
0.0
 35
0.0
146
0.0
 13
0.0
 23
0.0
 33
0.0
 16
1.0
 26
0.0
 36
0.0
 17
0.0
 27
1.0
 37
0.0
 76
     0
330
70
  0
LAYOUT
  5
6F
102
{ACAD_REACTORS
330
62
102
}
330
62
100
AcDbPlotSettings
  1

  2

  4

  6

 40
0.0
 41
0.0
 42
0.0
 43
0.0
 44
0.0
 45
0.0
 46
0.0
 47
0.0
 48
0.0
 49
0.0
140
0.0
141
0.0
142
1.0
143
1.0
 70
  1712
 72
     0
 73
     0
 74
     0
  7

 75
     0
147
1.0
 76
     0
 77
     2
 78
   300
148
0.0
149
0.0
100
AcDbLayout
  1
Model
 70
     1
 71
     0
 10
0.0
 20
0.0
 11
12.0
 21
9.0
 12
0.0
 22
0.0
 32
0.0
 14
0.0
 24
0.0
 34
0.0
 15
0.0
 25
0.0
 35
0.0
146
0.0
 13
0.0
 23
0.0
 33
0.0
 16
1.0
 26
0.0
 36
0.0
 17
0.0
 27
1.0
 37
0.0
 76
     0
330
6C
  0
MATERIAL
  5
19
102
{ACAD_XDICTIONARY
360
1A
102
}
102
{ACAD_REACTORS
330
10
102
}
330
10
100
AcDbMaterial
  1
ByBlock
 72
     0
 43
0.0208333333333333
 43
0.0
 43
0.0
 43
0.0
 43
0.0
 43
0.0208333333333333
 43
0.0
 43
0.0
 43
0.0
 43
0.0
 43
1.0
 43
0.0
 43
0.0
 43
0.0
 43
0.0
 43
1.0
 77
     0
 47
0.0208333333333333
 47
0.0
 47
0.0
 47
0.0
 47
0.0
 47
0.0208333333333333
 47
0.0
 47
0.0
 47
0.0
 47
0.0
 47
1.0
 47
0.0
 47
0.0
 47
0.0
 47
0.0
 47
1.0
171
     0
 49
0.0208333333333333
 49
0.0
 49
0.0
 49
0.0
 49
0.0
 49
0.0208333333333333
 49
0.0
 49
0.0
 49
0.0
 49
0.0
 49
1.0
 49
0.0
 49
0.0
 49
0.0
 49
0.0
 49
1.0
175
     0
142
0.0208333333333333
142
0.0
142
0.0
142
0.0
142
0.0
142
0.0208333333333333
142
0.0
142
0.0
142
0.0
142
0.0
142
1.0
142
0.0
142
0.0
142
0.0
142
0.0
142
1.0
179
     0
144
0.0208333333333333
144
0.0
144
0.0
144
0.0
144
0.0
144
0.0208333333333333
144
0.0
144
0.0
144
0.0
144
0.0
144
1.0
144
0.0
144
0.0
144
0.0
144
0.0
144
1.0
147
0.0208333333333333
147
0.0
147
0.0
147
0.0
147
0.0
147
0.0208333333333333
147
0.0
147
0.0
147
0.0
147
0.0
147
1.0
147
0.0
147
0.0
147
0.0
147
0.0
147
1.0
  0
MATERIAL
  5
11
102
{ACAD_XDICTIONARY
360
12
102
}
102
{ACAD_REACTORS
330
10
102
}
330
10
100
AcDbMaterial
  1
ByLayer
 72
     0
 43
0.0208333333333333
 43
0.0
 43
0.0
 43
0.0
 43
0.0
 43
0.0208333333333333
 43
0.0
 43
0.0
 43
0.0
 43
0.0
 43
1.0
 43
0.0
 43
0.0
 43
0.0
 43
0.0
 43
1.0
 77
     0
 47
0.0208333333333333
 47
0.0
 47
0.0
 47
0.0
 47
0.0
 47
0.0208333333333333
 47
0.0
 47
0.0
 47
0.0
 47
0.0
 47
1.0
 47
0.0
 47
0.0
 47
0.0
 47
0.0
 47
1.0
171
     0
 49
0.0208333333333333
 49
0.0
 49
0.0
 49
0.0
 49
0.0
 49
0.0208333333333333
 49
0.0
 49
0.0
 49
0.0
 49
0.0
 49
1.0
 49
0.0
 49
0.0
 49
0.0
 49
0.0
 49
1.0
175
     0
142
0.0208333333333333
142
0.0
142
0.0
142
0.0
142
0.0
142
0.0208333333333333
142
0.0
142
0.0
142
0.0
142
0.0
142
1.0
142
0.0
142
0.0
142
0.0
142
0.0
142
1.0
179
     0
144
0.0208333333333333
144
0.0
144
0.0
144
0.0
144
0.0
144
0.0208333333333333
144
0.0
144
0.0
144
0.0
144
0.0
144
1.0
144
0.0
144
0.0
144
0.0
144
0.0
144
1.0
147
0.0208333333333333
147
0.0
147
0.0
147
0.0
147
0.0
147
0.0208333333333333
147
0.0
147
0.0
147
0.0
147
0.0
147
1.0
147
0.0
147
0.0
147
0.0
147
0.0
147
1.0
  0
MATERIAL
  5
21
102
{ACAD_XDICTIONARY
360
22
102
}
102
{ACAD_REACTORS
330
10
102
}
330
10
100
AcDbMaterial
  1
Global
 72
     0
 43
0.0208333333333333
 43
0.0
 43
0.0
 43
0.0
 43
0.0
 43
0.0208333333333333
 43
0.0
 43
0.0
 43
0.0
 43
0.0
 43
1.0
 43
0.0
 43
0.0
 43
0.0
 43
0.0
 43
1.0
 77
     0
 47
0.0208333333333333
 47
0.0
 47
0.0
 47
0.0
 47
0.0
 47
0.0208333333333333
 47
0.0
 47
0.0
 47
0.0
 47
0.0
 47
1.0
 47
0.0
 47
0.0
 47
0.0
 47
0.0
 47
1.0
171
     0
 49
0.0208333333333333
 49
0.0
 49
0.0
 49
0.0
 49
0.0
 49
0.0208333333333333
 49
0.0
 49
0.0
 49
0.0
 49
0.0
 49
1.0
 49
0.0
 49
0.0
 49
0.0
 49
0.0
 49
1.0
175
     0
142
0.0208333333333333
142
0.0
142
0.0
142
0.0
142
0.0
142
0.0208333333333333
142
0.0
142
0.0
142
0.0
142
0.0
142
1.0
142
0.0
142
0.0
142
0.0
142
0.0
142
1.0
179
     0
144
0.0208333333333333
144
0.0
144
0.0
144
0.0
144
0.0
144
0.0208333333333333
144
0.0
144
0.0
144
0.0
144
0.0
144
1.0
144
0.0
144
0.0
144
0.0
144
0.0
144
1.0
147
0.0208333333333333
147
0.0
147
0.0
147
0.0
147
0.0
147
0.0208333333333333
147
0.0
147
0.0
147
0.0
147
0.0
147
1.0
147
0.0
147
0.0
147
0.0
147
0.0
147
1.0
  0
MLEADERSTYLE
  5
67
102
{ACAD_XDICTIONARY
360
810
102
}
102
{ACAD_REACTORS
330
66
102
}
330
66
100
AcDbMLeaderStyle
170
     2
171
     1
172
     0
 90
        2
 40
0.0
 41
0.0
173
     1
 91
-1056964608
340
5B
 92
       -2
290
     1
 42
0.09
291
     1
 43
0.36
  3
Standard
 44
0.18
300

342
55
174
     1
178
     6
175
     1
176
     0
 93
-1056964608
 45
0.18
292
     0
297
     0
 46
0.18
 94
-1056964608
 47
1.0
 49
1.0
140
1.0
293
     1
141
0.0
294
     1
177
     0
142
1.0
295
     0
296
     0
143
0.125
1001
ACAD_MLEADERVER
1070
     2
  0
MLINESTYLE
  5
60
102
{ACAD_REACTORS
330
5F
102
}
330
5F
100
AcDbMlineStyle
  2
STANDARD
 70
     0
  3

 62
   256
 51
90.0
 52
90.0
 71
     2
 49
0.5
 62
   256
  6
BYLAYER
 49
-0.5
 62
   256
  6
BYLAYER
  0
ACDBPLACEHOLDER
  5
F
102
{ACAD_REACTORS
330
E
102
}
330
E
  0
SCALE
  5
43
102
{ACAD_REACTORS
330
42
102
}
330
42
100
AcDbScale
 70
     0
300
1:1
140
1.0
141
1.0
290
     1
  0
SCALE
  5
44
102
{ACAD_REACTORS
330
42
102
}
330
42
100
AcDbScale
 70
     0
300
1/128" = 1'-0"
140
0.0078125
141
12.0
290
     0
  0
SCALE
  5
45
102
{ACAD_REACTORS
330
42
102
}
330
42
100
AcDbScale
 70
     0
300
1/64" = 1'-0"
140
0.015625
141
12.0
290
     0
  0
SCALE
  5
46
102
{ACAD_REACTORS
330
42
102
}
330
42
100
AcDbScale
 70
     0
300
1/32" = 1'-0"
140
0.03125
141
12.0
290
     0
  0
SCALE
  5
47
102
{ACAD_REACTORS
330
42
102
}
330
42
100
AcDbScale
 70
     0
300
1/16" = 1'-0"
140
0.0625
141
12.0
290
     0
  0
SCALE
  5
48
102
{ACAD_REACTORS
330
42
102
}
330
42
100
AcDbScale
 70
     0
300
3/32" = 1'-0"
140
0.09375
141
12.0
290
     0
  0
SCALE
  5
49
102
{ACAD_REACTORS
330
42
102
}
330
42
100
AcDbScale
 70
     0
300
1/8" = 1'-0"
140
0.125
141
12.0
290
     0
  0
SCALE
  5
4A
102
{ACAD_REACTORS
330
42
102
}
330
42
100
AcDbScale
 70
     0
300
3/16" = 1'-0"
140
0.1875
141
12.0
290
     0
  0
SCALE
  5
4B
102
{ACAD_REACTORS
330
42
102
}
330
42
100
AcDbScale
 70
     0
300
1/4" = 1'-0"
140
0.25
141
12.0
290
     0
  0
SCALE
  5
4C
102
{ACAD_REACTORS
330
42
102
}
330
42
100
AcDbScale
 70
     0
300
3/8" = 1'-0"
140
0.375
141
12.0
290
     0
  0
SCALE
  5
4D
102
{ACAD_REACTORS
330
42
102
}
330
42
100
AcDbScale
 70
     0
300
1/2" = 1'-0"
140
0.5
141
12.0
290
     0
  0
SCALE
  5
4E
102
{ACAD_REACTORS
330
42
102
}
330
42
100
AcDbScale
 70
     0
300
3/4" = 1'-0"
140
0.75
141
12.0
290
     0
  0
SCALE
  5
4F
102
{ACAD_REACTORS
330
42
102
}
330
42
100
AcDbScale
 70
     0
300
1" = 1'-0"
140
1.0
141
12.0
290
     0
  0
SCALE
  5
50
102
{ACAD_REACTORS
330
42
102
}
330
42
100
AcDbScale
 70
     0
300
1-1/2" = 1'-0"
140
1.5
141
12.0
290
     0
  0
SCALE
  5
51
102
{ACAD_REACTORS
330
42
102
}
330
42
100
AcDbScale
 70
     0
300
3" = 1'-0"
140
3.0
141
12.0
290
     0
  0
SCALE
  5
52
102
{ACAD_REACTORS
330
42
102
}
330
42
100
AcDbScale
 70
     0
300
6" = 1'-0"
140
6.0
141
12.0
290
     0
  0
SCALE
  5
53
102
{ACAD_REACTORS
330
42
102
}
330
42
100
AcDbScale
 70
     0
300
1'-0" = 1'-0"
140
12.0
141
12.0
290
     0
  0
TABLESTYLE
  5
65
102
{ACAD_XDICTIONARY
360
80E
102
}
102
{ACAD_REACTORS
330
64
102
}
330
64
100
AcDbTableStyle
  3
Standard
 70
     0
 71
     0
 40
0.06
 41
0.06
280
     0
281
     0
  7
Standard
140
0.18
170
     2
 62
     0
 63
     7
283
     0
274
    -2
284
     1
 64
     0
275
    -2
285
     1
 65
     0
276
    -2
286
     1
 66
     0
277
    -2
287
     1
 67
     0
278
    -2
288
     1
 68
     0
279
    -2
289
     1
 69
     0
  7
Standard
140
0.25
170
     5
 62
     0
 63
     7
283
     0
274
    -2
284
     1
 64
     0
275
    -2
285
     1
 65
     0
276
    -2
286
     1
 66
     0
277
    -2
287
     1
 67
     0
278
    -2
288
     1
 68
     0
279
    -2
289
     1
 69
     0
  7
Standard
140
0.18
170
     5
 62
     0
 63
     7
283
     0
274
    -2
284
     1
 64
     0
275
    -2
285
     1
 65
     0
276
    -2
286
     1
 66
     0
277
    -2
287
     1
 67
     0
278
    -2
288
     1
 68
     0
279
    -2
289
     1
 69
     0
  0
VISUALSTYLE
  5
2F
102
{ACAD_XDICTIONARY
360
822
102
}
102
{ACAD_REACTORS
330
29
102
}
330
29
100
AcDbVisualStyle
  2
2dWireframe
 70
     4
 71
     0
 72
     2
 73
     0
 90
        0
 40
-0.6
 41
-30.0
 62
     5
 63
     7
421
 16777215
 74
     1
 91
        4
 64
     7
 65
   257
 75
     1
175
     1
 42
1.0
 92
        0
 66
   257
 43
1.0
 76
     1
 77
     6
 78
     2
 67
     7
 79
     5
170
     0
171
     0
290
     0
174
     0
 93
        1
 44
0.0
173
     0
291
     0
 45
0.0
1001
ACAD
1000
AcDbSavedByObjectVersion
1070
     0
  0
VISUALSTYLE
  5
2E
102
{ACAD_XDICTIONARY
360
820
102
}
102
{ACAD_REACTORS
330
29
102
}
330
29
100
AcDbVisualStyle
  2
Basic
 70
     7
 71
     1
 72
     0
 73
     1
 90
        0
 40
-0.6
 41
-30.0
 62
     5
 63
     7
421
 16777215
 74
     0
 91
        4
 64
     7
 65
   257
 75
     1
175
     1
 42
1.0
 92
        8
 66
     7
 43
1.0
 76
     1
 77
     6
 78
     2
 67
     7
 79
     5
170
     0
171
     0
290
     0
174
     0
 93
        1
 44
0.0
173
     0
291
     1
 45
0.0
1001
ACAD
1000
AcDbSavedByObjectVersion
1070
     0
  0
VISUALSTYLE
  5
35
102
{ACAD_XDICTIONARY
360
82E
102
}
102
{ACAD_REACTORS
330
29
102
}
330
29
100
AcDbVisualStyle
  2
Brighten
 70
    12
 71
     2
 72
     2
 73
     0
 90
        0
 40
-0.6
 41
-30.0
 62
     5
 63
     7
421
 16777215
 74
     1
 91
        4
 64
     7
 65
   257
 75
     1
175
     1
 42
1.0
 92
        8
 66
     7
 43
1.0
 76
     1
 77
     6
 78
     2
 67
     7
 79
     5
170
     0
171
     0
290
     0
174
     0
 93
        1
 44
50.0
173
     0
291
     1
 45
0.0
1001
ACAD
1000
AcDbSavedByObjectVersion
1070
     0
  0
VISUALSTYLE
  5
39
102
{ACAD_XDICTIONARY
360
836
102
}
102
{ACAD_REACTORS
330
29
102
}
330
29
100
AcDbVisualStyle
  2
ColorChange
 70
    16
 71
     2
 72
     2
 73
     3
 90
        0
 40
-0.6
 41
-30.0
 62
     5
 63
     8
421
  8421504
 74
     1
 91
        4
 64
     7
 65
   257
 75
     1
175
     1
 42
1.0
 92
        8
 66
     8
424
  8421504
 43
1.0
 76
     1
 77
     6
 78
     2
 67
     7
 79
     5
170
     0
171
     0
290
     0
174
     0
 93
        1
 44
0.0
173
     0
291
     1
 45
0.0
1001
ACAD
1000
AcDbSavedByObjectVersion
1070
     0
  0
VISUALSTYLE
  5
32
102
{ACAD_XDICTIONARY
360
828
102
}
102
{ACAD_REACTORS
330
29
102
}
330
29
100
AcDbVisualStyle
  2
Conceptual
 70
     9
 71
     3
 72
     2
 73
     0
 90
        0
 40
-0.6
 41
-30.0
 62
     5
 63
     7
421
 16777215
 74
     2
 91
        2
 64
     7
 65
   257
 75
     1
175
     1
 42
179.0
 92
        8
 66
     7
 43
1.0
 76
     1
 77
     6
 78
     2
 67
     7
 79
     3
170
     0
171
     0
290
     0
174
     0
 93
        1
 44
0.0
173
     0
291
     0
 45
0.0
1001
ACAD
1000
AcDbSavedByObjectVersion
1070
     0
  0
VISUALSTYLE
  5
34
102
{ACAD_XDICTIONARY
360
82C
102
}
102
{ACAD_REACTORS
330
29
102
}
330
29
100
AcDbVisualStyle
  2
Dim
 70
    11
 71
     2
 72
     2
 73
     0
 90
        0
 40
-0.6
 41
-30.0
 62
     5
 63
     7
421
 16777215
 74
     1
 91
        4
 64
     7
 65
   257
 75
     1
175
     1
 42
1.0
 92
        8
 66
     7
 43
1.0
 76
     1
 77
     6
 78
     2
 67
     7
 79
     5
170
     0
171
     0
290
     0
174
     0
 93
        1
 44
-50.0
173
     0
291
     1
 45
0.0
1001
ACAD
1000
AcDbSavedByObjectVersion
1070
     0
  0
VISUALSTYLE
  5
41
102
{ACAD_XDICTIONARY
360
846
102
}
102
{ACAD_REACTORS
330
29
102
}
330
29
100
AcDbVisualStyle
  2
EdgeColorOff
 70
    22
 71
     2
 72
     2
 73
     0
 90
        0
 40
-0.6
 41
-30.0
 62
     5
 63
     7
421
 16777215
 74
     1
 91
        4
 64
     7
 65
   257
 75
     1
175
     1
 42
1.0
 92
        8
 66
     7
 43
1.0
 76
     1
 77
     6
 78
     2
 67
     7
 79
     5
170
     0
171
     0
290
     0
174
     0
 93
        1
 44
0.0
173
     0
291
     1
 45
0.0
1001
ACAD
1000
AcDbSavedByObjectVersion
1070
     0
  0
VISUALSTYLE
  5
38
102
{ACAD_XDICTIONARY
360
834
102
}
102
{ACAD_REACTORS
330
29
102
}
330
29
100
AcDbVisualStyle
  2
Facepattern
 70
    15
 71
     2
 72
     2
 73
     0
 90
        0
 40
-0.6
 41
-30.0
 62
     5
 63
     7
421
 16777215
 74
     1
 91
        4
 64
     7
 65
   257
 75
     1
175
     1
 42
1.0
 92
        8
 66
     7
 43
1.0
 76
     1
 77
     6
 78
     2
 67
     7
 79
     5
170
     0
171
     0
290
     0
174
     0
 93
        1
 44
0.0
173
     0
291
     1
 45
0.0
1001
ACAD
1000
AcDbSavedByObjectVersion
1070
     0
  0
VISUALSTYLE
  5
2A
102
{ACAD_XDICTIONARY
360
818
102
}
102
{ACAD_REACTORS
330
29
102
}
330
29
100
AcDbVisualStyle
  2
Flat
 70
     0
 71
     2
 72
     1
 73
     1
 90
        2
 40
-0.6
 41
30.0
 62
     5
 63
     7
421
 16777215
 74
     0
 91
        0
 64
     7
 65
   257
 75
     1
175
     1
 42
1.0
 92
        8
 66
     7
 43
1.0
 76
     1
 77
     6
 78
     2
 67
     7
 79
     5
170
     0
171
     0
290
     0
174
     0
 93
       13
 44
0.0
173
     0
291
     1
 45
0.0
1001
ACAD
1000
AcDbSavedByObjectVersion
1070
     0
  0
VISUALSTYLE
  5
2B
102
{ACAD_XDICTIONARY
360
81A
102
}
102
{ACAD_REACTORS
330
29
102
}
330
29
100
AcDbVisualStyle
  2
FlatWithEdges
 70
     1
 71
     2
 72
     1
 73
     1
 90
        2
 40
-0.6
 41
30.0
 62
     5
 63
     7
421
 16777215
 74
     1
 91
        0
 64
     7
 65
   257
 75
     1
175
     1
 42
1.0
 92
        0
 66
   257
 43
1.0
 76
     1
 77
     6
 78
     2
 67
     7
 79
     5
170
     0
171
     0
290
     0
174
     0
 93
       13
 44
0.0
173
     0
291
     1
 45
0.0
1001
ACAD
1000
AcDbSavedByObjectVersion
1070
     0
  0
VISUALSTYLE
  5
2C
102
{ACAD_XDICTIONARY
360
81C
102
}
102
{ACAD_REACTORS
330
29
102
}
330
29
100
AcDbVisualStyle
  2
Gouraud
 70
     2
 71
     2
 72
     2
 73
     1
 90
        2
 40
-0.6
 41
30.0
 62
     5
 63
     7
421
 16777215
 74
     0
 91
        0
 64
     7
 65
   257
 75
     1
175
     1
 42
1.0
 92
        0
 66
     7
 43
1.0
 76
     1
 77
     6
 78
     2
 67
     7
 79
     5
170
     0
171
     0
290
     0
174
     0
 93
       13
 44
0.0
173
     0
291
     1
 45
0.0
1001
ACAD
1000
AcDbSavedByObjectVersion
1070
     0
  0
VISUALSTYLE
  5
2D
102
{ACAD_XDICTIONARY
360
81E
102
}
102
{ACAD_REACTORS
330
29
102
}
330
29
100
AcDbVisualStyle
  2
GouraudWithEdges
 70
     3
 71
     2
 72
     2
 73
     1
 90
        2
 40
-0.6
 41
30.0
 62
     5
 63
     7
421
 16777215
 74
     1
 91
        0
 64
     7
 65
   257
 75
     1
175
     1
 42
1.0
 92
        0
 66
   257
 43
1.0
 76
     1
 77
     6
 78
     2
 67
     7
 79
     5
170
     0
171
     0
290
     0
174
     0
 93
       13
 44
0.0
173
     0
291
     1
 45
0.0
1001
ACAD
1000
AcDbSavedByObjectVersion
1070
     0
  0
VISUALSTYLE
  5
31
102
{ACAD_XDICTIONARY
360
826
102
}
102
{ACAD_REACTORS
330
29
102
}
330
29
100
AcDbVisualStyle
  2
Hidden
 70
     6
 71
     1
 72
     2
 73
     2
 90
        0
 40
-0.6
 41
-30.0
 62
     5
 63
     7
421
 16777215
 74
     2
 91
        2
 64
     7
 65
   257
 75
     2
175
     1
 42
40.0
 92
        0
 66
   257
 43
1.0
 76
     1
 77
     6
 78
     2
 67
     7
 79
     3
170
     0
171
     0
290
     0
174
     0
 93
        1
 44
0.0
173
     0
291
     0
 45
0.0
1001
ACAD
1000
AcDbSavedByObjectVersion
1070
     0
  0
VISUALSTYLE
  5
3F
102
{ACAD_XDICTIONARY
360
842
102
}
102
{ACAD_REACTORS
330
29
102
}
330
29
100
AcDbVisualStyle
  2
JitterOff
 70
    20
 71
     2
 72
     2
 73
     0
 90
        0
 40
-0.6
 41
-30.0
 62
     5
 63
     7
421
 16777215
 74
     1
 91
        4
 64
     7
 65
   257
 75
     1
175
     1
 42
1.0
 92
       10
 66
     7
 43
1.0
 76
     1
 77
     6
 78
     2
 67
     7
 79
     5
170
     0
171
     0
290
     0
174
     0
 93
        1
 44
0.0
173
     0
291
     1
 45
0.0
1001
ACAD
1000
AcDbSavedByObjectVersion
1070
     0
  0
VISUALSTYLE
  5
37
102
{ACAD_XDICTIONARY
360
832
102
}
102
{ACAD_REACTORS
330
29
102
}
330
29
100
AcDbVisualStyle
  2
Linepattern
 70
    14
 71
     2
 72
     2
 73
     0
 90
        0
 40
-0.6
 41
-30.0
 62
     5
 63
     7
421
 16777215
 74
     1
 91
        4
 64
     7
 65
   257
 75
     7
175
     7
 42
1.0
 92
        8
 66
     7
 43
1.0
 76
     1
 77
     6
 78
     2
 67
     7
 79
     5
170
     0
171
     0
290
     0
174
     0
 93
        1
 44
0.0
173
     0
291
     1
 45
0.0
1001
ACAD
1000
AcDbSavedByObjectVersion
1070
     0
  0
VISUALSTYLE
  5
40
102
{ACAD_XDICTIONARY
360
844
102
}
102
{ACAD_REACTORS
330
29
102
}
330
29
100
AcDbVisualStyle
  2
OverhangOff
 70
    21
 71
     2
 72
     2
 73
     0
 90
        0
 40
-0.6
 41
-30.0
 62
     5
 63
     7
421
 16777215
 74
     1
 91
        4
 64
     7
 65
   257
 75
     1
175
     1
 42
1.0
 92
        9
 66
     7
 43
1.0
 76
     1
 77
     6
 78
     2
 67
     7
 79
     5
170
     0
171
     0
290
     0
174
     0
 93
        1
 44
0.0
173
     0
291
     1
 45
0.0
1001
ACAD
1000
AcDbSavedByObjectVersion
1070
     0
  0
VISUALSTYLE
  5
33
102
{ACAD_XDICTIONARY
360
82A
102
}
102
{ACAD_REACTORS
330
29
102
}
330
29
100
AcDbVisualStyle
  2
Realistic
 70
     8
 71
     2
 72
     3
 73
     0
 90
        2
 40
-0.6
 41
30.0
 62
     5
 63
     7
421
 16777215
 74
     0
 91
        0
 64
     7
 65
   257
 75
     1
175
     1
 42
1.0
 92
        8
 66
   257
 43
1.0
 76
     1
 77
     6
 78
     2
 67
     7
 79
     3
170
     0
171
     0
290
     0
174
     0
 93
       13
 44
0.0
173
     0
291
     0
 45
0.0
1001
ACAD
1000
AcDbSavedByObjectVersion
1070
     0
  0
VISUALSTYLE
  5
3E
102
{ACAD_XDICTIONARY
360
840
102
}
102
{ACAD_REACTORS
330
29
102
}
330
29
100
AcDbVisualStyle
  2
Shaded
 70
    27
 71
     2
 72
     2
 73
     1
 90
        2
 40
-0.6
 41
30.0
 62
     5
 63
     7
421
 16777215
 74
     0
 91
        4
 64
     7
 65
   257
 75
     1
175
     1
 42
1.0
 92
        8
 66
   257
 43
1.0
 76
     1
 77
     6
 78
     2
 67
     8
425
  7895160
 79
     3
170
     0
171
     0
290
     0
174
     0
 93
        5
 44
0.0
173
     0
291
     0
 45
0.0
1001
ACAD
1000
AcDbSavedByObjectVersion
1070
     0
  0
VISUALSTYLE
  5
3D
102
{ACAD_XDICTIONARY
360
83E
102
}
102
{ACAD_REACTORS
330
29
102
}
330
29
100
AcDbVisualStyle
  2
Shaded with edges
 70
    26
 71
     2
 72
     2
 73
     1
 90
        2
 40
-0.6
 41
30.0
 62
     5
 63
     7
421
 16777215
 74
     1
 91
       10
 64
     7
 65
   257
 75
     2
175
     1
 42
1.0
 92
        8
 66
   257
 43
1.0
 76
     1
 77
     6
 78
     2
 67
     7
 79
     3
170
     0
171
     0
290
     0
174
     0
 93
        5
 44
0.0
173
     0
291
     0
 45
0.0
1001
ACAD
1000
AcDbSavedByObjectVersion
1070
     0
  0
VISUALSTYLE
  5
3A
102
{ACAD_XDICTIONARY
360
838
102
}
102
{ACAD_REACTORS
330
29
102
}
330
29
100
AcDbVisualStyle
  2
Shades of Gray
 70
    23
 71
     2
 72
     2
 73
     3
 90
        0
 40
-0.6
 41
-30.0
 62
     5
 63
     7
421
 16777215
 74
     2
 91
        2
 64
     7
 65
     7
 75
     1
175
     1
 42
40.0
 92
        8
 66
     7
 43
1.0
 76
     1
 77
     6
 78
     2
 67
     7
 79
     3
170
     0
171
     0
290
     0
174
     0
 93
        1
 44
0.0
173
     0
291
     0
 45
0.0
1001
ACAD
1000
AcDbSavedByObjectVersion
1070
     0
  0
VISUALSTYLE
  5
3B
102
{ACAD_XDICTIONARY
360
83A
102
}
102
{ACAD_REACTORS
330
29
102
}
330
29
100
AcDbVisualStyle
  2
Sketchy
 70
    24
 71
     1
 72
     2
 73
     2
 90
        0
 40
-0.6
 41
-30.0
 62
     5
 63
     7
421
 16777215
 74
     2
 91
        2
 64
     7
 65
     7
 75
     1
175
     1
 42
40.0
 92
       11
 66
     7
 43
1.0
 76
     1
 77
     6
 78
     2
 67
     7
 79
     6
170
     0
171
     0
290
     0
174
     0
 93
        1
 44
0.0
173
     0
291
     0
 45
0.0
1001
ACAD
1000
AcDbSavedByObjectVersion
1070
     0
  0
VISUALSTYLE
  5
36
102
{ACAD_XDICTIONARY
360
830
102
}
102
{ACAD_REACTORS
330
29
102
}
330
29
100
AcDbVisualStyle
  2
Thicken
 70
    13
 71
     2
 72
     2
 73
     0
 90
        0
 40
-0.6
 41
-30.0
 62
     5
 63
     7
421
 16777215
 74
     1
 91
        4
 64
     7
 65
   257
 75
     1
175
     1
 42
1.0
 92
       12
 66
     7
 43
1.0
 76
     1
 77
     6
 78
     2
 67
     7
 79
     5
170
     0
171
     0
290
     0
174
     0
 93
        1
 44
0.0
173
     0
291
     1
 45
0.0
1001
ACAD
1000
AcDbSavedByObjectVersion
1070
     0
  0
VISUALSTYLE
  5
30
102
{ACAD_XDICTIONARY
360
824
102
}
102
{ACAD_REACTORS
330
29
102
}
330
29
100
AcDbVisualStyle
  2
Wireframe
 70
     5
 71
     0
 72
     2
 73
     0
 90
        0
 40
-0.6
 41
-30.0
 62
     5
 63
     7
421
 16777215
 74
     1
 91
        4
 64
     7
 65
   257
 75
     1
175
     1
 42
1.0
 92
        0
 66
   257
 43
1.0
 76
     1
 77
     6
 78
     2
 67
     7
 79
     3
170
     0
171
     0
290
     0
174
     0
 93
        1
 44
0.0
173
     0
291
     0
 45
0.0
1001
ACAD
1000
AcDbSavedByObjectVersion
1070
     0
  0
VISUALSTYLE
  5
3C
102
{ACAD_XDICTIONARY
360
83C
102
}
102
{ACAD_REACTORS
330
29
102
}
330
29
100
AcDbVisualStyle
  2
X-Ray
 70
    25
 71
     2
 72
     2
 73
     1
 90
        1
 40
0.5
 41
-30.0
 62
     5
 63
     7
421
 16777215
 74
     1
 91
        0
 64
     7
 65
   257
 75
     1
175
     1
 42
1.0
 92
        8
 66
     7
 43
1.0
 76
     1
 77
     6
 78
     2
 67
     7
 79
     3
170
     0
171
     0
290
     0
174
     0
 93
       13
 44
0.0
173
     0
291
     0
 45
0.0
1001
ACAD
1000
AcDbSavedByObjectVersion
1070
     0
  0
DICTIONARYVAR
  5
79
102
{ACAD_REACTORS
330
76
102
}
330
76
100
DictionaryVariables
280
     0
  1
1:1
  0
DICTIONARYVAR
  5
78
102
{ACAD_REACTORS
330
76
102
}
330
76
100
DictionaryVariables
280
     0
  1
STANDARD
  0
DICTIONARYVAR
  5
77
102
{ACAD_REACTORS
330
76
102
}
330
76
100
DictionaryVariables
280
     0
  1
STANDARD
  0
DICTIONARYVAR
  5
80B
102
{ACAD_REACTORS
330
76
102
}
330
76
100
DictionaryVariables
280
     0
  1
0
  0
DICTIONARYVAR
  5
80C
102
{ACAD_REACTORS
330
76
102
}
330
76
100
DictionaryVariables
280
     0
  1
0
  0
DICTIONARYVAR
  5
80A
102
{ACAD_REACTORS
330
76
102
}
330
76
100
DictionaryVariables
280
     0
  1
2
  0
DICTIONARYVAR
  5
809
102
{ACAD_REACTORS
330
76
102
}
330
76
100
DictionaryVariables
280
     0
  1
1
  0
DICTIONARYVAR
  5
80D
102
{ACAD_REACTORS
330
76
102
}
330
76
100
DictionaryVariables
280
     0
  1
2
  0
DICTIONARY
  5
1A
330
19
100
AcDbDictionary
280
     1
281
     1
  3
ACAD_XREC_ROUNDTRIP
360
816
  3
BUMPTILE
360
1C
  3
DIFFUSETILE
360
1B
  3
OPACITYTILE
360
1F
  3
REFLECTIONTILE
360
1E
  3
REFRACTIONTILE
360
20
  3
SPECULARTILE
360
1D
  0
DICTIONARY
  5
12
330
11
100
AcDbDictionary
280
     1
281
     1
  3
ACAD_XREC_ROUNDTRIP
360
815
  3
BUMPTILE
360
14
  3
DIFFUSETILE
360
13
  3
FBXASSET
360
109
  3
OPACITYTILE
360
17
  3
REFLECTIONTILE
360
16
  3
REFRACTIONTILE
360
18
  3
SPECULARTILE
360
15
  0
DICTIONARY
  5
22
330
21
100
AcDbDictionary
280
     1
281
     1
  3
ACAD_XREC_ROUNDTRIP
360
817
  3
BUMPTILE
360
24
  3
DIFFUSETILE
360
23
  3
FBXASSET
360
BA
  3
OPACITYTILE
360
27
  3
REFLECTIONTILE
360
26
  3
REFRACTIONTILE
360
28
  3
SPECULARTILE
360
25
  0
DICTIONARY
  5
810
330
67
100
AcDbDictionary
280
     1
281
     1
  3
ACAD_XREC_ROUNDTRIP
360
811
  0
DICTIONARY
  5
80E
330
65
100
AcDbDictionary
280
     1
281
     1
  3
ACAD_ROUNDTRIP_2008_TABLESTYLE_CELLSTYLEMAP
360
80F
  3
ACAD_XREC_ROUNDTRIP
360
848
  0
DICTIONARY
  5
822
330
2F
100
AcDbDictionary
280
     1
281
     1
  3
ACAD_XREC_ROUNDTRIP
360
823
  0
DICTIONARY
  5
820
330
2E
100
AcDbDictionary
280
     1
281
     1
  3
ACAD_XREC_ROUNDTRIP
360
821
  0
DICTIONARY
  5
82E
330
35
100
AcDbDictionary
280
     1
281
     1
  3
ACAD_XREC_ROUNDTRIP
360
82F
  0
DICTIONARY
  5
836
330
39
100
AcDbDictionary
280
     1
281
     1
  3
ACAD_XREC_ROUNDTRIP
360
837
  0
DICTIONARY
  5
828
330
32
100
AcDbDictionary
280
     1
281
     1
  3
ACAD_XREC_ROUNDTRIP
360
829
  0
DICTIONARY
  5
82C
330
34
100
AcDbDictionary
280
     1
281
     1
  3
ACAD_XREC_ROUNDTRIP
360
82D
  0
DICTIONARY
  5
846
330
41
100
AcDbDictionary
280
     1
281
     1
  3
ACAD_XREC_ROUNDTRIP
360
847
  0
DICTIONARY
  5
834
330
38
100
AcDbDictionary
280
     1
281
     1
  3
ACAD_XREC_ROUNDTRIP
360
835
  0
DICTIONARY
  5
818
330
2A
100
AcDbDictionary
280
     1
281
     1
  3
ACAD_XREC_ROUNDTRIP
360
819
  0
DICTIONARY
  5
81A
330
2B
100
AcDbDictionary
280
     1
281
     1
  3
ACAD_XREC_ROUNDTRIP
360
81B
  0
DICTIONARY
  5
81C
330
2C
100
AcDbDictionary
280
     1
281
     1
  3
ACAD_XREC_ROUNDTRIP
360
81D
  0
DICTIONARY
  5
81E
330
2D
100
AcDbDictionary
280
     1
281
     1
  3
ACAD_XREC_ROUNDTRIP
360
81F
  0
DICTIONARY
  5
826
330
31
100
AcDbDictionary
280
     1
281
     1
  3
ACAD_XREC_ROUNDTRIP
360
827
  0
DICTIONARY
  5
842
330
3F
100
AcDbDictionary
280
     1
281
     1
  3
ACAD_XREC_ROUNDTRIP
360
843
  0
DICTIONARY
  5
832
330
37
100
AcDbDictionary
280
     1
281
     1
  3
ACAD_XREC_ROUNDTRIP
360
833
  0
DICTIONARY
  5
844
330
40
100
AcDbDictionary
280
     1
281
     1
  3
ACAD_XREC_ROUNDTRIP
360
845
  0
DICTIONARY
  5
82A
330
33
100
AcDbDictionary
280
     1
281
     1
  3
ACAD_XREC_ROUNDTRIP
360
82B
  0
DICTIONARY
  5
840
330
3E
100
AcDbDictionary
280
     1
281
     1
  3
ACAD_XREC_ROUNDTRIP
360
841
  0
DICTIONARY
  5
83E
330
3D
100
AcDbDictionary
280
     1
281
     1
  3
ACAD_XREC_ROUNDTRIP
360
83F
  0
DICTIONARY
  5
838
330
3A
100
AcDbDictionary
280
     1
281
     1
  3
ACAD_XREC_ROUNDTRIP
360
839
  0
DICTIONARY
  5
83A
330
3B
100
AcDbDictionary
280
     1
281
     1
  3
ACAD_XREC_ROUNDTRIP
360
83B
  0
DICTIONARY
  5
830
330
36
100
AcDbDictionary
280
     1
281
     1
  3
ACAD_XREC_ROUNDTRIP
360
831
  0
DICTIONARY
  5
824
330
30
100
AcDbDictionary
280
     1
281
     1
  3
ACAD_XREC_ROUNDTRIP
360
825
  0
DICTIONARY
  5
83C
330
3C
100
AcDbDictionary
280
     1
281
     1
  3
ACAD_XREC_ROUNDTRIP
360
83D
  0
XRECORD
  5
816
102
{ACAD_REACTORS
330
1A
102
}
330
1A
100
AcDbXrecord
280
     1
102
MATERIAL
148
0.0
149
0.0
149
0.0
 93
        0
 94
      127
282
     0
 72
     0
 77
     0
171
     0
175
     0
179
     0
273
     0
  0
XRECORD
  5
1C
102
{ACAD_REACTORS
330
1A
102
}
330
1A
100
AcDbXrecord
280
     1
270
     1
271
     1
  0
XRECORD
  5
1B
102
{ACAD_REACTORS
330
1A
102
}
330
1A
100
AcDbXrecord
280
     1
270
     1
271
     1
  0
XRECORD
  5
1F
102
{ACAD_REACTORS
330
1A
102
}
330
1A
100
AcDbXrecord
280
     1
270
     1
271
     1
  0
XRECORD
  5
1E
102
{ACAD_REACTORS
330
1A
102
}
330
1A
100
AcDbXrecord
280
     1
270
     1
271
     1
  0
XRECORD
  5
20
102
{ACAD_REACTORS
330
1A
102
}
330
1A
100
AcDbXrecord
280
     1
270
     1
271
     1
  0
XRECORD
  5
1D
102
{ACAD_REACTORS
330
1A
102
}
330
1A
100
AcDbXrecord
280
     1
270
     1
271
     1
  0
XRECORD
  5
815
102
{ACAD_REACTORS
330
12
102
}
330
12
100
AcDbXrecord
280
     1
102
MATERIAL
148
0.0
149
0.0
149
0.0
 93
        0
 94
      127
282
     0
 72
     0
 77
     0
171
     0
175
     0
179
     0
273
     0
  0
XRECORD
  5
14
102
{ACAD_REACTORS
330
12
102
}
330
12
100
AcDbXrecord
280
     1
270
     1
271
     1
  0
XRECORD
  5
13
102
{ACAD_REACTORS
330
12
102
}
330
12
100
AcDbXrecord
280
     1
270
     1
271
     1
  0
XRECORD
  5
109
102
{ACAD_REACTORS
330
12
102
}
330
12
100
AcDbXrecord
280
     1
 70
     1
 90
1959938040
 71
     1
  1
A77EE5AE-00CF-40ED-ABBF-5299B6A2CB3E
311
504B03040A00000800002FA2E8423DEE336E79000000790000001B0000006175746F6465736B2D64657369676E2D7061636B6167652E786D6C3C3F786D6C2076657273696F6E3D22312E302220656E636F64696E673D227574662D3822203F3E3C666F726D6174733E3C666F726D61743E687474703A2F2F736368656D612E
311
6175746F6465736B2E636F6D2F64657369676E2D7061636B6167652F323030393C2F666F726D61743E3C2F666F726D6174733E504B03041400060808002FA2E842D486FD9CA0000000F4000000130000005B436F6E74656E745F54797065735D2E786D6C7D8EC10E82300C865F65E91D8A1E8C310C0EEA1BF002731658846E
311
D98AC1B77784ABF1D8FE5FBFBF75BBCE937A534CCEB38643598122B6FEE978D0B0485F9C41B54DDD7D022595594E1A469170414C76A4D9A4D207E29CF43ECE46F218070CC6BECC4078ACAA135ACF422C856C0E68EA1BF5669944DDD7BCDE7B1F8E415D77AECB980613C2E4AC91FC167A2B244592486606FC29C8FD7F045B9A
311
EF7053A7E60B504B03041400060808002FA2E842361DEE69EB0000007C01000008000000636F72652E786D6C8D90D18E832010457F85CCEB0605ADD5364853BBF60BF60708504B5AC10834FBF98BAD4D76DFF6656672B987995C76F81EEFE8A1676F9C6D81660490B6D22963871662B8E006D081B3D9B9F0CB06C88A51B7B0
311
C8C0D930BB38AD927436681B926A9DD2AB28BCD70190BCA7A1052FAF7A1499882139FC2D9B84BC894167F43D253846A3D06B8951E93F73317A06DED7A7A6AB8E3B5C7E161DDEF4D519773495DDB6DFD6E7B23A6DFA8EE50BCC5930E37BBF9CB5085A012F082D31A93169BE0AB2A7F5BE241FA44A95E58BFD0F1427F54F281A
311
1BCA623DF78579E0341DF27CE02C5FB248ED1954EA4B6EFC07504B03041400060808002FA2E84255019EA25F0000007C00000007000000636E782E786D6C4DCB3B0E80201045D1AD90E915ED2CF8AC45050C11660C8261F98AB1B07AC9C97D42D718D865D3E909258CFD00CCE24AC6E326A164D74DC0B4128928FF32603847
311
2BA13128B1252AC747C6BAB984FC68F0B87FE8960A5C09FE86CFB69FBA01504B03041400060808002FA2E8429778ADC467010000020300000C0000006662782F636F72652E786D6C8D525B6E833010BC8AE5DF0ACC23E425E3A8A4E404BD80030EB502363236CAF1BB3C229A2A8A22A4C59ADDD99D1D9B1E6E4D8D7A613AA9
311
558A433FC048A8429752552976F6E26D313A306AB4B67FCA3052BC11291E60CC6865B46B67A8D0CA0A650155BA1433C8BB4E588C8A1A0E29EE8A1FD1709F3B0B15DDD56F7971E595F0431FD250C768670D0840D39021627639DF289970469D93E59C95254C9317290C66F9E6B8CD92CF9D177F4599B7CA939397851076EB7C
311
BD39C5C9719567940C6446AD6CEEEA0A23B81525665110C65EB0F182ED7714ECC3CD3E0E3E8204222543F903C9B5E59B2427958DA359EE44EB300B41C898F8B72D586451C77BD04318258389F01B1D7E341A0C01932D3FD7F73DAE00F5A2B0DAAC20536AB7A47A5E3B015303347E944C59E83C3680CD9EF6895EF479DD032E
311
90AB0AA4710BC7B3B3C3743A4D9DAD6885F17A7B434A9B86D78BB849E21297414FE985AEB579874DE655C96C26195E2FFB05504B03041400060808002FA2E842FFF7593A7D0000009D0000000B0000006662782F636E782E786D6C4DCCD10A83201886E15B91FFDC3567E90ED450E685C4B290990EA7D1E5AF46073BFAE0E1
311
E315FDB604B4BAFCF1294A20972B20179F69F4719650CB84EF807A25724AE5EF06280E8B9370302831E754DF278D6E1A6A28BB061F5F27124B35D5B70E53DD32DC72C2B0319C616B8DE93827F6A12D344A34BFD2BE47587D01504B03041400060808002FA2E842C7945C0D2C01000015020000310000006662782F31453341
311
334132352D334134362D343731362D424237362D4545424235373731454441452F636F72652E786D6C8D515B6E833010BC0AF257AACA60631E69641C81CA0D7A01024E6225D8C88F2AC7EFBA10A9FDCB8FD79A9D991DEDF2E363BE27DFD23A657483684A5022F56826A52F0D0AFE8CF728390A6E8DF17F6828D1C32C1B1461
311
24F8C59AB06CD068B497DA03AACD243770704E7A948C77F834C88D57390FE9103C30DC2D5D86F1365C644A5368034F70E72D0448D621F14582F6AC656D5E62D616152E6A5AE1AEAB2BDCF75D57D635ED3FDB9E67AB50F010D4B4C9D50471D45949FBAA49140BEED5FC8C3F5A397839219113CA30A931D97FE5E440EB0323EF
311
A484976791FE4F1496E9455150DAB37C8BBBCA1C64E5D9DA107C32E1747F86918FC5589FC4793B27C73724484AC89E920F96973C5BB9B00130AD8ACDD4796361C3BBDB09E81458D1B92A04CFE291A0FC5E106A3CA8F801504B03041400060808002FA2E84233EC5D444D01000033030000300000006662782F314533413341
311
32352D334134362D343731362D424237362D4545424235373731454441452F636E782E786D6CD593BB6E023110457FC5721BED0B0820E435528A7C418AB45E7B0083D75EF91185BFCF180CA1A1489966B4BA7367EEE8C8CBB6DFA3215FE08376B6A75DDD5202563AA5EDBEA729EEAA35255BCEBC73F1C146891523F434CB94
311
B3BD77692A92829D4826A26AB43D15D14370C94B0828E749629C14061780AD128A300EA014287237E2D70E3C9E82E27026F100E4FDED93B8E1083206D6E42D9C353983B35C4BD28389126944083D0DF200A3A8458A4E4138D54A445177F52DEBC94DBF9B481EB84526AF490EEF69AE94978B6AE4C81A6C7216A2477AC514CF
311
13502EA6C9682922426E2EC6AB87B3A46D5C2E8A5723788FEE6E395F2C70D9A5C759D4231487F4202228CA676D37AFDA55D5AE3F66EDA65B6DE6ED4BFB8A9535D9CED9E09C2943B806BC9B887436828D9477ACC9ED67F88A8F28ED91B5F3E73F80440025F54AE7BEE33FF3692EEF1B7179FC0BF80F504B0304140006080800
311
2FA2E84276580D72A405000081100000340000006662782F31453341334132352D334134362D343731362D424237362D4545424235373731454441452F6F626A656374732E786D6CAD57D96EDB3814FD1541F332F360CB5BD264A0A8F096C268D316355ACC830183962885136A0149A5CE7CFD1C8A942CB976EA19F4450B97
311
CB7BCF3D77A1FF769F72E7990AC9F2ECCE1DF607AE43B3308F5896DCB9A58A7B37AEF336F0459EABD632D7C9484AEF5C3DEC067E22F2B2B043118D49C9D5D1E8FDEC2F478634A3AE137222E59D2BC3479A923E29551E51F9D48F8822FD24DEF7877DB3B02B3611A4783C125A104133054D319E418A63941A767F07AE17F89E
311
9E0F7CFDB4ABC6E75779953DDDF3592615C9C21F0E3B12331E4E16CBD1D56DEF6A3219F726D7A3616F763F5BF4866FC683F9F57C7E3B5DDEE260A90424594D048DDDE01DB0112CF43D3315F825CBD4786497580779823E33ED2937183943DF336B1AEBAC91A7D40FF32CA3618515D0A8ECB3A2235AD02C82CF1995D0AC85D0
311
A0FB3BD438B6A6C7FADF1ED91EBE0C81F68E96A05AF7FADDD634DFFD0D13E4250C12926A061A2CADA186AB8303C2BB3CE7768E4927258A0A46B8C3D94E10F1E20658AA97047E478C66B2D0D1A02D700378C14C77E98230FA39CF4F6919979C6B1ABB4115055BC40A55B2D28CFD43C541FB3632D009BED26CB8B106A99782BA
311
C1ADA1C8CD119B0C904ECC490297C34CBD733C3A3274AEE374B57083F7F7BBFD5AC7EEE9C30B911754284D1F50AB765CFDD628599D8617794E6F708F543980F205C87F44A81F5481DF04DB4FF6137B8A122493712E52F8C61938BD011E0367583DF577EBCBF79ACD5DEF9DC313CED650FD023CBB36B47DD98233F09F41F85C
311
8CAD69EB9070A48D079601204D1287E718421E8E777B375821CB212B6317E1C1102643DD677CFA9E158344519DD47A67C0F2282D5E90A0015BC548A861C86F153CF8E98774561D6C979D83F7EA97D075BA58BF5F972226217DB031BDA031CB9842893BF0A6AD5007F38E454FF4E57B2E2218FA23DEEB36DEA93D4A026D8DB9
311
063EA973BAFE399CDC3920C4BE24D7E9C6FFC909304217D696FC072643CA39C9685ED6E7BE5A3F50360CC43AD835939B0273282C208D99398A4114E950B04283D854AB2669F6CF58F775F5118C7483D9CB07F2D2CE5EBB43EE0D739E8BEDEE656BD2D249A8BF75B96D31F0B414D0BD0A923AFE2DE8DB88C5712991044FE0FA
311
6D356FFB4EA705A4885AAA899609EC47701161495BCB45B516049534CFB60C75137177F280B67C406A1950093CA7B1A43CDE32CECB741B338E6AB44D4971068EFFAFFFAE4C8B2D49F33253676477544775E8EADE61AFFC4E54F8E806EBEADD9B21F746343A43065D4B4E60D571EDF4CD9BE5F26ABAEC0D06F3FBDE64B05CF4
311
A6B3D97DEF6A747B3BBB9E8EE6B3F1B2F693D124F0EB52D38E687809A5CD2F05B3EEFBBA42FCD824E0060F44C9CD3B139EF5FBEBAA8F5ED8F7B007F5B2D9388D9ED1F7D1E8E7020E2B4F0A5AA505A729CD14D131F4A03FF817823EA3A38C195FA524A11748F9F46E7D640C462ED8F759C73BFD7EB4D78ECE75409E14A21ECB
311
749711C68F362606C97E912516BFDA27CDDB149AFA57FF59C7A03395396711F260E424344FA94236BCA00889944A50AFDDD347F6EE71C1EE67D3212AB2E3B4D6E491A049E61261016A95A1EA8E3BBFA1A9D37DD59D8B72DB7FC2C3660AD70167EE5C34E98A8554F67728D0BA15AA84834BED4E1E8D3FC9128E5EDB6C6AFE9B
311
5D1A9B4E496E965CD23F59BB4C0AB706208D14E81BD010C13B9532815FE966E7C3FF6478AD8E43143E77A56A6C390C34C654C720448D51F6B68026E6C91EBD47A0BE6ED6B05FADE92072D12DEB551218A93D454452DD14B47E56A5E9E2B3870EC5597D720A5E26F0E5E5927A8282CCA50E70B008ACB0320BA240D5F99F9BCF
311
22C74D3675EE1928E0FCBEBFB9FE6333CFD334CFCCD0666AEFC3CEFA11B7DB6883E440F5B5446E4683E168535D07EC0D65BB2392F649249F3000CF0AD600DD713F7869EE8CA84366A259E769571C3174B5706C619B40A8A54B3BB76A70D07864D4410CE92BA58E98F682E2D51B81572D850A02BD7CF02F504B030414000608
311
00002FA2E842000000000000000000000000350000006662782F31453341334132352D334134362D343731362D424237362D4545424235373731454441452F76657274696365732E62696E504B03041400060808002FA2E842F270F1330600000004000000360000006662782F31453341334132352D334134362D34373136
311
2D424237362D4545424235373731454441452F747269616E676C65732E62696E636660600000504B03041400060800002FA2E842000000000000000000000000370000006662782F31453341334132352D334134362D343731362D424237362D4545424235373731454441452F617474726962757465732E62696E504B0304
311
1400060808002FA2E842D5987DFC8F00000041010000360000006662782F31453341334132352D334134362D343731362D424237362D4545424235373731454441452F6469726563746F72792E786D6C858F410EC2201045AF4266AF15DDB800BA74E7C21B903225242D6328188F2FA5C4183471359997F9FF81E89FF3C41E
311
1816475E02DF1F80A11FC8386F25A438EECEC07A250251FC3803E6F58C12560C4AD840E95E91C151A72936F496F35732D860FE635F62C8F2DA16B505C545B74125BAA2FA9E05D7CC053D063734D5C7665FD55B6B8D15D5E9BFEAFD8490FFA45E504B03041400060808002FA2E84225B6C0F1FD000000A00100003B00000066
311
62782F31453341334132352D334134362D343731362D424237362D4545424235373731454441452F7265736F75726365732F636F72652E786D6C8D504B6E833010BD8A35DB0A301002898CA3929213F4029699502BC18EFCA97AFCDA814AEDAE9B99D1FB689E1E3B7D2D77F289D629A37B28730A04B53493D2730FC15FB30E
311
C889336B8CFF2503A2C5823D2418389BAD098F0D92467BD43EA2DA4CB881C239F440E43D1E3D38F9818BC845F051E16EF943C89B98312FF348471D67CEDB1880AC4FD2046ED19960253A56AC2C6721A869D3A829FE54578516F8D89EBBA179EDB2FAAD1AB2DDD85CB2A18CE3B01FF7EDA56ECEBB7160453273E6D5F293515A
311
141E27E0152DEB8CB619EDDE2B7A2CDB634D5F6813272B92FC8F293CA67F9A82D2BEAEB6B8ABCD012F639027C15991FA8AEB5966DCA95BFE0D504B010214000A00000800002FA2E8423DEE336E79000000790000001B00000000000000000000000000000000006175746F6465736B2D64657369676E2D7061636B6167652E
311
786D6C504B010214001400060808002FA2E842D486FD9CA0000000F40000001300000000000000000000000000B20000005B436F6E74656E745F54797065735D2E786D6C504B010214001400060808002FA2E842361DEE69EB0000007C010000080000000000000000000000000083010000636F72652E786D6C504B010214
311
001400060808002FA2E84255019EA25F0000007C000000070000000000000000000000000094020000636E782E786D6C504B010214001400060808002FA2E8429778ADC467010000020300000C00000000000000000000000000180300006662782F636F72652E786D6C504B010214001400060808002FA2E842FFF7593A7D
311
0000009D0000000B00000000000000000000000000A90400006662782F636E782E786D6C504B010214001400060808002FA2E842C7945C0D2C0100001502000031000000000000000000000000004F0500006662782F31453341334132352D334134362D343731362D424237362D4545424235373731454441452F636F7265
311
2E786D6C504B010214001400060808002FA2E84233EC5D444D010000330300003000000000000000000000000000CA0600006662782F31453341334132352D334134362D343731362D424237362D4545424235373731454441452F636E782E786D6C504B010214001400060808002FA2E84276580D72A40500008110000034
311
00000000000000000000000000650800006662782F31453341334132352D334134362D343731362D424237362D4545424235373731454441452F6F626A656374732E786D6C504B010214001400060800002FA2E84200000000000000000000000035000000000000000000000000005B0E00006662782F3145334133413235
311
2D334134362D343731362D424237362D4545424235373731454441452F76657274696365732E62696E504B010214001400060808002FA2E842F270F13306000000040000003600000000000000000000000000AE0E00006662782F31453341334132352D334134362D343731362D424237362D454542423537373145444145
311
2F747269616E676C65732E62696E504B010214001400060800002FA2E8420000000000000000000000003700000000000000000000000000080F00006662782F31453341334132352D334134362D343731362D424237362D4545424235373731454441452F617474726962757465732E62696E504B01021400140006080800
311
2FA2E842D5987DFC8F0000004101000036000000000000000000000000005D0F00006662782F31453341334132352D334134362D343731362D424237362D4545424235373731454441452F6469726563746F72792E786D6C504B010214001400060808002FA2E84225B6C0F1FD000000A00100003B00000000000000000000
311
000000401000006662782F31453341334132352D334134362D343731362D424237362D4545424235373731454441452F7265736F75726365732F636F72652E786D6C504B0506000000000E000E0080040000961100000000
310
504B03040A00000800002FA2E8423DEE336E79000000790000001B0000006175746F6465736B2D64657369676E2D7061636B6167652E786D6C3C3F786D6C2076657273696F6E3D22312E302220656E636F64696E673D227574662D3822203F3E3C666F726D6174733E3C666F726D61743E687474703A2F2F736368656D612E
310
6175746F6465736B2E636F6D2F64657369676E2D7061636B6167652F323030393C2F666F726D61743E3C2F666F726D6174733E504B03041400060808002FA2E842D486FD9CA0000000F4000000130000005B436F6E74656E745F54797065735D2E786D6C7D8EC10E82300C865F65E91D8A1E8C310C0EEA1BF002731658846E
310
D98AC1B77784ABF1D8FE5FBFBF75BBCE937A534CCEB38643598122B6FEE978D0B0485F9C41B54DDD7D022595594E1A469170414C76A4D9A4D207E29CF43ECE46F218070CC6BECC4078ACAA135ACF422C856C0E68EA1BF5669944DDD7BCDE7B1F8E415D77AECB980613C2E4AC91FC167A2B244592486606FC29C8FD7F045B9A
310
EF7053A7E60B504B03041400060808002FA2E842755DD285EA0000007C01000008000000636F72652E786D6C8D904D6EC3201085AF82665B6183EDC428C24489DC9EA01740401C94182C7EAA1EBF3871A476D70D337ABC6F66F4F8F17BBEA32F13A2F56E005A1140C629AFAD9B06C8E98219A0A3E0C1FBF4CB06C8C9D90CB0
310
CA20F8147C5E364979978C4B45755E9B4D94319A0448DD4B3340545733CB4AE6541CF1562D52DDE4642AFAEA0A9CB3D5E8B9C4EA32CF5EAC09204EBBFE3CB2F6843BB21F7177661D668C7CE0B1ED68BFA794BCF784D72B2C78B2F36BBF0A4626A3413484B698F498B0CF861C687F68C91BD99597D7ABFD0F9417FD4F285B97
310
DA663BF7894510B41CF2F810BC5EB328E51154A96B6EE207504B03041400060808002FA2E84255019EA25F0000007C00000007000000636E782E786D6C4DCB3B0E80201045D1AD90E915ED2CF8AC45050C11660C8261F98AB1B07AC9C97D42D718D865D3E909258CFD00CCE24AC6E326A164D74DC0B4128928FF326038472B
310
A13128B1252AC747C6BAB984FC68F0B87FE8960A5C09FE86CFB69FBA01504B03041400060808002FA2E8427908F37166010000020300000C0000006662782F636F72652E786D6C8D52ED8A8330107C9590BF474CFC689512535A7AF704F702A9A69E54138989F4F16FFD285E8F528A10C3CCCEEEEC28DFDFDA060DCAF6B5D1
310
390E038691D285296B5DE5D8BB0BC930DA0B6E8D717FCA30D2B255391E612C78658DEF16A830DA29ED00D5A6540B28FB5E398C8A062E39EE8B1FD5CA407A0715FD35E8647195950AC20068A813BC77160CA079C878627139DF389D71C1BDAFCB85AD4B98565F6A65B1386CD2E3298B0F2461DB13498E5942B28C7D91539C84
310
E9360CD967CA381DC582BBBABDBB2BAC924E9558442C8C094B09CBBE23B60BD35DCC3ED8064E4EC7F20791EFCA3745BED62E8E16BBB3ACC722042313F16F5B88C8A15E0EE0870A4EC710E13525FC18340402213B796EEE7B5C011A54E18C4D80298D5FA941365EC15486A687D39985CE5303D8EC699FE8459FD73DE0034A5D
310
8135E9E07AF66E9CCEE7A94B149DB2647037A48D6D65B39A9B2DAEE73AE8A9BC308DB1EFA8E9B22A5DC2A4E3DF2B7E01504B03041400060808002FA2E84225A71E197D0000009D0000000B0000006662782F636E782E786D6C4DCCD10A83201886E15B91FFDCA5B149821ACEEA3E6259C84CC3E9D8E5AF46073BFAE0E1E315
310
ED67F5E86DD3CBC520815E08201B1E7172619150F28C1B40AD1229C6FC770314C6D54A38189458522CDB49939DC7E2F3AEDE85E789CC908E75B71A1BC6077CADEF1A73427BACE9C0A9363D61A4814A89EA57DAF708AB2F504B03041400060808002FA2E842A99307E12C01000015020000310000006662782F364330443644
310
35322D433639462D343242412D393031452D4131463931414345303630382F636F72652E786D6C8D515B6EC23010BC8AE52FAACAC9DA092120C788F238412F1012432D881DF95171FCDA4D90DA3F7EBCD6ECCCEC68976F1FC31D7D4BEB94D10DA619602475677AA5AF0D0EFE426A8CB6825B63FC1F1A46BA1D6483138C05BF
310
5A13C619EA8CF652FB886AD3CB196C9D931EA3EE1E3F0D76DD971CDAAC0D3E32DC2D1BDBEED65E6546B3D88E3CC19DB731009A86A4178B6A0F87EAB064645FAD4FA4641F3BB2067A243B7A5AD3DDFE0815D43C9F848287A0FA59AEFA18475D94B4AF9A24B1E05E0DCFF89D95AD973D160C68416045A0FE64B0A1AB4D01EFB0
310
8C2FCF13FD9F288CFD8BA2A0B42FD81C7792392C28CFA786E0BD09E7FB338C7C8CC67A94E62D9CECDEB0800CA02E81AD18E3F9C48D1B88A655399B3A6F6CDCF0E2768EF46276AE4AC1F374A4587E2F186B3AA8F801504B03041400060808002FA2E842554B92535501000033030000300000006662782F3643304436443532
310
2D433639462D343242412D393031452D4131463931414345303630382F636E782E786D6CBD934D6EC3201085AF82D856FE8BD3C48A3091BAE809BAE816C324A1C16001AE9ADB7748489A4D1695AA6E46D69B37F3469F30DB7E8D867C820FDAD99E36654D0958E994B6FB9ECE715774946C39F3CEC53B1B25568CD0D32453CE
310
F6DECD539614ECC46C22AA46DB63163D04377B0901E534498C93C2E002B0C58C228C0328058ADC8CF8B5038FA7A0389C483C00797D79276EF8001903ABD216CEAA94C159AA39E9CE44893422849E0679805194628E4E4138964A445136E535EBC14D3F9B481AB846CE5E9314DED35429CF1795C89155D8E42C448FF4B2299E
310
26A05C4C93D15244845C9D8D170F67B3B671B5CC5E8DE03DBADBC5AAEB70D9B9C759D4236487F4202228CA1775D316F5BAA8BBB745BD69D69BB67EAA9FB1B22AD9391B9C337908D780771391CE46B091F28655A9FD085FF611A53DB276FEF40B900820A75EE8DC76FC259F66D52E97FFC8A73ABF6FC4E5F12FE0DF504B0304
310
1400060808002FA2E842FE73A5FD670700009A1B0000340000006662782F36433044364435322D433639462D343242412D393031452D4131463931414345303630382F6F626A656374732E786D6CED595B73A33816FE2B14FB32FB606C7C4977A60853B69374B96633D3359E9EDA07575132C8441B212849A4E3FDF5737401
310
033109DEC9BECD830D08E9E89CEF5C75087E7AC9A8F38CB92039BB717D6FE23A98C57942587AE396F230FAEC3A3F8501CF73D998E63A0C65F8C655C36E18A43C2F0B3B94E0032AA9EC8CDEAFFEED881833EC3A314542DCB8227EC419F25029F3048B272F411279E9E1C5F33D33B14D36E5A878EC102D10C74C02A730CE808A
310
6398F2DB8F13771C0663F53E0CD4BF9D351B346BDE3F6BACA56E7349989088C5AF58EA90990D6269E6CF6FEFA68BEBD1623E9F8DE657537FB4BA5FDD8EFC4FB3C9FA6ABDBE5EDE5D037BFB3CA756A604179825A0BFA31BFAC158BDA945B7089CE33ACE19C3B10612A0D2627509122C60AB067C93F6A3AF246ABCD612369EE7
310
EABD65A1313C6B53E99B350C88165D10C46E57495C5D9BF2E5FBFF80E0628851728125702B2407ED5A783878851B4E82B1190D83FD4917443819929813441D4AF61C71500A4C5553C2C02CB06494737020E52809B4E6CCEBB66D8167BEEF3AE7B83C94942ACF7043ED5811B81F96427346FE8BF989FB2632C013485B12263F
310
5B2EE5B1C06E781D8CF56018A8CB6C6A5F1A209D0345A9D08898B71D41D7CAF537B76EF8F3FDFE65ABC2C1F9CD0B9E17984B65744A8F9A2F30647B5528D96DFD419A530B401803AA5D7902E53740FE17881E2756406F9CBCCC5FE676AEE4888943CE33D08D33714613F89B38BEFE57F78DBB605C2F6E6BAF0F4F705305D5E7
310
BF8E675B068D95E5BF0167183C83C1E77C665F6D6344C19E1F08038094913834872108ED87FD8B1B6E207042A0875588863E880CEC3EC36D30B6644E5AA9DCCB7A1D0344ED1EB3214A02D8B445021B3D7AFA02D98393F8A4A6A6887DF02E3EC45C97B7DB9FB7253FA0183F589FBEC507C28884AC799EA116E62D899EF0F17B
310
CE1310F435DEDB26DE99DD4A00DA0A73057C5A81A01E4E3BB73688615D9AAB7013BCB30308A1727583FE031131A614319C97D5BE757453865A7BBCAD19DC706A209E4D3B26CCF13351550538CD69468B51C8FB31278502D10DBF18C9EAA0E9F548F76DF30B58643DBF67D68641E86588FEAE83D6191C5A965D216D81A805DE
310
9FC2799CD39C47FB6364229D0BB504B0D1F6963F5A4421D61B25292AE041DAEFAA90921A69A3841C0EA580B87A86C53F36EBA6394CBC99BF709AFF1D679C43B405DF45DCFA5D678F886428C5D101257DDB3577AB690B4DB28734C7070A729167228F1192D124C1E925D05C44FCFA43A9A7341782302C205F9D05BF89C6C483
310
4062B459B1ACB4DA019A8828C312D14B1050647AC0D56947D7B831940EEFF3585BEF5B1A6B12FD3F590447504BE62C22508A420E799771DF5B400C69A36B50EEE00BD656D1D662D0124A88F8187DC7247D9497A06EC8F7E01EC391A494515EA018CC7A00D957BEA294DAE17D8FE227953FA2B8A41F652002D34344282DB308
310
7E84C1C963886BD781E94D141AC44DEC933883A20CC9920FD9E46A3179B58FA919BA21B0B1D1815008DB51868A1ED45B0151D7234E0DBEA5DEA3D47D991511CAF2920D32146FD6F5264BBEAB56457620BFAA5484B2B1226C09860161B2CEAA55CC0653D78115DC4807AA6324505650730A7B27F1F8B53769CABD1B70EBA71F
310
BB4106855F8FF69A11755EC160796C1506E23B92F1A31B6EF575B482FA3BC1C929D557B566B30204C454242F39B12AFAB681F2C6D6686EF880A4D87D3159B7BA7EDB78D0FD08C6B0066A977AE146019D612691AA4C1ED40DFD0D41086ED130E31B95532FA1B24C125D35227A4FFAD4D92A235A9B66C42B1E31CB33F8B11D61
310
312D13BC4389788A1E248DB644B16EA5F4325261FCA680BF7ED976E0819101227D55051EFEDE596B47D7AA5C3A4B443E96D99E210241B0255A6A74E3152CB51AA9B45C5FD59902EA2E3030ABE2F9DF278B663BE2EF93456A0DE32F9D2C56C77FA163B32FD248E7B1B2EB8B8E01757E52543EE218A0DB0E35D53A8B98646EE5
310
B7CE144150ACA2FCE06AAC0A1A86601FC7FF73D6EECB8266BB0EFF97656DFF55C5715156694D565DAA3395EBA699C3969F3EDDDD2D9677A3C9647D3F9A4FEE6E47CBD5EA7EB4985E5FAFAE96D3F56A7657A3A91D350CEA60A673173C9BA0560DAB278B017465454E4902A7F9C44931C47C0967FA01ED739E6101C9B3D9EC4E
310
6C537EC0EA67D3E794684F71C5C9238206311590D601A33296ED71E71FD09A9470D0BE71A169E43DC19FB54AD781CC73E342AB4092180B6F0F6D26D5D0D3C421E5EADC6F89013E88A52A259A45F573BD4A61D30AFFF5942169C0CAD5EA6140E15640F7ABD5A1D0BC599EE28B04AFD8719084DB7D29A15A33B29C066A61F436
310
27F51BD928614F76EB1770DDB7C5F23D3DA785C8A04F066F1A81A13A9288A7BADFAD18B32C2D6FBF8EA1CFE66C7E750A5AA6A0CBE194461C833197AAA0022B02ABB0340B24C154D73FEEBEF21C3EF1648EAE8A9C1F5E3E5FFD73B7CEB32C676668B7845359021F8A9CED237CF64976503C60D55C17BBE9C49FEE7453DBF6D9
310
A33D12D85355110C54C58412A463726097AF1A54B67D3956AAE84CDFDC3A36882E80A8B6DD573D5EF391CB011F529F5394C7683FAFA47DB3AF3DD653C1263874A4C33F01504B03041400060800002FA2E842000000000000000000000000350000006662782F36433044364435322D433639462D343242412D393031452D41
310
31463931414345303630382F76657274696365732E62696E504B03041400060808002FA2E842F270F1330600000004000000360000006662782F36433044364435322D433639462D343242412D393031452D4131463931414345303630382F747269616E676C65732E62696E636660600000504B03041400060800002FA2E8
310
42000000000000000000000000370000006662782F36433044364435322D433639462D343242412D393031452D4131463931414345303630382F617474726962757465732E62696E504B03041400060808002FA2E842D5987DFC8F00000041010000360000006662782F36433044364435322D433639462D343242412D3930
310
31452D4131463931414345303630382F6469726563746F72792E786D6C858F410EC2201045AF4266AF15DDB800BA74E7C21B903225242D6328188F2FA5C4183471359997F9FF81E89FF3C41E1816475E02DF1F80A11FC8386F25A438EECEC07A250251FC3803E6F58C12560C4AD840E95E91C151A72936F496F35732D860FE
310
635F62C8F2DA16B505C545B74125BAA2FA9E05D7CC053D063734D5C7665FD55B6B8D15D5E9BFEAFD8490FFA45E504B03041400060808002FA2E842C894B144FC000000A00100003B0000006662782F36433044364435322D433639462D343242412D393031452D4131463931414345303630382F7265736F75726365732F63
310
6F72652E786D6C8D504B6E833010BD0A9A6D65B081041A19478D684FD00B586642AD041BF953F5F8B50395DA5D3733A3F7D13C3D7EFE5AEEC5273AAFAD198095140A34CA4EDACC03C470253D1467C19DB5E1970C0A23171C20C320F8EC6C5C77485913D084841A3BE10E4AEF3140A1EEE918C0AB0F5C642963480A7F2B57A9
310
6E72C69295894E3AC17D702940B13DC91384436FA353E879B5B182C7A8A75DA3A7F4535F353A102F87EE32F6CD3369E97124EDA56F49DFD33732362DEB8E8CD1D78EF22A9B050F7AF9C9A81CCA8013889AB286D08ED0FEBDA627D69D1AFA440F69F22ACBFF98E23AFDD314B5094DBDC7DD6C1E044B411E84E055EE2BAD4799
310
69E76EC537504B010214000A00000800002FA2E8423DEE336E79000000790000001B00000000000000000000000000000000006175746F6465736B2D64657369676E2D7061636B6167652E786D6C504B010214001400060808002FA2E842D486FD9CA0000000F40000001300000000000000000000000000B20000005B436F
310
6E74656E745F54797065735D2E786D6C504B010214001400060808002FA2E842755DD285EA0000007C010000080000000000000000000000000083010000636F72652E786D6C504B010214001400060808002FA2E84255019EA25F0000007C000000070000000000000000000000000093020000636E782E786D6C504B0102
310
14001400060808002FA2E8427908F37166010000020300000C00000000000000000000000000170300006662782F636F72652E786D6C504B010214001400060808002FA2E84225A71E197D0000009D0000000B00000000000000000000000000A70400006662782F636E782E786D6C504B010214001400060808002FA2E842
310
A99307E12C0100001502000031000000000000000000000000004D0500006662782F36433044364435322D433639462D343242412D393031452D4131463931414345303630382F636F72652E786D6C504B010214001400060808002FA2E842554B925355010000330300003000000000000000000000000000C80600006662
310
782F36433044364435322D433639462D343242412D393031452D4131463931414345303630382F636E782E786D6C504B010214001400060808002FA2E842FE73A5FD670700009A1B000034000000000000000000000000006B0800006662782F36433044364435322D433639462D343242412D393031452D41314639314143
310
45303630382F6F626A656374732E786D6C504B010214001400060800002FA2E8420000000000000000000000003500000000000000000000000000241000006662782F36433044364435322D433639462D343242412D393031452D4131463931414345303630382F76657274696365732E62696E504B010214001400060808
310
002FA2E842F270F13306000000040000003600000000000000000000000000771000006662782F36433044364435322D433639462D343242412D393031452D4131463931414345303630382F747269616E676C65732E62696E504B010214001400060800002FA2E84200000000000000000000000037000000000000000000
310
00000000D11000006662782F36433044364435322D433639462D343242412D393031452D4131463931414345303630382F617474726962757465732E62696E504B010214001400060808002FA2E842D5987DFC8F000000410100003600000000000000000000000000261100006662782F36433044364435322D433639462D
310
343242412D393031452D4131463931414345303630382F6469726563746F72792E786D6C504B010214001400060808002FA2E842C894B144FC000000A00100003B00000000000000000000000000091200006662782F36433044364435322D433639462D343242412D393031452D4131463931414345303630382F7265736F
310
75726365732F636F72652E786D6C504B0506000000000E000E00800400005E1300000000
  0
XRECORD
  5
17
102
{ACAD_REACTORS
330
12
102
}
330
12
100
AcDbXrecord
280
     1
270
     1
271
     1
  0
XRECORD
  5
16
102
{ACAD_REACTORS
330
12
102
}
330
12
100
AcDbXrecord
280
     1
270
     1
271
     1
  0
XRECORD
  5
18
102
{ACAD_REACTORS
330
12
102
}
330
12
100
AcDbXrecord
280
     1
270
     1
271
     1
  0
XRECORD
  5
15
102
{ACAD_REACTORS
330
12
102
}
330
12
100
AcDbXrecord
280
     1
270
     1
271
     1
  0
XRECORD
  5
817
102
{ACAD_REACTORS
330
22
102
}
330
22
100
AcDbXrecord
280
     1
102
MATERIAL
148
0.0
149
0.0
149
0.0
 93
        0
 94
      127
282
     0
 72
     0
 77
     0
171
     0
175
     0
179
     0
273
     0
  0
XRECORD
  5
24
102
{ACAD_REACTORS
330
22
102
}
330
22
100
AcDbXrecord
280
     1
270
     1
271
     1
  0
XRECORD
  5
23
102
{ACAD_REACTORS
330
22
102
}
330
22
100
AcDbXrecord
280
     1
270
     1
271
     1
  0
XRECORD
  5
BA
102
{ACAD_REACTORS
330
22
102
}
330
22
100
AcDbXrecord
280
     1
 70
     1
 90
1959938040
 71
     1
  1
66F55816-5D2C-4DD1-99D3-47994A910C2E
311
504B03040A00000800002DA2E8423DEE336E79000000790000001B0000006175746F6465736B2D64657369676E2D7061636B6167652E786D6C3C3F786D6C2076657273696F6E3D22312E302220656E636F64696E673D227574662D3822203F3E3C666F726D6174733E3C666F726D61743E687474703A2F2F736368656D612E
311
6175746F6465736B2E636F6D2F64657369676E2D7061636B6167652F323030393C2F666F726D61743E3C2F666F726D6174733E504B03041400060808002DA2E842D486FD9CA0000000F4000000130000005B436F6E74656E745F54797065735D2E786D6C7D8EC10E82300C865F65E91D8A1E8C310C0EEA1BF002731658846E
311
D98AC1B77784ABF1D8FE5FBFBF75BBCE937A534CCEB38643598122B6FEE978D0B0485F9C41B54DDD7D022595594E1A469170414C76A4D9A4D207E29CF43ECE46F218070CC6BECC4078ACAA135ACF422C856C0E68EA1BF5669944DDD7BCDE7B1F8E415D77AECB980613C2E4AC91FC167A2B244592486606FC29C8FD7F045B9A
311
EF7053A7E60B504B03041400060808002DA2E8420A5849E8EB0000007C01000008000000636F72652E786D6C8D90416EC3201045AF82665B618371E3D4C2448EEC9EA01740405C94182C03558F5F9C3852BBEB6A467FFE9B197D7EFA9E6FE8CBACC17AD7012D0820E394D7D64D1DA478C1474027C157EFE32F1B202767D3C1
311
2683E0D3EAD3B24BCABB685CCCAAF3DAECA20CC14440EA969B0E82FA34B32C648AD911AEC522D5554EA6A0CF2EC329598D1E47ACCEFBECC59A15C4819CDFFA91D69834F588EB7EA0F8F85E57B8A9D9D01FD8791C58C3CB0D163CDAF9795FAD4646A3415484B2CC6272FCA8484B9BB66A5EC86BCB082F37FB1F282DFA9F50B2
311
2EB26A7FF7810510343F721F085E6E59E4720F2AD72D37F103504B03041400060808002DA2E84255019EA25F0000007C00000007000000636E782E786D6C4DCB3B0E80201045D1AD90E915ED2CF8AC45050C11660C8261F98AB1B07AC9C97D42D718D865D3E909258CFD00CCE24AC6E326A164D74DC0B4128928FF32603847
311
2BA13128B1252AC747C6BAB984FC68F0B87FE8960A5C09FE86CFB69FBA01504B03041400060808002DA2E8427336A05C67010000020300000C0000006662782F636F72652E786D6C8D525B6EC32010BC0AE2B7B2C18FC669848912253D412F403071516CB03058397ED78F284D154595258C66767667C766DB6BDBA041B95E
311
5B53E224A61829236DA54D5DE2E0CFD11AA32D67CE5AFFAB0C23235A55E211C69CD5CE866E81A4355E190FA8B1955A40D1F7CA63241BB894B897DFAA15B1081E2AFA4BDC097911B58A931868A8E3ACF70E0CA079C878627E3E5D199971CE42D0D5C2EA0AA6E9B3560EF315DD7FEC8E491ED1223F46F9EE9044EBCF3C8D8A3C
311
3BEC56D9FE78C80A464631675EB73777D229E15585794A930CB4115D7FA57493149BB478A3EF9B8C3232963F884257FD5314B4F159BAD89D653DE6091899883FDB42441EF562003F8433328608AF29E1C7A0211008D98B5373DBE302D0A0A4B72E07A6B2E14E0DA2090AA652343D8CCC2C749E1AC0664FFBA42FFABCEE011F
311
50981AAC090FD753F0E374364F5DA2E8948B067F45C6BA56347773B3C5FB791FF4542E6D63DD7FD46459952C6192F1EFE53F504B03041400060808002DA2E842A49383B87D0000009D0000000B0000006662782F636E782E786D6C4DCCD10AC2201886E15B91FFDCA6A969A08E0DE93E467363E4344CA3CB6F8B1D74F4C1C3
311
C7ABDBCF1AD0DBE7D792A2017A22807CBCA77189B3815A26AC00B556E794CADF0D501C566F6067B07ACEA93E0F1AFD34D450360D4B7C1C28191784F614BB9B7098B36B8FD545104C7977EEA4724432078DD5CDAFB4ED1EB65F504B03041400060808002DA2E842A25A80B72C01000015020000310000006662782F37333435
311
303142312D444635442D343339422D383635302D3134413241373844303733442F636F72652E786D6C8D515B6EC32010BC0AE22B55850DC6366E848912593D412FE01A92A2C460F1A872FC42ED48ED5F7E58343B333BDAE587FB7C03DFCA796D4D0F4981215066B2529B4B0F6338A30E8283E0CEDAF08706811967D5C30C43
311
C12FCEC66583266B823221A1C64AB581A3F72A4030DDD2A7877EFA52F3588C312486BF16CB385DC78B2A4891DA8927B80F2E0500EB90FC42C168DD60722268786F0654D3B713EADA0623521FAB23EB06CCE8C0CB5528788C5A6E722D531C7DD6CA3D6B92C582073D3FE24F4E8D4149282A4C28C20CE1EEA3C27BC2F6157BC5
311
CD9E625E66FA3F515CE493A2A84DA0D51677957928082FD786E0D2C6CFDB238CBA2FD60590E7EDBC9A5EA0C005C61DA1AC6A192F576EDA40326DEBCDD407EBD28677D7CF4427CDEADCD68297F948A9FC5E30D57C50F103504B03041400060808002DA2E842F635C6BC4E01000033030000300000006662782F373334353031
311
42312D444635442D343339422D383635302D3134413241373844303733442F636E782E786D6CD593CD6E022114855F85B06DE64FAD1AC360D2459FA08B6E19B82ACAC0849FA6BE7D2F8AD68D8B2EBB2193730FE7DC7C61D8F67B34E40B7CD0CEF6B4AB5B4AC04AA7B4DDF734C55DB5A664CB99772E3ED828B162849E669972
311
B6F72E4D4552B013C944548DB6A7227A082E790901E57C93182785C100B0554211C601940245EE46FCDA81C755501CCE241E80BCBF7D12371C41C6C09A9CC259933B38CB67697A3051228D08A1A7411E6014B548D12908A75A8928EAAEBE753DD9E93789E40BB7CAE435C9E53DCD27E565A31A39B206879C85E8915E31C5F3
311
04948B69325A8A88909B8BF1EAE12C691B978BE2D508DEA3BB5BCE170B0CBBCC388B7A84E2901E440445F9ACEDE655BBAADAF5C7ACDD74ABCD6CF5D2BE6EE62D6BB29DB3C139532E610C783711E96C041B29EF5893C7CFF0151F51DA236BE7CF7F0089004AEB95CE3DE33FF3692EEF1B7179FC0BF80F504B03041400060808
311
002DA2E8424A1B377DA505000080100000340000006662782F37333435303142312D444635442D343339422D383635302D3134413241373844303733442F6F626A656374732E786D6CAD57DB6EDB3810FD1541FBB2FBE08B6C278D178A8AC46E0AA3485BD448B10F060C4AA2146E2851A0A8D4D9AFDF43919225C74EBD8BBE
311
5816351CCE9C3973A1FF7E9771E799CA9289FCDAF58663D7A179246296A7D76EA592C195EBBC0F7C2984EA88B94E4E327AEDEA6537F05329AAC22EC53421155707AB77B77F39654473EA3A11276579ED96D123CDC890544AC4B47C1AC64491619AEC86DED008F6D5A692148F074A0B2269AE6029D67368718C515EFF75EC8E
311
027FA4BF07BEFEB552D3D352A3DA9FFEF92C2F15C9A357871DA8997AB3E587C9C57C70319B4D07B3CB8937B8BDBB5D0EBC77D3F1E272B198DF7C98E3E0524968B296489AB8C147602359E48FCCA7C0AF58AEA6132B62033492F499E948B9C1C4F1FC919169BDB34E1E333F12794EA31A2BA051FB6755C7B4A0798C98335AC2
311
B20E42E3FEABA771EC7C9EEA777B6477F93C04BA3B3A8A1ADB9B67D75211FE0D17CA7318244BAA1968B0B48E1AAE8EF708874270FB8D954E4614958C7087B35012F9E20610D52281DF53A3992C7536680FDC0051309FFB74411AFD9CE7C7AC4C2ACE358DDDA0CE822D7285AAB2B68CFD43E5DEFA2E32B009B1D26CB8B20EA9
311
9782BAC1DC50E4EA804D064827E12445C8E1A6DE399D1C38BAD079BA5ABAC1A7BB70B7D6B97BFCF0428A824AA5E9036A35816B9E1A256B937756E4F406F7C0943D28DF80FC67A4FADE14C44DB2DD6C37B3A72849F2321132436C9CB13318E367EC78F5AFFEDFF9E78FDACDFDE89DC213C1D650FD023CFB3E7463D98133F09F
311
417821A7D6B5754438CAC63DCB01902689C3059650879370E7062B54395465EC223CF0E032CC7DC65F7F64D5A050D427759E39B03C288B671468C05633126618F25B03F7717A55CEEA83ADD829782F7E095D6F96EB4FEB4A2624A2F736A7973461395368717BDE740DEA61DEF3E889BEFC103286A3AFF15E77F1CEEC5125D0
311
D6986BE0D3A6A6EB97FDC9BD0322EC4B852E37FE4F4E8013BAB176F4DFB332A29C939C8AAA39F7CDFE81B66120D6C9AE99DC36987D630169CC97831C44938E242B34886DB76A8BE6F084770FABCF6024E4B90809DF0B85FBD21B092EE4367CD99AAA7414E9EF7D6A5B08465A0BD85EE74893FE16F36DCC92A42A51038FC0FA
311
7DB5E8864E5705548846AB499619DC476E116939DBE845B396048D54E45B86B689B43B7A40573F10B504A8159EB2B8A43CD932CEAB6C9B308E66B4CD4871028EFF6F7F5865C59664A2CAD509DD3DD3D11CFAB6F7C85BFE202A7A748375FD1CDCA2F4C634DE87B927AC5BC911AC7AA1BDBCBCBBB8B8F22E0717CBC962305B2E
311
BDC17CBE9C0E66EFE6F3D9CDDC1B2F261F9A3819E581DF749A6E42234AE86C7E25990DDFC30AE9636B801BDC13556E3E9AEC6C9E0FAB2146617F843D6897EDC69BF819631F8D7FAE602F7954D12A2B38CD68AE884EA17BFD877F2318337AC698F55546527A86962F1FD707CE60E58C7D5F75BAD31F077BEDEA4227E45125EA
311
B1CAC29C307EB03135480E8B3CB5F83531699FA6CF34AFFACD0606836929388B51066327A522A30AC5F08C1E24335A827ADD913EB6578F33763F9B01519190D3C6924782199997480B50AB8A547FDDF90D339D1EABAE5D74DBE1137E6CA5701D70E6DAC58CAE5844CB6188FEAC27A15A39B8D41DE431F7933CE518B5CDA6F6
311
BDDDA5B1E975E456E49CF1C9FA652AB8750065A4C0D8807908D1A98D09FCDA36FB3DFA4F8E37E63844E16F58A9D697FD42EB4C7D0C52D438652F0B98619EECD13B24EADB6E79C35AA687C85997AC374960B40E1491697D51D0F659936E965F4718509CD517A7E0558A589EAF692029C85CE904078BC00AABB3200A545DFCB9
311
F92A052EB29973C74001E7F7DDD5E51F9B85C832919BA5CD8DBD0E3BEB475C6EE30D8A03D5B7927233197B934D7D1BB017946D484A3A2471F984054456B216E85EF8C14B7365441F321F5AB9910EC50143574BC736B619945ABA746BAB060773474E1DE490BE51EA8CE90A146F5E0846B5284C9018E5837F01504B03041400
311
060800002DA2E842000000000000000000000000350000006662782F37333435303142312D444635442D343339422D383635302D3134413241373844303733442F76657274696365732E62696E504B03041400060808002DA2E842F270F1330600000004000000360000006662782F37333435303142312D444635442D3433
311
39422D383635302D3134413241373844303733442F747269616E676C65732E62696E636660600000504B03041400060800002DA2E842000000000000000000000000370000006662782F37333435303142312D444635442D343339422D383635302D3134413241373844303733442F617474726962757465732E62696E504B
311
03041400060808002DA2E842D5987DFC8F00000041010000360000006662782F37333435303142312D444635442D343339422D383635302D3134413241373844303733442F6469726563746F72792E786D6C858F410EC2201045AF4266AF15DDB800BA74E7C21B903225242D6328188F2FA5C4183471359997F9FF81E89FF3
311
C41E1816475E02DF1F80A11FC8386F25A438EECEC07A250251FC3803E6F58C12560C4AD840E95E91C151A72936F496F35732D860FE635F62C8F2DA16B505C545B74125BAA2FA9E05D7CC053D063734D5C7665FD55B6B8D15D5E9BFEAFD8490FFA45E504B03041400060808002DA2E842D5368350FC000000A00100003B0000
311
006662782F37333435303142312D444635442D343339422D383635302D3134413241373844303733442F7265736F75726365732F636F72652E786D6C8D50596E833010BD0A9ADFCA60968604194744D013F4029699502BC1465EAA1EBF66A9D4FEF56766F416CDD363D7AFF9997CA275CAE816F29442825A9A51E9A985E0EF
311
E40CC995336B8CFF2583448B195B5861E06CB2262C07248DF6A87D44B519F1008573E82191CF78B4E0E407CE2215C147857BA48B900F31619AA7918E3ACE9CB73140B23F5927708BCE042BD1B16C67390B418D87468DF1A7BA2BB4C04FF476E986BC24B4AE0652757D4ECE6F5541EAAAECBB53791BFAB266D96AE6CCABF927
311
A3B4283C8EC00BBA79093DBF17B4C9EBA6A85FE86B535296ADF23FA6B08CFF3405A57D591C71779B039EC7201BC159B6F615D75666DC6BB7FC1B504B010214000A00000800002DA2E8423DEE336E79000000790000001B00000000000000000000000000000000006175746F6465736B2D64657369676E2D7061636B616765
311
2E786D6C504B010214001400060808002DA2E842D486FD9CA0000000F40000001300000000000000000000000000B20000005B436F6E74656E745F54797065735D2E786D6C504B010214001400060808002DA2E8420A5849E8EB0000007C010000080000000000000000000000000083010000636F72652E786D6C504B0102
311
14001400060808002DA2E84255019EA25F0000007C000000070000000000000000000000000094020000636E782E786D6C504B010214001400060808002DA2E8427336A05C67010000020300000C00000000000000000000000000180300006662782F636F72652E786D6C504B010214001400060808002DA2E842A49383B8
311
7D0000009D0000000B00000000000000000000000000A90400006662782F636E782E786D6C504B010214001400060808002DA2E842A25A80B72C0100001502000031000000000000000000000000004F0500006662782F37333435303142312D444635442D343339422D383635302D3134413241373844303733442F636F72
311
652E786D6C504B010214001400060808002DA2E842F635C6BC4E010000330300003000000000000000000000000000CA0600006662782F37333435303142312D444635442D343339422D383635302D3134413241373844303733442F636E782E786D6C504B010214001400060808002DA2E8424A1B377DA505000080100000
311
3400000000000000000000000000660800006662782F37333435303142312D444635442D343339422D383635302D3134413241373844303733442F6F626A656374732E786D6C504B010214001400060800002DA2E84200000000000000000000000035000000000000000000000000005D0E00006662782F37333435303142
311
312D444635442D343339422D383635302D3134413241373844303733442F76657274696365732E62696E504B010214001400060808002DA2E842F270F13306000000040000003600000000000000000000000000B00E00006662782F37333435303142312D444635442D343339422D383635302D3134413241373844303733
311
442F747269616E676C65732E62696E504B010214001400060800002DA2E84200000000000000000000000037000000000000000000000000000A0F00006662782F37333435303142312D444635442D343339422D383635302D3134413241373844303733442F617474726962757465732E62696E504B010214001400060808
311
002DA2E842D5987DFC8F0000004101000036000000000000000000000000005F0F00006662782F37333435303142312D444635442D343339422D383635302D3134413241373844303733442F6469726563746F72792E786D6C504B010214001400060808002DA2E842D5368350FC000000A00100003B000000000000000000
311
00000000421000006662782F37333435303142312D444635442D343339422D383635302D3134413241373844303733442F7265736F75726365732F636F72652E786D6C504B0506000000000E000E0080040000971100000000
310
504B03040A00000800002DA2E8423DEE336E79000000790000001B0000006175746F6465736B2D64657369676E2D7061636B6167652E786D6C3C3F786D6C2076657273696F6E3D22312E302220656E636F64696E673D227574662D3822203F3E3C666F726D6174733E3C666F726D61743E687474703A2F2F736368656D612E
310
6175746F6465736B2E636F6D2F64657369676E2D7061636B6167652F323030393C2F666F726D61743E3C2F666F726D6174733E504B03041400060808002DA2E842D486FD9CA0000000F4000000130000005B436F6E74656E745F54797065735D2E786D6C7D8EC10E82300C865F65E91D8A1E8C310C0EEA1BF002731658846E
310
D98AC1B77784ABF1D8FE5FBFBF75BBCE937A534CCEB38643598122B6FEE978D0B0485F9C41B54DDD7D022595594E1A469170414C76A4D9A4D207E29CF43ECE46F218070CC6BECC4078ACAA135ACF422C856C0E68EA1BF5669944DDD7BCDE7B1F8E415D77AECB980613C2E4AC91FC167A2B244592486606FC29C8FD7F045B9A
310
EF7053A7E60B504B03041400060808002DA2E8421E45135BEB0000007C01000008000000636F72652E786D6C8D904D6EC3201085AF82665B61034EEA1F61A2C6EE0D7A0104C44589C13250F5F8C58923B5BBAE66F4E67D33A3C74FDFF30D7D993558EF7AA00501649CF2DABAA987142FB80174127CF53EFEB2017272363D6C
310
32083EAD3E2DBBA4BC8BC6C5AC3AAFCD2ECA104C04A46EB9E921A84F33CB42A6981DE15A2C525DE5640AFAEC329C92D5E871C4EABCCF5EAC594154EF8CD2B139E39A10860FF5EB88DFAAA1C57418CE4776189AB61D79B9C182473B3FEFABD5C8683408466885498D49F3C14847EB8ED52FE4D85584979BFD0F9416FD4F2859
310
172BB6BFFBC002089A1FB90F042FB72C72B90795EB969BF801504B03041400060808002DA2E84255019EA25F0000007C00000007000000636E782E786D6C4DCB3B0E80201045D1AD90E915ED2CF8AC45050C11660C8261F98AB1B07AC9C97D42D718D865D3E909258CFD00CCE24AC6E326A164D74DC0B4128928FF32603847
310
2BA13128B1252AC747C6BAB984FC68F0B87FE8960A5C09FE86CFB69FBA01504B03041400060808002DA2E842CD9AC51A67010000020300000C0000006662782F636F72652E786D6C8D525B6E833010BC8AE5DFCAD8405248641C35A437E8051C70280AD8C8D828C7EFF28868AA28AA908C35B3B33B3BC00FB7B64183B27D6D
310
7486C38061A47461CA5A5719F6EE42528C0E825B63DCAF328CB46C558647180B5E59E3BB052A8C764A3B40B529D502CABE570EA3A2814B86FBE25BB53290DE41457F0D3A595C65A58230001AEA04EF9D0503681E329E585CCE374E675C70EFEB7261EB12A6D5975A592CE2CF280C4FE991248C456493BC9FC8479CEF4898E7
310
C76DB4C9D3DDEEC4E92816DCD5EDDD5D619574AAC42262614C584258FA15B17D98ECA3E48D6DF731E3742C7F10F9AEFCA7C8D7DAC5D1627796F55884606422FE6C0B1139D4CB01FC50C1E91822BCA6841F838640206427CFCD7D8F2B40832A9CB11B604AE3576A908D573095A1E9E17466A1F3D400367BDA277AD1E7750FF8
310
805257604D3AB89EBD1BA7F379EA1245A72C19DC0D69635BD9ACE6668BEBB90E7A2A2F4C63EC7FD47459952E61D2F1EF153F504B03041400060808002DA2E842FDB736C77E0000009D0000000B0000006662782F636E782E786D6C4DCCDF0A83201C86E15B91DFB9E55A9A821AFBD3EE239685643A4CC72E7F353AD8D1070F
310
1FAF6C3F8B436F13571BBC8253410019FF0C83F593829C46CC01B55AC610D2DF0D90EF17A36067D0728A21BF0E1ACCD867973675D6CF0792A6AB2F0D1798548F2BAEB920983371C394DDCF5CB08ED28A40A965F92B6DBB87F517504B03041400060808002DA2E842B0C27F892C01000015020000310000006662782F303745
310
34413738392D303246422D343839302D383639432D3536443338393645353532302F636F72652E786D6C8D515B6EC32010BC0AE22B55651BE3178E30511FE9097A0107131725068B4795E3775D3B52FB971F16CDCECC0E2C3FDCA62BFA56CE6B6B3A9CA7042365A41DB4193B1CC33961181D0477D6863F348C4C3FA90E2F30
310
167C7436CE1B24AD09CA04408D1DD406F6DEAB8091BCC2A5C35E7EA9A94FFB1880E12FE9DCCB4B3FAA344FA10D3CC17D701000AD4396130BD21CCB9786B509A11FAF49C95A92B0BA7D4BAAFABD606D7DAC2A4A78B60A058F510F9B5C0F10479FB5728F9A2C62C1839EEEF1A5537D50031694E445429A84B04F4AF679B3A7CD
310
33A9F6054C5EE8FF44711E1E14456D4241B7B8ABCC6391F36C6D083ED878BADEC3A8DB6C5D40CBBC9D57F2095E9512C25891D3BAE5D9CA851F00D3BADC4C7DB00E7E78773901BDD89CEB52F06C591294DF0D425D162A7E00504B03041400060808002DA2E842909209AB5501000033030000300000006662782F3037453441
310
3738392D303246422D343839302D383639432D3536443338393645353532302F636E782E786D6CBD93CD6E022114855F85B06DE6DFAA310C265DF409BAE89681AB52199800D3D4B7EF45D1BA71D1A4E9864CCE3D9C73F38561DBAFD1904FF0413BDBD3A6AC29012B9DD276DFD339EE8A35255BCEBC73F1CE46891523F434C9
310
94B3BD77F39425053B319B88AAD1F698450FC1CD5E424039DD24C6496130006C31A308E3004A812237237EEDC0E32A280E27120F405E5FDE891B3E40C6C0AA94C259953A384B676EBA3351228D08A1A7411E6014A598A353108EA51251944D79ED7AB0D34F124917AE95B3D72495F7349D94E78D4AE4C82A1C7216A2477AD9
310
144F13502EA6C968292242AECEC68B87B359DBB85C64AF46F01EDD5DBB5CAF31EC3CE32CEA11B2437A101114E56DDD7445BD2AEAF55B5B6F9AD5A65D3DD5CF9BAE6655B273363867F2258C01EF26229D8D6023E50DABD2F811BEEC234A7B64EDFCE9172011406EBDD0B965FC259F66D92D16FFC8A73ABF6FC4E5F12FE0DF50
310
4B03041400060808002DA2E8428061624261070000991B0000340000006662782F30374534413738392D303246422D343839302D383639432D3536443338393645353532302F6F626A656374732E786D6CED595B73A33614FE2B0C7D691F8C8D2F69DC2174B2F666C7D349BBB3EEEEF4C1338C0C3251230423896CD25FDFA3
310
0B18884970377DDB071B10D2D139DFB9EA10FCFA9851E70173417276E5FADEC475308BF384B0F4CA2DE56174E93ABF8601CF73D998E63A0C65F8CA55C36E18A43C2F0B3B94E0032AA9EC8CDEBCFBCB113166D875628A84B872457C8733E4A152E60916F75E8224F2D2C3A3E77B66629B6CCA5171D7215A208E99044E619C01
310
15C730E5B71F27EE380CC6EA7D18A87F3B6B3668D6BC7FD6584BDDE6923021118B9FB1D421331BC4D2CC9FAFDF4F17CBD1623E9F8DE617537FF4EEE6DD7AE4FF3C9BAC2E56ABE5F5FB25B0B7CF736A654A70815902FA7B72433F18AB37B5E81681535CC7396338D64002545AAC2E4182056CD5806FD27EF495448DD75AC2C6
310
F35CBDB72C3486676D2A7DB38601D1A20B82D8ED2A89AB6B53BE7CFF37082E861825175802B74272D0AE85878357B8E124189BD130D81F7541849321893941D4A164CF1107A5C05435250CCC024B46390707528E92406BCEBC6EDB1678E6EBAE738ACB4349A9F20C37D48E1581FB61293467E41FCC8FDC3791019E40DA9230
310
7969B9944F0576C36530D68361A02EB3A97D6980740E14A5422362DE76045D29D7DFACDDF0B79BFDE3568583D39B173C2F3097CAE8941E355F60C8F6AA50B2DBFA8334A71680300654BBF208CA2740FE77881E4756406F9C3CCE1FE776AEE4888943CE33D08D33714613F89B38BEFE57F78DBB605C2F6E6BAF0F4F705305D5
310
E5B7E3D996416365F96FC019060F60F0399FD957DB1851B0E75BC2002065240ECD610842FB61FFE8861B089C10E86115A2A10F2203BB0F701B8C2D99A3562AF7B25EC70051BBC76C889200366D91C0468F9E3E40F6E0243EAAA929621FBC8B3731D7EBF5F6B76DC90F28C6B7D6A7D7F840189190354F33D4C2BC25D13D7EFA
310
9AF304047D8EF7B6897766B71280B6C25C019F5620A887E3CEAD0D625897E62ADC04AFEC0042A85CDDA07F4B448C29450CE765B56F1DDD94A1D61E6F6B06379C1A8867D38E0973FC405455014E739CD16214F27ECC49A14074C30F46B23A687A3DD27DDEFC0E1659CFEF99B561107A19A27FEAA0750287966557485B206A81
310
F7C7701EE734E7D1FE293291CE855A02D8687BCB97165188F546498A0A7890F6BB2AA4A446DA282187432920AE9E60F1CB66D534878937F3174EF3BFE38C7388B6E0BB885BBFEBEC11910CA5383AA0A46FBBE66E356DA149F690E6F840412EF240E45384643449707A0E3467115FBE29F594E642108605E4AB93E037D19878
310
10488C362B9695563B4013116558227A0E028A4C0FB83AEDE81A3786D2E1751E6BEB7D49634DA2FF93457004B564CE2202A528E4905719F7BD05C49036BA06E50EBE606D156D2D062DA184889FA2AF98A477F21CD40DF91EDC6338929432CA0B1483590F20FBCC5794523BBCEF517CAFF2471497F4AD0C44607A8808A56516
310
C18F3038790C71ED3A30BD884283B8897D126750942159F2219B5C2C26CFF6313543370436363A100A613BCA50D1837A2B20EA7AC4A9C1B7D47B94BA2FB32242595EB24186E2CDBADE64C977D5AAC80EE457958A503656842DC130204CD659B58AD960EA3AB0821BE940F514099415D49CC25E493C7EED4D9A72EF06DCFAE9
310
DB6E9041E1D7A3BD66449D5730581E5B8581F88A647CE7865B7D1DBD83FA3BC1C931D557B566B30204C454242F39B12AFABC81F2C6D6686E788BA4D87D3059B7BA7EDE78D0FD08C6B0066A977AE146019D612691AA4C6ED50DFD842004B76898F18DCAA9E750B94E125D35227A43FAD4D92A235A9B66C42BEE30CB33F8B11D
310
61312D13BC4389B88F6E258DB644B16EA5F4325261FCA2807F7CD876E0819101227D54051EFEDA596B4757AA5C3A4944DE95D99E210241B0255A6A74E3152CB51AA9B45C5FD59902EA2E3030ABE2F9F79345B31DF1FD64915AC3F8B69305CDF7881EA34D239BC7CAACCF3A05D4E94951798B5380EE3AD454EB246272B915DF
310
FA520431B10AF2838BB12A6618827D1CFFE7A4DD9704CD761DFECF4BDAFEB382E3ACA4D29AAC9A54270AD74D33855D5CDC2C1697FEC568B19EAE46F3F5DA1F2D97EBD968FEF37239BF5EFA93D5F47D8DA6F6D330A863994E5DF06C625A35AC9E2C06D094153925091CE61327C510F2251CE90774CF798605E4CE66AF3BB13D
310
F901AB1F4C9B53A23DC515277708FAC3544056078CCA58B6C79D1FA03329E19C7DE542CFC8BB873F6B95AE0389E7CA854E81243116DE1EBA4CAA9FA78943C6D5A9DF12037C104B5546348BEAE77A95C2A615FDEB2943B28095ABD5C280BAAD80E657AB41A179B33CC567095EB1E32009B7FB5242B16664390ED4C2E86D8EEA
310
37B251C2EEEDD68FE0BA2F8BE57B7A4E0B91415F0C5E3402437524114F75BB5B316659BA5E7F1C439BCDD9FCE114B44C4197C3298D3806632E553D055604566169164882A9AE7ED97DE4397CE1C91C5D14393F3E5E5EFCB45BE559963333B4BB86435902DF899CED1D7CF54976503B60D55B17BBE9C49FEE744FDBB6D9A33D
310
12D85345110C54B58412A463726097CFFA53B67B3956AAE84CDFAC1D1B44174054DBEEB316AFF9C6E5800FA9AF29CA63B49F57D2BED8D61EEBA960131C1AD2E1BF504B03041400060800002DA2E842000000000000000000000000350000006662782F30374534413738392D303246422D343839302D383639432D35364433
310
38393645353532302F76657274696365732E62696E504B03041400060808002DA2E842F270F1330600000004000000360000006662782F30374534413738392D303246422D343839302D383639432D3536443338393645353532302F747269616E676C65732E62696E636660600000504B03041400060800002DA2E8420000
310
00000000000000000000370000006662782F30374534413738392D303246422D343839302D383639432D3536443338393645353532302F617474726962757465732E62696E504B03041400060808002DA2E842D5987DFC8F00000041010000360000006662782F30374534413738392D303246422D343839302D383639432D
310
3536443338393645353532302F6469726563746F72792E786D6C858F410EC2201045AF4266AF15DDB800BA74E7C21B903225242D6328188F2FA5C4183471359997F9FF81E89FF3C41E1816475E02DF1F80A11FC8386F25A438EECEC07A250251FC3803E6F58C12560C4AD840E95E91C151A72936F496F35732D860FE635F62
310
C8F2DA16B505C545B74125BAA2FA9E05D7CC053D063734D5C7665FD55B6B8D15D5E9BFEAFD8490FFA45E504B03041400060808002DA2E84276AF4E6AFE000000A00100003B0000006662782F30374534413738392D303246422D343839302D383639432D3536443338393645353532302F7265736F75726365732F636F7265
310
2E786D6C8D504B6E833010BD0A9A6D65B04D5220328E52D21BF40296992456828DFCA97AFC9A40A576D7CDCCE87D344F4F1CBFA647F1893E18677B60258502AD76A3B1D71E52BC90168AA314DEB9F84B06855513F6B0C020C5D5BB346F907636A28D19B56EC40D54216084423FF2D143D0379C54A952CC8A702F67A5EFEA8A
310
252B339D755284E87380627DB24C901E834B5E6310D5CA4A919219378D19F34F7331E841D6EF9CB1737B220DA59CEC9AD73339D54347D830BCEDF96E68BBEE2CAAC52C4534D34F46ED51451C4172CA6A421B42DB0F4E0FAC39F0E685EE0F3515D522FF634AF3F84F533236D67C8BBBDA024896833C0929AAA5AFBC9E65E6BD
310
742BBF01504B010214000A00000800002DA2E8423DEE336E79000000790000001B00000000000000000000000000000000006175746F6465736B2D64657369676E2D7061636B6167652E786D6C504B010214001400060808002DA2E842D486FD9CA0000000F40000001300000000000000000000000000B20000005B436F6E
310
74656E745F54797065735D2E786D6C504B010214001400060808002DA2E8421E45135BEB0000007C010000080000000000000000000000000083010000636F72652E786D6C504B010214001400060808002DA2E84255019EA25F0000007C000000070000000000000000000000000094020000636E782E786D6C504B010214
310
001400060808002DA2E842CD9AC51A67010000020300000C00000000000000000000000000180300006662782F636F72652E786D6C504B010214001400060808002DA2E842FDB736C77E0000009D0000000B00000000000000000000000000A90400006662782F636E782E786D6C504B010214001400060808002DA2E842B0
310
C27F892C010000150200003100000000000000000000000000500500006662782F30374534413738392D303246422D343839302D383639432D3536443338393645353532302F636F72652E786D6C504B010214001400060808002DA2E842909209AB55010000330300003000000000000000000000000000CB060000666278
310
2F30374534413738392D303246422D343839302D383639432D3536443338393645353532302F636E782E786D6C504B010214001400060808002DA2E8428061624261070000991B000034000000000000000000000000006E0800006662782F30374534413738392D303246422D343839302D383639432D3536443338393645
310
353532302F6F626A656374732E786D6C504B010214001400060800002DA2E8420000000000000000000000003500000000000000000000000000211000006662782F30374534413738392D303246422D343839302D383639432D3536443338393645353532302F76657274696365732E62696E504B01021400140006080800
310
2DA2E842F270F13306000000040000003600000000000000000000000000741000006662782F30374534413738392D303246422D343839302D383639432D3536443338393645353532302F747269616E676C65732E62696E504B010214001400060800002DA2E8420000000000000000000000003700000000000000000000
310
000000CE1000006662782F30374534413738392D303246422D343839302D383639432D3536443338393645353532302F617474726962757465732E62696E504B010214001400060808002DA2E842D5987DFC8F000000410100003600000000000000000000000000231100006662782F30374534413738392D303246422D34
310
3839302D383639432D3536443338393645353532302F6469726563746F72792E786D6C504B010214001400060808002DA2E84276AF4E6AFE000000A00100003B00000000000000000000000000061200006662782F30374534413738392D303246422D343839302D383639432D3536443338393645353532302F7265736F75
310
726365732F636F72652E786D6C504B0506000000000E000E00800400005D1300000000
  0
XRECORD
  5
27
102
{ACAD_REACTORS
330
22
102
}
330
22
100
AcDbXrecord
280
     1
270
     1
271
     1
  0
XRECORD
  5
26
102
{ACAD_REACTORS
330
22
102
}
330
22
100
AcDbXrecord
280
     1
270
     1
271
     1
  0
XRECORD
  5
28
102
{ACAD_REACTORS
330
22
102
}
330
22
100
AcDbXrecord
280
     1
270
     1
271
     1
  0
XRECORD
  5
25
102
{ACAD_REACTORS
330
22
102
}
330
22
100
AcDbXrecord
280
     1
270
     1
271
     1
  0
XRECORD
  5
811
102
{ACAD_REACTORS
330
810
102
}
330
810
100
AcDbXrecord
280
     1
102
ACAD_ROUNDTRIP_2012_MLEADER_STYLE
298
     1
  0
CELLSTYLEMAP
  5
80F
102
{ACAD_REACTORS
330
80E
102
}
330
80E
100
AcDbCellStyleMap
 90
        3
300
CELLSTYLE
  1
TABLEFORMAT_BEGIN
 90
        5
170
     1
 91
        0
 92
    32768
 62
   257
 93
        1
300
CONTENTFORMAT
  1
CONTENTFORMAT_BEGIN
 90
        0
 91
        0
 92
      512
 93
        0
300

 40
0.0
140
1.0
 94
        5
 62
     0
340
55
144
0.25
309
CONTENTFORMAT_END
171
     0
 94
        0
309
TABLEFORMAT_END
  1
CELLSTYLE_BEGIN
 90
        1
 91
        1
300
_TITLE
309
CELLSTYLE_END
300
CELLSTYLE
  1
TABLEFORMAT_BEGIN
 90
        5
170
     1
 91
        0
 92
        0
 62
   257
 93
        1
300
CONTENTFORMAT
  1
CONTENTFORMAT_BEGIN
 90
        0
 91
        0
 92
      512
 93
        0
300

 40
0.0
140
1.0
 94
        5
 62
     0
340
55
144
0.18
309
CONTENTFORMAT_END
171
     0
 94
        0
309
TABLEFORMAT_END
  1
CELLSTYLE_BEGIN
 90
        2
 91
        1
300
_HEADER
309
CELLSTYLE_END
300
CELLSTYLE
  1
TABLEFORMAT_BEGIN
 90
        5
170
     1
 91
        0
 92
        0
 62
   257
 93
        1
300
CONTENTFORMAT
  1
CONTENTFORMAT_BEGIN
 90
        0
 91
        0
 92
      512
 93
        0
300

 40
0.0
140
1.0
 94
        2
 62
     0
340
55
144
0.18
309
CONTENTFORMAT_END
171
     0
 94
        0
309
TABLEFORMAT_END
  1
CELLSTYLE_BEGIN
 90
        3
 91
        2
300
_DATA
309
CELLSTYLE_END
  0
XRECORD
  5
848
102
{ACAD_REACTORS
330
80E
102
}
330
80E
100
AcDbXrecord
280
     1
102
ACAD_ROUNDTRIP_PRE2007_TABLESTYLE
 90
      512
 91
        0
  1

 92
      512
 93
        0
  2

 94
      512
 95
        0
  3

  0
XRECORD
  5
823
102
{ACAD_REACTORS
330
822
102
}
330
822
100
AcDbXrecord
280
     1
102
RTVSPropertyOp0
 70
     1
102
RTVSPropertyOp1
 70
     1
102
RTVSPropertyOp2
 70
     1
102
RTVSPropertyOp3
 70
     1
102
RTVSPropertyOp4
 70
     1
102
RTVSPropertyOp5
 70
     1
102
RTVSPropertyOp6
 70
     1
102
RTVSPropertyOp7
 70
     1
102
RTVSPropertyOp8
 70
     1
102
RTVSPropertyOp9
 70
     1
102
RTVSPropertyOp10
 70
     1
102
RTVSPropertyOp11
 70
     1
102
RTVSPropertyOp12
 70
     1
102
RTVSPropertyOp13
 70
     1
102
RTVSPropertyOp14
 70
     1
102
RTVSPropertyOp15
 70
     1
102
RTVSPropertyOp16
 70
     1
102
RTVSPropertyOp17
 70
     1
102
RTVSPropertyOp18
 70
     1
102
RTVSPropertyOp19
 70
     1
102
RTVSPropertyOp20
 70
     1
102
RTVSPropertyOp21
 70
     1
102
RTVSPropertyOp22
 70
     1
102
RTVSPropertyOp23
 70
     1
102
RTVSPropertyOp24
 70
     1
102
RTVSPropertyOp25
 70
     1
102
RTVSPropertyOp26
 70
     1
102
RTVSPropertyOp27
 70
     1
102
RTVSPropertyOp28
 70
     1
102
RTVSPropertyOp29
 70
     1
102
RTVSPropertyOp30
 70
     1
102
RTVSPropertyOp31
 70
     1
102
RTVSPropertyOp32
 70
     1
  0
XRECORD
  5
821
102
{ACAD_REACTORS
330
820
102
}
330
820
100
AcDbXrecord
280
     1
102
RTVSPropertyOp0
 70
     1
102
RTVSPropertyOp1
 70
     1
102
RTVSPropertyOp2
 70
     1
102
RTVSPropertyOp3
 70
     1
102
RTVSPropertyOp4
 70
     1
102
RTVSPropertyOp5
 70
     1
102
RTVSPropertyOp6
 70
     1
102
RTVSPropertyOp7
 70
     1
102
RTVSPropertyOp8
 70
     1
102
RTVSPropertyOp9
 70
     1
102
RTVSPropertyOp10
 70
     1
102
RTVSPropertyOp11
 70
     1
102
RTVSPropertyOp12
 70
     1
102
RTVSPropertyOp13
 70
     1
102
RTVSPropertyOp14
 70
     1
102
RTVSPropertyOp15
 70
     1
102
RTVSPropertyOp16
 70
     1
102
RTVSPropertyOp17
 70
     1
102
RTVSPropertyOp18
 70
     1
102
RTVSPropertyOp19
 70
     1
102
RTVSPropertyOp20
 70
     1
102
RTVSPropertyOp21
 70
     1
102
RTVSPropertyOp22
 70
     1
102
RTVSPropertyOp23
 70
     1
102
RTVSPropertyOp24
 70
     1
102
RTVSPropertyOp25
 70
     1
102
RTVSPropertyOp26
 70
     1
102
RTVSPropertyOp27
 70
     1
102
RTVSPropertyOp28
 70
     1
102
RTVSPropertyOp29
 70
     1
102
RTVSPropertyOp30
 70
     1
102
RTVSPropertyOp31
 70
     1
102
RTVSPropertyOp32
 70
     1
  0
XRECORD
  5
82F
102
{ACAD_REACTORS
330
82E
102
}
330
82E
100
AcDbXrecord
280
     1
102
RTVSPropertyOp0
 70
     1
102
RTVSPropertyOp1
 70
     1
102
RTVSPropertyOp2
 70
     1
102
RTVSPropertyOp3
 70
     1
102
RTVSPropertyOp4
 70
     1
102
RTVSPropertyOp5
 70
     1
102
RTVSPropertyOp6
 70
     1
102
RTVSPropertyOp7
 70
     1
102
RTVSPropertyOp8
 70
     1
102
RTVSPropertyOp9
 70
     1
102
RTVSPropertyOp10
 70
     1
102
RTVSPropertyOp11
 70
     1
102
RTVSPropertyOp12
 70
     1
102
RTVSPropertyOp13
 70
     1
102
RTVSPropertyOp14
 70
     1
102
RTVSPropertyOp15
 70
     1
102
RTVSPropertyOp16
 70
     1
102
RTVSPropertyOp17
 70
     1
102
RTVSPropertyOp18
 70
     1
102
RTVSPropertyOp19
 70
     1
102
RTVSPropertyOp20
 70
     1
102
RTVSPropertyOp21
 70
     1
102
RTVSPropertyOp22
 70
     1
102
RTVSPropertyOp23
 70
     1
102
RTVSPropertyOp24
 70
     1
102
RTVSPropertyOp25
 70
     1
102
RTVSPropertyOp26
 70
     1
102
RTVSPropertyOp27
 70
     1
102
RTVSPropertyOp28
 70
     1
102
RTVSPropertyOp29
 70
     1
102
RTVSPropertyOp30
 70
     1
102
RTVSPropertyOp31
 70
     1
102
RTVSPropertyOp32
 70
     1
  0
XRECORD
  5
837
102
{ACAD_REACTORS
330
836
102
}
330
836
100
AcDbXrecord
280
     1
102
RTVSPropertyOp0
 70
     1
102
RTVSPropertyOp1
 70
     1
102
RTVSPropertyOp2
 70
     1
102
RTVSPropertyOp3
 70
     1
102
RTVSPropertyOp4
 70
     1
102
RTVSPropertyOp5
 70
     1
102
RTVSPropertyOp6
 70
     1
102
RTVSPropertyOp7
 70
     1
102
RTVSPropertyOp8
 70
     1
102
RTVSPropertyOp9
 70
     1
102
RTVSPropertyOp10
 70
     1
102
RTVSPropertyOp11
 70
     1
102
RTVSPropertyOp12
 70
     1
102
RTVSPropertyOp13
 70
     1
102
RTVSPropertyOp14
 70
     1
102
RTVSPropertyOp15
 70
     1
102
RTVSPropertyOp16
 70
     1
102
RTVSPropertyOp17
 70
     1
102
RTVSPropertyOp18
 70
     1
102
RTVSPropertyOp19
 70
     1
102
RTVSPropertyOp20
 70
     1
102
RTVSPropertyOp21
 70
     1
102
RTVSPropertyOp22
 70
     1
102
RTVSPropertyOp23
 70
     1
102
RTVSPropertyOp24
 70
     1
102
RTVSPropertyOp25
 70
     1
102
RTVSPropertyOp26
 70
     1
102
RTVSPropertyOp27
 70
     1
102
RTVSPropertyOp28
 70
     1
102
RTVSPropertyOp29
 70
     1
102
RTVSPropertyOp30
 70
     1
102
RTVSPropertyOp31
 70
     1
102
RTVSPropertyOp32
 70
     1
  0
XRECORD
  5
829
102
{ACAD_REACTORS
330
828
102
}
330
828
100
AcDbXrecord
280
     1
102
RTVSPropertyOp0
 70
     1
102
RTVSPropertyOp1
 70
     1
102
RTVSPropertyOp2
 70
     1
102
RTVSPropertyOp3
 70
     1
102
RTVSPropertyOp4
 70
     1
102
RTVSPropertyOp5
 70
     1
102
RTVSPropertyOp6
 70
     1
102
RTVSPropertyOp7
 70
     1
102
RTVSPropertyOp8
 70
     1
102
RTVSPropertyOp9
 70
     1
102
RTVSPropertyOp10
 70
     1
102
RTVSPropertyOp11
 70
     1
102
RTVSPropertyOp12
 70
     1
102
RTVSPropertyOp13
 70
     1
102
RTVSPropertyOp14
 70
     1
102
RTVSPropertyOp15
 70
     1
102
RTVSPropertyOp16
 70
     1
102
RTVSPropertyOp17
 70
     1
102
RTVSPropertyOp18
 70
     1
102
RTVSPropertyOp19
 70
     1
102
RTVSPropertyOp20
 70
     1
102
RTVSPropertyOp21
 70
     1
102
RTVSPropertyOp22
 70
     1
102
RTVSPropertyOp23
 70
     1
102
RTVSPropertyOp24
 70
     1
102
RTVSPropertyOp25
 70
     1
102
RTVSPropertyOp26
 70
     1
102
RTVSPropertyOp27
 70
     1
102
RTVSPropertyOp28
 70
     1
102
RTVSPropertyOp29
 70
     1
102
RTVSPropertyOp30
 70
     1
102
RTVSPropertyOp31
 70
     1
102
RTVSPropertyOp32
 70
     1
  0
XRECORD
  5
82D
102
{ACAD_REACTORS
330
82C
102
}
330
82C
100
AcDbXrecord
280
     1
102
RTVSPropertyOp0
 70
     1
102
RTVSPropertyOp1
 70
     1
102
RTVSPropertyOp2
 70
     1
102
RTVSPropertyOp3
 70
     1
102
RTVSPropertyOp4
 70
     1
102
RTVSPropertyOp5
 70
     1
102
RTVSPropertyOp6
 70
     1
102
RTVSPropertyOp7
 70
     1
102
RTVSPropertyOp8
 70
     1
102
RTVSPropertyOp9
 70
     1
102
RTVSPropertyOp10
 70
     1
102
RTVSPropertyOp11
 70
     1
102
RTVSPropertyOp12
 70
     1
102
RTVSPropertyOp13
 70
     1
102
RTVSPropertyOp14
 70
     1
102
RTVSPropertyOp15
 70
     1
102
RTVSPropertyOp16
 70
     1
102
RTVSPropertyOp17
 70
     1
102
RTVSPropertyOp18
 70
     1
102
RTVSPropertyOp19
 70
     1
102
RTVSPropertyOp20
 70
     1
102
RTVSPropertyOp21
 70
     1
102
RTVSPropertyOp22
 70
     1
102
RTVSPropertyOp23
 70
     1
102
RTVSPropertyOp24
 70
     1
102
RTVSPropertyOp25
 70
     1
102
RTVSPropertyOp26
 70
     1
102
RTVSPropertyOp27
 70
     1
102
RTVSPropertyOp28
 70
     1
102
RTVSPropertyOp29
 70
     1
102
RTVSPropertyOp30
 70
     1
102
RTVSPropertyOp31
 70
     1
102
RTVSPropertyOp32
 70
     1
  0
XRECORD
  5
847
102
{ACAD_REACTORS
330
846
102
}
330
846
100
AcDbXrecord
280
     1
102
RTVSPropertyOp0
 70
     0
102
RTVSPropertyOp1
 70
     0
102
RTVSPropertyOp2
 70
     0
102
RTVSPropertyOp3
 70
     0
102
RTVSPropertyOp4
 70
     0
102
RTVSPropertyOp5
 70
     0
102
RTVSPropertyOp6
 70
     0
102
RTVSPropertyOp7
 70
     0
102
RTVSPropertyOp8
 70
     0
102
RTVSPropertyOp9
 70
     0
102
RTVSPropertyOp10
 70
     0
102
RTVSPropertyOp11
 70
     0
102
RTVSPropertyOp12
 70
     0
102
RTVSPropertyOp13
 70
     0
102
RTVSPropertyOp14
 70
     2
102
RTVSPropertyOp15
 70
     0
102
RTVSPropertyOp16
 70
     0
102
RTVSPropertyOp17
 70
     0
102
RTVSPropertyOp18
 70
     0
102
RTVSPropertyOp19
 70
     0
102
RTVSPropertyOp20
 70
     0
102
RTVSPropertyOp21
 70
     0
102
RTVSPropertyOp22
 70
     0
102
RTVSPropertyOp23
 70
     0
102
RTVSPropertyOp24
 70
     0
102
RTVSPropertyOp25
 70
     0
102
RTVSPropertyOp26
 70
     0
102
RTVSPropertyOp27
 70
     0
102
RTVSPropertyOp28
 70
     1
102
RTVSPropertyOp29
 70
     1
102
RTVSPropertyOp30
 70
     1
102
RTVSPropertyOp31
 70
     1
102
RTVSPropertyOp32
 70
     1
  0
XRECORD
  5
835
102
{ACAD_REACTORS
330
834
102
}
330
834
100
AcDbXrecord
280
     1
102
RTVSPropertyOp0
 70
     1
102
RTVSPropertyOp1
 70
     1
102
RTVSPropertyOp2
 70
     1
102
RTVSPropertyOp3
 70
     1
102
RTVSPropertyOp4
 70
     1
102
RTVSPropertyOp5
 70
     1
102
RTVSPropertyOp6
 70
     1
102
RTVSPropertyOp7
 70
     1
102
RTVSPropertyOp8
 70
     1
102
RTVSPropertyOp9
 70
     1
102
RTVSPropertyOp10
 70
     1
102
RTVSPropertyOp11
 70
     1
102
RTVSPropertyOp12
 70
     1
102
RTVSPropertyOp13
 70
     1
102
RTVSPropertyOp14
 70
     1
102
RTVSPropertyOp15
 70
     1
102
RTVSPropertyOp16
 70
     1
102
RTVSPropertyOp17
 70
     1
102
RTVSPropertyOp18
 70
     1
102
RTVSPropertyOp19
 70
     1
102
RTVSPropertyOp20
 70
     1
102
RTVSPropertyOp21
 70
     1
102
RTVSPropertyOp22
 70
     1
102
RTVSPropertyOp23
 70
     1
102
RTVSPropertyOp24
 70
     1
102
RTVSPropertyOp25
 70
     1
102
RTVSPropertyOp26
 70
     1
102
RTVSPropertyOp27
 70
     1
102
RTVSPropertyOp28
 70
     1
102
RTVSPropertyOp29
 70
     1
102
RTVSPropertyOp30
 70
     1
102
RTVSPropertyOp31
 70
     1
102
RTVSPropertyOp32
 70
     1
  0
XRECORD
  5
819
102
{ACAD_REACTORS
330
818
102
}
330
818
100
AcDbXrecord
280
     1
102
RTVSPropertyOp0
 70
     1
102
RTVSPropertyOp1
 70
     1
102
RTVSPropertyOp2
 70
     1
102
RTVSPropertyOp3
 70
     1
102
RTVSPropertyOp4
 70
     1
102
RTVSPropertyOp5
 70
     1
102
RTVSPropertyOp6
 70
     1
102
RTVSPropertyOp7
 70
     1
102
RTVSPropertyOp8
 70
     1
102
RTVSPropertyOp9
 70
     1
102
RTVSPropertyOp10
 70
     1
102
RTVSPropertyOp11
 70
     1
102
RTVSPropertyOp12
 70
     1
102
RTVSPropertyOp13
 70
     1
102
RTVSPropertyOp14
 70
     1
102
RTVSPropertyOp15
 70
     1
102
RTVSPropertyOp16
 70
     1
102
RTVSPropertyOp17
 70
     1
102
RTVSPropertyOp18
 70
     1
102
RTVSPropertyOp19
 70
     1
102
RTVSPropertyOp20
 70
     1
102
RTVSPropertyOp21
 70
     1
102
RTVSPropertyOp22
 70
     1
102
RTVSPropertyOp23
 70
     1
102
RTVSPropertyOp24
 70
     1
102
RTVSPropertyOp25
 70
     1
102
RTVSPropertyOp26
 70
     1
102
RTVSPropertyOp27
 70
     1
102
RTVSPropertyOp28
 70
     1
102
RTVSPropertyOp29
 70
     1
102
RTVSPropertyOp30
 70
     1
102
RTVSPropertyOp31
 70
     1
102
RTVSPropertyOp32
 70
     1
  0
XRECORD
  5
81B
102
{ACAD_REACTORS
330
81A
102
}
330
81A
100
AcDbXrecord
280
     1
102
RTVSPropertyOp0
 70
     1
102
RTVSPropertyOp1
 70
     1
102
RTVSPropertyOp2
 70
     1
102
RTVSPropertyOp3
 70
     1
102
RTVSPropertyOp4
 70
     1
102
RTVSPropertyOp5
 70
     1
102
RTVSPropertyOp6
 70
     1
102
RTVSPropertyOp7
 70
     1
102
RTVSPropertyOp8
 70
     1
102
RTVSPropertyOp9
 70
     1
102
RTVSPropertyOp10
 70
     1
102
RTVSPropertyOp11
 70
     1
102
RTVSPropertyOp12
 70
     1
102
RTVSPropertyOp13
 70
     1
102
RTVSPropertyOp14
 70
     1
102
RTVSPropertyOp15
 70
     1
102
RTVSPropertyOp16
 70
     1
102
RTVSPropertyOp17
 70
     1
102
RTVSPropertyOp18
 70
     1
102
RTVSPropertyOp19
 70
     1
102
RTVSPropertyOp20
 70
     1
102
RTVSPropertyOp21
 70
     1
102
RTVSPropertyOp22
 70
     1
102
RTVSPropertyOp23
 70
     1
102
RTVSPropertyOp24
 70
     1
102
RTVSPropertyOp25
 70
     1
102
RTVSPropertyOp26
 70
     1
102
RTVSPropertyOp27
 70
     1
102
RTVSPropertyOp28
 70
     1
102
RTVSPropertyOp29
 70
     1
102
RTVSPropertyOp30
 70
     1
102
RTVSPropertyOp31
 70
     1
102
RTVSPropertyOp32
 70
     1
  0
XRECORD
  5
81D
102
{ACAD_REACTORS
330
81C
102
}
330
81C
100
AcDbXrecord
280
     1
102
RTVSPropertyOp0
 70
     1
102
RTVSPropertyOp1
 70
     1
102
RTVSPropertyOp2
 70
     1
102
RTVSPropertyOp3
 70
     1
102
RTVSPropertyOp4
 70
     1
102
RTVSPropertyOp5
 70
     1
102
RTVSPropertyOp6
 70
     1
102
RTVSPropertyOp7
 70
     1
102
RTVSPropertyOp8
 70
     1
102
RTVSPropertyOp9
 70
     1
102
RTVSPropertyOp10
 70
     1
102
RTVSPropertyOp11
 70
     1
102
RTVSPropertyOp12
 70
     1
102
RTVSPropertyOp13
 70
     1
102
RTVSPropertyOp14
 70
     1
102
RTVSPropertyOp15
 70
     1
102
RTVSPropertyOp16
 70
     1
102
RTVSPropertyOp17
 70
     1
102
RTVSPropertyOp18
 70
     1
102
RTVSPropertyOp19
 70
     1
102
RTVSPropertyOp20
 70
     1
102
RTVSPropertyOp21
 70
     1
102
RTVSPropertyOp22
 70
     1
102
RTVSPropertyOp23
 70
     1
102
RTVSPropertyOp24
 70
     1
102
RTVSPropertyOp25
 70
     1
102
RTVSPropertyOp26
 70
     1
102
RTVSPropertyOp27
 70
     1
102
RTVSPropertyOp28
 70
     1
102
RTVSPropertyOp29
 70
     1
102
RTVSPropertyOp30
 70
     1
102
RTVSPropertyOp31
 70
     1
102
RTVSPropertyOp32
 70
     1
  0
XRECORD
  5
81F
102
{ACAD_REACTORS
330
81E
102
}
330
81E
100
AcDbXrecord
280
     1
102
RTVSPropertyOp0
 70
     1
102
RTVSPropertyOp1
 70
     1
102
RTVSPropertyOp2
 70
     1
102
RTVSPropertyOp3
 70
     1
102
RTVSPropertyOp4
 70
     1
102
RTVSPropertyOp5
 70
     1
102
RTVSPropertyOp6
 70
     1
102
RTVSPropertyOp7
 70
     1
102
RTVSPropertyOp8
 70
     1
102
RTVSPropertyOp9
 70
     1
102
RTVSPropertyOp10
 70
     1
102
RTVSPropertyOp11
 70
     1
102
RTVSPropertyOp12
 70
     1
102
RTVSPropertyOp13
 70
     1
102
RTVSPropertyOp14
 70
     1
102
RTVSPropertyOp15
 70
     1
102
RTVSPropertyOp16
 70
     1
102
RTVSPropertyOp17
 70
     1
102
RTVSPropertyOp18
 70
     1
102
RTVSPropertyOp19
 70
     1
102
RTVSPropertyOp20
 70
     1
102
RTVSPropertyOp21
 70
     1
102
RTVSPropertyOp22
 70
     1
102
RTVSPropertyOp23
 70
     1
102
RTVSPropertyOp24
 70
     1
102
RTVSPropertyOp25
 70
     1
102
RTVSPropertyOp26
 70
     1
102
RTVSPropertyOp27
 70
     1
102
RTVSPropertyOp28
 70
     1
102
RTVSPropertyOp29
 70
     1
102
RTVSPropertyOp30
 70
     1
102
RTVSPropertyOp31
 70
     1
102
RTVSPropertyOp32
 70
     1
  0
XRECORD
  5
827
102
{ACAD_REACTORS
330
826
102
}
330
826
100
AcDbXrecord
280
     1
102
RTVSPropertyOp0
 70
     1
102
RTVSPropertyOp1
 70
     1
102
RTVSPropertyOp2
 70
     1
102
RTVSPropertyOp3
 70
     1
102
RTVSPropertyOp4
 70
     1
102
RTVSPropertyOp5
 70
     1
102
RTVSPropertyOp6
 70
     1
102
RTVSPropertyOp7
 70
     1
102
RTVSPropertyOp8
 70
     1
102
RTVSPropertyOp9
 70
     1
102
RTVSPropertyOp10
 70
     1
102
RTVSPropertyOp11
 70
     1
102
RTVSPropertyOp12
 70
     1
102
RTVSPropertyOp13
 70
     1
102
RTVSPropertyOp14
 70
     1
102
RTVSPropertyOp15
 70
     1
102
RTVSPropertyOp16
 70
     1
102
RTVSPropertyOp17
 70
     1
102
RTVSPropertyOp18
 70
     1
102
RTVSPropertyOp19
 70
     1
102
RTVSPropertyOp20
 70
     1
102
RTVSPropertyOp21
 70
     1
102
RTVSPropertyOp22
 70
     1
102
RTVSPropertyOp23
 70
     1
102
RTVSPropertyOp24
 70
     1
102
RTVSPropertyOp25
 70
     1
102
RTVSPropertyOp26
 70
     1
102
RTVSPropertyOp27
 70
     1
102
RTVSPropertyOp28
 70
     1
102
RTVSPropertyOp29
 70
     1
102
RTVSPropertyOp30
 70
     1
102
RTVSPropertyOp31
 70
     1
102
RTVSPropertyOp32
 70
     1
  0
XRECORD
  5
843
102
{ACAD_REACTORS
330
842
102
}
330
842
100
AcDbXrecord
280
     1
102
RTVSPropertyOp0
 70
     0
102
RTVSPropertyOp1
 70
     0
102
RTVSPropertyOp2
 70
     0
102
RTVSPropertyOp3
 70
     0
102
RTVSPropertyOp4
 70
     0
102
RTVSPropertyOp5
 70
     0
102
RTVSPropertyOp6
 70
     0
102
RTVSPropertyOp7
 70
     0
102
RTVSPropertyOp8
 70
     0
102
RTVSPropertyOp9
 70
     0
102
RTVSPropertyOp10
 70
     0
102
RTVSPropertyOp11
 70
     0
102
RTVSPropertyOp12
 70
     0
102
RTVSPropertyOp13
 70
     0
102
RTVSPropertyOp14
 70
     2
102
RTVSPropertyOp15
 70
     0
102
RTVSPropertyOp16
 70
     0
102
RTVSPropertyOp17
 70
     0
102
RTVSPropertyOp18
 70
     0
102
RTVSPropertyOp19
 70
     0
102
RTVSPropertyOp20
 70
     0
102
RTVSPropertyOp21
 70
     0
102
RTVSPropertyOp22
 70
     0
102
RTVSPropertyOp23
 70
     0
102
RTVSPropertyOp24
 70
     0
102
RTVSPropertyOp25
 70
     0
102
RTVSPropertyOp26
 70
     0
102
RTVSPropertyOp27
 70
     0
102
RTVSPropertyOp28
 70
     1
102
RTVSPropertyOp29
 70
     1
102
RTVSPropertyOp30
 70
     1
102
RTVSPropertyOp31
 70
     1
102
RTVSPropertyOp32
 70
     1
  0
XRECORD
  5
833
102
{ACAD_REACTORS
330
832
102
}
330
832
100
AcDbXrecord
280
     1
102
RTVSPropertyOp0
 70
     1
102
RTVSPropertyOp1
 70
     1
102
RTVSPropertyOp2
 70
     1
102
RTVSPropertyOp3
 70
     1
102
RTVSPropertyOp4
 70
     1
102
RTVSPropertyOp5
 70
     1
102
RTVSPropertyOp6
 70
     1
102
RTVSPropertyOp7
 70
     1
102
RTVSPropertyOp8
 70
     1
102
RTVSPropertyOp9
 70
     1
102
RTVSPropertyOp10
 70
     1
102
RTVSPropertyOp11
 70
     1
102
RTVSPropertyOp12
 70
     1
102
RTVSPropertyOp13
 70
     1
102
RTVSPropertyOp14
 70
     1
102
RTVSPropertyOp15
 70
     1
102
RTVSPropertyOp16
 70
     1
102
RTVSPropertyOp17
 70
     1
102
RTVSPropertyOp18
 70
     1
102
RTVSPropertyOp19
 70
     1
102
RTVSPropertyOp20
 70
     1
102
RTVSPropertyOp21
 70
     1
102
RTVSPropertyOp22
 70
     1
102
RTVSPropertyOp23
 70
     1
102
RTVSPropertyOp24
 70
     1
102
RTVSPropertyOp25
 70
     1
102
RTVSPropertyOp26
 70
     1
102
RTVSPropertyOp27
 70
     1
102
RTVSPropertyOp28
 70
     1
102
RTVSPropertyOp29
 70
     1
102
RTVSPropertyOp30
 70
     1
102
RTVSPropertyOp31
 70
     1
102
RTVSPropertyOp32
 70
     1
  0
XRECORD
  5
845
102
{ACAD_REACTORS
330
844
102
}
330
844
100
AcDbXrecord
280
     1
102
RTVSPropertyOp0
 70
     0
102
RTVSPropertyOp1
 70
     0
102
RTVSPropertyOp2
 70
     0
102
RTVSPropertyOp3
 70
     0
102
RTVSPropertyOp4
 70
     0
102
RTVSPropertyOp5
 70
     0
102
RTVSPropertyOp6
 70
     0
102
RTVSPropertyOp7
 70
     0
102
RTVSPropertyOp8
 70
     0
102
RTVSPropertyOp9
 70
     0
102
RTVSPropertyOp10
 70
     0
102
RTVSPropertyOp11
 70
     0
102
RTVSPropertyOp12
 70
     0
102
RTVSPropertyOp13
 70
     0
102
RTVSPropertyOp14
 70
     2
102
RTVSPropertyOp15
 70
     0
102
RTVSPropertyOp16
 70
     0
102
RTVSPropertyOp17
 70
     0
102
RTVSPropertyOp18
 70
     0
102
RTVSPropertyOp19
 70
     0
102
RTVSPropertyOp20
 70
     0
102
RTVSPropertyOp21
 70
     0
102
RTVSPropertyOp22
 70
     0
102
RTVSPropertyOp23
 70
     0
102
RTVSPropertyOp24
 70
     0
102
RTVSPropertyOp25
 70
     0
102
RTVSPropertyOp26
 70
     0
102
RTVSPropertyOp27
 70
     0
102
RTVSPropertyOp28
 70
     1
102
RTVSPropertyOp29
 70
     1
102
RTVSPropertyOp30
 70
     1
102
RTVSPropertyOp31
 70
     1
102
RTVSPropertyOp32
 70
     1
  0
XRECORD
  5
82B
102
{ACAD_REACTORS
330
82A
102
}
330
82A
100
AcDbXrecord
280
     1
102
RTVSPropertyOp0
 70
     1
102
RTVSPropertyOp1
 70
     1
102
RTVSPropertyOp2
 70
     1
102
RTVSPropertyOp3
 70
     1
102
RTVSPropertyOp4
 70
     1
102
RTVSPropertyOp5
 70
     1
102
RTVSPropertyOp6
 70
     1
102
RTVSPropertyOp7
 70
     1
102
RTVSPropertyOp8
 70
     1
102
RTVSPropertyOp9
 70
     1
102
RTVSPropertyOp10
 70
     1
102
RTVSPropertyOp11
 70
     1
102
RTVSPropertyOp12
 70
     1
102
RTVSPropertyOp13
 70
     1
102
RTVSPropertyOp14
 70
     1
102
RTVSPropertyOp15
 70
     1
102
RTVSPropertyOp16
 70
     1
102
RTVSPropertyOp17
 70
     1
102
RTVSPropertyOp18
 70
     1
102
RTVSPropertyOp19
 70
     1
102
RTVSPropertyOp20
 70
     1
102
RTVSPropertyOp21
 70
     1
102
RTVSPropertyOp22
 70
     1
102
RTVSPropertyOp23
 70
     1
102
RTVSPropertyOp24
 70
     1
102
RTVSPropertyOp25
 70
     1
102
RTVSPropertyOp26
 70
     1
102
RTVSPropertyOp27
 70
     1
102
RTVSPropertyOp28
 70
     1
102
RTVSPropertyOp29
 70
     1
102
RTVSPropertyOp30
 70
     1
102
RTVSPropertyOp31
 70
     1
102
RTVSPropertyOp32
 70
     1
  0
XRECORD
  5
841
102
{ACAD_REACTORS
330
840
102
}
330
840
100
AcDbXrecord
280
     1
102
RTVSPropertyOp0
 70
     1
102
RTVSPropertyOp1
 70
     1
102
RTVSPropertyOp2
 70
     1
102
RTVSPropertyOp3
 70
     1
102
RTVSPropertyOp4
 70
     1
102
RTVSPropertyOp5
 70
     1
102
RTVSPropertyOp6
 70
     1
102
RTVSPropertyOp7
 70
     1
102
RTVSPropertyOp8
 70
     1
102
RTVSPropertyOp9
 70
     1
102
RTVSPropertyOp10
 70
     1
102
RTVSPropertyOp11
 70
     1
102
RTVSPropertyOp12
 70
     1
102
RTVSPropertyOp13
 70
     1
102
RTVSPropertyOp14
 70
     1
102
RTVSPropertyOp15
 70
     1
102
RTVSPropertyOp16
 70
     1
102
RTVSPropertyOp17
 70
     1
102
RTVSPropertyOp18
 70
     1
102
RTVSPropertyOp19
 70
     1
102
RTVSPropertyOp20
 70
     1
102
RTVSPropertyOp21
 70
     1
102
RTVSPropertyOp22
 70
     1
102
RTVSPropertyOp23
 70
     1
102
RTVSPropertyOp24
 70
     1
102
RTVSPropertyOp25
 70
     1
102
RTVSPropertyOp26
 70
     1
102
RTVSPropertyOp27
 70
     1
102
RTVSPropertyOp28
 70
     1
102
RTVSPropertyOp29
 70
     1
102
RTVSPropertyOp30
 70
     1
102
RTVSPropertyOp31
 70
     1
102
RTVSPropertyOp32
 70
     1
  0
XRECORD
  5
83F
102
{ACAD_REACTORS
330
83E
102
}
330
83E
100
AcDbXrecord
280
     1
102
RTVSPropertyOp0
 70
     1
102
RTVSPropertyOp1
 70
     1
102
RTVSPropertyOp2
 70
     1
102
RTVSPropertyOp3
 70
     1
102
RTVSPropertyOp4
 70
     1
102
RTVSPropertyOp5
 70
     1
102
RTVSPropertyOp6
 70
     1
102
RTVSPropertyOp7
 70
     1
102
RTVSPropertyOp8
 70
     1
102
RTVSPropertyOp9
 70
     1
102
RTVSPropertyOp10
 70
     1
102
RTVSPropertyOp11
 70
     1
102
RTVSPropertyOp12
 70
     1
102
RTVSPropertyOp13
 70
     1
102
RTVSPropertyOp14
 70
     1
102
RTVSPropertyOp15
 70
     1
102
RTVSPropertyOp16
 70
     1
102
RTVSPropertyOp17
 70
     1
102
RTVSPropertyOp18
 70
     1
102
RTVSPropertyOp19
 70
     1
102
RTVSPropertyOp20
 70
     1
102
RTVSPropertyOp21
 70
     1
102
RTVSPropertyOp22
 70
     1
102
RTVSPropertyOp23
 70
     1
102
RTVSPropertyOp24
 70
     1
102
RTVSPropertyOp25
 70
     1
102
RTVSPropertyOp26
 70
     1
102
RTVSPropertyOp27
 70
     1
102
RTVSPropertyOp28
 70
     1
102
RTVSPropertyOp29
 70
     1
102
RTVSPropertyOp30
 70
     1
102
RTVSPropertyOp31
 70
     1
102
RTVSPropertyOp32
 70
     1
  0
XRECORD
  5
839
102
{ACAD_REACTORS
330
838
102
}
330
838
100
AcDbXrecord
280
     1
102
RTVSPropertyOp0
 70
     1
102
RTVSPropertyOp1
 70
     1
102
RTVSPropertyOp2
 70
     1
102
RTVSPropertyOp3
 70
     1
102
RTVSPropertyOp4
 70
     1
102
RTVSPropertyOp5
 70
     1
102
RTVSPropertyOp6
 70
     1
102
RTVSPropertyOp7
 70
     1
102
RTVSPropertyOp8
 70
     1
102
RTVSPropertyOp9
 70
     1
102
RTVSPropertyOp10
 70
     1
102
RTVSPropertyOp11
 70
     1
102
RTVSPropertyOp12
 70
     1
102
RTVSPropertyOp13
 70
     1
102
RTVSPropertyOp14
 70
     1
102
RTVSPropertyOp15
 70
     1
102
RTVSPropertyOp16
 70
     1
102
RTVSPropertyOp17
 70
     1
102
RTVSPropertyOp18
 70
     1
102
RTVSPropertyOp19
 70
     1
102
RTVSPropertyOp20
 70
     1
102
RTVSPropertyOp21
 70
     1
102
RTVSPropertyOp22
 70
     1
102
RTVSPropertyOp23
 70
     1
102
RTVSPropertyOp24
 70
     1
102
RTVSPropertyOp25
 70
     1
102
RTVSPropertyOp26
 70
     1
102
RTVSPropertyOp27
 70
     1
102
RTVSPropertyOp28
 70
     1
102
RTVSPropertyOp29
 70
     1
102
RTVSPropertyOp30
 70
     1
102
RTVSPropertyOp31
 70
     1
102
RTVSPropertyOp32
 70
     1
  0
XRECORD
  5
83B
102
{ACAD_REACTORS
330
83A
102
}
330
83A
100
AcDbXrecord
280
     1
102
RTVSPropertyOp0
 70
     1
102
RTVSPropertyOp1
 70
     1
102
RTVSPropertyOp2
 70
     1
102
RTVSPropertyOp3
 70
     1
102
RTVSPropertyOp4
 70
     1
102
RTVSPropertyOp5
 70
     1
102
RTVSPropertyOp6
 70
     1
102
RTVSPropertyOp7
 70
     1
102
RTVSPropertyOp8
 70
     1
102
RTVSPropertyOp9
 70
     1
102
RTVSPropertyOp10
 70
     1
102
RTVSPropertyOp11
 70
     1
102
RTVSPropertyOp12
 70
     1
102
RTVSPropertyOp13
 70
     1
102
RTVSPropertyOp14
 70
     1
102
RTVSPropertyOp15
 70
     1
102
RTVSPropertyOp16
 70
     1
102
RTVSPropertyOp17
 70
     1
102
RTVSPropertyOp18
 70
     1
102
RTVSPropertyOp19
 70
     1
102
RTVSPropertyOp20
 70
     1
102
RTVSPropertyOp21
 70
     1
102
RTVSPropertyOp22
 70
     1
102
RTVSPropertyOp23
 70
     1
102
RTVSPropertyOp24
 70
     1
102
RTVSPropertyOp25
 70
     1
102
RTVSPropertyOp26
 70
     1
102
RTVSPropertyOp27
 70
     1
102
RTVSPropertyOp28
 70
     1
102
RTVSPropertyOp29
 70
     1
102
RTVSPropertyOp30
 70
     1
102
RTVSPropertyOp31
 70
     1
102
RTVSPropertyOp32
 70
     1
  0
XRECORD
  5
831
102
{ACAD_REACTORS
330
830
102
}
330
830
100
AcDbXrecord
280
     1
102
RTVSPropertyOp0
 70
     1
102
RTVSPropertyOp1
 70
     1
102
RTVSPropertyOp2
 70
     1
102
RTVSPropertyOp3
 70
     1
102
RTVSPropertyOp4
 70
     1
102
RTVSPropertyOp5
 70
     1
102
RTVSPropertyOp6
 70
     1
102
RTVSPropertyOp7
 70
     1
102
RTVSPropertyOp8
 70
     1
102
RTVSPropertyOp9
 70
     1
102
RTVSPropertyOp10
 70
     1
102
RTVSPropertyOp11
 70
     1
102
RTVSPropertyOp12
 70
     1
102
RTVSPropertyOp13
 70
     1
102
RTVSPropertyOp14
 70
     1
102
RTVSPropertyOp15
 70
     1
102
RTVSPropertyOp16
 70
     1
102
RTVSPropertyOp17
 70
     1
102
RTVSPropertyOp18
 70
     1
102
RTVSPropertyOp19
 70
     1
102
RTVSPropertyOp20
 70
     1
102
RTVSPropertyOp21
 70
     1
102
RTVSPropertyOp22
 70
     1
102
RTVSPropertyOp23
 70
     1
102
RTVSPropertyOp24
 70
     1
102
RTVSPropertyOp25
 70
     1
102
RTVSPropertyOp26
 70
     1
102
RTVSPropertyOp27
 70
     1
102
RTVSPropertyOp28
 70
     1
102
RTVSPropertyOp29
 70
     1
102
RTVSPropertyOp30
 70
     1
102
RTVSPropertyOp31
 70
     1
102
RTVSPropertyOp32
 70
     1
  0
XRECORD
  5
825
102
{ACAD_REACTORS
330
824
102
}
330
824
100
AcDbXrecord
280
     1
102
RTVSPropertyOp0
 70
     1
102
RTVSPropertyOp1
 70
     1
102
RTVSPropertyOp2
 70
     1
102
RTVSPropertyOp3
 70
     1
102
RTVSPropertyOp4
 70
     1
102
RTVSPropertyOp5
 70
     1
102
RTVSPropertyOp6
 70
     1
102
RTVSPropertyOp7
 70
     1
102
RTVSPropertyOp8
 70
     1
102
RTVSPropertyOp9
 70
     1
102
RTVSPropertyOp10
 70
     1
102
RTVSPropertyOp11
 70
     1
102
RTVSPropertyOp12
 70
     1
102
RTVSPropertyOp13
 70
     1
102
RTVSPropertyOp14
 70
     1
102
RTVSPropertyOp15
 70
     1
102
RTVSPropertyOp16
 70
     1
102
RTVSPropertyOp17
 70
     1
102
RTVSPropertyOp18
 70
     1
102
RTVSPropertyOp19
 70
     1
102
RTVSPropertyOp20
 70
     1
102
RTVSPropertyOp21
 70
     1
102
RTVSPropertyOp22
 70
     1
102
RTVSPropertyOp23
 70
     1
102
RTVSPropertyOp24
 70
     1
102
RTVSPropertyOp25
 70
     1
102
RTVSPropertyOp26
 70
     1
102
RTVSPropertyOp27
 70
     1
102
RTVSPropertyOp28
 70
     1
102
RTVSPropertyOp29
 70
     1
102
RTVSPropertyOp30
 70
     1
102
RTVSPropertyOp31
 70
     1
102
RTVSPropertyOp32
 70
     1
  0
XRECORD
  5
83D
102
{ACAD_REACTORS
330
83C
102
}
330
83C
100
AcDbXrecord
280
     1
102
RTVSPropertyOp0
 70
     1
102
RTVSPropertyOp1
 70
     1
102
RTVSPropertyOp2
 70
     1
102
RTVSPropertyOp3
 70
     1
102
RTVSPropertyOp4
 70
     1
102
RTVSPropertyOp5
 70
     1
102
RTVSPropertyOp6
 70
     1
102
RTVSPropertyOp7
 70
     1
102
RTVSPropertyOp8
 70
     1
102
RTVSPropertyOp9
 70
     1
102
RTVSPropertyOp10
 70
     1
102
RTVSPropertyOp11
 70
     1
102
RTVSPropertyOp12
 70
     1
102
RTVSPropertyOp13
 70
     1
102
RTVSPropertyOp14
 70
     1
102
RTVSPropertyOp15
 70
     1
102
RTVSPropertyOp16
 70
     1
102
RTVSPropertyOp17
 70
     1
102
RTVSPropertyOp18
 70
     1
102
RTVSPropertyOp19
 70
     1
102
RTVSPropertyOp20
 70
     1
102
RTVSPropertyOp21
 70
     1
102
RTVSPropertyOp22
 70
     1
102
RTVSPropertyOp23
 70
     1
102
RTVSPropertyOp24
 70
     1
102
RTVSPropertyOp25
 70
     1
102
RTVSPropertyOp26
 70
     1
102
RTVSPropertyOp27
 70
     1
102
RTVSPropertyOp28
 70
     1
102
RTVSPropertyOp29
 70
     1
102
RTVSPropertyOp30
 70
     1
102
RTVSPropertyOp31
 70
     1
102
RTVSPropertyOp32
 70
     1
  0
ENDSEC
  0
EOF
