  0
SECTION
  2
HEADER
  9
$ACADVER
  1
AC1018
  9
$ACADMAINTVER
 70
   104
  9
$DWGCODEPAGE
  3
ANSI_1252
  9
$AUTHOR
  1
PS
  9
$REVISIONNUMBER
  1
-
  9
$CUSTOMPROPERTYTAG
  1
Manager
  9
$CUSTOMPROPERTY
  1

  9
$CUSTOMPROPERTYTAG
  1
Company
  9
$CUSTOMPROPERTY
  1

  9
$CUSTOMPROPERTYTAG
  1
Category
  9
$CUSTOMPROPERTY
  1

  9
$CUSTOMPROPERTYTAG
  1
Part Number
  9
$CUSTOMPROPERTY
  1
N1P1216PP-S
  9
$CUSTOMPROPERTYTAG
  1
Description
  9
$CUSTOMPROPERTY
  1

  9
$CUSTOMPROPERTYTAG
  1
Project
  9
$CUSTOMPROPERTY
  1

  9
$CUSTOMPROPERTYTAG
  1
Designer
  9
$CUSTOMPROPERTY
  1
PS
  9
$CUSTOMPROPERTYTAG
  1
Engineer
  9
$CUSTOMPROPERTY
  1

  9
$CUSTOMPROPERTYTAG
  1
Authority
  9
$CUSTOMPROPERTY
  1

  9
$CUSTOMPROPERTYTAG
  1
Cost Center
  9
$CUSTOMPROPERTY
  1

  9
$CUSTOMPROPERTYTAG
  1
Vendor
  9
$CUSTOMPROPERTY
  1

  9
$CUSTOMPROPERTYTAG
  1
User Status
  9
$CUSTOMPROPERTY
  1

  9
$CUSTOMPROPERTYTAG
  1
Design Status
  9
$CUSTOMPROPERTY
  1
WorkInProgress
  9
$CUSTOMPROPERTYTAG
  1
Checked by
  9
$CUSTOMPROPERTY
  1
NJ
  9
$CUSTOMPROPERTYTAG
  1
Date Checked
  9
$CUSTOMPROPERTY
  1
06/21/2013
  9
$CUSTOMPROPERTYTAG
  1
Engr Approved by
  9
$CUSTOMPROPERTY
  1

  9
$CUSTOMPROPERTYTAG
  1
Date Eng Approved
  9
$CUSTOMPROPERTY
  1
06/21/2013
  9
$CUSTOMPROPERTYTAG
  1
Mfg Approved by
  9
$CUSTOMPROPERTY
  1

  9
$CUSTOMPROPERTYTAG
  1
DWG. NO
  9
$CUSTOMPROPERTY
  1

  9
$CUSTOMPROPERTYTAG
  1
NUMBER OF SHEETS
  9
$CUSTOMPROPERTY
  1
1
  9
$CUSTOMPROPERTYTAG
  1
DRAWING #
  9
$CUSTOMPROPERTY
  1
1
  9
$INSBASE
 10
0.0
 20
0.0
 30
0.0
  9
$EXTMIN
 10
0.0
 20
0.0
 30
0.0
  9
$EXTMAX
 10
42.5
 20
27.5
 30
0.0
  9
$LIMMIN
 10
0.0
 20
0.0
  9
$LIMMAX
 10
42.5
 20
27.5
  9
$ORTHOMODE
 70
     0
  9
$REGENMODE
 70
     1
  9
$FILLMODE
 70
     1
  9
$QTEXTMODE
 70
     0
  9
$MIRRTEXT
 70
     0
  9
$LTSCALE
 40
2.5
  9
$ATTMODE
 70
     1
  9
$TEXTSIZE
 40
0.2
  9
$TRACEWID
 40
0.05
  9
$TEXTSTYLE
  7
Standard
  9
$CLAYER
  8
0
  9
$CELTYPE
  6
ByLayer
  9
$CECOLOR
 62
   256
  9
$CELTSCALE
 40
1.0
  9
$DISPSILH
 70
     0
  9
$DIMSCALE
 40
1.0
  9
$DIMASZ
 40
0.0708661417322835
  9
$DIMEXO
 40
0.0625
  9
$DIMDLI
 40
0.38
  9
$DIMRND
 40
0.0
  9
$DIMDLE
 40
0.0
  9
$DIMEXE
 40
0.18
  9
$DIMTP
 40
0.0
  9
$DIMTM
 40
0.0
  9
$DIMTXT
 40
0.0708661417322835
  9
$DIMCEN
 40
0.09
  9
$DIMTSZ
 40
0.0
  9
$DIMTOL
 70
     0
  9
$DIMLIM
 70
     0
  9
$DIMTIH
 70
     1
  9
$DIMTOH
 70
     1
  9
$DIMSE1
 70
     0
  9
$DIMSE2
 70
     0
  9
$DIMTAD
 70
     0
  9
$DIMZIN
 70
     0
  9
$DIMBLK
  1

  9
$DIMASO
 70
     1
  9
$DIMSHO
 70
     1
  9
$DIMPOST
  1

  9
$DIMAPOST
  1

  9
$DIMALT
 70
     0
  9
$DIMALTD
 70
     2
  9
$DIMALTF
 40
25.4
  9
$DIMLFAC
 40
1.0
  9
$DIMTOFL
 70
     0
  9
$DIMTVP
 40
0.0
  9
$DIMTIX
 70
     0
  9
$DIMSOXD
 70
     0
  9
$DIMSAH
 70
     0
  9
$DIMBLK1
  1

  9
$DIMBLK2
  1

  9
$DIMSTYLE
  2
STANDARD
  9
$DIMCLRD
 70
     0
  9
$DIMCLRE
 70
     0
  9
$DIMCLRT
 70
     0
  9
$DIMTFAC
 40
1.0
  9
$DIMGAP
 40
0.09
  9
$DIMJUST
 70
     0
  9
$DIMSD1
 70
     0
  9
$DIMSD2
 70
     0
  9
$DIMTOLJ
 70
     1
  9
$DIMTZIN
 70
     0
  9
$DIMALTZ
 70
     0
  9
$DIMALTTZ
 70
     0
  9
$DIMUPT
 70
     0
  9
$DIMDEC
 70
     4
  9
$DIMTDEC
 70
     4
  9
$DIMALTU
 70
     2
  9
$DIMALTTD
 70
     2
  9
$DIMTXSTY
  7
Standard
  9
$DIMAUNIT
 70
     0
  9
$DIMADEC
 70
     0
  9
$DIMALTRND
 40
0.0
  9
$DIMAZIN
 70
     0
  9
$DIMDSEP
 70
    46
  9
$DIMATFIT
 70
     3
  9
$DIMFRAC
 70
     0
  9
$DIMLDRBLK
  1

  9
$DIMLUNIT
 70
     2
  9
$DIMLWD
 70
    -2
  9
$DIMLWE
 70
    -2
  9
$DIMTMOVE
 70
     0
  9
$LUNITS
 70
     2
  9
$LUPREC
 70
     4
  9
$SKETCHINC
 40
0.1
  9
$FILLETRAD
 40
0.0
  9
$AUNITS
 70
     0
  9
$AUPREC
 70
     0
  9
$MENU
  1
.
  9
$ELEVATION
 40
0.0
  9
$PELEVATION
 40
0.0
  9
$THICKNESS
 40
0.0
  9
$LIMCHECK
 70
     0
  9
$CHAMFERA
 40
0.0
  9
$CHAMFERB
 40
0.0
  9
$CHAMFERC
 40
0.0
  9
$CHAMFERD
 40
0.0
  9
$SKPOLY
 70
     0
  9
$TDCREATE
 40
2456476.364773357
  9
$TDUCREATE
 40
2456476.135606690
  9
$TDUPDATE
 40
2456476.364773357
  9
$TDUUPDATE
 40
2456476.135606690
  9
$TDINDWG
 40
0.0000419329
  9
$TDUSRTIMER
 40
0.0000419329
  9
$USRTIMER
 70
     1
  9
$ANGBASE
 50
0.0
  9
$ANGDIR
 70
     0
  9
$PDMODE
 70
     0
  9
$PDSIZE
 40
0.0
  9
$PLINEWID
 40
0.0
  9
$SPLFRAME
 70
     0
  9
$SPLINETYPE
 70
     6
  9
$SPLINESEGS
 70
     8
  9
$HANDSEED
  5
EA6
  9
$SURFTAB1
 70
     6
  9
$SURFTAB2
 70
     6
  9
$SURFTYPE
 70
     6
  9
$SURFU
 70
     6
  9
$SURFV
 70
     6
  9
$UCSBASE
  2

  9
$UCSNAME
  2

  9
$UCSORG
 10
0.0
 20
0.0
 30
0.0
  9
$UCSXDIR
 10
1.0
 20
0.0
 30
0.0
  9
$UCSYDIR
 10
0.0
 20
1.0
 30
0.0
  9
$UCSORTHOREF
  2

  9
$UCSORTHOVIEW
 70
     0
  9
$UCSORGTOP
 10
0.0
 20
0.0
 30
0.0
  9
$UCSORGBOTTOM
 10
0.0
 20
0.0
 30
0.0
  9
$UCSORGLEFT
 10
0.0
 20
0.0
 30
0.0
  9
$UCSORGRIGHT
 10
0.0
 20
0.0
 30
0.0
  9
$UCSORGFRONT
 10
0.0
 20
0.0
 30
0.0
  9
$UCSORGBACK
 10
0.0
 20
0.0
 30
0.0
  9
$PUCSBASE
  2

  9
$PUCSNAME
  2

  9
$PUCSORG
 10
0.0
 20
0.0
 30
0.0
  9
$PUCSXDIR
 10
1.0
 20
0.0
 30
0.0
  9
$PUCSYDIR
 10
0.0
 20
1.0
 30
0.0
  9
$PUCSORTHOREF
  2

  9
$PUCSORTHOVIEW
 70
     0
  9
$PUCSORGTOP
 10
0.0
 20
0.0
 30
0.0
  9
$PUCSORGBOTTOM
 10
0.0
 20
0.0
 30
0.0
  9
$PUCSORGLEFT
 10
0.0
 20
0.0
 30
0.0
  9
$PUCSORGRIGHT
 10
0.0
 20
0.0
 30
0.0
  9
$PUCSORGFRONT
 10
0.0
 20
0.0
 30
0.0
  9
$PUCSORGBACK
 10
0.0
 20
0.0
 30
0.0
  9
$USERI1
 70
     0
  9
$USERI2
 70
     0
  9
$USERI3
 70
     0
  9
$USERI4
 70
     0
  9
$USERI5
 70
     0
  9
$USERR1
 40
0.0
  9
$USERR2
 40
0.0
  9
$USERR3
 40
0.0
  9
$USERR4
 40
0.0
  9
$USERR5
 40
0.0
  9
$WORLDVIEW
 70
     1
  9
$SHADEDGE
 70
     3
  9
$SHADEDIF
 70
    70
  9
$TILEMODE
 70
     1
  9
$MAXACTVP
 70
    64
  9
$PINSBASE
 10
0.0
 20
0.0
 30
0.0
  9
$PLIMCHECK
 70
     0
  9
$PEXTMIN
 10
0.0
 20
0.0
 30
0.0
  9
$PEXTMAX
 10
42.5
 20
27.5
 30
0.0
  9
$PLIMMIN
 10
0.0
 20
0.0
  9
$PLIMMAX
 10
42.5
 20
27.5
  9
$UNITMODE
 70
     0
  9
$VISRETAIN
 70
     1
  9
$PLINEGEN
 70
     0
  9
$PSLTSCALE
 70
     1
  9
$TREEDEPTH
 70
  3020
  9
$CMLSTYLE
  2
Standard
  9
$CMLJUST
 70
     0
  9
$CMLSCALE
 40
1.0
  9
$PROXYGRAPHICS
 70
     1
  9
$MEASUREMENT
 70
     0
  9
$CELWEIGHT
370
    -1
  9
$ENDCAPS
280
     0
  9
$JOINSTYLE
280
     0
  9
$LWDISPLAY
290
     0
  9
$INSUNITS
 70
     1
  9
$HYPERLINKBASE
  1

  9
$STYLESHEET
  1

  9
$XEDIT
290
     1
  9
$CEPSNTYPE
380
     0
  9
$PSTYLEMODE
290
     1
  9
$FINGERPRINTGUID
  2
{BD051660-7AF8-429D-92B5-2F4330420DF7}
  9
$VERSIONGUID
  2
{679DA2E3-A421-40C0-9D43-7F7846C29082}
  9
$EXTNAMES
290
     1
  9
$PSVPSCALE
 40
0.0
  9
$OLESTARTUP
290
     0
  9
$SORTENTS
280
   127
  9
$INDEXCTL
280
     0
  9
$HIDETEXT
280
     1
  9
$XCLIPFRAME
290
     0
  9
$HALOGAP
280
     0
  9
$OBSCOLOR
 70
   257
  9
$OBSLTYPE
280
     0
  9
$INTERSECTIONDISPLAY
280
     0
  9
$INTERSECTIONCOLOR
 70
   257
  9
$DIMASSOC
280
     1
  9
$PROJECTNAME
  1

  0
ENDSEC
  0
SECTION
  2
CLASSES
  0
CLASS
  1
ACDBDICTIONARYWDFLT
  2
AcDbDictionaryWithDefault
  3
ObjectDBX Classes
 90
        0
 91
        1
280
     0
281
     0
  0
CLASS
  1
MATERIAL
  2
AcDbMaterial
  3
ObjectDBX Classes
 90
     1153
 91
        3
280
     0
281
     0
  0
CLASS
  1
VISUALSTYLE
  2
AcDbVisualStyle
  3
ObjectDBX Classes
 90
     4095
 91
       24
280
     0
281
     0
  0
CLASS
  1
SCALE
  2
AcDbScale
  3
ObjectDBX Classes
 90
     1153
 91
       17
280
     0
281
     0
  0
CLASS
  1
TABLESTYLE
  2
AcDbTableStyle
  3
ObjectDBX Classes
 90
     4095
 91
        1
280
     0
281
     0
  0
CLASS
  1
MLEADERSTYLE
  2
AcDbMLeaderStyle
  3
ACDB_MLEADERSTYLE_CLASS
 90
     4095
 91
        1
280
     0
281
     0
  0
CLASS
  1
DICTIONARYVAR
  2
AcDbDictionaryVar
  3
ObjectDBX Classes
 90
        0
 91
        8
280
     0
281
     0
  0
CLASS
  1
CELLSTYLEMAP
  2
AcDbCellStyleMap
  3
ObjectDBX Classes
 90
     1152
 91
        1
280
     0
281
     0
  0
ENDSEC
  0
SECTION
  2
TABLES
  0
TABLE
  2
VPORT
  5
8
330
0
100
AcDbSymbolTable
 70
     1
  0
VPORT
  5
57
330
8
100
AcDbSymbolTableRecord
100
AcDbViewportTableRecord
  2
*Active
 70
     0
 10
0.0
 20
0.0
 11
1.0
 21
1.0
 12
21.25
 22
13.75
 13
0.0
 23
0.0
 14
1.0
 24
1.0
 15
0.0
 25
0.0
 16
0.0
 26
0.0
 36
1.0
 17
0.0
 27
0.0
 37
0.0
 40
27.5
 41
1.545454545454545
 42
50.0
 43
0.0
 44
0.0
 50
0.0
 51
0.0
 71
     0
 72
   100
 73
     1
 74
     1
 75
     0
 76
     0
 77
     0
 78
     0
281
     0
 65
     1
110
0.0
120
0.0
130
0.0
111
1.0
121
0.0
131
0.0
112
0.0
122
1.0
132
0.0
 79
     0
146
0.0
  0
ENDTAB
  0
TABLE
  2
LTYPE
  5
5
330
0
100
AcDbSymbolTable
 70
    59
  0
LTYPE
  5
5B
330
5
100
AcDbSymbolTableRecord
100
AcDbLinetypeTableRecord
  2
ByBlock
 70
     0
  3

 72
    65
 73
     0
 40
0.0
  0
LTYPE
  5
5C
330
5
100
AcDbSymbolTableRecord
100
AcDbLinetypeTableRecord
  2
ByLayer
 70
     0
  3

 72
    65
 73
     0
 40
0.0
  0
LTYPE
  5
5D
330
5
100
AcDbSymbolTableRecord
100
AcDbLinetypeTableRecord
  2
Continuous
 70
     0
  3
Solid line
 72
    65
 73
     0
 40
0.0
  0
LTYPE
  5
7C
330
5
100
AcDbSymbolTableRecord
100
AcDbLinetypeTableRecord
  2
BY_STANDARD
 70
     0
  3
By Standard ____________    ____    ____   _
 72
    65
 73
     6
 40
1.240299999999999
 49
0.6614
 74
     0
 49
-0.0827
 74
     0
 49
0.1654
 74
     0
 49
-0.0827
 74
     0
 49
0.1654
 74
     0
 49
-0.0827
 74
     0
  0
LTYPE
  5
7D
330
5
100
AcDbSymbolTableRecord
100
AcDbLinetypeTableRecord
  2
CHAIN
 70
     0
  3
Chain ____ _ ____ _ ____ _ ____ _ ____ _ ____
 72
    65
 73
     4
 40
0.7087
 49
0.4724000000000001
 74
     0
 49
-0.0591
 74
     0
 49
0.1181
 74
     0
 49
-0.0591
 74
     0
  0
LTYPE
  5
7E
330
5
100
AcDbSymbolTableRecord
100
AcDbLinetypeTableRecord
  2
DASH_DOT
 70
     0
  3
Dash dot __ . __ . __ . __ . __ . __ . __ . __
 72
    65
 73
     4
 40
0.37
 49
0.24
 74
     0
 49
-0.06
 74
     0
 49
0.01
 74
     0
 49
-0.06
 74
     0
  0
LTYPE
  5
7F
330
5
100
AcDbSymbolTableRecord
100
AcDbLinetypeTableRecord
  2
DOUBLE_DASH_DOT
 70
     0
  3
Double-Dash Dot __ __ . __ __ . __ __ . __ _
 72
    65
 73
     6
 40
0.4398
 49
0.24
 74
     0
 49
-0.06
 74
     0
 49
0.0098
 74
     0
 49
-0.06
 74
     0
 49
0.01
 74
     0
 49
-0.06
 74
     0
  0
LTYPE
  5
80
330
5
100
AcDbSymbolTableRecord
100
AcDbLinetypeTableRecord
  2
DASH_TRIPLE_DOT
 70
     0
  3
Dash Triple-Dot _ . . . _ . . . _ . . . _
 72
    65
 73
     8
 40
0.51
 49
0.24
 74
     0
 49
-0.06
 74
     0
 49
0.01
 74
     0
 49
-0.06
 74
     0
 49
0.01
 74
     0
 49
-0.06
 74
     0
 49
0.01
 74
     0
 49
-0.06
 74
     0
  0
LTYPE
  5
81
330
5
100
AcDbSymbolTableRecord
100
AcDbLinetypeTableRecord
  2
DASHED
 70
     0
  3
Dashed __ __ __ __ __ __ __ __ __ __ __ __ __ _
 72
    65
 73
     2
 40
0.2067
 49
0.1654
 74
     0
 49
-0.0413
 74
     0
  0
LTYPE
  5
82
330
5
100
AcDbSymbolTableRecord
100
AcDbLinetypeTableRecord
  2
DASH_DOUBLE_DOT
 70
     0
  3
Dash Double-Dot __ . . __ . . __ . . __ . .
 72
    65
 73
     6
 40
0.4398
 49
0.24
 74
     0
 49
-0.06
 74
     0
 49
0.0098
 74
     0
 49
-0.06
 74
     0
 49
0.01
 74
     0
 49
-0.06
 74
     0
  0
LTYPE
  5
83
330
5
100
AcDbSymbolTableRecord
100
AcDbLinetypeTableRecord
  2
DASHED_SPACE
 70
     0
  3
Dashed Space __ __ __ __ __ __ __ __ __ __ __ _
 72
    65
 73
     2
 40
0.2067
 49
0.1654
 74
     0
 49
-0.0413
 74
     0
  0
LTYPE
  5
84
330
5
100
AcDbSymbolTableRecord
100
AcDbLinetypeTableRecord
  2
DOTTED
 70
     0
  3
Dotted . . . . . . . . . . . . . . . . . . . . 
 72
    65
 73
     2
 40
0.0482
 49
0.0069
 74
     0
 49
-0.0413
 74
     0
  0
LTYPE
  5
85
330
5
100
AcDbSymbolTableRecord
100
AcDbLinetypeTableRecord
  2
DOUBLE_DASH_CHAIN
 70
     0
  3
Double-Dash Chain ______  __  __  ______  __  _
 72
    65
 73
     6
 40
1.240299999999999
 49
0.6614
 74
     0
 49
-0.0827
 74
     0
 49
0.1654
 74
     0
 49
-0.0827
 74
     0
 49
0.1654
 74
     0
 49
-0.0827
 74
     0
  0
LTYPE
  5
87
330
5
100
AcDbSymbolTableRecord
100
AcDbLinetypeTableRecord
  2
DOUBLE_DASH_DOUBLE_DOT
 70
     0
  3
Double-Dash Double-dot _ _ . . _ _ . . _
 72
    65
 73
     8
 40
0.7400000000000001
 49
0.24
 74
     0
 49
-0.06
 74
     0
 49
0.24
 74
     0
 49
-0.06
 74
     0
 49
0.01
 74
     0
 49
-0.06
 74
     0
 49
0.01
 74
     0
 49
-0.06
 74
     0
  0
LTYPE
  5
88
330
5
100
AcDbSymbolTableRecord
100
AcDbLinetypeTableRecord
  2
DOUBLE_DASH_TRIPLE_DOT
 70
     0
  3
Double Dash Triple Dot __ __ . . . __ __ . .
 72
    65
 73
    10
 40
0.8100000000000001
 49
0.24
 74
     0
 49
-0.06
 74
     0
 49
0.24
 74
     0
 49
-0.06
 74
     0
 49
0.01
 74
     0
 49
-0.06
 74
     0
 49
0.01
 74
     0
 49
-0.06
 74
     0
 49
0.01
 74
     0
 49
-0.06
 74
     0
  0
LTYPE
  5
89
330
5
100
AcDbSymbolTableRecord
100
AcDbLinetypeTableRecord
  2
LONG_DASH_DOTTED
 70
     0
  3
Long Dash Dotted ____ . ____ . ____ . ____ . _
 72
    65
 73
     4
 40
0.3543
 49
0.2362
 74
     0
 49
-0.0295
 74
     0
 49
0.0591
 74
     0
 49
-0.0295
 74
     0
  0
LTYPE
  5
8A
330
5
100
AcDbSymbolTableRecord
100
AcDbLinetypeTableRecord
  2
LONG_DASH_DOUBLE_DOT
 70
     0
  3
Long Dash Double Dot ________  .  .  ________  
 72
    65
 73
     6
 40
0.6799999999999999
 49
0.48
 74
     0
 49
-0.06
 74
     0
 49
0.01
 74
     0
 49
-0.06
 74
     0
 49
0.01
 74
     0
 49
-0.06
 74
     0
  0
LTYPE
  5
8B
330
5
100
AcDbSymbolTableRecord
100
AcDbLinetypeTableRecord
  2
LONG_DASH_TRIPLE_DOT
 70
     0
  3
Long Dash Triple Dot ____ ... ____ ... ____
 72
    65
 73
     8
 40
0.3689
 49
0.2362
 74
     0
 49
-0.0295
 74
     0
 49
0.0049
 74
     0
 49
-0.0295
 74
     0
 49
0.0049
 74
     0
 49
-0.0295
 74
     0
 49
0.0049
 74
     0
 49
-0.0295
 74
     0
  0
LTYPE
  5
8C
330
5
100
AcDbSymbolTableRecord
100
AcDbLinetypeTableRecord
  2
BORDER
 70
     0
  3
Border __ __ . __ __ . __ __ . __ __ . __ __ .
 72
    65
 73
     6
 40
1.75
 49
0.5
 74
     0
 49
-0.25
 74
     0
 49
0.5
 74
     0
 49
-0.25
 74
     0
 49
0.0
 74
     0
 49
-0.25
 74
     0
  0
LTYPE
  5
8D
330
5
100
AcDbSymbolTableRecord
100
AcDbLinetypeTableRecord
  2
BORDER2
 70
     0
  3
Border (.5x) __.__.__.__.__.__.__.__.__.__.__.
 72
    65
 73
     6
 40
0.875
 49
0.25
 74
     0
 49
-0.125
 74
     0
 49
0.25
 74
     0
 49
-0.125
 74
     0
 49
0.0
 74
     0
 49
-0.125
 74
     0
  0
LTYPE
  5
8E
330
5
100
AcDbSymbolTableRecord
100
AcDbLinetypeTableRecord
  2
BORDERX2
 70
     0
  3
Border (2x) ____  ____  .  ____  ____  .  ___
 72
    65
 73
     6
 40
3.5
 49
1.0
 74
     0
 49
-0.5
 74
     0
 49
1.0
 74
     0
 49
-0.5
 74
     0
 49
0.0
 74
     0
 49
-0.5
 74
     0
  0
LTYPE
  5
8F
330
5
100
AcDbSymbolTableRecord
100
AcDbLinetypeTableRecord
  2
CENTER
 70
     0
  3
Center ____ _ ____ _ ____ _ ____ _ ____ _ ____
 72
    65
 73
     4
 40
2.0
 49
1.25
 74
     0
 49
-0.25
 74
     0
 49
0.25
 74
     0
 49
-0.25
 74
     0
  0
LTYPE
  5
90
330
5
100
AcDbSymbolTableRecord
100
AcDbLinetypeTableRecord
  2
CENTER2
 70
     0
  3
Center (.5x) ___ _ ___ _ ___ _ ___ _ ___ _ ___
 72
    65
 73
     4
 40
1.125
 49
0.75
 74
     0
 49
-0.125
 74
     0
 49
0.125
 74
     0
 49
-0.125
 74
     0
  0
LTYPE
  5
91
330
5
100
AcDbSymbolTableRecord
100
AcDbLinetypeTableRecord
  2
CENTERX2
 70
     0
  3
Center (2x) ________  __  ________  __  _____
 72
    65
 73
     4
 40
4.0
 49
2.5
 74
     0
 49
-0.5
 74
     0
 49
0.5
 74
     0
 49
-0.5
 74
     0
  0
LTYPE
  5
92
330
5
100
AcDbSymbolTableRecord
100
AcDbLinetypeTableRecord
  2
DASHDOT2
 70
     0
  3
Dash dot (.5x) _._._._._._._._._._._._._._._.
 72
    65
 73
     4
 40
0.5
 49
0.25
 74
     0
 49
-0.125
 74
     0
 49
0.0
 74
     0
 49
-0.125
 74
     0
  0
LTYPE
  5
93
330
5
100
AcDbSymbolTableRecord
100
AcDbLinetypeTableRecord
  2
DASHDOTX2
 70
     0
  3
Dash dot (2x) ____  .  ____  .  ____  .  ___
 72
    65
 73
     4
 40
2.0
 49
1.0
 74
     0
 49
-0.5
 74
     0
 49
0.0
 74
     0
 49
-0.5
 74
     0
  0
LTYPE
  5
95
330
5
100
AcDbSymbolTableRecord
100
AcDbLinetypeTableRecord
  2
DASHED2
 70
     0
  3
Dashed (.5x) _ _ _ _ _ _ _ _ _ _ _ _ _ _ _ _ _
 72
    65
 73
     2
 40
0.375
 49
0.25
 74
     0
 49
-0.125
 74
     0
  0
LTYPE
  5
96
330
5
100
AcDbSymbolTableRecord
100
AcDbLinetypeTableRecord
  2
DASHEDX2
 70
     0
  3
Dashed (2x) ____  ____  ____  ____  ____  ___
 72
    65
 73
     2
 40
1.5
 49
1.0
 74
     0
 49
-0.5
 74
     0
  0
LTYPE
  5
97
330
5
100
AcDbSymbolTableRecord
100
AcDbLinetypeTableRecord
  2
DIVIDE
 70
     0
  3
Divide ____ . . ____ . . ____ . . ____ . . ____
 72
    65
 73
     6
 40
1.25
 49
0.5
 74
     0
 49
-0.25
 74
     0
 49
0.0
 74
     0
 49
-0.25
 74
     0
 49
0.0
 74
     0
 49
-0.25
 74
     0
  0
LTYPE
  5
98
330
5
100
AcDbSymbolTableRecord
100
AcDbLinetypeTableRecord
  2
DIVIDE2
 70
     0
  3
Divide (.5x) __..__..__..__..__..__..__..__.._
 72
    65
 73
     6
 40
0.625
 49
0.25
 74
     0
 49
-0.125
 74
     0
 49
0.0
 74
     0
 49
-0.125
 74
     0
 49
0.0
 74
     0
 49
-0.125
 74
     0
  0
LTYPE
  5
99
330
5
100
AcDbSymbolTableRecord
100
AcDbLinetypeTableRecord
  2
DIVIDEX2
 70
     0
  3
Divide (2x) ________  .  .  ________  .  .  _
 72
    65
 73
     6
 40
2.5
 49
1.0
 74
     0
 49
-0.5
 74
     0
 49
0.0
 74
     0
 49
-0.5
 74
     0
 49
0.0
 74
     0
 49
-0.5
 74
     0
  0
LTYPE
  5
9A
330
5
100
AcDbSymbolTableRecord
100
AcDbLinetypeTableRecord
  2
DOT
 70
     0
  3
Dot . . . . . . . . . . . . . . . . . . . . . .
 72
    65
 73
     2
 40
0.25
 49
0.0
 74
     0
 49
-0.25
 74
     0
  0
LTYPE
  5
9B
330
5
100
AcDbSymbolTableRecord
100
AcDbLinetypeTableRecord
  2
DOT2
 70
     0
  3
Dot (.5x) .....................................
 72
    65
 73
     2
 40
0.125
 49
0.0
 74
     0
 49
-0.125
 74
     0
  0
LTYPE
  5
9C
330
5
100
AcDbSymbolTableRecord
100
AcDbLinetypeTableRecord
  2
DOTX2
 70
     0
  3
Dot (2x) .  .  .  .  .  .  .  .  .  .  .  .  . 
 72
    65
 73
     2
 40
0.5
 49
0.0
 74
     0
 49
-0.5
 74
     0
  0
LTYPE
  5
9D
330
5
100
AcDbSymbolTableRecord
100
AcDbLinetypeTableRecord
  2
HIDDEN
 70
     0
  3
Hidden __ __ __ __ __ __ __ __ __ __ __ __ __ _
 72
    65
 73
     2
 40
0.375
 49
0.25
 74
     0
 49
-0.125
 74
     0
  0
LTYPE
  5
9E
330
5
100
AcDbSymbolTableRecord
100
AcDbLinetypeTableRecord
  2
HIDDEN2
 70
     0
  3
Hidden (.5x) _ _ _ _ _ _ _ _ _ _ _ _ _ _ _ _ _
 72
    65
 73
     2
 40
0.1875
 49
0.125
 74
     0
 49
-0.0625
 74
     0
  0
LTYPE
  5
9F
330
5
100
AcDbSymbolTableRecord
100
AcDbLinetypeTableRecord
  2
HIDDENX2
 70
     0
  3
Hidden (2x) ____ ____ ____ ____ ____ ____ ____
 72
    65
 73
     2
 40
0.75
 49
0.5
 74
     0
 49
-0.25
 74
     0
  0
LTYPE
  5
A0
330
5
100
AcDbSymbolTableRecord
100
AcDbLinetypeTableRecord
  2
PHANTOM
 70
     0
  3
Phantom ______  __  __  ______  __  __  ______
 72
    65
 73
     6
 40
2.5
 49
1.25
 74
     0
 49
-0.25
 74
     0
 49
0.25
 74
     0
 49
-0.25
 74
     0
 49
0.25
 74
     0
 49
-0.25
 74
     0
  0
LTYPE
  5
A1
330
5
100
AcDbSymbolTableRecord
100
AcDbLinetypeTableRecord
  2
PHANTOM2
 70
     0
  3
Phantom (.5x) ___ _ _ ___ _ _ ___ _ _ ___ _ _
 72
    65
 73
     6
 40
1.25
 49
0.625
 74
     0
 49
-0.125
 74
     0
 49
0.125
 74
     0
 49
-0.125
 74
     0
 49
0.125
 74
     0
 49
-0.125
 74
     0
  0
LTYPE
  5
A2
330
5
100
AcDbSymbolTableRecord
100
AcDbLinetypeTableRecord
  2
PHANTOMX2
 70
     0
  3
Phantom (2x) ____________    ____    ____   _
 72
    65
 73
     6
 40
5.0
 49
2.5
 74
     0
 49
-0.5
 74
     0
 49
0.5
 74
     0
 49
-0.5
 74
     0
 49
0.5
 74
     0
 49
-0.5
 74
     0
  0
LTYPE
  5
A3
330
5
100
AcDbSymbolTableRecord
100
AcDbLinetypeTableRecord
  2
ACAD_ISO02W100
 70
     0
  3
ISO dash __ __ __ __ __ __ __ __ __ __ __ __ __
 72
    65
 73
     2
 40
0.59
 49
0.47
 74
     0
 49
-0.12
 74
     0
  0
LTYPE
  5
A4
330
5
100
AcDbSymbolTableRecord
100
AcDbLinetypeTableRecord
  2
ACAD_ISO03W100
 70
     0
  3
ISO dash space __    __    __    __    __    __
 72
    65
 73
     2
 40
1.179999999999999
 49
0.47
 74
     0
 49
-0.71
 74
     0
  0
LTYPE
  5
A5
330
5
100
AcDbSymbolTableRecord
100
AcDbLinetypeTableRecord
  2
ACAD_ISO04W100
 70
     0
  3
ISO long-dash dot ____ . ____ . ____ . ____ . _
 72
    65
 73
     4
 40
1.179999999999999
 49
0.9399999999999998
 74
     0
 49
-0.12
 74
     0
 49
0.0
 74
     0
 49
-0.12
 74
     0
  0
LTYPE
  5
A6
330
5
100
AcDbSymbolTableRecord
100
AcDbLinetypeTableRecord
  2
ACAD_ISO05W100
 70
     0
  3
ISO long-dash double-dot ____ .. ____ .. ____ .
 72
    65
 73
     6
 40
1.299999999999999
 49
0.9399999999999998
 74
     0
 49
-0.12
 74
     0
 49
0.0
 74
     0
 49
-0.12
 74
     0
 49
0.0
 74
     0
 49
-0.12
 74
     0
  0
LTYPE
  5
A7
330
5
100
AcDbSymbolTableRecord
100
AcDbLinetypeTableRecord
  2
ACAD_ISO06W100
 70
     0
  3
ISO long-dash triple-dot ____ ... ____ ... ____
 72
    65
 73
     8
 40
1.419999999999999
 49
0.9399999999999998
 74
     0
 49
-0.12
 74
     0
 49
0.0
 74
     0
 49
-0.12
 74
     0
 49
0.0
 74
     0
 49
-0.12
 74
     0
 49
0.0
 74
     0
 49
-0.12
 74
     0
  0
LTYPE
  5
A8
330
5
100
AcDbSymbolTableRecord
100
AcDbLinetypeTableRecord
  2
ACAD_ISO07W100
 70
     0
  3
ISO dot . . . . . . . . . . . . . . . . . . . .
 72
    65
 73
     2
 40
0.12
 49
0.0
 74
     0
 49
-0.12
 74
     0
  0
LTYPE
  5
A9
330
5
100
AcDbSymbolTableRecord
100
AcDbLinetypeTableRecord
  2
ACAD_ISO08W100
 70
     0
  3
ISO long-dash short-dash ____ __ ____ __ ____ _
 72
    65
 73
     4
 40
0.95
 49
0.47
 74
     0
 49
-0.12
 74
     0
 49
0.24
 74
     0
 49
-0.12
 74
     0
  0
LTYPE
  5
AA
330
5
100
AcDbSymbolTableRecord
100
AcDbLinetypeTableRecord
  2
ACAD_ISO09W100
 70
     0
  3
ISO long-dash double-short-dash ____ __ __ ____
 72
    65
 73
     6
 40
1.31
 49
0.47
 74
     0
 49
-0.12
 74
     0
 49
0.24
 74
     0
 49
-0.12
 74
     0
 49
0.24
 74
     0
 49
-0.12
 74
     0
  0
LTYPE
  5
AB
330
5
100
AcDbSymbolTableRecord
100
AcDbLinetypeTableRecord
  2
ACAD_ISO10W100
 70
     0
  3
ISO dash dot __ . __ . __ . __ . __ . __ . __ .
 72
    65
 73
     4
 40
0.71
 49
0.47
 74
     0
 49
-0.12
 74
     0
 49
0.0
 74
     0
 49
-0.12
 74
     0
  0
LTYPE
  5
AC
330
5
100
AcDbSymbolTableRecord
100
AcDbLinetypeTableRecord
  2
ACAD_ISO11W100
 70
     0
  3
ISO double-dash dot __ __ . __ __ . __ __ . __ 
 72
    65
 73
     6
 40
1.299999999999999
 49
0.47
 74
     0
 49
-0.12
 74
     0
 49
0.47
 74
     0
 49
-0.12
 74
     0
 49
0.0
 74
     0
 49
-0.12
 74
     0
  0
LTYPE
  5
AD
330
5
100
AcDbSymbolTableRecord
100
AcDbLinetypeTableRecord
  2
ACAD_ISO12W100
 70
     0
  3
ISO dash double-dot __ . . __ . . __ . . __ . .
 72
    65
 73
     6
 40
0.8299999999999998
 49
0.47
 74
     0
 49
-0.12
 74
     0
 49
0.0
 74
     0
 49
-0.12
 74
     0
 49
0.0
 74
     0
 49
-0.12
 74
     0
  0
LTYPE
  5
AE
330
5
100
AcDbSymbolTableRecord
100
AcDbLinetypeTableRecord
  2
ACAD_ISO13W100
 70
     0
  3
ISO double-dash double-dot __ __ . . __ __ . . 
 72
    65
 73
     8
 40
1.419999999999999
 49
0.47
 74
     0
 49
-0.12
 74
     0
 49
0.47
 74
     0
 49
-0.12
 74
     0
 49
0.0
 74
     0
 49
-0.12
 74
     0
 49
0.0
 74
     0
 49
-0.12
 74
     0
  0
LTYPE
  5
AF
330
5
100
AcDbSymbolTableRecord
100
AcDbLinetypeTableRecord
  2
ACAD_ISO14W100
 70
     0
  3
ISO dash triple-dot __ . . . __ . . . __ . . . 
 72
    65
 73
     8
 40
0.95
 49
0.47
 74
     0
 49
-0.12
 74
     0
 49
0.0
 74
     0
 49
-0.12
 74
     0
 49
0.0
 74
     0
 49
-0.12
 74
     0
 49
0.0
 74
     0
 49
-0.12
 74
     0
  0
LTYPE
  5
B0
330
5
100
AcDbSymbolTableRecord
100
AcDbLinetypeTableRecord
  2
ACAD_ISO15W100
 70
     0
  3
ISO double-dash triple-dot __ __ . . . __ __ . 
 72
    65
 73
    10
 40
1.539999999999999
 49
0.47
 74
     0
 49
-0.12
 74
     0
 49
0.47
 74
     0
 49
-0.12
 74
     0
 49
0.0
 74
     0
 49
-0.12
 74
     0
 49
0.0
 74
     0
 49
-0.12
 74
     0
 49
0.0
 74
     0
 49
-0.12
 74
     0
  0
LTYPE
  5
B3
330
5
100
AcDbSymbolTableRecord
100
AcDbLinetypeTableRecord
  2
FENCELINE1
 70
     0
  3
Fenceline circle ----0-----0----0-----0----0---
 72
    65
 73
     4
 40
1.45
 49
0.25
 74
     0
 49
-0.1
 74
     4
 75
   133
340
B2
 46
0.1
 50
0.0
 44
-0.1
 45
0.0
 49
-0.1
 74
     0
 49
1.0
 74
     0
  0
LTYPE
  5
B4
330
5
100
AcDbSymbolTableRecord
100
AcDbLinetypeTableRecord
  2
FENCELINE2
 70
     0
  3
Fenceline square ----[]-----[]----[]-----[]----
 72
    65
 73
     4
 40
1.45
 49
0.25
 74
     0
 49
-0.1
 74
     4
 75
   132
340
B2
 46
0.1
 50
0.0
 44
-0.1
 45
0.0
 49
-0.1
 74
     0
 49
1.0
 74
     0
  0
LTYPE
  5
B5
330
5
100
AcDbSymbolTableRecord
100
AcDbLinetypeTableRecord
  2
TRACKS
 70
     0
  3
Tracks -|-|-|-|-|-|-|-|-|-|-|-|-|-|-|-|-|-|-|-|
 72
    65
 73
     2
 40
0.3
 49
0.15
 74
     4
 75
   130
340
B2
 46
0.25
 50
0.0
 44
0.0
 45
0.0
 49
0.15
 74
     0
  0
LTYPE
  5
B6
330
5
100
AcDbSymbolTableRecord
100
AcDbLinetypeTableRecord
  2
BATTING
 70
     0
  3
Batting SSSSSSSSSSSSSSSSSSSSSSSSSSSSSSSSSSSSSSS
 72
    65
 73
     4
 40
0.4001000000000001
 49
0.0001
 74
     0
 49
-0.1
 74
     4
 75
   134
340
B2
 46
0.1
 50
0.0
 44
-0.1
 45
0.0
 49
-0.2
 74
     4
 75
   134
340
B2
 46
0.1
 50
180.0
 44
0.1
 45
0.0
 49
-0.1
 74
     0
  0
LTYPE
  5
B7
330
5
100
AcDbSymbolTableRecord
100
AcDbLinetypeTableRecord
  2
HOT_WATER_SUPPLY
 70
     0
  3
Hot water supply ---- HW ---- HW ---- HW ----
 72
    65
 73
     3
 40
0.9
 49
0.5
 74
     0
 49
-0.2
 74
     2
 75
     0
340
55
 46
0.1
 50
0.0
 44
-0.1
 45
-0.05
  9
HW
 49
-0.2
 74
     0
  0
LTYPE
  5
B8
330
5
100
AcDbSymbolTableRecord
100
AcDbLinetypeTableRecord
  2
GAS_LINE
 70
     0
  3
Gas line ----GAS----GAS----GAS----GAS----GAS---
 72
    65
 73
     3
 40
0.95
 49
0.5
 74
     0
 49
-0.2
 74
     2
 75
     0
340
55
 46
0.1
 50
0.0
 44
-0.1
 45
-0.05
  9
GAS
 49
-0.25
 74
     0
  0
LTYPE
  5
B9
330
5
100
AcDbSymbolTableRecord
100
AcDbLinetypeTableRecord
  2
ZIGZAG
 70
     0
  3
Zig zag /\/\/\/\/\/\/\/\/\/\/\/\/\/\/\/\/\/\/\/
 72
    65
 73
     4
 40
0.8001000000000001
 49
0.0001
 74
     0
 49
-0.2
 74
     4
 75
   131
340
B2
 46
0.2
 50
0.0
 44
-0.2
 45
0.0
 49
-0.4
 74
     4
 75
   131
340
B2
 46
0.2
 50
180.0
 44
0.2
 45
0.0
 49
-0.2
 74
     0
  0
ENDTAB
  0
TABLE
  2
LAYER
  5
2
330
0
100
AcDbSymbolTable
 70
    27
  0
LAYER
  5
54
330
2
100
AcDbSymbolTableRecord
100
AcDbLayerTableRecord
  2
0
 70
     0
 62
     7
  6
Continuous
370
    18
390
F
  0
LAYER
  5
C0
330
2
100
AcDbSymbolTableRecord
100
AcDbLayerTableRecord
  2
Center Mark (ANSI)
 70
     0
 62
     7
  6
Continuous
370
    15
390
F
  0
LAYER
  5
C1
330
2
100
AcDbSymbolTableRecord
100
AcDbLayerTableRecord
  2
Centerline (ANSI)
 70
     0
 62
     7
  6
Continuous
370
    15
390
F
  0
LAYER
  5
C3
330
2
100
AcDbSymbolTableRecord
100
AcDbLayerTableRecord
  2
Dimension (ANSI)
 70
     0
 62
     7
  6
Continuous
370
    13
390
F
  0
LAYER
  5
C5
330
2
100
AcDbSymbolTableRecord
100
AcDbLayerTableRecord
  2
Hidden (ANSI)
 70
     0
 62
     7
  6
DASHED
370
    15
390
F
  0
LAYER
  5
CB
330
2
100
AcDbSymbolTableRecord
100
AcDbLayerTableRecord
  2
Sketch Geometry (ANSI)
 70
     0
 62
     7
  6
Continuous
370
    20
390
F
  0
LAYER
  5
CC
330
2
100
AcDbSymbolTableRecord
100
AcDbLayerTableRecord
  2
Symbol (ANSI)
 70
     0
 62
     7
  6
Continuous
370
    18
390
F
  0
LAYER
  5
CF
330
2
100
AcDbSymbolTableRecord
100
AcDbLayerTableRecord
  2
Visible (ANSI)
 70
     0
 62
     7
  6
Continuous
370
    13
390
F
  0
LAYER
  5
D0
330
2
100
AcDbSymbolTableRecord
100
AcDbLayerTableRecord
  2
Visible Narrow (ANSI)
 70
     0
 62
     7
  6
Continuous
370
    18
390
F
  0
LAYER
  5
16F
330
2
100
AcDbSymbolTableRecord
100
AcDbLayerTableRecord
  2
Defpoints
 70
     0
 62
     7
  6
Continuous
290
     0
370
    -3
390
F
  0
ENDTAB
  0
TABLE
  2
STYLE
  5
3
330
0
100
AcDbSymbolTable
 70
    18
  0
STYLE
  5
55
330
3
100
AcDbSymbolTableRecord
100
AcDbTextStyleTableRecord
  2
Standard
 70
     0
 40
0.0
 41
1.0
 50
0.0
 71
     0
 42
0.2
  3
txt
  4

  0
STYLE
  5
5A
330
3
100
AcDbSymbolTableRecord
100
AcDbTextStyleTableRecord
  2
Annotative
 70
     0
 40
0.0
 41
1.0
 50
0.0
 71
     0
 42
0.2
  3
txt
  4

1001
AcadAnnotative
1000
AnnotativeData
1002
{
1070
     1
1070
     1
1002
}
  0
STYLE
  5
B2
330
3
100
AcDbSymbolTableRecord
100
AcDbTextStyleTableRecord
  2

 70
     1
 40
0.0
 41
1.0
 50
0.0
 71
     0
 42
0.2
  3
ltypeshp.shx
  4

  0
STYLE
  5
D4
330
3
100
AcDbSymbolTableRecord
100
AcDbTextStyleTableRecord
  2
ITALICC_120
 70
     0
 40
0.0
 41
1.0
 50
0.0
 71
     0
 42
0.2
  3
italicc.shx
  4

  0
STYLE
  5
D5
330
3
100
AcDbSymbolTableRecord
100
AcDbTextStyleTableRecord
  2
Label Text (ANSI)
 70
     0
 40
0.0
 41
1.0
 50
0.0
 71
     0
 42
0.2
  3
tahoma.ttf
  4

1001
ACAD
1000
Tahoma
1071
      256
  0
STYLE
  5
D6
330
3
100
AcDbSymbolTableRecord
100
AcDbTextStyleTableRecord
  2
Note Text (ANSI)
 70
     0
 40
0.0
 41
1.0
 50
0.0
 71
     0
 42
0.2
  3
tahoma.ttf
  4

1001
ACAD
1000
Tahoma
1071
      256
  0
STYLE
  5
D7
330
3
100
AcDbSymbolTableRecord
100
AcDbTextStyleTableRecord
  2
ROMANS
 70
     0
 40
0.0
 41
1.0
 50
0.0
 71
     0
 42
0.2
  3
romans.shx
  4

  0
STYLE
  5
D8
330
3
100
AcDbSymbolTableRecord
100
AcDbTextStyleTableRecord
  2
SANSSERIF_114
 70
     0
 40
0.0
 41
1.0
 50
0.0
 71
     0
 42
0.2
  3
tahoma.ttf
  4

1001
ACAD
1000
Tahoma
1071
      256
  0
STYLE
  5
D9
330
3
100
AcDbSymbolTableRecord
100
AcDbTextStyleTableRecord
  2
SANSSERIF_117
 70
     0
 40
0.0
 41
1.0
 50
0.0
 71
     0
 42
0.2
  3
tahoma.ttf
  4

1001
ACAD
1000
Tahoma
1071
      256
  0
STYLE
  5
DA
330
3
100
AcDbSymbolTableRecord
100
AcDbTextStyleTableRecord
  2
STANDARDAM_ANSI
 70
     0
 40
0.0
 41
1.0
 50
0.0
 71
     0
 42
0.2
  3
txt.shx
  4

  0
STYLE
  5
DB
330
3
100
AcDbSymbolTableRecord
100
AcDbTextStyleTableRecord
  2
StandardAM_ANSI$0
 70
     0
 40
0.0
 41
1.0
 50
0.0
 71
     0
 42
0.2
  3
txt.shx
  4

  0
STYLE
  5
DC
330
3
100
AcDbSymbolTableRecord
100
AcDbTextStyleTableRecord
  2
STANDARDAM_ANSI$3
 70
     0
 40
0.0
 41
1.0
 50
0.0
 71
     0
 42
0.2
  3
txt.shx
  4

  0
STYLE
  5
DD
330
3
100
AcDbSymbolTableRecord
100
AcDbTextStyleTableRecord
  2
STANDARDAM_ANSI$4
 70
     0
 40
0.0
 41
1.0
 50
0.0
 71
     0
 42
0.2
  3
txt.shx
  4

  0
STYLE
  5
DE
330
3
100
AcDbSymbolTableRecord
100
AcDbTextStyleTableRecord
  2
STANDARDAM_ANSI$7
 70
     0
 40
0.0
 41
1.0
 50
0.0
 71
     0
 42
0.2
  3
txt.shx
  4

  0
STYLE
  5
DF
330
3
100
AcDbSymbolTableRecord
100
AcDbTextStyleTableRecord
  2
STANDARDAM_ANSI$SF
 70
     0
 40
0.0
 41
1.0
 50
0.0
 71
     0
 42
0.2
  3
txt.shx
  4

  0
STYLE
  5
E0
330
3
100
AcDbSymbolTableRecord
100
AcDbTextStyleTableRecord
  2
STANDARDAM_ANSI$SH
 70
     0
 40
0.0
 41
1.0
 50
0.0
 71
     0
 42
0.2
  3
txt.shx
  4

  0
STYLE
  5
E1
330
3
100
AcDbSymbolTableRecord
100
AcDbTextStyleTableRecord
  2
STANDARDSTANDARD
 70
     0
 40
0.0
 41
1.0
 50
0.0
 71
     0
 42
0.2
  3
txt.shx
  4

  0
STYLE
  5
130
330
3
100
AcDbSymbolTableRecord
100
AcDbTextStyleTableRecord
  2
Text Style166
 70
     0
 40
0.0
 41
1.0
 50
0.0
 71
     0
 42
0.2
  3
tahoma.ttf
  4

1001
ACAD
1000
Tahoma
1071
      256
  0
ENDTAB
  0
TABLE
  2
VIEW
  5
6
330
0
100
AcDbSymbolTable
 70
     0
  0
ENDTAB
  0
TABLE
  2
UCS
  5
7
330
0
100
AcDbSymbolTable
 70
     0
  0
ENDTAB
  0
TABLE
  2
APPID
  5
9
330
0
100
AcDbSymbolTable
 70
     4
  0
APPID
  5
56
330
9
100
AcDbSymbolTableRecord
100
AcDbRegAppTableRecord
  2
ACAD
 70
     0
  0
APPID
  5
5E
330
9
100
AcDbSymbolTableRecord
100
AcDbRegAppTableRecord
  2
AcadAnnotative
 70
     0
  0
APPID
  5
5C7
330
9
100
AcDbSymbolTableRecord
100
AcDbRegAppTableRecord
  2
ACAD_DSTYLE_DIMRADIAL_EXTENSION
 70
     0
  0
APPID
  5
EA1
330
9
100
AcDbSymbolTableRecord
100
AcDbRegAppTableRecord
  2
ACAD_MLEADERVER
 70
     0
  0
ENDTAB
  0
TABLE
  2
DIMSTYLE
  5
A
330
0
100
AcDbSymbolTable
 70
    27
100
AcDbDimStyleTable
 71
     2
340
F6
340
58
  0
DIMSTYLE
105
58
330
A
100
AcDbSymbolTableRecord
100
AcDbDimStyleTableRecord
  2
STANDARD
 70
     0
 41
0.1800000071525573
 42
0.0625
140
0.1800000071525574
144
1.0
147
0.0900000035762787
176
   256
177
   256
178
   256
274
     3
340
55
371
    -1
372
    -1
  0
DIMSTYLE
105
59
330
A
100
AcDbSymbolTableRecord
100
AcDbDimStyleTableRecord
  2
Annotative
 70
     0
340
55
1001
AcadAnnotative
1000
AnnotativeData
1002
{
1070
     1
1070
     1
1002
}
  0
DIMSTYLE
105
E2
330
A
100
AcDbSymbolTableRecord
100
AcDbDimStyleTableRecord
  2
AM_ANSI
 70
     0
  4
 mm
 40
2.5
 41
0.119999997317791
 42
0.05
 43
0.5
 44
0.1
 45
0.00000001
 78
     4
 79
     2
140
0.1200000047683716
146
0.7099999189376831
147
0.0599999986588955
176
   256
177
   256
178
     2
284
     4
340
DA
371
    -1
372
    -1
  0
DIMSTYLE
105
E3
330
A
100
AcDbSymbolTableRecord
100
AcDbDimStyleTableRecord
  2
AM_ANSI$7
 70
     0
  4
 mm
 40
2.5
 41
0.119999997317791
 42
0.05
 43
0.5
 44
0.1
 45
0.00000001
 78
     4
 79
     2
140
0.1200000047683716
146
0.7099999189376831
147
0.0599999986588955
176
   256
177
   256
178
     2
284
     4
340
DA
371
    -1
372
    -1
  0
DIMSTYLE
105
E4
330
A
100
AcDbSymbolTableRecord
100
AcDbDimStyleTableRecord
  2
AM_ANSI$0
 70
     0
  4
 mm
 40
2.5
 41
0.119999997317791
 42
0.05
 43
0.5
 44
0.1
 45
0.00000001
 78
     4
 79
     2
140
0.1200000047683716
146
0.7099999189376831
147
0.0599999986588955
176
   256
177
   256
178
     2
284
     4
340
DB
371
    -1
372
    -1
  0
DIMSTYLE
105
E5
330
A
100
AcDbSymbolTableRecord
100
AcDbDimStyleTableRecord
  2
AM_ANSI$0$7
 70
     0
  4
 mm
 40
2.5
 41
0.119999997317791
 42
0.05
 43
0.5
 44
0.1
 45
0.00000001
 78
     4
 79
     2
140
0.1200000047683716
146
0.7099999189376831
147
0.0599999986588955
176
   256
177
   256
178
     2
284
     4
340
DB
371
    -1
372
    -1
  0
DIMSTYLE
105
E6
330
A
100
AcDbSymbolTableRecord
100
AcDbDimStyleTableRecord
  2
AM_ANSI$3
 70
     0
  4
 mm
 40
2.5
 41
0.119999997317791
 42
0.05
 43
0.5
 44
0.1
 45
0.00000001
 78
     4
 79
     2
140
0.1200000047683716
146
0.7099999189376831
147
0.0599999986588955
176
   256
177
   256
178
     2
284
     4
340
DC
371
    -1
372
    -1
  0
DIMSTYLE
105
E7
330
A
100
AcDbSymbolTableRecord
100
AcDbDimStyleTableRecord
  2
AM_ANSI$3$7
 70
     0
  4
 mm
 40
2.5
 41
0.119999997317791
 42
0.05
 43
0.5
 44
0.1
 45
0.00000001
 78
     4
 79
     2
140
0.1200000047683716
146
0.7099999189376831
147
0.0599999986588955
176
   256
177
   256
178
     2
284
     4
340
DC
371
    -1
372
    -1
  0
DIMSTYLE
105
E8
330
A
100
AcDbSymbolTableRecord
100
AcDbDimStyleTableRecord
  2
AM_ANSI$4
 70
     0
  4
 mm
 40
2.5
 41
0.119999997317791
 42
0.05
 43
0.5
 44
0.1
 45
0.00000001
 78
     4
 79
     2
140
0.1200000047683716
146
0.7099999189376831
147
0.0599999986588955
176
   256
177
   256
178
     2
284
     4
340
DD
371
    -1
372
    -1
  0
DIMSTYLE
105
E9
330
A
100
AcDbSymbolTableRecord
100
AcDbDimStyleTableRecord
  2
AM_ANSI$4$7
 70
     0
  4
 mm
 40
2.5
 41
0.119999997317791
 42
0.05
 43
0.5
 44
0.1
 45
0.00000001
 78
     4
 79
     2
140
0.1200000047683716
146
0.7099999189376831
147
0.0599999986588955
176
   256
177
   256
178
     2
284
     4
340
DD
371
    -1
372
    -1
  0
DIMSTYLE
105
EA
330
A
100
AcDbSymbolTableRecord
100
AcDbDimStyleTableRecord
  2
AM_ANSI$SF
 70
     0
  4
 mm
 40
2.5
 41
0.119999997317791
 42
0.05
 43
0.5
 44
0.1
 45
0.00000001
 75
     1
 76
     1
 78
     4
 79
     2
140
0.1200000047683716
146
0.7099999189376831
147
0.0599999986588955
176
   256
177
   256
178
     2
284
     4
340
DF
371
    -1
372
    -1
  0
DIMSTYLE
105
EB
330
A
100
AcDbSymbolTableRecord
100
AcDbDimStyleTableRecord
  2
AM_ANSI$SF$7
 70
     0
  4
 mm
 40
2.5
 41
0.119999997317791
 42
0.05
 43
0.5
 44
0.1
 45
0.00000001
 75
     1
 76
     1
 78
     4
 79
     2
140
0.1200000047683716
146
0.7099999189376831
147
0.0599999986588955
176
   256
177
   256
178
     2
284
     4
340
DF
371
    -1
372
    -1
  0
DIMSTYLE
105
EC
330
A
100
AcDbSymbolTableRecord
100
AcDbDimStyleTableRecord
  2
AM_ANSI$SH
 70
     0
  4
 mm
 40
2.5
 41
0.119999997317791
 42
0.05
 43
0.5
 44
0.1
 45
0.00000001
 75
     1
 76
     1
 78
     4
 79
     2
140
0.1200000047683716
146
0.7099999189376831
147
0.0599999986588955
176
   256
177
   256
178
     2
284
     4
340
E0
371
    -1
372
    -1
  0
DIMSTYLE
105
ED
330
A
100
AcDbSymbolTableRecord
100
AcDbDimStyleTableRecord
  2
AM_ANSI$SH$7
 70
     0
  4
 mm
 40
2.5
 41
0.119999997317791
 42
0.05
 43
0.5
 44
0.1
 45
0.00000001
 75
     1
 76
     1
 78
     4
 79
     2
140
0.1200000047683716
146
0.7099999189376831
147
0.0599999986588955
176
   256
177
   256
178
     2
284
     4
340
E0
371
    -1
372
    -1
  0
DIMSTYLE
105
EE
330
A
100
AcDbSymbolTableRecord
100
AcDbDimStyleTableRecord
  2
Architectural (ANSI)
 70
     0
 40
2.5
 41
0.0984251946210861
 43
0.2362204724409449
 44
0.125
 45
0.00000001
 46
0.3937007874015748
 78
     3
 79
     3
140
0.1200000047683716
147
0.031496062992126
171
     1
176
   256
177
   256
178
   256
272
     2
274
     1
276
     2
277
     4
284
    12
285
     4
286
    12
340
D6
371
    -1
372
    -1
  0
DIMSTYLE
105
EF
330
A
100
AcDbSymbolTableRecord
100
AcDbDimStyleTableRecord
  2
Architectural (ANSI)$7
 70
     0
 40
2.5
 41
0.0984251946210861
 43
0.2362204724409449
 44
0.125
 45
0.00000001
 46
0.3937007874015748
 78
     3
 79
     3
140
0.1200000047683716
147
0.031496062992126
171
     1
176
   256
177
   256
178
   256
272
     2
274
     1
276
     2
277
     4
284
    12
285
     4
286
    12
340
D6
371
    -1
372
    -1
  0
DIMSTYLE
105
F0
330
A
100
AcDbSymbolTableRecord
100
AcDbDimStyleTableRecord
  2
Default - Fraction (ANSI)
 70
     0
 40
2.5
 41
0.0984251946210861
 43
0.2362204724409449
 44
0.125
 45
0.00000001
 46
0.3937007874015748
 79
     3
140
0.1200000047683716
147
0.031496062992126
171
     1
176
   256
177
   256
178
   256
272
     2
274
     1
276
     2
277
     5
284
    12
285
     4
286
    12
340
D6
371
    -1
372
    -1
  0
DIMSTYLE
105
F1
330
A
100
AcDbSymbolTableRecord
100
AcDbDimStyleTableRecord
  2
Default - Fraction (ANSI)$7
 70
     0
 40
2.5
 41
0.0984251946210861
 43
0.2362204724409449
 44
0.125
 45
0.00000001
 46
0.3937007874015748
 79
     3
140
0.1200000047683716
147
0.031496062992126
171
     1
176
   256
177
   256
178
   256
272
     2
274
     1
276
     2
277
     5
284
    12
285
     4
286
    12
340
D6
371
    -1
372
    -1
  0
DIMSTYLE
105
F2
330
A
100
AcDbSymbolTableRecord
100
AcDbDimStyleTableRecord
  2
Default - mm (ANSI)
 70
     0
 40
2.5
 41
0.0984251946210861
 42
0.063
 43
0.2362204724409449
 44
0.125
 45
0.00000001
 46
0.3937007874015748
 73
     0
 78
     4
 79
     1
140
0.1200000047683716
143
1.0
144
25.4
147
0.031496062992126
171
     1
176
   256
177
   256
178
   256
179
     1
271
     2
272
     2
274
     1
284
     4
285
     4
340
D6
371
    -1
372
    -1
  0
DIMSTYLE
105
F3
330
A
100
AcDbSymbolTableRecord
100
AcDbDimStyleTableRecord
  2
Default - mm (ANSI)$7
 70
     0
 40
2.5
 41
0.0984251946210861
 42
0.063
 43
0.2362204724409449
 44
0.125
 45
0.00000001
 46
0.3937007874015748
 73
     0
 78
     4
 79
     1
140
0.1200000047683716
143
1.0
144
25.4
147
0.031496062992126
171
     1
176
   256
177
   256
178
   256
179
     1
271
     2
272
     2
274
     1
284
     4
285
     4
340
D6
371
    -1
372
    -1
  0
DIMSTYLE
105
F4
330
A
100
AcDbSymbolTableRecord
100
AcDbDimStyleTableRecord
  2
Default - mm [in] (ANSI)
 70
     0
  4
 in
 40
2.5
 41
0.0984251946210861
 42
0.063
 43
0.25
 44
0.125
 45
0.00000001
 46
0.3937007874015748
 73
     0
 78
     4
 79
     1
140
0.1200000047683716
143
0.03937
144
25.4
147
0.031496062992126
170
     1
171
     3
176
   256
177
   256
178
   256
179
     1
271
     2
272
     2
274
     3
284
     4
285
     4
286
     4
340
D6
371
    -1
372
    -1
  0
DIMSTYLE
105
F5
330
A
100
AcDbSymbolTableRecord
100
AcDbDimStyleTableRecord
  2
Default - mm [in] (ANSI)$7
 70
     0
  4
 in
 40
2.5
 41
0.0984251946210861
 42
0.063
 43
0.25
 44
0.125
 45
0.00000001
 46
0.3937007874015748
 73
     0
 78
     4
 79
     1
140
0.1200000047683716
143
0.03937
144
25.4
147
0.031496062992126
170
     1
171
     3
176
   256
177
   256
178
   256
179
     1
271
     2
272
     2
274
     3
284
     4
285
     4
286
     4
340
D6
371
    -1
372
    -1
  0
DIMSTYLE
105
F6
102
{ACAD_REACTORS
330
16D
330
259
330
343
330
42D
330
52D
330
5E8
330
6F0
330
7DA
330
8C4
330
9D4
330
AD4
330
BBD
330
CA7
330
DA3
102
}
330
A
100
AcDbSymbolTableRecord
100
AcDbDimStyleTableRecord
  2
Default (ANSI)
 70
     0
 40
2.5
 41
0.0984251946210861
 43
0.2362204724409449
 44
0.125
 45
0.00000001
 46
0.3937007874015748
 79
     1
140
0.1200000047683716
147
0.031496062992126
171
     1
176
   256
177
   256
178
   256
271
     2
272
     2
274
     1
284
     4
285
     4
340
D6
371
    -1
372
    -1
  0
DIMSTYLE
105
F7
330
A
100
AcDbSymbolTableRecord
100
AcDbDimStyleTableRecord
  2
Default (ANSI)$7
 70
     0
 40
2.5
 41
0.0984251946210861
 43
0.2362204724409449
 44
0.125
 45
0.00000001
 46
0.3937007874015748
 79
     1
140
0.1200000047683716
147
0.031496062992126
171
     1
176
   256
177
   256
178
   256
271
     2
272
     2
274
     1
284
     4
285
     4
340
D6
371
    -1
372
    -1
  0
DIMSTYLE
105
F8
330
A
100
AcDbSymbolTableRecord
100
AcDbDimStyleTableRecord
  2
Alternate (ANSI)
 70
     0
 40
2.5
 41
0.0979999974370003
340
55
342
F9
  0
DIMSTYLE
105
10B
330
A
100
AcDbSymbolTableRecord
100
AcDbDimStyleTableRecord
  2
Datum (ANSI)
 70
     0
 40
2.5
 41
0.0979999974370003
340
55
342
F9
  0
DIMSTYLE
105
11A
330
A
100
AcDbSymbolTableRecord
100
AcDbDimStyleTableRecord
  2
Large (ANSI)
 70
     0
 40
2.5
 41
0.1959999948740005
340
55
342
F9
  0
ENDTAB
  0
TABLE
  2
BLOCK_RECORD
  5
1
330
0
100
AcDbSymbolTable
 70
    18
  0
BLOCK_RECORD
  5
6C
330
1
100
AcDbSymbolTableRecord
100
AcDbBlockTableRecord
  2
*Model_Space
340
6F
  0
BLOCK_RECORD
  5
68
330
1
100
AcDbSymbolTableRecord
100
AcDbBlockTableRecord
  2
*Paper_Space
340
6B
  0
BLOCK_RECORD
  5
70
330
1
100
AcDbSymbolTableRecord
100
AcDbBlockTableRecord
  2
*Paper_Space0
340
73
  0
BLOCK_RECORD
  5
F9
330
1
100
AcDbSymbolTableRecord
100
AcDbBlockTableRecord
  2
_Closed
340
0
  0
BLOCK_RECORD
  5
100
330
1
100
AcDbSymbolTableRecord
100
AcDbBlockTableRecord
  2
DatumFilled45
340
0
  0
BLOCK_RECORD
  5
10C
330
1
100
AcDbSymbolTableRecord
100
AcDbBlockTableRecord
  2
Filled-1
340
0
  0
BLOCK_RECORD
  5
170
330
1
100
AcDbSymbolTableRecord
100
AcDbBlockTableRecord
  2
*D4
340
0
  0
BLOCK_RECORD
  5
25A
330
1
100
AcDbSymbolTableRecord
100
AcDbBlockTableRecord
  2
*D5
340
0
  0
BLOCK_RECORD
  5
344
330
1
100
AcDbSymbolTableRecord
100
AcDbBlockTableRecord
  2
*D6
340
0
  0
BLOCK_RECORD
  5
42E
330
1
100
AcDbSymbolTableRecord
100
AcDbBlockTableRecord
  2
*D7
340
0
  0
BLOCK_RECORD
  5
52E
330
1
100
AcDbSymbolTableRecord
100
AcDbBlockTableRecord
  2
*D8
340
0
  0
BLOCK_RECORD
  5
5E9
330
1
100
AcDbSymbolTableRecord
100
AcDbBlockTableRecord
  2
*D9
340
0
  0
BLOCK_RECORD
  5
6F1
330
1
100
AcDbSymbolTableRecord
100
AcDbBlockTableRecord
  2
*D10
340
0
  0
BLOCK_RECORD
  5
7DB
330
1
100
AcDbSymbolTableRecord
100
AcDbBlockTableRecord
  2
*D11
340
0
  0
BLOCK_RECORD
  5
8C5
330
1
100
AcDbSymbolTableRecord
100
AcDbBlockTableRecord
  2
*D12
340
0
  0
BLOCK_RECORD
  5
9D5
330
1
100
AcDbSymbolTableRecord
100
AcDbBlockTableRecord
  2
*D13
340
0
  0
BLOCK_RECORD
  5
AD5
330
1
100
AcDbSymbolTableRecord
100
AcDbBlockTableRecord
  2
*D14
340
0
  0
BLOCK_RECORD
  5
BBE
330
1
100
AcDbSymbolTableRecord
100
AcDbBlockTableRecord
  2
*D15
340
0
  0
BLOCK_RECORD
  5
CA8
330
1
100
AcDbSymbolTableRecord
100
AcDbBlockTableRecord
  2
*D16
340
0
  0
BLOCK_RECORD
  5
DA4
330
1
100
AcDbSymbolTableRecord
100
AcDbBlockTableRecord
  2
*D17
340
0
  0
ENDTAB
  0
ENDSEC
  0
SECTION
  2
BLOCKS
  0
BLOCK
  5
6D
330
6C
100
AcDbEntity
  8
0
100
AcDbBlockBegin
  2
*Model_Space
 70
     0
 10
0.0
 20
0.0
 30
0.0
  3
*Model_Space
  1

  0
ENDBLK
  5
6E
330
6C
100
AcDbEntity
  8
0
100
AcDbBlockEnd
  0
BLOCK
  5
69
330
68
100
AcDbEntity
 67
     1
  8
0
100
AcDbBlockBegin
  2
*Paper_Space
 70
     0
 10
0.0
 20
0.0
 30
0.0
  3
*Paper_Space
  1

  0
ENDBLK
  5
6A
330
68
100
AcDbEntity
 67
     1
  8
0
100
AcDbBlockEnd
  0
BLOCK
  5
71
330
70
100
AcDbEntity
 67
     1
  8
0
100
AcDbBlockBegin
  2
*Paper_Space0
 70
     0
 10
0.0
 20
0.0
 30
0.0
  3
*Paper_Space0
  1

  0
ENDBLK
  5
72
330
70
100
AcDbEntity
 67
     1
  8
0
100
AcDbBlockEnd
  0
BLOCK
  5
FE
330
F9
100
AcDbEntity
  8
0
100
AcDbBlockBegin
  2
_Closed
 70
     0
 10
0.0
 20
0.0
 30
0.0
  3
_Closed
  1

  0
LINE
  5
FA
330
F9
100
AcDbEntity
  8
0
  6
ByBlock
 62
     0
370
    -2
100
AcDbLine
 10
-1.0
 20
0.1666666666666666
 30
0.0
 11
0.0
 21
0.0
 31
0.0
  0
LINE
  5
FB
330
F9
100
AcDbEntity
  8
0
  6
ByBlock
 62
     0
370
    -2
100
AcDbLine
 10
0.0
 20
0.0
 30
0.0
 11
-1.0
 21
-0.1666666666666666
 31
0.0
  0
LINE
  5
FC
330
F9
100
AcDbEntity
  8
0
  6
ByBlock
 62
     0
370
    -2
100
AcDbLine
 10
-1.0
 20
0.1666666666666666
 30
0.0
 11
-1.0
 21
-0.1666666666666666
 31
0.0
  0
LINE
  5
FD
330
F9
100
AcDbEntity
  8
0
  6
ByBlock
 62
     0
370
    -2
100
AcDbLine
 10
0.0
 20
0.0
 30
0.0
 11
-1.0
 21
0.0
 31
0.0
  0
ENDBLK
  5
FF
330
F9
100
AcDbEntity
  8
0
100
AcDbBlockEnd
  0
BLOCK
  5
101
330
100
100
AcDbEntity
  8
0
100
AcDbBlockBegin
  2
DatumFilled45
 70
     0
 10
0.0
 20
0.0
 30
0.0
  3
DatumFilled45
  1

  0
POLYLINE
  5
103
330
100
100
AcDbEntity
  8
0
 62
     0
100
AcDb2dPolyline
 66
     1
 10
0.0
 20
0.0
 30
0.0
 70
   128
  0
VERTEX
  5
104
330
103
100
AcDbEntity
  8
0
 62
     0
100
AcDbVertex
100
AcDb2dVertex
 10
0.0
 20
0.9999999999999998
 30
0.0
  0
VERTEX
  5
105
330
103
100
AcDbEntity
  8
0
 62
     0
100
AcDbVertex
100
AcDb2dVertex
 10
0.0
 20
-0.9999999999999998
 30
0.0
  0
VERTEX
  5
107
330
103
100
AcDbEntity
  8
0
 62
     0
100
AcDbVertex
100
AcDb2dVertex
 10
-0.9999999999999998
 20
0.0
 30
0.0
  0
VERTEX
  5
108
330
103
100
AcDbEntity
  8
0
 62
     0
100
AcDbVertex
100
AcDb2dVertex
 10
0.0
 20
0.9999999999999998
 30
0.0
  0
SEQEND
  5
106
330
103
100
AcDbEntity
  8
0
 62
     0
  0
SOLID
  5
10A
330
100
100
AcDbEntity
  8
0
 62
     0
100
AcDbTrace
 10
0.0
 20
0.9999999999999998
 30
0.0
 11
0.0
 21
-0.9999999999999998
 31
0.0
 12
-0.9999999999999998
 22
0.0
 32
0.0
 13
0.0
 23
0.9999999999999998
 33
0.0
  0
ENDBLK
  5
102
330
100
100
AcDbEntity
  8
0
100
AcDbBlockEnd
  0
BLOCK
  5
10D
330
10C
100
AcDbEntity
  8
0
100
AcDbBlockBegin
  2
Filled-1
 70
     0
 10
0.0
 20
0.0
 30
0.0
  3
Filled-1
  1

  0
LINE
  5
10F
330
10C
100
AcDbEntity
  8
0
 62
     0
100
AcDbLine
 10
-0.9999999999999998
 20
0.0
 30
0.0
 11
0.0
 21
0.0
 31
0.0
  0
POLYLINE
  5
110
330
10C
100
AcDbEntity
  8
0
 62
     0
100
AcDb2dPolyline
 66
     1
 10
0.0
 20
0.0
 30
0.0
 70
   128
  0
VERTEX
  5
111
330
110
100
AcDbEntity
  8
0
 62
     0
100
AcDbVertex
100
AcDb2dVertex
 10
-0.9999999999999998
 20
-0.0994897959183674
 30
0.0
  0
VERTEX
  5
112
330
110
100
AcDbEntity
  8
0
 62
     0
100
AcDbVertex
100
AcDb2dVertex
 10
0.0
 20
0.0
 30
0.0
  0
VERTEX
  5
114
330
110
100
AcDbEntity
  8
0
 62
     0
100
AcDbVertex
100
AcDb2dVertex
 10
-0.9999999999999998
 20
0.0994897959183674
 30
0.0
  0
VERTEX
  5
115
330
110
100
AcDbEntity
  8
0
 62
     0
100
AcDbVertex
100
AcDb2dVertex
 10
-0.9999999999999998
 20
-0.0994897959183674
 30
0.0
  0
SEQEND
  5
113
330
110
100
AcDbEntity
  8
0
 62
     0
  0
SOLID
  5
116
330
10C
100
AcDbEntity
  8
0
 62
     0
100
AcDbTrace
 10
-0.9999999999999998
 20
-0.0994897959183674
 30
0.0
 11
0.0
 21
0.0
 31
0.0
 12
-0.9999999999999998
 22
0.0994897959183674
 32
0.0
 13
-0.9999999999999998
 23
-0.0994897959183674
 33
0.0
  0
LINE
  5
117
330
10C
100
AcDbEntity
  8
0
 62
     0
100
AcDbLine
 10
-0.9999999999999998
 20
-0.0994897959183674
 30
0.0
 11
0.0
 21
0.0
 31
0.0
  0
LINE
  5
118
330
10C
100
AcDbEntity
  8
0
 62
     0
100
AcDbLine
 10
0.0
 20
0.0
 30
0.0
 11
-0.9999999999999998
 21
0.0994897959183674
 31
0.0
  0
LINE
  5
119
330
10C
100
AcDbEntity
  8
0
 62
     0
100
AcDbLine
 10
-0.9999999999999998
 20
0.0994897959183674
 30
0.0
 11
-0.9999999999999998
 21
-0.0994897959183674
 31
0.0
  0
ENDBLK
  5
10E
330
10C
100
AcDbEntity
  8
0
100
AcDbBlockEnd
  0
BLOCK
  5
171
330
170
100
AcDbEntity
  8
0
100
AcDbBlockBegin
  2
*D4
 70
     1
 10
0.0
 20
0.0
 30
0.0
  3
*D4
  1

  0
LINE
  5
24F
330
170
100
AcDbEntity
  8
Dimension (ANSI)
440
 16777216
100
AcDbLine
 10
8.515761182959332
 20
7.239596996694314
 30
0.0
 11
6.194156852250666
 21
7.239596996694314
 31
0.0
  0
LINE
  5
250
330
170
100
AcDbEntity
  8
Dimension (ANSI)
440
 16777216
100
AcDbLine
 10
8.515761182959327
 20
21.48959699669431
 30
0.0
 11
6.194156852250668
 21
21.48959699669432
 31
0.0
  0
LINE
  5
251
330
170
100
AcDbEntity
  8
Dimension (ANSI)
440
 16777216
100
AcDbLine
 10
6.506656852250666
 20
7.485659983247029
 30
0.0
 11
6.506656852250667
 21
14.12961103146281
 31
0.0
  0
LINE
  5
252
330
170
100
AcDbEntity
  8
Dimension (ANSI)
440
 16777216
100
AcDbLine
 10
6.506656852250668
 20
21.2435340101416
 30
0.0
 11
6.506656852250667
 21
14.59958296192582
 31
0.0
  0
SOLID
  5
253
330
170
100
AcDbEntity
  8
Dimension (ANSI)
440
 16777216
100
AcDbTrace
 10
6.465646354491879
 20
7.485659983247029
 30
0.0
 11
6.547667350009452
 21
7.485659983247029
 31
0.0
 12
6.506656852250666
 22
7.239596996694314
 32
0.0
 13
6.506656852250666
 23
7.239596996694314
 33
0.0
  0
SOLID
  5
254
330
170
100
AcDbEntity
  8
Dimension (ANSI)
440
 16777216
100
AcDbTrace
 10
6.465646354491882
 20
21.2435340101416
 30
0.0
 11
6.547667350009454
 21
21.2435340101416
 31
0.0
 12
6.506656852250668
 22
21.48959699669432
 32
0.0
 13
6.506656852250668
 23
21.48959699669432
 33
0.0
  0
MTEXT
  5
255
330
170
100
AcDbEntity
  8
Dimension (ANSI)
440
 16777216
100
AcDbMText
 10
6.027241121052794
 20
14.5208428044455
 30
0.0
 40
0.3000000119209289
 41
0.0
 71
     1
 72
     1
  1
\A1;14.25
  7
Note Text (ANSI)
 73
     1
 44
1.0
  0
POINT
  5
256
330
170
100
AcDbEntity
  8
Defpoints
 62
     0
440
 16777216
100
AcDbPoint
 10
8.672011182959332
 20
7.239596996694314
 30
0.0
  0
POINT
  5
257
330
170
100
AcDbEntity
  8
Defpoints
 62
     0
440
 16777216
100
AcDbPoint
 10
8.672011182959327
 20
21.48959699669431
 30
0.0
  0
POINT
  5
258
330
170
100
AcDbEntity
  8
Defpoints
 62
     0
440
 16777216
100
AcDbPoint
 10
6.506656852250668
 20
21.48959699669432
 30
0.0
  0
ENDBLK
  5
172
330
170
100
AcDbEntity
  8
0
100
AcDbBlockEnd
  0
BLOCK
  5
25B
330
25A
100
AcDbEntity
  8
0
100
AcDbBlockBegin
  2
*D5
 70
     1
 10
0.0
 20
0.0
 30
0.0
  3
*D5
  1

  0
LINE
  5
339
330
25A
100
AcDbEntity
  8
Dimension (ANSI)
440
 16777216
100
AcDbLine
 10
8.672011182959327
 20
21.64584699669431
 30
0.0
 11
8.672011182959327
 21
24.23858959071424
 31
0.0
  0
LINE
  5
33A
330
25A
100
AcDbEntity
  8
Dimension (ANSI)
440
 16777216
100
AcDbLine
 10
18.92201118295933
 20
21.64584699669431
 30
0.0
 11
18.92201118295933
 21
24.23858959071424
 31
0.0
  0
LINE
  5
33B
330
25A
100
AcDbEntity
  8
Dimension (ANSI)
440
 16777216
100
AcDbLine
 10
8.918074169512042
 20
23.92608959071424
 30
0.0
 11
13.23885529428114
 21
23.92608959071424
 31
0.0
  0
LINE
  5
33C
330
25A
100
AcDbEntity
  8
Dimension (ANSI)
440
 16777216
100
AcDbLine
 10
18.67594819640661
 20
23.92608959071424
 30
0.0
 11
14.35516707163751
 21
23.92608959071424
 31
0.0
  0
SOLID
  5
33D
330
25A
100
AcDbEntity
  8
Dimension (ANSI)
440
 16777216
100
AcDbTrace
 10
8.918074169512042
 20
23.96710008847303
 30
0.0
 11
8.918074169512042
 21
23.88507909295545
 31
0.0
 12
8.672011182959327
 22
23.92608959071424
 32
0.0
 13
8.672011182959327
 23
23.92608959071424
 33
0.0
  0
SOLID
  5
33E
330
25A
100
AcDbEntity
  8
Dimension (ANSI)
440
 16777216
100
AcDbTrace
 10
18.67594819640661
 20
23.96710008847303
 30
0.0
 11
18.67594819640661
 21
23.88507909295545
 31
0.0
 12
18.92201118295933
 22
23.92608959071424
 32
0.0
 13
18.92201118295933
 23
23.92608959071424
 33
0.0
  0
MTEXT
  5
33F
330
25A
100
AcDbEntity
  8
Dimension (ANSI)
440
 16777216
100
AcDbMText
 10
13.31759545176146
 20
24.08233539846543
 30
0.0
 40
0.3000000119209289
 41
0.0
 71
     1
 72
     1
  1
\A1;10.25
  7
Note Text (ANSI)
 73
     1
 44
1.0
  0
POINT
  5
340
330
25A
100
AcDbEntity
  8
Defpoints
 62
     0
440
 16777216
100
AcDbPoint
 10
8.672011182959327
 20
21.48959699669431
 30
0.0
  0
POINT
  5
341
330
25A
100
AcDbEntity
  8
Defpoints
 62
     0
440
 16777216
100
AcDbPoint
 10
18.92201118295933
 20
21.48959699669431
 30
0.0
  0
POINT
  5
342
330
25A
100
AcDbEntity
  8
Defpoints
 62
     0
440
 16777216
100
AcDbPoint
 10
18.92201118295933
 20
23.92608959071424
 30
0.0
  0
ENDBLK
  5
25C
330
25A
100
AcDbEntity
  8
0
100
AcDbBlockEnd
  0
BLOCK
  5
345
330
344
100
AcDbEntity
  8
0
100
AcDbBlockBegin
  2
*D6
 70
     1
 10
0.0
 20
0.0
 30
0.0
  3
*D6
  1

  0
LINE
  5
423
330
344
100
AcDbEntity
  8
Dimension (ANSI)
440
 16777216
100
AcDbLine
 10
18.92201118295933
 20
21.64584699669431
 30
0.0
 11
18.92201118295933
 21
23.55807239274844
 31
0.0
  0
LINE
  5
424
330
344
100
AcDbEntity
  8
Dimension (ANSI)
440
 16777216
100
AcDbLine
 10
18.60901118295933
 20
21.77034699669431
 30
0.0
 11
18.60901118295933
 21
23.55807239274844
 31
0.0
  0
LINE
  5
425
330
344
100
AcDbEntity
  8
Dimension (ANSI)
440
 16777216
100
AcDbLine
 10
18.36294819640661
 20
23.24557239274844
 30
0.0
 11
18.1168852098539
 21
23.24557239274844
 31
0.0
  0
LINE
  5
426
330
344
100
AcDbEntity
  8
Dimension (ANSI)
440
 16777216
100
AcDbLine
 10
19.16807416951204
 20
23.24557239274844
 30
0.0
 11
19.41413715606476
 21
23.24557239274844
 31
0.0
  0
SOLID
  5
427
330
344
100
AcDbEntity
  8
Dimension (ANSI)
440
 16777216
100
AcDbTrace
 10
18.36294819640661
 20
23.28658289050723
 30
0.0
 11
18.36294819640661
 21
23.20456189498965
 31
0.0
 12
18.60901118295933
 22
23.24557239274844
 32
0.0
 13
18.60901118295933
 23
23.24557239274844
 33
0.0
  0
SOLID
  5
428
330
344
100
AcDbEntity
  8
Dimension (ANSI)
440
 16777216
100
AcDbTrace
 10
19.16807416951204
 20
23.28658289050723
 30
0.0
 11
19.16807416951204
 21
23.20456189498965
 31
0.0
 12
18.92201118295933
 22
23.24557239274844
 32
0.0
 13
18.92201118295933
 23
23.24557239274844
 33
0.0
  0
MTEXT
  5
429
330
344
100
AcDbEntity
  8
Dimension (ANSI)
440
 16777216
100
AcDbMText
 10
19.98579203780462
 20
23.24557239274844
 30
0.0
 40
0.3000000119209289
 41
0.0
 71
     5
 72
     1
  1
\A1;0.313
  7
Note Text (ANSI)
 73
     1
 44
1.0
  0
POINT
  5
42A
330
344
100
AcDbEntity
  8
Defpoints
 62
     0
440
 16777216
100
AcDbPoint
 10
18.92201118295933
 20
21.48959699669431
 30
0.0
  0
POINT
  5
42B
330
344
100
AcDbEntity
  8
Defpoints
 62
     0
440
 16777216
100
AcDbPoint
 10
18.60901118295933
 20
21.61409699669431
 30
0.0
  0
POINT
  5
42C
330
344
100
AcDbEntity
  8
Defpoints
 62
     0
440
 16777216
100
AcDbPoint
 10
18.60901118295933
 20
23.24557239274844
 30
0.0
  0
ENDBLK
  5
346
330
344
100
AcDbEntity
  8
0
100
AcDbBlockEnd
  0
BLOCK
  5
42F
330
42E
100
AcDbEntity
  8
0
100
AcDbBlockBegin
  2
*D7
 70
     1
 10
0.0
 20
0.0
 30
0.0
  3
*D7
  1

  0
LINE
  5
522
330
42E
100
AcDbEntity
  8
Dimension (ANSI)
440
 16777216
100
AcDbLine
 10
19.07826118295933
 20
21.48959699669431
 30
0.0
 11
19.9735336411325
 21
21.48959699669431
 31
0.0
  0
LINE
  5
523
330
42E
100
AcDbEntity
  8
Dimension (ANSI)
440
 16777216
100
AcDbLine
 10
18.92126118295933
 20
21.17659699669431
 30
0.0
 11
19.9735336411325
 21
21.17659699669431
 31
0.0
  0
LINE
  5
524
330
42E
100
AcDbEntity
  8
Dimension (ANSI)
440
 16777216
100
AcDbLine
 10
19.6610336411325
 20
20.9305340101416
 30
0.0
 11
19.6610336411325
 21
20.68447102358888
 31
0.0
  0
LINE
  5
525
330
42E
100
AcDbEntity
  8
Dimension (ANSI)
440
 16777216
100
AcDbLine
 10
19.6610336411325
 20
21.73565998324703
 30
0.0
 11
19.6610336411325
 21
22.206361825825
 31
0.0
  0
LINE
  5
526
330
42E
100
AcDbEntity
  8
Dimension (ANSI)
440
 16777216
100
AcDbLine
 10
19.6610336411325
 20
22.206361825825
 30
0.0
 11
19.90709662768522
 21
22.206361825825
 31
0.0
  0
SOLID
  5
527
330
42E
100
AcDbEntity
  8
Dimension (ANSI)
440
 16777216
100
AcDbTrace
 10
19.62002314337372
 20
20.9305340101416
 30
0.0
 11
19.70204413889129
 21
20.9305340101416
 31
0.0
 12
19.6610336411325
 22
21.17659699669431
 32
0.0
 13
19.6610336411325
 23
21.17659699669431
 33
0.0
  0
SOLID
  5
528
330
42E
100
AcDbEntity
  8
Dimension (ANSI)
440
 16777216
100
AcDbTrace
 10
19.62002314337372
 20
21.73565998324703
 30
0.0
 11
19.70204413889129
 21
21.73565998324703
 31
0.0
 12
19.6610336411325
 22
21.48959699669431
 32
0.0
 13
19.6610336411325
 23
21.48959699669431
 33
0.0
  0
MTEXT
  5
529
330
42E
100
AcDbEntity
  8
Dimension (ANSI)
440
 16777216
100
AcDbMText
 10
19.98583678516553
 20
22.3626076335762
 30
0.0
 40
0.3000000119209289
 41
0.0
 71
     1
 72
     1
  1
\A1;0.313
  7
Note Text (ANSI)
 73
     1
 44
1.0
  0
POINT
  5
52A
330
42E
100
AcDbEntity
  8
Defpoints
 62
     0
440
 16777216
100
AcDbPoint
 10
18.92201118295933
 20
21.48959699669431
 30
0.0
  0
POINT
  5
52B
330
42E
100
AcDbEntity
  8
Defpoints
 62
     0
440
 16777216
100
AcDbPoint
 10
18.76501118295933
 20
21.17659699669431
 30
0.0
  0
POINT
  5
52C
330
42E
100
AcDbEntity
  8
Defpoints
 62
     0
440
 16777216
100
AcDbPoint
 10
19.6610336411325
 20
21.17659699669431
 30
0.0
  0
ENDBLK
  5
430
330
42E
100
AcDbEntity
  8
0
100
AcDbBlockEnd
  0
BLOCK
  5
52F
330
52E
100
AcDbEntity
  8
0
100
AcDbBlockBegin
  2
*D8
 70
     1
 10
0.0
 20
0.0
 30
0.0
  3
*D8
  1

  0
LINE
  5
5E0
330
52E
100
AcDbEntity
  8
Dimension (ANSI)
440
 16777216
100
AcDbLine
 10
11.4560085569478
 20
6.390125614579973
 30
0.0
 11
11.14748256507401
 21
6.390125614579973
 31
0.0
  0
LINE
  5
5E1
330
52E
100
AcDbEntity
  8
Dimension (ANSI)
440
 16777216
100
AcDbLine
 10
11.14748256507401
 20
6.390125614579973
 30
0.0
 11
10.24739233699813
 21
7.290215842655594
 31
0.0
  0
MTEXT
  5
5E2
102
{ACAD_XDICTIONARY
360
EA2
102
}
330
52E
100
AcDbEntity
  8
Dimension (ANSI)
440
 16777216
100
AcDbMText
 10
11.53474871442812
 20
6.596011143357476
 30
0.0
 40
0.3000000119209289
 41
0.0
 71
     1
 72
     1
  1
\A1;\U+22050.250{\PGROUND HOLE}
  7
Note Text (ANSI)
 73
     1
 44
1.0
  0
SOLID
  5
5E3
330
52E
100
AcDbEntity
  8
Dimension (ANSI)
440
 16777216
100
AcDbTrace
 10
10.2763911380632
 20
7.319214643720671
 30
0.0
 11
10.21839353593306
 21
7.261217041590517
 31
0.0
 12
10.07339953060766
 22
7.464208649046009
 32
0.0
 13
10.07339953060766
 23
7.464208649046009
 33
0.0
  0
LINE
  5
5E4
330
52E
100
AcDbEntity
  8
Dimension (ANSI)
440
 16777216
100
AcDbLine
 10
9.760011182959335
 20
7.552596996694315
 30
0.0
 11
10.21001118295933
 21
7.552596996694315
 31
0.0
  0
LINE
  5
5E5
330
52E
100
AcDbEntity
  8
Dimension (ANSI)
440
 16777216
100
AcDbLine
 10
9.985011182959336
 20
7.327596996694317
 30
0.0
 11
9.985011182959336
 21
7.777596996694317
 31
0.0
  0
POINT
  5
5E6
330
52E
100
AcDbEntity
  8
Defpoints
 62
     0
440
 16777216
100
AcDbPoint
 10
10.07339953060766
 20
7.464208649046009
 30
0.0
  0
POINT
  5
5E7
330
52E
100
AcDbEntity
  8
Defpoints
 62
     0
440
 16777216
100
AcDbPoint
 10
9.896622835311003
 20
7.64098534434262
 30
0.0
  0
ENDBLK
  5
530
330
52E
100
AcDbEntity
  8
0
100
AcDbBlockEnd
  0
BLOCK
  5
5EA
330
5E9
100
AcDbEntity
  8
0
100
AcDbBlockBegin
  2
*D9
 70
     1
 10
0.0
 20
0.0
 30
0.0
  3
*D9
  1

  0
LINE
  5
6E6
330
5E9
100
AcDbEntity
  8
Dimension (ANSI)
440
 16777216
100
AcDbLine
 10
27.54539383554369
 20
21.64584699669431
 30
0.0
 11
27.54539383554369
 21
22.40779051577366
 31
0.0
  0
LINE
  5
6E7
330
5E9
100
AcDbEntity
  8
Dimension (ANSI)
440
 16777216
100
AcDbLine
 10
27.61939383554369
 20
21.64584699669431
 30
0.0
 11
27.61939383554369
 21
22.40779051577366
 31
0.0
  0
LINE
  5
6E8
330
5E9
100
AcDbEntity
  8
Dimension (ANSI)
440
 16777216
100
AcDbLine
 10
27.86545682209641
 20
22.09529051577366
 30
0.0
 11
28.11151980864913
 21
22.09529051577366
 31
0.0
  0
LINE
  5
6E9
330
5E9
100
AcDbEntity
  8
Dimension (ANSI)
440
 16777216
100
AcDbLine
 10
27.29933084899098
 20
22.09529051577366
 30
0.0
 11
26.43085434062628
 21
22.09529051577366
 31
0.0
  0
SOLID
  5
6EA
330
5E9
100
AcDbEntity
  8
Dimension (ANSI)
440
 16777216
100
AcDbTrace
 10
27.86545682209641
 20
22.13630101353245
 30
0.0
 11
27.86545682209641
 21
22.05428001801487
 31
0.0
 12
27.61939383554369
 22
22.09529051577366
 32
0.0
 13
27.61939383554369
 23
22.09529051577366
 33
0.0
  0
SOLID
  5
6EB
330
5E9
100
AcDbEntity
  8
Dimension (ANSI)
440
 16777216
100
AcDbTrace
 10
27.29933084899098
 20
22.13630101353245
 30
0.0
 11
27.29933084899098
 21
22.05428001801487
 31
0.0
 12
27.54539383554369
 22
22.09529051577366
 32
0.0
 13
27.54539383554369
 23
22.09529051577366
 33
0.0
  0
MTEXT
  5
6EC
330
5E9
100
AcDbEntity
  8
Dimension (ANSI)
440
 16777216
100
AcDbMText
 10
25.21013966562987
 20
22.09529051577366
 30
0.0
 40
0.3000000119209289
 41
0.0
 71
     5
 72
     1
  1
\A1;{14 GA. C.R.S\P}(0.074)
  7
Note Text (ANSI)
 73
     1
 44
1.0
  0
POINT
  5
6ED
330
5E9
100
AcDbEntity
  8
Defpoints
 62
     0
440
 16777216
100
AcDbPoint
 10
27.54539383554369
 20
21.48959699669431
 30
0.0
  0
POINT
  5
6EE
330
5E9
100
AcDbEntity
  8
Defpoints
 62
     0
440
 16777216
100
AcDbPoint
 10
27.61939383554369
 20
21.48959699669431
 30
0.0
  0
POINT
  5
6EF
330
5E9
100
AcDbEntity
  8
Defpoints
 62
     0
440
 16777216
100
AcDbPoint
 10
27.61939383554369
 20
22.09529051577366
 30
0.0
  0
ENDBLK
  5
5EB
330
5E9
100
AcDbEntity
  8
0
100
AcDbBlockEnd
  0
BLOCK
  5
6F2
330
6F1
100
AcDbEntity
  8
0
100
AcDbBlockBegin
  2
*D10
 70
     1
 10
0.0
 20
0.0
 30
0.0
  3
*D10
  1

  0
LINE
  5
7D0
330
6F1
100
AcDbEntity
  8
Dimension (ANSI)
440
 16777216
100
AcDbLine
 10
8.985261182959328
 20
7.552596996694314
 30
0.0
 11
20.79125150942508
 21
7.552596996694311
 31
0.0
  0
LINE
  5
7D1
330
6F1
100
AcDbEntity
  8
Dimension (ANSI)
440
 16777216
100
AcDbLine
 10
8.985261182959325
 20
21.17659699669431
 30
0.0
 11
20.79125150942508
 21
21.17659699669431
 31
0.0
  0
LINE
  5
7D2
330
6F1
100
AcDbEntity
  8
Dimension (ANSI)
440
 16777216
100
AcDbLine
 10
20.47875150942508
 20
7.798659983247026
 30
0.0
 11
20.47875150942508
 21
13.98003070310966
 31
0.0
  0
LINE
  5
7D3
330
6F1
100
AcDbEntity
  8
Dimension (ANSI)
440
 16777216
100
AcDbLine
 10
20.47875150942508
 20
20.9305340101416
 30
0.0
 11
20.47875150942508
 21
14.45000263357267
 31
0.0
  0
SOLID
  5
7D4
330
6F1
100
AcDbEntity
  8
Dimension (ANSI)
440
 16777216
100
AcDbTrace
 10
20.43774101166629
 20
7.798659983247026
 30
0.0
 11
20.51976200718387
 21
7.798659983247026
 31
0.0
 12
20.47875150942508
 22
7.552596996694311
 32
0.0
 13
20.47875150942508
 23
7.552596996694311
 33
0.0
  0
SOLID
  5
7D5
330
6F1
100
AcDbEntity
  8
Dimension (ANSI)
440
 16777216
100
AcDbTrace
 10
20.43774101166629
 20
20.9305340101416
 30
0.0
 11
20.51976200718387
 21
20.9305340101416
 31
0.0
 12
20.47875150942508
 22
21.17659699669431
 32
0.0
 13
20.47875150942508
 23
21.17659699669431
 33
0.0
  0
MTEXT
  5
7D6
330
6F1
100
AcDbEntity
  8
Dimension (ANSI)
440
 16777216
100
AcDbMText
 10
19.88106848080625
 20
14.37126247609235
 30
0.0
 40
0.3000000119209289
 41
0.0
 71
     1
 72
     1
  1
\A1;13.624
  7
Note Text (ANSI)
 73
     1
 44
1.0
  0
POINT
  5
7D7
330
6F1
100
AcDbEntity
  8
Defpoints
 62
     0
440
 16777216
100
AcDbPoint
 10
8.829011182959328
 20
7.552596996694314
 30
0.0
  0
POINT
  5
7D8
330
6F1
100
AcDbEntity
  8
Defpoints
 62
     0
440
 16777216
100
AcDbPoint
 10
8.829011182959325
 20
21.17659699669431
 30
0.0
  0
POINT
  5
7D9
330
6F1
100
AcDbEntity
  8
Defpoints
 62
     0
440
 16777216
100
AcDbPoint
 10
20.47875150942508
 20
21.17659699669431
 30
0.0
  0
ENDBLK
  5
6F3
330
6F1
100
AcDbEntity
  8
0
100
AcDbBlockEnd
  0
BLOCK
  5
7DC
330
7DB
100
AcDbEntity
  8
0
100
AcDbBlockBegin
  2
*D11
 70
     1
 10
0.0
 20
0.0
 30
0.0
  3
*D11
  1

  0
LINE
  5
8BA
330
7DB
100
AcDbEntity
  8
Dimension (ANSI)
440
 16777216
100
AcDbLine
 10
8.985011182959327
 20
21.77034699669431
 30
0.0
 11
8.985011182959327
 21
23.55807239274844
 31
0.0
  0
LINE
  5
8BB
330
7DB
100
AcDbEntity
  8
Dimension (ANSI)
440
 16777216
100
AcDbLine
 10
18.60901118295933
 20
21.77034699669431
 30
0.0
 11
18.60901118295933
 21
23.55807239274844
 31
0.0
  0
LINE
  5
8BC
330
7DB
100
AcDbEntity
  8
Dimension (ANSI)
440
 16777216
100
AcDbLine
 10
9.231074169512043
 20
23.24557239274844
 30
0.0
 11
13.21719646212994
 21
23.24557239274844
 31
0.0
  0
LINE
  5
8BD
330
7DB
100
AcDbEntity
  8
Dimension (ANSI)
440
 16777216
100
AcDbLine
 10
18.36294819640661
 20
23.24557239274844
 30
0.0
 11
14.3768259037887
 21
23.24557239274844
 31
0.0
  0
SOLID
  5
8BE
330
7DB
100
AcDbEntity
  8
Dimension (ANSI)
440
 16777216
100
AcDbTrace
 10
9.231074169512043
 20
23.28658289050723
 30
0.0
 11
9.231074169512043
 21
23.20456189498965
 31
0.0
 12
8.985011182959327
 22
23.24557239274844
 32
0.0
 13
8.985011182959327
 23
23.24557239274844
 33
0.0
  0
SOLID
  5
8BF
330
7DB
100
AcDbEntity
  8
Dimension (ANSI)
440
 16777216
100
AcDbTrace
 10
18.36294819640661
 20
23.28658289050723
 30
0.0
 11
18.36294819640661
 21
23.20456189498965
 31
0.0
 12
18.60901118295933
 22
23.24557239274844
 32
0.0
 13
18.60901118295933
 23
23.24557239274844
 33
0.0
  0
MTEXT
  5
8C0
330
7DB
100
AcDbEntity
  8
Dimension (ANSI)
440
 16777216
100
AcDbMText
 10
13.29593661961026
 20
23.40181820049963
 30
0.0
 40
0.3000000119209289
 41
0.0
 71
     1
 72
     1
  1
\A1;9.624
  7
Note Text (ANSI)
 73
     1
 44
1.0
  0
POINT
  5
8C1
330
7DB
100
AcDbEntity
  8
Defpoints
 62
     0
440
 16777216
100
AcDbPoint
 10
8.985011182959327
 20
21.61409699669431
 30
0.0
  0
POINT
  5
8C2
330
7DB
100
AcDbEntity
  8
Defpoints
 62
     0
440
 16777216
100
AcDbPoint
 10
18.60901118295933
 20
21.61409699669431
 30
0.0
  0
POINT
  5
8C3
330
7DB
100
AcDbEntity
  8
Defpoints
 62
     0
440
 16777216
100
AcDbPoint
 10
18.60901118295933
 20
23.24557239274844
 30
0.0
  0
ENDBLK
  5
7DD
330
7DB
100
AcDbEntity
  8
0
100
AcDbBlockEnd
  0
BLOCK
  5
8C6
330
8C5
100
AcDbEntity
  8
0
100
AcDbBlockBegin
  2
*D12
 70
     1
 10
0.0
 20
0.0
 30
0.0
  3
*D12
  1

  0
LINE
  5
9A4
330
8C5
100
AcDbEntity
  8
Dimension (ANSI)
440
 16777216
100
AcDbLine
 10
8.985011182959331
 20
7.271346996694319
 30
0.0
 11
8.985011182959331
 21
6.130845028190382
 31
0.0
  0
LINE
  5
9A5
330
8C5
100
AcDbEntity
  8
Dimension (ANSI)
440
 16777216
100
AcDbLine
 10
9.985011182959331
 20
7.271346996694313
 30
0.0
 11
9.985011182959331
 21
6.130845028190382
 31
0.0
  0
LINE
  5
9A6
330
8C5
100
AcDbEntity
  8
Dimension (ANSI)
440
 16777216
100
AcDbLine
 10
10.23107416951204
 20
6.443345028190382
 30
0.0
 11
10.47713715606476
 21
6.443345028190382
 31
0.0
  0
LINE
  5
9A7
330
8C5
100
AcDbEntity
  8
Dimension (ANSI)
440
 16777216
100
AcDbLine
 10
8.738948196406616
 20
6.443345028190382
 30
0.0
 11
8.294217061698363
 21
6.443345028190382
 31
0.0
  0
SOLID
  5
9A8
330
8C5
100
AcDbEntity
  8
Dimension (ANSI)
440
 16777216
100
AcDbTrace
 10
10.23107416951204
 20
6.484355525949168
 30
0.0
 11
10.23107416951204
 21
6.402334530431596
 31
0.0
 12
9.985011182959331
 22
6.443345028190382
 32
0.0
 13
9.985011182959331
 23
6.443345028190382
 33
0.0
  0
SOLID
  5
9A9
330
8C5
100
AcDbEntity
  8
Dimension (ANSI)
440
 16777216
100
AcDbTrace
 10
8.738948196406616
 20
6.484355525949168
 30
0.0
 11
8.738948196406616
 21
6.402334530431596
 31
0.0
 12
8.985011182959331
 22
6.443345028190382
 32
0.0
 13
8.985011182959331
 23
6.443345028190382
 33
0.0
  0
MTEXT
  5
9AA
330
8C5
100
AcDbEntity
  8
Dimension (ANSI)
440
 16777216
100
AcDbMText
 10
7.25180998162111
 20
6.599490097187377
 30
0.0
 40
0.3000000119209289
 41
0.0
 71
     1
 72
     1
  1
\A1;1.000
  7
Note Text (ANSI)
 73
     1
 44
1.0
  0
POINT
  5
9AB
330
8C5
100
AcDbEntity
  8
Defpoints
 62
     0
440
 16777216
100
AcDbPoint
 10
8.985011182959331
 20
7.427596996694319
 30
0.0
  0
POINT
  5
9AC
330
8C5
100
AcDbEntity
  8
Defpoints
 62
     0
440
 16777216
100
AcDbPoint
 10
9.985011182959331
 20
7.427596996694313
 30
0.0
  0
POINT
  5
9AD
330
8C5
100
AcDbEntity
  8
Defpoints
 62
     0
440
 16777216
100
AcDbPoint
 10
9.985011182959331
 20
6.443345028190382
 30
0.0
  0
ENDBLK
  5
8C7
330
8C5
100
AcDbEntity
  8
0
100
AcDbBlockEnd
  0
BLOCK
  5
9D6
330
9D5
100
AcDbEntity
  8
0
100
AcDbBlockBegin
  2
*D13
 70
     1
 10
0.0
 20
0.0
 30
0.0
  3
*D13
  1

  0
LINE
  5
AC9
330
9D5
100
AcDbEntity
  8
Dimension (ANSI)
440
 16777216
100
AcDbLine
 10
8.388261182959281
 20
20.23959699669432
 30
0.0
 11
8.078248245562752
 21
20.23959699669432
 31
0.0
  0
LINE
  5
ACA
330
9D5
100
AcDbEntity
  8
Dimension (ANSI)
440
 16777216
100
AcDbLine
 10
8.388261182959281
 20
20.48959699669431
 30
0.0
 11
8.078248245562752
 21
20.48959699669431
 31
0.0
  0
LINE
  5
ACB
330
9D5
100
AcDbEntity
  8
Dimension (ANSI)
440
 16777216
100
AcDbLine
 10
8.390748245562752
 20
20.73565998324703
 30
0.0
 11
8.390748245562752
 21
20.98172296979974
 31
0.0
  0
LINE
  5
ACC
330
9D5
100
AcDbEntity
  8
Dimension (ANSI)
440
 16777216
100
AcDbLine
 10
8.39074824556275
 20
19.9935340101416
 30
0.0
 11
8.39074824556275
 21
19.05168748822539
 31
0.0
  0
LINE
  5
ACD
330
9D5
100
AcDbEntity
  8
Dimension (ANSI)
440
 16777216
100
AcDbLine
 10
8.39074824556275
 20
19.05168748822539
 30
0.0
 11
8.144685259010035
 21
19.05168748822539
 31
0.0
  0
SOLID
  5
ACE
330
9D5
100
AcDbEntity
  8
Dimension (ANSI)
440
 16777216
100
AcDbTrace
 10
8.349737747803967
 20
20.73565998324703
 30
0.0
 11
8.431758743321537
 21
20.73565998324703
 31
0.0
 12
8.390748245562752
 22
20.48959699669431
 32
0.0
 13
8.390748245562752
 23
20.48959699669431
 33
0.0
  0
SOLID
  5
ACF
330
9D5
100
AcDbEntity
  8
Dimension (ANSI)
440
 16777216
100
AcDbTrace
 10
8.349737747803965
 20
19.9935340101416
 30
0.0
 11
8.431758743321536
 21
19.9935340101416
 31
0.0
 12
8.390748245562752
 22
20.23959699669432
 32
0.0
 13
8.390748245562752
 23
20.23959699669432
 33
0.0
  0
MTEXT
  5
AD0
330
9D5
100
AcDbEntity
  8
Dimension (ANSI)
440
 16777216
100
AcDbMText
 10
7.073466895233979
 20
19.20793329597658
 30
0.0
 40
0.3000000119209289
 41
0.0
 71
     1
 72
     1
  1
\A1;0.250
  7
Note Text (ANSI)
 73
     1
 44
1.0
  0
POINT
  5
AD1
330
9D5
100
AcDbEntity
  8
Defpoints
 62
     0
440
 16777216
100
AcDbPoint
 10
8.544511182959281
 20
20.23959699669432
 30
0.0
  0
POINT
  5
AD2
330
9D5
100
AcDbEntity
  8
Defpoints
 62
     0
440
 16777216
100
AcDbPoint
 10
8.544511182959281
 20
20.48959699669431
 30
0.0
  0
POINT
  5
AD3
330
9D5
100
AcDbEntity
  8
Defpoints
 62
     0
440
 16777216
100
AcDbPoint
 10
8.390748245562752
 20
20.48959699669431
 30
0.0
  0
ENDBLK
  5
9D7
330
9D5
100
AcDbEntity
  8
0
100
AcDbBlockEnd
  0
BLOCK
  5
AD6
330
AD5
100
AcDbEntity
  8
0
100
AcDbBlockBegin
  2
*D14
 70
     1
 10
0.0
 20
0.0
 30
0.0
  3
*D14
  1

  0
LINE
  5
BB0
330
AD5
100
AcDbEntity
  8
Dimension (ANSI)
440
 16777216
100
AcDbLine
 10
8.92201118295928
 20
19.70584699669431
 30
0.0
 11
8.92201118295928
 21
18.02701832756351
 31
0.0
  0
LINE
  5
BB1
330
AD5
100
AcDbEntity
  8
Dimension (ANSI)
440
 16777216
100
AcDbLine
 10
9.168074169511996
 20
18.33951832756351
 30
0.0
 11
9.414137156064711
 21
18.33951832756351
 31
0.0
  0
LINE
  5
BB2
330
AD5
100
AcDbEntity
  8
Dimension (ANSI)
440
 16777216
100
AcDbLine
 10
8.425948196406613
 20
18.33951832756351
 30
0.0
 11
8.097207314815179
 21
18.33951832756351
 31
0.0
  0
SOLID
  5
BB3
330
AD5
100
AcDbEntity
  8
Dimension (ANSI)
440
 16777216
100
AcDbTrace
 10
9.168074169511996
 20
18.38052882532229
 30
0.0
 11
9.168074169511996
 21
18.29850782980472
 31
0.0
 12
8.92201118295928
 22
18.33951832756351
 32
0.0
 13
8.92201118295928
 23
18.33951832756351
 33
0.0
  0
SOLID
  5
BB4
330
AD5
100
AcDbEntity
  8
Dimension (ANSI)
440
 16777216
100
AcDbTrace
 10
8.425948196406613
 20
18.38052882532229
 30
0.0
 11
8.425948196406613
 21
18.29850782980472
 31
0.0
 12
8.672011182959328
 22
18.33951832756351
 32
0.0
 13
8.672011182959328
 23
18.33951832756351
 33
0.0
  0
MTEXT
  5
BB5
330
AD5
100
AcDbEntity
  8
Dimension (ANSI)
440
 16777216
100
AcDbMText
 10
7.025988951039126
 20
18.4957641353147
 30
0.0
 40
0.3000000119209289
 41
0.0
 71
     1
 72
     1
  1
\A1;0.250
  7
Note Text (ANSI)
 73
     1
 44
1.0
  0
POINT
  5
BB6
330
AD5
100
AcDbEntity
  8
Defpoints
 62
     0
440
 16777216
100
AcDbPoint
 10
8.92201118295928
 20
19.86209699669431
 30
0.0
  0
POINT
  5
BB7
330
AD5
100
AcDbEntity
  8
Defpoints
 62
     0
440
 16777216
100
AcDbPoint
 10
8.672011182959328
 20
14.70051574621328
 30
0.0
  0
POINT
  5
BB8
330
AD5
100
AcDbEntity
  8
Defpoints
 62
     0
440
 16777216
100
AcDbPoint
 10
8.672011182959328
 20
18.33951832756351
 30
0.0
  0
ENDBLK
  5
AD7
330
AD5
100
AcDbEntity
  8
0
100
AcDbBlockEnd
  0
BLOCK
  5
BBF
330
BBE
100
AcDbEntity
  8
0
100
AcDbBlockBegin
  2
*D15
 70
     1
 10
0.0
 20
0.0
 30
0.0
  3
*D15
  1

  0
LINE
  5
C9D
330
BBE
100
AcDbEntity
  8
Dimension (ANSI)
440
 16777216
100
AcDbLine
 10
9.422011182959327
 20
21.77334699669431
 30
0.0
 11
9.422011182959327
 21
22.83596326008299
 31
0.0
  0
LINE
  5
C9E
330
BBE
100
AcDbEntity
  8
Dimension (ANSI)
440
 16777216
100
AcDbLine
 10
9.672011182959327
 20
21.77334699669431
 30
0.0
 11
9.672011182959327
 21
22.83596326008299
 31
0.0
  0
LINE
  5
C9F
330
BBE
100
AcDbEntity
  8
Dimension (ANSI)
440
 16777216
100
AcDbLine
 10
9.175948196406611
 20
22.52346326008299
 30
0.0
 11
8.929885209853896
 21
22.52346326008299
 31
0.0
  0
LINE
  5
CA0
330
BBE
100
AcDbEntity
  8
Dimension (ANSI)
440
 16777216
100
AcDbLine
 10
9.918074169512042
 20
22.52346326008299
 30
0.0
 11
10.16950496991477
 21
22.52346326008299
 31
0.0
  0
SOLID
  5
CA1
330
BBE
100
AcDbEntity
  8
Dimension (ANSI)
440
 16777216
100
AcDbTrace
 10
9.175948196406611
 20
22.56447375784178
 30
0.0
 11
9.175948196406611
 21
22.4824527623242
 31
0.0
 12
9.422011182959327
 22
22.52346326008299
 32
0.0
 13
9.422011182959327
 23
22.52346326008299
 33
0.0
  0
SOLID
  5
CA2
330
BBE
100
AcDbEntity
  8
Dimension (ANSI)
440
 16777216
100
AcDbTrace
 10
9.918074169512042
 20
22.56447375784178
 30
0.0
 11
9.918074169512042
 21
22.4824527623242
 31
0.0
 12
9.672011182959327
 22
22.52346326008299
 32
0.0
 13
9.672011182959327
 23
22.52346326008299
 33
0.0
  0
MTEXT
  5
CA3
330
BBE
100
AcDbEntity
  8
Dimension (ANSI)
440
 16777216
100
AcDbMText
 10
10.24824512739508
 20
22.67970906783418
 30
0.0
 40
0.3000000119209289
 41
0.0
 71
     1
 72
     1
  1
\A1;0.250
  7
Note Text (ANSI)
 73
     1
 44
1.0
  0
POINT
  5
CA4
330
BBE
100
AcDbEntity
  8
Defpoints
 62
     0
440
 16777216
100
AcDbPoint
 10
9.422011182959327
 20
21.61709699669431
 30
0.0
  0
POINT
  5
CA5
330
BBE
100
AcDbEntity
  8
Defpoints
 62
     0
440
 16777216
100
AcDbPoint
 10
9.672011182959327
 20
21.61709699669431
 30
0.0
  0
POINT
  5
CA6
330
BBE
100
AcDbEntity
  8
Defpoints
 62
     0
440
 16777216
100
AcDbPoint
 10
9.672011182959327
 20
22.52346326008299
 30
0.0
  0
ENDBLK
  5
BC0
330
BBE
100
AcDbEntity
  8
0
100
AcDbBlockEnd
  0
BLOCK
  5
CA9
330
CA8
100
AcDbEntity
  8
0
100
AcDbBlockBegin
  2
*D16
 70
     1
 10
0.0
 20
0.0
 30
0.0
  3
*D16
  1

  0
LINE
  5
D99
330
CA8
100
AcDbEntity
  8
Dimension (ANSI)
440
 16777216
100
AcDbLine
 10
10.20576118295932
 20
21.23959699669431
 30
0.0
 11
11.51325150252043
 21
21.23959699669431
 31
0.0
  0
LINE
  5
D9A
330
CA8
100
AcDbEntity
  8
Dimension (ANSI)
440
 16777216
100
AcDbLine
 10
11.20075150252043
 20
20.9935340101416
 30
0.0
 11
11.20075150252043
 21
20.74747102358888
 31
0.0
  0
LINE
  5
D9B
330
CA8
100
AcDbEntity
  8
Dimension (ANSI)
440
 16777216
100
AcDbLine
 10
11.20075150252043
 20
21.73565998324703
 30
0.0
 11
11.20075150252043
 21
22.51511483160839
 31
0.0
  0
LINE
  5
D9C
330
CA8
100
AcDbEntity
  8
Dimension (ANSI)
440
 16777216
100
AcDbLine
 10
11.20075150252043
 20
22.51511483160839
 30
0.0
 11
11.44681448907314
 21
22.51511483160839
 31
0.0
  0
SOLID
  5
D9D
330
CA8
100
AcDbEntity
  8
Dimension (ANSI)
440
 16777216
100
AcDbTrace
 10
11.15974100476164
 20
20.9935340101416
 30
0.0
 11
11.24176200027921
 21
20.9935340101416
 31
0.0
 12
11.20075150252043
 22
21.23959699669431
 32
0.0
 13
11.20075150252043
 23
21.23959699669431
 33
0.0
  0
SOLID
  5
D9E
330
CA8
100
AcDbEntity
  8
Dimension (ANSI)
440
 16777216
100
AcDbTrace
 10
11.15974100476164
 20
21.73565998324703
 30
0.0
 11
11.24176200027921
 21
21.73565998324703
 31
0.0
 12
11.20075150252043
 22
21.48959699669431
 32
0.0
 13
11.20075150252043
 23
21.48959699669431
 33
0.0
  0
MTEXT
  5
D9F
330
CA8
100
AcDbEntity
  8
Dimension (ANSI)
440
 16777216
100
AcDbMText
 10
11.52555464655345
 20
22.67136063935958
 30
0.0
 40
0.3000000119209289
 41
0.0
 71
     1
 72
     1
  1
\A1;0.250
  7
Note Text (ANSI)
 73
     1
 44
1.0
  0
POINT
  5
DA0
330
CA8
100
AcDbEntity
  8
Defpoints
 62
     0
440
 16777216
100
AcDbPoint
 10
10.04951118295932
 20
21.23959699669431
 30
0.0
  0
POINT
  5
DA1
330
CA8
100
AcDbEntity
  8
Defpoints
 62
     0
440
 16777216
100
AcDbPoint
 10
13.55942025945295
 20
21.48959699669431
 30
0.0
  0
POINT
  5
DA2
330
CA8
100
AcDbEntity
  8
Defpoints
 62
     0
440
 16777216
100
AcDbPoint
 10
11.20075150252043
 20
21.48959699669431
 30
0.0
  0
ENDBLK
  5
CAA
330
CA8
100
AcDbEntity
  8
0
100
AcDbBlockEnd
  0
BLOCK
  5
DA5
330
DA4
100
AcDbEntity
  8
0
100
AcDbBlockBegin
  2
*D17
 70
     1
 10
0.0
 20
0.0
 30
0.0
  3
*D17
  1

  0
LINE
  5
E54
330
DA4
100
AcDbEntity
  8
Dimension (ANSI)
440
 16777216
100
AcDbLine
 10
10.58508642118906
 20
19.82258474501741
 30
0.0
 11
10.33902343463635
 21
19.82258474501741
 31
0.0
  0
LINE
  5
E55
330
DA4
100
AcDbEntity
  8
Dimension (ANSI)
440
 16777216
100
AcDbLine
 10
10.33902343463635
 20
19.82258474501741
 30
0.0
 11
10.14196593012692
 21
20.01964224952678
 31
0.0
  0
MTEXT
  5
E56
102
{ACAD_XDICTIONARY
360
EA4
102
}
330
DA4
100
AcDbEntity
  8
Dimension (ANSI)
440
 16777216
100
AcDbMText
 10
11.32292905183855
 20
19.82258474501741
 30
0.0
 40
0.3000000119209289
 41
0.0
 71
     5
 72
     1
  1
\A1;\U+22050.130{\PTYP.}
  7
Note Text (ANSI)
 73
     1
 44
1.0
  0
SOLID
  5
E57
330
DA4
100
AcDbEntity
  8
Dimension (ANSI)
440
 16777216
100
AcDbTrace
 10
10.17096473119198
 20
20.04864105059186
 30
0.0
 11
10.11296712906184
 21
19.9906434484617
 31
0.0
 12
9.967973123736452
 22
20.19363505591719
 32
0.0
 13
9.967973123736452
 23
20.19363505591719
 33
0.0
  0
LINE
  5
E58
330
DA4
100
AcDbEntity
  8
Dimension (ANSI)
440
 16777216
100
AcDbLine
 10
9.697011182959318
 20
20.23959699669431
 30
0.0
 11
10.14701118295932
 21
20.23959699669431
 31
0.0
  0
LINE
  5
E59
330
DA4
100
AcDbEntity
  8
Dimension (ANSI)
440
 16777216
100
AcDbLine
 10
9.922011182959318
 20
20.01459699669431
 30
0.0
 11
9.922011182959316
 21
20.46459699669431
 31
0.0
  0
POINT
  5
E5A
330
DA4
100
AcDbEntity
  8
Defpoints
 62
     0
440
 16777216
100
AcDbPoint
 10
9.967973123736452
 20
20.19363505591719
 30
0.0
  0
POINT
  5
E5B
330
DA4
100
AcDbEntity
  8
Defpoints
 62
     0
440
 16777216
100
AcDbPoint
 10
9.87604924218219
 20
20.28555893747143
 30
0.0
  0
ENDBLK
  5
DA6
330
DA4
100
AcDbEntity
  8
0
100
AcDbBlockEnd
  0
ENDSEC
  0
SECTION
  2
ENTITIES
  0
CIRCLE
  5
11B
330
6C
100
AcDbEntity
  8
Visible (ANSI)
100
AcDbCircle
 10
9.985011182959333
 20
7.552596996694313
 30
0.0
 40
0.125
  0
LINE
  5
11C
330
6C
100
AcDbEntity
  8
Visible (ANSI)
100
AcDbLine
 10
18.64001118295933
 20
7.427596996694319
 30
0.0
 11
18.57801118295933
 21
7.427596996694319
 31
0.0
  0
ARC
  5
11D
330
6C
100
AcDbEntity
  8
Visible (ANSI)
100
AcDbCircle
 10
18.64001118295933
 20
7.552596996694314
 30
0.0
 40
0.125
100
AcDbArc
 50
270.0
 51
90.0
  0
LINE
  5
11E
330
6C
100
AcDbEntity
  8
Visible (ANSI)
100
AcDbLine
 10
18.57801118295933
 20
7.677596996694313
 30
0.0
 11
18.64001118295933
 21
7.677596996694313
 31
0.0
  0
ARC
  5
11F
330
6C
100
AcDbEntity
  8
Visible (ANSI)
100
AcDbCircle
 10
18.57801118295933
 20
7.552596996694314
 30
0.0
 40
0.125
100
AcDbArc
 50
90.0
 51
270.0
  0
LINE
  5
120
330
6C
100
AcDbEntity
  8
Visible (ANSI)
100
AcDbLine
 10
9.016011182959331
 20
7.427596996694319
 30
0.0
 11
8.954011182959332
 21
7.427596996694319
 31
0.0
  0
ARC
  5
121
330
6C
100
AcDbEntity
  8
Visible (ANSI)
100
AcDbCircle
 10
9.016011182959331
 20
7.552596996694314
 30
0.0
 40
0.125
100
AcDbArc
 50
270.0
 51
90.0
  0
LINE
  5
122
330
6C
100
AcDbEntity
  8
Visible (ANSI)
100
AcDbLine
 10
8.954011182959332
 20
7.677596996694313
 30
0.0
 11
9.016011182959331
 21
7.677596996694313
 31
0.0
  0
ARC
  5
123
330
6C
100
AcDbEntity
  8
Visible (ANSI)
100
AcDbCircle
 10
8.954011182959332
 20
7.552596996694314
 30
0.0
 40
0.125
100
AcDbArc
 50
90.0
 51
270.0
  0
LINE
  5
124
330
6C
100
AcDbEntity
  8
Visible (ANSI)
100
AcDbLine
 10
18.64001118295933
 20
21.05159699669432
 30
0.0
 11
18.57801118295933
 21
21.05159699669432
 31
0.0
  0
ARC
  5
125
330
6C
100
AcDbEntity
  8
Visible (ANSI)
100
AcDbCircle
 10
18.64001118295933
 20
21.17659699669431
 30
0.0
 40
0.125000000000001
100
AcDbArc
 50
270.0
 51
90.0
  0
LINE
  5
126
330
6C
100
AcDbEntity
  8
Visible (ANSI)
100
AcDbLine
 10
18.57801118295933
 20
21.30159699669431
 30
0.0
 11
18.64001118295933
 21
21.30159699669431
 31
0.0
  0
ARC
  5
127
330
6C
100
AcDbEntity
  8
Visible (ANSI)
100
AcDbCircle
 10
18.57801118295933
 20
21.17659699669431
 30
0.0
 40
0.125000000000001
100
AcDbArc
 50
90.0
 51
270.0
  0
LINE
  5
128
330
6C
100
AcDbEntity
  8
Visible (ANSI)
100
AcDbLine
 10
9.016011182959328
 20
21.05159699669432
 30
0.0
 11
8.954011182959327
 21
21.05159699669432
 31
0.0
  0
ARC
  5
129
330
6C
100
AcDbEntity
  8
Visible (ANSI)
100
AcDbCircle
 10
9.016011182959328
 20
21.17659699669431
 30
0.0
 40
0.125000000000001
100
AcDbArc
 50
270.0
 51
90.0
  0
LINE
  5
12A
330
6C
100
AcDbEntity
  8
Visible (ANSI)
100
AcDbLine
 10
8.954011182959327
 20
21.30159699669431
 30
0.0
 11
9.016011182959328
 21
21.30159699669431
 31
0.0
  0
ARC
  5
12B
330
6C
100
AcDbEntity
  8
Visible (ANSI)
100
AcDbCircle
 10
8.954011182959327
 20
21.17659699669431
 30
0.0
 40
0.125000000000001
100
AcDbArc
 50
90.0
 51
270.0
  0
LINE
  5
12C
330
6C
100
AcDbEntity
  8
Visible (ANSI)
100
AcDbLine
 10
8.672011182959332
 20
7.239596996694314
 30
0.0
 11
8.672011182959328
 21
21.48959699669431
 31
0.0
  0
LINE
  5
12D
330
6C
100
AcDbEntity
  8
Visible (ANSI)
100
AcDbLine
 10
8.672011182959328
 20
21.48959699669431
 30
0.0
 11
18.92201118295933
 21
21.48959699669431
 31
0.0
  0
LINE
  5
12E
330
6C
100
AcDbEntity
  8
Visible (ANSI)
100
AcDbLine
 10
18.92201118295933
 20
21.48959699669431
 30
0.0
 11
18.92201118295933
 21
7.239596996694314
 31
0.0
  0
LINE
  5
12F
330
6C
100
AcDbEntity
  8
Visible (ANSI)
100
AcDbLine
 10
18.92201118295933
 20
7.239596996694314
 30
0.0
 11
8.672011182959332
 21
7.239596996694314
 31
0.0
  0
MTEXT
  5
131
330
6C
100
AcDbEntity
  8
Symbol (ANSI)
100
AcDbMText
 10
12.49847926708116
 20
4.540486917852792
 30
0.0
 40
0.3000000037076905
 41
0.0
 71
     7
 72
     1
  1
FRONT VIEW
  7
Text Style166
 73
     1
 44
1.0
  0
LINE
  5
133
330
6C
100
AcDbEntity
  8
Symbol (ANSI)
370
    30
100
AcDbLine
 10
12.4684791899102
 20
4.479307824415567
 30
0.0
 11
14.88039170062439
 21
4.479307824415567
 31
0.0
  0
LINE
  5
134
330
6C
100
AcDbEntity
  8
Hidden (ANSI)
 48
0.0562790185213089
100
AcDbLine
 10
27.54539383554361
 20
7.427596996694319
 30
0.0
 11
27.61939383554361
 21
7.427596996694319
 31
0.0
  0
LINE
  5
135
330
6C
100
AcDbEntity
  8
Hidden (ANSI)
 48
0.0562790185213089
100
AcDbLine
 10
27.54539383554361
 20
7.677596996694313
 30
0.0
 11
27.61939383554361
 21
7.677596996694313
 31
0.0
  0
LINE
  5
136
330
6C
100
AcDbEntity
  8
Hidden (ANSI)
 48
0.0562790185213089
100
AcDbLine
 10
27.54539383554361
 20
21.05159699669432
 30
0.0
 11
27.61939383554361
 21
21.05159699669432
 31
0.0
  0
LINE
  5
137
330
6C
100
AcDbEntity
  8
Hidden (ANSI)
 48
0.0562790185213089
100
AcDbLine
 10
27.54539383554361
 20
21.30159699669431
 30
0.0
 11
27.61939383554361
 21
21.30159699669431
 31
0.0
  0
LINE
  5
138
330
6C
100
AcDbEntity
  8
Visible (ANSI)
100
AcDbLine
 10
27.61939383554369
 20
21.48959699669431
 30
0.0
 11
27.54539383554369
 21
21.48959699669431
 31
0.0
  0
LINE
  5
139
330
6C
100
AcDbEntity
  8
Visible (ANSI)
100
AcDbLine
 10
27.54539383554369
 20
21.48959699669431
 30
0.0
 11
27.54539383554369
 21
7.239596996694314
 31
0.0
  0
LINE
  5
13A
330
6C
100
AcDbEntity
  8
Visible (ANSI)
100
AcDbLine
 10
27.61939383554369
 20
7.239596996694314
 30
0.0
 11
27.54539383554369
 21
7.239596996694314
 31
0.0
  0
LINE
  5
13B
330
6C
100
AcDbEntity
  8
Visible (ANSI)
100
AcDbLine
 10
27.61939383554369
 20
7.239596996694314
 30
0.0
 11
27.61939383554369
 21
21.48959699669431
 31
0.0
  0
MTEXT
  5
13C
330
6C
100
AcDbEntity
  8
Symbol (ANSI)
100
AcDbMText
 10
26.55345516512531
 20
5.798833280255292
 30
0.0
 40
0.3000000037076905
 41
0.0
 71
     7
 72
     1
  1
SIDE VIEW
  7
Text Style166
 73
     1
 44
1.0
  0
LINE
  5
13D
330
6C
100
AcDbEntity
  8
Symbol (ANSI)
370
    30
100
AcDbLine
 10
26.53809512561378
 20
5.736681739843525
 30
0.0
 11
28.56540467662751
 21
5.736681739843525
 31
0.0
  0
ELLIPSE
  5
13E
330
6C
100
AcDbEntity
  8
Visible (ANSI)
100
AcDbEllipse
 10
33.64997544482218
 20
11.26133602252572
 30
0.0
 11
0.05458164814205
 21
-0.0947825633283752
 31
0.0
210
0.0
220
0.0
230
1.0
 40
0.578093115915809
 41
3.572615253427294
 42
5.85216270734115
  0
ELLIPSE
  5
13F
330
6C
100
AcDbEntity
  8
Visible (ANSI)
100
AcDbEllipse
 10
33.60419028074036
 20
11.23497010005767
 30
0.0
 11
-0.0545816481420443
 21
0.0947825633283784
 31
0.0
210
0.0
220
0.0
230
1.0
 40
0.578093115915809
 41
0.0
 42
6.283185307179586
  0
LINE
  5
140
330
6C
100
AcDbEntity
  8
Visible (ANSI)
100
AcDbLine
 10
38.96662294421696
 20
8.110263133206164
 30
0.0
 11
39.00498348709634
 21
8.088172765732933
 31
0.0
  0
LINE
  5
141
330
6C
100
AcDbEntity
  8
Visible Narrow (ANSI)
100
AcDbLine
 10
38.92083778013513
 20
8.083897210738106
 30
0.0
 11
38.96662294421696
 21
8.110263133206164
 31
0.0
  0
LINE
  5
142
330
6C
100
AcDbEntity
  8
Visible (ANSI)
100
AcDbLine
 10
38.95919832301451
 20
8.061806843264873
 30
0.0
 11
38.92083778013513
 21
8.083897210738106
 31
0.0
  0
LINE
  5
143
330
6C
100
AcDbEntity
  8
Visible Narrow (ANSI)
100
AcDbLine
 10
38.95919832301451
 20
8.061806843264873
 30
0.0
 11
39.00498348709634
 21
8.088172765732933
 31
0.0
  0
ELLIPSE
  5
144
330
6C
100
AcDbEntity
  8
Visible (ANSI)
100
AcDbEllipse
 10
39.00498348709634
 20
8.177591982512581
 30
0.0
 11
0.0545816481420442
 21
-0.0947825633283782
 31
0.0
210
0.0
220
0.0
230
1.0
 40
0.578093115915809
 41
5.49972085220502
 42
5.852162707341606
  0
ELLIPSE
  5
145
330
6C
100
AcDbEntity
  8
Visible (ANSI)
100
AcDbEllipse
 10
38.95919832301451
 20
8.151226060044523
 30
0.0
 11
0.0545816481420387
 21
-0.0947825633283817
 31
0.0
210
0.0
220
0.0
230
1.0
 40
0.578093115915809
 41
5.499720852205283
 42
8.641313505795075
  0
LINE
  5
146
330
6C
100
AcDbEntity
  8
Visible (ANSI)
100
AcDbLine
 10
38.92083778013514
 20
8.262735644297405
 30
0.0
 11
38.95919832301451
 21
8.240645276824174
 31
0.0
  0
ELLIPSE
  5
147
330
6C
100
AcDbEntity
  8
Visible (ANSI)
100
AcDbEllipse
 10
38.96662294421696
 20
8.199682349985812
 30
0.0
 11
0.05458164814205
 21
-0.0947825633283751
 31
0.0
210
0.0
220
0.0
230
1.0
 40
0.578093115915809
 41
3.572615253427313
 42
5.499720852204757
  0
ELLIPSE
  5
148
330
6C
100
AcDbEntity
  8
Visible (ANSI)
100
AcDbEllipse
 10
38.92083778013514
 20
8.173316427517754
 30
0.0
 11
-0.0545816481420387
 21
0.0947825633283817
 31
0.0
210
0.0
220
0.0
230
1.0
 40
0.578093115915809
 41
5.499720852205283
 42
8.641313505795075
  0
LINE
  5
149
330
6C
100
AcDbEntity
  8
Visible (ANSI)
100
AcDbLine
 10
33.01207673984416
 20
11.53925823905093
 30
0.0
 11
33.05043728272354
 21
11.5171678715777
 31
0.0
  0
LINE
  5
14A
330
6C
100
AcDbEntity
  8
Visible Narrow (ANSI)
100
AcDbLine
 10
32.96629157576234
 20
11.51289231658288
 30
0.0
 11
33.01207673984416
 21
11.53925823905093
 31
0.0
  0
LINE
  5
14B
330
6C
100
AcDbEntity
  8
Visible (ANSI)
100
AcDbLine
 10
33.00465211864172
 20
11.49080194910965
 30
0.0
 11
32.96629157576234
 21
11.51289231658288
 31
0.0
  0
LINE
  5
14C
330
6C
100
AcDbEntity
  8
Visible Narrow (ANSI)
100
AcDbLine
 10
33.00465211864172
 20
11.49080194910965
 30
0.0
 11
33.05043728272354
 21
11.5171678715777
 31
0.0
  0
ELLIPSE
  5
14D
330
6C
100
AcDbEntity
  8
Visible (ANSI)
100
AcDbEllipse
 10
33.05043728272354
 20
11.60658708835735
 30
0.0
 11
0.0545816481420443
 21
-0.0947825633283784
 31
0.0
210
0.0
220
0.0
230
1.0
 40
0.578093115915809
 41
5.49972085220502
 42
5.852162707341607
  0
ELLIPSE
  5
14E
330
6C
100
AcDbEntity
  8
Visible (ANSI)
100
AcDbEllipse
 10
33.00465211864172
 20
11.58022116588929
 30
0.0
 11
0.0545816481420387
 21
-0.0947825633283817
 31
0.0
210
0.0
220
0.0
230
0.9999999999999998
 40
0.5780931159158092
 41
5.499720852205284
 42
8.641313505795077
  0
LINE
  5
14F
330
6C
100
AcDbEntity
  8
Visible (ANSI)
100
AcDbLine
 10
32.96629157576234
 20
11.69173075014217
 30
0.0
 11
33.00465211864172
 21
11.66964038266894
 31
0.0
  0
ELLIPSE
  5
150
330
6C
100
AcDbEntity
  8
Visible (ANSI)
100
AcDbEllipse
 10
33.01207673984416
 20
11.62867745583058
 30
0.0
 11
0.05458164814205
 21
-0.0947825633283752
 31
0.0
210
0.0
220
0.0
230
1.0
 40
0.5780931159158092
 41
3.572615253427295
 42
5.499720852204667
  0
ELLIPSE
  5
151
330
6C
100
AcDbEntity
  8
Visible (ANSI)
100
AcDbEllipse
 10
32.96629157576234
 20
11.60231153336253
 30
0.0
 11
-0.0545816481420387
 21
0.0947825633283817
 31
0.0
210
0.0
220
0.0
230
1.0
 40
0.578093115915809
 41
5.499720852205283
 42
8.641313505795075
  0
LINE
  5
152
330
6C
100
AcDbEntity
  8
Visible (ANSI)
100
AcDbLine
 10
38.96662294421698
 20
17.85624240845405
 30
0.0
 11
39.00498348709636
 21
17.83415204098082
 31
0.0
  0
LINE
  5
153
330
6C
100
AcDbEntity
  8
Visible Narrow (ANSI)
100
AcDbLine
 10
38.92083778013516
 20
17.82987648598599
 30
0.0
 11
38.96662294421698
 21
17.85624240845405
 31
0.0
  0
LINE
  5
154
330
6C
100
AcDbEntity
  8
Visible (ANSI)
100
AcDbLine
 10
38.95919832301454
 20
17.80778611851276
 30
0.0
 11
38.92083778013516
 21
17.82987648598599
 31
0.0
  0
LINE
  5
155
330
6C
100
AcDbEntity
  8
Visible Narrow (ANSI)
100
AcDbLine
 10
38.95919832301454
 20
17.80778611851276
 30
0.0
 11
39.00498348709636
 21
17.83415204098082
 31
0.0
  0
ELLIPSE
  5
156
330
6C
100
AcDbEntity
  8
Visible (ANSI)
100
AcDbEllipse
 10
39.00498348709636
 20
17.92357125776051
 30
0.0
 11
0.0545816481420692
 21
-0.0947825633284216
 31
0.0
210
0.0
220
0.0
230
1.0
 40
0.578093115915809
 41
5.49972085220511
 42
5.852162707341538
  0
ELLIPSE
  5
157
330
6C
100
AcDbEntity
  8
Visible (ANSI)
100
AcDbEllipse
 10
38.95919832301454
 20
17.8972053352924
 30
0.0
 11
0.0545816481420391
 21
-0.0947825633283824
 31
0.0
210
0.0
220
0.0
230
1.0
 40
0.578093115915809
 41
5.499720852205283
 42
8.641313505795075
  0
LINE
  5
158
330
6C
100
AcDbEntity
  8
Visible (ANSI)
100
AcDbLine
 10
38.92083778013516
 20
18.00871491954529
 30
0.0
 11
38.95919832301454
 21
17.98662455207206
 31
0.0
  0
ELLIPSE
  5
159
330
6C
100
AcDbEntity
  8
Visible (ANSI)
100
AcDbEllipse
 10
38.96662294421698
 20
17.94566162523369
 30
0.0
 11
0.0545816481420492
 21
-0.0947825633283739
 31
0.0
210
0.0
220
0.0
230
0.9999999999999998
 40
0.5780931159158092
 41
3.572615253427333
 42
5.499720852204758
  0
ELLIPSE
  5
15A
330
6C
100
AcDbEntity
  8
Visible (ANSI)
100
AcDbEllipse
 10
38.92083778013516
 20
17.91929570276564
 30
0.0
 11
-0.0545816481420391
 21
0.0947825633283824
 31
0.0
210
0.0
220
0.0
230
1.0
 40
0.578093115915809
 41
5.499720852205283
 42
8.641313505795075
  0
LINE
  5
15B
330
6C
100
AcDbEntity
  8
Visible (ANSI)
100
AcDbLine
 10
33.01207673984418
 20
21.28523751429882
 30
0.0
 11
33.05043728272357
 21
21.26314714682559
 31
0.0
  0
LINE
  5
15C
330
6C
100
AcDbEntity
  8
Visible Narrow (ANSI)
100
AcDbLine
 10
32.96629157576236
 20
21.25887159183076
 30
0.0
 11
33.01207673984418
 21
21.28523751429882
 31
0.0
  0
LINE
  5
15D
330
6C
100
AcDbEntity
  8
Visible (ANSI)
100
AcDbLine
 10
33.00465211864175
 20
21.23678122435753
 30
0.0
 11
32.96629157576236
 21
21.25887159183076
 31
0.0
  0
LINE
  5
15E
330
6C
100
AcDbEntity
  8
Visible Narrow (ANSI)
100
AcDbLine
 10
33.00465211864175
 20
21.23678122435753
 30
0.0
 11
33.05043728272357
 21
21.26314714682559
 31
0.0
  0
ELLIPSE
  5
15F
330
6C
100
AcDbEntity
  8
Visible (ANSI)
100
AcDbEllipse
 10
33.05043728272356
 20
21.35256636360529
 30
0.0
 11
0.0545816481420729
 21
-0.094782563328428
 31
0.0
210
0.0
220
0.0
230
1.0
 40
0.578093115915809
 41
5.49972085220511
 42
5.852162707341511
  0
ELLIPSE
  5
160
330
6C
100
AcDbEntity
  8
Visible (ANSI)
100
AcDbEllipse
 10
33.00465211864175
 20
21.32620044113718
 30
0.0
 11
0.0545816481420391
 21
-0.0947825633283824
 31
0.0
210
0.0
220
0.0
230
1.0
 40
0.5780931159158093
 41
5.499720852205283
 42
8.641313505795077
  0
LINE
  5
161
330
6C
100
AcDbEntity
  8
Visible (ANSI)
100
AcDbLine
 10
32.96629157576236
 20
21.43771002539006
 30
0.0
 11
33.00465211864175
 21
21.41561965791683
 31
0.0
  0
ELLIPSE
  5
162
330
6C
100
AcDbEntity
  8
Visible (ANSI)
100
AcDbEllipse
 10
33.01207673984418
 20
21.37465673107847
 30
0.0
 11
0.0545816481420499
 21
-0.0947825633283749
 31
0.0
210
0.0
220
0.0
230
1.0
 40
0.5780931159158092
 41
3.572615253427331
 42
5.499720852204757
  0
ELLIPSE
  5
163
330
6C
100
AcDbEntity
  8
Visible (ANSI)
100
AcDbEllipse
 10
32.96629157576236
 20
21.34829080861041
 30
0.0
 11
-0.0545816481420391
 21
0.0947825633283824
 31
0.0
210
0.0
220
0.0
230
1.0
 40
0.578093115915809
 41
5.499720852205283
 42
8.641313505795077
  0
LINE
  5
164
330
6C
100
AcDbEntity
  8
Visible (ANSI)
100
AcDbLine
 10
32.79181297750453
 20
11.47888135692452
 30
0.0
 11
32.79181297750456
 21
21.6726720698049
 31
0.0
  0
LINE
  5
165
330
6C
100
AcDbEntity
  8
Visible (ANSI)
100
AcDbLine
 10
32.83759814158638
 20
21.69903799227296
 30
0.0
 11
32.79181297750456
 21
21.6726720698049
 31
0.0
  0
LINE
  5
166
330
6C
100
AcDbEntity
  8
Visible (ANSI)
100
AcDbLine
 10
32.79181297750456
 20
21.6726720698049
 30
0.0
 11
39.13367692127235
 21
18.02063551173041
 31
0.0
  0
LINE
  5
167
330
6C
100
AcDbEntity
  8
Visible (ANSI)
100
AcDbLine
 10
39.17946208535417
 20
18.04700143419847
 30
0.0
 11
39.13367692127235
 21
18.02063551173041
 31
0.0
  0
LINE
  5
168
330
6C
100
AcDbEntity
  8
Visible (ANSI)
100
AcDbLine
 10
39.17946208535417
 20
18.04700143419847
 30
0.0
 11
32.83759814158638
 21
21.69903799227296
 31
0.0
  0
LINE
  5
169
330
6C
100
AcDbEntity
  8
Visible (ANSI)
100
AcDbLine
 10
39.13367692127235
 20
18.02063551173041
 30
0.0
 11
39.13367692127232
 21
7.826844798850029
 31
0.0
  0
LINE
  5
16A
330
6C
100
AcDbEntity
  8
Visible (ANSI)
100
AcDbLine
 10
39.17946208535414
 20
7.853210721318087
 30
0.0
 11
39.13367692127232
 21
7.826844798850029
 31
0.0
  0
LINE
  5
16B
330
6C
100
AcDbEntity
  8
Visible (ANSI)
100
AcDbLine
 10
39.17946208535414
 20
7.853210721318087
 30
0.0
 11
39.17946208535417
 21
18.04700143419847
 31
0.0
  0
LINE
  5
16C
330
6C
100
AcDbEntity
  8
Visible (ANSI)
100
AcDbLine
 10
39.13367692127232
 20
7.826844798850029
 30
0.0
 11
32.79181297750453
 21
11.47888135692452
 31
0.0
  0
DIMENSION
  5
16D
330
6C
100
AcDbEntity
  8
Dimension (ANSI)
100
AcDbDimension
  2
*D4
 10
6.506656852250668
 20
21.48959699669432
 30
0.0
 11
6.506656852250665
 21
14.36459699669432
 31
0.0
 70
   160
  1
<>
 42
14.25
  3
Default (ANSI)
100
AcDbAlignedDimension
 13
8.672011182959332
 23
7.239596996694314
 33
0.0
 14
8.672011182959327
 24
21.48959699669431
 34
0.0
 50
90.0
100
AcDbRotatedDimension
1001
ACAD
1000
DSTYLE
1002
{
1070
   289
1070
     1
1070
   271
1070
     2
1070
   272
1070
     2
1070
    48
1040
0.0
1070
    47
1040
0.0
1002
}
  0
DIMENSION
  5
259
330
6C
100
AcDbEntity
  8
Dimension (ANSI)
100
AcDbDimension
  2
*D5
 10
18.92201118295933
 20
23.92608959071424
 30
0.0
 11
13.79701118295933
 21
23.92608959071424
 31
0.0
 70
   160
  1
<>
 42
10.25
  3
Default (ANSI)
100
AcDbAlignedDimension
 13
8.672011182959327
 23
21.48959699669431
 33
0.0
 14
18.92201118295933
 24
21.48959699669431
 34
0.0
 50
180.0
100
AcDbRotatedDimension
1001
ACAD
1000
DSTYLE
1002
{
1070
   289
1070
     1
1070
    73
1070
     0
1070
    74
1070
     0
1070
   271
1070
     2
1070
   272
1070
     2
1070
    48
1040
0.0
1070
    47
1040
0.0
1002
}
  0
DIMENSION
  5
343
330
6C
100
AcDbEntity
  8
Dimension (ANSI)
100
AcDbDimension
  2
*D6
 10
18.60901118295933
 20
23.24557239274844
 30
0.0
 11
19.98579203780462
 21
23.24557239274844
 31
0.0
 70
   160
  1
<>
 71
     5
 42
0.3130000000000024
  3
Default (ANSI)
100
AcDbAlignedDimension
 13
18.92201118295933
 23
21.48959699669431
 33
0.0
 14
18.60901118295933
 24
21.61409699669431
 34
0.0
 50
180.0
100
AcDbRotatedDimension
1001
ACAD
1000
DSTYLE
1002
{
1070
   289
1070
     1
1070
    73
1070
     0
1070
    74
1070
     0
1070
   271
1070
     3
1070
   272
1070
     3
1070
    48
1040
0.0
1070
    47
1040
0.0
1002
}
  0
DIMENSION
  5
42D
330
6C
100
AcDbEntity
  8
Dimension (ANSI)
100
AcDbDimension
  2
*D7
 10
19.6610336411325
 20
21.17659699669431
 30
0.0
 11
20.47875150942508
 21
22.20636182582501
 31
0.0
 70
   160
  1
<>
 42
0.3129999999999988
  3
Default (ANSI)
100
AcDbAlignedDimension
 13
18.92201118295933
 23
21.48959699669431
 33
0.0
 14
18.76501118295933
 24
21.17659699669431
 34
0.0
 50
90.0
100
AcDbRotatedDimension
1001
ACAD
1000
DSTYLE
1002
{
1070
   289
1070
     1
1070
   271
1070
     3
1070
   272
1070
     3
1070
    48
1040
0.0
1070
    47
1040
0.0
1002
}
  0
DIMENSION
  5
52D
330
6C
100
AcDbEntity
  8
Dimension (ANSI)
100
AcDbDimension
  2
*D8
 10
9.896622835311003
 20
7.64098534434262
 30
0.0
 11
12.91416447557383
 21
6.390125614579972
 31
0.0
 70
   163
  1
<>{\PGROUND HOLE}
 42
0.25
  3
Default (ANSI)
100
AcDbDiametricDimension
 15
10.07339953060766
 25
7.464208649046009
 35
0.0
 40
0.0
1001
ACAD_DSTYLE_DIMRADIAL_EXTENSION
1070
   387
1070
     1
1070
   388
1040
0.0
1070
   390
1040
0.0
1001
ACAD
1000
DSTYLE
1002
{
1070
   145
1040
-0.25
1070
   144
1040
0.9999999999999964
1070
   271
1070
     3
1070
   272
1070
     2
1070
    48
1040
0.0
1070
    47
1040
0.0
1002
}
  0
DIMENSION
  5
5E8
330
6C
100
AcDbEntity
  8
Dimension (ANSI)
100
AcDbDimension
  2
*D9
 10
27.61939383554369
 20
22.09529051577366
 30
0.0
 11
25.21013966562987
 21
22.09529051577366
 31
0.0
 70
   160
  1
{14 GA. C.R.S\P}(<>)
 71
     5
 42
0.0740000000000016
  3
Default (ANSI)
100
AcDbAlignedDimension
 13
27.54539383554369
 23
21.48959699669431
 33
0.0
 14
27.61939383554369
 24
21.48959699669431
 34
0.0
 50
180.0
100
AcDbRotatedDimension
1001
ACAD
1000
DSTYLE
1002
{
1070
   289
1070
     1
1070
    73
1070
     0
1070
    74
1070
     0
1070
   271
1070
     3
1070
   147
1040
0.031496062992126
1070
    72
1070
     0
1070
    71
1070
     0
1070
   272
1070
     2
1070
    48
1040
0.0
1070
    47
1040
0.0
1002
}
  0
DIMENSION
  5
6F0
330
6C
100
AcDbEntity
  8
Dimension (ANSI)
100
AcDbDimension
  2
*D10
 10
20.47875150942508
 20
21.17659699669431
 30
0.0
 11
20.47875150942508
 21
14.21501666834117
 31
0.0
 70
   160
  1
<>
 42
13.624
  3
Default (ANSI)
100
AcDbAlignedDimension
 13
8.829011182959328
 23
7.552596996694314
 33
0.0
 14
8.829011182959325
 24
21.17659699669431
 34
0.0
 50
90.0
100
AcDbRotatedDimension
1001
ACAD
1000
DSTYLE
1002
{
1070
   289
1070
     1
1070
   271
1070
     3
1070
   272
1070
     3
1070
    48
1040
0.0
1070
    47
1040
0.0
1002
}
  0
DIMENSION
  5
7DA
330
6C
100
AcDbEntity
  8
Dimension (ANSI)
100
AcDbDimension
  2
*D11
 10
18.60901118295933
 20
23.24557239274844
 30
0.0
 11
13.79701118295933
 21
23.24557239274844
 31
0.0
 70
   160
  1
<>
 42
9.624
  3
Default (ANSI)
100
AcDbAlignedDimension
 13
8.985011182959327
 23
21.61409699669431
 33
0.0
 14
18.60901118295933
 24
21.61409699669431
 34
0.0
 50
180.0
100
AcDbRotatedDimension
1001
ACAD
1000
DSTYLE
1002
{
1070
   289
1070
     1
1070
    73
1070
     0
1070
    74
1070
     0
1070
   271
1070
     3
1070
   272
1070
     3
1070
    48
1040
0.0
1070
    47
1040
0.0
1002
}
  0
DIMENSION
  5
8C4
330
6C
100
AcDbEntity
  8
Dimension (ANSI)
100
AcDbDimension
  2
*D12
 10
9.985011182959331
 20
6.443345028190382
 30
0.0
 11
7.733643442919579
 21
6.443345028190382
 31
0.0
 70
   160
  1
<>
  3
Default (ANSI)
100
AcDbAlignedDimension
 13
8.985011182959331
 23
7.427596996694319
 33
0.0
 14
9.985011182959331
 24
7.427596996694313
 34
0.0
 50
180.0
100
AcDbRotatedDimension
1001
ACAD
1000
DSTYLE
1002
{
1070
   289
1070
     1
1070
    73
1070
     0
1070
    74
1070
     0
1070
   271
1070
     3
1070
   272
1070
     3
1070
    48
1040
0.0
1070
    47
1040
0.0
1002
}
  0
CIRCLE
  5
9AE
330
6C
100
AcDbEntity
  8
Sketch Geometry (ANSI)
100
AcDbCircle
 10
9.422011182959327
 20
21.23959699669431
 30
0.0
 40
0.065
  0
CIRCLE
  5
9AF
330
6C
100
AcDbEntity
  8
Sketch Geometry (ANSI)
100
AcDbCircle
 10
9.672011182959327
 20
21.23959699669431
 30
0.0
 40
0.065
  0
CIRCLE
  5
9B0
330
6C
100
AcDbEntity
  8
Sketch Geometry (ANSI)
100
AcDbCircle
 10
9.922011182959327
 20
21.23959699669431
 30
0.0
 40
0.065
  0
CIRCLE
  5
9B1
330
6C
100
AcDbEntity
  8
Sketch Geometry (ANSI)
100
AcDbCircle
 10
8.92201118295928
 20
20.98959699669432
 30
0.0
 40
0.065
  0
CIRCLE
  5
9B2
330
6C
100
AcDbEntity
  8
Sketch Geometry (ANSI)
100
AcDbCircle
 10
9.172011182959327
 20
20.98959699669431
 30
0.0
 40
0.065
  0
CIRCLE
  5
9B3
330
6C
100
AcDbEntity
  8
Sketch Geometry (ANSI)
100
AcDbCircle
 10
9.422011182959327
 20
20.98959699669431
 30
0.0
 40
0.065
  0
CIRCLE
  5
9B4
330
6C
100
AcDbEntity
  8
Sketch Geometry (ANSI)
100
AcDbCircle
 10
9.672011182959327
 20
20.98959699669431
 30
0.0
 40
0.065
  0
CIRCLE
  5
9B5
330
6C
100
AcDbEntity
  8
Sketch Geometry (ANSI)
100
AcDbCircle
 10
9.922011182959327
 20
20.98959699669431
 30
0.0
 40
0.065
  0
CIRCLE
  5
9B6
330
6C
100
AcDbEntity
  8
Sketch Geometry (ANSI)
100
AcDbCircle
 10
8.92201118295928
 20
20.73959699669432
 30
0.0
 40
0.065
  0
CIRCLE
  5
9B7
330
6C
100
AcDbEntity
  8
Sketch Geometry (ANSI)
100
AcDbCircle
 10
9.172011182959327
 20
20.73959699669432
 30
0.0
 40
0.065
  0
CIRCLE
  5
9B8
330
6C
100
AcDbEntity
  8
Sketch Geometry (ANSI)
100
AcDbCircle
 10
9.422011182959327
 20
20.73959699669432
 30
0.0
 40
0.065
  0
CIRCLE
  5
9B9
330
6C
100
AcDbEntity
  8
Sketch Geometry (ANSI)
100
AcDbCircle
 10
9.672011182959327
 20
20.73959699669432
 30
0.0
 40
0.065
  0
CIRCLE
  5
9BA
330
6C
100
AcDbEntity
  8
Sketch Geometry (ANSI)
100
AcDbCircle
 10
9.922011182959327
 20
20.73959699669432
 30
0.0
 40
0.065
  0
CIRCLE
  5
9BB
330
6C
100
AcDbEntity
  8
Sketch Geometry (ANSI)
100
AcDbCircle
 10
8.92201118295928
 20
20.48959699669431
 30
0.0
 40
0.065
  0
CIRCLE
  5
9BC
330
6C
100
AcDbEntity
  8
Sketch Geometry (ANSI)
100
AcDbCircle
 10
9.172011182959327
 20
20.48959699669431
 30
0.0
 40
0.065
  0
CIRCLE
  5
9BD
330
6C
100
AcDbEntity
  8
Sketch Geometry (ANSI)
100
AcDbCircle
 10
9.422011182959327
 20
20.48959699669431
 30
0.0
 40
0.065
  0
CIRCLE
  5
9BE
330
6C
100
AcDbEntity
  8
Sketch Geometry (ANSI)
100
AcDbCircle
 10
9.672011182959327
 20
20.48959699669431
 30
0.0
 40
0.065
  0
CIRCLE
  5
9BF
330
6C
100
AcDbEntity
  8
Sketch Geometry (ANSI)
100
AcDbCircle
 10
9.922011182959327
 20
20.48959699669431
 30
0.0
 40
0.065
  0
CIRCLE
  5
9C0
330
6C
100
AcDbEntity
  8
Sketch Geometry (ANSI)
100
AcDbCircle
 10
8.92201118295928
 20
20.23959699669432
 30
0.0
 40
0.065
  0
CIRCLE
  5
9C1
330
6C
100
AcDbEntity
  8
Sketch Geometry (ANSI)
100
AcDbCircle
 10
9.172011182959327
 20
20.23959699669432
 30
0.0
 40
0.065
  0
CIRCLE
  5
9C2
330
6C
100
AcDbEntity
  8
Sketch Geometry (ANSI)
100
AcDbCircle
 10
9.422011182959327
 20
20.23959699669432
 30
0.0
 40
0.065
  0
CIRCLE
  5
9C3
330
6C
100
AcDbEntity
  8
Sketch Geometry (ANSI)
100
AcDbCircle
 10
9.672011182959327
 20
20.23959699669432
 30
0.0
 40
0.065
  0
CIRCLE
  5
9C4
330
6C
100
AcDbEntity
  8
Sketch Geometry (ANSI)
100
AcDbCircle
 10
9.922011182959327
 20
20.23959699669432
 30
0.0
 40
0.065
  0
CIRCLE
  5
9C5
330
6C
100
AcDbEntity
  8
Sketch Geometry (ANSI)
100
AcDbCircle
 10
8.987011182959282
 20
21.17459699669431
 30
0.0
 40
0.55
  0
MTEXT
  5
9C6
102
{ACAD_REACTORS
330
9C7
102
}
330
6C
100
AcDbEntity
  8
Symbol (ANSI)
100
AcDbMText
 10
7.981310017879332
 20
22.11193834129403
 30
0.0
 40
0.3000000037076905
 41
2.477795824291198
 71
     6
 72
     1
  1
{PREFORATED\PDETAIL}
  7
Note Text (ANSI)
 73
     2
 44
0.9878841638565063
  0
LEADER
  5
9C7
330
6C
100
AcDbEntity
  8
Symbol (ANSI)
100
AcDbLeader
  3
Default (ANSI)$7
 73
     0
 75
     1
 40
0.8939420929764549
 41
2.434654144648174
 76
     3
 10
8.583477092187955
 20
21.54830843294608
 30
0.0
 10
8.306113161912362
 20
22.11193834129403
 30
0.0
 10
8.060050175359647
 20
22.11193834129403
 30
0.0
340
9C6
210
0.0
220
0.0
230
0.9999999999999998
1001
ACAD
1000
DSTYLE
1002
{
1070
    77
1070
     0
1002
}
  0
LINE
  5
9C8
330
6C
100
AcDbEntity
  8
Centerline (ANSI)
  6
CHAIN
 48
0.9524481296539306
100
AcDbLine
 10
8.985011182959327
 20
21.61409699669431
 30
0.0
 11
8.985011182959331
 21
7.11509699669432
 31
0.0
  0
LINE
  5
9C9
330
6C
100
AcDbEntity
  8
Centerline (ANSI)
  6
CHAIN
 48
0.9524481296539306
100
AcDbLine
 10
8.51651118295933
 20
7.552596996694314
 30
0.0
 11
19.07751118295933
 21
7.552596996694314
 31
0.0
  0
LINE
  5
9CA
330
6C
100
AcDbEntity
  8
Centerline (ANSI)
  6
CHAIN
 48
0.9524481296539306
100
AcDbLine
 10
18.60901118295933
 20
7.115096996694319
 30
0.0
 11
18.60901118295933
 21
21.61409699669431
 31
0.0
  0
LINE
  5
9CB
330
6C
100
AcDbEntity
  8
Centerline (ANSI)
  6
CHAIN
 48
0.9524481296539306
100
AcDbLine
 10
19.07751118295933
 20
21.17659699669431
 30
0.0
 11
8.516511182959327
 21
21.17659699669431
 31
0.0
  0
LINE
  5
9CC
330
6C
100
AcDbEntity
  8
Center Mark (ANSI)
  6
CHAIN
 48
0.1943338513374328
100
AcDbLine
 10
10.42251118295933
 20
7.552596996694313
 30
0.0
 11
9.547511182959331
 21
7.552596996694313
 31
0.0
  0
LINE
  5
9CD
330
6C
100
AcDbEntity
  8
Center Mark (ANSI)
  6
CHAIN
 48
0.1943338513374328
100
AcDbLine
 10
9.985011182959331
 20
7.990096996694313
 30
0.0
 11
9.985011182959331
 21
7.115096996694314
 31
0.0
  0
MTEXT
  5
9CE
102
{ACAD_REACTORS
330
9CF
102
}
330
6C
100
AcDbEntity
  8
Symbol (ANSI)
100
AcDbMText
 10
19.63400166799037
 20
6.356740823729015
 30
0.0
 40
0.3000000037076905
 41
2.097811989896879
 71
     4
 72
     1
  1
{.250 X .312\POBROUND\PHOLE}
  7
Note Text (ANSI)
 73
     2
 44
0.9878841638565063
  0
LEADER
  5
9CF
330
6C
100
AcDbEntity
  8
Symbol (ANSI)
100
AcDbLeader
  3
Default (ANSI)$7
 73
     0
 74
     0
 75
     1
 40
1.387884181009322
 41
2.042377446565585
 76
     3
 10
18.66464230319305
 20
7.430047790593124
 30
0.0
 10
19.30919852395734
 20
6.356740823729015
 30
0.0
 10
19.55526151051006
 20
6.356740823729015
 30
0.0
340
9CE
210
0.0
220
0.0
230
0.9999999999999998
1001
ACAD
1000
DSTYLE
1002
{
1070
    77
1070
     0
1002
}
  0
LINE
  5
9D0
330
6C
100
AcDbEntity
  8
Center Mark (ANSI)
  6
CHAIN
 48
0.1676686406135559
100
AcDbLine
 10
9.29951118295928
 20
20.48959699669431
 30
0.0
 11
8.544511182959281
 21
20.48959699669431
 31
0.0
  0
LINE
  5
9D1
330
6C
100
AcDbEntity
  8
Center Mark (ANSI)
  6
CHAIN
 48
0.1676686406135559
100
AcDbLine
 10
8.92201118295928
 20
20.86709699669432
 30
0.0
 11
8.92201118295928
 21
20.11209699669432
 31
0.0
  0
LINE
  5
9D2
330
6C
100
AcDbEntity
  8
Center Mark (ANSI)
  6
CHAIN
 48
0.1676686406135559
100
AcDbLine
 10
9.29951118295928
 20
20.23959699669432
 30
0.0
 11
8.544511182959281
 21
20.23959699669432
 31
0.0
  0
LINE
  5
9D3
330
6C
100
AcDbEntity
  8
Center Mark (ANSI)
  6
CHAIN
 48
0.1676686406135559
100
AcDbLine
 10
8.92201118295928
 20
20.61709699669432
 30
0.0
 11
8.92201118295928
 21
19.86209699669431
 31
0.0
  0
DIMENSION
  5
9D4
330
6C
100
AcDbEntity
  8
Dimension (ANSI)
100
AcDbDimension
  2
*D13
 10
8.390748245562752
 20
20.48959699669431
 30
0.0
 11
7.569705998381848
 21
19.05168748822539
 31
0.0
 70
   160
  1
<>
 42
0.2499999999999964
  3
Default (ANSI)
100
AcDbAlignedDimension
 13
8.544511182959281
 23
20.23959699669432
 33
0.0
 14
8.544511182959281
 24
20.48959699669431
 34
0.0
 50
90.0
100
AcDbRotatedDimension
1001
ACAD
1000
DSTYLE
1002
{
1070
   289
1070
     1
1070
   271
1070
     3
1070
   272
1070
     3
1070
    48
1040
0.0
1070
    47
1040
0.0
1002
}
  0
DIMENSION
  5
AD4
330
6C
100
AcDbEntity
  8
Dimension (ANSI)
100
AcDbDimension
  2
*D14
 10
8.672011182959328
 20
18.33951832756351
 30
0.0
 11
7.522228054186995
 21
18.33951832756351
 31
0.0
 70
   160
  1
<>
 42
0.249999999999952
  3
Default (ANSI)
100
AcDbAlignedDimension
 13
8.92201118295928
 23
19.86209699669431
 33
0.0
 14
8.672011182959328
 24
14.70051574621328
 34
0.0
 50
180.0
100
AcDbRotatedDimension
1001
ACAD
1000
DSTYLE
1002
{
1070
   289
1070
     1
1070
    73
1070
     0
1070
    74
1070
     0
1070
   271
1070
     3
1070
    76
1070
     1
1070
   272
1070
     3
1070
    48
1040
0.0
1070
    47
1040
0.0
1002
}
  0
LINE
  5
BB9
330
6C
100
AcDbEntity
  8
Center Mark (ANSI)
  6
CHAIN
 48
0.1676686406135559
100
AcDbLine
 10
9.799511182959326
 20
21.23959699669431
 30
0.0
 11
9.044511182959327
 21
21.23959699669431
 31
0.0
  0
LINE
  5
BBA
330
6C
100
AcDbEntity
  8
Center Mark (ANSI)
  6
CHAIN
 48
0.1676686406135559
100
AcDbLine
 10
9.422011182959327
 20
21.61709699669431
 30
0.0
 11
9.422011182959327
 21
20.86209699669431
 31
0.0
  0
LINE
  5
BBB
330
6C
100
AcDbEntity
  8
Center Mark (ANSI)
  6
CHAIN
 48
0.1676686406135559
100
AcDbLine
 10
10.04951118295932
 20
21.23959699669431
 30
0.0
 11
9.294511182959325
 21
21.23959699669431
 31
0.0
  0
LINE
  5
BBC
330
6C
100
AcDbEntity
  8
Center Mark (ANSI)
  6
CHAIN
 48
0.1676686406135559
100
AcDbLine
 10
9.672011182959327
 20
21.61709699669431
 30
0.0
 11
9.672011182959327
 21
20.86209699669431
 31
0.0
  0
DIMENSION
  5
BBD
330
6C
100
AcDbEntity
  8
Dimension (ANSI)
100
AcDbDimension
  2
*D15
 10
9.672011182959327
 20
22.52346326008299
 30
0.0
 11
10.74448423054295
 21
22.52346326008299
 31
0.0
 70
   160
  1
<>
 42
0.25
  3
Default (ANSI)
100
AcDbAlignedDimension
 13
9.422011182959327
 23
21.61709699669431
 33
0.0
 14
9.672011182959327
 24
21.61709699669431
 34
0.0
 50
180.0
100
AcDbRotatedDimension
1001
ACAD
1000
DSTYLE
1002
{
1070
   289
1070
     1
1070
    73
1070
     0
1070
    74
1070
     0
1070
   271
1070
     3
1070
   272
1070
     3
1070
    48
1040
0.0
1070
    47
1040
0.0
1002
}
  0
DIMENSION
  5
CA7
330
6C
100
AcDbEntity
  8
Dimension (ANSI)
100
AcDbDimension
  2
*D16
 10
11.20075150252043
 20
21.48959699669431
 30
0.0
 11
12.02179374970132
 21
22.5151148316084
 31
0.0
 70
   160
  1
<>
 42
0.25
  3
Default (ANSI)
100
AcDbAlignedDimension
 13
10.04951118295932
 23
21.23959699669431
 33
0.0
 14
13.55942025945295
 24
21.48959699669431
 34
0.0
 50
90.0
100
AcDbRotatedDimension
1001
ACAD
1000
DSTYLE
1002
{
1070
   289
1070
     1
1070
   271
1070
     3
1070
    76
1070
     1
1070
   272
1070
     3
1070
    48
1040
0.0
1070
    47
1040
0.0
1002
}
  0
DIMENSION
  5
DA3
330
6C
100
AcDbEntity
  8
Dimension (ANSI)
100
AcDbDimension
  2
*D17
 10
9.87604924218219
 20
20.28555893747143
 30
0.0
 11
11.32292905183855
 21
19.82258474501741
 31
0.0
 70
   163
  1
<>{\PTYP.}
 71
     5
 42
0.13
  3
Default (ANSI)
100
AcDbDiametricDimension
 15
9.967973123736452
 25
20.19363505591719
 35
0.0
 40
0.0
1001
ACAD
1000
DSTYLE
1002
{
1070
   144
1040
1.000000000000041
1070
   271
1070
     3
1070
   272
1070
     2
1070
    48
1040
0.0
1070
    47
1040
0.0
1002
}
1001
ACAD_DSTYLE_DIMRADIAL_EXTENSION
1070
   387
1070
     1
1070
   388
1040
0.0
1070
   390
1040
0.0
  0
LINE
  5
E5C
330
6C
100
AcDbEntity
  8
Center Mark (ANSI)
  6
CHAIN
 48
0.1676686406135559
100
AcDbLine
 10
10.29951118295933
 20
21.23959699669431
 30
0.0
 11
9.544511182959327
 21
21.23959699669431
 31
0.0
  0
LINE
  5
E5D
330
6C
100
AcDbEntity
  8
Center Mark (ANSI)
  6
CHAIN
 48
0.1676686406135559
100
AcDbLine
 10
9.922011182959327
 20
21.61709699669431
 30
0.0
 11
9.922011182959327
 21
20.86209699669431
 31
0.0
  0
MTEXT
  5
E5E
102
{ACAD_XDICTIONARY
360
E6A
102
}
330
6C
100
AcDbEntity
  8
Symbol (ANSI)
100
AcDbMText
 10
23.57893916633355
 20
2.377624416326688
 30
0.0
 40
0.2500000079785745
 41
18.45846776887188
 71
     4
 72
     1
  3
{\fRomanS|b0|i0|c0|p2;\H2x;PART#: N1P1216PP\P(DATA SUBJECT TO CHANGE WITHOUT NOTICE)\H1.6157x; \H0.61894x;\P \H1.352x; \H0.73963x;\P\H0.6x;THIS DRAWING IS PROPERTY OF HUBBELL INC. WIEGMANN\H1.5633x; \H0.63966x;\PALL INFORMATION IS PROPRIETARY AND NOT
  1
 TO BE DUPLICATED\H1.234x; \H0.81039x;\P\H1.2571x; }
  7
Note Text (ANSI)
 73
     1
 44
0.8026435375213623
  0
ENDSEC
  0
SECTION
  2
OBJECTS
  0
DICTIONARY
  5
C
330
0
100
AcDbDictionary
281
     1
  3
ACAD_CIP_PREVIOUS_PRODUCT_INFO
350
E60
  3
ACAD_COLOR
350
63
  3
ACAD_GROUP
350
D
  3
ACAD_LAYOUT
350
62
  3
ACAD_MATERIAL
350
10
  3
ACAD_MLEADERSTYLE
350
66
  3
ACAD_MLINESTYLE
350
5F
  3
ACAD_PLOTSETTINGS
350
61
  3
ACAD_PLOTSTYLENAME
350
E
  3
ACAD_SCALELIST
350
42
  3
ACAD_TABLESTYLE
350
64
  3
ACAD_VISUALSTYLE
350
29
  3
ACDB_RECOMPOSE_DATA
350
E6C
  3
AcDbVariableDictionary
350
76
  0
DICTIONARY
  5
EA2
330
5E2
100
AcDbDictionary
280
     1
281
     1
  3
ACAD_MTEXT_2008_RT
360
EA3
  0
DICTIONARY
  5
EA4
330
E56
100
AcDbDictionary
280
     1
281
     1
  3
ACAD_MTEXT_2008_RT
360
EA5
  0
DICTIONARY
  5
E6A
330
E5E
100
AcDbDictionary
280
     1
281
     1
  3
ACAD_MTEXT_2008_RT
360
E6B
  0
XRECORD
  5
E60
102
{ACAD_REACTORS
330
C
102
}
330
C
100
AcDbXrecord
280
     1
300
INVPROSA
300
2012
300
INVPROSA_F_S
  0
DICTIONARY
  5
63
102
{ACAD_REACTORS
330
C
102
}
330
C
100
AcDbDictionary
281
     1
  0
DICTIONARY
  5
D
102
{ACAD_REACTORS
330
C
102
}
330
C
100
AcDbDictionary
281
     1
  0
DICTIONARY
  5
62
102
{ACAD_REACTORS
330
C
102
}
330
C
100
AcDbDictionary
281
     1
  3
Layout1
350
6B
  3
Layout2
350
73
  3
Model
350
6F
  0
DICTIONARY
  5
10
102
{ACAD_REACTORS
330
C
102
}
330
C
100
AcDbDictionary
281
     1
  3
ByBlock
350
19
  3
ByLayer
350
11
  3
Global
350
21
  0
DICTIONARY
  5
66
102
{ACAD_REACTORS
330
C
102
}
330
C
100
AcDbDictionary
281
     1
  3
Standard
350
67
  0
DICTIONARY
  5
5F
102
{ACAD_REACTORS
330
C
102
}
330
C
100
AcDbDictionary
281
     1
  3
Standard
350
60
  0
DICTIONARY
  5
61
102
{ACAD_REACTORS
330
C
102
}
330
C
100
AcDbDictionary
281
     1
  0
ACDBDICTIONARYWDFLT
  5
E
102
{ACAD_REACTORS
330
C
102
}
330
C
100
AcDbDictionary
281
     1
  3
Normal
350
F
100
AcDbDictionaryWithDefault
340
F
  0
DICTIONARY
  5
42
102
{ACAD_REACTORS
330
C
102
}
330
C
100
AcDbDictionary
281
     1
  3
A0
350
43
  3
A1
350
44
  3
A2
350
45
  3
A3
350
46
  3
A4
350
47
  3
A5
350
48
  3
A6
350
49
  3
A7
350
4A
  3
A8
350
4B
  3
A9
350
4C
  3
B0
350
4D
  3
B1
350
4E
  3
B2
350
4F
  3
B3
350
50
  3
B4
350
51
  3
B5
350
52
  3
B6
350
53
  0
DICTIONARY
  5
64
102
{ACAD_REACTORS
330
C
102
}
330
C
100
AcDbDictionary
281
     1
  3
Standard
350
65
  0
DICTIONARY
  5
29
102
{ACAD_REACTORS
330
C
102
}
330
C
100
AcDbDictionary
281
     1
  3
2dWireframe
350
2F
  3
Basic
350
2E
  3
Brighten
350
35
  3
ColorChange
350
39
  3
Conceptual
350
32
  3
Dim
350
34
  3
EdgeColorOff
350
41
  3
Facepattern
350
38
  3
Flat
350
2A
  3
FlatWithEdges
350
2B
  3
Gouraud
350
2C
  3
GouraudWithEdges
350
2D
  3
Hidden
350
31
  3
JitterOff
350
3F
  3
Linepattern
350
37
  3
OverhangOff
350
40
  3
Realistic
350
33
  3
Shaded
350
3E
  3
Shaded with edges
350
3D
  3
Shades of Gray
350
3A
  3
Sketchy
350
3B
  3
Thicken
350
36
  3
Wireframe
350
30
  3
X-Ray
350
3C
  0
XRECORD
  5
E6C
102
{ACAD_REACTORS
330
C
102
}
330
C
100
AcDbXrecord
280
     1
 90
        1
330
65
330
E5E
  0
DICTIONARY
  5
76
102
{ACAD_REACTORS
330
C
102
}
330
C
100
AcDbDictionary
281
     1
  3
CANNOSCALE
350
79
  3
CMLEADERSTYLE
350
78
  3
CTABLESTYLE
350
77
  3
LAYEREVAL
350
E63
  3
LAYERNOTIFY
350
E64
  3
LIGHTINGUNITS
350
E62
  3
MSLTSCALE
350
E61
  3
XCLIPFRAME
350
E65
  0
XRECORD
  5
EA3
102
{ACAD_REACTORS
330
EA2
102
}
330
EA2
100
AcDbXrecord
280
     1
 40
36037.0
  1
\A1;\U+22050.250{\PGROUND HOLE}
  0
XRECORD
  5
EA5
102
{ACAD_REACTORS
330
EA4
102
}
330
EA4
100
AcDbXrecord
280
     1
 40
21816.0
  1
\A1;\U+22050.130{\PTYP.}
  0
XRECORD
  5
E6B
102
{ACAD_REACTORS
330
E6A
102
}
330
E6A
100
AcDbXrecord
280
     1
 40
3089113.0
  1
\pxsm0.94;{\fRomanS|b0|i0;\H0.5000;PART#: N1P1216PP\P(DATA SUBJECT TO CHANGE WITHOUT NOTICE)\P \P\fRomanS|b0|i0;\H0.3000;THIS DRAWING IS PROPERTY OF HUBBELL INC. WIEGMANN\PALL INFORMATION IS PROPRIETARY AND NOT TO BE DUPLICATED\P}
  0
LAYOUT
  5
6B
102
{ACAD_REACTORS
330
62
102
}
330
62
100
AcDbPlotSettings
  1

  2

  4

  6

 40
0.0
 41
0.0
 42
0.0
 43
0.0
 44
0.0
 45
0.0
 46
0.0
 47
0.0
 48
0.0
 49
0.0
140
0.0
141
0.0
142
1.0
143
1.0
 70
   688
 72
     0
 73
     0
 74
     5
  7

 75
    16
147
1.0
 76
     0
 77
     2
 78
   300
148
0.0
149
0.0
100
AcDbLayout
  1
Layout1
 70
     1
 71
     1
 10
0.0
 20
0.0
 11
12.0
 21
9.0
 12
0.0
 22
0.0
 32
0.0
 14
0.0
 24
0.0
 34
0.0
 15
0.0
 25
0.0
 35
0.0
146
0.0
 13
0.0
 23
0.0
 33
0.0
 16
1.0
 26
0.0
 36
0.0
 17
0.0
 27
1.0
 37
0.0
 76
     0
330
68
  0
LAYOUT
  5
73
102
{ACAD_REACTORS
330
62
102
}
330
62
100
AcDbPlotSettings
  1

  2

  4

  6

 40
0.0
 41
0.0
 42
0.0
 43
0.0
 44
0.0
 45
0.0
 46
0.0
 47
0.0
 48
0.0
 49
0.0
140
0.0
141
0.0
142
1.0
143
1.0
 70
   688
 72
     0
 73
     0
 74
     5
  7

 75
    16
147
1.0
 76
     0
 77
     2
 78
   300
148
0.0
149
0.0
100
AcDbLayout
  1
Layout2
 70
     1
 71
     2
 10
0.0
 20
0.0
 11
12.0
 21
9.0
 12
0.0
 22
0.0
 32
0.0
 14
0.0
 24
0.0
 34
0.0
 15
0.0
 25
0.0
 35
0.0
146
0.0
 13
0.0
 23
0.0
 33
0.0
 16
1.0
 26
0.0
 36
0.0
 17
0.0
 27
1.0
 37
0.0
 76
     0
330
70
  0
LAYOUT
  5
6F
102
{ACAD_REACTORS
330
62
102
}
330
62
100
AcDbPlotSettings
  1

  2

  4

  6

 40
0.0
 41
0.0
 42
0.0
 43
0.0
 44
0.0
 45
0.0
 46
0.0
 47
0.0
 48
0.0
 49
0.0
140
0.0
141
0.0
142
1.0
143
1.0
 70
  1712
 72
     0
 73
     0
 74
     0
  7

 75
     0
147
1.0
 76
     0
 77
     2
 78
   300
148
0.0
149
0.0
100
AcDbLayout
  1
Model
 70
     1
 71
     0
 10
0.0
 20
0.0
 11
12.0
 21
9.0
 12
0.0
 22
0.0
 32
0.0
 14
0.0
 24
0.0
 34
0.0
 15
0.0
 25
0.0
 35
0.0
146
0.0
 13
0.0
 23
0.0
 33
0.0
 16
1.0
 26
0.0
 36
0.0
 17
0.0
 27
1.0
 37
0.0
 76
     0
330
6C
  0
MATERIAL
  5
19
102
{ACAD_XDICTIONARY
360
1A
102
}
102
{ACAD_REACTORS
330
10
102
}
330
10
100
AcDbMaterial
  1
ByBlock
 72
     0
 43
0.0208333333333333
 43
0.0
 43
0.0
 43
0.0
 43
0.0
 43
0.0208333333333333
 43
0.0
 43
0.0
 43
0.0
 43
0.0
 43
1.0
 43
0.0
 43
0.0
 43
0.0
 43
0.0
 43
1.0
 77
     0
 47
0.0208333333333333
 47
0.0
 47
0.0
 47
0.0
 47
0.0
 47
0.0208333333333333
 47
0.0
 47
0.0
 47
0.0
 47
0.0
 47
1.0
 47
0.0
 47
0.0
 47
0.0
 47
0.0
 47
1.0
171
     0
 49
0.0208333333333333
 49
0.0
 49
0.0
 49
0.0
 49
0.0
 49
0.0208333333333333
 49
0.0
 49
0.0
 49
0.0
 49
0.0
 49
1.0
 49
0.0
 49
0.0
 49
0.0
 49
0.0
 49
1.0
175
     0
142
0.0208333333333333
142
0.0
142
0.0
142
0.0
142
0.0
142
0.0208333333333333
142
0.0
142
0.0
142
0.0
142
0.0
142
1.0
142
0.0
142
0.0
142
0.0
142
0.0
142
1.0
179
     0
144
0.0208333333333333
144
0.0
144
0.0
144
0.0
144
0.0
144
0.0208333333333333
144
0.0
144
0.0
144
0.0
144
0.0
144
1.0
144
0.0
144
0.0
144
0.0
144
0.0
144
1.0
147
0.0208333333333333
147
0.0
147
0.0
147
0.0
147
0.0
147
0.0208333333333333
147
0.0
147
0.0
147
0.0
147
0.0
147
1.0
147
0.0
147
0.0
147
0.0
147
0.0
147
1.0
  0
MATERIAL
  5
11
102
{ACAD_XDICTIONARY
360
12
102
}
102
{ACAD_REACTORS
330
10
102
}
330
10
100
AcDbMaterial
  1
ByLayer
 72
     0
 43
0.0208333333333333
 43
0.0
 43
0.0
 43
0.0
 43
0.0
 43
0.0208333333333333
 43
0.0
 43
0.0
 43
0.0
 43
0.0
 43
1.0
 43
0.0
 43
0.0
 43
0.0
 43
0.0
 43
1.0
 77
     0
 47
0.0208333333333333
 47
0.0
 47
0.0
 47
0.0
 47
0.0
 47
0.0208333333333333
 47
0.0
 47
0.0
 47
0.0
 47
0.0
 47
1.0
 47
0.0
 47
0.0
 47
0.0
 47
0.0
 47
1.0
171
     0
 49
0.0208333333333333
 49
0.0
 49
0.0
 49
0.0
 49
0.0
 49
0.0208333333333333
 49
0.0
 49
0.0
 49
0.0
 49
0.0
 49
1.0
 49
0.0
 49
0.0
 49
0.0
 49
0.0
 49
1.0
175
     0
142
0.0208333333333333
142
0.0
142
0.0
142
0.0
142
0.0
142
0.0208333333333333
142
0.0
142
0.0
142
0.0
142
0.0
142
1.0
142
0.0
142
0.0
142
0.0
142
0.0
142
1.0
179
     0
144
0.0208333333333333
144
0.0
144
0.0
144
0.0
144
0.0
144
0.0208333333333333
144
0.0
144
0.0
144
0.0
144
0.0
144
1.0
144
0.0
144
0.0
144
0.0
144
0.0
144
1.0
147
0.0208333333333333
147
0.0
147
0.0
147
0.0
147
0.0
147
0.0208333333333333
147
0.0
147
0.0
147
0.0
147
0.0
147
1.0
147
0.0
147
0.0
147
0.0
147
0.0
147
1.0
  0
MATERIAL
  5
21
102
{ACAD_XDICTIONARY
360
22
102
}
102
{ACAD_REACTORS
330
10
102
}
330
10
100
AcDbMaterial
  1
Global
 72
     0
 43
0.0208333333333333
 43
0.0
 43
0.0
 43
0.0
 43
0.0
 43
0.0208333333333333
 43
0.0
 43
0.0
 43
0.0
 43
0.0
 43
1.0
 43
0.0
 43
0.0
 43
0.0
 43
0.0
 43
1.0
 77
     0
 47
0.0208333333333333
 47
0.0
 47
0.0
 47
0.0
 47
0.0
 47
0.0208333333333333
 47
0.0
 47
0.0
 47
0.0
 47
0.0
 47
1.0
 47
0.0
 47
0.0
 47
0.0
 47
0.0
 47
1.0
171
     0
 49
0.0208333333333333
 49
0.0
 49
0.0
 49
0.0
 49
0.0
 49
0.0208333333333333
 49
0.0
 49
0.0
 49
0.0
 49
0.0
 49
1.0
 49
0.0
 49
0.0
 49
0.0
 49
0.0
 49
1.0
175
     0
142
0.0208333333333333
142
0.0
142
0.0
142
0.0
142
0.0
142
0.0208333333333333
142
0.0
142
0.0
142
0.0
142
0.0
142
1.0
142
0.0
142
0.0
142
0.0
142
0.0
142
1.0
179
     0
144
0.0208333333333333
144
0.0
144
0.0
144
0.0
144
0.0
144
0.0208333333333333
144
0.0
144
0.0
144
0.0
144
0.0
144
1.0
144
0.0
144
0.0
144
0.0
144
0.0
144
1.0
147
0.0208333333333333
147
0.0
147
0.0
147
0.0
147
0.0
147
0.0208333333333333
147
0.0
147
0.0
147
0.0
147
0.0
147
1.0
147
0.0
147
0.0
147
0.0
147
0.0
147
1.0
  0
MLEADERSTYLE
  5
67
102
{ACAD_XDICTIONARY
360
E68
102
}
102
{ACAD_REACTORS
330
66
102
}
330
66
100
AcDbMLeaderStyle
170
     2
171
     1
172
     0
 90
        2
 40
0.0
 41
0.0
173
     1
 91
-1056964608
340
5B
 92
       -2
290
     1
 42
0.09
291
     1
 43
0.36
  3
Standard
 44
0.18
300

342
55
174
     1
178
     6
175
     1
176
     0
 93
-1056964608
 45
0.18
292
     0
297
     0
 46
0.18
 94
-1056964608
 47
1.0
 49
1.0
140
1.0
293
     1
141
0.0
294
     1
177
     0
142
1.0
295
     0
296
     0
143
0.125
1001
ACAD_MLEADERVER
1070
     2
  0
MLINESTYLE
  5
60
102
{ACAD_REACTORS
330
5F
102
}
330
5F
100
AcDbMlineStyle
  2
STANDARD
 70
     0
  3

 62
   256
 51
90.0
 52
90.0
 71
     2
 49
0.5
 62
   256
  6
BYLAYER
 49
-0.5
 62
   256
  6
BYLAYER
  0
ACDBPLACEHOLDER
  5
F
102
{ACAD_REACTORS
330
E
102
}
330
E
  0
SCALE
  5
43
102
{ACAD_REACTORS
330
42
102
}
330
42
100
AcDbScale
 70
     0
300
1:1
140
1.0
141
1.0
290
     1
  0
SCALE
  5
44
102
{ACAD_REACTORS
330
42
102
}
330
42
100
AcDbScale
 70
     0
300
1/128" = 1'-0"
140
0.0078125
141
12.0
290
     0
  0
SCALE
  5
45
102
{ACAD_REACTORS
330
42
102
}
330
42
100
AcDbScale
 70
     0
300
1/64" = 1'-0"
140
0.015625
141
12.0
290
     0
  0
SCALE
  5
46
102
{ACAD_REACTORS
330
42
102
}
330
42
100
AcDbScale
 70
     0
300
1/32" = 1'-0"
140
0.03125
141
12.0
290
     0
  0
SCALE
  5
47
102
{ACAD_REACTORS
330
42
102
}
330
42
100
AcDbScale
 70
     0
300
1/16" = 1'-0"
140
0.0625
141
12.0
290
     0
  0
SCALE
  5
48
102
{ACAD_REACTORS
330
42
102
}
330
42
100
AcDbScale
 70
     0
300
3/32" = 1'-0"
140
0.09375
141
12.0
290
     0
  0
SCALE
  5
49
102
{ACAD_REACTORS
330
42
102
}
330
42
100
AcDbScale
 70
     0
300
1/8" = 1'-0"
140
0.125
141
12.0
290
     0
  0
SCALE
  5
4A
102
{ACAD_REACTORS
330
42
102
}
330
42
100
AcDbScale
 70
     0
300
3/16" = 1'-0"
140
0.1875
141
12.0
290
     0
  0
SCALE
  5
4B
102
{ACAD_REACTORS
330
42
102
}
330
42
100
AcDbScale
 70
     0
300
1/4" = 1'-0"
140
0.25
141
12.0
290
     0
  0
SCALE
  5
4C
102
{ACAD_REACTORS
330
42
102
}
330
42
100
AcDbScale
 70
     0
300
3/8" = 1'-0"
140
0.375
141
12.0
290
     0
  0
SCALE
  5
4D
102
{ACAD_REACTORS
330
42
102
}
330
42
100
AcDbScale
 70
     0
300
1/2" = 1'-0"
140
0.5
141
12.0
290
     0
  0
SCALE
  5
4E
102
{ACAD_REACTORS
330
42
102
}
330
42
100
AcDbScale
 70
     0
300
3/4" = 1'-0"
140
0.75
141
12.0
290
     0
  0
SCALE
  5
4F
102
{ACAD_REACTORS
330
42
102
}
330
42
100
AcDbScale
 70
     0
300
1" = 1'-0"
140
1.0
141
12.0
290
     0
  0
SCALE
  5
50
102
{ACAD_REACTORS
330
42
102
}
330
42
100
AcDbScale
 70
     0
300
1-1/2" = 1'-0"
140
1.5
141
12.0
290
     0
  0
SCALE
  5
51
102
{ACAD_REACTORS
330
42
102
}
330
42
100
AcDbScale
 70
     0
300
3" = 1'-0"
140
3.0
141
12.0
290
     0
  0
SCALE
  5
52
102
{ACAD_REACTORS
330
42
102
}
330
42
100
AcDbScale
 70
     0
300
6" = 1'-0"
140
6.0
141
12.0
290
     0
  0
SCALE
  5
53
102
{ACAD_REACTORS
330
42
102
}
330
42
100
AcDbScale
 70
     0
300
1'-0" = 1'-0"
140
12.0
141
12.0
290
     0
  0
TABLESTYLE
  5
65
102
{ACAD_XDICTIONARY
360
E66
102
}
102
{ACAD_REACTORS
330
64
102
}
330
64
100
AcDbTableStyle
  3
Standard
 70
     0
 71
     0
 40
0.06
 41
0.06
280
     0
281
     0
  7
Standard
140
0.18
170
     2
 62
     0
 63
     7
283
     0
274
    -2
284
     1
 64
     0
275
    -2
285
     1
 65
     0
276
    -2
286
     1
 66
     0
277
    -2
287
     1
 67
     0
278
    -2
288
     1
 68
     0
279
    -2
289
     1
 69
     0
  7
Standard
140
0.25
170
     5
 62
     0
 63
     7
283
     0
274
    -2
284
     1
 64
     0
275
    -2
285
     1
 65
     0
276
    -2
286
     1
 66
     0
277
    -2
287
     1
 67
     0
278
    -2
288
     1
 68
     0
279
    -2
289
     1
 69
     0
  7
Standard
140
0.18
170
     5
 62
     0
 63
     7
283
     0
274
    -2
284
     1
 64
     0
275
    -2
285
     1
 65
     0
276
    -2
286
     1
 66
     0
277
    -2
287
     1
 67
     0
278
    -2
288
     1
 68
     0
279
    -2
289
     1
 69
     0
  0
VISUALSTYLE
  5
2F
102
{ACAD_XDICTIONARY
360
E7A
102
}
102
{ACAD_REACTORS
330
29
102
}
330
29
100
AcDbVisualStyle
  2
2dWireframe
 70
     4
 71
     0
 72
     2
 73
     0
 90
        0
 40
-0.6
 41
-30.0
 62
     5
 63
     7
421
 16777215
 74
     1
 91
        4
 64
     7
 65
   257
 75
     1
175
     1
 42
1.0
 92
        0
 66
   257
 43
1.0
 76
     1
 77
     6
 78
     2
 67
     7
 79
     5
170
     0
171
     0
290
     0
174
     0
 93
        1
 44
0.0
173
     0
291
     0
 45
0.0
1001
ACAD
1000
AcDbSavedByObjectVersion
1070
     0
  0
VISUALSTYLE
  5
2E
102
{ACAD_XDICTIONARY
360
E78
102
}
102
{ACAD_REACTORS
330
29
102
}
330
29
100
AcDbVisualStyle
  2
Basic
 70
     7
 71
     1
 72
     0
 73
     1
 90
        0
 40
-0.6
 41
-30.0
 62
     5
 63
     7
421
 16777215
 74
     0
 91
        4
 64
     7
 65
   257
 75
     1
175
     1
 42
1.0
 92
        8
 66
     7
 43
1.0
 76
     1
 77
     6
 78
     2
 67
     7
 79
     5
170
     0
171
     0
290
     0
174
     0
 93
        1
 44
0.0
173
     0
291
     1
 45
0.0
1001
ACAD
1000
AcDbSavedByObjectVersion
1070
     0
  0
VISUALSTYLE
  5
35
102
{ACAD_XDICTIONARY
360
E86
102
}
102
{ACAD_REACTORS
330
29
102
}
330
29
100
AcDbVisualStyle
  2
Brighten
 70
    12
 71
     2
 72
     2
 73
     0
 90
        0
 40
-0.6
 41
-30.0
 62
     5
 63
     7
421
 16777215
 74
     1
 91
        4
 64
     7
 65
   257
 75
     1
175
     1
 42
1.0
 92
        8
 66
     7
 43
1.0
 76
     1
 77
     6
 78
     2
 67
     7
 79
     5
170
     0
171
     0
290
     0
174
     0
 93
        1
 44
50.0
173
     0
291
     1
 45
0.0
1001
ACAD
1000
AcDbSavedByObjectVersion
1070
     0
  0
VISUALSTYLE
  5
39
102
{ACAD_XDICTIONARY
360
E8E
102
}
102
{ACAD_REACTORS
330
29
102
}
330
29
100
AcDbVisualStyle
  2
ColorChange
 70
    16
 71
     2
 72
     2
 73
     3
 90
        0
 40
-0.6
 41
-30.0
 62
     5
 63
     8
421
  8421504
 74
     1
 91
        4
 64
     7
 65
   257
 75
     1
175
     1
 42
1.0
 92
        8
 66
     8
424
  8421504
 43
1.0
 76
     1
 77
     6
 78
     2
 67
     7
 79
     5
170
     0
171
     0
290
     0
174
     0
 93
        1
 44
0.0
173
     0
291
     1
 45
0.0
1001
ACAD
1000
AcDbSavedByObjectVersion
1070
     0
  0
VISUALSTYLE
  5
32
102
{ACAD_XDICTIONARY
360
E80
102
}
102
{ACAD_REACTORS
330
29
102
}
330
29
100
AcDbVisualStyle
  2
Conceptual
 70
     9
 71
     3
 72
     2
 73
     0
 90
        0
 40
-0.6
 41
-30.0
 62
     5
 63
     7
421
 16777215
 74
     2
 91
        2
 64
     7
 65
   257
 75
     1
175
     1
 42
179.0
 92
        8
 66
     7
 43
1.0
 76
     1
 77
     6
 78
     2
 67
     7
 79
     3
170
     0
171
     0
290
     0
174
     0
 93
        1
 44
0.0
173
     0
291
     0
 45
0.0
1001
ACAD
1000
AcDbSavedByObjectVersion
1070
     0
  0
VISUALSTYLE
  5
34
102
{ACAD_XDICTIONARY
360
E84
102
}
102
{ACAD_REACTORS
330
29
102
}
330
29
100
AcDbVisualStyle
  2
Dim
 70
    11
 71
     2
 72
     2
 73
     0
 90
        0
 40
-0.6
 41
-30.0
 62
     5
 63
     7
421
 16777215
 74
     1
 91
        4
 64
     7
 65
   257
 75
     1
175
     1
 42
1.0
 92
        8
 66
     7
 43
1.0
 76
     1
 77
     6
 78
     2
 67
     7
 79
     5
170
     0
171
     0
290
     0
174
     0
 93
        1
 44
-50.0
173
     0
291
     1
 45
0.0
1001
ACAD
1000
AcDbSavedByObjectVersion
1070
     0
  0
VISUALSTYLE
  5
41
102
{ACAD_XDICTIONARY
360
E9E
102
}
102
{ACAD_REACTORS
330
29
102
}
330
29
100
AcDbVisualStyle
  2
EdgeColorOff
 70
    22
 71
     2
 72
     2
 73
     0
 90
        0
 40
-0.6
 41
-30.0
 62
     5
 63
     7
421
 16777215
 74
     1
 91
        4
 64
     7
 65
   257
 75
     1
175
     1
 42
1.0
 92
        8
 66
     7
 43
1.0
 76
     1
 77
     6
 78
     2
 67
     7
 79
     5
170
     0
171
     0
290
     0
174
     0
 93
        1
 44
0.0
173
     0
291
     1
 45
0.0
1001
ACAD
1000
AcDbSavedByObjectVersion
1070
     0
  0
VISUALSTYLE
  5
38
102
{ACAD_XDICTIONARY
360
E8C
102
}
102
{ACAD_REACTORS
330
29
102
}
330
29
100
AcDbVisualStyle
  2
Facepattern
 70
    15
 71
     2
 72
     2
 73
     0
 90
        0
 40
-0.6
 41
-30.0
 62
     5
 63
     7
421
 16777215
 74
     1
 91
        4
 64
     7
 65
   257
 75
     1
175
     1
 42
1.0
 92
        8
 66
     7
 43
1.0
 76
     1
 77
     6
 78
     2
 67
     7
 79
     5
170
     0
171
     0
290
     0
174
     0
 93
        1
 44
0.0
173
     0
291
     1
 45
0.0
1001
ACAD
1000
AcDbSavedByObjectVersion
1070
     0
  0
VISUALSTYLE
  5
2A
102
{ACAD_XDICTIONARY
360
E70
102
}
102
{ACAD_REACTORS
330
29
102
}
330
29
100
AcDbVisualStyle
  2
Flat
 70
     0
 71
     2
 72
     1
 73
     1
 90
        2
 40
-0.6
 41
30.0
 62
     5
 63
     7
421
 16777215
 74
     0
 91
        0
 64
     7
 65
   257
 75
     1
175
     1
 42
1.0
 92
        8
 66
     7
 43
1.0
 76
     1
 77
     6
 78
     2
 67
     7
 79
     5
170
     0
171
     0
290
     0
174
     0
 93
       13
 44
0.0
173
     0
291
     1
 45
0.0
1001
ACAD
1000
AcDbSavedByObjectVersion
1070
     0
  0
VISUALSTYLE
  5
2B
102
{ACAD_XDICTIONARY
360
E72
102
}
102
{ACAD_REACTORS
330
29
102
}
330
29
100
AcDbVisualStyle
  2
FlatWithEdges
 70
     1
 71
     2
 72
     1
 73
     1
 90
        2
 40
-0.6
 41
30.0
 62
     5
 63
     7
421
 16777215
 74
     1
 91
        0
 64
     7
 65
   257
 75
     1
175
     1
 42
1.0
 92
        0
 66
   257
 43
1.0
 76
     1
 77
     6
 78
     2
 67
     7
 79
     5
170
     0
171
     0
290
     0
174
     0
 93
       13
 44
0.0
173
     0
291
     1
 45
0.0
1001
ACAD
1000
AcDbSavedByObjectVersion
1070
     0
  0
VISUALSTYLE
  5
2C
102
{ACAD_XDICTIONARY
360
E74
102
}
102
{ACAD_REACTORS
330
29
102
}
330
29
100
AcDbVisualStyle
  2
Gouraud
 70
     2
 71
     2
 72
     2
 73
     1
 90
        2
 40
-0.6
 41
30.0
 62
     5
 63
     7
421
 16777215
 74
     0
 91
        0
 64
     7
 65
   257
 75
     1
175
     1
 42
1.0
 92
        0
 66
     7
 43
1.0
 76
     1
 77
     6
 78
     2
 67
     7
 79
     5
170
     0
171
     0
290
     0
174
     0
 93
       13
 44
0.0
173
     0
291
     1
 45
0.0
1001
ACAD
1000
AcDbSavedByObjectVersion
1070
     0
  0
VISUALSTYLE
  5
2D
102
{ACAD_XDICTIONARY
360
E76
102
}
102
{ACAD_REACTORS
330
29
102
}
330
29
100
AcDbVisualStyle
  2
GouraudWithEdges
 70
     3
 71
     2
 72
     2
 73
     1
 90
        2
 40
-0.6
 41
30.0
 62
     5
 63
     7
421
 16777215
 74
     1
 91
        0
 64
     7
 65
   257
 75
     1
175
     1
 42
1.0
 92
        0
 66
   257
 43
1.0
 76
     1
 77
     6
 78
     2
 67
     7
 79
     5
170
     0
171
     0
290
     0
174
     0
 93
       13
 44
0.0
173
     0
291
     1
 45
0.0
1001
ACAD
1000
AcDbSavedByObjectVersion
1070
     0
  0
VISUALSTYLE
  5
31
102
{ACAD_XDICTIONARY
360
E7E
102
}
102
{ACAD_REACTORS
330
29
102
}
330
29
100
AcDbVisualStyle
  2
Hidden
 70
     6
 71
     1
 72
     2
 73
     2
 90
        0
 40
-0.6
 41
-30.0
 62
     5
 63
     7
421
 16777215
 74
     2
 91
        2
 64
     7
 65
   257
 75
     2
175
     1
 42
40.0
 92
        0
 66
   257
 43
1.0
 76
     1
 77
     6
 78
     2
 67
     7
 79
     3
170
     0
171
     0
290
     0
174
     0
 93
        1
 44
0.0
173
     0
291
     0
 45
0.0
1001
ACAD
1000
AcDbSavedByObjectVersion
1070
     0
  0
VISUALSTYLE
  5
3F
102
{ACAD_XDICTIONARY
360
E9A
102
}
102
{ACAD_REACTORS
330
29
102
}
330
29
100
AcDbVisualStyle
  2
JitterOff
 70
    20
 71
     2
 72
     2
 73
     0
 90
        0
 40
-0.6
 41
-30.0
 62
     5
 63
     7
421
 16777215
 74
     1
 91
        4
 64
     7
 65
   257
 75
     1
175
     1
 42
1.0
 92
       10
 66
     7
 43
1.0
 76
     1
 77
     6
 78
     2
 67
     7
 79
     5
170
     0
171
     0
290
     0
174
     0
 93
        1
 44
0.0
173
     0
291
     1
 45
0.0
1001
ACAD
1000
AcDbSavedByObjectVersion
1070
     0
  0
VISUALSTYLE
  5
37
102
{ACAD_XDICTIONARY
360
E8A
102
}
102
{ACAD_REACTORS
330
29
102
}
330
29
100
AcDbVisualStyle
  2
Linepattern
 70
    14
 71
     2
 72
     2
 73
     0
 90
        0
 40
-0.6
 41
-30.0
 62
     5
 63
     7
421
 16777215
 74
     1
 91
        4
 64
     7
 65
   257
 75
     7
175
     7
 42
1.0
 92
        8
 66
     7
 43
1.0
 76
     1
 77
     6
 78
     2
 67
     7
 79
     5
170
     0
171
     0
290
     0
174
     0
 93
        1
 44
0.0
173
     0
291
     1
 45
0.0
1001
ACAD
1000
AcDbSavedByObjectVersion
1070
     0
  0
VISUALSTYLE
  5
40
102
{ACAD_XDICTIONARY
360
E9C
102
}
102
{ACAD_REACTORS
330
29
102
}
330
29
100
AcDbVisualStyle
  2
OverhangOff
 70
    21
 71
     2
 72
     2
 73
     0
 90
        0
 40
-0.6
 41
-30.0
 62
     5
 63
     7
421
 16777215
 74
     1
 91
        4
 64
     7
 65
   257
 75
     1
175
     1
 42
1.0
 92
        9
 66
     7
 43
1.0
 76
     1
 77
     6
 78
     2
 67
     7
 79
     5
170
     0
171
     0
290
     0
174
     0
 93
        1
 44
0.0
173
     0
291
     1
 45
0.0
1001
ACAD
1000
AcDbSavedByObjectVersion
1070
     0
  0
VISUALSTYLE
  5
33
102
{ACAD_XDICTIONARY
360
E82
102
}
102
{ACAD_REACTORS
330
29
102
}
330
29
100
AcDbVisualStyle
  2
Realistic
 70
     8
 71
     2
 72
     3
 73
     0
 90
        2
 40
-0.6
 41
30.0
 62
     5
 63
     7
421
 16777215
 74
     0
 91
        0
 64
     7
 65
   257
 75
     1
175
     1
 42
1.0
 92
        8
 66
   257
 43
1.0
 76
     1
 77
     6
 78
     2
 67
     7
 79
     3
170
     0
171
     0
290
     0
174
     0
 93
       13
 44
0.0
173
     0
291
     0
 45
0.0
1001
ACAD
1000
AcDbSavedByObjectVersion
1070
     0
  0
VISUALSTYLE
  5
3E
102
{ACAD_XDICTIONARY
360
E98
102
}
102
{ACAD_REACTORS
330
29
102
}
330
29
100
AcDbVisualStyle
  2
Shaded
 70
    27
 71
     2
 72
     2
 73
     1
 90
        2
 40
-0.6
 41
30.0
 62
     5
 63
     7
421
 16777215
 74
     0
 91
        4
 64
     7
 65
   257
 75
     1
175
     1
 42
1.0
 92
        8
 66
   257
 43
1.0
 76
     1
 77
     6
 78
     2
 67
     8
425
  7895160
 79
     3
170
     0
171
     0
290
     0
174
     0
 93
        5
 44
0.0
173
     0
291
     0
 45
0.0
1001
ACAD
1000
AcDbSavedByObjectVersion
1070
     0
  0
VISUALSTYLE
  5
3D
102
{ACAD_XDICTIONARY
360
E96
102
}
102
{ACAD_REACTORS
330
29
102
}
330
29
100
AcDbVisualStyle
  2
Shaded with edges
 70
    26
 71
     2
 72
     2
 73
     1
 90
        2
 40
-0.6
 41
30.0
 62
     5
 63
     7
421
 16777215
 74
     1
 91
       10
 64
     7
 65
   257
 75
     2
175
     1
 42
1.0
 92
        8
 66
   257
 43
1.0
 76
     1
 77
     6
 78
     2
 67
     7
 79
     3
170
     0
171
     0
290
     0
174
     0
 93
        5
 44
0.0
173
     0
291
     0
 45
0.0
1001
ACAD
1000
AcDbSavedByObjectVersion
1070
     0
  0
VISUALSTYLE
  5
3A
102
{ACAD_XDICTIONARY
360
E90
102
}
102
{ACAD_REACTORS
330
29
102
}
330
29
100
AcDbVisualStyle
  2
Shades of Gray
 70
    23
 71
     2
 72
     2
 73
     3
 90
        0
 40
-0.6
 41
-30.0
 62
     5
 63
     7
421
 16777215
 74
     2
 91
        2
 64
     7
 65
     7
 75
     1
175
     1
 42
40.0
 92
        8
 66
     7
 43
1.0
 76
     1
 77
     6
 78
     2
 67
     7
 79
     3
170
     0
171
     0
290
     0
174
     0
 93
        1
 44
0.0
173
     0
291
     0
 45
0.0
1001
ACAD
1000
AcDbSavedByObjectVersion
1070
     0
  0
VISUALSTYLE
  5
3B
102
{ACAD_XDICTIONARY
360
E92
102
}
102
{ACAD_REACTORS
330
29
102
}
330
29
100
AcDbVisualStyle
  2
Sketchy
 70
    24
 71
     1
 72
     2
 73
     2
 90
        0
 40
-0.6
 41
-30.0
 62
     5
 63
     7
421
 16777215
 74
     2
 91
        2
 64
     7
 65
     7
 75
     1
175
     1
 42
40.0
 92
       11
 66
     7
 43
1.0
 76
     1
 77
     6
 78
     2
 67
     7
 79
     6
170
     0
171
     0
290
     0
174
     0
 93
        1
 44
0.0
173
     0
291
     0
 45
0.0
1001
ACAD
1000
AcDbSavedByObjectVersion
1070
     0
  0
VISUALSTYLE
  5
36
102
{ACAD_XDICTIONARY
360
E88
102
}
102
{ACAD_REACTORS
330
29
102
}
330
29
100
AcDbVisualStyle
  2
Thicken
 70
    13
 71
     2
 72
     2
 73
     0
 90
        0
 40
-0.6
 41
-30.0
 62
     5
 63
     7
421
 16777215
 74
     1
 91
        4
 64
     7
 65
   257
 75
     1
175
     1
 42
1.0
 92
       12
 66
     7
 43
1.0
 76
     1
 77
     6
 78
     2
 67
     7
 79
     5
170
     0
171
     0
290
     0
174
     0
 93
        1
 44
0.0
173
     0
291
     1
 45
0.0
1001
ACAD
1000
AcDbSavedByObjectVersion
1070
     0
  0
VISUALSTYLE
  5
30
102
{ACAD_XDICTIONARY
360
E7C
102
}
102
{ACAD_REACTORS
330
29
102
}
330
29
100
AcDbVisualStyle
  2
Wireframe
 70
     5
 71
     0
 72
     2
 73
     0
 90
        0
 40
-0.6
 41
-30.0
 62
     5
 63
     7
421
 16777215
 74
     1
 91
        4
 64
     7
 65
   257
 75
     1
175
     1
 42
1.0
 92
        0
 66
   257
 43
1.0
 76
     1
 77
     6
 78
     2
 67
     7
 79
     3
170
     0
171
     0
290
     0
174
     0
 93
        1
 44
0.0
173
     0
291
     0
 45
0.0
1001
ACAD
1000
AcDbSavedByObjectVersion
1070
     0
  0
VISUALSTYLE
  5
3C
102
{ACAD_XDICTIONARY
360
E94
102
}
102
{ACAD_REACTORS
330
29
102
}
330
29
100
AcDbVisualStyle
  2
X-Ray
 70
    25
 71
     2
 72
     2
 73
     1
 90
        1
 40
0.5
 41
-30.0
 62
     5
 63
     7
421
 16777215
 74
     1
 91
        0
 64
     7
 65
   257
 75
     1
175
     1
 42
1.0
 92
        8
 66
     7
 43
1.0
 76
     1
 77
     6
 78
     2
 67
     7
 79
     3
170
     0
171
     0
290
     0
174
     0
 93
       13
 44
0.0
173
     0
291
     0
 45
0.0
1001
ACAD
1000
AcDbSavedByObjectVersion
1070
     0
  0
DICTIONARYVAR
  5
79
102
{ACAD_REACTORS
330
76
102
}
330
76
100
DictionaryVariables
280
     0
  1
1:1
  0
DICTIONARYVAR
  5
78
102
{ACAD_REACTORS
330
76
102
}
330
76
100
DictionaryVariables
280
     0
  1
STANDARD
  0
DICTIONARYVAR
  5
77
102
{ACAD_REACTORS
330
76
102
}
330
76
100
DictionaryVariables
280
     0
  1
STANDARD
  0
DICTIONARYVAR
  5
E63
102
{ACAD_REACTORS
330
76
102
}
330
76
100
DictionaryVariables
280
     0
  1
0
  0
DICTIONARYVAR
  5
E64
102
{ACAD_REACTORS
330
76
102
}
330
76
100
DictionaryVariables
280
     0
  1
0
  0
DICTIONARYVAR
  5
E62
102
{ACAD_REACTORS
330
76
102
}
330
76
100
DictionaryVariables
280
     0
  1
2
  0
DICTIONARYVAR
  5
E61
102
{ACAD_REACTORS
330
76
102
}
330
76
100
DictionaryVariables
280
     0
  1
1
  0
DICTIONARYVAR
  5
E65
102
{ACAD_REACTORS
330
76
102
}
330
76
100
DictionaryVariables
280
     0
  1
2
  0
DICTIONARY
  5
1A
330
19
100
AcDbDictionary
280
     1
281
     1
  3
ACAD_XREC_ROUNDTRIP
360
E6E
  3
BUMPTILE
360
1C
  3
DIFFUSETILE
360
1B
  3
OPACITYTILE
360
1F
  3
REFLECTIONTILE
360
1E
  3
REFRACTIONTILE
360
20
  3
SPECULARTILE
360
1D
  0
DICTIONARY
  5
12
330
11
100
AcDbDictionary
280
     1
281
     1
  3
ACAD_XREC_ROUNDTRIP
360
E6D
  3
BUMPTILE
360
14
  3
DIFFUSETILE
360
13
  3
FBXASSET
360
109
  3
OPACITYTILE
360
17
  3
REFLECTIONTILE
360
16
  3
REFRACTIONTILE
360
18
  3
SPECULARTILE
360
15
  0
DICTIONARY
  5
22
330
21
100
AcDbDictionary
280
     1
281
     1
  3
ACAD_XREC_ROUNDTRIP
360
E6F
  3
BUMPTILE
360
24
  3
DIFFUSETILE
360
23
  3
FBXASSET
360
BA
  3
OPACITYTILE
360
27
  3
REFLECTIONTILE
360
26
  3
REFRACTIONTILE
360
28
  3
SPECULARTILE
360
25
  0
DICTIONARY
  5
E68
330
67
100
AcDbDictionary
280
     1
281
     1
  3
ACAD_XREC_ROUNDTRIP
360
E69
  0
DICTIONARY
  5
E66
330
65
100
AcDbDictionary
280
     1
281
     1
  3
ACAD_ROUNDTRIP_2008_TABLESTYLE_CELLSTYLEMAP
360
E67
  3
ACAD_XREC_ROUNDTRIP
360
EA0
  0
DICTIONARY
  5
E7A
330
2F
100
AcDbDictionary
280
     1
281
     1
  3
ACAD_XREC_ROUNDTRIP
360
E7B
  0
DICTIONARY
  5
E78
330
2E
100
AcDbDictionary
280
     1
281
     1
  3
ACAD_XREC_ROUNDTRIP
360
E79
  0
DICTIONARY
  5
E86
330
35
100
AcDbDictionary
280
     1
281
     1
  3
ACAD_XREC_ROUNDTRIP
360
E87
  0
DICTIONARY
  5
E8E
330
39
100
AcDbDictionary
280
     1
281
     1
  3
ACAD_XREC_ROUNDTRIP
360
E8F
  0
DICTIONARY
  5
E80
330
32
100
AcDbDictionary
280
     1
281
     1
  3
ACAD_XREC_ROUNDTRIP
360
E81
  0
DICTIONARY
  5
E84
330
34
100
AcDbDictionary
280
     1
281
     1
  3
ACAD_XREC_ROUNDTRIP
360
E85
  0
DICTIONARY
  5
E9E
330
41
100
AcDbDictionary
280
     1
281
     1
  3
ACAD_XREC_ROUNDTRIP
360
E9F
  0
DICTIONARY
  5
E8C
330
38
100
AcDbDictionary
280
     1
281
     1
  3
ACAD_XREC_ROUNDTRIP
360
E8D
  0
DICTIONARY
  5
E70
330
2A
100
AcDbDictionary
280
     1
281
     1
  3
ACAD_XREC_ROUNDTRIP
360
E71
  0
DICTIONARY
  5
E72
330
2B
100
AcDbDictionary
280
     1
281
     1
  3
ACAD_XREC_ROUNDTRIP
360
E73
  0
DICTIONARY
  5
E74
330
2C
100
AcDbDictionary
280
     1
281
     1
  3
ACAD_XREC_ROUNDTRIP
360
E75
  0
DICTIONARY
  5
E76
330
2D
100
AcDbDictionary
280
     1
281
     1
  3
ACAD_XREC_ROUNDTRIP
360
E77
  0
DICTIONARY
  5
E7E
330
31
100
AcDbDictionary
280
     1
281
     1
  3
ACAD_XREC_ROUNDTRIP
360
E7F
  0
DICTIONARY
  5
E9A
330
3F
100
AcDbDictionary
280
     1
281
     1
  3
ACAD_XREC_ROUNDTRIP
360
E9B
  0
DICTIONARY
  5
E8A
330
37
100
AcDbDictionary
280
     1
281
     1
  3
ACAD_XREC_ROUNDTRIP
360
E8B
  0
DICTIONARY
  5
E9C
330
40
100
AcDbDictionary
280
     1
281
     1
  3
ACAD_XREC_ROUNDTRIP
360
E9D
  0
DICTIONARY
  5
E82
330
33
100
AcDbDictionary
280
     1
281
     1
  3
ACAD_XREC_ROUNDTRIP
360
E83
  0
DICTIONARY
  5
E98
330
3E
100
AcDbDictionary
280
     1
281
     1
  3
ACAD_XREC_ROUNDTRIP
360
E99
  0
DICTIONARY
  5
E96
330
3D
100
AcDbDictionary
280
     1
281
     1
  3
ACAD_XREC_ROUNDTRIP
360
E97
  0
DICTIONARY
  5
E90
330
3A
100
AcDbDictionary
280
     1
281
     1
  3
ACAD_XREC_ROUNDTRIP
360
E91
  0
DICTIONARY
  5
E92
330
3B
100
AcDbDictionary
280
     1
281
     1
  3
ACAD_XREC_ROUNDTRIP
360
E93
  0
DICTIONARY
  5
E88
330
36
100
AcDbDictionary
280
     1
281
     1
  3
ACAD_XREC_ROUNDTRIP
360
E89
  0
DICTIONARY
  5
E7C
330
30
100
AcDbDictionary
280
     1
281
     1
  3
ACAD_XREC_ROUNDTRIP
360
E7D
  0
DICTIONARY
  5
E94
330
3C
100
AcDbDictionary
280
     1
281
     1
  3
ACAD_XREC_ROUNDTRIP
360
E95
  0
XRECORD
  5
E6E
102
{ACAD_REACTORS
330
1A
102
}
330
1A
100
AcDbXrecord
280
     1
102
MATERIAL
148
0.0
149
0.0
149
0.0
 93
        0
 94
      127
282
     0
 72
     0
 77
     0
171
     0
175
     0
179
     0
273
     0
  0
XRECORD
  5
1C
102
{ACAD_REACTORS
330
1A
102
}
330
1A
100
AcDbXrecord
280
     1
270
     1
271
     1
  0
XRECORD
  5
1B
102
{ACAD_REACTORS
330
1A
102
}
330
1A
100
AcDbXrecord
280
     1
270
     1
271
     1
  0
XRECORD
  5
1F
102
{ACAD_REACTORS
330
1A
102
}
330
1A
100
AcDbXrecord
280
     1
270
     1
271
     1
  0
XRECORD
  5
1E
102
{ACAD_REACTORS
330
1A
102
}
330
1A
100
AcDbXrecord
280
     1
270
     1
271
     1
  0
XRECORD
  5
20
102
{ACAD_REACTORS
330
1A
102
}
330
1A
100
AcDbXrecord
280
     1
270
     1
271
     1
  0
XRECORD
  5
1D
102
{ACAD_REACTORS
330
1A
102
}
330
1A
100
AcDbXrecord
280
     1
270
     1
271
     1
  0
XRECORD
  5
E6D
102
{ACAD_REACTORS
330
12
102
}
330
12
100
AcDbXrecord
280
     1
102
MATERIAL
148
0.0
149
0.0
149
0.0
 93
        0
 94
      127
282
     0
 72
     0
 77
     0
171
     0
175
     0
179
     0
273
     0
  0
XRECORD
  5
14
102
{ACAD_REACTORS
330
12
102
}
330
12
100
AcDbXrecord
280
     1
270
     1
271
     1
  0
XRECORD
  5
13
102
{ACAD_REACTORS
330
12
102
}
330
12
100
AcDbXrecord
280
     1
270
     1
271
     1
  0
XRECORD
  5
109
102
{ACAD_REACTORS
330
12
102
}
330
12
100
AcDbXrecord
280
     1
 70
     1
 90
1959938040
 71
     1
  1
DF7D77C0-B8D2-4632-ACA6-12CC5D2587BE
311
504B03040A0000080000A945E2423DEE336E79000000790000001B0000006175746F6465736B2D64657369676E2D7061636B6167652E786D6C3C3F786D6C2076657273696F6E3D22312E302220656E636F64696E673D227574662D3822203F3E3C666F726D6174733E3C666F726D61743E687474703A2F2F736368656D612E
311
6175746F6465736B2E636F6D2F64657369676E2D7061636B6167652F323030393C2F666F726D61743E3C2F666F726D6174733E504B0304140006080800A945E242D486FD9CA0000000F4000000130000005B436F6E74656E745F54797065735D2E786D6C7D8EC10E82300C865F65E91D8A1E8C310C0EEA1BF002731658846E
311
D98AC1B77784ABF1D8FE5FBFBF75BBCE937A534CCEB38643598122B6FEE978D0B0485F9C41B54DDD7D022595594E1A469170414C76A4D9A4D207E29CF43ECE46F218070CC6BECC4078ACAA135ACF422C856C0E68EA1BF5669944DDD7BCDE7B1F8E415D77AECB980613C2E4AC91FC167A2B244592486606FC29C8FD7F045B9A
311
EF7053A7E60B504B0304140006080800A945E242448D8F67EB0000007C01000008000000636F72652E786D6C8D90416EC3201444AF82D856D818C78E6361A210D113F40208888B128365A0CAF18313476A775DFDAF611E7F34F4789F6EE0C72CC17A37C0AAC01018A7BCB66E1C608A17D441706474F13EFEB241E0E46406B8
311
CA90D171F169DE24E55D342E66D5796D365186602204EA96970106F56D2659C814B3235C8B59AAAB1C4D51BDB70CA76435781DB13AFF672FD62C90558208D2718184E09F6847CE1C9D4E9CA0B63D9396EF6B2E0E0D2D5798D168A7F77DB518198D868CE0AA46788F30F9C25DBF6BFAEAF0819BBEC6B45CED7FA034EB7F42C9
311
BA58932DEE0B0B396B0EF27C60B45CBBC8E359549E6B6FEC01504B0304140006080800A945E24255019EA25F0000007C00000007000000636E782E786D6C4DCB3B0E80201045D1AD90E915ED2CF8AC45050C11660C8261F98AB1B07AC9C97D42D718D865D3E909258CFD00CCE24AC6E326A164D74DC0B4128928FF32603847
311
2BA13128B1252AC747C6BAB984FC68F0B87FE8960A5C09FE86CFB69FBA01504B0304140006080800A945E24213EAB72367010000020300000C0000006662782F636F72652E786D6C8D52ED8E8320107C15C2DF0BA2D8EF204D6DBC27B817A04A3D53058360FAF8B77E345E2F4D73314132B3B33B3BCA8FF7A646BDB25D6574
311
82A320C448E9DC14952E13ECDD95EC303A0A6E8D71BFCA30D2B251091E602C78698D6F672837DA29ED00D5A6503328BB4E398CF21A2E09EEF26FD5C8407A0715DD2D68657E93A50AA20068A813BC73160CA069C8706271BDDC399D70C1BDAF8A99AD0A98565D2B65B1883296B15D9A912C4B3FC98A9D53723AA58C6C3667B6
311
49B7719AEDD79C0E62C15DD53CDCE55649A70A2C5818C524DC92907D85BBC36A7D88F61FE1FA10879C0EE54F22DF16FF14F94ABB98CD762759075EC1C848FCD9162272A8933DF8A182D32144788D093F070D8140C84E5EEAC71E37807A953B6357C014C62F542F6BAF606A88C687D38985CE6303D8EC651FF6A6CFFB1EF001
311
A52EC19A7470BD78374CE7D3D4398A5659D2BB3BD2C636B25ECC4D16977319F4529E9BDAD8FFA8E9BC2A9DC3A4C3DF2B7E00504B0304140006080800A945E2422470C3007E0000009D0000000B0000006662782F636E782E786D6C4DCCDF0A83201C86E15B91DFB92B4BAD408DFDF33E625948A6C3E9D8E5AF46073BFAE0E1
311
E315FD6775E86DE2CB062F819C4A40C63FC268FD2C21A709B7807A256208E9EF06C80FAB91B0332831C7909F078D661AB24B9B3AEB9703996E2E9AB7352E6B4231BD910E9FF5F58E2BC639A9584749C3A150A2F895B6DDC3EA0B504B0304140006080800A945E24224630D992C01000015020000310000006662782F354637
311
42463638332D303331342D344431392D414643452D3235363631323539343137362F636F72652E786D6C8D515B6EC32010BC0AE22B55651B6C6CC71126EA2B27E80508901425068B4795E3176A476AFFF2C3A2D999D9D12EDDDFA62BF856CE6B6B46884B048132C24A6DCE238CE1546C21D833EAAC0D7F6810183EA9116618
311
327A7636CE2B24AC09CA84841A2BD50A72EF5580405CD367845E7CA989973C86C4F09772E6E2C2CFAAC4656A271EA33EB814002C43F20B597BE85F0FDDB62950834941DEF150BC1CDE3E8ABAED3A5CB703C17D47AB45C8688C5AAE722D531C7DD2CA3D6A92C58C063DDDE30BA7785012B21AE114A02F50FD89B63BD2EEF0F0
311
8CDA5D836895E9FF4471960F8AA236A1A9D7B88BCC438669B5341895361EAFF730EA365B17409EB7F14A3C41864A84FA6140A4EE69B570D30692694756531FAC4B1BDE5C8E898EDBC5B9238C56F948A9FC5E30D57C50F603504B0304140006080800A945E2420CB82A494F01000033030000300000006662782F3546374246
311
3638332D303331342D344431392D414643452D3235363631323539343137362F636E782E786D6CD593CD6E022114855F85B06DE64F476B0D8349177D822EBA45B82A9581093F4D7DFB5E14AD1B175D764326E71ECEB9F9C2B0CDF768C817F8A09D1D6857B79480954E69BB1F688ABB6A45C98633EF5CBCB35162C50803CD32
311
E56CEF5D9A8AA460279289A81A6D8F45F4105CF21202CAF926314E0A830160AB84228C5B500A14B919F16B071E5741717B22F100E4EDF583B8ED27C818589353386B720767F92C4D77264AA411210C34C8038CA216293A05E1582B1145DDD5D7AE073BFD26917CE15A99BC26B97CA0F9A4BC6C542347D6E090B3103DD22BA6
311
789A8072314D464B11117273365E3C9C256DE3B22F5E8DE03DBABBE5BCEF31EC3CE32CEA118A437A101114E5B3B69B57ED73D5CEDEDBD5BA5FACBB97A776B19EB7ACC976CEB6CE99720963C0BB89486723D84879C79A3C7E84AFF888D21E593B7FFA034804505A2F746E19FF994F737EDF88CBE35FC07F00504B0304140006
311
080800A945E242F0090B6AA305000081100000340000006662782F35463742463638332D303331342D344431392D414643452D3235363631323539343137362F6F626A656374732E786D6CAD57D96EDB3814FD1541F332F3E045B6B30D14155E9AC268D3163552CC830183962885136A0149A5CE7CFD1C8A942C3976EA19F4
311
450B97CB7BCF3D77A1FF6E9772E7990AC9F2ECD6F5FA43D7A15998472C4B6EDD52C5BD6BD77917F822CF556B99EB6424A5B7AE1E76033F117959D8A188C6A4E4EA60F46EF69723439A51D7093991F2D695E1234D499F942A8FA87CEA4744917E12EFFA5EDF2CEC8A4D04291E0F841644D04C41538C6790E218A5BCEEEFD01D
311
04FE40CF07BE7EDA55E3D3AB06953DDDF3592615C9C257871D88197B93C5FBD1C54DEF623219F7269723AF37BB9B2D7ADED57838BF9CCF6FA6EF6F70B0540292AC2682C66EF001D80816FA033315F825CBD478649758070D047D66DA536E30723C7F60D634D659238FA91FE65946C30A2BA051D9674547B4A059049F332AA1
311
590BA161F7D7D338B6A6C7FADF1ED91E3E0F81F68E96A05AF7FADDD634DFFE0D13E4390C12926A061A2CADA186ABC33DC2DB3CE7768E4927258A0A46B8C3D95610F1E20658AA97047E478C66B2D0D1A02D700378C14C77E98230FA39CF8F6919979C6B1ABB4115051BC40A55B2D28CFD43C55EFB3632D009BED26CB8B606A9
311
9782BAC18DA1C8F5019B0C904ECC490297C34CBD733C3A3074AEE374B970838F77DBDD4AC7EEF1C30B911754284D1F50AB765CFDD628599DBCB33CA737B807AAEC41F906E43F23D4F7AAC06F82ED26BB893D450992C93817297CE30C9DDE108FA1E3554FFDDDFAF207CDE6AEF74EE109676BA87E019E5D1BDABE6CC119F8CF
311
207C2EC6D6B4554838D2C63DCB00902689C3730C210FC7DB9D1B2C91E59095B18BF0C083C950F7199FFEC08A41A2A84E6ABD3360799016CF48D080AD6224D430E4B70AEEFDF42A9D5507DB65A7E0BDF825749D2E561F57A5884948EF6D4C2F68CC32A650E2F6BC692BD4C1BC63D1137DF9918B0886BEC67BD5C63BB54749A0
311
AD31D7C027754ED73FFB933B0784D897E43ADDF83F390146E8C2DA927FCF6448392719CDCBFADC37EB07CA86815807BB66725360F68505A43133073188221D0A5668109B6AD524CDFE09EB1E969FC1483798BD7C222FEDECB5DDE7DE30E7B9D86C5F36262D1D85FA7B97DB1683819602BA574152C7BF057D13B1382E2592E0
311
115CBF2FE76DDFE9B48014514B35D13281FD082E222C696BB9A8D682A092E6D986A16E22EE8E1ED0960F482D032A81A7349694C71BC679996E62C6518D3629294EC0F1FFF5DF9669B121695E66EA84EC8EEAA80E5DDD3BEC953F880A1FDD6055BD7B33E4DE884627C8A06BC911AC3AAE5DDC5D2DAEAEE6C3DEEC7A3142FF34
311
1EF5A6F3E965CF1BCDE7178BD1C5F5D5EC7DED27A349E0D7A5A61DD1F0124A9B5F0A66DDF7B044FCD824E006F744C9F507139EF5FB61D9472FEC0FB007F5B2D9388D9ED1F7D1E8E702F62B8F0A5AA605A729CD14D13174AF3FF837823EA3A38C195FA624A16748F9F26175600C46CED8F755C73BFD71B0D78ECE75401E15A2
311
1ECB749B11C60F362606C97E912516BFDA27CDDB149AFA57FF59C7A03395396711F260E424344FA942363CA30889944A50AFDDD347F6EE71C6EE67D3212AB2E5B4D6E491A049E61261016A95A1EA8E3BBFA1A9D37DD5AD8B72DB7FC2C3660AD701676E5D34E98A8554F6B728D0BA15AA84834BED4E1E8D3FC9128E5EDB6C6A
311
FE9B5D1A9B4E496E969CD33F59BB4C0AB706208D14E81BD010C13B9532815FE966E7C3FF6478AD8E43143EB7A56A6CD90F34C654C720448D51F6B68026E6C91EBD43A0BE6D96D7AFD6741039EB96F526098CD49E2222A96E0A5A3FABD274F175800EC5597E710A5E26F0E5F9927A8282CCA50E70B008ACB0320BA240D5F99F
311
EBAF22C74D3675EE1828E0FCBEBBBEFC633DCFD334CFCCD07A6AEFC3CEEA11B7DB688DE440F5B544AE47436FB4AEAE03F686B2D91249FB24924F188067056B80EEB81FBC347746D42133D1AC1B68571C3074B9706C619B40A8A54B3BB76A70D07864D4410CE92BA58E98F682E2CD1BC1A05A0A15047AF9E05F504B03041400
311
06080000A945E242000000000000000000000000350000006662782F35463742463638332D303331342D344431392D414643452D3235363631323539343137362F76657274696365732E62696E504B0304140006080800A945E242F270F1330600000004000000360000006662782F35463742463638332D303331342D3444
311
31392D414643452D3235363631323539343137362F747269616E676C65732E62696E636660600000504B0304140006080000A945E242000000000000000000000000370000006662782F35463742463638332D303331342D344431392D414643452D3235363631323539343137362F617474726962757465732E62696E504B
311
0304140006080800A945E242D5987DFC8F00000041010000360000006662782F35463742463638332D303331342D344431392D414643452D3235363631323539343137362F6469726563746F72792E786D6C858F410EC2201045AF4266AF15DDB800BA74E7C21B903225242D6328188F2FA5C4183471359997F9FF81E89FF3
311
C41E1816475E02DF1F80A11FC8386F25A438EECEC07A250251FC3803E6F58C12560C4AD840E95E91C151A72936F496F35732D860FE635F62C8F2DA16B505C545B74125BAA2FA9E05D7CC053D063734D5C7665FD55B6B8D15D5E9BFEAFD8490FFA45E504B0304140006080800A945E2425726A1FFFE000000A00100003B0000
311
006662782F35463742463638332D303331342D344431392D414643452D3235363631323539343137362F7265736F75726365732F636F72652E786D6C8D504B6E833010BD0AF2B63218130841C65148E9097A01CB4CA89560237FAA1EBF76A052BBEB6666F43E9AA7C7CE5FCB23FB04EB94D13D2A738232D0D24C4ACF3D0AFE
311
865B949D39B3C6F85F329469B1408F128C389BAD09EB0E49A33D681F516D26D841E11C7894C9473C7AE4E4072C2217C14785BBE7AB907731435EE6918E3ACE9CB73140B63D4913710BCE042BC1B16263390B414DBB464DF1A7BA29B08897231D693BBCE2711CDEF0815E077CB90C1437CD9536C3B11AC653CD8A64E6CCABE5
311
27A3B4203C4C88535256981C31A1EFA4ED0E75579E5E48DD55841549FEC714D6E99FA6A0B4AFE81E77B3B998350679129C15A9AFB89E65C69DBAE5DF504B010214000A0000080000A945E2423DEE336E79000000790000001B00000000000000000000000000000000006175746F6465736B2D64657369676E2D7061636B61
311
67652E786D6C504B01021400140006080800A945E242D486FD9CA0000000F40000001300000000000000000000000000B20000005B436F6E74656E745F54797065735D2E786D6C504B01021400140006080800A945E242448D8F67EB0000007C010000080000000000000000000000000083010000636F72652E786D6C504B
311
01021400140006080800A945E24255019EA25F0000007C000000070000000000000000000000000094020000636E782E786D6C504B01021400140006080800A945E24213EAB72367010000020300000C00000000000000000000000000180300006662782F636F72652E786D6C504B01021400140006080800A945E2422470
311
C3007E0000009D0000000B00000000000000000000000000A90400006662782F636E782E786D6C504B01021400140006080800A945E24224630D992C010000150200003100000000000000000000000000500500006662782F35463742463638332D303331342D344431392D414643452D3235363631323539343137362F63
311
6F72652E786D6C504B01021400140006080800A945E2420CB82A494F010000330300003000000000000000000000000000CB0600006662782F35463742463638332D303331342D344431392D414643452D3235363631323539343137362F636E782E786D6C504B01021400140006080800A945E242F0090B6AA30500008110
311
00003400000000000000000000000000680800006662782F35463742463638332D303331342D344431392D414643452D3235363631323539343137362F6F626A656374732E786D6C504B01021400140006080000A945E24200000000000000000000000035000000000000000000000000005D0E00006662782F3546374246
311
3638332D303331342D344431392D414643452D3235363631323539343137362F76657274696365732E62696E504B01021400140006080800A945E242F270F13306000000040000003600000000000000000000000000B00E00006662782F35463742463638332D303331342D344431392D414643452D323536363132353934
311
3137362F747269616E676C65732E62696E504B01021400140006080000A945E24200000000000000000000000037000000000000000000000000000A0F00006662782F35463742463638332D303331342D344431392D414643452D3235363631323539343137362F617474726962757465732E62696E504B01021400140006
311
080800A945E242D5987DFC8F0000004101000036000000000000000000000000005F0F00006662782F35463742463638332D303331342D344431392D414643452D3235363631323539343137362F6469726563746F72792E786D6C504B01021400140006080800A945E2425726A1FFFE000000A00100003B00000000000000
311
000000000000421000006662782F35463742463638332D303331342D344431392D414643452D3235363631323539343137362F7265736F75726365732F636F72652E786D6C504B0506000000000E000E0080040000991100000000
310
504B03040A0000080000A945E2423DEE336E79000000790000001B0000006175746F6465736B2D64657369676E2D7061636B6167652E786D6C3C3F786D6C2076657273696F6E3D22312E302220656E636F64696E673D227574662D3822203F3E3C666F726D6174733E3C666F726D61743E687474703A2F2F736368656D612E
310
6175746F6465736B2E636F6D2F64657369676E2D7061636B6167652F323030393C2F666F726D61743E3C2F666F726D6174733E504B0304140006080800A945E242D486FD9CA0000000F4000000130000005B436F6E74656E745F54797065735D2E786D6C7D8EC10E82300C865F65E91D8A1E8C310C0EEA1BF002731658846E
310
D98AC1B77784ABF1D8FE5FBFBF75BBCE937A534CCEB38643598122B6FEE978D0B0485F9C41B54DDD7D022595594E1A469170414C76A4D9A4D207E29CF43ECE46F218070CC6BECC4078ACAA135ACF422C856C0E68EA1BF5669944DDD7BCDE7B1F8E415D77AECB980613C2E4AC91FC167A2B244592486606FC29C8FD7F045B9A
310
EF7053A7E60B504B0304140006080800A945E24240D35991EA0000007C01000008000000636F72652E786D6C8D90D16E842010457F85CC6B8382E2560DB2898DFD82FE0001D6925DC10834FDFCE2AE9BB46F7D9AC9E51EE6E6F2F3F772435F660BD6BB0168410019A7BCB66E1E20C50B6E019D05DFBC8FBF6C809C5CCC00BB
310
0C82CF9B4FEB2129EFA27131ABCE6B738832041301A95B5E0608EAD32CB290296647B816AB5457399B823EB70CA764357A1CB13AFF672FD66C20E83431DA74351EAB5387D9D83678A423C5AC1BDFA61365ED54BFF37287058F7679DE579B91D1681015A13526AF98541FA4ED59D3D3EE85347D4D78B9DBFF4069D5FF849275
310
B1AE8EB80F2CE4AC39C8FD41F072EF228F7B5179EEBD891F504B0304140006080800A945E24255019EA25F0000007C00000007000000636E782E786D6C4DCB3B0E80201045D1AD90E915ED2CF8AC45050C11660C8261F98AB1B07AC9C97D42D718D865D3E909258CFD00CCE24AC6E326A164D74DC0B4128928FF326038472B
310
A13128B1252AC747C6BAB984FC68F0B87FE8960A5C09FE86CFB69FBA01504B0304140006080800A945E242513DFE2267010000020300000C0000006662782F636F72652E786D6C8D525B6E833010BC8AE5DF0A8C79A4101947A2A227E8051C70280AD8C8D828C7EFF28868AA28AA908C35B3B33B3BC04EB7BE43933463AB55
310
8EA91F602455A5EB56353976F6E2A5189D38335ADB5F651829D1CB1CCF30E6AC31DA0D1B546965A5B2802A5DCB0D14E3282D465507971C8FD5B7EC852F9C858AF1EA0FA2BA8A46FAD4071AEA381BAD0103681D329F985FCE3746569C33E7DA7A63DB1AA6B597561ACC6959C634C922AF080F99171769E215B4A05E9C151FE5
310
81C669197D32328B39B36D7F77571929ACAC310F031A79C1BB17845F417A8C9323CDDE82E418058CCCE50F2237D4FF14B956D928DCECAEB211BC829185F8B32D4464D12826F04338237388F05A127E0C1A028190AD3877F73DAE004DB2B2DAC4C0D4DAEDD4243A27616A809687919585CE4B03D8EC699FF0459FD73DE0030A
310
D5803561E17A76769ECED6A95B148334DE646F4869D38B6E37B75ADCCF7DD05379A53B6DFEA326DBAA640B93CC7F2FFF01504B0304140006080800A945E2422BAE720D7E0000009D0000000B0000006662782F636E782E786D6C4DCCD10A83201886E15B91FFDC65FCE11A9861D6EE239685CC349C8E5DFE6A74B0A30F1E3E
310
5ED17E5647DE26BE6CF00D941706C4F84798AC5F1AC869A63590568A1842FABB01F1E36A1A3818A45862C8DB499399C7ECD2AECEFAE7893D5E91755852C5F14E2BDD7754E9A1A2887AA8B9D2FCC618145214BFD2BE47587E01504B0304140006080800A945E24284C0782F2D01000015020000310000006662782F44333733
310
304233312D413633462D344344422D414345342D3333434538364143363930302F636F72652E786D6C8D515B6EC23010BC4AE42FAACA89138710906304819EA01708B6492D881DF95171FC6E9A20B57FFC78ADD999D9D12EDB3F867BF2AD9CD7D634284F094A9411566AD33728862BAE51B2E7CC591BFED05062BA41356882
310
1167BDB3715C20614D5026006AAC540BD879AF024AC41D3E0DF2E24B0D5DDAC5000C7F4BC74EDCBA5EA5790A6DE071E6838300C93C647A113FD10D25479AE343453F70D99E8EF8D09E4B4C697BAEAB435B6D0961D92CE42C462D17B99610475FB572AF9A4C62CE821E9EF185535D5012F182E414930D26C527A977E57A976F
310
DFC97A4761F244FF278AA37C5114B509B458E2CE328F78CEB2B9C199B4F1727F86518FD1BA904CF3565E8937C4494A485D547559542C9BB9B00130ADCAC5D407EB60C3ABDB05E87471AE4ACEB2E948507E2F08753A28FF01504B0304140006080800A945E2426A1FE55E5701000033030000300000006662782F4433373330
310
4233312D413633462D344344422D414345342D3333434538364143363930302F636E782E786D6CBD93CD6EC32010845F0571ADFC173B691A6122F5D027E8A1570C9B84068305B86ADEBE4B42D25C7AA854F582ACD96166F509B3EDE768C807F8A09DED6953D69480954E69BBEFE91C77C59A922D67DEB97867A3C48A117A9A
310
64CAD9DEBB79CA92829D984D44D5687BCCA287E0662F21A09C6E12E3A4301800B69851847100A540919B11BF76E071151487138907202FCF6FC40DEF206360554AE1AC4A1D9CA53337DD9928914684D0D3200F308A52CCD12908C7528928CAA6BC76FDB0D377124917AE95B3D72495F7349D94E78D4AE4C82A1C7216A2477A
310
D9144F13502EA6C968292242AECEC68B87B359DBB8EAB25723788FEE76B15AAF31EC3CE32CEA11B2437A101114E58BBA698BFAB1A817AFF57AD32D37CDD343BDDCB435AB929DB3C139932F610C783711E96C041B296F5895C63FE1CB3EA2B447D6CE9F7E011201E4D60B9D5BC65FF269566DD7FD239FEAFCBE1197C7BF807F
310
01504B0304140006080800A945E242FDA0481E650700009A1B0000340000006662782F44333733304233312D413633462D344344422D414345342D3333434538364143363930302F6F626A656374732E786D6CED595B73A33816FE2B14FB32FB606C7CC9658A3095D89D2ED76C66BAC6D35DFBE02A4A0699682304258974BC
310
BF7E8E2E602026C1DBD9B779B001211D9DF39DAB0EC12F2F19759E3117246737AEEF4D5C07B3384F084B6FDC52EE4757AEF34B18F03C978D69AEC350866F5C35EC8641CAF3B2B04309DEA392CACEE8FDDDBF1D1163865D27A648881B57C48F38431E2A659E60F1E42548222FDDBF78BE6726B6C9A61C158F1DA205E29849E0
310
14C61950710C537EFB71E28EC360ACDE8781FAB7B3668366CDFB678DB5D46D2E091312B1F8154B1D32B3412CCDFCF9EAD374713D5ACCE7B3D1FC62EA8FEEEEEF5623FF7236595E2C97D7B79FAE81BD5D9E532B53820BCC12D0DFC10DFD60ACDED4A25B044E711DE78CE15803095069B1BA040916B05503BE49FBD15712355E
310
6B091BCF73F5DEB2D0189EB5A9F4CD1A06448B2E0862B7AB24AEAE4DF9F2DD7F407031C428B9C012B8159283762D3C1CBCC20D27C1D88C86C1EEA80B229C0C49CC09A20E253B8E382805A6AA296160165832CA3938907294045A73E675DBB6C033DF779D535CEE4B4A9567B8A176AC08DC0F4BA13923FFC5FCC87D1319E009
310
A42D099357964B7928B01B5E07633D1806EA329BDA970648674F512A3422E66D47D0A572FDF5CA0D7FBDDFBD6C543838BD79C1F30273A98C4EE951F305866CAF0A25BBAD3F48736A01086340B52B8FA0FC01C8FF06D1E3C80AE88D9397F9CBDCCE951C31B1CF7906BA7126CE68027F13C7D7FFEABE71178CEBC56DEDF5E109
310
6EAAA0BAFA713CDB3268AC2CFF0D38C3E0190C3EE733FB6A13230AF6FC401800A48CC4A1390C4168DFEF5EDC700D8113023DAC4234F4416460F7196E83B12573D44AE55ED6EB18206AF7980D5112C0A62D12D8E8D1D367C81E9CC447353545EC8377F121E67ABBDAFCBA29F91EC5F8C1FAF40AEF092312B2E669865A98B724
310
7AC287EF394F40D0D7786F9A7867762B01682BCC15F06905827A38EEDCDA20867569AEC24DF0CE0E2084CAD50DFA0F44C49852C4705E56FBD6D14D196AEDF1B66670C3A9817836ED9830C7CF445515E034C7192D4621EFC79C140A4437FC6C24AB83A6D723DDD7F56F6091F5FC9E596B06A19721FAA70E5A277068597685B4
310
05A21678770CE7714E731EED0E9189742ED412C046DB5BBEB58842AC374A5254C083B4DF55212535D24609D9EF4B0171F5048BDFD6CBA6394CBC99BF709AFF1D679C43B405DF45DCFA5D678F886428C5D11E257DDB3577AB690B4DB28734C77B0A729167220F1192D124C1E939D09C45FCFA43A9A7341782302C205F9D04BF
310
89C6C4834062B459B1ACB4DA019A8828C312D1731050647AC0D56947D7B831940EEFF3585BEF5B1A6B12FD3F590447504BE62C22508A420E799771DF5B400C69A36B50EEE00BD656D1D662D0124A88F8107DC7247D94E7A06EC8F7E01EC391A494515EA018CC7A00D957BEA294DAE17D87E227953FA2B8A41F652002D37D44
310
282DB3087E84C1C963886BD781E94D141AC44DEC933883A20CC9920FD9E4623179B58FA919BA21B0B1D19E5008DB51868A1ED45B0151D7234E0DBEA5DEA3D45D991511CAF2920D32146FD6F5264BBEAB56457620BFAA5484B2B1226C09860161B2CEAA55CC0653D78115DC4807AA4324505650730A7B27F1F8B53769CABD1B
310
70EBA71FBB4106855F8FF69A11755EC160796C1506E23B92F1A31B6EF4757407F577829363AAAF6ACD66050888A9485E726255F4750DE58DADD1DCF00149B1FD6CB26E75FDBAF6A0FB118C610DD42EF5C2B5023AC34C2255993CA81BFA078210DCA261C6D72AA79E43E5364974D588E83DE95367AB8C686D9A11AF78C42CCF
310
E0C7B684C5B44CF01625E2297A9034DA10C5BA95D2CB4885F19B02FEFE79D38107460688F4451578F87B67AD1D5DAA72E92411F958663B860804C19668A9D18D57B0D46AA4D2727D55670AA8BBC0C0AC8AE77F9F2C9AED88BF4F16A9358C1F3A59DC1DFE850ECDBE48239DC7CAAECF3A06D4F94951F98863806E3BD454EB2C
310
6292B995DF3A530441B18AF283ABB12A6818827D1CFFCF59BB2F0B9AED3AFC9F97B5FD5715C75959A5355975A94E54AEEB660E5BDD5FAE2E2F9793D1DDD56A0A0DDAD97474BBBCBD18F9D3E572B19A2EAE2EEF3ED5686A470D833A98E9DC05CF26A855C3EAC962005D59915392C0693E71520C315FC2997E40FB9C675840F2
310
6C36BB13DB941FB0FAD9F43925DA515C71F288A0414C05A475C0A88C657BDCF907B426251CB46F5C681A794FF067ADD27520F3DCB8D02A9024C6C2DB419B4935F4347148B93AF75B62800F62A94A896651FD5CAF52D8B4C27F3D65481AB072B57A1850B815D0FD6A7528346F96A7F82CC12B761C24E176574AA8D68C2CC781
310
5A18BDCD51FD46364AD893DDFA055CF76DB17C4FCF692132E893C19B4660A88E24E2A9EE772BC62C4BB7AB2F63E8B339EBDF9D829629E87238A511C760CCA52AA8C08AC02A2CCD024930D5E5CFDB2F3C874F3C99A3AB22E7A797AB8B7F6E977996E5CC0C6D6FE15496C0872267F3089F7D922D140F5835D7C5763AF1A75BDD
310
D4B67DF6688704F6545504035531A104E9981CD8E5AB06956D5F8E952A3AD3D72BC706D10510D5B6FBAAC76B3E7239E043EA738AF218EDE795B46FF6B5C77A2AD804878E74F817504B0304140006080000A945E242000000000000000000000000350000006662782F44333733304233312D413633462D344344422D414345
310
342D3333434538364143363930302F76657274696365732E62696E504B0304140006080800A945E242F270F1330600000004000000360000006662782F44333733304233312D413633462D344344422D414345342D3333434538364143363930302F747269616E676C65732E62696E636660600000504B0304140006080000
310
A945E242000000000000000000000000370000006662782F44333733304233312D413633462D344344422D414345342D3333434538364143363930302F617474726962757465732E62696E504B0304140006080800A945E242D5987DFC8F00000041010000360000006662782F44333733304233312D413633462D34434442
310
2D414345342D3333434538364143363930302F6469726563746F72792E786D6C858F410EC2201045AF4266AF15DDB800BA74E7C21B903225242D6328188F2FA5C4183471359997F9FF81E89FF3C41E1816475E02DF1F80A11FC8386F25A438EECEC07A250251FC3803E6F58C12560C4AD840E95E91C151A72936F496F35732
310
D860FE635F62C8F2DA16B505C545B74125BAA2FA9E05D7CC053D063734D5C7665FD55B6B8D15D5E9BFEAFD8490FFA45E504B0304140006080800A945E24253787709FD000000A00100003B0000006662782F44333733304233312D413633462D344344422D414345342D3333434538364143363930302F7265736F75726365
310
732F636F72652E786D6C8D50596AC33010BD8AD16F912D79496D232BE0E29EA01710D2C4118925A3A5F4F8951217DABFFECC0C6F611E8F9DBFB67BF109CE6B6B26444B820A30D22A6DD609C570C13D2ACE9C396BC32F192A8CD8604219469CADCEC6FD80A435014C48A8B10A0E50780F0115F29E8E097979854D942286A4F0
310
B77217F22656286999E8A4E3CC07970214CF277922EEC0DBE82478563D59CE62D4EAD068957EEA8B0687385D969676438DE7FA34E076EE3B3CD399E27698DF96136DFBA5796755367316F4F693513A100114E235A10D26AF98D41FA41FDB6EA4C30BE9C686B02ACBFF98E2AEFE698ADA84A63EE23E6D3E654D411E046755EE
310
2BAD479969E76EF937504B010214000A0000080000A945E2423DEE336E79000000790000001B00000000000000000000000000000000006175746F6465736B2D64657369676E2D7061636B6167652E786D6C504B01021400140006080800A945E242D486FD9CA0000000F40000001300000000000000000000000000B20000
310
005B436F6E74656E745F54797065735D2E786D6C504B01021400140006080800A945E24240D35991EA0000007C010000080000000000000000000000000083010000636F72652E786D6C504B01021400140006080800A945E24255019EA25F0000007C000000070000000000000000000000000093020000636E782E786D6C
310
504B01021400140006080800A945E242513DFE2267010000020300000C00000000000000000000000000170300006662782F636F72652E786D6C504B01021400140006080800A945E2422BAE720D7E0000009D0000000B00000000000000000000000000A80400006662782F636E782E786D6C504B01021400140006080800
310
A945E24284C0782F2D0100001502000031000000000000000000000000004F0500006662782F44333733304233312D413633462D344344422D414345342D3333434538364143363930302F636F72652E786D6C504B01021400140006080800A945E2426A1FE55E57010000330300003000000000000000000000000000CB06
310
00006662782F44333733304233312D413633462D344344422D414345342D3333434538364143363930302F636E782E786D6C504B01021400140006080800A945E242FDA0481E650700009A1B00003400000000000000000000000000700800006662782F44333733304233312D413633462D344344422D414345342D333343
310
4538364143363930302F6F626A656374732E786D6C504B01021400140006080000A945E2420000000000000000000000003500000000000000000000000000271000006662782F44333733304233312D413633462D344344422D414345342D3333434538364143363930302F76657274696365732E62696E504B0102140014
310
0006080800A945E242F270F133060000000400000036000000000000000000000000007A1000006662782F44333733304233312D413633462D344344422D414345342D3333434538364143363930302F747269616E676C65732E62696E504B01021400140006080000A945E242000000000000000000000000370000000000
310
0000000000000000D41000006662782F44333733304233312D413633462D344344422D414345342D3333434538364143363930302F617474726962757465732E62696E504B01021400140006080800A945E242D5987DFC8F000000410100003600000000000000000000000000291100006662782F44333733304233312D41
310
3633462D344344422D414345342D3333434538364143363930302F6469726563746F72792E786D6C504B01021400140006080800A945E24253787709FD000000A00100003B000000000000000000000000000C1200006662782F44333733304233312D413633462D344344422D414345342D3333434538364143363930302F
310
7265736F75726365732F636F72652E786D6C504B0506000000000E000E0080040000621300000000
  0
XRECORD
  5
17
102
{ACAD_REACTORS
330
12
102
}
330
12
100
AcDbXrecord
280
     1
270
     1
271
     1
  0
XRECORD
  5
16
102
{ACAD_REACTORS
330
12
102
}
330
12
100
AcDbXrecord
280
     1
270
     1
271
     1
  0
XRECORD
  5
18
102
{ACAD_REACTORS
330
12
102
}
330
12
100
AcDbXrecord
280
     1
270
     1
271
     1
  0
XRECORD
  5
15
102
{ACAD_REACTORS
330
12
102
}
330
12
100
AcDbXrecord
280
     1
270
     1
271
     1
  0
XRECORD
  5
E6F
102
{ACAD_REACTORS
330
22
102
}
330
22
100
AcDbXrecord
280
     1
102
MATERIAL
148
0.0
149
0.0
149
0.0
 93
        0
 94
      127
282
     0
 72
     0
 77
     0
171
     0
175
     0
179
     0
273
     0
  0
XRECORD
  5
24
102
{ACAD_REACTORS
330
22
102
}
330
22
100
AcDbXrecord
280
     1
270
     1
271
     1
  0
XRECORD
  5
23
102
{ACAD_REACTORS
330
22
102
}
330
22
100
AcDbXrecord
280
     1
270
     1
271
     1
  0
XRECORD
  5
BA
102
{ACAD_REACTORS
330
22
102
}
330
22
100
AcDbXrecord
280
     1
 70
     1
 90
1959938040
 71
     1
  1
33C80E70-D4F5-4E66-A097-B364D16A262A
311
504B03040A0000080000A845E2423DEE336E79000000790000001B0000006175746F6465736B2D64657369676E2D7061636B6167652E786D6C3C3F786D6C2076657273696F6E3D22312E302220656E636F64696E673D227574662D3822203F3E3C666F726D6174733E3C666F726D61743E687474703A2F2F736368656D612E
311
6175746F6465736B2E636F6D2F64657369676E2D7061636B6167652F323030393C2F666F726D61743E3C2F666F726D6174733E504B0304140006080800A845E242D486FD9CA0000000F4000000130000005B436F6E74656E745F54797065735D2E786D6C7D8EC10E82300C865F65E91D8A1E8C310C0EEA1BF002731658846E
311
D98AC1B77784ABF1D8FE5FBFBF75BBCE937A534CCEB38643598122B6FEE978D0B0485F9C41B54DDD7D022595594E1A469170414C76A4D9A4D207E29CF43ECE46F218070CC6BECC4078ACAA135ACF422C856C0E68EA1BF5669944DDD7BCDE7B1F8E415D77AECB980613C2E4AC91FC167A2B244592486606FC29C8FD7F045B9A
311
EF7053A7E60B504B0304140006080800A845E242C25FC5AAE80000007C01000008000000636F72652E786D6C8D905D6EC3201084AF82F6B5C206FC2B0B1329497B825E0001715162B00C54397E71E248ED5B9F7634CCC7AE861FEEF30D7D9B3558EF46A00501649CF2DABA6984142FB80774107CF53EFE8A01727236236C36
311
083EAD3E2DBBA5BC8BC6C5EC3AAFCD6ECA104C04A46E598C10D49799652153CC89702D16A9AE7232057DA90CA764357A2EB13AFF672FD6AC20CE0D6BEA634D71DB9D7A9C15C3C773FD8E2BD2B1B66EB3241FBCDC60C1A39D5FFBD56A64341A0423B4C2A4C3847D927EA89B81766FA4192AC2CB2DFE074A8BFE2794AC8B15DB
311
CF7D620104CD873C1E042FB72EF2781495E7D69BF801504B0304140006080800A845E24255019EA25F0000007C00000007000000636E782E786D6C4DCB3B0E80201045D1AD90E915ED2CF8AC45050C11660C8261F98AB1B07AC9C97D42D718D865D3E909258CFD00CCE24AC6E326A164D74DC0B4128928FF326038472BA131
311
28B1252AC747C6BAB984FC68F0B87FE8960A5C09FE86CFB69FBA01504B0304140006080800A845E242AD4A198265010000020300000C0000006662782F636F72652E786D6C8D525B6AC33010BC8AD06FB125BF92106405D2B427E8051459714D6CC9E86172FCAE1FC14D09A118E465766777762476B8752D1A94758DD1254E
311
628A91D2D2548DAE4B1CFC25DA6174E0CC1AE37F9561A445A74A3CC298B3DA9AD02F9034DA2BED01D5A6520B289C531E23D942506227BF552762113C54B86BDC0B7915B58A9318D250C799F31604A079C878627E39DF189971CE4268AA25DB5430ADB934CA627E2AD2223FE649B4D9BEEF2288D2E878CA3FA28C6ED34DBE81
311
907E32329239F34D775727AD125E5598A734C922BA8D68FA4577FBBCD827DB375AEC33CAC858FE400A7DF54F5268B4CFD245EE4C73982720644AFCD9162CF2C88901F410CEC86822FC26871F8D0643C0642FCEED7D8F2B408392DED81C3295096B6A106D503095A2E96364CE42E7A9016CF6B44FFAA2CFEB1E708142D7204D
311
7808CFC18FD3D93C75B1A257361AFC0D69633BD1AEE26689EBB90E7A4A97A635F63F6CB2AC4A1633C9F87AF90F504B0304140006080800A845E2422F2C20D37E0000009D0000000B0000006662782F636E782E786D6C4DCCD10A83201886E15B91FFDC65CD2D0335A4D67DC4B290D9EF703A76F9ABD1C18E3E78F87865FB59
311
3D79DBF8720115942706C4E23D4C0E170539CD540069B58C21A4BF1B101C57AB6067D07289213F0F9AEC3C669F36F50E1F07D6E7A1EC3BD1502E18A39C5786363771A16C105D6F8CA94C7D8542CBE257DA760FEB2F504B0304140006080800A845E2421E24C28B2D01000015020000310000006662782F3733463144433839
311
2D343830302D343432412D394538352D3046384344414141324137362F636F72652E786D6C8D515B6EC32010BC8AC557AA0A1BFC88498489ACA439412FE000715162B07854397EA176A4F62F3F2C9A9D991DEDD2C363BA67DFD23A657407708E4026353742E9B103C15F2101D981516B8CFF4303991E26D981040346476BC2
311
BC42DC682FB58FA83642AEE0E09CF420E3F7F8E980E35F721AF221F8C870B77C1EF86D18658EF3D88E3C469DB73140B60C492F606D75C6A723D9C19A2004EBBAECE1EE8334109DC9F1D4F77DD9B75B5A2C4246435062952B11E3A8AB92F655932466D4ABE9199F5B397829002B11AE206A212A3F11D9D7CD1EB7EFA8D95788
311
1689FE4F1466F1A22828EDAB728DBBC81C6098164B835161C2E5FE0C231FB3B13E4BF3364EF237C0508E50BB23550C478B851B37104DB7F56AEABCB171C39BDB25D271B3386F6B468B74A4587E2F186B3A28FB01504B0304140006080800A845E242C164818D4E01000033030000300000006662782F37334631444338392D
311
343830302D343432412D394538352D3046384344414141324137362F636E782E786D6CD5934B6F02211485FF0A61DBCC4BC7470C834917FD055D748B70552A03131E4DFDF7BD285A372EBAEC864CCE3D9C73F38561DBEFD1902FF0413B3BD0AE6E29012B9DD2F630D014F7D59A922D67DEB9F860A3C48A11069A65CAD9C1BB
311
341549C15E24135135DA9E8AE821B8E4250494F34D629C140603C05609451877A014287237E2D71E3CAE82E2EE4CE211C8DBEB0771BB4F9031B026A770D6E40ECEF2599A1E4C944823421868904718452D52740AC2A956228ABAAB6F5D4F76FA4D22F9C2AD32794D72F940F34979D9A8468EACC12167217AA4574CF13C01E5
311
629A8C962222E4E662BC7A384BDAC6655FBC1AC17B7477CB79DF63D865C659D4231487F4202228CA676D37AFDA55D5CEDEDBF5A65F6CBAD54BBBD8CC5BD6643B673BE74CB98431E0DD44A4B3116CA4BC634D1E3FC3577C44698FAC9D3FFF01240228AD573AF78CFFCCA7B9BC6FC4E5F12FE03F504B0304140006080800A845
311
E24208E4E2C3A405000080100000340000006662782F37334631444338392D343830302D343432412D394538352D3046384344414141324137362F6F626A656374732E786D6CAD57DB6EDB3810FD1541FBB2FBE08B6CC74D168A0AC74E0AA3485BD468B10F010C4AA2146E285120A9C4D9AFDF4389B224D74EBD8BBE581635
311
1CCE9C3973A1FF7E9771E7994AC5447EED7AC3B1EBD03C1231CBD36BB7D4C9E0D275DE07BE144277C45C272719BD76CDB21BF8A914656197629A9092EB83D5BB9BBF1C15D19CBA4EC48952D7AE8A1E694686A4D422A6EA6918134D8669B21B7AC35AB0AF3695A4783C505A1049730D4BB19E438B531BE5F55FC7EE28F047E6
311
7BE09B5F2B353D2D35AAFCE99FCF72A5491EFD70D8819AA9375BDD4E2EAE0617B3D974309B4FBCC1CDDDCD6AE0BD9B8E97F3E5F26A717B85839596D0642D913471830FC046B2C81FD59F02BF64B99E4EAC880DD048D2676622E50613C7F347B5CCDE3BEBE431F32391E734AAB0021A957F56754C0B9AC78839A30A9675101A
311
F75F3D8363E7F3D4BCDB23BBCBE721D0DDD151D4D8DE3CBB968AF06FB8A0CE619054D430B0C6D23A5A7375DC221C0AC1ED37A69C8C682A19E10E67A124F2D50D206A4402BFA7C630599A6C301EB801A2507FEED30569F4739E1FB3322939373476832A0BB6C815AA556519FB87CAD6FA2E32B009B1326CB8B40EE9D782BAC1
311
554D91CB0336D5403A092729420E37CDCEE9E4C0D1A5C9D3F5CA0D3EDE85BB8DC9DDE387175214546A431F50AB095CF33428599BBCB3226736B807A6B4A07C05F29F90EAAD29889B64BBD96E664FD192E42A1132436C9CB13318E367EC78D5AFF9DFF9E78FF69BFBD13B8527826DA0FA0578F67DE8C6B20367E03F83F0424E
311
AD6B9B8870948D7B9603204312870B2CA10E27E1CE0DD6A872A8CAD84578E0C16598FB8CBFFEC8AA41A1A84EEA3C7360795016CF28D080AD6224CCA8C96F0D6CE3F44339AB0EB662A7E0BDF825745DAC361F37A54C4844EF6D4EAF68C272A6D1E25ADE740DEA61DEF3E889BEBE0819C3D11FF1DE74F1CEEC510A681BCC0DF0
311
6953D3CD4B7B72EF8008FB5261CA8DFF9313E08469AC1DFDF74C45947392535136E7BED93FD0366A884DB21B26EF1B4CDB58409AFACB410EA24947921506C47DB7DA17CDE109EFBEAD3F819190E72224BC150ADBD21B092EE4367CDDD655E928D2DFFBD4B6108C8C16B0BDCA9126FD2DE6DB982549A950038FC0FA7DBDEC86
311
CE54055488466B9D2C33B88FDC22D272B6D18B662D091AA9C8B70C6D136977F480AE7E206A0950293C65B1A23CD932CECB6C9B308E66B4CD4871028EFF6F7F5866C59664A2CCF509DD3DD3D11CFAB6F7C8AB5E888E1EDD60533D073728BD318DDB30F7844D2B3982552FB4D3E9F2727CFB6E3C58CDEE2E06B3DBF97CB0185F
311
BD1BDC4CE7B395375F4CE6934513A75A79E0379DA69BD088123A9B5F4A66C3F76D8DF4B135C00DEE89560F1FEAEC6C9EDFD6438CC2FE087BD02EF71B17F133C63E1AFF5C412B7954D13A2B38CD68AE8949A17BF3877F2518337AC6D4EBEB8CA4F40C2D9F3F6C0E9CC1CA19FBBE9874A72F077BEDEAD224E45125FAB1CCC29C
311
307EB031AD911C16796AF16B62B27FD67DA679356F3630184C95E02C46198C9D948A8C6A14C3337A90CCA802F5BA237D6CAF1E67EC7EAE07444D424E1B4B1E096664AE9016A05619E9FEBAF31B663A33565DBBE8B6C327FCD84AE13AE0CCB58B195DB388AA6188FE6C26A14A39B8D41DE431F7933CE518B5EB4DFBF7FD2E83
311
4DAF23EF45CE199FAC5F7505B70EA08C14181B300F213A9531815FD966BF47FFC9F1C61C8768FC0D4BBDF7A55DD83B531D8314AD9DB29705CC304FF6E81D12F56DB7BC6125D343E4AC4BD69B24A8B50E349169755130F6599316AB2F230C28CEFAB353F032452CCFD7349014642E4D8283456085D559100DAA2EFF7CF82205
311
2EB29973C74001E7F7DDE5FC8F87A5C83291D74B0F0B7B1D76368FB8DCC60F280ED4DC4AD4C364EC4D1EAADB80BDA06C43A2E890C4EA090B88AC647BA07BE1072FEB2BA307211B7E1B899109C50143D72BC736B6592BDFADAD061CCC1D39759043E6466932A62B50BC79211855A2305562940FFE05504B0304140006080000
311
A845E242000000000000000000000000350000006662782F37334631444338392D343830302D343432412D394538352D3046384344414141324137362F76657274696365732E62696E504B0304140006080800A845E242F270F1330600000004000000360000006662782F37334631444338392D343830302D343432412D39
311
4538352D3046384344414141324137362F747269616E676C65732E62696E636660600000504B0304140006080000A845E242000000000000000000000000370000006662782F37334631444338392D343830302D343432412D394538352D3046384344414141324137362F617474726962757465732E62696E504B03041400
311
06080800A845E242D5987DFC8F00000041010000360000006662782F37334631444338392D343830302D343432412D394538352D3046384344414141324137362F6469726563746F72792E786D6C858F410EC2201045AF4266AF15DDB800BA74E7C21B903225242D6328188F2FA5C4183471359997F9FF81E89FF3C41E1816
311
475E02DF1F80A11FC8386F25A438EECEC07A250251FC3803E6F58C12560C4AD840E95E91C151A72936F496F35732D860FE635F62C8F2DA16B505C545B74125BAA2FA9E05D7CC053D063734D5C7665FD55B6B8D15D5E9BFEAFD8490FFA45E504B0304140006080800A845E242D1F4EB32FB000000A00100003B000000666278
311
2F37334631444338392D343830302D343432412D394538352D3046384344414141324137362F7265736F75726365732F636F72652E786D6C8D50596AC33010BD8A99DF225B96578CAC409AF604BD8090278E482C192DA5C7AF1CBBD0FEF56766780BF378FCF4B53CB24F745E5B33429953C8D0283B69338F10C395F4909D04
311
77D6865F32C88C5C70840D06C16767E37A40CA9A802624D4D8090F507A8F0132F548C7085EDD7091B98C2129FC3D5FA5BACB19F3324F74D209EE834B01B2FDC9364138F4363A859E173B2B788C7A3A347A4A3FF555A303716958539F6B4ADAEEB527E962E47CA9DF48453BD6D66D3AE93B2F36B3E0412F3F199543197002C1
311
685911DA11CA3E683FD4CD50762FB4192ACA8B4DFEC714D7E99FA6A84DA8D81177B77910650AF224042FB6BED27A9699F6D6ADF806504B010214000A0000080000A845E2423DEE336E79000000790000001B00000000000000000000000000000000006175746F6465736B2D64657369676E2D7061636B6167652E786D6C50
311
4B01021400140006080800A845E242D486FD9CA0000000F40000001300000000000000000000000000B20000005B436F6E74656E745F54797065735D2E786D6C504B01021400140006080800A845E242C25FC5AAE80000007C010000080000000000000000000000000083010000636F72652E786D6C504B01021400140006
311
080800A845E24255019EA25F0000007C000000070000000000000000000000000091020000636E782E786D6C504B01021400140006080800A845E242AD4A198265010000020300000C00000000000000000000000000150300006662782F636F72652E786D6C504B01021400140006080800A845E2422F2C20D37E0000009D
311
0000000B00000000000000000000000000A40400006662782F636E782E786D6C504B01021400140006080800A845E2421E24C28B2D0100001502000031000000000000000000000000004B0500006662782F37334631444338392D343830302D343432412D394538352D3046384344414141324137362F636F72652E786D6C
311
504B01021400140006080800A845E242C164818D4E010000330300003000000000000000000000000000C70600006662782F37334631444338392D343830302D343432412D394538352D3046384344414141324137362F636E782E786D6C504B01021400140006080800A845E24208E4E2C3A4050000801000003400000000
311
000000000000000000630800006662782F37334631444338392D343830302D343432412D394538352D3046384344414141324137362F6F626A656374732E786D6C504B01021400140006080000A845E2420000000000000000000000003500000000000000000000000000590E00006662782F37334631444338392D343830
311
302D343432412D394538352D3046384344414141324137362F76657274696365732E62696E504B01021400140006080800A845E242F270F13306000000040000003600000000000000000000000000AC0E00006662782F37334631444338392D343830302D343432412D394538352D3046384344414141324137362F747269
311
616E676C65732E62696E504B01021400140006080000A845E2420000000000000000000000003700000000000000000000000000060F00006662782F37334631444338392D343830302D343432412D394538352D3046384344414141324137362F617474726962757465732E62696E504B01021400140006080800A845E242
311
D5987DFC8F0000004101000036000000000000000000000000005B0F00006662782F37334631444338392D343830302D343432412D394538352D3046384344414141324137362F6469726563746F72792E786D6C504B01021400140006080800A845E242D1F4EB32FB000000A00100003B000000000000000000000000003E
311
1000006662782F37334631444338392D343830302D343432412D394538352D3046384344414141324137362F7265736F75726365732F636F72652E786D6C504B0506000000000E000E0080040000921100000000
310
504B03040A0000080000A845E2423DEE336E79000000790000001B0000006175746F6465736B2D64657369676E2D7061636B6167652E786D6C3C3F786D6C2076657273696F6E3D22312E302220656E636F64696E673D227574662D3822203F3E3C666F726D6174733E3C666F726D61743E687474703A2F2F736368656D612E
310
6175746F6465736B2E636F6D2F64657369676E2D7061636B6167652F323030393C2F666F726D61743E3C2F666F726D6174733E504B0304140006080800A845E242D486FD9CA0000000F4000000130000005B436F6E74656E745F54797065735D2E786D6C7D8EC10E82300C865F65E91D8A1E8C310C0EEA1BF002731658846E
310
D98AC1B77784ABF1D8FE5FBFBF75BBCE937A534CCEB38643598122B6FEE978D0B0485F9C41B54DDD7D022595594E1A469170414C76A4D9A4D207E29CF43ECE46F218070CC6BECC4078ACAA135ACF422C856C0E68EA1BF5669944DDD7BCDE7B1F8E415D77AECB980613C2E4AC91FC167A2B244592486606FC29C8FD7F045B9A
310
EF7053A7E60B504B0304140006080800A845E242E7BCE525EC0000007C01000008000000636F72652E786D6C8D904D6EC3201085AF82665BE1807F6ACBC24476649FA01740405C94182C03558F5F9C3852BBEB6A466FDE37337AECFCBDDCD197DEBC71B6039A1140DA4AA78C9D3B88E18A1B4067CE36E7C22F1B202B16DDC1
310
2E0367F3E6E27A48D2D9A06D48AA754A1FA2F05E0740F29E9A0EBCFCD48BC8440CC9E16FD92AE44DCC3AA3AF2EC1311A859E478C4AFBCCD5E80D78534F977E2C467C19C6029764AC715356EF786A689F0F259D867E62A71DE62C98E5755F6E5A04AD80E7841698D498E41FA469CBAAA5F51BA9DA82B0D36EFF03C555FD138A
310
C686223FDE7D621E384D8F3C069C9DF62C52790495EA9E1BFF01504B0304140006080800A845E24255019EA25F0000007C00000007000000636E782E786D6C4DCB3B0E80201045D1AD90E915ED2CF8AC45050C11660C8261F98AB1B07AC9C97D42D718D865D3E909258CFD00CCE24AC6E326A164D74DC0B4128928FF326038
310
472BA13128B1252AC747C6BAB984FC68F0B87FE8960A5C09FE86CFB69FBA01504B0304140006080800A845E242F69E8C8E68010000020300000C0000006662782F636F72652E786D6C8D52ED8A8330107C9590BF87267EF4941253DAA24F702F906AEA49359198481FFFD68FE2F528E5106298D9D99D1D65877BD7A2519AA1
310
D12AC3814F3192AAD455A3EA0C3B7BF5528C0E9C19ADEDAF328C94E86486271873561BEDFA152AB5B252594095AEE40A8A619016A3B2854B8687F25B76C217CE42C570F37B51DE442DFDC0071AEA381BAC01036819329D985F2F7746169C33E79A6A659B0AA635D7461ACCD3A4381FF328F7CEA73CF2629A275E1AEF3EBD22
310
0D8EE1290E8AD3B160641273669BEEE1AE34525859611ED220F268E2D1F08BA6FB78B70F920FBADB479491A9FC49E4FAEA9F22D7281B85ABDD4536601E809199F8B32D4464D12046F04338235388F09A137E0E1A028190ADB8B48F3D6E008DB2B4DAC4C054DA6DD4285A27612A45F3C3C8C242E7B9016CF6B24FF8A6CFFB1E
310
F00185AAC19AB070BD383B4D67CBD4358A5E1A6FB477A4B4E944BB995B2C6EE736E8A5BCD4AD36FF51937555B28649A6BF97FF00504B0304140006080800A845E2429997379A7E0000009D0000000B0000006662782F636E782E786D6C4DCCD10A83201886E15B91FFDCA59B95033526D67DC4B290990EA76397BF1A1DECE8
310
83878F57749FD5A3B74D2F1783047A22806CB8C7C9854542C933E6803A25528CF9EF06288CAB95B03328B1A4589E074D761E8BCF9B7A171E079A9A1ACE4983F5F9A2316B788F6F64A83163869A6BDBEA7EE0502951FD4ADBEE61F505504B0304140006080800A845E2429E98E0012D01000015020000310000006662782F44
310
353144383830362D423233422D343638452D413046352D3434443144393737424546382F636F72652E786D6C8D515B6EC32010BC0AE22B55850D063F1261A2464E4ED00B3898A42831583CAA1CBFB876A4F62F3F2C9A9D991DEDF2FD63BC836FE5BCB6A68524C3102823EDA0CDB585315C5003C15E70676DF84383C0F4A36A
310
E10C43C1AFCEC66985A435419990506307B582BDF72A4020EFE9D3422FBFD4D8677D0C89E16FD9D4CB5B7F5519C9523BF104F7C1A500601932BF507425E99A0657E850D003625573441FF85422C63AD26DEBFA703C353C5F8482C7A88755AE8714475FB472AF9ACC62C1831E9FF1A5537D500314052614E11AE1E213373B56
310
EE48FD8ECB1DC53C9FE9FF44711A5E14456D022DD6B88BCC434178BE34041F6C3CDF9F61D463B22E8079DEC62BF90605CE306EAA9252B6E5F9C24D1B48A6155B4D7DB02E6D78733B273A5D9D2B26783E1F2995DF0BA63A1F54FC00504B0304140006080800A845E242A7C34E9A5601000033030000300000006662782F4435
310
3144383830362D423233422D343638452D413046352D3434443144393737424546382F636E782E786D6CBD93CD6EC32010845F0571ADFC173B3F8A30917AE813F4D02B864D4383C1025C356FDF2521692E3954AA7A41D6EC30B3FA84D9EE6B34E4137CD0CEF6B4296B4AC04AA7B47DEFE91CF7C586921D67DEB97867A3C48A
310
117A9A64CAD9BB77F39425057B319B88AAD1F698450FC1CD5E424039DD24C6496130006C31A308E3004A812237237EEDC1E32A280E27120F405E9EDF881B3E40C6C0AA94C259953A384B676EBA3351228D08A1A7411E6014A598A353108EA51251944D79ED7AB0D34F124917AE95B3D72495F7349D94E78D4AE4C82A1C7216
310
A2477AD9144F13502EA6C968292242AECEC68B87B359DBB8EAB25723788FEE76B1DA6C30EC3CE32CEA11B2437A101114E58BBA698B7A5DD48BD77AB3ED96DB66FD542FB76DCDAA64E76C70CEE44B1803DE4D443A1BC146CA1B56A5F1237CD94794F6C8DAF9D32F402280DC7AA173CBF84B3ECDAAEDBA7FE4539DDF37E2F2F8
310
17F06F504B0304140006080800A845E242F328BF2262070000991B0000340000006662782F44353144383830362D423233422D343638452D413046352D3434443144393737424546382F6F626A656374732E786D6CED59DD73A33610FF5718FAD23E181BDBF1251D4227B12F379E9BB437E7DE4D1F3CC3C8201335423092C8
310
25FDEBBBFA00033109EEA56FF76003425AEDFEF6534BF0DB63469D07CC05C9D9A5EB7B13D7C12CCE13C2D24BB794FBD1B9EBFC16063CCF65639AEB3094E14B570DBB6190F2BC2CEC5082F7A8A4B2337A73FD972362CCB0EBC4140971E98AF80E67C843A5CC132CEEBD0449E4A5FB47CFF7CCC436D994A3E2AE43B4401C3309
310
9CC238032A8E61CA6F3F4EDC71188CD5FB3050FF76D66CD0AC79FFACB196BACD25614222163F63A943663688A5993F5FBD9F9E5D8CCEE6F3D968BE98FAA3EB9BEBD5C87F379B2C17CBE5C5D5FB0B606F97E7D4CA94E002B304F4F7E4867E30566F6AD12D02C7B88E73C670AC8104A8B4585D82040BD8AA01DFA4FDE82B891A
310
AFB5848DE7B97A6F59680CCFDA54FA660D03A2451704B1DB551257D7A67CF9EE6F105C0C314A2EB0046E85E4A05D0B0F07AF70C3493036A361B03BE882082743127382A843C98E230E4A81A96A4A189805968C720E0EA41C2581D69C79DDB62DF0CCD75DE71897FB9252E5196EA81D2B02F7C35268CEC83F981FB86F22033C
310
81B42561F2DC72299F0AEC8617C1580F8681BACCA6F6A501D2D953940A8D8879DB1174A95C7FBD72C38F37BBC78D0A07C7372F785E602E95D1293D6ABEC090ED55A164B7F507694E2D00610CA876E50194CF80FCEF103D0EAC80DE38799C3FCEED5CC91113FB9C67A01B67E28C26F037717CFDAFEE1B77C1B85EDCD65E1F9E
310
E0A60AAAF3EFC7B32D83C6CAF2DF80330C1EC0E0733EB3AF3631A260CFB7840140CA481C9AC31084F6FDEED10DD7103821D0C32A44431F4406761FE036185B3207AD54EE65BD8E01A2768FD91025016CDA22818D1E3D7D80ECC1497C505353C43E78CFDEC45CAF569B8F9B92EF518C6FAD4FAFF09E3022216B1E67A885794B
310
A27BFCF42DE70908FA1CEF4D13EFCC6E25006D85B9023EAD40500F879D5B1BC4B02ECD55B8095ED9018450B9BA41FF968818538A18CECB6ADF3ABA2943AD3DDED60C6E383510CFA61D13E6F881A8AA029CE630A3C528E4FD98934281E8861F8C6475D0F47AA4FBB2FE1D2CB29EDF336BCD20F43244FFD441EB080E2DCBAE90
310
B640D402EF0EE13CCE69CEA3DD5364229D0BB504B0D1F696AF2DA210EB8D921415F020ED775548498DB45142F6FB52405C3DC2E2D7F5B2690E136FE69F39CDFF8E33CE21DA82EF226EFDAEB347443294E2688F92BEED9ABBD5B48526D9439AE33D05B9C803914F1192D124C1E929D09C44FCE24DA9A7341782302C205F1D05
310
BF89C6C4834062B459B1ACB4DA019A8828C312D1531050647AC0D56947D7B831940EAFF3585BEF4B1A6B12FD9F2C8223A82573161128452187BCCAB8EF9D410C69A36B50EEE00BD656D1D662D0124A88F829FA86497A274F41DD90EFC13D86234929A3BC403198F500B2CF7C4529B5C3FB0EC5F72A7F447149DFCA4004A6FB
310
88505A6611FC088393C710D7AE03D38B2834889BD8277106451992251FB2C9E26CF26C1F533374436063A33DA110B6A30C153DA8B702A2AE479C1A7C4BBD47A9BB322B2294E5251B6428DEACEB4D967C57AD8AEC407E55A908656345D8120C03C2649D55AB980DA6AE032BB8910E544F91405941CD29EC95C4E3D7DEA429F7
310
6EC0AD9FBEED0619147E3DDA6B46D4790583E5B15518886F48C6776EB8D1D7D135D4DF094E0EA9BEAA359B152020A62279C98955D197359437B64673C35B24C5F683C9BAD5F5CBDA83EE4730863550BBD40BD70AE80C3389546572AB6EE8670421B845C38CAF554E3D85CA5592E8AA11D11BD2A7CE5619D1DA34235E718759
310
9EC18F6D098B6999E02D4AC47D742B69B4218A752BA597910AE31705FCE3C3A6030F8C0C10E9932AF0F0B7CE5A3BBA54E5D25122F2AECC760C1108822DD152A31BAF60A9D548A5E5FAAACE14507781815915CF7F9C2C9AED881F278BD41AC6F79D2C68BE43F4106D1AD93C56667DD229A04E4F8ACA5B9C0274D7A1A65A2711
310
93CBADF8D69722888955901F5C8C5531C310ECE3F83F27EDBE2468B6EBF07F5AD2F69F151C272595D664D5A43A52B8AE9B296C365B9E4FDEBF9B8C56F39BB3D1FCFD6231BA9A5CBC1B5DCF16F395BFB89A2EA657359ADA4FC3A08E653A75C1B38969D5B07AB218405356E4942470984F9C1443C89770A41FD03DE71916903B
310
9BBDEEC4F6E407AC7E306D4E897614579CDC21E80F5301591D302A63D91E777E82CEA48473F6A50B3D23EF1EFEAC55BA0E249E4B173A0592C458783BE832A97E9E260E1957A77E4B0CF0412C5519D12CAA9FEB550A9B56F4AFA70CC90256AE560B03EAB6029A5FAD0685E6CDF2149F2478C58E8324DCEE4A09C59A91E53050
310
0BA3B739A8DFC84609BBB75B3F82EBBE2C96EFE9392D44067D3178D1080CD591443CD5ED6EC59865E96AF5690C6D3667FD8753D032055D0EA734E2188CB954F51458115885A5592009A6BAFC75FB89E7F08527737451E4FCFC78BEF865BBCCB32C6766687B0587B204BE13399B3BF8EA936CA176C0AAB72EB6D3893FDDEA9E
310
B66DB3473B24B0A78A2218A86A092548C7E4C02E9FF5A76CF772AC54D199BE5E393688422FC0D8D1B316AFF9C6E5800FA9AF29CA63B49F57D2BED8D61EEBA960131C1AD2E1BF504B0304140006080000A845E242000000000000000000000000350000006662782F44353144383830362D423233422D343638452D41304635
310
2D3434443144393737424546382F76657274696365732E62696E504B0304140006080800A845E242F270F1330600000004000000360000006662782F44353144383830362D423233422D343638452D413046352D3434443144393737424546382F747269616E676C65732E62696E636660600000504B0304140006080000A8
310
45E242000000000000000000000000370000006662782F44353144383830362D423233422D343638452D413046352D3434443144393737424546382F617474726962757465732E62696E504B0304140006080800A845E242D5987DFC8F00000041010000360000006662782F44353144383830362D423233422D343638452D
310
413046352D3434443144393737424546382F6469726563746F72792E786D6C858F410EC2201045AF4266AF15DDB800BA74E7C21B903225242D6328188F2FA5C4183471359997F9FF81E89FF3C41E1816475E02DF1F80A11FC8386F25A438EECEC07A250251FC3803E6F58C12560C4AD840E95E91C151A72936F496F35732D8
310
60FE635F62C8F2DA16B505C545B74125BAA2FA9E05D7CC053D063734D5C7665FD55B6B8D15D5E9BFEAFD8490FFA45E504B0304140006080800A845E242F417CBBDFE000000A00100003B0000006662782F44353144383830362D423233422D343638452D413046352D3434443144393737424546382F7265736F7572636573
310
2F636F72652E786D6C8D504B6E833010BD0A9A6D65B08114848CA3248513F4029699502BC18EFCA97AFC9A40A576D7CDCCE87D344F8F1FBF967BF689CE6B6B7A6039850C8DB29336730F315C490BD95170676DF82583CCC8057B5861107C76363E76485913D084841A3BE10E4AEF3140A6EEE9E8C1AB0F5C642E63480A7FCB
310
1F52DDE48C39CB139D7482FBE052806C7BB24E100EBD8D4EA1E7C5C60A1EA39E768D9ED24F7DD5E840B4CD78390DD51BB99C878AD47468485B1F5EC9D8B25379AED9783E8DBC58CD8207BDFC64540E65C00944495945684368F94EDBAE3E74AC79A187AEA2BC58E57F4CF131FDD314B50955B9C7DD6C1E044B419E84E0C5DA
310
575ACF32D35EBB15DF504B010214000A0000080000A845E2423DEE336E79000000790000001B00000000000000000000000000000000006175746F6465736B2D64657369676E2D7061636B6167652E786D6C504B01021400140006080800A845E242D486FD9CA0000000F40000001300000000000000000000000000B20000
310
005B436F6E74656E745F54797065735D2E786D6C504B01021400140006080800A845E242E7BCE525EC0000007C010000080000000000000000000000000083010000636F72652E786D6C504B01021400140006080800A845E24255019EA25F0000007C000000070000000000000000000000000095020000636E782E786D6C
310
504B01021400140006080800A845E242F69E8C8E68010000020300000C00000000000000000000000000190300006662782F636F72652E786D6C504B01021400140006080800A845E2429997379A7E0000009D0000000B00000000000000000000000000AB0400006662782F636E782E786D6C504B01021400140006080800
310
A845E2429E98E0012D010000150200003100000000000000000000000000520500006662782F44353144383830362D423233422D343638452D413046352D3434443144393737424546382F636F72652E786D6C504B01021400140006080800A845E242A7C34E9A56010000330300003000000000000000000000000000CE06
310
00006662782F44353144383830362D423233422D343638452D413046352D3434443144393737424546382F636E782E786D6C504B01021400140006080800A845E242F328BF2262070000991B00003400000000000000000000000000720800006662782F44353144383830362D423233422D343638452D413046352D343444
310
3144393737424546382F6F626A656374732E786D6C504B01021400140006080000A845E2420000000000000000000000003500000000000000000000000000261000006662782F44353144383830362D423233422D343638452D413046352D3434443144393737424546382F76657274696365732E62696E504B0102140014
310
0006080800A845E242F270F13306000000040000003600000000000000000000000000791000006662782F44353144383830362D423233422D343638452D413046352D3434443144393737424546382F747269616E676C65732E62696E504B01021400140006080000A845E242000000000000000000000000370000000000
310
0000000000000000D31000006662782F44353144383830362D423233422D343638452D413046352D3434443144393737424546382F617474726962757465732E62696E504B01021400140006080800A845E242D5987DFC8F000000410100003600000000000000000000000000281100006662782F44353144383830362D42
310
3233422D343638452D413046352D3434443144393737424546382F6469726563746F72792E786D6C504B01021400140006080800A845E242F417CBBDFE000000A00100003B000000000000000000000000000B1200006662782F44353144383830362D423233422D343638452D413046352D3434443144393737424546382F
310
7265736F75726365732F636F72652E786D6C504B0506000000000E000E0080040000621300000000
  0
XRECORD
  5
27
102
{ACAD_REACTORS
330
22
102
}
330
22
100
AcDbXrecord
280
     1
270
     1
271
     1
  0
XRECORD
  5
26
102
{ACAD_REACTORS
330
22
102
}
330
22
100
AcDbXrecord
280
     1
270
     1
271
     1
  0
XRECORD
  5
28
102
{ACAD_REACTORS
330
22
102
}
330
22
100
AcDbXrecord
280
     1
270
     1
271
     1
  0
XRECORD
  5
25
102
{ACAD_REACTORS
330
22
102
}
330
22
100
AcDbXrecord
280
     1
270
     1
271
     1
  0
XRECORD
  5
E69
102
{ACAD_REACTORS
330
E68
102
}
330
E68
100
AcDbXrecord
280
     1
102
ACAD_ROUNDTRIP_2012_MLEADER_STYLE
298
     1
  0
CELLSTYLEMAP
  5
E67
102
{ACAD_REACTORS
330
E66
102
}
330
E66
100
AcDbCellStyleMap
 90
        3
300
CELLSTYLE
  1
TABLEFORMAT_BEGIN
 90
        5
170
     1
 91
        0
 92
    32768
 62
   257
 93
        1
300
CONTENTFORMAT
  1
CONTENTFORMAT_BEGIN
 90
        0
 91
        0
 92
      512
 93
        0
300

 40
0.0
140
1.0
 94
        5
 62
     0
340
55
144
0.25
309
CONTENTFORMAT_END
171
     0
 94
        0
309
TABLEFORMAT_END
  1
CELLSTYLE_BEGIN
 90
        1
 91
        1
300
_TITLE
309
CELLSTYLE_END
300
CELLSTYLE
  1
TABLEFORMAT_BEGIN
 90
        5
170
     1
 91
        0
 92
        0
 62
   257
 93
        1
300
CONTENTFORMAT
  1
CONTENTFORMAT_BEGIN
 90
        0
 91
        0
 92
      512
 93
        0
300

 40
0.0
140
1.0
 94
        5
 62
     0
340
55
144
0.18
309
CONTENTFORMAT_END
171
     0
 94
        0
309
TABLEFORMAT_END
  1
CELLSTYLE_BEGIN
 90
        2
 91
        1
300
_HEADER
309
CELLSTYLE_END
300
CELLSTYLE
  1
TABLEFORMAT_BEGIN
 90
        5
170
     1
 91
        0
 92
        0
 62
   257
 93
        1
300
CONTENTFORMAT
  1
CONTENTFORMAT_BEGIN
 90
        0
 91
        0
 92
      512
 93
        0
300

 40
0.0
140
1.0
 94
        2
 62
     0
340
55
144
0.18
309
CONTENTFORMAT_END
171
     0
 94
        0
309
TABLEFORMAT_END
  1
CELLSTYLE_BEGIN
 90
        3
 91
        2
300
_DATA
309
CELLSTYLE_END
  0
XRECORD
  5
EA0
102
{ACAD_REACTORS
330
E66
102
}
330
E66
100
AcDbXrecord
280
     1
102
ACAD_ROUNDTRIP_PRE2007_TABLESTYLE
 90
      512
 91
        0
  1

 92
      512
 93
        0
  2

 94
      512
 95
        0
  3

  0
XRECORD
  5
E7B
102
{ACAD_REACTORS
330
E7A
102
}
330
E7A
100
AcDbXrecord
280
     1
102
RTVSPropertyOp0
 70
     1
102
RTVSPropertyOp1
 70
     1
102
RTVSPropertyOp2
 70
     1
102
RTVSPropertyOp3
 70
     1
102
RTVSPropertyOp4
 70
     1
102
RTVSPropertyOp5
 70
     1
102
RTVSPropertyOp6
 70
     1
102
RTVSPropertyOp7
 70
     1
102
RTVSPropertyOp8
 70
     1
102
RTVSPropertyOp9
 70
     1
102
RTVSPropertyOp10
 70
     1
102
RTVSPropertyOp11
 70
     1
102
RTVSPropertyOp12
 70
     1
102
RTVSPropertyOp13
 70
     1
102
RTVSPropertyOp14
 70
     1
102
RTVSPropertyOp15
 70
     1
102
RTVSPropertyOp16
 70
     1
102
RTVSPropertyOp17
 70
     1
102
RTVSPropertyOp18
 70
     1
102
RTVSPropertyOp19
 70
     1
102
RTVSPropertyOp20
 70
     1
102
RTVSPropertyOp21
 70
     1
102
RTVSPropertyOp22
 70
     1
102
RTVSPropertyOp23
 70
     1
102
RTVSPropertyOp24
 70
     1
102
RTVSPropertyOp25
 70
     1
102
RTVSPropertyOp26
 70
     1
102
RTVSPropertyOp27
 70
     1
102
RTVSPropertyOp28
 70
     1
102
RTVSPropertyOp29
 70
     1
102
RTVSPropertyOp30
 70
     1
102
RTVSPropertyOp31
 70
     1
102
RTVSPropertyOp32
 70
     1
  0
XRECORD
  5
E79
102
{ACAD_REACTORS
330
E78
102
}
330
E78
100
AcDbXrecord
280
     1
102
RTVSPropertyOp0
 70
     1
102
RTVSPropertyOp1
 70
     1
102
RTVSPropertyOp2
 70
     1
102
RTVSPropertyOp3
 70
     1
102
RTVSPropertyOp4
 70
     1
102
RTVSPropertyOp5
 70
     1
102
RTVSPropertyOp6
 70
     1
102
RTVSPropertyOp7
 70
     1
102
RTVSPropertyOp8
 70
     1
102
RTVSPropertyOp9
 70
     1
102
RTVSPropertyOp10
 70
     1
102
RTVSPropertyOp11
 70
     1
102
RTVSPropertyOp12
 70
     1
102
RTVSPropertyOp13
 70
     1
102
RTVSPropertyOp14
 70
     1
102
RTVSPropertyOp15
 70
     1
102
RTVSPropertyOp16
 70
     1
102
RTVSPropertyOp17
 70
     1
102
RTVSPropertyOp18
 70
     1
102
RTVSPropertyOp19
 70
     1
102
RTVSPropertyOp20
 70
     1
102
RTVSPropertyOp21
 70
     1
102
RTVSPropertyOp22
 70
     1
102
RTVSPropertyOp23
 70
     1
102
RTVSPropertyOp24
 70
     1
102
RTVSPropertyOp25
 70
     1
102
RTVSPropertyOp26
 70
     1
102
RTVSPropertyOp27
 70
     1
102
RTVSPropertyOp28
 70
     1
102
RTVSPropertyOp29
 70
     1
102
RTVSPropertyOp30
 70
     1
102
RTVSPropertyOp31
 70
     1
102
RTVSPropertyOp32
 70
     1
  0
XRECORD
  5
E87
102
{ACAD_REACTORS
330
E86
102
}
330
E86
100
AcDbXrecord
280
     1
102
RTVSPropertyOp0
 70
     1
102
RTVSPropertyOp1
 70
     1
102
RTVSPropertyOp2
 70
     1
102
RTVSPropertyOp3
 70
     1
102
RTVSPropertyOp4
 70
     1
102
RTVSPropertyOp5
 70
     1
102
RTVSPropertyOp6
 70
     1
102
RTVSPropertyOp7
 70
     1
102
RTVSPropertyOp8
 70
     1
102
RTVSPropertyOp9
 70
     1
102
RTVSPropertyOp10
 70
     1
102
RTVSPropertyOp11
 70
     1
102
RTVSPropertyOp12
 70
     1
102
RTVSPropertyOp13
 70
     1
102
RTVSPropertyOp14
 70
     1
102
RTVSPropertyOp15
 70
     1
102
RTVSPropertyOp16
 70
     1
102
RTVSPropertyOp17
 70
     1
102
RTVSPropertyOp18
 70
     1
102
RTVSPropertyOp19
 70
     1
102
RTVSPropertyOp20
 70
     1
102
RTVSPropertyOp21
 70
     1
102
RTVSPropertyOp22
 70
     1
102
RTVSPropertyOp23
 70
     1
102
RTVSPropertyOp24
 70
     1
102
RTVSPropertyOp25
 70
     1
102
RTVSPropertyOp26
 70
     1
102
RTVSPropertyOp27
 70
     1
102
RTVSPropertyOp28
 70
     1
102
RTVSPropertyOp29
 70
     1
102
RTVSPropertyOp30
 70
     1
102
RTVSPropertyOp31
 70
     1
102
RTVSPropertyOp32
 70
     1
  0
XRECORD
  5
E8F
102
{ACAD_REACTORS
330
E8E
102
}
330
E8E
100
AcDbXrecord
280
     1
102
RTVSPropertyOp0
 70
     1
102
RTVSPropertyOp1
 70
     1
102
RTVSPropertyOp2
 70
     1
102
RTVSPropertyOp3
 70
     1
102
RTVSPropertyOp4
 70
     1
102
RTVSPropertyOp5
 70
     1
102
RTVSPropertyOp6
 70
     1
102
RTVSPropertyOp7
 70
     1
102
RTVSPropertyOp8
 70
     1
102
RTVSPropertyOp9
 70
     1
102
RTVSPropertyOp10
 70
     1
102
RTVSPropertyOp11
 70
     1
102
RTVSPropertyOp12
 70
     1
102
RTVSPropertyOp13
 70
     1
102
RTVSPropertyOp14
 70
     1
102
RTVSPropertyOp15
 70
     1
102
RTVSPropertyOp16
 70
     1
102
RTVSPropertyOp17
 70
     1
102
RTVSPropertyOp18
 70
     1
102
RTVSPropertyOp19
 70
     1
102
RTVSPropertyOp20
 70
     1
102
RTVSPropertyOp21
 70
     1
102
RTVSPropertyOp22
 70
     1
102
RTVSPropertyOp23
 70
     1
102
RTVSPropertyOp24
 70
     1
102
RTVSPropertyOp25
 70
     1
102
RTVSPropertyOp26
 70
     1
102
RTVSPropertyOp27
 70
     1
102
RTVSPropertyOp28
 70
     1
102
RTVSPropertyOp29
 70
     1
102
RTVSPropertyOp30
 70
     1
102
RTVSPropertyOp31
 70
     1
102
RTVSPropertyOp32
 70
     1
  0
XRECORD
  5
E81
102
{ACAD_REACTORS
330
E80
102
}
330
E80
100
AcDbXrecord
280
     1
102
RTVSPropertyOp0
 70
     1
102
RTVSPropertyOp1
 70
     1
102
RTVSPropertyOp2
 70
     1
102
RTVSPropertyOp3
 70
     1
102
RTVSPropertyOp4
 70
     1
102
RTVSPropertyOp5
 70
     1
102
RTVSPropertyOp6
 70
     1
102
RTVSPropertyOp7
 70
     1
102
RTVSPropertyOp8
 70
     1
102
RTVSPropertyOp9
 70
     1
102
RTVSPropertyOp10
 70
     1
102
RTVSPropertyOp11
 70
     1
102
RTVSPropertyOp12
 70
     1
102
RTVSPropertyOp13
 70
     1
102
RTVSPropertyOp14
 70
     1
102
RTVSPropertyOp15
 70
     1
102
RTVSPropertyOp16
 70
     1
102
RTVSPropertyOp17
 70
     1
102
RTVSPropertyOp18
 70
     1
102
RTVSPropertyOp19
 70
     1
102
RTVSPropertyOp20
 70
     1
102
RTVSPropertyOp21
 70
     1
102
RTVSPropertyOp22
 70
     1
102
RTVSPropertyOp23
 70
     1
102
RTVSPropertyOp24
 70
     1
102
RTVSPropertyOp25
 70
     1
102
RTVSPropertyOp26
 70
     1
102
RTVSPropertyOp27
 70
     1
102
RTVSPropertyOp28
 70
     1
102
RTVSPropertyOp29
 70
     1
102
RTVSPropertyOp30
 70
     1
102
RTVSPropertyOp31
 70
     1
102
RTVSPropertyOp32
 70
     1
  0
XRECORD
  5
E85
102
{ACAD_REACTORS
330
E84
102
}
330
E84
100
AcDbXrecord
280
     1
102
RTVSPropertyOp0
 70
     1
102
RTVSPropertyOp1
 70
     1
102
RTVSPropertyOp2
 70
     1
102
RTVSPropertyOp3
 70
     1
102
RTVSPropertyOp4
 70
     1
102
RTVSPropertyOp5
 70
     1
102
RTVSPropertyOp6
 70
     1
102
RTVSPropertyOp7
 70
     1
102
RTVSPropertyOp8
 70
     1
102
RTVSPropertyOp9
 70
     1
102
RTVSPropertyOp10
 70
     1
102
RTVSPropertyOp11
 70
     1
102
RTVSPropertyOp12
 70
     1
102
RTVSPropertyOp13
 70
     1
102
RTVSPropertyOp14
 70
     1
102
RTVSPropertyOp15
 70
     1
102
RTVSPropertyOp16
 70
     1
102
RTVSPropertyOp17
 70
     1
102
RTVSPropertyOp18
 70
     1
102
RTVSPropertyOp19
 70
     1
102
RTVSPropertyOp20
 70
     1
102
RTVSPropertyOp21
 70
     1
102
RTVSPropertyOp22
 70
     1
102
RTVSPropertyOp23
 70
     1
102
RTVSPropertyOp24
 70
     1
102
RTVSPropertyOp25
 70
     1
102
RTVSPropertyOp26
 70
     1
102
RTVSPropertyOp27
 70
     1
102
RTVSPropertyOp28
 70
     1
102
RTVSPropertyOp29
 70
     1
102
RTVSPropertyOp30
 70
     1
102
RTVSPropertyOp31
 70
     1
102
RTVSPropertyOp32
 70
     1
  0
XRECORD
  5
E9F
102
{ACAD_REACTORS
330
E9E
102
}
330
E9E
100
AcDbXrecord
280
     1
102
RTVSPropertyOp0
 70
     0
102
RTVSPropertyOp1
 70
     0
102
RTVSPropertyOp2
 70
     0
102
RTVSPropertyOp3
 70
     0
102
RTVSPropertyOp4
 70
     0
102
RTVSPropertyOp5
 70
     0
102
RTVSPropertyOp6
 70
     0
102
RTVSPropertyOp7
 70
     0
102
RTVSPropertyOp8
 70
     0
102
RTVSPropertyOp9
 70
     0
102
RTVSPropertyOp10
 70
     0
102
RTVSPropertyOp11
 70
     0
102
RTVSPropertyOp12
 70
     0
102
RTVSPropertyOp13
 70
     0
102
RTVSPropertyOp14
 70
     2
102
RTVSPropertyOp15
 70
     0
102
RTVSPropertyOp16
 70
     0
102
RTVSPropertyOp17
 70
     0
102
RTVSPropertyOp18
 70
     0
102
RTVSPropertyOp19
 70
     0
102
RTVSPropertyOp20
 70
     0
102
RTVSPropertyOp21
 70
     0
102
RTVSPropertyOp22
 70
     0
102
RTVSPropertyOp23
 70
     0
102
RTVSPropertyOp24
 70
     0
102
RTVSPropertyOp25
 70
     0
102
RTVSPropertyOp26
 70
     0
102
RTVSPropertyOp27
 70
     0
102
RTVSPropertyOp28
 70
     1
102
RTVSPropertyOp29
 70
     1
102
RTVSPropertyOp30
 70
     1
102
RTVSPropertyOp31
 70
     1
102
RTVSPropertyOp32
 70
     1
  0
XRECORD
  5
E8D
102
{ACAD_REACTORS
330
E8C
102
}
330
E8C
100
AcDbXrecord
280
     1
102
RTVSPropertyOp0
 70
     1
102
RTVSPropertyOp1
 70
     1
102
RTVSPropertyOp2
 70
     1
102
RTVSPropertyOp3
 70
     1
102
RTVSPropertyOp4
 70
     1
102
RTVSPropertyOp5
 70
     1
102
RTVSPropertyOp6
 70
     1
102
RTVSPropertyOp7
 70
     1
102
RTVSPropertyOp8
 70
     1
102
RTVSPropertyOp9
 70
     1
102
RTVSPropertyOp10
 70
     1
102
RTVSPropertyOp11
 70
     1
102
RTVSPropertyOp12
 70
     1
102
RTVSPropertyOp13
 70
     1
102
RTVSPropertyOp14
 70
     1
102
RTVSPropertyOp15
 70
     1
102
RTVSPropertyOp16
 70
     1
102
RTVSPropertyOp17
 70
     1
102
RTVSPropertyOp18
 70
     1
102
RTVSPropertyOp19
 70
     1
102
RTVSPropertyOp20
 70
     1
102
RTVSPropertyOp21
 70
     1
102
RTVSPropertyOp22
 70
     1
102
RTVSPropertyOp23
 70
     1
102
RTVSPropertyOp24
 70
     1
102
RTVSPropertyOp25
 70
     1
102
RTVSPropertyOp26
 70
     1
102
RTVSPropertyOp27
 70
     1
102
RTVSPropertyOp28
 70
     1
102
RTVSPropertyOp29
 70
     1
102
RTVSPropertyOp30
 70
     1
102
RTVSPropertyOp31
 70
     1
102
RTVSPropertyOp32
 70
     1
  0
XRECORD
  5
E71
102
{ACAD_REACTORS
330
E70
102
}
330
E70
100
AcDbXrecord
280
     1
102
RTVSPropertyOp0
 70
     1
102
RTVSPropertyOp1
 70
     1
102
RTVSPropertyOp2
 70
     1
102
RTVSPropertyOp3
 70
     1
102
RTVSPropertyOp4
 70
     1
102
RTVSPropertyOp5
 70
     1
102
RTVSPropertyOp6
 70
     1
102
RTVSPropertyOp7
 70
     1
102
RTVSPropertyOp8
 70
     1
102
RTVSPropertyOp9
 70
     1
102
RTVSPropertyOp10
 70
     1
102
RTVSPropertyOp11
 70
     1
102
RTVSPropertyOp12
 70
     1
102
RTVSPropertyOp13
 70
     1
102
RTVSPropertyOp14
 70
     1
102
RTVSPropertyOp15
 70
     1
102
RTVSPropertyOp16
 70
     1
102
RTVSPropertyOp17
 70
     1
102
RTVSPropertyOp18
 70
     1
102
RTVSPropertyOp19
 70
     1
102
RTVSPropertyOp20
 70
     1
102
RTVSPropertyOp21
 70
     1
102
RTVSPropertyOp22
 70
     1
102
RTVSPropertyOp23
 70
     1
102
RTVSPropertyOp24
 70
     1
102
RTVSPropertyOp25
 70
     1
102
RTVSPropertyOp26
 70
     1
102
RTVSPropertyOp27
 70
     1
102
RTVSPropertyOp28
 70
     1
102
RTVSPropertyOp29
 70
     1
102
RTVSPropertyOp30
 70
     1
102
RTVSPropertyOp31
 70
     1
102
RTVSPropertyOp32
 70
     1
  0
XRECORD
  5
E73
102
{ACAD_REACTORS
330
E72
102
}
330
E72
100
AcDbXrecord
280
     1
102
RTVSPropertyOp0
 70
     1
102
RTVSPropertyOp1
 70
     1
102
RTVSPropertyOp2
 70
     1
102
RTVSPropertyOp3
 70
     1
102
RTVSPropertyOp4
 70
     1
102
RTVSPropertyOp5
 70
     1
102
RTVSPropertyOp6
 70
     1
102
RTVSPropertyOp7
 70
     1
102
RTVSPropertyOp8
 70
     1
102
RTVSPropertyOp9
 70
     1
102
RTVSPropertyOp10
 70
     1
102
RTVSPropertyOp11
 70
     1
102
RTVSPropertyOp12
 70
     1
102
RTVSPropertyOp13
 70
     1
102
RTVSPropertyOp14
 70
     1
102
RTVSPropertyOp15
 70
     1
102
RTVSPropertyOp16
 70
     1
102
RTVSPropertyOp17
 70
     1
102
RTVSPropertyOp18
 70
     1
102
RTVSPropertyOp19
 70
     1
102
RTVSPropertyOp20
 70
     1
102
RTVSPropertyOp21
 70
     1
102
RTVSPropertyOp22
 70
     1
102
RTVSPropertyOp23
 70
     1
102
RTVSPropertyOp24
 70
     1
102
RTVSPropertyOp25
 70
     1
102
RTVSPropertyOp26
 70
     1
102
RTVSPropertyOp27
 70
     1
102
RTVSPropertyOp28
 70
     1
102
RTVSPropertyOp29
 70
     1
102
RTVSPropertyOp30
 70
     1
102
RTVSPropertyOp31
 70
     1
102
RTVSPropertyOp32
 70
     1
  0
XRECORD
  5
E75
102
{ACAD_REACTORS
330
E74
102
}
330
E74
100
AcDbXrecord
280
     1
102
RTVSPropertyOp0
 70
     1
102
RTVSPropertyOp1
 70
     1
102
RTVSPropertyOp2
 70
     1
102
RTVSPropertyOp3
 70
     1
102
RTVSPropertyOp4
 70
     1
102
RTVSPropertyOp5
 70
     1
102
RTVSPropertyOp6
 70
     1
102
RTVSPropertyOp7
 70
     1
102
RTVSPropertyOp8
 70
     1
102
RTVSPropertyOp9
 70
     1
102
RTVSPropertyOp10
 70
     1
102
RTVSPropertyOp11
 70
     1
102
RTVSPropertyOp12
 70
     1
102
RTVSPropertyOp13
 70
     1
102
RTVSPropertyOp14
 70
     1
102
RTVSPropertyOp15
 70
     1
102
RTVSPropertyOp16
 70
     1
102
RTVSPropertyOp17
 70
     1
102
RTVSPropertyOp18
 70
     1
102
RTVSPropertyOp19
 70
     1
102
RTVSPropertyOp20
 70
     1
102
RTVSPropertyOp21
 70
     1
102
RTVSPropertyOp22
 70
     1
102
RTVSPropertyOp23
 70
     1
102
RTVSPropertyOp24
 70
     1
102
RTVSPropertyOp25
 70
     1
102
RTVSPropertyOp26
 70
     1
102
RTVSPropertyOp27
 70
     1
102
RTVSPropertyOp28
 70
     1
102
RTVSPropertyOp29
 70
     1
102
RTVSPropertyOp30
 70
     1
102
RTVSPropertyOp31
 70
     1
102
RTVSPropertyOp32
 70
     1
  0
XRECORD
  5
E77
102
{ACAD_REACTORS
330
E76
102
}
330
E76
100
AcDbXrecord
280
     1
102
RTVSPropertyOp0
 70
     1
102
RTVSPropertyOp1
 70
     1
102
RTVSPropertyOp2
 70
     1
102
RTVSPropertyOp3
 70
     1
102
RTVSPropertyOp4
 70
     1
102
RTVSPropertyOp5
 70
     1
102
RTVSPropertyOp6
 70
     1
102
RTVSPropertyOp7
 70
     1
102
RTVSPropertyOp8
 70
     1
102
RTVSPropertyOp9
 70
     1
102
RTVSPropertyOp10
 70
     1
102
RTVSPropertyOp11
 70
     1
102
RTVSPropertyOp12
 70
     1
102
RTVSPropertyOp13
 70
     1
102
RTVSPropertyOp14
 70
     1
102
RTVSPropertyOp15
 70
     1
102
RTVSPropertyOp16
 70
     1
102
RTVSPropertyOp17
 70
     1
102
RTVSPropertyOp18
 70
     1
102
RTVSPropertyOp19
 70
     1
102
RTVSPropertyOp20
 70
     1
102
RTVSPropertyOp21
 70
     1
102
RTVSPropertyOp22
 70
     1
102
RTVSPropertyOp23
 70
     1
102
RTVSPropertyOp24
 70
     1
102
RTVSPropertyOp25
 70
     1
102
RTVSPropertyOp26
 70
     1
102
RTVSPropertyOp27
 70
     1
102
RTVSPropertyOp28
 70
     1
102
RTVSPropertyOp29
 70
     1
102
RTVSPropertyOp30
 70
     1
102
RTVSPropertyOp31
 70
     1
102
RTVSPropertyOp32
 70
     1
  0
XRECORD
  5
E7F
102
{ACAD_REACTORS
330
E7E
102
}
330
E7E
100
AcDbXrecord
280
     1
102
RTVSPropertyOp0
 70
     1
102
RTVSPropertyOp1
 70
     1
102
RTVSPropertyOp2
 70
     1
102
RTVSPropertyOp3
 70
     1
102
RTVSPropertyOp4
 70
     1
102
RTVSPropertyOp5
 70
     1
102
RTVSPropertyOp6
 70
     1
102
RTVSPropertyOp7
 70
     1
102
RTVSPropertyOp8
 70
     1
102
RTVSPropertyOp9
 70
     1
102
RTVSPropertyOp10
 70
     1
102
RTVSPropertyOp11
 70
     1
102
RTVSPropertyOp12
 70
     1
102
RTVSPropertyOp13
 70
     1
102
RTVSPropertyOp14
 70
     1
102
RTVSPropertyOp15
 70
     1
102
RTVSPropertyOp16
 70
     1
102
RTVSPropertyOp17
 70
     1
102
RTVSPropertyOp18
 70
     1
102
RTVSPropertyOp19
 70
     1
102
RTVSPropertyOp20
 70
     1
102
RTVSPropertyOp21
 70
     1
102
RTVSPropertyOp22
 70
     1
102
RTVSPropertyOp23
 70
     1
102
RTVSPropertyOp24
 70
     1
102
RTVSPropertyOp25
 70
     1
102
RTVSPropertyOp26
 70
     1
102
RTVSPropertyOp27
 70
     1
102
RTVSPropertyOp28
 70
     1
102
RTVSPropertyOp29
 70
     1
102
RTVSPropertyOp30
 70
     1
102
RTVSPropertyOp31
 70
     1
102
RTVSPropertyOp32
 70
     1
  0
XRECORD
  5
E9B
102
{ACAD_REACTORS
330
E9A
102
}
330
E9A
100
AcDbXrecord
280
     1
102
RTVSPropertyOp0
 70
     0
102
RTVSPropertyOp1
 70
     0
102
RTVSPropertyOp2
 70
     0
102
RTVSPropertyOp3
 70
     0
102
RTVSPropertyOp4
 70
     0
102
RTVSPropertyOp5
 70
     0
102
RTVSPropertyOp6
 70
     0
102
RTVSPropertyOp7
 70
     0
102
RTVSPropertyOp8
 70
     0
102
RTVSPropertyOp9
 70
     0
102
RTVSPropertyOp10
 70
     0
102
RTVSPropertyOp11
 70
     0
102
RTVSPropertyOp12
 70
     0
102
RTVSPropertyOp13
 70
     0
102
RTVSPropertyOp14
 70
     2
102
RTVSPropertyOp15
 70
     0
102
RTVSPropertyOp16
 70
     0
102
RTVSPropertyOp17
 70
     0
102
RTVSPropertyOp18
 70
     0
102
RTVSPropertyOp19
 70
     0
102
RTVSPropertyOp20
 70
     0
102
RTVSPropertyOp21
 70
     0
102
RTVSPropertyOp22
 70
     0
102
RTVSPropertyOp23
 70
     0
102
RTVSPropertyOp24
 70
     0
102
RTVSPropertyOp25
 70
     0
102
RTVSPropertyOp26
 70
     0
102
RTVSPropertyOp27
 70
     0
102
RTVSPropertyOp28
 70
     1
102
RTVSPropertyOp29
 70
     1
102
RTVSPropertyOp30
 70
     1
102
RTVSPropertyOp31
 70
     1
102
RTVSPropertyOp32
 70
     1
  0
XRECORD
  5
E8B
102
{ACAD_REACTORS
330
E8A
102
}
330
E8A
100
AcDbXrecord
280
     1
102
RTVSPropertyOp0
 70
     1
102
RTVSPropertyOp1
 70
     1
102
RTVSPropertyOp2
 70
     1
102
RTVSPropertyOp3
 70
     1
102
RTVSPropertyOp4
 70
     1
102
RTVSPropertyOp5
 70
     1
102
RTVSPropertyOp6
 70
     1
102
RTVSPropertyOp7
 70
     1
102
RTVSPropertyOp8
 70
     1
102
RTVSPropertyOp9
 70
     1
102
RTVSPropertyOp10
 70
     1
102
RTVSPropertyOp11
 70
     1
102
RTVSPropertyOp12
 70
     1
102
RTVSPropertyOp13
 70
     1
102
RTVSPropertyOp14
 70
     1
102
RTVSPropertyOp15
 70
     1
102
RTVSPropertyOp16
 70
     1
102
RTVSPropertyOp17
 70
     1
102
RTVSPropertyOp18
 70
     1
102
RTVSPropertyOp19
 70
     1
102
RTVSPropertyOp20
 70
     1
102
RTVSPropertyOp21
 70
     1
102
RTVSPropertyOp22
 70
     1
102
RTVSPropertyOp23
 70
     1
102
RTVSPropertyOp24
 70
     1
102
RTVSPropertyOp25
 70
     1
102
RTVSPropertyOp26
 70
     1
102
RTVSPropertyOp27
 70
     1
102
RTVSPropertyOp28
 70
     1
102
RTVSPropertyOp29
 70
     1
102
RTVSPropertyOp30
 70
     1
102
RTVSPropertyOp31
 70
     1
102
RTVSPropertyOp32
 70
     1
  0
XRECORD
  5
E9D
102
{ACAD_REACTORS
330
E9C
102
}
330
E9C
100
AcDbXrecord
280
     1
102
RTVSPropertyOp0
 70
     0
102
RTVSPropertyOp1
 70
     0
102
RTVSPropertyOp2
 70
     0
102
RTVSPropertyOp3
 70
     0
102
RTVSPropertyOp4
 70
     0
102
RTVSPropertyOp5
 70
     0
102
RTVSPropertyOp6
 70
     0
102
RTVSPropertyOp7
 70
     0
102
RTVSPropertyOp8
 70
     0
102
RTVSPropertyOp9
 70
     0
102
RTVSPropertyOp10
 70
     0
102
RTVSPropertyOp11
 70
     0
102
RTVSPropertyOp12
 70
     0
102
RTVSPropertyOp13
 70
     0
102
RTVSPropertyOp14
 70
     2
102
RTVSPropertyOp15
 70
     0
102
RTVSPropertyOp16
 70
     0
102
RTVSPropertyOp17
 70
     0
102
RTVSPropertyOp18
 70
     0
102
RTVSPropertyOp19
 70
     0
102
RTVSPropertyOp20
 70
     0
102
RTVSPropertyOp21
 70
     0
102
RTVSPropertyOp22
 70
     0
102
RTVSPropertyOp23
 70
     0
102
RTVSPropertyOp24
 70
     0
102
RTVSPropertyOp25
 70
     0
102
RTVSPropertyOp26
 70
     0
102
RTVSPropertyOp27
 70
     0
102
RTVSPropertyOp28
 70
     1
102
RTVSPropertyOp29
 70
     1
102
RTVSPropertyOp30
 70
     1
102
RTVSPropertyOp31
 70
     1
102
RTVSPropertyOp32
 70
     1
  0
XRECORD
  5
E83
102
{ACAD_REACTORS
330
E82
102
}
330
E82
100
AcDbXrecord
280
     1
102
RTVSPropertyOp0
 70
     1
102
RTVSPropertyOp1
 70
     1
102
RTVSPropertyOp2
 70
     1
102
RTVSPropertyOp3
 70
     1
102
RTVSPropertyOp4
 70
     1
102
RTVSPropertyOp5
 70
     1
102
RTVSPropertyOp6
 70
     1
102
RTVSPropertyOp7
 70
     1
102
RTVSPropertyOp8
 70
     1
102
RTVSPropertyOp9
 70
     1
102
RTVSPropertyOp10
 70
     1
102
RTVSPropertyOp11
 70
     1
102
RTVSPropertyOp12
 70
     1
102
RTVSPropertyOp13
 70
     1
102
RTVSPropertyOp14
 70
     1
102
RTVSPropertyOp15
 70
     1
102
RTVSPropertyOp16
 70
     1
102
RTVSPropertyOp17
 70
     1
102
RTVSPropertyOp18
 70
     1
102
RTVSPropertyOp19
 70
     1
102
RTVSPropertyOp20
 70
     1
102
RTVSPropertyOp21
 70
     1
102
RTVSPropertyOp22
 70
     1
102
RTVSPropertyOp23
 70
     1
102
RTVSPropertyOp24
 70
     1
102
RTVSPropertyOp25
 70
     1
102
RTVSPropertyOp26
 70
     1
102
RTVSPropertyOp27
 70
     1
102
RTVSPropertyOp28
 70
     1
102
RTVSPropertyOp29
 70
     1
102
RTVSPropertyOp30
 70
     1
102
RTVSPropertyOp31
 70
     1
102
RTVSPropertyOp32
 70
     1
  0
XRECORD
  5
E99
102
{ACAD_REACTORS
330
E98
102
}
330
E98
100
AcDbXrecord
280
     1
102
RTVSPropertyOp0
 70
     1
102
RTVSPropertyOp1
 70
     1
102
RTVSPropertyOp2
 70
     1
102
RTVSPropertyOp3
 70
     1
102
RTVSPropertyOp4
 70
     1
102
RTVSPropertyOp5
 70
     1
102
RTVSPropertyOp6
 70
     1
102
RTVSPropertyOp7
 70
     1
102
RTVSPropertyOp8
 70
     1
102
RTVSPropertyOp9
 70
     1
102
RTVSPropertyOp10
 70
     1
102
RTVSPropertyOp11
 70
     1
102
RTVSPropertyOp12
 70
     1
102
RTVSPropertyOp13
 70
     1
102
RTVSPropertyOp14
 70
     1
102
RTVSPropertyOp15
 70
     1
102
RTVSPropertyOp16
 70
     1
102
RTVSPropertyOp17
 70
     1
102
RTVSPropertyOp18
 70
     1
102
RTVSPropertyOp19
 70
     1
102
RTVSPropertyOp20
 70
     1
102
RTVSPropertyOp21
 70
     1
102
RTVSPropertyOp22
 70
     1
102
RTVSPropertyOp23
 70
     1
102
RTVSPropertyOp24
 70
     1
102
RTVSPropertyOp25
 70
     1
102
RTVSPropertyOp26
 70
     1
102
RTVSPropertyOp27
 70
     1
102
RTVSPropertyOp28
 70
     1
102
RTVSPropertyOp29
 70
     1
102
RTVSPropertyOp30
 70
     1
102
RTVSPropertyOp31
 70
     1
102
RTVSPropertyOp32
 70
     1
  0
XRECORD
  5
E97
102
{ACAD_REACTORS
330
E96
102
}
330
E96
100
AcDbXrecord
280
     1
102
RTVSPropertyOp0
 70
     1
102
RTVSPropertyOp1
 70
     1
102
RTVSPropertyOp2
 70
     1
102
RTVSPropertyOp3
 70
     1
102
RTVSPropertyOp4
 70
     1
102
RTVSPropertyOp5
 70
     1
102
RTVSPropertyOp6
 70
     1
102
RTVSPropertyOp7
 70
     1
102
RTVSPropertyOp8
 70
     1
102
RTVSPropertyOp9
 70
     1
102
RTVSPropertyOp10
 70
     1
102
RTVSPropertyOp11
 70
     1
102
RTVSPropertyOp12
 70
     1
102
RTVSPropertyOp13
 70
     1
102
RTVSPropertyOp14
 70
     1
102
RTVSPropertyOp15
 70
     1
102
RTVSPropertyOp16
 70
     1
102
RTVSPropertyOp17
 70
     1
102
RTVSPropertyOp18
 70
     1
102
RTVSPropertyOp19
 70
     1
102
RTVSPropertyOp20
 70
     1
102
RTVSPropertyOp21
 70
     1
102
RTVSPropertyOp22
 70
     1
102
RTVSPropertyOp23
 70
     1
102
RTVSPropertyOp24
 70
     1
102
RTVSPropertyOp25
 70
     1
102
RTVSPropertyOp26
 70
     1
102
RTVSPropertyOp27
 70
     1
102
RTVSPropertyOp28
 70
     1
102
RTVSPropertyOp29
 70
     1
102
RTVSPropertyOp30
 70
     1
102
RTVSPropertyOp31
 70
     1
102
RTVSPropertyOp32
 70
     1
  0
XRECORD
  5
E91
102
{ACAD_REACTORS
330
E90
102
}
330
E90
100
AcDbXrecord
280
     1
102
RTVSPropertyOp0
 70
     1
102
RTVSPropertyOp1
 70
     1
102
RTVSPropertyOp2
 70
     1
102
RTVSPropertyOp3
 70
     1
102
RTVSPropertyOp4
 70
     1
102
RTVSPropertyOp5
 70
     1
102
RTVSPropertyOp6
 70
     1
102
RTVSPropertyOp7
 70
     1
102
RTVSPropertyOp8
 70
     1
102
RTVSPropertyOp9
 70
     1
102
RTVSPropertyOp10
 70
     1
102
RTVSPropertyOp11
 70
     1
102
RTVSPropertyOp12
 70
     1
102
RTVSPropertyOp13
 70
     1
102
RTVSPropertyOp14
 70
     1
102
RTVSPropertyOp15
 70
     1
102
RTVSPropertyOp16
 70
     1
102
RTVSPropertyOp17
 70
     1
102
RTVSPropertyOp18
 70
     1
102
RTVSPropertyOp19
 70
     1
102
RTVSPropertyOp20
 70
     1
102
RTVSPropertyOp21
 70
     1
102
RTVSPropertyOp22
 70
     1
102
RTVSPropertyOp23
 70
     1
102
RTVSPropertyOp24
 70
     1
102
RTVSPropertyOp25
 70
     1
102
RTVSPropertyOp26
 70
     1
102
RTVSPropertyOp27
 70
     1
102
RTVSPropertyOp28
 70
     1
102
RTVSPropertyOp29
 70
     1
102
RTVSPropertyOp30
 70
     1
102
RTVSPropertyOp31
 70
     1
102
RTVSPropertyOp32
 70
     1
  0
XRECORD
  5
E93
102
{ACAD_REACTORS
330
E92
102
}
330
E92
100
AcDbXrecord
280
     1
102
RTVSPropertyOp0
 70
     1
102
RTVSPropertyOp1
 70
     1
102
RTVSPropertyOp2
 70
     1
102
RTVSPropertyOp3
 70
     1
102
RTVSPropertyOp4
 70
     1
102
RTVSPropertyOp5
 70
     1
102
RTVSPropertyOp6
 70
     1
102
RTVSPropertyOp7
 70
     1
102
RTVSPropertyOp8
 70
     1
102
RTVSPropertyOp9
 70
     1
102
RTVSPropertyOp10
 70
     1
102
RTVSPropertyOp11
 70
     1
102
RTVSPropertyOp12
 70
     1
102
RTVSPropertyOp13
 70
     1
102
RTVSPropertyOp14
 70
     1
102
RTVSPropertyOp15
 70
     1
102
RTVSPropertyOp16
 70
     1
102
RTVSPropertyOp17
 70
     1
102
RTVSPropertyOp18
 70
     1
102
RTVSPropertyOp19
 70
     1
102
RTVSPropertyOp20
 70
     1
102
RTVSPropertyOp21
 70
     1
102
RTVSPropertyOp22
 70
     1
102
RTVSPropertyOp23
 70
     1
102
RTVSPropertyOp24
 70
     1
102
RTVSPropertyOp25
 70
     1
102
RTVSPropertyOp26
 70
     1
102
RTVSPropertyOp27
 70
     1
102
RTVSPropertyOp28
 70
     1
102
RTVSPropertyOp29
 70
     1
102
RTVSPropertyOp30
 70
     1
102
RTVSPropertyOp31
 70
     1
102
RTVSPropertyOp32
 70
     1
  0
XRECORD
  5
E89
102
{ACAD_REACTORS
330
E88
102
}
330
E88
100
AcDbXrecord
280
     1
102
RTVSPropertyOp0
 70
     1
102
RTVSPropertyOp1
 70
     1
102
RTVSPropertyOp2
 70
     1
102
RTVSPropertyOp3
 70
     1
102
RTVSPropertyOp4
 70
     1
102
RTVSPropertyOp5
 70
     1
102
RTVSPropertyOp6
 70
     1
102
RTVSPropertyOp7
 70
     1
102
RTVSPropertyOp8
 70
     1
102
RTVSPropertyOp9
 70
     1
102
RTVSPropertyOp10
 70
     1
102
RTVSPropertyOp11
 70
     1
102
RTVSPropertyOp12
 70
     1
102
RTVSPropertyOp13
 70
     1
102
RTVSPropertyOp14
 70
     1
102
RTVSPropertyOp15
 70
     1
102
RTVSPropertyOp16
 70
     1
102
RTVSPropertyOp17
 70
     1
102
RTVSPropertyOp18
 70
     1
102
RTVSPropertyOp19
 70
     1
102
RTVSPropertyOp20
 70
     1
102
RTVSPropertyOp21
 70
     1
102
RTVSPropertyOp22
 70
     1
102
RTVSPropertyOp23
 70
     1
102
RTVSPropertyOp24
 70
     1
102
RTVSPropertyOp25
 70
     1
102
RTVSPropertyOp26
 70
     1
102
RTVSPropertyOp27
 70
     1
102
RTVSPropertyOp28
 70
     1
102
RTVSPropertyOp29
 70
     1
102
RTVSPropertyOp30
 70
     1
102
RTVSPropertyOp31
 70
     1
102
RTVSPropertyOp32
 70
     1
  0
XRECORD
  5
E7D
102
{ACAD_REACTORS
330
E7C
102
}
330
E7C
100
AcDbXrecord
280
     1
102
RTVSPropertyOp0
 70
     1
102
RTVSPropertyOp1
 70
     1
102
RTVSPropertyOp2
 70
     1
102
RTVSPropertyOp3
 70
     1
102
RTVSPropertyOp4
 70
     1
102
RTVSPropertyOp5
 70
     1
102
RTVSPropertyOp6
 70
     1
102
RTVSPropertyOp7
 70
     1
102
RTVSPropertyOp8
 70
     1
102
RTVSPropertyOp9
 70
     1
102
RTVSPropertyOp10
 70
     1
102
RTVSPropertyOp11
 70
     1
102
RTVSPropertyOp12
 70
     1
102
RTVSPropertyOp13
 70
     1
102
RTVSPropertyOp14
 70
     1
102
RTVSPropertyOp15
 70
     1
102
RTVSPropertyOp16
 70
     1
102
RTVSPropertyOp17
 70
     1
102
RTVSPropertyOp18
 70
     1
102
RTVSPropertyOp19
 70
     1
102
RTVSPropertyOp20
 70
     1
102
RTVSPropertyOp21
 70
     1
102
RTVSPropertyOp22
 70
     1
102
RTVSPropertyOp23
 70
     1
102
RTVSPropertyOp24
 70
     1
102
RTVSPropertyOp25
 70
     1
102
RTVSPropertyOp26
 70
     1
102
RTVSPropertyOp27
 70
     1
102
RTVSPropertyOp28
 70
     1
102
RTVSPropertyOp29
 70
     1
102
RTVSPropertyOp30
 70
     1
102
RTVSPropertyOp31
 70
     1
102
RTVSPropertyOp32
 70
     1
  0
XRECORD
  5
E95
102
{ACAD_REACTORS
330
E94
102
}
330
E94
100
AcDbXrecord
280
     1
102
RTVSPropertyOp0
 70
     1
102
RTVSPropertyOp1
 70
     1
102
RTVSPropertyOp2
 70
     1
102
RTVSPropertyOp3
 70
     1
102
RTVSPropertyOp4
 70
     1
102
RTVSPropertyOp5
 70
     1
102
RTVSPropertyOp6
 70
     1
102
RTVSPropertyOp7
 70
     1
102
RTVSPropertyOp8
 70
     1
102
RTVSPropertyOp9
 70
     1
102
RTVSPropertyOp10
 70
     1
102
RTVSPropertyOp11
 70
     1
102
RTVSPropertyOp12
 70
     1
102
RTVSPropertyOp13
 70
     1
102
RTVSPropertyOp14
 70
     1
102
RTVSPropertyOp15
 70
     1
102
RTVSPropertyOp16
 70
     1
102
RTVSPropertyOp17
 70
     1
102
RTVSPropertyOp18
 70
     1
102
RTVSPropertyOp19
 70
     1
102
RTVSPropertyOp20
 70
     1
102
RTVSPropertyOp21
 70
     1
102
RTVSPropertyOp22
 70
     1
102
RTVSPropertyOp23
 70
     1
102
RTVSPropertyOp24
 70
     1
102
RTVSPropertyOp25
 70
     1
102
RTVSPropertyOp26
 70
     1
102
RTVSPropertyOp27
 70
     1
102
RTVSPropertyOp28
 70
     1
102
RTVSPropertyOp29
 70
     1
102
RTVSPropertyOp30
 70
     1
102
RTVSPropertyOp31
 70
     1
102
RTVSPropertyOp32
 70
     1
  0
ENDSEC
  0
EOF
