  0
SECTION
  2
HEADER
  9
$ACADVER
  1
AC1018
  9
$ACADMAINTVER
 70
   104
  9
$DWGCODEPAGE
  3
ANSI_1252
  9
$AUTHOR
  1
EC
  9
$REVISIONNUMBER
  1
-
  9
$CUSTOMPROPERTYTAG
  1
Manager
  9
$CUSTOMPROPERTY
  1

  9
$CUSTOMPROPERTYTAG
  1
Company
  9
$CUSTOMPROPERTY
  1

  9
$CUSTOMPROPERTYTAG
  1
Category
  9
$CUSTOMPROPERTY
  1

  9
$CUSTOMPROPERTYTAG
  1
Part Number
  9
$CUSTOMPROPERTY
  1
N1P2436-S
  9
$CUSTOMPROPERTYTAG
  1
Description
  9
$CUSTOMPROPERTY
  1
N1P PANEL MASTER VIEW
  9
$CUSTOMPROPERTYTAG
  1
Project
  9
$CUSTOMPROPERTY
  1

  9
$CUSTOMPROPERTYTAG
  1
Designer
  9
$CUSTOMPROPERTY
  1
EC
  9
$CUSTOMPROPERTYTAG
  1
Engineer
  9
$CUSTOMPROPERTY
  1

  9
$CUSTOMPROPERTYTAG
  1
Authority
  9
$CUSTOMPROPERTY
  1

  9
$CUSTOMPROPERTYTAG
  1
Cost Center
  9
$CUSTOMPROPERTY
  1

  9
$CUSTOMPROPERTYTAG
  1
Vendor
  9
$CUSTOMPROPERTY
  1

  9
$CUSTOMPROPERTYTAG
  1
User Status
  9
$CUSTOMPROPERTY
  1

  9
$CUSTOMPROPERTYTAG
  1
Design Status
  9
$CUSTOMPROPERTY
  1
WorkInProgress
  9
$CUSTOMPROPERTYTAG
  1
Checked by
  9
$CUSTOMPROPERTY
  1
JG
  9
$CUSTOMPROPERTYTAG
  1
Date Checked
  9
$CUSTOMPROPERTY
  1
02/19/2009
  9
$CUSTOMPROPERTYTAG
  1
Engr Approved by
  9
$CUSTOMPROPERTY
  1

  9
$CUSTOMPROPERTYTAG
  1
Date Eng Approved
  9
$CUSTOMPROPERTY
  1
02/19/2009
  9
$CUSTOMPROPERTYTAG
  1
Mfg Approved by
  9
$CUSTOMPROPERTY
  1

  9
$CUSTOMPROPERTYTAG
  1
DWG. NO
  9
$CUSTOMPROPERTY
  1

  9
$CUSTOMPROPERTYTAG
  1
NUMBER OF SHEETS
  9
$CUSTOMPROPERTY
  1
1
  9
$CUSTOMPROPERTYTAG
  1
DRAWING #
  9
$CUSTOMPROPERTY
  1
1
  9
$INSBASE
 10
0.0
 20
0.0
 30
0.0
  9
$EXTMIN
 10
0.0
 20
0.0
 30
0.0
  9
$EXTMAX
 10
102.0
 20
66.0
 30
0.0
  9
$LIMMIN
 10
0.0
 20
0.0
  9
$LIMMAX
 10
102.0
 20
66.0
  9
$ORTHOMODE
 70
     0
  9
$REGENMODE
 70
     1
  9
$FILLMODE
 70
     1
  9
$QTEXTMODE
 70
     0
  9
$MIRRTEXT
 70
     0
  9
$LTSCALE
 40
6.0
  9
$ATTMODE
 70
     1
  9
$TEXTSIZE
 40
0.2
  9
$TRACEWID
 40
0.05
  9
$TEXTSTYLE
  7
Standard
  9
$CLAYER
  8
0
  9
$CELTYPE
  6
ByLayer
  9
$CECOLOR
 62
   256
  9
$CELTSCALE
 40
1.0
  9
$DISPSILH
 70
     0
  9
$DIMSCALE
 40
1.0
  9
$DIMASZ
 40
0.0708661417322835
  9
$DIMEXO
 40
0.0625
  9
$DIMDLI
 40
0.38
  9
$DIMRND
 40
0.0
  9
$DIMDLE
 40
0.0
  9
$DIMEXE
 40
0.18
  9
$DIMTP
 40
0.0
  9
$DIMTM
 40
0.0
  9
$DIMTXT
 40
0.0708661417322835
  9
$DIMCEN
 40
0.09
  9
$DIMTSZ
 40
0.0
  9
$DIMTOL
 70
     0
  9
$DIMLIM
 70
     0
  9
$DIMTIH
 70
     1
  9
$DIMTOH
 70
     1
  9
$DIMSE1
 70
     0
  9
$DIMSE2
 70
     0
  9
$DIMTAD
 70
     0
  9
$DIMZIN
 70
     0
  9
$DIMBLK
  1

  9
$DIMASO
 70
     1
  9
$DIMSHO
 70
     1
  9
$DIMPOST
  1

  9
$DIMAPOST
  1

  9
$DIMALT
 70
     0
  9
$DIMALTD
 70
     2
  9
$DIMALTF
 40
25.4
  9
$DIMLFAC
 40
1.0
  9
$DIMTOFL
 70
     0
  9
$DIMTVP
 40
0.0
  9
$DIMTIX
 70
     0
  9
$DIMSOXD
 70
     0
  9
$DIMSAH
 70
     0
  9
$DIMBLK1
  1

  9
$DIMBLK2
  1

  9
$DIMSTYLE
  2
STANDARD
  9
$DIMCLRD
 70
     0
  9
$DIMCLRE
 70
     0
  9
$DIMCLRT
 70
     0
  9
$DIMTFAC
 40
1.0
  9
$DIMGAP
 40
0.09
  9
$DIMJUST
 70
     0
  9
$DIMSD1
 70
     0
  9
$DIMSD2
 70
     0
  9
$DIMTOLJ
 70
     1
  9
$DIMTZIN
 70
     0
  9
$DIMALTZ
 70
     0
  9
$DIMALTTZ
 70
     0
  9
$DIMUPT
 70
     0
  9
$DIMDEC
 70
     4
  9
$DIMTDEC
 70
     4
  9
$DIMALTU
 70
     2
  9
$DIMALTTD
 70
     2
  9
$DIMTXSTY
  7
Standard
  9
$DIMAUNIT
 70
     0
  9
$DIMADEC
 70
     0
  9
$DIMALTRND
 40
0.0
  9
$DIMAZIN
 70
     0
  9
$DIMDSEP
 70
    46
  9
$DIMATFIT
 70
     3
  9
$DIMFRAC
 70
     0
  9
$DIMLDRBLK
  1

  9
$DIMLUNIT
 70
     2
  9
$DIMLWD
 70
    -2
  9
$DIMLWE
 70
    -2
  9
$DIMTMOVE
 70
     0
  9
$LUNITS
 70
     2
  9
$LUPREC
 70
     4
  9
$SKETCHINC
 40
0.1
  9
$FILLETRAD
 40
0.0
  9
$AUNITS
 70
     0
  9
$AUPREC
 70
     0
  9
$MENU
  1
.
  9
$ELEVATION
 40
0.0
  9
$PELEVATION
 40
0.0
  9
$THICKNESS
 40
0.0
  9
$LIMCHECK
 70
     0
  9
$CHAMFERA
 40
0.0
  9
$CHAMFERB
 40
0.0
  9
$CHAMFERC
 40
0.0
  9
$CHAMFERD
 40
0.0
  9
$SKPOLY
 70
     0
  9
$TDCREATE
 40
2456482.787000324
  9
$TDUCREATE
 40
2456482.557833658
  9
$TDUPDATE
 40
2456482.787000324
  9
$TDUUPDATE
 40
2456482.557833658
  9
$TDINDWG
 40
0.0000392245
  9
$TDUSRTIMER
 40
0.0000392245
  9
$USRTIMER
 70
     1
  9
$ANGBASE
 50
0.0
  9
$ANGDIR
 70
     0
  9
$PDMODE
 70
     0
  9
$PDSIZE
 40
0.0
  9
$PLINEWID
 40
0.0
  9
$SPLFRAME
 70
     0
  9
$SPLINETYPE
 70
     6
  9
$SPLINESEGS
 70
     8
  9
$HANDSEED
  5
BB2
  9
$SURFTAB1
 70
     6
  9
$SURFTAB2
 70
     6
  9
$SURFTYPE
 70
     6
  9
$SURFU
 70
     6
  9
$SURFV
 70
     6
  9
$UCSBASE
  2

  9
$UCSNAME
  2

  9
$UCSORG
 10
0.0
 20
0.0
 30
0.0
  9
$UCSXDIR
 10
1.0
 20
0.0
 30
0.0
  9
$UCSYDIR
 10
0.0
 20
1.0
 30
0.0
  9
$UCSORTHOREF
  2

  9
$UCSORTHOVIEW
 70
     0
  9
$UCSORGTOP
 10
0.0
 20
0.0
 30
0.0
  9
$UCSORGBOTTOM
 10
0.0
 20
0.0
 30
0.0
  9
$UCSORGLEFT
 10
0.0
 20
0.0
 30
0.0
  9
$UCSORGRIGHT
 10
0.0
 20
0.0
 30
0.0
  9
$UCSORGFRONT
 10
0.0
 20
0.0
 30
0.0
  9
$UCSORGBACK
 10
0.0
 20
0.0
 30
0.0
  9
$PUCSBASE
  2

  9
$PUCSNAME
  2

  9
$PUCSORG
 10
0.0
 20
0.0
 30
0.0
  9
$PUCSXDIR
 10
1.0
 20
0.0
 30
0.0
  9
$PUCSYDIR
 10
0.0
 20
1.0
 30
0.0
  9
$PUCSORTHOREF
  2

  9
$PUCSORTHOVIEW
 70
     0
  9
$PUCSORGTOP
 10
0.0
 20
0.0
 30
0.0
  9
$PUCSORGBOTTOM
 10
0.0
 20
0.0
 30
0.0
  9
$PUCSORGLEFT
 10
0.0
 20
0.0
 30
0.0
  9
$PUCSORGRIGHT
 10
0.0
 20
0.0
 30
0.0
  9
$PUCSORGFRONT
 10
0.0
 20
0.0
 30
0.0
  9
$PUCSORGBACK
 10
0.0
 20
0.0
 30
0.0
  9
$USERI1
 70
     0
  9
$USERI2
 70
     0
  9
$USERI3
 70
     0
  9
$USERI4
 70
     0
  9
$USERI5
 70
     0
  9
$USERR1
 40
0.0
  9
$USERR2
 40
0.0
  9
$USERR3
 40
0.0
  9
$USERR4
 40
0.0
  9
$USERR5
 40
0.0
  9
$WORLDVIEW
 70
     1
  9
$SHADEDGE
 70
     3
  9
$SHADEDIF
 70
    70
  9
$TILEMODE
 70
     1
  9
$MAXACTVP
 70
    64
  9
$PINSBASE
 10
0.0
 20
0.0
 30
0.0
  9
$PLIMCHECK
 70
     0
  9
$PEXTMIN
 10
0.0
 20
0.0
 30
0.0
  9
$PEXTMAX
 10
102.0
 20
66.0
 30
0.0
  9
$PLIMMIN
 10
0.0
 20
0.0
  9
$PLIMMAX
 10
102.0
 20
66.0
  9
$UNITMODE
 70
     0
  9
$VISRETAIN
 70
     1
  9
$PLINEGEN
 70
     0
  9
$PSLTSCALE
 70
     1
  9
$TREEDEPTH
 70
  3020
  9
$CMLSTYLE
  2
Standard
  9
$CMLJUST
 70
     0
  9
$CMLSCALE
 40
1.0
  9
$PROXYGRAPHICS
 70
     1
  9
$MEASUREMENT
 70
     0
  9
$CELWEIGHT
370
    -1
  9
$ENDCAPS
280
     0
  9
$JOINSTYLE
280
     0
  9
$LWDISPLAY
290
     0
  9
$INSUNITS
 70
     1
  9
$HYPERLINKBASE
  1

  9
$STYLESHEET
  1

  9
$XEDIT
290
     1
  9
$CEPSNTYPE
380
     0
  9
$PSTYLEMODE
290
     1
  9
$FINGERPRINTGUID
  2
{88F82A67-3E25-4C6C-9654-C8CBFE673760}
  9
$VERSIONGUID
  2
{84056233-6EEB-4180-92DF-9A50C43F802F}
  9
$EXTNAMES
290
     1
  9
$PSVPSCALE
 40
0.0
  9
$OLESTARTUP
290
     0
  9
$SORTENTS
280
   127
  9
$INDEXCTL
280
     0
  9
$HIDETEXT
280
     1
  9
$XCLIPFRAME
290
     0
  9
$HALOGAP
280
     0
  9
$OBSCOLOR
 70
   257
  9
$OBSLTYPE
280
     0
  9
$INTERSECTIONDISPLAY
280
     0
  9
$INTERSECTIONCOLOR
 70
   257
  9
$DIMASSOC
280
     1
  9
$PROJECTNAME
  1

  0
ENDSEC
  0
SECTION
  2
CLASSES
  0
CLASS
  1
ACDBDICTIONARYWDFLT
  2
AcDbDictionaryWithDefault
  3
ObjectDBX Classes
 90
        0
 91
        1
280
     0
281
     0
  0
CLASS
  1
MATERIAL
  2
AcDbMaterial
  3
ObjectDBX Classes
 90
     1153
 91
        3
280
     0
281
     0
  0
CLASS
  1
VISUALSTYLE
  2
AcDbVisualStyle
  3
ObjectDBX Classes
 90
     4095
 91
       24
280
     0
281
     0
  0
CLASS
  1
SCALE
  2
AcDbScale
  3
ObjectDBX Classes
 90
     1153
 91
       17
280
     0
281
     0
  0
CLASS
  1
TABLESTYLE
  2
AcDbTableStyle
  3
ObjectDBX Classes
 90
     4095
 91
        1
280
     0
281
     0
  0
CLASS
  1
MLEADERSTYLE
  2
AcDbMLeaderStyle
  3
ACDB_MLEADERSTYLE_CLASS
 90
     4095
 91
        1
280
     0
281
     0
  0
CLASS
  1
DICTIONARYVAR
  2
AcDbDictionaryVar
  3
ObjectDBX Classes
 90
        0
 91
        8
280
     0
281
     0
  0
CLASS
  1
CELLSTYLEMAP
  2
AcDbCellStyleMap
  3
ObjectDBX Classes
 90
     1152
 91
        1
280
     0
281
     0
  0
ENDSEC
  0
SECTION
  2
TABLES
  0
TABLE
  2
VPORT
  5
8
330
0
100
AcDbSymbolTable
 70
     1
  0
VPORT
  5
57
330
8
100
AcDbSymbolTableRecord
100
AcDbViewportTableRecord
  2
*Active
 70
     0
 10
0.0
 20
0.0
 11
1.0
 21
1.0
 12
51.0
 22
33.0
 13
0.0
 23
0.0
 14
1.0
 24
1.0
 15
0.0
 25
0.0
 16
0.0
 26
0.0
 36
1.0
 17
0.0
 27
0.0
 37
0.0
 40
66.0
 41
1.545454545454545
 42
50.0
 43
0.0
 44
0.0
 50
0.0
 51
0.0
 71
     0
 72
   100
 73
     1
 74
     1
 75
     0
 76
     0
 77
     0
 78
     0
281
     0
 65
     1
110
0.0
120
0.0
130
0.0
111
1.0
121
0.0
131
0.0
112
0.0
122
1.0
132
0.0
 79
     0
146
0.0
  0
ENDTAB
  0
TABLE
  2
LTYPE
  5
5
330
0
100
AcDbSymbolTable
 70
    59
  0
LTYPE
  5
5B
330
5
100
AcDbSymbolTableRecord
100
AcDbLinetypeTableRecord
  2
ByBlock
 70
     0
  3

 72
    65
 73
     0
 40
0.0
  0
LTYPE
  5
5C
330
5
100
AcDbSymbolTableRecord
100
AcDbLinetypeTableRecord
  2
ByLayer
 70
     0
  3

 72
    65
 73
     0
 40
0.0
  0
LTYPE
  5
5D
330
5
100
AcDbSymbolTableRecord
100
AcDbLinetypeTableRecord
  2
Continuous
 70
     0
  3
Solid line
 72
    65
 73
     0
 40
0.0
  0
LTYPE
  5
7C
330
5
100
AcDbSymbolTableRecord
100
AcDbLinetypeTableRecord
  2
BY_STANDARD
 70
     0
  3
By Standard ____________    ____    ____   _
 72
    65
 73
     6
 40
1.240299999999999
 49
0.6614
 74
     0
 49
-0.0827
 74
     0
 49
0.1654
 74
     0
 49
-0.0827
 74
     0
 49
0.1654
 74
     0
 49
-0.0827
 74
     0
  0
LTYPE
  5
7D
330
5
100
AcDbSymbolTableRecord
100
AcDbLinetypeTableRecord
  2
CHAIN
 70
     0
  3
Chain ____ _ ____ _ ____ _ ____ _ ____ _ ____
 72
    65
 73
     4
 40
0.7087
 49
0.4724000000000001
 74
     0
 49
-0.0591
 74
     0
 49
0.1181
 74
     0
 49
-0.0591
 74
     0
  0
LTYPE
  5
7E
330
5
100
AcDbSymbolTableRecord
100
AcDbLinetypeTableRecord
  2
DASH_DOT
 70
     0
  3
Dash dot __ . __ . __ . __ . __ . __ . __ . __
 72
    65
 73
     4
 40
0.37
 49
0.24
 74
     0
 49
-0.06
 74
     0
 49
0.01
 74
     0
 49
-0.06
 74
     0
  0
LTYPE
  5
7F
330
5
100
AcDbSymbolTableRecord
100
AcDbLinetypeTableRecord
  2
DOUBLE_DASH_DOT
 70
     0
  3
Double-Dash Dot __ __ . __ __ . __ __ . __ _
 72
    65
 73
     6
 40
0.4398
 49
0.24
 74
     0
 49
-0.06
 74
     0
 49
0.0098
 74
     0
 49
-0.06
 74
     0
 49
0.01
 74
     0
 49
-0.06
 74
     0
  0
LTYPE
  5
80
330
5
100
AcDbSymbolTableRecord
100
AcDbLinetypeTableRecord
  2
DASH_TRIPLE_DOT
 70
     0
  3
Dash Triple-Dot _ . . . _ . . . _ . . . _
 72
    65
 73
     8
 40
0.51
 49
0.24
 74
     0
 49
-0.06
 74
     0
 49
0.01
 74
     0
 49
-0.06
 74
     0
 49
0.01
 74
     0
 49
-0.06
 74
     0
 49
0.01
 74
     0
 49
-0.06
 74
     0
  0
LTYPE
  5
81
330
5
100
AcDbSymbolTableRecord
100
AcDbLinetypeTableRecord
  2
DASHED
 70
     0
  3
Dashed __ __ __ __ __ __ __ __ __ __ __ __ __ _
 72
    65
 73
     2
 40
0.2067
 49
0.1654
 74
     0
 49
-0.0413
 74
     0
  0
LTYPE
  5
82
330
5
100
AcDbSymbolTableRecord
100
AcDbLinetypeTableRecord
  2
DASH_DOUBLE_DOT
 70
     0
  3
Dash Double-Dot __ . . __ . . __ . . __ . .
 72
    65
 73
     6
 40
0.4398
 49
0.24
 74
     0
 49
-0.06
 74
     0
 49
0.0098
 74
     0
 49
-0.06
 74
     0
 49
0.01
 74
     0
 49
-0.06
 74
     0
  0
LTYPE
  5
83
330
5
100
AcDbSymbolTableRecord
100
AcDbLinetypeTableRecord
  2
DASHED_SPACE
 70
     0
  3
Dashed Space __ __ __ __ __ __ __ __ __ __ __ _
 72
    65
 73
     2
 40
0.2067
 49
0.1654
 74
     0
 49
-0.0413
 74
     0
  0
LTYPE
  5
84
330
5
100
AcDbSymbolTableRecord
100
AcDbLinetypeTableRecord
  2
DOTTED
 70
     0
  3
Dotted . . . . . . . . . . . . . . . . . . . . 
 72
    65
 73
     2
 40
0.0482
 49
0.0069
 74
     0
 49
-0.0413
 74
     0
  0
LTYPE
  5
85
330
5
100
AcDbSymbolTableRecord
100
AcDbLinetypeTableRecord
  2
DOUBLE_DASH_CHAIN
 70
     0
  3
Double-Dash Chain ______  __  __  ______  __  _
 72
    65
 73
     6
 40
1.240299999999999
 49
0.6614
 74
     0
 49
-0.0827
 74
     0
 49
0.1654
 74
     0
 49
-0.0827
 74
     0
 49
0.1654
 74
     0
 49
-0.0827
 74
     0
  0
LTYPE
  5
87
330
5
100
AcDbSymbolTableRecord
100
AcDbLinetypeTableRecord
  2
DOUBLE_DASH_DOUBLE_DOT
 70
     0
  3
Double-Dash Double-dot _ _ . . _ _ . . _
 72
    65
 73
     8
 40
0.7400000000000001
 49
0.24
 74
     0
 49
-0.06
 74
     0
 49
0.24
 74
     0
 49
-0.06
 74
     0
 49
0.01
 74
     0
 49
-0.06
 74
     0
 49
0.01
 74
     0
 49
-0.06
 74
     0
  0
LTYPE
  5
88
330
5
100
AcDbSymbolTableRecord
100
AcDbLinetypeTableRecord
  2
DOUBLE_DASH_TRIPLE_DOT
 70
     0
  3
Double Dash Triple Dot __ __ . . . __ __ . .
 72
    65
 73
    10
 40
0.8100000000000001
 49
0.24
 74
     0
 49
-0.06
 74
     0
 49
0.24
 74
     0
 49
-0.06
 74
     0
 49
0.01
 74
     0
 49
-0.06
 74
     0
 49
0.01
 74
     0
 49
-0.06
 74
     0
 49
0.01
 74
     0
 49
-0.06
 74
     0
  0
LTYPE
  5
89
330
5
100
AcDbSymbolTableRecord
100
AcDbLinetypeTableRecord
  2
LONG_DASH_DOTTED
 70
     0
  3
Long Dash Dotted ____ . ____ . ____ . ____ . _
 72
    65
 73
     4
 40
0.3543
 49
0.2362
 74
     0
 49
-0.0295
 74
     0
 49
0.0591
 74
     0
 49
-0.0295
 74
     0
  0
LTYPE
  5
8A
330
5
100
AcDbSymbolTableRecord
100
AcDbLinetypeTableRecord
  2
LONG_DASH_DOUBLE_DOT
 70
     0
  3
Long Dash Double Dot ________  .  .  ________  
 72
    65
 73
     6
 40
0.6799999999999999
 49
0.48
 74
     0
 49
-0.06
 74
     0
 49
0.01
 74
     0
 49
-0.06
 74
     0
 49
0.01
 74
     0
 49
-0.06
 74
     0
  0
LTYPE
  5
8B
330
5
100
AcDbSymbolTableRecord
100
AcDbLinetypeTableRecord
  2
LONG_DASH_TRIPLE_DOT
 70
     0
  3
Long Dash Triple Dot ____ ... ____ ... ____
 72
    65
 73
     8
 40
0.3689
 49
0.2362
 74
     0
 49
-0.0295
 74
     0
 49
0.0049
 74
     0
 49
-0.0295
 74
     0
 49
0.0049
 74
     0
 49
-0.0295
 74
     0
 49
0.0049
 74
     0
 49
-0.0295
 74
     0
  0
LTYPE
  5
8C
330
5
100
AcDbSymbolTableRecord
100
AcDbLinetypeTableRecord
  2
BORDER
 70
     0
  3
Border __ __ . __ __ . __ __ . __ __ . __ __ .
 72
    65
 73
     6
 40
1.75
 49
0.5
 74
     0
 49
-0.25
 74
     0
 49
0.5
 74
     0
 49
-0.25
 74
     0
 49
0.0
 74
     0
 49
-0.25
 74
     0
  0
LTYPE
  5
8D
330
5
100
AcDbSymbolTableRecord
100
AcDbLinetypeTableRecord
  2
BORDER2
 70
     0
  3
Border (.5x) __.__.__.__.__.__.__.__.__.__.__.
 72
    65
 73
     6
 40
0.875
 49
0.25
 74
     0
 49
-0.125
 74
     0
 49
0.25
 74
     0
 49
-0.125
 74
     0
 49
0.0
 74
     0
 49
-0.125
 74
     0
  0
LTYPE
  5
8E
330
5
100
AcDbSymbolTableRecord
100
AcDbLinetypeTableRecord
  2
BORDERX2
 70
     0
  3
Border (2x) ____  ____  .  ____  ____  .  ___
 72
    65
 73
     6
 40
3.5
 49
1.0
 74
     0
 49
-0.5
 74
     0
 49
1.0
 74
     0
 49
-0.5
 74
     0
 49
0.0
 74
     0
 49
-0.5
 74
     0
  0
LTYPE
  5
8F
330
5
100
AcDbSymbolTableRecord
100
AcDbLinetypeTableRecord
  2
CENTER
 70
     0
  3
Center ____ _ ____ _ ____ _ ____ _ ____ _ ____
 72
    65
 73
     4
 40
2.0
 49
1.25
 74
     0
 49
-0.25
 74
     0
 49
0.25
 74
     0
 49
-0.25
 74
     0
  0
LTYPE
  5
90
330
5
100
AcDbSymbolTableRecord
100
AcDbLinetypeTableRecord
  2
CENTER2
 70
     0
  3
Center (.5x) ___ _ ___ _ ___ _ ___ _ ___ _ ___
 72
    65
 73
     4
 40
1.125
 49
0.75
 74
     0
 49
-0.125
 74
     0
 49
0.125
 74
     0
 49
-0.125
 74
     0
  0
LTYPE
  5
91
330
5
100
AcDbSymbolTableRecord
100
AcDbLinetypeTableRecord
  2
CENTERX2
 70
     0
  3
Center (2x) ________  __  ________  __  _____
 72
    65
 73
     4
 40
4.0
 49
2.5
 74
     0
 49
-0.5
 74
     0
 49
0.5
 74
     0
 49
-0.5
 74
     0
  0
LTYPE
  5
92
330
5
100
AcDbSymbolTableRecord
100
AcDbLinetypeTableRecord
  2
DASHDOT2
 70
     0
  3
Dash dot (.5x) _._._._._._._._._._._._._._._.
 72
    65
 73
     4
 40
0.5
 49
0.25
 74
     0
 49
-0.125
 74
     0
 49
0.0
 74
     0
 49
-0.125
 74
     0
  0
LTYPE
  5
93
330
5
100
AcDbSymbolTableRecord
100
AcDbLinetypeTableRecord
  2
DASHDOTX2
 70
     0
  3
Dash dot (2x) ____  .  ____  .  ____  .  ___
 72
    65
 73
     4
 40
2.0
 49
1.0
 74
     0
 49
-0.5
 74
     0
 49
0.0
 74
     0
 49
-0.5
 74
     0
  0
LTYPE
  5
95
330
5
100
AcDbSymbolTableRecord
100
AcDbLinetypeTableRecord
  2
DASHED2
 70
     0
  3
Dashed (.5x) _ _ _ _ _ _ _ _ _ _ _ _ _ _ _ _ _
 72
    65
 73
     2
 40
0.375
 49
0.25
 74
     0
 49
-0.125
 74
     0
  0
LTYPE
  5
96
330
5
100
AcDbSymbolTableRecord
100
AcDbLinetypeTableRecord
  2
DASHEDX2
 70
     0
  3
Dashed (2x) ____  ____  ____  ____  ____  ___
 72
    65
 73
     2
 40
1.5
 49
1.0
 74
     0
 49
-0.5
 74
     0
  0
LTYPE
  5
97
330
5
100
AcDbSymbolTableRecord
100
AcDbLinetypeTableRecord
  2
DIVIDE
 70
     0
  3
Divide ____ . . ____ . . ____ . . ____ . . ____
 72
    65
 73
     6
 40
1.25
 49
0.5
 74
     0
 49
-0.25
 74
     0
 49
0.0
 74
     0
 49
-0.25
 74
     0
 49
0.0
 74
     0
 49
-0.25
 74
     0
  0
LTYPE
  5
98
330
5
100
AcDbSymbolTableRecord
100
AcDbLinetypeTableRecord
  2
DIVIDE2
 70
     0
  3
Divide (.5x) __..__..__..__..__..__..__..__.._
 72
    65
 73
     6
 40
0.625
 49
0.25
 74
     0
 49
-0.125
 74
     0
 49
0.0
 74
     0
 49
-0.125
 74
     0
 49
0.0
 74
     0
 49
-0.125
 74
     0
  0
LTYPE
  5
99
330
5
100
AcDbSymbolTableRecord
100
AcDbLinetypeTableRecord
  2
DIVIDEX2
 70
     0
  3
Divide (2x) ________  .  .  ________  .  .  _
 72
    65
 73
     6
 40
2.5
 49
1.0
 74
     0
 49
-0.5
 74
     0
 49
0.0
 74
     0
 49
-0.5
 74
     0
 49
0.0
 74
     0
 49
-0.5
 74
     0
  0
LTYPE
  5
9A
330
5
100
AcDbSymbolTableRecord
100
AcDbLinetypeTableRecord
  2
DOT
 70
     0
  3
Dot . . . . . . . . . . . . . . . . . . . . . .
 72
    65
 73
     2
 40
0.25
 49
0.0
 74
     0
 49
-0.25
 74
     0
  0
LTYPE
  5
9B
330
5
100
AcDbSymbolTableRecord
100
AcDbLinetypeTableRecord
  2
DOT2
 70
     0
  3
Dot (.5x) .....................................
 72
    65
 73
     2
 40
0.125
 49
0.0
 74
     0
 49
-0.125
 74
     0
  0
LTYPE
  5
9C
330
5
100
AcDbSymbolTableRecord
100
AcDbLinetypeTableRecord
  2
DOTX2
 70
     0
  3
Dot (2x) .  .  .  .  .  .  .  .  .  .  .  .  . 
 72
    65
 73
     2
 40
0.5
 49
0.0
 74
     0
 49
-0.5
 74
     0
  0
LTYPE
  5
9D
330
5
100
AcDbSymbolTableRecord
100
AcDbLinetypeTableRecord
  2
HIDDEN
 70
     0
  3
Hidden __ __ __ __ __ __ __ __ __ __ __ __ __ _
 72
    65
 73
     2
 40
0.375
 49
0.25
 74
     0
 49
-0.125
 74
     0
  0
LTYPE
  5
9E
330
5
100
AcDbSymbolTableRecord
100
AcDbLinetypeTableRecord
  2
HIDDEN2
 70
     0
  3
Hidden (.5x) _ _ _ _ _ _ _ _ _ _ _ _ _ _ _ _ _
 72
    65
 73
     2
 40
0.1875
 49
0.125
 74
     0
 49
-0.0625
 74
     0
  0
LTYPE
  5
9F
330
5
100
AcDbSymbolTableRecord
100
AcDbLinetypeTableRecord
  2
HIDDENX2
 70
     0
  3
Hidden (2x) ____ ____ ____ ____ ____ ____ ____
 72
    65
 73
     2
 40
0.75
 49
0.5
 74
     0
 49
-0.25
 74
     0
  0
LTYPE
  5
A0
330
5
100
AcDbSymbolTableRecord
100
AcDbLinetypeTableRecord
  2
PHANTOM
 70
     0
  3
Phantom ______  __  __  ______  __  __  ______
 72
    65
 73
     6
 40
2.5
 49
1.25
 74
     0
 49
-0.25
 74
     0
 49
0.25
 74
     0
 49
-0.25
 74
     0
 49
0.25
 74
     0
 49
-0.25
 74
     0
  0
LTYPE
  5
A1
330
5
100
AcDbSymbolTableRecord
100
AcDbLinetypeTableRecord
  2
PHANTOM2
 70
     0
  3
Phantom (.5x) ___ _ _ ___ _ _ ___ _ _ ___ _ _
 72
    65
 73
     6
 40
1.25
 49
0.625
 74
     0
 49
-0.125
 74
     0
 49
0.125
 74
     0
 49
-0.125
 74
     0
 49
0.125
 74
     0
 49
-0.125
 74
     0
  0
LTYPE
  5
A2
330
5
100
AcDbSymbolTableRecord
100
AcDbLinetypeTableRecord
  2
PHANTOMX2
 70
     0
  3
Phantom (2x) ____________    ____    ____   _
 72
    65
 73
     6
 40
5.0
 49
2.5
 74
     0
 49
-0.5
 74
     0
 49
0.5
 74
     0
 49
-0.5
 74
     0
 49
0.5
 74
     0
 49
-0.5
 74
     0
  0
LTYPE
  5
A3
330
5
100
AcDbSymbolTableRecord
100
AcDbLinetypeTableRecord
  2
ACAD_ISO02W100
 70
     0
  3
ISO dash __ __ __ __ __ __ __ __ __ __ __ __ __
 72
    65
 73
     2
 40
0.59
 49
0.47
 74
     0
 49
-0.12
 74
     0
  0
LTYPE
  5
A4
330
5
100
AcDbSymbolTableRecord
100
AcDbLinetypeTableRecord
  2
ACAD_ISO03W100
 70
     0
  3
ISO dash space __    __    __    __    __    __
 72
    65
 73
     2
 40
1.179999999999999
 49
0.47
 74
     0
 49
-0.71
 74
     0
  0
LTYPE
  5
A5
330
5
100
AcDbSymbolTableRecord
100
AcDbLinetypeTableRecord
  2
ACAD_ISO04W100
 70
     0
  3
ISO long-dash dot ____ . ____ . ____ . ____ . _
 72
    65
 73
     4
 40
1.179999999999999
 49
0.9399999999999998
 74
     0
 49
-0.12
 74
     0
 49
0.0
 74
     0
 49
-0.12
 74
     0
  0
LTYPE
  5
A6
330
5
100
AcDbSymbolTableRecord
100
AcDbLinetypeTableRecord
  2
ACAD_ISO05W100
 70
     0
  3
ISO long-dash double-dot ____ .. ____ .. ____ .
 72
    65
 73
     6
 40
1.299999999999999
 49
0.9399999999999998
 74
     0
 49
-0.12
 74
     0
 49
0.0
 74
     0
 49
-0.12
 74
     0
 49
0.0
 74
     0
 49
-0.12
 74
     0
  0
LTYPE
  5
A7
330
5
100
AcDbSymbolTableRecord
100
AcDbLinetypeTableRecord
  2
ACAD_ISO06W100
 70
     0
  3
ISO long-dash triple-dot ____ ... ____ ... ____
 72
    65
 73
     8
 40
1.419999999999999
 49
0.9399999999999998
 74
     0
 49
-0.12
 74
     0
 49
0.0
 74
     0
 49
-0.12
 74
     0
 49
0.0
 74
     0
 49
-0.12
 74
     0
 49
0.0
 74
     0
 49
-0.12
 74
     0
  0
LTYPE
  5
A8
330
5
100
AcDbSymbolTableRecord
100
AcDbLinetypeTableRecord
  2
ACAD_ISO07W100
 70
     0
  3
ISO dot . . . . . . . . . . . . . . . . . . . .
 72
    65
 73
     2
 40
0.12
 49
0.0
 74
     0
 49
-0.12
 74
     0
  0
LTYPE
  5
A9
330
5
100
AcDbSymbolTableRecord
100
AcDbLinetypeTableRecord
  2
ACAD_ISO08W100
 70
     0
  3
ISO long-dash short-dash ____ __ ____ __ ____ _
 72
    65
 73
     4
 40
0.95
 49
0.47
 74
     0
 49
-0.12
 74
     0
 49
0.24
 74
     0
 49
-0.12
 74
     0
  0
LTYPE
  5
AA
330
5
100
AcDbSymbolTableRecord
100
AcDbLinetypeTableRecord
  2
ACAD_ISO09W100
 70
     0
  3
ISO long-dash double-short-dash ____ __ __ ____
 72
    65
 73
     6
 40
1.31
 49
0.47
 74
     0
 49
-0.12
 74
     0
 49
0.24
 74
     0
 49
-0.12
 74
     0
 49
0.24
 74
     0
 49
-0.12
 74
     0
  0
LTYPE
  5
AB
330
5
100
AcDbSymbolTableRecord
100
AcDbLinetypeTableRecord
  2
ACAD_ISO10W100
 70
     0
  3
ISO dash dot __ . __ . __ . __ . __ . __ . __ .
 72
    65
 73
     4
 40
0.71
 49
0.47
 74
     0
 49
-0.12
 74
     0
 49
0.0
 74
     0
 49
-0.12
 74
     0
  0
LTYPE
  5
AC
330
5
100
AcDbSymbolTableRecord
100
AcDbLinetypeTableRecord
  2
ACAD_ISO11W100
 70
     0
  3
ISO double-dash dot __ __ . __ __ . __ __ . __ 
 72
    65
 73
     6
 40
1.299999999999999
 49
0.47
 74
     0
 49
-0.12
 74
     0
 49
0.47
 74
     0
 49
-0.12
 74
     0
 49
0.0
 74
     0
 49
-0.12
 74
     0
  0
LTYPE
  5
AD
330
5
100
AcDbSymbolTableRecord
100
AcDbLinetypeTableRecord
  2
ACAD_ISO12W100
 70
     0
  3
ISO dash double-dot __ . . __ . . __ . . __ . .
 72
    65
 73
     6
 40
0.8299999999999998
 49
0.47
 74
     0
 49
-0.12
 74
     0
 49
0.0
 74
     0
 49
-0.12
 74
     0
 49
0.0
 74
     0
 49
-0.12
 74
     0
  0
LTYPE
  5
AE
330
5
100
AcDbSymbolTableRecord
100
AcDbLinetypeTableRecord
  2
ACAD_ISO13W100
 70
     0
  3
ISO double-dash double-dot __ __ . . __ __ . . 
 72
    65
 73
     8
 40
1.419999999999999
 49
0.47
 74
     0
 49
-0.12
 74
     0
 49
0.47
 74
     0
 49
-0.12
 74
     0
 49
0.0
 74
     0
 49
-0.12
 74
     0
 49
0.0
 74
     0
 49
-0.12
 74
     0
  0
LTYPE
  5
AF
330
5
100
AcDbSymbolTableRecord
100
AcDbLinetypeTableRecord
  2
ACAD_ISO14W100
 70
     0
  3
ISO dash triple-dot __ . . . __ . . . __ . . . 
 72
    65
 73
     8
 40
0.95
 49
0.47
 74
     0
 49
-0.12
 74
     0
 49
0.0
 74
     0
 49
-0.12
 74
     0
 49
0.0
 74
     0
 49
-0.12
 74
     0
 49
0.0
 74
     0
 49
-0.12
 74
     0
  0
LTYPE
  5
B0
330
5
100
AcDbSymbolTableRecord
100
AcDbLinetypeTableRecord
  2
ACAD_ISO15W100
 70
     0
  3
ISO double-dash triple-dot __ __ . . . __ __ . 
 72
    65
 73
    10
 40
1.539999999999999
 49
0.47
 74
     0
 49
-0.12
 74
     0
 49
0.47
 74
     0
 49
-0.12
 74
     0
 49
0.0
 74
     0
 49
-0.12
 74
     0
 49
0.0
 74
     0
 49
-0.12
 74
     0
 49
0.0
 74
     0
 49
-0.12
 74
     0
  0
LTYPE
  5
B3
330
5
100
AcDbSymbolTableRecord
100
AcDbLinetypeTableRecord
  2
FENCELINE1
 70
     0
  3
Fenceline circle ----0-----0----0-----0----0---
 72
    65
 73
     4
 40
1.45
 49
0.25
 74
     0
 49
-0.1
 74
     4
 75
   133
340
B2
 46
0.1
 50
0.0
 44
-0.1
 45
0.0
 49
-0.1
 74
     0
 49
1.0
 74
     0
  0
LTYPE
  5
B4
330
5
100
AcDbSymbolTableRecord
100
AcDbLinetypeTableRecord
  2
FENCELINE2
 70
     0
  3
Fenceline square ----[]-----[]----[]-----[]----
 72
    65
 73
     4
 40
1.45
 49
0.25
 74
     0
 49
-0.1
 74
     4
 75
   132
340
B2
 46
0.1
 50
0.0
 44
-0.1
 45
0.0
 49
-0.1
 74
     0
 49
1.0
 74
     0
  0
LTYPE
  5
B5
330
5
100
AcDbSymbolTableRecord
100
AcDbLinetypeTableRecord
  2
TRACKS
 70
     0
  3
Tracks -|-|-|-|-|-|-|-|-|-|-|-|-|-|-|-|-|-|-|-|
 72
    65
 73
     2
 40
0.3
 49
0.15
 74
     4
 75
   130
340
B2
 46
0.25
 50
0.0
 44
0.0
 45
0.0
 49
0.15
 74
     0
  0
LTYPE
  5
B6
330
5
100
AcDbSymbolTableRecord
100
AcDbLinetypeTableRecord
  2
BATTING
 70
     0
  3
Batting SSSSSSSSSSSSSSSSSSSSSSSSSSSSSSSSSSSSSSS
 72
    65
 73
     4
 40
0.4001000000000001
 49
0.0001
 74
     0
 49
-0.1
 74
     4
 75
   134
340
B2
 46
0.1
 50
0.0
 44
-0.1
 45
0.0
 49
-0.2
 74
     4
 75
   134
340
B2
 46
0.1
 50
180.0
 44
0.1
 45
0.0
 49
-0.1
 74
     0
  0
LTYPE
  5
B7
330
5
100
AcDbSymbolTableRecord
100
AcDbLinetypeTableRecord
  2
HOT_WATER_SUPPLY
 70
     0
  3
Hot water supply ---- HW ---- HW ---- HW ----
 72
    65
 73
     3
 40
0.9
 49
0.5
 74
     0
 49
-0.2
 74
     2
 75
     0
340
55
 46
0.1
 50
0.0
 44
-0.1
 45
-0.05
  9
HW
 49
-0.2
 74
     0
  0
LTYPE
  5
B8
330
5
100
AcDbSymbolTableRecord
100
AcDbLinetypeTableRecord
  2
GAS_LINE
 70
     0
  3
Gas line ----GAS----GAS----GAS----GAS----GAS---
 72
    65
 73
     3
 40
0.95
 49
0.5
 74
     0
 49
-0.2
 74
     2
 75
     0
340
55
 46
0.1
 50
0.0
 44
-0.1
 45
-0.05
  9
GAS
 49
-0.25
 74
     0
  0
LTYPE
  5
B9
330
5
100
AcDbSymbolTableRecord
100
AcDbLinetypeTableRecord
  2
ZIGZAG
 70
     0
  3
Zig zag /\/\/\/\/\/\/\/\/\/\/\/\/\/\/\/\/\/\/\/
 72
    65
 73
     4
 40
0.8001000000000001
 49
0.0001
 74
     0
 49
-0.2
 74
     4
 75
   131
340
B2
 46
0.2
 50
0.0
 44
-0.2
 45
0.0
 49
-0.4
 74
     4
 75
   131
340
B2
 46
0.2
 50
180.0
 44
0.2
 45
0.0
 49
-0.2
 74
     0
  0
ENDTAB
  0
TABLE
  2
LAYER
  5
2
330
0
100
AcDbSymbolTable
 70
    27
  0
LAYER
  5
54
330
2
100
AcDbSymbolTableRecord
100
AcDbLayerTableRecord
  2
0
 70
     0
 62
     7
  6
Continuous
370
    18
390
F
  0
LAYER
  5
C0
330
2
100
AcDbSymbolTableRecord
100
AcDbLayerTableRecord
  2
Center Mark (ANSI)
 70
     0
 62
     7
  6
Continuous
370
    15
390
F
  0
LAYER
  5
C1
330
2
100
AcDbSymbolTableRecord
100
AcDbLayerTableRecord
  2
Centerline (ANSI)
 70
     0
 62
     7
  6
Continuous
370
    15
390
F
  0
LAYER
  5
C3
330
2
100
AcDbSymbolTableRecord
100
AcDbLayerTableRecord
  2
Dimension (ANSI)
 70
     0
 62
     7
  6
Continuous
370
    13
390
F
  0
LAYER
  5
C5
330
2
100
AcDbSymbolTableRecord
100
AcDbLayerTableRecord
  2
Hidden (ANSI)
 70
     0
 62
     7
  6
DASHED
370
    15
390
F
  0
LAYER
  5
CC
330
2
100
AcDbSymbolTableRecord
100
AcDbLayerTableRecord
  2
Symbol (ANSI)
 70
     0
 62
     7
  6
Continuous
370
    18
390
F
  0
LAYER
  5
CF
330
2
100
AcDbSymbolTableRecord
100
AcDbLayerTableRecord
  2
Visible (ANSI)
 70
     0
 62
     7
  6
Continuous
370
    13
390
F
  0
LAYER
  5
151
330
2
100
AcDbSymbolTableRecord
100
AcDbLayerTableRecord
  2
Defpoints
 70
     0
 62
     7
  6
Continuous
290
     0
370
    -3
390
F
  0
ENDTAB
  0
TABLE
  2
STYLE
  5
3
330
0
100
AcDbSymbolTable
 70
    18
  0
STYLE
  5
55
330
3
100
AcDbSymbolTableRecord
100
AcDbTextStyleTableRecord
  2
Standard
 70
     0
 40
0.0
 41
1.0
 50
0.0
 71
     0
 42
0.2
  3
txt
  4

  0
STYLE
  5
5A
330
3
100
AcDbSymbolTableRecord
100
AcDbTextStyleTableRecord
  2
Annotative
 70
     0
 40
0.0
 41
1.0
 50
0.0
 71
     0
 42
0.2
  3
txt
  4

1001
AcadAnnotative
1000
AnnotativeData
1002
{
1070
     1
1070
     1
1002
}
  0
STYLE
  5
B2
330
3
100
AcDbSymbolTableRecord
100
AcDbTextStyleTableRecord
  2

 70
     1
 40
0.0
 41
1.0
 50
0.0
 71
     0
 42
0.2
  3
ltypeshp.shx
  4

  0
STYLE
  5
D4
330
3
100
AcDbSymbolTableRecord
100
AcDbTextStyleTableRecord
  2
ITALICC_120
 70
     0
 40
0.0
 41
1.0
 50
0.0
 71
     0
 42
0.2
  3
italicc.shx
  4

  0
STYLE
  5
D5
330
3
100
AcDbSymbolTableRecord
100
AcDbTextStyleTableRecord
  2
Label Text (ANSI)
 70
     0
 40
0.0
 41
1.0
 50
0.0
 71
     0
 42
0.2
  3
tahoma.ttf
  4

1001
ACAD
1000
Tahoma
1071
      256
  0
STYLE
  5
D6
330
3
100
AcDbSymbolTableRecord
100
AcDbTextStyleTableRecord
  2
Note Text (ANSI)
 70
     0
 40
0.0
 41
1.0
 50
0.0
 71
     0
 42
0.2
  3
tahoma.ttf
  4

1001
ACAD
1000
Tahoma
1071
      256
  0
STYLE
  5
D7
330
3
100
AcDbSymbolTableRecord
100
AcDbTextStyleTableRecord
  2
ROMANS
 70
     0
 40
0.0
 41
1.0
 50
0.0
 71
     0
 42
0.2
  3
romans.shx
  4

  0
STYLE
  5
D8
330
3
100
AcDbSymbolTableRecord
100
AcDbTextStyleTableRecord
  2
SANSSERIF_114
 70
     0
 40
0.0
 41
1.0
 50
0.0
 71
     0
 42
0.2
  3
tahoma.ttf
  4

1001
ACAD
1000
Tahoma
1071
      256
  0
STYLE
  5
D9
330
3
100
AcDbSymbolTableRecord
100
AcDbTextStyleTableRecord
  2
SANSSERIF_117
 70
     0
 40
0.0
 41
1.0
 50
0.0
 71
     0
 42
0.2
  3
tahoma.ttf
  4

1001
ACAD
1000
Tahoma
1071
      256
  0
STYLE
  5
DA
330
3
100
AcDbSymbolTableRecord
100
AcDbTextStyleTableRecord
  2
STANDARDAM_ANSI
 70
     0
 40
0.0
 41
1.0
 50
0.0
 71
     0
 42
0.2
  3
txt.shx
  4

  0
STYLE
  5
DB
330
3
100
AcDbSymbolTableRecord
100
AcDbTextStyleTableRecord
  2
StandardAM_ANSI$0
 70
     0
 40
0.0
 41
1.0
 50
0.0
 71
     0
 42
0.2
  3
txt.shx
  4

  0
STYLE
  5
DC
330
3
100
AcDbSymbolTableRecord
100
AcDbTextStyleTableRecord
  2
STANDARDAM_ANSI$3
 70
     0
 40
0.0
 41
1.0
 50
0.0
 71
     0
 42
0.2
  3
txt.shx
  4

  0
STYLE
  5
DD
330
3
100
AcDbSymbolTableRecord
100
AcDbTextStyleTableRecord
  2
STANDARDAM_ANSI$4
 70
     0
 40
0.0
 41
1.0
 50
0.0
 71
     0
 42
0.2
  3
txt.shx
  4

  0
STYLE
  5
DE
330
3
100
AcDbSymbolTableRecord
100
AcDbTextStyleTableRecord
  2
STANDARDAM_ANSI$7
 70
     0
 40
0.0
 41
1.0
 50
0.0
 71
     0
 42
0.2
  3
txt.shx
  4

  0
STYLE
  5
DF
330
3
100
AcDbSymbolTableRecord
100
AcDbTextStyleTableRecord
  2
STANDARDAM_ANSI$SF
 70
     0
 40
0.0
 41
1.0
 50
0.0
 71
     0
 42
0.2
  3
txt.shx
  4

  0
STYLE
  5
E0
330
3
100
AcDbSymbolTableRecord
100
AcDbTextStyleTableRecord
  2
STANDARDAM_ANSI$SH
 70
     0
 40
0.0
 41
1.0
 50
0.0
 71
     0
 42
0.2
  3
txt.shx
  4

  0
STYLE
  5
E1
330
3
100
AcDbSymbolTableRecord
100
AcDbTextStyleTableRecord
  2
STANDARDSTANDARD
 70
     0
 40
0.0
 41
1.0
 50
0.0
 71
     0
 42
0.2
  3
txt.shx
  4

  0
STYLE
  5
126
330
3
100
AcDbSymbolTableRecord
100
AcDbTextStyleTableRecord
  2
Text Style169
 70
     0
 40
0.0
 41
1.0
 50
0.0
 71
     0
 42
0.2
  3
tahoma.ttf
  4

1001
ACAD
1000
Tahoma
1071
      256
  0
ENDTAB
  0
TABLE
  2
VIEW
  5
6
330
0
100
AcDbSymbolTable
 70
     0
  0
ENDTAB
  0
TABLE
  2
UCS
  5
7
330
0
100
AcDbSymbolTable
 70
     0
  0
ENDTAB
  0
TABLE
  2
APPID
  5
9
330
0
100
AcDbSymbolTable
 70
     4
  0
APPID
  5
56
330
9
100
AcDbSymbolTableRecord
100
AcDbRegAppTableRecord
  2
ACAD
 70
     0
  0
APPID
  5
5E
330
9
100
AcDbSymbolTableRecord
100
AcDbRegAppTableRecord
  2
AcadAnnotative
 70
     0
  0
APPID
  5
6BD
330
9
100
AcDbSymbolTableRecord
100
AcDbRegAppTableRecord
  2
ACAD_DSTYLE_DIMRADIAL_EXTENSION
 70
     0
  0
APPID
  5
BAD
330
9
100
AcDbSymbolTableRecord
100
AcDbRegAppTableRecord
  2
ACAD_MLEADERVER
 70
     0
  0
ENDTAB
  0
TABLE
  2
DIMSTYLE
  5
A
330
0
100
AcDbSymbolTable
 70
    27
100
AcDbDimStyleTable
 71
     2
340
F6
340
58
  0
DIMSTYLE
105
58
330
A
100
AcDbSymbolTableRecord
100
AcDbDimStyleTableRecord
  2
STANDARD
 70
     0
 41
0.1800000071525573
 42
0.0625
140
0.1800000071525574
144
1.0
147
0.0900000035762787
176
   256
177
   256
178
   256
274
     3
340
55
371
    -1
372
    -1
  0
DIMSTYLE
105
59
330
A
100
AcDbSymbolTableRecord
100
AcDbDimStyleTableRecord
  2
Annotative
 70
     0
340
55
1001
AcadAnnotative
1000
AnnotativeData
1002
{
1070
     1
1070
     1
1002
}
  0
DIMSTYLE
105
E2
330
A
100
AcDbSymbolTableRecord
100
AcDbDimStyleTableRecord
  2
AM_ANSI
 70
     0
  4
 mm
 40
6.0
 41
0.119999997317791
 42
0.05
 43
0.5
 44
0.1
 45
0.00000001
 78
     4
 79
     2
140
0.1200000047683716
146
0.7099999189376831
147
0.0599999986588955
176
   256
177
   256
178
     2
284
     4
340
DA
371
    -1
372
    -1
  0
DIMSTYLE
105
E3
330
A
100
AcDbSymbolTableRecord
100
AcDbDimStyleTableRecord
  2
AM_ANSI$7
 70
     0
  4
 mm
 40
6.0
 41
0.119999997317791
 42
0.05
 43
0.5
 44
0.1
 45
0.00000001
 78
     4
 79
     2
140
0.1200000047683716
146
0.7099999189376831
147
0.0599999986588955
176
   256
177
   256
178
     2
284
     4
340
DA
371
    -1
372
    -1
  0
DIMSTYLE
105
E4
330
A
100
AcDbSymbolTableRecord
100
AcDbDimStyleTableRecord
  2
AM_ANSI$0
 70
     0
  4
 mm
 40
6.0
 41
0.119999997317791
 42
0.05
 43
0.5
 44
0.1
 45
0.00000001
 78
     4
 79
     2
140
0.1200000047683716
146
0.7099999189376831
147
0.0599999986588955
176
   256
177
   256
178
     2
284
     4
340
DB
371
    -1
372
    -1
  0
DIMSTYLE
105
E5
330
A
100
AcDbSymbolTableRecord
100
AcDbDimStyleTableRecord
  2
AM_ANSI$0$7
 70
     0
  4
 mm
 40
6.0
 41
0.119999997317791
 42
0.05
 43
0.5
 44
0.1
 45
0.00000001
 78
     4
 79
     2
140
0.1200000047683716
146
0.7099999189376831
147
0.0599999986588955
176
   256
177
   256
178
     2
284
     4
340
DB
371
    -1
372
    -1
  0
DIMSTYLE
105
E6
330
A
100
AcDbSymbolTableRecord
100
AcDbDimStyleTableRecord
  2
AM_ANSI$3
 70
     0
  4
 mm
 40
6.0
 41
0.119999997317791
 42
0.05
 43
0.5
 44
0.1
 45
0.00000001
 78
     4
 79
     2
140
0.1200000047683716
146
0.7099999189376831
147
0.0599999986588955
176
   256
177
   256
178
     2
284
     4
340
DC
371
    -1
372
    -1
  0
DIMSTYLE
105
E7
330
A
100
AcDbSymbolTableRecord
100
AcDbDimStyleTableRecord
  2
AM_ANSI$3$7
 70
     0
  4
 mm
 40
6.0
 41
0.119999997317791
 42
0.05
 43
0.5
 44
0.1
 45
0.00000001
 78
     4
 79
     2
140
0.1200000047683716
146
0.7099999189376831
147
0.0599999986588955
176
   256
177
   256
178
     2
284
     4
340
DC
371
    -1
372
    -1
  0
DIMSTYLE
105
E8
330
A
100
AcDbSymbolTableRecord
100
AcDbDimStyleTableRecord
  2
AM_ANSI$4
 70
     0
  4
 mm
 40
6.0
 41
0.119999997317791
 42
0.05
 43
0.5
 44
0.1
 45
0.00000001
 78
     4
 79
     2
140
0.1200000047683716
146
0.7099999189376831
147
0.0599999986588955
176
   256
177
   256
178
     2
284
     4
340
DD
371
    -1
372
    -1
  0
DIMSTYLE
105
E9
330
A
100
AcDbSymbolTableRecord
100
AcDbDimStyleTableRecord
  2
AM_ANSI$4$7
 70
     0
  4
 mm
 40
6.0
 41
0.119999997317791
 42
0.05
 43
0.5
 44
0.1
 45
0.00000001
 78
     4
 79
     2
140
0.1200000047683716
146
0.7099999189376831
147
0.0599999986588955
176
   256
177
   256
178
     2
284
     4
340
DD
371
    -1
372
    -1
  0
DIMSTYLE
105
EA
330
A
100
AcDbSymbolTableRecord
100
AcDbDimStyleTableRecord
  2
AM_ANSI$SF
 70
     0
  4
 mm
 40
6.0
 41
0.119999997317791
 42
0.05
 43
0.5
 44
0.1
 45
0.00000001
 75
     1
 76
     1
 78
     4
 79
     2
140
0.1200000047683716
146
0.7099999189376831
147
0.0599999986588955
176
   256
177
   256
178
     2
284
     4
340
DF
371
    -1
372
    -1
  0
DIMSTYLE
105
EB
330
A
100
AcDbSymbolTableRecord
100
AcDbDimStyleTableRecord
  2
AM_ANSI$SF$7
 70
     0
  4
 mm
 40
6.0
 41
0.119999997317791
 42
0.05
 43
0.5
 44
0.1
 45
0.00000001
 75
     1
 76
     1
 78
     4
 79
     2
140
0.1200000047683716
146
0.7099999189376831
147
0.0599999986588955
176
   256
177
   256
178
     2
284
     4
340
DF
371
    -1
372
    -1
  0
DIMSTYLE
105
EC
330
A
100
AcDbSymbolTableRecord
100
AcDbDimStyleTableRecord
  2
AM_ANSI$SH
 70
     0
  4
 mm
 40
6.0
 41
0.119999997317791
 42
0.05
 43
0.5
 44
0.1
 45
0.00000001
 75
     1
 76
     1
 78
     4
 79
     2
140
0.1200000047683716
146
0.7099999189376831
147
0.0599999986588955
176
   256
177
   256
178
     2
284
     4
340
E0
371
    -1
372
    -1
  0
DIMSTYLE
105
ED
330
A
100
AcDbSymbolTableRecord
100
AcDbDimStyleTableRecord
  2
AM_ANSI$SH$7
 70
     0
  4
 mm
 40
6.0
 41
0.119999997317791
 42
0.05
 43
0.5
 44
0.1
 45
0.00000001
 75
     1
 76
     1
 78
     4
 79
     2
140
0.1200000047683716
146
0.7099999189376831
147
0.0599999986588955
176
   256
177
   256
178
     2
284
     4
340
E0
371
    -1
372
    -1
  0
DIMSTYLE
105
EE
330
A
100
AcDbSymbolTableRecord
100
AcDbDimStyleTableRecord
  2
Architectural (ANSI)
 70
     0
 40
6.0
 41
0.0984251946210861
 43
0.2362204724409449
 44
0.125
 45
0.00000001
 46
0.3937007874015748
 78
     3
 79
     3
140
0.1200000047683716
147
0.031496062992126
171
     1
176
   256
177
   256
178
   256
272
     2
274
     1
276
     2
277
     4
284
    12
285
     4
286
    12
340
D6
371
    -1
372
    -1
  0
DIMSTYLE
105
EF
330
A
100
AcDbSymbolTableRecord
100
AcDbDimStyleTableRecord
  2
Architectural (ANSI)$7
 70
     0
 40
6.0
 41
0.0984251946210861
 43
0.2362204724409449
 44
0.125
 45
0.00000001
 46
0.3937007874015748
 78
     3
 79
     3
140
0.1200000047683716
147
0.031496062992126
171
     1
176
   256
177
   256
178
   256
272
     2
274
     1
276
     2
277
     4
284
    12
285
     4
286
    12
340
D6
371
    -1
372
    -1
  0
DIMSTYLE
105
F0
330
A
100
AcDbSymbolTableRecord
100
AcDbDimStyleTableRecord
  2
Default - Fraction (ANSI)
 70
     0
 40
6.0
 41
0.0984251946210861
 43
0.2362204724409449
 44
0.125
 45
0.00000001
 46
0.3937007874015748
 79
     3
140
0.1200000047683716
147
0.031496062992126
171
     1
176
   256
177
   256
178
   256
272
     2
274
     1
276
     2
277
     5
284
    12
285
     4
286
    12
340
D6
371
    -1
372
    -1
  0
DIMSTYLE
105
F1
330
A
100
AcDbSymbolTableRecord
100
AcDbDimStyleTableRecord
  2
Default - Fraction (ANSI)$7
 70
     0
 40
6.0
 41
0.0984251946210861
 43
0.2362204724409449
 44
0.125
 45
0.00000001
 46
0.3937007874015748
 79
     3
140
0.1200000047683716
147
0.031496062992126
171
     1
176
   256
177
   256
178
   256
272
     2
274
     1
276
     2
277
     5
284
    12
285
     4
286
    12
340
D6
371
    -1
372
    -1
  0
DIMSTYLE
105
F2
330
A
100
AcDbSymbolTableRecord
100
AcDbDimStyleTableRecord
  2
Default - mm (ANSI)
 70
     0
 40
6.0
 41
0.0984251946210861
 42
0.063
 43
0.2362204724409449
 44
0.125
 45
0.00000001
 46
0.3937007874015748
 73
     0
 78
     4
 79
     1
140
0.1200000047683716
143
1.0
144
25.4
147
0.031496062992126
171
     1
176
   256
177
   256
178
   256
179
     1
271
     2
272
     2
274
     1
284
     4
285
     4
340
D6
371
    -1
372
    -1
  0
DIMSTYLE
105
F3
330
A
100
AcDbSymbolTableRecord
100
AcDbDimStyleTableRecord
  2
Default - mm (ANSI)$7
 70
     0
 40
6.0
 41
0.0984251946210861
 42
0.063
 43
0.2362204724409449
 44
0.125
 45
0.00000001
 46
0.3937007874015748
 73
     0
 78
     4
 79
     1
140
0.1200000047683716
143
1.0
144
25.4
147
0.031496062992126
171
     1
176
   256
177
   256
178
   256
179
     1
271
     2
272
     2
274
     1
284
     4
285
     4
340
D6
371
    -1
372
    -1
  0
DIMSTYLE
105
F4
330
A
100
AcDbSymbolTableRecord
100
AcDbDimStyleTableRecord
  2
Default - mm [in] (ANSI)
 70
     0
  4
 in
 40
6.0
 41
0.0984251946210861
 42
0.063
 43
0.25
 44
0.125
 45
0.00000001
 46
0.3937007874015748
 73
     0
 78
     4
 79
     1
140
0.1200000047683716
143
0.03937
144
25.4
147
0.031496062992126
170
     1
171
     3
176
   256
177
   256
178
   256
179
     1
271
     2
272
     2
274
     3
284
     4
285
     4
286
     4
340
D6
371
    -1
372
    -1
  0
DIMSTYLE
105
F5
330
A
100
AcDbSymbolTableRecord
100
AcDbDimStyleTableRecord
  2
Default - mm [in] (ANSI)$7
 70
     0
  4
 in
 40
6.0
 41
0.0984251946210861
 42
0.063
 43
0.25
 44
0.125
 45
0.00000001
 46
0.3937007874015748
 73
     0
 78
     4
 79
     1
140
0.1200000047683716
143
0.03937
144
25.4
147
0.031496062992126
170
     1
171
     3
176
   256
177
   256
178
   256
179
     1
271
     2
272
     2
274
     3
284
     4
285
     4
286
     4
340
D6
371
    -1
372
    -1
  0
DIMSTYLE
105
F6
102
{ACAD_REACTORS
330
14F
330
23B
330
325
330
40F
330
50D
330
623
330
6DE
330
797
330
89F
330
989
330
A73
102
}
330
A
100
AcDbSymbolTableRecord
100
AcDbDimStyleTableRecord
  2
Default (ANSI)
 70
     0
 40
6.0
 41
0.0984251946210861
 43
0.2362204724409449
 44
0.125
 45
0.00000001
 46
0.3937007874015748
 79
     1
140
0.1200000047683716
147
0.031496062992126
171
     1
176
   256
177
   256
178
   256
271
     2
272
     2
274
     1
284
     4
285
     4
340
D6
371
    -1
372
    -1
  0
DIMSTYLE
105
F7
330
A
100
AcDbSymbolTableRecord
100
AcDbDimStyleTableRecord
  2
Default (ANSI)$7
 70
     0
 40
6.0
 41
0.0984251946210861
 43
0.2362204724409449
 44
0.125
 45
0.00000001
 46
0.3937007874015748
 79
     1
140
0.1200000047683716
147
0.031496062992126
171
     1
176
   256
177
   256
178
   256
271
     2
272
     2
274
     1
284
     4
285
     4
340
D6
371
    -1
372
    -1
  0
DIMSTYLE
105
F8
330
A
100
AcDbSymbolTableRecord
100
AcDbDimStyleTableRecord
  2
Alternate (ANSI)
 70
     0
 40
6.0
 41
0.0979999974370003
340
55
342
F9
  0
DIMSTYLE
105
10B
330
A
100
AcDbSymbolTableRecord
100
AcDbDimStyleTableRecord
  2
Datum (ANSI)
 70
     0
 40
6.0
 41
0.0979999974370003
340
55
342
F9
  0
DIMSTYLE
105
11A
330
A
100
AcDbSymbolTableRecord
100
AcDbDimStyleTableRecord
  2
Large (ANSI)
 70
     0
 40
6.0
 41
0.1959999948740005
340
55
342
F9
  0
ENDTAB
  0
TABLE
  2
BLOCK_RECORD
  5
1
330
0
100
AcDbSymbolTable
 70
    15
  0
BLOCK_RECORD
  5
6C
330
1
100
AcDbSymbolTableRecord
100
AcDbBlockTableRecord
  2
*Model_Space
340
6F
  0
BLOCK_RECORD
  5
68
330
1
100
AcDbSymbolTableRecord
100
AcDbBlockTableRecord
  2
*Paper_Space
340
6B
  0
BLOCK_RECORD
  5
70
330
1
100
AcDbSymbolTableRecord
100
AcDbBlockTableRecord
  2
*Paper_Space0
340
73
  0
BLOCK_RECORD
  5
F9
330
1
100
AcDbSymbolTableRecord
100
AcDbBlockTableRecord
  2
_Closed
340
0
  0
BLOCK_RECORD
  5
100
330
1
100
AcDbSymbolTableRecord
100
AcDbBlockTableRecord
  2
DatumFilled45
340
0
  0
BLOCK_RECORD
  5
10C
330
1
100
AcDbSymbolTableRecord
100
AcDbBlockTableRecord
  2
Filled-1
340
0
  0
BLOCK_RECORD
  5
152
330
1
100
AcDbSymbolTableRecord
100
AcDbBlockTableRecord
  2
*D4
340
0
  0
BLOCK_RECORD
  5
23C
330
1
100
AcDbSymbolTableRecord
100
AcDbBlockTableRecord
  2
*D5
340
0
  0
BLOCK_RECORD
  5
326
330
1
100
AcDbSymbolTableRecord
100
AcDbBlockTableRecord
  2
*D6
340
0
  0
BLOCK_RECORD
  5
410
330
1
100
AcDbSymbolTableRecord
100
AcDbBlockTableRecord
  2
*D7
340
0
  0
BLOCK_RECORD
  5
50E
330
1
100
AcDbSymbolTableRecord
100
AcDbBlockTableRecord
  2
*D8
340
0
  0
BLOCK_RECORD
  5
624
330
1
100
AcDbSymbolTableRecord
100
AcDbBlockTableRecord
  2
*D9
340
0
  0
BLOCK_RECORD
  5
6DF
330
1
100
AcDbSymbolTableRecord
100
AcDbBlockTableRecord
  2
*D10
340
0
  0
BLOCK_RECORD
  5
798
330
1
100
AcDbSymbolTableRecord
100
AcDbBlockTableRecord
  2
*D11
340
0
  0
BLOCK_RECORD
  5
8A0
330
1
100
AcDbSymbolTableRecord
100
AcDbBlockTableRecord
  2
*D12
340
0
  0
BLOCK_RECORD
  5
98A
330
1
100
AcDbSymbolTableRecord
100
AcDbBlockTableRecord
  2
*D13
340
0
  0
BLOCK_RECORD
  5
A74
330
1
100
AcDbSymbolTableRecord
100
AcDbBlockTableRecord
  2
*D14
340
0
  0
ENDTAB
  0
ENDSEC
  0
SECTION
  2
BLOCKS
  0
BLOCK
  5
6D
330
6C
100
AcDbEntity
  8
0
100
AcDbBlockBegin
  2
*Model_Space
 70
     0
 10
0.0
 20
0.0
 30
0.0
  3
*Model_Space
  1

  0
ENDBLK
  5
6E
330
6C
100
AcDbEntity
  8
0
100
AcDbBlockEnd
  0
BLOCK
  5
69
330
68
100
AcDbEntity
 67
     1
  8
0
100
AcDbBlockBegin
  2
*Paper_Space
 70
     0
 10
0.0
 20
0.0
 30
0.0
  3
*Paper_Space
  1

  0
ENDBLK
  5
6A
330
68
100
AcDbEntity
 67
     1
  8
0
100
AcDbBlockEnd
  0
BLOCK
  5
71
330
70
100
AcDbEntity
 67
     1
  8
0
100
AcDbBlockBegin
  2
*Paper_Space0
 70
     0
 10
0.0
 20
0.0
 30
0.0
  3
*Paper_Space0
  1

  0
ENDBLK
  5
72
330
70
100
AcDbEntity
 67
     1
  8
0
100
AcDbBlockEnd
  0
BLOCK
  5
FE
330
F9
100
AcDbEntity
  8
0
100
AcDbBlockBegin
  2
_Closed
 70
     0
 10
0.0
 20
0.0
 30
0.0
  3
_Closed
  1

  0
LINE
  5
FA
330
F9
100
AcDbEntity
  8
0
  6
ByBlock
 62
     0
370
    -2
100
AcDbLine
 10
-1.0
 20
0.1666666666666666
 30
0.0
 11
0.0
 21
0.0
 31
0.0
  0
LINE
  5
FB
330
F9
100
AcDbEntity
  8
0
  6
ByBlock
 62
     0
370
    -2
100
AcDbLine
 10
0.0
 20
0.0
 30
0.0
 11
-1.0
 21
-0.1666666666666666
 31
0.0
  0
LINE
  5
FC
330
F9
100
AcDbEntity
  8
0
  6
ByBlock
 62
     0
370
    -2
100
AcDbLine
 10
-1.0
 20
0.1666666666666666
 30
0.0
 11
-1.0
 21
-0.1666666666666666
 31
0.0
  0
LINE
  5
FD
330
F9
100
AcDbEntity
  8
0
  6
ByBlock
 62
     0
370
    -2
100
AcDbLine
 10
0.0
 20
0.0
 30
0.0
 11
-1.0
 21
0.0
 31
0.0
  0
ENDBLK
  5
FF
330
F9
100
AcDbEntity
  8
0
100
AcDbBlockEnd
  0
BLOCK
  5
101
330
100
100
AcDbEntity
  8
0
100
AcDbBlockBegin
  2
DatumFilled45
 70
     0
 10
0.0
 20
0.0
 30
0.0
  3
DatumFilled45
  1

  0
POLYLINE
  5
103
330
100
100
AcDbEntity
  8
0
 62
     0
100
AcDb2dPolyline
 66
     1
 10
0.0
 20
0.0
 30
0.0
 70
   128
  0
VERTEX
  5
104
330
103
100
AcDbEntity
  8
0
 62
     0
100
AcDbVertex
100
AcDb2dVertex
 10
0.0
 20
0.9999999999999998
 30
0.0
  0
VERTEX
  5
105
330
103
100
AcDbEntity
  8
0
 62
     0
100
AcDbVertex
100
AcDb2dVertex
 10
0.0
 20
-0.9999999999999998
 30
0.0
  0
VERTEX
  5
107
330
103
100
AcDbEntity
  8
0
 62
     0
100
AcDbVertex
100
AcDb2dVertex
 10
-0.9999999999999998
 20
0.0
 30
0.0
  0
VERTEX
  5
108
330
103
100
AcDbEntity
  8
0
 62
     0
100
AcDbVertex
100
AcDb2dVertex
 10
0.0
 20
0.9999999999999998
 30
0.0
  0
SEQEND
  5
106
330
103
100
AcDbEntity
  8
0
 62
     0
  0
SOLID
  5
10A
330
100
100
AcDbEntity
  8
0
 62
     0
100
AcDbTrace
 10
0.0
 20
0.9999999999999998
 30
0.0
 11
0.0
 21
-0.9999999999999998
 31
0.0
 12
-0.9999999999999998
 22
0.0
 32
0.0
 13
0.0
 23
0.9999999999999998
 33
0.0
  0
ENDBLK
  5
102
330
100
100
AcDbEntity
  8
0
100
AcDbBlockEnd
  0
BLOCK
  5
10D
330
10C
100
AcDbEntity
  8
0
100
AcDbBlockBegin
  2
Filled-1
 70
     0
 10
0.0
 20
0.0
 30
0.0
  3
Filled-1
  1

  0
LINE
  5
10F
330
10C
100
AcDbEntity
  8
0
 62
     0
100
AcDbLine
 10
-0.9999999999999998
 20
0.0
 30
0.0
 11
0.0
 21
0.0
 31
0.0
  0
POLYLINE
  5
110
330
10C
100
AcDbEntity
  8
0
 62
     0
100
AcDb2dPolyline
 66
     1
 10
0.0
 20
0.0
 30
0.0
 70
   128
  0
VERTEX
  5
111
330
110
100
AcDbEntity
  8
0
 62
     0
100
AcDbVertex
100
AcDb2dVertex
 10
-0.9999999999999998
 20
-0.0994897959183674
 30
0.0
  0
VERTEX
  5
112
330
110
100
AcDbEntity
  8
0
 62
     0
100
AcDbVertex
100
AcDb2dVertex
 10
0.0
 20
0.0
 30
0.0
  0
VERTEX
  5
114
330
110
100
AcDbEntity
  8
0
 62
     0
100
AcDbVertex
100
AcDb2dVertex
 10
-0.9999999999999998
 20
0.0994897959183674
 30
0.0
  0
VERTEX
  5
115
330
110
100
AcDbEntity
  8
0
 62
     0
100
AcDbVertex
100
AcDb2dVertex
 10
-0.9999999999999998
 20
-0.0994897959183674
 30
0.0
  0
SEQEND
  5
113
330
110
100
AcDbEntity
  8
0
 62
     0
  0
SOLID
  5
116
330
10C
100
AcDbEntity
  8
0
 62
     0
100
AcDbTrace
 10
-0.9999999999999998
 20
-0.0994897959183674
 30
0.0
 11
0.0
 21
0.0
 31
0.0
 12
-0.9999999999999998
 22
0.0994897959183674
 32
0.0
 13
-0.9999999999999998
 23
-0.0994897959183674
 33
0.0
  0
LINE
  5
117
330
10C
100
AcDbEntity
  8
0
 62
     0
100
AcDbLine
 10
-0.9999999999999998
 20
-0.0994897959183674
 30
0.0
 11
0.0
 21
0.0
 31
0.0
  0
LINE
  5
118
330
10C
100
AcDbEntity
  8
0
 62
     0
100
AcDbLine
 10
0.0
 20
0.0
 30
0.0
 11
-0.9999999999999998
 21
0.0994897959183674
 31
0.0
  0
LINE
  5
119
330
10C
100
AcDbEntity
  8
0
 62
     0
100
AcDbLine
 10
-0.9999999999999998
 20
0.0994897959183674
 30
0.0
 11
-0.9999999999999998
 21
-0.0994897959183674
 31
0.0
  0
ENDBLK
  5
10E
330
10C
100
AcDbEntity
  8
0
100
AcDbBlockEnd
  0
BLOCK
  5
153
330
152
100
AcDbEntity
  8
0
100
AcDbBlockBegin
  2
*D4
 70
     1
 10
0.0
 20
0.0
 30
0.0
  3
*D4
  1

  0
LINE
  5
231
330
152
100
AcDbEntity
  8
Dimension (ANSI)
440
 16777216
100
AcDbLine
 10
17.31446672480525
 20
18.2468146371049
 30
0.0
 11
7.262683667814086
 21
18.24681463710491
 31
0.0
  0
LINE
  5
232
330
152
100
AcDbEntity
  8
Dimension (ANSI)
440
 16777216
100
AcDbLine
 10
17.31446672480524
 20
50.2468146371049
 30
0.0
 11
7.262683667814093
 21
50.24681463710491
 31
0.0
  0
LINE
  5
233
330
152
100
AcDbEntity
  8
Dimension (ANSI)
440
 16777216
100
AcDbLine
 10
8.012683667814085
 20
18.83736580483142
 30
0.0
 11
8.012683667814089
 21
33.68284832054929
 31
0.0
  0
LINE
  5
234
330
152
100
AcDbEntity
  8
Dimension (ANSI)
440
 16777216
100
AcDbLine
 10
8.012683667814092
 20
49.65626346937839
 30
0.0
 11
8.012683667814089
 21
34.81078095366051
 31
0.0
  0
SOLID
  5
235
330
152
100
AcDbEntity
  8
Dimension (ANSI)
440
 16777216
100
AcDbTrace
 10
7.914258473193
 20
18.83736580483142
 30
0.0
 11
8.111108862435171
 21
18.83736580483142
 31
0.0
 12
8.012683667814085
 22
18.2468146371049
 32
0.0
 13
8.012683667814085
 23
18.2468146371049
 33
0.0
  0
SOLID
  5
236
330
152
100
AcDbEntity
  8
Dimension (ANSI)
440
 16777216
100
AcDbTrace
 10
7.914258473193006
 20
49.65626346937839
 30
0.0
 11
8.111108862435179
 21
49.65626346937839
 31
0.0
 12
8.012683667814092
 22
50.24681463710491
 32
0.0
 13
8.012683667814092
 23
50.24681463710491
 33
0.0
  0
MTEXT
  5
237
330
152
100
AcDbEntity
  8
Dimension (ANSI)
440
 16777216
100
AcDbMText
 10
6.825094642400035
 20
34.62180457570774
 30
0.0
 40
0.7200000286102295
 41
0.0
 71
     1
 72
     1
  1
\A1;32.00
  7
Note Text (ANSI)
 73
     1
 44
1.0
  0
POINT
  5
238
330
152
100
AcDbEntity
  8
Defpoints
 62
     0
440
 16777216
100
AcDbPoint
 10
17.68946672480525
 20
18.2468146371049
 30
0.0
  0
POINT
  5
239
330
152
100
AcDbEntity
  8
Defpoints
 62
     0
440
 16777216
100
AcDbPoint
 10
17.68946672480524
 20
50.2468146371049
 30
0.0
  0
POINT
  5
23A
330
152
100
AcDbEntity
  8
Defpoints
 62
     0
440
 16777216
100
AcDbPoint
 10
8.012683667814092
 20
50.24681463710491
 30
0.0
  0
ENDBLK
  5
154
330
152
100
AcDbEntity
  8
0
100
AcDbBlockEnd
  0
BLOCK
  5
23D
330
23C
100
AcDbEntity
  8
0
100
AcDbBlockBegin
  2
*D5
 70
     1
 10
0.0
 20
0.0
 30
0.0
  3
*D5
  1

  0
LINE
  5
31B
330
23C
100
AcDbEntity
  8
Dimension (ANSI)
440
 16777216
100
AcDbLine
 10
18.06446672480524
 20
18.99681463710491
 30
0.0
 11
14.36717536483669
 21
18.99681463710491
 31
0.0
  0
LINE
  5
31C
330
23C
100
AcDbEntity
  8
Dimension (ANSI)
440
 16777216
100
AcDbLine
 10
18.06446672480524
 20
34.2468146371049
 30
0.0
 11
14.36717536483669
 21
34.24681463710491
 31
0.0
  0
LINE
  5
31D
330
23C
100
AcDbEntity
  8
Dimension (ANSI)
440
 16777216
100
AcDbLine
 10
15.11717536483669
 20
19.58736580483143
 30
0.0
 11
15.11717536483669
 21
26.0578483205493
 31
0.0
  0
LINE
  5
31E
330
23C
100
AcDbEntity
  8
Dimension (ANSI)
440
 16777216
100
AcDbLine
 10
15.11717536483669
 20
33.6562634693784
 30
0.0
 11
15.11717536483669
 21
27.1857809536605
 31
0.0
  0
SOLID
  5
31F
330
23C
100
AcDbEntity
  8
Dimension (ANSI)
440
 16777216
100
AcDbTrace
 10
15.0187501702156
 20
19.58736580483143
 30
0.0
 11
15.21560055945777
 21
19.58736580483143
 31
0.0
 12
15.11717536483669
 22
18.99681463710491
 32
0.0
 13
15.11717536483669
 23
18.99681463710491
 33
0.0
  0
SOLID
  5
320
330
23C
100
AcDbEntity
  8
Dimension (ANSI)
440
 16777216
100
AcDbTrace
 10
15.01875017021561
 20
33.6562634693784
 30
0.0
 11
15.21560055945778
 21
33.6562634693784
 31
0.0
 12
15.11717536483669
 22
34.24681463710491
 32
0.0
 13
15.11717536483669
 23
34.24681463710491
 33
0.0
  0
MTEXT
  5
321
330
23C
100
AcDbEntity
  8
Dimension (ANSI)
440
 16777216
100
AcDbMText
 10
13.69047283247343
 20
26.99680457570775
 30
0.0
 40
0.7200000286102295
 41
0.0
 71
     1
 72
     1
  1
\A1;15.250
  7
Note Text (ANSI)
 73
     1
 44
1.0
  0
POINT
  5
322
330
23C
100
AcDbEntity
  8
Defpoints
 62
     0
440
 16777216
100
AcDbPoint
 10
18.43946672480524
 20
18.99681463710491
 30
0.0
  0
POINT
  5
323
330
23C
100
AcDbEntity
  8
Defpoints
 62
     0
440
 16777216
100
AcDbPoint
 10
18.43946672480524
 20
34.2468146371049
 30
0.0
  0
POINT
  5
324
330
23C
100
AcDbEntity
  8
Defpoints
 62
     0
440
 16777216
100
AcDbPoint
 10
15.11717536483669
 20
34.24681463710491
 30
0.0
  0
ENDBLK
  5
23E
330
23C
100
AcDbEntity
  8
0
100
AcDbBlockEnd
  0
BLOCK
  5
327
330
326
100
AcDbEntity
  8
0
100
AcDbBlockBegin
  2
*D6
 70
     1
 10
0.0
 20
0.0
 30
0.0
  3
*D6
  1

  0
LINE
  5
405
330
326
100
AcDbEntity
  8
Dimension (ANSI)
440
 16777216
100
AcDbLine
 10
17.68946672480524
 20
50.62181463710491
 30
0.0
 11
17.68946672480524
 21
55.16772531427819
 31
0.0
  0
LINE
  5
406
330
326
100
AcDbEntity
  8
Dimension (ANSI)
440
 16777216
100
AcDbLine
 10
40.18946672480525
 20
50.62181463710491
 30
0.0
 11
40.18946672480525
 21
55.16772531427819
 31
0.0
  0
LINE
  5
407
330
326
100
AcDbEntity
  8
Dimension (ANSI)
440
 16777216
100
AcDbLine
 10
18.28001789253176
 20
54.41772531427819
 30
0.0
 11
27.56580259755916
 21
54.41772531427819
 31
0.0
  0
LINE
  5
408
330
326
100
AcDbEntity
  8
Dimension (ANSI)
440
 16777216
100
AcDbLine
 10
39.59891555707873
 20
54.41772531427819
 30
0.0
 11
30.31313085205133
 21
54.41772531427819
 31
0.0
  0
SOLID
  5
409
330
326
100
AcDbEntity
  8
Dimension (ANSI)
440
 16777216
100
AcDbTrace
 10
18.28001789253176
 20
54.51615050889928
 30
0.0
 11
18.28001789253176
 21
54.31930011965711
 31
0.0
 12
17.68946672480524
 22
54.41772531427819
 32
0.0
 13
17.68946672480524
 23
54.41772531427819
 33
0.0
  0
SOLID
  5
40A
330
326
100
AcDbEntity
  8
Dimension (ANSI)
440
 16777216
100
AcDbTrace
 10
39.59891555707873
 20
54.51615050889928
 30
0.0
 11
39.59891555707873
 21
54.31930011965711
 31
0.0
 12
40.18946672480525
 22
54.41772531427819
 32
0.0
 13
40.18946672480525
 23
54.41772531427819
 33
0.0
  0
MTEXT
  5
40B
330
326
100
AcDbEntity
  8
Dimension (ANSI)
440
 16777216
100
AcDbMText
 10
27.75477897551191
 20
54.79271525288104
 30
0.0
 40
0.7200000286102295
 41
0.0
 71
     1
 72
     1
  1
\A1;22.50
  7
Note Text (ANSI)
 73
     1
 44
1.0
  0
POINT
  5
40C
330
326
100
AcDbEntity
  8
Defpoints
 62
     0
440
 16777216
100
AcDbPoint
 10
17.68946672480524
 20
50.2468146371049
 30
0.0
  0
POINT
  5
40D
330
326
100
AcDbEntity
  8
Defpoints
 62
     0
440
 16777216
100
AcDbPoint
 10
40.18946672480525
 20
50.2468146371049
 30
0.0
  0
POINT
  5
40E
330
326
100
AcDbEntity
  8
Defpoints
 62
     0
440
 16777216
100
AcDbPoint
 10
40.18946672480525
 20
54.41772531427819
 30
0.0
  0
ENDBLK
  5
328
330
326
100
AcDbEntity
  8
0
100
AcDbBlockEnd
  0
BLOCK
  5
411
330
410
100
AcDbEntity
  8
0
100
AcDbBlockBegin
  2
*D7
 70
     1
 10
0.0
 20
0.0
 30
0.0
  3
*D7
  1

  0
LINE
  5
503
330
410
100
AcDbEntity
  8
Dimension (ANSI)
440
 16777216
100
AcDbLine
 10
40.18946672480525
 20
50.62181463710491
 30
0.0
 11
40.18946672480525
 21
53.50783600402635
 31
0.0
  0
LINE
  5
504
330
410
100
AcDbEntity
  8
Dimension (ANSI)
440
 16777216
100
AcDbLine
 10
39.43946672480524
 20
49.8718146371049
 30
0.0
 11
39.43946672480524
 21
53.50783600402635
 31
0.0
  0
LINE
  5
505
330
410
100
AcDbEntity
  8
Dimension (ANSI)
440
 16777216
100
AcDbLine
 10
38.84891555707873
 20
52.75783600402634
 30
0.0
 11
38.25836438935221
 21
52.75783600402634
 31
0.0
  0
LINE
  5
506
330
410
100
AcDbEntity
  8
Dimension (ANSI)
440
 16777216
100
AcDbLine
 10
40.78001789253177
 20
52.75783600402634
 30
0.0
 11
42.44343216897635
 21
52.75783600402634
 31
0.0
  0
SOLID
  5
507
330
410
100
AcDbEntity
  8
Dimension (ANSI)
440
 16777216
100
AcDbTrace
 10
38.84891555707873
 20
52.85626119864743
 30
0.0
 11
38.84891555707873
 21
52.65941080940526
 31
0.0
 12
39.43946672480524
 22
52.75783600402634
 32
0.0
 13
39.43946672480524
 23
52.75783600402634
 33
0.0
  0
SOLID
  5
508
330
410
100
AcDbEntity
  8
Dimension (ANSI)
440
 16777216
100
AcDbTrace
 10
40.78001789253177
 20
52.85626119864743
 30
0.0
 11
40.78001789253177
 21
52.65941080940526
 31
0.0
 12
40.18946672480525
 22
52.75783600402634
 32
0.0
 13
40.18946672480525
 23
52.75783600402634
 33
0.0
  0
MTEXT
  5
509
330
410
100
AcDbEntity
  8
Dimension (ANSI)
440
 16777216
100
AcDbMText
 10
43.823382394484
 20
52.75783600402634
 30
0.0
 40
0.7200000286102295
 41
0.0
 71
     5
 72
     1
  1
\A1;0.750{\PTYP.}
  7
Note Text (ANSI)
 73
     1
 44
1.0
  0
POINT
  5
50A
330
410
100
AcDbEntity
  8
Defpoints
 62
     0
440
 16777216
100
AcDbPoint
 10
40.18946672480525
 20
50.2468146371049
 30
0.0
  0
POINT
  5
50B
330
410
100
AcDbEntity
  8
Defpoints
 62
     0
440
 16777216
100
AcDbPoint
 10
39.43946672480524
 20
49.4968146371049
 30
0.0
  0
POINT
  5
50C
330
410
100
AcDbEntity
  8
Defpoints
 62
     0
440
 16777216
100
AcDbPoint
 10
39.43946672480524
 20
52.75783600402634
 30
0.0
  0
ENDBLK
  5
412
330
410
100
AcDbEntity
  8
0
100
AcDbBlockEnd
  0
BLOCK
  5
50F
330
50E
100
AcDbEntity
  8
0
100
AcDbBlockBegin
  2
*D8
 70
     1
 10
0.0
 20
0.0
 30
0.0
  3
*D8
  1

  0
LINE
  5
618
330
50E
100
AcDbEntity
  8
Dimension (ANSI)
440
 16777216
100
AcDbLine
 10
40.56446672480524
 20
50.2468146371049
 30
0.0
 11
45.30514218183267
 21
50.2468146371049
 31
0.0
  0
LINE
  5
619
330
50E
100
AcDbEntity
  8
Dimension (ANSI)
440
 16777216
100
AcDbLine
 10
39.81446672480524
 20
49.4968146371049
 30
0.0
 11
45.30514218183267
 21
49.4968146371049
 31
0.0
  0
LINE
  5
61A
330
50E
100
AcDbEntity
  8
Dimension (ANSI)
440
 16777216
100
AcDbLine
 10
44.55514218183266
 20
50.83736580483142
 30
0.0
 11
44.55514218183266
 21
51.42791697255794
 31
0.0
  0
LINE
  5
61B
330
50E
100
AcDbEntity
  8
Dimension (ANSI)
440
 16777216
100
AcDbLine
 10
44.55514218183266
 20
48.90626346937838
 30
0.0
 11
44.55514218183266
 21
47.56721905274879
 31
0.0
  0
LINE
  5
61C
330
50E
100
AcDbEntity
  8
Dimension (ANSI)
440
 16777216
100
AcDbLine
 10
44.55514218183266
 20
47.56721905274879
 30
0.0
 11
43.96459101410615
 21
47.56721905274879
 31
0.0
  0
SOLID
  5
61D
330
50E
100
AcDbEntity
  8
Dimension (ANSI)
440
 16777216
100
AcDbTrace
 10
44.45671698721159
 20
50.83736580483142
 30
0.0
 11
44.65356737645375
 21
50.83736580483142
 31
0.0
 12
44.55514218183266
 22
50.2468146371049
 32
0.0
 13
44.55514218183266
 23
50.2468146371049
 33
0.0
  0
SOLID
  5
61E
330
50E
100
AcDbEntity
  8
Dimension (ANSI)
440
 16777216
100
AcDbTrace
 10
44.45671698721159
 20
48.90626346937838
 30
0.0
 11
44.65356737645375
 21
48.90626346937838
 31
0.0
 12
44.55514218183266
 22
49.4968146371049
 32
0.0
 13
44.55514218183266
 23
49.4968146371049
 33
0.0
  0
MTEXT
  5
61F
330
50E
100
AcDbEntity
  8
Dimension (ANSI)
440
 16777216
100
AcDbMText
 10
41.39366694104361
 20
48.0508456658102
 30
0.0
 40
0.7200000286102295
 41
0.0
 71
     1
 72
     1
  1
\A1;0.750{\PTYP.}
  7
Note Text (ANSI)
 73
     1
 44
1.0
  0
POINT
  5
620
330
50E
100
AcDbEntity
  8
Defpoints
 62
     0
440
 16777216
100
AcDbPoint
 10
40.18946672480525
 20
50.2468146371049
 30
0.0
  0
POINT
  5
621
330
50E
100
AcDbEntity
  8
Defpoints
 62
     0
440
 16777216
100
AcDbPoint
 10
39.43946672480524
 20
49.4968146371049
 30
0.0
  0
POINT
  5
622
330
50E
100
AcDbEntity
  8
Defpoints
 62
     0
440
 16777216
100
AcDbPoint
 10
44.55514218183266
 20
49.4968146371049
 30
0.0
  0
ENDBLK
  5
510
330
50E
100
AcDbEntity
  8
0
100
AcDbBlockEnd
  0
BLOCK
  5
625
330
624
100
AcDbEntity
  8
0
100
AcDbBlockBegin
  2
*D9
 70
     1
 10
0.0
 20
0.0
 30
0.0
  3
*D9
  1

  0
LINE
  5
6D6
330
624
100
AcDbEntity
  8
Dimension (ANSI)
440
 16777216
100
AcDbLine
 10
41.77247935980022
 20
16.28745849059247
 30
0.0
 11
41.00371422532555
 21
16.28745849059247
 31
0.0
  0
LINE
  5
6D7
330
624
100
AcDbEntity
  8
Dimension (ANSI)
440
 16777216
100
AcDbLine
 10
41.00371422532555
 20
16.28745849059247
 30
0.0
 11
39.87549230866867
 21
18.24159617245395
 31
0.0
  0
MTEXT
  5
6D8
102
{ACAD_XDICTIONARY
360
BAE
102
}
330
624
100
AcDbEntity
  8
Dimension (ANSI)
440
 16777216
100
AcDbMText
 10
43.53532316402703
 20
16.28745849059248
 30
0.0
 40
0.7200000286102295
 41
0.0
 71
     5
 72
     1
  1
\A1;\U+22050.563{\P(6 PL.)}
  7
Note Text (ANSI)
 73
     1
 44
1.0
  0
SOLID
  5
6D9
330
624
100
AcDbEntity
  8
Dimension (ANSI)
440
 16777216
100
AcDbTrace
 10
39.96073102758295
 20
18.29080876976451
 30
0.0
 11
39.79025358975439
 21
18.19238357514339
 31
0.0
 12
39.5802167248053
 22
18.75302848593962
 32
0.0
 13
39.5802167248053
 23
18.75302848593962
 33
0.0
  0
LINE
  5
6DA
330
624
100
AcDbEntity
  8
Dimension (ANSI)
440
 16777216
100
AcDbLine
 10
38.89946672480525
 20
18.99681463710491
 30
0.0
 11
39.97946672480524
 21
18.99681463710491
 31
0.0
  0
LINE
  5
6DB
330
624
100
AcDbEntity
  8
Dimension (ANSI)
440
 16777216
100
AcDbLine
 10
39.43946672480524
 20
18.45681463710491
 30
0.0
 11
39.43946672480524
 21
19.53681463710491
 31
0.0
  0
POINT
  5
6DC
330
624
100
AcDbEntity
  8
Defpoints
 62
     0
440
 16777216
100
AcDbPoint
 10
39.5802167248053
 20
18.75302848593962
 30
0.0
  0
POINT
  5
6DD
330
624
100
AcDbEntity
  8
Defpoints
 62
     0
440
 16777216
100
AcDbPoint
 10
39.29871672480519
 20
19.2406007882702
 30
0.0
  0
ENDBLK
  5
626
330
624
100
AcDbEntity
  8
0
100
AcDbBlockEnd
  0
BLOCK
  5
6E0
330
6DF
100
AcDbEntity
  8
0
100
AcDbBlockBegin
  2
*D10
 70
     1
 10
0.0
 20
0.0
 30
0.0
  3
*D10
  1

  0
LINE
  5
78F
330
6DF
100
AcDbEntity
  8
Dimension (ANSI)
440
 16777216
100
AcDbLine
 10
23.77496414291516
 20
16.40177959949287
 30
0.0
 11
23.03450176241802
 21
16.40177959949286
 31
0.0
  0
LINE
  5
790
330
6DF
100
AcDbEntity
  8
Dimension (ANSI)
440
 16777216
100
AcDbLine
 10
23.03450176241802
 20
16.40177959949286
 30
0.0
 11
20.96735811800747
 21
18.46892324390282
 31
0.0
  0
MTEXT
  5
791
102
{ACAD_XDICTIONARY
360
BB0
102
}
330
6DF
100
AcDbEntity
  8
Dimension (ANSI)
440
 16777216
100
AcDbMText
 10
23.96394052086791
 20
16.89590486855888
 30
0.0
 40
0.7200000286102295
 41
0.0
 71
     1
 72
     1
  1
\A1;\U+22050.312{\PGROUND HOLE}
  7
Note Text (ANSI)
 73
     1
 44
1.0
  0
SOLID
  5
792
330
6DF
100
AcDbEntity
  8
Dimension (ANSI)
440
 16777216
100
AcDbTrace
 10
21.03695524056364
 20
18.538520366459
 30
0.0
 11
20.89776099545131
 21
18.39932612134663
 31
0.0
 12
20.54977538267036
 22
18.88650597923981
 32
0.0
 13
20.54977538267036
 23
18.88650597923981
 33
0.0
  0
LINE
  5
793
330
6DF
100
AcDbEntity
  8
Dimension (ANSI)
440
 16777216
100
AcDbLine
 10
19.89946672480524
 20
18.9968146371049
 30
0.0
 11
20.97946672480524
 21
18.99681463710489
 31
0.0
  0
LINE
  5
794
330
6DF
100
AcDbEntity
  8
Dimension (ANSI)
440
 16777216
100
AcDbLine
 10
20.43946672480524
 20
18.4568146371049
 30
0.0
 11
20.43946672480524
 21
19.5368146371049
 31
0.0
  0
POINT
  5
795
330
6DF
100
AcDbEntity
  8
Defpoints
 62
     0
440
 16777216
100
AcDbPoint
 10
20.54977538267036
 20
18.88650597923981
 30
0.0
  0
POINT
  5
796
330
6DF
100
AcDbEntity
  8
Defpoints
 62
     0
440
 16777216
100
AcDbPoint
 10
20.32915806694012
 20
19.10712329496998
 30
0.0
  0
ENDBLK
  5
6E1
330
6DF
100
AcDbEntity
  8
0
100
AcDbBlockEnd
  0
BLOCK
  5
799
330
798
100
AcDbEntity
  8
0
100
AcDbBlockBegin
  2
*D11
 70
     1
 10
0.0
 20
0.0
 30
0.0
  3
*D11
  1

  0
LINE
  5
895
330
798
100
AcDbEntity
  8
Dimension (ANSI)
440
 16777216
100
AcDbLine
 10
61.52498689555588
 20
50.62181463710491
 30
0.0
 11
61.52498689555588
 21
53.35901936151435
 31
0.0
  0
LINE
  5
896
330
798
100
AcDbEntity
  8
Dimension (ANSI)
440
 16777216
100
AcDbLine
 10
61.61873689555587
 20
50.62181463710491
 30
0.0
 11
61.61873689555587
 21
53.35901936151435
 31
0.0
  0
LINE
  5
897
330
798
100
AcDbEntity
  8
Dimension (ANSI)
440
 16777216
100
AcDbLine
 10
62.20928806328239
 20
52.60901936151435
 30
0.0
 11
62.79983923100891
 21
52.60901936151435
 31
0.0
  0
LINE
  5
898
330
798
100
AcDbEntity
  8
Dimension (ANSI)
440
 16777216
100
AcDbLine
 10
60.93443572782936
 20
52.60901936151435
 30
0.0
 11
59.40885175907703
 21
52.60901936151435
 31
0.0
  0
SOLID
  5
899
330
798
100
AcDbEntity
  8
Dimension (ANSI)
440
 16777216
100
AcDbTrace
 10
62.20928806328239
 20
52.70744455613543
 30
0.0
 11
62.20928806328239
 21
52.51059416689326
 31
0.0
 12
61.61873689555587
 22
52.60901936151435
 32
0.0
 13
61.61873689555587
 23
52.60901936151435
 33
0.0
  0
SOLID
  5
89A
330
798
100
AcDbEntity
  8
Dimension (ANSI)
440
 16777216
100
AcDbTrace
 10
60.93443572782936
 20
52.70744455613543
 30
0.0
 11
60.93443572782936
 21
52.51059416689326
 31
0.0
 12
61.52498689555588
 22
52.60901936151435
 32
0.0
 13
61.52498689555588
 23
52.60901936151435
 33
0.0
  0
MTEXT
  5
89B
330
798
100
AcDbEntity
  8
Dimension (ANSI)
440
 16777216
100
AcDbMText
 10
56.47913653908567
 20
52.60901936151435
 30
0.0
 40
0.7200000286102295
 41
0.0
 71
     5
 72
     1
  1
\A1;{12 GA. C.R.S\P}(0.094)
  7
Note Text (ANSI)
 73
     1
 44
1.0
  0
POINT
  5
89C
330
798
100
AcDbEntity
  8
Defpoints
 62
     0
440
 16777216
100
AcDbPoint
 10
61.52498689555588
 20
50.2468146371049
 30
0.0
  0
POINT
  5
89D
330
798
100
AcDbEntity
  8
Defpoints
 62
     0
440
 16777216
100
AcDbPoint
 10
61.61873689555587
 20
50.2468146371049
 30
0.0
  0
POINT
  5
89E
330
798
100
AcDbEntity
  8
Defpoints
 62
     0
440
 16777216
100
AcDbPoint
 10
61.61873689555587
 20
52.60901936151435
 30
0.0
  0
ENDBLK
  5
79A
330
798
100
AcDbEntity
  8
0
100
AcDbBlockEnd
  0
BLOCK
  5
8A1
330
8A0
100
AcDbEntity
  8
0
100
AcDbBlockBegin
  2
*D12
 70
     1
 10
0.0
 20
0.0
 30
0.0
  3
*D12
  1

  0
LINE
  5
97F
330
8A0
100
AcDbEntity
  8
Dimension (ANSI)
440
 16777216
100
AcDbLine
 10
18.06446672480524
 20
18.99681463710491
 30
0.0
 11
11.07529349645878
 21
18.99681463710491
 31
0.0
  0
LINE
  5
980
330
8A0
100
AcDbEntity
  8
Dimension (ANSI)
440
 16777216
100
AcDbLine
 10
18.06446672480524
 20
49.4968146371049
 30
0.0
 11
11.07529349645879
 21
49.4968146371049
 31
0.0
  0
LINE
  5
981
330
8A0
100
AcDbEntity
  8
Dimension (ANSI)
440
 16777216
100
AcDbLine
 10
11.82529349645879
 20
19.58736580483143
 30
0.0
 11
11.82529349645879
 21
33.68284832054931
 31
0.0
  0
LINE
  5
982
330
8A0
100
AcDbEntity
  8
Dimension (ANSI)
440
 16777216
100
AcDbLine
 10
11.82529349645879
 20
48.90626346937839
 30
0.0
 11
11.82529349645879
 21
34.81078095366052
 31
0.0
  0
SOLID
  5
983
330
8A0
100
AcDbEntity
  8
Dimension (ANSI)
440
 16777216
100
AcDbTrace
 10
11.7268683018377
 20
19.58736580483143
 30
0.0
 11
11.92371869107987
 21
19.58736580483143
 31
0.0
 12
11.82529349645879
 22
18.99681463710491
 32
0.0
 13
11.82529349645879
 23
18.99681463710491
 33
0.0
  0
SOLID
  5
984
330
8A0
100
AcDbEntity
  8
Dimension (ANSI)
440
 16777216
100
AcDbTrace
 10
11.72686830183771
 20
48.90626346937839
 30
0.0
 11
11.92371869107988
 21
48.90626346937839
 31
0.0
 12
11.82529349645879
 22
49.4968146371049
 32
0.0
 13
11.82529349645879
 23
49.4968146371049
 33
0.0
  0
MTEXT
  5
985
330
8A0
100
AcDbEntity
  8
Dimension (ANSI)
440
 16777216
100
AcDbMText
 10
10.36740224579781
 20
34.62180457570776
 30
0.0
 40
0.7200000286102295
 41
0.0
 71
     1
 72
     1
  1
\A1;30.500
  7
Note Text (ANSI)
 73
     1
 44
1.0
  0
POINT
  5
986
330
8A0
100
AcDbEntity
  8
Defpoints
 62
     0
440
 16777216
100
AcDbPoint
 10
18.43946672480524
 20
18.99681463710491
 30
0.0
  0
POINT
  5
987
330
8A0
100
AcDbEntity
  8
Defpoints
 62
     0
440
 16777216
100
AcDbPoint
 10
18.43946672480524
 20
49.4968146371049
 30
0.0
  0
POINT
  5
988
330
8A0
100
AcDbEntity
  8
Defpoints
 62
     0
440
 16777216
100
AcDbPoint
 10
11.82529349645879
 20
49.4968146371049
 30
0.0
  0
ENDBLK
  5
8A2
330
8A0
100
AcDbEntity
  8
0
100
AcDbBlockEnd
  0
BLOCK
  5
98B
330
98A
100
AcDbEntity
  8
0
100
AcDbBlockBegin
  2
*D13
 70
     1
 10
0.0
 20
0.0
 30
0.0
  3
*D13
  1

  0
LINE
  5
A69
330
98A
100
AcDbEntity
  8
Dimension (ANSI)
440
 16777216
100
AcDbLine
 10
18.43946672480524
 20
49.8718146371049
 30
0.0
 11
18.43946672480524
 21
53.50783600402634
 31
0.0
  0
LINE
  5
A6A
330
98A
100
AcDbEntity
  8
Dimension (ANSI)
440
 16777216
100
AcDbLine
 10
39.43946672480524
 20
49.8718146371049
 30
0.0
 11
39.43946672480524
 21
53.50783600402634
 31
0.0
  0
LINE
  5
A6B
330
98A
100
AcDbEntity
  8
Dimension (ANSI)
440
 16777216
100
AcDbLine
 10
19.03001789253175
 20
52.75783600402633
 30
0.0
 11
27.29550037231223
 21
52.75783600402633
 31
0.0
  0
LINE
  5
A6C
330
98A
100
AcDbEntity
  8
Dimension (ANSI)
440
 16777216
100
AcDbLine
 10
38.84891555707873
 20
52.75783600402633
 30
0.0
 11
30.58343307729826
 21
52.75783600402633
 31
0.0
  0
SOLID
  5
A6D
330
98A
100
AcDbEntity
  8
Dimension (ANSI)
440
 16777216
100
AcDbTrace
 10
19.03001789253175
 20
52.85626119864742
 30
0.0
 11
19.03001789253175
 21
52.65941080940525
 31
0.0
 12
18.43946672480524
 22
52.75783600402633
 32
0.0
 13
18.43946672480524
 23
52.75783600402633
 33
0.0
  0
SOLID
  5
A6E
330
98A
100
AcDbEntity
  8
Dimension (ANSI)
440
 16777216
100
AcDbTrace
 10
38.84891555707873
 20
52.85626119864742
 30
0.0
 11
38.84891555707873
 21
52.65941080940525
 31
0.0
 12
39.43946672480524
 22
52.75783600402633
 32
0.0
 13
39.43946672480524
 23
52.75783600402633
 33
0.0
  0
MTEXT
  5
A6F
330
98A
100
AcDbEntity
  8
Dimension (ANSI)
440
 16777216
100
AcDbMText
 10
27.48447675026499
 20
53.13282594262918
 30
0.0
 40
0.7200000286102295
 41
0.0
 71
     1
 72
     1
  1
\A1;21.000
  7
Note Text (ANSI)
 73
     1
 44
1.0
  0
POINT
  5
A70
330
98A
100
AcDbEntity
  8
Defpoints
 62
     0
440
 16777216
100
AcDbPoint
 10
18.43946672480524
 20
49.4968146371049
 30
0.0
  0
POINT
  5
A71
330
98A
100
AcDbEntity
  8
Defpoints
 62
     0
440
 16777216
100
AcDbPoint
 10
39.43946672480524
 20
49.4968146371049
 30
0.0
  0
POINT
  5
A72
330
98A
100
AcDbEntity
  8
Defpoints
 62
     0
440
 16777216
100
AcDbPoint
 10
39.43946672480524
 20
52.75783600402633
 30
0.0
  0
ENDBLK
  5
98C
330
98A
100
AcDbEntity
  8
0
100
AcDbBlockEnd
  0
BLOCK
  5
A75
330
A74
100
AcDbEntity
  8
0
100
AcDbBlockBegin
  2
*D14
 70
     1
 10
0.0
 20
0.0
 30
0.0
  3
*D14
  1

  0
LINE
  5
B53
330
A74
100
AcDbEntity
  8
Dimension (ANSI)
440
 16777216
100
AcDbLine
 10
18.43946672480524
 20
18.62181463710491
 30
0.0
 11
18.43946672480524
 21
15.88460991269546
 31
0.0
  0
LINE
  5
B54
330
A74
100
AcDbEntity
  8
Dimension (ANSI)
440
 16777216
100
AcDbLine
 10
20.43946672480525
 20
18.6218146371049
 30
0.0
 11
20.43946672480525
 21
15.88460991269546
 31
0.0
  0
LINE
  5
B55
330
A74
100
AcDbEntity
  8
Dimension (ANSI)
440
 16777216
100
AcDbLine
 10
19.84891555707873
 20
16.63460991269546
 30
0.0
 11
19.03001789253176
 21
16.63460991269546
 31
0.0
  0
LINE
  5
B56
330
A74
100
AcDbEntity
  8
Dimension (ANSI)
440
 16777216
100
AcDbLine
 10
18.43946672480524
 20
16.63460991269546
 30
0.0
 11
17.40039945705829
 21
16.63460991269546
 31
0.0
  0
SOLID
  5
B57
330
A74
100
AcDbEntity
  8
Dimension (ANSI)
440
 16777216
100
AcDbTrace
 10
19.84891555707873
 20
16.73303510731655
 30
0.0
 11
19.84891555707873
 21
16.53618471807438
 31
0.0
 12
20.43946672480525
 22
16.63460991269546
 32
0.0
 13
20.43946672480525
 23
16.63460991269546
 33
0.0
  0
SOLID
  5
B58
330
A74
100
AcDbEntity
  8
Dimension (ANSI)
440
 16777216
100
AcDbTrace
 10
19.03001789253176
 20
16.73303510731655
 30
0.0
 11
19.03001789253176
 21
16.53618471807438
 31
0.0
 12
18.43946672480524
 22
16.63460991269546
 32
0.0
 13
18.43946672480524
 23
16.63460991269546
 33
0.0
  0
MTEXT
  5
B59
330
A74
100
AcDbEntity
  8
Dimension (ANSI)
440
 16777216
100
AcDbMText
 10
14.84204758051888
 20
17.00959985129831
 30
0.0
 40
0.7200000286102295
 41
0.0
 71
     1
 72
     1
  1
\A1;2.000
  7
Note Text (ANSI)
 73
     1
 44
1.0
  0
POINT
  5
B5A
330
A74
100
AcDbEntity
  8
Defpoints
 62
     0
440
 16777216
100
AcDbPoint
 10
18.43946672480524
 20
18.99681463710491
 30
0.0
  0
POINT
  5
B5B
330
A74
100
AcDbEntity
  8
Defpoints
 62
     0
440
 16777216
100
AcDbPoint
 10
20.43946672480525
 20
18.9968146371049
 30
0.0
  0
POINT
  5
B5C
330
A74
100
AcDbEntity
  8
Defpoints
 62
     0
440
 16777216
100
AcDbPoint
 10
20.43946672480525
 20
16.63460991269546
 30
0.0
  0
ENDBLK
  5
A76
330
A74
100
AcDbEntity
  8
0
100
AcDbBlockEnd
  0
ENDSEC
  0
SECTION
  2
ENTITIES
  0
CIRCLE
  5
11B
330
6C
100
AcDbEntity
  8
Visible (ANSI)
100
AcDbCircle
 10
39.43946672480524
 20
34.24681463710491
 30
0.0
 40
0.2814999999999999
  0
CIRCLE
  5
11C
330
6C
100
AcDbEntity
  8
Visible (ANSI)
100
AcDbCircle
 10
18.43946672480524
 20
34.2468146371049
 30
0.0
 40
0.2814999999999999
  0
CIRCLE
  5
11D
330
6C
100
AcDbEntity
  8
Visible (ANSI)
100
AcDbCircle
 10
20.43946672480525
 20
18.9968146371049
 30
0.0
 40
0.1559999999999999
  0
CIRCLE
  5
11E
330
6C
100
AcDbEntity
  8
Visible (ANSI)
100
AcDbCircle
 10
39.43946672480524
 20
18.99681463710491
 30
0.0
 40
0.2814999999999999
  0
CIRCLE
  5
11F
330
6C
100
AcDbEntity
  8
Visible (ANSI)
100
AcDbCircle
 10
18.43946672480524
 20
18.99681463710491
 30
0.0
 40
0.2814999999999999
  0
CIRCLE
  5
120
330
6C
100
AcDbEntity
  8
Visible (ANSI)
100
AcDbCircle
 10
39.43946672480524
 20
49.4968146371049
 30
0.0
 40
0.2814999999999999
  0
CIRCLE
  5
121
330
6C
100
AcDbEntity
  8
Visible (ANSI)
100
AcDbCircle
 10
18.43946672480524
 20
49.4968146371049
 30
0.0
 40
0.2814999999999999
  0
LINE
  5
122
330
6C
100
AcDbEntity
  8
Visible (ANSI)
100
AcDbLine
 10
17.68946672480525
 20
18.2468146371049
 30
0.0
 11
17.68946672480524
 21
50.2468146371049
 31
0.0
  0
LINE
  5
123
330
6C
100
AcDbEntity
  8
Visible (ANSI)
100
AcDbLine
 10
17.68946672480524
 20
50.2468146371049
 30
0.0
 11
40.18946672480525
 21
50.2468146371049
 31
0.0
  0
LINE
  5
124
330
6C
100
AcDbEntity
  8
Visible (ANSI)
100
AcDbLine
 10
40.18946672480525
 20
50.2468146371049
 30
0.0
 11
40.18946672480525
 21
18.2468146371049
 31
0.0
  0
LINE
  5
125
330
6C
100
AcDbEntity
  8
Visible (ANSI)
100
AcDbLine
 10
40.18946672480525
 20
18.2468146371049
 30
0.0
 11
17.68946672480525
 21
18.2468146371049
 31
0.0
  0
MTEXT
  5
127
330
6C
100
AcDbEntity
  8
Symbol (ANSI)
100
AcDbMText
 10
25.89653556931287
 20
11.98958680324049
 30
0.0
 40
0.7200000088984572
 41
0.0
 71
     7
 72
     1
  1
FRONT VIEW
  7
Text Style169
 73
     1
 44
1.0
  0
LINE
  5
129
330
6C
100
AcDbEntity
  8
Symbol (ANSI)
370
    30
100
AcDbLine
 10
25.82453538410256
 20
11.84275697899115
 30
0.0
 11
31.61312540981662
 21
11.84275697899115
 31
0.0
  0
LINE
  5
12A
330
6C
100
AcDbEntity
  8
Visible (ANSI)
100
AcDbLine
 10
61.61873689555587
 20
50.2468146371049
 30
0.0
 11
61.52498689555587
 21
50.2468146371049
 31
0.0
  0
LINE
  5
12B
330
6C
100
AcDbEntity
  8
Visible (ANSI)
100
AcDbLine
 10
61.52498689555587
 20
50.2468146371049
 30
0.0
 11
61.52498689555587
 21
18.2468146371049
 31
0.0
  0
LINE
  5
12C
330
6C
100
AcDbEntity
  8
Visible (ANSI)
100
AcDbLine
 10
61.61873689555587
 20
18.2468146371049
 30
0.0
 11
61.52498689555587
 21
18.2468146371049
 31
0.0
  0
LINE
  5
12D
330
6C
100
AcDbEntity
  8
Visible (ANSI)
100
AcDbLine
 10
61.61873689555587
 20
18.2468146371049
 30
0.0
 11
61.61873689555587
 21
50.2468146371049
 31
0.0
  0
LINE
  5
12E
330
6C
100
AcDbEntity
  8
Hidden (ANSI)
 48
0.0296608842909336
100
AcDbLine
 10
61.61873689555565
 20
33.9653146371049
 30
0.0
 11
61.52498689555565
 21
33.9653146371049
 31
0.0
  0
LINE
  5
12F
330
6C
100
AcDbEntity
  8
Hidden (ANSI)
 48
0.0296608842909336
100
AcDbLine
 10
61.61873689555565
 20
34.52831463710491
 30
0.0
 11
61.52498689555565
 21
34.52831463710491
 31
0.0
  0
LINE
  5
130
330
6C
100
AcDbEntity
  8
Hidden (ANSI)
 48
0.0296608842909336
100
AcDbLine
 10
61.61873689555001
 20
18.8408146371049
 30
0.0
 11
61.52498689555001
 21
18.8408146371049
 31
0.0
  0
LINE
  5
131
330
6C
100
AcDbEntity
  8
Hidden (ANSI)
 48
0.0296608842909336
100
AcDbLine
 10
61.61873689555001
 20
19.1528146371049
 30
0.0
 11
61.52498689555001
 21
19.1528146371049
 31
0.0
  0
LINE
  5
132
330
6C
100
AcDbEntity
  8
Hidden (ANSI)
 48
0.0296608842909336
100
AcDbLine
 10
61.61873689555565
 20
18.71531463710491
 30
0.0
 11
61.52498689555565
 21
18.71531463710491
 31
0.0
  0
LINE
  5
133
330
6C
100
AcDbEntity
  8
Hidden (ANSI)
 48
0.0296608842909336
100
AcDbLine
 10
61.61873689555565
 20
19.2783146371049
 30
0.0
 11
61.52498689555565
 21
19.2783146371049
 31
0.0
  0
LINE
  5
134
330
6C
100
AcDbEntity
  8
Hidden (ANSI)
 48
0.0296608842909336
100
AcDbLine
 10
61.61873689555565
 20
49.2153146371049
 30
0.0
 11
61.52498689555565
 21
49.2153146371049
 31
0.0
  0
LINE
  5
135
330
6C
100
AcDbEntity
  8
Hidden (ANSI)
 48
0.0296608842909336
100
AcDbLine
 10
61.61873689555565
 20
49.7783146371049
 30
0.0
 11
61.52498689555565
 21
49.7783146371049
 31
0.0
  0
MTEXT
  5
136
330
6C
100
AcDbEntity
  8
Symbol (ANSI)
100
AcDbMText
 10
59.17595452916415
 20
14.20061810337063
 30
0.0
 40
0.7200000088984572
 41
0.0
 71
     7
 72
     1
  1
SIDE VIEW
  7
Text Style169
 73
     1
 44
1.0
  0
LINE
  5
137
330
6C
100
AcDbEntity
  8
Symbol (ANSI)
370
    30
100
AcDbLine
 10
59.13909043433646
 20
14.05145440638239
 30
0.0
 11
64.00463335676943
 21
14.05145440638239
 31
0.0
  0
ELLIPSE
  5
138
330
6C
100
AcDbEntity
  8
Visible (ANSI)
100
AcDbEllipse
 10
96.26931284649895
 20
40.88596113888584
 30
0.0
 11
-0.1053581756707576
 21
0.1829574279561499
 31
0.0
210
0.0
220
0.0
230
1.0
 40
0.578093115915809
 41
0.0
 42
6.283185307179586
  0
ELLIPSE
  5
139
330
6C
100
AcDbEntity
  8
Visible (ANSI)
100
AcDbEllipse
 10
96.31903129205113
 20
40.91459208751188
 30
0.0
 11
-0.1053581756707573
 21
0.1829574279561494
 31
0.0
210
0.0
220
0.0
230
0.9999999999999998
 40
0.5780931159158092
 41
0.237258564778382
 42
2.904334088811372
  0
ELLIPSE
  5
13A
330
6C
100
AcDbEntity
  8
Visible (ANSI)
100
AcDbEllipse
 10
85.13238104280919
 20
47.29929363111422
 30
0.0
 11
-0.1053581756707576
 21
0.1829574279561499
 31
0.0
210
0.0
220
0.0
230
1.0
 40
0.578093115915809
 41
0.0
 42
6.283185307179586
  0
ELLIPSE
  5
13B
330
6C
100
AcDbEntity
  8
Visible (ANSI)
100
AcDbEllipse
 10
85.18209948836135
 20
47.32792457974024
 30
0.0
 11
-0.1053581756707576
 21
0.1829574279561499
 31
0.0
210
0.0
220
0.0
230
1.0
 40
0.5780931159158093
 41
0.2372585647783826
 42
2.904334088811347
  0
ELLIPSE
  5
13C
330
6C
100
AcDbEntity
  8
Visible (ANSI)
100
AcDbEllipse
 10
86.19304121458913
 20
37.33780482003929
 30
0.0
 11
-0.0583867687553754
 21
0.1013902620289854
 31
0.0
210
0.0
220
0.0
230
1.0
 40
0.5780931159158092
 41
0.0
 42
6.283185307179586
  0
ELLIPSE
  5
13D
330
6C
100
AcDbEntity
  8
Visible (ANSI)
100
AcDbEllipse
 10
86.24275966014131
 20
37.36643576866531
 30
0.0
 11
0.0583867687553815
 21
-0.1013902620289819
 31
0.0
210
0.0
220
0.0
230
1.0
 40
0.578093115915809
 41
3.579587715535026
 42
5.84519024523342
  0
ELLIPSE
  5
13E
330
6C
100
AcDbEntity
  8
Visible (ANSI)
100
AcDbEllipse
 10
96.26931284649893
 20
31.53526589849934
 30
0.0
 11
-0.1053581756707576
 21
0.1829574279561499
 31
0.0
210
0.0
220
0.0
230
1.0
 40
0.578093115915809
 41
0.0
 42
6.283185307179586
  0
ELLIPSE
  5
13F
330
6C
100
AcDbEntity
  8
Visible (ANSI)
100
AcDbEllipse
 10
96.31903129205111
 20
31.56389684712536
 30
0.0
 11
-0.1053581756707574
 21
0.1829574279561496
 31
0.0
210
0.0
220
0.0
230
1.0
 40
0.578093115915809
 41
0.237258564778382
 42
2.90433408881136
  0
ELLIPSE
  5
140
330
6C
100
AcDbEntity
  8
Visible (ANSI)
100
AcDbEllipse
 10
85.13238104280915
 20
37.94859839072771
 30
0.0
 11
-0.1053581756707576
 21
0.1829574279561499
 31
0.0
210
0.0
220
0.0
230
1.0
 40
0.578093115915809
 41
0.0
 42
6.283185307179586
  0
ELLIPSE
  5
141
330
6C
100
AcDbEntity
  8
Visible (ANSI)
100
AcDbEllipse
 10
85.18209948836135
 20
37.97722933935374
 30
0.0
 11
-0.1053581756707576
 21
0.1829574279561499
 31
0.0
210
0.0
220
0.0
230
1.0
 40
0.5780931159158092
 41
0.2372585647783818
 42
2.904334088811359
  0
ELLIPSE
  5
142
330
6C
100
AcDbEntity
  8
Visible (ANSI)
100
AcDbEllipse
 10
96.26931284649897
 20
50.23665637927237
 30
0.0
 11
-0.1053581756707576
 21
0.1829574279561499
 31
0.0
210
0.0
220
0.0
230
1.0
 40
0.578093115915809
 41
0.0
 42
6.283185307179586
  0
ELLIPSE
  5
143
330
6C
100
AcDbEntity
  8
Visible (ANSI)
100
AcDbEllipse
 10
96.31903129205113
 20
50.26528732789839
 30
0.0
 11
-0.1053581756707573
 21
0.1829574279561494
 31
0.0
210
0.0
220
0.0
230
0.9999999999999998
 40
0.5780931159158092
 41
0.237258564778382
 42
2.904334088811372
  0
ELLIPSE
  5
144
330
6C
100
AcDbEntity
  8
Visible (ANSI)
100
AcDbEllipse
 10
85.13238104280921
 20
56.64998887150074
 30
0.0
 11
-0.1053581756707576
 21
0.1829574279561499
 31
0.0
210
0.0
220
0.0
230
1.0
 40
0.578093115915809
 41
0.0
 42
6.283185307179586
  0
ELLIPSE
  5
145
330
6C
100
AcDbEntity
  8
Visible (ANSI)
100
AcDbEllipse
 10
85.18209948836137
 20
56.67861982012677
 30
0.0
 11
-0.1053581756707573
 21
0.1829574279561494
 31
0.0
210
0.0
220
0.0
230
1.0
 40
0.5780931159158093
 41
0.2372585647783824
 42
2.904334088811372
  0
LINE
  5
146
330
6C
100
AcDbEntity
  8
Visible (ANSI)
100
AcDbLine
 10
84.73463347839167
 20
37.71777572201194
 30
0.0
 11
84.73463347839171
 21
57.33890671823283
 31
0.0
  0
LINE
  5
147
330
6C
100
AcDbEntity
  8
Visible (ANSI)
100
AcDbLine
 10
84.78435192394389
 20
57.36753766685886
 30
0.0
 11
84.73463347839171
 21
57.33890671823283
 31
0.0
  0
LINE
  5
148
330
6C
100
AcDbEntity
  8
Visible (ANSI)
100
AcDbLine
 10
84.73463347839171
 20
57.33890671823283
 30
0.0
 11
96.66706041091646
 21
50.46747904798813
 31
0.0
  0
LINE
  5
149
330
6C
100
AcDbEntity
  8
Visible (ANSI)
100
AcDbLine
 10
96.71677885646865
 20
50.49610999661417
 30
0.0
 11
96.66706041091646
 21
50.46747904798813
 31
0.0
  0
LINE
  5
14A
330
6C
100
AcDbEntity
  8
Visible (ANSI)
100
AcDbLine
 10
96.71677885646865
 20
50.49610999661417
 30
0.0
 11
84.78435192394389
 21
57.36753766685886
 31
0.0
  0
LINE
  5
14B
330
6C
100
AcDbEntity
  8
Visible (ANSI)
100
AcDbLine
 10
96.66706041091646
 20
50.46747904798813
 30
0.0
 11
96.66706041091643
 21
30.84634805176725
 31
0.0
  0
LINE
  5
14C
330
6C
100
AcDbEntity
  8
Visible (ANSI)
100
AcDbLine
 10
96.71677885646857
 20
30.87497900039327
 30
0.0
 11
96.66706041091643
 21
30.84634805176725
 31
0.0
  0
LINE
  5
14D
330
6C
100
AcDbEntity
  8
Visible (ANSI)
100
AcDbLine
 10
96.71677885646857
 20
30.87497900039327
 30
0.0
 11
96.71677885646865
 21
50.49610999661417
 31
0.0
  0
LINE
  5
14E
330
6C
100
AcDbEntity
  8
Visible (ANSI)
100
AcDbLine
 10
96.66706041091643
 20
30.84634805176725
 30
0.0
 11
84.73463347839167
 21
37.71777572201194
 31
0.0
  0
DIMENSION
  5
14F
330
6C
100
AcDbEntity
  8
Dimension (ANSI)
100
AcDbDimension
  2
*D4
 10
8.012683667814092
 20
50.24681463710491
 30
0.0
 11
8.012683667814084
 21
34.2468146371049
 31
0.0
 70
   160
  1
<>
 42
32.0
  3
Default (ANSI)
100
AcDbAlignedDimension
 13
17.68946672480525
 23
18.2468146371049
 33
0.0
 14
17.68946672480524
 24
50.2468146371049
 34
0.0
 50
90.0
100
AcDbRotatedDimension
1001
ACAD
1000
DSTYLE
1002
{
1070
   289
1070
     1
1070
   271
1070
     2
1070
   272
1070
     2
1070
    48
1040
0.0
1070
    47
1040
0.0
1002
}
  0
DIMENSION
  5
23B
330
6C
100
AcDbEntity
  8
Dimension (ANSI)
100
AcDbDimension
  2
*D5
 10
15.11717536483669
 20
34.24681463710491
 30
0.0
 11
15.11717536483669
 21
26.62181463710491
 31
0.0
 70
   160
  1
<>
 42
15.24999999999999
  3
Default (ANSI)
100
AcDbAlignedDimension
 13
18.43946672480524
 23
18.99681463710491
 33
0.0
 14
18.43946672480524
 24
34.2468146371049
 34
0.0
 50
90.0
100
AcDbRotatedDimension
1001
ACAD
1000
DSTYLE
1002
{
1070
   289
1070
     1
1070
   271
1070
     3
1070
   272
1070
     3
1070
    48
1040
0.0
1070
    47
1040
0.0
1002
}
  0
DIMENSION
  5
325
330
6C
100
AcDbEntity
  8
Dimension (ANSI)
100
AcDbDimension
  2
*D6
 10
40.18946672480525
 20
54.41772531427819
 30
0.0
 11
28.93946672480524
 21
54.41772531427819
 31
0.0
 70
   160
  1
<>
 42
22.50000000000001
  3
Default (ANSI)
100
AcDbAlignedDimension
 13
17.68946672480524
 23
50.2468146371049
 33
0.0
 14
40.18946672480525
 24
50.2468146371049
 34
0.0
100
AcDbRotatedDimension
1001
ACAD
1000
DSTYLE
1002
{
1070
   289
1070
     1
1070
    73
1070
     0
1070
    74
1070
     0
1070
   271
1070
     2
1070
   272
1070
     2
1070
    48
1040
0.0
1070
    47
1040
0.0
1002
}
  0
DIMENSION
  5
40F
330
6C
100
AcDbEntity
  8
Dimension (ANSI)
100
AcDbDimension
  2
*D7
 10
39.43946672480524
 20
52.75783600402634
 30
0.0
 11
43.823382394484
 21
52.75783600402634
 31
0.0
 70
   160
  1
<>{\PTYP.}
 71
     5
 42
0.7500000000000071
  3
Default (ANSI)
100
AcDbAlignedDimension
 13
40.18946672480525
 23
50.2468146371049
 33
0.0
 14
39.43946672480524
 24
49.4968146371049
 34
0.0
 50
180.0
100
AcDbRotatedDimension
1001
ACAD
1000
DSTYLE
1002
{
1070
   289
1070
     1
1070
    73
1070
     0
1070
    74
1070
     0
1070
   271
1070
     3
1070
   272
1070
     3
1070
    48
1040
0.0
1070
    47
1040
0.0
1002
}
  0
DIMENSION
  5
50D
330
6C
100
AcDbEntity
  8
Dimension (ANSI)
100
AcDbDimension
  2
*D8
 10
44.55514218183266
 20
49.4968146371049
 30
0.0
 11
42.5846407885985
 21
47.5672190527488
 31
0.0
 70
   160
  1
<>{\PTYP.}
 42
0.7500000000000071
  3
Default (ANSI)
100
AcDbAlignedDimension
 13
40.18946672480525
 23
50.2468146371049
 33
0.0
 14
39.43946672480524
 24
49.4968146371049
 34
0.0
 50
270.0
100
AcDbRotatedDimension
1001
ACAD
1000
DSTYLE
1002
{
1070
   289
1070
     1
1070
   145
1040
-0.25
1070
   271
1070
     3
1070
   272
1070
     3
1070
    48
1040
0.0
1070
    47
1040
0.0
1002
}
  0
DIMENSION
  5
623
330
6C
100
AcDbEntity
  8
Dimension (ANSI)
100
AcDbDimension
  2
*D9
 10
39.29871672480519
 20
19.2406007882702
 30
0.0
 11
43.53532316402703
 21
16.28745849059248
 31
0.0
 70
   163
  1
<>{\P(6 PL.)}
 71
     5
 42
0.5629999999999999
  3
Default (ANSI)
100
AcDbDiametricDimension
 15
39.5802167248053
 25
18.75302848593962
 35
0.0
 40
0.0
1001
ACAD
1000
DSTYLE
1002
{
1070
   144
1040
0.9999999999999957
1070
   271
1070
     3
1070
   272
1070
     3
1070
    48
1040
0.0
1070
    47
1040
0.0
1002
}
1001
ACAD_DSTYLE_DIMRADIAL_EXTENSION
1070
   387
1070
     1
1070
   388
1040
0.0
1070
   390
1040
0.0
  0
DIMENSION
  5
6DE
330
6C
100
AcDbEntity
  8
Dimension (ANSI)
100
AcDbDimension
  2
*D10
 10
20.32915806694012
 20
19.10712329496998
 30
0.0
 11
27.27453834761762
 21
16.40177959949287
 31
0.0
 70
   163
  1
<>{\PGROUND HOLE}
 42
0.312
  3
Default (ANSI)
100
AcDbDiametricDimension
 15
20.54977538267036
 25
18.88650597923981
 35
0.0
 40
0.0
1001
ACAD_DSTYLE_DIMRADIAL_EXTENSION
1070
   387
1070
     1
1070
   388
1040
0.0
1070
   390
1040
0.0
1001
ACAD
1000
DSTYLE
1002
{
1070
   145
1040
-0.25
1070
   144
1040
1.000000000000001
1070
   271
1070
     3
1070
   272
1070
     3
1070
    48
1040
0.0
1070
    47
1040
0.0
1002
}
  0
DIMENSION
  5
797
330
6C
100
AcDbEntity
  8
Dimension (ANSI)
100
AcDbDimension
  2
*D11
 10
61.61873689555587
 20
52.60901936151435
 30
0.0
 11
56.47913653908567
 21
52.60901936151435
 31
0.0
 70
   160
  1
{12 GA. C.R.S\P}(<>)
 71
     5
 42
0.09375
  3
Default (ANSI)
100
AcDbAlignedDimension
 13
61.52498689555588
 23
50.2468146371049
 33
0.0
 14
61.61873689555587
 24
50.2468146371049
 34
0.0
 50
180.0
100
AcDbRotatedDimension
1001
ACAD
1000
DSTYLE
1002
{
1070
   289
1070
     1
1070
    73
1070
     0
1070
    74
1070
     0
1070
   271
1070
     3
1070
   147
1040
0.031496062992126
1070
    72
1070
     0
1070
    71
1070
     0
1070
   272
1070
     3
1070
    48
1040
0.0
1070
    47
1040
0.0
1002
}
  0
DIMENSION
  5
89F
330
6C
100
AcDbEntity
  8
Dimension (ANSI)
100
AcDbDimension
  2
*D12
 10
11.82529349645879
 20
49.4968146371049
 30
0.0
 11
11.82529349645878
 21
34.24681463710491
 31
0.0
 70
   160
  1
<>
 42
30.49999999999999
  3
Default (ANSI)
100
AcDbAlignedDimension
 13
18.43946672480524
 23
18.99681463710491
 33
0.0
 14
18.43946672480524
 24
49.4968146371049
 34
0.0
 50
90.0
100
AcDbRotatedDimension
1001
ACAD
1000
DSTYLE
1002
{
1070
   289
1070
     1
1070
   271
1070
     3
1070
   272
1070
     3
1070
    48
1040
0.0
1070
    47
1040
0.0
1002
}
  0
DIMENSION
  5
989
330
6C
100
AcDbEntity
  8
Dimension (ANSI)
100
AcDbDimension
  2
*D13
 10
39.43946672480524
 20
52.75783600402633
 30
0.0
 11
28.93946672480524
 21
52.75783600402633
 31
0.0
 70
   160
  1
<>
 42
21.0
  3
Default (ANSI)
100
AcDbAlignedDimension
 13
18.43946672480524
 23
49.4968146371049
 33
0.0
 14
39.43946672480524
 24
49.4968146371049
 34
0.0
 50
180.0
100
AcDbRotatedDimension
1001
ACAD
1000
DSTYLE
1002
{
1070
   289
1070
     1
1070
    73
1070
     0
1070
    74
1070
     0
1070
   271
1070
     3
1070
   272
1070
     3
1070
    48
1040
0.0
1070
    47
1040
0.0
1002
}
  0
DIMENSION
  5
A73
330
6C
100
AcDbEntity
  8
Dimension (ANSI)
100
AcDbDimension
  2
*D14
 10
20.43946672480525
 20
16.63460991269546
 30
0.0
 11
16.02673532981221
 21
16.63460991269546
 31
0.0
 70
   160
  1
<>
 42
2.000000000000003
  3
Default (ANSI)
100
AcDbAlignedDimension
 13
18.43946672480524
 23
18.99681463710491
 33
0.0
 14
20.43946672480525
 24
18.9968146371049
 34
0.0
 50
180.0
100
AcDbRotatedDimension
1001
ACAD
1000
DSTYLE
1002
{
1070
   289
1070
     2
1070
    73
1070
     0
1070
    74
1070
     0
1070
   271
1070
     3
1070
   272
1070
     3
1070
    48
1040
0.0
1070
    47
1040
0.0
1002
}
  0
LINE
  5
B5D
330
6C
100
AcDbEntity
  8
Center Mark (ANSI)
  6
CHAIN
 48
0.1909081190824509
100
AcDbLine
 10
18.43946672480524
 20
48.4653146371049
 30
0.0
 11
18.43946672480524
 21
50.52831463710489
 31
0.0
  0
LINE
  5
B5E
330
6C
100
AcDbEntity
  8
Center Mark (ANSI)
  6
CHAIN
 48
0.1909081190824509
100
AcDbLine
 10
18.43946672480524
 20
20.02831463710491
 30
0.0
 11
18.43946672480524
 21
17.96531463710491
 31
0.0
  0
LINE
  5
B5F
330
6C
100
AcDbEntity
  8
Centerline (ANSI)
  6
CHAIN
 48
0.9524481296539306
100
AcDbLine
 10
18.43946672480524
 20
50.52831463710489
 30
0.0
 11
18.43946672480524
 21
17.96531463710491
 31
0.0
  0
LINE
  5
B60
330
6C
100
AcDbEntity
  8
Center Mark (ANSI)
  6
CHAIN
 48
0.1909081190824509
100
AcDbLine
 10
38.40796672480524
 20
18.99681463710491
 30
0.0
 11
40.47096672480524
 21
18.99681463710491
 31
0.0
  0
LINE
  5
B61
330
6C
100
AcDbEntity
  8
Centerline (ANSI)
  6
CHAIN
 48
0.9524481296539306
100
AcDbLine
 10
17.40796672480524
 20
18.99681463710491
 30
0.0
 11
40.47096672480524
 21
18.99681463710491
 31
0.0
  0
LINE
  5
B62
330
6C
100
AcDbEntity
  8
Center Mark (ANSI)
  6
CHAIN
 48
0.1909081190824509
100
AcDbLine
 10
39.43946672480524
 20
48.4653146371049
 30
0.0
 11
39.43946672480524
 21
50.52831463710489
 31
0.0
  0
LINE
  5
B63
330
6C
100
AcDbEntity
  8
Centerline (ANSI)
  6
CHAIN
 48
0.9524481296539306
100
AcDbLine
 10
39.43946672480524
 20
17.96531463710491
 30
0.0
 11
39.43946672480524
 21
50.52831463710489
 31
0.0
  0
LINE
  5
B64
330
6C
100
AcDbEntity
  8
Centerline (ANSI)
  6
CHAIN
 48
0.9524481296539306
100
AcDbLine
 10
40.47096672480524
 20
49.4968146371049
 30
0.0
 11
17.40796672480524
 21
49.4968146371049
 31
0.0
  0
LINE
  5
B65
330
6C
100
AcDbEntity
  8
Center Mark (ANSI)
  6
CHAIN
 48
0.1909081190824509
100
AcDbLine
 10
18.43946672480524
 20
35.27831463710491
 30
0.0
 11
18.43946672480524
 21
33.21531463710491
 31
0.0
  0
LINE
  5
B66
330
6C
100
AcDbEntity
  8
Center Mark (ANSI)
  6
CHAIN
 48
0.1909081190824509
100
AcDbLine
 10
39.43946672480524
 20
35.27831463710491
 30
0.0
 11
39.43946672480524
 21
33.21531463710491
 31
0.0
  0
LINE
  5
B67
330
6C
100
AcDbEntity
  8
Centerline (ANSI)
  6
CHAIN
 48
0.9524481296539306
100
AcDbLine
 10
17.40796672480524
 20
34.2468146371049
 30
0.0
 11
40.47096672480524
 21
34.24681463710491
 31
0.0
  0
LINE
  5
B68
330
6C
100
AcDbEntity
  8
Center Mark (ANSI)
  6
CHAIN
 48
0.1676686406135559
100
AcDbLine
 10
21.34546672480525
 20
18.9968146371049
 30
0.0
 11
19.53346672480525
 21
18.9968146371049
 31
0.0
  0
LINE
  5
B69
330
6C
100
AcDbEntity
  8
Center Mark (ANSI)
  6
CHAIN
 48
0.1676686406135559
100
AcDbLine
 10
20.43946672480525
 20
19.9028146371049
 30
0.0
 11
20.43946672480525
 21
18.0908146371049
 31
0.0
  0
MTEXT
  5
B6A
102
{ACAD_XDICTIONARY
360
B76
102
}
330
6C
100
AcDbEntity
  8
Symbol (ANSI)
100
AcDbMText
 10
56.55268202893632
 20
6.221116761679595
 30
0.0
 40
0.6000000191485788
 41
44.30032264529251
 71
     4
 72
     1
  3
{\fRomanS|b0|i0|c0|p2;\H2x;PART#: N1P2436\P(DATA SUBJECT TO CHANGE WITHOUT NOTICE)\H1.6157x; \H0.61894x;\P \H1.352x; \H0.73963x;\P\H0.6x;THIS DRAWING IS PROPERTY OF HUBBELL INC. WIEGMANN\H1.5633x; \H0.63966x;\PALL INFORMATION IS PROPRIETARY AND NOT T
  1
O BE DUPLICATED\H1.234x; \H0.81039x;\P\H1.2571x; }
  7
Note Text (ANSI)
 73
     1
 44
0.8026435375213623
  0
ENDSEC
  0
SECTION
  2
OBJECTS
  0
DICTIONARY
  5
C
330
0
100
AcDbDictionary
281
     1
  3
ACAD_CIP_PREVIOUS_PRODUCT_INFO
350
B6C
  3
ACAD_COLOR
350
63
  3
ACAD_GROUP
350
D
  3
ACAD_LAYOUT
350
62
  3
ACAD_MATERIAL
350
10
  3
ACAD_MLEADERSTYLE
350
66
  3
ACAD_MLINESTYLE
350
5F
  3
ACAD_PLOTSETTINGS
350
61
  3
ACAD_PLOTSTYLENAME
350
E
  3
ACAD_SCALELIST
350
42
  3
ACAD_TABLESTYLE
350
64
  3
ACAD_VISUALSTYLE
350
29
  3
ACDB_RECOMPOSE_DATA
350
B78
  3
AcDbVariableDictionary
350
76
  0
DICTIONARY
  5
BAE
330
6D8
100
AcDbDictionary
280
     1
281
     1
  3
ACAD_MTEXT_2008_RT
360
BAF
  0
DICTIONARY
  5
BB0
330
791
100
AcDbDictionary
280
     1
281
     1
  3
ACAD_MTEXT_2008_RT
360
BB1
  0
DICTIONARY
  5
B76
330
B6A
100
AcDbDictionary
280
     1
281
     1
  3
ACAD_MTEXT_2008_RT
360
B77
  0
XRECORD
  5
B6C
102
{ACAD_REACTORS
330
C
102
}
330
C
100
AcDbXrecord
280
     1
300
INVPROSA
300
2012
300
INVPROSA_F_S
  0
DICTIONARY
  5
63
102
{ACAD_REACTORS
330
C
102
}
330
C
100
AcDbDictionary
281
     1
  0
DICTIONARY
  5
D
102
{ACAD_REACTORS
330
C
102
}
330
C
100
AcDbDictionary
281
     1
  0
DICTIONARY
  5
62
102
{ACAD_REACTORS
330
C
102
}
330
C
100
AcDbDictionary
281
     1
  3
Layout1
350
6B
  3
Layout2
350
73
  3
Model
350
6F
  0
DICTIONARY
  5
10
102
{ACAD_REACTORS
330
C
102
}
330
C
100
AcDbDictionary
281
     1
  3
ByBlock
350
19
  3
ByLayer
350
11
  3
Global
350
21
  0
DICTIONARY
  5
66
102
{ACAD_REACTORS
330
C
102
}
330
C
100
AcDbDictionary
281
     1
  3
Standard
350
67
  0
DICTIONARY
  5
5F
102
{ACAD_REACTORS
330
C
102
}
330
C
100
AcDbDictionary
281
     1
  3
Standard
350
60
  0
DICTIONARY
  5
61
102
{ACAD_REACTORS
330
C
102
}
330
C
100
AcDbDictionary
281
     1
  0
ACDBDICTIONARYWDFLT
  5
E
102
{ACAD_REACTORS
330
C
102
}
330
C
100
AcDbDictionary
281
     1
  3
Normal
350
F
100
AcDbDictionaryWithDefault
340
F
  0
DICTIONARY
  5
42
102
{ACAD_REACTORS
330
C
102
}
330
C
100
AcDbDictionary
281
     1
  3
A0
350
43
  3
A1
350
44
  3
A2
350
45
  3
A3
350
46
  3
A4
350
47
  3
A5
350
48
  3
A6
350
49
  3
A7
350
4A
  3
A8
350
4B
  3
A9
350
4C
  3
B0
350
4D
  3
B1
350
4E
  3
B2
350
4F
  3
B3
350
50
  3
B4
350
51
  3
B5
350
52
  3
B6
350
53
  0
DICTIONARY
  5
64
102
{ACAD_REACTORS
330
C
102
}
330
C
100
AcDbDictionary
281
     1
  3
Standard
350
65
  0
DICTIONARY
  5
29
102
{ACAD_REACTORS
330
C
102
}
330
C
100
AcDbDictionary
281
     1
  3
2dWireframe
350
2F
  3
Basic
350
2E
  3
Brighten
350
35
  3
ColorChange
350
39
  3
Conceptual
350
32
  3
Dim
350
34
  3
EdgeColorOff
350
41
  3
Facepattern
350
38
  3
Flat
350
2A
  3
FlatWithEdges
350
2B
  3
Gouraud
350
2C
  3
GouraudWithEdges
350
2D
  3
Hidden
350
31
  3
JitterOff
350
3F
  3
Linepattern
350
37
  3
OverhangOff
350
40
  3
Realistic
350
33
  3
Shaded
350
3E
  3
Shaded with edges
350
3D
  3
Shades of Gray
350
3A
  3
Sketchy
350
3B
  3
Thicken
350
36
  3
Wireframe
350
30
  3
X-Ray
350
3C
  0
XRECORD
  5
B78
102
{ACAD_REACTORS
330
C
102
}
330
C
100
AcDbXrecord
280
     1
 90
        1
330
65
330
A73
330
B6A
  0
DICTIONARY
  5
76
102
{ACAD_REACTORS
330
C
102
}
330
C
100
AcDbDictionary
281
     1
  3
CANNOSCALE
350
79
  3
CMLEADERSTYLE
350
78
  3
CTABLESTYLE
350
77
  3
LAYEREVAL
350
B6F
  3
LAYERNOTIFY
350
B70
  3
LIGHTINGUNITS
350
B6E
  3
MSLTSCALE
350
B6D
  3
XCLIPFRAME
350
B71
  0
XRECORD
  5
BAF
102
{ACAD_REACTORS
330
BAE
102
}
330
BAE
100
AcDbXrecord
280
     1
 40
24491.0
  1
\A1;\U+22050.563{\P(6 PL.)}
  0
XRECORD
  5
BB1
102
{ACAD_REACTORS
330
BB0
102
}
330
BB0
100
AcDbXrecord
280
     1
 40
36023.0
  1
\A1;\U+22050.312{\PGROUND HOLE}
  0
XRECORD
  5
B77
102
{ACAD_REACTORS
330
B76
102
}
330
B76
100
AcDbXrecord
280
     1
 40
3047597.0
  1
\pxsm0.94;{\fRomanS|b0|i0;\H1.2000;PART#: N1P2436\P(DATA SUBJECT TO CHANGE WITHOUT NOTICE)\P \P\fRomanS|b0|i0;\H0.7200;THIS DRAWING IS PROPERTY OF HUBBELL INC. WIEGMANN\PALL INFORMATION IS PROPRIETARY AND NOT TO BE DUPLICATED\P}
  0
LAYOUT
  5
6B
102
{ACAD_REACTORS
330
62
102
}
330
62
100
AcDbPlotSettings
  1

  2

  4

  6

 40
0.0
 41
0.0
 42
0.0
 43
0.0
 44
0.0
 45
0.0
 46
0.0
 47
0.0
 48
0.0
 49
0.0
140
0.0
141
0.0
142
1.0
143
1.0
 70
   688
 72
     0
 73
     0
 74
     5
  7

 75
    16
147
1.0
 76
     0
 77
     2
 78
   300
148
0.0
149
0.0
100
AcDbLayout
  1
Layout1
 70
     1
 71
     1
 10
0.0
 20
0.0
 11
12.0
 21
9.0
 12
0.0
 22
0.0
 32
0.0
 14
0.0
 24
0.0
 34
0.0
 15
0.0
 25
0.0
 35
0.0
146
0.0
 13
0.0
 23
0.0
 33
0.0
 16
1.0
 26
0.0
 36
0.0
 17
0.0
 27
1.0
 37
0.0
 76
     0
330
68
  0
LAYOUT
  5
73
102
{ACAD_REACTORS
330
62
102
}
330
62
100
AcDbPlotSettings
  1

  2

  4

  6

 40
0.0
 41
0.0
 42
0.0
 43
0.0
 44
0.0
 45
0.0
 46
0.0
 47
0.0
 48
0.0
 49
0.0
140
0.0
141
0.0
142
1.0
143
1.0
 70
   688
 72
     0
 73
     0
 74
     5
  7

 75
    16
147
1.0
 76
     0
 77
     2
 78
   300
148
0.0
149
0.0
100
AcDbLayout
  1
Layout2
 70
     1
 71
     2
 10
0.0
 20
0.0
 11
12.0
 21
9.0
 12
0.0
 22
0.0
 32
0.0
 14
0.0
 24
0.0
 34
0.0
 15
0.0
 25
0.0
 35
0.0
146
0.0
 13
0.0
 23
0.0
 33
0.0
 16
1.0
 26
0.0
 36
0.0
 17
0.0
 27
1.0
 37
0.0
 76
     0
330
70
  0
LAYOUT
  5
6F
102
{ACAD_REACTORS
330
62
102
}
330
62
100
AcDbPlotSettings
  1

  2

  4

  6

 40
0.0
 41
0.0
 42
0.0
 43
0.0
 44
0.0
 45
0.0
 46
0.0
 47
0.0
 48
0.0
 49
0.0
140
0.0
141
0.0
142
1.0
143
1.0
 70
  1712
 72
     0
 73
     0
 74
     0
  7

 75
     0
147
1.0
 76
     0
 77
     2
 78
   300
148
0.0
149
0.0
100
AcDbLayout
  1
Model
 70
     1
 71
     0
 10
0.0
 20
0.0
 11
12.0
 21
9.0
 12
0.0
 22
0.0
 32
0.0
 14
0.0
 24
0.0
 34
0.0
 15
0.0
 25
0.0
 35
0.0
146
0.0
 13
0.0
 23
0.0
 33
0.0
 16
1.0
 26
0.0
 36
0.0
 17
0.0
 27
1.0
 37
0.0
 76
     0
330
6C
  0
MATERIAL
  5
19
102
{ACAD_XDICTIONARY
360
1A
102
}
102
{ACAD_REACTORS
330
10
102
}
330
10
100
AcDbMaterial
  1
ByBlock
 72
     0
 43
0.0208333333333333
 43
0.0
 43
0.0
 43
0.0
 43
0.0
 43
0.0208333333333333
 43
0.0
 43
0.0
 43
0.0
 43
0.0
 43
1.0
 43
0.0
 43
0.0
 43
0.0
 43
0.0
 43
1.0
 77
     0
 47
0.0208333333333333
 47
0.0
 47
0.0
 47
0.0
 47
0.0
 47
0.0208333333333333
 47
0.0
 47
0.0
 47
0.0
 47
0.0
 47
1.0
 47
0.0
 47
0.0
 47
0.0
 47
0.0
 47
1.0
171
     0
 49
0.0208333333333333
 49
0.0
 49
0.0
 49
0.0
 49
0.0
 49
0.0208333333333333
 49
0.0
 49
0.0
 49
0.0
 49
0.0
 49
1.0
 49
0.0
 49
0.0
 49
0.0
 49
0.0
 49
1.0
175
     0
142
0.0208333333333333
142
0.0
142
0.0
142
0.0
142
0.0
142
0.0208333333333333
142
0.0
142
0.0
142
0.0
142
0.0
142
1.0
142
0.0
142
0.0
142
0.0
142
0.0
142
1.0
179
     0
144
0.0208333333333333
144
0.0
144
0.0
144
0.0
144
0.0
144
0.0208333333333333
144
0.0
144
0.0
144
0.0
144
0.0
144
1.0
144
0.0
144
0.0
144
0.0
144
0.0
144
1.0
147
0.0208333333333333
147
0.0
147
0.0
147
0.0
147
0.0
147
0.0208333333333333
147
0.0
147
0.0
147
0.0
147
0.0
147
1.0
147
0.0
147
0.0
147
0.0
147
0.0
147
1.0
  0
MATERIAL
  5
11
102
{ACAD_XDICTIONARY
360
12
102
}
102
{ACAD_REACTORS
330
10
102
}
330
10
100
AcDbMaterial
  1
ByLayer
 72
     0
 43
0.0208333333333333
 43
0.0
 43
0.0
 43
0.0
 43
0.0
 43
0.0208333333333333
 43
0.0
 43
0.0
 43
0.0
 43
0.0
 43
1.0
 43
0.0
 43
0.0
 43
0.0
 43
0.0
 43
1.0
 77
     0
 47
0.0208333333333333
 47
0.0
 47
0.0
 47
0.0
 47
0.0
 47
0.0208333333333333
 47
0.0
 47
0.0
 47
0.0
 47
0.0
 47
1.0
 47
0.0
 47
0.0
 47
0.0
 47
0.0
 47
1.0
171
     0
 49
0.0208333333333333
 49
0.0
 49
0.0
 49
0.0
 49
0.0
 49
0.0208333333333333
 49
0.0
 49
0.0
 49
0.0
 49
0.0
 49
1.0
 49
0.0
 49
0.0
 49
0.0
 49
0.0
 49
1.0
175
     0
142
0.0208333333333333
142
0.0
142
0.0
142
0.0
142
0.0
142
0.0208333333333333
142
0.0
142
0.0
142
0.0
142
0.0
142
1.0
142
0.0
142
0.0
142
0.0
142
0.0
142
1.0
179
     0
144
0.0208333333333333
144
0.0
144
0.0
144
0.0
144
0.0
144
0.0208333333333333
144
0.0
144
0.0
144
0.0
144
0.0
144
1.0
144
0.0
144
0.0
144
0.0
144
0.0
144
1.0
147
0.0208333333333333
147
0.0
147
0.0
147
0.0
147
0.0
147
0.0208333333333333
147
0.0
147
0.0
147
0.0
147
0.0
147
1.0
147
0.0
147
0.0
147
0.0
147
0.0
147
1.0
  0
MATERIAL
  5
21
102
{ACAD_XDICTIONARY
360
22
102
}
102
{ACAD_REACTORS
330
10
102
}
330
10
100
AcDbMaterial
  1
Global
 72
     0
 43
0.0208333333333333
 43
0.0
 43
0.0
 43
0.0
 43
0.0
 43
0.0208333333333333
 43
0.0
 43
0.0
 43
0.0
 43
0.0
 43
1.0
 43
0.0
 43
0.0
 43
0.0
 43
0.0
 43
1.0
 77
     0
 47
0.0208333333333333
 47
0.0
 47
0.0
 47
0.0
 47
0.0
 47
0.0208333333333333
 47
0.0
 47
0.0
 47
0.0
 47
0.0
 47
1.0
 47
0.0
 47
0.0
 47
0.0
 47
0.0
 47
1.0
171
     0
 49
0.0208333333333333
 49
0.0
 49
0.0
 49
0.0
 49
0.0
 49
0.0208333333333333
 49
0.0
 49
0.0
 49
0.0
 49
0.0
 49
1.0
 49
0.0
 49
0.0
 49
0.0
 49
0.0
 49
1.0
175
     0
142
0.0208333333333333
142
0.0
142
0.0
142
0.0
142
0.0
142
0.0208333333333333
142
0.0
142
0.0
142
0.0
142
0.0
142
1.0
142
0.0
142
0.0
142
0.0
142
0.0
142
1.0
179
     0
144
0.0208333333333333
144
0.0
144
0.0
144
0.0
144
0.0
144
0.0208333333333333
144
0.0
144
0.0
144
0.0
144
0.0
144
1.0
144
0.0
144
0.0
144
0.0
144
0.0
144
1.0
147
0.0208333333333333
147
0.0
147
0.0
147
0.0
147
0.0
147
0.0208333333333333
147
0.0
147
0.0
147
0.0
147
0.0
147
1.0
147
0.0
147
0.0
147
0.0
147
0.0
147
1.0
  0
MLEADERSTYLE
  5
67
102
{ACAD_XDICTIONARY
360
B74
102
}
102
{ACAD_REACTORS
330
66
102
}
330
66
100
AcDbMLeaderStyle
170
     2
171
     1
172
     0
 90
        2
 40
0.0
 41
0.0
173
     1
 91
-1056964608
340
5B
 92
       -2
290
     1
 42
0.09
291
     1
 43
0.36
  3
Standard
 44
0.18
300

342
55
174
     1
178
     6
175
     1
176
     0
 93
-1056964608
 45
0.18
292
     0
297
     0
 46
0.18
 94
-1056964608
 47
1.0
 49
1.0
140
1.0
293
     1
141
0.0
294
     1
177
     0
142
1.0
295
     0
296
     0
143
0.125
1001
ACAD_MLEADERVER
1070
     2
  0
MLINESTYLE
  5
60
102
{ACAD_REACTORS
330
5F
102
}
330
5F
100
AcDbMlineStyle
  2
STANDARD
 70
     0
  3

 62
   256
 51
90.0
 52
90.0
 71
     2
 49
0.5
 62
   256
  6
BYLAYER
 49
-0.5
 62
   256
  6
BYLAYER
  0
ACDBPLACEHOLDER
  5
F
102
{ACAD_REACTORS
330
E
102
}
330
E
  0
SCALE
  5
43
102
{ACAD_REACTORS
330
42
102
}
330
42
100
AcDbScale
 70
     0
300
1:1
140
1.0
141
1.0
290
     1
  0
SCALE
  5
44
102
{ACAD_REACTORS
330
42
102
}
330
42
100
AcDbScale
 70
     0
300
1/128" = 1'-0"
140
0.0078125
141
12.0
290
     0
  0
SCALE
  5
45
102
{ACAD_REACTORS
330
42
102
}
330
42
100
AcDbScale
 70
     0
300
1/64" = 1'-0"
140
0.015625
141
12.0
290
     0
  0
SCALE
  5
46
102
{ACAD_REACTORS
330
42
102
}
330
42
100
AcDbScale
 70
     0
300
1/32" = 1'-0"
140
0.03125
141
12.0
290
     0
  0
SCALE
  5
47
102
{ACAD_REACTORS
330
42
102
}
330
42
100
AcDbScale
 70
     0
300
1/16" = 1'-0"
140
0.0625
141
12.0
290
     0
  0
SCALE
  5
48
102
{ACAD_REACTORS
330
42
102
}
330
42
100
AcDbScale
 70
     0
300
3/32" = 1'-0"
140
0.09375
141
12.0
290
     0
  0
SCALE
  5
49
102
{ACAD_REACTORS
330
42
102
}
330
42
100
AcDbScale
 70
     0
300
1/8" = 1'-0"
140
0.125
141
12.0
290
     0
  0
SCALE
  5
4A
102
{ACAD_REACTORS
330
42
102
}
330
42
100
AcDbScale
 70
     0
300
3/16" = 1'-0"
140
0.1875
141
12.0
290
     0
  0
SCALE
  5
4B
102
{ACAD_REACTORS
330
42
102
}
330
42
100
AcDbScale
 70
     0
300
1/4" = 1'-0"
140
0.25
141
12.0
290
     0
  0
SCALE
  5
4C
102
{ACAD_REACTORS
330
42
102
}
330
42
100
AcDbScale
 70
     0
300
3/8" = 1'-0"
140
0.375
141
12.0
290
     0
  0
SCALE
  5
4D
102
{ACAD_REACTORS
330
42
102
}
330
42
100
AcDbScale
 70
     0
300
1/2" = 1'-0"
140
0.5
141
12.0
290
     0
  0
SCALE
  5
4E
102
{ACAD_REACTORS
330
42
102
}
330
42
100
AcDbScale
 70
     0
300
3/4" = 1'-0"
140
0.75
141
12.0
290
     0
  0
SCALE
  5
4F
102
{ACAD_REACTORS
330
42
102
}
330
42
100
AcDbScale
 70
     0
300
1" = 1'-0"
140
1.0
141
12.0
290
     0
  0
SCALE
  5
50
102
{ACAD_REACTORS
330
42
102
}
330
42
100
AcDbScale
 70
     0
300
1-1/2" = 1'-0"
140
1.5
141
12.0
290
     0
  0
SCALE
  5
51
102
{ACAD_REACTORS
330
42
102
}
330
42
100
AcDbScale
 70
     0
300
3" = 1'-0"
140
3.0
141
12.0
290
     0
  0
SCALE
  5
52
102
{ACAD_REACTORS
330
42
102
}
330
42
100
AcDbScale
 70
     0
300
6" = 1'-0"
140
6.0
141
12.0
290
     0
  0
SCALE
  5
53
102
{ACAD_REACTORS
330
42
102
}
330
42
100
AcDbScale
 70
     0
300
1'-0" = 1'-0"
140
12.0
141
12.0
290
     0
  0
TABLESTYLE
  5
65
102
{ACAD_XDICTIONARY
360
B72
102
}
102
{ACAD_REACTORS
330
64
102
}
330
64
100
AcDbTableStyle
  3
Standard
 70
     0
 71
     0
 40
0.06
 41
0.06
280
     0
281
     0
  7
Standard
140
0.18
170
     2
 62
     0
 63
     7
283
     0
274
    -2
284
     1
 64
     0
275
    -2
285
     1
 65
     0
276
    -2
286
     1
 66
     0
277
    -2
287
     1
 67
     0
278
    -2
288
     1
 68
     0
279
    -2
289
     1
 69
     0
  7
Standard
140
0.25
170
     5
 62
     0
 63
     7
283
     0
274
    -2
284
     1
 64
     0
275
    -2
285
     1
 65
     0
276
    -2
286
     1
 66
     0
277
    -2
287
     1
 67
     0
278
    -2
288
     1
 68
     0
279
    -2
289
     1
 69
     0
  7
Standard
140
0.18
170
     5
 62
     0
 63
     7
283
     0
274
    -2
284
     1
 64
     0
275
    -2
285
     1
 65
     0
276
    -2
286
     1
 66
     0
277
    -2
287
     1
 67
     0
278
    -2
288
     1
 68
     0
279
    -2
289
     1
 69
     0
  0
VISUALSTYLE
  5
2F
102
{ACAD_XDICTIONARY
360
B86
102
}
102
{ACAD_REACTORS
330
29
102
}
330
29
100
AcDbVisualStyle
  2
2dWireframe
 70
     4
 71
     0
 72
     2
 73
     0
 90
        0
 40
-0.6
 41
-30.0
 62
     5
 63
     7
421
 16777215
 74
     1
 91
        4
 64
     7
 65
   257
 75
     1
175
     1
 42
1.0
 92
        0
 66
   257
 43
1.0
 76
     1
 77
     6
 78
     2
 67
     7
 79
     5
170
     0
171
     0
290
     0
174
     0
 93
        1
 44
0.0
173
     0
291
     0
 45
0.0
1001
ACAD
1000
AcDbSavedByObjectVersion
1070
     0
  0
VISUALSTYLE
  5
2E
102
{ACAD_XDICTIONARY
360
B84
102
}
102
{ACAD_REACTORS
330
29
102
}
330
29
100
AcDbVisualStyle
  2
Basic
 70
     7
 71
     1
 72
     0
 73
     1
 90
        0
 40
-0.6
 41
-30.0
 62
     5
 63
     7
421
 16777215
 74
     0
 91
        4
 64
     7
 65
   257
 75
     1
175
     1
 42
1.0
 92
        8
 66
     7
 43
1.0
 76
     1
 77
     6
 78
     2
 67
     7
 79
     5
170
     0
171
     0
290
     0
174
     0
 93
        1
 44
0.0
173
     0
291
     1
 45
0.0
1001
ACAD
1000
AcDbSavedByObjectVersion
1070
     0
  0
VISUALSTYLE
  5
35
102
{ACAD_XDICTIONARY
360
B92
102
}
102
{ACAD_REACTORS
330
29
102
}
330
29
100
AcDbVisualStyle
  2
Brighten
 70
    12
 71
     2
 72
     2
 73
     0
 90
        0
 40
-0.6
 41
-30.0
 62
     5
 63
     7
421
 16777215
 74
     1
 91
        4
 64
     7
 65
   257
 75
     1
175
     1
 42
1.0
 92
        8
 66
     7
 43
1.0
 76
     1
 77
     6
 78
     2
 67
     7
 79
     5
170
     0
171
     0
290
     0
174
     0
 93
        1
 44
50.0
173
     0
291
     1
 45
0.0
1001
ACAD
1000
AcDbSavedByObjectVersion
1070
     0
  0
VISUALSTYLE
  5
39
102
{ACAD_XDICTIONARY
360
B9A
102
}
102
{ACAD_REACTORS
330
29
102
}
330
29
100
AcDbVisualStyle
  2
ColorChange
 70
    16
 71
     2
 72
     2
 73
     3
 90
        0
 40
-0.6
 41
-30.0
 62
     5
 63
     8
421
  8421504
 74
     1
 91
        4
 64
     7
 65
   257
 75
     1
175
     1
 42
1.0
 92
        8
 66
     8
424
  8421504
 43
1.0
 76
     1
 77
     6
 78
     2
 67
     7
 79
     5
170
     0
171
     0
290
     0
174
     0
 93
        1
 44
0.0
173
     0
291
     1
 45
0.0
1001
ACAD
1000
AcDbSavedByObjectVersion
1070
     0
  0
VISUALSTYLE
  5
32
102
{ACAD_XDICTIONARY
360
B8C
102
}
102
{ACAD_REACTORS
330
29
102
}
330
29
100
AcDbVisualStyle
  2
Conceptual
 70
     9
 71
     3
 72
     2
 73
     0
 90
        0
 40
-0.6
 41
-30.0
 62
     5
 63
     7
421
 16777215
 74
     2
 91
        2
 64
     7
 65
   257
 75
     1
175
     1
 42
179.0
 92
        8
 66
     7
 43
1.0
 76
     1
 77
     6
 78
     2
 67
     7
 79
     3
170
     0
171
     0
290
     0
174
     0
 93
        1
 44
0.0
173
     0
291
     0
 45
0.0
1001
ACAD
1000
AcDbSavedByObjectVersion
1070
     0
  0
VISUALSTYLE
  5
34
102
{ACAD_XDICTIONARY
360
B90
102
}
102
{ACAD_REACTORS
330
29
102
}
330
29
100
AcDbVisualStyle
  2
Dim
 70
    11
 71
     2
 72
     2
 73
     0
 90
        0
 40
-0.6
 41
-30.0
 62
     5
 63
     7
421
 16777215
 74
     1
 91
        4
 64
     7
 65
   257
 75
     1
175
     1
 42
1.0
 92
        8
 66
     7
 43
1.0
 76
     1
 77
     6
 78
     2
 67
     7
 79
     5
170
     0
171
     0
290
     0
174
     0
 93
        1
 44
-50.0
173
     0
291
     1
 45
0.0
1001
ACAD
1000
AcDbSavedByObjectVersion
1070
     0
  0
VISUALSTYLE
  5
41
102
{ACAD_XDICTIONARY
360
BAA
102
}
102
{ACAD_REACTORS
330
29
102
}
330
29
100
AcDbVisualStyle
  2
EdgeColorOff
 70
    22
 71
     2
 72
     2
 73
     0
 90
        0
 40
-0.6
 41
-30.0
 62
     5
 63
     7
421
 16777215
 74
     1
 91
        4
 64
     7
 65
   257
 75
     1
175
     1
 42
1.0
 92
        8
 66
     7
 43
1.0
 76
     1
 77
     6
 78
     2
 67
     7
 79
     5
170
     0
171
     0
290
     0
174
     0
 93
        1
 44
0.0
173
     0
291
     1
 45
0.0
1001
ACAD
1000
AcDbSavedByObjectVersion
1070
     0
  0
VISUALSTYLE
  5
38
102
{ACAD_XDICTIONARY
360
B98
102
}
102
{ACAD_REACTORS
330
29
102
}
330
29
100
AcDbVisualStyle
  2
Facepattern
 70
    15
 71
     2
 72
     2
 73
     0
 90
        0
 40
-0.6
 41
-30.0
 62
     5
 63
     7
421
 16777215
 74
     1
 91
        4
 64
     7
 65
   257
 75
     1
175
     1
 42
1.0
 92
        8
 66
     7
 43
1.0
 76
     1
 77
     6
 78
     2
 67
     7
 79
     5
170
     0
171
     0
290
     0
174
     0
 93
        1
 44
0.0
173
     0
291
     1
 45
0.0
1001
ACAD
1000
AcDbSavedByObjectVersion
1070
     0
  0
VISUALSTYLE
  5
2A
102
{ACAD_XDICTIONARY
360
B7C
102
}
102
{ACAD_REACTORS
330
29
102
}
330
29
100
AcDbVisualStyle
  2
Flat
 70
     0
 71
     2
 72
     1
 73
     1
 90
        2
 40
-0.6
 41
30.0
 62
     5
 63
     7
421
 16777215
 74
     0
 91
        0
 64
     7
 65
   257
 75
     1
175
     1
 42
1.0
 92
        8
 66
     7
 43
1.0
 76
     1
 77
     6
 78
     2
 67
     7
 79
     5
170
     0
171
     0
290
     0
174
     0
 93
       13
 44
0.0
173
     0
291
     1
 45
0.0
1001
ACAD
1000
AcDbSavedByObjectVersion
1070
     0
  0
VISUALSTYLE
  5
2B
102
{ACAD_XDICTIONARY
360
B7E
102
}
102
{ACAD_REACTORS
330
29
102
}
330
29
100
AcDbVisualStyle
  2
FlatWithEdges
 70
     1
 71
     2
 72
     1
 73
     1
 90
        2
 40
-0.6
 41
30.0
 62
     5
 63
     7
421
 16777215
 74
     1
 91
        0
 64
     7
 65
   257
 75
     1
175
     1
 42
1.0
 92
        0
 66
   257
 43
1.0
 76
     1
 77
     6
 78
     2
 67
     7
 79
     5
170
     0
171
     0
290
     0
174
     0
 93
       13
 44
0.0
173
     0
291
     1
 45
0.0
1001
ACAD
1000
AcDbSavedByObjectVersion
1070
     0
  0
VISUALSTYLE
  5
2C
102
{ACAD_XDICTIONARY
360
B80
102
}
102
{ACAD_REACTORS
330
29
102
}
330
29
100
AcDbVisualStyle
  2
Gouraud
 70
     2
 71
     2
 72
     2
 73
     1
 90
        2
 40
-0.6
 41
30.0
 62
     5
 63
     7
421
 16777215
 74
     0
 91
        0
 64
     7
 65
   257
 75
     1
175
     1
 42
1.0
 92
        0
 66
     7
 43
1.0
 76
     1
 77
     6
 78
     2
 67
     7
 79
     5
170
     0
171
     0
290
     0
174
     0
 93
       13
 44
0.0
173
     0
291
     1
 45
0.0
1001
ACAD
1000
AcDbSavedByObjectVersion
1070
     0
  0
VISUALSTYLE
  5
2D
102
{ACAD_XDICTIONARY
360
B82
102
}
102
{ACAD_REACTORS
330
29
102
}
330
29
100
AcDbVisualStyle
  2
GouraudWithEdges
 70
     3
 71
     2
 72
     2
 73
     1
 90
        2
 40
-0.6
 41
30.0
 62
     5
 63
     7
421
 16777215
 74
     1
 91
        0
 64
     7
 65
   257
 75
     1
175
     1
 42
1.0
 92
        0
 66
   257
 43
1.0
 76
     1
 77
     6
 78
     2
 67
     7
 79
     5
170
     0
171
     0
290
     0
174
     0
 93
       13
 44
0.0
173
     0
291
     1
 45
0.0
1001
ACAD
1000
AcDbSavedByObjectVersion
1070
     0
  0
VISUALSTYLE
  5
31
102
{ACAD_XDICTIONARY
360
B8A
102
}
102
{ACAD_REACTORS
330
29
102
}
330
29
100
AcDbVisualStyle
  2
Hidden
 70
     6
 71
     1
 72
     2
 73
     2
 90
        0
 40
-0.6
 41
-30.0
 62
     5
 63
     7
421
 16777215
 74
     2
 91
        2
 64
     7
 65
   257
 75
     2
175
     1
 42
40.0
 92
        0
 66
   257
 43
1.0
 76
     1
 77
     6
 78
     2
 67
     7
 79
     3
170
     0
171
     0
290
     0
174
     0
 93
        1
 44
0.0
173
     0
291
     0
 45
0.0
1001
ACAD
1000
AcDbSavedByObjectVersion
1070
     0
  0
VISUALSTYLE
  5
3F
102
{ACAD_XDICTIONARY
360
BA6
102
}
102
{ACAD_REACTORS
330
29
102
}
330
29
100
AcDbVisualStyle
  2
JitterOff
 70
    20
 71
     2
 72
     2
 73
     0
 90
        0
 40
-0.6
 41
-30.0
 62
     5
 63
     7
421
 16777215
 74
     1
 91
        4
 64
     7
 65
   257
 75
     1
175
     1
 42
1.0
 92
       10
 66
     7
 43
1.0
 76
     1
 77
     6
 78
     2
 67
     7
 79
     5
170
     0
171
     0
290
     0
174
     0
 93
        1
 44
0.0
173
     0
291
     1
 45
0.0
1001
ACAD
1000
AcDbSavedByObjectVersion
1070
     0
  0
VISUALSTYLE
  5
37
102
{ACAD_XDICTIONARY
360
B96
102
}
102
{ACAD_REACTORS
330
29
102
}
330
29
100
AcDbVisualStyle
  2
Linepattern
 70
    14
 71
     2
 72
     2
 73
     0
 90
        0
 40
-0.6
 41
-30.0
 62
     5
 63
     7
421
 16777215
 74
     1
 91
        4
 64
     7
 65
   257
 75
     7
175
     7
 42
1.0
 92
        8
 66
     7
 43
1.0
 76
     1
 77
     6
 78
     2
 67
     7
 79
     5
170
     0
171
     0
290
     0
174
     0
 93
        1
 44
0.0
173
     0
291
     1
 45
0.0
1001
ACAD
1000
AcDbSavedByObjectVersion
1070
     0
  0
VISUALSTYLE
  5
40
102
{ACAD_XDICTIONARY
360
BA8
102
}
102
{ACAD_REACTORS
330
29
102
}
330
29
100
AcDbVisualStyle
  2
OverhangOff
 70
    21
 71
     2
 72
     2
 73
     0
 90
        0
 40
-0.6
 41
-30.0
 62
     5
 63
     7
421
 16777215
 74
     1
 91
        4
 64
     7
 65
   257
 75
     1
175
     1
 42
1.0
 92
        9
 66
     7
 43
1.0
 76
     1
 77
     6
 78
     2
 67
     7
 79
     5
170
     0
171
     0
290
     0
174
     0
 93
        1
 44
0.0
173
     0
291
     1
 45
0.0
1001
ACAD
1000
AcDbSavedByObjectVersion
1070
     0
  0
VISUALSTYLE
  5
33
102
{ACAD_XDICTIONARY
360
B8E
102
}
102
{ACAD_REACTORS
330
29
102
}
330
29
100
AcDbVisualStyle
  2
Realistic
 70
     8
 71
     2
 72
     3
 73
     0
 90
        2
 40
-0.6
 41
30.0
 62
     5
 63
     7
421
 16777215
 74
     0
 91
        0
 64
     7
 65
   257
 75
     1
175
     1
 42
1.0
 92
        8
 66
   257
 43
1.0
 76
     1
 77
     6
 78
     2
 67
     7
 79
     3
170
     0
171
     0
290
     0
174
     0
 93
       13
 44
0.0
173
     0
291
     0
 45
0.0
1001
ACAD
1000
AcDbSavedByObjectVersion
1070
     0
  0
VISUALSTYLE
  5
3E
102
{ACAD_XDICTIONARY
360
BA4
102
}
102
{ACAD_REACTORS
330
29
102
}
330
29
100
AcDbVisualStyle
  2
Shaded
 70
    27
 71
     2
 72
     2
 73
     1
 90
        2
 40
-0.6
 41
30.0
 62
     5
 63
     7
421
 16777215
 74
     0
 91
        4
 64
     7
 65
   257
 75
     1
175
     1
 42
1.0
 92
        8
 66
   257
 43
1.0
 76
     1
 77
     6
 78
     2
 67
     8
425
  7895160
 79
     3
170
     0
171
     0
290
     0
174
     0
 93
        5
 44
0.0
173
     0
291
     0
 45
0.0
1001
ACAD
1000
AcDbSavedByObjectVersion
1070
     0
  0
VISUALSTYLE
  5
3D
102
{ACAD_XDICTIONARY
360
BA2
102
}
102
{ACAD_REACTORS
330
29
102
}
330
29
100
AcDbVisualStyle
  2
Shaded with edges
 70
    26
 71
     2
 72
     2
 73
     1
 90
        2
 40
-0.6
 41
30.0
 62
     5
 63
     7
421
 16777215
 74
     1
 91
       10
 64
     7
 65
   257
 75
     2
175
     1
 42
1.0
 92
        8
 66
   257
 43
1.0
 76
     1
 77
     6
 78
     2
 67
     7
 79
     3
170
     0
171
     0
290
     0
174
     0
 93
        5
 44
0.0
173
     0
291
     0
 45
0.0
1001
ACAD
1000
AcDbSavedByObjectVersion
1070
     0
  0
VISUALSTYLE
  5
3A
102
{ACAD_XDICTIONARY
360
B9C
102
}
102
{ACAD_REACTORS
330
29
102
}
330
29
100
AcDbVisualStyle
  2
Shades of Gray
 70
    23
 71
     2
 72
     2
 73
     3
 90
        0
 40
-0.6
 41
-30.0
 62
     5
 63
     7
421
 16777215
 74
     2
 91
        2
 64
     7
 65
     7
 75
     1
175
     1
 42
40.0
 92
        8
 66
     7
 43
1.0
 76
     1
 77
     6
 78
     2
 67
     7
 79
     3
170
     0
171
     0
290
     0
174
     0
 93
        1
 44
0.0
173
     0
291
     0
 45
0.0
1001
ACAD
1000
AcDbSavedByObjectVersion
1070
     0
  0
VISUALSTYLE
  5
3B
102
{ACAD_XDICTIONARY
360
B9E
102
}
102
{ACAD_REACTORS
330
29
102
}
330
29
100
AcDbVisualStyle
  2
Sketchy
 70
    24
 71
     1
 72
     2
 73
     2
 90
        0
 40
-0.6
 41
-30.0
 62
     5
 63
     7
421
 16777215
 74
     2
 91
        2
 64
     7
 65
     7
 75
     1
175
     1
 42
40.0
 92
       11
 66
     7
 43
1.0
 76
     1
 77
     6
 78
     2
 67
     7
 79
     6
170
     0
171
     0
290
     0
174
     0
 93
        1
 44
0.0
173
     0
291
     0
 45
0.0
1001
ACAD
1000
AcDbSavedByObjectVersion
1070
     0
  0
VISUALSTYLE
  5
36
102
{ACAD_XDICTIONARY
360
B94
102
}
102
{ACAD_REACTORS
330
29
102
}
330
29
100
AcDbVisualStyle
  2
Thicken
 70
    13
 71
     2
 72
     2
 73
     0
 90
        0
 40
-0.6
 41
-30.0
 62
     5
 63
     7
421
 16777215
 74
     1
 91
        4
 64
     7
 65
   257
 75
     1
175
     1
 42
1.0
 92
       12
 66
     7
 43
1.0
 76
     1
 77
     6
 78
     2
 67
     7
 79
     5
170
     0
171
     0
290
     0
174
     0
 93
        1
 44
0.0
173
     0
291
     1
 45
0.0
1001
ACAD
1000
AcDbSavedByObjectVersion
1070
     0
  0
VISUALSTYLE
  5
30
102
{ACAD_XDICTIONARY
360
B88
102
}
102
{ACAD_REACTORS
330
29
102
}
330
29
100
AcDbVisualStyle
  2
Wireframe
 70
     5
 71
     0
 72
     2
 73
     0
 90
        0
 40
-0.6
 41
-30.0
 62
     5
 63
     7
421
 16777215
 74
     1
 91
        4
 64
     7
 65
   257
 75
     1
175
     1
 42
1.0
 92
        0
 66
   257
 43
1.0
 76
     1
 77
     6
 78
     2
 67
     7
 79
     3
170
     0
171
     0
290
     0
174
     0
 93
        1
 44
0.0
173
     0
291
     0
 45
0.0
1001
ACAD
1000
AcDbSavedByObjectVersion
1070
     0
  0
VISUALSTYLE
  5
3C
102
{ACAD_XDICTIONARY
360
BA0
102
}
102
{ACAD_REACTORS
330
29
102
}
330
29
100
AcDbVisualStyle
  2
X-Ray
 70
    25
 71
     2
 72
     2
 73
     1
 90
        1
 40
0.5
 41
-30.0
 62
     5
 63
     7
421
 16777215
 74
     1
 91
        0
 64
     7
 65
   257
 75
     1
175
     1
 42
1.0
 92
        8
 66
     7
 43
1.0
 76
     1
 77
     6
 78
     2
 67
     7
 79
     3
170
     0
171
     0
290
     0
174
     0
 93
       13
 44
0.0
173
     0
291
     0
 45
0.0
1001
ACAD
1000
AcDbSavedByObjectVersion
1070
     0
  0
DICTIONARYVAR
  5
79
102
{ACAD_REACTORS
330
76
102
}
330
76
100
DictionaryVariables
280
     0
  1
1:1
  0
DICTIONARYVAR
  5
78
102
{ACAD_REACTORS
330
76
102
}
330
76
100
DictionaryVariables
280
     0
  1
STANDARD
  0
DICTIONARYVAR
  5
77
102
{ACAD_REACTORS
330
76
102
}
330
76
100
DictionaryVariables
280
     0
  1
STANDARD
  0
DICTIONARYVAR
  5
B6F
102
{ACAD_REACTORS
330
76
102
}
330
76
100
DictionaryVariables
280
     0
  1
0
  0
DICTIONARYVAR
  5
B70
102
{ACAD_REACTORS
330
76
102
}
330
76
100
DictionaryVariables
280
     0
  1
0
  0
DICTIONARYVAR
  5
B6E
102
{ACAD_REACTORS
330
76
102
}
330
76
100
DictionaryVariables
280
     0
  1
2
  0
DICTIONARYVAR
  5
B6D
102
{ACAD_REACTORS
330
76
102
}
330
76
100
DictionaryVariables
280
     0
  1
1
  0
DICTIONARYVAR
  5
B71
102
{ACAD_REACTORS
330
76
102
}
330
76
100
DictionaryVariables
280
     0
  1
2
  0
DICTIONARY
  5
1A
330
19
100
AcDbDictionary
280
     1
281
     1
  3
ACAD_XREC_ROUNDTRIP
360
B7A
  3
BUMPTILE
360
1C
  3
DIFFUSETILE
360
1B
  3
OPACITYTILE
360
1F
  3
REFLECTIONTILE
360
1E
  3
REFRACTIONTILE
360
20
  3
SPECULARTILE
360
1D
  0
DICTIONARY
  5
12
330
11
100
AcDbDictionary
280
     1
281
     1
  3
ACAD_XREC_ROUNDTRIP
360
B79
  3
BUMPTILE
360
14
  3
DIFFUSETILE
360
13
  3
FBXASSET
360
109
  3
OPACITYTILE
360
17
  3
REFLECTIONTILE
360
16
  3
REFRACTIONTILE
360
18
  3
SPECULARTILE
360
15
  0
DICTIONARY
  5
22
330
21
100
AcDbDictionary
280
     1
281
     1
  3
ACAD_XREC_ROUNDTRIP
360
B7B
  3
BUMPTILE
360
24
  3
DIFFUSETILE
360
23
  3
FBXASSET
360
BA
  3
OPACITYTILE
360
27
  3
REFLECTIONTILE
360
26
  3
REFRACTIONTILE
360
28
  3
SPECULARTILE
360
25
  0
DICTIONARY
  5
B74
330
67
100
AcDbDictionary
280
     1
281
     1
  3
ACAD_XREC_ROUNDTRIP
360
B75
  0
DICTIONARY
  5
B72
330
65
100
AcDbDictionary
280
     1
281
     1
  3
ACAD_ROUNDTRIP_2008_TABLESTYLE_CELLSTYLEMAP
360
B73
  3
ACAD_XREC_ROUNDTRIP
360
BAC
  0
DICTIONARY
  5
B86
330
2F
100
AcDbDictionary
280
     1
281
     1
  3
ACAD_XREC_ROUNDTRIP
360
B87
  0
DICTIONARY
  5
B84
330
2E
100
AcDbDictionary
280
     1
281
     1
  3
ACAD_XREC_ROUNDTRIP
360
B85
  0
DICTIONARY
  5
B92
330
35
100
AcDbDictionary
280
     1
281
     1
  3
ACAD_XREC_ROUNDTRIP
360
B93
  0
DICTIONARY
  5
B9A
330
39
100
AcDbDictionary
280
     1
281
     1
  3
ACAD_XREC_ROUNDTRIP
360
B9B
  0
DICTIONARY
  5
B8C
330
32
100
AcDbDictionary
280
     1
281
     1
  3
ACAD_XREC_ROUNDTRIP
360
B8D
  0
DICTIONARY
  5
B90
330
34
100
AcDbDictionary
280
     1
281
     1
  3
ACAD_XREC_ROUNDTRIP
360
B91
  0
DICTIONARY
  5
BAA
330
41
100
AcDbDictionary
280
     1
281
     1
  3
ACAD_XREC_ROUNDTRIP
360
BAB
  0
DICTIONARY
  5
B98
330
38
100
AcDbDictionary
280
     1
281
     1
  3
ACAD_XREC_ROUNDTRIP
360
B99
  0
DICTIONARY
  5
B7C
330
2A
100
AcDbDictionary
280
     1
281
     1
  3
ACAD_XREC_ROUNDTRIP
360
B7D
  0
DICTIONARY
  5
B7E
330
2B
100
AcDbDictionary
280
     1
281
     1
  3
ACAD_XREC_ROUNDTRIP
360
B7F
  0
DICTIONARY
  5
B80
330
2C
100
AcDbDictionary
280
     1
281
     1
  3
ACAD_XREC_ROUNDTRIP
360
B81
  0
DICTIONARY
  5
B82
330
2D
100
AcDbDictionary
280
     1
281
     1
  3
ACAD_XREC_ROUNDTRIP
360
B83
  0
DICTIONARY
  5
B8A
330
31
100
AcDbDictionary
280
     1
281
     1
  3
ACAD_XREC_ROUNDTRIP
360
B8B
  0
DICTIONARY
  5
BA6
330
3F
100
AcDbDictionary
280
     1
281
     1
  3
ACAD_XREC_ROUNDTRIP
360
BA7
  0
DICTIONARY
  5
B96
330
37
100
AcDbDictionary
280
     1
281
     1
  3
ACAD_XREC_ROUNDTRIP
360
B97
  0
DICTIONARY
  5
BA8
330
40
100
AcDbDictionary
280
     1
281
     1
  3
ACAD_XREC_ROUNDTRIP
360
BA9
  0
DICTIONARY
  5
B8E
330
33
100
AcDbDictionary
280
     1
281
     1
  3
ACAD_XREC_ROUNDTRIP
360
B8F
  0
DICTIONARY
  5
BA4
330
3E
100
AcDbDictionary
280
     1
281
     1
  3
ACAD_XREC_ROUNDTRIP
360
BA5
  0
DICTIONARY
  5
BA2
330
3D
100
AcDbDictionary
280
     1
281
     1
  3
ACAD_XREC_ROUNDTRIP
360
BA3
  0
DICTIONARY
  5
B9C
330
3A
100
AcDbDictionary
280
     1
281
     1
  3
ACAD_XREC_ROUNDTRIP
360
B9D
  0
DICTIONARY
  5
B9E
330
3B
100
AcDbDictionary
280
     1
281
     1
  3
ACAD_XREC_ROUNDTRIP
360
B9F
  0
DICTIONARY
  5
B94
330
36
100
AcDbDictionary
280
     1
281
     1
  3
ACAD_XREC_ROUNDTRIP
360
B95
  0
DICTIONARY
  5
B88
330
30
100
AcDbDictionary
280
     1
281
     1
  3
ACAD_XREC_ROUNDTRIP
360
B89
  0
DICTIONARY
  5
BA0
330
3C
100
AcDbDictionary
280
     1
281
     1
  3
ACAD_XREC_ROUNDTRIP
360
BA1
  0
XRECORD
  5
B7A
102
{ACAD_REACTORS
330
1A
102
}
330
1A
100
AcDbXrecord
280
     1
102
MATERIAL
148
0.0
149
0.0
149
0.0
 93
        0
 94
      127
282
     0
 72
     0
 77
     0
171
     0
175
     0
179
     0
273
     0
  0
XRECORD
  5
1C
102
{ACAD_REACTORS
330
1A
102
}
330
1A
100
AcDbXrecord
280
     1
270
     1
271
     1
  0
XRECORD
  5
1B
102
{ACAD_REACTORS
330
1A
102
}
330
1A
100
AcDbXrecord
280
     1
270
     1
271
     1
  0
XRECORD
  5
1F
102
{ACAD_REACTORS
330
1A
102
}
330
1A
100
AcDbXrecord
280
     1
270
     1
271
     1
  0
XRECORD
  5
1E
102
{ACAD_REACTORS
330
1A
102
}
330
1A
100
AcDbXrecord
280
     1
270
     1
271
     1
  0
XRECORD
  5
20
102
{ACAD_REACTORS
330
1A
102
}
330
1A
100
AcDbXrecord
280
     1
270
     1
271
     1
  0
XRECORD
  5
1D
102
{ACAD_REACTORS
330
1A
102
}
330
1A
100
AcDbXrecord
280
     1
270
     1
271
     1
  0
XRECORD
  5
B79
102
{ACAD_REACTORS
330
12
102
}
330
12
100
AcDbXrecord
280
     1
102
MATERIAL
148
0.0
149
0.0
149
0.0
 93
        0
 94
      127
282
     0
 72
     0
 77
     0
171
     0
175
     0
179
     0
273
     0
  0
XRECORD
  5
14
102
{ACAD_REACTORS
330
12
102
}
330
12
100
AcDbXrecord
280
     1
270
     1
271
     1
  0
XRECORD
  5
13
102
{ACAD_REACTORS
330
12
102
}
330
12
100
AcDbXrecord
280
     1
270
     1
271
     1
  0
XRECORD
  5
109
102
{ACAD_REACTORS
330
12
102
}
330
12
100
AcDbXrecord
280
     1
 70
     1
 90
1959938040
 71
     1
  1
7E06BD4B-BA96-40CE-8600-C13F37D5EB32
311
504B03040A0000080000A996E8423DEE336E79000000790000001B0000006175746F6465736B2D64657369676E2D7061636B6167652E786D6C3C3F786D6C2076657273696F6E3D22312E302220656E636F64696E673D227574662D3822203F3E3C666F726D6174733E3C666F726D61743E687474703A2F2F736368656D612E
311
6175746F6465736B2E636F6D2F64657369676E2D7061636B6167652F323030393C2F666F726D61743E3C2F666F726D6174733E504B0304140006080800A996E842D486FD9CA0000000F4000000130000005B436F6E74656E745F54797065735D2E786D6C7D8EC10E82300C865F65E91D8A1E8C310C0EEA1BF002731658846E
311
D98AC1B77784ABF1D8FE5FBFBF75BBCE937A534CCEB38643598122B6FEE978D0B0485F9C41B54DDD7D022595594E1A469170414C76A4D9A4D207E29CF43ECE46F218070CC6BECC4078ACAA135ACF422C856C0E68EA1BF5669944DDD7BCDE7B1F8E415D77AECB980613C2E4AC91FC167A2B244592486606FC29C8FD7F045B9A
311
EF7053A7E60B504B0304140006080800A996E842B0EE4192EC0000007C01000008000000636F72652E786D6C8D90D16E842010457FC5CC6B8382BA150DB2D944FD82FE0001D6925DC10834FDFCE2AE9BB46F7D9AC99D7B6626979DBF977BF6A5376F9CED81E418326DA553C6CE3DC4704514B233679B73E1970D322B16DDC3
311
2E0367F3E6E27A48D2D9A06D48AA754A1FA2F05E07C8E43D353D78F9A917918B1892C3DFF255C89B98754E5E5D8263342A7B1E312AED3357A337E0236D4E63390CA8C6E584EAFABD416D5953348CED34359776BC10CA8A1DE62C98E5755F6E5A04AD80979854083708D30F42BB53D591F60D9FBA0AB362B7FF81E2AAFE0945
311
6343551EEF3E310F9CA4471E03CE8A3D8B541E41A5BAE7C67F00504B0304140006080800A996E84255019EA25F0000007C00000007000000636E782E786D6C4DCB3B0E80201045D1AD90E915ED2CF8AC45050C11660C8261F98AB1B07AC9C97D42D718D865D3E909258CFD00CCE24AC6E326A164D74DC0B4128928FF326038
311
472BA13128B1252AC747C6BAB984FC68F0B87FE8960A5C09FE86CFB69FBA01504B0304140006080800A996E842B1F9F83B68010000020300000C0000006662782F636F72652E786D6C8D52ED8A8330107C9590BF478C5F3DB5C49442ED13DC0BA49A7A524D2426D2C7BFF5A3783D4A3984186676766747D9E1DEB568946668
311
B4CA71E0F9184955EAAA51758E9DBD9214A30367466BFBAB0C23253A99E309C69CD546BB7E854AADAC541650A52BB9826218A4C5A86CE192E3A1FC969DF084B35031DCBC5E9437514B2FF080863ACE066BC0005A864C27E6D7CB9DD105E7CCB9A65AD9A68269CDB59106F3224D7645783A91D80FCF248E3F139285714A4E45
311
763E27C7AC380629A3939833DB740F77A591C2CA0AF3D00F22E227C44FBF8274BF8BF641F6E1EFF691CFE854FE24727DF54F916B948DC2D5EE221B300FC0C84CFCD91622B2681023F8A19CD1294478CD093F070D8140C8565CDAC71E378046595A6D62602AED366A14AD9330D547F3C3E8C242E7B9016CF6B24FF8A6CFFB1E
311
F00185AAC19AB070BD383B4D67CBD4358A5E1A32DA3B52DA74A2DDCC2D16B7731BF4525EEA569BFFA8E9BA2A5DC3A4D3DFCB7F00504B0304140006080800A996E842D7F29BDA7D0000009D0000000B0000006662782F636E782E786D6C4DCCD10A83201886E15B91FFDC6568AD811A9AEC3E6259C84CC3E9D8E5AF46073BFA
311
E0E1E3E5FD67F5E86DD3CBC520A0BE1040363CE2E4C222A0E41977807AC9538CF9EF06288CAB15703048BEA458B693263B8FC5E75DBD0BCF131BA2F5706D35A6833298D58C60A5758BA9BA53DD985BA798814AF2EA57DAF708CB2F504B0304140006080800A996E842F07200B82E01000015020000310000006662782F3530
311
4242433736422D334341442D343134302D414242362D3341463342354439384134442F636F72652E786D6C8D515B6EC32010BC0AE22B55850DC176EC0813D9897A825E80D8244589C1E251E5F885DA91DABFFCB068766676B4CB0E8FE90EBEA575CAE816920C4320F56046A5AF2D0CFE826A080E9C5963FC1F1A045A4CB285
311
09869C5DAD09F30A0D467BA97D44B519E50A0AE7A48760B8C74F0BDDF025279189E023C3DDB2590C37719519C9623BF23873DEC6006019925EC84BDCF7C75DD5237AEC4EA82005465DDF5788761FB42F4F4DDD1527962F42CE4250E32A57638CA32E4ADA574D929833AFA667FCC14AE1E508F916138AF00EE1FA93D4FB92EE
311
49F38ECB3DC52C4FF47FA2308F2F8A82D29E6ED7B88BCC414E58BE34381B4D38DF9F61E46336D683346FE3E4F00639CE30AEB7B46948C1F2851B37104DAB623575DED8B8E1CDED1CE9A45C9CAB82B33C1D2996DF0BC69A0ECA7F00504B0304140006080800A996E84204E222914F01000033030000300000006662782F3530
311
4242433736422D334341442D343134302D414242362D3341463342354439384134442F636E782E786D6CD593BD6E032110845F05D146F797B31DC7E2B094224F90222D076B9B9883133F51FCF6596CECB84991320D3ACD0E33AB4F1CDB7E4D867C820FDAD98176754B0958E994B6FB81A6B8ABD6946C39F3CEC53B1B25564C
311
30D02C53CEF6DEA5B9480A76229988AAD1F658440FC1252F21A09C6F12E3A4301800B64A28C2348252A0C8CD885F3BF0B80A8AE389C40390D79777E2C60F9031B026A770D6E40ECEF2599AEE4C944823421868900798442D52740AC2B156228ABAABAF5DBFECF49344F2856B65F29AE4F281E693F2B2518D1C598343CE42F4
311
48AF98E26906CAC53C1B2D4544C8CDD978F17096B48DAB45F16A04EFD1DDADFAC502C3CE33CEA29EA038A407114151FED8767DD53E55EDFAAD5B6F96FDA67B7E68979BBE654DB673363A67CA258C01EF66229D8D6023E51D6BF2F8377CC54794F6C8DAF9D31F402280D27AA173CBF8CF7C9AF3FB465C1EFF02FE0D504B0304
311
140006080800A996E842A5876065A505000081100000340000006662782F35304242433736422D334341442D343134302D414242362D3341463342354439384134442F6F626A656374732E786D6CAD57DB6EDB3810FD1541FBB2FB60CBB29D3459282A623B298C366D51A3C53E1830688952B8A12E20A9D4D9AFDF43919225
311
D74EBD8BBEE8C2CB70E6CC990B83B7BB8C3BCF544856E437AE3F1CB90ECDA32266797AE3562A195CB9CEDB301045A13ACB5C272719BD71F5B01B06A928AAD20EC53421155707A3F7B3BF1C19D19CBA4EC4899437AE8C1E694686A452454CE5D330268A0CD36437F48766615F6C2A48F97820B42482E60A9A623C8714C728E5
311
F77F47AE17069E9E0F03FDB4AB26A75779B53DFDF3592E15C9A31F0E3B1033F1A78BBBF1C5F5E0623A9D0CA697637F30BB9F2D06FE9BC9687E399F5FDFDE5DE360A90424594D044DDCF01DB0112C0A3C33150615CBD5646C97580779823E33ED29371C3B7EE09935AD75D6C863EA47459ED3A8C60A68D4F659D1312D691EC3
311
E78C4A68D64168D4FFF5358E9DE989FEB7477687CF43A0BBA323A8D1BD7977352DB67FC304790E8384A49A81064B6BA8E1EA688FF0B628B89D63D2C988A28211EE70B61544BCB82196EA2561D013A3992C7434680BDC105E30D37DBA208C7ECEF3635A2615E79AC66E5847C106B14295AC3563FF50B1D7BE8B0C7482AF341B
311
AEAC41EAA5A46E786D287275C02603A4937092C2E53053EF9C8C0F0C9DEB385D2EDCF0FDFD76B7D2B17BFCF0521425154AD307D46A1CD7BC354A5627FF2CCFE90DEE812A7B50BE00F98F08F5BD2AF09B60BBE96E6A4F5182E432294406DF38236730C263E4F8F5537F77BE02AFDDDCF7DE293CE16C0DD52FC0B36F43D7971D
311
38C3E019842FC4C49AB68A0847DA78603900D22471788121E4E164BB73C325B21CB23276111EFA3019EA3EE333F0AC18248AFAA4CE3B07960769F18C040DD86A46420D437EABE0DE4F3FA4B3FA60BBEC14BC17BF84AEB78BD5FB55251212D1071BD30B9AB09C2994B83D6FBA0AF530EF59F4445FBE172286A13FE2BDEAE29D
311
D9A324D0D6986BE0D326A7EB9FFDC9BD0322EC4B0B9D6E829F9C00237461EDC87F6032A29C939C165573EEABF50365C340AC835D33B92D30FBC202D29899831844918E042B35886DB56A93E6F084755F971FC148379CBD7C202FDDECB5DDE7DEA8E085D86C5F36262D1D85FA5B9FDB16034F4B01DDEB2069E2DF82BE895992
311
541249F008AEDF96F3AEEF745A408A68A49A6899C27E04171196B48D5C546B4150498B7CC350371177470FE8CA07A49601B5C0531A4BCA930DE3BCCA3609E3A8469B8C9427E0F8FFFA6FABACDC90ACA8727542764F755487BEEE3DF6CAEF44458F6EB8AADF8319726F4CE31364D0B5E408563DD7BEB91B5DCE16D3D960767B
311
7D39988EE67783ABCBD16830F727F793378B8BBBD964DCF8C96812064DA9E94634BC84D216548259F77D5D227E6C1270C307A2E4FA9D09CFE6FD7539442F1C78D8837AD96EBC8D9FD1F7D1F8E702F62B8F0A5A6625A719CD15D131F4A03FF817823EA3A78C195F6624A56748F9F46E75600C46CED8F759C73BFD7EB0D78ECE
311
75401E15A21EAB6C9B13C60F36A606C96199A716BFC627EDDB149AE657FF59C7A03395056731F260ECA4B4C8A842363CA308898C4A50AFDBD3C7F6EE71C6EE67D3212AB2E5B4D1E491A049E61261016A5591EA8F3BBFA1A9D37DD58D8B723B7CC2C3660AD701676E5C34E98A45540EB728D0BA15AA85834BDD4E1E8D3FC953
311
8E5EDB6C6AFFDB5D1A9B5E496E979CD33F59BB4C0AB706208D94E81BD010C13BB5326150EB66E7A3FF6478A38E43143EB7956A6DD90FB4C6D4C720448D51F6B68026E6C91EBD43A0BE6E963FACD7F41039EB96F52A098CD4812222AD6F0A5A3FABD2EDE2B3870EC5597E724A5EA5F0E5F992068282CC950E70B008ACB0324B
311
A240D5F99FEBCFA2C04D3673EE1928E0FCBEBBBAFC633D2FB2ACC8CDD0FAD6DE879DD5236EB7F11AC981EA6B895C8F47FE785D5F07EC0D65B325920E492C9F3000CF0AD602DD733F7869EE8CA84366A25DE769571C3074B9706C619B42A8A54B37B76A70D078E4D4410CE92BA58E98EE82F2D51B81572F850A02BD7CF82F50
311
4B0304140006080000A996E842000000000000000000000000350000006662782F35304242433736422D334341442D343134302D414242362D3341463342354439384134442F76657274696365732E62696E504B0304140006080800A996E842F270F1330600000004000000360000006662782F35304242433736422D3343
311
41442D343134302D414242362D3341463342354439384134442F747269616E676C65732E62696E636660600000504B0304140006080000A996E842000000000000000000000000370000006662782F35304242433736422D334341442D343134302D414242362D3341463342354439384134442F617474726962757465732E
311
62696E504B0304140006080800A996E842D5987DFC8F00000041010000360000006662782F35304242433736422D334341442D343134302D414242362D3341463342354439384134442F6469726563746F72792E786D6C858F410EC2201045AF4266AF15DDB800BA74E7C21B903225242D6328188F2FA5C4183471359997F9
311
FF81E89FF3C41E1816475E02DF1F80A11FC8386F25A438EECEC07A250251FC3803E6F58C12560C4AD840E95E91C151A72936F496F35732D860FE635F62C8F2DA16B505C545B74125BAA2FA9E05D7CC053D063734D5C7665FD55B6B8D15D5E9BFEAFD8490FFA45E504B0304140006080800A996E8426F808B2AFF000000A001
311
00003B0000006662782F35304242433736422D334341442D343134302D414242362D3341463342354439384134442F7265736F75726365732F636F72652E786D6C8D50596E833010BD0A9ADFCA60B314888CA3A82127E8052C33A156821D79A97AFC9A40A5F6AF3F33A3B7689E1E3F7E2DF7EC139DD7D60CC0720A191A6527
311
6DE60162B8920EB2A3E0CEDAF04B0699910B0EB0C220F8EC6C7CEC90B226A009093576C21D94DE63804CDDD33180571FB8C85CC69014FE963FA4BAC9197396273AE904F7C1A500D9F6649D201C7A1B9D42CF8B8D153C463DED1A3DA59FFAAAD18118BBB619CBF31BA969792175FDDA92BEAC3B721EFBCBA53DF5E38975BC58
311
CD8207BDFC64540E65C00944495945684B68F7CEBA43531D58FF429B434579B1CAFF98E263FAA7296A13AA728FBBD93C0896823C09C18BB5AFB49E65A6BD762BBE01504B010214000A0000080000A996E8423DEE336E79000000790000001B00000000000000000000000000000000006175746F6465736B2D64657369676E
311
2D7061636B6167652E786D6C504B01021400140006080800A996E842D486FD9CA0000000F40000001300000000000000000000000000B20000005B436F6E74656E745F54797065735D2E786D6C504B01021400140006080800A996E842B0EE4192EC0000007C010000080000000000000000000000000083010000636F7265
311
2E786D6C504B01021400140006080800A996E84255019EA25F0000007C000000070000000000000000000000000095020000636E782E786D6C504B01021400140006080800A996E842B1F9F83B68010000020300000C00000000000000000000000000190300006662782F636F72652E786D6C504B01021400140006080800
311
A996E842D7F29BDA7D0000009D0000000B00000000000000000000000000AB0400006662782F636E782E786D6C504B01021400140006080800A996E842F07200B82E010000150200003100000000000000000000000000510500006662782F35304242433736422D334341442D343134302D414242362D3341463342354439
311
384134442F636F72652E786D6C504B01021400140006080800A996E84204E222914F010000330300003000000000000000000000000000CE0600006662782F35304242433736422D334341442D343134302D414242362D3341463342354439384134442F636E782E786D6C504B01021400140006080800A996E842A5876065
311
A50500008110000034000000000000000000000000006B0800006662782F35304242433736422D334341442D343134302D414242362D3341463342354439384134442F6F626A656374732E786D6C504B01021400140006080000A996E8420000000000000000000000003500000000000000000000000000620E0000666278
311
2F35304242433736422D334341442D343134302D414242362D3341463342354439384134442F76657274696365732E62696E504B01021400140006080800A996E842F270F13306000000040000003600000000000000000000000000B50E00006662782F35304242433736422D334341442D343134302D414242362D334146
311
3342354439384134442F747269616E676C65732E62696E504B01021400140006080000A996E84200000000000000000000000037000000000000000000000000000F0F00006662782F35304242433736422D334341442D343134302D414242362D3341463342354439384134442F617474726962757465732E62696E504B01
311
021400140006080800A996E842D5987DFC8F000000410100003600000000000000000000000000640F00006662782F35304242433736422D334341442D343134302D414242362D3341463342354439384134442F6469726563746F72792E786D6C504B01021400140006080800A996E8426F808B2AFF000000A00100003B00
311
000000000000000000000000471000006662782F35304242433736422D334341442D343134302D414242362D3341463342354439384134442F7265736F75726365732F636F72652E786D6C504B0506000000000E000E00800400009F1100000000
310
504B03040A0000080000A996E8423DEE336E79000000790000001B0000006175746F6465736B2D64657369676E2D7061636B6167652E786D6C3C3F786D6C2076657273696F6E3D22312E302220656E636F64696E673D227574662D3822203F3E3C666F726D6174733E3C666F726D61743E687474703A2F2F736368656D612E
310
6175746F6465736B2E636F6D2F64657369676E2D7061636B6167652F323030393C2F666F726D61743E3C2F666F726D6174733E504B0304140006080800A996E842D486FD9CA0000000F4000000130000005B436F6E74656E745F54797065735D2E786D6C7D8EC10E82300C865F65E91D8A1E8C310C0EEA1BF002731658846E
310
D98AC1B77784ABF1D8FE5FBFBF75BBCE937A534CCEB38643598122B6FEE978D0B0485F9C41B54DDD7D022595594E1A469170414C76A4D9A4D207E29CF43ECE46F218070CC6BECC4078ACAA135ACF422C856C0E68EA1BF5669944DDD7BCDE7B1F8E415D77AECB980613C2E4AC91FC167A2B244592486606FC29C8FD7F045B9A
310
EF7053A7E60B504B0304140006080800A996E8428336ABFEEC0000007C01000008000000636F72652E786D6C8D90416EC3201045AF82665BE100B66B6261A2CA8D4FD00B204C5C94182C03558F5F9C3852BBEB6A467FFE9B197D71FA9E6FE8CBACC17AD7012D0820E3B41FAD9B3A48F18239A09314ABF7F1970D9053B3E960
310
93418A69F569D925ED5D342E66D5F9D1ECA20AC14440FA969B0E82FE34B32A548AD911AEC5A2F4554DA6A0CF2EC329D9113D8ED831EFB3176B5690FC9D3755CD2BFC5A9F29AE86AAC76FE7E6883961032B879EF50D13870D9622DAF9795FAF46453382648496983498F00FCADBBA6CE9F185D46D49C461B3FF81D232FE134A
310
D6C592EDEF3EB00092E647EE03290E5B16B9DC83CA75CB4DFE00504B0304140006080800A996E84255019EA25F0000007C00000007000000636E782E786D6C4DCB3B0E80201045D1AD90E915ED2CF8AC45050C11660C8261F98AB1B07AC9C97D42D718D865D3E909258CFD00CCE24AC6E326A164D74DC0B4128928FF326038
310
472BA13128B1252AC747C6BAB984FC68F0B87FE8960A5C09FE86CFB69FBA01504B0304140006080800A996E84258DCE58C68010000020300000C0000006662782F636F72652E786D6C8D525B6E833010BC8AE5DF0A6C5E0D898CA32A4D4ED00B38E05014B0911F28C7EFF28868AA28AA908C35B3B33B3BC0F6B7AE458334B6
310
D1AAC051483192AAD455A3EA027B7709728CF69C19ADDDAF328C94E86481471873561BEDFB052AB57252394095AEE4020A6BA5C3A86CE152605B7ECB4E84C23BA8B0D7B017E555D4328C42A0A18E33EB0C1840F390F1C4FC72BE3132E39C79DF540BDB5430ADB934D2609E7FE69B34CBD3E03D3B46417A4A0FC1C771B30D72
310
1A9FE2E474880F9B989151CC996BBABBBBD248E16485794CA324A09B80E65F51BECB925DB47DA3D92EA18C8CE50F22DF57FF14F946B9245EECCE328B79044626E2CFB6109143560CE0877046C610E13525FC18340402213B716EEF7B5C011A64E9B44981A9B45FA941B45EC2548AA687919985CE5303D8EC699FF8459FD73D
310
E0030A558335E1E07AF66E9CCEE6A94B14BD34C1E06E4869D3897635375B5CCF75D05379A95B6DFEA326CBAA6409938C7F2FFF01504B0304140006080800A996E8427149FCBB7E0000009D0000000B0000006662782F636E782E786D6C4DCCD10A83201886E15B91FFDC32A6E5408D6C751FB12C64A6C3E9D8E5AF46073BFA
310
E0E1E315ED6773E86DE2CB062FA12A0820E3EF61B67E9590D38239A056891842FABB01F2D366241C0C4AAC31E4E749B359A6ECD2AECEFAC7899A5E081B468639BDD598368C607EE523AE1A3674BAA7B5EE39944A94BFD2BE47587D01504B0304140006080800A996E84293B8F18E2D01000015020000310000006662782F42
310
343330354546352D383444362D343735302D383938462D3137354541424334364243382F636F72652E786D6C8D515B6EC32010BC8AC557AB0A1B821F24C2444D9A9CA0177080A42831583CAA1CBF503B52FB971F16CDCECC8E76D9F63EDE8A6FE5BCB6A607B844A0504658A9CDA507319C2105C59633676DF84303851946D5
310
830C03CE2ECEC6698184354199905063A55AC0C17B1540216EE9D3032FBED43894430C89E1AFE53488EB7051252E533BF138F3C1A500C53C24BF80EF6A829AC3B181B4FE6861DD3508D2353D42DC3587F7DDBE6E777BCAAA59C8598C5A2E722D531C7DD6CA3D6B92C59C053D3EE20BA786A024E02B8409441D44F413D34D43
310
3678FD869A0D41ACCAF47FA238C92745519B40564BDC59E601C7AC9A1B9C491B4FB74718759FAC0B459EF7E29578051C950851B22668D5B16AE6A60D24D3B65E4C7DB02E6DF8E57A4A74B238B73567553E522ABF174C351F94FF00504B0304140006080800A996E8426245ED865601000033030000300000006662782F4234
310
3330354546352D383444362D343735302D383938462D3137354541424334364243382F636E782E786D6CBD93CD6EC32010845F0571ADFC1727A91B6122F5D027E8A1570C9B84068305B86ADEBE4B42D25C7AA854F582ACD96166F509B3EDE768C807F8A09DED6953D69480954E69BBEFE91C774547C99633EF5CBCB35162C5
310
083D4D32E56CEFDD3C6549C14ECC26A26AB43D66D14370B39710504E37897152180C005BCC28C2388052A0C8CD885F3BF0B80A8AC389C4039097E737E286779031B02AA57056A50ECED2999BEE4C94482342E8699007184529E6E8148463A9441465535EBB7ED8E93B89A40BD7CAD96B92CA7B9A4ECAF346257264150E390B
310
D123BD6C8AA7092817D364B41411215767E3C5C3D9AC6D5C2FB35723788FEE76B1EE3A0C3BCF388B7A84EC901E440445F9A26EDAA27E2CEAEEB5E936AB76D33C3DD4AB4D5BB32AD9391B9C33F912C680771391CE46B091F2865569FC13BEEC234A7B64EDFCE9172011406EBDD0B965FC259F66DD2E97FFC8A73ABF6FC4E5F1
310
2FE05F504B0304140006080800A996E842F228BD12650700009A1B0000340000006662782F42343330354546352D383444362D343735302D383938462D3137354541424334364243382F6F626A656374732E786D6CED59DD73ABB815FF5718FAD23E1843ECE4261DC24E6C27773CDBECDE59F7EEF4C1338C0C325123042389
310
DCB87F7D8F3EC0404C82BBE9DB3ED880908ECEF99D4F1DC29F5E73EABC602E48C16EDDC0F35D07B3A44809CB6EDD4AEE27D7AEF35314F2A290AD69AEC3508E6F5D35EC4661C68BAAB44329DEA38ACADEE8C3E25F8E4830C3AE935024C4AD2B92279C230F55B248B178F652249197ED5FBDC03313BB64338ECAA71ED11271CC
310
24700AE30CA83886A9A0FBE8BBD3289CAAF751A8FEEDACD9A859F3E159532D75974BC284442C79C3528FCC6C144BB360BEBABFB8BC995CCEE7B3C9FCEA22982C1E16AB49F065E62FAF96CB9BBBFB1B606F5714D4CA94E212B314F47770A3209CAA378DE81681535C27056338D14002545AAC3E4182056CD582CFEF3E064AA2
310
D66B2D61EB79AEDE5B165AC3B32E95A159E380E8D00541EC76B5C4F5B52D5FB1FB37082EC61825175802B74272D0AE85878357B8911F4ECD6814EE8EBA20C2C991C49C20EA50B2E388835260AA9A1285668125A39C8303294749A035675E776D0B3CF363D739C5E5BEA25479861B69C78AC1FDB0149A33F21FCC8FDCB79101
310
9E40DA8A30796DB9948712BBD14D38D58351A82EB30BFBD200E9EC29CA8446C4BCED09BA54AEBF5EB9D1CF0FBBD78D0A07A7372F7951622E95D1293D6ABEC090ED55A164B70D46694E2D00610CA876E51194DF00F95F207A1C5901BD71F23A7F9DDBB9922326F605CF41378EEF4C7CF8F39D40FFABFBD65D386D1677B53784
310
27B8A982EAFA8FE3D995416365F96FC119852F60F0059FD9579B0451B0E747C2002065240E2D600842FB7EF7EA466B089C10E86115A251002203BB2F701B4E2D99A3566AF7B25EC70051BBC76C8C9200366D91C0C6809EBE42F6E02439AAA92DE210BC979F62AE77ABCDCF9B8AEF51821FAD4FAFF09E3022216B9E66A88379
310
47A2677CF851F014047D8BF7A68D776EB71280B6C25C019FD520A887E3CE9D0D125897152ADC841FEC0042A85CDDA2FF48448229450C1755BD6F13DD94A1361E6F6B0637BA3010CF2E7A26CCF10B51550538CD71468751C8FB0927A502D18DBE1AC99AA0E90D48F77DFD0B5864337F60D69A41E86588FE5307AD1338742CBB
310
46DA02D108BC3B86F3A4A0058F7787D8443A176A0960A3EB2DBF778842AC374A5254C083B4DFD5212533D2C629D9EF2B0171F5048BBFAF976D73F0BD5970E9B4FF7BCE3887680BBE8BB8F5BBDE1E31C95186E33D4A87B66BEFD6D0169AE400698EF714E4222F441E6224633FC5D939D09C45FCE653A967B41082302C205F9D
310
04BF8D86EF412031DAAC59565AED014D449C6389E83908283203E0EAB4A36BDC044A878F796CACF73D8DB589FE9F2C8223A8250B1613284521877CC878E05D420CE9A26B50EEE10BD656D3D662D00A4A88E410FFC0247B92E7A06EC80FE09EC091A4927151A204CC7A04D937BEA294DAE37D879267953FE2A4A29F652002D3
310
7D4C28ADF2187E84C1C9638C6B3781E95D145AC44DEC933887A20CC98A8FD9E4EAD27FB38FA919FA21B0B5D19E5008DB718ECA01D43B0151D7234E03BEA53EA0D45D959731CA8B8A8D32146FD6F7264BBEAF56457624BFAA5484B2B1266C09462161B2C9AA75CC0653D78115DC4807AA432C505E52730AFB20F1048D3769CA
310
831B70EBA79FBB410E85DF80F6DA11755EC36079EC1406E20792C9931B6DF475B280FA3BC5E931D5D7B566BB0204C45424AF38B12AFABE86F2C6D6686EF488A4D87E3559B7BE7E5F7BD0FD08A7B0066A9766E15A019D632691AA4C1ED50DFD0D4108EED030E36B9553CFA17297A6BA6A44F4810CA9B353467436CD89573E61
310
56E4F0635BC2125AA5788B52F11C3F4A1A6F8862DD4AE9E5A4C6F85D017FFDBAE9C103232344FAA60A3CFCA3B7D68E2E55B97492887CAAF21D4304826047B4CCE8C62B596635526BB9B9AA3305D45D606056C5F33F4F16ED76C49F278BCC1AC61F3A592C0EFF4087765FA495CE1365D7671D039AFCA4A87CC63140B71D1AAA
310
4D1631C9DCCA6F9D2986A05847F9D1D5581D340CC1218EFFE7AC3D9405CD763DFECFCBDAC19B8AE3ACACD299ACBA54272AD7753B877DB9F7AF16ABF962B2B8BBB99ACCFDE5FDE4FACAF727CB60F630FBB2BABC5FCC9A546C88476113CC74EE826713D4EA61F5643180AEAC282849E1349F3A1986982FE14C3FA27DCE732C20
310
79B69BDDA96DCA8F58FD62FA9C12ED28AE397942D020A602D23A885125B23BEEFC055A93120EDAB72E348DBC67F8B356E93A90796E5D6815489260E1EDA0CDA41A7A9A38A45C9DFB2D31086488652A259A45CD73B34A61D309FFCD943169C0CAD5E96140E15642F7ABD3A1D0BC599E92B304AFD9719084DB5D25A15A33B21C
310
071A61F43647F51BD92861CF76EB5770DDF7C50A3C3DA783C8A84F06EF1A81A13A918867BADFAD18B32CDDADBE4DA1CFE6AC7F754A5A65A0CBF194261C833157AAA0022B02ABB0344B24C154977FDF7EE3057CE2C91D5D15397F7DBDBEFADB7659E479C1CCD0F60E4E65297C2872364FF0D927DD42F18055735D6C2FFCE062
310
AB9BDAB6CF1EEF90C09EAA8A60A02E2694203D9303BB7CD3A0B2EDCBA952456FFA7AE5D8200ACD0063476F7ABCE62397033EA43EA7288FD17E5E4BFB6E5F7BAAA7824D70E84847FF05504B0304140006080000A996E842000000000000000000000000350000006662782F42343330354546352D383444362D343735302D38
310
3938462D3137354541424334364243382F76657274696365732E62696E504B0304140006080800A996E842F270F1330600000004000000360000006662782F42343330354546352D383444362D343735302D383938462D3137354541424334364243382F747269616E676C65732E62696E636660600000504B030414000608
310
0000A996E842000000000000000000000000370000006662782F42343330354546352D383444362D343735302D383938462D3137354541424334364243382F617474726962757465732E62696E504B0304140006080800A996E842D5987DFC8F00000041010000360000006662782F42343330354546352D383444362D3437
310
35302D383938462D3137354541424334364243382F6469726563746F72792E786D6C858F410EC2201045AF4266AF15DDB800BA74E7C21B903225242D6328188F2FA5C4183471359997F9FF81E89FF3C41E1816475E02DF1F80A11FC8386F25A438EECEC07A250251FC3803E6F58C12560C4AD840E95E91C151A72936F496F3
310
5732D860FE635F62C8F2DA16B505C545B74125BAA2FA9E05D7CC053D063734D5C7665FD55B6B8D15D5E9BFEAFD8490FFA45E504B0304140006080800A996E8425C586146FE000000A00100003B0000006662782F42343330354546352D383444362D343735302D383938462D3137354541424334364243382F7265736F7572
310
6365732F636F72652E786D6C8D50596AC33010BD8A99DF225BF2522B4156286972825E40C8134724968C96D2E3574E5C68FFFA3333BC85793C71F89AEFC527FA609C1D8095140AB4DA8DC64E03A478211C8A8314DEB9F84B068555330EB0C220C5E45D5A36483B1BD1C68C5A37E206AA103042A1EFF91820E82BCEAA542966
310
45B8958BD2373561C9CA4C679D1421FA1CA0783E5927488FC125AF3188EAC94A919219378D19F34F7331E841F277DEB71D6FC86B7762A43DB747F276EA7784D3FA5C37E7637DEC6B51AD6629A2997F326A8F2AE208B2A6AC21B427947F30BEEF9A3DDBBDD06EDF5051ADF23FA6B48CFF34256363536F719FB60092E5200F42
310
8A6AED2BAF479979AFDDCA6F504B010214000A0000080000A996E8423DEE336E79000000790000001B00000000000000000000000000000000006175746F6465736B2D64657369676E2D7061636B6167652E786D6C504B01021400140006080800A996E842D486FD9CA0000000F40000001300000000000000000000000000
310
B20000005B436F6E74656E745F54797065735D2E786D6C504B01021400140006080800A996E8428336ABFEEC0000007C010000080000000000000000000000000083010000636F72652E786D6C504B01021400140006080800A996E84255019EA25F0000007C000000070000000000000000000000000095020000636E782E
310
786D6C504B01021400140006080800A996E84258DCE58C68010000020300000C00000000000000000000000000190300006662782F636F72652E786D6C504B01021400140006080800A996E8427149FCBB7E0000009D0000000B00000000000000000000000000AB0400006662782F636E782E786D6C504B01021400140006
310
080800A996E84293B8F18E2D010000150200003100000000000000000000000000520500006662782F42343330354546352D383444362D343735302D383938462D3137354541424334364243382F636F72652E786D6C504B01021400140006080800A996E8426245ED86560100003303000030000000000000000000000000
310
00CE0600006662782F42343330354546352D383444362D343735302D383938462D3137354541424334364243382F636E782E786D6C504B01021400140006080800A996E842F228BD12650700009A1B00003400000000000000000000000000720800006662782F42343330354546352D383444362D343735302D383938462D
310
3137354541424334364243382F6F626A656374732E786D6C504B01021400140006080000A996E8420000000000000000000000003500000000000000000000000000291000006662782F42343330354546352D383444362D343735302D383938462D3137354541424334364243382F76657274696365732E62696E504B0102
310
1400140006080800A996E842F270F133060000000400000036000000000000000000000000007C1000006662782F42343330354546352D383444362D343735302D383938462D3137354541424334364243382F747269616E676C65732E62696E504B01021400140006080000A996E842000000000000000000000000370000
310
0000000000000000000000D61000006662782F42343330354546352D383444362D343735302D383938462D3137354541424334364243382F617474726962757465732E62696E504B01021400140006080800A996E842D5987DFC8F0000004101000036000000000000000000000000002B1100006662782F42343330354546
310
352D383444362D343735302D383938462D3137354541424334364243382F6469726563746F72792E786D6C504B01021400140006080800A996E8425C586146FE000000A00100003B000000000000000000000000000E1200006662782F42343330354546352D383444362D343735302D383938462D31373545414243343642
310
43382F7265736F75726365732F636F72652E786D6C504B0506000000000E000E0080040000651300000000
  0
XRECORD
  5
17
102
{ACAD_REACTORS
330
12
102
}
330
12
100
AcDbXrecord
280
     1
270
     1
271
     1
  0
XRECORD
  5
16
102
{ACAD_REACTORS
330
12
102
}
330
12
100
AcDbXrecord
280
     1
270
     1
271
     1
  0
XRECORD
  5
18
102
{ACAD_REACTORS
330
12
102
}
330
12
100
AcDbXrecord
280
     1
270
     1
271
     1
  0
XRECORD
  5
15
102
{ACAD_REACTORS
330
12
102
}
330
12
100
AcDbXrecord
280
     1
270
     1
271
     1
  0
XRECORD
  5
B7B
102
{ACAD_REACTORS
330
22
102
}
330
22
100
AcDbXrecord
280
     1
102
MATERIAL
148
0.0
149
0.0
149
0.0
 93
        0
 94
      127
282
     0
 72
     0
 77
     0
171
     0
175
     0
179
     0
273
     0
  0
XRECORD
  5
24
102
{ACAD_REACTORS
330
22
102
}
330
22
100
AcDbXrecord
280
     1
270
     1
271
     1
  0
XRECORD
  5
23
102
{ACAD_REACTORS
330
22
102
}
330
22
100
AcDbXrecord
280
     1
270
     1
271
     1
  0
XRECORD
  5
BA
102
{ACAD_REACTORS
330
22
102
}
330
22
100
AcDbXrecord
280
     1
 70
     1
 90
1959938040
 71
     1
  1
53CC558A-8745-403F-87A7-0391C3360C5D
311
504B03040A0000080000A896E8423DEE336E79000000790000001B0000006175746F6465736B2D64657369676E2D7061636B6167652E786D6C3C3F786D6C2076657273696F6E3D22312E302220656E636F64696E673D227574662D3822203F3E3C666F726D6174733E3C666F726D61743E687474703A2F2F736368656D612E
311
6175746F6465736B2E636F6D2F64657369676E2D7061636B6167652F323030393C2F666F726D61743E3C2F666F726D6174733E504B0304140006080800A896E842D486FD9CA0000000F4000000130000005B436F6E74656E745F54797065735D2E786D6C7D8EC10E82300C865F65E91D8A1E8C310C0EEA1BF002731658846E
311
D98AC1B77784ABF1D8FE5FBFBF75BBCE937A534CCEB38643598122B6FEE978D0B0485F9C41B54DDD7D022595594E1A469170414C76A4D9A4D207E29CF43ECE46F218070CC6BECC4078ACAA135ACF422C856C0E68EA1BF5669944DDD7BCDE7B1F8E415D77AECB980613C2E4AC91FC167A2B244592486606FC29C8FD7F045B9A
311
EF7053A7E60B504B0304140006080800A896E842DE37ED78EC0000007C01000008000000636F72652E786D6C8D90DD6E842010855F85CC6D830BA2F527C8A635FA047D0182AC25BB821168FAF8C55D3769EF7A359333E79B991C7EFE5E6EE84B6FDE38DB01CD08206D959B8C9D3B88E1826B4067C137E7C22F1B202B17DDC1
311
2E83E0F3E6E27A48CAD9A06D48AA75933E44E9BD0E80D42D351D78F5A91799C91892C35FB355AAAB9C75469F5D826334137A1C3153DA672E466F2086B17FEDD938E0BCAA1B5C0CACC44D5DF478646FE5D0BC1779DF54FCB4C38207B33CEFAB4DCBA0271039A10C930A93FA83D66DC95A5ABD90B265849F76FB1F28AED33FA1
311
686C60F9F1EE03F320687AE43E10FCB46791CA3DA854F7DCC40F504B0304140006080800A896E84255019EA25F0000007C00000007000000636E782E786D6C4DCB3B0E80201045D1AD90E915ED2CF8AC45050C11660C8261F98AB1B07AC9C97D42D718D865D3E909258CFD00CCE24AC6E326A164D74DC0B4128928FF326038
311
472BA13128B1252AC747C6BAB984FC68F0B87FE8960A5C09FE86CFB69FBA01504B0304140006080800A896E842CE46339868010000020300000C0000006662782F636F72652E786D6C8D525B6E833010BC8AE5DF0ACCB340641CB5889CA01770C0A128602363A31CBFCB23A2A9A2A84232D6CCCEEEEC003DDEFA0E4D428FAD
311
9239F65D0F23212B55B7B2C9B1351727C5E8C8A856CAFC2AC348F25EE4788631A38D5676D8A04A4923A40154AA5A6C201F476130AA3AB8E478ACBE45CF5D6E0D548C5777E0D59537C2F55DA0A18ED1D1683080D621F389D9E57CA364C519B5B6AD37B6AD615A7B6985C6AC3C15EF45782A9D204933272AC3D8C9D2A8704EE1
311
475C669F5150640925B39851D3F677779516DC881AB3C0F343C74B1C2FFDF2D3431C1EFCE4CD8B0FA147C95CFE20B243FD4F916DA50983CDEE2A1B31F3C1C842FCD916223268E413F8218C923944782D093F060D8140C8869FBBFB1E5780265119A523606A65776AE29D1530D543CB43C9CA42E7A5016CF6B44FF0A2CFEB1E
311
F001B96CC01A37703D5B334FA7EBD42D8A41686732372495EE79B79B5B2DEEE73EE8A9BC529DD2FF51936D55B28549E6BF97FD00504B0304140006080800A896E842A5EB65AD7D0000009D0000000B0000006662782F636E782E786D6C4DCCD10A83201886E15B91FFDC3543D2400D6DED3E6259C84CC3E9D8E5AF46073BFA
311
E0E1E315DD67F5E86DD3CBC520815CAE806C78C4C9854542C933E6803A25528CF9EF06288CAB95703028B1A458B693263B8FC5E75DBD0BCF1349CB0CD78DC67D5BDF30A53DC5DC340CD39ADD3535831928814A89EA57DAF708AB2F504B0304140006080800A896E842441B7B4D2E01000015020000310000006662782F3139
311
3742384136412D433932442D343443342D384236372D3432374641344245424534312F636F72652E786D6C8D515B6EC23010BC4AE42FAA2A899D982420C788507A825E20D8062C881DF95171FC6E9A20B57FFC78ADD999D9D12EDB3D867BF2AD9CD7D6B488641825CA082BB5B9B4288673DAA064C799B336FCA1A1C4F4836A
311
D10423CE2ECEC671818435419900A8B1522D60EFBD0A281177F8B4C88BAB1AFAAC8F0118FE968DBDB8F51795910CDAC0E3CC0707019279C8F4224E3675D7ECAB7D7AD8141F29A5079A365D55A7B4A83FF7B43B76474A583E0B398B51CB45AE25C4D167ADDCAB269398B3A087677CE1541F9444BCC0A44C719DE2E68B34DB75
311
B925F53B5E6F4BCCF289FE4F1447F9A2286A13CA62893BCB3C6465F9DCE04CDA78BA3FC3A8C7685D48A6792BAFC41BE238C3B8298A4D595196CF5CD80098567431F5C13AD8F0EA76023A59CFCE15E52C9F8E04E5F78250A783F21F504B0304140006080800A896E842C93E89554E01000033030000300000006662782F3139
311
3742384136412D433932442D343443342D384236372D3432374641344245424534312F636E782E786D6CD593BB6E032110457F05D146FBCAFA258BC5528A7C418AB42C8C636216563CA2F8EF33D8D871E322651AB4BA73B97774C4B2DDF764C817F8A09D1D6857B79480954E69FB31D014F7D586921D67DEB97867A3C48A09
311
069A65CAD98777692E9282BD4826A26AB43D16D14370C94B0828E79BC438290C0680AD128A308DA014287233E2D71E3CAE82E27822F100E4F5E59DB8F113640CACC9299C35B983B37C96A63B1325D28810061AE40126518B149D8270AC9588A2EEEA6BD7839D7E9348BE70AD4C5E935C3ED07C525E36AA91236B70C859881E
311
E915533CCD40B99867A3A58808B9391B2F1ECE92B671B5285E8DE03DBABB55BF5860D879C659D4131487F4202228CA9FDBAEAFDA75D56EDEBACD76D96FBBF553BBDCF62D6BB29DB3D139532E610C783713E96C041B29EF5893C78FF0151F51DA236BE74F7F0089004AEB85CE2DE33FF369CEEF1B7179FC0BF80F504B030414
311
0006080800A896E842225F3302A305000080100000340000006662782F31393742384136412D433932442D343443342D384236372D3432374641344245424534312F6F626A656374732E786D6CAD57D96EDB3814FD1541F332F3E0455ED264A0A870ECA6308AB4458D16F360C0A0244AE18412058A4A9DF9FA3914295972ED
311
D433E88B162E97F79E7BEE42FFED3EE3CE33952513F9ADEB0DC7AE43F348C42C4F6FDD4A25836BD7791BF85208D559E63A39C9E8ADAB87DDC04FA5A80A3B14D384545C1D8DDEDFFDE59411CDA9EB449C94E5AD5B468F342343522911D3F2691813458669B21F7A43B3B02F3695A4783C125A104973054D319E438A6394F2FA
311
BF637714F8233D1FF8FA69574DCFAF1AD5F6F4CF6779A9481EFD70D89198A9375BBD9BCC6F06F3D96C3A985D4DBCC1DDFDDD6AE0BD998E9757CBE5CDE2DD0D0E2E958424AB89A4891BBC07369245FEC84C057EC572359DD825D64123499F99F6941B4C1CCF1F9935AD75D6C853EA4722CF69546305346AFBACE89816348FE1
311
73464B68D64168DCFFF5348E9DE9A9FEB74776872F43A0BBA323A8D1BD79773515E1DF30A1BC8441B2A49A81064B6BA8E1EAF880702804B773AC7432A2A864843B9C8592C81737C052BD24F07B623493A58E066D811BC00B66BA4F1784D1CF797E4ACBA4E25CD3D80DEA28D82156A82A6BCDD83F541EB4EF22039DE02BCD86
311
6B6B907A29A81BDC188A5C1FB1C900E9249CA47039CCD43BA7932343973A4ED72B37F8701FEE373A764F1F5E485150A9347D40ADC671CD5BA36475F22EF29CDEE01EA97200E50B90FF88503FA802BF49B69FED67F61425495E264266F08D337606633CC68E573FF577E7CB1FB59BFBDE3B87279CADA1FA0578F66DE8FAB203
311
67E03F83F0424EAD699B8870A48D079603204D12870B0C210F27E1DE0DD6C872C8CAD84578E0C164A8FB8C4F7F64C52051D42775DE39B03C4A8B172468C05633126A18F25B050F7EFA219DD507DB65E7E09DFF12BA2E569B0F9B4A2624A20F36A65734613953287107DE7415EA61DEB3E889BE7C173286A13FE2BDE9E29DD9
311
A34AA0AD31D7C0A74D4ED73F87937B0744D8970A9D6EFC9F9C00237461EDC87F606544392739155573EEABF50365C340AC835D33B92D3087C202D29899A31844918E242B34886DB56A93E6F08C755FD71FC148ACE72224FCB0283CA4DE48702177E1CBCE64A593487FEB53DB4230D252C0F63A469AF0B798EF62962455891C
311
7802D66FEB65D7753A2B204334524DB0CC603E628B48CBD9462E8AB52428A422DF31944D84DDC903BAF281A825402DF09CC625E5C98E715E65BB847114A35D468A3370FC7FFDC32A2B76241355AECEC8EEA98EE2D0D7BD47DEF23B51D1A31B6CEAF7E00EA937A6F1C1CDBDC5BA949CC0AAE7DAF974B99CCFAF1783EB37B3F9
311
60369EDEE36BF166309EDE78CBE9F46ABC9CAF1A3F19E181DF549A6E40C34BA86C7E259975DFD735C2C7E600377820AADCBE37D1D9BCBFAE876885FD11F6A05CB61B17F133DA3E1AFF5CC061E54941EBACE034A3B9223A841EF407FF42D066F49431E3EB8CA4F402299FDE6F8E8CC1C805FB3EEB70A7DF8FF6DAD1A50EC893
311
42D46395853961FC68636A901C16796AF16B7CD2BE4D9D697EF59F750C1AD3527016230DC64E4A45461592E105354866B404F5BA2D7D6CAF1E17EC7E360DA22221A78D268F043D322F1116A05615A9FEB8F31B7A3ADD56DDBAA8B6C3273C6CA6701D70E6D6458FAE5844CB6188FAAC3BA15A38B8D46DE4D1F7933CE568B5CD
311
A6F6BFDDA5B1E955E476C925ED93B5CB64706B00D24881B601FD10BC532B13F8B56E763EFA4F8637EA3844E133AC546BCB61A035A63E06216A8CB29705F4304FF6E83D02F575B3BC61BDA687C84597AC574960A40E1491697D51D0FA599516ABCF233428CEFA9353F02A852F2F9734901464AE74808345608595591005AA2E
311
FFDC7E960217D9CCB967A080F3FBFEFAEA8FED526499C8CDD07661AFC3CEE61197DB788BE440F5ADA4DC4EC6DE645BDF06EC05651792920E495C3E61009E95AC05BAE77EF0D25C195187CC44BB6EA45D71C4D0F5CAB1856D06A1962EDDDCAAC141DF91530731A46F943A62BA0B8A572F04A37A29549068E5837F01504B0304
311
140006080000A896E842000000000000000000000000350000006662782F31393742384136412D433932442D343443342D384236372D3432374641344245424534312F76657274696365732E62696E504B0304140006080800A896E842F270F1330600000004000000360000006662782F31393742384136412D433932442D
311
343443342D384236372D3432374641344245424534312F747269616E676C65732E62696E636660600000504B0304140006080000A896E842000000000000000000000000370000006662782F31393742384136412D433932442D343443342D384236372D3432374641344245424534312F617474726962757465732E62696E
311
504B0304140006080800A896E842D5987DFC8F00000041010000360000006662782F31393742384136412D433932442D343443342D384236372D3432374641344245424534312F6469726563746F72792E786D6C858F410EC2201045AF4266AF15DDB800BA74E7C21B903225242D6328188F2FA5C4183471359997F9FF81E8
311
9FF3C41E1816475E02DF1F80A11FC8386F25A438EECEC07A250251FC3803E6F58C12560C4AD840E95E91C151A72936F496F35732D860FE635F62C8F2DA16B505C545B74125BAA2FA9E05D7CC053D063734D5C7665FD55B6B8D15D5E9BFEAFD8490FFA45E504B0304140006080800A896E842CD9CC3E0FF000000A00100003B
311
0000006662782F31393742384136412D433932442D343443342D384236372D3432374641344245424534312F7265736F75726365732F636F72652E786D6C8D50596E833010BD0A9ADFCA8071288B8CA3962627E8052C33A156828DBC543D7E4D42A5F6AF3F33A3B7689E1E3F7E2DB7EC139DD7D60C40F3123234CA4EDACC03
311
C470212D6447C19DB5E1970C3223171C608341F0D9D9B8EE90B226A009093576C21D94DE63804CDDD23180571FB8C85CC69014FE9AAF525DE58C39CD139D7482FBE05280ECF1649B201C7A1B9D42CF8B072B788C7ADA357A4A3FF545A303713A8FCF233BBF91AA693B7238B19A74ED612467F6529FBAD74335760D2F36B3E0
311
412F3F19954319700251959491B22165FB4EDBBE663D6D9ECABA67252F36F91F535CA77F9AA23681557BDC87CD83A029C89D10BCD8FA4AEB5E66DA5BB7E21B504B010214000A0000080000A896E8423DEE336E79000000790000001B00000000000000000000000000000000006175746F6465736B2D64657369676E2D7061
311
636B6167652E786D6C504B01021400140006080800A896E842D486FD9CA0000000F40000001300000000000000000000000000B20000005B436F6E74656E745F54797065735D2E786D6C504B01021400140006080800A896E842DE37ED78EC0000007C010000080000000000000000000000000083010000636F72652E786D
311
6C504B01021400140006080800A896E84255019EA25F0000007C000000070000000000000000000000000095020000636E782E786D6C504B01021400140006080800A896E842CE46339868010000020300000C00000000000000000000000000190300006662782F636F72652E786D6C504B01021400140006080800A896E8
311
42A5EB65AD7D0000009D0000000B00000000000000000000000000AB0400006662782F636E782E786D6C504B01021400140006080800A896E842441B7B4D2E010000150200003100000000000000000000000000510500006662782F31393742384136412D433932442D343443342D384236372D3432374641344245424534
311
312F636F72652E786D6C504B01021400140006080800A896E842C93E89554E010000330300003000000000000000000000000000CE0600006662782F31393742384136412D433932442D343443342D384236372D3432374641344245424534312F636E782E786D6C504B01021400140006080800A896E842225F3302A30500
311
008010000034000000000000000000000000006A0800006662782F31393742384136412D433932442D343443342D384236372D3432374641344245424534312F6F626A656374732E786D6C504B01021400140006080000A896E84200000000000000000000000035000000000000000000000000005F0E00006662782F3139
311
3742384136412D433932442D343443342D384236372D3432374641344245424534312F76657274696365732E62696E504B01021400140006080800A896E842F270F13306000000040000003600000000000000000000000000B20E00006662782F31393742384136412D433932442D343443342D384236372D343237464134
311
4245424534312F747269616E676C65732E62696E504B01021400140006080000A896E84200000000000000000000000037000000000000000000000000000C0F00006662782F31393742384136412D433932442D343443342D384236372D3432374641344245424534312F617474726962757465732E62696E504B01021400
311
140006080800A896E842D5987DFC8F000000410100003600000000000000000000000000610F00006662782F31393742384136412D433932442D343443342D384236372D3432374641344245424534312F6469726563746F72792E786D6C504B01021400140006080800A896E842CD9CC3E0FF000000A00100003B00000000
311
000000000000000000441000006662782F31393742384136412D433932442D343443342D384236372D3432374641344245424534312F7265736F75726365732F636F72652E786D6C504B0506000000000E000E00800400009C1100000000
310
504B03040A0000080000A896E8423DEE336E79000000790000001B0000006175746F6465736B2D64657369676E2D7061636B6167652E786D6C3C3F786D6C2076657273696F6E3D22312E302220656E636F64696E673D227574662D3822203F3E3C666F726D6174733E3C666F726D61743E687474703A2F2F736368656D612E
310
6175746F6465736B2E636F6D2F64657369676E2D7061636B6167652F323030393C2F666F726D61743E3C2F666F726D6174733E504B0304140006080800A896E842D486FD9CA0000000F4000000130000005B436F6E74656E745F54797065735D2E786D6C7D8EC10E82300C865F65E91D8A1E8C310C0EEA1BF002731658846E
310
D98AC1B77784ABF1D8FE5FBFBF75BBCE937A534CCEB38643598122B6FEE978D0B0485F9C41B54DDD7D022595594E1A469170414C76A4D9A4D207E29CF43ECE46F218070CC6BECC4078ACAA135ACF422C856C0E68EA1BF5669944DDD7BCDE7B1F8E415D77AECB980613C2E4AC91FC167A2B244592486606FC29C8FD7F045B9A
310
EF7053A7E60B504B0304140006080800A896E84288726427EC0000007C01000008000000636F72652E786D6C8D904D6EC3201085AF82665B6183FFE25A98C84D9D13F40208888B128365A0EAF18B13476A775DCDE8CDFB66468F1DBFE71BFAD2AB37CEF6403302485BE994B1530F315C700BE8C8D9EA5CF8650364C5AC7BD8
310
64E06C5A5D5C76493A1BB40D49B54EE95D14DEEB0048DE52D383979F7A1699882139FC355B84BC8A4967F4D9253846A3D0E38851699FB918BD02AF5ADABE9E4F0D2ECE871157CD48F15055351EDF9B61A886F6D4BC0D2CDF60CE82999FF7E5AA45D00A78416889C90193F683B65D5D76F4F042EAAE242CDFEC7FA0B8A87F42
310
D1D85016FBBB0FCC03A7E991FB80B37CCB22957B50A96EB9F11F504B0304140006080800A896E84255019EA25F0000007C00000007000000636E782E786D6C4DCB3B0E80201045D1AD90E915ED2CF8AC45050C11660C8261F98AB1B07AC9C97D42D718D865D3E909258CFD00CCE24AC6E326A164D74DC0B4128928FF326038
310
472BA13128B1252AC747C6BAB984FC68F0B87FE8960A5C09FE86CFB69FBA01504B0304140006080800A896E842EF8B2AB669010000020300000C0000006662782F636F72652E786D6C8D525B6E833010BC8AE5DF0A8C81101A1947344D4ED00B38E05014B091B1518EDFE511D154515421196B6667777680ED6F6D830669FA
310
5AAB0C533FC048AA4297B5AA32ECECC54B31DA7366B4B6BFCA3052A295191E61CC5965B4EB16A8D0CA4A650155BA940B28FA5E5A8C8A062E19EE8B6FD90A5F380B15FDD5EF44711595F4A90F34D471D65B0306D03C643C31BF9C6F8CCC3867CED5E5C2D6254CAB2FB53498C7294DDF4F87C40B4FDBA3172747EAE571BCF18E
310
9F499EC7797A483E7246463167B66EEFEE0A23859525E66140232FD87A41FA45D3DD26DAD1ED5BB0D945012363F983C875E53F45AE56360A17BBB3ACC79C829189F8B32D4464512F06F04338236388F09A127E0C1A028190AD3837F73DAE000DB2B0DAC4C094DAADD4201A27616A80A687919985CE5303D8EC699FF0459FD7
310
3DE0030A55813561E17A76769CCEE6A94B149D34DE606F4869D38A6635375B5CCF75D05379A11B6DFEA326CBAA6409938C7F2FFF01504B0304140006080800A896E842C013C3437E0000009D0000000B0000006662782F636E782E786D6C4DCCDF0A83201C86E15B91DFB94B675A811AED8FF711CB22321D4EC72E7F353AD8
310
D1070F1FAF6C3FAB436F1B5F73F00AE88900B2FE1186D94F0A721A710DA8D5328690FE6E807CBF5A053B8396530CF979D060C73EBBB4A99BFD72A0B89C2B4ABA123341182EEBA6C28D11065373EB98B8727E171C0A2D8B5F69DB3DACBF504B0304140006080800A896E842122CCDDF2C01000015020000310000006662782F
310
36423237313041342D333630332D343839372D394636462D3146444133364335354536352F636F72652E786D6C8D515B6EC32010BC0AE22B55850DC1C64E8489D2474ED00B109B242831583CAA1CBF503B52FB971F16CDCECC8E76F9EE3EDEC0B7725E5BD34152600894E9EDA0CDB983319C500BC14E70676DF84383C0C851
310
7530C350F0B3B3715AA0DE9AA04C48A8B1835A40E9BD0A10F4B7F4E9A0EF2F6A94858C2131FCB598647F9567559022B5134F701F5C0A00E621F98582BDAD1B82F715A20C5354B59B066D0EEC80C8E1634FD97B5D7FB29A97B350F018F5B0C8F590E2E89356EE59932C163CE8F111BF774A063540B1C68422DC20DC7E91765B
310
D32D695E71BDA5989799FE4F14A7E14951D426D0F51277967928082FE786E0838DC7DB238CBA4FD60590E7ADBCEA5FA0C005C6EDA625354D9A999B36904C59B598FA605DDAF0EA7A4CF4CCCACEAC12BCCC474AE5F782A9E6838A1F504B0304140006080800A896E842AF9946425601000033030000300000006662782F3642
310
3237313041342D333630332D343839372D394636462D3146444133364335354536352F636E782E786D6CBD93CB6EC32010457F05B1ADFC8AF3B0224CA42EFA055D748B61D2D0D860F1A89ABFEF9090349B2C2A55DD20EBCEE5DED11166BBAF69249FE0BCB6A6A74D595302465AA5CD7B4F63D8171D253BCE9CB5E1CE468911
310
13F434C994B37767E39C25057B11C780EAA8CD318B0EBC8D4E824739DD24A39562C40030454411A6019402456E46FCDA83C355501C4E241C80BC3CBF113B7C800C9E552985B32A757096CEDC7467A2448EC2FB9E7A798049942206ABC01F4B2582289BF2DAF560A79F24922E5C2BA3D32495F7349D94E78D4AE4C82A1C72E6
310
83437AD9144E33502EE679D45204845C9D8D170F67519BB05E66AF46F00EDDED62DD7518769E7116F404D9211D88008AF245DDB445BD29EAEEB5E9B6AB76DB6C9EEAD5B6AD5995EC9C0DD68EF912C680B33391D6043081F2865569FC085FF611A51DB2B6EEF40B900820B75EE8DC32FE924FB36E97CB7FE4539DDF37E272F8
310
17F06F504B0304140006080800A896E8422462E54460070000991B0000340000006662782F36423237313041342D333630332D343839372D394636462D3146444133364335354536352F6F626A656374732E786D6CED59DD739B3810FF5718EEE5EEC1D8043B4D6E089DD4B9743C9DB49DFADAB907CF3032C84417211849A4
310
C9FDF5B7FA00033109BEE6DEFA6003425AEDFEF6534BF8F621A7CE3DE68214ECC2F5BD99EB6096142961D9855BC9DDE4CC75DE46212F0AD99AE63A0CE5F8C255C36E1466BCA84A3B94E21DAAA8EC8D5EBFFBCB110966D875128A84B87045728B73E4A14A162916775E8A24F2B2DD83E77B6662976CC65179DB235A228E9904
310
4E619C0115C730E5771F67EE340AA7EA7D14AA7F3B2B18356B3E3C6BAAA5EE7249989088254F58EA910946B114F8F3AB3F4E16E793C57C1E4CE6A727FEE4DDF5BBAB89FF26982D4F97CBF3CB3FCE81BD6D51502B538A4BCC52D0DFA31BF9E154BD6944B7081CE23A2918C3890612A0D262F509122C60AB167CB3EEA3AF246A
310
BDD612B69EE7EABD65A1351C74A90CCD1A0744872E0862B7AB25AEAF6DF98AEDDF20B81863945C6009DC0AC941BB161E0E5EE146B3706A46A370BBD705114E8E24E6045187922D471C940253D59428340B2C19E51C1C48394A02AD39F3BA6B5BE0992FBBCE212E7715A5CA33DC483B560CEE87A5D09C917F30DF73DF460678
310
02692BC2E499E5523E96D88DCEC3A91E8C4275094EEC4B03A4B3A328131A11F3B627E852B9FEEACA8D3E5C6F1FD62A1C1CDEBCE44589B95446A7F4A8F90243B6578592DDD61FA539B5008431A0DA957B50BE00F21F217AEC5901BD71F2307F98DBB99223267605CF4137CECC99CCE06FE6F8FA5FDDB7EEC269B3B8ABBD213C
310
C14D1554673F8E6757068D95E5BF056714DE83C1173CB0AFD609A260CF37840140CA481C5AC01084F6DDF6C18D56103821D0C32A44231F440676EFE1369C5A327BADD4EE65BD8E01A2768F608C9200366D91C0C6809EDE43F6E024D9ABA92DE210BC8B5731D7CBABF58775C57728C137D6A7AFF08E3022216B1E66A8837947
310
A23BFCF8BDE02908FA14EF751BEFDC6E25006D85B9023EAB41500FFB9D3B1B24B02E2B54B8095FD8018450B9BA45FF868804538A182EAA7ADF26BA29436D3CDED60C6E7462200E4E7A26CCF13D51550538CD7E468751C8FB0927A502D18DDE1BC99AA0E90D48F775F5112CB2993F306BC520F43244FFD441EB000E1DCBAE91
310
B64034026FF7E13C2968C1E3ED636C229D0BB504B0D1F5966F1DA210EB8D921415F020ED777548C98CB4714A76BB4A405C3DC0E2B7D5B26D0E332FF0174EFBBFE78C7388B6E0BB885BBFEBED11931C6538DEA17468BBF66E0D6DA1490E90E67847412E724FE4638C643C4B71760C3447113F7F55EA192D84200C0BC85707C1
310
6FA331F32090186DD62C2BADF6802622CEB144F418041499017075DAD1356E02A5C3CB3C36D6FB9CC6DA44FF278BE0086AC982C5044A51C8212F32EE7B0B88215D740DCA3D7CC1DA6ADA5A0C5A4109913CC6DF31C96EE531A81BF203B8277024A9645C942801B31E41F689AF28A5F678DFA2E44EE58F38A9E86B1988C07417
310
134AAB3C861F6170F218E3DA4D607A1685167113FB24CEA12843B2E26336395DCC9EEC636A867E086C6DB42314C2769CA37200F54E40D4F588D3806FA90F28755BE5658CF2A262A30CC50BFADE64C9F7D5AAC88EE457958A5036D6842DC128244C3659B58ED960EA3AB0821BE940F5180B9497D49CC25E483C7EE34D9AF2E0
310
06DCFAE9EB6E9043E137A0BD76449DD730581E3B8581F88E6472EB466B7D9DBC83FA3BC5E93ED5D7B566BB0204C45424AF38B12AFABA82F2C6D6686E7483A4D8BC3759B7BE7E5D79D0FD08A7B0066A9766E14A019D632691AA4C6ED40DFD822004776898F195CAA9C750B94C535D35227A4D86D4D929233A9BE6C42B6F312B
310
72F8B10D6109AD52BC41A9B88B6F248DD744B16EA5F4725263FCAC809FDEAF7BF0C0C808913EAB020F7FEFADB5A34B552E1D24226FAB7CCB108120D8112D33BAF14A96598DD45A6EAEEA4C017517189855F1FCE7C9A2DD8EF879B2C8AC61FCD8C982165B44F7D1A695CD1365D6479D029AF4A4A8BCC62940771D1AAA4D1231
310
B9DC8A6F7D2986985807F9D1C5581D330CC1218EFF73D21E4A8266BB1EFFC7256DFF49C1715452E94C564DAA0385EBAA9DC216C172B9589C5D4ECEDECC1793F92CB886BBCB37935970EE2F83E074B65C5C35686A3F8DC22696E9D405CF26A6D5C3EAC962004D59515092C2613E75320C215FC2917E44F79CE75840EE6CF7BA
310
53DB931FB1FADEB43925DA525C73728BA03F4C056475C0A84A6477DCF9053A9312CED9172EF48CBC3BF8B356E93A90782E5CE814489260E16DA1CBA4FA799A38645C9DFA2D31C007B14C6544B3A8796E56296C3AD1BF9932260B58B93A2D0CA8DB4A687E751A149A37CB537294E0353B0E9270BBAD24146B4696FD40238CDE
310
66AF7E231B25ECCE6EFD00AEFBBC58BEA7E7741019F5C5E0592330542712F14CB7BB156396A5CBABCF5368B339AB4F4E49AB0C74399ED2846330E64AD553604560159666892498EAF2F7CD675EC0179EDCD14591F3EBC3D9E96F9B6591E70533439B4B3894A5F09DC859DFC2579F7403B50356BD75B13999F9271BDDD3B66D
310
F6788B04F654510403752DA104E9991CD8E593FE94ED5E4E952A7AD357578E0DA2D00B3076F4A4C56BBE7139E043EA6B8AF218EDE7B5B4CFB6B5A77A2AD804878674F42F504B0304140006080000A896E842000000000000000000000000350000006662782F36423237313041342D333630332D343839372D394636462D31
310
46444133364335354536352F76657274696365732E62696E504B0304140006080800A896E842F270F1330600000004000000360000006662782F36423237313041342D333630332D343839372D394636462D3146444133364335354536352F747269616E676C65732E62696E636660600000504B0304140006080000A896E8
310
42000000000000000000000000370000006662782F36423237313041342D333630332D343839372D394636462D3146444133364335354536352F617474726962757465732E62696E504B0304140006080800A896E842D5987DFC8F00000041010000360000006662782F36423237313041342D333630332D343839372D3946
310
36462D3146444133364335354536352F6469726563746F72792E786D6C858F410EC2201045AF4266AF15DDB800BA74E7C21B903225242D6328188F2FA5C4183471359997F9FF81E89FF3C41E1816475E02DF1F80A11FC8386F25A438EECEC07A250251FC3803E6F58C12560C4AD840E95E91C151A72936F496F35732D860FE
310
635F62C8F2DA16B505C545B74125BAA2FA9E05D7CC053D063734D5C7665FD55B6B8D15D5E9BFEAFD8490FFA45E504B0304140006080800A896E842E0983916FF000000A00100003B0000006662782F36423237313041342D333630332D343839372D394636462D3146444133364335354536352F7265736F75726365732F63
310
6F72652E786D6C8D50596E833010BD0A9ADFCA805912828C239A9213F4029699502BC1465EAA1EBF2650A9FDEBCFCCE82D9AA7C7CE5FF323F944EB94D11DD0348704B534A3D25307C1DF4803C999336B8CFF2583448B193B5861E06CB2262C3B248DF6A87D44B51971078573E821918F7874E0E407CE2215C14785BBA78B90
310
7731614AD348471D67CEDB1820D99EAC13B845678295E858B6B19C85A0C65DA3C6F853DD145AE055439BD3F55293E27A1C48751828E9ABAA26C3DBA1EFABBEB91C5E7B96AD66CEBC9A7F324A8BC2E308BCC86949F223C99B77DAB475D9D2E34B5EB765CEB255FEC71496F19FA6A0B42F8B3DEE6673C0690CF22438CBD6BEE2
310
7A9619F7DA2DFF06504B010214000A0000080000A896E8423DEE336E79000000790000001B00000000000000000000000000000000006175746F6465736B2D64657369676E2D7061636B6167652E786D6C504B01021400140006080800A896E842D486FD9CA0000000F40000001300000000000000000000000000B2000000
310
5B436F6E74656E745F54797065735D2E786D6C504B01021400140006080800A896E84288726427EC0000007C010000080000000000000000000000000083010000636F72652E786D6C504B01021400140006080800A896E84255019EA25F0000007C000000070000000000000000000000000095020000636E782E786D6C50
310
4B01021400140006080800A896E842EF8B2AB669010000020300000C00000000000000000000000000190300006662782F636F72652E786D6C504B01021400140006080800A896E842C013C3437E0000009D0000000B00000000000000000000000000AC0400006662782F636E782E786D6C504B01021400140006080800A8
310
96E842122CCDDF2C010000150200003100000000000000000000000000530500006662782F36423237313041342D333630332D343839372D394636462D3146444133364335354536352F636F72652E786D6C504B01021400140006080800A896E842AF99464256010000330300003000000000000000000000000000CE0600
310
006662782F36423237313041342D333630332D343839372D394636462D3146444133364335354536352F636E782E786D6C504B01021400140006080800A896E8422462E54460070000991B00003400000000000000000000000000720800006662782F36423237313041342D333630332D343839372D394636462D31464441
310
33364335354536352F6F626A656374732E786D6C504B01021400140006080000A896E8420000000000000000000000003500000000000000000000000000241000006662782F36423237313041342D333630332D343839372D394636462D3146444133364335354536352F76657274696365732E62696E504B010214001400
310
06080800A896E842F270F13306000000040000003600000000000000000000000000771000006662782F36423237313041342D333630332D343839372D394636462D3146444133364335354536352F747269616E676C65732E62696E504B01021400140006080000A896E84200000000000000000000000037000000000000
310
00000000000000D11000006662782F36423237313041342D333630332D343839372D394636462D3146444133364335354536352F617474726962757465732E62696E504B01021400140006080800A896E842D5987DFC8F000000410100003600000000000000000000000000261100006662782F36423237313041342D3336
310
30332D343839372D394636462D3146444133364335354536352F6469726563746F72792E786D6C504B01021400140006080800A896E842E0983916FF000000A00100003B00000000000000000000000000091200006662782F36423237313041342D333630332D343839372D394636462D3146444133364335354536352F72
310
65736F75726365732F636F72652E786D6C504B0506000000000E000E0080040000611300000000
  0
XRECORD
  5
27
102
{ACAD_REACTORS
330
22
102
}
330
22
100
AcDbXrecord
280
     1
270
     1
271
     1
  0
XRECORD
  5
26
102
{ACAD_REACTORS
330
22
102
}
330
22
100
AcDbXrecord
280
     1
270
     1
271
     1
  0
XRECORD
  5
28
102
{ACAD_REACTORS
330
22
102
}
330
22
100
AcDbXrecord
280
     1
270
     1
271
     1
  0
XRECORD
  5
25
102
{ACAD_REACTORS
330
22
102
}
330
22
100
AcDbXrecord
280
     1
270
     1
271
     1
  0
XRECORD
  5
B75
102
{ACAD_REACTORS
330
B74
102
}
330
B74
100
AcDbXrecord
280
     1
102
ACAD_ROUNDTRIP_2012_MLEADER_STYLE
298
     1
  0
CELLSTYLEMAP
  5
B73
102
{ACAD_REACTORS
330
B72
102
}
330
B72
100
AcDbCellStyleMap
 90
        3
300
CELLSTYLE
  1
TABLEFORMAT_BEGIN
 90
        5
170
     1
 91
        0
 92
    32768
 62
   257
 93
        1
300
CONTENTFORMAT
  1
CONTENTFORMAT_BEGIN
 90
        0
 91
        0
 92
      512
 93
        0
300

 40
0.0
140
1.0
 94
        5
 62
     0
340
55
144
0.25
309
CONTENTFORMAT_END
171
     0
 94
        0
309
TABLEFORMAT_END
  1
CELLSTYLE_BEGIN
 90
        1
 91
        1
300
_TITLE
309
CELLSTYLE_END
300
CELLSTYLE
  1
TABLEFORMAT_BEGIN
 90
        5
170
     1
 91
        0
 92
        0
 62
   257
 93
        1
300
CONTENTFORMAT
  1
CONTENTFORMAT_BEGIN
 90
        0
 91
        0
 92
      512
 93
        0
300

 40
0.0
140
1.0
 94
        5
 62
     0
340
55
144
0.18
309
CONTENTFORMAT_END
171
     0
 94
        0
309
TABLEFORMAT_END
  1
CELLSTYLE_BEGIN
 90
        2
 91
        1
300
_HEADER
309
CELLSTYLE_END
300
CELLSTYLE
  1
TABLEFORMAT_BEGIN
 90
        5
170
     1
 91
        0
 92
        0
 62
   257
 93
        1
300
CONTENTFORMAT
  1
CONTENTFORMAT_BEGIN
 90
        0
 91
        0
 92
      512
 93
        0
300

 40
0.0
140
1.0
 94
        2
 62
     0
340
55
144
0.18
309
CONTENTFORMAT_END
171
     0
 94
        0
309
TABLEFORMAT_END
  1
CELLSTYLE_BEGIN
 90
        3
 91
        2
300
_DATA
309
CELLSTYLE_END
  0
XRECORD
  5
BAC
102
{ACAD_REACTORS
330
B72
102
}
330
B72
100
AcDbXrecord
280
     1
102
ACAD_ROUNDTRIP_PRE2007_TABLESTYLE
 90
      512
 91
        0
  1

 92
      512
 93
        0
  2

 94
      512
 95
        0
  3

  0
XRECORD
  5
B87
102
{ACAD_REACTORS
330
B86
102
}
330
B86
100
AcDbXrecord
280
     1
102
RTVSPropertyOp0
 70
     1
102
RTVSPropertyOp1
 70
     1
102
RTVSPropertyOp2
 70
     1
102
RTVSPropertyOp3
 70
     1
102
RTVSPropertyOp4
 70
     1
102
RTVSPropertyOp5
 70
     1
102
RTVSPropertyOp6
 70
     1
102
RTVSPropertyOp7
 70
     1
102
RTVSPropertyOp8
 70
     1
102
RTVSPropertyOp9
 70
     1
102
RTVSPropertyOp10
 70
     1
102
RTVSPropertyOp11
 70
     1
102
RTVSPropertyOp12
 70
     1
102
RTVSPropertyOp13
 70
     1
102
RTVSPropertyOp14
 70
     1
102
RTVSPropertyOp15
 70
     1
102
RTVSPropertyOp16
 70
     1
102
RTVSPropertyOp17
 70
     1
102
RTVSPropertyOp18
 70
     1
102
RTVSPropertyOp19
 70
     1
102
RTVSPropertyOp20
 70
     1
102
RTVSPropertyOp21
 70
     1
102
RTVSPropertyOp22
 70
     1
102
RTVSPropertyOp23
 70
     1
102
RTVSPropertyOp24
 70
     1
102
RTVSPropertyOp25
 70
     1
102
RTVSPropertyOp26
 70
     1
102
RTVSPropertyOp27
 70
     1
102
RTVSPropertyOp28
 70
     1
102
RTVSPropertyOp29
 70
     1
102
RTVSPropertyOp30
 70
     1
102
RTVSPropertyOp31
 70
     1
102
RTVSPropertyOp32
 70
     1
  0
XRECORD
  5
B85
102
{ACAD_REACTORS
330
B84
102
}
330
B84
100
AcDbXrecord
280
     1
102
RTVSPropertyOp0
 70
     1
102
RTVSPropertyOp1
 70
     1
102
RTVSPropertyOp2
 70
     1
102
RTVSPropertyOp3
 70
     1
102
RTVSPropertyOp4
 70
     1
102
RTVSPropertyOp5
 70
     1
102
RTVSPropertyOp6
 70
     1
102
RTVSPropertyOp7
 70
     1
102
RTVSPropertyOp8
 70
     1
102
RTVSPropertyOp9
 70
     1
102
RTVSPropertyOp10
 70
     1
102
RTVSPropertyOp11
 70
     1
102
RTVSPropertyOp12
 70
     1
102
RTVSPropertyOp13
 70
     1
102
RTVSPropertyOp14
 70
     1
102
RTVSPropertyOp15
 70
     1
102
RTVSPropertyOp16
 70
     1
102
RTVSPropertyOp17
 70
     1
102
RTVSPropertyOp18
 70
     1
102
RTVSPropertyOp19
 70
     1
102
RTVSPropertyOp20
 70
     1
102
RTVSPropertyOp21
 70
     1
102
RTVSPropertyOp22
 70
     1
102
RTVSPropertyOp23
 70
     1
102
RTVSPropertyOp24
 70
     1
102
RTVSPropertyOp25
 70
     1
102
RTVSPropertyOp26
 70
     1
102
RTVSPropertyOp27
 70
     1
102
RTVSPropertyOp28
 70
     1
102
RTVSPropertyOp29
 70
     1
102
RTVSPropertyOp30
 70
     1
102
RTVSPropertyOp31
 70
     1
102
RTVSPropertyOp32
 70
     1
  0
XRECORD
  5
B93
102
{ACAD_REACTORS
330
B92
102
}
330
B92
100
AcDbXrecord
280
     1
102
RTVSPropertyOp0
 70
     1
102
RTVSPropertyOp1
 70
     1
102
RTVSPropertyOp2
 70
     1
102
RTVSPropertyOp3
 70
     1
102
RTVSPropertyOp4
 70
     1
102
RTVSPropertyOp5
 70
     1
102
RTVSPropertyOp6
 70
     1
102
RTVSPropertyOp7
 70
     1
102
RTVSPropertyOp8
 70
     1
102
RTVSPropertyOp9
 70
     1
102
RTVSPropertyOp10
 70
     1
102
RTVSPropertyOp11
 70
     1
102
RTVSPropertyOp12
 70
     1
102
RTVSPropertyOp13
 70
     1
102
RTVSPropertyOp14
 70
     1
102
RTVSPropertyOp15
 70
     1
102
RTVSPropertyOp16
 70
     1
102
RTVSPropertyOp17
 70
     1
102
RTVSPropertyOp18
 70
     1
102
RTVSPropertyOp19
 70
     1
102
RTVSPropertyOp20
 70
     1
102
RTVSPropertyOp21
 70
     1
102
RTVSPropertyOp22
 70
     1
102
RTVSPropertyOp23
 70
     1
102
RTVSPropertyOp24
 70
     1
102
RTVSPropertyOp25
 70
     1
102
RTVSPropertyOp26
 70
     1
102
RTVSPropertyOp27
 70
     1
102
RTVSPropertyOp28
 70
     1
102
RTVSPropertyOp29
 70
     1
102
RTVSPropertyOp30
 70
     1
102
RTVSPropertyOp31
 70
     1
102
RTVSPropertyOp32
 70
     1
  0
XRECORD
  5
B9B
102
{ACAD_REACTORS
330
B9A
102
}
330
B9A
100
AcDbXrecord
280
     1
102
RTVSPropertyOp0
 70
     1
102
RTVSPropertyOp1
 70
     1
102
RTVSPropertyOp2
 70
     1
102
RTVSPropertyOp3
 70
     1
102
RTVSPropertyOp4
 70
     1
102
RTVSPropertyOp5
 70
     1
102
RTVSPropertyOp6
 70
     1
102
RTVSPropertyOp7
 70
     1
102
RTVSPropertyOp8
 70
     1
102
RTVSPropertyOp9
 70
     1
102
RTVSPropertyOp10
 70
     1
102
RTVSPropertyOp11
 70
     1
102
RTVSPropertyOp12
 70
     1
102
RTVSPropertyOp13
 70
     1
102
RTVSPropertyOp14
 70
     1
102
RTVSPropertyOp15
 70
     1
102
RTVSPropertyOp16
 70
     1
102
RTVSPropertyOp17
 70
     1
102
RTVSPropertyOp18
 70
     1
102
RTVSPropertyOp19
 70
     1
102
RTVSPropertyOp20
 70
     1
102
RTVSPropertyOp21
 70
     1
102
RTVSPropertyOp22
 70
     1
102
RTVSPropertyOp23
 70
     1
102
RTVSPropertyOp24
 70
     1
102
RTVSPropertyOp25
 70
     1
102
RTVSPropertyOp26
 70
     1
102
RTVSPropertyOp27
 70
     1
102
RTVSPropertyOp28
 70
     1
102
RTVSPropertyOp29
 70
     1
102
RTVSPropertyOp30
 70
     1
102
RTVSPropertyOp31
 70
     1
102
RTVSPropertyOp32
 70
     1
  0
XRECORD
  5
B8D
102
{ACAD_REACTORS
330
B8C
102
}
330
B8C
100
AcDbXrecord
280
     1
102
RTVSPropertyOp0
 70
     1
102
RTVSPropertyOp1
 70
     1
102
RTVSPropertyOp2
 70
     1
102
RTVSPropertyOp3
 70
     1
102
RTVSPropertyOp4
 70
     1
102
RTVSPropertyOp5
 70
     1
102
RTVSPropertyOp6
 70
     1
102
RTVSPropertyOp7
 70
     1
102
RTVSPropertyOp8
 70
     1
102
RTVSPropertyOp9
 70
     1
102
RTVSPropertyOp10
 70
     1
102
RTVSPropertyOp11
 70
     1
102
RTVSPropertyOp12
 70
     1
102
RTVSPropertyOp13
 70
     1
102
RTVSPropertyOp14
 70
     1
102
RTVSPropertyOp15
 70
     1
102
RTVSPropertyOp16
 70
     1
102
RTVSPropertyOp17
 70
     1
102
RTVSPropertyOp18
 70
     1
102
RTVSPropertyOp19
 70
     1
102
RTVSPropertyOp20
 70
     1
102
RTVSPropertyOp21
 70
     1
102
RTVSPropertyOp22
 70
     1
102
RTVSPropertyOp23
 70
     1
102
RTVSPropertyOp24
 70
     1
102
RTVSPropertyOp25
 70
     1
102
RTVSPropertyOp26
 70
     1
102
RTVSPropertyOp27
 70
     1
102
RTVSPropertyOp28
 70
     1
102
RTVSPropertyOp29
 70
     1
102
RTVSPropertyOp30
 70
     1
102
RTVSPropertyOp31
 70
     1
102
RTVSPropertyOp32
 70
     1
  0
XRECORD
  5
B91
102
{ACAD_REACTORS
330
B90
102
}
330
B90
100
AcDbXrecord
280
     1
102
RTVSPropertyOp0
 70
     1
102
RTVSPropertyOp1
 70
     1
102
RTVSPropertyOp2
 70
     1
102
RTVSPropertyOp3
 70
     1
102
RTVSPropertyOp4
 70
     1
102
RTVSPropertyOp5
 70
     1
102
RTVSPropertyOp6
 70
     1
102
RTVSPropertyOp7
 70
     1
102
RTVSPropertyOp8
 70
     1
102
RTVSPropertyOp9
 70
     1
102
RTVSPropertyOp10
 70
     1
102
RTVSPropertyOp11
 70
     1
102
RTVSPropertyOp12
 70
     1
102
RTVSPropertyOp13
 70
     1
102
RTVSPropertyOp14
 70
     1
102
RTVSPropertyOp15
 70
     1
102
RTVSPropertyOp16
 70
     1
102
RTVSPropertyOp17
 70
     1
102
RTVSPropertyOp18
 70
     1
102
RTVSPropertyOp19
 70
     1
102
RTVSPropertyOp20
 70
     1
102
RTVSPropertyOp21
 70
     1
102
RTVSPropertyOp22
 70
     1
102
RTVSPropertyOp23
 70
     1
102
RTVSPropertyOp24
 70
     1
102
RTVSPropertyOp25
 70
     1
102
RTVSPropertyOp26
 70
     1
102
RTVSPropertyOp27
 70
     1
102
RTVSPropertyOp28
 70
     1
102
RTVSPropertyOp29
 70
     1
102
RTVSPropertyOp30
 70
     1
102
RTVSPropertyOp31
 70
     1
102
RTVSPropertyOp32
 70
     1
  0
XRECORD
  5
BAB
102
{ACAD_REACTORS
330
BAA
102
}
330
BAA
100
AcDbXrecord
280
     1
102
RTVSPropertyOp0
 70
     0
102
RTVSPropertyOp1
 70
     0
102
RTVSPropertyOp2
 70
     0
102
RTVSPropertyOp3
 70
     0
102
RTVSPropertyOp4
 70
     0
102
RTVSPropertyOp5
 70
     0
102
RTVSPropertyOp6
 70
     0
102
RTVSPropertyOp7
 70
     0
102
RTVSPropertyOp8
 70
     0
102
RTVSPropertyOp9
 70
     0
102
RTVSPropertyOp10
 70
     0
102
RTVSPropertyOp11
 70
     0
102
RTVSPropertyOp12
 70
     0
102
RTVSPropertyOp13
 70
     0
102
RTVSPropertyOp14
 70
     2
102
RTVSPropertyOp15
 70
     0
102
RTVSPropertyOp16
 70
     0
102
RTVSPropertyOp17
 70
     0
102
RTVSPropertyOp18
 70
     0
102
RTVSPropertyOp19
 70
     0
102
RTVSPropertyOp20
 70
     0
102
RTVSPropertyOp21
 70
     0
102
RTVSPropertyOp22
 70
     0
102
RTVSPropertyOp23
 70
     0
102
RTVSPropertyOp24
 70
     0
102
RTVSPropertyOp25
 70
     0
102
RTVSPropertyOp26
 70
     0
102
RTVSPropertyOp27
 70
     0
102
RTVSPropertyOp28
 70
     1
102
RTVSPropertyOp29
 70
     1
102
RTVSPropertyOp30
 70
     1
102
RTVSPropertyOp31
 70
     1
102
RTVSPropertyOp32
 70
     1
  0
XRECORD
  5
B99
102
{ACAD_REACTORS
330
B98
102
}
330
B98
100
AcDbXrecord
280
     1
102
RTVSPropertyOp0
 70
     1
102
RTVSPropertyOp1
 70
     1
102
RTVSPropertyOp2
 70
     1
102
RTVSPropertyOp3
 70
     1
102
RTVSPropertyOp4
 70
     1
102
RTVSPropertyOp5
 70
     1
102
RTVSPropertyOp6
 70
     1
102
RTVSPropertyOp7
 70
     1
102
RTVSPropertyOp8
 70
     1
102
RTVSPropertyOp9
 70
     1
102
RTVSPropertyOp10
 70
     1
102
RTVSPropertyOp11
 70
     1
102
RTVSPropertyOp12
 70
     1
102
RTVSPropertyOp13
 70
     1
102
RTVSPropertyOp14
 70
     1
102
RTVSPropertyOp15
 70
     1
102
RTVSPropertyOp16
 70
     1
102
RTVSPropertyOp17
 70
     1
102
RTVSPropertyOp18
 70
     1
102
RTVSPropertyOp19
 70
     1
102
RTVSPropertyOp20
 70
     1
102
RTVSPropertyOp21
 70
     1
102
RTVSPropertyOp22
 70
     1
102
RTVSPropertyOp23
 70
     1
102
RTVSPropertyOp24
 70
     1
102
RTVSPropertyOp25
 70
     1
102
RTVSPropertyOp26
 70
     1
102
RTVSPropertyOp27
 70
     1
102
RTVSPropertyOp28
 70
     1
102
RTVSPropertyOp29
 70
     1
102
RTVSPropertyOp30
 70
     1
102
RTVSPropertyOp31
 70
     1
102
RTVSPropertyOp32
 70
     1
  0
XRECORD
  5
B7D
102
{ACAD_REACTORS
330
B7C
102
}
330
B7C
100
AcDbXrecord
280
     1
102
RTVSPropertyOp0
 70
     1
102
RTVSPropertyOp1
 70
     1
102
RTVSPropertyOp2
 70
     1
102
RTVSPropertyOp3
 70
     1
102
RTVSPropertyOp4
 70
     1
102
RTVSPropertyOp5
 70
     1
102
RTVSPropertyOp6
 70
     1
102
RTVSPropertyOp7
 70
     1
102
RTVSPropertyOp8
 70
     1
102
RTVSPropertyOp9
 70
     1
102
RTVSPropertyOp10
 70
     1
102
RTVSPropertyOp11
 70
     1
102
RTVSPropertyOp12
 70
     1
102
RTVSPropertyOp13
 70
     1
102
RTVSPropertyOp14
 70
     1
102
RTVSPropertyOp15
 70
     1
102
RTVSPropertyOp16
 70
     1
102
RTVSPropertyOp17
 70
     1
102
RTVSPropertyOp18
 70
     1
102
RTVSPropertyOp19
 70
     1
102
RTVSPropertyOp20
 70
     1
102
RTVSPropertyOp21
 70
     1
102
RTVSPropertyOp22
 70
     1
102
RTVSPropertyOp23
 70
     1
102
RTVSPropertyOp24
 70
     1
102
RTVSPropertyOp25
 70
     1
102
RTVSPropertyOp26
 70
     1
102
RTVSPropertyOp27
 70
     1
102
RTVSPropertyOp28
 70
     1
102
RTVSPropertyOp29
 70
     1
102
RTVSPropertyOp30
 70
     1
102
RTVSPropertyOp31
 70
     1
102
RTVSPropertyOp32
 70
     1
  0
XRECORD
  5
B7F
102
{ACAD_REACTORS
330
B7E
102
}
330
B7E
100
AcDbXrecord
280
     1
102
RTVSPropertyOp0
 70
     1
102
RTVSPropertyOp1
 70
     1
102
RTVSPropertyOp2
 70
     1
102
RTVSPropertyOp3
 70
     1
102
RTVSPropertyOp4
 70
     1
102
RTVSPropertyOp5
 70
     1
102
RTVSPropertyOp6
 70
     1
102
RTVSPropertyOp7
 70
     1
102
RTVSPropertyOp8
 70
     1
102
RTVSPropertyOp9
 70
     1
102
RTVSPropertyOp10
 70
     1
102
RTVSPropertyOp11
 70
     1
102
RTVSPropertyOp12
 70
     1
102
RTVSPropertyOp13
 70
     1
102
RTVSPropertyOp14
 70
     1
102
RTVSPropertyOp15
 70
     1
102
RTVSPropertyOp16
 70
     1
102
RTVSPropertyOp17
 70
     1
102
RTVSPropertyOp18
 70
     1
102
RTVSPropertyOp19
 70
     1
102
RTVSPropertyOp20
 70
     1
102
RTVSPropertyOp21
 70
     1
102
RTVSPropertyOp22
 70
     1
102
RTVSPropertyOp23
 70
     1
102
RTVSPropertyOp24
 70
     1
102
RTVSPropertyOp25
 70
     1
102
RTVSPropertyOp26
 70
     1
102
RTVSPropertyOp27
 70
     1
102
RTVSPropertyOp28
 70
     1
102
RTVSPropertyOp29
 70
     1
102
RTVSPropertyOp30
 70
     1
102
RTVSPropertyOp31
 70
     1
102
RTVSPropertyOp32
 70
     1
  0
XRECORD
  5
B81
102
{ACAD_REACTORS
330
B80
102
}
330
B80
100
AcDbXrecord
280
     1
102
RTVSPropertyOp0
 70
     1
102
RTVSPropertyOp1
 70
     1
102
RTVSPropertyOp2
 70
     1
102
RTVSPropertyOp3
 70
     1
102
RTVSPropertyOp4
 70
     1
102
RTVSPropertyOp5
 70
     1
102
RTVSPropertyOp6
 70
     1
102
RTVSPropertyOp7
 70
     1
102
RTVSPropertyOp8
 70
     1
102
RTVSPropertyOp9
 70
     1
102
RTVSPropertyOp10
 70
     1
102
RTVSPropertyOp11
 70
     1
102
RTVSPropertyOp12
 70
     1
102
RTVSPropertyOp13
 70
     1
102
RTVSPropertyOp14
 70
     1
102
RTVSPropertyOp15
 70
     1
102
RTVSPropertyOp16
 70
     1
102
RTVSPropertyOp17
 70
     1
102
RTVSPropertyOp18
 70
     1
102
RTVSPropertyOp19
 70
     1
102
RTVSPropertyOp20
 70
     1
102
RTVSPropertyOp21
 70
     1
102
RTVSPropertyOp22
 70
     1
102
RTVSPropertyOp23
 70
     1
102
RTVSPropertyOp24
 70
     1
102
RTVSPropertyOp25
 70
     1
102
RTVSPropertyOp26
 70
     1
102
RTVSPropertyOp27
 70
     1
102
RTVSPropertyOp28
 70
     1
102
RTVSPropertyOp29
 70
     1
102
RTVSPropertyOp30
 70
     1
102
RTVSPropertyOp31
 70
     1
102
RTVSPropertyOp32
 70
     1
  0
XRECORD
  5
B83
102
{ACAD_REACTORS
330
B82
102
}
330
B82
100
AcDbXrecord
280
     1
102
RTVSPropertyOp0
 70
     1
102
RTVSPropertyOp1
 70
     1
102
RTVSPropertyOp2
 70
     1
102
RTVSPropertyOp3
 70
     1
102
RTVSPropertyOp4
 70
     1
102
RTVSPropertyOp5
 70
     1
102
RTVSPropertyOp6
 70
     1
102
RTVSPropertyOp7
 70
     1
102
RTVSPropertyOp8
 70
     1
102
RTVSPropertyOp9
 70
     1
102
RTVSPropertyOp10
 70
     1
102
RTVSPropertyOp11
 70
     1
102
RTVSPropertyOp12
 70
     1
102
RTVSPropertyOp13
 70
     1
102
RTVSPropertyOp14
 70
     1
102
RTVSPropertyOp15
 70
     1
102
RTVSPropertyOp16
 70
     1
102
RTVSPropertyOp17
 70
     1
102
RTVSPropertyOp18
 70
     1
102
RTVSPropertyOp19
 70
     1
102
RTVSPropertyOp20
 70
     1
102
RTVSPropertyOp21
 70
     1
102
RTVSPropertyOp22
 70
     1
102
RTVSPropertyOp23
 70
     1
102
RTVSPropertyOp24
 70
     1
102
RTVSPropertyOp25
 70
     1
102
RTVSPropertyOp26
 70
     1
102
RTVSPropertyOp27
 70
     1
102
RTVSPropertyOp28
 70
     1
102
RTVSPropertyOp29
 70
     1
102
RTVSPropertyOp30
 70
     1
102
RTVSPropertyOp31
 70
     1
102
RTVSPropertyOp32
 70
     1
  0
XRECORD
  5
B8B
102
{ACAD_REACTORS
330
B8A
102
}
330
B8A
100
AcDbXrecord
280
     1
102
RTVSPropertyOp0
 70
     1
102
RTVSPropertyOp1
 70
     1
102
RTVSPropertyOp2
 70
     1
102
RTVSPropertyOp3
 70
     1
102
RTVSPropertyOp4
 70
     1
102
RTVSPropertyOp5
 70
     1
102
RTVSPropertyOp6
 70
     1
102
RTVSPropertyOp7
 70
     1
102
RTVSPropertyOp8
 70
     1
102
RTVSPropertyOp9
 70
     1
102
RTVSPropertyOp10
 70
     1
102
RTVSPropertyOp11
 70
     1
102
RTVSPropertyOp12
 70
     1
102
RTVSPropertyOp13
 70
     1
102
RTVSPropertyOp14
 70
     1
102
RTVSPropertyOp15
 70
     1
102
RTVSPropertyOp16
 70
     1
102
RTVSPropertyOp17
 70
     1
102
RTVSPropertyOp18
 70
     1
102
RTVSPropertyOp19
 70
     1
102
RTVSPropertyOp20
 70
     1
102
RTVSPropertyOp21
 70
     1
102
RTVSPropertyOp22
 70
     1
102
RTVSPropertyOp23
 70
     1
102
RTVSPropertyOp24
 70
     1
102
RTVSPropertyOp25
 70
     1
102
RTVSPropertyOp26
 70
     1
102
RTVSPropertyOp27
 70
     1
102
RTVSPropertyOp28
 70
     1
102
RTVSPropertyOp29
 70
     1
102
RTVSPropertyOp30
 70
     1
102
RTVSPropertyOp31
 70
     1
102
RTVSPropertyOp32
 70
     1
  0
XRECORD
  5
BA7
102
{ACAD_REACTORS
330
BA6
102
}
330
BA6
100
AcDbXrecord
280
     1
102
RTVSPropertyOp0
 70
     0
102
RTVSPropertyOp1
 70
     0
102
RTVSPropertyOp2
 70
     0
102
RTVSPropertyOp3
 70
     0
102
RTVSPropertyOp4
 70
     0
102
RTVSPropertyOp5
 70
     0
102
RTVSPropertyOp6
 70
     0
102
RTVSPropertyOp7
 70
     0
102
RTVSPropertyOp8
 70
     0
102
RTVSPropertyOp9
 70
     0
102
RTVSPropertyOp10
 70
     0
102
RTVSPropertyOp11
 70
     0
102
RTVSPropertyOp12
 70
     0
102
RTVSPropertyOp13
 70
     0
102
RTVSPropertyOp14
 70
     2
102
RTVSPropertyOp15
 70
     0
102
RTVSPropertyOp16
 70
     0
102
RTVSPropertyOp17
 70
     0
102
RTVSPropertyOp18
 70
     0
102
RTVSPropertyOp19
 70
     0
102
RTVSPropertyOp20
 70
     0
102
RTVSPropertyOp21
 70
     0
102
RTVSPropertyOp22
 70
     0
102
RTVSPropertyOp23
 70
     0
102
RTVSPropertyOp24
 70
     0
102
RTVSPropertyOp25
 70
     0
102
RTVSPropertyOp26
 70
     0
102
RTVSPropertyOp27
 70
     0
102
RTVSPropertyOp28
 70
     1
102
RTVSPropertyOp29
 70
     1
102
RTVSPropertyOp30
 70
     1
102
RTVSPropertyOp31
 70
     1
102
RTVSPropertyOp32
 70
     1
  0
XRECORD
  5
B97
102
{ACAD_REACTORS
330
B96
102
}
330
B96
100
AcDbXrecord
280
     1
102
RTVSPropertyOp0
 70
     1
102
RTVSPropertyOp1
 70
     1
102
RTVSPropertyOp2
 70
     1
102
RTVSPropertyOp3
 70
     1
102
RTVSPropertyOp4
 70
     1
102
RTVSPropertyOp5
 70
     1
102
RTVSPropertyOp6
 70
     1
102
RTVSPropertyOp7
 70
     1
102
RTVSPropertyOp8
 70
     1
102
RTVSPropertyOp9
 70
     1
102
RTVSPropertyOp10
 70
     1
102
RTVSPropertyOp11
 70
     1
102
RTVSPropertyOp12
 70
     1
102
RTVSPropertyOp13
 70
     1
102
RTVSPropertyOp14
 70
     1
102
RTVSPropertyOp15
 70
     1
102
RTVSPropertyOp16
 70
     1
102
RTVSPropertyOp17
 70
     1
102
RTVSPropertyOp18
 70
     1
102
RTVSPropertyOp19
 70
     1
102
RTVSPropertyOp20
 70
     1
102
RTVSPropertyOp21
 70
     1
102
RTVSPropertyOp22
 70
     1
102
RTVSPropertyOp23
 70
     1
102
RTVSPropertyOp24
 70
     1
102
RTVSPropertyOp25
 70
     1
102
RTVSPropertyOp26
 70
     1
102
RTVSPropertyOp27
 70
     1
102
RTVSPropertyOp28
 70
     1
102
RTVSPropertyOp29
 70
     1
102
RTVSPropertyOp30
 70
     1
102
RTVSPropertyOp31
 70
     1
102
RTVSPropertyOp32
 70
     1
  0
XRECORD
  5
BA9
102
{ACAD_REACTORS
330
BA8
102
}
330
BA8
100
AcDbXrecord
280
     1
102
RTVSPropertyOp0
 70
     0
102
RTVSPropertyOp1
 70
     0
102
RTVSPropertyOp2
 70
     0
102
RTVSPropertyOp3
 70
     0
102
RTVSPropertyOp4
 70
     0
102
RTVSPropertyOp5
 70
     0
102
RTVSPropertyOp6
 70
     0
102
RTVSPropertyOp7
 70
     0
102
RTVSPropertyOp8
 70
     0
102
RTVSPropertyOp9
 70
     0
102
RTVSPropertyOp10
 70
     0
102
RTVSPropertyOp11
 70
     0
102
RTVSPropertyOp12
 70
     0
102
RTVSPropertyOp13
 70
     0
102
RTVSPropertyOp14
 70
     2
102
RTVSPropertyOp15
 70
     0
102
RTVSPropertyOp16
 70
     0
102
RTVSPropertyOp17
 70
     0
102
RTVSPropertyOp18
 70
     0
102
RTVSPropertyOp19
 70
     0
102
RTVSPropertyOp20
 70
     0
102
RTVSPropertyOp21
 70
     0
102
RTVSPropertyOp22
 70
     0
102
RTVSPropertyOp23
 70
     0
102
RTVSPropertyOp24
 70
     0
102
RTVSPropertyOp25
 70
     0
102
RTVSPropertyOp26
 70
     0
102
RTVSPropertyOp27
 70
     0
102
RTVSPropertyOp28
 70
     1
102
RTVSPropertyOp29
 70
     1
102
RTVSPropertyOp30
 70
     1
102
RTVSPropertyOp31
 70
     1
102
RTVSPropertyOp32
 70
     1
  0
XRECORD
  5
B8F
102
{ACAD_REACTORS
330
B8E
102
}
330
B8E
100
AcDbXrecord
280
     1
102
RTVSPropertyOp0
 70
     1
102
RTVSPropertyOp1
 70
     1
102
RTVSPropertyOp2
 70
     1
102
RTVSPropertyOp3
 70
     1
102
RTVSPropertyOp4
 70
     1
102
RTVSPropertyOp5
 70
     1
102
RTVSPropertyOp6
 70
     1
102
RTVSPropertyOp7
 70
     1
102
RTVSPropertyOp8
 70
     1
102
RTVSPropertyOp9
 70
     1
102
RTVSPropertyOp10
 70
     1
102
RTVSPropertyOp11
 70
     1
102
RTVSPropertyOp12
 70
     1
102
RTVSPropertyOp13
 70
     1
102
RTVSPropertyOp14
 70
     1
102
RTVSPropertyOp15
 70
     1
102
RTVSPropertyOp16
 70
     1
102
RTVSPropertyOp17
 70
     1
102
RTVSPropertyOp18
 70
     1
102
RTVSPropertyOp19
 70
     1
102
RTVSPropertyOp20
 70
     1
102
RTVSPropertyOp21
 70
     1
102
RTVSPropertyOp22
 70
     1
102
RTVSPropertyOp23
 70
     1
102
RTVSPropertyOp24
 70
     1
102
RTVSPropertyOp25
 70
     1
102
RTVSPropertyOp26
 70
     1
102
RTVSPropertyOp27
 70
     1
102
RTVSPropertyOp28
 70
     1
102
RTVSPropertyOp29
 70
     1
102
RTVSPropertyOp30
 70
     1
102
RTVSPropertyOp31
 70
     1
102
RTVSPropertyOp32
 70
     1
  0
XRECORD
  5
BA5
102
{ACAD_REACTORS
330
BA4
102
}
330
BA4
100
AcDbXrecord
280
     1
102
RTVSPropertyOp0
 70
     1
102
RTVSPropertyOp1
 70
     1
102
RTVSPropertyOp2
 70
     1
102
RTVSPropertyOp3
 70
     1
102
RTVSPropertyOp4
 70
     1
102
RTVSPropertyOp5
 70
     1
102
RTVSPropertyOp6
 70
     1
102
RTVSPropertyOp7
 70
     1
102
RTVSPropertyOp8
 70
     1
102
RTVSPropertyOp9
 70
     1
102
RTVSPropertyOp10
 70
     1
102
RTVSPropertyOp11
 70
     1
102
RTVSPropertyOp12
 70
     1
102
RTVSPropertyOp13
 70
     1
102
RTVSPropertyOp14
 70
     1
102
RTVSPropertyOp15
 70
     1
102
RTVSPropertyOp16
 70
     1
102
RTVSPropertyOp17
 70
     1
102
RTVSPropertyOp18
 70
     1
102
RTVSPropertyOp19
 70
     1
102
RTVSPropertyOp20
 70
     1
102
RTVSPropertyOp21
 70
     1
102
RTVSPropertyOp22
 70
     1
102
RTVSPropertyOp23
 70
     1
102
RTVSPropertyOp24
 70
     1
102
RTVSPropertyOp25
 70
     1
102
RTVSPropertyOp26
 70
     1
102
RTVSPropertyOp27
 70
     1
102
RTVSPropertyOp28
 70
     1
102
RTVSPropertyOp29
 70
     1
102
RTVSPropertyOp30
 70
     1
102
RTVSPropertyOp31
 70
     1
102
RTVSPropertyOp32
 70
     1
  0
XRECORD
  5
BA3
102
{ACAD_REACTORS
330
BA2
102
}
330
BA2
100
AcDbXrecord
280
     1
102
RTVSPropertyOp0
 70
     1
102
RTVSPropertyOp1
 70
     1
102
RTVSPropertyOp2
 70
     1
102
RTVSPropertyOp3
 70
     1
102
RTVSPropertyOp4
 70
     1
102
RTVSPropertyOp5
 70
     1
102
RTVSPropertyOp6
 70
     1
102
RTVSPropertyOp7
 70
     1
102
RTVSPropertyOp8
 70
     1
102
RTVSPropertyOp9
 70
     1
102
RTVSPropertyOp10
 70
     1
102
RTVSPropertyOp11
 70
     1
102
RTVSPropertyOp12
 70
     1
102
RTVSPropertyOp13
 70
     1
102
RTVSPropertyOp14
 70
     1
102
RTVSPropertyOp15
 70
     1
102
RTVSPropertyOp16
 70
     1
102
RTVSPropertyOp17
 70
     1
102
RTVSPropertyOp18
 70
     1
102
RTVSPropertyOp19
 70
     1
102
RTVSPropertyOp20
 70
     1
102
RTVSPropertyOp21
 70
     1
102
RTVSPropertyOp22
 70
     1
102
RTVSPropertyOp23
 70
     1
102
RTVSPropertyOp24
 70
     1
102
RTVSPropertyOp25
 70
     1
102
RTVSPropertyOp26
 70
     1
102
RTVSPropertyOp27
 70
     1
102
RTVSPropertyOp28
 70
     1
102
RTVSPropertyOp29
 70
     1
102
RTVSPropertyOp30
 70
     1
102
RTVSPropertyOp31
 70
     1
102
RTVSPropertyOp32
 70
     1
  0
XRECORD
  5
B9D
102
{ACAD_REACTORS
330
B9C
102
}
330
B9C
100
AcDbXrecord
280
     1
102
RTVSPropertyOp0
 70
     1
102
RTVSPropertyOp1
 70
     1
102
RTVSPropertyOp2
 70
     1
102
RTVSPropertyOp3
 70
     1
102
RTVSPropertyOp4
 70
     1
102
RTVSPropertyOp5
 70
     1
102
RTVSPropertyOp6
 70
     1
102
RTVSPropertyOp7
 70
     1
102
RTVSPropertyOp8
 70
     1
102
RTVSPropertyOp9
 70
     1
102
RTVSPropertyOp10
 70
     1
102
RTVSPropertyOp11
 70
     1
102
RTVSPropertyOp12
 70
     1
102
RTVSPropertyOp13
 70
     1
102
RTVSPropertyOp14
 70
     1
102
RTVSPropertyOp15
 70
     1
102
RTVSPropertyOp16
 70
     1
102
RTVSPropertyOp17
 70
     1
102
RTVSPropertyOp18
 70
     1
102
RTVSPropertyOp19
 70
     1
102
RTVSPropertyOp20
 70
     1
102
RTVSPropertyOp21
 70
     1
102
RTVSPropertyOp22
 70
     1
102
RTVSPropertyOp23
 70
     1
102
RTVSPropertyOp24
 70
     1
102
RTVSPropertyOp25
 70
     1
102
RTVSPropertyOp26
 70
     1
102
RTVSPropertyOp27
 70
     1
102
RTVSPropertyOp28
 70
     1
102
RTVSPropertyOp29
 70
     1
102
RTVSPropertyOp30
 70
     1
102
RTVSPropertyOp31
 70
     1
102
RTVSPropertyOp32
 70
     1
  0
XRECORD
  5
B9F
102
{ACAD_REACTORS
330
B9E
102
}
330
B9E
100
AcDbXrecord
280
     1
102
RTVSPropertyOp0
 70
     1
102
RTVSPropertyOp1
 70
     1
102
RTVSPropertyOp2
 70
     1
102
RTVSPropertyOp3
 70
     1
102
RTVSPropertyOp4
 70
     1
102
RTVSPropertyOp5
 70
     1
102
RTVSPropertyOp6
 70
     1
102
RTVSPropertyOp7
 70
     1
102
RTVSPropertyOp8
 70
     1
102
RTVSPropertyOp9
 70
     1
102
RTVSPropertyOp10
 70
     1
102
RTVSPropertyOp11
 70
     1
102
RTVSPropertyOp12
 70
     1
102
RTVSPropertyOp13
 70
     1
102
RTVSPropertyOp14
 70
     1
102
RTVSPropertyOp15
 70
     1
102
RTVSPropertyOp16
 70
     1
102
RTVSPropertyOp17
 70
     1
102
RTVSPropertyOp18
 70
     1
102
RTVSPropertyOp19
 70
     1
102
RTVSPropertyOp20
 70
     1
102
RTVSPropertyOp21
 70
     1
102
RTVSPropertyOp22
 70
     1
102
RTVSPropertyOp23
 70
     1
102
RTVSPropertyOp24
 70
     1
102
RTVSPropertyOp25
 70
     1
102
RTVSPropertyOp26
 70
     1
102
RTVSPropertyOp27
 70
     1
102
RTVSPropertyOp28
 70
     1
102
RTVSPropertyOp29
 70
     1
102
RTVSPropertyOp30
 70
     1
102
RTVSPropertyOp31
 70
     1
102
RTVSPropertyOp32
 70
     1
  0
XRECORD
  5
B95
102
{ACAD_REACTORS
330
B94
102
}
330
B94
100
AcDbXrecord
280
     1
102
RTVSPropertyOp0
 70
     1
102
RTVSPropertyOp1
 70
     1
102
RTVSPropertyOp2
 70
     1
102
RTVSPropertyOp3
 70
     1
102
RTVSPropertyOp4
 70
     1
102
RTVSPropertyOp5
 70
     1
102
RTVSPropertyOp6
 70
     1
102
RTVSPropertyOp7
 70
     1
102
RTVSPropertyOp8
 70
     1
102
RTVSPropertyOp9
 70
     1
102
RTVSPropertyOp10
 70
     1
102
RTVSPropertyOp11
 70
     1
102
RTVSPropertyOp12
 70
     1
102
RTVSPropertyOp13
 70
     1
102
RTVSPropertyOp14
 70
     1
102
RTVSPropertyOp15
 70
     1
102
RTVSPropertyOp16
 70
     1
102
RTVSPropertyOp17
 70
     1
102
RTVSPropertyOp18
 70
     1
102
RTVSPropertyOp19
 70
     1
102
RTVSPropertyOp20
 70
     1
102
RTVSPropertyOp21
 70
     1
102
RTVSPropertyOp22
 70
     1
102
RTVSPropertyOp23
 70
     1
102
RTVSPropertyOp24
 70
     1
102
RTVSPropertyOp25
 70
     1
102
RTVSPropertyOp26
 70
     1
102
RTVSPropertyOp27
 70
     1
102
RTVSPropertyOp28
 70
     1
102
RTVSPropertyOp29
 70
     1
102
RTVSPropertyOp30
 70
     1
102
RTVSPropertyOp31
 70
     1
102
RTVSPropertyOp32
 70
     1
  0
XRECORD
  5
B89
102
{ACAD_REACTORS
330
B88
102
}
330
B88
100
AcDbXrecord
280
     1
102
RTVSPropertyOp0
 70
     1
102
RTVSPropertyOp1
 70
     1
102
RTVSPropertyOp2
 70
     1
102
RTVSPropertyOp3
 70
     1
102
RTVSPropertyOp4
 70
     1
102
RTVSPropertyOp5
 70
     1
102
RTVSPropertyOp6
 70
     1
102
RTVSPropertyOp7
 70
     1
102
RTVSPropertyOp8
 70
     1
102
RTVSPropertyOp9
 70
     1
102
RTVSPropertyOp10
 70
     1
102
RTVSPropertyOp11
 70
     1
102
RTVSPropertyOp12
 70
     1
102
RTVSPropertyOp13
 70
     1
102
RTVSPropertyOp14
 70
     1
102
RTVSPropertyOp15
 70
     1
102
RTVSPropertyOp16
 70
     1
102
RTVSPropertyOp17
 70
     1
102
RTVSPropertyOp18
 70
     1
102
RTVSPropertyOp19
 70
     1
102
RTVSPropertyOp20
 70
     1
102
RTVSPropertyOp21
 70
     1
102
RTVSPropertyOp22
 70
     1
102
RTVSPropertyOp23
 70
     1
102
RTVSPropertyOp24
 70
     1
102
RTVSPropertyOp25
 70
     1
102
RTVSPropertyOp26
 70
     1
102
RTVSPropertyOp27
 70
     1
102
RTVSPropertyOp28
 70
     1
102
RTVSPropertyOp29
 70
     1
102
RTVSPropertyOp30
 70
     1
102
RTVSPropertyOp31
 70
     1
102
RTVSPropertyOp32
 70
     1
  0
XRECORD
  5
BA1
102
{ACAD_REACTORS
330
BA0
102
}
330
BA0
100
AcDbXrecord
280
     1
102
RTVSPropertyOp0
 70
     1
102
RTVSPropertyOp1
 70
     1
102
RTVSPropertyOp2
 70
     1
102
RTVSPropertyOp3
 70
     1
102
RTVSPropertyOp4
 70
     1
102
RTVSPropertyOp5
 70
     1
102
RTVSPropertyOp6
 70
     1
102
RTVSPropertyOp7
 70
     1
102
RTVSPropertyOp8
 70
     1
102
RTVSPropertyOp9
 70
     1
102
RTVSPropertyOp10
 70
     1
102
RTVSPropertyOp11
 70
     1
102
RTVSPropertyOp12
 70
     1
102
RTVSPropertyOp13
 70
     1
102
RTVSPropertyOp14
 70
     1
102
RTVSPropertyOp15
 70
     1
102
RTVSPropertyOp16
 70
     1
102
RTVSPropertyOp17
 70
     1
102
RTVSPropertyOp18
 70
     1
102
RTVSPropertyOp19
 70
     1
102
RTVSPropertyOp20
 70
     1
102
RTVSPropertyOp21
 70
     1
102
RTVSPropertyOp22
 70
     1
102
RTVSPropertyOp23
 70
     1
102
RTVSPropertyOp24
 70
     1
102
RTVSPropertyOp25
 70
     1
102
RTVSPropertyOp26
 70
     1
102
RTVSPropertyOp27
 70
     1
102
RTVSPropertyOp28
 70
     1
102
RTVSPropertyOp29
 70
     1
102
RTVSPropertyOp30
 70
     1
102
RTVSPropertyOp31
 70
     1
102
RTVSPropertyOp32
 70
     1
  0
ENDSEC
  0
EOF
