  0
SECTION
  2
HEADER
  9
$ACADVER
  1
AC1015
  9
$ACADMAINTVER
 70
    18
  9
$DWGCODEPAGE
  3
ANSI_1252
  9
$INSBASE
 10
0.0
 20
0.0
 30
0.0
  9
$EXTMIN
 10
0.0
 20
0.0
 30
0.0
  9
$EXTMAX
 10
34.0
 20
22.0
 30
0.0
  9
$LIMMIN
 10
0.0
 20
0.0
  9
$LIMMAX
 10
34.0
 20
22.0
  9
$ORTHOMODE
 70
     0
  9
$REGENMODE
 70
     1
  9
$FILLMODE
 70
     1
  9
$QTEXTMODE
 70
     0
  9
$MIRRTEXT
 70
     0
  9
$LTSCALE
 40
2.0
  9
$ATTMODE
 70
     1
  9
$TEXTSIZE
 40
0.2
  9
$TRACEWID
 40
0.05
  9
$TEXTSTYLE
  7
Standard
  9
$CLAYER
  8
0
  9
$CELTYPE
  6
ByLayer
  9
$CECOLOR
 62
   256
  9
$CELTSCALE
 40
1.0
  9
$DISPSILH
 70
     0
  9
$DIMSCALE
 40
1.0
  9
$DIMASZ
 40
0.0708661417322835
  9
$DIMEXO
 40
0.0625
  9
$DIMDLI
 40
0.38
  9
$DIMRND
 40
0.0
  9
$DIMDLE
 40
0.0
  9
$DIMEXE
 40
0.18
  9
$DIMTP
 40
0.0
  9
$DIMTM
 40
0.0
  9
$DIMTXT
 40
0.0708661417322835
  9
$DIMCEN
 40
0.09
  9
$DIMTSZ
 40
0.0
  9
$DIMTOL
 70
     0
  9
$DIMLIM
 70
     0
  9
$DIMTIH
 70
     1
  9
$DIMTOH
 70
     1
  9
$DIMSE1
 70
     0
  9
$DIMSE2
 70
     0
  9
$DIMTAD
 70
     0
  9
$DIMZIN
 70
     0
  9
$DIMBLK
  1

  9
$DIMASO
 70
     1
  9
$DIMSHO
 70
     1
  9
$DIMPOST
  1

  9
$DIMAPOST
  1

  9
$DIMALT
 70
     0
  9
$DIMALTD
 70
     2
  9
$DIMALTF
 40
25.4
  9
$DIMLFAC
 40
1.0
  9
$DIMTOFL
 70
     0
  9
$DIMTVP
 40
0.0
  9
$DIMTIX
 70
     0
  9
$DIMSOXD
 70
     0
  9
$DIMSAH
 70
     0
  9
$DIMBLK1
  1

  9
$DIMBLK2
  1

  9
$DIMSTYLE
  2
STANDARD
  9
$DIMCLRD
 70
     0
  9
$DIMCLRE
 70
     0
  9
$DIMCLRT
 70
     0
  9
$DIMTFAC
 40
1.0
  9
$DIMGAP
 40
0.09
  9
$DIMJUST
 70
     0
  9
$DIMSD1
 70
     0
  9
$DIMSD2
 70
     0
  9
$DIMTOLJ
 70
     1
  9
$DIMTZIN
 70
     0
  9
$DIMALTZ
 70
     0
  9
$DIMALTTZ
 70
     0
  9
$DIMUPT
 70
     0
  9
$DIMDEC
 70
     4
  9
$DIMTDEC
 70
     4
  9
$DIMALTU
 70
     2
  9
$DIMALTTD
 70
     2
  9
$DIMTXSTY
  7
Standard
  9
$DIMAUNIT
 70
     0
  9
$DIMADEC
 70
     0
  9
$DIMALTRND
 40
0.0
  9
$DIMAZIN
 70
     0
  9
$DIMDSEP
 70
    46
  9
$DIMATFIT
 70
     3
  9
$DIMFRAC
 70
     0
  9
$DIMLDRBLK
  1

  9
$DIMLUNIT
 70
     2
  9
$DIMLWD
 70
    -2
  9
$DIMLWE
 70
    -2
  9
$DIMTMOVE
 70
     0
  9
$LUNITS
 70
     2
  9
$LUPREC
 70
     4
  9
$SKETCHINC
 40
0.1
  9
$FILLETRAD
 40
0.0
  9
$AUNITS
 70
     0
  9
$AUPREC
 70
     0
  9
$MENU
  1
.
  9
$ELEVATION
 40
0.0
  9
$PELEVATION
 40
0.0
  9
$THICKNESS
 40
0.0
  9
$LIMCHECK
 70
     0
  9
$CHAMFERA
 40
0.0
  9
$CHAMFERB
 40
0.0
  9
$CHAMFERC
 40
0.0
  9
$CHAMFERD
 40
0.0
  9
$SKPOLY
 70
     0
  9
$TDCREATE
 40
2455944.459574467
  9
$TDUCREATE
 40
2455944.709574468
  9
$TDUPDATE
 40
2455944.459574467
  9
$TDUUPDATE
 40
2455944.709574468
  9
$TDINDWG
 40
0.0000407060
  9
$TDUSRTIMER
 40
0.0000407060
  9
$USRTIMER
 70
     1
  9
$ANGBASE
 50
0.0
  9
$ANGDIR
 70
     0
  9
$PDMODE
 70
     0
  9
$PDSIZE
 40
0.0
  9
$PLINEWID
 40
0.0
  9
$SPLFRAME
 70
     0
  9
$SPLINETYPE
 70
     6
  9
$SPLINESEGS
 70
     8
  9
$HANDSEED
  5
C01
  9
$SURFTAB1
 70
     6
  9
$SURFTAB2
 70
     6
  9
$SURFTYPE
 70
     6
  9
$SURFU
 70
     6
  9
$SURFV
 70
     6
  9
$UCSBASE
  2

  9
$UCSNAME
  2

  9
$UCSORG
 10
0.0
 20
0.0
 30
0.0
  9
$UCSXDIR
 10
1.0
 20
0.0
 30
0.0
  9
$UCSYDIR
 10
0.0
 20
1.0
 30
0.0
  9
$UCSORTHOREF
  2

  9
$UCSORTHOVIEW
 70
     0
  9
$UCSORGTOP
 10
0.0
 20
0.0
 30
0.0
  9
$UCSORGBOTTOM
 10
0.0
 20
0.0
 30
0.0
  9
$UCSORGLEFT
 10
0.0
 20
0.0
 30
0.0
  9
$UCSORGRIGHT
 10
0.0
 20
0.0
 30
0.0
  9
$UCSORGFRONT
 10
0.0
 20
0.0
 30
0.0
  9
$UCSORGBACK
 10
0.0
 20
0.0
 30
0.0
  9
$PUCSBASE
  2

  9
$PUCSNAME
  2

  9
$PUCSORG
 10
0.0
 20
0.0
 30
0.0
  9
$PUCSXDIR
 10
1.0
 20
0.0
 30
0.0
  9
$PUCSYDIR
 10
0.0
 20
1.0
 30
0.0
  9
$PUCSORTHOREF
  2

  9
$PUCSORTHOVIEW
 70
     0
  9
$PUCSORGTOP
 10
0.0
 20
0.0
 30
0.0
  9
$PUCSORGBOTTOM
 10
0.0
 20
0.0
 30
0.0
  9
$PUCSORGLEFT
 10
0.0
 20
0.0
 30
0.0
  9
$PUCSORGRIGHT
 10
0.0
 20
0.0
 30
0.0
  9
$PUCSORGFRONT
 10
0.0
 20
0.0
 30
0.0
  9
$PUCSORGBACK
 10
0.0
 20
0.0
 30
0.0
  9
$USERI1
 70
     0
  9
$USERI2
 70
     0
  9
$USERI3
 70
     0
  9
$USERI4
 70
     0
  9
$USERI5
 70
     0
  9
$USERR1
 40
0.0
  9
$USERR2
 40
0.0
  9
$USERR3
 40
0.0
  9
$USERR4
 40
0.0
  9
$USERR5
 40
0.0
  9
$WORLDVIEW
 70
     1
  9
$SHADEDGE
 70
     3
  9
$SHADEDIF
 70
    70
  9
$TILEMODE
 70
     1
  9
$MAXACTVP
 70
    64
  9
$PINSBASE
 10
0.0
 20
0.0
 30
0.0
  9
$PLIMCHECK
 70
     0
  9
$PEXTMIN
 10
0.0
 20
0.0
 30
0.0
  9
$PEXTMAX
 10
34.0
 20
22.0
 30
0.0
  9
$PLIMMIN
 10
0.0
 20
0.0
  9
$PLIMMAX
 10
34.0
 20
22.0
  9
$UNITMODE
 70
     0
  9
$VISRETAIN
 70
     1
  9
$PLINEGEN
 70
     0
  9
$PSLTSCALE
 70
     1
  9
$TREEDEPTH
 70
  3020
  9
$CMLSTYLE
  2
Standard
  9
$CMLJUST
 70
     0
  9
$CMLSCALE
 40
1.0
  9
$PROXYGRAPHICS
 70
     1
  9
$MEASUREMENT
 70
     0
  9
$CELWEIGHT
370
    -1
  9
$ENDCAPS
280
     0
  9
$JOINSTYLE
280
     0
  9
$LWDISPLAY
290
     0
  9
$INSUNITS
 70
     1
  9
$HYPERLINKBASE
  1

  9
$STYLESHEET
  1

  9
$XEDIT
290
     1
  9
$CEPSNTYPE
380
     0
  9
$PSTYLEMODE
290
     1
  9
$FINGERPRINTGUID
  2
{EC6D88E1-8050-4825-9659-A45DE8AA6B47}
  9
$VERSIONGUID
  2
{EB31C084-F2E3-4824-B9BD-DB35A65743B3}
  9
$EXTNAMES
290
     1
  9
$PSVPSCALE
 40
0.0
  9
$OLESTARTUP
290
     0
  0
ENDSEC
  0
SECTION
  2
CLASSES
  0
CLASS
  1
ACDBDICTIONARYWDFLT
  2
AcDbDictionaryWithDefault
  3
ObjectDBX Classes
 90
        0
280
     0
281
     0
  0
CLASS
  1
MATERIAL
  2
AcDbMaterial
  3
ObjectDBX Classes
 90
     1153
280
     0
281
     0
  0
CLASS
  1
VISUALSTYLE
  2
AcDbVisualStyle
  3
ObjectDBX Classes
 90
     4095
280
     0
281
     0
  0
CLASS
  1
SCALE
  2
AcDbScale
  3
ObjectDBX Classes
 90
     1153
280
     0
281
     0
  0
CLASS
  1
TABLESTYLE
  2
AcDbTableStyle
  3
ObjectDBX Classes
 90
     4095
280
     0
281
     0
  0
CLASS
  1
MLEADERSTYLE
  2
AcDbMLeaderStyle
  3
ACDB_MLEADERSTYLE_CLASS
 90
     4095
280
     0
281
     0
  0
CLASS
  1
DICTIONARYVAR
  2
AcDbDictionaryVar
  3
ObjectDBX Classes
 90
        0
280
     0
281
     0
  0
CLASS
  1
CELLSTYLEMAP
  2
AcDbCellStyleMap
  3
ObjectDBX Classes
 90
     1152
280
     0
281
     0
  0
CLASS
  1
ACDBPLACEHOLDER
  2
AcDbPlaceHolder
  3
ObjectDBX Classes
 90
        0
280
     0
281
     0
  0
CLASS
  1
LAYOUT
  2
AcDbLayout
  3
ObjectDBX Classes
 90
        0
280
     0
281
     0
  0
ENDSEC
  0
SECTION
  2
TABLES
  0
TABLE
  2
VPORT
  5
8
330
0
100
AcDbSymbolTable
 70
     1
  0
VPORT
  5
57
330
8
100
AcDbSymbolTableRecord
100
AcDbViewportTableRecord
  2
*Active
 70
     0
 10
0.0
 20
0.0
 11
1.0
 21
1.0
 12
17.0
 22
11.0
 13
0.0
 23
0.0
 14
1.0
 24
1.0
 15
0.0
 25
0.0
 16
0.0
 26
0.0
 36
1.0
 17
0.0
 27
0.0
 37
0.0
 40
22.0
 41
1.545454545454545
 42
50.0
 43
0.0
 44
0.0
 50
0.0
 51
0.0
 71
     0
 72
   100
 73
     1
 74
     1
 75
     0
 76
     0
 77
     0
 78
     0
281
     0
 65
     1
110
0.0
120
0.0
130
0.0
111
1.0
121
0.0
131
0.0
112
0.0
122
1.0
132
0.0
 79
     0
146
0.0
  0
ENDTAB
  0
TABLE
  2
LTYPE
  5
5
330
0
100
AcDbSymbolTable
 70
    67
  0
LTYPE
  5
5B
330
5
100
AcDbSymbolTableRecord
100
AcDbLinetypeTableRecord
  2
ByBlock
 70
     0
  3

 72
    65
 73
     0
 40
0.0
  0
LTYPE
  5
5C
330
5
100
AcDbSymbolTableRecord
100
AcDbLinetypeTableRecord
  2
ByLayer
 70
     0
  3

 72
    65
 73
     0
 40
0.0
  0
LTYPE
  5
5D
330
5
100
AcDbSymbolTableRecord
100
AcDbLinetypeTableRecord
  2
Continuous
 70
     0
  3
Solid line
 72
    65
 73
     0
 40
0.0
  0
LTYPE
  5
DE
330
5
100
AcDbSymbolTableRecord
100
AcDbLinetypeTableRecord
  2
BY_STANDARD
 70
     0
  3
By Standard ____________    ____    ____   _
 72
    65
 73
     6
 40
1.240299999999999
 49
0.6614
 74
     0
 49
-0.0827
 74
     0
 49
0.1654
 74
     0
 49
-0.0827
 74
     0
 49
0.1654
 74
     0
 49
-0.0827
 74
     0
  0
LTYPE
  5
DF
330
5
100
AcDbSymbolTableRecord
100
AcDbLinetypeTableRecord
  2
CHAIN
 70
     0
  3
Chain ____ _ ____ _ ____ _ ____ _ ____ _ ____
 72
    65
 73
     4
 40
0.7087
 49
0.4724000000000001
 74
     0
 49
-0.0591
 74
     0
 49
0.1181
 74
     0
 49
-0.0591
 74
     0
  0
LTYPE
  5
E0
330
5
100
AcDbSymbolTableRecord
100
AcDbLinetypeTableRecord
  2
DASH_DOT
 70
     0
  3
Dash dot __ . __ . __ . __ . __ . __ . __ . __
 72
    65
 73
     4
 40
0.37
 49
0.24
 74
     0
 49
-0.06
 74
     0
 49
0.01
 74
     0
 49
-0.06
 74
     0
  0
LTYPE
  5
E1
330
5
100
AcDbSymbolTableRecord
100
AcDbLinetypeTableRecord
  2
DOUBLE_DASH_DOT
 70
     0
  3
Double-Dash Dot __ __ . __ __ . __ __ . __ _
 72
    65
 73
     6
 40
0.4398
 49
0.24
 74
     0
 49
-0.06
 74
     0
 49
0.0098
 74
     0
 49
-0.06
 74
     0
 49
0.01
 74
     0
 49
-0.06
 74
     0
  0
LTYPE
  5
E2
330
5
100
AcDbSymbolTableRecord
100
AcDbLinetypeTableRecord
  2
DASH_TRIPLE_DOT
 70
     0
  3
Dash Triple-Dot _ . . . _ . . . _ . . . _
 72
    65
 73
     8
 40
0.51
 49
0.24
 74
     0
 49
-0.06
 74
     0
 49
0.01
 74
     0
 49
-0.06
 74
     0
 49
0.01
 74
     0
 49
-0.06
 74
     0
 49
0.01
 74
     0
 49
-0.06
 74
     0
  0
LTYPE
  5
E3
330
5
100
AcDbSymbolTableRecord
100
AcDbLinetypeTableRecord
  2
DASHED
 70
     0
  3
Dashed __ __ __ __ __ __ __ __ __ __ __ __ __ _
 72
    65
 73
     2
 40
0.2067
 49
0.1654
 74
     0
 49
-0.0413
 74
     0
  0
LTYPE
  5
E4
330
5
100
AcDbSymbolTableRecord
100
AcDbLinetypeTableRecord
  2
DASH_DOUBLE_DOT
 70
     0
  3
Dash Double-Dot __ . . __ . . __ . . __ . .
 72
    65
 73
     6
 40
0.4398
 49
0.24
 74
     0
 49
-0.06
 74
     0
 49
0.0098
 74
     0
 49
-0.06
 74
     0
 49
0.01
 74
     0
 49
-0.06
 74
     0
  0
LTYPE
  5
E5
330
5
100
AcDbSymbolTableRecord
100
AcDbLinetypeTableRecord
  2
DASHED_SPACE
 70
     0
  3
Dashed Space __ __ __ __ __ __ __ __ __ __ __ _
 72
    65
 73
     2
 40
0.2067
 49
0.1654
 74
     0
 49
-0.0413
 74
     0
  0
LTYPE
  5
E6
330
5
100
AcDbSymbolTableRecord
100
AcDbLinetypeTableRecord
  2
DOTTED
 70
     0
  3
Dotted . . . . . . . . . . . . . . . . . . . . 
 72
    65
 73
     2
 40
0.0482
 49
0.0069
 74
     0
 49
-0.0413
 74
     0
  0
LTYPE
  5
E7
330
5
100
AcDbSymbolTableRecord
100
AcDbLinetypeTableRecord
  2
DOUBLE_DASH_CHAIN
 70
     0
  3
Double-Dash Chain ______  __  __  ______  __  _
 72
    65
 73
     6
 40
1.240299999999999
 49
0.6614
 74
     0
 49
-0.0827
 74
     0
 49
0.1654
 74
     0
 49
-0.0827
 74
     0
 49
0.1654
 74
     0
 49
-0.0827
 74
     0
  0
LTYPE
  5
E9
330
5
100
AcDbSymbolTableRecord
100
AcDbLinetypeTableRecord
  2
DOUBLE_DASH_DOUBLE_DOT
 70
     0
  3
Double-Dash Double-dot _ _ . . _ _ . . _
 72
    65
 73
     8
 40
0.7400000000000001
 49
0.24
 74
     0
 49
-0.06
 74
     0
 49
0.24
 74
     0
 49
-0.06
 74
     0
 49
0.01
 74
     0
 49
-0.06
 74
     0
 49
0.01
 74
     0
 49
-0.06
 74
     0
  0
LTYPE
  5
EA
330
5
100
AcDbSymbolTableRecord
100
AcDbLinetypeTableRecord
  2
DOUBLE_DASH_TRIPLE_DOT
 70
     0
  3
Double Dash Triple Dot __ __ . . . __ __ . .
 72
    65
 73
    10
 40
0.8100000000000001
 49
0.24
 74
     0
 49
-0.06
 74
     0
 49
0.24
 74
     0
 49
-0.06
 74
     0
 49
0.01
 74
     0
 49
-0.06
 74
     0
 49
0.01
 74
     0
 49
-0.06
 74
     0
 49
0.01
 74
     0
 49
-0.06
 74
     0
  0
LTYPE
  5
EB
330
5
100
AcDbSymbolTableRecord
100
AcDbLinetypeTableRecord
  2
LONG_DASH_DOTTED
 70
     0
  3
Long Dash Dotted ____ . ____ . ____ . ____ . _
 72
    65
 73
     4
 40
0.3543
 49
0.2362
 74
     0
 49
-0.0295
 74
     0
 49
0.0591
 74
     0
 49
-0.0295
 74
     0
  0
LTYPE
  5
EC
330
5
100
AcDbSymbolTableRecord
100
AcDbLinetypeTableRecord
  2
LONG_DASH_DOUBLE_DOT
 70
     0
  3
Long Dash Double Dot ________  .  .  ________  
 72
    65
 73
     6
 40
0.6799999999999999
 49
0.48
 74
     0
 49
-0.06
 74
     0
 49
0.01
 74
     0
 49
-0.06
 74
     0
 49
0.01
 74
     0
 49
-0.06
 74
     0
  0
LTYPE
  5
ED
330
5
100
AcDbSymbolTableRecord
100
AcDbLinetypeTableRecord
  2
LONG_DASH_TRIPLE_DOT
 70
     0
  3
Long Dash Triple Dot ____ ... ____ ... ____
 72
    65
 73
     8
 40
0.3689
 49
0.2362
 74
     0
 49
-0.0295
 74
     0
 49
0.0049
 74
     0
 49
-0.0295
 74
     0
 49
0.0049
 74
     0
 49
-0.0295
 74
     0
 49
0.0049
 74
     0
 49
-0.0295
 74
     0
  0
LTYPE
  5
EE
330
5
100
AcDbSymbolTableRecord
100
AcDbLinetypeTableRecord
  2
BORDER
 70
     0
  3
Border __ __ . __ __ . __ __ . __ __ . __ __ .
 72
    65
 73
     6
 40
1.75
 49
0.5
 74
     0
 49
-0.25
 74
     0
 49
0.5
 74
     0
 49
-0.25
 74
     0
 49
0.0
 74
     0
 49
-0.25
 74
     0
  0
LTYPE
  5
EF
330
5
100
AcDbSymbolTableRecord
100
AcDbLinetypeTableRecord
  2
BORDER2
 70
     0
  3
Border (.5x) __.__.__.__.__.__.__.__.__.__.__.
 72
    65
 73
     6
 40
0.875
 49
0.25
 74
     0
 49
-0.125
 74
     0
 49
0.25
 74
     0
 49
-0.125
 74
     0
 49
0.0
 74
     0
 49
-0.125
 74
     0
  0
LTYPE
  5
F0
330
5
100
AcDbSymbolTableRecord
100
AcDbLinetypeTableRecord
  2
BORDERX2
 70
     0
  3
Border (2x) ____  ____  .  ____  ____  .  ___
 72
    65
 73
     6
 40
3.5
 49
1.0
 74
     0
 49
-0.5
 74
     0
 49
1.0
 74
     0
 49
-0.5
 74
     0
 49
0.0
 74
     0
 49
-0.5
 74
     0
  0
LTYPE
  5
F1
330
5
100
AcDbSymbolTableRecord
100
AcDbLinetypeTableRecord
  2
CENTER
 70
     0
  3
Center ____ _ ____ _ ____ _ ____ _ ____ _ ____
 72
    65
 73
     4
 40
2.0
 49
1.25
 74
     0
 49
-0.25
 74
     0
 49
0.25
 74
     0
 49
-0.25
 74
     0
  0
LTYPE
  5
F2
330
5
100
AcDbSymbolTableRecord
100
AcDbLinetypeTableRecord
  2
CENTER2
 70
     0
  3
Center (.5x) ___ _ ___ _ ___ _ ___ _ ___ _ ___
 72
    65
 73
     4
 40
1.125
 49
0.75
 74
     0
 49
-0.125
 74
     0
 49
0.125
 74
     0
 49
-0.125
 74
     0
  0
LTYPE
  5
F3
330
5
100
AcDbSymbolTableRecord
100
AcDbLinetypeTableRecord
  2
CENTERX2
 70
     0
  3
Center (2x) ________  __  ________  __  _____
 72
    65
 73
     4
 40
4.0
 49
2.5
 74
     0
 49
-0.5
 74
     0
 49
0.5
 74
     0
 49
-0.5
 74
     0
  0
LTYPE
  5
F4
330
5
100
AcDbSymbolTableRecord
100
AcDbLinetypeTableRecord
  2
DASHDOT2
 70
     0
  3
Dash dot (.5x) _._._._._._._._._._._._._._._.
 72
    65
 73
     4
 40
0.5
 49
0.25
 74
     0
 49
-0.125
 74
     0
 49
0.0
 74
     0
 49
-0.125
 74
     0
  0
LTYPE
  5
F5
330
5
100
AcDbSymbolTableRecord
100
AcDbLinetypeTableRecord
  2
DASHDOTX2
 70
     0
  3
Dash dot (2x) ____  .  ____  .  ____  .  ___
 72
    65
 73
     4
 40
2.0
 49
1.0
 74
     0
 49
-0.5
 74
     0
 49
0.0
 74
     0
 49
-0.5
 74
     0
  0
LTYPE
  5
F7
330
5
100
AcDbSymbolTableRecord
100
AcDbLinetypeTableRecord
  2
DASHED2
 70
     0
  3
Dashed (.5x) _ _ _ _ _ _ _ _ _ _ _ _ _ _ _ _ _
 72
    65
 73
     2
 40
0.375
 49
0.25
 74
     0
 49
-0.125
 74
     0
  0
LTYPE
  5
F8
330
5
100
AcDbSymbolTableRecord
100
AcDbLinetypeTableRecord
  2
DASHEDX2
 70
     0
  3
Dashed (2x) ____  ____  ____  ____  ____  ___
 72
    65
 73
     2
 40
1.5
 49
1.0
 74
     0
 49
-0.5
 74
     0
  0
LTYPE
  5
F9
330
5
100
AcDbSymbolTableRecord
100
AcDbLinetypeTableRecord
  2
DIVIDE
 70
     0
  3
Divide ____ . . ____ . . ____ . . ____ . . ____
 72
    65
 73
     6
 40
1.25
 49
0.5
 74
     0
 49
-0.25
 74
     0
 49
0.0
 74
     0
 49
-0.25
 74
     0
 49
0.0
 74
     0
 49
-0.25
 74
     0
  0
LTYPE
  5
FA
330
5
100
AcDbSymbolTableRecord
100
AcDbLinetypeTableRecord
  2
DIVIDE2
 70
     0
  3
Divide (.5x) __..__..__..__..__..__..__..__.._
 72
    65
 73
     6
 40
0.625
 49
0.25
 74
     0
 49
-0.125
 74
     0
 49
0.0
 74
     0
 49
-0.125
 74
     0
 49
0.0
 74
     0
 49
-0.125
 74
     0
  0
LTYPE
  5
FB
330
5
100
AcDbSymbolTableRecord
100
AcDbLinetypeTableRecord
  2
DIVIDEX2
 70
     0
  3
Divide (2x) ________  .  .  ________  .  .  _
 72
    65
 73
     6
 40
2.5
 49
1.0
 74
     0
 49
-0.5
 74
     0
 49
0.0
 74
     0
 49
-0.5
 74
     0
 49
0.0
 74
     0
 49
-0.5
 74
     0
  0
LTYPE
  5
FC
330
5
100
AcDbSymbolTableRecord
100
AcDbLinetypeTableRecord
  2
DOT
 70
     0
  3
Dot . . . . . . . . . . . . . . . . . . . . . .
 72
    65
 73
     2
 40
0.25
 49
0.0
 74
     0
 49
-0.25
 74
     0
  0
LTYPE
  5
FD
330
5
100
AcDbSymbolTableRecord
100
AcDbLinetypeTableRecord
  2
DOT2
 70
     0
  3
Dot (.5x) .....................................
 72
    65
 73
     2
 40
0.125
 49
0.0
 74
     0
 49
-0.125
 74
     0
  0
LTYPE
  5
FE
330
5
100
AcDbSymbolTableRecord
100
AcDbLinetypeTableRecord
  2
DOTX2
 70
     0
  3
Dot (2x) .  .  .  .  .  .  .  .  .  .  .  .  . 
 72
    65
 73
     2
 40
0.5
 49
0.0
 74
     0
 49
-0.5
 74
     0
  0
LTYPE
  5
FF
330
5
100
AcDbSymbolTableRecord
100
AcDbLinetypeTableRecord
  2
HIDDEN
 70
     0
  3
Hidden __ __ __ __ __ __ __ __ __ __ __ __ __ _
 72
    65
 73
     2
 40
0.375
 49
0.25
 74
     0
 49
-0.125
 74
     0
  0
LTYPE
  5
100
330
5
100
AcDbSymbolTableRecord
100
AcDbLinetypeTableRecord
  2
HIDDEN2
 70
     0
  3
Hidden (.5x) _ _ _ _ _ _ _ _ _ _ _ _ _ _ _ _ _
 72
    65
 73
     2
 40
0.1875
 49
0.125
 74
     0
 49
-0.0625
 74
     0
  0
LTYPE
  5
101
330
5
100
AcDbSymbolTableRecord
100
AcDbLinetypeTableRecord
  2
HIDDENX2
 70
     0
  3
Hidden (2x) ____ ____ ____ ____ ____ ____ ____
 72
    65
 73
     2
 40
0.75
 49
0.5
 74
     0
 49
-0.25
 74
     0
  0
LTYPE
  5
102
330
5
100
AcDbSymbolTableRecord
100
AcDbLinetypeTableRecord
  2
PHANTOM
 70
     0
  3
Phantom ______  __  __  ______  __  __  ______
 72
    65
 73
     6
 40
2.5
 49
1.25
 74
     0
 49
-0.25
 74
     0
 49
0.25
 74
     0
 49
-0.25
 74
     0
 49
0.25
 74
     0
 49
-0.25
 74
     0
  0
LTYPE
  5
103
330
5
100
AcDbSymbolTableRecord
100
AcDbLinetypeTableRecord
  2
PHANTOM2
 70
     0
  3
Phantom (.5x) ___ _ _ ___ _ _ ___ _ _ ___ _ _
 72
    65
 73
     6
 40
1.25
 49
0.625
 74
     0
 49
-0.125
 74
     0
 49
0.125
 74
     0
 49
-0.125
 74
     0
 49
0.125
 74
     0
 49
-0.125
 74
     0
  0
LTYPE
  5
104
330
5
100
AcDbSymbolTableRecord
100
AcDbLinetypeTableRecord
  2
PHANTOMX2
 70
     0
  3
Phantom (2x) ____________    ____    ____   _
 72
    65
 73
     6
 40
5.0
 49
2.5
 74
     0
 49
-0.5
 74
     0
 49
0.5
 74
     0
 49
-0.5
 74
     0
 49
0.5
 74
     0
 49
-0.5
 74
     0
  0
LTYPE
  5
105
330
5
100
AcDbSymbolTableRecord
100
AcDbLinetypeTableRecord
  2
ACAD_ISO02W100
 70
     0
  3
ISO dash __ __ __ __ __ __ __ __ __ __ __ __ __
 72
    65
 73
     2
 40
0.59
 49
0.47
 74
     0
 49
-0.12
 74
     0
  0
LTYPE
  5
106
330
5
100
AcDbSymbolTableRecord
100
AcDbLinetypeTableRecord
  2
ACAD_ISO03W100
 70
     0
  3
ISO dash space __    __    __    __    __    __
 72
    65
 73
     2
 40
1.179999999999999
 49
0.47
 74
     0
 49
-0.71
 74
     0
  0
LTYPE
  5
107
330
5
100
AcDbSymbolTableRecord
100
AcDbLinetypeTableRecord
  2
ACAD_ISO04W100
 70
     0
  3
ISO long-dash dot ____ . ____ . ____ . ____ . _
 72
    65
 73
     4
 40
1.179999999999999
 49
0.9399999999999998
 74
     0
 49
-0.12
 74
     0
 49
0.0
 74
     0
 49
-0.12
 74
     0
  0
LTYPE
  5
108
330
5
100
AcDbSymbolTableRecord
100
AcDbLinetypeTableRecord
  2
ACAD_ISO05W100
 70
     0
  3
ISO long-dash double-dot ____ .. ____ .. ____ .
 72
    65
 73
     6
 40
1.299999999999999
 49
0.9399999999999998
 74
     0
 49
-0.12
 74
     0
 49
0.0
 74
     0
 49
-0.12
 74
     0
 49
0.0
 74
     0
 49
-0.12
 74
     0
  0
LTYPE
  5
109
330
5
100
AcDbSymbolTableRecord
100
AcDbLinetypeTableRecord
  2
ACAD_ISO06W100
 70
     0
  3
ISO long-dash triple-dot ____ ... ____ ... ____
 72
    65
 73
     8
 40
1.419999999999999
 49
0.9399999999999998
 74
     0
 49
-0.12
 74
     0
 49
0.0
 74
     0
 49
-0.12
 74
     0
 49
0.0
 74
     0
 49
-0.12
 74
     0
 49
0.0
 74
     0
 49
-0.12
 74
     0
  0
LTYPE
  5
10A
330
5
100
AcDbSymbolTableRecord
100
AcDbLinetypeTableRecord
  2
ACAD_ISO07W100
 70
     0
  3
ISO dot . . . . . . . . . . . . . . . . . . . .
 72
    65
 73
     2
 40
0.12
 49
0.0
 74
     0
 49
-0.12
 74
     0
  0
LTYPE
  5
10B
330
5
100
AcDbSymbolTableRecord
100
AcDbLinetypeTableRecord
  2
ACAD_ISO08W100
 70
     0
  3
ISO long-dash short-dash ____ __ ____ __ ____ _
 72
    65
 73
     4
 40
0.95
 49
0.47
 74
     0
 49
-0.12
 74
     0
 49
0.24
 74
     0
 49
-0.12
 74
     0
  0
LTYPE
  5
10C
330
5
100
AcDbSymbolTableRecord
100
AcDbLinetypeTableRecord
  2
ACAD_ISO09W100
 70
     0
  3
ISO long-dash double-short-dash ____ __ __ ____
 72
    65
 73
     6
 40
1.31
 49
0.47
 74
     0
 49
-0.12
 74
     0
 49
0.24
 74
     0
 49
-0.12
 74
     0
 49
0.24
 74
     0
 49
-0.12
 74
     0
  0
LTYPE
  5
10D
330
5
100
AcDbSymbolTableRecord
100
AcDbLinetypeTableRecord
  2
ACAD_ISO10W100
 70
     0
  3
ISO dash dot __ . __ . __ . __ . __ . __ . __ .
 72
    65
 73
     4
 40
0.71
 49
0.47
 74
     0
 49
-0.12
 74
     0
 49
0.0
 74
     0
 49
-0.12
 74
     0
  0
LTYPE
  5
10E
330
5
100
AcDbSymbolTableRecord
100
AcDbLinetypeTableRecord
  2
ACAD_ISO11W100
 70
     0
  3
ISO double-dash dot __ __ . __ __ . __ __ . __ 
 72
    65
 73
     6
 40
1.299999999999999
 49
0.47
 74
     0
 49
-0.12
 74
     0
 49
0.47
 74
     0
 49
-0.12
 74
     0
 49
0.0
 74
     0
 49
-0.12
 74
     0
  0
LTYPE
  5
10F
330
5
100
AcDbSymbolTableRecord
100
AcDbLinetypeTableRecord
  2
ACAD_ISO12W100
 70
     0
  3
ISO dash double-dot __ . . __ . . __ . . __ . .
 72
    65
 73
     6
 40
0.8299999999999998
 49
0.47
 74
     0
 49
-0.12
 74
     0
 49
0.0
 74
     0
 49
-0.12
 74
     0
 49
0.0
 74
     0
 49
-0.12
 74
     0
  0
LTYPE
  5
110
330
5
100
AcDbSymbolTableRecord
100
AcDbLinetypeTableRecord
  2
ACAD_ISO13W100
 70
     0
  3
ISO double-dash double-dot __ __ . . __ __ . . 
 72
    65
 73
     8
 40
1.419999999999999
 49
0.47
 74
     0
 49
-0.12
 74
     0
 49
0.47
 74
     0
 49
-0.12
 74
     0
 49
0.0
 74
     0
 49
-0.12
 74
     0
 49
0.0
 74
     0
 49
-0.12
 74
     0
  0
LTYPE
  5
111
330
5
100
AcDbSymbolTableRecord
100
AcDbLinetypeTableRecord
  2
ACAD_ISO14W100
 70
     0
  3
ISO dash triple-dot __ . . . __ . . . __ . . . 
 72
    65
 73
     8
 40
0.95
 49
0.47
 74
     0
 49
-0.12
 74
     0
 49
0.0
 74
     0
 49
-0.12
 74
     0
 49
0.0
 74
     0
 49
-0.12
 74
     0
 49
0.0
 74
     0
 49
-0.12
 74
     0
  0
LTYPE
  5
112
330
5
100
AcDbSymbolTableRecord
100
AcDbLinetypeTableRecord
  2
ACAD_ISO15W100
 70
     0
  3
ISO double-dash triple-dot __ __ . . . __ __ . 
 72
    65
 73
    10
 40
1.539999999999999
 49
0.47
 74
     0
 49
-0.12
 74
     0
 49
0.47
 74
     0
 49
-0.12
 74
     0
 49
0.0
 74
     0
 49
-0.12
 74
     0
 49
0.0
 74
     0
 49
-0.12
 74
     0
 49
0.0
 74
     0
 49
-0.12
 74
     0
  0
LTYPE
  5
115
330
5
100
AcDbSymbolTableRecord
100
AcDbLinetypeTableRecord
  2
FENCELINE1
 70
     0
  3
Fenceline circle ----0-----0----0-----0----0---
 72
    65
 73
     4
 40
1.45
 49
0.25
 74
     0
 49
-0.1
 74
     4
 75
   133
340
114
 46
0.1
 50
0.0
 44
-0.1
 45
0.0
 49
-0.1
 74
     0
 49
1.0
 74
     0
  0
LTYPE
  5
116
330
5
100
AcDbSymbolTableRecord
100
AcDbLinetypeTableRecord
  2
FENCELINE2
 70
     0
  3
Fenceline square ----[]-----[]----[]-----[]----
 72
    65
 73
     4
 40
1.45
 49
0.25
 74
     0
 49
-0.1
 74
     4
 75
   132
340
114
 46
0.1
 50
0.0
 44
-0.1
 45
0.0
 49
-0.1
 74
     0
 49
1.0
 74
     0
  0
LTYPE
  5
117
330
5
100
AcDbSymbolTableRecord
100
AcDbLinetypeTableRecord
  2
TRACKS
 70
     0
  3
Tracks -|-|-|-|-|-|-|-|-|-|-|-|-|-|-|-|-|-|-|-|
 72
    65
 73
     2
 40
0.3
 49
0.15
 74
     4
 75
   130
340
114
 46
0.25
 50
0.0
 44
0.0
 45
0.0
 49
0.15
 74
     0
  0
LTYPE
  5
118
330
5
100
AcDbSymbolTableRecord
100
AcDbLinetypeTableRecord
  2
BATTING
 70
     0
  3
Batting SSSSSSSSSSSSSSSSSSSSSSSSSSSSSSSSSSSSSSS
 72
    65
 73
     4
 40
0.4001000000000001
 49
0.0001
 74
     0
 49
-0.1
 74
     4
 75
   134
340
114
 46
0.1
 50
0.0
 44
-0.1
 45
0.0
 49
-0.2
 74
     4
 75
   134
340
114
 46
0.1
 50
180.0
 44
0.1
 45
0.0
 49
-0.1
 74
     0
  0
LTYPE
  5
119
330
5
100
AcDbSymbolTableRecord
100
AcDbLinetypeTableRecord
  2
HOT_WATER_SUPPLY
 70
     0
  3
Hot water supply ---- HW ---- HW ---- HW ----
 72
    65
 73
     3
 40
0.9
 49
0.5
 74
     0
 49
-0.2
 74
     2
 75
     0
340
55
 46
0.1
 50
0.0
 44
-0.1
 45
-0.05
  9
HW
 49
-0.2
 74
     0
  0
LTYPE
  5
11A
330
5
100
AcDbSymbolTableRecord
100
AcDbLinetypeTableRecord
  2
GAS_LINE
 70
     0
  3
Gas line ----GAS----GAS----GAS----GAS----GAS---
 72
    65
 73
     3
 40
0.95
 49
0.5
 74
     0
 49
-0.2
 74
     2
 75
     0
340
55
 46
0.1
 50
0.0
 44
-0.1
 45
-0.05
  9
GAS
 49
-0.25
 74
     0
  0
LTYPE
  5
11B
330
5
100
AcDbSymbolTableRecord
100
AcDbLinetypeTableRecord
  2
ZIGZAG
 70
     0
  3
Zig zag /\/\/\/\/\/\/\/\/\/\/\/\/\/\/\/\/\/\/\/
 72
    65
 73
     4
 40
0.8001000000000001
 49
0.0001
 74
     0
 49
-0.2
 74
     4
 75
   131
340
114
 46
0.2
 50
0.0
 44
-0.2
 45
0.0
 49
-0.4
 74
     4
 75
   131
340
114
 46
0.2
 50
180.0
 44
0.2
 45
0.0
 49
-0.2
 74
     0
  0
LTYPE
  5
135
330
5
100
AcDbSymbolTableRecord
100
AcDbLinetypeTableRecord
  2
AM_ISO02W050
 70
     0
  3
_ 
 72
    65
 73
     2
 40
197.3684310913086
 49
157.8947448730469
 74
     0
 49
-39.47368621826172
 74
     0
  0
LTYPE
  5
136
330
5
100
AcDbSymbolTableRecord
100
AcDbLinetypeTableRecord
  2
AM_ISO08W050
 70
     0
  3
_ _ 
 72
    65
 73
     4
 40
473.6842346191406
 49
315.7894897460938
 74
     0
 49
-39.47368621826172
 74
     0
 49
78.94737243652343
 74
     0
 49
-39.47368621826172
 74
     0
  0
LTYPE
  5
137
330
5
100
AcDbSymbolTableRecord
100
AcDbLinetypeTableRecord
  2
AM_ISO09W050
 70
     0
  3
_ _ _ 
 72
    65
 73
     6
 40
592.1052932739257
 49
315.7894897460938
 74
     0
 49
-39.47368621826172
 74
     0
 49
78.94737243652343
 74
     0
 49
-39.47368621826172
 74
     0
 49
78.94737243652343
 74
     0
 49
-39.47368621826172
 74
     0
  0
LTYPE
  5
138
330
5
100
AcDbSymbolTableRecord
100
AcDbLinetypeTableRecord
  2
Amconstr
 70
     0
  3
_.
 72
    65
 73
     2
 40
263131.59375
 49
263131.59375
 74
     0
 49
0.0
 74
     0
  0
LTYPE
  5
139
330
5
100
AcDbSymbolTableRecord
100
AcDbLinetypeTableRecord
  2
AM_ISO08W050x2
 70
     0
  3
_ _ 
 72
    65
 73
     4
 40
236.8421173095703
 49
157.8947448730469
 74
     0
 49
-19.73684310913086
 74
     0
 49
39.47368621826172
 74
     0
 49
-19.73684310913086
 74
     0
  0
LTYPE
  5
13A
330
5
100
AcDbSymbolTableRecord
100
AcDbLinetypeTableRecord
  2
AM_ISO02W050x2
 70
     0
  3
_ 
 72
    65
 73
     2
 40
98.68421554565429
 49
78.94737243652343
 74
     0
 49
-19.73684310913086
 74
     0
  0
LTYPE
  5
13B
330
5
100
AcDbSymbolTableRecord
100
AcDbLinetypeTableRecord
  2
ACANSTGB
 70
     0
  3
_ _ _ 
 72
    65
 73
     6
 40
9.324492573738098
 49
4.144218921661376
 74
     0
 49
-1.036054730415344
 74
     0
 49
1.036054730415344
 74
     0
 49
-1.036054730415344
 74
     0
 49
1.036054730415344
 74
     0
 49
-1.036054730415344
 74
     0
  0
LTYPE
  5
13C
330
5
100
AcDbSymbolTableRecord
100
AcDbLinetypeTableRecord
  2
ACANSTGL
 70
     0
  3
_ 
 72
    65
 73
     2
 40
3.108164191246032
 49
2.072109460830688
 74
     0
 49
-1.036054730415344
 74
     0
  0
ENDTAB
  0
TABLE
  2
LAYER
  5
2
330
0
100
AcDbSymbolTable
 70
    27
  0
LAYER
  5
54
330
2
100
AcDbSymbolTableRecord
100
AcDbLayerTableRecord
  2
0
 70
     0
 62
     7
  6
Continuous
370
    18
390
F
  0
LAYER
  5
75
330
2
100
AcDbSymbolTableRecord
100
AcDbLayerTableRecord
  2
Symbol (ANSI)
 70
     0
 62
     7
  6
Continuous
370
    18
390
F
  0
LAYER
  5
125
330
2
100
AcDbSymbolTableRecord
100
AcDbLayerTableRecord
  2
Dimension (ANSI)
 70
     0
 62
     7
  6
Continuous
370
    13
390
F
  0
LAYER
  5
127
330
2
100
AcDbSymbolTableRecord
100
AcDbLayerTableRecord
  2
Hidden (ANSI)
 70
     0
 62
     7
  6
DASHED
370
    15
390
F
  0
LAYER
  5
130
330
2
100
AcDbSymbolTableRecord
100
AcDbLayerTableRecord
  2
Visible (ANSI)
 70
     0
 62
     7
  6
Continuous
370
    13
390
F
  0
LAYER
  5
1C8
330
2
100
AcDbSymbolTableRecord
100
AcDbLayerTableRecord
  2
Defpoints
 70
     0
 62
     7
  6
Continuous
290
     0
370
    -3
390
F
  0
ENDTAB
  0
TABLE
  2
STYLE
  5
3
330
0
100
AcDbSymbolTable
 70
    18
  0
STYLE
  5
55
330
3
100
AcDbSymbolTableRecord
100
AcDbTextStyleTableRecord
  2
Standard
 70
     0
 40
0.0
 41
1.0
 50
0.0
 71
     0
 42
0.2
  3
txt
  4

  0
STYLE
  5
5A
330
3
100
AcDbSymbolTableRecord
100
AcDbTextStyleTableRecord
  2
Annotative
 70
     0
 40
0.0
 41
1.0
 50
0.0
 71
     0
 42
0.2
  3
txt
  4

1001
AcadAnnotative
1000
AnnotativeData
1002
{
1070
     1
1070
     1
1002
}
  0
STYLE
  5
76
330
3
100
AcDbSymbolTableRecord
100
AcDbTextStyleTableRecord
  2
Note Text (ANSI)
 70
     0
 40
0.0
 41
1.0
 50
0.0
 71
     0
 42
0.2
  3
TAHOMA.TTF
  4

1001
ACAD
1000
Tahoma
1071
      256
  0
STYLE
  5
78
330
3
100
AcDbSymbolTableRecord
100
AcDbTextStyleTableRecord
  2
SANSSERIF
 70
     0
 40
0.0
 41
1.0
 50
0.0
 71
     0
 42
0.125
  3
sas_____.pfb
  4

  0
STYLE
  5
114
330
3
100
AcDbSymbolTableRecord
100
AcDbTextStyleTableRecord
  2

 70
     1
 40
0.0
 41
1.0
 50
0.0
 71
     0
 42
0.2
  3
ltypeshp.shx
  4

  0
STYLE
  5
13D
330
3
100
AcDbSymbolTableRecord
100
AcDbTextStyleTableRecord
  2
ITALICC_120
 70
     0
 40
0.0
 41
1.0
 50
0.0
 71
     0
 42
0.2
  3
italicc.shx
  4

  0
STYLE
  5
13E
330
3
100
AcDbSymbolTableRecord
100
AcDbTextStyleTableRecord
  2
Label Text (ANSI)
 70
     0
 40
0.0
 41
1.0
 50
0.0
 71
     0
 42
0.2
  3
TAHOMA.TTF
  4

1001
ACAD
1000
Tahoma
1071
      256
  0
STYLE
  5
13F
330
3
100
AcDbSymbolTableRecord
100
AcDbTextStyleTableRecord
  2
ROMANS
 70
     0
 40
0.0
 41
1.0
 50
0.0
 71
     0
 42
0.2
  3
romans.shx
  4

  0
STYLE
  5
140
330
3
100
AcDbSymbolTableRecord
100
AcDbTextStyleTableRecord
  2
SANSSERIF_114
 70
     0
 40
0.0
 41
1.0
 50
0.0
 71
     0
 42
0.2
  3
TAHOMA.TTF
  4

1001
ACAD
1000
Tahoma
1071
      256
  0
STYLE
  5
141
330
3
100
AcDbSymbolTableRecord
100
AcDbTextStyleTableRecord
  2
SANSSERIF_117
 70
     0
 40
0.0
 41
1.0
 50
0.0
 71
     0
 42
0.2
  3
TAHOMA.TTF
  4

1001
ACAD
1000
Tahoma
1071
      256
  0
STYLE
  5
142
330
3
100
AcDbSymbolTableRecord
100
AcDbTextStyleTableRecord
  2
STANDARDAM_ANSI
 70
     0
 40
0.0
 41
1.0
 50
0.0
 71
     0
 42
0.2
  3
txt.shx
  4

  0
STYLE
  5
143
330
3
100
AcDbSymbolTableRecord
100
AcDbTextStyleTableRecord
  2
StandardAM_ANSI$0
 70
     0
 40
0.0
 41
1.0
 50
0.0
 71
     0
 42
0.2
  3
txt.shx
  4

  0
STYLE
  5
144
330
3
100
AcDbSymbolTableRecord
100
AcDbTextStyleTableRecord
  2
STANDARDAM_ANSI$3
 70
     0
 40
0.0
 41
1.0
 50
0.0
 71
     0
 42
0.2
  3
txt.shx
  4

  0
STYLE
  5
145
330
3
100
AcDbSymbolTableRecord
100
AcDbTextStyleTableRecord
  2
STANDARDAM_ANSI$4
 70
     0
 40
0.0
 41
1.0
 50
0.0
 71
     0
 42
0.2
  3
txt.shx
  4

  0
STYLE
  5
146
330
3
100
AcDbSymbolTableRecord
100
AcDbTextStyleTableRecord
  2
STANDARDAM_ANSI$7
 70
     0
 40
0.0
 41
1.0
 50
0.0
 71
     0
 42
0.2
  3
txt.shx
  4

  0
STYLE
  5
147
330
3
100
AcDbSymbolTableRecord
100
AcDbTextStyleTableRecord
  2
STANDARDAM_ANSI$SF
 70
     0
 40
0.0
 41
1.0
 50
0.0
 71
     0
 42
0.2
  3
txt.shx
  4

  0
STYLE
  5
148
330
3
100
AcDbSymbolTableRecord
100
AcDbTextStyleTableRecord
  2
STANDARDAM_ANSI$SH
 70
     0
 40
0.0
 41
1.0
 50
0.0
 71
     0
 42
0.2
  3
txt.shx
  4

  0
STYLE
  5
149
330
3
100
AcDbSymbolTableRecord
100
AcDbTextStyleTableRecord
  2
STANDARDSTANDARD
 70
     0
 40
0.0
 41
1.0
 50
0.0
 71
     0
 42
0.2
  3
txt.shx
  4

  0
ENDTAB
  0
TABLE
  2
VIEW
  5
6
330
0
100
AcDbSymbolTable
 70
     0
  0
ENDTAB
  0
TABLE
  2
UCS
  5
7
330
0
100
AcDbSymbolTable
 70
     0
  0
ENDTAB
  0
TABLE
  2
APPID
  5
9
330
0
100
AcDbSymbolTable
 70
     4
  0
APPID
  5
56
330
9
100
AcDbSymbolTableRecord
100
AcDbRegAppTableRecord
  2
ACAD
 70
     0
  0
APPID
  5
5E
330
9
100
AcDbSymbolTableRecord
100
AcDbRegAppTableRecord
  2
AcadAnnotative
 70
     0
  0
APPID
  5
9ED
330
9
100
AcDbSymbolTableRecord
100
AcDbRegAppTableRecord
  2
ACAD_DSTYLE_DIMRADIAL_EXTENSION
 70
     0
  0
APPID
  5
BF6
330
9
100
AcDbSymbolTableRecord
100
AcDbRegAppTableRecord
  2
ACAD_MLEADERVER
 70
     0
  0
ENDTAB
  0
TABLE
  2
DIMSTYLE
  5
A
330
0
100
AcDbSymbolTable
 70
    27
100
AcDbDimStyleTable
 71
     2
340
15E
340
58
  0
DIMSTYLE
105
58
330
A
100
AcDbSymbolTableRecord
100
AcDbDimStyleTableRecord
  2
STANDARD
 70
     0
 41
0.1800000071525573
 42
0.0625
140
0.1800000071525574
144
1.0
147
0.0900000035762787
176
   256
177
   256
178
   256
274
     3
340
55
371
    -1
372
    -1
  0
DIMSTYLE
105
59
330
A
100
AcDbSymbolTableRecord
100
AcDbDimStyleTableRecord
  2
Annotative
 70
     0
340
55
1001
AcadAnnotative
1000
AnnotativeData
1002
{
1070
     1
1070
     1
1002
}
  0
DIMSTYLE
105
14A
330
A
100
AcDbSymbolTableRecord
100
AcDbDimStyleTableRecord
  2
AM_ANSI
 70
     0
  4
 mm
 40
2.0
 41
0.119999997317791
 42
0.05
 43
0.5
 44
0.1
 45
0.00000001
 78
     4
 79
     2
140
0.1200000047683716
146
0.7099999453624112
147
0.0599999986588955
176
   256
177
   256
178
     2
284
     4
340
142
371
    -1
372
    -1
  0
DIMSTYLE
105
14B
330
A
100
AcDbSymbolTableRecord
100
AcDbDimStyleTableRecord
  2
AM_ANSI$7
 70
     0
  4
 mm
 40
2.0
 41
0.119999997317791
 42
0.05
 43
0.5
 44
0.1
 45
0.00000001
 78
     4
 79
     2
140
0.1200000047683716
146
0.7099999453624112
147
0.0599999986588955
176
   256
177
   256
178
     2
284
     4
340
142
371
    -1
372
    -1
  0
DIMSTYLE
105
14C
330
A
100
AcDbSymbolTableRecord
100
AcDbDimStyleTableRecord
  2
AM_ANSI$0
 70
     0
  4
 mm
 40
2.0
 41
0.119999997317791
 42
0.05
 43
0.5
 44
0.1
 45
0.00000001
 78
     4
 79
     2
140
0.1200000047683716
146
0.7099999453624112
147
0.0599999986588955
176
   256
177
   256
178
     2
284
     4
340
143
371
    -1
372
    -1
  0
DIMSTYLE
105
14D
330
A
100
AcDbSymbolTableRecord
100
AcDbDimStyleTableRecord
  2
AM_ANSI$0$7
 70
     0
  4
 mm
 40
2.0
 41
0.119999997317791
 42
0.05
 43
0.5
 44
0.1
 45
0.00000001
 78
     4
 79
     2
140
0.1200000047683716
146
0.7099999453624112
147
0.0599999986588955
176
   256
177
   256
178
     2
284
     4
340
143
371
    -1
372
    -1
  0
DIMSTYLE
105
14E
330
A
100
AcDbSymbolTableRecord
100
AcDbDimStyleTableRecord
  2
AM_ANSI$3
 70
     0
  4
 mm
 40
2.0
 41
0.119999997317791
 42
0.05
 43
0.5
 44
0.1
 45
0.00000001
 78
     4
 79
     2
140
0.1200000047683716
146
0.7099999453624112
147
0.0599999986588955
176
   256
177
   256
178
     2
284
     4
340
144
371
    -1
372
    -1
  0
DIMSTYLE
105
14F
330
A
100
AcDbSymbolTableRecord
100
AcDbDimStyleTableRecord
  2
AM_ANSI$3$7
 70
     0
  4
 mm
 40
2.0
 41
0.119999997317791
 42
0.05
 43
0.5
 44
0.1
 45
0.00000001
 78
     4
 79
     2
140
0.1200000047683716
146
0.7099999453624112
147
0.0599999986588955
176
   256
177
   256
178
     2
284
     4
340
144
371
    -1
372
    -1
  0
DIMSTYLE
105
150
330
A
100
AcDbSymbolTableRecord
100
AcDbDimStyleTableRecord
  2
AM_ANSI$4
 70
     0
  4
 mm
 40
2.0
 41
0.119999997317791
 42
0.05
 43
0.5
 44
0.1
 45
0.00000001
 78
     4
 79
     2
140
0.1200000047683716
146
0.7099999453624112
147
0.0599999986588955
176
   256
177
   256
178
     2
284
     4
340
145
371
    -1
372
    -1
  0
DIMSTYLE
105
151
330
A
100
AcDbSymbolTableRecord
100
AcDbDimStyleTableRecord
  2
AM_ANSI$4$7
 70
     0
  4
 mm
 40
2.0
 41
0.119999997317791
 42
0.05
 43
0.5
 44
0.1
 45
0.00000001
 78
     4
 79
     2
140
0.1200000047683716
146
0.7099999453624112
147
0.0599999986588955
176
   256
177
   256
178
     2
284
     4
340
145
371
    -1
372
    -1
  0
DIMSTYLE
105
152
330
A
100
AcDbSymbolTableRecord
100
AcDbDimStyleTableRecord
  2
AM_ANSI$SF
 70
     0
  4
 mm
 40
2.0
 41
0.119999997317791
 42
0.05
 43
0.5
 44
0.1
 45
0.00000001
 75
     1
 76
     1
 78
     4
 79
     2
140
0.1200000047683716
146
0.7099999453624112
147
0.0599999986588955
176
   256
177
   256
178
     2
284
     4
340
147
371
    -1
372
    -1
  0
DIMSTYLE
105
153
330
A
100
AcDbSymbolTableRecord
100
AcDbDimStyleTableRecord
  2
AM_ANSI$SF$7
 70
     0
  4
 mm
 40
2.0
 41
0.119999997317791
 42
0.05
 43
0.5
 44
0.1
 45
0.00000001
 75
     1
 76
     1
 78
     4
 79
     2
140
0.1200000047683716
146
0.7099999453624112
147
0.0599999986588955
176
   256
177
   256
178
     2
284
     4
340
147
371
    -1
372
    -1
  0
DIMSTYLE
105
154
330
A
100
AcDbSymbolTableRecord
100
AcDbDimStyleTableRecord
  2
AM_ANSI$SH
 70
     0
  4
 mm
 40
2.0
 41
0.119999997317791
 42
0.05
 43
0.5
 44
0.1
 45
0.00000001
 75
     1
 76
     1
 78
     4
 79
     2
140
0.1200000047683716
146
0.7099999453624112
147
0.0599999986588955
176
   256
177
   256
178
     2
284
     4
340
148
371
    -1
372
    -1
  0
DIMSTYLE
105
155
330
A
100
AcDbSymbolTableRecord
100
AcDbDimStyleTableRecord
  2
AM_ANSI$SH$7
 70
     0
  4
 mm
 40
2.0
 41
0.119999997317791
 42
0.05
 43
0.5
 44
0.1
 45
0.00000001
 75
     1
 76
     1
 78
     4
 79
     2
140
0.1200000047683716
146
0.7099999453624112
147
0.0599999986588955
176
   256
177
   256
178
     2
284
     4
340
148
371
    -1
372
    -1
  0
DIMSTYLE
105
156
330
A
100
AcDbSymbolTableRecord
100
AcDbDimStyleTableRecord
  2
Architectural (ANSI)
 70
     0
 40
2.0
 41
0.0984251946210861
 43
0.2362204724409449
 44
0.125
 45
0.00000001
 46
0.3937007874015748
 78
     3
 79
     3
140
0.1200000047683716
147
0.031496062992126
171
     1
176
   256
177
   256
178
   256
272
     2
274
     1
276
     2
277
     4
284
    12
285
     4
286
    12
340
76
371
    -1
372
    -1
  0
DIMSTYLE
105
157
330
A
100
AcDbSymbolTableRecord
100
AcDbDimStyleTableRecord
  2
Architectural (ANSI)$7
 70
     0
 40
2.0
 41
0.0984251946210861
 43
0.2362204724409449
 44
0.125
 45
0.00000001
 46
0.3937007874015748
 78
     3
 79
     3
140
0.1200000047683716
147
0.031496062992126
171
     1
176
   256
177
   256
178
   256
272
     2
274
     1
276
     2
277
     4
284
    12
285
     4
286
    12
340
76
371
    -1
372
    -1
  0
DIMSTYLE
105
158
330
A
100
AcDbSymbolTableRecord
100
AcDbDimStyleTableRecord
  2
Default - Fraction (ANSI)
 70
     0
 40
2.0
 41
0.0984251946210861
 43
0.2362204724409449
 44
0.125
 45
0.00000001
 46
0.3937007874015748
 79
     3
140
0.1200000047683716
147
0.031496062992126
171
     1
176
   256
177
   256
178
   256
272
     2
274
     1
276
     2
277
     5
284
    12
285
     4
286
    12
340
76
371
    -1
372
    -1
  0
DIMSTYLE
105
159
330
A
100
AcDbSymbolTableRecord
100
AcDbDimStyleTableRecord
  2
Default - Fraction (ANSI)$7
 70
     0
 40
2.0
 41
0.0984251946210861
 43
0.2362204724409449
 44
0.125
 45
0.00000001
 46
0.3937007874015748
 79
     3
140
0.1200000047683716
147
0.031496062992126
171
     1
176
   256
177
   256
178
   256
272
     2
274
     1
276
     2
277
     5
284
    12
285
     4
286
    12
340
76
371
    -1
372
    -1
  0
DIMSTYLE
105
15A
330
A
100
AcDbSymbolTableRecord
100
AcDbDimStyleTableRecord
  2
Default - mm (ANSI)
 70
     0
 40
2.0
 41
0.0984251946210861
 42
0.063
 43
0.2362204724409449
 44
0.125
 45
0.00000001
 46
0.3937007874015748
 73
     0
 78
     4
 79
     1
140
0.1200000047683716
143
1.0
144
25.4
147
0.031496062992126
171
     1
176
   256
177
   256
178
   256
179
     1
271
     2
272
     2
274
     1
284
     4
285
     4
340
76
371
    -1
372
    -1
  0
DIMSTYLE
105
15B
330
A
100
AcDbSymbolTableRecord
100
AcDbDimStyleTableRecord
  2
Default - mm (ANSI)$7
 70
     0
 40
2.0
 41
0.0984251946210861
 42
0.063
 43
0.2362204724409449
 44
0.125
 45
0.00000001
 46
0.3937007874015748
 73
     0
 78
     4
 79
     1
140
0.1200000047683716
143
1.0
144
25.4
147
0.031496062992126
171
     1
176
   256
177
   256
178
   256
179
     1
271
     2
272
     2
274
     1
284
     4
285
     4
340
76
371
    -1
372
    -1
  0
DIMSTYLE
105
15C
330
A
100
AcDbSymbolTableRecord
100
AcDbDimStyleTableRecord
  2
Default - mm [in] (ANSI)
 70
     0
  4
 in
 40
2.0
 41
0.0984251946210861
 42
0.063
 43
0.25
 44
0.125
 45
0.00000001
 46
0.3937007874015748
 73
     0
 78
     4
 79
     1
140
0.1200000047683716
143
0.03937
144
25.4
147
0.031496062992126
170
     1
171
     3
176
   256
177
   256
178
   256
179
     1
271
     2
272
     2
274
     3
284
     4
285
     4
286
     4
340
76
371
    -1
372
    -1
  0
DIMSTYLE
105
15D
330
A
100
AcDbSymbolTableRecord
100
AcDbDimStyleTableRecord
  2
Default - mm [in] (ANSI)$7
 70
     0
  4
 in
 40
2.0
 41
0.0984251946210861
 42
0.063
 43
0.25
 44
0.125
 45
0.00000001
 46
0.3937007874015748
 73
     0
 78
     4
 79
     1
140
0.1200000047683716
143
0.03937
144
25.4
147
0.031496062992126
170
     1
171
     3
176
   256
177
   256
178
   256
179
     1
271
     2
272
     2
274
     3
284
     4
285
     4
286
     4
340
76
371
    -1
372
    -1
  0
DIMSTYLE
105
15E
102
{ACAD_REACTORS
330
1C6
330
2B3
330
39D
330
495
330
595
330
67F
330
76B
330
86A
330
954
330
A0E
330
AC7
102
}
330
A
100
AcDbSymbolTableRecord
100
AcDbDimStyleTableRecord
  2
Default (ANSI)
 70
     0
 40
2.0
 41
0.0984251946210861
 43
0.2362204724409449
 44
0.125
 45
0.00000001
 46
0.3937007874015748
 79
     1
140
0.1200000047683716
147
0.031496062992126
171
     1
176
   256
177
   256
178
   256
271
     2
272
     2
274
     1
284
     4
285
     4
340
76
371
    -1
372
    -1
  0
DIMSTYLE
105
15F
330
A
100
AcDbSymbolTableRecord
100
AcDbDimStyleTableRecord
  2
Default (ANSI)$7
 70
     0
 40
2.0
 41
0.0984251946210861
 43
0.2362204724409449
 44
0.125
 45
0.00000001
 46
0.3937007874015748
 79
     1
140
0.1200000047683716
147
0.031496062992126
171
     1
176
   256
177
   256
178
   256
271
     2
272
     2
274
     1
284
     4
285
     4
340
76
371
    -1
372
    -1
  0
DIMSTYLE
105
160
330
A
100
AcDbSymbolTableRecord
100
AcDbDimStyleTableRecord
  2
Alternate (ANSI)
 70
     0
 40
2.0
 41
0.0979999974370003
340
55
342
161
  0
DIMSTYLE
105
173
330
A
100
AcDbSymbolTableRecord
100
AcDbDimStyleTableRecord
  2
Datum (ANSI)
 70
     0
 40
2.0
 41
0.0979999974370003
340
55
342
161
  0
DIMSTYLE
105
182
330
A
100
AcDbSymbolTableRecord
100
AcDbDimStyleTableRecord
  2
Large (ANSI)
 70
     0
 40
2.0
 41
0.1959999948740005
340
55
342
161
  0
ENDTAB
  0
TABLE
  2
BLOCK_RECORD
  5
1
330
0
100
AcDbSymbolTable
 70
    15
  0
BLOCK_RECORD
  5
6C
330
1
100
AcDbSymbolTableRecord
100
AcDbBlockTableRecord
  2
*Model_Space
340
6F
  0
BLOCK_RECORD
  5
68
330
1
100
AcDbSymbolTableRecord
100
AcDbBlockTableRecord
  2
*Paper_Space
340
6B
  0
BLOCK_RECORD
  5
70
330
1
100
AcDbSymbolTableRecord
100
AcDbBlockTableRecord
  2
*Paper_Space0
340
73
  0
BLOCK_RECORD
  5
161
330
1
100
AcDbSymbolTableRecord
100
AcDbBlockTableRecord
  2
_Closed
340
0
  0
BLOCK_RECORD
  5
168
330
1
100
AcDbSymbolTableRecord
100
AcDbBlockTableRecord
  2
DatumFilled45
340
0
  0
BLOCK_RECORD
  5
174
330
1
100
AcDbSymbolTableRecord
100
AcDbBlockTableRecord
  2
Filled-1
340
0
  0
BLOCK_RECORD
  5
1C9
330
1
100
AcDbSymbolTableRecord
100
AcDbBlockTableRecord
  2
*D4
340
0
  0
BLOCK_RECORD
  5
2B4
330
1
100
AcDbSymbolTableRecord
100
AcDbBlockTableRecord
  2
*D5
340
0
  0
BLOCK_RECORD
  5
39E
330
1
100
AcDbSymbolTableRecord
100
AcDbBlockTableRecord
  2
*D6
340
0
  0
BLOCK_RECORD
  5
496
330
1
100
AcDbSymbolTableRecord
100
AcDbBlockTableRecord
  2
*D7
340
0
  0
BLOCK_RECORD
  5
596
330
1
100
AcDbSymbolTableRecord
100
AcDbBlockTableRecord
  2
*D8
340
0
  0
BLOCK_RECORD
  5
680
330
1
100
AcDbSymbolTableRecord
100
AcDbBlockTableRecord
  2
*D9
340
0
  0
BLOCK_RECORD
  5
76C
330
1
100
AcDbSymbolTableRecord
100
AcDbBlockTableRecord
  2
*D10
340
0
  0
BLOCK_RECORD
  5
86B
330
1
100
AcDbSymbolTableRecord
100
AcDbBlockTableRecord
  2
*D11
340
0
  0
BLOCK_RECORD
  5
955
330
1
100
AcDbSymbolTableRecord
100
AcDbBlockTableRecord
  2
*D12
340
0
  0
BLOCK_RECORD
  5
A0F
330
1
100
AcDbSymbolTableRecord
100
AcDbBlockTableRecord
  2
*D13
340
0
  0
BLOCK_RECORD
  5
AC8
330
1
100
AcDbSymbolTableRecord
100
AcDbBlockTableRecord
  2
*D14
340
0
  0
ENDTAB
  0
ENDSEC
  0
SECTION
  2
BLOCKS
  0
BLOCK
  5
6D
330
6C
100
AcDbEntity
  8
0
100
AcDbBlockBegin
  2
*Model_Space
 70
     0
 10
0.0
 20
0.0
 30
0.0
  3
*Model_Space
  1

  0
ENDBLK
  5
6E
330
6C
100
AcDbEntity
  8
0
100
AcDbBlockEnd
  0
BLOCK
  5
69
330
68
100
AcDbEntity
 67
     1
  8
0
100
AcDbBlockBegin
  2
*Paper_Space
 70
     0
 10
0.0
 20
0.0
 30
0.0
  3
*Paper_Space
  1

  0
ENDBLK
  5
6A
330
68
100
AcDbEntity
 67
     1
  8
0
100
AcDbBlockEnd
  0
BLOCK
  5
71
330
70
100
AcDbEntity
 67
     1
  8
0
100
AcDbBlockBegin
  2
*Paper_Space0
 70
     0
 10
0.0
 20
0.0
 30
0.0
  3
*Paper_Space0
  1

  0
ENDBLK
  5
72
330
70
100
AcDbEntity
 67
     1
  8
0
100
AcDbBlockEnd
  0
BLOCK
  5
166
330
161
100
AcDbEntity
  8
0
100
AcDbBlockBegin
  2
_Closed
 70
     0
 10
0.0
 20
0.0
 30
0.0
  3
_Closed
  1

  0
LINE
  5
162
330
161
100
AcDbEntity
  8
0
  6
ByBlock
 62
     0
370
    -2
100
AcDbLine
 10
-1.0
 20
0.1666666666666666
 30
0.0
 11
0.0
 21
0.0
 31
0.0
  0
LINE
  5
163
330
161
100
AcDbEntity
  8
0
  6
ByBlock
 62
     0
370
    -2
100
AcDbLine
 10
0.0
 20
0.0
 30
0.0
 11
-1.0
 21
-0.1666666666666666
 31
0.0
  0
LINE
  5
164
330
161
100
AcDbEntity
  8
0
  6
ByBlock
 62
     0
370
    -2
100
AcDbLine
 10
-1.0
 20
0.1666666666666666
 30
0.0
 11
-1.0
 21
-0.1666666666666666
 31
0.0
  0
LINE
  5
165
330
161
100
AcDbEntity
  8
0
  6
ByBlock
 62
     0
370
    -2
100
AcDbLine
 10
0.0
 20
0.0
 30
0.0
 11
-1.0
 21
0.0
 31
0.0
  0
ENDBLK
  5
167
330
161
100
AcDbEntity
  8
0
100
AcDbBlockEnd
  0
BLOCK
  5
169
330
168
100
AcDbEntity
  8
0
100
AcDbBlockBegin
  2
DatumFilled45
 70
     0
 10
0.0
 20
0.0
 30
0.0
  3
DatumFilled45
  1

  0
POLYLINE
  5
16B
330
168
100
AcDbEntity
  8
0
 62
     0
100
AcDb2dPolyline
 66
     1
 10
0.0
 20
0.0
 30
0.0
 70
   128
  0
VERTEX
  5
16C
330
16B
100
AcDbEntity
  8
0
 62
     0
100
AcDbVertex
100
AcDb2dVertex
 10
0.0
 20
0.9999999999999998
 30
0.0
  0
VERTEX
  5
16D
330
16B
100
AcDbEntity
  8
0
 62
     0
100
AcDbVertex
100
AcDb2dVertex
 10
0.0
 20
-0.9999999999999998
 30
0.0
  0
VERTEX
  5
16F
330
16B
100
AcDbEntity
  8
0
 62
     0
100
AcDbVertex
100
AcDb2dVertex
 10
-0.9999999999999998
 20
0.0
 30
0.0
  0
VERTEX
  5
170
330
16B
100
AcDbEntity
  8
0
 62
     0
100
AcDbVertex
100
AcDb2dVertex
 10
0.0
 20
0.9999999999999998
 30
0.0
  0
SEQEND
  5
16E
330
16B
100
AcDbEntity
  8
0
 62
     0
  0
SOLID
  5
172
330
168
100
AcDbEntity
  8
0
 62
     0
100
AcDbTrace
 10
0.0
 20
0.9999999999999998
 30
0.0
 11
0.0
 21
-0.9999999999999998
 31
0.0
 12
-0.9999999999999998
 22
0.0
 32
0.0
 13
0.0
 23
0.9999999999999998
 33
0.0
  0
ENDBLK
  5
16A
330
168
100
AcDbEntity
  8
0
100
AcDbBlockEnd
  0
BLOCK
  5
175
330
174
100
AcDbEntity
  8
0
100
AcDbBlockBegin
  2
Filled-1
 70
     0
 10
0.0
 20
0.0
 30
0.0
  3
Filled-1
  1

  0
LINE
  5
177
330
174
100
AcDbEntity
  8
0
 62
     0
100
AcDbLine
 10
-0.9999999999999998
 20
0.0
 30
0.0
 11
0.0
 21
0.0
 31
0.0
  0
POLYLINE
  5
178
330
174
100
AcDbEntity
  8
0
 62
     0
100
AcDb2dPolyline
 66
     1
 10
0.0
 20
0.0
 30
0.0
 70
   128
  0
VERTEX
  5
179
330
178
100
AcDbEntity
  8
0
 62
     0
100
AcDbVertex
100
AcDb2dVertex
 10
-0.9999999999999998
 20
-0.0994897959183674
 30
0.0
  0
VERTEX
  5
17A
330
178
100
AcDbEntity
  8
0
 62
     0
100
AcDbVertex
100
AcDb2dVertex
 10
0.0
 20
0.0
 30
0.0
  0
VERTEX
  5
17C
330
178
100
AcDbEntity
  8
0
 62
     0
100
AcDbVertex
100
AcDb2dVertex
 10
-0.9999999999999998
 20
0.0994897959183674
 30
0.0
  0
VERTEX
  5
17D
330
178
100
AcDbEntity
  8
0
 62
     0
100
AcDbVertex
100
AcDb2dVertex
 10
-0.9999999999999998
 20
-0.0994897959183674
 30
0.0
  0
SEQEND
  5
17B
330
178
100
AcDbEntity
  8
0
 62
     0
  0
SOLID
  5
17E
330
174
100
AcDbEntity
  8
0
 62
     0
100
AcDbTrace
 10
-0.9999999999999998
 20
-0.0994897959183674
 30
0.0
 11
0.0
 21
0.0
 31
0.0
 12
-0.9999999999999998
 22
0.0994897959183674
 32
0.0
 13
-0.9999999999999998
 23
-0.0994897959183674
 33
0.0
  0
LINE
  5
17F
330
174
100
AcDbEntity
  8
0
 62
     0
100
AcDbLine
 10
-0.9999999999999998
 20
-0.0994897959183674
 30
0.0
 11
0.0
 21
0.0
 31
0.0
  0
LINE
  5
180
330
174
100
AcDbEntity
  8
0
 62
     0
100
AcDbLine
 10
0.0
 20
0.0
 30
0.0
 11
-0.9999999999999998
 21
0.0994897959183674
 31
0.0
  0
LINE
  5
181
330
174
100
AcDbEntity
  8
0
 62
     0
100
AcDbLine
 10
-0.9999999999999998
 20
0.0994897959183674
 30
0.0
 11
-0.9999999999999998
 21
-0.0994897959183674
 31
0.0
  0
ENDBLK
  5
176
330
174
100
AcDbEntity
  8
0
100
AcDbBlockEnd
  0
BLOCK
  5
1CA
330
1C9
100
AcDbEntity
  8
0
100
AcDbBlockBegin
  2
*D4
 70
     1
 10
0.0
 20
0.0
 30
0.0
  3
*D4
  1

  0
LINE
  5
2A9
330
1C9
100
AcDbEntity
  8
Dimension (ANSI)
100
AcDbLine
 10
5.405036964049746
 20
6.129698202011932
 30
0.0
 11
3.303352960627392
 21
6.129698202011932
 31
0.0
  0
LINE
  5
2AA
330
1C9
100
AcDbEntity
  8
Dimension (ANSI)
100
AcDbLine
 10
5.405036964049743
 20
16.32969820201193
 30
0.0
 11
3.303352960627394
 21
16.32969820201193
 31
0.0
  0
LINE
  5
2AB
330
1C9
100
AcDbEntity
  8
Dimension (ANSI)
100
AcDbLine
 10
3.553352960627392
 20
6.326548591254105
 30
0.0
 11
3.553352960627393
 21
11.10109365120039
 31
0.0
  0
LINE
  5
2AC
330
1C9
100
AcDbEntity
  8
Dimension (ANSI)
100
AcDbLine
 10
3.553352960627394
 20
16.13284781276976
 30
0.0
 11
3.553352960627393
 21
11.47707119718602
 31
0.0
  0
SOLID
  5
2AD
330
1C9
100
AcDbEntity
  8
Dimension (ANSI)
100
AcDbTrace
 10
3.520544562420363
 20
6.326548591254105
 30
0.0
 11
3.586161358834421
 21
6.326548591254105
 31
0.0
 12
3.553352960627392
 22
6.129698202011932
 32
0.0
 13
3.553352960627392
 23
6.129698202011932
 33
0.0
  0
SOLID
  5
2AE
330
1C9
100
AcDbEntity
  8
Dimension (ANSI)
100
AcDbTrace
 10
3.520544562420365
 20
16.13284781276976
 30
0.0
 11
3.586161358834423
 21
16.13284781276976
 31
0.0
 12
3.553352960627394
 22
16.32969820201193
 32
0.0
 13
3.553352960627394
 23
16.32969820201193
 33
0.0
  0
MTEXT
  5
2AF
330
1C9
100
AcDbEntity
  8
Dimension (ANSI)
100
AcDbMText
 10
3.167886189098096
 20
11.41407907120176
 30
0.0
 40
0.2400000095367432
 41
0.0
 71
     1
 72
     1
  1
\A1;10.20
  7
Note Text (ANSI)
 73
     1
 44
1.0
1001
ACAD
1000
MTEXTBEGIN
1070
    73
1070
     1
1070
    44
1040
1.0
1070
    74
1070
     0
1000
MTEXTEND
  0
POINT
  5
2B0
330
1C9
100
AcDbEntity
  8
Defpoints
 62
     0
100
AcDbPoint
 10
5.530036964049746
 20
6.129698202011932
 30
0.0
  0
POINT
  5
2B1
330
1C9
100
AcDbEntity
  8
Defpoints
 62
     0
100
AcDbPoint
 10
5.530036964049743
 20
16.32969820201193
 30
0.0
  0
POINT
  5
2B2
330
1C9
100
AcDbEntity
  8
Defpoints
 62
     0
100
AcDbPoint
 10
3.553352960627394
 20
16.32969820201193
 30
0.0
  0
ENDBLK
  5
1CB
330
1C9
100
AcDbEntity
  8
0
100
AcDbBlockEnd
  0
BLOCK
  5
2B5
330
2B4
100
AcDbEntity
  8
0
100
AcDbBlockBegin
  2
*D5
 70
     1
 10
0.0
 20
0.0
 30
0.0
  3
*D5
  1

  0
LINE
  5
393
330
2B4
100
AcDbEntity
  8
Dimension (ANSI)
100
AcDbLine
 10
5.030036964049744
 20
15.95469820201193
 30
0.0
 11
5.030036964049744
 21
17.81198166657886
 31
0.0
  0
LINE
  5
394
330
2B4
100
AcDbEntity
  8
Dimension (ANSI)
100
AcDbLine
 10
15.23003696404974
 20
15.95469820201193
 30
0.0
 11
15.23003696404974
 21
17.81198166657886
 31
0.0
  0
LINE
  5
395
330
2B4
100
AcDbEntity
  8
Dimension (ANSI)
100
AcDbLine
 10
5.226887353291917
 20
17.56198166657886
 30
0.0
 11
9.681578066536195
 21
17.56198166657886
 31
0.0
  0
LINE
  5
396
330
2B4
100
AcDbEntity
  8
Dimension (ANSI)
100
AcDbLine
 10
15.03318657480757
 20
17.56198166657886
 30
0.0
 11
10.57849586156329
 21
17.56198166657886
 31
0.0
  0
SOLID
  5
397
330
2B4
100
AcDbEntity
  8
Dimension (ANSI)
100
AcDbTrace
 10
5.226887353291917
 20
17.59479006478589
 30
0.0
 11
5.226887353291917
 21
17.52917326837183
 31
0.0
 12
5.030036964049744
 22
17.56198166657886
 32
0.0
 13
5.030036964049744
 23
17.56198166657886
 33
0.0
  0
SOLID
  5
398
330
2B4
100
AcDbEntity
  8
Dimension (ANSI)
100
AcDbTrace
 10
15.03318657480757
 20
17.59479006478589
 30
0.0
 11
15.03318657480757
 21
17.52917326837183
 31
0.0
 12
15.23003696404974
 22
17.56198166657886
 32
0.0
 13
15.23003696404974
 23
17.56198166657886
 33
0.0
  0
MTEXT
  5
399
330
2B4
100
AcDbEntity
  8
Dimension (ANSI)
100
AcDbMText
 10
9.744570192520447
 20
17.68697831358742
 30
0.0
 40
0.2400000095367432
 41
0.0
 71
     1
 72
     1
  1
\A1;10.20
  7
Note Text (ANSI)
 73
     1
 44
1.0
1001
ACAD
1000
MTEXTBEGIN
1070
    73
1070
     1
1070
    44
1040
1.0
1070
    74
1070
     0
1000
MTEXTEND
  0
POINT
  5
39A
330
2B4
100
AcDbEntity
  8
Defpoints
 62
     0
100
AcDbPoint
 10
5.030036964049744
 20
15.82969820201193
 30
0.0
  0
POINT
  5
39B
330
2B4
100
AcDbEntity
  8
Defpoints
 62
     0
100
AcDbPoint
 10
15.23003696404974
 20
15.82969820201193
 30
0.0
  0
POINT
  5
39C
330
2B4
100
AcDbEntity
  8
Defpoints
 62
     0
100
AcDbPoint
 10
15.23003696404974
 20
17.56198166657886
 30
0.0
  0
ENDBLK
  5
2B6
330
2B4
100
AcDbEntity
  8
0
100
AcDbBlockEnd
  0
BLOCK
  5
39F
330
39E
100
AcDbEntity
  8
0
100
AcDbBlockBegin
  2
*D6
 70
     1
 10
0.0
 20
0.0
 30
0.0
  3
*D6
  1

  0
LINE
  5
48A
330
39E
100
AcDbEntity
  8
Dimension (ANSI)
100
AcDbLine
 10
5.425036964049747
 20
6.649698202011932
 30
0.0
 11
3.706977616857176
 21
6.649698202011932
 31
0.0
  0
LINE
  5
48B
330
39E
100
AcDbEntity
  8
Dimension (ANSI)
100
AcDbLine
 10
5.425036964049746
 20
7.399698202011933
 30
0.0
 11
3.706977616857177
 21
7.399698202011933
 31
0.0
  0
LINE
  5
48C
330
39E
100
AcDbEntity
  8
Dimension (ANSI)
100
AcDbLine
 10
3.956977616857176
 20
6.846548591254104
 30
0.0
 11
3.956977616857177
 21
7.202847812769761
 31
0.0
  0
LINE
  5
48D
330
39E
100
AcDbEntity
  8
Dimension (ANSI)
100
AcDbLine
 10
3.956977616857177
 20
7.399698202011933
 30
0.0
 11
3.956977616857177
 21
7.776113804500771
 31
0.0
  0
LINE
  5
48E
330
39E
100
AcDbEntity
  8
Dimension (ANSI)
100
AcDbLine
 10
3.956977616857177
 20
7.776113804500771
 30
0.0
 11
4.153828006099349
 21
7.776113804500771
 31
0.0
  0
SOLID
  5
48F
330
39E
100
AcDbEntity
  8
Dimension (ANSI)
100
AcDbTrace
 10
3.924169218650147
 20
6.846548591254104
 30
0.0
 11
3.989786015064205
 21
6.846548591254104
 31
0.0
 12
3.956977616857176
 22
6.649698202011932
 32
0.0
 13
3.956977616857176
 23
6.649698202011932
 33
0.0
  0
SOLID
  5
490
330
39E
100
AcDbEntity
  8
Dimension (ANSI)
100
AcDbTrace
 10
3.924169218650148
 20
7.202847812769761
 30
0.0
 11
3.989786015064206
 21
7.202847812769761
 31
0.0
 12
3.956977616857177
 22
7.399698202011933
 32
0.0
 13
3.956977616857177
 23
7.399698202011933
 33
0.0
  0
MTEXT
  5
491
330
39E
100
AcDbEntity
  8
Dimension (ANSI)
100
AcDbMText
 10
4.2168201320836
 20
7.901029860505457
 30
0.0
 40
0.2400000095367432
 41
0.0
 71
     1
 72
     1
  1
\A1;0.75
  7
Note Text (ANSI)
 73
     1
 44
1.0
1001
ACAD
1000
MTEXTBEGIN
1070
    73
1070
     1
1070
    44
1040
1.0
1070
    74
1070
     0
1000
MTEXTEND
  0
POINT
  5
492
330
39E
100
AcDbEntity
  8
Defpoints
 62
     0
100
AcDbPoint
 10
5.550036964049747
 20
6.649698202011932
 30
0.0
  0
POINT
  5
493
330
39E
100
AcDbEntity
  8
Defpoints
 62
     0
100
AcDbPoint
 10
5.550036964049746
 20
7.399698202011933
 30
0.0
  0
POINT
  5
494
330
39E
100
AcDbEntity
  8
Defpoints
 62
     0
100
AcDbPoint
 10
3.956977616857177
 20
7.399698202011933
 30
0.0
  0
ENDBLK
  5
3A0
330
39E
100
AcDbEntity
  8
0
100
AcDbBlockEnd
  0
BLOCK
  5
497
330
496
100
AcDbEntity
  8
0
100
AcDbBlockBegin
  2
*D7
 70
     1
 10
0.0
 20
0.0
 30
0.0
  3
*D7
  1

  0
LINE
  5
58A
330
496
100
AcDbEntity
  8
Dimension (ANSI)
100
AcDbLine
 10
14.85503696404975
 20
16.32969820201193
 30
0.0
 11
17.41596966452877
 21
16.32969820201193
 31
0.0
  0
LINE
  5
58B
330
496
100
AcDbEntity
  8
Dimension (ANSI)
100
AcDbLine
 10
14.83503696404975
 20
15.80969820201193
 30
0.0
 11
17.41596966452877
 21
15.80969820201193
 31
0.0
  0
LINE
  5
58C
330
496
100
AcDbEntity
  8
Dimension (ANSI)
100
AcDbLine
 10
17.16596966452877
 20
16.5265485912541
 30
0.0
 11
17.16596966452877
 21
16.72339898049628
 31
0.0
  0
LINE
  5
58D
330
496
100
AcDbEntity
  8
Dimension (ANSI)
100
AcDbLine
 10
17.16596966452877
 20
15.61284781276976
 30
0.0
 11
17.16596966452877
 21
15.1768394431674
 31
0.0
  0
LINE
  5
58E
330
496
100
AcDbEntity
  8
Dimension (ANSI)
100
AcDbLine
 10
17.16596966452877
 20
15.1768394431674
 30
0.0
 11
16.9691192752866
 21
15.1768394431674
 31
0.0
  0
SOLID
  5
58F
330
496
100
AcDbEntity
  8
Dimension (ANSI)
100
AcDbTrace
 10
17.13316126632174
 20
16.5265485912541
 30
0.0
 11
17.1987780627358
 21
16.5265485912541
 31
0.0
 12
17.16596966452877
 22
16.32969820201193
 32
0.0
 13
17.16596966452877
 23
16.32969820201193
 33
0.0
  0
SOLID
  5
590
330
496
100
AcDbEntity
  8
Dimension (ANSI)
100
AcDbTrace
 10
17.13316126632174
 20
15.61284781276976
 30
0.0
 11
17.1987780627358
 21
15.61284781276976
 31
0.0
 12
17.16596966452877
 22
15.80969820201193
 32
0.0
 13
17.16596966452877
 23
15.80969820201193
 33
0.0
  0
MTEXT
  5
591
330
496
100
AcDbEntity
  8
Dimension (ANSI)
100
AcDbMText
 10
16.29347433785227
 20
15.30183609017595
 30
0.0
 40
0.2400000095367432
 41
0.0
 71
     1
 72
     1
  1
\A1;0.52
  7
Note Text (ANSI)
 73
     1
 44
1.0
1001
ACAD
1000
MTEXTBEGIN
1070
    73
1070
     1
1070
    44
1040
1.0
1070
    74
1070
     0
1000
MTEXTEND
  0
POINT
  5
592
330
496
100
AcDbEntity
  8
Defpoints
 62
     0
100
AcDbPoint
 10
14.73003696404975
 20
16.32969820201193
 30
0.0
  0
POINT
  5
593
330
496
100
AcDbEntity
  8
Defpoints
 62
     0
100
AcDbPoint
 10
14.71003696404975
 20
15.80969820201193
 30
0.0
  0
POINT
  5
594
330
496
100
AcDbEntity
  8
Defpoints
 62
     0
100
AcDbPoint
 10
17.16596966452877
 20
15.80969820201193
 30
0.0
  0
ENDBLK
  5
498
330
496
100
AcDbEntity
  8
0
100
AcDbBlockEnd
  0
BLOCK
  5
597
330
596
100
AcDbEntity
  8
0
100
AcDbBlockBegin
  2
*D8
 70
     1
 10
0.0
 20
0.0
 30
0.0
  3
*D8
  1

  0
LINE
  5
675
330
596
100
AcDbEntity
  8
Dimension (ANSI)
100
AcDbLine
 10
15.23003696404974
 20
15.95469820201193
 30
0.0
 11
15.23003696404974
 21
17.33954072169697
 31
0.0
  0
LINE
  5
676
330
596
100
AcDbEntity
  8
Dimension (ANSI)
100
AcDbLine
 10
14.71003696404975
 20
15.93469820201194
 30
0.0
 11
14.71003696404975
 21
17.33954072169697
 31
0.0
  0
LINE
  5
677
330
596
100
AcDbEntity
  8
Dimension (ANSI)
100
AcDbLine
 10
14.51318657480757
 20
17.08954072169697
 30
0.0
 11
14.3163361855654
 21
17.08954072169697
 31
0.0
  0
LINE
  5
678
330
596
100
AcDbEntity
  8
Dimension (ANSI)
100
AcDbLine
 10
15.42688735329192
 20
17.08954072169697
 30
0.0
 11
15.62373774253409
 21
17.08954072169697
 31
0.0
  0
SOLID
  5
679
330
596
100
AcDbEntity
  8
Dimension (ANSI)
100
AcDbTrace
 10
14.51318657480757
 20
17.122349119904
 30
0.0
 11
14.51318657480757
 21
17.05673232348994
 31
0.0
 12
14.71003696404975
 22
17.08954072169697
 32
0.0
 13
14.71003696404975
 23
17.08954072169697
 33
0.0
  0
SOLID
  5
67A
330
596
100
AcDbEntity
  8
Dimension (ANSI)
100
AcDbTrace
 10
15.42688735329192
 20
17.122349119904
 30
0.0
 11
15.42688735329192
 21
17.05673232348994
 31
0.0
 12
15.23003696404974
 22
17.08954072169697
 32
0.0
 13
15.23003696404974
 23
17.08954072169697
 33
0.0
  0
MTEXT
  5
67B
330
596
100
AcDbEntity
  8
Dimension (ANSI)
100
AcDbMText
 10
15.68672986851834
 20
17.21453736870553
 30
0.0
 40
0.2400000095367432
 41
0.0
 71
     1
 72
     1
  1
\A1;0.52
  7
Note Text (ANSI)
 73
     1
 44
1.0
1001
ACAD
1000
MTEXTBEGIN
1070
    73
1070
     1
1070
    44
1040
1.0
1070
    74
1070
     0
1000
MTEXTEND
  0
POINT
  5
67C
330
596
100
AcDbEntity
  8
Defpoints
 62
     0
100
AcDbPoint
 10
15.23003696404974
 20
15.82969820201193
 30
0.0
  0
POINT
  5
67D
330
596
100
AcDbEntity
  8
Defpoints
 62
     0
100
AcDbPoint
 10
14.71003696404975
 20
15.80969820201193
 30
0.0
  0
POINT
  5
67E
330
596
100
AcDbEntity
  8
Defpoints
 62
     0
100
AcDbPoint
 10
14.71003696404975
 20
17.08954072169697
 30
0.0
  0
ENDBLK
  5
598
330
596
100
AcDbEntity
  8
0
100
AcDbBlockEnd
  0
BLOCK
  5
681
330
680
100
AcDbEntity
  8
0
100
AcDbBlockBegin
  2
*D9
 70
     1
 10
0.0
 20
0.0
 30
0.0
  3
*D9
  1

  0
LINE
  5
75F
330
680
100
AcDbEntity
  8
Dimension (ANSI)
100
AcDbLine
 10
5.425036964049747
 20
6.649698202011932
 30
0.0
 11
3.862238611647816
 21
6.649698202011932
 31
0.0
  0
LINE
  5
760
330
680
100
AcDbEntity
  8
Dimension (ANSI)
100
AcDbLine
 10
5.425036964049747
 20
15.80969820201193
 30
0.0
 11
3.862238611647819
 21
15.80969820201193
 31
0.0
  0
LINE
  5
761
330
680
100
AcDbEntity
  8
Dimension (ANSI)
100
AcDbLine
 10
4.112238611647817
 20
6.846548591254104
 30
0.0
 11
4.112238611647818
 21
12.46471248282015
 31
0.0
  0
LINE
  5
762
330
680
100
AcDbEntity
  8
Dimension (ANSI)
100
AcDbLine
 10
4.112238611647819
 20
15.61284781276976
 30
0.0
 11
4.112238611647818
 21
12.84052884679803
 31
0.0
  0
SOLID
  5
763
330
680
100
AcDbEntity
  8
Dimension (ANSI)
100
AcDbTrace
 10
4.079430213440788
 20
6.846548591254104
 30
0.0
 11
4.145047009854845
 21
6.846548591254104
 31
0.0
 12
4.112238611647817
 22
6.649698202011932
 32
0.0
 13
4.112238611647817
 23
6.649698202011932
 33
0.0
  0
SOLID
  5
764
330
680
100
AcDbEntity
  8
Dimension (ANSI)
100
AcDbTrace
 10
4.07943021344079
 20
15.61284781276976
 30
0.0
 11
4.145047009854847
 21
15.61284781276976
 31
0.0
 12
4.112238611647819
 22
15.80969820201193
 32
0.0
 13
4.112238611647819
 23
15.80969820201193
 33
0.0
  0
MTEXT
  5
765
330
680
100
AcDbEntity
  8
Dimension (ANSI)
100
AcDbMText
 10
3.713957870502556
 20
12.77753672081378
 30
0.0
 40
0.2400000095367432
 41
0.0
 71
     1
 72
     1
  1
\A1;9.160
  7
Note Text (ANSI)
 73
     1
 44
1.0
1001
ACAD
1000
MTEXTBEGIN
1070
    73
1070
     1
1070
    44
1040
1.0
1070
    74
1070
     0
1000
MTEXTEND
  0
POINT
  5
766
330
680
100
AcDbEntity
  8
Defpoints
 62
     0
100
AcDbPoint
 10
5.550036964049747
 20
6.649698202011932
 30
0.0
  0
POINT
  5
767
330
680
100
AcDbEntity
  8
Defpoints
 62
     0
100
AcDbPoint
 10
5.550036964049747
 20
15.80969820201193
 30
0.0
  0
POINT
  5
768
330
680
100
AcDbEntity
  8
Defpoints
 62
     0
100
AcDbPoint
 10
4.112238611647819
 20
15.80969820201193
 30
0.0
  0
ENDBLK
  5
682
330
680
100
AcDbEntity
  8
0
100
AcDbBlockEnd
  0
BLOCK
  5
76D
330
76C
100
AcDbEntity
  8
0
100
AcDbBlockBegin
  2
*D10
 70
     1
 10
0.0
 20
0.0
 30
0.0
  3
*D10
  1

  0
LINE
  5
85F
330
76C
100
AcDbEntity
  8
Dimension (ANSI)
100
AcDbLine
 10
14.85503696404975
 20
6.129698202011932
 30
0.0
 11
15.70070548087431
 21
6.129698202011932
 31
0.0
  0
LINE
  5
860
330
76C
100
AcDbEntity
  8
Dimension (ANSI)
100
AcDbLine
 10
15.35503696404975
 20
6.629698202011931
 30
0.0
 11
15.70070548087431
 21
6.629698202011931
 31
0.0
  0
LINE
  5
861
330
76C
100
AcDbEntity
  8
Dimension (ANSI)
100
AcDbLine
 10
15.45070548087431
 20
5.93284781276976
 30
0.0
 11
15.45070548087431
 21
5.735997423527588
 31
0.0
  0
LINE
  5
862
330
76C
100
AcDbEntity
  8
Dimension (ANSI)
100
AcDbLine
 10
15.45070548087431
 20
6.826548591254104
 30
0.0
 11
15.45070548087431
 21
7.202964198201556
 31
0.0
  0
LINE
  5
863
330
76C
100
AcDbEntity
  8
Dimension (ANSI)
100
AcDbLine
 10
15.45070548087431
 20
7.202964198201556
 30
0.0
 11
15.64755587011649
 21
7.202964198201556
 31
0.0
  0
SOLID
  5
864
330
76C
100
AcDbEntity
  8
Dimension (ANSI)
100
AcDbTrace
 10
15.41789708266728
 20
5.93284781276976
 30
0.0
 11
15.48351387908134
 21
5.93284781276976
 31
0.0
 12
15.45070548087431
 22
6.129698202011932
 32
0.0
 13
15.45070548087431
 23
6.129698202011932
 33
0.0
  0
SOLID
  5
865
330
76C
100
AcDbEntity
  8
Dimension (ANSI)
100
AcDbTrace
 10
15.41789708266728
 20
6.826548591254104
 30
0.0
 11
15.48351387908134
 21
6.826548591254104
 31
0.0
 12
15.45070548087431
 22
6.629698202011931
 32
0.0
 13
15.45070548087431
 23
6.629698202011931
 33
0.0
  0
MTEXT
  5
866
330
76C
100
AcDbEntity
  8
Dimension (ANSI)
100
AcDbMText
 10
15.71054799610074
 20
7.327880254206244
 30
0.0
 40
0.2400000095367432
 41
0.0
 71
     1
 72
     1
  1
\A1;0.50
  7
Note Text (ANSI)
 73
     1
 44
1.0
1001
ACAD
1000
MTEXTBEGIN
1070
    73
1070
     1
1070
    44
1040
1.0
1070
    74
1070
     0
1000
MTEXTEND
  0
POINT
  5
867
330
76C
100
AcDbEntity
  8
Defpoints
 62
     0
100
AcDbPoint
 10
14.73003696404975
 20
6.129698202011932
 30
0.0
  0
POINT
  5
868
330
76C
100
AcDbEntity
  8
Defpoints
 62
     0
100
AcDbPoint
 10
15.23003696404974
 20
6.629698202011931
 30
0.0
  0
POINT
  5
869
330
76C
100
AcDbEntity
  8
Defpoints
 62
     0
100
AcDbPoint
 10
15.45070548087431
 20
6.629698202011931
 30
0.0
  0
ENDBLK
  5
76E
330
76C
100
AcDbEntity
  8
0
100
AcDbBlockEnd
  0
BLOCK
  5
86C
330
86B
100
AcDbEntity
  8
0
100
AcDbBlockBegin
  2
*D11
 70
     1
 10
0.0
 20
0.0
 30
0.0
  3
*D11
  1

  0
LINE
  5
94A
330
86B
100
AcDbEntity
  8
Dimension (ANSI)
100
AcDbLine
 10
15.23003696404974
 20
6.504698202011931
 30
0.0
 11
15.23003696404974
 21
5.092296627208782
 31
0.0
  0
LINE
  5
94B
330
86B
100
AcDbEntity
  8
Dimension (ANSI)
100
AcDbLine
 10
14.73003696404975
 20
6.004698202011932
 30
0.0
 11
14.73003696404975
 21
5.092296627208782
 31
0.0
  0
LINE
  5
94C
330
86B
100
AcDbEntity
  8
Dimension (ANSI)
100
AcDbLine
 10
15.42688735329192
 20
5.342296627208782
 30
0.0
 11
15.62373774253409
 21
5.342296627208782
 31
0.0
  0
LINE
  5
94D
330
86B
100
AcDbEntity
  8
Dimension (ANSI)
100
AcDbLine
 10
14.53318657480757
 20
5.342296627208782
 30
0.0
 11
14.20875762171087
 21
5.342296627208782
 31
0.0
  0
SOLID
  5
94E
330
86B
100
AcDbEntity
  8
Dimension (ANSI)
100
AcDbTrace
 10
15.42688735329192
 20
5.375105025415811
 30
0.0
 11
15.42688735329192
 21
5.309488229001754
 31
0.0
 12
15.23003696404974
 22
5.342296627208782
 32
0.0
 13
15.23003696404974
 23
5.342296627208782
 33
0.0
  0
SOLID
  5
94F
330
86B
100
AcDbEntity
  8
Dimension (ANSI)
100
AcDbTrace
 10
14.53318657480757
 20
5.375105025415811
 30
0.0
 11
14.53318657480757
 21
5.309488229001754
 31
0.0
 12
14.73003696404975
 22
5.342296627208782
 32
0.0
 13
14.73003696404975
 23
5.342296627208782
 33
0.0
  0
MTEXT
  5
950
330
86B
100
AcDbEntity
  8
Dimension (ANSI)
100
AcDbMText
 10
13.53198441022231
 20
5.467212683213467
 30
0.0
 40
0.2400000095367432
 41
0.0
 71
     1
 72
     1
  1
\A1;0.50
  7
Note Text (ANSI)
 73
     1
 44
1.0
1001
ACAD
1000
MTEXTBEGIN
1070
    73
1070
     1
1070
    44
1040
1.0
1070
    74
1070
     0
1000
MTEXTEND
  0
POINT
  5
951
330
86B
100
AcDbEntity
  8
Defpoints
 62
     0
100
AcDbPoint
 10
15.23003696404974
 20
6.629698202011931
 30
0.0
  0
POINT
  5
952
330
86B
100
AcDbEntity
  8
Defpoints
 62
     0
100
AcDbPoint
 10
14.73003696404975
 20
6.129698202011932
 30
0.0
  0
POINT
  5
953
330
86B
100
AcDbEntity
  8
Defpoints
 62
     0
100
AcDbPoint
 10
14.73003696404975
 20
5.342296627208782
 30
0.0
  0
ENDBLK
  5
86D
330
86B
100
AcDbEntity
  8
0
100
AcDbBlockEnd
  0
BLOCK
  5
956
330
955
100
AcDbEntity
  8
0
100
AcDbBlockBegin
  2
*D12
 70
     1
 10
0.0
 20
0.0
 30
0.0
  3
*D12
  1

  0
LINE
  5
A06
330
955
100
AcDbEntity
  8
Dimension (ANSI)
100
AcDbLine
 10
3.617977528125412
 20
17.97718554610112
 30
0.0
 11
3.8629465259665
 21
17.97718554610112
 31
0.0
  0
LINE
  5
A07
330
955
100
AcDbEntity
  8
Dimension (ANSI)
100
AcDbLine
 10
3.8629465259665
 20
17.97718554610112
 30
0.0
 11
5.275568953832087
 21
16.16232063710794
 31
0.0
  0
MTEXT
  5
A08
102
{ACAD_XDICTIONARY
360
BFD
102
}
330
955
100
AcDbEntity
  8
Dimension (ANSI)
100
AcDbMText
 10
3.55498540214116
 20
18.16019428406498
 30
0.0
 40
0.2400000095367432
 41
0.0
 71
     3
 72
     1
  1
\A1;\U+22050.50{\PTYP.(4PL.)}
  7
Note Text (ANSI)
 73
     1
 44
1.0
1001
ACAD
1000
MTEXTBEGIN
1070
    73
1070
     1
1070
    44
1040
1.0
1070
    74
1070
     0
1000
MTEXTEND
  0
SOLID
  5
A09
330
955
100
AcDbEntity
  8
Dimension (ANSI)
100
AcDbTrace
 10
5.301459000133676
 20
16.18247247313875
 30
0.0
 11
5.2496789075305
 21
16.14216880107713
 31
0.0
 12
5.396479970016944
 22
16.00698035929841
 32
0.0
 13
5.396479970016944
 23
16.00698035929841
 33
0.0
  0
LINE
  5
A0A
330
955
100
AcDbEntity
  8
Dimension (ANSI)
100
AcDbLine
 10
5.370036964049742
 20
15.80969820201192
 30
0.0
 11
5.730036964049743
 21
15.80969820201193
 31
0.0
  0
LINE
  5
A0B
330
955
100
AcDbEntity
  8
Dimension (ANSI)
100
AcDbLine
 10
5.550036964049744
 20
15.62969820201193
 30
0.0
 11
5.550036964049745
 21
15.98969820201193
 31
0.0
  0
POINT
  5
A0C
330
955
100
AcDbEntity
  8
Defpoints
 62
     0
100
AcDbPoint
 10
5.396479970016944
 20
16.00698035929841
 30
0.0
  0
POINT
  5
A0D
330
955
100
AcDbEntity
  8
Defpoints
 62
     0
100
AcDbPoint
 10
5.703593958082542
 20
15.61241604472543
 30
0.0
  0
ENDBLK
  5
957
330
955
100
AcDbEntity
  8
0
100
AcDbBlockEnd
  0
BLOCK
  5
A10
330
A0F
100
AcDbEntity
  8
0
100
AcDbBlockBegin
  2
*D13
 70
     1
 10
0.0
 20
0.0
 30
0.0
  3
*D13
  1

  0
LINE
  5
ABF
330
A0F
100
AcDbEntity
  8
Dimension (ANSI)
100
AcDbLine
 10
6.37305421777736
 20
5.242248951360432
 30
0.0
 11
6.128123748473527
 21
5.242248951360431
 31
0.0
  0
LINE
  5
AC0
330
A0F
100
AcDbEntity
  8
Dimension (ANSI)
100
AcDbLine
 10
6.128123748473527
 20
5.242248951360431
 30
0.0
 11
5.641426069618817
 21
7.058629416770218
 31
0.0
  0
MTEXT
  5
AC1
102
{ACAD_XDICTIONARY
360
BFF
102
}
330
A0F
100
AcDbEntity
  8
Dimension (ANSI)
100
AcDbMText
 10
6.436046343761613
 20
5.425257689324284
 30
0.0
 40
0.2400000095367432
 41
0.0
 71
     1
 72
     1
  1
\A1;\U+22050.31{\PTYP. (4PL.)}
  7
Note Text (ANSI)
 73
     1
 44
1.0
1001
ACAD
1000
MTEXTBEGIN
1070
    73
1070
     1
1070
    44
1040
1.0
1070
    74
1070
     0
1000
MTEXTEND
  0
SOLID
  5
AC2
330
A0F
100
AcDbEntity
  8
Dimension (ANSI)
100
AcDbTrace
 10
5.673116548766159
 20
7.067120855065512
 30
0.0
 11
5.609735590471474
 21
7.050137978474923
 31
0.0
 12
5.590477439847051
 22
7.248772291654275
 32
0.0
 13
5.590477439847051
 23
7.248772291654275
 33
0.0
  0
LINE
  5
AC3
330
A0F
100
AcDbEntity
  8
Dimension (ANSI)
100
AcDbLine
 10
5.370036964049744
 20
7.399698202011931
 30
0.0
 11
5.730036964049745
 21
7.399698202011931
 31
0.0
  0
LINE
  5
AC4
330
A0F
100
AcDbEntity
  8
Dimension (ANSI)
100
AcDbLine
 10
5.550036964049744
 20
7.219698202011931
 30
0.0
 11
5.550036964049743
 21
7.579698202011931
 31
0.0
  0
POINT
  5
AC5
330
A0F
100
AcDbEntity
  8
Defpoints
 62
     0
100
AcDbPoint
 10
5.590477439847051
 20
7.248772291654275
 30
0.0
  0
POINT
  5
AC6
330
A0F
100
AcDbEntity
  8
Defpoints
 62
     0
100
AcDbPoint
 10
5.509596488252437
 20
7.550624112369587
 30
0.0
  0
ENDBLK
  5
A11
330
A0F
100
AcDbEntity
  8
0
100
AcDbBlockEnd
  0
BLOCK
  5
AC9
330
AC8
100
AcDbEntity
  8
0
100
AcDbBlockBegin
  2
*D14
 70
     1
 10
0.0
 20
0.0
 30
0.0
  3
*D14
  1

  0
LINE
  5
BA7
330
AC8
100
AcDbEntity
  8
Dimension (ANSI)
100
AcDbLine
 10
14.71003696404975
 20
15.93469820201194
 30
0.0
 11
14.71003696404975
 21
17.33954072169697
 31
0.0
  0
LINE
  5
BA8
330
AC8
100
AcDbEntity
  8
Dimension (ANSI)
100
AcDbLine
 10
5.550036964049747
 20
15.93469820201193
 30
0.0
 11
5.550036964049747
 21
17.33954072169697
 31
0.0
  0
LINE
  5
BA9
330
AC8
100
AcDbEntity
  8
Dimension (ANSI)
100
AcDbLine
 10
14.51318657480757
 20
17.08954072169697
 30
0.0
 11
10.59130983117926
 21
17.08954072169697
 31
0.0
  0
LINE
  5
BAA
330
AC8
100
AcDbEntity
  8
Dimension (ANSI)
100
AcDbLine
 10
5.746887353291919
 20
17.08954072169697
 30
0.0
 11
9.668764096920234
 21
17.08954072169697
 31
0.0
  0
SOLID
  5
BAB
330
AC8
100
AcDbEntity
  8
Dimension (ANSI)
100
AcDbTrace
 10
14.51318657480757
 20
17.122349119904
 30
0.0
 11
14.51318657480757
 21
17.05673232348994
 31
0.0
 12
14.71003696404975
 22
17.08954072169697
 32
0.0
 13
14.71003696404975
 23
17.08954072169697
 33
0.0
  0
SOLID
  5
BAC
330
AC8
100
AcDbEntity
  8
Dimension (ANSI)
100
AcDbTrace
 10
5.746887353291919
 20
17.122349119904
 30
0.0
 11
5.746887353291919
 21
17.05673232348994
 31
0.0
 12
5.550036964049747
 22
17.08954072169697
 32
0.0
 13
5.550036964049747
 23
17.08954072169697
 33
0.0
  0
MTEXT
  5
BAD
330
AC8
100
AcDbEntity
  8
Dimension (ANSI)
100
AcDbMText
 10
9.731756222904486
 20
17.21445677770166
 30
0.0
 40
0.2400000095367432
 41
0.0
 71
     1
 72
     1
  1
\A1;9.160
  7
Note Text (ANSI)
 73
     1
 44
1.0
1001
ACAD
1000
MTEXTBEGIN
1070
    73
1070
     1
1070
    44
1040
1.0
1070
    74
1070
     0
1000
MTEXTEND
  0
POINT
  5
BAE
330
AC8
100
AcDbEntity
  8
Defpoints
 62
     0
100
AcDbPoint
 10
14.71003696404975
 20
15.80969820201193
 30
0.0
  0
POINT
  5
BAF
330
AC8
100
AcDbEntity
  8
Defpoints
 62
     0
100
AcDbPoint
 10
5.550036964049747
 20
15.80969820201193
 30
0.0
  0
POINT
  5
BB0
330
AC8
100
AcDbEntity
  8
Defpoints
 62
     0
100
AcDbPoint
 10
5.550036964049747
 20
17.08954072169697
 30
0.0
  0
ENDBLK
  5
ACA
330
AC8
100
AcDbEntity
  8
0
100
AcDbBlockEnd
  0
ENDSEC
  0
SECTION
  2
ENTITIES
  0
MTEXT
  5
74
330
6C
100
AcDbEntity
  8
Symbol (ANSI)
100
AcDbMText
 10
2.966300660217733
 20
20.62873818855571
 30
0.0
 40
0.2160000068934884
 41
7.974058076152649
 71
     1
 72
     1
  1
{\fRomanS|b0|i0|c0|p2;PART#: NP1212C\P(DATA SUBJECT TO CHANGE WITHOUT NOTICE)\PTHIS DRAWING AND COMPONENTS OF ARE\PPROPERTY OF HUBBELL INC. WIEGMANN\P }
  7
Note Text (ANSI)
 73
     2
 44
1.093904256820678
1001
ACAD
1000
MTEXTBEGIN
1070
    73
1070
     2
1070
    44
1040
1.093904256820678
1070
    74
1070
     0
1000
MTEXTEND
  0
TEXT
  5
77
330
6C
100
AcDbEntity
  8
0
100
AcDbText
 10
10.36336584195348
 20
19.39162413850634
 30
0.0
 40
0.1501769865372971
  1
HUBBELL
  7
SANSSERIF
100
AcDbText
  0
POLYLINE
  5
79
330
6C
100
AcDbEntity
  8
0
100
AcDb2dPolyline
 66
     1
 10
0.0
 20
0.0
 30
0.0
  0
VERTEX
  5
7A
330
79
100
AcDbEntity
  8
0
100
AcDbVertex
100
AcDb2dVertex
 10
10.44117150142418
 20
19.31742829973912
 30
0.0
 42
0.0538548888021971
  0
VERTEX
  5
7B
330
79
100
AcDbEntity
  8
0
100
AcDbVertex
100
AcDb2dVertex
 10
10.49525265860582
 20
19.2750705008407
 30
0.0
 42
0.0762621633615686
 70
     2
 50
328.0963691854962
  0
VERTEX
  5
7C
330
79
100
AcDbEntity
  8
0
100
AcDbVertex
100
AcDb2dVertex
 10
10.6274240062189
 20
19.21847226084647
 30
0.0
 42
0.0631748622128167
 50
328.0963691854962
  0
VERTEX
  5
7D
330
79
100
AcDbEntity
  8
0
100
AcDbVertex
100
AcDb2dVertex
 10
10.79929689291685
 20
19.19666915138779
 30
0.0
 42
0.0631748622128144
  0
VERTEX
  5
7E
330
79
100
AcDbEntity
  8
0
100
AcDbVertex
100
AcDb2dVertex
 10
10.97116977961481
 20
19.21847226084647
 30
0.0
 42
0.0762621633615716
  0
VERTEX
  5
7F
330
79
100
AcDbEntity
  8
0
100
AcDbVertex
100
AcDb2dVertex
 10
11.10334112722788
 20
19.2750705008407
 30
0.0
 42
0.0538548888021992
 70
     2
 50
31.90363081450366
  0
VERTEX
  5
80
330
79
100
AcDbEntity
  8
0
100
AcDbVertex
100
AcDb2dVertex
 10
11.15742228440953
 20
19.31742829973912
 30
0.0
 42
0.1478388992712208
 50
31.90363081450366
  0
SEQEND
  5
81
330
79
100
AcDbEntity
  8
0
  0
POLYLINE
  5
82
330
6C
100
AcDbEntity
  8
0
100
AcDb2dPolyline
 66
     1
 10
0.0
 20
0.0
 30
0.0
  0
VERTEX
  5
83
330
82
100
AcDbEntity
  8
0
100
AcDbVertex
100
AcDb2dVertex
 10
10.54032599659878
 20
19.33379242730013
 30
0.0
 42
0.0708473647366734
  0
VERTEX
  5
84
330
82
100
AcDbEntity
  8
0
100
AcDbVertex
100
AcDb2dVertex
 10
10.58935278085687
 20
19.2750705008407
 30
0.0
 42
0.0943474025114784
 70
     2
 50
317.9633854595613
  0
VERTEX
  5
85
330
82
100
AcDbEntity
  8
0
100
AcDbVertex
100
AcDb2dVertex
 10
10.68429585778178
 20
19.21744151209784
 30
0.0
 42
0.0895889244631754
 50
317.9633854595613
  0
VERTEX
  5
86
330
82
100
AcDbEntity
  8
0
100
AcDbVertex
100
AcDb2dVertex
 10
10.79929689291685
 20
19.19666915138779
 30
0.0
 42
0.0895889244631755
  0
VERTEX
  5
87
330
82
100
AcDbEntity
  8
0
100
AcDbVertex
100
AcDb2dVertex
 10
10.91429792805193
 20
19.21744151209784
 30
0.0
 42
0.0943474025114826
  0
VERTEX
  5
88
330
82
100
AcDbEntity
  8
0
100
AcDbVertex
100
AcDb2dVertex
 10
11.00924100497684
 20
19.2750705008407
 30
0.0
 42
0.0708473647366705
 70
     2
 50
42.03661454043863
  0
VERTEX
  5
89
330
82
100
AcDbEntity
  8
0
100
AcDbVertex
100
AcDb2dVertex
 10
11.05826778923492
 20
19.33379242730013
 30
0.0
 42
0.1080871028423927
 50
42.03661454043863
  0
SEQEND
  5
8A
330
82
100
AcDbEntity
  8
0
  0
POLYLINE
  5
8B
330
6C
100
AcDbEntity
  8
0
100
AcDb2dPolyline
 66
     1
 10
0.0
 20
0.0
 30
0.0
  0
VERTEX
  5
8C
330
8B
100
AcDbEntity
  8
0
100
AcDbVertex
100
AcDb2dVertex
 10
11.15499521977189
 20
19.61360617035752
 30
0.0
 42
0.0512131062417871
  0
VERTEX
  5
8D
330
8B
100
AcDbEntity
  8
0
100
AcDbVertex
100
AcDb2dVertex
 10
11.10334112722788
 20
19.65362570315583
 30
0.0
 42
0.0762621633615678
 70
     2
 50
148.0963691854963
  0
VERTEX
  5
8E
330
8B
100
AcDbEntity
  8
0
100
AcDbVertex
100
AcDb2dVertex
 10
10.97116977961481
 20
19.71022394315007
 30
0.0
 42
0.0631748622128132
 50
148.0963691854963
  0
VERTEX
  5
8F
330
8B
100
AcDbEntity
  8
0
100
AcDbVertex
100
AcDb2dVertex
 10
10.79929689291685
 20
19.73202705260874
 30
0.0
 42
0.0631748622128155
  0
SEQEND
  5
90
330
8B
100
AcDbEntity
  8
0
  0
POLYLINE
  5
91
330
6C
100
AcDbEntity
  8
0
100
AcDb2dPolyline
 66
     1
 10
0.0
 20
0.0
 30
0.0
  0
VERTEX
  5
92
330
91
100
AcDbEntity
  8
0
100
AcDbVertex
100
AcDb2dVertex
 10
11.05706220496728
 20
19.59683358463295
 30
0.0
 42
0.0687403046083495
  0
VERTEX
  5
93
330
91
100
AcDbEntity
  8
0
100
AcDbVertex
100
AcDb2dVertex
 10
11.00924100497684
 20
19.65362570315583
 30
0.0
 42
0.0943474025114827
 70
     2
 50
137.9633854595613
  0
VERTEX
  5
94
330
91
100
AcDbEntity
  8
0
100
AcDbVertex
100
AcDb2dVertex
 10
10.91429792805193
 20
19.71125469189869
 30
0.0
 42
0.0895889244631755
 50
137.9633854595613
  0
VERTEX
  5
95
330
91
100
AcDbEntity
  8
0
100
AcDbVertex
100
AcDb2dVertex
 10
10.79929689291685
 20
19.73202705260874
 30
0.0
 42
0.0895889244631779
  0
SEQEND
  5
96
330
91
100
AcDbEntity
  8
0
  0
LINE
  5
97
330
6C
100
AcDbEntity
  8
0
100
AcDbLine
 10
11.36987814875767
 20
19.80669685550275
 30
0.0
 11
10.22871563707606
 21
19.80669685550275
 31
0.0
  0
LINE
  5
98
330
6C
100
AcDbEntity
  8
0
100
AcDbLine
 10
10.22871563707606
 20
19.12199934849379
 30
0.0
 11
11.36987814875767
 21
19.12199934849379
 31
0.0
  0
POLYLINE
  5
99
330
6C
100
AcDbEntity
  8
0
100
AcDb2dPolyline
 66
     1
 10
0.0
 20
0.0
 30
0.0
 70
     1
  0
VERTEX
  5
9A
330
99
100
AcDbEntity
  8
0
100
AcDbVertex
100
AcDb2dVertex
 10
10.22871563707606
 20
19.46434810199827
 30
0.0
 42
0.1828233251715505
  0
VERTEX
  5
9B
330
99
100
AcDbEntity
  8
0
100
AcDbVertex
100
AcDb2dVertex
 10
10.26253060348215
 20
19.37495928225468
 30
0.0
 42
0.1025674015815553
  0
VERTEX
  5
9C
330
99
100
AcDbEntity
  8
0
100
AcDbVertex
100
AcDb2dVertex
 10
10.39583501769389
 20
19.27507050084073
 30
0.0
 42
0.0617587255956112
 70
     2
 50
334.8671392208401
  0
VERTEX
  5
9D
330
99
100
AcDbEntity
  8
0
100
AcDbVertex
100
AcDb2dVertex
 10
10.56791919898986
 20
19.2189416817251
 30
0.0
 42
0.0480192641995976
 50
334.8671392208401
  0
VERTEX
  5
9E
330
99
100
AcDbEntity
  8
0
100
AcDbVertex
100
AcDb2dVertex
 10
10.79929689291685
 20
19.19666915138779
 30
0.0
 42
0.0480192641995965
  0
VERTEX
  5
9F
330
99
100
AcDbEntity
  8
0
100
AcDbVertex
100
AcDb2dVertex
 10
11.03067458684386
 20
19.2189416817251
 30
0.0
 42
0.0617587255956115
  0
VERTEX
  5
A0
330
99
100
AcDbEntity
  8
0
100
AcDbVertex
100
AcDb2dVertex
 10
11.20275876813983
 20
19.27507050084073
 30
0.0
 42
0.1025674015815654
 70
     2
 50
25.13286077915987
  0
VERTEX
  5
A1
330
99
100
AcDbEntity
  8
0
100
AcDbVertex
100
AcDb2dVertex
 10
11.33606318235153
 20
19.37495928225468
 30
0.0
 42
0.18282332517157
 50
25.13286077915987
  0
VERTEX
  5
A2
330
99
100
AcDbEntity
  8
0
100
AcDbVertex
100
AcDb2dVertex
 10
11.36987814875767
 20
19.46434810199827
 30
0.0
 42
0.1828233251715568
  0
VERTEX
  5
A3
330
99
100
AcDbEntity
  8
0
100
AcDbVertex
100
AcDb2dVertex
 10
11.33606318235153
 20
19.55373692174186
 30
0.0
 42
0.102567401581563
  0
VERTEX
  5
A4
330
99
100
AcDbEntity
  8
0
100
AcDbVertex
100
AcDb2dVertex
 10
11.20275876813983
 20
19.65362570315581
 30
0.0
 42
0.0617587255956141
 70
     2
 50
154.86713922084
  0
VERTEX
  5
A5
330
99
100
AcDbEntity
  8
0
100
AcDbVertex
100
AcDb2dVertex
 10
11.03067458684386
 20
19.70975452227144
 30
0.0
 42
0.0480192641995983
 50
154.86713922084
  0
VERTEX
  5
A6
330
99
100
AcDbEntity
  8
0
100
AcDbVertex
100
AcDb2dVertex
 10
10.79929689291685
 20
19.73202705260874
 30
0.0
 42
0.0480192641995976
  0
VERTEX
  5
A7
330
99
100
AcDbEntity
  8
0
100
AcDbVertex
100
AcDb2dVertex
 10
10.56791919898986
 20
19.70975452227144
 30
0.0
 42
0.0617587255956112
  0
VERTEX
  5
A8
330
99
100
AcDbEntity
  8
0
100
AcDbVertex
100
AcDb2dVertex
 10
10.39583501769389
 20
19.65362570315581
 30
0.0
 42
0.1025674015815593
 70
     2
 50
205.1328607791599
  0
VERTEX
  5
A9
330
99
100
AcDbEntity
  8
0
100
AcDbVertex
100
AcDb2dVertex
 10
10.26253060348215
 20
19.55373692174186
 30
0.0
 42
0.1828233251715536
 50
205.1328607791599
  0
SEQEND
  5
AA
330
99
100
AcDbEntity
  8
0
  0
ARC
  5
AB
330
6C
100
AcDbEntity
  8
0
100
AcDbCircle
 10
10.22871563707606
 20
19.69258060433459
 30
0.0
 40
0.1141162511681588
100
AcDbArc
 50
90.0
 51
180.0
  0
LINE
  5
AC
330
6C
100
AcDbEntity
  8
0
100
AcDbLine
 10
10.1145993859079
 20
19.69258060433459
 30
0.0
 11
10.1145993859079
 21
19.23611559966195
 31
0.0
  0
ARC
  5
AD
330
6C
100
AcDbEntity
  8
0
100
AcDbCircle
 10
10.22871563707606
 20
19.23611559966195
 30
0.0
 40
0.1141162511681588
100
AcDbArc
 50
180.0
 51
270.0
  0
POLYLINE
  5
AE
330
6C
100
AcDbEntity
  8
0
100
AcDb2dPolyline
 66
     1
 10
0.0
 20
0.0
 30
0.0
  0
VERTEX
  5
AF
330
AE
100
AcDbEntity
  8
0
100
AcDbVertex
100
AcDb2dVertex
 10
10.68054444192557
 20
19.34678606103737
 30
0.0
 42
0.0570538596573184
  0
VERTEX
  5
B0
330
AE
100
AcDbEntity
  8
0
100
AcDbVertex
100
AcDb2dVertex
 10
10.70617420620903
 20
19.27507050084069
 30
0.0
 42
0.1038195938885091
 70
     2
 50
296.1967246921072
  0
VERTEX
  5
B1
330
AE
100
AcDbEntity
  8
0
100
AcDbVertex
100
AcDb2dVertex
 10
10.7548442058139
 20
19.21289014057188
 30
0.0
 42
0.1767522344444316
 50
296.1967246921072
  0
VERTEX
  5
B2
330
AE
100
AcDbEntity
  8
0
100
AcDbVertex
100
AcDb2dVertex
 10
10.79929689291685
 20
19.19666915138779
 30
0.0
 42
0.1767522344444399
  0
VERTEX
  5
B3
330
AE
100
AcDbEntity
  8
0
100
AcDbVertex
100
AcDb2dVertex
 10
10.84374958001984
 20
19.21289014057188
 30
0.0
 42
0.1038195938885123
  0
VERTEX
  5
B4
330
AE
100
AcDbEntity
  8
0
100
AcDbVertex
100
AcDb2dVertex
 10
10.89241957962467
 20
19.27507050084069
 30
0.0
 42
0.0570538596573163
 70
     2
 50
63.8032753078928
  0
VERTEX
  5
B5
330
AE
100
AcDbEntity
  8
0
100
AcDbVertex
100
AcDb2dVertex
 10
10.91804934390813
 20
19.34678606103737
 30
0.0
 42
0.0503013836282066
 50
63.8032753078928
  0
SEQEND
  5
B6
330
AE
100
AcDbEntity
  8
0
  0
POLYLINE
  5
B7
330
6C
100
AcDbEntity
  8
0
100
AcDb2dPolyline
 66
     1
 10
0.0
 20
0.0
 30
0.0
  0
VERTEX
  5
B8
330
B7
100
AcDbEntity
  8
0
100
AcDbVertex
100
AcDb2dVertex
 10
10.79929689291685
 20
19.73202705260874
 30
0.0
 42
0.1767522344444361
  0
VERTEX
  5
B9
330
B7
100
AcDbEntity
  8
0
100
AcDbVertex
100
AcDb2dVertex
 10
10.7548442058139
 20
19.71580606342465
 30
0.0
 42
0.1038195938884991
  0
VERTEX
  5
BA
330
B7
100
AcDbEntity
  8
0
100
AcDbVertex
100
AcDb2dVertex
 10
10.70617420620903
 20
19.65362570315584
 30
0.0
 42
0.0567223889277798
 70
     2
 50
243.8032753078928
  0
VERTEX
  5
BB
330
B7
100
AcDbEntity
  8
0
100
AcDbVertex
100
AcDb2dVertex
 10
10.68064527675615
 20
19.58234096875396
 30
0.0
 42
0.0503013836282199
 50
243.8032753078928
  0
SEQEND
  5
BC
330
B7
100
AcDbEntity
  8
0
  0
POLYLINE
  5
BD
330
6C
100
AcDbEntity
  8
0
100
AcDb2dPolyline
 66
     1
 10
0.0
 20
0.0
 30
0.0
  0
VERTEX
  5
BE
330
BD
100
AcDbEntity
  8
0
100
AcDbVertex
100
AcDb2dVertex
 10
10.79929689291685
 20
19.73202705260874
 30
0.0
 42
0.0895889244631779
  0
VERTEX
  5
BF
330
BD
100
AcDbEntity
  8
0
100
AcDbVertex
100
AcDb2dVertex
 10
10.68429585778178
 20
19.71125469189869
 30
0.0
 42
0.094347402511486
  0
VERTEX
  5
C0
330
BD
100
AcDbEntity
  8
0
100
AcDbVertex
100
AcDb2dVertex
 10
10.58935278085687
 20
19.65362570315583
 30
0.0
 42
0.0687403046083514
 70
     2
 50
222.0366145404387
  0
VERTEX
  5
C1
330
BD
100
AcDbEntity
  8
0
100
AcDbVertex
100
AcDb2dVertex
 10
10.54153158086644
 20
19.59683358463295
 30
0.0
 42
0.1080871028423927
 50
222.0366145404387
  0
SEQEND
  5
C2
330
BD
100
AcDbEntity
  8
0
  0
POLYLINE
  5
C3
330
6C
100
AcDbEntity
  8
0
100
AcDb2dPolyline
 66
     1
 10
0.0
 20
0.0
 30
0.0
  0
VERTEX
  5
C4
330
C3
100
AcDbEntity
  8
0
100
AcDbVertex
100
AcDb2dVertex
 10
10.79929689291685
 20
19.73202705260874
 30
0.0
 42
0.0631748622128155
  0
VERTEX
  5
C5
330
C3
100
AcDbEntity
  8
0
100
AcDbVertex
100
AcDb2dVertex
 10
10.6274240062189
 20
19.71022394315007
 30
0.0
 42
0.0762621633615699
  0
VERTEX
  5
C6
330
C3
100
AcDbEntity
  8
0
100
AcDbVertex
100
AcDb2dVertex
 10
10.49525265860582
 20
19.65362570315583
 30
0.0
 42
0.0512131062417906
 70
     2
 50
211.9036308145036
  0
VERTEX
  5
C7
330
C3
100
AcDbEntity
  8
0
100
AcDbVertex
100
AcDb2dVertex
 10
10.44359856606183
 20
19.61360617035752
 30
0.0
 42
0.1478388992712295
 50
211.9036308145036
  0
SEQEND
  5
C8
330
C3
100
AcDbEntity
  8
0
  0
POLYLINE
  5
C9
330
6C
100
AcDbEntity
  8
0
100
AcDb2dPolyline
 66
     1
 10
0.0
 20
0.0
 30
0.0
  0
VERTEX
  5
CA
330
C9
100
AcDbEntity
  8
0
100
AcDbVertex
100
AcDb2dVertex
 10
10.91794850907758
 20
19.58234096875396
 30
0.0
 42
0.0567223889277601
  0
VERTEX
  5
CB
330
C9
100
AcDbEntity
  8
0
100
AcDbVertex
100
AcDb2dVertex
 10
10.89241957962467
 20
19.65362570315584
 30
0.0
 42
0.1038195938884991
 70
     2
 50
116.1967246921072
  0
VERTEX
  5
CC
330
C9
100
AcDbEntity
  8
0
100
AcDbVertex
100
AcDb2dVertex
 10
10.84374958001984
 20
19.71580606342465
 30
0.0
 42
0.1767522344444361
 50
116.1967246921072
  0
VERTEX
  5
CD
330
C9
100
AcDbEntity
  8
0
100
AcDbVertex
100
AcDb2dVertex
 10
10.79929689291685
 20
19.73202705260874
 30
0.0
 42
0.1767522344444361
  0
SEQEND
  5
CE
330
C9
100
AcDbEntity
  8
0
  0
ARC
  5
CF
330
6C
100
AcDbEntity
  8
0
100
AcDbCircle
 10
11.36987814875767
 20
19.69258060433459
 30
0.0
 40
0.1141162511681588
100
AcDbArc
 50
0.0
 51
90.0
  0
CIRCLE
  5
D0
330
6C
100
AcDbEntity
  8
0
100
AcDbCircle
 10
11.59162936613599
 20
19.74788844501255
 30
0.0
 40
0.0593881902072543
  0
TEXT
  5
D1
330
6C
100
AcDbEntity
  8
0
100
AcDbText
 10
11.55333187353641
 20
19.70818963169587
 30
0.0
 40
0.0697090837709487
  1
R
  7
SANSSERIF
100
AcDbText
  0
LINE
  5
D2
330
6C
100
AcDbEntity
  8
0
100
AcDbLine
 10
11.4839943999258
 20
19.23611559966195
 30
0.0
 11
11.4839943999258
 21
19.69258060433459
 31
0.0
  0
ARC
  5
D3
330
6C
100
AcDbEntity
  8
0
100
AcDbCircle
 10
11.36987814875767
 20
19.23611559966195
 30
0.0
 40
0.1141162511681588
100
AcDbArc
 50
270.0
 51
0.0
  0
CIRCLE
  5
183
330
6C
100
AcDbEntity
  8
Visible (ANSI)
100
AcDbCircle
 10
14.71003696404975
 20
15.80969820201193
 30
0.0
 40
0.25
  0
CIRCLE
  5
184
330
6C
100
AcDbEntity
  8
Visible (ANSI)
100
AcDbCircle
 10
5.550036964049747
 20
15.80969820201193
 30
0.0
 40
0.25
  0
CIRCLE
  5
185
330
6C
100
AcDbEntity
  8
Visible (ANSI)
100
AcDbCircle
 10
5.550036964049747
 20
6.649698202011932
 30
0.0
 40
0.25
  0
CIRCLE
  5
186
330
6C
100
AcDbEntity
  8
Visible (ANSI)
100
AcDbCircle
 10
14.71003696404975
 20
6.649698202011932
 30
0.0
 40
0.25
  0
CIRCLE
  5
187
330
6C
100
AcDbEntity
  8
Visible (ANSI)
100
AcDbCircle
 10
14.71003696404975
 20
15.05969820201193
 30
0.0
 40
0.15625
  0
CIRCLE
  5
188
330
6C
100
AcDbEntity
  8
Visible (ANSI)
100
AcDbCircle
 10
5.550036964049747
 20
15.05969820201193
 30
0.0
 40
0.15625
  0
CIRCLE
  5
189
330
6C
100
AcDbEntity
  8
Visible (ANSI)
100
AcDbCircle
 10
5.550036964049746
 20
7.399698202011933
 30
0.0
 40
0.15625
  0
CIRCLE
  5
18A
330
6C
100
AcDbEntity
  8
Visible (ANSI)
100
AcDbCircle
 10
14.71003696404975
 20
7.399698202011933
 30
0.0
 40
0.15625
  0
LINE
  5
18B
330
6C
100
AcDbEntity
  8
Visible (ANSI)
100
AcDbLine
 10
5.030036964049744
 20
15.82969820201193
 30
0.0
 11
5.530036964049743
 21
16.32969820201193
 31
0.0
  0
LINE
  5
18C
330
6C
100
AcDbEntity
  8
Visible (ANSI)
100
AcDbLine
 10
5.030036964049747
 20
6.629698202011931
 30
0.0
 11
5.030036964049744
 21
15.82969820201193
 31
0.0
  0
LINE
  5
18D
330
6C
100
AcDbEntity
  8
Visible (ANSI)
100
AcDbLine
 10
14.73003696404975
 20
6.129698202011932
 30
0.0
 11
5.530036964049746
 21
6.129698202011932
 31
0.0
  0
LINE
  5
18E
330
6C
100
AcDbEntity
  8
Visible (ANSI)
100
AcDbLine
 10
15.23003696404974
 20
15.82969820201193
 30
0.0
 11
15.23003696404974
 21
6.629698202011931
 31
0.0
  0
LINE
  5
18F
330
6C
100
AcDbEntity
  8
Visible (ANSI)
100
AcDbLine
 10
5.530036964049743
 20
16.32969820201193
 30
0.0
 11
14.73003696404975
 21
16.32969820201193
 31
0.0
  0
LINE
  5
190
330
6C
100
AcDbEntity
  8
Visible (ANSI)
100
AcDbLine
 10
5.530036964049746
 20
6.129698202011932
 30
0.0
 11
5.030036964049747
 21
6.629698202011931
 31
0.0
  0
LINE
  5
191
330
6C
100
AcDbEntity
  8
Visible (ANSI)
100
AcDbLine
 10
15.23003696404974
 20
6.629698202011932
 30
0.0
 11
14.73003696404975
 21
6.129698202011932
 31
0.0
  0
LINE
  5
192
330
6C
100
AcDbEntity
  8
Visible (ANSI)
100
AcDbLine
 10
14.73003696404975
 20
16.32969820201193
 30
0.0
 11
15.23003696404974
 21
15.82969820201193
 31
0.0
  0
LINE
  5
193
330
6C
100
AcDbEntity
  8
Visible (ANSI)
100
AcDbLine
 10
21.57840406474365
 20
15.82969820201193
 30
0.0
 11
21.57840406474351
 21
16.32969820201193
 31
0.0
  0
LINE
  5
194
330
6C
100
AcDbEntity
  8
Visible (ANSI)
100
AcDbLine
 10
21.48465406474366
 20
15.82969820201193
 30
0.0
 11
21.57840406474365
 21
15.82969820201193
 31
0.0
  0
LINE
  5
195
330
6C
100
AcDbEntity
  8
Visible (ANSI)
100
AcDbLine
 10
21.4846540647435
 20
16.32969820201193
 30
0.0
 11
21.48465406474366
 21
15.82969820201193
 31
0.0
  0
LINE
  5
196
330
6C
100
AcDbEntity
  8
Visible (ANSI)
100
AcDbLine
 10
21.57840406474351
 20
16.32969820201193
 30
0.0
 11
21.4846540647435
 21
16.32969820201193
 31
0.0
  0
LINE
  5
197
330
6C
100
AcDbEntity
  8
Visible (ANSI)
100
AcDbLine
 10
21.57840406474365
 20
6.629698202011932
 30
0.0
 11
21.57840406474365
 21
15.82969820201193
 31
0.0
  0
LINE
  5
198
330
6C
100
AcDbEntity
  8
Visible (ANSI)
100
AcDbLine
 10
21.48465406474366
 20
15.82969820201193
 30
0.0
 11
21.48465406474366
 21
6.629698202011931
 31
0.0
  0
LINE
  5
199
330
6C
100
AcDbEntity
  8
Visible (ANSI)
100
AcDbLine
 10
21.57840406474351
 20
6.129698202011932
 30
0.0
 11
21.57840406474365
 21
6.629698202011932
 31
0.0
  0
LINE
  5
19A
330
6C
100
AcDbEntity
  8
Visible (ANSI)
100
AcDbLine
 10
21.4846540647435
 20
6.129698202011932
 30
0.0
 11
21.57840406474351
 21
6.129698202011932
 31
0.0
  0
LINE
  5
19B
330
6C
100
AcDbEntity
  8
Visible (ANSI)
100
AcDbLine
 10
21.48465406474366
 20
6.629698202011932
 30
0.0
 11
21.4846540647435
 21
6.129698202011932
 31
0.0
  0
LINE
  5
19C
330
6C
100
AcDbEntity
  8
Visible (ANSI)
100
AcDbLine
 10
21.57840406474365
 20
6.629698202011932
 30
0.0
 11
21.48465406474366
 21
6.629698202011932
 31
0.0
  0
LINE
  5
19D
330
6C
100
AcDbEntity
  8
Hidden (ANSI)
 48
0.0891826525330544
100
AcDbLine
 10
21.4846540647435
 20
16.05969820201194
 30
0.0
 11
21.5784040647435
 21
16.05969820201194
 31
0.0
  0
LINE
  5
19E
330
6C
100
AcDbEntity
  8
Hidden (ANSI)
 48
0.0891826525330544
100
AcDbLine
 10
21.4846540647435
 20
15.55969820201193
 30
0.0
 11
21.5784040647435
 21
15.55969820201193
 31
0.0
  0
LINE
  5
19F
330
6C
100
AcDbEntity
  8
Hidden (ANSI)
 48
0.0891826525330544
100
AcDbLine
 10
21.4846540647435
 20
6.899698202011931
 30
0.0
 11
21.5784040647435
 21
6.899698202011931
 31
0.0
  0
LINE
  5
1A0
330
6C
100
AcDbEntity
  8
Hidden (ANSI)
 48
0.0891826525330544
100
AcDbLine
 10
21.4846540647435
 20
6.399698202011932
 30
0.0
 11
21.5784040647435
 21
6.399698202011932
 31
0.0
  0
LINE
  5
1A1
330
6C
100
AcDbEntity
  8
Hidden (ANSI)
 48
0.0891826525330544
100
AcDbLine
 10
21.4846540647435
 20
15.21594820201193
 30
0.0
 11
21.5784040647435
 21
15.21594820201193
 31
0.0
  0
LINE
  5
1A2
330
6C
100
AcDbEntity
  8
Hidden (ANSI)
 48
0.0891826525330544
100
AcDbLine
 10
21.4846540647435
 20
14.90344820201193
 30
0.0
 11
21.5784040647435
 21
14.90344820201193
 31
0.0
  0
LINE
  5
1A3
330
6C
100
AcDbEntity
  8
Hidden (ANSI)
 48
0.0891826525330544
100
AcDbLine
 10
21.4846540647435
 20
7.555948202011932
 30
0.0
 11
21.5784040647435
 21
7.555948202011932
 31
0.0
  0
LINE
  5
1A4
330
6C
100
AcDbEntity
  8
Hidden (ANSI)
 48
0.0891826525330544
100
AcDbLine
 10
21.4846540647435
 20
7.243448202011932
 30
0.0
 11
21.5784040647435
 21
7.243448202011932
 31
0.0
  0
ELLIPSE
  5
1A5
330
6C
100
AcDbEntity
  8
Visible (ANSI)
100
AcDbEllipse
 10
31.63107578140097
 20
16.41058254838089
 30
0.0
 11
-0.0623790264480499
 21
0.1083229295181471
 31
0.0
210
0.0
220
0.0
230
1.0
 40
0.578093115915812
 41
0.267844877812554
 42
2.873747775777265
  0
ELLIPSE
  5
1A6
330
6C
100
AcDbEntity
  8
Visible (ANSI)
100
AcDbEllipse
 10
31.59793015103286
 20
16.39149524929688
 30
0.0
 11
-0.06237902644805
 21
0.1083229295181472
 31
0.0
210
0.0
220
0.0
230
1.0
 40
0.5780931159158121
 41
0.0
 42
6.283185307179586
  0
ELLIPSE
  5
1A7
330
6C
100
AcDbEntity
  8
Visible (ANSI)
100
AcDbEllipse
 10
28.39252672356611
 20
18.2755389175495
 30
0.0
 11
-0.06237902644805
 21
0.1083229295181473
 31
0.0
210
0.0
220
0.0
230
1.0
 40
0.5780931159158121
 41
0.2678448778125544
 42
2.873747775777266
  0
ELLIPSE
  5
1A8
330
6C
100
AcDbEntity
  8
Visible (ANSI)
100
AcDbEllipse
 10
28.359381093198
 20
18.25645161846548
 30
0.0
 11
-0.06237902644805
 21
0.1083229295181472
 31
0.0
210
0.0
220
0.0
230
1.0
 40
0.5780931159158121
 41
0.0
 42
6.283185307179586
  0
ELLIPSE
  5
1A9
330
6C
100
AcDbEntity
  8
Visible (ANSI)
100
AcDbEllipse
 10
28.39252672356611
 20
14.53117308577065
 30
0.0
 11
-0.0623790264480499
 21
0.1083229295181472
 31
0.0
210
0.0
220
0.0
230
1.0
 40
0.5780931159158122
 41
0.2678448778125543
 42
2.873747775777266
  0
ELLIPSE
  5
1AA
330
6C
100
AcDbEntity
  8
Visible (ANSI)
100
AcDbEllipse
 10
28.35938109319799
 20
14.51208578668663
 30
0.0
 11
-0.06237902644805
 21
0.1083229295181472
 31
0.0
210
0.0
220
0.0
230
1.0
 40
0.5780931159158121
 41
0.0
 42
6.283185307179586
  0
ELLIPSE
  5
1AB
330
6C
100
AcDbEntity
  8
Visible (ANSI)
100
AcDbEllipse
 10
31.63107578140097
 20
12.66621671660204
 30
0.0
 11
-0.06237902644805
 21
0.1083229295181473
 31
0.0
210
0.0
220
0.0
230
1.0
 40
0.5780931159158121
 41
0.2678448778125544
 42
2.873747775777259
  0
ELLIPSE
  5
1AC
330
6C
100
AcDbEntity
  8
Visible (ANSI)
100
AcDbEllipse
 10
31.59793015103285
 20
12.64712941751803
 30
0.0
 11
-0.06237902644805
 21
0.1083229295181472
 31
0.0
210
0.0
220
0.0
230
1.0
 40
0.5780931159158121
 41
0.0
 42
6.283185307179586
  0
ELLIPSE
  5
1AD
330
6C
100
AcDbEntity
  8
Visible (ANSI)
100
AcDbEllipse
 10
31.63107578140097
 20
16.10400237656494
 30
0.0
 11
0.0389868915300353
 21
-0.0677018309488398
 31
0.0
210
0.0
220
0.0
230
1.0
 40
0.5780931159158122
 41
3.578838513251547
 42
5.845939447516942
  0
ELLIPSE
  5
1AE
330
6C
100
AcDbEntity
  8
Visible (ANSI)
100
AcDbEllipse
 10
31.59793015103286
 20
16.08491507748092
 30
0.0
 11
-0.0389868915300312
 21
0.067701830948842
 31
0.0
210
0.0
220
0.0
230
0.9999999999999998
 40
0.5780931159158121
 41
0.0
 42
6.283185307179586
  0
ELLIPSE
  5
1AF
330
6C
100
AcDbEntity
  8
Visible (ANSI)
100
AcDbEllipse
 10
28.39252672356611
 20
17.96895874573354
 30
0.0
 11
0.0389868915300352
 21
-0.0677018309488396
 31
0.0
210
0.0
220
0.0
230
0.9999999999999998
 40
0.5780931159158121
 41
3.578838513251547
 42
5.845939447517054
  0
ELLIPSE
  5
1B0
330
6C
100
AcDbEntity
  8
Visible (ANSI)
100
AcDbEllipse
 10
28.359381093198
 20
17.94987144664952
 30
0.0
 11
-0.0389868915300312
 21
0.067701830948842
 31
0.0
210
0.0
220
0.0
230
0.9999999999999998
 40
0.5780931159158121
 41
0.0
 42
6.283185307179586
  0
ELLIPSE
  5
1B1
330
6C
100
AcDbEntity
  8
Visible (ANSI)
100
AcDbEllipse
 10
28.39252672356611
 20
14.8377532575866
 30
0.0
 11
0.0389868915300353
 21
-0.0677018309488397
 31
0.0
210
0.0
220
0.0
230
1.0
 40
0.578093115915812
 41
3.578838513251547
 42
5.845939447516956
  0
ELLIPSE
  5
1B2
330
6C
100
AcDbEntity
  8
Visible (ANSI)
100
AcDbEllipse
 10
28.35938109319799
 20
14.81866595850258
 30
0.0
 11
-0.0389868915300312
 21
0.067701830948842
 31
0.0
210
0.0
220
0.0
230
0.9999999999999998
 40
0.5780931159158121
 41
0.0
 42
6.283185307179586
  0
ELLIPSE
  5
1B3
330
6C
100
AcDbEntity
  8
Visible (ANSI)
100
AcDbEllipse
 10
31.63107578140097
 20
12.972796888418
 30
0.0
 11
0.0389868915300355
 21
-0.0677018309488401
 31
0.0
210
0.0
220
0.0
230
1.0
 40
0.5780931159158121
 41
3.578838513251547
 42
5.845939447516956
  0
ELLIPSE
  5
1B4
330
6C
100
AcDbEntity
  8
Visible (ANSI)
100
AcDbEllipse
 10
31.59793015103285
 20
12.95370958933398
 30
0.0
 11
-0.0389868915300312
 21
0.067701830948842
 31
0.0
210
0.0
220
0.0
230
0.9999999999999998
 40
0.5780931159158121
 41
0.0
 42
6.283185307179586
  0
LINE
  5
1B5
330
6C
100
AcDbEntity
  8
Visible (ANSI)
100
AcDbLine
 10
28.17553333008946
 20
18.37049797529989
 30
0.0
 11
28.35231002538613
 21
18.47308582806246
 31
0.0
  0
LINE
  5
1B6
330
6C
100
AcDbEntity
  8
Visible (ANSI)
100
AcDbLine
 10
28.35231002538613
 20
18.47308582806246
 30
0.0
 11
28.38545565575424
 21
18.49217312714648
 31
0.0
  0
LINE
  5
1B7
330
6C
100
AcDbEntity
  8
Visible (ANSI)
100
AcDbLine
 10
28.17553333008946
 20
14.6097812010242
 30
0.0
 11
28.17553333008946
 21
18.37049797529989
 31
0.0
  0
LINE
  5
1B8
330
6C
100
AcDbEntity
  8
Visible (ANSI)
100
AcDbLine
 10
31.63814684921284
 20
16.61907284370203
 30
0.0
 11
28.38545565575424
 21
18.49217312714648
 31
0.0
  0
LINE
  5
1B9
330
6C
100
AcDbEntity
  8
Visible (ANSI)
100
AcDbLine
 10
31.81492354450949
 20
12.55217035976763
 30
0.0
 11
31.8149235445095
 21
16.31288713404333
 31
0.0
  0
LINE
  5
1BA
330
6C
100
AcDbEntity
  8
Visible (ANSI)
100
AcDbLine
 10
31.60500121884472
 20
12.43049520792104
 30
0.0
 11
28.35231002538613
 21
14.30359549136549
 31
0.0
  0
LINE
  5
1BB
330
6C
100
AcDbEntity
  8
Visible (ANSI)
100
AcDbLine
 10
31.78177791414138
 20
16.29379983495931
 30
0.0
 11
31.78177791414138
 21
12.53308306068361
 31
0.0
  0
LINE
  5
1BC
330
6C
100
AcDbEntity
  8
Visible (ANSI)
100
AcDbLine
 10
28.35231002538613
 20
18.47308582806246
 30
0.0
 11
31.60500121884472
 21
16.59998554461801
 31
0.0
  0
LINE
  5
1BD
330
6C
100
AcDbEntity
  8
Visible (ANSI)
100
AcDbLine
 10
31.8149235445095
 20
16.31288713404333
 30
0.0
 11
31.63814684921284
 21
16.61907284370203
 31
0.0
  0
LINE
  5
1BE
330
6C
100
AcDbEntity
  8
Visible (ANSI)
100
AcDbLine
 10
31.78177791414138
 20
16.29379983495931
 30
0.0
 11
31.8149235445095
 21
16.31288713404333
 31
0.0
  0
LINE
  5
1BF
330
6C
100
AcDbEntity
  8
Visible (ANSI)
100
AcDbLine
 10
31.60500121884472
 20
16.59998554461801
 30
0.0
 11
31.78177791414138
 21
16.29379983495931
 31
0.0
  0
LINE
  5
1C0
330
6C
100
AcDbEntity
  8
Visible (ANSI)
100
AcDbLine
 10
31.63814684921284
 20
16.61907284370203
 30
0.0
 11
31.60500121884472
 21
16.59998554461801
 31
0.0
  0
LINE
  5
1C1
330
6C
100
AcDbEntity
  8
Visible (ANSI)
100
AcDbLine
 10
31.63814684921284
 20
12.44958250700506
 30
0.0
 11
31.81492354450949
 21
12.55217035976763
 31
0.0
  0
LINE
  5
1C2
330
6C
100
AcDbEntity
  8
Visible (ANSI)
100
AcDbLine
 10
31.60500121884472
 20
12.43049520792104
 30
0.0
 11
31.63814684921284
 21
12.44958250700506
 31
0.0
  0
LINE
  5
1C3
330
6C
100
AcDbEntity
  8
Visible (ANSI)
100
AcDbLine
 10
31.78177791414138
 20
12.53308306068361
 30
0.0
 11
31.60500121884472
 21
12.43049520792104
 31
0.0
  0
LINE
  5
1C4
330
6C
100
AcDbEntity
  8
Visible (ANSI)
100
AcDbLine
 10
31.81492354450949
 20
12.55217035976763
 30
0.0
 11
31.78177791414138
 21
12.53308306068361
 31
0.0
  0
LINE
  5
1C5
330
6C
100
AcDbEntity
  8
Visible (ANSI)
100
AcDbLine
 10
28.35231002538613
 20
14.30359549136549
 30
0.0
 11
28.17553333008946
 21
14.6097812010242
 31
0.0
  0
DIMENSION
  5
1C6
330
6C
100
AcDbEntity
  8
Dimension (ANSI)
100
AcDbDimension
  2
*D4
 10
3.553352960627394
 20
16.32969820201193
 30
0.0
 11
3.553352960627392
 21
11.28908242419321
 31
0.0
 70
   160
  1
<>
 42
10.2
  3
Default (ANSI)
100
AcDbAlignedDimension
 13
5.530036964049746
 23
6.129698202011932
 33
0.0
 14
5.530036964049743
 24
16.32969820201193
 34
0.0
 50
90.0
100
AcDbRotatedDimension
1001
ACAD
1000
DSTYLE
1002
{
1070
   289
1070
     1
1070
   271
1070
     2
1070
   272
1070
     2
1070
    48
1040
0.0
1070
    47
1040
0.0
1002
}
  0
DIMENSION
  5
2B3
330
6C
100
AcDbEntity
  8
Dimension (ANSI)
100
AcDbDimension
  2
*D5
 10
15.23003696404974
 20
17.56198166657886
 30
0.0
 11
10.13003696404974
 21
17.56198166657886
 31
0.0
 70
   160
  1
<>
 42
10.2
  3
Default (ANSI)
100
AcDbAlignedDimension
 13
5.030036964049744
 23
15.82969820201193
 33
0.0
 14
15.23003696404974
 24
15.82969820201193
 34
0.0
100
AcDbRotatedDimension
1001
ACAD
1000
DSTYLE
1002
{
1070
   289
1070
     1
1070
    73
1070
     0
1070
    74
1070
     0
1070
   271
1070
     2
1070
   272
1070
     2
1070
    48
1040
0.0
1070
    47
1040
0.0
1002
}
  0
DIMENSION
  5
39D
330
6C
100
AcDbEntity
  8
Dimension (ANSI)
100
AcDbDimension
  2
*D6
 10
3.956977616857177
 20
7.399698202011933
 30
0.0
 11
4.521776490742779
 21
7.776113804500772
 31
0.0
 70
   160
  1
<>
 42
0.7500000000000009
  3
Default (ANSI)
100
AcDbAlignedDimension
 13
5.550036964049747
 23
6.649698202011932
 33
0.0
 14
5.550036964049746
 24
7.399698202011933
 34
0.0
 50
90.0
100
AcDbRotatedDimension
1001
ACAD
1000
DSTYLE
1002
{
1070
   289
1070
     2
1070
   271
1070
     2
1070
   272
1070
     2
1070
    48
1040
0.0
1070
    47
1040
0.0
1002
}
  0
DIMENSION
  5
495
330
6C
100
AcDbEntity
  8
Dimension (ANSI)
100
AcDbDimension
  2
*D7
 10
17.16596966452877
 20
15.80969820201193
 30
0.0
 11
16.59980074357731
 21
15.1768394431674
 31
0.0
 70
   160
  1
<>
 42
0.5199999999999961
  3
Default (ANSI)
100
AcDbAlignedDimension
 13
14.73003696404975
 23
16.32969820201193
 33
0.0
 14
14.71003696404975
 24
15.80969820201193
 34
0.0
 50
270.0
100
AcDbRotatedDimension
1001
ACAD
1000
DSTYLE
1002
{
1070
   289
1070
     1
1070
   271
1070
     2
1070
   272
1070
     2
1070
    48
1040
0.0
1070
    47
1040
0.0
1002
}
  0
DIMENSION
  5
595
330
6C
100
AcDbEntity
  8
Dimension (ANSI)
100
AcDbDimension
  2
*D8
 10
14.71003696404975
 20
17.08954072169697
 30
0.0
 11
15.99305627424338
 21
17.08954072169697
 31
0.0
 70
   160
  1
<>
 42
0.5199999999999961
  3
Default (ANSI)
100
AcDbAlignedDimension
 13
15.23003696404974
 23
15.82969820201193
 33
0.0
 14
14.71003696404975
 24
15.80969820201193
 34
0.0
 50
180.0
100
AcDbRotatedDimension
1001
ACAD
1000
DSTYLE
1002
{
1070
   289
1070
     1
1070
    73
1070
     0
1070
    74
1070
     0
1070
   271
1070
     2
1070
   272
1070
     2
1070
    48
1040
0.0
1070
    47
1040
0.0
1002
}
  0
DIMENSION
  5
67F
330
6C
100
AcDbEntity
  8
Dimension (ANSI)
100
AcDbDimension
  2
*D9
 10
4.112238611647819
 20
15.80969820201193
 30
0.0
 11
4.112238611647816
 21
12.65262066480909
 31
0.0
 70
   160
  1
<>
 42
9.160000000000001
  3
Default (ANSI)
100
AcDbAlignedDimension
 13
5.550036964049747
 23
6.649698202011932
 33
0.0
 14
5.550036964049747
 24
15.80969820201193
 34
0.0
 50
90.0
100
AcDbRotatedDimension
1001
ACAD
1000
DSTYLE
1002
{
1070
   289
1070
     1
1070
   271
1070
     3
1070
   272
1070
     3
1070
    48
1040
0.0
1070
    47
1040
0.0
1002
}
  0
MTEXT
  5
769
102
{ACAD_REACTORS
330
76A
102
}
330
6C
100
AcDbEntity
  8
Symbol (ANSI)
100
AcDbMText
 10
22.99471252015411
 20
13.11311065176911
 30
0.0
 40
0.2400000029661524
 41
0.9815883448743443
 71
     1
 72
     1
  1
{12 GA.}
  7
Note Text (ANSI)
 73
     1
 44
1.0
1001
ACAD
1000
MTEXTBEGIN
1070
    73
1070
     1
1070
    44
1040
1.0
1070
    74
1070
     0
1000
MTEXTEND
  0
LEADER
  5
76A
330
6C
100
AcDbEntity
  8
Symbol (ANSI)
100
AcDbLeader
  3
Default (ANSI)$7
 73
     0
 74
     0
 75
     1
 40
0.249670923166266
 41
0.9145466869240756
 76
     3
 10
21.57840406474365
 20
11.77365258857732
 30
0.0
 10
22.73487000492768
 20
12.99311065028603
 30
0.0
 10
22.93172039416985
 20
12.99311065028603
 30
0.0
340
769
213
0.0
223
-0.1200000014830762
233
0.0
1001
ACAD
1000
DSTYLE
1002
{
1070
    77
1070
     0
1002
}
  0
DIMENSION
  5
76B
330
6C
100
AcDbEntity
  8
Dimension (ANSI)
100
AcDbDimension
  2
*D10
 10
15.45070548087431
 20
6.629698202011931
 30
0.0
 11
16.01743853885289
 21
7.202964198201558
 31
0.0
 70
   160
  1
<>
 42
0.4999999999999992
  3
Default (ANSI)
100
AcDbAlignedDimension
 13
14.73003696404975
 23
6.129698202011932
 33
0.0
 14
15.23003696404974
 24
6.629698202011931
 34
0.0
 50
90.0
100
AcDbRotatedDimension
1001
ACAD
1000
DSTYLE
1002
{
1070
   289
1070
     1
1070
   271
1070
     2
1070
   272
1070
     2
1070
    48
1040
0.0
1070
    47
1040
0.0
1002
}
  0
DIMENSION
  5
86A
330
6C
100
AcDbEntity
  8
Dimension (ANSI)
100
AcDbDimension
  2
*D11
 10
14.73003696404975
 20
5.342296627208782
 30
0.0
 11
13.83887495297446
 21
5.342296627208782
 31
0.0
 70
   160
  1
<>
 42
0.5
  3
Default (ANSI)
100
AcDbAlignedDimension
 13
15.23003696404974
 23
6.629698202011931
 33
0.0
 14
14.73003696404975
 24
6.129698202011932
 34
0.0
 50
180.0
100
AcDbRotatedDimension
1001
ACAD
1000
DSTYLE
1002
{
1070
   289
1070
     1
1070
    73
1070
     0
1070
    74
1070
     0
1070
   271
1070
     2
1070
   272
1070
     2
1070
    48
1040
0.0
1070
    47
1040
0.0
1002
}
  0
DIMENSION
  5
954
330
6C
100
AcDbEntity
  8
Dimension (ANSI)
100
AcDbDimension
  2
*D12
 10
5.703593958082542
 20
15.61241604472543
 30
0.0
 11
2.791708004450597
 21
17.97718554610112
 31
0.0
 70
   163
  1
<>{\PTYP.(4PL.)}
 71
     3
 42
0.5
  3
Default (ANSI)
100
AcDbDiametricDimension
 15
5.396479970016944
 25
16.00698035929841
 35
0.0
 40
0.0
1001
ACAD_DSTYLE_DIMRADIAL_EXTENSION
1070
   387
1070
     1
1070
   388
1040
0.0
1070
   390
1040
0.0
1001
ACAD
1000
DSTYLE
1002
{
1070
   145
1040
-0.25
1070
   144
1040
0.9999999999999928
1070
   271
1070
     2
1070
   272
1070
     2
1070
    48
1040
0.0
1070
    47
1040
0.0
1002
}
  0
DIMENSION
  5
A0E
330
6C
100
AcDbEntity
  8
Dimension (ANSI)
100
AcDbDimension
  2
*D13
 10
5.509596488252437
 20
7.550624112369587
 30
0.0
 11
7.250901983931528
 21
5.24224895136043
 31
0.0
 70
   163
  1
<>{\PTYP. (4PL.)}
 42
0.3125
  3
Default (ANSI)
100
AcDbDiametricDimension
 15
5.590477439847051
 25
7.248772291654275
 35
0.0
 40
0.0
1001
ACAD_DSTYLE_DIMRADIAL_EXTENSION
1070
   387
1070
     1
1070
   388
1040
0.0
1070
   390
1040
0.0
1001
ACAD
1000
DSTYLE
1002
{
1070
   145
1040
-0.25
1070
   144
1040
1.000000000000005
1070
   271
1070
     2
1070
   272
1070
     2
1070
    48
1040
0.0
1070
    47
1040
0.0
1002
}
  0
DIMENSION
  5
AC7
330
6C
100
AcDbEntity
  8
Dimension (ANSI)
100
AcDbDimension
  2
*D14
 10
5.550036964049747
 20
17.08954072169697
 30
0.0
 11
10.13003696404974
 21
17.08954072169697
 31
0.0
 70
   160
  1
<>
 42
9.160000000000001
  3
Default (ANSI)
100
AcDbAlignedDimension
 13
14.71003696404975
 23
15.80969820201193
 33
0.0
 14
5.550036964049747
 24
15.80969820201193
 34
0.0
 50
180.0
100
AcDbRotatedDimension
1001
ACAD
1000
DSTYLE
1002
{
1070
   289
1070
     1
1070
    73
1070
     0
1070
    74
1070
     0
1070
   271
1070
     3
1070
   272
1070
     3
1070
    48
1040
0.0
1070
    47
1040
0.0
1002
}
  0
ENDSEC
  0
SECTION
  2
OBJECTS
  0
DICTIONARY
  5
C
330
0
100
AcDbDictionary
281
     1
  3
ACAD_CIP_PREVIOUS_PRODUCT_INFO
350
BB1
  3
ACAD_COLOR
350
63
  3
ACAD_GROUP
350
D
  3
ACAD_LAYOUT
350
62
  3
ACAD_MATERIAL
350
10
  3
ACAD_MLEADERSTYLE
350
66
  3
ACAD_MLINESTYLE
350
5F
  3
ACAD_PLOTSETTINGS
350
61
  3
ACAD_PLOTSTYLENAME
350
E
  3
ACAD_SCALELIST
350
42
  3
ACAD_TABLESTYLE
350
64
  3
ACAD_VISUALSTYLE
350
29
  3
ACDB_RECOMPOSE_DATA
350
BC0
  3
AcDbVariableDictionary
350
D8
  3
DWGPROPS
350
BC1
  0
DICTIONARY
  5
BFD
330
A08
100
AcDbDictionary
280
     1
281
     1
  3
ACAD_MTEXT_RT
360
BFE
  0
DICTIONARY
  5
BFF
330
AC1
100
AcDbDictionary
280
     1
281
     1
  3
ACAD_MTEXT_RT
360
C00
  0
XRECORD
  5
BB1
102
{ACAD_REACTORS
330
C
102
}
330
C
100
AcDbXrecord
280
     1
300
INVNTOR
300
2012
300
85795PDSP_2012_0F
  0
DICTIONARY
  5
63
102
{ACAD_REACTORS
330
C
102
}
330
C
100
AcDbDictionary
281
     1
  0
DICTIONARY
  5
D
102
{ACAD_REACTORS
330
C
102
}
330
C
100
AcDbDictionary
281
     1
  0
DICTIONARY
  5
62
102
{ACAD_REACTORS
330
C
102
}
330
C
100
AcDbDictionary
281
     1
  3
Layout1
350
6B
  3
Layout2
350
73
  3
Model
350
6F
  0
DICTIONARY
  5
10
102
{ACAD_REACTORS
330
C
102
}
330
C
100
AcDbDictionary
281
     1
  3
ByBlock
350
19
  3
ByLayer
350
11
  3
Global
350
21
  0
DICTIONARY
  5
66
102
{ACAD_REACTORS
330
C
102
}
330
C
100
AcDbDictionary
281
     1
  3
Standard
350
67
  0
DICTIONARY
  5
5F
102
{ACAD_REACTORS
330
C
102
}
330
C
100
AcDbDictionary
281
     1
  3
Standard
350
60
  0
DICTIONARY
  5
61
102
{ACAD_REACTORS
330
C
102
}
330
C
100
AcDbDictionary
281
     1
  0
ACDBDICTIONARYWDFLT
  5
E
102
{ACAD_REACTORS
330
C
102
}
330
C
100
AcDbDictionary
281
     1
  3
Normal
350
F
100
AcDbDictionaryWithDefault
340
F
  0
DICTIONARY
  5
42
102
{ACAD_REACTORS
330
C
102
}
330
C
100
AcDbDictionary
281
     1
  3
A0
350
43
  3
A1
350
44
  3
A2
350
45
  3
A3
350
46
  3
A4
350
47
  3
A5
350
48
  3
A6
350
49
  3
A7
350
4A
  3
A8
350
4B
  3
A9
350
4C
  3
B0
350
4D
  3
B1
350
4E
  3
B2
350
4F
  3
B3
350
50
  3
B4
350
51
  3
B5
350
52
  3
B6
350
53
  0
DICTIONARY
  5
64
102
{ACAD_REACTORS
330
C
102
}
330
C
100
AcDbDictionary
281
     1
  3
Standard
350
65
  0
DICTIONARY
  5
29
102
{ACAD_REACTORS
330
C
102
}
330
C
100
AcDbDictionary
281
     1
  3
2dWireframe
350
2F
  3
Basic
350
2E
  3
Brighten
350
35
  3
ColorChange
350
39
  3
Conceptual
350
32
  3
Dim
350
34
  3
EdgeColorOff
350
41
  3
Facepattern
350
38
  3
Flat
350
2A
  3
FlatWithEdges
350
2B
  3
Gouraud
350
2C
  3
GouraudWithEdges
350
2D
  3
Hidden
350
31
  3
JitterOff
350
3F
  3
Linepattern
350
37
  3
OverhangOff
350
40
  3
Realistic
350
33
  3
Shaded
350
3E
  3
Shaded with edges
350
3D
  3
Shades of Gray
350
3A
  3
Sketchy
350
3B
  3
Thicken
350
36
  3
Wireframe
350
30
  3
X-Ray
350
3C
  0
XRECORD
  5
BC0
102
{ACAD_REACTORS
330
C
102
}
330
C
100
AcDbXrecord
280
     1
 90
        1
330
65
330
39D
  0
DICTIONARY
  5
D8
102
{ACAD_REACTORS
330
C
102
}
330
C
100
AcDbDictionary
281
     1
  3
CANNOSCALE
350
DB
  3
CMLEADERSTYLE
350
DA
  3
CTABLESTYLE
350
D9
  3
DIMASSOC
350
BB9
  3
HIDETEXT
350
BB8
  3
INDEXCTL
350
BB7
  3
LAYEREVAL
350
BB4
  3
LAYERNOTIFY
350
BB5
  3
LIGHTINGUNITS
350
BB3
  3
MSLTSCALE
350
BB2
  3
SORTENTS
350
BB6
  3
XCLIPFRAME
350
BBA
  0
XRECORD
  5
BC1
102
{ACAD_REACTORS
330
C
102
}
330
C
100
AcDbXrecord
280
     1
  1
DWGPROPS COOKIE
  2

  3

  4
EC
  6

  7

  8

  9
-
300
Manager=
301
Company=
302
Category=
303
Part Number=NP1212C
304
Description=NPC PANEL MASTER VIEW
305
Project=
306
Designer=EC
307
Engineer=
308
Authority=
309
Cost Center=
 40
0.0000403472222222
 41
2455944.459574467
 42
2455944.459574467
  1

 90
       20
300
Vendor=
300
User Status=
300
Design Status=WorkInProgress
300
Checked by=JG
300
Date Checked=02/19/2009
300
Engr Approved by=
300
Mfg Approved by=
300
DWG. NO=
300
NUMBER OF SHEETS=1
300
DRAWING #=1
  0
XRECORD
  5
BFE
102
{ACAD_REACTORS
330
BFD
102
}
330
BFD
100
AcDbXrecord
280
     1
 40
29624.0
  1
\A1;\U+22050.50{\PTYP.(4PL.)}
  0
XRECORD
  5
C00
102
{ACAD_REACTORS
330
BFF
102
}
330
BFF
100
AcDbXrecord
280
     1
 40
30807.0
  1
\A1;\U+22050.31{\PTYP. (4PL.)}
  0
LAYOUT
  5
6B
102
{ACAD_XDICTIONARY
360
BF7
102
}
102
{ACAD_REACTORS
330
62
102
}
330
62
100
AcDbPlotSettings
  1

  2

  4

  6

 40
0.0
 41
0.0
 42
0.0
 43
0.0
 44
0.0
 45
0.0
 46
0.0
 47
0.0
 48
0.0
 49
0.0
140
0.0
141
0.0
142
1.0
143
1.0
 70
   688
 72
     0
 73
     0
 74
     5
  7

 75
    16
147
1.0
148
0.0
149
0.0
100
AcDbLayout
  1
Layout1
 70
     1
 71
     1
 10
0.0
 20
0.0
 11
12.0
 21
9.0
 12
0.0
 22
0.0
 32
0.0
 14
0.0
 24
0.0
 34
0.0
 15
0.0
 25
0.0
 35
0.0
146
0.0
 13
0.0
 23
0.0
 33
0.0
 16
1.0
 26
0.0
 36
0.0
 17
0.0
 27
1.0
 37
0.0
 76
     0
330
68
  0
LAYOUT
  5
73
102
{ACAD_XDICTIONARY
360
BFB
102
}
102
{ACAD_REACTORS
330
62
102
}
330
62
100
AcDbPlotSettings
  1

  2

  4

  6

 40
0.0
 41
0.0
 42
0.0
 43
0.0
 44
0.0
 45
0.0
 46
0.0
 47
0.0
 48
0.0
 49
0.0
140
0.0
141
0.0
142
1.0
143
1.0
 70
   688
 72
     0
 73
     0
 74
     5
  7

 75
    16
147
1.0
148
0.0
149
0.0
100
AcDbLayout
  1
Layout2
 70
     1
 71
     2
 10
0.0
 20
0.0
 11
12.0
 21
9.0
 12
0.0
 22
0.0
 32
0.0
 14
0.0
 24
0.0
 34
0.0
 15
0.0
 25
0.0
 35
0.0
146
0.0
 13
0.0
 23
0.0
 33
0.0
 16
1.0
 26
0.0
 36
0.0
 17
0.0
 27
1.0
 37
0.0
 76
     0
330
70
  0
LAYOUT
  5
6F
102
{ACAD_XDICTIONARY
360
BF9
102
}
102
{ACAD_REACTORS
330
62
102
}
330
62
100
AcDbPlotSettings
  1

  2

  4

  6

 40
0.0
 41
0.0
 42
0.0
 43
0.0
 44
0.0
 45
0.0
 46
0.0
 47
0.0
 48
0.0
 49
0.0
140
0.0
141
0.0
142
1.0
143
1.0
 70
  1712
 72
     0
 73
     0
 74
     0
  7

 75
     0
147
1.0
148
0.0
149
0.0
100
AcDbLayout
  1
Model
 70
     1
 71
     0
 10
0.0
 20
0.0
 11
12.0
 21
9.0
 12
0.0
 22
0.0
 32
0.0
 14
0.0
 24
0.0
 34
0.0
 15
0.0
 25
0.0
 35
0.0
146
0.0
 13
0.0
 23
0.0
 33
0.0
 16
1.0
 26
0.0
 36
0.0
 17
0.0
 27
1.0
 37
0.0
 76
     0
330
6C
  0
MATERIAL
  5
19
102
{ACAD_XDICTIONARY
360
1A
102
}
102
{ACAD_REACTORS
330
10
102
}
330
10
100
AcDbMaterial
  1
ByBlock
 72
     0
 43
0.0208333333333333
 43
0.0
 43
0.0
 43
0.0
 43
0.0
 43
0.0208333333333333
 43
0.0
 43
0.0
 43
0.0
 43
0.0
 43
1.0
 43
0.0
 43
0.0
 43
0.0
 43
0.0
 43
1.0
 77
     0
 47
0.0208333333333333
 47
0.0
 47
0.0
 47
0.0
 47
0.0
 47
0.0208333333333333
 47
0.0
 47
0.0
 47
0.0
 47
0.0
 47
1.0
 47
0.0
 47
0.0
 47
0.0
 47
0.0
 47
1.0
171
     0
 49
0.0208333333333333
 49
0.0
 49
0.0
 49
0.0
 49
0.0
 49
0.0208333333333333
 49
0.0
 49
0.0
 49
0.0
 49
0.0
 49
1.0
 49
0.0
 49
0.0
 49
0.0
 49
0.0
 49
1.0
175
     0
142
0.0208333333333333
142
0.0
142
0.0
142
0.0
142
0.0
142
0.0208333333333333
142
0.0
142
0.0
142
0.0
142
0.0
142
1.0
142
0.0
142
0.0
142
0.0
142
0.0
142
1.0
179
     0
144
0.0208333333333333
144
0.0
144
0.0
144
0.0
144
0.0
144
0.0208333333333333
144
0.0
144
0.0
144
0.0
144
0.0
144
1.0
144
0.0
144
0.0
144
0.0
144
0.0
144
1.0
147
0.0208333333333333
147
0.0
147
0.0
147
0.0
147
0.0
147
0.0208333333333333
147
0.0
147
0.0
147
0.0
147
0.0
147
1.0
147
0.0
147
0.0
147
0.0
147
0.0
147
1.0
  0
MATERIAL
  5
11
102
{ACAD_XDICTIONARY
360
12
102
}
102
{ACAD_REACTORS
330
10
102
}
330
10
100
AcDbMaterial
  1
ByLayer
 72
     0
 43
0.0208333333333333
 43
0.0
 43
0.0
 43
0.0
 43
0.0
 43
0.0208333333333333
 43
0.0
 43
0.0
 43
0.0
 43
0.0
 43
1.0
 43
0.0
 43
0.0
 43
0.0
 43
0.0
 43
1.0
 77
     0
 47
0.0208333333333333
 47
0.0
 47
0.0
 47
0.0
 47
0.0
 47
0.0208333333333333
 47
0.0
 47
0.0
 47
0.0
 47
0.0
 47
1.0
 47
0.0
 47
0.0
 47
0.0
 47
0.0
 47
1.0
171
     0
 49
0.0208333333333333
 49
0.0
 49
0.0
 49
0.0
 49
0.0
 49
0.0208333333333333
 49
0.0
 49
0.0
 49
0.0
 49
0.0
 49
1.0
 49
0.0
 49
0.0
 49
0.0
 49
0.0
 49
1.0
175
     0
142
0.0208333333333333
142
0.0
142
0.0
142
0.0
142
0.0
142
0.0208333333333333
142
0.0
142
0.0
142
0.0
142
0.0
142
1.0
142
0.0
142
0.0
142
0.0
142
0.0
142
1.0
179
     0
144
0.0208333333333333
144
0.0
144
0.0
144
0.0
144
0.0
144
0.0208333333333333
144
0.0
144
0.0
144
0.0
144
0.0
144
1.0
144
0.0
144
0.0
144
0.0
144
0.0
144
1.0
147
0.0208333333333333
147
0.0
147
0.0
147
0.0
147
0.0
147
0.0208333333333333
147
0.0
147
0.0
147
0.0
147
0.0
147
1.0
147
0.0
147
0.0
147
0.0
147
0.0
147
1.0
  0
MATERIAL
  5
21
102
{ACAD_XDICTIONARY
360
22
102
}
102
{ACAD_REACTORS
330
10
102
}
330
10
100
AcDbMaterial
  1
Global
 72
     0
 43
0.0208333333333333
 43
0.0
 43
0.0
 43
0.0
 43
0.0
 43
0.0208333333333333
 43
0.0
 43
0.0
 43
0.0
 43
0.0
 43
1.0
 43
0.0
 43
0.0
 43
0.0
 43
0.0
 43
1.0
 77
     0
 47
0.0208333333333333
 47
0.0
 47
0.0
 47
0.0
 47
0.0
 47
0.0208333333333333
 47
0.0
 47
0.0
 47
0.0
 47
0.0
 47
1.0
 47
0.0
 47
0.0
 47
0.0
 47
0.0
 47
1.0
171
     0
 49
0.0208333333333333
 49
0.0
 49
0.0
 49
0.0
 49
0.0
 49
0.0208333333333333
 49
0.0
 49
0.0
 49
0.0
 49
0.0
 49
1.0
 49
0.0
 49
0.0
 49
0.0
 49
0.0
 49
1.0
175
     0
142
0.0208333333333333
142
0.0
142
0.0
142
0.0
142
0.0
142
0.0208333333333333
142
0.0
142
0.0
142
0.0
142
0.0
142
1.0
142
0.0
142
0.0
142
0.0
142
0.0
142
1.0
179
     0
144
0.0208333333333333
144
0.0
144
0.0
144
0.0
144
0.0
144
0.0208333333333333
144
0.0
144
0.0
144
0.0
144
0.0
144
1.0
144
0.0
144
0.0
144
0.0
144
0.0
144
1.0
147
0.0208333333333333
147
0.0
147
0.0
147
0.0
147
0.0
147
0.0208333333333333
147
0.0
147
0.0
147
0.0
147
0.0
147
1.0
147
0.0
147
0.0
147
0.0
147
0.0
147
1.0
  0
MLEADERSTYLE
  5
67
102
{ACAD_XDICTIONARY
360
BBD
102
}
102
{ACAD_REACTORS
330
66
102
}
330
66
100
AcDbMLeaderStyle
170
     2
171
     1
172
     0
 90
        2
 40
0.0
 41
0.0
173
     1
 91
-1056964608
340
5B
 92
       -2
290
     1
 42
0.09
291
     1
 43
0.36
  3
Standard
 44
0.18
300

342
55
174
     1
178
     6
175
     1
176
     0
 93
-1056964608
 45
0.18
292
     0
297
     0
 46
0.18
 94
-1056964608
 47
1.0
 49
1.0
140
1.0
293
     1
141
0.0
294
     1
177
     0
142
1.0
295
     0
296
     0
143
0.125
1001
ACAD_MLEADERVER
1070
     2
  0
MLINESTYLE
  5
60
102
{ACAD_REACTORS
330
5F
102
}
330
5F
100
AcDbMlineStyle
  2
STANDARD
 70
     0
  3

 62
   256
 51
90.0
 52
90.0
 71
     2
 49
0.5
 62
   256
  6
BYLAYER
 49
-0.5
 62
   256
  6
BYLAYER
  0
ACDBPLACEHOLDER
  5
F
102
{ACAD_REACTORS
330
E
102
}
330
E
  0
SCALE
  5
43
102
{ACAD_REACTORS
330
42
102
}
330
42
100
AcDbScale
 70
     0
300
1:1
140
1.0
141
1.0
290
     1
  0
SCALE
  5
44
102
{ACAD_REACTORS
330
42
102
}
330
42
100
AcDbScale
 70
     0
300
1/128" = 1'-0"
140
0.0078125
141
12.0
290
     0
  0
SCALE
  5
45
102
{ACAD_REACTORS
330
42
102
}
330
42
100
AcDbScale
 70
     0
300
1/64" = 1'-0"
140
0.015625
141
12.0
290
     0
  0
SCALE
  5
46
102
{ACAD_REACTORS
330
42
102
}
330
42
100
AcDbScale
 70
     0
300
1/32" = 1'-0"
140
0.03125
141
12.0
290
     0
  0
SCALE
  5
47
102
{ACAD_REACTORS
330
42
102
}
330
42
100
AcDbScale
 70
     0
300
1/16" = 1'-0"
140
0.0625
141
12.0
290
     0
  0
SCALE
  5
48
102
{ACAD_REACTORS
330
42
102
}
330
42
100
AcDbScale
 70
     0
300
3/32" = 1'-0"
140
0.09375
141
12.0
290
     0
  0
SCALE
  5
49
102
{ACAD_REACTORS
330
42
102
}
330
42
100
AcDbScale
 70
     0
300
1/8" = 1'-0"
140
0.125
141
12.0
290
     0
  0
SCALE
  5
4A
102
{ACAD_REACTORS
330
42
102
}
330
42
100
AcDbScale
 70
     0
300
3/16" = 1'-0"
140
0.1875
141
12.0
290
     0
  0
SCALE
  5
4B
102
{ACAD_REACTORS
330
42
102
}
330
42
100
AcDbScale
 70
     0
300
1/4" = 1'-0"
140
0.25
141
12.0
290
     0
  0
SCALE
  5
4C
102
{ACAD_REACTORS
330
42
102
}
330
42
100
AcDbScale
 70
     0
300
3/8" = 1'-0"
140
0.375
141
12.0
290
     0
  0
SCALE
  5
4D
102
{ACAD_REACTORS
330
42
102
}
330
42
100
AcDbScale
 70
     0
300
1/2" = 1'-0"
140
0.5
141
12.0
290
     0
  0
SCALE
  5
4E
102
{ACAD_REACTORS
330
42
102
}
330
42
100
AcDbScale
 70
     0
300
3/4" = 1'-0"
140
0.75
141
12.0
290
     0
  0
SCALE
  5
4F
102
{ACAD_REACTORS
330
42
102
}
330
42
100
AcDbScale
 70
     0
300
1" = 1'-0"
140
1.0
141
12.0
290
     0
  0
SCALE
  5
50
102
{ACAD_REACTORS
330
42
102
}
330
42
100
AcDbScale
 70
     0
300
1-1/2" = 1'-0"
140
1.5
141
12.0
290
     0
  0
SCALE
  5
51
102
{ACAD_REACTORS
330
42
102
}
330
42
100
AcDbScale
 70
     0
300
3" = 1'-0"
140
3.0
141
12.0
290
     0
  0
SCALE
  5
52
102
{ACAD_REACTORS
330
42
102
}
330
42
100
AcDbScale
 70
     0
300
6" = 1'-0"
140
6.0
141
12.0
290
     0
  0
SCALE
  5
53
102
{ACAD_REACTORS
330
42
102
}
330
42
100
AcDbScale
 70
     0
300
1'-0" = 1'-0"
140
12.0
141
12.0
290
     0
  0
TABLESTYLE
  5
65
102
{ACAD_XDICTIONARY
360
BBB
102
}
102
{ACAD_REACTORS
330
64
102
}
330
64
100
AcDbTableStyle
  3
Standard
 70
     0
 71
     0
 40
0.06
 41
0.06
280
     0
281
     0
  7
Standard
140
0.18
170
     2
 62
     0
 63
     7
283
     0
274
    -2
284
     1
 64
     0
275
    -2
285
     1
 65
     0
276
    -2
286
     1
 66
     0
277
    -2
287
     1
 67
     0
278
    -2
288
     1
 68
     0
279
    -2
289
     1
 69
     0
  7
Standard
140
0.25
170
     5
 62
     0
 63
     7
283
     0
274
    -2
284
     1
 64
     0
275
    -2
285
     1
 65
     0
276
    -2
286
     1
 66
     0
277
    -2
287
     1
 67
     0
278
    -2
288
     1
 68
     0
279
    -2
289
     1
 69
     0
  7
Standard
140
0.18
170
     5
 62
     0
 63
     7
283
     0
274
    -2
284
     1
 64
     0
275
    -2
285
     1
 65
     0
276
    -2
286
     1
 66
     0
277
    -2
287
     1
 67
     0
278
    -2
288
     1
 68
     0
279
    -2
289
     1
 69
     0
  0
VISUALSTYLE
  5
2F
102
{ACAD_XDICTIONARY
360
BCF
102
}
102
{ACAD_REACTORS
330
29
102
}
330
29
100
AcDbVisualStyle
  2
2dWireframe
 70
     4
 71
     0
 72
     2
 73
     0
 90
        0
 40
-0.6
 41
-30.0
 62
     5
 63
     7
 74
     1
 91
        4
 64
     7
 65
   257
 75
     1
175
     1
 42
1.0
 92
        0
 66
   257
 43
1.0
 76
     1
 77
     6
 78
     2
 67
     7
 79
     5
170
     0
171
     0
290
     0
174
     0
 93
        1
 44
0.0
173
     0
291
     0
 45
0.0
1001
ACAD
1000
AcDbSavedByObjectVersion
1070
     0
  0
VISUALSTYLE
  5
2E
102
{ACAD_XDICTIONARY
360
BCD
102
}
102
{ACAD_REACTORS
330
29
102
}
330
29
100
AcDbVisualStyle
  2
Basic
 70
     7
 71
     1
 72
     0
 73
     1
 90
        0
 40
-0.6
 41
-30.0
 62
     5
 63
     7
 74
     0
 91
        4
 64
     7
 65
   257
 75
     1
175
     1
 42
1.0
 92
        8
 66
     7
 43
1.0
 76
     1
 77
     6
 78
     2
 67
     7
 79
     5
170
     0
171
     0
290
     0
174
     0
 93
        1
 44
0.0
173
     0
291
     1
 45
0.0
1001
ACAD
1000
AcDbSavedByObjectVersion
1070
     0
  0
VISUALSTYLE
  5
35
102
{ACAD_XDICTIONARY
360
BDB
102
}
102
{ACAD_REACTORS
330
29
102
}
330
29
100
AcDbVisualStyle
  2
Brighten
 70
    12
 71
     2
 72
     2
 73
     0
 90
        0
 40
-0.6
 41
-30.0
 62
     5
 63
     7
 74
     1
 91
        4
 64
     7
 65
   257
 75
     1
175
     1
 42
1.0
 92
        8
 66
     7
 43
1.0
 76
     1
 77
     6
 78
     2
 67
     7
 79
     5
170
     0
171
     0
290
     0
174
     0
 93
        1
 44
50.0
173
     0
291
     1
 45
0.0
1001
ACAD
1000
AcDbSavedByObjectVersion
1070
     0
  0
VISUALSTYLE
  5
39
102
{ACAD_XDICTIONARY
360
BE3
102
}
102
{ACAD_REACTORS
330
29
102
}
330
29
100
AcDbVisualStyle
  2
ColorChange
 70
    16
 71
     2
 72
     2
 73
     3
 90
        0
 40
-0.6
 41
-30.0
 62
     5
 63
     8
 74
     1
 91
        4
 64
     7
 65
   257
 75
     1
175
     1
 42
1.0
 92
        8
 66
     8
 43
1.0
 76
     1
 77
     6
 78
     2
 67
     7
 79
     5
170
     0
171
     0
290
     0
174
     0
 93
        1
 44
0.0
173
     0
291
     1
 45
0.0
1001
ACAD
1000
AcDbSavedByObjectVersion
1070
     0
  0
VISUALSTYLE
  5
32
102
{ACAD_XDICTIONARY
360
BD5
102
}
102
{ACAD_REACTORS
330
29
102
}
330
29
100
AcDbVisualStyle
  2
Conceptual
 70
     9
 71
     3
 72
     2
 73
     0
 90
        0
 40
-0.6
 41
-30.0
 62
     5
 63
     7
 74
     2
 91
        2
 64
     7
 65
   257
 75
     1
175
     1
 42
179.0
 92
        8
 66
     7
 43
1.0
 76
     1
 77
     6
 78
     2
 67
     7
 79
     3
170
     0
171
     0
290
     0
174
     0
 93
        1
 44
0.0
173
     0
291
     0
 45
0.0
1001
ACAD
1000
AcDbSavedByObjectVersion
1070
     0
  0
VISUALSTYLE
  5
34
102
{ACAD_XDICTIONARY
360
BD9
102
}
102
{ACAD_REACTORS
330
29
102
}
330
29
100
AcDbVisualStyle
  2
Dim
 70
    11
 71
     2
 72
     2
 73
     0
 90
        0
 40
-0.6
 41
-30.0
 62
     5
 63
     7
 74
     1
 91
        4
 64
     7
 65
   257
 75
     1
175
     1
 42
1.0
 92
        8
 66
     7
 43
1.0
 76
     1
 77
     6
 78
     2
 67
     7
 79
     5
170
     0
171
     0
290
     0
174
     0
 93
        1
 44
-50.0
173
     0
291
     1
 45
0.0
1001
ACAD
1000
AcDbSavedByObjectVersion
1070
     0
  0
VISUALSTYLE
  5
41
102
{ACAD_XDICTIONARY
360
BF3
102
}
102
{ACAD_REACTORS
330
29
102
}
330
29
100
AcDbVisualStyle
  2
EdgeColorOff
 70
    22
 71
     2
 72
     2
 73
     0
 90
        0
 40
-0.6
 41
-30.0
 62
     5
 63
     7
 74
     1
 91
        4
 64
     7
 65
   257
 75
     1
175
     1
 42
1.0
 92
        8
 66
     7
 43
1.0
 76
     1
 77
     6
 78
     2
 67
     7
 79
     5
170
     0
171
     0
290
     0
174
     0
 93
        1
 44
0.0
173
     0
291
     1
 45
0.0
1001
ACAD
1000
AcDbSavedByObjectVersion
1070
     0
  0
VISUALSTYLE
  5
38
102
{ACAD_XDICTIONARY
360
BE1
102
}
102
{ACAD_REACTORS
330
29
102
}
330
29
100
AcDbVisualStyle
  2
Facepattern
 70
    15
 71
     2
 72
     2
 73
     0
 90
        0
 40
-0.6
 41
-30.0
 62
     5
 63
     7
 74
     1
 91
        4
 64
     7
 65
   257
 75
     1
175
     1
 42
1.0
 92
        8
 66
     7
 43
1.0
 76
     1
 77
     6
 78
     2
 67
     7
 79
     5
170
     0
171
     0
290
     0
174
     0
 93
        1
 44
0.0
173
     0
291
     1
 45
0.0
1001
ACAD
1000
AcDbSavedByObjectVersion
1070
     0
  0
VISUALSTYLE
  5
2A
102
{ACAD_XDICTIONARY
360
BC5
102
}
102
{ACAD_REACTORS
330
29
102
}
330
29
100
AcDbVisualStyle
  2
Flat
 70
     0
 71
     2
 72
     1
 73
     1
 90
        2
 40
-0.6
 41
30.0
 62
     5
 63
     7
 74
     0
 91
        0
 64
     7
 65
   257
 75
     1
175
     1
 42
1.0
 92
        8
 66
     7
 43
1.0
 76
     1
 77
     6
 78
     2
 67
     7
 79
     5
170
     0
171
     0
290
     0
174
     0
 93
       13
 44
0.0
173
     0
291
     1
 45
0.0
1001
ACAD
1000
AcDbSavedByObjectVersion
1070
     0
  0
VISUALSTYLE
  5
2B
102
{ACAD_XDICTIONARY
360
BC7
102
}
102
{ACAD_REACTORS
330
29
102
}
330
29
100
AcDbVisualStyle
  2
FlatWithEdges
 70
     1
 71
     2
 72
     1
 73
     1
 90
        2
 40
-0.6
 41
30.0
 62
     5
 63
     7
 74
     1
 91
        0
 64
     7
 65
   257
 75
     1
175
     1
 42
1.0
 92
        0
 66
   257
 43
1.0
 76
     1
 77
     6
 78
     2
 67
     7
 79
     5
170
     0
171
     0
290
     0
174
     0
 93
       13
 44
0.0
173
     0
291
     1
 45
0.0
1001
ACAD
1000
AcDbSavedByObjectVersion
1070
     0
  0
VISUALSTYLE
  5
2C
102
{ACAD_XDICTIONARY
360
BC9
102
}
102
{ACAD_REACTORS
330
29
102
}
330
29
100
AcDbVisualStyle
  2
Gouraud
 70
     2
 71
     2
 72
     2
 73
     1
 90
        2
 40
-0.6
 41
30.0
 62
     5
 63
     7
 74
     0
 91
        0
 64
     7
 65
   257
 75
     1
175
     1
 42
1.0
 92
        0
 66
     7
 43
1.0
 76
     1
 77
     6
 78
     2
 67
     7
 79
     5
170
     0
171
     0
290
     0
174
     0
 93
       13
 44
0.0
173
     0
291
     1
 45
0.0
1001
ACAD
1000
AcDbSavedByObjectVersion
1070
     0
  0
VISUALSTYLE
  5
2D
102
{ACAD_XDICTIONARY
360
BCB
102
}
102
{ACAD_REACTORS
330
29
102
}
330
29
100
AcDbVisualStyle
  2
GouraudWithEdges
 70
     3
 71
     2
 72
     2
 73
     1
 90
        2
 40
-0.6
 41
30.0
 62
     5
 63
     7
 74
     1
 91
        0
 64
     7
 65
   257
 75
     1
175
     1
 42
1.0
 92
        0
 66
   257
 43
1.0
 76
     1
 77
     6
 78
     2
 67
     7
 79
     5
170
     0
171
     0
290
     0
174
     0
 93
       13
 44
0.0
173
     0
291
     1
 45
0.0
1001
ACAD
1000
AcDbSavedByObjectVersion
1070
     0
  0
VISUALSTYLE
  5
31
102
{ACAD_XDICTIONARY
360
BD3
102
}
102
{ACAD_REACTORS
330
29
102
}
330
29
100
AcDbVisualStyle
  2
Hidden
 70
     6
 71
     1
 72
     2
 73
     2
 90
        0
 40
-0.6
 41
-30.0
 62
     5
 63
     7
 74
     2
 91
        2
 64
     7
 65
   257
 75
     2
175
     1
 42
40.0
 92
        0
 66
   257
 43
1.0
 76
     1
 77
     6
 78
     2
 67
     7
 79
     3
170
     0
171
     0
290
     0
174
     0
 93
        1
 44
0.0
173
     0
291
     0
 45
0.0
1001
ACAD
1000
AcDbSavedByObjectVersion
1070
     0
  0
VISUALSTYLE
  5
3F
102
{ACAD_XDICTIONARY
360
BEF
102
}
102
{ACAD_REACTORS
330
29
102
}
330
29
100
AcDbVisualStyle
  2
JitterOff
 70
    20
 71
     2
 72
     2
 73
     0
 90
        0
 40
-0.6
 41
-30.0
 62
     5
 63
     7
 74
     1
 91
        4
 64
     7
 65
   257
 75
     1
175
     1
 42
1.0
 92
       10
 66
     7
 43
1.0
 76
     1
 77
     6
 78
     2
 67
     7
 79
     5
170
     0
171
     0
290
     0
174
     0
 93
        1
 44
0.0
173
     0
291
     1
 45
0.0
1001
ACAD
1000
AcDbSavedByObjectVersion
1070
     0
  0
VISUALSTYLE
  5
37
102
{ACAD_XDICTIONARY
360
BDF
102
}
102
{ACAD_REACTORS
330
29
102
}
330
29
100
AcDbVisualStyle
  2
Linepattern
 70
    14
 71
     2
 72
     2
 73
     0
 90
        0
 40
-0.6
 41
-30.0
 62
     5
 63
     7
 74
     1
 91
        4
 64
     7
 65
   257
 75
     7
175
     7
 42
1.0
 92
        8
 66
     7
 43
1.0
 76
     1
 77
     6
 78
     2
 67
     7
 79
     5
170
     0
171
     0
290
     0
174
     0
 93
        1
 44
0.0
173
     0
291
     1
 45
0.0
1001
ACAD
1000
AcDbSavedByObjectVersion
1070
     0
  0
VISUALSTYLE
  5
40
102
{ACAD_XDICTIONARY
360
BF1
102
}
102
{ACAD_REACTORS
330
29
102
}
330
29
100
AcDbVisualStyle
  2
OverhangOff
 70
    21
 71
     2
 72
     2
 73
     0
 90
        0
 40
-0.6
 41
-30.0
 62
     5
 63
     7
 74
     1
 91
        4
 64
     7
 65
   257
 75
     1
175
     1
 42
1.0
 92
        9
 66
     7
 43
1.0
 76
     1
 77
     6
 78
     2
 67
     7
 79
     5
170
     0
171
     0
290
     0
174
     0
 93
        1
 44
0.0
173
     0
291
     1
 45
0.0
1001
ACAD
1000
AcDbSavedByObjectVersion
1070
     0
  0
VISUALSTYLE
  5
33
102
{ACAD_XDICTIONARY
360
BD7
102
}
102
{ACAD_REACTORS
330
29
102
}
330
29
100
AcDbVisualStyle
  2
Realistic
 70
     8
 71
     2
 72
     3
 73
     0
 90
        2
 40
-0.6
 41
30.0
 62
     5
 63
     7
 74
     0
 91
        0
 64
     7
 65
   257
 75
     1
175
     1
 42
1.0
 92
        8
 66
   257
 43
1.0
 76
     1
 77
     6
 78
     2
 67
     7
 79
     3
170
     0
171
     0
290
     0
174
     0
 93
       13
 44
0.0
173
     0
291
     0
 45
0.0
1001
ACAD
1000
AcDbSavedByObjectVersion
1070
     0
  0
VISUALSTYLE
  5
3E
102
{ACAD_XDICTIONARY
360
BED
102
}
102
{ACAD_REACTORS
330
29
102
}
330
29
100
AcDbVisualStyle
  2
Shaded
 70
    27
 71
     2
 72
     2
 73
     1
 90
        2
 40
-0.6
 41
30.0
 62
     5
 63
     7
 74
     0
 91
        4
 64
     7
 65
   257
 75
     1
175
     1
 42
1.0
 92
        8
 66
   257
 43
1.0
 76
     1
 77
     6
 78
     2
 67
     8
 79
     3
170
     0
171
     0
290
     0
174
     0
 93
        5
 44
0.0
173
     0
291
     0
 45
0.0
1001
ACAD
1000
AcDbSavedByObjectVersion
1070
     0
  0
VISUALSTYLE
  5
3D
102
{ACAD_XDICTIONARY
360
BEB
102
}
102
{ACAD_REACTORS
330
29
102
}
330
29
100
AcDbVisualStyle
  2
Shaded with edges
 70
    26
 71
     2
 72
     2
 73
     1
 90
        2
 40
-0.6
 41
30.0
 62
     5
 63
     7
 74
     1
 91
       10
 64
     7
 65
   257
 75
     2
175
     1
 42
1.0
 92
        8
 66
   257
 43
1.0
 76
     1
 77
     6
 78
     2
 67
     7
 79
     3
170
     0
171
     0
290
     0
174
     0
 93
        5
 44
0.0
173
     0
291
     0
 45
0.0
1001
ACAD
1000
AcDbSavedByObjectVersion
1070
     0
  0
VISUALSTYLE
  5
3A
102
{ACAD_XDICTIONARY
360
BE5
102
}
102
{ACAD_REACTORS
330
29
102
}
330
29
100
AcDbVisualStyle
  2
Shades of Gray
 70
    23
 71
     2
 72
     2
 73
     3
 90
        0
 40
-0.6
 41
-30.0
 62
     5
 63
     7
 74
     2
 91
        2
 64
     7
 65
     7
 75
     1
175
     1
 42
40.0
 92
        8
 66
     7
 43
1.0
 76
     1
 77
     6
 78
     2
 67
     7
 79
     3
170
     0
171
     0
290
     0
174
     0
 93
        1
 44
0.0
173
     0
291
     0
 45
0.0
1001
ACAD
1000
AcDbSavedByObjectVersion
1070
     0
  0
VISUALSTYLE
  5
3B
102
{ACAD_XDICTIONARY
360
BE7
102
}
102
{ACAD_REACTORS
330
29
102
}
330
29
100
AcDbVisualStyle
  2
Sketchy
 70
    24
 71
     1
 72
     2
 73
     2
 90
        0
 40
-0.6
 41
-30.0
 62
     5
 63
     7
 74
     2
 91
        2
 64
     7
 65
     7
 75
     1
175
     1
 42
40.0
 92
       11
 66
     7
 43
1.0
 76
     1
 77
     6
 78
     2
 67
     7
 79
     6
170
     0
171
     0
290
     0
174
     0
 93
        1
 44
0.0
173
     0
291
     0
 45
0.0
1001
ACAD
1000
AcDbSavedByObjectVersion
1070
     0
  0
VISUALSTYLE
  5
36
102
{ACAD_XDICTIONARY
360
BDD
102
}
102
{ACAD_REACTORS
330
29
102
}
330
29
100
AcDbVisualStyle
  2
Thicken
 70
    13
 71
     2
 72
     2
 73
     0
 90
        0
 40
-0.6
 41
-30.0
 62
     5
 63
     7
 74
     1
 91
        4
 64
     7
 65
   257
 75
     1
175
     1
 42
1.0
 92
       12
 66
     7
 43
1.0
 76
     1
 77
     6
 78
     2
 67
     7
 79
     5
170
     0
171
     0
290
     0
174
     0
 93
        1
 44
0.0
173
     0
291
     1
 45
0.0
1001
ACAD
1000
AcDbSavedByObjectVersion
1070
     0
  0
VISUALSTYLE
  5
30
102
{ACAD_XDICTIONARY
360
BD1
102
}
102
{ACAD_REACTORS
330
29
102
}
330
29
100
AcDbVisualStyle
  2
Wireframe
 70
     5
 71
     0
 72
     2
 73
     0
 90
        0
 40
-0.6
 41
-30.0
 62
     5
 63
     7
 74
     1
 91
        4
 64
     7
 65
   257
 75
     1
175
     1
 42
1.0
 92
        0
 66
   257
 43
1.0
 76
     1
 77
     6
 78
     2
 67
     7
 79
     3
170
     0
171
     0
290
     0
174
     0
 93
        1
 44
0.0
173
     0
291
     0
 45
0.0
1001
ACAD
1000
AcDbSavedByObjectVersion
1070
     0
  0
VISUALSTYLE
  5
3C
102
{ACAD_XDICTIONARY
360
BE9
102
}
102
{ACAD_REACTORS
330
29
102
}
330
29
100
AcDbVisualStyle
  2
X-Ray
 70
    25
 71
     2
 72
     2
 73
     1
 90
        1
 40
0.5
 41
-30.0
 62
     5
 63
     7
 74
     1
 91
        0
 64
     7
 65
   257
 75
     1
175
     1
 42
1.0
 92
        8
 66
     7
 43
1.0
 76
     1
 77
     6
 78
     2
 67
     7
 79
     3
170
     0
171
     0
290
     0
174
     0
 93
       13
 44
0.0
173
     0
291
     0
 45
0.0
1001
ACAD
1000
AcDbSavedByObjectVersion
1070
     0
  0
DICTIONARYVAR
  5
DB
102
{ACAD_REACTORS
330
D8
102
}
330
D8
100
DictionaryVariables
280
     0
  1
1:1
  0
DICTIONARYVAR
  5
DA
102
{ACAD_REACTORS
330
D8
102
}
330
D8
100
DictionaryVariables
280
     0
  1
STANDARD
  0
DICTIONARYVAR
  5
D9
102
{ACAD_REACTORS
330
D8
102
}
330
D8
100
DictionaryVariables
280
     0
  1
STANDARD
  0
DICTIONARYVAR
  5
BB9
102
{ACAD_REACTORS
330
D8
102
}
330
D8
100
DictionaryVariables
280
     0
  1
1
  0
DICTIONARYVAR
  5
BB8
102
{ACAD_REACTORS
330
D8
102
}
330
D8
100
DictionaryVariables
280
     0
  1
1
  0
DICTIONARYVAR
  5
BB7
102
{ACAD_REACTORS
330
D8
102
}
330
D8
100
DictionaryVariables
280
     0
  1
0
  0
DICTIONARYVAR
  5
BB4
102
{ACAD_REACTORS
330
D8
102
}
330
D8
100
DictionaryVariables
280
     0
  1
0
  0
DICTIONARYVAR
  5
BB5
102
{ACAD_REACTORS
330
D8
102
}
330
D8
100
DictionaryVariables
280
     0
  1
0
  0
DICTIONARYVAR
  5
BB3
102
{ACAD_REACTORS
330
D8
102
}
330
D8
100
DictionaryVariables
280
     0
  1
2
  0
DICTIONARYVAR
  5
BB2
102
{ACAD_REACTORS
330
D8
102
}
330
D8
100
DictionaryVariables
280
     0
  1
1
  0
DICTIONARYVAR
  5
BB6
102
{ACAD_REACTORS
330
D8
102
}
330
D8
100
DictionaryVariables
280
     0
  1
127
  0
DICTIONARYVAR
  5
BBA
102
{ACAD_REACTORS
330
D8
102
}
330
D8
100
DictionaryVariables
280
     0
  1
2
  0
DICTIONARY
  5
BF7
330
6B
100
AcDbDictionary
280
     1
281
     1
  3
ACAD_XREC_ROUNDTRIP
360
BF8
  0
DICTIONARY
  5
BFB
330
73
100
AcDbDictionary
280
     1
281
     1
  3
ACAD_XREC_ROUNDTRIP
360
BFC
  0
DICTIONARY
  5
BF9
330
6F
100
AcDbDictionary
280
     1
281
     1
  3
ACAD_XREC_ROUNDTRIP
360
BFA
  0
DICTIONARY
  5
1A
330
19
100
AcDbDictionary
280
     1
281
     1
  3
ACAD_XREC_ROUNDTRIP
360
BC3
  3
BUMPTILE
360
1C
  3
DIFFUSETILE
360
1B
  3
OPACITYTILE
360
1F
  3
REFLECTIONTILE
360
1E
  3
REFRACTIONTILE
360
20
  3
SPECULARTILE
360
1D
  0
DICTIONARY
  5
12
330
11
100
AcDbDictionary
280
     1
281
     1
  3
ACAD_XREC_ROUNDTRIP
360
BC2
  3
BUMPTILE
360
14
  3
DIFFUSETILE
360
13
  3
FBXASSET
360
171
  3
OPACITYTILE
360
17
  3
REFLECTIONTILE
360
16
  3
REFRACTIONTILE
360
18
  3
SPECULARTILE
360
15
  0
DICTIONARY
  5
22
330
21
100
AcDbDictionary
280
     1
281
     1
  3
ACAD_XREC_ROUNDTRIP
360
BC4
  3
BUMPTILE
360
24
  3
DIFFUSETILE
360
23
  3
FBXASSET
360
11C
  3
OPACITYTILE
360
27
  3
REFLECTIONTILE
360
26
  3
REFRACTIONTILE
360
28
  3
SPECULARTILE
360
25
  0
DICTIONARY
  5
BBD
330
67
100
AcDbDictionary
280
     1
281
     1
  3
ACAD_XREC_ROUNDTRIP
360
BBE
  0
DICTIONARY
  5
BBB
330
65
100
AcDbDictionary
280
     1
281
     1
  3
ACAD_ROUNDTRIP_2008_TABLESTYLE_CELLSTYLEMAP
360
BBC
  3
ACAD_XREC_ROUNDTRIP
360
BF5
  0
DICTIONARY
  5
BCF
330
2F
100
AcDbDictionary
280
     1
281
     1
  3
ACAD_XREC_ROUNDTRIP
360
BD0
  0
DICTIONARY
  5
BCD
330
2E
100
AcDbDictionary
280
     1
281
     1
  3
ACAD_XREC_ROUNDTRIP
360
BCE
  0
DICTIONARY
  5
BDB
330
35
100
AcDbDictionary
280
     1
281
     1
  3
ACAD_XREC_ROUNDTRIP
360
BDC
  0
DICTIONARY
  5
BE3
330
39
100
AcDbDictionary
280
     1
281
     1
  3
ACAD_XREC_ROUNDTRIP
360
BE4
  0
DICTIONARY
  5
BD5
330
32
100
AcDbDictionary
280
     1
281
     1
  3
ACAD_XREC_ROUNDTRIP
360
BD6
  0
DICTIONARY
  5
BD9
330
34
100
AcDbDictionary
280
     1
281
     1
  3
ACAD_XREC_ROUNDTRIP
360
BDA
  0
DICTIONARY
  5
BF3
330
41
100
AcDbDictionary
280
     1
281
     1
  3
ACAD_XREC_ROUNDTRIP
360
BF4
  0
DICTIONARY
  5
BE1
330
38
100
AcDbDictionary
280
     1
281
     1
  3
ACAD_XREC_ROUNDTRIP
360
BE2
  0
DICTIONARY
  5
BC5
330
2A
100
AcDbDictionary
280
     1
281
     1
  3
ACAD_XREC_ROUNDTRIP
360
BC6
  0
DICTIONARY
  5
BC7
330
2B
100
AcDbDictionary
280
     1
281
     1
  3
ACAD_XREC_ROUNDTRIP
360
BC8
  0
DICTIONARY
  5
BC9
330
2C
100
AcDbDictionary
280
     1
281
     1
  3
ACAD_XREC_ROUNDTRIP
360
BCA
  0
DICTIONARY
  5
BCB
330
2D
100
AcDbDictionary
280
     1
281
     1
  3
ACAD_XREC_ROUNDTRIP
360
BCC
  0
DICTIONARY
  5
BD3
330
31
100
AcDbDictionary
280
     1
281
     1
  3
ACAD_XREC_ROUNDTRIP
360
BD4
  0
DICTIONARY
  5
BEF
330
3F
100
AcDbDictionary
280
     1
281
     1
  3
ACAD_XREC_ROUNDTRIP
360
BF0
  0
DICTIONARY
  5
BDF
330
37
100
AcDbDictionary
280
     1
281
     1
  3
ACAD_XREC_ROUNDTRIP
360
BE0
  0
DICTIONARY
  5
BF1
330
40
100
AcDbDictionary
280
     1
281
     1
  3
ACAD_XREC_ROUNDTRIP
360
BF2
  0
DICTIONARY
  5
BD7
330
33
100
AcDbDictionary
280
     1
281
     1
  3
ACAD_XREC_ROUNDTRIP
360
BD8
  0
DICTIONARY
  5
BED
330
3E
100
AcDbDictionary
280
     1
281
     1
  3
ACAD_XREC_ROUNDTRIP
360
BEE
  0
DICTIONARY
  5
BEB
330
3D
100
AcDbDictionary
280
     1
281
     1
  3
ACAD_XREC_ROUNDTRIP
360
BEC
  0
DICTIONARY
  5
BE5
330
3A
100
AcDbDictionary
280
     1
281
     1
  3
ACAD_XREC_ROUNDTRIP
360
BE6
  0
DICTIONARY
  5
BE7
330
3B
100
AcDbDictionary
280
     1
281
     1
  3
ACAD_XREC_ROUNDTRIP
360
BE8
  0
DICTIONARY
  5
BDD
330
36
100
AcDbDictionary
280
     1
281
     1
  3
ACAD_XREC_ROUNDTRIP
360
BDE
  0
DICTIONARY
  5
BD1
330
30
100
AcDbDictionary
280
     1
281
     1
  3
ACAD_XREC_ROUNDTRIP
360
BD2
  0
DICTIONARY
  5
BE9
330
3C
100
AcDbDictionary
280
     1
281
     1
  3
ACAD_XREC_ROUNDTRIP
360
BEA
  0
XRECORD
  5
BF8
102
{ACAD_REACTORS
330
BF7
102
}
330
BF7
100
AcDbXrecord
280
     1
102
SHADEPLOT
 70
     0
102
SHADEPLOTRESLEVEL
 70
     2
102
SHADEPLOTCUSTOMDPI
 70
   300
  0
XRECORD
  5
BFC
102
{ACAD_REACTORS
330
BFB
102
}
330
BFB
100
AcDbXrecord
280
     1
102
SHADEPLOT
 70
     0
102
SHADEPLOTRESLEVEL
 70
     2
102
SHADEPLOTCUSTOMDPI
 70
   300
  0
XRECORD
  5
BFA
102
{ACAD_REACTORS
330
BF9
102
}
330
BF9
100
AcDbXrecord
280
     1
102
SHADEPLOT
 70
     0
102
SHADEPLOTRESLEVEL
 70
     2
102
SHADEPLOTCUSTOMDPI
 70
   300
  0
XRECORD
  5
BC3
102
{ACAD_REACTORS
330
1A
102
}
330
1A
100
AcDbXrecord
280
     1
102
MATERIAL
148
0.0
149
0.0
149
0.0
 93
        0
 94
      127
282
     0
 72
     0
 77
     0
171
     0
175
     0
179
     0
273
     0
  0
XRECORD
  5
1C
102
{ACAD_REACTORS
330
1A
102
}
330
1A
100
AcDbXrecord
280
     1
270
     1
271
     1
  0
XRECORD
  5
1B
102
{ACAD_REACTORS
330
1A
102
}
330
1A
100
AcDbXrecord
280
     1
270
     1
271
     1
  0
XRECORD
  5
1F
102
{ACAD_REACTORS
330
1A
102
}
330
1A
100
AcDbXrecord
280
     1
270
     1
271
     1
  0
XRECORD
  5
1E
102
{ACAD_REACTORS
330
1A
102
}
330
1A
100
AcDbXrecord
280
     1
270
     1
271
     1
  0
XRECORD
  5
20
102
{ACAD_REACTORS
330
1A
102
}
330
1A
100
AcDbXrecord
280
     1
270
     1
271
     1
  0
XRECORD
  5
1D
102
{ACAD_REACTORS
330
1A
102
}
330
1A
100
AcDbXrecord
280
     1
270
     1
271
     1
  0
XRECORD
  5
BC2
102
{ACAD_REACTORS
330
12
102
}
330
12
100
AcDbXrecord
280
     1
102
MATERIAL
148
0.0
149
0.0
149
0.0
 93
        0
 94
      127
282
     0
 72
     0
 77
     0
171
     0
175
     0
179
     0
273
     0
  0
XRECORD
  5
14
102
{ACAD_REACTORS
330
12
102
}
330
12
100
AcDbXrecord
280
     1
270
     1
271
     1
  0
XRECORD
  5
13
102
{ACAD_REACTORS
330
12
102
}
330
12
100
AcDbXrecord
280
     1
270
     1
271
     1
  0
XRECORD
  5
171
102
{ACAD_REACTORS
330
12
102
}
330
12
100
AcDbXrecord
280
     1
 70
     1
 90
1959938040
 71
     1
  1
626F4157-A840-4FE1-BC1B-94B1EA56FA93
311
504B03040A0000080000385831403DEE336E79000000790000001B0000006175746F6465736B2D64657369676E2D7061636B6167652E786D6C3C3F786D6C2076657273696F6E3D22312E302220656E636F64696E673D227574662D3822203F3E3C666F726D6174733E3C666F726D61743E687474703A2F2F736368656D612E
311
6175746F6465736B2E636F6D2F64657369676E2D7061636B6167652F323030393C2F666F726D61743E3C2F666F726D6174733E504B030414000608080038583140D486FD9CA0000000F4000000130000005B436F6E74656E745F54797065735D2E786D6C7D8EC10E82300C865F65E91D8A1E8C310C0EEA1BF002731658846E
311
D98AC1B77784ABF1D8FE5FBFBF75BBCE937A534CCEB38643598122B6FEE978D0B0485F9C41B54DDD7D022595594E1A469170414C76A4D9A4D207E29CF43ECE46F218070CC6BECC4078ACAA135ACF422C856C0E68EA1BF5669944DDD7BCDE7B1F8E415D77AECB980613C2E4AC91FC167A2B244592486606FC29C8FD7F045B9A
311
EF7053A7E60B504B03041400060808003858314062E89827E90000007C01000008000000636F72652E786D6C8D90D18E832010457F85CC3B0AD45A6B9026D6F805FB0304A84B5AC1086CF6F3175B9BECBEEDD34CEEDC3333B9FCF23D3FD0975983F5AE035A1040C629AFAD9B3A48F1861B4017C157EFE32F1B202767D3C126
311
83E0D3EAD3B24BCABB685CCCAAF3DAECA20CC14440EA919B0E82FA34B32C648AD911EEC522D55D4EA6A0EF2EC329598D5E47ACCEFBECCD9A15C4A9AF59C3D8191F6975C655437BDC0FE3118FD5B56643351EAE03E3E5060B1EEDFCBEAF5623A3D12018A10C138AE9E983D296D0366F21754B082F37FB1F282DFA9F50B22E1E
311
D8FEEE0B0B20687EE43910BCDCB2C8E51954AE5B6EE207504B03041400060808003858314055019EA25F0000007C00000007000000636E782E786D6C4DCB3B0E80201045D1AD90E915ED2CF8AC45050C11660C8261F98AB1B07AC9C97D42D718D865D3E909258CFD00CCE24AC6E326A164D74DC0B4128928FF326038472BA1
311
3128B1252AC747C6BAB984FC68F0B87FE8960A5C09FE86CFB69FBA01504B030414000608080038583140D639BF0665010000020300000C0000006662782F636F72652E786D6C8D52ED8EC220107C15C27F4AC1FA718662A2C627B817408ABDC6161A0A8D8F7FDB0FE37931C634A164676767765AB1BB3535EA8DEF2A6773CC
311
92142363B52B2A5BE638860BD960B493C23B17FEB461645563723C94B114A577B19D4BDAD9606C80AA7585998BAAEB4CC048D770C971A77F4CA31215037474D7A455FAAA4A93B00460E893A20B1E0CA0496438B1BC9C6F824E752962AC8A19AD0A50AB2E95F158AEF72BBEE1FC8B2C59F645B20DDB93FDF1B424A7ECB0E2C7
311
ECB4381CB9A003598A50357777DA1B154C81254F192729236CFDCDD836655B9892AEB6692AE8D0FE448A6DF1212956362CF86C77A2755832303202FFB6858802EA540F7EA8147408115E63C2CF414320107250E7FABEC7154ABDD1C1F90C90C2C507D4AB3A1A504DD1F8083AA130791C009BBD9CC3DFCC793F033EA0B22558
311
5301AEE718067531A9CE51B4C6933EDC9075BE51F5C3DC64F1713E845ED2B5AB9DFF844DE755E91C261DFE5EF90B504B030414000608080038583140B81E237B7E0000009D0000000B0000006662782F636E782E786D6C4DCCD10E82201886E15B61FF396904251BE034F03E5CA273223482D6E5A7CD838EBEEDD9B757D49F
311
D5A1B78DAF397809E75309C8FA4718663F49C869C415A05A891842FABB01F2FD6A25EC0C4A4C31E4E741831DFBECD2A66EF6CB8155AB3B6EBA1B26977B8B296908E68C69CC1BA34D491967570A8512C5AFB4ED1E565F504B030414000608080038583140EE2293EC2C01000014020000310000006662782F38424446394546
311
372D323343422D343241322D393535442D3941454445303435393536342F636F72652E786D6C8D51DB8EC22014FC15C293FB400BD8566B284657FD82FD810AA8440B0D978D9FBFB0ADC9EE9B2F1C326766CEE41CB67D0E0FF0AD9CD7D67490141802658495DA5C3B18C305AD21D872E6AC0D7F6810987E501DCC30E4ECEA6C
311
1C674858139409093556AA19ECBD570102F1489F0E7A7153435FF4312486BF17632FEEFD5515A448EDC4E3CC0797028069487E215FEF0FA7F6785A21BAFCDCA38AEE286AEBFA80DADDF170C455DDD64DC5CA49C8598C5ACE722D531C7DD1CABD6B92C59C053DBCE20BA7FAA024E414138A304164F545C806934DD522DC6C30
311
6665A6FF13C551BE298ADA84259DE34E320F3961E5D4E04CDA787EBCC2A8E7685D0079DEC22BF101392E30C5B45E37352B276A5A40F26CAAD9D307EBD28217F7736293C4CAC64DC559996F94CAEF0153CDF7E43F504B0304140006080800385831405578657D4D01000033030000300000006662782F38424446394546372D
311
323343422D343241322D393535442D3941454445303435393536342F636E782E786D6CD593BD6E032110845F05D1DF0FCEC9492C0E4B29F20429D272B076883938F113C56F9FC5C68E1B1729D3A0D3EC30B3FAC4F1EDF76CC9178468BC1B296B7B4AC029AF8DDB8F34A75DF344C956F0E07DBAB151E2E40C232D32157C1F7C
311
5EAAA46127B34DA85AE30E550C107D0E0A22CAE526B15E498B01E09A8C22CC13680D9A5C8DF8B58380ABA0381D49FA00F2FAF24EFCF4092A45DE9514C1BBD22178396BD38D891265658C238DEA0366D9CA9CBC867868B54CB265EDA5EBCE4EBF49A45CB854E66048291F6939A9A81BB5C8917738143CA680F4AA291D17A042
311
2E8B354A2684DC9D8C678FE0D9B8B41EAAD720F8806EB67E18060C3BCD044F6686EA500164024DC5AA67ABA6670D7B7C636CD3B3CDF0DCF4EB4DDFF3AED8059FBCB7F512C640F00B51DE2570890AC6BB32BE87AFFA88360159FB70FC034804505BCF74AE19FF994F777ADF882BE05F207E00504B0304140006080800385831
311
40565E5A359B0500007B100000340000006662782F38424446394546372D323343422D343241322D393535442D3941454445303435393536342F6F626A656374732E786D6CAD575B8F9B3814FE2B887D0E8424339D593154B94CAA6877DAAA51AB7D1829326018EF988B6C33CDECAFDFCF6008A4C934BBEA0B60631F9FF39D
311
EF5CECBFDF67DC7AA142B222BFB33D676C5B348F8A98E5E99D5DA96474635BEF035F1485EA2DB3AD9C64F4CED6D376E0A7A2A84A3315D384545C1DCDAE177F5932A239B5AD881329EF6C193DD18C38A452454CE5B31313459C34D93B9ED32C1C8A4D05299F8E849644D05C4153CCE79062354A79C3E1D87603DFD5FF035F3F
311
CDAAE9F9556E6DCFF07C964B45F2E887C38EC44CBDD9EA7E72753BBA9ACDA6A3D9F5C41B2DD68BD5C87B371D2FAF97CBDBF9FD2D0E964A4092D144D0C40E3E001BC122DF6D7E057EC572359D9825C641AEA02F4C7BCA0E2696E7BBCD9ACE3A63E429F5A322CF69546305346AFB8CE89896348FE173462534EB21341E0E3D8D
311
63EFF7548FCD91FDE9CB10E8EFE8096A756FDF7D4D8BF06F98202F6190905433B0C1D218DA70757C40382C0A6EFE3169654451C108B7380B0511AF7680A57A49E00FC468260B1D0DDA023B80179ADF43BA208C7ECEF3535A2615E79AC6765047C10EB14295AC3563FF5071D0BE8F0C7482AF341B6E8C41EAB5A47670DB50E4
311
E6884D0D9056C2490A97C34CBD733A393274A9E374B3B2833FD6E17EAB63F7F4E1A5284A2A94A60FA8D53AAE7D6B948C4EDE459ED31BEC23550EA07C01F21F11EA0755E037C1F6B3FDCC9CA204C96552880CBEB1C6D6688CC7D8F2EAA7FEEE7DF96EB779E8BD7378C2D91AAA5F80E7D086BE2F7B7006FE0B085F88A9316D1B
311
118EB4F1C07200A44962F10253C8C349B8B7830DB21CB23276111E783019EABEE0D3778D18248AFAA4DE3B07964769F182040DD86A46428D86FC46C1839F7E4867F5C166D93978AF7E095DE7ABED1FDB4A2424A20F26A65734613953287107DEF4151A603EB0E899BE7E2F440C437FC47BDBC73B334749A0AD31D7C0A76D4E
311
D783C3C9830322EC4B0B9D6EFC9F9C00237461EDC97F6032A29C939C16557BEE9BF50365A3815807BB667257600E8505A469FE1CC5208A742458A941ECAA5597349D33D67DDD7C0423ED60F1FA2779ED67AFF0907BA382176217BEEE9AB47412EA6F436E1B0C5C2D0574AF83A48D7F03FA2E6649524924C113B87EDB2CFBBE
311
D3690129A295DA44CB0CF623B88830A46DE5A25A0B824A5AE43B86BA89B83B79405F3E20350CA8059ED358529EEC18E755B64B184735DA65A43C03C7FFD73FACB27247B2A2CAD519D903D5511D86BA0FD82BBF13153DD9C1B67E8F16C8BD318DCF9041D79213580D5C7B3DB95ECFBCAB77A3F9CD6C3C9AADEFD13F2DBDC5E8
311
76B6F0EEE757D7EBF9EDB4F553A349E0B7A5A61FD1F0124A9B5F0966DCF77583F83149C00E1E88928F1F9AF06CDF5F370E7A61DFC51ED4CB6EE33C7E41DF47E39F0B38AC3C296893959C66345744C7D083FEE05F08FA8C8132CDFC262329BD40CAA70FDB23633073C1BECF3ADEE9F7A3BD6676A903F2A410F55465614E183F
311
DA9836483A659E1AFC5A9F74EFA6D0B4433D328E41672A0BCE62E4C1D84A699151856C784111121995A05EBFA78FCDDDE382DD2F4D87A848C869ABC9134193CC25C202D4AA22359CB77E4353A7FBAA3B1BE5D679C6C3640ADB0267EE6C34E98A45543A210AB46E856AE1E052BF9347E34FF294A3D76E3675E36E97C6665092
311
BB2597F44FC6AE26851B0390464AF40D6888E09D5A99C0AF7533FFA3FF6478AB8E45143EC34A75B61C263A63EA6310A28D51E6B68026E6D91CBD47A0BE6D96E7D46B06885C74CB7A93048DD4912222AD6F0A5A3FA3D27CF5D94587626D3E5925AF52F8F27249234141E64A073858045618992551A0EAF2F7C7CFA2C04D36B3
311
D60C14785C165956E466303737616BFB847B6DFC88B440F585443E4EC6DEE4B1BE0898BBC92E24923A2496CF98804F05EB201E381E8C6C6E8BA840CD8F6E9DAB9D70C4CDCDCA32256D06A18628FDACAA6141CB91530BD1A32F933A56FA0BCA37EF026EBD142A0874F1C1BF504B030414000608000038583140000000000000
311
000000000000350000006662782F38424446394546372D323343422D343241322D393535442D3941454445303435393536342F76657274696365732E62696E504B030414000608080038583140F270F1330600000004000000360000006662782F38424446394546372D323343422D343241322D393535442D394145444530
311
3435393536342F747269616E676C65732E62696E636660600000504B030414000608000038583140000000000000000000000000370000006662782F38424446394546372D323343422D343241322D393535442D3941454445303435393536342F617474726962757465732E62696E504B030414000608080038583140D598
311
7DFC8F00000041010000360000006662782F38424446394546372D323343422D343241322D393535442D3941454445303435393536342F6469726563746F72792E786D6C858F410EC2201045AF4266AF15DDB800BA74E7C21B903225242D6328188F2FA5C4183471359997F9FF81E89FF3C41E1816475E02DF1F80A11FC838
311
6F25A438EECEC07A250251FC3803E6F58C12560C4AD840E95E91C151A72936F496F35732D860FE635F62C8F2DA16B505C545B74125BAA2FA9E05D7CC053D063734D5C7665FD55B6B8D15D5E9BFEAFD8490FFA45E504B0304140006080800385831407143B6BFFC000000A00100003B0000006662782F38424446394546372D
311
323343422D343241322D393535442D3941454445303435393536342F7265736F75726365732F636F72652E786D6C8D504B6EC32010BD8A357B6C204EE24698488E9513F402084F5C9418223E558F5F885DA9DD75C3A0F799797AE2FCB53CAA4FF4C138DB03AB295468B59B8C9D7B48F1463AA8CE5278E7E22F1954562DD843
311
81418AD9BBF4DC20ED6C441B336ADD841BA842C008957EE44F0F417FE0A26A956256847BFD54FAAE66AC599DE9AC9322449F0354EB91F282F4185CF21A836856568A94CCB469CC946F9A9B410FF2381C78C77947F6AC7D236DC706328CD73DB9B697031FDBEBEE3272D114B314D12C3F19B547157102C929E38432C28EEF8C
311
9D283BE52DF470A2543445FEC7949ED33F4DC9D8B8E35BDCD51640B21CE44548D194BEF278959967E9567E03504B010214000A0000080000385831403DEE336E79000000790000001B00000000000000000000000000000000006175746F6465736B2D64657369676E2D7061636B6167652E786D6C504B0102140014000608
311
080038583140D486FD9CA0000000F40000001300000000000000000000000000B20000005B436F6E74656E745F54797065735D2E786D6C504B010214001400060808003858314062E89827E90000007C010000080000000000000000000000000083010000636F72652E786D6C504B01021400140006080800385831405501
311
9EA25F0000007C000000070000000000000000000000000092020000636E782E786D6C504B0102140014000608080038583140D639BF0665010000020300000C00000000000000000000000000160300006662782F636F72652E786D6C504B0102140014000608080038583140B81E237B7E0000009D0000000B0000000000
311
0000000000000000A50400006662782F636E782E786D6C504B0102140014000608080038583140EE2293EC2C0100001402000031000000000000000000000000004C0500006662782F38424446394546372D323343422D343241322D393535442D3941454445303435393536342F636F72652E786D6C504B01021400140006
311
080800385831405578657D4D010000330300003000000000000000000000000000C70600006662782F38424446394546372D323343422D343241322D393535442D3941454445303435393536342F636E782E786D6C504B0102140014000608080038583140565E5A359B0500007B1000003400000000000000000000000000
311
620800006662782F38424446394546372D323343422D343241322D393535442D3941454445303435393536342F6F626A656374732E786D6C504B010214001400060800003858314000000000000000000000000035000000000000000000000000004F0E00006662782F38424446394546372D323343422D343241322D3935
311
35442D3941454445303435393536342F76657274696365732E62696E504B0102140014000608080038583140F270F13306000000040000003600000000000000000000000000A20E00006662782F38424446394546372D323343422D343241322D393535442D3941454445303435393536342F747269616E676C65732E6269
311
6E504B01021400140006080000385831400000000000000000000000003700000000000000000000000000FC0E00006662782F38424446394546372D323343422D343241322D393535442D3941454445303435393536342F617474726962757465732E62696E504B0102140014000608080038583140D5987DFC8F00000041
311
0100003600000000000000000000000000510F00006662782F38424446394546372D323343422D343241322D393535442D3941454445303435393536342F6469726563746F72792E786D6C504B01021400140006080800385831407143B6BFFC000000A00100003B00000000000000000000000000341000006662782F3842
311
4446394546372D323343422D343241322D393535442D3941454445303435393536342F7265736F75726365732F636F72652E786D6C504B0506000000000E000E0080040000891100000000
310
504B03040A0000080000385831403DEE336E79000000790000001B0000006175746F6465736B2D64657369676E2D7061636B6167652E786D6C3C3F786D6C2076657273696F6E3D22312E302220656E636F64696E673D227574662D3822203F3E3C666F726D6174733E3C666F726D61743E687474703A2F2F736368656D612E
310
6175746F6465736B2E636F6D2F64657369676E2D7061636B6167652F323030393C2F666F726D61743E3C2F666F726D6174733E504B030414000608080038583140D486FD9CA0000000F4000000130000005B436F6E74656E745F54797065735D2E786D6C7D8EC10E82300C865F65E91D8A1E8C310C0EEA1BF002731658846E
310
D98AC1B77784ABF1D8FE5FBFBF75BBCE937A534CCEB38643598122B6FEE978D0B0485F9C41B54DDD7D022595594E1A469170414C76A4D9A4D207E29CF43ECE46F218070CC6BECC4078ACAA135ACF422C856C0E68EA1BF5669944DDD7BCDE7B1F8E415D77AECB980613C2E4AC91FC167A2B244592486606FC29C8FD7F045B9A
310
EF7053A7E60B504B030414000608080038583140AEB8C78EEA0000007C01000008000000636F72652E786D6C8D90D18E832010457F85CC3B0A62AD1AA449DDF40BF60708504B5AC1086CF6F3175B9BECBEEDD34CEEDC3333B9FCF43D3FD0975983F56E005A1040C629AFAD9B0648F18A5B4027C157EFE32F1B20276733C026
310
83E0D3EAD3B24BCABB685CCCAAF3DAECA20CC14440EA919B0182BA99591632C5EC08F76291EA2E2753D07797E194AC46AF2356E77DF66ACD0AE2D85DDAF3477BC04D73E8703D5E5ADCB1B1C66C642D25E3D83276E6E5060B1EEDFCBEAF5623A3D1202A422B4C28A6C74F4A7B42FBBAC3A4E909E1E566FF03A545FF134AD645
310
56EDEFBEB00082E6479E03C1CB2D8B5C9E41E5BAE5267E00504B03041400060808003858314055019EA25F0000007C00000007000000636E782E786D6C4DCB3B0E80201045D1AD90E915ED2CF8AC45050C11660C8261F98AB1B07AC9C97D42D718D865D3E909258CFD00CCE24AC6E326A164D74DC0B4128928FF326038472B
310
A13128B1252AC747C6BAB984FC68F0B87FE8960A5C09FE86CFB69FBA01504B0304140006080800385831401E4FDB8D66010000020300000C0000006662782F636F72652E786D6C8D52ED8E8320107C15C27F04B41FB6419AD44B9FE05E802AF548151A04D3C7BFB5DAF47A699AC604C9CCCEEEECA8D85DBB160DDAF7C6D902
310
F38461A46DE56A639B02C7702239463B29BC73E14F19465675BAC0238CA568BC8B9719AA9C0DDA0640ADABF50CAABED701A3AA854B81FBEA47772A513140457F4E2EAA3AAB46273C011AEAA4E8830703681A329E589E8E5741275C8A184D3DB3A68669E664B4C772BD39E4FBAF7C4956ABE5862CCA434E3659B9205999E59C
310
95659E657B4147B114C174777795D72AE81ACB94F194304EF8FA9BF32DE3DBC586B0D5963141C7F22751BCD41F8AA2B1214B67BB93ACC79283911BF16F5B8828A05E0DE0874A41C710E1754BF839680804420EEAD8DEF7380334E82A38BF00A676F1410DAA8D1AA632747B049D58E87C6B009BBDEC93BEE9F3BE077C40651B
310
B0A6025C8F318CD3C534758EE2A23D19C21559E73BD53ECC4D161FE763D04B79E55AE73F51D379553A8749C7BF57FE02504B030414000608080038583140C5A66AA37F0000009D0000000B0000006662782F636E782E786D6C4DCCDF0A83201C86E15B91DFB92B975B066AF4C7EE239685CC74988E5DFE6A74B0A30F1E3E5E
310
5E7F568BDE3A6CC63B01E49203D2EEE127E3160129CE9801AA250FDEC7BF1B2037AE5AC0C120F9127C7A9D34E9794C36EE6A8D7B9ED8B186B44AF5B8B8760CD38AE5B82DCA3B566C2084967D35D01B649267BFD2BE47587E01504B03041400060808003858314091665FFA2B01000014020000310000006662782F43384131
310
424545442D333243382D343938302D423337362D4538463131343744394634352F636F72652E786D6C8D51CB6EC32010FC15C4293D6083ED387684899AD717F40728901425068B4795CF2FD48ED4DE7261D1ECCCEC6897EE1EE31D7C2BE7B53503240586401961A536D701C670411D043B469DB5E10F0D02C34735C00C4346
310
AFCEC6698184354199905063A55A40EEBD0A10887BFA0CD08B2F35F282C79018FE564C5CDCF85515A448EDC463D40797028079487E213B74EF647F3A1D515D1D3AD4F41D46FB7AD3A2537726A4D91CFB73B3A6E52C6434462D17B996298EBE68E55E35C96246831E9FF185533C280959854985304164F341C816936DD323DC
310
6E31A665A6FF13C549BE288ADA84BA5AE2CE320F19A1E5DC6054DAF8797F86518FC9BA00F2BC9557E20D325CE00AF7FDBAEE683953D3029267DB2C9E3E589716BCBA7D2676BD18B70DA365BE512ABF074C35DF93FD00504B03041400060808003858314033DFAA6A5401000033030000300000006662782F43384131424545
310
442D333243382D343938302D423337362D4538463131343744394634352F636E782E786D6CBD93CD6EC32010845F0571F70F89E5A61126520F7D821E7A25B04968305880ABE6EDBB2424CD25874A552FC89A1D66569F30DF7C8D967C4288C6BB81B2BAA5049CF2DAB8FD40E7B4AB56946C040FDEA73B1B254E8E30D02C53C1
310
F7C1CF539134ECE46C13AAD6B8631103443F070511E57C9358AFA4C50070D58C228C5BD01A34B919F16B07015741717B22E900E4F5E59DF8ED07A814799353046F7287E0F92C4D77264A9495310E34AA038CB29673F21AE2B1D632C99AD5D7AE073BFD24917CE15A39074372F940F34945D9A8468EBCC1A1E03105A4574CE9
310
340115729AAC513221E4E66CBC78049F8D4B7D57BC06C107742F17FD6A8561E799E0C98C501C2A804CA0A958B46C51B5AC624F6F8CAD5BB6EE9EABB65FB72D6FB25DF0ADF7B65CC218087E22CABB042E51C17893C78FF0151FD126206B1F4EBF0089004AEB85CE2DE32FF9B07ED975FFC8A739BF6FC415F02F10DF504B0304
310
14000608080038583140DBE969695A070000941B0000340000006662782F43384131424545442D333243382D343938302D423337362D4538463131343744394634352F6F626A656374732E786D6CED595B739B3814FE2B0CFB6C6C62274D76089DC4B98CA79BB6536F3BFBE019460699682304238924DE5FBF4717301093E0
310
6DF6AD0F3620A4A373BE73D521F8F89C51E71173417276EEFADEC475308BF384B0F4DC2DE56674EA3A1FC380E7B96C4C731D86327CEEAA61370C529E97851D4AF006955476466F2EFF72448C19769D982221CE5D11DFE30C79A8947982C583972089BC74F3ECF99E99D8269B7254DC7788168863268153186740C5314CF9ED
310
C7893B0E83B17A1F06EADFCE9A0E9A35EB9F35D652B7B9244C48C4E2172C75C84C07B134F56757D747C767A3E3D96C3A9A9D1CF9A3CB9BCBAB91FF613A999FCCE76717D767C0DE3ACFA99529C1056609E86FEB867E30566F6AD12D02FBB88E73C670AC8104A8B4585D82040BD8AA01DFA4FDE82B891AAFB5848DE7997A6F59
310
680C4FDB54FA660D03A2451704B1DB551257D7A67CF9FA6F105C0C314A2EB0046E85E4A05D0B0F07AF70C3493036A361B0DEE982082743127382A843C99A230E4A81A96A4A189805968C720E0EA41C2581D69C79DDB62DF0CCB75D671F979B9252E5196EA81D2B02F7C35268CEC83F98EFB86F22033C81B42561F2D47229B7
310
0576C3B360AC07C3405DA647F6A501D2D950940A8D8879DB1174AE5C7F71E5869F6ED6CF4B150EF66F5EF0BCC05C2AA3537AD47C8121DBAB42C96EEB0FD29C5A00C21850EDCA1D28DF00F9CF103D76AC80DE38799E3DCFEC5CC911139B9C67A01B67E28C26F037717CFDAFEE1B77C1B85EDCD65E1F9EE0A60AAAD39FC7B32D
310
83C6CAF2DF80330C1EC1E0733EB5AF9631A260CF77840140CA481C9AC31084F6CDFAD90D17103821D0C32A44431F4406761FE136185B323BAD54EE65BD8E01A2768FE91025016CDA22818D1E3DDD42F6E024DEA9A929621FBCC7EF62AE1757CB4FCB926F508CEFAC4F5FE10D614442D6DCCF500BF396440F78FB94F304047D
310
89F7B2897766B71280B6C25C019F5620A887DDCEAD0D625897E62ADC046FEC0042A85CDDA07F47448C29450CE765B56F1DDD94A1D61E6F6B06373C32104F8F3A26CCF12351550538CD6E468B51C8FB31278502D10D6F8D6475D0F47AA4FBBEF80C1659CFEF99B560107A19A27FEAA0B50787966557485B206A81D7BB701EE7
310
34E7D17A1B9948E7422D016CB4BDE5478B28C47AA32445053C48FB5D155252236D9490CDA6141057F7B0F863316F9AC3C49BFAC74EF3BFE38C3388B6E0BB885BBFEBEC11910CA538DAA0A46FBBE66E356DA149F690E67843412EF248E43642329A24383D049A83889FBD2BF594E642108605E4ABBDE037D1987810488C362B
310
9695563B4013116558227A08028A4C0FB83AEDE81A3786D2E16D1E6BEB7D4D634DA2FF93457004B564CE2202A528E4903719F7BD6388216D740DCA1D7CC1DA2ADA5A0C5A4209116FA3274CD27B7908EA867C0FEE311C494A19E5058AC1AC07907DE12B4AA91DDED7287E50F9238A4BFA5E062230DD4484D2328BE047189C3C
310
86B8761D985E45A141DCC43E893328CA902CF9904D4E8E272FF631354337043636DA100A613BCA50D1837A2B20EA7AC4A9C1B7D47B94BA2EB32242595EB24186E24DBBDE64C977D5AAC80EE457958A503656842DC130204CD659B58AD960EA3AB0821BE940B58D04CA0A6A4E616F241EBFF6264DB977036EFDF47D37C8A0F0
310
EBD15E33A2CE2A182C8FADC2403C2119DFBBE1525F4797507F2738D9A5FAAAD66C568080988AE425275645DF1750DED81ACD0DEF9014AB5B9375ABEBF78507DD8F600C6BA076A9172E14D0196612A9CAE44EDDD06F0842708B86195FA89C7A08958B24D15523A237A44F9DAD32A2B56946BCE21EB33C831F5B1116D332C12B
310
948887E84ED2684914EB564A2F2315C6AF0AF8E576D98107460688F4551578F8A9B3D68ECE55B9B49788BC2FB335430482604BB4D4E8C62B586A355269B9BEAA3305D45D606056C5B35F278B663BE2D7C922B586F153278BCBED1F68DBEC8B34D279ACECFAA063409D9F1495F73806E8B6434DB5CE2226995BF9AD33451014
310
AB283FB81AAB828621D8C7F17FCEDA7D59D06CD7E1FFB0ACEDBFA8380ECA2AADC9AA4BB5A7725D3473D8C9D1C9CDCC3FFE30BA389D4D46B39B6B68D0CEFDCBD1D9ECD2BFBE383EB9B938DB9511DA51C3A00E663A77C1B3096AD5B07AB218405756E49424709A4F9C1443CC9770A61FD03EE71916903C9BCDEEC436E507AC7E
310
347D4E89D614579CDC2368105301691D302A63D91E777E83D6A48483F6B90B4D23EF01FEAC55BA0E649E73175A0592C458786B6833A9869E260E2957E77E4B0CF0412C5529D12CAA9FEB550A9B56F8AFA70C490356AE560F030AB702BA5FAD0E85E6CDF2141F2478C58E8324DCAE4B09D59A916537500BA3B7D9A9DFC84609
310
7BB05B3F83EBBE2E96EFE9392D44067D3278D5080CD591443CD5FD6EC59865E9E2EAEB18FA6CCEE28B53D032055D0EA734E2188CB954051558115885A5592009A63AFF7DF595E7F08927737455B49AE7599633FB7001E7B1043E1139CB7BF8E093ACA06CC0AAAD2E564713FF68A5DBD9B6C31EAD91C09EAA8760A02A239408
310
1D63038B7CD19AB28DCBB1524267FAE2CAB1E113DA00C6825E7477CDE72D07BC477D4851BEA23DBC92F3D58EF6584F056BE0D08B0EFF05504B030414000608000038583140000000000000000000000000350000006662782F43384131424545442D333243382D343938302D423337362D4538463131343744394634352F76
310
657274696365732E62696E504B030414000608080038583140F270F1330600000004000000360000006662782F43384131424545442D333243382D343938302D423337362D4538463131343744394634352F747269616E676C65732E62696E636660600000504B030414000608000038583140000000000000000000000000
310
370000006662782F43384131424545442D333243382D343938302D423337362D4538463131343744394634352F617474726962757465732E62696E504B030414000608080038583140D5987DFC8F00000041010000360000006662782F43384131424545442D333243382D343938302D423337362D45384631313437443946
310
34352F6469726563746F72792E786D6C858F410EC2201045AF4266AF15DDB800BA74E7C21B903225242D6328188F2FA5C4183471359997F9FF81E89FF3C41E1816475E02DF1F80A11FC8386F25A438EECEC07A250251FC3803E6F58C12560C4AD840E95E91C151A72936F496F35732D860FE635F62C8F2DA16B505C545B741
310
25BAA2FA9E05D7CC053D063734D5C7665FD55B6B8D15D5E9BFEAFD8490FFA45E504B030414000608080038583140BD13E916FC000000A00100003B0000006662782F43384131424545442D333243382D343938302D423337362D4538463131343744394634352F7265736F75726365732F636F72652E786D6C8D504B6E8330
310
10BD0A9ABDC1064A0019470A554ED00B586642AC041BF953F5F835814AEDAE9B99D1FB689E1E3F7F2DCFEC139DD7D60CC0720A191A65276DE60162B89116B2B3E0CEDAF04B0699910B0EB0C120F8EC6C5C0F485913D084841A3BE1014AEF3140A69EE918C0AB3B2E32973124857FE4AB540F3963CEF244279DE03EB81420DB
310
9F6C1384436FA353E879B1B382C7A8A743A3A7F453DF343A10A7EEDA5EDEDB9A34CD5B47EAF1DA92AE1A6B528D55CBE838B65575E1C566163CE8E527A37228034E204ACA4A421961A70FC67ACAFABA23B4E929E5C526FF638AEBF44F53D42654E51177B779102C05791182175B5F69BDCA4C7BEB567C03504B010214000A00
310
00080000385831403DEE336E79000000790000001B00000000000000000000000000000000006175746F6465736B2D64657369676E2D7061636B6167652E786D6C504B0102140014000608080038583140D486FD9CA0000000F40000001300000000000000000000000000B20000005B436F6E74656E745F54797065735D2E
310
786D6C504B0102140014000608080038583140AEB8C78EEA0000007C010000080000000000000000000000000083010000636F72652E786D6C504B010214001400060808003858314055019EA25F0000007C000000070000000000000000000000000093020000636E782E786D6C504B01021400140006080800385831401E
310
4FDB8D66010000020300000C00000000000000000000000000170300006662782F636F72652E786D6C504B0102140014000608080038583140C5A66AA37F0000009D0000000B00000000000000000000000000A70400006662782F636E782E786D6C504B010214001400060808003858314091665FFA2B0100001402000031
310
000000000000000000000000004F0500006662782F43384131424545442D333243382D343938302D423337362D4538463131343744394634352F636F72652E786D6C504B010214001400060808003858314033DFAA6A54010000330300003000000000000000000000000000C90600006662782F43384131424545442D3332
310
43382D343938302D423337362D4538463131343744394634352F636E782E786D6C504B0102140014000608080038583140DBE969695A070000941B000034000000000000000000000000006B0800006662782F43384131424545442D333243382D343938302D423337362D4538463131343744394634352F6F626A65637473
310
2E786D6C504B01021400140006080000385831400000000000000000000000003500000000000000000000000000171000006662782F43384131424545442D333243382D343938302D423337362D4538463131343744394634352F76657274696365732E62696E504B0102140014000608080038583140F270F13306000000
310
0400000036000000000000000000000000006A1000006662782F43384131424545442D333243382D343938302D423337362D4538463131343744394634352F747269616E676C65732E62696E504B01021400140006080000385831400000000000000000000000003700000000000000000000000000C41000006662782F43
310
384131424545442D333243382D343938302D423337362D4538463131343744394634352F617474726962757465732E62696E504B0102140014000608080038583140D5987DFC8F000000410100003600000000000000000000000000191100006662782F43384131424545442D333243382D343938302D423337362D453846
310
3131343744394634352F6469726563746F72792E786D6C504B0102140014000608080038583140BD13E916FC000000A00100003B00000000000000000000000000FC1100006662782F43384131424545442D333243382D343938302D423337362D4538463131343744394634352F7265736F75726365732F636F72652E786D
310
6C504B0506000000000E000E0080040000511300000000
  0
XRECORD
  5
17
102
{ACAD_REACTORS
330
12
102
}
330
12
100
AcDbXrecord
280
     1
270
     1
271
     1
  0
XRECORD
  5
16
102
{ACAD_REACTORS
330
12
102
}
330
12
100
AcDbXrecord
280
     1
270
     1
271
     1
  0
XRECORD
  5
18
102
{ACAD_REACTORS
330
12
102
}
330
12
100
AcDbXrecord
280
     1
270
     1
271
     1
  0
XRECORD
  5
15
102
{ACAD_REACTORS
330
12
102
}
330
12
100
AcDbXrecord
280
     1
270
     1
271
     1
  0
XRECORD
  5
BC4
102
{ACAD_REACTORS
330
22
102
}
330
22
100
AcDbXrecord
280
     1
102
MATERIAL
148
0.0
149
0.0
149
0.0
 93
        0
 94
      127
282
     0
 72
     0
 77
     0
171
     0
175
     0
179
     0
273
     0
  0
XRECORD
  5
24
102
{ACAD_REACTORS
330
22
102
}
330
22
100
AcDbXrecord
280
     1
270
     1
271
     1
  0
XRECORD
  5
23
102
{ACAD_REACTORS
330
22
102
}
330
22
100
AcDbXrecord
280
     1
270
     1
271
     1
  0
XRECORD
  5
11C
102
{ACAD_REACTORS
330
22
102
}
330
22
100
AcDbXrecord
280
     1
 70
     1
 90
1959938040
 71
     1
  1
BF38E7EC-1522-44CF-BECE-1ED4BE8DF46C
311
504B03040A0000080000385831403DEE336E79000000790000001B0000006175746F6465736B2D64657369676E2D7061636B6167652E786D6C3C3F786D6C2076657273696F6E3D22312E302220656E636F64696E673D227574662D3822203F3E3C666F726D6174733E3C666F726D61743E687474703A2F2F736368656D612E
311
6175746F6465736B2E636F6D2F64657369676E2D7061636B6167652F323030393C2F666F726D61743E3C2F666F726D6174733E504B030414000608080038583140D486FD9CA0000000F4000000130000005B436F6E74656E745F54797065735D2E786D6C7D8EC10E82300C865F65E91D8A1E8C310C0EEA1BF002731658846E
311
D98AC1B77784ABF1D8FE5FBFBF75BBCE937A534CCEB38643598122B6FEE978D0B0485F9C41B54DDD7D022595594E1A469170414C76A4D9A4D207E29CF43ECE46F218070CC6BECC4078ACAA135ACF422C856C0E68EA1BF5669944DDD7BCDE7B1F8E415D77AECB980613C2E4AC91FC167A2B244592486606FC29C8FD7F045B9A
311
EF7053A7E60B504B03041400060808003858314091724B83EA0000007C01000008000000636F72652E786D6C8D90416EC3201045AF82668F0DD4756C0B13C5557D825E0001715162B00C44397E71E248EDAEAB19FDF96F66F4F9F13E5FD1CDACC17AD7032D0820E394D7D64D3DA478C60DA0A3E0ABF7F1970D9093B3E96193
311
41F069F569D925E55D342E66D5796D76518660222075CD4D0F417D9B591632C5EC08976291EA222753D05797E194AC46CF2356E77DF66CCD0AA26D86BAA9D93B6E196B70D5B24F3CB487119F4E151DC76A18D947C5CB0D163CDAF9755FAD4646A3413042192614D3C317A51DA15DD562527784F072B3FF81D2A2FF0925EBE2
311
1BDBDF7D620104CD8F3C0682975B16B93C82CA75CB4DFC00504B03041400060808003858314055019EA25F0000007C00000007000000636E782E786D6C4DCB3B0E80201045D1AD90E915ED2CF8AC45050C11660C8261F98AB1B07AC9C97D42D718D865D3E909258CFD00CCE24AC6E326A164D74DC0B4128928FF326038472B
311
A13128B1252AC747C6BAB984FC68F0B87FE8960A5C09FE86CFB69FBA01504B030414000608080038583140EAD4A95C66010000020300000C0000006662782F636F72652E786D6C8D52ED8E8320107C15C27F4438AFAD0DD2B497F309EE05A852CF54C120983EFEAD1F8DD74BD35C4C90CCECECCE8E8AC3AD6DD0A05D5F5B93
311
6116C5186953D8B236558683BF901D4607299CB5FE57194646B53AC3238CA5A89C0DDD0215D6786D3CA0C6967A0155DF6B8F51D1C025C37DF1AD5B15A9E0A1A2BF469D2AAEAAD2118B80863A297AEFC0009A878C279697F34DD019972284BA5CD8BA8469F5A5D60ECB7477DAEC36FC9DA49CEF4892F24F724AB739391E1396
311
E7C929E71F89A0A3580A5FB7777785D3CAEB124B1E334E6246D8F68BB17DCCF6494AE2CD3E8E051DCB1F44A12BFF290AB5F16F7CB13BCB7A2C191899883FDB42441EF56A003F540A3A8608AF29E1C7A0211008D9AB7373DFE30AD0A00B6F5D024C69C34A0DAA091AA6C6687A049D59E83C3580CD9EF6E12FFABCEE011F5099
311
0AAC290FD773F0E374314F5DA2E8B42383BF21635DAB9AD5DC6C713DD7414FE5856DACFB8F9A2EABD2254C3AFEBDF207504B030414000608080038583140647013397D0000009D0000000B0000006662782F636E782E786D6C4DCCD10A83201886E15B91FFDCE55C86811A4BBB90581632D3703A76F9ABD1C18E3E78F87845
311
F7593D7ADBF4723148B85E08201B1E7172619150F28C39A04E891463FEBB010AE36A251C0C4A2C2996EDA4C9CE63F17957EFC2F344DED786917B8F69CB38AE1B3DE056931BD6ACE18699A6A503854A89EA57DAF708AB2F504B030414000608080038583140ED0921172B01000014020000310000006662782F384234443530
311
41422D323935382D343643452D394330332D4335363844354436393245322F636F72652E786D6C8D51CB6EC32010FC15C4293D608363BB7684899AC71FF40708101725068B4795CF2FD48ED4DE7261D1ECCCEC6897EE1FD31D7C2BE7B53503240586401961A536E30063B8A20E823DA3CEDAF0870681E1931A608621A3A3B3
311
715E21614D502624D458A956907BAF0204E29E3E03F4E24B4DBCE0312486BF153317373EAA8214A99D788CFAE05200B00CC92F64DDA13E35F8E380AABEE950DD1ECFA83FE22D3A366D776A4E6D5F9D2B5A2E424663D472956B99E2E8AB56EE55932C6634E8E9195F38C5839290559854081344DE3F09D961B2AB7B84DB1DC6
311
B4CCF47FA238CB1745519BB0ADD6B88BCC434668B9341895365EEECF30EA315B17409EB7F14ABC41860B4CFAAEE94947CB859A16903CDB7AF5F4C1BAB4E0CDED92D8A4598CDB9AD132DF2895DF03A69AEFC97E00504B0304140006080800385831405578657D4D01000033030000300000006662782F38423444353041422D
311
323935382D343643452D394330332D4335363844354436393245322F636E782E786D6CD593BD6E032110845F05D1DF0FCEC9492C0E4B29F20429D272B076883938F113C56F9FC5C68E1B1729D3A0D3EC30B3FAC4F1EDF76CC9178468BC1B296B7B4AC029AF8DDB8F34A75DF344C956F0E07DBAB151E2E40C232D32157C1F7C
311
5EAAA46127B34DA85AE30E550C107D0E0A22CAE526B15E498B01E09A8C22CC13680D9A5C8DF8B58380ABA0381D49FA00F2FAF24EFCF4092A45DE9514C1BBD22178396BD38D891265658C238DEA0366D9CA9CBC867868B54CB265EDA5EBCE4EBF49A45CB854E66048291F6939A9A81BB5C8917738143CA680F4AA291D17A042
311
2E8B354A2684DC9D8C678FE0D9B8B41EAAD720F8806EB67E18060C3BCD044F6686EA500164024DC5AA67ABA6670D7B7C636CD3B3CDF0DCF4EB4DDFF3AED8059FBCB7F512C640F00B51DE2570890AC6BB32BE87AFFA88360159FB70FC034804505BCF74AE19FF994F777ADF882BE05F207E00504B0304140006080800385831
311
408A0D63D79B0500007A100000340000006662782F38423444353041422D323935382D343643452D394330332D4335363844354436393245322F6F626A656374732E786D6CAD57DB6EDB3810FD1541FBEC8B6CA74D168A8AF8561845DAA0468B7D08605012A57043890249A5CE7EFD1E4A942CB976EA5DF4C5B2A8E170E6CC
311
990BFD0FFB8C3B2F542A26F25BD71B8E5D87E69188599EDEBAA54E06D7AEF321F0A510BA23E63A39C9E8AD6B96DDC04FA5280BBB14D384945C1FADAEE77F392AA239759D8813A56E5D153DD18C0C49A9454CD5F330269A0CD3643FF486B5605F6D2A49F174A4B42092E61A96623D8716A736CAEBBF8EDD51E08FCCF7C037BF
311
566A7A5E6A54F9D33F9FE54A933CFAE9B02335536FB65C4DAE6E0657B3D974307B37F106F3F57C39F0DE4FC78B778BC5CDDDEA06072B2DA1C95A2269E2061F818D64913FAA3F057EC9723D9D58111BA091A42FCC44CA0D268EE78F6A99D63BEBE429F32391E734AAB0021A957F56754C0B9AC78839A30A9675101AF75F3D83
311
63E7F3D4BCDB23BBCB9721D0DDD151D4D8DE3CBB968AF06FB8A02E619054D430B0C6D23A5A73757C40381482DB6F4C3919D15432C21DCE4249E4AB1B40D488047E4F8D61B234D9603C700344A1FEDCA70BD2E8D73C3F656552726E68EC065516EC902B54ABCA32F60F9507EBBBC8C026C4CAB0E1DA3AA45F0BEA06373545AE
311
8FD85403E9249CA40839DC343BA793234717264F374B37F8B40EF75B93BBA70F2FA428A8D4863EA05613B8E66950B236791745CE6C708F4C3980F215C87F46AA1F4C41DC24DBCFF6337B8A96245789901962E38C9DC1183F63C7AB7ECDFFCE3F7FD46EEE47EF1C9E08B681EA37E0D9F7A11BCB0E9C81FF02C20B39B5AE6D23
311
C25136EE590E800C491C2EB0843A9C847B37D8A0CAA12A6317E181079761EE0BFEFA23AB0685A23AA9F3CC81E55159BCA04003B68A9130A326BF35F010A79FCA5975B0153B07EFD56FA1EBDD72FB695BCA8444F4DEE6F492262C671A2DEEC09BAE413DCC7B1E3DD3D71F42C670F467BCB75DBC337B9402DA0673037CDAD474
311
F37238B97740847DA930E5C6FFC50970C234D68EFE7BA622CA39C9A9289B73DFEC1F681B35C426D90D93DB0673682C204DFDE52807D1A423C90A0362DBADDAA2393CE3DDB7CD673012F25C84841F84C243E98D04177217BEEEEAAA7412E9EF7D6A5B0846460BD85EE54893FE16F35DCC92A454A8812760FDBE59744367AA02
311
2A44A3B54E9619DC476E116939DBE845B396048D54E43B86B689B43B7940573F10B504A8149EB358519EEC18E765B64B184733DA65A43803C7FFB73F2CB362473251E6FA8CEE9EE9680E7DDB7BE4553F888E9EDC605B3D077394DE98C68730F7844D2B3981552FB4F3F5F47AF57EB518785793C960365BAC07F3D56235F056
311
CBD97C75BD5CCFDEC1756B513543057ED369BA098D28A1B3F9A564367CDF36481F5B03DCE09E68F5F8B1CECEE6F96D33C428EC8FB007EDB2DD7817BF60ECA3F1AF151C244F2ADA6405A719CD353129746FFEF0AF046346CF987A7D9391945EA0E5CBC7ED913358B960DF834977FAE368AF5D5D98843CA9443F95599813C68F
311
36A63592C3224F2D7E4D4CDA67DD679A57F3660383C15409CE6294C1D849A9C8A84631BCA007C98C2A50AF3BD2C7F6EA71C1EE977A40D424E4B4B1E4896046E60A6901DE9691EEAF3B7F60A63363D5AD8B6E3B7CC68FAD14AE03CEDCBA98D1358BA81A86E8CF6612AA94834BDD411E9C2579CA316AD79BDAF77697C1A6D791
311
5B914BC627EB575DC1AD03282305C606CC43884E654CE057B6D9EFD17F72BC31C7211A7FC352B7BE1C165A67AA6390A2B553F6B28019E6D91EBD47A2BEED9637AC647A885C74C97A9304B5D6812632AD2E0AC63E6BD2DDF2618401C5D97C710A5EA688E5E59A069282CCA54970B008ACB03A0BA241D5C59F8F0F52E0229B39
311
6B060A3C2E449689DCBEDCD98BB0B37DC2B5367E4459A0E63EA21E27636FF258DD03ECD564171245872456CF58404C256B21EE051E8CAC2F8BE840F587566E648270C4CDCDD2B12D6D06A59628DDAA6A60C1C4915307D963EE922657BA02C59B578151250A132486F8E05F504B030414000608000038583140000000000000
311
000000000000350000006662782F38423444353041422D323935382D343643452D394330332D4335363844354436393245322F76657274696365732E62696E504B030414000608080038583140F270F1330600000004000000360000006662782F38423444353041422D323935382D343643452D394330332D433536384435
311
4436393245322F747269616E676C65732E62696E636660600000504B030414000608000038583140000000000000000000000000370000006662782F38423444353041422D323935382D343643452D394330332D4335363844354436393245322F617474726962757465732E62696E504B030414000608080038583140D598
311
7DFC8F00000041010000360000006662782F38423444353041422D323935382D343643452D394330332D4335363844354436393245322F6469726563746F72792E786D6C858F410EC2201045AF4266AF15DDB800BA74E7C21B903225242D6328188F2FA5C4183471359997F9FF81E89FF3C41E1816475E02DF1F80A11FC838
311
6F25A438EECEC07A250251FC3803E6F58C12560C4AD840E95E91C151A72936F496F35732D860FE635F62C8F2DA16B505C545B74125BAA2FA9E05D7CC053D063734D5C7665FD55B6B8D15D5E9BFEAFD8490FFA45E504B03041400060808003858314082D9651BFC000000A00100003B0000006662782F38423444353041422D
311
323935382D343643452D394330332D4335363844354436393245322F7265736F75726365732F636F72652E786D6C8D504B6E833010BD0A9ABDC1761101641C85AA9CA017B0CC24B5126CE44FD5E3D7042AB5BB6E6646EFA3797AE2FCB53C8A4FF4C1383B002B291468B59B8DBD0D90E295B4509CA5F0CEC55F3228AC5A7080
311
0D06296EDEA5F580B4B3116DCCA875331EA00A012314FA918F0182FEC045952AC5AC08F77255FAAE6E58B232D3592745883E0728F627DB04E931B8E4350651EDAC142999F9D09839FF3457831E64D78E4DDBF09A749CB7A4EEF81B19BBD3442E979A4D533D4EFCB516D56696229AE527A3F6A822CE2039659C5046D8E99DB1
311
9EB2BEEE086D7A4A45B5C9FF98D23AFFD3948C8D2FFC88BBDB024896833C0929AAADAFBC9E65E6BD752BBF01504B010214000A0000080000385831403DEE336E79000000790000001B00000000000000000000000000000000006175746F6465736B2D64657369676E2D7061636B6167652E786D6C504B0102140014000608
311
080038583140D486FD9CA0000000F40000001300000000000000000000000000B20000005B436F6E74656E745F54797065735D2E786D6C504B010214001400060808003858314091724B83EA0000007C010000080000000000000000000000000083010000636F72652E786D6C504B01021400140006080800385831405501
311
9EA25F0000007C000000070000000000000000000000000093020000636E782E786D6C504B0102140014000608080038583140EAD4A95C66010000020300000C00000000000000000000000000170300006662782F636F72652E786D6C504B0102140014000608080038583140647013397D0000009D0000000B0000000000
311
0000000000000000A70400006662782F636E782E786D6C504B0102140014000608080038583140ED0921172B0100001402000031000000000000000000000000004D0500006662782F38423444353041422D323935382D343643452D394330332D4335363844354436393245322F636F72652E786D6C504B01021400140006
311
080800385831405578657D4D010000330300003000000000000000000000000000C70600006662782F38423444353041422D323935382D343643452D394330332D4335363844354436393245322F636E782E786D6C504B01021400140006080800385831408A0D63D79B0500007A1000003400000000000000000000000000
311
620800006662782F38423444353041422D323935382D343643452D394330332D4335363844354436393245322F6F626A656374732E786D6C504B010214001400060800003858314000000000000000000000000035000000000000000000000000004F0E00006662782F38423444353041422D323935382D343643452D3943
311
30332D4335363844354436393245322F76657274696365732E62696E504B0102140014000608080038583140F270F13306000000040000003600000000000000000000000000A20E00006662782F38423444353041422D323935382D343643452D394330332D4335363844354436393245322F747269616E676C65732E6269
311
6E504B01021400140006080000385831400000000000000000000000003700000000000000000000000000FC0E00006662782F38423444353041422D323935382D343643452D394330332D4335363844354436393245322F617474726962757465732E62696E504B0102140014000608080038583140D5987DFC8F00000041
311
0100003600000000000000000000000000510F00006662782F38423444353041422D323935382D343643452D394330332D4335363844354436393245322F6469726563746F72792E786D6C504B010214001400060808003858314082D9651BFC000000A00100003B00000000000000000000000000341000006662782F3842
311
3444353041422D323935382D343643452D394330332D4335363844354436393245322F7265736F75726365732F636F72652E786D6C504B0506000000000E000E0080040000891100000000
310
504B03040A0000080000385831403DEE336E79000000790000001B0000006175746F6465736B2D64657369676E2D7061636B6167652E786D6C3C3F786D6C2076657273696F6E3D22312E302220656E636F64696E673D227574662D3822203F3E3C666F726D6174733E3C666F726D61743E687474703A2F2F736368656D612E
310
6175746F6465736B2E636F6D2F64657369676E2D7061636B6167652F323030393C2F666F726D61743E3C2F666F726D6174733E504B030414000608080038583140D486FD9CA0000000F4000000130000005B436F6E74656E745F54797065735D2E786D6C7D8EC10E82300C865F65E91D8A1E8C310C0EEA1BF002731658846E
310
D98AC1B77784ABF1D8FE5FBFBF75BBCE937A534CCEB38643598122B6FEE978D0B0485F9C41B54DDD7D022595594E1A469170414C76A4D9A4D207E29CF43ECE46F218070CC6BECC4078ACAA135ACF422C856C0E68EA1BF5669944DDD7BCDE7B1F8E415D77AECB980613C2E4AC91FC167A2B244592486606FC29C8FD7F045B9A
310
EF7053A7E60B504B0304140006080800385831402E0FAFE8E80000007C01000008000000636F72652E786D6C8D90516EC3201044AF82F61F1B489AC61626B25BF704BD0002E2A0C46019A87AFC42E248ED5FBF7634CC6357C34FDFF30D7D993558EF3AA01501649CF2DABAA98314CFF808E824F8EA7DFC1503E4E46C3A2836
310
083EAD3E2D9BA5BC8BC6C5EC3AAFCD66CA104C04A46E597410D4C5CCB29229E644B8568B545739998A3E558653B21A3D96589DFFB3676B561023DDBD3336F6B87F3BF6783F341F450DF88535843674380EE381D705163CDAF9B95FAD4646A3413042192614D3D74F4A5B42DB7D83C9A12584D725FE074A8BFE2794AC8B3BB6
310
9DFBC002089A0FB93F085E972EF2B8179567E94DFC00504B03041400060808003858314055019EA25F0000007C00000007000000636E782E786D6C4DCB3B0E80201045D1AD90E915ED2CF8AC45050C11660C8261F98AB1B07AC9C97D42D718D865D3E909258CFD00CCE24AC6E326A164D74DC0B4128928FF326038472BA131
310
28B1252AC747C6BAB984FC68F0B87FE8960A5C09FE86CFB69FBA01504B0304140006080800385831407959D5D665010000020300000C0000006662782F636F72652E786D6C8D52ED8E8320107C15C27F056CAF571BA4A977BD27B817A04A3D52058360FAF8B77E345E2F4DD3982099D9D99D1DE5FB6B53A35EB94E5B936116
310
538C94296CA94D95E1E0CFD116A3BDE0CE5AFFA70C23231B95E101C68257CE8676860A6BBC321E50634B3583B2EB94C7A8A8E192E1AEF8518D8C65F050D15DE256161759A998C540439DE09D7760004D4386138BF3E9CAC9840B1E822E675697304D9FB572581CD9EA33498E87E8F0B13D44EB3CFD1A6E79F496A494A52CDF
310
E6C70D27835870AF9B9BBBC229E95589454259125116B1F76FC67694EDD66944373B4A3919CAEF44A12D5F14056DFC2A99ED4EB20E0B064646E2DFB61091479DECC10F119C0C21C26B4CF83E68080442F6F254DFF6B800D4ABC25BB706A6B461A17A59070553291A1F4E26163A8F0D60B3877D92277D9EF7800F284D05D6A4
310
87EB29F8613A9FA6CE51B4CA45BDBF22635D23EBC5DC64713997410FE585ADAD7B454DE655C91C2619FE5EF10B504B03041400060808003858314016FDF3A27E0000009D0000000B0000006662782F636E782E786D6C4DCCD10A83201886E15B91FFDC552E2B418DA4BA8F581692E9703A76F9ABD1C18E3E78F87879FBD92D
310
7AEBF032DE09286E3920ED1E7E366E1590E2821B40ADE4C1FBF87703E4A65D0B3819245F834FCF8B66BD4CC9C643AD71DB856C50635794151E94AA70592B8A5553F7B81B0965774272467BC824CF7EA563CFB0FC02504B030414000608080038583140EC1DE5DA2B01000014020000310000006662782F3945424641313436
310
2D454242362D343742352D423837442D4146323539333232303935442F636F72652E786D6C8D51DB8EC22014FC15C293FB400B58D11A8AB151BF607F000B7689161A2E1B3F7FE9B626BB6FBE70C89C99399373F8E1393CC0B7F6C138DB40526008B4ED9C32B66F608A37B483E020B8772EFEA14160E5A01B38C150F0DEBB34
310
2E50E76CD43666D43AA5175086A02304DD237F1A18BA2F3DC842A69819E15E8CB2BBCB5E17A4C8EDCC133C449F038079C8F442519FDBCB91540C9DDB96A16ADB6E50BBDB9ED0F14237F59A525C6F4EBC9C8582A764D422372AC73137A3FDBB269358F0688657FCCE6B19B5828262421126886C3F09D963B2AF6A84D91E635E
310
4EF47FA234AA3745C9D8B8A64BDC5916A020BC9C1B822B97AE8F5718FD1C9D8F609AB70ABAFB8002179812460866BC9CA97901D993558B6788CEE705AFEED7CC5E2FC6AC12BC9C6E94CBEF01739DEE297E00504B03041400060808003858314033DFAA6A5401000033030000300000006662782F39454246413134362D4542
310
42362D343742352D423837442D4146323539333232303935442F636E782E786D6CBD93CD6EC32010845F0571F70F89E5A61126520F7D821E7A25B04968305880ABE6EDBB2424CD25874A552FC89A1D66569F30DF7C8D967C4288C6BB81B2BAA5049CF2DAB8FD40E7B4AB56946C040FDEA73B1B254E8E30D02C53C1F7C1CF53
310
9134ECE46C13AAD6B8631103443F070511E57C9358AFA4C50070D58C228C5BD01A34B919F16B07015741717B22E900E4F5E59DF8ED07A814799353046F7287E0F92C4D77264A9495310E34AA038CB29673F21AE2B1D632C99AD5D7AE073BFD24917CE15A39074372F940F34945D9A8468EBCC1A1E03105A4574CE934011572
310
9AAC513221E4E66CBC78049F8D4B7D57BC06C107742F17FD6A8561E799E0C98C501C2A804CA0A958B46C51B5AC624F6F8CAD5BB6EE9EABB65FB72D6FB25DF0ADF7B65CC218087E22CABB042E51C17893C78FF0151FD126206B1F4EBF0089004AEB85CE2DE32FF9B07ED975FFC8A739BF6FC415F02F10DF504B030414000608
310
080038583140837EFD7B59070000931B0000340000006662782F39454246413134362D454242362D343742352D423837442D4146323539333232303935442F6F626A656374732E786D6CED595B6FA33814FE2B887D0E0949DA695794519BB4A368D599D16467B40F9190030EF5D618649B5EF6D7EFF1050234B464A7FB360F
310
0960ECE373BE73F521F8F89451E70173417276E1FADEC475308BF384B0F4C22DE56E74E63A1FC380E7B96C4C731D86327CE1AA61370C529E97851D4AF00E955476466FAEFE72448C19769D9822212E5C11DFE10C79A8947982C5BD972089BC74F7E4F99E99D8269B7254DC7588168863268153186740C5314CF9EDC7893B0E
310
83B17A1F06EADFCE9A0D9A35EF9F35D652B7B9244C48C4E2172C75C8CC06B134F3E7CBEBE9C9F9E8643E9F8DE6A7537F747573B51CF91F6693C5E962717E797D0EEC6DF39C5A99125C609680FE9EDDD00FC6EA4D2DBA45E010D771CE188E3590009516AB4B9060015B35E09BB41F7D2551E3B596B0F13C57EF2D0B8DE1599B
310
4ADFAC6140B4E8822076BB4AE2EADA942FDFFE0D828B2146C90596C0AD901CB46BE1E1E0156E3809C666340CB67B5D10E16448624E107528D972C4412930554D0903B3C09251CEC18194A324D09A33AFDBB6059EF9B6EB1CE2725752AA3CC30DB56345E07E580ACD19F907F33DF74D64802790B6244C9E592EE57381DDF03C
310
18EBC1305097D9D4BE34403A3B8A52A111316F3B822E94EBAF966EF8C7CDF669ADC2C1E1CD0B9E17984B65744A8F9A2F30647B5528D96DFD419A530B401803AA5DB907E51B20FF19A2C79E15D01B274FF3A7B99D2B39626297F30C74E34C9CD104FE268EAFFFD57DE32E18D78BDBDAEBC313DC544175F6F378B665D05859FE
310
1B7086C103187CCE67F6D53A4614ECF996300048198943731882D0BEDB3EB9E10A0227047A588568E883C8C0EE03DC06634B66AF95CABDACD73140D4EE311BA224804D5B24B0D1A3A74F903D3889F76A6A8AD807EFC9BB98EBE572FDC7BAE43B14E35BEBD34BBC238C48C89A87196A61DE92E81E3F3FE63C01415FE2BD6EE2
310
9DD9AD04A0AD3057C0A71508EA61BF736B8318D6A5B90A37C11B3B80102A5737E8DF1211634A11C37959ED5B473765A8B5C7DB9AC10DA706E2D9B463C21C3F10555580D3EC67B41885BC1F73522810DDF09391AC0E9A5E8F74DF579FC122EBF93DB3560C422F43F44F1DB40EE0D0B2EC0A690B442DF0761FCEE39CE63CDA3E
310
4726D2B9504B001B6D6FF9D1220AB1DE284951010FD27E578594D4481B2564B72B05C4D5032CFE582D9AE630F166FE89D3FCEF38E31CA22DF82EE2D6EF3A7B442443298E7628E9DBAEB95B4D5B68923DA439DE51908B3C10F91C21194D129C1E03CD51C4CFDF957A4A732108C302F2D541F09B684C3C0824469B15CB4AAB1D
310
A08988322C113D060145A6075C9D76748D1B43E9F0368FB5F5BEA6B126D1FFC92238825A32671181521472C89B8CFBDE09C49036BA06E50EBE606D156D2D062DA184889FA3474CD23B790CEA867C0FEE311C494A19E5058AC1AC07907DE12B4AA91DDEB728BE57F9238A4BFA5E062230DD4584D2328BE047189C3C86B8761D
310
985E45A141DCC43E893328CA902CF9904D4E4F262FF631354337043636DA110A613BCA50D1837A2B20EA7AC4A9C1B7D47B94BA2DB32242595EB24186E2CDBADE64C977D5AAC80EE457958A503656842DC130204CD659B58AD960EA3AB0821BE940F51C099415D49CC2DE483C7EED4D9A72EF06DCFAE9FB6E9041E1D7A3BD66
310
449D5730581E5B8581784432BE73C3B5BE8EAEA0FE4E70B24FF555ADD9AC00013115C94B4EAC8ABEAFA0BCB1359A1BDE2229369F4CD6ADAEDF571E743F8231AC81DAA55EB85240679849A42A935B7543BF2108C12D1A667CA572EA31542E9344578D88DE903E75B6CA88D6A619F18A3BCCF20C7E6C43584CCB046F5022EEA3
310
5B49A33551AC5B29BD8C5418BF2AE0974FEB0E3C303240A4AFAAC0C38F9DB57674A1CAA58344E45D996D192210045BA2A546375EC152AB914ACBF5559D29A0EE0203B32A9EFF3A5934DB11BF4E16A9358C9F3B59D07C8BE83EDA34B279ACCCFAA853409D9E1495F73805E8AE434DB54E2226975BF1AD2F451013AB203FB818
310
AB628621D8C7F17F4EDA7D49D06CD7E1FFB8A4EDBF28388E4A2AADC9AA4975A0705D3553D8D5CDECECFAC3F562E49F4CA7A3F97C7133BABA5E5C8FFCEBE5FCEAFA6C79333F5DD4686A3F0D833A96E9D405CF26A655C3EAC962004D59915392C0613E71520C215FC2917E40F79C675840EE6CF6BA13DB931FB0FAC1B43925DA
310
525C717287A03F4C056475C0A88C657BDCF90D3A9312CED9172EF48CBC7BF8B356E93A90782E5CE814481263E16DA1CBA4FA799A38645C9DFA2D31C007B1546544B3A87EAE57296C5AD1BF9E32240B58B95A2D0CA8DB0A687EB51A149A37CB537C94E0153B0E9270BB2D25146B4696FD402D8CDE66AF7E231B25ECDE6EFD04
310
AEFBBA58BEA7E7B41019F4C5E0552330544712F154B7BB156396A5CBE5D731B4D99CD517A7A0650ABA1C4E69C4311873A9EA29B022B00A4BB340124C75F1FBE62BCFE10B4FE6E8A268B3C8B32C67F6E1128E63097C2172D677F0BD27D940D58055575D6CA6137FBAD1DD6CDB608FB648604F9543305055114A848EB18145BE
310
E84CD9BEE55829A1337DB5746CF8842E80B1A017CD5DF375CB01EF51DF5194AF680FAFE47CB5A13DD653C11A38B4A2C37F01504B030414000608000038583140000000000000000000000000350000006662782F39454246413134362D454242362D343742352D423837442D4146323539333232303935442F766572746963
310
65732E62696E504B030414000608080038583140F270F1330600000004000000360000006662782F39454246413134362D454242362D343742352D423837442D4146323539333232303935442F747269616E676C65732E62696E636660600000504B0304140006080000385831400000000000000000000000003700000066
310
62782F39454246413134362D454242362D343742352D423837442D4146323539333232303935442F617474726962757465732E62696E504B030414000608080038583140D5987DFC8F00000041010000360000006662782F39454246413134362D454242362D343742352D423837442D4146323539333232303935442F6469
310
726563746F72792E786D6C858F410EC2201045AF4266AF15DDB800BA74E7C21B903225242D6328188F2FA5C4183471359997F9FF81E89FF3C41E1816475E02DF1F80A11FC8386F25A438EECEC07A250251FC3803E6F58C12560C4AD840E95E91C151A72936F496F35732D860FE635F62C8F2DA16B505C545B74125BAA2FA9E
310
05D7CC053D063734D5C7665FD55B6B8D15D5E9BFEAFD8490FFA45E504B03041400060808003858314093C6CC29FB000000A00100003B0000006662782F39454246413134362D454242362D343742352D423837442D4146323539333232303935442F7265736F75726365732F636F72652E786D6C8D504B6E833010BD0A9ABD
310
C126690AC8380A2D3D412F609909B5126CE44FD5E3D70E546A77DDCC8CDE47F3F4F8F96BB9179FE8BCB6A607565228D0283B6933F710C39534509C0577D6865F32288C5CB0870C83E0B3B371DD21654D4013126AEC843B28BDC70085BAA7A307AF3E7091A58C2129FCAD5CA5BAC9194B56263AE904F7C1A500C5F6244F100E
310
BD8D4EA1E7D5C60A1EA39E768D9ED24F7DD5E8408CECF05AD7634B2E2FCD851C87F62D5F0379AA5BCA5A3634C378E255360B1EF4F293513994012710356535A18CB0E777C63ACABA634BE8A9A3945759FEC714D7E99FA6A84D38D47BDCCDE641B014E441085EE5BED27A949976EE567C03504B010214000A00000800003858
310
31403DEE336E79000000790000001B00000000000000000000000000000000006175746F6465736B2D64657369676E2D7061636B6167652E786D6C504B0102140014000608080038583140D486FD9CA0000000F40000001300000000000000000000000000B20000005B436F6E74656E745F54797065735D2E786D6C504B01
310
021400140006080800385831402E0FAFE8E80000007C010000080000000000000000000000000083010000636F72652E786D6C504B010214001400060808003858314055019EA25F0000007C000000070000000000000000000000000091020000636E782E786D6C504B01021400140006080800385831407959D5D6650100
310
00020300000C00000000000000000000000000150300006662782F636F72652E786D6C504B010214001400060808003858314016FDF3A27E0000009D0000000B00000000000000000000000000A40400006662782F636E782E786D6C504B0102140014000608080038583140EC1DE5DA2B0100001402000031000000000000
310
000000000000004B0500006662782F39454246413134362D454242362D343742352D423837442D4146323539333232303935442F636F72652E786D6C504B010214001400060808003858314033DFAA6A54010000330300003000000000000000000000000000C50600006662782F39454246413134362D454242362D343742
310
352D423837442D4146323539333232303935442F636E782E786D6C504B0102140014000608080038583140837EFD7B59070000931B00003400000000000000000000000000670800006662782F39454246413134362D454242362D343742352D423837442D4146323539333232303935442F6F626A656374732E786D6C504B
310
01021400140006080000385831400000000000000000000000003500000000000000000000000000121000006662782F39454246413134362D454242362D343742352D423837442D4146323539333232303935442F76657274696365732E62696E504B0102140014000608080038583140F270F13306000000040000003600
310
000000000000000000000000651000006662782F39454246413134362D454242362D343742352D423837442D4146323539333232303935442F747269616E676C65732E62696E504B01021400140006080000385831400000000000000000000000003700000000000000000000000000BF1000006662782F39454246413134
310
362D454242362D343742352D423837442D4146323539333232303935442F617474726962757465732E62696E504B0102140014000608080038583140D5987DFC8F000000410100003600000000000000000000000000141100006662782F39454246413134362D454242362D343742352D423837442D414632353933323230
310
3935442F6469726563746F72792E786D6C504B010214001400060808003858314093C6CC29FB000000A00100003B00000000000000000000000000F71100006662782F39454246413134362D454242362D343742352D423837442D4146323539333232303935442F7265736F75726365732F636F72652E786D6C504B050600
310
0000000E000E00800400004B1300000000
  0
XRECORD
  5
27
102
{ACAD_REACTORS
330
22
102
}
330
22
100
AcDbXrecord
280
     1
270
     1
271
     1
  0
XRECORD
  5
26
102
{ACAD_REACTORS
330
22
102
}
330
22
100
AcDbXrecord
280
     1
270
     1
271
     1
  0
XRECORD
  5
28
102
{ACAD_REACTORS
330
22
102
}
330
22
100
AcDbXrecord
280
     1
270
     1
271
     1
  0
XRECORD
  5
25
102
{ACAD_REACTORS
330
22
102
}
330
22
100
AcDbXrecord
280
     1
270
     1
271
     1
  0
XRECORD
  5
BBE
102
{ACAD_REACTORS
330
BBD
102
}
330
BBD
100
AcDbXrecord
280
     1
102
ACAD_ROUNDTRIP_2012_MLEADER_STYLE
298
     1
  0
CELLSTYLEMAP
  5
BBC
102
{ACAD_REACTORS
330
BBB
102
}
330
BBB
100
AcDbCellStyleMap
 90
        3
300
CELLSTYLE
  1
TABLEFORMAT_BEGIN
 90
        5
170
     1
 91
        0
 92
    32768
 62
   257
 93
        1
300
CONTENTFORMAT
  1
CONTENTFORMAT_BEGIN
 90
        0
 91
        0
 92
      512
 93
        0
300

 40
0.0
140
1.0
 94
        5
 62
     0
340
55
144
0.25
309
CONTENTFORMAT_END
171
     0
 94
        0
309
TABLEFORMAT_END
  1
CELLSTYLE_BEGIN
 90
        1
 91
        1
300
_TITLE
309
CELLSTYLE_END
300
CELLSTYLE
  1
TABLEFORMAT_BEGIN
 90
        5
170
     1
 91
        0
 92
        0
 62
   257
 93
        1
300
CONTENTFORMAT
  1
CONTENTFORMAT_BEGIN
 90
        0
 91
        0
 92
      512
 93
        0
300

 40
0.0
140
1.0
 94
        5
 62
     0
340
55
144
0.18
309
CONTENTFORMAT_END
171
     0
 94
        0
309
TABLEFORMAT_END
  1
CELLSTYLE_BEGIN
 90
        2
 91
        1
300
_HEADER
309
CELLSTYLE_END
300
CELLSTYLE
  1
TABLEFORMAT_BEGIN
 90
        5
170
     1
 91
        0
 92
        0
 62
   257
 93
        1
300
CONTENTFORMAT
  1
CONTENTFORMAT_BEGIN
 90
        0
 91
        0
 92
      512
 93
        0
300

 40
0.0
140
1.0
 94
        2
 62
     0
340
55
144
0.18
309
CONTENTFORMAT_END
171
     0
 94
        0
309
TABLEFORMAT_END
  1
CELLSTYLE_BEGIN
 90
        3
 91
        2
300
_DATA
309
CELLSTYLE_END
  0
XRECORD
  5
BF5
102
{ACAD_REACTORS
330
BBB
102
}
330
BBB
100
AcDbXrecord
280
     1
102
ACAD_ROUNDTRIP_PRE2007_TABLESTYLE
 90
      512
 91
        0
  1

 92
      512
 93
        0
  2

 94
      512
 95
        0
  3

  0
XRECORD
  5
BD0
102
{ACAD_REACTORS
330
BCF
102
}
330
BCF
100
AcDbXrecord
280
     1
102
RTVSPropertyOp0
 70
     1
102
RTVSPropertyOp1
 70
     1
102
RTVSPropertyOp2
 70
     1
102
RTVSPropertyOp3
 70
     1
102
RTVSPropertyOp4
 70
     1
102
RTVSPropertyOp5
 70
     1
102
RTVSPropertyOp6
 70
     1
102
RTVSPropertyOp7
 70
     1
102
RTVSPropertyOp8
 70
     1
102
RTVSPropertyOp9
 70
     1
102
RTVSPropertyOp10
 70
     1
102
RTVSPropertyOp11
 70
     1
102
RTVSPropertyOp12
 70
     1
102
RTVSPropertyOp13
 70
     1
102
RTVSPropertyOp14
 70
     1
102
RTVSPropertyOp15
 70
     1
102
RTVSPropertyOp16
 70
     1
102
RTVSPropertyOp17
 70
     1
102
RTVSPropertyOp18
 70
     1
102
RTVSPropertyOp19
 70
     1
102
RTVSPropertyOp20
 70
     1
102
RTVSPropertyOp21
 70
     1
102
RTVSPropertyOp22
 70
     1
102
RTVSPropertyOp23
 70
     1
102
RTVSPropertyOp24
 70
     1
102
RTVSPropertyOp25
 70
     1
102
RTVSPropertyOp26
 70
     1
102
RTVSPropertyOp27
 70
     1
102
RTVSPropertyOp28
 70
     1
102
RTVSPropertyOp29
 70
     1
102
RTVSPropertyOp30
 70
     1
102
RTVSPropertyOp31
 70
     1
102
RTVSPropertyOp32
 70
     1
  0
XRECORD
  5
BCE
102
{ACAD_REACTORS
330
BCD
102
}
330
BCD
100
AcDbXrecord
280
     1
102
RTVSPropertyOp0
 70
     1
102
RTVSPropertyOp1
 70
     1
102
RTVSPropertyOp2
 70
     1
102
RTVSPropertyOp3
 70
     1
102
RTVSPropertyOp4
 70
     1
102
RTVSPropertyOp5
 70
     1
102
RTVSPropertyOp6
 70
     1
102
RTVSPropertyOp7
 70
     1
102
RTVSPropertyOp8
 70
     1
102
RTVSPropertyOp9
 70
     1
102
RTVSPropertyOp10
 70
     1
102
RTVSPropertyOp11
 70
     1
102
RTVSPropertyOp12
 70
     1
102
RTVSPropertyOp13
 70
     1
102
RTVSPropertyOp14
 70
     1
102
RTVSPropertyOp15
 70
     1
102
RTVSPropertyOp16
 70
     1
102
RTVSPropertyOp17
 70
     1
102
RTVSPropertyOp18
 70
     1
102
RTVSPropertyOp19
 70
     1
102
RTVSPropertyOp20
 70
     1
102
RTVSPropertyOp21
 70
     1
102
RTVSPropertyOp22
 70
     1
102
RTVSPropertyOp23
 70
     1
102
RTVSPropertyOp24
 70
     1
102
RTVSPropertyOp25
 70
     1
102
RTVSPropertyOp26
 70
     1
102
RTVSPropertyOp27
 70
     1
102
RTVSPropertyOp28
 70
     1
102
RTVSPropertyOp29
 70
     1
102
RTVSPropertyOp30
 70
     1
102
RTVSPropertyOp31
 70
     1
102
RTVSPropertyOp32
 70
     1
  0
XRECORD
  5
BDC
102
{ACAD_REACTORS
330
BDB
102
}
330
BDB
100
AcDbXrecord
280
     1
102
RTVSPropertyOp0
 70
     1
102
RTVSPropertyOp1
 70
     1
102
RTVSPropertyOp2
 70
     1
102
RTVSPropertyOp3
 70
     1
102
RTVSPropertyOp4
 70
     1
102
RTVSPropertyOp5
 70
     1
102
RTVSPropertyOp6
 70
     1
102
RTVSPropertyOp7
 70
     1
102
RTVSPropertyOp8
 70
     1
102
RTVSPropertyOp9
 70
     1
102
RTVSPropertyOp10
 70
     1
102
RTVSPropertyOp11
 70
     1
102
RTVSPropertyOp12
 70
     1
102
RTVSPropertyOp13
 70
     1
102
RTVSPropertyOp14
 70
     1
102
RTVSPropertyOp15
 70
     1
102
RTVSPropertyOp16
 70
     1
102
RTVSPropertyOp17
 70
     1
102
RTVSPropertyOp18
 70
     1
102
RTVSPropertyOp19
 70
     1
102
RTVSPropertyOp20
 70
     1
102
RTVSPropertyOp21
 70
     1
102
RTVSPropertyOp22
 70
     1
102
RTVSPropertyOp23
 70
     1
102
RTVSPropertyOp24
 70
     1
102
RTVSPropertyOp25
 70
     1
102
RTVSPropertyOp26
 70
     1
102
RTVSPropertyOp27
 70
     1
102
RTVSPropertyOp28
 70
     1
102
RTVSPropertyOp29
 70
     1
102
RTVSPropertyOp30
 70
     1
102
RTVSPropertyOp31
 70
     1
102
RTVSPropertyOp32
 70
     1
  0
XRECORD
  5
BE4
102
{ACAD_REACTORS
330
BE3
102
}
330
BE3
100
AcDbXrecord
280
     1
102
RTVSPropertyOp0
 70
     1
102
RTVSPropertyOp1
 70
     1
102
RTVSPropertyOp2
 70
     1
102
RTVSPropertyOp3
 70
     1
102
RTVSPropertyOp4
 70
     1
102
RTVSPropertyOp5
 70
     1
102
RTVSPropertyOp6
 70
     1
102
RTVSPropertyOp7
 70
     1
102
RTVSPropertyOp8
 70
     1
102
RTVSPropertyOp9
 70
     1
102
RTVSPropertyOp10
 70
     1
102
RTVSPropertyOp11
 70
     1
102
RTVSPropertyOp12
 70
     1
102
RTVSPropertyOp13
 70
     1
102
RTVSPropertyOp14
 70
     1
102
RTVSPropertyOp15
 70
     1
102
RTVSPropertyOp16
 70
     1
102
RTVSPropertyOp17
 70
     1
102
RTVSPropertyOp18
 70
     1
102
RTVSPropertyOp19
 70
     1
102
RTVSPropertyOp20
 70
     1
102
RTVSPropertyOp21
 70
     1
102
RTVSPropertyOp22
 70
     1
102
RTVSPropertyOp23
 70
     1
102
RTVSPropertyOp24
 70
     1
102
RTVSPropertyOp25
 70
     1
102
RTVSPropertyOp26
 70
     1
102
RTVSPropertyOp27
 70
     1
102
RTVSPropertyOp28
 70
     1
102
RTVSPropertyOp29
 70
     1
102
RTVSPropertyOp30
 70
     1
102
RTVSPropertyOp31
 70
     1
102
RTVSPropertyOp32
 70
     1
  0
XRECORD
  5
BD6
102
{ACAD_REACTORS
330
BD5
102
}
330
BD5
100
AcDbXrecord
280
     1
102
RTVSPropertyOp0
 70
     1
102
RTVSPropertyOp1
 70
     1
102
RTVSPropertyOp2
 70
     1
102
RTVSPropertyOp3
 70
     1
102
RTVSPropertyOp4
 70
     1
102
RTVSPropertyOp5
 70
     1
102
RTVSPropertyOp6
 70
     1
102
RTVSPropertyOp7
 70
     1
102
RTVSPropertyOp8
 70
     1
102
RTVSPropertyOp9
 70
     1
102
RTVSPropertyOp10
 70
     1
102
RTVSPropertyOp11
 70
     1
102
RTVSPropertyOp12
 70
     1
102
RTVSPropertyOp13
 70
     1
102
RTVSPropertyOp14
 70
     1
102
RTVSPropertyOp15
 70
     1
102
RTVSPropertyOp16
 70
     1
102
RTVSPropertyOp17
 70
     1
102
RTVSPropertyOp18
 70
     1
102
RTVSPropertyOp19
 70
     1
102
RTVSPropertyOp20
 70
     1
102
RTVSPropertyOp21
 70
     1
102
RTVSPropertyOp22
 70
     1
102
RTVSPropertyOp23
 70
     1
102
RTVSPropertyOp24
 70
     1
102
RTVSPropertyOp25
 70
     1
102
RTVSPropertyOp26
 70
     1
102
RTVSPropertyOp27
 70
     1
102
RTVSPropertyOp28
 70
     1
102
RTVSPropertyOp29
 70
     1
102
RTVSPropertyOp30
 70
     1
102
RTVSPropertyOp31
 70
     1
102
RTVSPropertyOp32
 70
     1
  0
XRECORD
  5
BDA
102
{ACAD_REACTORS
330
BD9
102
}
330
BD9
100
AcDbXrecord
280
     1
102
RTVSPropertyOp0
 70
     1
102
RTVSPropertyOp1
 70
     1
102
RTVSPropertyOp2
 70
     1
102
RTVSPropertyOp3
 70
     1
102
RTVSPropertyOp4
 70
     1
102
RTVSPropertyOp5
 70
     1
102
RTVSPropertyOp6
 70
     1
102
RTVSPropertyOp7
 70
     1
102
RTVSPropertyOp8
 70
     1
102
RTVSPropertyOp9
 70
     1
102
RTVSPropertyOp10
 70
     1
102
RTVSPropertyOp11
 70
     1
102
RTVSPropertyOp12
 70
     1
102
RTVSPropertyOp13
 70
     1
102
RTVSPropertyOp14
 70
     1
102
RTVSPropertyOp15
 70
     1
102
RTVSPropertyOp16
 70
     1
102
RTVSPropertyOp17
 70
     1
102
RTVSPropertyOp18
 70
     1
102
RTVSPropertyOp19
 70
     1
102
RTVSPropertyOp20
 70
     1
102
RTVSPropertyOp21
 70
     1
102
RTVSPropertyOp22
 70
     1
102
RTVSPropertyOp23
 70
     1
102
RTVSPropertyOp24
 70
     1
102
RTVSPropertyOp25
 70
     1
102
RTVSPropertyOp26
 70
     1
102
RTVSPropertyOp27
 70
     1
102
RTVSPropertyOp28
 70
     1
102
RTVSPropertyOp29
 70
     1
102
RTVSPropertyOp30
 70
     1
102
RTVSPropertyOp31
 70
     1
102
RTVSPropertyOp32
 70
     1
  0
XRECORD
  5
BF4
102
{ACAD_REACTORS
330
BF3
102
}
330
BF3
100
AcDbXrecord
280
     1
102
RTVSPropertyOp0
 70
     0
102
RTVSPropertyOp1
 70
     0
102
RTVSPropertyOp2
 70
     0
102
RTVSPropertyOp3
 70
     0
102
RTVSPropertyOp4
 70
     0
102
RTVSPropertyOp5
 70
     0
102
RTVSPropertyOp6
 70
     0
102
RTVSPropertyOp7
 70
     0
102
RTVSPropertyOp8
 70
     0
102
RTVSPropertyOp9
 70
     0
102
RTVSPropertyOp10
 70
     0
102
RTVSPropertyOp11
 70
     0
102
RTVSPropertyOp12
 70
     0
102
RTVSPropertyOp13
 70
     0
102
RTVSPropertyOp14
 70
     2
102
RTVSPropertyOp15
 70
     0
102
RTVSPropertyOp16
 70
     0
102
RTVSPropertyOp17
 70
     0
102
RTVSPropertyOp18
 70
     0
102
RTVSPropertyOp19
 70
     0
102
RTVSPropertyOp20
 70
     0
102
RTVSPropertyOp21
 70
     0
102
RTVSPropertyOp22
 70
     0
102
RTVSPropertyOp23
 70
     0
102
RTVSPropertyOp24
 70
     0
102
RTVSPropertyOp25
 70
     0
102
RTVSPropertyOp26
 70
     0
102
RTVSPropertyOp27
 70
     0
102
RTVSPropertyOp28
 70
     1
102
RTVSPropertyOp29
 70
     1
102
RTVSPropertyOp30
 70
     1
102
RTVSPropertyOp31
 70
     1
102
RTVSPropertyOp32
 70
     1
  0
XRECORD
  5
BE2
102
{ACAD_REACTORS
330
BE1
102
}
330
BE1
100
AcDbXrecord
280
     1
102
RTVSPropertyOp0
 70
     1
102
RTVSPropertyOp1
 70
     1
102
RTVSPropertyOp2
 70
     1
102
RTVSPropertyOp3
 70
     1
102
RTVSPropertyOp4
 70
     1
102
RTVSPropertyOp5
 70
     1
102
RTVSPropertyOp6
 70
     1
102
RTVSPropertyOp7
 70
     1
102
RTVSPropertyOp8
 70
     1
102
RTVSPropertyOp9
 70
     1
102
RTVSPropertyOp10
 70
     1
102
RTVSPropertyOp11
 70
     1
102
RTVSPropertyOp12
 70
     1
102
RTVSPropertyOp13
 70
     1
102
RTVSPropertyOp14
 70
     1
102
RTVSPropertyOp15
 70
     1
102
RTVSPropertyOp16
 70
     1
102
RTVSPropertyOp17
 70
     1
102
RTVSPropertyOp18
 70
     1
102
RTVSPropertyOp19
 70
     1
102
RTVSPropertyOp20
 70
     1
102
RTVSPropertyOp21
 70
     1
102
RTVSPropertyOp22
 70
     1
102
RTVSPropertyOp23
 70
     1
102
RTVSPropertyOp24
 70
     1
102
RTVSPropertyOp25
 70
     1
102
RTVSPropertyOp26
 70
     1
102
RTVSPropertyOp27
 70
     1
102
RTVSPropertyOp28
 70
     1
102
RTVSPropertyOp29
 70
     1
102
RTVSPropertyOp30
 70
     1
102
RTVSPropertyOp31
 70
     1
102
RTVSPropertyOp32
 70
     1
  0
XRECORD
  5
BC6
102
{ACAD_REACTORS
330
BC5
102
}
330
BC5
100
AcDbXrecord
280
     1
102
RTVSPropertyOp0
 70
     1
102
RTVSPropertyOp1
 70
     1
102
RTVSPropertyOp2
 70
     1
102
RTVSPropertyOp3
 70
     1
102
RTVSPropertyOp4
 70
     1
102
RTVSPropertyOp5
 70
     1
102
RTVSPropertyOp6
 70
     1
102
RTVSPropertyOp7
 70
     1
102
RTVSPropertyOp8
 70
     1
102
RTVSPropertyOp9
 70
     1
102
RTVSPropertyOp10
 70
     1
102
RTVSPropertyOp11
 70
     1
102
RTVSPropertyOp12
 70
     1
102
RTVSPropertyOp13
 70
     1
102
RTVSPropertyOp14
 70
     1
102
RTVSPropertyOp15
 70
     1
102
RTVSPropertyOp16
 70
     1
102
RTVSPropertyOp17
 70
     1
102
RTVSPropertyOp18
 70
     1
102
RTVSPropertyOp19
 70
     1
102
RTVSPropertyOp20
 70
     1
102
RTVSPropertyOp21
 70
     1
102
RTVSPropertyOp22
 70
     1
102
RTVSPropertyOp23
 70
     1
102
RTVSPropertyOp24
 70
     1
102
RTVSPropertyOp25
 70
     1
102
RTVSPropertyOp26
 70
     1
102
RTVSPropertyOp27
 70
     1
102
RTVSPropertyOp28
 70
     1
102
RTVSPropertyOp29
 70
     1
102
RTVSPropertyOp30
 70
     1
102
RTVSPropertyOp31
 70
     1
102
RTVSPropertyOp32
 70
     1
  0
XRECORD
  5
BC8
102
{ACAD_REACTORS
330
BC7
102
}
330
BC7
100
AcDbXrecord
280
     1
102
RTVSPropertyOp0
 70
     1
102
RTVSPropertyOp1
 70
     1
102
RTVSPropertyOp2
 70
     1
102
RTVSPropertyOp3
 70
     1
102
RTVSPropertyOp4
 70
     1
102
RTVSPropertyOp5
 70
     1
102
RTVSPropertyOp6
 70
     1
102
RTVSPropertyOp7
 70
     1
102
RTVSPropertyOp8
 70
     1
102
RTVSPropertyOp9
 70
     1
102
RTVSPropertyOp10
 70
     1
102
RTVSPropertyOp11
 70
     1
102
RTVSPropertyOp12
 70
     1
102
RTVSPropertyOp13
 70
     1
102
RTVSPropertyOp14
 70
     1
102
RTVSPropertyOp15
 70
     1
102
RTVSPropertyOp16
 70
     1
102
RTVSPropertyOp17
 70
     1
102
RTVSPropertyOp18
 70
     1
102
RTVSPropertyOp19
 70
     1
102
RTVSPropertyOp20
 70
     1
102
RTVSPropertyOp21
 70
     1
102
RTVSPropertyOp22
 70
     1
102
RTVSPropertyOp23
 70
     1
102
RTVSPropertyOp24
 70
     1
102
RTVSPropertyOp25
 70
     1
102
RTVSPropertyOp26
 70
     1
102
RTVSPropertyOp27
 70
     1
102
RTVSPropertyOp28
 70
     1
102
RTVSPropertyOp29
 70
     1
102
RTVSPropertyOp30
 70
     1
102
RTVSPropertyOp31
 70
     1
102
RTVSPropertyOp32
 70
     1
  0
XRECORD
  5
BCA
102
{ACAD_REACTORS
330
BC9
102
}
330
BC9
100
AcDbXrecord
280
     1
102
RTVSPropertyOp0
 70
     1
102
RTVSPropertyOp1
 70
     1
102
RTVSPropertyOp2
 70
     1
102
RTVSPropertyOp3
 70
     1
102
RTVSPropertyOp4
 70
     1
102
RTVSPropertyOp5
 70
     1
102
RTVSPropertyOp6
 70
     1
102
RTVSPropertyOp7
 70
     1
102
RTVSPropertyOp8
 70
     1
102
RTVSPropertyOp9
 70
     1
102
RTVSPropertyOp10
 70
     1
102
RTVSPropertyOp11
 70
     1
102
RTVSPropertyOp12
 70
     1
102
RTVSPropertyOp13
 70
     1
102
RTVSPropertyOp14
 70
     1
102
RTVSPropertyOp15
 70
     1
102
RTVSPropertyOp16
 70
     1
102
RTVSPropertyOp17
 70
     1
102
RTVSPropertyOp18
 70
     1
102
RTVSPropertyOp19
 70
     1
102
RTVSPropertyOp20
 70
     1
102
RTVSPropertyOp21
 70
     1
102
RTVSPropertyOp22
 70
     1
102
RTVSPropertyOp23
 70
     1
102
RTVSPropertyOp24
 70
     1
102
RTVSPropertyOp25
 70
     1
102
RTVSPropertyOp26
 70
     1
102
RTVSPropertyOp27
 70
     1
102
RTVSPropertyOp28
 70
     1
102
RTVSPropertyOp29
 70
     1
102
RTVSPropertyOp30
 70
     1
102
RTVSPropertyOp31
 70
     1
102
RTVSPropertyOp32
 70
     1
  0
XRECORD
  5
BCC
102
{ACAD_REACTORS
330
BCB
102
}
330
BCB
100
AcDbXrecord
280
     1
102
RTVSPropertyOp0
 70
     1
102
RTVSPropertyOp1
 70
     1
102
RTVSPropertyOp2
 70
     1
102
RTVSPropertyOp3
 70
     1
102
RTVSPropertyOp4
 70
     1
102
RTVSPropertyOp5
 70
     1
102
RTVSPropertyOp6
 70
     1
102
RTVSPropertyOp7
 70
     1
102
RTVSPropertyOp8
 70
     1
102
RTVSPropertyOp9
 70
     1
102
RTVSPropertyOp10
 70
     1
102
RTVSPropertyOp11
 70
     1
102
RTVSPropertyOp12
 70
     1
102
RTVSPropertyOp13
 70
     1
102
RTVSPropertyOp14
 70
     1
102
RTVSPropertyOp15
 70
     1
102
RTVSPropertyOp16
 70
     1
102
RTVSPropertyOp17
 70
     1
102
RTVSPropertyOp18
 70
     1
102
RTVSPropertyOp19
 70
     1
102
RTVSPropertyOp20
 70
     1
102
RTVSPropertyOp21
 70
     1
102
RTVSPropertyOp22
 70
     1
102
RTVSPropertyOp23
 70
     1
102
RTVSPropertyOp24
 70
     1
102
RTVSPropertyOp25
 70
     1
102
RTVSPropertyOp26
 70
     1
102
RTVSPropertyOp27
 70
     1
102
RTVSPropertyOp28
 70
     1
102
RTVSPropertyOp29
 70
     1
102
RTVSPropertyOp30
 70
     1
102
RTVSPropertyOp31
 70
     1
102
RTVSPropertyOp32
 70
     1
  0
XRECORD
  5
BD4
102
{ACAD_REACTORS
330
BD3
102
}
330
BD3
100
AcDbXrecord
280
     1
102
RTVSPropertyOp0
 70
     1
102
RTVSPropertyOp1
 70
     1
102
RTVSPropertyOp2
 70
     1
102
RTVSPropertyOp3
 70
     1
102
RTVSPropertyOp4
 70
     1
102
RTVSPropertyOp5
 70
     1
102
RTVSPropertyOp6
 70
     1
102
RTVSPropertyOp7
 70
     1
102
RTVSPropertyOp8
 70
     1
102
RTVSPropertyOp9
 70
     1
102
RTVSPropertyOp10
 70
     1
102
RTVSPropertyOp11
 70
     1
102
RTVSPropertyOp12
 70
     1
102
RTVSPropertyOp13
 70
     1
102
RTVSPropertyOp14
 70
     1
102
RTVSPropertyOp15
 70
     1
102
RTVSPropertyOp16
 70
     1
102
RTVSPropertyOp17
 70
     1
102
RTVSPropertyOp18
 70
     1
102
RTVSPropertyOp19
 70
     1
102
RTVSPropertyOp20
 70
     1
102
RTVSPropertyOp21
 70
     1
102
RTVSPropertyOp22
 70
     1
102
RTVSPropertyOp23
 70
     1
102
RTVSPropertyOp24
 70
     1
102
RTVSPropertyOp25
 70
     1
102
RTVSPropertyOp26
 70
     1
102
RTVSPropertyOp27
 70
     1
102
RTVSPropertyOp28
 70
     1
102
RTVSPropertyOp29
 70
     1
102
RTVSPropertyOp30
 70
     1
102
RTVSPropertyOp31
 70
     1
102
RTVSPropertyOp32
 70
     1
  0
XRECORD
  5
BF0
102
{ACAD_REACTORS
330
BEF
102
}
330
BEF
100
AcDbXrecord
280
     1
102
RTVSPropertyOp0
 70
     0
102
RTVSPropertyOp1
 70
     0
102
RTVSPropertyOp2
 70
     0
102
RTVSPropertyOp3
 70
     0
102
RTVSPropertyOp4
 70
     0
102
RTVSPropertyOp5
 70
     0
102
RTVSPropertyOp6
 70
     0
102
RTVSPropertyOp7
 70
     0
102
RTVSPropertyOp8
 70
     0
102
RTVSPropertyOp9
 70
     0
102
RTVSPropertyOp10
 70
     0
102
RTVSPropertyOp11
 70
     0
102
RTVSPropertyOp12
 70
     0
102
RTVSPropertyOp13
 70
     0
102
RTVSPropertyOp14
 70
     2
102
RTVSPropertyOp15
 70
     0
102
RTVSPropertyOp16
 70
     0
102
RTVSPropertyOp17
 70
     0
102
RTVSPropertyOp18
 70
     0
102
RTVSPropertyOp19
 70
     0
102
RTVSPropertyOp20
 70
     0
102
RTVSPropertyOp21
 70
     0
102
RTVSPropertyOp22
 70
     0
102
RTVSPropertyOp23
 70
     0
102
RTVSPropertyOp24
 70
     0
102
RTVSPropertyOp25
 70
     0
102
RTVSPropertyOp26
 70
     0
102
RTVSPropertyOp27
 70
     0
102
RTVSPropertyOp28
 70
     1
102
RTVSPropertyOp29
 70
     1
102
RTVSPropertyOp30
 70
     1
102
RTVSPropertyOp31
 70
     1
102
RTVSPropertyOp32
 70
     1
  0
XRECORD
  5
BE0
102
{ACAD_REACTORS
330
BDF
102
}
330
BDF
100
AcDbXrecord
280
     1
102
RTVSPropertyOp0
 70
     1
102
RTVSPropertyOp1
 70
     1
102
RTVSPropertyOp2
 70
     1
102
RTVSPropertyOp3
 70
     1
102
RTVSPropertyOp4
 70
     1
102
RTVSPropertyOp5
 70
     1
102
RTVSPropertyOp6
 70
     1
102
RTVSPropertyOp7
 70
     1
102
RTVSPropertyOp8
 70
     1
102
RTVSPropertyOp9
 70
     1
102
RTVSPropertyOp10
 70
     1
102
RTVSPropertyOp11
 70
     1
102
RTVSPropertyOp12
 70
     1
102
RTVSPropertyOp13
 70
     1
102
RTVSPropertyOp14
 70
     1
102
RTVSPropertyOp15
 70
     1
102
RTVSPropertyOp16
 70
     1
102
RTVSPropertyOp17
 70
     1
102
RTVSPropertyOp18
 70
     1
102
RTVSPropertyOp19
 70
     1
102
RTVSPropertyOp20
 70
     1
102
RTVSPropertyOp21
 70
     1
102
RTVSPropertyOp22
 70
     1
102
RTVSPropertyOp23
 70
     1
102
RTVSPropertyOp24
 70
     1
102
RTVSPropertyOp25
 70
     1
102
RTVSPropertyOp26
 70
     1
102
RTVSPropertyOp27
 70
     1
102
RTVSPropertyOp28
 70
     1
102
RTVSPropertyOp29
 70
     1
102
RTVSPropertyOp30
 70
     1
102
RTVSPropertyOp31
 70
     1
102
RTVSPropertyOp32
 70
     1
  0
XRECORD
  5
BF2
102
{ACAD_REACTORS
330
BF1
102
}
330
BF1
100
AcDbXrecord
280
     1
102
RTVSPropertyOp0
 70
     0
102
RTVSPropertyOp1
 70
     0
102
RTVSPropertyOp2
 70
     0
102
RTVSPropertyOp3
 70
     0
102
RTVSPropertyOp4
 70
     0
102
RTVSPropertyOp5
 70
     0
102
RTVSPropertyOp6
 70
     0
102
RTVSPropertyOp7
 70
     0
102
RTVSPropertyOp8
 70
     0
102
RTVSPropertyOp9
 70
     0
102
RTVSPropertyOp10
 70
     0
102
RTVSPropertyOp11
 70
     0
102
RTVSPropertyOp12
 70
     0
102
RTVSPropertyOp13
 70
     0
102
RTVSPropertyOp14
 70
     2
102
RTVSPropertyOp15
 70
     0
102
RTVSPropertyOp16
 70
     0
102
RTVSPropertyOp17
 70
     0
102
RTVSPropertyOp18
 70
     0
102
RTVSPropertyOp19
 70
     0
102
RTVSPropertyOp20
 70
     0
102
RTVSPropertyOp21
 70
     0
102
RTVSPropertyOp22
 70
     0
102
RTVSPropertyOp23
 70
     0
102
RTVSPropertyOp24
 70
     0
102
RTVSPropertyOp25
 70
     0
102
RTVSPropertyOp26
 70
     0
102
RTVSPropertyOp27
 70
     0
102
RTVSPropertyOp28
 70
     1
102
RTVSPropertyOp29
 70
     1
102
RTVSPropertyOp30
 70
     1
102
RTVSPropertyOp31
 70
     1
102
RTVSPropertyOp32
 70
     1
  0
XRECORD
  5
BD8
102
{ACAD_REACTORS
330
BD7
102
}
330
BD7
100
AcDbXrecord
280
     1
102
RTVSPropertyOp0
 70
     1
102
RTVSPropertyOp1
 70
     1
102
RTVSPropertyOp2
 70
     1
102
RTVSPropertyOp3
 70
     1
102
RTVSPropertyOp4
 70
     1
102
RTVSPropertyOp5
 70
     1
102
RTVSPropertyOp6
 70
     1
102
RTVSPropertyOp7
 70
     1
102
RTVSPropertyOp8
 70
     1
102
RTVSPropertyOp9
 70
     1
102
RTVSPropertyOp10
 70
     1
102
RTVSPropertyOp11
 70
     1
102
RTVSPropertyOp12
 70
     1
102
RTVSPropertyOp13
 70
     1
102
RTVSPropertyOp14
 70
     1
102
RTVSPropertyOp15
 70
     1
102
RTVSPropertyOp16
 70
     1
102
RTVSPropertyOp17
 70
     1
102
RTVSPropertyOp18
 70
     1
102
RTVSPropertyOp19
 70
     1
102
RTVSPropertyOp20
 70
     1
102
RTVSPropertyOp21
 70
     1
102
RTVSPropertyOp22
 70
     1
102
RTVSPropertyOp23
 70
     1
102
RTVSPropertyOp24
 70
     1
102
RTVSPropertyOp25
 70
     1
102
RTVSPropertyOp26
 70
     1
102
RTVSPropertyOp27
 70
     1
102
RTVSPropertyOp28
 70
     1
102
RTVSPropertyOp29
 70
     1
102
RTVSPropertyOp30
 70
     1
102
RTVSPropertyOp31
 70
     1
102
RTVSPropertyOp32
 70
     1
  0
XRECORD
  5
BEE
102
{ACAD_REACTORS
330
BED
102
}
330
BED
100
AcDbXrecord
280
     1
102
RTVSPropertyOp0
 70
     1
102
RTVSPropertyOp1
 70
     1
102
RTVSPropertyOp2
 70
     1
102
RTVSPropertyOp3
 70
     1
102
RTVSPropertyOp4
 70
     1
102
RTVSPropertyOp5
 70
     1
102
RTVSPropertyOp6
 70
     1
102
RTVSPropertyOp7
 70
     1
102
RTVSPropertyOp8
 70
     1
102
RTVSPropertyOp9
 70
     1
102
RTVSPropertyOp10
 70
     1
102
RTVSPropertyOp11
 70
     1
102
RTVSPropertyOp12
 70
     1
102
RTVSPropertyOp13
 70
     1
102
RTVSPropertyOp14
 70
     1
102
RTVSPropertyOp15
 70
     1
102
RTVSPropertyOp16
 70
     1
102
RTVSPropertyOp17
 70
     1
102
RTVSPropertyOp18
 70
     1
102
RTVSPropertyOp19
 70
     1
102
RTVSPropertyOp20
 70
     1
102
RTVSPropertyOp21
 70
     1
102
RTVSPropertyOp22
 70
     1
102
RTVSPropertyOp23
 70
     1
102
RTVSPropertyOp24
 70
     1
102
RTVSPropertyOp25
 70
     1
102
RTVSPropertyOp26
 70
     1
102
RTVSPropertyOp27
 70
     1
102
RTVSPropertyOp28
 70
     1
102
RTVSPropertyOp29
 70
     1
102
RTVSPropertyOp30
 70
     1
102
RTVSPropertyOp31
 70
     1
102
RTVSPropertyOp32
 70
     1
  0
XRECORD
  5
BEC
102
{ACAD_REACTORS
330
BEB
102
}
330
BEB
100
AcDbXrecord
280
     1
102
RTVSPropertyOp0
 70
     1
102
RTVSPropertyOp1
 70
     1
102
RTVSPropertyOp2
 70
     1
102
RTVSPropertyOp3
 70
     1
102
RTVSPropertyOp4
 70
     1
102
RTVSPropertyOp5
 70
     1
102
RTVSPropertyOp6
 70
     1
102
RTVSPropertyOp7
 70
     1
102
RTVSPropertyOp8
 70
     1
102
RTVSPropertyOp9
 70
     1
102
RTVSPropertyOp10
 70
     1
102
RTVSPropertyOp11
 70
     1
102
RTVSPropertyOp12
 70
     1
102
RTVSPropertyOp13
 70
     1
102
RTVSPropertyOp14
 70
     1
102
RTVSPropertyOp15
 70
     1
102
RTVSPropertyOp16
 70
     1
102
RTVSPropertyOp17
 70
     1
102
RTVSPropertyOp18
 70
     1
102
RTVSPropertyOp19
 70
     1
102
RTVSPropertyOp20
 70
     1
102
RTVSPropertyOp21
 70
     1
102
RTVSPropertyOp22
 70
     1
102
RTVSPropertyOp23
 70
     1
102
RTVSPropertyOp24
 70
     1
102
RTVSPropertyOp25
 70
     1
102
RTVSPropertyOp26
 70
     1
102
RTVSPropertyOp27
 70
     1
102
RTVSPropertyOp28
 70
     1
102
RTVSPropertyOp29
 70
     1
102
RTVSPropertyOp30
 70
     1
102
RTVSPropertyOp31
 70
     1
102
RTVSPropertyOp32
 70
     1
  0
XRECORD
  5
BE6
102
{ACAD_REACTORS
330
BE5
102
}
330
BE5
100
AcDbXrecord
280
     1
102
RTVSPropertyOp0
 70
     1
102
RTVSPropertyOp1
 70
     1
102
RTVSPropertyOp2
 70
     1
102
RTVSPropertyOp3
 70
     1
102
RTVSPropertyOp4
 70
     1
102
RTVSPropertyOp5
 70
     1
102
RTVSPropertyOp6
 70
     1
102
RTVSPropertyOp7
 70
     1
102
RTVSPropertyOp8
 70
     1
102
RTVSPropertyOp9
 70
     1
102
RTVSPropertyOp10
 70
     1
102
RTVSPropertyOp11
 70
     1
102
RTVSPropertyOp12
 70
     1
102
RTVSPropertyOp13
 70
     1
102
RTVSPropertyOp14
 70
     1
102
RTVSPropertyOp15
 70
     1
102
RTVSPropertyOp16
 70
     1
102
RTVSPropertyOp17
 70
     1
102
RTVSPropertyOp18
 70
     1
102
RTVSPropertyOp19
 70
     1
102
RTVSPropertyOp20
 70
     1
102
RTVSPropertyOp21
 70
     1
102
RTVSPropertyOp22
 70
     1
102
RTVSPropertyOp23
 70
     1
102
RTVSPropertyOp24
 70
     1
102
RTVSPropertyOp25
 70
     1
102
RTVSPropertyOp26
 70
     1
102
RTVSPropertyOp27
 70
     1
102
RTVSPropertyOp28
 70
     1
102
RTVSPropertyOp29
 70
     1
102
RTVSPropertyOp30
 70
     1
102
RTVSPropertyOp31
 70
     1
102
RTVSPropertyOp32
 70
     1
  0
XRECORD
  5
BE8
102
{ACAD_REACTORS
330
BE7
102
}
330
BE7
100
AcDbXrecord
280
     1
102
RTVSPropertyOp0
 70
     1
102
RTVSPropertyOp1
 70
     1
102
RTVSPropertyOp2
 70
     1
102
RTVSPropertyOp3
 70
     1
102
RTVSPropertyOp4
 70
     1
102
RTVSPropertyOp5
 70
     1
102
RTVSPropertyOp6
 70
     1
102
RTVSPropertyOp7
 70
     1
102
RTVSPropertyOp8
 70
     1
102
RTVSPropertyOp9
 70
     1
102
RTVSPropertyOp10
 70
     1
102
RTVSPropertyOp11
 70
     1
102
RTVSPropertyOp12
 70
     1
102
RTVSPropertyOp13
 70
     1
102
RTVSPropertyOp14
 70
     1
102
RTVSPropertyOp15
 70
     1
102
RTVSPropertyOp16
 70
     1
102
RTVSPropertyOp17
 70
     1
102
RTVSPropertyOp18
 70
     1
102
RTVSPropertyOp19
 70
     1
102
RTVSPropertyOp20
 70
     1
102
RTVSPropertyOp21
 70
     1
102
RTVSPropertyOp22
 70
     1
102
RTVSPropertyOp23
 70
     1
102
RTVSPropertyOp24
 70
     1
102
RTVSPropertyOp25
 70
     1
102
RTVSPropertyOp26
 70
     1
102
RTVSPropertyOp27
 70
     1
102
RTVSPropertyOp28
 70
     1
102
RTVSPropertyOp29
 70
     1
102
RTVSPropertyOp30
 70
     1
102
RTVSPropertyOp31
 70
     1
102
RTVSPropertyOp32
 70
     1
  0
XRECORD
  5
BDE
102
{ACAD_REACTORS
330
BDD
102
}
330
BDD
100
AcDbXrecord
280
     1
102
RTVSPropertyOp0
 70
     1
102
RTVSPropertyOp1
 70
     1
102
RTVSPropertyOp2
 70
     1
102
RTVSPropertyOp3
 70
     1
102
RTVSPropertyOp4
 70
     1
102
RTVSPropertyOp5
 70
     1
102
RTVSPropertyOp6
 70
     1
102
RTVSPropertyOp7
 70
     1
102
RTVSPropertyOp8
 70
     1
102
RTVSPropertyOp9
 70
     1
102
RTVSPropertyOp10
 70
     1
102
RTVSPropertyOp11
 70
     1
102
RTVSPropertyOp12
 70
     1
102
RTVSPropertyOp13
 70
     1
102
RTVSPropertyOp14
 70
     1
102
RTVSPropertyOp15
 70
     1
102
RTVSPropertyOp16
 70
     1
102
RTVSPropertyOp17
 70
     1
102
RTVSPropertyOp18
 70
     1
102
RTVSPropertyOp19
 70
     1
102
RTVSPropertyOp20
 70
     1
102
RTVSPropertyOp21
 70
     1
102
RTVSPropertyOp22
 70
     1
102
RTVSPropertyOp23
 70
     1
102
RTVSPropertyOp24
 70
     1
102
RTVSPropertyOp25
 70
     1
102
RTVSPropertyOp26
 70
     1
102
RTVSPropertyOp27
 70
     1
102
RTVSPropertyOp28
 70
     1
102
RTVSPropertyOp29
 70
     1
102
RTVSPropertyOp30
 70
     1
102
RTVSPropertyOp31
 70
     1
102
RTVSPropertyOp32
 70
     1
  0
XRECORD
  5
BD2
102
{ACAD_REACTORS
330
BD1
102
}
330
BD1
100
AcDbXrecord
280
     1
102
RTVSPropertyOp0
 70
     1
102
RTVSPropertyOp1
 70
     1
102
RTVSPropertyOp2
 70
     1
102
RTVSPropertyOp3
 70
     1
102
RTVSPropertyOp4
 70
     1
102
RTVSPropertyOp5
 70
     1
102
RTVSPropertyOp6
 70
     1
102
RTVSPropertyOp7
 70
     1
102
RTVSPropertyOp8
 70
     1
102
RTVSPropertyOp9
 70
     1
102
RTVSPropertyOp10
 70
     1
102
RTVSPropertyOp11
 70
     1
102
RTVSPropertyOp12
 70
     1
102
RTVSPropertyOp13
 70
     1
102
RTVSPropertyOp14
 70
     1
102
RTVSPropertyOp15
 70
     1
102
RTVSPropertyOp16
 70
     1
102
RTVSPropertyOp17
 70
     1
102
RTVSPropertyOp18
 70
     1
102
RTVSPropertyOp19
 70
     1
102
RTVSPropertyOp20
 70
     1
102
RTVSPropertyOp21
 70
     1
102
RTVSPropertyOp22
 70
     1
102
RTVSPropertyOp23
 70
     1
102
RTVSPropertyOp24
 70
     1
102
RTVSPropertyOp25
 70
     1
102
RTVSPropertyOp26
 70
     1
102
RTVSPropertyOp27
 70
     1
102
RTVSPropertyOp28
 70
     1
102
RTVSPropertyOp29
 70
     1
102
RTVSPropertyOp30
 70
     1
102
RTVSPropertyOp31
 70
     1
102
RTVSPropertyOp32
 70
     1
  0
XRECORD
  5
BEA
102
{ACAD_REACTORS
330
BE9
102
}
330
BE9
100
AcDbXrecord
280
     1
102
RTVSPropertyOp0
 70
     1
102
RTVSPropertyOp1
 70
     1
102
RTVSPropertyOp2
 70
     1
102
RTVSPropertyOp3
 70
     1
102
RTVSPropertyOp4
 70
     1
102
RTVSPropertyOp5
 70
     1
102
RTVSPropertyOp6
 70
     1
102
RTVSPropertyOp7
 70
     1
102
RTVSPropertyOp8
 70
     1
102
RTVSPropertyOp9
 70
     1
102
RTVSPropertyOp10
 70
     1
102
RTVSPropertyOp11
 70
     1
102
RTVSPropertyOp12
 70
     1
102
RTVSPropertyOp13
 70
     1
102
RTVSPropertyOp14
 70
     1
102
RTVSPropertyOp15
 70
     1
102
RTVSPropertyOp16
 70
     1
102
RTVSPropertyOp17
 70
     1
102
RTVSPropertyOp18
 70
     1
102
RTVSPropertyOp19
 70
     1
102
RTVSPropertyOp20
 70
     1
102
RTVSPropertyOp21
 70
     1
102
RTVSPropertyOp22
 70
     1
102
RTVSPropertyOp23
 70
     1
102
RTVSPropertyOp24
 70
     1
102
RTVSPropertyOp25
 70
     1
102
RTVSPropertyOp26
 70
     1
102
RTVSPropertyOp27
 70
     1
102
RTVSPropertyOp28
 70
     1
102
RTVSPropertyOp29
 70
     1
102
RTVSPropertyOp30
 70
     1
102
RTVSPropertyOp31
 70
     1
102
RTVSPropertyOp32
 70
     1
  0
ENDSEC
  0
EOF
