  0
SECTION
  2
HEADER
  9
$ACADVER
  1
AC1015
  9
$ACADMAINTVER
 70
    18
  9
$DWGCODEPAGE
  3
ANSI_1252
  9
$INSBASE
 10
0.0
 20
0.0
 30
0.0
  9
$EXTMIN
 10
0.0
 20
0.0
 30
0.0
  9
$EXTMAX
 10
34.0
 20
22.0
 30
0.0
  9
$LIMMIN
 10
0.0
 20
0.0
  9
$LIMMAX
 10
34.0
 20
22.0
  9
$ORTHOMODE
 70
     0
  9
$REGENMODE
 70
     1
  9
$FILLMODE
 70
     1
  9
$QTEXTMODE
 70
     0
  9
$MIRRTEXT
 70
     0
  9
$LTSCALE
 40
2.0
  9
$ATTMODE
 70
     1
  9
$TEXTSIZE
 40
0.2
  9
$TRACEWID
 40
0.05
  9
$TEXTSTYLE
  7
Standard
  9
$CLAYER
  8
0
  9
$CELTYPE
  6
ByLayer
  9
$CECOLOR
 62
   256
  9
$CELTSCALE
 40
1.0
  9
$DISPSILH
 70
     0
  9
$DIMSCALE
 40
1.0
  9
$DIMASZ
 40
0.0708661417322835
  9
$DIMEXO
 40
0.0625
  9
$DIMDLI
 40
0.38
  9
$DIMRND
 40
0.0
  9
$DIMDLE
 40
0.0
  9
$DIMEXE
 40
0.18
  9
$DIMTP
 40
0.0
  9
$DIMTM
 40
0.0
  9
$DIMTXT
 40
0.0708661417322835
  9
$DIMCEN
 40
0.09
  9
$DIMTSZ
 40
0.0
  9
$DIMTOL
 70
     0
  9
$DIMLIM
 70
     0
  9
$DIMTIH
 70
     1
  9
$DIMTOH
 70
     1
  9
$DIMSE1
 70
     0
  9
$DIMSE2
 70
     0
  9
$DIMTAD
 70
     0
  9
$DIMZIN
 70
     0
  9
$DIMBLK
  1

  9
$DIMASO
 70
     1
  9
$DIMSHO
 70
     1
  9
$DIMPOST
  1

  9
$DIMAPOST
  1

  9
$DIMALT
 70
     0
  9
$DIMALTD
 70
     2
  9
$DIMALTF
 40
25.4
  9
$DIMLFAC
 40
1.0
  9
$DIMTOFL
 70
     0
  9
$DIMTVP
 40
0.0
  9
$DIMTIX
 70
     0
  9
$DIMSOXD
 70
     0
  9
$DIMSAH
 70
     0
  9
$DIMBLK1
  1

  9
$DIMBLK2
  1

  9
$DIMSTYLE
  2
Standard
  9
$DIMCLRD
 70
     0
  9
$DIMCLRE
 70
     0
  9
$DIMCLRT
 70
     0
  9
$DIMTFAC
 40
1.0
  9
$DIMGAP
 40
0.09
  9
$DIMJUST
 70
     0
  9
$DIMSD1
 70
     0
  9
$DIMSD2
 70
     0
  9
$DIMTOLJ
 70
     1
  9
$DIMTZIN
 70
     0
  9
$DIMALTZ
 70
     0
  9
$DIMALTTZ
 70
     0
  9
$DIMUPT
 70
     0
  9
$DIMDEC
 70
     4
  9
$DIMTDEC
 70
     4
  9
$DIMALTU
 70
     2
  9
$DIMALTTD
 70
     2
  9
$DIMTXSTY
  7
Standard
  9
$DIMAUNIT
 70
     0
  9
$DIMADEC
 70
     0
  9
$DIMALTRND
 40
0.0
  9
$DIMAZIN
 70
     0
  9
$DIMDSEP
 70
    46
  9
$DIMATFIT
 70
     3
  9
$DIMFRAC
 70
     0
  9
$DIMLDRBLK
  1

  9
$DIMLUNIT
 70
     2
  9
$DIMLWD
 70
    -2
  9
$DIMLWE
 70
    -2
  9
$DIMTMOVE
 70
     0
  9
$LUNITS
 70
     2
  9
$LUPREC
 70
     4
  9
$SKETCHINC
 40
0.1
  9
$FILLETRAD
 40
0.0
  9
$AUNITS
 70
     0
  9
$AUPREC
 70
     0
  9
$MENU
  1
.
  9
$ELEVATION
 40
0.0
  9
$PELEVATION
 40
0.0
  9
$THICKNESS
 40
0.0
  9
$LIMCHECK
 70
     0
  9
$CHAMFERA
 40
0.0
  9
$CHAMFERB
 40
0.0
  9
$CHAMFERC
 40
0.0
  9
$CHAMFERD
 40
0.0
  9
$SKPOLY
 70
     0
  9
$TDCREATE
 40
2455945.487304537
  9
$TDUCREATE
 40
2455945.737304537
  9
$TDUPDATE
 40
2455945.487304723
  9
$TDUUPDATE
 40
2455945.737304723
  9
$TDINDWG
 40
0.0000343634
  9
$TDUSRTIMER
 40
0.0000343634
  9
$USRTIMER
 70
     1
  9
$ANGBASE
 50
0.0
  9
$ANGDIR
 70
     0
  9
$PDMODE
 70
     0
  9
$PDSIZE
 40
0.0
  9
$PLINEWID
 40
0.0
  9
$SPLFRAME
 70
     0
  9
$SPLINETYPE
 70
     6
  9
$SPLINESEGS
 70
     8
  9
$HANDSEED
  5
CBF
  9
$SURFTAB1
 70
     6
  9
$SURFTAB2
 70
     6
  9
$SURFTYPE
 70
     6
  9
$SURFU
 70
     6
  9
$SURFV
 70
     6
  9
$UCSBASE
  2

  9
$UCSNAME
  2

  9
$UCSORG
 10
0.0
 20
0.0
 30
0.0
  9
$UCSXDIR
 10
1.0
 20
0.0
 30
0.0
  9
$UCSYDIR
 10
0.0
 20
1.0
 30
0.0
  9
$UCSORTHOREF
  2

  9
$UCSORTHOVIEW
 70
     0
  9
$UCSORGTOP
 10
0.0
 20
0.0
 30
0.0
  9
$UCSORGBOTTOM
 10
0.0
 20
0.0
 30
0.0
  9
$UCSORGLEFT
 10
0.0
 20
0.0
 30
0.0
  9
$UCSORGRIGHT
 10
0.0
 20
0.0
 30
0.0
  9
$UCSORGFRONT
 10
0.0
 20
0.0
 30
0.0
  9
$UCSORGBACK
 10
0.0
 20
0.0
 30
0.0
  9
$PUCSBASE
  2

  9
$PUCSNAME
  2

  9
$PUCSORG
 10
0.0
 20
0.0
 30
0.0
  9
$PUCSXDIR
 10
1.0
 20
0.0
 30
0.0
  9
$PUCSYDIR
 10
0.0
 20
1.0
 30
0.0
  9
$PUCSORTHOREF
  2

  9
$PUCSORTHOVIEW
 70
     0
  9
$PUCSORGTOP
 10
0.0
 20
0.0
 30
0.0
  9
$PUCSORGBOTTOM
 10
0.0
 20
0.0
 30
0.0
  9
$PUCSORGLEFT
 10
0.0
 20
0.0
 30
0.0
  9
$PUCSORGRIGHT
 10
0.0
 20
0.0
 30
0.0
  9
$PUCSORGFRONT
 10
0.0
 20
0.0
 30
0.0
  9
$PUCSORGBACK
 10
0.0
 20
0.0
 30
0.0
  9
$USERI1
 70
     0
  9
$USERI2
 70
     0
  9
$USERI3
 70
     0
  9
$USERI4
 70
     0
  9
$USERI5
 70
     0
  9
$USERR1
 40
0.0
  9
$USERR2
 40
0.0
  9
$USERR3
 40
0.0
  9
$USERR4
 40
0.0
  9
$USERR5
 40
0.0
  9
$WORLDVIEW
 70
     1
  9
$SHADEDGE
 70
     3
  9
$SHADEDIF
 70
    70
  9
$TILEMODE
 70
     1
  9
$MAXACTVP
 70
    64
  9
$PINSBASE
 10
0.0
 20
0.0
 30
0.0
  9
$PLIMCHECK
 70
     0
  9
$PEXTMIN
 10
0.0
 20
0.0
 30
0.0
  9
$PEXTMAX
 10
34.0
 20
22.0
 30
0.0
  9
$PLIMMIN
 10
0.0
 20
0.0
  9
$PLIMMAX
 10
34.0
 20
22.0
  9
$UNITMODE
 70
     0
  9
$VISRETAIN
 70
     1
  9
$PLINEGEN
 70
     0
  9
$PSLTSCALE
 70
     1
  9
$TREEDEPTH
 70
  3020
  9
$CMLSTYLE
  2
Standard
  9
$CMLJUST
 70
     0
  9
$CMLSCALE
 40
1.0
  9
$PROXYGRAPHICS
 70
     1
  9
$MEASUREMENT
 70
     0
  9
$CELWEIGHT
370
    -1
  9
$ENDCAPS
280
     0
  9
$JOINSTYLE
280
     0
  9
$LWDISPLAY
290
     0
  9
$INSUNITS
 70
     1
  9
$HYPERLINKBASE
  1

  9
$STYLESHEET
  1

  9
$XEDIT
290
     1
  9
$CEPSNTYPE
380
     0
  9
$PSTYLEMODE
290
     1
  9
$FINGERPRINTGUID
  2
{4C693C44-79EB-4BD0-9230-B7913E9294EE}
  9
$VERSIONGUID
  2
{D4DFB90C-D50F-42B0-B451-A5F49AC88FE8}
  9
$EXTNAMES
290
     1
  9
$PSVPSCALE
 40
0.0
  9
$OLESTARTUP
290
     0
  0
ENDSEC
  0
SECTION
  2
CLASSES
  0
CLASS
  1
ACDBDICTIONARYWDFLT
  2
AcDbDictionaryWithDefault
  3
ObjectDBX Classes
 90
        0
280
     0
281
     0
  0
CLASS
  1
MATERIAL
  2
AcDbMaterial
  3
ObjectDBX Classes
 90
     1153
280
     0
281
     0
  0
CLASS
  1
VISUALSTYLE
  2
AcDbVisualStyle
  3
ObjectDBX Classes
 90
     4095
280
     0
281
     0
  0
CLASS
  1
SCALE
  2
AcDbScale
  3
ObjectDBX Classes
 90
     1153
280
     0
281
     0
  0
CLASS
  1
TABLESTYLE
  2
AcDbTableStyle
  3
ObjectDBX Classes
 90
     4095
280
     0
281
     0
  0
CLASS
  1
MLEADERSTYLE
  2
AcDbMLeaderStyle
  3
ACDB_MLEADERSTYLE_CLASS
 90
     4095
280
     0
281
     0
  0
CLASS
  1
DICTIONARYVAR
  2
AcDbDictionaryVar
  3
ObjectDBX Classes
 90
        0
280
     0
281
     0
  0
CLASS
  1
CELLSTYLEMAP
  2
AcDbCellStyleMap
  3
ObjectDBX Classes
 90
     1152
280
     0
281
     0
  0
CLASS
  1
ACDBPLACEHOLDER
  2
AcDbPlaceHolder
  3
ObjectDBX Classes
 90
        0
280
     0
281
     0
  0
CLASS
  1
LAYOUT
  2
AcDbLayout
  3
ObjectDBX Classes
 90
        0
280
     0
281
     0
  0
ENDSEC
  0
SECTION
  2
TABLES
  0
TABLE
  2
VPORT
  5
8
330
0
100
AcDbSymbolTable
 70
     1
  0
VPORT
  5
57
330
8
100
AcDbSymbolTableRecord
100
AcDbViewportTableRecord
  2
*Active
 70
     0
 10
0.0
 20
0.0
 11
1.0
 21
1.0
 12
17.0
 22
11.0
 13
0.0
 23
0.0
 14
1.0
 24
1.0
 15
0.0
 25
0.0
 16
0.0
 26
0.0
 36
1.0
 17
0.0
 27
0.0
 37
0.0
 40
22.0
 41
1.545454545454545
 42
50.0
 43
0.0
 44
0.0
 50
0.0
 51
0.0
 71
     0
 72
   100
 73
     1
 74
     1
 75
     0
 76
     0
 77
     0
 78
     0
281
     0
 65
     1
110
0.0
120
0.0
130
0.0
111
1.0
121
0.0
131
0.0
112
0.0
122
1.0
132
0.0
 79
     0
146
0.0
  0
ENDTAB
  0
TABLE
  2
LTYPE
  5
5
330
0
100
AcDbSymbolTable
 70
    59
  0
LTYPE
  5
5B
330
5
100
AcDbSymbolTableRecord
100
AcDbLinetypeTableRecord
  2
ByBlock
 70
     0
  3

 72
    65
 73
     0
 40
0.0
  0
LTYPE
  5
5C
330
5
100
AcDbSymbolTableRecord
100
AcDbLinetypeTableRecord
  2
ByLayer
 70
     0
  3

 72
    65
 73
     0
 40
0.0
  0
LTYPE
  5
5D
330
5
100
AcDbSymbolTableRecord
100
AcDbLinetypeTableRecord
  2
Continuous
 70
     0
  3
Solid line
 72
    65
 73
     0
 40
0.0
  0
LTYPE
  5
7C
330
5
100
AcDbSymbolTableRecord
100
AcDbLinetypeTableRecord
  2
BY_STANDARD
 70
     0
  3
By Standard ____________    ____    ____   _
 72
    65
 73
     6
 40
1.240299999999999
 49
0.6614
 74
     0
 49
-0.0827
 74
     0
 49
0.1654
 74
     0
 49
-0.0827
 74
     0
 49
0.1654
 74
     0
 49
-0.0827
 74
     0
  0
LTYPE
  5
7D
330
5
100
AcDbSymbolTableRecord
100
AcDbLinetypeTableRecord
  2
CHAIN
 70
     0
  3
Chain ____ _ ____ _ ____ _ ____ _ ____ _ ____
 72
    65
 73
     4
 40
0.7087
 49
0.4724000000000001
 74
     0
 49
-0.0591
 74
     0
 49
0.1181
 74
     0
 49
-0.0591
 74
     0
  0
LTYPE
  5
7E
330
5
100
AcDbSymbolTableRecord
100
AcDbLinetypeTableRecord
  2
DASH_DOT
 70
     0
  3
Dash dot __ . __ . __ . __ . __ . __ . __ . __
 72
    65
 73
     4
 40
0.37
 49
0.24
 74
     0
 49
-0.06
 74
     0
 49
0.01
 74
     0
 49
-0.06
 74
     0
  0
LTYPE
  5
7F
330
5
100
AcDbSymbolTableRecord
100
AcDbLinetypeTableRecord
  2
DOUBLE_DASH_DOT
 70
     0
  3
Double-Dash Dot __ __ . __ __ . __ __ . __ _
 72
    65
 73
     6
 40
0.4398
 49
0.24
 74
     0
 49
-0.06
 74
     0
 49
0.0098
 74
     0
 49
-0.06
 74
     0
 49
0.01
 74
     0
 49
-0.06
 74
     0
  0
LTYPE
  5
80
330
5
100
AcDbSymbolTableRecord
100
AcDbLinetypeTableRecord
  2
DASH_TRIPLE_DOT
 70
     0
  3
Dash Triple-Dot _ . . . _ . . . _ . . . _
 72
    65
 73
     8
 40
0.51
 49
0.24
 74
     0
 49
-0.06
 74
     0
 49
0.01
 74
     0
 49
-0.06
 74
     0
 49
0.01
 74
     0
 49
-0.06
 74
     0
 49
0.01
 74
     0
 49
-0.06
 74
     0
  0
LTYPE
  5
81
330
5
100
AcDbSymbolTableRecord
100
AcDbLinetypeTableRecord
  2
DASHED
 70
     0
  3
Dashed __ __ __ __ __ __ __ __ __ __ __ __ __ _
 72
    65
 73
     2
 40
0.2067
 49
0.1654
 74
     0
 49
-0.0413
 74
     0
  0
LTYPE
  5
82
330
5
100
AcDbSymbolTableRecord
100
AcDbLinetypeTableRecord
  2
DASH_DOUBLE_DOT
 70
     0
  3
Dash Double-Dot __ . . __ . . __ . . __ . .
 72
    65
 73
     6
 40
0.4398
 49
0.24
 74
     0
 49
-0.06
 74
     0
 49
0.0098
 74
     0
 49
-0.06
 74
     0
 49
0.01
 74
     0
 49
-0.06
 74
     0
  0
LTYPE
  5
83
330
5
100
AcDbSymbolTableRecord
100
AcDbLinetypeTableRecord
  2
DASHED_SPACE
 70
     0
  3
Dashed Space __ __ __ __ __ __ __ __ __ __ __ _
 72
    65
 73
     2
 40
0.2067
 49
0.1654
 74
     0
 49
-0.0413
 74
     0
  0
LTYPE
  5
84
330
5
100
AcDbSymbolTableRecord
100
AcDbLinetypeTableRecord
  2
DOTTED
 70
     0
  3
Dotted . . . . . . . . . . . . . . . . . . . . 
 72
    65
 73
     2
 40
0.0482
 49
0.0069
 74
     0
 49
-0.0413
 74
     0
  0
LTYPE
  5
85
330
5
100
AcDbSymbolTableRecord
100
AcDbLinetypeTableRecord
  2
DOUBLE_DASH_CHAIN
 70
     0
  3
Double-Dash Chain ______  __  __  ______  __  _
 72
    65
 73
     6
 40
1.240299999999999
 49
0.6614
 74
     0
 49
-0.0827
 74
     0
 49
0.1654
 74
     0
 49
-0.0827
 74
     0
 49
0.1654
 74
     0
 49
-0.0827
 74
     0
  0
LTYPE
  5
87
330
5
100
AcDbSymbolTableRecord
100
AcDbLinetypeTableRecord
  2
DOUBLE_DASH_DOUBLE_DOT
 70
     0
  3
Double-Dash Double-dot _ _ . . _ _ . . _
 72
    65
 73
     8
 40
0.7400000000000001
 49
0.24
 74
     0
 49
-0.06
 74
     0
 49
0.24
 74
     0
 49
-0.06
 74
     0
 49
0.01
 74
     0
 49
-0.06
 74
     0
 49
0.01
 74
     0
 49
-0.06
 74
     0
  0
LTYPE
  5
88
330
5
100
AcDbSymbolTableRecord
100
AcDbLinetypeTableRecord
  2
DOUBLE_DASH_TRIPLE_DOT
 70
     0
  3
Double Dash Triple Dot __ __ . . . __ __ . .
 72
    65
 73
    10
 40
0.8100000000000001
 49
0.24
 74
     0
 49
-0.06
 74
     0
 49
0.24
 74
     0
 49
-0.06
 74
     0
 49
0.01
 74
     0
 49
-0.06
 74
     0
 49
0.01
 74
     0
 49
-0.06
 74
     0
 49
0.01
 74
     0
 49
-0.06
 74
     0
  0
LTYPE
  5
89
330
5
100
AcDbSymbolTableRecord
100
AcDbLinetypeTableRecord
  2
LONG_DASH_DOTTED
 70
     0
  3
Long Dash Dotted ____ . ____ . ____ . ____ . _
 72
    65
 73
     4
 40
0.3543
 49
0.2362
 74
     0
 49
-0.0295
 74
     0
 49
0.0591
 74
     0
 49
-0.0295
 74
     0
  0
LTYPE
  5
8A
330
5
100
AcDbSymbolTableRecord
100
AcDbLinetypeTableRecord
  2
LONG_DASH_DOUBLE_DOT
 70
     0
  3
Long Dash Double Dot ________  .  .  ________  
 72
    65
 73
     6
 40
0.6799999999999999
 49
0.48
 74
     0
 49
-0.06
 74
     0
 49
0.01
 74
     0
 49
-0.06
 74
     0
 49
0.01
 74
     0
 49
-0.06
 74
     0
  0
LTYPE
  5
8B
330
5
100
AcDbSymbolTableRecord
100
AcDbLinetypeTableRecord
  2
LONG_DASH_TRIPLE_DOT
 70
     0
  3
Long Dash Triple Dot ____ ... ____ ... ____
 72
    65
 73
     8
 40
0.3689
 49
0.2362
 74
     0
 49
-0.0295
 74
     0
 49
0.0049
 74
     0
 49
-0.0295
 74
     0
 49
0.0049
 74
     0
 49
-0.0295
 74
     0
 49
0.0049
 74
     0
 49
-0.0295
 74
     0
  0
LTYPE
  5
8C
330
5
100
AcDbSymbolTableRecord
100
AcDbLinetypeTableRecord
  2
BORDER
 70
     0
  3
Border __ __ . __ __ . __ __ . __ __ . __ __ .
 72
    65
 73
     6
 40
1.75
 49
0.5
 74
     0
 49
-0.25
 74
     0
 49
0.5
 74
     0
 49
-0.25
 74
     0
 49
0.0
 74
     0
 49
-0.25
 74
     0
  0
LTYPE
  5
8D
330
5
100
AcDbSymbolTableRecord
100
AcDbLinetypeTableRecord
  2
BORDER2
 70
     0
  3
Border (.5x) __.__.__.__.__.__.__.__.__.__.__.
 72
    65
 73
     6
 40
0.875
 49
0.25
 74
     0
 49
-0.125
 74
     0
 49
0.25
 74
     0
 49
-0.125
 74
     0
 49
0.0
 74
     0
 49
-0.125
 74
     0
  0
LTYPE
  5
8E
330
5
100
AcDbSymbolTableRecord
100
AcDbLinetypeTableRecord
  2
BORDERX2
 70
     0
  3
Border (2x) ____  ____  .  ____  ____  .  ___
 72
    65
 73
     6
 40
3.5
 49
1.0
 74
     0
 49
-0.5
 74
     0
 49
1.0
 74
     0
 49
-0.5
 74
     0
 49
0.0
 74
     0
 49
-0.5
 74
     0
  0
LTYPE
  5
8F
330
5
100
AcDbSymbolTableRecord
100
AcDbLinetypeTableRecord
  2
CENTER
 70
     0
  3
Center ____ _ ____ _ ____ _ ____ _ ____ _ ____
 72
    65
 73
     4
 40
2.0
 49
1.25
 74
     0
 49
-0.25
 74
     0
 49
0.25
 74
     0
 49
-0.25
 74
     0
  0
LTYPE
  5
90
330
5
100
AcDbSymbolTableRecord
100
AcDbLinetypeTableRecord
  2
CENTER2
 70
     0
  3
Center (.5x) ___ _ ___ _ ___ _ ___ _ ___ _ ___
 72
    65
 73
     4
 40
1.125
 49
0.75
 74
     0
 49
-0.125
 74
     0
 49
0.125
 74
     0
 49
-0.125
 74
     0
  0
LTYPE
  5
91
330
5
100
AcDbSymbolTableRecord
100
AcDbLinetypeTableRecord
  2
CENTERX2
 70
     0
  3
Center (2x) ________  __  ________  __  _____
 72
    65
 73
     4
 40
4.0
 49
2.5
 74
     0
 49
-0.5
 74
     0
 49
0.5
 74
     0
 49
-0.5
 74
     0
  0
LTYPE
  5
92
330
5
100
AcDbSymbolTableRecord
100
AcDbLinetypeTableRecord
  2
DASHDOT2
 70
     0
  3
Dash dot (.5x) _._._._._._._._._._._._._._._.
 72
    65
 73
     4
 40
0.5
 49
0.25
 74
     0
 49
-0.125
 74
     0
 49
0.0
 74
     0
 49
-0.125
 74
     0
  0
LTYPE
  5
93
330
5
100
AcDbSymbolTableRecord
100
AcDbLinetypeTableRecord
  2
DASHDOTX2
 70
     0
  3
Dash dot (2x) ____  .  ____  .  ____  .  ___
 72
    65
 73
     4
 40
2.0
 49
1.0
 74
     0
 49
-0.5
 74
     0
 49
0.0
 74
     0
 49
-0.5
 74
     0
  0
LTYPE
  5
95
330
5
100
AcDbSymbolTableRecord
100
AcDbLinetypeTableRecord
  2
DASHED2
 70
     0
  3
Dashed (.5x) _ _ _ _ _ _ _ _ _ _ _ _ _ _ _ _ _
 72
    65
 73
     2
 40
0.375
 49
0.25
 74
     0
 49
-0.125
 74
     0
  0
LTYPE
  5
96
330
5
100
AcDbSymbolTableRecord
100
AcDbLinetypeTableRecord
  2
DASHEDX2
 70
     0
  3
Dashed (2x) ____  ____  ____  ____  ____  ___
 72
    65
 73
     2
 40
1.5
 49
1.0
 74
     0
 49
-0.5
 74
     0
  0
LTYPE
  5
97
330
5
100
AcDbSymbolTableRecord
100
AcDbLinetypeTableRecord
  2
DIVIDE
 70
     0
  3
Divide ____ . . ____ . . ____ . . ____ . . ____
 72
    65
 73
     6
 40
1.25
 49
0.5
 74
     0
 49
-0.25
 74
     0
 49
0.0
 74
     0
 49
-0.25
 74
     0
 49
0.0
 74
     0
 49
-0.25
 74
     0
  0
LTYPE
  5
98
330
5
100
AcDbSymbolTableRecord
100
AcDbLinetypeTableRecord
  2
DIVIDE2
 70
     0
  3
Divide (.5x) __..__..__..__..__..__..__..__.._
 72
    65
 73
     6
 40
0.625
 49
0.25
 74
     0
 49
-0.125
 74
     0
 49
0.0
 74
     0
 49
-0.125
 74
     0
 49
0.0
 74
     0
 49
-0.125
 74
     0
  0
LTYPE
  5
99
330
5
100
AcDbSymbolTableRecord
100
AcDbLinetypeTableRecord
  2
DIVIDEX2
 70
     0
  3
Divide (2x) ________  .  .  ________  .  .  _
 72
    65
 73
     6
 40
2.5
 49
1.0
 74
     0
 49
-0.5
 74
     0
 49
0.0
 74
     0
 49
-0.5
 74
     0
 49
0.0
 74
     0
 49
-0.5
 74
     0
  0
LTYPE
  5
9A
330
5
100
AcDbSymbolTableRecord
100
AcDbLinetypeTableRecord
  2
DOT
 70
     0
  3
Dot . . . . . . . . . . . . . . . . . . . . . .
 72
    65
 73
     2
 40
0.25
 49
0.0
 74
     0
 49
-0.25
 74
     0
  0
LTYPE
  5
9B
330
5
100
AcDbSymbolTableRecord
100
AcDbLinetypeTableRecord
  2
DOT2
 70
     0
  3
Dot (.5x) .....................................
 72
    65
 73
     2
 40
0.125
 49
0.0
 74
     0
 49
-0.125
 74
     0
  0
LTYPE
  5
9C
330
5
100
AcDbSymbolTableRecord
100
AcDbLinetypeTableRecord
  2
DOTX2
 70
     0
  3
Dot (2x) .  .  .  .  .  .  .  .  .  .  .  .  . 
 72
    65
 73
     2
 40
0.5
 49
0.0
 74
     0
 49
-0.5
 74
     0
  0
LTYPE
  5
9D
330
5
100
AcDbSymbolTableRecord
100
AcDbLinetypeTableRecord
  2
HIDDEN
 70
     0
  3
Hidden __ __ __ __ __ __ __ __ __ __ __ __ __ _
 72
    65
 73
     2
 40
0.375
 49
0.25
 74
     0
 49
-0.125
 74
     0
  0
LTYPE
  5
9E
330
5
100
AcDbSymbolTableRecord
100
AcDbLinetypeTableRecord
  2
HIDDEN2
 70
     0
  3
Hidden (.5x) _ _ _ _ _ _ _ _ _ _ _ _ _ _ _ _ _
 72
    65
 73
     2
 40
0.1875
 49
0.125
 74
     0
 49
-0.0625
 74
     0
  0
LTYPE
  5
9F
330
5
100
AcDbSymbolTableRecord
100
AcDbLinetypeTableRecord
  2
HIDDENX2
 70
     0
  3
Hidden (2x) ____ ____ ____ ____ ____ ____ ____
 72
    65
 73
     2
 40
0.75
 49
0.5
 74
     0
 49
-0.25
 74
     0
  0
LTYPE
  5
A0
330
5
100
AcDbSymbolTableRecord
100
AcDbLinetypeTableRecord
  2
PHANTOM
 70
     0
  3
Phantom ______  __  __  ______  __  __  ______
 72
    65
 73
     6
 40
2.5
 49
1.25
 74
     0
 49
-0.25
 74
     0
 49
0.25
 74
     0
 49
-0.25
 74
     0
 49
0.25
 74
     0
 49
-0.25
 74
     0
  0
LTYPE
  5
A1
330
5
100
AcDbSymbolTableRecord
100
AcDbLinetypeTableRecord
  2
PHANTOM2
 70
     0
  3
Phantom (.5x) ___ _ _ ___ _ _ ___ _ _ ___ _ _
 72
    65
 73
     6
 40
1.25
 49
0.625
 74
     0
 49
-0.125
 74
     0
 49
0.125
 74
     0
 49
-0.125
 74
     0
 49
0.125
 74
     0
 49
-0.125
 74
     0
  0
LTYPE
  5
A2
330
5
100
AcDbSymbolTableRecord
100
AcDbLinetypeTableRecord
  2
PHANTOMX2
 70
     0
  3
Phantom (2x) ____________    ____    ____   _
 72
    65
 73
     6
 40
5.0
 49
2.5
 74
     0
 49
-0.5
 74
     0
 49
0.5
 74
     0
 49
-0.5
 74
     0
 49
0.5
 74
     0
 49
-0.5
 74
     0
  0
LTYPE
  5
A3
330
5
100
AcDbSymbolTableRecord
100
AcDbLinetypeTableRecord
  2
ACAD_ISO02W100
 70
     0
  3
ISO dash __ __ __ __ __ __ __ __ __ __ __ __ __
 72
    65
 73
     2
 40
0.59
 49
0.47
 74
     0
 49
-0.12
 74
     0
  0
LTYPE
  5
A4
330
5
100
AcDbSymbolTableRecord
100
AcDbLinetypeTableRecord
  2
ACAD_ISO03W100
 70
     0
  3
ISO dash space __    __    __    __    __    __
 72
    65
 73
     2
 40
1.179999999999999
 49
0.47
 74
     0
 49
-0.71
 74
     0
  0
LTYPE
  5
A5
330
5
100
AcDbSymbolTableRecord
100
AcDbLinetypeTableRecord
  2
ACAD_ISO04W100
 70
     0
  3
ISO long-dash dot ____ . ____ . ____ . ____ . _
 72
    65
 73
     4
 40
1.179999999999999
 49
0.9399999999999998
 74
     0
 49
-0.12
 74
     0
 49
0.0
 74
     0
 49
-0.12
 74
     0
  0
LTYPE
  5
A6
330
5
100
AcDbSymbolTableRecord
100
AcDbLinetypeTableRecord
  2
ACAD_ISO05W100
 70
     0
  3
ISO long-dash double-dot ____ .. ____ .. ____ .
 72
    65
 73
     6
 40
1.299999999999999
 49
0.9399999999999998
 74
     0
 49
-0.12
 74
     0
 49
0.0
 74
     0
 49
-0.12
 74
     0
 49
0.0
 74
     0
 49
-0.12
 74
     0
  0
LTYPE
  5
A7
330
5
100
AcDbSymbolTableRecord
100
AcDbLinetypeTableRecord
  2
ACAD_ISO06W100
 70
     0
  3
ISO long-dash triple-dot ____ ... ____ ... ____
 72
    65
 73
     8
 40
1.419999999999999
 49
0.9399999999999998
 74
     0
 49
-0.12
 74
     0
 49
0.0
 74
     0
 49
-0.12
 74
     0
 49
0.0
 74
     0
 49
-0.12
 74
     0
 49
0.0
 74
     0
 49
-0.12
 74
     0
  0
LTYPE
  5
A8
330
5
100
AcDbSymbolTableRecord
100
AcDbLinetypeTableRecord
  2
ACAD_ISO07W100
 70
     0
  3
ISO dot . . . . . . . . . . . . . . . . . . . .
 72
    65
 73
     2
 40
0.12
 49
0.0
 74
     0
 49
-0.12
 74
     0
  0
LTYPE
  5
A9
330
5
100
AcDbSymbolTableRecord
100
AcDbLinetypeTableRecord
  2
ACAD_ISO08W100
 70
     0
  3
ISO long-dash short-dash ____ __ ____ __ ____ _
 72
    65
 73
     4
 40
0.95
 49
0.47
 74
     0
 49
-0.12
 74
     0
 49
0.24
 74
     0
 49
-0.12
 74
     0
  0
LTYPE
  5
AA
330
5
100
AcDbSymbolTableRecord
100
AcDbLinetypeTableRecord
  2
ACAD_ISO09W100
 70
     0
  3
ISO long-dash double-short-dash ____ __ __ ____
 72
    65
 73
     6
 40
1.31
 49
0.47
 74
     0
 49
-0.12
 74
     0
 49
0.24
 74
     0
 49
-0.12
 74
     0
 49
0.24
 74
     0
 49
-0.12
 74
     0
  0
LTYPE
  5
AB
330
5
100
AcDbSymbolTableRecord
100
AcDbLinetypeTableRecord
  2
ACAD_ISO10W100
 70
     0
  3
ISO dash dot __ . __ . __ . __ . __ . __ . __ .
 72
    65
 73
     4
 40
0.71
 49
0.47
 74
     0
 49
-0.12
 74
     0
 49
0.0
 74
     0
 49
-0.12
 74
     0
  0
LTYPE
  5
AC
330
5
100
AcDbSymbolTableRecord
100
AcDbLinetypeTableRecord
  2
ACAD_ISO11W100
 70
     0
  3
ISO double-dash dot __ __ . __ __ . __ __ . __ 
 72
    65
 73
     6
 40
1.299999999999999
 49
0.47
 74
     0
 49
-0.12
 74
     0
 49
0.47
 74
     0
 49
-0.12
 74
     0
 49
0.0
 74
     0
 49
-0.12
 74
     0
  0
LTYPE
  5
AD
330
5
100
AcDbSymbolTableRecord
100
AcDbLinetypeTableRecord
  2
ACAD_ISO12W100
 70
     0
  3
ISO dash double-dot __ . . __ . . __ . . __ . .
 72
    65
 73
     6
 40
0.8299999999999998
 49
0.47
 74
     0
 49
-0.12
 74
     0
 49
0.0
 74
     0
 49
-0.12
 74
     0
 49
0.0
 74
     0
 49
-0.12
 74
     0
  0
LTYPE
  5
AE
330
5
100
AcDbSymbolTableRecord
100
AcDbLinetypeTableRecord
  2
ACAD_ISO13W100
 70
     0
  3
ISO double-dash double-dot __ __ . . __ __ . . 
 72
    65
 73
     8
 40
1.419999999999999
 49
0.47
 74
     0
 49
-0.12
 74
     0
 49
0.47
 74
     0
 49
-0.12
 74
     0
 49
0.0
 74
     0
 49
-0.12
 74
     0
 49
0.0
 74
     0
 49
-0.12
 74
     0
  0
LTYPE
  5
AF
330
5
100
AcDbSymbolTableRecord
100
AcDbLinetypeTableRecord
  2
ACAD_ISO14W100
 70
     0
  3
ISO dash triple-dot __ . . . __ . . . __ . . . 
 72
    65
 73
     8
 40
0.95
 49
0.47
 74
     0
 49
-0.12
 74
     0
 49
0.0
 74
     0
 49
-0.12
 74
     0
 49
0.0
 74
     0
 49
-0.12
 74
     0
 49
0.0
 74
     0
 49
-0.12
 74
     0
  0
LTYPE
  5
B0
330
5
100
AcDbSymbolTableRecord
100
AcDbLinetypeTableRecord
  2
ACAD_ISO15W100
 70
     0
  3
ISO double-dash triple-dot __ __ . . . __ __ . 
 72
    65
 73
    10
 40
1.539999999999999
 49
0.47
 74
     0
 49
-0.12
 74
     0
 49
0.47
 74
     0
 49
-0.12
 74
     0
 49
0.0
 74
     0
 49
-0.12
 74
     0
 49
0.0
 74
     0
 49
-0.12
 74
     0
 49
0.0
 74
     0
 49
-0.12
 74
     0
  0
LTYPE
  5
B3
330
5
100
AcDbSymbolTableRecord
100
AcDbLinetypeTableRecord
  2
FENCELINE1
 70
     0
  3
Fenceline circle ----0-----0----0-----0----0---
 72
    65
 73
     4
 40
1.45
 49
0.25
 74
     0
 49
-0.1
 74
     4
 75
   133
340
B2
 46
0.1
 50
0.0
 44
-0.1
 45
0.0
 49
-0.1
 74
     0
 49
1.0
 74
     0
  0
LTYPE
  5
B4
330
5
100
AcDbSymbolTableRecord
100
AcDbLinetypeTableRecord
  2
FENCELINE2
 70
     0
  3
Fenceline square ----[]-----[]----[]-----[]----
 72
    65
 73
     4
 40
1.45
 49
0.25
 74
     0
 49
-0.1
 74
     4
 75
   132
340
B2
 46
0.1
 50
0.0
 44
-0.1
 45
0.0
 49
-0.1
 74
     0
 49
1.0
 74
     0
  0
LTYPE
  5
B5
330
5
100
AcDbSymbolTableRecord
100
AcDbLinetypeTableRecord
  2
TRACKS
 70
     0
  3
Tracks -|-|-|-|-|-|-|-|-|-|-|-|-|-|-|-|-|-|-|-|
 72
    65
 73
     2
 40
0.3
 49
0.15
 74
     4
 75
   130
340
B2
 46
0.25
 50
0.0
 44
0.0
 45
0.0
 49
0.15
 74
     0
  0
LTYPE
  5
B6
330
5
100
AcDbSymbolTableRecord
100
AcDbLinetypeTableRecord
  2
BATTING
 70
     0
  3
Batting SSSSSSSSSSSSSSSSSSSSSSSSSSSSSSSSSSSSSSS
 72
    65
 73
     4
 40
0.4001000000000001
 49
0.0001
 74
     0
 49
-0.1
 74
     4
 75
   134
340
B2
 46
0.1
 50
0.0
 44
-0.1
 45
0.0
 49
-0.2
 74
     4
 75
   134
340
B2
 46
0.1
 50
180.0
 44
0.1
 45
0.0
 49
-0.1
 74
     0
  0
LTYPE
  5
B7
330
5
100
AcDbSymbolTableRecord
100
AcDbLinetypeTableRecord
  2
HOT_WATER_SUPPLY
 70
     0
  3
Hot water supply ---- HW ---- HW ---- HW ----
 72
    65
 73
     3
 40
0.9
 49
0.5
 74
     0
 49
-0.2
 74
     2
 75
     0
340
55
 46
0.1
 50
0.0
 44
-0.1
 45
-0.05
  9
HW
 49
-0.2
 74
     0
  0
LTYPE
  5
B8
330
5
100
AcDbSymbolTableRecord
100
AcDbLinetypeTableRecord
  2
GAS_LINE
 70
     0
  3
Gas line ----GAS----GAS----GAS----GAS----GAS---
 72
    65
 73
     3
 40
0.95
 49
0.5
 74
     0
 49
-0.2
 74
     2
 75
     0
340
55
 46
0.1
 50
0.0
 44
-0.1
 45
-0.05
  9
GAS
 49
-0.25
 74
     0
  0
LTYPE
  5
B9
330
5
100
AcDbSymbolTableRecord
100
AcDbLinetypeTableRecord
  2
ZIGZAG
 70
     0
  3
Zig zag /\/\/\/\/\/\/\/\/\/\/\/\/\/\/\/\/\/\/\/
 72
    65
 73
     4
 40
0.8001000000000001
 49
0.0001
 74
     0
 49
-0.2
 74
     4
 75
   131
340
B2
 46
0.2
 50
0.0
 44
-0.2
 45
0.0
 49
-0.4
 74
     4
 75
   131
340
B2
 46
0.2
 50
180.0
 44
0.2
 45
0.0
 49
-0.2
 74
     0
  0
ENDTAB
  0
TABLE
  2
LAYER
  5
2
330
0
100
AcDbSymbolTable
 70
    27
  0
LAYER
  5
54
330
2
100
AcDbSymbolTableRecord
100
AcDbLayerTableRecord
  2
0
 70
     0
 62
     7
  6
Continuous
370
     0
390
F
  0
LAYER
  5
C0
330
2
100
AcDbSymbolTableRecord
100
AcDbLayerTableRecord
  2
Center Mark (ANSI)
 70
     0
 62
     7
  6
Continuous
370
     5
390
F
  0
LAYER
  5
C1
330
2
100
AcDbSymbolTableRecord
100
AcDbLayerTableRecord
  2
Centerline (ANSI)
 70
     0
 62
     7
  6
Continuous
370
     5
390
F
  0
LAYER
  5
C3
330
2
100
AcDbSymbolTableRecord
100
AcDbLayerTableRecord
  2
Dimension (ANSI)
 70
     0
 62
     7
  6
Continuous
370
     5
390
F
  0
LAYER
  5
C5
330
2
100
AcDbSymbolTableRecord
100
AcDbLayerTableRecord
  2
Hidden (ANSI)
 70
     0
 62
     7
  6
DASHED
370
     5
390
F
  0
LAYER
  5
CC
330
2
100
AcDbSymbolTableRecord
100
AcDbLayerTableRecord
  2
Symbol (ANSI)
 70
     0
 62
     7
  6
Continuous
370
     5
390
F
  0
LAYER
  5
CF
330
2
100
AcDbSymbolTableRecord
100
AcDbLayerTableRecord
  2
Visible (ANSI)
 70
     0
 62
     7
  6
Continuous
370
     5
390
F
  0
LAYER
  5
152
330
2
100
AcDbSymbolTableRecord
100
AcDbLayerTableRecord
  2
Defpoints
 70
     0
 62
     7
  6
Continuous
290
     0
370
    -3
390
F
  0
ENDTAB
  0
TABLE
  2
STYLE
  5
3
330
0
100
AcDbSymbolTable
 70
    10
  0
STYLE
  5
55
330
3
100
AcDbSymbolTableRecord
100
AcDbTextStyleTableRecord
  2
Standard
 70
     0
 40
0.0
 41
1.0
 50
0.0
 71
     0
 42
0.2
  3
txt
  4

  0
STYLE
  5
5A
330
3
100
AcDbSymbolTableRecord
100
AcDbTextStyleTableRecord
  2
Annotative
 70
     0
 40
0.0
 41
1.0
 50
0.0
 71
     0
 42
0.2
  3
txt
  4

1001
AcadAnnotative
1000
AnnotativeData
1002
{
1070
     1
1070
     1
1002
}
  0
STYLE
  5
B2
330
3
100
AcDbSymbolTableRecord
100
AcDbTextStyleTableRecord
  2

 70
     1
 40
0.0
 41
1.0
 50
0.0
 71
     0
 42
0.2
  3
ltypeshp.shx
  4

  0
STYLE
  5
D4
330
3
100
AcDbSymbolTableRecord
100
AcDbTextStyleTableRecord
  2
ITALICC_120
 70
     0
 40
0.0
 41
1.0
 50
0.0
 71
     0
 42
0.2
  3
italicc.shx
  4

  0
STYLE
  5
D5
330
3
100
AcDbSymbolTableRecord
100
AcDbTextStyleTableRecord
  2
Label Text (ANSI)
 70
     0
 40
0.0
 41
1.0
 50
0.0
 71
     0
 42
0.2
  3
TAHOMA.TTF
  4

1001
ACAD
1000
Tahoma
1071
      256
  0
STYLE
  5
D6
330
3
100
AcDbSymbolTableRecord
100
AcDbTextStyleTableRecord
  2
Note Text (ANSI)
 70
     0
 40
0.0
 41
1.0
 50
0.0
 71
     0
 42
0.2
  3
RomanS.shx
  4

  0
STYLE
  5
D7
330
3
100
AcDbSymbolTableRecord
100
AcDbTextStyleTableRecord
  2
ROMANS
 70
     0
 40
0.0
 41
1.0
 50
0.0
 71
     0
 42
0.2
  3
romans.shx
  4

  0
STYLE
  5
D8
330
3
100
AcDbSymbolTableRecord
100
AcDbTextStyleTableRecord
  2
SANSSERIF_114
 70
     0
 40
0.0
 41
1.0
 50
0.0
 71
     0
 42
0.2
  3
TAHOMA.TTF
  4

1001
ACAD
1000
Tahoma
1071
      256
  0
STYLE
  5
D9
330
3
100
AcDbSymbolTableRecord
100
AcDbTextStyleTableRecord
  2
SANSSERIF_117
 70
     0
 40
0.0
 41
1.0
 50
0.0
 71
     0
 42
0.2
  3
TAHOMA.TTF
  4

1001
ACAD
1000
Tahoma
1071
      256
  0
STYLE
  5
117
330
3
100
AcDbSymbolTableRecord
100
AcDbTextStyleTableRecord
  2
Text Style168
 70
     0
 40
0.0
 41
1.0
 50
0.0
 71
     0
 42
0.2
  3
TAHOMA.TTF
  4

1001
ACAD
1000
Tahoma
1071
      256
  0
ENDTAB
  0
TABLE
  2
VIEW
  5
6
330
0
100
AcDbSymbolTable
 70
     0
  0
ENDTAB
  0
TABLE
  2
UCS
  5
7
330
0
100
AcDbSymbolTable
 70
     0
  0
ENDTAB
  0
TABLE
  2
APPID
  5
9
330
0
100
AcDbSymbolTable
 70
     4
  0
APPID
  5
56
330
9
100
AcDbSymbolTableRecord
100
AcDbRegAppTableRecord
  2
ACAD
 70
     0
  0
APPID
  5
5E
330
9
100
AcDbSymbolTableRecord
100
AcDbRegAppTableRecord
  2
AcadAnnotative
 70
     0
  0
APPID
  5
7BC
330
9
100
AcDbSymbolTableRecord
100
AcDbRegAppTableRecord
  2
ACAD_DSTYLE_DIMRADIAL_EXTENSION
 70
     0
  0
APPID
  5
CB4
330
9
100
AcDbSymbolTableRecord
100
AcDbRegAppTableRecord
  2
ACAD_MLEADERVER
 70
     0
  0
ENDTAB
  0
TABLE
  2
DIMSTYLE
  5
A
330
0
100
AcDbSymbolTable
 70
    15
100
AcDbDimStyleTable
 71
     2
340
E2
340
58
  0
DIMSTYLE
105
58
330
A
100
AcDbSymbolTableRecord
100
AcDbDimStyleTableRecord
  2
Standard
 70
     0
340
55
  0
DIMSTYLE
105
59
330
A
100
AcDbSymbolTableRecord
100
AcDbDimStyleTableRecord
  2
Annotative
 70
     0
340
55
1001
AcadAnnotative
1000
AnnotativeData
1002
{
1070
     1
1070
     1
1002
}
  0
DIMSTYLE
105
DA
330
A
100
AcDbSymbolTableRecord
100
AcDbDimStyleTableRecord
  2
Architectural (ANSI)
 70
     0
 40
2.0
 41
0.0984251946210861
 43
0.2362204724409449
 44
0.125
 45
0.00000001
 46
0.3937007874015748
 78
     3
 79
     3
140
0.1000000014901161
146
1.200000029802321
147
0.031496062992126
171
     1
176
   256
177
   256
178
   256
272
     2
274
     1
276
     2
277
     4
284
    12
285
     4
286
    12
340
D6
371
    -1
372
    -1
  0
DIMSTYLE
105
DB
330
A
100
AcDbSymbolTableRecord
100
AcDbDimStyleTableRecord
  2
Architectural (ANSI)$7
 70
     0
 40
2.0
 41
0.0984251946210861
 43
0.2362204724409449
 44
0.125
 45
0.00000001
 46
0.3937007874015748
 78
     3
 79
     3
140
0.1000000014901161
146
1.200000029802321
147
0.031496062992126
171
     1
176
   256
177
   256
178
   256
272
     2
274
     1
276
     2
277
     4
284
    12
285
     4
286
    12
340
D6
371
    -1
372
    -1
  0
DIMSTYLE
105
DC
330
A
100
AcDbSymbolTableRecord
100
AcDbDimStyleTableRecord
  2
Default - Fraction (ANSI)
 70
     0
 40
2.0
 41
0.0984251946210861
 43
0.2362204724409449
 44
0.125
 45
0.00000001
 46
0.3937007874015748
 79
     3
140
0.1000000014901161
146
1.200000029802321
147
0.031496062992126
171
     1
176
   256
177
   256
178
   256
272
     2
274
     1
276
     2
277
     5
284
    12
285
     4
286
    12
340
D6
371
    -1
372
    -1
  0
DIMSTYLE
105
DD
330
A
100
AcDbSymbolTableRecord
100
AcDbDimStyleTableRecord
  2
Default - Fraction (ANSI)$7
 70
     0
 40
2.0
 41
0.0984251946210861
 43
0.2362204724409449
 44
0.125
 45
0.00000001
 46
0.3937007874015748
 79
     3
140
0.1000000014901161
146
1.200000029802321
147
0.031496062992126
171
     1
176
   256
177
   256
178
   256
272
     2
274
     1
276
     2
277
     5
284
    12
285
     4
286
    12
340
D6
371
    -1
372
    -1
  0
DIMSTYLE
105
DE
330
A
100
AcDbSymbolTableRecord
100
AcDbDimStyleTableRecord
  2
Default - mm (ANSI)
 70
     0
 40
2.0
 41
0.0984251946210861
 42
0.063
 43
0.2362204724409449
 44
0.125
 45
0.00000001
 46
0.3937007874015748
 73
     0
 78
     4
 79
     1
140
0.1000000014901161
143
1.0
144
25.4
146
1.200000029802321
147
0.031496062992126
171
     1
176
   256
177
   256
178
   256
179
     1
271
     2
272
     2
274
     1
284
     4
285
     4
340
D6
371
    -1
372
    -1
  0
DIMSTYLE
105
DF
330
A
100
AcDbSymbolTableRecord
100
AcDbDimStyleTableRecord
  2
Default - mm (ANSI)$7
 70
     0
 40
2.0
 41
0.0984251946210861
 42
0.063
 43
0.2362204724409449
 44
0.125
 45
0.00000001
 46
0.3937007874015748
 73
     0
 78
     4
 79
     1
140
0.1000000014901161
143
1.0
144
25.4
146
1.200000029802321
147
0.031496062992126
171
     1
176
   256
177
   256
178
   256
179
     1
271
     2
272
     2
274
     1
284
     4
285
     4
340
D6
371
    -1
372
    -1
  0
DIMSTYLE
105
E0
330
A
100
AcDbSymbolTableRecord
100
AcDbDimStyleTableRecord
  2
Default - mm [in] (ANSI)
 70
     0
  4
 in
 40
2.0
 41
0.0984251946210861
 42
0.063
 43
0.25
 44
0.125
 45
0.00000001
 46
0.3937007874015748
 73
     0
 78
     4
 79
     1
140
0.1000000014901161
143
0.03937
144
25.4
146
1.200000029802321
147
0.031496062992126
170
     1
171
     3
176
   256
177
   256
178
   256
179
     1
271
     2
272
     2
274
     3
284
     4
285
     4
286
     4
340
D6
371
    -1
372
    -1
  0
DIMSTYLE
105
E1
330
A
100
AcDbSymbolTableRecord
100
AcDbDimStyleTableRecord
  2
Default - mm [in] (ANSI)$7
 70
     0
  4
 in
 40
2.0
 41
0.0984251946210861
 42
0.063
 43
0.25
 44
0.125
 45
0.00000001
 46
0.3937007874015748
 73
     0
 78
     4
 79
     1
140
0.1000000014901161
143
0.03937
144
25.4
146
1.200000029802321
147
0.031496062992126
170
     1
171
     3
176
   256
177
   256
178
   256
179
     1
271
     2
272
     2
274
     3
284
     4
285
     4
286
     4
340
D6
371
    -1
372
    -1
  0
DIMSTYLE
105
E2
102
{ACAD_REACTORS
330
150
330
23D
330
327
330
425
330
50F
330
60D
330
723
330
7CD
330
876
330
969
330
A67
330
B65
102
}
330
A
100
AcDbSymbolTableRecord
100
AcDbDimStyleTableRecord
  2
Default (ANSI)
 70
     0
 40
2.0
 41
0.0984251946210861
 43
0.2362204724409449
 44
0.125
 45
0.00000001
 46
0.3937007874015748
140
0.1000000014901161
147
0.031496062992126
176
   256
177
   256
178
   256
271
     2
272
     2
340
D7
371
    -1
372
    -1
  0
DIMSTYLE
105
E3
330
A
100
AcDbSymbolTableRecord
100
AcDbDimStyleTableRecord
  2
Default (ANSI)$7
 70
     0
 40
2.0
 41
0.0984251946210861
 43
0.2362204724409449
 44
0.125
 45
0.00000001
 46
0.3937007874015748
140
0.1000000014901161
147
0.031496062992126
176
   256
177
   256
178
   256
271
     2
272
     2
340
D7
371
    -1
372
    -1
  0
DIMSTYLE
105
E4
330
A
100
AcDbSymbolTableRecord
100
AcDbDimStyleTableRecord
  2
Alternate (ANSI)
 70
     0
 40
2.0
 41
0.0979999974370003
340
55
342
E5
  0
DIMSTYLE
105
F7
330
A
100
AcDbSymbolTableRecord
100
AcDbDimStyleTableRecord
  2
Datum (ANSI)
 70
     0
 40
2.0
 41
0.0979999974370003
340
55
342
E5
  0
DIMSTYLE
105
106
330
A
100
AcDbSymbolTableRecord
100
AcDbDimStyleTableRecord
  2
Large (ANSI)
 70
     0
 40
2.0
 41
0.1959999948740005
340
55
342
E5
  0
ENDTAB
  0
TABLE
  2
BLOCK_RECORD
  5
1
330
0
100
AcDbSymbolTable
 70
    16
  0
BLOCK_RECORD
  5
6C
330
1
100
AcDbSymbolTableRecord
100
AcDbBlockTableRecord
  2
*Model_Space
340
6F
  0
BLOCK_RECORD
  5
68
330
1
100
AcDbSymbolTableRecord
100
AcDbBlockTableRecord
  2
*Paper_Space
340
6B
  0
BLOCK_RECORD
  5
70
330
1
100
AcDbSymbolTableRecord
100
AcDbBlockTableRecord
  2
*Paper_Space0
340
73
  0
BLOCK_RECORD
  5
E5
330
1
100
AcDbSymbolTableRecord
100
AcDbBlockTableRecord
  2
_Closed
340
0
  0
BLOCK_RECORD
  5
EC
330
1
100
AcDbSymbolTableRecord
100
AcDbBlockTableRecord
  2
DatumFilled45
340
0
  0
BLOCK_RECORD
  5
F8
330
1
100
AcDbSymbolTableRecord
100
AcDbBlockTableRecord
  2
Filled-1
340
0
  0
BLOCK_RECORD
  5
153
330
1
100
AcDbSymbolTableRecord
100
AcDbBlockTableRecord
  2
*D4
340
0
  0
BLOCK_RECORD
  5
23E
330
1
100
AcDbSymbolTableRecord
100
AcDbBlockTableRecord
  2
*D5
340
0
  0
BLOCK_RECORD
  5
328
330
1
100
AcDbSymbolTableRecord
100
AcDbBlockTableRecord
  2
*D6
340
0
  0
BLOCK_RECORD
  5
426
330
1
100
AcDbSymbolTableRecord
100
AcDbBlockTableRecord
  2
*D7
340
0
  0
BLOCK_RECORD
  5
510
330
1
100
AcDbSymbolTableRecord
100
AcDbBlockTableRecord
  2
*D8
340
0
  0
BLOCK_RECORD
  5
60E
330
1
100
AcDbSymbolTableRecord
100
AcDbBlockTableRecord
  2
*D9
340
0
  0
BLOCK_RECORD
  5
724
330
1
100
AcDbSymbolTableRecord
100
AcDbBlockTableRecord
  2
*D10
340
0
  0
BLOCK_RECORD
  5
7CE
330
1
100
AcDbSymbolTableRecord
100
AcDbBlockTableRecord
  2
*D11
340
0
  0
BLOCK_RECORD
  5
877
330
1
100
AcDbSymbolTableRecord
100
AcDbBlockTableRecord
  2
*D12
340
0
  0
BLOCK_RECORD
  5
96A
330
1
100
AcDbSymbolTableRecord
100
AcDbBlockTableRecord
  2
*D13
340
0
  0
BLOCK_RECORD
  5
A68
330
1
100
AcDbSymbolTableRecord
100
AcDbBlockTableRecord
  2
*D14
340
0
  0
BLOCK_RECORD
  5
B66
330
1
100
AcDbSymbolTableRecord
100
AcDbBlockTableRecord
  2
*D15
340
0
  0
ENDTAB
  0
ENDSEC
  0
SECTION
  2
BLOCKS
  0
BLOCK
  5
6D
330
6C
100
AcDbEntity
  8
0
100
AcDbBlockBegin
  2
*Model_Space
 70
     0
 10
0.0
 20
0.0
 30
0.0
  3
*Model_Space
  1

  0
ENDBLK
  5
6E
330
6C
100
AcDbEntity
  8
0
100
AcDbBlockEnd
  0
BLOCK
  5
69
330
68
100
AcDbEntity
 67
     1
  8
0
100
AcDbBlockBegin
  2
*Paper_Space
 70
     0
 10
0.0
 20
0.0
 30
0.0
  3
*Paper_Space
  1

  0
ENDBLK
  5
6A
330
68
100
AcDbEntity
 67
     1
  8
0
100
AcDbBlockEnd
  0
BLOCK
  5
71
330
70
100
AcDbEntity
 67
     1
  8
0
100
AcDbBlockBegin
  2
*Paper_Space0
 70
     0
 10
0.0
 20
0.0
 30
0.0
  3
*Paper_Space0
  1

  0
ENDBLK
  5
72
330
70
100
AcDbEntity
 67
     1
  8
0
100
AcDbBlockEnd
  0
BLOCK
  5
EA
330
E5
100
AcDbEntity
  8
0
100
AcDbBlockBegin
  2
_Closed
 70
     0
 10
0.0
 20
0.0
 30
0.0
  3
_Closed
  1

  0
LINE
  5
E6
330
E5
100
AcDbEntity
  8
0
  6
ByBlock
 62
     0
370
    -2
100
AcDbLine
 10
-1.0
 20
0.1666666666666666
 30
0.0
 11
0.0
 21
0.0
 31
0.0
  0
LINE
  5
E7
330
E5
100
AcDbEntity
  8
0
  6
ByBlock
 62
     0
370
    -2
100
AcDbLine
 10
0.0
 20
0.0
 30
0.0
 11
-1.0
 21
-0.1666666666666666
 31
0.0
  0
LINE
  5
E8
330
E5
100
AcDbEntity
  8
0
  6
ByBlock
 62
     0
370
    -2
100
AcDbLine
 10
-1.0
 20
0.1666666666666666
 30
0.0
 11
-1.0
 21
-0.1666666666666666
 31
0.0
  0
LINE
  5
E9
330
E5
100
AcDbEntity
  8
0
  6
ByBlock
 62
     0
370
    -2
100
AcDbLine
 10
0.0
 20
0.0
 30
0.0
 11
-1.0
 21
0.0
 31
0.0
  0
ENDBLK
  5
EB
330
E5
100
AcDbEntity
  8
0
100
AcDbBlockEnd
  0
BLOCK
  5
ED
330
EC
100
AcDbEntity
  8
0
100
AcDbBlockBegin
  2
DatumFilled45
 70
     0
 10
0.0
 20
0.0
 30
0.0
  3
DatumFilled45
  1

  0
POLYLINE
  5
EF
330
EC
100
AcDbEntity
  8
0
 62
     0
100
AcDb2dPolyline
 66
     1
 10
0.0
 20
0.0
 30
0.0
 70
   128
  0
VERTEX
  5
F0
330
EF
100
AcDbEntity
  8
0
 62
     0
100
AcDbVertex
100
AcDb2dVertex
 10
0.0
 20
0.9999999999999998
 30
0.0
  0
VERTEX
  5
F1
330
EF
100
AcDbEntity
  8
0
 62
     0
100
AcDbVertex
100
AcDb2dVertex
 10
0.0
 20
-0.9999999999999998
 30
0.0
  0
VERTEX
  5
F3
330
EF
100
AcDbEntity
  8
0
 62
     0
100
AcDbVertex
100
AcDb2dVertex
 10
-0.9999999999999998
 20
0.0
 30
0.0
  0
VERTEX
  5
F4
330
EF
100
AcDbEntity
  8
0
 62
     0
100
AcDbVertex
100
AcDb2dVertex
 10
0.0
 20
0.9999999999999998
 30
0.0
  0
SEQEND
  5
F2
330
EF
100
AcDbEntity
  8
0
 62
     0
  0
SOLID
  5
F6
330
EC
100
AcDbEntity
  8
0
 62
     0
100
AcDbTrace
 10
0.0
 20
0.9999999999999998
 30
0.0
 11
0.0
 21
-0.9999999999999998
 31
0.0
 12
-0.9999999999999998
 22
0.0
 32
0.0
 13
0.0
 23
0.9999999999999998
 33
0.0
  0
ENDBLK
  5
EE
330
EC
100
AcDbEntity
  8
0
100
AcDbBlockEnd
  0
BLOCK
  5
F9
330
F8
100
AcDbEntity
  8
0
100
AcDbBlockBegin
  2
Filled-1
 70
     0
 10
0.0
 20
0.0
 30
0.0
  3
Filled-1
  1

  0
LINE
  5
FB
330
F8
100
AcDbEntity
  8
0
 62
     0
100
AcDbLine
 10
-0.9999999999999998
 20
0.0
 30
0.0
 11
0.0
 21
0.0
 31
0.0
  0
POLYLINE
  5
FC
330
F8
100
AcDbEntity
  8
0
 62
     0
100
AcDb2dPolyline
 66
     1
 10
0.0
 20
0.0
 30
0.0
 70
   128
  0
VERTEX
  5
FD
330
FC
100
AcDbEntity
  8
0
 62
     0
100
AcDbVertex
100
AcDb2dVertex
 10
-0.9999999999999998
 20
-0.0994897959183674
 30
0.0
  0
VERTEX
  5
FE
330
FC
100
AcDbEntity
  8
0
 62
     0
100
AcDbVertex
100
AcDb2dVertex
 10
0.0
 20
0.0
 30
0.0
  0
VERTEX
  5
100
330
FC
100
AcDbEntity
  8
0
 62
     0
100
AcDbVertex
100
AcDb2dVertex
 10
-0.9999999999999998
 20
0.0994897959183674
 30
0.0
  0
VERTEX
  5
101
330
FC
100
AcDbEntity
  8
0
 62
     0
100
AcDbVertex
100
AcDb2dVertex
 10
-0.9999999999999998
 20
-0.0994897959183674
 30
0.0
  0
SEQEND
  5
FF
330
FC
100
AcDbEntity
  8
0
 62
     0
  0
SOLID
  5
102
330
F8
100
AcDbEntity
  8
0
 62
     0
100
AcDbTrace
 10
-0.9999999999999998
 20
-0.0994897959183674
 30
0.0
 11
0.0
 21
0.0
 31
0.0
 12
-0.9999999999999998
 22
0.0994897959183674
 32
0.0
 13
-0.9999999999999998
 23
-0.0994897959183674
 33
0.0
  0
LINE
  5
103
330
F8
100
AcDbEntity
  8
0
 62
     0
100
AcDbLine
 10
-0.9999999999999998
 20
-0.0994897959183674
 30
0.0
 11
0.0
 21
0.0
 31
0.0
  0
LINE
  5
104
330
F8
100
AcDbEntity
  8
0
 62
     0
100
AcDbLine
 10
0.0
 20
0.0
 30
0.0
 11
-0.9999999999999998
 21
0.0994897959183674
 31
0.0
  0
LINE
  5
105
330
F8
100
AcDbEntity
  8
0
 62
     0
100
AcDbLine
 10
-0.9999999999999998
 20
0.0994897959183674
 30
0.0
 11
-0.9999999999999998
 21
-0.0994897959183674
 31
0.0
  0
ENDBLK
  5
FA
330
F8
100
AcDbEntity
  8
0
100
AcDbBlockEnd
  0
BLOCK
  5
154
330
153
100
AcDbEntity
  8
0
100
AcDbBlockBegin
  2
*D4
 70
     1
 10
0.0
 20
0.0
 30
0.0
  3
*D4
  1

  0
LINE
  5
233
330
153
100
AcDbEntity
  8
Dimension (ANSI)
100
AcDbLine
 10
4.802374780957562
 20
16.73929197856789
 30
0.0
 11
4.802374780957562
 21
19.5414573328986
 31
0.0
  0
LINE
  5
234
330
153
100
AcDbEntity
  8
Dimension (ANSI)
100
AcDbLine
 10
15.00237478095756
 20
16.73929197856789
 30
0.0
 11
15.00237478095756
 21
19.5414573328986
 31
0.0
  0
LINE
  5
235
330
153
100
AcDbEntity
  8
Dimension (ANSI)
100
AcDbLine
 10
4.999225170199734
 20
19.2914573328986
 30
0.0
 11
9.358430266854181
 21
19.2914573328986
 31
0.0
  0
LINE
  5
236
330
153
100
AcDbEntity
  8
Dimension (ANSI)
100
AcDbLine
 10
14.80552439171539
 20
19.2914573328986
 30
0.0
 11
10.44631929506094
 21
19.2914573328986
 31
0.0
  0
SOLID
  5
237
330
153
100
AcDbEntity
  8
Dimension (ANSI)
100
AcDbTrace
 10
4.999225170199734
 20
19.32426573110562
 30
0.0
 11
4.999225170199734
 21
19.25864893469157
 31
0.0
 12
4.802374780957562
 22
19.2914573328986
 32
0.0
 13
4.802374780957562
 23
19.2914573328986
 33
0.0
  0
SOLID
  5
238
330
153
100
AcDbEntity
  8
Dimension (ANSI)
100
AcDbTrace
 10
14.80552439171539
 20
19.32426573110562
 30
0.0
 11
14.80552439171539
 21
19.25864893469157
 31
0.0
 12
15.00237478095756
 22
19.2914573328986
 32
0.0
 13
15.00237478095756
 23
19.2914573328986
 33
0.0
  0
MTEXT
  5
239
330
153
100
AcDbEntity
  8
Dimension (ANSI)
100
AcDbMText
 10
9.421422392838433
 20
19.39145733438871
 30
0.0
 40
0.2000000029802322
 41
0.0
 71
     1
 72
     1
  1
\A1;10.200
  7
ROMANS
 73
     1
 44
1.0
1001
ACAD
1000
MTEXTBEGIN
1070
    73
1070
     1
1070
    44
1040
1.0
1070
    74
1070
     0
1000
MTEXTEND
  0
POINT
  5
23A
330
153
100
AcDbEntity
  8
Defpoints
 62
     0
100
AcDbPoint
 10
4.802374780957562
 20
16.61429197856789
 30
0.0
  0
POINT
  5
23B
330
153
100
AcDbEntity
  8
Defpoints
 62
     0
100
AcDbPoint
 10
15.00237478095756
 20
16.61429197856789
 30
0.0
  0
POINT
  5
23C
330
153
100
AcDbEntity
  8
Defpoints
 62
     0
100
AcDbPoint
 10
15.00237478095756
 20
19.2914573328986
 30
0.0
  0
ENDBLK
  5
155
330
153
100
AcDbEntity
  8
0
100
AcDbBlockEnd
  0
BLOCK
  5
23F
330
23E
100
AcDbEntity
  8
0
100
AcDbBlockBegin
  2
*D5
 70
     1
 10
0.0
 20
0.0
 30
0.0
  3
*D5
  1

  0
LINE
  5
31D
330
23E
100
AcDbEntity
  8
Dimension (ANSI)
100
AcDbLine
 10
5.302374780957562
 20
17.23929197856788
 30
0.0
 11
5.302374780957562
 21
19.09657544313482
 31
0.0
  0
LINE
  5
31E
330
23E
100
AcDbEntity
  8
Dimension (ANSI)
100
AcDbLine
 10
14.50237478095757
 20
17.23929197856789
 30
0.0
 11
14.50237478095757
 21
19.09657544313482
 31
0.0
  0
LINE
  5
31F
330
23E
100
AcDbEntity
  8
Dimension (ANSI)
100
AcDbLine
 10
5.499225170199734
 20
18.84657544313482
 30
0.0
 11
9.034620738219517
 21
18.84657544313482
 31
0.0
  0
LINE
  5
320
330
23E
100
AcDbEntity
  8
Dimension (ANSI)
100
AcDbLine
 10
14.30552439171539
 20
18.84657544313482
 30
0.0
 11
10.7701288236956
 21
18.84657544313482
 31
0.0
  0
SOLID
  5
321
330
23E
100
AcDbEntity
  8
Dimension (ANSI)
100
AcDbTrace
 10
5.499225170199734
 20
18.87938384134184
 30
0.0
 11
5.499225170199734
 21
18.81376704492779
 31
0.0
 12
5.302374780957562
 22
18.84657544313482
 32
0.0
 13
5.302374780957562
 23
18.84657544313482
 33
0.0
  0
SOLID
  5
322
330
23E
100
AcDbEntity
  8
Dimension (ANSI)
100
AcDbTrace
 10
14.30552439171539
 20
18.87938384134184
 30
0.0
 11
14.30552439171539
 21
18.81376704492779
 31
0.0
 12
14.50237478095757
 22
18.84657544313482
 32
0.0
 13
14.50237478095757
 23
18.84657544313482
 33
0.0
  0
MTEXT
  5
323
330
23E
100
AcDbEntity
  8
Dimension (ANSI)
100
AcDbMText
 10
9.902374780957561
 20
18.84657544313482
 30
0.0
 40
0.2000000029802322
 41
0.0
 71
     5
 72
     1
  1
\A1;9.200{ TYP.}
  7
ROMANS
 73
     1
 44
1.0
1001
ACAD
1000
MTEXTBEGIN
1070
    73
1070
     1
1070
    44
1040
1.0
1070
    74
1070
     0
1000
MTEXTEND
  0
POINT
  5
324
330
23E
100
AcDbEntity
  8
Defpoints
 62
     0
100
AcDbPoint
 10
5.302374780957562
 20
17.11429197856789
 30
0.0
  0
POINT
  5
325
330
23E
100
AcDbEntity
  8
Defpoints
 62
     0
100
AcDbPoint
 10
14.50237478095757
 20
17.11429197856789
 30
0.0
  0
POINT
  5
326
330
23E
100
AcDbEntity
  8
Defpoints
 62
     0
100
AcDbPoint
 10
14.50237478095757
 20
18.84657544313482
 30
0.0
  0
ENDBLK
  5
240
330
23E
100
AcDbEntity
  8
0
100
AcDbBlockEnd
  0
BLOCK
  5
329
330
328
100
AcDbEntity
  8
0
100
AcDbBlockBegin
  2
*D6
 70
     1
 10
0.0
 20
0.0
 30
0.0
  3
*D6
  1

  0
LINE
  5
41B
330
328
100
AcDbEntity
  8
Dimension (ANSI)
100
AcDbLine
 10
4.802374780957562
 20
16.73929197856789
 30
0.0
 11
4.802374780957562
 21
19.09657544313482
 31
0.0
  0
LINE
  5
41C
330
328
100
AcDbEntity
  8
Dimension (ANSI)
100
AcDbLine
 10
5.302374780957562
 20
17.23929197856788
 30
0.0
 11
5.302374780957562
 21
19.09657544313482
 31
0.0
  0
LINE
  5
41D
330
328
100
AcDbEntity
  8
Dimension (ANSI)
100
AcDbLine
 10
5.499225170199734
 20
18.84657544313482
 30
0.0
 11
5.696075559441906
 21
18.84657544313482
 31
0.0
  0
LINE
  5
41E
330
328
100
AcDbEntity
  8
Dimension (ANSI)
100
AcDbLine
 10
4.605524391715389
 20
18.84657544313482
 30
0.0
 11
4.041339830775247
 21
18.84657544313482
 31
0.0
  0
SOLID
  5
41F
330
328
100
AcDbEntity
  8
Dimension (ANSI)
100
AcDbTrace
 10
5.499225170199734
 20
18.87938384134184
 30
0.0
 11
5.499225170199734
 21
18.81376704492779
 31
0.0
 12
5.302374780957562
 22
18.84657544313482
 32
0.0
 13
5.302374780957562
 23
18.84657544313482
 33
0.0
  0
SOLID
  5
420
330
328
100
AcDbEntity
  8
Dimension (ANSI)
100
AcDbTrace
 10
4.605524391715389
 20
18.87938384134184
 30
0.0
 11
4.605524391715389
 21
18.81376704492779
 31
0.0
 12
4.802374780957562
 22
18.84657544313482
 32
0.0
 13
4.802374780957562
 23
18.84657544313482
 33
0.0
  0
MTEXT
  5
421
330
328
100
AcDbEntity
  8
Dimension (ANSI)
100
AcDbMText
 10
3.578347698830531
 20
18.84657544313482
 30
0.0
 40
0.2000000029802322
 41
0.0
 71
     5
 72
     1
  1
\A1;0.500{\PTYP.}
  7
ROMANS
 73
     1
 44
1.0
1001
ACAD
1000
MTEXTBEGIN
1070
    73
1070
     1
1070
    44
1040
1.0
1070
    74
1070
     0
1000
MTEXTEND
  0
POINT
  5
422
330
328
100
AcDbEntity
  8
Defpoints
 62
     0
100
AcDbPoint
 10
4.802374780957562
 20
16.61429197856789
 30
0.0
  0
POINT
  5
423
330
328
100
AcDbEntity
  8
Defpoints
 62
     0
100
AcDbPoint
 10
5.302374780957562
 20
17.11429197856789
 30
0.0
  0
POINT
  5
424
330
328
100
AcDbEntity
  8
Defpoints
 62
     0
100
AcDbPoint
 10
5.302374780957562
 20
18.84657544313482
 30
0.0
  0
ENDBLK
  5
32A
330
328
100
AcDbEntity
  8
0
100
AcDbBlockEnd
  0
BLOCK
  5
427
330
426
100
AcDbEntity
  8
0
100
AcDbBlockBegin
  2
*D7
 70
     1
 10
0.0
 20
0.0
 30
0.0
  3
*D7
  1

  0
LINE
  5
505
330
426
100
AcDbEntity
  8
Dimension (ANSI)
100
AcDbLine
 10
5.177374780957562
 20
17.11429197856789
 30
0.0
 11
1.902768481744969
 21
17.11429197856789
 31
0.0
  0
LINE
  5
506
330
426
100
AcDbEntity
  8
Dimension (ANSI)
100
AcDbLine
 10
5.177374780957564
 20
6.914291978567891
 30
0.0
 11
1.902768481744966
 21
6.914291978567892
 31
0.0
  0
LINE
  5
507
330
426
100
AcDbEntity
  8
Dimension (ANSI)
100
AcDbLine
 10
2.152768481744968
 20
16.91744158932571
 30
0.0
 11
2.152768481744967
 21
12.17728410604226
 31
0.0
  0
LINE
  5
508
330
426
100
AcDbEntity
  8
Dimension (ANSI)
100
AcDbLine
 10
2.152768481744967
 20
7.111142367810063
 30
0.0
 11
2.152768481744967
 21
11.85129985109352
 31
0.0
  0
SOLID
  5
509
330
426
100
AcDbEntity
  8
Dimension (ANSI)
100
AcDbTrace
 10
2.119960083537939
 20
16.91744158932571
 30
0.0
 11
2.185576879951997
 21
16.91744158932571
 31
0.0
 12
2.152768481744969
 22
17.11429197856789
 32
0.0
 13
2.152768481744969
 23
17.11429197856789
 33
0.0
  0
SOLID
  5
50A
330
426
100
AcDbEntity
  8
Dimension (ANSI)
100
AcDbTrace
 10
2.119960083537938
 20
7.111142367810063
 30
0.0
 11
2.185576879951995
 21
7.111142367810063
 31
0.0
 12
2.152768481744966
 22
6.914291978567891
 32
0.0
 13
2.152768481744966
 23
6.914291978567891
 33
0.0
  0
MTEXT
  5
50B
330
426
100
AcDbEntity
  8
Dimension (ANSI)
100
AcDbMText
 10
1.671816093625836
 20
12.114291980058
 30
0.0
 40
0.2000000029802322
 41
0.0
 71
     1
 72
     1
  1
\A1;10.200
  7
ROMANS
 73
     1
 44
1.0
1001
ACAD
1000
MTEXTBEGIN
1070
    73
1070
     1
1070
    44
1040
1.0
1070
    74
1070
     0
1000
MTEXTEND
  0
POINT
  5
50C
330
426
100
AcDbEntity
  8
Defpoints
 62
     0
100
AcDbPoint
 10
5.302374780957562
 20
17.11429197856789
 30
0.0
  0
POINT
  5
50D
330
426
100
AcDbEntity
  8
Defpoints
 62
     0
100
AcDbPoint
 10
5.302374780957564
 20
6.914291978567891
 30
0.0
  0
POINT
  5
50E
330
426
100
AcDbEntity
  8
Defpoints
 62
     0
100
AcDbPoint
 10
2.152768481744966
 20
6.914291978567891
 30
0.0
  0
ENDBLK
  5
428
330
426
100
AcDbEntity
  8
0
100
AcDbBlockEnd
  0
BLOCK
  5
511
330
510
100
AcDbEntity
  8
0
100
AcDbBlockBegin
  2
*D8
 70
     1
 10
0.0
 20
0.0
 30
0.0
  3
*D8
  1

  0
LINE
  5
603
330
510
100
AcDbEntity
  8
Dimension (ANSI)
100
AcDbLine
 10
4.677374780957564
 20
7.41429197856789
 30
0.0
 11
3.292532261272526
 21
7.41429197856789
 31
0.0
  0
LINE
  5
604
330
510
100
AcDbEntity
  8
Dimension (ANSI)
100
AcDbLine
 10
4.677374780957562
 20
16.61429197856789
 30
0.0
 11
3.292532261272528
 21
16.61429197856789
 31
0.0
  0
LINE
  5
605
330
510
100
AcDbEntity
  8
Dimension (ANSI)
100
AcDbLine
 10
3.542532261272526
 20
7.611142367810062
 30
0.0
 11
3.542532261272527
 21
11.68463318194333
 31
0.0
  0
LINE
  5
606
330
510
100
AcDbEntity
  8
Dimension (ANSI)
100
AcDbLine
 10
3.542532261272528
 20
16.41744158932572
 30
0.0
 11
3.542532261272527
 21
12.34395077519245
 31
0.0
  0
SOLID
  5
607
330
510
100
AcDbEntity
  8
Dimension (ANSI)
100
AcDbTrace
 10
3.509723863065497
 20
7.611142367810062
 30
0.0
 11
3.575340659479555
 21
7.611142367810062
 31
0.0
 12
3.542532261272526
 22
7.41429197856789
 32
0.0
 13
3.542532261272526
 23
7.41429197856789
 33
0.0
  0
SOLID
  5
608
330
510
100
AcDbEntity
  8
Dimension (ANSI)
100
AcDbTrace
 10
3.509723863065499
 20
16.41744158932572
 30
0.0
 11
3.575340659479557
 21
16.41744158932572
 31
0.0
 12
3.542532261272528
 22
16.61429197856789
 32
0.0
 13
3.542532261272528
 23
16.61429197856789
 33
0.0
  0
MTEXT
  5
609
330
510
100
AcDbEntity
  8
Dimension (ANSI)
100
AcDbMText
 10
3.542532261272525
 20
12.01429197856789
 30
0.0
 40
0.2000000029802322
 41
0.0
 71
     5
 72
     1
  1
\A1;9.200{\PTYP.}
  7
ROMANS
 73
     1
 44
1.0
1001
ACAD
1000
MTEXTBEGIN
1070
    73
1070
     1
1070
    44
1040
1.0
1070
    74
1070
     0
1000
MTEXTEND
  0
POINT
  5
60A
330
510
100
AcDbEntity
  8
Defpoints
 62
     0
100
AcDbPoint
 10
4.802374780957564
 20
7.41429197856789
 30
0.0
  0
POINT
  5
60B
330
510
100
AcDbEntity
  8
Defpoints
 62
     0
100
AcDbPoint
 10
4.802374780957562
 20
16.61429197856789
 30
0.0
  0
POINT
  5
60C
330
510
100
AcDbEntity
  8
Defpoints
 62
     0
100
AcDbPoint
 10
3.542532261272528
 20
16.61429197856789
 30
0.0
  0
ENDBLK
  5
512
330
510
100
AcDbEntity
  8
0
100
AcDbBlockEnd
  0
BLOCK
  5
60F
330
60E
100
AcDbEntity
  8
0
100
AcDbBlockBegin
  2
*D9
 70
     1
 10
0.0
 20
0.0
 30
0.0
  3
*D9
  1

  0
LINE
  5
718
330
60E
100
AcDbEntity
  8
Dimension (ANSI)
100
AcDbLine
 10
5.177374780957562
 20
17.11429197856789
 30
0.0
 11
2.63268974008564
 21
17.11429197856789
 31
0.0
  0
LINE
  5
719
330
60E
100
AcDbEntity
  8
Dimension (ANSI)
100
AcDbLine
 10
4.677374780957562
 20
16.61429197856789
 30
0.0
 11
2.632689740085639
 21
16.61429197856789
 31
0.0
  0
LINE
  5
71A
330
60E
100
AcDbEntity
  8
Dimension (ANSI)
100
AcDbLine
 10
2.882689740085639
 20
16.41744158932572
 30
0.0
 11
2.882689740085639
 21
16.22059120008354
 31
0.0
  0
LINE
  5
71B
330
60E
100
AcDbEntity
  8
Dimension (ANSI)
100
AcDbLine
 10
2.88268974008564
 20
17.31114236781006
 30
0.0
 11
2.88268974008564
 21
17.88410439441775
 31
0.0
  0
LINE
  5
71C
330
60E
100
AcDbEntity
  8
Dimension (ANSI)
100
AcDbLine
 10
2.88268974008564
 20
17.88410439441775
 30
0.0
 11
3.079540129327812
 21
17.88410439441775
 31
0.0
  0
SOLID
  5
71D
330
60E
100
AcDbEntity
  8
Dimension (ANSI)
100
AcDbTrace
 10
2.84988134187861
 20
16.41744158932572
 30
0.0
 11
2.915498138292668
 21
16.41744158932572
 31
0.0
 12
2.882689740085639
 22
16.61429197856789
 32
0.0
 13
2.882689740085639
 23
16.61429197856789
 33
0.0
  0
SOLID
  5
71E
330
60E
100
AcDbEntity
  8
Dimension (ANSI)
100
AcDbTrace
 10
2.849881341878611
 20
17.31114236781006
 30
0.0
 11
2.915498138292669
 21
17.31114236781006
 31
0.0
 12
2.88268974008564
 22
17.11429197856789
 32
0.0
 13
2.88268974008564
 23
17.11429197856789
 33
0.0
  0
MTEXT
  5
71F
330
60E
100
AcDbEntity
  8
Dimension (ANSI)
100
AcDbMText
 10
3.542532261272525
 20
17.88410439441775
 30
0.0
 40
0.2000000029802322
 41
0.0
 71
     5
 72
     1
  1
\A1;0.500{\PTYP.}
  7
ROMANS
 73
     1
 44
1.0
1001
ACAD
1000
MTEXTBEGIN
1070
    73
1070
     1
1070
    44
1040
1.0
1070
    74
1070
     0
1000
MTEXTEND
  0
POINT
  5
720
330
60E
100
AcDbEntity
  8
Defpoints
 62
     0
100
AcDbPoint
 10
5.302374780957562
 20
17.11429197856789
 30
0.0
  0
POINT
  5
721
330
60E
100
AcDbEntity
  8
Defpoints
 62
     0
100
AcDbPoint
 10
4.802374780957562
 20
16.61429197856789
 30
0.0
  0
POINT
  5
722
330
60E
100
AcDbEntity
  8
Defpoints
 62
     0
100
AcDbPoint
 10
2.882689740085639
 20
16.61429197856789
 30
0.0
  0
ENDBLK
  5
610
330
60E
100
AcDbEntity
  8
0
100
AcDbBlockEnd
  0
BLOCK
  5
725
330
724
100
AcDbEntity
  8
0
100
AcDbBlockBegin
  2
*D10
 70
     1
 10
0.0
 20
0.0
 30
0.0
  3
*D10
  1

  0
LINE
  5
7C5
330
724
100
AcDbEntity
  8
Dimension (ANSI)
100
AcDbLine
 10
7.364679496060633
 20
5.716007511018381
 30
0.0
 11
7.040659248507576
 21
5.716007511018382
 31
0.0
  0
LINE
  5
7C6
330
724
100
AcDbEntity
  8
Dimension (ANSI)
100
AcDbLine
 10
7.040659248507576
 20
5.716007511018382
 30
0.0
 11
5.638345721366601
 21
7.118321038158948
 31
0.0
  0
MTEXT
  5
7C7
102
{ACAD_XDICTIONARY
360
CBB
102
}
330
724
100
AcDbEntity
  8
Dimension (ANSI)
100
AcDbMText
 10
7.427671622044886
 20
5.868388465669986
 30
0.0
 40
0.2000000029802322
 41
0.0
 71
     1
 72
     1
  1
\A1;\U+22050.500{ TYP. (4 PL.)}
  7
ROMANS
 73
     1
 44
1.0
1001
ACAD
1000
MTEXTBEGIN
1070
    73
1070
     1
1070
    44
1040
1.0
1070
    74
1070
     0
1000
MTEXTEND
  0
SOLID
  5
7C8
330
724
100
AcDbEntity
  8
Dimension (ANSI)
100
AcDbTrace
 10
5.661544762218656
 20
7.14152007901101
 30
0.0
 11
5.615146680514545
 21
7.095121997306885
 31
0.0
 12
5.499151476254229
 22
7.257515283271279
 32
0.0
 13
5.499151476254229
 23
7.257515283271279
 33
0.0
  0
LINE
  5
7C9
330
724
100
AcDbEntity
  8
Dimension (ANSI)
100
AcDbLine
 10
5.142374780957565
 20
7.43429197856789
 30
0.0
 11
5.502374780957565
 21
7.43429197856789
 31
0.0
  0
LINE
  5
7CA
330
724
100
AcDbEntity
  8
Dimension (ANSI)
100
AcDbLine
 10
5.322374780957566
 20
7.25429197856789
 30
0.0
 11
5.322374780957565
 21
7.614291978567891
 31
0.0
  0
POINT
  5
7CB
330
724
100
AcDbEntity
  8
Defpoints
 62
     0
100
AcDbPoint
 10
5.499151476254229
 20
7.257515283271279
 30
0.0
  0
POINT
  5
7CC
330
724
100
AcDbEntity
  8
Defpoints
 62
     0
100
AcDbPoint
 10
5.145598085660902
 20
7.611068673864503
 30
0.0
  0
ENDBLK
  5
726
330
724
100
AcDbEntity
  8
0
100
AcDbBlockEnd
  0
BLOCK
  5
7CF
330
7CE
100
AcDbEntity
  8
0
100
AcDbBlockBegin
  2
*D11
 70
     1
 10
0.0
 20
0.0
 30
0.0
  3
*D11
  1

  0
LINE
  5
86E
330
7CE
100
AcDbEntity
  8
Dimension (ANSI)
100
AcDbLine
 10
7.48213541786451
 20
6.348551589214556
 30
0.0
 11
7.158115170311446
 21
6.348551589214556
 31
0.0
  0
LINE
  5
86F
330
7CE
100
AcDbEntity
  8
Dimension (ANSI)
100
AcDbLine
 10
7.158115170311446
 20
6.348551589214556
 30
0.0
 11
5.57205446063035
 21
7.934612298895176
 31
0.0
  0
MTEXT
  5
870
102
{ACAD_XDICTIONARY
360
CBD
102
}
330
7CE
100
AcDbEntity
  8
Dimension (ANSI)
100
AcDbMText
 10
7.545127543848762
 20
6.500932543866162
 30
0.0
 40
0.2000000029802322
 41
0.0
 71
     1
 72
     1
  1
\A1;\U+22050.313{ TYP. (4 PL.)}
  7
ROMANS
 73
     1
 44
1.0
1001
ACAD
1000
MTEXTBEGIN
1070
    73
1070
     1
1070
    44
1040
1.0
1070
    74
1070
     0
1000
MTEXTEND
  0
SOLID
  5
871
330
7CE
100
AcDbEntity
  8
Dimension (ANSI)
100
AcDbTrace
 10
5.595253501482406
 20
7.957811339747239
 30
0.0
 11
5.548855419778295
 21
7.911413258043114
 31
0.0
 12
5.432860215517978
 22
8.073806544007506
 32
0.0
 13
5.432860215517978
 23
8.073806544007506
 33
0.0
  0
LINE
  5
872
330
7CE
100
AcDbEntity
  8
Dimension (ANSI)
100
AcDbLine
 10
5.142374780957562
 20
8.184291978567888
 30
0.0
 11
5.502374780957561
 21
8.184291978567888
 31
0.0
  0
LINE
  5
873
330
7CE
100
AcDbEntity
  8
Dimension (ANSI)
100
AcDbLine
 10
5.322374780957561
 20
8.004291978567886
 30
0.0
 11
5.322374780957563
 21
8.364291978567887
 31
0.0
  0
POINT
  5
874
330
7CE
100
AcDbEntity
  8
Defpoints
 62
     0
100
AcDbPoint
 10
5.432860215517978
 20
8.073806544007506
 30
0.0
  0
POINT
  5
875
330
7CE
100
AcDbEntity
  8
Defpoints
 62
     0
100
AcDbPoint
 10
5.211889346397147
 20
8.29477741312827
 30
0.0
  0
ENDBLK
  5
7D0
330
7CE
100
AcDbEntity
  8
0
100
AcDbBlockEnd
  0
BLOCK
  5
878
330
877
100
AcDbEntity
  8
0
100
AcDbBlockBegin
  2
*D12
 70
     1
 10
0.0
 20
0.0
 30
0.0
  3
*D12
  1

  0
LINE
  5
95F
330
877
100
AcDbEntity
  8
Dimension (ANSI)
100
AcDbLine
 10
14.62737478095756
 20
6.914291978567891
 30
0.0
 11
16.33023813827374
 21
6.914291978567891
 31
0.0
  0
LINE
  5
960
330
877
100
AcDbEntity
  8
Dimension (ANSI)
100
AcDbLine
 10
14.60737478095757
 20
7.434291978567891
 30
0.0
 11
16.33023813827374
 21
7.434291978567891
 31
0.0
  0
LINE
  5
961
330
877
100
AcDbEntity
  8
Dimension (ANSI)
100
AcDbLine
 10
16.08023813827374
 20
6.717441589325718
 30
0.0
 11
16.08023813827374
 21
6.520591200083546
 31
0.0
  0
LINE
  5
962
330
877
100
AcDbEntity
  8
Dimension (ANSI)
100
AcDbLine
 10
16.08023813827374
 20
7.631142367810063
 30
0.0
 11
16.08023813827374
 21
7.827992757052236
 31
0.0
  0
SOLID
  5
963
330
877
100
AcDbEntity
  8
Dimension (ANSI)
100
AcDbTrace
 10
16.04742974006671
 20
6.717441589325718
 30
0.0
 11
16.11304653648077
 21
6.717441589325718
 31
0.0
 12
16.08023813827374
 22
6.914291978567891
 32
0.0
 13
16.08023813827374
 23
6.914291978567891
 33
0.0
  0
SOLID
  5
964
330
877
100
AcDbEntity
  8
Dimension (ANSI)
100
AcDbTrace
 10
16.04742974006671
 20
7.631142367810063
 30
0.0
 11
16.11304653648077
 21
7.631142367810063
 31
0.0
 12
16.08023813827374
 22
7.434291978567891
 32
0.0
 13
16.08023813827374
 23
7.434291978567891
 33
0.0
  0
MTEXT
  5
965
330
877
100
AcDbEntity
  8
Dimension (ANSI)
100
AcDbMText
 10
15.27547622151995
 20
7.274291980058007
 30
0.0
 40
0.2000000029802322
 41
0.0
 71
     1
 72
     1
  1
\A1;0.520{ TYP.}
  7
ROMANS
 73
     1
 44
1.0
1001
ACAD
1000
MTEXTBEGIN
1070
    73
1070
     1
1070
    44
1040
1.0
1070
    74
1070
     0
1000
MTEXTEND
  0
POINT
  5
966
330
877
100
AcDbEntity
  8
Defpoints
 62
     0
100
AcDbPoint
 10
14.50237478095757
 20
6.914291978567891
 30
0.0
  0
POINT
  5
967
330
877
100
AcDbEntity
  8
Defpoints
 62
     0
100
AcDbPoint
 10
14.48237478095757
 20
7.434291978567891
 30
0.0
  0
POINT
  5
968
330
877
100
AcDbEntity
  8
Defpoints
 62
     0
100
AcDbPoint
 10
16.08023813827374
 20
7.434291978567891
 30
0.0
  0
ENDBLK
  5
879
330
877
100
AcDbEntity
  8
0
100
AcDbBlockEnd
  0
BLOCK
  5
96B
330
96A
100
AcDbEntity
  8
0
100
AcDbBlockBegin
  2
*D13
 70
     1
 10
0.0
 20
0.0
 30
0.0
  3
*D13
  1

  0
LINE
  5
A5D
330
96A
100
AcDbEntity
  8
Dimension (ANSI)
100
AcDbLine
 10
14.62737478095756
 20
6.914291978567891
 30
0.0
 11
17.5996558275027
 21
6.914291978567891
 31
0.0
  0
LINE
  5
A5E
330
96A
100
AcDbEntity
  8
Dimension (ANSI)
100
AcDbLine
 10
14.60737478095757
 20
8.184291978567889
 30
0.0
 11
17.59965582750271
 21
8.184291978567889
 31
0.0
  0
LINE
  5
A5F
330
96A
100
AcDbEntity
  8
Dimension (ANSI)
100
AcDbLine
 10
17.3496558275027
 20
7.111142367810063
 30
0.0
 11
17.3496558275027
 21
7.219633181943327
 31
0.0
  0
LINE
  5
A60
330
96A
100
AcDbEntity
  8
Dimension (ANSI)
100
AcDbLine
 10
17.3496558275027
 20
7.987441589325717
 30
0.0
 11
17.3496558275027
 21
7.878950775192449
 31
0.0
  0
SOLID
  5
A61
330
96A
100
AcDbEntity
  8
Dimension (ANSI)
100
AcDbTrace
 10
17.31684742929568
 20
7.111142367810063
 30
0.0
 11
17.38246422570973
 21
7.111142367810063
 31
0.0
 12
17.3496558275027
 22
6.914291978567891
 32
0.0
 13
17.3496558275027
 23
6.914291978567891
 33
0.0
  0
SOLID
  5
A62
330
96A
100
AcDbEntity
  8
Dimension (ANSI)
100
AcDbTrace
 10
17.31684742929568
 20
7.987441589325717
 30
0.0
 11
17.38246422570973
 21
7.987441589325717
 31
0.0
 12
17.34965582750271
 22
8.184291978567889
 32
0.0
 13
17.34965582750271
 23
8.184291978567889
 33
0.0
  0
MTEXT
  5
A63
330
96A
100
AcDbEntity
  8
Dimension (ANSI)
100
AcDbMText
 10
17.3496558275027
 20
7.54929197856789
 30
0.0
 40
0.2000000029802322
 41
0.0
 71
     5
 72
     1
  1
\A1;1.270{\PTYP.}
  7
ROMANS
 73
     1
 44
1.0
1001
ACAD
1000
MTEXTBEGIN
1070
    73
1070
     1
1070
    44
1040
1.0
1070
    74
1070
     0
1000
MTEXTEND
  0
POINT
  5
A64
330
96A
100
AcDbEntity
  8
Defpoints
 62
     0
100
AcDbPoint
 10
14.50237478095757
 20
6.914291978567891
 30
0.0
  0
POINT
  5
A65
330
96A
100
AcDbEntity
  8
Defpoints
 62
     0
100
AcDbPoint
 10
14.48237478095757
 20
8.184291978567889
 30
0.0
  0
POINT
  5
A66
330
96A
100
AcDbEntity
  8
Defpoints
 62
     0
100
AcDbPoint
 10
17.34965582750271
 20
8.184291978567889
 30
0.0
  0
ENDBLK
  5
96C
330
96A
100
AcDbEntity
  8
0
100
AcDbBlockEnd
  0
BLOCK
  5
A69
330
A68
100
AcDbEntity
  8
0
100
AcDbBlockBegin
  2
*D14
 70
     1
 10
0.0
 20
0.0
 30
0.0
  3
*D14
  1

  0
LINE
  5
B5B
330
A68
100
AcDbEntity
  8
Dimension (ANSI)
100
AcDbLine
 10
14.48237478095757
 20
8.059291978567889
 30
0.0
 11
14.48237478095757
 21
5.904449458882851
 31
0.0
  0
LINE
  5
B5C
330
A68
100
AcDbEntity
  8
Dimension (ANSI)
100
AcDbLine
 10
15.00237478095756
 20
7.28929197856789
 30
0.0
 11
15.00237478095756
 21
5.904449458882851
 31
0.0
  0
LINE
  5
B5D
330
A68
100
AcDbEntity
  8
Dimension (ANSI)
100
AcDbLine
 10
15.19922517019973
 20
6.154449458882851
 30
0.0
 11
15.39607555944191
 21
6.154449458882851
 31
0.0
  0
LINE
  5
B5E
330
A68
100
AcDbEntity
  8
Dimension (ANSI)
100
AcDbLine
 10
14.2855243917154
 20
6.154449458882851
 30
0.0
 11
14.08867400247322
 21
6.154449458882851
 31
0.0
  0
SOLID
  5
B5F
330
A68
100
AcDbEntity
  8
Dimension (ANSI)
100
AcDbTrace
 10
15.19922517019973
 20
6.187257857089879
 30
0.0
 11
15.19922517019973
 21
6.121641060675822
 31
0.0
 12
15.00237478095756
 22
6.154449458882851
 32
0.0
 13
15.00237478095756
 23
6.154449458882851
 33
0.0
  0
SOLID
  5
B60
330
A68
100
AcDbEntity
  8
Dimension (ANSI)
100
AcDbTrace
 10
14.2855243917154
 20
6.187257857089879
 30
0.0
 11
14.2855243917154
 21
6.121641060675822
 31
0.0
 12
14.48237478095757
 22
6.154449458882851
 32
0.0
 13
14.48237478095757
 23
6.154449458882851
 33
0.0
  0
MTEXT
  5
B61
330
A68
100
AcDbEntity
  8
Dimension (ANSI)
100
AcDbMText
 10
13.62568187052851
 20
6.154449458882851
 30
0.0
 40
0.2000000029802322
 41
0.0
 71
     5
 72
     1
  1
\A1;0.520{\PTYP.}
  7
ROMANS
 73
     1
 44
1.0
1001
ACAD
1000
MTEXTBEGIN
1070
    73
1070
     1
1070
    44
1040
1.0
1070
    74
1070
     0
1000
MTEXTEND
  0
POINT
  5
B62
330
A68
100
AcDbEntity
  8
Defpoints
 62
     0
100
AcDbPoint
 10
14.48237478095757
 20
8.184291978567889
 30
0.0
  0
POINT
  5
B63
330
A68
100
AcDbEntity
  8
Defpoints
 62
     0
100
AcDbPoint
 10
15.00237478095756
 20
7.41429197856789
 30
0.0
  0
POINT
  5
B64
330
A68
100
AcDbEntity
  8
Defpoints
 62
     0
100
AcDbPoint
 10
15.00237478095756
 20
6.154449458882851
 30
0.0
  0
ENDBLK
  5
A6A
330
A68
100
AcDbEntity
  8
0
100
AcDbBlockEnd
  0
BLOCK
  5
B67
330
B66
100
AcDbEntity
  8
0
100
AcDbBlockBegin
  2
*D15
 70
     1
 10
0.0
 20
0.0
 30
0.0
  3
*D15
  1

  0
LINE
  5
C56
330
B66
100
AcDbEntity
  8
Dimension (ANSI)
100
AcDbLine
 10
19.49562876321085
 20
12.32194990900624
 30
0.0
 11
19.29877837396868
 21
12.32194990900624
 31
0.0
  0
LINE
  5
C57
330
B66
100
AcDbEntity
  8
Dimension (ANSI)
100
AcDbLine
 10
19.9830795416952
 20
12.32194990900624
 30
0.0
 11
20.21580333255657
 21
12.32194990900624
 31
0.0
  0
SOLID
  5
C58
330
B66
100
AcDbEntity
  8
Dimension (ANSI)
100
AcDbTrace
 10
19.49562876321085
 20
12.35475830721326
 30
0.0
 11
19.49562876321085
 21
12.28914151079921
 31
0.0
 12
19.69247915245302
 22
12.32194990900624
 32
0.0
 13
19.69247915245302
 23
12.32194990900624
 33
0.0
  0
SOLID
  5
C59
330
B66
100
AcDbEntity
  8
Dimension (ANSI)
100
AcDbTrace
 10
19.9830795416952
 20
12.35475830721326
 30
0.0
 11
19.9830795416952
 21
12.28914151079921
 31
0.0
 12
19.78622915245302
 22
12.32194990900624
 32
0.0
 13
19.78622915245302
 23
12.32194990900624
 33
0.0
  0
MTEXT
  5
C5A
330
B66
100
AcDbEntity
  8
Dimension (ANSI)
100
AcDbMText
 10
20.80260499015572
 20
12.32194990900624
 30
0.0
 40
0.2000000029802322
 41
0.0
 71
     5
 72
     1
  1
\A1;(0.094){\P12 GA.\PGALV.}
  7
ROMANS
 73
     1
 44
1.0
1001
ACAD
1000
MTEXTBEGIN
1070
    73
1070
     1
1070
    44
1040
1.0
1070
    74
1070
     0
1000
MTEXTEND
  0
POINT
  5
C5B
330
B66
100
AcDbEntity
  8
Defpoints
 62
     0
100
AcDbPoint
 10
19.78622915245302
 20
12.64761465970009
 30
0.0
  0
POINT
  5
C5C
330
B66
100
AcDbEntity
  8
Defpoints
 62
     0
100
AcDbPoint
 10
19.69247915245302
 20
12.64761465970009
 30
0.0
  0
POINT
  5
C5D
330
B66
100
AcDbEntity
  8
Defpoints
 62
     0
100
AcDbPoint
 10
19.69247915245302
 20
12.32194990900624
 30
0.0
  0
ENDBLK
  5
B68
330
B66
100
AcDbEntity
  8
0
100
AcDbBlockEnd
  0
ENDSEC
  0
SECTION
  2
ENTITIES
  0
CIRCLE
  5
107
330
6C
100
AcDbEntity
  8
Visible (ANSI)
100
AcDbCircle
 10
14.48237478095757
 20
16.59429197856789
 30
0.0
 40
0.25
  0
CIRCLE
  5
108
330
6C
100
AcDbEntity
  8
Visible (ANSI)
100
AcDbCircle
 10
5.322374780957565
 20
16.59429197856789
 30
0.0
 40
0.25
  0
CIRCLE
  5
109
330
6C
100
AcDbEntity
  8
Visible (ANSI)
100
AcDbCircle
 10
5.322374780957565
 20
7.434291978567889
 30
0.0
 40
0.25
  0
CIRCLE
  5
10A
330
6C
100
AcDbEntity
  8
Visible (ANSI)
100
AcDbCircle
 10
14.48237478095757
 20
7.434291978567889
 30
0.0
 40
0.25
  0
CIRCLE
  5
10B
330
6C
100
AcDbEntity
  8
Visible (ANSI)
100
AcDbCircle
 10
14.48237478095757
 20
15.84429197856789
 30
0.0
 40
0.15625
  0
CIRCLE
  5
10C
330
6C
100
AcDbEntity
  8
Visible (ANSI)
100
AcDbCircle
 10
5.322374780957565
 20
15.84429197856789
 30
0.0
 40
0.15625
  0
CIRCLE
  5
10D
330
6C
100
AcDbEntity
  8
Visible (ANSI)
100
AcDbCircle
 10
5.322374780957564
 20
8.184291978567889
 30
0.0
 40
0.15625
  0
CIRCLE
  5
10E
330
6C
100
AcDbEntity
  8
Visible (ANSI)
100
AcDbCircle
 10
14.48237478095757
 20
8.184291978567889
 30
0.0
 40
0.15625
  0
LINE
  5
10F
330
6C
100
AcDbEntity
  8
Visible (ANSI)
100
AcDbLine
 10
4.802374780957562
 20
16.61429197856789
 30
0.0
 11
5.302374780957562
 21
17.11429197856789
 31
0.0
  0
LINE
  5
110
330
6C
100
AcDbEntity
  8
Visible (ANSI)
100
AcDbLine
 10
4.802374780957564
 20
7.41429197856789
 30
0.0
 11
4.802374780957562
 21
16.61429197856789
 31
0.0
  0
LINE
  5
111
330
6C
100
AcDbEntity
  8
Visible (ANSI)
100
AcDbLine
 10
14.50237478095757
 20
6.914291978567891
 30
0.0
 11
5.302374780957564
 21
6.914291978567891
 31
0.0
  0
LINE
  5
112
330
6C
100
AcDbEntity
  8
Visible (ANSI)
100
AcDbLine
 10
15.00237478095756
 20
16.61429197856789
 30
0.0
 11
15.00237478095756
 21
7.41429197856789
 31
0.0
  0
LINE
  5
113
330
6C
100
AcDbEntity
  8
Visible (ANSI)
100
AcDbLine
 10
5.302374780957562
 20
17.11429197856789
 30
0.0
 11
14.50237478095757
 21
17.11429197856789
 31
0.0
  0
LINE
  5
114
330
6C
100
AcDbEntity
  8
Visible (ANSI)
100
AcDbLine
 10
5.302374780957564
 20
6.914291978567891
 30
0.0
 11
4.802374780957564
 21
7.41429197856789
 31
0.0
  0
LINE
  5
115
330
6C
100
AcDbEntity
  8
Visible (ANSI)
100
AcDbLine
 10
15.00237478095756
 20
7.41429197856789
 30
0.0
 11
14.50237478095757
 21
6.914291978567891
 31
0.0
  0
LINE
  5
116
330
6C
100
AcDbEntity
  8
Visible (ANSI)
100
AcDbLine
 10
14.50237478095757
 20
17.11429197856789
 30
0.0
 11
15.00237478095756
 21
16.61429197856789
 31
0.0
  0
MTEXT
  5
118
330
6C
100
AcDbEntity
  8
Symbol (ANSI)
100
AcDbMText
 10
8.958722743423336
 20
3.9879016160274
 30
0.0
 40
0.2400000029661524
 41
0.0
 71
     7
 72
     1
  1
FRONT VIEW
  7
Text Style168
 73
     1
 44
1.0
1001
ACAD
1000
MTEXTBEGIN
1070
    73
1070
     1
1070
    44
1040
1.0
1070
    74
1070
     0
1000
MTEXTEND
  0
LINE
  5
11A
330
6C
100
AcDbEntity
  8
Symbol (ANSI)
370
    30
100
AcDbLine
 10
8.934722681686563
 20
3.938958341277619
 30
0.0
 11
10.86425269025792
 21
3.938958341277619
 31
0.0
  0
LINE
  5
11B
330
6C
100
AcDbEntity
  8
Visible (ANSI)
100
AcDbLine
 10
19.78622915245302
 20
16.61429197856789
 30
0.0
 11
19.78622915245287
 21
17.11429197856789
 31
0.0
  0
LINE
  5
11C
330
6C
100
AcDbEntity
  8
Visible (ANSI)
100
AcDbLine
 10
19.69247915245302
 20
16.61429197856789
 30
0.0
 11
19.78622915245302
 21
16.61429197856789
 31
0.0
  0
LINE
  5
11D
330
6C
100
AcDbEntity
  8
Visible (ANSI)
100
AcDbLine
 10
19.69247915245287
 20
17.11429197856789
 30
0.0
 11
19.69247915245302
 21
16.61429197856789
 31
0.0
  0
LINE
  5
11E
330
6C
100
AcDbEntity
  8
Visible (ANSI)
100
AcDbLine
 10
19.78622915245287
 20
17.11429197856789
 30
0.0
 11
19.69247915245287
 21
17.11429197856789
 31
0.0
  0
LINE
  5
11F
330
6C
100
AcDbEntity
  8
Visible (ANSI)
100
AcDbLine
 10
19.78622915245302
 20
7.41429197856789
 30
0.0
 11
19.78622915245302
 21
16.61429197856789
 31
0.0
  0
LINE
  5
120
330
6C
100
AcDbEntity
  8
Visible (ANSI)
100
AcDbLine
 10
19.69247915245302
 20
16.61429197856789
 30
0.0
 11
19.69247915245302
 21
7.41429197856789
 31
0.0
  0
LINE
  5
121
330
6C
100
AcDbEntity
  8
Visible (ANSI)
100
AcDbLine
 10
19.78622915245287
 20
6.914291978567891
 30
0.0
 11
19.78622915245302
 21
7.41429197856789
 31
0.0
  0
LINE
  5
122
330
6C
100
AcDbEntity
  8
Visible (ANSI)
100
AcDbLine
 10
19.69247915245287
 20
6.914291978567891
 30
0.0
 11
19.78622915245287
 21
6.914291978567891
 31
0.0
  0
LINE
  5
123
330
6C
100
AcDbEntity
  8
Visible (ANSI)
100
AcDbLine
 10
19.69247915245302
 20
7.41429197856789
 30
0.0
 11
19.69247915245287
 21
6.914291978567891
 31
0.0
  0
LINE
  5
124
330
6C
100
AcDbEntity
  8
Visible (ANSI)
100
AcDbLine
 10
19.78622915245302
 20
7.41429197856789
 30
0.0
 11
19.69247915245302
 21
7.41429197856789
 31
0.0
  0
LINE
  5
125
330
6C
100
AcDbEntity
  8
Hidden (ANSI)
 48
0.0891826525330544
100
AcDbLine
 10
19.69247915245287
 20
16.84429197856789
 30
0.0
 11
19.78622915245287
 21
16.84429197856789
 31
0.0
  0
LINE
  5
126
330
6C
100
AcDbEntity
  8
Hidden (ANSI)
 48
0.0891826525330544
100
AcDbLine
 10
19.69247915245287
 20
16.34429197856789
 30
0.0
 11
19.78622915245287
 21
16.34429197856789
 31
0.0
  0
LINE
  5
127
330
6C
100
AcDbEntity
  8
Hidden (ANSI)
 48
0.0891826525330544
100
AcDbLine
 10
19.69247915245287
 20
7.68429197856789
 30
0.0
 11
19.78622915245287
 21
7.68429197856789
 31
0.0
  0
LINE
  5
128
330
6C
100
AcDbEntity
  8
Hidden (ANSI)
 48
0.0891826525330544
100
AcDbLine
 10
19.69247915245287
 20
7.18429197856789
 30
0.0
 11
19.78622915245287
 21
7.18429197856789
 31
0.0
  0
LINE
  5
129
330
6C
100
AcDbEntity
  8
Hidden (ANSI)
 48
0.0891826525330544
100
AcDbLine
 10
19.69247915245287
 20
16.00054197856789
 30
0.0
 11
19.78622915245287
 21
16.00054197856789
 31
0.0
  0
LINE
  5
12A
330
6C
100
AcDbEntity
  8
Hidden (ANSI)
 48
0.0891826525330544
100
AcDbLine
 10
19.69247915245287
 20
15.68804197856789
 30
0.0
 11
19.78622915245287
 21
15.68804197856789
 31
0.0
  0
LINE
  5
12B
330
6C
100
AcDbEntity
  8
Hidden (ANSI)
 48
0.0891826525330544
100
AcDbLine
 10
19.69247915245287
 20
8.340541978567891
 30
0.0
 11
19.78622915245287
 21
8.340541978567891
 31
0.0
  0
LINE
  5
12C
330
6C
100
AcDbEntity
  8
Hidden (ANSI)
 48
0.0891826525330544
100
AcDbLine
 10
19.69247915245287
 20
8.028041978567891
 30
0.0
 11
19.78622915245287
 21
8.028041978567891
 31
0.0
  0
MTEXT
  5
12D
330
6C
100
AcDbEntity
  8
Symbol (ANSI)
100
AcDbMText
 10
18.93783126866992
 20
3.989457531553331
 30
0.0
 40
0.2400000029661524
 41
0.0
 71
     7
 72
     1
  1
SIDE VIEW
  7
Text Style168
 73
     1
 44
1.0
1001
ACAD
1000
MTEXTBEGIN
1070
    73
1070
     1
1070
    44
1040
1.0
1070
    74
1070
     0
1000
MTEXTEND
  0
LINE
  5
12E
330
6C
100
AcDbEntity
  8
Symbol (ANSI)
370
    30
100
AcDbLine
 10
18.92554323706069
 20
3.939736299223916
 30
0.0
 11
20.54739087787168
 21
3.939736299223916
 31
0.0
  0
ELLIPSE
  5
12F
330
6C
100
AcDbEntity
  8
Visible (ANSI)
100
AcDbEllipse
 10
31.55239489628957
 20
15.90057243563748
 30
0.0
 11
-0.0748548317376605
 21
0.1299875154217765
 31
0.0
210
0.0
220
0.0
230
1.0
 40
0.5780931159158129
 41
0.2678448778125646
 42
2.873747775777257
  0
ELLIPSE
  5
130
330
6C
100
AcDbEntity
  8
Visible (ANSI)
100
AcDbEllipse
 10
31.51262013984783
 20
15.87766767673665
 30
0.0
 11
-0.0748548317376605
 21
0.1299875154217763
 31
0.0
210
0.0
220
0.0
230
0.9999999999999998
 40
0.5780931159158129
 41
0.0
 42
6.283185307179586
  0
ELLIPSE
  5
131
330
6C
100
AcDbEntity
  8
Visible (ANSI)
100
AcDbEllipse
 10
27.66613602688772
 20
18.1385200786398
 30
0.0
 11
-0.0748548317376603
 21
0.1299875154217761
 31
0.0
210
0.0
220
0.0
230
1.0
 40
0.578093115915813
 41
0.267844877812565
 42
2.873747775777258
  0
ELLIPSE
  5
132
330
6C
100
AcDbEntity
  8
Visible (ANSI)
100
AcDbEllipse
 10
27.62636127044598
 20
18.11561531973898
 30
0.0
 11
-0.0748548317376605
 21
0.1299875154217763
 31
0.0
210
0.0
220
0.0
230
0.9999999999999998
 40
0.5780931159158129
 41
0.0
 42
6.283185307179586
  0
ELLIPSE
  5
133
330
6C
100
AcDbEntity
  8
Visible (ANSI)
100
AcDbEllipse
 10
27.66613602688772
 20
13.64528108050519
 30
0.0
 11
-0.0748548317376604
 21
0.1299875154217762
 31
0.0
210
0.0
220
0.0
230
1.0
 40
0.5780931159158131
 41
0.2678448778125645
 42
2.873747775777257
  0
ELLIPSE
  5
134
330
6C
100
AcDbEntity
  8
Visible (ANSI)
100
AcDbEllipse
 10
27.62636127044598
 20
13.62237632160437
 30
0.0
 11
-0.0748548317376605
 21
0.1299875154217763
 31
0.0
210
0.0
220
0.0
230
0.9999999999999998
 40
0.5780931159158129
 41
0.0
 42
6.283185307179586
  0
ELLIPSE
  5
135
330
6C
100
AcDbEntity
  8
Visible (ANSI)
100
AcDbEllipse
 10
31.55239489628956
 20
11.40733343750286
 30
0.0
 11
-0.0748548317376605
 21
0.1299875154217764
 31
0.0
210
0.0
220
0.0
230
1.0
 40
0.578093115915813
 41
0.2678448778125844
 42
2.873747775777257
  0
ELLIPSE
  5
136
330
6C
100
AcDbEntity
  8
Visible (ANSI)
100
AcDbEllipse
 10
31.51262013984782
 20
11.38442867860204
 30
0.0
 11
-0.0748548317376605
 21
0.1299875154217763
 31
0.0
210
0.0
220
0.0
230
0.9999999999999998
 40
0.5780931159158129
 41
0.0
 42
6.283185307179586
  0
ELLIPSE
  5
137
330
6C
100
AcDbEntity
  8
Visible (ANSI)
100
AcDbEllipse
 10
31.55239489628957
 20
15.53267622945833
 30
0.0
 11
0.0467842698360426
 21
-0.0812421971386073
 31
0.0
210
0.0
220
0.0
230
1.0
 40
0.5780931159158129
 41
3.578838513251657
 42
5.845939447516967
  0
ELLIPSE
  5
138
330
6C
100
AcDbEntity
  8
Visible (ANSI)
100
AcDbEllipse
 10
31.51262013984783
 20
15.50977147055751
 30
0.0
 11
-0.0467842698360378
 21
0.0812421971386102
 31
0.0
210
0.0
220
0.0
230
0.9999999999999998
 40
0.578093115915813
 41
0.0
 42
6.283185307179586
  0
ELLIPSE
  5
139
330
6C
100
AcDbEntity
  8
Visible (ANSI)
100
AcDbEllipse
 10
27.66613602688772
 20
17.77062387246066
 30
0.0
 11
0.0467842698360425
 21
-0.0812421971386071
 31
0.0
210
0.0
220
0.0
230
1.0
 40
0.5780931159158129
 41
3.578838513251588
 42
5.845939447516967
  0
ELLIPSE
  5
13A
330
6C
100
AcDbEntity
  8
Visible (ANSI)
100
AcDbEllipse
 10
27.62636127044598
 20
17.74771911355983
 30
0.0
 11
-0.0467842698360378
 21
0.0812421971386102
 31
0.0
210
0.0
220
0.0
230
0.9999999999999998
 40
0.578093115915813
 41
0.0
 42
6.283185307179586
  0
ELLIPSE
  5
13B
330
6C
100
AcDbEntity
  8
Visible (ANSI)
100
AcDbEllipse
 10
27.66613602688772
 20
14.01317728668433
 30
0.0
 11
0.0467842698360427
 21
-0.0812421971386074
 31
0.0
210
0.0
220
0.0
230
1.0
 40
0.5780931159158129
 41
3.578838513251657
 42
5.845939447516967
  0
ELLIPSE
  5
13C
330
6C
100
AcDbEntity
  8
Visible (ANSI)
100
AcDbEllipse
 10
27.62636127044598
 20
13.99027252778351
 30
0.0
 11
-0.0467842698360378
 21
0.0812421971386102
 31
0.0
210
0.0
220
0.0
230
0.9999999999999998
 40
0.578093115915813
 41
0.0
 42
6.283185307179586
  0
ELLIPSE
  5
13D
330
6C
100
AcDbEntity
  8
Visible (ANSI)
100
AcDbEllipse
 10
31.55239489628956
 20
11.77522964368201
 30
0.0
 11
0.0467842698360427
 21
-0.0812421971386075
 31
0.0
210
0.0
220
0.0
230
1.0
 40
0.578093115915813
 41
3.578838513251621
 42
5.84593944751696
  0
ELLIPSE
  5
13E
330
6C
100
AcDbEntity
  8
Visible (ANSI)
100
AcDbEllipse
 10
31.51262013984783
 20
11.75232488478119
 30
0.0
 11
-0.0467842698360378
 21
0.0812421971386102
 31
0.0
210
0.0
220
0.0
230
0.9999999999999998
 40
0.578093115915813
 41
0.0
 42
6.283185307179586
  0
LINE
  5
13F
330
6C
100
AcDbEntity
  8
Visible (ANSI)
100
AcDbLine
 10
27.40574395471575
 20
18.25247094794027
 30
0.0
 11
27.61787598907174
 21
18.37557637125536
 31
0.0
  0
LINE
  5
140
330
6C
100
AcDbEntity
  8
Visible (ANSI)
100
AcDbLine
 10
27.61787598907174
 20
18.37557637125536
 30
0.0
 11
27.65765074551348
 21
18.39848113015618
 31
0.0
  0
LINE
  5
141
330
6C
100
AcDbEntity
  8
Visible (ANSI)
100
AcDbLine
 10
27.40574395471574
 20
13.73961081880945
 30
0.0
 11
27.40574395471575
 21
18.25247094794027
 31
0.0
  0
LINE
  5
142
330
6C
100
AcDbEntity
  8
Visible (ANSI)
100
AcDbLine
 10
31.56088017766381
 20
16.15076079002284
 30
0.0
 11
27.65765074551348
 21
18.39848113015618
 31
0.0
  0
LINE
  5
143
330
6C
100
AcDbEntity
  8
Visible (ANSI)
100
AcDbLine
 10
31.7730122120198
 20
11.27047780930157
 30
0.0
 11
31.7730122120198
 21
15.7833379384324
 31
0.0
  0
LINE
  5
144
330
6C
100
AcDbEntity
  8
Visible (ANSI)
100
AcDbLine
 10
31.52110542122207
 20
11.12446762708567
 30
0.0
 11
27.61787598907174
 21
13.372187967219
 31
0.0
  0
LINE
  5
145
330
6C
100
AcDbEntity
  8
Visible (ANSI)
100
AcDbLine
 10
31.73323745557806
 20
15.76043317953158
 30
0.0
 11
31.73323745557806
 21
11.24757305040074
 31
0.0
  0
LINE
  5
146
330
6C
100
AcDbEntity
  8
Visible (ANSI)
100
AcDbLine
 10
27.61787598907174
 20
18.37557637125536
 30
0.0
 11
31.52110542122207
 21
16.12785603112202
 31
0.0
  0
LINE
  5
147
330
6C
100
AcDbEntity
  8
Visible (ANSI)
100
AcDbLine
 10
31.7730122120198
 20
15.7833379384324
 30
0.0
 11
31.56088017766381
 21
16.15076079002284
 31
0.0
  0
LINE
  5
148
330
6C
100
AcDbEntity
  8
Visible (ANSI)
100
AcDbLine
 10
31.73323745557806
 20
15.76043317953158
 30
0.0
 11
31.7730122120198
 21
15.7833379384324
 31
0.0
  0
LINE
  5
149
330
6C
100
AcDbEntity
  8
Visible (ANSI)
100
AcDbLine
 10
31.52110542122207
 20
16.12785603112202
 30
0.0
 11
31.73323745557806
 21
15.76043317953158
 31
0.0
  0
LINE
  5
14A
330
6C
100
AcDbEntity
  8
Visible (ANSI)
100
AcDbLine
 10
31.56088017766381
 20
16.15076079002284
 30
0.0
 11
31.52110542122207
 21
16.12785603112202
 31
0.0
  0
LINE
  5
14B
330
6C
100
AcDbEntity
  8
Visible (ANSI)
100
AcDbLine
 10
31.5608801776638
 20
11.14737238598649
 30
0.0
 11
31.7730122120198
 21
11.27047780930157
 31
0.0
  0
LINE
  5
14C
330
6C
100
AcDbEntity
  8
Visible (ANSI)
100
AcDbLine
 10
31.52110542122207
 20
11.12446762708567
 30
0.0
 11
31.5608801776638
 21
11.14737238598649
 31
0.0
  0
LINE
  5
14D
330
6C
100
AcDbEntity
  8
Visible (ANSI)
100
AcDbLine
 10
31.73323745557806
 20
11.24757305040074
 30
0.0
 11
31.52110542122207
 21
11.12446762708567
 31
0.0
  0
LINE
  5
14E
330
6C
100
AcDbEntity
  8
Visible (ANSI)
100
AcDbLine
 10
31.7730122120198
 20
11.27047780930157
 30
0.0
 11
31.73323745557806
 21
11.24757305040074
 31
0.0
  0
LINE
  5
14F
330
6C
100
AcDbEntity
  8
Visible (ANSI)
100
AcDbLine
 10
27.61787598907174
 20
13.372187967219
 30
0.0
 11
27.40574395471574
 21
13.73961081880945
 31
0.0
  0
DIMENSION
  5
150
330
6C
100
AcDbEntity
  8
Dimension (ANSI)
100
AcDbDimension
  2
*D4
 10
15.00237478095756
 20
19.2914573328986
 30
0.0
 11
9.902374780957563
 21
19.2914573328986
 31
0.0
 70
   160
  1
<>
 42
10.2
  3
Default (ANSI)
100
AcDbAlignedDimension
 13
4.802374780957562
 23
16.61429197856789
 33
0.0
 14
15.00237478095756
 24
16.61429197856789
 34
0.0
100
AcDbRotatedDimension
1001
ACAD
1000
DSTYLE
1002
{
1070
   289
1070
     1
1070
    73
1070
     0
1070
    74
1070
     0
1070
   271
1070
     3
1070
   272
1070
     3
1070
    48
1040
0.0
1070
    47
1040
0.0
1002
}
  0
DIMENSION
  5
23D
330
6C
100
AcDbEntity
  8
Dimension (ANSI)
100
AcDbDimension
  2
*D5
 10
14.50237478095757
 20
18.84657544313482
 30
0.0
 11
9.902374780957561
 21
18.84657544313482
 31
0.0
 70
   160
  1
<>{ TYP.}
 71
     5
 42
9.200000000000004
  3
Default (ANSI)
100
AcDbAlignedDimension
 13
5.302374780957562
 23
17.11429197856789
 33
0.0
 14
14.50237478095757
 24
17.11429197856789
 34
0.0
 50
180.0
100
AcDbRotatedDimension
1001
ACAD
1000
DSTYLE
1002
{
1070
   289
1070
     1
1070
    73
1070
     0
1070
    74
1070
     0
1070
   271
1070
     3
1070
   272
1070
     3
1070
    48
1040
0.0
1070
    47
1040
0.0
1002
}
  0
DIMENSION
  5
327
330
6C
100
AcDbEntity
  8
Dimension (ANSI)
100
AcDbDimension
  2
*D6
 10
5.302374780957562
 20
18.84657544313482
 30
0.0
 11
3.578347698830531
 21
18.84657544313482
 31
0.0
 70
   160
  1
<>{\PTYP.}
 71
     5
 42
0.5
  3
Default (ANSI)
100
AcDbAlignedDimension
 13
4.802374780957562
 23
16.61429197856789
 33
0.0
 14
5.302374780957562
 24
17.11429197856789
 34
0.0
 50
180.0
100
AcDbRotatedDimension
1001
ACAD
1000
DSTYLE
1002
{
1070
   289
1070
     1
1070
    73
1070
     0
1070
    74
1070
     0
1070
   271
1070
     3
1070
   272
1070
     3
1070
    48
1040
0.0
1070
    47
1040
0.0
1002
}
  0
DIMENSION
  5
425
330
6C
100
AcDbEntity
  8
Dimension (ANSI)
100
AcDbDimension
  2
*D7
 10
2.152768481744966
 20
6.914291978567891
 30
0.0
 11
2.152768481744966
 21
12.01429197856789
 31
0.0
 70
   160
  1
<>
 42
10.19999999999999
  3
Default (ANSI)
100
AcDbAlignedDimension
 13
5.302374780957562
 23
17.11429197856789
 33
0.0
 14
5.302374780957564
 24
6.914291978567891
 34
0.0
 50
270.0
100
AcDbRotatedDimension
1001
ACAD
1000
DSTYLE
1002
{
1070
   289
1070
     1
1070
   271
1070
     3
1070
   272
1070
     3
1070
    48
1040
0.0
1070
    47
1040
0.0
1002
}
  0
DIMENSION
  5
50F
330
6C
100
AcDbEntity
  8
Dimension (ANSI)
100
AcDbDimension
  2
*D8
 10
3.542532261272528
 20
16.61429197856789
 30
0.0
 11
3.542532261272525
 21
12.01429197856789
 31
0.0
 70
   160
  1
<>{\PTYP.}
 71
     5
 42
9.199999999999999
  3
Default (ANSI)
100
AcDbAlignedDimension
 13
4.802374780957564
 23
7.41429197856789
 33
0.0
 14
4.802374780957562
 24
16.61429197856789
 34
0.0
 50
90.0
100
AcDbRotatedDimension
1001
ACAD
1000
DSTYLE
1002
{
1070
   289
1070
     1
1070
   271
1070
     3
1070
   272
1070
     3
1070
    48
1040
0.0
1070
    47
1040
0.0
1002
}
  0
DIMENSION
  5
60D
330
6C
100
AcDbEntity
  8
Dimension (ANSI)
100
AcDbDimension
  2
*D9
 10
2.882689740085639
 20
16.61429197856789
 30
0.0
 11
3.542532261272525
 21
17.88410439441775
 31
0.0
 70
   160
  1
<>{\PTYP.}
 71
     5
 42
0.4999999999999965
  3
Default (ANSI)
100
AcDbAlignedDimension
 13
5.302374780957562
 23
17.11429197856789
 33
0.0
 14
4.802374780957562
 24
16.61429197856789
 34
0.0
 50
90.0
100
AcDbRotatedDimension
1001
ACAD
1000
DSTYLE
1002
{
1070
   289
1070
     1
1070
   271
1070
     3
1070
   272
1070
     3
1070
    48
1040
0.0
1070
    47
1040
0.0
1002
}
  0
DIMENSION
  5
723
330
6C
100
AcDbEntity
  8
Dimension (ANSI)
100
AcDbDimension
  2
*D10
 10
5.145598085660902
 20
7.611068673864503
 30
0.0
 11
8.980052597558117
 21
5.71600751101838
 31
0.0
 70
   163
  1
<>{ TYP. (4 PL.)}
 42
0.5
  3
Default (ANSI)
100
AcDbDiametricDimension
 15
5.499151476254229
 25
7.257515283271279
 35
0.0
 40
0.0
1001
ACAD
1000
DSTYLE
1002
{
1070
   144
1040
0.9999999999999964
1070
   271
1070
     3
1070
   272
1070
     3
1070
    48
1040
0.0
1070
    47
1040
0.0
1002
}
1001
ACAD_DSTYLE_DIMRADIAL_EXTENSION
1070
   387
1070
     1
1070
   388
1040
0.0
1070
   390
1040
0.0
  0
DIMENSION
  5
7CD
330
6C
100
AcDbEntity
  8
Dimension (ANSI)
100
AcDbDimension
  2
*D11
 10
5.211889346397147
 20
8.29477741312827
 30
0.0
 11
9.097508519361992
 21
6.348551589214556
 31
0.0
 70
   163
  1
<>{ TYP. (4 PL.)}
 42
0.3125
  3
Default (ANSI)
100
AcDbDiametricDimension
 15
5.432860215517978
 25
8.073806544007506
 35
0.0
 40
0.0
1001
ACAD
1000
DSTYLE
1002
{
1070
   144
1040
0.9999999999999943
1070
   271
1070
     3
1070
   272
1070
     3
1070
    48
1040
0.0
1070
    47
1040
0.0
1002
}
1001
ACAD_DSTYLE_DIMRADIAL_EXTENSION
1070
   387
1070
     1
1070
   388
1040
0.0
1070
   390
1040
0.0
  0
DIMENSION
  5
876
330
6C
100
AcDbEntity
  8
Dimension (ANSI)
100
AcDbDimension
  2
*D12
 10
16.08023813827374
 20
7.434291978567891
 30
0.0
 11
16.08023813827374
 21
7.17429197856789
 31
0.0
 70
   160
  1
<>{ TYP.}
 42
0.5200000000000005
  3
Default (ANSI)
100
AcDbAlignedDimension
 13
14.50237478095757
 23
6.914291978567891
 33
0.0
 14
14.48237478095757
 24
7.434291978567891
 34
0.0
 50
90.0
100
AcDbRotatedDimension
1001
ACAD
1000
DSTYLE
1002
{
1070
   289
1070
     1
1070
   271
1070
     3
1070
   272
1070
     3
1070
    48
1040
0.0
1070
    47
1040
0.0
1002
}
  0
DIMENSION
  5
969
330
6C
100
AcDbEntity
  8
Dimension (ANSI)
100
AcDbDimension
  2
*D13
 10
17.34965582750271
 20
8.184291978567889
 30
0.0
 11
17.3496558275027
 21
7.54929197856789
 31
0.0
 70
   160
  1
<>{\PTYP.}
 71
     5
 42
1.269999999999998
  3
Default (ANSI)
100
AcDbAlignedDimension
 13
14.50237478095757
 23
6.914291978567891
 33
0.0
 14
14.48237478095757
 24
8.184291978567889
 34
0.0
 50
90.0
100
AcDbRotatedDimension
1001
ACAD
1000
DSTYLE
1002
{
1070
   289
1070
     1
1070
   271
1070
     3
1070
   272
1070
     3
1070
    48
1040
0.0
1070
    47
1040
0.0
1002
}
  0
DIMENSION
  5
A67
330
6C
100
AcDbEntity
  8
Dimension (ANSI)
100
AcDbDimension
  2
*D14
 10
15.00237478095756
 20
6.154449458882851
 30
0.0
 11
13.62568187052851
 21
6.154449458882851
 31
0.0
 70
   160
  1
<>{\PTYP.}
 71
     5
 42
0.5199999999999961
  3
Default (ANSI)
100
AcDbAlignedDimension
 13
14.48237478095757
 23
8.184291978567889
 33
0.0
 14
15.00237478095756
 24
7.41429197856789
 34
0.0
 50
180.0
100
AcDbRotatedDimension
1001
ACAD
1000
DSTYLE
1002
{
1070
   289
1070
     1
1070
    73
1070
     0
1070
    74
1070
     0
1070
   271
1070
     3
1070
   272
1070
     3
1070
    48
1040
0.0
1070
    47
1040
0.0
1002
}
  0
DIMENSION
  5
B65
330
6C
100
AcDbEntity
  8
Dimension (ANSI)
100
AcDbDimension
  2
*D15
 10
19.69247915245302
 20
12.32194990900624
 30
0.0
 11
20.80260499015572
 21
12.32194990900624
 31
0.0
 70
   160
  1
(<>){\P12 GA.\PGALV.}
 71
     5
 42
0.09375
  3
Default (ANSI)
100
AcDbAlignedDimension
 13
19.78622915245302
 23
12.64761465970009
 33
0.0
 14
19.69247915245302
 24
12.64761465970009
 34
0.0
100
AcDbRotatedDimension
1001
ACAD
1000
DSTYLE
1002
{
1070
   289
1070
     1
1070
    73
1070
     0
1070
    74
1070
     0
1070
   271
1070
     3
1070
    76
1070
     1
1070
    75
1070
     1
1070
   147
1040
0.031496062992126
1070
    72
1070
     0
1070
    71
1070
     0
1070
   272
1070
     3
1070
    48
1040
0.0
1070
    47
1040
0.0
1002
}
  0
MTEXT
  5
C5E
102
{ACAD_XDICTIONARY
360
C7C
102
}
330
6C
100
AcDbEntity
  8
Symbol (ANSI)
100
AcDbMText
 10
22.19956126167411
 20
3.400628161922427
 30
0.0
 40
0.2000000063828596
 41
11.28674424631039
 71
     4
 72
     1
  3
{\fRomanS|b0|i0|c0|p2;\H2x;PART#: NP1212CG\P(DATA SUBJECT TO CHANGE \H1.5268x; \H0.65497x;\PWITHOUT NOTICE) \H1.4277x; \H0.70044x;\P\H0.6x;THIS DRAWING IS PROPERTY OF HUBBELL INC. WIEGMANN\H1.4261x; \H0.70119x;\PALL INFORMATION IS PROPRIETARY AND NOT
  1
 TO BE \H1.1283x; \H0.88629x;\PDUPLICATED\H1.1702x; \H0.85454x;\P\H0.83333x; \H1.1972x; \H0.8353x;\P\H1.113x; }
  7
Note Text (ANSI)
 73
     1
 44
0.8555545806884765
1001
ACAD
1000
MTEXTBEGIN
1070
    73
1070
     1
1070
    44
1040
0.8555545806884765
1070
    74
1070
     0
1000
MTEXTEND
  0
LINE
  5
C60
330
6C
100
AcDbEntity
  8
Center Mark (ANSI)
  6
CHAIN
 48
0.2776626646518707
100
AcDbLine
 10
4.822374780957565
 20
16.59429197856789
 30
0.0
 11
5.822374780957565
 21
16.59429197856789
 31
0.0
  0
LINE
  5
C61
330
6C
100
AcDbEntity
  8
Center Mark (ANSI)
  6
CHAIN
 48
0.2776626646518707
100
AcDbLine
 10
14.98237478095757
 20
16.59429197856789
 30
0.0
 11
13.98237478095756
 21
16.59429197856789
 31
0.0
  0
LINE
  5
C62
330
6C
100
AcDbEntity
  8
Centerline (ANSI)
  6
CHAIN
 48
0.9524481296539306
100
AcDbLine
 10
4.822374780957565
 20
16.59429197856789
 30
0.0
 11
14.98237478095757
 21
16.59429197856789
 31
0.0
  0
LINE
  5
C63
330
6C
100
AcDbEntity
  8
Center Mark (ANSI)
  6
CHAIN
 48
0.2776626646518707
100
AcDbLine
 10
14.48237478095757
 20
6.934291978567891
 30
0.0
 11
14.48237478095757
 21
7.934291978567891
 31
0.0
  0
LINE
  5
C64
330
6C
100
AcDbEntity
  8
Centerline (ANSI)
  6
CHAIN
 48
0.9524481296539306
100
AcDbLine
 10
14.48237478095757
 20
17.09429197856789
 30
0.0
 11
14.48237478095757
 21
6.934291978567891
 31
0.0
  0
LINE
  5
C65
330
6C
100
AcDbEntity
  8
Center Mark (ANSI)
  6
CHAIN
 48
0.2776626646518707
100
AcDbLine
 10
4.822374780957565
 20
7.434291978567891
 30
0.0
 11
5.822374780957565
 21
7.434291978567891
 31
0.0
  0
LINE
  5
C66
330
6C
100
AcDbEntity
  8
Centerline (ANSI)
  6
CHAIN
 48
0.9524481296539306
100
AcDbLine
 10
14.98237478095757
 20
7.434291978567891
 30
0.0
 11
4.822374780957566
 21
7.434291978567891
 31
0.0
  0
LINE
  5
C67
330
6C
100
AcDbEntity
  8
Centerline (ANSI)
  6
CHAIN
 48
0.9524481296539306
100
AcDbLine
 10
5.322374780957565
 20
6.934291978567891
 30
0.0
 11
5.322374780957565
 21
17.09429197856789
 31
0.0
  0
LINE
  5
C68
330
6C
100
AcDbEntity
  8
Center Mark (ANSI)
  6
CHAIN
 48
0.2255821526050568
100
AcDbLine
 10
5.322374780957565
 20
16.25054197856789
 30
0.0
 11
5.322374780957565
 21
15.43804197856789
 31
0.0
  0
LINE
  5
C69
330
6C
100
AcDbEntity
  8
Center Mark (ANSI)
  6
CHAIN
 48
0.2255821526050568
100
AcDbLine
 10
14.48237478095757
 20
16.25054197856789
 30
0.0
 11
14.48237478095757
 21
15.43804197856789
 31
0.0
  0
LINE
  5
C6A
330
6C
100
AcDbEntity
  8
Centerline (ANSI)
  6
CHAIN
 48
0.9524481296539306
100
AcDbLine
 10
4.916124780957565
 20
15.84429197856789
 30
0.0
 11
14.88862478095757
 21
15.84429197856789
 31
0.0
  0
LINE
  5
C6B
330
6C
100
AcDbEntity
  8
Center Mark (ANSI)
  6
CHAIN
 48
0.2255821526050568
100
AcDbLine
 10
5.322374780957564
 20
8.590541978567889
 30
0.0
 11
5.322374780957564
 21
7.77804197856789
 31
0.0
  0
LINE
  5
C6C
330
6C
100
AcDbEntity
  8
Center Mark (ANSI)
  6
CHAIN
 48
0.2255821526050568
100
AcDbLine
 10
14.48237478095757
 20
8.590541978567889
 30
0.0
 11
14.48237478095757
 21
7.77804197856789
 31
0.0
  0
LINE
  5
C6D
330
6C
100
AcDbEntity
  8
Centerline (ANSI)
  6
CHAIN
 48
0.9524481296539306
100
AcDbLine
 10
4.916124780957564
 20
8.184291978567889
 30
0.0
 11
14.88862478095757
 21
8.184291978567889
 31
0.0
  0
ENDSEC
  0
SECTION
  2
OBJECTS
  0
DICTIONARY
  5
C
330
0
100
AcDbDictionary
281
     1
  3
ACAD_CIP_PREVIOUS_PRODUCT_INFO
350
C6E
  3
ACAD_COLOR
350
63
  3
ACAD_GROUP
350
D
  3
ACAD_LAYOUT
350
62
  3
ACAD_MATERIAL
350
10
  3
ACAD_MLEADERSTYLE
350
66
  3
ACAD_MLINESTYLE
350
5F
  3
ACAD_PLOTSETTINGS
350
61
  3
ACAD_PLOTSTYLENAME
350
E
  3
ACAD_SCALELIST
350
42
  3
ACAD_TABLESTYLE
350
64
  3
ACAD_VISUALSTYLE
350
29
  3
ACDB_RECOMPOSE_DATA
350
C7E
  3
AcDbVariableDictionary
350
76
  3
DWGPROPS
350
C7F
  0
DICTIONARY
  5
CBB
330
7C7
100
AcDbDictionary
280
     1
281
     1
  3
ACAD_MTEXT_RT
360
CBC
  0
DICTIONARY
  5
CBD
330
870
100
AcDbDictionary
280
     1
281
     1
  3
ACAD_MTEXT_RT
360
CBE
  0
DICTIONARY
  5
C7C
330
C5E
100
AcDbDictionary
280
     1
281
     1
  3
ACAD_MTEXT_2008_RT
360
C7D
  0
XRECORD
  5
C6E
102
{ACAD_REACTORS
330
C
102
}
330
C
100
AcDbXrecord
280
     1
300
INVNTOR
300
2012
300
85795PDSP_2012_0F
  0
DICTIONARY
  5
63
102
{ACAD_REACTORS
330
C
102
}
330
C
100
AcDbDictionary
281
     1
  0
DICTIONARY
  5
D
102
{ACAD_REACTORS
330
C
102
}
330
C
100
AcDbDictionary
281
     1
  0
DICTIONARY
  5
62
102
{ACAD_REACTORS
330
C
102
}
330
C
100
AcDbDictionary
281
     1
  3
Layout1
350
6B
  3
Layout2
350
73
  3
Model
350
6F
  0
DICTIONARY
  5
10
102
{ACAD_REACTORS
330
C
102
}
330
C
100
AcDbDictionary
281
     1
  3
ByBlock
350
19
  3
ByLayer
350
11
  3
Global
350
21
  0
DICTIONARY
  5
66
102
{ACAD_REACTORS
330
C
102
}
330
C
100
AcDbDictionary
281
     1
  3
Standard
350
67
  0
DICTIONARY
  5
5F
102
{ACAD_REACTORS
330
C
102
}
330
C
100
AcDbDictionary
281
     1
  3
Standard
350
60
  0
DICTIONARY
  5
61
102
{ACAD_REACTORS
330
C
102
}
330
C
100
AcDbDictionary
281
     1
  0
ACDBDICTIONARYWDFLT
  5
E
102
{ACAD_REACTORS
330
C
102
}
330
C
100
AcDbDictionary
281
     1
  3
Normal
350
F
100
AcDbDictionaryWithDefault
340
F
  0
DICTIONARY
  5
42
102
{ACAD_REACTORS
330
C
102
}
330
C
100
AcDbDictionary
281
     1
  3
A0
350
43
  3
A1
350
44
  3
A2
350
45
  3
A3
350
46
  3
A4
350
47
  3
A5
350
48
  3
A6
350
49
  3
A7
350
4A
  3
A8
350
4B
  3
A9
350
4C
  3
B0
350
4D
  3
B1
350
4E
  3
B2
350
4F
  3
B3
350
50
  3
B4
350
51
  3
B5
350
52
  3
B6
350
53
  0
DICTIONARY
  5
64
102
{ACAD_REACTORS
330
C
102
}
330
C
100
AcDbDictionary
281
     1
  3
Standard
350
65
  0
DICTIONARY
  5
29
102
{ACAD_REACTORS
330
C
102
}
330
C
100
AcDbDictionary
281
     1
  3
2dWireframe
350
2F
  3
Basic
350
2E
  3
Brighten
350
35
  3
ColorChange
350
39
  3
Conceptual
350
32
  3
Dim
350
34
  3
EdgeColorOff
350
41
  3
Facepattern
350
38
  3
Flat
350
2A
  3
FlatWithEdges
350
2B
  3
Gouraud
350
2C
  3
GouraudWithEdges
350
2D
  3
Hidden
350
31
  3
JitterOff
350
3F
  3
Linepattern
350
37
  3
OverhangOff
350
40
  3
Realistic
350
33
  3
Shaded
350
3E
  3
Shaded with edges
350
3D
  3
Shades of Gray
350
3A
  3
Sketchy
350
3B
  3
Thicken
350
36
  3
Wireframe
350
30
  3
X-Ray
350
3C
  0
XRECORD
  5
C7E
102
{ACAD_REACTORS
330
C
102
}
330
C
100
AcDbXrecord
280
     1
 90
        1
330
65
330
C5E
  0
DICTIONARY
  5
76
102
{ACAD_REACTORS
330
C
102
}
330
C
100
AcDbDictionary
281
     1
  3
CANNOSCALE
350
79
  3
CMLEADERSTYLE
350
78
  3
CTABLESTYLE
350
77
  3
DIMASSOC
350
C76
  3
HIDETEXT
350
C75
  3
INDEXCTL
350
C74
  3
LAYEREVAL
350
C71
  3
LAYERNOTIFY
350
C72
  3
LIGHTINGUNITS
350
C70
  3
MSLTSCALE
350
C6F
  3
SORTENTS
350
C73
  3
XCLIPFRAME
350
C77
  0
XRECORD
  5
C7F
102
{ACAD_REACTORS
330
C
102
}
330
C
100
AcDbXrecord
280
     1
  1
DWGPROPS COOKIE
  2

  3

  4
JF
  6

  7

  8

  9
-
300
Manager=
301
Company=
302
Category=
303
Part Number=NP1212CG
304
Description=
305
Project=
306
Designer=JF
307
Engineer=
308
Authority=
309
Cost Center=
 40
0.0000341898148148
 41
2455945.487304537
 42
2455945.487304723
  1

 90
       22
300
Vendor=
300
User Status=
300
Design Status=WorkInProgress
300
Checked by=DN
300
Date Checked=01/18/2012
300
Engr Approved by=
300
Date Eng Approved=01/18/2012
300
Mfg Approved by=
300
Date Mfg Approved=01/18/2012
300
DWG. NO=
300
NUMBER OF SHEETS=1
300
DRAWING #=
  0
XRECORD
  5
CBC
102
{ACAD_REACTORS
330
CBB
102
}
330
CBB
100
AcDbXrecord
280
     1
 40
30483.0
  1
\A1;\U+22050.500{ TYP. (4 PL.)}
  0
XRECORD
  5
CBE
102
{ACAD_REACTORS
330
CBD
102
}
330
CBD
100
AcDbXrecord
280
     1
 40
30518.0
  1
\A1;\U+22050.313{ TYP. (4 PL.)}
  0
XRECORD
  5
C7D
102
{ACAD_REACTORS
330
C7C
102
}
330
C7C
100
AcDbXrecord
280
     1
 40
4347884.0
  1
\pxsm0.94;{\fRomanS|b0|i0;\H0.4000;PART#: NP1212CG\P(DATA SUBJECT TO CHANGE \PWITHOUT NOTICE) \P\fRomanS|b0|i0;\H0.2400;THIS DRAWING IS PROPERTY OF HUBBELL INC. WIEGMANN\PALL INFORMATION IS PROPRIETARY AND NOT TO BE \PDUPLICATED\P\fRomanS|b0|i0;\H0.2
  1
000; \P}
  0
LAYOUT
  5
6B
102
{ACAD_XDICTIONARY
360
CB5
102
}
102
{ACAD_REACTORS
330
62
102
}
330
62
100
AcDbPlotSettings
  1

  2

  4

  6

 40
0.0
 41
0.0
 42
0.0
 43
0.0
 44
0.0
 45
0.0
 46
0.0
 47
0.0
 48
0.0
 49
0.0
140
0.0
141
0.0
142
1.0
143
1.0
 70
   688
 72
     0
 73
     0
 74
     5
  7

 75
    16
147
1.0
148
0.0
149
0.0
100
AcDbLayout
  1
Layout1
 70
     1
 71
     1
 10
0.0
 20
0.0
 11
12.0
 21
9.0
 12
0.0
 22
0.0
 32
0.0
 14
0.0
 24
0.0
 34
0.0
 15
0.0
 25
0.0
 35
0.0
146
0.0
 13
0.0
 23
0.0
 33
0.0
 16
1.0
 26
0.0
 36
0.0
 17
0.0
 27
1.0
 37
0.0
 76
     0
330
68
  0
LAYOUT
  5
73
102
{ACAD_XDICTIONARY
360
CB9
102
}
102
{ACAD_REACTORS
330
62
102
}
330
62
100
AcDbPlotSettings
  1

  2

  4

  6

 40
0.0
 41
0.0
 42
0.0
 43
0.0
 44
0.0
 45
0.0
 46
0.0
 47
0.0
 48
0.0
 49
0.0
140
0.0
141
0.0
142
1.0
143
1.0
 70
   688
 72
     0
 73
     0
 74
     5
  7

 75
    16
147
1.0
148
0.0
149
0.0
100
AcDbLayout
  1
Layout2
 70
     1
 71
     2
 10
0.0
 20
0.0
 11
12.0
 21
9.0
 12
0.0
 22
0.0
 32
0.0
 14
0.0
 24
0.0
 34
0.0
 15
0.0
 25
0.0
 35
0.0
146
0.0
 13
0.0
 23
0.0
 33
0.0
 16
1.0
 26
0.0
 36
0.0
 17
0.0
 27
1.0
 37
0.0
 76
     0
330
70
  0
LAYOUT
  5
6F
102
{ACAD_XDICTIONARY
360
CB7
102
}
102
{ACAD_REACTORS
330
62
102
}
330
62
100
AcDbPlotSettings
  1

  2

  4

  6

 40
0.0
 41
0.0
 42
0.0
 43
0.0
 44
0.0
 45
0.0
 46
0.0
 47
0.0
 48
0.0
 49
0.0
140
0.0
141
0.0
142
1.0
143
1.0
 70
  1712
 72
     0
 73
     0
 74
     0
  7

 75
     0
147
1.0
148
0.0
149
0.0
100
AcDbLayout
  1
Model
 70
     1
 71
     0
 10
0.0
 20
0.0
 11
12.0
 21
9.0
 12
0.0
 22
0.0
 32
0.0
 14
0.0
 24
0.0
 34
0.0
 15
0.0
 25
0.0
 35
0.0
146
0.0
 13
0.0
 23
0.0
 33
0.0
 16
1.0
 26
0.0
 36
0.0
 17
0.0
 27
1.0
 37
0.0
 76
     0
330
6C
  0
MATERIAL
  5
19
102
{ACAD_XDICTIONARY
360
1A
102
}
102
{ACAD_REACTORS
330
10
102
}
330
10
100
AcDbMaterial
  1
ByBlock
 72
     0
 43
0.0208333333333333
 43
0.0
 43
0.0
 43
0.0
 43
0.0
 43
0.0208333333333333
 43
0.0
 43
0.0
 43
0.0
 43
0.0
 43
1.0
 43
0.0
 43
0.0
 43
0.0
 43
0.0
 43
1.0
 77
     0
 47
0.0208333333333333
 47
0.0
 47
0.0
 47
0.0
 47
0.0
 47
0.0208333333333333
 47
0.0
 47
0.0
 47
0.0
 47
0.0
 47
1.0
 47
0.0
 47
0.0
 47
0.0
 47
0.0
 47
1.0
171
     0
 49
0.0208333333333333
 49
0.0
 49
0.0
 49
0.0
 49
0.0
 49
0.0208333333333333
 49
0.0
 49
0.0
 49
0.0
 49
0.0
 49
1.0
 49
0.0
 49
0.0
 49
0.0
 49
0.0
 49
1.0
175
     0
142
0.0208333333333333
142
0.0
142
0.0
142
0.0
142
0.0
142
0.0208333333333333
142
0.0
142
0.0
142
0.0
142
0.0
142
1.0
142
0.0
142
0.0
142
0.0
142
0.0
142
1.0
179
     0
144
0.0208333333333333
144
0.0
144
0.0
144
0.0
144
0.0
144
0.0208333333333333
144
0.0
144
0.0
144
0.0
144
0.0
144
1.0
144
0.0
144
0.0
144
0.0
144
0.0
144
1.0
147
0.0208333333333333
147
0.0
147
0.0
147
0.0
147
0.0
147
0.0208333333333333
147
0.0
147
0.0
147
0.0
147
0.0
147
1.0
147
0.0
147
0.0
147
0.0
147
0.0
147
1.0
  0
MATERIAL
  5
11
102
{ACAD_XDICTIONARY
360
12
102
}
102
{ACAD_REACTORS
330
10
102
}
330
10
100
AcDbMaterial
  1
ByLayer
 72
     0
 43
0.0208333333333333
 43
0.0
 43
0.0
 43
0.0
 43
0.0
 43
0.0208333333333333
 43
0.0
 43
0.0
 43
0.0
 43
0.0
 43
1.0
 43
0.0
 43
0.0
 43
0.0
 43
0.0
 43
1.0
 77
     0
 47
0.0208333333333333
 47
0.0
 47
0.0
 47
0.0
 47
0.0
 47
0.0208333333333333
 47
0.0
 47
0.0
 47
0.0
 47
0.0
 47
1.0
 47
0.0
 47
0.0
 47
0.0
 47
0.0
 47
1.0
171
     0
 49
0.0208333333333333
 49
0.0
 49
0.0
 49
0.0
 49
0.0
 49
0.0208333333333333
 49
0.0
 49
0.0
 49
0.0
 49
0.0
 49
1.0
 49
0.0
 49
0.0
 49
0.0
 49
0.0
 49
1.0
175
     0
142
0.0208333333333333
142
0.0
142
0.0
142
0.0
142
0.0
142
0.0208333333333333
142
0.0
142
0.0
142
0.0
142
0.0
142
1.0
142
0.0
142
0.0
142
0.0
142
0.0
142
1.0
179
     0
144
0.0208333333333333
144
0.0
144
0.0
144
0.0
144
0.0
144
0.0208333333333333
144
0.0
144
0.0
144
0.0
144
0.0
144
1.0
144
0.0
144
0.0
144
0.0
144
0.0
144
1.0
147
0.0208333333333333
147
0.0
147
0.0
147
0.0
147
0.0
147
0.0208333333333333
147
0.0
147
0.0
147
0.0
147
0.0
147
1.0
147
0.0
147
0.0
147
0.0
147
0.0
147
1.0
  0
MATERIAL
  5
21
102
{ACAD_XDICTIONARY
360
22
102
}
102
{ACAD_REACTORS
330
10
102
}
330
10
100
AcDbMaterial
  1
Global
 72
     0
 43
0.0208333333333333
 43
0.0
 43
0.0
 43
0.0
 43
0.0
 43
0.0208333333333333
 43
0.0
 43
0.0
 43
0.0
 43
0.0
 43
1.0
 43
0.0
 43
0.0
 43
0.0
 43
0.0
 43
1.0
 77
     0
 47
0.0208333333333333
 47
0.0
 47
0.0
 47
0.0
 47
0.0
 47
0.0208333333333333
 47
0.0
 47
0.0
 47
0.0
 47
0.0
 47
1.0
 47
0.0
 47
0.0
 47
0.0
 47
0.0
 47
1.0
171
     0
 49
0.0208333333333333
 49
0.0
 49
0.0
 49
0.0
 49
0.0
 49
0.0208333333333333
 49
0.0
 49
0.0
 49
0.0
 49
0.0
 49
1.0
 49
0.0
 49
0.0
 49
0.0
 49
0.0
 49
1.0
175
     0
142
0.0208333333333333
142
0.0
142
0.0
142
0.0
142
0.0
142
0.0208333333333333
142
0.0
142
0.0
142
0.0
142
0.0
142
1.0
142
0.0
142
0.0
142
0.0
142
0.0
142
1.0
179
     0
144
0.0208333333333333
144
0.0
144
0.0
144
0.0
144
0.0
144
0.0208333333333333
144
0.0
144
0.0
144
0.0
144
0.0
144
1.0
144
0.0
144
0.0
144
0.0
144
0.0
144
1.0
147
0.0208333333333333
147
0.0
147
0.0
147
0.0
147
0.0
147
0.0208333333333333
147
0.0
147
0.0
147
0.0
147
0.0
147
1.0
147
0.0
147
0.0
147
0.0
147
0.0
147
1.0
  0
MLEADERSTYLE
  5
67
102
{ACAD_XDICTIONARY
360
C7A
102
}
102
{ACAD_REACTORS
330
66
102
}
330
66
100
AcDbMLeaderStyle
170
     2
171
     1
172
     0
 90
        2
 40
0.0
 41
0.0
173
     1
 91
-1056964608
340
5B
 92
       -2
290
     1
 42
0.09
291
     1
 43
0.36
  3
Standard
 44
0.18
300

342
55
174
     1
178
     6
175
     1
176
     0
 93
-1056964608
 45
0.18
292
     0
297
     0
 46
0.18
 94
-1056964608
 47
1.0
 49
1.0
140
1.0
293
     1
141
0.0
294
     1
177
     0
142
1.0
295
     0
296
     0
143
0.125
1001
ACAD_MLEADERVER
1070
     2
  0
MLINESTYLE
  5
60
102
{ACAD_REACTORS
330
5F
102
}
330
5F
100
AcDbMlineStyle
  2
STANDARD
 70
     0
  3

 62
   256
 51
90.0
 52
90.0
 71
     2
 49
0.5
 62
   256
  6
BYLAYER
 49
-0.5
 62
   256
  6
BYLAYER
  0
ACDBPLACEHOLDER
  5
F
102
{ACAD_REACTORS
330
E
102
}
330
E
  0
SCALE
  5
43
102
{ACAD_REACTORS
330
42
102
}
330
42
100
AcDbScale
 70
     0
300
1:1
140
1.0
141
1.0
290
     1
  0
SCALE
  5
44
102
{ACAD_REACTORS
330
42
102
}
330
42
100
AcDbScale
 70
     0
300
1/128" = 1'-0"
140
0.0078125
141
12.0
290
     0
  0
SCALE
  5
45
102
{ACAD_REACTORS
330
42
102
}
330
42
100
AcDbScale
 70
     0
300
1/64" = 1'-0"
140
0.015625
141
12.0
290
     0
  0
SCALE
  5
46
102
{ACAD_REACTORS
330
42
102
}
330
42
100
AcDbScale
 70
     0
300
1/32" = 1'-0"
140
0.03125
141
12.0
290
     0
  0
SCALE
  5
47
102
{ACAD_REACTORS
330
42
102
}
330
42
100
AcDbScale
 70
     0
300
1/16" = 1'-0"
140
0.0625
141
12.0
290
     0
  0
SCALE
  5
48
102
{ACAD_REACTORS
330
42
102
}
330
42
100
AcDbScale
 70
     0
300
3/32" = 1'-0"
140
0.09375
141
12.0
290
     0
  0
SCALE
  5
49
102
{ACAD_REACTORS
330
42
102
}
330
42
100
AcDbScale
 70
     0
300
1/8" = 1'-0"
140
0.125
141
12.0
290
     0
  0
SCALE
  5
4A
102
{ACAD_REACTORS
330
42
102
}
330
42
100
AcDbScale
 70
     0
300
3/16" = 1'-0"
140
0.1875
141
12.0
290
     0
  0
SCALE
  5
4B
102
{ACAD_REACTORS
330
42
102
}
330
42
100
AcDbScale
 70
     0
300
1/4" = 1'-0"
140
0.25
141
12.0
290
     0
  0
SCALE
  5
4C
102
{ACAD_REACTORS
330
42
102
}
330
42
100
AcDbScale
 70
     0
300
3/8" = 1'-0"
140
0.375
141
12.0
290
     0
  0
SCALE
  5
4D
102
{ACAD_REACTORS
330
42
102
}
330
42
100
AcDbScale
 70
     0
300
1/2" = 1'-0"
140
0.5
141
12.0
290
     0
  0
SCALE
  5
4E
102
{ACAD_REACTORS
330
42
102
}
330
42
100
AcDbScale
 70
     0
300
3/4" = 1'-0"
140
0.75
141
12.0
290
     0
  0
SCALE
  5
4F
102
{ACAD_REACTORS
330
42
102
}
330
42
100
AcDbScale
 70
     0
300
1" = 1'-0"
140
1.0
141
12.0
290
     0
  0
SCALE
  5
50
102
{ACAD_REACTORS
330
42
102
}
330
42
100
AcDbScale
 70
     0
300
1-1/2" = 1'-0"
140
1.5
141
12.0
290
     0
  0
SCALE
  5
51
102
{ACAD_REACTORS
330
42
102
}
330
42
100
AcDbScale
 70
     0
300
3" = 1'-0"
140
3.0
141
12.0
290
     0
  0
SCALE
  5
52
102
{ACAD_REACTORS
330
42
102
}
330
42
100
AcDbScale
 70
     0
300
6" = 1'-0"
140
6.0
141
12.0
290
     0
  0
SCALE
  5
53
102
{ACAD_REACTORS
330
42
102
}
330
42
100
AcDbScale
 70
     0
300
1'-0" = 1'-0"
140
12.0
141
12.0
290
     0
  0
TABLESTYLE
  5
65
102
{ACAD_XDICTIONARY
360
C78
102
}
102
{ACAD_REACTORS
330
64
102
}
330
64
100
AcDbTableStyle
  3
Standard
 70
     0
 71
     0
 40
0.06
 41
0.06
280
     0
281
     0
  7
Standard
140
0.18
170
     2
 62
     0
 63
     7
283
     0
274
    -2
284
     1
 64
     0
275
    -2
285
     1
 65
     0
276
    -2
286
     1
 66
     0
277
    -2
287
     1
 67
     0
278
    -2
288
     1
 68
     0
279
    -2
289
     1
 69
     0
  7
Standard
140
0.25
170
     5
 62
     0
 63
     7
283
     0
274
    -2
284
     1
 64
     0
275
    -2
285
     1
 65
     0
276
    -2
286
     1
 66
     0
277
    -2
287
     1
 67
     0
278
    -2
288
     1
 68
     0
279
    -2
289
     1
 69
     0
  7
Standard
140
0.18
170
     5
 62
     0
 63
     7
283
     0
274
    -2
284
     1
 64
     0
275
    -2
285
     1
 65
     0
276
    -2
286
     1
 66
     0
277
    -2
287
     1
 67
     0
278
    -2
288
     1
 68
     0
279
    -2
289
     1
 69
     0
  0
VISUALSTYLE
  5
2F
102
{ACAD_XDICTIONARY
360
C8D
102
}
102
{ACAD_REACTORS
330
29
102
}
330
29
100
AcDbVisualStyle
  2
2dWireframe
 70
     4
 71
     0
 72
     2
 73
     0
 90
        0
 40
-0.6
 41
-30.0
 62
     5
 63
     7
 74
     1
 91
        4
 64
     7
 65
   257
 75
     1
175
     1
 42
1.0
 92
        0
 66
   257
 43
1.0
 76
     1
 77
     6
 78
     2
 67
     7
 79
     5
170
     0
171
     0
290
     0
174
     0
 93
        1
 44
0.0
173
     0
291
     0
 45
0.0
1001
ACAD
1000
AcDbSavedByObjectVersion
1070
     0
  0
VISUALSTYLE
  5
2E
102
{ACAD_XDICTIONARY
360
C8B
102
}
102
{ACAD_REACTORS
330
29
102
}
330
29
100
AcDbVisualStyle
  2
Basic
 70
     7
 71
     1
 72
     0
 73
     1
 90
        0
 40
-0.6
 41
-30.0
 62
     5
 63
     7
 74
     0
 91
        4
 64
     7
 65
   257
 75
     1
175
     1
 42
1.0
 92
        8
 66
     7
 43
1.0
 76
     1
 77
     6
 78
     2
 67
     7
 79
     5
170
     0
171
     0
290
     0
174
     0
 93
        1
 44
0.0
173
     0
291
     1
 45
0.0
1001
ACAD
1000
AcDbSavedByObjectVersion
1070
     0
  0
VISUALSTYLE
  5
35
102
{ACAD_XDICTIONARY
360
C99
102
}
102
{ACAD_REACTORS
330
29
102
}
330
29
100
AcDbVisualStyle
  2
Brighten
 70
    12
 71
     2
 72
     2
 73
     0
 90
        0
 40
-0.6
 41
-30.0
 62
     5
 63
     7
 74
     1
 91
        4
 64
     7
 65
   257
 75
     1
175
     1
 42
1.0
 92
        8
 66
     7
 43
1.0
 76
     1
 77
     6
 78
     2
 67
     7
 79
     5
170
     0
171
     0
290
     0
174
     0
 93
        1
 44
50.0
173
     0
291
     1
 45
0.0
1001
ACAD
1000
AcDbSavedByObjectVersion
1070
     0
  0
VISUALSTYLE
  5
39
102
{ACAD_XDICTIONARY
360
CA1
102
}
102
{ACAD_REACTORS
330
29
102
}
330
29
100
AcDbVisualStyle
  2
ColorChange
 70
    16
 71
     2
 72
     2
 73
     3
 90
        0
 40
-0.6
 41
-30.0
 62
     5
 63
     8
 74
     1
 91
        4
 64
     7
 65
   257
 75
     1
175
     1
 42
1.0
 92
        8
 66
     8
 43
1.0
 76
     1
 77
     6
 78
     2
 67
     7
 79
     5
170
     0
171
     0
290
     0
174
     0
 93
        1
 44
0.0
173
     0
291
     1
 45
0.0
1001
ACAD
1000
AcDbSavedByObjectVersion
1070
     0
  0
VISUALSTYLE
  5
32
102
{ACAD_XDICTIONARY
360
C93
102
}
102
{ACAD_REACTORS
330
29
102
}
330
29
100
AcDbVisualStyle
  2
Conceptual
 70
     9
 71
     3
 72
     2
 73
     0
 90
        0
 40
-0.6
 41
-30.0
 62
     5
 63
     7
 74
     2
 91
        2
 64
     7
 65
   257
 75
     1
175
     1
 42
179.0
 92
        8
 66
     7
 43
1.0
 76
     1
 77
     6
 78
     2
 67
     7
 79
     3
170
     0
171
     0
290
     0
174
     0
 93
        1
 44
0.0
173
     0
291
     0
 45
0.0
1001
ACAD
1000
AcDbSavedByObjectVersion
1070
     0
  0
VISUALSTYLE
  5
34
102
{ACAD_XDICTIONARY
360
C97
102
}
102
{ACAD_REACTORS
330
29
102
}
330
29
100
AcDbVisualStyle
  2
Dim
 70
    11
 71
     2
 72
     2
 73
     0
 90
        0
 40
-0.6
 41
-30.0
 62
     5
 63
     7
 74
     1
 91
        4
 64
     7
 65
   257
 75
     1
175
     1
 42
1.0
 92
        8
 66
     7
 43
1.0
 76
     1
 77
     6
 78
     2
 67
     7
 79
     5
170
     0
171
     0
290
     0
174
     0
 93
        1
 44
-50.0
173
     0
291
     1
 45
0.0
1001
ACAD
1000
AcDbSavedByObjectVersion
1070
     0
  0
VISUALSTYLE
  5
41
102
{ACAD_XDICTIONARY
360
CB1
102
}
102
{ACAD_REACTORS
330
29
102
}
330
29
100
AcDbVisualStyle
  2
EdgeColorOff
 70
    22
 71
     2
 72
     2
 73
     0
 90
        0
 40
-0.6
 41
-30.0
 62
     5
 63
     7
 74
     1
 91
        4
 64
     7
 65
   257
 75
     1
175
     1
 42
1.0
 92
        8
 66
     7
 43
1.0
 76
     1
 77
     6
 78
     2
 67
     7
 79
     5
170
     0
171
     0
290
     0
174
     0
 93
        1
 44
0.0
173
     0
291
     1
 45
0.0
1001
ACAD
1000
AcDbSavedByObjectVersion
1070
     0
  0
VISUALSTYLE
  5
38
102
{ACAD_XDICTIONARY
360
C9F
102
}
102
{ACAD_REACTORS
330
29
102
}
330
29
100
AcDbVisualStyle
  2
Facepattern
 70
    15
 71
     2
 72
     2
 73
     0
 90
        0
 40
-0.6
 41
-30.0
 62
     5
 63
     7
 74
     1
 91
        4
 64
     7
 65
   257
 75
     1
175
     1
 42
1.0
 92
        8
 66
     7
 43
1.0
 76
     1
 77
     6
 78
     2
 67
     7
 79
     5
170
     0
171
     0
290
     0
174
     0
 93
        1
 44
0.0
173
     0
291
     1
 45
0.0
1001
ACAD
1000
AcDbSavedByObjectVersion
1070
     0
  0
VISUALSTYLE
  5
2A
102
{ACAD_XDICTIONARY
360
C83
102
}
102
{ACAD_REACTORS
330
29
102
}
330
29
100
AcDbVisualStyle
  2
Flat
 70
     0
 71
     2
 72
     1
 73
     1
 90
        2
 40
-0.6
 41
30.0
 62
     5
 63
     7
 74
     0
 91
        0
 64
     7
 65
   257
 75
     1
175
     1
 42
1.0
 92
        8
 66
     7
 43
1.0
 76
     1
 77
     6
 78
     2
 67
     7
 79
     5
170
     0
171
     0
290
     0
174
     0
 93
       13
 44
0.0
173
     0
291
     1
 45
0.0
1001
ACAD
1000
AcDbSavedByObjectVersion
1070
     0
  0
VISUALSTYLE
  5
2B
102
{ACAD_XDICTIONARY
360
C85
102
}
102
{ACAD_REACTORS
330
29
102
}
330
29
100
AcDbVisualStyle
  2
FlatWithEdges
 70
     1
 71
     2
 72
     1
 73
     1
 90
        2
 40
-0.6
 41
30.0
 62
     5
 63
     7
 74
     1
 91
        0
 64
     7
 65
   257
 75
     1
175
     1
 42
1.0
 92
        0
 66
   257
 43
1.0
 76
     1
 77
     6
 78
     2
 67
     7
 79
     5
170
     0
171
     0
290
     0
174
     0
 93
       13
 44
0.0
173
     0
291
     1
 45
0.0
1001
ACAD
1000
AcDbSavedByObjectVersion
1070
     0
  0
VISUALSTYLE
  5
2C
102
{ACAD_XDICTIONARY
360
C87
102
}
102
{ACAD_REACTORS
330
29
102
}
330
29
100
AcDbVisualStyle
  2
Gouraud
 70
     2
 71
     2
 72
     2
 73
     1
 90
        2
 40
-0.6
 41
30.0
 62
     5
 63
     7
 74
     0
 91
        0
 64
     7
 65
   257
 75
     1
175
     1
 42
1.0
 92
        0
 66
     7
 43
1.0
 76
     1
 77
     6
 78
     2
 67
     7
 79
     5
170
     0
171
     0
290
     0
174
     0
 93
       13
 44
0.0
173
     0
291
     1
 45
0.0
1001
ACAD
1000
AcDbSavedByObjectVersion
1070
     0
  0
VISUALSTYLE
  5
2D
102
{ACAD_XDICTIONARY
360
C89
102
}
102
{ACAD_REACTORS
330
29
102
}
330
29
100
AcDbVisualStyle
  2
GouraudWithEdges
 70
     3
 71
     2
 72
     2
 73
     1
 90
        2
 40
-0.6
 41
30.0
 62
     5
 63
     7
 74
     1
 91
        0
 64
     7
 65
   257
 75
     1
175
     1
 42
1.0
 92
        0
 66
   257
 43
1.0
 76
     1
 77
     6
 78
     2
 67
     7
 79
     5
170
     0
171
     0
290
     0
174
     0
 93
       13
 44
0.0
173
     0
291
     1
 45
0.0
1001
ACAD
1000
AcDbSavedByObjectVersion
1070
     0
  0
VISUALSTYLE
  5
31
102
{ACAD_XDICTIONARY
360
C91
102
}
102
{ACAD_REACTORS
330
29
102
}
330
29
100
AcDbVisualStyle
  2
Hidden
 70
     6
 71
     1
 72
     2
 73
     2
 90
        0
 40
-0.6
 41
-30.0
 62
     5
 63
     7
 74
     2
 91
        2
 64
     7
 65
   257
 75
     2
175
     1
 42
40.0
 92
        0
 66
   257
 43
1.0
 76
     1
 77
     6
 78
     2
 67
     7
 79
     3
170
     0
171
     0
290
     0
174
     0
 93
        1
 44
0.0
173
     0
291
     0
 45
0.0
1001
ACAD
1000
AcDbSavedByObjectVersion
1070
     0
  0
VISUALSTYLE
  5
3F
102
{ACAD_XDICTIONARY
360
CAD
102
}
102
{ACAD_REACTORS
330
29
102
}
330
29
100
AcDbVisualStyle
  2
JitterOff
 70
    20
 71
     2
 72
     2
 73
     0
 90
        0
 40
-0.6
 41
-30.0
 62
     5
 63
     7
 74
     1
 91
        4
 64
     7
 65
   257
 75
     1
175
     1
 42
1.0
 92
       10
 66
     7
 43
1.0
 76
     1
 77
     6
 78
     2
 67
     7
 79
     5
170
     0
171
     0
290
     0
174
     0
 93
        1
 44
0.0
173
     0
291
     1
 45
0.0
1001
ACAD
1000
AcDbSavedByObjectVersion
1070
     0
  0
VISUALSTYLE
  5
37
102
{ACAD_XDICTIONARY
360
C9D
102
}
102
{ACAD_REACTORS
330
29
102
}
330
29
100
AcDbVisualStyle
  2
Linepattern
 70
    14
 71
     2
 72
     2
 73
     0
 90
        0
 40
-0.6
 41
-30.0
 62
     5
 63
     7
 74
     1
 91
        4
 64
     7
 65
   257
 75
     7
175
     7
 42
1.0
 92
        8
 66
     7
 43
1.0
 76
     1
 77
     6
 78
     2
 67
     7
 79
     5
170
     0
171
     0
290
     0
174
     0
 93
        1
 44
0.0
173
     0
291
     1
 45
0.0
1001
ACAD
1000
AcDbSavedByObjectVersion
1070
     0
  0
VISUALSTYLE
  5
40
102
{ACAD_XDICTIONARY
360
CAF
102
}
102
{ACAD_REACTORS
330
29
102
}
330
29
100
AcDbVisualStyle
  2
OverhangOff
 70
    21
 71
     2
 72
     2
 73
     0
 90
        0
 40
-0.6
 41
-30.0
 62
     5
 63
     7
 74
     1
 91
        4
 64
     7
 65
   257
 75
     1
175
     1
 42
1.0
 92
        9
 66
     7
 43
1.0
 76
     1
 77
     6
 78
     2
 67
     7
 79
     5
170
     0
171
     0
290
     0
174
     0
 93
        1
 44
0.0
173
     0
291
     1
 45
0.0
1001
ACAD
1000
AcDbSavedByObjectVersion
1070
     0
  0
VISUALSTYLE
  5
33
102
{ACAD_XDICTIONARY
360
C95
102
}
102
{ACAD_REACTORS
330
29
102
}
330
29
100
AcDbVisualStyle
  2
Realistic
 70
     8
 71
     2
 72
     3
 73
     0
 90
        2
 40
-0.6
 41
30.0
 62
     5
 63
     7
 74
     0
 91
        0
 64
     7
 65
   257
 75
     1
175
     1
 42
1.0
 92
        8
 66
   257
 43
1.0
 76
     1
 77
     6
 78
     2
 67
     7
 79
     3
170
     0
171
     0
290
     0
174
     0
 93
       13
 44
0.0
173
     0
291
     0
 45
0.0
1001
ACAD
1000
AcDbSavedByObjectVersion
1070
     0
  0
VISUALSTYLE
  5
3E
102
{ACAD_XDICTIONARY
360
CAB
102
}
102
{ACAD_REACTORS
330
29
102
}
330
29
100
AcDbVisualStyle
  2
Shaded
 70
    27
 71
     2
 72
     2
 73
     1
 90
        2
 40
-0.6
 41
30.0
 62
     5
 63
     7
 74
     0
 91
        4
 64
     7
 65
   257
 75
     1
175
     1
 42
1.0
 92
        8
 66
   257
 43
1.0
 76
     1
 77
     6
 78
     2
 67
     8
 79
     3
170
     0
171
     0
290
     0
174
     0
 93
        5
 44
0.0
173
     0
291
     0
 45
0.0
1001
ACAD
1000
AcDbSavedByObjectVersion
1070
     0
  0
VISUALSTYLE
  5
3D
102
{ACAD_XDICTIONARY
360
CA9
102
}
102
{ACAD_REACTORS
330
29
102
}
330
29
100
AcDbVisualStyle
  2
Shaded with edges
 70
    26
 71
     2
 72
     2
 73
     1
 90
        2
 40
-0.6
 41
30.0
 62
     5
 63
     7
 74
     1
 91
       10
 64
     7
 65
   257
 75
     2
175
     1
 42
1.0
 92
        8
 66
   257
 43
1.0
 76
     1
 77
     6
 78
     2
 67
     7
 79
     3
170
     0
171
     0
290
     0
174
     0
 93
        5
 44
0.0
173
     0
291
     0
 45
0.0
1001
ACAD
1000
AcDbSavedByObjectVersion
1070
     0
  0
VISUALSTYLE
  5
3A
102
{ACAD_XDICTIONARY
360
CA3
102
}
102
{ACAD_REACTORS
330
29
102
}
330
29
100
AcDbVisualStyle
  2
Shades of Gray
 70
    23
 71
     2
 72
     2
 73
     3
 90
        0
 40
-0.6
 41
-30.0
 62
     5
 63
     7
 74
     2
 91
        2
 64
     7
 65
     7
 75
     1
175
     1
 42
40.0
 92
        8
 66
     7
 43
1.0
 76
     1
 77
     6
 78
     2
 67
     7
 79
     3
170
     0
171
     0
290
     0
174
     0
 93
        1
 44
0.0
173
     0
291
     0
 45
0.0
1001
ACAD
1000
AcDbSavedByObjectVersion
1070
     0
  0
VISUALSTYLE
  5
3B
102
{ACAD_XDICTIONARY
360
CA5
102
}
102
{ACAD_REACTORS
330
29
102
}
330
29
100
AcDbVisualStyle
  2
Sketchy
 70
    24
 71
     1
 72
     2
 73
     2
 90
        0
 40
-0.6
 41
-30.0
 62
     5
 63
     7
 74
     2
 91
        2
 64
     7
 65
     7
 75
     1
175
     1
 42
40.0
 92
       11
 66
     7
 43
1.0
 76
     1
 77
     6
 78
     2
 67
     7
 79
     6
170
     0
171
     0
290
     0
174
     0
 93
        1
 44
0.0
173
     0
291
     0
 45
0.0
1001
ACAD
1000
AcDbSavedByObjectVersion
1070
     0
  0
VISUALSTYLE
  5
36
102
{ACAD_XDICTIONARY
360
C9B
102
}
102
{ACAD_REACTORS
330
29
102
}
330
29
100
AcDbVisualStyle
  2
Thicken
 70
    13
 71
     2
 72
     2
 73
     0
 90
        0
 40
-0.6
 41
-30.0
 62
     5
 63
     7
 74
     1
 91
        4
 64
     7
 65
   257
 75
     1
175
     1
 42
1.0
 92
       12
 66
     7
 43
1.0
 76
     1
 77
     6
 78
     2
 67
     7
 79
     5
170
     0
171
     0
290
     0
174
     0
 93
        1
 44
0.0
173
     0
291
     1
 45
0.0
1001
ACAD
1000
AcDbSavedByObjectVersion
1070
     0
  0
VISUALSTYLE
  5
30
102
{ACAD_XDICTIONARY
360
C8F
102
}
102
{ACAD_REACTORS
330
29
102
}
330
29
100
AcDbVisualStyle
  2
Wireframe
 70
     5
 71
     0
 72
     2
 73
     0
 90
        0
 40
-0.6
 41
-30.0
 62
     5
 63
     7
 74
     1
 91
        4
 64
     7
 65
   257
 75
     1
175
     1
 42
1.0
 92
        0
 66
   257
 43
1.0
 76
     1
 77
     6
 78
     2
 67
     7
 79
     3
170
     0
171
     0
290
     0
174
     0
 93
        1
 44
0.0
173
     0
291
     0
 45
0.0
1001
ACAD
1000
AcDbSavedByObjectVersion
1070
     0
  0
VISUALSTYLE
  5
3C
102
{ACAD_XDICTIONARY
360
CA7
102
}
102
{ACAD_REACTORS
330
29
102
}
330
29
100
AcDbVisualStyle
  2
X-Ray
 70
    25
 71
     2
 72
     2
 73
     1
 90
        1
 40
0.5
 41
-30.0
 62
     5
 63
     7
 74
     1
 91
        0
 64
     7
 65
   257
 75
     1
175
     1
 42
1.0
 92
        8
 66
     7
 43
1.0
 76
     1
 77
     6
 78
     2
 67
     7
 79
     3
170
     0
171
     0
290
     0
174
     0
 93
       13
 44
0.0
173
     0
291
     0
 45
0.0
1001
ACAD
1000
AcDbSavedByObjectVersion
1070
     0
  0
DICTIONARYVAR
  5
79
102
{ACAD_REACTORS
330
76
102
}
330
76
100
DictionaryVariables
280
     0
  1
1:1
  0
DICTIONARYVAR
  5
78
102
{ACAD_REACTORS
330
76
102
}
330
76
100
DictionaryVariables
280
     0
  1
STANDARD
  0
DICTIONARYVAR
  5
77
102
{ACAD_REACTORS
330
76
102
}
330
76
100
DictionaryVariables
280
     0
  1
STANDARD
  0
DICTIONARYVAR
  5
C76
102
{ACAD_REACTORS
330
76
102
}
330
76
100
DictionaryVariables
280
     0
  1
1
  0
DICTIONARYVAR
  5
C75
102
{ACAD_REACTORS
330
76
102
}
330
76
100
DictionaryVariables
280
     0
  1
1
  0
DICTIONARYVAR
  5
C74
102
{ACAD_REACTORS
330
76
102
}
330
76
100
DictionaryVariables
280
     0
  1
0
  0
DICTIONARYVAR
  5
C71
102
{ACAD_REACTORS
330
76
102
}
330
76
100
DictionaryVariables
280
     0
  1
0
  0
DICTIONARYVAR
  5
C72
102
{ACAD_REACTORS
330
76
102
}
330
76
100
DictionaryVariables
280
     0
  1
0
  0
DICTIONARYVAR
  5
C70
102
{ACAD_REACTORS
330
76
102
}
330
76
100
DictionaryVariables
280
     0
  1
2
  0
DICTIONARYVAR
  5
C6F
102
{ACAD_REACTORS
330
76
102
}
330
76
100
DictionaryVariables
280
     0
  1
1
  0
DICTIONARYVAR
  5
C73
102
{ACAD_REACTORS
330
76
102
}
330
76
100
DictionaryVariables
280
     0
  1
127
  0
DICTIONARYVAR
  5
C77
102
{ACAD_REACTORS
330
76
102
}
330
76
100
DictionaryVariables
280
     0
  1
2
  0
DICTIONARY
  5
CB5
330
6B
100
AcDbDictionary
280
     1
281
     1
  3
ACAD_XREC_ROUNDTRIP
360
CB6
  0
DICTIONARY
  5
CB9
330
73
100
AcDbDictionary
280
     1
281
     1
  3
ACAD_XREC_ROUNDTRIP
360
CBA
  0
DICTIONARY
  5
CB7
330
6F
100
AcDbDictionary
280
     1
281
     1
  3
ACAD_XREC_ROUNDTRIP
360
CB8
  0
DICTIONARY
  5
1A
330
19
100
AcDbDictionary
280
     1
281
     1
  3
ACAD_XREC_ROUNDTRIP
360
C81
  3
BUMPTILE
360
1C
  3
DIFFUSETILE
360
1B
  3
OPACITYTILE
360
1F
  3
REFLECTIONTILE
360
1E
  3
REFRACTIONTILE
360
20
  3
SPECULARTILE
360
1D
  0
DICTIONARY
  5
12
330
11
100
AcDbDictionary
280
     1
281
     1
  3
ACAD_XREC_ROUNDTRIP
360
C80
  3
BUMPTILE
360
14
  3
DIFFUSETILE
360
13
  3
FBXASSET
360
F5
  3
OPACITYTILE
360
17
  3
REFLECTIONTILE
360
16
  3
REFRACTIONTILE
360
18
  3
SPECULARTILE
360
15
  0
DICTIONARY
  5
22
330
21
100
AcDbDictionary
280
     1
281
     1
  3
ACAD_XREC_ROUNDTRIP
360
C82
  3
BUMPTILE
360
24
  3
DIFFUSETILE
360
23
  3
FBXASSET
360
BA
  3
OPACITYTILE
360
27
  3
REFLECTIONTILE
360
26
  3
REFRACTIONTILE
360
28
  3
SPECULARTILE
360
25
  0
DICTIONARY
  5
C7A
330
67
100
AcDbDictionary
280
     1
281
     1
  3
ACAD_XREC_ROUNDTRIP
360
C7B
  0
DICTIONARY
  5
C78
330
65
100
AcDbDictionary
280
     1
281
     1
  3
ACAD_ROUNDTRIP_2008_TABLESTYLE_CELLSTYLEMAP
360
C79
  3
ACAD_XREC_ROUNDTRIP
360
CB3
  0
DICTIONARY
  5
C8D
330
2F
100
AcDbDictionary
280
     1
281
     1
  3
ACAD_XREC_ROUNDTRIP
360
C8E
  0
DICTIONARY
  5
C8B
330
2E
100
AcDbDictionary
280
     1
281
     1
  3
ACAD_XREC_ROUNDTRIP
360
C8C
  0
DICTIONARY
  5
C99
330
35
100
AcDbDictionary
280
     1
281
     1
  3
ACAD_XREC_ROUNDTRIP
360
C9A
  0
DICTIONARY
  5
CA1
330
39
100
AcDbDictionary
280
     1
281
     1
  3
ACAD_XREC_ROUNDTRIP
360
CA2
  0
DICTIONARY
  5
C93
330
32
100
AcDbDictionary
280
     1
281
     1
  3
ACAD_XREC_ROUNDTRIP
360
C94
  0
DICTIONARY
  5
C97
330
34
100
AcDbDictionary
280
     1
281
     1
  3
ACAD_XREC_ROUNDTRIP
360
C98
  0
DICTIONARY
  5
CB1
330
41
100
AcDbDictionary
280
     1
281
     1
  3
ACAD_XREC_ROUNDTRIP
360
CB2
  0
DICTIONARY
  5
C9F
330
38
100
AcDbDictionary
280
     1
281
     1
  3
ACAD_XREC_ROUNDTRIP
360
CA0
  0
DICTIONARY
  5
C83
330
2A
100
AcDbDictionary
280
     1
281
     1
  3
ACAD_XREC_ROUNDTRIP
360
C84
  0
DICTIONARY
  5
C85
330
2B
100
AcDbDictionary
280
     1
281
     1
  3
ACAD_XREC_ROUNDTRIP
360
C86
  0
DICTIONARY
  5
C87
330
2C
100
AcDbDictionary
280
     1
281
     1
  3
ACAD_XREC_ROUNDTRIP
360
C88
  0
DICTIONARY
  5
C89
330
2D
100
AcDbDictionary
280
     1
281
     1
  3
ACAD_XREC_ROUNDTRIP
360
C8A
  0
DICTIONARY
  5
C91
330
31
100
AcDbDictionary
280
     1
281
     1
  3
ACAD_XREC_ROUNDTRIP
360
C92
  0
DICTIONARY
  5
CAD
330
3F
100
AcDbDictionary
280
     1
281
     1
  3
ACAD_XREC_ROUNDTRIP
360
CAE
  0
DICTIONARY
  5
C9D
330
37
100
AcDbDictionary
280
     1
281
     1
  3
ACAD_XREC_ROUNDTRIP
360
C9E
  0
DICTIONARY
  5
CAF
330
40
100
AcDbDictionary
280
     1
281
     1
  3
ACAD_XREC_ROUNDTRIP
360
CB0
  0
DICTIONARY
  5
C95
330
33
100
AcDbDictionary
280
     1
281
     1
  3
ACAD_XREC_ROUNDTRIP
360
C96
  0
DICTIONARY
  5
CAB
330
3E
100
AcDbDictionary
280
     1
281
     1
  3
ACAD_XREC_ROUNDTRIP
360
CAC
  0
DICTIONARY
  5
CA9
330
3D
100
AcDbDictionary
280
     1
281
     1
  3
ACAD_XREC_ROUNDTRIP
360
CAA
  0
DICTIONARY
  5
CA3
330
3A
100
AcDbDictionary
280
     1
281
     1
  3
ACAD_XREC_ROUNDTRIP
360
CA4
  0
DICTIONARY
  5
CA5
330
3B
100
AcDbDictionary
280
     1
281
     1
  3
ACAD_XREC_ROUNDTRIP
360
CA6
  0
DICTIONARY
  5
C9B
330
36
100
AcDbDictionary
280
     1
281
     1
  3
ACAD_XREC_ROUNDTRIP
360
C9C
  0
DICTIONARY
  5
C8F
330
30
100
AcDbDictionary
280
     1
281
     1
  3
ACAD_XREC_ROUNDTRIP
360
C90
  0
DICTIONARY
  5
CA7
330
3C
100
AcDbDictionary
280
     1
281
     1
  3
ACAD_XREC_ROUNDTRIP
360
CA8
  0
XRECORD
  5
CB6
102
{ACAD_REACTORS
330
CB5
102
}
330
CB5
100
AcDbXrecord
280
     1
102
SHADEPLOT
 70
     0
102
SHADEPLOTRESLEVEL
 70
     2
102
SHADEPLOTCUSTOMDPI
 70
   300
  0
XRECORD
  5
CBA
102
{ACAD_REACTORS
330
CB9
102
}
330
CB9
100
AcDbXrecord
280
     1
102
SHADEPLOT
 70
     0
102
SHADEPLOTRESLEVEL
 70
     2
102
SHADEPLOTCUSTOMDPI
 70
   300
  0
XRECORD
  5
CB8
102
{ACAD_REACTORS
330
CB7
102
}
330
CB7
100
AcDbXrecord
280
     1
102
SHADEPLOT
 70
     0
102
SHADEPLOTRESLEVEL
 70
     2
102
SHADEPLOTCUSTOMDPI
 70
   300
  0
XRECORD
  5
C81
102
{ACAD_REACTORS
330
1A
102
}
330
1A
100
AcDbXrecord
280
     1
102
MATERIAL
148
0.0
149
0.0
149
0.0
 93
        0
 94
      127
282
     0
 72
     0
 77
     0
171
     0
175
     0
179
     0
273
     0
  0
XRECORD
  5
1C
102
{ACAD_REACTORS
330
1A
102
}
330
1A
100
AcDbXrecord
280
     1
270
     1
271
     1
  0
XRECORD
  5
1B
102
{ACAD_REACTORS
330
1A
102
}
330
1A
100
AcDbXrecord
280
     1
270
     1
271
     1
  0
XRECORD
  5
1F
102
{ACAD_REACTORS
330
1A
102
}
330
1A
100
AcDbXrecord
280
     1
270
     1
271
     1
  0
XRECORD
  5
1E
102
{ACAD_REACTORS
330
1A
102
}
330
1A
100
AcDbXrecord
280
     1
270
     1
271
     1
  0
XRECORD
  5
20
102
{ACAD_REACTORS
330
1A
102
}
330
1A
100
AcDbXrecord
280
     1
270
     1
271
     1
  0
XRECORD
  5
1D
102
{ACAD_REACTORS
330
1A
102
}
330
1A
100
AcDbXrecord
280
     1
270
     1
271
     1
  0
XRECORD
  5
C80
102
{ACAD_REACTORS
330
12
102
}
330
12
100
AcDbXrecord
280
     1
102
MATERIAL
148
0.0
149
0.0
149
0.0
 93
        0
 94
      127
282
     0
 72
     0
 77
     0
171
     0
175
     0
179
     0
273
     0
  0
XRECORD
  5
14
102
{ACAD_REACTORS
330
12
102
}
330
12
100
AcDbXrecord
280
     1
270
     1
271
     1
  0
XRECORD
  5
13
102
{ACAD_REACTORS
330
12
102
}
330
12
100
AcDbXrecord
280
     1
270
     1
271
     1
  0
XRECORD
  5
F5
102
{ACAD_REACTORS
330
12
102
}
330
12
100
AcDbXrecord
280
     1
 70
     1
 90
1959938040
 71
     1
  1
1A4FF3B6-76F5-4824-995B-95E4F7BC854D
311
504B03040A0000080000365D32403DEE336E79000000790000001B0000006175746F6465736B2D64657369676E2D7061636B6167652E786D6C3C3F786D6C2076657273696F6E3D22312E302220656E636F64696E673D227574662D3822203F3E3C666F726D6174733E3C666F726D61743E687474703A2F2F736368656D612E
311
6175746F6465736B2E636F6D2F64657369676E2D7061636B6167652F323030393C2F666F726D61743E3C2F666F726D6174733E504B0304140006080800365D3240D486FD9CA0000000F4000000130000005B436F6E74656E745F54797065735D2E786D6C7D8EC10E82300C865F65E91D8A1E8C310C0EEA1BF002731658846E
311
D98AC1B77784ABF1D8FE5FBFBF75BBCE937A534CCEB38643598122B6FEE978D0B0485F9C41B54DDD7D022595594E1A469170414C76A4D9A4D207E29CF43ECE46F218070CC6BECC4078ACAA135ACF422C856C0E68EA1BF5669944DDD7BCDE7B1F8E415D77AECB980613C2E4AC91FC167A2B244592486606FC29C8FD7F045B9A
311
EF7053A7E60B504B0304140006080800365D324088AD8350E90000007C01000008000000636F72652E786D6C8D905D6EC3201084AF82F61D1BFC9B46984834EE097A0104C44189C13250F5F8C58923B56F95907635CCB7BB1A76FA9EEFE8CBACC17A37002D0820E394D7D64D03A478C1074027CE56EFE32F1B20276733C026
311
0367D3EAD3B24BCABB685CCCAAF3DAECA20CC14440EA9E9B0182BA9A591632C5EC08B76291EA262753D05797E194AC46CF2556E779F662CD0A5C54A368DBB6C6EFE7FE0D376345B1105D8BFBF12CE847D78B9A36ACDC60CEA29D5FFBD56A64341A7845688509C5F4F049E9B1C9AFC5A43B12C2CACDFE074A8BFE2794AC8B75
311
B59FFBC402709A0F797C70566E59E4F2082AD72D37FE03504B0304140006080800365D324055019EA25F0000007C00000007000000636E782E786D6C4DCB3B0E80201045D1AD90E915ED2CF8AC45050C11660C8261F98AB1B07AC9C97D42D718D865D3E909258CFD00CCE24AC6E326A164D74DC0B4128928FF326038472BA1
311
3128B1252AC747C6BAB984FC68F0B87FE8960A5C09FE86CFB69FBA01504B0304140006080800365D32407B3E82F665010000020300000C0000006662782F636F72652E786D6C8D52ED8E8230107C95A6FF4B29827AA6D484D37B827B810A956B84969496F8F8B77C18CF8B310602CDCCCEEEEC00DF5FDB060DCAF5DA9A1CB3
311
28C64899D256DAD4390EFE4CB618ED0577D6FA3F651819D9AA1C8F3016BC7636740B545AE395F1801A5BA905947DAF3C466503871CF7E58F6A652483878AFE1275B2BCC85A452C021AEA04EFBD0303681E323EB1389FAE9CCEB8E021E86A617505D3F4592B8745911C8B2CCB56E4F3B0F920E93161A428D619D91C0F05FB5A
311
6F8A154B391DC5827BDDDEDC954E49AF2A2C9298252466846DBF19DBA57067245EEFE298D3B1FC4114BAEA4D51D0C6AF92C5EE2CEBB160606422FE6D0B1179D4CB01FC50C1E91822BCA6841F83864020642F4FCD6D8F0B40832ABD752930950D776A904D50303546D3C5E9CC42E7A9016CF6B44FF2A2CFEB1EF001A5A9C19A
311
F4703C053F4EE7F3D4258A4E3932F82B32D6B5B2B99B9B2DDE9FF7414FE5A56DAC7B474D9755E912261DFF5EF10B504B0304140006080800365D32409B1642447E0000009D0000000B0000006662782F636E782E786D6C4DCCD10A83201886E15B91FFDC952EAD811A4BDC7DC4B290990EA76397BF1A1DECE883878F57F49F
311
D5A3B74D2F17830472AA01D9708F930B8B849267DC01EA954831E6BF1BA030AE56C2CEA0C49262791E34D9792C3E6FEA5D781C380C9A92865FB1AE2F2D6E5AC371A709C537A20DA38C9D8DE1502951FD4ADBEE61F505504B0304140006080800365D32409CB1EDC62A01000014020000310000006662782F42424332313436
311
412D433039372D343745362D384331322D4631434535323535334545362F636F72652E786D6C8D515B6EC32010BC0AE22BFDB00D8E4D9C081335967B825EC031244589C1E251E5F85D6A476AFF222140B333B3A35D7E7C4C77F4AD9CD7D6B498E6042365462BB5B9B638864BD6607414DC591BFED03032C3A45A9C602CF8D5
311
D938AFD0684D5026006AAC542B3878AF0246E31D3E2DF6E3979A867C880118FE96CFC3781BAE2AA739948127B80F0E02A0A549BAB1389DBA9256EC3DEBC87E9755BB9E654D47CBEC83767D5DD6F5B6EF192F16A1E0316AB9CAB58438FAA2957BD52489050F7A7AC61F9D1A82925894043A129AD1E693D24305A7CE083B10C2
311
8B44FF278AB37C5114B509DB728DBBC83C1694174B417069E3F9FE0CA31EB37501A57E1BAFC6372C484EE89E5156C100162A0C003C59B57AFA601D0C78733B039BD68B31AB042FD28EE0F95D20BC699FE207504B0304140006080800365D3240878D3CCE4C01000033030000300000006662782F42424332313436412D4330
311
39372D343745362D384331322D4631434535323535334545362F636E782E786D6CD593CD6EC32010845F0571F70FA91B451126520F7D821E7AC5B049683058FC54CDDB7749689A4B0E3D56B290353BCCAC3ED97CF7355BF209211AEF46CADA9E1270CA6BE30E23CD69DF6C28D9091EBC4F77364A9C9C61A445A6821F82CF4B
311
9534EC65B609556BDCA98A01A2CF414144B9DC24D62B6931005C9351847902AD41939B11DFF610701514A733494720AF2FEFC44F1FA052E45D4911BC2B1D8297B336DD99285156C638D2A88E30CB56E6E435C453AB65922D6B7FBA1EECF49B44CA859FCA1C0C29E5232D271575A31639F20E8782C714905E35A5F30254C865
311
B146C98490BB8BF1EA113C1B97D643F51A041FD0CDD64FC380619799E0C9CC501D2A804CA0A958F56CD5F4AC619B37C6B6033ECF4DBFDEF63DEF8A5DF0C97B5B2F610C04BF10E55D0297A860BC2BE347F8AA8F681390B50FE73F804400B5F54AE796F19FF97497EF1B7105FC0BC437504B0304140006080800365D32405FBA
311
472B9B0500007B100000340000006662782F42424332313436412D433039372D343745362D384331322D4631434535323535334545362F6F626A656374732E786D6CAD57DB6EDB3810FD1541FB2CCBD7345E282A623B2E8C6EDAA2468B7D08605012A570435D4052A9D3AFDF43899225D74EBC8BBE4822450E67CE9CB9D07B
311
BF4FB9F54C85647976638F0643DBA25998472C4B6EEC52C5CEB56DBDF73D91E7AAB3CCB63292D21B5B4FDBBE9788BC2CCC54446352727534BB5EFC6DC99066D4B6424EA4BCB165F848533220A5CA232A9F0611516490C4FBC168502FEC8B4D04291E8F841644D04C4153CC679062D54A8DFAC3A1EDFA9EABFFFB9E7E9A5593
311
F3ABDCCA9EFEF92C938A64E12F871D89998CA6ABBBF16CEECCA6D38933BD1A8F9CC57AB17246EF26C3E5D57239BFBD9BE360A90424194D048D6DFF03B0112CF4DCFA97EF952C5393B159621CE40AFACCB4A76C7F6C8D3CB75ED35A678C3CA57E9867190D2BAC8046659F111DD18266117CCEA884661D8486FDE148E3D8F93D
311
D163736477FA3204BA3B3A821ADD9B7757D33CF80726C84B182424D50CACB13486D65C1D1E100EF29C9B7F4C5A29515430C22DCE0241C48BED63A95EE27B3D319AC9424783B6C0F6E185FA779F2E08A3B7797E4ACBB8E45CD3D8F6AB28D82156A8929566EC271507EDBBC84027F84AB3E1DA18A45E0A6AFBF39A22D7476CAA
311
81B4624E12B81C66EA9D93F191A14B1DA79B95ED7F5C07FBAD8EDDD38717222FA8509A3EA056E3B8E6AD51323A8D2EF29CDE601FA97200E52B90FF84503FA802BF09B69FEEA7E614254826E35CA4F08D35B49C211E436B543DF577E7CB73DBCD7DEF9DC313CED650FD063CFB36747DD981D3F79E41F85C4C8C69DB9070A48D
311
7B9601204D128BE798421E8E83BDED6F90E59095B18B707F0493A1EE333E3DD78841A2A84EEABC33607994162F48D080AD6224D4A8C96F143CF8E99774561D6C969D8377F65BE87ABBDA7EDC96222621BD3731BDA231CB9842893BF0A6AB500FF39E454FF4E5472E2218FA2BDEDB2EDEA9394A026D8DB9063E6972BA1E1C4E
311
EE1D10625F92EB74E3BD71028CD085B523FF9EC990724E329A97CDB9AFD60F948D1A621DEC9AC96D8139141690A6FE73148328D2A1608506B1AD566DD21C9CB1EEDBE6131869FB8B97BFC84B377B0587DC1BE63C17BBE06557A7A593507FEF73DB60E06A29A07B15244DFC1BD077118BE35222099EC0F5FB66D9F59D4E0B48
311
118DD43A5AA6B01FC14584216D2317D55A1054D23CDB31D44DC4DDC903BAF201A9614025F09CC692F278C7382FD35DCC38AAD12E25C51938FEBFFE4199163B92E665A6CEC8EEA98EEAD0D7BDC75EF983A8F0D1F6B7D5DB5920F746343A43065D4B4E60D577EDED74BD9E2CAE9C7757EB9933BD1E4F9DF97CB670E6B3BBE9FA
311
DD62793D9BAE1A3FD59AF85E536ABA110D2FA1B479A560C67DDF36881F93046CFF9E28F9F0A10ECFE6FD6D33402FECB9D8837AD96EBC8D9ED1F7D1E86D01879527056DD282D394668AE818BAD71FFC2B419FD153A69EDFA424A11748F9FC617B640C662ED8F745C73BFD71B4D7CC2E75409E14A21ECB34C808E3471B931AC9
311
41912506BFC627EDBB2E34CD508F8C63D099CA9CB3087930B2129AA754211B5E5084444A25A8D7EDE92373F7B860F773DD212A1270DA68F248D0247389B000B5CA50F5E7AD3FD0D4E9BEEAC646B91D3CE16132856D813337369A74C5422A07010AB46E852AE1E052B79347E34FB284A3D7AE37B5E37697C6A65792DB2597F4
311
4FC6AE3A851B0390460AF40D6888E09D4A19DFAB7433FFC3FF6478A38E45143E8352B5B61C265A63AA6310A2B551E6B68026E6C91CBD47A0BE6ED66850ADE92172D12DEB5512D4521D454452DD14B47E46A5DBD517171D8AB5F96C15BC4CE0CBCB25398282CCA50E70B008AC30320BA240D5E59F0F5F448E9B6C6AAD1928F0
311
B0CCD334CFCCE0D6DC84ADED23EEB5D103D202D51712F9301E8EC60FD545C0DC4D760191744022F98409F854B016E29EE3C1C8FAB6880A54FF68D7B9DA0947DCDCAC2C53D2A6106A88D2CDAA1A16B41C19B5103DFA32A963A5BBA078F52EE0564BA1824017EFFF0B504B0304140006080000365D3240000000000000000000
311
000000350000006662782F42424332313436412D433039372D343745362D384331322D4631434535323535334545362F76657274696365732E62696E504B0304140006080800365D3240F270F1330600000004000000360000006662782F42424332313436412D433039372D343745362D384331322D463143453532353533
311
4545362F747269616E676C65732E62696E636660600000504B0304140006080000365D3240000000000000000000000000370000006662782F42424332313436412D433039372D343745362D384331322D4631434535323535334545362F617474726962757465732E62696E504B0304140006080800365D3240D5987DFC8F
311
00000041010000360000006662782F42424332313436412D433039372D343745362D384331322D4631434535323535334545362F6469726563746F72792E786D6C858F410EC2201045AF4266AF15DDB800BA74E7C21B903225242D6328188F2FA5C4183471359997F9FF81E89FF3C41E1816475E02DF1F80A11FC8386F25A4
311
38EECEC07A250251FC3803E6F58C12560C4AD840E95E91C151A72936F496F35732D860FE635F62C8F2DA16B505C545B74125BAA2FA9E05D7CC053D063734D5C7665FD55B6B8D15D5E9BFEAFD8490FFA45E504B0304140006080800365D32409B06ADC8FC000000A00100003B0000006662782F42424332313436412D433039
311
372D343745362D384331322D4631434535323535334545362F7265736F75726365732F636F72652E786D6C8D505B6E833010BC0ADA7F83ED404823E34834F404BD806536D44AB0911F558F5F13A8D4FE55B2BCAB796847232E5FF3A3F8441F8CB31DB092428156BBD1D8A983146FE404C5450AEF5CFC2583C2AA193B586190
311
62F22E2D3BA49D8D686346AD1B7107550818A1D08FBC7410F407CEAA54296645B8978BD2773561C9CA4C679D1421FA1CA0D88EAC3F488FC125AF31886A63A548C98CBBC68CF9A6B919F4207B3EF44DD370F27A6D5F483D7046FAFED89076B8F6ECEDD8F607568B6A354B11CDFC93517B541147909C324E2823ECF4CED8B9CE
311
AF21F478A65454ABFC8F292DE33F4DC9D878E07BDCCD1640B21CE4494851AD7DE5F12C33CFB55BF90D504B010214000A0000080000365D32403DEE336E79000000790000001B00000000000000000000000000000000006175746F6465736B2D64657369676E2D7061636B6167652E786D6C504B0102140014000608080036
311
5D3240D486FD9CA0000000F40000001300000000000000000000000000B20000005B436F6E74656E745F54797065735D2E786D6C504B01021400140006080800365D324088AD8350E90000007C010000080000000000000000000000000083010000636F72652E786D6C504B01021400140006080800365D324055019EA25F
311
0000007C000000070000000000000000000000000092020000636E782E786D6C504B01021400140006080800365D32407B3E82F665010000020300000C00000000000000000000000000160300006662782F636F72652E786D6C504B01021400140006080800365D32409B1642447E0000009D0000000B0000000000000000
311
0000000000A50400006662782F636E782E786D6C504B01021400140006080800365D32409CB1EDC62A0100001402000031000000000000000000000000004C0500006662782F42424332313436412D433039372D343745362D384331322D4631434535323535334545362F636F72652E786D6C504B01021400140006080800
311
365D3240878D3CCE4C010000330300003000000000000000000000000000C50600006662782F42424332313436412D433039372D343745362D384331322D4631434535323535334545362F636E782E786D6C504B01021400140006080800365D32405FBA472B9B0500007B10000034000000000000000000000000005F0800
311
006662782F42424332313436412D433039372D343745362D384331322D4631434535323535334545362F6F626A656374732E786D6C504B01021400140006080000365D324000000000000000000000000035000000000000000000000000004C0E00006662782F42424332313436412D433039372D343745362D384331322D
311
4631434535323535334545362F76657274696365732E62696E504B01021400140006080800365D3240F270F133060000000400000036000000000000000000000000009F0E00006662782F42424332313436412D433039372D343745362D384331322D4631434535323535334545362F747269616E676C65732E62696E504B
311
01021400140006080000365D32400000000000000000000000003700000000000000000000000000F90E00006662782F42424332313436412D433039372D343745362D384331322D4631434535323535334545362F617474726962757465732E62696E504B01021400140006080800365D3240D5987DFC8F00000041010000
311
36000000000000000000000000004E0F00006662782F42424332313436412D433039372D343745362D384331322D4631434535323535334545362F6469726563746F72792E786D6C504B01021400140006080800365D32409B06ADC8FC000000A00100003B00000000000000000000000000311000006662782F4242433231
311
3436412D433039372D343745362D384331322D4631434535323535334545362F7265736F75726365732F636F72652E786D6C504B0506000000000E000E0080040000861100000000
310
504B03040A0000080000365D32403DEE336E79000000790000001B0000006175746F6465736B2D64657369676E2D7061636B6167652E786D6C3C3F786D6C2076657273696F6E3D22312E302220656E636F64696E673D227574662D3822203F3E3C666F726D6174733E3C666F726D61743E687474703A2F2F736368656D612E
310
6175746F6465736B2E636F6D2F64657369676E2D7061636B6167652F323030393C2F666F726D61743E3C2F666F726D6174733E504B0304140006080800365D3240D486FD9CA0000000F4000000130000005B436F6E74656E745F54797065735D2E786D6C7D8EC10E82300C865F65E91D8A1E8C310C0EEA1BF002731658846E
310
D98AC1B77784ABF1D8FE5FBFBF75BBCE937A534CCEB38643598122B6FEE978D0B0485F9C41B54DDD7D022595594E1A469170414C76A4D9A4D207E29CF43ECE46F218070CC6BECC4078ACAA135ACF422C856C0E68EA1BF5669944DDD7BCDE7B1F8E415D77AECB980613C2E4AC91FC167A2B244592486606FC29C8FD7F045B9A
310
EF7053A7E60B504B0304140006080800365D3240256E0AA0E80000007C01000008000000636F72652E786D6C8D90618AC3201085AF22FE3751EBA649319685644FB017109DA6D24643D4658FBFA64D61F7DF8230C3F37D33C393E7EFF98EBE608D2EF81EB38A6204DE04EBFCD4E39C2EA4C5E8ACE41A42FA65C3C8EB197ABC
310
C958C9690D79D925137C029F8AEA83855DD43142C2C8DC4BD3E368AE30EB4AE7541CF1562DDADCF404157B7505CED959F45CE26C99E72E0E56ACB8E0E2D8B0231979FB4E84A007D27D0C82B0AE6BBA711CC6810A596FB092C9CDAFFD66059DC0169E324E2823ACFD64EC24CA7B23B439512AEBCDFE07CA8BFD27949D4F07BE
310
9FFBC42256AC1CF2F850B2DEB228E51154A95B6EEA07504B0304140006080800365D324055019EA25F0000007C00000007000000636E782E786D6C4DCB3B0E80201045D1AD90E915ED2CF8AC45050C11660C8261F98AB1B07AC9C97D42D718D865D3E909258CFD00CCE24AC6E326A164D74DC0B4128928FF326038472BA131
310
28B1252AC747C6BAB984FC68F0B87FE8960A5C09FE86CFB69FBA01504B0304140006080800365D3240C680B55964010000020300000C0000006662782F636F72652E786D6C8D52ED8E8320107C15C27F04ACD7D606692EA9F704F70254A967AA60104C1FFFD68FC6EBA5691A8D92999DDDD95171BCB50D1AB4EB6B6B32CC23
310
869136852D6B536538F80BD9637494C259EBFF94616454AB333CC2588ACAD9D02D50618DD7C6036A6CA91750F5BDF618150D1C32DC173FBA55910A1E2AFA6BD4A9E2AA2A1DF10868A893A2F70E0CA079C8F8C4F272BE093AE3528450970B5B9730ADBED4DA61192771B2DBF21DC9E3FD274912B621E9D729213C4DB7699E9F
310
F2134B041DC552F8BABDBB2B9C565E97A0673C268C13BEFFE6FC90C0FD41D8F6C098A063F9832874E59BA2501BBF8917BBB3ACC792839189F8B72D44E451AF06F043A5A06388F09A127E0C1A028190BD3A37F73DAE000DBAF0D625C09436ACD4A09AA0612A43D325E8CC42E7A9016CF6B44FFCA2CFEB1EF00195A9C09AF270
310
3C073F4E17F3D4258A4E3B32F81B32D6B5AA59CDCD16D7E73AE8A9BCB08D75EFA8E9B22A5DC2A4E3DF2B7F01504B0304140006080800365D32406DB132B97E0000009D0000000B0000006662782F636E782E786D6C4DCCDF0A83201C86E15B91DFB9EB0F4B37504333EF239685643A9C8D5DFE6A74B0A30F1E3E5ED67E568F
310
DE36BD5C0C1CAA4B09C886471C5D98396C79C23740AD6029C6FC77031486D5723818049B53DC9E278D761A369F77F52E2C27AA8E2AD24883A5EE08BE36F48E152D0DEEB59175A54959D31E0AC18A5F69DF232CBE504B0304140006080800365D32404C0CE60D2A01000014020000310000006662782F42433742363541462D
310
414443362D343537392D423730462D4544464132314436303237452F636F72652E786D6C8D515B6EC32010BC0AE22BFDC006E2D8698489F23C412F4081A42831583CAA1CBF503B52FB1709B168766676C4B2ED63B8836FED8371B687A4C210682B9D32F6DAC3142F680DC19633EF5CFC4383C08A41F7B0C090B3AB77699C21
310
E96CD43666D43AA5675084A02304F29E1F3D0CF24B0FA212296646B855A3903771D515A9723BF3380BD1E700601A526EC8F7876EDFAE7667B43B1E5AD4ACBA77B4EFF0199D8EE71D25C716D3EEC4EA49C8594A46CD72A3721C7331DABF6A52C49C45333CE34BAF45D40A728A09459820B2FE2064D3E4B342B8DD60CCEA42FF
310
274AA37A51948C8D4B3AC79D640172C2EAA9C19972E9F3FE0CA31FA3F31194798BA0E51BE4B8C2142FE9BA69583D51F30764CFB6993D43743E7FF0E2F699D9CBD9B86D38ABCB8E72F95D60AE659FFC07504B0304140006080800365D3240E12AF3D95401000033030000300000006662782F42433742363541462D41444336
310
2D343537392D423730462D4544464132314436303237452F636E782E786D6CBD93CD6EC32010845F0571F70F896B451126520F7D821E7AC5B04969305880ABE6EDBB2424CD25874A55250B59B3C3CCEA93CD775F93259F10A2F16EA0AC6E2901A7BC36EE30D025EDAB0D253BC183F7E9CE468993130C34CB54F043F0CB5C24
310
0D7BB9D884AA35EE58C400D12F41414439DF24D62B6931005CB5A008D3085A83263723BEED21E02A288E2792DE81BC3CBF113F7E804A91373945F02677089ECFD27467A2445919E340A37A8749D672495E433CD65A2659B3FADAF560A79F24922F5C2B9760482E1F683EA9281BD5C8913738143CA680F48A299D66A042CEB3
310
354A2684DC9C8D178FE08B71A9EF8AD720F880EEF5AADF6C30EC3C133C99098A430590093415AB96ADAA96556CF3CAD8B6C3E7A96AFB6DDBF226DB051FBDB7E512C640F03351DE2570890AC69B3C7E84AFF888360159FB70FA054804505A2F746E197FC987F5EBAEFB473ECDF9FB465C01FF02F10D504B0304140006080800
310
365D32404CF417115B070000941B0000340000006662782F42433742363541462D414443362D343537392D423730462D4544464132314436303237452F6F626A656374732E786D6CED59DD739B3810FF5718EED9D8C4761ADF103A89D3743CBDB49DFADAB987CC3032C8441721184924F1FDF5B7FA00033109BEE6DEFA6003
310
425AEDFEF6534BF0FE29A3CE03E682E4ECDCF5BD89EB6016E70961E9B95BCAEDE8CC75DE8701CF73D998E63A0C65F8DC55C36E18A43C2F0B3B94E02D2AA9EC8C5E5FFEE5881833EC3A3145429CBB22BEC319F25029F3048B7B2F411279E9F6C9F33D33B14D36E5A8B8EB102D10C74C02A730CE808A6398F2DB8F13771C0663
310
F53E0CD4BF9D351D346BD63F6BACA56E7349989088C5CF58EA90990E6269EACFAE3E9CCC17A3F96C361DCD4E4FFCD1E5F5E5D5C87F379D2C4F97CBC5C58705B0B7C9736A654A70815902FADBB9A11F8CD59B5A748BC021AEE39C311C6B20012A2D569720C102B66AC037693FFA4AA2C66B2D61E379A6DE5B161AC3D33695BE
310
59C38068D10541EC7695C4D5B5295FBEF91B0417438C920B2C815B213968D7C2C3C12BDC70128CCD68186CF6BA20C2C990C49C20EA50B2E188835260AA9A1206668125A39C8303294749A035675EB76D0B3CF375D739C4E5B6A45479861B6AC78AC0FDB0149A33F20FE67BEE9BC8004F206D49983CB35CCA5D81DD70118CF5
310
6018A8CBF4C4BE34403A5B8A52A111316F3B822E95EBAFAEDCF0D3F5E669ADC2C1E1CD0B9E17984B65744A8F9A2F30647B5528D96DFD419A530B401803AA5DB907E51B20FF19A2C79E15D01B274FB3A7999D2B3962629BF30C74E34C9CD104FE268EAFFFD57DE32E18D78BDBDAEBC313DC544175F6F378B665D05859FE1B70
310
86C103187CCEA7F6D53A4614ECF986300048198943731882D0BEDD3CB9E10A0227047A588568E883C8C0EE03DC06634B66AF95CABDACD73140D4EE311DA224804D5B24B0D1A3A78F903D3889F76A6A8AD807EFFC4DCCF5E26AFD695DF22D8AF18DF5E92BBC258C48C89A87196A61DE92E81EEF1E739E80A0CFF15E37F1CEEC
310
5602D056982BE0D30A04F5B0DFB9B5410CEBD25C859BE0951D400895AB1BF46F888831A588E1BCACF6ADA39B32D4DAE36DCDE0862706E2E949C784397E20AAAA00A7D9CF68310A793FE6A45020BAE14723591D34BD1EE9BEAF3E8345D6F37B66AD18845E86E89F3A681DC0A165D915D216885AE0CD3E9CC739CD79B4D94526
310
D2B9504B001B6D6FF9D1220AB1DE284951010FD27E578594D4481B2564BB2D05C4D5032CFE582D9BE630F1A6FEDC69FE779C7106D1167C1771EB779D3D2292A114475B94F46DD7DCADA62D34C91ED21C6F29C8451E88DC4548469304A7C7407314F1C59B524F692E04615840BE3A087E138D890781C468B3625969B5033411
310
518625A2C720A0C8F480ABD38EAE7163281D5EE7B1B6DE9734D624FA3F590447504BE62C22508A420E799571DF9B430C69A36B50EEE00BD656D1D662D0124A8878173D6292DEC9635037E47B708FE14852CA282F500C663D80EC335F514AEDF0BE41F1BDCA1F515CD2B7321081E93622949659043FC2E0E431C4B5EBC0F422
310
0A0DE226F6499C41518664C9876C723A9F3CDBC7D40CDD10D8D8684B2884ED2843450FEAAD80A8EB11A706DF52EF51EAA6CC8A086579C906198A37ED7A9325DF55AB223B905F552A42D95811B604C380305967D52A6683A9EBC00A6EA403D52E12282BA83985BD9278FCDA9B34E5DE0DB8F5D3B7DD2083C2AF477BCD883AAB
310
60B03CB60A03F188647CE7866B7D1D5D42FD9DE0649FEAAB5AB3590102622A92979C58157D5F4179636B3437BC4152DC7E3459B7BA7E5F79D0FD08C6B0066A977AE14A019D612691AA4C6ED40DFD862004B76898F195CAA9C750B948125D35227A4DFAD4D92A235A9B66C42BEE30CB33F8B15BC2625A26F81625E23EBA9134
310
5A13C5BA95D2CB4885F18B027EF9B8EEC003230344FAAA0A3CFCD8596B4797AA5C3A4844DE95D986210241B0255A6A74E3152CB51AA9B45C5FD59902EA2E3030ABE2D9AF9345B31DF1EB64915AC3F8A993C5E5EE0FB46BF6451AE93C56767DD431A0CE4F8ACA5B1C0374DBA1A65A671193CCADFCD69922088A55941F5C8D55
310
41C310ECE3F83F67EDBE2C68B6EBF07F5CD6F69F551C476595D664D5A53A50B9AE9A39CCBF985D5F4F2F4F47EF4EAFE7A3D9D9C96CB458CC2F478BF987D9F5BBCBE5D97C7655A3A91D350CEA60A673173C9BA0560DAB278B017465454E4902A7F9C44931C47C0967FA01ED739E6101C9B3D9EC4E6C537EC0EA07D3E7946843
310
71C5C91D8206311590D601A33296ED71E737684D4A38689FBBD034F2EEE1CF5AA5EB40E63977A15520498C85B78136936AE869E2907275EEB7C4001FC4529512CDA2FAB95EA5B06985FF7ACA903460E56AF530A0702BA0FBD5EA5068DE2C4FF1518257EC3848C2EDA69450AD1959F603B5307A9BBDFA8D6C94B07BBBF513B8
310
EECB62F99E9ED34264D02783178DC0501D49C453DDEF568C59962EAEBE8EA1CFE6ACBE38052D53D0E5704A238EC1984B555081158155589A059260AACBDF6FBFF21C3EF1648EAE8A6E977996E5CC3E5CC0792C814F44CEFA0E3EF824B7503660D55617B72713FFE456B7B36D873DDA20813D550FC140554628113AC60616F9
310
AC35651B9763A584CEF4D59563C327B4018C053DEBEE9ACF5B0E788FFA90A27C457B7825E78B1DEDB19E0AD6C0A1171DFE0B504B0304140006080000365D3240000000000000000000000000350000006662782F42433742363541462D414443362D343537392D423730462D4544464132314436303237452F766572746963
310
65732E62696E504B0304140006080800365D3240F270F1330600000004000000360000006662782F42433742363541462D414443362D343537392D423730462D4544464132314436303237452F747269616E676C65732E62696E636660600000504B0304140006080000365D32400000000000000000000000003700000066
310
62782F42433742363541462D414443362D343537392D423730462D4544464132314436303237452F617474726962757465732E62696E504B0304140006080800365D3240D5987DFC8F00000041010000360000006662782F42433742363541462D414443362D343537392D423730462D4544464132314436303237452F6469
310
726563746F72792E786D6C858F410EC2201045AF4266AF15DDB800BA74E7C21B903225242D6328188F2FA5C4183471359997F9FF81E89FF3C41E1816475E02DF1F80A11FC8386F25A438EECEC07A250251FC3803E6F58C12560C4AD840E95E91C151A72936F496F35732D860FE635F62C8F2DA16B505C545B74125BAA2FA9E
310
05D7CC053D063734D5C7665FD55B6B8D15D5E9BFEAFD8490FFA45E504B0304140006080800365D324036C52438FA000000A00100003B0000006662782F42433742363541462D414443362D343537392D423730462D4544464132314436303237452F7265736F75726365732F636F72652E786D6C8D505B6AC42014DD8AF86F
310
A2199B26837128245D413720E64E4666A2C147E9F2AB9314DABF82782FE7C13D1C71F95A1FE8137C30CE0E98551423B0DACDC62E034EF14A3A8C2E5278E7E22F194656AD30E002632916EFD27640DAD9083666D4BA190E5085001123FDC8CB8083BEC1AA2A956256847BB5297D570B54ACCA74D64911A2CF01D07EA4FC587A
310
082E790D41D43B2B454A663E3466CE37CDD580C7B2E10D7F6D594BA6A67B239CD313E9DF474E58DFB7FD348DD348B9A88B598A68D69F8CDA838A30673F650DA18CB0EE83B133CFEF85D0F64CA9A88BFC8F296DF33F4DC9D8786A8EB8BB2D60C972902721455DFACAE359669EA55BF90D504B010214000A0000080000365D32
310
403DEE336E79000000790000001B00000000000000000000000000000000006175746F6465736B2D64657369676E2D7061636B6167652E786D6C504B01021400140006080800365D3240D486FD9CA0000000F40000001300000000000000000000000000B20000005B436F6E74656E745F54797065735D2E786D6C504B0102
310
1400140006080800365D3240256E0AA0E80000007C010000080000000000000000000000000083010000636F72652E786D6C504B01021400140006080800365D324055019EA25F0000007C000000070000000000000000000000000091020000636E782E786D6C504B01021400140006080800365D3240C680B55964010000
310
020300000C00000000000000000000000000150300006662782F636F72652E786D6C504B01021400140006080800365D32406DB132B97E0000009D0000000B00000000000000000000000000A30400006662782F636E782E786D6C504B01021400140006080800365D32404C0CE60D2A010000140200003100000000000000
310
0000000000004A0500006662782F42433742363541462D414443362D343537392D423730462D4544464132314436303237452F636F72652E786D6C504B01021400140006080800365D3240E12AF3D954010000330300003000000000000000000000000000C30600006662782F42433742363541462D414443362D34353739
310
2D423730462D4544464132314436303237452F636E782E786D6C504B01021400140006080800365D32404CF417115B070000941B00003400000000000000000000000000650800006662782F42433742363541462D414443362D343537392D423730462D4544464132314436303237452F6F626A656374732E786D6C504B01
310
021400140006080000365D32400000000000000000000000003500000000000000000000000000121000006662782F42433742363541462D414443362D343537392D423730462D4544464132314436303237452F76657274696365732E62696E504B01021400140006080800365D3240F270F1330600000004000000360000
310
0000000000000000000000651000006662782F42433742363541462D414443362D343537392D423730462D4544464132314436303237452F747269616E676C65732E62696E504B01021400140006080000365D32400000000000000000000000003700000000000000000000000000BF1000006662782F4243374236354146
310
2D414443362D343537392D423730462D4544464132314436303237452F617474726962757465732E62696E504B01021400140006080800365D3240D5987DFC8F000000410100003600000000000000000000000000141100006662782F42433742363541462D414443362D343537392D423730462D45444641323144363032
310
37452F6469726563746F72792E786D6C504B01021400140006080800365D324036C52438FA000000A00100003B00000000000000000000000000F71100006662782F42433742363541462D414443362D343537392D423730462D4544464132314436303237452F7265736F75726365732F636F72652E786D6C504B05060000
310
00000E000E00800400004A1300000000
  0
XRECORD
  5
17
102
{ACAD_REACTORS
330
12
102
}
330
12
100
AcDbXrecord
280
     1
270
     1
271
     1
  0
XRECORD
  5
16
102
{ACAD_REACTORS
330
12
102
}
330
12
100
AcDbXrecord
280
     1
270
     1
271
     1
  0
XRECORD
  5
18
102
{ACAD_REACTORS
330
12
102
}
330
12
100
AcDbXrecord
280
     1
270
     1
271
     1
  0
XRECORD
  5
15
102
{ACAD_REACTORS
330
12
102
}
330
12
100
AcDbXrecord
280
     1
270
     1
271
     1
  0
XRECORD
  5
C82
102
{ACAD_REACTORS
330
22
102
}
330
22
100
AcDbXrecord
280
     1
102
MATERIAL
148
0.0
149
0.0
149
0.0
 93
        0
 94
      127
282
     0
 72
     0
 77
     0
171
     0
175
     0
179
     0
273
     0
  0
XRECORD
  5
24
102
{ACAD_REACTORS
330
22
102
}
330
22
100
AcDbXrecord
280
     1
270
     1
271
     1
  0
XRECORD
  5
23
102
{ACAD_REACTORS
330
22
102
}
330
22
100
AcDbXrecord
280
     1
270
     1
271
     1
  0
XRECORD
  5
BA
102
{ACAD_REACTORS
330
22
102
}
330
22
100
AcDbXrecord
280
     1
 70
     1
 90
1959938040
 71
     1
  1
61E761F0-A92B-403E-97B9-8691A5BEC23C
311
504B03040A0000080000365D32403DEE336E79000000790000001B0000006175746F6465736B2D64657369676E2D7061636B6167652E786D6C3C3F786D6C2076657273696F6E3D22312E302220656E636F64696E673D227574662D3822203F3E3C666F726D6174733E3C666F726D61743E687474703A2F2F736368656D612E
311
6175746F6465736B2E636F6D2F64657369676E2D7061636B6167652F323030393C2F666F726D61743E3C2F666F726D6174733E504B0304140006080800365D3240D486FD9CA0000000F4000000130000005B436F6E74656E745F54797065735D2E786D6C7D8EC10E82300C865F65E91D8A1E8C310C0EEA1BF002731658846E
311
D98AC1B77784ABF1D8FE5FBFBF75BBCE937A534CCEB38643598122B6FEE978D0B0485F9C41B54DDD7D022595594E1A469170414C76A4D9A4D207E29CF43ECE46F218070CC6BECC4078ACAA135ACF422C856C0E68EA1BF5669944DDD7BCDE7B1F8E415D77AECB980613C2E4AC91FC167A2B244592486606FC29C8FD7F045B9A
311
EF7053A7E60B504B0304140006080800365D32408EA7224EE90000007C01000008000000636F72652E786D6C8D905D6EC3201084AF82F61D07FC1737C244759A1BF40208360E4A0C9681AAC72F4E1CA97DAB84B4AB61BEDDD588E3F774275FB804EB5D0FBC6040D0696FAC1B7B48F1423B20472916EFE32F1B10A726EC6195
311
418A71F169DE24ED5D4417B3EABCC14D54216004A2EFB9E921E82B4EAA50296647B815B3D2373562C15F5D8653B2863C975893E7D98BC50564D5BDEFAB9635F4D4D425AD5975A6433754B465E5C7A969F7E7E16D10BB159622DAE9B55F2FA8221A9025E325659CF2EE93F3439D5F43597B604CEC56FB1F28CDE69F50B22E56
311
E576EE130B20793EE4F121C56ECD22974750B9AEB9C91F504B0304140006080800365D324055019EA25F0000007C00000007000000636E782E786D6C4DCB3B0E80201045D1AD90E915ED2CF8AC45050C11660C8261F98AB1B07AC9C97D42D718D865D3E909258CFD00CCE24AC6E326A164D74DC0B4128928FF326038472BA1
311
3128B1252AC747C6BAB984FC68F0B87FE8960A5C09FE86CFB69FBA01504B0304140006080800365D3240E5AA1E1765010000020300000C0000006662782F636F72652E786D6C8D525B6EC23010BC8AE57FC7CE834091312A941BF402C6313422B1233F228EDFCD03512A8450A2C49AD9D99D9D846FAF6D837AED7C6DCD06A7
311
09C3481B65ABDA9C373886135961B415DC591BFE94616464AB377880B1E06767633743CA9AA04D00D4D84ACFA0F45E078C5403870DF6EA47B73291314085BF249D541779D6499A000D7582FBE0C0009A860C4F2C4EC72BA7132E788C7535B37505D3EA53AD1D16F9EA7399976C41F68B222305CB0F64B7DAE5A464D9D77E51
311
2E0FBB8F1DA78358F050B73777CA6919748545C6D28CB094A4ABEF345D17702F082BD78C713A943F886257BD298AB5097936DB9D641E8B148C8CC4BF6D21A280BCECC10F159C0E21C26B4CF831680804420EF2D8DCF6B800D46B15AC2B80A96CBC53BD6CA286A90C8D17A7130B9DC706B0D9D33ED98B3EAF7BC00794E60CD6
311
6480E33186613A9FA6CE5174DA913E5C91B1AE95CDDDDC64F1FEBC0F7A2A57B6B1EE1D359D57A5739874F87BC52F504B0304140006080800365D32400814F7C97D0000009D0000000B0000006662782F636E782E786D6C4DCCD10AC2201886E15B91FFDCA663CB047564F0DFC7686E484EC334BAFCB6D841471F3C7CBC6AF8
311
AC81BC5D7EF91435F01303E2E23D4D3E2E1A6A99E905C860544EA9FCDD80C471751A7606A3969CEAF3A0C9CD630D65D3E0E3E34081C2228A1BE59D40DAF1B6A7B6658C9E254A21A56557ECA131AAF995B6DDC3E60B504B0304140006080800365D3240069D7FAA2A01000013020000310000006662782F3746374246463743
311
2D313437462D343132352D423230302D3639463937393942304146352F636F72652E786D6C8D515B6EC32010BC0AE22BFDC006D7B1E3081335957C825E806092A0C460F1A872FC2EB523B57F91108B766766875D7E784C77F4AD7D30CEF6981514236D951B8DBDF438C533D9617410DC3B17FFC030B272D23DCE692CF8C5BB
311
34AF29E56CD43642D6BA51AF4919828E18A93B3C7A1CD4554FB290290222DC8A59AA9BBCE8821550069CE0217A30809626F9C6A21DDAE330B49F84D5ED406A566DC9B1A29434DDD0B55D77A41FC396970B51F094CCB8D2CD0876CCD968FFAA48260B1ECDF4B4AFBC96518F585494558432C2765F8CED6B385B429B3DA5BCCC
311
F07FA4348F2F9292B1F1BD5AED2EB48005E3E552107C74E9747F9AD18FD9F98872BF4DD0EA0D0B5A50D6D5BB0A180B12FE0F924DBD4A86E83CCC77733B0198C194B26E530B5EE61541F8DD1FC4BC4EF103504B0304140006080800365D3240878D3CCE4C01000033030000300000006662782F37463742464637432D313437
311
462D343132352D423230302D3639463937393942304146352F636E782E786D6CD593CD6EC32010845F0571F70FA91B451126520F7D821E7AC5B049683058FC54CDDB7749689A4B0E3D56B290353BCCAC3ED97CF7355BF209211AEF46CADA9E1270CA6BE30E23CD69DF6C28D9091EBC4F77364A9C9C61A445A6821F82CF4B95
311
34EC65B609556BDCA98A01A2CF414144B9DC24D62B6931005C9351847902AD41939B11DFF610701514A733494720AF2FEFC44F1FA052E45D4911BC2B1D8297B336DD99285156C638D2A88E30CB56E6E435C453AB65922D6B7FBA1EECF49B44CA859FCA1C0C29E5232D271575A31639F20E8782C714905E35A5F30254C865B1
311
46C98490BB8BF1EA113C1B97D643F51A041FD0CDD64FC380619799E0C9CC501D2A804CA0A958F56CD5F4AC619B37C6B6033ECF4DBFDEF63DEF8A5DF0C97B5B2F610C04BF10E55D0297A860BC2BE347F8AA8F681390B50FE73F804400B5F54AE796F19FF97497EF1B7105FC0BC437504B0304140006080800365D3240951C1F
311
829C0500007A100000340000006662782F37463742464637432D313437462D343132352D423230302D3639463937393942304146352F6F626A656374732E786D6CAD57DB6EDB3810FD1541FBEC8B6C278D178A0A5F92C228D216355AEC4300839228851B4A14482A75F6EBF750A264C9B553EFA22F96450D873367CE5CE8BF
311
DF67DC79A1523191DFBADE70EC3A348F44CCF2F4D62D7532B8719DF7812F85D01D31D7C949466F5DB3EC067E2A4559D8A59826A4E4FA68F57EF997A3229A53D7893851EAD655D113CDC890945AC4543D0F63A2C9304DF6436F580BF6D5A692144F474A0B2269AE6129D67368716AA3BCFEEBD81D05FEC87C0F7CF36BA5A6E7
311
A546953FFDF359AE34C9A39F0E3B5233F566EBBBC9D57C70359B4D07B3EB893758DE2FD703EFDD74BCBA5EADE68BBB390E565A4293B544D2C40D3E001BC9227F547F0AFC92E57A3AB122364023495F9889941B4C1CCF1FD532AD77D6C953E64722CF69546105342AFFACEA9816348F117346152CEB2034EEBF7A06C7CEE7A9
311
79B74776972F43A0BBA3A3A8B1BD79762D15E1DF70415DC220A9A861608DA575B4E6EAF880702804B7DF987232A2A964843B9C8592C8573780A81109FC9E1AC36469B2C178E0068842FDB94F17A4D1AF797ECACAA4E4DCD0D80DAA2CD82157A8569565EC1F2A0FD67791814D889561C38D7548BF16D40DE635456E8ED85403
311
E9249CA40839DC343BA793234757264F376B37F8781FEEB726774F1F5E485150A90D7D40AD2670CDD3A0646DF22E8A9CD9E01E997200E52B90FF84543F9882B849B69FED67F6142D49AE122133C4C6193B83317EC68E57FD9AFF9D7FFEA8DDDC8FDE393C116C03D56FC0B3EF4337961D3803FF058417726A5DDB4684A36C3C
311
B01C001992385C6009753809F76EB041954355C62EC2030F2EC3DC17FCF547560D0A457552E79903CBA3B2784181066C152361464D7E6BE0214E3F95B3EA602B760EDEABDF42D7C57AFB715BCA8444F4C1E6F49A262C671A2DEEC09BAE413DCC7B1E3DD3D71F42C670F467BCB75DBC337B9402DA0673037CDAD474F37238B9
311
7740847DA930E5C6FFC50970C234D68EFE07A622CA39C9A9289B73DFEC1F681B35C426D90D93DB0673682C204DFDE52807D1A423C90A0362DBADDAA2393CE3DDB7CD273012F25C84841F84C243E98D04177217BEEEEAAA7412E9EF7D6A5B0846460BD85EE54893FE16F35DCC92A454A8812760FDBE59754367AA022A44A3B5
311
4E9619DC476E116939DBE845B396048D54E43B86B689B43B7940573F10B504A8149EB358519EEC18E765B64B184733DA65A43803C7FFB73F2CB362473251E6FA8CEE9EE9680E7DDB7BE4553F888E9EDC605B3D074B94DE98C68730F7844D2B3981552FB4D7DEDDBB6BEF7E3C58CC27CBC16C3CBD1BCCDF2DE7839BEBB9B7B8
311
5ADEAD2653B86E2DAA66A8C06F3A4D37A111257436BF94CC86EFDB06E9636B801B3C10AD1E3FD4D9D93CBF6D861885FD11F6A05DB61B17F10BC63E1AFF5AC141F2A4A24D56709AD15C1393420FE60FFF4A3066F48CA9D7371949E9055A3E7FD81E3983950BF67D31E94E7F1CEDB5AB2B93902795E8A7320B73C2F8D1C6B446
311
7258E4A9C5AF8949FBACFB4CF36ADE6C6030982AC1598C32183B291519D5288617F420995105EA7547FAD85E3D2ED8FD520F889A849C36963C11CCC85C212DC0DB32D2FD75E70FCC7466ACBA75D16D87CFF8B195C275C0995B1733BA661155C310FDD94C42957270A93BC883B3244F3946ED7A53FBDEEE32D8F43A722B72C9
311
F864FDAA2BB8750065A4C0D8807908D1A98C09FCCA36FB3DFA4F8E37E63844E36F58EAD697C342EB4C750C52B476CA5E1630C33CDBA3F748D4B7DDF286954C0F918B2E596F92A0D63AD044A6D545C1D8674D5AACBF8C30A0389BCF4EC1CB14B1BC5CD3405290B934090E16811556674134A8BAFAF3F18B14B8C866CE3D0305
311
1E5722CB446E5F16F622EC6C9F70AD8D1F5116A8B98FA8C7C9D89B3C56F7007B35D98544D12189D533161053C95A887B810723EBCB223A50FDA1951B99201C7173B3766C4B9B41A9254AB7AA1A583071E4D441F698BBA4C995AE40F1E655605489C20489213EF817504B0304140006080000365D3240000000000000000000
311
000000350000006662782F37463742464637432D313437462D343132352D423230302D3639463937393942304146352F76657274696365732E62696E504B0304140006080800365D3240F270F1330600000004000000360000006662782F37463742464637432D313437462D343132352D423230302D363946393739394230
311
4146352F747269616E676C65732E62696E636660600000504B0304140006080000365D3240000000000000000000000000370000006662782F37463742464637432D313437462D343132352D423230302D3639463937393942304146352F617474726962757465732E62696E504B0304140006080800365D3240D5987DFC8F
311
00000041010000360000006662782F37463742464637432D313437462D343132352D423230302D3639463937393942304146352F6469726563746F72792E786D6C858F410EC2201045AF4266AF15DDB800BA74E7C21B903225242D6328188F2FA5C4183471359997F9FF81E89FF3C41E1816475E02DF1F80A11FC8386F25A4
311
38EECEC07A250251FC3803E6F58C12560C4AD840E95E91C151A72936F496F35732D860FE635F62C8F2DA16B505C545B74125BAA2FA9E05D7CC053D063734D5C7665FD55B6B8D15D5E9BFEAFD8490FFA45E504B0304140006080800365D32409D0C0CD6FC000000A00100003B0000006662782F37463742464637432D313437
311
462D343132352D423230302D3639463937393942304146352F7265736F75726365732F636F72652E786D6C8D505B6E833010BC0ADA7F830D84D0C8382A696ED00B58F6865A0936F2A3EAF16B0295DABF4A9677350FED68F8F96B7E149FE883717600565228D02AA78D9D0648F1467A28CE827BE7E22F191456CE38C00A83E0
311
937769D921E56C441B336A9DC61D94216084423DF23240501F38CB52A69815E15E2E52DDE584252B339D758287E87380623BB2FE203C0697BCC2C0AB8D153C25A3778DD1F9A6B919F4209AFEF5D874B42597435B9396365732F663433A5ABF5D0EDDF13ABE8CBC5ACD824733FF64541E65440DA2A6AC269411D6BF33766AF3
311
3B10DA9D28E5D52AFF634A8BFEA729191B9B7A8FBBD9020896833C09C1ABB5AF3C9E65E6B9762BBE01504B010214000A0000080000365D32403DEE336E79000000790000001B00000000000000000000000000000000006175746F6465736B2D64657369676E2D7061636B6167652E786D6C504B0102140014000608080036
311
5D3240D486FD9CA0000000F40000001300000000000000000000000000B20000005B436F6E74656E745F54797065735D2E786D6C504B01021400140006080800365D32408EA7224EE90000007C010000080000000000000000000000000083010000636F72652E786D6C504B01021400140006080800365D324055019EA25F
311
0000007C000000070000000000000000000000000092020000636E782E786D6C504B01021400140006080800365D3240E5AA1E1765010000020300000C00000000000000000000000000160300006662782F636F72652E786D6C504B01021400140006080800365D32400814F7C97D0000009D0000000B0000000000000000
311
0000000000A50400006662782F636E782E786D6C504B01021400140006080800365D3240069D7FAA2A0100001302000031000000000000000000000000004B0500006662782F37463742464637432D313437462D343132352D423230302D3639463937393942304146352F636F72652E786D6C504B01021400140006080800
311
365D3240878D3CCE4C010000330300003000000000000000000000000000C40600006662782F37463742464637432D313437462D343132352D423230302D3639463937393942304146352F636E782E786D6C504B01021400140006080800365D3240951C1F829C0500007A10000034000000000000000000000000005E0800
311
006662782F37463742464637432D313437462D343132352D423230302D3639463937393942304146352F6F626A656374732E786D6C504B01021400140006080000365D324000000000000000000000000035000000000000000000000000004C0E00006662782F37463742464637432D313437462D343132352D423230302D
311
3639463937393942304146352F76657274696365732E62696E504B01021400140006080800365D3240F270F133060000000400000036000000000000000000000000009F0E00006662782F37463742464637432D313437462D343132352D423230302D3639463937393942304146352F747269616E676C65732E62696E504B
311
01021400140006080000365D32400000000000000000000000003700000000000000000000000000F90E00006662782F37463742464637432D313437462D343132352D423230302D3639463937393942304146352F617474726962757465732E62696E504B01021400140006080800365D3240D5987DFC8F00000041010000
311
36000000000000000000000000004E0F00006662782F37463742464637432D313437462D343132352D423230302D3639463937393942304146352F6469726563746F72792E786D6C504B01021400140006080800365D32409D0C0CD6FC000000A00100003B00000000000000000000000000311000006662782F3746374246
311
4637432D313437462D343132352D423230302D3639463937393942304146352F7265736F75726365732F636F72652E786D6C504B0506000000000E000E0080040000861100000000
310
504B03040A0000080000365D32403DEE336E79000000790000001B0000006175746F6465736B2D64657369676E2D7061636B6167652E786D6C3C3F786D6C2076657273696F6E3D22312E302220656E636F64696E673D227574662D3822203F3E3C666F726D6174733E3C666F726D61743E687474703A2F2F736368656D612E
310
6175746F6465736B2E636F6D2F64657369676E2D7061636B6167652F323030393C2F666F726D61743E3C2F666F726D6174733E504B0304140006080800365D3240D486FD9CA0000000F4000000130000005B436F6E74656E745F54797065735D2E786D6C7D8EC10E82300C865F65E91D8A1E8C310C0EEA1BF002731658846E
310
D98AC1B77784ABF1D8FE5FBFBF75BBCE937A534CCEB38643598122B6FEE978D0B0485F9C41B54DDD7D022595594E1A469170414C76A4D9A4D207E29CF43ECE46F218070CC6BECC4078ACAA135ACF422C856C0E68EA1BF5669944DDD7BCDE7B1F8E415D77AECB980613C2E4AC91FC167A2B244592486606FC29C8FD7F045B9A
310
EF7053A7E60B504B0304140006080800365D3240421B3B6FE80000007C01000008000000636F72652E786D6C8D905D6EC3201084AF82F61D1B6CD73F1126521AF904BD000292A2C46019A87AFCAE13476ADF2A217635CCC7AE461CBFE73BF9B26B74C18FC00B06C47A1D8CF3D71172BAD01EC8518A3584F4CB06C4ABD98EB0
310
C920C5750D79D9251D7CB23EA1EA83B1BBA862B40988BE633342D49F765685CA091DF1562C4ADFD4D516FCD5219CB333E439C419FCCF5D9C5D41B6F5C4F8796829DE136DA6AEA34375AE29AB9B7E7AEFFAD3349C44B9C1522437BFE6EBD5AA640DC88AF10A59CAFB0FCE0F0D9E37CADA0363A2DCEC7FA0BC987F42D9F95457
310
FBBA4F2C82E4B8C8E3418A72CB02CB2328AC5B6EF207504B0304140006080800365D324055019EA25F0000007C00000007000000636E782E786D6C4DCB3B0E80201045D1AD90E915ED2CF8AC45050C11660C8261F98AB1B07AC9C97D42D718D865D3E909258CFD00CCE24AC6E326A164D74DC0B4128928FF326038472BA131
310
28B1252AC747C6BAB984FC68F0B87FE8960A5C09FE86CFB69FBA01504B0304140006080800365D324054EBB7A063010000020300000C0000006662782F636F72652E786D6C8D52DB8E832010FD15C2BB8297ED2D48936EE317EC0F50A42EA9824130FDFC1D2F8DDB4DD36C3423993367E6CC1176BCB70D1A94EBB535054E62
310
8A9132D256DAD4050EFE1AED303A72E6ACF5BFCA3032A255051ED398B3DAD9D02D29698D57C643D6D84A2D49D1F7CA63241B3814B897DFAA15B1081E2AFA5BDC097913B58A931860A8E3ACF70E04A079C81831BF5EEE8CCC79CE42D0D582EA0AA6E9AB560EF34D56D2E4BCDF4410CB282FB7DB689F9EB38866F9AEFCDCEE4E
310
E5FEC4C848E6CCEBF6A14E3A25BCAA304F699202374A765F4972C8E1FD88E8E640292363F9132974D53F49411B9FA58BDC99D6639E809009F8B32D58E4512F06D0433823A389F0991C7E361A0C0193BDB8348F3D6E901A94F4D6E5805436ACD0209AA0602A45D3C3C88C42E7A9016CF6B24FFAA6CFFB1EF00385A9419AF070
310
BC043F4E67F3D4C58A4EB968F07764AC6B45B38A9B25AE711DF4922E6D63DD7FD86459952C6692F1F6F21F504B0304140006080800365D3240A3A9160D7D0000009D0000000B0000006662782F636E782E786D6C4DCCD10A83201805E05791FFDE554B9B821AA3B9F7886521990EA7638F3F1B5DECEA1C3E0E47F49FCDA1B7
310
892F1BBC84E6540332FE1126EB170939CD9801EA958821A4BF19203F6E46C2CEA0C412437E1E349979CC2E1575D6AF07EAF3BDA1ECD6614ADB1613CE2E98978A9B8ED49C0E573D100D9512D5EFA9E47EACBE504B0304140006080800365D324025AF9C9D2901000014020000310000006662782F45324631353844362D3535
310
33332D343938372D393535332D3136343039354341454334452F636F72652E786D6C8D515B6EC32010BC0AE22BFDC006BFEA4498A84AD313F40204931425068B4795E377A91DA9FD8B84D8D5EECCEC6897EFEFD30D7D6B1F8CB3036605C5485BE546632F034EF14C7A8CF6827BE7E21F1846564E7AC0B98C05BF7897E6B5A4
310
9C8DDA46A85A37EAB52843D01123758364C0417DE94916324540846B314B7595175DB002DA80133C440F06D03224FF581CAB0FD6F6EF1D69DBBA26CDB67F255B4809EB1ABA6D0F6FC74373E4E542143C2533AE7433821D7336DA3F2B92C98247333DEC2BAF65D42316156515A18CB0FE93B15D03AF25B4DB51CACB0CFF474A
310
F3F82429191BEB6AB5BBD002168C974B43F0D1A5D3ED6146DF67E723CAF33641AB172C6841ABBAA2B46B78B9406101A0D935AB6688CEC38237D713A0EB55B86B042FF38D20FC1E1062BEA7F801504B0304140006080800365D3240E12AF3D95401000033030000300000006662782F45324631353844362D353533332D3439
310
38372D393535332D3136343039354341454334452F636E782E786D6CBD93CD6EC32010845F0571F70F896B451126520F7D821E7AC5B04969305880ABE6EDBB2424CD25874A55250B59B3C3CCEA93CD775F93259F10A2F16EA0AC6E2901A7BC36EE30D025EDAB0D253BC183F7E9CE468993130C34CB54F043F0CB5C240D7BB9
310
D884AA35EE58C400D12F41414439DF24D62B6931005CB5A008D3085A83263723BEED21E02A288E2792DE81BC3CBF113F7E804A91373945F02677089ECFD27467A2445919E340A37A8749D672495E433CD65A2659B3FADAF560A79F24922F5C2B9760482E1F683EA9281BD5C8913738143CA680F48A299D66A042CEB3354A26
310
84DC9C8D178FE08B71A9EF8AD720F880EEF5AADF6C30EC3C133C99098A430590093415AB96ADAA96556CF3CAD8B6C3E7A96AFB6DDBF226DB051FBDB7E512C640F03351DE2570890AC69B3C7E84AFF888360159FB70FA054804505A2F746E197FC987F5EBAEFB473ECDF9FB465C01FF02F10D504B0304140006080800365D32
310
40239B21C858070000931B0000340000006662782F45324631353844362D353533332D343938372D393535332D3136343039354341454334452F6F626A656374732E786D6CED595B6FA33814FE2B887D0E0949DA99AC28A336BD285A756634D919ED4324E48043BD3506D9A697FDF57B7C81000D2DD9E9BECD430218FBF89C
310
EF5C7D083E3D65D479C05C909C9DB9BE37711DCCE23C212C3D734BB91B7D749D4F61C0F35C36A6B90E43193E73D5B01B0629CFCBC20E2578874A2A3BA3D7177F3922C60CBB4E4C911067AE88EF70863C54CA3CC1E2DE4B90445EBA7BF27CCF4C6C934D392AEE3A440BC43193C0298C33A0E218A6FCF6E3C41D87C158BD0F03
310
F56F67CD06CD9AF7CF1A6BA9DB5C12262462F10B963A646683589AF9F3CBABE9C96274329FCF46F3D3A93FBAB8BEB81CF91F6693E5E972B938BF5A007BDB3CA756A604179825A0BF6737F483B17A538B6E1138C4759C3386630D2440A5C5EA122458C0560DF826ED475F49D478AD256C3CCFD57BCB426378D6A6D2376B1810
310
2DBA2088DDAE92B8BA36E5CBB77F83E0628851728125702B2407ED5A783878851B4E82B1190D83ED5E17443819929813441D4AB61C71500A4C5553C2C02CB06494737020E52809B4E6CCEBB66D8167BEED3A87B8DC95942ACF7043ED5811B81F96427346FEC17CCF7D1319E009A42D09931F2D97F2B9C06EB808C67A300CD4
310
6536B52F0D90CE8EA2546844CCDB8EA04BE5FAAB4B37FCE37AFBB456E1E0F0E605CF0BCCA5323AA547CD1718B2BD2A94ECB6FE20CDA905208C01D5AEDC83F20D90FF0CD163CF0AE88D93A7F9D3DCCE951C31B1CB7906BA7126CE68027F13C7D7FFEABE71178CEBC56DEDF5E1096EAAA0FAF8F378B665D05859FE1B7086C103
310
187CCE67F6D53A4614ECF996300048198943731882D0BEDB3EB9E10A0227047A588568E883C8C0EE03DC06634B66AF95CABDACD73140D4EE311BA224804D5B24B0D1A3A71BC81E9CC47B353545EC83F7E45DCCF5FC72FDC7BAE43B14E35BEBD3977847189190350F33D4C2BC25D13D7E7ECC790282BEC47BDDC43BB35B0940
310
5B61AE804F2B10D4C37EE7D60631AC4B73156E823776002154AE6ED0BF2522C6942286F3B2DAB78E6ECA506B8FB735831B4E0DC4B369C784397E20AAAA00A7D9CF68310A793FE6A45020BAE18D91AC0E9A5E8F74DF579FC122EBF93DB3560C422F43F44F1DB40EE0D0B2EC0A690B442DF0761FCEE39CE63CDA3E4726D2B950
310
4B001B6D6FF9D1220AB1DE284951010FD27E578594D4481B2564B72B05C4D5032CFE582D9BE630F166FE89D3FCEF38E31CA22DF82EE2D6EF3A7B442443298E7628E9DBAEB95B4D5B68923DA439DE51908B3C10F91C21194D129C1E03CD51C417EF4A3DA5B910846101F9EA20F84D34261E0412A3CD8A65A5D50ED044441996
310
881E838022D303AE4E3BBAC68DA174789BC7DA7A5FD35893E8FF64111C412D99B38840290A39E44DC67DEF0462481B5D8372075FB0B68AB61683965042C4CFD12326E99D3C067543BE07F7188E24A58CF202C560D603C8BEF015A5D40EEF5B14DFABFC11C5257D2F031198EE2242699945F0230C4E1E435CBB0E4CAFA2D020
310
6E629FC419146548967CC826A7279317FB989AA11B021B1BED0885B01D65A8E841BD1510753DE2D4E05BEA3D4ADD965911A12C2FD92043F1665D6FB2E4BB6A556407F2AB4A45281B2BC29660181026EBAC5AC56C30751D58C18D74A07A8E04CA0A6A4E616F241EBFF6264DB977036EFDF47D37C8A0F0EBD15E33A2CE2B182C
310
8FADC2403C2219DFB9E15A5F4717507F2738D9A7FAAAD66C568080988AE425275645DF5750DED81ACD0D6F91149B1B9375ABEBF79507DD8F600C6BA076A917AE14D0196612A9CAE456DDD06F0842708B86195FA99C7A0C95F324D15523A2D7A44F9DAD32A2B56946BCE20EB33C831FDB1016D332C11B9488FBE856D2684D14
310
EB564A2F2315C6AF0AF8E566DD8107460688F4551578F8B1B3D68E2E55B9749088BC2BB32D430482604BB4D4E8C62B586A355269B9BEAA3305D45D606056C5F35F278B663BE2D7C922B586F173270B9A6F11DD479B46368F95591F750AA8D393A2F21EA700DD75A8A9D649C4E4722BBEF5A508626215E407176355CC3004FB
310
38FECF49BB2F099AED3AFC1F97B4FD1705C75149A5355935A90E14AEAB660A3BF5AF3E9CFAD793D1F9627A319A4F6657A3C5878BC5E8E3E9C23F3FB9B85A4E67CB1A4DEDA76150C7329DBAE0D9C4B46A583D590CA0292B724A1238CC274E8A21E44B38D20FE89EF30C0BC89DCD5E77627BF203563F9836A7445B8A2B4EEE10
310
F487A980AC0E1895B16C8F3BBF416752C239FBCC859E91770F7FD62A5D0712CF990B9D0249622CBC2D7499543F4F13878CAB53BF2506F82096AA8C6816D5CFF52A854D2BFAD7538664012B57AB8501755B01CDAF568342F366798A8F12BC62C741126EB7A58462CDC8B21FA885D1DBECD56F64A384DDDBAD9FC0755F17CBF7
310
F49C162283BE18BC6A0486EA48229EEA76B762CCB2747EF9750C6D3667F5C5296899822E87531A710CC65CAA7A0AAC08ACC2D22C9004535DFEBEF9CA73F8C29339BA28DA2CF32CCB997D3887E358025F889CF51D7CEF4936503560D555179BE9C49F6E7437DB36D8A32D12D853E5100C54558412A1636C60912F3A53B66F39
310
564AE84C5F5D3A367C4217C058D08BE6AEF9BAE580F7A8EF28CA57B4875772BEDAD01EEBA9600D1C5AD1E1BF504B0304140006080000365D3240000000000000000000000000350000006662782F45324631353844362D353533332D343938372D393535332D3136343039354341454334452F76657274696365732E62696E
310
504B0304140006080800365D3240F270F1330600000004000000360000006662782F45324631353844362D353533332D343938372D393535332D3136343039354341454334452F747269616E676C65732E62696E636660600000504B0304140006080000365D3240000000000000000000000000370000006662782F453246
310
31353844362D353533332D343938372D393535332D3136343039354341454334452F617474726962757465732E62696E504B0304140006080800365D3240D5987DFC8F00000041010000360000006662782F45324631353844362D353533332D343938372D393535332D3136343039354341454334452F6469726563746F72
310
792E786D6C858F410EC2201045AF4266AF15DDB800BA74E7C21B903225242D6328188F2FA5C4183471359997F9FF81E89FF3C41E1816475E02DF1F80A11FC8386F25A438EECEC07A250251FC3803E6F58C12560C4AD840E95E91C151A72936F496F35732D860FE635F62C8F2DA16B505C545B74125BAA2FA9E05D7CC053D06
310
3734D5C7665FD55B6B8D15D5E9BFEAFD8490FFA45E504B0304140006080800365D32402AF1665EFB000000A00100003B0000006662782F45324631353844362D353533332D343938372D393535332D3136343039354341454334452F7265736F75726365732F636F72652E786D6C8D505B6AC33010BC8AD97F3F64BBB11D64
310
05D2E013F40242DE2422B164F4283D7E57B10BED5F41EC8AD999DD61F8E96B79669FE8BCB66604565490A15176D6E636420CD7BC87EC24B8B336FCA24166E48223241804BF391BD71D52D6043481506367DC41E93D06C8D4933E237875C74516320662F847B14AF590372C584163E209EE832303D9762455100EBD8D4EA1E7
310
E536153C463DEF1C3DD34D7DD5E8401C9AA96297E12DA73AE5EDD475F9505F9ABC6ADA7E7AEFFAF3349C7999C48207BDFC78540E65C019445DB19AB439EB3F183BB6F468D5E15855BC4CF43FA2B8CEFF14456D4253EF76379907C1C8C86B207899F2A2F60A937ACA567C03504B010214000A0000080000365D32403DEE336E
310
79000000790000001B00000000000000000000000000000000006175746F6465736B2D64657369676E2D7061636B6167652E786D6C504B01021400140006080800365D3240D486FD9CA0000000F40000001300000000000000000000000000B20000005B436F6E74656E745F54797065735D2E786D6C504B01021400140006
310
080800365D3240421B3B6FE80000007C010000080000000000000000000000000083010000636F72652E786D6C504B01021400140006080800365D324055019EA25F0000007C000000070000000000000000000000000091020000636E782E786D6C504B01021400140006080800365D324054EBB7A063010000020300000C
310
00000000000000000000000000150300006662782F636F72652E786D6C504B01021400140006080800365D3240A3A9160D7D0000009D0000000B00000000000000000000000000A20400006662782F636E782E786D6C504B01021400140006080800365D324025AF9C9D290100001402000031000000000000000000000000
310
00480500006662782F45324631353844362D353533332D343938372D393535332D3136343039354341454334452F636F72652E786D6C504B01021400140006080800365D3240E12AF3D954010000330300003000000000000000000000000000C00600006662782F45324631353844362D353533332D343938372D39353533
310
2D3136343039354341454334452F636E782E786D6C504B01021400140006080800365D3240239B21C858070000931B00003400000000000000000000000000620800006662782F45324631353844362D353533332D343938372D393535332D3136343039354341454334452F6F626A656374732E786D6C504B010214001400
310
06080000365D324000000000000000000000000035000000000000000000000000000C1000006662782F45324631353844362D353533332D343938372D393535332D3136343039354341454334452F76657274696365732E62696E504B01021400140006080800365D3240F270F13306000000040000003600000000000000
310
0000000000005F1000006662782F45324631353844362D353533332D343938372D393535332D3136343039354341454334452F747269616E676C65732E62696E504B01021400140006080000365D32400000000000000000000000003700000000000000000000000000B91000006662782F45324631353844362D35353333
310
2D343938372D393535332D3136343039354341454334452F617474726962757465732E62696E504B01021400140006080800365D3240D5987DFC8F0000004101000036000000000000000000000000000E1100006662782F45324631353844362D353533332D343938372D393535332D3136343039354341454334452F6469
310
726563746F72792E786D6C504B01021400140006080800365D32402AF1665EFB000000A00100003B00000000000000000000000000F11100006662782F45324631353844362D353533332D343938372D393535332D3136343039354341454334452F7265736F75726365732F636F72652E786D6C504B0506000000000E000E
310
0080040000451300000000
  0
XRECORD
  5
27
102
{ACAD_REACTORS
330
22
102
}
330
22
100
AcDbXrecord
280
     1
270
     1
271
     1
  0
XRECORD
  5
26
102
{ACAD_REACTORS
330
22
102
}
330
22
100
AcDbXrecord
280
     1
270
     1
271
     1
  0
XRECORD
  5
28
102
{ACAD_REACTORS
330
22
102
}
330
22
100
AcDbXrecord
280
     1
270
     1
271
     1
  0
XRECORD
  5
25
102
{ACAD_REACTORS
330
22
102
}
330
22
100
AcDbXrecord
280
     1
270
     1
271
     1
  0
XRECORD
  5
C7B
102
{ACAD_REACTORS
330
C7A
102
}
330
C7A
100
AcDbXrecord
280
     1
102
ACAD_ROUNDTRIP_2012_MLEADER_STYLE
298
     1
  0
CELLSTYLEMAP
  5
C79
102
{ACAD_REACTORS
330
C78
102
}
330
C78
100
AcDbCellStyleMap
 90
        3
300
CELLSTYLE
  1
TABLEFORMAT_BEGIN
 90
        5
170
     1
 91
        0
 92
    32768
 62
   257
 93
        1
300
CONTENTFORMAT
  1
CONTENTFORMAT_BEGIN
 90
        0
 91
        0
 92
      512
 93
        0
300

 40
0.0
140
1.0
 94
        5
 62
     0
340
55
144
0.25
309
CONTENTFORMAT_END
171
     0
 94
        0
309
TABLEFORMAT_END
  1
CELLSTYLE_BEGIN
 90
        1
 91
        1
300
_TITLE
309
CELLSTYLE_END
300
CELLSTYLE
  1
TABLEFORMAT_BEGIN
 90
        5
170
     1
 91
        0
 92
        0
 62
   257
 93
        1
300
CONTENTFORMAT
  1
CONTENTFORMAT_BEGIN
 90
        0
 91
        0
 92
      512
 93
        0
300

 40
0.0
140
1.0
 94
        5
 62
     0
340
55
144
0.18
309
CONTENTFORMAT_END
171
     0
 94
        0
309
TABLEFORMAT_END
  1
CELLSTYLE_BEGIN
 90
        2
 91
        1
300
_HEADER
309
CELLSTYLE_END
300
CELLSTYLE
  1
TABLEFORMAT_BEGIN
 90
        5
170
     1
 91
        0
 92
        0
 62
   257
 93
        1
300
CONTENTFORMAT
  1
CONTENTFORMAT_BEGIN
 90
        0
 91
        0
 92
      512
 93
        0
300

 40
0.0
140
1.0
 94
        2
 62
     0
340
55
144
0.18
309
CONTENTFORMAT_END
171
     0
 94
        0
309
TABLEFORMAT_END
  1
CELLSTYLE_BEGIN
 90
        3
 91
        2
300
_DATA
309
CELLSTYLE_END
  0
XRECORD
  5
CB3
102
{ACAD_REACTORS
330
C78
102
}
330
C78
100
AcDbXrecord
280
     1
102
ACAD_ROUNDTRIP_PRE2007_TABLESTYLE
 90
      512
 91
        0
  1

 92
      512
 93
        0
  2

 94
      512
 95
        0
  3

  0
XRECORD
  5
C8E
102
{ACAD_REACTORS
330
C8D
102
}
330
C8D
100
AcDbXrecord
280
     1
102
RTVSPropertyOp0
 70
     1
102
RTVSPropertyOp1
 70
     1
102
RTVSPropertyOp2
 70
     1
102
RTVSPropertyOp3
 70
     1
102
RTVSPropertyOp4
 70
     1
102
RTVSPropertyOp5
 70
     1
102
RTVSPropertyOp6
 70
     1
102
RTVSPropertyOp7
 70
     1
102
RTVSPropertyOp8
 70
     1
102
RTVSPropertyOp9
 70
     1
102
RTVSPropertyOp10
 70
     1
102
RTVSPropertyOp11
 70
     1
102
RTVSPropertyOp12
 70
     1
102
RTVSPropertyOp13
 70
     1
102
RTVSPropertyOp14
 70
     1
102
RTVSPropertyOp15
 70
     1
102
RTVSPropertyOp16
 70
     1
102
RTVSPropertyOp17
 70
     1
102
RTVSPropertyOp18
 70
     1
102
RTVSPropertyOp19
 70
     1
102
RTVSPropertyOp20
 70
     1
102
RTVSPropertyOp21
 70
     1
102
RTVSPropertyOp22
 70
     1
102
RTVSPropertyOp23
 70
     1
102
RTVSPropertyOp24
 70
     1
102
RTVSPropertyOp25
 70
     1
102
RTVSPropertyOp26
 70
     1
102
RTVSPropertyOp27
 70
     1
102
RTVSPropertyOp28
 70
     1
102
RTVSPropertyOp29
 70
     1
102
RTVSPropertyOp30
 70
     1
102
RTVSPropertyOp31
 70
     1
102
RTVSPropertyOp32
 70
     1
  0
XRECORD
  5
C8C
102
{ACAD_REACTORS
330
C8B
102
}
330
C8B
100
AcDbXrecord
280
     1
102
RTVSPropertyOp0
 70
     1
102
RTVSPropertyOp1
 70
     1
102
RTVSPropertyOp2
 70
     1
102
RTVSPropertyOp3
 70
     1
102
RTVSPropertyOp4
 70
     1
102
RTVSPropertyOp5
 70
     1
102
RTVSPropertyOp6
 70
     1
102
RTVSPropertyOp7
 70
     1
102
RTVSPropertyOp8
 70
     1
102
RTVSPropertyOp9
 70
     1
102
RTVSPropertyOp10
 70
     1
102
RTVSPropertyOp11
 70
     1
102
RTVSPropertyOp12
 70
     1
102
RTVSPropertyOp13
 70
     1
102
RTVSPropertyOp14
 70
     1
102
RTVSPropertyOp15
 70
     1
102
RTVSPropertyOp16
 70
     1
102
RTVSPropertyOp17
 70
     1
102
RTVSPropertyOp18
 70
     1
102
RTVSPropertyOp19
 70
     1
102
RTVSPropertyOp20
 70
     1
102
RTVSPropertyOp21
 70
     1
102
RTVSPropertyOp22
 70
     1
102
RTVSPropertyOp23
 70
     1
102
RTVSPropertyOp24
 70
     1
102
RTVSPropertyOp25
 70
     1
102
RTVSPropertyOp26
 70
     1
102
RTVSPropertyOp27
 70
     1
102
RTVSPropertyOp28
 70
     1
102
RTVSPropertyOp29
 70
     1
102
RTVSPropertyOp30
 70
     1
102
RTVSPropertyOp31
 70
     1
102
RTVSPropertyOp32
 70
     1
  0
XRECORD
  5
C9A
102
{ACAD_REACTORS
330
C99
102
}
330
C99
100
AcDbXrecord
280
     1
102
RTVSPropertyOp0
 70
     1
102
RTVSPropertyOp1
 70
     1
102
RTVSPropertyOp2
 70
     1
102
RTVSPropertyOp3
 70
     1
102
RTVSPropertyOp4
 70
     1
102
RTVSPropertyOp5
 70
     1
102
RTVSPropertyOp6
 70
     1
102
RTVSPropertyOp7
 70
     1
102
RTVSPropertyOp8
 70
     1
102
RTVSPropertyOp9
 70
     1
102
RTVSPropertyOp10
 70
     1
102
RTVSPropertyOp11
 70
     1
102
RTVSPropertyOp12
 70
     1
102
RTVSPropertyOp13
 70
     1
102
RTVSPropertyOp14
 70
     1
102
RTVSPropertyOp15
 70
     1
102
RTVSPropertyOp16
 70
     1
102
RTVSPropertyOp17
 70
     1
102
RTVSPropertyOp18
 70
     1
102
RTVSPropertyOp19
 70
     1
102
RTVSPropertyOp20
 70
     1
102
RTVSPropertyOp21
 70
     1
102
RTVSPropertyOp22
 70
     1
102
RTVSPropertyOp23
 70
     1
102
RTVSPropertyOp24
 70
     1
102
RTVSPropertyOp25
 70
     1
102
RTVSPropertyOp26
 70
     1
102
RTVSPropertyOp27
 70
     1
102
RTVSPropertyOp28
 70
     1
102
RTVSPropertyOp29
 70
     1
102
RTVSPropertyOp30
 70
     1
102
RTVSPropertyOp31
 70
     1
102
RTVSPropertyOp32
 70
     1
  0
XRECORD
  5
CA2
102
{ACAD_REACTORS
330
CA1
102
}
330
CA1
100
AcDbXrecord
280
     1
102
RTVSPropertyOp0
 70
     1
102
RTVSPropertyOp1
 70
     1
102
RTVSPropertyOp2
 70
     1
102
RTVSPropertyOp3
 70
     1
102
RTVSPropertyOp4
 70
     1
102
RTVSPropertyOp5
 70
     1
102
RTVSPropertyOp6
 70
     1
102
RTVSPropertyOp7
 70
     1
102
RTVSPropertyOp8
 70
     1
102
RTVSPropertyOp9
 70
     1
102
RTVSPropertyOp10
 70
     1
102
RTVSPropertyOp11
 70
     1
102
RTVSPropertyOp12
 70
     1
102
RTVSPropertyOp13
 70
     1
102
RTVSPropertyOp14
 70
     1
102
RTVSPropertyOp15
 70
     1
102
RTVSPropertyOp16
 70
     1
102
RTVSPropertyOp17
 70
     1
102
RTVSPropertyOp18
 70
     1
102
RTVSPropertyOp19
 70
     1
102
RTVSPropertyOp20
 70
     1
102
RTVSPropertyOp21
 70
     1
102
RTVSPropertyOp22
 70
     1
102
RTVSPropertyOp23
 70
     1
102
RTVSPropertyOp24
 70
     1
102
RTVSPropertyOp25
 70
     1
102
RTVSPropertyOp26
 70
     1
102
RTVSPropertyOp27
 70
     1
102
RTVSPropertyOp28
 70
     1
102
RTVSPropertyOp29
 70
     1
102
RTVSPropertyOp30
 70
     1
102
RTVSPropertyOp31
 70
     1
102
RTVSPropertyOp32
 70
     1
  0
XRECORD
  5
C94
102
{ACAD_REACTORS
330
C93
102
}
330
C93
100
AcDbXrecord
280
     1
102
RTVSPropertyOp0
 70
     1
102
RTVSPropertyOp1
 70
     1
102
RTVSPropertyOp2
 70
     1
102
RTVSPropertyOp3
 70
     1
102
RTVSPropertyOp4
 70
     1
102
RTVSPropertyOp5
 70
     1
102
RTVSPropertyOp6
 70
     1
102
RTVSPropertyOp7
 70
     1
102
RTVSPropertyOp8
 70
     1
102
RTVSPropertyOp9
 70
     1
102
RTVSPropertyOp10
 70
     1
102
RTVSPropertyOp11
 70
     1
102
RTVSPropertyOp12
 70
     1
102
RTVSPropertyOp13
 70
     1
102
RTVSPropertyOp14
 70
     1
102
RTVSPropertyOp15
 70
     1
102
RTVSPropertyOp16
 70
     1
102
RTVSPropertyOp17
 70
     1
102
RTVSPropertyOp18
 70
     1
102
RTVSPropertyOp19
 70
     1
102
RTVSPropertyOp20
 70
     1
102
RTVSPropertyOp21
 70
     1
102
RTVSPropertyOp22
 70
     1
102
RTVSPropertyOp23
 70
     1
102
RTVSPropertyOp24
 70
     1
102
RTVSPropertyOp25
 70
     1
102
RTVSPropertyOp26
 70
     1
102
RTVSPropertyOp27
 70
     1
102
RTVSPropertyOp28
 70
     1
102
RTVSPropertyOp29
 70
     1
102
RTVSPropertyOp30
 70
     1
102
RTVSPropertyOp31
 70
     1
102
RTVSPropertyOp32
 70
     1
  0
XRECORD
  5
C98
102
{ACAD_REACTORS
330
C97
102
}
330
C97
100
AcDbXrecord
280
     1
102
RTVSPropertyOp0
 70
     1
102
RTVSPropertyOp1
 70
     1
102
RTVSPropertyOp2
 70
     1
102
RTVSPropertyOp3
 70
     1
102
RTVSPropertyOp4
 70
     1
102
RTVSPropertyOp5
 70
     1
102
RTVSPropertyOp6
 70
     1
102
RTVSPropertyOp7
 70
     1
102
RTVSPropertyOp8
 70
     1
102
RTVSPropertyOp9
 70
     1
102
RTVSPropertyOp10
 70
     1
102
RTVSPropertyOp11
 70
     1
102
RTVSPropertyOp12
 70
     1
102
RTVSPropertyOp13
 70
     1
102
RTVSPropertyOp14
 70
     1
102
RTVSPropertyOp15
 70
     1
102
RTVSPropertyOp16
 70
     1
102
RTVSPropertyOp17
 70
     1
102
RTVSPropertyOp18
 70
     1
102
RTVSPropertyOp19
 70
     1
102
RTVSPropertyOp20
 70
     1
102
RTVSPropertyOp21
 70
     1
102
RTVSPropertyOp22
 70
     1
102
RTVSPropertyOp23
 70
     1
102
RTVSPropertyOp24
 70
     1
102
RTVSPropertyOp25
 70
     1
102
RTVSPropertyOp26
 70
     1
102
RTVSPropertyOp27
 70
     1
102
RTVSPropertyOp28
 70
     1
102
RTVSPropertyOp29
 70
     1
102
RTVSPropertyOp30
 70
     1
102
RTVSPropertyOp31
 70
     1
102
RTVSPropertyOp32
 70
     1
  0
XRECORD
  5
CB2
102
{ACAD_REACTORS
330
CB1
102
}
330
CB1
100
AcDbXrecord
280
     1
102
RTVSPropertyOp0
 70
     0
102
RTVSPropertyOp1
 70
     0
102
RTVSPropertyOp2
 70
     0
102
RTVSPropertyOp3
 70
     0
102
RTVSPropertyOp4
 70
     0
102
RTVSPropertyOp5
 70
     0
102
RTVSPropertyOp6
 70
     0
102
RTVSPropertyOp7
 70
     0
102
RTVSPropertyOp8
 70
     0
102
RTVSPropertyOp9
 70
     0
102
RTVSPropertyOp10
 70
     0
102
RTVSPropertyOp11
 70
     0
102
RTVSPropertyOp12
 70
     0
102
RTVSPropertyOp13
 70
     0
102
RTVSPropertyOp14
 70
     2
102
RTVSPropertyOp15
 70
     0
102
RTVSPropertyOp16
 70
     0
102
RTVSPropertyOp17
 70
     0
102
RTVSPropertyOp18
 70
     0
102
RTVSPropertyOp19
 70
     0
102
RTVSPropertyOp20
 70
     0
102
RTVSPropertyOp21
 70
     0
102
RTVSPropertyOp22
 70
     0
102
RTVSPropertyOp23
 70
     0
102
RTVSPropertyOp24
 70
     0
102
RTVSPropertyOp25
 70
     0
102
RTVSPropertyOp26
 70
     0
102
RTVSPropertyOp27
 70
     0
102
RTVSPropertyOp28
 70
     1
102
RTVSPropertyOp29
 70
     1
102
RTVSPropertyOp30
 70
     1
102
RTVSPropertyOp31
 70
     1
102
RTVSPropertyOp32
 70
     1
  0
XRECORD
  5
CA0
102
{ACAD_REACTORS
330
C9F
102
}
330
C9F
100
AcDbXrecord
280
     1
102
RTVSPropertyOp0
 70
     1
102
RTVSPropertyOp1
 70
     1
102
RTVSPropertyOp2
 70
     1
102
RTVSPropertyOp3
 70
     1
102
RTVSPropertyOp4
 70
     1
102
RTVSPropertyOp5
 70
     1
102
RTVSPropertyOp6
 70
     1
102
RTVSPropertyOp7
 70
     1
102
RTVSPropertyOp8
 70
     1
102
RTVSPropertyOp9
 70
     1
102
RTVSPropertyOp10
 70
     1
102
RTVSPropertyOp11
 70
     1
102
RTVSPropertyOp12
 70
     1
102
RTVSPropertyOp13
 70
     1
102
RTVSPropertyOp14
 70
     1
102
RTVSPropertyOp15
 70
     1
102
RTVSPropertyOp16
 70
     1
102
RTVSPropertyOp17
 70
     1
102
RTVSPropertyOp18
 70
     1
102
RTVSPropertyOp19
 70
     1
102
RTVSPropertyOp20
 70
     1
102
RTVSPropertyOp21
 70
     1
102
RTVSPropertyOp22
 70
     1
102
RTVSPropertyOp23
 70
     1
102
RTVSPropertyOp24
 70
     1
102
RTVSPropertyOp25
 70
     1
102
RTVSPropertyOp26
 70
     1
102
RTVSPropertyOp27
 70
     1
102
RTVSPropertyOp28
 70
     1
102
RTVSPropertyOp29
 70
     1
102
RTVSPropertyOp30
 70
     1
102
RTVSPropertyOp31
 70
     1
102
RTVSPropertyOp32
 70
     1
  0
XRECORD
  5
C84
102
{ACAD_REACTORS
330
C83
102
}
330
C83
100
AcDbXrecord
280
     1
102
RTVSPropertyOp0
 70
     1
102
RTVSPropertyOp1
 70
     1
102
RTVSPropertyOp2
 70
     1
102
RTVSPropertyOp3
 70
     1
102
RTVSPropertyOp4
 70
     1
102
RTVSPropertyOp5
 70
     1
102
RTVSPropertyOp6
 70
     1
102
RTVSPropertyOp7
 70
     1
102
RTVSPropertyOp8
 70
     1
102
RTVSPropertyOp9
 70
     1
102
RTVSPropertyOp10
 70
     1
102
RTVSPropertyOp11
 70
     1
102
RTVSPropertyOp12
 70
     1
102
RTVSPropertyOp13
 70
     1
102
RTVSPropertyOp14
 70
     1
102
RTVSPropertyOp15
 70
     1
102
RTVSPropertyOp16
 70
     1
102
RTVSPropertyOp17
 70
     1
102
RTVSPropertyOp18
 70
     1
102
RTVSPropertyOp19
 70
     1
102
RTVSPropertyOp20
 70
     1
102
RTVSPropertyOp21
 70
     1
102
RTVSPropertyOp22
 70
     1
102
RTVSPropertyOp23
 70
     1
102
RTVSPropertyOp24
 70
     1
102
RTVSPropertyOp25
 70
     1
102
RTVSPropertyOp26
 70
     1
102
RTVSPropertyOp27
 70
     1
102
RTVSPropertyOp28
 70
     1
102
RTVSPropertyOp29
 70
     1
102
RTVSPropertyOp30
 70
     1
102
RTVSPropertyOp31
 70
     1
102
RTVSPropertyOp32
 70
     1
  0
XRECORD
  5
C86
102
{ACAD_REACTORS
330
C85
102
}
330
C85
100
AcDbXrecord
280
     1
102
RTVSPropertyOp0
 70
     1
102
RTVSPropertyOp1
 70
     1
102
RTVSPropertyOp2
 70
     1
102
RTVSPropertyOp3
 70
     1
102
RTVSPropertyOp4
 70
     1
102
RTVSPropertyOp5
 70
     1
102
RTVSPropertyOp6
 70
     1
102
RTVSPropertyOp7
 70
     1
102
RTVSPropertyOp8
 70
     1
102
RTVSPropertyOp9
 70
     1
102
RTVSPropertyOp10
 70
     1
102
RTVSPropertyOp11
 70
     1
102
RTVSPropertyOp12
 70
     1
102
RTVSPropertyOp13
 70
     1
102
RTVSPropertyOp14
 70
     1
102
RTVSPropertyOp15
 70
     1
102
RTVSPropertyOp16
 70
     1
102
RTVSPropertyOp17
 70
     1
102
RTVSPropertyOp18
 70
     1
102
RTVSPropertyOp19
 70
     1
102
RTVSPropertyOp20
 70
     1
102
RTVSPropertyOp21
 70
     1
102
RTVSPropertyOp22
 70
     1
102
RTVSPropertyOp23
 70
     1
102
RTVSPropertyOp24
 70
     1
102
RTVSPropertyOp25
 70
     1
102
RTVSPropertyOp26
 70
     1
102
RTVSPropertyOp27
 70
     1
102
RTVSPropertyOp28
 70
     1
102
RTVSPropertyOp29
 70
     1
102
RTVSPropertyOp30
 70
     1
102
RTVSPropertyOp31
 70
     1
102
RTVSPropertyOp32
 70
     1
  0
XRECORD
  5
C88
102
{ACAD_REACTORS
330
C87
102
}
330
C87
100
AcDbXrecord
280
     1
102
RTVSPropertyOp0
 70
     1
102
RTVSPropertyOp1
 70
     1
102
RTVSPropertyOp2
 70
     1
102
RTVSPropertyOp3
 70
     1
102
RTVSPropertyOp4
 70
     1
102
RTVSPropertyOp5
 70
     1
102
RTVSPropertyOp6
 70
     1
102
RTVSPropertyOp7
 70
     1
102
RTVSPropertyOp8
 70
     1
102
RTVSPropertyOp9
 70
     1
102
RTVSPropertyOp10
 70
     1
102
RTVSPropertyOp11
 70
     1
102
RTVSPropertyOp12
 70
     1
102
RTVSPropertyOp13
 70
     1
102
RTVSPropertyOp14
 70
     1
102
RTVSPropertyOp15
 70
     1
102
RTVSPropertyOp16
 70
     1
102
RTVSPropertyOp17
 70
     1
102
RTVSPropertyOp18
 70
     1
102
RTVSPropertyOp19
 70
     1
102
RTVSPropertyOp20
 70
     1
102
RTVSPropertyOp21
 70
     1
102
RTVSPropertyOp22
 70
     1
102
RTVSPropertyOp23
 70
     1
102
RTVSPropertyOp24
 70
     1
102
RTVSPropertyOp25
 70
     1
102
RTVSPropertyOp26
 70
     1
102
RTVSPropertyOp27
 70
     1
102
RTVSPropertyOp28
 70
     1
102
RTVSPropertyOp29
 70
     1
102
RTVSPropertyOp30
 70
     1
102
RTVSPropertyOp31
 70
     1
102
RTVSPropertyOp32
 70
     1
  0
XRECORD
  5
C8A
102
{ACAD_REACTORS
330
C89
102
}
330
C89
100
AcDbXrecord
280
     1
102
RTVSPropertyOp0
 70
     1
102
RTVSPropertyOp1
 70
     1
102
RTVSPropertyOp2
 70
     1
102
RTVSPropertyOp3
 70
     1
102
RTVSPropertyOp4
 70
     1
102
RTVSPropertyOp5
 70
     1
102
RTVSPropertyOp6
 70
     1
102
RTVSPropertyOp7
 70
     1
102
RTVSPropertyOp8
 70
     1
102
RTVSPropertyOp9
 70
     1
102
RTVSPropertyOp10
 70
     1
102
RTVSPropertyOp11
 70
     1
102
RTVSPropertyOp12
 70
     1
102
RTVSPropertyOp13
 70
     1
102
RTVSPropertyOp14
 70
     1
102
RTVSPropertyOp15
 70
     1
102
RTVSPropertyOp16
 70
     1
102
RTVSPropertyOp17
 70
     1
102
RTVSPropertyOp18
 70
     1
102
RTVSPropertyOp19
 70
     1
102
RTVSPropertyOp20
 70
     1
102
RTVSPropertyOp21
 70
     1
102
RTVSPropertyOp22
 70
     1
102
RTVSPropertyOp23
 70
     1
102
RTVSPropertyOp24
 70
     1
102
RTVSPropertyOp25
 70
     1
102
RTVSPropertyOp26
 70
     1
102
RTVSPropertyOp27
 70
     1
102
RTVSPropertyOp28
 70
     1
102
RTVSPropertyOp29
 70
     1
102
RTVSPropertyOp30
 70
     1
102
RTVSPropertyOp31
 70
     1
102
RTVSPropertyOp32
 70
     1
  0
XRECORD
  5
C92
102
{ACAD_REACTORS
330
C91
102
}
330
C91
100
AcDbXrecord
280
     1
102
RTVSPropertyOp0
 70
     1
102
RTVSPropertyOp1
 70
     1
102
RTVSPropertyOp2
 70
     1
102
RTVSPropertyOp3
 70
     1
102
RTVSPropertyOp4
 70
     1
102
RTVSPropertyOp5
 70
     1
102
RTVSPropertyOp6
 70
     1
102
RTVSPropertyOp7
 70
     1
102
RTVSPropertyOp8
 70
     1
102
RTVSPropertyOp9
 70
     1
102
RTVSPropertyOp10
 70
     1
102
RTVSPropertyOp11
 70
     1
102
RTVSPropertyOp12
 70
     1
102
RTVSPropertyOp13
 70
     1
102
RTVSPropertyOp14
 70
     1
102
RTVSPropertyOp15
 70
     1
102
RTVSPropertyOp16
 70
     1
102
RTVSPropertyOp17
 70
     1
102
RTVSPropertyOp18
 70
     1
102
RTVSPropertyOp19
 70
     1
102
RTVSPropertyOp20
 70
     1
102
RTVSPropertyOp21
 70
     1
102
RTVSPropertyOp22
 70
     1
102
RTVSPropertyOp23
 70
     1
102
RTVSPropertyOp24
 70
     1
102
RTVSPropertyOp25
 70
     1
102
RTVSPropertyOp26
 70
     1
102
RTVSPropertyOp27
 70
     1
102
RTVSPropertyOp28
 70
     1
102
RTVSPropertyOp29
 70
     1
102
RTVSPropertyOp30
 70
     1
102
RTVSPropertyOp31
 70
     1
102
RTVSPropertyOp32
 70
     1
  0
XRECORD
  5
CAE
102
{ACAD_REACTORS
330
CAD
102
}
330
CAD
100
AcDbXrecord
280
     1
102
RTVSPropertyOp0
 70
     0
102
RTVSPropertyOp1
 70
     0
102
RTVSPropertyOp2
 70
     0
102
RTVSPropertyOp3
 70
     0
102
RTVSPropertyOp4
 70
     0
102
RTVSPropertyOp5
 70
     0
102
RTVSPropertyOp6
 70
     0
102
RTVSPropertyOp7
 70
     0
102
RTVSPropertyOp8
 70
     0
102
RTVSPropertyOp9
 70
     0
102
RTVSPropertyOp10
 70
     0
102
RTVSPropertyOp11
 70
     0
102
RTVSPropertyOp12
 70
     0
102
RTVSPropertyOp13
 70
     0
102
RTVSPropertyOp14
 70
     2
102
RTVSPropertyOp15
 70
     0
102
RTVSPropertyOp16
 70
     0
102
RTVSPropertyOp17
 70
     0
102
RTVSPropertyOp18
 70
     0
102
RTVSPropertyOp19
 70
     0
102
RTVSPropertyOp20
 70
     0
102
RTVSPropertyOp21
 70
     0
102
RTVSPropertyOp22
 70
     0
102
RTVSPropertyOp23
 70
     0
102
RTVSPropertyOp24
 70
     0
102
RTVSPropertyOp25
 70
     0
102
RTVSPropertyOp26
 70
     0
102
RTVSPropertyOp27
 70
     0
102
RTVSPropertyOp28
 70
     1
102
RTVSPropertyOp29
 70
     1
102
RTVSPropertyOp30
 70
     1
102
RTVSPropertyOp31
 70
     1
102
RTVSPropertyOp32
 70
     1
  0
XRECORD
  5
C9E
102
{ACAD_REACTORS
330
C9D
102
}
330
C9D
100
AcDbXrecord
280
     1
102
RTVSPropertyOp0
 70
     1
102
RTVSPropertyOp1
 70
     1
102
RTVSPropertyOp2
 70
     1
102
RTVSPropertyOp3
 70
     1
102
RTVSPropertyOp4
 70
     1
102
RTVSPropertyOp5
 70
     1
102
RTVSPropertyOp6
 70
     1
102
RTVSPropertyOp7
 70
     1
102
RTVSPropertyOp8
 70
     1
102
RTVSPropertyOp9
 70
     1
102
RTVSPropertyOp10
 70
     1
102
RTVSPropertyOp11
 70
     1
102
RTVSPropertyOp12
 70
     1
102
RTVSPropertyOp13
 70
     1
102
RTVSPropertyOp14
 70
     1
102
RTVSPropertyOp15
 70
     1
102
RTVSPropertyOp16
 70
     1
102
RTVSPropertyOp17
 70
     1
102
RTVSPropertyOp18
 70
     1
102
RTVSPropertyOp19
 70
     1
102
RTVSPropertyOp20
 70
     1
102
RTVSPropertyOp21
 70
     1
102
RTVSPropertyOp22
 70
     1
102
RTVSPropertyOp23
 70
     1
102
RTVSPropertyOp24
 70
     1
102
RTVSPropertyOp25
 70
     1
102
RTVSPropertyOp26
 70
     1
102
RTVSPropertyOp27
 70
     1
102
RTVSPropertyOp28
 70
     1
102
RTVSPropertyOp29
 70
     1
102
RTVSPropertyOp30
 70
     1
102
RTVSPropertyOp31
 70
     1
102
RTVSPropertyOp32
 70
     1
  0
XRECORD
  5
CB0
102
{ACAD_REACTORS
330
CAF
102
}
330
CAF
100
AcDbXrecord
280
     1
102
RTVSPropertyOp0
 70
     0
102
RTVSPropertyOp1
 70
     0
102
RTVSPropertyOp2
 70
     0
102
RTVSPropertyOp3
 70
     0
102
RTVSPropertyOp4
 70
     0
102
RTVSPropertyOp5
 70
     0
102
RTVSPropertyOp6
 70
     0
102
RTVSPropertyOp7
 70
     0
102
RTVSPropertyOp8
 70
     0
102
RTVSPropertyOp9
 70
     0
102
RTVSPropertyOp10
 70
     0
102
RTVSPropertyOp11
 70
     0
102
RTVSPropertyOp12
 70
     0
102
RTVSPropertyOp13
 70
     0
102
RTVSPropertyOp14
 70
     2
102
RTVSPropertyOp15
 70
     0
102
RTVSPropertyOp16
 70
     0
102
RTVSPropertyOp17
 70
     0
102
RTVSPropertyOp18
 70
     0
102
RTVSPropertyOp19
 70
     0
102
RTVSPropertyOp20
 70
     0
102
RTVSPropertyOp21
 70
     0
102
RTVSPropertyOp22
 70
     0
102
RTVSPropertyOp23
 70
     0
102
RTVSPropertyOp24
 70
     0
102
RTVSPropertyOp25
 70
     0
102
RTVSPropertyOp26
 70
     0
102
RTVSPropertyOp27
 70
     0
102
RTVSPropertyOp28
 70
     1
102
RTVSPropertyOp29
 70
     1
102
RTVSPropertyOp30
 70
     1
102
RTVSPropertyOp31
 70
     1
102
RTVSPropertyOp32
 70
     1
  0
XRECORD
  5
C96
102
{ACAD_REACTORS
330
C95
102
}
330
C95
100
AcDbXrecord
280
     1
102
RTVSPropertyOp0
 70
     1
102
RTVSPropertyOp1
 70
     1
102
RTVSPropertyOp2
 70
     1
102
RTVSPropertyOp3
 70
     1
102
RTVSPropertyOp4
 70
     1
102
RTVSPropertyOp5
 70
     1
102
RTVSPropertyOp6
 70
     1
102
RTVSPropertyOp7
 70
     1
102
RTVSPropertyOp8
 70
     1
102
RTVSPropertyOp9
 70
     1
102
RTVSPropertyOp10
 70
     1
102
RTVSPropertyOp11
 70
     1
102
RTVSPropertyOp12
 70
     1
102
RTVSPropertyOp13
 70
     1
102
RTVSPropertyOp14
 70
     1
102
RTVSPropertyOp15
 70
     1
102
RTVSPropertyOp16
 70
     1
102
RTVSPropertyOp17
 70
     1
102
RTVSPropertyOp18
 70
     1
102
RTVSPropertyOp19
 70
     1
102
RTVSPropertyOp20
 70
     1
102
RTVSPropertyOp21
 70
     1
102
RTVSPropertyOp22
 70
     1
102
RTVSPropertyOp23
 70
     1
102
RTVSPropertyOp24
 70
     1
102
RTVSPropertyOp25
 70
     1
102
RTVSPropertyOp26
 70
     1
102
RTVSPropertyOp27
 70
     1
102
RTVSPropertyOp28
 70
     1
102
RTVSPropertyOp29
 70
     1
102
RTVSPropertyOp30
 70
     1
102
RTVSPropertyOp31
 70
     1
102
RTVSPropertyOp32
 70
     1
  0
XRECORD
  5
CAC
102
{ACAD_REACTORS
330
CAB
102
}
330
CAB
100
AcDbXrecord
280
     1
102
RTVSPropertyOp0
 70
     1
102
RTVSPropertyOp1
 70
     1
102
RTVSPropertyOp2
 70
     1
102
RTVSPropertyOp3
 70
     1
102
RTVSPropertyOp4
 70
     1
102
RTVSPropertyOp5
 70
     1
102
RTVSPropertyOp6
 70
     1
102
RTVSPropertyOp7
 70
     1
102
RTVSPropertyOp8
 70
     1
102
RTVSPropertyOp9
 70
     1
102
RTVSPropertyOp10
 70
     1
102
RTVSPropertyOp11
 70
     1
102
RTVSPropertyOp12
 70
     1
102
RTVSPropertyOp13
 70
     1
102
RTVSPropertyOp14
 70
     1
102
RTVSPropertyOp15
 70
     1
102
RTVSPropertyOp16
 70
     1
102
RTVSPropertyOp17
 70
     1
102
RTVSPropertyOp18
 70
     1
102
RTVSPropertyOp19
 70
     1
102
RTVSPropertyOp20
 70
     1
102
RTVSPropertyOp21
 70
     1
102
RTVSPropertyOp22
 70
     1
102
RTVSPropertyOp23
 70
     1
102
RTVSPropertyOp24
 70
     1
102
RTVSPropertyOp25
 70
     1
102
RTVSPropertyOp26
 70
     1
102
RTVSPropertyOp27
 70
     1
102
RTVSPropertyOp28
 70
     1
102
RTVSPropertyOp29
 70
     1
102
RTVSPropertyOp30
 70
     1
102
RTVSPropertyOp31
 70
     1
102
RTVSPropertyOp32
 70
     1
  0
XRECORD
  5
CAA
102
{ACAD_REACTORS
330
CA9
102
}
330
CA9
100
AcDbXrecord
280
     1
102
RTVSPropertyOp0
 70
     1
102
RTVSPropertyOp1
 70
     1
102
RTVSPropertyOp2
 70
     1
102
RTVSPropertyOp3
 70
     1
102
RTVSPropertyOp4
 70
     1
102
RTVSPropertyOp5
 70
     1
102
RTVSPropertyOp6
 70
     1
102
RTVSPropertyOp7
 70
     1
102
RTVSPropertyOp8
 70
     1
102
RTVSPropertyOp9
 70
     1
102
RTVSPropertyOp10
 70
     1
102
RTVSPropertyOp11
 70
     1
102
RTVSPropertyOp12
 70
     1
102
RTVSPropertyOp13
 70
     1
102
RTVSPropertyOp14
 70
     1
102
RTVSPropertyOp15
 70
     1
102
RTVSPropertyOp16
 70
     1
102
RTVSPropertyOp17
 70
     1
102
RTVSPropertyOp18
 70
     1
102
RTVSPropertyOp19
 70
     1
102
RTVSPropertyOp20
 70
     1
102
RTVSPropertyOp21
 70
     1
102
RTVSPropertyOp22
 70
     1
102
RTVSPropertyOp23
 70
     1
102
RTVSPropertyOp24
 70
     1
102
RTVSPropertyOp25
 70
     1
102
RTVSPropertyOp26
 70
     1
102
RTVSPropertyOp27
 70
     1
102
RTVSPropertyOp28
 70
     1
102
RTVSPropertyOp29
 70
     1
102
RTVSPropertyOp30
 70
     1
102
RTVSPropertyOp31
 70
     1
102
RTVSPropertyOp32
 70
     1
  0
XRECORD
  5
CA4
102
{ACAD_REACTORS
330
CA3
102
}
330
CA3
100
AcDbXrecord
280
     1
102
RTVSPropertyOp0
 70
     1
102
RTVSPropertyOp1
 70
     1
102
RTVSPropertyOp2
 70
     1
102
RTVSPropertyOp3
 70
     1
102
RTVSPropertyOp4
 70
     1
102
RTVSPropertyOp5
 70
     1
102
RTVSPropertyOp6
 70
     1
102
RTVSPropertyOp7
 70
     1
102
RTVSPropertyOp8
 70
     1
102
RTVSPropertyOp9
 70
     1
102
RTVSPropertyOp10
 70
     1
102
RTVSPropertyOp11
 70
     1
102
RTVSPropertyOp12
 70
     1
102
RTVSPropertyOp13
 70
     1
102
RTVSPropertyOp14
 70
     1
102
RTVSPropertyOp15
 70
     1
102
RTVSPropertyOp16
 70
     1
102
RTVSPropertyOp17
 70
     1
102
RTVSPropertyOp18
 70
     1
102
RTVSPropertyOp19
 70
     1
102
RTVSPropertyOp20
 70
     1
102
RTVSPropertyOp21
 70
     1
102
RTVSPropertyOp22
 70
     1
102
RTVSPropertyOp23
 70
     1
102
RTVSPropertyOp24
 70
     1
102
RTVSPropertyOp25
 70
     1
102
RTVSPropertyOp26
 70
     1
102
RTVSPropertyOp27
 70
     1
102
RTVSPropertyOp28
 70
     1
102
RTVSPropertyOp29
 70
     1
102
RTVSPropertyOp30
 70
     1
102
RTVSPropertyOp31
 70
     1
102
RTVSPropertyOp32
 70
     1
  0
XRECORD
  5
CA6
102
{ACAD_REACTORS
330
CA5
102
}
330
CA5
100
AcDbXrecord
280
     1
102
RTVSPropertyOp0
 70
     1
102
RTVSPropertyOp1
 70
     1
102
RTVSPropertyOp2
 70
     1
102
RTVSPropertyOp3
 70
     1
102
RTVSPropertyOp4
 70
     1
102
RTVSPropertyOp5
 70
     1
102
RTVSPropertyOp6
 70
     1
102
RTVSPropertyOp7
 70
     1
102
RTVSPropertyOp8
 70
     1
102
RTVSPropertyOp9
 70
     1
102
RTVSPropertyOp10
 70
     1
102
RTVSPropertyOp11
 70
     1
102
RTVSPropertyOp12
 70
     1
102
RTVSPropertyOp13
 70
     1
102
RTVSPropertyOp14
 70
     1
102
RTVSPropertyOp15
 70
     1
102
RTVSPropertyOp16
 70
     1
102
RTVSPropertyOp17
 70
     1
102
RTVSPropertyOp18
 70
     1
102
RTVSPropertyOp19
 70
     1
102
RTVSPropertyOp20
 70
     1
102
RTVSPropertyOp21
 70
     1
102
RTVSPropertyOp22
 70
     1
102
RTVSPropertyOp23
 70
     1
102
RTVSPropertyOp24
 70
     1
102
RTVSPropertyOp25
 70
     1
102
RTVSPropertyOp26
 70
     1
102
RTVSPropertyOp27
 70
     1
102
RTVSPropertyOp28
 70
     1
102
RTVSPropertyOp29
 70
     1
102
RTVSPropertyOp30
 70
     1
102
RTVSPropertyOp31
 70
     1
102
RTVSPropertyOp32
 70
     1
  0
XRECORD
  5
C9C
102
{ACAD_REACTORS
330
C9B
102
}
330
C9B
100
AcDbXrecord
280
     1
102
RTVSPropertyOp0
 70
     1
102
RTVSPropertyOp1
 70
     1
102
RTVSPropertyOp2
 70
     1
102
RTVSPropertyOp3
 70
     1
102
RTVSPropertyOp4
 70
     1
102
RTVSPropertyOp5
 70
     1
102
RTVSPropertyOp6
 70
     1
102
RTVSPropertyOp7
 70
     1
102
RTVSPropertyOp8
 70
     1
102
RTVSPropertyOp9
 70
     1
102
RTVSPropertyOp10
 70
     1
102
RTVSPropertyOp11
 70
     1
102
RTVSPropertyOp12
 70
     1
102
RTVSPropertyOp13
 70
     1
102
RTVSPropertyOp14
 70
     1
102
RTVSPropertyOp15
 70
     1
102
RTVSPropertyOp16
 70
     1
102
RTVSPropertyOp17
 70
     1
102
RTVSPropertyOp18
 70
     1
102
RTVSPropertyOp19
 70
     1
102
RTVSPropertyOp20
 70
     1
102
RTVSPropertyOp21
 70
     1
102
RTVSPropertyOp22
 70
     1
102
RTVSPropertyOp23
 70
     1
102
RTVSPropertyOp24
 70
     1
102
RTVSPropertyOp25
 70
     1
102
RTVSPropertyOp26
 70
     1
102
RTVSPropertyOp27
 70
     1
102
RTVSPropertyOp28
 70
     1
102
RTVSPropertyOp29
 70
     1
102
RTVSPropertyOp30
 70
     1
102
RTVSPropertyOp31
 70
     1
102
RTVSPropertyOp32
 70
     1
  0
XRECORD
  5
C90
102
{ACAD_REACTORS
330
C8F
102
}
330
C8F
100
AcDbXrecord
280
     1
102
RTVSPropertyOp0
 70
     1
102
RTVSPropertyOp1
 70
     1
102
RTVSPropertyOp2
 70
     1
102
RTVSPropertyOp3
 70
     1
102
RTVSPropertyOp4
 70
     1
102
RTVSPropertyOp5
 70
     1
102
RTVSPropertyOp6
 70
     1
102
RTVSPropertyOp7
 70
     1
102
RTVSPropertyOp8
 70
     1
102
RTVSPropertyOp9
 70
     1
102
RTVSPropertyOp10
 70
     1
102
RTVSPropertyOp11
 70
     1
102
RTVSPropertyOp12
 70
     1
102
RTVSPropertyOp13
 70
     1
102
RTVSPropertyOp14
 70
     1
102
RTVSPropertyOp15
 70
     1
102
RTVSPropertyOp16
 70
     1
102
RTVSPropertyOp17
 70
     1
102
RTVSPropertyOp18
 70
     1
102
RTVSPropertyOp19
 70
     1
102
RTVSPropertyOp20
 70
     1
102
RTVSPropertyOp21
 70
     1
102
RTVSPropertyOp22
 70
     1
102
RTVSPropertyOp23
 70
     1
102
RTVSPropertyOp24
 70
     1
102
RTVSPropertyOp25
 70
     1
102
RTVSPropertyOp26
 70
     1
102
RTVSPropertyOp27
 70
     1
102
RTVSPropertyOp28
 70
     1
102
RTVSPropertyOp29
 70
     1
102
RTVSPropertyOp30
 70
     1
102
RTVSPropertyOp31
 70
     1
102
RTVSPropertyOp32
 70
     1
  0
XRECORD
  5
CA8
102
{ACAD_REACTORS
330
CA7
102
}
330
CA7
100
AcDbXrecord
280
     1
102
RTVSPropertyOp0
 70
     1
102
RTVSPropertyOp1
 70
     1
102
RTVSPropertyOp2
 70
     1
102
RTVSPropertyOp3
 70
     1
102
RTVSPropertyOp4
 70
     1
102
RTVSPropertyOp5
 70
     1
102
RTVSPropertyOp6
 70
     1
102
RTVSPropertyOp7
 70
     1
102
RTVSPropertyOp8
 70
     1
102
RTVSPropertyOp9
 70
     1
102
RTVSPropertyOp10
 70
     1
102
RTVSPropertyOp11
 70
     1
102
RTVSPropertyOp12
 70
     1
102
RTVSPropertyOp13
 70
     1
102
RTVSPropertyOp14
 70
     1
102
RTVSPropertyOp15
 70
     1
102
RTVSPropertyOp16
 70
     1
102
RTVSPropertyOp17
 70
     1
102
RTVSPropertyOp18
 70
     1
102
RTVSPropertyOp19
 70
     1
102
RTVSPropertyOp20
 70
     1
102
RTVSPropertyOp21
 70
     1
102
RTVSPropertyOp22
 70
     1
102
RTVSPropertyOp23
 70
     1
102
RTVSPropertyOp24
 70
     1
102
RTVSPropertyOp25
 70
     1
102
RTVSPropertyOp26
 70
     1
102
RTVSPropertyOp27
 70
     1
102
RTVSPropertyOp28
 70
     1
102
RTVSPropertyOp29
 70
     1
102
RTVSPropertyOp30
 70
     1
102
RTVSPropertyOp31
 70
     1
102
RTVSPropertyOp32
 70
     1
  0
ENDSEC
  0
EOF
