  0
SECTION
  2
HEADER
  9
$ACADVER
  1
AC1015
  9
$ACADMAINTVER
 70
    18
  9
$DWGCODEPAGE
  3
ANSI_1252
  9
$INSBASE
 10
0.0
 20
0.0
 30
0.0
  9
$EXTMIN
 10
0.0
 20
0.0
 30
0.0
  9
$EXTMAX
 10
51.0
 20
33.0
 30
0.0
  9
$LIMMIN
 10
0.0
 20
0.0
  9
$LIMMAX
 10
51.0
 20
33.0
  9
$ORTHOMODE
 70
     0
  9
$REGENMODE
 70
     1
  9
$FILLMODE
 70
     1
  9
$QTEXTMODE
 70
     0
  9
$MIRRTEXT
 70
     0
  9
$LTSCALE
 40
3.0
  9
$ATTMODE
 70
     1
  9
$TEXTSIZE
 40
0.2
  9
$TRACEWID
 40
0.05
  9
$TEXTSTYLE
  7
Standard
  9
$CLAYER
  8
0
  9
$CELTYPE
  6
ByLayer
  9
$CECOLOR
 62
   256
  9
$CELTSCALE
 40
1.0
  9
$DISPSILH
 70
     0
  9
$DIMSCALE
 40
1.0
  9
$DIMASZ
 40
0.0708661417322835
  9
$DIMEXO
 40
0.0625
  9
$DIMDLI
 40
0.38
  9
$DIMRND
 40
0.0
  9
$DIMDLE
 40
0.0
  9
$DIMEXE
 40
0.18
  9
$DIMTP
 40
0.0
  9
$DIMTM
 40
0.0
  9
$DIMTXT
 40
0.0708661417322835
  9
$DIMCEN
 40
0.09
  9
$DIMTSZ
 40
0.0
  9
$DIMTOL
 70
     0
  9
$DIMLIM
 70
     0
  9
$DIMTIH
 70
     1
  9
$DIMTOH
 70
     1
  9
$DIMSE1
 70
     0
  9
$DIMSE2
 70
     0
  9
$DIMTAD
 70
     0
  9
$DIMZIN
 70
     0
  9
$DIMBLK
  1

  9
$DIMASO
 70
     1
  9
$DIMSHO
 70
     1
  9
$DIMPOST
  1

  9
$DIMAPOST
  1

  9
$DIMALT
 70
     0
  9
$DIMALTD
 70
     2
  9
$DIMALTF
 40
25.4
  9
$DIMLFAC
 40
1.0
  9
$DIMTOFL
 70
     0
  9
$DIMTVP
 40
0.0
  9
$DIMTIX
 70
     0
  9
$DIMSOXD
 70
     0
  9
$DIMSAH
 70
     0
  9
$DIMBLK1
  1

  9
$DIMBLK2
  1

  9
$DIMSTYLE
  2
STANDARD
  9
$DIMCLRD
 70
     0
  9
$DIMCLRE
 70
     0
  9
$DIMCLRT
 70
     0
  9
$DIMTFAC
 40
1.0
  9
$DIMGAP
 40
0.09
  9
$DIMJUST
 70
     0
  9
$DIMSD1
 70
     0
  9
$DIMSD2
 70
     0
  9
$DIMTOLJ
 70
     1
  9
$DIMTZIN
 70
     0
  9
$DIMALTZ
 70
     0
  9
$DIMALTTZ
 70
     0
  9
$DIMUPT
 70
     0
  9
$DIMDEC
 70
     4
  9
$DIMTDEC
 70
     4
  9
$DIMALTU
 70
     2
  9
$DIMALTTD
 70
     2
  9
$DIMTXSTY
  7
Standard
  9
$DIMAUNIT
 70
     0
  9
$DIMADEC
 70
     0
  9
$DIMALTRND
 40
0.0
  9
$DIMAZIN
 70
     0
  9
$DIMDSEP
 70
    46
  9
$DIMATFIT
 70
     3
  9
$DIMFRAC
 70
     0
  9
$DIMLDRBLK
  1

  9
$DIMLUNIT
 70
     2
  9
$DIMLWD
 70
    -2
  9
$DIMLWE
 70
    -2
  9
$DIMTMOVE
 70
     0
  9
$LUNITS
 70
     2
  9
$LUPREC
 70
     4
  9
$SKETCHINC
 40
0.1
  9
$FILLETRAD
 40
0.0
  9
$AUNITS
 70
     0
  9
$AUPREC
 70
     0
  9
$MENU
  1
.
  9
$ELEVATION
 40
0.0
  9
$PELEVATION
 40
0.0
  9
$THICKNESS
 40
0.0
  9
$LIMCHECK
 70
     0
  9
$CHAMFERA
 40
0.0
  9
$CHAMFERB
 40
0.0
  9
$CHAMFERC
 40
0.0
  9
$CHAMFERD
 40
0.0
  9
$SKPOLY
 70
     0
  9
$TDCREATE
 40
2455944.460254780
  9
$TDUCREATE
 40
2455944.710254780
  9
$TDUPDATE
 40
2455944.460254780
  9
$TDUUPDATE
 40
2455944.710254780
  9
$TDINDWG
 40
0.0000369097
  9
$TDUSRTIMER
 40
0.0000369097
  9
$USRTIMER
 70
     1
  9
$ANGBASE
 50
0.0
  9
$ANGDIR
 70
     0
  9
$PDMODE
 70
     0
  9
$PDSIZE
 40
0.0
  9
$PLINEWID
 40
0.0
  9
$SPLFRAME
 70
     0
  9
$SPLINETYPE
 70
     6
  9
$SPLINESEGS
 70
     8
  9
$HANDSEED
  5
BFF
  9
$SURFTAB1
 70
     6
  9
$SURFTAB2
 70
     6
  9
$SURFTYPE
 70
     6
  9
$SURFU
 70
     6
  9
$SURFV
 70
     6
  9
$UCSBASE
  2

  9
$UCSNAME
  2

  9
$UCSORG
 10
0.0
 20
0.0
 30
0.0
  9
$UCSXDIR
 10
1.0
 20
0.0
 30
0.0
  9
$UCSYDIR
 10
0.0
 20
1.0
 30
0.0
  9
$UCSORTHOREF
  2

  9
$UCSORTHOVIEW
 70
     0
  9
$UCSORGTOP
 10
0.0
 20
0.0
 30
0.0
  9
$UCSORGBOTTOM
 10
0.0
 20
0.0
 30
0.0
  9
$UCSORGLEFT
 10
0.0
 20
0.0
 30
0.0
  9
$UCSORGRIGHT
 10
0.0
 20
0.0
 30
0.0
  9
$UCSORGFRONT
 10
0.0
 20
0.0
 30
0.0
  9
$UCSORGBACK
 10
0.0
 20
0.0
 30
0.0
  9
$PUCSBASE
  2

  9
$PUCSNAME
  2

  9
$PUCSORG
 10
0.0
 20
0.0
 30
0.0
  9
$PUCSXDIR
 10
1.0
 20
0.0
 30
0.0
  9
$PUCSYDIR
 10
0.0
 20
1.0
 30
0.0
  9
$PUCSORTHOREF
  2

  9
$PUCSORTHOVIEW
 70
     0
  9
$PUCSORGTOP
 10
0.0
 20
0.0
 30
0.0
  9
$PUCSORGBOTTOM
 10
0.0
 20
0.0
 30
0.0
  9
$PUCSORGLEFT
 10
0.0
 20
0.0
 30
0.0
  9
$PUCSORGRIGHT
 10
0.0
 20
0.0
 30
0.0
  9
$PUCSORGFRONT
 10
0.0
 20
0.0
 30
0.0
  9
$PUCSORGBACK
 10
0.0
 20
0.0
 30
0.0
  9
$USERI1
 70
     0
  9
$USERI2
 70
     0
  9
$USERI3
 70
     0
  9
$USERI4
 70
     0
  9
$USERI5
 70
     0
  9
$USERR1
 40
0.0
  9
$USERR2
 40
0.0
  9
$USERR3
 40
0.0
  9
$USERR4
 40
0.0
  9
$USERR5
 40
0.0
  9
$WORLDVIEW
 70
     1
  9
$SHADEDGE
 70
     3
  9
$SHADEDIF
 70
    70
  9
$TILEMODE
 70
     1
  9
$MAXACTVP
 70
    64
  9
$PINSBASE
 10
0.0
 20
0.0
 30
0.0
  9
$PLIMCHECK
 70
     0
  9
$PEXTMIN
 10
0.0
 20
0.0
 30
0.0
  9
$PEXTMAX
 10
51.0
 20
33.0
 30
0.0
  9
$PLIMMIN
 10
0.0
 20
0.0
  9
$PLIMMAX
 10
51.0
 20
33.0
  9
$UNITMODE
 70
     0
  9
$VISRETAIN
 70
     1
  9
$PLINEGEN
 70
     0
  9
$PSLTSCALE
 70
     1
  9
$TREEDEPTH
 70
  3020
  9
$CMLSTYLE
  2
Standard
  9
$CMLJUST
 70
     0
  9
$CMLSCALE
 40
1.0
  9
$PROXYGRAPHICS
 70
     1
  9
$MEASUREMENT
 70
     0
  9
$CELWEIGHT
370
    -1
  9
$ENDCAPS
280
     0
  9
$JOINSTYLE
280
     0
  9
$LWDISPLAY
290
     0
  9
$INSUNITS
 70
     1
  9
$HYPERLINKBASE
  1

  9
$STYLESHEET
  1

  9
$XEDIT
290
     1
  9
$CEPSNTYPE
380
     0
  9
$PSTYLEMODE
290
     1
  9
$FINGERPRINTGUID
  2
{F7CFDC3F-D0D6-4A4A-80DB-9507B396131E}
  9
$VERSIONGUID
  2
{F1817C6C-5C72-4910-8D5C-7D018015DB93}
  9
$EXTNAMES
290
     1
  9
$PSVPSCALE
 40
0.0
  9
$OLESTARTUP
290
     0
  0
ENDSEC
  0
SECTION
  2
CLASSES
  0
CLASS
  1
ACDBDICTIONARYWDFLT
  2
AcDbDictionaryWithDefault
  3
ObjectDBX Classes
 90
        0
280
     0
281
     0
  0
CLASS
  1
MATERIAL
  2
AcDbMaterial
  3
ObjectDBX Classes
 90
     1153
280
     0
281
     0
  0
CLASS
  1
VISUALSTYLE
  2
AcDbVisualStyle
  3
ObjectDBX Classes
 90
     4095
280
     0
281
     0
  0
CLASS
  1
SCALE
  2
AcDbScale
  3
ObjectDBX Classes
 90
     1153
280
     0
281
     0
  0
CLASS
  1
TABLESTYLE
  2
AcDbTableStyle
  3
ObjectDBX Classes
 90
     4095
280
     0
281
     0
  0
CLASS
  1
MLEADERSTYLE
  2
AcDbMLeaderStyle
  3
ACDB_MLEADERSTYLE_CLASS
 90
     4095
280
     0
281
     0
  0
CLASS
  1
DICTIONARYVAR
  2
AcDbDictionaryVar
  3
ObjectDBX Classes
 90
        0
280
     0
281
     0
  0
CLASS
  1
CELLSTYLEMAP
  2
AcDbCellStyleMap
  3
ObjectDBX Classes
 90
     1152
280
     0
281
     0
  0
CLASS
  1
ACDBPLACEHOLDER
  2
AcDbPlaceHolder
  3
ObjectDBX Classes
 90
        0
280
     0
281
     0
  0
CLASS
  1
LAYOUT
  2
AcDbLayout
  3
ObjectDBX Classes
 90
        0
280
     0
281
     0
  0
ENDSEC
  0
SECTION
  2
TABLES
  0
TABLE
  2
VPORT
  5
8
330
0
100
AcDbSymbolTable
 70
     1
  0
VPORT
  5
57
330
8
100
AcDbSymbolTableRecord
100
AcDbViewportTableRecord
  2
*Active
 70
     0
 10
0.0
 20
0.0
 11
1.0
 21
1.0
 12
25.5
 22
16.5
 13
0.0
 23
0.0
 14
1.0
 24
1.0
 15
0.0
 25
0.0
 16
0.0
 26
0.0
 36
1.0
 17
0.0
 27
0.0
 37
0.0
 40
33.0
 41
1.545454545454545
 42
50.0
 43
0.0
 44
0.0
 50
0.0
 51
0.0
 71
     0
 72
   100
 73
     1
 74
     1
 75
     0
 76
     0
 77
     0
 78
     0
281
     0
 65
     1
110
0.0
120
0.0
130
0.0
111
1.0
121
0.0
131
0.0
112
0.0
122
1.0
132
0.0
 79
     0
146
0.0
  0
ENDTAB
  0
TABLE
  2
LTYPE
  5
5
330
0
100
AcDbSymbolTable
 70
    67
  0
LTYPE
  5
5B
330
5
100
AcDbSymbolTableRecord
100
AcDbLinetypeTableRecord
  2
ByBlock
 70
     0
  3

 72
    65
 73
     0
 40
0.0
  0
LTYPE
  5
5C
330
5
100
AcDbSymbolTableRecord
100
AcDbLinetypeTableRecord
  2
ByLayer
 70
     0
  3

 72
    65
 73
     0
 40
0.0
  0
LTYPE
  5
5D
330
5
100
AcDbSymbolTableRecord
100
AcDbLinetypeTableRecord
  2
Continuous
 70
     0
  3
Solid line
 72
    65
 73
     0
 40
0.0
  0
LTYPE
  5
DE
330
5
100
AcDbSymbolTableRecord
100
AcDbLinetypeTableRecord
  2
BY_STANDARD
 70
     0
  3
By Standard ____________    ____    ____   _
 72
    65
 73
     6
 40
1.240299999999999
 49
0.6614
 74
     0
 49
-0.0827
 74
     0
 49
0.1654
 74
     0
 49
-0.0827
 74
     0
 49
0.1654
 74
     0
 49
-0.0827
 74
     0
  0
LTYPE
  5
DF
330
5
100
AcDbSymbolTableRecord
100
AcDbLinetypeTableRecord
  2
CHAIN
 70
     0
  3
Chain ____ _ ____ _ ____ _ ____ _ ____ _ ____
 72
    65
 73
     4
 40
0.7087
 49
0.4724000000000001
 74
     0
 49
-0.0591
 74
     0
 49
0.1181
 74
     0
 49
-0.0591
 74
     0
  0
LTYPE
  5
E0
330
5
100
AcDbSymbolTableRecord
100
AcDbLinetypeTableRecord
  2
DASH_DOT
 70
     0
  3
Dash dot __ . __ . __ . __ . __ . __ . __ . __
 72
    65
 73
     4
 40
0.37
 49
0.24
 74
     0
 49
-0.06
 74
     0
 49
0.01
 74
     0
 49
-0.06
 74
     0
  0
LTYPE
  5
E1
330
5
100
AcDbSymbolTableRecord
100
AcDbLinetypeTableRecord
  2
DOUBLE_DASH_DOT
 70
     0
  3
Double-Dash Dot __ __ . __ __ . __ __ . __ _
 72
    65
 73
     6
 40
0.4398
 49
0.24
 74
     0
 49
-0.06
 74
     0
 49
0.0098
 74
     0
 49
-0.06
 74
     0
 49
0.01
 74
     0
 49
-0.06
 74
     0
  0
LTYPE
  5
E2
330
5
100
AcDbSymbolTableRecord
100
AcDbLinetypeTableRecord
  2
DASH_TRIPLE_DOT
 70
     0
  3
Dash Triple-Dot _ . . . _ . . . _ . . . _
 72
    65
 73
     8
 40
0.51
 49
0.24
 74
     0
 49
-0.06
 74
     0
 49
0.01
 74
     0
 49
-0.06
 74
     0
 49
0.01
 74
     0
 49
-0.06
 74
     0
 49
0.01
 74
     0
 49
-0.06
 74
     0
  0
LTYPE
  5
E3
330
5
100
AcDbSymbolTableRecord
100
AcDbLinetypeTableRecord
  2
DASHED
 70
     0
  3
Dashed __ __ __ __ __ __ __ __ __ __ __ __ __ _
 72
    65
 73
     2
 40
0.2067
 49
0.1654
 74
     0
 49
-0.0413
 74
     0
  0
LTYPE
  5
E4
330
5
100
AcDbSymbolTableRecord
100
AcDbLinetypeTableRecord
  2
DASH_DOUBLE_DOT
 70
     0
  3
Dash Double-Dot __ . . __ . . __ . . __ . .
 72
    65
 73
     6
 40
0.4398
 49
0.24
 74
     0
 49
-0.06
 74
     0
 49
0.0098
 74
     0
 49
-0.06
 74
     0
 49
0.01
 74
     0
 49
-0.06
 74
     0
  0
LTYPE
  5
E5
330
5
100
AcDbSymbolTableRecord
100
AcDbLinetypeTableRecord
  2
DASHED_SPACE
 70
     0
  3
Dashed Space __ __ __ __ __ __ __ __ __ __ __ _
 72
    65
 73
     2
 40
0.2067
 49
0.1654
 74
     0
 49
-0.0413
 74
     0
  0
LTYPE
  5
E6
330
5
100
AcDbSymbolTableRecord
100
AcDbLinetypeTableRecord
  2
DOTTED
 70
     0
  3
Dotted . . . . . . . . . . . . . . . . . . . . 
 72
    65
 73
     2
 40
0.0482
 49
0.0069
 74
     0
 49
-0.0413
 74
     0
  0
LTYPE
  5
E7
330
5
100
AcDbSymbolTableRecord
100
AcDbLinetypeTableRecord
  2
DOUBLE_DASH_CHAIN
 70
     0
  3
Double-Dash Chain ______  __  __  ______  __  _
 72
    65
 73
     6
 40
1.240299999999999
 49
0.6614
 74
     0
 49
-0.0827
 74
     0
 49
0.1654
 74
     0
 49
-0.0827
 74
     0
 49
0.1654
 74
     0
 49
-0.0827
 74
     0
  0
LTYPE
  5
E9
330
5
100
AcDbSymbolTableRecord
100
AcDbLinetypeTableRecord
  2
DOUBLE_DASH_DOUBLE_DOT
 70
     0
  3
Double-Dash Double-dot _ _ . . _ _ . . _
 72
    65
 73
     8
 40
0.7400000000000001
 49
0.24
 74
     0
 49
-0.06
 74
     0
 49
0.24
 74
     0
 49
-0.06
 74
     0
 49
0.01
 74
     0
 49
-0.06
 74
     0
 49
0.01
 74
     0
 49
-0.06
 74
     0
  0
LTYPE
  5
EA
330
5
100
AcDbSymbolTableRecord
100
AcDbLinetypeTableRecord
  2
DOUBLE_DASH_TRIPLE_DOT
 70
     0
  3
Double Dash Triple Dot __ __ . . . __ __ . .
 72
    65
 73
    10
 40
0.8100000000000001
 49
0.24
 74
     0
 49
-0.06
 74
     0
 49
0.24
 74
     0
 49
-0.06
 74
     0
 49
0.01
 74
     0
 49
-0.06
 74
     0
 49
0.01
 74
     0
 49
-0.06
 74
     0
 49
0.01
 74
     0
 49
-0.06
 74
     0
  0
LTYPE
  5
EB
330
5
100
AcDbSymbolTableRecord
100
AcDbLinetypeTableRecord
  2
LONG_DASH_DOTTED
 70
     0
  3
Long Dash Dotted ____ . ____ . ____ . ____ . _
 72
    65
 73
     4
 40
0.3543
 49
0.2362
 74
     0
 49
-0.0295
 74
     0
 49
0.0591
 74
     0
 49
-0.0295
 74
     0
  0
LTYPE
  5
EC
330
5
100
AcDbSymbolTableRecord
100
AcDbLinetypeTableRecord
  2
LONG_DASH_DOUBLE_DOT
 70
     0
  3
Long Dash Double Dot ________  .  .  ________  
 72
    65
 73
     6
 40
0.6799999999999999
 49
0.48
 74
     0
 49
-0.06
 74
     0
 49
0.01
 74
     0
 49
-0.06
 74
     0
 49
0.01
 74
     0
 49
-0.06
 74
     0
  0
LTYPE
  5
ED
330
5
100
AcDbSymbolTableRecord
100
AcDbLinetypeTableRecord
  2
LONG_DASH_TRIPLE_DOT
 70
     0
  3
Long Dash Triple Dot ____ ... ____ ... ____
 72
    65
 73
     8
 40
0.3689
 49
0.2362
 74
     0
 49
-0.0295
 74
     0
 49
0.0049
 74
     0
 49
-0.0295
 74
     0
 49
0.0049
 74
     0
 49
-0.0295
 74
     0
 49
0.0049
 74
     0
 49
-0.0295
 74
     0
  0
LTYPE
  5
EE
330
5
100
AcDbSymbolTableRecord
100
AcDbLinetypeTableRecord
  2
BORDER
 70
     0
  3
Border __ __ . __ __ . __ __ . __ __ . __ __ .
 72
    65
 73
     6
 40
1.75
 49
0.5
 74
     0
 49
-0.25
 74
     0
 49
0.5
 74
     0
 49
-0.25
 74
     0
 49
0.0
 74
     0
 49
-0.25
 74
     0
  0
LTYPE
  5
EF
330
5
100
AcDbSymbolTableRecord
100
AcDbLinetypeTableRecord
  2
BORDER2
 70
     0
  3
Border (.5x) __.__.__.__.__.__.__.__.__.__.__.
 72
    65
 73
     6
 40
0.875
 49
0.25
 74
     0
 49
-0.125
 74
     0
 49
0.25
 74
     0
 49
-0.125
 74
     0
 49
0.0
 74
     0
 49
-0.125
 74
     0
  0
LTYPE
  5
F0
330
5
100
AcDbSymbolTableRecord
100
AcDbLinetypeTableRecord
  2
BORDERX2
 70
     0
  3
Border (2x) ____  ____  .  ____  ____  .  ___
 72
    65
 73
     6
 40
3.5
 49
1.0
 74
     0
 49
-0.5
 74
     0
 49
1.0
 74
     0
 49
-0.5
 74
     0
 49
0.0
 74
     0
 49
-0.5
 74
     0
  0
LTYPE
  5
F1
330
5
100
AcDbSymbolTableRecord
100
AcDbLinetypeTableRecord
  2
CENTER
 70
     0
  3
Center ____ _ ____ _ ____ _ ____ _ ____ _ ____
 72
    65
 73
     4
 40
2.0
 49
1.25
 74
     0
 49
-0.25
 74
     0
 49
0.25
 74
     0
 49
-0.25
 74
     0
  0
LTYPE
  5
F2
330
5
100
AcDbSymbolTableRecord
100
AcDbLinetypeTableRecord
  2
CENTER2
 70
     0
  3
Center (.5x) ___ _ ___ _ ___ _ ___ _ ___ _ ___
 72
    65
 73
     4
 40
1.125
 49
0.75
 74
     0
 49
-0.125
 74
     0
 49
0.125
 74
     0
 49
-0.125
 74
     0
  0
LTYPE
  5
F3
330
5
100
AcDbSymbolTableRecord
100
AcDbLinetypeTableRecord
  2
CENTERX2
 70
     0
  3
Center (2x) ________  __  ________  __  _____
 72
    65
 73
     4
 40
4.0
 49
2.5
 74
     0
 49
-0.5
 74
     0
 49
0.5
 74
     0
 49
-0.5
 74
     0
  0
LTYPE
  5
F4
330
5
100
AcDbSymbolTableRecord
100
AcDbLinetypeTableRecord
  2
DASHDOT2
 70
     0
  3
Dash dot (.5x) _._._._._._._._._._._._._._._.
 72
    65
 73
     4
 40
0.5
 49
0.25
 74
     0
 49
-0.125
 74
     0
 49
0.0
 74
     0
 49
-0.125
 74
     0
  0
LTYPE
  5
F5
330
5
100
AcDbSymbolTableRecord
100
AcDbLinetypeTableRecord
  2
DASHDOTX2
 70
     0
  3
Dash dot (2x) ____  .  ____  .  ____  .  ___
 72
    65
 73
     4
 40
2.0
 49
1.0
 74
     0
 49
-0.5
 74
     0
 49
0.0
 74
     0
 49
-0.5
 74
     0
  0
LTYPE
  5
F7
330
5
100
AcDbSymbolTableRecord
100
AcDbLinetypeTableRecord
  2
DASHED2
 70
     0
  3
Dashed (.5x) _ _ _ _ _ _ _ _ _ _ _ _ _ _ _ _ _
 72
    65
 73
     2
 40
0.375
 49
0.25
 74
     0
 49
-0.125
 74
     0
  0
LTYPE
  5
F8
330
5
100
AcDbSymbolTableRecord
100
AcDbLinetypeTableRecord
  2
DASHEDX2
 70
     0
  3
Dashed (2x) ____  ____  ____  ____  ____  ___
 72
    65
 73
     2
 40
1.5
 49
1.0
 74
     0
 49
-0.5
 74
     0
  0
LTYPE
  5
F9
330
5
100
AcDbSymbolTableRecord
100
AcDbLinetypeTableRecord
  2
DIVIDE
 70
     0
  3
Divide ____ . . ____ . . ____ . . ____ . . ____
 72
    65
 73
     6
 40
1.25
 49
0.5
 74
     0
 49
-0.25
 74
     0
 49
0.0
 74
     0
 49
-0.25
 74
     0
 49
0.0
 74
     0
 49
-0.25
 74
     0
  0
LTYPE
  5
FA
330
5
100
AcDbSymbolTableRecord
100
AcDbLinetypeTableRecord
  2
DIVIDE2
 70
     0
  3
Divide (.5x) __..__..__..__..__..__..__..__.._
 72
    65
 73
     6
 40
0.625
 49
0.25
 74
     0
 49
-0.125
 74
     0
 49
0.0
 74
     0
 49
-0.125
 74
     0
 49
0.0
 74
     0
 49
-0.125
 74
     0
  0
LTYPE
  5
FB
330
5
100
AcDbSymbolTableRecord
100
AcDbLinetypeTableRecord
  2
DIVIDEX2
 70
     0
  3
Divide (2x) ________  .  .  ________  .  .  _
 72
    65
 73
     6
 40
2.5
 49
1.0
 74
     0
 49
-0.5
 74
     0
 49
0.0
 74
     0
 49
-0.5
 74
     0
 49
0.0
 74
     0
 49
-0.5
 74
     0
  0
LTYPE
  5
FC
330
5
100
AcDbSymbolTableRecord
100
AcDbLinetypeTableRecord
  2
DOT
 70
     0
  3
Dot . . . . . . . . . . . . . . . . . . . . . .
 72
    65
 73
     2
 40
0.25
 49
0.0
 74
     0
 49
-0.25
 74
     0
  0
LTYPE
  5
FD
330
5
100
AcDbSymbolTableRecord
100
AcDbLinetypeTableRecord
  2
DOT2
 70
     0
  3
Dot (.5x) .....................................
 72
    65
 73
     2
 40
0.125
 49
0.0
 74
     0
 49
-0.125
 74
     0
  0
LTYPE
  5
FE
330
5
100
AcDbSymbolTableRecord
100
AcDbLinetypeTableRecord
  2
DOTX2
 70
     0
  3
Dot (2x) .  .  .  .  .  .  .  .  .  .  .  .  . 
 72
    65
 73
     2
 40
0.5
 49
0.0
 74
     0
 49
-0.5
 74
     0
  0
LTYPE
  5
FF
330
5
100
AcDbSymbolTableRecord
100
AcDbLinetypeTableRecord
  2
HIDDEN
 70
     0
  3
Hidden __ __ __ __ __ __ __ __ __ __ __ __ __ _
 72
    65
 73
     2
 40
0.375
 49
0.25
 74
     0
 49
-0.125
 74
     0
  0
LTYPE
  5
100
330
5
100
AcDbSymbolTableRecord
100
AcDbLinetypeTableRecord
  2
HIDDEN2
 70
     0
  3
Hidden (.5x) _ _ _ _ _ _ _ _ _ _ _ _ _ _ _ _ _
 72
    65
 73
     2
 40
0.1875
 49
0.125
 74
     0
 49
-0.0625
 74
     0
  0
LTYPE
  5
101
330
5
100
AcDbSymbolTableRecord
100
AcDbLinetypeTableRecord
  2
HIDDENX2
 70
     0
  3
Hidden (2x) ____ ____ ____ ____ ____ ____ ____
 72
    65
 73
     2
 40
0.75
 49
0.5
 74
     0
 49
-0.25
 74
     0
  0
LTYPE
  5
102
330
5
100
AcDbSymbolTableRecord
100
AcDbLinetypeTableRecord
  2
PHANTOM
 70
     0
  3
Phantom ______  __  __  ______  __  __  ______
 72
    65
 73
     6
 40
2.5
 49
1.25
 74
     0
 49
-0.25
 74
     0
 49
0.25
 74
     0
 49
-0.25
 74
     0
 49
0.25
 74
     0
 49
-0.25
 74
     0
  0
LTYPE
  5
103
330
5
100
AcDbSymbolTableRecord
100
AcDbLinetypeTableRecord
  2
PHANTOM2
 70
     0
  3
Phantom (.5x) ___ _ _ ___ _ _ ___ _ _ ___ _ _
 72
    65
 73
     6
 40
1.25
 49
0.625
 74
     0
 49
-0.125
 74
     0
 49
0.125
 74
     0
 49
-0.125
 74
     0
 49
0.125
 74
     0
 49
-0.125
 74
     0
  0
LTYPE
  5
104
330
5
100
AcDbSymbolTableRecord
100
AcDbLinetypeTableRecord
  2
PHANTOMX2
 70
     0
  3
Phantom (2x) ____________    ____    ____   _
 72
    65
 73
     6
 40
5.0
 49
2.5
 74
     0
 49
-0.5
 74
     0
 49
0.5
 74
     0
 49
-0.5
 74
     0
 49
0.5
 74
     0
 49
-0.5
 74
     0
  0
LTYPE
  5
105
330
5
100
AcDbSymbolTableRecord
100
AcDbLinetypeTableRecord
  2
ACAD_ISO02W100
 70
     0
  3
ISO dash __ __ __ __ __ __ __ __ __ __ __ __ __
 72
    65
 73
     2
 40
0.59
 49
0.47
 74
     0
 49
-0.12
 74
     0
  0
LTYPE
  5
106
330
5
100
AcDbSymbolTableRecord
100
AcDbLinetypeTableRecord
  2
ACAD_ISO03W100
 70
     0
  3
ISO dash space __    __    __    __    __    __
 72
    65
 73
     2
 40
1.179999999999999
 49
0.47
 74
     0
 49
-0.71
 74
     0
  0
LTYPE
  5
107
330
5
100
AcDbSymbolTableRecord
100
AcDbLinetypeTableRecord
  2
ACAD_ISO04W100
 70
     0
  3
ISO long-dash dot ____ . ____ . ____ . ____ . _
 72
    65
 73
     4
 40
1.179999999999999
 49
0.9399999999999998
 74
     0
 49
-0.12
 74
     0
 49
0.0
 74
     0
 49
-0.12
 74
     0
  0
LTYPE
  5
108
330
5
100
AcDbSymbolTableRecord
100
AcDbLinetypeTableRecord
  2
ACAD_ISO05W100
 70
     0
  3
ISO long-dash double-dot ____ .. ____ .. ____ .
 72
    65
 73
     6
 40
1.299999999999999
 49
0.9399999999999998
 74
     0
 49
-0.12
 74
     0
 49
0.0
 74
     0
 49
-0.12
 74
     0
 49
0.0
 74
     0
 49
-0.12
 74
     0
  0
LTYPE
  5
109
330
5
100
AcDbSymbolTableRecord
100
AcDbLinetypeTableRecord
  2
ACAD_ISO06W100
 70
     0
  3
ISO long-dash triple-dot ____ ... ____ ... ____
 72
    65
 73
     8
 40
1.419999999999999
 49
0.9399999999999998
 74
     0
 49
-0.12
 74
     0
 49
0.0
 74
     0
 49
-0.12
 74
     0
 49
0.0
 74
     0
 49
-0.12
 74
     0
 49
0.0
 74
     0
 49
-0.12
 74
     0
  0
LTYPE
  5
10A
330
5
100
AcDbSymbolTableRecord
100
AcDbLinetypeTableRecord
  2
ACAD_ISO07W100
 70
     0
  3
ISO dot . . . . . . . . . . . . . . . . . . . .
 72
    65
 73
     2
 40
0.12
 49
0.0
 74
     0
 49
-0.12
 74
     0
  0
LTYPE
  5
10B
330
5
100
AcDbSymbolTableRecord
100
AcDbLinetypeTableRecord
  2
ACAD_ISO08W100
 70
     0
  3
ISO long-dash short-dash ____ __ ____ __ ____ _
 72
    65
 73
     4
 40
0.95
 49
0.47
 74
     0
 49
-0.12
 74
     0
 49
0.24
 74
     0
 49
-0.12
 74
     0
  0
LTYPE
  5
10C
330
5
100
AcDbSymbolTableRecord
100
AcDbLinetypeTableRecord
  2
ACAD_ISO09W100
 70
     0
  3
ISO long-dash double-short-dash ____ __ __ ____
 72
    65
 73
     6
 40
1.31
 49
0.47
 74
     0
 49
-0.12
 74
     0
 49
0.24
 74
     0
 49
-0.12
 74
     0
 49
0.24
 74
     0
 49
-0.12
 74
     0
  0
LTYPE
  5
10D
330
5
100
AcDbSymbolTableRecord
100
AcDbLinetypeTableRecord
  2
ACAD_ISO10W100
 70
     0
  3
ISO dash dot __ . __ . __ . __ . __ . __ . __ .
 72
    65
 73
     4
 40
0.71
 49
0.47
 74
     0
 49
-0.12
 74
     0
 49
0.0
 74
     0
 49
-0.12
 74
     0
  0
LTYPE
  5
10E
330
5
100
AcDbSymbolTableRecord
100
AcDbLinetypeTableRecord
  2
ACAD_ISO11W100
 70
     0
  3
ISO double-dash dot __ __ . __ __ . __ __ . __ 
 72
    65
 73
     6
 40
1.299999999999999
 49
0.47
 74
     0
 49
-0.12
 74
     0
 49
0.47
 74
     0
 49
-0.12
 74
     0
 49
0.0
 74
     0
 49
-0.12
 74
     0
  0
LTYPE
  5
10F
330
5
100
AcDbSymbolTableRecord
100
AcDbLinetypeTableRecord
  2
ACAD_ISO12W100
 70
     0
  3
ISO dash double-dot __ . . __ . . __ . . __ . .
 72
    65
 73
     6
 40
0.8299999999999998
 49
0.47
 74
     0
 49
-0.12
 74
     0
 49
0.0
 74
     0
 49
-0.12
 74
     0
 49
0.0
 74
     0
 49
-0.12
 74
     0
  0
LTYPE
  5
110
330
5
100
AcDbSymbolTableRecord
100
AcDbLinetypeTableRecord
  2
ACAD_ISO13W100
 70
     0
  3
ISO double-dash double-dot __ __ . . __ __ . . 
 72
    65
 73
     8
 40
1.419999999999999
 49
0.47
 74
     0
 49
-0.12
 74
     0
 49
0.47
 74
     0
 49
-0.12
 74
     0
 49
0.0
 74
     0
 49
-0.12
 74
     0
 49
0.0
 74
     0
 49
-0.12
 74
     0
  0
LTYPE
  5
111
330
5
100
AcDbSymbolTableRecord
100
AcDbLinetypeTableRecord
  2
ACAD_ISO14W100
 70
     0
  3
ISO dash triple-dot __ . . . __ . . . __ . . . 
 72
    65
 73
     8
 40
0.95
 49
0.47
 74
     0
 49
-0.12
 74
     0
 49
0.0
 74
     0
 49
-0.12
 74
     0
 49
0.0
 74
     0
 49
-0.12
 74
     0
 49
0.0
 74
     0
 49
-0.12
 74
     0
  0
LTYPE
  5
112
330
5
100
AcDbSymbolTableRecord
100
AcDbLinetypeTableRecord
  2
ACAD_ISO15W100
 70
     0
  3
ISO double-dash triple-dot __ __ . . . __ __ . 
 72
    65
 73
    10
 40
1.539999999999999
 49
0.47
 74
     0
 49
-0.12
 74
     0
 49
0.47
 74
     0
 49
-0.12
 74
     0
 49
0.0
 74
     0
 49
-0.12
 74
     0
 49
0.0
 74
     0
 49
-0.12
 74
     0
 49
0.0
 74
     0
 49
-0.12
 74
     0
  0
LTYPE
  5
115
330
5
100
AcDbSymbolTableRecord
100
AcDbLinetypeTableRecord
  2
FENCELINE1
 70
     0
  3
Fenceline circle ----0-----0----0-----0----0---
 72
    65
 73
     4
 40
1.45
 49
0.25
 74
     0
 49
-0.1
 74
     4
 75
   133
340
114
 46
0.1
 50
0.0
 44
-0.1
 45
0.0
 49
-0.1
 74
     0
 49
1.0
 74
     0
  0
LTYPE
  5
116
330
5
100
AcDbSymbolTableRecord
100
AcDbLinetypeTableRecord
  2
FENCELINE2
 70
     0
  3
Fenceline square ----[]-----[]----[]-----[]----
 72
    65
 73
     4
 40
1.45
 49
0.25
 74
     0
 49
-0.1
 74
     4
 75
   132
340
114
 46
0.1
 50
0.0
 44
-0.1
 45
0.0
 49
-0.1
 74
     0
 49
1.0
 74
     0
  0
LTYPE
  5
117
330
5
100
AcDbSymbolTableRecord
100
AcDbLinetypeTableRecord
  2
TRACKS
 70
     0
  3
Tracks -|-|-|-|-|-|-|-|-|-|-|-|-|-|-|-|-|-|-|-|
 72
    65
 73
     2
 40
0.3
 49
0.15
 74
     4
 75
   130
340
114
 46
0.25
 50
0.0
 44
0.0
 45
0.0
 49
0.15
 74
     0
  0
LTYPE
  5
118
330
5
100
AcDbSymbolTableRecord
100
AcDbLinetypeTableRecord
  2
BATTING
 70
     0
  3
Batting SSSSSSSSSSSSSSSSSSSSSSSSSSSSSSSSSSSSSSS
 72
    65
 73
     4
 40
0.4001000000000001
 49
0.0001
 74
     0
 49
-0.1
 74
     4
 75
   134
340
114
 46
0.1
 50
0.0
 44
-0.1
 45
0.0
 49
-0.2
 74
     4
 75
   134
340
114
 46
0.1
 50
180.0
 44
0.1
 45
0.0
 49
-0.1
 74
     0
  0
LTYPE
  5
119
330
5
100
AcDbSymbolTableRecord
100
AcDbLinetypeTableRecord
  2
HOT_WATER_SUPPLY
 70
     0
  3
Hot water supply ---- HW ---- HW ---- HW ----
 72
    65
 73
     3
 40
0.9
 49
0.5
 74
     0
 49
-0.2
 74
     2
 75
     0
340
55
 46
0.1
 50
0.0
 44
-0.1
 45
-0.05
  9
HW
 49
-0.2
 74
     0
  0
LTYPE
  5
11A
330
5
100
AcDbSymbolTableRecord
100
AcDbLinetypeTableRecord
  2
GAS_LINE
 70
     0
  3
Gas line ----GAS----GAS----GAS----GAS----GAS---
 72
    65
 73
     3
 40
0.95
 49
0.5
 74
     0
 49
-0.2
 74
     2
 75
     0
340
55
 46
0.1
 50
0.0
 44
-0.1
 45
-0.05
  9
GAS
 49
-0.25
 74
     0
  0
LTYPE
  5
11B
330
5
100
AcDbSymbolTableRecord
100
AcDbLinetypeTableRecord
  2
ZIGZAG
 70
     0
  3
Zig zag /\/\/\/\/\/\/\/\/\/\/\/\/\/\/\/\/\/\/\/
 72
    65
 73
     4
 40
0.8001000000000001
 49
0.0001
 74
     0
 49
-0.2
 74
     4
 75
   131
340
114
 46
0.2
 50
0.0
 44
-0.2
 45
0.0
 49
-0.4
 74
     4
 75
   131
340
114
 46
0.2
 50
180.0
 44
0.2
 45
0.0
 49
-0.2
 74
     0
  0
LTYPE
  5
135
330
5
100
AcDbSymbolTableRecord
100
AcDbLinetypeTableRecord
  2
AM_ISO02W050
 70
     0
  3
_ 
 72
    65
 73
     2
 40
197.3684310913086
 49
157.8947448730469
 74
     0
 49
-39.47368621826172
 74
     0
  0
LTYPE
  5
136
330
5
100
AcDbSymbolTableRecord
100
AcDbLinetypeTableRecord
  2
AM_ISO08W050
 70
     0
  3
_ _ 
 72
    65
 73
     4
 40
473.6842346191406
 49
315.7894897460938
 74
     0
 49
-39.47368621826172
 74
     0
 49
78.94737243652343
 74
     0
 49
-39.47368621826172
 74
     0
  0
LTYPE
  5
137
330
5
100
AcDbSymbolTableRecord
100
AcDbLinetypeTableRecord
  2
AM_ISO09W050
 70
     0
  3
_ _ _ 
 72
    65
 73
     6
 40
592.1052932739257
 49
315.7894897460938
 74
     0
 49
-39.47368621826172
 74
     0
 49
78.94737243652343
 74
     0
 49
-39.47368621826172
 74
     0
 49
78.94737243652343
 74
     0
 49
-39.47368621826172
 74
     0
  0
LTYPE
  5
138
330
5
100
AcDbSymbolTableRecord
100
AcDbLinetypeTableRecord
  2
Amconstr
 70
     0
  3
_.
 72
    65
 73
     2
 40
263131.59375
 49
263131.59375
 74
     0
 49
0.0
 74
     0
  0
LTYPE
  5
139
330
5
100
AcDbSymbolTableRecord
100
AcDbLinetypeTableRecord
  2
AM_ISO08W050x2
 70
     0
  3
_ _ 
 72
    65
 73
     4
 40
236.8421173095703
 49
157.8947448730469
 74
     0
 49
-19.73684310913086
 74
     0
 49
39.47368621826172
 74
     0
 49
-19.73684310913086
 74
     0
  0
LTYPE
  5
13A
330
5
100
AcDbSymbolTableRecord
100
AcDbLinetypeTableRecord
  2
AM_ISO02W050x2
 70
     0
  3
_ 
 72
    65
 73
     2
 40
98.68421554565429
 49
78.94737243652343
 74
     0
 49
-19.73684310913086
 74
     0
  0
LTYPE
  5
13B
330
5
100
AcDbSymbolTableRecord
100
AcDbLinetypeTableRecord
  2
ACANSTGB
 70
     0
  3
_ _ _ 
 72
    65
 73
     6
 40
9.324492573738098
 49
4.144218921661376
 74
     0
 49
-1.036054730415344
 74
     0
 49
1.036054730415344
 74
     0
 49
-1.036054730415344
 74
     0
 49
1.036054730415344
 74
     0
 49
-1.036054730415344
 74
     0
  0
LTYPE
  5
13C
330
5
100
AcDbSymbolTableRecord
100
AcDbLinetypeTableRecord
  2
ACANSTGL
 70
     0
  3
_ 
 72
    65
 73
     2
 40
3.108164191246032
 49
2.072109460830688
 74
     0
 49
-1.036054730415344
 74
     0
  0
ENDTAB
  0
TABLE
  2
LAYER
  5
2
330
0
100
AcDbSymbolTable
 70
    27
  0
LAYER
  5
54
330
2
100
AcDbSymbolTableRecord
100
AcDbLayerTableRecord
  2
0
 70
     0
 62
     7
  6
Continuous
370
    18
390
F
  0
LAYER
  5
75
330
2
100
AcDbSymbolTableRecord
100
AcDbLayerTableRecord
  2
Symbol (ANSI)
 70
     0
 62
     7
  6
Continuous
370
    18
390
F
  0
LAYER
  5
125
330
2
100
AcDbSymbolTableRecord
100
AcDbLayerTableRecord
  2
Dimension (ANSI)
 70
     0
 62
     7
  6
Continuous
370
    13
390
F
  0
LAYER
  5
127
330
2
100
AcDbSymbolTableRecord
100
AcDbLayerTableRecord
  2
Hidden (ANSI)
 70
     0
 62
     7
  6
DASHED
370
    15
390
F
  0
LAYER
  5
130
330
2
100
AcDbSymbolTableRecord
100
AcDbLayerTableRecord
  2
Visible (ANSI)
 70
     0
 62
     7
  6
Continuous
370
    13
390
F
  0
LAYER
  5
1C8
330
2
100
AcDbSymbolTableRecord
100
AcDbLayerTableRecord
  2
Defpoints
 70
     0
 62
     7
  6
Continuous
290
     0
370
    -3
390
F
  0
ENDTAB
  0
TABLE
  2
STYLE
  5
3
330
0
100
AcDbSymbolTable
 70
    18
  0
STYLE
  5
55
330
3
100
AcDbSymbolTableRecord
100
AcDbTextStyleTableRecord
  2
Standard
 70
     0
 40
0.0
 41
1.0
 50
0.0
 71
     0
 42
0.2
  3
txt
  4

  0
STYLE
  5
5A
330
3
100
AcDbSymbolTableRecord
100
AcDbTextStyleTableRecord
  2
Annotative
 70
     0
 40
0.0
 41
1.0
 50
0.0
 71
     0
 42
0.2
  3
txt
  4

1001
AcadAnnotative
1000
AnnotativeData
1002
{
1070
     1
1070
     1
1002
}
  0
STYLE
  5
76
330
3
100
AcDbSymbolTableRecord
100
AcDbTextStyleTableRecord
  2
Note Text (ANSI)
 70
     0
 40
0.0
 41
1.0
 50
0.0
 71
     0
 42
0.2
  3
TAHOMA.TTF
  4

1001
ACAD
1000
Tahoma
1071
      256
  0
STYLE
  5
78
330
3
100
AcDbSymbolTableRecord
100
AcDbTextStyleTableRecord
  2
SANSSERIF
 70
     0
 40
0.0
 41
1.0
 50
0.0
 71
     0
 42
0.125
  3
sas_____.pfb
  4

  0
STYLE
  5
114
330
3
100
AcDbSymbolTableRecord
100
AcDbTextStyleTableRecord
  2

 70
     1
 40
0.0
 41
1.0
 50
0.0
 71
     0
 42
0.2
  3
ltypeshp.shx
  4

  0
STYLE
  5
13D
330
3
100
AcDbSymbolTableRecord
100
AcDbTextStyleTableRecord
  2
ITALICC_120
 70
     0
 40
0.0
 41
1.0
 50
0.0
 71
     0
 42
0.2
  3
italicc.shx
  4

  0
STYLE
  5
13E
330
3
100
AcDbSymbolTableRecord
100
AcDbTextStyleTableRecord
  2
Label Text (ANSI)
 70
     0
 40
0.0
 41
1.0
 50
0.0
 71
     0
 42
0.2
  3
TAHOMA.TTF
  4

1001
ACAD
1000
Tahoma
1071
      256
  0
STYLE
  5
13F
330
3
100
AcDbSymbolTableRecord
100
AcDbTextStyleTableRecord
  2
ROMANS
 70
     0
 40
0.0
 41
1.0
 50
0.0
 71
     0
 42
0.2
  3
romans.shx
  4

  0
STYLE
  5
140
330
3
100
AcDbSymbolTableRecord
100
AcDbTextStyleTableRecord
  2
SANSSERIF_114
 70
     0
 40
0.0
 41
1.0
 50
0.0
 71
     0
 42
0.2
  3
TAHOMA.TTF
  4

1001
ACAD
1000
Tahoma
1071
      256
  0
STYLE
  5
141
330
3
100
AcDbSymbolTableRecord
100
AcDbTextStyleTableRecord
  2
SANSSERIF_117
 70
     0
 40
0.0
 41
1.0
 50
0.0
 71
     0
 42
0.2
  3
TAHOMA.TTF
  4

1001
ACAD
1000
Tahoma
1071
      256
  0
STYLE
  5
142
330
3
100
AcDbSymbolTableRecord
100
AcDbTextStyleTableRecord
  2
STANDARDAM_ANSI
 70
     0
 40
0.0
 41
1.0
 50
0.0
 71
     0
 42
0.2
  3
txt.shx
  4

  0
STYLE
  5
143
330
3
100
AcDbSymbolTableRecord
100
AcDbTextStyleTableRecord
  2
StandardAM_ANSI$0
 70
     0
 40
0.0
 41
1.0
 50
0.0
 71
     0
 42
0.2
  3
txt.shx
  4

  0
STYLE
  5
144
330
3
100
AcDbSymbolTableRecord
100
AcDbTextStyleTableRecord
  2
STANDARDAM_ANSI$3
 70
     0
 40
0.0
 41
1.0
 50
0.0
 71
     0
 42
0.2
  3
txt.shx
  4

  0
STYLE
  5
145
330
3
100
AcDbSymbolTableRecord
100
AcDbTextStyleTableRecord
  2
STANDARDAM_ANSI$4
 70
     0
 40
0.0
 41
1.0
 50
0.0
 71
     0
 42
0.2
  3
txt.shx
  4

  0
STYLE
  5
146
330
3
100
AcDbSymbolTableRecord
100
AcDbTextStyleTableRecord
  2
STANDARDAM_ANSI$7
 70
     0
 40
0.0
 41
1.0
 50
0.0
 71
     0
 42
0.2
  3
txt.shx
  4

  0
STYLE
  5
147
330
3
100
AcDbSymbolTableRecord
100
AcDbTextStyleTableRecord
  2
STANDARDAM_ANSI$SF
 70
     0
 40
0.0
 41
1.0
 50
0.0
 71
     0
 42
0.2
  3
txt.shx
  4

  0
STYLE
  5
148
330
3
100
AcDbSymbolTableRecord
100
AcDbTextStyleTableRecord
  2
STANDARDAM_ANSI$SH
 70
     0
 40
0.0
 41
1.0
 50
0.0
 71
     0
 42
0.2
  3
txt.shx
  4

  0
STYLE
  5
149
330
3
100
AcDbSymbolTableRecord
100
AcDbTextStyleTableRecord
  2
STANDARDSTANDARD
 70
     0
 40
0.0
 41
1.0
 50
0.0
 71
     0
 42
0.2
  3
txt.shx
  4

  0
ENDTAB
  0
TABLE
  2
VIEW
  5
6
330
0
100
AcDbSymbolTable
 70
     0
  0
ENDTAB
  0
TABLE
  2
UCS
  5
7
330
0
100
AcDbSymbolTable
 70
     0
  0
ENDTAB
  0
TABLE
  2
APPID
  5
9
330
0
100
AcDbSymbolTable
 70
     4
  0
APPID
  5
56
330
9
100
AcDbSymbolTableRecord
100
AcDbRegAppTableRecord
  2
ACAD
 70
     0
  0
APPID
  5
5E
330
9
100
AcDbSymbolTableRecord
100
AcDbRegAppTableRecord
  2
AcadAnnotative
 70
     0
  0
APPID
  5
9EB
330
9
100
AcDbSymbolTableRecord
100
AcDbRegAppTableRecord
  2
ACAD_DSTYLE_DIMRADIAL_EXTENSION
 70
     0
  0
APPID
  5
BF4
330
9
100
AcDbSymbolTableRecord
100
AcDbRegAppTableRecord
  2
ACAD_MLEADERVER
 70
     0
  0
ENDTAB
  0
TABLE
  2
DIMSTYLE
  5
A
330
0
100
AcDbSymbolTable
 70
    27
100
AcDbDimStyleTable
 71
     2
340
15E
340
58
  0
DIMSTYLE
105
58
330
A
100
AcDbSymbolTableRecord
100
AcDbDimStyleTableRecord
  2
STANDARD
 70
     0
 41
0.1800000071525573
 42
0.0625
140
0.1800000071525574
144
1.0
147
0.0900000035762787
176
   256
177
   256
178
   256
274
     3
340
55
371
    -1
372
    -1
  0
DIMSTYLE
105
59
330
A
100
AcDbSymbolTableRecord
100
AcDbDimStyleTableRecord
  2
Annotative
 70
     0
340
55
1001
AcadAnnotative
1000
AnnotativeData
1002
{
1070
     1
1070
     1
1002
}
  0
DIMSTYLE
105
14A
330
A
100
AcDbSymbolTableRecord
100
AcDbDimStyleTableRecord
  2
AM_ANSI
 70
     0
  4
 mm
 40
3.0
 41
0.119999997317791
 42
0.05
 43
0.5
 44
0.1
 45
0.00000001
 78
     4
 79
     2
140
0.1200000047683716
146
0.7099999453624112
147
0.0599999986588955
176
   256
177
   256
178
     2
284
     4
340
142
371
    -1
372
    -1
  0
DIMSTYLE
105
14B
330
A
100
AcDbSymbolTableRecord
100
AcDbDimStyleTableRecord
  2
AM_ANSI$7
 70
     0
  4
 mm
 40
3.0
 41
0.119999997317791
 42
0.05
 43
0.5
 44
0.1
 45
0.00000001
 78
     4
 79
     2
140
0.1200000047683716
146
0.7099999453624112
147
0.0599999986588955
176
   256
177
   256
178
     2
284
     4
340
142
371
    -1
372
    -1
  0
DIMSTYLE
105
14C
330
A
100
AcDbSymbolTableRecord
100
AcDbDimStyleTableRecord
  2
AM_ANSI$0
 70
     0
  4
 mm
 40
3.0
 41
0.119999997317791
 42
0.05
 43
0.5
 44
0.1
 45
0.00000001
 78
     4
 79
     2
140
0.1200000047683716
146
0.7099999453624112
147
0.0599999986588955
176
   256
177
   256
178
     2
284
     4
340
143
371
    -1
372
    -1
  0
DIMSTYLE
105
14D
330
A
100
AcDbSymbolTableRecord
100
AcDbDimStyleTableRecord
  2
AM_ANSI$0$7
 70
     0
  4
 mm
 40
3.0
 41
0.119999997317791
 42
0.05
 43
0.5
 44
0.1
 45
0.00000001
 78
     4
 79
     2
140
0.1200000047683716
146
0.7099999453624112
147
0.0599999986588955
176
   256
177
   256
178
     2
284
     4
340
143
371
    -1
372
    -1
  0
DIMSTYLE
105
14E
330
A
100
AcDbSymbolTableRecord
100
AcDbDimStyleTableRecord
  2
AM_ANSI$3
 70
     0
  4
 mm
 40
3.0
 41
0.119999997317791
 42
0.05
 43
0.5
 44
0.1
 45
0.00000001
 78
     4
 79
     2
140
0.1200000047683716
146
0.7099999453624112
147
0.0599999986588955
176
   256
177
   256
178
     2
284
     4
340
144
371
    -1
372
    -1
  0
DIMSTYLE
105
14F
330
A
100
AcDbSymbolTableRecord
100
AcDbDimStyleTableRecord
  2
AM_ANSI$3$7
 70
     0
  4
 mm
 40
3.0
 41
0.119999997317791
 42
0.05
 43
0.5
 44
0.1
 45
0.00000001
 78
     4
 79
     2
140
0.1200000047683716
146
0.7099999453624112
147
0.0599999986588955
176
   256
177
   256
178
     2
284
     4
340
144
371
    -1
372
    -1
  0
DIMSTYLE
105
150
330
A
100
AcDbSymbolTableRecord
100
AcDbDimStyleTableRecord
  2
AM_ANSI$4
 70
     0
  4
 mm
 40
3.0
 41
0.119999997317791
 42
0.05
 43
0.5
 44
0.1
 45
0.00000001
 78
     4
 79
     2
140
0.1200000047683716
146
0.7099999453624112
147
0.0599999986588955
176
   256
177
   256
178
     2
284
     4
340
145
371
    -1
372
    -1
  0
DIMSTYLE
105
151
330
A
100
AcDbSymbolTableRecord
100
AcDbDimStyleTableRecord
  2
AM_ANSI$4$7
 70
     0
  4
 mm
 40
3.0
 41
0.119999997317791
 42
0.05
 43
0.5
 44
0.1
 45
0.00000001
 78
     4
 79
     2
140
0.1200000047683716
146
0.7099999453624112
147
0.0599999986588955
176
   256
177
   256
178
     2
284
     4
340
145
371
    -1
372
    -1
  0
DIMSTYLE
105
152
330
A
100
AcDbSymbolTableRecord
100
AcDbDimStyleTableRecord
  2
AM_ANSI$SF
 70
     0
  4
 mm
 40
3.0
 41
0.119999997317791
 42
0.05
 43
0.5
 44
0.1
 45
0.00000001
 75
     1
 76
     1
 78
     4
 79
     2
140
0.1200000047683716
146
0.7099999453624112
147
0.0599999986588955
176
   256
177
   256
178
     2
284
     4
340
147
371
    -1
372
    -1
  0
DIMSTYLE
105
153
330
A
100
AcDbSymbolTableRecord
100
AcDbDimStyleTableRecord
  2
AM_ANSI$SF$7
 70
     0
  4
 mm
 40
3.0
 41
0.119999997317791
 42
0.05
 43
0.5
 44
0.1
 45
0.00000001
 75
     1
 76
     1
 78
     4
 79
     2
140
0.1200000047683716
146
0.7099999453624112
147
0.0599999986588955
176
   256
177
   256
178
     2
284
     4
340
147
371
    -1
372
    -1
  0
DIMSTYLE
105
154
330
A
100
AcDbSymbolTableRecord
100
AcDbDimStyleTableRecord
  2
AM_ANSI$SH
 70
     0
  4
 mm
 40
3.0
 41
0.119999997317791
 42
0.05
 43
0.5
 44
0.1
 45
0.00000001
 75
     1
 76
     1
 78
     4
 79
     2
140
0.1200000047683716
146
0.7099999453624112
147
0.0599999986588955
176
   256
177
   256
178
     2
284
     4
340
148
371
    -1
372
    -1
  0
DIMSTYLE
105
155
330
A
100
AcDbSymbolTableRecord
100
AcDbDimStyleTableRecord
  2
AM_ANSI$SH$7
 70
     0
  4
 mm
 40
3.0
 41
0.119999997317791
 42
0.05
 43
0.5
 44
0.1
 45
0.00000001
 75
     1
 76
     1
 78
     4
 79
     2
140
0.1200000047683716
146
0.7099999453624112
147
0.0599999986588955
176
   256
177
   256
178
     2
284
     4
340
148
371
    -1
372
    -1
  0
DIMSTYLE
105
156
330
A
100
AcDbSymbolTableRecord
100
AcDbDimStyleTableRecord
  2
Architectural (ANSI)
 70
     0
 40
3.0
 41
0.0984251946210861
 43
0.2362204724409449
 44
0.125
 45
0.00000001
 46
0.3937007874015748
 78
     3
 79
     3
140
0.1200000047683716
147
0.031496062992126
171
     1
176
   256
177
   256
178
   256
272
     2
274
     1
276
     2
277
     4
284
    12
285
     4
286
    12
340
76
371
    -1
372
    -1
  0
DIMSTYLE
105
157
330
A
100
AcDbSymbolTableRecord
100
AcDbDimStyleTableRecord
  2
Architectural (ANSI)$7
 70
     0
 40
3.0
 41
0.0984251946210861
 43
0.2362204724409449
 44
0.125
 45
0.00000001
 46
0.3937007874015748
 78
     3
 79
     3
140
0.1200000047683716
147
0.031496062992126
171
     1
176
   256
177
   256
178
   256
272
     2
274
     1
276
     2
277
     4
284
    12
285
     4
286
    12
340
76
371
    -1
372
    -1
  0
DIMSTYLE
105
158
330
A
100
AcDbSymbolTableRecord
100
AcDbDimStyleTableRecord
  2
Default - Fraction (ANSI)
 70
     0
 40
3.0
 41
0.0984251946210861
 43
0.2362204724409449
 44
0.125
 45
0.00000001
 46
0.3937007874015748
 79
     3
140
0.1200000047683716
147
0.031496062992126
171
     1
176
   256
177
   256
178
   256
272
     2
274
     1
276
     2
277
     5
284
    12
285
     4
286
    12
340
76
371
    -1
372
    -1
  0
DIMSTYLE
105
159
330
A
100
AcDbSymbolTableRecord
100
AcDbDimStyleTableRecord
  2
Default - Fraction (ANSI)$7
 70
     0
 40
3.0
 41
0.0984251946210861
 43
0.2362204724409449
 44
0.125
 45
0.00000001
 46
0.3937007874015748
 79
     3
140
0.1200000047683716
147
0.031496062992126
171
     1
176
   256
177
   256
178
   256
272
     2
274
     1
276
     2
277
     5
284
    12
285
     4
286
    12
340
76
371
    -1
372
    -1
  0
DIMSTYLE
105
15A
330
A
100
AcDbSymbolTableRecord
100
AcDbDimStyleTableRecord
  2
Default - mm (ANSI)
 70
     0
 40
3.0
 41
0.0984251946210861
 42
0.063
 43
0.2362204724409449
 44
0.125
 45
0.00000001
 46
0.3937007874015748
 73
     0
 78
     4
 79
     1
140
0.1200000047683716
143
1.0
144
25.4
147
0.031496062992126
171
     1
176
   256
177
   256
178
   256
179
     1
271
     2
272
     2
274
     1
284
     4
285
     4
340
76
371
    -1
372
    -1
  0
DIMSTYLE
105
15B
330
A
100
AcDbSymbolTableRecord
100
AcDbDimStyleTableRecord
  2
Default - mm (ANSI)$7
 70
     0
 40
3.0
 41
0.0984251946210861
 42
0.063
 43
0.2362204724409449
 44
0.125
 45
0.00000001
 46
0.3937007874015748
 73
     0
 78
     4
 79
     1
140
0.1200000047683716
143
1.0
144
25.4
147
0.031496062992126
171
     1
176
   256
177
   256
178
   256
179
     1
271
     2
272
     2
274
     1
284
     4
285
     4
340
76
371
    -1
372
    -1
  0
DIMSTYLE
105
15C
330
A
100
AcDbSymbolTableRecord
100
AcDbDimStyleTableRecord
  2
Default - mm [in] (ANSI)
 70
     0
  4
 in
 40
3.0
 41
0.0984251946210861
 42
0.063
 43
0.25
 44
0.125
 45
0.00000001
 46
0.3937007874015748
 73
     0
 78
     4
 79
     1
140
0.1200000047683716
143
0.03937
144
25.4
147
0.031496062992126
170
     1
171
     3
176
   256
177
   256
178
   256
179
     1
271
     2
272
     2
274
     3
284
     4
285
     4
286
     4
340
76
371
    -1
372
    -1
  0
DIMSTYLE
105
15D
330
A
100
AcDbSymbolTableRecord
100
AcDbDimStyleTableRecord
  2
Default - mm [in] (ANSI)$7
 70
     0
  4
 in
 40
3.0
 41
0.0984251946210861
 42
0.063
 43
0.25
 44
0.125
 45
0.00000001
 46
0.3937007874015748
 73
     0
 78
     4
 79
     1
140
0.1200000047683716
143
0.03937
144
25.4
147
0.031496062992126
170
     1
171
     3
176
   256
177
   256
178
   256
179
     1
271
     2
272
     2
274
     3
284
     4
285
     4
286
     4
340
76
371
    -1
372
    -1
  0
DIMSTYLE
105
15E
102
{ACAD_REACTORS
330
1C6
330
2B3
330
39D
330
496
330
594
330
67E
330
76A
330
868
330
952
330
A0C
330
AC5
102
}
330
A
100
AcDbSymbolTableRecord
100
AcDbDimStyleTableRecord
  2
Default (ANSI)
 70
     0
 40
3.0
 41
0.0984251946210861
 43
0.2362204724409449
 44
0.125
 45
0.00000001
 46
0.3937007874015748
 79
     1
140
0.1200000047683716
147
0.031496062992126
171
     1
176
   256
177
   256
178
   256
271
     2
272
     2
274
     1
284
     4
285
     4
340
76
371
    -1
372
    -1
  0
DIMSTYLE
105
15F
330
A
100
AcDbSymbolTableRecord
100
AcDbDimStyleTableRecord
  2
Default (ANSI)$7
 70
     0
 40
3.0
 41
0.0984251946210861
 43
0.2362204724409449
 44
0.125
 45
0.00000001
 46
0.3937007874015748
 79
     1
140
0.1200000047683716
147
0.031496062992126
171
     1
176
   256
177
   256
178
   256
271
     2
272
     2
274
     1
284
     4
285
     4
340
76
371
    -1
372
    -1
  0
DIMSTYLE
105
160
330
A
100
AcDbSymbolTableRecord
100
AcDbDimStyleTableRecord
  2
Alternate (ANSI)
 70
     0
 40
3.0
 41
0.0979999974370003
340
55
342
161
  0
DIMSTYLE
105
173
330
A
100
AcDbSymbolTableRecord
100
AcDbDimStyleTableRecord
  2
Datum (ANSI)
 70
     0
 40
3.0
 41
0.0979999974370003
340
55
342
161
  0
DIMSTYLE
105
182
330
A
100
AcDbSymbolTableRecord
100
AcDbDimStyleTableRecord
  2
Large (ANSI)
 70
     0
 40
3.0
 41
0.1959999948740005
340
55
342
161
  0
ENDTAB
  0
TABLE
  2
BLOCK_RECORD
  5
1
330
0
100
AcDbSymbolTable
 70
    15
  0
BLOCK_RECORD
  5
6C
330
1
100
AcDbSymbolTableRecord
100
AcDbBlockTableRecord
  2
*Model_Space
340
6F
  0
BLOCK_RECORD
  5
68
330
1
100
AcDbSymbolTableRecord
100
AcDbBlockTableRecord
  2
*Paper_Space
340
6B
  0
BLOCK_RECORD
  5
70
330
1
100
AcDbSymbolTableRecord
100
AcDbBlockTableRecord
  2
*Paper_Space0
340
73
  0
BLOCK_RECORD
  5
161
330
1
100
AcDbSymbolTableRecord
100
AcDbBlockTableRecord
  2
_Closed
340
0
  0
BLOCK_RECORD
  5
168
330
1
100
AcDbSymbolTableRecord
100
AcDbBlockTableRecord
  2
DatumFilled45
340
0
  0
BLOCK_RECORD
  5
174
330
1
100
AcDbSymbolTableRecord
100
AcDbBlockTableRecord
  2
Filled-1
340
0
  0
BLOCK_RECORD
  5
1C9
330
1
100
AcDbSymbolTableRecord
100
AcDbBlockTableRecord
  2
*D4
340
0
  0
BLOCK_RECORD
  5
2B4
330
1
100
AcDbSymbolTableRecord
100
AcDbBlockTableRecord
  2
*D5
340
0
  0
BLOCK_RECORD
  5
39E
330
1
100
AcDbSymbolTableRecord
100
AcDbBlockTableRecord
  2
*D6
340
0
  0
BLOCK_RECORD
  5
497
330
1
100
AcDbSymbolTableRecord
100
AcDbBlockTableRecord
  2
*D7
340
0
  0
BLOCK_RECORD
  5
595
330
1
100
AcDbSymbolTableRecord
100
AcDbBlockTableRecord
  2
*D8
340
0
  0
BLOCK_RECORD
  5
67F
330
1
100
AcDbSymbolTableRecord
100
AcDbBlockTableRecord
  2
*D9
340
0
  0
BLOCK_RECORD
  5
76B
330
1
100
AcDbSymbolTableRecord
100
AcDbBlockTableRecord
  2
*D10
340
0
  0
BLOCK_RECORD
  5
869
330
1
100
AcDbSymbolTableRecord
100
AcDbBlockTableRecord
  2
*D11
340
0
  0
BLOCK_RECORD
  5
953
330
1
100
AcDbSymbolTableRecord
100
AcDbBlockTableRecord
  2
*D12
340
0
  0
BLOCK_RECORD
  5
A0D
330
1
100
AcDbSymbolTableRecord
100
AcDbBlockTableRecord
  2
*D13
340
0
  0
BLOCK_RECORD
  5
AC6
330
1
100
AcDbSymbolTableRecord
100
AcDbBlockTableRecord
  2
*D14
340
0
  0
ENDTAB
  0
ENDSEC
  0
SECTION
  2
BLOCKS
  0
BLOCK
  5
6D
330
6C
100
AcDbEntity
  8
0
100
AcDbBlockBegin
  2
*Model_Space
 70
     0
 10
0.0
 20
0.0
 30
0.0
  3
*Model_Space
  1

  0
ENDBLK
  5
6E
330
6C
100
AcDbEntity
  8
0
100
AcDbBlockEnd
  0
BLOCK
  5
69
330
68
100
AcDbEntity
 67
     1
  8
0
100
AcDbBlockBegin
  2
*Paper_Space
 70
     0
 10
0.0
 20
0.0
 30
0.0
  3
*Paper_Space
  1

  0
ENDBLK
  5
6A
330
68
100
AcDbEntity
 67
     1
  8
0
100
AcDbBlockEnd
  0
BLOCK
  5
71
330
70
100
AcDbEntity
 67
     1
  8
0
100
AcDbBlockBegin
  2
*Paper_Space0
 70
     0
 10
0.0
 20
0.0
 30
0.0
  3
*Paper_Space0
  1

  0
ENDBLK
  5
72
330
70
100
AcDbEntity
 67
     1
  8
0
100
AcDbBlockEnd
  0
BLOCK
  5
166
330
161
100
AcDbEntity
  8
0
100
AcDbBlockBegin
  2
_Closed
 70
     0
 10
0.0
 20
0.0
 30
0.0
  3
_Closed
  1

  0
LINE
  5
162
330
161
100
AcDbEntity
  8
0
  6
ByBlock
 62
     0
370
    -2
100
AcDbLine
 10
-1.0
 20
0.1666666666666666
 30
0.0
 11
0.0
 21
0.0
 31
0.0
  0
LINE
  5
163
330
161
100
AcDbEntity
  8
0
  6
ByBlock
 62
     0
370
    -2
100
AcDbLine
 10
0.0
 20
0.0
 30
0.0
 11
-1.0
 21
-0.1666666666666666
 31
0.0
  0
LINE
  5
164
330
161
100
AcDbEntity
  8
0
  6
ByBlock
 62
     0
370
    -2
100
AcDbLine
 10
-1.0
 20
0.1666666666666666
 30
0.0
 11
-1.0
 21
-0.1666666666666666
 31
0.0
  0
LINE
  5
165
330
161
100
AcDbEntity
  8
0
  6
ByBlock
 62
     0
370
    -2
100
AcDbLine
 10
0.0
 20
0.0
 30
0.0
 11
-1.0
 21
0.0
 31
0.0
  0
ENDBLK
  5
167
330
161
100
AcDbEntity
  8
0
100
AcDbBlockEnd
  0
BLOCK
  5
169
330
168
100
AcDbEntity
  8
0
100
AcDbBlockBegin
  2
DatumFilled45
 70
     0
 10
0.0
 20
0.0
 30
0.0
  3
DatumFilled45
  1

  0
POLYLINE
  5
16B
330
168
100
AcDbEntity
  8
0
 62
     0
100
AcDb2dPolyline
 66
     1
 10
0.0
 20
0.0
 30
0.0
 70
   128
  0
VERTEX
  5
16C
330
16B
100
AcDbEntity
  8
0
 62
     0
100
AcDbVertex
100
AcDb2dVertex
 10
0.0
 20
0.9999999999999998
 30
0.0
  0
VERTEX
  5
16D
330
16B
100
AcDbEntity
  8
0
 62
     0
100
AcDbVertex
100
AcDb2dVertex
 10
0.0
 20
-0.9999999999999998
 30
0.0
  0
VERTEX
  5
16F
330
16B
100
AcDbEntity
  8
0
 62
     0
100
AcDbVertex
100
AcDb2dVertex
 10
-0.9999999999999998
 20
0.0
 30
0.0
  0
VERTEX
  5
170
330
16B
100
AcDbEntity
  8
0
 62
     0
100
AcDbVertex
100
AcDb2dVertex
 10
0.0
 20
0.9999999999999998
 30
0.0
  0
SEQEND
  5
16E
330
16B
100
AcDbEntity
  8
0
 62
     0
  0
SOLID
  5
172
330
168
100
AcDbEntity
  8
0
 62
     0
100
AcDbTrace
 10
0.0
 20
0.9999999999999998
 30
0.0
 11
0.0
 21
-0.9999999999999998
 31
0.0
 12
-0.9999999999999998
 22
0.0
 32
0.0
 13
0.0
 23
0.9999999999999998
 33
0.0
  0
ENDBLK
  5
16A
330
168
100
AcDbEntity
  8
0
100
AcDbBlockEnd
  0
BLOCK
  5
175
330
174
100
AcDbEntity
  8
0
100
AcDbBlockBegin
  2
Filled-1
 70
     0
 10
0.0
 20
0.0
 30
0.0
  3
Filled-1
  1

  0
LINE
  5
177
330
174
100
AcDbEntity
  8
0
 62
     0
100
AcDbLine
 10
-0.9999999999999998
 20
0.0
 30
0.0
 11
0.0
 21
0.0
 31
0.0
  0
POLYLINE
  5
178
330
174
100
AcDbEntity
  8
0
 62
     0
100
AcDb2dPolyline
 66
     1
 10
0.0
 20
0.0
 30
0.0
 70
   128
  0
VERTEX
  5
179
330
178
100
AcDbEntity
  8
0
 62
     0
100
AcDbVertex
100
AcDb2dVertex
 10
-0.9999999999999998
 20
-0.0994897959183674
 30
0.0
  0
VERTEX
  5
17A
330
178
100
AcDbEntity
  8
0
 62
     0
100
AcDbVertex
100
AcDb2dVertex
 10
0.0
 20
0.0
 30
0.0
  0
VERTEX
  5
17C
330
178
100
AcDbEntity
  8
0
 62
     0
100
AcDbVertex
100
AcDb2dVertex
 10
-0.9999999999999998
 20
0.0994897959183674
 30
0.0
  0
VERTEX
  5
17D
330
178
100
AcDbEntity
  8
0
 62
     0
100
AcDbVertex
100
AcDb2dVertex
 10
-0.9999999999999998
 20
-0.0994897959183674
 30
0.0
  0
SEQEND
  5
17B
330
178
100
AcDbEntity
  8
0
 62
     0
  0
SOLID
  5
17E
330
174
100
AcDbEntity
  8
0
 62
     0
100
AcDbTrace
 10
-0.9999999999999998
 20
-0.0994897959183674
 30
0.0
 11
0.0
 21
0.0
 31
0.0
 12
-0.9999999999999998
 22
0.0994897959183674
 32
0.0
 13
-0.9999999999999998
 23
-0.0994897959183674
 33
0.0
  0
LINE
  5
17F
330
174
100
AcDbEntity
  8
0
 62
     0
100
AcDbLine
 10
-0.9999999999999998
 20
-0.0994897959183674
 30
0.0
 11
0.0
 21
0.0
 31
0.0
  0
LINE
  5
180
330
174
100
AcDbEntity
  8
0
 62
     0
100
AcDbLine
 10
0.0
 20
0.0
 30
0.0
 11
-0.9999999999999998
 21
0.0994897959183674
 31
0.0
  0
LINE
  5
181
330
174
100
AcDbEntity
  8
0
 62
     0
100
AcDbLine
 10
-0.9999999999999998
 20
0.0994897959183674
 30
0.0
 11
-0.9999999999999998
 21
-0.0994897959183674
 31
0.0
  0
ENDBLK
  5
176
330
174
100
AcDbEntity
  8
0
100
AcDbBlockEnd
  0
BLOCK
  5
1CA
330
1C9
100
AcDbEntity
  8
0
100
AcDbBlockBegin
  2
*D4
 70
     1
 10
0.0
 20
0.0
 30
0.0
  3
*D4
  1

  0
LINE
  5
2A9
330
1C9
100
AcDbEntity
  8
Dimension (ANSI)
100
AcDbLine
 10
10.40755544607462
 20
9.744547303017901
 30
0.0
 11
6.912968831901391
 21
9.744547303017901
 31
0.0
  0
LINE
  5
2AA
330
1C9
100
AcDbEntity
  8
Dimension (ANSI)
100
AcDbLine
 10
10.40755544607461
 20
23.9445473030179
 30
0.0
 11
6.912968831901395
 21
23.9445473030179
 31
0.0
  0
LINE
  5
2AB
330
1C9
100
AcDbEntity
  8
Dimension (ANSI)
100
AcDbLine
 10
7.287968831901392
 20
10.03982288688116
 30
0.0
 11
7.287968831901393
 21
16.56256414352869
 31
0.0
  0
LINE
  5
2AC
330
1C9
100
AcDbEntity
  8
Dimension (ANSI)
100
AcDbLine
 10
7.287968831901395
 20
23.64927171915464
 30
0.0
 11
7.287968831901393
 21
17.12653046250712
 31
0.0
  0
SOLID
  5
2AD
330
1C9
100
AcDbEntity
  8
Dimension (ANSI)
100
AcDbTrace
 10
7.238756234590849
 20
10.03982288688116
 30
0.0
 11
7.337181429211935
 21
10.03982288688116
 31
0.0
 12
7.287968831901391
 22
9.744547303017901
 32
0.0
 13
7.287968831901391
 23
9.744547303017901
 33
0.0
  0
SOLID
  5
2AE
330
1C9
100
AcDbEntity
  8
Dimension (ANSI)
100
AcDbTrace
 10
7.238756234590852
 20
23.64927171915464
 30
0.0
 11
7.337181429211938
 21
23.64927171915464
 31
0.0
 12
7.287968831901395
 22
23.9445473030179
 32
0.0
 13
7.287968831901395
 23
23.9445473030179
 33
0.0
  0
MTEXT
  5
2AF
330
1C9
100
AcDbEntity
  8
Dimension (ANSI)
100
AcDbMText
 10
6.709768674607446
 20
17.03204227353074
 30
0.0
 40
0.3600000143051147
 41
0.0
 71
     1
 72
     1
  1
\A1;14.20
  7
Note Text (ANSI)
 73
     1
 44
1.0
1001
ACAD
1000
MTEXTBEGIN
1070
    73
1070
     1
1070
    44
1040
1.0
1070
    74
1070
     0
1000
MTEXTEND
  0
POINT
  5
2B0
330
1C9
100
AcDbEntity
  8
Defpoints
 62
     0
100
AcDbPoint
 10
10.59505544607462
 20
9.744547303017901
 30
0.0
  0
POINT
  5
2B1
330
1C9
100
AcDbEntity
  8
Defpoints
 62
     0
100
AcDbPoint
 10
10.59505544607461
 20
23.9445473030179
 30
0.0
  0
POINT
  5
2B2
330
1C9
100
AcDbEntity
  8
Defpoints
 62
     0
100
AcDbPoint
 10
7.287968831901395
 20
23.9445473030179
 30
0.0
  0
ENDBLK
  5
1CB
330
1C9
100
AcDbEntity
  8
0
100
AcDbBlockEnd
  0
BLOCK
  5
2B5
330
2B4
100
AcDbEntity
  8
0
100
AcDbBlockBegin
  2
*D5
 70
     1
 10
0.0
 20
0.0
 30
0.0
  3
*D5
  1

  0
LINE
  5
393
330
2B4
100
AcDbEntity
  8
Dimension (ANSI)
100
AcDbLine
 10
10.09505544607461
 20
23.6320473030179
 30
0.0
 11
10.09505544607461
 21
26.41797249986829
 31
0.0
  0
LINE
  5
394
330
2B4
100
AcDbEntity
  8
Dimension (ANSI)
100
AcDbLine
 10
20.29505544607461
 20
23.6320473030179
 30
0.0
 11
20.29505544607461
 21
26.41797249986829
 31
0.0
  0
LINE
  5
395
330
2B4
100
AcDbEntity
  8
Dimension (ANSI)
100
AcDbLine
 10
10.39033102993787
 20
26.04297249986829
 30
0.0
 11
14.52236709980429
 21
26.04297249986829
 31
0.0
  0
LINE
  5
396
330
2B4
100
AcDbEntity
  8
Dimension (ANSI)
100
AcDbLine
 10
19.99977986221135
 20
26.04297249986829
 30
0.0
 11
15.86774379234493
 21
26.04297249986829
 31
0.0
  0
SOLID
  5
397
330
2B4
100
AcDbEntity
  8
Dimension (ANSI)
100
AcDbTrace
 10
10.39033102993787
 20
26.09218509717884
 30
0.0
 11
10.39033102993787
 21
25.99375990255775
 31
0.0
 12
10.09505544607461
 22
26.04297249986829
 32
0.0
 13
10.09505544607461
 23
26.04297249986829
 33
0.0
  0
SOLID
  5
398
330
2B4
100
AcDbEntity
  8
Dimension (ANSI)
100
AcDbTrace
 10
19.99977986221135
 20
26.09218509717884
 30
0.0
 11
19.99977986221135
 21
25.99375990255775
 31
0.0
 12
20.29505544607461
 22
26.04297249986829
 32
0.0
 13
20.29505544607461
 23
26.04297249986829
 33
0.0
  0
MTEXT
  5
399
330
2B4
100
AcDbEntity
  8
Dimension (ANSI)
100
AcDbMText
 10
14.61685528878067
 20
26.23046747038113
 30
0.0
 40
0.3600000143051147
 41
0.0
 71
     1
 72
     1
  1
\A1;10.20
  7
Note Text (ANSI)
 73
     1
 44
1.0
1001
ACAD
1000
MTEXTBEGIN
1070
    73
1070
     1
1070
    44
1040
1.0
1070
    74
1070
     0
1000
MTEXTEND
  0
POINT
  5
39A
330
2B4
100
AcDbEntity
  8
Defpoints
 62
     0
100
AcDbPoint
 10
10.09505544607461
 20
23.44454730301789
 30
0.0
  0
POINT
  5
39B
330
2B4
100
AcDbEntity
  8
Defpoints
 62
     0
100
AcDbPoint
 10
20.29505544607461
 20
23.44454730301789
 30
0.0
  0
POINT
  5
39C
330
2B4
100
AcDbEntity
  8
Defpoints
 62
     0
100
AcDbPoint
 10
20.29505544607461
 20
26.04297249986829
 30
0.0
  0
ENDBLK
  5
2B6
330
2B4
100
AcDbEntity
  8
0
100
AcDbBlockEnd
  0
BLOCK
  5
39F
330
39E
100
AcDbEntity
  8
0
100
AcDbBlockBegin
  2
*D6
 70
     1
 10
0.0
 20
0.0
 30
0.0
  3
*D6
  1

  0
LINE
  5
48B
330
39E
100
AcDbEntity
  8
Dimension (ANSI)
100
AcDbLine
 10
10.42755544607462
 20
10.2645473030179
 30
0.0
 11
9.512450607296727
 21
10.2645473030179
 31
0.0
  0
LINE
  5
48C
330
39E
100
AcDbEntity
  8
Dimension (ANSI)
100
AcDbLine
 10
10.42755544607462
 20
11.0145473030179
 30
0.0
 11
9.512450607296727
 21
11.0145473030179
 31
0.0
  0
LINE
  5
48D
330
39E
100
AcDbEntity
  8
Dimension (ANSI)
100
AcDbLine
 10
9.887450607296727
 20
11.30982288688116
 30
0.0
 11
9.887450607296727
 21
11.60509847074442
 31
0.0
  0
LINE
  5
48E
330
39E
100
AcDbEntity
  8
Dimension (ANSI)
100
AcDbLine
 10
9.887450607296727
 20
9.969271719154642
 30
0.0
 11
9.887450607296727
 21
9.404648308733458
 31
0.0
  0
LINE
  5
48F
330
39E
100
AcDbEntity
  8
Dimension (ANSI)
100
AcDbLine
 10
9.887450607296727
 20
9.404648308733458
 30
0.0
 11
9.592175023433469
 21
9.404648308733458
 31
0.0
  0
SOLID
  5
490
330
39E
100
AcDbEntity
  8
Dimension (ANSI)
100
AcDbTrace
 10
9.838238009986184
 20
11.30982288688116
 30
0.0
 11
9.93666320460727
 21
11.30982288688116
 31
0.0
 12
9.887450607296727
 22
11.0145473030179
 32
0.0
 13
9.887450607296727
 23
11.0145473030179
 33
0.0
  0
SOLID
  5
491
330
39E
100
AcDbEntity
  8
Dimension (ANSI)
100
AcDbTrace
 10
9.838238009986184
 20
9.969271719154642
 30
0.0
 11
9.93666320460727
 21
9.969271719154642
 31
0.0
 12
9.887450607296727
 22
10.2645473030179
 32
0.0
 13
9.887450607296727
 23
10.2645473030179
 33
0.0
  0
MTEXT
  5
492
330
39E
100
AcDbEntity
  8
Dimension (ANSI)
100
AcDbMText
 10
8.582817758479551
 20
9.592022392740487
 30
0.0
 40
0.3600000143051147
 41
0.0
 71
     1
 72
     1
  1
\A1;0.75
  7
Note Text (ANSI)
 73
     1
 44
1.0
1001
ACAD
1000
MTEXTBEGIN
1070
    73
1070
     1
1070
    44
1040
1.0
1070
    74
1070
     0
1000
MTEXTEND
  0
POINT
  5
493
330
39E
100
AcDbEntity
  8
Defpoints
 62
     0
100
AcDbPoint
 10
10.61505544607462
 20
10.2645473030179
 30
0.0
  0
POINT
  5
494
330
39E
100
AcDbEntity
  8
Defpoints
 62
     0
100
AcDbPoint
 10
10.61505544607462
 20
11.0145473030179
 30
0.0
  0
POINT
  5
495
330
39E
100
AcDbEntity
  8
Defpoints
 62
     0
100
AcDbPoint
 10
9.887450607296727
 20
11.0145473030179
 30
0.0
  0
ENDBLK
  5
3A0
330
39E
100
AcDbEntity
  8
0
100
AcDbBlockEnd
  0
BLOCK
  5
498
330
497
100
AcDbEntity
  8
0
100
AcDbBlockBegin
  2
*D7
 70
     1
 10
0.0
 20
0.0
 30
0.0
  3
*D7
  1

  0
LINE
  5
589
330
497
100
AcDbEntity
  8
Dimension (ANSI)
100
AcDbLine
 10
19.98255544607461
 20
23.9445473030179
 30
0.0
 11
22.88907260702938
 21
23.9445473030179
 31
0.0
  0
LINE
  5
58A
330
497
100
AcDbEntity
  8
Dimension (ANSI)
100
AcDbLine
 10
19.96255544607462
 20
23.4245473030179
 30
0.0
 11
22.88907260702938
 21
23.4245473030179
 31
0.0
  0
LINE
  5
58B
330
497
100
AcDbEntity
  8
Dimension (ANSI)
100
AcDbLine
 10
22.51407260702938
 20
24.23982288688116
 30
0.0
 11
22.51407260702938
 21
24.53509847074442
 31
0.0
  0
LINE
  5
58C
330
497
100
AcDbEntity
  8
Dimension (ANSI)
100
AcDbLine
 10
22.51407260702938
 20
23.12927171915464
 30
0.0
 11
22.51407260702938
 21
22.44748343530084
 31
0.0
  0
LINE
  5
58D
330
497
100
AcDbEntity
  8
Dimension (ANSI)
100
AcDbLine
 10
22.51407260702938
 20
22.44748343530084
 30
0.0
 11
22.21879702316612
 21
22.44748343530084
 31
0.0
  0
SOLID
  5
58E
330
497
100
AcDbEntity
  8
Dimension (ANSI)
100
AcDbTrace
 10
22.46486000971884
 20
24.23982288688116
 30
0.0
 11
22.56328520433992
 21
24.23982288688116
 31
0.0
 12
22.51407260702938
 22
23.9445473030179
 32
0.0
 13
22.51407260702938
 23
23.9445473030179
 33
0.0
  0
SOLID
  5
58F
330
497
100
AcDbEntity
  8
Dimension (ANSI)
100
AcDbTrace
 10
22.46486000971883
 20
23.12927171915464
 30
0.0
 11
22.56328520433992
 21
23.12927171915464
 31
0.0
 12
22.51407260702938
 22
23.4245473030179
 32
0.0
 13
22.51407260702938
 23
23.4245473030179
 33
0.0
  0
MTEXT
  5
590
330
497
100
AcDbEntity
  8
Dimension (ANSI)
100
AcDbMText
 10
21.20532961701462
 20
22.63497840581368
 30
0.0
 40
0.3600000143051147
 41
0.0
 71
     1
 72
     1
  1
\A1;0.52
  7
Note Text (ANSI)
 73
     1
 44
1.0
1001
ACAD
1000
MTEXTBEGIN
1070
    73
1070
     1
1070
    44
1040
1.0
1070
    74
1070
     0
1000
MTEXTEND
  0
POINT
  5
591
330
497
100
AcDbEntity
  8
Defpoints
 62
     0
100
AcDbPoint
 10
19.79505544607462
 20
23.9445473030179
 30
0.0
  0
POINT
  5
592
330
497
100
AcDbEntity
  8
Defpoints
 62
     0
100
AcDbPoint
 10
19.77505544607462
 20
23.4245473030179
 30
0.0
  0
POINT
  5
593
330
497
100
AcDbEntity
  8
Defpoints
 62
     0
100
AcDbPoint
 10
22.51407260702938
 20
23.4245473030179
 30
0.0
  0
ENDBLK
  5
499
330
497
100
AcDbEntity
  8
0
100
AcDbBlockEnd
  0
BLOCK
  5
596
330
595
100
AcDbEntity
  8
0
100
AcDbBlockBegin
  2
*D8
 70
     1
 10
0.0
 20
0.0
 30
0.0
  3
*D8
  1

  0
LINE
  5
674
330
595
100
AcDbEntity
  8
Dimension (ANSI)
100
AcDbLine
 10
20.29505544607461
 20
23.6320473030179
 30
0.0
 11
20.29505544607461
 21
25.51414167739671
 31
0.0
  0
LINE
  5
675
330
595
100
AcDbEntity
  8
Dimension (ANSI)
100
AcDbLine
 10
19.77505544607462
 20
23.6120473030179
 30
0.0
 11
19.77505544607462
 21
25.51414167739671
 31
0.0
  0
LINE
  5
676
330
595
100
AcDbEntity
  8
Dimension (ANSI)
100
AcDbLine
 10
19.47977986221136
 20
25.13914167739671
 30
0.0
 11
19.1845042783481
 21
25.13914167739671
 31
0.0
  0
LINE
  5
677
330
595
100
AcDbEntity
  8
Dimension (ANSI)
100
AcDbLine
 10
20.59033102993787
 20
25.13914167739671
 30
0.0
 11
21.18347391831282
 21
25.13914167739671
 31
0.0
  0
SOLID
  5
678
330
595
100
AcDbEntity
  8
Dimension (ANSI)
100
AcDbTrace
 10
19.47977986221136
 20
25.18835427470726
 30
0.0
 11
19.47977986221136
 21
25.08992908008617
 31
0.0
 12
19.77505544607462
 22
25.13914167739671
 32
0.0
 13
19.77505544607462
 23
25.13914167739671
 33
0.0
  0
SOLID
  5
679
330
595
100
AcDbEntity
  8
Dimension (ANSI)
100
AcDbTrace
 10
20.59033102993787
 20
25.18835427470726
 30
0.0
 11
20.59033102993787
 21
25.08992908008617
 31
0.0
 12
20.29505544607461
 22
25.13914167739671
 32
0.0
 13
20.29505544607461
 23
25.13914167739671
 33
0.0
  0
MTEXT
  5
67A
330
595
100
AcDbEntity
  8
Dimension (ANSI)
100
AcDbMText
 10
21.2779621072892
 20
25.32663664790955
 30
0.0
 40
0.3600000143051147
 41
0.0
 71
     1
 72
     1
  1
\A1;0.52
  7
Note Text (ANSI)
 73
     1
 44
1.0
1001
ACAD
1000
MTEXTBEGIN
1070
    73
1070
     1
1070
    44
1040
1.0
1070
    74
1070
     0
1000
MTEXTEND
  0
POINT
  5
67B
330
595
100
AcDbEntity
  8
Defpoints
 62
     0
100
AcDbPoint
 10
20.29505544607461
 20
23.44454730301789
 30
0.0
  0
POINT
  5
67C
330
595
100
AcDbEntity
  8
Defpoints
 62
     0
100
AcDbPoint
 10
19.77505544607462
 20
23.4245473030179
 30
0.0
  0
POINT
  5
67D
330
595
100
AcDbEntity
  8
Defpoints
 62
     0
100
AcDbPoint
 10
19.77505544607462
 20
25.13914167739671
 30
0.0
  0
ENDBLK
  5
597
330
595
100
AcDbEntity
  8
0
100
AcDbBlockEnd
  0
BLOCK
  5
680
330
67F
100
AcDbEntity
  8
0
100
AcDbBlockBegin
  2
*D9
 70
     1
 10
0.0
 20
0.0
 30
0.0
  3
*D9
  1

  0
LINE
  5
75E
330
67F
100
AcDbEntity
  8
Dimension (ANSI)
100
AcDbLine
 10
10.42755544607462
 20
10.2645473030179
 30
0.0
 11
7.929888459068391
 21
10.2645473030179
 31
0.0
  0
LINE
  5
75F
330
67F
100
AcDbEntity
  8
Dimension (ANSI)
100
AcDbLine
 10
10.42755544607462
 20
23.4245473030179
 30
0.0
 11
7.929888459068394
 21
23.4245473030179
 31
0.0
  0
LINE
  5
760
330
67F
100
AcDbEntity
  8
Dimension (ANSI)
100
AcDbLine
 10
8.30488845906839
 20
10.55982288688116
 30
0.0
 11
8.304888459068392
 21
18.62142124467149
 31
0.0
  0
LINE
  5
761
330
67F
100
AcDbEntity
  8
Dimension (ANSI)
100
AcDbLine
 10
8.304888459068394
 20
23.12927171915464
 30
0.0
 11
8.304888459068392
 21
19.18538756364992
 31
0.0
  0
SOLID
  5
762
330
67F
100
AcDbEntity
  8
Dimension (ANSI)
100
AcDbTrace
 10
8.255675861757847
 20
10.55982288688116
 30
0.0
 11
8.354101056378933
 21
10.55982288688116
 31
0.0
 12
8.30488845906839
 22
10.2645473030179
 32
0.0
 13
8.30488845906839
 23
10.2645473030179
 33
0.0
  0
SOLID
  5
763
330
67F
100
AcDbEntity
  8
Dimension (ANSI)
100
AcDbTrace
 10
8.25567586175785
 20
23.12927171915464
 30
0.0
 11
8.354101056378937
 21
23.12927171915464
 31
0.0
 12
8.304888459068394
 22
23.4245473030179
 32
0.0
 13
8.304888459068394
 23
23.4245473030179
 33
0.0
  0
MTEXT
  5
764
330
67F
100
AcDbEntity
  8
Dimension (ANSI)
100
AcDbMText
 10
7.591537188277765
 20
19.09089937467355
 30
0.0
 40
0.3600000143051147
 41
0.0
 71
     1
 72
     1
  1
\A1;13.160
  7
Note Text (ANSI)
 73
     1
 44
1.0
1001
ACAD
1000
MTEXTBEGIN
1070
    73
1070
     1
1070
    44
1040
1.0
1070
    74
1070
     0
1000
MTEXTEND
  0
POINT
  5
765
330
67F
100
AcDbEntity
  8
Defpoints
 62
     0
100
AcDbPoint
 10
10.61505544607462
 20
10.2645473030179
 30
0.0
  0
POINT
  5
766
330
67F
100
AcDbEntity
  8
Defpoints
 62
     0
100
AcDbPoint
 10
10.61505544607462
 20
23.4245473030179
 30
0.0
  0
POINT
  5
767
330
67F
100
AcDbEntity
  8
Defpoints
 62
     0
100
AcDbPoint
 10
8.304888459068394
 20
23.4245473030179
 30
0.0
  0
ENDBLK
  5
681
330
67F
100
AcDbEntity
  8
0
100
AcDbBlockEnd
  0
BLOCK
  5
76C
330
76B
100
AcDbEntity
  8
0
100
AcDbBlockBegin
  2
*D10
 70
     1
 10
0.0
 20
0.0
 30
0.0
  3
*D10
  1

  0
LINE
  5
85D
330
76B
100
AcDbEntity
  8
Dimension (ANSI)
100
AcDbLine
 10
19.98255544607462
 20
9.744547303017901
 30
0.0
 11
21.00105822131148
 21
9.744547303017899
 31
0.0
  0
LINE
  5
85E
330
76B
100
AcDbEntity
  8
Dimension (ANSI)
100
AcDbLine
 10
20.48255544607462
 20
10.2445473030179
 30
0.0
 11
21.00105822131148
 21
10.2445473030179
 31
0.0
  0
LINE
  5
85F
330
76B
100
AcDbEntity
  8
Dimension (ANSI)
100
AcDbLine
 10
20.62605822131148
 20
9.449271719154641
 30
0.0
 11
20.62605822131148
 21
9.153996135291382
 31
0.0
  0
LINE
  5
860
330
76B
100
AcDbEntity
  8
Dimension (ANSI)
100
AcDbLine
 10
20.62605822131148
 20
10.53982288688116
 30
0.0
 11
20.62605822131148
 21
11.10444629730234
 31
0.0
  0
LINE
  5
861
330
76B
100
AcDbEntity
  8
Dimension (ANSI)
100
AcDbLine
 10
20.62605822131148
 20
11.10444629730234
 30
0.0
 11
20.92133380517473
 21
11.10444629730234
 31
0.0
  0
SOLID
  5
862
330
76B
100
AcDbEntity
  8
Dimension (ANSI)
100
AcDbTrace
 10
20.57684562400094
 20
9.449271719154641
 30
0.0
 11
20.67527081862202
 21
9.449271719154641
 31
0.0
 12
20.62605822131148
 22
9.744547303017899
 32
0.0
 13
20.62605822131148
 23
9.744547303017899
 33
0.0
  0
SOLID
  5
863
330
76B
100
AcDbEntity
  8
Dimension (ANSI)
100
AcDbTrace
 10
20.57684562400094
 20
10.53982288688116
 30
0.0
 11
20.67527081862202
 21
10.53982288688116
 31
0.0
 12
20.62605822131148
 22
10.2445473030179
 32
0.0
 13
20.62605822131148
 23
10.2445473030179
 33
0.0
  0
MTEXT
  5
864
330
76B
100
AcDbEntity
  8
Dimension (ANSI)
100
AcDbMText
 10
21.01582199415111
 20
11.29182038130937
 30
0.0
 40
0.3600000143051147
 41
0.0
 71
     1
 72
     1
  1
\A1;0.50
  7
Note Text (ANSI)
 73
     1
 44
1.0
1001
ACAD
1000
MTEXTBEGIN
1070
    73
1070
     1
1070
    44
1040
1.0
1070
    74
1070
     0
1000
MTEXTEND
  0
POINT
  5
865
330
76B
100
AcDbEntity
  8
Defpoints
 62
     0
100
AcDbPoint
 10
19.79505544607462
 20
9.744547303017901
 30
0.0
  0
POINT
  5
866
330
76B
100
AcDbEntity
  8
Defpoints
 62
     0
100
AcDbPoint
 10
20.29505544607462
 20
10.2445473030179
 30
0.0
  0
POINT
  5
867
330
76B
100
AcDbEntity
  8
Defpoints
 62
     0
100
AcDbPoint
 10
20.62605822131148
 20
10.2445473030179
 30
0.0
  0
ENDBLK
  5
76D
330
76B
100
AcDbEntity
  8
0
100
AcDbBlockEnd
  0
BLOCK
  5
86A
330
869
100
AcDbEntity
  8
0
100
AcDbBlockBegin
  2
*D11
 70
     1
 10
0.0
 20
0.0
 30
0.0
  3
*D11
  1

  0
LINE
  5
948
330
869
100
AcDbEntity
  8
Dimension (ANSI)
100
AcDbLine
 10
20.29505544607462
 20
10.0570473030179
 30
0.0
 11
20.29505544607462
 21
8.188444940813177
 31
0.0
  0
LINE
  5
949
330
869
100
AcDbEntity
  8
Dimension (ANSI)
100
AcDbLine
 10
19.79505544607462
 20
9.557047303017901
 30
0.0
 11
19.79505544607462
 21
8.188444940813177
 31
0.0
  0
LINE
  5
94A
330
869
100
AcDbEntity
  8
Dimension (ANSI)
100
AcDbLine
 10
20.59033102993788
 20
8.563444940813177
 30
0.0
 11
20.88560661380114
 21
8.563444940813177
 31
0.0
  0
LINE
  5
94B
330
869
100
AcDbEntity
  8
Dimension (ANSI)
100
AcDbLine
 10
19.49977986221136
 20
8.563444940813177
 30
0.0
 11
19.03293529922417
 21
8.563444940813177
 31
0.0
  0
SOLID
  5
94C
330
869
100
AcDbEntity
  8
Dimension (ANSI)
100
AcDbTrace
 10
20.59033102993788
 20
8.61265753812372
 30
0.0
 11
20.59033102993788
 21
8.514232343502634
 31
0.0
 12
20.29505544607462
 22
8.563444940813177
 32
0.0
 13
20.29505544607462
 23
8.563444940813177
 33
0.0
  0
SOLID
  5
94D
330
869
100
AcDbEntity
  8
Dimension (ANSI)
100
AcDbTrace
 10
19.49977986221136
 20
8.61265753812372
 30
0.0
 11
19.49977986221136
 21
8.514232343502634
 31
0.0
 12
19.79505544607462
 22
8.563444940813177
 32
0.0
 13
19.79505544607462
 23
8.563444940813177
 33
0.0
  0
MTEXT
  5
94E
330
869
100
AcDbEntity
  8
Dimension (ANSI)
100
AcDbMText
 10
18.01777548199133
 20
8.750819024820204
 30
0.0
 40
0.3600000143051147
 41
0.0
 71
     1
 72
     1
  1
\A1;0.50
  7
Note Text (ANSI)
 73
     1
 44
1.0
1001
ACAD
1000
MTEXTBEGIN
1070
    73
1070
     1
1070
    44
1040
1.0
1070
    74
1070
     0
1000
MTEXTEND
  0
POINT
  5
94F
330
869
100
AcDbEntity
  8
Defpoints
 62
     0
100
AcDbPoint
 10
20.29505544607462
 20
10.2445473030179
 30
0.0
  0
POINT
  5
950
330
869
100
AcDbEntity
  8
Defpoints
 62
     0
100
AcDbPoint
 10
19.79505544607462
 20
9.744547303017901
 30
0.0
  0
POINT
  5
951
330
869
100
AcDbEntity
  8
Defpoints
 62
     0
100
AcDbPoint
 10
19.79505544607462
 20
8.563444940813177
 30
0.0
  0
ENDBLK
  5
86B
330
869
100
AcDbEntity
  8
0
100
AcDbBlockEnd
  0
BLOCK
  5
954
330
953
100
AcDbEntity
  8
0
100
AcDbBlockBegin
  2
*D12
 70
     1
 10
0.0
 20
0.0
 30
0.0
  3
*D12
  1

  0
LINE
  5
A04
330
953
100
AcDbEntity
  8
Dimension (ANSI)
100
AcDbLine
 10
8.560511511229771
 20
25.59203464710709
 30
0.0
 11
8.927965007991337
 21
25.59203464710709
 31
0.0
  0
LINE
  5
A05
330
953
100
AcDbEntity
  8
Dimension (ANSI)
100
AcDbLine
 10
8.927965007991337
 20
25.59203464710709
 30
0.0
 11
10.28013192776453
 21
23.85483987701867
 31
0.0
  0
MTEXT
  5
A06
102
{ACAD_XDICTIONARY
360
BFB
102
}
330
953
100
AcDbEntity
  8
Dimension (ANSI)
100
AcDbMText
 10
8.466023322253395
 20
25.86654775405287
 30
0.0
 40
0.3600000143051147
 41
0.0
 71
     3
 72
     1
  1
\A1;\U+22050.50{\PTYP.(4PL.)}
  7
Note Text (ANSI)
 73
     1
 44
1.0
1001
ACAD
1000
MTEXTBEGIN
1070
    73
1070
     1
1070
    44
1040
1.0
1070
    74
1070
     0
1000
MTEXTEND
  0
SOLID
  5
A07
330
953
100
AcDbEntity
  8
Dimension (ANSI)
100
AcDbTrace
 10
10.31896699721691
 20
23.88506763106489
 30
0.0
 11
10.24129685831215
 21
23.82461212297246
 31
0.0
 12
10.46149845204181
 22
23.62182946030439
 32
0.0
 13
10.46149845204181
 23
23.62182946030439
 33
0.0
  0
LINE
  5
A08
330
953
100
AcDbEntity
  8
Dimension (ANSI)
100
AcDbLine
 10
10.34505544607462
 20
23.4245473030179
 30
0.0
 11
10.88505544607462
 21
23.4245473030179
 31
0.0
  0
LINE
  5
A09
330
953
100
AcDbEntity
  8
Dimension (ANSI)
100
AcDbLine
 10
10.61505544607462
 20
23.15454730301791
 30
0.0
 11
10.61505544607461
 21
23.6945473030179
 31
0.0
  0
POINT
  5
A0A
330
953
100
AcDbEntity
  8
Defpoints
 62
     0
100
AcDbPoint
 10
10.46149845204181
 20
23.62182946030439
 30
0.0
  0
POINT
  5
A0B
330
953
100
AcDbEntity
  8
Defpoints
 62
     0
100
AcDbPoint
 10
10.76861244010742
 20
23.22726514573142
 30
0.0
  0
ENDBLK
  5
955
330
953
100
AcDbEntity
  8
0
100
AcDbBlockEnd
  0
BLOCK
  5
A0E
330
A0D
100
AcDbEntity
  8
0
100
AcDbBlockBegin
  2
*D13
 70
     1
 10
0.0
 20
0.0
 30
0.0
  3
*D13
  1

  0
LINE
  5
ABD
330
A0D
100
AcDbEntity
  8
Dimension (ANSI)
100
AcDbLine
 10
11.83583324106688
 20
8.687412283821531
 30
0.0
 11
11.46843753711112
 21
8.687412283821531
 31
0.0
  0
LINE
  5
ABE
330
A0D
100
AcDbEntity
  8
Dimension (ANSI)
100
AcDbLine
 10
11.46843753711112
 20
8.687412283821531
 30
0.0
 11
10.77051116467306
 21
10.59062647026949
 31
0.0
  0
MTEXT
  5
ABF
102
{ACAD_XDICTIONARY
360
BFD
102
}
330
A0D
100
AcDbEntity
  8
Dimension (ANSI)
100
AcDbMText
 10
11.93032143004325
 20
8.961925390767309
 30
0.0
 40
0.3600000143051147
 41
0.0
 71
     1
 72
     1
  1
\A1;\U+22050.31{\PTYP. (4PL.)}
  7
Note Text (ANSI)
 73
     1
 44
1.0
1001
ACAD
1000
MTEXTBEGIN
1070
    73
1070
     1
1070
    44
1040
1.0
1070
    74
1070
     0
1000
MTEXTEND
  0
SOLID
  5
AC0
330
A0D
100
AcDbEntity
  8
Dimension (ANSI)
100
AcDbTrace
 10
10.81671506978759
 20
10.60756987270873
 30
0.0
 11
10.72430725955854
 21
10.57368306783026
 31
0.0
 12
10.66885075003765
 22
10.86784990095662
 32
0.0
 13
10.66885075003765
 23
10.86784990095662
 33
0.0
  0
LINE
  5
AC1
330
A0D
100
AcDbEntity
  8
Dimension (ANSI)
100
AcDbLine
 10
10.34505544607463
 20
11.0145473030179
 30
0.0
 11
10.88505544607462
 21
11.0145473030179
 31
0.0
  0
LINE
  5
AC2
330
A0D
100
AcDbEntity
  8
Dimension (ANSI)
100
AcDbLine
 10
10.61505544607463
 20
10.7445473030179
 30
0.0
 11
10.61505544607463
 21
11.2845473030179
 31
0.0
  0
POINT
  5
AC3
330
A0D
100
AcDbEntity
  8
Defpoints
 62
     0
100
AcDbPoint
 10
10.66885075003765
 20
10.86784990095662
 30
0.0
  0
POINT
  5
AC4
330
A0D
100
AcDbEntity
  8
Defpoints
 62
     0
100
AcDbPoint
 10
10.5612601421116
 20
11.16124470507917
 30
0.0
  0
ENDBLK
  5
A0F
330
A0D
100
AcDbEntity
  8
0
100
AcDbBlockEnd
  0
BLOCK
  5
AC7
330
AC6
100
AcDbEntity
  8
0
100
AcDbBlockBegin
  2
*D14
 70
     1
 10
0.0
 20
0.0
 30
0.0
  3
*D14
  1

  0
LINE
  5
BA5
330
AC6
100
AcDbEntity
  8
Dimension (ANSI)
100
AcDbLine
 10
19.77505544607462
 20
23.6120473030179
 30
0.0
 11
19.77505544607462
 21
25.5141416773967
 31
0.0
  0
LINE
  5
BA6
330
AC6
100
AcDbEntity
  8
Dimension (ANSI)
100
AcDbLine
 10
10.61505544607462
 20
23.6120473030179
 30
0.0
 11
10.61505544607462
 21
25.5141416773967
 31
0.0
  0
LINE
  5
BA7
330
AC6
100
AcDbEntity
  8
Dimension (ANSI)
100
AcDbLine
 10
19.47977986221136
 20
25.13914167739671
 30
0.0
 11
15.88696474676889
 21
25.13914167739671
 31
0.0
  0
LINE
  5
BA8
330
AC6
100
AcDbEntity
  8
Dimension (ANSI)
100
AcDbLine
 10
10.91033102993788
 20
25.13914167739671
 30
0.0
 11
14.50314614538035
 21
25.13914167739671
 31
0.0
  0
SOLID
  5
BA9
330
AC6
100
AcDbEntity
  8
Dimension (ANSI)
100
AcDbTrace
 10
19.47977986221136
 20
25.18835427470725
 30
0.0
 11
19.47977986221136
 21
25.08992908008616
 31
0.0
 12
19.77505544607462
 22
25.13914167739671
 32
0.0
 13
19.77505544607462
 23
25.13914167739671
 33
0.0
  0
SOLID
  5
BAA
330
AC6
100
AcDbEntity
  8
Dimension (ANSI)
100
AcDbTrace
 10
10.91033102993788
 20
25.18835427470725
 30
0.0
 11
10.91033102993788
 21
25.08992908008616
 31
0.0
 12
10.61505544607462
 22
25.13914167739671
 32
0.0
 13
10.61505544607462
 23
25.13914167739671
 33
0.0
  0
MTEXT
  5
BAB
330
AC6
100
AcDbEntity
  8
Dimension (ANSI)
100
AcDbMText
 10
14.59763433435673
 20
25.32651576140374
 30
0.0
 40
0.3600000143051147
 41
0.0
 71
     1
 72
     1
  1
\A1;9.160
  7
Note Text (ANSI)
 73
     1
 44
1.0
1001
ACAD
1000
MTEXTBEGIN
1070
    73
1070
     1
1070
    44
1040
1.0
1070
    74
1070
     0
1000
MTEXTEND
  0
POINT
  5
BAC
330
AC6
100
AcDbEntity
  8
Defpoints
 62
     0
100
AcDbPoint
 10
19.77505544607462
 20
23.4245473030179
 30
0.0
  0
POINT
  5
BAD
330
AC6
100
AcDbEntity
  8
Defpoints
 62
     0
100
AcDbPoint
 10
10.61505544607462
 20
23.4245473030179
 30
0.0
  0
POINT
  5
BAE
330
AC6
100
AcDbEntity
  8
Defpoints
 62
     0
100
AcDbPoint
 10
10.61505544607462
 20
25.13914167739671
 30
0.0
  0
ENDBLK
  5
AC8
330
AC6
100
AcDbEntity
  8
0
100
AcDbBlockEnd
  0
ENDSEC
  0
SECTION
  2
ENTITIES
  0
MTEXT
  5
74
330
6C
100
AcDbEntity
  8
Symbol (ANSI)
100
AcDbMText
 10
6.55421457215259
 20
31.79254102080861
 30
0.0
 40
0.567000018095407
 41
20.93190244990071
 71
     1
 72
     1
  1
{\fRomanS|b0|i0|c0|p2;PART#: NP1612C\P(DATA SUBJECT TO CHANGE WITHOUT NOTICE)\PTHIS DRAWING AND COMPONENTS OF ARE\PPROPERTY OF HUBBELL INC. WIEGMANN\P }
  7
Note Text (ANSI)
 73
     2
 44
1.093904256820678
1001
ACAD
1000
MTEXTBEGIN
1070
    73
1070
     2
1070
    44
1040
1.093904256820678
1070
    74
1070
     0
1000
MTEXTEND
  0
TEXT
  5
77
330
6C
100
AcDbEntity
  8
0
100
AcDbText
 10
25.97151067420894
 20
28.54511663942901
 30
0.0
 40
0.3942145896604049
  1
HUBBELL
  7
SANSSERIF
100
AcDbText
  0
POLYLINE
  5
79
330
6C
100
AcDbEntity
  8
0
100
AcDb2dPolyline
 66
     1
 10
0.0
 20
0.0
 30
0.0
  0
VERTEX
  5
7A
330
79
100
AcDbEntity
  8
0
100
AcDbVertex
100
AcDb2dVertex
 10
26.17575053031953
 20
28.35035256266506
 30
0.0
 42
0.0538548888021971
  0
VERTEX
  5
7B
330
79
100
AcDbEntity
  8
0
100
AcDbVertex
100
AcDb2dVertex
 10
26.31771356792132
 20
28.23916334055671
 30
0.0
 42
0.0762621633615686
 70
     2
 50
328.0963691854962
  0
VERTEX
  5
7C
330
79
100
AcDbEntity
  8
0
100
AcDbVertex
100
AcDb2dVertex
 10
26.66466335540566
 20
28.09059296057183
 30
0.0
 42
0.0631748622128167
 50
328.0963691854962
  0
VERTEX
  5
7D
330
79
100
AcDbEntity
  8
0
100
AcDbVertex
100
AcDb2dVertex
 10
27.11582968298779
 20
28.03335979824282
 30
0.0
 42
0.0631748622128144
  0
VERTEX
  5
7E
330
79
100
AcDbEntity
  8
0
100
AcDbVertex
100
AcDb2dVertex
 10
27.56699601056994
 20
28.09059296057183
 30
0.0
 42
0.0762621633615716
  0
VERTEX
  5
7F
330
79
100
AcDbEntity
  8
0
100
AcDbVertex
100
AcDb2dVertex
 10
27.91394579805424
 20
28.23916334055671
 30
0.0
 42
0.0538548888021992
 70
     2
 50
31.90363081450366
  0
VERTEX
  5
80
330
79
100
AcDbEntity
  8
0
100
AcDbVertex
100
AcDb2dVertex
 10
28.05590883565608
 20
28.35035256266506
 30
0.0
 42
0.1478388992712208
 50
31.90363081450366
  0
SEQEND
  5
81
330
79
100
AcDbEntity
  8
0
  0
POLYLINE
  5
82
330
6C
100
AcDbEntity
  8
0
100
AcDb2dPolyline
 66
     1
 10
0.0
 20
0.0
 30
0.0
  0
VERTEX
  5
83
330
82
100
AcDbEntity
  8
0
100
AcDbVertex
100
AcDb2dVertex
 10
26.43603108015283
 20
28.39330839751271
 30
0.0
 42
0.0708473647366734
  0
VERTEX
  5
84
330
82
100
AcDbEntity
  8
0
100
AcDbVertex
100
AcDb2dVertex
 10
26.56472638883033
 20
28.23916334055671
 30
0.0
 42
0.0943474025114784
 70
     2
 50
317.9633854595613
  0
VERTEX
  5
85
330
82
100
AcDbEntity
  8
0
100
AcDbVertex
100
AcDb2dVertex
 10
26.8139519657582
 20
28.0878872451067
 30
0.0
 42
0.0895889244631754
 50
317.9633854595613
  0
VERTEX
  5
86
330
82
100
AcDbEntity
  8
0
100
AcDbVertex
100
AcDb2dVertex
 10
27.11582968298779
 20
28.03335979824282
 30
0.0
 42
0.0895889244631755
  0
VERTEX
  5
87
330
82
100
AcDbEntity
  8
0
100
AcDbVertex
100
AcDb2dVertex
 10
27.41770740021739
 20
28.0878872451067
 30
0.0
 42
0.0943474025114826
  0
VERTEX
  5
88
330
82
100
AcDbEntity
  8
0
100
AcDbVertex
100
AcDb2dVertex
 10
27.66693297714527
 20
28.23916334055671
 30
0.0
 42
0.0708473647366705
 70
     2
 50
42.03661454043863
  0
VERTEX
  5
89
330
82
100
AcDbEntity
  8
0
100
AcDbVertex
100
AcDb2dVertex
 10
27.79562828582272
 20
28.39330839751271
 30
0.0
 42
0.1080871028423927
 50
42.03661454043863
  0
SEQEND
  5
8A
330
82
100
AcDbEntity
  8
0
  0
POLYLINE
  5
8B
330
6C
100
AcDbEntity
  8
0
100
AcDb2dPolyline
 66
     1
 10
0.0
 20
0.0
 30
0.0
  0
VERTEX
  5
8C
330
8B
100
AcDbEntity
  8
0
100
AcDbVertex
100
AcDb2dVertex
 10
28.04953779098225
 20
29.12781947303836
 30
0.0
 42
0.0512131062417871
  0
VERTEX
  5
8D
330
8B
100
AcDbEntity
  8
0
100
AcDbVertex
100
AcDb2dVertex
 10
27.91394579805424
 20
29.23287074663393
 30
0.0
 42
0.0762621633615678
 70
     2
 50
148.0963691854963
  0
VERTEX
  5
8E
330
8B
100
AcDbEntity
  8
0
100
AcDbVertex
100
AcDb2dVertex
 10
27.56699601056994
 20
29.38144112661881
 30
0.0
 42
0.0631748622128132
 50
148.0963691854963
  0
VERTEX
  5
8F
330
8B
100
AcDbEntity
  8
0
100
AcDbVertex
100
AcDb2dVertex
 10
27.11582968298779
 20
29.43867428894782
 30
0.0
 42
0.0631748622128155
  0
SEQEND
  5
90
330
8B
100
AcDbEntity
  8
0
  0
POLYLINE
  5
91
330
6C
100
AcDbEntity
  8
0
100
AcDb2dPolyline
 66
     1
 10
0.0
 20
0.0
 30
0.0
  0
VERTEX
  5
92
330
91
100
AcDbEntity
  8
0
100
AcDbVertex
100
AcDb2dVertex
 10
27.79246362712015
 20
29.08379143551135
 30
0.0
 42
0.0687403046083495
  0
VERTEX
  5
93
330
91
100
AcDbEntity
  8
0
100
AcDbVertex
100
AcDb2dVertex
 10
27.66693297714527
 20
29.23287074663393
 30
0.0
 42
0.0943474025114827
 70
     2
 50
137.9633854595613
  0
VERTEX
  5
94
330
91
100
AcDbEntity
  8
0
100
AcDbVertex
100
AcDb2dVertex
 10
27.41770740021739
 20
29.38414684208393
 30
0.0
 42
0.0895889244631755
 50
137.9633854595613
  0
VERTEX
  5
95
330
91
100
AcDbEntity
  8
0
100
AcDbVertex
100
AcDb2dVertex
 10
27.11582968298779
 20
29.43867428894782
 30
0.0
 42
0.0895889244631779
  0
SEQEND
  5
96
330
91
100
AcDbEntity
  8
0
  0
LINE
  5
97
330
6C
100
AcDbEntity
  8
0
100
AcDbLine
 10
28.61360547956994
 20
29.63468252154456
 30
0.0
 11
25.6180538864057
 21
29.63468252154456
 31
0.0
  0
LINE
  5
98
330
6C
100
AcDbEntity
  8
0
100
AcDbLine
 10
25.6180538864057
 20
27.83735156564606
 30
0.0
 11
28.61360547956994
 21
27.83735156564606
 31
0.0
  0
POLYLINE
  5
99
330
6C
100
AcDbEntity
  8
0
100
AcDb2dPolyline
 66
     1
 10
0.0
 20
0.0
 30
0.0
 70
     1
  0
VERTEX
  5
9A
330
99
100
AcDbEntity
  8
0
100
AcDbVertex
100
AcDb2dVertex
 10
25.6180538864057
 20
28.73601704359531
 30
0.0
 42
0.1828233251715505
  0
VERTEX
  5
9B
330
99
100
AcDbEntity
  8
0
100
AcDbVertex
100
AcDb2dVertex
 10
25.70681817322169
 20
28.50137139176839
 30
0.0
 42
0.1025674015815553
  0
VERTEX
  5
9C
330
99
100
AcDbEntity
  8
0
100
AcDbVertex
100
AcDb2dVertex
 10
26.05674226052752
 20
28.23916334055676
 30
0.0
 42
0.0617587255956112
 70
     2
 50
334.8671392208401
  0
VERTEX
  5
9D
330
99
100
AcDbEntity
  8
0
100
AcDbVertex
100
AcDb2dVertex
 10
26.50846323642944
 20
28.09182519037826
 30
0.0
 42
0.0480192641995976
 50
334.8671392208401
  0
VERTEX
  5
9E
330
99
100
AcDbEntity
  8
0
100
AcDbVertex
100
AcDb2dVertex
 10
27.11582968298779
 20
28.03335979824282
 30
0.0
 42
0.0480192641995965
  0
VERTEX
  5
9F
330
99
100
AcDbEntity
  8
0
100
AcDbVertex
100
AcDb2dVertex
 10
27.72319612954618
 20
28.09182519037826
 30
0.0
 42
0.0617587255956115
  0
VERTEX
  5
A0
330
99
100
AcDbEntity
  8
0
100
AcDbVertex
100
AcDb2dVertex
 10
28.17491710544811
 20
28.23916334055676
 30
0.0
 42
0.1025674015815654
 70
     2
 50
25.13286077915987
  0
VERTEX
  5
A1
330
99
100
AcDbEntity
  8
0
100
AcDbVertex
100
AcDb2dVertex
 10
28.52484119275382
 20
28.50137139176839
 30
0.0
 42
0.18282332517157
 50
25.13286077915987
  0
VERTEX
  5
A2
330
99
100
AcDbEntity
  8
0
100
AcDbVertex
100
AcDb2dVertex
 10
28.61360547956994
 20
28.73601704359531
 30
0.0
 42
0.1828233251715568
  0
VERTEX
  5
A3
330
99
100
AcDbEntity
  8
0
100
AcDbVertex
100
AcDb2dVertex
 10
28.52484119275382
 20
28.97066269542226
 30
0.0
 42
0.102567401581563
  0
VERTEX
  5
A4
330
99
100
AcDbEntity
  8
0
100
AcDbVertex
100
AcDb2dVertex
 10
28.17491710544811
 20
29.23287074663386
 30
0.0
 42
0.0617587255956141
 70
     2
 50
154.86713922084
  0
VERTEX
  5
A5
330
99
100
AcDbEntity
  8
0
100
AcDbVertex
100
AcDb2dVertex
 10
27.72319612954618
 20
29.38020889681238
 30
0.0
 42
0.0480192641995983
 50
154.86713922084
  0
VERTEX
  5
A6
330
99
100
AcDbEntity
  8
0
100
AcDbVertex
100
AcDb2dVertex
 10
27.11582968298779
 20
29.43867428894782
 30
0.0
 42
0.0480192641995976
  0
VERTEX
  5
A7
330
99
100
AcDbEntity
  8
0
100
AcDbVertex
100
AcDb2dVertex
 10
26.50846323642944
 20
29.38020889681238
 30
0.0
 42
0.0617587255956112
  0
VERTEX
  5
A8
330
99
100
AcDbEntity
  8
0
100
AcDbVertex
100
AcDb2dVertex
 10
26.05674226052752
 20
29.23287074663386
 30
0.0
 42
0.1025674015815593
 70
     2
 50
205.1328607791599
  0
VERTEX
  5
A9
330
99
100
AcDbEntity
  8
0
100
AcDbVertex
100
AcDb2dVertex
 10
25.70681817322169
 20
28.97066269542226
 30
0.0
 42
0.1828233251715536
 50
205.1328607791599
  0
SEQEND
  5
AA
330
99
100
AcDbEntity
  8
0
  0
ARC
  5
AB
330
6C
100
AcDbEntity
  8
0
100
AcDbCircle
 10
25.6180538864057
 20
29.33512736222814
 30
0.0
 40
0.299555159316417
100
AcDbArc
 50
90.0
 51
180.0
  0
LINE
  5
AC
330
6C
100
AcDbEntity
  8
0
100
AcDbLine
 10
25.31849872708929
 20
29.33512736222814
 30
0.0
 11
25.31849872708929
 21
28.13690672496248
 31
0.0
  0
ARC
  5
AD
330
6C
100
AcDbEntity
  8
0
100
AcDbCircle
 10
25.6180538864057
 20
28.13690672496248
 30
0.0
 40
0.299555159316417
100
AcDbArc
 50
180.0
 51
270.0
  0
POLYLINE
  5
AE
330
6C
100
AcDbEntity
  8
0
100
AcDb2dPolyline
 66
     1
 10
0.0
 20
0.0
 30
0.0
  0
VERTEX
  5
AF
330
AE
100
AcDbEntity
  8
0
100
AcDbVertex
100
AcDb2dVertex
 10
26.80410449913567
 20
28.42741668607295
 30
0.0
 42
0.0570538596573184
  0
VERTEX
  5
B0
330
AE
100
AcDbEntity
  8
0
100
AcDbVertex
100
AcDb2dVertex
 10
26.87138263037976
 20
28.23916334055667
 30
0.0
 42
0.1038195938885091
 70
     2
 50
296.1967246921072
  0
VERTEX
  5
B1
330
AE
100
AcDbEntity
  8
0
100
AcDbVertex
100
AcDb2dVertex
 10
26.99914137934253
 20
28.07593989485105
 30
0.0
 42
0.1767522344444316
 50
296.1967246921072
  0
VERTEX
  5
B2
330
AE
100
AcDbEntity
  8
0
100
AcDbVertex
100
AcDb2dVertex
 10
27.11582968298779
 20
28.03335979824282
 30
0.0
 42
0.1767522344444399
  0
VERTEX
  5
B3
330
AE
100
AcDbEntity
  8
0
100
AcDbVertex
100
AcDb2dVertex
 10
27.23251798663313
 20
28.07593989485105
 30
0.0
 42
0.1038195938885123
  0
VERTEX
  5
B4
330
AE
100
AcDbEntity
  8
0
100
AcDbVertex
100
AcDb2dVertex
 10
27.3602767355958
 20
28.23916334055667
 30
0.0
 42
0.0570538596573163
 70
     2
 50
63.8032753078928
  0
VERTEX
  5
B5
330
AE
100
AcDbEntity
  8
0
100
AcDbVertex
100
AcDb2dVertex
 10
27.42755486683989
 20
28.42741668607295
 30
0.0
 42
0.0503013836282066
 50
63.8032753078928
  0
SEQEND
  5
B6
330
AE
100
AcDbEntity
  8
0
  0
POLYLINE
  5
B7
330
6C
100
AcDbEntity
  8
0
100
AcDb2dPolyline
 66
     1
 10
0.0
 20
0.0
 30
0.0
  0
VERTEX
  5
B8
330
B7
100
AcDbEntity
  8
0
100
AcDbVertex
100
AcDb2dVertex
 10
27.11582968298779
 20
29.43867428894782
 30
0.0
 42
0.1767522344444361
  0
VERTEX
  5
B9
330
B7
100
AcDbEntity
  8
0
100
AcDbVertex
100
AcDb2dVertex
 10
26.99914137934253
 20
29.39609419233956
 30
0.0
 42
0.1038195938884991
  0
VERTEX
  5
BA
330
B7
100
AcDbEntity
  8
0
100
AcDbVertex
100
AcDb2dVertex
 10
26.87138263037976
 20
29.23287074663396
 30
0.0
 42
0.0567223889277798
 70
     2
 50
243.8032753078928
  0
VERTEX
  5
BB
330
B7
100
AcDbEntity
  8
0
100
AcDbVertex
100
AcDb2dVertex
 10
26.80436919056595
 20
29.04574831882901
 30
0.0
 42
0.0503013836282199
 50
243.8032753078928
  0
SEQEND
  5
BC
330
B7
100
AcDbEntity
  8
0
  0
POLYLINE
  5
BD
330
6C
100
AcDbEntity
  8
0
100
AcDb2dPolyline
 66
     1
 10
0.0
 20
0.0
 30
0.0
  0
VERTEX
  5
BE
330
BD
100
AcDbEntity
  8
0
100
AcDbVertex
100
AcDb2dVertex
 10
27.11582968298779
 20
29.43867428894782
 30
0.0
 42
0.0895889244631779
  0
VERTEX
  5
BF
330
BD
100
AcDbEntity
  8
0
100
AcDbVertex
100
AcDb2dVertex
 10
26.8139519657582
 20
29.38414684208393
 30
0.0
 42
0.094347402511486
  0
VERTEX
  5
C0
330
BD
100
AcDbEntity
  8
0
100
AcDbVertex
100
AcDb2dVertex
 10
26.56472638883033
 20
29.23287074663393
 30
0.0
 42
0.0687403046083514
 70
     2
 50
222.0366145404387
  0
VERTEX
  5
C1
330
BD
100
AcDbEntity
  8
0
100
AcDbVertex
100
AcDb2dVertex
 10
26.43919573885544
 20
29.08379143551135
 30
0.0
 42
0.1080871028423927
 50
222.0366145404387
  0
SEQEND
  5
C2
330
BD
100
AcDbEntity
  8
0
  0
POLYLINE
  5
C3
330
6C
100
AcDbEntity
  8
0
100
AcDb2dPolyline
 66
     1
 10
0.0
 20
0.0
 30
0.0
  0
VERTEX
  5
C4
330
C3
100
AcDbEntity
  8
0
100
AcDbVertex
100
AcDb2dVertex
 10
27.11582968298779
 20
29.43867428894782
 30
0.0
 42
0.0631748622128155
  0
VERTEX
  5
C5
330
C3
100
AcDbEntity
  8
0
100
AcDbVertex
100
AcDb2dVertex
 10
26.66466335540566
 20
29.38144112661881
 30
0.0
 42
0.0762621633615699
  0
VERTEX
  5
C6
330
C3
100
AcDbEntity
  8
0
100
AcDbVertex
100
AcDb2dVertex
 10
26.31771356792132
 20
29.23287074663393
 30
0.0
 42
0.0512131062417906
 70
     2
 50
211.9036308145036
  0
VERTEX
  5
C7
330
C3
100
AcDbEntity
  8
0
100
AcDbVertex
100
AcDb2dVertex
 10
26.18212157499335
 20
29.12781947303836
 30
0.0
 42
0.1478388992712295
 50
211.9036308145036
  0
SEQEND
  5
C8
330
C3
100
AcDbEntity
  8
0
  0
POLYLINE
  5
C9
330
6C
100
AcDbEntity
  8
0
100
AcDb2dPolyline
 66
     1
 10
0.0
 20
0.0
 30
0.0
  0
VERTEX
  5
CA
330
C9
100
AcDbEntity
  8
0
100
AcDbVertex
100
AcDb2dVertex
 10
27.42729017540968
 20
29.04574831882901
 30
0.0
 42
0.0567223889277601
  0
VERTEX
  5
CB
330
C9
100
AcDbEntity
  8
0
100
AcDbVertex
100
AcDb2dVertex
 10
27.3602767355958
 20
29.23287074663396
 30
0.0
 42
0.1038195938884991
 70
     2
 50
116.1967246921072
  0
VERTEX
  5
CC
330
C9
100
AcDbEntity
  8
0
100
AcDbVertex
100
AcDb2dVertex
 10
27.23251798663313
 20
29.39609419233956
 30
0.0
 42
0.1767522344444361
 50
116.1967246921072
  0
VERTEX
  5
CD
330
C9
100
AcDbEntity
  8
0
100
AcDbVertex
100
AcDb2dVertex
 10
27.11582968298779
 20
29.43867428894782
 30
0.0
 42
0.1767522344444361
  0
SEQEND
  5
CE
330
C9
100
AcDbEntity
  8
0
  0
ARC
  5
CF
330
6C
100
AcDbEntity
  8
0
100
AcDbCircle
 10
28.61360547956994
 20
29.33512736222814
 30
0.0
 40
0.299555159316417
100
AcDbArc
 50
0.0
 51
90.0
  0
CIRCLE
  5
D0
330
6C
100
AcDbEntity
  8
0
100
AcDbCircle
 10
29.19570242518802
 20
29.48031044400782
 30
0.0
 40
0.1558939992940426
  0
TEXT
  5
D1
330
6C
100
AcDbEntity
  8
0
100
AcDbText
 10
29.09517150711412
 20
29.37610105905152
 30
0.0
 40
0.1829863448987404
  1
R
  7
SANSSERIF
100
AcDbText
  0
LINE
  5
D2
330
6C
100
AcDbEntity
  8
0
100
AcDbLine
 10
28.91316063888627
 20
28.13690672496248
 30
0.0
 11
28.91316063888627
 21
29.33512736222814
 31
0.0
  0
ARC
  5
D3
330
6C
100
AcDbEntity
  8
0
100
AcDbCircle
 10
28.61360547956994
 20
28.13690672496248
 30
0.0
 40
0.299555159316417
100
AcDbArc
 50
270.0
 51
0.0
  0
CIRCLE
  5
183
330
6C
100
AcDbEntity
  8
Visible (ANSI)
100
AcDbCircle
 10
19.77505544607462
 20
23.4245473030179
 30
0.0
 40
0.25
  0
CIRCLE
  5
184
330
6C
100
AcDbEntity
  8
Visible (ANSI)
100
AcDbCircle
 10
10.61505544607462
 20
23.4245473030179
 30
0.0
 40
0.25
  0
CIRCLE
  5
185
330
6C
100
AcDbEntity
  8
Visible (ANSI)
100
AcDbCircle
 10
10.61505544607462
 20
10.2645473030179
 30
0.0
 40
0.25
  0
CIRCLE
  5
186
330
6C
100
AcDbEntity
  8
Visible (ANSI)
100
AcDbCircle
 10
19.77505544607462
 20
10.2645473030179
 30
0.0
 40
0.25
  0
CIRCLE
  5
187
330
6C
100
AcDbEntity
  8
Visible (ANSI)
100
AcDbCircle
 10
19.77505544607462
 20
22.6745473030179
 30
0.0
 40
0.15625
  0
CIRCLE
  5
188
330
6C
100
AcDbEntity
  8
Visible (ANSI)
100
AcDbCircle
 10
10.61505544607462
 20
22.6745473030179
 30
0.0
 40
0.15625
  0
CIRCLE
  5
189
330
6C
100
AcDbEntity
  8
Visible (ANSI)
100
AcDbCircle
 10
10.61505544607462
 20
11.0145473030179
 30
0.0
 40
0.15625
  0
CIRCLE
  5
18A
330
6C
100
AcDbEntity
  8
Visible (ANSI)
100
AcDbCircle
 10
19.77505544607462
 20
11.0145473030179
 30
0.0
 40
0.15625
  0
LINE
  5
18B
330
6C
100
AcDbEntity
  8
Visible (ANSI)
100
AcDbLine
 10
10.09505544607461
 20
23.44454730301789
 30
0.0
 11
10.59505544607461
 21
23.9445473030179
 31
0.0
  0
LINE
  5
18C
330
6C
100
AcDbEntity
  8
Visible (ANSI)
100
AcDbLine
 10
10.09505544607462
 20
10.2445473030179
 30
0.0
 11
10.09505544607461
 21
23.44454730301789
 31
0.0
  0
LINE
  5
18D
330
6C
100
AcDbEntity
  8
Visible (ANSI)
100
AcDbLine
 10
19.79505544607462
 20
9.744547303017901
 30
0.0
 11
10.59505544607462
 21
9.744547303017901
 31
0.0
  0
LINE
  5
18E
330
6C
100
AcDbEntity
  8
Visible (ANSI)
100
AcDbLine
 10
20.29505544607462
 20
23.44454730301789
 30
0.0
 11
20.29505544607462
 21
10.2445473030179
 31
0.0
  0
LINE
  5
18F
330
6C
100
AcDbEntity
  8
Visible (ANSI)
100
AcDbLine
 10
10.59505544607461
 20
23.9445473030179
 30
0.0
 11
19.79505544607462
 21
23.9445473030179
 31
0.0
  0
LINE
  5
190
330
6C
100
AcDbEntity
  8
Visible (ANSI)
100
AcDbLine
 10
10.59505544607462
 20
9.744547303017901
 30
0.0
 11
10.09505544607462
 21
10.2445473030179
 31
0.0
  0
LINE
  5
191
330
6C
100
AcDbEntity
  8
Visible (ANSI)
100
AcDbLine
 10
20.29505544607462
 20
10.2445473030179
 30
0.0
 11
19.79505544607462
 21
9.744547303017901
 31
0.0
  0
LINE
  5
192
330
6C
100
AcDbEntity
  8
Visible (ANSI)
100
AcDbLine
 10
19.79505544607462
 20
23.9445473030179
 30
0.0
 11
20.29505544607462
 21
23.44454730301789
 31
0.0
  0
LINE
  5
193
330
6C
100
AcDbEntity
  8
Visible (ANSI)
100
AcDbLine
 10
32.34416859711473
 20
23.44454730301789
 30
0.0
 11
32.34416859711457
 21
23.9445473030179
 31
0.0
  0
LINE
  5
194
330
6C
100
AcDbEntity
  8
Visible (ANSI)
100
AcDbLine
 10
32.25041859711473
 20
23.44454730301789
 30
0.0
 11
32.34416859711473
 21
23.44454730301789
 31
0.0
  0
LINE
  5
195
330
6C
100
AcDbEntity
  8
Visible (ANSI)
100
AcDbLine
 10
32.25041859711458
 20
23.9445473030179
 30
0.0
 11
32.25041859711473
 21
23.44454730301789
 31
0.0
  0
LINE
  5
196
330
6C
100
AcDbEntity
  8
Visible (ANSI)
100
AcDbLine
 10
32.34416859711457
 20
23.9445473030179
 30
0.0
 11
32.25041859711458
 21
23.9445473030179
 31
0.0
  0
LINE
  5
197
330
6C
100
AcDbEntity
  8
Visible (ANSI)
100
AcDbLine
 10
32.34416859711473
 20
10.2445473030179
 30
0.0
 11
32.34416859711473
 21
23.44454730301789
 31
0.0
  0
LINE
  5
198
330
6C
100
AcDbEntity
  8
Visible (ANSI)
100
AcDbLine
 10
32.25041859711473
 20
23.44454730301789
 30
0.0
 11
32.25041859711473
 21
10.2445473030179
 31
0.0
  0
LINE
  5
199
330
6C
100
AcDbEntity
  8
Visible (ANSI)
100
AcDbLine
 10
32.34416859711457
 20
9.744547303017901
 30
0.0
 11
32.34416859711473
 21
10.2445473030179
 31
0.0
  0
LINE
  5
19A
330
6C
100
AcDbEntity
  8
Visible (ANSI)
100
AcDbLine
 10
32.25041859711458
 20
9.744547303017901
 30
0.0
 11
32.34416859711457
 21
9.744547303017901
 31
0.0
  0
LINE
  5
19B
330
6C
100
AcDbEntity
  8
Visible (ANSI)
100
AcDbLine
 10
32.25041859711473
 20
10.2445473030179
 30
0.0
 11
32.25041859711458
 21
9.744547303017901
 31
0.0
  0
LINE
  5
19C
330
6C
100
AcDbEntity
  8
Visible (ANSI)
100
AcDbLine
 10
32.34416859711473
 20
10.2445473030179
 30
0.0
 11
32.25041859711473
 21
10.2445473030179
 31
0.0
  0
LINE
  5
19D
330
6C
100
AcDbEntity
  8
Hidden (ANSI)
 48
0.0594217702746391
100
AcDbLine
 10
32.25041859711457
 20
23.6745473030179
 30
0.0
 11
32.34416859711457
 21
23.6745473030179
 31
0.0
  0
LINE
  5
19E
330
6C
100
AcDbEntity
  8
Hidden (ANSI)
 48
0.0594217702746391
100
AcDbLine
 10
32.25041859711457
 20
23.1745473030179
 30
0.0
 11
32.34416859711457
 21
23.1745473030179
 31
0.0
  0
LINE
  5
19F
330
6C
100
AcDbEntity
  8
Hidden (ANSI)
 48
0.0594217702746391
100
AcDbLine
 10
32.25041859711457
 20
10.5145473030179
 30
0.0
 11
32.34416859711457
 21
10.5145473030179
 31
0.0
  0
LINE
  5
1A0
330
6C
100
AcDbEntity
  8
Hidden (ANSI)
 48
0.0594217702746391
100
AcDbLine
 10
32.25041859711457
 20
10.0145473030179
 30
0.0
 11
32.34416859711457
 21
10.0145473030179
 31
0.0
  0
LINE
  5
1A1
330
6C
100
AcDbEntity
  8
Hidden (ANSI)
 48
0.0594217702746391
100
AcDbLine
 10
32.25041859711457
 20
22.8307973030179
 30
0.0
 11
32.34416859711457
 21
22.8307973030179
 31
0.0
  0
LINE
  5
1A2
330
6C
100
AcDbEntity
  8
Hidden (ANSI)
 48
0.0594217702746391
100
AcDbLine
 10
32.25041859711457
 20
22.5182973030179
 30
0.0
 11
32.34416859711457
 21
22.5182973030179
 31
0.0
  0
LINE
  5
1A3
330
6C
100
AcDbEntity
  8
Hidden (ANSI)
 48
0.0594217702746391
100
AcDbLine
 10
32.25041859711457
 20
11.1707973030179
 30
0.0
 11
32.34416859711457
 21
11.1707973030179
 31
0.0
  0
LINE
  5
1A4
330
6C
100
AcDbEntity
  8
Hidden (ANSI)
 48
0.0594217702746391
100
AcDbLine
 10
32.25041859711457
 20
10.8582973030179
 30
0.0
 11
32.34416859711457
 21
10.8582973030179
 31
0.0
  0
ELLIPSE
  5
1A5
330
6C
100
AcDbEntity
  8
Visible (ANSI)
100
AcDbEllipse
 10
47.44661367210145
 20
25.84219450983516
 30
0.0
 11
-0.0935685396720754
 21
0.1624843942772215
 31
0.0
210
0.0
220
0.0
230
1.0
 40
0.5780931159158121
 41
0.26784487781253
 42
2.873747775777265
  0
ELLIPSE
  5
1A6
330
6C
100
AcDbEntity
  8
Visible (ANSI)
100
AcDbEllipse
 10
47.39689522654928
 20
25.81356356120913
 30
0.0
 11
-0.0935685396720749
 21
0.1624843942772207
 31
0.0
210
0.0
220
0.0
230
1.0
 40
0.5780931159158121
 41
0.0
 42
6.283185307179586
  0
ELLIPSE
  5
1A7
330
6C
100
AcDbEntity
  8
Visible (ANSI)
100
AcDbEllipse
 10
42.58879008534917
 20
28.63962906358807
 30
0.0
 11
-0.0935685396720747
 21
0.1624843942772202
 31
0.0
210
0.0
220
0.0
230
1.0
 40
0.5780931159158122
 41
0.2678448778125539
 42
2.873747775777265
  0
ELLIPSE
  5
1A8
330
6C
100
AcDbEntity
  8
Visible (ANSI)
100
AcDbEllipse
 10
42.53907163979699
 20
28.61099811496204
 30
0.0
 11
-0.0935685396720749
 21
0.1624843942772207
 31
0.0
210
0.0
220
0.0
230
1.0
 40
0.5780931159158121
 41
0.0
 42
6.283185307179586
  0
ELLIPSE
  5
1A9
330
6C
100
AcDbEntity
  8
Visible (ANSI)
100
AcDbEllipse
 10
42.58879008534915
 20
20.57043894139217
 30
0.0
 11
-0.0935685396720749
 21
0.1624843942772207
 31
0.0
210
0.0
220
0.0
230
1.0
 40
0.5780931159158121
 41
0.267844877812554
 42
2.873747775777265
  0
ELLIPSE
  5
1AA
330
6C
100
AcDbEntity
  8
Visible (ANSI)
100
AcDbEllipse
 10
42.53907163979699
 20
20.54180799276614
 30
0.0
 11
-0.0935685396720749
 21
0.1624843942772207
 31
0.0
210
0.0
220
0.0
230
1.0
 40
0.5780931159158121
 41
0.0
 42
6.283185307179586
  0
ELLIPSE
  5
1AB
330
6C
100
AcDbEntity
  8
Visible (ANSI)
100
AcDbEllipse
 10
47.44661367210144
 20
17.77300438763926
 30
0.0
 11
-0.093568539672075
 21
0.1624843942772209
 31
0.0
210
0.0
220
0.0
230
1.0
 40
0.5780931159158121
 41
0.2678448778125428
 42
2.873747775777259
  0
ELLIPSE
  5
1AC
330
6C
100
AcDbEntity
  8
Visible (ANSI)
100
AcDbEllipse
 10
47.39689522654927
 20
17.74437343901323
 30
0.0
 11
-0.0935685396720749
 21
0.1624843942772207
 31
0.0
210
0.0
220
0.0
230
1.0
 40
0.5780931159158121
 41
0.0
 42
6.283185307179586
  0
ELLIPSE
  5
1AD
330
6C
100
AcDbEntity
  8
Visible (ANSI)
100
AcDbEllipse
 10
47.44661367210145
 20
25.38232425211123
 30
0.0
 11
0.0584803372950528
 21
-0.1015527464232593
 31
0.0
210
0.0
220
0.0
230
1.0
 40
0.5780931159158121
 41
3.578838513251547
 42
5.845939447516956
  0
ELLIPSE
  5
1AE
330
6C
100
AcDbEntity
  8
Visible (ANSI)
100
AcDbEllipse
 10
47.39689522654928
 20
25.3536933034852
 30
0.0
 11
-0.0584803372950468
 21
0.1015527464232629
 31
0.0
210
0.0
220
0.0
230
1.0
 40
0.5780931159158122
 41
0.0
 42
6.283185307179586
  0
ELLIPSE
  5
1AF
330
6C
100
AcDbEntity
  8
Visible (ANSI)
100
AcDbEllipse
 10
42.58879008534916
 20
28.17975880586413
 30
0.0
 11
0.058480337295053
 21
-0.1015527464232596
 31
0.0
210
0.0
220
0.0
230
1.0
 40
0.5780931159158121
 41
3.578838513251547
 42
5.845939447516957
  0
ELLIPSE
  5
1B0
330
6C
100
AcDbEntity
  8
Visible (ANSI)
100
AcDbEllipse
 10
42.53907163979699
 20
28.1511278572381
 30
0.0
 11
-0.0584803372950468
 21
0.1015527464232629
 31
0.0
210
0.0
220
0.0
230
1.0
 40
0.5780931159158122
 41
0.0
 42
6.283185307179586
  0
ELLIPSE
  5
1B1
330
6C
100
AcDbEntity
  8
Visible (ANSI)
100
AcDbEllipse
 10
42.58879008534916
 20
21.0303091991161
 30
0.0
 11
0.0584803372950529
 21
-0.1015527464232594
 31
0.0
210
0.0
220
0.0
230
1.0
 40
0.5780931159158121
 41
3.578838513251547
 42
5.845939447516956
  0
ELLIPSE
  5
1B2
330
6C
100
AcDbEntity
  8
Visible (ANSI)
100
AcDbEllipse
 10
42.53907163979699
 20
21.00167825049007
 30
0.0
 11
-0.0584803372950468
 21
0.1015527464232629
 31
0.0
210
0.0
220
0.0
230
1.0
 40
0.5780931159158122
 41
0.0
 42
6.283185307179586
  0
ELLIPSE
  5
1B3
330
6C
100
AcDbEntity
  8
Visible (ANSI)
100
AcDbEllipse
 10
47.44661367210144
 20
18.23287464536319
 30
0.0
 11
0.0584803372950533
 21
-0.1015527464232601
 31
0.0
210
0.0
220
0.0
230
1.0
 40
0.5780931159158121
 41
3.578838513251547
 42
5.845939447516949
  0
ELLIPSE
  5
1B4
330
6C
100
AcDbEntity
  8
Visible (ANSI)
100
AcDbEllipse
 10
47.39689522654927
 20
18.20424369673716
 30
0.0
 11
-0.0584803372950468
 21
0.1015527464232629
 31
0.0
210
0.0
220
0.0
230
1.0
 40
0.5780931159158122
 41
0.0
 42
6.283185307179586
  0
LINE
  5
1B5
330
6C
100
AcDbEntity
  8
Visible (ANSI)
100
AcDbLine
 10
42.2632999951342
 20
28.78206765021366
 30
0.0
 11
42.52846503807918
 21
28.93594942935751
 31
0.0
  0
LINE
  5
1B6
330
6C
100
AcDbEntity
  8
Visible (ANSI)
100
AcDbLine
 10
42.52846503807918
 20
28.93594942935751
 30
0.0
 11
42.57818348363136
 21
28.96458037798354
 31
0.0
  0
LINE
  5
1B7
330
6C
100
AcDbEntity
  8
Visible (ANSI)
100
AcDbLine
 10
42.2632999951342
 20
20.68835111427249
 30
0.0
 11
42.2632999951342
 21
28.78206765021366
 31
0.0
  0
LINE
  5
1B8
330
6C
100
AcDbEntity
  8
Visible (ANSI)
100
AcDbLine
 10
47.45722027381925
 20
26.15492995281686
 30
0.0
 11
42.57818348363136
 21
28.96458037798354
 31
0.0
  0
LINE
  5
1B9
330
6C
100
AcDbEntity
  8
Visible (ANSI)
100
AcDbLine
 10
47.72238531676424
 20
17.60193485238763
 30
0.0
 11
47.72238531676424
 21
25.69565138832881
 31
0.0
  0
LINE
  5
1BA
330
6C
100
AcDbEntity
  8
Visible (ANSI)
100
AcDbLine
 10
47.40750182826707
 20
17.41942212461776
 30
0.0
 11
42.52846503807918
 21
20.22907254978443
 31
0.0
  0
LINE
  5
1BB
330
6C
100
AcDbEntity
  8
Visible (ANSI)
100
AcDbLine
 10
47.67266687121208
 20
25.66702043970278
 30
0.0
 11
47.67266687121207
 21
17.57330390376161
 31
0.0
  0
LINE
  5
1BC
330
6C
100
AcDbEntity
  8
Visible (ANSI)
100
AcDbLine
 10
42.52846503807918
 20
28.93594942935751
 30
0.0
 11
47.40750182826707
 21
26.12629900419084
 31
0.0
  0
LINE
  5
1BD
330
6C
100
AcDbEntity
  8
Visible (ANSI)
100
AcDbLine
 10
47.72238531676424
 20
25.69565138832881
 30
0.0
 11
47.45722027381925
 21
26.15492995281686
 31
0.0
  0
LINE
  5
1BE
330
6C
100
AcDbEntity
  8
Visible (ANSI)
100
AcDbLine
 10
47.67266687121208
 20
25.66702043970278
 30
0.0
 11
47.72238531676424
 21
25.69565138832881
 31
0.0
  0
LINE
  5
1BF
330
6C
100
AcDbEntity
  8
Visible (ANSI)
100
AcDbLine
 10
47.40750182826707
 20
26.12629900419084
 30
0.0
 11
47.67266687121208
 21
25.66702043970278
 31
0.0
  0
LINE
  5
1C0
330
6C
100
AcDbEntity
  8
Visible (ANSI)
100
AcDbLine
 10
47.45722027381925
 20
26.15492995281686
 30
0.0
 11
47.40750182826707
 21
26.12629900419084
 31
0.0
  0
LINE
  5
1C1
330
6C
100
AcDbEntity
  8
Visible (ANSI)
100
AcDbLine
 10
47.45722027381925
 20
17.44805307324378
 30
0.0
 11
47.72238531676424
 21
17.60193485238763
 31
0.0
  0
LINE
  5
1C2
330
6C
100
AcDbEntity
  8
Visible (ANSI)
100
AcDbLine
 10
47.40750182826707
 20
17.41942212461776
 30
0.0
 11
47.45722027381925
 21
17.44805307324378
 31
0.0
  0
LINE
  5
1C3
330
6C
100
AcDbEntity
  8
Visible (ANSI)
100
AcDbLine
 10
47.67266687121207
 20
17.57330390376161
 30
0.0
 11
47.40750182826707
 21
17.41942212461776
 31
0.0
  0
LINE
  5
1C4
330
6C
100
AcDbEntity
  8
Visible (ANSI)
100
AcDbLine
 10
47.72238531676424
 20
17.60193485238763
 30
0.0
 11
47.67266687121207
 21
17.57330390376161
 31
0.0
  0
LINE
  5
1C5
330
6C
100
AcDbEntity
  8
Visible (ANSI)
100
AcDbLine
 10
42.52846503807918
 20
20.22907254978443
 30
0.0
 11
42.2632999951342
 21
20.68835111427249
 31
0.0
  0
DIMENSION
  5
1C6
330
6C
100
AcDbEntity
  8
Dimension (ANSI)
100
AcDbDimension
  2
*D4
 10
7.287968831901395
 20
23.9445473030179
 30
0.0
 11
7.28796883190139
 21
16.8445473030179
 31
0.0
 70
   160
  1
<>
 42
14.2
  3
Default (ANSI)
100
AcDbAlignedDimension
 13
10.59505544607462
 23
9.744547303017901
 33
0.0
 14
10.59505544607461
 24
23.9445473030179
 34
0.0
 50
90.0
100
AcDbRotatedDimension
1001
ACAD
1000
DSTYLE
1002
{
1070
   289
1070
     1
1070
   271
1070
     2
1070
   272
1070
     2
1070
    48
1040
0.0
1070
    47
1040
0.0
1002
}
  0
DIMENSION
  5
2B3
330
6C
100
AcDbEntity
  8
Dimension (ANSI)
100
AcDbDimension
  2
*D5
 10
20.29505544607461
 20
26.04297249986829
 30
0.0
 11
15.19505544607461
 21
26.04297249986829
 31
0.0
 70
   160
  1
<>
 42
10.2
  3
Default (ANSI)
100
AcDbAlignedDimension
 13
10.09505544607461
 23
23.44454730301789
 33
0.0
 14
20.29505544607461
 24
23.44454730301789
 34
0.0
100
AcDbRotatedDimension
1001
ACAD
1000
DSTYLE
1002
{
1070
   289
1070
     1
1070
    73
1070
     0
1070
    74
1070
     0
1070
   271
1070
     2
1070
   272
1070
     2
1070
    48
1040
0.0
1070
    47
1040
0.0
1002
}
  0
DIMENSION
  5
39D
330
6C
100
AcDbEntity
  8
Dimension (ANSI)
100
AcDbDimension
  2
*D6
 10
9.887450607296727
 20
11.0145473030179
 30
0.0
 11
9.04025229646832
 21
9.40464830873346
 31
0.0
 70
   160
  1
<>
 42
0.7500000000000018
  3
Default (ANSI)
100
AcDbAlignedDimension
 13
10.61505544607462
 23
10.2645473030179
 33
0.0
 14
10.61505544607462
 24
11.0145473030179
 34
0.0
 50
90.0
100
AcDbRotatedDimension
1001
ACAD
1000
DSTYLE
1002
{
1070
   289
1070
     1
1070
   271
1070
     2
1070
   272
1070
     2
1070
    48
1040
0.0
1070
    47
1040
0.0
1002
}
  0
DIMENSION
  5
496
330
6C
100
AcDbEntity
  8
Dimension (ANSI)
100
AcDbDimension
  2
*D7
 10
22.51407260702938
 20
23.4245473030179
 30
0.0
 11
21.66481922560218
 21
22.44748343530084
 31
0.0
 70
   160
  1
<>
 42
0.5199999999999996
  3
Default (ANSI)
100
AcDbAlignedDimension
 13
19.79505544607462
 23
23.9445473030179
 33
0.0
 14
19.77505544607462
 24
23.4245473030179
 34
0.0
 50
270.0
100
AcDbRotatedDimension
1001
ACAD
1000
DSTYLE
1002
{
1070
   289
1070
     1
1070
   271
1070
     2
1070
   272
1070
     2
1070
    48
1040
0.0
1070
    47
1040
0.0
1002
}
  0
DIMENSION
  5
594
330
6C
100
AcDbEntity
  8
Dimension (ANSI)
100
AcDbDimension
  2
*D8
 10
19.77505544607462
 20
25.13914167739671
 30
0.0
 11
21.73745171587675
 21
25.13914167739671
 31
0.0
 70
   160
  1
<>
 42
0.5199999999999925
  3
Default (ANSI)
100
AcDbAlignedDimension
 13
20.29505544607461
 23
23.44454730301789
 33
0.0
 14
19.77505544607462
 24
23.4245473030179
 34
0.0
 50
180.0
100
AcDbRotatedDimension
1001
ACAD
1000
DSTYLE
1002
{
1070
   289
1070
     1
1070
    73
1070
     0
1070
    74
1070
     0
1070
   271
1070
     2
1070
   272
1070
     2
1070
    48
1040
0.0
1070
    47
1040
0.0
1002
}
  0
DIMENSION
  5
67E
330
6C
100
AcDbEntity
  8
Dimension (ANSI)
100
AcDbDimension
  2
*D9
 10
8.304888459068394
 20
23.4245473030179
 30
0.0
 11
8.30488845906839
 21
18.90340440416071
 31
0.0
 70
   160
  1
<>
 42
13.16
  3
Default (ANSI)
100
AcDbAlignedDimension
 13
10.61505544607462
 23
10.2645473030179
 33
0.0
 14
10.61505544607462
 24
23.4245473030179
 34
0.0
 50
90.0
100
AcDbRotatedDimension
1001
ACAD
1000
DSTYLE
1002
{
1070
   289
1070
     1
1070
   271
1070
     3
1070
   272
1070
     3
1070
    48
1040
0.0
1070
    47
1040
0.0
1002
}
  0
MTEXT
  5
768
102
{ACAD_REACTORS
330
769
102
}
330
6C
100
AcDbEntity
  8
Symbol (ANSI)
100
AcDbMText
 10
33.85890224937558
 20
19.02446166071895
 30
0.0
 40
0.3600000044492286
 41
1.472382517311516
 71
     1
 72
     1
  1
{12 GA.}
  7
Note Text (ANSI)
 73
     1
 44
1.0
1001
ACAD
1000
MTEXTBEGIN
1070
    73
1070
     1
1070
    44
1040
1.0
1070
    74
1070
     0
1000
MTEXTEND
  0
LEADER
  5
769
330
6C
100
AcDbEntity
  8
Symbol (ANSI)
100
AcDbLeader
  3
Default (ANSI)$7
 73
     0
 74
     0
 75
     1
 40
0.374506384749399
 41
1.371820030386113
 76
     3
 10
32.34416859711473
 20
17.62500359678563
 30
0.0
 10
33.46913847653594
 20
18.84446165849434
 30
0.0
 10
33.7644140603992
 20
18.84446165849434
 30
0.0
340
768
213
0.0
223
-0.1800000022246143
233
0.0
1001
ACAD
1000
DSTYLE
1002
{
1070
    77
1070
     0
1002
}
  0
DIMENSION
  5
76A
330
6C
100
AcDbEntity
  8
Dimension (ANSI)
100
AcDbDimension
  2
*D10
 10
20.62605822131148
 20
10.2445473030179
 30
0.0
 11
21.47615780827934
 21
11.10444629730234
 31
0.0
 70
   160
  1
<>
 42
0.5000000000000036
  3
Default (ANSI)
100
AcDbAlignedDimension
 13
19.79505544607462
 23
9.744547303017901
 33
0.0
 14
20.29505544607462
 24
10.2445473030179
 34
0.0
 50
90.0
100
AcDbRotatedDimension
1001
ACAD
1000
DSTYLE
1002
{
1070
   289
1070
     1
1070
   271
1070
     2
1070
   272
1070
     2
1070
    48
1040
0.0
1070
    47
1040
0.0
1002
}
  0
DIMENSION
  5
868
330
6C
100
AcDbEntity
  8
Dimension (ANSI)
100
AcDbDimension
  2
*D11
 10
19.79505544607462
 20
8.563444940813177
 30
0.0
 11
18.47811129611956
 21
8.563444940813177
 31
0.0
 70
   160
  1
<>
 42
0.5
  3
Default (ANSI)
100
AcDbAlignedDimension
 13
20.29505544607462
 23
10.2445473030179
 33
0.0
 14
19.79505544607462
 24
9.744547303017901
 34
0.0
 50
180.0
100
AcDbRotatedDimension
1001
ACAD
1000
DSTYLE
1002
{
1070
   289
1070
     1
1070
    73
1070
     0
1070
    74
1070
     0
1070
   271
1070
     2
1070
   272
1070
     2
1070
    48
1040
0.0
1070
    47
1040
0.0
1002
}
  0
DIMENSION
  5
952
330
6C
100
AcDbEntity
  8
Dimension (ANSI)
100
AcDbDimension
  2
*D12
 10
10.76861244010742
 20
23.22726514573142
 30
0.0
 11
7.32110722571755
 21
25.59203464710709
 31
0.0
 70
   163
  1
<>{\PTYP.(4PL.)}
 71
     3
 42
0.5
  3
Default (ANSI)
100
AcDbDiametricDimension
 15
10.46149845204181
 25
23.62182946030439
 35
0.0
 40
0.0
1001
ACAD_DSTYLE_DIMRADIAL_EXTENSION
1070
   387
1070
     1
1070
   388
1040
0.0
1070
   390
1040
0.0
1001
ACAD
1000
DSTYLE
1002
{
1070
   145
1040
-0.25
1070
   144
1040
1.0
1070
   271
1070
     2
1070
   272
1070
     2
1070
    48
1040
0.0
1070
    47
1040
0.0
1002
}
  0
DIMENSION
  5
A0C
330
6C
100
AcDbEntity
  8
Dimension (ANSI)
100
AcDbDimension
  2
*D13
 10
10.5612601421116
 20
11.16124470507917
 30
0.0
 11
13.15260489029813
 21
8.687412283821529
 31
0.0
 70
   163
  1
<>{\PTYP. (4PL.)}
 42
0.3125
  3
Default (ANSI)
100
AcDbDiametricDimension
 15
10.66885075003765
 25
10.86784990095662
 35
0.0
 40
0.0
1001
ACAD_DSTYLE_DIMRADIAL_EXTENSION
1070
   387
1070
     1
1070
   388
1040
0.0
1070
   390
1040
0.0
1001
ACAD
1000
DSTYLE
1002
{
1070
   145
1040
-0.25
1070
   144
1040
0.9999999999999772
1070
   271
1070
     2
1070
   272
1070
     2
1070
    48
1040
0.0
1070
    47
1040
0.0
1002
}
  0
DIMENSION
  5
AC5
330
6C
100
AcDbEntity
  8
Dimension (ANSI)
100
AcDbDimension
  2
*D14
 10
10.61505544607462
 20
25.13914167739671
 30
0.0
 11
15.19505544607462
 21
25.13914167739671
 31
0.0
 70
   160
  1
<>
 42
9.160000000000001
  3
Default (ANSI)
100
AcDbAlignedDimension
 13
19.77505544607462
 23
23.4245473030179
 33
0.0
 14
10.61505544607462
 24
23.4245473030179
 34
0.0
 50
180.0
100
AcDbRotatedDimension
1001
ACAD
1000
DSTYLE
1002
{
1070
   289
1070
     1
1070
    73
1070
     0
1070
    74
1070
     0
1070
   271
1070
     3
1070
   272
1070
     3
1070
    48
1040
0.0
1070
    47
1040
0.0
1002
}
  0
ENDSEC
  0
SECTION
  2
OBJECTS
  0
DICTIONARY
  5
C
330
0
100
AcDbDictionary
281
     1
  3
ACAD_CIP_PREVIOUS_PRODUCT_INFO
350
BAF
  3
ACAD_COLOR
350
63
  3
ACAD_GROUP
350
D
  3
ACAD_LAYOUT
350
62
  3
ACAD_MATERIAL
350
10
  3
ACAD_MLEADERSTYLE
350
66
  3
ACAD_MLINESTYLE
350
5F
  3
ACAD_PLOTSETTINGS
350
61
  3
ACAD_PLOTSTYLENAME
350
E
  3
ACAD_SCALELIST
350
42
  3
ACAD_TABLESTYLE
350
64
  3
ACAD_VISUALSTYLE
350
29
  3
ACDB_RECOMPOSE_DATA
350
BBE
  3
AcDbVariableDictionary
350
D8
  3
DWGPROPS
350
BBF
  0
DICTIONARY
  5
BFB
330
A06
100
AcDbDictionary
280
     1
281
     1
  3
ACAD_MTEXT_RT
360
BFC
  0
DICTIONARY
  5
BFD
330
ABF
100
AcDbDictionary
280
     1
281
     1
  3
ACAD_MTEXT_RT
360
BFE
  0
XRECORD
  5
BAF
102
{ACAD_REACTORS
330
C
102
}
330
C
100
AcDbXrecord
280
     1
300
INVNTOR
300
2012
300
85795PDSP_2012_0F
  0
DICTIONARY
  5
63
102
{ACAD_REACTORS
330
C
102
}
330
C
100
AcDbDictionary
281
     1
  0
DICTIONARY
  5
D
102
{ACAD_REACTORS
330
C
102
}
330
C
100
AcDbDictionary
281
     1
  0
DICTIONARY
  5
62
102
{ACAD_REACTORS
330
C
102
}
330
C
100
AcDbDictionary
281
     1
  3
Layout1
350
6B
  3
Layout2
350
73
  3
Model
350
6F
  0
DICTIONARY
  5
10
102
{ACAD_REACTORS
330
C
102
}
330
C
100
AcDbDictionary
281
     1
  3
ByBlock
350
19
  3
ByLayer
350
11
  3
Global
350
21
  0
DICTIONARY
  5
66
102
{ACAD_REACTORS
330
C
102
}
330
C
100
AcDbDictionary
281
     1
  3
Standard
350
67
  0
DICTIONARY
  5
5F
102
{ACAD_REACTORS
330
C
102
}
330
C
100
AcDbDictionary
281
     1
  3
Standard
350
60
  0
DICTIONARY
  5
61
102
{ACAD_REACTORS
330
C
102
}
330
C
100
AcDbDictionary
281
     1
  0
ACDBDICTIONARYWDFLT
  5
E
102
{ACAD_REACTORS
330
C
102
}
330
C
100
AcDbDictionary
281
     1
  3
Normal
350
F
100
AcDbDictionaryWithDefault
340
F
  0
DICTIONARY
  5
42
102
{ACAD_REACTORS
330
C
102
}
330
C
100
AcDbDictionary
281
     1
  3
A0
350
43
  3
A1
350
44
  3
A2
350
45
  3
A3
350
46
  3
A4
350
47
  3
A5
350
48
  3
A6
350
49
  3
A7
350
4A
  3
A8
350
4B
  3
A9
350
4C
  3
B0
350
4D
  3
B1
350
4E
  3
B2
350
4F
  3
B3
350
50
  3
B4
350
51
  3
B5
350
52
  3
B6
350
53
  0
DICTIONARY
  5
64
102
{ACAD_REACTORS
330
C
102
}
330
C
100
AcDbDictionary
281
     1
  3
Standard
350
65
  0
DICTIONARY
  5
29
102
{ACAD_REACTORS
330
C
102
}
330
C
100
AcDbDictionary
281
     1
  3
2dWireframe
350
2F
  3
Basic
350
2E
  3
Brighten
350
35
  3
ColorChange
350
39
  3
Conceptual
350
32
  3
Dim
350
34
  3
EdgeColorOff
350
41
  3
Facepattern
350
38
  3
Flat
350
2A
  3
FlatWithEdges
350
2B
  3
Gouraud
350
2C
  3
GouraudWithEdges
350
2D
  3
Hidden
350
31
  3
JitterOff
350
3F
  3
Linepattern
350
37
  3
OverhangOff
350
40
  3
Realistic
350
33
  3
Shaded
350
3E
  3
Shaded with edges
350
3D
  3
Shades of Gray
350
3A
  3
Sketchy
350
3B
  3
Thicken
350
36
  3
Wireframe
350
30
  3
X-Ray
350
3C
  0
XRECORD
  5
BBE
102
{ACAD_REACTORS
330
C
102
}
330
C
100
AcDbXrecord
280
     1
 90
        1
330
65
  0
DICTIONARY
  5
D8
102
{ACAD_REACTORS
330
C
102
}
330
C
100
AcDbDictionary
281
     1
  3
CANNOSCALE
350
DB
  3
CMLEADERSTYLE
350
DA
  3
CTABLESTYLE
350
D9
  3
DIMASSOC
350
BB7
  3
HIDETEXT
350
BB6
  3
INDEXCTL
350
BB5
  3
LAYEREVAL
350
BB2
  3
LAYERNOTIFY
350
BB3
  3
LIGHTINGUNITS
350
BB1
  3
MSLTSCALE
350
BB0
  3
SORTENTS
350
BB4
  3
XCLIPFRAME
350
BB8
  0
XRECORD
  5
BBF
102
{ACAD_REACTORS
330
C
102
}
330
C
100
AcDbXrecord
280
     1
  1
DWGPROPS COOKIE
  2

  3

  4
EC
  6

  7

  8

  9
-
300
Manager=
301
Company=
302
Category=
303
Part Number=NP1612C
304
Description=NPC PANEL MASTER VIEW
305
Project=
306
Designer=EC
307
Engineer=
308
Authority=
309
Cost Center=
 40
0.0000365393518519
 41
2455944.46025478
 42
2455944.46025478
  1

 90
       20
300
Vendor=
300
User Status=
300
Design Status=WorkInProgress
300
Checked by=JG
300
Date Checked=02/19/2009
300
Engr Approved by=
300
Mfg Approved by=
300
DWG. NO=
300
NUMBER OF SHEETS=1
300
DRAWING #=1
  0
XRECORD
  5
BFC
102
{ACAD_REACTORS
330
BFB
102
}
330
BFB
100
AcDbXrecord
280
     1
 40
29624.0
  1
\A1;\U+22050.50{\PTYP.(4PL.)}
  0
XRECORD
  5
BFE
102
{ACAD_REACTORS
330
BFD
102
}
330
BFD
100
AcDbXrecord
280
     1
 40
30807.0
  1
\A1;\U+22050.31{\PTYP. (4PL.)}
  0
LAYOUT
  5
6B
102
{ACAD_XDICTIONARY
360
BF5
102
}
102
{ACAD_REACTORS
330
62
102
}
330
62
100
AcDbPlotSettings
  1

  2

  4

  6

 40
0.0
 41
0.0
 42
0.0
 43
0.0
 44
0.0
 45
0.0
 46
0.0
 47
0.0
 48
0.0
 49
0.0
140
0.0
141
0.0
142
1.0
143
1.0
 70
   688
 72
     0
 73
     0
 74
     5
  7

 75
    16
147
1.0
148
0.0
149
0.0
100
AcDbLayout
  1
Layout1
 70
     1
 71
     1
 10
0.0
 20
0.0
 11
12.0
 21
9.0
 12
0.0
 22
0.0
 32
0.0
 14
0.0
 24
0.0
 34
0.0
 15
0.0
 25
0.0
 35
0.0
146
0.0
 13
0.0
 23
0.0
 33
0.0
 16
1.0
 26
0.0
 36
0.0
 17
0.0
 27
1.0
 37
0.0
 76
     0
330
68
  0
LAYOUT
  5
73
102
{ACAD_XDICTIONARY
360
BF9
102
}
102
{ACAD_REACTORS
330
62
102
}
330
62
100
AcDbPlotSettings
  1

  2

  4

  6

 40
0.0
 41
0.0
 42
0.0
 43
0.0
 44
0.0
 45
0.0
 46
0.0
 47
0.0
 48
0.0
 49
0.0
140
0.0
141
0.0
142
1.0
143
1.0
 70
   688
 72
     0
 73
     0
 74
     5
  7

 75
    16
147
1.0
148
0.0
149
0.0
100
AcDbLayout
  1
Layout2
 70
     1
 71
     2
 10
0.0
 20
0.0
 11
12.0
 21
9.0
 12
0.0
 22
0.0
 32
0.0
 14
0.0
 24
0.0
 34
0.0
 15
0.0
 25
0.0
 35
0.0
146
0.0
 13
0.0
 23
0.0
 33
0.0
 16
1.0
 26
0.0
 36
0.0
 17
0.0
 27
1.0
 37
0.0
 76
     0
330
70
  0
LAYOUT
  5
6F
102
{ACAD_XDICTIONARY
360
BF7
102
}
102
{ACAD_REACTORS
330
62
102
}
330
62
100
AcDbPlotSettings
  1

  2

  4

  6

 40
0.0
 41
0.0
 42
0.0
 43
0.0
 44
0.0
 45
0.0
 46
0.0
 47
0.0
 48
0.0
 49
0.0
140
0.0
141
0.0
142
1.0
143
1.0
 70
  1712
 72
     0
 73
     0
 74
     0
  7

 75
     0
147
1.0
148
0.0
149
0.0
100
AcDbLayout
  1
Model
 70
     1
 71
     0
 10
0.0
 20
0.0
 11
12.0
 21
9.0
 12
0.0
 22
0.0
 32
0.0
 14
0.0
 24
0.0
 34
0.0
 15
0.0
 25
0.0
 35
0.0
146
0.0
 13
0.0
 23
0.0
 33
0.0
 16
1.0
 26
0.0
 36
0.0
 17
0.0
 27
1.0
 37
0.0
 76
     0
330
6C
  0
MATERIAL
  5
19
102
{ACAD_XDICTIONARY
360
1A
102
}
102
{ACAD_REACTORS
330
10
102
}
330
10
100
AcDbMaterial
  1
ByBlock
 72
     0
 43
0.0208333333333333
 43
0.0
 43
0.0
 43
0.0
 43
0.0
 43
0.0208333333333333
 43
0.0
 43
0.0
 43
0.0
 43
0.0
 43
1.0
 43
0.0
 43
0.0
 43
0.0
 43
0.0
 43
1.0
 77
     0
 47
0.0208333333333333
 47
0.0
 47
0.0
 47
0.0
 47
0.0
 47
0.0208333333333333
 47
0.0
 47
0.0
 47
0.0
 47
0.0
 47
1.0
 47
0.0
 47
0.0
 47
0.0
 47
0.0
 47
1.0
171
     0
 49
0.0208333333333333
 49
0.0
 49
0.0
 49
0.0
 49
0.0
 49
0.0208333333333333
 49
0.0
 49
0.0
 49
0.0
 49
0.0
 49
1.0
 49
0.0
 49
0.0
 49
0.0
 49
0.0
 49
1.0
175
     0
142
0.0208333333333333
142
0.0
142
0.0
142
0.0
142
0.0
142
0.0208333333333333
142
0.0
142
0.0
142
0.0
142
0.0
142
1.0
142
0.0
142
0.0
142
0.0
142
0.0
142
1.0
179
     0
144
0.0208333333333333
144
0.0
144
0.0
144
0.0
144
0.0
144
0.0208333333333333
144
0.0
144
0.0
144
0.0
144
0.0
144
1.0
144
0.0
144
0.0
144
0.0
144
0.0
144
1.0
147
0.0208333333333333
147
0.0
147
0.0
147
0.0
147
0.0
147
0.0208333333333333
147
0.0
147
0.0
147
0.0
147
0.0
147
1.0
147
0.0
147
0.0
147
0.0
147
0.0
147
1.0
  0
MATERIAL
  5
11
102
{ACAD_XDICTIONARY
360
12
102
}
102
{ACAD_REACTORS
330
10
102
}
330
10
100
AcDbMaterial
  1
ByLayer
 72
     0
 43
0.0208333333333333
 43
0.0
 43
0.0
 43
0.0
 43
0.0
 43
0.0208333333333333
 43
0.0
 43
0.0
 43
0.0
 43
0.0
 43
1.0
 43
0.0
 43
0.0
 43
0.0
 43
0.0
 43
1.0
 77
     0
 47
0.0208333333333333
 47
0.0
 47
0.0
 47
0.0
 47
0.0
 47
0.0208333333333333
 47
0.0
 47
0.0
 47
0.0
 47
0.0
 47
1.0
 47
0.0
 47
0.0
 47
0.0
 47
0.0
 47
1.0
171
     0
 49
0.0208333333333333
 49
0.0
 49
0.0
 49
0.0
 49
0.0
 49
0.0208333333333333
 49
0.0
 49
0.0
 49
0.0
 49
0.0
 49
1.0
 49
0.0
 49
0.0
 49
0.0
 49
0.0
 49
1.0
175
     0
142
0.0208333333333333
142
0.0
142
0.0
142
0.0
142
0.0
142
0.0208333333333333
142
0.0
142
0.0
142
0.0
142
0.0
142
1.0
142
0.0
142
0.0
142
0.0
142
0.0
142
1.0
179
     0
144
0.0208333333333333
144
0.0
144
0.0
144
0.0
144
0.0
144
0.0208333333333333
144
0.0
144
0.0
144
0.0
144
0.0
144
1.0
144
0.0
144
0.0
144
0.0
144
0.0
144
1.0
147
0.0208333333333333
147
0.0
147
0.0
147
0.0
147
0.0
147
0.0208333333333333
147
0.0
147
0.0
147
0.0
147
0.0
147
1.0
147
0.0
147
0.0
147
0.0
147
0.0
147
1.0
  0
MATERIAL
  5
21
102
{ACAD_XDICTIONARY
360
22
102
}
102
{ACAD_REACTORS
330
10
102
}
330
10
100
AcDbMaterial
  1
Global
 72
     0
 43
0.0208333333333333
 43
0.0
 43
0.0
 43
0.0
 43
0.0
 43
0.0208333333333333
 43
0.0
 43
0.0
 43
0.0
 43
0.0
 43
1.0
 43
0.0
 43
0.0
 43
0.0
 43
0.0
 43
1.0
 77
     0
 47
0.0208333333333333
 47
0.0
 47
0.0
 47
0.0
 47
0.0
 47
0.0208333333333333
 47
0.0
 47
0.0
 47
0.0
 47
0.0
 47
1.0
 47
0.0
 47
0.0
 47
0.0
 47
0.0
 47
1.0
171
     0
 49
0.0208333333333333
 49
0.0
 49
0.0
 49
0.0
 49
0.0
 49
0.0208333333333333
 49
0.0
 49
0.0
 49
0.0
 49
0.0
 49
1.0
 49
0.0
 49
0.0
 49
0.0
 49
0.0
 49
1.0
175
     0
142
0.0208333333333333
142
0.0
142
0.0
142
0.0
142
0.0
142
0.0208333333333333
142
0.0
142
0.0
142
0.0
142
0.0
142
1.0
142
0.0
142
0.0
142
0.0
142
0.0
142
1.0
179
     0
144
0.0208333333333333
144
0.0
144
0.0
144
0.0
144
0.0
144
0.0208333333333333
144
0.0
144
0.0
144
0.0
144
0.0
144
1.0
144
0.0
144
0.0
144
0.0
144
0.0
144
1.0
147
0.0208333333333333
147
0.0
147
0.0
147
0.0
147
0.0
147
0.0208333333333333
147
0.0
147
0.0
147
0.0
147
0.0
147
1.0
147
0.0
147
0.0
147
0.0
147
0.0
147
1.0
  0
MLEADERSTYLE
  5
67
102
{ACAD_XDICTIONARY
360
BBB
102
}
102
{ACAD_REACTORS
330
66
102
}
330
66
100
AcDbMLeaderStyle
170
     2
171
     1
172
     0
 90
        2
 40
0.0
 41
0.0
173
     1
 91
-1056964608
340
5B
 92
       -2
290
     1
 42
0.09
291
     1
 43
0.36
  3
Standard
 44
0.18
300

342
55
174
     1
178
     6
175
     1
176
     0
 93
-1056964608
 45
0.18
292
     0
297
     0
 46
0.18
 94
-1056964608
 47
1.0
 49
1.0
140
1.0
293
     1
141
0.0
294
     1
177
     0
142
1.0
295
     0
296
     0
143
0.125
1001
ACAD_MLEADERVER
1070
     2
  0
MLINESTYLE
  5
60
102
{ACAD_REACTORS
330
5F
102
}
330
5F
100
AcDbMlineStyle
  2
STANDARD
 70
     0
  3

 62
   256
 51
90.0
 52
90.0
 71
     2
 49
0.5
 62
   256
  6
BYLAYER
 49
-0.5
 62
   256
  6
BYLAYER
  0
ACDBPLACEHOLDER
  5
F
102
{ACAD_REACTORS
330
E
102
}
330
E
  0
SCALE
  5
43
102
{ACAD_REACTORS
330
42
102
}
330
42
100
AcDbScale
 70
     0
300
1:1
140
1.0
141
1.0
290
     1
  0
SCALE
  5
44
102
{ACAD_REACTORS
330
42
102
}
330
42
100
AcDbScale
 70
     0
300
1/128" = 1'-0"
140
0.0078125
141
12.0
290
     0
  0
SCALE
  5
45
102
{ACAD_REACTORS
330
42
102
}
330
42
100
AcDbScale
 70
     0
300
1/64" = 1'-0"
140
0.015625
141
12.0
290
     0
  0
SCALE
  5
46
102
{ACAD_REACTORS
330
42
102
}
330
42
100
AcDbScale
 70
     0
300
1/32" = 1'-0"
140
0.03125
141
12.0
290
     0
  0
SCALE
  5
47
102
{ACAD_REACTORS
330
42
102
}
330
42
100
AcDbScale
 70
     0
300
1/16" = 1'-0"
140
0.0625
141
12.0
290
     0
  0
SCALE
  5
48
102
{ACAD_REACTORS
330
42
102
}
330
42
100
AcDbScale
 70
     0
300
3/32" = 1'-0"
140
0.09375
141
12.0
290
     0
  0
SCALE
  5
49
102
{ACAD_REACTORS
330
42
102
}
330
42
100
AcDbScale
 70
     0
300
1/8" = 1'-0"
140
0.125
141
12.0
290
     0
  0
SCALE
  5
4A
102
{ACAD_REACTORS
330
42
102
}
330
42
100
AcDbScale
 70
     0
300
3/16" = 1'-0"
140
0.1875
141
12.0
290
     0
  0
SCALE
  5
4B
102
{ACAD_REACTORS
330
42
102
}
330
42
100
AcDbScale
 70
     0
300
1/4" = 1'-0"
140
0.25
141
12.0
290
     0
  0
SCALE
  5
4C
102
{ACAD_REACTORS
330
42
102
}
330
42
100
AcDbScale
 70
     0
300
3/8" = 1'-0"
140
0.375
141
12.0
290
     0
  0
SCALE
  5
4D
102
{ACAD_REACTORS
330
42
102
}
330
42
100
AcDbScale
 70
     0
300
1/2" = 1'-0"
140
0.5
141
12.0
290
     0
  0
SCALE
  5
4E
102
{ACAD_REACTORS
330
42
102
}
330
42
100
AcDbScale
 70
     0
300
3/4" = 1'-0"
140
0.75
141
12.0
290
     0
  0
SCALE
  5
4F
102
{ACAD_REACTORS
330
42
102
}
330
42
100
AcDbScale
 70
     0
300
1" = 1'-0"
140
1.0
141
12.0
290
     0
  0
SCALE
  5
50
102
{ACAD_REACTORS
330
42
102
}
330
42
100
AcDbScale
 70
     0
300
1-1/2" = 1'-0"
140
1.5
141
12.0
290
     0
  0
SCALE
  5
51
102
{ACAD_REACTORS
330
42
102
}
330
42
100
AcDbScale
 70
     0
300
3" = 1'-0"
140
3.0
141
12.0
290
     0
  0
SCALE
  5
52
102
{ACAD_REACTORS
330
42
102
}
330
42
100
AcDbScale
 70
     0
300
6" = 1'-0"
140
6.0
141
12.0
290
     0
  0
SCALE
  5
53
102
{ACAD_REACTORS
330
42
102
}
330
42
100
AcDbScale
 70
     0
300
1'-0" = 1'-0"
140
12.0
141
12.0
290
     0
  0
TABLESTYLE
  5
65
102
{ACAD_XDICTIONARY
360
BB9
102
}
102
{ACAD_REACTORS
330
64
102
}
330
64
100
AcDbTableStyle
  3
Standard
 70
     0
 71
     0
 40
0.06
 41
0.06
280
     0
281
     0
  7
Standard
140
0.18
170
     2
 62
     0
 63
     7
283
     0
274
    -2
284
     1
 64
     0
275
    -2
285
     1
 65
     0
276
    -2
286
     1
 66
     0
277
    -2
287
     1
 67
     0
278
    -2
288
     1
 68
     0
279
    -2
289
     1
 69
     0
  7
Standard
140
0.25
170
     5
 62
     0
 63
     7
283
     0
274
    -2
284
     1
 64
     0
275
    -2
285
     1
 65
     0
276
    -2
286
     1
 66
     0
277
    -2
287
     1
 67
     0
278
    -2
288
     1
 68
     0
279
    -2
289
     1
 69
     0
  7
Standard
140
0.18
170
     5
 62
     0
 63
     7
283
     0
274
    -2
284
     1
 64
     0
275
    -2
285
     1
 65
     0
276
    -2
286
     1
 66
     0
277
    -2
287
     1
 67
     0
278
    -2
288
     1
 68
     0
279
    -2
289
     1
 69
     0
  0
VISUALSTYLE
  5
2F
102
{ACAD_XDICTIONARY
360
BCD
102
}
102
{ACAD_REACTORS
330
29
102
}
330
29
100
AcDbVisualStyle
  2
2dWireframe
 70
     4
 71
     0
 72
     2
 73
     0
 90
        0
 40
-0.6
 41
-30.0
 62
     5
 63
     7
 74
     1
 91
        4
 64
     7
 65
   257
 75
     1
175
     1
 42
1.0
 92
        0
 66
   257
 43
1.0
 76
     1
 77
     6
 78
     2
 67
     7
 79
     5
170
     0
171
     0
290
     0
174
     0
 93
        1
 44
0.0
173
     0
291
     0
 45
0.0
1001
ACAD
1000
AcDbSavedByObjectVersion
1070
     0
  0
VISUALSTYLE
  5
2E
102
{ACAD_XDICTIONARY
360
BCB
102
}
102
{ACAD_REACTORS
330
29
102
}
330
29
100
AcDbVisualStyle
  2
Basic
 70
     7
 71
     1
 72
     0
 73
     1
 90
        0
 40
-0.6
 41
-30.0
 62
     5
 63
     7
 74
     0
 91
        4
 64
     7
 65
   257
 75
     1
175
     1
 42
1.0
 92
        8
 66
     7
 43
1.0
 76
     1
 77
     6
 78
     2
 67
     7
 79
     5
170
     0
171
     0
290
     0
174
     0
 93
        1
 44
0.0
173
     0
291
     1
 45
0.0
1001
ACAD
1000
AcDbSavedByObjectVersion
1070
     0
  0
VISUALSTYLE
  5
35
102
{ACAD_XDICTIONARY
360
BD9
102
}
102
{ACAD_REACTORS
330
29
102
}
330
29
100
AcDbVisualStyle
  2
Brighten
 70
    12
 71
     2
 72
     2
 73
     0
 90
        0
 40
-0.6
 41
-30.0
 62
     5
 63
     7
 74
     1
 91
        4
 64
     7
 65
   257
 75
     1
175
     1
 42
1.0
 92
        8
 66
     7
 43
1.0
 76
     1
 77
     6
 78
     2
 67
     7
 79
     5
170
     0
171
     0
290
     0
174
     0
 93
        1
 44
50.0
173
     0
291
     1
 45
0.0
1001
ACAD
1000
AcDbSavedByObjectVersion
1070
     0
  0
VISUALSTYLE
  5
39
102
{ACAD_XDICTIONARY
360
BE1
102
}
102
{ACAD_REACTORS
330
29
102
}
330
29
100
AcDbVisualStyle
  2
ColorChange
 70
    16
 71
     2
 72
     2
 73
     3
 90
        0
 40
-0.6
 41
-30.0
 62
     5
 63
     8
 74
     1
 91
        4
 64
     7
 65
   257
 75
     1
175
     1
 42
1.0
 92
        8
 66
     8
 43
1.0
 76
     1
 77
     6
 78
     2
 67
     7
 79
     5
170
     0
171
     0
290
     0
174
     0
 93
        1
 44
0.0
173
     0
291
     1
 45
0.0
1001
ACAD
1000
AcDbSavedByObjectVersion
1070
     0
  0
VISUALSTYLE
  5
32
102
{ACAD_XDICTIONARY
360
BD3
102
}
102
{ACAD_REACTORS
330
29
102
}
330
29
100
AcDbVisualStyle
  2
Conceptual
 70
     9
 71
     3
 72
     2
 73
     0
 90
        0
 40
-0.6
 41
-30.0
 62
     5
 63
     7
 74
     2
 91
        2
 64
     7
 65
   257
 75
     1
175
     1
 42
179.0
 92
        8
 66
     7
 43
1.0
 76
     1
 77
     6
 78
     2
 67
     7
 79
     3
170
     0
171
     0
290
     0
174
     0
 93
        1
 44
0.0
173
     0
291
     0
 45
0.0
1001
ACAD
1000
AcDbSavedByObjectVersion
1070
     0
  0
VISUALSTYLE
  5
34
102
{ACAD_XDICTIONARY
360
BD7
102
}
102
{ACAD_REACTORS
330
29
102
}
330
29
100
AcDbVisualStyle
  2
Dim
 70
    11
 71
     2
 72
     2
 73
     0
 90
        0
 40
-0.6
 41
-30.0
 62
     5
 63
     7
 74
     1
 91
        4
 64
     7
 65
   257
 75
     1
175
     1
 42
1.0
 92
        8
 66
     7
 43
1.0
 76
     1
 77
     6
 78
     2
 67
     7
 79
     5
170
     0
171
     0
290
     0
174
     0
 93
        1
 44
-50.0
173
     0
291
     1
 45
0.0
1001
ACAD
1000
AcDbSavedByObjectVersion
1070
     0
  0
VISUALSTYLE
  5
41
102
{ACAD_XDICTIONARY
360
BF1
102
}
102
{ACAD_REACTORS
330
29
102
}
330
29
100
AcDbVisualStyle
  2
EdgeColorOff
 70
    22
 71
     2
 72
     2
 73
     0
 90
        0
 40
-0.6
 41
-30.0
 62
     5
 63
     7
 74
     1
 91
        4
 64
     7
 65
   257
 75
     1
175
     1
 42
1.0
 92
        8
 66
     7
 43
1.0
 76
     1
 77
     6
 78
     2
 67
     7
 79
     5
170
     0
171
     0
290
     0
174
     0
 93
        1
 44
0.0
173
     0
291
     1
 45
0.0
1001
ACAD
1000
AcDbSavedByObjectVersion
1070
     0
  0
VISUALSTYLE
  5
38
102
{ACAD_XDICTIONARY
360
BDF
102
}
102
{ACAD_REACTORS
330
29
102
}
330
29
100
AcDbVisualStyle
  2
Facepattern
 70
    15
 71
     2
 72
     2
 73
     0
 90
        0
 40
-0.6
 41
-30.0
 62
     5
 63
     7
 74
     1
 91
        4
 64
     7
 65
   257
 75
     1
175
     1
 42
1.0
 92
        8
 66
     7
 43
1.0
 76
     1
 77
     6
 78
     2
 67
     7
 79
     5
170
     0
171
     0
290
     0
174
     0
 93
        1
 44
0.0
173
     0
291
     1
 45
0.0
1001
ACAD
1000
AcDbSavedByObjectVersion
1070
     0
  0
VISUALSTYLE
  5
2A
102
{ACAD_XDICTIONARY
360
BC3
102
}
102
{ACAD_REACTORS
330
29
102
}
330
29
100
AcDbVisualStyle
  2
Flat
 70
     0
 71
     2
 72
     1
 73
     1
 90
        2
 40
-0.6
 41
30.0
 62
     5
 63
     7
 74
     0
 91
        0
 64
     7
 65
   257
 75
     1
175
     1
 42
1.0
 92
        8
 66
     7
 43
1.0
 76
     1
 77
     6
 78
     2
 67
     7
 79
     5
170
     0
171
     0
290
     0
174
     0
 93
       13
 44
0.0
173
     0
291
     1
 45
0.0
1001
ACAD
1000
AcDbSavedByObjectVersion
1070
     0
  0
VISUALSTYLE
  5
2B
102
{ACAD_XDICTIONARY
360
BC5
102
}
102
{ACAD_REACTORS
330
29
102
}
330
29
100
AcDbVisualStyle
  2
FlatWithEdges
 70
     1
 71
     2
 72
     1
 73
     1
 90
        2
 40
-0.6
 41
30.0
 62
     5
 63
     7
 74
     1
 91
        0
 64
     7
 65
   257
 75
     1
175
     1
 42
1.0
 92
        0
 66
   257
 43
1.0
 76
     1
 77
     6
 78
     2
 67
     7
 79
     5
170
     0
171
     0
290
     0
174
     0
 93
       13
 44
0.0
173
     0
291
     1
 45
0.0
1001
ACAD
1000
AcDbSavedByObjectVersion
1070
     0
  0
VISUALSTYLE
  5
2C
102
{ACAD_XDICTIONARY
360
BC7
102
}
102
{ACAD_REACTORS
330
29
102
}
330
29
100
AcDbVisualStyle
  2
Gouraud
 70
     2
 71
     2
 72
     2
 73
     1
 90
        2
 40
-0.6
 41
30.0
 62
     5
 63
     7
 74
     0
 91
        0
 64
     7
 65
   257
 75
     1
175
     1
 42
1.0
 92
        0
 66
     7
 43
1.0
 76
     1
 77
     6
 78
     2
 67
     7
 79
     5
170
     0
171
     0
290
     0
174
     0
 93
       13
 44
0.0
173
     0
291
     1
 45
0.0
1001
ACAD
1000
AcDbSavedByObjectVersion
1070
     0
  0
VISUALSTYLE
  5
2D
102
{ACAD_XDICTIONARY
360
BC9
102
}
102
{ACAD_REACTORS
330
29
102
}
330
29
100
AcDbVisualStyle
  2
GouraudWithEdges
 70
     3
 71
     2
 72
     2
 73
     1
 90
        2
 40
-0.6
 41
30.0
 62
     5
 63
     7
 74
     1
 91
        0
 64
     7
 65
   257
 75
     1
175
     1
 42
1.0
 92
        0
 66
   257
 43
1.0
 76
     1
 77
     6
 78
     2
 67
     7
 79
     5
170
     0
171
     0
290
     0
174
     0
 93
       13
 44
0.0
173
     0
291
     1
 45
0.0
1001
ACAD
1000
AcDbSavedByObjectVersion
1070
     0
  0
VISUALSTYLE
  5
31
102
{ACAD_XDICTIONARY
360
BD1
102
}
102
{ACAD_REACTORS
330
29
102
}
330
29
100
AcDbVisualStyle
  2
Hidden
 70
     6
 71
     1
 72
     2
 73
     2
 90
        0
 40
-0.6
 41
-30.0
 62
     5
 63
     7
 74
     2
 91
        2
 64
     7
 65
   257
 75
     2
175
     1
 42
40.0
 92
        0
 66
   257
 43
1.0
 76
     1
 77
     6
 78
     2
 67
     7
 79
     3
170
     0
171
     0
290
     0
174
     0
 93
        1
 44
0.0
173
     0
291
     0
 45
0.0
1001
ACAD
1000
AcDbSavedByObjectVersion
1070
     0
  0
VISUALSTYLE
  5
3F
102
{ACAD_XDICTIONARY
360
BED
102
}
102
{ACAD_REACTORS
330
29
102
}
330
29
100
AcDbVisualStyle
  2
JitterOff
 70
    20
 71
     2
 72
     2
 73
     0
 90
        0
 40
-0.6
 41
-30.0
 62
     5
 63
     7
 74
     1
 91
        4
 64
     7
 65
   257
 75
     1
175
     1
 42
1.0
 92
       10
 66
     7
 43
1.0
 76
     1
 77
     6
 78
     2
 67
     7
 79
     5
170
     0
171
     0
290
     0
174
     0
 93
        1
 44
0.0
173
     0
291
     1
 45
0.0
1001
ACAD
1000
AcDbSavedByObjectVersion
1070
     0
  0
VISUALSTYLE
  5
37
102
{ACAD_XDICTIONARY
360
BDD
102
}
102
{ACAD_REACTORS
330
29
102
}
330
29
100
AcDbVisualStyle
  2
Linepattern
 70
    14
 71
     2
 72
     2
 73
     0
 90
        0
 40
-0.6
 41
-30.0
 62
     5
 63
     7
 74
     1
 91
        4
 64
     7
 65
   257
 75
     7
175
     7
 42
1.0
 92
        8
 66
     7
 43
1.0
 76
     1
 77
     6
 78
     2
 67
     7
 79
     5
170
     0
171
     0
290
     0
174
     0
 93
        1
 44
0.0
173
     0
291
     1
 45
0.0
1001
ACAD
1000
AcDbSavedByObjectVersion
1070
     0
  0
VISUALSTYLE
  5
40
102
{ACAD_XDICTIONARY
360
BEF
102
}
102
{ACAD_REACTORS
330
29
102
}
330
29
100
AcDbVisualStyle
  2
OverhangOff
 70
    21
 71
     2
 72
     2
 73
     0
 90
        0
 40
-0.6
 41
-30.0
 62
     5
 63
     7
 74
     1
 91
        4
 64
     7
 65
   257
 75
     1
175
     1
 42
1.0
 92
        9
 66
     7
 43
1.0
 76
     1
 77
     6
 78
     2
 67
     7
 79
     5
170
     0
171
     0
290
     0
174
     0
 93
        1
 44
0.0
173
     0
291
     1
 45
0.0
1001
ACAD
1000
AcDbSavedByObjectVersion
1070
     0
  0
VISUALSTYLE
  5
33
102
{ACAD_XDICTIONARY
360
BD5
102
}
102
{ACAD_REACTORS
330
29
102
}
330
29
100
AcDbVisualStyle
  2
Realistic
 70
     8
 71
     2
 72
     3
 73
     0
 90
        2
 40
-0.6
 41
30.0
 62
     5
 63
     7
 74
     0
 91
        0
 64
     7
 65
   257
 75
     1
175
     1
 42
1.0
 92
        8
 66
   257
 43
1.0
 76
     1
 77
     6
 78
     2
 67
     7
 79
     3
170
     0
171
     0
290
     0
174
     0
 93
       13
 44
0.0
173
     0
291
     0
 45
0.0
1001
ACAD
1000
AcDbSavedByObjectVersion
1070
     0
  0
VISUALSTYLE
  5
3E
102
{ACAD_XDICTIONARY
360
BEB
102
}
102
{ACAD_REACTORS
330
29
102
}
330
29
100
AcDbVisualStyle
  2
Shaded
 70
    27
 71
     2
 72
     2
 73
     1
 90
        2
 40
-0.6
 41
30.0
 62
     5
 63
     7
 74
     0
 91
        4
 64
     7
 65
   257
 75
     1
175
     1
 42
1.0
 92
        8
 66
   257
 43
1.0
 76
     1
 77
     6
 78
     2
 67
     8
 79
     3
170
     0
171
     0
290
     0
174
     0
 93
        5
 44
0.0
173
     0
291
     0
 45
0.0
1001
ACAD
1000
AcDbSavedByObjectVersion
1070
     0
  0
VISUALSTYLE
  5
3D
102
{ACAD_XDICTIONARY
360
BE9
102
}
102
{ACAD_REACTORS
330
29
102
}
330
29
100
AcDbVisualStyle
  2
Shaded with edges
 70
    26
 71
     2
 72
     2
 73
     1
 90
        2
 40
-0.6
 41
30.0
 62
     5
 63
     7
 74
     1
 91
       10
 64
     7
 65
   257
 75
     2
175
     1
 42
1.0
 92
        8
 66
   257
 43
1.0
 76
     1
 77
     6
 78
     2
 67
     7
 79
     3
170
     0
171
     0
290
     0
174
     0
 93
        5
 44
0.0
173
     0
291
     0
 45
0.0
1001
ACAD
1000
AcDbSavedByObjectVersion
1070
     0
  0
VISUALSTYLE
  5
3A
102
{ACAD_XDICTIONARY
360
BE3
102
}
102
{ACAD_REACTORS
330
29
102
}
330
29
100
AcDbVisualStyle
  2
Shades of Gray
 70
    23
 71
     2
 72
     2
 73
     3
 90
        0
 40
-0.6
 41
-30.0
 62
     5
 63
     7
 74
     2
 91
        2
 64
     7
 65
     7
 75
     1
175
     1
 42
40.0
 92
        8
 66
     7
 43
1.0
 76
     1
 77
     6
 78
     2
 67
     7
 79
     3
170
     0
171
     0
290
     0
174
     0
 93
        1
 44
0.0
173
     0
291
     0
 45
0.0
1001
ACAD
1000
AcDbSavedByObjectVersion
1070
     0
  0
VISUALSTYLE
  5
3B
102
{ACAD_XDICTIONARY
360
BE5
102
}
102
{ACAD_REACTORS
330
29
102
}
330
29
100
AcDbVisualStyle
  2
Sketchy
 70
    24
 71
     1
 72
     2
 73
     2
 90
        0
 40
-0.6
 41
-30.0
 62
     5
 63
     7
 74
     2
 91
        2
 64
     7
 65
     7
 75
     1
175
     1
 42
40.0
 92
       11
 66
     7
 43
1.0
 76
     1
 77
     6
 78
     2
 67
     7
 79
     6
170
     0
171
     0
290
     0
174
     0
 93
        1
 44
0.0
173
     0
291
     0
 45
0.0
1001
ACAD
1000
AcDbSavedByObjectVersion
1070
     0
  0
VISUALSTYLE
  5
36
102
{ACAD_XDICTIONARY
360
BDB
102
}
102
{ACAD_REACTORS
330
29
102
}
330
29
100
AcDbVisualStyle
  2
Thicken
 70
    13
 71
     2
 72
     2
 73
     0
 90
        0
 40
-0.6
 41
-30.0
 62
     5
 63
     7
 74
     1
 91
        4
 64
     7
 65
   257
 75
     1
175
     1
 42
1.0
 92
       12
 66
     7
 43
1.0
 76
     1
 77
     6
 78
     2
 67
     7
 79
     5
170
     0
171
     0
290
     0
174
     0
 93
        1
 44
0.0
173
     0
291
     1
 45
0.0
1001
ACAD
1000
AcDbSavedByObjectVersion
1070
     0
  0
VISUALSTYLE
  5
30
102
{ACAD_XDICTIONARY
360
BCF
102
}
102
{ACAD_REACTORS
330
29
102
}
330
29
100
AcDbVisualStyle
  2
Wireframe
 70
     5
 71
     0
 72
     2
 73
     0
 90
        0
 40
-0.6
 41
-30.0
 62
     5
 63
     7
 74
     1
 91
        4
 64
     7
 65
   257
 75
     1
175
     1
 42
1.0
 92
        0
 66
   257
 43
1.0
 76
     1
 77
     6
 78
     2
 67
     7
 79
     3
170
     0
171
     0
290
     0
174
     0
 93
        1
 44
0.0
173
     0
291
     0
 45
0.0
1001
ACAD
1000
AcDbSavedByObjectVersion
1070
     0
  0
VISUALSTYLE
  5
3C
102
{ACAD_XDICTIONARY
360
BE7
102
}
102
{ACAD_REACTORS
330
29
102
}
330
29
100
AcDbVisualStyle
  2
X-Ray
 70
    25
 71
     2
 72
     2
 73
     1
 90
        1
 40
0.5
 41
-30.0
 62
     5
 63
     7
 74
     1
 91
        0
 64
     7
 65
   257
 75
     1
175
     1
 42
1.0
 92
        8
 66
     7
 43
1.0
 76
     1
 77
     6
 78
     2
 67
     7
 79
     3
170
     0
171
     0
290
     0
174
     0
 93
       13
 44
0.0
173
     0
291
     0
 45
0.0
1001
ACAD
1000
AcDbSavedByObjectVersion
1070
     0
  0
DICTIONARYVAR
  5
DB
102
{ACAD_REACTORS
330
D8
102
}
330
D8
100
DictionaryVariables
280
     0
  1
1:1
  0
DICTIONARYVAR
  5
DA
102
{ACAD_REACTORS
330
D8
102
}
330
D8
100
DictionaryVariables
280
     0
  1
STANDARD
  0
DICTIONARYVAR
  5
D9
102
{ACAD_REACTORS
330
D8
102
}
330
D8
100
DictionaryVariables
280
     0
  1
STANDARD
  0
DICTIONARYVAR
  5
BB7
102
{ACAD_REACTORS
330
D8
102
}
330
D8
100
DictionaryVariables
280
     0
  1
1
  0
DICTIONARYVAR
  5
BB6
102
{ACAD_REACTORS
330
D8
102
}
330
D8
100
DictionaryVariables
280
     0
  1
1
  0
DICTIONARYVAR
  5
BB5
102
{ACAD_REACTORS
330
D8
102
}
330
D8
100
DictionaryVariables
280
     0
  1
0
  0
DICTIONARYVAR
  5
BB2
102
{ACAD_REACTORS
330
D8
102
}
330
D8
100
DictionaryVariables
280
     0
  1
0
  0
DICTIONARYVAR
  5
BB3
102
{ACAD_REACTORS
330
D8
102
}
330
D8
100
DictionaryVariables
280
     0
  1
0
  0
DICTIONARYVAR
  5
BB1
102
{ACAD_REACTORS
330
D8
102
}
330
D8
100
DictionaryVariables
280
     0
  1
2
  0
DICTIONARYVAR
  5
BB0
102
{ACAD_REACTORS
330
D8
102
}
330
D8
100
DictionaryVariables
280
     0
  1
1
  0
DICTIONARYVAR
  5
BB4
102
{ACAD_REACTORS
330
D8
102
}
330
D8
100
DictionaryVariables
280
     0
  1
127
  0
DICTIONARYVAR
  5
BB8
102
{ACAD_REACTORS
330
D8
102
}
330
D8
100
DictionaryVariables
280
     0
  1
2
  0
DICTIONARY
  5
BF5
330
6B
100
AcDbDictionary
280
     1
281
     1
  3
ACAD_XREC_ROUNDTRIP
360
BF6
  0
DICTIONARY
  5
BF9
330
73
100
AcDbDictionary
280
     1
281
     1
  3
ACAD_XREC_ROUNDTRIP
360
BFA
  0
DICTIONARY
  5
BF7
330
6F
100
AcDbDictionary
280
     1
281
     1
  3
ACAD_XREC_ROUNDTRIP
360
BF8
  0
DICTIONARY
  5
1A
330
19
100
AcDbDictionary
280
     1
281
     1
  3
ACAD_XREC_ROUNDTRIP
360
BC1
  3
BUMPTILE
360
1C
  3
DIFFUSETILE
360
1B
  3
OPACITYTILE
360
1F
  3
REFLECTIONTILE
360
1E
  3
REFRACTIONTILE
360
20
  3
SPECULARTILE
360
1D
  0
DICTIONARY
  5
12
330
11
100
AcDbDictionary
280
     1
281
     1
  3
ACAD_XREC_ROUNDTRIP
360
BC0
  3
BUMPTILE
360
14
  3
DIFFUSETILE
360
13
  3
FBXASSET
360
171
  3
OPACITYTILE
360
17
  3
REFLECTIONTILE
360
16
  3
REFRACTIONTILE
360
18
  3
SPECULARTILE
360
15
  0
DICTIONARY
  5
22
330
21
100
AcDbDictionary
280
     1
281
     1
  3
ACAD_XREC_ROUNDTRIP
360
BC2
  3
BUMPTILE
360
24
  3
DIFFUSETILE
360
23
  3
FBXASSET
360
11C
  3
OPACITYTILE
360
27
  3
REFLECTIONTILE
360
26
  3
REFRACTIONTILE
360
28
  3
SPECULARTILE
360
25
  0
DICTIONARY
  5
BBB
330
67
100
AcDbDictionary
280
     1
281
     1
  3
ACAD_XREC_ROUNDTRIP
360
BBC
  0
DICTIONARY
  5
BB9
330
65
100
AcDbDictionary
280
     1
281
     1
  3
ACAD_ROUNDTRIP_2008_TABLESTYLE_CELLSTYLEMAP
360
BBA
  3
ACAD_XREC_ROUNDTRIP
360
BF3
  0
DICTIONARY
  5
BCD
330
2F
100
AcDbDictionary
280
     1
281
     1
  3
ACAD_XREC_ROUNDTRIP
360
BCE
  0
DICTIONARY
  5
BCB
330
2E
100
AcDbDictionary
280
     1
281
     1
  3
ACAD_XREC_ROUNDTRIP
360
BCC
  0
DICTIONARY
  5
BD9
330
35
100
AcDbDictionary
280
     1
281
     1
  3
ACAD_XREC_ROUNDTRIP
360
BDA
  0
DICTIONARY
  5
BE1
330
39
100
AcDbDictionary
280
     1
281
     1
  3
ACAD_XREC_ROUNDTRIP
360
BE2
  0
DICTIONARY
  5
BD3
330
32
100
AcDbDictionary
280
     1
281
     1
  3
ACAD_XREC_ROUNDTRIP
360
BD4
  0
DICTIONARY
  5
BD7
330
34
100
AcDbDictionary
280
     1
281
     1
  3
ACAD_XREC_ROUNDTRIP
360
BD8
  0
DICTIONARY
  5
BF1
330
41
100
AcDbDictionary
280
     1
281
     1
  3
ACAD_XREC_ROUNDTRIP
360
BF2
  0
DICTIONARY
  5
BDF
330
38
100
AcDbDictionary
280
     1
281
     1
  3
ACAD_XREC_ROUNDTRIP
360
BE0
  0
DICTIONARY
  5
BC3
330
2A
100
AcDbDictionary
280
     1
281
     1
  3
ACAD_XREC_ROUNDTRIP
360
BC4
  0
DICTIONARY
  5
BC5
330
2B
100
AcDbDictionary
280
     1
281
     1
  3
ACAD_XREC_ROUNDTRIP
360
BC6
  0
DICTIONARY
  5
BC7
330
2C
100
AcDbDictionary
280
     1
281
     1
  3
ACAD_XREC_ROUNDTRIP
360
BC8
  0
DICTIONARY
  5
BC9
330
2D
100
AcDbDictionary
280
     1
281
     1
  3
ACAD_XREC_ROUNDTRIP
360
BCA
  0
DICTIONARY
  5
BD1
330
31
100
AcDbDictionary
280
     1
281
     1
  3
ACAD_XREC_ROUNDTRIP
360
BD2
  0
DICTIONARY
  5
BED
330
3F
100
AcDbDictionary
280
     1
281
     1
  3
ACAD_XREC_ROUNDTRIP
360
BEE
  0
DICTIONARY
  5
BDD
330
37
100
AcDbDictionary
280
     1
281
     1
  3
ACAD_XREC_ROUNDTRIP
360
BDE
  0
DICTIONARY
  5
BEF
330
40
100
AcDbDictionary
280
     1
281
     1
  3
ACAD_XREC_ROUNDTRIP
360
BF0
  0
DICTIONARY
  5
BD5
330
33
100
AcDbDictionary
280
     1
281
     1
  3
ACAD_XREC_ROUNDTRIP
360
BD6
  0
DICTIONARY
  5
BEB
330
3E
100
AcDbDictionary
280
     1
281
     1
  3
ACAD_XREC_ROUNDTRIP
360
BEC
  0
DICTIONARY
  5
BE9
330
3D
100
AcDbDictionary
280
     1
281
     1
  3
ACAD_XREC_ROUNDTRIP
360
BEA
  0
DICTIONARY
  5
BE3
330
3A
100
AcDbDictionary
280
     1
281
     1
  3
ACAD_XREC_ROUNDTRIP
360
BE4
  0
DICTIONARY
  5
BE5
330
3B
100
AcDbDictionary
280
     1
281
     1
  3
ACAD_XREC_ROUNDTRIP
360
BE6
  0
DICTIONARY
  5
BDB
330
36
100
AcDbDictionary
280
     1
281
     1
  3
ACAD_XREC_ROUNDTRIP
360
BDC
  0
DICTIONARY
  5
BCF
330
30
100
AcDbDictionary
280
     1
281
     1
  3
ACAD_XREC_ROUNDTRIP
360
BD0
  0
DICTIONARY
  5
BE7
330
3C
100
AcDbDictionary
280
     1
281
     1
  3
ACAD_XREC_ROUNDTRIP
360
BE8
  0
XRECORD
  5
BF6
102
{ACAD_REACTORS
330
BF5
102
}
330
BF5
100
AcDbXrecord
280
     1
102
SHADEPLOT
 70
     0
102
SHADEPLOTRESLEVEL
 70
     2
102
SHADEPLOTCUSTOMDPI
 70
   300
  0
XRECORD
  5
BFA
102
{ACAD_REACTORS
330
BF9
102
}
330
BF9
100
AcDbXrecord
280
     1
102
SHADEPLOT
 70
     0
102
SHADEPLOTRESLEVEL
 70
     2
102
SHADEPLOTCUSTOMDPI
 70
   300
  0
XRECORD
  5
BF8
102
{ACAD_REACTORS
330
BF7
102
}
330
BF7
100
AcDbXrecord
280
     1
102
SHADEPLOT
 70
     0
102
SHADEPLOTRESLEVEL
 70
     2
102
SHADEPLOTCUSTOMDPI
 70
   300
  0
XRECORD
  5
BC1
102
{ACAD_REACTORS
330
1A
102
}
330
1A
100
AcDbXrecord
280
     1
102
MATERIAL
148
0.0
149
0.0
149
0.0
 93
        0
 94
      127
282
     0
 72
     0
 77
     0
171
     0
175
     0
179
     0
273
     0
  0
XRECORD
  5
1C
102
{ACAD_REACTORS
330
1A
102
}
330
1A
100
AcDbXrecord
280
     1
270
     1
271
     1
  0
XRECORD
  5
1B
102
{ACAD_REACTORS
330
1A
102
}
330
1A
100
AcDbXrecord
280
     1
270
     1
271
     1
  0
XRECORD
  5
1F
102
{ACAD_REACTORS
330
1A
102
}
330
1A
100
AcDbXrecord
280
     1
270
     1
271
     1
  0
XRECORD
  5
1E
102
{ACAD_REACTORS
330
1A
102
}
330
1A
100
AcDbXrecord
280
     1
270
     1
271
     1
  0
XRECORD
  5
20
102
{ACAD_REACTORS
330
1A
102
}
330
1A
100
AcDbXrecord
280
     1
270
     1
271
     1
  0
XRECORD
  5
1D
102
{ACAD_REACTORS
330
1A
102
}
330
1A
100
AcDbXrecord
280
     1
270
     1
271
     1
  0
XRECORD
  5
BC0
102
{ACAD_REACTORS
330
12
102
}
330
12
100
AcDbXrecord
280
     1
102
MATERIAL
148
0.0
149
0.0
149
0.0
 93
        0
 94
      127
282
     0
 72
     0
 77
     0
171
     0
175
     0
179
     0
273
     0
  0
XRECORD
  5
14
102
{ACAD_REACTORS
330
12
102
}
330
12
100
AcDbXrecord
280
     1
270
     1
271
     1
  0
XRECORD
  5
13
102
{ACAD_REACTORS
330
12
102
}
330
12
100
AcDbXrecord
280
     1
270
     1
271
     1
  0
XRECORD
  5
171
102
{ACAD_REACTORS
330
12
102
}
330
12
100
AcDbXrecord
280
     1
 70
     1
 90
1959938040
 71
     1
  1
D63FF17A-9BC7-44C9-9F6C-9D38DEA94602
311
504B03040A0000080000585831403DEE336E79000000790000001B0000006175746F6465736B2D64657369676E2D7061636B6167652E786D6C3C3F786D6C2076657273696F6E3D22312E302220656E636F64696E673D227574662D3822203F3E3C666F726D6174733E3C666F726D61743E687474703A2F2F736368656D612E
311
6175746F6465736B2E636F6D2F64657369676E2D7061636B6167652F323030393C2F666F726D61743E3C2F666F726D6174733E504B030414000608080058583140D486FD9CA0000000F4000000130000005B436F6E74656E745F54797065735D2E786D6C7D8EC10E82300C865F65E91D8A1E8C310C0EEA1BF002731658846E
311
D98AC1B77784ABF1D8FE5FBFBF75BBCE937A534CCEB38643598122B6FEE978D0B0485F9C41B54DDD7D022595594E1A469170414C76A4D9A4D207E29CF43ECE46F218070CC6BECC4078ACAA135ACF422C856C0E68EA1BF5669944DDD7BCDE7B1F8E415D77AECB980613C2E4AC91FC167A2B244592486606FC29C8FD7F045B9A
311
EF7053A7E60B504B030414000608080058583140B6477442EA0000007C01000008000000636F72652E786D6C8D90DD8E832010855F85708F025AB50669ECDA37D81720402D6905C3CF661F7FB1B5C9EEDD5ECDE4CCF96626879DBE9707F8D23E186707480A0C81B6D22963E701A678451D0427CEBC73F1970D022B163DC04D
311
869CCDDEA57597A4B351DB9855EB94DE4511828E10C8476E0618E44D2FA210296647B817AB907731EB82BCBB0CA76414781D312AEF3357A33DE4F45057D5A59ED0741E8FA83EB6151ACF538B68D77487A9A1E3E5A363E5067316CDF2BE2FBD1651ABCC6342112688B49F84F498F6758770D363CCCACDFE074AABFA27948C8D
311
15DDDF7D610172921F790E382BB72C72790695EB961BFF01504B03041400060808005858314055019EA25F0000007C00000007000000636E782E786D6C4DCB3B0E80201045D1AD90E915ED2CF8AC45050C11660C8261F98AB1B07AC9C97D42D718D865D3E909258CFD00CCE24AC6E326A164D74DC0B4128928FF326038472B
311
A13128B1252AC747C6BAB984FC68F0B87FE8960A5C09FE86CFB69FBA01504B0304140006080800585831400988372665010000020300000C0000006662782F636F72652E786D6C8D52ED8E8230107C95A6FF4BF952D1941A3D7C837B810A956B84969496F8F8B77C18CF8B3186A434333BBBB3036C7F6B1B3448DB2BA3731C
311
0521465297A652BACEB177179261B4E7CC1AE3FE9461A4452B733CC298B3DA1ADF2D5069B493DA01AA4D251750F4BD7418950D5C72DC973FB21581F00E2AFA6BD089F22A6A194401D050C759EF2C1840F390F1C4FC72BE313AE39C79AFAA8555154C5317252DE6F12A4D92535A90E278D89274BB49C8E1586C489CADB355B1
311
8E0FA7AF8CD151CC9953EDDD5D69A570B2027D18C5248C48B4F98EA25D18EFD28C84EB5D18323A963F897C577D28F24ABB245EECCEB21EF3088C4CC4BF6D2122877A31801FCA191D4384D794F073D0100884ECC4B9B9EF71056890A5333605A632FE410DA2F112A686687A189D59E83C3580CD5EF689DFF479DF033EA0D035
311
58130EAE67EFC6E96C9EBA44D1494B067743DAD856340F73B3C5C7F918F4525E9AC6D84FD47459952E61D2F1EFE5BF504B0304140006080800585831401303703E7E0000009D0000000B0000006662782F636E782E786D6C4DCCDD0A832018C6F15B91F7DC65FBC217D4D0D6EE239685643A9C8E5DFE6A74B0A3077E3CFC45
311
F3593C79DBF4723148A80F0C880D8F38B830492879A41C48A3448A31FFDD80847EB112360625A614CB73A7C18E7DF17955EFC2BCA3610C2FBA456AF809E959DFAFD41C0DD2BAD6A879D7DDD0B4502951FD4AEB6E61F505504B0304140006080800585831407E4EA60A2B01000014020000310000006662782F423030393541
311
43392D423833392D344146362D423242392D3131413941384545443942432F636F72652E786D6C8D51CB6EC32010FC15C4293D6003715C3BC244769A7E417F806292A2C460F1A8F2F985DA91DA5B2E2C9A9D991DEDB2C37DBA816FE5BCB6A683A4C0102823EDA8CDA583319C5103C18133676DF84383C088497530C390B38B
311
B3715E21694D502624D4D851ADA0F05E0508E42D7D3AE8E5979A442162480C7F2D6621AFE2A20A52A476E271E6834B01C03224BF900F18B7BBFED8A2A1D9B6A8EADF6B34D0A14584F46DDF9C4E6FED7064E522E42C463DAE723DA638FAAC957BD6248B390B7A7AC4974E89A046C82926146182C8EB07217B4CF7558370BDC7
311
989599FE4F14E7F14951D4266CE91A779179C8092B970667A38D9FB74718759FAD0B20CFDB78255F20C705262D6E684359B950D30292675DAD9E3E589716BCB97E2636D92DC675C559996F94CAEF0153CDF7E43F504B030414000608080058583140A83677B24D01000033030000300000006662782F42303039354143392D
311
423833392D344146362D423242392D3131413941384545443942432F636E782E786D6CD593BD6E032110845F05D1DF0FCEC9B12C0E4B29F20429D272B0B6893938F113C56F9FC5268E1B1729D3A0D3EC30B3FAC4F1DDD76CC9278468BC1B296B7B4AC029AF8D3B8C34A77DB3A1642778F03EDDD9287172869116990A7E083E
311
2F55D2B097D92654AD71A72A06883E070511E5729358AFA4C500704D4611E609B4064D6E46FCDA43C055509CCE241D81BCBEBC133F7D804A91772545F0AE74085ECEDA7467A2445919E348A33AC22C5B9993D7104FAD9649B6ACFDE97AB0D36F1229177E2A7330A4948FB49C54D48D5AE4C83B1C0A1E53407AD594CE0B5021
311
97C51A251342EE2EC6AB47F06C5C5A0FD56B107C40375B3F0D03865D668227334375A8003281A662D5B355D3B3863DBF31B6ED57DB61D3F4EB6DDFF3AED8059FBCB7F512C640F00B51DE2570890AC6BB327E84AFFA88360159FB70FE034804505BAF746E19FF994F7779DF882BE05F20BE01504B0304140006080800585831
311
403A3A59D39C0500007B100000340000006662782F42303039354143392D423833392D344146362D423242392D3131413941384545443942432F6F626A656374732E786D6CAD575D8F9B3814FD2B887D8684249D4E560C552669AAA83B6DD5A8D53E8C1419308C77CC876C3393E9AFDF633004D2649A5DF505B0B1AFEF3DF7
311
DC0FFBEFF619B79EA890ACC86F6CCF1DDB16CDA32266797A63572A71AE6DEB5DE08BA250BD65B695938CDED87ADA0EFC54145569A6629A908AABA3D9F5EDDF968C684E6D2BE244CA1B5B460F34232EA9541153F9E8C64411374DF6AEE7360B87625341CA8723A125113457D014F339A4588D52DE7038B647813FD2FF035F3F
311
CDAAE9F955A3DA9EE1F92C978AE4D14F871D89997AB3D5FBC99BB9F366369B3AB3AB89E7DCAE6F578EF7763A5E5E2D97F3C5FB390E964A4092D144D0C40E3E001BC1227FD4FC0AFC8AE56A3A314B8C8346823E31ED293B98589E3F6AD674D619234FA91F15794EA31A2BA051DB6744C7B4A4790C9F332AA1590FA1F170E869
311
1C7BBFA77A6C8EEC4F5F86407F474F50AB7BFBEE6B5A84FFC00479098384A49A810D96C6D086ABE303C2615170F38F492B238A0A46B8C559288878B1032CD54B027F20463359E868D016D801BCD0FC1ED20561F46B9E9FD232A938D734B6833A0A768815AA64AD19FB41C541FB3E32D009BED26CB83606A99792DAC1BCA1C8
311
F5119B1A20AD8493142E87997AE7747264E852C7E96665071FD7E17EAB63F7F4E1A5284A2A94A60FA8D53AAE7D6B948C4EDE459ED31BEC23550EA07C05F29F10EA0755E037C1F6B3FDCC9CA204C96552880CBEB1C69633C6636C79F5537FF7BEFC51B779E8BD7378C2D91AAADF80E7D086BE2F7B7006FE13085F88A9316D1B
311
118EB471C77200A44962F10253C8C349B8B7830DB21CB23276111E783019EA3EE1D31F19314814F549BD770E2C8FD2E205091AB0D58C841A0DF98D82073FFD94CEEA83CDB273F0BEF92D745DACB61FB795484844EF4C4CAF68C272A650E20EBCE92B34C07C60D1237D792E440C437FC67BDBC73B334749A0AD31D7C0A76D4E
311
D783C3C9830322EC4B0B9D6EFC5F9C00237461EDC9BF6332A29C939C16557BEEABF50365A3815807BB667257600E8505A469FE1CC5208A742458A941ECAA559734DD33D67DDB7C0223EDE0F6E52FF2D2CF5EE121F746052FC42E7CD93569E924D4DF87DC36188CB414D0BD0E9236FE0DE8BB9825492591044FE0FA7DB3ECFB
311
4EA705A488566A132D33D88FE022C290B6958B6A2D082A6991EF18EA26E2EEE4017DF980D430A016784E634979B2639C57D92E611CD5689791F20C1CFF5FFFB0CACA1DC98A2A5767640F54477518EA3E60AF7C262A7AB0836DFD766E917B631A9F2183AE2527B01AB87675355DAFBDB70B677EBB7CEBCC66CBB9335F5F2D9D
311
F96A7ABD7ABF98CFAEC693D64F8D2681DF969A7E44C34B286D7E259871DFB70DE2C724013BB8234ADE7F68C2B37D7FDBB8E885FD11F6A05E761B17F113FA3E1AFF5AC061E549419BACE434A3B9223A86EEF407FF4AD0670C9469E6371949E905523E7FD81E1983990BF67DD1F14E9F8FF69AD9A50EC89342D44395853961FC
311
6863DA20E996796AF06B7DD2BD9B42D30EF5C838069DA92C388B9107632BA5454615B2E10545486454827AFD9E3E36778F0B763F351DA22221A7AD260F044D3297080B50AB8AD470DEFA034D9DEEAB6E6C945BF7110F93296C0B9CB9B1D1A42B1651E98628D0BA15AA85834BFD4E1E8D3FC9538E5EBBD9D48DBB5D1A9B4149
311
EE965CD23F19BB9A146E0C401A29D137A02182776A6502BFD6CDFC8FFE93E1AD3A1651F80C2BD5D97298E88CA98F4188364699DB029A984773F41E81FABA599E5BAF192072D12DEB551234521D45445ADF14B47E46A5C5EACB081D8AB5F96C95BC4AE1CBCB25398282CC950E70B008AC30324BA240D5E59FF75F44819B6C66
311
AD192870BF2CB2ACC8CD60616EC2D6F601F7DAF81E6981EA0B89BC9F8CBDC97D7D113077935D482475492C1F31019F0AD6413C703C18D9DC1651819A1FDDBA9176C21137372BCB94B419841AA2F4B3AA86052D474E2D448FBE4CEA58E92F285FBD0B8CEAA55041A08B0FFE05504B0304140006080000585831400000000000
311
00000000000000350000006662782F42303039354143392D423833392D344146362D423242392D3131413941384545443942432F76657274696365732E62696E504B030414000608080058583140F270F1330600000004000000360000006662782F42303039354143392D423833392D344146362D423242392D3131413941
311
384545443942432F747269616E676C65732E62696E636660600000504B030414000608000058583140000000000000000000000000370000006662782F42303039354143392D423833392D344146362D423242392D3131413941384545443942432F617474726962757465732E62696E504B030414000608080058583140D5
311
987DFC8F00000041010000360000006662782F42303039354143392D423833392D344146362D423242392D3131413941384545443942432F6469726563746F72792E786D6C858F410EC2201045AF4266AF15DDB800BA74E7C21B903225242D6328188F2FA5C4183471359997F9FF81E89FF3C41E1816475E02DF1F80A11FC8
311
386F25A438EECEC07A250251FC3803E6F58C12560C4AD840E95E91C151A72936F496F35732D860FE635F62C8F2DA16B505C545B74125BAA2FA9E05D7CC053D063734D5C7665FD55B6B8D15D5E9BFEAFD8490FFA45E504B0304140006080800585831406929BEFAFC000000A00100003B0000006662782F4230303935414339
311
2D423833392D344146362D423242392D3131413941384545443942432F7265736F75726365732F636F72652E786D6C8D504B6E833010BD0AF2DE601B4208328E48C80D7A01CB4C889560237FAA1EBF2650A9DD7533337A1FCDD3E3E7AFF9957D82F3DA9A0ED19CA00C8CB2A336538762B8E3066567C19DB5E1970C6546CED0
311
A11546824FCEC665879435014C48A8B123ECA0F41E02CAD42B1D1DF2EA01B3CC650C49E19FF922D5534E90D33CD14927B80F2E05C8B627EB44C281B7D129F0BCD858C163D4E3AED163FAA9EF1A1C12EC5095E5ADBAE2E1D29F70753A96B8BF0C47CC9ABA390C35EB6FD78617AB59F0A0E79F8CCA810C30263FA10C138AE9F1
311
83D296B0B66A30A95B4278B1CAFF98E232FED314B50925DBE36E368F044D41DE84E0C5DA575AEF32D35EBB15DF504B010214000A0000080000585831403DEE336E79000000790000001B00000000000000000000000000000000006175746F6465736B2D64657369676E2D7061636B6167652E786D6C504B01021400140006
311
08080058583140D486FD9CA0000000F40000001300000000000000000000000000B20000005B436F6E74656E745F54797065735D2E786D6C504B0102140014000608080058583140B6477442EA0000007C010000080000000000000000000000000083010000636F72652E786D6C504B010214001400060808005858314055
311
019EA25F0000007C000000070000000000000000000000000093020000636E782E786D6C504B01021400140006080800585831400988372665010000020300000C00000000000000000000000000170300006662782F636F72652E786D6C504B01021400140006080800585831401303703E7E0000009D0000000B00000000
311
000000000000000000A60400006662782F636E782E786D6C504B01021400140006080800585831407E4EA60A2B0100001402000031000000000000000000000000004D0500006662782F42303039354143392D423833392D344146362D423242392D3131413941384545443942432F636F72652E786D6C504B010214001400
311
0608080058583140A83677B24D010000330300003000000000000000000000000000C70600006662782F42303039354143392D423833392D344146362D423242392D3131413941384545443942432F636E782E786D6C504B01021400140006080800585831403A3A59D39C0500007B10000034000000000000000000000000
311
00620800006662782F42303039354143392D423833392D344146362D423242392D3131413941384545443942432F6F626A656374732E786D6C504B01021400140006080000585831400000000000000000000000003500000000000000000000000000500E00006662782F42303039354143392D423833392D344146362D42
311
3242392D3131413941384545443942432F76657274696365732E62696E504B0102140014000608080058583140F270F13306000000040000003600000000000000000000000000A30E00006662782F42303039354143392D423833392D344146362D423242392D3131413941384545443942432F747269616E676C65732E62
311
696E504B01021400140006080000585831400000000000000000000000003700000000000000000000000000FD0E00006662782F42303039354143392D423833392D344146362D423242392D3131413941384545443942432F617474726962757465732E62696E504B0102140014000608080058583140D5987DFC8F000000
311
410100003600000000000000000000000000520F00006662782F42303039354143392D423833392D344146362D423242392D3131413941384545443942432F6469726563746F72792E786D6C504B01021400140006080800585831406929BEFAFC000000A00100003B00000000000000000000000000351000006662782F42
311
303039354143392D423833392D344146362D423242392D3131413941384545443942432F7265736F75726365732F636F72652E786D6C504B0506000000000E000E00800400008A1100000000
310
504B03040A0000080000585831403DEE336E79000000790000001B0000006175746F6465736B2D64657369676E2D7061636B6167652E786D6C3C3F786D6C2076657273696F6E3D22312E302220656E636F64696E673D227574662D3822203F3E3C666F726D6174733E3C666F726D61743E687474703A2F2F736368656D612E
310
6175746F6465736B2E636F6D2F64657369676E2D7061636B6167652F323030393C2F666F726D61743E3C2F666F726D6174733E504B030414000608080058583140D486FD9CA0000000F4000000130000005B436F6E74656E745F54797065735D2E786D6C7D8EC10E82300C865F65E91D8A1E8C310C0EEA1BF002731658846E
310
D98AC1B77784ABF1D8FE5FBFBF75BBCE937A534CCEB38643598122B6FEE978D0B0485F9C41B54DDD7D022595594E1A469170414C76A4D9A4D207E29CF43ECE46F218070CC6BECC4078ACAA135ACF422C856C0E68EA1BF5669944DDD7BCDE7B1F8E415D77AECB980613C2E4AC91FC167A2B244592486606FC29C8FD7F045B9A
310
EF7053A7E60B504B030414000608080058583140A6E2BD9FE90000007C01000008000000636F72652E786D6C8D90516EC3201044AF82F61F1B6C0BDB11264A53F704BD0002E2A0C46019A87AFCE2C491DABF7EED6898C7AE861FBFE73BFA326BB0DE0D400B02C838E5B575D300295E7007E828F8EA7DFC1503E4E46C06D86C
310
107C5A7D5A764B79178D8BD9755E9BDD9421980848DDB31820A8AB99652153CC89702B16A96E7232057DA90CA764357A2EB13AFF672FD6AC20CE2D635DDFB778FC38BDE386B20EF7EC2DAB7164F5696CCE35AD78B9C182473BBFF6ABD5C86834888AD00A138A69FB49E9815487A6C3841D08E1E516FF03A545FF134AD6C5BA
310
DACF7D620104CD873C1E042FB72EF2781495E7D69BF801504B03041400060808005858314055019EA25F0000007C00000007000000636E782E786D6C4DCB3B0E80201045D1AD90E915ED2CF8AC45050C11660C8261F98AB1B07AC9C97D42D718D865D3E909258CFD00CCE24AC6E326A164D74DC0B4128928FF326038472BA1
310
3128B1252AC747C6BAB984FC68F0B87FE8960A5C09FE86CFB69FBA01504B030414000608080058583140971FC90665010000020300000C0000006662782F636F72652E786D6C8D52ED8E8320107C15C27F45ACB1B6419A5ECF7B827B01AAD423553008A68F7FEB47E3F5D2348D0992999DDDD95176B8B50D1AA4ED95D139A6
310
618491D4A5A994AE73ECDD25C8303A70668D717FCA30D2A295391E61CC596D8DEF16A834DA49ED00D5A6920B28FA5E3A8CCA062E39EECB1FD98A50780715FD35EC447915B50C690834D471D63B0B06D03C643C31BF9C6F8CCC3867DEAB6A615505D3D445498BF9699BA6D96EB70D8AAFE36790D0340B76E907DC8A22DD1C8B
310
E4B4A13123A39833A7DABBBBD24AE16485791CD138886840B7DF94EEA3789F644194EEA38891B1FC41E4BBEA4D9157DA6DE2C5EE2CEB31A7606422FE6D0B1139D48B01FC10CEC81822BCA6841F838640206427CECD7D8F2B40832C9DB1093095F12B3588C64B981AA1E9616466A1F3D400367BDA277ED1E7750FF88042D760
310
4D38B89EBD1BA7B379EA1245276D30B81BD2C6B6A259CDCD16D7731DF4545E9AC6D877D46459952C6192F1EFE5BF504B03041400060808005858314022680E017D0000009D0000000B0000006662782F636E782E786D6C4DCCD10AC2201886E15B91FFDCE660D87E5047A6DDC7686E484EC334BAFCB6D841471F3C7CBC62F8
310
AC81BC5D7EF91425B42706C4C57B9A7C5C24D432D31EC8A0444EA9FCDD80C4717512760625969CEAF3A0C9CD630D65D3E0E3E3C01B5E2DD7ADA596314D3BC391EA331ADA2237885D7F319C41A344F32B6DBB87D517504B030414000608080058583140AE08D9A12901000013020000310000006662782F4639434536423145
310
2D453030422D344436392D423739442D3139364439393438414436302F636F72652E786D6C8D514B6EC32014BC0A62952EB0C1B14888305153A727E8058821094A0C169F2AC72FD48ED4EEB2E1A17933F3061EDF3FC63BF8D63E18673B482A0C81B68353C65E3A98E2196D21D80BEE9D8B7F68105839EA0E16180A7EF12E4D
310
0B34381BB58D19B54EE9059421E808C170CF970E86E1AA4759C9143323DCAA490E3779D115A9723BF3040FD1E700601E524E283ED9C7911EC8111D313EA0B6A70C1D36AC4784D19EB176FBDE53CCEB5928784A462D72A3721C7336DABF6A52C48247333EE30F5ECBA815140D260DC20491CD17213BDCECDA2DC27487F3E442
310
FF274A937A51948C8DEB66893BCB021484D7734370E5D2E9FE0CA31F93F3119479ABA0873728708509DBAC69CBEB9999DF9F2D69BB5886E87CFEDFD5ED94C9EBC597B682D76545B9FCEE2FD7B24EF103504B030414000608080058583140CE91B8A55401000033030000300000006662782F46394345364231452D45303042
310
2D344436392D423739442D3139364439393438414436302F636E782E786D6CBD93CD6EC32010845F0571F70F8EE55A1126520F7D821E7AC5B049696CB00057CDDB7749489A4B0E95AA5E90353BCCAC3E61BEFB9A27F2093E186707CACA9A12B0CA69630F035DE3BEE829D909EE9D8B77364AAC9C61A049A6821FBC5B972C69
310
D8CB758AA84EC61EB3E821B8D52B0828A79B64724A4E1800B65851847904AD41939B11BFF6E0711514C71389EF405E9EDF881B3F40C5C0AB942278953A044F676EBA3351A22619C240837A875996728D4E4338965A4659B2F2DAF560A79F24922E5C2B576F482A1F683AA9C81B95C8915738143C448FF4B2299E16A0422ECB
310
64948C08B93A1B2F1EC1576363D766AF41F01EDD9BA6EB7B0C3BCF048F6686EC501E64044D4553B3A6A859C19E5E19DBD6CDB6ED8BBADBD635AF925DF0D1B9295FC218F06E21CAD9083652C17895C68FF0651FD1C6236BE74FBF00890072EB85CE2DE32FF9B06ED3B6FFC8A73ABF6FC4E5F12F10DF504B0304140006080800
310
58583140D739FE695A070000941B0000340000006662782F46394345364231452D453030422D344436392D423739442D3139364439393438414436302F6F626A656374732E786D6CED59DD739B3810FF5718EED9D8C44E5ADF103A89DD643CBDB49DFADAB987CC3032C8441721184924F1FDF5B7FA00033109BEE6DEFA6003
310
425AEDFEF6534BF0E129A3CE03E682E4ECDCF5BD89EB6016E70961E9B95BCAEDE8BDEB7C08039EE7B231CD7518CAF0B9AB86DD3048795E167628C15B5452D919BDBAFCCB113166D875628A843877457C8733E4A152E60916F75E8224F2D2ED93E77B66629B6CCA5171D7215A208E99044E619C0115C730E5B71F27EE380CC6
310
EA7D18A87F3B6B3A68D6AC7FD6584BDDE6923021118B9FB1D421331DC4D2D49F2D3F9E9CCE47A7B3D974343B3BF147975797CB91FF6E3A599C2D16F38B8F73606F93E7D4CA94E002B304F4B773433F18AB37B5E81681435CC7396338D64002545AAC2E4182056CD5806FD27EF495448DD75AC2C6F34CBDB72C3486A76D2A7D
310
B38601D1A20B82D8ED2A89AB6B53BE7CF337082E861825175802B74272D0AE85878357B8E124189BD130D8EC7541849321893941D4A164C31107A5C05435250CCC024B46390707528E92406BCEBC6EDB1678E6EBAE7388CB6D49A9F20C37D48E1581FB61293467E41FCCF7DC3791019E40DA9230F9DE7229770576C37930D6
310
8361A02ED313FBD200E96C294A8546C4BCED08BA50AEBF5ABAE1A7ABCDD35A8583C39B173C2F3097CAE8941E355F60C8F6AA50B2DBFA8334A71680300654BB720FCA3740FE33448F3D2BA0374E9E664F333B5772C4C436E719E8C69938A309FC4D1C5FFFABFBC65D30AE17B7B5D78727B8A982EAFDCFE3D996416365F96FC0
310
19060F60F0399FDA57EB1851B0E71BC2002065240ECD610842FB76F3E4862B089C10E86115A2A10F2203BB0F701B8C2D99BD562AF7B25EC70051BBC774889200366D91C0468F9EAE217B7012EFD5D414B10FDED33731D78BE5FAD3BAE45B14E31BEBD34BBC258C48C89A87196A61DE92E81EEF1E739E80A0CFF15E37F1CEEC
310
5602D056982BE0D30A04F5B0DFB9B5410CEBD25C859BE0951D400895AB1BF46F888831A588E1BCACF6ADA39B32D4DAE36DCDE0862706E2E949C784397E20AAAA00A7D9CF68310A793FE6A45020BAE1B591AC0E9A5E8F74DF579FC122EBF93DB3560C422F43F44F1DB40EE0D0B2EC0A690B442DF0661FCEE39CE63CDAEC2213
310
E95CA825808DB6B7FC681185586F94A4A8800769BFAB424A6AA48D12B2DD9602E2EA01167FAC164D73987853FFD469FE779C7106D1167C1771EB779D3D2292A114475B94F46DD7DCADA62D34C91ED21C6F29C8451E88DC4548469304A7C7407314F1F99B524F692E04615840BE3A087E138D890781C468B3625969B5033411
310
518625A2C720A0C8F480ABD38EAE7163281D5EE7B1B6DE9734D624FA3F590447504BE62C22508A420E799571DF3B8518D246D7A0DCC117ACADA2ADC5A0259410F12E7AC424BD93C7A06EC8F7E01EC391A494515EA018CC7A00D967BEA294DAE17D83E27B953FA2B8A46F652002D36D44282DB3087E84C1C963886BD781E945
310
141AC44DEC933883A20CC9920FD9E4EC74F26C1F533374436063A32DA110B6A30C153DA8B702A2AE479C1A7C4BBD47A99B322B2294E5251B6428DEB4EB4D967C57AD8AEC407E55A908656345D8120C03C2649D55AB980DA6AE032BB8910E54BB48A0ACA0E614F64AE2F16B6FD2947B37E0D64FDF76830C0ABF1EED3523EAAC
310
82C1F2D82A0CC42392F19D1BAEF5757409F57782937DAAAF6ACD66050888A9485E726255F47D05E58DADD1DCF00649717B6DB26E75FDBEF2A0FB118C610DD42EF5C295023AC34C225599DCA81BFA0D41086ED130E32B95538FA1729124BA6A44F48AF4A9B35546B436CD8857DC619667F063B784C5B44CF02D4AC47D742369
310
B4268A752BA597910AE31705FC72BDEEC003230344FAAA0A3CFCD8596B4717AA5C3A4844DE95D986210241B0255A6A74E3152CB51AA9B45C5FD59902EA2E3030ABE2D9AF9345B31DF1EB64915AC3F8A993C5E5EE0FB46BF6451AE93C56767DD431A0CE4F8ACA5B1C0374DBA1A65A671193CCADFCD69922088A55941F5C8D55
310
41C310ECE3F83F67EDBE2C68B6EBF07F5CD6F69F551C476595D664D5A53A50B9AE9A396C7936BDBAF2DF5D8CE6978B77A3D96C311FCDAFCE16A3F972FA7EF9F1623E3B9BD4A9D8100F833A98E9DC05CF26A855C3EAC962005D59915392C0693E71520C315FC2997E40FB9C675840F26C36BB13DB941FB0FAC1F43925DA505C
310
717287A0414C05A47510A38C657BDCF90D5A93120EDAE72E348DBC7BF8B356E93A9079CE5D6815481263E16DA0CDA41A7A9A38A45C9DFB2D31086488A52A259A45F573BD4A61D30AFFF5942169C0CAD5EA6140E15640F7ABD5A1D0BC599EE2A304AFD8719084DB4D29A15A33B2EC076A61F4367BF51BD92861F776EB2770DD
310
97C5F23D3DA785C8A04F062F1A81A13A9288A7BADFAD18B32C5D2CBF8EA1CFE6ACBE38052D53D0E5704A238EC1984B555081158155589A059260AA8BDF6FBFF21C3EF1648EAE8A6E177996E5CC3E5CC0792C814F44CEFA0E3EF824B7503660D55617B72713FFE456B7B36D873DDA20813D550FC140554628113AC60616F9AC
310
35651B9763A584CEF4D5D2B1E113DA00C6829E7577CDE72D07BC477D4851BEA23DBC92F3C58EF6584F056BE0D08B0EFF05504B030414000608000058583140000000000000000000000000350000006662782F46394345364231452D453030422D344436392D423739442D3139364439393438414436302F76657274696365
310
732E62696E504B030414000608080058583140F270F1330600000004000000360000006662782F46394345364231452D453030422D344436392D423739442D3139364439393438414436302F747269616E676C65732E62696E636660600000504B030414000608000058583140000000000000000000000000370000006662
310
782F46394345364231452D453030422D344436392D423739442D3139364439393438414436302F617474726962757465732E62696E504B030414000608080058583140D5987DFC8F00000041010000360000006662782F46394345364231452D453030422D344436392D423739442D3139364439393438414436302F646972
310
6563746F72792E786D6C858F410EC2201045AF4266AF15DDB800BA74E7C21B903225242D6328188F2FA5C4183471359997F9FF81E89FF3C41E1816475E02DF1F80A11FC8386F25A438EECEC07A250251FC3803E6F58C12560C4AD840E95E91C151A72936F496F35732D860FE635F62C8F2DA16B505C545B74125BAA2FA9E05
310
D7CC053D063734D5C7665FD55B6B8D15D5E9BFEAFD8490FFA45E504B030414000608080058583140B5499307FC000000A00100003B0000006662782F46394345364231452D453030422D344436392D423739442D3139364439393438414436302F7265736F75726365732F636F72652E786D6C8D504B6E833010BD0A9ABDC1
310
26C801641CA5293D412F609909B512ECC89FAAC7AF09546A77DDCC8CDE47F3F4C4E96BB9179FE883717600565228D06A37193B0F90E295B4509CA4F0CEC55F3228AC5A708015062966EFD26387B4B3116DCCA87513EEA00A012314FA9E8F0182FEC045952AC5AC08B7F2A1F44DCD58B232D3592745883E0728B627EB04E931
310
B8E43506516DAC14299969D79829FF3457831EE4E5C879DB759C8C6FE757D230DE928EBFE46B1CF9E13C369703AB45B59AA58866F9C9A83DAA8813C89AB29A5046D8F19DB19ED67DD312CA7B4A45B5CAFF98D263FAA729191B0FF51E77B305902C07791252546B5F793DCBCC7BED567E03504B010214000A00000800005858
310
31403DEE336E79000000790000001B00000000000000000000000000000000006175746F6465736B2D64657369676E2D7061636B6167652E786D6C504B0102140014000608080058583140D486FD9CA0000000F40000001300000000000000000000000000B20000005B436F6E74656E745F54797065735D2E786D6C504B01
310
02140014000608080058583140A6E2BD9FE90000007C010000080000000000000000000000000083010000636F72652E786D6C504B010214001400060808005858314055019EA25F0000007C000000070000000000000000000000000092020000636E782E786D6C504B0102140014000608080058583140971FC906650100
310
00020300000C00000000000000000000000000160300006662782F636F72652E786D6C504B010214001400060808005858314022680E017D0000009D0000000B00000000000000000000000000A50400006662782F636E782E786D6C504B0102140014000608080058583140AE08D9A1290100001302000031000000000000
310
000000000000004B0500006662782F46394345364231452D453030422D344436392D423739442D3139364439393438414436302F636F72652E786D6C504B0102140014000608080058583140CE91B8A554010000330300003000000000000000000000000000C30600006662782F46394345364231452D453030422D344436
310
392D423739442D3139364439393438414436302F636E782E786D6C504B0102140014000608080058583140D739FE695A070000941B00003400000000000000000000000000650800006662782F46394345364231452D453030422D344436392D423739442D3139364439393438414436302F6F626A656374732E786D6C504B
310
01021400140006080000585831400000000000000000000000003500000000000000000000000000111000006662782F46394345364231452D453030422D344436392D423739442D3139364439393438414436302F76657274696365732E62696E504B0102140014000608080058583140F270F13306000000040000003600
310
000000000000000000000000641000006662782F46394345364231452D453030422D344436392D423739442D3139364439393438414436302F747269616E676C65732E62696E504B01021400140006080000585831400000000000000000000000003700000000000000000000000000BE1000006662782F46394345364231
310
452D453030422D344436392D423739442D3139364439393438414436302F617474726962757465732E62696E504B0102140014000608080058583140D5987DFC8F000000410100003600000000000000000000000000131100006662782F46394345364231452D453030422D344436392D423739442D313936443939343841
310
4436302F6469726563746F72792E786D6C504B0102140014000608080058583140B5499307FC000000A00100003B00000000000000000000000000F61100006662782F46394345364231452D453030422D344436392D423739442D3139364439393438414436302F7265736F75726365732F636F72652E786D6C504B050600
310
0000000E000E00800400004B1300000000
  0
XRECORD
  5
17
102
{ACAD_REACTORS
330
12
102
}
330
12
100
AcDbXrecord
280
     1
270
     1
271
     1
  0
XRECORD
  5
16
102
{ACAD_REACTORS
330
12
102
}
330
12
100
AcDbXrecord
280
     1
270
     1
271
     1
  0
XRECORD
  5
18
102
{ACAD_REACTORS
330
12
102
}
330
12
100
AcDbXrecord
280
     1
270
     1
271
     1
  0
XRECORD
  5
15
102
{ACAD_REACTORS
330
12
102
}
330
12
100
AcDbXrecord
280
     1
270
     1
271
     1
  0
XRECORD
  5
BC2
102
{ACAD_REACTORS
330
22
102
}
330
22
100
AcDbXrecord
280
     1
102
MATERIAL
148
0.0
149
0.0
149
0.0
 93
        0
 94
      127
282
     0
 72
     0
 77
     0
171
     0
175
     0
179
     0
273
     0
  0
XRECORD
  5
24
102
{ACAD_REACTORS
330
22
102
}
330
22
100
AcDbXrecord
280
     1
270
     1
271
     1
  0
XRECORD
  5
23
102
{ACAD_REACTORS
330
22
102
}
330
22
100
AcDbXrecord
280
     1
270
     1
271
     1
  0
XRECORD
  5
11C
102
{ACAD_REACTORS
330
22
102
}
330
22
100
AcDbXrecord
280
     1
 70
     1
 90
1959938040
 71
     1
  1
749AF4A1-166C-4177-98DE-E33B25FCCE74
311
504B03040A0000080000585831403DEE336E79000000790000001B0000006175746F6465736B2D64657369676E2D7061636B6167652E786D6C3C3F786D6C2076657273696F6E3D22312E302220656E636F64696E673D227574662D3822203F3E3C666F726D6174733E3C666F726D61743E687474703A2F2F736368656D612E
311
6175746F6465736B2E636F6D2F64657369676E2D7061636B6167652F323030393C2F666F726D61743E3C2F666F726D6174733E504B030414000608080058583140D486FD9CA0000000F4000000130000005B436F6E74656E745F54797065735D2E786D6C7D8EC10E82300C865F65E91D8A1E8C310C0EEA1BF002731658846E
311
D98AC1B77784ABF1D8FE5FBFBF75BBCE937A534CCEB38643598122B6FEE978D0B0485F9C41B54DDD7D022595594E1A469170414C76A4D9A4D207E29CF43ECE46F218070CC6BECC4078ACAA135ACF422C856C0E68EA1BF5669944DDD7BCDE7B1F8E415D77AECB980613C2E4AC91FC167A2B244592486606FC29C8FD7F045B9A
311
EF7053A7E60B504B0304140006080800585831403550728AE80000007C01000008000000636F72652E786D6C8D90416EC3201045AF82668F0DC449918589E2D01BF40208488A128365A0EAF18B13476A775DCDE8CF7F33A32F8EDFD31D7DB925F91806A00D01E48289D687EB00255F30077494628931FFB2010A7A7203AC32
311
48715D629937C9C4905DC8550DD1BA4DD429B90CC8DC6B3340329F6ED28D2EB93AD2AD99B5B9E9AB6BE8ABAB7029DEA2E7116FEB3E7FF16E01C939674A9D46BC7B570A77449DF1898C7BACBA8EB0C3793F2ACA45BBC252643FBDEE9BC5E9EC2C484628C38462FAF641694F58DF714C0E3D21A25DED7FA032DB7F42C587BC63
311
DBBB4F2C81A4F591C7408A76CDA2964750B5AEB9C91F504B03041400060808005858314055019EA25F0000007C00000007000000636E782E786D6C4DCB3B0E80201045D1AD90E915ED2CF8AC45050C11660C8261F98AB1B07AC9C97D42D718D865D3E909258CFD00CCE24AC6E326A164D74DC0B4128928FF326038472BA131
311
28B1252AC747C6BAB984FC68F0B87FE8960A5C09FE86CFB69FBA01504B03041400060808005858314085C6F77165010000020300000C0000006662782F636F72652E786D6C8D52ED8E8320107C15C27F04ACED990669DA7A6F702F40957AA60A06C1F4F16FFD68BC5E9AE662826466677776541CEE6D8306EDFADA9A0CF388
311
61A44D61CBDA54190EFE4A528C0E52386BFDAF328C8C6A758647184B51391BBA052AACF1DA78408D2DF502AABED71EA3A2814B86FBE25BB72A52C143457F8B3A55DC54A5231E010D7552F4DE8101340F194F2CAF97BBA0332E450875B9B07509D3EA6BAD1D96699AC6797E3C91CD679E9384E5677264A72DC99384C5BBF3F6
311
94F354D0512C85AFDB87BBC269E5758965CC784C1827FCE38BF33D8BF7494AD86ECF98A063F9932874E53F45A1367E132F7667598F25072313F1675B88C8A35E0DE0874A41C710E13525FC1C340402217B75691E7BDC001A74E1AD4B80296D58A9413541C35486A647D09985CE5303D8EC659FF84D9FF73DE0032A538135E5
311
E17A097E9C2EE6A94B149D7664F07764AC6B55B39A9B2DAEE73AE8A5BCB08D75FF51D36555BA8449C7BF57FE00504B030414000608080058583140D4080C947C0000009D0000000B0000006662782F636E782E786D6C4DCCD10A83201886E15B91FFDC52B074A006ABBC8F581632D3703A76F9ABD1C18E3E78F87865F7D93C
311
7ADBF4723128A0150164C323CE2EAC0A4A5EB000D4699962CC7F374061DAAC829341CB35C5B25F34DB652A3E1FEA5D785E68C6C10832DC31E18662C61B82056337DC32DEF7AD302313146A2DEB5FE9D833ACBF504B03041400060808005858314042012E6F2B01000014020000310000006662782F46454446383044422D30
311
3746312D343735302D383434392D3634374343363846453438312F636F72652E786D6C8D51CB6EC32010FC15C4293D60834B6C37C2446A127F417FC0C5244589C1E251E5F3BBD48ED4DE7261D1ECCCECC08AFD7DBAA16FED8371B6C3ACA01869ABDC68ECA5C3299E498BD15E0AEF5CFC43C3C80E93EE7086B11417EFD2BC42
311
CAD9A86D04D4BA51AFE010828E18A91B5C3A1CD4979E8662481118E15ACC83BA0E175DB002DAC09322440F01D032249F58F6A763DFD2E33BA14DCF086FB694B49CBF919A378743DDF627DE32512E42295232E32A3723C43167A3FDB326592C4534D323BEF27A887AC4B2A2AC229411D67C30B6A3D58EB784D63B4A4599E9FF
311
44691E9F142563E36BB5C65D64014B78CDD2906274E9F3F608A3EFB3F311E5799BA0D50B96B4A010ACDED2AD28172A7C0078D67CF50CD179F8E0CDF513D80C58D9B8E652947947507E170835EF53FE00504B030414000608080058583140A83677B24D01000033030000300000006662782F46454446383044422D30374631
311
2D343735302D383434392D3634374343363846453438312F636E782E786D6CD593BD6E032110845F05D1DF0FCEC9B12C0E4B29F20429D272B0B6893938F113C56F9FC5268E1B1729D3A0D3EC30B3FAC4F1DDD76CC9278468BC1B296B7B4AC029AF8D3B8C34A77DB3A1642778F03EDDD9287172869116990A7E083E2F55D2B0
311
97D92654AD71A72A06883E070511E5729358AFA4C500704D4611E609B4064D6E46FCDA43C055509CCE241D81BCBEBC133F7D804A91772545F0AE74085ECEDA7467A2445919E348A33AC22C5B9993D7104FAD9649B6ACFDE97AB0D36F1229177E2A7330A4948FB49C54D48D5AE4C83B1C0A1E53407AD594CE0B502197C51A25
311
1342EE2EC6AB47F06C5C5A0FD56B107C40375B3F0D03865D668227334375A8003281A662D5B355D3B3863DBF31B6ED57DB61D3F4EB6DDFF3AED8059FBCB7F512C640F00B51DE2570890AC6BB327E84AFFA88360159FB70FE034804505BAF746E19FF994F7779DF882BE05F20BE01504B030414000608080058583140BCCA4E
311
889A0500007A100000340000006662782F46454446383044422D303746312D343735302D383434392D3634374343363846453438312F6F626A656374732E786D6CAD575B6FA33814FE2B887DCE8524BDAD28A33469AB68D4996AA219ED43A5C880A1DE1A8C6CD349F7D7EF67300432499B5DCD4B08E6F8F89CEF7CE762FFD3
311
36E3CE2B958A89FCDAF58663D7A179246296A7D76EA993C1A5EB7C0A7C2984EE88B94E4E327AED9A6537F05329CAC22EC5342125D77BAB77377F392AA239759D8813A5AE5D153DD38C0C49A9454CD5CB30269A0CD3643BF486B5605F6D2A49F1BCA7B42092E61A96623D8716A736CAEBBF8EDD51E08FCCF7C037BF566A7A5C
311
6A54F9D33F9FE54A933CFAE5B03D35536FB6BC9D9C5D0DCE66B3E960763EF106377737CB8177311D2FCE178BABF9ED150E565A4293B544D2C40DEE818D64913FAA3F057EC9723D9D58111BA091A4AFCC44CA0D268EE78F6A99D63BEBE421F32391E734AAB0021A957F56754C0B9AC78839A30A9675101AF75F3D8363E7F3D4
311
BCDB23BBCBA721D0DDD151D4D8DE3CBB968AF06FB8A04E619054D430B0C6D23A5A7375BC43381482DB6F4C3919D15432C21DCE4249E49B1B40D488047E4F8D61B234D9603C700344A1FEDCA70BD2E8639E1FB2322939373476832A0B36C815AA556519FB87CA9DF55D6460136265D870691DD26F057583AB9A22977B6CAA81
311
74124E52841C6E9A9DD3C99EA30B93A7ABA51B7CBE0BB76B93BB870F2FA428A8D4863EA05613B8E66950B236792745CE6C70F74CD981F20DC87F41AAEF4C41DC24DBCEB6337B8A96245789901962E38C9DC1183F63C7AB7ECDFFCE3F7FD46EEE47EF189E08B681EA37E0D9F7A11BCB0E9C81FF0AC20B39B5AEAD23C251361E
311
580E800C491C2EB0843A9C845B3758A1CAA12A6317E181079761EE2BFEFA23AB0685A23AA9F3CC81E55E593CA14003B68A9130A326BF357017A75FCA5975B0153B06EFD96FA1EB7CB9FEBC2E654222FA60737A491396338D16B7E34DD7A01EE63D8F5EE8DB4F216338FA2BDEEB2EDE993D4A016D83B9013E6D6ABA79D99DDC
311
3B20C2BE549872E37F70029C308DB5A3FF81A988724E722ACAE6DC77FB07DA460DB14976C3E4B6C1EC1A0B48537FD9CB4134E948B2C280D876ABB6680E8F78F77DF5058C843C1721E13BA170577A23C185DC846F9BBA2A1D44FA479FDA168291D102B65739D2A4BFC57C13B32429156AE001587FAC16DDD099AA800AD168AD
311
936506F7915B445ACE367AD1AC25412315F986A16D22ED0E1ED0D50F442D012A85C72C5694271BC679996D12C6D18C3619298EC0F1FFED0FCBACD8904C94B93EA2BB673A9A43DFF61E79D54FA2A367375857CFC10D4A6F4CE35D987BC2A6951CC0AA17DA8BD9D5FC6E36F706DEF9F96230F32E2E065797CBDBC1ED747A3339
311
BB5B2C6E2F664D9C6AE581DF749A6E42234AE86C7E29990DDFF715D2C7D6003778205A3DDDD7D9D93CBFAF861885FD11F6A05DB61BE7F12BC63E1A7FAC60277950D12A2B38CD68AE8949A107F3877F2318337AC6D4EBAB8CA4F4042D5FEFD77BCE60E5847D8F26DDE9CFBDBD76756112F2A012FD5C66614E18DFDB98D6480E
311
8B3CB5F83531699F759F695ECD9B0D0C065325388B51066327A522A31AC5F0841E2433AA40BDEE481FDBABC709BB5FEB01519390D3C692678219992BA405A85546BABFEEFC8199CE8C55D72EBAEDF0053FB652B80E3873ED6246D72CA26A18A23F9B49A8520E2E750779CCFD244F3946ED7A53FBDEEE32D8F43A722B72CAF8
311
64FDAA2BB8750065A4C0D8807908D1A98C09FCCA36FB3DFA4F8E37E63844E36F58EAD697DD42EB4C750C52B476CA5E1630C3BCD8A3B748D4F7DDF286954C0F91932E59EF92A0D63AD044A6D545C1D8674D9A2F1F4718509CD557A7E0658A589EAE692029C85C9A04078BC00AABB3201A545DFCF9F428052EB29973C74081A7
311
85C83291DB97B9BD083BEB675C6BE32794056AEE23EA6932F6264FD53DC05E4D362151744862F58205C454B216E25EE0C1C8FAB2880E547F68E54626087BDC5C2D1DDBD250631BF96E5535B060E2C8A983EC317749932B5D81E2DDABC0A812850912437CF02F504B0304140006080000585831400000000000000000000000
311
00350000006662782F46454446383044422D303746312D343735302D383434392D3634374343363846453438312F76657274696365732E62696E504B030414000608080058583140F270F1330600000004000000360000006662782F46454446383044422D303746312D343735302D383434392D3634374343363846453438
311
312F747269616E676C65732E62696E636660600000504B030414000608000058583140000000000000000000000000370000006662782F46454446383044422D303746312D343735302D383434392D3634374343363846453438312F617474726962757465732E62696E504B030414000608080058583140D5987DFC8F0000
311
0041010000360000006662782F46454446383044422D303746312D343735302D383434392D3634374343363846453438312F6469726563746F72792E786D6C858F410EC2201045AF4266AF15DDB800BA74E7C21B903225242D6328188F2FA5C4183471359997F9FF81E89FF3C41E1816475E02DF1F80A11FC8386F25A438EE
311
CEC07A250251FC3803E6F58C12560C4AD840E95E91C151A72936F496F35732D860FE635F62C8F2DA16B505C545B74125BAA2FA9E05D7CC053D063734D5C7665FD55B6B8D15D5E9BFEAFD8490FFA45E504B0304140006080800585831405DBA2FBBFB000000A00100003B0000006662782F46454446383044422D303746312D
311
343735302D383434392D3634374343363846453438312F7265736F75726365732F636F72652E786D6C8D504B6E833010BD0A9ABDC1262445C83822716FD00B586642AC041BF953F5F835814AEDAE9B99D1FB689E1E3F7FCDCFE2137D30CEF6C04A0A055AED4663A71E52BC91168AB3E0DEB9F84B06855533F6B0C220F8E45D
311
5A76483B1BD1C68C5A37E20EAA103042A19FF9E821E83BCEAA5429664578948BD20F3561C9CA4C679DE021FA1CA0D89EAC1384C7E092D71878B5B182A764C65D63C6FCD3DC0C7A106DDBD6520E0339BC4B491A2AAF64A09723914D43EBD3F57891ACE5D56A163C9AF927A3F6A8228E206ACA6A4219616F1F8C75B4EE9A96D0
311
534729AF56F91F535AC67F9A92B1F150EF71375B00C17290172178B5F695D7ABCCBCD76EC537504B010214000A0000080000585831403DEE336E79000000790000001B00000000000000000000000000000000006175746F6465736B2D64657369676E2D7061636B6167652E786D6C504B0102140014000608080058583140
311
D486FD9CA0000000F40000001300000000000000000000000000B20000005B436F6E74656E745F54797065735D2E786D6C504B01021400140006080800585831403550728AE80000007C010000080000000000000000000000000083010000636F72652E786D6C504B010214001400060808005858314055019EA25F000000
311
7C000000070000000000000000000000000091020000636E782E786D6C504B010214001400060808005858314085C6F77165010000020300000C00000000000000000000000000150300006662782F636F72652E786D6C504B0102140014000608080058583140D4080C947C0000009D0000000B0000000000000000000000
311
0000A40400006662782F636E782E786D6C504B010214001400060808005858314042012E6F2B010000140200003100000000000000000000000000490500006662782F46454446383044422D303746312D343735302D383434392D3634374343363846453438312F636F72652E786D6C504B01021400140006080800585831
311
40A83677B24D010000330300003000000000000000000000000000C30600006662782F46454446383044422D303746312D343735302D383434392D3634374343363846453438312F636E782E786D6C504B0102140014000608080058583140BCCA4E889A0500007A10000034000000000000000000000000005E0800006662
311
782F46454446383044422D303746312D343735302D383434392D3634374343363846453438312F6F626A656374732E786D6C504B010214001400060800005858314000000000000000000000000035000000000000000000000000004A0E00006662782F46454446383044422D303746312D343735302D383434392D363437
311
4343363846453438312F76657274696365732E62696E504B0102140014000608080058583140F270F133060000000400000036000000000000000000000000009D0E00006662782F46454446383044422D303746312D343735302D383434392D3634374343363846453438312F747269616E676C65732E62696E504B010214
311
00140006080000585831400000000000000000000000003700000000000000000000000000F70E00006662782F46454446383044422D303746312D343735302D383434392D3634374343363846453438312F617474726962757465732E62696E504B0102140014000608080058583140D5987DFC8F00000041010000360000
311
00000000000000000000004C0F00006662782F46454446383044422D303746312D343735302D383434392D3634374343363846453438312F6469726563746F72792E786D6C504B01021400140006080800585831405DBA2FBBFB000000A00100003B000000000000000000000000002F1000006662782F4645444638304442
311
2D303746312D343735302D383434392D3634374343363846453438312F7265736F75726365732F636F72652E786D6C504B0506000000000E000E0080040000831100000000
310
504B03040A0000080000585831403DEE336E79000000790000001B0000006175746F6465736B2D64657369676E2D7061636B6167652E786D6C3C3F786D6C2076657273696F6E3D22312E302220656E636F64696E673D227574662D3822203F3E3C666F726D6174733E3C666F726D61743E687474703A2F2F736368656D612E
310
6175746F6465736B2E636F6D2F64657369676E2D7061636B6167652F323030393C2F666F726D61743E3C2F666F726D6174733E504B030414000608080058583140D486FD9CA0000000F4000000130000005B436F6E74656E745F54797065735D2E786D6C7D8EC10E82300C865F65E91D8A1E8C310C0EEA1BF002731658846E
310
D98AC1B77784ABF1D8FE5FBFBF75BBCE937A534CCEB38643598122B6FEE978D0B0485F9C41B54DDD7D022595594E1A469170414C76A4D9A4D207E29CF43ECE46F218070CC6BECC4078ACAA135ACF422C856C0E68EA1BF5669944DDD7BCDE7B1F8E415D77AECB980613C2E4AC91FC167A2B244592486606FC29C8FD7F045B9A
310
EF7053A7E60B504B0304140006080800585831401AA5F740E80000007C01000008000000636F72652E786D6C8D90516EC3201044AF82F8C706ECC4AE85899CFA08BD00828D8B128365A0CAF18313476AFFFAB5AB611E3B1A71BACF37F4036BB0DEF59815142370DA1BEBA61EA778212D46272956EFE32F1B464ECDD0E34DC6
310
524CAB4FCB2E69EF22B89855E70DECA20A012246FA96971E07FD0DB32A548AD911AEC5A2F4554D50B0F796E194AC41AF23D6E4FFECC5C28A25FB3C56E3C81919EAE14CEA960FE483B60D190F754B9BEA70A6E320CA0D9622DAF97D5FAFA022182C39659C504658F3C558477957B7841E3B4A45B9D9FF406931FF849275B1E2
310
7BDC171672D61CE4F92045B97591C7B3A83CB7DEE403504B03041400060808005858314055019EA25F0000007C00000007000000636E782E786D6C4DCB3B0E80201045D1AD90E915ED2CF8AC45050C11660C8261F98AB1B07AC9C97D42D718D865D3E909258CFD00CCE24AC6E326A164D74DC0B4128928FF326038472BA131
310
28B1252AC747C6BAB984FC68F0B87FE8960A5C09FE86CFB69FBA01504B030414000608080058583140969834E364010000020300000C0000006662782F636F72652E786D6C8D52ED8E8320107C15C27F04AC6DBD0669ECF908F70254A967AA60104C1FFFD68FA6D74BD35C4C90CCECECCE8E8AE3AD6BD1A8DDD05893611E31
310
8CB4296DD5983AC3C15F488AD1510A67ADFF558691519DCEF00463296A6743BF42A5355E1B0FA8B1955E41350CDA6354B670C9F0507EEB4E452A78A818AE51AFCAABAA75C423A0A14E8AC13B30809621D389E5E57C1374C1A508A1A956B6A9605A7369B4C3927FEE364511739227F98924699C930F96EE49B14D52B6DF6C4F
310
ACC8059DC452F8A6BBBB2B9D565E5758C68CC78471C2F75F9C1F587C4852C27607C6049DCA9F44A1AFFE290A8DF19B78B5BBC806F00A4666E2CFB6109147831AC10F95824E21C26B4EF83968080442F6EADCDEF7B80234EAD25B970053D9F0A046D5060D53199A1F4117163ACF0D60B3977DE2377DDEF7800FA84C0DD69487
310
EB39F869BA58A6AE51F4DA91D1DF90B1AE53EDC3DC62F1713E06BD9497B6B5EE3F6ABAAE4AD730E9F4F7CA1F504B030414000608080058583140CABE901B7D0000009D0000000B0000006662782F636E782E786D6C4DCCD10AC2201886E15B91FFFC6F4A650AEA98D4EE63343724A7611A5D7E5BECA0A30F1E3E5ED57E9640
310
DE2EBF7C8A1AD8810271F19E461F670DB54C2880B446E594CADF0D481C16A76163306ACEA93E771ADD34D450560D3E3E76A447C1F88D3294CC9EF1C4A5452B648792D38BEDAF96F2AE87C6A8E6575A770B9B2F504B030414000608080058583140D325AD652B01000014020000310000006662782F30333831364530312D39
310
3142352D343639422D423839412D3936303742464442303641462F636F72652E786D6C8D51CB6EC32010FC15C4293DD806DB2576848962B5F982FE806348821283C5A3CAE777A91DA9BDE5C2A2D999D981E5FBC77447DFCA796D4D87694E305266B4529B4B876338670D467BC19DB5E10F0D23334CAAC309C6825F9C8DF30A
310
8DD6046502A0C64AB58283F72A6034DEE1D2613F5ED534E4430CC0F0B77C1EC6DB705139CDA10D3CC17D7010002D43D28905A91ACA3E09CD5ADABF67356BFBAC6FDA43D632B2ED8F1F3D6187232F16A1E0316AB9CAB58438FAAC957BD52489050F7A7AC61F9D1A8292589484961964A0DB2F4A77A4DCD54D46D88E105E24FA
310
3F519CE58BA2A84DA8CA35EE22F358505E2C0DC1A58DA7FB338C7ACCD60594E66DBC1ADFE0553929CBA66A0848162A7C0078B27AF5F4C13AF8E0CDED04EC0A58C998D582176947507E170835ED53FC00504B030414000608080058583140CE91B8A55401000033030000300000006662782F30333831364530312D39314235
310
2D343639422D423839412D3936303742464442303641462F636E782E786D6CBD93CD6EC32010845F0571F70F8EE55A1126520F7D821E7AC5B049696CB00057CDDB7749489A4B0E95AA5E90353BCCAC3E61BEFB9A27F2093E186707CACA9A12B0CA69630F035DE3BEE829D909EE9D8B77364AAC9C61A049A6821FBC5B972C69
310
D8CB758AA84EC61EB3E821B8D52B0828A79B64724A4E1800B65851847904AD41939B11BFF6E0711514C71389EF405E9EDF881B3F40C5C0AB942278953A044F676EBA3351A22619C240837A875996728D4E4338965A4659B2F2DAF560A79F24922E5C2B576F482A1F683AA9C81B95C8915738143C448FF4B2299E16A0422ECB
310
64948C08B93A1B2F1EC1576363D766AF41F01EDD9BA6EB7B0C3BCF048F6686EC501E64044D4553B3A6A859C19E5E19DBD6CDB6ED8BBADBD635AF925DF0D1B9295FC218F06E21CAD9083652C17895C68FF0651FD1C6236BE74FBF00890072EB85CE2DE32FF9B06ED3B6FFC8A73ABF6FC4E5F12F10DF504B0304140006080800
310
58583140B7AB082158070000931B0000340000006662782F30333831364530312D393142352D343639422D423839412D3936303742464442303641462F6F626A656374732E786D6CED595B6FA33814FE2B887D0E09497A5B51466D7A51B4EACC68B233DA8748C801877A6B0CB24D2FFBEBF7F802011A5AB2D37D9B870430F6
310
F139DFB9FA107C7ACEA8F388B920393B777D6FE23A98C57942587AEE96723B3A759D4F61C0F35C36A6B90E43193E77D5B01B0629CFCBC20E25788B4A2A3BA337977F3922C60CBB4E4C9110E7AE88EF71863C54CA3CC1E2C14B90445EBA7DF67CCF4C6C934D392AEE3B440BC43193C0298C33A0E218A6FCF6E3C41D87C158BD
310
0F03F56F67CD06CD9AF7CF1A6BA9DB5C12262462F12B963A646683589AF9F3ABEBE9D1D9E8683E9F8DE6C7537F7479737935F24F6693C5F1627176717D06EC6DF29C5A99125C609680FE5EDCD00FC6EA4D2DBA45601FD771CE188E3590009516AB4B9060015B35E09BB41F7D2551E3B596B0F13C57EF2D0B8DE1599B4ADFAC
310
6140B4E8822076BB4AE2EADA942FDFFC0D828B2146C90596C0AD901CB46BE1E1E0156E3809C666340C363B5D10E16448624E107528D970C4412930554D0903B3C09251CEC18194A324D09A33AFDBB6059EF9BEEBECE3725B52AA3CC30DB56345E07E580ACD19F907F31DF74D64802790B6244C9E5A2EE54B81DDF02C18EBC1
310
305097D9D4BE34403A5B8A52A111316F3B822E94EB2FAFDCF08F9BCDF34A8583FD9B173C2F3097CAE8941E355F60C8F6AA50B2DBFA8334A71680300654BB7207CA3740FE33448F1D2BA0374E9EE7CF733B5772C4C436E719E8C69938A309FC4D1C5FFFABFBC65D30AE17B7B5D78727B8A982EAF4E7F16CCBA0B1B2FC37E00C
310
834730F89CCFECAB558C28D8F31D610090321287E63004A17DBB7976C325044E08F4B00AD1D0079181DD47B80DC696CC4E2B957B59AF6380A8DD63364449009BB64860A3474FB7903D3889776A6A8AD807EFD18798EBC5D5EA8F55C9B728C677D6A7AFF0963022216BEE67A885794BA207FCF294F304047D8DF7AA897766B7
310
1280B6C25C019F5620A887DDCEAD0D625897E62ADC04EFEC0042A85CDDA07F47448C29450CE765B56F1DDD94A1D61E6F6B06379C1A8867D38E0973FC485455014EB39BD16214F27ECC49A14074C35B23591D34BD1EE9BE2F3F8345D6F37B662D19845E86E89F3A68EDC1A165D915D216885AE0CD2E9CC739CD79B479894CA4
310
73A1960036DADEF2A3451462BD5192A2021EA4FDAE0A29A991364AC8765B0A88AB7B58FCB15C34CD61E2CDFC23A7F9DF71C639445BF05DC4ADDF75F6884886521C6D51D2B75D73B79AB6D0247B4873BCA520177924F22542329A24383D049A83889F7D28F594E642108605E4ABBDE037D1987810488C362B9695563B401311
310
6558227A08028A4C0FB83AEDE81A3786D2E17D1E6BEB7D4B634DA2FF93457004B564CE2202A528E4907719F7BD2388216D740DCA1D7CC1DA2ADA5A0C5A420911BF444F98A4F7F210D40DF91EDC6338929432CA0B1483590F20FBCA5794523BBC6F50FCA0F2471497F4A30C4460BA8D08A56516C18F3038790C71ED3A30BD89
310
4283B8897D126750942159F2219B1C1F4D5EED636A866E086C6CB42514C27694A1A207F55640D4F58853836FA9F7287553664584B2BC64830CC59B75BDC992EFAA55911DC8AF2A15A16CAC085B82614098ACB36A15B3C1D475600537D281EA2512282BA83985BD9378FCDA9B34E5DE0DB8F5D38FDD2083C2AF477BCD883AAF
310
60B03CB60A03F184647CEF862B7D1D5D42FD9DE06497EAAB5AB3590102622A92979C58157D5F4279636B3437BC4352AC6F4DD6ADAEDF971E743F8231AC81DAA55EB85440679849A42A933B7543BF2108C12D1A667CA972EA21542E9244578D88DE903E75B6CA88D6A619F18A7BCCF20C7E6C4D584CCB04AF51221EA23B49A3
310
1551AC5B29BD8C5418BF29E097DB55071E181920D25755E0E1A7CE5A3BBA50E5D25E22F2BECC360C1108822DD152A31BAF60A9D548A5E5FAAACE14507781815915CF7F9D2C9AED885F278BD41AC6CF9D2C68BE4174176D1AD93C56667DD029A04E4F8ACA479C0274D7A1A65A271193CBADF8D69722888955901F5C8C5531C3
310
10ECE3F83F27EDBE2468B6EBF07F58D2F65F151C072595D664D5A4DA53B82E9B29EC647E767133BFF047FEF1F16234F74F4E4667A757D7A3EBD9EC727A74B3585C9FCC6B34B59F86411DCB74EA826713D3AA61F5643180A6ACC82949E0309F382986902FE1483FA07BCE332C2077367BDD89EDC90F58FD68DA9C126D28AE38
310
B947D01FA602B23A6054C6B23DEEFC069D4909E7EC73177A46DE03FC59AB741D483CE72E740A2489B1F036D06552FD3C4D1C32AE4EFD9618E08358AA32A259543FD7AB1436ADE85F4F199205AC5CAD1606D46D0534BF5A0D0ACD9BE5293E48F08A1D0749B8DD94128A3523CB6EA016466FB353BF918D12F660B77E06D77D5B
310
2CDFD3735A880CFA62F0A61118AA238978AADBDD8A31CBD2C5D5D731B4D99CE517A7A0650ABA1C4E69C4311873A9EA29B022B00A4BB340124C75F1FBFA2BCFE10B4FE6E8A268BDC8B32C67F6E1028E63097C217256F7F0BD275943D58055575DACA7137FBAD6DD6CDB608F3648604F9543305055114A848EB18145BEEA4CD9
310
BEE55829A1337D79E5D8F0095D006341AF9ABBE6EB9603DEA3BEA3285FD11E5EC9F966437BACA7823570684587FF02504B030414000608000058583140000000000000000000000000350000006662782F30333831364530312D393142352D343639422D423839412D3936303742464442303641462F76657274696365732E
310
62696E504B030414000608080058583140F270F1330600000004000000360000006662782F30333831364530312D393142352D343639422D423839412D3936303742464442303641462F747269616E676C65732E62696E636660600000504B030414000608000058583140000000000000000000000000370000006662782F
310
30333831364530312D393142352D343639422D423839412D3936303742464442303641462F617474726962757465732E62696E504B030414000608080058583140D5987DFC8F00000041010000360000006662782F30333831364530312D393142352D343639422D423839412D3936303742464442303641462F6469726563
310
746F72792E786D6C858F410EC2201045AF4266AF15DDB800BA74E7C21B903225242D6328188F2FA5C4183471359997F9FF81E89FF3C41E1816475E02DF1F80A11FC8386F25A438EECEC07A250251FC3803E6F58C12560C4AD840E95E91C151A72936F496F35732D860FE635F62C8F2DA16B505C545B74125BAA2FA9E05D7CC
310
053D063734D5C7665FD55B6B8D15D5E9BFEAFD8490FFA45E504B030414000608080058583140090ED9D8FB000000A00100003B0000006662782F30333831364530312D393142352D343639422D423839412D3936303742464442303641462F7265736F75726365732F636F72652E786D6C8D504B6E833010BD8AE5BDC10612
310
28328E4839422F60D9136225D8C89FAAC7AF09546A77DDCC8CDE47F3F4F8E56B79A24FF0C1383B6056508CC02AA78D9D079CE28D74185D04F7CEC55F328CAC5C60C01B8C059FBD4BEB01296723D89851EB341CA00C012246EA998F01077587451632C5AC088F6295EA2167285891E9AC133C449F03A0FDC936B1F0105CF20A
310
022F7756F0948C3E3446E79FE666C063C1DECFF53455948CCD78254D578DE48D762D994E4D47DBFA74A5D3C8CBCD2C7834CB4F46E54146D0585494558432C2DA0FC67A5AF54D47E8B9A794979BFC8F29ADFA9FA6646CACAB23EE6E0B396B0EF222042FB7BEF27A9599F7D6ADF806504B010214000A0000080000585831403D
310
EE336E79000000790000001B00000000000000000000000000000000006175746F6465736B2D64657369676E2D7061636B6167652E786D6C504B0102140014000608080058583140D486FD9CA0000000F40000001300000000000000000000000000B20000005B436F6E74656E745F54797065735D2E786D6C504B01021400
310
140006080800585831401AA5F740E80000007C010000080000000000000000000000000083010000636F72652E786D6C504B010214001400060808005858314055019EA25F0000007C000000070000000000000000000000000091020000636E782E786D6C504B0102140014000608080058583140969834E3640100000203
310
00000C00000000000000000000000000150300006662782F636F72652E786D6C504B0102140014000608080058583140CABE901B7D0000009D0000000B00000000000000000000000000A30400006662782F636E782E786D6C504B0102140014000608080058583140D325AD652B0100001402000031000000000000000000
310
00000000490500006662782F30333831364530312D393142352D343639422D423839412D3936303742464442303641462F636F72652E786D6C504B0102140014000608080058583140CE91B8A554010000330300003000000000000000000000000000C30600006662782F30333831364530312D393142352D343639422D42
310
3839412D3936303742464442303641462F636E782E786D6C504B0102140014000608080058583140B7AB082158070000931B00003400000000000000000000000000650800006662782F30333831364530312D393142352D343639422D423839412D3936303742464442303641462F6F626A656374732E786D6C504B010214
310
001400060800005858314000000000000000000000000035000000000000000000000000000F1000006662782F30333831364530312D393142352D343639422D423839412D3936303742464442303641462F76657274696365732E62696E504B0102140014000608080058583140F270F13306000000040000003600000000
310
000000000000000000621000006662782F30333831364530312D393142352D343639422D423839412D3936303742464442303641462F747269616E676C65732E62696E504B01021400140006080000585831400000000000000000000000003700000000000000000000000000BC1000006662782F30333831364530312D39
310
3142352D343639422D423839412D3936303742464442303641462F617474726962757465732E62696E504B0102140014000608080058583140D5987DFC8F000000410100003600000000000000000000000000111100006662782F30333831364530312D393142352D343639422D423839412D393630374246444230364146
310
2F6469726563746F72792E786D6C504B0102140014000608080058583140090ED9D8FB000000A00100003B00000000000000000000000000F41100006662782F30333831364530312D393142352D343639422D423839412D3936303742464442303641462F7265736F75726365732F636F72652E786D6C504B050600000000
310
0E000E0080040000481300000000
  0
XRECORD
  5
27
102
{ACAD_REACTORS
330
22
102
}
330
22
100
AcDbXrecord
280
     1
270
     1
271
     1
  0
XRECORD
  5
26
102
{ACAD_REACTORS
330
22
102
}
330
22
100
AcDbXrecord
280
     1
270
     1
271
     1
  0
XRECORD
  5
28
102
{ACAD_REACTORS
330
22
102
}
330
22
100
AcDbXrecord
280
     1
270
     1
271
     1
  0
XRECORD
  5
25
102
{ACAD_REACTORS
330
22
102
}
330
22
100
AcDbXrecord
280
     1
270
     1
271
     1
  0
XRECORD
  5
BBC
102
{ACAD_REACTORS
330
BBB
102
}
330
BBB
100
AcDbXrecord
280
     1
102
ACAD_ROUNDTRIP_2012_MLEADER_STYLE
298
     1
  0
CELLSTYLEMAP
  5
BBA
102
{ACAD_REACTORS
330
BB9
102
}
330
BB9
100
AcDbCellStyleMap
 90
        3
300
CELLSTYLE
  1
TABLEFORMAT_BEGIN
 90
        5
170
     1
 91
        0
 92
    32768
 62
   257
 93
        1
300
CONTENTFORMAT
  1
CONTENTFORMAT_BEGIN
 90
        0
 91
        0
 92
      512
 93
        0
300

 40
0.0
140
1.0
 94
        5
 62
     0
340
55
144
0.25
309
CONTENTFORMAT_END
171
     0
 94
        0
309
TABLEFORMAT_END
  1
CELLSTYLE_BEGIN
 90
        1
 91
        1
300
_TITLE
309
CELLSTYLE_END
300
CELLSTYLE
  1
TABLEFORMAT_BEGIN
 90
        5
170
     1
 91
        0
 92
        0
 62
   257
 93
        1
300
CONTENTFORMAT
  1
CONTENTFORMAT_BEGIN
 90
        0
 91
        0
 92
      512
 93
        0
300

 40
0.0
140
1.0
 94
        5
 62
     0
340
55
144
0.18
309
CONTENTFORMAT_END
171
     0
 94
        0
309
TABLEFORMAT_END
  1
CELLSTYLE_BEGIN
 90
        2
 91
        1
300
_HEADER
309
CELLSTYLE_END
300
CELLSTYLE
  1
TABLEFORMAT_BEGIN
 90
        5
170
     1
 91
        0
 92
        0
 62
   257
 93
        1
300
CONTENTFORMAT
  1
CONTENTFORMAT_BEGIN
 90
        0
 91
        0
 92
      512
 93
        0
300

 40
0.0
140
1.0
 94
        2
 62
     0
340
55
144
0.18
309
CONTENTFORMAT_END
171
     0
 94
        0
309
TABLEFORMAT_END
  1
CELLSTYLE_BEGIN
 90
        3
 91
        2
300
_DATA
309
CELLSTYLE_END
  0
XRECORD
  5
BF3
102
{ACAD_REACTORS
330
BB9
102
}
330
BB9
100
AcDbXrecord
280
     1
102
ACAD_ROUNDTRIP_PRE2007_TABLESTYLE
 90
      512
 91
        0
  1

 92
      512
 93
        0
  2

 94
      512
 95
        0
  3

  0
XRECORD
  5
BCE
102
{ACAD_REACTORS
330
BCD
102
}
330
BCD
100
AcDbXrecord
280
     1
102
RTVSPropertyOp0
 70
     1
102
RTVSPropertyOp1
 70
     1
102
RTVSPropertyOp2
 70
     1
102
RTVSPropertyOp3
 70
     1
102
RTVSPropertyOp4
 70
     1
102
RTVSPropertyOp5
 70
     1
102
RTVSPropertyOp6
 70
     1
102
RTVSPropertyOp7
 70
     1
102
RTVSPropertyOp8
 70
     1
102
RTVSPropertyOp9
 70
     1
102
RTVSPropertyOp10
 70
     1
102
RTVSPropertyOp11
 70
     1
102
RTVSPropertyOp12
 70
     1
102
RTVSPropertyOp13
 70
     1
102
RTVSPropertyOp14
 70
     1
102
RTVSPropertyOp15
 70
     1
102
RTVSPropertyOp16
 70
     1
102
RTVSPropertyOp17
 70
     1
102
RTVSPropertyOp18
 70
     1
102
RTVSPropertyOp19
 70
     1
102
RTVSPropertyOp20
 70
     1
102
RTVSPropertyOp21
 70
     1
102
RTVSPropertyOp22
 70
     1
102
RTVSPropertyOp23
 70
     1
102
RTVSPropertyOp24
 70
     1
102
RTVSPropertyOp25
 70
     1
102
RTVSPropertyOp26
 70
     1
102
RTVSPropertyOp27
 70
     1
102
RTVSPropertyOp28
 70
     1
102
RTVSPropertyOp29
 70
     1
102
RTVSPropertyOp30
 70
     1
102
RTVSPropertyOp31
 70
     1
102
RTVSPropertyOp32
 70
     1
  0
XRECORD
  5
BCC
102
{ACAD_REACTORS
330
BCB
102
}
330
BCB
100
AcDbXrecord
280
     1
102
RTVSPropertyOp0
 70
     1
102
RTVSPropertyOp1
 70
     1
102
RTVSPropertyOp2
 70
     1
102
RTVSPropertyOp3
 70
     1
102
RTVSPropertyOp4
 70
     1
102
RTVSPropertyOp5
 70
     1
102
RTVSPropertyOp6
 70
     1
102
RTVSPropertyOp7
 70
     1
102
RTVSPropertyOp8
 70
     1
102
RTVSPropertyOp9
 70
     1
102
RTVSPropertyOp10
 70
     1
102
RTVSPropertyOp11
 70
     1
102
RTVSPropertyOp12
 70
     1
102
RTVSPropertyOp13
 70
     1
102
RTVSPropertyOp14
 70
     1
102
RTVSPropertyOp15
 70
     1
102
RTVSPropertyOp16
 70
     1
102
RTVSPropertyOp17
 70
     1
102
RTVSPropertyOp18
 70
     1
102
RTVSPropertyOp19
 70
     1
102
RTVSPropertyOp20
 70
     1
102
RTVSPropertyOp21
 70
     1
102
RTVSPropertyOp22
 70
     1
102
RTVSPropertyOp23
 70
     1
102
RTVSPropertyOp24
 70
     1
102
RTVSPropertyOp25
 70
     1
102
RTVSPropertyOp26
 70
     1
102
RTVSPropertyOp27
 70
     1
102
RTVSPropertyOp28
 70
     1
102
RTVSPropertyOp29
 70
     1
102
RTVSPropertyOp30
 70
     1
102
RTVSPropertyOp31
 70
     1
102
RTVSPropertyOp32
 70
     1
  0
XRECORD
  5
BDA
102
{ACAD_REACTORS
330
BD9
102
}
330
BD9
100
AcDbXrecord
280
     1
102
RTVSPropertyOp0
 70
     1
102
RTVSPropertyOp1
 70
     1
102
RTVSPropertyOp2
 70
     1
102
RTVSPropertyOp3
 70
     1
102
RTVSPropertyOp4
 70
     1
102
RTVSPropertyOp5
 70
     1
102
RTVSPropertyOp6
 70
     1
102
RTVSPropertyOp7
 70
     1
102
RTVSPropertyOp8
 70
     1
102
RTVSPropertyOp9
 70
     1
102
RTVSPropertyOp10
 70
     1
102
RTVSPropertyOp11
 70
     1
102
RTVSPropertyOp12
 70
     1
102
RTVSPropertyOp13
 70
     1
102
RTVSPropertyOp14
 70
     1
102
RTVSPropertyOp15
 70
     1
102
RTVSPropertyOp16
 70
     1
102
RTVSPropertyOp17
 70
     1
102
RTVSPropertyOp18
 70
     1
102
RTVSPropertyOp19
 70
     1
102
RTVSPropertyOp20
 70
     1
102
RTVSPropertyOp21
 70
     1
102
RTVSPropertyOp22
 70
     1
102
RTVSPropertyOp23
 70
     1
102
RTVSPropertyOp24
 70
     1
102
RTVSPropertyOp25
 70
     1
102
RTVSPropertyOp26
 70
     1
102
RTVSPropertyOp27
 70
     1
102
RTVSPropertyOp28
 70
     1
102
RTVSPropertyOp29
 70
     1
102
RTVSPropertyOp30
 70
     1
102
RTVSPropertyOp31
 70
     1
102
RTVSPropertyOp32
 70
     1
  0
XRECORD
  5
BE2
102
{ACAD_REACTORS
330
BE1
102
}
330
BE1
100
AcDbXrecord
280
     1
102
RTVSPropertyOp0
 70
     1
102
RTVSPropertyOp1
 70
     1
102
RTVSPropertyOp2
 70
     1
102
RTVSPropertyOp3
 70
     1
102
RTVSPropertyOp4
 70
     1
102
RTVSPropertyOp5
 70
     1
102
RTVSPropertyOp6
 70
     1
102
RTVSPropertyOp7
 70
     1
102
RTVSPropertyOp8
 70
     1
102
RTVSPropertyOp9
 70
     1
102
RTVSPropertyOp10
 70
     1
102
RTVSPropertyOp11
 70
     1
102
RTVSPropertyOp12
 70
     1
102
RTVSPropertyOp13
 70
     1
102
RTVSPropertyOp14
 70
     1
102
RTVSPropertyOp15
 70
     1
102
RTVSPropertyOp16
 70
     1
102
RTVSPropertyOp17
 70
     1
102
RTVSPropertyOp18
 70
     1
102
RTVSPropertyOp19
 70
     1
102
RTVSPropertyOp20
 70
     1
102
RTVSPropertyOp21
 70
     1
102
RTVSPropertyOp22
 70
     1
102
RTVSPropertyOp23
 70
     1
102
RTVSPropertyOp24
 70
     1
102
RTVSPropertyOp25
 70
     1
102
RTVSPropertyOp26
 70
     1
102
RTVSPropertyOp27
 70
     1
102
RTVSPropertyOp28
 70
     1
102
RTVSPropertyOp29
 70
     1
102
RTVSPropertyOp30
 70
     1
102
RTVSPropertyOp31
 70
     1
102
RTVSPropertyOp32
 70
     1
  0
XRECORD
  5
BD4
102
{ACAD_REACTORS
330
BD3
102
}
330
BD3
100
AcDbXrecord
280
     1
102
RTVSPropertyOp0
 70
     1
102
RTVSPropertyOp1
 70
     1
102
RTVSPropertyOp2
 70
     1
102
RTVSPropertyOp3
 70
     1
102
RTVSPropertyOp4
 70
     1
102
RTVSPropertyOp5
 70
     1
102
RTVSPropertyOp6
 70
     1
102
RTVSPropertyOp7
 70
     1
102
RTVSPropertyOp8
 70
     1
102
RTVSPropertyOp9
 70
     1
102
RTVSPropertyOp10
 70
     1
102
RTVSPropertyOp11
 70
     1
102
RTVSPropertyOp12
 70
     1
102
RTVSPropertyOp13
 70
     1
102
RTVSPropertyOp14
 70
     1
102
RTVSPropertyOp15
 70
     1
102
RTVSPropertyOp16
 70
     1
102
RTVSPropertyOp17
 70
     1
102
RTVSPropertyOp18
 70
     1
102
RTVSPropertyOp19
 70
     1
102
RTVSPropertyOp20
 70
     1
102
RTVSPropertyOp21
 70
     1
102
RTVSPropertyOp22
 70
     1
102
RTVSPropertyOp23
 70
     1
102
RTVSPropertyOp24
 70
     1
102
RTVSPropertyOp25
 70
     1
102
RTVSPropertyOp26
 70
     1
102
RTVSPropertyOp27
 70
     1
102
RTVSPropertyOp28
 70
     1
102
RTVSPropertyOp29
 70
     1
102
RTVSPropertyOp30
 70
     1
102
RTVSPropertyOp31
 70
     1
102
RTVSPropertyOp32
 70
     1
  0
XRECORD
  5
BD8
102
{ACAD_REACTORS
330
BD7
102
}
330
BD7
100
AcDbXrecord
280
     1
102
RTVSPropertyOp0
 70
     1
102
RTVSPropertyOp1
 70
     1
102
RTVSPropertyOp2
 70
     1
102
RTVSPropertyOp3
 70
     1
102
RTVSPropertyOp4
 70
     1
102
RTVSPropertyOp5
 70
     1
102
RTVSPropertyOp6
 70
     1
102
RTVSPropertyOp7
 70
     1
102
RTVSPropertyOp8
 70
     1
102
RTVSPropertyOp9
 70
     1
102
RTVSPropertyOp10
 70
     1
102
RTVSPropertyOp11
 70
     1
102
RTVSPropertyOp12
 70
     1
102
RTVSPropertyOp13
 70
     1
102
RTVSPropertyOp14
 70
     1
102
RTVSPropertyOp15
 70
     1
102
RTVSPropertyOp16
 70
     1
102
RTVSPropertyOp17
 70
     1
102
RTVSPropertyOp18
 70
     1
102
RTVSPropertyOp19
 70
     1
102
RTVSPropertyOp20
 70
     1
102
RTVSPropertyOp21
 70
     1
102
RTVSPropertyOp22
 70
     1
102
RTVSPropertyOp23
 70
     1
102
RTVSPropertyOp24
 70
     1
102
RTVSPropertyOp25
 70
     1
102
RTVSPropertyOp26
 70
     1
102
RTVSPropertyOp27
 70
     1
102
RTVSPropertyOp28
 70
     1
102
RTVSPropertyOp29
 70
     1
102
RTVSPropertyOp30
 70
     1
102
RTVSPropertyOp31
 70
     1
102
RTVSPropertyOp32
 70
     1
  0
XRECORD
  5
BF2
102
{ACAD_REACTORS
330
BF1
102
}
330
BF1
100
AcDbXrecord
280
     1
102
RTVSPropertyOp0
 70
     0
102
RTVSPropertyOp1
 70
     0
102
RTVSPropertyOp2
 70
     0
102
RTVSPropertyOp3
 70
     0
102
RTVSPropertyOp4
 70
     0
102
RTVSPropertyOp5
 70
     0
102
RTVSPropertyOp6
 70
     0
102
RTVSPropertyOp7
 70
     0
102
RTVSPropertyOp8
 70
     0
102
RTVSPropertyOp9
 70
     0
102
RTVSPropertyOp10
 70
     0
102
RTVSPropertyOp11
 70
     0
102
RTVSPropertyOp12
 70
     0
102
RTVSPropertyOp13
 70
     0
102
RTVSPropertyOp14
 70
     2
102
RTVSPropertyOp15
 70
     0
102
RTVSPropertyOp16
 70
     0
102
RTVSPropertyOp17
 70
     0
102
RTVSPropertyOp18
 70
     0
102
RTVSPropertyOp19
 70
     0
102
RTVSPropertyOp20
 70
     0
102
RTVSPropertyOp21
 70
     0
102
RTVSPropertyOp22
 70
     0
102
RTVSPropertyOp23
 70
     0
102
RTVSPropertyOp24
 70
     0
102
RTVSPropertyOp25
 70
     0
102
RTVSPropertyOp26
 70
     0
102
RTVSPropertyOp27
 70
     0
102
RTVSPropertyOp28
 70
     1
102
RTVSPropertyOp29
 70
     1
102
RTVSPropertyOp30
 70
     1
102
RTVSPropertyOp31
 70
     1
102
RTVSPropertyOp32
 70
     1
  0
XRECORD
  5
BE0
102
{ACAD_REACTORS
330
BDF
102
}
330
BDF
100
AcDbXrecord
280
     1
102
RTVSPropertyOp0
 70
     1
102
RTVSPropertyOp1
 70
     1
102
RTVSPropertyOp2
 70
     1
102
RTVSPropertyOp3
 70
     1
102
RTVSPropertyOp4
 70
     1
102
RTVSPropertyOp5
 70
     1
102
RTVSPropertyOp6
 70
     1
102
RTVSPropertyOp7
 70
     1
102
RTVSPropertyOp8
 70
     1
102
RTVSPropertyOp9
 70
     1
102
RTVSPropertyOp10
 70
     1
102
RTVSPropertyOp11
 70
     1
102
RTVSPropertyOp12
 70
     1
102
RTVSPropertyOp13
 70
     1
102
RTVSPropertyOp14
 70
     1
102
RTVSPropertyOp15
 70
     1
102
RTVSPropertyOp16
 70
     1
102
RTVSPropertyOp17
 70
     1
102
RTVSPropertyOp18
 70
     1
102
RTVSPropertyOp19
 70
     1
102
RTVSPropertyOp20
 70
     1
102
RTVSPropertyOp21
 70
     1
102
RTVSPropertyOp22
 70
     1
102
RTVSPropertyOp23
 70
     1
102
RTVSPropertyOp24
 70
     1
102
RTVSPropertyOp25
 70
     1
102
RTVSPropertyOp26
 70
     1
102
RTVSPropertyOp27
 70
     1
102
RTVSPropertyOp28
 70
     1
102
RTVSPropertyOp29
 70
     1
102
RTVSPropertyOp30
 70
     1
102
RTVSPropertyOp31
 70
     1
102
RTVSPropertyOp32
 70
     1
  0
XRECORD
  5
BC4
102
{ACAD_REACTORS
330
BC3
102
}
330
BC3
100
AcDbXrecord
280
     1
102
RTVSPropertyOp0
 70
     1
102
RTVSPropertyOp1
 70
     1
102
RTVSPropertyOp2
 70
     1
102
RTVSPropertyOp3
 70
     1
102
RTVSPropertyOp4
 70
     1
102
RTVSPropertyOp5
 70
     1
102
RTVSPropertyOp6
 70
     1
102
RTVSPropertyOp7
 70
     1
102
RTVSPropertyOp8
 70
     1
102
RTVSPropertyOp9
 70
     1
102
RTVSPropertyOp10
 70
     1
102
RTVSPropertyOp11
 70
     1
102
RTVSPropertyOp12
 70
     1
102
RTVSPropertyOp13
 70
     1
102
RTVSPropertyOp14
 70
     1
102
RTVSPropertyOp15
 70
     1
102
RTVSPropertyOp16
 70
     1
102
RTVSPropertyOp17
 70
     1
102
RTVSPropertyOp18
 70
     1
102
RTVSPropertyOp19
 70
     1
102
RTVSPropertyOp20
 70
     1
102
RTVSPropertyOp21
 70
     1
102
RTVSPropertyOp22
 70
     1
102
RTVSPropertyOp23
 70
     1
102
RTVSPropertyOp24
 70
     1
102
RTVSPropertyOp25
 70
     1
102
RTVSPropertyOp26
 70
     1
102
RTVSPropertyOp27
 70
     1
102
RTVSPropertyOp28
 70
     1
102
RTVSPropertyOp29
 70
     1
102
RTVSPropertyOp30
 70
     1
102
RTVSPropertyOp31
 70
     1
102
RTVSPropertyOp32
 70
     1
  0
XRECORD
  5
BC6
102
{ACAD_REACTORS
330
BC5
102
}
330
BC5
100
AcDbXrecord
280
     1
102
RTVSPropertyOp0
 70
     1
102
RTVSPropertyOp1
 70
     1
102
RTVSPropertyOp2
 70
     1
102
RTVSPropertyOp3
 70
     1
102
RTVSPropertyOp4
 70
     1
102
RTVSPropertyOp5
 70
     1
102
RTVSPropertyOp6
 70
     1
102
RTVSPropertyOp7
 70
     1
102
RTVSPropertyOp8
 70
     1
102
RTVSPropertyOp9
 70
     1
102
RTVSPropertyOp10
 70
     1
102
RTVSPropertyOp11
 70
     1
102
RTVSPropertyOp12
 70
     1
102
RTVSPropertyOp13
 70
     1
102
RTVSPropertyOp14
 70
     1
102
RTVSPropertyOp15
 70
     1
102
RTVSPropertyOp16
 70
     1
102
RTVSPropertyOp17
 70
     1
102
RTVSPropertyOp18
 70
     1
102
RTVSPropertyOp19
 70
     1
102
RTVSPropertyOp20
 70
     1
102
RTVSPropertyOp21
 70
     1
102
RTVSPropertyOp22
 70
     1
102
RTVSPropertyOp23
 70
     1
102
RTVSPropertyOp24
 70
     1
102
RTVSPropertyOp25
 70
     1
102
RTVSPropertyOp26
 70
     1
102
RTVSPropertyOp27
 70
     1
102
RTVSPropertyOp28
 70
     1
102
RTVSPropertyOp29
 70
     1
102
RTVSPropertyOp30
 70
     1
102
RTVSPropertyOp31
 70
     1
102
RTVSPropertyOp32
 70
     1
  0
XRECORD
  5
BC8
102
{ACAD_REACTORS
330
BC7
102
}
330
BC7
100
AcDbXrecord
280
     1
102
RTVSPropertyOp0
 70
     1
102
RTVSPropertyOp1
 70
     1
102
RTVSPropertyOp2
 70
     1
102
RTVSPropertyOp3
 70
     1
102
RTVSPropertyOp4
 70
     1
102
RTVSPropertyOp5
 70
     1
102
RTVSPropertyOp6
 70
     1
102
RTVSPropertyOp7
 70
     1
102
RTVSPropertyOp8
 70
     1
102
RTVSPropertyOp9
 70
     1
102
RTVSPropertyOp10
 70
     1
102
RTVSPropertyOp11
 70
     1
102
RTVSPropertyOp12
 70
     1
102
RTVSPropertyOp13
 70
     1
102
RTVSPropertyOp14
 70
     1
102
RTVSPropertyOp15
 70
     1
102
RTVSPropertyOp16
 70
     1
102
RTVSPropertyOp17
 70
     1
102
RTVSPropertyOp18
 70
     1
102
RTVSPropertyOp19
 70
     1
102
RTVSPropertyOp20
 70
     1
102
RTVSPropertyOp21
 70
     1
102
RTVSPropertyOp22
 70
     1
102
RTVSPropertyOp23
 70
     1
102
RTVSPropertyOp24
 70
     1
102
RTVSPropertyOp25
 70
     1
102
RTVSPropertyOp26
 70
     1
102
RTVSPropertyOp27
 70
     1
102
RTVSPropertyOp28
 70
     1
102
RTVSPropertyOp29
 70
     1
102
RTVSPropertyOp30
 70
     1
102
RTVSPropertyOp31
 70
     1
102
RTVSPropertyOp32
 70
     1
  0
XRECORD
  5
BCA
102
{ACAD_REACTORS
330
BC9
102
}
330
BC9
100
AcDbXrecord
280
     1
102
RTVSPropertyOp0
 70
     1
102
RTVSPropertyOp1
 70
     1
102
RTVSPropertyOp2
 70
     1
102
RTVSPropertyOp3
 70
     1
102
RTVSPropertyOp4
 70
     1
102
RTVSPropertyOp5
 70
     1
102
RTVSPropertyOp6
 70
     1
102
RTVSPropertyOp7
 70
     1
102
RTVSPropertyOp8
 70
     1
102
RTVSPropertyOp9
 70
     1
102
RTVSPropertyOp10
 70
     1
102
RTVSPropertyOp11
 70
     1
102
RTVSPropertyOp12
 70
     1
102
RTVSPropertyOp13
 70
     1
102
RTVSPropertyOp14
 70
     1
102
RTVSPropertyOp15
 70
     1
102
RTVSPropertyOp16
 70
     1
102
RTVSPropertyOp17
 70
     1
102
RTVSPropertyOp18
 70
     1
102
RTVSPropertyOp19
 70
     1
102
RTVSPropertyOp20
 70
     1
102
RTVSPropertyOp21
 70
     1
102
RTVSPropertyOp22
 70
     1
102
RTVSPropertyOp23
 70
     1
102
RTVSPropertyOp24
 70
     1
102
RTVSPropertyOp25
 70
     1
102
RTVSPropertyOp26
 70
     1
102
RTVSPropertyOp27
 70
     1
102
RTVSPropertyOp28
 70
     1
102
RTVSPropertyOp29
 70
     1
102
RTVSPropertyOp30
 70
     1
102
RTVSPropertyOp31
 70
     1
102
RTVSPropertyOp32
 70
     1
  0
XRECORD
  5
BD2
102
{ACAD_REACTORS
330
BD1
102
}
330
BD1
100
AcDbXrecord
280
     1
102
RTVSPropertyOp0
 70
     1
102
RTVSPropertyOp1
 70
     1
102
RTVSPropertyOp2
 70
     1
102
RTVSPropertyOp3
 70
     1
102
RTVSPropertyOp4
 70
     1
102
RTVSPropertyOp5
 70
     1
102
RTVSPropertyOp6
 70
     1
102
RTVSPropertyOp7
 70
     1
102
RTVSPropertyOp8
 70
     1
102
RTVSPropertyOp9
 70
     1
102
RTVSPropertyOp10
 70
     1
102
RTVSPropertyOp11
 70
     1
102
RTVSPropertyOp12
 70
     1
102
RTVSPropertyOp13
 70
     1
102
RTVSPropertyOp14
 70
     1
102
RTVSPropertyOp15
 70
     1
102
RTVSPropertyOp16
 70
     1
102
RTVSPropertyOp17
 70
     1
102
RTVSPropertyOp18
 70
     1
102
RTVSPropertyOp19
 70
     1
102
RTVSPropertyOp20
 70
     1
102
RTVSPropertyOp21
 70
     1
102
RTVSPropertyOp22
 70
     1
102
RTVSPropertyOp23
 70
     1
102
RTVSPropertyOp24
 70
     1
102
RTVSPropertyOp25
 70
     1
102
RTVSPropertyOp26
 70
     1
102
RTVSPropertyOp27
 70
     1
102
RTVSPropertyOp28
 70
     1
102
RTVSPropertyOp29
 70
     1
102
RTVSPropertyOp30
 70
     1
102
RTVSPropertyOp31
 70
     1
102
RTVSPropertyOp32
 70
     1
  0
XRECORD
  5
BEE
102
{ACAD_REACTORS
330
BED
102
}
330
BED
100
AcDbXrecord
280
     1
102
RTVSPropertyOp0
 70
     0
102
RTVSPropertyOp1
 70
     0
102
RTVSPropertyOp2
 70
     0
102
RTVSPropertyOp3
 70
     0
102
RTVSPropertyOp4
 70
     0
102
RTVSPropertyOp5
 70
     0
102
RTVSPropertyOp6
 70
     0
102
RTVSPropertyOp7
 70
     0
102
RTVSPropertyOp8
 70
     0
102
RTVSPropertyOp9
 70
     0
102
RTVSPropertyOp10
 70
     0
102
RTVSPropertyOp11
 70
     0
102
RTVSPropertyOp12
 70
     0
102
RTVSPropertyOp13
 70
     0
102
RTVSPropertyOp14
 70
     2
102
RTVSPropertyOp15
 70
     0
102
RTVSPropertyOp16
 70
     0
102
RTVSPropertyOp17
 70
     0
102
RTVSPropertyOp18
 70
     0
102
RTVSPropertyOp19
 70
     0
102
RTVSPropertyOp20
 70
     0
102
RTVSPropertyOp21
 70
     0
102
RTVSPropertyOp22
 70
     0
102
RTVSPropertyOp23
 70
     0
102
RTVSPropertyOp24
 70
     0
102
RTVSPropertyOp25
 70
     0
102
RTVSPropertyOp26
 70
     0
102
RTVSPropertyOp27
 70
     0
102
RTVSPropertyOp28
 70
     1
102
RTVSPropertyOp29
 70
     1
102
RTVSPropertyOp30
 70
     1
102
RTVSPropertyOp31
 70
     1
102
RTVSPropertyOp32
 70
     1
  0
XRECORD
  5
BDE
102
{ACAD_REACTORS
330
BDD
102
}
330
BDD
100
AcDbXrecord
280
     1
102
RTVSPropertyOp0
 70
     1
102
RTVSPropertyOp1
 70
     1
102
RTVSPropertyOp2
 70
     1
102
RTVSPropertyOp3
 70
     1
102
RTVSPropertyOp4
 70
     1
102
RTVSPropertyOp5
 70
     1
102
RTVSPropertyOp6
 70
     1
102
RTVSPropertyOp7
 70
     1
102
RTVSPropertyOp8
 70
     1
102
RTVSPropertyOp9
 70
     1
102
RTVSPropertyOp10
 70
     1
102
RTVSPropertyOp11
 70
     1
102
RTVSPropertyOp12
 70
     1
102
RTVSPropertyOp13
 70
     1
102
RTVSPropertyOp14
 70
     1
102
RTVSPropertyOp15
 70
     1
102
RTVSPropertyOp16
 70
     1
102
RTVSPropertyOp17
 70
     1
102
RTVSPropertyOp18
 70
     1
102
RTVSPropertyOp19
 70
     1
102
RTVSPropertyOp20
 70
     1
102
RTVSPropertyOp21
 70
     1
102
RTVSPropertyOp22
 70
     1
102
RTVSPropertyOp23
 70
     1
102
RTVSPropertyOp24
 70
     1
102
RTVSPropertyOp25
 70
     1
102
RTVSPropertyOp26
 70
     1
102
RTVSPropertyOp27
 70
     1
102
RTVSPropertyOp28
 70
     1
102
RTVSPropertyOp29
 70
     1
102
RTVSPropertyOp30
 70
     1
102
RTVSPropertyOp31
 70
     1
102
RTVSPropertyOp32
 70
     1
  0
XRECORD
  5
BF0
102
{ACAD_REACTORS
330
BEF
102
}
330
BEF
100
AcDbXrecord
280
     1
102
RTVSPropertyOp0
 70
     0
102
RTVSPropertyOp1
 70
     0
102
RTVSPropertyOp2
 70
     0
102
RTVSPropertyOp3
 70
     0
102
RTVSPropertyOp4
 70
     0
102
RTVSPropertyOp5
 70
     0
102
RTVSPropertyOp6
 70
     0
102
RTVSPropertyOp7
 70
     0
102
RTVSPropertyOp8
 70
     0
102
RTVSPropertyOp9
 70
     0
102
RTVSPropertyOp10
 70
     0
102
RTVSPropertyOp11
 70
     0
102
RTVSPropertyOp12
 70
     0
102
RTVSPropertyOp13
 70
     0
102
RTVSPropertyOp14
 70
     2
102
RTVSPropertyOp15
 70
     0
102
RTVSPropertyOp16
 70
     0
102
RTVSPropertyOp17
 70
     0
102
RTVSPropertyOp18
 70
     0
102
RTVSPropertyOp19
 70
     0
102
RTVSPropertyOp20
 70
     0
102
RTVSPropertyOp21
 70
     0
102
RTVSPropertyOp22
 70
     0
102
RTVSPropertyOp23
 70
     0
102
RTVSPropertyOp24
 70
     0
102
RTVSPropertyOp25
 70
     0
102
RTVSPropertyOp26
 70
     0
102
RTVSPropertyOp27
 70
     0
102
RTVSPropertyOp28
 70
     1
102
RTVSPropertyOp29
 70
     1
102
RTVSPropertyOp30
 70
     1
102
RTVSPropertyOp31
 70
     1
102
RTVSPropertyOp32
 70
     1
  0
XRECORD
  5
BD6
102
{ACAD_REACTORS
330
BD5
102
}
330
BD5
100
AcDbXrecord
280
     1
102
RTVSPropertyOp0
 70
     1
102
RTVSPropertyOp1
 70
     1
102
RTVSPropertyOp2
 70
     1
102
RTVSPropertyOp3
 70
     1
102
RTVSPropertyOp4
 70
     1
102
RTVSPropertyOp5
 70
     1
102
RTVSPropertyOp6
 70
     1
102
RTVSPropertyOp7
 70
     1
102
RTVSPropertyOp8
 70
     1
102
RTVSPropertyOp9
 70
     1
102
RTVSPropertyOp10
 70
     1
102
RTVSPropertyOp11
 70
     1
102
RTVSPropertyOp12
 70
     1
102
RTVSPropertyOp13
 70
     1
102
RTVSPropertyOp14
 70
     1
102
RTVSPropertyOp15
 70
     1
102
RTVSPropertyOp16
 70
     1
102
RTVSPropertyOp17
 70
     1
102
RTVSPropertyOp18
 70
     1
102
RTVSPropertyOp19
 70
     1
102
RTVSPropertyOp20
 70
     1
102
RTVSPropertyOp21
 70
     1
102
RTVSPropertyOp22
 70
     1
102
RTVSPropertyOp23
 70
     1
102
RTVSPropertyOp24
 70
     1
102
RTVSPropertyOp25
 70
     1
102
RTVSPropertyOp26
 70
     1
102
RTVSPropertyOp27
 70
     1
102
RTVSPropertyOp28
 70
     1
102
RTVSPropertyOp29
 70
     1
102
RTVSPropertyOp30
 70
     1
102
RTVSPropertyOp31
 70
     1
102
RTVSPropertyOp32
 70
     1
  0
XRECORD
  5
BEC
102
{ACAD_REACTORS
330
BEB
102
}
330
BEB
100
AcDbXrecord
280
     1
102
RTVSPropertyOp0
 70
     1
102
RTVSPropertyOp1
 70
     1
102
RTVSPropertyOp2
 70
     1
102
RTVSPropertyOp3
 70
     1
102
RTVSPropertyOp4
 70
     1
102
RTVSPropertyOp5
 70
     1
102
RTVSPropertyOp6
 70
     1
102
RTVSPropertyOp7
 70
     1
102
RTVSPropertyOp8
 70
     1
102
RTVSPropertyOp9
 70
     1
102
RTVSPropertyOp10
 70
     1
102
RTVSPropertyOp11
 70
     1
102
RTVSPropertyOp12
 70
     1
102
RTVSPropertyOp13
 70
     1
102
RTVSPropertyOp14
 70
     1
102
RTVSPropertyOp15
 70
     1
102
RTVSPropertyOp16
 70
     1
102
RTVSPropertyOp17
 70
     1
102
RTVSPropertyOp18
 70
     1
102
RTVSPropertyOp19
 70
     1
102
RTVSPropertyOp20
 70
     1
102
RTVSPropertyOp21
 70
     1
102
RTVSPropertyOp22
 70
     1
102
RTVSPropertyOp23
 70
     1
102
RTVSPropertyOp24
 70
     1
102
RTVSPropertyOp25
 70
     1
102
RTVSPropertyOp26
 70
     1
102
RTVSPropertyOp27
 70
     1
102
RTVSPropertyOp28
 70
     1
102
RTVSPropertyOp29
 70
     1
102
RTVSPropertyOp30
 70
     1
102
RTVSPropertyOp31
 70
     1
102
RTVSPropertyOp32
 70
     1
  0
XRECORD
  5
BEA
102
{ACAD_REACTORS
330
BE9
102
}
330
BE9
100
AcDbXrecord
280
     1
102
RTVSPropertyOp0
 70
     1
102
RTVSPropertyOp1
 70
     1
102
RTVSPropertyOp2
 70
     1
102
RTVSPropertyOp3
 70
     1
102
RTVSPropertyOp4
 70
     1
102
RTVSPropertyOp5
 70
     1
102
RTVSPropertyOp6
 70
     1
102
RTVSPropertyOp7
 70
     1
102
RTVSPropertyOp8
 70
     1
102
RTVSPropertyOp9
 70
     1
102
RTVSPropertyOp10
 70
     1
102
RTVSPropertyOp11
 70
     1
102
RTVSPropertyOp12
 70
     1
102
RTVSPropertyOp13
 70
     1
102
RTVSPropertyOp14
 70
     1
102
RTVSPropertyOp15
 70
     1
102
RTVSPropertyOp16
 70
     1
102
RTVSPropertyOp17
 70
     1
102
RTVSPropertyOp18
 70
     1
102
RTVSPropertyOp19
 70
     1
102
RTVSPropertyOp20
 70
     1
102
RTVSPropertyOp21
 70
     1
102
RTVSPropertyOp22
 70
     1
102
RTVSPropertyOp23
 70
     1
102
RTVSPropertyOp24
 70
     1
102
RTVSPropertyOp25
 70
     1
102
RTVSPropertyOp26
 70
     1
102
RTVSPropertyOp27
 70
     1
102
RTVSPropertyOp28
 70
     1
102
RTVSPropertyOp29
 70
     1
102
RTVSPropertyOp30
 70
     1
102
RTVSPropertyOp31
 70
     1
102
RTVSPropertyOp32
 70
     1
  0
XRECORD
  5
BE4
102
{ACAD_REACTORS
330
BE3
102
}
330
BE3
100
AcDbXrecord
280
     1
102
RTVSPropertyOp0
 70
     1
102
RTVSPropertyOp1
 70
     1
102
RTVSPropertyOp2
 70
     1
102
RTVSPropertyOp3
 70
     1
102
RTVSPropertyOp4
 70
     1
102
RTVSPropertyOp5
 70
     1
102
RTVSPropertyOp6
 70
     1
102
RTVSPropertyOp7
 70
     1
102
RTVSPropertyOp8
 70
     1
102
RTVSPropertyOp9
 70
     1
102
RTVSPropertyOp10
 70
     1
102
RTVSPropertyOp11
 70
     1
102
RTVSPropertyOp12
 70
     1
102
RTVSPropertyOp13
 70
     1
102
RTVSPropertyOp14
 70
     1
102
RTVSPropertyOp15
 70
     1
102
RTVSPropertyOp16
 70
     1
102
RTVSPropertyOp17
 70
     1
102
RTVSPropertyOp18
 70
     1
102
RTVSPropertyOp19
 70
     1
102
RTVSPropertyOp20
 70
     1
102
RTVSPropertyOp21
 70
     1
102
RTVSPropertyOp22
 70
     1
102
RTVSPropertyOp23
 70
     1
102
RTVSPropertyOp24
 70
     1
102
RTVSPropertyOp25
 70
     1
102
RTVSPropertyOp26
 70
     1
102
RTVSPropertyOp27
 70
     1
102
RTVSPropertyOp28
 70
     1
102
RTVSPropertyOp29
 70
     1
102
RTVSPropertyOp30
 70
     1
102
RTVSPropertyOp31
 70
     1
102
RTVSPropertyOp32
 70
     1
  0
XRECORD
  5
BE6
102
{ACAD_REACTORS
330
BE5
102
}
330
BE5
100
AcDbXrecord
280
     1
102
RTVSPropertyOp0
 70
     1
102
RTVSPropertyOp1
 70
     1
102
RTVSPropertyOp2
 70
     1
102
RTVSPropertyOp3
 70
     1
102
RTVSPropertyOp4
 70
     1
102
RTVSPropertyOp5
 70
     1
102
RTVSPropertyOp6
 70
     1
102
RTVSPropertyOp7
 70
     1
102
RTVSPropertyOp8
 70
     1
102
RTVSPropertyOp9
 70
     1
102
RTVSPropertyOp10
 70
     1
102
RTVSPropertyOp11
 70
     1
102
RTVSPropertyOp12
 70
     1
102
RTVSPropertyOp13
 70
     1
102
RTVSPropertyOp14
 70
     1
102
RTVSPropertyOp15
 70
     1
102
RTVSPropertyOp16
 70
     1
102
RTVSPropertyOp17
 70
     1
102
RTVSPropertyOp18
 70
     1
102
RTVSPropertyOp19
 70
     1
102
RTVSPropertyOp20
 70
     1
102
RTVSPropertyOp21
 70
     1
102
RTVSPropertyOp22
 70
     1
102
RTVSPropertyOp23
 70
     1
102
RTVSPropertyOp24
 70
     1
102
RTVSPropertyOp25
 70
     1
102
RTVSPropertyOp26
 70
     1
102
RTVSPropertyOp27
 70
     1
102
RTVSPropertyOp28
 70
     1
102
RTVSPropertyOp29
 70
     1
102
RTVSPropertyOp30
 70
     1
102
RTVSPropertyOp31
 70
     1
102
RTVSPropertyOp32
 70
     1
  0
XRECORD
  5
BDC
102
{ACAD_REACTORS
330
BDB
102
}
330
BDB
100
AcDbXrecord
280
     1
102
RTVSPropertyOp0
 70
     1
102
RTVSPropertyOp1
 70
     1
102
RTVSPropertyOp2
 70
     1
102
RTVSPropertyOp3
 70
     1
102
RTVSPropertyOp4
 70
     1
102
RTVSPropertyOp5
 70
     1
102
RTVSPropertyOp6
 70
     1
102
RTVSPropertyOp7
 70
     1
102
RTVSPropertyOp8
 70
     1
102
RTVSPropertyOp9
 70
     1
102
RTVSPropertyOp10
 70
     1
102
RTVSPropertyOp11
 70
     1
102
RTVSPropertyOp12
 70
     1
102
RTVSPropertyOp13
 70
     1
102
RTVSPropertyOp14
 70
     1
102
RTVSPropertyOp15
 70
     1
102
RTVSPropertyOp16
 70
     1
102
RTVSPropertyOp17
 70
     1
102
RTVSPropertyOp18
 70
     1
102
RTVSPropertyOp19
 70
     1
102
RTVSPropertyOp20
 70
     1
102
RTVSPropertyOp21
 70
     1
102
RTVSPropertyOp22
 70
     1
102
RTVSPropertyOp23
 70
     1
102
RTVSPropertyOp24
 70
     1
102
RTVSPropertyOp25
 70
     1
102
RTVSPropertyOp26
 70
     1
102
RTVSPropertyOp27
 70
     1
102
RTVSPropertyOp28
 70
     1
102
RTVSPropertyOp29
 70
     1
102
RTVSPropertyOp30
 70
     1
102
RTVSPropertyOp31
 70
     1
102
RTVSPropertyOp32
 70
     1
  0
XRECORD
  5
BD0
102
{ACAD_REACTORS
330
BCF
102
}
330
BCF
100
AcDbXrecord
280
     1
102
RTVSPropertyOp0
 70
     1
102
RTVSPropertyOp1
 70
     1
102
RTVSPropertyOp2
 70
     1
102
RTVSPropertyOp3
 70
     1
102
RTVSPropertyOp4
 70
     1
102
RTVSPropertyOp5
 70
     1
102
RTVSPropertyOp6
 70
     1
102
RTVSPropertyOp7
 70
     1
102
RTVSPropertyOp8
 70
     1
102
RTVSPropertyOp9
 70
     1
102
RTVSPropertyOp10
 70
     1
102
RTVSPropertyOp11
 70
     1
102
RTVSPropertyOp12
 70
     1
102
RTVSPropertyOp13
 70
     1
102
RTVSPropertyOp14
 70
     1
102
RTVSPropertyOp15
 70
     1
102
RTVSPropertyOp16
 70
     1
102
RTVSPropertyOp17
 70
     1
102
RTVSPropertyOp18
 70
     1
102
RTVSPropertyOp19
 70
     1
102
RTVSPropertyOp20
 70
     1
102
RTVSPropertyOp21
 70
     1
102
RTVSPropertyOp22
 70
     1
102
RTVSPropertyOp23
 70
     1
102
RTVSPropertyOp24
 70
     1
102
RTVSPropertyOp25
 70
     1
102
RTVSPropertyOp26
 70
     1
102
RTVSPropertyOp27
 70
     1
102
RTVSPropertyOp28
 70
     1
102
RTVSPropertyOp29
 70
     1
102
RTVSPropertyOp30
 70
     1
102
RTVSPropertyOp31
 70
     1
102
RTVSPropertyOp32
 70
     1
  0
XRECORD
  5
BE8
102
{ACAD_REACTORS
330
BE7
102
}
330
BE7
100
AcDbXrecord
280
     1
102
RTVSPropertyOp0
 70
     1
102
RTVSPropertyOp1
 70
     1
102
RTVSPropertyOp2
 70
     1
102
RTVSPropertyOp3
 70
     1
102
RTVSPropertyOp4
 70
     1
102
RTVSPropertyOp5
 70
     1
102
RTVSPropertyOp6
 70
     1
102
RTVSPropertyOp7
 70
     1
102
RTVSPropertyOp8
 70
     1
102
RTVSPropertyOp9
 70
     1
102
RTVSPropertyOp10
 70
     1
102
RTVSPropertyOp11
 70
     1
102
RTVSPropertyOp12
 70
     1
102
RTVSPropertyOp13
 70
     1
102
RTVSPropertyOp14
 70
     1
102
RTVSPropertyOp15
 70
     1
102
RTVSPropertyOp16
 70
     1
102
RTVSPropertyOp17
 70
     1
102
RTVSPropertyOp18
 70
     1
102
RTVSPropertyOp19
 70
     1
102
RTVSPropertyOp20
 70
     1
102
RTVSPropertyOp21
 70
     1
102
RTVSPropertyOp22
 70
     1
102
RTVSPropertyOp23
 70
     1
102
RTVSPropertyOp24
 70
     1
102
RTVSPropertyOp25
 70
     1
102
RTVSPropertyOp26
 70
     1
102
RTVSPropertyOp27
 70
     1
102
RTVSPropertyOp28
 70
     1
102
RTVSPropertyOp29
 70
     1
102
RTVSPropertyOp30
 70
     1
102
RTVSPropertyOp31
 70
     1
102
RTVSPropertyOp32
 70
     1
  0
ENDSEC
  0
EOF
