  0
SECTION
  2
HEADER
  9
$ACADVER
  1
AC1015
  9
$ACADMAINTVER
 70
    18
  9
$DWGCODEPAGE
  3
ANSI_1252
  9
$INSBASE
 10
0.0
 20
0.0
 30
0.0
  9
$EXTMIN
 10
0.0
 20
0.0
 30
0.0
  9
$EXTMAX
 10
42.5
 20
27.5
 30
0.0
  9
$LIMMIN
 10
0.0
 20
0.0
  9
$LIMMAX
 10
42.5
 20
27.5
  9
$ORTHOMODE
 70
     0
  9
$REGENMODE
 70
     1
  9
$FILLMODE
 70
     1
  9
$QTEXTMODE
 70
     0
  9
$MIRRTEXT
 70
     0
  9
$LTSCALE
 40
2.5
  9
$ATTMODE
 70
     1
  9
$TEXTSIZE
 40
0.2
  9
$TRACEWID
 40
0.05
  9
$TEXTSTYLE
  7
Standard
  9
$CLAYER
  8
0
  9
$CELTYPE
  6
ByLayer
  9
$CECOLOR
 62
   256
  9
$CELTSCALE
 40
1.0
  9
$DISPSILH
 70
     0
  9
$DIMSCALE
 40
1.0
  9
$DIMASZ
 40
0.0708661417322835
  9
$DIMEXO
 40
0.0625
  9
$DIMDLI
 40
0.38
  9
$DIMRND
 40
0.0
  9
$DIMDLE
 40
0.0
  9
$DIMEXE
 40
0.18
  9
$DIMTP
 40
0.0
  9
$DIMTM
 40
0.0
  9
$DIMTXT
 40
0.0708661417322835
  9
$DIMCEN
 40
0.09
  9
$DIMTSZ
 40
0.0
  9
$DIMTOL
 70
     0
  9
$DIMLIM
 70
     0
  9
$DIMTIH
 70
     1
  9
$DIMTOH
 70
     1
  9
$DIMSE1
 70
     0
  9
$DIMSE2
 70
     0
  9
$DIMTAD
 70
     0
  9
$DIMZIN
 70
     0
  9
$DIMBLK
  1

  9
$DIMASO
 70
     1
  9
$DIMSHO
 70
     1
  9
$DIMPOST
  1

  9
$DIMAPOST
  1

  9
$DIMALT
 70
     0
  9
$DIMALTD
 70
     2
  9
$DIMALTF
 40
25.4
  9
$DIMLFAC
 40
1.0
  9
$DIMTOFL
 70
     0
  9
$DIMTVP
 40
0.0
  9
$DIMTIX
 70
     0
  9
$DIMSOXD
 70
     0
  9
$DIMSAH
 70
     0
  9
$DIMBLK1
  1

  9
$DIMBLK2
  1

  9
$DIMSTYLE
  2
Standard
  9
$DIMCLRD
 70
     0
  9
$DIMCLRE
 70
     0
  9
$DIMCLRT
 70
     0
  9
$DIMTFAC
 40
1.0
  9
$DIMGAP
 40
0.09
  9
$DIMJUST
 70
     0
  9
$DIMSD1
 70
     0
  9
$DIMSD2
 70
     0
  9
$DIMTOLJ
 70
     1
  9
$DIMTZIN
 70
     0
  9
$DIMALTZ
 70
     0
  9
$DIMALTTZ
 70
     0
  9
$DIMUPT
 70
     0
  9
$DIMDEC
 70
     4
  9
$DIMTDEC
 70
     4
  9
$DIMALTU
 70
     2
  9
$DIMALTTD
 70
     2
  9
$DIMTXSTY
  7
Standard
  9
$DIMAUNIT
 70
     0
  9
$DIMADEC
 70
     0
  9
$DIMALTRND
 40
0.0
  9
$DIMAZIN
 70
     0
  9
$DIMDSEP
 70
    46
  9
$DIMATFIT
 70
     3
  9
$DIMFRAC
 70
     0
  9
$DIMLDRBLK
  1

  9
$DIMLUNIT
 70
     2
  9
$DIMLWD
 70
    -2
  9
$DIMLWE
 70
    -2
  9
$DIMTMOVE
 70
     0
  9
$LUNITS
 70
     2
  9
$LUPREC
 70
     4
  9
$SKETCHINC
 40
0.1
  9
$FILLETRAD
 40
0.0
  9
$AUNITS
 70
     0
  9
$AUPREC
 70
     0
  9
$MENU
  1
.
  9
$ELEVATION
 40
0.0
  9
$PELEVATION
 40
0.0
  9
$THICKNESS
 40
0.0
  9
$LIMCHECK
 70
     0
  9
$CHAMFERA
 40
0.0
  9
$CHAMFERB
 40
0.0
  9
$CHAMFERC
 40
0.0
  9
$CHAMFERD
 40
0.0
  9
$SKPOLY
 70
     0
  9
$TDCREATE
 40
2455945.536836377
  9
$TDUCREATE
 40
2455945.786836377
  9
$TDUPDATE
 40
2455945.536836377
  9
$TDUUPDATE
 40
2455945.786836377
  9
$TDINDWG
 40
0.0000701736
  9
$TDUSRTIMER
 40
0.0000701736
  9
$USRTIMER
 70
     1
  9
$ANGBASE
 50
0.0
  9
$ANGDIR
 70
     0
  9
$PDMODE
 70
     0
  9
$PDSIZE
 40
0.0
  9
$PLINEWID
 40
0.0
  9
$SPLFRAME
 70
     0
  9
$SPLINETYPE
 70
     6
  9
$SPLINESEGS
 70
     8
  9
$HANDSEED
  5
CE7
  9
$SURFTAB1
 70
     6
  9
$SURFTAB2
 70
     6
  9
$SURFTYPE
 70
     6
  9
$SURFU
 70
     6
  9
$SURFV
 70
     6
  9
$UCSBASE
  2

  9
$UCSNAME
  2

  9
$UCSORG
 10
0.0
 20
0.0
 30
0.0
  9
$UCSXDIR
 10
1.0
 20
0.0
 30
0.0
  9
$UCSYDIR
 10
0.0
 20
1.0
 30
0.0
  9
$UCSORTHOREF
  2

  9
$UCSORTHOVIEW
 70
     0
  9
$UCSORGTOP
 10
0.0
 20
0.0
 30
0.0
  9
$UCSORGBOTTOM
 10
0.0
 20
0.0
 30
0.0
  9
$UCSORGLEFT
 10
0.0
 20
0.0
 30
0.0
  9
$UCSORGRIGHT
 10
0.0
 20
0.0
 30
0.0
  9
$UCSORGFRONT
 10
0.0
 20
0.0
 30
0.0
  9
$UCSORGBACK
 10
0.0
 20
0.0
 30
0.0
  9
$PUCSBASE
  2

  9
$PUCSNAME
  2

  9
$PUCSORG
 10
0.0
 20
0.0
 30
0.0
  9
$PUCSXDIR
 10
1.0
 20
0.0
 30
0.0
  9
$PUCSYDIR
 10
0.0
 20
1.0
 30
0.0
  9
$PUCSORTHOREF
  2

  9
$PUCSORTHOVIEW
 70
     0
  9
$PUCSORGTOP
 10
0.0
 20
0.0
 30
0.0
  9
$PUCSORGBOTTOM
 10
0.0
 20
0.0
 30
0.0
  9
$PUCSORGLEFT
 10
0.0
 20
0.0
 30
0.0
  9
$PUCSORGRIGHT
 10
0.0
 20
0.0
 30
0.0
  9
$PUCSORGFRONT
 10
0.0
 20
0.0
 30
0.0
  9
$PUCSORGBACK
 10
0.0
 20
0.0
 30
0.0
  9
$USERI1
 70
     0
  9
$USERI2
 70
     0
  9
$USERI3
 70
     0
  9
$USERI4
 70
     0
  9
$USERI5
 70
     0
  9
$USERR1
 40
0.0
  9
$USERR2
 40
0.0
  9
$USERR3
 40
0.0
  9
$USERR4
 40
0.0
  9
$USERR5
 40
0.0
  9
$WORLDVIEW
 70
     1
  9
$SHADEDGE
 70
     3
  9
$SHADEDIF
 70
    70
  9
$TILEMODE
 70
     1
  9
$MAXACTVP
 70
    64
  9
$PINSBASE
 10
0.0
 20
0.0
 30
0.0
  9
$PLIMCHECK
 70
     0
  9
$PEXTMIN
 10
0.0
 20
0.0
 30
0.0
  9
$PEXTMAX
 10
42.5
 20
27.5
 30
0.0
  9
$PLIMMIN
 10
0.0
 20
0.0
  9
$PLIMMAX
 10
42.5
 20
27.5
  9
$UNITMODE
 70
     0
  9
$VISRETAIN
 70
     1
  9
$PLINEGEN
 70
     0
  9
$PSLTSCALE
 70
     1
  9
$TREEDEPTH
 70
  3020
  9
$CMLSTYLE
  2
Standard
  9
$CMLJUST
 70
     0
  9
$CMLSCALE
 40
1.0
  9
$PROXYGRAPHICS
 70
     1
  9
$MEASUREMENT
 70
     0
  9
$CELWEIGHT
370
    -1
  9
$ENDCAPS
280
     0
  9
$JOINSTYLE
280
     0
  9
$LWDISPLAY
290
     0
  9
$INSUNITS
 70
     1
  9
$HYPERLINKBASE
  1

  9
$STYLESHEET
  1

  9
$XEDIT
290
     1
  9
$CEPSNTYPE
380
     0
  9
$PSTYLEMODE
290
     1
  9
$FINGERPRINTGUID
  2
{495764EF-27F6-4317-9E9A-0735C90BDE08}
  9
$VERSIONGUID
  2
{84A678D3-547E-42BF-B68E-E55EAFF171CD}
  9
$EXTNAMES
290
     1
  9
$PSVPSCALE
 40
0.0
  9
$OLESTARTUP
290
     0
  0
ENDSEC
  0
SECTION
  2
CLASSES
  0
CLASS
  1
ACDBDICTIONARYWDFLT
  2
AcDbDictionaryWithDefault
  3
ObjectDBX Classes
 90
        0
280
     0
281
     0
  0
CLASS
  1
MATERIAL
  2
AcDbMaterial
  3
ObjectDBX Classes
 90
     1153
280
     0
281
     0
  0
CLASS
  1
VISUALSTYLE
  2
AcDbVisualStyle
  3
ObjectDBX Classes
 90
     4095
280
     0
281
     0
  0
CLASS
  1
SCALE
  2
AcDbScale
  3
ObjectDBX Classes
 90
     1153
280
     0
281
     0
  0
CLASS
  1
TABLESTYLE
  2
AcDbTableStyle
  3
ObjectDBX Classes
 90
     4095
280
     0
281
     0
  0
CLASS
  1
MLEADERSTYLE
  2
AcDbMLeaderStyle
  3
ACDB_MLEADERSTYLE_CLASS
 90
     4095
280
     0
281
     0
  0
CLASS
  1
DICTIONARYVAR
  2
AcDbDictionaryVar
  3
ObjectDBX Classes
 90
        0
280
     0
281
     0
  0
CLASS
  1
CELLSTYLEMAP
  2
AcDbCellStyleMap
  3
ObjectDBX Classes
 90
     1152
280
     0
281
     0
  0
CLASS
  1
ACDBPLACEHOLDER
  2
AcDbPlaceHolder
  3
ObjectDBX Classes
 90
        0
280
     0
281
     0
  0
CLASS
  1
LAYOUT
  2
AcDbLayout
  3
ObjectDBX Classes
 90
        0
280
     0
281
     0
  0
ENDSEC
  0
SECTION
  2
TABLES
  0
TABLE
  2
VPORT
  5
8
330
0
100
AcDbSymbolTable
 70
     1
  0
VPORT
  5
57
330
8
100
AcDbSymbolTableRecord
100
AcDbViewportTableRecord
  2
*Active
 70
     0
 10
0.0
 20
0.0
 11
1.0
 21
1.0
 12
21.25
 22
13.75
 13
0.0
 23
0.0
 14
1.0
 24
1.0
 15
0.0
 25
0.0
 16
0.0
 26
0.0
 36
1.0
 17
0.0
 27
0.0
 37
0.0
 40
27.5
 41
1.545454545454545
 42
50.0
 43
0.0
 44
0.0
 50
0.0
 51
0.0
 71
     0
 72
   100
 73
     1
 74
     1
 75
     0
 76
     0
 77
     0
 78
     0
281
     0
 65
     1
110
0.0
120
0.0
130
0.0
111
1.0
121
0.0
131
0.0
112
0.0
122
1.0
132
0.0
 79
     0
146
0.0
  0
ENDTAB
  0
TABLE
  2
LTYPE
  5
5
330
0
100
AcDbSymbolTable
 70
    59
  0
LTYPE
  5
5B
330
5
100
AcDbSymbolTableRecord
100
AcDbLinetypeTableRecord
  2
ByBlock
 70
     0
  3

 72
    65
 73
     0
 40
0.0
  0
LTYPE
  5
5C
330
5
100
AcDbSymbolTableRecord
100
AcDbLinetypeTableRecord
  2
ByLayer
 70
     0
  3

 72
    65
 73
     0
 40
0.0
  0
LTYPE
  5
5D
330
5
100
AcDbSymbolTableRecord
100
AcDbLinetypeTableRecord
  2
Continuous
 70
     0
  3
Solid line
 72
    65
 73
     0
 40
0.0
  0
LTYPE
  5
7C
330
5
100
AcDbSymbolTableRecord
100
AcDbLinetypeTableRecord
  2
BY_STANDARD
 70
     0
  3
By Standard ____________    ____    ____   _
 72
    65
 73
     6
 40
1.240299999999999
 49
0.6614
 74
     0
 49
-0.0827
 74
     0
 49
0.1654
 74
     0
 49
-0.0827
 74
     0
 49
0.1654
 74
     0
 49
-0.0827
 74
     0
  0
LTYPE
  5
7D
330
5
100
AcDbSymbolTableRecord
100
AcDbLinetypeTableRecord
  2
CHAIN
 70
     0
  3
Chain ____ _ ____ _ ____ _ ____ _ ____ _ ____
 72
    65
 73
     4
 40
0.7087
 49
0.4724000000000001
 74
     0
 49
-0.0591
 74
     0
 49
0.1181
 74
     0
 49
-0.0591
 74
     0
  0
LTYPE
  5
7E
330
5
100
AcDbSymbolTableRecord
100
AcDbLinetypeTableRecord
  2
DASH_DOT
 70
     0
  3
Dash dot __ . __ . __ . __ . __ . __ . __ . __
 72
    65
 73
     4
 40
0.37
 49
0.24
 74
     0
 49
-0.06
 74
     0
 49
0.01
 74
     0
 49
-0.06
 74
     0
  0
LTYPE
  5
7F
330
5
100
AcDbSymbolTableRecord
100
AcDbLinetypeTableRecord
  2
DOUBLE_DASH_DOT
 70
     0
  3
Double-Dash Dot __ __ . __ __ . __ __ . __ _
 72
    65
 73
     6
 40
0.4398
 49
0.24
 74
     0
 49
-0.06
 74
     0
 49
0.0098
 74
     0
 49
-0.06
 74
     0
 49
0.01
 74
     0
 49
-0.06
 74
     0
  0
LTYPE
  5
80
330
5
100
AcDbSymbolTableRecord
100
AcDbLinetypeTableRecord
  2
DASH_TRIPLE_DOT
 70
     0
  3
Dash Triple-Dot _ . . . _ . . . _ . . . _
 72
    65
 73
     8
 40
0.51
 49
0.24
 74
     0
 49
-0.06
 74
     0
 49
0.01
 74
     0
 49
-0.06
 74
     0
 49
0.01
 74
     0
 49
-0.06
 74
     0
 49
0.01
 74
     0
 49
-0.06
 74
     0
  0
LTYPE
  5
81
330
5
100
AcDbSymbolTableRecord
100
AcDbLinetypeTableRecord
  2
DASHED
 70
     0
  3
Dashed __ __ __ __ __ __ __ __ __ __ __ __ __ _
 72
    65
 73
     2
 40
0.2067
 49
0.1654
 74
     0
 49
-0.0413
 74
     0
  0
LTYPE
  5
82
330
5
100
AcDbSymbolTableRecord
100
AcDbLinetypeTableRecord
  2
DASH_DOUBLE_DOT
 70
     0
  3
Dash Double-Dot __ . . __ . . __ . . __ . .
 72
    65
 73
     6
 40
0.4398
 49
0.24
 74
     0
 49
-0.06
 74
     0
 49
0.0098
 74
     0
 49
-0.06
 74
     0
 49
0.01
 74
     0
 49
-0.06
 74
     0
  0
LTYPE
  5
83
330
5
100
AcDbSymbolTableRecord
100
AcDbLinetypeTableRecord
  2
DASHED_SPACE
 70
     0
  3
Dashed Space __ __ __ __ __ __ __ __ __ __ __ _
 72
    65
 73
     2
 40
0.2067
 49
0.1654
 74
     0
 49
-0.0413
 74
     0
  0
LTYPE
  5
84
330
5
100
AcDbSymbolTableRecord
100
AcDbLinetypeTableRecord
  2
DOTTED
 70
     0
  3
Dotted . . . . . . . . . . . . . . . . . . . . 
 72
    65
 73
     2
 40
0.0482
 49
0.0069
 74
     0
 49
-0.0413
 74
     0
  0
LTYPE
  5
85
330
5
100
AcDbSymbolTableRecord
100
AcDbLinetypeTableRecord
  2
DOUBLE_DASH_CHAIN
 70
     0
  3
Double-Dash Chain ______  __  __  ______  __  _
 72
    65
 73
     6
 40
1.240299999999999
 49
0.6614
 74
     0
 49
-0.0827
 74
     0
 49
0.1654
 74
     0
 49
-0.0827
 74
     0
 49
0.1654
 74
     0
 49
-0.0827
 74
     0
  0
LTYPE
  5
87
330
5
100
AcDbSymbolTableRecord
100
AcDbLinetypeTableRecord
  2
DOUBLE_DASH_DOUBLE_DOT
 70
     0
  3
Double-Dash Double-dot _ _ . . _ _ . . _
 72
    65
 73
     8
 40
0.7400000000000001
 49
0.24
 74
     0
 49
-0.06
 74
     0
 49
0.24
 74
     0
 49
-0.06
 74
     0
 49
0.01
 74
     0
 49
-0.06
 74
     0
 49
0.01
 74
     0
 49
-0.06
 74
     0
  0
LTYPE
  5
88
330
5
100
AcDbSymbolTableRecord
100
AcDbLinetypeTableRecord
  2
DOUBLE_DASH_TRIPLE_DOT
 70
     0
  3
Double Dash Triple Dot __ __ . . . __ __ . .
 72
    65
 73
    10
 40
0.8100000000000001
 49
0.24
 74
     0
 49
-0.06
 74
     0
 49
0.24
 74
     0
 49
-0.06
 74
     0
 49
0.01
 74
     0
 49
-0.06
 74
     0
 49
0.01
 74
     0
 49
-0.06
 74
     0
 49
0.01
 74
     0
 49
-0.06
 74
     0
  0
LTYPE
  5
89
330
5
100
AcDbSymbolTableRecord
100
AcDbLinetypeTableRecord
  2
LONG_DASH_DOTTED
 70
     0
  3
Long Dash Dotted ____ . ____ . ____ . ____ . _
 72
    65
 73
     4
 40
0.3543
 49
0.2362
 74
     0
 49
-0.0295
 74
     0
 49
0.0591
 74
     0
 49
-0.0295
 74
     0
  0
LTYPE
  5
8A
330
5
100
AcDbSymbolTableRecord
100
AcDbLinetypeTableRecord
  2
LONG_DASH_DOUBLE_DOT
 70
     0
  3
Long Dash Double Dot ________  .  .  ________  
 72
    65
 73
     6
 40
0.6799999999999999
 49
0.48
 74
     0
 49
-0.06
 74
     0
 49
0.01
 74
     0
 49
-0.06
 74
     0
 49
0.01
 74
     0
 49
-0.06
 74
     0
  0
LTYPE
  5
8B
330
5
100
AcDbSymbolTableRecord
100
AcDbLinetypeTableRecord
  2
LONG_DASH_TRIPLE_DOT
 70
     0
  3
Long Dash Triple Dot ____ ... ____ ... ____
 72
    65
 73
     8
 40
0.3689
 49
0.2362
 74
     0
 49
-0.0295
 74
     0
 49
0.0049
 74
     0
 49
-0.0295
 74
     0
 49
0.0049
 74
     0
 49
-0.0295
 74
     0
 49
0.0049
 74
     0
 49
-0.0295
 74
     0
  0
LTYPE
  5
8C
330
5
100
AcDbSymbolTableRecord
100
AcDbLinetypeTableRecord
  2
BORDER
 70
     0
  3
Border __ __ . __ __ . __ __ . __ __ . __ __ .
 72
    65
 73
     6
 40
1.75
 49
0.5
 74
     0
 49
-0.25
 74
     0
 49
0.5
 74
     0
 49
-0.25
 74
     0
 49
0.0
 74
     0
 49
-0.25
 74
     0
  0
LTYPE
  5
8D
330
5
100
AcDbSymbolTableRecord
100
AcDbLinetypeTableRecord
  2
BORDER2
 70
     0
  3
Border (.5x) __.__.__.__.__.__.__.__.__.__.__.
 72
    65
 73
     6
 40
0.875
 49
0.25
 74
     0
 49
-0.125
 74
     0
 49
0.25
 74
     0
 49
-0.125
 74
     0
 49
0.0
 74
     0
 49
-0.125
 74
     0
  0
LTYPE
  5
8E
330
5
100
AcDbSymbolTableRecord
100
AcDbLinetypeTableRecord
  2
BORDERX2
 70
     0
  3
Border (2x) ____  ____  .  ____  ____  .  ___
 72
    65
 73
     6
 40
3.5
 49
1.0
 74
     0
 49
-0.5
 74
     0
 49
1.0
 74
     0
 49
-0.5
 74
     0
 49
0.0
 74
     0
 49
-0.5
 74
     0
  0
LTYPE
  5
8F
330
5
100
AcDbSymbolTableRecord
100
AcDbLinetypeTableRecord
  2
CENTER
 70
     0
  3
Center ____ _ ____ _ ____ _ ____ _ ____ _ ____
 72
    65
 73
     4
 40
2.0
 49
1.25
 74
     0
 49
-0.25
 74
     0
 49
0.25
 74
     0
 49
-0.25
 74
     0
  0
LTYPE
  5
90
330
5
100
AcDbSymbolTableRecord
100
AcDbLinetypeTableRecord
  2
CENTER2
 70
     0
  3
Center (.5x) ___ _ ___ _ ___ _ ___ _ ___ _ ___
 72
    65
 73
     4
 40
1.125
 49
0.75
 74
     0
 49
-0.125
 74
     0
 49
0.125
 74
     0
 49
-0.125
 74
     0
  0
LTYPE
  5
91
330
5
100
AcDbSymbolTableRecord
100
AcDbLinetypeTableRecord
  2
CENTERX2
 70
     0
  3
Center (2x) ________  __  ________  __  _____
 72
    65
 73
     4
 40
4.0
 49
2.5
 74
     0
 49
-0.5
 74
     0
 49
0.5
 74
     0
 49
-0.5
 74
     0
  0
LTYPE
  5
92
330
5
100
AcDbSymbolTableRecord
100
AcDbLinetypeTableRecord
  2
DASHDOT2
 70
     0
  3
Dash dot (.5x) _._._._._._._._._._._._._._._.
 72
    65
 73
     4
 40
0.5
 49
0.25
 74
     0
 49
-0.125
 74
     0
 49
0.0
 74
     0
 49
-0.125
 74
     0
  0
LTYPE
  5
93
330
5
100
AcDbSymbolTableRecord
100
AcDbLinetypeTableRecord
  2
DASHDOTX2
 70
     0
  3
Dash dot (2x) ____  .  ____  .  ____  .  ___
 72
    65
 73
     4
 40
2.0
 49
1.0
 74
     0
 49
-0.5
 74
     0
 49
0.0
 74
     0
 49
-0.5
 74
     0
  0
LTYPE
  5
95
330
5
100
AcDbSymbolTableRecord
100
AcDbLinetypeTableRecord
  2
DASHED2
 70
     0
  3
Dashed (.5x) _ _ _ _ _ _ _ _ _ _ _ _ _ _ _ _ _
 72
    65
 73
     2
 40
0.375
 49
0.25
 74
     0
 49
-0.125
 74
     0
  0
LTYPE
  5
96
330
5
100
AcDbSymbolTableRecord
100
AcDbLinetypeTableRecord
  2
DASHEDX2
 70
     0
  3
Dashed (2x) ____  ____  ____  ____  ____  ___
 72
    65
 73
     2
 40
1.5
 49
1.0
 74
     0
 49
-0.5
 74
     0
  0
LTYPE
  5
97
330
5
100
AcDbSymbolTableRecord
100
AcDbLinetypeTableRecord
  2
DIVIDE
 70
     0
  3
Divide ____ . . ____ . . ____ . . ____ . . ____
 72
    65
 73
     6
 40
1.25
 49
0.5
 74
     0
 49
-0.25
 74
     0
 49
0.0
 74
     0
 49
-0.25
 74
     0
 49
0.0
 74
     0
 49
-0.25
 74
     0
  0
LTYPE
  5
98
330
5
100
AcDbSymbolTableRecord
100
AcDbLinetypeTableRecord
  2
DIVIDE2
 70
     0
  3
Divide (.5x) __..__..__..__..__..__..__..__.._
 72
    65
 73
     6
 40
0.625
 49
0.25
 74
     0
 49
-0.125
 74
     0
 49
0.0
 74
     0
 49
-0.125
 74
     0
 49
0.0
 74
     0
 49
-0.125
 74
     0
  0
LTYPE
  5
99
330
5
100
AcDbSymbolTableRecord
100
AcDbLinetypeTableRecord
  2
DIVIDEX2
 70
     0
  3
Divide (2x) ________  .  .  ________  .  .  _
 72
    65
 73
     6
 40
2.5
 49
1.0
 74
     0
 49
-0.5
 74
     0
 49
0.0
 74
     0
 49
-0.5
 74
     0
 49
0.0
 74
     0
 49
-0.5
 74
     0
  0
LTYPE
  5
9A
330
5
100
AcDbSymbolTableRecord
100
AcDbLinetypeTableRecord
  2
DOT
 70
     0
  3
Dot . . . . . . . . . . . . . . . . . . . . . .
 72
    65
 73
     2
 40
0.25
 49
0.0
 74
     0
 49
-0.25
 74
     0
  0
LTYPE
  5
9B
330
5
100
AcDbSymbolTableRecord
100
AcDbLinetypeTableRecord
  2
DOT2
 70
     0
  3
Dot (.5x) .....................................
 72
    65
 73
     2
 40
0.125
 49
0.0
 74
     0
 49
-0.125
 74
     0
  0
LTYPE
  5
9C
330
5
100
AcDbSymbolTableRecord
100
AcDbLinetypeTableRecord
  2
DOTX2
 70
     0
  3
Dot (2x) .  .  .  .  .  .  .  .  .  .  .  .  . 
 72
    65
 73
     2
 40
0.5
 49
0.0
 74
     0
 49
-0.5
 74
     0
  0
LTYPE
  5
9D
330
5
100
AcDbSymbolTableRecord
100
AcDbLinetypeTableRecord
  2
HIDDEN
 70
     0
  3
Hidden __ __ __ __ __ __ __ __ __ __ __ __ __ _
 72
    65
 73
     2
 40
0.375
 49
0.25
 74
     0
 49
-0.125
 74
     0
  0
LTYPE
  5
9E
330
5
100
AcDbSymbolTableRecord
100
AcDbLinetypeTableRecord
  2
HIDDEN2
 70
     0
  3
Hidden (.5x) _ _ _ _ _ _ _ _ _ _ _ _ _ _ _ _ _
 72
    65
 73
     2
 40
0.1875
 49
0.125
 74
     0
 49
-0.0625
 74
     0
  0
LTYPE
  5
9F
330
5
100
AcDbSymbolTableRecord
100
AcDbLinetypeTableRecord
  2
HIDDENX2
 70
     0
  3
Hidden (2x) ____ ____ ____ ____ ____ ____ ____
 72
    65
 73
     2
 40
0.75
 49
0.5
 74
     0
 49
-0.25
 74
     0
  0
LTYPE
  5
A0
330
5
100
AcDbSymbolTableRecord
100
AcDbLinetypeTableRecord
  2
PHANTOM
 70
     0
  3
Phantom ______  __  __  ______  __  __  ______
 72
    65
 73
     6
 40
2.5
 49
1.25
 74
     0
 49
-0.25
 74
     0
 49
0.25
 74
     0
 49
-0.25
 74
     0
 49
0.25
 74
     0
 49
-0.25
 74
     0
  0
LTYPE
  5
A1
330
5
100
AcDbSymbolTableRecord
100
AcDbLinetypeTableRecord
  2
PHANTOM2
 70
     0
  3
Phantom (.5x) ___ _ _ ___ _ _ ___ _ _ ___ _ _
 72
    65
 73
     6
 40
1.25
 49
0.625
 74
     0
 49
-0.125
 74
     0
 49
0.125
 74
     0
 49
-0.125
 74
     0
 49
0.125
 74
     0
 49
-0.125
 74
     0
  0
LTYPE
  5
A2
330
5
100
AcDbSymbolTableRecord
100
AcDbLinetypeTableRecord
  2
PHANTOMX2
 70
     0
  3
Phantom (2x) ____________    ____    ____   _
 72
    65
 73
     6
 40
5.0
 49
2.5
 74
     0
 49
-0.5
 74
     0
 49
0.5
 74
     0
 49
-0.5
 74
     0
 49
0.5
 74
     0
 49
-0.5
 74
     0
  0
LTYPE
  5
A3
330
5
100
AcDbSymbolTableRecord
100
AcDbLinetypeTableRecord
  2
ACAD_ISO02W100
 70
     0
  3
ISO dash __ __ __ __ __ __ __ __ __ __ __ __ __
 72
    65
 73
     2
 40
0.59
 49
0.47
 74
     0
 49
-0.12
 74
     0
  0
LTYPE
  5
A4
330
5
100
AcDbSymbolTableRecord
100
AcDbLinetypeTableRecord
  2
ACAD_ISO03W100
 70
     0
  3
ISO dash space __    __    __    __    __    __
 72
    65
 73
     2
 40
1.179999999999999
 49
0.47
 74
     0
 49
-0.71
 74
     0
  0
LTYPE
  5
A5
330
5
100
AcDbSymbolTableRecord
100
AcDbLinetypeTableRecord
  2
ACAD_ISO04W100
 70
     0
  3
ISO long-dash dot ____ . ____ . ____ . ____ . _
 72
    65
 73
     4
 40
1.179999999999999
 49
0.9399999999999998
 74
     0
 49
-0.12
 74
     0
 49
0.0
 74
     0
 49
-0.12
 74
     0
  0
LTYPE
  5
A6
330
5
100
AcDbSymbolTableRecord
100
AcDbLinetypeTableRecord
  2
ACAD_ISO05W100
 70
     0
  3
ISO long-dash double-dot ____ .. ____ .. ____ .
 72
    65
 73
     6
 40
1.299999999999999
 49
0.9399999999999998
 74
     0
 49
-0.12
 74
     0
 49
0.0
 74
     0
 49
-0.12
 74
     0
 49
0.0
 74
     0
 49
-0.12
 74
     0
  0
LTYPE
  5
A7
330
5
100
AcDbSymbolTableRecord
100
AcDbLinetypeTableRecord
  2
ACAD_ISO06W100
 70
     0
  3
ISO long-dash triple-dot ____ ... ____ ... ____
 72
    65
 73
     8
 40
1.419999999999999
 49
0.9399999999999998
 74
     0
 49
-0.12
 74
     0
 49
0.0
 74
     0
 49
-0.12
 74
     0
 49
0.0
 74
     0
 49
-0.12
 74
     0
 49
0.0
 74
     0
 49
-0.12
 74
     0
  0
LTYPE
  5
A8
330
5
100
AcDbSymbolTableRecord
100
AcDbLinetypeTableRecord
  2
ACAD_ISO07W100
 70
     0
  3
ISO dot . . . . . . . . . . . . . . . . . . . .
 72
    65
 73
     2
 40
0.12
 49
0.0
 74
     0
 49
-0.12
 74
     0
  0
LTYPE
  5
A9
330
5
100
AcDbSymbolTableRecord
100
AcDbLinetypeTableRecord
  2
ACAD_ISO08W100
 70
     0
  3
ISO long-dash short-dash ____ __ ____ __ ____ _
 72
    65
 73
     4
 40
0.95
 49
0.47
 74
     0
 49
-0.12
 74
     0
 49
0.24
 74
     0
 49
-0.12
 74
     0
  0
LTYPE
  5
AA
330
5
100
AcDbSymbolTableRecord
100
AcDbLinetypeTableRecord
  2
ACAD_ISO09W100
 70
     0
  3
ISO long-dash double-short-dash ____ __ __ ____
 72
    65
 73
     6
 40
1.31
 49
0.47
 74
     0
 49
-0.12
 74
     0
 49
0.24
 74
     0
 49
-0.12
 74
     0
 49
0.24
 74
     0
 49
-0.12
 74
     0
  0
LTYPE
  5
AB
330
5
100
AcDbSymbolTableRecord
100
AcDbLinetypeTableRecord
  2
ACAD_ISO10W100
 70
     0
  3
ISO dash dot __ . __ . __ . __ . __ . __ . __ .
 72
    65
 73
     4
 40
0.71
 49
0.47
 74
     0
 49
-0.12
 74
     0
 49
0.0
 74
     0
 49
-0.12
 74
     0
  0
LTYPE
  5
AC
330
5
100
AcDbSymbolTableRecord
100
AcDbLinetypeTableRecord
  2
ACAD_ISO11W100
 70
     0
  3
ISO double-dash dot __ __ . __ __ . __ __ . __ 
 72
    65
 73
     6
 40
1.299999999999999
 49
0.47
 74
     0
 49
-0.12
 74
     0
 49
0.47
 74
     0
 49
-0.12
 74
     0
 49
0.0
 74
     0
 49
-0.12
 74
     0
  0
LTYPE
  5
AD
330
5
100
AcDbSymbolTableRecord
100
AcDbLinetypeTableRecord
  2
ACAD_ISO12W100
 70
     0
  3
ISO dash double-dot __ . . __ . . __ . . __ . .
 72
    65
 73
     6
 40
0.8299999999999998
 49
0.47
 74
     0
 49
-0.12
 74
     0
 49
0.0
 74
     0
 49
-0.12
 74
     0
 49
0.0
 74
     0
 49
-0.12
 74
     0
  0
LTYPE
  5
AE
330
5
100
AcDbSymbolTableRecord
100
AcDbLinetypeTableRecord
  2
ACAD_ISO13W100
 70
     0
  3
ISO double-dash double-dot __ __ . . __ __ . . 
 72
    65
 73
     8
 40
1.419999999999999
 49
0.47
 74
     0
 49
-0.12
 74
     0
 49
0.47
 74
     0
 49
-0.12
 74
     0
 49
0.0
 74
     0
 49
-0.12
 74
     0
 49
0.0
 74
     0
 49
-0.12
 74
     0
  0
LTYPE
  5
AF
330
5
100
AcDbSymbolTableRecord
100
AcDbLinetypeTableRecord
  2
ACAD_ISO14W100
 70
     0
  3
ISO dash triple-dot __ . . . __ . . . __ . . . 
 72
    65
 73
     8
 40
0.95
 49
0.47
 74
     0
 49
-0.12
 74
     0
 49
0.0
 74
     0
 49
-0.12
 74
     0
 49
0.0
 74
     0
 49
-0.12
 74
     0
 49
0.0
 74
     0
 49
-0.12
 74
     0
  0
LTYPE
  5
B0
330
5
100
AcDbSymbolTableRecord
100
AcDbLinetypeTableRecord
  2
ACAD_ISO15W100
 70
     0
  3
ISO double-dash triple-dot __ __ . . . __ __ . 
 72
    65
 73
    10
 40
1.539999999999999
 49
0.47
 74
     0
 49
-0.12
 74
     0
 49
0.47
 74
     0
 49
-0.12
 74
     0
 49
0.0
 74
     0
 49
-0.12
 74
     0
 49
0.0
 74
     0
 49
-0.12
 74
     0
 49
0.0
 74
     0
 49
-0.12
 74
     0
  0
LTYPE
  5
B3
330
5
100
AcDbSymbolTableRecord
100
AcDbLinetypeTableRecord
  2
FENCELINE1
 70
     0
  3
Fenceline circle ----0-----0----0-----0----0---
 72
    65
 73
     4
 40
1.45
 49
0.25
 74
     0
 49
-0.1
 74
     4
 75
   133
340
B2
 46
0.1
 50
0.0
 44
-0.1
 45
0.0
 49
-0.1
 74
     0
 49
1.0
 74
     0
  0
LTYPE
  5
B4
330
5
100
AcDbSymbolTableRecord
100
AcDbLinetypeTableRecord
  2
FENCELINE2
 70
     0
  3
Fenceline square ----[]-----[]----[]-----[]----
 72
    65
 73
     4
 40
1.45
 49
0.25
 74
     0
 49
-0.1
 74
     4
 75
   132
340
B2
 46
0.1
 50
0.0
 44
-0.1
 45
0.0
 49
-0.1
 74
     0
 49
1.0
 74
     0
  0
LTYPE
  5
B5
330
5
100
AcDbSymbolTableRecord
100
AcDbLinetypeTableRecord
  2
TRACKS
 70
     0
  3
Tracks -|-|-|-|-|-|-|-|-|-|-|-|-|-|-|-|-|-|-|-|
 72
    65
 73
     2
 40
0.3
 49
0.15
 74
     4
 75
   130
340
B2
 46
0.25
 50
0.0
 44
0.0
 45
0.0
 49
0.15
 74
     0
  0
LTYPE
  5
B6
330
5
100
AcDbSymbolTableRecord
100
AcDbLinetypeTableRecord
  2
BATTING
 70
     0
  3
Batting SSSSSSSSSSSSSSSSSSSSSSSSSSSSSSSSSSSSSSS
 72
    65
 73
     4
 40
0.4001000000000001
 49
0.0001
 74
     0
 49
-0.1
 74
     4
 75
   134
340
B2
 46
0.1
 50
0.0
 44
-0.1
 45
0.0
 49
-0.2
 74
     4
 75
   134
340
B2
 46
0.1
 50
180.0
 44
0.1
 45
0.0
 49
-0.1
 74
     0
  0
LTYPE
  5
B7
330
5
100
AcDbSymbolTableRecord
100
AcDbLinetypeTableRecord
  2
HOT_WATER_SUPPLY
 70
     0
  3
Hot water supply ---- HW ---- HW ---- HW ----
 72
    65
 73
     3
 40
0.9
 49
0.5
 74
     0
 49
-0.2
 74
     2
 75
     0
340
55
 46
0.1
 50
0.0
 44
-0.1
 45
-0.05
  9
HW
 49
-0.2
 74
     0
  0
LTYPE
  5
B8
330
5
100
AcDbSymbolTableRecord
100
AcDbLinetypeTableRecord
  2
GAS_LINE
 70
     0
  3
Gas line ----GAS----GAS----GAS----GAS----GAS---
 72
    65
 73
     3
 40
0.95
 49
0.5
 74
     0
 49
-0.2
 74
     2
 75
     0
340
55
 46
0.1
 50
0.0
 44
-0.1
 45
-0.05
  9
GAS
 49
-0.25
 74
     0
  0
LTYPE
  5
B9
330
5
100
AcDbSymbolTableRecord
100
AcDbLinetypeTableRecord
  2
ZIGZAG
 70
     0
  3
Zig zag /\/\/\/\/\/\/\/\/\/\/\/\/\/\/\/\/\/\/\/
 72
    65
 73
     4
 40
0.8001000000000001
 49
0.0001
 74
     0
 49
-0.2
 74
     4
 75
   131
340
B2
 46
0.2
 50
0.0
 44
-0.2
 45
0.0
 49
-0.4
 74
     4
 75
   131
340
B2
 46
0.2
 50
180.0
 44
0.2
 45
0.0
 49
-0.2
 74
     0
  0
ENDTAB
  0
TABLE
  2
LAYER
  5
2
330
0
100
AcDbSymbolTable
 70
    27
  0
LAYER
  5
54
330
2
100
AcDbSymbolTableRecord
100
AcDbLayerTableRecord
  2
0
 70
     0
 62
     7
  6
Continuous
370
     0
390
F
  0
LAYER
  5
C0
330
2
100
AcDbSymbolTableRecord
100
AcDbLayerTableRecord
  2
Center Mark (ANSI)
 70
     0
 62
     7
  6
Continuous
370
     5
390
F
  0
LAYER
  5
C1
330
2
100
AcDbSymbolTableRecord
100
AcDbLayerTableRecord
  2
Centerline (ANSI)
 70
     0
 62
     7
  6
Continuous
370
     5
390
F
  0
LAYER
  5
C3
330
2
100
AcDbSymbolTableRecord
100
AcDbLayerTableRecord
  2
Dimension (ANSI)
 70
     0
 62
     7
  6
Continuous
370
     5
390
F
  0
LAYER
  5
C5
330
2
100
AcDbSymbolTableRecord
100
AcDbLayerTableRecord
  2
Hidden (ANSI)
 70
     0
 62
     7
  6
DASHED
370
     5
390
F
  0
LAYER
  5
CC
330
2
100
AcDbSymbolTableRecord
100
AcDbLayerTableRecord
  2
Symbol (ANSI)
 70
     0
 62
     7
  6
Continuous
370
     5
390
F
  0
LAYER
  5
CF
330
2
100
AcDbSymbolTableRecord
100
AcDbLayerTableRecord
  2
Visible (ANSI)
 70
     0
 62
     7
  6
Continuous
370
     5
390
F
  0
LAYER
  5
152
330
2
100
AcDbSymbolTableRecord
100
AcDbLayerTableRecord
  2
Defpoints
 70
     0
 62
     7
  6
Continuous
290
     0
370
    -3
390
F
  0
ENDTAB
  0
TABLE
  2
STYLE
  5
3
330
0
100
AcDbSymbolTable
 70
    10
  0
STYLE
  5
55
330
3
100
AcDbSymbolTableRecord
100
AcDbTextStyleTableRecord
  2
Standard
 70
     0
 40
0.0
 41
1.0
 50
0.0
 71
     0
 42
0.2
  3
txt
  4

  0
STYLE
  5
5A
330
3
100
AcDbSymbolTableRecord
100
AcDbTextStyleTableRecord
  2
Annotative
 70
     0
 40
0.0
 41
1.0
 50
0.0
 71
     0
 42
0.2
  3
txt
  4

1001
AcadAnnotative
1000
AnnotativeData
1002
{
1070
     1
1070
     1
1002
}
  0
STYLE
  5
B2
330
3
100
AcDbSymbolTableRecord
100
AcDbTextStyleTableRecord
  2

 70
     1
 40
0.0
 41
1.0
 50
0.0
 71
     0
 42
0.2
  3
ltypeshp.shx
  4

  0
STYLE
  5
D4
330
3
100
AcDbSymbolTableRecord
100
AcDbTextStyleTableRecord
  2
ITALICC_120
 70
     0
 40
0.0
 41
1.0
 50
0.0
 71
     0
 42
0.2
  3
italicc.shx
  4

  0
STYLE
  5
D5
330
3
100
AcDbSymbolTableRecord
100
AcDbTextStyleTableRecord
  2
Label Text (ANSI)
 70
     0
 40
0.0
 41
1.0
 50
0.0
 71
     0
 42
0.2
  3
TAHOMA.TTF
  4

1001
ACAD
1000
Tahoma
1071
      256
  0
STYLE
  5
D6
330
3
100
AcDbSymbolTableRecord
100
AcDbTextStyleTableRecord
  2
Note Text (ANSI)
 70
     0
 40
0.0
 41
1.0
 50
0.0
 71
     0
 42
0.2
  3
RomanS.shx
  4

  0
STYLE
  5
D7
330
3
100
AcDbSymbolTableRecord
100
AcDbTextStyleTableRecord
  2
ROMANS
 70
     0
 40
0.0
 41
1.0
 50
0.0
 71
     0
 42
0.2
  3
romans.shx
  4

  0
STYLE
  5
D8
330
3
100
AcDbSymbolTableRecord
100
AcDbTextStyleTableRecord
  2
SANSSERIF_114
 70
     0
 40
0.0
 41
1.0
 50
0.0
 71
     0
 42
0.2
  3
TAHOMA.TTF
  4

1001
ACAD
1000
Tahoma
1071
      256
  0
STYLE
  5
D9
330
3
100
AcDbSymbolTableRecord
100
AcDbTextStyleTableRecord
  2
SANSSERIF_117
 70
     0
 40
0.0
 41
1.0
 50
0.0
 71
     0
 42
0.2
  3
TAHOMA.TTF
  4

1001
ACAD
1000
Tahoma
1071
      256
  0
STYLE
  5
117
330
3
100
AcDbSymbolTableRecord
100
AcDbTextStyleTableRecord
  2
Text Style168
 70
     0
 40
0.0
 41
1.0
 50
0.0
 71
     0
 42
0.2
  3
TAHOMA.TTF
  4

1001
ACAD
1000
Tahoma
1071
      256
  0
ENDTAB
  0
TABLE
  2
VIEW
  5
6
330
0
100
AcDbSymbolTable
 70
     0
  0
ENDTAB
  0
TABLE
  2
UCS
  5
7
330
0
100
AcDbSymbolTable
 70
     0
  0
ENDTAB
  0
TABLE
  2
APPID
  5
9
330
0
100
AcDbSymbolTable
 70
     4
  0
APPID
  5
56
330
9
100
AcDbSymbolTableRecord
100
AcDbRegAppTableRecord
  2
ACAD
 70
     0
  0
APPID
  5
5E
330
9
100
AcDbSymbolTableRecord
100
AcDbRegAppTableRecord
  2
AcadAnnotative
 70
     0
  0
APPID
  5
7B6
330
9
100
AcDbSymbolTableRecord
100
AcDbRegAppTableRecord
  2
ACAD_DSTYLE_DIMRADIAL_EXTENSION
 70
     0
  0
APPID
  5
CDC
330
9
100
AcDbSymbolTableRecord
100
AcDbRegAppTableRecord
  2
ACAD_MLEADERVER
 70
     0
  0
ENDTAB
  0
TABLE
  2
DIMSTYLE
  5
A
330
0
100
AcDbSymbolTable
 70
    15
100
AcDbDimStyleTable
 71
     2
340
E2
340
58
  0
DIMSTYLE
105
58
330
A
100
AcDbSymbolTableRecord
100
AcDbDimStyleTableRecord
  2
Standard
 70
     0
340
55
  0
DIMSTYLE
105
59
330
A
100
AcDbSymbolTableRecord
100
AcDbDimStyleTableRecord
  2
Annotative
 70
     0
340
55
1001
AcadAnnotative
1000
AnnotativeData
1002
{
1070
     1
1070
     1
1002
}
  0
DIMSTYLE
105
DA
330
A
100
AcDbSymbolTableRecord
100
AcDbDimStyleTableRecord
  2
Architectural (ANSI)
 70
     0
 40
2.5
 41
0.0984251946210861
 43
0.2362204724409449
 44
0.125
 45
0.00000001
 46
0.3937007874015748
 78
     3
 79
     3
140
0.1000000014901161
146
1.200000029802321
147
0.031496062992126
171
     1
176
   256
177
   256
178
   256
272
     2
274
     1
276
     2
277
     4
284
    12
285
     4
286
    12
340
D6
371
    -1
372
    -1
  0
DIMSTYLE
105
DB
330
A
100
AcDbSymbolTableRecord
100
AcDbDimStyleTableRecord
  2
Architectural (ANSI)$7
 70
     0
 40
2.5
 41
0.0984251946210861
 43
0.2362204724409449
 44
0.125
 45
0.00000001
 46
0.3937007874015748
 78
     3
 79
     3
140
0.1000000014901161
146
1.200000029802321
147
0.031496062992126
171
     1
176
   256
177
   256
178
   256
272
     2
274
     1
276
     2
277
     4
284
    12
285
     4
286
    12
340
D6
371
    -1
372
    -1
  0
DIMSTYLE
105
DC
330
A
100
AcDbSymbolTableRecord
100
AcDbDimStyleTableRecord
  2
Default - Fraction (ANSI)
 70
     0
 40
2.5
 41
0.0984251946210861
 43
0.2362204724409449
 44
0.125
 45
0.00000001
 46
0.3937007874015748
 79
     3
140
0.1000000014901161
146
1.200000029802321
147
0.031496062992126
171
     1
176
   256
177
   256
178
   256
272
     2
274
     1
276
     2
277
     5
284
    12
285
     4
286
    12
340
D6
371
    -1
372
    -1
  0
DIMSTYLE
105
DD
330
A
100
AcDbSymbolTableRecord
100
AcDbDimStyleTableRecord
  2
Default - Fraction (ANSI)$7
 70
     0
 40
2.5
 41
0.0984251946210861
 43
0.2362204724409449
 44
0.125
 45
0.00000001
 46
0.3937007874015748
 79
     3
140
0.1000000014901161
146
1.200000029802321
147
0.031496062992126
171
     1
176
   256
177
   256
178
   256
272
     2
274
     1
276
     2
277
     5
284
    12
285
     4
286
    12
340
D6
371
    -1
372
    -1
  0
DIMSTYLE
105
DE
330
A
100
AcDbSymbolTableRecord
100
AcDbDimStyleTableRecord
  2
Default - mm (ANSI)
 70
     0
 40
2.5
 41
0.0984251946210861
 42
0.063
 43
0.2362204724409449
 44
0.125
 45
0.00000001
 46
0.3937007874015748
 73
     0
 78
     4
 79
     1
140
0.1000000014901161
143
1.0
144
25.4
146
1.200000029802321
147
0.031496062992126
171
     1
176
   256
177
   256
178
   256
179
     1
271
     2
272
     2
274
     1
284
     4
285
     4
340
D6
371
    -1
372
    -1
  0
DIMSTYLE
105
DF
330
A
100
AcDbSymbolTableRecord
100
AcDbDimStyleTableRecord
  2
Default - mm (ANSI)$7
 70
     0
 40
2.5
 41
0.0984251946210861
 42
0.063
 43
0.2362204724409449
 44
0.125
 45
0.00000001
 46
0.3937007874015748
 73
     0
 78
     4
 79
     1
140
0.1000000014901161
143
1.0
144
25.4
146
1.200000029802321
147
0.031496062992126
171
     1
176
   256
177
   256
178
   256
179
     1
271
     2
272
     2
274
     1
284
     4
285
     4
340
D6
371
    -1
372
    -1
  0
DIMSTYLE
105
E0
330
A
100
AcDbSymbolTableRecord
100
AcDbDimStyleTableRecord
  2
Default - mm [in] (ANSI)
 70
     0
  4
 in
 40
2.5
 41
0.0984251946210861
 42
0.063
 43
0.25
 44
0.125
 45
0.00000001
 46
0.3937007874015748
 73
     0
 78
     4
 79
     1
140
0.1000000014901161
143
0.03937
144
25.4
146
1.200000029802321
147
0.031496062992126
170
     1
171
     3
176
   256
177
   256
178
   256
179
     1
271
     2
272
     2
274
     3
284
     4
285
     4
286
     4
340
D6
371
    -1
372
    -1
  0
DIMSTYLE
105
E1
330
A
100
AcDbSymbolTableRecord
100
AcDbDimStyleTableRecord
  2
Default - mm [in] (ANSI)$7
 70
     0
  4
 in
 40
2.5
 41
0.0984251946210861
 42
0.063
 43
0.25
 44
0.125
 45
0.00000001
 46
0.3937007874015748
 73
     0
 78
     4
 79
     1
140
0.1000000014901161
143
0.03937
144
25.4
146
1.200000029802321
147
0.031496062992126
170
     1
171
     3
176
   256
177
   256
178
   256
179
     1
271
     2
272
     2
274
     3
284
     4
285
     4
286
     4
340
D6
371
    -1
372
    -1
  0
DIMSTYLE
105
E2
102
{ACAD_REACTORS
330
150
330
23D
330
327
330
425
330
50F
330
60D
330
71D
330
7C7
330
870
330
982
330
A8F
330
B8D
102
}
330
A
100
AcDbSymbolTableRecord
100
AcDbDimStyleTableRecord
  2
Default (ANSI)
 70
     0
 40
2.5
 41
0.0984251946210861
 43
0.2362204724409449
 44
0.125
 45
0.00000001
 46
0.3937007874015748
140
0.1000000014901161
147
0.031496062992126
176
   256
177
   256
178
   256
271
     2
272
     2
340
D7
371
    -1
372
    -1
  0
DIMSTYLE
105
E3
330
A
100
AcDbSymbolTableRecord
100
AcDbDimStyleTableRecord
  2
Default (ANSI)$7
 70
     0
 40
2.5
 41
0.0984251946210861
 43
0.2362204724409449
 44
0.125
 45
0.00000001
 46
0.3937007874015748
140
0.1000000014901161
147
0.031496062992126
176
   256
177
   256
178
   256
271
     2
272
     2
340
D7
371
    -1
372
    -1
  0
DIMSTYLE
105
E4
330
A
100
AcDbSymbolTableRecord
100
AcDbDimStyleTableRecord
  2
Alternate (ANSI)
 70
     0
 40
2.5
 41
0.0979999974370003
340
55
342
E5
  0
DIMSTYLE
105
F7
330
A
100
AcDbSymbolTableRecord
100
AcDbDimStyleTableRecord
  2
Datum (ANSI)
 70
     0
 40
2.5
 41
0.0979999974370003
340
55
342
E5
  0
DIMSTYLE
105
106
330
A
100
AcDbSymbolTableRecord
100
AcDbDimStyleTableRecord
  2
Large (ANSI)
 70
     0
 40
2.5
 41
0.1959999948740005
340
55
342
E5
  0
ENDTAB
  0
TABLE
  2
BLOCK_RECORD
  5
1
330
0
100
AcDbSymbolTable
 70
    16
  0
BLOCK_RECORD
  5
6C
330
1
100
AcDbSymbolTableRecord
100
AcDbBlockTableRecord
  2
*Model_Space
340
6F
  0
BLOCK_RECORD
  5
68
330
1
100
AcDbSymbolTableRecord
100
AcDbBlockTableRecord
  2
*Paper_Space
340
6B
  0
BLOCK_RECORD
  5
70
330
1
100
AcDbSymbolTableRecord
100
AcDbBlockTableRecord
  2
*Paper_Space0
340
73
  0
BLOCK_RECORD
  5
E5
330
1
100
AcDbSymbolTableRecord
100
AcDbBlockTableRecord
  2
_Closed
340
0
  0
BLOCK_RECORD
  5
EC
330
1
100
AcDbSymbolTableRecord
100
AcDbBlockTableRecord
  2
DatumFilled45
340
0
  0
BLOCK_RECORD
  5
F8
330
1
100
AcDbSymbolTableRecord
100
AcDbBlockTableRecord
  2
Filled-1
340
0
  0
BLOCK_RECORD
  5
153
330
1
100
AcDbSymbolTableRecord
100
AcDbBlockTableRecord
  2
*D4
340
0
  0
BLOCK_RECORD
  5
23E
330
1
100
AcDbSymbolTableRecord
100
AcDbBlockTableRecord
  2
*D5
340
0
  0
BLOCK_RECORD
  5
328
330
1
100
AcDbSymbolTableRecord
100
AcDbBlockTableRecord
  2
*D6
340
0
  0
BLOCK_RECORD
  5
426
330
1
100
AcDbSymbolTableRecord
100
AcDbBlockTableRecord
  2
*D7
340
0
  0
BLOCK_RECORD
  5
510
330
1
100
AcDbSymbolTableRecord
100
AcDbBlockTableRecord
  2
*D8
340
0
  0
BLOCK_RECORD
  5
60E
330
1
100
AcDbSymbolTableRecord
100
AcDbBlockTableRecord
  2
*D9
340
0
  0
BLOCK_RECORD
  5
71E
330
1
100
AcDbSymbolTableRecord
100
AcDbBlockTableRecord
  2
*D10
340
0
  0
BLOCK_RECORD
  5
7C8
330
1
100
AcDbSymbolTableRecord
100
AcDbBlockTableRecord
  2
*D11
340
0
  0
BLOCK_RECORD
  5
871
330
1
100
AcDbSymbolTableRecord
100
AcDbBlockTableRecord
  2
*D12
340
0
  0
BLOCK_RECORD
  5
983
330
1
100
AcDbSymbolTableRecord
100
AcDbBlockTableRecord
  2
*D13
340
0
  0
BLOCK_RECORD
  5
A90
330
1
100
AcDbSymbolTableRecord
100
AcDbBlockTableRecord
  2
*D14
340
0
  0
BLOCK_RECORD
  5
B8E
330
1
100
AcDbSymbolTableRecord
100
AcDbBlockTableRecord
  2
*D15
340
0
  0
ENDTAB
  0
ENDSEC
  0
SECTION
  2
BLOCKS
  0
BLOCK
  5
6D
330
6C
100
AcDbEntity
  8
0
100
AcDbBlockBegin
  2
*Model_Space
 70
     0
 10
0.0
 20
0.0
 30
0.0
  3
*Model_Space
  1

  0
ENDBLK
  5
6E
330
6C
100
AcDbEntity
  8
0
100
AcDbBlockEnd
  0
BLOCK
  5
69
330
68
100
AcDbEntity
 67
     1
  8
0
100
AcDbBlockBegin
  2
*Paper_Space
 70
     0
 10
0.0
 20
0.0
 30
0.0
  3
*Paper_Space
  1

  0
ENDBLK
  5
6A
330
68
100
AcDbEntity
 67
     1
  8
0
100
AcDbBlockEnd
  0
BLOCK
  5
71
330
70
100
AcDbEntity
 67
     1
  8
0
100
AcDbBlockBegin
  2
*Paper_Space0
 70
     0
 10
0.0
 20
0.0
 30
0.0
  3
*Paper_Space0
  1

  0
ENDBLK
  5
72
330
70
100
AcDbEntity
 67
     1
  8
0
100
AcDbBlockEnd
  0
BLOCK
  5
EA
330
E5
100
AcDbEntity
  8
0
100
AcDbBlockBegin
  2
_Closed
 70
     0
 10
0.0
 20
0.0
 30
0.0
  3
_Closed
  1

  0
LINE
  5
E6
330
E5
100
AcDbEntity
  8
0
  6
ByBlock
 62
     0
370
    -2
100
AcDbLine
 10
-1.0
 20
0.1666666666666666
 30
0.0
 11
0.0
 21
0.0
 31
0.0
  0
LINE
  5
E7
330
E5
100
AcDbEntity
  8
0
  6
ByBlock
 62
     0
370
    -2
100
AcDbLine
 10
0.0
 20
0.0
 30
0.0
 11
-1.0
 21
-0.1666666666666666
 31
0.0
  0
LINE
  5
E8
330
E5
100
AcDbEntity
  8
0
  6
ByBlock
 62
     0
370
    -2
100
AcDbLine
 10
-1.0
 20
0.1666666666666666
 30
0.0
 11
-1.0
 21
-0.1666666666666666
 31
0.0
  0
LINE
  5
E9
330
E5
100
AcDbEntity
  8
0
  6
ByBlock
 62
     0
370
    -2
100
AcDbLine
 10
0.0
 20
0.0
 30
0.0
 11
-1.0
 21
0.0
 31
0.0
  0
ENDBLK
  5
EB
330
E5
100
AcDbEntity
  8
0
100
AcDbBlockEnd
  0
BLOCK
  5
ED
330
EC
100
AcDbEntity
  8
0
100
AcDbBlockBegin
  2
DatumFilled45
 70
     0
 10
0.0
 20
0.0
 30
0.0
  3
DatumFilled45
  1

  0
POLYLINE
  5
EF
330
EC
100
AcDbEntity
  8
0
 62
     0
100
AcDb2dPolyline
 66
     1
 10
0.0
 20
0.0
 30
0.0
 70
   128
  0
VERTEX
  5
F0
330
EF
100
AcDbEntity
  8
0
 62
     0
100
AcDbVertex
100
AcDb2dVertex
 10
0.0
 20
0.9999999999999998
 30
0.0
  0
VERTEX
  5
F1
330
EF
100
AcDbEntity
  8
0
 62
     0
100
AcDbVertex
100
AcDb2dVertex
 10
0.0
 20
-0.9999999999999998
 30
0.0
  0
VERTEX
  5
F3
330
EF
100
AcDbEntity
  8
0
 62
     0
100
AcDbVertex
100
AcDb2dVertex
 10
-0.9999999999999998
 20
0.0
 30
0.0
  0
VERTEX
  5
F4
330
EF
100
AcDbEntity
  8
0
 62
     0
100
AcDbVertex
100
AcDb2dVertex
 10
0.0
 20
0.9999999999999998
 30
0.0
  0
SEQEND
  5
F2
330
EF
100
AcDbEntity
  8
0
 62
     0
  0
SOLID
  5
F6
330
EC
100
AcDbEntity
  8
0
 62
     0
100
AcDbTrace
 10
0.0
 20
0.9999999999999998
 30
0.0
 11
0.0
 21
-0.9999999999999998
 31
0.0
 12
-0.9999999999999998
 22
0.0
 32
0.0
 13
0.0
 23
0.9999999999999998
 33
0.0
  0
ENDBLK
  5
EE
330
EC
100
AcDbEntity
  8
0
100
AcDbBlockEnd
  0
BLOCK
  5
F9
330
F8
100
AcDbEntity
  8
0
100
AcDbBlockBegin
  2
Filled-1
 70
     0
 10
0.0
 20
0.0
 30
0.0
  3
Filled-1
  1

  0
LINE
  5
FB
330
F8
100
AcDbEntity
  8
0
 62
     0
100
AcDbLine
 10
-0.9999999999999998
 20
0.0
 30
0.0
 11
0.0
 21
0.0
 31
0.0
  0
POLYLINE
  5
FC
330
F8
100
AcDbEntity
  8
0
 62
     0
100
AcDb2dPolyline
 66
     1
 10
0.0
 20
0.0
 30
0.0
 70
   128
  0
VERTEX
  5
FD
330
FC
100
AcDbEntity
  8
0
 62
     0
100
AcDbVertex
100
AcDb2dVertex
 10
-0.9999999999999998
 20
-0.0994897959183674
 30
0.0
  0
VERTEX
  5
FE
330
FC
100
AcDbEntity
  8
0
 62
     0
100
AcDbVertex
100
AcDb2dVertex
 10
0.0
 20
0.0
 30
0.0
  0
VERTEX
  5
100
330
FC
100
AcDbEntity
  8
0
 62
     0
100
AcDbVertex
100
AcDb2dVertex
 10
-0.9999999999999998
 20
0.0994897959183674
 30
0.0
  0
VERTEX
  5
101
330
FC
100
AcDbEntity
  8
0
 62
     0
100
AcDbVertex
100
AcDb2dVertex
 10
-0.9999999999999998
 20
-0.0994897959183674
 30
0.0
  0
SEQEND
  5
FF
330
FC
100
AcDbEntity
  8
0
 62
     0
  0
SOLID
  5
102
330
F8
100
AcDbEntity
  8
0
 62
     0
100
AcDbTrace
 10
-0.9999999999999998
 20
-0.0994897959183674
 30
0.0
 11
0.0
 21
0.0
 31
0.0
 12
-0.9999999999999998
 22
0.0994897959183674
 32
0.0
 13
-0.9999999999999998
 23
-0.0994897959183674
 33
0.0
  0
LINE
  5
103
330
F8
100
AcDbEntity
  8
0
 62
     0
100
AcDbLine
 10
-0.9999999999999998
 20
-0.0994897959183674
 30
0.0
 11
0.0
 21
0.0
 31
0.0
  0
LINE
  5
104
330
F8
100
AcDbEntity
  8
0
 62
     0
100
AcDbLine
 10
0.0
 20
0.0
 30
0.0
 11
-0.9999999999999998
 21
0.0994897959183674
 31
0.0
  0
LINE
  5
105
330
F8
100
AcDbEntity
  8
0
 62
     0
100
AcDbLine
 10
-0.9999999999999998
 20
0.0994897959183674
 30
0.0
 11
-0.9999999999999998
 21
-0.0994897959183674
 31
0.0
  0
ENDBLK
  5
FA
330
F8
100
AcDbEntity
  8
0
100
AcDbBlockEnd
  0
BLOCK
  5
154
330
153
100
AcDbEntity
  8
0
100
AcDbBlockBegin
  2
*D4
 70
     1
 10
0.0
 20
0.0
 30
0.0
  3
*D4
  1

  0
LINE
  5
233
330
153
100
AcDbEntity
  8
Dimension (ANSI)
100
AcDbLine
 10
7.823435043207054
 20
22.35972318268619
 30
0.0
 11
7.823435043207054
 21
25.86242987559958
 31
0.0
  0
LINE
  5
234
330
153
100
AcDbEntity
  8
Dimension (ANSI)
100
AcDbLine
 10
18.02343504320706
 20
22.35972318268619
 30
0.0
 11
18.02343504320706
 21
25.86242987559958
 31
0.0
  0
LINE
  5
235
330
153
100
AcDbEntity
  8
Dimension (ANSI)
100
AcDbLine
 10
8.06949802975977
 20
25.54992987559958
 30
0.0
 11
12.24350440057783
 21
25.54992987559958
 31
0.0
  0
LINE
  5
236
330
153
100
AcDbEntity
  8
Dimension (ANSI)
100
AcDbLine
 10
17.77737205665434
 20
25.54992987559958
 30
0.0
 11
13.60336568583628
 21
25.54992987559958
 31
0.0
  0
SOLID
  5
237
330
153
100
AcDbEntity
  8
Dimension (ANSI)
100
AcDbTrace
 10
8.06949802975977
 20
25.59094037335837
 30
0.0
 11
8.06949802975977
 21
25.50891937784079
 31
0.0
 12
7.823435043207054
 22
25.54992987559958
 32
0.0
 13
7.823435043207054
 23
25.54992987559958
 33
0.0
  0
SOLID
  5
238
330
153
100
AcDbEntity
  8
Dimension (ANSI)
100
AcDbTrace
 10
17.77737205665434
 20
25.59094037335837
 30
0.0
 11
17.77737205665434
 21
25.50891937784079
 31
0.0
 12
18.02343504320706
 22
25.54992987559958
 32
0.0
 13
18.02343504320706
 23
25.54992987559958
 33
0.0
  0
MTEXT
  5
239
330
153
100
AcDbEntity
  8
Dimension (ANSI)
100
AcDbMText
 10
12.32224455805814
 20
25.67492987746222
 30
0.0
 40
0.2500000037252903
 41
0.0
 71
     1
 72
     1
  1
\A1;10.200
  7
ROMANS
 73
     1
 44
1.0
1001
ACAD
1000
MTEXTBEGIN
1070
    73
1070
     1
1070
    44
1040
1.0
1070
    74
1070
     0
1000
MTEXTEND
  0
POINT
  5
23A
330
153
100
AcDbEntity
  8
Defpoints
 62
     0
100
AcDbPoint
 10
7.823435043207054
 20
22.20347318268619
 30
0.0
  0
POINT
  5
23B
330
153
100
AcDbEntity
  8
Defpoints
 62
     0
100
AcDbPoint
 10
18.02343504320706
 20
22.20347318268619
 30
0.0
  0
POINT
  5
23C
330
153
100
AcDbEntity
  8
Defpoints
 62
     0
100
AcDbPoint
 10
18.02343504320706
 20
25.54992987559958
 30
0.0
  0
ENDBLK
  5
155
330
153
100
AcDbEntity
  8
0
100
AcDbBlockEnd
  0
BLOCK
  5
23F
330
23E
100
AcDbEntity
  8
0
100
AcDbBlockBegin
  2
*D5
 70
     1
 10
0.0
 20
0.0
 30
0.0
  3
*D5
  1

  0
LINE
  5
31D
330
23E
100
AcDbEntity
  8
Dimension (ANSI)
100
AcDbLine
 10
8.323435043207055
 20
22.8597231826862
 30
0.0
 11
8.323435043207055
 21
25.18132751339486
 31
0.0
  0
LINE
  5
31E
330
23E
100
AcDbEntity
  8
Dimension (ANSI)
100
AcDbLine
 10
17.52343504320705
 20
22.8597231826862
 30
0.0
 11
17.52343504320705
 21
25.18132751339486
 31
0.0
  0
LINE
  5
31F
330
23E
100
AcDbEntity
  8
Dimension (ANSI)
100
AcDbLine
 10
8.56949802975977
 20
24.86882751339486
 30
0.0
 11
11.8387424897845
 21
24.86882751339486
 31
0.0
  0
LINE
  5
320
330
23E
100
AcDbEntity
  8
Dimension (ANSI)
100
AcDbLine
 10
17.27737205665434
 20
24.86882751339486
 30
0.0
 11
14.00812759662961
 21
24.86882751339486
 31
0.0
  0
SOLID
  5
321
330
23E
100
AcDbEntity
  8
Dimension (ANSI)
100
AcDbTrace
 10
8.56949802975977
 20
24.90983801115364
 30
0.0
 11
8.56949802975977
 21
24.82781701563607
 31
0.0
 12
8.323435043207055
 22
24.86882751339486
 32
0.0
 13
8.323435043207055
 23
24.86882751339486
 33
0.0
  0
SOLID
  5
322
330
23E
100
AcDbEntity
  8
Dimension (ANSI)
100
AcDbTrace
 10
17.27737205665434
 20
24.90983801115364
 30
0.0
 11
17.27737205665434
 21
24.82781701563607
 31
0.0
 12
17.52343504320705
 22
24.86882751339486
 32
0.0
 13
17.52343504320705
 23
24.86882751339486
 33
0.0
  0
MTEXT
  5
323
330
23E
100
AcDbEntity
  8
Dimension (ANSI)
100
AcDbMText
 10
12.92343504320705
 20
24.86882751339486
 30
0.0
 40
0.2500000037252903
 41
0.0
 71
     5
 72
     1
  1
\A1;9.200{ TYP.}
  7
ROMANS
 73
     1
 44
1.0
1001
ACAD
1000
MTEXTBEGIN
1070
    73
1070
     1
1070
    44
1040
1.0
1070
    74
1070
     0
1000
MTEXTEND
  0
POINT
  5
324
330
23E
100
AcDbEntity
  8
Defpoints
 62
     0
100
AcDbPoint
 10
8.323435043207055
 20
22.7034731826862
 30
0.0
  0
POINT
  5
325
330
23E
100
AcDbEntity
  8
Defpoints
 62
     0
100
AcDbPoint
 10
17.52343504320705
 20
22.7034731826862
 30
0.0
  0
POINT
  5
326
330
23E
100
AcDbEntity
  8
Defpoints
 62
     0
100
AcDbPoint
 10
17.52343504320705
 20
24.86882751339486
 30
0.0
  0
ENDBLK
  5
240
330
23E
100
AcDbEntity
  8
0
100
AcDbBlockEnd
  0
BLOCK
  5
329
330
328
100
AcDbEntity
  8
0
100
AcDbBlockBegin
  2
*D6
 70
     1
 10
0.0
 20
0.0
 30
0.0
  3
*D6
  1

  0
LINE
  5
41B
330
328
100
AcDbEntity
  8
Dimension (ANSI)
100
AcDbLine
 10
7.823435043207054
 20
22.35972318268619
 30
0.0
 11
7.823435043207054
 21
25.18132751339486
 31
0.0
  0
LINE
  5
41C
330
328
100
AcDbEntity
  8
Dimension (ANSI)
100
AcDbLine
 10
8.323435043207055
 20
22.8597231826862
 30
0.0
 11
8.323435043207055
 21
25.18132751339486
 31
0.0
  0
LINE
  5
41D
330
328
100
AcDbEntity
  8
Dimension (ANSI)
100
AcDbLine
 10
8.56949802975977
 20
24.86882751339486
 30
0.0
 11
8.815561016312486
 21
24.86882751339486
 31
0.0
  0
LINE
  5
41E
330
328
100
AcDbEntity
  8
Dimension (ANSI)
100
AcDbLine
 10
7.577372056654339
 20
24.86882751339486
 30
0.0
 11
6.871135911600519
 21
24.86882751339486
 31
0.0
  0
SOLID
  5
41F
330
328
100
AcDbEntity
  8
Dimension (ANSI)
100
AcDbTrace
 10
8.56949802975977
 20
24.90983801115364
 30
0.0
 11
8.56949802975977
 21
24.82781701563607
 31
0.0
 12
8.323435043207055
 22
24.86882751339486
 32
0.0
 13
8.323435043207055
 23
24.86882751339486
 33
0.0
  0
SOLID
  5
420
330
328
100
AcDbEntity
  8
Dimension (ANSI)
100
AcDbTrace
 10
7.577372056654339
 20
24.90983801115364
 30
0.0
 11
7.577372056654339
 21
24.82781701563607
 31
0.0
 12
7.823435043207054
 22
24.86882751339486
 32
0.0
 13
7.823435043207054
 23
24.86882751339486
 33
0.0
  0
MTEXT
  5
421
330
328
100
AcDbEntity
  8
Dimension (ANSI)
100
AcDbMText
 10
6.292395746669623
 20
24.86882751339486
 30
0.0
 40
0.2500000037252903
 41
0.0
 71
     5
 72
     1
  1
\A1;0.500{\PTYP.}
  7
ROMANS
 73
     1
 44
1.0
1001
ACAD
1000
MTEXTBEGIN
1070
    73
1070
     1
1070
    44
1040
1.0
1070
    74
1070
     0
1000
MTEXTEND
  0
POINT
  5
422
330
328
100
AcDbEntity
  8
Defpoints
 62
     0
100
AcDbPoint
 10
7.823435043207054
 20
22.20347318268619
 30
0.0
  0
POINT
  5
423
330
328
100
AcDbEntity
  8
Defpoints
 62
     0
100
AcDbPoint
 10
8.323435043207055
 20
22.7034731826862
 30
0.0
  0
POINT
  5
424
330
328
100
AcDbEntity
  8
Defpoints
 62
     0
100
AcDbPoint
 10
8.323435043207055
 20
24.86882751339486
 30
0.0
  0
ENDBLK
  5
32A
330
328
100
AcDbEntity
  8
0
100
AcDbBlockEnd
  0
BLOCK
  5
427
330
426
100
AcDbEntity
  8
0
100
AcDbBlockBegin
  2
*D7
 70
     1
 10
0.0
 20
0.0
 30
0.0
  3
*D7
  1

  0
LINE
  5
505
330
426
100
AcDbEntity
  8
Dimension (ANSI)
100
AcDbLine
 10
8.167185043207055
 20
22.7034731826862
 30
0.0
 11
3.483375988088952
 21
22.7034731826862
 31
0.0
  0
LINE
  5
506
330
426
100
AcDbEntity
  8
Dimension (ANSI)
100
AcDbLine
 10
8.167185043207059
 20
8.503473182686196
 30
0.0
 11
3.483375988088949
 21
8.503473182686198
 31
0.0
  0
LINE
  5
507
330
426
100
AcDbEntity
  8
Dimension (ANSI)
100
AcDbLine
 10
3.795875988088953
 20
22.45741019613348
 30
0.0
 11
3.795875988088952
 21
15.80721334202915
 31
0.0
  0
LINE
  5
508
330
426
100
AcDbEntity
  8
Dimension (ANSI)
100
AcDbLine
 10
3.79587598808895
 20
8.749536169238913
 30
0.0
 11
3.795875988088952
 21
15.39973302334323
 31
0.0
  0
SOLID
  5
509
330
426
100
AcDbEntity
  8
Dimension (ANSI)
100
AcDbTrace
 10
3.754865490330167
 20
22.45741019613348
 30
0.0
 11
3.836886485847739
 21
22.45741019613348
 31
0.0
 12
3.795875988088953
 22
22.7034731826862
 32
0.0
 13
3.795875988088953
 23
22.7034731826862
 33
0.0
  0
SOLID
  5
50A
330
426
100
AcDbEntity
  8
Dimension (ANSI)
100
AcDbTrace
 10
3.754865490330164
 20
8.749536169238913
 30
0.0
 11
3.836886485847736
 21
8.749536169238913
 31
0.0
 12
3.79587598808895
 22
8.503473182686198
 32
0.0
 13
3.79587598808895
 23
8.503473182686198
 33
0.0
  0
MTEXT
  5
50B
330
426
100
AcDbEntity
  8
Dimension (ANSI)
100
AcDbMText
 10
3.194685502940036
 20
15.72847318454884
 30
0.0
 40
0.2500000037252903
 41
0.0
 71
     1
 72
     1
  1
\A1;14.200
  7
ROMANS
 73
     1
 44
1.0
1001
ACAD
1000
MTEXTBEGIN
1070
    73
1070
     1
1070
    44
1040
1.0
1070
    74
1070
     0
1000
MTEXTEND
  0
POINT
  5
50C
330
426
100
AcDbEntity
  8
Defpoints
 62
     0
100
AcDbPoint
 10
8.323435043207055
 20
22.7034731826862
 30
0.0
  0
POINT
  5
50D
330
426
100
AcDbEntity
  8
Defpoints
 62
     0
100
AcDbPoint
 10
8.323435043207059
 20
8.503473182686196
 30
0.0
  0
POINT
  5
50E
330
426
100
AcDbEntity
  8
Defpoints
 62
     0
100
AcDbPoint
 10
3.79587598808895
 20
8.503473182686198
 30
0.0
  0
ENDBLK
  5
428
330
426
100
AcDbEntity
  8
0
100
AcDbBlockEnd
  0
BLOCK
  5
511
330
510
100
AcDbEntity
  8
0
100
AcDbBlockBegin
  2
*D8
 70
     1
 10
0.0
 20
0.0
 30
0.0
  3
*D8
  1

  0
LINE
  5
603
330
510
100
AcDbEntity
  8
Dimension (ANSI)
100
AcDbLine
 10
7.667185043207058
 20
9.003473182686198
 30
0.0
 11
5.93613189360076
 21
9.003473182686198
 31
0.0
  0
LINE
  5
604
330
510
100
AcDbEntity
  8
Dimension (ANSI)
100
AcDbLine
 10
7.667185043207054
 20
22.20347318268619
 30
0.0
 11
5.936131893600763
 21
22.20347318268619
 31
0.0
  0
LINE
  5
605
330
510
100
AcDbEntity
  8
Dimension (ANSI)
100
AcDbLine
 10
6.24863189360076
 20
9.249536169238913
 30
0.0
 11
6.248631893600761
 21
15.19139968690549
 31
0.0
  0
LINE
  5
606
330
510
100
AcDbEntity
  8
Dimension (ANSI)
100
AcDbLine
 10
6.248631893600762
 20
21.95741019613348
 30
0.0
 11
6.248631893600761
 21
16.0155466784669
 31
0.0
  0
SOLID
  5
607
330
510
100
AcDbEntity
  8
Dimension (ANSI)
100
AcDbTrace
 10
6.207621395841973
 20
9.249536169238913
 30
0.0
 11
6.289642391359546
 21
9.249536169238913
 31
0.0
 12
6.24863189360076
 22
9.003473182686198
 32
0.0
 13
6.24863189360076
 23
9.003473182686198
 33
0.0
  0
SOLID
  5
608
330
510
100
AcDbEntity
  8
Dimension (ANSI)
100
AcDbTrace
 10
6.207621395841976
 20
21.95741019613348
 30
0.0
 11
6.289642391359548
 21
21.95741019613348
 31
0.0
 12
6.248631893600763
 22
22.20347318268619
 32
0.0
 13
6.248631893600763
 23
22.20347318268619
 33
0.0
  0
MTEXT
  5
609
330
510
100
AcDbEntity
  8
Dimension (ANSI)
100
AcDbMText
 10
6.248631893600759
 20
15.60347318268619
 30
0.0
 40
0.2500000037252903
 41
0.0
 71
     5
 72
     1
  1
\A1;13.200{\PTYP.}
  7
ROMANS
 73
     1
 44
1.0
1001
ACAD
1000
MTEXTBEGIN
1070
    73
1070
     1
1070
    44
1040
1.0
1070
    74
1070
     0
1000
MTEXTEND
  0
POINT
  5
60A
330
510
100
AcDbEntity
  8
Defpoints
 62
     0
100
AcDbPoint
 10
7.823435043207058
 20
9.003473182686198
 30
0.0
  0
POINT
  5
60B
330
510
100
AcDbEntity
  8
Defpoints
 62
     0
100
AcDbPoint
 10
7.823435043207054
 20
22.20347318268619
 30
0.0
  0
POINT
  5
60C
330
510
100
AcDbEntity
  8
Defpoints
 62
     0
100
AcDbPoint
 10
6.248631893600763
 20
22.20347318268619
 30
0.0
  0
ENDBLK
  5
512
330
510
100
AcDbEntity
  8
0
100
AcDbBlockEnd
  0
BLOCK
  5
60F
330
60E
100
AcDbEntity
  8
0
100
AcDbBlockBegin
  2
*D9
 70
     1
 10
0.0
 20
0.0
 30
0.0
  3
*D9
  1

  0
LINE
  5
712
330
60E
100
AcDbEntity
  8
Dimension (ANSI)
100
AcDbLine
 10
8.167185043207055
 20
22.7034731826862
 30
0.0
 11
5.111328742117152
 21
22.7034731826862
 31
0.0
  0
LINE
  5
713
330
60E
100
AcDbEntity
  8
Dimension (ANSI)
100
AcDbLine
 10
7.667185043207054
 20
22.20347318268619
 30
0.0
 11
5.111328742117152
 21
22.20347318268619
 31
0.0
  0
LINE
  5
714
330
60E
100
AcDbEntity
  8
Dimension (ANSI)
100
AcDbLine
 10
5.423828742117151
 20
21.95741019613348
 30
0.0
 11
5.423828742117151
 21
21.71134720958076
 31
0.0
  0
LINE
  5
715
330
60E
100
AcDbEntity
  8
Dimension (ANSI)
100
AcDbLine
 10
5.423828742117152
 20
22.94953616923891
 30
0.0
 11
5.423828742117152
 21
23.66573870249853
 31
0.0
  0
LINE
  5
716
330
60E
100
AcDbEntity
  8
Dimension (ANSI)
100
AcDbLine
 10
5.423828742117152
 20
23.66573870249853
 30
0.0
 11
5.669891728669867
 21
23.66573870249853
 31
0.0
  0
SOLID
  5
717
330
60E
100
AcDbEntity
  8
Dimension (ANSI)
100
AcDbTrace
 10
5.382818244358364
 20
21.95741019613348
 30
0.0
 11
5.464839239875937
 21
21.95741019613348
 31
0.0
 12
5.423828742117152
 22
22.20347318268619
 32
0.0
 13
5.423828742117152
 23
22.20347318268619
 33
0.0
  0
SOLID
  5
718
330
60E
100
AcDbEntity
  8
Dimension (ANSI)
100
AcDbTrace
 10
5.382818244358365
 20
22.94953616923891
 30
0.0
 11
5.464839239875938
 21
22.94953616923891
 31
0.0
 12
5.423828742117152
 22
22.7034731826862
 32
0.0
 13
5.423828742117152
 23
22.7034731826862
 33
0.0
  0
MTEXT
  5
719
330
60E
100
AcDbEntity
  8
Dimension (ANSI)
100
AcDbMText
 10
6.248631893600759
 20
23.66573870249853
 30
0.0
 40
0.2500000037252903
 41
0.0
 71
     5
 72
     1
  1
\A1;0.500{\PTYP.}
  7
ROMANS
 73
     1
 44
1.0
1001
ACAD
1000
MTEXTBEGIN
1070
    73
1070
     1
1070
    44
1040
1.0
1070
    74
1070
     0
1000
MTEXTEND
  0
POINT
  5
71A
330
60E
100
AcDbEntity
  8
Defpoints
 62
     0
100
AcDbPoint
 10
8.323435043207055
 20
22.7034731826862
 30
0.0
  0
POINT
  5
71B
330
60E
100
AcDbEntity
  8
Defpoints
 62
     0
100
AcDbPoint
 10
7.823435043207054
 20
22.20347318268619
 30
0.0
  0
POINT
  5
71C
330
60E
100
AcDbEntity
  8
Defpoints
 62
     0
100
AcDbPoint
 10
5.423828742117152
 20
22.20347318268619
 30
0.0
  0
ENDBLK
  5
610
330
60E
100
AcDbEntity
  8
0
100
AcDbBlockEnd
  0
BLOCK
  5
71F
330
71E
100
AcDbEntity
  8
0
100
AcDbBlockBegin
  2
*D10
 70
     1
 10
0.0
 20
0.0
 30
0.0
  3
*D10
  1

  0
LINE
  5
7BF
330
71E
100
AcDbEntity
  8
Dimension (ANSI)
100
AcDbLine
 10
10.46674482019838
 20
7.305188715136682
 30
0.0
 11
10.06171951075707
 21
7.305188715136681
 31
0.0
  0
LINE
  5
7C0
330
71E
100
AcDbEntity
  8
Dimension (ANSI)
100
AcDbLine
 10
10.06171951075707
 20
7.305188715136681
 30
0.0
 11
8.694204544894187
 21
8.672703680999171
 31
0.0
  0
MTEXT
  5
7C1
102
{ACAD_XDICTIONARY
360
CE3
102
}
330
71E
100
AcDbEntity
  8
Dimension (ANSI)
100
AcDbMText
 10
10.5454849776787
 20
7.495664908451186
 30
0.0
 40
0.2500000037252903
 41
0.0
 71
     1
 72
     1
  1
\A1;\U+22050.500{ TYP. (4 PL.)}
  7
ROMANS
 73
     1
 44
1.0
1001
ACAD
1000
MTEXTBEGIN
1070
    73
1070
     1
1070
    44
1040
1.0
1070
    74
1070
     0
1000
MTEXTEND
  0
SOLID
  5
7C2
330
71E
100
AcDbEntity
  8
Dimension (ANSI)
100
AcDbTrace
 10
8.723203345959255
 20
8.701702482064249
 30
0.0
 11
8.665205743829119
 21
8.643704879934094
 31
0.0
 12
8.520211738503721
 22
8.846696487389586
 32
0.0
 13
8.520211738503721
 23
8.846696487389586
 33
0.0
  0
LINE
  5
7C3
330
71E
100
AcDbEntity
  8
Dimension (ANSI)
100
AcDbLine
 10
8.11843504320706
 20
9.023473182686194
 30
0.0
 11
8.568435043207061
 21
9.023473182686194
 31
0.0
  0
LINE
  5
7C4
330
71E
100
AcDbEntity
  8
Dimension (ANSI)
100
AcDbLine
 10
8.34343504320706
 20
8.798473182686196
 30
0.0
 11
8.34343504320706
 21
9.248473182686195
 31
0.0
  0
POINT
  5
7C5
330
71E
100
AcDbEntity
  8
Defpoints
 62
     0
100
AcDbPoint
 10
8.520211738503721
 20
8.846696487389586
 30
0.0
  0
POINT
  5
7C6
330
71E
100
AcDbEntity
  8
Defpoints
 62
     0
100
AcDbPoint
 10
8.166658347910397
 20
9.200249877982807
 30
0.0
  0
ENDBLK
  5
720
330
71E
100
AcDbEntity
  8
0
100
AcDbBlockEnd
  0
BLOCK
  5
7C9
330
7C8
100
AcDbEntity
  8
0
100
AcDbBlockBegin
  2
*D11
 70
     1
 10
0.0
 20
0.0
 30
0.0
  3
*D11
  1

  0
LINE
  5
868
330
7C8
100
AcDbEntity
  8
Dimension (ANSI)
100
AcDbLine
 10
10.58420074200226
 20
7.937732793332855
 30
0.0
 11
10.17917543256093
 21
7.937732793332856
 31
0.0
  0
LINE
  5
869
330
7C8
100
AcDbEntity
  8
Dimension (ANSI)
100
AcDbLine
 10
10.17917543256093
 20
7.937732793332856
 30
0.0
 11
8.627913284157935
 21
9.488994941735404
 31
0.0
  0
MTEXT
  5
86A
102
{ACAD_XDICTIONARY
360
CE5
102
}
330
7C8
100
AcDbEntity
  8
Dimension (ANSI)
100
AcDbMText
 10
10.66294089948258
 20
8.128208986647363
 30
0.0
 40
0.2500000037252903
 41
0.0
 71
     1
 72
     1
  1
\A1;\U+22050.313{ TYP. (4 PL.)}
  7
ROMANS
 73
     1
 44
1.0
1001
ACAD
1000
MTEXTBEGIN
1070
    73
1070
     1
1070
    44
1040
1.0
1070
    74
1070
     0
1000
MTEXTEND
  0
SOLID
  5
86B
330
7C8
100
AcDbEntity
  8
Dimension (ANSI)
100
AcDbTrace
 10
8.656912085223005
 20
9.517993742800481
 30
0.0
 11
8.598914483092867
 21
9.459996140670327
 31
0.0
 12
8.453920477767471
 22
9.662987748125818
 32
0.0
 13
8.453920477767471
 23
9.662987748125818
 33
0.0
  0
LINE
  5
86C
330
7C8
100
AcDbEntity
  8
Dimension (ANSI)
100
AcDbLine
 10
8.11843504320706
 20
9.773473182686199
 30
0.0
 11
8.56843504320706
 21
9.773473182686199
 31
0.0
  0
LINE
  5
86D
330
7C8
100
AcDbEntity
  8
Dimension (ANSI)
100
AcDbLine
 10
8.343435043207058
 20
9.548473182686201
 30
0.0
 11
8.343435043207058
 21
9.998473182686199
 31
0.0
  0
POINT
  5
86E
330
7C8
100
AcDbEntity
  8
Defpoints
 62
     0
100
AcDbPoint
 10
8.453920477767471
 20
9.662987748125818
 30
0.0
  0
POINT
  5
86F
330
7C8
100
AcDbEntity
  8
Defpoints
 62
     0
100
AcDbPoint
 10
8.232949608646645
 20
9.88395861724658
 30
0.0
  0
ENDBLK
  5
7CA
330
7C8
100
AcDbEntity
  8
0
100
AcDbBlockEnd
  0
BLOCK
  5
872
330
871
100
AcDbEntity
  8
0
100
AcDbBlockBegin
  2
*D12
 70
     1
 10
0.0
 20
0.0
 30
0.0
  3
*D12
  1

  0
LINE
  5
976
330
871
100
AcDbEntity
  8
Dimension (ANSI)
100
AcDbLine
 10
17.67968504320706
 20
8.503473182686196
 30
0.0
 11
19.86511681656536
 21
8.503473182686196
 31
0.0
  0
LINE
  5
977
330
871
100
AcDbEntity
  8
Dimension (ANSI)
100
AcDbLine
 10
17.65968504320706
 20
9.023473182686196
 30
0.0
 11
19.86511681656536
 21
9.023473182686196
 31
0.0
  0
LINE
  5
978
330
871
100
AcDbEntity
  8
Dimension (ANSI)
100
AcDbLine
 10
19.55261681656536
 20
8.257410196133481
 30
0.0
 11
19.55261681656536
 21
8.011347209580765
 31
0.0
  0
LINE
  5
979
330
871
100
AcDbEntity
  8
Dimension (ANSI)
100
AcDbLine
 10
19.55261681656536
 20
9.269536169238911
 30
0.0
 11
19.55261681656536
 21
9.515599155791626
 31
0.0
  0
LINE
  5
97A
330
871
100
AcDbEntity
  8
Dimension (ANSI)
100
AcDbLine
 10
19.79867980311807
 20
7.749665634735481
 30
0.0
 11
19.55261681656535
 21
7.749665634735481
 31
0.0
  0
LINE
  5
97B
330
871
100
AcDbEntity
  8
Dimension (ANSI)
100
AcDbLine
 10
19.55261681656535
 20
7.749665634735481
 30
0.0
 11
19.55261681656536
 21
8.011347209580765
 31
0.0
  0
MTEXT
  5
97C
330
871
100
AcDbEntity
  8
Dimension (ANSI)
100
AcDbMText
 10
20.37741996804897
 20
7.749665634735484
 30
0.0
 40
0.2500000037252903
 41
0.0
 71
     5
 72
     1
  1
\A1;0.520{ \PTYP.}
  7
ROMANS
 73
     1
 44
1.0
1001
ACAD
1000
MTEXTBEGIN
1070
    73
1070
     1
1070
    44
1040
1.0
1070
    74
1070
     0
1000
MTEXTEND
  0
SOLID
  5
97D
330
871
100
AcDbEntity
  8
Dimension (ANSI)
100
AcDbTrace
 10
19.51160631880657
 20
8.257410196133481
 30
0.0
 11
19.59362731432415
 21
8.257410196133481
 31
0.0
 12
19.55261681656536
 22
8.503473182686196
 32
0.0
 13
19.55261681656536
 23
8.503473182686196
 33
0.0
  0
SOLID
  5
97E
330
871
100
AcDbEntity
  8
Dimension (ANSI)
100
AcDbTrace
 10
19.51160631880657
 20
9.269536169238911
 30
0.0
 11
19.59362731432415
 21
9.269536169238911
 31
0.0
 12
19.55261681656536
 22
9.023473182686196
 32
0.0
 13
19.55261681656536
 23
9.023473182686196
 33
0.0
  0
POINT
  5
97F
330
871
100
AcDbEntity
  8
Defpoints
 62
     0
100
AcDbPoint
 10
17.52343504320706
 20
8.503473182686196
 30
0.0
  0
POINT
  5
980
330
871
100
AcDbEntity
  8
Defpoints
 62
     0
100
AcDbPoint
 10
17.50343504320706
 20
9.023473182686196
 30
0.0
  0
POINT
  5
981
330
871
100
AcDbEntity
  8
Defpoints
 62
     0
100
AcDbPoint
 10
19.55261681656536
 20
9.023473182686196
 30
0.0
  0
ENDBLK
  5
873
330
871
100
AcDbEntity
  8
0
100
AcDbBlockEnd
  0
BLOCK
  5
984
330
983
100
AcDbEntity
  8
0
100
AcDbBlockBegin
  2
*D13
 70
     1
 10
0.0
 20
0.0
 30
0.0
  3
*D13
  1

  0
LINE
  5
A84
330
983
100
AcDbEntity
  8
Dimension (ANSI)
100
AcDbLine
 10
17.67968504320706
 20
8.503473182686196
 30
0.0
 11
22.62953441611086
 21
8.503473182686194
 31
0.0
  0
LINE
  5
A85
330
983
100
AcDbEntity
  8
Dimension (ANSI)
100
AcDbLine
 10
17.65968504320706
 20
9.773473182686196
 30
0.0
 11
22.62953441611086
 21
9.773473182686194
 31
0.0
  0
LINE
  5
A86
330
983
100
AcDbEntity
  8
Dimension (ANSI)
100
AcDbLine
 10
22.31703441611086
 20
9.527410196133478
 30
0.0
 11
22.31703441611086
 21
8.749536169238909
 31
0.0
  0
LINE
  5
A87
330
983
100
AcDbEntity
  8
Dimension (ANSI)
100
AcDbLine
 10
22.31703441611086
 20
8.503473182686194
 30
0.0
 11
22.31703441611086
 21
7.787270654999846
 31
0.0
  0
LINE
  5
A88
330
983
100
AcDbEntity
  8
Dimension (ANSI)
100
AcDbLine
 10
22.31703441611086
 20
7.787270654999846
 30
0.0
 11
22.07097142955815
 21
7.787270654999846
 31
0.0
  0
SOLID
  5
A89
330
983
100
AcDbEntity
  8
Dimension (ANSI)
100
AcDbTrace
 10
22.27602391835208
 20
9.527410196133478
 30
0.0
 11
22.35804491386965
 21
9.527410196133478
 31
0.0
 12
22.31703441611086
 22
9.773473182686194
 32
0.0
 13
22.31703441611086
 23
9.773473182686194
 33
0.0
  0
SOLID
  5
A8A
330
983
100
AcDbEntity
  8
Dimension (ANSI)
100
AcDbTrace
 10
22.27602391835208
 20
8.749536169238909
 30
0.0
 11
22.35804491386965
 21
8.749536169238909
 31
0.0
 12
22.31703441611086
 22
8.503473182686194
 32
0.0
 13
22.31703441611086
 23
8.503473182686194
 33
0.0
  0
MTEXT
  5
A8B
330
983
100
AcDbEntity
  8
Dimension (ANSI)
100
AcDbMText
 10
21.51008840775048
 20
7.787270654999851
 30
0.0
 40
0.2500000037252903
 41
0.0
 71
     5
 72
     1
  1
\A1;1.270{\PTYP.}
  7
ROMANS
 73
     1
 44
1.0
1001
ACAD
1000
MTEXTBEGIN
1070
    73
1070
     1
1070
    44
1040
1.0
1070
    74
1070
     0
1000
MTEXTEND
  0
POINT
  5
A8C
330
983
100
AcDbEntity
  8
Defpoints
 62
     0
100
AcDbPoint
 10
17.52343504320706
 20
8.503473182686196
 30
0.0
  0
POINT
  5
A8D
330
983
100
AcDbEntity
  8
Defpoints
 62
     0
100
AcDbPoint
 10
17.50343504320706
 20
9.773473182686196
 30
0.0
  0
POINT
  5
A8E
330
983
100
AcDbEntity
  8
Defpoints
 62
     0
100
AcDbPoint
 10
22.31703441611086
 20
9.773473182686194
 30
0.0
  0
ENDBLK
  5
985
330
983
100
AcDbEntity
  8
0
100
AcDbBlockEnd
  0
BLOCK
  5
A91
330
A90
100
AcDbEntity
  8
0
100
AcDbBlockBegin
  2
*D14
 70
     1
 10
0.0
 20
0.0
 30
0.0
  3
*D14
  1

  0
LINE
  5
B83
330
A90
100
AcDbEntity
  8
Dimension (ANSI)
100
AcDbLine
 10
17.50343504320706
 20
9.617223182686196
 30
0.0
 11
17.50343504320706
 21
7.431130663001157
 31
0.0
  0
LINE
  5
B84
330
A90
100
AcDbEntity
  8
Dimension (ANSI)
100
AcDbLine
 10
18.02343504320706
 20
8.847223182686198
 30
0.0
 11
18.02343504320706
 21
7.431130663001157
 31
0.0
  0
LINE
  5
B85
330
A90
100
AcDbEntity
  8
Dimension (ANSI)
100
AcDbLine
 10
18.26949802975977
 20
7.743630663001157
 30
0.0
 11
18.51556101631249
 21
7.743630663001157
 31
0.0
  0
LINE
  5
B86
330
A90
100
AcDbEntity
  8
Dimension (ANSI)
100
AcDbLine
 10
17.25737205665434
 20
7.743630663001157
 30
0.0
 11
17.01130907010163
 21
7.743630663001157
 31
0.0
  0
SOLID
  5
B87
330
A90
100
AcDbEntity
  8
Dimension (ANSI)
100
AcDbTrace
 10
18.26949802975977
 20
7.784641160759943
 30
0.0
 11
18.26949802975977
 21
7.702620165242371
 31
0.0
 12
18.02343504320706
 22
7.743630663001157
 32
0.0
 13
18.02343504320706
 23
7.743630663001157
 33
0.0
  0
SOLID
  5
B88
330
A90
100
AcDbEntity
  8
Dimension (ANSI)
100
AcDbTrace
 10
17.25737205665434
 20
7.784641160759943
 30
0.0
 11
17.25737205665434
 21
7.702620165242371
 31
0.0
 12
17.50343504320706
 22
7.743630663001157
 32
0.0
 13
17.50343504320706
 23
7.743630663001157
 33
0.0
  0
MTEXT
  5
B89
330
A90
100
AcDbEntity
  8
Dimension (ANSI)
100
AcDbMText
 10
16.43256890517073
 20
7.743630663001157
 30
0.0
 40
0.2500000037252903
 41
0.0
 71
     5
 72
     1
  1
\A1;0.520{\PTYP.}
  7
ROMANS
 73
     1
 44
1.0
1001
ACAD
1000
MTEXTBEGIN
1070
    73
1070
     1
1070
    44
1040
1.0
1070
    74
1070
     0
1000
MTEXTEND
  0
POINT
  5
B8A
330
A90
100
AcDbEntity
  8
Defpoints
 62
     0
100
AcDbPoint
 10
17.50343504320706
 20
9.773473182686196
 30
0.0
  0
POINT
  5
B8B
330
A90
100
AcDbEntity
  8
Defpoints
 62
     0
100
AcDbPoint
 10
18.02343504320706
 20
9.003473182686198
 30
0.0
  0
POINT
  5
B8C
330
A90
100
AcDbEntity
  8
Defpoints
 62
     0
100
AcDbPoint
 10
18.02343504320706
 20
7.743630663001157
 30
0.0
  0
ENDBLK
  5
A92
330
A90
100
AcDbEntity
  8
0
100
AcDbBlockEnd
  0
BLOCK
  5
B8F
330
B8E
100
AcDbEntity
  8
0
100
AcDbBlockBegin
  2
*D15
 70
     1
 10
0.0
 20
0.0
 30
0.0
  3
*D15
  1

  0
LINE
  5
C7E
330
B8E
100
AcDbEntity
  8
Dimension (ANSI)
100
AcDbLine
 10
25.28499772395655
 20
16.18648880057332
 30
0.0
 11
25.03893473740383
 21
16.18648880057332
 31
0.0
  0
LINE
  5
C7F
330
B8E
100
AcDbEntity
  8
Dimension (ANSI)
100
AcDbLine
 10
25.87087369706198
 20
16.18648880057332
 30
0.0
 11
26.11693668361469
 21
16.18648880057332
 31
0.0
  0
SOLID
  5
C80
330
B8E
100
AcDbEntity
  8
Dimension (ANSI)
100
AcDbTrace
 10
25.28499772395655
 20
16.22749929833211
 30
0.0
 11
25.28499772395655
 21
16.14547830281453
 31
0.0
 12
25.53106071050926
 22
16.18648880057332
 32
0.0
 13
25.53106071050926
 23
16.18648880057332
 33
0.0
  0
SOLID
  5
C81
330
B8E
100
AcDbEntity
  8
Dimension (ANSI)
100
AcDbTrace
 10
25.87087369706198
 20
16.22749929833211
 30
0.0
 11
25.87087369706198
 21
16.14547830281453
 31
0.0
 12
25.62481071050926
 22
16.18648880057332
 32
0.0
 13
25.62481071050926
 23
16.18648880057332
 33
0.0
  0
MTEXT
  5
C82
330
B8E
100
AcDbEntity
  8
Dimension (ANSI)
100
AcDbMText
 10
26.85043875561362
 20
16.18648880057332
 30
0.0
 40
0.2500000037252903
 41
0.0
 71
     5
 72
     1
  1
\A1;(0.094){\P12 GA.\PGALV.}
  7
ROMANS
 73
     1
 44
1.0
1001
ACAD
1000
MTEXTBEGIN
1070
    73
1070
     1
1070
    44
1040
1.0
1070
    74
1070
     0
1000
MTEXTEND
  0
POINT
  5
C83
330
B8E
100
AcDbEntity
  8
Defpoints
 62
     0
100
AcDbPoint
 10
25.62481071050926
 20
16.51215355126717
 30
0.0
  0
POINT
  5
C84
330
B8E
100
AcDbEntity
  8
Defpoints
 62
     0
100
AcDbPoint
 10
25.53106071050926
 20
16.51215355126717
 30
0.0
  0
POINT
  5
C85
330
B8E
100
AcDbEntity
  8
Defpoints
 62
     0
100
AcDbPoint
 10
25.53106071050926
 20
16.18648880057332
 30
0.0
  0
ENDBLK
  5
B90
330
B8E
100
AcDbEntity
  8
0
100
AcDbBlockEnd
  0
ENDSEC
  0
SECTION
  2
ENTITIES
  0
CIRCLE
  5
107
330
6C
100
AcDbEntity
  8
Visible (ANSI)
100
AcDbCircle
 10
17.50343504320706
 20
22.18347318268619
 30
0.0
 40
0.25
  0
CIRCLE
  5
108
330
6C
100
AcDbEntity
  8
Visible (ANSI)
100
AcDbCircle
 10
8.343435043207056
 20
22.18347318268619
 30
0.0
 40
0.25
  0
CIRCLE
  5
109
330
6C
100
AcDbEntity
  8
Visible (ANSI)
100
AcDbCircle
 10
8.343435043207056
 20
9.023473182686197
 30
0.0
 40
0.25
  0
CIRCLE
  5
10A
330
6C
100
AcDbEntity
  8
Visible (ANSI)
100
AcDbCircle
 10
17.50343504320706
 20
9.023473182686197
 30
0.0
 40
0.25
  0
CIRCLE
  5
10B
330
6C
100
AcDbEntity
  8
Visible (ANSI)
100
AcDbCircle
 10
17.50343504320706
 20
21.43347318268619
 30
0.0
 40
0.15625
  0
CIRCLE
  5
10C
330
6C
100
AcDbEntity
  8
Visible (ANSI)
100
AcDbCircle
 10
8.343435043207056
 20
21.43347318268619
 30
0.0
 40
0.15625
  0
CIRCLE
  5
10D
330
6C
100
AcDbEntity
  8
Visible (ANSI)
100
AcDbCircle
 10
8.343435043207056
 20
9.773473182686196
 30
0.0
 40
0.15625
  0
CIRCLE
  5
10E
330
6C
100
AcDbEntity
  8
Visible (ANSI)
100
AcDbCircle
 10
17.50343504320706
 20
9.773473182686196
 30
0.0
 40
0.15625
  0
LINE
  5
10F
330
6C
100
AcDbEntity
  8
Visible (ANSI)
100
AcDbLine
 10
7.823435043207053
 20
22.20347318268619
 30
0.0
 11
8.323435043207053
 21
22.7034731826862
 31
0.0
  0
LINE
  5
110
330
6C
100
AcDbEntity
  8
Visible (ANSI)
100
AcDbLine
 10
7.823435043207058
 20
9.003473182686198
 30
0.0
 11
7.823435043207053
 21
22.20347318268619
 31
0.0
  0
LINE
  5
111
330
6C
100
AcDbEntity
  8
Visible (ANSI)
100
AcDbLine
 10
17.52343504320706
 20
8.503473182686196
 30
0.0
 11
8.323435043207057
 21
8.503473182686196
 31
0.0
  0
LINE
  5
112
330
6C
100
AcDbEntity
  8
Visible (ANSI)
100
AcDbLine
 10
18.02343504320706
 20
22.20347318268619
 30
0.0
 11
18.02343504320706
 21
9.003473182686198
 31
0.0
  0
LINE
  5
113
330
6C
100
AcDbEntity
  8
Visible (ANSI)
100
AcDbLine
 10
8.323435043207053
 20
22.7034731826862
 30
0.0
 11
17.52343504320705
 21
22.7034731826862
 31
0.0
  0
LINE
  5
114
330
6C
100
AcDbEntity
  8
Visible (ANSI)
100
AcDbLine
 10
8.323435043207057
 20
8.503473182686196
 30
0.0
 11
7.823435043207058
 21
9.003473182686198
 31
0.0
  0
LINE
  5
115
330
6C
100
AcDbEntity
  8
Visible (ANSI)
100
AcDbLine
 10
18.02343504320706
 20
9.003473182686198
 30
0.0
 11
17.52343504320706
 21
8.503473182686196
 31
0.0
  0
LINE
  5
116
330
6C
100
AcDbEntity
  8
Visible (ANSI)
100
AcDbLine
 10
17.52343504320705
 20
22.7034731826862
 30
0.0
 11
18.02343504320706
 21
22.20347318268619
 31
0.0
  0
MTEXT
  5
118
330
6C
100
AcDbEntity
  8
Symbol (ANSI)
100
AcDbMText
 10
11.70087229812456
 20
6.115531352909375
 30
0.0
 40
0.3000000037076905
 41
0.0
 71
     7
 72
     1
  1
FRONT VIEW
  7
Text Style168
 73
     1
 44
1.0
1001
ACAD
1000
MTEXTBEGIN
1070
    73
1070
     1
1070
    44
1040
1.0
1070
    74
1070
     0
1000
MTEXTEND
  0
LINE
  5
11A
330
6C
100
AcDbEntity
  8
Symbol (ANSI)
370
    30
100
AcDbLine
 10
11.67087222095359
 20
6.05435225947215
 30
0.0
 11
14.08278473166778
 21
6.05435225947215
 31
0.0
  0
LINE
  5
11B
330
6C
100
AcDbEntity
  8
Visible (ANSI)
100
AcDbLine
 10
25.62481071050926
 20
22.20347318268619
 30
0.0
 11
25.62481071050911
 21
22.70347318268619
 31
0.0
  0
LINE
  5
11C
330
6C
100
AcDbEntity
  8
Visible (ANSI)
100
AcDbLine
 10
25.53106071050926
 20
22.20347318268619
 30
0.0
 11
25.62481071050926
 21
22.20347318268619
 31
0.0
  0
LINE
  5
11D
330
6C
100
AcDbEntity
  8
Visible (ANSI)
100
AcDbLine
 10
25.53106071050911
 20
22.70347318268619
 30
0.0
 11
25.53106071050926
 21
22.20347318268619
 31
0.0
  0
LINE
  5
11E
330
6C
100
AcDbEntity
  8
Visible (ANSI)
100
AcDbLine
 10
25.62481071050911
 20
22.70347318268619
 30
0.0
 11
25.53106071050911
 21
22.70347318268619
 31
0.0
  0
LINE
  5
11F
330
6C
100
AcDbEntity
  8
Visible (ANSI)
100
AcDbLine
 10
25.62481071050926
 20
9.003473182686194
 30
0.0
 11
25.62481071050926
 21
22.20347318268619
 31
0.0
  0
LINE
  5
120
330
6C
100
AcDbEntity
  8
Visible (ANSI)
100
AcDbLine
 10
25.53106071050926
 20
22.20347318268619
 30
0.0
 11
25.53106071050926
 21
9.003473182686194
 31
0.0
  0
LINE
  5
121
330
6C
100
AcDbEntity
  8
Visible (ANSI)
100
AcDbLine
 10
25.62481071050911
 20
8.503473182686192
 30
0.0
 11
25.62481071050926
 21
9.003473182686194
 31
0.0
  0
LINE
  5
122
330
6C
100
AcDbEntity
  8
Visible (ANSI)
100
AcDbLine
 10
25.53106071050911
 20
8.503473182686192
 30
0.0
 11
25.62481071050911
 21
8.503473182686192
 31
0.0
  0
LINE
  5
123
330
6C
100
AcDbEntity
  8
Visible (ANSI)
100
AcDbLine
 10
25.53106071050926
 20
9.003473182686194
 30
0.0
 11
25.53106071050911
 21
8.503473182686192
 31
0.0
  0
LINE
  5
124
330
6C
100
AcDbEntity
  8
Visible (ANSI)
100
AcDbLine
 10
25.62481071050926
 20
9.003473182686194
 30
0.0
 11
25.53106071050926
 21
9.003473182686194
 31
0.0
  0
LINE
  5
125
330
6C
100
AcDbEntity
  8
Hidden (ANSI)
 48
0.0713261216878891
100
AcDbLine
 10
25.53106071050911
 20
22.43347318268619
 30
0.0
 11
25.6248107105091
 21
22.43347318268619
 31
0.0
  0
LINE
  5
126
330
6C
100
AcDbEntity
  8
Hidden (ANSI)
 48
0.0713261216878891
100
AcDbLine
 10
25.53106071050911
 20
21.93347318268619
 30
0.0
 11
25.6248107105091
 21
21.93347318268619
 31
0.0
  0
LINE
  5
127
330
6C
100
AcDbEntity
  8
Hidden (ANSI)
 48
0.0713261216878891
100
AcDbLine
 10
25.53106071050911
 20
9.273473182686194
 30
0.0
 11
25.6248107105091
 21
9.273473182686194
 31
0.0
  0
LINE
  5
128
330
6C
100
AcDbEntity
  8
Hidden (ANSI)
 48
0.0713261216878891
100
AcDbLine
 10
25.53106071050911
 20
8.773473182686192
 30
0.0
 11
25.6248107105091
 21
8.773473182686192
 31
0.0
  0
LINE
  5
129
330
6C
100
AcDbEntity
  8
Hidden (ANSI)
 48
0.0713261216878891
100
AcDbLine
 10
25.53106071050911
 20
21.58972318268619
 30
0.0
 11
25.6248107105091
 21
21.58972318268619
 31
0.0
  0
LINE
  5
12A
330
6C
100
AcDbEntity
  8
Hidden (ANSI)
 48
0.0713261216878891
100
AcDbLine
 10
25.53106071050911
 20
21.27722318268619
 30
0.0
 11
25.6248107105091
 21
21.27722318268619
 31
0.0
  0
LINE
  5
12B
330
6C
100
AcDbEntity
  8
Hidden (ANSI)
 48
0.0713261216878891
100
AcDbLine
 10
25.53106071050911
 20
9.929723182686194
 30
0.0
 11
25.6248107105091
 21
9.929723182686194
 31
0.0
  0
LINE
  5
12C
330
6C
100
AcDbEntity
  8
Hidden (ANSI)
 48
0.0713261216878891
100
AcDbLine
 10
25.53106071050911
 20
9.617223182686194
 30
0.0
 11
25.6248107105091
 21
9.617223182686194
 31
0.0
  0
MTEXT
  5
12D
330
6C
100
AcDbEntity
  8
Symbol (ANSI)
100
AcDbMText
 10
24.53303440761605
 20
6.117476247316785
 30
0.0
 40
0.3000000037076905
 41
0.0
 71
     7
 72
     1
  1
SIDE VIEW
  7
Text Style168
 73
     1
 44
1.0
1001
ACAD
1000
MTEXTBEGIN
1070
    73
1070
     1
1070
    44
1040
1.0
1070
    74
1070
     0
1000
MTEXTEND
  0
LINE
  5
12E
330
6C
100
AcDbEntity
  8
Symbol (ANSI)
370
    30
100
AcDbLine
 10
24.51767436810451
 20
6.055324706905017
 30
0.0
 11
26.54498391911825
 21
6.055324706905017
 31
0.0
  0
ELLIPSE
  5
12F
330
6C
100
AcDbEntity
  8
Visible (ANSI)
100
AcDbEllipse
 10
38.93692524158638
 20
21.22792833878672
 30
0.0
 11
-0.0935685396720755
 21
0.1624843942772202
 31
0.0
210
0.0
220
0.0
230
1.0
 40
0.5780931159158129
 41
0.2678448778125647
 42
2.873747775777257
  0
ELLIPSE
  5
130
330
6C
100
AcDbEntity
  8
Visible (ANSI)
100
AcDbEllipse
 10
38.88720679603421
 20
21.19929739016069
 30
0.0
 11
-0.0935685396720756
 21
0.1624843942772204
 31
0.0
210
0.0
220
0.0
230
1.0
 40
0.5780931159158129
 41
0.0
 42
6.283185307179586
  0
ELLIPSE
  5
131
330
6C
100
AcDbEntity
  8
Visible (ANSI)
100
AcDbEllipse
 10
34.07910165483408
 20
24.02536289253963
 30
0.0
 11
-0.0935685396720754
 21
0.1624843942772201
 31
0.0
210
0.0
220
0.0
230
1.0
 40
0.5780931159158129
 41
0.2678448778126045
 42
2.873747775777257
  0
ELLIPSE
  5
132
330
6C
100
AcDbEntity
  8
Visible (ANSI)
100
AcDbEllipse
 10
34.0293832092819
 20
23.9967319439136
 30
0.0
 11
-0.0935685396720756
 21
0.1624843942772204
 31
0.0
210
0.0
220
0.0
230
1.0
 40
0.5780931159158129
 41
0.0
 42
6.283185307179586
  0
ELLIPSE
  5
133
330
6C
100
AcDbEntity
  8
Visible (ANSI)
100
AcDbEllipse
 10
34.07910165483407
 20
15.95617277034374
 30
0.0
 11
-0.0935685396720756
 21
0.1624843942772204
 31
0.0
210
0.0
220
0.0
230
1.0
 40
0.5780931159158129
 41
0.2678448778125647
 42
2.873747775777257
  0
ELLIPSE
  5
134
330
6C
100
AcDbEntity
  8
Visible (ANSI)
100
AcDbEllipse
 10
34.0293832092819
 20
15.92754182171771
 30
0.0
 11
-0.0935685396720756
 21
0.1624843942772204
 31
0.0
210
0.0
220
0.0
230
1.0
 40
0.5780931159158129
 41
0.0
 42
6.283185307179586
  0
ELLIPSE
  5
135
330
6C
100
AcDbEntity
  8
Visible (ANSI)
100
AcDbEllipse
 10
38.93692524158637
 20
13.15873821659084
 30
0.0
 11
-0.0935685396720757
 21
0.1624843942772205
 31
0.0
210
0.0
220
0.0
230
1.0
 40
0.578093115915813
 41
0.267844877812584
 42
2.873747775777257
  0
ELLIPSE
  5
136
330
6C
100
AcDbEntity
  8
Visible (ANSI)
100
AcDbEllipse
 10
38.8872067960342
 20
13.13010726796481
 30
0.0
 11
-0.0935685396720756
 21
0.1624843942772204
 31
0.0
210
0.0
220
0.0
230
1.0
 40
0.5780931159158129
 41
0.0
 42
6.283185307179586
  0
ELLIPSE
  5
137
330
6C
100
AcDbEntity
  8
Visible (ANSI)
100
AcDbEllipse
 10
38.93692524158638
 20
20.76805808106279
 30
0.0
 11
0.0584803372950534
 21
-0.1015527464232593
 31
0.0
210
0.0
220
0.0
230
1.0
 40
0.5780931159158129
 41
3.578838513251657
 42
5.845939447516954
  0
ELLIPSE
  5
138
330
6C
100
AcDbEntity
  8
Visible (ANSI)
100
AcDbEllipse
 10
38.88720679603421
 20
20.73942713243677
 30
0.0
 11
-0.0584803372950473
 21
0.1015527464232627
 31
0.0
210
0.0
220
0.0
230
1.0
 40
0.578093115915813
 41
0.0
 42
6.283185307179586
  0
ELLIPSE
  5
139
330
6C
100
AcDbEntity
  8
Visible (ANSI)
100
AcDbEllipse
 10
34.07910165483408
 20
23.5654926348157
 30
0.0
 11
0.0584803372950535
 21
-0.1015527464232595
 31
0.0
210
0.0
220
0.0
230
1.0
 40
0.578093115915813
 41
3.578838513251657
 42
5.845939447516967
  0
ELLIPSE
  5
13A
330
6C
100
AcDbEntity
  8
Visible (ANSI)
100
AcDbEllipse
 10
34.0293832092819
 20
23.53686168618967
 30
0.0
 11
-0.0584803372950473
 21
0.1015527464232627
 31
0.0
210
0.0
220
0.0
230
1.0
 40
0.578093115915813
 41
0.0
 42
6.283185307179586
  0
ELLIPSE
  5
13B
330
6C
100
AcDbEntity
  8
Visible (ANSI)
100
AcDbEllipse
 10
34.07910165483407
 20
16.41604302806767
 30
0.0
 11
0.0584803372950533
 21
-0.1015527464232593
 31
0.0
210
0.0
220
0.0
230
1.0
 40
0.5780931159158129
 41
3.578838513251657
 42
5.845939447516967
  0
ELLIPSE
  5
13C
330
6C
100
AcDbEntity
  8
Visible (ANSI)
100
AcDbEllipse
 10
34.0293832092819
 20
16.38741207944164
 30
0.0
 11
-0.0584803372950473
 21
0.1015527464232627
 31
0.0
210
0.0
220
0.0
230
1.0
 40
0.578093115915813
 41
0.0
 42
6.283185307179586
  0
ELLIPSE
  5
13D
330
6C
100
AcDbEntity
  8
Visible (ANSI)
100
AcDbEllipse
 10
38.93692524158637
 20
13.61860847431477
 30
0.0
 11
0.0584803372950529
 21
-0.1015527464232585
 31
0.0
210
0.0
220
0.0
230
1.0
 40
0.578093115915813
 41
3.578838513251588
 42
5.845939447516967
  0
ELLIPSE
  5
13E
330
6C
100
AcDbEntity
  8
Visible (ANSI)
100
AcDbEllipse
 10
38.8872067960342
 20
13.58997752568874
 30
0.0
 11
-0.0584803372950473
 21
0.1015527464232627
 31
0.0
210
0.0
220
0.0
230
1.0
 40
0.578093115915813
 41
0.0
 42
6.283185307179586
  0
LINE
  5
13F
330
6C
100
AcDbEntity
  8
Visible (ANSI)
100
AcDbLine
 10
33.75361156461911
 20
24.16780147916523
 30
0.0
 11
34.01877660756411
 21
24.32168325830908
 31
0.0
  0
LINE
  5
140
330
6C
100
AcDbEntity
  8
Visible (ANSI)
100
AcDbLine
 10
34.01877660756411
 20
24.32168325830908
 30
0.0
 11
34.06849505311627
 21
24.35031420693511
 31
0.0
  0
LINE
  5
141
330
6C
100
AcDbEntity
  8
Visible (ANSI)
100
AcDbLine
 10
33.7536115646191
 20
16.07408494322406
 30
0.0
 11
33.75361156461911
 21
24.16780147916523
 31
0.0
  0
LINE
  5
142
330
6C
100
AcDbEntity
  8
Visible (ANSI)
100
AcDbLine
 10
38.94753184330419
 20
21.54066378176843
 30
0.0
 11
34.06849505311627
 21
24.35031420693511
 31
0.0
  0
LINE
  5
143
330
6C
100
AcDbEntity
  8
Visible (ANSI)
100
AcDbLine
 10
39.21269688624917
 20
12.98766868133921
 30
0.0
 11
39.21269688624918
 21
21.08138521728038
 31
0.0
  0
LINE
  5
144
330
6C
100
AcDbEntity
  8
Visible (ANSI)
100
AcDbLine
 10
38.89781339775201
 20
12.80515595356933
 30
0.0
 11
34.0187766075641
 21
15.61480637873601
 31
0.0
  0
LINE
  5
145
330
6C
100
AcDbEntity
  8
Visible (ANSI)
100
AcDbLine
 10
39.16297844069701
 20
21.05275426865435
 30
0.0
 11
39.16297844069699
 21
12.95903773271319
 31
0.0
  0
LINE
  5
146
330
6C
100
AcDbEntity
  8
Visible (ANSI)
100
AcDbLine
 10
34.01877660756411
 20
24.32168325830908
 30
0.0
 11
38.89781339775201
 21
21.5120328331424
 31
0.0
  0
LINE
  5
147
330
6C
100
AcDbEntity
  8
Visible (ANSI)
100
AcDbLine
 10
39.21269688624918
 20
21.08138521728038
 30
0.0
 11
38.94753184330419
 21
21.54066378176843
 31
0.0
  0
LINE
  5
148
330
6C
100
AcDbEntity
  8
Visible (ANSI)
100
AcDbLine
 10
39.16297844069701
 20
21.05275426865435
 30
0.0
 11
39.21269688624918
 21
21.08138521728038
 31
0.0
  0
LINE
  5
149
330
6C
100
AcDbEntity
  8
Visible (ANSI)
100
AcDbLine
 10
38.89781339775201
 20
21.5120328331424
 30
0.0
 11
39.16297844069701
 21
21.05275426865435
 31
0.0
  0
LINE
  5
14A
330
6C
100
AcDbEntity
  8
Visible (ANSI)
100
AcDbLine
 10
38.94753184330419
 20
21.54066378176843
 30
0.0
 11
38.89781339775201
 21
21.5120328331424
 31
0.0
  0
LINE
  5
14B
330
6C
100
AcDbEntity
  8
Visible (ANSI)
100
AcDbLine
 10
38.94753184330417
 20
12.83378690219536
 30
0.0
 11
39.21269688624917
 21
12.98766868133921
 31
0.0
  0
LINE
  5
14C
330
6C
100
AcDbEntity
  8
Visible (ANSI)
100
AcDbLine
 10
38.89781339775201
 20
12.80515595356933
 30
0.0
 11
38.94753184330417
 21
12.83378690219536
 31
0.0
  0
LINE
  5
14D
330
6C
100
AcDbEntity
  8
Visible (ANSI)
100
AcDbLine
 10
39.16297844069699
 20
12.95903773271319
 30
0.0
 11
38.89781339775201
 21
12.80515595356933
 31
0.0
  0
LINE
  5
14E
330
6C
100
AcDbEntity
  8
Visible (ANSI)
100
AcDbLine
 10
39.21269688624917
 20
12.98766868133921
 30
0.0
 11
39.16297844069699
 21
12.95903773271319
 31
0.0
  0
LINE
  5
14F
330
6C
100
AcDbEntity
  8
Visible (ANSI)
100
AcDbLine
 10
34.0187766075641
 20
15.61480637873601
 30
0.0
 11
33.7536115646191
 21
16.07408494322406
 31
0.0
  0
DIMENSION
  5
150
330
6C
100
AcDbEntity
  8
Dimension (ANSI)
100
AcDbDimension
  2
*D4
 10
18.02343504320706
 20
25.54992987559958
 30
0.0
 11
12.92343504320705
 21
25.54992987559958
 31
0.0
 70
   160
  1
<>
 42
10.2
  3
Default (ANSI)
100
AcDbAlignedDimension
 13
7.823435043207054
 23
22.20347318268619
 33
0.0
 14
18.02343504320706
 24
22.20347318268619
 34
0.0
100
AcDbRotatedDimension
1001
ACAD
1000
DSTYLE
1002
{
1070
   289
1070
     1
1070
    73
1070
     0
1070
    74
1070
     0
1070
   271
1070
     3
1070
   272
1070
     3
1070
    48
1040
0.0
1070
    47
1040
0.0
1002
}
  0
DIMENSION
  5
23D
330
6C
100
AcDbEntity
  8
Dimension (ANSI)
100
AcDbDimension
  2
*D5
 10
17.52343504320705
 20
24.86882751339486
 30
0.0
 11
12.92343504320705
 21
24.86882751339486
 31
0.0
 70
   160
  1
<>{ TYP.}
 71
     5
 42
9.199999999999999
  3
Default (ANSI)
100
AcDbAlignedDimension
 13
8.323435043207055
 23
22.7034731826862
 33
0.0
 14
17.52343504320705
 24
22.7034731826862
 34
0.0
 50
180.0
100
AcDbRotatedDimension
1001
ACAD
1000
DSTYLE
1002
{
1070
   289
1070
     1
1070
    73
1070
     0
1070
    74
1070
     0
1070
   271
1070
     3
1070
   272
1070
     3
1070
    48
1040
0.0
1070
    47
1040
0.0
1002
}
  0
DIMENSION
  5
327
330
6C
100
AcDbEntity
  8
Dimension (ANSI)
100
AcDbDimension
  2
*D6
 10
8.323435043207055
 20
24.86882751339486
 30
0.0
 11
6.292395746669623
 21
24.86882751339486
 31
0.0
 70
   160
  1
<>{\PTYP.}
 71
     5
 42
0.5000000000000009
  3
Default (ANSI)
100
AcDbAlignedDimension
 13
7.823435043207054
 23
22.20347318268619
 33
0.0
 14
8.323435043207055
 24
22.7034731826862
 34
0.0
 50
180.0
100
AcDbRotatedDimension
1001
ACAD
1000
DSTYLE
1002
{
1070
   289
1070
     1
1070
    73
1070
     0
1070
    74
1070
     0
1070
   271
1070
     3
1070
   272
1070
     3
1070
    48
1040
0.0
1070
    47
1040
0.0
1002
}
  0
DIMENSION
  5
425
330
6C
100
AcDbEntity
  8
Dimension (ANSI)
100
AcDbDimension
  2
*D7
 10
3.79587598808895
 20
8.503473182686198
 30
0.0
 11
3.795875988088949
 21
15.60347318268619
 31
0.0
 70
   160
  1
<>
 42
14.2
  3
Default (ANSI)
100
AcDbAlignedDimension
 13
8.323435043207055
 23
22.7034731826862
 33
0.0
 14
8.323435043207059
 24
8.503473182686196
 34
0.0
 50
270.0
100
AcDbRotatedDimension
1001
ACAD
1000
DSTYLE
1002
{
1070
   289
1070
     1
1070
   271
1070
     3
1070
   272
1070
     3
1070
    48
1040
0.0
1070
    47
1040
0.0
1002
}
  0
DIMENSION
  5
50F
330
6C
100
AcDbEntity
  8
Dimension (ANSI)
100
AcDbDimension
  2
*D8
 10
6.248631893600763
 20
22.20347318268619
 30
0.0
 11
6.248631893600759
 21
15.60347318268619
 31
0.0
 70
   160
  1
<>{\PTYP.}
 71
     5
 42
13.19999999999999
  3
Default (ANSI)
100
AcDbAlignedDimension
 13
7.823435043207058
 23
9.003473182686198
 33
0.0
 14
7.823435043207054
 24
22.20347318268619
 34
0.0
 50
90.0
100
AcDbRotatedDimension
1001
ACAD
1000
DSTYLE
1002
{
1070
   289
1070
     1
1070
   271
1070
     3
1070
   272
1070
     3
1070
    48
1040
0.0
1070
    47
1040
0.0
1002
}
  0
DIMENSION
  5
60D
330
6C
100
AcDbEntity
  8
Dimension (ANSI)
100
AcDbDimension
  2
*D9
 10
5.423828742117152
 20
22.20347318268619
 30
0.0
 11
6.248631893600759
 21
23.66573870249853
 31
0.0
 70
   160
  1
<>{\PTYP.}
 71
     5
 42
0.5000000000000071
  3
Default (ANSI)
100
AcDbAlignedDimension
 13
8.323435043207055
 23
22.7034731826862
 33
0.0
 14
7.823435043207054
 24
22.20347318268619
 34
0.0
 50
90.0
100
AcDbRotatedDimension
1001
ACAD
1000
DSTYLE
1002
{
1070
   289
1070
     1
1070
   271
1070
     3
1070
   272
1070
     3
1070
    48
1040
0.0
1070
    47
1040
0.0
1002
}
  0
DIMENSION
  5
71D
330
6C
100
AcDbEntity
  8
Dimension (ANSI)
100
AcDbDimension
  2
*D10
 10
8.166658347910397
 20
9.200249877982807
 30
0.0
 11
12.48596119707024
 21
7.305188715136679
 31
0.0
 70
   163
  1
<>{ TYP. (4 PL.)}
 42
0.5
  3
Default (ANSI)
100
AcDbDiametricDimension
 15
8.520211738503721
 25
8.846696487389586
 35
0.0
 40
0.0
1001
ACAD
1000
DSTYLE
1002
{
1070
   144
1040
1.000000000000001
1070
   271
1070
     3
1070
   272
1070
     3
1070
    48
1040
0.0
1070
    47
1040
0.0
1002
}
1001
ACAD_DSTYLE_DIMRADIAL_EXTENSION
1070
   387
1070
     1
1070
   388
1040
0.0
1070
   390
1040
0.0
  0
DIMENSION
  5
7C7
330
6C
100
AcDbEntity
  8
Dimension (ANSI)
100
AcDbDimension
  2
*D11
 10
8.232949608646645
 20
9.88395861724658
 30
0.0
 11
12.60341711887411
 21
7.937732793332857
 31
0.0
 70
   163
  1
<>{ TYP. (4 PL.)}
 42
0.3125
  3
Default (ANSI)
100
AcDbDiametricDimension
 15
8.453920477767471
 25
9.662987748125818
 35
0.0
 40
0.0
1001
ACAD
1000
DSTYLE
1002
{
1070
   144
1040
1.000000000000008
1070
   271
1070
     3
1070
   272
1070
     3
1070
    48
1040
0.0
1070
    47
1040
0.0
1002
}
1001
ACAD_DSTYLE_DIMRADIAL_EXTENSION
1070
   387
1070
     1
1070
   388
1040
0.0
1070
   390
1040
0.0
  0
DIMENSION
  5
870
330
6C
100
AcDbEntity
  8
Dimension (ANSI)
100
AcDbDimension
  2
*D12
 10
19.55261681656536
 20
9.023473182686196
 30
0.0
 11
19.57031109625867
 21
7.749665634735484
 31
0.0
 70
   160
  1
<>{ \PTYP.}
 71
     5
 42
0.5199999999999996
  3
Default (ANSI)
100
AcDbAlignedDimension
 13
17.52343504320706
 23
8.503473182686196
 33
0.0
 14
17.50343504320706
 24
9.023473182686196
 34
0.0
 50
90.0
100
AcDbRotatedDimension
1001
ACAD
1000
DSTYLE
1002
{
1070
   289
1070
     1
1070
   279
1070
     1
1070
   271
1070
     3
1070
   272
1070
     3
1070
    48
1040
0.0
1070
    47
1040
0.0
1002
}
  0
DIMENSION
  5
982
330
6C
100
AcDbEntity
  8
Dimension (ANSI)
100
AcDbDimension
  2
*D13
 10
22.31703441611086
 20
9.773473182686194
 30
0.0
 11
21.51008840775048
 21
7.787270654999851
 31
0.0
 70
   160
  1
<>{\PTYP.}
 71
     5
 42
1.269999999999999
  3
Default (ANSI)
100
AcDbAlignedDimension
 13
17.52343504320706
 23
8.503473182686196
 33
0.0
 14
17.50343504320706
 24
9.773473182686196
 34
0.0
 50
90.0
100
AcDbRotatedDimension
1001
ACAD
1000
DSTYLE
1002
{
1070
   289
1070
     2
1070
   271
1070
     3
1070
   272
1070
     3
1070
    48
1040
0.0
1070
    47
1040
0.0
1002
}
  0
DIMENSION
  5
A8F
330
6C
100
AcDbEntity
  8
Dimension (ANSI)
100
AcDbDimension
  2
*D14
 10
18.02343504320706
 20
7.743630663001157
 30
0.0
 11
16.43256890517073
 21
7.743630663001157
 31
0.0
 70
   160
  1
<>{\PTYP.}
 71
     5
 42
0.5199999999999996
  3
Default (ANSI)
100
AcDbAlignedDimension
 13
17.50343504320706
 23
9.773473182686196
 33
0.0
 14
18.02343504320706
 24
9.003473182686198
 34
0.0
 50
180.0
100
AcDbRotatedDimension
1001
ACAD
1000
DSTYLE
1002
{
1070
   289
1070
     1
1070
    73
1070
     0
1070
    74
1070
     0
1070
   271
1070
     3
1070
   272
1070
     3
1070
    48
1040
0.0
1070
    47
1040
0.0
1002
}
  0
DIMENSION
  5
B8D
330
6C
100
AcDbEntity
  8
Dimension (ANSI)
100
AcDbDimension
  2
*D15
 10
25.53106071050926
 20
16.18648880057332
 30
0.0
 11
26.85043875561362
 21
16.18648880057332
 31
0.0
 70
   160
  1
(<>){\P12 GA.\PGALV.}
 71
     5
 42
0.09375
  3
Default (ANSI)
100
AcDbAlignedDimension
 13
25.62481071050926
 23
16.51215355126717
 33
0.0
 14
25.53106071050926
 24
16.51215355126717
 34
0.0
100
AcDbRotatedDimension
1001
ACAD
1000
DSTYLE
1002
{
1070
   289
1070
     1
1070
    73
1070
     0
1070
    74
1070
     0
1070
   271
1070
     3
1070
    76
1070
     1
1070
    75
1070
     1
1070
   147
1040
0.031496062992126
1070
    72
1070
     0
1070
    71
1070
     0
1070
   272
1070
     3
1070
    48
1040
0.0
1070
    47
1040
0.0
1002
}
  0
MTEXT
  5
C86
102
{ACAD_XDICTIONARY
360
CA4
102
}
330
6C
100
AcDbEntity
  8
Symbol (ANSI)
100
AcDbMText
 10
29.31379676469348
 20
4.016511029246406
 30
0.0
 40
0.2500000079785745
 41
11.88581165358386
 71
     4
 72
     1
  3
{\fRomanS|b0|i0|c0|p2;\H2x;PART#: NP1612CG\P(DATA SUBJECT TO CHANGE \H1.5533x; \H0.64379x;WITHOUT NOTICE) \H1.4593x; \H0.68528x;\P\H0.6x;THIS DRAWING IS PROPERTY OF HUBBELL INC. \H1.4743x; \H0.67829x;WIEGMANN\H1.1569x; \H0.86435x;\PALL INFORMATION IS
  1
 PROPRIETARY AND NOT TO \H1.1949x; \H0.83687x;BE DUPLICATED\H1.1904x; \H0.84007x;\P\H0.83333x; \H1.2291x; \H0.8136x;\P\H1.1396x; }
  7
Note Text (ANSI)
 73
     1
 44
0.8397688865661621
1001
ACAD
1000
MTEXTBEGIN
1070
    73
1070
     1
1070
    44
1040
0.8397688865661621
1070
    74
1070
     0
1000
MTEXTEND
  0
LINE
  5
C88
330
6C
100
AcDbEntity
  8
Center Mark (ANSI)
  6
CHAIN
 48
0.2498863935470581
100
AcDbLine
 10
7.780935043207058
 20
22.18347318268619
 30
0.0
 11
8.905935043207058
 21
22.18347318268619
 31
0.0
  0
LINE
  5
C89
330
6C
100
AcDbEntity
  8
Center Mark (ANSI)
  6
CHAIN
 48
0.2498863935470581
100
AcDbLine
 10
18.06593504320706
 20
22.18347318268619
 30
0.0
 11
16.94093504320706
 21
22.18347318268619
 31
0.0
  0
LINE
  5
C8A
330
6C
100
AcDbEntity
  8
Centerline (ANSI)
  6
CHAIN
 48
0.9524481296539306
100
AcDbLine
 10
7.780935043207058
 20
22.18347318268619
 30
0.0
 11
18.06593504320706
 21
22.18347318268619
 31
0.0
  0
LINE
  5
C8B
330
6C
100
AcDbEntity
  8
Center Mark (ANSI)
  6
CHAIN
 48
0.2498863935470581
100
AcDbLine
 10
17.50343504320706
 20
8.460973182686196
 30
0.0
 11
17.50343504320706
 21
9.585973182686196
 31
0.0
  0
LINE
  5
C8C
330
6C
100
AcDbEntity
  8
Centerline (ANSI)
  6
CHAIN
 48
0.9524481296539306
100
AcDbLine
 10
17.50343504320706
 20
22.7459731826862
 30
0.0
 11
17.50343504320706
 21
8.460973182686196
 31
0.0
  0
LINE
  5
C8D
330
6C
100
AcDbEntity
  8
Center Mark (ANSI)
  6
CHAIN
 48
0.2498863935470581
100
AcDbLine
 10
7.780935043207058
 20
9.023473182686196
 30
0.0
 11
8.905935043207058
 21
9.023473182686196
 31
0.0
  0
LINE
  5
C8E
330
6C
100
AcDbEntity
  8
Centerline (ANSI)
  6
CHAIN
 48
0.9524481296539306
100
AcDbLine
 10
18.06593504320706
 20
9.023473182686196
 30
0.0
 11
7.780935043207058
 21
9.023473182686196
 31
0.0
  0
LINE
  5
C8F
330
6C
100
AcDbEntity
  8
Centerline (ANSI)
  6
CHAIN
 48
0.9524481296539306
100
AcDbLine
 10
8.343435043207058
 20
8.460973182686196
 30
0.0
 11
8.343435043207058
 21
22.7459731826862
 31
0.0
  0
LINE
  5
C90
330
6C
100
AcDbEntity
  8
Center Mark (ANSI)
  6
CHAIN
 48
0.2082219868898392
100
AcDbLine
 10
8.343435043207058
 20
21.90222318268619
 30
0.0
 11
8.343435043207058
 21
20.96472318268619
 31
0.0
  0
LINE
  5
C91
330
6C
100
AcDbEntity
  8
Center Mark (ANSI)
  6
CHAIN
 48
0.2082219868898392
100
AcDbLine
 10
17.50343504320706
 20
21.90222318268619
 30
0.0
 11
17.50343504320706
 21
20.96472318268619
 31
0.0
  0
LINE
  5
C92
330
6C
100
AcDbEntity
  8
Centerline (ANSI)
  6
CHAIN
 48
0.9524481296539306
100
AcDbLine
 10
7.874685043207058
 20
21.43347318268619
 30
0.0
 11
17.97218504320706
 21
21.43347318268619
 31
0.0
  0
LINE
  5
C93
330
6C
100
AcDbEntity
  8
Center Mark (ANSI)
  6
CHAIN
 48
0.2082219868898392
100
AcDbLine
 10
8.343435043207056
 20
10.24222318268619
 30
0.0
 11
8.343435043207056
 21
9.304723182686196
 31
0.0
  0
LINE
  5
C94
330
6C
100
AcDbEntity
  8
Center Mark (ANSI)
  6
CHAIN
 48
0.2082219868898392
100
AcDbLine
 10
17.50343504320706
 20
10.24222318268619
 30
0.0
 11
17.50343504320706
 21
9.304723182686196
 31
0.0
  0
LINE
  5
C95
330
6C
100
AcDbEntity
  8
Centerline (ANSI)
  6
CHAIN
 48
0.9524481296539306
100
AcDbLine
 10
7.874685043207056
 20
9.773473182686196
 30
0.0
 11
17.97218504320706
 21
9.773473182686196
 31
0.0
  0
ENDSEC
  0
SECTION
  2
OBJECTS
  0
DICTIONARY
  5
C
330
0
100
AcDbDictionary
281
     1
  3
ACAD_CIP_PREVIOUS_PRODUCT_INFO
350
C96
  3
ACAD_COLOR
350
63
  3
ACAD_GROUP
350
D
  3
ACAD_LAYOUT
350
62
  3
ACAD_MATERIAL
350
10
  3
ACAD_MLEADERSTYLE
350
66
  3
ACAD_MLINESTYLE
350
5F
  3
ACAD_PLOTSETTINGS
350
61
  3
ACAD_PLOTSTYLENAME
350
E
  3
ACAD_SCALELIST
350
42
  3
ACAD_TABLESTYLE
350
64
  3
ACAD_VISUALSTYLE
350
29
  3
ACDB_RECOMPOSE_DATA
350
CA6
  3
AcDbVariableDictionary
350
76
  3
DWGPROPS
350
CA7
  0
DICTIONARY
  5
CE3
330
7C1
100
AcDbDictionary
280
     1
281
     1
  3
ACAD_MTEXT_RT
360
CE4
  0
DICTIONARY
  5
CE5
330
86A
100
AcDbDictionary
280
     1
281
     1
  3
ACAD_MTEXT_RT
360
CE6
  0
DICTIONARY
  5
CA4
330
C86
100
AcDbDictionary
280
     1
281
     1
  3
ACAD_MTEXT_2008_RT
360
CA5
  0
XRECORD
  5
C96
102
{ACAD_REACTORS
330
C
102
}
330
C
100
AcDbXrecord
280
     1
300
INVNTOR
300
2012
300
85795PDSP_2012_0F
  0
DICTIONARY
  5
63
102
{ACAD_REACTORS
330
C
102
}
330
C
100
AcDbDictionary
281
     1
  0
DICTIONARY
  5
D
102
{ACAD_REACTORS
330
C
102
}
330
C
100
AcDbDictionary
281
     1
  0
DICTIONARY
  5
62
102
{ACAD_REACTORS
330
C
102
}
330
C
100
AcDbDictionary
281
     1
  3
Layout1
350
6B
  3
Layout2
350
73
  3
Model
350
6F
  0
DICTIONARY
  5
10
102
{ACAD_REACTORS
330
C
102
}
330
C
100
AcDbDictionary
281
     1
  3
ByBlock
350
19
  3
ByLayer
350
11
  3
Global
350
21
  0
DICTIONARY
  5
66
102
{ACAD_REACTORS
330
C
102
}
330
C
100
AcDbDictionary
281
     1
  3
Standard
350
67
  0
DICTIONARY
  5
5F
102
{ACAD_REACTORS
330
C
102
}
330
C
100
AcDbDictionary
281
     1
  3
Standard
350
60
  0
DICTIONARY
  5
61
102
{ACAD_REACTORS
330
C
102
}
330
C
100
AcDbDictionary
281
     1
  0
ACDBDICTIONARYWDFLT
  5
E
102
{ACAD_REACTORS
330
C
102
}
330
C
100
AcDbDictionary
281
     1
  3
Normal
350
F
100
AcDbDictionaryWithDefault
340
F
  0
DICTIONARY
  5
42
102
{ACAD_REACTORS
330
C
102
}
330
C
100
AcDbDictionary
281
     1
  3
A0
350
43
  3
A1
350
44
  3
A2
350
45
  3
A3
350
46
  3
A4
350
47
  3
A5
350
48
  3
A6
350
49
  3
A7
350
4A
  3
A8
350
4B
  3
A9
350
4C
  3
B0
350
4D
  3
B1
350
4E
  3
B2
350
4F
  3
B3
350
50
  3
B4
350
51
  3
B5
350
52
  3
B6
350
53
  0
DICTIONARY
  5
64
102
{ACAD_REACTORS
330
C
102
}
330
C
100
AcDbDictionary
281
     1
  3
Standard
350
65
  0
DICTIONARY
  5
29
102
{ACAD_REACTORS
330
C
102
}
330
C
100
AcDbDictionary
281
     1
  3
2dWireframe
350
2F
  3
Basic
350
2E
  3
Brighten
350
35
  3
ColorChange
350
39
  3
Conceptual
350
32
  3
Dim
350
34
  3
EdgeColorOff
350
41
  3
Facepattern
350
38
  3
Flat
350
2A
  3
FlatWithEdges
350
2B
  3
Gouraud
350
2C
  3
GouraudWithEdges
350
2D
  3
Hidden
350
31
  3
JitterOff
350
3F
  3
Linepattern
350
37
  3
OverhangOff
350
40
  3
Realistic
350
33
  3
Shaded
350
3E
  3
Shaded with edges
350
3D
  3
Shades of Gray
350
3A
  3
Sketchy
350
3B
  3
Thicken
350
36
  3
Wireframe
350
30
  3
X-Ray
350
3C
  0
XRECORD
  5
CA6
102
{ACAD_REACTORS
330
C
102
}
330
C
100
AcDbXrecord
280
     1
 90
        1
330
65
330
982
330
C86
  0
DICTIONARY
  5
76
102
{ACAD_REACTORS
330
C
102
}
330
C
100
AcDbDictionary
281
     1
  3
CANNOSCALE
350
79
  3
CMLEADERSTYLE
350
78
  3
CTABLESTYLE
350
77
  3
DIMASSOC
350
C9E
  3
HIDETEXT
350
C9D
  3
INDEXCTL
350
C9C
  3
LAYEREVAL
350
C99
  3
LAYERNOTIFY
350
C9A
  3
LIGHTINGUNITS
350
C98
  3
MSLTSCALE
350
C97
  3
SORTENTS
350
C9B
  3
XCLIPFRAME
350
C9F
  0
XRECORD
  5
CA7
102
{ACAD_REACTORS
330
C
102
}
330
C
100
AcDbXrecord
280
     1
  1
DWGPROPS COOKIE
  2

  3

  4
JF
  6

  7

  8

  9
-
300
Manager=
301
Company=
302
Category=
303
Part Number=NP1612CG-S
304
Description=
305
Project=
306
Designer=JF
307
Engineer=
308
Authority=
309
Cost Center=
 40
0.0000698148148148
 41
2455945.536836377
 42
2455945.536836377
  1

 90
       22
300
Vendor=
300
User Status=
300
Design Status=WorkInProgress
300
Checked by=DN
300
Date Checked=01/18/2012
300
Engr Approved by=
300
Date Eng Approved=01/18/2012
300
Mfg Approved by=
300
Date Mfg Approved=01/18/2012
300
DWG. NO=
300
NUMBER OF SHEETS=1
300
DRAWING #=
  0
XRECORD
  5
CE4
102
{ACAD_REACTORS
330
CE3
102
}
330
CE3
100
AcDbXrecord
280
     1
 40
30483.0
  1
\A1;\U+22050.500{ TYP. (4 PL.)}
  0
XRECORD
  5
CE6
102
{ACAD_REACTORS
330
CE5
102
}
330
CE5
100
AcDbXrecord
280
     1
 40
30518.0
  1
\A1;\U+22050.313{ TYP. (4 PL.)}
  0
XRECORD
  5
CA5
102
{ACAD_REACTORS
330
CA4
102
}
330
CA4
100
AcDbXrecord
280
     1
 40
4789337.0
  1
\pxsm0.94;{\fRomanS|b0|i0;\H0.5000;PART#: NP1612CG\P(DATA SUBJECT TO CHANGE WITHOUT NOTICE) \P\fRomanS|b0|i0;\H0.3000;THIS DRAWING IS PROPERTY OF HUBBELL INC. WIEGMANN\PALL INFORMATION IS PROPRIETARY AND NOT TO BE DUPLICATED\P\fRomanS|b0|i0;\H0.2500;
  1
 \P}
  0
LAYOUT
  5
6B
102
{ACAD_XDICTIONARY
360
CDD
102
}
102
{ACAD_REACTORS
330
62
102
}
330
62
100
AcDbPlotSettings
  1

  2

  4

  6

 40
0.0
 41
0.0
 42
0.0
 43
0.0
 44
0.0
 45
0.0
 46
0.0
 47
0.0
 48
0.0
 49
0.0
140
0.0
141
0.0
142
1.0
143
1.0
 70
   688
 72
     0
 73
     0
 74
     5
  7

 75
    16
147
1.0
148
0.0
149
0.0
100
AcDbLayout
  1
Layout1
 70
     1
 71
     1
 10
0.0
 20
0.0
 11
12.0
 21
9.0
 12
0.0
 22
0.0
 32
0.0
 14
0.0
 24
0.0
 34
0.0
 15
0.0
 25
0.0
 35
0.0
146
0.0
 13
0.0
 23
0.0
 33
0.0
 16
1.0
 26
0.0
 36
0.0
 17
0.0
 27
1.0
 37
0.0
 76
     0
330
68
  0
LAYOUT
  5
73
102
{ACAD_XDICTIONARY
360
CE1
102
}
102
{ACAD_REACTORS
330
62
102
}
330
62
100
AcDbPlotSettings
  1

  2

  4

  6

 40
0.0
 41
0.0
 42
0.0
 43
0.0
 44
0.0
 45
0.0
 46
0.0
 47
0.0
 48
0.0
 49
0.0
140
0.0
141
0.0
142
1.0
143
1.0
 70
   688
 72
     0
 73
     0
 74
     5
  7

 75
    16
147
1.0
148
0.0
149
0.0
100
AcDbLayout
  1
Layout2
 70
     1
 71
     2
 10
0.0
 20
0.0
 11
12.0
 21
9.0
 12
0.0
 22
0.0
 32
0.0
 14
0.0
 24
0.0
 34
0.0
 15
0.0
 25
0.0
 35
0.0
146
0.0
 13
0.0
 23
0.0
 33
0.0
 16
1.0
 26
0.0
 36
0.0
 17
0.0
 27
1.0
 37
0.0
 76
     0
330
70
  0
LAYOUT
  5
6F
102
{ACAD_XDICTIONARY
360
CDF
102
}
102
{ACAD_REACTORS
330
62
102
}
330
62
100
AcDbPlotSettings
  1

  2

  4

  6

 40
0.0
 41
0.0
 42
0.0
 43
0.0
 44
0.0
 45
0.0
 46
0.0
 47
0.0
 48
0.0
 49
0.0
140
0.0
141
0.0
142
1.0
143
1.0
 70
  1712
 72
     0
 73
     0
 74
     0
  7

 75
     0
147
1.0
148
0.0
149
0.0
100
AcDbLayout
  1
Model
 70
     1
 71
     0
 10
0.0
 20
0.0
 11
12.0
 21
9.0
 12
0.0
 22
0.0
 32
0.0
 14
0.0
 24
0.0
 34
0.0
 15
0.0
 25
0.0
 35
0.0
146
0.0
 13
0.0
 23
0.0
 33
0.0
 16
1.0
 26
0.0
 36
0.0
 17
0.0
 27
1.0
 37
0.0
 76
     0
330
6C
  0
MATERIAL
  5
19
102
{ACAD_XDICTIONARY
360
1A
102
}
102
{ACAD_REACTORS
330
10
102
}
330
10
100
AcDbMaterial
  1
ByBlock
 72
     0
 43
0.0208333333333333
 43
0.0
 43
0.0
 43
0.0
 43
0.0
 43
0.0208333333333333
 43
0.0
 43
0.0
 43
0.0
 43
0.0
 43
1.0
 43
0.0
 43
0.0
 43
0.0
 43
0.0
 43
1.0
 77
     0
 47
0.0208333333333333
 47
0.0
 47
0.0
 47
0.0
 47
0.0
 47
0.0208333333333333
 47
0.0
 47
0.0
 47
0.0
 47
0.0
 47
1.0
 47
0.0
 47
0.0
 47
0.0
 47
0.0
 47
1.0
171
     0
 49
0.0208333333333333
 49
0.0
 49
0.0
 49
0.0
 49
0.0
 49
0.0208333333333333
 49
0.0
 49
0.0
 49
0.0
 49
0.0
 49
1.0
 49
0.0
 49
0.0
 49
0.0
 49
0.0
 49
1.0
175
     0
142
0.0208333333333333
142
0.0
142
0.0
142
0.0
142
0.0
142
0.0208333333333333
142
0.0
142
0.0
142
0.0
142
0.0
142
1.0
142
0.0
142
0.0
142
0.0
142
0.0
142
1.0
179
     0
144
0.0208333333333333
144
0.0
144
0.0
144
0.0
144
0.0
144
0.0208333333333333
144
0.0
144
0.0
144
0.0
144
0.0
144
1.0
144
0.0
144
0.0
144
0.0
144
0.0
144
1.0
147
0.0208333333333333
147
0.0
147
0.0
147
0.0
147
0.0
147
0.0208333333333333
147
0.0
147
0.0
147
0.0
147
0.0
147
1.0
147
0.0
147
0.0
147
0.0
147
0.0
147
1.0
  0
MATERIAL
  5
11
102
{ACAD_XDICTIONARY
360
12
102
}
102
{ACAD_REACTORS
330
10
102
}
330
10
100
AcDbMaterial
  1
ByLayer
 72
     0
 43
0.0208333333333333
 43
0.0
 43
0.0
 43
0.0
 43
0.0
 43
0.0208333333333333
 43
0.0
 43
0.0
 43
0.0
 43
0.0
 43
1.0
 43
0.0
 43
0.0
 43
0.0
 43
0.0
 43
1.0
 77
     0
 47
0.0208333333333333
 47
0.0
 47
0.0
 47
0.0
 47
0.0
 47
0.0208333333333333
 47
0.0
 47
0.0
 47
0.0
 47
0.0
 47
1.0
 47
0.0
 47
0.0
 47
0.0
 47
0.0
 47
1.0
171
     0
 49
0.0208333333333333
 49
0.0
 49
0.0
 49
0.0
 49
0.0
 49
0.0208333333333333
 49
0.0
 49
0.0
 49
0.0
 49
0.0
 49
1.0
 49
0.0
 49
0.0
 49
0.0
 49
0.0
 49
1.0
175
     0
142
0.0208333333333333
142
0.0
142
0.0
142
0.0
142
0.0
142
0.0208333333333333
142
0.0
142
0.0
142
0.0
142
0.0
142
1.0
142
0.0
142
0.0
142
0.0
142
0.0
142
1.0
179
     0
144
0.0208333333333333
144
0.0
144
0.0
144
0.0
144
0.0
144
0.0208333333333333
144
0.0
144
0.0
144
0.0
144
0.0
144
1.0
144
0.0
144
0.0
144
0.0
144
0.0
144
1.0
147
0.0208333333333333
147
0.0
147
0.0
147
0.0
147
0.0
147
0.0208333333333333
147
0.0
147
0.0
147
0.0
147
0.0
147
1.0
147
0.0
147
0.0
147
0.0
147
0.0
147
1.0
  0
MATERIAL
  5
21
102
{ACAD_XDICTIONARY
360
22
102
}
102
{ACAD_REACTORS
330
10
102
}
330
10
100
AcDbMaterial
  1
Global
 72
     0
 43
0.0208333333333333
 43
0.0
 43
0.0
 43
0.0
 43
0.0
 43
0.0208333333333333
 43
0.0
 43
0.0
 43
0.0
 43
0.0
 43
1.0
 43
0.0
 43
0.0
 43
0.0
 43
0.0
 43
1.0
 77
     0
 47
0.0208333333333333
 47
0.0
 47
0.0
 47
0.0
 47
0.0
 47
0.0208333333333333
 47
0.0
 47
0.0
 47
0.0
 47
0.0
 47
1.0
 47
0.0
 47
0.0
 47
0.0
 47
0.0
 47
1.0
171
     0
 49
0.0208333333333333
 49
0.0
 49
0.0
 49
0.0
 49
0.0
 49
0.0208333333333333
 49
0.0
 49
0.0
 49
0.0
 49
0.0
 49
1.0
 49
0.0
 49
0.0
 49
0.0
 49
0.0
 49
1.0
175
     0
142
0.0208333333333333
142
0.0
142
0.0
142
0.0
142
0.0
142
0.0208333333333333
142
0.0
142
0.0
142
0.0
142
0.0
142
1.0
142
0.0
142
0.0
142
0.0
142
0.0
142
1.0
179
     0
144
0.0208333333333333
144
0.0
144
0.0
144
0.0
144
0.0
144
0.0208333333333333
144
0.0
144
0.0
144
0.0
144
0.0
144
1.0
144
0.0
144
0.0
144
0.0
144
0.0
144
1.0
147
0.0208333333333333
147
0.0
147
0.0
147
0.0
147
0.0
147
0.0208333333333333
147
0.0
147
0.0
147
0.0
147
0.0
147
1.0
147
0.0
147
0.0
147
0.0
147
0.0
147
1.0
  0
MLEADERSTYLE
  5
67
102
{ACAD_XDICTIONARY
360
CA2
102
}
102
{ACAD_REACTORS
330
66
102
}
330
66
100
AcDbMLeaderStyle
170
     2
171
     1
172
     0
 90
        2
 40
0.0
 41
0.0
173
     1
 91
-1056964608
340
5B
 92
       -2
290
     1
 42
0.09
291
     1
 43
0.36
  3
Standard
 44
0.18
300

342
55
174
     1
178
     6
175
     1
176
     0
 93
-1056964608
 45
0.18
292
     0
297
     0
 46
0.18
 94
-1056964608
 47
1.0
 49
1.0
140
1.0
293
     1
141
0.0
294
     1
177
     0
142
1.0
295
     0
296
     0
143
0.125
1001
ACAD_MLEADERVER
1070
     2
  0
MLINESTYLE
  5
60
102
{ACAD_REACTORS
330
5F
102
}
330
5F
100
AcDbMlineStyle
  2
STANDARD
 70
     0
  3

 62
   256
 51
90.0
 52
90.0
 71
     2
 49
0.5
 62
   256
  6
BYLAYER
 49
-0.5
 62
   256
  6
BYLAYER
  0
ACDBPLACEHOLDER
  5
F
102
{ACAD_REACTORS
330
E
102
}
330
E
  0
SCALE
  5
43
102
{ACAD_REACTORS
330
42
102
}
330
42
100
AcDbScale
 70
     0
300
1:1
140
1.0
141
1.0
290
     1
  0
SCALE
  5
44
102
{ACAD_REACTORS
330
42
102
}
330
42
100
AcDbScale
 70
     0
300
1/128" = 1'-0"
140
0.0078125
141
12.0
290
     0
  0
SCALE
  5
45
102
{ACAD_REACTORS
330
42
102
}
330
42
100
AcDbScale
 70
     0
300
1/64" = 1'-0"
140
0.015625
141
12.0
290
     0
  0
SCALE
  5
46
102
{ACAD_REACTORS
330
42
102
}
330
42
100
AcDbScale
 70
     0
300
1/32" = 1'-0"
140
0.03125
141
12.0
290
     0
  0
SCALE
  5
47
102
{ACAD_REACTORS
330
42
102
}
330
42
100
AcDbScale
 70
     0
300
1/16" = 1'-0"
140
0.0625
141
12.0
290
     0
  0
SCALE
  5
48
102
{ACAD_REACTORS
330
42
102
}
330
42
100
AcDbScale
 70
     0
300
3/32" = 1'-0"
140
0.09375
141
12.0
290
     0
  0
SCALE
  5
49
102
{ACAD_REACTORS
330
42
102
}
330
42
100
AcDbScale
 70
     0
300
1/8" = 1'-0"
140
0.125
141
12.0
290
     0
  0
SCALE
  5
4A
102
{ACAD_REACTORS
330
42
102
}
330
42
100
AcDbScale
 70
     0
300
3/16" = 1'-0"
140
0.1875
141
12.0
290
     0
  0
SCALE
  5
4B
102
{ACAD_REACTORS
330
42
102
}
330
42
100
AcDbScale
 70
     0
300
1/4" = 1'-0"
140
0.25
141
12.0
290
     0
  0
SCALE
  5
4C
102
{ACAD_REACTORS
330
42
102
}
330
42
100
AcDbScale
 70
     0
300
3/8" = 1'-0"
140
0.375
141
12.0
290
     0
  0
SCALE
  5
4D
102
{ACAD_REACTORS
330
42
102
}
330
42
100
AcDbScale
 70
     0
300
1/2" = 1'-0"
140
0.5
141
12.0
290
     0
  0
SCALE
  5
4E
102
{ACAD_REACTORS
330
42
102
}
330
42
100
AcDbScale
 70
     0
300
3/4" = 1'-0"
140
0.75
141
12.0
290
     0
  0
SCALE
  5
4F
102
{ACAD_REACTORS
330
42
102
}
330
42
100
AcDbScale
 70
     0
300
1" = 1'-0"
140
1.0
141
12.0
290
     0
  0
SCALE
  5
50
102
{ACAD_REACTORS
330
42
102
}
330
42
100
AcDbScale
 70
     0
300
1-1/2" = 1'-0"
140
1.5
141
12.0
290
     0
  0
SCALE
  5
51
102
{ACAD_REACTORS
330
42
102
}
330
42
100
AcDbScale
 70
     0
300
3" = 1'-0"
140
3.0
141
12.0
290
     0
  0
SCALE
  5
52
102
{ACAD_REACTORS
330
42
102
}
330
42
100
AcDbScale
 70
     0
300
6" = 1'-0"
140
6.0
141
12.0
290
     0
  0
SCALE
  5
53
102
{ACAD_REACTORS
330
42
102
}
330
42
100
AcDbScale
 70
     0
300
1'-0" = 1'-0"
140
12.0
141
12.0
290
     0
  0
TABLESTYLE
  5
65
102
{ACAD_XDICTIONARY
360
CA0
102
}
102
{ACAD_REACTORS
330
64
102
}
330
64
100
AcDbTableStyle
  3
Standard
 70
     0
 71
     0
 40
0.06
 41
0.06
280
     0
281
     0
  7
Standard
140
0.18
170
     2
 62
     0
 63
     7
283
     0
274
    -2
284
     1
 64
     0
275
    -2
285
     1
 65
     0
276
    -2
286
     1
 66
     0
277
    -2
287
     1
 67
     0
278
    -2
288
     1
 68
     0
279
    -2
289
     1
 69
     0
  7
Standard
140
0.25
170
     5
 62
     0
 63
     7
283
     0
274
    -2
284
     1
 64
     0
275
    -2
285
     1
 65
     0
276
    -2
286
     1
 66
     0
277
    -2
287
     1
 67
     0
278
    -2
288
     1
 68
     0
279
    -2
289
     1
 69
     0
  7
Standard
140
0.18
170
     5
 62
     0
 63
     7
283
     0
274
    -2
284
     1
 64
     0
275
    -2
285
     1
 65
     0
276
    -2
286
     1
 66
     0
277
    -2
287
     1
 67
     0
278
    -2
288
     1
 68
     0
279
    -2
289
     1
 69
     0
  0
VISUALSTYLE
  5
2F
102
{ACAD_XDICTIONARY
360
CB5
102
}
102
{ACAD_REACTORS
330
29
102
}
330
29
100
AcDbVisualStyle
  2
2dWireframe
 70
     4
 71
     0
 72
     2
 73
     0
 90
        0
 40
-0.6
 41
-30.0
 62
     5
 63
     7
 74
     1
 91
        4
 64
     7
 65
   257
 75
     1
175
     1
 42
1.0
 92
        0
 66
   257
 43
1.0
 76
     1
 77
     6
 78
     2
 67
     7
 79
     5
170
     0
171
     0
290
     0
174
     0
 93
        1
 44
0.0
173
     0
291
     0
 45
0.0
1001
ACAD
1000
AcDbSavedByObjectVersion
1070
     0
  0
VISUALSTYLE
  5
2E
102
{ACAD_XDICTIONARY
360
CB3
102
}
102
{ACAD_REACTORS
330
29
102
}
330
29
100
AcDbVisualStyle
  2
Basic
 70
     7
 71
     1
 72
     0
 73
     1
 90
        0
 40
-0.6
 41
-30.0
 62
     5
 63
     7
 74
     0
 91
        4
 64
     7
 65
   257
 75
     1
175
     1
 42
1.0
 92
        8
 66
     7
 43
1.0
 76
     1
 77
     6
 78
     2
 67
     7
 79
     5
170
     0
171
     0
290
     0
174
     0
 93
        1
 44
0.0
173
     0
291
     1
 45
0.0
1001
ACAD
1000
AcDbSavedByObjectVersion
1070
     0
  0
VISUALSTYLE
  5
35
102
{ACAD_XDICTIONARY
360
CC1
102
}
102
{ACAD_REACTORS
330
29
102
}
330
29
100
AcDbVisualStyle
  2
Brighten
 70
    12
 71
     2
 72
     2
 73
     0
 90
        0
 40
-0.6
 41
-30.0
 62
     5
 63
     7
 74
     1
 91
        4
 64
     7
 65
   257
 75
     1
175
     1
 42
1.0
 92
        8
 66
     7
 43
1.0
 76
     1
 77
     6
 78
     2
 67
     7
 79
     5
170
     0
171
     0
290
     0
174
     0
 93
        1
 44
50.0
173
     0
291
     1
 45
0.0
1001
ACAD
1000
AcDbSavedByObjectVersion
1070
     0
  0
VISUALSTYLE
  5
39
102
{ACAD_XDICTIONARY
360
CC9
102
}
102
{ACAD_REACTORS
330
29
102
}
330
29
100
AcDbVisualStyle
  2
ColorChange
 70
    16
 71
     2
 72
     2
 73
     3
 90
        0
 40
-0.6
 41
-30.0
 62
     5
 63
     8
 74
     1
 91
        4
 64
     7
 65
   257
 75
     1
175
     1
 42
1.0
 92
        8
 66
     8
 43
1.0
 76
     1
 77
     6
 78
     2
 67
     7
 79
     5
170
     0
171
     0
290
     0
174
     0
 93
        1
 44
0.0
173
     0
291
     1
 45
0.0
1001
ACAD
1000
AcDbSavedByObjectVersion
1070
     0
  0
VISUALSTYLE
  5
32
102
{ACAD_XDICTIONARY
360
CBB
102
}
102
{ACAD_REACTORS
330
29
102
}
330
29
100
AcDbVisualStyle
  2
Conceptual
 70
     9
 71
     3
 72
     2
 73
     0
 90
        0
 40
-0.6
 41
-30.0
 62
     5
 63
     7
 74
     2
 91
        2
 64
     7
 65
   257
 75
     1
175
     1
 42
179.0
 92
        8
 66
     7
 43
1.0
 76
     1
 77
     6
 78
     2
 67
     7
 79
     3
170
     0
171
     0
290
     0
174
     0
 93
        1
 44
0.0
173
     0
291
     0
 45
0.0
1001
ACAD
1000
AcDbSavedByObjectVersion
1070
     0
  0
VISUALSTYLE
  5
34
102
{ACAD_XDICTIONARY
360
CBF
102
}
102
{ACAD_REACTORS
330
29
102
}
330
29
100
AcDbVisualStyle
  2
Dim
 70
    11
 71
     2
 72
     2
 73
     0
 90
        0
 40
-0.6
 41
-30.0
 62
     5
 63
     7
 74
     1
 91
        4
 64
     7
 65
   257
 75
     1
175
     1
 42
1.0
 92
        8
 66
     7
 43
1.0
 76
     1
 77
     6
 78
     2
 67
     7
 79
     5
170
     0
171
     0
290
     0
174
     0
 93
        1
 44
-50.0
173
     0
291
     1
 45
0.0
1001
ACAD
1000
AcDbSavedByObjectVersion
1070
     0
  0
VISUALSTYLE
  5
41
102
{ACAD_XDICTIONARY
360
CD9
102
}
102
{ACAD_REACTORS
330
29
102
}
330
29
100
AcDbVisualStyle
  2
EdgeColorOff
 70
    22
 71
     2
 72
     2
 73
     0
 90
        0
 40
-0.6
 41
-30.0
 62
     5
 63
     7
 74
     1
 91
        4
 64
     7
 65
   257
 75
     1
175
     1
 42
1.0
 92
        8
 66
     7
 43
1.0
 76
     1
 77
     6
 78
     2
 67
     7
 79
     5
170
     0
171
     0
290
     0
174
     0
 93
        1
 44
0.0
173
     0
291
     1
 45
0.0
1001
ACAD
1000
AcDbSavedByObjectVersion
1070
     0
  0
VISUALSTYLE
  5
38
102
{ACAD_XDICTIONARY
360
CC7
102
}
102
{ACAD_REACTORS
330
29
102
}
330
29
100
AcDbVisualStyle
  2
Facepattern
 70
    15
 71
     2
 72
     2
 73
     0
 90
        0
 40
-0.6
 41
-30.0
 62
     5
 63
     7
 74
     1
 91
        4
 64
     7
 65
   257
 75
     1
175
     1
 42
1.0
 92
        8
 66
     7
 43
1.0
 76
     1
 77
     6
 78
     2
 67
     7
 79
     5
170
     0
171
     0
290
     0
174
     0
 93
        1
 44
0.0
173
     0
291
     1
 45
0.0
1001
ACAD
1000
AcDbSavedByObjectVersion
1070
     0
  0
VISUALSTYLE
  5
2A
102
{ACAD_XDICTIONARY
360
CAB
102
}
102
{ACAD_REACTORS
330
29
102
}
330
29
100
AcDbVisualStyle
  2
Flat
 70
     0
 71
     2
 72
     1
 73
     1
 90
        2
 40
-0.6
 41
30.0
 62
     5
 63
     7
 74
     0
 91
        0
 64
     7
 65
   257
 75
     1
175
     1
 42
1.0
 92
        8
 66
     7
 43
1.0
 76
     1
 77
     6
 78
     2
 67
     7
 79
     5
170
     0
171
     0
290
     0
174
     0
 93
       13
 44
0.0
173
     0
291
     1
 45
0.0
1001
ACAD
1000
AcDbSavedByObjectVersion
1070
     0
  0
VISUALSTYLE
  5
2B
102
{ACAD_XDICTIONARY
360
CAD
102
}
102
{ACAD_REACTORS
330
29
102
}
330
29
100
AcDbVisualStyle
  2
FlatWithEdges
 70
     1
 71
     2
 72
     1
 73
     1
 90
        2
 40
-0.6
 41
30.0
 62
     5
 63
     7
 74
     1
 91
        0
 64
     7
 65
   257
 75
     1
175
     1
 42
1.0
 92
        0
 66
   257
 43
1.0
 76
     1
 77
     6
 78
     2
 67
     7
 79
     5
170
     0
171
     0
290
     0
174
     0
 93
       13
 44
0.0
173
     0
291
     1
 45
0.0
1001
ACAD
1000
AcDbSavedByObjectVersion
1070
     0
  0
VISUALSTYLE
  5
2C
102
{ACAD_XDICTIONARY
360
CAF
102
}
102
{ACAD_REACTORS
330
29
102
}
330
29
100
AcDbVisualStyle
  2
Gouraud
 70
     2
 71
     2
 72
     2
 73
     1
 90
        2
 40
-0.6
 41
30.0
 62
     5
 63
     7
 74
     0
 91
        0
 64
     7
 65
   257
 75
     1
175
     1
 42
1.0
 92
        0
 66
     7
 43
1.0
 76
     1
 77
     6
 78
     2
 67
     7
 79
     5
170
     0
171
     0
290
     0
174
     0
 93
       13
 44
0.0
173
     0
291
     1
 45
0.0
1001
ACAD
1000
AcDbSavedByObjectVersion
1070
     0
  0
VISUALSTYLE
  5
2D
102
{ACAD_XDICTIONARY
360
CB1
102
}
102
{ACAD_REACTORS
330
29
102
}
330
29
100
AcDbVisualStyle
  2
GouraudWithEdges
 70
     3
 71
     2
 72
     2
 73
     1
 90
        2
 40
-0.6
 41
30.0
 62
     5
 63
     7
 74
     1
 91
        0
 64
     7
 65
   257
 75
     1
175
     1
 42
1.0
 92
        0
 66
   257
 43
1.0
 76
     1
 77
     6
 78
     2
 67
     7
 79
     5
170
     0
171
     0
290
     0
174
     0
 93
       13
 44
0.0
173
     0
291
     1
 45
0.0
1001
ACAD
1000
AcDbSavedByObjectVersion
1070
     0
  0
VISUALSTYLE
  5
31
102
{ACAD_XDICTIONARY
360
CB9
102
}
102
{ACAD_REACTORS
330
29
102
}
330
29
100
AcDbVisualStyle
  2
Hidden
 70
     6
 71
     1
 72
     2
 73
     2
 90
        0
 40
-0.6
 41
-30.0
 62
     5
 63
     7
 74
     2
 91
        2
 64
     7
 65
   257
 75
     2
175
     1
 42
40.0
 92
        0
 66
   257
 43
1.0
 76
     1
 77
     6
 78
     2
 67
     7
 79
     3
170
     0
171
     0
290
     0
174
     0
 93
        1
 44
0.0
173
     0
291
     0
 45
0.0
1001
ACAD
1000
AcDbSavedByObjectVersion
1070
     0
  0
VISUALSTYLE
  5
3F
102
{ACAD_XDICTIONARY
360
CD5
102
}
102
{ACAD_REACTORS
330
29
102
}
330
29
100
AcDbVisualStyle
  2
JitterOff
 70
    20
 71
     2
 72
     2
 73
     0
 90
        0
 40
-0.6
 41
-30.0
 62
     5
 63
     7
 74
     1
 91
        4
 64
     7
 65
   257
 75
     1
175
     1
 42
1.0
 92
       10
 66
     7
 43
1.0
 76
     1
 77
     6
 78
     2
 67
     7
 79
     5
170
     0
171
     0
290
     0
174
     0
 93
        1
 44
0.0
173
     0
291
     1
 45
0.0
1001
ACAD
1000
AcDbSavedByObjectVersion
1070
     0
  0
VISUALSTYLE
  5
37
102
{ACAD_XDICTIONARY
360
CC5
102
}
102
{ACAD_REACTORS
330
29
102
}
330
29
100
AcDbVisualStyle
  2
Linepattern
 70
    14
 71
     2
 72
     2
 73
     0
 90
        0
 40
-0.6
 41
-30.0
 62
     5
 63
     7
 74
     1
 91
        4
 64
     7
 65
   257
 75
     7
175
     7
 42
1.0
 92
        8
 66
     7
 43
1.0
 76
     1
 77
     6
 78
     2
 67
     7
 79
     5
170
     0
171
     0
290
     0
174
     0
 93
        1
 44
0.0
173
     0
291
     1
 45
0.0
1001
ACAD
1000
AcDbSavedByObjectVersion
1070
     0
  0
VISUALSTYLE
  5
40
102
{ACAD_XDICTIONARY
360
CD7
102
}
102
{ACAD_REACTORS
330
29
102
}
330
29
100
AcDbVisualStyle
  2
OverhangOff
 70
    21
 71
     2
 72
     2
 73
     0
 90
        0
 40
-0.6
 41
-30.0
 62
     5
 63
     7
 74
     1
 91
        4
 64
     7
 65
   257
 75
     1
175
     1
 42
1.0
 92
        9
 66
     7
 43
1.0
 76
     1
 77
     6
 78
     2
 67
     7
 79
     5
170
     0
171
     0
290
     0
174
     0
 93
        1
 44
0.0
173
     0
291
     1
 45
0.0
1001
ACAD
1000
AcDbSavedByObjectVersion
1070
     0
  0
VISUALSTYLE
  5
33
102
{ACAD_XDICTIONARY
360
CBD
102
}
102
{ACAD_REACTORS
330
29
102
}
330
29
100
AcDbVisualStyle
  2
Realistic
 70
     8
 71
     2
 72
     3
 73
     0
 90
        2
 40
-0.6
 41
30.0
 62
     5
 63
     7
 74
     0
 91
        0
 64
     7
 65
   257
 75
     1
175
     1
 42
1.0
 92
        8
 66
   257
 43
1.0
 76
     1
 77
     6
 78
     2
 67
     7
 79
     3
170
     0
171
     0
290
     0
174
     0
 93
       13
 44
0.0
173
     0
291
     0
 45
0.0
1001
ACAD
1000
AcDbSavedByObjectVersion
1070
     0
  0
VISUALSTYLE
  5
3E
102
{ACAD_XDICTIONARY
360
CD3
102
}
102
{ACAD_REACTORS
330
29
102
}
330
29
100
AcDbVisualStyle
  2
Shaded
 70
    27
 71
     2
 72
     2
 73
     1
 90
        2
 40
-0.6
 41
30.0
 62
     5
 63
     7
 74
     0
 91
        4
 64
     7
 65
   257
 75
     1
175
     1
 42
1.0
 92
        8
 66
   257
 43
1.0
 76
     1
 77
     6
 78
     2
 67
     8
 79
     3
170
     0
171
     0
290
     0
174
     0
 93
        5
 44
0.0
173
     0
291
     0
 45
0.0
1001
ACAD
1000
AcDbSavedByObjectVersion
1070
     0
  0
VISUALSTYLE
  5
3D
102
{ACAD_XDICTIONARY
360
CD1
102
}
102
{ACAD_REACTORS
330
29
102
}
330
29
100
AcDbVisualStyle
  2
Shaded with edges
 70
    26
 71
     2
 72
     2
 73
     1
 90
        2
 40
-0.6
 41
30.0
 62
     5
 63
     7
 74
     1
 91
       10
 64
     7
 65
   257
 75
     2
175
     1
 42
1.0
 92
        8
 66
   257
 43
1.0
 76
     1
 77
     6
 78
     2
 67
     7
 79
     3
170
     0
171
     0
290
     0
174
     0
 93
        5
 44
0.0
173
     0
291
     0
 45
0.0
1001
ACAD
1000
AcDbSavedByObjectVersion
1070
     0
  0
VISUALSTYLE
  5
3A
102
{ACAD_XDICTIONARY
360
CCB
102
}
102
{ACAD_REACTORS
330
29
102
}
330
29
100
AcDbVisualStyle
  2
Shades of Gray
 70
    23
 71
     2
 72
     2
 73
     3
 90
        0
 40
-0.6
 41
-30.0
 62
     5
 63
     7
 74
     2
 91
        2
 64
     7
 65
     7
 75
     1
175
     1
 42
40.0
 92
        8
 66
     7
 43
1.0
 76
     1
 77
     6
 78
     2
 67
     7
 79
     3
170
     0
171
     0
290
     0
174
     0
 93
        1
 44
0.0
173
     0
291
     0
 45
0.0
1001
ACAD
1000
AcDbSavedByObjectVersion
1070
     0
  0
VISUALSTYLE
  5
3B
102
{ACAD_XDICTIONARY
360
CCD
102
}
102
{ACAD_REACTORS
330
29
102
}
330
29
100
AcDbVisualStyle
  2
Sketchy
 70
    24
 71
     1
 72
     2
 73
     2
 90
        0
 40
-0.6
 41
-30.0
 62
     5
 63
     7
 74
     2
 91
        2
 64
     7
 65
     7
 75
     1
175
     1
 42
40.0
 92
       11
 66
     7
 43
1.0
 76
     1
 77
     6
 78
     2
 67
     7
 79
     6
170
     0
171
     0
290
     0
174
     0
 93
        1
 44
0.0
173
     0
291
     0
 45
0.0
1001
ACAD
1000
AcDbSavedByObjectVersion
1070
     0
  0
VISUALSTYLE
  5
36
102
{ACAD_XDICTIONARY
360
CC3
102
}
102
{ACAD_REACTORS
330
29
102
}
330
29
100
AcDbVisualStyle
  2
Thicken
 70
    13
 71
     2
 72
     2
 73
     0
 90
        0
 40
-0.6
 41
-30.0
 62
     5
 63
     7
 74
     1
 91
        4
 64
     7
 65
   257
 75
     1
175
     1
 42
1.0
 92
       12
 66
     7
 43
1.0
 76
     1
 77
     6
 78
     2
 67
     7
 79
     5
170
     0
171
     0
290
     0
174
     0
 93
        1
 44
0.0
173
     0
291
     1
 45
0.0
1001
ACAD
1000
AcDbSavedByObjectVersion
1070
     0
  0
VISUALSTYLE
  5
30
102
{ACAD_XDICTIONARY
360
CB7
102
}
102
{ACAD_REACTORS
330
29
102
}
330
29
100
AcDbVisualStyle
  2
Wireframe
 70
     5
 71
     0
 72
     2
 73
     0
 90
        0
 40
-0.6
 41
-30.0
 62
     5
 63
     7
 74
     1
 91
        4
 64
     7
 65
   257
 75
     1
175
     1
 42
1.0
 92
        0
 66
   257
 43
1.0
 76
     1
 77
     6
 78
     2
 67
     7
 79
     3
170
     0
171
     0
290
     0
174
     0
 93
        1
 44
0.0
173
     0
291
     0
 45
0.0
1001
ACAD
1000
AcDbSavedByObjectVersion
1070
     0
  0
VISUALSTYLE
  5
3C
102
{ACAD_XDICTIONARY
360
CCF
102
}
102
{ACAD_REACTORS
330
29
102
}
330
29
100
AcDbVisualStyle
  2
X-Ray
 70
    25
 71
     2
 72
     2
 73
     1
 90
        1
 40
0.5
 41
-30.0
 62
     5
 63
     7
 74
     1
 91
        0
 64
     7
 65
   257
 75
     1
175
     1
 42
1.0
 92
        8
 66
     7
 43
1.0
 76
     1
 77
     6
 78
     2
 67
     7
 79
     3
170
     0
171
     0
290
     0
174
     0
 93
       13
 44
0.0
173
     0
291
     0
 45
0.0
1001
ACAD
1000
AcDbSavedByObjectVersion
1070
     0
  0
DICTIONARYVAR
  5
79
102
{ACAD_REACTORS
330
76
102
}
330
76
100
DictionaryVariables
280
     0
  1
1:1
  0
DICTIONARYVAR
  5
78
102
{ACAD_REACTORS
330
76
102
}
330
76
100
DictionaryVariables
280
     0
  1
STANDARD
  0
DICTIONARYVAR
  5
77
102
{ACAD_REACTORS
330
76
102
}
330
76
100
DictionaryVariables
280
     0
  1
STANDARD
  0
DICTIONARYVAR
  5
C9E
102
{ACAD_REACTORS
330
76
102
}
330
76
100
DictionaryVariables
280
     0
  1
1
  0
DICTIONARYVAR
  5
C9D
102
{ACAD_REACTORS
330
76
102
}
330
76
100
DictionaryVariables
280
     0
  1
1
  0
DICTIONARYVAR
  5
C9C
102
{ACAD_REACTORS
330
76
102
}
330
76
100
DictionaryVariables
280
     0
  1
0
  0
DICTIONARYVAR
  5
C99
102
{ACAD_REACTORS
330
76
102
}
330
76
100
DictionaryVariables
280
     0
  1
0
  0
DICTIONARYVAR
  5
C9A
102
{ACAD_REACTORS
330
76
102
}
330
76
100
DictionaryVariables
280
     0
  1
0
  0
DICTIONARYVAR
  5
C98
102
{ACAD_REACTORS
330
76
102
}
330
76
100
DictionaryVariables
280
     0
  1
2
  0
DICTIONARYVAR
  5
C97
102
{ACAD_REACTORS
330
76
102
}
330
76
100
DictionaryVariables
280
     0
  1
1
  0
DICTIONARYVAR
  5
C9B
102
{ACAD_REACTORS
330
76
102
}
330
76
100
DictionaryVariables
280
     0
  1
127
  0
DICTIONARYVAR
  5
C9F
102
{ACAD_REACTORS
330
76
102
}
330
76
100
DictionaryVariables
280
     0
  1
2
  0
DICTIONARY
  5
CDD
330
6B
100
AcDbDictionary
280
     1
281
     1
  3
ACAD_XREC_ROUNDTRIP
360
CDE
  0
DICTIONARY
  5
CE1
330
73
100
AcDbDictionary
280
     1
281
     1
  3
ACAD_XREC_ROUNDTRIP
360
CE2
  0
DICTIONARY
  5
CDF
330
6F
100
AcDbDictionary
280
     1
281
     1
  3
ACAD_XREC_ROUNDTRIP
360
CE0
  0
DICTIONARY
  5
1A
330
19
100
AcDbDictionary
280
     1
281
     1
  3
ACAD_XREC_ROUNDTRIP
360
CA9
  3
BUMPTILE
360
1C
  3
DIFFUSETILE
360
1B
  3
OPACITYTILE
360
1F
  3
REFLECTIONTILE
360
1E
  3
REFRACTIONTILE
360
20
  3
SPECULARTILE
360
1D
  0
DICTIONARY
  5
12
330
11
100
AcDbDictionary
280
     1
281
     1
  3
ACAD_XREC_ROUNDTRIP
360
CA8
  3
BUMPTILE
360
14
  3
DIFFUSETILE
360
13
  3
FBXASSET
360
F5
  3
OPACITYTILE
360
17
  3
REFLECTIONTILE
360
16
  3
REFRACTIONTILE
360
18
  3
SPECULARTILE
360
15
  0
DICTIONARY
  5
22
330
21
100
AcDbDictionary
280
     1
281
     1
  3
ACAD_XREC_ROUNDTRIP
360
CAA
  3
BUMPTILE
360
24
  3
DIFFUSETILE
360
23
  3
FBXASSET
360
BA
  3
OPACITYTILE
360
27
  3
REFLECTIONTILE
360
26
  3
REFRACTIONTILE
360
28
  3
SPECULARTILE
360
25
  0
DICTIONARY
  5
CA2
330
67
100
AcDbDictionary
280
     1
281
     1
  3
ACAD_XREC_ROUNDTRIP
360
CA3
  0
DICTIONARY
  5
CA0
330
65
100
AcDbDictionary
280
     1
281
     1
  3
ACAD_ROUNDTRIP_2008_TABLESTYLE_CELLSTYLEMAP
360
CA1
  3
ACAD_XREC_ROUNDTRIP
360
CDB
  0
DICTIONARY
  5
CB5
330
2F
100
AcDbDictionary
280
     1
281
     1
  3
ACAD_XREC_ROUNDTRIP
360
CB6
  0
DICTIONARY
  5
CB3
330
2E
100
AcDbDictionary
280
     1
281
     1
  3
ACAD_XREC_ROUNDTRIP
360
CB4
  0
DICTIONARY
  5
CC1
330
35
100
AcDbDictionary
280
     1
281
     1
  3
ACAD_XREC_ROUNDTRIP
360
CC2
  0
DICTIONARY
  5
CC9
330
39
100
AcDbDictionary
280
     1
281
     1
  3
ACAD_XREC_ROUNDTRIP
360
CCA
  0
DICTIONARY
  5
CBB
330
32
100
AcDbDictionary
280
     1
281
     1
  3
ACAD_XREC_ROUNDTRIP
360
CBC
  0
DICTIONARY
  5
CBF
330
34
100
AcDbDictionary
280
     1
281
     1
  3
ACAD_XREC_ROUNDTRIP
360
CC0
  0
DICTIONARY
  5
CD9
330
41
100
AcDbDictionary
280
     1
281
     1
  3
ACAD_XREC_ROUNDTRIP
360
CDA
  0
DICTIONARY
  5
CC7
330
38
100
AcDbDictionary
280
     1
281
     1
  3
ACAD_XREC_ROUNDTRIP
360
CC8
  0
DICTIONARY
  5
CAB
330
2A
100
AcDbDictionary
280
     1
281
     1
  3
ACAD_XREC_ROUNDTRIP
360
CAC
  0
DICTIONARY
  5
CAD
330
2B
100
AcDbDictionary
280
     1
281
     1
  3
ACAD_XREC_ROUNDTRIP
360
CAE
  0
DICTIONARY
  5
CAF
330
2C
100
AcDbDictionary
280
     1
281
     1
  3
ACAD_XREC_ROUNDTRIP
360
CB0
  0
DICTIONARY
  5
CB1
330
2D
100
AcDbDictionary
280
     1
281
     1
  3
ACAD_XREC_ROUNDTRIP
360
CB2
  0
DICTIONARY
  5
CB9
330
31
100
AcDbDictionary
280
     1
281
     1
  3
ACAD_XREC_ROUNDTRIP
360
CBA
  0
DICTIONARY
  5
CD5
330
3F
100
AcDbDictionary
280
     1
281
     1
  3
ACAD_XREC_ROUNDTRIP
360
CD6
  0
DICTIONARY
  5
CC5
330
37
100
AcDbDictionary
280
     1
281
     1
  3
ACAD_XREC_ROUNDTRIP
360
CC6
  0
DICTIONARY
  5
CD7
330
40
100
AcDbDictionary
280
     1
281
     1
  3
ACAD_XREC_ROUNDTRIP
360
CD8
  0
DICTIONARY
  5
CBD
330
33
100
AcDbDictionary
280
     1
281
     1
  3
ACAD_XREC_ROUNDTRIP
360
CBE
  0
DICTIONARY
  5
CD3
330
3E
100
AcDbDictionary
280
     1
281
     1
  3
ACAD_XREC_ROUNDTRIP
360
CD4
  0
DICTIONARY
  5
CD1
330
3D
100
AcDbDictionary
280
     1
281
     1
  3
ACAD_XREC_ROUNDTRIP
360
CD2
  0
DICTIONARY
  5
CCB
330
3A
100
AcDbDictionary
280
     1
281
     1
  3
ACAD_XREC_ROUNDTRIP
360
CCC
  0
DICTIONARY
  5
CCD
330
3B
100
AcDbDictionary
280
     1
281
     1
  3
ACAD_XREC_ROUNDTRIP
360
CCE
  0
DICTIONARY
  5
CC3
330
36
100
AcDbDictionary
280
     1
281
     1
  3
ACAD_XREC_ROUNDTRIP
360
CC4
  0
DICTIONARY
  5
CB7
330
30
100
AcDbDictionary
280
     1
281
     1
  3
ACAD_XREC_ROUNDTRIP
360
CB8
  0
DICTIONARY
  5
CCF
330
3C
100
AcDbDictionary
280
     1
281
     1
  3
ACAD_XREC_ROUNDTRIP
360
CD0
  0
XRECORD
  5
CDE
102
{ACAD_REACTORS
330
CDD
102
}
330
CDD
100
AcDbXrecord
280
     1
102
SHADEPLOT
 70
     0
102
SHADEPLOTRESLEVEL
 70
     2
102
SHADEPLOTCUSTOMDPI
 70
   300
  0
XRECORD
  5
CE2
102
{ACAD_REACTORS
330
CE1
102
}
330
CE1
100
AcDbXrecord
280
     1
102
SHADEPLOT
 70
     0
102
SHADEPLOTRESLEVEL
 70
     2
102
SHADEPLOTCUSTOMDPI
 70
   300
  0
XRECORD
  5
CE0
102
{ACAD_REACTORS
330
CDF
102
}
330
CDF
100
AcDbXrecord
280
     1
102
SHADEPLOT
 70
     0
102
SHADEPLOTRESLEVEL
 70
     2
102
SHADEPLOTCUSTOMDPI
 70
   300
  0
XRECORD
  5
CA9
102
{ACAD_REACTORS
330
1A
102
}
330
1A
100
AcDbXrecord
280
     1
102
MATERIAL
148
0.0
149
0.0
149
0.0
 93
        0
 94
      127
282
     0
 72
     0
 77
     0
171
     0
175
     0
179
     0
273
     0
  0
XRECORD
  5
1C
102
{ACAD_REACTORS
330
1A
102
}
330
1A
100
AcDbXrecord
280
     1
270
     1
271
     1
  0
XRECORD
  5
1B
102
{ACAD_REACTORS
330
1A
102
}
330
1A
100
AcDbXrecord
280
     1
270
     1
271
     1
  0
XRECORD
  5
1F
102
{ACAD_REACTORS
330
1A
102
}
330
1A
100
AcDbXrecord
280
     1
270
     1
271
     1
  0
XRECORD
  5
1E
102
{ACAD_REACTORS
330
1A
102
}
330
1A
100
AcDbXrecord
280
     1
270
     1
271
     1
  0
XRECORD
  5
20
102
{ACAD_REACTORS
330
1A
102
}
330
1A
100
AcDbXrecord
280
     1
270
     1
271
     1
  0
XRECORD
  5
1D
102
{ACAD_REACTORS
330
1A
102
}
330
1A
100
AcDbXrecord
280
     1
270
     1
271
     1
  0
XRECORD
  5
CA8
102
{ACAD_REACTORS
330
12
102
}
330
12
100
AcDbXrecord
280
     1
102
MATERIAL
148
0.0
149
0.0
149
0.0
 93
        0
 94
      127
282
     0
 72
     0
 77
     0
171
     0
175
     0
179
     0
273
     0
  0
XRECORD
  5
14
102
{ACAD_REACTORS
330
12
102
}
330
12
100
AcDbXrecord
280
     1
270
     1
271
     1
  0
XRECORD
  5
13
102
{ACAD_REACTORS
330
12
102
}
330
12
100
AcDbXrecord
280
     1
270
     1
271
     1
  0
XRECORD
  5
F5
102
{ACAD_REACTORS
330
12
102
}
330
12
100
AcDbXrecord
280
     1
 70
     1
 90
1959938040
 71
     1
  1
65FB1BDA-8D21-467F-AB3D-48E477A5A391
311
504B03040A0000080000A46632403DEE336E79000000790000001B0000006175746F6465736B2D64657369676E2D7061636B6167652E786D6C3C3F786D6C2076657273696F6E3D22312E302220656E636F64696E673D227574662D3822203F3E3C666F726D6174733E3C666F726D61743E687474703A2F2F736368656D612E
311
6175746F6465736B2E636F6D2F64657369676E2D7061636B6167652F323030393C2F666F726D61743E3C2F666F726D6174733E504B0304140006080800A4663240D486FD9CA0000000F4000000130000005B436F6E74656E745F54797065735D2E786D6C7D8EC10E82300C865F65E91D8A1E8C310C0EEA1BF002731658846E
311
D98AC1B77784ABF1D8FE5FBFBF75BBCE937A534CCEB38643598122B6FEE978D0B0485F9C41B54DDD7D022595594E1A469170414C76A4D9A4D207E29CF43ECE46F218070CC6BECC4078ACAA135ACF422C856C0E68EA1BF5669944DDD7BCDE7B1F8E415D77AECB980613C2E4AC91FC167A2B244592486606FC29C8FD7F045B9A
311
EF7053A7E60B504B0304140006080800A4663240E9F29DCDEC0000007C01000008000000636F72652E786D6C75905D6EC3201084AF8278C706FC472D4C94D4ED097A0104C44189C13250F5F8C58923350F7DDAD5301F3B1A7EF8996FE0DBACC17A37405260088C535E5B370D30C53362101C045FBD8F7F6C1038399B016E32
311
147C5A7D5A764979178D8B59755E9B5D9421980881BAE56580415DCC2C0B996276846BB14875959329C873CB704A5683C711ABF37FF66CCD0A05797B6FD8D88EE8D4541DAA4F2D43C78FA641B4EAF067CDC6236B6B5E6EB0E0D1CECFFB6A35321A0D05C584224C10615F84F64DD5E30EE1B6C798979BFD054A8BFE0F62AF50
311
B22E56748FFBC042CE9A83DC1F042FB72EF2B81795E7D69BF805504B0304140006080800A466324055019EA25F0000007C00000007000000636E782E786D6C4DCB3B0E80201045D1AD90E915ED2CF8AC45050C11660C8261F98AB1B07AC9C97D42D718D865D3E909258CFD00CCE24AC6E326A164D74DC0B4128928FF326038
311
472BA13128B1252AC747C6BAB984FC68F0B87FE8960A5C09FE86CFB69FBA01504B0304140006080800A4663240E4071EF969010000020300000C0000006662782F636F72652E786D6C8D525B6E833010BC8AE57F63F30C8D8CA3A4694FD00B38E05014B091B1518EDFE511A5A9D2AA4232D6CCCEEEEC00DF5DBB168DCA0E8D
311
D1050E038691D2A5A91A5D17D8BB33C931DA096E8D71DFCA30D2B253059E602C786D8DEF57A834DA29ED00D5A6522B288741398CCA162E051ECA4FD5C9407A0715C325E8657991B50AC20068A8137C70160CA065C87462713E5D395D70C1BD6FAA956D2A98D69C1B65B1085F5ED3FC981DC9218D3724396439D9BFA52989E2
311
0D7B4FF2E33ECF124E27B1E0AEE96EEE4AABA4531516110B23C24212E61F61B44DE32DDB10966D19E3742A7F10F9BEFA4D943F8A7CA35D1CAD7617D9005EC1C84CFCD8162272689023F8A182D3294478CD093F060D8140C84E9EDADB1E178046553A6313602AE3EFD4285BAF602A43F3C3E9C242E7B9016CF6B44FF4479FBF
311
7BC00794BA066BD2C1F5E4DD349D2F53D7287A65C9E8AE481BDBC9F66E6EB1783FEF839ECA4BD31AFB1F355D57A56B9874FA7BC517504B0304140006080800A4663240D6D8B9AD7E0000009D0000000B0000006662782F636E782E786D6C4DCC410E83201445D1AD903FA70A16ED00305A701FA6A2212234149A2EBFDA38E8
311
E825272F97B79FCDA1B7892F1BBC0072290119FF0893F58B809C667C03D44A1E43487F37407EDC8C808341F22586FC3C6932F3985DDAD559BF9ED8A8AA2E19A158F54AE3EB4019EEEA46617AA78C69DD917EA8A090BCF895F63DC2F20B504B0304140006080800A4663240A58C4BE73001000014020000310000006662782F
311
37443336303531322D444244452D344632352D413637442D3243323535454541314246332F636F72652E786D6C8D51CB6EC23010FC95C8277A70623B2444C8318206BEA03F1062432D881DF951F1F95D37412A874ABD78ADD999D9D12EDF3DC67BF6A59CD7D6B488E60465CA0C566A736D510C17DCA06C27B8B336FCA2A1CC
311
F4A36A518291E05767E3B4408335419900A8B1522D60EFBD0A281BEEF069911F3ED5D8E77D0CC0F0B77CEA875B7F5539CDA10D3CC17D7010209B87A417894D57D6A4A20C7787EE88D72756E17DBDE9307B6755753CEEE9E154F262160A1EA3968B5C4B88A32F5AB9FF9A24B1E0418FCFF883537D501209462000A198361F94
311
6DAB724B3698D45B427891E82FA238C9BF44CDAB286A134AB6C49D651E09CA8BB921B8B4F17C7F86518FC9BA90A5792BAF863724484E1861755357BC98A9B000F0ACD78BA70FD6C18257B733B029B09271BD16BC483782F27340A8E99EE21B504B0304140006080800A46632403DA6BA165101000033030000300000006662
311
782F37443336303531322D444244452D344632352D413637442D3243323535454541314246332F636E782E786D6CC593CD6E022114855F85B09F1FD45A63184CBAE81374D12DC255A90C4CF869EADBF7A268DDB86837DD90C9B987736EBE307CF3355AF209211AEF06CADA9E1270CA6BE3F603CD69D7AC28D9081EBC4F7736
311
4A9C1C61A045A682EF83CF539534EC64B609556BDCB18A01A2CF414144B9DC24D62B6931005C935184710B5A832637237EED20E02A286E4F241D80BCBEBC13BFFD009522EF4A8AE05DE910BC9CB5E9CE4489B232C68146758051B63227AF211E5B2D936C597BED7AB0D34F122917AE95391852CA075A4E2AEA462D72E41D0E
311
058F2920BD6A4AA709A890D3648D9209217767E3C52378362E2D17D56B107C40375BCE170B0C3BCF044F6684EA500164024DC5AC67B3A6670D5BBDB1D9FA69BEEE9F9B7EB9EE7BDE15BBE05BEF6DBD843110FC449477095CA282F1AE8C1FE1AB3EA24D40D63E9C7E011201D4D60B9D5BC6BFF359FD9D4F777EDF882BE05F20
311
BE01504B0304140006080800A4663240E44E7E069A0500007B100000340000006662782F37443336303531322D444244452D344632352D413637442D3243323535454541314246332F6F626A656374732E786D6CAD575B8F9B3814FE2B887D0E8424735B3154B974AAA83B6DD5A8D53E8C1419308C77CC45B699C9F4D7EF67
311
3004D2649A5DF505B0B18FCFF9CE772EF6DFED326E3D53215991DFDA9E33B62D9A4745CCF2F4D6AE5432BAB6AD77812F8A42F596D9564E327A6BEB693BF0535154A5998A69422AAE0E66EF167F5B32A239B5AD8813296F6D193DD28C38A452454CE5931313459C34D9399ED32C1C8A4D05291F0F849644D05C4153CCE79062
311
354A79C3E1D87603DFD5FF035F3FCDAAE9E9556E6DCFF07C964B45F2E8A7C30EC44CBDD9EAFDE4E26674319B4D47B3CB89375ADC2D5623EF6A3A5E5E2E9737F3F73738582A0149461341133BF8006C048B7CB7F915F815CBD57462961807B9823E33ED293B98589EEF366B3AEB8C91C7D48F8A3CA7518D15D0A8ED33A2635A
311
D23C86CF1995D0AC87D07838F4348EBDDF533D3647F6A7CF43A0BFA327A8D5BD7DF7352DC27F60823C87414252CDC0064B6368C3D5F11EE1B028B8F9C7A49511450523DCE22C1444BCDA0196EA25813F10A3992C7434680BEC005E687E0FE98230FA35CF8F6999549C6B1ADB411D055BC40A55B2D68CFDA062AF7D1F19E804
311
5F69365C1B83D46B49EDE0A6A1C8F5019B1A20AD8493142E87997AE7747260E852C7E97A65071FEFC2DD46C7EEF1C34B519454284D1F50AB755CFBD628199DBCB33CA737D807AAEC41F90AE43F21D4F7AAC06F82ED66BB9939450992CBA410197C638DADD1188FB1E5D54FFDDDFBF2DD6EF3D07BA7F084B33554BF01CFA10D
311
7D5FF6E00CFC6710BE105363DA26221C69E39EE5004893C4E205A69087937067076B64396465EC223CF06032D47DC6A7EF1A314814F549BD770E2C0FD2E219091AB0D58C841A0DF98D827B3FFD94CEEA83CDB253F05EFC16BACE579B8F9B4A2424A2F726A6573461395328717BDEF4151A603EB0E889BEBE142286A13FE3BD
311
E9E39D99A324D0D6986BE0D336A7EBC1FEE4C10111F6A5854E37FE2F4E8011BAB0F6E4DF331951CE494E8BAA3DF7CDFA81B2D140AC835D33B92B30FBC202D2347F0E6210453A12ACD42076D5AA4B9ACE09EBBEAD3F819176B078FD8BBCF6B357B8CFBD51C10BB10D5FB74D5A3A0AF5F721B70D06AE9602BAD741D2C6BF017D
311
1BB324A92492E0115CBFAF977DDFE9B48014D14A6DA26506FB115C4418D2B67251AD0541252DF22D43DD44DC1D3DA02F1F901A06D4024F692C294FB68CF32ADB268CA31A6D33529E80E3FFEB1F5659B9255951E5EA84EC81EAA80E43DD07EC952F44458F76B0A9DFA305726F4CE31364D0B5E4085603D75E5EDC2DBCC56A3E
311
BA5EA1759A5D5EDD8DE68BE96A34BB7E3FBBBA9A5FCCA7377B34EB262AF0DB52D38F687809A5CDAF0433EEFBB646FC98246007F744C9870F4D78B6EF6F6B07BDB0EF620FEA65B7711E3FA3EFA3F1AF05EC571E15B4CE4A4E339A2BA263E85E7FF0AF047DC64099667E9D91949E21E5F387CD8131983963DF171DEFF4E560AF
311
995DEA803C2A443D56599813C60F36A60D924E99A706BFD627DDBB2934ED508F8C63D099CA82B3187930B6525A6454211B9E5184444625A8D7EFE96373F73863F773D3212A1272DA6AF248D0247389B000C9AB480DE7AD3FD0D4E9BEEAD646B9759EF03099C2B6C0995B1B4DBA6211954E8802AD5BA15A38B8D4EFE4C15992
311
A71CBD76B3A91B77BB34368392DC2D39A77F32763529DC18803452A26F404304EFD4CA047EAD9BF91FFD27C35B752CA2F01956AAB3653FD119531F83106D8C32B70534314FE6E81D02F56DB33CA75E3340E4AC5BD69B2468A48E1411697D53D0FA1995E6AB2F2E3A146BFDD92A7995C297E74B1A090A32573AC0C122B0C2C8
311
2C890255977F3E7C11056EB29975C7408187659165456E06737313B6368FB8D7C60F480B545F48E4C364EC4D1EEA8B80B99B6C4322A94362F98409F854B00EE281E3C1C8E6B6889CD9FCE8D6B9DA0907DC5CAF2C53D266106A88D2CFAA1A16B41C39B5103DFA32A963A5BFA07CF32EE0D64BA18240171FFC0B504B03041400
311
06080000A4663240000000000000000000000000350000006662782F37443336303531322D444244452D344632352D413637442D3243323535454541314246332F76657274696365732E62696E504B0304140006080800A4663240F270F1330600000004000000360000006662782F37443336303531322D444244452D3446
311
32352D413637442D3243323535454541314246332F747269616E676C65732E62696E636660600000504B0304140006080000A4663240000000000000000000000000370000006662782F37443336303531322D444244452D344632352D413637442D3243323535454541314246332F617474726962757465732E62696E504B
311
0304140006080800A4663240D5987DFC8F00000041010000360000006662782F37443336303531322D444244452D344632352D413637442D3243323535454541314246332F6469726563746F72792E786D6C858F410EC2201045AF4266AF15DDB800BA74E7C21B903225242D6328188F2FA5C4183471359997F9FF81E89FF3
311
C41E1816475E02DF1F80A11FC8386F25A438EECEC07A250251FC3803E6F58C12560C4AD840E95E91C151A72936F496F35732D860FE635F62C8F2DA16B505C545B74125BAA2FA9E05D7CC053D063734D5C7665FD55B6B8D15D5E9BFEAFD8490FFA45E504B0304140006080800A4663240241F402DFC000000A00100003B0000
311
006662782F37443336303531322D444244452D344632352D413637442D3243323535454541314246332F7265736F75726365732F636F72652E786D6C8D50596EC32010BD8AC53F3678A51626CAD29EA0174078E2A2C460B1543D7E2171A5F6AF3F33A3B7689E1E3F7CADF7E2139CD7D64C8896041560949DB5592614C31533
311
541C0477D6865F325418B9C284328C045F9C8DDB0E296B029890506367D841E93D0454A87B3A26E4D507ACB294312485BF959B5437B94049CB44279DE03EB814A0783EC9130907DE46A7C0F3EAC90A1EA39E778D9ED34F7DD5E090A02FE78E5DFA333E75CD80DB53CFF0F1B5EB70DD0CE4AD659723EB5B5E65B3E041AF3F19
311
9503196046A226B4C68462CADE693D76CD48064CFA91105E65F91F53DCE67F9AA236A1A9F7B84F9B4F59539007217895FB4AEB5166DAB95BF10D504B010214000A0000080000A46632403DEE336E79000000790000001B00000000000000000000000000000000006175746F6465736B2D64657369676E2D7061636B616765
311
2E786D6C504B01021400140006080800A4663240D486FD9CA0000000F40000001300000000000000000000000000B20000005B436F6E74656E745F54797065735D2E786D6C504B01021400140006080800A4663240E9F29DCDEC0000007C010000080000000000000000000000000083010000636F72652E786D6C504B0102
311
1400140006080800A466324055019EA25F0000007C000000070000000000000000000000000095020000636E782E786D6C504B01021400140006080800A4663240E4071EF969010000020300000C00000000000000000000000000190300006662782F636F72652E786D6C504B01021400140006080800A4663240D6D8B9AD
311
7E0000009D0000000B00000000000000000000000000AC0400006662782F636E782E786D6C504B01021400140006080800A4663240A58C4BE730010000140200003100000000000000000000000000530500006662782F37443336303531322D444244452D344632352D413637442D3243323535454541314246332F636F72
311
652E786D6C504B01021400140006080800A46632403DA6BA1651010000330300003000000000000000000000000000D20600006662782F37443336303531322D444244452D344632352D413637442D3243323535454541314246332F636E782E786D6C504B01021400140006080800A4663240E44E7E069A0500007B100000
311
3400000000000000000000000000710800006662782F37443336303531322D444244452D344632352D413637442D3243323535454541314246332F6F626A656374732E786D6C504B01021400140006080000A466324000000000000000000000000035000000000000000000000000005D0E00006662782F37443336303531
311
322D444244452D344632352D413637442D3243323535454541314246332F76657274696365732E62696E504B01021400140006080800A4663240F270F13306000000040000003600000000000000000000000000B00E00006662782F37443336303531322D444244452D344632352D413637442D3243323535454541314246
311
332F747269616E676C65732E62696E504B01021400140006080000A466324000000000000000000000000037000000000000000000000000000A0F00006662782F37443336303531322D444244452D344632352D413637442D3243323535454541314246332F617474726962757465732E62696E504B010214001400060808
311
00A4663240D5987DFC8F0000004101000036000000000000000000000000005F0F00006662782F37443336303531322D444244452D344632352D413637442D3243323535454541314246332F6469726563746F72792E786D6C504B01021400140006080800A4663240241F402DFC000000A00100003B000000000000000000
311
00000000421000006662782F37443336303531322D444244452D344632352D413637442D3243323535454541314246332F7265736F75726365732F636F72652E786D6C504B0506000000000E000E0080040000971100000000
310
504B03040A0000080000A36632403DEE336E79000000790000001B0000006175746F6465736B2D64657369676E2D7061636B6167652E786D6C3C3F786D6C2076657273696F6E3D22312E302220656E636F64696E673D227574662D3822203F3E3C666F726D6174733E3C666F726D61743E687474703A2F2F736368656D612E
310
6175746F6465736B2E636F6D2F64657369676E2D7061636B6167652F323030393C2F666F726D61743E3C2F666F726D6174733E504B0304140006080800A3663240D486FD9CA0000000F4000000130000005B436F6E74656E745F54797065735D2E786D6C7D8EC10E82300C865F65E91D8A1E8C310C0EEA1BF002731658846E
310
D98AC1B77784ABF1D8FE5FBFBF75BBCE937A534CCEB38643598122B6FEE978D0B0485F9C41B54DDD7D022595594E1A469170414C76A4D9A4D207E29CF43ECE46F218070CC6BECC4078ACAA135ACF422C856C0E68EA1BF5669944DDD7BCDE7B1F8E415D77AECB980613C2E4AC91FC167A2B244592486606FC29C8FD7F045B9A
310
EF7053A7E60B504B0304140006080800A36632409FC151F9E90000007C01000008000000636F72652E786D6C8D904D6EC3201085AF82668F0DC4892D0B1325716ED00B20202E4A0C163F558F5F9C3852BBEB6A466FDE37337AFCF83D3FD09709D17A3700AD0820E394D7D64D03E474C31DA0A3E0C1FBF4CB06C8C9D90CB0CA
310
20F8147C5E364979978C4B45755E9B4D94319A04483D4A3340549F669695CCA938E2BD5AA4BACBC954F4DD153867ABD1EB88D5659FBD5913405CDA7D4B096D3069CE143787EE84CF23B9E2537BE99A66A42363575EAFB0E0C9CEEFFB2A18998C06C1086598504CBB0FCAFAFDAE272D26879E105EAFF63F505EF43FA16C5DDA
310
B1EDDD171641D0F2C8732078BD6651CA33A852D7DCC40F504B0304140006080800A366324055019EA25F0000007C00000007000000636E782E786D6C4DCB3B0E80201045D1AD90E915ED2CF8AC45050C11660C8261F98AB1B07AC9C97D42D718D865D3E909258CFD00CCE24AC6E326A164D74DC0B4128928FF326038472BA1
310
3128B1252AC747C6BAB984FC68F0B87FE8960A5C09FE86CFB69FBA01504B0304140006080800A3663240FEF1C27564010000020300000C0000006662782F636F72652E786D6C8D52ED8E8320107C15C27F04ACAD4D8334FD7A837B01AAD433553008A68F7FEB47E3F5D234171324333BBBB3A362FF686AD46BD755D6649847
310
0C236D725B54A6CC70F037B2C5682F85B3D6FF2AC3C8A846677880B114A5B3A19DA1DC1AAF8D07D4D842CFA0EA3AED31CA6BB864B8CBBF75A322153C5474F7A855F95D953AE211D0502745E71D1840D390E1C4F2767D083AE152845015335B1530ADBA55DA61794AD729673C212C3972926CB607723CB30B39A4A76D929CF9
310
398E2F820E62297CD53CDDE54E2BAF0B2C63C663C238E1DB2F1EEFD6AB1D4B09DBEC181374287F1185B6F8A72854C6AFE2D9EE24EBB0E4606424FE6C0B1179D4A91EFC5029E81022BCC6845F8386402064AFAEF5738F3B40BDCEBD750930850D0BD5AB3A6898CAD0F8083AB1D0796C009BBDED137FE8F3B9077C40654AB0A6
310
3C5CAFC10FD3C534758EA2D58EF4FE818C758DAA177393C5E55C06BD95E7B6B6EE3F6A3AAF4AE730E9F0F7CA1F504B0304140006080800A3663240F0FBBF277E0000009D0000000B0000006662782F636E782E786D6C4DCCD10E82201886E15B61FF39096A411BE0A4EC3E5CA263213482D6E5A7CE038FBEEDD9B75734BFD9
310
A1AF891F1BBC047A22808C7F86C1FA49424E23E6801A256208E97003E4FBD9485819949862C8EF9D0633F6D9A5459DF5AF1DEB337B5C3BDDE21BD115AE39D7983372C72D2D4955D28E327E814289622B2DBB86D51F504B0304140006080800A3663240080BB9552B01000014020000310000006662782F3435374639454241
310
2D433042332D343838422D383730442D4131323033323145313738362F636F72652E786D6C8D51CB6EC32010FC15C4293D6003766C27C244499B7E417FC00192A0C460F1A8F2F985DA91DA5B2E2C9A9D991DEDB2DD63BC836FE5BCB6A687A4C0102823ACD4E6D2C318CEA88360C799B336FCA141608651F530C390B38BB371
310
5A20614D502624D458A91670F05E0508C43D7D7AE8C5558D4331C49018FE564C83B80D17559022B5138F331F5C0A00E621F985BC5EB79F9BE3618FDEF1A14275D71D50D7E20FB4271457941C49DB35AC9C859CC5A8E522D732C5D167ADDCAB2659CC59D0E333BE706A084A424E31A1081344BA2F42B7EB6A8B5B849B2DC6AC
310
CCF47FA238C91745519B50D125EE2CF3901356CE0DCEA48DA7FB338C7A4CD60590E7ADBC126F90E3025342DB4DB561E54C4D0B489E4DBD78FA605D5AF0EA764AEC6A316E6ACECA7CA3547E0F986ABE27FF01504B0304140006080800A3663240C66625785401000033030000300000006662782F34353746394542412D4330
310
42332D343838422D383730442D4131323033323145313738362F636E782E786D6CBD93CD6EC32010845F0571F76F52D78A30917AE813F4D02B864D4283C1025C356FDF2521692E3954AA7A41D6EC30B3FA84D9F66B32E4137CD0CE0EB4296B4AC04AA7B4DD0F7489BBA2A764CB99772EDED928B1628281269972B6F76E99B3
310
A4602716135135DA1EB3E821B8C54B0828A79BC438290C06802D1614611A412950E466C4AF1D785C05C5F144E201C8EBCB3B71E307C81858955238AB520767E9CC4D77264AA411210C34C8034CA2144B740AC2B154228AB229AF5D0F76FA4922E9C2B572F19AA4F281A693F2BC51891C598543CE42F4482F9BE26906CAC53C
310
1B2D4544C8D5D978F170B6681BBB75F66A04EFD1BD6ABBBEC7B0F38CB3A827C80EE941445094B775D316755334FD5BD36E9E569BFAB9A8BB4D5DB32AD9391B9D33F912C680773391CE46B091F2865569FC085FF611A53DB276FEF40B900820B75EE8DC32FE924FD3ADD6EB7FE4539DDF37E2F2F817F06F504B030414000608
310
0800A3663240110E845059070000941B0000340000006662782F34353746394542412D433042332D343838422D383730442D4131323033323145313738362F6F626A656374732E786D6CED595B739B3814FE2B0CFB6C6C62E7B643E8387193F174D376EA6D671F32C3C820136D84602491C4FBEBF7E802066212BCCDBEF5C1
310
06847474CE77AE3A041F9E33EA3C622E48CE2E5CDF9BB80E66719E10965EB8A5DC8CCE5CE74318F03C978D69AEC350862F5C35EC8641CAF3B2B04309DEA092CACEE8F5E55F8E8831C3AE135324C4852BE27B9C210F95324FB078F0122491976E9E3DDF3313DB64538E8AFB0ED10271CC24700AE30CA8388629BFFD3871C761
310
3056EFC340FDDB59D341B366FDB3C65AEA369784098958FC82A50E99E92096A6FE6CF1F1E8F87C743C9B4D47B393237F74797DB918F9A7D3C9D5C9D5D5F9FCE339B0B7CE736A654A70815902FADBBAA11F8CD59B5A748BC03EAEE39C311C6B20012A2D569720C102B66AC037693FFA4AA2C66B2D61E379A6DE5B161AC3D336
310
95BE59C38068D10541EC7695C4D5B5295FBEFE1B0417438C920B2C815B213968D7C2C3C12BDC70128CCD6818AC77BA20C2C990C49C20EA50B2E688835260AA9A1206668125A39C8303294749A035675EB76D0B3CF36DD7D9C7E5A6A45479861B6AC78AC0FDB0149A33F20FE63BEE9BC8004F206D49983CB35CCA6D81DDF03C
310
18EBC1305097E9917D6980743614A5422362DE7604BD52AEBF5CB8E1A7EBF5F34A8583FD9B173C2F3097CAE8941E355F60C8F6AA50B2DBFA8334A71680300654BB7207CA3740FE33448F1D2BA0374E9E67CF333B5772C4C426E719E8C69938A309FC4D1C5FFFABFBC65D30AE17B7B5D78727B8A982EAECE7F16CCBA0B1B2FC
310
37E00C834730F89C4FEDAB558C28D8F32D610090321287E63004A17DB37E76C325044E08F4B00AD1D0079181DD47B80DC696CC4E2B957B59AF6380A8DD633A4449009BB64860A3474F37903D3889776A6A8AD807EFF1BB98EB7CB1FAB42AF906C5F8D6FAF4026F082312B2E67E865A98B7247AC0DBA79C2720E84BBC574DBC
310
33BB9500B415E60AF8B402413DEC766E6D10C3BA3457E1267863071042E5EA06FD5B22624C2962382FAB7DEBE8A60CB5F6785B33B8E19181787AD431618E1F89AA2AC06976335A8C42DE8F392914886E786324AB83A6D723DDF7E567B0C87A7ECFAC2583D0CB10FD5307AD3D38B42CBB42DA02510BBCDE85F338A7398FD6DB
310
C8443A176A0960A3ED2D3F5A4421D61B25292AE041DAEFAA90921A69A3846C36A580B8BA87C51FCBABA6394CBCA97FEC34FF3BCE3883680BBE8BB8F5BBCE1E11C9508AA30D4AFAB66BEE56D3169A640F698E3714E4228F446E2324A34982D343A03988F8F9BB524F692E04615840BEDA0B7E138D890781C468B3625969B503
310
3411518625A28720A0C8F480ABD38EAE7163281DDEE6B1B6DED734D624FA3F590447504BE62C22508A420E799371DF3B8618D246D7A0DCC117ACADA2ADC5A0259410F1367AC224BD9787A06EC8F7E01EC391A494515EA018CC7A00D917BEA294DAE17D8DE207953FA2B8A4EF652002D34D44282DB3087E84C1C963886BD781
310
E955141AC44DEC933883A20CC9920FD9E4E478F2621F533374436063A30DA110B6A30C153DA8B702A2AE479C1A7C4BBD47A9EB322B2294E5251B6428DEB4EB4D967C57AD8AEC407E55A908656345D8120C03C2649D55AB980DA6AE032BB8910E54DB48A0ACA0E614F646E2F16B6FD2947B37E0D64FDF77830C0ABF1EED3523
310
EAAC82C1F2D82A0CC41392F1BD1BAEF4757409F57782935DAAAF6ACD66050888A9485E726255F47D09E58DADD1DCF01649717763B26E75FDBEF4A0FB118C610DD42EF5C2A5023AC34C225599DCAA1BFA0D41086ED130E34B95530FA1324F125D35227A4DFAD4D92A235A9B66C42BEE31CB33F8B13BC2625A26F80E25E221BA
310
95345A11C5BA95D2CB4885F1AB027EB95975E0819101227D55051E7EEAACB5A357AA5CDA4B44DE97D99A210241B0255A6A74E3152CB51AA9B45C5FD59902EA2E3030ABE2D9AF9345B31DF1EB64915AC3F8A993C5E5F60FB46DF6451AE93C56767DD031A0CE4F8ACA7B1C0374DBA1A65A671193CCADFCD69922088A55941F5C
310
8D5541C310ECE3F83F67EDBE2C68B6EBF07F58D6F65F541C076595D664D5A5DA53B92E9B39ECE4F8FAD2BF5CCC47670BE8CDCE4E4EAF47F3CBE962343BFB383B3D9D1FCFA7E7B59E0CF130A88399CE5DF06C825A35AC9E2C06D095153925099CE61327C510F3259CE907B4CF79860524CF66B33BB14DF901AB1F4D9F53A235
310
C51527F7081AC454405A0731CA58B6C79DDFA03529E1A07DE142D3C87B803F6B95AE0399E7C2855681243116DE1ADA4CAAA1A78943CAD5B9DF1283408658AA52A259543FD7AB1436ADF05F4F199206AC5CAD1E06146E0574BF5A1D0ACD9BE5293E48F08A1D0749B85D9712AA3523CB6EA016466FB353BF918D12F660B77E06
310
D77D5D2CDFD3735A880CFA64F0AA1118AA238978AAFBDD8A31CBD27CF1750C7D3667F9C5296899822E87531A710CC65CAA820AAC08ACC2D22C900453BDFAFDEE2BCFE1134FE6E8AAE8EE2ACFB29CD987399CC712F844E4ACEEE1834F72076503566D75717734F18FEE743BDB76D8A33512D853F5100C54658412A1636C6091
310
2F5A53B67139564AE84C5F2E1C1B3EA10D602CE84577D77CDE72C07BD48714E52BDAC32B395FED688FF554B0060EBDE8F05F504B0304140006080000A3663240000000000000000000000000350000006662782F34353746394542412D433042332D343838422D383730442D4131323033323145313738362F766572746963
310
65732E62696E504B0304140006080800A3663240F270F1330600000004000000360000006662782F34353746394542412D433042332D343838422D383730442D4131323033323145313738362F747269616E676C65732E62696E636660600000504B0304140006080000A36632400000000000000000000000003700000066
310
62782F34353746394542412D433042332D343838422D383730442D4131323033323145313738362F617474726962757465732E62696E504B0304140006080800A3663240D5987DFC8F00000041010000360000006662782F34353746394542412D433042332D343838422D383730442D4131323033323145313738362F6469
310
726563746F72792E786D6C858F410EC2201045AF4266AF15DDB800BA74E7C21B903225242D6328188F2FA5C4183471359997F9FF81E89FF3C41E1816475E02DF1F80A11FC8386F25A438EECEC07A250251FC3803E6F58C12560C4AD840E95E91C151A72936F496F35732D860FE635F62C8F2DA16B505C545B74125BAA2FA9E
310
05D7CC053D063734D5C7665FD55B6B8D15D5E9BFEAFD8490FFA45E504B0304140006080800A366324040AF9B41FB000000A00100003B0000006662782F34353746394542412D433042332D343838422D383730442D4131323033323145313738362F7265736F75726365732F636F72652E786D6C8D504B6E833010BD0A9ABD
310
C1061210328E92901BF4029699102BC146FE543D7E4DA052BBEB6666F43E9AA7C74F5FF32BFB44E7B5353DB09C428646D9519BA98718EEA485EC24B8B336FC924166E48C3DAC30083E391B971D52D6043421A1C68EB883D27B0C90A9573A7AF0EA81B3CC650C49E19FF922D5534E98B33CD14927B80F2E05C8B627EB04E1D0
310
DBE8147A5E6CACE031EA71D7E831FDD4778D0EC4B539348CB28AD0FAC2487D6CCFE432D01B3937D7B6AE073694E58D17AB59F0A0E79F8CCAA10C388228292B096584B51FACEC0E55471B428F1DA5BC58E57F4C7119FF698ADA84AADCE36E360F82A5206F42F062ED2BAD779969AFDD8A6F504B010214000A0000080000A366
310
32403DEE336E79000000790000001B00000000000000000000000000000000006175746F6465736B2D64657369676E2D7061636B6167652E786D6C504B01021400140006080800A3663240D486FD9CA0000000F40000001300000000000000000000000000B20000005B436F6E74656E745F54797065735D2E786D6C504B01
310
021400140006080800A36632409FC151F9E90000007C010000080000000000000000000000000083010000636F72652E786D6C504B01021400140006080800A366324055019EA25F0000007C000000070000000000000000000000000092020000636E782E786D6C504B01021400140006080800A3663240FEF1C275640100
310
00020300000C00000000000000000000000000160300006662782F636F72652E786D6C504B01021400140006080800A3663240F0FBBF277E0000009D0000000B00000000000000000000000000A40400006662782F636E782E786D6C504B01021400140006080800A3663240080BB9552B0100001402000031000000000000
310
000000000000004B0500006662782F34353746394542412D433042332D343838422D383730442D4131323033323145313738362F636F72652E786D6C504B01021400140006080800A3663240C666257854010000330300003000000000000000000000000000C50600006662782F34353746394542412D433042332D343838
310
422D383730442D4131323033323145313738362F636E782E786D6C504B01021400140006080800A3663240110E845059070000941B00003400000000000000000000000000670800006662782F34353746394542412D433042332D343838422D383730442D4131323033323145313738362F6F626A656374732E786D6C504B
310
01021400140006080000A36632400000000000000000000000003500000000000000000000000000121000006662782F34353746394542412D433042332D343838422D383730442D4131323033323145313738362F76657274696365732E62696E504B01021400140006080800A3663240F270F13306000000040000003600
310
000000000000000000000000651000006662782F34353746394542412D433042332D343838422D383730442D4131323033323145313738362F747269616E676C65732E62696E504B01021400140006080000A36632400000000000000000000000003700000000000000000000000000BF1000006662782F34353746394542
310
412D433042332D343838422D383730442D4131323033323145313738362F617474726962757465732E62696E504B01021400140006080800A3663240D5987DFC8F000000410100003600000000000000000000000000141100006662782F34353746394542412D433042332D343838422D383730442D413132303332314531
310
3738362F6469726563746F72792E786D6C504B01021400140006080800A366324040AF9B41FB000000A00100003B00000000000000000000000000F71100006662782F34353746394542412D433042332D343838422D383730442D4131323033323145313738362F7265736F75726365732F636F72652E786D6C504B050600
310
0000000E000E00800400004B1300000000
  0
XRECORD
  5
17
102
{ACAD_REACTORS
330
12
102
}
330
12
100
AcDbXrecord
280
     1
270
     1
271
     1
  0
XRECORD
  5
16
102
{ACAD_REACTORS
330
12
102
}
330
12
100
AcDbXrecord
280
     1
270
     1
271
     1
  0
XRECORD
  5
18
102
{ACAD_REACTORS
330
12
102
}
330
12
100
AcDbXrecord
280
     1
270
     1
271
     1
  0
XRECORD
  5
15
102
{ACAD_REACTORS
330
12
102
}
330
12
100
AcDbXrecord
280
     1
270
     1
271
     1
  0
XRECORD
  5
CAA
102
{ACAD_REACTORS
330
22
102
}
330
22
100
AcDbXrecord
280
     1
102
MATERIAL
148
0.0
149
0.0
149
0.0
 93
        0
 94
      127
282
     0
 72
     0
 77
     0
171
     0
175
     0
179
     0
273
     0
  0
XRECORD
  5
24
102
{ACAD_REACTORS
330
22
102
}
330
22
100
AcDbXrecord
280
     1
270
     1
271
     1
  0
XRECORD
  5
23
102
{ACAD_REACTORS
330
22
102
}
330
22
100
AcDbXrecord
280
     1
270
     1
271
     1
  0
XRECORD
  5
BA
102
{ACAD_REACTORS
330
22
102
}
330
22
100
AcDbXrecord
280
     1
 70
     1
 90
1959938040
 71
     1
  1
007F7033-61AD-4D22-A8C1-5DAE1F34A0AE
311
504B03040A0000080000A36632403DEE336E79000000790000001B0000006175746F6465736B2D64657369676E2D7061636B6167652E786D6C3C3F786D6C2076657273696F6E3D22312E302220656E636F64696E673D227574662D3822203F3E3C666F726D6174733E3C666F726D61743E687474703A2F2F736368656D612E
311
6175746F6465736B2E636F6D2F64657369676E2D7061636B6167652F323030393C2F666F726D61743E3C2F666F726D6174733E504B0304140006080800A3663240D486FD9CA0000000F4000000130000005B436F6E74656E745F54797065735D2E786D6C7D8EC10E82300C865F65E91D8A1E8C310C0EEA1BF002731658846E
311
D98AC1B77784ABF1D8FE5FBFBF75BBCE937A534CCEB38643598122B6FEE978D0B0485F9C41B54DDD7D022595594E1A469170414C76A4D9A4D207E29CF43ECE46F218070CC6BECC4078ACAA135ACF422C856C0E68EA1BF5669944DDD7BCDE7B1F8E415D77AECB980613C2E4AC91FC167A2B244592486606FC29C8FD7F045B9A
311
EF7053A7E60B504B0304140006080800A36632405EB5DEF2EA0000007C01000008000000636F72652E786D6C8D904D6EC3201085AF82668F0D8EFF8589D2A439412F8080B828315806A21CBF3871A476D7D58CDEBC6F66F4D8FE31DDD05D2FDE383B00CD08206DA553C68E03C470C12DA03D678B73E1970D9015931E609581
311
B3717171DE24E96CD03624D53AA5375178AF0320794BCD005E7EEB49642286E4F0D76C16F22A469DD17797E0188D42AF2346A57DE662F402BCAB2BDAD143854F9F871A974D73C6EDA924981C8FE5B96B8A0F4A3A96AF3067C14CEFFB72D1226805BC20B4C08462DA7ED1A2AF763DA931A97B4258BEDAFF407156FF84A2B161
311
576CEFBE300F9CA6479E03CEF2358B549E41A5BAE6C67F00504B0304140006080800A366324055019EA25F0000007C00000007000000636E782E786D6C4DCB3B0E80201045D1AD90E915ED2CF8AC45050C11660C8261F98AB1B07AC9C97D42D718D865D3E909258CFD00CCE24AC6E326A164D74DC0B4128928FF326038472B
311
A13128B1252AC747C6BAB984FC68F0B87FE8960A5C09FE86CFB69FBA01504B0304140006080800A36632405378737C67010000020300000C0000006662782F636F72652E786D6C8D52ED8E8320107C15C27F04ACB51F419A5E7B7D827B01AAD433553008A68F7FEB47D3EBA5692E26486676766747C5EED6D4A8D7AEABACC9
311
308F1846DAE4B6A84C99E1E02F648DD14E0A67ADFF558691518DCEF00063294A67433B43B9355E1B0FA8B1859E41D575DA6394D770C970977FEB46452A78A8E8AE51ABF2AB2A75C423A0A14E8ACE3B3080A621C389E5E57C1374C2A508A12A66B62A605A75A9B4C372932EF986EF97E4F8B94F49B25A9DC8FA9830C20E87E4
311
B459C51F9C6D041DC452F8AAB9BBCB9D565E1758C68CC78471C2D75F3CDE2E175B9612966E191374287F1285B6F8A72854C62FE2D9EE24EBB0E4606424FE6C0B1179D4A91EFC5029E81022BCC6849F8386402064AFCEF57D8F2B40BDCEBD750930850D0FAA5775D03095A1F1117462A1F3D800367BD9277ED3E77D0FF880CA
311
94604D79B89E831FA68B69EA1C45AB1DE9FD0D19EB1A553FCC4D161FE763D04B796E6BEBFEA3A6F3AA740E930E7FAFFC01504B0304140006080800A3663240CC71D29B7D0000009D0000000B0000006662782F636E782E786D6C4DCCD10A83201886E15B91FFDCB57435076AA87421B12C64A6C3E9E8F2ABD1C18E3E78F878
311
79B72E1E7D6DFAB81804D4972B201B9E7174611650F28419A04EF21463FEBB010AC362051C0C92CF2996F749A39D86E2F3AEDE85D789AA3777A39A16134D08BEE9BAC58C528299368D51863E18EDA192BCFA95F63DC27203504B0304140006080800A3663240A5CDC9162901000013020000310000006662782F4145433743
311
4135362D324232322D344231362D383333322D3842433543414333393833452F636F72652E786D6C8D514B6EC32014BC8AC52A5D6003FE94469828B172835E8018E2A2C460F1A972FC42ED48ED2E1B1E9A37336FE0B1C363BE17DFCA796D4D0F708940A1CC68A536530F62B8420A8A0367CEDAF087060A2366D5830C03CE26
311
67E3B241A3354199905063A5DA40E1BD0AA018EFE9D2033F7EA959942286C4F0B77211E34D4CAAC4656A271E673EB814A05887E413F0E379781F8E6D07C98910D89C7007695D13484F433B1C87FA83D66756AD42CE62D472936B99E2E8AB56EE55932CE62CE8F9197F744A0425012708138830C4F413937D5BEF510751B747
311
885599FE4F1417F9A2286A136AB2C55D651E70CCAAB5C199B4F1727F86518FC5BA50E4793BAFC637C0518908A29836AC5A99E9FDC9B26B364B1FAC4BFFBBBB5D1219B7AB6FD77056E515A5F2BBBF54F33AF90F504B0304140006080800A3663240A1D46E1E4D01000033030000300000006662782F41454337434135362D32
311
4232322D344231362D383333322D3842433543414333393833452F636E782E786D6CD593CD6E022114855F85B09F1FD41A63184CBAE81374D12D0357A53230E1A7A96FDF8BA275E3A2CB6EC8E4DCC339375F18BEFB9E2CF982108D7703656D4F0938E5B5718781E6B46F3694EC040FDEA7071B254E4E30D02253C10FC1E7B9
311
4A1AF632DB84AA35EE54C500D1E7A020A25C6E12EB95B41800AEC928C23482D6A0C9DD885F7B08B80A8AE399A42390B7D70FE2C74F5029F2AEA408DE950EC1CB599B1E4C94282B631C68544798642B73F21AE2A9D532C996B5B7AE273BFD269172E156998321A57CA0E5A4A26ED42247DEE150F09802D2ABA6749E810A39CF
311
D62899107277315E3D8267E3D27A55BD06C10774B3F572B5C2B0CB4CF06426A80E154026D0542C7AB6687AD6B0CD3B5B6C5F96DB7EDDF4EB6DDFF3AED8051FBDB7F512C640F03351DE2570890AC6BB327E86AFFA88360159FB70FE034804505BAF74EE19FF994F7779DF882BE05F207E00504B0304140006080800A3663240
311
BA1607FF9B0500007A100000340000006662782F41454337434135362D324232322D344231362D383333322D3842433543414333393833452F6F626A656374732E786D6CAD575D6FA33814FD2B887D2609493AD3AE28A3346947D1A833D54433DA874A910143BD3518D9A693EEAFDF633004324927BB9A9710CCF5F5BDE79E
311
FBE1E0C32EE7CE0B958A89E2DAF54713D7A1452C125664D76EA553EFD2753E84811442F7C45CA72039BD76CDB21B069914556997129A928AEB83D5BB9BBF1C15D382BA4ECC8952D7AE8A9F684E46A4D222A1EA7994104D4659BA1BF9A34670A83693A47C3A505A12490B0D4BB15E408BD318E50F5F27EE380CC6E67B18985F
311
2B353B2D35AEFD199ECF0AA54911FF74D8819A993F5FDD4E2FAEBC8BF97CE6CDDF4D7DEFE6EE66E5F9EF6793E5BBE5F26A717B85839596D0642D913475C38FC046B23818379FC2A062859E4DAD880DD058D2176622E58653C70FC68D4CE79D75F298F9B1280A1AD758018DDA3FAB3AA1252D12C49C5105CB7A084D86AFBEC1
311
B1F77966DEED91FDE5F310E8EFE8296A6D6F9F7D4B45F4375C50E730482A6A18D860691D6DB83AD9231C09C1ED37A69C9C682A19E10E679124F2D50D216A44C260A0C630599A6C301EB821A2D07C1ED20569F46B9E1FB332AD38373476C33A0BB6C815AA556D19FB87CABDF57D6460136265D870691DD2AF2575C3AB862297
311
076C6A8074524E32841C6E9A9DB3E981A34B93A7EB951B7EBA8B761B93BBC70F2FA528A9D4863EA0561BB8F66950B236F96745CE6C700F4CD983F215C87F46AAEF4D41DC24DBCD77737B8A96A450A9903962E34C1C6F829F89E3D7BFE67FEF5F30EE360FA3770A4F04DB40F51BF01CFAD08F650FCE307801E1859C59D73631
311
E1281BF7AC004086240E1758421D4EA39D1BAE51E55095B18BF0D087CB30F7057F83B1558342519FD47B16C0F2A02C9E51A0015BCD4898D190DF1AB88FD34FE5AC3ED88A9D82F7E2B7D075B1DA7CDA54322531BDB739BDA2292B98468BDBF3A66FD000F38147CFF4F58790091CFD19EF4D1FEFDC1EA580B6C1DC009FB535DD
311
BCEC4F1E1C10635F264CB9097E71029C308DB5A7FF9EA998724E0A2AAAF6DC37FB07DA4603B14976C3E4AEC1EC1B0B48D37C39C84134E958B2D280D875ABAE688E4E78F76DFD198C843C1711E17BA1685F7A63C185DC46AFDBA62A1D45FAFB90DA1682B1D102B6D739D2A6BFC57C9BB034AD146AE01158BFAF97FDD099AA80
311
0AD16A6D92650EF7915B445ACEB67AD1AC25412315C596A16D22ED8E1ED0D70F442D016A85A72C5694A75BC679956F53C6D18CB639294FC0F1FFED8FAABCDC925C54853EA17B603A9AC3D0F60179D50FA2E32737DCD44FEF06A537A1C93ECC0361D34A8E603508ED64F2FEEEFD6436F3DEF98B95375F4DA7DEE272E97B17AB
311
C5AD7F379B2F268BDB364E8DF230683B4D3FA1112574B6A092CC86EFDB1AE9636B801BDE13AD1E3F36D9D93EBFAD4718858331F6A05D761B17C90BC63E9AFC5AC15EF2A8A2755E729AD342139342F7E60FFF4A30660C8C69D6D739C9E8195ABE7CDC1C38839533F63D9874A73F0EF6DAD5A549C8A34AF45395470561FC6063
311
D620392A8BCCE2D7C6A47B367DA67D356F3630184C95E02C41194C9C8C8A9C6A14C3337A90CCA902F5FA237D62AF1E67EC7E6906444D224E5B4B9E086664AE9016A05615EBE1BAF307663A33565DBBE8B6A367FCD84AE13AE0CCB58B195DB398AA5184FE6C26A15A39B8D41FE431F79322E318B59B4DDD7BB7CB6033E8C89D
311
C839E393F5ABA9E0D6019491126303E62144A736260C6ADBECF7F83F39DE9AE3108DBF51A53B5FF60B9D33F53148D1C6297B59C00CF36C8FDE2151DF76CB1FD5320344CEBA64BD498246ABA789CCEA8B82B1CF9AB4583D8C31A038EB2F4EC9AB0CB13C5F932729C85C9904078BC00AABB3241A545DFEF9F820052EB2B973C7
311
4081C7A5C87351D89785BD083B9B275C6B934794056AEE23EA713AF1A78FF53DC05E4DB61151744412F58C05C454B20EE241E0C1C8E6B2880ED47CE8E4C6260807DC5CAF1CDBD2E6506A89D2AFAA06164C1C0575903DE62E6972A52F50BE791518D7A2304162880FFF05504B0304140006080000A366324000000000000000
311
0000000000350000006662782F41454337434135362D324232322D344231362D383333322D3842433543414333393833452F76657274696365732E62696E504B0304140006080800A3663240F270F1330600000004000000360000006662782F41454337434135362D324232322D344231362D383333322D38424335434143
311
33393833452F747269616E676C65732E62696E636660600000504B0304140006080000A3663240000000000000000000000000370000006662782F41454337434135362D324232322D344231362D383333322D3842433543414333393833452F617474726962757465732E62696E504B0304140006080800A3663240D5987D
311
FC8F00000041010000360000006662782F41454337434135362D324232322D344231362D383333322D3842433543414333393833452F6469726563746F72792E786D6C858F410EC2201045AF4266AF15DDB800BA74E7C21B903225242D6328188F2FA5C4183471359997F9FF81E89FF3C41E1816475E02DF1F80A11FC8386F
311
25A438EECEC07A250251FC3803E6F58C12560C4AD840E95E91C151A72936F496F35732D860FE635F62C8F2DA16B505C545B74125BAA2FA9E05D7CC053D063734D5C7665FD55B6B8D15D5E9BFEAFD8490FFA45E504B0304140006080800A36632404D1EF06AFD000000A00100003B0000006662782F41454337434135362D32
311
4232322D344231362D383333322D3842433543414333393833452F7265736F75726365732F636F72652E786D6C8D504B6E833010BD0A9ABDC1260402328ED2A439412F609909B1126CE44FD5E3D7042AB5BB6E6646EFA3797AFCF8353DB34F745E5BD303CB296468941DB4197B88E1460E901D0577D6865F32C88C9CB08705
311
06C14767E3BC41CA9A802624D4D80137507A8F0132F54C470F5EDD7192B98C2129FC239FA57AC8117396273AE904F7C1A500D9FA6499201C7A1B9D42CF8B95153C463D6C1A3DA49FFAA6D18168EB3D6BD9A92297F7534DAAA6B992C3A5A2849ECFD5B56DCA37465B5E2C66C1839E7E322A8732E000A2A4AC24941176F86065
311
B7DF75B426B4EE28E5C522FF638AF3F04F53D426ECCA2DEE6AF320580AF222042F96BED27A9599F6D2ADF806504B010214000A0000080000A36632403DEE336E79000000790000001B00000000000000000000000000000000006175746F6465736B2D64657369676E2D7061636B6167652E786D6C504B0102140014000608
311
0800A3663240D486FD9CA0000000F40000001300000000000000000000000000B20000005B436F6E74656E745F54797065735D2E786D6C504B01021400140006080800A36632405EB5DEF2EA0000007C010000080000000000000000000000000083010000636F72652E786D6C504B01021400140006080800A36632405501
311
9EA25F0000007C000000070000000000000000000000000093020000636E782E786D6C504B01021400140006080800A36632405378737C67010000020300000C00000000000000000000000000170300006662782F636F72652E786D6C504B01021400140006080800A3663240CC71D29B7D0000009D0000000B0000000000
311
0000000000000000A80400006662782F636E782E786D6C504B01021400140006080800A3663240A5CDC916290100001302000031000000000000000000000000004E0500006662782F41454337434135362D324232322D344231362D383333322D3842433543414333393833452F636F72652E786D6C504B01021400140006
311
080800A3663240A1D46E1E4D010000330300003000000000000000000000000000C60600006662782F41454337434135362D324232322D344231362D383333322D3842433543414333393833452F636E782E786D6C504B01021400140006080800A3663240BA1607FF9B0500007A1000003400000000000000000000000000
311
610800006662782F41454337434135362D324232322D344231362D383333322D3842433543414333393833452F6F626A656374732E786D6C504B01021400140006080000A366324000000000000000000000000035000000000000000000000000004E0E00006662782F41454337434135362D324232322D344231362D3833
311
33322D3842433543414333393833452F76657274696365732E62696E504B01021400140006080800A3663240F270F13306000000040000003600000000000000000000000000A10E00006662782F41454337434135362D324232322D344231362D383333322D3842433543414333393833452F747269616E676C65732E6269
311
6E504B01021400140006080000A36632400000000000000000000000003700000000000000000000000000FB0E00006662782F41454337434135362D324232322D344231362D383333322D3842433543414333393833452F617474726962757465732E62696E504B01021400140006080800A3663240D5987DFC8F00000041
311
0100003600000000000000000000000000500F00006662782F41454337434135362D324232322D344231362D383333322D3842433543414333393833452F6469726563746F72792E786D6C504B01021400140006080800A36632404D1EF06AFD000000A00100003B00000000000000000000000000331000006662782F4145
311
4337434135362D324232322D344231362D383333322D3842433543414333393833452F7265736F75726365732F636F72652E786D6C504B0506000000000E000E0080040000891100000000
310
504B03040A0000080000A36632403DEE336E79000000790000001B0000006175746F6465736B2D64657369676E2D7061636B6167652E786D6C3C3F786D6C2076657273696F6E3D22312E302220656E636F64696E673D227574662D3822203F3E3C666F726D6174733E3C666F726D61743E687474703A2F2F736368656D612E
310
6175746F6465736B2E636F6D2F64657369676E2D7061636B6167652F323030393C2F666F726D61743E3C2F666F726D6174733E504B0304140006080800A3663240D486FD9CA0000000F4000000130000005B436F6E74656E745F54797065735D2E786D6C7D8EC10E82300C865F65E91D8A1E8C310C0EEA1BF002731658846E
310
D98AC1B77784ABF1D8FE5FBFBF75BBCE937A534CCEB38643598122B6FEE978D0B0485F9C41B54DDD7D022595594E1A469170414C76A4D9A4D207E29CF43ECE46F218070CC6BECC4078ACAA135ACF422C856C0E68EA1BF5669944DDD7BCDE7B1F8E415D77AECB980613C2E4AC91FC167A2B244592486606FC29C8FD7F045B9A
310
EF7053A7E60B504B0304140006080800A36632407685420BEA0000007C01000008000000636F72652E786D6C8D905B6EC3201045B782F8C706FCA86361A228B157D00D20200E4A0C168FAACB2F4E1CA9FDEBD78CEEDC3333BAECF8BD3CC097F6C1383B40526008B4954E193B0F30C52BEA203872E69D8BBF6C1058B1E8016E
310
32E46CF62EADBB249D8DDAC6AC5AA7F42E8A107484403E7233C0206F7A118548313BC2BD5885BC8B5917E4DD653825A3C0EB8851799FB91AED21A767DAE08F11A3AA1E5B544F63834EEDB946074A2F5D3BB597E97062E5067316CDF2BE2FBD1651ABCC6342112688749F84F64DD5E306E1B6C798959BFD0F9456F54F28191B
310
2BBABFFBC202E4243FF21C70566E59E4F20C2AD72D37FE03504B0304140006080800A366324055019EA25F0000007C00000007000000636E782E786D6C4DCB3B0E80201045D1AD90E915ED2CF8AC45050C11660C8261F98AB1B07AC9C97D42D718D865D3E909258CFD00CCE24AC6E326A164D74DC0B4128928FF326038472B
310
A13128B1252AC747C6BAB984FC68F0B87FE8960A5C09FE86CFB69FBA01504B0304140006080800A366324065194DA566010000020300000C0000006662782F636F72652E786D6C8D52ED8E8320107C15C27F04AD7A6D83344D3F9EE05E802AF54C150C82E9E3DFFAD178BD344D6382646667777694EFEE4D8D7A65BBCAE80C
310
8701C348E9DC14952E33ECDD95AC31DA096E8D717FCA30D2B251191E602C78698D6F672837DA29ED00D5A6503328BB4E398CF21A2E19EEF21FD5C8407A0715DD2D68657E93A50AC20068A813BC73160CA069C8706271BDDC399D70C1BDAF8A99AD0A98565D2B65B1880E51C2BE4E8CACE2534AE2F32921FBF410934D141DD7
310
E9393D9E377B4E07B1E0AE6A1EEE72ABA45305E8591811169270FD1D46DB64B5650961E996314E87F227916F8B0F45BED26E15CD7627598745084646E2DFB61091439DECC10F159C0E21C26B4CF8396808044276F2523FF6B801D4ABDC191B035318BF50BDACBD82A90C8D0FA7130B9DC706B0D9CB3ED19B3EEF7BC00794BA
310
046BD2C1F5E2DD309D4F53E7285A6549EFEE481BDBC87A3137595CCE65D04B796E6A633F51D379553A874987BF57FC02504B0304140006080800A36632404F9BB98D7E0000009D0000000B0000006662782F636E782E786D6C4DCCD10A83201886E15B91FFDC55EE6F33506368BB8F581692E9703676F9ABD1C18E3E78F878
310
45FB593C79DBF4723148A84E25101B1E71706192B0E6917220AD1229C6FC770312FAC54AD8199498525C9F070D76EC579F37F52ECC07EAA63BEB1B478A175653AC99A6CDB5E2D494F70E0D2267C640A144F12B6DBB87D517504B0304140006080800A3663240CD948D0F2A01000013020000310000006662782F4339453343
310
4138342D343632352D343532432D393731382D4430464534443434383244442F636F72652E786D6C8D514B6EC32014BC0A62952EB00163D789305115A727E8051C431294182C3E558E5FA81DA9DD65C343F366E60D3CBE7F4C77F0AD9CD7D6749014180265462BB5B9743086336A21D80BEEAC0D7F68109861521DCC3014FC
310
E26C9C5768B4262813126AAC542B3878AF0204E33D5D3AE8C7AB9A8662882131FCAD9887F1365C54418AD44E3CC17D7029005886E4138AC3F6581D3E5A8658436BC46A7A40DB77D2A21E7F1E59CF584BFB9E978B50F018B55CE55AA638FAAC957BD5248B050F7A7AC61F9D1A829250504C28C20491F68BD05D5DED708D70B3
310
C3989799FE4F1467F9A2286A132ABAC65D641E0AC2CBA521B8B4F1747F86518FD9BA00F2BC8D57E31B14B8207553D5F596970B33BD3F59366CB5F4C1BAF4BF9BDB2991ABD5B76182977945A9FCEE2FD5BC4EF103504B0304140006080800A3663240C44C2D9B5401000033030000300000006662782F43394533434138342D
310
343632352D343532432D393731382D4430464534443434383244442F636E782E786D6CBD93CD6EC32010845F0571F76F12CB8A30917AE813F4D02B864D4283C1025C356FDF2521692E3954AA7A41D6EC30B3FA84D9EE6B32E4137CD0CE0EB4296B4AC04AA7B43D0C7489FBA2A764C799772E3ED828B162828126997276F06E
310
99B3A4602F16135135DA9EB2E821B8C54B0828A79BC438290C06802D1614611A412950E46EC4AF3D785C05C5F14CE211C8EBCB3B71E307C81858955238AB520767E9CC4D0F264AA411210C34C8234CA2144B740AC2A954228AB2296F5D4F76FA4922E9C2AD72F19AA4F281A693F2BC51891C598543CE42F4482F9BE27906CA
310
C53C1B2D4544C8D5C578F570B6681BBB75F66A04EFD1BD6ABBBEC7B0CB8CB3A827C80EE941445094B775D316755334FD5BD36E37AB6DBD29EA6E5BD7AC4A76CE46E74CBE8431E0DD4CA4B3116CA4BC61551A3FC3977D44698FAC9D3FFF022402C8AD573AF78CBFE4D374ABF5FA1FF95497F78DB83CFE05FC1B504B03041400
310
06080800A36632409DD6055058070000931B0000340000006662782F43394533434138342D343632352D343532432D393731382D4430464534443434383244442F6F626A656374732E786D6CED59DD6FA33810FF5710F71C0249DADD9E28AB3469ABE8D4DDD5E676750F9190030EF1D518649B7EDC5F7F636308D0D092DBDE
310
DB3E2480B1C733BFF9F4E07F7A4AA9F580B92019BBB43DC7B52DCCA22C262CB9B40BB91B7DB4AD4F81CFB34C36A6D9164329BEB4D5B01DF809CF8ADC0CC578870A2A3BA337577F5922C20CDB5644911097B688F638450E2A64166371EFC4482227D93D399E534E6C934D38CAF71DA239E29849E014C61950B14AA6BCF6A36B
310
8F037FACDE07BEFA37B3A68366CDFA678DB5D46D2E091312B1E8054B1D32D3412C4DBDD9F27A7276313A9BCDA6A3D9F9C41B5DDD5C2D47DE87A9BB385F2C2EE6D717C0DE36CBA89129C6396631E8EFD90E3C7FACDED4A21B048E711D658CE14803095069B1BA040916B055033EB7FDE829891AAFB5848DE7997A6F58680C4F
310
DB54FA660D03A245170431DB551257D7A67CD9F66F105C0C314A2EB0046E85E4A05D030F07AFB003D71F97A381BF3DE882082B45127382A845C996230E4A81A96A4AE0970B0C19E51C1C48594A02ADB9F275DBB6C033DF769D635CEE0A4A9567D88176AC10DC0F4BA13923FF607EE0BE890CF004D21684C98F864BF99C633B
310
B8F0C77A30F0D5653A312F4B20AD1D4589D088946F3B822E94EBAF9676F0C7CDF669ADC2C1F1CD739EE5984B65744A8F9A2F3064735528996DBD419A530B40981254B3F200CA3740FE33448F032BA0374E9E664F33335772C4C42EE329E8C672AD910B7FAEE5E97F75DFB8F3C7F5E2B6F6FAF0043755507DFC793CDB3268AC
310
0CFF0D3803FF010C3EE353F36A1D210AF67C471800A48CC4A2190C4168DF6D9FEC60058113023DAC4234F0406460F7016EFDB12173D04AE55EC6EB18206AF6980E5112C0A62D12D8E8D1D32D640F4EA2839A9A22F6C17BF62EE63A5FAEFF58177C87227C677C7A897784110959F338432DCC5B12DDE3E7C78CC720E84BBCD7
310
4DBC53B39500B415E60AF8A402413D1C766E6D10C1BA2453E1C67F63071042E5EA06FD3B22224C2962382BAA7DEBE8A60CB5F6785333D8C1A484783AE99830C70F445515E03487192D4621EF479CE40A443BB82D25AB83A6D323DDF7D567B0C87A7ECFAC1583D0CB10FD5307AD2338B42CBB42DA00510BBC3D84F328A3190F
310
B7CF6119E96CA825808DB6B7FC681185585F2A4951010FD27E578594A494368CC96E570888AB4758FCB15A34CDC175A6DE99D5FCEF38E30CA22DF82EE2C6EF3A7B842445090E7728EEDBAEB95B4D5B68923DA439DE51908B3C10F91C2219BA314E4E81E624E217EF4A3DA19910846101F9EA28F84D345C070249A9CD8A65A5
310
D50ED044842996889E828022D303AE4E3BBAC68DA074789BC7DA7A5FD35893E8FF64111C412D99B19040290A39E44DC63DE70C62481BDD12E50EBE606D156D2D062DA084889EC3474C92BD3C05F5927C0FEE111C490A1966398AC0AC07907DE12B4AA91DDEB728BA57F9238C0AFA5E062230DD8584D2220DE147189C3C86B8
310
761D985E45A141BC8C7D12A750942159F0219B9C9FB92FF6296B866E086C6CB42314C27698A2BC07F55640D4F58855836FA8F728755BA47988D2AC60830CC59976BDC990EFAA55911DC8AF2A15A16CAC081B82814F98ACB36A15B3C1D475600537D281EA391428CD69790A7B23F178B53769CABD1B70E3A7EFBB410A855F8F
310
F69A117556C160786C1506E211C9686F076B7D1D5D41FD1DE3F890EAAB5AB3590102622A92179C18157D5F4179636A343BB843526C6ECBAC5B5DBFAF1CE87EF8635803B54BBD70A5804E319348552677EA867E4310825B34CAF195CAA9A75099C7B1AE1A11BD217DEA6C9511AD4D53E2E47BCCB2147E6C4358448B186F502C
310
EEC33B49C33551AC1B299D945418BF2AE097DB75071E181920D25755E0E1C7CE5A33BA50E5D25122725FA45B860804C1966849A91B276789D148A5E5FAAACE14507781811915CF7E9D2C9AED885F278BC418C6CF9D2C68B645F4106D1AD93C52667DD229A04E4F8ACA7B9C0274D7A1A65A279132971BF18D2F851013AB203F
310
B818AB624649B08FE3FF9CB4FB9260B95D87FFD392B6F7A2E03829A9B426AB26D591C275D54C61AEFBE1E6833B9D8ECEBDF972345B4E26A3F9C785373A5BCEAFBD9BE96CEECEAF6B34B59F067E1DCB74EA82E732A655C3EAC960004D59915112C3613EB6120C215FC2917E40F79CA75840EE6CF6BA63D3931FB0FAA16C734A
310
B4A5B8E2648FA03F4C056475C0A888647BDCFA0D3A9312CED99736F48C9C7BF83356695B90782E6DE814481261E16CA1CBA4FA799A38645C9DFA0D31C007B14465C47251FD5CAF52D8B4A27F3D6548163072B55A1850B7E5D0FC6A3528346F86A7E824C12B762C24E1765B4828D64A590E03B5307A9B83FA4BD92861F766EB
310
2770DDD7C5F21C3DA785C8A02F06AF1A41497524114F74BB5B3166589A2FBF8EA1CD66ADBE58392D12D0E5704A238EC1980B554F81158155189A399260AA8BDF375F79065F78524B17459B4596A619330F73388EC5F085C85AEFE17B4FBC81AA01ABAEBAD84C5C6FB2D1DD6CD3600FB74860479543305055114A848EB18145
310
BEE84C99BEE55829A1337DB5B44CF83C03A2DA6A5F3477CBAF5B16788FFA8EA27C457B7825E7AB0DEDB19E0AD6C0A1151DFC0B504B0304140006080000A3663240000000000000000000000000350000006662782F43394533434138342D343632352D343532432D393731382D4430464534443434383244442F7665727469
310
6365732E62696E504B0304140006080800A3663240F270F1330600000004000000360000006662782F43394533434138342D343632352D343532432D393731382D4430464534443434383244442F747269616E676C65732E62696E636660600000504B0304140006080000A366324000000000000000000000000037000000
310
6662782F43394533434138342D343632352D343532432D393731382D4430464534443434383244442F617474726962757465732E62696E504B0304140006080800A3663240D5987DFC8F00000041010000360000006662782F43394533434138342D343632352D343532432D393731382D4430464534443434383244442F64
310
69726563746F72792E786D6C858F410EC2201045AF4266AF15DDB800BA74E7C21B903225242D6328188F2FA5C4183471359997F9FF81E89FF3C41E1816475E02DF1F80A11FC8386F25A438EECEC07A250251FC3803E6F58C12560C4AD840E95E91C151A72936F496F35732D860FE635F62C8F2DA16B505C545B74125BAA2FA
310
9E05D7CC053D063734D5C7665FD55B6B8D15D5E9BFEAFD8490FFA45E504B0304140006080800A3663240F2689CACFC000000A00100003B0000006662782F43394533434138342D343632352D343532432D393731382D4430464534443434383244442F7265736F75726365732F636F72652E786D6C8D50596E833010BD0AF2
310
BFC1364B09328EA2104ED00B586642AD041B79A97AFC9A40A5F6AF3F33A3B7689E1E3F7F2DCFEC139CD7D6F488E6046560949DB4997B14C31DB7283B0BEEAC0DBF64283372811E6D30127C7636AE07A4AC096042428D9DE000A5F71050A69EE9E891571FB0C85CC69014FE91AF523DE40C39CD139D7482FBE052806C7FB24D
310
241C781B9D02CF8B9D153C463D1D1A3DA59FFAAEC121C1AEAC266FC388CBEAD6E06ABCD5F8D25C2B7C626C689BB119C6D385179B59F0A0979F8CCA810C30253FA10C138A69FB4E5957971DA931693A4278B1C9FF98E23AFDD314B509253BE2EE368F044D415E84E0C5D6575AAF32D3DEBA15DF504B010214000A0000080000
310
A36632403DEE336E79000000790000001B00000000000000000000000000000000006175746F6465736B2D64657369676E2D7061636B6167652E786D6C504B01021400140006080800A3663240D486FD9CA0000000F40000001300000000000000000000000000B20000005B436F6E74656E745F54797065735D2E786D6C50
310
4B01021400140006080800A36632407685420BEA0000007C010000080000000000000000000000000083010000636F72652E786D6C504B01021400140006080800A366324055019EA25F0000007C000000070000000000000000000000000093020000636E782E786D6C504B01021400140006080800A366324065194DA566
310
010000020300000C00000000000000000000000000170300006662782F636F72652E786D6C504B01021400140006080800A36632404F9BB98D7E0000009D0000000B00000000000000000000000000A70400006662782F636E782E786D6C504B01021400140006080800A3663240CD948D0F2A010000130200003100000000
310
0000000000000000004E0500006662782F43394533434138342D343632352D343532432D393731382D4430464534443434383244442F636F72652E786D6C504B01021400140006080800A3663240C44C2D9B54010000330300003000000000000000000000000000C70600006662782F43394533434138342D343632352D34
310
3532432D393731382D4430464534443434383244442F636E782E786D6C504B01021400140006080800A36632409DD6055058070000931B00003400000000000000000000000000690800006662782F43394533434138342D343632352D343532432D393731382D4430464534443434383244442F6F626A656374732E786D6C
310
504B01021400140006080000A36632400000000000000000000000003500000000000000000000000000131000006662782F43394533434138342D343632352D343532432D393731382D4430464534443434383244442F76657274696365732E62696E504B01021400140006080800A3663240F270F1330600000004000000
310
3600000000000000000000000000661000006662782F43394533434138342D343632352D343532432D393731382D4430464534443434383244442F747269616E676C65732E62696E504B01021400140006080000A36632400000000000000000000000003700000000000000000000000000C01000006662782F4339453343
310
4138342D343632352D343532432D393731382D4430464534443434383244442F617474726962757465732E62696E504B01021400140006080800A3663240D5987DFC8F000000410100003600000000000000000000000000151100006662782F43394533434138342D343632352D343532432D393731382D44304645344434
310
34383244442F6469726563746F72792E786D6C504B01021400140006080800A3663240F2689CACFC000000A00100003B00000000000000000000000000F81100006662782F43394533434138342D343632352D343532432D393731382D4430464534443434383244442F7265736F75726365732F636F72652E786D6C504B05
310
06000000000E000E00800400004D1300000000
  0
XRECORD
  5
27
102
{ACAD_REACTORS
330
22
102
}
330
22
100
AcDbXrecord
280
     1
270
     1
271
     1
  0
XRECORD
  5
26
102
{ACAD_REACTORS
330
22
102
}
330
22
100
AcDbXrecord
280
     1
270
     1
271
     1
  0
XRECORD
  5
28
102
{ACAD_REACTORS
330
22
102
}
330
22
100
AcDbXrecord
280
     1
270
     1
271
     1
  0
XRECORD
  5
25
102
{ACAD_REACTORS
330
22
102
}
330
22
100
AcDbXrecord
280
     1
270
     1
271
     1
  0
XRECORD
  5
CA3
102
{ACAD_REACTORS
330
CA2
102
}
330
CA2
100
AcDbXrecord
280
     1
102
ACAD_ROUNDTRIP_2012_MLEADER_STYLE
298
     1
  0
CELLSTYLEMAP
  5
CA1
102
{ACAD_REACTORS
330
CA0
102
}
330
CA0
100
AcDbCellStyleMap
 90
        3
300
CELLSTYLE
  1
TABLEFORMAT_BEGIN
 90
        5
170
     1
 91
        0
 92
    32768
 62
   257
 93
        1
300
CONTENTFORMAT
  1
CONTENTFORMAT_BEGIN
 90
        0
 91
        0
 92
      512
 93
        0
300

 40
0.0
140
1.0
 94
        5
 62
     0
340
55
144
0.25
309
CONTENTFORMAT_END
171
     0
 94
        0
309
TABLEFORMAT_END
  1
CELLSTYLE_BEGIN
 90
        1
 91
        1
300
_TITLE
309
CELLSTYLE_END
300
CELLSTYLE
  1
TABLEFORMAT_BEGIN
 90
        5
170
     1
 91
        0
 92
        0
 62
   257
 93
        1
300
CONTENTFORMAT
  1
CONTENTFORMAT_BEGIN
 90
        0
 91
        0
 92
      512
 93
        0
300

 40
0.0
140
1.0
 94
        5
 62
     0
340
55
144
0.18
309
CONTENTFORMAT_END
171
     0
 94
        0
309
TABLEFORMAT_END
  1
CELLSTYLE_BEGIN
 90
        2
 91
        1
300
_HEADER
309
CELLSTYLE_END
300
CELLSTYLE
  1
TABLEFORMAT_BEGIN
 90
        5
170
     1
 91
        0
 92
        0
 62
   257
 93
        1
300
CONTENTFORMAT
  1
CONTENTFORMAT_BEGIN
 90
        0
 91
        0
 92
      512
 93
        0
300

 40
0.0
140
1.0
 94
        2
 62
     0
340
55
144
0.18
309
CONTENTFORMAT_END
171
     0
 94
        0
309
TABLEFORMAT_END
  1
CELLSTYLE_BEGIN
 90
        3
 91
        2
300
_DATA
309
CELLSTYLE_END
  0
XRECORD
  5
CDB
102
{ACAD_REACTORS
330
CA0
102
}
330
CA0
100
AcDbXrecord
280
     1
102
ACAD_ROUNDTRIP_PRE2007_TABLESTYLE
 90
      512
 91
        0
  1

 92
      512
 93
        0
  2

 94
      512
 95
        0
  3

  0
XRECORD
  5
CB6
102
{ACAD_REACTORS
330
CB5
102
}
330
CB5
100
AcDbXrecord
280
     1
102
RTVSPropertyOp0
 70
     1
102
RTVSPropertyOp1
 70
     1
102
RTVSPropertyOp2
 70
     1
102
RTVSPropertyOp3
 70
     1
102
RTVSPropertyOp4
 70
     1
102
RTVSPropertyOp5
 70
     1
102
RTVSPropertyOp6
 70
     1
102
RTVSPropertyOp7
 70
     1
102
RTVSPropertyOp8
 70
     1
102
RTVSPropertyOp9
 70
     1
102
RTVSPropertyOp10
 70
     1
102
RTVSPropertyOp11
 70
     1
102
RTVSPropertyOp12
 70
     1
102
RTVSPropertyOp13
 70
     1
102
RTVSPropertyOp14
 70
     1
102
RTVSPropertyOp15
 70
     1
102
RTVSPropertyOp16
 70
     1
102
RTVSPropertyOp17
 70
     1
102
RTVSPropertyOp18
 70
     1
102
RTVSPropertyOp19
 70
     1
102
RTVSPropertyOp20
 70
     1
102
RTVSPropertyOp21
 70
     1
102
RTVSPropertyOp22
 70
     1
102
RTVSPropertyOp23
 70
     1
102
RTVSPropertyOp24
 70
     1
102
RTVSPropertyOp25
 70
     1
102
RTVSPropertyOp26
 70
     1
102
RTVSPropertyOp27
 70
     1
102
RTVSPropertyOp28
 70
     1
102
RTVSPropertyOp29
 70
     1
102
RTVSPropertyOp30
 70
     1
102
RTVSPropertyOp31
 70
     1
102
RTVSPropertyOp32
 70
     1
  0
XRECORD
  5
CB4
102
{ACAD_REACTORS
330
CB3
102
}
330
CB3
100
AcDbXrecord
280
     1
102
RTVSPropertyOp0
 70
     1
102
RTVSPropertyOp1
 70
     1
102
RTVSPropertyOp2
 70
     1
102
RTVSPropertyOp3
 70
     1
102
RTVSPropertyOp4
 70
     1
102
RTVSPropertyOp5
 70
     1
102
RTVSPropertyOp6
 70
     1
102
RTVSPropertyOp7
 70
     1
102
RTVSPropertyOp8
 70
     1
102
RTVSPropertyOp9
 70
     1
102
RTVSPropertyOp10
 70
     1
102
RTVSPropertyOp11
 70
     1
102
RTVSPropertyOp12
 70
     1
102
RTVSPropertyOp13
 70
     1
102
RTVSPropertyOp14
 70
     1
102
RTVSPropertyOp15
 70
     1
102
RTVSPropertyOp16
 70
     1
102
RTVSPropertyOp17
 70
     1
102
RTVSPropertyOp18
 70
     1
102
RTVSPropertyOp19
 70
     1
102
RTVSPropertyOp20
 70
     1
102
RTVSPropertyOp21
 70
     1
102
RTVSPropertyOp22
 70
     1
102
RTVSPropertyOp23
 70
     1
102
RTVSPropertyOp24
 70
     1
102
RTVSPropertyOp25
 70
     1
102
RTVSPropertyOp26
 70
     1
102
RTVSPropertyOp27
 70
     1
102
RTVSPropertyOp28
 70
     1
102
RTVSPropertyOp29
 70
     1
102
RTVSPropertyOp30
 70
     1
102
RTVSPropertyOp31
 70
     1
102
RTVSPropertyOp32
 70
     1
  0
XRECORD
  5
CC2
102
{ACAD_REACTORS
330
CC1
102
}
330
CC1
100
AcDbXrecord
280
     1
102
RTVSPropertyOp0
 70
     1
102
RTVSPropertyOp1
 70
     1
102
RTVSPropertyOp2
 70
     1
102
RTVSPropertyOp3
 70
     1
102
RTVSPropertyOp4
 70
     1
102
RTVSPropertyOp5
 70
     1
102
RTVSPropertyOp6
 70
     1
102
RTVSPropertyOp7
 70
     1
102
RTVSPropertyOp8
 70
     1
102
RTVSPropertyOp9
 70
     1
102
RTVSPropertyOp10
 70
     1
102
RTVSPropertyOp11
 70
     1
102
RTVSPropertyOp12
 70
     1
102
RTVSPropertyOp13
 70
     1
102
RTVSPropertyOp14
 70
     1
102
RTVSPropertyOp15
 70
     1
102
RTVSPropertyOp16
 70
     1
102
RTVSPropertyOp17
 70
     1
102
RTVSPropertyOp18
 70
     1
102
RTVSPropertyOp19
 70
     1
102
RTVSPropertyOp20
 70
     1
102
RTVSPropertyOp21
 70
     1
102
RTVSPropertyOp22
 70
     1
102
RTVSPropertyOp23
 70
     1
102
RTVSPropertyOp24
 70
     1
102
RTVSPropertyOp25
 70
     1
102
RTVSPropertyOp26
 70
     1
102
RTVSPropertyOp27
 70
     1
102
RTVSPropertyOp28
 70
     1
102
RTVSPropertyOp29
 70
     1
102
RTVSPropertyOp30
 70
     1
102
RTVSPropertyOp31
 70
     1
102
RTVSPropertyOp32
 70
     1
  0
XRECORD
  5
CCA
102
{ACAD_REACTORS
330
CC9
102
}
330
CC9
100
AcDbXrecord
280
     1
102
RTVSPropertyOp0
 70
     1
102
RTVSPropertyOp1
 70
     1
102
RTVSPropertyOp2
 70
     1
102
RTVSPropertyOp3
 70
     1
102
RTVSPropertyOp4
 70
     1
102
RTVSPropertyOp5
 70
     1
102
RTVSPropertyOp6
 70
     1
102
RTVSPropertyOp7
 70
     1
102
RTVSPropertyOp8
 70
     1
102
RTVSPropertyOp9
 70
     1
102
RTVSPropertyOp10
 70
     1
102
RTVSPropertyOp11
 70
     1
102
RTVSPropertyOp12
 70
     1
102
RTVSPropertyOp13
 70
     1
102
RTVSPropertyOp14
 70
     1
102
RTVSPropertyOp15
 70
     1
102
RTVSPropertyOp16
 70
     1
102
RTVSPropertyOp17
 70
     1
102
RTVSPropertyOp18
 70
     1
102
RTVSPropertyOp19
 70
     1
102
RTVSPropertyOp20
 70
     1
102
RTVSPropertyOp21
 70
     1
102
RTVSPropertyOp22
 70
     1
102
RTVSPropertyOp23
 70
     1
102
RTVSPropertyOp24
 70
     1
102
RTVSPropertyOp25
 70
     1
102
RTVSPropertyOp26
 70
     1
102
RTVSPropertyOp27
 70
     1
102
RTVSPropertyOp28
 70
     1
102
RTVSPropertyOp29
 70
     1
102
RTVSPropertyOp30
 70
     1
102
RTVSPropertyOp31
 70
     1
102
RTVSPropertyOp32
 70
     1
  0
XRECORD
  5
CBC
102
{ACAD_REACTORS
330
CBB
102
}
330
CBB
100
AcDbXrecord
280
     1
102
RTVSPropertyOp0
 70
     1
102
RTVSPropertyOp1
 70
     1
102
RTVSPropertyOp2
 70
     1
102
RTVSPropertyOp3
 70
     1
102
RTVSPropertyOp4
 70
     1
102
RTVSPropertyOp5
 70
     1
102
RTVSPropertyOp6
 70
     1
102
RTVSPropertyOp7
 70
     1
102
RTVSPropertyOp8
 70
     1
102
RTVSPropertyOp9
 70
     1
102
RTVSPropertyOp10
 70
     1
102
RTVSPropertyOp11
 70
     1
102
RTVSPropertyOp12
 70
     1
102
RTVSPropertyOp13
 70
     1
102
RTVSPropertyOp14
 70
     1
102
RTVSPropertyOp15
 70
     1
102
RTVSPropertyOp16
 70
     1
102
RTVSPropertyOp17
 70
     1
102
RTVSPropertyOp18
 70
     1
102
RTVSPropertyOp19
 70
     1
102
RTVSPropertyOp20
 70
     1
102
RTVSPropertyOp21
 70
     1
102
RTVSPropertyOp22
 70
     1
102
RTVSPropertyOp23
 70
     1
102
RTVSPropertyOp24
 70
     1
102
RTVSPropertyOp25
 70
     1
102
RTVSPropertyOp26
 70
     1
102
RTVSPropertyOp27
 70
     1
102
RTVSPropertyOp28
 70
     1
102
RTVSPropertyOp29
 70
     1
102
RTVSPropertyOp30
 70
     1
102
RTVSPropertyOp31
 70
     1
102
RTVSPropertyOp32
 70
     1
  0
XRECORD
  5
CC0
102
{ACAD_REACTORS
330
CBF
102
}
330
CBF
100
AcDbXrecord
280
     1
102
RTVSPropertyOp0
 70
     1
102
RTVSPropertyOp1
 70
     1
102
RTVSPropertyOp2
 70
     1
102
RTVSPropertyOp3
 70
     1
102
RTVSPropertyOp4
 70
     1
102
RTVSPropertyOp5
 70
     1
102
RTVSPropertyOp6
 70
     1
102
RTVSPropertyOp7
 70
     1
102
RTVSPropertyOp8
 70
     1
102
RTVSPropertyOp9
 70
     1
102
RTVSPropertyOp10
 70
     1
102
RTVSPropertyOp11
 70
     1
102
RTVSPropertyOp12
 70
     1
102
RTVSPropertyOp13
 70
     1
102
RTVSPropertyOp14
 70
     1
102
RTVSPropertyOp15
 70
     1
102
RTVSPropertyOp16
 70
     1
102
RTVSPropertyOp17
 70
     1
102
RTVSPropertyOp18
 70
     1
102
RTVSPropertyOp19
 70
     1
102
RTVSPropertyOp20
 70
     1
102
RTVSPropertyOp21
 70
     1
102
RTVSPropertyOp22
 70
     1
102
RTVSPropertyOp23
 70
     1
102
RTVSPropertyOp24
 70
     1
102
RTVSPropertyOp25
 70
     1
102
RTVSPropertyOp26
 70
     1
102
RTVSPropertyOp27
 70
     1
102
RTVSPropertyOp28
 70
     1
102
RTVSPropertyOp29
 70
     1
102
RTVSPropertyOp30
 70
     1
102
RTVSPropertyOp31
 70
     1
102
RTVSPropertyOp32
 70
     1
  0
XRECORD
  5
CDA
102
{ACAD_REACTORS
330
CD9
102
}
330
CD9
100
AcDbXrecord
280
     1
102
RTVSPropertyOp0
 70
     0
102
RTVSPropertyOp1
 70
     0
102
RTVSPropertyOp2
 70
     0
102
RTVSPropertyOp3
 70
     0
102
RTVSPropertyOp4
 70
     0
102
RTVSPropertyOp5
 70
     0
102
RTVSPropertyOp6
 70
     0
102
RTVSPropertyOp7
 70
     0
102
RTVSPropertyOp8
 70
     0
102
RTVSPropertyOp9
 70
     0
102
RTVSPropertyOp10
 70
     0
102
RTVSPropertyOp11
 70
     0
102
RTVSPropertyOp12
 70
     0
102
RTVSPropertyOp13
 70
     0
102
RTVSPropertyOp14
 70
     2
102
RTVSPropertyOp15
 70
     0
102
RTVSPropertyOp16
 70
     0
102
RTVSPropertyOp17
 70
     0
102
RTVSPropertyOp18
 70
     0
102
RTVSPropertyOp19
 70
     0
102
RTVSPropertyOp20
 70
     0
102
RTVSPropertyOp21
 70
     0
102
RTVSPropertyOp22
 70
     0
102
RTVSPropertyOp23
 70
     0
102
RTVSPropertyOp24
 70
     0
102
RTVSPropertyOp25
 70
     0
102
RTVSPropertyOp26
 70
     0
102
RTVSPropertyOp27
 70
     0
102
RTVSPropertyOp28
 70
     1
102
RTVSPropertyOp29
 70
     1
102
RTVSPropertyOp30
 70
     1
102
RTVSPropertyOp31
 70
     1
102
RTVSPropertyOp32
 70
     1
  0
XRECORD
  5
CC8
102
{ACAD_REACTORS
330
CC7
102
}
330
CC7
100
AcDbXrecord
280
     1
102
RTVSPropertyOp0
 70
     1
102
RTVSPropertyOp1
 70
     1
102
RTVSPropertyOp2
 70
     1
102
RTVSPropertyOp3
 70
     1
102
RTVSPropertyOp4
 70
     1
102
RTVSPropertyOp5
 70
     1
102
RTVSPropertyOp6
 70
     1
102
RTVSPropertyOp7
 70
     1
102
RTVSPropertyOp8
 70
     1
102
RTVSPropertyOp9
 70
     1
102
RTVSPropertyOp10
 70
     1
102
RTVSPropertyOp11
 70
     1
102
RTVSPropertyOp12
 70
     1
102
RTVSPropertyOp13
 70
     1
102
RTVSPropertyOp14
 70
     1
102
RTVSPropertyOp15
 70
     1
102
RTVSPropertyOp16
 70
     1
102
RTVSPropertyOp17
 70
     1
102
RTVSPropertyOp18
 70
     1
102
RTVSPropertyOp19
 70
     1
102
RTVSPropertyOp20
 70
     1
102
RTVSPropertyOp21
 70
     1
102
RTVSPropertyOp22
 70
     1
102
RTVSPropertyOp23
 70
     1
102
RTVSPropertyOp24
 70
     1
102
RTVSPropertyOp25
 70
     1
102
RTVSPropertyOp26
 70
     1
102
RTVSPropertyOp27
 70
     1
102
RTVSPropertyOp28
 70
     1
102
RTVSPropertyOp29
 70
     1
102
RTVSPropertyOp30
 70
     1
102
RTVSPropertyOp31
 70
     1
102
RTVSPropertyOp32
 70
     1
  0
XRECORD
  5
CAC
102
{ACAD_REACTORS
330
CAB
102
}
330
CAB
100
AcDbXrecord
280
     1
102
RTVSPropertyOp0
 70
     1
102
RTVSPropertyOp1
 70
     1
102
RTVSPropertyOp2
 70
     1
102
RTVSPropertyOp3
 70
     1
102
RTVSPropertyOp4
 70
     1
102
RTVSPropertyOp5
 70
     1
102
RTVSPropertyOp6
 70
     1
102
RTVSPropertyOp7
 70
     1
102
RTVSPropertyOp8
 70
     1
102
RTVSPropertyOp9
 70
     1
102
RTVSPropertyOp10
 70
     1
102
RTVSPropertyOp11
 70
     1
102
RTVSPropertyOp12
 70
     1
102
RTVSPropertyOp13
 70
     1
102
RTVSPropertyOp14
 70
     1
102
RTVSPropertyOp15
 70
     1
102
RTVSPropertyOp16
 70
     1
102
RTVSPropertyOp17
 70
     1
102
RTVSPropertyOp18
 70
     1
102
RTVSPropertyOp19
 70
     1
102
RTVSPropertyOp20
 70
     1
102
RTVSPropertyOp21
 70
     1
102
RTVSPropertyOp22
 70
     1
102
RTVSPropertyOp23
 70
     1
102
RTVSPropertyOp24
 70
     1
102
RTVSPropertyOp25
 70
     1
102
RTVSPropertyOp26
 70
     1
102
RTVSPropertyOp27
 70
     1
102
RTVSPropertyOp28
 70
     1
102
RTVSPropertyOp29
 70
     1
102
RTVSPropertyOp30
 70
     1
102
RTVSPropertyOp31
 70
     1
102
RTVSPropertyOp32
 70
     1
  0
XRECORD
  5
CAE
102
{ACAD_REACTORS
330
CAD
102
}
330
CAD
100
AcDbXrecord
280
     1
102
RTVSPropertyOp0
 70
     1
102
RTVSPropertyOp1
 70
     1
102
RTVSPropertyOp2
 70
     1
102
RTVSPropertyOp3
 70
     1
102
RTVSPropertyOp4
 70
     1
102
RTVSPropertyOp5
 70
     1
102
RTVSPropertyOp6
 70
     1
102
RTVSPropertyOp7
 70
     1
102
RTVSPropertyOp8
 70
     1
102
RTVSPropertyOp9
 70
     1
102
RTVSPropertyOp10
 70
     1
102
RTVSPropertyOp11
 70
     1
102
RTVSPropertyOp12
 70
     1
102
RTVSPropertyOp13
 70
     1
102
RTVSPropertyOp14
 70
     1
102
RTVSPropertyOp15
 70
     1
102
RTVSPropertyOp16
 70
     1
102
RTVSPropertyOp17
 70
     1
102
RTVSPropertyOp18
 70
     1
102
RTVSPropertyOp19
 70
     1
102
RTVSPropertyOp20
 70
     1
102
RTVSPropertyOp21
 70
     1
102
RTVSPropertyOp22
 70
     1
102
RTVSPropertyOp23
 70
     1
102
RTVSPropertyOp24
 70
     1
102
RTVSPropertyOp25
 70
     1
102
RTVSPropertyOp26
 70
     1
102
RTVSPropertyOp27
 70
     1
102
RTVSPropertyOp28
 70
     1
102
RTVSPropertyOp29
 70
     1
102
RTVSPropertyOp30
 70
     1
102
RTVSPropertyOp31
 70
     1
102
RTVSPropertyOp32
 70
     1
  0
XRECORD
  5
CB0
102
{ACAD_REACTORS
330
CAF
102
}
330
CAF
100
AcDbXrecord
280
     1
102
RTVSPropertyOp0
 70
     1
102
RTVSPropertyOp1
 70
     1
102
RTVSPropertyOp2
 70
     1
102
RTVSPropertyOp3
 70
     1
102
RTVSPropertyOp4
 70
     1
102
RTVSPropertyOp5
 70
     1
102
RTVSPropertyOp6
 70
     1
102
RTVSPropertyOp7
 70
     1
102
RTVSPropertyOp8
 70
     1
102
RTVSPropertyOp9
 70
     1
102
RTVSPropertyOp10
 70
     1
102
RTVSPropertyOp11
 70
     1
102
RTVSPropertyOp12
 70
     1
102
RTVSPropertyOp13
 70
     1
102
RTVSPropertyOp14
 70
     1
102
RTVSPropertyOp15
 70
     1
102
RTVSPropertyOp16
 70
     1
102
RTVSPropertyOp17
 70
     1
102
RTVSPropertyOp18
 70
     1
102
RTVSPropertyOp19
 70
     1
102
RTVSPropertyOp20
 70
     1
102
RTVSPropertyOp21
 70
     1
102
RTVSPropertyOp22
 70
     1
102
RTVSPropertyOp23
 70
     1
102
RTVSPropertyOp24
 70
     1
102
RTVSPropertyOp25
 70
     1
102
RTVSPropertyOp26
 70
     1
102
RTVSPropertyOp27
 70
     1
102
RTVSPropertyOp28
 70
     1
102
RTVSPropertyOp29
 70
     1
102
RTVSPropertyOp30
 70
     1
102
RTVSPropertyOp31
 70
     1
102
RTVSPropertyOp32
 70
     1
  0
XRECORD
  5
CB2
102
{ACAD_REACTORS
330
CB1
102
}
330
CB1
100
AcDbXrecord
280
     1
102
RTVSPropertyOp0
 70
     1
102
RTVSPropertyOp1
 70
     1
102
RTVSPropertyOp2
 70
     1
102
RTVSPropertyOp3
 70
     1
102
RTVSPropertyOp4
 70
     1
102
RTVSPropertyOp5
 70
     1
102
RTVSPropertyOp6
 70
     1
102
RTVSPropertyOp7
 70
     1
102
RTVSPropertyOp8
 70
     1
102
RTVSPropertyOp9
 70
     1
102
RTVSPropertyOp10
 70
     1
102
RTVSPropertyOp11
 70
     1
102
RTVSPropertyOp12
 70
     1
102
RTVSPropertyOp13
 70
     1
102
RTVSPropertyOp14
 70
     1
102
RTVSPropertyOp15
 70
     1
102
RTVSPropertyOp16
 70
     1
102
RTVSPropertyOp17
 70
     1
102
RTVSPropertyOp18
 70
     1
102
RTVSPropertyOp19
 70
     1
102
RTVSPropertyOp20
 70
     1
102
RTVSPropertyOp21
 70
     1
102
RTVSPropertyOp22
 70
     1
102
RTVSPropertyOp23
 70
     1
102
RTVSPropertyOp24
 70
     1
102
RTVSPropertyOp25
 70
     1
102
RTVSPropertyOp26
 70
     1
102
RTVSPropertyOp27
 70
     1
102
RTVSPropertyOp28
 70
     1
102
RTVSPropertyOp29
 70
     1
102
RTVSPropertyOp30
 70
     1
102
RTVSPropertyOp31
 70
     1
102
RTVSPropertyOp32
 70
     1
  0
XRECORD
  5
CBA
102
{ACAD_REACTORS
330
CB9
102
}
330
CB9
100
AcDbXrecord
280
     1
102
RTVSPropertyOp0
 70
     1
102
RTVSPropertyOp1
 70
     1
102
RTVSPropertyOp2
 70
     1
102
RTVSPropertyOp3
 70
     1
102
RTVSPropertyOp4
 70
     1
102
RTVSPropertyOp5
 70
     1
102
RTVSPropertyOp6
 70
     1
102
RTVSPropertyOp7
 70
     1
102
RTVSPropertyOp8
 70
     1
102
RTVSPropertyOp9
 70
     1
102
RTVSPropertyOp10
 70
     1
102
RTVSPropertyOp11
 70
     1
102
RTVSPropertyOp12
 70
     1
102
RTVSPropertyOp13
 70
     1
102
RTVSPropertyOp14
 70
     1
102
RTVSPropertyOp15
 70
     1
102
RTVSPropertyOp16
 70
     1
102
RTVSPropertyOp17
 70
     1
102
RTVSPropertyOp18
 70
     1
102
RTVSPropertyOp19
 70
     1
102
RTVSPropertyOp20
 70
     1
102
RTVSPropertyOp21
 70
     1
102
RTVSPropertyOp22
 70
     1
102
RTVSPropertyOp23
 70
     1
102
RTVSPropertyOp24
 70
     1
102
RTVSPropertyOp25
 70
     1
102
RTVSPropertyOp26
 70
     1
102
RTVSPropertyOp27
 70
     1
102
RTVSPropertyOp28
 70
     1
102
RTVSPropertyOp29
 70
     1
102
RTVSPropertyOp30
 70
     1
102
RTVSPropertyOp31
 70
     1
102
RTVSPropertyOp32
 70
     1
  0
XRECORD
  5
CD6
102
{ACAD_REACTORS
330
CD5
102
}
330
CD5
100
AcDbXrecord
280
     1
102
RTVSPropertyOp0
 70
     0
102
RTVSPropertyOp1
 70
     0
102
RTVSPropertyOp2
 70
     0
102
RTVSPropertyOp3
 70
     0
102
RTVSPropertyOp4
 70
     0
102
RTVSPropertyOp5
 70
     0
102
RTVSPropertyOp6
 70
     0
102
RTVSPropertyOp7
 70
     0
102
RTVSPropertyOp8
 70
     0
102
RTVSPropertyOp9
 70
     0
102
RTVSPropertyOp10
 70
     0
102
RTVSPropertyOp11
 70
     0
102
RTVSPropertyOp12
 70
     0
102
RTVSPropertyOp13
 70
     0
102
RTVSPropertyOp14
 70
     2
102
RTVSPropertyOp15
 70
     0
102
RTVSPropertyOp16
 70
     0
102
RTVSPropertyOp17
 70
     0
102
RTVSPropertyOp18
 70
     0
102
RTVSPropertyOp19
 70
     0
102
RTVSPropertyOp20
 70
     0
102
RTVSPropertyOp21
 70
     0
102
RTVSPropertyOp22
 70
     0
102
RTVSPropertyOp23
 70
     0
102
RTVSPropertyOp24
 70
     0
102
RTVSPropertyOp25
 70
     0
102
RTVSPropertyOp26
 70
     0
102
RTVSPropertyOp27
 70
     0
102
RTVSPropertyOp28
 70
     1
102
RTVSPropertyOp29
 70
     1
102
RTVSPropertyOp30
 70
     1
102
RTVSPropertyOp31
 70
     1
102
RTVSPropertyOp32
 70
     1
  0
XRECORD
  5
CC6
102
{ACAD_REACTORS
330
CC5
102
}
330
CC5
100
AcDbXrecord
280
     1
102
RTVSPropertyOp0
 70
     1
102
RTVSPropertyOp1
 70
     1
102
RTVSPropertyOp2
 70
     1
102
RTVSPropertyOp3
 70
     1
102
RTVSPropertyOp4
 70
     1
102
RTVSPropertyOp5
 70
     1
102
RTVSPropertyOp6
 70
     1
102
RTVSPropertyOp7
 70
     1
102
RTVSPropertyOp8
 70
     1
102
RTVSPropertyOp9
 70
     1
102
RTVSPropertyOp10
 70
     1
102
RTVSPropertyOp11
 70
     1
102
RTVSPropertyOp12
 70
     1
102
RTVSPropertyOp13
 70
     1
102
RTVSPropertyOp14
 70
     1
102
RTVSPropertyOp15
 70
     1
102
RTVSPropertyOp16
 70
     1
102
RTVSPropertyOp17
 70
     1
102
RTVSPropertyOp18
 70
     1
102
RTVSPropertyOp19
 70
     1
102
RTVSPropertyOp20
 70
     1
102
RTVSPropertyOp21
 70
     1
102
RTVSPropertyOp22
 70
     1
102
RTVSPropertyOp23
 70
     1
102
RTVSPropertyOp24
 70
     1
102
RTVSPropertyOp25
 70
     1
102
RTVSPropertyOp26
 70
     1
102
RTVSPropertyOp27
 70
     1
102
RTVSPropertyOp28
 70
     1
102
RTVSPropertyOp29
 70
     1
102
RTVSPropertyOp30
 70
     1
102
RTVSPropertyOp31
 70
     1
102
RTVSPropertyOp32
 70
     1
  0
XRECORD
  5
CD8
102
{ACAD_REACTORS
330
CD7
102
}
330
CD7
100
AcDbXrecord
280
     1
102
RTVSPropertyOp0
 70
     0
102
RTVSPropertyOp1
 70
     0
102
RTVSPropertyOp2
 70
     0
102
RTVSPropertyOp3
 70
     0
102
RTVSPropertyOp4
 70
     0
102
RTVSPropertyOp5
 70
     0
102
RTVSPropertyOp6
 70
     0
102
RTVSPropertyOp7
 70
     0
102
RTVSPropertyOp8
 70
     0
102
RTVSPropertyOp9
 70
     0
102
RTVSPropertyOp10
 70
     0
102
RTVSPropertyOp11
 70
     0
102
RTVSPropertyOp12
 70
     0
102
RTVSPropertyOp13
 70
     0
102
RTVSPropertyOp14
 70
     2
102
RTVSPropertyOp15
 70
     0
102
RTVSPropertyOp16
 70
     0
102
RTVSPropertyOp17
 70
     0
102
RTVSPropertyOp18
 70
     0
102
RTVSPropertyOp19
 70
     0
102
RTVSPropertyOp20
 70
     0
102
RTVSPropertyOp21
 70
     0
102
RTVSPropertyOp22
 70
     0
102
RTVSPropertyOp23
 70
     0
102
RTVSPropertyOp24
 70
     0
102
RTVSPropertyOp25
 70
     0
102
RTVSPropertyOp26
 70
     0
102
RTVSPropertyOp27
 70
     0
102
RTVSPropertyOp28
 70
     1
102
RTVSPropertyOp29
 70
     1
102
RTVSPropertyOp30
 70
     1
102
RTVSPropertyOp31
 70
     1
102
RTVSPropertyOp32
 70
     1
  0
XRECORD
  5
CBE
102
{ACAD_REACTORS
330
CBD
102
}
330
CBD
100
AcDbXrecord
280
     1
102
RTVSPropertyOp0
 70
     1
102
RTVSPropertyOp1
 70
     1
102
RTVSPropertyOp2
 70
     1
102
RTVSPropertyOp3
 70
     1
102
RTVSPropertyOp4
 70
     1
102
RTVSPropertyOp5
 70
     1
102
RTVSPropertyOp6
 70
     1
102
RTVSPropertyOp7
 70
     1
102
RTVSPropertyOp8
 70
     1
102
RTVSPropertyOp9
 70
     1
102
RTVSPropertyOp10
 70
     1
102
RTVSPropertyOp11
 70
     1
102
RTVSPropertyOp12
 70
     1
102
RTVSPropertyOp13
 70
     1
102
RTVSPropertyOp14
 70
     1
102
RTVSPropertyOp15
 70
     1
102
RTVSPropertyOp16
 70
     1
102
RTVSPropertyOp17
 70
     1
102
RTVSPropertyOp18
 70
     1
102
RTVSPropertyOp19
 70
     1
102
RTVSPropertyOp20
 70
     1
102
RTVSPropertyOp21
 70
     1
102
RTVSPropertyOp22
 70
     1
102
RTVSPropertyOp23
 70
     1
102
RTVSPropertyOp24
 70
     1
102
RTVSPropertyOp25
 70
     1
102
RTVSPropertyOp26
 70
     1
102
RTVSPropertyOp27
 70
     1
102
RTVSPropertyOp28
 70
     1
102
RTVSPropertyOp29
 70
     1
102
RTVSPropertyOp30
 70
     1
102
RTVSPropertyOp31
 70
     1
102
RTVSPropertyOp32
 70
     1
  0
XRECORD
  5
CD4
102
{ACAD_REACTORS
330
CD3
102
}
330
CD3
100
AcDbXrecord
280
     1
102
RTVSPropertyOp0
 70
     1
102
RTVSPropertyOp1
 70
     1
102
RTVSPropertyOp2
 70
     1
102
RTVSPropertyOp3
 70
     1
102
RTVSPropertyOp4
 70
     1
102
RTVSPropertyOp5
 70
     1
102
RTVSPropertyOp6
 70
     1
102
RTVSPropertyOp7
 70
     1
102
RTVSPropertyOp8
 70
     1
102
RTVSPropertyOp9
 70
     1
102
RTVSPropertyOp10
 70
     1
102
RTVSPropertyOp11
 70
     1
102
RTVSPropertyOp12
 70
     1
102
RTVSPropertyOp13
 70
     1
102
RTVSPropertyOp14
 70
     1
102
RTVSPropertyOp15
 70
     1
102
RTVSPropertyOp16
 70
     1
102
RTVSPropertyOp17
 70
     1
102
RTVSPropertyOp18
 70
     1
102
RTVSPropertyOp19
 70
     1
102
RTVSPropertyOp20
 70
     1
102
RTVSPropertyOp21
 70
     1
102
RTVSPropertyOp22
 70
     1
102
RTVSPropertyOp23
 70
     1
102
RTVSPropertyOp24
 70
     1
102
RTVSPropertyOp25
 70
     1
102
RTVSPropertyOp26
 70
     1
102
RTVSPropertyOp27
 70
     1
102
RTVSPropertyOp28
 70
     1
102
RTVSPropertyOp29
 70
     1
102
RTVSPropertyOp30
 70
     1
102
RTVSPropertyOp31
 70
     1
102
RTVSPropertyOp32
 70
     1
  0
XRECORD
  5
CD2
102
{ACAD_REACTORS
330
CD1
102
}
330
CD1
100
AcDbXrecord
280
     1
102
RTVSPropertyOp0
 70
     1
102
RTVSPropertyOp1
 70
     1
102
RTVSPropertyOp2
 70
     1
102
RTVSPropertyOp3
 70
     1
102
RTVSPropertyOp4
 70
     1
102
RTVSPropertyOp5
 70
     1
102
RTVSPropertyOp6
 70
     1
102
RTVSPropertyOp7
 70
     1
102
RTVSPropertyOp8
 70
     1
102
RTVSPropertyOp9
 70
     1
102
RTVSPropertyOp10
 70
     1
102
RTVSPropertyOp11
 70
     1
102
RTVSPropertyOp12
 70
     1
102
RTVSPropertyOp13
 70
     1
102
RTVSPropertyOp14
 70
     1
102
RTVSPropertyOp15
 70
     1
102
RTVSPropertyOp16
 70
     1
102
RTVSPropertyOp17
 70
     1
102
RTVSPropertyOp18
 70
     1
102
RTVSPropertyOp19
 70
     1
102
RTVSPropertyOp20
 70
     1
102
RTVSPropertyOp21
 70
     1
102
RTVSPropertyOp22
 70
     1
102
RTVSPropertyOp23
 70
     1
102
RTVSPropertyOp24
 70
     1
102
RTVSPropertyOp25
 70
     1
102
RTVSPropertyOp26
 70
     1
102
RTVSPropertyOp27
 70
     1
102
RTVSPropertyOp28
 70
     1
102
RTVSPropertyOp29
 70
     1
102
RTVSPropertyOp30
 70
     1
102
RTVSPropertyOp31
 70
     1
102
RTVSPropertyOp32
 70
     1
  0
XRECORD
  5
CCC
102
{ACAD_REACTORS
330
CCB
102
}
330
CCB
100
AcDbXrecord
280
     1
102
RTVSPropertyOp0
 70
     1
102
RTVSPropertyOp1
 70
     1
102
RTVSPropertyOp2
 70
     1
102
RTVSPropertyOp3
 70
     1
102
RTVSPropertyOp4
 70
     1
102
RTVSPropertyOp5
 70
     1
102
RTVSPropertyOp6
 70
     1
102
RTVSPropertyOp7
 70
     1
102
RTVSPropertyOp8
 70
     1
102
RTVSPropertyOp9
 70
     1
102
RTVSPropertyOp10
 70
     1
102
RTVSPropertyOp11
 70
     1
102
RTVSPropertyOp12
 70
     1
102
RTVSPropertyOp13
 70
     1
102
RTVSPropertyOp14
 70
     1
102
RTVSPropertyOp15
 70
     1
102
RTVSPropertyOp16
 70
     1
102
RTVSPropertyOp17
 70
     1
102
RTVSPropertyOp18
 70
     1
102
RTVSPropertyOp19
 70
     1
102
RTVSPropertyOp20
 70
     1
102
RTVSPropertyOp21
 70
     1
102
RTVSPropertyOp22
 70
     1
102
RTVSPropertyOp23
 70
     1
102
RTVSPropertyOp24
 70
     1
102
RTVSPropertyOp25
 70
     1
102
RTVSPropertyOp26
 70
     1
102
RTVSPropertyOp27
 70
     1
102
RTVSPropertyOp28
 70
     1
102
RTVSPropertyOp29
 70
     1
102
RTVSPropertyOp30
 70
     1
102
RTVSPropertyOp31
 70
     1
102
RTVSPropertyOp32
 70
     1
  0
XRECORD
  5
CCE
102
{ACAD_REACTORS
330
CCD
102
}
330
CCD
100
AcDbXrecord
280
     1
102
RTVSPropertyOp0
 70
     1
102
RTVSPropertyOp1
 70
     1
102
RTVSPropertyOp2
 70
     1
102
RTVSPropertyOp3
 70
     1
102
RTVSPropertyOp4
 70
     1
102
RTVSPropertyOp5
 70
     1
102
RTVSPropertyOp6
 70
     1
102
RTVSPropertyOp7
 70
     1
102
RTVSPropertyOp8
 70
     1
102
RTVSPropertyOp9
 70
     1
102
RTVSPropertyOp10
 70
     1
102
RTVSPropertyOp11
 70
     1
102
RTVSPropertyOp12
 70
     1
102
RTVSPropertyOp13
 70
     1
102
RTVSPropertyOp14
 70
     1
102
RTVSPropertyOp15
 70
     1
102
RTVSPropertyOp16
 70
     1
102
RTVSPropertyOp17
 70
     1
102
RTVSPropertyOp18
 70
     1
102
RTVSPropertyOp19
 70
     1
102
RTVSPropertyOp20
 70
     1
102
RTVSPropertyOp21
 70
     1
102
RTVSPropertyOp22
 70
     1
102
RTVSPropertyOp23
 70
     1
102
RTVSPropertyOp24
 70
     1
102
RTVSPropertyOp25
 70
     1
102
RTVSPropertyOp26
 70
     1
102
RTVSPropertyOp27
 70
     1
102
RTVSPropertyOp28
 70
     1
102
RTVSPropertyOp29
 70
     1
102
RTVSPropertyOp30
 70
     1
102
RTVSPropertyOp31
 70
     1
102
RTVSPropertyOp32
 70
     1
  0
XRECORD
  5
CC4
102
{ACAD_REACTORS
330
CC3
102
}
330
CC3
100
AcDbXrecord
280
     1
102
RTVSPropertyOp0
 70
     1
102
RTVSPropertyOp1
 70
     1
102
RTVSPropertyOp2
 70
     1
102
RTVSPropertyOp3
 70
     1
102
RTVSPropertyOp4
 70
     1
102
RTVSPropertyOp5
 70
     1
102
RTVSPropertyOp6
 70
     1
102
RTVSPropertyOp7
 70
     1
102
RTVSPropertyOp8
 70
     1
102
RTVSPropertyOp9
 70
     1
102
RTVSPropertyOp10
 70
     1
102
RTVSPropertyOp11
 70
     1
102
RTVSPropertyOp12
 70
     1
102
RTVSPropertyOp13
 70
     1
102
RTVSPropertyOp14
 70
     1
102
RTVSPropertyOp15
 70
     1
102
RTVSPropertyOp16
 70
     1
102
RTVSPropertyOp17
 70
     1
102
RTVSPropertyOp18
 70
     1
102
RTVSPropertyOp19
 70
     1
102
RTVSPropertyOp20
 70
     1
102
RTVSPropertyOp21
 70
     1
102
RTVSPropertyOp22
 70
     1
102
RTVSPropertyOp23
 70
     1
102
RTVSPropertyOp24
 70
     1
102
RTVSPropertyOp25
 70
     1
102
RTVSPropertyOp26
 70
     1
102
RTVSPropertyOp27
 70
     1
102
RTVSPropertyOp28
 70
     1
102
RTVSPropertyOp29
 70
     1
102
RTVSPropertyOp30
 70
     1
102
RTVSPropertyOp31
 70
     1
102
RTVSPropertyOp32
 70
     1
  0
XRECORD
  5
CB8
102
{ACAD_REACTORS
330
CB7
102
}
330
CB7
100
AcDbXrecord
280
     1
102
RTVSPropertyOp0
 70
     1
102
RTVSPropertyOp1
 70
     1
102
RTVSPropertyOp2
 70
     1
102
RTVSPropertyOp3
 70
     1
102
RTVSPropertyOp4
 70
     1
102
RTVSPropertyOp5
 70
     1
102
RTVSPropertyOp6
 70
     1
102
RTVSPropertyOp7
 70
     1
102
RTVSPropertyOp8
 70
     1
102
RTVSPropertyOp9
 70
     1
102
RTVSPropertyOp10
 70
     1
102
RTVSPropertyOp11
 70
     1
102
RTVSPropertyOp12
 70
     1
102
RTVSPropertyOp13
 70
     1
102
RTVSPropertyOp14
 70
     1
102
RTVSPropertyOp15
 70
     1
102
RTVSPropertyOp16
 70
     1
102
RTVSPropertyOp17
 70
     1
102
RTVSPropertyOp18
 70
     1
102
RTVSPropertyOp19
 70
     1
102
RTVSPropertyOp20
 70
     1
102
RTVSPropertyOp21
 70
     1
102
RTVSPropertyOp22
 70
     1
102
RTVSPropertyOp23
 70
     1
102
RTVSPropertyOp24
 70
     1
102
RTVSPropertyOp25
 70
     1
102
RTVSPropertyOp26
 70
     1
102
RTVSPropertyOp27
 70
     1
102
RTVSPropertyOp28
 70
     1
102
RTVSPropertyOp29
 70
     1
102
RTVSPropertyOp30
 70
     1
102
RTVSPropertyOp31
 70
     1
102
RTVSPropertyOp32
 70
     1
  0
XRECORD
  5
CD0
102
{ACAD_REACTORS
330
CCF
102
}
330
CCF
100
AcDbXrecord
280
     1
102
RTVSPropertyOp0
 70
     1
102
RTVSPropertyOp1
 70
     1
102
RTVSPropertyOp2
 70
     1
102
RTVSPropertyOp3
 70
     1
102
RTVSPropertyOp4
 70
     1
102
RTVSPropertyOp5
 70
     1
102
RTVSPropertyOp6
 70
     1
102
RTVSPropertyOp7
 70
     1
102
RTVSPropertyOp8
 70
     1
102
RTVSPropertyOp9
 70
     1
102
RTVSPropertyOp10
 70
     1
102
RTVSPropertyOp11
 70
     1
102
RTVSPropertyOp12
 70
     1
102
RTVSPropertyOp13
 70
     1
102
RTVSPropertyOp14
 70
     1
102
RTVSPropertyOp15
 70
     1
102
RTVSPropertyOp16
 70
     1
102
RTVSPropertyOp17
 70
     1
102
RTVSPropertyOp18
 70
     1
102
RTVSPropertyOp19
 70
     1
102
RTVSPropertyOp20
 70
     1
102
RTVSPropertyOp21
 70
     1
102
RTVSPropertyOp22
 70
     1
102
RTVSPropertyOp23
 70
     1
102
RTVSPropertyOp24
 70
     1
102
RTVSPropertyOp25
 70
     1
102
RTVSPropertyOp26
 70
     1
102
RTVSPropertyOp27
 70
     1
102
RTVSPropertyOp28
 70
     1
102
RTVSPropertyOp29
 70
     1
102
RTVSPropertyOp30
 70
     1
102
RTVSPropertyOp31
 70
     1
102
RTVSPropertyOp32
 70
     1
  0
ENDSEC
  0
EOF
