  0
SECTION
  2
HEADER
  9
$ACADVER
  1
AC1018
  9
$ACADMAINTVER
 70
   104
  9
$DWGCODEPAGE
  3
ANSI_1252
  9
$AUTHOR
  1
PS
  9
$REVISIONNUMBER
  1
-
  9
$CUSTOMPROPERTYTAG
  1
Manager
  9
$CUSTOMPROPERTY
  1

  9
$CUSTOMPROPERTYTAG
  1
Company
  9
$CUSTOMPROPERTY
  1

  9
$CUSTOMPROPERTYTAG
  1
Category
  9
$CUSTOMPROPERTY
  1

  9
$CUSTOMPROPERTYTAG
  1
Part Number
  9
$CUSTOMPROPERTY
  1
NP1612PP-S
  9
$CUSTOMPROPERTYTAG
  1
Description
  9
$CUSTOMPROPERTY
  1

  9
$CUSTOMPROPERTYTAG
  1
Project
  9
$CUSTOMPROPERTY
  1

  9
$CUSTOMPROPERTYTAG
  1
Designer
  9
$CUSTOMPROPERTY
  1
PS
  9
$CUSTOMPROPERTYTAG
  1
Engineer
  9
$CUSTOMPROPERTY
  1

  9
$CUSTOMPROPERTYTAG
  1
Authority
  9
$CUSTOMPROPERTY
  1

  9
$CUSTOMPROPERTYTAG
  1
Cost Center
  9
$CUSTOMPROPERTY
  1

  9
$CUSTOMPROPERTYTAG
  1
Vendor
  9
$CUSTOMPROPERTY
  1

  9
$CUSTOMPROPERTYTAG
  1
User Status
  9
$CUSTOMPROPERTY
  1

  9
$CUSTOMPROPERTYTAG
  1
Design Status
  9
$CUSTOMPROPERTY
  1
WorkInProgress
  9
$CUSTOMPROPERTYTAG
  1
Checked by
  9
$CUSTOMPROPERTY
  1
NJ
  9
$CUSTOMPROPERTYTAG
  1
Date Checked
  9
$CUSTOMPROPERTY
  1
07/02/2013
  9
$CUSTOMPROPERTYTAG
  1
Engr Approved by
  9
$CUSTOMPROPERTY
  1

  9
$CUSTOMPROPERTYTAG
  1
Date Eng Approved
  9
$CUSTOMPROPERTY
  1
07/02/2013
  9
$CUSTOMPROPERTYTAG
  1
Mfg Approved by
  9
$CUSTOMPROPERTY
  1

  9
$CUSTOMPROPERTYTAG
  1
DWG. NO
  9
$CUSTOMPROPERTY
  1

  9
$CUSTOMPROPERTYTAG
  1
NUMBER OF SHEETS
  9
$CUSTOMPROPERTY
  1
1
  9
$CUSTOMPROPERTYTAG
  1
DRAWING #
  9
$CUSTOMPROPERTY
  1
1
  9
$INSBASE
 10
0.0
 20
0.0
 30
0.0
  9
$EXTMIN
 10
0.0
 20
0.0
 30
0.0
  9
$EXTMAX
 10
51.0
 20
33.0
 30
0.0
  9
$LIMMIN
 10
0.0
 20
0.0
  9
$LIMMAX
 10
51.0
 20
33.0
  9
$ORTHOMODE
 70
     0
  9
$REGENMODE
 70
     1
  9
$FILLMODE
 70
     1
  9
$QTEXTMODE
 70
     0
  9
$MIRRTEXT
 70
     0
  9
$LTSCALE
 40
3.0
  9
$ATTMODE
 70
     1
  9
$TEXTSIZE
 40
0.2
  9
$TRACEWID
 40
0.05
  9
$TEXTSTYLE
  7
Standard
  9
$CLAYER
  8
0
  9
$CELTYPE
  6
ByLayer
  9
$CECOLOR
 62
   256
  9
$CELTSCALE
 40
1.0
  9
$DISPSILH
 70
     0
  9
$DIMSCALE
 40
1.0
  9
$DIMASZ
 40
0.0708661417322835
  9
$DIMEXO
 40
0.0625
  9
$DIMDLI
 40
0.38
  9
$DIMRND
 40
0.0
  9
$DIMDLE
 40
0.0
  9
$DIMEXE
 40
0.18
  9
$DIMTP
 40
0.0
  9
$DIMTM
 40
0.0
  9
$DIMTXT
 40
0.0708661417322835
  9
$DIMCEN
 40
0.09
  9
$DIMTSZ
 40
0.0
  9
$DIMTOL
 70
     0
  9
$DIMLIM
 70
     0
  9
$DIMTIH
 70
     1
  9
$DIMTOH
 70
     1
  9
$DIMSE1
 70
     0
  9
$DIMSE2
 70
     0
  9
$DIMTAD
 70
     0
  9
$DIMZIN
 70
     0
  9
$DIMBLK
  1

  9
$DIMASO
 70
     1
  9
$DIMSHO
 70
     1
  9
$DIMPOST
  1

  9
$DIMAPOST
  1

  9
$DIMALT
 70
     0
  9
$DIMALTD
 70
     2
  9
$DIMALTF
 40
25.4
  9
$DIMLFAC
 40
1.0
  9
$DIMTOFL
 70
     0
  9
$DIMTVP
 40
0.0
  9
$DIMTIX
 70
     0
  9
$DIMSOXD
 70
     0
  9
$DIMSAH
 70
     0
  9
$DIMBLK1
  1

  9
$DIMBLK2
  1

  9
$DIMSTYLE
  2
STANDARD
  9
$DIMCLRD
 70
     0
  9
$DIMCLRE
 70
     0
  9
$DIMCLRT
 70
     0
  9
$DIMTFAC
 40
1.0
  9
$DIMGAP
 40
0.09
  9
$DIMJUST
 70
     0
  9
$DIMSD1
 70
     0
  9
$DIMSD2
 70
     0
  9
$DIMTOLJ
 70
     1
  9
$DIMTZIN
 70
     0
  9
$DIMALTZ
 70
     0
  9
$DIMALTTZ
 70
     0
  9
$DIMUPT
 70
     0
  9
$DIMDEC
 70
     4
  9
$DIMTDEC
 70
     4
  9
$DIMALTU
 70
     2
  9
$DIMALTTD
 70
     2
  9
$DIMTXSTY
  7
Standard
  9
$DIMAUNIT
 70
     0
  9
$DIMADEC
 70
     0
  9
$DIMALTRND
 40
0.0
  9
$DIMAZIN
 70
     0
  9
$DIMDSEP
 70
    46
  9
$DIMATFIT
 70
     3
  9
$DIMFRAC
 70
     0
  9
$DIMLDRBLK
  1

  9
$DIMLUNIT
 70
     2
  9
$DIMLWD
 70
    -2
  9
$DIMLWE
 70
    -2
  9
$DIMTMOVE
 70
     0
  9
$LUNITS
 70
     2
  9
$LUPREC
 70
     4
  9
$SKETCHINC
 40
0.1
  9
$FILLETRAD
 40
0.0
  9
$AUNITS
 70
     0
  9
$AUPREC
 70
     0
  9
$MENU
  1
.
  9
$ELEVATION
 40
0.0
  9
$PELEVATION
 40
0.0
  9
$THICKNESS
 40
0.0
  9
$LIMCHECK
 70
     0
  9
$CHAMFERA
 40
0.0
  9
$CHAMFERB
 40
0.0
  9
$CHAMFERC
 40
0.0
  9
$CHAMFERD
 40
0.0
  9
$SKPOLY
 70
     0
  9
$TDCREATE
 40
2456479.522434757
  9
$TDUCREATE
 40
2456479.293268090
  9
$TDUPDATE
 40
2456479.522436783
  9
$TDUUPDATE
 40
2456479.293270116
  9
$TDINDWG
 40
0.0000670602
  9
$TDUSRTIMER
 40
0.0000670602
  9
$USRTIMER
 70
     1
  9
$ANGBASE
 50
0.0
  9
$ANGDIR
 70
     0
  9
$PDMODE
 70
     0
  9
$PDSIZE
 40
0.0
  9
$PLINEWID
 40
0.0
  9
$SPLFRAME
 70
     0
  9
$SPLINETYPE
 70
     6
  9
$SPLINESEGS
 70
     8
  9
$HANDSEED
  5
E26
  9
$SURFTAB1
 70
     6
  9
$SURFTAB2
 70
     6
  9
$SURFTYPE
 70
     6
  9
$SURFU
 70
     6
  9
$SURFV
 70
     6
  9
$UCSBASE
  2

  9
$UCSNAME
  2

  9
$UCSORG
 10
0.0
 20
0.0
 30
0.0
  9
$UCSXDIR
 10
1.0
 20
0.0
 30
0.0
  9
$UCSYDIR
 10
0.0
 20
1.0
 30
0.0
  9
$UCSORTHOREF
  2

  9
$UCSORTHOVIEW
 70
     0
  9
$UCSORGTOP
 10
0.0
 20
0.0
 30
0.0
  9
$UCSORGBOTTOM
 10
0.0
 20
0.0
 30
0.0
  9
$UCSORGLEFT
 10
0.0
 20
0.0
 30
0.0
  9
$UCSORGRIGHT
 10
0.0
 20
0.0
 30
0.0
  9
$UCSORGFRONT
 10
0.0
 20
0.0
 30
0.0
  9
$UCSORGBACK
 10
0.0
 20
0.0
 30
0.0
  9
$PUCSBASE
  2

  9
$PUCSNAME
  2

  9
$PUCSORG
 10
0.0
 20
0.0
 30
0.0
  9
$PUCSXDIR
 10
1.0
 20
0.0
 30
0.0
  9
$PUCSYDIR
 10
0.0
 20
1.0
 30
0.0
  9
$PUCSORTHOREF
  2

  9
$PUCSORTHOVIEW
 70
     0
  9
$PUCSORGTOP
 10
0.0
 20
0.0
 30
0.0
  9
$PUCSORGBOTTOM
 10
0.0
 20
0.0
 30
0.0
  9
$PUCSORGLEFT
 10
0.0
 20
0.0
 30
0.0
  9
$PUCSORGRIGHT
 10
0.0
 20
0.0
 30
0.0
  9
$PUCSORGFRONT
 10
0.0
 20
0.0
 30
0.0
  9
$PUCSORGBACK
 10
0.0
 20
0.0
 30
0.0
  9
$USERI1
 70
     0
  9
$USERI2
 70
     0
  9
$USERI3
 70
     0
  9
$USERI4
 70
     0
  9
$USERI5
 70
     0
  9
$USERR1
 40
0.0
  9
$USERR2
 40
0.0
  9
$USERR3
 40
0.0
  9
$USERR4
 40
0.0
  9
$USERR5
 40
0.0
  9
$WORLDVIEW
 70
     1
  9
$SHADEDGE
 70
     3
  9
$SHADEDIF
 70
    70
  9
$TILEMODE
 70
     1
  9
$MAXACTVP
 70
    64
  9
$PINSBASE
 10
0.0
 20
0.0
 30
0.0
  9
$PLIMCHECK
 70
     0
  9
$PEXTMIN
 10
0.0
 20
0.0
 30
0.0
  9
$PEXTMAX
 10
51.0
 20
33.0
 30
0.0
  9
$PLIMMIN
 10
0.0
 20
0.0
  9
$PLIMMAX
 10
51.0
 20
33.0
  9
$UNITMODE
 70
     0
  9
$VISRETAIN
 70
     1
  9
$PLINEGEN
 70
     0
  9
$PSLTSCALE
 70
     1
  9
$TREEDEPTH
 70
  3020
  9
$CMLSTYLE
  2
Standard
  9
$CMLJUST
 70
     0
  9
$CMLSCALE
 40
1.0
  9
$PROXYGRAPHICS
 70
     1
  9
$MEASUREMENT
 70
     0
  9
$CELWEIGHT
370
    -1
  9
$ENDCAPS
280
     0
  9
$JOINSTYLE
280
     0
  9
$LWDISPLAY
290
     0
  9
$INSUNITS
 70
     1
  9
$HYPERLINKBASE
  1

  9
$STYLESHEET
  1

  9
$XEDIT
290
     1
  9
$CEPSNTYPE
380
     0
  9
$PSTYLEMODE
290
     1
  9
$FINGERPRINTGUID
  2
{223BEA3A-B491-46F9-9788-2859DCE7E72F}
  9
$VERSIONGUID
  2
{AA0DA38A-EE9E-4C94-B277-43437BEDA7F2}
  9
$EXTNAMES
290
     1
  9
$PSVPSCALE
 40
0.0
  9
$OLESTARTUP
290
     0
  9
$SORTENTS
280
   127
  9
$INDEXCTL
280
     0
  9
$HIDETEXT
280
     1
  9
$XCLIPFRAME
290
     0
  9
$HALOGAP
280
     0
  9
$OBSCOLOR
 70
   257
  9
$OBSLTYPE
280
     0
  9
$INTERSECTIONDISPLAY
280
     0
  9
$INTERSECTIONCOLOR
 70
   257
  9
$DIMASSOC
280
     1
  9
$PROJECTNAME
  1

  0
ENDSEC
  0
SECTION
  2
CLASSES
  0
CLASS
  1
ACDBDICTIONARYWDFLT
  2
AcDbDictionaryWithDefault
  3
ObjectDBX Classes
 90
        0
 91
        1
280
     0
281
     0
  0
CLASS
  1
MATERIAL
  2
AcDbMaterial
  3
ObjectDBX Classes
 90
     1153
 91
        3
280
     0
281
     0
  0
CLASS
  1
VISUALSTYLE
  2
AcDbVisualStyle
  3
ObjectDBX Classes
 90
     4095
 91
       24
280
     0
281
     0
  0
CLASS
  1
SCALE
  2
AcDbScale
  3
ObjectDBX Classes
 90
     1153
 91
       17
280
     0
281
     0
  0
CLASS
  1
TABLESTYLE
  2
AcDbTableStyle
  3
ObjectDBX Classes
 90
     4095
 91
        1
280
     0
281
     0
  0
CLASS
  1
MLEADERSTYLE
  2
AcDbMLeaderStyle
  3
ACDB_MLEADERSTYLE_CLASS
 90
     4095
 91
        1
280
     0
281
     0
  0
CLASS
  1
DICTIONARYVAR
  2
AcDbDictionaryVar
  3
ObjectDBX Classes
 90
        0
 91
        8
280
     0
281
     0
  0
CLASS
  1
CELLSTYLEMAP
  2
AcDbCellStyleMap
  3
ObjectDBX Classes
 90
     1152
 91
        1
280
     0
281
     0
  0
ENDSEC
  0
SECTION
  2
TABLES
  0
TABLE
  2
VPORT
  5
8
330
0
100
AcDbSymbolTable
 70
     1
  0
VPORT
  5
57
330
8
100
AcDbSymbolTableRecord
100
AcDbViewportTableRecord
  2
*Active
 70
     0
 10
0.0
 20
0.0
 11
1.0
 21
1.0
 12
25.5
 22
16.5
 13
0.0
 23
0.0
 14
1.0
 24
1.0
 15
0.0
 25
0.0
 16
0.0
 26
0.0
 36
1.0
 17
0.0
 27
0.0
 37
0.0
 40
33.0
 41
1.545454545454545
 42
50.0
 43
0.0
 44
0.0
 50
0.0
 51
0.0
 71
     0
 72
   100
 73
     1
 74
     1
 75
     0
 76
     0
 77
     0
 78
     0
281
     0
 65
     1
110
0.0
120
0.0
130
0.0
111
1.0
121
0.0
131
0.0
112
0.0
122
1.0
132
0.0
 79
     0
146
0.0
  0
ENDTAB
  0
TABLE
  2
LTYPE
  5
5
330
0
100
AcDbSymbolTable
 70
    59
  0
LTYPE
  5
5B
330
5
100
AcDbSymbolTableRecord
100
AcDbLinetypeTableRecord
  2
ByBlock
 70
     0
  3

 72
    65
 73
     0
 40
0.0
  0
LTYPE
  5
5C
330
5
100
AcDbSymbolTableRecord
100
AcDbLinetypeTableRecord
  2
ByLayer
 70
     0
  3

 72
    65
 73
     0
 40
0.0
  0
LTYPE
  5
5D
330
5
100
AcDbSymbolTableRecord
100
AcDbLinetypeTableRecord
  2
Continuous
 70
     0
  3
Solid line
 72
    65
 73
     0
 40
0.0
  0
LTYPE
  5
7C
330
5
100
AcDbSymbolTableRecord
100
AcDbLinetypeTableRecord
  2
BY_STANDARD
 70
     0
  3
By Standard ____________    ____    ____   _
 72
    65
 73
     6
 40
1.240299999999999
 49
0.6614
 74
     0
 49
-0.0827
 74
     0
 49
0.1654
 74
     0
 49
-0.0827
 74
     0
 49
0.1654
 74
     0
 49
-0.0827
 74
     0
  0
LTYPE
  5
7D
330
5
100
AcDbSymbolTableRecord
100
AcDbLinetypeTableRecord
  2
CHAIN
 70
     0
  3
Chain ____ _ ____ _ ____ _ ____ _ ____ _ ____
 72
    65
 73
     4
 40
0.7087
 49
0.4724000000000001
 74
     0
 49
-0.0591
 74
     0
 49
0.1181
 74
     0
 49
-0.0591
 74
     0
  0
LTYPE
  5
7E
330
5
100
AcDbSymbolTableRecord
100
AcDbLinetypeTableRecord
  2
DASH_DOT
 70
     0
  3
Dash dot __ . __ . __ . __ . __ . __ . __ . __
 72
    65
 73
     4
 40
0.37
 49
0.24
 74
     0
 49
-0.06
 74
     0
 49
0.01
 74
     0
 49
-0.06
 74
     0
  0
LTYPE
  5
7F
330
5
100
AcDbSymbolTableRecord
100
AcDbLinetypeTableRecord
  2
DOUBLE_DASH_DOT
 70
     0
  3
Double-Dash Dot __ __ . __ __ . __ __ . __ _
 72
    65
 73
     6
 40
0.4398
 49
0.24
 74
     0
 49
-0.06
 74
     0
 49
0.0098
 74
     0
 49
-0.06
 74
     0
 49
0.01
 74
     0
 49
-0.06
 74
     0
  0
LTYPE
  5
80
330
5
100
AcDbSymbolTableRecord
100
AcDbLinetypeTableRecord
  2
DASH_TRIPLE_DOT
 70
     0
  3
Dash Triple-Dot _ . . . _ . . . _ . . . _
 72
    65
 73
     8
 40
0.51
 49
0.24
 74
     0
 49
-0.06
 74
     0
 49
0.01
 74
     0
 49
-0.06
 74
     0
 49
0.01
 74
     0
 49
-0.06
 74
     0
 49
0.01
 74
     0
 49
-0.06
 74
     0
  0
LTYPE
  5
81
330
5
100
AcDbSymbolTableRecord
100
AcDbLinetypeTableRecord
  2
DASHED
 70
     0
  3
Dashed __ __ __ __ __ __ __ __ __ __ __ __ __ _
 72
    65
 73
     2
 40
0.2067
 49
0.1654
 74
     0
 49
-0.0413
 74
     0
  0
LTYPE
  5
82
330
5
100
AcDbSymbolTableRecord
100
AcDbLinetypeTableRecord
  2
DASH_DOUBLE_DOT
 70
     0
  3
Dash Double-Dot __ . . __ . . __ . . __ . .
 72
    65
 73
     6
 40
0.4398
 49
0.24
 74
     0
 49
-0.06
 74
     0
 49
0.0098
 74
     0
 49
-0.06
 74
     0
 49
0.01
 74
     0
 49
-0.06
 74
     0
  0
LTYPE
  5
83
330
5
100
AcDbSymbolTableRecord
100
AcDbLinetypeTableRecord
  2
DASHED_SPACE
 70
     0
  3
Dashed Space __ __ __ __ __ __ __ __ __ __ __ _
 72
    65
 73
     2
 40
0.2067
 49
0.1654
 74
     0
 49
-0.0413
 74
     0
  0
LTYPE
  5
84
330
5
100
AcDbSymbolTableRecord
100
AcDbLinetypeTableRecord
  2
DOTTED
 70
     0
  3
Dotted . . . . . . . . . . . . . . . . . . . . 
 72
    65
 73
     2
 40
0.0482
 49
0.0069
 74
     0
 49
-0.0413
 74
     0
  0
LTYPE
  5
85
330
5
100
AcDbSymbolTableRecord
100
AcDbLinetypeTableRecord
  2
DOUBLE_DASH_CHAIN
 70
     0
  3
Double-Dash Chain ______  __  __  ______  __  _
 72
    65
 73
     6
 40
1.240299999999999
 49
0.6614
 74
     0
 49
-0.0827
 74
     0
 49
0.1654
 74
     0
 49
-0.0827
 74
     0
 49
0.1654
 74
     0
 49
-0.0827
 74
     0
  0
LTYPE
  5
87
330
5
100
AcDbSymbolTableRecord
100
AcDbLinetypeTableRecord
  2
DOUBLE_DASH_DOUBLE_DOT
 70
     0
  3
Double-Dash Double-dot _ _ . . _ _ . . _
 72
    65
 73
     8
 40
0.7400000000000001
 49
0.24
 74
     0
 49
-0.06
 74
     0
 49
0.24
 74
     0
 49
-0.06
 74
     0
 49
0.01
 74
     0
 49
-0.06
 74
     0
 49
0.01
 74
     0
 49
-0.06
 74
     0
  0
LTYPE
  5
88
330
5
100
AcDbSymbolTableRecord
100
AcDbLinetypeTableRecord
  2
DOUBLE_DASH_TRIPLE_DOT
 70
     0
  3
Double Dash Triple Dot __ __ . . . __ __ . .
 72
    65
 73
    10
 40
0.8100000000000001
 49
0.24
 74
     0
 49
-0.06
 74
     0
 49
0.24
 74
     0
 49
-0.06
 74
     0
 49
0.01
 74
     0
 49
-0.06
 74
     0
 49
0.01
 74
     0
 49
-0.06
 74
     0
 49
0.01
 74
     0
 49
-0.06
 74
     0
  0
LTYPE
  5
89
330
5
100
AcDbSymbolTableRecord
100
AcDbLinetypeTableRecord
  2
LONG_DASH_DOTTED
 70
     0
  3
Long Dash Dotted ____ . ____ . ____ . ____ . _
 72
    65
 73
     4
 40
0.3543
 49
0.2362
 74
     0
 49
-0.0295
 74
     0
 49
0.0591
 74
     0
 49
-0.0295
 74
     0
  0
LTYPE
  5
8A
330
5
100
AcDbSymbolTableRecord
100
AcDbLinetypeTableRecord
  2
LONG_DASH_DOUBLE_DOT
 70
     0
  3
Long Dash Double Dot ________  .  .  ________  
 72
    65
 73
     6
 40
0.6799999999999999
 49
0.48
 74
     0
 49
-0.06
 74
     0
 49
0.01
 74
     0
 49
-0.06
 74
     0
 49
0.01
 74
     0
 49
-0.06
 74
     0
  0
LTYPE
  5
8B
330
5
100
AcDbSymbolTableRecord
100
AcDbLinetypeTableRecord
  2
LONG_DASH_TRIPLE_DOT
 70
     0
  3
Long Dash Triple Dot ____ ... ____ ... ____
 72
    65
 73
     8
 40
0.3689
 49
0.2362
 74
     0
 49
-0.0295
 74
     0
 49
0.0049
 74
     0
 49
-0.0295
 74
     0
 49
0.0049
 74
     0
 49
-0.0295
 74
     0
 49
0.0049
 74
     0
 49
-0.0295
 74
     0
  0
LTYPE
  5
8C
330
5
100
AcDbSymbolTableRecord
100
AcDbLinetypeTableRecord
  2
BORDER
 70
     0
  3
Border __ __ . __ __ . __ __ . __ __ . __ __ .
 72
    65
 73
     6
 40
1.75
 49
0.5
 74
     0
 49
-0.25
 74
     0
 49
0.5
 74
     0
 49
-0.25
 74
     0
 49
0.0
 74
     0
 49
-0.25
 74
     0
  0
LTYPE
  5
8D
330
5
100
AcDbSymbolTableRecord
100
AcDbLinetypeTableRecord
  2
BORDER2
 70
     0
  3
Border (.5x) __.__.__.__.__.__.__.__.__.__.__.
 72
    65
 73
     6
 40
0.875
 49
0.25
 74
     0
 49
-0.125
 74
     0
 49
0.25
 74
     0
 49
-0.125
 74
     0
 49
0.0
 74
     0
 49
-0.125
 74
     0
  0
LTYPE
  5
8E
330
5
100
AcDbSymbolTableRecord
100
AcDbLinetypeTableRecord
  2
BORDERX2
 70
     0
  3
Border (2x) ____  ____  .  ____  ____  .  ___
 72
    65
 73
     6
 40
3.5
 49
1.0
 74
     0
 49
-0.5
 74
     0
 49
1.0
 74
     0
 49
-0.5
 74
     0
 49
0.0
 74
     0
 49
-0.5
 74
     0
  0
LTYPE
  5
8F
330
5
100
AcDbSymbolTableRecord
100
AcDbLinetypeTableRecord
  2
CENTER
 70
     0
  3
Center ____ _ ____ _ ____ _ ____ _ ____ _ ____
 72
    65
 73
     4
 40
2.0
 49
1.25
 74
     0
 49
-0.25
 74
     0
 49
0.25
 74
     0
 49
-0.25
 74
     0
  0
LTYPE
  5
90
330
5
100
AcDbSymbolTableRecord
100
AcDbLinetypeTableRecord
  2
CENTER2
 70
     0
  3
Center (.5x) ___ _ ___ _ ___ _ ___ _ ___ _ ___
 72
    65
 73
     4
 40
1.125
 49
0.75
 74
     0
 49
-0.125
 74
     0
 49
0.125
 74
     0
 49
-0.125
 74
     0
  0
LTYPE
  5
91
330
5
100
AcDbSymbolTableRecord
100
AcDbLinetypeTableRecord
  2
CENTERX2
 70
     0
  3
Center (2x) ________  __  ________  __  _____
 72
    65
 73
     4
 40
4.0
 49
2.5
 74
     0
 49
-0.5
 74
     0
 49
0.5
 74
     0
 49
-0.5
 74
     0
  0
LTYPE
  5
92
330
5
100
AcDbSymbolTableRecord
100
AcDbLinetypeTableRecord
  2
DASHDOT2
 70
     0
  3
Dash dot (.5x) _._._._._._._._._._._._._._._.
 72
    65
 73
     4
 40
0.5
 49
0.25
 74
     0
 49
-0.125
 74
     0
 49
0.0
 74
     0
 49
-0.125
 74
     0
  0
LTYPE
  5
93
330
5
100
AcDbSymbolTableRecord
100
AcDbLinetypeTableRecord
  2
DASHDOTX2
 70
     0
  3
Dash dot (2x) ____  .  ____  .  ____  .  ___
 72
    65
 73
     4
 40
2.0
 49
1.0
 74
     0
 49
-0.5
 74
     0
 49
0.0
 74
     0
 49
-0.5
 74
     0
  0
LTYPE
  5
95
330
5
100
AcDbSymbolTableRecord
100
AcDbLinetypeTableRecord
  2
DASHED2
 70
     0
  3
Dashed (.5x) _ _ _ _ _ _ _ _ _ _ _ _ _ _ _ _ _
 72
    65
 73
     2
 40
0.375
 49
0.25
 74
     0
 49
-0.125
 74
     0
  0
LTYPE
  5
96
330
5
100
AcDbSymbolTableRecord
100
AcDbLinetypeTableRecord
  2
DASHEDX2
 70
     0
  3
Dashed (2x) ____  ____  ____  ____  ____  ___
 72
    65
 73
     2
 40
1.5
 49
1.0
 74
     0
 49
-0.5
 74
     0
  0
LTYPE
  5
97
330
5
100
AcDbSymbolTableRecord
100
AcDbLinetypeTableRecord
  2
DIVIDE
 70
     0
  3
Divide ____ . . ____ . . ____ . . ____ . . ____
 72
    65
 73
     6
 40
1.25
 49
0.5
 74
     0
 49
-0.25
 74
     0
 49
0.0
 74
     0
 49
-0.25
 74
     0
 49
0.0
 74
     0
 49
-0.25
 74
     0
  0
LTYPE
  5
98
330
5
100
AcDbSymbolTableRecord
100
AcDbLinetypeTableRecord
  2
DIVIDE2
 70
     0
  3
Divide (.5x) __..__..__..__..__..__..__..__.._
 72
    65
 73
     6
 40
0.625
 49
0.25
 74
     0
 49
-0.125
 74
     0
 49
0.0
 74
     0
 49
-0.125
 74
     0
 49
0.0
 74
     0
 49
-0.125
 74
     0
  0
LTYPE
  5
99
330
5
100
AcDbSymbolTableRecord
100
AcDbLinetypeTableRecord
  2
DIVIDEX2
 70
     0
  3
Divide (2x) ________  .  .  ________  .  .  _
 72
    65
 73
     6
 40
2.5
 49
1.0
 74
     0
 49
-0.5
 74
     0
 49
0.0
 74
     0
 49
-0.5
 74
     0
 49
0.0
 74
     0
 49
-0.5
 74
     0
  0
LTYPE
  5
9A
330
5
100
AcDbSymbolTableRecord
100
AcDbLinetypeTableRecord
  2
DOT
 70
     0
  3
Dot . . . . . . . . . . . . . . . . . . . . . .
 72
    65
 73
     2
 40
0.25
 49
0.0
 74
     0
 49
-0.25
 74
     0
  0
LTYPE
  5
9B
330
5
100
AcDbSymbolTableRecord
100
AcDbLinetypeTableRecord
  2
DOT2
 70
     0
  3
Dot (.5x) .....................................
 72
    65
 73
     2
 40
0.125
 49
0.0
 74
     0
 49
-0.125
 74
     0
  0
LTYPE
  5
9C
330
5
100
AcDbSymbolTableRecord
100
AcDbLinetypeTableRecord
  2
DOTX2
 70
     0
  3
Dot (2x) .  .  .  .  .  .  .  .  .  .  .  .  . 
 72
    65
 73
     2
 40
0.5
 49
0.0
 74
     0
 49
-0.5
 74
     0
  0
LTYPE
  5
9D
330
5
100
AcDbSymbolTableRecord
100
AcDbLinetypeTableRecord
  2
HIDDEN
 70
     0
  3
Hidden __ __ __ __ __ __ __ __ __ __ __ __ __ _
 72
    65
 73
     2
 40
0.375
 49
0.25
 74
     0
 49
-0.125
 74
     0
  0
LTYPE
  5
9E
330
5
100
AcDbSymbolTableRecord
100
AcDbLinetypeTableRecord
  2
HIDDEN2
 70
     0
  3
Hidden (.5x) _ _ _ _ _ _ _ _ _ _ _ _ _ _ _ _ _
 72
    65
 73
     2
 40
0.1875
 49
0.125
 74
     0
 49
-0.0625
 74
     0
  0
LTYPE
  5
9F
330
5
100
AcDbSymbolTableRecord
100
AcDbLinetypeTableRecord
  2
HIDDENX2
 70
     0
  3
Hidden (2x) ____ ____ ____ ____ ____ ____ ____
 72
    65
 73
     2
 40
0.75
 49
0.5
 74
     0
 49
-0.25
 74
     0
  0
LTYPE
  5
A0
330
5
100
AcDbSymbolTableRecord
100
AcDbLinetypeTableRecord
  2
PHANTOM
 70
     0
  3
Phantom ______  __  __  ______  __  __  ______
 72
    65
 73
     6
 40
2.5
 49
1.25
 74
     0
 49
-0.25
 74
     0
 49
0.25
 74
     0
 49
-0.25
 74
     0
 49
0.25
 74
     0
 49
-0.25
 74
     0
  0
LTYPE
  5
A1
330
5
100
AcDbSymbolTableRecord
100
AcDbLinetypeTableRecord
  2
PHANTOM2
 70
     0
  3
Phantom (.5x) ___ _ _ ___ _ _ ___ _ _ ___ _ _
 72
    65
 73
     6
 40
1.25
 49
0.625
 74
     0
 49
-0.125
 74
     0
 49
0.125
 74
     0
 49
-0.125
 74
     0
 49
0.125
 74
     0
 49
-0.125
 74
     0
  0
LTYPE
  5
A2
330
5
100
AcDbSymbolTableRecord
100
AcDbLinetypeTableRecord
  2
PHANTOMX2
 70
     0
  3
Phantom (2x) ____________    ____    ____   _
 72
    65
 73
     6
 40
5.0
 49
2.5
 74
     0
 49
-0.5
 74
     0
 49
0.5
 74
     0
 49
-0.5
 74
     0
 49
0.5
 74
     0
 49
-0.5
 74
     0
  0
LTYPE
  5
A3
330
5
100
AcDbSymbolTableRecord
100
AcDbLinetypeTableRecord
  2
ACAD_ISO02W100
 70
     0
  3
ISO dash __ __ __ __ __ __ __ __ __ __ __ __ __
 72
    65
 73
     2
 40
0.59
 49
0.47
 74
     0
 49
-0.12
 74
     0
  0
LTYPE
  5
A4
330
5
100
AcDbSymbolTableRecord
100
AcDbLinetypeTableRecord
  2
ACAD_ISO03W100
 70
     0
  3
ISO dash space __    __    __    __    __    __
 72
    65
 73
     2
 40
1.179999999999999
 49
0.47
 74
     0
 49
-0.71
 74
     0
  0
LTYPE
  5
A5
330
5
100
AcDbSymbolTableRecord
100
AcDbLinetypeTableRecord
  2
ACAD_ISO04W100
 70
     0
  3
ISO long-dash dot ____ . ____ . ____ . ____ . _
 72
    65
 73
     4
 40
1.179999999999999
 49
0.9399999999999998
 74
     0
 49
-0.12
 74
     0
 49
0.0
 74
     0
 49
-0.12
 74
     0
  0
LTYPE
  5
A6
330
5
100
AcDbSymbolTableRecord
100
AcDbLinetypeTableRecord
  2
ACAD_ISO05W100
 70
     0
  3
ISO long-dash double-dot ____ .. ____ .. ____ .
 72
    65
 73
     6
 40
1.299999999999999
 49
0.9399999999999998
 74
     0
 49
-0.12
 74
     0
 49
0.0
 74
     0
 49
-0.12
 74
     0
 49
0.0
 74
     0
 49
-0.12
 74
     0
  0
LTYPE
  5
A7
330
5
100
AcDbSymbolTableRecord
100
AcDbLinetypeTableRecord
  2
ACAD_ISO06W100
 70
     0
  3
ISO long-dash triple-dot ____ ... ____ ... ____
 72
    65
 73
     8
 40
1.419999999999999
 49
0.9399999999999998
 74
     0
 49
-0.12
 74
     0
 49
0.0
 74
     0
 49
-0.12
 74
     0
 49
0.0
 74
     0
 49
-0.12
 74
     0
 49
0.0
 74
     0
 49
-0.12
 74
     0
  0
LTYPE
  5
A8
330
5
100
AcDbSymbolTableRecord
100
AcDbLinetypeTableRecord
  2
ACAD_ISO07W100
 70
     0
  3
ISO dot . . . . . . . . . . . . . . . . . . . .
 72
    65
 73
     2
 40
0.12
 49
0.0
 74
     0
 49
-0.12
 74
     0
  0
LTYPE
  5
A9
330
5
100
AcDbSymbolTableRecord
100
AcDbLinetypeTableRecord
  2
ACAD_ISO08W100
 70
     0
  3
ISO long-dash short-dash ____ __ ____ __ ____ _
 72
    65
 73
     4
 40
0.95
 49
0.47
 74
     0
 49
-0.12
 74
     0
 49
0.24
 74
     0
 49
-0.12
 74
     0
  0
LTYPE
  5
AA
330
5
100
AcDbSymbolTableRecord
100
AcDbLinetypeTableRecord
  2
ACAD_ISO09W100
 70
     0
  3
ISO long-dash double-short-dash ____ __ __ ____
 72
    65
 73
     6
 40
1.31
 49
0.47
 74
     0
 49
-0.12
 74
     0
 49
0.24
 74
     0
 49
-0.12
 74
     0
 49
0.24
 74
     0
 49
-0.12
 74
     0
  0
LTYPE
  5
AB
330
5
100
AcDbSymbolTableRecord
100
AcDbLinetypeTableRecord
  2
ACAD_ISO10W100
 70
     0
  3
ISO dash dot __ . __ . __ . __ . __ . __ . __ .
 72
    65
 73
     4
 40
0.71
 49
0.47
 74
     0
 49
-0.12
 74
     0
 49
0.0
 74
     0
 49
-0.12
 74
     0
  0
LTYPE
  5
AC
330
5
100
AcDbSymbolTableRecord
100
AcDbLinetypeTableRecord
  2
ACAD_ISO11W100
 70
     0
  3
ISO double-dash dot __ __ . __ __ . __ __ . __ 
 72
    65
 73
     6
 40
1.299999999999999
 49
0.47
 74
     0
 49
-0.12
 74
     0
 49
0.47
 74
     0
 49
-0.12
 74
     0
 49
0.0
 74
     0
 49
-0.12
 74
     0
  0
LTYPE
  5
AD
330
5
100
AcDbSymbolTableRecord
100
AcDbLinetypeTableRecord
  2
ACAD_ISO12W100
 70
     0
  3
ISO dash double-dot __ . . __ . . __ . . __ . .
 72
    65
 73
     6
 40
0.8299999999999998
 49
0.47
 74
     0
 49
-0.12
 74
     0
 49
0.0
 74
     0
 49
-0.12
 74
     0
 49
0.0
 74
     0
 49
-0.12
 74
     0
  0
LTYPE
  5
AE
330
5
100
AcDbSymbolTableRecord
100
AcDbLinetypeTableRecord
  2
ACAD_ISO13W100
 70
     0
  3
ISO double-dash double-dot __ __ . . __ __ . . 
 72
    65
 73
     8
 40
1.419999999999999
 49
0.47
 74
     0
 49
-0.12
 74
     0
 49
0.47
 74
     0
 49
-0.12
 74
     0
 49
0.0
 74
     0
 49
-0.12
 74
     0
 49
0.0
 74
     0
 49
-0.12
 74
     0
  0
LTYPE
  5
AF
330
5
100
AcDbSymbolTableRecord
100
AcDbLinetypeTableRecord
  2
ACAD_ISO14W100
 70
     0
  3
ISO dash triple-dot __ . . . __ . . . __ . . . 
 72
    65
 73
     8
 40
0.95
 49
0.47
 74
     0
 49
-0.12
 74
     0
 49
0.0
 74
     0
 49
-0.12
 74
     0
 49
0.0
 74
     0
 49
-0.12
 74
     0
 49
0.0
 74
     0
 49
-0.12
 74
     0
  0
LTYPE
  5
B0
330
5
100
AcDbSymbolTableRecord
100
AcDbLinetypeTableRecord
  2
ACAD_ISO15W100
 70
     0
  3
ISO double-dash triple-dot __ __ . . . __ __ . 
 72
    65
 73
    10
 40
1.539999999999999
 49
0.47
 74
     0
 49
-0.12
 74
     0
 49
0.47
 74
     0
 49
-0.12
 74
     0
 49
0.0
 74
     0
 49
-0.12
 74
     0
 49
0.0
 74
     0
 49
-0.12
 74
     0
 49
0.0
 74
     0
 49
-0.12
 74
     0
  0
LTYPE
  5
B3
330
5
100
AcDbSymbolTableRecord
100
AcDbLinetypeTableRecord
  2
FENCELINE1
 70
     0
  3
Fenceline circle ----0-----0----0-----0----0---
 72
    65
 73
     4
 40
1.45
 49
0.25
 74
     0
 49
-0.1
 74
     4
 75
   133
340
B2
 46
0.1
 50
0.0
 44
-0.1
 45
0.0
 49
-0.1
 74
     0
 49
1.0
 74
     0
  0
LTYPE
  5
B4
330
5
100
AcDbSymbolTableRecord
100
AcDbLinetypeTableRecord
  2
FENCELINE2
 70
     0
  3
Fenceline square ----[]-----[]----[]-----[]----
 72
    65
 73
     4
 40
1.45
 49
0.25
 74
     0
 49
-0.1
 74
     4
 75
   132
340
B2
 46
0.1
 50
0.0
 44
-0.1
 45
0.0
 49
-0.1
 74
     0
 49
1.0
 74
     0
  0
LTYPE
  5
B5
330
5
100
AcDbSymbolTableRecord
100
AcDbLinetypeTableRecord
  2
TRACKS
 70
     0
  3
Tracks -|-|-|-|-|-|-|-|-|-|-|-|-|-|-|-|-|-|-|-|
 72
    65
 73
     2
 40
0.3
 49
0.15
 74
     4
 75
   130
340
B2
 46
0.25
 50
0.0
 44
0.0
 45
0.0
 49
0.15
 74
     0
  0
LTYPE
  5
B6
330
5
100
AcDbSymbolTableRecord
100
AcDbLinetypeTableRecord
  2
BATTING
 70
     0
  3
Batting SSSSSSSSSSSSSSSSSSSSSSSSSSSSSSSSSSSSSSS
 72
    65
 73
     4
 40
0.4001000000000001
 49
0.0001
 74
     0
 49
-0.1
 74
     4
 75
   134
340
B2
 46
0.1
 50
0.0
 44
-0.1
 45
0.0
 49
-0.2
 74
     4
 75
   134
340
B2
 46
0.1
 50
180.0
 44
0.1
 45
0.0
 49
-0.1
 74
     0
  0
LTYPE
  5
B7
330
5
100
AcDbSymbolTableRecord
100
AcDbLinetypeTableRecord
  2
HOT_WATER_SUPPLY
 70
     0
  3
Hot water supply ---- HW ---- HW ---- HW ----
 72
    65
 73
     3
 40
0.9
 49
0.5
 74
     0
 49
-0.2
 74
     2
 75
     0
340
55
 46
0.1
 50
0.0
 44
-0.1
 45
-0.05
  9
HW
 49
-0.2
 74
     0
  0
LTYPE
  5
B8
330
5
100
AcDbSymbolTableRecord
100
AcDbLinetypeTableRecord
  2
GAS_LINE
 70
     0
  3
Gas line ----GAS----GAS----GAS----GAS----GAS---
 72
    65
 73
     3
 40
0.95
 49
0.5
 74
     0
 49
-0.2
 74
     2
 75
     0
340
55
 46
0.1
 50
0.0
 44
-0.1
 45
-0.05
  9
GAS
 49
-0.25
 74
     0
  0
LTYPE
  5
B9
330
5
100
AcDbSymbolTableRecord
100
AcDbLinetypeTableRecord
  2
ZIGZAG
 70
     0
  3
Zig zag /\/\/\/\/\/\/\/\/\/\/\/\/\/\/\/\/\/\/\/
 72
    65
 73
     4
 40
0.8001000000000001
 49
0.0001
 74
     0
 49
-0.2
 74
     4
 75
   131
340
B2
 46
0.2
 50
0.0
 44
-0.2
 45
0.0
 49
-0.4
 74
     4
 75
   131
340
B2
 46
0.2
 50
180.0
 44
0.2
 45
0.0
 49
-0.2
 74
     0
  0
ENDTAB
  0
TABLE
  2
LAYER
  5
2
330
0
100
AcDbSymbolTable
 70
    27
  0
LAYER
  5
54
330
2
100
AcDbSymbolTableRecord
100
AcDbLayerTableRecord
  2
0
 70
     0
 62
     7
  6
Continuous
370
    18
390
F
  0
LAYER
  5
C0
330
2
100
AcDbSymbolTableRecord
100
AcDbLayerTableRecord
  2
Center Mark (ANSI)
 70
     0
 62
     7
  6
Continuous
370
    15
390
F
  0
LAYER
  5
C1
330
2
100
AcDbSymbolTableRecord
100
AcDbLayerTableRecord
  2
Centerline (ANSI)
 70
     0
 62
     7
  6
Continuous
370
    15
390
F
  0
LAYER
  5
C3
330
2
100
AcDbSymbolTableRecord
100
AcDbLayerTableRecord
  2
Dimension (ANSI)
 70
     0
 62
     7
  6
Continuous
370
    13
390
F
  0
LAYER
  5
C5
330
2
100
AcDbSymbolTableRecord
100
AcDbLayerTableRecord
  2
Hidden (ANSI)
 70
     0
 62
     7
  6
DASHED
370
    15
390
F
  0
LAYER
  5
CB
330
2
100
AcDbSymbolTableRecord
100
AcDbLayerTableRecord
  2
Sketch Geometry (ANSI)
 70
     0
 62
     7
  6
Continuous
370
    20
390
F
  0
LAYER
  5
CC
330
2
100
AcDbSymbolTableRecord
100
AcDbLayerTableRecord
  2
Symbol (ANSI)
 70
     0
 62
     7
  6
Continuous
370
    18
390
F
  0
LAYER
  5
CF
330
2
100
AcDbSymbolTableRecord
100
AcDbLayerTableRecord
  2
Visible (ANSI)
 70
     0
 62
     7
  6
Continuous
370
    13
390
F
  0
LAYER
  5
149
330
2
100
AcDbSymbolTableRecord
100
AcDbLayerTableRecord
  2
Defpoints
 70
     0
 62
     7
  6
Continuous
290
     0
370
    -3
390
F
  0
ENDTAB
  0
TABLE
  2
STYLE
  5
3
330
0
100
AcDbSymbolTable
 70
    18
  0
STYLE
  5
55
330
3
100
AcDbSymbolTableRecord
100
AcDbTextStyleTableRecord
  2
Standard
 70
     0
 40
0.0
 41
1.0
 50
0.0
 71
     0
 42
0.2
  3
txt
  4

  0
STYLE
  5
5A
330
3
100
AcDbSymbolTableRecord
100
AcDbTextStyleTableRecord
  2
Annotative
 70
     0
 40
0.0
 41
1.0
 50
0.0
 71
     0
 42
0.2
  3
txt
  4

1001
AcadAnnotative
1000
AnnotativeData
1002
{
1070
     1
1070
     1
1002
}
  0
STYLE
  5
B2
330
3
100
AcDbSymbolTableRecord
100
AcDbTextStyleTableRecord
  2

 70
     1
 40
0.0
 41
1.0
 50
0.0
 71
     0
 42
0.2
  3
ltypeshp.shx
  4

  0
STYLE
  5
D4
330
3
100
AcDbSymbolTableRecord
100
AcDbTextStyleTableRecord
  2
ITALICC_120
 70
     0
 40
0.0
 41
1.0
 50
0.0
 71
     0
 42
0.2
  3
italicc.shx
  4

  0
STYLE
  5
D5
330
3
100
AcDbSymbolTableRecord
100
AcDbTextStyleTableRecord
  2
Label Text (ANSI)
 70
     0
 40
0.0
 41
1.0
 50
0.0
 71
     0
 42
0.2
  3
tahoma.ttf
  4

1001
ACAD
1000
Tahoma
1071
      256
  0
STYLE
  5
D6
330
3
100
AcDbSymbolTableRecord
100
AcDbTextStyleTableRecord
  2
Note Text (ANSI)
 70
     0
 40
0.0
 41
1.0
 50
0.0
 71
     0
 42
0.2
  3
tahoma.ttf
  4

1001
ACAD
1000
Tahoma
1071
      256
  0
STYLE
  5
D7
330
3
100
AcDbSymbolTableRecord
100
AcDbTextStyleTableRecord
  2
ROMANS
 70
     0
 40
0.0
 41
1.0
 50
0.0
 71
     0
 42
0.2
  3
romans.shx
  4

  0
STYLE
  5
D8
330
3
100
AcDbSymbolTableRecord
100
AcDbTextStyleTableRecord
  2
SANSSERIF_114
 70
     0
 40
0.0
 41
1.0
 50
0.0
 71
     0
 42
0.2
  3
tahoma.ttf
  4

1001
ACAD
1000
Tahoma
1071
      256
  0
STYLE
  5
D9
330
3
100
AcDbSymbolTableRecord
100
AcDbTextStyleTableRecord
  2
SANSSERIF_117
 70
     0
 40
0.0
 41
1.0
 50
0.0
 71
     0
 42
0.2
  3
tahoma.ttf
  4

1001
ACAD
1000
Tahoma
1071
      256
  0
STYLE
  5
DA
330
3
100
AcDbSymbolTableRecord
100
AcDbTextStyleTableRecord
  2
STANDARDAM_ANSI
 70
     0
 40
0.0
 41
1.0
 50
0.0
 71
     0
 42
0.2
  3
txt.shx
  4

  0
STYLE
  5
DB
330
3
100
AcDbSymbolTableRecord
100
AcDbTextStyleTableRecord
  2
StandardAM_ANSI$0
 70
     0
 40
0.0
 41
1.0
 50
0.0
 71
     0
 42
0.2
  3
txt.shx
  4

  0
STYLE
  5
DC
330
3
100
AcDbSymbolTableRecord
100
AcDbTextStyleTableRecord
  2
STANDARDAM_ANSI$3
 70
     0
 40
0.0
 41
1.0
 50
0.0
 71
     0
 42
0.2
  3
txt.shx
  4

  0
STYLE
  5
DD
330
3
100
AcDbSymbolTableRecord
100
AcDbTextStyleTableRecord
  2
STANDARDAM_ANSI$4
 70
     0
 40
0.0
 41
1.0
 50
0.0
 71
     0
 42
0.2
  3
txt.shx
  4

  0
STYLE
  5
DE
330
3
100
AcDbSymbolTableRecord
100
AcDbTextStyleTableRecord
  2
STANDARDAM_ANSI$7
 70
     0
 40
0.0
 41
1.0
 50
0.0
 71
     0
 42
0.2
  3
txt.shx
  4

  0
STYLE
  5
DF
330
3
100
AcDbSymbolTableRecord
100
AcDbTextStyleTableRecord
  2
STANDARDAM_ANSI$SF
 70
     0
 40
0.0
 41
1.0
 50
0.0
 71
     0
 42
0.2
  3
txt.shx
  4

  0
STYLE
  5
E0
330
3
100
AcDbSymbolTableRecord
100
AcDbTextStyleTableRecord
  2
STANDARDAM_ANSI$SH
 70
     0
 40
0.0
 41
1.0
 50
0.0
 71
     0
 42
0.2
  3
txt.shx
  4

  0
STYLE
  5
E1
330
3
100
AcDbSymbolTableRecord
100
AcDbTextStyleTableRecord
  2
STANDARDSTANDARD
 70
     0
 40
0.0
 41
1.0
 50
0.0
 71
     0
 42
0.2
  3
txt.shx
  4

  0
STYLE
  5
124
330
3
100
AcDbSymbolTableRecord
100
AcDbTextStyleTableRecord
  2
Text Style166
 70
     0
 40
0.0
 41
1.0
 50
0.0
 71
     0
 42
0.2
  3
tahoma.ttf
  4

1001
ACAD
1000
Tahoma
1071
      256
  0
ENDTAB
  0
TABLE
  2
VIEW
  5
6
330
0
100
AcDbSymbolTable
 70
     0
  0
ENDTAB
  0
TABLE
  2
UCS
  5
7
330
0
100
AcDbSymbolTable
 70
     0
  0
ENDTAB
  0
TABLE
  2
APPID
  5
9
330
0
100
AcDbSymbolTable
 70
     4
  0
APPID
  5
56
330
9
100
AcDbSymbolTableRecord
100
AcDbRegAppTableRecord
  2
ACAD
 70
     0
  0
APPID
  5
5E
330
9
100
AcDbSymbolTableRecord
100
AcDbRegAppTableRecord
  2
AcadAnnotative
 70
     0
  0
APPID
  5
5C7
330
9
100
AcDbSymbolTableRecord
100
AcDbRegAppTableRecord
  2
ACAD_DSTYLE_DIMRADIAL_EXTENSION
 70
     0
  0
APPID
  5
E1F
330
9
100
AcDbSymbolTableRecord
100
AcDbRegAppTableRecord
  2
ACAD_MLEADERVER
 70
     0
  0
ENDTAB
  0
TABLE
  2
DIMSTYLE
  5
A
330
0
100
AcDbSymbolTable
 70
    27
100
AcDbDimStyleTable
 71
     2
340
F6
340
58
  0
DIMSTYLE
105
58
330
A
100
AcDbSymbolTableRecord
100
AcDbDimStyleTableRecord
  2
STANDARD
 70
     0
 41
0.1800000071525573
 42
0.0625
140
0.1800000071525574
144
1.0
147
0.0900000035762787
176
   256
177
   256
178
   256
274
     3
340
55
371
    -1
372
    -1
  0
DIMSTYLE
105
59
330
A
100
AcDbSymbolTableRecord
100
AcDbDimStyleTableRecord
  2
Annotative
 70
     0
340
55
1001
AcadAnnotative
1000
AnnotativeData
1002
{
1070
     1
1070
     1
1002
}
  0
DIMSTYLE
105
E2
330
A
100
AcDbSymbolTableRecord
100
AcDbDimStyleTableRecord
  2
AM_ANSI
 70
     0
  4
 mm
 40
3.0
 41
0.119999997317791
 42
0.05
 43
0.5
 44
0.1
 45
0.00000001
 78
     4
 79
     2
140
0.1200000047683716
146
0.7099999189376831
147
0.0599999986588955
176
   256
177
   256
178
     2
284
     4
340
DA
371
    -1
372
    -1
  0
DIMSTYLE
105
E3
330
A
100
AcDbSymbolTableRecord
100
AcDbDimStyleTableRecord
  2
AM_ANSI$7
 70
     0
  4
 mm
 40
3.0
 41
0.119999997317791
 42
0.05
 43
0.5
 44
0.1
 45
0.00000001
 78
     4
 79
     2
140
0.1200000047683716
146
0.7099999189376831
147
0.0599999986588955
176
   256
177
   256
178
     2
284
     4
340
DA
371
    -1
372
    -1
  0
DIMSTYLE
105
E4
330
A
100
AcDbSymbolTableRecord
100
AcDbDimStyleTableRecord
  2
AM_ANSI$0
 70
     0
  4
 mm
 40
3.0
 41
0.119999997317791
 42
0.05
 43
0.5
 44
0.1
 45
0.00000001
 78
     4
 79
     2
140
0.1200000047683716
146
0.7099999189376831
147
0.0599999986588955
176
   256
177
   256
178
     2
284
     4
340
DB
371
    -1
372
    -1
  0
DIMSTYLE
105
E5
330
A
100
AcDbSymbolTableRecord
100
AcDbDimStyleTableRecord
  2
AM_ANSI$0$7
 70
     0
  4
 mm
 40
3.0
 41
0.119999997317791
 42
0.05
 43
0.5
 44
0.1
 45
0.00000001
 78
     4
 79
     2
140
0.1200000047683716
146
0.7099999189376831
147
0.0599999986588955
176
   256
177
   256
178
     2
284
     4
340
DB
371
    -1
372
    -1
  0
DIMSTYLE
105
E6
330
A
100
AcDbSymbolTableRecord
100
AcDbDimStyleTableRecord
  2
AM_ANSI$3
 70
     0
  4
 mm
 40
3.0
 41
0.119999997317791
 42
0.05
 43
0.5
 44
0.1
 45
0.00000001
 78
     4
 79
     2
140
0.1200000047683716
146
0.7099999189376831
147
0.0599999986588955
176
   256
177
   256
178
     2
284
     4
340
DC
371
    -1
372
    -1
  0
DIMSTYLE
105
E7
330
A
100
AcDbSymbolTableRecord
100
AcDbDimStyleTableRecord
  2
AM_ANSI$3$7
 70
     0
  4
 mm
 40
3.0
 41
0.119999997317791
 42
0.05
 43
0.5
 44
0.1
 45
0.00000001
 78
     4
 79
     2
140
0.1200000047683716
146
0.7099999189376831
147
0.0599999986588955
176
   256
177
   256
178
     2
284
     4
340
DC
371
    -1
372
    -1
  0
DIMSTYLE
105
E8
330
A
100
AcDbSymbolTableRecord
100
AcDbDimStyleTableRecord
  2
AM_ANSI$4
 70
     0
  4
 mm
 40
3.0
 41
0.119999997317791
 42
0.05
 43
0.5
 44
0.1
 45
0.00000001
 78
     4
 79
     2
140
0.1200000047683716
146
0.7099999189376831
147
0.0599999986588955
176
   256
177
   256
178
     2
284
     4
340
DD
371
    -1
372
    -1
  0
DIMSTYLE
105
E9
330
A
100
AcDbSymbolTableRecord
100
AcDbDimStyleTableRecord
  2
AM_ANSI$4$7
 70
     0
  4
 mm
 40
3.0
 41
0.119999997317791
 42
0.05
 43
0.5
 44
0.1
 45
0.00000001
 78
     4
 79
     2
140
0.1200000047683716
146
0.7099999189376831
147
0.0599999986588955
176
   256
177
   256
178
     2
284
     4
340
DD
371
    -1
372
    -1
  0
DIMSTYLE
105
EA
330
A
100
AcDbSymbolTableRecord
100
AcDbDimStyleTableRecord
  2
AM_ANSI$SF
 70
     0
  4
 mm
 40
3.0
 41
0.119999997317791
 42
0.05
 43
0.5
 44
0.1
 45
0.00000001
 75
     1
 76
     1
 78
     4
 79
     2
140
0.1200000047683716
146
0.7099999189376831
147
0.0599999986588955
176
   256
177
   256
178
     2
284
     4
340
DF
371
    -1
372
    -1
  0
DIMSTYLE
105
EB
330
A
100
AcDbSymbolTableRecord
100
AcDbDimStyleTableRecord
  2
AM_ANSI$SF$7
 70
     0
  4
 mm
 40
3.0
 41
0.119999997317791
 42
0.05
 43
0.5
 44
0.1
 45
0.00000001
 75
     1
 76
     1
 78
     4
 79
     2
140
0.1200000047683716
146
0.7099999189376831
147
0.0599999986588955
176
   256
177
   256
178
     2
284
     4
340
DF
371
    -1
372
    -1
  0
DIMSTYLE
105
EC
330
A
100
AcDbSymbolTableRecord
100
AcDbDimStyleTableRecord
  2
AM_ANSI$SH
 70
     0
  4
 mm
 40
3.0
 41
0.119999997317791
 42
0.05
 43
0.5
 44
0.1
 45
0.00000001
 75
     1
 76
     1
 78
     4
 79
     2
140
0.1200000047683716
146
0.7099999189376831
147
0.0599999986588955
176
   256
177
   256
178
     2
284
     4
340
E0
371
    -1
372
    -1
  0
DIMSTYLE
105
ED
330
A
100
AcDbSymbolTableRecord
100
AcDbDimStyleTableRecord
  2
AM_ANSI$SH$7
 70
     0
  4
 mm
 40
3.0
 41
0.119999997317791
 42
0.05
 43
0.5
 44
0.1
 45
0.00000001
 75
     1
 76
     1
 78
     4
 79
     2
140
0.1200000047683716
146
0.7099999189376831
147
0.0599999986588955
176
   256
177
   256
178
     2
284
     4
340
E0
371
    -1
372
    -1
  0
DIMSTYLE
105
EE
330
A
100
AcDbSymbolTableRecord
100
AcDbDimStyleTableRecord
  2
Architectural (ANSI)
 70
     0
 40
3.0
 41
0.0984251946210861
 43
0.2362204724409449
 44
0.125
 45
0.00000001
 46
0.3937007874015748
 78
     3
 79
     3
140
0.1200000047683716
147
0.031496062992126
171
     1
176
   256
177
   256
178
   256
272
     2
274
     1
276
     2
277
     4
284
    12
285
     4
286
    12
340
D6
371
    -1
372
    -1
  0
DIMSTYLE
105
EF
330
A
100
AcDbSymbolTableRecord
100
AcDbDimStyleTableRecord
  2
Architectural (ANSI)$7
 70
     0
 40
3.0
 41
0.0984251946210861
 43
0.2362204724409449
 44
0.125
 45
0.00000001
 46
0.3937007874015748
 78
     3
 79
     3
140
0.1200000047683716
147
0.031496062992126
171
     1
176
   256
177
   256
178
   256
272
     2
274
     1
276
     2
277
     4
284
    12
285
     4
286
    12
340
D6
371
    -1
372
    -1
  0
DIMSTYLE
105
F0
330
A
100
AcDbSymbolTableRecord
100
AcDbDimStyleTableRecord
  2
Default - Fraction (ANSI)
 70
     0
 40
3.0
 41
0.0984251946210861
 43
0.2362204724409449
 44
0.125
 45
0.00000001
 46
0.3937007874015748
 79
     3
140
0.1200000047683716
147
0.031496062992126
171
     1
176
   256
177
   256
178
   256
272
     2
274
     1
276
     2
277
     5
284
    12
285
     4
286
    12
340
D6
371
    -1
372
    -1
  0
DIMSTYLE
105
F1
330
A
100
AcDbSymbolTableRecord
100
AcDbDimStyleTableRecord
  2
Default - Fraction (ANSI)$7
 70
     0
 40
3.0
 41
0.0984251946210861
 43
0.2362204724409449
 44
0.125
 45
0.00000001
 46
0.3937007874015748
 79
     3
140
0.1200000047683716
147
0.031496062992126
171
     1
176
   256
177
   256
178
   256
272
     2
274
     1
276
     2
277
     5
284
    12
285
     4
286
    12
340
D6
371
    -1
372
    -1
  0
DIMSTYLE
105
F2
330
A
100
AcDbSymbolTableRecord
100
AcDbDimStyleTableRecord
  2
Default - mm (ANSI)
 70
     0
 40
3.0
 41
0.0984251946210861
 42
0.063
 43
0.2362204724409449
 44
0.125
 45
0.00000001
 46
0.3937007874015748
 73
     0
 78
     4
 79
     1
140
0.1200000047683716
143
1.0
144
25.4
147
0.031496062992126
171
     1
176
   256
177
   256
178
   256
179
     1
271
     2
272
     2
274
     1
284
     4
285
     4
340
D6
371
    -1
372
    -1
  0
DIMSTYLE
105
F3
330
A
100
AcDbSymbolTableRecord
100
AcDbDimStyleTableRecord
  2
Default - mm (ANSI)$7
 70
     0
 40
3.0
 41
0.0984251946210861
 42
0.063
 43
0.2362204724409449
 44
0.125
 45
0.00000001
 46
0.3937007874015748
 73
     0
 78
     4
 79
     1
140
0.1200000047683716
143
1.0
144
25.4
147
0.031496062992126
171
     1
176
   256
177
   256
178
   256
179
     1
271
     2
272
     2
274
     1
284
     4
285
     4
340
D6
371
    -1
372
    -1
  0
DIMSTYLE
105
F4
330
A
100
AcDbSymbolTableRecord
100
AcDbDimStyleTableRecord
  2
Default - mm [in] (ANSI)
 70
     0
  4
 in
 40
3.0
 41
0.0984251946210861
 42
0.063
 43
0.25
 44
0.125
 45
0.00000001
 46
0.3937007874015748
 73
     0
 78
     4
 79
     1
140
0.1200000047683716
143
0.03937
144
25.4
147
0.031496062992126
170
     1
171
     3
176
   256
177
   256
178
   256
179
     1
271
     2
272
     2
274
     3
284
     4
285
     4
286
     4
340
D6
371
    -1
372
    -1
  0
DIMSTYLE
105
F5
330
A
100
AcDbSymbolTableRecord
100
AcDbDimStyleTableRecord
  2
Default - mm [in] (ANSI)$7
 70
     0
  4
 in
 40
3.0
 41
0.0984251946210861
 42
0.063
 43
0.25
 44
0.125
 45
0.00000001
 46
0.3937007874015748
 73
     0
 78
     4
 79
     1
140
0.1200000047683716
143
0.03937
144
25.4
147
0.031496062992126
170
     1
171
     3
176
   256
177
   256
178
   256
179
     1
271
     2
272
     2
274
     3
284
     4
285
     4
286
     4
340
D6
371
    -1
372
    -1
  0
DIMSTYLE
105
F6
102
{ACAD_REACTORS
330
147
330
233
330
31D
330
41B
330
52D
330
5E8
330
6A1
330
7A9
330
893
330
97D
330
B00
330
C08
330
D27
102
}
330
A
100
AcDbSymbolTableRecord
100
AcDbDimStyleTableRecord
  2
Default (ANSI)
 70
     0
 40
3.0
 41
0.0984251946210861
 43
0.2362204724409449
 44
0.125
 45
0.00000001
 46
0.3937007874015748
 79
     1
140
0.1200000047683716
147
0.031496062992126
171
     1
176
   256
177
   256
178
   256
271
     2
272
     2
274
     1
284
     4
285
     4
340
D6
371
    -1
372
    -1
  0
DIMSTYLE
105
F7
330
A
100
AcDbSymbolTableRecord
100
AcDbDimStyleTableRecord
  2
Default (ANSI)$7
 70
     0
 40
3.0
 41
0.0984251946210861
 43
0.2362204724409449
 44
0.125
 45
0.00000001
 46
0.3937007874015748
 79
     1
140
0.1200000047683716
147
0.031496062992126
171
     1
176
   256
177
   256
178
   256
271
     2
272
     2
274
     1
284
     4
285
     4
340
D6
371
    -1
372
    -1
  0
DIMSTYLE
105
F8
330
A
100
AcDbSymbolTableRecord
100
AcDbDimStyleTableRecord
  2
Alternate (ANSI)
 70
     0
 40
3.0
 41
0.0979999974370003
340
55
342
F9
  0
DIMSTYLE
105
10B
330
A
100
AcDbSymbolTableRecord
100
AcDbDimStyleTableRecord
  2
Datum (ANSI)
 70
     0
 40
3.0
 41
0.0979999974370003
340
55
342
F9
  0
DIMSTYLE
105
11A
330
A
100
AcDbSymbolTableRecord
100
AcDbDimStyleTableRecord
  2
Large (ANSI)
 70
     0
 40
3.0
 41
0.1959999948740005
340
55
342
F9
  0
ENDTAB
  0
TABLE
  2
BLOCK_RECORD
  5
1
330
0
100
AcDbSymbolTable
 70
    17
  0
BLOCK_RECORD
  5
6C
330
1
100
AcDbSymbolTableRecord
100
AcDbBlockTableRecord
  2
*Model_Space
340
6F
  0
BLOCK_RECORD
  5
68
330
1
100
AcDbSymbolTableRecord
100
AcDbBlockTableRecord
  2
*Paper_Space
340
6B
  0
BLOCK_RECORD
  5
70
330
1
100
AcDbSymbolTableRecord
100
AcDbBlockTableRecord
  2
*Paper_Space0
340
73
  0
BLOCK_RECORD
  5
F9
330
1
100
AcDbSymbolTableRecord
100
AcDbBlockTableRecord
  2
_Closed
340
0
  0
BLOCK_RECORD
  5
100
330
1
100
AcDbSymbolTableRecord
100
AcDbBlockTableRecord
  2
DatumFilled45
340
0
  0
BLOCK_RECORD
  5
10C
330
1
100
AcDbSymbolTableRecord
100
AcDbBlockTableRecord
  2
Filled-1
340
0
  0
BLOCK_RECORD
  5
14A
330
1
100
AcDbSymbolTableRecord
100
AcDbBlockTableRecord
  2
*D4
340
0
  0
BLOCK_RECORD
  5
234
330
1
100
AcDbSymbolTableRecord
100
AcDbBlockTableRecord
  2
*D5
340
0
  0
BLOCK_RECORD
  5
31E
330
1
100
AcDbSymbolTableRecord
100
AcDbBlockTableRecord
  2
*D6
340
0
  0
BLOCK_RECORD
  5
41C
330
1
100
AcDbSymbolTableRecord
100
AcDbBlockTableRecord
  2
*D7
340
0
  0
BLOCK_RECORD
  5
52E
330
1
100
AcDbSymbolTableRecord
100
AcDbBlockTableRecord
  2
*D8
340
0
  0
BLOCK_RECORD
  5
5E9
330
1
100
AcDbSymbolTableRecord
100
AcDbBlockTableRecord
  2
*D9
340
0
  0
BLOCK_RECORD
  5
6A2
330
1
100
AcDbSymbolTableRecord
100
AcDbBlockTableRecord
  2
*D10
340
0
  0
BLOCK_RECORD
  5
7AA
330
1
100
AcDbSymbolTableRecord
100
AcDbBlockTableRecord
  2
*D11
340
0
  0
BLOCK_RECORD
  5
894
330
1
100
AcDbSymbolTableRecord
100
AcDbBlockTableRecord
  2
*D12
340
0
  0
BLOCK_RECORD
  5
97E
330
1
100
AcDbSymbolTableRecord
100
AcDbBlockTableRecord
  2
*D13
340
0
  0
BLOCK_RECORD
  5
B01
330
1
100
AcDbSymbolTableRecord
100
AcDbBlockTableRecord
  2
*D14
340
0
  0
BLOCK_RECORD
  5
C09
330
1
100
AcDbSymbolTableRecord
100
AcDbBlockTableRecord
  2
*D15
340
0
  0
BLOCK_RECORD
  5
D28
330
1
100
AcDbSymbolTableRecord
100
AcDbBlockTableRecord
  2
*D16
340
0
  0
ENDTAB
  0
ENDSEC
  0
SECTION
  2
BLOCKS
  0
BLOCK
  5
6D
330
6C
100
AcDbEntity
  8
0
100
AcDbBlockBegin
  2
*Model_Space
 70
     0
 10
0.0
 20
0.0
 30
0.0
  3
*Model_Space
  1

  0
ENDBLK
  5
6E
330
6C
100
AcDbEntity
  8
0
100
AcDbBlockEnd
  0
BLOCK
  5
69
330
68
100
AcDbEntity
 67
     1
  8
0
100
AcDbBlockBegin
  2
*Paper_Space
 70
     0
 10
0.0
 20
0.0
 30
0.0
  3
*Paper_Space
  1

  0
ENDBLK
  5
6A
330
68
100
AcDbEntity
 67
     1
  8
0
100
AcDbBlockEnd
  0
BLOCK
  5
71
330
70
100
AcDbEntity
 67
     1
  8
0
100
AcDbBlockBegin
  2
*Paper_Space0
 70
     0
 10
0.0
 20
0.0
 30
0.0
  3
*Paper_Space0
  1

  0
ENDBLK
  5
72
330
70
100
AcDbEntity
 67
     1
  8
0
100
AcDbBlockEnd
  0
BLOCK
  5
FE
330
F9
100
AcDbEntity
  8
0
100
AcDbBlockBegin
  2
_Closed
 70
     0
 10
0.0
 20
0.0
 30
0.0
  3
_Closed
  1

  0
LINE
  5
FA
330
F9
100
AcDbEntity
  8
0
  6
ByBlock
 62
     0
370
    -2
100
AcDbLine
 10
-1.0
 20
0.1666666666666666
 30
0.0
 11
0.0
 21
0.0
 31
0.0
  0
LINE
  5
FB
330
F9
100
AcDbEntity
  8
0
  6
ByBlock
 62
     0
370
    -2
100
AcDbLine
 10
0.0
 20
0.0
 30
0.0
 11
-1.0
 21
-0.1666666666666666
 31
0.0
  0
LINE
  5
FC
330
F9
100
AcDbEntity
  8
0
  6
ByBlock
 62
     0
370
    -2
100
AcDbLine
 10
-1.0
 20
0.1666666666666666
 30
0.0
 11
-1.0
 21
-0.1666666666666666
 31
0.0
  0
LINE
  5
FD
330
F9
100
AcDbEntity
  8
0
  6
ByBlock
 62
     0
370
    -2
100
AcDbLine
 10
0.0
 20
0.0
 30
0.0
 11
-1.0
 21
0.0
 31
0.0
  0
ENDBLK
  5
FF
330
F9
100
AcDbEntity
  8
0
100
AcDbBlockEnd
  0
BLOCK
  5
101
330
100
100
AcDbEntity
  8
0
100
AcDbBlockBegin
  2
DatumFilled45
 70
     0
 10
0.0
 20
0.0
 30
0.0
  3
DatumFilled45
  1

  0
POLYLINE
  5
103
330
100
100
AcDbEntity
  8
0
 62
     0
100
AcDb2dPolyline
 66
     1
 10
0.0
 20
0.0
 30
0.0
 70
   128
  0
VERTEX
  5
104
330
103
100
AcDbEntity
  8
0
 62
     0
100
AcDbVertex
100
AcDb2dVertex
 10
0.0
 20
0.9999999999999998
 30
0.0
  0
VERTEX
  5
105
330
103
100
AcDbEntity
  8
0
 62
     0
100
AcDbVertex
100
AcDb2dVertex
 10
0.0
 20
-0.9999999999999998
 30
0.0
  0
VERTEX
  5
107
330
103
100
AcDbEntity
  8
0
 62
     0
100
AcDbVertex
100
AcDb2dVertex
 10
-0.9999999999999998
 20
0.0
 30
0.0
  0
VERTEX
  5
108
330
103
100
AcDbEntity
  8
0
 62
     0
100
AcDbVertex
100
AcDb2dVertex
 10
0.0
 20
0.9999999999999998
 30
0.0
  0
SEQEND
  5
106
330
103
100
AcDbEntity
  8
0
 62
     0
  0
SOLID
  5
10A
330
100
100
AcDbEntity
  8
0
 62
     0
100
AcDbTrace
 10
0.0
 20
0.9999999999999998
 30
0.0
 11
0.0
 21
-0.9999999999999998
 31
0.0
 12
-0.9999999999999998
 22
0.0
 32
0.0
 13
0.0
 23
0.9999999999999998
 33
0.0
  0
ENDBLK
  5
102
330
100
100
AcDbEntity
  8
0
100
AcDbBlockEnd
  0
BLOCK
  5
10D
330
10C
100
AcDbEntity
  8
0
100
AcDbBlockBegin
  2
Filled-1
 70
     0
 10
0.0
 20
0.0
 30
0.0
  3
Filled-1
  1

  0
LINE
  5
10F
330
10C
100
AcDbEntity
  8
0
 62
     0
100
AcDbLine
 10
-0.9999999999999998
 20
0.0
 30
0.0
 11
0.0
 21
0.0
 31
0.0
  0
POLYLINE
  5
110
330
10C
100
AcDbEntity
  8
0
 62
     0
100
AcDb2dPolyline
 66
     1
 10
0.0
 20
0.0
 30
0.0
 70
   128
  0
VERTEX
  5
111
330
110
100
AcDbEntity
  8
0
 62
     0
100
AcDbVertex
100
AcDb2dVertex
 10
-0.9999999999999998
 20
-0.0994897959183674
 30
0.0
  0
VERTEX
  5
112
330
110
100
AcDbEntity
  8
0
 62
     0
100
AcDbVertex
100
AcDb2dVertex
 10
0.0
 20
0.0
 30
0.0
  0
VERTEX
  5
114
330
110
100
AcDbEntity
  8
0
 62
     0
100
AcDbVertex
100
AcDb2dVertex
 10
-0.9999999999999998
 20
0.0994897959183674
 30
0.0
  0
VERTEX
  5
115
330
110
100
AcDbEntity
  8
0
 62
     0
100
AcDbVertex
100
AcDb2dVertex
 10
-0.9999999999999998
 20
-0.0994897959183674
 30
0.0
  0
SEQEND
  5
113
330
110
100
AcDbEntity
  8
0
 62
     0
  0
SOLID
  5
116
330
10C
100
AcDbEntity
  8
0
 62
     0
100
AcDbTrace
 10
-0.9999999999999998
 20
-0.0994897959183674
 30
0.0
 11
0.0
 21
0.0
 31
0.0
 12
-0.9999999999999998
 22
0.0994897959183674
 32
0.0
 13
-0.9999999999999998
 23
-0.0994897959183674
 33
0.0
  0
LINE
  5
117
330
10C
100
AcDbEntity
  8
0
 62
     0
100
AcDbLine
 10
-0.9999999999999998
 20
-0.0994897959183674
 30
0.0
 11
0.0
 21
0.0
 31
0.0
  0
LINE
  5
118
330
10C
100
AcDbEntity
  8
0
 62
     0
100
AcDbLine
 10
0.0
 20
0.0
 30
0.0
 11
-0.9999999999999998
 21
0.0994897959183674
 31
0.0
  0
LINE
  5
119
330
10C
100
AcDbEntity
  8
0
 62
     0
100
AcDbLine
 10
-0.9999999999999998
 20
0.0994897959183674
 30
0.0
 11
-0.9999999999999998
 21
-0.0994897959183674
 31
0.0
  0
ENDBLK
  5
10E
330
10C
100
AcDbEntity
  8
0
100
AcDbBlockEnd
  0
BLOCK
  5
14B
330
14A
100
AcDbEntity
  8
0
100
AcDbBlockBegin
  2
*D4
 70
     1
 10
0.0
 20
0.0
 30
0.0
  3
*D4
  1

  0
LINE
  5
229
330
14A
100
AcDbEntity
  8
Dimension (ANSI)
440
 16777216
100
AcDbLine
 10
11.88685954715557
 20
10.50544206173588
 30
0.0
 11
8.389568952408565
 21
10.50544206173588
 31
0.0
  0
LINE
  5
22A
330
14A
100
AcDbEntity
  8
Dimension (ANSI)
440
 16777216
100
AcDbLine
 10
11.88685954715557
 20
23.50544206173589
 30
0.0
 11
8.389568952408568
 21
23.50544206173589
 31
0.0
  0
LINE
  5
22B
330
14A
100
AcDbEntity
  8
Dimension (ANSI)
440
 16777216
100
AcDbLine
 10
8.764568952408565
 20
10.80071764559914
 30
0.0
 11
8.764568952408566
 21
16.72345890345807
 31
0.0
  0
LINE
  5
22C
330
14A
100
AcDbEntity
  8
Dimension (ANSI)
440
 16777216
100
AcDbLine
 10
8.764568952408568
 20
23.21016647787263
 30
0.0
 11
8.764568952408566
 21
17.28742522001368
 31
0.0
  0
SOLID
  5
22D
330
14A
100
AcDbEntity
  8
Dimension (ANSI)
440
 16777216
100
AcDbTrace
 10
8.715356355098021
 20
10.80071764559914
 30
0.0
 11
8.813781549719108
 21
10.80071764559914
 31
0.0
 12
8.764568952408565
 22
10.50544206173588
 32
0.0
 13
8.764568952408565
 23
10.50544206173588
 33
0.0
  0
SOLID
  5
22E
330
14A
100
AcDbEntity
  8
Dimension (ANSI)
440
 16777216
100
AcDbTrace
 10
8.715356355098025
 20
23.21016647787263
 30
0.0
 11
8.813781549719111
 21
23.21016647787263
 31
0.0
 12
8.764568952408568
 22
23.50544206173589
 32
0.0
 13
8.764568952408568
 23
23.50544206173589
 33
0.0
  0
MTEXT
  5
22F
330
14A
100
AcDbEntity
  8
Dimension (ANSI)
440
 16777216
100
AcDbMText
 10
8.186368798850402
 20
17.19293703103731
 30
0.0
 40
0.3600000143051147
 41
0.0
 71
     1
 72
     1
  1
\A1;13.00
  7
Note Text (ANSI)
 73
     1
 44
1.0
  0
POINT
  5
230
330
14A
100
AcDbEntity
  8
Defpoints
 62
     0
440
 16777216
100
AcDbPoint
 10
12.07435954715557
 20
10.50544206173588
 30
0.0
  0
POINT
  5
231
330
14A
100
AcDbEntity
  8
Defpoints
 62
     0
440
 16777216
100
AcDbPoint
 10
12.07435954715557
 20
23.50544206173589
 30
0.0
  0
POINT
  5
232
330
14A
100
AcDbEntity
  8
Defpoints
 62
     0
440
 16777216
100
AcDbPoint
 10
8.764568952408568
 20
23.50544206173589
 30
0.0
  0
ENDBLK
  5
14C
330
14A
100
AcDbEntity
  8
0
100
AcDbBlockEnd
  0
BLOCK
  5
235
330
234
100
AcDbEntity
  8
0
100
AcDbBlockBegin
  2
*D5
 70
     1
 10
0.0
 20
0.0
 30
0.0
  3
*D5
  1

  0
LINE
  5
313
330
234
100
AcDbEntity
  8
Dimension (ANSI)
440
 16777216
100
AcDbLine
 10
12.07435954715557
 20
23.69294206173588
 30
0.0
 11
12.07435954715557
 21
26.03483155154231
 31
0.0
  0
LINE
  5
314
330
234
100
AcDbEntity
  8
Dimension (ANSI)
440
 16777216
100
AcDbLine
 10
21.07435954715557
 20
23.69294206173588
 30
0.0
 11
21.07435954715557
 21
26.03483155154231
 31
0.0
  0
LINE
  5
315
330
234
100
AcDbEntity
  8
Dimension (ANSI)
440
 16777216
100
AcDbLine
 10
12.36963513101883
 20
25.6598315515423
 30
0.0
 11
16.01760136294473
 21
25.6598315515423
 31
0.0
  0
LINE
  5
316
330
234
100
AcDbEntity
  8
Dimension (ANSI)
440
 16777216
100
AcDbLine
 10
20.77908396329231
 20
25.6598315515423
 30
0.0
 11
17.1311177313664
 21
25.6598315515423
 31
0.0
  0
SOLID
  5
317
330
234
100
AcDbEntity
  8
Dimension (ANSI)
440
 16777216
100
AcDbTrace
 10
12.36963513101883
 20
25.70904414885285
 30
0.0
 11
12.36963513101883
 21
25.61061895423176
 31
0.0
 12
12.07435954715557
 22
25.6598315515423
 32
0.0
 13
12.07435954715557
 23
25.6598315515423
 33
0.0
  0
SOLID
  5
318
330
234
100
AcDbEntity
  8
Dimension (ANSI)
440
 16777216
100
AcDbTrace
 10
20.77908396329231
 20
25.70904414885285
 30
0.0
 11
20.77908396329231
 21
25.61061895423176
 31
0.0
 12
21.07435954715557
 22
25.6598315515423
 32
0.0
 13
21.07435954715557
 23
25.6598315515423
 33
0.0
  0
MTEXT
  5
319
330
234
100
AcDbEntity
  8
Dimension (ANSI)
440
 16777216
100
AcDbMText
 10
16.11208955192111
 20
25.8472056343387
 30
0.0
 40
0.3600000143051147
 41
0.0
 71
     1
 72
     1
  1
\A1;9.00
  7
Note Text (ANSI)
 73
     1
 44
1.0
  0
POINT
  5
31A
330
234
100
AcDbEntity
  8
Defpoints
 62
     0
440
 16777216
100
AcDbPoint
 10
12.07435954715557
 20
23.50544206173589
 30
0.0
  0
POINT
  5
31B
330
234
100
AcDbEntity
  8
Defpoints
 62
     0
440
 16777216
100
AcDbPoint
 10
21.07435954715557
 20
23.50544206173588
 30
0.0
  0
POINT
  5
31C
330
234
100
AcDbEntity
  8
Defpoints
 62
     0
440
 16777216
100
AcDbPoint
 10
21.07435954715557
 20
25.6598315515423
 30
0.0
  0
ENDBLK
  5
236
330
234
100
AcDbEntity
  8
0
100
AcDbBlockEnd
  0
BLOCK
  5
31F
330
31E
100
AcDbEntity
  8
0
100
AcDbBlockBegin
  2
*D6
 70
     1
 10
0.0
 20
0.0
 30
0.0
  3
*D6
  1

  0
LINE
  5
411
330
31E
100
AcDbEntity
  8
Dimension (ANSI)
440
 16777216
100
AcDbLine
 10
21.07435954715557
 20
23.69294206173588
 30
0.0
 11
21.07435954715557
 21
25.34402893939685
 31
0.0
  0
LINE
  5
412
330
31E
100
AcDbEntity
  8
Dimension (ANSI)
440
 16777216
100
AcDbLine
 10
20.19935954715557
 20
23.47444206173589
 30
0.0
 11
20.19935954715557
 21
25.34402893939685
 31
0.0
  0
LINE
  5
413
330
31E
100
AcDbEntity
  8
Dimension (ANSI)
440
 16777216
100
AcDbLine
 10
19.90408396329231
 20
24.96902893939685
 30
0.0
 11
19.60880837942905
 21
24.96902893939685
 31
0.0
  0
LINE
  5
414
330
31E
100
AcDbEntity
  8
Dimension (ANSI)
440
 16777216
100
AcDbLine
 10
21.36963513101883
 20
24.96902893939685
 30
0.0
 11
22.28562436089594
 21
24.96902893939685
 31
0.0
  0
SOLID
  5
415
330
31E
100
AcDbEntity
  8
Dimension (ANSI)
440
 16777216
100
AcDbTrace
 10
19.90408396329231
 20
25.01824153670739
 30
0.0
 11
19.90408396329231
 21
24.91981634208631
 31
0.0
 12
20.19935954715557
 22
24.96902893939685
 32
0.0
 13
20.19935954715557
 23
24.96902893939685
 33
0.0
  0
SOLID
  5
416
330
31E
100
AcDbEntity
  8
Dimension (ANSI)
440
 16777216
100
AcDbTrace
 10
21.36963513101883
 20
25.01824153670739
 30
0.0
 11
21.36963513101883
 21
24.91981634208631
 31
0.0
 12
21.07435954715557
 22
24.96902893939685
 32
0.0
 13
21.07435954715557
 23
24.96902893939685
 33
0.0
  0
MTEXT
  5
417
330
31E
100
AcDbEntity
  8
Dimension (ANSI)
440
 16777216
100
AcDbMText
 10
22.97269819752905
 20
24.96902893939685
 30
0.0
 40
0.3600000143051147
 41
0.0
 71
     5
 72
     1
  1
\A1;0.875{\PTYP.}
  7
Note Text (ANSI)
 73
     1
 44
1.0
  0
POINT
  5
418
330
31E
100
AcDbEntity
  8
Defpoints
 62
     0
440
 16777216
100
AcDbPoint
 10
21.07435954715557
 20
23.50544206173588
 30
0.0
  0
POINT
  5
419
330
31E
100
AcDbEntity
  8
Defpoints
 62
     0
440
 16777216
100
AcDbPoint
 10
20.19935954715557
 20
23.28694206173588
 30
0.0
  0
POINT
  5
41A
330
31E
100
AcDbEntity
  8
Defpoints
 62
     0
440
 16777216
100
AcDbPoint
 10
20.19935954715557
 20
24.96902893939685
 30
0.0
  0
ENDBLK
  5
320
330
31E
100
AcDbEntity
  8
0
100
AcDbBlockEnd
  0
BLOCK
  5
41D
330
41C
100
AcDbEntity
  8
0
100
AcDbBlockBegin
  2
*D7
 70
     1
 10
0.0
 20
0.0
 30
0.0
  3
*D7
  1

  0
LINE
  5
522
330
41C
100
AcDbEntity
  8
Dimension (ANSI)
440
 16777216
100
AcDbLine
 10
21.26185954715557
 20
23.50544206173588
 30
0.0
 11
24.25993421181604
 21
23.50544206173588
 31
0.0
  0
LINE
  5
523
330
41C
100
AcDbEntity
  8
Dimension (ANSI)
440
 16777216
100
AcDbLine
 10
21.04335954715558
 20
22.63044206173589
 30
0.0
 11
24.25993421181604
 21
22.63044206173588
 31
0.0
  0
LINE
  5
524
330
41C
100
AcDbEntity
  8
Dimension (ANSI)
440
 16777216
100
AcDbLine
 10
23.88493421181604
 20
23.80071764559914
 30
0.0
 11
23.88493421181605
 21
24.0959932294624
 31
0.0
  0
LINE
  5
525
330
41C
100
AcDbEntity
  8
Dimension (ANSI)
440
 16777216
100
AcDbLine
 10
23.88493421181604
 20
22.33516647787263
 30
0.0
 11
23.88493421181604
 21
21.59656760174302
 31
0.0
  0
LINE
  5
526
330
41C
100
AcDbEntity
  8
Dimension (ANSI)
440
 16777216
100
AcDbLine
 10
23.88493421181604
 20
21.59656760174302
 30
0.0
 11
23.58965862795278
 21
21.59656760174302
 31
0.0
  0
SOLID
  5
527
330
41C
100
AcDbEntity
  8
Dimension (ANSI)
440
 16777216
100
AcDbTrace
 10
23.8357216145055
 20
23.80071764559914
 30
0.0
 11
23.93414680912659
 21
23.80071764559914
 31
0.0
 12
23.88493421181604
 22
23.50544206173588
 32
0.0
 13
23.88493421181604
 23
23.50544206173588
 33
0.0
  0
SOLID
  5
528
330
41C
100
AcDbEntity
  8
Dimension (ANSI)
440
 16777216
100
AcDbTrace
 10
23.8357216145055
 20
22.33516647787263
 30
0.0
 11
23.93414680912659
 21
22.33516647787263
 31
0.0
 12
23.88493421181604
 22
22.63044206173589
 32
0.0
 13
23.88493421181604
 23
22.63044206173589
 33
0.0
  0
MTEXT
  5
529
330
41C
100
AcDbEntity
  8
Dimension (ANSI)
440
 16777216
100
AcDbMText
 10
22.30999914366295
 20
21.83862268128377
 30
0.0
 40
0.3600000143051147
 41
0.0
 71
     1
 72
     1
  1
\A1;0.875{\PTYP.}
  7
Note Text (ANSI)
 73
     1
 44
1.0
  0
POINT
  5
52A
330
41C
100
AcDbEntity
  8
Defpoints
 62
     0
440
 16777216
100
AcDbPoint
 10
21.07435954715557
 20
23.50544206173588
 30
0.0
  0
POINT
  5
52B
330
41C
100
AcDbEntity
  8
Defpoints
 62
     0
440
 16777216
100
AcDbPoint
 10
20.85585954715558
 20
22.63044206173589
 30
0.0
  0
POINT
  5
52C
330
41C
100
AcDbEntity
  8
Defpoints
 62
     0
440
 16777216
100
AcDbPoint
 10
23.88493421181604
 20
22.63044206173589
 30
0.0
  0
ENDBLK
  5
41E
330
41C
100
AcDbEntity
  8
0
100
AcDbBlockEnd
  0
BLOCK
  5
52F
330
52E
100
AcDbEntity
  8
0
100
AcDbBlockBegin
  2
*D8
 70
     1
 10
0.0
 20
0.0
 30
0.0
  3
*D8
  1

  0
LINE
  5
5E0
330
52E
100
AcDbEntity
  8
Dimension (ANSI)
440
 16777216
100
AcDbLine
 10
21.75463747420558
 20
9.721597598531253
 30
0.0
 11
21.37025490696823
 21
9.721597598531253
 31
0.0
  0
LINE
  5
5E1
330
52E
100
AcDbEntity
  8
Dimension (ANSI)
440
 16777216
100
AcDbLine
 10
21.37025490696823
 20
9.721597598531253
 30
0.0
 11
20.53196615903454
 21
10.90922776242484
 31
0.0
  0
MTEXT
  5
5E2
102
{ACAD_XDICTIONARY
360
E20
102
}
330
52E
100
AcDbEntity
  8
Dimension (ANSI)
440
 16777216
100
AcDbMText
 10
21.84912566318196
 20
9.993865069362996
 30
0.0
 40
0.3600000143051147
 41
0.0
 71
     1
 72
     1
  1
\A1;\U+22050.563{\P(4 PL.)}
  7
Note Text (ANSI)
 73
     1
 44
1.0
  0
SOLID
  5
5E3
330
52E
100
AcDbEntity
  8
Dimension (ANSI)
440
 16777216
100
AcDbTrace
 10
20.57217188238301
 20
10.93760697214031
 30
0.0
 11
20.49176043568605
 21
10.88084855270936
 31
0.0
 12
20.36169090074166
 22
11.15046210251572
 32
0.0
 13
20.36169090074166
 23
11.15046210251572
 33
0.0
  0
LINE
  5
5E4
330
52E
100
AcDbEntity
  8
Dimension (ANSI)
440
 16777216
100
AcDbLine
 10
19.92935954715557
 20
11.38044206173588
 30
0.0
 11
20.46935954715557
 21
11.38044206173588
 31
0.0
  0
LINE
  5
5E5
330
52E
100
AcDbEntity
  8
Dimension (ANSI)
440
 16777216
100
AcDbLine
 10
20.19935954715557
 20
11.11044206173588
 30
0.0
 11
20.19935954715557
 21
11.65044206173588
 31
0.0
  0
POINT
  5
5E6
330
52E
100
AcDbEntity
  8
Defpoints
 62
     0
440
 16777216
100
AcDbPoint
 10
20.36169090074166
 20
11.15046210251572
 30
0.0
  0
POINT
  5
5E7
330
52E
100
AcDbEntity
  8
Defpoints
 62
     0
440
 16777216
100
AcDbPoint
 10
20.03702819356949
 20
11.61042202095604
 30
0.0
  0
ENDBLK
  5
530
330
52E
100
AcDbEntity
  8
0
100
AcDbBlockEnd
  0
BLOCK
  5
5EA
330
5E9
100
AcDbEntity
  8
0
100
AcDbBlockBegin
  2
*D9
 70
     1
 10
0.0
 20
0.0
 30
0.0
  3
*D9
  1

  0
LINE
  5
699
330
5E9
100
AcDbEntity
  8
Dimension (ANSI)
440
 16777216
100
AcDbLine
 10
16.839204050432
 20
9.524844797044254
 30
0.0
 11
16.46897286018349
 21
9.524844797044252
 31
0.0
  0
LINE
  5
69A
330
5E9
100
AcDbEntity
  8
Dimension (ANSI)
440
 16777216
100
AcDbLine
 10
16.46897286018349
 20
9.524844797044252
 30
0.0
 11
15.23464817744215
 21
11.03207659437063
 31
0.0
  0
MTEXT
  5
69B
102
{ACAD_XDICTIONARY
360
E22
102
}
330
5E9
100
AcDbEntity
  8
Dimension (ANSI)
440
 16777216
100
AcDbMText
 10
16.93369223940838
 20
9.771907431577256
 30
0.0
 40
0.3600000143051147
 41
0.0
 71
     1
 72
     1
  1
\A1;\U+22050.310{\PGROUND HOLE}
  7
Note Text (ANSI)
 73
     1
 44
1.0
  0
SOLID
  5
69C
330
5E9
100
AcDbEntity
  8
Dimension (ANSI)
440
 16777216
100
AcDbTrace
 10
15.27272257027343
 20
11.06325704248446
 30
0.0
 11
15.19657378461087
 21
11.00089614625681
 31
0.0
 12
15.0475654887592
 22
11.26052295135832
 32
0.0
 13
15.0475654887592
 23
11.26052295135832
 33
0.0
  0
LINE
  5
69D
330
5E9
100
AcDbEntity
  8
Dimension (ANSI)
440
 16777216
100
AcDbLine
 10
14.67935954715556
 20
11.38044206173587
 30
0.0
 11
15.21935954715556
 21
11.38044206173587
 31
0.0
  0
LINE
  5
69E
330
5E9
100
AcDbEntity
  8
Dimension (ANSI)
440
 16777216
100
AcDbLine
 10
14.94935954715556
 20
11.11044206173587
 30
0.0
 11
14.94935954715556
 21
11.65044206173587
 31
0.0
  0
POINT
  5
69F
330
5E9
100
AcDbEntity
  8
Defpoints
 62
     0
440
 16777216
100
AcDbPoint
 10
15.0475654887592
 20
11.26052295135832
 30
0.0
  0
POINT
  5
6A0
330
5E9
100
AcDbEntity
  8
Defpoints
 62
     0
440
 16777216
100
AcDbPoint
 10
14.85115360555192
 20
11.50036117211341
 30
0.0
  0
ENDBLK
  5
5EB
330
5E9
100
AcDbEntity
  8
0
100
AcDbBlockEnd
  0
BLOCK
  5
6A3
330
6A2
100
AcDbEntity
  8
0
100
AcDbBlockBegin
  2
*D10
 70
     1
 10
0.0
 20
0.0
 30
0.0
  3
*D10
  1

  0
LINE
  5
79F
330
6A2
100
AcDbEntity
  8
Dimension (ANSI)
440
 16777216
100
AcDbLine
 10
30.81873660288775
 20
23.69294206173588
 30
0.0
 11
30.81873660288775
 21
25.0615444239406
 31
0.0
  0
LINE
  5
7A0
330
6A2
100
AcDbEntity
  8
Dimension (ANSI)
440
 16777216
100
AcDbLine
 10
30.89273660288775
 20
23.69294206173588
 30
0.0
 11
30.89273660288775
 21
25.0615444239406
 31
0.0
  0
LINE
  5
7A1
330
6A2
100
AcDbEntity
  8
Dimension (ANSI)
440
 16777216
100
AcDbLine
 10
31.18801218675101
 20
24.6865444239406
 30
0.0
 11
31.48328777061427
 21
24.6865444239406
 31
0.0
  0
LINE
  5
7A2
330
6A2
100
AcDbEntity
  8
Dimension (ANSI)
440
 16777216
100
AcDbLine
 10
30.5234610190245
 20
24.6865444239406
 30
0.0
 11
29.65505286045003
 21
24.6865444239406
 31
0.0
  0
SOLID
  5
7A3
330
6A2
100
AcDbEntity
  8
Dimension (ANSI)
440
 16777216
100
AcDbTrace
 10
31.18801218675101
 20
24.73575702125114
 30
0.0
 11
31.18801218675101
 21
24.63733182663006
 31
0.0
 12
30.89273660288775
 22
24.6865444239406
 32
0.0
 13
30.89273660288775
 23
24.6865444239406
 33
0.0
  0
SOLID
  5
7A4
330
6A2
100
AcDbEntity
  8
Dimension (ANSI)
440
 16777216
100
AcDbTrace
 10
30.5234610190245
 20
24.73575702125114
 30
0.0
 11
30.5234610190245
 21
24.63733182663006
 31
0.0
 12
30.81873660288775
 22
24.6865444239406
 32
0.0
 13
30.81873660288775
 23
24.6865444239406
 33
0.0
  0
MTEXT
  5
7A5
330
6A2
100
AcDbEntity
  8
Dimension (ANSI)
440
 16777216
100
AcDbMText
 10
28.19019525045434
 20
24.6865444239406
 30
0.0
 40
0.3600000143051147
 41
0.0
 71
     5
 72
     1
  1
\A1;{14 GA. C.R.S\P}(0.074)
  7
Note Text (ANSI)
 73
     1
 44
1.0
  0
POINT
  5
7A6
330
6A2
100
AcDbEntity
  8
Defpoints
 62
     0
440
 16777216
100
AcDbPoint
 10
30.81873660288775
 20
23.50544206173588
 30
0.0
  0
POINT
  5
7A7
330
6A2
100
AcDbEntity
  8
Defpoints
 62
     0
440
 16777216
100
AcDbPoint
 10
30.89273660288775
 20
23.50544206173588
 30
0.0
  0
POINT
  5
7A8
330
6A2
100
AcDbEntity
  8
Defpoints
 62
     0
440
 16777216
100
AcDbPoint
 10
30.89273660288775
 20
24.6865444239406
 30
0.0
  0
ENDBLK
  5
6A4
330
6A2
100
AcDbEntity
  8
0
100
AcDbBlockEnd
  0
BLOCK
  5
7AB
330
7AA
100
AcDbEntity
  8
0
100
AcDbBlockBegin
  2
*D11
 70
     1
 10
0.0
 20
0.0
 30
0.0
  3
*D11
  1

  0
LINE
  5
889
330
7AA
100
AcDbEntity
  8
Dimension (ANSI)
440
 16777216
100
AcDbLine
 10
12.10535954715557
 20
11.38044206173588
 30
0.0
 11
10.02809576762801
 21
11.38044206173588
 31
0.0
  0
LINE
  5
88A
330
7AA
100
AcDbEntity
  8
Dimension (ANSI)
440
 16777216
100
AcDbLine
 10
12.10535954715557
 20
22.63044206173589
 30
0.0
 11
10.02809576762802
 21
22.63044206173589
 31
0.0
  0
LINE
  5
88B
330
7AA
100
AcDbEntity
  8
Dimension (ANSI)
440
 16777216
100
AcDbLine
 10
10.40309576762801
 20
11.67571764559914
 30
0.0
 11
10.40309576762801
 21
16.72345890345807
 31
0.0
  0
LINE
  5
88C
330
7AA
100
AcDbEntity
  8
Dimension (ANSI)
440
 16777216
100
AcDbLine
 10
10.40309576762802
 20
22.33516647787263
 30
0.0
 11
10.40309576762801
 21
17.28742522001368
 31
0.0
  0
SOLID
  5
88D
330
7AA
100
AcDbEntity
  8
Dimension (ANSI)
440
 16777216
100
AcDbTrace
 10
10.35388317031747
 20
11.67571764559914
 30
0.0
 11
10.45230836493856
 21
11.67571764559914
 31
0.0
 12
10.40309576762801
 22
11.38044206173588
 32
0.0
 13
10.40309576762801
 23
11.38044206173588
 33
0.0
  0
SOLID
  5
88E
330
7AA
100
AcDbEntity
  8
Dimension (ANSI)
440
 16777216
100
AcDbTrace
 10
10.35388317031747
 20
22.33516647787263
 30
0.0
 11
10.45230836493856
 21
22.33516647787263
 31
0.0
 12
10.40309576762802
 22
22.63044206173589
 32
0.0
 13
10.40309576762802
 23
22.63044206173589
 33
0.0
  0
MTEXT
  5
88F
330
7AA
100
AcDbEntity
  8
Dimension (ANSI)
440
 16777216
100
AcDbMText
 10
9.689744501446387
 20
17.19293703103731
 30
0.0
 40
0.3600000143051147
 41
0.0
 71
     1
 72
     1
  1
\A1;11.250
  7
Note Text (ANSI)
 73
     1
 44
1.0
  0
POINT
  5
890
330
7AA
100
AcDbEntity
  8
Defpoints
 62
     0
440
 16777216
100
AcDbPoint
 10
12.29285954715557
 20
11.38044206173588
 30
0.0
  0
POINT
  5
891
330
7AA
100
AcDbEntity
  8
Defpoints
 62
     0
440
 16777216
100
AcDbPoint
 10
12.29285954715557
 20
22.63044206173589
 30
0.0
  0
POINT
  5
892
330
7AA
100
AcDbEntity
  8
Defpoints
 62
     0
440
 16777216
100
AcDbPoint
 10
10.40309576762802
 20
22.63044206173589
 30
0.0
  0
ENDBLK
  5
7AC
330
7AA
100
AcDbEntity
  8
0
100
AcDbBlockEnd
  0
BLOCK
  5
895
330
894
100
AcDbEntity
  8
0
100
AcDbBlockBegin
  2
*D12
 70
     1
 10
0.0
 20
0.0
 30
0.0
  3
*D12
  1

  0
LINE
  5
973
330
894
100
AcDbEntity
  8
Dimension (ANSI)
440
 16777216
100
AcDbLine
 10
12.94935954715557
 20
23.47444206173589
 30
0.0
 11
12.94935954715557
 21
25.34402893939685
 31
0.0
  0
LINE
  5
974
330
894
100
AcDbEntity
  8
Dimension (ANSI)
440
 16777216
100
AcDbLine
 10
20.19935954715557
 20
23.47444206173589
 30
0.0
 11
20.19935954715557
 21
25.34402893939685
 31
0.0
  0
LINE
  5
975
330
894
100
AcDbEntity
  8
Dimension (ANSI)
440
 16777216
100
AcDbLine
 10
13.24463513101883
 20
24.96902893939685
 30
0.0
 11
15.88631861848223
 21
24.96902893939685
 31
0.0
  0
LINE
  5
976
330
894
100
AcDbEntity
  8
Dimension (ANSI)
440
 16777216
100
AcDbLine
 10
19.90408396329231
 20
24.96902893939685
 30
0.0
 11
17.26240047582891
 21
24.96902893939685
 31
0.0
  0
SOLID
  5
977
330
894
100
AcDbEntity
  8
Dimension (ANSI)
440
 16777216
100
AcDbTrace
 10
13.24463513101883
 20
25.01824153670739
 30
0.0
 11
13.24463513101883
 21
24.91981634208631
 31
0.0
 12
12.94935954715557
 22
24.96902893939685
 32
0.0
 13
12.94935954715557
 23
24.96902893939685
 33
0.0
  0
SOLID
  5
978
330
894
100
AcDbEntity
  8
Dimension (ANSI)
440
 16777216
100
AcDbTrace
 10
19.90408396329231
 20
25.01824153670739
 30
0.0
 11
19.90408396329231
 21
24.91981634208631
 31
0.0
 12
20.19935954715557
 22
24.96902893939685
 32
0.0
 13
20.19935954715557
 23
24.96902893939685
 33
0.0
  0
MTEXT
  5
979
330
894
100
AcDbEntity
  8
Dimension (ANSI)
440
 16777216
100
AcDbMText
 10
15.98080680745861
 20
25.15652390869827
 30
0.0
 40
0.3600000143051147
 41
0.0
 71
     1
 72
     1
  1
\A1;7.250
  7
Note Text (ANSI)
 73
     1
 44
1.0
  0
POINT
  5
97A
330
894
100
AcDbEntity
  8
Defpoints
 62
     0
440
 16777216
100
AcDbPoint
 10
12.94935954715557
 20
23.28694206173588
 30
0.0
  0
POINT
  5
97B
330
894
100
AcDbEntity
  8
Defpoints
 62
     0
440
 16777216
100
AcDbPoint
 10
20.19935954715557
 20
23.28694206173588
 30
0.0
  0
POINT
  5
97C
330
894
100
AcDbEntity
  8
Defpoints
 62
     0
440
 16777216
100
AcDbPoint
 10
20.19935954715557
 20
24.96902893939685
 30
0.0
  0
ENDBLK
  5
896
330
894
100
AcDbEntity
  8
0
100
AcDbBlockEnd
  0
BLOCK
  5
97F
330
97E
100
AcDbEntity
  8
0
100
AcDbBlockBegin
  2
*D13
 70
     1
 10
0.0
 20
0.0
 30
0.0
  3
*D13
  1

  0
LINE
  5
A5D
330
97E
100
AcDbEntity
  8
Dimension (ANSI)
440
 16777216
100
AcDbLine
 10
12.94935954715557
 20
10.53644206173588
 30
0.0
 11
12.94935954715557
 21
8.990678282208321
 31
0.0
  0
LINE
  5
A5E
330
97E
100
AcDbEntity
  8
Dimension (ANSI)
440
 16777216
100
AcDbLine
 10
14.94935954715557
 20
10.66294206173588
 30
0.0
 11
14.94935954715557
 21
8.990678282208321
 31
0.0
  0
LINE
  5
A5F
330
97E
100
AcDbEntity
  8
Dimension (ANSI)
440
 16777216
100
AcDbLine
 10
12.65408396329231
 20
9.365678282208321
 30
0.0
 11
12.35880837942905
 21
9.365678282208321
 31
0.0
  0
LINE
  5
A60
330
97E
100
AcDbEntity
  8
Dimension (ANSI)
440
 16777216
100
AcDbLine
 10
15.24463513101883
 20
9.365678282208321
 30
0.0
 11
15.53991071488209
 21
9.365678282208321
 31
0.0
  0
SOLID
  5
A61
330
97E
100
AcDbEntity
  8
Dimension (ANSI)
440
 16777216
100
AcDbTrace
 10
12.65408396329231
 20
9.414890879518864
 30
0.0
 11
12.65408396329231
 21
9.316465684897778
 31
0.0
 12
12.94935954715557
 22
9.365678282208321
 32
0.0
 13
12.94935954715557
 23
9.365678282208321
 33
0.0
  0
SOLID
  5
A62
330
97E
100
AcDbEntity
  8
Dimension (ANSI)
440
 16777216
100
AcDbTrace
 10
15.24463513101883
 20
9.414890879518864
 30
0.0
 11
15.24463513101883
 21
9.316465684897778
 31
0.0
 12
14.94935954715557
 22
9.365678282208321
 32
0.0
 13
14.94935954715557
 23
9.365678282208321
 33
0.0
  0
MTEXT
  5
A63
330
97E
100
AcDbEntity
  8
Dimension (ANSI)
440
 16777216
100
AcDbMText
 10
13.35701567250891
 20
9.553173251509745
 30
0.0
 40
0.3600000143051147
 41
0.0
 71
     1
 72
     1
  1
\A1;2.000
  7
Note Text (ANSI)
 73
     1
 44
1.0
  0
POINT
  5
A64
330
97E
100
AcDbEntity
  8
Defpoints
 62
     0
440
 16777216
100
AcDbPoint
 10
12.94935954715557
 20
10.72394206173588
 30
0.0
  0
POINT
  5
A65
330
97E
100
AcDbEntity
  8
Defpoints
 62
     0
440
 16777216
100
AcDbPoint
 10
14.94935954715557
 20
10.85044206173588
 30
0.0
  0
POINT
  5
A66
330
97E
100
AcDbEntity
  8
Defpoints
 62
     0
440
 16777216
100
AcDbPoint
 10
14.94935954715557
 20
9.365678282208321
 30
0.0
  0
ENDBLK
  5
980
330
97E
100
AcDbEntity
  8
0
100
AcDbBlockEnd
  0
BLOCK
  5
B02
330
B01
100
AcDbEntity
  8
0
100
AcDbBlockBegin
  2
*D14
 70
     1
 10
0.0
 20
0.0
 30
0.0
  3
*D14
  1

  0
LINE
  5
BFE
330
B01
100
AcDbEntity
  8
Dimension (ANSI)
440
 16777216
100
AcDbLine
 10
43.79484769308797
 20
12.07014214223832
 30
0.0
 11
43.79484769308797
 21
14.85606733908872
 31
0.0
  0
LINE
  5
BFF
330
B01
100
AcDbEntity
  8
Dimension (ANSI)
440
 16777216
100
AcDbLine
 10
44.29484769308797
 20
12.07014214223832
 30
0.0
 11
44.29484769308797
 21
14.85606733908872
 31
0.0
  0
LINE
  5
C00
330
B01
100
AcDbEntity
  8
Dimension (ANSI)
440
 16777216
100
AcDbLine
 10
44.59012327695123
 20
14.48106733908872
 30
0.0
 11
44.88539886081449
 21
14.48106733908872
 31
0.0
  0
LINE
  5
C01
330
B01
100
AcDbEntity
  8
Dimension (ANSI)
440
 16777216
100
AcDbLine
 10
43.49957210922471
 20
14.48106733908872
 30
0.0
 11
42.26373114456975
 21
14.48106733908872
 31
0.0
  0
SOLID
  5
C02
330
B01
100
AcDbEntity
  8
Dimension (ANSI)
440
 16777216
100
AcDbTrace
 10
44.59012327695123
 20
14.53027993639926
 30
0.0
 11
44.59012327695123
 21
14.43185474177817
 31
0.0
 12
44.29484769308797
 22
14.48106733908872
 32
0.0
 13
44.29484769308797
 23
14.48106733908872
 33
0.0
  0
SOLID
  5
C03
330
B01
100
AcDbEntity
  8
Dimension (ANSI)
440
 16777216
100
AcDbTrace
 10
43.49957210922471
 20
14.53027993639926
 30
0.0
 11
43.49957210922471
 21
14.43185474177817
 31
0.0
 12
43.79484769308797
 22
14.48106733908872
 32
0.0
 13
43.79484769308797
 23
14.48106733908872
 33
0.0
  0
MTEXT
  5
C04
330
B01
100
AcDbEntity
  8
Dimension (ANSI)
440
 16777216
100
AcDbMText
 10
41.57375603181593
 20
14.48106733908872
 30
0.0
 40
0.3600000143051147
 41
0.0
 71
     5
 72
     1
  1
\A1;0.250{\PTYP.}
  7
Note Text (ANSI)
 73
     1
 44
1.0
  0
POINT
  5
C05
330
B01
100
AcDbEntity
  8
Defpoints
 62
     0
440
 16777216
100
AcDbPoint
 10
43.79484769308797
 20
11.88264214223832
 30
0.0
  0
POINT
  5
C06
330
B01
100
AcDbEntity
  8
Defpoints
 62
     0
440
 16777216
100
AcDbPoint
 10
44.29484769308797
 20
11.88264214223832
 30
0.0
  0
POINT
  5
C07
330
B01
100
AcDbEntity
  8
Defpoints
 62
     0
440
 16777216
100
AcDbPoint
 10
44.29484769308797
 20
14.48106733908872
 30
0.0
  0
ENDBLK
  5
B03
330
B01
100
AcDbEntity
  8
0
100
AcDbBlockEnd
  0
BLOCK
  5
C0A
330
C09
100
AcDbEntity
  8
0
100
AcDbBlockBegin
  2
*D15
 70
     1
 10
0.0
 20
0.0
 30
0.0
  3
*D15
  1

  0
LINE
  5
D1C
330
C09
100
AcDbEntity
  8
Dimension (ANSI)
440
 16777216
100
AcDbLine
 10
43.60734769308797
 20
11.88264214223832
 30
0.0
 11
40.32003370788052
 21
11.88264214223832
 31
0.0
  0
LINE
  5
D1D
330
C09
100
AcDbEntity
  8
Dimension (ANSI)
440
 16777216
100
AcDbLine
 10
43.60734769308797
 20
11.38264214223832
 30
0.0
 11
40.32003370788052
 21
11.38264214223832
 31
0.0
  0
LINE
  5
D1E
330
C09
100
AcDbEntity
  8
Dimension (ANSI)
440
 16777216
100
AcDbLine
 10
40.69503370788051
 20
11.08736655837507
 30
0.0
 11
40.69503370788051
 21
10.79209097451181
 31
0.0
  0
LINE
  5
D1F
330
C09
100
AcDbEntity
  8
Dimension (ANSI)
440
 16777216
100
AcDbLine
 10
40.69503370788051
 20
12.17791772610158
 30
0.0
 11
40.69503370788051
 21
13.14613018095952
 31
0.0
  0
LINE
  5
D20
330
C09
100
AcDbEntity
  8
Dimension (ANSI)
440
 16777216
100
AcDbLine
 10
40.69503370788051
 20
13.14613018095952
 30
0.0
 11
40.99030929174378
 21
13.14613018095952
 31
0.0
  0
SOLID
  5
D21
330
C09
100
AcDbEntity
  8
Dimension (ANSI)
440
 16777216
100
AcDbTrace
 10
40.64582111056997
 20
11.08736655837507
 30
0.0
 11
40.74424630519106
 21
11.08736655837507
 31
0.0
 12
40.69503370788051
 22
11.38264214223832
 32
0.0
 13
40.69503370788051
 23
11.38264214223832
 33
0.0
  0
SOLID
  5
D22
330
C09
100
AcDbEntity
  8
Dimension (ANSI)
440
 16777216
100
AcDbTrace
 10
40.64582111056997
 20
12.17791772610158
 30
0.0
 11
40.74424630519106
 21
12.17791772610158
 31
0.0
 12
40.69503370788051
 22
11.88264214223832
 32
0.0
 13
40.69503370788051
 23
11.88264214223832
 33
0.0
  0
MTEXT
  5
D23
330
C09
100
AcDbEntity
  8
Dimension (ANSI)
440
 16777216
100
AcDbMText
 10
41.68028440449759
 20
13.14613018095952
 30
0.0
 40
0.3600000143051147
 41
0.0
 71
     5
 72
     1
  1
\A1;0.250{\PTYP.}
  7
Note Text (ANSI)
 73
     1
 44
1.0
  0
POINT
  5
D24
330
C09
100
AcDbEntity
  8
Defpoints
 62
     0
440
 16777216
100
AcDbPoint
 10
43.79484769308797
 20
11.88264214223832
 30
0.0
  0
POINT
  5
D25
330
C09
100
AcDbEntity
  8
Defpoints
 62
     0
440
 16777216
100
AcDbPoint
 10
43.79484769308797
 20
11.38264214223832
 30
0.0
  0
POINT
  5
D26
330
C09
100
AcDbEntity
  8
Defpoints
 62
     0
440
 16777216
100
AcDbPoint
 10
40.69503370788051
 20
11.38264214223832
 30
0.0
  0
ENDBLK
  5
C0B
330
C09
100
AcDbEntity
  8
0
100
AcDbBlockEnd
  0
BLOCK
  5
D29
330
D28
100
AcDbEntity
  8
0
100
AcDbBlockBegin
  2
*D16
 70
     1
 10
0.0
 20
0.0
 30
0.0
  3
*D16
  1

  0
LINE
  5
DC9
330
D28
100
AcDbEntity
  8
Dimension (ANSI)
440
 16777216
100
AcDbLine
 10
46.37850878171024
 20
13.11637100442615
 30
0.0
 11
46.00714138377945
 21
13.11637100442615
 31
0.0
  0
LINE
  5
DCA
330
D28
100
AcDbEntity
  8
Dimension (ANSI)
440
 16777216
100
AcDbLine
 10
46.00714138377945
 20
13.11637100442615
 30
0.0
 11
45.50748548501968
 21
12.25094160147313
 31
0.0
  0
MTEXT
  5
DCB
102
{ACAD_XDICTIONARY
360
E24
102
}
330
D28
100
AcDbEntity
  8
Dimension (ANSI)
440
 16777216
100
AcDbMText
 10
47.27294585313025
 20
13.11637100442616
 30
0.0
 40
0.3600000143051147
 41
0.0
 71
     5
 72
     1
  1
\A1;{\fAIGDT|b0|i0;\H0.3600;\ln\fTahoma|b0|i0;\H0.3600;}0.130{\fTahoma|b0|i0;\H0.3600;\U+F8FA\fTahoma|b0|i0;\H0.3600;TYP.}
  7
Note Text (ANSI)
 73
     1
 44
1.0
  0
SOLID
  5
DCC
330
D28
100
AcDbEntity
  8
Dimension (ANSI)
440
 16777216
100
AcDbTrace
 10
45.46486612556255
 20
12.27554790012841
 30
0.0
 11
45.55010484447682
 21
12.22633530281785
 31
0.0
 12
45.359847693088
 22
11.99522544473029
 32
0.0
 13
45.359847693088
 23
11.99522544473029
 33
0.0
  0
LINE
  5
DCD
330
D28
100
AcDbEntity
  8
Dimension (ANSI)
440
 16777216
100
AcDbLine
 10
45.02484769308798
 20
11.88264214223832
 30
0.0
 11
45.56484769308799
 21
11.88264214223832
 31
0.0
  0
LINE
  5
DCE
330
D28
100
AcDbEntity
  8
Dimension (ANSI)
440
 16777216
100
AcDbLine
 10
45.29484769308798
 20
11.61264214223833
 30
0.0
 11
45.29484769308798
 21
12.15264214223833
 31
0.0
  0
POINT
  5
DCF
330
D28
100
AcDbEntity
  8
Defpoints
 62
     0
440
 16777216
100
AcDbPoint
 10
45.359847693088
 20
11.99522544473029
 30
0.0
  0
POINT
  5
DD0
330
D28
100
AcDbEntity
  8
Defpoints
 62
     0
440
 16777216
100
AcDbPoint
 10
45.22984769308796
 20
11.77005883974636
 30
0.0
  0
ENDBLK
  5
D2A
330
D28
100
AcDbEntity
  8
0
100
AcDbBlockEnd
  0
ENDSEC
  0
SECTION
  2
ENTITIES
  0
CIRCLE
  5
11B
330
6C
100
AcDbEntity
  8
Visible (ANSI)
100
AcDbCircle
 10
14.94935954715557
 20
11.38044206173588
 30
0.0
 40
0.155
  0
CIRCLE
  5
11C
330
6C
100
AcDbEntity
  8
Visible (ANSI)
100
AcDbCircle
 10
20.19935954715557
 20
22.63044206173589
 30
0.0
 40
0.2814999999999999
  0
CIRCLE
  5
11D
330
6C
100
AcDbEntity
  8
Visible (ANSI)
100
AcDbCircle
 10
20.19935954715557
 20
11.38044206173588
 30
0.0
 40
0.2814999999999999
  0
CIRCLE
  5
11E
330
6C
100
AcDbEntity
  8
Visible (ANSI)
100
AcDbCircle
 10
12.94935954715557
 20
11.38044206173588
 30
0.0
 40
0.2814999999999999
  0
CIRCLE
  5
11F
330
6C
100
AcDbEntity
  8
Visible (ANSI)
100
AcDbCircle
 10
12.94935954715557
 20
22.63044206173589
 30
0.0
 40
0.2814999999999999
  0
LINE
  5
120
330
6C
100
AcDbEntity
  8
Visible (ANSI)
100
AcDbLine
 10
12.07435954715557
 20
10.50544206173588
 30
0.0
 11
12.07435954715557
 21
23.50544206173589
 31
0.0
  0
LINE
  5
121
330
6C
100
AcDbEntity
  8
Visible (ANSI)
100
AcDbLine
 10
12.07435954715557
 20
23.50544206173589
 30
0.0
 11
21.07435954715557
 21
23.50544206173588
 31
0.0
  0
LINE
  5
122
330
6C
100
AcDbEntity
  8
Visible (ANSI)
100
AcDbLine
 10
21.07435954715557
 20
23.50544206173588
 30
0.0
 11
21.07435954715558
 21
10.50544206173588
 31
0.0
  0
LINE
  5
123
330
6C
100
AcDbEntity
  8
Visible (ANSI)
100
AcDbLine
 10
21.07435954715558
 20
10.50544206173588
 30
0.0
 11
12.07435954715557
 21
10.50544206173588
 31
0.0
  0
MTEXT
  5
125
330
6C
100
AcDbEntity
  8
Symbol (ANSI)
100
AcDbMText
 10
15.26554000591767
 20
6.845289484035879
 30
0.0
 40
0.3600000044492286
 41
0.0
 71
     7
 72
     1
  1
FRONT VIEW
  7
Text Style166
 73
     1
 44
1.0
  0
LINE
  5
127
330
6C
100
AcDbEntity
  8
Symbol (ANSI)
370
    30
100
AcDbLine
 10
15.22953991331251
 20
6.771874571911208
 30
0.0
 11
18.12383492616955
 21
6.771874571911208
 31
0.0
  0
LINE
  5
128
330
6C
100
AcDbEntity
  8
Visible (ANSI)
100
AcDbLine
 10
30.89273660288775
 20
23.50544206173588
 30
0.0
 11
30.81873660288775
 21
23.50544206173588
 31
0.0
  0
LINE
  5
129
330
6C
100
AcDbEntity
  8
Visible (ANSI)
100
AcDbLine
 10
30.81873660288775
 20
23.50544206173588
 30
0.0
 11
30.81873660288775
 21
10.50544206173588
 31
0.0
  0
LINE
  5
12A
330
6C
100
AcDbEntity
  8
Visible (ANSI)
100
AcDbLine
 10
30.89273660288775
 20
10.50544206173588
 30
0.0
 11
30.81873660288775
 21
10.50544206173588
 31
0.0
  0
LINE
  5
12B
330
6C
100
AcDbEntity
  8
Visible (ANSI)
100
AcDbLine
 10
30.89273660288775
 20
10.50544206173588
 30
0.0
 11
30.89273660288775
 21
23.50544206173588
 31
0.0
  0
LINE
  5
12C
330
6C
100
AcDbEntity
  8
Hidden (ANSI)
 48
0.0468825176358223
100
AcDbLine
 10
30.81873660288593
 20
11.53544206173588
 30
0.0
 11
30.89273660288593
 21
11.53544206173588
 31
0.0
  0
LINE
  5
12D
330
6C
100
AcDbEntity
  8
Hidden (ANSI)
 48
0.0468825176358223
100
AcDbLine
 10
30.81873660288593
 20
11.22544206173588
 30
0.0
 11
30.89273660288593
 21
11.22544206173588
 31
0.0
  0
LINE
  5
12E
330
6C
100
AcDbEntity
  8
Hidden (ANSI)
 48
0.0468825176358223
100
AcDbLine
 10
30.89273660288749
 20
22.34894206173588
 30
0.0
 11
30.81873660288749
 21
22.34894206173588
 31
0.0
  0
LINE
  5
12F
330
6C
100
AcDbEntity
  8
Hidden (ANSI)
 48
0.0468825176358223
100
AcDbLine
 10
30.89273660288749
 20
22.91194206173588
 30
0.0
 11
30.81873660288749
 21
22.91194206173588
 31
0.0
  0
LINE
  5
130
330
6C
100
AcDbEntity
  8
Hidden (ANSI)
 48
0.0468825176358223
100
AcDbLine
 10
30.89273660288749
 20
11.09894206173588
 30
0.0
 11
30.81873660288749
 21
11.09894206173588
 31
0.0
  0
LINE
  5
131
330
6C
100
AcDbEntity
  8
Hidden (ANSI)
 48
0.0468825176358223
100
AcDbLine
 10
30.89273660288749
 20
11.66194206173588
 30
0.0
 11
30.81873660288749
 21
11.66194206173588
 31
0.0
  0
MTEXT
  5
132
330
6C
100
AcDbEntity
  8
Symbol (ANSI)
100
AcDbMText
 10
29.60533305926523
 20
7.030870424382573
 30
0.0
 40
0.3600000044492286
 41
0.0
 71
     7
 72
     1
  1
SIDE VIEW
  7
Text Style166
 73
     1
 44
1.0
  0
LINE
  5
133
330
6C
100
AcDbEntity
  8
Symbol (ANSI)
370
    30
100
AcDbLine
 10
29.58690101185138
 20
6.956288575888452
 30
0.0
 11
32.01967247306786
 21
6.956288575888452
 31
0.0
  0
ELLIPSE
  5
134
330
6C
100
AcDbEntity
  8
Visible (ANSI)
100
AcDbEllipse
 10
43.9352882558789
 20
18.50049528800228
 30
0.0
 11
-0.0773499927955828
 21
0.1343204326025019
 31
0.0
210
0.0
220
0.0
230
1.0
 40
0.578093115915809
 41
0.3436602396192753
 42
2.797932413970574
  0
ELLIPSE
  5
135
330
6C
100
AcDbEntity
  8
Visible (ANSI)
100
AcDbEllipse
 10
43.8829623540711
 20
18.47036280518165
 30
0.0
 11
-0.0773499927955828
 21
0.1343204326025019
 31
0.0
210
0.0
220
0.0
230
0.9999999999999998
 40
0.578093115915809
 41
0.0
 42
6.283185307179586
  0
ELLIPSE
  5
136
330
6C
100
AcDbEntity
  8
Visible (ANSI)
100
AcDbEllipse
 10
47.59527295530104
 20
25.52999046225073
 30
0.0
 11
-0.1404775675610101
 21
0.2439432372748665
 31
0.0
210
0.0
220
0.0
230
1.0
 40
0.578093115915809
 41
0.0
 42
6.283185307179586
  0
ELLIPSE
  5
137
330
6C
100
AcDbEntity
  8
Visible (ANSI)
100
AcDbEllipse
 10
47.64759885710883
 20
25.56012294507137
 30
0.0
 11
-0.1404775675610102
 21
0.2439432372748666
 31
0.0
210
0.0
220
0.0
230
1.0
 40
0.578093115915809
 41
0.186605113131062
 42
2.954987540458767
  0
ELLIPSE
  5
138
330
6C
100
AcDbEntity
  8
Visible (ANSI)
100
AcDbEllipse
 10
47.59527295530102
 20
16.33258530777219
 30
0.0
 11
-0.1404775675610101
 21
0.2439432372748665
 31
0.0
210
0.0
220
0.0
230
1.0
 40
0.578093115915809
 41
0.0
 42
6.283185307179586
  0
ELLIPSE
  5
139
330
6C
100
AcDbEntity
  8
Visible (ANSI)
100
AcDbEllipse
 10
47.64759885710882
 20
16.36271779059283
 30
0.0
 11
-0.14047756756101
 21
0.2439432372748663
 31
0.0
210
0.0
220
0.0
230
1.0
 40
0.578093115915809
 41
0.1866051131310774
 42
2.954987540458772
  0
ELLIPSE
  5
13A
330
6C
100
AcDbEntity
  8
Visible (ANSI)
100
AcDbEllipse
 10
42.46874879169779
 20
19.28475423276621
 30
0.0
 11
-0.1404775675610101
 21
0.2439432372748665
 31
0.0
210
0.0
220
0.0
230
1.0
 40
0.578093115915809
 41
0.0
 42
6.283185307179586
  0
ELLIPSE
  5
13B
330
6C
100
AcDbEntity
  8
Visible (ANSI)
100
AcDbEllipse
 10
42.52107469350558
 20
19.31488671558684
 30
0.0
 11
-0.1404775675610101
 21
0.2439432372748666
 31
0.0
210
0.0
220
0.0
230
1.0
 40
0.578093115915809
 41
0.1866051131310216
 42
2.95498754045872
  0
ELLIPSE
  5
13C
330
6C
100
AcDbEntity
  8
Visible (ANSI)
100
AcDbEllipse
 10
42.46874879169781
 20
28.48215938724475
 30
0.0
 11
-0.1404775675610101
 21
0.2439432372748665
 31
0.0
210
0.0
220
0.0
230
1.0
 40
0.578093115915809
 41
0.0
 42
6.283185307179586
  0
ELLIPSE
  5
13D
330
6C
100
AcDbEntity
  8
Visible (ANSI)
100
AcDbEllipse
 10
42.52107469350561
 20
28.51229187006538
 30
0.0
 11
-0.1404775675610099
 21
0.2439432372748661
 31
0.0
210
0.0
220
0.0
230
0.9999999999999998
 40
0.578093115915809
 41
0.1866051131310215
 42
2.95498754045872
  0
LINE
  5
13E
330
6C
100
AcDbEntity
  8
Visible (ANSI)
100
AcDbLine
 10
41.85003035815947
 20
18.92569674809722
 30
0.0
 11
41.8500303581595
 21
29.55380937105021
 31
0.0
  0
LINE
  5
13F
330
6C
100
AcDbEntity
  8
Visible (ANSI)
100
AcDbLine
 10
41.9023562599673
 20
29.58394185387085
 30
0.0
 11
41.8500303581595
 21
29.55380937105021
 31
0.0
  0
LINE
  5
140
330
6C
100
AcDbEntity
  8
Visible (ANSI)
100
AcDbLine
 10
41.8500303581595
 20
29.55380937105021
 30
0.0
 11
48.21399138883936
 21
25.8890479469197
 31
0.0
  0
LINE
  5
141
330
6C
100
AcDbEntity
  8
Visible (ANSI)
100
AcDbLine
 10
48.26631729064716
 20
25.91918042974035
 30
0.0
 11
48.21399138883936
 21
25.8890479469197
 31
0.0
  0
LINE
  5
142
330
6C
100
AcDbEntity
  8
Visible (ANSI)
100
AcDbLine
 10
48.26631729064716
 20
25.91918042974035
 30
0.0
 11
41.9023562599673
 21
29.58394185387085
 31
0.0
  0
LINE
  5
143
330
6C
100
AcDbEntity
  8
Visible (ANSI)
100
AcDbLine
 10
48.21399138883936
 20
25.8890479469197
 30
0.0
 11
48.21399138883934
 21
15.26093532396673
 31
0.0
  0
LINE
  5
144
330
6C
100
AcDbEntity
  8
Visible (ANSI)
100
AcDbLine
 10
48.26631729064714
 20
15.29106780678736
 30
0.0
 11
48.21399138883934
 21
15.26093532396673
 31
0.0
  0
LINE
  5
145
330
6C
100
AcDbEntity
  8
Visible (ANSI)
100
AcDbLine
 10
48.26631729064714
 20
15.29106780678736
 30
0.0
 11
48.26631729064716
 21
25.91918042974035
 31
0.0
  0
LINE
  5
146
330
6C
100
AcDbEntity
  8
Visible (ANSI)
100
AcDbLine
 10
48.21399138883934
 20
15.26093532396673
 30
0.0
 11
41.85003035815947
 21
18.92569674809722
 31
0.0
  0
DIMENSION
  5
147
330
6C
100
AcDbEntity
  8
Dimension (ANSI)
100
AcDbDimension
  2
*D4
 10
8.764568952408568
 20
23.50544206173589
 30
0.0
 11
8.764568952408565
 21
17.00544206173588
 31
0.0
 70
   160
  1
<>
 42
13.0
  3
Default (ANSI)
100
AcDbAlignedDimension
 13
12.07435954715557
 23
10.50544206173588
 33
0.0
 14
12.07435954715557
 24
23.50544206173589
 34
0.0
 50
90.0
100
AcDbRotatedDimension
1001
ACAD
1000
DSTYLE
1002
{
1070
   289
1070
     1
1070
   271
1070
     2
1070
   272
1070
     2
1070
    48
1040
0.0
1070
    47
1040
0.0
1002
}
  0
DIMENSION
  5
233
330
6C
100
AcDbEntity
  8
Dimension (ANSI)
100
AcDbDimension
  2
*D5
 10
21.07435954715557
 20
25.6598315515423
 30
0.0
 11
16.57435954715557
 21
25.6598315515423
 31
0.0
 70
   160
  1
<>
 42
8.999999999999998
  3
Default (ANSI)
100
AcDbAlignedDimension
 13
12.07435954715557
 23
23.50544206173589
 33
0.0
 14
21.07435954715557
 24
23.50544206173588
 34
0.0
100
AcDbRotatedDimension
1001
ACAD
1000
DSTYLE
1002
{
1070
   289
1070
     1
1070
    73
1070
     0
1070
    74
1070
     0
1070
   271
1070
     2
1070
   272
1070
     2
1070
    48
1040
0.0
1070
    47
1040
0.0
1002
}
  0
DIMENSION
  5
31D
330
6C
100
AcDbEntity
  8
Dimension (ANSI)
100
AcDbDimension
  2
*D6
 10
20.19935954715557
 20
24.96902893939685
 30
0.0
 11
22.97269819752905
 21
24.96902893939685
 31
0.0
 70
   160
  1
<>{\PTYP.}
 71
     5
 42
0.8749999999999964
  3
Default (ANSI)
100
AcDbAlignedDimension
 13
21.07435954715557
 23
23.50544206173588
 33
0.0
 14
20.19935954715557
 24
23.28694206173588
 34
0.0
 50
180.0
100
AcDbRotatedDimension
1001
ACAD
1000
DSTYLE
1002
{
1070
   289
1070
     1
1070
    73
1070
     0
1070
    74
1070
     0
1070
   271
1070
     3
1070
   272
1070
     3
1070
    48
1040
0.0
1070
    47
1040
0.0
1002
}
  0
DIMENSION
  5
41B
330
6C
100
AcDbEntity
  8
Dimension (ANSI)
100
AcDbDimension
  2
*D7
 10
23.88493421181604
 20
22.63044206173589
 30
0.0
 11
22.90258479131968
 21
21.59656760174302
 31
0.0
 70
   160
  1
<>{\PTYP.}
 42
0.8749999999999964
  3
Default (ANSI)
100
AcDbAlignedDimension
 13
21.07435954715557
 23
23.50544206173588
 33
0.0
 14
20.85585954715558
 24
22.63044206173589
 34
0.0
 50
90.0
100
AcDbRotatedDimension
1001
ACAD
1000
DSTYLE
1002
{
1070
   289
1070
     1
1070
   145
1040
-0.25
1070
   271
1070
     3
1070
   272
1070
     3
1070
    48
1040
0.0
1070
    47
1040
0.0
1002
}
  0
DIMENSION
  5
52D
330
6C
100
AcDbEntity
  8
Dimension (ANSI)
100
AcDbDimension
  2
*D8
 10
20.03702819356949
 20
11.61042202095604
 30
0.0
 11
22.63605937631898
 21
9.72159759853125
 31
0.0
 70
   163
  1
<>{\P(4 PL.)}
 42
0.5629999999999999
  3
Default (ANSI)
100
AcDbDiametricDimension
 15
20.36169090074166
 25
11.15046210251572
 35
0.0
 40
0.0
1001
ACAD_DSTYLE_DIMRADIAL_EXTENSION
1070
   387
1070
     1
1070
   388
1040
0.0
1070
   390
1040
0.0
1001
ACAD
1000
DSTYLE
1002
{
1070
   145
1040
-0.25
1070
   144
1040
1.000000000000008
1070
   271
1070
     3
1070
   272
1070
     3
1070
    48
1040
0.0
1070
    47
1040
0.0
1002
}
  0
DIMENSION
  5
5E8
330
6C
100
AcDbEntity
  8
Dimension (ANSI)
100
AcDbDimension
  2
*D9
 10
14.85115360555192
 20
11.50036117211341
 30
0.0
 11
18.58899115278323
 21
9.524844797044252
 31
0.0
 70
   163
  1
<>{\PGROUND HOLE}
 42
0.31
  3
Default (ANSI)
100
AcDbDiametricDimension
 15
15.0475654887592
 25
11.26052295135832
 35
0.0
 40
0.0
1001
ACAD_DSTYLE_DIMRADIAL_EXTENSION
1070
   387
1070
     1
1070
   388
1040
0.0
1070
   390
1040
0.0
1001
ACAD
1000
DSTYLE
1002
{
1070
   145
1040
-0.25
1070
   144
1040
1.000000000000003
1070
   271
1070
     3
1070
   272
1070
     2
1070
    48
1040
0.0
1070
    47
1040
0.0
1002
}
  0
DIMENSION
  5
6A1
330
6C
100
AcDbEntity
  8
Dimension (ANSI)
100
AcDbDimension
  2
*D10
 10
30.89273660288775
 20
24.6865444239406
 30
0.0
 11
28.19019525045434
 21
24.6865444239406
 31
0.0
 70
   160
  1
{14 GA. C.R.S\P}(<>)
 71
     5
 42
0.0739999999999981
  3
Default (ANSI)
100
AcDbAlignedDimension
 13
30.81873660288775
 23
23.50544206173588
 33
0.0
 14
30.89273660288775
 24
23.50544206173588
 34
0.0
 50
180.0
100
AcDbRotatedDimension
1001
ACAD
1000
DSTYLE
1002
{
1070
   289
1070
     1
1070
    73
1070
     0
1070
    74
1070
     0
1070
   271
1070
     3
1070
   147
1040
0.031496062992126
1070
    72
1070
     0
1070
    71
1070
     0
1070
   272
1070
     2
1070
    48
1040
0.0
1070
    47
1040
0.0
1002
}
  0
DIMENSION
  5
7A9
330
6C
100
AcDbEntity
  8
Dimension (ANSI)
100
AcDbDimension
  2
*D11
 10
10.40309576762802
 20
22.63044206173589
 30
0.0
 11
10.40309576762801
 21
17.00544206173588
 31
0.0
 70
   160
  1
<>
 42
11.25
  3
Default (ANSI)
100
AcDbAlignedDimension
 13
12.29285954715557
 23
11.38044206173588
 33
0.0
 14
12.29285954715557
 24
22.63044206173589
 34
0.0
 50
90.0
100
AcDbRotatedDimension
1001
ACAD
1000
DSTYLE
1002
{
1070
   289
1070
     1
1070
   271
1070
     3
1070
   272
1070
     3
1070
    48
1040
0.0
1070
    47
1040
0.0
1002
}
  0
DIMENSION
  5
893
330
6C
100
AcDbEntity
  8
Dimension (ANSI)
100
AcDbDimension
  2
*D12
 10
20.19935954715557
 20
24.96902893939685
 30
0.0
 11
16.57435954715557
 21
24.96902893939685
 31
0.0
 70
   160
  1
<>
 42
7.250000000000001
  3
Default (ANSI)
100
AcDbAlignedDimension
 13
12.94935954715557
 23
23.28694206173588
 33
0.0
 14
20.19935954715557
 24
23.28694206173588
 34
0.0
 50
180.0
100
AcDbRotatedDimension
1001
ACAD
1000
DSTYLE
1002
{
1070
   289
1070
     1
1070
    73
1070
     0
1070
    74
1070
     0
1070
   271
1070
     3
1070
   272
1070
     3
1070
    48
1040
0.0
1070
    47
1040
0.0
1002
}
  0
DIMENSION
  5
97D
330
6C
100
AcDbEntity
  8
Dimension (ANSI)
100
AcDbDimension
  2
*D13
 10
14.94935954715557
 20
9.365678282208321
 30
0.0
 11
13.94935954715557
 21
9.365678282208321
 31
0.0
 70
   160
  1
<>
 42
2.000000000000001
  3
Default (ANSI)
100
AcDbAlignedDimension
 13
12.94935954715557
 23
10.72394206173588
 33
0.0
 14
14.94935954715557
 24
10.85044206173588
 34
0.0
 50
180.0
100
AcDbRotatedDimension
1001
ACAD
1000
DSTYLE
1002
{
1070
   147
1040
1.797693134862314E+99
1070
    73
1070
     0
1070
    74
1070
     0
1070
   271
1070
     3
1070
   272
1070
     3
1070
    48
1040
0.0
1070
    47
1040
0.0
1002
}
  0
LINE
  5
A67
330
6C
100
AcDbEntity
  8
Center Mark (ANSI)
  6
CHAIN
 48
0.2430349141359329
100
AcDbLine
 10
12.94935954715557
 20
21.97394206173588
 30
0.0
 11
12.94935954715557
 21
23.28694206173588
 31
0.0
  0
LINE
  5
A68
330
6C
100
AcDbEntity
  8
Center Mark (ANSI)
  6
CHAIN
 48
0.2430349141359329
100
AcDbLine
 10
12.94935954715557
 20
12.03694206173588
 30
0.0
 11
12.94935954715557
 21
10.72394206173588
 31
0.0
  0
LINE
  5
A69
330
6C
100
AcDbEntity
  8
Centerline (ANSI)
  6
CHAIN
 48
0.9524481296539306
100
AcDbLine
 10
12.94935954715557
 20
23.28694206173588
 30
0.0
 11
12.94935954715557
 21
10.72394206173588
 31
0.0
  0
LINE
  5
A6A
330
6C
100
AcDbEntity
  8
Center Mark (ANSI)
  6
CHAIN
 48
0.2430349141359329
100
AcDbLine
 10
20.19935954715557
 20
12.03694206173588
 30
0.0
 11
20.19935954715557
 21
10.72394206173588
 31
0.0
  0
LINE
  5
A6B
330
6C
100
AcDbEntity
  8
Centerline (ANSI)
  6
CHAIN
 48
0.9524481296539306
100
AcDbLine
 10
12.29285954715557
 20
11.38044206173588
 30
0.0
 11
20.85585954715558
 21
11.38044206173588
 31
0.0
  0
LINE
  5
A6C
330
6C
100
AcDbEntity
  8
Center Mark (ANSI)
  6
CHAIN
 48
0.2430349141359329
100
AcDbLine
 10
19.54285954715557
 20
11.38044206173588
 30
0.0
 11
20.85585954715558
 21
11.38044206173588
 31
0.0
  0
LINE
  5
A6D
330
6C
100
AcDbEntity
  8
Center Mark (ANSI)
  6
CHAIN
 48
0.2430349141359329
100
AcDbLine
 10
20.19935954715557
 20
21.97394206173588
 30
0.0
 11
20.19935954715557
 21
23.28694206173588
 31
0.0
  0
LINE
  5
A6E
330
6C
100
AcDbEntity
  8
Centerline (ANSI)
  6
CHAIN
 48
0.9524481296539306
100
AcDbLine
 10
20.19935954715557
 20
10.72394206173588
 30
0.0
 11
20.19935954715557
 21
23.28694206173588
 31
0.0
  0
LINE
  5
A6F
330
6C
100
AcDbEntity
  8
Centerline (ANSI)
  6
CHAIN
 48
0.9524481296539306
100
AcDbLine
 10
20.85585954715558
 20
22.63044206173589
 30
0.0
 11
12.29285954715557
 21
22.63044206173589
 31
0.0
  0
LINE
  5
A70
330
6C
100
AcDbEntity
  8
Center Mark (ANSI)
  6
CHAIN
 48
0.1961856037378311
100
AcDbLine
 10
15.47935954715557
 20
11.38044206173588
 30
0.0
 11
14.41935954715557
 21
11.38044206173588
 31
0.0
  0
LINE
  5
A71
330
6C
100
AcDbEntity
  8
Center Mark (ANSI)
  6
CHAIN
 48
0.1961856037378311
100
AcDbLine
 10
14.94935954715557
 20
11.91044206173588
 30
0.0
 11
14.94935954715557
 21
10.85044206173588
 31
0.0
  0
CIRCLE
  5
A72
330
6C
100
AcDbEntity
  8
Sketch Geometry (ANSI)
100
AcDbCircle
 10
12.32435954715557
 20
23.25544206173588
 30
0.0
 40
0.065
  0
CIRCLE
  5
A73
330
6C
100
AcDbEntity
  8
Sketch Geometry (ANSI)
100
AcDbCircle
 10
12.57435954715557
 20
23.25544206173588
 30
0.0
 40
0.065
  0
CIRCLE
  5
A74
330
6C
100
AcDbEntity
  8
Sketch Geometry (ANSI)
100
AcDbCircle
 10
12.82435954715557
 20
23.25544206173588
 30
0.0
 40
0.065
  0
CIRCLE
  5
A75
330
6C
100
AcDbEntity
  8
Sketch Geometry (ANSI)
100
AcDbCircle
 10
13.07435954715557
 20
23.25544206173588
 30
0.0
 40
0.065
  0
CIRCLE
  5
A76
330
6C
100
AcDbEntity
  8
Sketch Geometry (ANSI)
100
AcDbCircle
 10
13.32435954715557
 20
23.25544206173588
 30
0.0
 40
0.065
  0
CIRCLE
  5
A77
330
6C
100
AcDbEntity
  8
Sketch Geometry (ANSI)
100
AcDbCircle
 10
13.57435954715557
 20
23.25544206173588
 30
0.0
 40
0.065
  0
CIRCLE
  5
A78
330
6C
100
AcDbEntity
  8
Sketch Geometry (ANSI)
100
AcDbCircle
 10
13.82435954715557
 20
23.25544206173588
 30
0.0
 40
0.065
  0
CIRCLE
  5
A79
330
6C
100
AcDbEntity
  8
Sketch Geometry (ANSI)
100
AcDbCircle
 10
14.07435954715557
 20
23.25544206173588
 30
0.0
 40
0.065
  0
CIRCLE
  5
A7A
330
6C
100
AcDbEntity
  8
Sketch Geometry (ANSI)
100
AcDbCircle
 10
14.32435954715557
 20
23.25544206173588
 30
0.0
 40
0.065
  0
CIRCLE
  5
A7B
330
6C
100
AcDbEntity
  8
Sketch Geometry (ANSI)
100
AcDbCircle
 10
14.57435954715557
 20
23.25544206173588
 30
0.0
 40
0.065
  0
CIRCLE
  5
A7C
330
6C
100
AcDbEntity
  8
Sketch Geometry (ANSI)
100
AcDbCircle
 10
14.82435954715557
 20
23.25544206173588
 30
0.0
 40
0.065
  0
CIRCLE
  5
A7D
330
6C
100
AcDbEntity
  8
Sketch Geometry (ANSI)
100
AcDbCircle
 10
12.32435954715543
 20
23.00544206173589
 30
0.0
 40
0.065
  0
CIRCLE
  5
A7E
330
6C
100
AcDbEntity
  8
Sketch Geometry (ANSI)
100
AcDbCircle
 10
12.57435954715557
 20
23.00544206173588
 30
0.0
 40
0.065
  0
CIRCLE
  5
A7F
330
6C
100
AcDbEntity
  8
Sketch Geometry (ANSI)
100
AcDbCircle
 10
12.82435954715557
 20
23.00544206173588
 30
0.0
 40
0.065
  0
CIRCLE
  5
A80
330
6C
100
AcDbEntity
  8
Sketch Geometry (ANSI)
100
AcDbCircle
 10
13.07435954715557
 20
23.00544206173588
 30
0.0
 40
0.065
  0
CIRCLE
  5
A81
330
6C
100
AcDbEntity
  8
Sketch Geometry (ANSI)
100
AcDbCircle
 10
13.32435954715557
 20
23.00544206173588
 30
0.0
 40
0.065
  0
CIRCLE
  5
A82
330
6C
100
AcDbEntity
  8
Sketch Geometry (ANSI)
100
AcDbCircle
 10
13.57435954715557
 20
23.00544206173588
 30
0.0
 40
0.065
  0
CIRCLE
  5
A83
330
6C
100
AcDbEntity
  8
Sketch Geometry (ANSI)
100
AcDbCircle
 10
13.82435954715557
 20
23.00544206173588
 30
0.0
 40
0.065
  0
CIRCLE
  5
A84
330
6C
100
AcDbEntity
  8
Sketch Geometry (ANSI)
100
AcDbCircle
 10
14.07435954715557
 20
23.00544206173588
 30
0.0
 40
0.065
  0
CIRCLE
  5
A85
330
6C
100
AcDbEntity
  8
Sketch Geometry (ANSI)
100
AcDbCircle
 10
14.32435954715557
 20
23.00544206173588
 30
0.0
 40
0.065
  0
CIRCLE
  5
A86
330
6C
100
AcDbEntity
  8
Sketch Geometry (ANSI)
100
AcDbCircle
 10
14.57435954715557
 20
23.00544206173588
 30
0.0
 40
0.065
  0
CIRCLE
  5
A87
330
6C
100
AcDbEntity
  8
Sketch Geometry (ANSI)
100
AcDbCircle
 10
14.82435954715557
 20
23.00544206173588
 30
0.0
 40
0.065
  0
CIRCLE
  5
A88
330
6C
100
AcDbEntity
  8
Sketch Geometry (ANSI)
100
AcDbCircle
 10
12.32435954715543
 20
22.75544206173589
 30
0.0
 40
0.065
  0
CIRCLE
  5
A89
330
6C
100
AcDbEntity
  8
Sketch Geometry (ANSI)
100
AcDbCircle
 10
12.57435954715557
 20
22.75544206173588
 30
0.0
 40
0.065
  0
CIRCLE
  5
A8A
330
6C
100
AcDbEntity
  8
Sketch Geometry (ANSI)
100
AcDbCircle
 10
13.32435954715557
 20
22.75544206173588
 30
0.0
 40
0.065
  0
CIRCLE
  5
A8B
330
6C
100
AcDbEntity
  8
Sketch Geometry (ANSI)
100
AcDbCircle
 10
13.57435954715557
 20
22.75544206173588
 30
0.0
 40
0.065
  0
CIRCLE
  5
A8C
330
6C
100
AcDbEntity
  8
Sketch Geometry (ANSI)
100
AcDbCircle
 10
13.82435954715557
 20
22.75544206173588
 30
0.0
 40
0.065
  0
CIRCLE
  5
A8D
330
6C
100
AcDbEntity
  8
Sketch Geometry (ANSI)
100
AcDbCircle
 10
14.07435954715557
 20
22.75544206173588
 30
0.0
 40
0.065
  0
CIRCLE
  5
A8E
330
6C
100
AcDbEntity
  8
Sketch Geometry (ANSI)
100
AcDbCircle
 10
14.32435954715557
 20
22.75544206173588
 30
0.0
 40
0.065
  0
CIRCLE
  5
A8F
330
6C
100
AcDbEntity
  8
Sketch Geometry (ANSI)
100
AcDbCircle
 10
14.57435954715557
 20
22.75544206173588
 30
0.0
 40
0.065
  0
CIRCLE
  5
A90
330
6C
100
AcDbEntity
  8
Sketch Geometry (ANSI)
100
AcDbCircle
 10
14.82435954715557
 20
22.75544206173588
 30
0.0
 40
0.065
  0
CIRCLE
  5
A91
330
6C
100
AcDbEntity
  8
Sketch Geometry (ANSI)
100
AcDbCircle
 10
12.32435954715543
 20
22.50544206173589
 30
0.0
 40
0.065
  0
CIRCLE
  5
A92
330
6C
100
AcDbEntity
  8
Sketch Geometry (ANSI)
100
AcDbCircle
 10
12.57435954715557
 20
22.50544206173588
 30
0.0
 40
0.065
  0
CIRCLE
  5
A93
330
6C
100
AcDbEntity
  8
Sketch Geometry (ANSI)
100
AcDbCircle
 10
13.32435954715557
 20
22.50544206173588
 30
0.0
 40
0.065
  0
CIRCLE
  5
A94
330
6C
100
AcDbEntity
  8
Sketch Geometry (ANSI)
100
AcDbCircle
 10
13.57435954715557
 20
22.50544206173588
 30
0.0
 40
0.065
  0
CIRCLE
  5
A95
330
6C
100
AcDbEntity
  8
Sketch Geometry (ANSI)
100
AcDbCircle
 10
13.82435954715557
 20
22.50544206173588
 30
0.0
 40
0.065
  0
CIRCLE
  5
A96
330
6C
100
AcDbEntity
  8
Sketch Geometry (ANSI)
100
AcDbCircle
 10
14.07435954715557
 20
22.50544206173588
 30
0.0
 40
0.065
  0
CIRCLE
  5
A97
330
6C
100
AcDbEntity
  8
Sketch Geometry (ANSI)
100
AcDbCircle
 10
14.32435954715557
 20
22.50544206173588
 30
0.0
 40
0.065
  0
CIRCLE
  5
A98
330
6C
100
AcDbEntity
  8
Sketch Geometry (ANSI)
100
AcDbCircle
 10
14.57435954715557
 20
22.50544206173588
 30
0.0
 40
0.065
  0
CIRCLE
  5
A99
330
6C
100
AcDbEntity
  8
Sketch Geometry (ANSI)
100
AcDbCircle
 10
14.82435954715557
 20
22.50544206173588
 30
0.0
 40
0.065
  0
CIRCLE
  5
A9A
330
6C
100
AcDbEntity
  8
Sketch Geometry (ANSI)
100
AcDbCircle
 10
12.32435954715543
 20
22.25544206173589
 30
0.0
 40
0.065
  0
CIRCLE
  5
A9B
330
6C
100
AcDbEntity
  8
Sketch Geometry (ANSI)
100
AcDbCircle
 10
12.57435954715557
 20
22.25544206173588
 30
0.0
 40
0.065
  0
CIRCLE
  5
A9C
330
6C
100
AcDbEntity
  8
Sketch Geometry (ANSI)
100
AcDbCircle
 10
12.82435954715557
 20
22.25544206173588
 30
0.0
 40
0.065
  0
CIRCLE
  5
A9D
330
6C
100
AcDbEntity
  8
Sketch Geometry (ANSI)
100
AcDbCircle
 10
13.07435954715557
 20
22.25544206173588
 30
0.0
 40
0.065
  0
CIRCLE
  5
A9E
330
6C
100
AcDbEntity
  8
Sketch Geometry (ANSI)
100
AcDbCircle
 10
13.32435954715557
 20
22.25544206173588
 30
0.0
 40
0.065
  0
CIRCLE
  5
A9F
330
6C
100
AcDbEntity
  8
Sketch Geometry (ANSI)
100
AcDbCircle
 10
13.57435954715557
 20
22.25544206173588
 30
0.0
 40
0.065
  0
CIRCLE
  5
AA0
330
6C
100
AcDbEntity
  8
Sketch Geometry (ANSI)
100
AcDbCircle
 10
13.82435954715557
 20
22.25544206173588
 30
0.0
 40
0.065
  0
CIRCLE
  5
AA1
330
6C
100
AcDbEntity
  8
Sketch Geometry (ANSI)
100
AcDbCircle
 10
14.07435954715557
 20
22.25544206173588
 30
0.0
 40
0.065
  0
CIRCLE
  5
AA2
330
6C
100
AcDbEntity
  8
Sketch Geometry (ANSI)
100
AcDbCircle
 10
14.32435954715557
 20
22.25544206173588
 30
0.0
 40
0.065
  0
CIRCLE
  5
AA3
330
6C
100
AcDbEntity
  8
Sketch Geometry (ANSI)
100
AcDbCircle
 10
14.57435954715557
 20
22.25544206173588
 30
0.0
 40
0.065
  0
CIRCLE
  5
AA4
330
6C
100
AcDbEntity
  8
Sketch Geometry (ANSI)
100
AcDbCircle
 10
14.82435954715557
 20
22.25544206173588
 30
0.0
 40
0.065
  0
CIRCLE
  5
AA5
330
6C
100
AcDbEntity
  8
Sketch Geometry (ANSI)
100
AcDbCircle
 10
12.32435954715543
 20
22.00544206173589
 30
0.0
 40
0.065
  0
CIRCLE
  5
AA6
330
6C
100
AcDbEntity
  8
Sketch Geometry (ANSI)
100
AcDbCircle
 10
12.57435954715557
 20
22.00544206173588
 30
0.0
 40
0.065
  0
CIRCLE
  5
AA7
330
6C
100
AcDbEntity
  8
Sketch Geometry (ANSI)
100
AcDbCircle
 10
12.82435954715557
 20
22.00544206173588
 30
0.0
 40
0.065
  0
CIRCLE
  5
AA8
330
6C
100
AcDbEntity
  8
Sketch Geometry (ANSI)
100
AcDbCircle
 10
13.07435954715557
 20
22.00544206173588
 30
0.0
 40
0.065
  0
CIRCLE
  5
AA9
330
6C
100
AcDbEntity
  8
Sketch Geometry (ANSI)
100
AcDbCircle
 10
13.32435954715557
 20
22.00544206173588
 30
0.0
 40
0.065
  0
CIRCLE
  5
AAA
330
6C
100
AcDbEntity
  8
Sketch Geometry (ANSI)
100
AcDbCircle
 10
13.57435954715557
 20
22.00544206173588
 30
0.0
 40
0.065
  0
CIRCLE
  5
AAB
330
6C
100
AcDbEntity
  8
Sketch Geometry (ANSI)
100
AcDbCircle
 10
13.82435954715557
 20
22.00544206173588
 30
0.0
 40
0.065
  0
CIRCLE
  5
AAC
330
6C
100
AcDbEntity
  8
Sketch Geometry (ANSI)
100
AcDbCircle
 10
14.07435954715557
 20
22.00544206173588
 30
0.0
 40
0.065
  0
CIRCLE
  5
AAD
330
6C
100
AcDbEntity
  8
Sketch Geometry (ANSI)
100
AcDbCircle
 10
14.32435954715557
 20
22.00544206173588
 30
0.0
 40
0.065
  0
CIRCLE
  5
AAE
330
6C
100
AcDbEntity
  8
Sketch Geometry (ANSI)
100
AcDbCircle
 10
14.57435954715557
 20
22.00544206173588
 30
0.0
 40
0.065
  0
CIRCLE
  5
AAF
330
6C
100
AcDbEntity
  8
Sketch Geometry (ANSI)
100
AcDbCircle
 10
14.82435954715557
 20
22.00544206173588
 30
0.0
 40
0.065
  0
CIRCLE
  5
AB0
330
6C
100
AcDbEntity
  8
Sketch Geometry (ANSI)
100
AcDbCircle
 10
12.32435954715543
 20
21.75544206173589
 30
0.0
 40
0.065
  0
CIRCLE
  5
AB1
330
6C
100
AcDbEntity
  8
Sketch Geometry (ANSI)
100
AcDbCircle
 10
12.57435954715557
 20
21.75544206173588
 30
0.0
 40
0.065
  0
CIRCLE
  5
AB2
330
6C
100
AcDbEntity
  8
Sketch Geometry (ANSI)
100
AcDbCircle
 10
12.82435954715557
 20
21.75544206173588
 30
0.0
 40
0.065
  0
CIRCLE
  5
AB3
330
6C
100
AcDbEntity
  8
Sketch Geometry (ANSI)
100
AcDbCircle
 10
13.07435954715557
 20
21.75544206173588
 30
0.0
 40
0.065
  0
CIRCLE
  5
AB4
330
6C
100
AcDbEntity
  8
Sketch Geometry (ANSI)
100
AcDbCircle
 10
13.32435954715557
 20
21.75544206173588
 30
0.0
 40
0.065
  0
CIRCLE
  5
AB5
330
6C
100
AcDbEntity
  8
Sketch Geometry (ANSI)
100
AcDbCircle
 10
13.57435954715557
 20
21.75544206173588
 30
0.0
 40
0.065
  0
CIRCLE
  5
AB6
330
6C
100
AcDbEntity
  8
Sketch Geometry (ANSI)
100
AcDbCircle
 10
13.82435954715557
 20
21.75544206173588
 30
0.0
 40
0.065
  0
CIRCLE
  5
AB7
330
6C
100
AcDbEntity
  8
Sketch Geometry (ANSI)
100
AcDbCircle
 10
14.07435954715557
 20
21.75544206173588
 30
0.0
 40
0.065
  0
CIRCLE
  5
AB8
330
6C
100
AcDbEntity
  8
Sketch Geometry (ANSI)
100
AcDbCircle
 10
14.32435954715557
 20
21.75544206173588
 30
0.0
 40
0.065
  0
CIRCLE
  5
AB9
330
6C
100
AcDbEntity
  8
Sketch Geometry (ANSI)
100
AcDbCircle
 10
14.57435954715557
 20
21.75544206173588
 30
0.0
 40
0.065
  0
CIRCLE
  5
ABA
330
6C
100
AcDbEntity
  8
Sketch Geometry (ANSI)
100
AcDbCircle
 10
14.82435954715557
 20
21.75544206173588
 30
0.0
 40
0.065
  0
CIRCLE
  5
ABB
330
6C
100
AcDbEntity
  8
Sketch Geometry (ANSI)
100
AcDbCircle
 10
12.32435954715543
 20
21.50544206173589
 30
0.0
 40
0.065
  0
CIRCLE
  5
ABC
330
6C
100
AcDbEntity
  8
Sketch Geometry (ANSI)
100
AcDbCircle
 10
12.57435954715557
 20
21.50544206173588
 30
0.0
 40
0.065
  0
CIRCLE
  5
ABD
330
6C
100
AcDbEntity
  8
Sketch Geometry (ANSI)
100
AcDbCircle
 10
12.82435954715557
 20
21.50544206173588
 30
0.0
 40
0.065
  0
CIRCLE
  5
ABE
330
6C
100
AcDbEntity
  8
Sketch Geometry (ANSI)
100
AcDbCircle
 10
13.07435954715557
 20
21.50544206173588
 30
0.0
 40
0.065
  0
CIRCLE
  5
ABF
330
6C
100
AcDbEntity
  8
Sketch Geometry (ANSI)
100
AcDbCircle
 10
13.32435954715557
 20
21.50544206173588
 30
0.0
 40
0.065
  0
CIRCLE
  5
AC0
330
6C
100
AcDbEntity
  8
Sketch Geometry (ANSI)
100
AcDbCircle
 10
13.57435954715557
 20
21.50544206173588
 30
0.0
 40
0.065
  0
CIRCLE
  5
AC1
330
6C
100
AcDbEntity
  8
Sketch Geometry (ANSI)
100
AcDbCircle
 10
13.82435954715557
 20
21.50544206173588
 30
0.0
 40
0.065
  0
CIRCLE
  5
AC2
330
6C
100
AcDbEntity
  8
Sketch Geometry (ANSI)
100
AcDbCircle
 10
14.07435954715557
 20
21.50544206173588
 30
0.0
 40
0.065
  0
CIRCLE
  5
AC3
330
6C
100
AcDbEntity
  8
Sketch Geometry (ANSI)
100
AcDbCircle
 10
14.32435954715557
 20
21.50544206173588
 30
0.0
 40
0.065
  0
CIRCLE
  5
AC4
330
6C
100
AcDbEntity
  8
Sketch Geometry (ANSI)
100
AcDbCircle
 10
14.57435954715557
 20
21.50544206173588
 30
0.0
 40
0.065
  0
CIRCLE
  5
AC5
330
6C
100
AcDbEntity
  8
Sketch Geometry (ANSI)
100
AcDbCircle
 10
14.82435954715557
 20
21.50544206173588
 30
0.0
 40
0.065
  0
CIRCLE
  5
AC6
330
6C
100
AcDbEntity
  8
Sketch Geometry (ANSI)
100
AcDbCircle
 10
12.32435954715543
 20
21.25544206173589
 30
0.0
 40
0.065
  0
CIRCLE
  5
AC7
330
6C
100
AcDbEntity
  8
Sketch Geometry (ANSI)
100
AcDbCircle
 10
12.57435954715557
 20
21.25544206173588
 30
0.0
 40
0.065
  0
CIRCLE
  5
AC8
330
6C
100
AcDbEntity
  8
Sketch Geometry (ANSI)
100
AcDbCircle
 10
12.82435954715557
 20
21.25544206173588
 30
0.0
 40
0.065
  0
CIRCLE
  5
AC9
330
6C
100
AcDbEntity
  8
Sketch Geometry (ANSI)
100
AcDbCircle
 10
13.07435954715557
 20
21.25544206173588
 30
0.0
 40
0.065
  0
CIRCLE
  5
ACA
330
6C
100
AcDbEntity
  8
Sketch Geometry (ANSI)
100
AcDbCircle
 10
13.32435954715557
 20
21.25544206173588
 30
0.0
 40
0.065
  0
CIRCLE
  5
ACB
330
6C
100
AcDbEntity
  8
Sketch Geometry (ANSI)
100
AcDbCircle
 10
13.57435954715557
 20
21.25544206173588
 30
0.0
 40
0.065
  0
CIRCLE
  5
ACC
330
6C
100
AcDbEntity
  8
Sketch Geometry (ANSI)
100
AcDbCircle
 10
13.82435954715557
 20
21.25544206173588
 30
0.0
 40
0.065
  0
CIRCLE
  5
ACD
330
6C
100
AcDbEntity
  8
Sketch Geometry (ANSI)
100
AcDbCircle
 10
14.07435954715557
 20
21.25544206173588
 30
0.0
 40
0.065
  0
CIRCLE
  5
ACE
330
6C
100
AcDbEntity
  8
Sketch Geometry (ANSI)
100
AcDbCircle
 10
14.32435954715557
 20
21.25544206173588
 30
0.0
 40
0.065
  0
CIRCLE
  5
ACF
330
6C
100
AcDbEntity
  8
Sketch Geometry (ANSI)
100
AcDbCircle
 10
14.57435954715557
 20
21.25544206173588
 30
0.0
 40
0.065
  0
CIRCLE
  5
AD0
330
6C
100
AcDbEntity
  8
Sketch Geometry (ANSI)
100
AcDbCircle
 10
14.82435954715557
 20
21.25544206173588
 30
0.0
 40
0.065
  0
CIRCLE
  5
AD1
330
6C
100
AcDbEntity
  8
Sketch Geometry (ANSI)
100
AcDbCircle
 10
12.32435954715543
 20
21.00544206173589
 30
0.0
 40
0.065
  0
CIRCLE
  5
AD2
330
6C
100
AcDbEntity
  8
Sketch Geometry (ANSI)
100
AcDbCircle
 10
12.57435954715557
 20
21.00544206173588
 30
0.0
 40
0.065
  0
CIRCLE
  5
AD3
330
6C
100
AcDbEntity
  8
Sketch Geometry (ANSI)
100
AcDbCircle
 10
12.82435954715557
 20
21.00544206173588
 30
0.0
 40
0.065
  0
CIRCLE
  5
AD4
330
6C
100
AcDbEntity
  8
Sketch Geometry (ANSI)
100
AcDbCircle
 10
13.07435954715557
 20
21.00544206173588
 30
0.0
 40
0.065
  0
CIRCLE
  5
AD5
330
6C
100
AcDbEntity
  8
Sketch Geometry (ANSI)
100
AcDbCircle
 10
13.32435954715557
 20
21.00544206173588
 30
0.0
 40
0.065
  0
CIRCLE
  5
AD6
330
6C
100
AcDbEntity
  8
Sketch Geometry (ANSI)
100
AcDbCircle
 10
13.57435954715557
 20
21.00544206173588
 30
0.0
 40
0.065
  0
CIRCLE
  5
AD7
330
6C
100
AcDbEntity
  8
Sketch Geometry (ANSI)
100
AcDbCircle
 10
13.82435954715557
 20
21.00544206173588
 30
0.0
 40
0.065
  0
CIRCLE
  5
AD8
330
6C
100
AcDbEntity
  8
Sketch Geometry (ANSI)
100
AcDbCircle
 10
14.07435954715557
 20
21.00544206173588
 30
0.0
 40
0.065
  0
CIRCLE
  5
AD9
330
6C
100
AcDbEntity
  8
Sketch Geometry (ANSI)
100
AcDbCircle
 10
14.32435954715557
 20
21.00544206173588
 30
0.0
 40
0.065
  0
CIRCLE
  5
ADA
330
6C
100
AcDbEntity
  8
Sketch Geometry (ANSI)
100
AcDbCircle
 10
14.57435954715557
 20
21.00544206173588
 30
0.0
 40
0.065
  0
CIRCLE
  5
ADB
330
6C
100
AcDbEntity
  8
Sketch Geometry (ANSI)
100
AcDbCircle
 10
14.82435954715557
 20
21.00544206173588
 30
0.0
 40
0.065
  0
CIRCLE
  5
ADC
330
6C
100
AcDbEntity
  8
Sketch Geometry (ANSI)
100
AcDbCircle
 10
12.32435954715543
 20
20.75544206173589
 30
0.0
 40
0.065
  0
CIRCLE
  5
ADD
330
6C
100
AcDbEntity
  8
Sketch Geometry (ANSI)
100
AcDbCircle
 10
12.57435954715557
 20
20.75544206173588
 30
0.0
 40
0.065
  0
CIRCLE
  5
ADE
330
6C
100
AcDbEntity
  8
Sketch Geometry (ANSI)
100
AcDbCircle
 10
12.82435954715557
 20
20.75544206173588
 30
0.0
 40
0.065
  0
CIRCLE
  5
ADF
330
6C
100
AcDbEntity
  8
Sketch Geometry (ANSI)
100
AcDbCircle
 10
13.07435954715557
 20
20.75544206173588
 30
0.0
 40
0.065
  0
CIRCLE
  5
AE0
330
6C
100
AcDbEntity
  8
Sketch Geometry (ANSI)
100
AcDbCircle
 10
13.32435954715557
 20
20.75544206173588
 30
0.0
 40
0.065
  0
CIRCLE
  5
AE1
330
6C
100
AcDbEntity
  8
Sketch Geometry (ANSI)
100
AcDbCircle
 10
13.57435954715557
 20
20.75544206173588
 30
0.0
 40
0.065
  0
CIRCLE
  5
AE2
330
6C
100
AcDbEntity
  8
Sketch Geometry (ANSI)
100
AcDbCircle
 10
13.82435954715557
 20
20.75544206173588
 30
0.0
 40
0.065
  0
CIRCLE
  5
AE3
330
6C
100
AcDbEntity
  8
Sketch Geometry (ANSI)
100
AcDbCircle
 10
14.07435954715557
 20
20.75544206173588
 30
0.0
 40
0.065
  0
CIRCLE
  5
AE4
330
6C
100
AcDbEntity
  8
Sketch Geometry (ANSI)
100
AcDbCircle
 10
14.32435954715557
 20
20.75544206173588
 30
0.0
 40
0.065
  0
CIRCLE
  5
AE5
330
6C
100
AcDbEntity
  8
Sketch Geometry (ANSI)
100
AcDbCircle
 10
14.57435954715557
 20
20.75544206173588
 30
0.0
 40
0.065
  0
CIRCLE
  5
AE6
330
6C
100
AcDbEntity
  8
Sketch Geometry (ANSI)
100
AcDbCircle
 10
14.82435954715557
 20
20.75544206173588
 30
0.0
 40
0.065
  0
CIRCLE
  5
AE7
330
6C
100
AcDbEntity
  8
Sketch Geometry (ANSI)
100
AcDbCircle
 10
12.67061767089931
 20
22.91222311729854
 30
0.0
 40
0.8421115168122458
  0
CIRCLE
  5
AE8
330
6C
100
AcDbEntity
  8
Sketch Geometry (ANSI)
100
AcDbCircle
 10
44.45919655936289
 20
11.25264214223833
 30
0.0
 40
1.765599820042649
  0
CIRCLE
  5
AE9
330
6C
100
AcDbEntity
  8
Sketch Geometry (ANSI)
100
AcDbCircle
 10
43.79484769308797
 20
11.88264214223832
 30
0.0
 40
0.1299999999999999
  0
CIRCLE
  5
AEA
330
6C
100
AcDbEntity
  8
Sketch Geometry (ANSI)
100
AcDbCircle
 10
44.29484769308797
 20
11.88264214223832
 30
0.0
 40
0.1299999999999999
  0
CIRCLE
  5
AEB
330
6C
100
AcDbEntity
  8
Sketch Geometry (ANSI)
100
AcDbCircle
 10
44.79484769308798
 20
11.88264214223832
 30
0.0
 40
0.1299999999999999
  0
CIRCLE
  5
AEC
330
6C
100
AcDbEntity
  8
Sketch Geometry (ANSI)
100
AcDbCircle
 10
45.29484769308798
 20
11.88264214223832
 30
0.0
 40
0.1299999999999999
  0
CIRCLE
  5
AED
330
6C
100
AcDbEntity
  8
Sketch Geometry (ANSI)
100
AcDbCircle
 10
45.79484769308797
 20
11.88264214223833
 30
0.0
 40
0.1299999999999999
  0
CIRCLE
  5
AEE
330
6C
100
AcDbEntity
  8
Sketch Geometry (ANSI)
100
AcDbCircle
 10
43.79484769308797
 20
11.38264214223832
 30
0.0
 40
0.1299999999999999
  0
CIRCLE
  5
AEF
330
6C
100
AcDbEntity
  8
Sketch Geometry (ANSI)
100
AcDbCircle
 10
44.29484769308797
 20
11.38264214223832
 30
0.0
 40
0.1299999999999999
  0
CIRCLE
  5
AF0
330
6C
100
AcDbEntity
  8
Sketch Geometry (ANSI)
100
AcDbCircle
 10
45.29484769308798
 20
11.38264214223833
 30
0.0
 40
0.1299999999999999
  0
CIRCLE
  5
AF1
330
6C
100
AcDbEntity
  8
Sketch Geometry (ANSI)
100
AcDbCircle
 10
45.79484769308797
 20
11.38264214223833
 30
0.0
 40
0.1299999999999999
  0
CIRCLE
  5
AF2
330
6C
100
AcDbEntity
  8
Sketch Geometry (ANSI)
100
AcDbCircle
 10
43.79484769308797
 20
10.88264214223833
 30
0.0
 40
0.1299999999999999
  0
CIRCLE
  5
AF3
330
6C
100
AcDbEntity
  8
Sketch Geometry (ANSI)
100
AcDbCircle
 10
45.79484769308797
 20
10.88264214223833
 30
0.0
 40
0.1299999999999999
  0
CIRCLE
  5
AF4
330
6C
100
AcDbEntity
  8
Sketch Geometry (ANSI)
100
AcDbCircle
 10
43.79484769308797
 20
10.38264214223832
 30
0.0
 40
0.1299999999999999
  0
CIRCLE
  5
AF5
330
6C
100
AcDbEntity
  8
Sketch Geometry (ANSI)
100
AcDbCircle
 10
44.29484769308797
 20
10.38264214223832
 30
0.0
 40
0.1299999999999999
  0
CIRCLE
  5
AF6
330
6C
100
AcDbEntity
  8
Sketch Geometry (ANSI)
100
AcDbCircle
 10
45.79484769308797
 20
10.38264214223832
 30
0.0
 40
0.1299999999999999
  0
CIRCLE
  5
AF7
330
6C
100
AcDbEntity
  8
Sketch Geometry (ANSI)
100
AcDbCircle
 10
43.79484769308797
 20
9.88264214223833
 30
0.0
 40
0.1299999999999999
  0
CIRCLE
  5
AF8
330
6C
100
AcDbEntity
  8
Sketch Geometry (ANSI)
100
AcDbCircle
 10
44.29484769308797
 20
9.88264214223833
 30
0.0
 40
0.1299999999999999
  0
CIRCLE
  5
AF9
330
6C
100
AcDbEntity
  8
Sketch Geometry (ANSI)
100
AcDbCircle
 10
44.79484769308798
 20
9.88264214223833
 30
0.0
 40
0.1299999999999999
  0
CIRCLE
  5
AFA
330
6C
100
AcDbEntity
  8
Sketch Geometry (ANSI)
100
AcDbCircle
 10
45.29484769308798
 20
9.88264214223833
 30
0.0
 40
0.1299999999999999
  0
LINE
  5
AFB
330
6C
100
AcDbEntity
  8
Sketch Geometry (ANSI)
100
AcDbLine
 10
43.4408929474809
 20
12.15490528448128
 30
0.0
 11
43.4408929474809
 21
9.810282797774297
 31
0.0
  0
LINE
  5
AFC
330
6C
100
AcDbEntity
  8
Sketch Geometry (ANSI)
100
AcDbLine
 10
43.4408929474809
 20
12.15490528448128
 30
0.0
 11
45.97684735802657
 21
12.15490528448129
 31
0.0
  0
CIRCLE
  5
AFD
330
6C
100
AcDbEntity
  8
Sketch Geometry (ANSI)
100
AcDbCircle
 10
45.09055634651903
 20
10.5970893282329
 30
0.0
 40
0.5629999999999999
  0
CIRCLE
  5
AFE
330
6C
100
AcDbEntity
  8
Sketch Geometry (ANSI)
100
AcDbCircle
 10
44.79484769308798
 20
11.38264214223832
 30
0.0
 40
0.1299999999999999
  0
CIRCLE
  5
AFF
330
6C
100
AcDbEntity
  8
Sketch Geometry (ANSI)
100
AcDbCircle
 10
44.29484769308797
 20
10.86265293107491
 30
0.0
 40
0.1299999999999999
  0
DIMENSION
  5
B00
330
6C
100
AcDbEntity
  8
Dimension (ANSI)
100
AcDbDimension
  2
*D14
 10
44.29484769308797
 20
14.48106733908872
 30
0.0
 11
41.57375603181593
 21
14.48106733908872
 31
0.0
 70
   160
  1
<>{\PTYP.}
 71
     5
 42
0.2500000000000008
  3
Default (ANSI)
100
AcDbAlignedDimension
 13
43.79484769308797
 23
11.88264214223832
 33
0.0
 14
44.29484769308797
 24
11.88264214223832
 34
0.0
 50
180.0
100
AcDbRotatedDimension
1001
ACAD
1000
DSTYLE
1002
{
1070
   289
1070
     1
1070
    73
1070
     0
1070
    74
1070
     0
1070
   271
1070
     3
1070
   144
1040
0.5000000000000016
1070
   272
1070
     3
1070
    48
1040
0.0
1070
    47
1040
0.0
1002
}
  0
DIMENSION
  5
C08
330
6C
100
AcDbEntity
  8
Dimension (ANSI)
100
AcDbDimension
  2
*D15
 10
40.69503370788051
 20
11.38264214223832
 30
0.0
 11
41.68028440449759
 21
13.14613018095952
 31
0.0
 70
   160
  1
<>{\PTYP.}
 71
     5
 42
0.2499999999999997
  3
Default (ANSI)
100
AcDbAlignedDimension
 13
43.79484769308797
 23
11.88264214223832
 33
0.0
 14
43.79484769308797
 24
11.38264214223832
 34
0.0
 50
90.0
100
AcDbRotatedDimension
1001
ACAD
1000
DSTYLE
1002
{
1070
   289
1070
     1
1070
   271
1070
     3
1070
   144
1040
0.4999999999999995
1070
   272
1070
     3
1070
    48
1040
0.0
1070
    47
1040
0.0
1002
}
  0
DIMENSION
  5
D27
330
6C
100
AcDbEntity
  8
Dimension (ANSI)
100
AcDbDimension
  2
*D16
 10
45.22984769308796
 20
11.77005883974636
 30
0.0
 11
47.27294585313025
 21
13.11637100442616
 31
0.0
 70
   163
  1
{\fAIGDT|b0|i0;\H0.3600;\ln\fTahoma|b0|i0;\H0.3600;}0.130{\fTahoma|b0|i0;\H0.3600;\U+F8FA\fTahoma|b0|i0;\H0.3600;TYP.}
 71
     5
 42
0.2600000000000051
  3
Default (ANSI)
100
AcDbDiametricDimension
 15
45.359847693088
 25
11.99522544473029
 35
0.0
 40
0.0
1001
ACAD
1000
DSTYLE
1002
{
1070
   271
1070
     3
1070
   272
1070
     3
1070
    48
1040
0.0
1070
    47
1040
0.0
1002
}
1001
ACAD_DSTYLE_DIMRADIAL_EXTENSION
1070
   387
1070
     1
1070
   388
1040
0.0
1070
   390
1040
0.0
  0
MTEXT
  5
DD1
102
{ACAD_REACTORS
330
DD2
102
}
330
6C
100
AcDbEntity
  8
Symbol (ANSI)
100
AcDbMText
 10
11.07979030730857
 20
24.87060177649892
 30
0.0
 40
0.3600000044492286
 41
2.111863808369073
 71
     3
 72
     1
  1
{DETAIL-A}
  7
Note Text (ANSI)
 73
     1
 44
1.0
  0
LEADER
  5
DD2
330
6C
100
AcDbEntity
  8
Symbol (ANSI)
100
AcDbLeader
  3
Default (ANSI)$7
 73
     0
 75
     1
 40
0.3600000044492286
 41
2.07344527750772
 76
     3
 10
12.05276184314496
 20
23.48441712535683
 30
0.0
 10
11.4695540801482
 20
24.69060177427431
 30
0.0
 10
11.17427849628494
 20
24.69060177427431
 30
0.0
340
DD1
213
0.0
223
-0.1800000022246143
233
0.0
1001
ACAD
1000
DSTYLE
1002
{
1070
    77
1070
     0
1002
}
  0
MTEXT
  5
DD3
330
6C
100
AcDbEntity
  8
Symbol (ANSI)
100
AcDbMText
 10
44.6353893184897
 20
8.364992111142035
 30
0.0
 40
0.3600000044492286
 41
7.27429919043978
 71
     5
 72
     1
  1
{\fTahoma|b0|i0;\H0.3600;\LDETAIL-A\P(PERFORATED DETAIL)}
  7
Note Text (ANSI)
 73
     2
 44
0.9878841638565063
  0
LINE
  5
DD4
330
6C
100
AcDbEntity
  8
Center Mark (ANSI)
  6
CHAIN
 48
0.186926856637001
100
AcDbLine
 10
44.29984769308797
 20
11.88264214223832
 30
0.0
 11
43.28984769308798
 21
11.88264214223832
 31
0.0
  0
LINE
  5
DD5
330
6C
100
AcDbEntity
  8
Center Mark (ANSI)
  6
CHAIN
 48
0.186926856637001
100
AcDbLine
 10
43.79484769308797
 20
12.38764214223833
 30
0.0
 11
43.79484769308797
 21
11.37764214223832
 31
0.0
  0
LINE
  5
DD6
330
6C
100
AcDbEntity
  8
Center Mark (ANSI)
  6
CHAIN
 48
0.186926856637001
100
AcDbLine
 10
44.79984769308797
 20
11.88264214223832
 30
0.0
 11
43.78984769308797
 21
11.88264214223832
 31
0.0
  0
LINE
  5
DD7
330
6C
100
AcDbEntity
  8
Center Mark (ANSI)
  6
CHAIN
 48
0.186926856637001
100
AcDbLine
 10
44.29484769308797
 20
12.38764214223833
 30
0.0
 11
44.29484769308797
 21
11.37764214223832
 31
0.0
  0
LINE
  5
DD8
330
6C
100
AcDbEntity
  8
Center Mark (ANSI)
  6
CHAIN
 48
0.186926856637001
100
AcDbLine
 10
44.29984769308797
 20
11.38264214223832
 30
0.0
 11
43.28984769308798
 21
11.38264214223832
 31
0.0
  0
LINE
  5
DD9
330
6C
100
AcDbEntity
  8
Center Mark (ANSI)
  6
CHAIN
 48
0.186926856637001
100
AcDbLine
 10
43.79484769308797
 20
11.88764214223833
 30
0.0
 11
43.79484769308797
 21
10.87764214223832
 31
0.0
  0
LINE
  5
DDA
330
6C
100
AcDbEntity
  8
Center Mark (ANSI)
  6
CHAIN
 48
0.186926856637001
100
AcDbLine
 10
44.79984769308797
 20
11.38264214223832
 30
0.0
 11
43.78984769308797
 21
11.38264214223832
 31
0.0
  0
LINE
  5
DDB
330
6C
100
AcDbEntity
  8
Center Mark (ANSI)
  6
CHAIN
 48
0.186926856637001
100
AcDbLine
 10
44.29484769308797
 20
11.88764214223833
 30
0.0
 11
44.29484769308797
 21
10.87764214223832
 31
0.0
  0
MTEXT
  5
DDC
102
{ACAD_XDICTIONARY
360
DE8
102
}
330
6C
100
AcDbEntity
  8
Symbol (ANSI)
100
AcDbMText
 10
28.14763611436982
 20
2.889922025484565
 30
0.0
 40
0.3000000095742894
 41
22.15016132264626
 71
     4
 72
     1
  3
{\fRomanS|b0|i0|c0|p2;\H2x;PART#: NP1612PP\P(DATA SUBJECT TO CHANGE WITHOUT NOTICE)\H1.6157x; \H0.61894x;\P \H1.352x; \H0.73963x;\P\H0.6x;THIS DRAWING IS PROPERTY OF HUBBELL INC. WIEGMANN\H1.5633x; \H0.63966x;\PALL INFORMATION IS PROPRIETARY AND NOT 
  1
TO BE DUPLICATED\H1.234x; \H0.81039x;\P\H1.2571x; }
  7
Note Text (ANSI)
 73
     1
 44
0.8026435375213623
  0
ENDSEC
  0
SECTION
  2
OBJECTS
  0
DICTIONARY
  5
C
330
0
100
AcDbDictionary
281
     1
  3
ACAD_CIP_PREVIOUS_PRODUCT_INFO
350
DDE
  3
ACAD_COLOR
350
63
  3
ACAD_GROUP
350
D
  3
ACAD_LAYOUT
350
62
  3
ACAD_MATERIAL
350
10
  3
ACAD_MLEADERSTYLE
350
66
  3
ACAD_MLINESTYLE
350
5F
  3
ACAD_PLOTSETTINGS
350
61
  3
ACAD_PLOTSTYLENAME
350
E
  3
ACAD_SCALELIST
350
42
  3
ACAD_TABLESTYLE
350
64
  3
ACAD_VISUALSTYLE
350
29
  3
ACDB_RECOMPOSE_DATA
350
DEA
  3
AcDbVariableDictionary
350
76
  0
DICTIONARY
  5
E20
330
5E2
100
AcDbDictionary
280
     1
281
     1
  3
ACAD_MTEXT_2008_RT
360
E21
  0
DICTIONARY
  5
E22
330
69B
100
AcDbDictionary
280
     1
281
     1
  3
ACAD_MTEXT_2008_RT
360
E23
  0
DICTIONARY
  5
E24
330
DCB
100
AcDbDictionary
280
     1
281
     1
  3
ACAD_MTEXT_2008_RT
360
E25
  0
DICTIONARY
  5
DE8
330
DDC
100
AcDbDictionary
280
     1
281
     1
  3
ACAD_MTEXT_2008_RT
360
DE9
  0
XRECORD
  5
DDE
102
{ACAD_REACTORS
330
C
102
}
330
C
100
AcDbXrecord
280
     1
300
INVPROSA
300
2012
300
INVPROSA_F_S
  0
DICTIONARY
  5
63
102
{ACAD_REACTORS
330
C
102
}
330
C
100
AcDbDictionary
281
     1
  0
DICTIONARY
  5
D
102
{ACAD_REACTORS
330
C
102
}
330
C
100
AcDbDictionary
281
     1
  0
DICTIONARY
  5
62
102
{ACAD_REACTORS
330
C
102
}
330
C
100
AcDbDictionary
281
     1
  3
Layout1
350
6B
  3
Layout2
350
73
  3
Model
350
6F
  0
DICTIONARY
  5
10
102
{ACAD_REACTORS
330
C
102
}
330
C
100
AcDbDictionary
281
     1
  3
ByBlock
350
19
  3
ByLayer
350
11
  3
Global
350
21
  0
DICTIONARY
  5
66
102
{ACAD_REACTORS
330
C
102
}
330
C
100
AcDbDictionary
281
     1
  3
Standard
350
67
  0
DICTIONARY
  5
5F
102
{ACAD_REACTORS
330
C
102
}
330
C
100
AcDbDictionary
281
     1
  3
Standard
350
60
  0
DICTIONARY
  5
61
102
{ACAD_REACTORS
330
C
102
}
330
C
100
AcDbDictionary
281
     1
  0
ACDBDICTIONARYWDFLT
  5
E
102
{ACAD_REACTORS
330
C
102
}
330
C
100
AcDbDictionary
281
     1
  3
Normal
350
F
100
AcDbDictionaryWithDefault
340
F
  0
DICTIONARY
  5
42
102
{ACAD_REACTORS
330
C
102
}
330
C
100
AcDbDictionary
281
     1
  3
A0
350
43
  3
A1
350
44
  3
A2
350
45
  3
A3
350
46
  3
A4
350
47
  3
A5
350
48
  3
A6
350
49
  3
A7
350
4A
  3
A8
350
4B
  3
A9
350
4C
  3
B0
350
4D
  3
B1
350
4E
  3
B2
350
4F
  3
B3
350
50
  3
B4
350
51
  3
B5
350
52
  3
B6
350
53
  0
DICTIONARY
  5
64
102
{ACAD_REACTORS
330
C
102
}
330
C
100
AcDbDictionary
281
     1
  3
Standard
350
65
  0
DICTIONARY
  5
29
102
{ACAD_REACTORS
330
C
102
}
330
C
100
AcDbDictionary
281
     1
  3
2dWireframe
350
2F
  3
Basic
350
2E
  3
Brighten
350
35
  3
ColorChange
350
39
  3
Conceptual
350
32
  3
Dim
350
34
  3
EdgeColorOff
350
41
  3
Facepattern
350
38
  3
Flat
350
2A
  3
FlatWithEdges
350
2B
  3
Gouraud
350
2C
  3
GouraudWithEdges
350
2D
  3
Hidden
350
31
  3
JitterOff
350
3F
  3
Linepattern
350
37
  3
OverhangOff
350
40
  3
Realistic
350
33
  3
Shaded
350
3E
  3
Shaded with edges
350
3D
  3
Shades of Gray
350
3A
  3
Sketchy
350
3B
  3
Thicken
350
36
  3
Wireframe
350
30
  3
X-Ray
350
3C
  0
XRECORD
  5
DEA
102
{ACAD_REACTORS
330
C
102
}
330
C
100
AcDbXrecord
280
     1
 90
        1
330
65
330
DDC
  0
DICTIONARY
  5
76
102
{ACAD_REACTORS
330
C
102
}
330
C
100
AcDbDictionary
281
     1
  3
CANNOSCALE
350
79
  3
CMLEADERSTYLE
350
78
  3
CTABLESTYLE
350
77
  3
LAYEREVAL
350
DE1
  3
LAYERNOTIFY
350
DE2
  3
LIGHTINGUNITS
350
DE0
  3
MSLTSCALE
350
DDF
  3
XCLIPFRAME
350
DE3
  0
XRECORD
  5
E21
102
{ACAD_REACTORS
330
E20
102
}
330
E20
100
AcDbXrecord
280
     1
 40
24449.0
  1
\A1;\U+22050.563{\P(4 PL.)}
  0
XRECORD
  5
E23
102
{ACAD_REACTORS
330
E22
102
}
330
E22
100
AcDbXrecord
280
     1
 40
35991.0
  1
\A1;\U+22050.310{\PGROUND HOLE}
  0
XRECORD
  5
E25
102
{ACAD_REACTORS
330
E24
102
}
330
E24
100
AcDbXrecord
280
     1
 40
579858.0
  1
\A1;{\fAIGDT|b0|i0;\H0.3600;\ln\fTahoma|b0|i0;\H0.3600;}0.130{\fTahoma|b0|i0;\H0.3600;\U+F8FA\fTahoma|b0|i0;\H0.3600;TYP.}
  0
XRECORD
  5
DE9
102
{ACAD_REACTORS
330
DE8
102
}
330
DE8
100
AcDbXrecord
280
     1
 40
3069443.0
  1
\pxsm0.94;{\fRomanS|b0|i0;\H0.6000;PART#: NP1612PP\P(DATA SUBJECT TO CHANGE WITHOUT NOTICE)\P \P\fRomanS|b0|i0;\H0.3600;THIS DRAWING IS PROPERTY OF HUBBELL INC. WIEGMANN\PALL INFORMATION IS PROPRIETARY AND NOT TO BE DUPLICATED\P}
  0
LAYOUT
  5
6B
102
{ACAD_REACTORS
330
62
102
}
330
62
100
AcDbPlotSettings
  1

  2

  4

  6

 40
0.0
 41
0.0
 42
0.0
 43
0.0
 44
0.0
 45
0.0
 46
0.0
 47
0.0
 48
0.0
 49
0.0
140
0.0
141
0.0
142
1.0
143
1.0
 70
   688
 72
     0
 73
     0
 74
     5
  7

 75
    16
147
1.0
 76
     0
 77
     2
 78
   300
148
0.0
149
0.0
100
AcDbLayout
  1
Layout1
 70
     1
 71
     1
 10
0.0
 20
0.0
 11
12.0
 21
9.0
 12
0.0
 22
0.0
 32
0.0
 14
0.0
 24
0.0
 34
0.0
 15
0.0
 25
0.0
 35
0.0
146
0.0
 13
0.0
 23
0.0
 33
0.0
 16
1.0
 26
0.0
 36
0.0
 17
0.0
 27
1.0
 37
0.0
 76
     0
330
68
  0
LAYOUT
  5
73
102
{ACAD_REACTORS
330
62
102
}
330
62
100
AcDbPlotSettings
  1

  2

  4

  6

 40
0.0
 41
0.0
 42
0.0
 43
0.0
 44
0.0
 45
0.0
 46
0.0
 47
0.0
 48
0.0
 49
0.0
140
0.0
141
0.0
142
1.0
143
1.0
 70
   688
 72
     0
 73
     0
 74
     5
  7

 75
    16
147
1.0
 76
     0
 77
     2
 78
   300
148
0.0
149
0.0
100
AcDbLayout
  1
Layout2
 70
     1
 71
     2
 10
0.0
 20
0.0
 11
12.0
 21
9.0
 12
0.0
 22
0.0
 32
0.0
 14
0.0
 24
0.0
 34
0.0
 15
0.0
 25
0.0
 35
0.0
146
0.0
 13
0.0
 23
0.0
 33
0.0
 16
1.0
 26
0.0
 36
0.0
 17
0.0
 27
1.0
 37
0.0
 76
     0
330
70
  0
LAYOUT
  5
6F
102
{ACAD_REACTORS
330
62
102
}
330
62
100
AcDbPlotSettings
  1

  2

  4

  6

 40
0.0
 41
0.0
 42
0.0
 43
0.0
 44
0.0
 45
0.0
 46
0.0
 47
0.0
 48
0.0
 49
0.0
140
0.0
141
0.0
142
1.0
143
1.0
 70
  1712
 72
     0
 73
     0
 74
     0
  7

 75
     0
147
1.0
 76
     0
 77
     2
 78
   300
148
0.0
149
0.0
100
AcDbLayout
  1
Model
 70
     1
 71
     0
 10
0.0
 20
0.0
 11
12.0
 21
9.0
 12
0.0
 22
0.0
 32
0.0
 14
0.0
 24
0.0
 34
0.0
 15
0.0
 25
0.0
 35
0.0
146
0.0
 13
0.0
 23
0.0
 33
0.0
 16
1.0
 26
0.0
 36
0.0
 17
0.0
 27
1.0
 37
0.0
 76
     0
330
6C
  0
MATERIAL
  5
19
102
{ACAD_XDICTIONARY
360
1A
102
}
102
{ACAD_REACTORS
330
10
102
}
330
10
100
AcDbMaterial
  1
ByBlock
 72
     0
 43
0.0208333333333333
 43
0.0
 43
0.0
 43
0.0
 43
0.0
 43
0.0208333333333333
 43
0.0
 43
0.0
 43
0.0
 43
0.0
 43
1.0
 43
0.0
 43
0.0
 43
0.0
 43
0.0
 43
1.0
 77
     0
 47
0.0208333333333333
 47
0.0
 47
0.0
 47
0.0
 47
0.0
 47
0.0208333333333333
 47
0.0
 47
0.0
 47
0.0
 47
0.0
 47
1.0
 47
0.0
 47
0.0
 47
0.0
 47
0.0
 47
1.0
171
     0
 49
0.0208333333333333
 49
0.0
 49
0.0
 49
0.0
 49
0.0
 49
0.0208333333333333
 49
0.0
 49
0.0
 49
0.0
 49
0.0
 49
1.0
 49
0.0
 49
0.0
 49
0.0
 49
0.0
 49
1.0
175
     0
142
0.0208333333333333
142
0.0
142
0.0
142
0.0
142
0.0
142
0.0208333333333333
142
0.0
142
0.0
142
0.0
142
0.0
142
1.0
142
0.0
142
0.0
142
0.0
142
0.0
142
1.0
179
     0
144
0.0208333333333333
144
0.0
144
0.0
144
0.0
144
0.0
144
0.0208333333333333
144
0.0
144
0.0
144
0.0
144
0.0
144
1.0
144
0.0
144
0.0
144
0.0
144
0.0
144
1.0
147
0.0208333333333333
147
0.0
147
0.0
147
0.0
147
0.0
147
0.0208333333333333
147
0.0
147
0.0
147
0.0
147
0.0
147
1.0
147
0.0
147
0.0
147
0.0
147
0.0
147
1.0
  0
MATERIAL
  5
11
102
{ACAD_XDICTIONARY
360
12
102
}
102
{ACAD_REACTORS
330
10
102
}
330
10
100
AcDbMaterial
  1
ByLayer
 72
     0
 43
0.0208333333333333
 43
0.0
 43
0.0
 43
0.0
 43
0.0
 43
0.0208333333333333
 43
0.0
 43
0.0
 43
0.0
 43
0.0
 43
1.0
 43
0.0
 43
0.0
 43
0.0
 43
0.0
 43
1.0
 77
     0
 47
0.0208333333333333
 47
0.0
 47
0.0
 47
0.0
 47
0.0
 47
0.0208333333333333
 47
0.0
 47
0.0
 47
0.0
 47
0.0
 47
1.0
 47
0.0
 47
0.0
 47
0.0
 47
0.0
 47
1.0
171
     0
 49
0.0208333333333333
 49
0.0
 49
0.0
 49
0.0
 49
0.0
 49
0.0208333333333333
 49
0.0
 49
0.0
 49
0.0
 49
0.0
 49
1.0
 49
0.0
 49
0.0
 49
0.0
 49
0.0
 49
1.0
175
     0
142
0.0208333333333333
142
0.0
142
0.0
142
0.0
142
0.0
142
0.0208333333333333
142
0.0
142
0.0
142
0.0
142
0.0
142
1.0
142
0.0
142
0.0
142
0.0
142
0.0
142
1.0
179
     0
144
0.0208333333333333
144
0.0
144
0.0
144
0.0
144
0.0
144
0.0208333333333333
144
0.0
144
0.0
144
0.0
144
0.0
144
1.0
144
0.0
144
0.0
144
0.0
144
0.0
144
1.0
147
0.0208333333333333
147
0.0
147
0.0
147
0.0
147
0.0
147
0.0208333333333333
147
0.0
147
0.0
147
0.0
147
0.0
147
1.0
147
0.0
147
0.0
147
0.0
147
0.0
147
1.0
  0
MATERIAL
  5
21
102
{ACAD_XDICTIONARY
360
22
102
}
102
{ACAD_REACTORS
330
10
102
}
330
10
100
AcDbMaterial
  1
Global
 72
     0
 43
0.0208333333333333
 43
0.0
 43
0.0
 43
0.0
 43
0.0
 43
0.0208333333333333
 43
0.0
 43
0.0
 43
0.0
 43
0.0
 43
1.0
 43
0.0
 43
0.0
 43
0.0
 43
0.0
 43
1.0
 77
     0
 47
0.0208333333333333
 47
0.0
 47
0.0
 47
0.0
 47
0.0
 47
0.0208333333333333
 47
0.0
 47
0.0
 47
0.0
 47
0.0
 47
1.0
 47
0.0
 47
0.0
 47
0.0
 47
0.0
 47
1.0
171
     0
 49
0.0208333333333333
 49
0.0
 49
0.0
 49
0.0
 49
0.0
 49
0.0208333333333333
 49
0.0
 49
0.0
 49
0.0
 49
0.0
 49
1.0
 49
0.0
 49
0.0
 49
0.0
 49
0.0
 49
1.0
175
     0
142
0.0208333333333333
142
0.0
142
0.0
142
0.0
142
0.0
142
0.0208333333333333
142
0.0
142
0.0
142
0.0
142
0.0
142
1.0
142
0.0
142
0.0
142
0.0
142
0.0
142
1.0
179
     0
144
0.0208333333333333
144
0.0
144
0.0
144
0.0
144
0.0
144
0.0208333333333333
144
0.0
144
0.0
144
0.0
144
0.0
144
1.0
144
0.0
144
0.0
144
0.0
144
0.0
144
1.0
147
0.0208333333333333
147
0.0
147
0.0
147
0.0
147
0.0
147
0.0208333333333333
147
0.0
147
0.0
147
0.0
147
0.0
147
1.0
147
0.0
147
0.0
147
0.0
147
0.0
147
1.0
  0
MLEADERSTYLE
  5
67
102
{ACAD_XDICTIONARY
360
DE6
102
}
102
{ACAD_REACTORS
330
66
102
}
330
66
100
AcDbMLeaderStyle
170
     2
171
     1
172
     0
 90
        2
 40
0.0
 41
0.0
173
     1
 91
-1056964608
340
5B
 92
       -2
290
     1
 42
0.09
291
     1
 43
0.36
  3
Standard
 44
0.18
300

342
55
174
     1
178
     6
175
     1
176
     0
 93
-1056964608
 45
0.18
292
     0
297
     0
 46
0.18
 94
-1056964608
 47
1.0
 49
1.0
140
1.0
293
     1
141
0.0
294
     1
177
     0
142
1.0
295
     0
296
     0
143
0.125
1001
ACAD_MLEADERVER
1070
     2
  0
MLINESTYLE
  5
60
102
{ACAD_REACTORS
330
5F
102
}
330
5F
100
AcDbMlineStyle
  2
STANDARD
 70
     0
  3

 62
   256
 51
90.0
 52
90.0
 71
     2
 49
0.5
 62
   256
  6
BYLAYER
 49
-0.5
 62
   256
  6
BYLAYER
  0
ACDBPLACEHOLDER
  5
F
102
{ACAD_REACTORS
330
E
102
}
330
E
  0
SCALE
  5
43
102
{ACAD_REACTORS
330
42
102
}
330
42
100
AcDbScale
 70
     0
300
1:1
140
1.0
141
1.0
290
     1
  0
SCALE
  5
44
102
{ACAD_REACTORS
330
42
102
}
330
42
100
AcDbScale
 70
     0
300
1/128" = 1'-0"
140
0.0078125
141
12.0
290
     0
  0
SCALE
  5
45
102
{ACAD_REACTORS
330
42
102
}
330
42
100
AcDbScale
 70
     0
300
1/64" = 1'-0"
140
0.015625
141
12.0
290
     0
  0
SCALE
  5
46
102
{ACAD_REACTORS
330
42
102
}
330
42
100
AcDbScale
 70
     0
300
1/32" = 1'-0"
140
0.03125
141
12.0
290
     0
  0
SCALE
  5
47
102
{ACAD_REACTORS
330
42
102
}
330
42
100
AcDbScale
 70
     0
300
1/16" = 1'-0"
140
0.0625
141
12.0
290
     0
  0
SCALE
  5
48
102
{ACAD_REACTORS
330
42
102
}
330
42
100
AcDbScale
 70
     0
300
3/32" = 1'-0"
140
0.09375
141
12.0
290
     0
  0
SCALE
  5
49
102
{ACAD_REACTORS
330
42
102
}
330
42
100
AcDbScale
 70
     0
300
1/8" = 1'-0"
140
0.125
141
12.0
290
     0
  0
SCALE
  5
4A
102
{ACAD_REACTORS
330
42
102
}
330
42
100
AcDbScale
 70
     0
300
3/16" = 1'-0"
140
0.1875
141
12.0
290
     0
  0
SCALE
  5
4B
102
{ACAD_REACTORS
330
42
102
}
330
42
100
AcDbScale
 70
     0
300
1/4" = 1'-0"
140
0.25
141
12.0
290
     0
  0
SCALE
  5
4C
102
{ACAD_REACTORS
330
42
102
}
330
42
100
AcDbScale
 70
     0
300
3/8" = 1'-0"
140
0.375
141
12.0
290
     0
  0
SCALE
  5
4D
102
{ACAD_REACTORS
330
42
102
}
330
42
100
AcDbScale
 70
     0
300
1/2" = 1'-0"
140
0.5
141
12.0
290
     0
  0
SCALE
  5
4E
102
{ACAD_REACTORS
330
42
102
}
330
42
100
AcDbScale
 70
     0
300
3/4" = 1'-0"
140
0.75
141
12.0
290
     0
  0
SCALE
  5
4F
102
{ACAD_REACTORS
330
42
102
}
330
42
100
AcDbScale
 70
     0
300
1" = 1'-0"
140
1.0
141
12.0
290
     0
  0
SCALE
  5
50
102
{ACAD_REACTORS
330
42
102
}
330
42
100
AcDbScale
 70
     0
300
1-1/2" = 1'-0"
140
1.5
141
12.0
290
     0
  0
SCALE
  5
51
102
{ACAD_REACTORS
330
42
102
}
330
42
100
AcDbScale
 70
     0
300
3" = 1'-0"
140
3.0
141
12.0
290
     0
  0
SCALE
  5
52
102
{ACAD_REACTORS
330
42
102
}
330
42
100
AcDbScale
 70
     0
300
6" = 1'-0"
140
6.0
141
12.0
290
     0
  0
SCALE
  5
53
102
{ACAD_REACTORS
330
42
102
}
330
42
100
AcDbScale
 70
     0
300
1'-0" = 1'-0"
140
12.0
141
12.0
290
     0
  0
TABLESTYLE
  5
65
102
{ACAD_XDICTIONARY
360
DE4
102
}
102
{ACAD_REACTORS
330
64
102
}
330
64
100
AcDbTableStyle
  3
Standard
 70
     0
 71
     0
 40
0.06
 41
0.06
280
     0
281
     0
  7
Standard
140
0.18
170
     2
 62
     0
 63
     7
283
     0
274
    -2
284
     1
 64
     0
275
    -2
285
     1
 65
     0
276
    -2
286
     1
 66
     0
277
    -2
287
     1
 67
     0
278
    -2
288
     1
 68
     0
279
    -2
289
     1
 69
     0
  7
Standard
140
0.25
170
     5
 62
     0
 63
     7
283
     0
274
    -2
284
     1
 64
     0
275
    -2
285
     1
 65
     0
276
    -2
286
     1
 66
     0
277
    -2
287
     1
 67
     0
278
    -2
288
     1
 68
     0
279
    -2
289
     1
 69
     0
  7
Standard
140
0.18
170
     5
 62
     0
 63
     7
283
     0
274
    -2
284
     1
 64
     0
275
    -2
285
     1
 65
     0
276
    -2
286
     1
 66
     0
277
    -2
287
     1
 67
     0
278
    -2
288
     1
 68
     0
279
    -2
289
     1
 69
     0
  0
VISUALSTYLE
  5
2F
102
{ACAD_XDICTIONARY
360
DF8
102
}
102
{ACAD_REACTORS
330
29
102
}
330
29
100
AcDbVisualStyle
  2
2dWireframe
 70
     4
 71
     0
 72
     2
 73
     0
 90
        0
 40
-0.6
 41
-30.0
 62
     5
 63
     7
421
 16777215
 74
     1
 91
        4
 64
     7
 65
   257
 75
     1
175
     1
 42
1.0
 92
        0
 66
   257
 43
1.0
 76
     1
 77
     6
 78
     2
 67
     7
 79
     5
170
     0
171
     0
290
     0
174
     0
 93
        1
 44
0.0
173
     0
291
     0
 45
0.0
1001
ACAD
1000
AcDbSavedByObjectVersion
1070
     0
  0
VISUALSTYLE
  5
2E
102
{ACAD_XDICTIONARY
360
DF6
102
}
102
{ACAD_REACTORS
330
29
102
}
330
29
100
AcDbVisualStyle
  2
Basic
 70
     7
 71
     1
 72
     0
 73
     1
 90
        0
 40
-0.6
 41
-30.0
 62
     5
 63
     7
421
 16777215
 74
     0
 91
        4
 64
     7
 65
   257
 75
     1
175
     1
 42
1.0
 92
        8
 66
     7
 43
1.0
 76
     1
 77
     6
 78
     2
 67
     7
 79
     5
170
     0
171
     0
290
     0
174
     0
 93
        1
 44
0.0
173
     0
291
     1
 45
0.0
1001
ACAD
1000
AcDbSavedByObjectVersion
1070
     0
  0
VISUALSTYLE
  5
35
102
{ACAD_XDICTIONARY
360
E04
102
}
102
{ACAD_REACTORS
330
29
102
}
330
29
100
AcDbVisualStyle
  2
Brighten
 70
    12
 71
     2
 72
     2
 73
     0
 90
        0
 40
-0.6
 41
-30.0
 62
     5
 63
     7
421
 16777215
 74
     1
 91
        4
 64
     7
 65
   257
 75
     1
175
     1
 42
1.0
 92
        8
 66
     7
 43
1.0
 76
     1
 77
     6
 78
     2
 67
     7
 79
     5
170
     0
171
     0
290
     0
174
     0
 93
        1
 44
50.0
173
     0
291
     1
 45
0.0
1001
ACAD
1000
AcDbSavedByObjectVersion
1070
     0
  0
VISUALSTYLE
  5
39
102
{ACAD_XDICTIONARY
360
E0C
102
}
102
{ACAD_REACTORS
330
29
102
}
330
29
100
AcDbVisualStyle
  2
ColorChange
 70
    16
 71
     2
 72
     2
 73
     3
 90
        0
 40
-0.6
 41
-30.0
 62
     5
 63
     8
421
  8421504
 74
     1
 91
        4
 64
     7
 65
   257
 75
     1
175
     1
 42
1.0
 92
        8
 66
     8
424
  8421504
 43
1.0
 76
     1
 77
     6
 78
     2
 67
     7
 79
     5
170
     0
171
     0
290
     0
174
     0
 93
        1
 44
0.0
173
     0
291
     1
 45
0.0
1001
ACAD
1000
AcDbSavedByObjectVersion
1070
     0
  0
VISUALSTYLE
  5
32
102
{ACAD_XDICTIONARY
360
DFE
102
}
102
{ACAD_REACTORS
330
29
102
}
330
29
100
AcDbVisualStyle
  2
Conceptual
 70
     9
 71
     3
 72
     2
 73
     0
 90
        0
 40
-0.6
 41
-30.0
 62
     5
 63
     7
421
 16777215
 74
     2
 91
        2
 64
     7
 65
   257
 75
     1
175
     1
 42
179.0
 92
        8
 66
     7
 43
1.0
 76
     1
 77
     6
 78
     2
 67
     7
 79
     3
170
     0
171
     0
290
     0
174
     0
 93
        1
 44
0.0
173
     0
291
     0
 45
0.0
1001
ACAD
1000
AcDbSavedByObjectVersion
1070
     0
  0
VISUALSTYLE
  5
34
102
{ACAD_XDICTIONARY
360
E02
102
}
102
{ACAD_REACTORS
330
29
102
}
330
29
100
AcDbVisualStyle
  2
Dim
 70
    11
 71
     2
 72
     2
 73
     0
 90
        0
 40
-0.6
 41
-30.0
 62
     5
 63
     7
421
 16777215
 74
     1
 91
        4
 64
     7
 65
   257
 75
     1
175
     1
 42
1.0
 92
        8
 66
     7
 43
1.0
 76
     1
 77
     6
 78
     2
 67
     7
 79
     5
170
     0
171
     0
290
     0
174
     0
 93
        1
 44
-50.0
173
     0
291
     1
 45
0.0
1001
ACAD
1000
AcDbSavedByObjectVersion
1070
     0
  0
VISUALSTYLE
  5
41
102
{ACAD_XDICTIONARY
360
E1C
102
}
102
{ACAD_REACTORS
330
29
102
}
330
29
100
AcDbVisualStyle
  2
EdgeColorOff
 70
    22
 71
     2
 72
     2
 73
     0
 90
        0
 40
-0.6
 41
-30.0
 62
     5
 63
     7
421
 16777215
 74
     1
 91
        4
 64
     7
 65
   257
 75
     1
175
     1
 42
1.0
 92
        8
 66
     7
 43
1.0
 76
     1
 77
     6
 78
     2
 67
     7
 79
     5
170
     0
171
     0
290
     0
174
     0
 93
        1
 44
0.0
173
     0
291
     1
 45
0.0
1001
ACAD
1000
AcDbSavedByObjectVersion
1070
     0
  0
VISUALSTYLE
  5
38
102
{ACAD_XDICTIONARY
360
E0A
102
}
102
{ACAD_REACTORS
330
29
102
}
330
29
100
AcDbVisualStyle
  2
Facepattern
 70
    15
 71
     2
 72
     2
 73
     0
 90
        0
 40
-0.6
 41
-30.0
 62
     5
 63
     7
421
 16777215
 74
     1
 91
        4
 64
     7
 65
   257
 75
     1
175
     1
 42
1.0
 92
        8
 66
     7
 43
1.0
 76
     1
 77
     6
 78
     2
 67
     7
 79
     5
170
     0
171
     0
290
     0
174
     0
 93
        1
 44
0.0
173
     0
291
     1
 45
0.0
1001
ACAD
1000
AcDbSavedByObjectVersion
1070
     0
  0
VISUALSTYLE
  5
2A
102
{ACAD_XDICTIONARY
360
DEE
102
}
102
{ACAD_REACTORS
330
29
102
}
330
29
100
AcDbVisualStyle
  2
Flat
 70
     0
 71
     2
 72
     1
 73
     1
 90
        2
 40
-0.6
 41
30.0
 62
     5
 63
     7
421
 16777215
 74
     0
 91
        0
 64
     7
 65
   257
 75
     1
175
     1
 42
1.0
 92
        8
 66
     7
 43
1.0
 76
     1
 77
     6
 78
     2
 67
     7
 79
     5
170
     0
171
     0
290
     0
174
     0
 93
       13
 44
0.0
173
     0
291
     1
 45
0.0
1001
ACAD
1000
AcDbSavedByObjectVersion
1070
     0
  0
VISUALSTYLE
  5
2B
102
{ACAD_XDICTIONARY
360
DF0
102
}
102
{ACAD_REACTORS
330
29
102
}
330
29
100
AcDbVisualStyle
  2
FlatWithEdges
 70
     1
 71
     2
 72
     1
 73
     1
 90
        2
 40
-0.6
 41
30.0
 62
     5
 63
     7
421
 16777215
 74
     1
 91
        0
 64
     7
 65
   257
 75
     1
175
     1
 42
1.0
 92
        0
 66
   257
 43
1.0
 76
     1
 77
     6
 78
     2
 67
     7
 79
     5
170
     0
171
     0
290
     0
174
     0
 93
       13
 44
0.0
173
     0
291
     1
 45
0.0
1001
ACAD
1000
AcDbSavedByObjectVersion
1070
     0
  0
VISUALSTYLE
  5
2C
102
{ACAD_XDICTIONARY
360
DF2
102
}
102
{ACAD_REACTORS
330
29
102
}
330
29
100
AcDbVisualStyle
  2
Gouraud
 70
     2
 71
     2
 72
     2
 73
     1
 90
        2
 40
-0.6
 41
30.0
 62
     5
 63
     7
421
 16777215
 74
     0
 91
        0
 64
     7
 65
   257
 75
     1
175
     1
 42
1.0
 92
        0
 66
     7
 43
1.0
 76
     1
 77
     6
 78
     2
 67
     7
 79
     5
170
     0
171
     0
290
     0
174
     0
 93
       13
 44
0.0
173
     0
291
     1
 45
0.0
1001
ACAD
1000
AcDbSavedByObjectVersion
1070
     0
  0
VISUALSTYLE
  5
2D
102
{ACAD_XDICTIONARY
360
DF4
102
}
102
{ACAD_REACTORS
330
29
102
}
330
29
100
AcDbVisualStyle
  2
GouraudWithEdges
 70
     3
 71
     2
 72
     2
 73
     1
 90
        2
 40
-0.6
 41
30.0
 62
     5
 63
     7
421
 16777215
 74
     1
 91
        0
 64
     7
 65
   257
 75
     1
175
     1
 42
1.0
 92
        0
 66
   257
 43
1.0
 76
     1
 77
     6
 78
     2
 67
     7
 79
     5
170
     0
171
     0
290
     0
174
     0
 93
       13
 44
0.0
173
     0
291
     1
 45
0.0
1001
ACAD
1000
AcDbSavedByObjectVersion
1070
     0
  0
VISUALSTYLE
  5
31
102
{ACAD_XDICTIONARY
360
DFC
102
}
102
{ACAD_REACTORS
330
29
102
}
330
29
100
AcDbVisualStyle
  2
Hidden
 70
     6
 71
     1
 72
     2
 73
     2
 90
        0
 40
-0.6
 41
-30.0
 62
     5
 63
     7
421
 16777215
 74
     2
 91
        2
 64
     7
 65
   257
 75
     2
175
     1
 42
40.0
 92
        0
 66
   257
 43
1.0
 76
     1
 77
     6
 78
     2
 67
     7
 79
     3
170
     0
171
     0
290
     0
174
     0
 93
        1
 44
0.0
173
     0
291
     0
 45
0.0
1001
ACAD
1000
AcDbSavedByObjectVersion
1070
     0
  0
VISUALSTYLE
  5
3F
102
{ACAD_XDICTIONARY
360
E18
102
}
102
{ACAD_REACTORS
330
29
102
}
330
29
100
AcDbVisualStyle
  2
JitterOff
 70
    20
 71
     2
 72
     2
 73
     0
 90
        0
 40
-0.6
 41
-30.0
 62
     5
 63
     7
421
 16777215
 74
     1
 91
        4
 64
     7
 65
   257
 75
     1
175
     1
 42
1.0
 92
       10
 66
     7
 43
1.0
 76
     1
 77
     6
 78
     2
 67
     7
 79
     5
170
     0
171
     0
290
     0
174
     0
 93
        1
 44
0.0
173
     0
291
     1
 45
0.0
1001
ACAD
1000
AcDbSavedByObjectVersion
1070
     0
  0
VISUALSTYLE
  5
37
102
{ACAD_XDICTIONARY
360
E08
102
}
102
{ACAD_REACTORS
330
29
102
}
330
29
100
AcDbVisualStyle
  2
Linepattern
 70
    14
 71
     2
 72
     2
 73
     0
 90
        0
 40
-0.6
 41
-30.0
 62
     5
 63
     7
421
 16777215
 74
     1
 91
        4
 64
     7
 65
   257
 75
     7
175
     7
 42
1.0
 92
        8
 66
     7
 43
1.0
 76
     1
 77
     6
 78
     2
 67
     7
 79
     5
170
     0
171
     0
290
     0
174
     0
 93
        1
 44
0.0
173
     0
291
     1
 45
0.0
1001
ACAD
1000
AcDbSavedByObjectVersion
1070
     0
  0
VISUALSTYLE
  5
40
102
{ACAD_XDICTIONARY
360
E1A
102
}
102
{ACAD_REACTORS
330
29
102
}
330
29
100
AcDbVisualStyle
  2
OverhangOff
 70
    21
 71
     2
 72
     2
 73
     0
 90
        0
 40
-0.6
 41
-30.0
 62
     5
 63
     7
421
 16777215
 74
     1
 91
        4
 64
     7
 65
   257
 75
     1
175
     1
 42
1.0
 92
        9
 66
     7
 43
1.0
 76
     1
 77
     6
 78
     2
 67
     7
 79
     5
170
     0
171
     0
290
     0
174
     0
 93
        1
 44
0.0
173
     0
291
     1
 45
0.0
1001
ACAD
1000
AcDbSavedByObjectVersion
1070
     0
  0
VISUALSTYLE
  5
33
102
{ACAD_XDICTIONARY
360
E00
102
}
102
{ACAD_REACTORS
330
29
102
}
330
29
100
AcDbVisualStyle
  2
Realistic
 70
     8
 71
     2
 72
     3
 73
     0
 90
        2
 40
-0.6
 41
30.0
 62
     5
 63
     7
421
 16777215
 74
     0
 91
        0
 64
     7
 65
   257
 75
     1
175
     1
 42
1.0
 92
        8
 66
   257
 43
1.0
 76
     1
 77
     6
 78
     2
 67
     7
 79
     3
170
     0
171
     0
290
     0
174
     0
 93
       13
 44
0.0
173
     0
291
     0
 45
0.0
1001
ACAD
1000
AcDbSavedByObjectVersion
1070
     0
  0
VISUALSTYLE
  5
3E
102
{ACAD_XDICTIONARY
360
E16
102
}
102
{ACAD_REACTORS
330
29
102
}
330
29
100
AcDbVisualStyle
  2
Shaded
 70
    27
 71
     2
 72
     2
 73
     1
 90
        2
 40
-0.6
 41
30.0
 62
     5
 63
     7
421
 16777215
 74
     0
 91
        4
 64
     7
 65
   257
 75
     1
175
     1
 42
1.0
 92
        8
 66
   257
 43
1.0
 76
     1
 77
     6
 78
     2
 67
     8
425
  7895160
 79
     3
170
     0
171
     0
290
     0
174
     0
 93
        5
 44
0.0
173
     0
291
     0
 45
0.0
1001
ACAD
1000
AcDbSavedByObjectVersion
1070
     0
  0
VISUALSTYLE
  5
3D
102
{ACAD_XDICTIONARY
360
E14
102
}
102
{ACAD_REACTORS
330
29
102
}
330
29
100
AcDbVisualStyle
  2
Shaded with edges
 70
    26
 71
     2
 72
     2
 73
     1
 90
        2
 40
-0.6
 41
30.0
 62
     5
 63
     7
421
 16777215
 74
     1
 91
       10
 64
     7
 65
   257
 75
     2
175
     1
 42
1.0
 92
        8
 66
   257
 43
1.0
 76
     1
 77
     6
 78
     2
 67
     7
 79
     3
170
     0
171
     0
290
     0
174
     0
 93
        5
 44
0.0
173
     0
291
     0
 45
0.0
1001
ACAD
1000
AcDbSavedByObjectVersion
1070
     0
  0
VISUALSTYLE
  5
3A
102
{ACAD_XDICTIONARY
360
E0E
102
}
102
{ACAD_REACTORS
330
29
102
}
330
29
100
AcDbVisualStyle
  2
Shades of Gray
 70
    23
 71
     2
 72
     2
 73
     3
 90
        0
 40
-0.6
 41
-30.0
 62
     5
 63
     7
421
 16777215
 74
     2
 91
        2
 64
     7
 65
     7
 75
     1
175
     1
 42
40.0
 92
        8
 66
     7
 43
1.0
 76
     1
 77
     6
 78
     2
 67
     7
 79
     3
170
     0
171
     0
290
     0
174
     0
 93
        1
 44
0.0
173
     0
291
     0
 45
0.0
1001
ACAD
1000
AcDbSavedByObjectVersion
1070
     0
  0
VISUALSTYLE
  5
3B
102
{ACAD_XDICTIONARY
360
E10
102
}
102
{ACAD_REACTORS
330
29
102
}
330
29
100
AcDbVisualStyle
  2
Sketchy
 70
    24
 71
     1
 72
     2
 73
     2
 90
        0
 40
-0.6
 41
-30.0
 62
     5
 63
     7
421
 16777215
 74
     2
 91
        2
 64
     7
 65
     7
 75
     1
175
     1
 42
40.0
 92
       11
 66
     7
 43
1.0
 76
     1
 77
     6
 78
     2
 67
     7
 79
     6
170
     0
171
     0
290
     0
174
     0
 93
        1
 44
0.0
173
     0
291
     0
 45
0.0
1001
ACAD
1000
AcDbSavedByObjectVersion
1070
     0
  0
VISUALSTYLE
  5
36
102
{ACAD_XDICTIONARY
360
E06
102
}
102
{ACAD_REACTORS
330
29
102
}
330
29
100
AcDbVisualStyle
  2
Thicken
 70
    13
 71
     2
 72
     2
 73
     0
 90
        0
 40
-0.6
 41
-30.0
 62
     5
 63
     7
421
 16777215
 74
     1
 91
        4
 64
     7
 65
   257
 75
     1
175
     1
 42
1.0
 92
       12
 66
     7
 43
1.0
 76
     1
 77
     6
 78
     2
 67
     7
 79
     5
170
     0
171
     0
290
     0
174
     0
 93
        1
 44
0.0
173
     0
291
     1
 45
0.0
1001
ACAD
1000
AcDbSavedByObjectVersion
1070
     0
  0
VISUALSTYLE
  5
30
102
{ACAD_XDICTIONARY
360
DFA
102
}
102
{ACAD_REACTORS
330
29
102
}
330
29
100
AcDbVisualStyle
  2
Wireframe
 70
     5
 71
     0
 72
     2
 73
     0
 90
        0
 40
-0.6
 41
-30.0
 62
     5
 63
     7
421
 16777215
 74
     1
 91
        4
 64
     7
 65
   257
 75
     1
175
     1
 42
1.0
 92
        0
 66
   257
 43
1.0
 76
     1
 77
     6
 78
     2
 67
     7
 79
     3
170
     0
171
     0
290
     0
174
     0
 93
        1
 44
0.0
173
     0
291
     0
 45
0.0
1001
ACAD
1000
AcDbSavedByObjectVersion
1070
     0
  0
VISUALSTYLE
  5
3C
102
{ACAD_XDICTIONARY
360
E12
102
}
102
{ACAD_REACTORS
330
29
102
}
330
29
100
AcDbVisualStyle
  2
X-Ray
 70
    25
 71
     2
 72
     2
 73
     1
 90
        1
 40
0.5
 41
-30.0
 62
     5
 63
     7
421
 16777215
 74
     1
 91
        0
 64
     7
 65
   257
 75
     1
175
     1
 42
1.0
 92
        8
 66
     7
 43
1.0
 76
     1
 77
     6
 78
     2
 67
     7
 79
     3
170
     0
171
     0
290
     0
174
     0
 93
       13
 44
0.0
173
     0
291
     0
 45
0.0
1001
ACAD
1000
AcDbSavedByObjectVersion
1070
     0
  0
DICTIONARYVAR
  5
79
102
{ACAD_REACTORS
330
76
102
}
330
76
100
DictionaryVariables
280
     0
  1
1:1
  0
DICTIONARYVAR
  5
78
102
{ACAD_REACTORS
330
76
102
}
330
76
100
DictionaryVariables
280
     0
  1
STANDARD
  0
DICTIONARYVAR
  5
77
102
{ACAD_REACTORS
330
76
102
}
330
76
100
DictionaryVariables
280
     0
  1
STANDARD
  0
DICTIONARYVAR
  5
DE1
102
{ACAD_REACTORS
330
76
102
}
330
76
100
DictionaryVariables
280
     0
  1
0
  0
DICTIONARYVAR
  5
DE2
102
{ACAD_REACTORS
330
76
102
}
330
76
100
DictionaryVariables
280
     0
  1
0
  0
DICTIONARYVAR
  5
DE0
102
{ACAD_REACTORS
330
76
102
}
330
76
100
DictionaryVariables
280
     0
  1
2
  0
DICTIONARYVAR
  5
DDF
102
{ACAD_REACTORS
330
76
102
}
330
76
100
DictionaryVariables
280
     0
  1
1
  0
DICTIONARYVAR
  5
DE3
102
{ACAD_REACTORS
330
76
102
}
330
76
100
DictionaryVariables
280
     0
  1
2
  0
DICTIONARY
  5
1A
330
19
100
AcDbDictionary
280
     1
281
     1
  3
ACAD_XREC_ROUNDTRIP
360
DEC
  3
BUMPTILE
360
1C
  3
DIFFUSETILE
360
1B
  3
OPACITYTILE
360
1F
  3
REFLECTIONTILE
360
1E
  3
REFRACTIONTILE
360
20
  3
SPECULARTILE
360
1D
  0
DICTIONARY
  5
12
330
11
100
AcDbDictionary
280
     1
281
     1
  3
ACAD_XREC_ROUNDTRIP
360
DEB
  3
BUMPTILE
360
14
  3
DIFFUSETILE
360
13
  3
FBXASSET
360
109
  3
OPACITYTILE
360
17
  3
REFLECTIONTILE
360
16
  3
REFRACTIONTILE
360
18
  3
SPECULARTILE
360
15
  0
DICTIONARY
  5
22
330
21
100
AcDbDictionary
280
     1
281
     1
  3
ACAD_XREC_ROUNDTRIP
360
DED
  3
BUMPTILE
360
24
  3
DIFFUSETILE
360
23
  3
FBXASSET
360
BA
  3
OPACITYTILE
360
27
  3
REFLECTIONTILE
360
26
  3
REFRACTIONTILE
360
28
  3
SPECULARTILE
360
25
  0
DICTIONARY
  5
DE6
330
67
100
AcDbDictionary
280
     1
281
     1
  3
ACAD_XREC_ROUNDTRIP
360
DE7
  0
DICTIONARY
  5
DE4
330
65
100
AcDbDictionary
280
     1
281
     1
  3
ACAD_ROUNDTRIP_2008_TABLESTYLE_CELLSTYLEMAP
360
DE5
  3
ACAD_XREC_ROUNDTRIP
360
E1E
  0
DICTIONARY
  5
DF8
330
2F
100
AcDbDictionary
280
     1
281
     1
  3
ACAD_XREC_ROUNDTRIP
360
DF9
  0
DICTIONARY
  5
DF6
330
2E
100
AcDbDictionary
280
     1
281
     1
  3
ACAD_XREC_ROUNDTRIP
360
DF7
  0
DICTIONARY
  5
E04
330
35
100
AcDbDictionary
280
     1
281
     1
  3
ACAD_XREC_ROUNDTRIP
360
E05
  0
DICTIONARY
  5
E0C
330
39
100
AcDbDictionary
280
     1
281
     1
  3
ACAD_XREC_ROUNDTRIP
360
E0D
  0
DICTIONARY
  5
DFE
330
32
100
AcDbDictionary
280
     1
281
     1
  3
ACAD_XREC_ROUNDTRIP
360
DFF
  0
DICTIONARY
  5
E02
330
34
100
AcDbDictionary
280
     1
281
     1
  3
ACAD_XREC_ROUNDTRIP
360
E03
  0
DICTIONARY
  5
E1C
330
41
100
AcDbDictionary
280
     1
281
     1
  3
ACAD_XREC_ROUNDTRIP
360
E1D
  0
DICTIONARY
  5
E0A
330
38
100
AcDbDictionary
280
     1
281
     1
  3
ACAD_XREC_ROUNDTRIP
360
E0B
  0
DICTIONARY
  5
DEE
330
2A
100
AcDbDictionary
280
     1
281
     1
  3
ACAD_XREC_ROUNDTRIP
360
DEF
  0
DICTIONARY
  5
DF0
330
2B
100
AcDbDictionary
280
     1
281
     1
  3
ACAD_XREC_ROUNDTRIP
360
DF1
  0
DICTIONARY
  5
DF2
330
2C
100
AcDbDictionary
280
     1
281
     1
  3
ACAD_XREC_ROUNDTRIP
360
DF3
  0
DICTIONARY
  5
DF4
330
2D
100
AcDbDictionary
280
     1
281
     1
  3
ACAD_XREC_ROUNDTRIP
360
DF5
  0
DICTIONARY
  5
DFC
330
31
100
AcDbDictionary
280
     1
281
     1
  3
ACAD_XREC_ROUNDTRIP
360
DFD
  0
DICTIONARY
  5
E18
330
3F
100
AcDbDictionary
280
     1
281
     1
  3
ACAD_XREC_ROUNDTRIP
360
E19
  0
DICTIONARY
  5
E08
330
37
100
AcDbDictionary
280
     1
281
     1
  3
ACAD_XREC_ROUNDTRIP
360
E09
  0
DICTIONARY
  5
E1A
330
40
100
AcDbDictionary
280
     1
281
     1
  3
ACAD_XREC_ROUNDTRIP
360
E1B
  0
DICTIONARY
  5
E00
330
33
100
AcDbDictionary
280
     1
281
     1
  3
ACAD_XREC_ROUNDTRIP
360
E01
  0
DICTIONARY
  5
E16
330
3E
100
AcDbDictionary
280
     1
281
     1
  3
ACAD_XREC_ROUNDTRIP
360
E17
  0
DICTIONARY
  5
E14
330
3D
100
AcDbDictionary
280
     1
281
     1
  3
ACAD_XREC_ROUNDTRIP
360
E15
  0
DICTIONARY
  5
E0E
330
3A
100
AcDbDictionary
280
     1
281
     1
  3
ACAD_XREC_ROUNDTRIP
360
E0F
  0
DICTIONARY
  5
E10
330
3B
100
AcDbDictionary
280
     1
281
     1
  3
ACAD_XREC_ROUNDTRIP
360
E11
  0
DICTIONARY
  5
E06
330
36
100
AcDbDictionary
280
     1
281
     1
  3
ACAD_XREC_ROUNDTRIP
360
E07
  0
DICTIONARY
  5
DFA
330
30
100
AcDbDictionary
280
     1
281
     1
  3
ACAD_XREC_ROUNDTRIP
360
DFB
  0
DICTIONARY
  5
E12
330
3C
100
AcDbDictionary
280
     1
281
     1
  3
ACAD_XREC_ROUNDTRIP
360
E13
  0
XRECORD
  5
DEC
102
{ACAD_REACTORS
330
1A
102
}
330
1A
100
AcDbXrecord
280
     1
102
MATERIAL
148
0.0
149
0.0
149
0.0
 93
        0
 94
      127
282
     0
 72
     0
 77
     0
171
     0
175
     0
179
     0
273
     0
  0
XRECORD
  5
1C
102
{ACAD_REACTORS
330
1A
102
}
330
1A
100
AcDbXrecord
280
     1
270
     1
271
     1
  0
XRECORD
  5
1B
102
{ACAD_REACTORS
330
1A
102
}
330
1A
100
AcDbXrecord
280
     1
270
     1
271
     1
  0
XRECORD
  5
1F
102
{ACAD_REACTORS
330
1A
102
}
330
1A
100
AcDbXrecord
280
     1
270
     1
271
     1
  0
XRECORD
  5
1E
102
{ACAD_REACTORS
330
1A
102
}
330
1A
100
AcDbXrecord
280
     1
270
     1
271
     1
  0
XRECORD
  5
20
102
{ACAD_REACTORS
330
1A
102
}
330
1A
100
AcDbXrecord
280
     1
270
     1
271
     1
  0
XRECORD
  5
1D
102
{ACAD_REACTORS
330
1A
102
}
330
1A
100
AcDbXrecord
280
     1
270
     1
271
     1
  0
XRECORD
  5
DEB
102
{ACAD_REACTORS
330
12
102
}
330
12
100
AcDbXrecord
280
     1
102
MATERIAL
148
0.0
149
0.0
149
0.0
 93
        0
 94
      127
282
     0
 72
     0
 77
     0
171
     0
175
     0
179
     0
273
     0
  0
XRECORD
  5
14
102
{ACAD_REACTORS
330
12
102
}
330
12
100
AcDbXrecord
280
     1
270
     1
271
     1
  0
XRECORD
  5
13
102
{ACAD_REACTORS
330
12
102
}
330
12
100
AcDbXrecord
280
     1
270
     1
271
     1
  0
XRECORD
  5
109
102
{ACAD_REACTORS
330
12
102
}
330
12
100
AcDbXrecord
280
     1
 70
     1
 90
1959938040
 71
     1
  1
E05D2B86-B029-48F5-B116-DB7CC4E3E10B
311
504B03040A00000800000B64E5423DEE336E79000000790000001B0000006175746F6465736B2D64657369676E2D7061636B6167652E786D6C3C3F786D6C2076657273696F6E3D22312E302220656E636F64696E673D227574662D3822203F3E3C666F726D6174733E3C666F726D61743E687474703A2F2F736368656D612E
311
6175746F6465736B2E636F6D2F64657369676E2D7061636B6167652F323030393C2F666F726D61743E3C2F666F726D6174733E504B03041400060808000B64E542D486FD9CA0000000F4000000130000005B436F6E74656E745F54797065735D2E786D6C7D8EC10E82300C865F65E91D8A1E8C310C0EEA1BF002731658846E
311
D98AC1B77784ABF1D8FE5FBFBF75BBCE937A534CCEB38643598122B6FEE978D0B0485F9C41B54DDD7D022595594E1A469170414C76A4D9A4D207E29CF43ECE46F218070CC6BECC4078ACAA135ACF422C856C0E68EA1BF5669944DDD7BCDE7B1F8E415D77AECB980613C2E4AC91FC167A2B244592486606FC29C8FD7F045B9A
311
EF7053A7E60B504B03041400060808000B64E5424AC3CA78EB0000007C01000008000000636F72652E786D6C8D904D6EC3201085AF82D856D8FC24B2636122C7754ED00B20202E4A0C96812AC70F4E1CA9DD7535A337EF9B193D7EBC4F37F0639660BD6B21293004C629AFAD1B5B98E205D5101C055FBC8FBF6C1038399916
311
AE32147C5C7C9A374979178D8B59755E9B4D9421980881BAE5A685417D9B491632C5EC08D76296EA2A4753907797E194AC06AF2356E77DF662CD020525A4C35D4D111EE88076553FA0AEC63DEA4FA76A77389F0F9FACE2E50A0B1EEDF4BEAF1623A3D199C784215C21BCFF22B461B4A1EC03EF1B8679B9DAFF4069D6FF8492
311
7591D1EDDD1716A020F991E740F072CD22976750B9AEB98907504B03041400060808000B64E54255019EA25F0000007C00000007000000636E782E786D6C4DCB3B0E80201045D1AD90E915ED2CF8AC45050C11660C8261F98AB1B07AC9C97D42D718D865D3E909258CFD00CCE24AC6E326A164D74DC0B4128928FF32603847
311
2BA13128B1252AC747C6BAB984FC68F0B87FE8960A5C09FE86CFB69FBA01504B03041400060808000B64E5423FF1E63267010000020300000C0000006662782F636F72652E786D6C8D52ED8E8230107C95A67F2FD05234A82935EAE913DC0B54A85C23B4A4B4C4C7BFE5C3785E2EC690946666677776806F6F4D8D7AE53A6D
311
4D8E939862A44C614B6DAA1C077F8956186D0577D6FA5F651819D9A81C0F3016BC7236B4335458E395F1801A5BAA19945DA73C46450D971C77C5B76A642C83878AEE1AB7B2B8CA4AC5490C34D409DE790706D0346438B1B89C6F9C4CB8E021E872667509D3F4452B87054B921DDDAD58448FEC182DB2C331DAADE8213AECF7
311
D9627D3AAD3FD38C93412CB8D7CDDD5DE194F4AA043D4DD28866115D7E256C93B20D4B3FE87293524E86F2275168CB3745411B9FB2D9EE24EBB048C0C848FCD91622F2A8933DF82182932144788D093F070D8140C85E9EEBFB1E57807A5578EB16C094363CA85ED641C1548AC687938985CE6303D8ECDF3EEC459FD73DE003
311
4A538135E9E17A0E7E98CEA7A97314AD7251EF6FC858D7C8FA616EB2F8381F83FE9517B6B6EE1D35995725739864F87BC50F504B03041400060808000B64E54204CE26F57E0000009D0000000B0000006662782F636E782E786D6C4DCCD10A83201886E15B91FFDCB59A2D0535CAEA3E6259C84C87E9D8E5AF46073BFAE0E1
311
E3E5F567B5E8ADC366BC13905FAE80B47BF8C9B845408A33A6806AC983F7F1EF06C88DAB16703048BE049F5E274D7A1E938DBB5AE39E273275A77DDF0DB8A85889C98DB698754AE196E48D2AD9400A5A412679F62BED7B84E517504B03041400060808000B64E542940237F42E01000015020000310000006662782F394336
311
38454544462D323739352D343338422D394443432D4234314143353946343238372F636F72652E786D6C8D515B6EC23010BC8AE52FAACA891F0924C8312A014ED00B84C4500B62477E541CBF7613A4F68F1FAF353B333BDAE5BBC77807DFD23A65740349862190BA3783D2D706067F4115043BC1AD31FE0F0D02DD8DB28109
311
86825FAD09D302F5467BA97D44B519E40276CE490F417F8F9F06BAFE4B8E5DD6051F19EE964D5D7FEBAE3223596C479EE0CEDB1800CC43D20B45DDAEABE3F17042745397A860D51ED587B645FB827CB4657D2A68B5E1F92C143C04352C7235C438EAA2A47DD5248905F76A7CC6EFADECBC1CA0A09830843708979F846E19DD
311
52F68ECB2DC33C4FF47FA2300D2F8A82D29ED125EE2C7350109ECF0DC10713CEF76718F9988CF520CD5B39D9BF4181338CAB92E182309ECFDCB88168BA2E1653E78D8D1B5EDDCE914ECAD9795D089EA723C5F27BC158D341C50F504B03041400060808000B64E542C0A2C0754D01000033030000300000006662782F394336
311
38454544462D323739352D343338422D394443432D4234314143353946343238372F636E782E786D6CD593CD6E022114855F85B06DE65F6D63184CBAE81374D12DC255A90C4CF869EADBF7A268DDB8E8B21B3239F770CECD17866DBE2743BEC007EDEC48BBBAA504AC744ADBFD4853DC552F946C38F3CEC53B1B25564C30D2
311
2C53CEF6DEA5B9480A76229988AAD1F658440FC1252F21A09C6F12E3A4301800B64A28C2B405A540919B11BF76E0711514B727120F40DE5E3F88DB7E828C81353985B326777096CFD27467A2441A11C248833CC0246A91A253108EB51251D45D7DED7AB0D36F12C917AE95C96B92CB479A4FCACB463572640D0E390BD123BD
311
628AA7192817F36CB41411213767E3C5C359D236AE16C5AB11BC4777B71A160B0C3BCF388B7A82E2901E44044579DF7643D53E57EDF2BDEBD743BFEE87A776B91E5AD6643B675BE74CB98431E0DD4CA4B3116CA4BC634D1E3FC2577C44698FAC9D3FFD01240228AD173AB78CFFCCA739BF6FC4E5F12FE03F504B0304140006
311
0808000B64E542FAF78893A505000081100000340000006662782F39433638454544462D323739352D343338422D394443432D4234314143353946343238372F6F626A656374732E786D6CAD57DB6EDB3810FD1541FBB2FB60CBB29D3459282A623B298C366D51A3C53E1830688952B8A12E20A9D4D9AFDF43919225D74EBD
311
8BBEE8C2CB70E6CC990B83B7BB8C3BCF544856E437AE3F1CB90ECDA32266797AE3562A195CB9CEDB301045A13ACB5C272719BD71F5B01B06A928AAD20EC53421155707A3F7B3BF1C19D19CBA4EC4899437AE8C1E694686A452454CE5D330268A0CD36437F48766615F6C2A48F97820B42482E60A9A623C8714C728E5F77F47
311
AE17069E9E0F03FDB4AB26A75779B53DFDF3592E15C9A31F0E3B1033F1A78BBBF1C5F5E0623A9D0CA697637F30BB9F2D06FE9BC9687E399F5FDFDE5DE360A90424594D044DDCF01DB0112C0A3C33150615CBD5646C97580779823E33ED29371C3B7EE09935AD75D6C863EA47459ED3A8C60A68D4F659D1312D691EC3E78C4A
311
68D64168D4FFF5358E9DE989FEB7477687CF43A0BBA323A8D1BD7977352DB67FC304790E8384A49A81064B6BA8E1EA688FF0B628B89D63D2C988A28211EE70B61544BCB82196EA2561D013A3992C7434680BDC105E30D37DBA208C7ECEF3635A2615E79AC66E5847C106B14295AC3563FF50B1D7BE8B0C7482AF341BAEAC41
311
EAA5A46E786D287275C02603A4937092C2E53053EF9C8C0F0C9DEB385D2EDCF0FDFD76B7D2B17BFCF0521425154AD307D46A1CD7BC354A5627FF2CCFE90DEE812A7B50BE00F98F08F5BD2AF09B60BBE96E6A4F5182E432294406DF38236730C263E4F8F5537F77BE02AFDDDCF7DE293CE16C0DD52FC0B36F43D7971D38C3E0
311
19842FC4C49AB68A0847DA78603900D22471788121E4E164BB73C325B21CB23276111EFA3019EA3EE333F0AC18248AFAA4CE3B07960769F18C040DD86A46420D437EABE0DE4F3FA4B3FA60BBEC14BC17BF84AEB78BD5FB55251212D1071BD30B9AB09C2994B83D6FBA0AF530EF59F4445FBE172286A13FE2BDEAE29DD9A324
311
D0D6986BE0D326A7EB9FFDC9BD0322EC4B0B9D6E829F9C00237461EDC87F6032A29C939C165573EEABF50365C340AC835D33B92D30FBC202D29899831844918E042B35886DB56A93E6F084755F971FC148379CBD7C202FDDECB5DDE7DEA8E085D86C5F36262D1D85FA5B9FDB16034F4B01DDEB2069E2DF82BE895992541249
311
F008AEDF96F3AEEF745A408A68A49A6899C27E04171196B48D5C546B4150498B7CC350371177470FE8CA07A49601B5C0531A4BCA930DE3BCCA3609E3A8469B8C9427E0F8FFFA6FABACDC90ACA8727542764F755487BEEE3DF6CAEF44458F6EB8AADF8319726F4CE31364D0B5E408563DD7DE8D2E16E3D9D5E560361A5F0FA6
311
57F7178399EF5F0E16B337F3F9F46E72E78F668D9F8C2661D0949A6E44C34B286D41259875DFD725E2C72601377C204AAEDF99F06CDE5F9743F4C281873DA897EDC6DBF8197D1F8D7F2E60BFF2A8A06556729AD15C111D430FFA837F21E8337ACA98F16546527A86944FEF5607C660E48C7D9F75BCD3EF077BEDE85C07E451
311
21EAB1CAB63961FC60636A901C96796AF16B7CD2BE4DA1697EF59F750C3A53597016230FC64E4A8B8C2A64C3338A90C8A804F5BA3D7D6CEF1E67EC7E361DA2225B4E1B4D1E099A642E1116A05615A9FEB8F31B9A3ADD57DDB828B7C3273C6CA6701D70E6C64593AE5844E5708B02AD5BA15A38B8D4EDE4D1F8933CE5E8B5CD
311
A6F6BFDDA5B1E995E476C939FD93B5CBA4706B00D24889BE010D11BC532B1306B56E763EFA4F8637EA3844E1735BA9D696FD406B4C7D0C42D418656F0B68629EECD13B04EAEB66F9C37A4D0F91B36E59AF92C0481D2822D2FAA6A0F5B32ADD2E3E7BE8509CE527A7E4550A5F9E2F692028C85CE900078BC00A2BB3240A549D
311
FFB9FE2C0ADC6433E79E8102CEEFBBABCB3FD6F322CB8ADC0CAD6FED7DD8593DE2761BAF911CA8BE96C8F578E48FD7F575C0DE50365B22E990C4F20903F0AC602DD03DF78397E6CE883A6426DA759E76C50143970BC716B629845ABA7473AB06078D474E1DC490BE52EA88E92E285FBD1178F552A820D0CB87FF02504B0304
311
1400060800000B64E542000000000000000000000000350000006662782F39433638454544462D323739352D343338422D394443432D4234314143353946343238372F76657274696365732E62696E504B03041400060808000B64E542F270F1330600000004000000360000006662782F39433638454544462D323739352D
311
343338422D394443432D4234314143353946343238372F747269616E676C65732E62696E636660600000504B03041400060800000B64E542000000000000000000000000370000006662782F39433638454544462D323739352D343338422D394443432D4234314143353946343238372F617474726962757465732E62696E
311
504B03041400060808000B64E542D5987DFC8F00000041010000360000006662782F39433638454544462D323739352D343338422D394443432D4234314143353946343238372F6469726563746F72792E786D6C858F410EC2201045AF4266AF15DDB800BA74E7C21B903225242D6328188F2FA5C4183471359997F9FF81E8
311
9FF3C41E1816475E02DF1F80A11FC8386F25A438EECEC07A250251FC3803E6F58C12560C4AD840E95E91C151A72936F496F35732D860FE635F62C8F2DA16B505C545B74125BAA2FA9E05D7CC053D063734D5C7665FD55B6B8D15D5E9BFEAFD8490FFA45E504B03041400060808000B64E54222299749FE000000A00100003B
311
0000006662782F39433638454544462D323739352D343338422D394443432D4234314143353946343238372F7265736F75726365732F636F72652E786D6C8D504B6E833010BD0AF2B632D82611041947849213F4029699102BC146FE543D7E4DA052BBEB6666F43E9AA7C7CF5FF333FB04E7B5352DA23941191865476DA616
311
C570C335CACE823B6BC32F19CA8C9CA1452B8C049F9C8DCB0E296B029890506347D841E93D0494A9673A5AE4D51D6699CB1892C23FF245AA879C20A779A2934E701F5C0A906D4FD68984036FA353E079B1B182C7A8C75DA3C7F453DF34382418A51DE96A8AC9C0067CA8FA017735E9717FB95487D3F57A7A2F2B5EAC66C183
311
9E7F322A0732C098FC84969854981C3F286B4AD6B0F28D1C9B92F06295FF31C565FCA7296A134AB6C7DD6C1E099A82BC08C18BB5AFB45E65A6BD762BBE01504B010214000A00000800000B64E5423DEE336E79000000790000001B00000000000000000000000000000000006175746F6465736B2D64657369676E2D706163
311
6B6167652E786D6C504B010214001400060808000B64E542D486FD9CA0000000F40000001300000000000000000000000000B20000005B436F6E74656E745F54797065735D2E786D6C504B010214001400060808000B64E5424AC3CA78EB0000007C010000080000000000000000000000000083010000636F72652E786D6C
311
504B010214001400060808000B64E54255019EA25F0000007C000000070000000000000000000000000094020000636E782E786D6C504B010214001400060808000B64E5423FF1E63267010000020300000C00000000000000000000000000180300006662782F636F72652E786D6C504B010214001400060808000B64E542
311
04CE26F57E0000009D0000000B00000000000000000000000000A90400006662782F636E782E786D6C504B010214001400060808000B64E542940237F42E010000150200003100000000000000000000000000500500006662782F39433638454544462D323739352D343338422D394443432D423431414335394634323837
311
2F636F72652E786D6C504B010214001400060808000B64E542C0A2C0754D010000330300003000000000000000000000000000CD0600006662782F39433638454544462D323739352D343338422D394443432D4234314143353946343238372F636E782E786D6C504B010214001400060808000B64E542FAF78893A5050000
311
811000003400000000000000000000000000680800006662782F39433638454544462D323739352D343338422D394443432D4234314143353946343238372F6F626A656374732E786D6C504B010214001400060800000B64E54200000000000000000000000035000000000000000000000000005F0E00006662782F394336
311
38454544462D323739352D343338422D394443432D4234314143353946343238372F76657274696365732E62696E504B010214001400060808000B64E542F270F13306000000040000003600000000000000000000000000B20E00006662782F39433638454544462D323739352D343338422D394443432D42343141433539
311
46343238372F747269616E676C65732E62696E504B010214001400060800000B64E54200000000000000000000000037000000000000000000000000000C0F00006662782F39433638454544462D323739352D343338422D394443432D4234314143353946343238372F617474726962757465732E62696E504B0102140014
311
00060808000B64E542D5987DFC8F000000410100003600000000000000000000000000610F00006662782F39433638454544462D323739352D343338422D394443432D4234314143353946343238372F6469726563746F72792E786D6C504B010214001400060808000B64E54222299749FE000000A00100003B0000000000
311
0000000000000000441000006662782F39433638454544462D323739352D343338422D394443432D4234314143353946343238372F7265736F75726365732F636F72652E786D6C504B0506000000000E000E00800400009B1100000000
310
504B03040A00000800000B64E5423DEE336E79000000790000001B0000006175746F6465736B2D64657369676E2D7061636B6167652E786D6C3C3F786D6C2076657273696F6E3D22312E302220656E636F64696E673D227574662D3822203F3E3C666F726D6174733E3C666F726D61743E687474703A2F2F736368656D612E
310
6175746F6465736B2E636F6D2F64657369676E2D7061636B6167652F323030393C2F666F726D61743E3C2F666F726D6174733E504B03041400060808000B64E542D486FD9CA0000000F4000000130000005B436F6E74656E745F54797065735D2E786D6C7D8EC10E82300C865F65E91D8A1E8C310C0EEA1BF002731658846E
310
D98AC1B77784ABF1D8FE5FBFBF75BBCE937A534CCEB38643598122B6FEE978D0B0485F9C41B54DDD7D022595594E1A469170414C76A4D9A4D207E29CF43ECE46F218070CC6BECC4078ACAA135ACF422C856C0E68EA1BF5669944DDD7BCDE7B1F8E415D77AECB980613C2E4AC91FC167A2B244592486606FC29C8FD7F045B9A
310
EF7053A7E60B504B03041400060808000B64E54299382579EC0000007C01000008000000636F72652E786D6C8D90416EC3201045AF82665B6183B1E3C4C24469539FA01740405C94182C03558F5F9C3852BBEB6A467FFE9B197D7EFC9E6EE8CB2CC17AD7032D0820E394D7D68D3DA478C17B4047C117EFE32F1B202727D3C3
310
2A83E0E3E2D3BC49CABB685CCCAAF3DA6CA20CC14440EA969B1E82FA34932C648AD911AEC52CD5558EA6A0CF2EC329598D1E47ACCEFBECC59A0544CB9AF7131BDEF040EB33AE6B7AC0AF2D6B316DDADD69D89133DB1F78B9C282473B3DEFABC5C86834888A5086498B49F341AB8E555DC55E48D331C2CBD5FE074AB3FE2794
310
AC8BACDADE7D600104CD8FDC0782976B16B9DC83CA75CD4DFC00504B03041400060808000B64E54255019EA25F0000007C00000007000000636E782E786D6C4DCB3B0E80201045D1AD90E915ED2CF8AC45050C11660C8261F98AB1B07AC9C97D42D718D865D3E909258CFD00CCE24AC6E326A164D74DC0B4128928FF326038
310
472BA13128B1252AC747C6BAB984FC68F0B87FE8960A5C09FE86CFB69FBA01504B03041400060808000B64E5421454505C68010000020300000C0000006662782F636F72652E786D6C8D52ED8E8230107C95A67F2F504A41D4941AEF3C9FE05EA042E588D092D2121FFF960FE37931E642529A999DDDD901BEBBB60D1A94ED
310
6BA3734CC30823A50B53D6BACAB177E7608DD14E706B8CFB55869196ADCAF10863C12B6B7CB74085D14E6907A836A55A40D9F7CA61543470C9715F7CAB5686D23BA8E82F61278B8BAC544843A0A14EF0DE593080E621E389C5F974E564C605F7BE2E17B62E615A7DAE95C52263E9E79E1D3F82234D0E4192D04DF09EB12CA0
310
69B6DA1F57D181AD379C8C62C15DDDDEDC155649A74A2CE288B220CA8228FDA2F196C5DB98BD45E996459C8CE50F22DF95FF14F95A3B162F7667598F05052313F1675B88C8A15E0EE087084EC610E13525FC18340402213B796A6E7B5C001A54E18C4D80298DBF53836CBC82A9119A1E4E66163A4F0D60B3A77DE2177D5EF7
310
800F287505D6A483EBC9BB713A9FA72E5174CA0683BB226D6C2B9BBBB9D9E2FDBC0F7A2A2F4C63EC7FD46459952C6192F1EF153F504B03041400060808000B64E5424232CFFB7D0000009D0000000B0000006662782F636E782E786D6C4DCCD10AC2201886E15B91FFDC36C14D037558E67D8CE686E4344CA3CB6F8B1D74F4
310
C1C3C72B86CF1AD0DBE5974F510239B5805CBCA7C9C745422D33E6800625724AE5EF06288EAB93B03328B1E4549F074D6E1E6B289B061F1F07F6D7AE358676B8E7CC627A630673A2396696127D618C9EB5854689E657DA760FAB2F504B03041400060808000B64E542D880628B2C01000014020000310000006662782F3643
310
3530444434352D363837462D344537442D383141382D3746343141423737343941462F636F72652E786D6C8D515B6EC32010BC0AE2AB55850D367E34C24469D39CA0177080A42831583CAA1CBF503B52FB971F16CDCECC8E76D9F6365DC1B7725E5B33405260089411566A731E600C27D443B0E5CC591BFED02030E3A40698
310
61C8D9D9D938AF90B0262813126AAC542B387AAF0204E29A3E03F4E24B4D6331C69018FE52CCA3B88C67559022B5138F331F5C0A009621F985BC7D6FF07E4F1BD4F6DD01D18F6E8F7AB2EB5177A064F7D675F4757760E522E42C462D57B996298E3E69E51E35C962CE829EEEF18553635012F20A931AE10EE1E693549BBADA
310
54F50B6E36356665A6FF13C5593E288ADA84BA5AE32E320F3961E5D2E04CDA78BCDEC3A8DB6C5D0079DE9357E219725C60D2F635A594950B352D2079B674F5F4C1BAB4E0A7CB31B1EBD5B8A59C95F946A9FC1E30D57C4FFE03504B03041400060808000B64E542A6050F625501000033030000300000006662782F36433530
310
444434352D363837462D344537442D383141382D3746343141423737343941462F636E782E786D6CBD93CD6E022114855F85B06DE65FAD310C265DF409BAE89681AB52199800D3D4B7EF45D1BA71D1A4E9864CCE3D9C73F38561DBAFD1904FF0413BDBD3A6AC29012B9DD276DFD339EE8A35255BCEBC73F1CE46891523F434
310
C994B3BD77F39425053B319B88AAD1F698450FC1CD5E424039DD24C6496130006C31A308E3004A812237237EEDC0E32A280E27120F405E5FDE891B3E40C6C0AA94C259953A384B676EBA3351228D08A1A7411E6014A598A353108EA51251944D79ED7AB0D34F124917AE95B3D72495F7349D94E78D4AE4C82A1C7216A2477A
310
D9144F13502EA6C968292242AECEC68B87B359DBB85A64AF46F01EDD5DBB5AAF31EC3CE32CEA11B2437A101114E56DDD7445FD5CD4CBB7A6DD74EDA6ED9EEAE5A6AB5995EC9C0DCE997C0963C0BB89486723D84879C3AA347E842FFB88D21E593B7FFA054804905B2F746E197FC9A759758BC53FF2A9CEEF1B7179FC0BF837
310
504B03041400060808000B64E542E6316D60650700009A1B0000340000006662782F36433530444434352D363837462D344537442D383141382D3746343141423737343941462F6F626A656374732E786D6CED59DD73A3B616FF5718EE4BEF83B1B19D34E9103AB19DEC787AD3EED4DD9D3E7886914126BA1182914436BE7F
310
7D8F3EC0404C82BBB96F7DB001211D9DF33B9F3A043FBF64D479C65C909CDDB8BE37711DCCE23C212CBD714BB91F5DB9CECF61C0F35C36A6B90E4319BE71D5B01B0629CFCBC20E25788F4A2A3BA3F78B3F1D1163865D27A648881B57C48F38431E2A659E60F1E42548222FDDBF78BE6726B6C9A61C158F1DA205E29849E014
310
C61950710C537EFB71E28EC360ACDE8781FAB7B3668366CDFB678DB5D46D2E091312B1F8154B1D32B3412CCDFCF9EA6E7A713DBA98CF67A3F9E5D41F2DEE17AB91FFE36CB2BC5C2EAF6FEFAE81BD5D9E532B53820BCC12D0DFC10DFD60ACDED4A25B044E711DE78CE15803095069B1BA040916B05503BE49FBD15712355E6B
310
091BCF73F5DEB2D0189EB5A9F4CD1A06448B2E0862B7AB24AEAE4DF9F2DD7F417031C428B9C012B8159283762D3C1CBCC20D27C1D88C86C1EEA80B229C0C49CC09A20E253B8E382805A6AA296160165832CA3938907294045A73E675DBB6C033DF779D535CEE4B4A9567B8A176AC08DC0F4BA13923FFC3FCC87D1319E009A4
310
2D099357964B7928B01B5E07633D1806EA329BDA970648674F512A3422E66D47D0A572FDF5CA0D7FB9DFBD6C543838BD79C1F30273A98C4EE951F305866CAF0A25BBAD3F48736A01086340B52B8FA0FC0EC8FF0AD1E3C80AE88D9397F9CBDCCE951C31B1CF7906BA7126CE68027F13C7D7FFEABE71178CEBC56DEDF5E1096E
310
AAA0BAFA7E3CDB3268AC2CFF0D38C3E0190C3EE733FB6A13230AF6FC401800A48CC4A1390C4168DFEF5EDC700D8113023DAC4234F4416460F7196E83B12573D44AE55ED6EB18206AF7980D5112C0A62D12D8E8D1D327C81E9CC447353545EC83F7E243CCF576B5F96553F23D8AF183F5E915DE13462464CDD30CB5306F49F4
310
840FDF729E80A0AFF1DE34F1CEEC5602D056982BE0D30A04F570DCB9B5410CEBD25C859BE09D1D400895AB1BF41F888831A588E1BCACF6ADA39B32D4DAE36DCDE0865303F16CDA31618E9F89AA2AC0698E335A8C42DE8F392914886EF8C94856074DAF47BA2FEB5FC122EBF93DB3D60C422F43F40F1DB44EE0D0B2EC0A690B
310
442DF0EE18CEE39CE63CDA1D2213E95CA825808DB6B77C6D1185586F94A4A8800769BFAB424A6AA48D12B2DF9702E2EA0916BFAE974D73987833FFC269FE779C710ED1167C1771EB779D3D2292A114477B94F46DD7DCADA62D34C91ED21CEF29C8459E893C4448469304A7E7407316F1EB0FA59ED25C08C2B0807C7512FC26
310
1A130F0289D166C5B2D26A076822A20C4B44CF414091E90157A71D5DE3C6503ABCCF636DBD6F69AC49F4FF64111C412D99B38840290A39E45DC67DEF0262481B5D8372075FB0B68AB61683965042C487E81B26E9A33C077543BE07F7188E24A58CF202C560D603C8BEF215A5D40EEF3B143FA9FC11C525FD28031198EE2342
310
699945F0230C4E1E435CBB0E4C6FA2D0206E629FC419146548967CC82697179357FB989AA11B021B1BED0985B01D65A8E841BD1510753DE2D4E05BEA3D4ADD955911A12C2FD92043F1665D6FB2E4BB6A556407F2AB4A45281B2BC29660181026EBAC5AC56C30751D58C18D74A03A4402650535A7B077128F5F7B93A6DCBB01
310
B77EFAB11B6450F8F568AF1951E7150C96C7566120BE21193FBAE1465F470BA8BF139C1C537D556B362B40404C45F29213ABA22F6B286F6C8DE6860F488AED279375ABEB97B507DD8F600C6BA076A917AE15D0196612A9CAE441DDD0DF1184E0160D33BE5639F51C2AB749A2AB4644EF499F3A5B65446BD38C78C523667906
310
3FB6252CA66582B728114FD183A4D18628D6AD945E462A8CDF14F0B74F9B0E3C303240A4CFAAC0C3DF3A6BEDE852954B2789C8C732DB31442008B6444B8D6EBC82A556239596EBAB3A5340DD050666553CFFE764D16C47FC73B248AD617CD7C96271F80F3A34FB228D741E2BBB3EEB1850E72745E5238E01BAED5053ADB388
310
49E6567EEB4C1104C52ACA0FAEC6AAA06108F671FCB7B3765F1634DB75F83F2F6BFBAF2A8EB3B24A6BB2EA529DA85CD7CD1C7637B9584D175797A3C5647A3D9A5FDD5F8C16BE7F395A2D7E5C2EE777B33B7FB2A8D1D48E1A067530D3B90B9E4D50AB86D593C500BAB222A72481D37CE2A41862BE8433FD80F639CFB080E4D9
310
6C7627B6293F60F5B3E9734AB4A3B8E2E4114183980A48EB805119CBF6B8F32F684D4A3868DFB8D034F29EE0CF5AA5EB40E6B971A15520498C85B78336936AE869E2907275EEB7C4001FC4529512CDA2FAB95EA5B06985FF7ACA903460E56AF530A0702BA0FBD5EA5068DE2C4FF1598257EC3848C2EDAE9450AD19598E03B5
310
307A9BA3FA8D6C94B027BBF50BB8EEDB62F99E9ED34264D02783378DC0501D49C453DDEF568C59966E579FC7D06773D6BF39052D53D0E5704A238EC1984B555081158155589A059260AACB9FB69F790E9F7832475745CE0F2F5797FFDE2EF32CCB9919DADEC2A92C810F45CEE6113EFB245B281EB06AAE8BED74E24FB7BAA9
310
6DFBECD10E09ECA9AA0806AA624209D23139B0CB570D2ADBBE1C2B5574A6AF578E0DA2D00C3076F4AAC76B3E7239E043EA738AF218EDE795B46FF6B5C77A2AD804878E74F817504B03041400060800000B64E542000000000000000000000000350000006662782F36433530444434352D363837462D344537442D38314138
310
2D3746343141423737343941462F76657274696365732E62696E504B03041400060808000B64E542F270F1330600000004000000360000006662782F36433530444434352D363837462D344537442D383141382D3746343141423737343941462F747269616E676C65732E62696E636660600000504B03041400060800000B
310
64E542000000000000000000000000370000006662782F36433530444434352D363837462D344537442D383141382D3746343141423737343941462F617474726962757465732E62696E504B03041400060808000B64E542D5987DFC8F00000041010000360000006662782F36433530444434352D363837462D344537442D
310
383141382D3746343141423737343941462F6469726563746F72792E786D6C858F410EC2201045AF4266AF15DDB800BA74E7C21B903225242D6328188F2FA5C4183471359997F9FF81E89FF3C41E1816475E02DF1F80A11FC8386F25A438EECEC07A250251FC3803E6F58C12560C4AD840E95E91C151A72936F496F35732D8
310
60FE635F62C8F2DA16B505C545B74125BAA2FA9E05D7CC053D063734D5C7665FD55B6B8D15D5E9BFEAFD8490FFA45E504B03041400060808000B64E5428A930BE1FE000000A00100003B0000006662782F36433530444434352D363837462D344537442D383141382D3746343141423737343941462F7265736F7572636573
310
2F636F72652E786D6C8D504B6EC23010BD4A34DBCA891D2704906304A29CA017B09C2158101BF953F5F875482AB5BB6E6646EFA3797AE2F0353D8A4FF4C138DB032B291468B51B8C1D7B48F14AB6501CA4F0CEC55F3228AC9AB08719062946EFD27385B4B3116DCCA87503AEA00A012314FA918F1E82BEE1A44A956256847B
310
F954FAAE462C5999E9AC9322449F0314CB937982F4185CF21A83A816568A94CCB06ACC907F9AAB410FB2E3EDFB915F4EE4C29A33691AB623A78E7784B5DDE678D9D033DFEE44359BA58866FAC9A83DAA8803C89A324E684768FBC1EA3DAFF7357FA3ED9E5351CDF23FA6F41CFE694AC6465EAF71175B00C9729017214535F7
310
95D7ABCCBCE76EE537504B010214000A00000800000B64E5423DEE336E79000000790000001B00000000000000000000000000000000006175746F6465736B2D64657369676E2D7061636B6167652E786D6C504B010214001400060808000B64E542D486FD9CA0000000F40000001300000000000000000000000000B20000
310
005B436F6E74656E745F54797065735D2E786D6C504B010214001400060808000B64E54299382579EC0000007C010000080000000000000000000000000083010000636F72652E786D6C504B010214001400060808000B64E54255019EA25F0000007C000000070000000000000000000000000095020000636E782E786D6C
310
504B010214001400060808000B64E5421454505C68010000020300000C00000000000000000000000000190300006662782F636F72652E786D6C504B010214001400060808000B64E5424232CFFB7D0000009D0000000B00000000000000000000000000AB0400006662782F636E782E786D6C504B01021400140006080800
310
0B64E542D880628B2C010000140200003100000000000000000000000000510500006662782F36433530444434352D363837462D344537442D383141382D3746343141423737343941462F636F72652E786D6C504B010214001400060808000B64E542A6050F6255010000330300003000000000000000000000000000CC06
310
00006662782F36433530444434352D363837462D344537442D383141382D3746343141423737343941462F636E782E786D6C504B010214001400060808000B64E542E6316D60650700009A1B000034000000000000000000000000006F0800006662782F36433530444434352D363837462D344537442D383141382D374634
310
3141423737343941462F6F626A656374732E786D6C504B010214001400060800000B64E5420000000000000000000000003500000000000000000000000000261000006662782F36433530444434352D363837462D344537442D383141382D3746343141423737343941462F76657274696365732E62696E504B0102140014
310
00060808000B64E542F270F13306000000040000003600000000000000000000000000791000006662782F36433530444434352D363837462D344537442D383141382D3746343141423737343941462F747269616E676C65732E62696E504B010214001400060800000B64E542000000000000000000000000370000000000
310
0000000000000000D31000006662782F36433530444434352D363837462D344537442D383141382D3746343141423737343941462F617474726962757465732E62696E504B010214001400060808000B64E542D5987DFC8F000000410100003600000000000000000000000000281100006662782F36433530444434352D36
310
3837462D344537442D383141382D3746343141423737343941462F6469726563746F72792E786D6C504B010214001400060808000B64E5428A930BE1FE000000A00100003B000000000000000000000000000B1200006662782F36433530444434352D363837462D344537442D383141382D3746343141423737343941462F
310
7265736F75726365732F636F72652E786D6C504B0506000000000E000E0080040000621300000000
  0
XRECORD
  5
17
102
{ACAD_REACTORS
330
12
102
}
330
12
100
AcDbXrecord
280
     1
270
     1
271
     1
  0
XRECORD
  5
16
102
{ACAD_REACTORS
330
12
102
}
330
12
100
AcDbXrecord
280
     1
270
     1
271
     1
  0
XRECORD
  5
18
102
{ACAD_REACTORS
330
12
102
}
330
12
100
AcDbXrecord
280
     1
270
     1
271
     1
  0
XRECORD
  5
15
102
{ACAD_REACTORS
330
12
102
}
330
12
100
AcDbXrecord
280
     1
270
     1
271
     1
  0
XRECORD
  5
DED
102
{ACAD_REACTORS
330
22
102
}
330
22
100
AcDbXrecord
280
     1
102
MATERIAL
148
0.0
149
0.0
149
0.0
 93
        0
 94
      127
282
     0
 72
     0
 77
     0
171
     0
175
     0
179
     0
273
     0
  0
XRECORD
  5
24
102
{ACAD_REACTORS
330
22
102
}
330
22
100
AcDbXrecord
280
     1
270
     1
271
     1
  0
XRECORD
  5
23
102
{ACAD_REACTORS
330
22
102
}
330
22
100
AcDbXrecord
280
     1
270
     1
271
     1
  0
XRECORD
  5
BA
102
{ACAD_REACTORS
330
22
102
}
330
22
100
AcDbXrecord
280
     1
 70
     1
 90
1959938040
 71
     1
  1
2A484A8F-9048-4C86-8865-0FBE5828C5EB
311
504B03040A00000800000A64E5423DEE336E79000000790000001B0000006175746F6465736B2D64657369676E2D7061636B6167652E786D6C3C3F786D6C2076657273696F6E3D22312E302220656E636F64696E673D227574662D3822203F3E3C666F726D6174733E3C666F726D61743E687474703A2F2F736368656D612E
311
6175746F6465736B2E636F6D2F64657369676E2D7061636B6167652F323030393C2F666F726D61743E3C2F666F726D6174733E504B03041400060808000A64E542D486FD9CA0000000F4000000130000005B436F6E74656E745F54797065735D2E786D6C7D8EC10E82300C865F65E91D8A1E8C310C0EEA1BF002731658846E
311
D98AC1B77784ABF1D8FE5FBFBF75BBCE937A534CCEB38643598122B6FEE978D0B0485F9C41B54DDD7D022595594E1A469170414C76A4D9A4D207E29CF43ECE46F218070CC6BECC4078ACAA135ACF422C856C0E68EA1BF5669944DDD7BCDE7B1F8E415D77AECB980613C2E4AC91FC167A2B244592486606FC29C8FD7F045B9A
311
EF7053A7E60B504B03041400060808000A64E542F83A7BAEEB0000007C01000008000000636F72652E786D6C8D90416EC3201045AF82665B61038E93C8C244762A9FA01740405C94182C03558E1F9C3852BBEB6A467FFE9B197D7EBA4F37F4639660BD6B8116049071CA6BEBC61652BCE023A093E08BF7F1970D9093936961
311
9541F071F169DE24E55D342E66D5796D36518660222075CB4D0B417D9B491632C5EC08D76296EA2A4753D07797E194AC46AF2356E77DF662CD0262DFD5E7FD70D861DA773DDE1136E08E0E675C9323ED3EBB81F5F5C0CB15163CDAE97D5F2D4646A34130422B4C0E98D45F9435156B18F9207553115EAEF63F509AF53FA164
311
5DACD8F6EE0B0B20687EE43910BC5CB3C8E51954AE6B6EE201504B03041400060808000A64E54255019EA25F0000007C00000007000000636E782E786D6C4DCB3B0E80201045D1AD90E915ED2CF8AC45050C11660C8261F98AB1B07AC9C97D42D718D865D3E909258CFD00CCE24AC6E326A164D74DC0B4128928FF32603847
311
2BA13128B1252AC747C6BAB984FC68F0B87FE8960A5C09FE86CFB69FBA01504B03041400060808000A64E54237F8A7C967010000020300000C0000006662782F636F72652E786D6C8D52ED8A8330107C9590BF474CD4DA1E25A6D81E3EC1BD40AAA927D54462227DFC5B3F8AD7A39422C430B3B33B3BCA0FB7B64183B27D6D
311
748AC38061A47461CA5A5729F6EE423E313A086E8D717FCA30D2B255291E612C78658DEF16A830DA29ED00D5A6540B28FB5E398C8A062E29EE8B1FD5CA407A0715FD35E8647195950AC20068A813BC77160CA079C878627139DF389D71C1BDAFCB85AD4B98565F6A65B1D866C9699BEF36243C6647B261514EB2303F91847D
311
86D9579647C724E774140BEEEAF6EEAEB04A3A556211B130266C4758F21D46FB38DA47EC8325FB98713A963F887C57BE29F2B57671B4D89D653D16211899887FDB42440EF572003F54703A8608AF29E1C7A0211008D9C97373DFE30AD0A00A67EC0698D2F8951A64E3154C65687A389D59E83C3580CD9EF6895EF479DD033E
311
A0D41558930EAE67EFC6E97C9EBA44D1294B067743DAD85636ABB9D9E27AAE839ECA0BD318FB8E9A2EABD2254C3AFEBDE217504B03041400060808000A64E542A0602E677E0000009D0000000B0000006662782F636E782E786D6C4DCCD10A83201886E15B91FFDCA5516B3FA8315BDD472C0B99E9703A76F9ABD1C18E3E78
311
F87845FB591D799BF8B2C14BE02706C4F87B98AC5F24E434D30B9056891842FABB01F1E36A24EC0C4A2C31E4E7419399C7ECD2A6CEFAC781A86BD6F40C695972A4D5196B8AFDA0E96DA83ACEB0B9EA4E43A144F12B6DBB87D517504B03041400060808000A64E542ABB6A8FA2C01000014020000310000006662782F394235
311
30374530392D323231392D343639352D394546422D4446344331303937414243422F636F72652E786D6C8D515B6E833010BC8AE5AF5415601B0825328E4A9A9CA01770C0A156828DFCA872FC2E8548ED5F7EBCD6ECCCEC6897EFEFE30D7D2BE7B5350DA629C14899CEF6DA0C0D8EE192BC61B417DC591BFED0303272540D9E
311
612CF8E06C9C56A8B32628130035B6572B28BD5701A3EE069F06FBEE4B8D32953100C35FD349765739A894A6D0069EE03E3808809621F38B45DD96A43A923A618CD649B1ADCBA43E9EDAE4E3541C28A9ABF7F6D0F26C110A1EA3EE57B9EE218EBE68E59E3599C582073D3EE2774EC9A07A2C18A17942AA84949F94ED72B663
311
E49594BB9CF06CA6FF13C5A97F5214B509395BE32E328F05E5D9D210BCB7F17C7B8451F7C9BA80E6791BAFBA172C484A5855105A8264A1C202C0735BAC9E3E58070BDE5CCFC0A6E562BC2D04CFE61B41F93D20D4F99EE207504B03041400060808000A64E542C39D4CE74D01000033030000300000006662782F3942353037
311
4530392D323231392D343639352D394546422D4446344331303937414243422F636E782E786D6CD593CD6E022114855F85B06DE65F6D63184CBAE81374D12DC255A90C4CF869EADBF7A268DDB8E8B21B3239F770CECD17866DBE2743BEC007EDEC48BBBAA504AC744ADBFD4853DC552F946C38F3CEC53B1B25564C30D22C53
311
CEF6DEA5B9480A76229988AAD1F658440FC1252F21A09C6F12E3A4301800B64A28C2B405A540919B11BF76E0711514B727120F40DE5E3F88DB7E828C81353985B326777096CFD27467A2441A11C248833CC0246A91A253108EB51251D45D7DED7AB0D36F12C917AE95C96B92CB479A4FCACB463572640D0E390BD123BD628A
311
A7192817F36CB41411213767E3C5C359D236AE16C5AB11BC4777B71A160B0C3BCF388B7A82E2901E44044579DF7643D53E57EDF2BDEBD743BFEEDBA776B91E5AD6643B675BE74CB98431E0DD4CA4B3116CA4BC634D1E3FC2577C44698FAC9D3FFD01240228AD173AB78CFFCCA739BF6FC4E5F12FE03F504B03041400060808
311
000A64E54222B3849FA305000080100000340000006662782F39423530374530392D323231392D343639352D394546422D4446344331303937414243422F6F626A656374732E786D6CAD575B6FDB3614FE2B82F6B23DF8EE64CEA06870ECA4308AB4458D167B30605012A570A12E20A9D4D9AFDF4791BAB976EA0D7DB12CEA
311
F0F09CEF7CE742EFCF43CA9D172A24CBB35B77321CBB0ECDC23C625972EB962A1E2C5CE74FDF1379AE3A62AE939194DEBA7AD9F5BD44E4656197221A9392ABA3D587BBBF1C19D28CBA4EC88994B7AE0C9F684A86A4547944E5F330228A0C93F8309C0C8D605F6D2248F174A4B42082660A96623D8316C71835E9BF8EDD91EF
311
8DF477DFD3BF566A765E6A54F9D33F9F6552912CFCEEB02335B3C97C7D3FBDBA195CCDE7B3C1FC7A3A19DC3DDCAD0793DF67E3D5F56A75B3BCBFC1C1520968B296081ABBFE3B602358E88DCC27DF2B59A666532B62033412F485E948B9FED499782323D378679D3C657E9867190D2BAC8046E59F551DD182661162CEA88465
311
1D84C6FDD789C6B1F379A6DFED91DDE5CB10E8EEE828AA6DAF9F5D4BF3E06FB8202F6190905433D060691D355C1DB7080779CEED37269D94282A18E10E678120E2D5F521AA457CAFA7463359E86CD01EB83EA2603EF7E98234FA31CF4F5919979C6B1ABB7E95057BE40A55B2B28CFD43456B7D1719D8845869362CAC43EAB5
311
A0AE7F6328B238629301D28939491072B8A977CEA6478EAE749E6ED6AEFFFE21386C75EE9E3EBC10794185D2F401B5EAC0D54F8D92B5697251E4F406F7C8941694CF40FE0352BD35057113EC303FCCED294A904CC6B948111B67EC0CC6F8193B93EA57FFEFFCF346CDE67EF4CEE189606BA87E029E7D1FBAB1ECC0E97B2F20
311
7C2E66D6B56D4838CAC623CB00902689C3732CA10EC7C1C1F537A872A8CAD845B83F81CB30F7057FBD91558342519DD47966C0F2A82C5E50A0015BC5489861C86F0D6CE3F45D39AB0EB662E7E0BDFA29745DAEB7EFB7A58849481F6D4EAF69CC32A6D0E25ADE740DEA61DEF3E899BE7ECB450447BFC77BDBC53BB54749A0AD
311
31D7C027754DD72FEDC9BD0342EC4B725D6EBC1F9C00277463EDE87F6432A49C938CE6657DEE9BFD036DC340AC935D33B969306D630169CC97A31C44930E052B34884DB76A8AE6F08C775F361FC048C8F33C20BC150ADAD21BE63C17FBE0756FAAD249A4BFF6A96D2118692D607B952375FA5BCCF7118BE352A2069E80F5EB
311
66D50D9DAE0AA810B556932C73B88FDC22C272B6D68B662D081A699EED19DA26D2EEE4015DFD40D412A05278CE624979BC679C97E93E661CCD689F92E20C1CFFDFFEA04C8B3D49F332536774F74C4773E8DBDE23AFFC4654F8E4FADBEA39B843E98D68D486B927AC5BC909AC7AA19D2EE78BF972F130B819CF1783F96A713D
311
582CAEAF06E387BBFBABC574B1BABABFABE36494FB5EDD69BA098D28A1B379A560367C5F36481F5B035CFF9128B97B67B2B37E7ED90C310A7B23EC41BB6C362EA3178C7D34FAB18256F2A4A24D5A709AD24C119D428FFA0FFF4C3066F48C31EB9B9424F4022D1FDF6D8F9CC1CA05FB3EE974A7DF8EF6DAD5954EC8934AD453
311
99061961FC686362901C165962F1AB63D23C4D9FA95FF59B0D0C0653997316A10C464E42F3942A14C30B7A9048A904F5BA237D64AF1E17EC7E3103A22201A7B5254F04333297480B50AB0C557FDDF905339D1EAB6E5D74DBE1337E6CA5701D70E6D6C58CAE5848E530407FD69350A51C5CEA0EF298FB4996708CDA6653F3DE
311
ECD2D8F43A722372C9F864FD3215DC3A803252606CC03C84E854C6F85E659BFD1EFE27C76B731CA2F0372855E34BBBD038531D8314354ED9CB026698677BF40189FAB65B936125D343E4A24BD69B24305A078A88A4BA2868FBAC49CBF5A711061467F3D12978992096976B1A080A32973AC1C122B0C2EA2C880255577FEC3E
311
891C17D9D47960A080F3EB6171FDDB6E95A7699E99A5DDD25E879DED132EB7D10EC581EA5B89DC4DC793E9AEBA0DD80BCA3E20920E49249FB180C80AD600DD0B3F7869AE8CE843E6432337D2A13862E866EDD8C63687524B976E6DD5E060EEC8A8831CD2374A9D315D81E2CD0BC1A812850902A3BCFF2F504B030414000608
311
00000A64E542000000000000000000000000350000006662782F39423530374530392D323231392D343639352D394546422D4446344331303937414243422F76657274696365732E62696E504B03041400060808000A64E542F270F1330600000004000000360000006662782F39423530374530392D323231392D34363935
311
2D394546422D4446344331303937414243422F747269616E676C65732E62696E636660600000504B03041400060800000A64E542000000000000000000000000370000006662782F39423530374530392D323231392D343639352D394546422D4446344331303937414243422F617474726962757465732E62696E504B0304
311
1400060808000A64E542D5987DFC8F00000041010000360000006662782F39423530374530392D323231392D343639352D394546422D4446344331303937414243422F6469726563746F72792E786D6C858F410EC2201045AF4266AF15DDB800BA74E7C21B903225242D6328188F2FA5C4183471359997F9FF81E89FF3C41E
311
1816475E02DF1F80A11FC8386F25A438EECEC07A250251FC3803E6F58C12560C4AD840E95E91C151A72936F496F35732D860FE635F62C8F2DA16B505C545B74125BAA2FA9E05D7CC053D063734D5C7665FD55B6B8D15D5E9BFEAFD8490FFA45E504B03041400060808000A64E5422754B116FD000000A00100003B00000066
311
62782F39423530374530392D323231392D343639352D394546422D4446344331303937414243422F7265736F75726365732F636F72652E786D6C8D504B6E833010BD0A9A6D65B04D4922641C91549CA017B0CC845A0936F2A7EAF16B0295DA5D3733A3F7D13C3D71FE9A1FC527FA609CED8095140AB4DA8DC64E1DA4782327
311
28CE5278E7E22F191456CDD8C10A8314937769D921ED6C441B336ADD883BA842C008857EE4A383A03F7056A54A312BC2BD5C94BEAB094B56663AEBA408D1E700C5F6649D203D0697BCC620AA8D95222533EE1A33E69FE666D0833CF4CDF5301C6BC22EFD85BC523E909E0D57D2D013EBDFFA815F9A4154AB598A68E69F8CDA
311
A38A3882E494D5841E096DDE196F6BDE72FA429BB6A6A25AE57F4C6919FF694AC6C69AEF71375B00C97290272145B5F695D7B3CCBCD76EE537504B010214000A00000800000A64E5423DEE336E79000000790000001B00000000000000000000000000000000006175746F6465736B2D64657369676E2D7061636B6167652E
311
786D6C504B010214001400060808000A64E542D486FD9CA0000000F40000001300000000000000000000000000B20000005B436F6E74656E745F54797065735D2E786D6C504B010214001400060808000A64E542F83A7BAEEB0000007C010000080000000000000000000000000083010000636F72652E786D6C504B010214
311
001400060808000A64E54255019EA25F0000007C000000070000000000000000000000000094020000636E782E786D6C504B010214001400060808000A64E54237F8A7C967010000020300000C00000000000000000000000000180300006662782F636F72652E786D6C504B010214001400060808000A64E542A0602E677E
311
0000009D0000000B00000000000000000000000000A90400006662782F636E782E786D6C504B010214001400060808000A64E542ABB6A8FA2C010000140200003100000000000000000000000000500500006662782F39423530374530392D323231392D343639352D394546422D4446344331303937414243422F636F7265
311
2E786D6C504B010214001400060808000A64E542C39D4CE74D010000330300003000000000000000000000000000CB0600006662782F39423530374530392D323231392D343639352D394546422D4446344331303937414243422F636E782E786D6C504B010214001400060808000A64E54222B3849FA30500008010000034
311
00000000000000000000000000660800006662782F39423530374530392D323231392D343639352D394546422D4446344331303937414243422F6F626A656374732E786D6C504B010214001400060800000A64E54200000000000000000000000035000000000000000000000000005B0E00006662782F3942353037453039
311
2D323231392D343639352D394546422D4446344331303937414243422F76657274696365732E62696E504B010214001400060808000A64E542F270F13306000000040000003600000000000000000000000000AE0E00006662782F39423530374530392D323231392D343639352D394546422D444634433130393741424342
311
2F747269616E676C65732E62696E504B010214001400060800000A64E5420000000000000000000000003700000000000000000000000000080F00006662782F39423530374530392D323231392D343639352D394546422D4446344331303937414243422F617474726962757465732E62696E504B01021400140006080800
311
0A64E542D5987DFC8F0000004101000036000000000000000000000000005D0F00006662782F39423530374530392D323231392D343639352D394546422D4446344331303937414243422F6469726563746F72792E786D6C504B010214001400060808000A64E5422754B116FD000000A00100003B00000000000000000000
311
000000401000006662782F39423530374530392D323231392D343639352D394546422D4446344331303937414243422F7265736F75726365732F636F72652E786D6C504B0506000000000E000E0080040000961100000000
310
504B03040A00000800000A64E5423DEE336E79000000790000001B0000006175746F6465736B2D64657369676E2D7061636B6167652E786D6C3C3F786D6C2076657273696F6E3D22312E302220656E636F64696E673D227574662D3822203F3E3C666F726D6174733E3C666F726D61743E687474703A2F2F736368656D612E
310
6175746F6465736B2E636F6D2F64657369676E2D7061636B6167652F323030393C2F666F726D61743E3C2F666F726D6174733E504B03041400060808000A64E542D486FD9CA0000000F4000000130000005B436F6E74656E745F54797065735D2E786D6C7D8EC10E82300C865F65E91D8A1E8C310C0EEA1BF002731658846E
310
D98AC1B77784ABF1D8FE5FBFBF75BBCE937A534CCEB38643598122B6FEE978D0B0485F9C41B54DDD7D022595594E1A469170414C76A4D9A4D207E29CF43ECE46F218070CC6BECC4078ACAA135ACF422C856C0E68EA1BF5669944DDD7BCDE7B1F8E415D77AECB980613C2E4AC91FC167A2B244592486606FC29C8FD7F045B9A
310
EF7053A7E60B504B03041400060808000A64E5423FF4D4B6EB0000007C01000008000000636F72652E786D6C8D905B6EC3201045B782E6B7C2E651B7A985891C3B5D41378080B828315806AA2EBF380FA9FDEBD78CEEDC3333BA62FF3D5FD0975DA30BBE035A1140D6EB609C9F3AC8E9847780F652AC21A45F36405ECDB683
310
4D0629A635E4E52EE9E093F5A9A83E187B17558C3601D297D27410F5A79D55A5722A8E78AE16A5CF6AB2157D7405CED919743BE24CD9E74ECEAE200F940F2FC786633E92113FF7F40DF7F478C0ECBDE9878137C3B8EB45BDC15224373FEEEBD5AA640D484628C7E41593E683B296B3969127D2B49C887AB3FF81F262FE0965
310
E71367F7776F580449CB23D78114F5964529D7A04ADD72933F504B03041400060808000A64E54255019EA25F0000007C00000007000000636E782E786D6C4DCB3B0E80201045D1AD90E915ED2CF8AC45050C11660C8261F98AB1B07AC9C97D42D718D865D3E909258CFD00CCE24AC6E326A164D74DC0B4128928FF32603847
310
2BA13128B1252AC747C6BAB984FC68F0B87FE8960A5C09FE86CFB69FBA01504B03041400060808000A64E542DC8E946668010000020300000C0000006662782F636F72652E786D6C8D52ED8E8230107C95A67F2FD016E4CE33A506D17B827B810A9523424B4A4B7CFC5B3E8CE7C51843529A999DDDD901BEBDB40D1A94ED6B
310
A353CC428A91D285296B5DA5D8BB53B0C6682BB835C6FD29C348CB56A57884B1E09535BE5BA0C268A7B403549B522DA0EC7BE5302A1AB8A4B82F7E542B43E91D54F4E7B093C559562A6421D0502778EF2C1840F390F1C4E274BC7032E3827B5F970B5B9730AD3ED5CA62B16371FE7E48E220DED37DB0CAD86790B1C32E88BE
310
922CCFE324DFAF334E46B1E0AE6EAFEE0AABA4532516116571403F029A7CB36813479B88BED16413534EC6F23B91EFCA1745BED62E8E16BBB3ACC782819189F8B72D44E4502F07F04304276388F09A12BE0F1A0281909D3C36D73DCE000DAA70C6AE80298DBF51836CBC82A9144D0F27330B9DA706B0D9C33ED1933ECF7BC0
310
0794BA026BD2C1F5E8DD389DCF5397283A6583C15D9036B695CDCDDC6CF176DE063D9417A631F615355956254B9864FC7BC52F504B03041400060808000A64E542F63CA7377D0000009D0000000B0000006662782F636E782E786D6C4DCCD10A83201886E15B91FFDC65AEF43F5023C2DD472C0B59E9703A76F9ABD1C18E3E
310
78F87855F7D956F276E9E563D0505F181017EE71F261D150F24C114867548A31FFDD808471731A0E06A39614CBF3A4C9CD6359F3AEAB0F8F13B96CB81D5A46AFC85ADAF428294A8174E8F94DDA5A3061112AA3AA5F69DF236CBE504B03041400060808000A64E542F55CBF372901000014020000310000006662782F323734
310
32454335302D333830352D344138372D383736382D4341324637453136303645382F636F72652E786D6C8D515B6AC33010BC8AD1574A91AD875F04592184F404BD80622BAE482C193D4A8EDF75ED40FB971FAD989D991D76C5E131DDB36FED8371B643342728D3B67783B1638752BCE216650729BC73F10F0D65564DBA430B
310
8CA418BD4BF306F5CE466D23A0D60D7A0355083AA2ACBFC3A743A1FFD293CA558AC008B77C56FD4D8D3AA739B4812745881E0264EB90E5459235253B9F2A82794B2A5C1EDB06B74DDDE2D3917D34675A93FADC8A62154A91921936B919208EB91AED5F3559C45244333DE3F75EABA807D013CA316930A93E29DB73B667E49D
310
547B4E44B1D0FF89D23CBC284AC646CEB6B8AB2C204945B136A4185CBADC9F61F463763E66CBBC5DD0FD1B92242775C32923B080950A0B00CFBADC3C43741E16BCBB5D80CD37E3BA94A2586E04E5F78050977BCA1F504B03041400060808000A64E542A53A83F05501000033030000300000006662782F3237343245433530
310
2D333830352D344138372D383736382D4341324637453136303645382F636E782E786D6CBD93CD6E022114855F85B06DE65FAD310C265DF409BAE89681AB52199800D3D4B7EF45D1BA71D1A4E9864CCE3D9C73F38561DBAFD1904FF0413BDBD3A6AC29012B9DD276DFD339EE8A35255BCEBC73F1CE46891523F434C994B3BD
310
77F39425053B319B88AAD1F698450FC1CD5E424039DD24C6496130006C31A308E3004A812237237EEDC0E32A280E27120F405E5FDE891B3E40C6C0AA94C259953A384B676EBA3351228D08A1A7411E6014A598A353108EA51251944D79ED7AB0D34F124917AE95B3D72495F7349D94E78D4AE4C82A1C7216A2477AD9144F13
310
502EA6C968292242AECEC68B87B359DBB85A64AF46F01EDD5DBB5AAF31EC3CE32CEA11B2437A101114E56DDD7445FD5CD4CBB7A6DD74EDA6AD9FEAE5A6AB5995EC9C0DCE997C0963C0BB89486723D84879C3AA347E842FFB88D21E593B7FFA054804905B2F746E197FC9A759758BC53FF2A9CEEF1B7179FC0BF837504B0304
310
1400060808000A64E54291EF50F361070000991B0000340000006662782F32373432454335302D333830352D344138372D383736382D4341324637453136303645382F6F626A656374732E786D6CED595B73A33614FE2B0C7D691F8C8D2FA9D321741267B3E3D9C976A7EEEEF4C1338C0C3251230423895CFAEB7B74010331
310
09EEA66F7DB001211D9DF39DAB0EC1AF4F19751E3017246717AEEF4D5C07B3384F084B2FDC52EE474BD7F9350C789ECBC634D76128C317AE1A76C320E57959D8A104EF51496567F4E6EA4F47C49861D7892912E2C215F11DCE90874A992758DC7B0992C84BF74F9EEF99896DB22947C55D87688138661238857106541CC394
310
DF7E9CB8E33018ABF761A0FEEDACD9A059F3FE59632D759B4BC284442C7EC15287CC6C104B337F7EFD61BA381F2DE6F3D9687E36F547573757D723FFE7D96475B65A9D5F7E3807F676794EAD4C092E304B407FCF6EE80763F5A616DD22708CEB38670CC71A48804A8BD52548B080AD1AF04DDA8FBE92A8F15A4BD8789EABF7
310
9685C6F0AC4DA56FD630205A744110BB5D2571756DCA97EFFE02C1C510A3E4024BE056480EDAB5F070F00A379C0463331A06BB832E887032243127883A94EC38E2A01498AAA684815960C928E7E040CA511268CD99D76DDB02CF7CDB758E71B92F29559EE186DAB122703F2C85E68CFC8DF981FB2632C013485B122697964B
310
F95C60373C0FC67A300CD46536B52F0D90CE9EA2546844CCDB8EA02BE5FAEB6B37FC74B37BDAA870707CF382E705E652199DD2A3E60B0CD95E154A765B7F90E6D40210C6806A571E40F91D90FF0CD1E3C00AE88D93A7F9D3DCCE951C31B1CF7906BA7126CE68027F13C7D7FFEABE71178CEBC56DEDF5E1096EAAA05A7E3F9E
310
6D19345696FF069C61F000069FF3997DB58911057BBE250C005246E2D01C8620B4EF774F6EB886C009811E56211AFA2032B0FB00B7C1D8923968A5722FEB750C10B57BCC86280960D316096CF4E8E923640F4EE2839A9A22F6C1BB781773BDBCDE7CDA947C8F627C6B7DFA1AEF092312B2E671865A98B724BAC7CF8F394F40
310
D097786F9A7867762B01682BCC15F06905827A38ECDCDA20867569AEC24DF0C60E2084CAD50DFAB744C49852C4705E56FBD6D14D196AEDF1B66670C3A9817836ED9830C70F445515E03487192D4621EFC79C140A4437FC6824AB83A6D723DDD7F567B0C87A7ECFAC3583D0CB10FD4307AD2338B42CBB42DA02510BBC3B84F3
310
38A7398F76CF9189742ED412C046DB5BBEB58842AC374A5254C083B4DF55212535D24609D9EF4B0171F5088BDFD6ABA6394CBC99BF709AFF1D679C43B405DF45DCFA5D678F886428C5D11E257DDB3577AB690B4DB28734C77B0A729107229F2324A34982D353A03989F8F9BB524F692E04615840BE3A0A7E138D890781C468
310
B3625969B5033411518625A2A720A0C8F480ABD38EAE7163281DDEE6B1B6DED734D624FA1F590447504BE62C22508A420E799371DF5B400C69A36B50EEE00BD656D1D662D0124A88F8397AC424BD93A7A06EC8F7E01EC391A494515EA018CC7A00D917BEA294DAE17D87E27B953FA2B8A4EF652002D37D44282DB3087E84C1
310
C963886BD781E955141AC44DEC933883A20CC9920FD9E46C3179B18FA919BA21B0B1D19E5008DB51868A1ED45B0151D7234E0DBEA5DEA3D45D991511CAF2920D32146FD6F5264BBEAB56457620BFAA5484B2B1226C09860161B2CEAA55CC0653D78115DC4807AAE748A0ACA0E614F646E2F16B6FD2947B37E0D64FDF77830C
310
0ABF1EED3523EABC82C1F2D82A0CC42392F19D1B6EF4757405F577829343AAAF6ACD66050888A9485E726255F4750DE58DADD1DCF01649B1FD68B26E75FDBAF6A0FB118C610DD42EF5C2B5023AC34C225599DCAA1BFA3B8210DCA261C6D72AA79E42E5324974D588E80DE95367AB8C686D9A11AFB8C32CCFE0C7B684C5B44C
310
F01625E23EBA9534DA10C5BA95D2CB4885F1AB02FEF671D38107460688F4451578F8B1B3D68EAE54B9749488BC2BB31D430482604BB4D4E8C62B586A355269B9BEAA3305D45D606056C5F3FF4F16CD76C4FF278BD41AC6F79D2C68BE43F4106D1AD93C56667DD229A04E4F8ACA7B9C0274D7A1A65A271193CBADF8D6972288
310
8955901F5C8C5531C310ECE3F85F27EDBE2468B6EBF07F5AD2F65F141C272595D664D5A43A52B8AE9B296C7A395FCE2F9737A3F3C97C399AAF9667A3E5F26C319ADC5C7D582CA7CBD5E2C3558DA6F6D330A863994E5DF06C625A35AC9E2C06D094153925091CE61327C510F2251CE90774CF798605E4CE66AF3BB13DF901AB
310
1F4C9B53A21DC515277708FAC3544056078CCA58B6C79D1FA03329E19C7DE142CFC8BB873F6B95AE0389E7C2854E81243116DE0EBA4CAA9FA78943C6D5A9DF12037C104B5546348BEAE77A95C2A615FDEB2943B28095ABD5C280BAAD80E657AB41A179B33CC527095EB1E32009B7BB5242B16664390CD4C2E86D0EEA37B251
310
C2EEEDD64FE0BAAF8BE57B7A4E0B91415F0C5E3502437524114F75BB5B316659BABCFE3286369BB3FECD296899822E87531A710CC65CAA7A0AAC08ACC2D22C9004535DFDB2FDC273F8C29339BA28727E7C5A9EFDB45DE559963333B4BD84435902DF899CCD1D7CF549B6503B60D55B17DBE9C49F6E754FDBB6D9A31D12D853
310
45110C54B58412A4637260972FFA53B67B3956AAE84C5F5F3B3688422FC0D8D18B16AFF9C6E5800FA9AF29CA63B49F57D2BEDAD61EEBA960131C1AD2E13F504B03041400060800000A64E542000000000000000000000000350000006662782F32373432454335302D333830352D344138372D383736382D43413246374531
310
36303645382F76657274696365732E62696E504B03041400060808000A64E542F270F1330600000004000000360000006662782F32373432454335302D333830352D344138372D383736382D4341324637453136303645382F747269616E676C65732E62696E636660600000504B03041400060800000A64E5420000000000
310
00000000000000370000006662782F32373432454335302D333830352D344138372D383736382D4341324637453136303645382F617474726962757465732E62696E504B03041400060808000A64E542D5987DFC8F00000041010000360000006662782F32373432454335302D333830352D344138372D383736382D434132
310
4637453136303645382F6469726563746F72792E786D6C858F410EC2201045AF4266AF15DDB800BA74E7C21B903225242D6328188F2FA5C4183471359997F9FF81E89FF3C41E1816475E02DF1F80A11FC8386F25A438EECEC07A250251FC3803E6F58C12560C4AD840E95E91C151A72936F496F35732D860FE635F62C8F2DA
310
16B505C545B74125BAA2FA9E05D7CC053D063734D5C7665FD55B6B8D15D5E9BFEAFD8490FFA45E504B03041400060808000A64E5422C5FFA2EFE000000A00100003B0000006662782F32373432454335302D333830352D344138372D383736382D4341324637453136303645382F7265736F75726365732F636F72652E786D
310
6C8D50594EC33010BD4A34BFC88917026DE5B84AD372022E6039D360B5B12B2F88E3E3B441823F7E66466FD13C3DB9FF9AAFD5278668BDEB80D5142A74C68FD64D1DE474261BA8F64A06EFD32F19544ECFD8C102839253F0F9B642C6BB842E15D4F9115750C788092A732D4707D17CE0AC6B9D5351C44B7DD3E6A227AC595D
310
E8A25332A65002548F27CB041530FA1C0C46D93C582573B6E3AAB163F969CF1603A80313C3CBA9E5441CE9913CF76C4B7A763A10FED6F6C320DAE1B8E965B398954C76FEC96802EA8423284E9920F495D0F69DF19DE03B4E9F68BB1354368BFC8F29DFC67F9AB27549F035EEC31641B112E44E28D92C7D95752FB3ECA55BF5
310
0D504B010214000A00000800000A64E5423DEE336E79000000790000001B00000000000000000000000000000000006175746F6465736B2D64657369676E2D7061636B6167652E786D6C504B010214001400060808000A64E542D486FD9CA0000000F40000001300000000000000000000000000B20000005B436F6E74656E
310
745F54797065735D2E786D6C504B010214001400060808000A64E5423FF4D4B6EB0000007C010000080000000000000000000000000083010000636F72652E786D6C504B010214001400060808000A64E54255019EA25F0000007C000000070000000000000000000000000094020000636E782E786D6C504B010214001400
310
060808000A64E542DC8E946668010000020300000C00000000000000000000000000180300006662782F636F72652E786D6C504B010214001400060808000A64E542F63CA7377D0000009D0000000B00000000000000000000000000AA0400006662782F636E782E786D6C504B010214001400060808000A64E542F55CBF37
310
29010000140200003100000000000000000000000000500500006662782F32373432454335302D333830352D344138372D383736382D4341324637453136303645382F636F72652E786D6C504B010214001400060808000A64E542A53A83F055010000330300003000000000000000000000000000C80600006662782F3237
310
3432454335302D333830352D344138372D383736382D4341324637453136303645382F636E782E786D6C504B010214001400060808000A64E54291EF50F361070000991B000034000000000000000000000000006B0800006662782F32373432454335302D333830352D344138372D383736382D4341324637453136303645
310
382F6F626A656374732E786D6C504B010214001400060800000A64E54200000000000000000000000035000000000000000000000000001E1000006662782F32373432454335302D333830352D344138372D383736382D4341324637453136303645382F76657274696365732E62696E504B010214001400060808000A64E5
310
42F270F13306000000040000003600000000000000000000000000711000006662782F32373432454335302D333830352D344138372D383736382D4341324637453136303645382F747269616E676C65732E62696E504B010214001400060800000A64E5420000000000000000000000003700000000000000000000000000
310
CB1000006662782F32373432454335302D333830352D344138372D383736382D4341324637453136303645382F617474726962757465732E62696E504B010214001400060808000A64E542D5987DFC8F000000410100003600000000000000000000000000201100006662782F32373432454335302D333830352D34413837
310
2D383736382D4341324637453136303645382F6469726563746F72792E786D6C504B010214001400060808000A64E5422C5FFA2EFE000000A00100003B00000000000000000000000000031200006662782F32373432454335302D333830352D344138372D383736382D4341324637453136303645382F7265736F75726365
310
732F636F72652E786D6C504B0506000000000E000E00800400005A1300000000
  0
XRECORD
  5
27
102
{ACAD_REACTORS
330
22
102
}
330
22
100
AcDbXrecord
280
     1
270
     1
271
     1
  0
XRECORD
  5
26
102
{ACAD_REACTORS
330
22
102
}
330
22
100
AcDbXrecord
280
     1
270
     1
271
     1
  0
XRECORD
  5
28
102
{ACAD_REACTORS
330
22
102
}
330
22
100
AcDbXrecord
280
     1
270
     1
271
     1
  0
XRECORD
  5
25
102
{ACAD_REACTORS
330
22
102
}
330
22
100
AcDbXrecord
280
     1
270
     1
271
     1
  0
XRECORD
  5
DE7
102
{ACAD_REACTORS
330
DE6
102
}
330
DE6
100
AcDbXrecord
280
     1
102
ACAD_ROUNDTRIP_2012_MLEADER_STYLE
298
     1
  0
CELLSTYLEMAP
  5
DE5
102
{ACAD_REACTORS
330
DE4
102
}
330
DE4
100
AcDbCellStyleMap
 90
        3
300
CELLSTYLE
  1
TABLEFORMAT_BEGIN
 90
        5
170
     1
 91
        0
 92
    32768
 62
   257
 93
        1
300
CONTENTFORMAT
  1
CONTENTFORMAT_BEGIN
 90
        0
 91
        0
 92
      512
 93
        0
300

 40
0.0
140
1.0
 94
        5
 62
     0
340
55
144
0.25
309
CONTENTFORMAT_END
171
     0
 94
        0
309
TABLEFORMAT_END
  1
CELLSTYLE_BEGIN
 90
        1
 91
        1
300
_TITLE
309
CELLSTYLE_END
300
CELLSTYLE
  1
TABLEFORMAT_BEGIN
 90
        5
170
     1
 91
        0
 92
        0
 62
   257
 93
        1
300
CONTENTFORMAT
  1
CONTENTFORMAT_BEGIN
 90
        0
 91
        0
 92
      512
 93
        0
300

 40
0.0
140
1.0
 94
        5
 62
     0
340
55
144
0.18
309
CONTENTFORMAT_END
171
     0
 94
        0
309
TABLEFORMAT_END
  1
CELLSTYLE_BEGIN
 90
        2
 91
        1
300
_HEADER
309
CELLSTYLE_END
300
CELLSTYLE
  1
TABLEFORMAT_BEGIN
 90
        5
170
     1
 91
        0
 92
        0
 62
   257
 93
        1
300
CONTENTFORMAT
  1
CONTENTFORMAT_BEGIN
 90
        0
 91
        0
 92
      512
 93
        0
300

 40
0.0
140
1.0
 94
        2
 62
     0
340
55
144
0.18
309
CONTENTFORMAT_END
171
     0
 94
        0
309
TABLEFORMAT_END
  1
CELLSTYLE_BEGIN
 90
        3
 91
        2
300
_DATA
309
CELLSTYLE_END
  0
XRECORD
  5
E1E
102
{ACAD_REACTORS
330
DE4
102
}
330
DE4
100
AcDbXrecord
280
     1
102
ACAD_ROUNDTRIP_PRE2007_TABLESTYLE
 90
      512
 91
        0
  1

 92
      512
 93
        0
  2

 94
      512
 95
        0
  3

  0
XRECORD
  5
DF9
102
{ACAD_REACTORS
330
DF8
102
}
330
DF8
100
AcDbXrecord
280
     1
102
RTVSPropertyOp0
 70
     1
102
RTVSPropertyOp1
 70
     1
102
RTVSPropertyOp2
 70
     1
102
RTVSPropertyOp3
 70
     1
102
RTVSPropertyOp4
 70
     1
102
RTVSPropertyOp5
 70
     1
102
RTVSPropertyOp6
 70
     1
102
RTVSPropertyOp7
 70
     1
102
RTVSPropertyOp8
 70
     1
102
RTVSPropertyOp9
 70
     1
102
RTVSPropertyOp10
 70
     1
102
RTVSPropertyOp11
 70
     1
102
RTVSPropertyOp12
 70
     1
102
RTVSPropertyOp13
 70
     1
102
RTVSPropertyOp14
 70
     1
102
RTVSPropertyOp15
 70
     1
102
RTVSPropertyOp16
 70
     1
102
RTVSPropertyOp17
 70
     1
102
RTVSPropertyOp18
 70
     1
102
RTVSPropertyOp19
 70
     1
102
RTVSPropertyOp20
 70
     1
102
RTVSPropertyOp21
 70
     1
102
RTVSPropertyOp22
 70
     1
102
RTVSPropertyOp23
 70
     1
102
RTVSPropertyOp24
 70
     1
102
RTVSPropertyOp25
 70
     1
102
RTVSPropertyOp26
 70
     1
102
RTVSPropertyOp27
 70
     1
102
RTVSPropertyOp28
 70
     1
102
RTVSPropertyOp29
 70
     1
102
RTVSPropertyOp30
 70
     1
102
RTVSPropertyOp31
 70
     1
102
RTVSPropertyOp32
 70
     1
  0
XRECORD
  5
DF7
102
{ACAD_REACTORS
330
DF6
102
}
330
DF6
100
AcDbXrecord
280
     1
102
RTVSPropertyOp0
 70
     1
102
RTVSPropertyOp1
 70
     1
102
RTVSPropertyOp2
 70
     1
102
RTVSPropertyOp3
 70
     1
102
RTVSPropertyOp4
 70
     1
102
RTVSPropertyOp5
 70
     1
102
RTVSPropertyOp6
 70
     1
102
RTVSPropertyOp7
 70
     1
102
RTVSPropertyOp8
 70
     1
102
RTVSPropertyOp9
 70
     1
102
RTVSPropertyOp10
 70
     1
102
RTVSPropertyOp11
 70
     1
102
RTVSPropertyOp12
 70
     1
102
RTVSPropertyOp13
 70
     1
102
RTVSPropertyOp14
 70
     1
102
RTVSPropertyOp15
 70
     1
102
RTVSPropertyOp16
 70
     1
102
RTVSPropertyOp17
 70
     1
102
RTVSPropertyOp18
 70
     1
102
RTVSPropertyOp19
 70
     1
102
RTVSPropertyOp20
 70
     1
102
RTVSPropertyOp21
 70
     1
102
RTVSPropertyOp22
 70
     1
102
RTVSPropertyOp23
 70
     1
102
RTVSPropertyOp24
 70
     1
102
RTVSPropertyOp25
 70
     1
102
RTVSPropertyOp26
 70
     1
102
RTVSPropertyOp27
 70
     1
102
RTVSPropertyOp28
 70
     1
102
RTVSPropertyOp29
 70
     1
102
RTVSPropertyOp30
 70
     1
102
RTVSPropertyOp31
 70
     1
102
RTVSPropertyOp32
 70
     1
  0
XRECORD
  5
E05
102
{ACAD_REACTORS
330
E04
102
}
330
E04
100
AcDbXrecord
280
     1
102
RTVSPropertyOp0
 70
     1
102
RTVSPropertyOp1
 70
     1
102
RTVSPropertyOp2
 70
     1
102
RTVSPropertyOp3
 70
     1
102
RTVSPropertyOp4
 70
     1
102
RTVSPropertyOp5
 70
     1
102
RTVSPropertyOp6
 70
     1
102
RTVSPropertyOp7
 70
     1
102
RTVSPropertyOp8
 70
     1
102
RTVSPropertyOp9
 70
     1
102
RTVSPropertyOp10
 70
     1
102
RTVSPropertyOp11
 70
     1
102
RTVSPropertyOp12
 70
     1
102
RTVSPropertyOp13
 70
     1
102
RTVSPropertyOp14
 70
     1
102
RTVSPropertyOp15
 70
     1
102
RTVSPropertyOp16
 70
     1
102
RTVSPropertyOp17
 70
     1
102
RTVSPropertyOp18
 70
     1
102
RTVSPropertyOp19
 70
     1
102
RTVSPropertyOp20
 70
     1
102
RTVSPropertyOp21
 70
     1
102
RTVSPropertyOp22
 70
     1
102
RTVSPropertyOp23
 70
     1
102
RTVSPropertyOp24
 70
     1
102
RTVSPropertyOp25
 70
     1
102
RTVSPropertyOp26
 70
     1
102
RTVSPropertyOp27
 70
     1
102
RTVSPropertyOp28
 70
     1
102
RTVSPropertyOp29
 70
     1
102
RTVSPropertyOp30
 70
     1
102
RTVSPropertyOp31
 70
     1
102
RTVSPropertyOp32
 70
     1
  0
XRECORD
  5
E0D
102
{ACAD_REACTORS
330
E0C
102
}
330
E0C
100
AcDbXrecord
280
     1
102
RTVSPropertyOp0
 70
     1
102
RTVSPropertyOp1
 70
     1
102
RTVSPropertyOp2
 70
     1
102
RTVSPropertyOp3
 70
     1
102
RTVSPropertyOp4
 70
     1
102
RTVSPropertyOp5
 70
     1
102
RTVSPropertyOp6
 70
     1
102
RTVSPropertyOp7
 70
     1
102
RTVSPropertyOp8
 70
     1
102
RTVSPropertyOp9
 70
     1
102
RTVSPropertyOp10
 70
     1
102
RTVSPropertyOp11
 70
     1
102
RTVSPropertyOp12
 70
     1
102
RTVSPropertyOp13
 70
     1
102
RTVSPropertyOp14
 70
     1
102
RTVSPropertyOp15
 70
     1
102
RTVSPropertyOp16
 70
     1
102
RTVSPropertyOp17
 70
     1
102
RTVSPropertyOp18
 70
     1
102
RTVSPropertyOp19
 70
     1
102
RTVSPropertyOp20
 70
     1
102
RTVSPropertyOp21
 70
     1
102
RTVSPropertyOp22
 70
     1
102
RTVSPropertyOp23
 70
     1
102
RTVSPropertyOp24
 70
     1
102
RTVSPropertyOp25
 70
     1
102
RTVSPropertyOp26
 70
     1
102
RTVSPropertyOp27
 70
     1
102
RTVSPropertyOp28
 70
     1
102
RTVSPropertyOp29
 70
     1
102
RTVSPropertyOp30
 70
     1
102
RTVSPropertyOp31
 70
     1
102
RTVSPropertyOp32
 70
     1
  0
XRECORD
  5
DFF
102
{ACAD_REACTORS
330
DFE
102
}
330
DFE
100
AcDbXrecord
280
     1
102
RTVSPropertyOp0
 70
     1
102
RTVSPropertyOp1
 70
     1
102
RTVSPropertyOp2
 70
     1
102
RTVSPropertyOp3
 70
     1
102
RTVSPropertyOp4
 70
     1
102
RTVSPropertyOp5
 70
     1
102
RTVSPropertyOp6
 70
     1
102
RTVSPropertyOp7
 70
     1
102
RTVSPropertyOp8
 70
     1
102
RTVSPropertyOp9
 70
     1
102
RTVSPropertyOp10
 70
     1
102
RTVSPropertyOp11
 70
     1
102
RTVSPropertyOp12
 70
     1
102
RTVSPropertyOp13
 70
     1
102
RTVSPropertyOp14
 70
     1
102
RTVSPropertyOp15
 70
     1
102
RTVSPropertyOp16
 70
     1
102
RTVSPropertyOp17
 70
     1
102
RTVSPropertyOp18
 70
     1
102
RTVSPropertyOp19
 70
     1
102
RTVSPropertyOp20
 70
     1
102
RTVSPropertyOp21
 70
     1
102
RTVSPropertyOp22
 70
     1
102
RTVSPropertyOp23
 70
     1
102
RTVSPropertyOp24
 70
     1
102
RTVSPropertyOp25
 70
     1
102
RTVSPropertyOp26
 70
     1
102
RTVSPropertyOp27
 70
     1
102
RTVSPropertyOp28
 70
     1
102
RTVSPropertyOp29
 70
     1
102
RTVSPropertyOp30
 70
     1
102
RTVSPropertyOp31
 70
     1
102
RTVSPropertyOp32
 70
     1
  0
XRECORD
  5
E03
102
{ACAD_REACTORS
330
E02
102
}
330
E02
100
AcDbXrecord
280
     1
102
RTVSPropertyOp0
 70
     1
102
RTVSPropertyOp1
 70
     1
102
RTVSPropertyOp2
 70
     1
102
RTVSPropertyOp3
 70
     1
102
RTVSPropertyOp4
 70
     1
102
RTVSPropertyOp5
 70
     1
102
RTVSPropertyOp6
 70
     1
102
RTVSPropertyOp7
 70
     1
102
RTVSPropertyOp8
 70
     1
102
RTVSPropertyOp9
 70
     1
102
RTVSPropertyOp10
 70
     1
102
RTVSPropertyOp11
 70
     1
102
RTVSPropertyOp12
 70
     1
102
RTVSPropertyOp13
 70
     1
102
RTVSPropertyOp14
 70
     1
102
RTVSPropertyOp15
 70
     1
102
RTVSPropertyOp16
 70
     1
102
RTVSPropertyOp17
 70
     1
102
RTVSPropertyOp18
 70
     1
102
RTVSPropertyOp19
 70
     1
102
RTVSPropertyOp20
 70
     1
102
RTVSPropertyOp21
 70
     1
102
RTVSPropertyOp22
 70
     1
102
RTVSPropertyOp23
 70
     1
102
RTVSPropertyOp24
 70
     1
102
RTVSPropertyOp25
 70
     1
102
RTVSPropertyOp26
 70
     1
102
RTVSPropertyOp27
 70
     1
102
RTVSPropertyOp28
 70
     1
102
RTVSPropertyOp29
 70
     1
102
RTVSPropertyOp30
 70
     1
102
RTVSPropertyOp31
 70
     1
102
RTVSPropertyOp32
 70
     1
  0
XRECORD
  5
E1D
102
{ACAD_REACTORS
330
E1C
102
}
330
E1C
100
AcDbXrecord
280
     1
102
RTVSPropertyOp0
 70
     0
102
RTVSPropertyOp1
 70
     0
102
RTVSPropertyOp2
 70
     0
102
RTVSPropertyOp3
 70
     0
102
RTVSPropertyOp4
 70
     0
102
RTVSPropertyOp5
 70
     0
102
RTVSPropertyOp6
 70
     0
102
RTVSPropertyOp7
 70
     0
102
RTVSPropertyOp8
 70
     0
102
RTVSPropertyOp9
 70
     0
102
RTVSPropertyOp10
 70
     0
102
RTVSPropertyOp11
 70
     0
102
RTVSPropertyOp12
 70
     0
102
RTVSPropertyOp13
 70
     0
102
RTVSPropertyOp14
 70
     2
102
RTVSPropertyOp15
 70
     0
102
RTVSPropertyOp16
 70
     0
102
RTVSPropertyOp17
 70
     0
102
RTVSPropertyOp18
 70
     0
102
RTVSPropertyOp19
 70
     0
102
RTVSPropertyOp20
 70
     0
102
RTVSPropertyOp21
 70
     0
102
RTVSPropertyOp22
 70
     0
102
RTVSPropertyOp23
 70
     0
102
RTVSPropertyOp24
 70
     0
102
RTVSPropertyOp25
 70
     0
102
RTVSPropertyOp26
 70
     0
102
RTVSPropertyOp27
 70
     0
102
RTVSPropertyOp28
 70
     1
102
RTVSPropertyOp29
 70
     1
102
RTVSPropertyOp30
 70
     1
102
RTVSPropertyOp31
 70
     1
102
RTVSPropertyOp32
 70
     1
  0
XRECORD
  5
E0B
102
{ACAD_REACTORS
330
E0A
102
}
330
E0A
100
AcDbXrecord
280
     1
102
RTVSPropertyOp0
 70
     1
102
RTVSPropertyOp1
 70
     1
102
RTVSPropertyOp2
 70
     1
102
RTVSPropertyOp3
 70
     1
102
RTVSPropertyOp4
 70
     1
102
RTVSPropertyOp5
 70
     1
102
RTVSPropertyOp6
 70
     1
102
RTVSPropertyOp7
 70
     1
102
RTVSPropertyOp8
 70
     1
102
RTVSPropertyOp9
 70
     1
102
RTVSPropertyOp10
 70
     1
102
RTVSPropertyOp11
 70
     1
102
RTVSPropertyOp12
 70
     1
102
RTVSPropertyOp13
 70
     1
102
RTVSPropertyOp14
 70
     1
102
RTVSPropertyOp15
 70
     1
102
RTVSPropertyOp16
 70
     1
102
RTVSPropertyOp17
 70
     1
102
RTVSPropertyOp18
 70
     1
102
RTVSPropertyOp19
 70
     1
102
RTVSPropertyOp20
 70
     1
102
RTVSPropertyOp21
 70
     1
102
RTVSPropertyOp22
 70
     1
102
RTVSPropertyOp23
 70
     1
102
RTVSPropertyOp24
 70
     1
102
RTVSPropertyOp25
 70
     1
102
RTVSPropertyOp26
 70
     1
102
RTVSPropertyOp27
 70
     1
102
RTVSPropertyOp28
 70
     1
102
RTVSPropertyOp29
 70
     1
102
RTVSPropertyOp30
 70
     1
102
RTVSPropertyOp31
 70
     1
102
RTVSPropertyOp32
 70
     1
  0
XRECORD
  5
DEF
102
{ACAD_REACTORS
330
DEE
102
}
330
DEE
100
AcDbXrecord
280
     1
102
RTVSPropertyOp0
 70
     1
102
RTVSPropertyOp1
 70
     1
102
RTVSPropertyOp2
 70
     1
102
RTVSPropertyOp3
 70
     1
102
RTVSPropertyOp4
 70
     1
102
RTVSPropertyOp5
 70
     1
102
RTVSPropertyOp6
 70
     1
102
RTVSPropertyOp7
 70
     1
102
RTVSPropertyOp8
 70
     1
102
RTVSPropertyOp9
 70
     1
102
RTVSPropertyOp10
 70
     1
102
RTVSPropertyOp11
 70
     1
102
RTVSPropertyOp12
 70
     1
102
RTVSPropertyOp13
 70
     1
102
RTVSPropertyOp14
 70
     1
102
RTVSPropertyOp15
 70
     1
102
RTVSPropertyOp16
 70
     1
102
RTVSPropertyOp17
 70
     1
102
RTVSPropertyOp18
 70
     1
102
RTVSPropertyOp19
 70
     1
102
RTVSPropertyOp20
 70
     1
102
RTVSPropertyOp21
 70
     1
102
RTVSPropertyOp22
 70
     1
102
RTVSPropertyOp23
 70
     1
102
RTVSPropertyOp24
 70
     1
102
RTVSPropertyOp25
 70
     1
102
RTVSPropertyOp26
 70
     1
102
RTVSPropertyOp27
 70
     1
102
RTVSPropertyOp28
 70
     1
102
RTVSPropertyOp29
 70
     1
102
RTVSPropertyOp30
 70
     1
102
RTVSPropertyOp31
 70
     1
102
RTVSPropertyOp32
 70
     1
  0
XRECORD
  5
DF1
102
{ACAD_REACTORS
330
DF0
102
}
330
DF0
100
AcDbXrecord
280
     1
102
RTVSPropertyOp0
 70
     1
102
RTVSPropertyOp1
 70
     1
102
RTVSPropertyOp2
 70
     1
102
RTVSPropertyOp3
 70
     1
102
RTVSPropertyOp4
 70
     1
102
RTVSPropertyOp5
 70
     1
102
RTVSPropertyOp6
 70
     1
102
RTVSPropertyOp7
 70
     1
102
RTVSPropertyOp8
 70
     1
102
RTVSPropertyOp9
 70
     1
102
RTVSPropertyOp10
 70
     1
102
RTVSPropertyOp11
 70
     1
102
RTVSPropertyOp12
 70
     1
102
RTVSPropertyOp13
 70
     1
102
RTVSPropertyOp14
 70
     1
102
RTVSPropertyOp15
 70
     1
102
RTVSPropertyOp16
 70
     1
102
RTVSPropertyOp17
 70
     1
102
RTVSPropertyOp18
 70
     1
102
RTVSPropertyOp19
 70
     1
102
RTVSPropertyOp20
 70
     1
102
RTVSPropertyOp21
 70
     1
102
RTVSPropertyOp22
 70
     1
102
RTVSPropertyOp23
 70
     1
102
RTVSPropertyOp24
 70
     1
102
RTVSPropertyOp25
 70
     1
102
RTVSPropertyOp26
 70
     1
102
RTVSPropertyOp27
 70
     1
102
RTVSPropertyOp28
 70
     1
102
RTVSPropertyOp29
 70
     1
102
RTVSPropertyOp30
 70
     1
102
RTVSPropertyOp31
 70
     1
102
RTVSPropertyOp32
 70
     1
  0
XRECORD
  5
DF3
102
{ACAD_REACTORS
330
DF2
102
}
330
DF2
100
AcDbXrecord
280
     1
102
RTVSPropertyOp0
 70
     1
102
RTVSPropertyOp1
 70
     1
102
RTVSPropertyOp2
 70
     1
102
RTVSPropertyOp3
 70
     1
102
RTVSPropertyOp4
 70
     1
102
RTVSPropertyOp5
 70
     1
102
RTVSPropertyOp6
 70
     1
102
RTVSPropertyOp7
 70
     1
102
RTVSPropertyOp8
 70
     1
102
RTVSPropertyOp9
 70
     1
102
RTVSPropertyOp10
 70
     1
102
RTVSPropertyOp11
 70
     1
102
RTVSPropertyOp12
 70
     1
102
RTVSPropertyOp13
 70
     1
102
RTVSPropertyOp14
 70
     1
102
RTVSPropertyOp15
 70
     1
102
RTVSPropertyOp16
 70
     1
102
RTVSPropertyOp17
 70
     1
102
RTVSPropertyOp18
 70
     1
102
RTVSPropertyOp19
 70
     1
102
RTVSPropertyOp20
 70
     1
102
RTVSPropertyOp21
 70
     1
102
RTVSPropertyOp22
 70
     1
102
RTVSPropertyOp23
 70
     1
102
RTVSPropertyOp24
 70
     1
102
RTVSPropertyOp25
 70
     1
102
RTVSPropertyOp26
 70
     1
102
RTVSPropertyOp27
 70
     1
102
RTVSPropertyOp28
 70
     1
102
RTVSPropertyOp29
 70
     1
102
RTVSPropertyOp30
 70
     1
102
RTVSPropertyOp31
 70
     1
102
RTVSPropertyOp32
 70
     1
  0
XRECORD
  5
DF5
102
{ACAD_REACTORS
330
DF4
102
}
330
DF4
100
AcDbXrecord
280
     1
102
RTVSPropertyOp0
 70
     1
102
RTVSPropertyOp1
 70
     1
102
RTVSPropertyOp2
 70
     1
102
RTVSPropertyOp3
 70
     1
102
RTVSPropertyOp4
 70
     1
102
RTVSPropertyOp5
 70
     1
102
RTVSPropertyOp6
 70
     1
102
RTVSPropertyOp7
 70
     1
102
RTVSPropertyOp8
 70
     1
102
RTVSPropertyOp9
 70
     1
102
RTVSPropertyOp10
 70
     1
102
RTVSPropertyOp11
 70
     1
102
RTVSPropertyOp12
 70
     1
102
RTVSPropertyOp13
 70
     1
102
RTVSPropertyOp14
 70
     1
102
RTVSPropertyOp15
 70
     1
102
RTVSPropertyOp16
 70
     1
102
RTVSPropertyOp17
 70
     1
102
RTVSPropertyOp18
 70
     1
102
RTVSPropertyOp19
 70
     1
102
RTVSPropertyOp20
 70
     1
102
RTVSPropertyOp21
 70
     1
102
RTVSPropertyOp22
 70
     1
102
RTVSPropertyOp23
 70
     1
102
RTVSPropertyOp24
 70
     1
102
RTVSPropertyOp25
 70
     1
102
RTVSPropertyOp26
 70
     1
102
RTVSPropertyOp27
 70
     1
102
RTVSPropertyOp28
 70
     1
102
RTVSPropertyOp29
 70
     1
102
RTVSPropertyOp30
 70
     1
102
RTVSPropertyOp31
 70
     1
102
RTVSPropertyOp32
 70
     1
  0
XRECORD
  5
DFD
102
{ACAD_REACTORS
330
DFC
102
}
330
DFC
100
AcDbXrecord
280
     1
102
RTVSPropertyOp0
 70
     1
102
RTVSPropertyOp1
 70
     1
102
RTVSPropertyOp2
 70
     1
102
RTVSPropertyOp3
 70
     1
102
RTVSPropertyOp4
 70
     1
102
RTVSPropertyOp5
 70
     1
102
RTVSPropertyOp6
 70
     1
102
RTVSPropertyOp7
 70
     1
102
RTVSPropertyOp8
 70
     1
102
RTVSPropertyOp9
 70
     1
102
RTVSPropertyOp10
 70
     1
102
RTVSPropertyOp11
 70
     1
102
RTVSPropertyOp12
 70
     1
102
RTVSPropertyOp13
 70
     1
102
RTVSPropertyOp14
 70
     1
102
RTVSPropertyOp15
 70
     1
102
RTVSPropertyOp16
 70
     1
102
RTVSPropertyOp17
 70
     1
102
RTVSPropertyOp18
 70
     1
102
RTVSPropertyOp19
 70
     1
102
RTVSPropertyOp20
 70
     1
102
RTVSPropertyOp21
 70
     1
102
RTVSPropertyOp22
 70
     1
102
RTVSPropertyOp23
 70
     1
102
RTVSPropertyOp24
 70
     1
102
RTVSPropertyOp25
 70
     1
102
RTVSPropertyOp26
 70
     1
102
RTVSPropertyOp27
 70
     1
102
RTVSPropertyOp28
 70
     1
102
RTVSPropertyOp29
 70
     1
102
RTVSPropertyOp30
 70
     1
102
RTVSPropertyOp31
 70
     1
102
RTVSPropertyOp32
 70
     1
  0
XRECORD
  5
E19
102
{ACAD_REACTORS
330
E18
102
}
330
E18
100
AcDbXrecord
280
     1
102
RTVSPropertyOp0
 70
     0
102
RTVSPropertyOp1
 70
     0
102
RTVSPropertyOp2
 70
     0
102
RTVSPropertyOp3
 70
     0
102
RTVSPropertyOp4
 70
     0
102
RTVSPropertyOp5
 70
     0
102
RTVSPropertyOp6
 70
     0
102
RTVSPropertyOp7
 70
     0
102
RTVSPropertyOp8
 70
     0
102
RTVSPropertyOp9
 70
     0
102
RTVSPropertyOp10
 70
     0
102
RTVSPropertyOp11
 70
     0
102
RTVSPropertyOp12
 70
     0
102
RTVSPropertyOp13
 70
     0
102
RTVSPropertyOp14
 70
     2
102
RTVSPropertyOp15
 70
     0
102
RTVSPropertyOp16
 70
     0
102
RTVSPropertyOp17
 70
     0
102
RTVSPropertyOp18
 70
     0
102
RTVSPropertyOp19
 70
     0
102
RTVSPropertyOp20
 70
     0
102
RTVSPropertyOp21
 70
     0
102
RTVSPropertyOp22
 70
     0
102
RTVSPropertyOp23
 70
     0
102
RTVSPropertyOp24
 70
     0
102
RTVSPropertyOp25
 70
     0
102
RTVSPropertyOp26
 70
     0
102
RTVSPropertyOp27
 70
     0
102
RTVSPropertyOp28
 70
     1
102
RTVSPropertyOp29
 70
     1
102
RTVSPropertyOp30
 70
     1
102
RTVSPropertyOp31
 70
     1
102
RTVSPropertyOp32
 70
     1
  0
XRECORD
  5
E09
102
{ACAD_REACTORS
330
E08
102
}
330
E08
100
AcDbXrecord
280
     1
102
RTVSPropertyOp0
 70
     1
102
RTVSPropertyOp1
 70
     1
102
RTVSPropertyOp2
 70
     1
102
RTVSPropertyOp3
 70
     1
102
RTVSPropertyOp4
 70
     1
102
RTVSPropertyOp5
 70
     1
102
RTVSPropertyOp6
 70
     1
102
RTVSPropertyOp7
 70
     1
102
RTVSPropertyOp8
 70
     1
102
RTVSPropertyOp9
 70
     1
102
RTVSPropertyOp10
 70
     1
102
RTVSPropertyOp11
 70
     1
102
RTVSPropertyOp12
 70
     1
102
RTVSPropertyOp13
 70
     1
102
RTVSPropertyOp14
 70
     1
102
RTVSPropertyOp15
 70
     1
102
RTVSPropertyOp16
 70
     1
102
RTVSPropertyOp17
 70
     1
102
RTVSPropertyOp18
 70
     1
102
RTVSPropertyOp19
 70
     1
102
RTVSPropertyOp20
 70
     1
102
RTVSPropertyOp21
 70
     1
102
RTVSPropertyOp22
 70
     1
102
RTVSPropertyOp23
 70
     1
102
RTVSPropertyOp24
 70
     1
102
RTVSPropertyOp25
 70
     1
102
RTVSPropertyOp26
 70
     1
102
RTVSPropertyOp27
 70
     1
102
RTVSPropertyOp28
 70
     1
102
RTVSPropertyOp29
 70
     1
102
RTVSPropertyOp30
 70
     1
102
RTVSPropertyOp31
 70
     1
102
RTVSPropertyOp32
 70
     1
  0
XRECORD
  5
E1B
102
{ACAD_REACTORS
330
E1A
102
}
330
E1A
100
AcDbXrecord
280
     1
102
RTVSPropertyOp0
 70
     0
102
RTVSPropertyOp1
 70
     0
102
RTVSPropertyOp2
 70
     0
102
RTVSPropertyOp3
 70
     0
102
RTVSPropertyOp4
 70
     0
102
RTVSPropertyOp5
 70
     0
102
RTVSPropertyOp6
 70
     0
102
RTVSPropertyOp7
 70
     0
102
RTVSPropertyOp8
 70
     0
102
RTVSPropertyOp9
 70
     0
102
RTVSPropertyOp10
 70
     0
102
RTVSPropertyOp11
 70
     0
102
RTVSPropertyOp12
 70
     0
102
RTVSPropertyOp13
 70
     0
102
RTVSPropertyOp14
 70
     2
102
RTVSPropertyOp15
 70
     0
102
RTVSPropertyOp16
 70
     0
102
RTVSPropertyOp17
 70
     0
102
RTVSPropertyOp18
 70
     0
102
RTVSPropertyOp19
 70
     0
102
RTVSPropertyOp20
 70
     0
102
RTVSPropertyOp21
 70
     0
102
RTVSPropertyOp22
 70
     0
102
RTVSPropertyOp23
 70
     0
102
RTVSPropertyOp24
 70
     0
102
RTVSPropertyOp25
 70
     0
102
RTVSPropertyOp26
 70
     0
102
RTVSPropertyOp27
 70
     0
102
RTVSPropertyOp28
 70
     1
102
RTVSPropertyOp29
 70
     1
102
RTVSPropertyOp30
 70
     1
102
RTVSPropertyOp31
 70
     1
102
RTVSPropertyOp32
 70
     1
  0
XRECORD
  5
E01
102
{ACAD_REACTORS
330
E00
102
}
330
E00
100
AcDbXrecord
280
     1
102
RTVSPropertyOp0
 70
     1
102
RTVSPropertyOp1
 70
     1
102
RTVSPropertyOp2
 70
     1
102
RTVSPropertyOp3
 70
     1
102
RTVSPropertyOp4
 70
     1
102
RTVSPropertyOp5
 70
     1
102
RTVSPropertyOp6
 70
     1
102
RTVSPropertyOp7
 70
     1
102
RTVSPropertyOp8
 70
     1
102
RTVSPropertyOp9
 70
     1
102
RTVSPropertyOp10
 70
     1
102
RTVSPropertyOp11
 70
     1
102
RTVSPropertyOp12
 70
     1
102
RTVSPropertyOp13
 70
     1
102
RTVSPropertyOp14
 70
     1
102
RTVSPropertyOp15
 70
     1
102
RTVSPropertyOp16
 70
     1
102
RTVSPropertyOp17
 70
     1
102
RTVSPropertyOp18
 70
     1
102
RTVSPropertyOp19
 70
     1
102
RTVSPropertyOp20
 70
     1
102
RTVSPropertyOp21
 70
     1
102
RTVSPropertyOp22
 70
     1
102
RTVSPropertyOp23
 70
     1
102
RTVSPropertyOp24
 70
     1
102
RTVSPropertyOp25
 70
     1
102
RTVSPropertyOp26
 70
     1
102
RTVSPropertyOp27
 70
     1
102
RTVSPropertyOp28
 70
     1
102
RTVSPropertyOp29
 70
     1
102
RTVSPropertyOp30
 70
     1
102
RTVSPropertyOp31
 70
     1
102
RTVSPropertyOp32
 70
     1
  0
XRECORD
  5
E17
102
{ACAD_REACTORS
330
E16
102
}
330
E16
100
AcDbXrecord
280
     1
102
RTVSPropertyOp0
 70
     1
102
RTVSPropertyOp1
 70
     1
102
RTVSPropertyOp2
 70
     1
102
RTVSPropertyOp3
 70
     1
102
RTVSPropertyOp4
 70
     1
102
RTVSPropertyOp5
 70
     1
102
RTVSPropertyOp6
 70
     1
102
RTVSPropertyOp7
 70
     1
102
RTVSPropertyOp8
 70
     1
102
RTVSPropertyOp9
 70
     1
102
RTVSPropertyOp10
 70
     1
102
RTVSPropertyOp11
 70
     1
102
RTVSPropertyOp12
 70
     1
102
RTVSPropertyOp13
 70
     1
102
RTVSPropertyOp14
 70
     1
102
RTVSPropertyOp15
 70
     1
102
RTVSPropertyOp16
 70
     1
102
RTVSPropertyOp17
 70
     1
102
RTVSPropertyOp18
 70
     1
102
RTVSPropertyOp19
 70
     1
102
RTVSPropertyOp20
 70
     1
102
RTVSPropertyOp21
 70
     1
102
RTVSPropertyOp22
 70
     1
102
RTVSPropertyOp23
 70
     1
102
RTVSPropertyOp24
 70
     1
102
RTVSPropertyOp25
 70
     1
102
RTVSPropertyOp26
 70
     1
102
RTVSPropertyOp27
 70
     1
102
RTVSPropertyOp28
 70
     1
102
RTVSPropertyOp29
 70
     1
102
RTVSPropertyOp30
 70
     1
102
RTVSPropertyOp31
 70
     1
102
RTVSPropertyOp32
 70
     1
  0
XRECORD
  5
E15
102
{ACAD_REACTORS
330
E14
102
}
330
E14
100
AcDbXrecord
280
     1
102
RTVSPropertyOp0
 70
     1
102
RTVSPropertyOp1
 70
     1
102
RTVSPropertyOp2
 70
     1
102
RTVSPropertyOp3
 70
     1
102
RTVSPropertyOp4
 70
     1
102
RTVSPropertyOp5
 70
     1
102
RTVSPropertyOp6
 70
     1
102
RTVSPropertyOp7
 70
     1
102
RTVSPropertyOp8
 70
     1
102
RTVSPropertyOp9
 70
     1
102
RTVSPropertyOp10
 70
     1
102
RTVSPropertyOp11
 70
     1
102
RTVSPropertyOp12
 70
     1
102
RTVSPropertyOp13
 70
     1
102
RTVSPropertyOp14
 70
     1
102
RTVSPropertyOp15
 70
     1
102
RTVSPropertyOp16
 70
     1
102
RTVSPropertyOp17
 70
     1
102
RTVSPropertyOp18
 70
     1
102
RTVSPropertyOp19
 70
     1
102
RTVSPropertyOp20
 70
     1
102
RTVSPropertyOp21
 70
     1
102
RTVSPropertyOp22
 70
     1
102
RTVSPropertyOp23
 70
     1
102
RTVSPropertyOp24
 70
     1
102
RTVSPropertyOp25
 70
     1
102
RTVSPropertyOp26
 70
     1
102
RTVSPropertyOp27
 70
     1
102
RTVSPropertyOp28
 70
     1
102
RTVSPropertyOp29
 70
     1
102
RTVSPropertyOp30
 70
     1
102
RTVSPropertyOp31
 70
     1
102
RTVSPropertyOp32
 70
     1
  0
XRECORD
  5
E0F
102
{ACAD_REACTORS
330
E0E
102
}
330
E0E
100
AcDbXrecord
280
     1
102
RTVSPropertyOp0
 70
     1
102
RTVSPropertyOp1
 70
     1
102
RTVSPropertyOp2
 70
     1
102
RTVSPropertyOp3
 70
     1
102
RTVSPropertyOp4
 70
     1
102
RTVSPropertyOp5
 70
     1
102
RTVSPropertyOp6
 70
     1
102
RTVSPropertyOp7
 70
     1
102
RTVSPropertyOp8
 70
     1
102
RTVSPropertyOp9
 70
     1
102
RTVSPropertyOp10
 70
     1
102
RTVSPropertyOp11
 70
     1
102
RTVSPropertyOp12
 70
     1
102
RTVSPropertyOp13
 70
     1
102
RTVSPropertyOp14
 70
     1
102
RTVSPropertyOp15
 70
     1
102
RTVSPropertyOp16
 70
     1
102
RTVSPropertyOp17
 70
     1
102
RTVSPropertyOp18
 70
     1
102
RTVSPropertyOp19
 70
     1
102
RTVSPropertyOp20
 70
     1
102
RTVSPropertyOp21
 70
     1
102
RTVSPropertyOp22
 70
     1
102
RTVSPropertyOp23
 70
     1
102
RTVSPropertyOp24
 70
     1
102
RTVSPropertyOp25
 70
     1
102
RTVSPropertyOp26
 70
     1
102
RTVSPropertyOp27
 70
     1
102
RTVSPropertyOp28
 70
     1
102
RTVSPropertyOp29
 70
     1
102
RTVSPropertyOp30
 70
     1
102
RTVSPropertyOp31
 70
     1
102
RTVSPropertyOp32
 70
     1
  0
XRECORD
  5
E11
102
{ACAD_REACTORS
330
E10
102
}
330
E10
100
AcDbXrecord
280
     1
102
RTVSPropertyOp0
 70
     1
102
RTVSPropertyOp1
 70
     1
102
RTVSPropertyOp2
 70
     1
102
RTVSPropertyOp3
 70
     1
102
RTVSPropertyOp4
 70
     1
102
RTVSPropertyOp5
 70
     1
102
RTVSPropertyOp6
 70
     1
102
RTVSPropertyOp7
 70
     1
102
RTVSPropertyOp8
 70
     1
102
RTVSPropertyOp9
 70
     1
102
RTVSPropertyOp10
 70
     1
102
RTVSPropertyOp11
 70
     1
102
RTVSPropertyOp12
 70
     1
102
RTVSPropertyOp13
 70
     1
102
RTVSPropertyOp14
 70
     1
102
RTVSPropertyOp15
 70
     1
102
RTVSPropertyOp16
 70
     1
102
RTVSPropertyOp17
 70
     1
102
RTVSPropertyOp18
 70
     1
102
RTVSPropertyOp19
 70
     1
102
RTVSPropertyOp20
 70
     1
102
RTVSPropertyOp21
 70
     1
102
RTVSPropertyOp22
 70
     1
102
RTVSPropertyOp23
 70
     1
102
RTVSPropertyOp24
 70
     1
102
RTVSPropertyOp25
 70
     1
102
RTVSPropertyOp26
 70
     1
102
RTVSPropertyOp27
 70
     1
102
RTVSPropertyOp28
 70
     1
102
RTVSPropertyOp29
 70
     1
102
RTVSPropertyOp30
 70
     1
102
RTVSPropertyOp31
 70
     1
102
RTVSPropertyOp32
 70
     1
  0
XRECORD
  5
E07
102
{ACAD_REACTORS
330
E06
102
}
330
E06
100
AcDbXrecord
280
     1
102
RTVSPropertyOp0
 70
     1
102
RTVSPropertyOp1
 70
     1
102
RTVSPropertyOp2
 70
     1
102
RTVSPropertyOp3
 70
     1
102
RTVSPropertyOp4
 70
     1
102
RTVSPropertyOp5
 70
     1
102
RTVSPropertyOp6
 70
     1
102
RTVSPropertyOp7
 70
     1
102
RTVSPropertyOp8
 70
     1
102
RTVSPropertyOp9
 70
     1
102
RTVSPropertyOp10
 70
     1
102
RTVSPropertyOp11
 70
     1
102
RTVSPropertyOp12
 70
     1
102
RTVSPropertyOp13
 70
     1
102
RTVSPropertyOp14
 70
     1
102
RTVSPropertyOp15
 70
     1
102
RTVSPropertyOp16
 70
     1
102
RTVSPropertyOp17
 70
     1
102
RTVSPropertyOp18
 70
     1
102
RTVSPropertyOp19
 70
     1
102
RTVSPropertyOp20
 70
     1
102
RTVSPropertyOp21
 70
     1
102
RTVSPropertyOp22
 70
     1
102
RTVSPropertyOp23
 70
     1
102
RTVSPropertyOp24
 70
     1
102
RTVSPropertyOp25
 70
     1
102
RTVSPropertyOp26
 70
     1
102
RTVSPropertyOp27
 70
     1
102
RTVSPropertyOp28
 70
     1
102
RTVSPropertyOp29
 70
     1
102
RTVSPropertyOp30
 70
     1
102
RTVSPropertyOp31
 70
     1
102
RTVSPropertyOp32
 70
     1
  0
XRECORD
  5
DFB
102
{ACAD_REACTORS
330
DFA
102
}
330
DFA
100
AcDbXrecord
280
     1
102
RTVSPropertyOp0
 70
     1
102
RTVSPropertyOp1
 70
     1
102
RTVSPropertyOp2
 70
     1
102
RTVSPropertyOp3
 70
     1
102
RTVSPropertyOp4
 70
     1
102
RTVSPropertyOp5
 70
     1
102
RTVSPropertyOp6
 70
     1
102
RTVSPropertyOp7
 70
     1
102
RTVSPropertyOp8
 70
     1
102
RTVSPropertyOp9
 70
     1
102
RTVSPropertyOp10
 70
     1
102
RTVSPropertyOp11
 70
     1
102
RTVSPropertyOp12
 70
     1
102
RTVSPropertyOp13
 70
     1
102
RTVSPropertyOp14
 70
     1
102
RTVSPropertyOp15
 70
     1
102
RTVSPropertyOp16
 70
     1
102
RTVSPropertyOp17
 70
     1
102
RTVSPropertyOp18
 70
     1
102
RTVSPropertyOp19
 70
     1
102
RTVSPropertyOp20
 70
     1
102
RTVSPropertyOp21
 70
     1
102
RTVSPropertyOp22
 70
     1
102
RTVSPropertyOp23
 70
     1
102
RTVSPropertyOp24
 70
     1
102
RTVSPropertyOp25
 70
     1
102
RTVSPropertyOp26
 70
     1
102
RTVSPropertyOp27
 70
     1
102
RTVSPropertyOp28
 70
     1
102
RTVSPropertyOp29
 70
     1
102
RTVSPropertyOp30
 70
     1
102
RTVSPropertyOp31
 70
     1
102
RTVSPropertyOp32
 70
     1
  0
XRECORD
  5
E13
102
{ACAD_REACTORS
330
E12
102
}
330
E12
100
AcDbXrecord
280
     1
102
RTVSPropertyOp0
 70
     1
102
RTVSPropertyOp1
 70
     1
102
RTVSPropertyOp2
 70
     1
102
RTVSPropertyOp3
 70
     1
102
RTVSPropertyOp4
 70
     1
102
RTVSPropertyOp5
 70
     1
102
RTVSPropertyOp6
 70
     1
102
RTVSPropertyOp7
 70
     1
102
RTVSPropertyOp8
 70
     1
102
RTVSPropertyOp9
 70
     1
102
RTVSPropertyOp10
 70
     1
102
RTVSPropertyOp11
 70
     1
102
RTVSPropertyOp12
 70
     1
102
RTVSPropertyOp13
 70
     1
102
RTVSPropertyOp14
 70
     1
102
RTVSPropertyOp15
 70
     1
102
RTVSPropertyOp16
 70
     1
102
RTVSPropertyOp17
 70
     1
102
RTVSPropertyOp18
 70
     1
102
RTVSPropertyOp19
 70
     1
102
RTVSPropertyOp20
 70
     1
102
RTVSPropertyOp21
 70
     1
102
RTVSPropertyOp22
 70
     1
102
RTVSPropertyOp23
 70
     1
102
RTVSPropertyOp24
 70
     1
102
RTVSPropertyOp25
 70
     1
102
RTVSPropertyOp26
 70
     1
102
RTVSPropertyOp27
 70
     1
102
RTVSPropertyOp28
 70
     1
102
RTVSPropertyOp29
 70
     1
102
RTVSPropertyOp30
 70
     1
102
RTVSPropertyOp31
 70
     1
102
RTVSPropertyOp32
 70
     1
  0
ENDSEC
  0
EOF
