  0
SECTION
  2
HEADER
  9
$ACADVER
  1
AC1015
  9
$ACADMAINTVER
 70
    18
  9
$DWGCODEPAGE
  3
ANSI_1252
  9
$INSBASE
 10
0.0
 20
0.0
 30
0.0
  9
$EXTMIN
 10
0.0
 20
0.0
 30
0.0
  9
$EXTMAX
 10
56.66666666666667
 20
36.66666666666667
 30
0.0
  9
$LIMMIN
 10
0.0
 20
0.0
  9
$LIMMAX
 10
56.66666666666667
 20
36.66666666666667
  9
$ORTHOMODE
 70
     0
  9
$REGENMODE
 70
     1
  9
$FILLMODE
 70
     1
  9
$QTEXTMODE
 70
     0
  9
$MIRRTEXT
 70
     0
  9
$LTSCALE
 40
3.333333333333333
  9
$ATTMODE
 70
     1
  9
$TEXTSIZE
 40
0.2
  9
$TRACEWID
 40
0.05
  9
$TEXTSTYLE
  7
Standard
  9
$CLAYER
  8
0
  9
$CELTYPE
  6
ByLayer
  9
$CECOLOR
 62
   256
  9
$CELTSCALE
 40
1.0
  9
$DISPSILH
 70
     0
  9
$DIMSCALE
 40
1.0
  9
$DIMASZ
 40
0.0708661417322835
  9
$DIMEXO
 40
0.0625
  9
$DIMDLI
 40
0.38
  9
$DIMRND
 40
0.0
  9
$DIMDLE
 40
0.0
  9
$DIMEXE
 40
0.18
  9
$DIMTP
 40
0.0
  9
$DIMTM
 40
0.0
  9
$DIMTXT
 40
0.0708661417322835
  9
$DIMCEN
 40
0.09
  9
$DIMTSZ
 40
0.0
  9
$DIMTOL
 70
     0
  9
$DIMLIM
 70
     0
  9
$DIMTIH
 70
     1
  9
$DIMTOH
 70
     1
  9
$DIMSE1
 70
     0
  9
$DIMSE2
 70
     0
  9
$DIMTAD
 70
     0
  9
$DIMZIN
 70
     0
  9
$DIMBLK
  1

  9
$DIMASO
 70
     1
  9
$DIMSHO
 70
     1
  9
$DIMPOST
  1

  9
$DIMAPOST
  1

  9
$DIMALT
 70
     0
  9
$DIMALTD
 70
     2
  9
$DIMALTF
 40
25.4
  9
$DIMLFAC
 40
1.0
  9
$DIMTOFL
 70
     0
  9
$DIMTVP
 40
0.0
  9
$DIMTIX
 70
     0
  9
$DIMSOXD
 70
     0
  9
$DIMSAH
 70
     0
  9
$DIMBLK1
  1

  9
$DIMBLK2
  1

  9
$DIMSTYLE
  2
STANDARD
  9
$DIMCLRD
 70
     0
  9
$DIMCLRE
 70
     0
  9
$DIMCLRT
 70
     0
  9
$DIMTFAC
 40
1.0
  9
$DIMGAP
 40
0.09
  9
$DIMJUST
 70
     0
  9
$DIMSD1
 70
     0
  9
$DIMSD2
 70
     0
  9
$DIMTOLJ
 70
     1
  9
$DIMTZIN
 70
     0
  9
$DIMALTZ
 70
     0
  9
$DIMALTTZ
 70
     0
  9
$DIMUPT
 70
     0
  9
$DIMDEC
 70
     4
  9
$DIMTDEC
 70
     4
  9
$DIMALTU
 70
     2
  9
$DIMALTTD
 70
     2
  9
$DIMTXSTY
  7
Standard
  9
$DIMAUNIT
 70
     0
  9
$DIMADEC
 70
     0
  9
$DIMALTRND
 40
0.0
  9
$DIMAZIN
 70
     0
  9
$DIMDSEP
 70
    46
  9
$DIMATFIT
 70
     3
  9
$DIMFRAC
 70
     0
  9
$DIMLDRBLK
  1

  9
$DIMLUNIT
 70
     2
  9
$DIMLWD
 70
    -2
  9
$DIMLWE
 70
    -2
  9
$DIMTMOVE
 70
     0
  9
$LUNITS
 70
     2
  9
$LUPREC
 70
     4
  9
$SKETCHINC
 40
0.1
  9
$FILLETRAD
 40
0.0
  9
$AUNITS
 70
     0
  9
$AUPREC
 70
     0
  9
$MENU
  1
.
  9
$ELEVATION
 40
0.0
  9
$PELEVATION
 40
0.0
  9
$THICKNESS
 40
0.0
  9
$LIMCHECK
 70
     0
  9
$CHAMFERA
 40
0.0
  9
$CHAMFERB
 40
0.0
  9
$CHAMFERC
 40
0.0
  9
$CHAMFERD
 40
0.0
  9
$SKPOLY
 70
     0
  9
$TDCREATE
 40
2455944.597784294
  9
$TDUCREATE
 40
2455944.847784294
  9
$TDUPDATE
 40
2455944.597784294
  9
$TDUUPDATE
 40
2455944.847784294
  9
$TDINDWG
 40
0.0000334606
  9
$TDUSRTIMER
 40
0.0000334606
  9
$USRTIMER
 70
     1
  9
$ANGBASE
 50
0.0
  9
$ANGDIR
 70
     0
  9
$PDMODE
 70
     0
  9
$PDSIZE
 40
0.0
  9
$PLINEWID
 40
0.0
  9
$SPLFRAME
 70
     0
  9
$SPLINETYPE
 70
     6
  9
$SPLINESEGS
 70
     8
  9
$HANDSEED
  5
C8D
  9
$SURFTAB1
 70
     6
  9
$SURFTAB2
 70
     6
  9
$SURFTYPE
 70
     6
  9
$SURFU
 70
     6
  9
$SURFV
 70
     6
  9
$UCSBASE
  2

  9
$UCSNAME
  2

  9
$UCSORG
 10
0.0
 20
0.0
 30
0.0
  9
$UCSXDIR
 10
1.0
 20
0.0
 30
0.0
  9
$UCSYDIR
 10
0.0
 20
1.0
 30
0.0
  9
$UCSORTHOREF
  2

  9
$UCSORTHOVIEW
 70
     0
  9
$UCSORGTOP
 10
0.0
 20
0.0
 30
0.0
  9
$UCSORGBOTTOM
 10
0.0
 20
0.0
 30
0.0
  9
$UCSORGLEFT
 10
0.0
 20
0.0
 30
0.0
  9
$UCSORGRIGHT
 10
0.0
 20
0.0
 30
0.0
  9
$UCSORGFRONT
 10
0.0
 20
0.0
 30
0.0
  9
$UCSORGBACK
 10
0.0
 20
0.0
 30
0.0
  9
$PUCSBASE
  2

  9
$PUCSNAME
  2

  9
$PUCSORG
 10
0.0
 20
0.0
 30
0.0
  9
$PUCSXDIR
 10
1.0
 20
0.0
 30
0.0
  9
$PUCSYDIR
 10
0.0
 20
1.0
 30
0.0
  9
$PUCSORTHOREF
  2

  9
$PUCSORTHOVIEW
 70
     0
  9
$PUCSORGTOP
 10
0.0
 20
0.0
 30
0.0
  9
$PUCSORGBOTTOM
 10
0.0
 20
0.0
 30
0.0
  9
$PUCSORGLEFT
 10
0.0
 20
0.0
 30
0.0
  9
$PUCSORGRIGHT
 10
0.0
 20
0.0
 30
0.0
  9
$PUCSORGFRONT
 10
0.0
 20
0.0
 30
0.0
  9
$PUCSORGBACK
 10
0.0
 20
0.0
 30
0.0
  9
$USERI1
 70
     0
  9
$USERI2
 70
     0
  9
$USERI3
 70
     0
  9
$USERI4
 70
     0
  9
$USERI5
 70
     0
  9
$USERR1
 40
0.0
  9
$USERR2
 40
0.0
  9
$USERR3
 40
0.0
  9
$USERR4
 40
0.0
  9
$USERR5
 40
0.0
  9
$WORLDVIEW
 70
     1
  9
$SHADEDGE
 70
     3
  9
$SHADEDIF
 70
    70
  9
$TILEMODE
 70
     1
  9
$MAXACTVP
 70
    64
  9
$PINSBASE
 10
0.0
 20
0.0
 30
0.0
  9
$PLIMCHECK
 70
     0
  9
$PEXTMIN
 10
0.0
 20
0.0
 30
0.0
  9
$PEXTMAX
 10
56.66666666666667
 20
36.66666666666667
 30
0.0
  9
$PLIMMIN
 10
0.0
 20
0.0
  9
$PLIMMAX
 10
56.66666666666667
 20
36.66666666666667
  9
$UNITMODE
 70
     0
  9
$VISRETAIN
 70
     1
  9
$PLINEGEN
 70
     0
  9
$PSLTSCALE
 70
     1
  9
$TREEDEPTH
 70
  3020
  9
$CMLSTYLE
  2
Standard
  9
$CMLJUST
 70
     0
  9
$CMLSCALE
 40
1.0
  9
$PROXYGRAPHICS
 70
     1
  9
$MEASUREMENT
 70
     0
  9
$CELWEIGHT
370
    -1
  9
$ENDCAPS
280
     0
  9
$JOINSTYLE
280
     0
  9
$LWDISPLAY
290
     0
  9
$INSUNITS
 70
     1
  9
$HYPERLINKBASE
  1

  9
$STYLESHEET
  1

  9
$XEDIT
290
     1
  9
$CEPSNTYPE
380
     0
  9
$PSTYLEMODE
290
     1
  9
$FINGERPRINTGUID
  2
{11E42CDA-974E-4B14-8B47-B32BBEC47C1D}
  9
$VERSIONGUID
  2
{637269B1-D581-4A5D-8091-7253C96B7913}
  9
$EXTNAMES
290
     1
  9
$PSVPSCALE
 40
0.0
  9
$OLESTARTUP
290
     0
  0
ENDSEC
  0
SECTION
  2
CLASSES
  0
CLASS
  1
ACDBDICTIONARYWDFLT
  2
AcDbDictionaryWithDefault
  3
ObjectDBX Classes
 90
        0
280
     0
281
     0
  0
CLASS
  1
MATERIAL
  2
AcDbMaterial
  3
ObjectDBX Classes
 90
     1153
280
     0
281
     0
  0
CLASS
  1
VISUALSTYLE
  2
AcDbVisualStyle
  3
ObjectDBX Classes
 90
     4095
280
     0
281
     0
  0
CLASS
  1
SCALE
  2
AcDbScale
  3
ObjectDBX Classes
 90
     1153
280
     0
281
     0
  0
CLASS
  1
TABLESTYLE
  2
AcDbTableStyle
  3
ObjectDBX Classes
 90
     4095
280
     0
281
     0
  0
CLASS
  1
MLEADERSTYLE
  2
AcDbMLeaderStyle
  3
ACDB_MLEADERSTYLE_CLASS
 90
     4095
280
     0
281
     0
  0
CLASS
  1
DICTIONARYVAR
  2
AcDbDictionaryVar
  3
ObjectDBX Classes
 90
        0
280
     0
281
     0
  0
CLASS
  1
CELLSTYLEMAP
  2
AcDbCellStyleMap
  3
ObjectDBX Classes
 90
     1152
280
     0
281
     0
  0
CLASS
  1
ACDBPLACEHOLDER
  2
AcDbPlaceHolder
  3
ObjectDBX Classes
 90
        0
280
     0
281
     0
  0
CLASS
  1
LAYOUT
  2
AcDbLayout
  3
ObjectDBX Classes
 90
        0
280
     0
281
     0
  0
ENDSEC
  0
SECTION
  2
TABLES
  0
TABLE
  2
VPORT
  5
8
330
0
100
AcDbSymbolTable
 70
     1
  0
VPORT
  5
57
330
8
100
AcDbSymbolTableRecord
100
AcDbViewportTableRecord
  2
*Active
 70
     0
 10
0.0
 20
0.0
 11
1.0
 21
1.0
 12
28.33333333333334
 22
18.33333333333333
 13
0.0
 23
0.0
 14
1.0
 24
1.0
 15
0.0
 25
0.0
 16
0.0
 26
0.0
 36
1.0
 17
0.0
 27
0.0
 37
0.0
 40
36.66666666666667
 41
1.545454545454545
 42
50.0
 43
0.0
 44
0.0
 50
0.0
 51
0.0
 71
     0
 72
   100
 73
     1
 74
     1
 75
     0
 76
     0
 77
     0
 78
     0
281
     0
 65
     1
110
0.0
120
0.0
130
0.0
111
1.0
121
0.0
131
0.0
112
0.0
122
1.0
132
0.0
 79
     0
146
0.0
  0
ENDTAB
  0
TABLE
  2
LTYPE
  5
5
330
0
100
AcDbSymbolTable
 70
    59
  0
LTYPE
  5
5B
330
5
100
AcDbSymbolTableRecord
100
AcDbLinetypeTableRecord
  2
ByBlock
 70
     0
  3

 72
    65
 73
     0
 40
0.0
  0
LTYPE
  5
5C
330
5
100
AcDbSymbolTableRecord
100
AcDbLinetypeTableRecord
  2
ByLayer
 70
     0
  3

 72
    65
 73
     0
 40
0.0
  0
LTYPE
  5
5D
330
5
100
AcDbSymbolTableRecord
100
AcDbLinetypeTableRecord
  2
Continuous
 70
     0
  3
Solid line
 72
    65
 73
     0
 40
0.0
  0
LTYPE
  5
7C
330
5
100
AcDbSymbolTableRecord
100
AcDbLinetypeTableRecord
  2
BY_STANDARD
 70
     0
  3
By Standard ____________    ____    ____   _
 72
    65
 73
     6
 40
1.240299999999999
 49
0.6614
 74
     0
 49
-0.0827
 74
     0
 49
0.1654
 74
     0
 49
-0.0827
 74
     0
 49
0.1654
 74
     0
 49
-0.0827
 74
     0
  0
LTYPE
  5
7D
330
5
100
AcDbSymbolTableRecord
100
AcDbLinetypeTableRecord
  2
CHAIN
 70
     0
  3
Chain ____ _ ____ _ ____ _ ____ _ ____ _ ____
 72
    65
 73
     4
 40
0.7087
 49
0.4724000000000001
 74
     0
 49
-0.0591
 74
     0
 49
0.1181
 74
     0
 49
-0.0591
 74
     0
  0
LTYPE
  5
7E
330
5
100
AcDbSymbolTableRecord
100
AcDbLinetypeTableRecord
  2
DASH_DOT
 70
     0
  3
Dash dot __ . __ . __ . __ . __ . __ . __ . __
 72
    65
 73
     4
 40
0.37
 49
0.24
 74
     0
 49
-0.06
 74
     0
 49
0.01
 74
     0
 49
-0.06
 74
     0
  0
LTYPE
  5
7F
330
5
100
AcDbSymbolTableRecord
100
AcDbLinetypeTableRecord
  2
DOUBLE_DASH_DOT
 70
     0
  3
Double-Dash Dot __ __ . __ __ . __ __ . __ _
 72
    65
 73
     6
 40
0.4398
 49
0.24
 74
     0
 49
-0.06
 74
     0
 49
0.0098
 74
     0
 49
-0.06
 74
     0
 49
0.01
 74
     0
 49
-0.06
 74
     0
  0
LTYPE
  5
80
330
5
100
AcDbSymbolTableRecord
100
AcDbLinetypeTableRecord
  2
DASH_TRIPLE_DOT
 70
     0
  3
Dash Triple-Dot _ . . . _ . . . _ . . . _
 72
    65
 73
     8
 40
0.51
 49
0.24
 74
     0
 49
-0.06
 74
     0
 49
0.01
 74
     0
 49
-0.06
 74
     0
 49
0.01
 74
     0
 49
-0.06
 74
     0
 49
0.01
 74
     0
 49
-0.06
 74
     0
  0
LTYPE
  5
81
330
5
100
AcDbSymbolTableRecord
100
AcDbLinetypeTableRecord
  2
DASHED
 70
     0
  3
Dashed __ __ __ __ __ __ __ __ __ __ __ __ __ _
 72
    65
 73
     2
 40
0.2067
 49
0.1654
 74
     0
 49
-0.0413
 74
     0
  0
LTYPE
  5
82
330
5
100
AcDbSymbolTableRecord
100
AcDbLinetypeTableRecord
  2
DASH_DOUBLE_DOT
 70
     0
  3
Dash Double-Dot __ . . __ . . __ . . __ . .
 72
    65
 73
     6
 40
0.4398
 49
0.24
 74
     0
 49
-0.06
 74
     0
 49
0.0098
 74
     0
 49
-0.06
 74
     0
 49
0.01
 74
     0
 49
-0.06
 74
     0
  0
LTYPE
  5
83
330
5
100
AcDbSymbolTableRecord
100
AcDbLinetypeTableRecord
  2
DASHED_SPACE
 70
     0
  3
Dashed Space __ __ __ __ __ __ __ __ __ __ __ _
 72
    65
 73
     2
 40
0.2067
 49
0.1654
 74
     0
 49
-0.0413
 74
     0
  0
LTYPE
  5
84
330
5
100
AcDbSymbolTableRecord
100
AcDbLinetypeTableRecord
  2
DOTTED
 70
     0
  3
Dotted . . . . . . . . . . . . . . . . . . . . 
 72
    65
 73
     2
 40
0.0482
 49
0.0069
 74
     0
 49
-0.0413
 74
     0
  0
LTYPE
  5
85
330
5
100
AcDbSymbolTableRecord
100
AcDbLinetypeTableRecord
  2
DOUBLE_DASH_CHAIN
 70
     0
  3
Double-Dash Chain ______  __  __  ______  __  _
 72
    65
 73
     6
 40
1.240299999999999
 49
0.6614
 74
     0
 49
-0.0827
 74
     0
 49
0.1654
 74
     0
 49
-0.0827
 74
     0
 49
0.1654
 74
     0
 49
-0.0827
 74
     0
  0
LTYPE
  5
87
330
5
100
AcDbSymbolTableRecord
100
AcDbLinetypeTableRecord
  2
DOUBLE_DASH_DOUBLE_DOT
 70
     0
  3
Double-Dash Double-dot _ _ . . _ _ . . _
 72
    65
 73
     8
 40
0.7400000000000001
 49
0.24
 74
     0
 49
-0.06
 74
     0
 49
0.24
 74
     0
 49
-0.06
 74
     0
 49
0.01
 74
     0
 49
-0.06
 74
     0
 49
0.01
 74
     0
 49
-0.06
 74
     0
  0
LTYPE
  5
88
330
5
100
AcDbSymbolTableRecord
100
AcDbLinetypeTableRecord
  2
DOUBLE_DASH_TRIPLE_DOT
 70
     0
  3
Double Dash Triple Dot __ __ . . . __ __ . .
 72
    65
 73
    10
 40
0.8100000000000001
 49
0.24
 74
     0
 49
-0.06
 74
     0
 49
0.24
 74
     0
 49
-0.06
 74
     0
 49
0.01
 74
     0
 49
-0.06
 74
     0
 49
0.01
 74
     0
 49
-0.06
 74
     0
 49
0.01
 74
     0
 49
-0.06
 74
     0
  0
LTYPE
  5
89
330
5
100
AcDbSymbolTableRecord
100
AcDbLinetypeTableRecord
  2
LONG_DASH_DOTTED
 70
     0
  3
Long Dash Dotted ____ . ____ . ____ . ____ . _
 72
    65
 73
     4
 40
0.3543
 49
0.2362
 74
     0
 49
-0.0295
 74
     0
 49
0.0591
 74
     0
 49
-0.0295
 74
     0
  0
LTYPE
  5
8A
330
5
100
AcDbSymbolTableRecord
100
AcDbLinetypeTableRecord
  2
LONG_DASH_DOUBLE_DOT
 70
     0
  3
Long Dash Double Dot ________  .  .  ________  
 72
    65
 73
     6
 40
0.6799999999999999
 49
0.48
 74
     0
 49
-0.06
 74
     0
 49
0.01
 74
     0
 49
-0.06
 74
     0
 49
0.01
 74
     0
 49
-0.06
 74
     0
  0
LTYPE
  5
8B
330
5
100
AcDbSymbolTableRecord
100
AcDbLinetypeTableRecord
  2
LONG_DASH_TRIPLE_DOT
 70
     0
  3
Long Dash Triple Dot ____ ... ____ ... ____
 72
    65
 73
     8
 40
0.3689
 49
0.2362
 74
     0
 49
-0.0295
 74
     0
 49
0.0049
 74
     0
 49
-0.0295
 74
     0
 49
0.0049
 74
     0
 49
-0.0295
 74
     0
 49
0.0049
 74
     0
 49
-0.0295
 74
     0
  0
LTYPE
  5
8C
330
5
100
AcDbSymbolTableRecord
100
AcDbLinetypeTableRecord
  2
BORDER
 70
     0
  3
Border __ __ . __ __ . __ __ . __ __ . __ __ .
 72
    65
 73
     6
 40
1.75
 49
0.5
 74
     0
 49
-0.25
 74
     0
 49
0.5
 74
     0
 49
-0.25
 74
     0
 49
0.0
 74
     0
 49
-0.25
 74
     0
  0
LTYPE
  5
8D
330
5
100
AcDbSymbolTableRecord
100
AcDbLinetypeTableRecord
  2
BORDER2
 70
     0
  3
Border (.5x) __.__.__.__.__.__.__.__.__.__.__.
 72
    65
 73
     6
 40
0.875
 49
0.25
 74
     0
 49
-0.125
 74
     0
 49
0.25
 74
     0
 49
-0.125
 74
     0
 49
0.0
 74
     0
 49
-0.125
 74
     0
  0
LTYPE
  5
8E
330
5
100
AcDbSymbolTableRecord
100
AcDbLinetypeTableRecord
  2
BORDERX2
 70
     0
  3
Border (2x) ____  ____  .  ____  ____  .  ___
 72
    65
 73
     6
 40
3.5
 49
1.0
 74
     0
 49
-0.5
 74
     0
 49
1.0
 74
     0
 49
-0.5
 74
     0
 49
0.0
 74
     0
 49
-0.5
 74
     0
  0
LTYPE
  5
8F
330
5
100
AcDbSymbolTableRecord
100
AcDbLinetypeTableRecord
  2
CENTER
 70
     0
  3
Center ____ _ ____ _ ____ _ ____ _ ____ _ ____
 72
    65
 73
     4
 40
2.0
 49
1.25
 74
     0
 49
-0.25
 74
     0
 49
0.25
 74
     0
 49
-0.25
 74
     0
  0
LTYPE
  5
90
330
5
100
AcDbSymbolTableRecord
100
AcDbLinetypeTableRecord
  2
CENTER2
 70
     0
  3
Center (.5x) ___ _ ___ _ ___ _ ___ _ ___ _ ___
 72
    65
 73
     4
 40
1.125
 49
0.75
 74
     0
 49
-0.125
 74
     0
 49
0.125
 74
     0
 49
-0.125
 74
     0
  0
LTYPE
  5
91
330
5
100
AcDbSymbolTableRecord
100
AcDbLinetypeTableRecord
  2
CENTERX2
 70
     0
  3
Center (2x) ________  __  ________  __  _____
 72
    65
 73
     4
 40
4.0
 49
2.5
 74
     0
 49
-0.5
 74
     0
 49
0.5
 74
     0
 49
-0.5
 74
     0
  0
LTYPE
  5
92
330
5
100
AcDbSymbolTableRecord
100
AcDbLinetypeTableRecord
  2
DASHDOT2
 70
     0
  3
Dash dot (.5x) _._._._._._._._._._._._._._._.
 72
    65
 73
     4
 40
0.5
 49
0.25
 74
     0
 49
-0.125
 74
     0
 49
0.0
 74
     0
 49
-0.125
 74
     0
  0
LTYPE
  5
93
330
5
100
AcDbSymbolTableRecord
100
AcDbLinetypeTableRecord
  2
DASHDOTX2
 70
     0
  3
Dash dot (2x) ____  .  ____  .  ____  .  ___
 72
    65
 73
     4
 40
2.0
 49
1.0
 74
     0
 49
-0.5
 74
     0
 49
0.0
 74
     0
 49
-0.5
 74
     0
  0
LTYPE
  5
95
330
5
100
AcDbSymbolTableRecord
100
AcDbLinetypeTableRecord
  2
DASHED2
 70
     0
  3
Dashed (.5x) _ _ _ _ _ _ _ _ _ _ _ _ _ _ _ _ _
 72
    65
 73
     2
 40
0.375
 49
0.25
 74
     0
 49
-0.125
 74
     0
  0
LTYPE
  5
96
330
5
100
AcDbSymbolTableRecord
100
AcDbLinetypeTableRecord
  2
DASHEDX2
 70
     0
  3
Dashed (2x) ____  ____  ____  ____  ____  ___
 72
    65
 73
     2
 40
1.5
 49
1.0
 74
     0
 49
-0.5
 74
     0
  0
LTYPE
  5
97
330
5
100
AcDbSymbolTableRecord
100
AcDbLinetypeTableRecord
  2
DIVIDE
 70
     0
  3
Divide ____ . . ____ . . ____ . . ____ . . ____
 72
    65
 73
     6
 40
1.25
 49
0.5
 74
     0
 49
-0.25
 74
     0
 49
0.0
 74
     0
 49
-0.25
 74
     0
 49
0.0
 74
     0
 49
-0.25
 74
     0
  0
LTYPE
  5
98
330
5
100
AcDbSymbolTableRecord
100
AcDbLinetypeTableRecord
  2
DIVIDE2
 70
     0
  3
Divide (.5x) __..__..__..__..__..__..__..__.._
 72
    65
 73
     6
 40
0.625
 49
0.25
 74
     0
 49
-0.125
 74
     0
 49
0.0
 74
     0
 49
-0.125
 74
     0
 49
0.0
 74
     0
 49
-0.125
 74
     0
  0
LTYPE
  5
99
330
5
100
AcDbSymbolTableRecord
100
AcDbLinetypeTableRecord
  2
DIVIDEX2
 70
     0
  3
Divide (2x) ________  .  .  ________  .  .  _
 72
    65
 73
     6
 40
2.5
 49
1.0
 74
     0
 49
-0.5
 74
     0
 49
0.0
 74
     0
 49
-0.5
 74
     0
 49
0.0
 74
     0
 49
-0.5
 74
     0
  0
LTYPE
  5
9A
330
5
100
AcDbSymbolTableRecord
100
AcDbLinetypeTableRecord
  2
DOT
 70
     0
  3
Dot . . . . . . . . . . . . . . . . . . . . . .
 72
    65
 73
     2
 40
0.25
 49
0.0
 74
     0
 49
-0.25
 74
     0
  0
LTYPE
  5
9B
330
5
100
AcDbSymbolTableRecord
100
AcDbLinetypeTableRecord
  2
DOT2
 70
     0
  3
Dot (.5x) .....................................
 72
    65
 73
     2
 40
0.125
 49
0.0
 74
     0
 49
-0.125
 74
     0
  0
LTYPE
  5
9C
330
5
100
AcDbSymbolTableRecord
100
AcDbLinetypeTableRecord
  2
DOTX2
 70
     0
  3
Dot (2x) .  .  .  .  .  .  .  .  .  .  .  .  . 
 72
    65
 73
     2
 40
0.5
 49
0.0
 74
     0
 49
-0.5
 74
     0
  0
LTYPE
  5
9D
330
5
100
AcDbSymbolTableRecord
100
AcDbLinetypeTableRecord
  2
HIDDEN
 70
     0
  3
Hidden __ __ __ __ __ __ __ __ __ __ __ __ __ _
 72
    65
 73
     2
 40
0.375
 49
0.25
 74
     0
 49
-0.125
 74
     0
  0
LTYPE
  5
9E
330
5
100
AcDbSymbolTableRecord
100
AcDbLinetypeTableRecord
  2
HIDDEN2
 70
     0
  3
Hidden (.5x) _ _ _ _ _ _ _ _ _ _ _ _ _ _ _ _ _
 72
    65
 73
     2
 40
0.1875
 49
0.125
 74
     0
 49
-0.0625
 74
     0
  0
LTYPE
  5
9F
330
5
100
AcDbSymbolTableRecord
100
AcDbLinetypeTableRecord
  2
HIDDENX2
 70
     0
  3
Hidden (2x) ____ ____ ____ ____ ____ ____ ____
 72
    65
 73
     2
 40
0.75
 49
0.5
 74
     0
 49
-0.25
 74
     0
  0
LTYPE
  5
A0
330
5
100
AcDbSymbolTableRecord
100
AcDbLinetypeTableRecord
  2
PHANTOM
 70
     0
  3
Phantom ______  __  __  ______  __  __  ______
 72
    65
 73
     6
 40
2.5
 49
1.25
 74
     0
 49
-0.25
 74
     0
 49
0.25
 74
     0
 49
-0.25
 74
     0
 49
0.25
 74
     0
 49
-0.25
 74
     0
  0
LTYPE
  5
A1
330
5
100
AcDbSymbolTableRecord
100
AcDbLinetypeTableRecord
  2
PHANTOM2
 70
     0
  3
Phantom (.5x) ___ _ _ ___ _ _ ___ _ _ ___ _ _
 72
    65
 73
     6
 40
1.25
 49
0.625
 74
     0
 49
-0.125
 74
     0
 49
0.125
 74
     0
 49
-0.125
 74
     0
 49
0.125
 74
     0
 49
-0.125
 74
     0
  0
LTYPE
  5
A2
330
5
100
AcDbSymbolTableRecord
100
AcDbLinetypeTableRecord
  2
PHANTOMX2
 70
     0
  3
Phantom (2x) ____________    ____    ____   _
 72
    65
 73
     6
 40
5.0
 49
2.5
 74
     0
 49
-0.5
 74
     0
 49
0.5
 74
     0
 49
-0.5
 74
     0
 49
0.5
 74
     0
 49
-0.5
 74
     0
  0
LTYPE
  5
A3
330
5
100
AcDbSymbolTableRecord
100
AcDbLinetypeTableRecord
  2
ACAD_ISO02W100
 70
     0
  3
ISO dash __ __ __ __ __ __ __ __ __ __ __ __ __
 72
    65
 73
     2
 40
0.59
 49
0.47
 74
     0
 49
-0.12
 74
     0
  0
LTYPE
  5
A4
330
5
100
AcDbSymbolTableRecord
100
AcDbLinetypeTableRecord
  2
ACAD_ISO03W100
 70
     0
  3
ISO dash space __    __    __    __    __    __
 72
    65
 73
     2
 40
1.179999999999999
 49
0.47
 74
     0
 49
-0.71
 74
     0
  0
LTYPE
  5
A5
330
5
100
AcDbSymbolTableRecord
100
AcDbLinetypeTableRecord
  2
ACAD_ISO04W100
 70
     0
  3
ISO long-dash dot ____ . ____ . ____ . ____ . _
 72
    65
 73
     4
 40
1.179999999999999
 49
0.9399999999999998
 74
     0
 49
-0.12
 74
     0
 49
0.0
 74
     0
 49
-0.12
 74
     0
  0
LTYPE
  5
A6
330
5
100
AcDbSymbolTableRecord
100
AcDbLinetypeTableRecord
  2
ACAD_ISO05W100
 70
     0
  3
ISO long-dash double-dot ____ .. ____ .. ____ .
 72
    65
 73
     6
 40
1.299999999999999
 49
0.9399999999999998
 74
     0
 49
-0.12
 74
     0
 49
0.0
 74
     0
 49
-0.12
 74
     0
 49
0.0
 74
     0
 49
-0.12
 74
     0
  0
LTYPE
  5
A7
330
5
100
AcDbSymbolTableRecord
100
AcDbLinetypeTableRecord
  2
ACAD_ISO06W100
 70
     0
  3
ISO long-dash triple-dot ____ ... ____ ... ____
 72
    65
 73
     8
 40
1.419999999999999
 49
0.9399999999999998
 74
     0
 49
-0.12
 74
     0
 49
0.0
 74
     0
 49
-0.12
 74
     0
 49
0.0
 74
     0
 49
-0.12
 74
     0
 49
0.0
 74
     0
 49
-0.12
 74
     0
  0
LTYPE
  5
A8
330
5
100
AcDbSymbolTableRecord
100
AcDbLinetypeTableRecord
  2
ACAD_ISO07W100
 70
     0
  3
ISO dot . . . . . . . . . . . . . . . . . . . .
 72
    65
 73
     2
 40
0.12
 49
0.0
 74
     0
 49
-0.12
 74
     0
  0
LTYPE
  5
A9
330
5
100
AcDbSymbolTableRecord
100
AcDbLinetypeTableRecord
  2
ACAD_ISO08W100
 70
     0
  3
ISO long-dash short-dash ____ __ ____ __ ____ _
 72
    65
 73
     4
 40
0.95
 49
0.47
 74
     0
 49
-0.12
 74
     0
 49
0.24
 74
     0
 49
-0.12
 74
     0
  0
LTYPE
  5
AA
330
5
100
AcDbSymbolTableRecord
100
AcDbLinetypeTableRecord
  2
ACAD_ISO09W100
 70
     0
  3
ISO long-dash double-short-dash ____ __ __ ____
 72
    65
 73
     6
 40
1.31
 49
0.47
 74
     0
 49
-0.12
 74
     0
 49
0.24
 74
     0
 49
-0.12
 74
     0
 49
0.24
 74
     0
 49
-0.12
 74
     0
  0
LTYPE
  5
AB
330
5
100
AcDbSymbolTableRecord
100
AcDbLinetypeTableRecord
  2
ACAD_ISO10W100
 70
     0
  3
ISO dash dot __ . __ . __ . __ . __ . __ . __ .
 72
    65
 73
     4
 40
0.71
 49
0.47
 74
     0
 49
-0.12
 74
     0
 49
0.0
 74
     0
 49
-0.12
 74
     0
  0
LTYPE
  5
AC
330
5
100
AcDbSymbolTableRecord
100
AcDbLinetypeTableRecord
  2
ACAD_ISO11W100
 70
     0
  3
ISO double-dash dot __ __ . __ __ . __ __ . __ 
 72
    65
 73
     6
 40
1.299999999999999
 49
0.47
 74
     0
 49
-0.12
 74
     0
 49
0.47
 74
     0
 49
-0.12
 74
     0
 49
0.0
 74
     0
 49
-0.12
 74
     0
  0
LTYPE
  5
AD
330
5
100
AcDbSymbolTableRecord
100
AcDbLinetypeTableRecord
  2
ACAD_ISO12W100
 70
     0
  3
ISO dash double-dot __ . . __ . . __ . . __ . .
 72
    65
 73
     6
 40
0.8299999999999998
 49
0.47
 74
     0
 49
-0.12
 74
     0
 49
0.0
 74
     0
 49
-0.12
 74
     0
 49
0.0
 74
     0
 49
-0.12
 74
     0
  0
LTYPE
  5
AE
330
5
100
AcDbSymbolTableRecord
100
AcDbLinetypeTableRecord
  2
ACAD_ISO13W100
 70
     0
  3
ISO double-dash double-dot __ __ . . __ __ . . 
 72
    65
 73
     8
 40
1.419999999999999
 49
0.47
 74
     0
 49
-0.12
 74
     0
 49
0.47
 74
     0
 49
-0.12
 74
     0
 49
0.0
 74
     0
 49
-0.12
 74
     0
 49
0.0
 74
     0
 49
-0.12
 74
     0
  0
LTYPE
  5
AF
330
5
100
AcDbSymbolTableRecord
100
AcDbLinetypeTableRecord
  2
ACAD_ISO14W100
 70
     0
  3
ISO dash triple-dot __ . . . __ . . . __ . . . 
 72
    65
 73
     8
 40
0.95
 49
0.47
 74
     0
 49
-0.12
 74
     0
 49
0.0
 74
     0
 49
-0.12
 74
     0
 49
0.0
 74
     0
 49
-0.12
 74
     0
 49
0.0
 74
     0
 49
-0.12
 74
     0
  0
LTYPE
  5
B0
330
5
100
AcDbSymbolTableRecord
100
AcDbLinetypeTableRecord
  2
ACAD_ISO15W100
 70
     0
  3
ISO double-dash triple-dot __ __ . . . __ __ . 
 72
    65
 73
    10
 40
1.539999999999999
 49
0.47
 74
     0
 49
-0.12
 74
     0
 49
0.47
 74
     0
 49
-0.12
 74
     0
 49
0.0
 74
     0
 49
-0.12
 74
     0
 49
0.0
 74
     0
 49
-0.12
 74
     0
 49
0.0
 74
     0
 49
-0.12
 74
     0
  0
LTYPE
  5
B3
330
5
100
AcDbSymbolTableRecord
100
AcDbLinetypeTableRecord
  2
FENCELINE1
 70
     0
  3
Fenceline circle ----0-----0----0-----0----0---
 72
    65
 73
     4
 40
1.45
 49
0.25
 74
     0
 49
-0.1
 74
     4
 75
   133
340
B2
 46
0.1
 50
0.0
 44
-0.1
 45
0.0
 49
-0.1
 74
     0
 49
1.0
 74
     0
  0
LTYPE
  5
B4
330
5
100
AcDbSymbolTableRecord
100
AcDbLinetypeTableRecord
  2
FENCELINE2
 70
     0
  3
Fenceline square ----[]-----[]----[]-----[]----
 72
    65
 73
     4
 40
1.45
 49
0.25
 74
     0
 49
-0.1
 74
     4
 75
   132
340
B2
 46
0.1
 50
0.0
 44
-0.1
 45
0.0
 49
-0.1
 74
     0
 49
1.0
 74
     0
  0
LTYPE
  5
B5
330
5
100
AcDbSymbolTableRecord
100
AcDbLinetypeTableRecord
  2
TRACKS
 70
     0
  3
Tracks -|-|-|-|-|-|-|-|-|-|-|-|-|-|-|-|-|-|-|-|
 72
    65
 73
     2
 40
0.3
 49
0.15
 74
     4
 75
   130
340
B2
 46
0.25
 50
0.0
 44
0.0
 45
0.0
 49
0.15
 74
     0
  0
LTYPE
  5
B6
330
5
100
AcDbSymbolTableRecord
100
AcDbLinetypeTableRecord
  2
BATTING
 70
     0
  3
Batting SSSSSSSSSSSSSSSSSSSSSSSSSSSSSSSSSSSSSSS
 72
    65
 73
     4
 40
0.4001000000000001
 49
0.0001
 74
     0
 49
-0.1
 74
     4
 75
   134
340
B2
 46
0.1
 50
0.0
 44
-0.1
 45
0.0
 49
-0.2
 74
     4
 75
   134
340
B2
 46
0.1
 50
180.0
 44
0.1
 45
0.0
 49
-0.1
 74
     0
  0
LTYPE
  5
B7
330
5
100
AcDbSymbolTableRecord
100
AcDbLinetypeTableRecord
  2
HOT_WATER_SUPPLY
 70
     0
  3
Hot water supply ---- HW ---- HW ---- HW ----
 72
    65
 73
     3
 40
0.9
 49
0.5
 74
     0
 49
-0.2
 74
     2
 75
     0
340
55
 46
0.1
 50
0.0
 44
-0.1
 45
-0.05
  9
HW
 49
-0.2
 74
     0
  0
LTYPE
  5
B8
330
5
100
AcDbSymbolTableRecord
100
AcDbLinetypeTableRecord
  2
GAS_LINE
 70
     0
  3
Gas line ----GAS----GAS----GAS----GAS----GAS---
 72
    65
 73
     3
 40
0.95
 49
0.5
 74
     0
 49
-0.2
 74
     2
 75
     0
340
55
 46
0.1
 50
0.0
 44
-0.1
 45
-0.05
  9
GAS
 49
-0.25
 74
     0
  0
LTYPE
  5
B9
330
5
100
AcDbSymbolTableRecord
100
AcDbLinetypeTableRecord
  2
ZIGZAG
 70
     0
  3
Zig zag /\/\/\/\/\/\/\/\/\/\/\/\/\/\/\/\/\/\/\/
 72
    65
 73
     4
 40
0.8001000000000001
 49
0.0001
 74
     0
 49
-0.2
 74
     4
 75
   131
340
B2
 46
0.2
 50
0.0
 44
-0.2
 45
0.0
 49
-0.4
 74
     4
 75
   131
340
B2
 46
0.2
 50
180.0
 44
0.2
 45
0.0
 49
-0.2
 74
     0
  0
ENDTAB
  0
TABLE
  2
LAYER
  5
2
330
0
100
AcDbSymbolTable
 70
    27
  0
LAYER
  5
54
330
2
100
AcDbSymbolTableRecord
100
AcDbLayerTableRecord
  2
0
 70
     0
 62
     7
  6
Continuous
370
    18
390
F
  0
LAYER
  5
C3
330
2
100
AcDbSymbolTableRecord
100
AcDbLayerTableRecord
  2
Dimension (ANSI)
 70
     0
 62
     7
  6
Continuous
370
    13
390
F
  0
LAYER
  5
C5
330
2
100
AcDbSymbolTableRecord
100
AcDbLayerTableRecord
  2
Hidden (ANSI)
 70
     0
 62
     7
  6
DASHED
370
    15
390
F
  0
LAYER
  5
CC
330
2
100
AcDbSymbolTableRecord
100
AcDbLayerTableRecord
  2
Symbol (ANSI)
 70
     0
 62
     7
  6
Continuous
370
    18
390
F
  0
LAYER
  5
CF
330
2
100
AcDbSymbolTableRecord
100
AcDbLayerTableRecord
  2
Visible (ANSI)
 70
     0
 62
     7
  6
Continuous
370
    13
390
F
  0
LAYER
  5
160
330
2
100
AcDbSymbolTableRecord
100
AcDbLayerTableRecord
  2
Defpoints
 70
     0
 62
     7
  6
Continuous
290
     0
370
    -3
390
F
  0
ENDTAB
  0
TABLE
  2
STYLE
  5
3
330
0
100
AcDbSymbolTable
 70
    17
  0
STYLE
  5
55
330
3
100
AcDbSymbolTableRecord
100
AcDbTextStyleTableRecord
  2
Standard
 70
     0
 40
0.0
 41
1.0
 50
0.0
 71
     0
 42
0.2
  3
txt
  4

  0
STYLE
  5
5A
330
3
100
AcDbSymbolTableRecord
100
AcDbTextStyleTableRecord
  2
Annotative
 70
     0
 40
0.0
 41
1.0
 50
0.0
 71
     0
 42
0.2
  3
txt
  4

1001
AcadAnnotative
1000
AnnotativeData
1002
{
1070
     1
1070
     1
1002
}
  0
STYLE
  5
B2
330
3
100
AcDbSymbolTableRecord
100
AcDbTextStyleTableRecord
  2

 70
     1
 40
0.0
 41
1.0
 50
0.0
 71
     0
 42
0.2
  3
ltypeshp.shx
  4

  0
STYLE
  5
D4
330
3
100
AcDbSymbolTableRecord
100
AcDbTextStyleTableRecord
  2
ITALICC_120
 70
     0
 40
0.0
 41
1.0
 50
0.0
 71
     0
 42
0.2
  3
italicc.shx
  4

  0
STYLE
  5
D5
330
3
100
AcDbSymbolTableRecord
100
AcDbTextStyleTableRecord
  2
Label Text (ANSI)
 70
     0
 40
0.0
 41
1.0
 50
0.0
 71
     0
 42
0.2
  3
RomanS.shx
  4

  0
STYLE
  5
D6
330
3
100
AcDbSymbolTableRecord
100
AcDbTextStyleTableRecord
  2
Note Text (ANSI)
 70
     0
 40
0.0
 41
1.0
 50
0.0
 71
     0
 42
0.2
  3
RomanS.shx
  4

  0
STYLE
  5
D7
330
3
100
AcDbSymbolTableRecord
100
AcDbTextStyleTableRecord
  2
ROMANS
 70
     0
 40
0.0
 41
1.0
 50
0.0
 71
     0
 42
0.2
  3
romans.shx
  4

  0
STYLE
  5
D8
330
3
100
AcDbSymbolTableRecord
100
AcDbTextStyleTableRecord
  2
SANSSERIF_114
 70
     0
 40
0.0
 41
1.0
 50
0.0
 71
     0
 42
0.2
  3
TAHOMA.TTF
  4

1001
ACAD
1000
Tahoma
1071
      256
  0
STYLE
  5
D9
330
3
100
AcDbSymbolTableRecord
100
AcDbTextStyleTableRecord
  2
SANSSERIF_117
 70
     0
 40
0.0
 41
1.0
 50
0.0
 71
     0
 42
0.2
  3
TAHOMA.TTF
  4

1001
ACAD
1000
Tahoma
1071
      256
  0
STYLE
  5
DA
330
3
100
AcDbSymbolTableRecord
100
AcDbTextStyleTableRecord
  2
STANDARDAM_ANSI
 70
     0
 40
0.0
 41
1.0
 50
0.0
 71
     0
 42
0.2
  3
txt.shx
  4

  0
STYLE
  5
DB
330
3
100
AcDbSymbolTableRecord
100
AcDbTextStyleTableRecord
  2
StandardAM_ANSI$0
 70
     0
 40
0.0
 41
1.0
 50
0.0
 71
     0
 42
0.2
  3
txt.shx
  4

  0
STYLE
  5
DC
330
3
100
AcDbSymbolTableRecord
100
AcDbTextStyleTableRecord
  2
STANDARDAM_ANSI$3
 70
     0
 40
0.0
 41
1.0
 50
0.0
 71
     0
 42
0.2
  3
txt.shx
  4

  0
STYLE
  5
DD
330
3
100
AcDbSymbolTableRecord
100
AcDbTextStyleTableRecord
  2
STANDARDAM_ANSI$4
 70
     0
 40
0.0
 41
1.0
 50
0.0
 71
     0
 42
0.2
  3
txt.shx
  4

  0
STYLE
  5
DE
330
3
100
AcDbSymbolTableRecord
100
AcDbTextStyleTableRecord
  2
STANDARDAM_ANSI$7
 70
     0
 40
0.0
 41
1.0
 50
0.0
 71
     0
 42
0.2
  3
txt.shx
  4

  0
STYLE
  5
DF
330
3
100
AcDbSymbolTableRecord
100
AcDbTextStyleTableRecord
  2
STANDARDAM_ANSI$SF
 70
     0
 40
0.0
 41
1.0
 50
0.0
 71
     0
 42
0.2
  3
txt.shx
  4

  0
STYLE
  5
E0
330
3
100
AcDbSymbolTableRecord
100
AcDbTextStyleTableRecord
  2
STANDARDAM_ANSI$SH
 70
     0
 40
0.0
 41
1.0
 50
0.0
 71
     0
 42
0.2
  3
txt.shx
  4

  0
STYLE
  5
E1
330
3
100
AcDbSymbolTableRecord
100
AcDbTextStyleTableRecord
  2
STANDARDSTANDARD
 70
     0
 40
0.0
 41
1.0
 50
0.0
 71
     0
 42
0.2
  3
txt.shx
  4

  0
ENDTAB
  0
TABLE
  2
VIEW
  5
6
330
0
100
AcDbSymbolTable
 70
     0
  0
ENDTAB
  0
TABLE
  2
UCS
  5
7
330
0
100
AcDbSymbolTable
 70
     0
  0
ENDTAB
  0
TABLE
  2
APPID
  5
9
330
0
100
AcDbSymbolTable
 70
     4
  0
APPID
  5
56
330
9
100
AcDbSymbolTableRecord
100
AcDbRegAppTableRecord
  2
ACAD
 70
     0
  0
APPID
  5
5E
330
9
100
AcDbSymbolTableRecord
100
AcDbRegAppTableRecord
  2
AcadAnnotative
 70
     0
  0
APPID
  5
3CE
330
9
100
AcDbSymbolTableRecord
100
AcDbRegAppTableRecord
  2
ACAD_DSTYLE_DIMRADIAL_EXTENSION
 70
     0
  0
APPID
  5
C82
330
9
100
AcDbSymbolTableRecord
100
AcDbRegAppTableRecord
  2
ACAD_MLEADERVER
 70
     0
  0
ENDTAB
  0
TABLE
  2
DIMSTYLE
  5
A
330
0
100
AcDbSymbolTable
 70
    27
100
AcDbDimStyleTable
 71
     2
340
F6
340
58
  0
DIMSTYLE
105
58
330
A
100
AcDbSymbolTableRecord
100
AcDbDimStyleTableRecord
  2
STANDARD
 70
     0
 41
0.1800000071525573
 42
0.0625
140
0.1800000071525574
144
1.0
147
0.0900000035762787
176
   256
177
   256
178
   256
274
     3
340
55
371
    -1
372
    -1
  0
DIMSTYLE
105
59
330
A
100
AcDbSymbolTableRecord
100
AcDbDimStyleTableRecord
  2
Annotative
 70
     0
340
55
1001
AcadAnnotative
1000
AnnotativeData
1002
{
1070
     1
1070
     1
1002
}
  0
DIMSTYLE
105
E2
330
A
100
AcDbSymbolTableRecord
100
AcDbDimStyleTableRecord
  2
AM_ANSI
 70
     0
  4
 mm
 40
3.333333333333333
 41
0.119999997317791
 42
0.05
 43
0.5
 44
0.1
 45
0.00000001
 78
     4
 79
     2
140
0.1200000047683716
146
0.7099999453624112
147
0.0599999986588955
176
   256
177
   256
178
     2
284
     4
340
DA
371
    -1
372
    -1
  0
DIMSTYLE
105
E3
330
A
100
AcDbSymbolTableRecord
100
AcDbDimStyleTableRecord
  2
AM_ANSI$7
 70
     0
  4
 mm
 40
3.333333333333333
 41
0.119999997317791
 42
0.05
 43
0.5
 44
0.1
 45
0.00000001
 78
     4
 79
     2
140
0.1200000047683716
146
0.7099999453624112
147
0.0599999986588955
176
   256
177
   256
178
     2
284
     4
340
DA
371
    -1
372
    -1
  0
DIMSTYLE
105
E4
330
A
100
AcDbSymbolTableRecord
100
AcDbDimStyleTableRecord
  2
AM_ANSI$0
 70
     0
  4
 mm
 40
3.333333333333333
 41
0.119999997317791
 42
0.05
 43
0.5
 44
0.1
 45
0.00000001
 78
     4
 79
     2
140
0.1200000047683716
146
0.7099999453624112
147
0.0599999986588955
176
   256
177
   256
178
     2
284
     4
340
DB
371
    -1
372
    -1
  0
DIMSTYLE
105
E5
330
A
100
AcDbSymbolTableRecord
100
AcDbDimStyleTableRecord
  2
AM_ANSI$0$7
 70
     0
  4
 mm
 40
3.333333333333333
 41
0.119999997317791
 42
0.05
 43
0.5
 44
0.1
 45
0.00000001
 78
     4
 79
     2
140
0.1200000047683716
146
0.7099999453624112
147
0.0599999986588955
176
   256
177
   256
178
     2
284
     4
340
DB
371
    -1
372
    -1
  0
DIMSTYLE
105
E6
330
A
100
AcDbSymbolTableRecord
100
AcDbDimStyleTableRecord
  2
AM_ANSI$3
 70
     0
  4
 mm
 40
3.333333333333333
 41
0.119999997317791
 42
0.05
 43
0.5
 44
0.1
 45
0.00000001
 78
     4
 79
     2
140
0.1200000047683716
146
0.7099999453624112
147
0.0599999986588955
176
   256
177
   256
178
     2
284
     4
340
DC
371
    -1
372
    -1
  0
DIMSTYLE
105
E7
330
A
100
AcDbSymbolTableRecord
100
AcDbDimStyleTableRecord
  2
AM_ANSI$3$7
 70
     0
  4
 mm
 40
3.333333333333333
 41
0.119999997317791
 42
0.05
 43
0.5
 44
0.1
 45
0.00000001
 78
     4
 79
     2
140
0.1200000047683716
146
0.7099999453624112
147
0.0599999986588955
176
   256
177
   256
178
     2
284
     4
340
DC
371
    -1
372
    -1
  0
DIMSTYLE
105
E8
330
A
100
AcDbSymbolTableRecord
100
AcDbDimStyleTableRecord
  2
AM_ANSI$4
 70
     0
  4
 mm
 40
3.333333333333333
 41
0.119999997317791
 42
0.05
 43
0.5
 44
0.1
 45
0.00000001
 78
     4
 79
     2
140
0.1200000047683716
146
0.7099999453624112
147
0.0599999986588955
176
   256
177
   256
178
     2
284
     4
340
DD
371
    -1
372
    -1
  0
DIMSTYLE
105
E9
330
A
100
AcDbSymbolTableRecord
100
AcDbDimStyleTableRecord
  2
AM_ANSI$4$7
 70
     0
  4
 mm
 40
3.333333333333333
 41
0.119999997317791
 42
0.05
 43
0.5
 44
0.1
 45
0.00000001
 78
     4
 79
     2
140
0.1200000047683716
146
0.7099999453624112
147
0.0599999986588955
176
   256
177
   256
178
     2
284
     4
340
DD
371
    -1
372
    -1
  0
DIMSTYLE
105
EA
330
A
100
AcDbSymbolTableRecord
100
AcDbDimStyleTableRecord
  2
AM_ANSI$SF
 70
     0
  4
 mm
 40
3.333333333333333
 41
0.119999997317791
 42
0.05
 43
0.5
 44
0.1
 45
0.00000001
 75
     1
 76
     1
 78
     4
 79
     2
140
0.1200000047683716
146
0.7099999453624112
147
0.0599999986588955
176
   256
177
   256
178
     2
284
     4
340
DF
371
    -1
372
    -1
  0
DIMSTYLE
105
EB
330
A
100
AcDbSymbolTableRecord
100
AcDbDimStyleTableRecord
  2
AM_ANSI$SF$7
 70
     0
  4
 mm
 40
3.333333333333333
 41
0.119999997317791
 42
0.05
 43
0.5
 44
0.1
 45
0.00000001
 75
     1
 76
     1
 78
     4
 79
     2
140
0.1200000047683716
146
0.7099999453624112
147
0.0599999986588955
176
   256
177
   256
178
     2
284
     4
340
DF
371
    -1
372
    -1
  0
DIMSTYLE
105
EC
330
A
100
AcDbSymbolTableRecord
100
AcDbDimStyleTableRecord
  2
AM_ANSI$SH
 70
     0
  4
 mm
 40
3.333333333333333
 41
0.119999997317791
 42
0.05
 43
0.5
 44
0.1
 45
0.00000001
 75
     1
 76
     1
 78
     4
 79
     2
140
0.1200000047683716
146
0.7099999453624112
147
0.0599999986588955
176
   256
177
   256
178
     2
284
     4
340
E0
371
    -1
372
    -1
  0
DIMSTYLE
105
ED
330
A
100
AcDbSymbolTableRecord
100
AcDbDimStyleTableRecord
  2
AM_ANSI$SH$7
 70
     0
  4
 mm
 40
3.333333333333333
 41
0.119999997317791
 42
0.05
 43
0.5
 44
0.1
 45
0.00000001
 75
     1
 76
     1
 78
     4
 79
     2
140
0.1200000047683716
146
0.7099999453624112
147
0.0599999986588955
176
   256
177
   256
178
     2
284
     4
340
E0
371
    -1
372
    -1
  0
DIMSTYLE
105
EE
330
A
100
AcDbSymbolTableRecord
100
AcDbDimStyleTableRecord
  2
Architectural (ANSI)
 70
     0
 40
3.333333333333333
 41
0.0984251946210861
 43
0.2362204724409449
 44
0.125
 45
0.00000001
 46
0.3937007874015748
 78
     3
 79
     3
140
0.1200000047683716
147
0.031496062992126
171
     1
176
   256
177
   256
178
   256
272
     2
274
     1
276
     2
277
     4
284
    12
285
     4
286
    12
340
D6
371
    -1
372
    -1
  0
DIMSTYLE
105
EF
330
A
100
AcDbSymbolTableRecord
100
AcDbDimStyleTableRecord
  2
Architectural (ANSI)$7
 70
     0
 40
3.333333333333333
 41
0.0984251946210861
 43
0.2362204724409449
 44
0.125
 45
0.00000001
 46
0.3937007874015748
 78
     3
 79
     3
140
0.1200000047683716
147
0.031496062992126
171
     1
176
   256
177
   256
178
   256
272
     2
274
     1
276
     2
277
     4
284
    12
285
     4
286
    12
340
D6
371
    -1
372
    -1
  0
DIMSTYLE
105
F0
330
A
100
AcDbSymbolTableRecord
100
AcDbDimStyleTableRecord
  2
Default - Fraction (ANSI)
 70
     0
 40
3.333333333333333
 41
0.0984251946210861
 43
0.2362204724409449
 44
0.125
 45
0.00000001
 46
0.3937007874015748
 79
     3
140
0.1200000047683716
147
0.031496062992126
171
     1
176
   256
177
   256
178
   256
272
     2
274
     1
276
     2
277
     5
284
    12
285
     4
286
    12
340
D6
371
    -1
372
    -1
  0
DIMSTYLE
105
F1
330
A
100
AcDbSymbolTableRecord
100
AcDbDimStyleTableRecord
  2
Default - Fraction (ANSI)$7
 70
     0
 40
3.333333333333333
 41
0.0984251946210861
 43
0.2362204724409449
 44
0.125
 45
0.00000001
 46
0.3937007874015748
 79
     3
140
0.1200000047683716
147
0.031496062992126
171
     1
176
   256
177
   256
178
   256
272
     2
274
     1
276
     2
277
     5
284
    12
285
     4
286
    12
340
D6
371
    -1
372
    -1
  0
DIMSTYLE
105
F2
330
A
100
AcDbSymbolTableRecord
100
AcDbDimStyleTableRecord
  2
Default - mm (ANSI)
 70
     0
 40
3.333333333333333
 41
0.0984251946210861
 42
0.063
 43
0.2362204724409449
 44
0.125
 45
0.00000001
 46
0.3937007874015748
 73
     0
 78
     4
 79
     1
140
0.1200000047683716
143
1.0
144
25.4
147
0.031496062992126
171
     1
176
   256
177
   256
178
   256
179
     1
271
     2
272
     2
274
     1
284
     4
285
     4
340
D6
371
    -1
372
    -1
  0
DIMSTYLE
105
F3
330
A
100
AcDbSymbolTableRecord
100
AcDbDimStyleTableRecord
  2
Default - mm (ANSI)$7
 70
     0
 40
3.333333333333333
 41
0.0984251946210861
 42
0.063
 43
0.2362204724409449
 44
0.125
 45
0.00000001
 46
0.3937007874015748
 73
     0
 78
     4
 79
     1
140
0.1200000047683716
143
1.0
144
25.4
147
0.031496062992126
171
     1
176
   256
177
   256
178
   256
179
     1
271
     2
272
     2
274
     1
284
     4
285
     4
340
D6
371
    -1
372
    -1
  0
DIMSTYLE
105
F4
330
A
100
AcDbSymbolTableRecord
100
AcDbDimStyleTableRecord
  2
Default - mm [in] (ANSI)
 70
     0
  4
 in
 40
3.333333333333333
 41
0.0984251946210861
 42
0.063
 43
0.25
 44
0.125
 45
0.00000001
 46
0.3937007874015748
 73
     0
 78
     4
 79
     1
140
0.1200000047683716
143
0.03937
144
25.4
147
0.031496062992126
170
     1
171
     3
176
   256
177
   256
178
   256
179
     1
271
     2
272
     2
274
     3
284
     4
285
     4
286
     4
340
D6
371
    -1
372
    -1
  0
DIMSTYLE
105
F5
330
A
100
AcDbSymbolTableRecord
100
AcDbDimStyleTableRecord
  2
Default - mm [in] (ANSI)$7
 70
     0
  4
 in
 40
3.333333333333333
 41
0.0984251946210861
 42
0.063
 43
0.25
 44
0.125
 45
0.00000001
 46
0.3937007874015748
 73
     0
 78
     4
 79
     1
140
0.1200000047683716
143
0.03937
144
25.4
147
0.031496062992126
170
     1
171
     3
176
   256
177
   256
178
   256
179
     1
271
     2
272
     2
274
     3
284
     4
285
     4
286
     4
340
D6
371
    -1
372
    -1
  0
DIMSTYLE
105
F6
102
{ACAD_REACTORS
330
15E
330
24B
330
335
330
3EF
330
4A8
330
597
330
681
330
780
330
86A
330
968
330
A52
330
B3C
102
}
330
A
100
AcDbSymbolTableRecord
100
AcDbDimStyleTableRecord
  2
Default (ANSI)
 70
     0
 40
3.333333333333333
 41
0.0984251946210861
 43
0.2362204724409449
 44
0.125
 45
0.00000001
 46
0.3937007874015748
 79
     1
140
0.1200000047683716
147
0.031496062992126
171
     1
176
   256
177
   256
178
   256
271
     3
272
     2
274
     1
284
     4
285
     4
340
D6
371
    -1
372
    -1
  0
DIMSTYLE
105
F7
330
A
100
AcDbSymbolTableRecord
100
AcDbDimStyleTableRecord
  2
Default (ANSI)$7
 70
     0
 40
3.333333333333333
 41
0.0984251946210861
 43
0.2362204724409449
 44
0.125
 45
0.00000001
 46
0.3937007874015748
 79
     1
140
0.1200000047683716
147
0.031496062992126
171
     1
176
   256
177
   256
178
   256
271
     3
272
     2
274
     1
284
     4
285
     4
340
D6
371
    -1
372
    -1
  0
DIMSTYLE
105
F8
330
A
100
AcDbSymbolTableRecord
100
AcDbDimStyleTableRecord
  2
Alternate (ANSI)
 70
     0
 40
3.333333333333333
 41
0.0979999974370003
340
55
342
F9
  0
DIMSTYLE
105
10B
330
A
100
AcDbSymbolTableRecord
100
AcDbDimStyleTableRecord
  2
Datum (ANSI)
 70
     0
 40
3.333333333333333
 41
0.0979999974370003
340
55
342
F9
  0
DIMSTYLE
105
11A
330
A
100
AcDbSymbolTableRecord
100
AcDbDimStyleTableRecord
  2
Large (ANSI)
 70
     0
 40
3.333333333333333
 41
0.1959999948740005
340
55
342
F9
  0
ENDTAB
  0
TABLE
  2
BLOCK_RECORD
  5
1
330
0
100
AcDbSymbolTable
 70
    16
  0
BLOCK_RECORD
  5
6C
330
1
100
AcDbSymbolTableRecord
100
AcDbBlockTableRecord
  2
*Model_Space
340
6F
  0
BLOCK_RECORD
  5
68
330
1
100
AcDbSymbolTableRecord
100
AcDbBlockTableRecord
  2
*Paper_Space
340
6B
  0
BLOCK_RECORD
  5
70
330
1
100
AcDbSymbolTableRecord
100
AcDbBlockTableRecord
  2
*Paper_Space0
340
73
  0
BLOCK_RECORD
  5
F9
330
1
100
AcDbSymbolTableRecord
100
AcDbBlockTableRecord
  2
_Closed
340
0
  0
BLOCK_RECORD
  5
100
330
1
100
AcDbSymbolTableRecord
100
AcDbBlockTableRecord
  2
DatumFilled45
340
0
  0
BLOCK_RECORD
  5
10C
330
1
100
AcDbSymbolTableRecord
100
AcDbBlockTableRecord
  2
Filled-1
340
0
  0
BLOCK_RECORD
  5
161
330
1
100
AcDbSymbolTableRecord
100
AcDbBlockTableRecord
  2
*D4
340
0
  0
BLOCK_RECORD
  5
24C
330
1
100
AcDbSymbolTableRecord
100
AcDbBlockTableRecord
  2
*D5
340
0
  0
BLOCK_RECORD
  5
336
330
1
100
AcDbSymbolTableRecord
100
AcDbBlockTableRecord
  2
*D6
340
0
  0
BLOCK_RECORD
  5
3F0
330
1
100
AcDbSymbolTableRecord
100
AcDbBlockTableRecord
  2
*D7
340
0
  0
BLOCK_RECORD
  5
4A9
330
1
100
AcDbSymbolTableRecord
100
AcDbBlockTableRecord
  2
*D8
340
0
  0
BLOCK_RECORD
  5
598
330
1
100
AcDbSymbolTableRecord
100
AcDbBlockTableRecord
  2
*D9
340
0
  0
BLOCK_RECORD
  5
682
330
1
100
AcDbSymbolTableRecord
100
AcDbBlockTableRecord
  2
*D10
340
0
  0
BLOCK_RECORD
  5
781
330
1
100
AcDbSymbolTableRecord
100
AcDbBlockTableRecord
  2
*D11
340
0
  0
BLOCK_RECORD
  5
86B
330
1
100
AcDbSymbolTableRecord
100
AcDbBlockTableRecord
  2
*D12
340
0
  0
BLOCK_RECORD
  5
969
330
1
100
AcDbSymbolTableRecord
100
AcDbBlockTableRecord
  2
*D13
340
0
  0
BLOCK_RECORD
  5
A53
330
1
100
AcDbSymbolTableRecord
100
AcDbBlockTableRecord
  2
*D14
340
0
  0
BLOCK_RECORD
  5
B3D
330
1
100
AcDbSymbolTableRecord
100
AcDbBlockTableRecord
  2
*D15
340
0
  0
ENDTAB
  0
ENDSEC
  0
SECTION
  2
BLOCKS
  0
BLOCK
  5
6D
330
6C
100
AcDbEntity
  8
0
100
AcDbBlockBegin
  2
*Model_Space
 70
     0
 10
0.0
 20
0.0
 30
0.0
  3
*Model_Space
  1

  0
ENDBLK
  5
6E
330
6C
100
AcDbEntity
  8
0
100
AcDbBlockEnd
  0
BLOCK
  5
69
330
68
100
AcDbEntity
 67
     1
  8
0
100
AcDbBlockBegin
  2
*Paper_Space
 70
     0
 10
0.0
 20
0.0
 30
0.0
  3
*Paper_Space
  1

  0
ENDBLK
  5
6A
330
68
100
AcDbEntity
 67
     1
  8
0
100
AcDbBlockEnd
  0
BLOCK
  5
71
330
70
100
AcDbEntity
 67
     1
  8
0
100
AcDbBlockBegin
  2
*Paper_Space0
 70
     0
 10
0.0
 20
0.0
 30
0.0
  3
*Paper_Space0
  1

  0
ENDBLK
  5
72
330
70
100
AcDbEntity
 67
     1
  8
0
100
AcDbBlockEnd
  0
BLOCK
  5
FE
330
F9
100
AcDbEntity
  8
0
100
AcDbBlockBegin
  2
_Closed
 70
     0
 10
0.0
 20
0.0
 30
0.0
  3
_Closed
  1

  0
LINE
  5
FA
330
F9
100
AcDbEntity
  8
0
  6
ByBlock
 62
     0
370
    -2
100
AcDbLine
 10
-1.0
 20
0.1666666666666666
 30
0.0
 11
0.0
 21
0.0
 31
0.0
  0
LINE
  5
FB
330
F9
100
AcDbEntity
  8
0
  6
ByBlock
 62
     0
370
    -2
100
AcDbLine
 10
0.0
 20
0.0
 30
0.0
 11
-1.0
 21
-0.1666666666666666
 31
0.0
  0
LINE
  5
FC
330
F9
100
AcDbEntity
  8
0
  6
ByBlock
 62
     0
370
    -2
100
AcDbLine
 10
-1.0
 20
0.1666666666666666
 30
0.0
 11
-1.0
 21
-0.1666666666666666
 31
0.0
  0
LINE
  5
FD
330
F9
100
AcDbEntity
  8
0
  6
ByBlock
 62
     0
370
    -2
100
AcDbLine
 10
0.0
 20
0.0
 30
0.0
 11
-1.0
 21
0.0
 31
0.0
  0
ENDBLK
  5
FF
330
F9
100
AcDbEntity
  8
0
100
AcDbBlockEnd
  0
BLOCK
  5
101
330
100
100
AcDbEntity
  8
0
100
AcDbBlockBegin
  2
DatumFilled45
 70
     0
 10
0.0
 20
0.0
 30
0.0
  3
DatumFilled45
  1

  0
POLYLINE
  5
103
330
100
100
AcDbEntity
  8
0
 62
     0
100
AcDb2dPolyline
 66
     1
 10
0.0
 20
0.0
 30
0.0
 70
   128
  0
VERTEX
  5
104
330
103
100
AcDbEntity
  8
0
 62
     0
100
AcDbVertex
100
AcDb2dVertex
 10
0.0
 20
0.9999999999999998
 30
0.0
  0
VERTEX
  5
105
330
103
100
AcDbEntity
  8
0
 62
     0
100
AcDbVertex
100
AcDb2dVertex
 10
0.0
 20
-0.9999999999999998
 30
0.0
  0
VERTEX
  5
107
330
103
100
AcDbEntity
  8
0
 62
     0
100
AcDbVertex
100
AcDb2dVertex
 10
-0.9999999999999998
 20
0.0
 30
0.0
  0
VERTEX
  5
108
330
103
100
AcDbEntity
  8
0
 62
     0
100
AcDbVertex
100
AcDb2dVertex
 10
0.0
 20
0.9999999999999998
 30
0.0
  0
SEQEND
  5
106
330
103
100
AcDbEntity
  8
0
 62
     0
  0
SOLID
  5
10A
330
100
100
AcDbEntity
  8
0
 62
     0
100
AcDbTrace
 10
0.0
 20
0.9999999999999998
 30
0.0
 11
0.0
 21
-0.9999999999999998
 31
0.0
 12
-0.9999999999999998
 22
0.0
 32
0.0
 13
0.0
 23
0.9999999999999998
 33
0.0
  0
ENDBLK
  5
102
330
100
100
AcDbEntity
  8
0
100
AcDbBlockEnd
  0
BLOCK
  5
10D
330
10C
100
AcDbEntity
  8
0
100
AcDbBlockBegin
  2
Filled-1
 70
     0
 10
0.0
 20
0.0
 30
0.0
  3
Filled-1
  1

  0
LINE
  5
10F
330
10C
100
AcDbEntity
  8
0
 62
     0
100
AcDbLine
 10
-0.9999999999999998
 20
0.0
 30
0.0
 11
0.0
 21
0.0
 31
0.0
  0
POLYLINE
  5
110
330
10C
100
AcDbEntity
  8
0
 62
     0
100
AcDb2dPolyline
 66
     1
 10
0.0
 20
0.0
 30
0.0
 70
   128
  0
VERTEX
  5
111
330
110
100
AcDbEntity
  8
0
 62
     0
100
AcDbVertex
100
AcDb2dVertex
 10
-0.9999999999999998
 20
-0.0994897959183674
 30
0.0
  0
VERTEX
  5
112
330
110
100
AcDbEntity
  8
0
 62
     0
100
AcDbVertex
100
AcDb2dVertex
 10
0.0
 20
0.0
 30
0.0
  0
VERTEX
  5
114
330
110
100
AcDbEntity
  8
0
 62
     0
100
AcDbVertex
100
AcDb2dVertex
 10
-0.9999999999999998
 20
0.0994897959183674
 30
0.0
  0
VERTEX
  5
115
330
110
100
AcDbEntity
  8
0
 62
     0
100
AcDbVertex
100
AcDb2dVertex
 10
-0.9999999999999998
 20
-0.0994897959183674
 30
0.0
  0
SEQEND
  5
113
330
110
100
AcDbEntity
  8
0
 62
     0
  0
SOLID
  5
116
330
10C
100
AcDbEntity
  8
0
 62
     0
100
AcDbTrace
 10
-0.9999999999999998
 20
-0.0994897959183674
 30
0.0
 11
0.0
 21
0.0
 31
0.0
 12
-0.9999999999999998
 22
0.0994897959183674
 32
0.0
 13
-0.9999999999999998
 23
-0.0994897959183674
 33
0.0
  0
LINE
  5
117
330
10C
100
AcDbEntity
  8
0
 62
     0
100
AcDbLine
 10
-0.9999999999999998
 20
-0.0994897959183674
 30
0.0
 11
0.0
 21
0.0
 31
0.0
  0
LINE
  5
118
330
10C
100
AcDbEntity
  8
0
 62
     0
100
AcDbLine
 10
0.0
 20
0.0
 30
0.0
 11
-0.9999999999999998
 21
0.0994897959183674
 31
0.0
  0
LINE
  5
119
330
10C
100
AcDbEntity
  8
0
 62
     0
100
AcDbLine
 10
-0.9999999999999998
 20
0.0994897959183674
 30
0.0
 11
-0.9999999999999998
 21
-0.0994897959183674
 31
0.0
  0
ENDBLK
  5
10E
330
10C
100
AcDbEntity
  8
0
100
AcDbBlockEnd
  0
BLOCK
  5
162
330
161
100
AcDbEntity
  8
0
100
AcDbBlockBegin
  2
*D4
 70
     1
 10
0.0
 20
0.0
 30
0.0
  3
*D4
  1

  0
LINE
  5
241
330
161
100
AcDbEntity
  8
Dimension (ANSI)
100
AcDbLine
 10
24.37585973442777
 20
25.76725795393942
 30
0.0
 11
24.37585973442777
 21
30.3850401061704
 31
0.0
  0
LINE
  5
242
330
161
100
AcDbEntity
  8
Dimension (ANSI)
100
AcDbLine
 10
14.17585973442777
 20
25.76725795393942
 30
0.0
 11
14.17585973442777
 21
30.3850401061704
 31
0.0
  0
LINE
  5
243
330
161
100
AcDbEntity
  8
Dimension (ANSI)
100
AcDbLine
 10
24.04777575235748
 20
29.96837343950373
 30
0.0
 11
20.34275141119561
 21
29.96837343950373
 31
0.0
  0
LINE
  5
244
330
161
100
AcDbEntity
  8
Dimension (ANSI)
100
AcDbLine
 10
14.50394371649806
 20
29.96837343950373
 30
0.0
 11
18.20896805765992
 21
29.96837343950373
 31
0.0
  0
SOLID
  5
245
330
161
100
AcDbEntity
  8
Dimension (ANSI)
100
AcDbTrace
 10
24.04777575235748
 20
30.02305410318211
 30
0.0
 11
24.04777575235748
 21
29.91369277582535
 31
0.0
 12
24.37585973442777
 22
29.96837343950373
 32
0.0
 13
24.37585973442777
 23
29.96837343950373
 33
0.0
  0
SOLID
  5
246
330
161
100
AcDbEntity
  8
Dimension (ANSI)
100
AcDbTrace
 10
14.50394371649806
 20
30.02305410318211
 30
0.0
 11
14.50394371649806
 21
29.91369277582535
 31
0.0
 12
14.17585973442777
 22
29.96837343950373
 32
0.0
 13
14.17585973442777
 23
29.96837343950373
 33
0.0
  0
MTEXT
  5
247
330
161
100
AcDbEntity
  8
Dimension (ANSI)
100
AcDbMText
 10
18.31395493430034
 20
30.16837344745102
 30
0.0
 40
0.400000015894572
 41
0.0
 71
     1
 72
     1
  1
\A1;10.200
  7
Note Text (ANSI)
 73
     1
 44
1.0
1001
ACAD
1000
MTEXTBEGIN
1070
    73
1070
     1
1070
    44
1040
1.0
1070
    74
1070
     0
1000
MTEXTEND
  0
POINT
  5
248
330
161
100
AcDbEntity
  8
Defpoints
 62
     0
100
AcDbPoint
 10
24.37585973442777
 20
25.55892462060609
 30
0.0
  0
POINT
  5
249
330
161
100
AcDbEntity
  8
Defpoints
 62
     0
100
AcDbPoint
 10
14.17585973442777
 20
25.55892462060609
 30
0.0
  0
POINT
  5
24A
330
161
100
AcDbEntity
  8
Defpoints
 62
     0
100
AcDbPoint
 10
14.17585973442777
 20
29.96837343950373
 30
0.0
  0
ENDBLK
  5
163
330
161
100
AcDbEntity
  8
0
100
AcDbBlockEnd
  0
BLOCK
  5
24D
330
24C
100
AcDbEntity
  8
0
100
AcDbBlockBegin
  2
*D5
 70
     1
 10
0.0
 20
0.0
 30
0.0
  3
*D5
  1

  0
LINE
  5
32B
330
24C
100
AcDbEntity
  8
Dimension (ANSI)
100
AcDbLine
 10
14.46752640109443
 20
26.05892462060609
 30
0.0
 11
8.38393014344041
 21
26.05892462060609
 31
0.0
  0
LINE
  5
32C
330
24C
100
AcDbEntity
  8
Dimension (ANSI)
100
AcDbLine
 10
14.46752640109444
 20
11.85892462060609
 30
0.0
 11
8.383930143440407
 21
11.85892462060609
 31
0.0
  0
LINE
  5
32D
330
24C
100
AcDbEntity
  8
Dimension (ANSI)
100
AcDbLine
 10
8.800596810107077
 20
25.7308406385358
 30
0.0
 11
8.800596810107077
 21
20.38373080486716
 31
0.0
  0
LINE
  5
32E
330
24C
100
AcDbEntity
  8
Dimension (ANSI)
100
AcDbLine
 10
8.800596810107075
 20
12.18700860267637
 30
0.0
 11
8.800596810107075
 21
19.77375703569175
 31
0.0
  0
SOLID
  5
32F
330
24C
100
AcDbEntity
  8
Dimension (ANSI)
100
AcDbTrace
 10
8.745916146428696
 20
25.7308406385358
 30
0.0
 11
8.855277473785458
 21
25.7308406385358
 31
0.0
 12
8.800596810107077
 22
26.05892462060609
 32
0.0
 13
8.800596810107077
 23
26.05892462060609
 33
0.0
  0
SOLID
  5
330
330
24C
100
AcDbEntity
  8
Dimension (ANSI)
100
AcDbTrace
 10
8.745916146428694
 20
12.18700860267637
 30
0.0
 11
8.855277473785456
 21
12.18700860267637
 31
0.0
 12
8.800596810107073
 22
11.85892462060609
 32
0.0
 13
8.800596810107073
 23
11.85892462060609
 33
0.0
  0
MTEXT
  5
331
330
24C
100
AcDbEntity
  8
Dimension (ANSI)
100
AcDbMText
 10
7.83869200997965
 20
20.27874392822675
 30
0.0
 40
0.400000015894572
 41
0.0
 71
     1
 72
     1
  1
\A1;14.200
  7
Note Text (ANSI)
 73
     1
 44
1.0
1001
ACAD
1000
MTEXTBEGIN
1070
    73
1070
     1
1070
    44
1040
1.0
1070
    74
1070
     0
1000
MTEXTEND
  0
POINT
  5
332
330
24C
100
AcDbEntity
  8
Defpoints
 62
     0
100
AcDbPoint
 10
14.67585973442776
 20
26.05892462060609
 30
0.0
  0
POINT
  5
333
330
24C
100
AcDbEntity
  8
Defpoints
 62
     0
100
AcDbPoint
 10
14.67585973442777
 20
11.85892462060609
 30
0.0
  0
POINT
  5
334
330
24C
100
AcDbEntity
  8
Defpoints
 62
     0
100
AcDbPoint
 10
8.800596810107073
 20
11.85892462060609
 30
0.0
  0
ENDBLK
  5
24E
330
24C
100
AcDbEntity
  8
0
100
AcDbBlockEnd
  0
BLOCK
  5
337
330
336
100
AcDbEntity
  8
0
100
AcDbBlockBegin
  2
*D6
 70
     1
 10
0.0
 20
0.0
 30
0.0
  3
*D6
  1

  0
LINE
  5
3E7
330
336
100
AcDbEntity
  8
Dimension (ANSI)
100
AcDbLine
 10
16.05421463297561
 20
7.366384607175748
 30
0.0
 11
15.58025366193001
 21
7.366384607175747
 31
0.0
  0
LINE
  5
3E8
330
336
100
AcDbEntity
  8
Dimension (ANSI)
100
AcDbLine
 10
15.58025366193001
 20
7.366384607175747
 30
0.0
 11
14.79630331229161
 21
11.80963367742136
 31
0.0
  0
MTEXT
  5
3E9
102
{ACAD_XDICTIONARY
360
C89
102
}
330
336
100
AcDbEntity
  8
Dimension (ANSI)
100
AcDbMText
 10
16.15920150961603
 20
7.685432238901181
 30
0.0
 40
0.400000015894572
 41
0.0
 71
     1
 72
     1
  1
\A1;\U+22050.500{\PTYP.(4PL.)}
  7
Note Text (ANSI)
 73
     1
 44
1.0
1001
ACAD
1000
MTEXTBEGIN
1070
    73
1070
     1
1070
    44
1040
1.0
1070
    74
1070
     0
1000
MTEXTEND
  0
SOLID
  5
3EA
330
336
100
AcDbEntity
  8
Dimension (ANSI)
100
AcDbTrace
 10
14.85015224698783
 20
11.81913458329347
 30
0.0
 11
14.74245437759539
 21
11.80013277154925
 31
0.0
 12
14.73929787705894
 22
12.13272728559867
 32
0.0
 13
14.73929787705894
 23
12.13272728559867
 33
0.0
  0
LINE
  5
3EB
330
336
100
AcDbEntity
  8
Dimension (ANSI)
100
AcDbLine
 10
14.39585973442778
 20
12.37892462060609
 30
0.0
 11
14.99585973442777
 21
12.37892462060609
 31
0.0
  0
LINE
  5
3EC
330
336
100
AcDbEntity
  8
Dimension (ANSI)
100
AcDbLine
 10
14.69585973442777
 20
12.07892462060609
 30
0.0
 11
14.69585973442778
 21
12.67892462060609
 31
0.0
  0
POINT
  5
3ED
330
336
100
AcDbEntity
  8
Defpoints
 62
     0
100
AcDbPoint
 10
14.73929787705894
 20
12.13272728559867
 30
0.0
  0
POINT
  5
3EE
330
336
100
AcDbEntity
  8
Defpoints
 62
     0
100
AcDbPoint
 10
14.65242159179661
 20
12.6251219556135
 30
0.0
  0
ENDBLK
  5
338
330
336
100
AcDbEntity
  8
0
100
AcDbBlockEnd
  0
BLOCK
  5
3F1
330
3F0
100
AcDbEntity
  8
0
100
AcDbBlockBegin
  2
*D7
 70
     1
 10
0.0
 20
0.0
 30
0.0
  3
*D7
  1

  0
LINE
  5
4A0
330
3F0
100
AcDbEntity
  8
Dimension (ANSI)
100
AcDbLine
 10
16.06832323794947
 20
9.775667518679433
 30
0.0
 11
15.59436226690402
 21
9.775667518679432
 31
0.0
  0
LINE
  5
4A1
330
3F0
100
AcDbEntity
  8
Dimension (ANSI)
100
AcDbLine
 10
15.59436226690402
 20
9.775667518679432
 30
0.0
 11
14.82121459317804
 21
12.66109391877498
 31
0.0
  0
MTEXT
  5
4A2
102
{ACAD_XDICTIONARY
360
C8B
102
}
330
3F0
100
AcDbEntity
  8
Dimension (ANSI)
100
AcDbMText
 10
16.17331011458988
 20
10.09471515040486
 30
0.0
 40
0.400000015894572
 41
0.0
 71
     1
 72
     1
  1
\A1;\U+22050.313{\PTYP.(4PL.)}
  7
Note Text (ANSI)
 73
     1
 44
1.0
1001
ACAD
1000
MTEXTBEGIN
1070
    73
1070
     1
1070
    44
1040
1.0
1070
    74
1070
     0
1000
MTEXTEND
  0
SOLID
  5
4A3
330
3F0
100
AcDbEntity
  8
Dimension (ANSI)
100
AcDbTrace
 10
14.87403205842361
 20
12.67524631593381
 30
0.0
 11
14.76839712793246
 21
12.64694152161616
 31
0.0
 12
14.73630021022507
 22
12.97799871024841
 32
0.0
 13
14.73630021022507
 23
12.97799871024841
 33
0.0
  0
LINE
  5
4A4
330
3F0
100
AcDbEntity
  8
Dimension (ANSI)
100
AcDbLine
 10
14.39585973442776
 20
13.12892462060607
 30
0.0
 11
14.99585973442776
 21
13.12892462060607
 31
0.0
  0
LINE
  5
4A5
330
3F0
100
AcDbEntity
  8
Dimension (ANSI)
100
AcDbLine
 10
14.69585973442776
 20
12.82892462060607
 30
0.0
 11
14.69585973442776
 21
13.42892462060607
 31
0.0
  0
POINT
  5
4A6
330
3F0
100
AcDbEntity
  8
Defpoints
 62
     0
100
AcDbPoint
 10
14.73630021022507
 20
12.97799871024841
 30
0.0
  0
POINT
  5
4A7
330
3F0
100
AcDbEntity
  8
Defpoints
 62
     0
100
AcDbPoint
 10
14.65541925863044
 20
13.27985053096373
 30
0.0
  0
ENDBLK
  5
3F2
330
3F0
100
AcDbEntity
  8
0
100
AcDbBlockEnd
  0
BLOCK
  5
4AA
330
4A9
100
AcDbEntity
  8
0
100
AcDbBlockBegin
  2
*D8
 70
     1
 10
0.0
 20
0.0
 30
0.0
  3
*D8
  1

  0
LINE
  5
58F
330
4A9
100
AcDbEntity
  8
Dimension (ANSI)
100
AcDbLine
 10
35.5991517809782
 20
22.35547321901453
 30
0.0
 11
35.27106779890792
 21
22.35547321901453
 31
0.0
  0
LINE
  5
590
330
4A9
100
AcDbEntity
  8
Dimension (ANSI)
100
AcDbLine
 10
36.34906974511878
 20
22.35547321901453
 30
0.0
 11
36.90578079882072
 21
22.35547321901453
 31
0.0
  0
SOLID
  5
591
330
4A9
100
AcDbEntity
  8
Dimension (ANSI)
100
AcDbTrace
 10
35.5991517809782
 20
22.41015388269292
 30
0.0
 11
35.5991517809782
 21
22.30079255533615
 31
0.0
 12
35.92723576304849
 22
22.35547321901453
 32
0.0
 13
35.92723576304849
 23
22.35547321901453
 33
0.0
  0
SOLID
  5
592
330
4A9
100
AcDbEntity
  8
Dimension (ANSI)
100
AcDbTrace
 10
36.34906974511878
 20
22.41015388269292
 30
0.0
 11
36.34906974511878
 21
22.30079255533615
 31
0.0
 12
36.02098576304849
 22
22.35547321901453
 32
0.0
 13
36.02098576304849
 23
22.35547321901453
 33
0.0
  0
MTEXT
  5
593
330
4A9
100
AcDbEntity
  8
Dimension (ANSI)
100
AcDbMText
 10
37.01076767546114
 20
22.62213989627758
 30
0.0
 40
0.400000015894572
 41
0.0
 71
     1
 72
     1
  1
\A1; 12 GA.\P304 SS
  7
Note Text (ANSI)
 73
     1
 44
1.0
1001
ACAD
1000
MTEXTBEGIN
1070
    73
1070
     1
1070
    44
1040
1.0
1070
    74
1070
     0
1000
MTEXTEND
  0
POINT
  5
594
330
4A9
100
AcDbEntity
  8
Defpoints
 62
     0
100
AcDbPoint
 10
35.92723576304849
 20
20.78067006940823
 30
0.0
  0
POINT
  5
595
330
4A9
100
AcDbEntity
  8
Defpoints
 62
     0
100
AcDbPoint
 10
36.02098576304849
 20
20.78067006940823
 30
0.0
  0
POINT
  5
596
330
4A9
100
AcDbEntity
  8
Defpoints
 62
     0
100
AcDbPoint
 10
36.02098576304849
 20
22.35547321901453
 30
0.0
  0
ENDBLK
  5
4AB
330
4A9
100
AcDbEntity
  8
0
100
AcDbBlockEnd
  0
BLOCK
  5
599
330
598
100
AcDbEntity
  8
0
100
AcDbBlockBegin
  2
*D9
 70
     1
 10
0.0
 20
0.0
 30
0.0
  3
*D9
  1

  0
LINE
  5
677
330
598
100
AcDbEntity
  8
Dimension (ANSI)
100
AcDbLine
 10
14.48752640109444
 20
25.53892462060609
 30
0.0
 11
10.43721349359696
 21
25.53892462060609
 31
0.0
  0
LINE
  5
678
330
598
100
AcDbEntity
  8
Dimension (ANSI)
100
AcDbLine
 10
14.48752640109444
 20
12.37892462060609
 30
0.0
 11
10.43721349359695
 21
12.37892462060609
 31
0.0
  0
LINE
  5
679
330
598
100
AcDbEntity
  8
Dimension (ANSI)
100
AcDbLine
 10
10.85388016026362
 20
25.2108406385358
 30
0.0
 11
10.85388016026362
 21
18.5129614460773
 31
0.0
  0
LINE
  5
67A
330
598
100
AcDbEntity
  8
Dimension (ANSI)
100
AcDbLine
 10
10.85388016026362
 20
12.70700860267637
 30
0.0
 11
10.85388016026362
 21
17.90298767690188
 31
0.0
  0
SOLID
  5
67B
330
598
100
AcDbEntity
  8
Dimension (ANSI)
100
AcDbTrace
 10
10.79919949658524
 20
25.2108406385358
 30
0.0
 11
10.908560823942
 21
25.2108406385358
 31
0.0
 12
10.85388016026362
 22
25.53892462060609
 32
0.0
 13
10.85388016026362
 23
25.53892462060609
 33
0.0
  0
SOLID
  5
67C
330
598
100
AcDbEntity
  8
Dimension (ANSI)
100
AcDbTrace
 10
10.79919949658524
 20
12.70700860267637
 30
0.0
 11
10.908560823942
 21
12.70700860267637
 31
0.0
 12
10.85388016026362
 22
12.37892462060609
 32
0.0
 13
10.85388016026362
 23
12.37892462060609
 33
0.0
  0
MTEXT
  5
67D
330
598
100
AcDbEntity
  8
Dimension (ANSI)
100
AcDbMText
 10
9.891975360136198
 20
18.40797456943688
 30
0.0
 40
0.400000015894572
 41
0.0
 71
     1
 72
     1
  1
\A1;13.160
  7
Note Text (ANSI)
 73
     1
 44
1.0
1001
ACAD
1000
MTEXTBEGIN
1070
    73
1070
     1
1070
    44
1040
1.0
1070
    74
1070
     0
1000
MTEXTEND
  0
POINT
  5
67E
330
598
100
AcDbEntity
  8
Defpoints
 62
     0
100
AcDbPoint
 10
14.69585973442777
 20
25.53892462060609
 30
0.0
  0
POINT
  5
67F
330
598
100
AcDbEntity
  8
Defpoints
 62
     0
100
AcDbPoint
 10
14.69585973442777
 20
12.37892462060609
 30
0.0
  0
POINT
  5
680
330
598
100
AcDbEntity
  8
Defpoints
 62
     0
100
AcDbPoint
 10
10.85388016026362
 20
12.37892462060609
 30
0.0
  0
ENDBLK
  5
59A
330
598
100
AcDbEntity
  8
0
100
AcDbBlockEnd
  0
BLOCK
  5
683
330
682
100
AcDbEntity
  8
0
100
AcDbBlockBegin
  2
*D10
 70
     1
 10
0.0
 20
0.0
 30
0.0
  3
*D10
  1

  0
LINE
  5
775
330
682
100
AcDbEntity
  8
Dimension (ANSI)
100
AcDbLine
 10
14.48752640109444
 20
13.12892462060609
 30
0.0
 11
10.91521206156089
 21
13.12892462060609
 31
0.0
  0
LINE
  5
776
330
682
100
AcDbEntity
  8
Dimension (ANSI)
100
AcDbLine
 10
14.48752640109444
 20
12.37892462060609
 30
0.0
 11
10.91521206156089
 21
12.37892462060609
 31
0.0
  0
LINE
  5
777
330
682
100
AcDbEntity
  8
Dimension (ANSI)
100
AcDbLine
 10
11.33187872822756
 20
12.0508406385358
 30
0.0
 11
11.33187872822756
 21
11.72275665646551
 31
0.0
  0
LINE
  5
778
330
682
100
AcDbEntity
  8
Dimension (ANSI)
100
AcDbLine
 10
11.33187872822756
 20
13.45700860267637
 30
0.0
 11
11.33187872822756
 21
14.07915774365252
 31
0.0
  0
LINE
  5
779
330
682
100
AcDbEntity
  8
Dimension (ANSI)
100
AcDbLine
 10
11.33187872822756
 20
14.07915774365252
 30
0.0
 11
11.65996271029785
 21
14.07915774365252
 31
0.0
  0
SOLID
  5
77A
330
682
100
AcDbEntity
  8
Dimension (ANSI)
100
AcDbTrace
 10
11.27719806454918
 20
12.0508406385358
 30
0.0
 11
11.38655939190594
 21
12.0508406385358
 31
0.0
 12
11.33187872822756
 22
12.37892462060609
 32
0.0
 13
11.33187872822756
 23
12.37892462060609
 33
0.0
  0
SOLID
  5
77B
330
682
100
AcDbEntity
  8
Dimension (ANSI)
100
AcDbTrace
 10
11.27719806454918
 20
13.45700860267637
 30
0.0
 11
11.38655939190594
 21
13.45700860267637
 31
0.0
 12
11.33187872822756
 22
13.12892462060609
 32
0.0
 13
11.33187872822756
 23
13.12892462060609
 33
0.0
  0
MTEXT
  5
77C
330
682
100
AcDbEntity
  8
Dimension (ANSI)
100
AcDbMText
 10
11.76494958693826
 20
14.2791577515998
 30
0.0
 40
0.400000015894572
 41
0.0
 71
     1
 72
     1
  1
\A1;0.750
  7
Note Text (ANSI)
 73
     1
 44
1.0
1001
ACAD
1000
MTEXTBEGIN
1070
    73
1070
     1
1070
    44
1040
1.0
1070
    74
1070
     0
1000
MTEXTEND
  0
POINT
  5
77D
330
682
100
AcDbEntity
  8
Defpoints
 62
     0
100
AcDbPoint
 10
14.69585973442777
 20
13.12892462060609
 30
0.0
  0
POINT
  5
77E
330
682
100
AcDbEntity
  8
Defpoints
 62
     0
100
AcDbPoint
 10
14.69585973442777
 20
12.37892462060609
 30
0.0
  0
POINT
  5
77F
330
682
100
AcDbEntity
  8
Defpoints
 62
     0
100
AcDbPoint
 10
11.33187872822756
 20
12.37892462060609
 30
0.0
  0
ENDBLK
  5
684
330
682
100
AcDbEntity
  8
0
100
AcDbBlockEnd
  0
BLOCK
  5
782
330
781
100
AcDbEntity
  8
0
100
AcDbBlockBegin
  2
*D11
 70
     1
 10
0.0
 20
0.0
 30
0.0
  3
*D11
  1

  0
LINE
  5
860
330
781
100
AcDbEntity
  8
Dimension (ANSI)
100
AcDbLine
 10
23.85585973442777
 20
25.74725795393942
 30
0.0
 11
23.85585973442777
 21
28.90825884156525
 31
0.0
  0
LINE
  5
861
330
781
100
AcDbEntity
  8
Dimension (ANSI)
100
AcDbLine
 10
14.69585973442777
 20
25.74725795393942
 30
0.0
 11
14.69585973442777
 21
28.90825884156525
 31
0.0
  0
LINE
  5
862
330
781
100
AcDbEntity
  8
Dimension (ANSI)
100
AcDbLine
 10
23.52777575235748
 20
28.49159217489858
 30
0.0
 11
20.18084664285733
 21
28.49159217489858
 31
0.0
  0
LINE
  5
863
330
781
100
AcDbEntity
  8
Dimension (ANSI)
100
AcDbLine
 10
15.02394371649806
 20
28.49159217489858
 30
0.0
 11
18.3708728259982
 21
28.49159217489858
 31
0.0
  0
SOLID
  5
864
330
781
100
AcDbEntity
  8
Dimension (ANSI)
100
AcDbTrace
 10
23.52777575235748
 20
28.54627283857697
 30
0.0
 11
23.52777575235748
 21
28.4369115112202
 31
0.0
 12
23.85585973442777
 22
28.49159217489858
 32
0.0
 13
23.85585973442777
 23
28.49159217489858
 33
0.0
  0
SOLID
  5
865
330
781
100
AcDbEntity
  8
Dimension (ANSI)
100
AcDbTrace
 10
15.02394371649806
 20
28.54627283857697
 30
0.0
 11
15.02394371649806
 21
28.4369115112202
 31
0.0
 12
14.69585973442777
 22
28.49159217489858
 32
0.0
 13
14.69585973442777
 23
28.49159217489858
 33
0.0
  0
MTEXT
  5
866
330
781
100
AcDbEntity
  8
Dimension (ANSI)
100
AcDbMText
 10
18.47585970263862
 20
28.69159218284586
 30
0.0
 40
0.400000015894572
 41
0.0
 71
     1
 72
     1
  1
\A1;9.160
  7
Note Text (ANSI)
 73
     1
 44
1.0
1001
ACAD
1000
MTEXTBEGIN
1070
    73
1070
     1
1070
    44
1040
1.0
1070
    74
1070
     0
1000
MTEXTEND
  0
POINT
  5
867
330
781
100
AcDbEntity
  8
Defpoints
 62
     0
100
AcDbPoint
 10
23.85585973442777
 20
25.53892462060609
 30
0.0
  0
POINT
  5
868
330
781
100
AcDbEntity
  8
Defpoints
 62
     0
100
AcDbPoint
 10
14.69585973442777
 20
25.53892462060609
 30
0.0
  0
POINT
  5
869
330
781
100
AcDbEntity
  8
Defpoints
 62
     0
100
AcDbPoint
 10
14.69585973442777
 20
28.49159217489858
 30
0.0
  0
ENDBLK
  5
783
330
781
100
AcDbEntity
  8
0
100
AcDbBlockEnd
  0
BLOCK
  5
86C
330
86B
100
AcDbEntity
  8
0
100
AcDbBlockBegin
  2
*D12
 70
     1
 10
0.0
 20
0.0
 30
0.0
  3
*D12
  1

  0
LINE
  5
95D
330
86B
100
AcDbEntity
  8
Dimension (ANSI)
100
AcDbLine
 10
24.5841930677611
 20
12.35892462060609
 30
0.0
 11
25.64822992656135
 21
12.35892462060609
 31
0.0
  0
LINE
  5
95E
330
86B
100
AcDbEntity
  8
Dimension (ANSI)
100
AcDbLine
 10
24.08419306776111
 20
11.85892462060609
 30
0.0
 11
25.64822992656135
 21
11.85892462060609
 31
0.0
  0
LINE
  5
95F
330
86B
100
AcDbEntity
  8
Dimension (ANSI)
100
AcDbLine
 10
25.23156325989468
 20
11.5308406385358
 30
0.0
 11
25.23156325989468
 21
11.20275665646551
 31
0.0
  0
LINE
  5
960
330
86B
100
AcDbEntity
  8
Dimension (ANSI)
100
AcDbLine
 10
25.23156325989468
 20
12.68700860267637
 30
0.0
 11
25.23156325989468
 21
13.30915774365251
 31
0.0
  0
LINE
  5
961
330
86B
100
AcDbEntity
  8
Dimension (ANSI)
100
AcDbLine
 10
25.23156325989468
 20
13.30915774365251
 30
0.0
 11
25.55964724196497
 21
13.30915774365251
 31
0.0
  0
SOLID
  5
962
330
86B
100
AcDbEntity
  8
Dimension (ANSI)
100
AcDbTrace
 10
25.1768825962163
 20
11.5308406385358
 30
0.0
 11
25.28624392357306
 21
11.5308406385358
 31
0.0
 12
25.23156325989468
 22
11.85892462060609
 32
0.0
 13
25.23156325989468
 23
11.85892462060609
 33
0.0
  0
SOLID
  5
963
330
86B
100
AcDbEntity
  8
Dimension (ANSI)
100
AcDbTrace
 10
25.1768825962163
 20
12.68700860267637
 30
0.0
 11
25.28624392357306
 21
12.68700860267637
 31
0.0
 12
25.23156325989468
 22
12.35892462060609
 32
0.0
 13
25.23156325989468
 23
12.35892462060609
 33
0.0
  0
MTEXT
  5
964
330
86B
100
AcDbEntity
  8
Dimension (ANSI)
100
AcDbMText
 10
25.66463411860539
 20
13.5091577515998
 30
0.0
 40
0.400000015894572
 41
0.0
 71
     1
 72
     1
  1
\A1;0.500
  7
Note Text (ANSI)
 73
     1
 44
1.0
1001
ACAD
1000
MTEXTBEGIN
1070
    73
1070
     1
1070
    44
1040
1.0
1070
    74
1070
     0
1000
MTEXTEND
  0
POINT
  5
965
330
86B
100
AcDbEntity
  8
Defpoints
 62
     0
100
AcDbPoint
 10
24.37585973442777
 20
12.35892462060609
 30
0.0
  0
POINT
  5
966
330
86B
100
AcDbEntity
  8
Defpoints
 62
     0
100
AcDbPoint
 10
23.87585973442777
 20
11.85892462060609
 30
0.0
  0
POINT
  5
967
330
86B
100
AcDbEntity
  8
Defpoints
 62
     0
100
AcDbPoint
 10
25.23156325989468
 20
11.85892462060609
 30
0.0
  0
ENDBLK
  5
86D
330
86B
100
AcDbEntity
  8
0
100
AcDbBlockEnd
  0
BLOCK
  5
96A
330
969
100
AcDbEntity
  8
0
100
AcDbBlockBegin
  2
*D13
 70
     1
 10
0.0
 20
0.0
 30
0.0
  3
*D13
  1

  0
LINE
  5
A48
330
969
100
AcDbEntity
  8
Dimension (ANSI)
100
AcDbLine
 10
24.37585973442777
 20
12.15059128727275
 30
0.0
 11
24.37585973442777
 21
9.588417702142276
 31
0.0
  0
LINE
  5
A49
330
969
100
AcDbEntity
  8
Dimension (ANSI)
100
AcDbLine
 10
23.87585973442777
 20
11.65059128727275
 30
0.0
 11
23.87585973442777
 21
9.588417702142276
 31
0.0
  0
LINE
  5
A4A
330
969
100
AcDbEntity
  8
Dimension (ANSI)
100
AcDbLine
 10
24.70394371649806
 20
10.00508436880894
 30
0.0
 11
25.03202769856835
 21
10.00508436880894
 31
0.0
  0
LINE
  5
A4B
330
969
100
AcDbEntity
  8
Dimension (ANSI)
100
AcDbLine
 10
23.54777575235749
 20
10.00508436880894
 30
0.0
 11
22.82110866865542
 21
10.00508436880894
 31
0.0
  0
SOLID
  5
A4C
330
969
100
AcDbEntity
  8
Dimension (ANSI)
100
AcDbTrace
 10
24.70394371649806
 20
10.05976503248732
 30
0.0
 11
24.70394371649806
 21
9.950403705130561
 31
0.0
 12
24.37585973442777
 22
10.00508436880894
 32
0.0
 13
24.37585973442777
 23
10.00508436880894
 33
0.0
  0
SOLID
  5
A4D
330
969
100
AcDbEntity
  8
Dimension (ANSI)
100
AcDbTrace
 10
23.54777575235749
 20
10.05976503248732
 30
0.0
 11
23.54777575235749
 21
9.950403705130561
 31
0.0
 12
23.87585973442777
 22
10.00508436880894
 32
0.0
 13
23.87585973442777
 23
10.00508436880894
 33
0.0
  0
MTEXT
  5
A4E
330
969
100
AcDbEntity
  8
Dimension (ANSI)
100
AcDbMText
 10
21.11612172843672
 20
10.20508437675623
 30
0.0
 40
0.400000015894572
 41
0.0
 71
     1
 72
     1
  1
\A1;0.500
  7
Note Text (ANSI)
 73
     1
 44
1.0
1001
ACAD
1000
MTEXTBEGIN
1070
    73
1070
     1
1070
    44
1040
1.0
1070
    74
1070
     0
1000
MTEXTEND
  0
POINT
  5
A4F
330
969
100
AcDbEntity
  8
Defpoints
 62
     0
100
AcDbPoint
 10
24.37585973442777
 20
12.35892462060609
 30
0.0
  0
POINT
  5
A50
330
969
100
AcDbEntity
  8
Defpoints
 62
     0
100
AcDbPoint
 10
23.87585973442777
 20
11.85892462060609
 30
0.0
  0
POINT
  5
A51
330
969
100
AcDbEntity
  8
Defpoints
 62
     0
100
AcDbPoint
 10
23.87585973442777
 20
10.00508436880894
 30
0.0
  0
ENDBLK
  5
96B
330
969
100
AcDbEntity
  8
0
100
AcDbBlockEnd
  0
BLOCK
  5
A54
330
A53
100
AcDbEntity
  8
0
100
AcDbBlockBegin
  2
*D14
 70
     1
 10
0.0
 20
0.0
 30
0.0
  3
*D14
  1

  0
LINE
  5
B32
330
A53
100
AcDbEntity
  8
Dimension (ANSI)
100
AcDbLine
 10
23.85585973442777
 20
25.74725795393942
 30
0.0
 11
23.85585973442777
 21
27.53039443687906
 31
0.0
  0
LINE
  5
B33
330
A53
100
AcDbEntity
  8
Dimension (ANSI)
100
AcDbLine
 10
24.37585973442777
 20
25.76725795393942
 30
0.0
 11
24.37585973442777
 21
27.53039443687906
 31
0.0
  0
LINE
  5
B34
330
A53
100
AcDbEntity
  8
Dimension (ANSI)
100
AcDbLine
 10
24.70394371649805
 20
27.11372777021239
 30
0.0
 11
25.03202769856834
 21
27.11372777021239
 31
0.0
  0
LINE
  5
B35
330
A53
100
AcDbEntity
  8
Dimension (ANSI)
100
AcDbLine
 10
23.52777575235748
 20
27.11372777021239
 30
0.0
 11
22.81006843883492
 21
27.11372777021239
 31
0.0
  0
SOLID
  5
B36
330
A53
100
AcDbEntity
  8
Dimension (ANSI)
100
AcDbTrace
 10
24.70394371649805
 20
27.16840843389077
 30
0.0
 11
24.70394371649805
 21
27.05904710653401
 31
0.0
 12
24.37585973442777
 22
27.11372777021239
 32
0.0
 13
24.37585973442777
 23
27.11372777021239
 33
0.0
  0
SOLID
  5
B37
330
A53
100
AcDbEntity
  8
Dimension (ANSI)
100
AcDbTrace
 10
23.52777575235748
 20
27.16840843389077
 30
0.0
 11
23.52777575235748
 21
27.05904710653401
 31
0.0
 12
23.85585973442777
 22
27.11372777021239
 32
0.0
 13
23.85585973442777
 23
27.11372777021239
 33
0.0
  0
MTEXT
  5
B38
330
A53
100
AcDbEntity
  8
Dimension (ANSI)
100
AcDbMText
 10
21.10508149861622
 20
27.31372777815967
 30
0.0
 40
0.400000015894572
 41
0.0
 71
     1
 72
     1
  1
\A1;0.520
  7
Note Text (ANSI)
 73
     1
 44
1.0
1001
ACAD
1000
MTEXTBEGIN
1070
    73
1070
     1
1070
    44
1040
1.0
1070
    74
1070
     0
1000
MTEXTEND
  0
POINT
  5
B39
330
A53
100
AcDbEntity
  8
Defpoints
 62
     0
100
AcDbPoint
 10
23.85585973442777
 20
25.53892462060609
 30
0.0
  0
POINT
  5
B3A
330
A53
100
AcDbEntity
  8
Defpoints
 62
     0
100
AcDbPoint
 10
24.37585973442777
 20
25.55892462060609
 30
0.0
  0
POINT
  5
B3B
330
A53
100
AcDbEntity
  8
Defpoints
 62
     0
100
AcDbPoint
 10
24.37585973442777
 20
27.11372777021239
 30
0.0
  0
ENDBLK
  5
A55
330
A53
100
AcDbEntity
  8
0
100
AcDbBlockEnd
  0
BLOCK
  5
B3E
330
B3D
100
AcDbEntity
  8
0
100
AcDbBlockBegin
  2
*D15
 70
     1
 10
0.0
 20
0.0
 30
0.0
  3
*D15
  1

  0
LINE
  5
C2F
330
B3D
100
AcDbEntity
  8
Dimension (ANSI)
100
AcDbLine
 10
24.0641930677611
 20
25.53892462060609
 30
0.0
 11
27.48532595295755
 21
25.53892462060609
 31
0.0
  0
LINE
  5
C30
330
B3D
100
AcDbEntity
  8
Dimension (ANSI)
100
AcDbLine
 10
24.0841930677611
 20
26.05892462060609
 30
0.0
 11
27.48532595295755
 21
26.05892462060609
 31
0.0
  0
LINE
  5
C31
330
B3D
100
AcDbEntity
  8
Dimension (ANSI)
100
AcDbLine
 10
27.06865928629088
 20
26.38700860267637
 30
0.0
 11
27.06865928629088
 21
26.71509258474666
 31
0.0
  0
LINE
  5
C32
330
B3D
100
AcDbEntity
  8
Dimension (ANSI)
100
AcDbLine
 10
27.06865928629088
 20
25.2108406385358
 30
0.0
 11
27.06865928629088
 21
24.48713801680881
 31
0.0
  0
LINE
  5
C33
330
B3D
100
AcDbEntity
  8
Dimension (ANSI)
100
AcDbLine
 10
27.06865928629088
 20
24.48713801680881
 30
0.0
 11
26.74057530422059
 21
24.48713801680881
 31
0.0
  0
SOLID
  5
C34
330
B3D
100
AcDbEntity
  8
Dimension (ANSI)
100
AcDbTrace
 10
27.0139786226125
 20
26.38700860267637
 30
0.0
 11
27.12333994996927
 21
26.38700860267637
 31
0.0
 12
27.06865928629088
 22
26.05892462060609
 32
0.0
 13
27.06865928629088
 23
26.05892462060609
 33
0.0
  0
SOLID
  5
C35
330
B3D
100
AcDbEntity
  8
Dimension (ANSI)
100
AcDbTrace
 10
27.0139786226125
 20
25.2108406385358
 30
0.0
 11
27.12333994996927
 21
25.2108406385358
 31
0.0
 12
27.06865928629088
 22
25.53892462060609
 32
0.0
 13
27.06865928629088
 23
25.53892462060609
 33
0.0
  0
MTEXT
  5
C36
330
B3D
100
AcDbEntity
  8
Dimension (ANSI)
100
AcDbMText
 10
25.03558836400188
 20
24.68713802475611
 30
0.0
 40
0.400000015894572
 41
0.0
 71
     1
 72
     1
  1
\A1;0.520
  7
Note Text (ANSI)
 73
     1
 44
1.0
1001
ACAD
1000
MTEXTBEGIN
1070
    73
1070
     1
1070
    44
1040
1.0
1070
    74
1070
     0
1000
MTEXTEND
  0
POINT
  5
C37
330
B3D
100
AcDbEntity
  8
Defpoints
 62
     0
100
AcDbPoint
 10
23.85585973442777
 20
25.53892462060609
 30
0.0
  0
POINT
  5
C38
330
B3D
100
AcDbEntity
  8
Defpoints
 62
     0
100
AcDbPoint
 10
23.87585973442777
 20
26.05892462060609
 30
0.0
  0
POINT
  5
C39
330
B3D
100
AcDbEntity
  8
Defpoints
 62
     0
100
AcDbPoint
 10
27.06865928629088
 20
26.05892462060609
 30
0.0
  0
ENDBLK
  5
B3F
330
B3D
100
AcDbEntity
  8
0
100
AcDbBlockEnd
  0
ENDSEC
  0
SECTION
  2
ENTITIES
  0
CIRCLE
  5
11B
330
6C
100
AcDbEntity
  8
Visible (ANSI)
100
AcDbCircle
 10
23.85585973442777
 20
25.5389246206061
 30
0.0
 40
0.25
  0
CIRCLE
  5
11C
330
6C
100
AcDbEntity
  8
Visible (ANSI)
100
AcDbCircle
 10
14.69585973442777
 20
25.53892462060609
 30
0.0
 40
0.25
  0
CIRCLE
  5
11D
330
6C
100
AcDbEntity
  8
Visible (ANSI)
100
AcDbCircle
 10
14.69585973442777
 20
12.37892462060609
 30
0.0
 40
0.25
  0
CIRCLE
  5
11E
330
6C
100
AcDbEntity
  8
Visible (ANSI)
100
AcDbCircle
 10
23.85585973442777
 20
12.37892462060609
 30
0.0
 40
0.25
  0
CIRCLE
  5
11F
330
6C
100
AcDbEntity
  8
Visible (ANSI)
100
AcDbCircle
 10
23.85585973442777
 20
24.78892462060609
 30
0.0
 40
0.15625
  0
CIRCLE
  5
120
330
6C
100
AcDbEntity
  8
Visible (ANSI)
100
AcDbCircle
 10
14.69585973442777
 20
24.78892462060608
 30
0.0
 40
0.15625
  0
CIRCLE
  5
121
330
6C
100
AcDbEntity
  8
Visible (ANSI)
100
AcDbCircle
 10
14.69585973442777
 20
13.12892462060609
 30
0.0
 40
0.15625
  0
CIRCLE
  5
122
330
6C
100
AcDbEntity
  8
Visible (ANSI)
100
AcDbCircle
 10
23.85585973442777
 20
13.12892462060609
 30
0.0
 40
0.15625
  0
LINE
  5
123
330
6C
100
AcDbEntity
  8
Visible (ANSI)
100
AcDbLine
 10
14.17585973442777
 20
25.55892462060608
 30
0.0
 11
14.67585973442776
 21
26.05892462060609
 31
0.0
  0
LINE
  5
124
330
6C
100
AcDbEntity
  8
Visible (ANSI)
100
AcDbLine
 10
14.17585973442777
 20
12.35892462060609
 30
0.0
 11
14.17585973442777
 21
25.55892462060608
 31
0.0
  0
LINE
  5
125
330
6C
100
AcDbEntity
  8
Visible (ANSI)
100
AcDbLine
 10
23.87585973442777
 20
11.85892462060609
 30
0.0
 11
14.67585973442777
 21
11.85892462060609
 31
0.0
  0
LINE
  5
126
330
6C
100
AcDbEntity
  8
Visible (ANSI)
100
AcDbLine
 10
24.37585973442777
 20
25.55892462060608
 30
0.0
 11
24.37585973442777
 21
12.35892462060608
 31
0.0
  0
LINE
  5
127
330
6C
100
AcDbEntity
  8
Visible (ANSI)
100
AcDbLine
 10
14.67585973442776
 20
26.05892462060609
 30
0.0
 11
23.87585973442777
 21
26.05892462060609
 31
0.0
  0
LINE
  5
128
330
6C
100
AcDbEntity
  8
Visible (ANSI)
100
AcDbLine
 10
14.67585973442777
 20
11.85892462060609
 30
0.0
 11
14.17585973442777
 21
12.35892462060609
 31
0.0
  0
LINE
  5
129
330
6C
100
AcDbEntity
  8
Visible (ANSI)
100
AcDbLine
 10
24.37585973442777
 20
12.35892462060608
 30
0.0
 11
23.87585973442777
 21
11.85892462060609
 31
0.0
  0
LINE
  5
12A
330
6C
100
AcDbEntity
  8
Visible (ANSI)
100
AcDbLine
 10
23.87585973442777
 20
26.05892462060609
 30
0.0
 11
24.37585973442777
 21
25.55892462060608
 31
0.0
  0
LINE
  5
12B
330
6C
100
AcDbEntity
  8
Visible (ANSI)
100
AcDbLine
 10
36.02098576304849
 20
25.55892462060608
 30
0.0
 11
36.02098576304835
 21
26.05892462060609
 31
0.0
  0
LINE
  5
12C
330
6C
100
AcDbEntity
  8
Visible (ANSI)
100
AcDbLine
 10
35.92723576304849
 20
25.55892462060608
 30
0.0
 11
36.02098576304849
 21
25.55892462060608
 31
0.0
  0
LINE
  5
12D
330
6C
100
AcDbEntity
  8
Visible (ANSI)
100
AcDbLine
 10
35.92723576304834
 20
26.05892462060609
 30
0.0
 11
35.92723576304849
 21
25.55892462060608
 31
0.0
  0
LINE
  5
12E
330
6C
100
AcDbEntity
  8
Visible (ANSI)
100
AcDbLine
 10
36.02098576304835
 20
26.05892462060609
 30
0.0
 11
35.92723576304834
 21
26.05892462060609
 31
0.0
  0
LINE
  5
12F
330
6C
100
AcDbEntity
  8
Visible (ANSI)
100
AcDbLine
 10
36.02098576304849
 20
12.35892462060608
 30
0.0
 11
36.02098576304849
 21
25.55892462060608
 31
0.0
  0
LINE
  5
130
330
6C
100
AcDbEntity
  8
Visible (ANSI)
100
AcDbLine
 10
35.92723576304849
 20
25.55892462060608
 30
0.0
 11
35.92723576304849
 21
12.35892462060608
 31
0.0
  0
LINE
  5
131
330
6C
100
AcDbEntity
  8
Visible (ANSI)
100
AcDbLine
 10
36.02098576304835
 20
11.85892462060609
 30
0.0
 11
36.02098576304849
 21
12.35892462060608
 31
0.0
  0
LINE
  5
132
330
6C
100
AcDbEntity
  8
Visible (ANSI)
100
AcDbLine
 10
35.92723576304834
 20
11.85892462060609
 30
0.0
 11
36.02098576304835
 21
11.85892462060609
 31
0.0
  0
LINE
  5
133
330
6C
100
AcDbEntity
  8
Visible (ANSI)
100
AcDbLine
 10
35.92723576304849
 20
12.35892462060608
 30
0.0
 11
35.92723576304834
 21
11.85892462060609
 31
0.0
  0
LINE
  5
134
330
6C
100
AcDbEntity
  8
Visible (ANSI)
100
AcDbLine
 10
36.02098576304849
 20
12.35892462060608
 30
0.0
 11
35.92723576304849
 21
12.35892462060608
 31
0.0
  0
LINE
  5
135
330
6C
100
AcDbEntity
  8
Hidden (ANSI)
 48
0.0534695908427239
100
AcDbLine
 10
35.92723576304834
 20
25.78892462060609
 30
0.0
 11
36.02098576304834
 21
25.78892462060609
 31
0.0
  0
LINE
  5
136
330
6C
100
AcDbEntity
  8
Hidden (ANSI)
 48
0.0534695908427239
100
AcDbLine
 10
35.92723576304834
 20
25.28892462060609
 30
0.0
 11
36.02098576304834
 21
25.28892462060609
 31
0.0
  0
LINE
  5
137
330
6C
100
AcDbEntity
  8
Hidden (ANSI)
 48
0.0534695908427239
100
AcDbLine
 10
35.92723576304834
 20
12.62892462060609
 30
0.0
 11
36.02098576304834
 21
12.62892462060609
 31
0.0
  0
LINE
  5
138
330
6C
100
AcDbEntity
  8
Hidden (ANSI)
 48
0.0534695908427239
100
AcDbLine
 10
35.92723576304834
 20
12.12892462060609
 30
0.0
 11
36.02098576304834
 21
12.12892462060609
 31
0.0
  0
LINE
  5
139
330
6C
100
AcDbEntity
  8
Hidden (ANSI)
 48
0.0534695908427239
100
AcDbLine
 10
35.92723576304834
 20
24.94517462060609
 30
0.0
 11
36.02098576304834
 21
24.94517462060609
 31
0.0
  0
LINE
  5
13A
330
6C
100
AcDbEntity
  8
Hidden (ANSI)
 48
0.0534695908427239
100
AcDbLine
 10
35.92723576304834
 20
24.63267462060608
 30
0.0
 11
36.02098576304834
 21
24.63267462060608
 31
0.0
  0
LINE
  5
13B
330
6C
100
AcDbEntity
  8
Hidden (ANSI)
 48
0.0534695908427239
100
AcDbLine
 10
35.92723576304834
 20
13.28517462060609
 30
0.0
 11
36.02098576304834
 21
13.28517462060609
 31
0.0
  0
LINE
  5
13C
330
6C
100
AcDbEntity
  8
Hidden (ANSI)
 48
0.0534695908427239
100
AcDbLine
 10
35.92723576304834
 20
12.97267462060609
 30
0.0
 11
36.02098576304834
 21
12.97267462060609
 31
0.0
  0
ELLIPSE
  5
13D
330
6C
100
AcDbEntity
  8
Visible (ANSI)
100
AcDbEllipse
 10
51.84988442996238
 20
28.61589871854874
 30
0.0
 11
-0.1039650440800847
 21
0.1805382158635774
 31
0.0
210
0.0
220
0.0
230
1.0
 40
0.5780931159158115
 41
0.2678448778125397
 42
2.873747775777251
  0
ELLIPSE
  5
13E
330
6C
100
AcDbEntity
  8
Visible (ANSI)
100
AcDbEllipse
 10
51.79464171268219
 20
28.58408655340871
 30
0.0
 11
-0.1039650440800849
 21
0.1805382158635778
 31
0.0
210
0.0
220
0.0
230
1.0
 40
0.5780931159158113
 41
0.0
 42
6.283185307179586
  0
ELLIPSE
  5
13F
330
6C
100
AcDbEntity
  8
Visible (ANSI)
100
AcDbEllipse
 10
46.45230266690425
 20
31.72415933382977
 30
0.0
 11
-0.1039650440800852
 21
0.1805382158635784
 31
0.0
210
0.0
220
0.0
230
1.0
 40
0.5780931159158115
 41
0.2678448778125404
 42
2.873747775777251
  0
ELLIPSE
  5
140
330
6C
100
AcDbEntity
  8
Visible (ANSI)
100
AcDbEllipse
 10
46.39705994962406
 20
31.69234716868974
 30
0.0
 11
-0.1039650440800849
 21
0.1805382158635778
 31
0.0
210
0.0
220
0.0
230
1.0
 40
0.5780931159158113
 41
0.0
 42
6.283185307179586
  0
ELLIPSE
  5
141
330
6C
100
AcDbEntity
  8
Visible (ANSI)
100
AcDbEllipse
 10
46.45230266690425
 20
22.75839253138994
 30
0.0
 11
-0.1039650440800849
 21
0.1805382158635778
 31
0.0
210
0.0
220
0.0
230
1.0
 40
0.5780931159158115
 41
0.2678448778125402
 42
2.873747775777251
  0
ELLIPSE
  5
142
330
6C
100
AcDbEntity
  8
Visible (ANSI)
100
AcDbEllipse
 10
46.39705994962404
 20
22.72658036624991
 30
0.0
 11
-0.1039650440800849
 21
0.1805382158635778
 31
0.0
210
0.0
220
0.0
230
1.0
 40
0.5780931159158113
 41
0.0
 42
6.283185307179586
  0
ELLIPSE
  5
143
330
6C
100
AcDbEntity
  8
Visible (ANSI)
100
AcDbEllipse
 10
51.84988442996236
 20
19.6501319161089
 30
0.0
 11
-0.1039650440800847
 21
0.1805382158635776
 31
0.0
210
0.0
220
0.0
230
1.0
 40
0.5780931159158115
 41
0.26784487781254
 42
2.873747775777251
  0
ELLIPSE
  5
144
330
6C
100
AcDbEntity
  8
Visible (ANSI)
100
AcDbEllipse
 10
51.79464171268218
 20
19.61831975096887
 30
0.0
 11
-0.1039650440800849
 21
0.1805382158635778
 31
0.0
210
0.0
220
0.0
230
1.0
 40
0.5780931159158113
 41
0.0
 42
6.283185307179586
  0
ELLIPSE
  5
145
330
6C
100
AcDbEntity
  8
Visible (ANSI)
100
AcDbEllipse
 10
51.84988442996238
 20
28.10493176552215
 30
0.0
 11
0.0649781525500599
 21
-0.1128363849147323
 31
0.0
210
0.0
220
0.0
230
1.0
 40
0.5780931159158114
 41
3.578838513251575
 42
5.845939447516943
  0
ELLIPSE
  5
146
330
6C
100
AcDbEntity
  8
Visible (ANSI)
100
AcDbEllipse
 10
51.79464171268219
 20
28.07311960038213
 30
0.0
 11
-0.064978152550053
 21
0.1128363849147361
 31
0.0
210
0.0
220
0.0
230
1.0
 40
0.5780931159158116
 41
0.0
 42
6.283185307179586
  0
ELLIPSE
  5
147
330
6C
100
AcDbEntity
  8
Visible (ANSI)
100
AcDbEllipse
 10
46.45230266690425
 20
31.21319238080319
 30
0.0
 11
0.0649781525500602
 21
-0.1128363849147329
 31
0.0
210
0.0
220
0.0
230
0.9999999999999998
 40
0.5780931159158115
 41
3.578838513251534
 42
5.845939447516943
  0
ELLIPSE
  5
148
330
6C
100
AcDbEntity
  8
Visible (ANSI)
100
AcDbEllipse
 10
46.39705994962406
 20
31.18138021566315
 30
0.0
 11
-0.064978152550053
 21
0.1128363849147361
 31
0.0
210
0.0
220
0.0
230
1.0
 40
0.5780931159158116
 41
0.0
 42
6.283185307179586
  0
ELLIPSE
  5
149
330
6C
100
AcDbEntity
  8
Visible (ANSI)
100
AcDbEllipse
 10
46.45230266690425
 20
23.26935948441652
 30
0.0
 11
0.0649781525500598
 21
-0.1128363849147322
 31
0.0
210
0.0
220
0.0
230
1.0
 40
0.5780931159158115
 41
3.578838513251533
 42
5.845939447516943
  0
ELLIPSE
  5
14A
330
6C
100
AcDbEntity
  8
Visible (ANSI)
100
AcDbEllipse
 10
46.39705994962404
 20
23.23754731927649
 30
0.0
 11
-0.064978152550053
 21
0.1128363849147361
 31
0.0
210
0.0
220
0.0
230
1.0
 40
0.5780931159158116
 41
0.0
 42
6.283185307179586
  0
ELLIPSE
  5
14B
330
6C
100
AcDbEntity
  8
Visible (ANSI)
100
AcDbEllipse
 10
51.84988442996237
 20
20.16109886913549
 30
0.0
 11
0.0649781525500596
 21
-0.1128363849147319
 31
0.0
210
0.0
220
0.0
230
1.0
 40
0.5780931159158115
 41
3.578838513251575
 42
5.845939447517048
  0
ELLIPSE
  5
14C
330
6C
100
AcDbEntity
  8
Visible (ANSI)
100
AcDbEllipse
 10
51.79464171268218
 20
20.12928670399546
 30
0.0
 11
-0.064978152550053
 21
0.1128363849147361
 31
0.0
210
0.0
220
0.0
230
1.0
 40
0.5780931159158116
 41
0.0
 42
6.283185307179586
  0
LINE
  5
14D
330
6C
100
AcDbEntity
  8
Visible (ANSI)
100
AcDbLine
 10
46.09064701110984
 20
31.88242443008044
 30
0.0
 11
46.38527483660428
 21
32.05340418468471
 31
0.0
  0
LINE
  5
14E
330
6C
100
AcDbEntity
  8
Visible (ANSI)
100
AcDbLine
 10
46.38527483660428
 20
32.05340418468471
 30
0.0
 11
46.44051755388447
 21
32.08521634982474
 31
0.0
  0
LINE
  5
14F
330
6C
100
AcDbEntity
  8
Visible (ANSI)
100
AcDbLine
 10
46.09064701110983
 20
22.88940605681252
 30
0.0
 11
46.09064701110984
 21
31.88242443008044
 31
0.0
  0
LINE
  5
150
330
6C
100
AcDbEntity
  8
Visible (ANSI)
100
AcDbLine
 10
51.86166954298215
 20
28.96338254408397
 30
0.0
 11
46.44051755388447
 21
32.08521634982474
 31
0.0
  0
LINE
  5
151
330
6C
100
AcDbEntity
  8
Visible (ANSI)
100
AcDbLine
 10
52.15629736847659
 20
19.4600546547182
 30
0.0
 11
52.1562973684766
 21
28.45307302798613
 31
0.0
  0
LINE
  5
152
330
6C
100
AcDbEntity
  8
Visible (ANSI)
100
AcDbLine
 10
51.80642682570195
 20
19.2572627349739
 30
0.0
 11
46.38527483660427
 21
22.37909654071468
 31
0.0
  0
LINE
  5
153
330
6C
100
AcDbEntity
  8
Visible (ANSI)
100
AcDbLine
 10
52.10105465119641
 20
28.4212608628461
 30
0.0
 11
52.1010546511964
 21
19.42824248957817
 31
0.0
  0
LINE
  5
154
330
6C
100
AcDbEntity
  8
Visible (ANSI)
100
AcDbLine
 10
46.38527483660428
 20
32.05340418468471
 30
0.0
 11
51.80642682570197
 21
28.93157037894394
 31
0.0
  0
LINE
  5
155
330
6C
100
AcDbEntity
  8
Visible (ANSI)
100
AcDbLine
 10
52.1562973684766
 20
28.45307302798613
 30
0.0
 11
51.86166954298215
 21
28.96338254408397
 31
0.0
  0
LINE
  5
156
330
6C
100
AcDbEntity
  8
Visible (ANSI)
100
AcDbLine
 10
52.10105465119641
 20
28.4212608628461
 30
0.0
 11
52.1562973684766
 21
28.45307302798613
 31
0.0
  0
LINE
  5
157
330
6C
100
AcDbEntity
  8
Visible (ANSI)
100
AcDbLine
 10
51.80642682570197
 20
28.93157037894394
 30
0.0
 11
52.10105465119641
 21
28.4212608628461
 31
0.0
  0
LINE
  5
158
330
6C
100
AcDbEntity
  8
Visible (ANSI)
100
AcDbLine
 10
51.86166954298215
 20
28.96338254408397
 30
0.0
 11
51.80642682570197
 21
28.93157037894394
 31
0.0
  0
LINE
  5
159
330
6C
100
AcDbEntity
  8
Visible (ANSI)
100
AcDbLine
 10
51.86166954298214
 20
19.28907490011393
 30
0.0
 11
52.15629736847659
 21
19.4600546547182
 31
0.0
  0
LINE
  5
15A
330
6C
100
AcDbEntity
  8
Visible (ANSI)
100
AcDbLine
 10
51.80642682570195
 20
19.2572627349739
 30
0.0
 11
51.86166954298214
 21
19.28907490011393
 31
0.0
  0
LINE
  5
15B
330
6C
100
AcDbEntity
  8
Visible (ANSI)
100
AcDbLine
 10
52.1010546511964
 20
19.42824248957817
 30
0.0
 11
51.80642682570195
 21
19.2572627349739
 31
0.0
  0
LINE
  5
15C
330
6C
100
AcDbEntity
  8
Visible (ANSI)
100
AcDbLine
 10
52.15629736847659
 20
19.4600546547182
 30
0.0
 11
52.1010546511964
 21
19.42824248957817
 31
0.0
  0
LINE
  5
15D
330
6C
100
AcDbEntity
  8
Visible (ANSI)
100
AcDbLine
 10
46.38527483660427
 20
22.37909654071468
 30
0.0
 11
46.09064701110983
 21
22.88940605681252
 31
0.0
  0
DIMENSION
  5
15E
330
6C
100
AcDbEntity
  8
Dimension (ANSI)
100
AcDbDimension
  2
*D4
 10
14.17585973442777
 20
29.96837343950373
 30
0.0
 11
19.27585973442776
 21
29.96837343950373
 31
0.0
 70
   160
  1
<>
 42
10.19999999999999
  3
Default (ANSI)
100
AcDbAlignedDimension
 13
24.37585973442777
 23
25.55892462060609
 33
0.0
 14
14.17585973442777
 24
25.55892462060609
 34
0.0
 50
180.0
100
AcDbRotatedDimension
1001
ACAD
1000
DSTYLE
1002
{
1070
   289
1070
     1
1070
    73
1070
     0
1070
    74
1070
     0
1070
   271
1070
     3
1070
   272
1070
     2
1070
    48
1040
0.0
1070
    47
1040
0.0
1002
}
  0
DIMENSION
  5
24B
330
6C
100
AcDbEntity
  8
Dimension (ANSI)
100
AcDbDimension
  2
*D5
 10
8.800596810107073
 20
11.85892462060609
 30
0.0
 11
8.800596810107073
 21
20.07874392027946
 31
0.0
 70
   160
  1
<>
 42
14.2
  3
Default (ANSI)
100
AcDbAlignedDimension
 13
14.67585973442776
 23
26.05892462060609
 33
0.0
 14
14.67585973442777
 24
11.85892462060609
 34
0.0
 50
270.0
100
AcDbRotatedDimension
1001
ACAD
1000
DSTYLE
1002
{
1070
   289
1070
     1
1070
   271
1070
     3
1070
   272
1070
     2
1070
    48
1040
0.0
1070
    47
1040
0.0
1002
}
  0
DIMENSION
  5
335
330
6C
100
AcDbEntity
  8
Dimension (ANSI)
100
AcDbDimension
  2
*D6
 10
14.65242159179661
 20
12.6251219556135
 30
0.0
 11
17.6449158543673
 21
7.366384607175749
 31
0.0
 70
   163
  1
<>{\PTYP.(4PL.)}
 42
0.5
  3
Default (ANSI)
100
AcDbDiametricDimension
 15
14.73929787705894
 25
12.13272728559867
 35
0.0
 40
0.0
1001
ACAD_DSTYLE_DIMRADIAL_EXTENSION
1070
   387
1070
     1
1070
   388
1040
0.0
1070
   390
1040
0.0
1001
ACAD
1000
DSTYLE
1002
{
1070
   145
1040
-0.25
1070
   144
1040
0.9999999999999964
1070
   271
1070
     3
1070
   272
1070
     2
1070
    48
1040
0.0
1070
    47
1040
0.0
1002
}
  0
DIMENSION
  5
3EF
330
6C
100
AcDbEntity
  8
Dimension (ANSI)
100
AcDbDimension
  2
*D7
 10
14.65541925863044
 20
13.27985053096373
 30
0.0
 11
17.65902445934115
 21
9.775667518679433
 31
0.0
 70
   163
  1
<>{\PTYP.(4PL.)}
 42
0.3125
  3
Default (ANSI)
100
AcDbDiametricDimension
 15
14.73630021022507
 25
12.97799871024841
 35
0.0
 40
0.0
1001
ACAD_DSTYLE_DIMRADIAL_EXTENSION
1070
   387
1070
     1
1070
   388
1040
0.0
1070
   390
1040
0.0
1001
ACAD
1000
DSTYLE
1002
{
1070
   145
1040
-0.25
1070
   144
1040
0.9999999999999715
1070
   271
1070
     3
1070
   272
1070
     2
1070
    48
1040
0.0
1070
    47
1040
0.0
1002
}
  0
DIMENSION
  5
4A8
330
6C
100
AcDbEntity
  8
Dimension (ANSI)
100
AcDbDimension
  2
*D8
 10
36.02098576304849
 20
22.35547321901453
 30
0.0
 11
38.22029153304711
 21
22.35547321901453
 31
0.0
 70
   160
  1
 12 GA.\P304 SS
 42
0.09375
  3
Default (ANSI)
100
AcDbAlignedDimension
 13
35.92723576304849
 23
20.78067006940823
 33
0.0
 14
36.02098576304849
 24
20.78067006940823
 34
0.0
 50
180.0
100
AcDbRotatedDimension
1001
ACAD
1000
DSTYLE
1002
{
1070
   289
1070
     1
1070
    73
1070
     0
1070
    74
1070
     0
1070
   145
1040
-0.25
1070
   271
1070
     3
1070
    76
1070
     1
1070
    75
1070
     1
1070
   272
1070
     2
1070
    48
1040
0.0
1070
    47
1040
0.0
1002
}
  0
DIMENSION
  5
597
330
6C
100
AcDbEntity
  8
Dimension (ANSI)
100
AcDbDimension
  2
*D9
 10
10.85388016026362
 20
12.37892462060609
 30
0.0
 11
10.85388016026362
 21
18.20797456148959
 31
0.0
 70
   160
  1
<>
 42
13.16
  3
Default (ANSI)
100
AcDbAlignedDimension
 13
14.69585973442777
 23
25.53892462060609
 33
0.0
 14
14.69585973442777
 24
12.37892462060609
 34
0.0
 50
90.0
100
AcDbRotatedDimension
1001
ACAD
1000
DSTYLE
1002
{
1070
   289
1070
     1
1070
   271
1070
     3
1070
   272
1070
     2
1070
    48
1040
0.0
1070
    47
1040
0.0
1002
}
  0
DIMENSION
  5
681
330
6C
100
AcDbEntity
  8
Dimension (ANSI)
100
AcDbDimension
  2
*D10
 10
11.33187872822756
 20
12.37892462060609
 30
0.0
 11
12.56494961872741
 21
14.07915774365252
 31
0.0
 70
   160
  1
<>
 42
0.75
  3
Default (ANSI)
100
AcDbAlignedDimension
 13
14.69585973442777
 23
13.12892462060609
 33
0.0
 14
14.69585973442777
 24
12.37892462060609
 34
0.0
 50
90.0
100
AcDbRotatedDimension
1001
ACAD
1000
DSTYLE
1002
{
1070
   289
1070
     1
1070
   271
1070
     3
1070
   272
1070
     2
1070
    48
1040
0.0
1070
    47
1040
0.0
1002
}
  0
DIMENSION
  5
780
330
6C
100
AcDbEntity
  8
Dimension (ANSI)
100
AcDbDimension
  2
*D11
 10
14.69585973442777
 20
28.49159217489858
 30
0.0
 11
19.27585973442777
 21
28.49159217489858
 31
0.0
 70
   160
  1
<>
 42
9.159999999999993
  3
Default (ANSI)
100
AcDbAlignedDimension
 13
23.85585973442777
 23
25.53892462060609
 33
0.0
 14
14.69585973442777
 24
25.53892462060609
 34
0.0
 50
180.0
100
AcDbRotatedDimension
1001
ACAD
1000
DSTYLE
1002
{
1070
   289
1070
     1
1070
    73
1070
     0
1070
    74
1070
     0
1070
   271
1070
     3
1070
   272
1070
     2
1070
    48
1040
0.0
1070
    47
1040
0.0
1002
}
  0
DIMENSION
  5
86A
330
6C
100
AcDbEntity
  8
Dimension (ANSI)
100
AcDbDimension
  2
*D12
 10
25.23156325989468
 20
11.85892462060609
 30
0.0
 11
26.46463415039453
 21
13.30915774365252
 31
0.0
 70
   160
  1
<>
 42
0.5000000000000018
  3
Default (ANSI)
100
AcDbAlignedDimension
 13
24.37585973442777
 23
12.35892462060609
 33
0.0
 14
23.87585973442777
 24
11.85892462060609
 34
0.0
 50
90.0
100
AcDbRotatedDimension
1001
ACAD
1000
DSTYLE
1002
{
1070
   289
1070
     1
1070
   271
1070
     3
1070
   272
1070
     2
1070
    48
1040
0.0
1070
    47
1040
0.0
1002
}
  0
DIMENSION
  5
968
330
6C
100
AcDbEntity
  8
Dimension (ANSI)
100
AcDbDimension
  2
*D13
 10
23.87585973442777
 20
10.00508436880894
 30
0.0
 11
21.91612176022586
 21
10.00508436880894
 31
0.0
 70
   160
  1
<>
 42
0.5
  3
Default (ANSI)
100
AcDbAlignedDimension
 13
24.37585973442777
 23
12.35892462060609
 33
0.0
 14
23.87585973442777
 24
11.85892462060609
 34
0.0
 50
180.0
100
AcDbRotatedDimension
1001
ACAD
1000
DSTYLE
1002
{
1070
   289
1070
     1
1070
    73
1070
     0
1070
    74
1070
     0
1070
   271
1070
     3
1070
   272
1070
     2
1070
    48
1040
0.0
1070
    47
1040
0.0
1002
}
  0
DIMENSION
  5
A52
330
6C
100
AcDbEntity
  8
Dimension (ANSI)
100
AcDbDimension
  2
*D14
 10
24.37585973442777
 20
27.11372777021239
 30
0.0
 11
21.90508153040536
 21
27.11372777021239
 31
0.0
 70
   160
  1
<>
 42
0.5199999999999996
  3
Default (ANSI)
100
AcDbAlignedDimension
 13
23.85585973442777
 23
25.53892462060609
 33
0.0
 14
24.37585973442777
 24
25.55892462060609
 34
0.0
 50
180.0
100
AcDbRotatedDimension
1001
ACAD
1000
DSTYLE
1002
{
1070
   289
1070
     1
1070
    73
1070
     0
1070
    74
1070
     0
1070
   271
1070
     3
1070
   272
1070
     2
1070
    48
1040
0.0
1070
    47
1040
0.0
1002
}
  0
DIMENSION
  5
B3C
330
6C
100
AcDbEntity
  8
Dimension (ANSI)
100
AcDbDimension
  2
*D15
 10
27.06865928629088
 20
26.05892462060609
 30
0.0
 11
25.83558839579103
 21
24.48713801680882
 31
0.0
 70
   160
  1
<>
 42
0.5199999999999996
  3
Default (ANSI)
100
AcDbAlignedDimension
 13
23.85585973442777
 23
25.53892462060609
 33
0.0
 14
23.87585973442777
 24
26.05892462060609
 34
0.0
 50
270.0
100
AcDbRotatedDimension
1001
ACAD
1000
DSTYLE
1002
{
1070
   289
1070
     1
1070
   271
1070
     3
1070
   272
1070
     2
1070
    48
1040
0.0
1070
    47
1040
0.0
1002
}
  0
MTEXT
  5
C3A
102
{ACAD_XDICTIONARY
360
C4A
102
}
330
6C
100
AcDbEntity
  8
Symbol (ANSI)
100
AcDbMText
 10
29.76889347197178
 20
8.754468626048915
 30
0.0
 40
0.4000000049435874
 41
25.24058895134067
 71
     1
 72
     1
  1
{\fRomanS|b0|i0|c0|p2;\H2x;PART#: NP1612SSC\P(DATA SUBJECT TO CHANGE WITHOUT NOTICE) \P\H0.6x;THIS DRAWING IS PROPERTY OF HUBBELL INC. WIEGMANN\PALL INFORMATION IS PROPRIETARY AND NOT TO BE DUPLICATED}
  7
Note Text (ANSI)
 73
     1
 44
1.003304600715637
1001
ACAD
1000
MTEXTBEGIN
1070
    73
1070
     1
1070
    44
1040
1.003304600715637
1070
    74
1070
     0
1000
MTEXTEND
  0
ENDSEC
  0
SECTION
  2
OBJECTS
  0
DICTIONARY
  5
C
330
0
100
AcDbDictionary
281
     1
  3
ACAD_CIP_PREVIOUS_PRODUCT_INFO
350
C3C
  3
ACAD_COLOR
350
63
  3
ACAD_GROUP
350
D
  3
ACAD_LAYOUT
350
62
  3
ACAD_MATERIAL
350
10
  3
ACAD_MLEADERSTYLE
350
66
  3
ACAD_MLINESTYLE
350
5F
  3
ACAD_PLOTSETTINGS
350
61
  3
ACAD_PLOTSTYLENAME
350
E
  3
ACAD_SCALELIST
350
42
  3
ACAD_TABLESTYLE
350
64
  3
ACAD_VISUALSTYLE
350
29
  3
ACDB_RECOMPOSE_DATA
350
C4C
  3
AcDbVariableDictionary
350
76
  3
DWGPROPS
350
C4D
  0
DICTIONARY
  5
C89
330
3E9
100
AcDbDictionary
280
     1
281
     1
  3
ACAD_MTEXT_RT
360
C8A
  0
DICTIONARY
  5
C8B
330
4A2
100
AcDbDictionary
280
     1
281
     1
  3
ACAD_MTEXT_RT
360
C8C
  0
DICTIONARY
  5
C4A
330
C3A
100
AcDbDictionary
280
     1
281
     1
  3
ACAD_MTEXT_2008_RT
360
C4B
  0
XRECORD
  5
C3C
102
{ACAD_REACTORS
330
C
102
}
330
C
100
AcDbXrecord
280
     1
300
INVNTOR
300
2012
300
85795PDSP_2012_0F
  0
DICTIONARY
  5
63
102
{ACAD_REACTORS
330
C
102
}
330
C
100
AcDbDictionary
281
     1
  0
DICTIONARY
  5
D
102
{ACAD_REACTORS
330
C
102
}
330
C
100
AcDbDictionary
281
     1
  0
DICTIONARY
  5
62
102
{ACAD_REACTORS
330
C
102
}
330
C
100
AcDbDictionary
281
     1
  3
Layout1
350
6B
  3
Layout2
350
73
  3
Model
350
6F
  0
DICTIONARY
  5
10
102
{ACAD_REACTORS
330
C
102
}
330
C
100
AcDbDictionary
281
     1
  3
ByBlock
350
19
  3
ByLayer
350
11
  3
Global
350
21
  0
DICTIONARY
  5
66
102
{ACAD_REACTORS
330
C
102
}
330
C
100
AcDbDictionary
281
     1
  3
Standard
350
67
  0
DICTIONARY
  5
5F
102
{ACAD_REACTORS
330
C
102
}
330
C
100
AcDbDictionary
281
     1
  3
Standard
350
60
  0
DICTIONARY
  5
61
102
{ACAD_REACTORS
330
C
102
}
330
C
100
AcDbDictionary
281
     1
  0
ACDBDICTIONARYWDFLT
  5
E
102
{ACAD_REACTORS
330
C
102
}
330
C
100
AcDbDictionary
281
     1
  3
Normal
350
F
100
AcDbDictionaryWithDefault
340
F
  0
DICTIONARY
  5
42
102
{ACAD_REACTORS
330
C
102
}
330
C
100
AcDbDictionary
281
     1
  3
A0
350
43
  3
A1
350
44
  3
A2
350
45
  3
A3
350
46
  3
A4
350
47
  3
A5
350
48
  3
A6
350
49
  3
A7
350
4A
  3
A8
350
4B
  3
A9
350
4C
  3
B0
350
4D
  3
B1
350
4E
  3
B2
350
4F
  3
B3
350
50
  3
B4
350
51
  3
B5
350
52
  3
B6
350
53
  0
DICTIONARY
  5
64
102
{ACAD_REACTORS
330
C
102
}
330
C
100
AcDbDictionary
281
     1
  3
Standard
350
65
  0
DICTIONARY
  5
29
102
{ACAD_REACTORS
330
C
102
}
330
C
100
AcDbDictionary
281
     1
  3
2dWireframe
350
2F
  3
Basic
350
2E
  3
Brighten
350
35
  3
ColorChange
350
39
  3
Conceptual
350
32
  3
Dim
350
34
  3
EdgeColorOff
350
41
  3
Facepattern
350
38
  3
Flat
350
2A
  3
FlatWithEdges
350
2B
  3
Gouraud
350
2C
  3
GouraudWithEdges
350
2D
  3
Hidden
350
31
  3
JitterOff
350
3F
  3
Linepattern
350
37
  3
OverhangOff
350
40
  3
Realistic
350
33
  3
Shaded
350
3E
  3
Shaded with edges
350
3D
  3
Shades of Gray
350
3A
  3
Sketchy
350
3B
  3
Thicken
350
36
  3
Wireframe
350
30
  3
X-Ray
350
3C
  0
XRECORD
  5
C4C
102
{ACAD_REACTORS
330
C
102
}
330
C
100
AcDbXrecord
280
     1
 90
        1
330
65
330
C3A
  0
DICTIONARY
  5
76
102
{ACAD_REACTORS
330
C
102
}
330
C
100
AcDbDictionary
281
     1
  3
CANNOSCALE
350
79
  3
CMLEADERSTYLE
350
78
  3
CTABLESTYLE
350
77
  3
DIMASSOC
350
C44
  3
HIDETEXT
350
C43
  3
INDEXCTL
350
C42
  3
LAYEREVAL
350
C3F
  3
LAYERNOTIFY
350
C40
  3
LIGHTINGUNITS
350
C3E
  3
MSLTSCALE
350
C3D
  3
SORTENTS
350
C41
  3
XCLIPFRAME
350
C45
  0
XRECORD
  5
C4D
102
{ACAD_REACTORS
330
C
102
}
330
C
100
AcDbXrecord
280
     1
  1
DWGPROPS COOKIE
  2

  3

  4
dnichola
  6

  7

  8

  9
-
300
Manager=
301
Company=
302
Category=
303
Part Number=NP1612SSC-S
304
Description=
305
Project=
306
Designer=dnichola
307
Engineer=
308
Authority=
309
Cost Center=
 40
0.0000331018518519
 41
2455944.597784294
 42
2455944.597784294
  1

 90
       19
300
Vendor=
300
User Status=
300
Design Status=WorkInProgress
300
Checked by=
300
Engr Approved by=
300
Mfg Approved by=
300
DWG. NO=
300
NUMBER OF SHEETS=1
300
DRAWING #=
  0
XRECORD
  5
C8A
102
{ACAD_REACTORS
330
C89
102
}
330
C89
100
AcDbXrecord
280
     1
 40
31446.0
  1
\A1;\U+22050.500{\PTYP.(4PL.)}
  0
XRECORD
  5
C8C
102
{ACAD_REACTORS
330
C8B
102
}
330
C8B
100
AcDbXrecord
280
     1
 40
31481.0
  1
\A1;\U+22050.313{\PTYP.(4PL.)}
  0
XRECORD
  5
C4B
102
{ACAD_REACTORS
330
C4A
102
}
330
C4A
100
AcDbXrecord
280
     1
 40
1423057.0
  1
\pxsm0.94;{\fRomanS|b0|i0;\H0.8000;PART#: NP1612SSC\P(DATA SUBJECT TO CHANGE WITHOUT NOTICE) \P\fRomanS|b0|i0;\H0.4800;THIS DRAWING IS PROPERTY OF HUBBELL INC. WIEGMANN\PALL INFORMATION IS PROPRIETARY AND NOT TO BE DUPLICATED}
  0
LAYOUT
  5
6B
102
{ACAD_XDICTIONARY
360
C83
102
}
102
{ACAD_REACTORS
330
62
102
}
330
62
100
AcDbPlotSettings
  1

  2

  4

  6

 40
0.0
 41
0.0
 42
0.0
 43
0.0
 44
0.0
 45
0.0
 46
0.0
 47
0.0
 48
0.0
 49
0.0
140
0.0
141
0.0
142
1.0
143
1.0
 70
   688
 72
     0
 73
     0
 74
     5
  7

 75
    16
147
1.0
148
0.0
149
0.0
100
AcDbLayout
  1
Layout1
 70
     1
 71
     1
 10
0.0
 20
0.0
 11
12.0
 21
9.0
 12
0.0
 22
0.0
 32
0.0
 14
0.0
 24
0.0
 34
0.0
 15
0.0
 25
0.0
 35
0.0
146
0.0
 13
0.0
 23
0.0
 33
0.0
 16
1.0
 26
0.0
 36
0.0
 17
0.0
 27
1.0
 37
0.0
 76
     0
330
68
  0
LAYOUT
  5
73
102
{ACAD_XDICTIONARY
360
C87
102
}
102
{ACAD_REACTORS
330
62
102
}
330
62
100
AcDbPlotSettings
  1

  2

  4

  6

 40
0.0
 41
0.0
 42
0.0
 43
0.0
 44
0.0
 45
0.0
 46
0.0
 47
0.0
 48
0.0
 49
0.0
140
0.0
141
0.0
142
1.0
143
1.0
 70
   688
 72
     0
 73
     0
 74
     5
  7

 75
    16
147
1.0
148
0.0
149
0.0
100
AcDbLayout
  1
Layout2
 70
     1
 71
     2
 10
0.0
 20
0.0
 11
12.0
 21
9.0
 12
0.0
 22
0.0
 32
0.0
 14
0.0
 24
0.0
 34
0.0
 15
0.0
 25
0.0
 35
0.0
146
0.0
 13
0.0
 23
0.0
 33
0.0
 16
1.0
 26
0.0
 36
0.0
 17
0.0
 27
1.0
 37
0.0
 76
     0
330
70
  0
LAYOUT
  5
6F
102
{ACAD_XDICTIONARY
360
C85
102
}
102
{ACAD_REACTORS
330
62
102
}
330
62
100
AcDbPlotSettings
  1

  2

  4

  6

 40
0.0
 41
0.0
 42
0.0
 43
0.0
 44
0.0
 45
0.0
 46
0.0
 47
0.0
 48
0.0
 49
0.0
140
0.0
141
0.0
142
1.0
143
1.0
 70
  1712
 72
     0
 73
     0
 74
     0
  7

 75
     0
147
1.0
148
0.0
149
0.0
100
AcDbLayout
  1
Model
 70
     1
 71
     0
 10
0.0
 20
0.0
 11
12.0
 21
9.0
 12
0.0
 22
0.0
 32
0.0
 14
0.0
 24
0.0
 34
0.0
 15
0.0
 25
0.0
 35
0.0
146
0.0
 13
0.0
 23
0.0
 33
0.0
 16
1.0
 26
0.0
 36
0.0
 17
0.0
 27
1.0
 37
0.0
 76
     0
330
6C
  0
MATERIAL
  5
19
102
{ACAD_XDICTIONARY
360
1A
102
}
102
{ACAD_REACTORS
330
10
102
}
330
10
100
AcDbMaterial
  1
ByBlock
 72
     0
 43
0.0208333333333333
 43
0.0
 43
0.0
 43
0.0
 43
0.0
 43
0.0208333333333333
 43
0.0
 43
0.0
 43
0.0
 43
0.0
 43
1.0
 43
0.0
 43
0.0
 43
0.0
 43
0.0
 43
1.0
 77
     0
 47
0.0208333333333333
 47
0.0
 47
0.0
 47
0.0
 47
0.0
 47
0.0208333333333333
 47
0.0
 47
0.0
 47
0.0
 47
0.0
 47
1.0
 47
0.0
 47
0.0
 47
0.0
 47
0.0
 47
1.0
171
     0
 49
0.0208333333333333
 49
0.0
 49
0.0
 49
0.0
 49
0.0
 49
0.0208333333333333
 49
0.0
 49
0.0
 49
0.0
 49
0.0
 49
1.0
 49
0.0
 49
0.0
 49
0.0
 49
0.0
 49
1.0
175
     0
142
0.0208333333333333
142
0.0
142
0.0
142
0.0
142
0.0
142
0.0208333333333333
142
0.0
142
0.0
142
0.0
142
0.0
142
1.0
142
0.0
142
0.0
142
0.0
142
0.0
142
1.0
179
     0
144
0.0208333333333333
144
0.0
144
0.0
144
0.0
144
0.0
144
0.0208333333333333
144
0.0
144
0.0
144
0.0
144
0.0
144
1.0
144
0.0
144
0.0
144
0.0
144
0.0
144
1.0
147
0.0208333333333333
147
0.0
147
0.0
147
0.0
147
0.0
147
0.0208333333333333
147
0.0
147
0.0
147
0.0
147
0.0
147
1.0
147
0.0
147
0.0
147
0.0
147
0.0
147
1.0
  0
MATERIAL
  5
11
102
{ACAD_XDICTIONARY
360
12
102
}
102
{ACAD_REACTORS
330
10
102
}
330
10
100
AcDbMaterial
  1
ByLayer
 72
     0
 43
0.0208333333333333
 43
0.0
 43
0.0
 43
0.0
 43
0.0
 43
0.0208333333333333
 43
0.0
 43
0.0
 43
0.0
 43
0.0
 43
1.0
 43
0.0
 43
0.0
 43
0.0
 43
0.0
 43
1.0
 77
     0
 47
0.0208333333333333
 47
0.0
 47
0.0
 47
0.0
 47
0.0
 47
0.0208333333333333
 47
0.0
 47
0.0
 47
0.0
 47
0.0
 47
1.0
 47
0.0
 47
0.0
 47
0.0
 47
0.0
 47
1.0
171
     0
 49
0.0208333333333333
 49
0.0
 49
0.0
 49
0.0
 49
0.0
 49
0.0208333333333333
 49
0.0
 49
0.0
 49
0.0
 49
0.0
 49
1.0
 49
0.0
 49
0.0
 49
0.0
 49
0.0
 49
1.0
175
     0
142
0.0208333333333333
142
0.0
142
0.0
142
0.0
142
0.0
142
0.0208333333333333
142
0.0
142
0.0
142
0.0
142
0.0
142
1.0
142
0.0
142
0.0
142
0.0
142
0.0
142
1.0
179
     0
144
0.0208333333333333
144
0.0
144
0.0
144
0.0
144
0.0
144
0.0208333333333333
144
0.0
144
0.0
144
0.0
144
0.0
144
1.0
144
0.0
144
0.0
144
0.0
144
0.0
144
1.0
147
0.0208333333333333
147
0.0
147
0.0
147
0.0
147
0.0
147
0.0208333333333333
147
0.0
147
0.0
147
0.0
147
0.0
147
1.0
147
0.0
147
0.0
147
0.0
147
0.0
147
1.0
  0
MATERIAL
  5
21
102
{ACAD_XDICTIONARY
360
22
102
}
102
{ACAD_REACTORS
330
10
102
}
330
10
100
AcDbMaterial
  1
Global
 72
     0
 43
0.0208333333333333
 43
0.0
 43
0.0
 43
0.0
 43
0.0
 43
0.0208333333333333
 43
0.0
 43
0.0
 43
0.0
 43
0.0
 43
1.0
 43
0.0
 43
0.0
 43
0.0
 43
0.0
 43
1.0
 77
     0
 47
0.0208333333333333
 47
0.0
 47
0.0
 47
0.0
 47
0.0
 47
0.0208333333333333
 47
0.0
 47
0.0
 47
0.0
 47
0.0
 47
1.0
 47
0.0
 47
0.0
 47
0.0
 47
0.0
 47
1.0
171
     0
 49
0.0208333333333333
 49
0.0
 49
0.0
 49
0.0
 49
0.0
 49
0.0208333333333333
 49
0.0
 49
0.0
 49
0.0
 49
0.0
 49
1.0
 49
0.0
 49
0.0
 49
0.0
 49
0.0
 49
1.0
175
     0
142
0.0208333333333333
142
0.0
142
0.0
142
0.0
142
0.0
142
0.0208333333333333
142
0.0
142
0.0
142
0.0
142
0.0
142
1.0
142
0.0
142
0.0
142
0.0
142
0.0
142
1.0
179
     0
144
0.0208333333333333
144
0.0
144
0.0
144
0.0
144
0.0
144
0.0208333333333333
144
0.0
144
0.0
144
0.0
144
0.0
144
1.0
144
0.0
144
0.0
144
0.0
144
0.0
144
1.0
147
0.0208333333333333
147
0.0
147
0.0
147
0.0
147
0.0
147
0.0208333333333333
147
0.0
147
0.0
147
0.0
147
0.0
147
1.0
147
0.0
147
0.0
147
0.0
147
0.0
147
1.0
  0
MLEADERSTYLE
  5
67
102
{ACAD_XDICTIONARY
360
C48
102
}
102
{ACAD_REACTORS
330
66
102
}
330
66
100
AcDbMLeaderStyle
170
     2
171
     1
172
     0
 90
        2
 40
0.0
 41
0.0
173
     1
 91
-1056964608
340
5B
 92
       -2
290
     1
 42
0.09
291
     1
 43
0.36
  3
Standard
 44
0.18
300

342
55
174
     1
178
     6
175
     1
176
     0
 93
-1056964608
 45
0.18
292
     0
297
     0
 46
0.18
 94
-1056964608
 47
1.0
 49
1.0
140
1.0
293
     1
141
0.0
294
     1
177
     0
142
1.0
295
     0
296
     0
143
0.125
1001
ACAD_MLEADERVER
1070
     2
  0
MLINESTYLE
  5
60
102
{ACAD_REACTORS
330
5F
102
}
330
5F
100
AcDbMlineStyle
  2
STANDARD
 70
     0
  3

 62
   256
 51
90.0
 52
90.0
 71
     2
 49
0.5
 62
   256
  6
BYLAYER
 49
-0.5
 62
   256
  6
BYLAYER
  0
ACDBPLACEHOLDER
  5
F
102
{ACAD_REACTORS
330
E
102
}
330
E
  0
SCALE
  5
43
102
{ACAD_REACTORS
330
42
102
}
330
42
100
AcDbScale
 70
     0
300
1:1
140
1.0
141
1.0
290
     1
  0
SCALE
  5
44
102
{ACAD_REACTORS
330
42
102
}
330
42
100
AcDbScale
 70
     0
300
1/128" = 1'-0"
140
0.0078125
141
12.0
290
     0
  0
SCALE
  5
45
102
{ACAD_REACTORS
330
42
102
}
330
42
100
AcDbScale
 70
     0
300
1/64" = 1'-0"
140
0.015625
141
12.0
290
     0
  0
SCALE
  5
46
102
{ACAD_REACTORS
330
42
102
}
330
42
100
AcDbScale
 70
     0
300
1/32" = 1'-0"
140
0.03125
141
12.0
290
     0
  0
SCALE
  5
47
102
{ACAD_REACTORS
330
42
102
}
330
42
100
AcDbScale
 70
     0
300
1/16" = 1'-0"
140
0.0625
141
12.0
290
     0
  0
SCALE
  5
48
102
{ACAD_REACTORS
330
42
102
}
330
42
100
AcDbScale
 70
     0
300
3/32" = 1'-0"
140
0.09375
141
12.0
290
     0
  0
SCALE
  5
49
102
{ACAD_REACTORS
330
42
102
}
330
42
100
AcDbScale
 70
     0
300
1/8" = 1'-0"
140
0.125
141
12.0
290
     0
  0
SCALE
  5
4A
102
{ACAD_REACTORS
330
42
102
}
330
42
100
AcDbScale
 70
     0
300
3/16" = 1'-0"
140
0.1875
141
12.0
290
     0
  0
SCALE
  5
4B
102
{ACAD_REACTORS
330
42
102
}
330
42
100
AcDbScale
 70
     0
300
1/4" = 1'-0"
140
0.25
141
12.0
290
     0
  0
SCALE
  5
4C
102
{ACAD_REACTORS
330
42
102
}
330
42
100
AcDbScale
 70
     0
300
3/8" = 1'-0"
140
0.375
141
12.0
290
     0
  0
SCALE
  5
4D
102
{ACAD_REACTORS
330
42
102
}
330
42
100
AcDbScale
 70
     0
300
1/2" = 1'-0"
140
0.5
141
12.0
290
     0
  0
SCALE
  5
4E
102
{ACAD_REACTORS
330
42
102
}
330
42
100
AcDbScale
 70
     0
300
3/4" = 1'-0"
140
0.75
141
12.0
290
     0
  0
SCALE
  5
4F
102
{ACAD_REACTORS
330
42
102
}
330
42
100
AcDbScale
 70
     0
300
1" = 1'-0"
140
1.0
141
12.0
290
     0
  0
SCALE
  5
50
102
{ACAD_REACTORS
330
42
102
}
330
42
100
AcDbScale
 70
     0
300
1-1/2" = 1'-0"
140
1.5
141
12.0
290
     0
  0
SCALE
  5
51
102
{ACAD_REACTORS
330
42
102
}
330
42
100
AcDbScale
 70
     0
300
3" = 1'-0"
140
3.0
141
12.0
290
     0
  0
SCALE
  5
52
102
{ACAD_REACTORS
330
42
102
}
330
42
100
AcDbScale
 70
     0
300
6" = 1'-0"
140
6.0
141
12.0
290
     0
  0
SCALE
  5
53
102
{ACAD_REACTORS
330
42
102
}
330
42
100
AcDbScale
 70
     0
300
1'-0" = 1'-0"
140
12.0
141
12.0
290
     0
  0
TABLESTYLE
  5
65
102
{ACAD_XDICTIONARY
360
C46
102
}
102
{ACAD_REACTORS
330
64
102
}
330
64
100
AcDbTableStyle
  3
Standard
 70
     0
 71
     0
 40
0.06
 41
0.06
280
     0
281
     0
  7
Standard
140
0.18
170
     2
 62
     0
 63
     7
283
     0
274
    -2
284
     1
 64
     0
275
    -2
285
     1
 65
     0
276
    -2
286
     1
 66
     0
277
    -2
287
     1
 67
     0
278
    -2
288
     1
 68
     0
279
    -2
289
     1
 69
     0
  7
Standard
140
0.25
170
     5
 62
     0
 63
     7
283
     0
274
    -2
284
     1
 64
     0
275
    -2
285
     1
 65
     0
276
    -2
286
     1
 66
     0
277
    -2
287
     1
 67
     0
278
    -2
288
     1
 68
     0
279
    -2
289
     1
 69
     0
  7
Standard
140
0.18
170
     5
 62
     0
 63
     7
283
     0
274
    -2
284
     1
 64
     0
275
    -2
285
     1
 65
     0
276
    -2
286
     1
 66
     0
277
    -2
287
     1
 67
     0
278
    -2
288
     1
 68
     0
279
    -2
289
     1
 69
     0
  0
VISUALSTYLE
  5
2F
102
{ACAD_XDICTIONARY
360
C5B
102
}
102
{ACAD_REACTORS
330
29
102
}
330
29
100
AcDbVisualStyle
  2
2dWireframe
 70
     4
 71
     0
 72
     2
 73
     0
 90
        0
 40
-0.6
 41
-30.0
 62
     5
 63
     7
 74
     1
 91
        4
 64
     7
 65
   257
 75
     1
175
     1
 42
1.0
 92
        0
 66
   257
 43
1.0
 76
     1
 77
     6
 78
     2
 67
     7
 79
     5
170
     0
171
     0
290
     0
174
     0
 93
        1
 44
0.0
173
     0
291
     0
 45
0.0
1001
ACAD
1000
AcDbSavedByObjectVersion
1070
     0
  0
VISUALSTYLE
  5
2E
102
{ACAD_XDICTIONARY
360
C59
102
}
102
{ACAD_REACTORS
330
29
102
}
330
29
100
AcDbVisualStyle
  2
Basic
 70
     7
 71
     1
 72
     0
 73
     1
 90
        0
 40
-0.6
 41
-30.0
 62
     5
 63
     7
 74
     0
 91
        4
 64
     7
 65
   257
 75
     1
175
     1
 42
1.0
 92
        8
 66
     7
 43
1.0
 76
     1
 77
     6
 78
     2
 67
     7
 79
     5
170
     0
171
     0
290
     0
174
     0
 93
        1
 44
0.0
173
     0
291
     1
 45
0.0
1001
ACAD
1000
AcDbSavedByObjectVersion
1070
     0
  0
VISUALSTYLE
  5
35
102
{ACAD_XDICTIONARY
360
C67
102
}
102
{ACAD_REACTORS
330
29
102
}
330
29
100
AcDbVisualStyle
  2
Brighten
 70
    12
 71
     2
 72
     2
 73
     0
 90
        0
 40
-0.6
 41
-30.0
 62
     5
 63
     7
 74
     1
 91
        4
 64
     7
 65
   257
 75
     1
175
     1
 42
1.0
 92
        8
 66
     7
 43
1.0
 76
     1
 77
     6
 78
     2
 67
     7
 79
     5
170
     0
171
     0
290
     0
174
     0
 93
        1
 44
50.0
173
     0
291
     1
 45
0.0
1001
ACAD
1000
AcDbSavedByObjectVersion
1070
     0
  0
VISUALSTYLE
  5
39
102
{ACAD_XDICTIONARY
360
C6F
102
}
102
{ACAD_REACTORS
330
29
102
}
330
29
100
AcDbVisualStyle
  2
ColorChange
 70
    16
 71
     2
 72
     2
 73
     3
 90
        0
 40
-0.6
 41
-30.0
 62
     5
 63
     8
 74
     1
 91
        4
 64
     7
 65
   257
 75
     1
175
     1
 42
1.0
 92
        8
 66
     8
 43
1.0
 76
     1
 77
     6
 78
     2
 67
     7
 79
     5
170
     0
171
     0
290
     0
174
     0
 93
        1
 44
0.0
173
     0
291
     1
 45
0.0
1001
ACAD
1000
AcDbSavedByObjectVersion
1070
     0
  0
VISUALSTYLE
  5
32
102
{ACAD_XDICTIONARY
360
C61
102
}
102
{ACAD_REACTORS
330
29
102
}
330
29
100
AcDbVisualStyle
  2
Conceptual
 70
     9
 71
     3
 72
     2
 73
     0
 90
        0
 40
-0.6
 41
-30.0
 62
     5
 63
     7
 74
     2
 91
        2
 64
     7
 65
   257
 75
     1
175
     1
 42
179.0
 92
        8
 66
     7
 43
1.0
 76
     1
 77
     6
 78
     2
 67
     7
 79
     3
170
     0
171
     0
290
     0
174
     0
 93
        1
 44
0.0
173
     0
291
     0
 45
0.0
1001
ACAD
1000
AcDbSavedByObjectVersion
1070
     0
  0
VISUALSTYLE
  5
34
102
{ACAD_XDICTIONARY
360
C65
102
}
102
{ACAD_REACTORS
330
29
102
}
330
29
100
AcDbVisualStyle
  2
Dim
 70
    11
 71
     2
 72
     2
 73
     0
 90
        0
 40
-0.6
 41
-30.0
 62
     5
 63
     7
 74
     1
 91
        4
 64
     7
 65
   257
 75
     1
175
     1
 42
1.0
 92
        8
 66
     7
 43
1.0
 76
     1
 77
     6
 78
     2
 67
     7
 79
     5
170
     0
171
     0
290
     0
174
     0
 93
        1
 44
-50.0
173
     0
291
     1
 45
0.0
1001
ACAD
1000
AcDbSavedByObjectVersion
1070
     0
  0
VISUALSTYLE
  5
41
102
{ACAD_XDICTIONARY
360
C7F
102
}
102
{ACAD_REACTORS
330
29
102
}
330
29
100
AcDbVisualStyle
  2
EdgeColorOff
 70
    22
 71
     2
 72
     2
 73
     0
 90
        0
 40
-0.6
 41
-30.0
 62
     5
 63
     7
 74
     1
 91
        4
 64
     7
 65
   257
 75
     1
175
     1
 42
1.0
 92
        8
 66
     7
 43
1.0
 76
     1
 77
     6
 78
     2
 67
     7
 79
     5
170
     0
171
     0
290
     0
174
     0
 93
        1
 44
0.0
173
     0
291
     1
 45
0.0
1001
ACAD
1000
AcDbSavedByObjectVersion
1070
     0
  0
VISUALSTYLE
  5
38
102
{ACAD_XDICTIONARY
360
C6D
102
}
102
{ACAD_REACTORS
330
29
102
}
330
29
100
AcDbVisualStyle
  2
Facepattern
 70
    15
 71
     2
 72
     2
 73
     0
 90
        0
 40
-0.6
 41
-30.0
 62
     5
 63
     7
 74
     1
 91
        4
 64
     7
 65
   257
 75
     1
175
     1
 42
1.0
 92
        8
 66
     7
 43
1.0
 76
     1
 77
     6
 78
     2
 67
     7
 79
     5
170
     0
171
     0
290
     0
174
     0
 93
        1
 44
0.0
173
     0
291
     1
 45
0.0
1001
ACAD
1000
AcDbSavedByObjectVersion
1070
     0
  0
VISUALSTYLE
  5
2A
102
{ACAD_XDICTIONARY
360
C51
102
}
102
{ACAD_REACTORS
330
29
102
}
330
29
100
AcDbVisualStyle
  2
Flat
 70
     0
 71
     2
 72
     1
 73
     1
 90
        2
 40
-0.6
 41
30.0
 62
     5
 63
     7
 74
     0
 91
        0
 64
     7
 65
   257
 75
     1
175
     1
 42
1.0
 92
        8
 66
     7
 43
1.0
 76
     1
 77
     6
 78
     2
 67
     7
 79
     5
170
     0
171
     0
290
     0
174
     0
 93
       13
 44
0.0
173
     0
291
     1
 45
0.0
1001
ACAD
1000
AcDbSavedByObjectVersion
1070
     0
  0
VISUALSTYLE
  5
2B
102
{ACAD_XDICTIONARY
360
C53
102
}
102
{ACAD_REACTORS
330
29
102
}
330
29
100
AcDbVisualStyle
  2
FlatWithEdges
 70
     1
 71
     2
 72
     1
 73
     1
 90
        2
 40
-0.6
 41
30.0
 62
     5
 63
     7
 74
     1
 91
        0
 64
     7
 65
   257
 75
     1
175
     1
 42
1.0
 92
        0
 66
   257
 43
1.0
 76
     1
 77
     6
 78
     2
 67
     7
 79
     5
170
     0
171
     0
290
     0
174
     0
 93
       13
 44
0.0
173
     0
291
     1
 45
0.0
1001
ACAD
1000
AcDbSavedByObjectVersion
1070
     0
  0
VISUALSTYLE
  5
2C
102
{ACAD_XDICTIONARY
360
C55
102
}
102
{ACAD_REACTORS
330
29
102
}
330
29
100
AcDbVisualStyle
  2
Gouraud
 70
     2
 71
     2
 72
     2
 73
     1
 90
        2
 40
-0.6
 41
30.0
 62
     5
 63
     7
 74
     0
 91
        0
 64
     7
 65
   257
 75
     1
175
     1
 42
1.0
 92
        0
 66
     7
 43
1.0
 76
     1
 77
     6
 78
     2
 67
     7
 79
     5
170
     0
171
     0
290
     0
174
     0
 93
       13
 44
0.0
173
     0
291
     1
 45
0.0
1001
ACAD
1000
AcDbSavedByObjectVersion
1070
     0
  0
VISUALSTYLE
  5
2D
102
{ACAD_XDICTIONARY
360
C57
102
}
102
{ACAD_REACTORS
330
29
102
}
330
29
100
AcDbVisualStyle
  2
GouraudWithEdges
 70
     3
 71
     2
 72
     2
 73
     1
 90
        2
 40
-0.6
 41
30.0
 62
     5
 63
     7
 74
     1
 91
        0
 64
     7
 65
   257
 75
     1
175
     1
 42
1.0
 92
        0
 66
   257
 43
1.0
 76
     1
 77
     6
 78
     2
 67
     7
 79
     5
170
     0
171
     0
290
     0
174
     0
 93
       13
 44
0.0
173
     0
291
     1
 45
0.0
1001
ACAD
1000
AcDbSavedByObjectVersion
1070
     0
  0
VISUALSTYLE
  5
31
102
{ACAD_XDICTIONARY
360
C5F
102
}
102
{ACAD_REACTORS
330
29
102
}
330
29
100
AcDbVisualStyle
  2
Hidden
 70
     6
 71
     1
 72
     2
 73
     2
 90
        0
 40
-0.6
 41
-30.0
 62
     5
 63
     7
 74
     2
 91
        2
 64
     7
 65
   257
 75
     2
175
     1
 42
40.0
 92
        0
 66
   257
 43
1.0
 76
     1
 77
     6
 78
     2
 67
     7
 79
     3
170
     0
171
     0
290
     0
174
     0
 93
        1
 44
0.0
173
     0
291
     0
 45
0.0
1001
ACAD
1000
AcDbSavedByObjectVersion
1070
     0
  0
VISUALSTYLE
  5
3F
102
{ACAD_XDICTIONARY
360
C7B
102
}
102
{ACAD_REACTORS
330
29
102
}
330
29
100
AcDbVisualStyle
  2
JitterOff
 70
    20
 71
     2
 72
     2
 73
     0
 90
        0
 40
-0.6
 41
-30.0
 62
     5
 63
     7
 74
     1
 91
        4
 64
     7
 65
   257
 75
     1
175
     1
 42
1.0
 92
       10
 66
     7
 43
1.0
 76
     1
 77
     6
 78
     2
 67
     7
 79
     5
170
     0
171
     0
290
     0
174
     0
 93
        1
 44
0.0
173
     0
291
     1
 45
0.0
1001
ACAD
1000
AcDbSavedByObjectVersion
1070
     0
  0
VISUALSTYLE
  5
37
102
{ACAD_XDICTIONARY
360
C6B
102
}
102
{ACAD_REACTORS
330
29
102
}
330
29
100
AcDbVisualStyle
  2
Linepattern
 70
    14
 71
     2
 72
     2
 73
     0
 90
        0
 40
-0.6
 41
-30.0
 62
     5
 63
     7
 74
     1
 91
        4
 64
     7
 65
   257
 75
     7
175
     7
 42
1.0
 92
        8
 66
     7
 43
1.0
 76
     1
 77
     6
 78
     2
 67
     7
 79
     5
170
     0
171
     0
290
     0
174
     0
 93
        1
 44
0.0
173
     0
291
     1
 45
0.0
1001
ACAD
1000
AcDbSavedByObjectVersion
1070
     0
  0
VISUALSTYLE
  5
40
102
{ACAD_XDICTIONARY
360
C7D
102
}
102
{ACAD_REACTORS
330
29
102
}
330
29
100
AcDbVisualStyle
  2
OverhangOff
 70
    21
 71
     2
 72
     2
 73
     0
 90
        0
 40
-0.6
 41
-30.0
 62
     5
 63
     7
 74
     1
 91
        4
 64
     7
 65
   257
 75
     1
175
     1
 42
1.0
 92
        9
 66
     7
 43
1.0
 76
     1
 77
     6
 78
     2
 67
     7
 79
     5
170
     0
171
     0
290
     0
174
     0
 93
        1
 44
0.0
173
     0
291
     1
 45
0.0
1001
ACAD
1000
AcDbSavedByObjectVersion
1070
     0
  0
VISUALSTYLE
  5
33
102
{ACAD_XDICTIONARY
360
C63
102
}
102
{ACAD_REACTORS
330
29
102
}
330
29
100
AcDbVisualStyle
  2
Realistic
 70
     8
 71
     2
 72
     3
 73
     0
 90
        2
 40
-0.6
 41
30.0
 62
     5
 63
     7
 74
     0
 91
        0
 64
     7
 65
   257
 75
     1
175
     1
 42
1.0
 92
        8
 66
   257
 43
1.0
 76
     1
 77
     6
 78
     2
 67
     7
 79
     3
170
     0
171
     0
290
     0
174
     0
 93
       13
 44
0.0
173
     0
291
     0
 45
0.0
1001
ACAD
1000
AcDbSavedByObjectVersion
1070
     0
  0
VISUALSTYLE
  5
3E
102
{ACAD_XDICTIONARY
360
C79
102
}
102
{ACAD_REACTORS
330
29
102
}
330
29
100
AcDbVisualStyle
  2
Shaded
 70
    27
 71
     2
 72
     2
 73
     1
 90
        2
 40
-0.6
 41
30.0
 62
     5
 63
     7
 74
     0
 91
        4
 64
     7
 65
   257
 75
     1
175
     1
 42
1.0
 92
        8
 66
   257
 43
1.0
 76
     1
 77
     6
 78
     2
 67
     8
 79
     3
170
     0
171
     0
290
     0
174
     0
 93
        5
 44
0.0
173
     0
291
     0
 45
0.0
1001
ACAD
1000
AcDbSavedByObjectVersion
1070
     0
  0
VISUALSTYLE
  5
3D
102
{ACAD_XDICTIONARY
360
C77
102
}
102
{ACAD_REACTORS
330
29
102
}
330
29
100
AcDbVisualStyle
  2
Shaded with edges
 70
    26
 71
     2
 72
     2
 73
     1
 90
        2
 40
-0.6
 41
30.0
 62
     5
 63
     7
 74
     1
 91
       10
 64
     7
 65
   257
 75
     2
175
     1
 42
1.0
 92
        8
 66
   257
 43
1.0
 76
     1
 77
     6
 78
     2
 67
     7
 79
     3
170
     0
171
     0
290
     0
174
     0
 93
        5
 44
0.0
173
     0
291
     0
 45
0.0
1001
ACAD
1000
AcDbSavedByObjectVersion
1070
     0
  0
VISUALSTYLE
  5
3A
102
{ACAD_XDICTIONARY
360
C71
102
}
102
{ACAD_REACTORS
330
29
102
}
330
29
100
AcDbVisualStyle
  2
Shades of Gray
 70
    23
 71
     2
 72
     2
 73
     3
 90
        0
 40
-0.6
 41
-30.0
 62
     5
 63
     7
 74
     2
 91
        2
 64
     7
 65
     7
 75
     1
175
     1
 42
40.0
 92
        8
 66
     7
 43
1.0
 76
     1
 77
     6
 78
     2
 67
     7
 79
     3
170
     0
171
     0
290
     0
174
     0
 93
        1
 44
0.0
173
     0
291
     0
 45
0.0
1001
ACAD
1000
AcDbSavedByObjectVersion
1070
     0
  0
VISUALSTYLE
  5
3B
102
{ACAD_XDICTIONARY
360
C73
102
}
102
{ACAD_REACTORS
330
29
102
}
330
29
100
AcDbVisualStyle
  2
Sketchy
 70
    24
 71
     1
 72
     2
 73
     2
 90
        0
 40
-0.6
 41
-30.0
 62
     5
 63
     7
 74
     2
 91
        2
 64
     7
 65
     7
 75
     1
175
     1
 42
40.0
 92
       11
 66
     7
 43
1.0
 76
     1
 77
     6
 78
     2
 67
     7
 79
     6
170
     0
171
     0
290
     0
174
     0
 93
        1
 44
0.0
173
     0
291
     0
 45
0.0
1001
ACAD
1000
AcDbSavedByObjectVersion
1070
     0
  0
VISUALSTYLE
  5
36
102
{ACAD_XDICTIONARY
360
C69
102
}
102
{ACAD_REACTORS
330
29
102
}
330
29
100
AcDbVisualStyle
  2
Thicken
 70
    13
 71
     2
 72
     2
 73
     0
 90
        0
 40
-0.6
 41
-30.0
 62
     5
 63
     7
 74
     1
 91
        4
 64
     7
 65
   257
 75
     1
175
     1
 42
1.0
 92
       12
 66
     7
 43
1.0
 76
     1
 77
     6
 78
     2
 67
     7
 79
     5
170
     0
171
     0
290
     0
174
     0
 93
        1
 44
0.0
173
     0
291
     1
 45
0.0
1001
ACAD
1000
AcDbSavedByObjectVersion
1070
     0
  0
VISUALSTYLE
  5
30
102
{ACAD_XDICTIONARY
360
C5D
102
}
102
{ACAD_REACTORS
330
29
102
}
330
29
100
AcDbVisualStyle
  2
Wireframe
 70
     5
 71
     0
 72
     2
 73
     0
 90
        0
 40
-0.6
 41
-30.0
 62
     5
 63
     7
 74
     1
 91
        4
 64
     7
 65
   257
 75
     1
175
     1
 42
1.0
 92
        0
 66
   257
 43
1.0
 76
     1
 77
     6
 78
     2
 67
     7
 79
     3
170
     0
171
     0
290
     0
174
     0
 93
        1
 44
0.0
173
     0
291
     0
 45
0.0
1001
ACAD
1000
AcDbSavedByObjectVersion
1070
     0
  0
VISUALSTYLE
  5
3C
102
{ACAD_XDICTIONARY
360
C75
102
}
102
{ACAD_REACTORS
330
29
102
}
330
29
100
AcDbVisualStyle
  2
X-Ray
 70
    25
 71
     2
 72
     2
 73
     1
 90
        1
 40
0.5
 41
-30.0
 62
     5
 63
     7
 74
     1
 91
        0
 64
     7
 65
   257
 75
     1
175
     1
 42
1.0
 92
        8
 66
     7
 43
1.0
 76
     1
 77
     6
 78
     2
 67
     7
 79
     3
170
     0
171
     0
290
     0
174
     0
 93
       13
 44
0.0
173
     0
291
     0
 45
0.0
1001
ACAD
1000
AcDbSavedByObjectVersion
1070
     0
  0
DICTIONARYVAR
  5
79
102
{ACAD_REACTORS
330
76
102
}
330
76
100
DictionaryVariables
280
     0
  1
1:1
  0
DICTIONARYVAR
  5
78
102
{ACAD_REACTORS
330
76
102
}
330
76
100
DictionaryVariables
280
     0
  1
STANDARD
  0
DICTIONARYVAR
  5
77
102
{ACAD_REACTORS
330
76
102
}
330
76
100
DictionaryVariables
280
     0
  1
STANDARD
  0
DICTIONARYVAR
  5
C44
102
{ACAD_REACTORS
330
76
102
}
330
76
100
DictionaryVariables
280
     0
  1
1
  0
DICTIONARYVAR
  5
C43
102
{ACAD_REACTORS
330
76
102
}
330
76
100
DictionaryVariables
280
     0
  1
1
  0
DICTIONARYVAR
  5
C42
102
{ACAD_REACTORS
330
76
102
}
330
76
100
DictionaryVariables
280
     0
  1
0
  0
DICTIONARYVAR
  5
C3F
102
{ACAD_REACTORS
330
76
102
}
330
76
100
DictionaryVariables
280
     0
  1
0
  0
DICTIONARYVAR
  5
C40
102
{ACAD_REACTORS
330
76
102
}
330
76
100
DictionaryVariables
280
     0
  1
0
  0
DICTIONARYVAR
  5
C3E
102
{ACAD_REACTORS
330
76
102
}
330
76
100
DictionaryVariables
280
     0
  1
2
  0
DICTIONARYVAR
  5
C3D
102
{ACAD_REACTORS
330
76
102
}
330
76
100
DictionaryVariables
280
     0
  1
1
  0
DICTIONARYVAR
  5
C41
102
{ACAD_REACTORS
330
76
102
}
330
76
100
DictionaryVariables
280
     0
  1
127
  0
DICTIONARYVAR
  5
C45
102
{ACAD_REACTORS
330
76
102
}
330
76
100
DictionaryVariables
280
     0
  1
2
  0
DICTIONARY
  5
C83
330
6B
100
AcDbDictionary
280
     1
281
     1
  3
ACAD_XREC_ROUNDTRIP
360
C84
  0
DICTIONARY
  5
C87
330
73
100
AcDbDictionary
280
     1
281
     1
  3
ACAD_XREC_ROUNDTRIP
360
C88
  0
DICTIONARY
  5
C85
330
6F
100
AcDbDictionary
280
     1
281
     1
  3
ACAD_XREC_ROUNDTRIP
360
C86
  0
DICTIONARY
  5
1A
330
19
100
AcDbDictionary
280
     1
281
     1
  3
ACAD_XREC_ROUNDTRIP
360
C4F
  3
BUMPTILE
360
1C
  3
DIFFUSETILE
360
1B
  3
OPACITYTILE
360
1F
  3
REFLECTIONTILE
360
1E
  3
REFRACTIONTILE
360
20
  3
SPECULARTILE
360
1D
  0
DICTIONARY
  5
12
330
11
100
AcDbDictionary
280
     1
281
     1
  3
ACAD_XREC_ROUNDTRIP
360
C4E
  3
BUMPTILE
360
14
  3
DIFFUSETILE
360
13
  3
FBXASSET
360
109
  3
OPACITYTILE
360
17
  3
REFLECTIONTILE
360
16
  3
REFRACTIONTILE
360
18
  3
SPECULARTILE
360
15
  0
DICTIONARY
  5
22
330
21
100
AcDbDictionary
280
     1
281
     1
  3
ACAD_XREC_ROUNDTRIP
360
C50
  3
BUMPTILE
360
24
  3
DIFFUSETILE
360
23
  3
FBXASSET
360
BA
  3
OPACITYTILE
360
27
  3
REFLECTIONTILE
360
26
  3
REFRACTIONTILE
360
28
  3
SPECULARTILE
360
25
  0
DICTIONARY
  5
C48
330
67
100
AcDbDictionary
280
     1
281
     1
  3
ACAD_XREC_ROUNDTRIP
360
C49
  0
DICTIONARY
  5
C46
330
65
100
AcDbDictionary
280
     1
281
     1
  3
ACAD_ROUNDTRIP_2008_TABLESTYLE_CELLSTYLEMAP
360
C47
  3
ACAD_XREC_ROUNDTRIP
360
C81
  0
DICTIONARY
  5
C5B
330
2F
100
AcDbDictionary
280
     1
281
     1
  3
ACAD_XREC_ROUNDTRIP
360
C5C
  0
DICTIONARY
  5
C59
330
2E
100
AcDbDictionary
280
     1
281
     1
  3
ACAD_XREC_ROUNDTRIP
360
C5A
  0
DICTIONARY
  5
C67
330
35
100
AcDbDictionary
280
     1
281
     1
  3
ACAD_XREC_ROUNDTRIP
360
C68
  0
DICTIONARY
  5
C6F
330
39
100
AcDbDictionary
280
     1
281
     1
  3
ACAD_XREC_ROUNDTRIP
360
C70
  0
DICTIONARY
  5
C61
330
32
100
AcDbDictionary
280
     1
281
     1
  3
ACAD_XREC_ROUNDTRIP
360
C62
  0
DICTIONARY
  5
C65
330
34
100
AcDbDictionary
280
     1
281
     1
  3
ACAD_XREC_ROUNDTRIP
360
C66
  0
DICTIONARY
  5
C7F
330
41
100
AcDbDictionary
280
     1
281
     1
  3
ACAD_XREC_ROUNDTRIP
360
C80
  0
DICTIONARY
  5
C6D
330
38
100
AcDbDictionary
280
     1
281
     1
  3
ACAD_XREC_ROUNDTRIP
360
C6E
  0
DICTIONARY
  5
C51
330
2A
100
AcDbDictionary
280
     1
281
     1
  3
ACAD_XREC_ROUNDTRIP
360
C52
  0
DICTIONARY
  5
C53
330
2B
100
AcDbDictionary
280
     1
281
     1
  3
ACAD_XREC_ROUNDTRIP
360
C54
  0
DICTIONARY
  5
C55
330
2C
100
AcDbDictionary
280
     1
281
     1
  3
ACAD_XREC_ROUNDTRIP
360
C56
  0
DICTIONARY
  5
C57
330
2D
100
AcDbDictionary
280
     1
281
     1
  3
ACAD_XREC_ROUNDTRIP
360
C58
  0
DICTIONARY
  5
C5F
330
31
100
AcDbDictionary
280
     1
281
     1
  3
ACAD_XREC_ROUNDTRIP
360
C60
  0
DICTIONARY
  5
C7B
330
3F
100
AcDbDictionary
280
     1
281
     1
  3
ACAD_XREC_ROUNDTRIP
360
C7C
  0
DICTIONARY
  5
C6B
330
37
100
AcDbDictionary
280
     1
281
     1
  3
ACAD_XREC_ROUNDTRIP
360
C6C
  0
DICTIONARY
  5
C7D
330
40
100
AcDbDictionary
280
     1
281
     1
  3
ACAD_XREC_ROUNDTRIP
360
C7E
  0
DICTIONARY
  5
C63
330
33
100
AcDbDictionary
280
     1
281
     1
  3
ACAD_XREC_ROUNDTRIP
360
C64
  0
DICTIONARY
  5
C79
330
3E
100
AcDbDictionary
280
     1
281
     1
  3
ACAD_XREC_ROUNDTRIP
360
C7A
  0
DICTIONARY
  5
C77
330
3D
100
AcDbDictionary
280
     1
281
     1
  3
ACAD_XREC_ROUNDTRIP
360
C78
  0
DICTIONARY
  5
C71
330
3A
100
AcDbDictionary
280
     1
281
     1
  3
ACAD_XREC_ROUNDTRIP
360
C72
  0
DICTIONARY
  5
C73
330
3B
100
AcDbDictionary
280
     1
281
     1
  3
ACAD_XREC_ROUNDTRIP
360
C74
  0
DICTIONARY
  5
C69
330
36
100
AcDbDictionary
280
     1
281
     1
  3
ACAD_XREC_ROUNDTRIP
360
C6A
  0
DICTIONARY
  5
C5D
330
30
100
AcDbDictionary
280
     1
281
     1
  3
ACAD_XREC_ROUNDTRIP
360
C5E
  0
DICTIONARY
  5
C75
330
3C
100
AcDbDictionary
280
     1
281
     1
  3
ACAD_XREC_ROUNDTRIP
360
C76
  0
XRECORD
  5
C84
102
{ACAD_REACTORS
330
C83
102
}
330
C83
100
AcDbXrecord
280
     1
102
SHADEPLOT
 70
     0
102
SHADEPLOTRESLEVEL
 70
     2
102
SHADEPLOTCUSTOMDPI
 70
   300
  0
XRECORD
  5
C88
102
{ACAD_REACTORS
330
C87
102
}
330
C87
100
AcDbXrecord
280
     1
102
SHADEPLOT
 70
     0
102
SHADEPLOTRESLEVEL
 70
     2
102
SHADEPLOTCUSTOMDPI
 70
   300
  0
XRECORD
  5
C86
102
{ACAD_REACTORS
330
C85
102
}
330
C85
100
AcDbXrecord
280
     1
102
SHADEPLOT
 70
     0
102
SHADEPLOTRESLEVEL
 70
     2
102
SHADEPLOTCUSTOMDPI
 70
   300
  0
XRECORD
  5
C4F
102
{ACAD_REACTORS
330
1A
102
}
330
1A
100
AcDbXrecord
280
     1
102
MATERIAL
148
0.0
149
0.0
149
0.0
 93
        0
 94
      127
282
     0
 72
     0
 77
     0
171
     0
175
     0
179
     0
273
     0
  0
XRECORD
  5
1C
102
{ACAD_REACTORS
330
1A
102
}
330
1A
100
AcDbXrecord
280
     1
270
     1
271
     1
  0
XRECORD
  5
1B
102
{ACAD_REACTORS
330
1A
102
}
330
1A
100
AcDbXrecord
280
     1
270
     1
271
     1
  0
XRECORD
  5
1F
102
{ACAD_REACTORS
330
1A
102
}
330
1A
100
AcDbXrecord
280
     1
270
     1
271
     1
  0
XRECORD
  5
1E
102
{ACAD_REACTORS
330
1A
102
}
330
1A
100
AcDbXrecord
280
     1
270
     1
271
     1
  0
XRECORD
  5
20
102
{ACAD_REACTORS
330
1A
102
}
330
1A
100
AcDbXrecord
280
     1
270
     1
271
     1
  0
XRECORD
  5
1D
102
{ACAD_REACTORS
330
1A
102
}
330
1A
100
AcDbXrecord
280
     1
270
     1
271
     1
  0
XRECORD
  5
C4E
102
{ACAD_REACTORS
330
12
102
}
330
12
100
AcDbXrecord
280
     1
102
MATERIAL
148
0.0
149
0.0
149
0.0
 93
        0
 94
      127
282
     0
 72
     0
 77
     0
171
     0
175
     0
179
     0
273
     0
  0
XRECORD
  5
14
102
{ACAD_REACTORS
330
12
102
}
330
12
100
AcDbXrecord
280
     1
270
     1
271
     1
  0
XRECORD
  5
13
102
{ACAD_REACTORS
330
12
102
}
330
12
100
AcDbXrecord
280
     1
270
     1
271
     1
  0
XRECORD
  5
109
102
{ACAD_REACTORS
330
12
102
}
330
12
100
AcDbXrecord
280
     1
 70
     1
 90
1959938040
 71
     1
  1
5A47205C-EF4D-4D5F-84D4-6FEF2F03BAB7
311
504B03040A0000080000997231403DEE336E79000000790000001B0000006175746F6465736B2D64657369676E2D7061636B6167652E786D6C3C3F786D6C2076657273696F6E3D22312E302220656E636F64696E673D227574662D3822203F3E3C666F726D6174733E3C666F726D61743E687474703A2F2F736368656D612E
311
6175746F6465736B2E636F6D2F64657369676E2D7061636B6167652F323030393C2F666F726D61743E3C2F666F726D6174733E504B030414000608080099723140D486FD9CA0000000F4000000130000005B436F6E74656E745F54797065735D2E786D6C7D8EC10E82300C865F65E91D8A1E8C310C0EEA1BF002731658846E
311
D98AC1B77784ABF1D8FE5FBFBF75BBCE937A534CCEB38643598122B6FEE978D0B0485F9C41B54DDD7D022595594E1A469170414C76A4D9A4D207E29CF43ECE46F218070CC6BECC4078ACAA135ACF422C856C0E68EA1BF5669944DDD7BCDE7B1F8E415D77AECB980613C2E4AC91FC167A2B244592486606FC29C8FD7F045B9A
311
EF7053A7E60B504B030414000608080099723140B700DB13EB0000007C01000008000000636F72652E786D6C8D90DD8E832010855FC5CC3D0AA8FD3148D3BAFA04FB0204A825AD600436FBF88BAD4D76EFF66A2667CE373339ECF43D3DB22FBD78E36C0B24C790692B9D32766C21862B3A4076E26C712EFCB24166C5A45B58
311
65E06C5C5C9C37493A1BB40D49B54EE94D14DEEB00997CA4A6052F6F7A12B9882139FC3D9F85BC8B51E7E4DD253846A3B2D711A3D23E73357A01DE9FF1F970EC2B74215587AA72D7A3231D3E50390C25AE3BBAAF2F1D2B5698B360A6F77DB96811B4024E31A1081344F69FA46A286E6A82F0AEC19815ABFD0F1467F54F281A
311
1B4ABABDFBC23C70921E790E382BD62C52790695EA9A1BFF01504B03041400060808009972314055019EA25F0000007C00000007000000636E782E786D6C4DCB3B0E80201045D1AD90E915ED2CF8AC45050C11660C8261F98AB1B07AC9C97D42D718D865D3E909258CFD00CCE24AC6E326A164D74DC0B4128928FF32603847
311
2BA13128B1252AC747C6BAB984FC68F0B87FE8960A5C09FE86CFB69FBA01504B030414000608080099723140AB56EFBA66010000020300000C0000006662782F636F72652E786D6C8D52ED8EC220107C15C27F0AD4FA198A514F9FE05E005BEC115B30141A1FFFB6B6C6F3628C6942C9CCCEEEECB4627D6D6AD469DF1A6773
311
CC138691B6852B8DAD721CC3892C305A4BE19D0B7FCA30B2AAD139EE612C45E55DBC8C50E16CD036006A5DA94750B5AD0E1815355C72DC163FBA51898A012ADA737251C559553AE109D05027451B3C1840C390FEC4F274BC0A3AE052C468CA9135254C3327A33D96FB0DDB2C96FB8C6C79B623D964B627CBF4F0452687C384
311
4D77E97CBADD09DA8BA508A6B9BB2BBC56419758A68CA78471C2E7DF3C5BA56C35E584CD568C09DA973F89E2A5FC50148D0D9374B43BC85A2C3918B911FFB68588026A55077EA814B40F115EB7849F83864020E4A08EF57D8F33409D2E82F31930A58B0FAA5375D43095A1DB23E8C042E75B03D8EC659FF44D9FF73DE0032A
311
5B813515E07A8CA19F2E86A9631417ED4917AEC83ADFA8FA616EB0F8381F835ECA0B573BFF899A8EABD2314CDAFFBDF217504B03041400060808009972314010822A797E0000009D0000000B0000006662782F636E782E786D6C4DCCD10A83201886E15B91FFDC659B46811A36ED3E625944A6C3E9D8E5AF46073BFAE0E1E3
311
E5ED6773E86DE36B095E40792180AC7F8471F1B3809C265C036A258F21A4BF1B203F6C56C0C120F91C437E9E34DA69C82EEDEA16BF9E78ADFAAEA3ACC784118DA9320D565543B1A9EFA5AE8C5637C6A090BCF895F63DC2F20B504B030414000608080099723140153FE4C02C01000014020000310000006662782F32364642
311
423435462D303530442D344145392D413639342D4538433144364544413335352F636F72652E786D6C8D51CB6EC23010FC15CB277A7062E7C5438E1114F882FE80490C58103BF2A3E2F3BB6E82D4DEB878ADD999D9D12EDF3E8707FA56CE6B6B5ACC328A91329DEDB5B9B638860B5961B415DC591BFED0303272502D4E3016
311
FCEA6C1C67A8B32628130035B6573328BD5701A3EE019F16FBEEA60699C91880E1EFD928BBBBBCAA8C65D0069EE03E380880A621E9C5A2684EFB7D559F08ADE98154BBE39AEC9A75458EAB4F76688E875D59D73C9F8482C7A8FB59AE7B88A32F5AB9774D9258F0A08757FCCE2919540F7ACA0A421961CB2F566D0ABAA919A1
311
CD86529E27FA3F511CFB3745519B501673DC49E6B1603C9F1A82F7369E1FAF30EA395A17509AB7F0AAFBC08266B4609496E592E7131516009E4D357BFA601D2C78713F039BC19A927153099EA71B41F93D20D4744FF103504B0304140006080800997231402DDE0C5C4D01000033030000300000006662782F323646424234
311
35462D303530442D344145392D413639342D4538433144364544413335352F636E782E786D6CD593BD6E032110845F05D1DF0FCEC5892C0E4B29F20429D272B076883938F113C56F9FC5C68E1B1729D3A0D3EC30B3FAC4F1EDF76CC9178468BC1B296B7B4AC029AF8DDB8F34A75DF34CC956F0E07DBAB151E2E40C232D3215
311
7C1F7C5EAAA46127B34DA85AE30E550C107D0E0A22CAE526B15E498B01E09A8C22CC13680D9A5C8DF8B58380ABA0381D49FA00F2FAF24EFCF4092A45DE9514C1BBD22178396BD38D891265658C238DEA0366D9CA9CBC867868B54CB265EDA5EBCE4EBF49A45CB854E66048291F6939A9A81BB5C8917738143CA680F4AA291D
311
17A0422E8B354A2684DC9D8C678FE0D9B8B41EAAD720F8806EB67E18060C3BCD044F6686EA500164024DC5AA67ABA6670D7B7A63C366D56F1E59D3AF377DCFBB62177CF2DED64B1803C12F447997C0252A18EFCAF81EBEEA23DA0464EDC3F10F2011406D3DD3B966FC673EDDE97D23AE807F81F801504B0304140006080800
311
997231408FA65A619C0500007B100000340000006662782F32364642423435462D303530442D344145392D413639342D4538433144364544413335352F6F626A656374732E786D6CAD575B8F9B3814FE2B887D4E0809D3CEAC18AA5C2655D49DB66AD46A1F468A0C18C63BE622DB4C33FDF5FB190C81349966577D016CECE3
311
73BEF39D8BFD77FB8C5BCF544856E4B7B63B9ED816CDA32266797A6B572A195DDBD6BBC01745A17ACB6C2B2719BDB5F5B41DF8A928AAD24CC53421155747B3EBC5DF968C684E6D2BE244CA5B5B468F34236352A922A6F2691C1345C669B21FBBE366E1506C2A48F97824B42482E60A9A623E8714AB51CA1D0E27B613F88EFE
311
1FF8FA6956CDCEAF726A7B86E7B35C2A92473F1D762466E67AABBBE9D5CDE8CAF36623EFCDD41D2DD68BD5C87D3B9B2CDF2C9737F3BB1B1C2C958024A389A0891DBC07368245BED3FC0AFC8AE56A36354B8C831C419F99F6941D4C2DD7779A359D75C6C853EA47459ED3A8C60A68D4F619D1312D691EC3E78C4A68D6436832
311
1CBA1AC7DEEF991E9B23FBD39721D0DFD113D4EADEBEFB9A16E13F30415EC22021A9666083A531B4E1EAE480705814DCFC63D2CA88A282116E71160A225EEC004BF592C01F88D14C163A1AB40576002F34BF87744118FD9AE7A7B44C2ACE358DEDA08E821D62852A596BC67E5071D0BE8F0C7482AF341BAE8D41EAA5A47670
311
D350E4FA884D0D9056C2490A97C34CBD73363D3274A9E374B3B2830FEB70BFD5B17BFAF0521425154AD307D46A1DD7BE354A4627F722CFE90DF6912A0750BE00F98F08F5832AF09B607B6FEF99539420B94C0A91C137D6C41A4DF098586EFDD4DFBD2FDFE9360FBD770E4F385B43F51BF01CDAD0F7650FCEC07F06E10B3133
311
A66D23C29136EE590E8034492C5E600A793809F776B041964356C62EC203172643DD677CFA8E118344519FD47BE7C0F2282D5E90A0015BCD48A8D190DF2878F0D34FE9AC3ED82C3B07EFD56FA1EB7CB5FDB0AD4442227A6F627A45139633851277E04D5FA101E6038B9EE8CBF742C430F467BCB77DBC33739404DA1A730D7C
311
DAE6743D389C3C3820C2BEB4D0E9C6FFC509304217D69EFC7B2623CA39C96951B5E7BE5A3F50361A8875B06B267705E65058409AE6CF510CA2484782951AC4AE5A7549737CC6BAAF9B8F60A41D2C5EFE222FFDEC151E726F54F042ECC2975D93964E42FD6DC86D8381A3A580EE7590B4F16F40DFC52C492A89247802D76F9B
311
65DF773A2D2045B4529B68F1603F828B0843DA562EAAB520A8A445BE63A89B88BB9307F4E50352C3805AE0398D25E5C98E715E65BB847154A35D46CA3370FC7FFDC32A2B77242BAA5C9D913D501DD561A8FB80BDF23B51D1A31D6CEBF76881DC1BD3F80C19742D3981D5C0B55773EFED7472B51CDDADBDD5C85B5DAD47D7DE
311
CA1BBD59DFADA7EBC96C315FBC6DFDD46812F86DA9E94734BC84D2E6578219F77DDD207E4C12B0837BA2E4C3FB263CDBF7D7CD18BDB0EF600FEA65B7711E3FA3EFA3F1AF051C569E14B4C94A4E339A2BA263E85E7FF02F047DC64099667E9391945E20E5D3FBED913198B960DF671DEFF4FBD15E33BBD4017952887AACB230
311
278C1F6D4C1B24C7659E1AFC5A9F74EFA6D0B4433D328E41672A0BCE62E4C1D84A699151856C784111121995A05EBFA78FCDDDE382DDCF4D87A848C869ABC9234193CC25C202D4AA22359CB7FE4053A7FBAA5B1BE576FC8487C914B605CEDCDA68D2158BA81C8728D0BA15AA85834BFD4E1E8D3FC9538E5EBBD9D48DBB5D1A
311
9B4149EE965CD23F19BB9A146E0C401A29D137A02182776A6502BFD6CDFC8FFE93E1AD3A1651F80C2BD5D97298E88CA98F4188364699DB029A982773F41E81FABA59EEB85E3340E4A25BD6AB2468A48E1411697D53D0FA1995E6ABCF0E3A146BF3C92A7995C297974B1A090A32573AC0C122B0C2C82C890255977F3E7C1605
311
6EB299B566A0C0C3B2C8B2223783B9B9095BDB47DC6BE307A405AA2F24F2613A71A70FF545C0DC4D762191744C62F98409F854B00EE281E3C1C8E6B6880AD4FCE8D639DA0947DCDCAC2C53D23C083544E967550D0B5A8E9C5A881E7D99D4B1D25F50BE7A1770EAA55041A08B0FFE05504B0304140006080000997231400000
311
00000000000000000000350000006662782F32364642423435462D303530442D344145392D413639342D4538433144364544413335352F76657274696365732E62696E504B030414000608080099723140F270F1330600000004000000360000006662782F32364642423435462D303530442D344145392D413639342D4538
311
433144364544413335352F747269616E676C65732E62696E636660600000504B030414000608000099723140000000000000000000000000370000006662782F32364642423435462D303530442D344145392D413639342D4538433144364544413335352F617474726962757465732E62696E504B03041400060808009972
311
3140D5987DFC8F00000041010000360000006662782F32364642423435462D303530442D344145392D413639342D4538433144364544413335352F6469726563746F72792E786D6C858F410EC2201045AF4266AF15DDB800BA74E7C21B903225242D6328188F2FA5C4183471359997F9FF81E89FF3C41E1816475E02DF1F80
311
A11FC8386F25A438EECEC07A250251FC3803E6F58C12560C4AD840E95E91C151A72936F496F35732D860FE635F62C8F2DA16B505C545B74125BAA2FA9E05D7CC053D063734D5C7665FD55B6B8D15D5E9BFEAFD8490FFA45E504B030414000608080099723140686E11ABFD000000A00100003B0000006662782F3236464242
311
3435462D303530442D344145392D413639342D4538433144364544413335352F7265736F75726365732F636F72652E786D6C8D50596E833010BD0A9A7F83CD92051947094D4ED00B586642AD041B79A97AFC9A40A5F6AF3F33A3B7689E1E3F7D4DCFEC139DD7D674C0720A191A65076DC60E62B893036427C19DB5E1970C32
311
2327EC608141F0D1D9386F90B226A009093576C00D94DE63804C3DD3D181571F38C95CC69014FE91CF523DE48839CB139D7482FBE052806C7DB24C100EBD8D4EA1E7C5CA0A1EA31E368D1ED24F7DD7E8405CCFF47C385E2B7261754FEA6A7725C7F2F646AADBADA24D5FEE9B4BCF8BC52C78D0D34F46E550061C4094949584
311
32C2F6EFAC6E4BDA368CD05D4B292F16F91F539C877F9AA236A12AB7B8ABCD836029C88B10BC58FA4AEB5566DA4BB7E21B504B010214000A0000080000997231403DEE336E79000000790000001B00000000000000000000000000000000006175746F6465736B2D64657369676E2D7061636B6167652E786D6C504B010214
311
0014000608080099723140D486FD9CA0000000F40000001300000000000000000000000000B20000005B436F6E74656E745F54797065735D2E786D6C504B0102140014000608080099723140B700DB13EB0000007C010000080000000000000000000000000083010000636F72652E786D6C504B0102140014000608080099
311
72314055019EA25F0000007C000000070000000000000000000000000094020000636E782E786D6C504B0102140014000608080099723140AB56EFBA66010000020300000C00000000000000000000000000180300006662782F636F72652E786D6C504B010214001400060808009972314010822A797E0000009D0000000B
311
00000000000000000000000000A80400006662782F636E782E786D6C504B0102140014000608080099723140153FE4C02C0100001402000031000000000000000000000000004F0500006662782F32364642423435462D303530442D344145392D413639342D4538433144364544413335352F636F72652E786D6C504B0102
311
1400140006080800997231402DDE0C5C4D010000330300003000000000000000000000000000CA0600006662782F32364642423435462D303530442D344145392D413639342D4538433144364544413335352F636E782E786D6C504B01021400140006080800997231408FA65A619C0500007B100000340000000000000000
311
0000000000650800006662782F32364642423435462D303530442D344145392D413639342D4538433144364544413335352F6F626A656374732E786D6C504B01021400140006080000997231400000000000000000000000003500000000000000000000000000530E00006662782F32364642423435462D303530442D3441
311
45392D413639342D4538433144364544413335352F76657274696365732E62696E504B0102140014000608080099723140F270F13306000000040000003600000000000000000000000000A60E00006662782F32364642423435462D303530442D344145392D413639342D4538433144364544413335352F747269616E676C
311
65732E62696E504B01021400140006080000997231400000000000000000000000003700000000000000000000000000000F00006662782F32364642423435462D303530442D344145392D413639342D4538433144364544413335352F617474726962757465732E62696E504B0102140014000608080099723140D5987DFC
311
8F000000410100003600000000000000000000000000550F00006662782F32364642423435462D303530442D344145392D413639342D4538433144364544413335352F6469726563746F72792E786D6C504B0102140014000608080099723140686E11ABFD000000A00100003B000000000000000000000000003810000066
311
62782F32364642423435462D303530442D344145392D413639342D4538433144364544413335352F7265736F75726365732F636F72652E786D6C504B0506000000000E000E00800400008E1100000000
310
504B03040A0000080000997231403DEE336E79000000790000001B0000006175746F6465736B2D64657369676E2D7061636B6167652E786D6C3C3F786D6C2076657273696F6E3D22312E302220656E636F64696E673D227574662D3822203F3E3C666F726D6174733E3C666F726D61743E687474703A2F2F736368656D612E
310
6175746F6465736B2E636F6D2F64657369676E2D7061636B6167652F323030393C2F666F726D61743E3C2F666F726D6174733E504B030414000608080099723140D486FD9CA0000000F4000000130000005B436F6E74656E745F54797065735D2E786D6C7D8EC10E82300C865F65E91D8A1E8C310C0EEA1BF002731658846E
310
D98AC1B77784ABF1D8FE5FBFBF75BBCE937A534CCEB38643598122B6FEE978D0B0485F9C41B54DDD7D022595594E1A469170414C76A4D9A4D207E29CF43ECE46F218070CC6BECC4078ACAA135ACF422C856C0E68EA1BF5669944DDD7BCDE7B1F8E415D77AECB980613C2E4AC91FC167A2B244592486606FC29C8FD7F045B9A
310
EF7053A7E60B504B0304140006080800997231400480FFBCEA0000007C01000008000000636F72652E786D6C8D90416EC3201045AF82668F0D0EB6630B13B96A72825E0001715162B00C543D7E71E248EDAE6C66F4F96F66F4F9E97BBEA32FB306EBDD00B420808C535E5B370D90E2151F019D045FBD8FBF6C809C9CCD009B
310
0C824FAB4FCB2E29EFA27131ABCE6BB38B32041301A97B6E0608EAD3CCB290296647B8158B5437399982BEBA0CA764357A2EB13ACFB3576B5610F57B3B76E385E1336B1866AC1DF1D874356EF33B5E0E4D7DEEDE78B9C182473BBFF6ABD5C86834888AD00A138A69FB41595F91BEA698343D21BCDCEC7FA0B4E87F42C9BA78
310
A8F6739F580041F3218F0FC1CB2D8B5C1E41E5BAE5267E00504B03041400060808009972314055019EA25F0000007C00000007000000636E782E786D6C4DCB3B0E80201045D1AD90E915ED2CF8AC45050C11660C8261F98AB1B07AC9C97D42D718D865D3E909258CFD00CCE24AC6E326A164D74DC0B4128928FF326038472B
310
A13128B1252AC747C6BAB984FC68F0B87FE8960A5C09FE86CFB69FBA01504B030414000608080099723140C52CD49866010000020300000C0000006662782F636F72652E786D6C8D52ED8E8230107C95A6FF4B01F950536AB89C3EC1BD4085CA35424B4A4B7CFC5B3E8CE7C59883049A999DDDD90176B8752D1AA51D94D105
310
8E821023A92B532BDD14D8BB0BD96274E0CC1AE37E9561A445270B3CC198B3C61ADFAF5065B493DA01AA4D2D57500C837418552D1C0A3C54DFB21381F00E2A866BD08BEA2A1A194401D050C7D9E02C1840CB90E989F9E57C6374C139F35ED52BAB6A98A62E4A5ACCD3CFBCDC95A7841C932C21499297A4CC7629C9E1DA9E36
310
597ADC7D303A893973AABBBBABAC144ED698C7611493302251FE1525FB38DCA71109B37D18323A953F897C5FFF53E495769B78B5BBC806CC233032137FB685881C1AC4087E2867740A115E73C2CF41432010B213E7F6BEC715A05156CED80498DAF807358AD64B981AA2F9667461A1F3DC00367BD9277ED3E77D0FF8804237
310
604D38389EBD9BA6B365EA1A452F2D19DD0D69633BD13ECC2D161FCFC7A097F2CAB4C6FE474DD755E91A269DFE5EFE03504B030414000608080099723140271E10117E0000009D0000000B0000006662782F636E782E786D6C4DCCD10E82201886E15B61FF39C94F25BA01AE4CEFC3253A164223685D7EDA3CE8E8DB9E7D7B
310
65F3591C799BF8B2C12BC0030362FC3D8CD6CF0A729A6805A4D1328690FE6E40FCB018051B8396730CF9B9D368A621BBB4AAB3FEB163DB899E95D8D1B6AA919E7829E8A56637CACF0C7B268E78151C0A2D8B5F69DD2DACBF504B03041400060808009972314022E7C2782A01000014020000310000006662782F4345374630
310
3631452D433839312D343236372D413930442D3235303146303733314237322F636F72652E786D6C8D51CB6EC32010FC15C4293D600376EC24C2446D9A7C417F8000495162B07854F9FC42ED4AED2D1716CDCECC8E76D9FE31DEC197F6C1383B40526108B4954E197B1D608A17B48160CF99772EFEA14160C5A8075860C8D9
310
D5BB342D9074366A1B336A9DD20B2842D0110279CF9F0106F9A9475189143323DCAA49C89BB8EA8A54B99D799C85E87300300F292FE487637FC21D39A2C3664B504BBB1EBD6EF13BA26B4C4EB86FC85B4F593D0B394BC9A8456E548E632E46FB674D8A98B368C6DFF8D26B11B5829C6242112688F41FA4DD51BC5B1384BB1D
310
C6AC2EF47FA234A92745C9D8D8D025EE2C0B901356CF0DCE944BE7FB6F18FD989C8FA0CC5B052D5F20C715A664DDF4CD96D533352F207B76EDE219A2F379C1ABDB39B39BC5B86B39ABCB8D72F93960AEE59EFC1B504B0304140006080800997231404B79C34B5501000033030000300000006662782F43453746303631452D
310
433839312D343236372D413930442D3235303146303733314237322F636E782E786D6CBD93CD6EC32010845F0571F70F8EEB461126520F7D821E7AC5B049686CB00057CDDB7749489A4B0E95AA5E90353BCCAC3E61BEFD9A46F2093E18677BCACA9A12B0CA6963F73D5DE2AE5853B215DC3B17EF6C945839414F934C05DF7B
310
B7CC59D2B093CB18511D8D3D66D143708B5710504E37C9E8941C31006CB1A008D3005A832637237EEDC0E32A280E27120F405E5FDE891B3E40C5C0AB942278953A044F676EBA3351A24619424F833AC0244BB944A7211C4B2DA32C5979ED7AB0D34F124917AE958B372495F7349D54E48D4AE4C82B1C0A1EA2477AD9144F33
310
5021E779344A46845C9D8D178FE08BB1B16BB3D720788FEE55D3ADD718769E091ECD04D9A13CC8089A8AA6664D51B3823DBFB176D3D49B2756D4DDA6AE7995EC820FCE8DF912C680773351CE46B0910AC6AB347E842FFB88361E593B7FFA054804905B2F746E197FC98775ABB6FD473ED5F97D232E8F7F81F806504B030414
310
0006080800997231406F5B78505B070000941B0000340000006662782F43453746303631452D433839312D343236372D413930442D3235303146303733314237322F6F626A656374732E786D6CED595B739B3814FE2B0CFB6C6C7C699B1D4227B1EB8EA79BDD4EBDEDEC4366181964A28D108C24D2787FFD1E5DC0404C82B7
310
D9B73ED880908ECEF9CE5587E0FD63469D07CC05C9D9A5EB7B13D7C12CCE13C2D24BB794FBD13BD7791F063CCF65639AEB3094E14B570DBB6190F2BC2CEC5082F7A8A4B233BABEFECB113166D875628A84B874457C8733E4A152E60916F75E8224F2D2FDA3E77B66629B6CCA5171D7215A208E99044E619C0115C730E5B71F
310
27EE380CC6EA7D18A87F3B6B3668D6BC7FD6584BDDE6923021118B9FB0D421331BC4D2CC9FAF3E4C1717A3C57C3E1BCDDF4CFDD1F5FA7A35F2DFCE26CB37CBE5C5D5870B606F97E7D4CA94E002B304F47770433F18AB37B5E81681535CC7396338D64002545AAC2E4182056CD5806FD27EF495448DD75AC2C6F35CBDB72C34
310
86676D2A7DB38601D1A20B82D8ED2A89AB6B53BE7CF737082E861825175802B74272D0AE85878357B8E124189BD130D81D7541849321893941D4A164C71107A5C05435250CCC024B46390707528E92406BCEBC6EDB1678E6CBAE738ACB7D49A9F20C37D48E1581FB61293467E41FCC8FDC3791019E40DA9230F9CE72290F05
310
76C38B60AC07C3405D6653FBD200E9EC294A8546C4BCED08BA54AEBF59B9E1A7F5EE71ABC2C1E9CD0B9E17984B65744A8F9A2F30647B5528D96DFD419A530B401803AA5D7904E50B20FF3B448F232BA0374E1EE78F733B5772C4C43EE719E8C69938A309FC4D1C5FFFABFBC65D30AE17B7B5D78727B8A982EADD8FE3D99641
310
6365F96FC019060F60F0399FD957DB1851B0E71BC2002065240ECD610842FB7EF7E8861B089C10E86115A2A10F2203BB0F701B8C2D99A3562AF7B25EC70051BBC76C889200366D91C0468F9E3E42F6E0243EAAA929621FBC8B5731D7ABD5F6D3B6E47B14E31BEBD32BBC278C48C89AA7196A61DE92E81E1FBEE73C01419FE2
310
BD6DE29DD9AD04A0AD3057C0A71508EAE1B8736B8318D6A5B90A37C10B3B80102A5737E8DF1011634A11C37959ED5B473765A8B5C7DB9AC10DA706E2D9B463C21C3F10555580D31C67B41885BC1F73522810DDF0A391AC0E9A5E8F745F37BF8345D6F37B666D18845E86E89F3A689DC0A165D915D216885AE0DD319CC739CD
310
79B43B4426D2B9504B001B6D6FF9D6220AB1DE284951010FD27E578594D4481B2564BF2F05C4D5132C7EDB2C9BE630F166FEC269FE779C710ED1167C1771EB779D3D2292A114477B94F46DD7DCADA62D34C91ED21CEF29C8451E883C4448469304A7E7407316F18B57A59ED25C08C2B0807C7512FC261A130F0289D166C5B2
310
D26A076822A20C4B44CF414091E90157A71D5DE3C6503ABCCC636DBDCF69AC49F47FB2088EA096CC5944A014851CF222E3BEB78018D246D7A0DCC117ACADA2ADC5A0259410F121FA8E497A27CF41DD90EFC13D86234929A3BC403198F500B24F7C4529B5C3FB0EC5F72A7F4471495FCB4004A6FB88505A6611FC088393C710
310
D7AE03D3B32834889BD8277106451992251FB2C99BC5E4C93EA666E886C0C6467B42216C47192A7A506F05445D8F3835F8967A8F527765564428CB4B36C850BC59D79B2CF9AE5A15D981FCAA5211CAC68AB025180684C93AAB56311B4C5D075670231DA80E91405941CD29EC85C4E3D7DEA429F76EC0AD9FBEEE0619147E3D
310
DA6B46D4790583E5B1551888EF48C6776EB8D5D7D135D4DF094E8EA9BEAA359B152020A62279C98955D1D70D9437B64673C31B24C5ED479375ABEBD78D07DD8F600C6BA076A9176E14D0196612A9CAE446DDD02F0842708B8619DFA89C7A0E95AB24D15523A26BD2A7CE5619D1DA34235E7187599EC18FDD1216D332C1B728
310
11F7D18DA4D19628D6AD945E462A8C9F15F08F8FDB0E3C303240A4CFAAC0C3DF3B6BEDE852954B2789C8BB32DB31442008B6444B8D6EBC82A556239596EBAB3A5340DD050666553CFF79B268B6237E9E2C526B183F74B2B83EFC860ECDBE48239DC7CAAECF3A06D4F94951798D63806E3BD454EB2C6292B995DF3A530441B1
310
8AF283ABB12A6818827D1CFFE7ACDD9705CD761DFECFCBDAFE938AE3ACACD29AACBA54272AD74D33872DAEE66FA793C572F4613D5F8DE6ABC57AF46EBE9A8FDEAC3FACA7EBC9ECFAEAFA6D8DA676D430A88399CE5DF06C825A35AC9E2C06D095153925099CE61327C510F3259CE907B4CF79860524CF66B33BB14DF901AB1F
310
4C9F53A21DC5152777081AC454405A078CCA58B6C79D5FA03529E1A07DE942D3C8BB873F6B95AE0399E7D2855681243116DE0EDA4CAAA1A78943CAD5B9DF12037C104B554A348BEAE77A95C2A615FEEB2943D28095ABD5C380C2AD80EE57AB43A179B33CC567095EB1E32009B7BB5242B56664390ED4C2E86D8EEA37B251C2
310
EEEDD68FE0BACF8BE57B7A4E0B91419F0C9E3502437524114F75BF5B316659BA5A7D1E439FCDD9FCE114B44C4197C3298D3806632E5541055604566169164882A92E7FBDFDCC73F8C49339BA2ABA5DE6599633FB7005E7B1043E1139DB3BF8E093DC42D980555B5DDC4E27FEF456B7B36D873DDA21813D550FC14055462811
310
3AC60616F9A435651B9763A584CEF4CDCAB1E113DA00C6829E7477CDE72D07BC477D4851BEA23DBC92F3D98EF6584F056BE0D08B0EFF05504B030414000608000099723140000000000000000000000000350000006662782F43453746303631452D433839312D343236372D413930442D3235303146303733314237322F76
310
657274696365732E62696E504B030414000608080099723140F270F1330600000004000000360000006662782F43453746303631452D433839312D343236372D413930442D3235303146303733314237322F747269616E676C65732E62696E636660600000504B030414000608000099723140000000000000000000000000
310
370000006662782F43453746303631452D433839312D343236372D413930442D3235303146303733314237322F617474726962757465732E62696E504B030414000608080099723140D5987DFC8F00000041010000360000006662782F43453746303631452D433839312D343236372D413930442D32353031463037333142
310
37322F6469726563746F72792E786D6C858F410EC2201045AF4266AF15DDB800BA74E7C21B903225242D6328188F2FA5C4183471359997F9FF81E89FF3C41E1816475E02DF1F80A11FC8386F25A438EECEC07A250251FC3803E6F58C12560C4AD840E95E91C151A72936F496F35732D860FE635F62C8F2DA16B505C545B741
310
25BAA2FA9E05D7CC053D063734D5C7665FD55B6B8D15D5E9BFEAFD8490FFA45E504B030414000608080099723140DBEE3504FC000000A00100003B0000006662782F43453746303631452D433839312D343236372D413930442D3235303146303733314237322F7265736F75726365732F636F72652E786D6C8D50596EC320
310
10BD0A9A7F6C70BC24162672D5E404BD00C21307258688A5EAF18B13576AFFCA07337A8BE6E989E3D772279FE8837176005E302068B59B8C9D0748F142F7408E5278E7E22F1910AB161C6085418AD9BBF4D820ED6C441B336ADD841BA842C00844DFF33240D0575C54A152CC8A702B1E4ADFD48C052F329D755284E87300F2
310
3AB2FE203D0697BCC620CA172B454A66DA3466CA37CDC5A007D9BC77E3613CEFE8A96E6B5AD7DD48C7F6D0D02EBFFD79D736A7C39B2857B314D12C3F19B54715710259315E51C629EF3E78DD57AC6F38656DCF982857F91F537A4CFF342563E3AEDAE2BE6C0124CF419E8414E5DA571ECF32F35CBB95DF504B010214000A00
310
00080000997231403DEE336E79000000790000001B00000000000000000000000000000000006175746F6465736B2D64657369676E2D7061636B6167652E786D6C504B0102140014000608080099723140D486FD9CA0000000F40000001300000000000000000000000000B20000005B436F6E74656E745F54797065735D2E
310
786D6C504B01021400140006080800997231400480FFBCEA0000007C010000080000000000000000000000000083010000636F72652E786D6C504B010214001400060808009972314055019EA25F0000007C000000070000000000000000000000000093020000636E782E786D6C504B0102140014000608080099723140C5
310
2CD49866010000020300000C00000000000000000000000000170300006662782F636F72652E786D6C504B0102140014000608080099723140271E10117E0000009D0000000B00000000000000000000000000A70400006662782F636E782E786D6C504B010214001400060808009972314022E7C2782A0100001402000031
310
000000000000000000000000004E0500006662782F43453746303631452D433839312D343236372D413930442D3235303146303733314237322F636F72652E786D6C504B01021400140006080800997231404B79C34B55010000330300003000000000000000000000000000C70600006662782F43453746303631452D4338
310
39312D343236372D413930442D3235303146303733314237322F636E782E786D6C504B01021400140006080800997231406F5B78505B070000941B000034000000000000000000000000006A0800006662782F43453746303631452D433839312D343236372D413930442D3235303146303733314237322F6F626A65637473
310
2E786D6C504B01021400140006080000997231400000000000000000000000003500000000000000000000000000171000006662782F43453746303631452D433839312D343236372D413930442D3235303146303733314237322F76657274696365732E62696E504B0102140014000608080099723140F270F13306000000
310
0400000036000000000000000000000000006A1000006662782F43453746303631452D433839312D343236372D413930442D3235303146303733314237322F747269616E676C65732E62696E504B01021400140006080000997231400000000000000000000000003700000000000000000000000000C41000006662782F43
310
453746303631452D433839312D343236372D413930442D3235303146303733314237322F617474726962757465732E62696E504B0102140014000608080099723140D5987DFC8F000000410100003600000000000000000000000000191100006662782F43453746303631452D433839312D343236372D413930442D323530
310
3146303733314237322F6469726563746F72792E786D6C504B0102140014000608080099723140DBEE3504FC000000A00100003B00000000000000000000000000FC1100006662782F43453746303631452D433839312D343236372D413930442D3235303146303733314237322F7265736F75726365732F636F72652E786D
310
6C504B0506000000000E000E0080040000511300000000
  0
XRECORD
  5
17
102
{ACAD_REACTORS
330
12
102
}
330
12
100
AcDbXrecord
280
     1
270
     1
271
     1
  0
XRECORD
  5
16
102
{ACAD_REACTORS
330
12
102
}
330
12
100
AcDbXrecord
280
     1
270
     1
271
     1
  0
XRECORD
  5
18
102
{ACAD_REACTORS
330
12
102
}
330
12
100
AcDbXrecord
280
     1
270
     1
271
     1
  0
XRECORD
  5
15
102
{ACAD_REACTORS
330
12
102
}
330
12
100
AcDbXrecord
280
     1
270
     1
271
     1
  0
XRECORD
  5
C50
102
{ACAD_REACTORS
330
22
102
}
330
22
100
AcDbXrecord
280
     1
102
MATERIAL
148
0.0
149
0.0
149
0.0
 93
        0
 94
      127
282
     0
 72
     0
 77
     0
171
     0
175
     0
179
     0
273
     0
  0
XRECORD
  5
24
102
{ACAD_REACTORS
330
22
102
}
330
22
100
AcDbXrecord
280
     1
270
     1
271
     1
  0
XRECORD
  5
23
102
{ACAD_REACTORS
330
22
102
}
330
22
100
AcDbXrecord
280
     1
270
     1
271
     1
  0
XRECORD
  5
BA
102
{ACAD_REACTORS
330
22
102
}
330
22
100
AcDbXrecord
280
     1
 70
     1
 90
1959938040
 71
     1
  1
747A174E-BB5F-43C4-AFB3-6A9BC123A0A4
311
504B03040A0000080000997231403DEE336E79000000790000001B0000006175746F6465736B2D64657369676E2D7061636B6167652E786D6C3C3F786D6C2076657273696F6E3D22312E302220656E636F64696E673D227574662D3822203F3E3C666F726D6174733E3C666F726D61743E687474703A2F2F736368656D612E
311
6175746F6465736B2E636F6D2F64657369676E2D7061636B6167652F323030393C2F666F726D61743E3C2F666F726D6174733E504B030414000608080099723140D486FD9CA0000000F4000000130000005B436F6E74656E745F54797065735D2E786D6C7D8EC10E82300C865F65E91D8A1E8C310C0EEA1BF002731658846E
311
D98AC1B77784ABF1D8FE5FBFBF75BBCE937A534CCEB38643598122B6FEE978D0B0485F9C41B54DDD7D022595594E1A469170414C76A4D9A4D207E29CF43ECE46F218070CC6BECC4078ACAA135ACF422C856C0E68EA1BF5669944DDD7BCDE7B1F8E415D77AECB980613C2E4AC91FC167A2B244592486606FC29C8FD7F045B9A
311
EF7053A7E60B504B03041400060808009972314017C1E339E90000007C01000008000000636F72652E786D6C8D90D18E832010457F85F08E025AAB0669749B7EC1FE00016A492B1881CD7EFE426B93DDB77D9AC99D7B6626979DBE9707F8D29B37CE0E901418026DA553C6CE038CE18A5A084E9C6DCE855F3608AC58F400B3
311
0C399B3717D75D92CE066D4352AD537A1785F73A40201FA919A09737BD8842C4901CFE5EAC42DEC5AC0BF2EE121CA351E075C4A8B4CF5C8DDE20EFCED3D4D18F33A2988CA8AEA6118D75D5A20B39B45DD335C70B25ACCC3067C12CEFFB72D322680579C228C20491E327A97B8AFB0346B8E9316665B6FF81E2AAFE09456343
311
45F7775F98873C3FF21C7056E62C527906956ACE8DFF00504B03041400060808009972314055019EA25F0000007C00000007000000636E782E786D6C4DCB3B0E80201045D1AD90E915ED2CF8AC45050C11660C8261F98AB1B07AC9C97D42D718D865D3E909258CFD00CCE24AC6E326A164D74DC0B4128928FF326038472BA1
311
3128B1252AC747C6BAB984FC68F0B87FE8960A5C09FE86CFB69FBA01504B030414000608080099723140EC70392764010000020300000C0000006662782F636F72652E786D6C8D52ED8E8320107C15C27F04ADFD0CD2B4D7F409EE05A8528F54C120983EFEAD1F8DD74BD33426486676766747F9FE5E57A853AED5D664388E
311
1846CAE4B6D0A6CC70F057B2C1682FB8B3D6FF29C3C8C85A65B887B1E0A5B3A199A0DC1AAF8C07D4D8424DA06C5BE531CA2BB864B8CD7F542D23193C54B4B7A891F94D962A8A23A0A14EF0D63B3080C621FD89C5F572E774C4050F411713AB0B98A6AF5A392CB6A7E3719B7C9D48C2E2034917C70339A48B0D39C7CBCD76B5
311
5DADCF49CC692F16DCEBFAE12E774A7A556001B284B098C4EBEF38DD256CB76484AD768C71DA973F8942537C280ADAF84532D91D652D16BD9181F8B72D44E4512B3BF04305A77D88F01A127E0E1A028190BDBC548F3D6E00752AF7D6A5C01436CC5427ABA0602A43C3C3E9C842E7A1016CF6B24FF2A6CFFB1EF001A529C19A
311
F470BD04DF4FE7E3D4298A4639D2F93B32D6D5B29ACD8D16E7731EF4529EDBCABA4FD4745A954E61D2FEEF15BF504B0304140006080800997231400F1E9CA77E0000009D0000000B0000006662782F636E782E786D6C4DCCD10AC2201886E15B91FFDCE66AE1047554F3BF8FD1DC909C866974F96DB1838E3E78F87865F759
311
3C79DBF4723128A80F0C880DF738BA302B2879A22D904ECB1463FEBB0109C362156C0C5ACE2996E74EA39D86E2F3AADE85C78E8C9DCEC8F046B940431B7314F4525F39C55AF056F4BD416CA0D2B2FA95D6DDC2FA0B504B03041400060808009972314080CB2F1F2C01000014020000310000006662782F3030333546304643
311
2D373946452D344532392D413142372D4631393738394444454646342F636F72652E786D6C8D51CB6EC32010FC15C4293D60831F711C61A2B689BFA03F406D92A2C460F1A8F2F95D6A476A6FB9B06876667660F9E13EDDD0B7725E5BD36196518C9419ECA8CDA5C3319CC90EA383E0CEDAF08786919193EA7082B1E01767E3
311
BC428335419900A8B1A35A41E9BD0A180D37B874D80F5F6A92998C0118FE9ACD72B8CA8BCA58066DE009EE8383006819924E2C282DEB9EF6EFA469FB13A94E454B5ED95B437AD636BBF6783CF57DC5F34528788C7A5CE57A8438FAAC957BD62489050F7A7AC41F9C92418D581494158432C29A0F56ED0BBAAF29A1DB3DA53C
311
4FF47FA2388F4F8AA236A12CD6B88BCC63C178BE34041F6DFCBC3DC2A8FB6C5D4069DEC6ABE1055E95D18295655BD73C5FA8F001E0B9AD564F1FAC830FDE5C3F81CD80958CB795E079DA1194DF05424DFB143F504B0304140006080800997231402CCB882D4D01000033030000300000006662782F30303335463046432D37
311
3946452D344532392D413142372D4631393738394444454646342F636E782E786D6CD593C16EC32010447F0571B70DA99B561126520FFD821E7AC5B04969305880ABE6EFBB2424CD25871E7B41D6EC30B37AC262FB3D39F20531D9E007CA5B4609781D8CF5FB812E79D73C53B2952286906F6C947835C1408B4CA5D8C7B0CC
311
5532B0538BCBA83AEB0F558C90C212352494CB4DE282560E03C0370B8A308D600C187235E2D70E22AE82E27824F903C8EBCB3B09E327E89C445752A4E84A8714E5AC4D37264AB453290D34E90F9854AB961C0CA4436B54562D6F2F5D7776FA4D22E5C2A572899694F2819693CABA518B1C45874329528E48AF9AF271062AD5
311
3C3BAB5546C8DDC978F648B1589FD77DF55A041FD1CDD70F7D8F61A79914D94E501D3A82CA60A85C31BE6A186FF8D31BEF372BB679640D5B6F18135DB14B3186E0EA258C811866A283CFE033955C74657C0F5FF5116323B20EF1F8079008A0B69EE95C33FE339FEEF4BE1157C4BF40FE00504B030414000608080099723140
311
2F7B24189A0500007A100000340000006662782F30303335463046432D373946452D344532392D413142372D4631393738394444454646342F6F626A656374732E786D6CAD575D8F9B3814FD2B887D260949A6D3593154F9E85451356DD5A8D53E8C1419308C770C46B69966F6D7EF3118026932CDAEFA1282B9BEBEF7DC73
311
3F1CBCDBE7DC79A6523151DCBAFE68E23AB48845C28AECD6AD74EABD759D77612085D03D31D729484E6F5DB3EC8641264555DAA584A6A4E2FA68F56EF997A3625A50D7893951EAD655F123CDC988545A24543D8D12A2C9284BF7237FD4080ED56692948F474A4B2269A16129D60B68711AA3FCE1EBC41D87C1D87C0F03F36B
311
A566E7A5C6B53FC3F359A13429E29F0E3B5233F3E7EBF7D3AB1BEF6A3E9F79F33753DF5BDE2DD79E7F3D9BACDEAC56378BF737385869094DD612495337FC006C248B8371F3290C2A56E8D9D48AD8008D257D6626526E3875FC60DCC874DE59274F991F8BA2A0718D15D0A8FDB3AA135AD22241CC1955B0AC87D064F8EA1B1C
311
7B9F67E6DD1ED95FBE0C81FE8E9EA2D6F6F6D9B754447FC305750983A4A286810D96D6D186AB9303C29110DC7E63CAC989A69211EE701649225FDC10A246240C066A0C93A5C906E3811B220ACDE7215D9046BFE6F9292BD38A73436337ACB360875CA15AD596B17FA83C58DF4706362156860D6FAD43FAA5A46E78D350E4ED
311
119B1A209D94930C21879B66E76C7AE4E8CAE4E966ED861FEFA2FDD6E4EEE9C34B294A2AB5A10FA8D506AE7D1A94AC4DFE4591331BDC23530EA07C05F29F90EA07531037C9F6F3FDDC9EA22529542A648ED83813C79BE067E2F8F5AFF9DFFB178CBBCDC3E89DC313C13650FD063C873EF463D983330C9E41782167D6B56D4C
311
38CAC63D2B00902189C305965087D368EF861B54395465EC223CF4E132CC7DC6DF606CD5A050D427F59E05B03C2A8B171468C05633126634E4B7061EE2F45339AB0FB662E7E0BDFA2D745DACB71FB7954C494CEF6D4EAF69CA0AA6D1E20EBCE91B34C07CE0D1137DF9216402477FC67BDBC73BB74729A06D3037C0676D4D37
311
2F87930707C4D89709536E825F9C00274C63EDE9BF672AA69C93828AAA3DF7D5FE81B6D1406C92DD30B96B3087C602D2345F8E72104D3A96AC342076DDAA2B9AA333DE7DDB7C022321CF4544F841283A94DE58702177D1CBAEA94A2791FE3EA4B685606CB480ED758EB4E96F31DF252C4D2B851A7802D6EF9B553F74A62AA0
311
42B45A9B6499C37DE4169196B3AD5E346B49D04845B163689B48BB9307F4F503514B805AE1398B15E5E98E715EE5BB947134A35D4ECA3370FC7FFBA32A2F77241755A1CFE81E988EE630B47D405EF583E8F8D10DB7F5D35BA2F42634398479206C5AC909AC06A1BD9E5F2FFCEBF97B6FB9BCBAF3E6B3D5DC5BDC2D67DE9BC5
311
CD72E54F678BC962DEC6A9511E066DA7E92734A284CE165492D9F07DDB207D6C0D70C37BA2D5C387263BDBE7B7CD08A37030C61EB4CB6EE32279C6D847935F2B38489E54B4C94B4E735A686252E8DEFCE15F09C68C8131CDFA262719BD40CBE70FDB2367B072C1BE2F26DDE98FA3BD76756512F2A412FD58E55141183FDA98
311
35488ECA22B3F8B531E99E4D9F695FCD9B0D0C065325384B50061327A322A71AC5F0821E2473AA40BDFE489FD8ABC705BB9F9B01519388D3D692478219992BA405A855C57AB8EEFC8199CE8C55B72EBAEDE8093FB652B80E3873EB6246D72CA66A14A13F9B49A8560E2EF50779CCFDA4C83846ED6653F7DEED32D80C3A7227
311
72C9F864FD6A2AB8750065A4C4D8807908D1A98D0983DA36FB3DFE4F8EB7E63844E36F54E9CE97C342E74C7D0C52B471CA5E1630C33CD9A3F748D4D7DDF247B5CC00918B2E59AF92A0D1EA6922B3FAA260ECB3262DD65FC618509CCD67A7E45586585EAEC9931464AE4C8283456085D559120DAAAEFE7CF822052EB2B973C7
311
40818795C87351D89785BD083BDB475C6B930794056AEE23EA613AF1A70FF53DC05E4D761151744412F58405C454B20EE241E0C1C8E6B2880ED47CE8E4C6260847DCDCAC1DDBD250635BF97E5535B060E228A883EC317749932B7D81F2D5ABC0B816850912437CF82F504B0304140006080000997231400000000000000000
311
00000000350000006662782F30303335463046432D373946452D344532392D413142372D4631393738394444454646342F76657274696365732E62696E504B030414000608080099723140F270F1330600000004000000360000006662782F30303335463046432D373946452D344532392D413142372D4631393738394444
311
454646342F747269616E676C65732E62696E636660600000504B030414000608000099723140000000000000000000000000370000006662782F30303335463046432D373946452D344532392D413142372D4631393738394444454646342F617474726962757465732E62696E504B030414000608080099723140D5987DFC
311
8F00000041010000360000006662782F30303335463046432D373946452D344532392D413142372D4631393738394444454646342F6469726563746F72792E786D6C858F410EC2201045AF4266AF15DDB800BA74E7C21B903225242D6328188F2FA5C4183471359997F9FF81E89FF3C41E1816475E02DF1F80A11FC8386F25
311
A438EECEC07A250251FC3803E6F58C12560C4AD840E95E91C151A72936F496F35732D860FE635F62C8F2DA16B505C545B74125BAA2FA9E05D7CC053D063734D5C7665FD55B6B8D15D5E9BFEAFD8490FFA45E504B030414000608080099723140C8AF2981FC000000A00100003B0000006662782F30303335463046432D3739
311
46452D344532392D413142372D4631393738394444454646342F7265736F75726365732F636F72652E786D6C8D504B6E833010BD0A9ABDC1262401641C915439412F609909B512ECC89FAAC7AF1DA8D4EEBA9919BD8FE6E9F1D3D7F2283ED1796DCD00ACA450A05176D2661E20861B69A13809EEAC0DBF645018B9E0001906
311
C16767E373839435014D48A8B1136EA0F41E0314EA918E01BCFAC045963286A4F0F7F229D55DCE58B232D14927B80F2E0528D627798270E86D740A3DAF5656F018F5B469F4947EEA9B4607A27B3B9FBBFA72213565236976E7918CCDAE2557B66FBB4377385E6BC6AB6C163CE8E527A37228034E2092AD269411767C674D5F
311
D37E4F093DF494F22ACBFF98E273FAA7296A1376F51677B5791039C88B10BCCA7DA5F52A33EDDCADF806504B010214000A0000080000997231403DEE336E79000000790000001B00000000000000000000000000000000006175746F6465736B2D64657369676E2D7061636B6167652E786D6C504B01021400140006080800
311
99723140D486FD9CA0000000F40000001300000000000000000000000000B20000005B436F6E74656E745F54797065735D2E786D6C504B010214001400060808009972314017C1E339E90000007C010000080000000000000000000000000083010000636F72652E786D6C504B010214001400060808009972314055019EA2
311
5F0000007C000000070000000000000000000000000092020000636E782E786D6C504B0102140014000608080099723140EC70392764010000020300000C00000000000000000000000000160300006662782F636F72652E786D6C504B01021400140006080800997231400F1E9CA77E0000009D0000000B00000000000000
311
000000000000A40400006662782F636E782E786D6C504B010214001400060808009972314080CB2F1F2C0100001402000031000000000000000000000000004B0500006662782F30303335463046432D373946452D344532392D413142372D4631393738394444454646342F636F72652E786D6C504B010214001400060808
311
00997231402CCB882D4D010000330300003000000000000000000000000000C60600006662782F30303335463046432D373946452D344532392D413142372D4631393738394444454646342F636E782E786D6C504B01021400140006080800997231402F7B24189A0500007A10000034000000000000000000000000006108
311
00006662782F30303335463046432D373946452D344532392D413142372D4631393738394444454646342F6F626A656374732E786D6C504B010214001400060800009972314000000000000000000000000035000000000000000000000000004D0E00006662782F30303335463046432D373946452D344532392D41314237
311
2D4631393738394444454646342F76657274696365732E62696E504B0102140014000608080099723140F270F13306000000040000003600000000000000000000000000A00E00006662782F30303335463046432D373946452D344532392D413142372D4631393738394444454646342F747269616E676C65732E62696E50
311
4B01021400140006080000997231400000000000000000000000003700000000000000000000000000FA0E00006662782F30303335463046432D373946452D344532392D413142372D4631393738394444454646342F617474726962757465732E62696E504B0102140014000608080099723140D5987DFC8F000000410100
311
0036000000000000000000000000004F0F00006662782F30303335463046432D373946452D344532392D413142372D4631393738394444454646342F6469726563746F72792E786D6C504B0102140014000608080099723140C8AF2981FC000000A00100003B00000000000000000000000000321000006662782F30303335
311
463046432D373946452D344532392D413142372D4631393738394444454646342F7265736F75726365732F636F72652E786D6C504B0506000000000E000E0080040000871100000000
310
504B03040A0000080000997231403DEE336E79000000790000001B0000006175746F6465736B2D64657369676E2D7061636B6167652E786D6C3C3F786D6C2076657273696F6E3D22312E302220656E636F64696E673D227574662D3822203F3E3C666F726D6174733E3C666F726D61743E687474703A2F2F736368656D612E
310
6175746F6465736B2E636F6D2F64657369676E2D7061636B6167652F323030393C2F666F726D61743E3C2F666F726D6174733E504B030414000608080099723140D486FD9CA0000000F4000000130000005B436F6E74656E745F54797065735D2E786D6C7D8EC10E82300C865F65E91D8A1E8C310C0EEA1BF002731658846E
310
D98AC1B77784ABF1D8FE5FBFBF75BBCE937A534CCEB38643598122B6FEE978D0B0485F9C41B54DDD7D022595594E1A469170414C76A4D9A4D207E29CF43ECE46F218070CC6BECC4078ACAA135ACF422C856C0E68EA1BF5669944DDD7BCDE7B1F8E415D77AECB980613C2E4AC91FC167A2B244592486606FC29C8FD7F045B9A
310
EF7053A7E60B504B0304140006080800997231401BF26723E90000007C01000008000000636F72652E786D6C8D904D6EC3201085AF82668F0DFE496D0B13B9496ED00B20202E4A0C9681AAC72F248ED4EEBA9AD19BF7CD8C1E3B7E2F77F4A5376F9C1D81160490B6D22963E71162B8E20ED091B3CDB9F0CB06C88A458F9065
310
E06CDE5C5C77493A1BB40D49B54EE95D14DEEB0048DE533382979F7A1185882139FCAD5885BC895917F4D5253846A3D0F38851699FB91ABD01EFA7E9FD706E09EEEAE98C9B4B5FE3AEB9103CB5554DC9A93FF535656586390B6679DD979B16412BE015A1152614D3B70FDA0C15195A82C961208495D9FE078AABFA27148D0D
310
75B5BFFBC43CF0FCC863C05999B348E51154AA3937FE03504B03041400060808009972314055019EA25F0000007C00000007000000636E782E786D6C4DCB3B0E80201045D1AD90E915ED2CF8AC45050C11660C8261F98AB1B07AC9C97D42D718D865D3E909258CFD00CCE24AC6E326A164D74DC0B4128928FF326038472BA1
310
3128B1252AC747C6BAB984FC68F0B87FE8960A5C09FE86CFB69FBA01504B030414000608080099723140A8B8A72F65010000020300000C0000006662782F636F72652E786D6C8D52ED8E8320107C15C27F043FDAAB0DD2786DDFE05E802AF54C150C82E9E3DFFAD178BD34CDC504C9CCCEEEEC283FDCDB060DCAF6B5D1190E
310
038691D285296B5D65D8BB2BD9617410DC1AE37E9561A465AB323CC258F0CA1ADF2D5061B453DA01AA4DA91650F6BD7218150D5C32DC17DFAA9581F40E2AFA5BD0C9E2262B158401D0502778EF2C1840F390F1C4E27AB9733AE3827B5F970B5B9730ADBED6CA6291E6F9E7F6B4616417E727929CD398EC923323F9268A4376
310
4C8F691C723A8A057775FB705758259D2AB1885818111692F0E32B4CF611DB6F1861DB3D639C8EE54F22DF95FF14F95ABB385AECCEB21E8BD1C844FCD9162272A89703F8A182D33144784D093F070D8140C84E5E9AC71E37800655386313604AE3576A908D573095A1E9E17466A1F3D400367BD9277AD3E77D0FF880525760
310
4D3AB85EBC1BA7F379EA1245A72C19DC1D69635BD9ACE6668BEBB90E7A292F4C63EC7FD47459952E61D2F1EF153F504B0304140006080800997231402F6A944D7C0000009D0000000B0000006662782F636E782E786D6C4DCCD10AC2201886E15B91FFDCA6A4E6813A747521A3B921390DD3E8F2DB62071D7DF0F0F1AAFEB3
310
46F4F6E51572D2404F04904FF73C85B4686875C612506F54C9B9FEDD00A571F51A7606A39692DBF3A0C9CF638B75D318D2E3404BB82096323C38396076260E3BC90416F276E19453E1AE163AA3BA5F69DB3D6CBE504B030414000608080099723140AAB1473C2A01000014020000310000006662782F41303536304131342D
310
434238432D343330422D423834362D3638453735313531364244412F636F72652E786D6C8D51CB6EC32010FC158B537AC0061B1327C24471DA3FE80F10435294182C1E553EBF503B527BCB8545B333B3A35D76784CF7E25B39AFADE9012E11289419ADD4E6DA83182EB003C58133676DF84303851193EA418601675767E3BC
310
42A3354199905063A55A41E1BD0AA018EFE9D3033F7EA949942286C4F0B77216E34D5C5589CBD44E3CCE7C702940B10CC92FE047D45274C4049E86EE0449830638748442DA7D6C5BDC623ABC1F59B508398B51CB55AE658AA32F5AB9574DB298B3A0A767FCD129119404BC46B8860843BCFDC4645FA37D8B20A27B845895E9
310
FF4471962F8AA236A1A9D7B88BCC038E59B5343893369EEFCF30EA315B178A3C6FE3D5F806382A518D77843494550B352D207952B27AFA605D5AF0E6764EEC6635A684B32ADF2895DF03A69AEFC97F00504B0304140006080800997231404A6C473A5401000033030000300000006662782F41303536304131342D43423843
310
2D343330422D423834362D3638453735313531364244412F636E782E786D6CBD93CD6EC32010845F0571F76F5C378A30917AE813F4D02B864D4283C1025C356FDF2521692E3954AA7A41D6EC30B3FA84D9F66B32E4137CD0CE0EB4296B4AC04AA7B4DD0F7489BB624DC99633EF5CBCB35162C504034D32E56CEFDD326749C1
310
4E2C26A26AB43D66D143708B9710504E37897152180C005B2C28C2348252A0C8CD885F3BF0B80A8AE389C40390D79777E2C60F9031B02AA57056A50ECED2999BEE4C944823421868900798442996E8148463A9441465535EBB1EECF49344D2856BE5E23549E5034D27E579A31239B20A879C85E8915E36C5D30C948B79365A
310
8A8890ABB3F1E2E16CD136F65DF66A04EFD1BD6AFBF51AC3CE33CEA29E203BA407114151DED64D5BD44DD13CBF35DDA6AD374F7551F79BBA6655B273363A67F2258C01EF66229D8D6023E50DABD2F811BEEC234A7B64EDFCE9172011406EBDD0B965FC259FA65F75DD3FF2A9CEEF1B7179FC0BF837504B0304140006080800
310
99723140E4433D3F58070000931B0000340000006662782F41303536304131342D434238432D343330422D423834362D3638453735313531364244412F6F626A656374732E786D6CED595B6FA33814FE2B887D0E094DDA4E579451924EAB68D599D16467B40F9590030EF1D618649B5EF6D7EFF1050234B464A7FB360F0960
310
ECE373BE73F521F8F89451E70173417276E9FADEC475308BF384B0F4D22DE576F4C1753E8601CF73D998E63A0C65F8D255C36E18A43C2F0B3B94E02D2AA9EC8C5E2FFE72448C19769D9822212E5D11EF70863C54CA3CC1E2DE4B90445EBA7DF27CCF4C6C934D392A761DA205E29849E014C61950710C537EFB71E28EC360AC
310
DE8781FAB7B3A68366CDFA678DB5D46D2E091312B1F8054B1D32D3412C4DFDD9D5A793D38BD1E96C361DCDCE4EFCD1E27A7135F2CFA793E5D9727931FF7401EC6DF29C5A99125C609680FE9EDDD00FC6EA4D2DBA45E010D771CE188E3590009516AB4B9060015B35E09BB41F7D2551E3B596B0F13C53EF2D0B8DE1699B4ADF
310
AC6140B4E8822076BB4AE2EADA942FDFFC0D828B2146C90596C0AD901CB46BE1E1E0156E3809C666340C367B5D10E16448624E107528D970C4412930554D0903B3C09251CEC18194A324D09A33AFDBB6059EF9B6EB1CE2725B52AA3CC30DB56345E07E580ACD19F907F33DF74D64802790B6244C7EB05CCAE702BBE14530D6
310
8361A02ED313FBD200E96C294A8546C4BCED08BA54AEBFBA72C33FAE374F6B150E0E6F5EF0BCC05C2AA3537AD47C8121DBAB42C96EEB0FD29C5A00C21850EDCA3D28DF00F9CF103DF6AC80DE38799A3DCDEC5CC91113DB9C67A01B67E28C26F037717CFDAFEE1B77C1B85EDCD65E1F9EE0A60AAA0F3F8F675B068D95E5BF01
310
67183C80C1E77C6A5FAD6344C19E6F09038094913834872108EDDBCD931BAE207042A0875588863E880CEC3EC06D30B664F65AA9DCCB7A1D0344ED1ED3214A02D8B445021B3D7ABA81ECC149BC575353C43E784FDFC55CE757EB3FD625DFA218DF5A9FBEC25BC28884AC7998A116E62D89EEF1F363CE1310F425DEEB26DE99
310
DD4A00DA0A73057C5A81A01EF63BB73688615D9AAB7013BCB10308A1727583FE2D1131A614319C97D5BE757453865A7BBCAD19DCF0C4403C3DE99830C70F445515E034FB192D4621EFC79C140A4437BC3192D541D3EB91EEFBEA3358643DBF67D68A41E86588FEA983D6011C5A965D216D81A805DEECC3799CD39C479BE7C8
310
443A176A0960A3ED2D3F5A4421D61B25292AE041DAEFAA90921A69A3846CB7A580B87A80C51FAB65D31C26DED43F759AFF1D679C41B405DF45DCFA5D678F886428C5D116257DDB3577AB690B4DB28734C75B0A729107229F2324A34982D363A0398AF8C5BB524F692E04615840BE3A087E138D890781C468B3625969B50334
310
11518625A2C720A0C8F480ABD38EAE7163281DDEE6B1B6DED734D624FA3F590447504BE62C22508A420E799371DF3B8518D246D7A0DCC117ACADA2ADC5A0259410F173F48849BA93C7A06EC8F7E01EC391A494515EA018CC7A00D917BEA294DAE17D83E27B953FA2B8A4EF652002D36D44282DB3087E84C1C963886BD781E9
310
55141AC44DEC933883A20CC9920FD9E4EC74F2621F533374436063A32DA110B6A30C153DA8B702A2AE479C1A7C4BBD47A99B322B2294E5251B6428DEB4EB4D967C57AD8AEC407E55A908656345D8120C03C2649D55AB980DA6AE032BB8910E54CF91405941CD29EC8DC4E3D7DEA429F76EC0AD9FBEEF0619147E3DDA6B46D4
310
590583E5B15518884724E39D1BAEF575B480FA3BC1C93ED557B566B30204C454242F39B12AFABE82F2C6D6686E788BA4B8BB3159B7BA7E5F79D0FD08C6B0066A977AE14A019D612691AA4C6ED50DFD862004B76898F195CAA9C750992789AE1A11BD267DEA6C9511AD4D33E2153BCCF20C7EEC8EB0989609BE4389B88F6E25
310
8DD644B16EA5F4325261FCAA805F6ED61D78606480485F5581871F3B6BEDE852954B0789C85D996D182210045BA2A546375EC152AB914ACBF5559D29A0EE0203B32A9EFD3A5934DB11BF4E16A9358C9F3B59D07C83E83EDA34B279ACCCFAA853409D9E1495F73805E8AE434DB54E2226975BF1AD2F451013AB203FB818AB62
310
8621D8C7F17F4EDA7D49D06CD7E1FFB8A4EDBF28388E4A2AADC9AA4975A0705D3553D8F9EC7CEE9FCF3E8D168BD3EBD16CBA9C8DE6D78BE9E86C7EB158FA27D3F9643EABD1D47E1A06752CD3A90B9E4D4CAB86D593C5009AB222A72481C37CE2A41842BE8423FD80EE39CFB080DCD9EC7527B6273F60F58369734AB4A1B8E2
310
6487A03F4C056475C0A88C657BDCF90D3A9312CED9972EF48CBC7BF8B356E93A90782E5DE814481263E16DA0CBA4FA799A38645C9DFA2D31C007B1546544B3A87EAE57296C5AD1BF9E32240B58B95A2D0CA8DB0A687EB51A149A37CB537C94E0153B0E9270BB2925146B4696FD402D8CDE66AF7E231B25ECDE6EFD04AEFBBA
310
58BEA7E7B41019F4C5E0552330544712F154B7BB156396A5F9D5D731B4D99CD517A7A0650ABA1C4E69C4311873A9EA29B022B00A4BB340124C75F9FBDD579EC3179ECCD145D1DD32CFB29CD987391CC712F842E4AC77F0BD27B983AA01ABAEBAB83B99F82777BA9B6D1BECD10609ECA9720806AA2A4289D03136B0C8179D29
310
DBB71C2B2574A6AFAE1C1B3EA10B602CE84573D77CDD72C07BD47714E52BDAC32B395F6D688FF554B0060EADE8F05F504B030414000608000099723140000000000000000000000000350000006662782F41303536304131342D434238432D343330422D423834362D3638453735313531364244412F76657274696365732E
310
62696E504B030414000608080099723140F270F1330600000004000000360000006662782F41303536304131342D434238432D343330422D423834362D3638453735313531364244412F747269616E676C65732E62696E636660600000504B030414000608000099723140000000000000000000000000370000006662782F
310
41303536304131342D434238432D343330422D423834362D3638453735313531364244412F617474726962757465732E62696E504B030414000608080099723140D5987DFC8F00000041010000360000006662782F41303536304131342D434238432D343330422D423834362D3638453735313531364244412F6469726563
310
746F72792E786D6C858F410EC2201045AF4266AF15DDB800BA74E7C21B903225242D6328188F2FA5C4183471359997F9FF81E89FF3C41E1816475E02DF1F80A11FC8386F25A438EECEC07A250251FC3803E6F58C12560C4AD840E95E91C151A72936F496F35732D860FE635F62C8F2DA16B505C545B74125BAA2FA9E05D7CC
310
053D063734D5C7665FD55B6B8D15D5E9BFEAFD8490FFA45E504B0304140006080800997231409F1FB984FC000000A00100003B0000006662782F41303536304131342D434238432D343330422D423834362D3638453735313531364244412F7265736F75726365732F636F72652E786D6C8D504B6E833010BD0A9ABDC10692
310
02328E68929EA017B0CC24B512ECC89FAAC7AF1DA8D4EEBA9919BD8FE6E9F1C3D7722F3ED1796DCD08ACA450A05176D6E63A420C17D2417110DC591B7EC9A03072C111320C825F9D8D8F0D52D6043421A1C6CEB881D27B0C50A87B3A46F0EA031759CA1892C2DFCA87543779C59295894E3AC17D702940B13EC91384436FA3
310
53E879B5B282C7A8E74DA3E7F4535F343A10FD34BDEE4FED1BE99AE944DA73DF90AE3D5332EDEA86D1637FEC1BC6AB6C163CE8E527A3722803CE206ACA6A4219612FEFAC1D6A3AEC28A1FB81525E65F91F537CCCFF34456D42536F71579B0791833C09C1ABDC575ACF32D3CEDD8A6F504B010214000A000008000099723140
310
3DEE336E79000000790000001B00000000000000000000000000000000006175746F6465736B2D64657369676E2D7061636B6167652E786D6C504B0102140014000608080099723140D486FD9CA0000000F40000001300000000000000000000000000B20000005B436F6E74656E745F54797065735D2E786D6C504B010214
310
00140006080800997231401BF26723E90000007C010000080000000000000000000000000083010000636F72652E786D6C504B010214001400060808009972314055019EA25F0000007C000000070000000000000000000000000092020000636E782E786D6C504B0102140014000608080099723140A8B8A72F6501000002
310
0300000C00000000000000000000000000160300006662782F636F72652E786D6C504B01021400140006080800997231402F6A944D7C0000009D0000000B00000000000000000000000000A50400006662782F636E782E786D6C504B0102140014000608080099723140AAB1473C2A01000014020000310000000000000000
310
00000000004A0500006662782F41303536304131342D434238432D343330422D423834362D3638453735313531364244412F636F72652E786D6C504B01021400140006080800997231404A6C473A54010000330300003000000000000000000000000000C30600006662782F41303536304131342D434238432D343330422D
310
423834362D3638453735313531364244412F636E782E786D6C504B0102140014000608080099723140E4433D3F58070000931B00003400000000000000000000000000650800006662782F41303536304131342D434238432D343330422D423834362D3638453735313531364244412F6F626A656374732E786D6C504B0102
310
14001400060800009972314000000000000000000000000035000000000000000000000000000F1000006662782F41303536304131342D434238432D343330422D423834362D3638453735313531364244412F76657274696365732E62696E504B0102140014000608080099723140F270F133060000000400000036000000
310
00000000000000000000621000006662782F41303536304131342D434238432D343330422D423834362D3638453735313531364244412F747269616E676C65732E62696E504B01021400140006080000997231400000000000000000000000003700000000000000000000000000BC1000006662782F41303536304131342D
310
434238432D343330422D423834362D3638453735313531364244412F617474726962757465732E62696E504B0102140014000608080099723140D5987DFC8F000000410100003600000000000000000000000000111100006662782F41303536304131342D434238432D343330422D423834362D3638453735313531364244
310
412F6469726563746F72792E786D6C504B01021400140006080800997231409F1FB984FC000000A00100003B00000000000000000000000000F41100006662782F41303536304131342D434238432D343330422D423834362D3638453735313531364244412F7265736F75726365732F636F72652E786D6C504B0506000000
310
000E000E0080040000491300000000
  0
XRECORD
  5
27
102
{ACAD_REACTORS
330
22
102
}
330
22
100
AcDbXrecord
280
     1
270
     1
271
     1
  0
XRECORD
  5
26
102
{ACAD_REACTORS
330
22
102
}
330
22
100
AcDbXrecord
280
     1
270
     1
271
     1
  0
XRECORD
  5
28
102
{ACAD_REACTORS
330
22
102
}
330
22
100
AcDbXrecord
280
     1
270
     1
271
     1
  0
XRECORD
  5
25
102
{ACAD_REACTORS
330
22
102
}
330
22
100
AcDbXrecord
280
     1
270
     1
271
     1
  0
XRECORD
  5
C49
102
{ACAD_REACTORS
330
C48
102
}
330
C48
100
AcDbXrecord
280
     1
102
ACAD_ROUNDTRIP_2012_MLEADER_STYLE
298
     1
  0
CELLSTYLEMAP
  5
C47
102
{ACAD_REACTORS
330
C46
102
}
330
C46
100
AcDbCellStyleMap
 90
        3
300
CELLSTYLE
  1
TABLEFORMAT_BEGIN
 90
        5
170
     1
 91
        0
 92
    32768
 62
   257
 93
        1
300
CONTENTFORMAT
  1
CONTENTFORMAT_BEGIN
 90
        0
 91
        0
 92
      512
 93
        0
300

 40
0.0
140
1.0
 94
        5
 62
     0
340
55
144
0.25
309
CONTENTFORMAT_END
171
     0
 94
        0
309
TABLEFORMAT_END
  1
CELLSTYLE_BEGIN
 90
        1
 91
        1
300
_TITLE
309
CELLSTYLE_END
300
CELLSTYLE
  1
TABLEFORMAT_BEGIN
 90
        5
170
     1
 91
        0
 92
        0
 62
   257
 93
        1
300
CONTENTFORMAT
  1
CONTENTFORMAT_BEGIN
 90
        0
 91
        0
 92
      512
 93
        0
300

 40
0.0
140
1.0
 94
        5
 62
     0
340
55
144
0.18
309
CONTENTFORMAT_END
171
     0
 94
        0
309
TABLEFORMAT_END
  1
CELLSTYLE_BEGIN
 90
        2
 91
        1
300
_HEADER
309
CELLSTYLE_END
300
CELLSTYLE
  1
TABLEFORMAT_BEGIN
 90
        5
170
     1
 91
        0
 92
        0
 62
   257
 93
        1
300
CONTENTFORMAT
  1
CONTENTFORMAT_BEGIN
 90
        0
 91
        0
 92
      512
 93
        0
300

 40
0.0
140
1.0
 94
        2
 62
     0
340
55
144
0.18
309
CONTENTFORMAT_END
171
     0
 94
        0
309
TABLEFORMAT_END
  1
CELLSTYLE_BEGIN
 90
        3
 91
        2
300
_DATA
309
CELLSTYLE_END
  0
XRECORD
  5
C81
102
{ACAD_REACTORS
330
C46
102
}
330
C46
100
AcDbXrecord
280
     1
102
ACAD_ROUNDTRIP_PRE2007_TABLESTYLE
 90
      512
 91
        0
  1

 92
      512
 93
        0
  2

 94
      512
 95
        0
  3

  0
XRECORD
  5
C5C
102
{ACAD_REACTORS
330
C5B
102
}
330
C5B
100
AcDbXrecord
280
     1
102
RTVSPropertyOp0
 70
     1
102
RTVSPropertyOp1
 70
     1
102
RTVSPropertyOp2
 70
     1
102
RTVSPropertyOp3
 70
     1
102
RTVSPropertyOp4
 70
     1
102
RTVSPropertyOp5
 70
     1
102
RTVSPropertyOp6
 70
     1
102
RTVSPropertyOp7
 70
     1
102
RTVSPropertyOp8
 70
     1
102
RTVSPropertyOp9
 70
     1
102
RTVSPropertyOp10
 70
     1
102
RTVSPropertyOp11
 70
     1
102
RTVSPropertyOp12
 70
     1
102
RTVSPropertyOp13
 70
     1
102
RTVSPropertyOp14
 70
     1
102
RTVSPropertyOp15
 70
     1
102
RTVSPropertyOp16
 70
     1
102
RTVSPropertyOp17
 70
     1
102
RTVSPropertyOp18
 70
     1
102
RTVSPropertyOp19
 70
     1
102
RTVSPropertyOp20
 70
     1
102
RTVSPropertyOp21
 70
     1
102
RTVSPropertyOp22
 70
     1
102
RTVSPropertyOp23
 70
     1
102
RTVSPropertyOp24
 70
     1
102
RTVSPropertyOp25
 70
     1
102
RTVSPropertyOp26
 70
     1
102
RTVSPropertyOp27
 70
     1
102
RTVSPropertyOp28
 70
     1
102
RTVSPropertyOp29
 70
     1
102
RTVSPropertyOp30
 70
     1
102
RTVSPropertyOp31
 70
     1
102
RTVSPropertyOp32
 70
     1
  0
XRECORD
  5
C5A
102
{ACAD_REACTORS
330
C59
102
}
330
C59
100
AcDbXrecord
280
     1
102
RTVSPropertyOp0
 70
     1
102
RTVSPropertyOp1
 70
     1
102
RTVSPropertyOp2
 70
     1
102
RTVSPropertyOp3
 70
     1
102
RTVSPropertyOp4
 70
     1
102
RTVSPropertyOp5
 70
     1
102
RTVSPropertyOp6
 70
     1
102
RTVSPropertyOp7
 70
     1
102
RTVSPropertyOp8
 70
     1
102
RTVSPropertyOp9
 70
     1
102
RTVSPropertyOp10
 70
     1
102
RTVSPropertyOp11
 70
     1
102
RTVSPropertyOp12
 70
     1
102
RTVSPropertyOp13
 70
     1
102
RTVSPropertyOp14
 70
     1
102
RTVSPropertyOp15
 70
     1
102
RTVSPropertyOp16
 70
     1
102
RTVSPropertyOp17
 70
     1
102
RTVSPropertyOp18
 70
     1
102
RTVSPropertyOp19
 70
     1
102
RTVSPropertyOp20
 70
     1
102
RTVSPropertyOp21
 70
     1
102
RTVSPropertyOp22
 70
     1
102
RTVSPropertyOp23
 70
     1
102
RTVSPropertyOp24
 70
     1
102
RTVSPropertyOp25
 70
     1
102
RTVSPropertyOp26
 70
     1
102
RTVSPropertyOp27
 70
     1
102
RTVSPropertyOp28
 70
     1
102
RTVSPropertyOp29
 70
     1
102
RTVSPropertyOp30
 70
     1
102
RTVSPropertyOp31
 70
     1
102
RTVSPropertyOp32
 70
     1
  0
XRECORD
  5
C68
102
{ACAD_REACTORS
330
C67
102
}
330
C67
100
AcDbXrecord
280
     1
102
RTVSPropertyOp0
 70
     1
102
RTVSPropertyOp1
 70
     1
102
RTVSPropertyOp2
 70
     1
102
RTVSPropertyOp3
 70
     1
102
RTVSPropertyOp4
 70
     1
102
RTVSPropertyOp5
 70
     1
102
RTVSPropertyOp6
 70
     1
102
RTVSPropertyOp7
 70
     1
102
RTVSPropertyOp8
 70
     1
102
RTVSPropertyOp9
 70
     1
102
RTVSPropertyOp10
 70
     1
102
RTVSPropertyOp11
 70
     1
102
RTVSPropertyOp12
 70
     1
102
RTVSPropertyOp13
 70
     1
102
RTVSPropertyOp14
 70
     1
102
RTVSPropertyOp15
 70
     1
102
RTVSPropertyOp16
 70
     1
102
RTVSPropertyOp17
 70
     1
102
RTVSPropertyOp18
 70
     1
102
RTVSPropertyOp19
 70
     1
102
RTVSPropertyOp20
 70
     1
102
RTVSPropertyOp21
 70
     1
102
RTVSPropertyOp22
 70
     1
102
RTVSPropertyOp23
 70
     1
102
RTVSPropertyOp24
 70
     1
102
RTVSPropertyOp25
 70
     1
102
RTVSPropertyOp26
 70
     1
102
RTVSPropertyOp27
 70
     1
102
RTVSPropertyOp28
 70
     1
102
RTVSPropertyOp29
 70
     1
102
RTVSPropertyOp30
 70
     1
102
RTVSPropertyOp31
 70
     1
102
RTVSPropertyOp32
 70
     1
  0
XRECORD
  5
C70
102
{ACAD_REACTORS
330
C6F
102
}
330
C6F
100
AcDbXrecord
280
     1
102
RTVSPropertyOp0
 70
     1
102
RTVSPropertyOp1
 70
     1
102
RTVSPropertyOp2
 70
     1
102
RTVSPropertyOp3
 70
     1
102
RTVSPropertyOp4
 70
     1
102
RTVSPropertyOp5
 70
     1
102
RTVSPropertyOp6
 70
     1
102
RTVSPropertyOp7
 70
     1
102
RTVSPropertyOp8
 70
     1
102
RTVSPropertyOp9
 70
     1
102
RTVSPropertyOp10
 70
     1
102
RTVSPropertyOp11
 70
     1
102
RTVSPropertyOp12
 70
     1
102
RTVSPropertyOp13
 70
     1
102
RTVSPropertyOp14
 70
     1
102
RTVSPropertyOp15
 70
     1
102
RTVSPropertyOp16
 70
     1
102
RTVSPropertyOp17
 70
     1
102
RTVSPropertyOp18
 70
     1
102
RTVSPropertyOp19
 70
     1
102
RTVSPropertyOp20
 70
     1
102
RTVSPropertyOp21
 70
     1
102
RTVSPropertyOp22
 70
     1
102
RTVSPropertyOp23
 70
     1
102
RTVSPropertyOp24
 70
     1
102
RTVSPropertyOp25
 70
     1
102
RTVSPropertyOp26
 70
     1
102
RTVSPropertyOp27
 70
     1
102
RTVSPropertyOp28
 70
     1
102
RTVSPropertyOp29
 70
     1
102
RTVSPropertyOp30
 70
     1
102
RTVSPropertyOp31
 70
     1
102
RTVSPropertyOp32
 70
     1
  0
XRECORD
  5
C62
102
{ACAD_REACTORS
330
C61
102
}
330
C61
100
AcDbXrecord
280
     1
102
RTVSPropertyOp0
 70
     1
102
RTVSPropertyOp1
 70
     1
102
RTVSPropertyOp2
 70
     1
102
RTVSPropertyOp3
 70
     1
102
RTVSPropertyOp4
 70
     1
102
RTVSPropertyOp5
 70
     1
102
RTVSPropertyOp6
 70
     1
102
RTVSPropertyOp7
 70
     1
102
RTVSPropertyOp8
 70
     1
102
RTVSPropertyOp9
 70
     1
102
RTVSPropertyOp10
 70
     1
102
RTVSPropertyOp11
 70
     1
102
RTVSPropertyOp12
 70
     1
102
RTVSPropertyOp13
 70
     1
102
RTVSPropertyOp14
 70
     1
102
RTVSPropertyOp15
 70
     1
102
RTVSPropertyOp16
 70
     1
102
RTVSPropertyOp17
 70
     1
102
RTVSPropertyOp18
 70
     1
102
RTVSPropertyOp19
 70
     1
102
RTVSPropertyOp20
 70
     1
102
RTVSPropertyOp21
 70
     1
102
RTVSPropertyOp22
 70
     1
102
RTVSPropertyOp23
 70
     1
102
RTVSPropertyOp24
 70
     1
102
RTVSPropertyOp25
 70
     1
102
RTVSPropertyOp26
 70
     1
102
RTVSPropertyOp27
 70
     1
102
RTVSPropertyOp28
 70
     1
102
RTVSPropertyOp29
 70
     1
102
RTVSPropertyOp30
 70
     1
102
RTVSPropertyOp31
 70
     1
102
RTVSPropertyOp32
 70
     1
  0
XRECORD
  5
C66
102
{ACAD_REACTORS
330
C65
102
}
330
C65
100
AcDbXrecord
280
     1
102
RTVSPropertyOp0
 70
     1
102
RTVSPropertyOp1
 70
     1
102
RTVSPropertyOp2
 70
     1
102
RTVSPropertyOp3
 70
     1
102
RTVSPropertyOp4
 70
     1
102
RTVSPropertyOp5
 70
     1
102
RTVSPropertyOp6
 70
     1
102
RTVSPropertyOp7
 70
     1
102
RTVSPropertyOp8
 70
     1
102
RTVSPropertyOp9
 70
     1
102
RTVSPropertyOp10
 70
     1
102
RTVSPropertyOp11
 70
     1
102
RTVSPropertyOp12
 70
     1
102
RTVSPropertyOp13
 70
     1
102
RTVSPropertyOp14
 70
     1
102
RTVSPropertyOp15
 70
     1
102
RTVSPropertyOp16
 70
     1
102
RTVSPropertyOp17
 70
     1
102
RTVSPropertyOp18
 70
     1
102
RTVSPropertyOp19
 70
     1
102
RTVSPropertyOp20
 70
     1
102
RTVSPropertyOp21
 70
     1
102
RTVSPropertyOp22
 70
     1
102
RTVSPropertyOp23
 70
     1
102
RTVSPropertyOp24
 70
     1
102
RTVSPropertyOp25
 70
     1
102
RTVSPropertyOp26
 70
     1
102
RTVSPropertyOp27
 70
     1
102
RTVSPropertyOp28
 70
     1
102
RTVSPropertyOp29
 70
     1
102
RTVSPropertyOp30
 70
     1
102
RTVSPropertyOp31
 70
     1
102
RTVSPropertyOp32
 70
     1
  0
XRECORD
  5
C80
102
{ACAD_REACTORS
330
C7F
102
}
330
C7F
100
AcDbXrecord
280
     1
102
RTVSPropertyOp0
 70
     0
102
RTVSPropertyOp1
 70
     0
102
RTVSPropertyOp2
 70
     0
102
RTVSPropertyOp3
 70
     0
102
RTVSPropertyOp4
 70
     0
102
RTVSPropertyOp5
 70
     0
102
RTVSPropertyOp6
 70
     0
102
RTVSPropertyOp7
 70
     0
102
RTVSPropertyOp8
 70
     0
102
RTVSPropertyOp9
 70
     0
102
RTVSPropertyOp10
 70
     0
102
RTVSPropertyOp11
 70
     0
102
RTVSPropertyOp12
 70
     0
102
RTVSPropertyOp13
 70
     0
102
RTVSPropertyOp14
 70
     2
102
RTVSPropertyOp15
 70
     0
102
RTVSPropertyOp16
 70
     0
102
RTVSPropertyOp17
 70
     0
102
RTVSPropertyOp18
 70
     0
102
RTVSPropertyOp19
 70
     0
102
RTVSPropertyOp20
 70
     0
102
RTVSPropertyOp21
 70
     0
102
RTVSPropertyOp22
 70
     0
102
RTVSPropertyOp23
 70
     0
102
RTVSPropertyOp24
 70
     0
102
RTVSPropertyOp25
 70
     0
102
RTVSPropertyOp26
 70
     0
102
RTVSPropertyOp27
 70
     0
102
RTVSPropertyOp28
 70
     1
102
RTVSPropertyOp29
 70
     1
102
RTVSPropertyOp30
 70
     1
102
RTVSPropertyOp31
 70
     1
102
RTVSPropertyOp32
 70
     1
  0
XRECORD
  5
C6E
102
{ACAD_REACTORS
330
C6D
102
}
330
C6D
100
AcDbXrecord
280
     1
102
RTVSPropertyOp0
 70
     1
102
RTVSPropertyOp1
 70
     1
102
RTVSPropertyOp2
 70
     1
102
RTVSPropertyOp3
 70
     1
102
RTVSPropertyOp4
 70
     1
102
RTVSPropertyOp5
 70
     1
102
RTVSPropertyOp6
 70
     1
102
RTVSPropertyOp7
 70
     1
102
RTVSPropertyOp8
 70
     1
102
RTVSPropertyOp9
 70
     1
102
RTVSPropertyOp10
 70
     1
102
RTVSPropertyOp11
 70
     1
102
RTVSPropertyOp12
 70
     1
102
RTVSPropertyOp13
 70
     1
102
RTVSPropertyOp14
 70
     1
102
RTVSPropertyOp15
 70
     1
102
RTVSPropertyOp16
 70
     1
102
RTVSPropertyOp17
 70
     1
102
RTVSPropertyOp18
 70
     1
102
RTVSPropertyOp19
 70
     1
102
RTVSPropertyOp20
 70
     1
102
RTVSPropertyOp21
 70
     1
102
RTVSPropertyOp22
 70
     1
102
RTVSPropertyOp23
 70
     1
102
RTVSPropertyOp24
 70
     1
102
RTVSPropertyOp25
 70
     1
102
RTVSPropertyOp26
 70
     1
102
RTVSPropertyOp27
 70
     1
102
RTVSPropertyOp28
 70
     1
102
RTVSPropertyOp29
 70
     1
102
RTVSPropertyOp30
 70
     1
102
RTVSPropertyOp31
 70
     1
102
RTVSPropertyOp32
 70
     1
  0
XRECORD
  5
C52
102
{ACAD_REACTORS
330
C51
102
}
330
C51
100
AcDbXrecord
280
     1
102
RTVSPropertyOp0
 70
     1
102
RTVSPropertyOp1
 70
     1
102
RTVSPropertyOp2
 70
     1
102
RTVSPropertyOp3
 70
     1
102
RTVSPropertyOp4
 70
     1
102
RTVSPropertyOp5
 70
     1
102
RTVSPropertyOp6
 70
     1
102
RTVSPropertyOp7
 70
     1
102
RTVSPropertyOp8
 70
     1
102
RTVSPropertyOp9
 70
     1
102
RTVSPropertyOp10
 70
     1
102
RTVSPropertyOp11
 70
     1
102
RTVSPropertyOp12
 70
     1
102
RTVSPropertyOp13
 70
     1
102
RTVSPropertyOp14
 70
     1
102
RTVSPropertyOp15
 70
     1
102
RTVSPropertyOp16
 70
     1
102
RTVSPropertyOp17
 70
     1
102
RTVSPropertyOp18
 70
     1
102
RTVSPropertyOp19
 70
     1
102
RTVSPropertyOp20
 70
     1
102
RTVSPropertyOp21
 70
     1
102
RTVSPropertyOp22
 70
     1
102
RTVSPropertyOp23
 70
     1
102
RTVSPropertyOp24
 70
     1
102
RTVSPropertyOp25
 70
     1
102
RTVSPropertyOp26
 70
     1
102
RTVSPropertyOp27
 70
     1
102
RTVSPropertyOp28
 70
     1
102
RTVSPropertyOp29
 70
     1
102
RTVSPropertyOp30
 70
     1
102
RTVSPropertyOp31
 70
     1
102
RTVSPropertyOp32
 70
     1
  0
XRECORD
  5
C54
102
{ACAD_REACTORS
330
C53
102
}
330
C53
100
AcDbXrecord
280
     1
102
RTVSPropertyOp0
 70
     1
102
RTVSPropertyOp1
 70
     1
102
RTVSPropertyOp2
 70
     1
102
RTVSPropertyOp3
 70
     1
102
RTVSPropertyOp4
 70
     1
102
RTVSPropertyOp5
 70
     1
102
RTVSPropertyOp6
 70
     1
102
RTVSPropertyOp7
 70
     1
102
RTVSPropertyOp8
 70
     1
102
RTVSPropertyOp9
 70
     1
102
RTVSPropertyOp10
 70
     1
102
RTVSPropertyOp11
 70
     1
102
RTVSPropertyOp12
 70
     1
102
RTVSPropertyOp13
 70
     1
102
RTVSPropertyOp14
 70
     1
102
RTVSPropertyOp15
 70
     1
102
RTVSPropertyOp16
 70
     1
102
RTVSPropertyOp17
 70
     1
102
RTVSPropertyOp18
 70
     1
102
RTVSPropertyOp19
 70
     1
102
RTVSPropertyOp20
 70
     1
102
RTVSPropertyOp21
 70
     1
102
RTVSPropertyOp22
 70
     1
102
RTVSPropertyOp23
 70
     1
102
RTVSPropertyOp24
 70
     1
102
RTVSPropertyOp25
 70
     1
102
RTVSPropertyOp26
 70
     1
102
RTVSPropertyOp27
 70
     1
102
RTVSPropertyOp28
 70
     1
102
RTVSPropertyOp29
 70
     1
102
RTVSPropertyOp30
 70
     1
102
RTVSPropertyOp31
 70
     1
102
RTVSPropertyOp32
 70
     1
  0
XRECORD
  5
C56
102
{ACAD_REACTORS
330
C55
102
}
330
C55
100
AcDbXrecord
280
     1
102
RTVSPropertyOp0
 70
     1
102
RTVSPropertyOp1
 70
     1
102
RTVSPropertyOp2
 70
     1
102
RTVSPropertyOp3
 70
     1
102
RTVSPropertyOp4
 70
     1
102
RTVSPropertyOp5
 70
     1
102
RTVSPropertyOp6
 70
     1
102
RTVSPropertyOp7
 70
     1
102
RTVSPropertyOp8
 70
     1
102
RTVSPropertyOp9
 70
     1
102
RTVSPropertyOp10
 70
     1
102
RTVSPropertyOp11
 70
     1
102
RTVSPropertyOp12
 70
     1
102
RTVSPropertyOp13
 70
     1
102
RTVSPropertyOp14
 70
     1
102
RTVSPropertyOp15
 70
     1
102
RTVSPropertyOp16
 70
     1
102
RTVSPropertyOp17
 70
     1
102
RTVSPropertyOp18
 70
     1
102
RTVSPropertyOp19
 70
     1
102
RTVSPropertyOp20
 70
     1
102
RTVSPropertyOp21
 70
     1
102
RTVSPropertyOp22
 70
     1
102
RTVSPropertyOp23
 70
     1
102
RTVSPropertyOp24
 70
     1
102
RTVSPropertyOp25
 70
     1
102
RTVSPropertyOp26
 70
     1
102
RTVSPropertyOp27
 70
     1
102
RTVSPropertyOp28
 70
     1
102
RTVSPropertyOp29
 70
     1
102
RTVSPropertyOp30
 70
     1
102
RTVSPropertyOp31
 70
     1
102
RTVSPropertyOp32
 70
     1
  0
XRECORD
  5
C58
102
{ACAD_REACTORS
330
C57
102
}
330
C57
100
AcDbXrecord
280
     1
102
RTVSPropertyOp0
 70
     1
102
RTVSPropertyOp1
 70
     1
102
RTVSPropertyOp2
 70
     1
102
RTVSPropertyOp3
 70
     1
102
RTVSPropertyOp4
 70
     1
102
RTVSPropertyOp5
 70
     1
102
RTVSPropertyOp6
 70
     1
102
RTVSPropertyOp7
 70
     1
102
RTVSPropertyOp8
 70
     1
102
RTVSPropertyOp9
 70
     1
102
RTVSPropertyOp10
 70
     1
102
RTVSPropertyOp11
 70
     1
102
RTVSPropertyOp12
 70
     1
102
RTVSPropertyOp13
 70
     1
102
RTVSPropertyOp14
 70
     1
102
RTVSPropertyOp15
 70
     1
102
RTVSPropertyOp16
 70
     1
102
RTVSPropertyOp17
 70
     1
102
RTVSPropertyOp18
 70
     1
102
RTVSPropertyOp19
 70
     1
102
RTVSPropertyOp20
 70
     1
102
RTVSPropertyOp21
 70
     1
102
RTVSPropertyOp22
 70
     1
102
RTVSPropertyOp23
 70
     1
102
RTVSPropertyOp24
 70
     1
102
RTVSPropertyOp25
 70
     1
102
RTVSPropertyOp26
 70
     1
102
RTVSPropertyOp27
 70
     1
102
RTVSPropertyOp28
 70
     1
102
RTVSPropertyOp29
 70
     1
102
RTVSPropertyOp30
 70
     1
102
RTVSPropertyOp31
 70
     1
102
RTVSPropertyOp32
 70
     1
  0
XRECORD
  5
C60
102
{ACAD_REACTORS
330
C5F
102
}
330
C5F
100
AcDbXrecord
280
     1
102
RTVSPropertyOp0
 70
     1
102
RTVSPropertyOp1
 70
     1
102
RTVSPropertyOp2
 70
     1
102
RTVSPropertyOp3
 70
     1
102
RTVSPropertyOp4
 70
     1
102
RTVSPropertyOp5
 70
     1
102
RTVSPropertyOp6
 70
     1
102
RTVSPropertyOp7
 70
     1
102
RTVSPropertyOp8
 70
     1
102
RTVSPropertyOp9
 70
     1
102
RTVSPropertyOp10
 70
     1
102
RTVSPropertyOp11
 70
     1
102
RTVSPropertyOp12
 70
     1
102
RTVSPropertyOp13
 70
     1
102
RTVSPropertyOp14
 70
     1
102
RTVSPropertyOp15
 70
     1
102
RTVSPropertyOp16
 70
     1
102
RTVSPropertyOp17
 70
     1
102
RTVSPropertyOp18
 70
     1
102
RTVSPropertyOp19
 70
     1
102
RTVSPropertyOp20
 70
     1
102
RTVSPropertyOp21
 70
     1
102
RTVSPropertyOp22
 70
     1
102
RTVSPropertyOp23
 70
     1
102
RTVSPropertyOp24
 70
     1
102
RTVSPropertyOp25
 70
     1
102
RTVSPropertyOp26
 70
     1
102
RTVSPropertyOp27
 70
     1
102
RTVSPropertyOp28
 70
     1
102
RTVSPropertyOp29
 70
     1
102
RTVSPropertyOp30
 70
     1
102
RTVSPropertyOp31
 70
     1
102
RTVSPropertyOp32
 70
     1
  0
XRECORD
  5
C7C
102
{ACAD_REACTORS
330
C7B
102
}
330
C7B
100
AcDbXrecord
280
     1
102
RTVSPropertyOp0
 70
     0
102
RTVSPropertyOp1
 70
     0
102
RTVSPropertyOp2
 70
     0
102
RTVSPropertyOp3
 70
     0
102
RTVSPropertyOp4
 70
     0
102
RTVSPropertyOp5
 70
     0
102
RTVSPropertyOp6
 70
     0
102
RTVSPropertyOp7
 70
     0
102
RTVSPropertyOp8
 70
     0
102
RTVSPropertyOp9
 70
     0
102
RTVSPropertyOp10
 70
     0
102
RTVSPropertyOp11
 70
     0
102
RTVSPropertyOp12
 70
     0
102
RTVSPropertyOp13
 70
     0
102
RTVSPropertyOp14
 70
     2
102
RTVSPropertyOp15
 70
     0
102
RTVSPropertyOp16
 70
     0
102
RTVSPropertyOp17
 70
     0
102
RTVSPropertyOp18
 70
     0
102
RTVSPropertyOp19
 70
     0
102
RTVSPropertyOp20
 70
     0
102
RTVSPropertyOp21
 70
     0
102
RTVSPropertyOp22
 70
     0
102
RTVSPropertyOp23
 70
     0
102
RTVSPropertyOp24
 70
     0
102
RTVSPropertyOp25
 70
     0
102
RTVSPropertyOp26
 70
     0
102
RTVSPropertyOp27
 70
     0
102
RTVSPropertyOp28
 70
     1
102
RTVSPropertyOp29
 70
     1
102
RTVSPropertyOp30
 70
     1
102
RTVSPropertyOp31
 70
     1
102
RTVSPropertyOp32
 70
     1
  0
XRECORD
  5
C6C
102
{ACAD_REACTORS
330
C6B
102
}
330
C6B
100
AcDbXrecord
280
     1
102
RTVSPropertyOp0
 70
     1
102
RTVSPropertyOp1
 70
     1
102
RTVSPropertyOp2
 70
     1
102
RTVSPropertyOp3
 70
     1
102
RTVSPropertyOp4
 70
     1
102
RTVSPropertyOp5
 70
     1
102
RTVSPropertyOp6
 70
     1
102
RTVSPropertyOp7
 70
     1
102
RTVSPropertyOp8
 70
     1
102
RTVSPropertyOp9
 70
     1
102
RTVSPropertyOp10
 70
     1
102
RTVSPropertyOp11
 70
     1
102
RTVSPropertyOp12
 70
     1
102
RTVSPropertyOp13
 70
     1
102
RTVSPropertyOp14
 70
     1
102
RTVSPropertyOp15
 70
     1
102
RTVSPropertyOp16
 70
     1
102
RTVSPropertyOp17
 70
     1
102
RTVSPropertyOp18
 70
     1
102
RTVSPropertyOp19
 70
     1
102
RTVSPropertyOp20
 70
     1
102
RTVSPropertyOp21
 70
     1
102
RTVSPropertyOp22
 70
     1
102
RTVSPropertyOp23
 70
     1
102
RTVSPropertyOp24
 70
     1
102
RTVSPropertyOp25
 70
     1
102
RTVSPropertyOp26
 70
     1
102
RTVSPropertyOp27
 70
     1
102
RTVSPropertyOp28
 70
     1
102
RTVSPropertyOp29
 70
     1
102
RTVSPropertyOp30
 70
     1
102
RTVSPropertyOp31
 70
     1
102
RTVSPropertyOp32
 70
     1
  0
XRECORD
  5
C7E
102
{ACAD_REACTORS
330
C7D
102
}
330
C7D
100
AcDbXrecord
280
     1
102
RTVSPropertyOp0
 70
     0
102
RTVSPropertyOp1
 70
     0
102
RTVSPropertyOp2
 70
     0
102
RTVSPropertyOp3
 70
     0
102
RTVSPropertyOp4
 70
     0
102
RTVSPropertyOp5
 70
     0
102
RTVSPropertyOp6
 70
     0
102
RTVSPropertyOp7
 70
     0
102
RTVSPropertyOp8
 70
     0
102
RTVSPropertyOp9
 70
     0
102
RTVSPropertyOp10
 70
     0
102
RTVSPropertyOp11
 70
     0
102
RTVSPropertyOp12
 70
     0
102
RTVSPropertyOp13
 70
     0
102
RTVSPropertyOp14
 70
     2
102
RTVSPropertyOp15
 70
     0
102
RTVSPropertyOp16
 70
     0
102
RTVSPropertyOp17
 70
     0
102
RTVSPropertyOp18
 70
     0
102
RTVSPropertyOp19
 70
     0
102
RTVSPropertyOp20
 70
     0
102
RTVSPropertyOp21
 70
     0
102
RTVSPropertyOp22
 70
     0
102
RTVSPropertyOp23
 70
     0
102
RTVSPropertyOp24
 70
     0
102
RTVSPropertyOp25
 70
     0
102
RTVSPropertyOp26
 70
     0
102
RTVSPropertyOp27
 70
     0
102
RTVSPropertyOp28
 70
     1
102
RTVSPropertyOp29
 70
     1
102
RTVSPropertyOp30
 70
     1
102
RTVSPropertyOp31
 70
     1
102
RTVSPropertyOp32
 70
     1
  0
XRECORD
  5
C64
102
{ACAD_REACTORS
330
C63
102
}
330
C63
100
AcDbXrecord
280
     1
102
RTVSPropertyOp0
 70
     1
102
RTVSPropertyOp1
 70
     1
102
RTVSPropertyOp2
 70
     1
102
RTVSPropertyOp3
 70
     1
102
RTVSPropertyOp4
 70
     1
102
RTVSPropertyOp5
 70
     1
102
RTVSPropertyOp6
 70
     1
102
RTVSPropertyOp7
 70
     1
102
RTVSPropertyOp8
 70
     1
102
RTVSPropertyOp9
 70
     1
102
RTVSPropertyOp10
 70
     1
102
RTVSPropertyOp11
 70
     1
102
RTVSPropertyOp12
 70
     1
102
RTVSPropertyOp13
 70
     1
102
RTVSPropertyOp14
 70
     1
102
RTVSPropertyOp15
 70
     1
102
RTVSPropertyOp16
 70
     1
102
RTVSPropertyOp17
 70
     1
102
RTVSPropertyOp18
 70
     1
102
RTVSPropertyOp19
 70
     1
102
RTVSPropertyOp20
 70
     1
102
RTVSPropertyOp21
 70
     1
102
RTVSPropertyOp22
 70
     1
102
RTVSPropertyOp23
 70
     1
102
RTVSPropertyOp24
 70
     1
102
RTVSPropertyOp25
 70
     1
102
RTVSPropertyOp26
 70
     1
102
RTVSPropertyOp27
 70
     1
102
RTVSPropertyOp28
 70
     1
102
RTVSPropertyOp29
 70
     1
102
RTVSPropertyOp30
 70
     1
102
RTVSPropertyOp31
 70
     1
102
RTVSPropertyOp32
 70
     1
  0
XRECORD
  5
C7A
102
{ACAD_REACTORS
330
C79
102
}
330
C79
100
AcDbXrecord
280
     1
102
RTVSPropertyOp0
 70
     1
102
RTVSPropertyOp1
 70
     1
102
RTVSPropertyOp2
 70
     1
102
RTVSPropertyOp3
 70
     1
102
RTVSPropertyOp4
 70
     1
102
RTVSPropertyOp5
 70
     1
102
RTVSPropertyOp6
 70
     1
102
RTVSPropertyOp7
 70
     1
102
RTVSPropertyOp8
 70
     1
102
RTVSPropertyOp9
 70
     1
102
RTVSPropertyOp10
 70
     1
102
RTVSPropertyOp11
 70
     1
102
RTVSPropertyOp12
 70
     1
102
RTVSPropertyOp13
 70
     1
102
RTVSPropertyOp14
 70
     1
102
RTVSPropertyOp15
 70
     1
102
RTVSPropertyOp16
 70
     1
102
RTVSPropertyOp17
 70
     1
102
RTVSPropertyOp18
 70
     1
102
RTVSPropertyOp19
 70
     1
102
RTVSPropertyOp20
 70
     1
102
RTVSPropertyOp21
 70
     1
102
RTVSPropertyOp22
 70
     1
102
RTVSPropertyOp23
 70
     1
102
RTVSPropertyOp24
 70
     1
102
RTVSPropertyOp25
 70
     1
102
RTVSPropertyOp26
 70
     1
102
RTVSPropertyOp27
 70
     1
102
RTVSPropertyOp28
 70
     1
102
RTVSPropertyOp29
 70
     1
102
RTVSPropertyOp30
 70
     1
102
RTVSPropertyOp31
 70
     1
102
RTVSPropertyOp32
 70
     1
  0
XRECORD
  5
C78
102
{ACAD_REACTORS
330
C77
102
}
330
C77
100
AcDbXrecord
280
     1
102
RTVSPropertyOp0
 70
     1
102
RTVSPropertyOp1
 70
     1
102
RTVSPropertyOp2
 70
     1
102
RTVSPropertyOp3
 70
     1
102
RTVSPropertyOp4
 70
     1
102
RTVSPropertyOp5
 70
     1
102
RTVSPropertyOp6
 70
     1
102
RTVSPropertyOp7
 70
     1
102
RTVSPropertyOp8
 70
     1
102
RTVSPropertyOp9
 70
     1
102
RTVSPropertyOp10
 70
     1
102
RTVSPropertyOp11
 70
     1
102
RTVSPropertyOp12
 70
     1
102
RTVSPropertyOp13
 70
     1
102
RTVSPropertyOp14
 70
     1
102
RTVSPropertyOp15
 70
     1
102
RTVSPropertyOp16
 70
     1
102
RTVSPropertyOp17
 70
     1
102
RTVSPropertyOp18
 70
     1
102
RTVSPropertyOp19
 70
     1
102
RTVSPropertyOp20
 70
     1
102
RTVSPropertyOp21
 70
     1
102
RTVSPropertyOp22
 70
     1
102
RTVSPropertyOp23
 70
     1
102
RTVSPropertyOp24
 70
     1
102
RTVSPropertyOp25
 70
     1
102
RTVSPropertyOp26
 70
     1
102
RTVSPropertyOp27
 70
     1
102
RTVSPropertyOp28
 70
     1
102
RTVSPropertyOp29
 70
     1
102
RTVSPropertyOp30
 70
     1
102
RTVSPropertyOp31
 70
     1
102
RTVSPropertyOp32
 70
     1
  0
XRECORD
  5
C72
102
{ACAD_REACTORS
330
C71
102
}
330
C71
100
AcDbXrecord
280
     1
102
RTVSPropertyOp0
 70
     1
102
RTVSPropertyOp1
 70
     1
102
RTVSPropertyOp2
 70
     1
102
RTVSPropertyOp3
 70
     1
102
RTVSPropertyOp4
 70
     1
102
RTVSPropertyOp5
 70
     1
102
RTVSPropertyOp6
 70
     1
102
RTVSPropertyOp7
 70
     1
102
RTVSPropertyOp8
 70
     1
102
RTVSPropertyOp9
 70
     1
102
RTVSPropertyOp10
 70
     1
102
RTVSPropertyOp11
 70
     1
102
RTVSPropertyOp12
 70
     1
102
RTVSPropertyOp13
 70
     1
102
RTVSPropertyOp14
 70
     1
102
RTVSPropertyOp15
 70
     1
102
RTVSPropertyOp16
 70
     1
102
RTVSPropertyOp17
 70
     1
102
RTVSPropertyOp18
 70
     1
102
RTVSPropertyOp19
 70
     1
102
RTVSPropertyOp20
 70
     1
102
RTVSPropertyOp21
 70
     1
102
RTVSPropertyOp22
 70
     1
102
RTVSPropertyOp23
 70
     1
102
RTVSPropertyOp24
 70
     1
102
RTVSPropertyOp25
 70
     1
102
RTVSPropertyOp26
 70
     1
102
RTVSPropertyOp27
 70
     1
102
RTVSPropertyOp28
 70
     1
102
RTVSPropertyOp29
 70
     1
102
RTVSPropertyOp30
 70
     1
102
RTVSPropertyOp31
 70
     1
102
RTVSPropertyOp32
 70
     1
  0
XRECORD
  5
C74
102
{ACAD_REACTORS
330
C73
102
}
330
C73
100
AcDbXrecord
280
     1
102
RTVSPropertyOp0
 70
     1
102
RTVSPropertyOp1
 70
     1
102
RTVSPropertyOp2
 70
     1
102
RTVSPropertyOp3
 70
     1
102
RTVSPropertyOp4
 70
     1
102
RTVSPropertyOp5
 70
     1
102
RTVSPropertyOp6
 70
     1
102
RTVSPropertyOp7
 70
     1
102
RTVSPropertyOp8
 70
     1
102
RTVSPropertyOp9
 70
     1
102
RTVSPropertyOp10
 70
     1
102
RTVSPropertyOp11
 70
     1
102
RTVSPropertyOp12
 70
     1
102
RTVSPropertyOp13
 70
     1
102
RTVSPropertyOp14
 70
     1
102
RTVSPropertyOp15
 70
     1
102
RTVSPropertyOp16
 70
     1
102
RTVSPropertyOp17
 70
     1
102
RTVSPropertyOp18
 70
     1
102
RTVSPropertyOp19
 70
     1
102
RTVSPropertyOp20
 70
     1
102
RTVSPropertyOp21
 70
     1
102
RTVSPropertyOp22
 70
     1
102
RTVSPropertyOp23
 70
     1
102
RTVSPropertyOp24
 70
     1
102
RTVSPropertyOp25
 70
     1
102
RTVSPropertyOp26
 70
     1
102
RTVSPropertyOp27
 70
     1
102
RTVSPropertyOp28
 70
     1
102
RTVSPropertyOp29
 70
     1
102
RTVSPropertyOp30
 70
     1
102
RTVSPropertyOp31
 70
     1
102
RTVSPropertyOp32
 70
     1
  0
XRECORD
  5
C6A
102
{ACAD_REACTORS
330
C69
102
}
330
C69
100
AcDbXrecord
280
     1
102
RTVSPropertyOp0
 70
     1
102
RTVSPropertyOp1
 70
     1
102
RTVSPropertyOp2
 70
     1
102
RTVSPropertyOp3
 70
     1
102
RTVSPropertyOp4
 70
     1
102
RTVSPropertyOp5
 70
     1
102
RTVSPropertyOp6
 70
     1
102
RTVSPropertyOp7
 70
     1
102
RTVSPropertyOp8
 70
     1
102
RTVSPropertyOp9
 70
     1
102
RTVSPropertyOp10
 70
     1
102
RTVSPropertyOp11
 70
     1
102
RTVSPropertyOp12
 70
     1
102
RTVSPropertyOp13
 70
     1
102
RTVSPropertyOp14
 70
     1
102
RTVSPropertyOp15
 70
     1
102
RTVSPropertyOp16
 70
     1
102
RTVSPropertyOp17
 70
     1
102
RTVSPropertyOp18
 70
     1
102
RTVSPropertyOp19
 70
     1
102
RTVSPropertyOp20
 70
     1
102
RTVSPropertyOp21
 70
     1
102
RTVSPropertyOp22
 70
     1
102
RTVSPropertyOp23
 70
     1
102
RTVSPropertyOp24
 70
     1
102
RTVSPropertyOp25
 70
     1
102
RTVSPropertyOp26
 70
     1
102
RTVSPropertyOp27
 70
     1
102
RTVSPropertyOp28
 70
     1
102
RTVSPropertyOp29
 70
     1
102
RTVSPropertyOp30
 70
     1
102
RTVSPropertyOp31
 70
     1
102
RTVSPropertyOp32
 70
     1
  0
XRECORD
  5
C5E
102
{ACAD_REACTORS
330
C5D
102
}
330
C5D
100
AcDbXrecord
280
     1
102
RTVSPropertyOp0
 70
     1
102
RTVSPropertyOp1
 70
     1
102
RTVSPropertyOp2
 70
     1
102
RTVSPropertyOp3
 70
     1
102
RTVSPropertyOp4
 70
     1
102
RTVSPropertyOp5
 70
     1
102
RTVSPropertyOp6
 70
     1
102
RTVSPropertyOp7
 70
     1
102
RTVSPropertyOp8
 70
     1
102
RTVSPropertyOp9
 70
     1
102
RTVSPropertyOp10
 70
     1
102
RTVSPropertyOp11
 70
     1
102
RTVSPropertyOp12
 70
     1
102
RTVSPropertyOp13
 70
     1
102
RTVSPropertyOp14
 70
     1
102
RTVSPropertyOp15
 70
     1
102
RTVSPropertyOp16
 70
     1
102
RTVSPropertyOp17
 70
     1
102
RTVSPropertyOp18
 70
     1
102
RTVSPropertyOp19
 70
     1
102
RTVSPropertyOp20
 70
     1
102
RTVSPropertyOp21
 70
     1
102
RTVSPropertyOp22
 70
     1
102
RTVSPropertyOp23
 70
     1
102
RTVSPropertyOp24
 70
     1
102
RTVSPropertyOp25
 70
     1
102
RTVSPropertyOp26
 70
     1
102
RTVSPropertyOp27
 70
     1
102
RTVSPropertyOp28
 70
     1
102
RTVSPropertyOp29
 70
     1
102
RTVSPropertyOp30
 70
     1
102
RTVSPropertyOp31
 70
     1
102
RTVSPropertyOp32
 70
     1
  0
XRECORD
  5
C76
102
{ACAD_REACTORS
330
C75
102
}
330
C75
100
AcDbXrecord
280
     1
102
RTVSPropertyOp0
 70
     1
102
RTVSPropertyOp1
 70
     1
102
RTVSPropertyOp2
 70
     1
102
RTVSPropertyOp3
 70
     1
102
RTVSPropertyOp4
 70
     1
102
RTVSPropertyOp5
 70
     1
102
RTVSPropertyOp6
 70
     1
102
RTVSPropertyOp7
 70
     1
102
RTVSPropertyOp8
 70
     1
102
RTVSPropertyOp9
 70
     1
102
RTVSPropertyOp10
 70
     1
102
RTVSPropertyOp11
 70
     1
102
RTVSPropertyOp12
 70
     1
102
RTVSPropertyOp13
 70
     1
102
RTVSPropertyOp14
 70
     1
102
RTVSPropertyOp15
 70
     1
102
RTVSPropertyOp16
 70
     1
102
RTVSPropertyOp17
 70
     1
102
RTVSPropertyOp18
 70
     1
102
RTVSPropertyOp19
 70
     1
102
RTVSPropertyOp20
 70
     1
102
RTVSPropertyOp21
 70
     1
102
RTVSPropertyOp22
 70
     1
102
RTVSPropertyOp23
 70
     1
102
RTVSPropertyOp24
 70
     1
102
RTVSPropertyOp25
 70
     1
102
RTVSPropertyOp26
 70
     1
102
RTVSPropertyOp27
 70
     1
102
RTVSPropertyOp28
 70
     1
102
RTVSPropertyOp29
 70
     1
102
RTVSPropertyOp30
 70
     1
102
RTVSPropertyOp31
 70
     1
102
RTVSPropertyOp32
 70
     1
  0
ENDSEC
  0
EOF
