  0
SECTION
  2
HEADER
  9
$ACADVER
  1
AC1015
  9
$ACADMAINTVER
 70
    18
  9
$DWGCODEPAGE
  3
ANSI_1252
  9
$INSBASE
 10
0.0
 20
0.0
 30
0.0
  9
$EXTMIN
 10
0.0
 20
0.0
 30
0.0
  9
$EXTMAX
 10
51.0
 20
33.0
 30
0.0
  9
$LIMMIN
 10
0.0
 20
0.0
  9
$LIMMAX
 10
51.0
 20
33.0
  9
$ORTHOMODE
 70
     0
  9
$REGENMODE
 70
     1
  9
$FILLMODE
 70
     1
  9
$QTEXTMODE
 70
     0
  9
$MIRRTEXT
 70
     0
  9
$LTSCALE
 40
3.0
  9
$ATTMODE
 70
     1
  9
$TEXTSIZE
 40
0.2
  9
$TRACEWID
 40
0.05
  9
$TEXTSTYLE
  7
Standard
  9
$CLAYER
  8
0
  9
$CELTYPE
  6
ByLayer
  9
$CECOLOR
 62
   256
  9
$CELTSCALE
 40
1.0
  9
$DISPSILH
 70
     0
  9
$DIMSCALE
 40
1.0
  9
$DIMASZ
 40
0.0708661417322835
  9
$DIMEXO
 40
0.0625
  9
$DIMDLI
 40
0.38
  9
$DIMRND
 40
0.0
  9
$DIMDLE
 40
0.0
  9
$DIMEXE
 40
0.18
  9
$DIMTP
 40
0.0
  9
$DIMTM
 40
0.0
  9
$DIMTXT
 40
0.0708661417322835
  9
$DIMCEN
 40
0.09
  9
$DIMTSZ
 40
0.0
  9
$DIMTOL
 70
     0
  9
$DIMLIM
 70
     0
  9
$DIMTIH
 70
     1
  9
$DIMTOH
 70
     1
  9
$DIMSE1
 70
     0
  9
$DIMSE2
 70
     0
  9
$DIMTAD
 70
     0
  9
$DIMZIN
 70
     0
  9
$DIMBLK
  1

  9
$DIMASO
 70
     1
  9
$DIMSHO
 70
     1
  9
$DIMPOST
  1

  9
$DIMAPOST
  1

  9
$DIMALT
 70
     0
  9
$DIMALTD
 70
     2
  9
$DIMALTF
 40
25.4
  9
$DIMLFAC
 40
1.0
  9
$DIMTOFL
 70
     0
  9
$DIMTVP
 40
0.0
  9
$DIMTIX
 70
     0
  9
$DIMSOXD
 70
     0
  9
$DIMSAH
 70
     0
  9
$DIMBLK1
  1

  9
$DIMBLK2
  1

  9
$DIMSTYLE
  2
STANDARD
  9
$DIMCLRD
 70
     0
  9
$DIMCLRE
 70
     0
  9
$DIMCLRT
 70
     0
  9
$DIMTFAC
 40
1.0
  9
$DIMGAP
 40
0.09
  9
$DIMJUST
 70
     0
  9
$DIMSD1
 70
     0
  9
$DIMSD2
 70
     0
  9
$DIMTOLJ
 70
     1
  9
$DIMTZIN
 70
     0
  9
$DIMALTZ
 70
     0
  9
$DIMALTTZ
 70
     0
  9
$DIMUPT
 70
     0
  9
$DIMDEC
 70
     4
  9
$DIMTDEC
 70
     4
  9
$DIMALTU
 70
     2
  9
$DIMALTTD
 70
     2
  9
$DIMTXSTY
  7
Standard
  9
$DIMAUNIT
 70
     0
  9
$DIMADEC
 70
     0
  9
$DIMALTRND
 40
0.0
  9
$DIMAZIN
 70
     0
  9
$DIMDSEP
 70
    46
  9
$DIMATFIT
 70
     3
  9
$DIMFRAC
 70
     0
  9
$DIMLDRBLK
  1

  9
$DIMLUNIT
 70
     2
  9
$DIMLWD
 70
    -2
  9
$DIMLWE
 70
    -2
  9
$DIMTMOVE
 70
     0
  9
$LUNITS
 70
     2
  9
$LUPREC
 70
     4
  9
$SKETCHINC
 40
0.1
  9
$FILLETRAD
 40
0.0
  9
$AUNITS
 70
     0
  9
$AUPREC
 70
     0
  9
$MENU
  1
.
  9
$ELEVATION
 40
0.0
  9
$PELEVATION
 40
0.0
  9
$THICKNESS
 40
0.0
  9
$LIMCHECK
 70
     0
  9
$CHAMFERA
 40
0.0
  9
$CHAMFERB
 40
0.0
  9
$CHAMFERC
 40
0.0
  9
$CHAMFERD
 40
0.0
  9
$SKPOLY
 70
     0
  9
$TDCREATE
 40
2455944.464021909
  9
$TDUCREATE
 40
2455944.714021910
  9
$TDUPDATE
 40
2455944.464021909
  9
$TDUUPDATE
 40
2455944.714021910
  9
$TDINDWG
 40
0.0000354514
  9
$TDUSRTIMER
 40
0.0000354514
  9
$USRTIMER
 70
     1
  9
$ANGBASE
 50
0.0
  9
$ANGDIR
 70
     0
  9
$PDMODE
 70
     0
  9
$PDSIZE
 40
0.0
  9
$PLINEWID
 40
0.0
  9
$SPLFRAME
 70
     0
  9
$SPLINETYPE
 70
     6
  9
$SPLINESEGS
 70
     8
  9
$HANDSEED
  5
BFF
  9
$SURFTAB1
 70
     6
  9
$SURFTAB2
 70
     6
  9
$SURFTYPE
 70
     6
  9
$SURFU
 70
     6
  9
$SURFV
 70
     6
  9
$UCSBASE
  2

  9
$UCSNAME
  2

  9
$UCSORG
 10
0.0
 20
0.0
 30
0.0
  9
$UCSXDIR
 10
1.0
 20
0.0
 30
0.0
  9
$UCSYDIR
 10
0.0
 20
1.0
 30
0.0
  9
$UCSORTHOREF
  2

  9
$UCSORTHOVIEW
 70
     0
  9
$UCSORGTOP
 10
0.0
 20
0.0
 30
0.0
  9
$UCSORGBOTTOM
 10
0.0
 20
0.0
 30
0.0
  9
$UCSORGLEFT
 10
0.0
 20
0.0
 30
0.0
  9
$UCSORGRIGHT
 10
0.0
 20
0.0
 30
0.0
  9
$UCSORGFRONT
 10
0.0
 20
0.0
 30
0.0
  9
$UCSORGBACK
 10
0.0
 20
0.0
 30
0.0
  9
$PUCSBASE
  2

  9
$PUCSNAME
  2

  9
$PUCSORG
 10
0.0
 20
0.0
 30
0.0
  9
$PUCSXDIR
 10
1.0
 20
0.0
 30
0.0
  9
$PUCSYDIR
 10
0.0
 20
1.0
 30
0.0
  9
$PUCSORTHOREF
  2

  9
$PUCSORTHOVIEW
 70
     0
  9
$PUCSORGTOP
 10
0.0
 20
0.0
 30
0.0
  9
$PUCSORGBOTTOM
 10
0.0
 20
0.0
 30
0.0
  9
$PUCSORGLEFT
 10
0.0
 20
0.0
 30
0.0
  9
$PUCSORGRIGHT
 10
0.0
 20
0.0
 30
0.0
  9
$PUCSORGFRONT
 10
0.0
 20
0.0
 30
0.0
  9
$PUCSORGBACK
 10
0.0
 20
0.0
 30
0.0
  9
$USERI1
 70
     0
  9
$USERI2
 70
     0
  9
$USERI3
 70
     0
  9
$USERI4
 70
     0
  9
$USERI5
 70
     0
  9
$USERR1
 40
0.0
  9
$USERR2
 40
0.0
  9
$USERR3
 40
0.0
  9
$USERR4
 40
0.0
  9
$USERR5
 40
0.0
  9
$WORLDVIEW
 70
     1
  9
$SHADEDGE
 70
     3
  9
$SHADEDIF
 70
    70
  9
$TILEMODE
 70
     1
  9
$MAXACTVP
 70
    64
  9
$PINSBASE
 10
0.0
 20
0.0
 30
0.0
  9
$PLIMCHECK
 70
     0
  9
$PEXTMIN
 10
0.0
 20
0.0
 30
0.0
  9
$PEXTMAX
 10
51.0
 20
33.0
 30
0.0
  9
$PLIMMIN
 10
0.0
 20
0.0
  9
$PLIMMAX
 10
51.0
 20
33.0
  9
$UNITMODE
 70
     0
  9
$VISRETAIN
 70
     1
  9
$PLINEGEN
 70
     0
  9
$PSLTSCALE
 70
     1
  9
$TREEDEPTH
 70
  3020
  9
$CMLSTYLE
  2
Standard
  9
$CMLJUST
 70
     0
  9
$CMLSCALE
 40
1.0
  9
$PROXYGRAPHICS
 70
     1
  9
$MEASUREMENT
 70
     0
  9
$CELWEIGHT
370
    -1
  9
$ENDCAPS
280
     0
  9
$JOINSTYLE
280
     0
  9
$LWDISPLAY
290
     0
  9
$INSUNITS
 70
     1
  9
$HYPERLINKBASE
  1

  9
$STYLESHEET
  1

  9
$XEDIT
290
     1
  9
$CEPSNTYPE
380
     0
  9
$PSTYLEMODE
290
     1
  9
$FINGERPRINTGUID
  2
{E3240C94-A7BA-472E-ABA5-BFFF023F6E4F}
  9
$VERSIONGUID
  2
{FD12287F-6864-4041-9E2D-5A69EF032732}
  9
$EXTNAMES
290
     1
  9
$PSVPSCALE
 40
0.0
  9
$OLESTARTUP
290
     0
  0
ENDSEC
  0
SECTION
  2
CLASSES
  0
CLASS
  1
ACDBDICTIONARYWDFLT
  2
AcDbDictionaryWithDefault
  3
ObjectDBX Classes
 90
        0
280
     0
281
     0
  0
CLASS
  1
MATERIAL
  2
AcDbMaterial
  3
ObjectDBX Classes
 90
     1153
280
     0
281
     0
  0
CLASS
  1
VISUALSTYLE
  2
AcDbVisualStyle
  3
ObjectDBX Classes
 90
     4095
280
     0
281
     0
  0
CLASS
  1
SCALE
  2
AcDbScale
  3
ObjectDBX Classes
 90
     1153
280
     0
281
     0
  0
CLASS
  1
TABLESTYLE
  2
AcDbTableStyle
  3
ObjectDBX Classes
 90
     4095
280
     0
281
     0
  0
CLASS
  1
MLEADERSTYLE
  2
AcDbMLeaderStyle
  3
ACDB_MLEADERSTYLE_CLASS
 90
     4095
280
     0
281
     0
  0
CLASS
  1
DICTIONARYVAR
  2
AcDbDictionaryVar
  3
ObjectDBX Classes
 90
        0
280
     0
281
     0
  0
CLASS
  1
CELLSTYLEMAP
  2
AcDbCellStyleMap
  3
ObjectDBX Classes
 90
     1152
280
     0
281
     0
  0
CLASS
  1
ACDBPLACEHOLDER
  2
AcDbPlaceHolder
  3
ObjectDBX Classes
 90
        0
280
     0
281
     0
  0
CLASS
  1
LAYOUT
  2
AcDbLayout
  3
ObjectDBX Classes
 90
        0
280
     0
281
     0
  0
ENDSEC
  0
SECTION
  2
TABLES
  0
TABLE
  2
VPORT
  5
8
330
0
100
AcDbSymbolTable
 70
     1
  0
VPORT
  5
57
330
8
100
AcDbSymbolTableRecord
100
AcDbViewportTableRecord
  2
*Active
 70
     0
 10
0.0
 20
0.0
 11
1.0
 21
1.0
 12
25.5
 22
16.5
 13
0.0
 23
0.0
 14
1.0
 24
1.0
 15
0.0
 25
0.0
 16
0.0
 26
0.0
 36
1.0
 17
0.0
 27
0.0
 37
0.0
 40
33.0
 41
1.545454545454545
 42
50.0
 43
0.0
 44
0.0
 50
0.0
 51
0.0
 71
     0
 72
   100
 73
     1
 74
     1
 75
     0
 76
     0
 77
     0
 78
     0
281
     0
 65
     1
110
0.0
120
0.0
130
0.0
111
1.0
121
0.0
131
0.0
112
0.0
122
1.0
132
0.0
 79
     0
146
0.0
  0
ENDTAB
  0
TABLE
  2
LTYPE
  5
5
330
0
100
AcDbSymbolTable
 70
    67
  0
LTYPE
  5
5B
330
5
100
AcDbSymbolTableRecord
100
AcDbLinetypeTableRecord
  2
ByBlock
 70
     0
  3

 72
    65
 73
     0
 40
0.0
  0
LTYPE
  5
5C
330
5
100
AcDbSymbolTableRecord
100
AcDbLinetypeTableRecord
  2
ByLayer
 70
     0
  3

 72
    65
 73
     0
 40
0.0
  0
LTYPE
  5
5D
330
5
100
AcDbSymbolTableRecord
100
AcDbLinetypeTableRecord
  2
Continuous
 70
     0
  3
Solid line
 72
    65
 73
     0
 40
0.0
  0
LTYPE
  5
DE
330
5
100
AcDbSymbolTableRecord
100
AcDbLinetypeTableRecord
  2
BY_STANDARD
 70
     0
  3
By Standard ____________    ____    ____   _
 72
    65
 73
     6
 40
1.240299999999999
 49
0.6614
 74
     0
 49
-0.0827
 74
     0
 49
0.1654
 74
     0
 49
-0.0827
 74
     0
 49
0.1654
 74
     0
 49
-0.0827
 74
     0
  0
LTYPE
  5
DF
330
5
100
AcDbSymbolTableRecord
100
AcDbLinetypeTableRecord
  2
CHAIN
 70
     0
  3
Chain ____ _ ____ _ ____ _ ____ _ ____ _ ____
 72
    65
 73
     4
 40
0.7087
 49
0.4724000000000001
 74
     0
 49
-0.0591
 74
     0
 49
0.1181
 74
     0
 49
-0.0591
 74
     0
  0
LTYPE
  5
E0
330
5
100
AcDbSymbolTableRecord
100
AcDbLinetypeTableRecord
  2
DASH_DOT
 70
     0
  3
Dash dot __ . __ . __ . __ . __ . __ . __ . __
 72
    65
 73
     4
 40
0.37
 49
0.24
 74
     0
 49
-0.06
 74
     0
 49
0.01
 74
     0
 49
-0.06
 74
     0
  0
LTYPE
  5
E1
330
5
100
AcDbSymbolTableRecord
100
AcDbLinetypeTableRecord
  2
DOUBLE_DASH_DOT
 70
     0
  3
Double-Dash Dot __ __ . __ __ . __ __ . __ _
 72
    65
 73
     6
 40
0.4398
 49
0.24
 74
     0
 49
-0.06
 74
     0
 49
0.0098
 74
     0
 49
-0.06
 74
     0
 49
0.01
 74
     0
 49
-0.06
 74
     0
  0
LTYPE
  5
E2
330
5
100
AcDbSymbolTableRecord
100
AcDbLinetypeTableRecord
  2
DASH_TRIPLE_DOT
 70
     0
  3
Dash Triple-Dot _ . . . _ . . . _ . . . _
 72
    65
 73
     8
 40
0.51
 49
0.24
 74
     0
 49
-0.06
 74
     0
 49
0.01
 74
     0
 49
-0.06
 74
     0
 49
0.01
 74
     0
 49
-0.06
 74
     0
 49
0.01
 74
     0
 49
-0.06
 74
     0
  0
LTYPE
  5
E3
330
5
100
AcDbSymbolTableRecord
100
AcDbLinetypeTableRecord
  2
DASHED
 70
     0
  3
Dashed __ __ __ __ __ __ __ __ __ __ __ __ __ _
 72
    65
 73
     2
 40
0.2067
 49
0.1654
 74
     0
 49
-0.0413
 74
     0
  0
LTYPE
  5
E4
330
5
100
AcDbSymbolTableRecord
100
AcDbLinetypeTableRecord
  2
DASH_DOUBLE_DOT
 70
     0
  3
Dash Double-Dot __ . . __ . . __ . . __ . .
 72
    65
 73
     6
 40
0.4398
 49
0.24
 74
     0
 49
-0.06
 74
     0
 49
0.0098
 74
     0
 49
-0.06
 74
     0
 49
0.01
 74
     0
 49
-0.06
 74
     0
  0
LTYPE
  5
E5
330
5
100
AcDbSymbolTableRecord
100
AcDbLinetypeTableRecord
  2
DASHED_SPACE
 70
     0
  3
Dashed Space __ __ __ __ __ __ __ __ __ __ __ _
 72
    65
 73
     2
 40
0.2067
 49
0.1654
 74
     0
 49
-0.0413
 74
     0
  0
LTYPE
  5
E6
330
5
100
AcDbSymbolTableRecord
100
AcDbLinetypeTableRecord
  2
DOTTED
 70
     0
  3
Dotted . . . . . . . . . . . . . . . . . . . . 
 72
    65
 73
     2
 40
0.0482
 49
0.0069
 74
     0
 49
-0.0413
 74
     0
  0
LTYPE
  5
E7
330
5
100
AcDbSymbolTableRecord
100
AcDbLinetypeTableRecord
  2
DOUBLE_DASH_CHAIN
 70
     0
  3
Double-Dash Chain ______  __  __  ______  __  _
 72
    65
 73
     6
 40
1.240299999999999
 49
0.6614
 74
     0
 49
-0.0827
 74
     0
 49
0.1654
 74
     0
 49
-0.0827
 74
     0
 49
0.1654
 74
     0
 49
-0.0827
 74
     0
  0
LTYPE
  5
E9
330
5
100
AcDbSymbolTableRecord
100
AcDbLinetypeTableRecord
  2
DOUBLE_DASH_DOUBLE_DOT
 70
     0
  3
Double-Dash Double-dot _ _ . . _ _ . . _
 72
    65
 73
     8
 40
0.7400000000000001
 49
0.24
 74
     0
 49
-0.06
 74
     0
 49
0.24
 74
     0
 49
-0.06
 74
     0
 49
0.01
 74
     0
 49
-0.06
 74
     0
 49
0.01
 74
     0
 49
-0.06
 74
     0
  0
LTYPE
  5
EA
330
5
100
AcDbSymbolTableRecord
100
AcDbLinetypeTableRecord
  2
DOUBLE_DASH_TRIPLE_DOT
 70
     0
  3
Double Dash Triple Dot __ __ . . . __ __ . .
 72
    65
 73
    10
 40
0.8100000000000001
 49
0.24
 74
     0
 49
-0.06
 74
     0
 49
0.24
 74
     0
 49
-0.06
 74
     0
 49
0.01
 74
     0
 49
-0.06
 74
     0
 49
0.01
 74
     0
 49
-0.06
 74
     0
 49
0.01
 74
     0
 49
-0.06
 74
     0
  0
LTYPE
  5
EB
330
5
100
AcDbSymbolTableRecord
100
AcDbLinetypeTableRecord
  2
LONG_DASH_DOTTED
 70
     0
  3
Long Dash Dotted ____ . ____ . ____ . ____ . _
 72
    65
 73
     4
 40
0.3543
 49
0.2362
 74
     0
 49
-0.0295
 74
     0
 49
0.0591
 74
     0
 49
-0.0295
 74
     0
  0
LTYPE
  5
EC
330
5
100
AcDbSymbolTableRecord
100
AcDbLinetypeTableRecord
  2
LONG_DASH_DOUBLE_DOT
 70
     0
  3
Long Dash Double Dot ________  .  .  ________  
 72
    65
 73
     6
 40
0.6799999999999999
 49
0.48
 74
     0
 49
-0.06
 74
     0
 49
0.01
 74
     0
 49
-0.06
 74
     0
 49
0.01
 74
     0
 49
-0.06
 74
     0
  0
LTYPE
  5
ED
330
5
100
AcDbSymbolTableRecord
100
AcDbLinetypeTableRecord
  2
LONG_DASH_TRIPLE_DOT
 70
     0
  3
Long Dash Triple Dot ____ ... ____ ... ____
 72
    65
 73
     8
 40
0.3689
 49
0.2362
 74
     0
 49
-0.0295
 74
     0
 49
0.0049
 74
     0
 49
-0.0295
 74
     0
 49
0.0049
 74
     0
 49
-0.0295
 74
     0
 49
0.0049
 74
     0
 49
-0.0295
 74
     0
  0
LTYPE
  5
EE
330
5
100
AcDbSymbolTableRecord
100
AcDbLinetypeTableRecord
  2
BORDER
 70
     0
  3
Border __ __ . __ __ . __ __ . __ __ . __ __ .
 72
    65
 73
     6
 40
1.75
 49
0.5
 74
     0
 49
-0.25
 74
     0
 49
0.5
 74
     0
 49
-0.25
 74
     0
 49
0.0
 74
     0
 49
-0.25
 74
     0
  0
LTYPE
  5
EF
330
5
100
AcDbSymbolTableRecord
100
AcDbLinetypeTableRecord
  2
BORDER2
 70
     0
  3
Border (.5x) __.__.__.__.__.__.__.__.__.__.__.
 72
    65
 73
     6
 40
0.875
 49
0.25
 74
     0
 49
-0.125
 74
     0
 49
0.25
 74
     0
 49
-0.125
 74
     0
 49
0.0
 74
     0
 49
-0.125
 74
     0
  0
LTYPE
  5
F0
330
5
100
AcDbSymbolTableRecord
100
AcDbLinetypeTableRecord
  2
BORDERX2
 70
     0
  3
Border (2x) ____  ____  .  ____  ____  .  ___
 72
    65
 73
     6
 40
3.5
 49
1.0
 74
     0
 49
-0.5
 74
     0
 49
1.0
 74
     0
 49
-0.5
 74
     0
 49
0.0
 74
     0
 49
-0.5
 74
     0
  0
LTYPE
  5
F1
330
5
100
AcDbSymbolTableRecord
100
AcDbLinetypeTableRecord
  2
CENTER
 70
     0
  3
Center ____ _ ____ _ ____ _ ____ _ ____ _ ____
 72
    65
 73
     4
 40
2.0
 49
1.25
 74
     0
 49
-0.25
 74
     0
 49
0.25
 74
     0
 49
-0.25
 74
     0
  0
LTYPE
  5
F2
330
5
100
AcDbSymbolTableRecord
100
AcDbLinetypeTableRecord
  2
CENTER2
 70
     0
  3
Center (.5x) ___ _ ___ _ ___ _ ___ _ ___ _ ___
 72
    65
 73
     4
 40
1.125
 49
0.75
 74
     0
 49
-0.125
 74
     0
 49
0.125
 74
     0
 49
-0.125
 74
     0
  0
LTYPE
  5
F3
330
5
100
AcDbSymbolTableRecord
100
AcDbLinetypeTableRecord
  2
CENTERX2
 70
     0
  3
Center (2x) ________  __  ________  __  _____
 72
    65
 73
     4
 40
4.0
 49
2.5
 74
     0
 49
-0.5
 74
     0
 49
0.5
 74
     0
 49
-0.5
 74
     0
  0
LTYPE
  5
F4
330
5
100
AcDbSymbolTableRecord
100
AcDbLinetypeTableRecord
  2
DASHDOT2
 70
     0
  3
Dash dot (.5x) _._._._._._._._._._._._._._._.
 72
    65
 73
     4
 40
0.5
 49
0.25
 74
     0
 49
-0.125
 74
     0
 49
0.0
 74
     0
 49
-0.125
 74
     0
  0
LTYPE
  5
F5
330
5
100
AcDbSymbolTableRecord
100
AcDbLinetypeTableRecord
  2
DASHDOTX2
 70
     0
  3
Dash dot (2x) ____  .  ____  .  ____  .  ___
 72
    65
 73
     4
 40
2.0
 49
1.0
 74
     0
 49
-0.5
 74
     0
 49
0.0
 74
     0
 49
-0.5
 74
     0
  0
LTYPE
  5
F7
330
5
100
AcDbSymbolTableRecord
100
AcDbLinetypeTableRecord
  2
DASHED2
 70
     0
  3
Dashed (.5x) _ _ _ _ _ _ _ _ _ _ _ _ _ _ _ _ _
 72
    65
 73
     2
 40
0.375
 49
0.25
 74
     0
 49
-0.125
 74
     0
  0
LTYPE
  5
F8
330
5
100
AcDbSymbolTableRecord
100
AcDbLinetypeTableRecord
  2
DASHEDX2
 70
     0
  3
Dashed (2x) ____  ____  ____  ____  ____  ___
 72
    65
 73
     2
 40
1.5
 49
1.0
 74
     0
 49
-0.5
 74
     0
  0
LTYPE
  5
F9
330
5
100
AcDbSymbolTableRecord
100
AcDbLinetypeTableRecord
  2
DIVIDE
 70
     0
  3
Divide ____ . . ____ . . ____ . . ____ . . ____
 72
    65
 73
     6
 40
1.25
 49
0.5
 74
     0
 49
-0.25
 74
     0
 49
0.0
 74
     0
 49
-0.25
 74
     0
 49
0.0
 74
     0
 49
-0.25
 74
     0
  0
LTYPE
  5
FA
330
5
100
AcDbSymbolTableRecord
100
AcDbLinetypeTableRecord
  2
DIVIDE2
 70
     0
  3
Divide (.5x) __..__..__..__..__..__..__..__.._
 72
    65
 73
     6
 40
0.625
 49
0.25
 74
     0
 49
-0.125
 74
     0
 49
0.0
 74
     0
 49
-0.125
 74
     0
 49
0.0
 74
     0
 49
-0.125
 74
     0
  0
LTYPE
  5
FB
330
5
100
AcDbSymbolTableRecord
100
AcDbLinetypeTableRecord
  2
DIVIDEX2
 70
     0
  3
Divide (2x) ________  .  .  ________  .  .  _
 72
    65
 73
     6
 40
2.5
 49
1.0
 74
     0
 49
-0.5
 74
     0
 49
0.0
 74
     0
 49
-0.5
 74
     0
 49
0.0
 74
     0
 49
-0.5
 74
     0
  0
LTYPE
  5
FC
330
5
100
AcDbSymbolTableRecord
100
AcDbLinetypeTableRecord
  2
DOT
 70
     0
  3
Dot . . . . . . . . . . . . . . . . . . . . . .
 72
    65
 73
     2
 40
0.25
 49
0.0
 74
     0
 49
-0.25
 74
     0
  0
LTYPE
  5
FD
330
5
100
AcDbSymbolTableRecord
100
AcDbLinetypeTableRecord
  2
DOT2
 70
     0
  3
Dot (.5x) .....................................
 72
    65
 73
     2
 40
0.125
 49
0.0
 74
     0
 49
-0.125
 74
     0
  0
LTYPE
  5
FE
330
5
100
AcDbSymbolTableRecord
100
AcDbLinetypeTableRecord
  2
DOTX2
 70
     0
  3
Dot (2x) .  .  .  .  .  .  .  .  .  .  .  .  . 
 72
    65
 73
     2
 40
0.5
 49
0.0
 74
     0
 49
-0.5
 74
     0
  0
LTYPE
  5
FF
330
5
100
AcDbSymbolTableRecord
100
AcDbLinetypeTableRecord
  2
HIDDEN
 70
     0
  3
Hidden __ __ __ __ __ __ __ __ __ __ __ __ __ _
 72
    65
 73
     2
 40
0.375
 49
0.25
 74
     0
 49
-0.125
 74
     0
  0
LTYPE
  5
100
330
5
100
AcDbSymbolTableRecord
100
AcDbLinetypeTableRecord
  2
HIDDEN2
 70
     0
  3
Hidden (.5x) _ _ _ _ _ _ _ _ _ _ _ _ _ _ _ _ _
 72
    65
 73
     2
 40
0.1875
 49
0.125
 74
     0
 49
-0.0625
 74
     0
  0
LTYPE
  5
101
330
5
100
AcDbSymbolTableRecord
100
AcDbLinetypeTableRecord
  2
HIDDENX2
 70
     0
  3
Hidden (2x) ____ ____ ____ ____ ____ ____ ____
 72
    65
 73
     2
 40
0.75
 49
0.5
 74
     0
 49
-0.25
 74
     0
  0
LTYPE
  5
102
330
5
100
AcDbSymbolTableRecord
100
AcDbLinetypeTableRecord
  2
PHANTOM
 70
     0
  3
Phantom ______  __  __  ______  __  __  ______
 72
    65
 73
     6
 40
2.5
 49
1.25
 74
     0
 49
-0.25
 74
     0
 49
0.25
 74
     0
 49
-0.25
 74
     0
 49
0.25
 74
     0
 49
-0.25
 74
     0
  0
LTYPE
  5
103
330
5
100
AcDbSymbolTableRecord
100
AcDbLinetypeTableRecord
  2
PHANTOM2
 70
     0
  3
Phantom (.5x) ___ _ _ ___ _ _ ___ _ _ ___ _ _
 72
    65
 73
     6
 40
1.25
 49
0.625
 74
     0
 49
-0.125
 74
     0
 49
0.125
 74
     0
 49
-0.125
 74
     0
 49
0.125
 74
     0
 49
-0.125
 74
     0
  0
LTYPE
  5
104
330
5
100
AcDbSymbolTableRecord
100
AcDbLinetypeTableRecord
  2
PHANTOMX2
 70
     0
  3
Phantom (2x) ____________    ____    ____   _
 72
    65
 73
     6
 40
5.0
 49
2.5
 74
     0
 49
-0.5
 74
     0
 49
0.5
 74
     0
 49
-0.5
 74
     0
 49
0.5
 74
     0
 49
-0.5
 74
     0
  0
LTYPE
  5
105
330
5
100
AcDbSymbolTableRecord
100
AcDbLinetypeTableRecord
  2
ACAD_ISO02W100
 70
     0
  3
ISO dash __ __ __ __ __ __ __ __ __ __ __ __ __
 72
    65
 73
     2
 40
0.59
 49
0.47
 74
     0
 49
-0.12
 74
     0
  0
LTYPE
  5
106
330
5
100
AcDbSymbolTableRecord
100
AcDbLinetypeTableRecord
  2
ACAD_ISO03W100
 70
     0
  3
ISO dash space __    __    __    __    __    __
 72
    65
 73
     2
 40
1.179999999999999
 49
0.47
 74
     0
 49
-0.71
 74
     0
  0
LTYPE
  5
107
330
5
100
AcDbSymbolTableRecord
100
AcDbLinetypeTableRecord
  2
ACAD_ISO04W100
 70
     0
  3
ISO long-dash dot ____ . ____ . ____ . ____ . _
 72
    65
 73
     4
 40
1.179999999999999
 49
0.9399999999999998
 74
     0
 49
-0.12
 74
     0
 49
0.0
 74
     0
 49
-0.12
 74
     0
  0
LTYPE
  5
108
330
5
100
AcDbSymbolTableRecord
100
AcDbLinetypeTableRecord
  2
ACAD_ISO05W100
 70
     0
  3
ISO long-dash double-dot ____ .. ____ .. ____ .
 72
    65
 73
     6
 40
1.299999999999999
 49
0.9399999999999998
 74
     0
 49
-0.12
 74
     0
 49
0.0
 74
     0
 49
-0.12
 74
     0
 49
0.0
 74
     0
 49
-0.12
 74
     0
  0
LTYPE
  5
109
330
5
100
AcDbSymbolTableRecord
100
AcDbLinetypeTableRecord
  2
ACAD_ISO06W100
 70
     0
  3
ISO long-dash triple-dot ____ ... ____ ... ____
 72
    65
 73
     8
 40
1.419999999999999
 49
0.9399999999999998
 74
     0
 49
-0.12
 74
     0
 49
0.0
 74
     0
 49
-0.12
 74
     0
 49
0.0
 74
     0
 49
-0.12
 74
     0
 49
0.0
 74
     0
 49
-0.12
 74
     0
  0
LTYPE
  5
10A
330
5
100
AcDbSymbolTableRecord
100
AcDbLinetypeTableRecord
  2
ACAD_ISO07W100
 70
     0
  3
ISO dot . . . . . . . . . . . . . . . . . . . .
 72
    65
 73
     2
 40
0.12
 49
0.0
 74
     0
 49
-0.12
 74
     0
  0
LTYPE
  5
10B
330
5
100
AcDbSymbolTableRecord
100
AcDbLinetypeTableRecord
  2
ACAD_ISO08W100
 70
     0
  3
ISO long-dash short-dash ____ __ ____ __ ____ _
 72
    65
 73
     4
 40
0.95
 49
0.47
 74
     0
 49
-0.12
 74
     0
 49
0.24
 74
     0
 49
-0.12
 74
     0
  0
LTYPE
  5
10C
330
5
100
AcDbSymbolTableRecord
100
AcDbLinetypeTableRecord
  2
ACAD_ISO09W100
 70
     0
  3
ISO long-dash double-short-dash ____ __ __ ____
 72
    65
 73
     6
 40
1.31
 49
0.47
 74
     0
 49
-0.12
 74
     0
 49
0.24
 74
     0
 49
-0.12
 74
     0
 49
0.24
 74
     0
 49
-0.12
 74
     0
  0
LTYPE
  5
10D
330
5
100
AcDbSymbolTableRecord
100
AcDbLinetypeTableRecord
  2
ACAD_ISO10W100
 70
     0
  3
ISO dash dot __ . __ . __ . __ . __ . __ . __ .
 72
    65
 73
     4
 40
0.71
 49
0.47
 74
     0
 49
-0.12
 74
     0
 49
0.0
 74
     0
 49
-0.12
 74
     0
  0
LTYPE
  5
10E
330
5
100
AcDbSymbolTableRecord
100
AcDbLinetypeTableRecord
  2
ACAD_ISO11W100
 70
     0
  3
ISO double-dash dot __ __ . __ __ . __ __ . __ 
 72
    65
 73
     6
 40
1.299999999999999
 49
0.47
 74
     0
 49
-0.12
 74
     0
 49
0.47
 74
     0
 49
-0.12
 74
     0
 49
0.0
 74
     0
 49
-0.12
 74
     0
  0
LTYPE
  5
10F
330
5
100
AcDbSymbolTableRecord
100
AcDbLinetypeTableRecord
  2
ACAD_ISO12W100
 70
     0
  3
ISO dash double-dot __ . . __ . . __ . . __ . .
 72
    65
 73
     6
 40
0.8299999999999998
 49
0.47
 74
     0
 49
-0.12
 74
     0
 49
0.0
 74
     0
 49
-0.12
 74
     0
 49
0.0
 74
     0
 49
-0.12
 74
     0
  0
LTYPE
  5
110
330
5
100
AcDbSymbolTableRecord
100
AcDbLinetypeTableRecord
  2
ACAD_ISO13W100
 70
     0
  3
ISO double-dash double-dot __ __ . . __ __ . . 
 72
    65
 73
     8
 40
1.419999999999999
 49
0.47
 74
     0
 49
-0.12
 74
     0
 49
0.47
 74
     0
 49
-0.12
 74
     0
 49
0.0
 74
     0
 49
-0.12
 74
     0
 49
0.0
 74
     0
 49
-0.12
 74
     0
  0
LTYPE
  5
111
330
5
100
AcDbSymbolTableRecord
100
AcDbLinetypeTableRecord
  2
ACAD_ISO14W100
 70
     0
  3
ISO dash triple-dot __ . . . __ . . . __ . . . 
 72
    65
 73
     8
 40
0.95
 49
0.47
 74
     0
 49
-0.12
 74
     0
 49
0.0
 74
     0
 49
-0.12
 74
     0
 49
0.0
 74
     0
 49
-0.12
 74
     0
 49
0.0
 74
     0
 49
-0.12
 74
     0
  0
LTYPE
  5
112
330
5
100
AcDbSymbolTableRecord
100
AcDbLinetypeTableRecord
  2
ACAD_ISO15W100
 70
     0
  3
ISO double-dash triple-dot __ __ . . . __ __ . 
 72
    65
 73
    10
 40
1.539999999999999
 49
0.47
 74
     0
 49
-0.12
 74
     0
 49
0.47
 74
     0
 49
-0.12
 74
     0
 49
0.0
 74
     0
 49
-0.12
 74
     0
 49
0.0
 74
     0
 49
-0.12
 74
     0
 49
0.0
 74
     0
 49
-0.12
 74
     0
  0
LTYPE
  5
115
330
5
100
AcDbSymbolTableRecord
100
AcDbLinetypeTableRecord
  2
FENCELINE1
 70
     0
  3
Fenceline circle ----0-----0----0-----0----0---
 72
    65
 73
     4
 40
1.45
 49
0.25
 74
     0
 49
-0.1
 74
     4
 75
   133
340
114
 46
0.1
 50
0.0
 44
-0.1
 45
0.0
 49
-0.1
 74
     0
 49
1.0
 74
     0
  0
LTYPE
  5
116
330
5
100
AcDbSymbolTableRecord
100
AcDbLinetypeTableRecord
  2
FENCELINE2
 70
     0
  3
Fenceline square ----[]-----[]----[]-----[]----
 72
    65
 73
     4
 40
1.45
 49
0.25
 74
     0
 49
-0.1
 74
     4
 75
   132
340
114
 46
0.1
 50
0.0
 44
-0.1
 45
0.0
 49
-0.1
 74
     0
 49
1.0
 74
     0
  0
LTYPE
  5
117
330
5
100
AcDbSymbolTableRecord
100
AcDbLinetypeTableRecord
  2
TRACKS
 70
     0
  3
Tracks -|-|-|-|-|-|-|-|-|-|-|-|-|-|-|-|-|-|-|-|
 72
    65
 73
     2
 40
0.3
 49
0.15
 74
     4
 75
   130
340
114
 46
0.25
 50
0.0
 44
0.0
 45
0.0
 49
0.15
 74
     0
  0
LTYPE
  5
118
330
5
100
AcDbSymbolTableRecord
100
AcDbLinetypeTableRecord
  2
BATTING
 70
     0
  3
Batting SSSSSSSSSSSSSSSSSSSSSSSSSSSSSSSSSSSSSSS
 72
    65
 73
     4
 40
0.4001000000000001
 49
0.0001
 74
     0
 49
-0.1
 74
     4
 75
   134
340
114
 46
0.1
 50
0.0
 44
-0.1
 45
0.0
 49
-0.2
 74
     4
 75
   134
340
114
 46
0.1
 50
180.0
 44
0.1
 45
0.0
 49
-0.1
 74
     0
  0
LTYPE
  5
119
330
5
100
AcDbSymbolTableRecord
100
AcDbLinetypeTableRecord
  2
HOT_WATER_SUPPLY
 70
     0
  3
Hot water supply ---- HW ---- HW ---- HW ----
 72
    65
 73
     3
 40
0.9
 49
0.5
 74
     0
 49
-0.2
 74
     2
 75
     0
340
55
 46
0.1
 50
0.0
 44
-0.1
 45
-0.05
  9
HW
 49
-0.2
 74
     0
  0
LTYPE
  5
11A
330
5
100
AcDbSymbolTableRecord
100
AcDbLinetypeTableRecord
  2
GAS_LINE
 70
     0
  3
Gas line ----GAS----GAS----GAS----GAS----GAS---
 72
    65
 73
     3
 40
0.95
 49
0.5
 74
     0
 49
-0.2
 74
     2
 75
     0
340
55
 46
0.1
 50
0.0
 44
-0.1
 45
-0.05
  9
GAS
 49
-0.25
 74
     0
  0
LTYPE
  5
11B
330
5
100
AcDbSymbolTableRecord
100
AcDbLinetypeTableRecord
  2
ZIGZAG
 70
     0
  3
Zig zag /\/\/\/\/\/\/\/\/\/\/\/\/\/\/\/\/\/\/\/
 72
    65
 73
     4
 40
0.8001000000000001
 49
0.0001
 74
     0
 49
-0.2
 74
     4
 75
   131
340
114
 46
0.2
 50
0.0
 44
-0.2
 45
0.0
 49
-0.4
 74
     4
 75
   131
340
114
 46
0.2
 50
180.0
 44
0.2
 45
0.0
 49
-0.2
 74
     0
  0
LTYPE
  5
135
330
5
100
AcDbSymbolTableRecord
100
AcDbLinetypeTableRecord
  2
AM_ISO02W050
 70
     0
  3
_ 
 72
    65
 73
     2
 40
197.3684310913086
 49
157.8947448730469
 74
     0
 49
-39.47368621826172
 74
     0
  0
LTYPE
  5
136
330
5
100
AcDbSymbolTableRecord
100
AcDbLinetypeTableRecord
  2
AM_ISO08W050
 70
     0
  3
_ _ 
 72
    65
 73
     4
 40
473.6842346191406
 49
315.7894897460938
 74
     0
 49
-39.47368621826172
 74
     0
 49
78.94737243652343
 74
     0
 49
-39.47368621826172
 74
     0
  0
LTYPE
  5
137
330
5
100
AcDbSymbolTableRecord
100
AcDbLinetypeTableRecord
  2
AM_ISO09W050
 70
     0
  3
_ _ _ 
 72
    65
 73
     6
 40
592.1052932739257
 49
315.7894897460938
 74
     0
 49
-39.47368621826172
 74
     0
 49
78.94737243652343
 74
     0
 49
-39.47368621826172
 74
     0
 49
78.94737243652343
 74
     0
 49
-39.47368621826172
 74
     0
  0
LTYPE
  5
138
330
5
100
AcDbSymbolTableRecord
100
AcDbLinetypeTableRecord
  2
Amconstr
 70
     0
  3
_.
 72
    65
 73
     2
 40
263131.59375
 49
263131.59375
 74
     0
 49
0.0
 74
     0
  0
LTYPE
  5
139
330
5
100
AcDbSymbolTableRecord
100
AcDbLinetypeTableRecord
  2
AM_ISO08W050x2
 70
     0
  3
_ _ 
 72
    65
 73
     4
 40
236.8421173095703
 49
157.8947448730469
 74
     0
 49
-19.73684310913086
 74
     0
 49
39.47368621826172
 74
     0
 49
-19.73684310913086
 74
     0
  0
LTYPE
  5
13A
330
5
100
AcDbSymbolTableRecord
100
AcDbLinetypeTableRecord
  2
AM_ISO02W050x2
 70
     0
  3
_ 
 72
    65
 73
     2
 40
98.68421554565429
 49
78.94737243652343
 74
     0
 49
-19.73684310913086
 74
     0
  0
LTYPE
  5
13B
330
5
100
AcDbSymbolTableRecord
100
AcDbLinetypeTableRecord
  2
ACANSTGB
 70
     0
  3
_ _ _ 
 72
    65
 73
     6
 40
9.324492573738098
 49
4.144218921661376
 74
     0
 49
-1.036054730415344
 74
     0
 49
1.036054730415344
 74
     0
 49
-1.036054730415344
 74
     0
 49
1.036054730415344
 74
     0
 49
-1.036054730415344
 74
     0
  0
LTYPE
  5
13C
330
5
100
AcDbSymbolTableRecord
100
AcDbLinetypeTableRecord
  2
ACANSTGL
 70
     0
  3
_ 
 72
    65
 73
     2
 40
3.108164191246032
 49
2.072109460830688
 74
     0
 49
-1.036054730415344
 74
     0
  0
ENDTAB
  0
TABLE
  2
LAYER
  5
2
330
0
100
AcDbSymbolTable
 70
    27
  0
LAYER
  5
54
330
2
100
AcDbSymbolTableRecord
100
AcDbLayerTableRecord
  2
0
 70
     0
 62
     7
  6
Continuous
370
    18
390
F
  0
LAYER
  5
75
330
2
100
AcDbSymbolTableRecord
100
AcDbLayerTableRecord
  2
Symbol (ANSI)
 70
     0
 62
     7
  6
Continuous
370
    18
390
F
  0
LAYER
  5
125
330
2
100
AcDbSymbolTableRecord
100
AcDbLayerTableRecord
  2
Dimension (ANSI)
 70
     0
 62
     7
  6
Continuous
370
    13
390
F
  0
LAYER
  5
127
330
2
100
AcDbSymbolTableRecord
100
AcDbLayerTableRecord
  2
Hidden (ANSI)
 70
     0
 62
     7
  6
DASHED
370
    15
390
F
  0
LAYER
  5
130
330
2
100
AcDbSymbolTableRecord
100
AcDbLayerTableRecord
  2
Visible (ANSI)
 70
     0
 62
     7
  6
Continuous
370
    13
390
F
  0
LAYER
  5
1C8
330
2
100
AcDbSymbolTableRecord
100
AcDbLayerTableRecord
  2
Defpoints
 70
     0
 62
     7
  6
Continuous
290
     0
370
    -3
390
F
  0
ENDTAB
  0
TABLE
  2
STYLE
  5
3
330
0
100
AcDbSymbolTable
 70
    18
  0
STYLE
  5
55
330
3
100
AcDbSymbolTableRecord
100
AcDbTextStyleTableRecord
  2
Standard
 70
     0
 40
0.0
 41
1.0
 50
0.0
 71
     0
 42
0.2
  3
txt
  4

  0
STYLE
  5
5A
330
3
100
AcDbSymbolTableRecord
100
AcDbTextStyleTableRecord
  2
Annotative
 70
     0
 40
0.0
 41
1.0
 50
0.0
 71
     0
 42
0.2
  3
txt
  4

1001
AcadAnnotative
1000
AnnotativeData
1002
{
1070
     1
1070
     1
1002
}
  0
STYLE
  5
76
330
3
100
AcDbSymbolTableRecord
100
AcDbTextStyleTableRecord
  2
Note Text (ANSI)
 70
     0
 40
0.0
 41
1.0
 50
0.0
 71
     0
 42
0.2
  3
TAHOMA.TTF
  4

1001
ACAD
1000
Tahoma
1071
      256
  0
STYLE
  5
78
330
3
100
AcDbSymbolTableRecord
100
AcDbTextStyleTableRecord
  2
SANSSERIF
 70
     0
 40
0.125
 41
1.0
 50
0.0
 71
     0
 42
0.125
  3
sas_____.pfb
  4

  0
STYLE
  5
114
330
3
100
AcDbSymbolTableRecord
100
AcDbTextStyleTableRecord
  2

 70
     1
 40
0.0
 41
1.0
 50
0.0
 71
     0
 42
0.2
  3
ltypeshp.shx
  4

  0
STYLE
  5
13D
330
3
100
AcDbSymbolTableRecord
100
AcDbTextStyleTableRecord
  2
ITALICC_120
 70
     0
 40
0.0
 41
1.0
 50
0.0
 71
     0
 42
0.2
  3
italicc.shx
  4

  0
STYLE
  5
13E
330
3
100
AcDbSymbolTableRecord
100
AcDbTextStyleTableRecord
  2
Label Text (ANSI)
 70
     0
 40
0.0
 41
1.0
 50
0.0
 71
     0
 42
0.2
  3
TAHOMA.TTF
  4

1001
ACAD
1000
Tahoma
1071
      256
  0
STYLE
  5
13F
330
3
100
AcDbSymbolTableRecord
100
AcDbTextStyleTableRecord
  2
ROMANS
 70
     0
 40
0.0
 41
1.0
 50
0.0
 71
     0
 42
0.2
  3
romans.shx
  4

  0
STYLE
  5
140
330
3
100
AcDbSymbolTableRecord
100
AcDbTextStyleTableRecord
  2
SANSSERIF_114
 70
     0
 40
0.0
 41
1.0
 50
0.0
 71
     0
 42
0.2
  3
TAHOMA.TTF
  4

1001
ACAD
1000
Tahoma
1071
      256
  0
STYLE
  5
141
330
3
100
AcDbSymbolTableRecord
100
AcDbTextStyleTableRecord
  2
SANSSERIF_117
 70
     0
 40
0.0
 41
1.0
 50
0.0
 71
     0
 42
0.2
  3
TAHOMA.TTF
  4

1001
ACAD
1000
Tahoma
1071
      256
  0
STYLE
  5
142
330
3
100
AcDbSymbolTableRecord
100
AcDbTextStyleTableRecord
  2
STANDARDAM_ANSI
 70
     0
 40
0.0
 41
1.0
 50
0.0
 71
     0
 42
0.2
  3
txt.shx
  4

  0
STYLE
  5
143
330
3
100
AcDbSymbolTableRecord
100
AcDbTextStyleTableRecord
  2
StandardAM_ANSI$0
 70
     0
 40
0.0
 41
1.0
 50
0.0
 71
     0
 42
0.2
  3
txt.shx
  4

  0
STYLE
  5
144
330
3
100
AcDbSymbolTableRecord
100
AcDbTextStyleTableRecord
  2
STANDARDAM_ANSI$3
 70
     0
 40
0.0
 41
1.0
 50
0.0
 71
     0
 42
0.2
  3
txt.shx
  4

  0
STYLE
  5
145
330
3
100
AcDbSymbolTableRecord
100
AcDbTextStyleTableRecord
  2
STANDARDAM_ANSI$4
 70
     0
 40
0.0
 41
1.0
 50
0.0
 71
     0
 42
0.2
  3
txt.shx
  4

  0
STYLE
  5
146
330
3
100
AcDbSymbolTableRecord
100
AcDbTextStyleTableRecord
  2
STANDARDAM_ANSI$7
 70
     0
 40
0.0
 41
1.0
 50
0.0
 71
     0
 42
0.2
  3
txt.shx
  4

  0
STYLE
  5
147
330
3
100
AcDbSymbolTableRecord
100
AcDbTextStyleTableRecord
  2
STANDARDAM_ANSI$SF
 70
     0
 40
0.0
 41
1.0
 50
0.0
 71
     0
 42
0.2
  3
txt.shx
  4

  0
STYLE
  5
148
330
3
100
AcDbSymbolTableRecord
100
AcDbTextStyleTableRecord
  2
STANDARDAM_ANSI$SH
 70
     0
 40
0.0
 41
1.0
 50
0.0
 71
     0
 42
0.2
  3
txt.shx
  4

  0
STYLE
  5
149
330
3
100
AcDbSymbolTableRecord
100
AcDbTextStyleTableRecord
  2
STANDARDSTANDARD
 70
     0
 40
0.0
 41
1.0
 50
0.0
 71
     0
 42
0.2
  3
txt.shx
  4

  0
ENDTAB
  0
TABLE
  2
VIEW
  5
6
330
0
100
AcDbSymbolTable
 70
     0
  0
ENDTAB
  0
TABLE
  2
UCS
  5
7
330
0
100
AcDbSymbolTable
 70
     0
  0
ENDTAB
  0
TABLE
  2
APPID
  5
9
330
0
100
AcDbSymbolTable
 70
     4
  0
APPID
  5
56
330
9
100
AcDbSymbolTableRecord
100
AcDbRegAppTableRecord
  2
ACAD
 70
     0
  0
APPID
  5
5E
330
9
100
AcDbSymbolTableRecord
100
AcDbRegAppTableRecord
  2
AcadAnnotative
 70
     0
  0
APPID
  5
9EB
330
9
100
AcDbSymbolTableRecord
100
AcDbRegAppTableRecord
  2
ACAD_DSTYLE_DIMRADIAL_EXTENSION
 70
     0
  0
APPID
  5
BF4
330
9
100
AcDbSymbolTableRecord
100
AcDbRegAppTableRecord
  2
ACAD_MLEADERVER
 70
     0
  0
ENDTAB
  0
TABLE
  2
DIMSTYLE
  5
A
330
0
100
AcDbSymbolTable
 70
    27
100
AcDbDimStyleTable
 71
     2
340
15E
340
58
  0
DIMSTYLE
105
58
330
A
100
AcDbSymbolTableRecord
100
AcDbDimStyleTableRecord
  2
STANDARD
 70
     0
 41
0.1800000071525573
 42
0.0625
140
0.1800000071525574
144
1.0
147
0.0900000035762787
176
   256
177
   256
178
   256
274
     3
340
55
371
    -1
372
    -1
  0
DIMSTYLE
105
59
330
A
100
AcDbSymbolTableRecord
100
AcDbDimStyleTableRecord
  2
Annotative
 70
     0
340
55
1001
AcadAnnotative
1000
AnnotativeData
1002
{
1070
     1
1070
     1
1002
}
  0
DIMSTYLE
105
14A
330
A
100
AcDbSymbolTableRecord
100
AcDbDimStyleTableRecord
  2
AM_ANSI
 70
     0
  4
 mm
 40
3.0
 41
0.119999997317791
 42
0.05
 43
0.5
 44
0.1
 45
0.00000001
 78
     4
 79
     2
140
0.1200000047683716
146
0.7099999453624112
147
0.0599999986588955
176
   256
177
   256
178
     2
284
     4
340
142
371
    -1
372
    -1
  0
DIMSTYLE
105
14B
330
A
100
AcDbSymbolTableRecord
100
AcDbDimStyleTableRecord
  2
AM_ANSI$7
 70
     0
  4
 mm
 40
3.0
 41
0.119999997317791
 42
0.05
 43
0.5
 44
0.1
 45
0.00000001
 78
     4
 79
     2
140
0.1200000047683716
146
0.7099999453624112
147
0.0599999986588955
176
   256
177
   256
178
     2
284
     4
340
142
371
    -1
372
    -1
  0
DIMSTYLE
105
14C
330
A
100
AcDbSymbolTableRecord
100
AcDbDimStyleTableRecord
  2
AM_ANSI$0
 70
     0
  4
 mm
 40
3.0
 41
0.119999997317791
 42
0.05
 43
0.5
 44
0.1
 45
0.00000001
 78
     4
 79
     2
140
0.1200000047683716
146
0.7099999453624112
147
0.0599999986588955
176
   256
177
   256
178
     2
284
     4
340
143
371
    -1
372
    -1
  0
DIMSTYLE
105
14D
330
A
100
AcDbSymbolTableRecord
100
AcDbDimStyleTableRecord
  2
AM_ANSI$0$7
 70
     0
  4
 mm
 40
3.0
 41
0.119999997317791
 42
0.05
 43
0.5
 44
0.1
 45
0.00000001
 78
     4
 79
     2
140
0.1200000047683716
146
0.7099999453624112
147
0.0599999986588955
176
   256
177
   256
178
     2
284
     4
340
143
371
    -1
372
    -1
  0
DIMSTYLE
105
14E
330
A
100
AcDbSymbolTableRecord
100
AcDbDimStyleTableRecord
  2
AM_ANSI$3
 70
     0
  4
 mm
 40
3.0
 41
0.119999997317791
 42
0.05
 43
0.5
 44
0.1
 45
0.00000001
 78
     4
 79
     2
140
0.1200000047683716
146
0.7099999453624112
147
0.0599999986588955
176
   256
177
   256
178
     2
284
     4
340
144
371
    -1
372
    -1
  0
DIMSTYLE
105
14F
330
A
100
AcDbSymbolTableRecord
100
AcDbDimStyleTableRecord
  2
AM_ANSI$3$7
 70
     0
  4
 mm
 40
3.0
 41
0.119999997317791
 42
0.05
 43
0.5
 44
0.1
 45
0.00000001
 78
     4
 79
     2
140
0.1200000047683716
146
0.7099999453624112
147
0.0599999986588955
176
   256
177
   256
178
     2
284
     4
340
144
371
    -1
372
    -1
  0
DIMSTYLE
105
150
330
A
100
AcDbSymbolTableRecord
100
AcDbDimStyleTableRecord
  2
AM_ANSI$4
 70
     0
  4
 mm
 40
3.0
 41
0.119999997317791
 42
0.05
 43
0.5
 44
0.1
 45
0.00000001
 78
     4
 79
     2
140
0.1200000047683716
146
0.7099999453624112
147
0.0599999986588955
176
   256
177
   256
178
     2
284
     4
340
145
371
    -1
372
    -1
  0
DIMSTYLE
105
151
330
A
100
AcDbSymbolTableRecord
100
AcDbDimStyleTableRecord
  2
AM_ANSI$4$7
 70
     0
  4
 mm
 40
3.0
 41
0.119999997317791
 42
0.05
 43
0.5
 44
0.1
 45
0.00000001
 78
     4
 79
     2
140
0.1200000047683716
146
0.7099999453624112
147
0.0599999986588955
176
   256
177
   256
178
     2
284
     4
340
145
371
    -1
372
    -1
  0
DIMSTYLE
105
152
330
A
100
AcDbSymbolTableRecord
100
AcDbDimStyleTableRecord
  2
AM_ANSI$SF
 70
     0
  4
 mm
 40
3.0
 41
0.119999997317791
 42
0.05
 43
0.5
 44
0.1
 45
0.00000001
 75
     1
 76
     1
 78
     4
 79
     2
140
0.1200000047683716
146
0.7099999453624112
147
0.0599999986588955
176
   256
177
   256
178
     2
284
     4
340
147
371
    -1
372
    -1
  0
DIMSTYLE
105
153
330
A
100
AcDbSymbolTableRecord
100
AcDbDimStyleTableRecord
  2
AM_ANSI$SF$7
 70
     0
  4
 mm
 40
3.0
 41
0.119999997317791
 42
0.05
 43
0.5
 44
0.1
 45
0.00000001
 75
     1
 76
     1
 78
     4
 79
     2
140
0.1200000047683716
146
0.7099999453624112
147
0.0599999986588955
176
   256
177
   256
178
     2
284
     4
340
147
371
    -1
372
    -1
  0
DIMSTYLE
105
154
330
A
100
AcDbSymbolTableRecord
100
AcDbDimStyleTableRecord
  2
AM_ANSI$SH
 70
     0
  4
 mm
 40
3.0
 41
0.119999997317791
 42
0.05
 43
0.5
 44
0.1
 45
0.00000001
 75
     1
 76
     1
 78
     4
 79
     2
140
0.1200000047683716
146
0.7099999453624112
147
0.0599999986588955
176
   256
177
   256
178
     2
284
     4
340
148
371
    -1
372
    -1
  0
DIMSTYLE
105
155
330
A
100
AcDbSymbolTableRecord
100
AcDbDimStyleTableRecord
  2
AM_ANSI$SH$7
 70
     0
  4
 mm
 40
3.0
 41
0.119999997317791
 42
0.05
 43
0.5
 44
0.1
 45
0.00000001
 75
     1
 76
     1
 78
     4
 79
     2
140
0.1200000047683716
146
0.7099999453624112
147
0.0599999986588955
176
   256
177
   256
178
     2
284
     4
340
148
371
    -1
372
    -1
  0
DIMSTYLE
105
156
330
A
100
AcDbSymbolTableRecord
100
AcDbDimStyleTableRecord
  2
Architectural (ANSI)
 70
     0
 40
3.0
 41
0.0984251946210861
 43
0.2362204724409449
 44
0.125
 45
0.00000001
 46
0.3937007874015748
 78
     3
 79
     3
140
0.1200000047683716
147
0.031496062992126
171
     1
176
   256
177
   256
178
   256
272
     2
274
     1
276
     2
277
     4
284
    12
285
     4
286
    12
340
76
371
    -1
372
    -1
  0
DIMSTYLE
105
157
330
A
100
AcDbSymbolTableRecord
100
AcDbDimStyleTableRecord
  2
Architectural (ANSI)$7
 70
     0
 40
3.0
 41
0.0984251946210861
 43
0.2362204724409449
 44
0.125
 45
0.00000001
 46
0.3937007874015748
 78
     3
 79
     3
140
0.1200000047683716
147
0.031496062992126
171
     1
176
   256
177
   256
178
   256
272
     2
274
     1
276
     2
277
     4
284
    12
285
     4
286
    12
340
76
371
    -1
372
    -1
  0
DIMSTYLE
105
158
330
A
100
AcDbSymbolTableRecord
100
AcDbDimStyleTableRecord
  2
Default - Fraction (ANSI)
 70
     0
 40
3.0
 41
0.0984251946210861
 43
0.2362204724409449
 44
0.125
 45
0.00000001
 46
0.3937007874015748
 79
     3
140
0.1200000047683716
147
0.031496062992126
171
     1
176
   256
177
   256
178
   256
272
     2
274
     1
276
     2
277
     5
284
    12
285
     4
286
    12
340
76
371
    -1
372
    -1
  0
DIMSTYLE
105
159
330
A
100
AcDbSymbolTableRecord
100
AcDbDimStyleTableRecord
  2
Default - Fraction (ANSI)$7
 70
     0
 40
3.0
 41
0.0984251946210861
 43
0.2362204724409449
 44
0.125
 45
0.00000001
 46
0.3937007874015748
 79
     3
140
0.1200000047683716
147
0.031496062992126
171
     1
176
   256
177
   256
178
   256
272
     2
274
     1
276
     2
277
     5
284
    12
285
     4
286
    12
340
76
371
    -1
372
    -1
  0
DIMSTYLE
105
15A
330
A
100
AcDbSymbolTableRecord
100
AcDbDimStyleTableRecord
  2
Default - mm (ANSI)
 70
     0
 40
3.0
 41
0.0984251946210861
 42
0.063
 43
0.2362204724409449
 44
0.125
 45
0.00000001
 46
0.3937007874015748
 73
     0
 78
     4
 79
     1
140
0.1200000047683716
143
1.0
144
25.4
147
0.031496062992126
171
     1
176
   256
177
   256
178
   256
179
     1
271
     2
272
     2
274
     1
284
     4
285
     4
340
76
371
    -1
372
    -1
  0
DIMSTYLE
105
15B
330
A
100
AcDbSymbolTableRecord
100
AcDbDimStyleTableRecord
  2
Default - mm (ANSI)$7
 70
     0
 40
3.0
 41
0.0984251946210861
 42
0.063
 43
0.2362204724409449
 44
0.125
 45
0.00000001
 46
0.3937007874015748
 73
     0
 78
     4
 79
     1
140
0.1200000047683716
143
1.0
144
25.4
147
0.031496062992126
171
     1
176
   256
177
   256
178
   256
179
     1
271
     2
272
     2
274
     1
284
     4
285
     4
340
76
371
    -1
372
    -1
  0
DIMSTYLE
105
15C
330
A
100
AcDbSymbolTableRecord
100
AcDbDimStyleTableRecord
  2
Default - mm [in] (ANSI)
 70
     0
  4
 in
 40
3.0
 41
0.0984251946210861
 42
0.063
 43
0.25
 44
0.125
 45
0.00000001
 46
0.3937007874015748
 73
     0
 78
     4
 79
     1
140
0.1200000047683716
143
0.03937
144
25.4
147
0.031496062992126
170
     1
171
     3
176
   256
177
   256
178
   256
179
     1
271
     2
272
     2
274
     3
284
     4
285
     4
286
     4
340
76
371
    -1
372
    -1
  0
DIMSTYLE
105
15D
330
A
100
AcDbSymbolTableRecord
100
AcDbDimStyleTableRecord
  2
Default - mm [in] (ANSI)$7
 70
     0
  4
 in
 40
3.0
 41
0.0984251946210861
 42
0.063
 43
0.25
 44
0.125
 45
0.00000001
 46
0.3937007874015748
 73
     0
 78
     4
 79
     1
140
0.1200000047683716
143
0.03937
144
25.4
147
0.031496062992126
170
     1
171
     3
176
   256
177
   256
178
   256
179
     1
271
     2
272
     2
274
     3
284
     4
285
     4
286
     4
340
76
371
    -1
372
    -1
  0
DIMSTYLE
105
15E
102
{ACAD_REACTORS
330
1C6
330
2B3
330
39D
330
496
330
594
330
67E
330
76A
330
868
330
952
330
A0C
330
AC5
102
}
330
A
100
AcDbSymbolTableRecord
100
AcDbDimStyleTableRecord
  2
Default (ANSI)
 70
     0
 40
3.0
 41
0.0984251946210861
 43
0.2362204724409449
 44
0.125
 45
0.00000001
 46
0.3937007874015748
 79
     1
140
0.1200000047683716
147
0.031496062992126
171
     1
176
   256
177
   256
178
   256
271
     2
272
     2
274
     1
284
     4
285
     4
340
76
371
    -1
372
    -1
  0
DIMSTYLE
105
15F
330
A
100
AcDbSymbolTableRecord
100
AcDbDimStyleTableRecord
  2
Default (ANSI)$7
 70
     0
 40
3.0
 41
0.0984251946210861
 43
0.2362204724409449
 44
0.125
 45
0.00000001
 46
0.3937007874015748
 79
     1
140
0.1200000047683716
147
0.031496062992126
171
     1
176
   256
177
   256
178
   256
271
     2
272
     2
274
     1
284
     4
285
     4
340
76
371
    -1
372
    -1
  0
DIMSTYLE
105
160
330
A
100
AcDbSymbolTableRecord
100
AcDbDimStyleTableRecord
  2
Alternate (ANSI)
 70
     0
 40
3.0
 41
0.0979999974370003
340
55
342
161
  0
DIMSTYLE
105
173
330
A
100
AcDbSymbolTableRecord
100
AcDbDimStyleTableRecord
  2
Datum (ANSI)
 70
     0
 40
3.0
 41
0.0979999974370003
340
55
342
161
  0
DIMSTYLE
105
182
330
A
100
AcDbSymbolTableRecord
100
AcDbDimStyleTableRecord
  2
Large (ANSI)
 70
     0
 40
3.0
 41
0.1959999948740005
340
55
342
161
  0
ENDTAB
  0
TABLE
  2
BLOCK_RECORD
  5
1
330
0
100
AcDbSymbolTable
 70
    15
  0
BLOCK_RECORD
  5
6C
330
1
100
AcDbSymbolTableRecord
100
AcDbBlockTableRecord
  2
*Model_Space
340
6F
  0
BLOCK_RECORD
  5
68
330
1
100
AcDbSymbolTableRecord
100
AcDbBlockTableRecord
  2
*Paper_Space
340
6B
  0
BLOCK_RECORD
  5
70
330
1
100
AcDbSymbolTableRecord
100
AcDbBlockTableRecord
  2
*Paper_Space0
340
73
  0
BLOCK_RECORD
  5
161
330
1
100
AcDbSymbolTableRecord
100
AcDbBlockTableRecord
  2
_Closed
340
0
  0
BLOCK_RECORD
  5
168
330
1
100
AcDbSymbolTableRecord
100
AcDbBlockTableRecord
  2
DatumFilled45
340
0
  0
BLOCK_RECORD
  5
174
330
1
100
AcDbSymbolTableRecord
100
AcDbBlockTableRecord
  2
Filled-1
340
0
  0
BLOCK_RECORD
  5
1C9
330
1
100
AcDbSymbolTableRecord
100
AcDbBlockTableRecord
  2
*D4
340
0
  0
BLOCK_RECORD
  5
2B4
330
1
100
AcDbSymbolTableRecord
100
AcDbBlockTableRecord
  2
*D5
340
0
  0
BLOCK_RECORD
  5
39E
330
1
100
AcDbSymbolTableRecord
100
AcDbBlockTableRecord
  2
*D6
340
0
  0
BLOCK_RECORD
  5
497
330
1
100
AcDbSymbolTableRecord
100
AcDbBlockTableRecord
  2
*D7
340
0
  0
BLOCK_RECORD
  5
595
330
1
100
AcDbSymbolTableRecord
100
AcDbBlockTableRecord
  2
*D8
340
0
  0
BLOCK_RECORD
  5
67F
330
1
100
AcDbSymbolTableRecord
100
AcDbBlockTableRecord
  2
*D9
340
0
  0
BLOCK_RECORD
  5
76B
330
1
100
AcDbSymbolTableRecord
100
AcDbBlockTableRecord
  2
*D10
340
0
  0
BLOCK_RECORD
  5
869
330
1
100
AcDbSymbolTableRecord
100
AcDbBlockTableRecord
  2
*D11
340
0
  0
BLOCK_RECORD
  5
953
330
1
100
AcDbSymbolTableRecord
100
AcDbBlockTableRecord
  2
*D12
340
0
  0
BLOCK_RECORD
  5
A0D
330
1
100
AcDbSymbolTableRecord
100
AcDbBlockTableRecord
  2
*D13
340
0
  0
BLOCK_RECORD
  5
AC6
330
1
100
AcDbSymbolTableRecord
100
AcDbBlockTableRecord
  2
*D14
340
0
  0
ENDTAB
  0
ENDSEC
  0
SECTION
  2
BLOCKS
  0
BLOCK
  5
6D
330
6C
100
AcDbEntity
  8
0
100
AcDbBlockBegin
  2
*Model_Space
 70
     0
 10
0.0
 20
0.0
 30
0.0
  3
*Model_Space
  1

  0
ENDBLK
  5
6E
330
6C
100
AcDbEntity
  8
0
100
AcDbBlockEnd
  0
BLOCK
  5
69
330
68
100
AcDbEntity
 67
     1
  8
0
100
AcDbBlockBegin
  2
*Paper_Space
 70
     0
 10
0.0
 20
0.0
 30
0.0
  3
*Paper_Space
  1

  0
ENDBLK
  5
6A
330
68
100
AcDbEntity
 67
     1
  8
0
100
AcDbBlockEnd
  0
BLOCK
  5
71
330
70
100
AcDbEntity
 67
     1
  8
0
100
AcDbBlockBegin
  2
*Paper_Space0
 70
     0
 10
0.0
 20
0.0
 30
0.0
  3
*Paper_Space0
  1

  0
ENDBLK
  5
72
330
70
100
AcDbEntity
 67
     1
  8
0
100
AcDbBlockEnd
  0
BLOCK
  5
166
330
161
100
AcDbEntity
  8
0
100
AcDbBlockBegin
  2
_Closed
 70
     0
 10
0.0
 20
0.0
 30
0.0
  3
_Closed
  1

  0
LINE
  5
162
330
161
100
AcDbEntity
  8
0
  6
ByBlock
 62
     0
370
    -2
100
AcDbLine
 10
-1.0
 20
0.1666666666666666
 30
0.0
 11
0.0
 21
0.0
 31
0.0
  0
LINE
  5
163
330
161
100
AcDbEntity
  8
0
  6
ByBlock
 62
     0
370
    -2
100
AcDbLine
 10
0.0
 20
0.0
 30
0.0
 11
-1.0
 21
-0.1666666666666666
 31
0.0
  0
LINE
  5
164
330
161
100
AcDbEntity
  8
0
  6
ByBlock
 62
     0
370
    -2
100
AcDbLine
 10
-1.0
 20
0.1666666666666666
 30
0.0
 11
-1.0
 21
-0.1666666666666666
 31
0.0
  0
LINE
  5
165
330
161
100
AcDbEntity
  8
0
  6
ByBlock
 62
     0
370
    -2
100
AcDbLine
 10
0.0
 20
0.0
 30
0.0
 11
-1.0
 21
0.0
 31
0.0
  0
ENDBLK
  5
167
330
161
100
AcDbEntity
  8
0
100
AcDbBlockEnd
  0
BLOCK
  5
169
330
168
100
AcDbEntity
  8
0
100
AcDbBlockBegin
  2
DatumFilled45
 70
     0
 10
0.0
 20
0.0
 30
0.0
  3
DatumFilled45
  1

  0
POLYLINE
  5
16B
330
168
100
AcDbEntity
  8
0
 62
     0
100
AcDb2dPolyline
 66
     1
 10
0.0
 20
0.0
 30
0.0
 70
   128
  0
VERTEX
  5
16C
330
16B
100
AcDbEntity
  8
0
 62
     0
100
AcDbVertex
100
AcDb2dVertex
 10
0.0
 20
0.9999999999999998
 30
0.0
  0
VERTEX
  5
16D
330
16B
100
AcDbEntity
  8
0
 62
     0
100
AcDbVertex
100
AcDb2dVertex
 10
0.0
 20
-0.9999999999999998
 30
0.0
  0
VERTEX
  5
16F
330
16B
100
AcDbEntity
  8
0
 62
     0
100
AcDbVertex
100
AcDb2dVertex
 10
-0.9999999999999998
 20
0.0
 30
0.0
  0
VERTEX
  5
170
330
16B
100
AcDbEntity
  8
0
 62
     0
100
AcDbVertex
100
AcDb2dVertex
 10
0.0
 20
0.9999999999999998
 30
0.0
  0
SEQEND
  5
16E
330
16B
100
AcDbEntity
  8
0
 62
     0
  0
SOLID
  5
172
330
168
100
AcDbEntity
  8
0
 62
     0
100
AcDbTrace
 10
0.0
 20
0.9999999999999998
 30
0.0
 11
0.0
 21
-0.9999999999999998
 31
0.0
 12
-0.9999999999999998
 22
0.0
 32
0.0
 13
0.0
 23
0.9999999999999998
 33
0.0
  0
ENDBLK
  5
16A
330
168
100
AcDbEntity
  8
0
100
AcDbBlockEnd
  0
BLOCK
  5
175
330
174
100
AcDbEntity
  8
0
100
AcDbBlockBegin
  2
Filled-1
 70
     0
 10
0.0
 20
0.0
 30
0.0
  3
Filled-1
  1

  0
LINE
  5
177
330
174
100
AcDbEntity
  8
0
 62
     0
100
AcDbLine
 10
-0.9999999999999998
 20
0.0
 30
0.0
 11
0.0
 21
0.0
 31
0.0
  0
POLYLINE
  5
178
330
174
100
AcDbEntity
  8
0
 62
     0
100
AcDb2dPolyline
 66
     1
 10
0.0
 20
0.0
 30
0.0
 70
   128
  0
VERTEX
  5
179
330
178
100
AcDbEntity
  8
0
 62
     0
100
AcDbVertex
100
AcDb2dVertex
 10
-0.9999999999999998
 20
-0.0994897959183674
 30
0.0
  0
VERTEX
  5
17A
330
178
100
AcDbEntity
  8
0
 62
     0
100
AcDbVertex
100
AcDb2dVertex
 10
0.0
 20
0.0
 30
0.0
  0
VERTEX
  5
17C
330
178
100
AcDbEntity
  8
0
 62
     0
100
AcDbVertex
100
AcDb2dVertex
 10
-0.9999999999999998
 20
0.0994897959183674
 30
0.0
  0
VERTEX
  5
17D
330
178
100
AcDbEntity
  8
0
 62
     0
100
AcDbVertex
100
AcDb2dVertex
 10
-0.9999999999999998
 20
-0.0994897959183674
 30
0.0
  0
SEQEND
  5
17B
330
178
100
AcDbEntity
  8
0
 62
     0
  0
SOLID
  5
17E
330
174
100
AcDbEntity
  8
0
 62
     0
100
AcDbTrace
 10
-0.9999999999999998
 20
-0.0994897959183674
 30
0.0
 11
0.0
 21
0.0
 31
0.0
 12
-0.9999999999999998
 22
0.0994897959183674
 32
0.0
 13
-0.9999999999999998
 23
-0.0994897959183674
 33
0.0
  0
LINE
  5
17F
330
174
100
AcDbEntity
  8
0
 62
     0
100
AcDbLine
 10
-0.9999999999999998
 20
-0.0994897959183674
 30
0.0
 11
0.0
 21
0.0
 31
0.0
  0
LINE
  5
180
330
174
100
AcDbEntity
  8
0
 62
     0
100
AcDbLine
 10
0.0
 20
0.0
 30
0.0
 11
-0.9999999999999998
 21
0.0994897959183674
 31
0.0
  0
LINE
  5
181
330
174
100
AcDbEntity
  8
0
 62
     0
100
AcDbLine
 10
-0.9999999999999998
 20
0.0994897959183674
 30
0.0
 11
-0.9999999999999998
 21
-0.0994897959183674
 31
0.0
  0
ENDBLK
  5
176
330
174
100
AcDbEntity
  8
0
100
AcDbBlockEnd
  0
BLOCK
  5
1CA
330
1C9
100
AcDbEntity
  8
0
100
AcDbBlockBegin
  2
*D4
 70
     1
 10
0.0
 20
0.0
 30
0.0
  3
*D4
  1

  0
LINE
  5
2A9
330
1C9
100
AcDbEntity
  8
Dimension (ANSI)
100
AcDbLine
 10
8.407555446074622
 20
9.744547303017899
 30
0.0
 11
4.912968831901395
 21
9.744547303017899
 31
0.0
  0
LINE
  5
2AA
330
1C9
100
AcDbEntity
  8
Dimension (ANSI)
100
AcDbLine
 10
8.407555446074617
 20
23.9445473030179
 30
0.0
 11
4.912968831901399
 21
23.9445473030179
 31
0.0
  0
LINE
  5
2AB
330
1C9
100
AcDbEntity
  8
Dimension (ANSI)
100
AcDbLine
 10
5.287968831901396
 20
10.03982288688116
 30
0.0
 11
5.287968831901397
 21
16.56256414352868
 31
0.0
  0
LINE
  5
2AC
330
1C9
100
AcDbEntity
  8
Dimension (ANSI)
100
AcDbLine
 10
5.287968831901399
 20
23.64927171915464
 30
0.0
 11
5.287968831901397
 21
17.12653046250711
 31
0.0
  0
SOLID
  5
2AD
330
1C9
100
AcDbEntity
  8
Dimension (ANSI)
100
AcDbTrace
 10
5.238756234590853
 20
10.03982288688116
 30
0.0
 11
5.337181429211939
 21
10.03982288688116
 31
0.0
 12
5.287968831901395
 22
9.744547303017899
 32
0.0
 13
5.287968831901395
 23
9.744547303017899
 33
0.0
  0
SOLID
  5
2AE
330
1C9
100
AcDbEntity
  8
Dimension (ANSI)
100
AcDbTrace
 10
5.238756234590856
 20
23.64927171915464
 30
0.0
 11
5.337181429211942
 21
23.64927171915464
 31
0.0
 12
5.287968831901399
 22
23.9445473030179
 32
0.0
 13
5.287968831901399
 23
23.9445473030179
 33
0.0
  0
MTEXT
  5
2AF
330
1C9
100
AcDbEntity
  8
Dimension (ANSI)
100
AcDbMText
 10
4.709768674607451
 20
17.03204227353074
 30
0.0
 40
0.3600000143051147
 41
0.0
 71
     1
 72
     1
  1
\A1;14.20
  7
Note Text (ANSI)
 73
     1
 44
1.0
1001
ACAD
1000
MTEXTBEGIN
1070
    73
1070
     1
1070
    44
1040
1.0
1070
    74
1070
     0
1000
MTEXTEND
  0
POINT
  5
2B0
330
1C9
100
AcDbEntity
  8
Defpoints
 62
     0
100
AcDbPoint
 10
8.595055446074622
 20
9.744547303017899
 30
0.0
  0
POINT
  5
2B1
330
1C9
100
AcDbEntity
  8
Defpoints
 62
     0
100
AcDbPoint
 10
8.595055446074617
 20
23.9445473030179
 30
0.0
  0
POINT
  5
2B2
330
1C9
100
AcDbEntity
  8
Defpoints
 62
     0
100
AcDbPoint
 10
5.287968831901399
 20
23.9445473030179
 30
0.0
  0
ENDBLK
  5
1CB
330
1C9
100
AcDbEntity
  8
0
100
AcDbBlockEnd
  0
BLOCK
  5
2B5
330
2B4
100
AcDbEntity
  8
0
100
AcDbBlockBegin
  2
*D5
 70
     1
 10
0.0
 20
0.0
 30
0.0
  3
*D5
  1

  0
LINE
  5
393
330
2B4
100
AcDbEntity
  8
Dimension (ANSI)
100
AcDbLine
 10
8.095055446074617
 20
23.63204730301789
 30
0.0
 11
8.095055446074617
 21
26.41797249986829
 31
0.0
  0
LINE
  5
394
330
2B4
100
AcDbEntity
  8
Dimension (ANSI)
100
AcDbLine
 10
22.29505544607462
 20
23.6320473030179
 30
0.0
 11
22.29505544607462
 21
26.41797249986829
 31
0.0
  0
LINE
  5
395
330
2B4
100
AcDbEntity
  8
Dimension (ANSI)
100
AcDbLine
 10
8.390331029937875
 20
26.04297249986829
 30
0.0
 11
14.52236709980429
 21
26.04297249986829
 31
0.0
  0
LINE
  5
396
330
2B4
100
AcDbEntity
  8
Dimension (ANSI)
100
AcDbLine
 10
21.99977986221136
 20
26.04297249986829
 30
0.0
 11
15.86774379234494
 21
26.04297249986829
 31
0.0
  0
SOLID
  5
397
330
2B4
100
AcDbEntity
  8
Dimension (ANSI)
100
AcDbTrace
 10
8.390331029937875
 20
26.09218509717883
 30
0.0
 11
8.390331029937875
 21
25.99375990255774
 31
0.0
 12
8.095055446074617
 22
26.04297249986829
 32
0.0
 13
8.095055446074617
 23
26.04297249986829
 33
0.0
  0
SOLID
  5
398
330
2B4
100
AcDbEntity
  8
Dimension (ANSI)
100
AcDbTrace
 10
21.99977986221136
 20
26.09218509717883
 30
0.0
 11
21.99977986221136
 21
25.99375990255774
 31
0.0
 12
22.29505544607462
 22
26.04297249986829
 32
0.0
 13
22.29505544607462
 23
26.04297249986829
 33
0.0
  0
MTEXT
  5
399
330
2B4
100
AcDbEntity
  8
Dimension (ANSI)
100
AcDbMText
 10
14.61685528878067
 20
26.23046747038113
 30
0.0
 40
0.3600000143051147
 41
0.0
 71
     1
 72
     1
  1
\A1;14.20
  7
Note Text (ANSI)
 73
     1
 44
1.0
1001
ACAD
1000
MTEXTBEGIN
1070
    73
1070
     1
1070
    44
1040
1.0
1070
    74
1070
     0
1000
MTEXTEND
  0
POINT
  5
39A
330
2B4
100
AcDbEntity
  8
Defpoints
 62
     0
100
AcDbPoint
 10
8.095055446074617
 20
23.44454730301789
 30
0.0
  0
POINT
  5
39B
330
2B4
100
AcDbEntity
  8
Defpoints
 62
     0
100
AcDbPoint
 10
22.29505544607462
 20
23.44454730301789
 30
0.0
  0
POINT
  5
39C
330
2B4
100
AcDbEntity
  8
Defpoints
 62
     0
100
AcDbPoint
 10
22.29505544607462
 20
26.04297249986829
 30
0.0
  0
ENDBLK
  5
2B6
330
2B4
100
AcDbEntity
  8
0
100
AcDbBlockEnd
  0
BLOCK
  5
39F
330
39E
100
AcDbEntity
  8
0
100
AcDbBlockBegin
  2
*D6
 70
     1
 10
0.0
 20
0.0
 30
0.0
  3
*D6
  1

  0
LINE
  5
48B
330
39E
100
AcDbEntity
  8
Dimension (ANSI)
100
AcDbLine
 10
8.42755544607462
 20
10.26454730301789
 30
0.0
 11
7.512450607296729
 21
10.26454730301789
 31
0.0
  0
LINE
  5
48C
330
39E
100
AcDbEntity
  8
Dimension (ANSI)
100
AcDbLine
 10
8.42755544607462
 20
11.0145473030179
 30
0.0
 11
7.512450607296729
 21
11.0145473030179
 31
0.0
  0
LINE
  5
48D
330
39E
100
AcDbEntity
  8
Dimension (ANSI)
100
AcDbLine
 10
7.887450607296729
 20
11.30982288688115
 30
0.0
 11
7.887450607296729
 21
11.60509847074441
 31
0.0
  0
LINE
  5
48E
330
39E
100
AcDbEntity
  8
Dimension (ANSI)
100
AcDbLine
 10
7.887450607296728
 20
9.969271719154638
 30
0.0
 11
7.887450607296728
 21
9.404648308733456
 31
0.0
  0
LINE
  5
48F
330
39E
100
AcDbEntity
  8
Dimension (ANSI)
100
AcDbLine
 10
7.887450607296728
 20
9.404648308733456
 30
0.0
 11
7.59217502343347
 21
9.404648308733456
 31
0.0
  0
SOLID
  5
490
330
39E
100
AcDbEntity
  8
Dimension (ANSI)
100
AcDbTrace
 10
7.838238009986186
 20
11.30982288688115
 30
0.0
 11
7.936663204607272
 21
11.30982288688115
 31
0.0
 12
7.887450607296729
 22
11.0145473030179
 32
0.0
 13
7.887450607296729
 23
11.0145473030179
 33
0.0
  0
SOLID
  5
491
330
39E
100
AcDbEntity
  8
Dimension (ANSI)
100
AcDbTrace
 10
7.838238009986185
 20
9.969271719154638
 30
0.0
 11
7.936663204607271
 21
9.969271719154638
 31
0.0
 12
7.887450607296729
 22
10.26454730301789
 32
0.0
 13
7.887450607296729
 23
10.26454730301789
 33
0.0
  0
MTEXT
  5
492
330
39E
100
AcDbEntity
  8
Dimension (ANSI)
100
AcDbMText
 10
6.582817758479553
 20
9.592022392740485
 30
0.0
 40
0.3600000143051147
 41
0.0
 71
     1
 72
     1
  1
\A1;0.75
  7
Note Text (ANSI)
 73
     1
 44
1.0
1001
ACAD
1000
MTEXTBEGIN
1070
    73
1070
     1
1070
    44
1040
1.0
1070
    74
1070
     0
1000
MTEXTEND
  0
POINT
  5
493
330
39E
100
AcDbEntity
  8
Defpoints
 62
     0
100
AcDbPoint
 10
8.61505544607462
 20
10.26454730301789
 30
0.0
  0
POINT
  5
494
330
39E
100
AcDbEntity
  8
Defpoints
 62
     0
100
AcDbPoint
 10
8.61505544607462
 20
11.0145473030179
 30
0.0
  0
POINT
  5
495
330
39E
100
AcDbEntity
  8
Defpoints
 62
     0
100
AcDbPoint
 10
7.887450607296729
 20
11.0145473030179
 30
0.0
  0
ENDBLK
  5
3A0
330
39E
100
AcDbEntity
  8
0
100
AcDbBlockEnd
  0
BLOCK
  5
498
330
497
100
AcDbEntity
  8
0
100
AcDbBlockBegin
  2
*D7
 70
     1
 10
0.0
 20
0.0
 30
0.0
  3
*D7
  1

  0
LINE
  5
589
330
497
100
AcDbEntity
  8
Dimension (ANSI)
100
AcDbLine
 10
21.98255544607461
 20
23.9445473030179
 30
0.0
 11
24.18041118970654
 21
23.94454730301789
 31
0.0
  0
LINE
  5
58A
330
497
100
AcDbEntity
  8
Dimension (ANSI)
100
AcDbLine
 10
21.96255544607462
 20
23.4245473030179
 30
0.0
 11
24.18041118970654
 21
23.4245473030179
 31
0.0
  0
LINE
  5
58B
330
497
100
AcDbEntity
  8
Dimension (ANSI)
100
AcDbLine
 10
23.80541118970655
 20
24.23982288688116
 30
0.0
 11
23.80541118970655
 21
24.53509847074441
 31
0.0
  0
LINE
  5
58C
330
497
100
AcDbEntity
  8
Dimension (ANSI)
100
AcDbLine
 10
23.80541118970654
 20
23.12927171915464
 30
0.0
 11
23.80541118970654
 21
22.44748343530083
 31
0.0
  0
LINE
  5
58D
330
497
100
AcDbEntity
  8
Dimension (ANSI)
100
AcDbLine
 10
23.80541118970654
 20
22.44748343530083
 30
0.0
 11
23.51013560584329
 21
22.44748343530083
 31
0.0
  0
SOLID
  5
58E
330
497
100
AcDbEntity
  8
Dimension (ANSI)
100
AcDbTrace
 10
23.756198592396
 20
24.23982288688116
 30
0.0
 11
23.85462378701709
 21
24.23982288688116
 31
0.0
 12
23.80541118970654
 22
23.9445473030179
 32
0.0
 13
23.80541118970654
 23
23.9445473030179
 33
0.0
  0
SOLID
  5
58F
330
497
100
AcDbEntity
  8
Dimension (ANSI)
100
AcDbTrace
 10
23.756198592396
 20
23.12927171915464
 30
0.0
 11
23.85462378701709
 21
23.12927171915464
 31
0.0
 12
23.80541118970654
 22
23.4245473030179
 32
0.0
 13
23.80541118970654
 23
23.4245473030179
 33
0.0
  0
MTEXT
  5
590
330
497
100
AcDbEntity
  8
Dimension (ANSI)
100
AcDbMText
 10
22.49666819969179
 20
22.63497840581368
 30
0.0
 40
0.3600000143051147
 41
0.0
 71
     1
 72
     1
  1
\A1;0.52
  7
Note Text (ANSI)
 73
     1
 44
1.0
1001
ACAD
1000
MTEXTBEGIN
1070
    73
1070
     1
1070
    44
1040
1.0
1070
    74
1070
     0
1000
MTEXTEND
  0
POINT
  5
591
330
497
100
AcDbEntity
  8
Defpoints
 62
     0
100
AcDbPoint
 10
21.79505544607461
 20
23.9445473030179
 30
0.0
  0
POINT
  5
592
330
497
100
AcDbEntity
  8
Defpoints
 62
     0
100
AcDbPoint
 10
21.77505544607462
 20
23.4245473030179
 30
0.0
  0
POINT
  5
593
330
497
100
AcDbEntity
  8
Defpoints
 62
     0
100
AcDbPoint
 10
23.80541118970654
 20
23.4245473030179
 30
0.0
  0
ENDBLK
  5
499
330
497
100
AcDbEntity
  8
0
100
AcDbBlockEnd
  0
BLOCK
  5
596
330
595
100
AcDbEntity
  8
0
100
AcDbBlockBegin
  2
*D8
 70
     1
 10
0.0
 20
0.0
 30
0.0
  3
*D8
  1

  0
LINE
  5
674
330
595
100
AcDbEntity
  8
Dimension (ANSI)
100
AcDbLine
 10
22.29505544607462
 20
23.6320473030179
 30
0.0
 11
22.29505544607462
 21
25.51414167739671
 31
0.0
  0
LINE
  5
675
330
595
100
AcDbEntity
  8
Dimension (ANSI)
100
AcDbLine
 10
21.77505544607462
 20
23.6120473030179
 30
0.0
 11
21.77505544607462
 21
25.51414167739671
 31
0.0
  0
LINE
  5
676
330
595
100
AcDbEntity
  8
Dimension (ANSI)
100
AcDbLine
 10
21.47977986221136
 20
25.13914167739671
 30
0.0
 11
21.1845042783481
 21
25.13914167739671
 31
0.0
  0
LINE
  5
677
330
595
100
AcDbEntity
  8
Dimension (ANSI)
100
AcDbLine
 10
22.59033102993788
 20
25.13914167739671
 30
0.0
 11
23.18347391831282
 21
25.13914167739671
 31
0.0
  0
SOLID
  5
678
330
595
100
AcDbEntity
  8
Dimension (ANSI)
100
AcDbTrace
 10
21.47977986221136
 20
25.18835427470726
 30
0.0
 11
21.47977986221136
 21
25.08992908008617
 31
0.0
 12
21.77505544607462
 22
25.13914167739671
 32
0.0
 13
21.77505544607462
 23
25.13914167739671
 33
0.0
  0
SOLID
  5
679
330
595
100
AcDbEntity
  8
Dimension (ANSI)
100
AcDbTrace
 10
22.59033102993788
 20
25.18835427470726
 30
0.0
 11
22.59033102993788
 21
25.08992908008617
 31
0.0
 12
22.29505544607462
 22
25.13914167739671
 32
0.0
 13
22.29505544607462
 23
25.13914167739671
 33
0.0
  0
MTEXT
  5
67A
330
595
100
AcDbEntity
  8
Dimension (ANSI)
100
AcDbMText
 10
23.2779621072892
 20
25.32663664790955
 30
0.0
 40
0.3600000143051147
 41
0.0
 71
     1
 72
     1
  1
\A1;0.52
  7
Note Text (ANSI)
 73
     1
 44
1.0
1001
ACAD
1000
MTEXTBEGIN
1070
    73
1070
     1
1070
    44
1040
1.0
1070
    74
1070
     0
1000
MTEXTEND
  0
POINT
  5
67B
330
595
100
AcDbEntity
  8
Defpoints
 62
     0
100
AcDbPoint
 10
22.29505544607462
 20
23.44454730301789
 30
0.0
  0
POINT
  5
67C
330
595
100
AcDbEntity
  8
Defpoints
 62
     0
100
AcDbPoint
 10
21.77505544607462
 20
23.4245473030179
 30
0.0
  0
POINT
  5
67D
330
595
100
AcDbEntity
  8
Defpoints
 62
     0
100
AcDbPoint
 10
21.77505544607462
 20
25.13914167739671
 30
0.0
  0
ENDBLK
  5
597
330
595
100
AcDbEntity
  8
0
100
AcDbBlockEnd
  0
BLOCK
  5
680
330
67F
100
AcDbEntity
  8
0
100
AcDbBlockBegin
  2
*D9
 70
     1
 10
0.0
 20
0.0
 30
0.0
  3
*D9
  1

  0
LINE
  5
75E
330
67F
100
AcDbEntity
  8
Dimension (ANSI)
100
AcDbLine
 10
8.42755544607462
 20
10.26454730301789
 30
0.0
 11
5.929888459068394
 21
10.26454730301789
 31
0.0
  0
LINE
  5
75F
330
67F
100
AcDbEntity
  8
Dimension (ANSI)
100
AcDbLine
 10
8.42755544607462
 20
23.4245473030179
 30
0.0
 11
5.929888459068396
 21
23.4245473030179
 31
0.0
  0
LINE
  5
760
330
67F
100
AcDbEntity
  8
Dimension (ANSI)
100
AcDbLine
 10
6.304888459068394
 20
10.55982288688115
 30
0.0
 11
6.304888459068395
 21
18.62142124467149
 31
0.0
  0
LINE
  5
761
330
67F
100
AcDbEntity
  8
Dimension (ANSI)
100
AcDbLine
 10
6.304888459068396
 20
23.12927171915464
 30
0.0
 11
6.304888459068395
 21
19.18538756364992
 31
0.0
  0
SOLID
  5
762
330
67F
100
AcDbEntity
  8
Dimension (ANSI)
100
AcDbTrace
 10
6.25567586175785
 20
10.55982288688115
 30
0.0
 11
6.354101056378937
 21
10.55982288688115
 31
0.0
 12
6.304888459068394
 22
10.26454730301789
 32
0.0
 13
6.304888459068394
 23
10.26454730301789
 33
0.0
  0
SOLID
  5
763
330
67F
100
AcDbEntity
  8
Dimension (ANSI)
100
AcDbTrace
 10
6.255675861757853
 20
23.12927171915464
 30
0.0
 11
6.354101056378939
 21
23.12927171915464
 31
0.0
 12
6.304888459068396
 22
23.4245473030179
 32
0.0
 13
6.304888459068396
 23
23.4245473030179
 33
0.0
  0
MTEXT
  5
764
330
67F
100
AcDbEntity
  8
Dimension (ANSI)
100
AcDbMText
 10
5.591537188277767
 20
19.09089937467355
 30
0.0
 40
0.3600000143051147
 41
0.0
 71
     1
 72
     1
  1
\A1;13.160
  7
Note Text (ANSI)
 73
     1
 44
1.0
1001
ACAD
1000
MTEXTBEGIN
1070
    73
1070
     1
1070
    44
1040
1.0
1070
    74
1070
     0
1000
MTEXTEND
  0
POINT
  5
765
330
67F
100
AcDbEntity
  8
Defpoints
 62
     0
100
AcDbPoint
 10
8.61505544607462
 20
10.26454730301789
 30
0.0
  0
POINT
  5
766
330
67F
100
AcDbEntity
  8
Defpoints
 62
     0
100
AcDbPoint
 10
8.61505544607462
 20
23.4245473030179
 30
0.0
  0
POINT
  5
767
330
67F
100
AcDbEntity
  8
Defpoints
 62
     0
100
AcDbPoint
 10
6.304888459068396
 20
23.4245473030179
 30
0.0
  0
ENDBLK
  5
681
330
67F
100
AcDbEntity
  8
0
100
AcDbBlockEnd
  0
BLOCK
  5
76C
330
76B
100
AcDbEntity
  8
0
100
AcDbBlockBegin
  2
*D10
 70
     1
 10
0.0
 20
0.0
 30
0.0
  3
*D10
  1

  0
LINE
  5
85D
330
76B
100
AcDbEntity
  8
Dimension (ANSI)
100
AcDbLine
 10
21.98255544607462
 20
9.744547303017899
 30
0.0
 11
24.1821605835162
 21
9.744547303017899
 31
0.0
  0
LINE
  5
85E
330
76B
100
AcDbEntity
  8
Dimension (ANSI)
100
AcDbLine
 10
22.48255544607462
 20
10.2445473030179
 30
0.0
 11
24.1821605835162
 21
10.2445473030179
 31
0.0
  0
LINE
  5
85F
330
76B
100
AcDbEntity
  8
Dimension (ANSI)
100
AcDbLine
 10
23.8071605835162
 20
9.449271719154641
 30
0.0
 11
23.8071605835162
 21
9.153996135291382
 31
0.0
  0
LINE
  5
860
330
76B
100
AcDbEntity
  8
Dimension (ANSI)
100
AcDbLine
 10
23.8071605835162
 20
10.53982288688116
 30
0.0
 11
23.8071605835162
 21
11.10444629730234
 31
0.0
  0
LINE
  5
861
330
76B
100
AcDbEntity
  8
Dimension (ANSI)
100
AcDbLine
 10
23.8071605835162
 20
11.10444629730234
 30
0.0
 11
24.10243616737946
 21
11.10444629730234
 31
0.0
  0
SOLID
  5
862
330
76B
100
AcDbEntity
  8
Dimension (ANSI)
100
AcDbTrace
 10
23.75794798620566
 20
9.449271719154641
 30
0.0
 11
23.85637318082674
 21
9.449271719154641
 31
0.0
 12
23.8071605835162
 22
9.744547303017899
 32
0.0
 13
23.8071605835162
 23
9.744547303017899
 33
0.0
  0
SOLID
  5
863
330
76B
100
AcDbEntity
  8
Dimension (ANSI)
100
AcDbTrace
 10
23.75794798620566
 20
10.53982288688116
 30
0.0
 11
23.85637318082674
 21
10.53982288688116
 31
0.0
 12
23.8071605835162
 22
10.2445473030179
 32
0.0
 13
23.8071605835162
 23
10.2445473030179
 33
0.0
  0
MTEXT
  5
864
330
76B
100
AcDbEntity
  8
Dimension (ANSI)
100
AcDbMText
 10
24.19692435635584
 20
11.29182038130937
 30
0.0
 40
0.3600000143051147
 41
0.0
 71
     1
 72
     1
  1
\A1;0.50
  7
Note Text (ANSI)
 73
     1
 44
1.0
1001
ACAD
1000
MTEXTBEGIN
1070
    73
1070
     1
1070
    44
1040
1.0
1070
    74
1070
     0
1000
MTEXTEND
  0
POINT
  5
865
330
76B
100
AcDbEntity
  8
Defpoints
 62
     0
100
AcDbPoint
 10
21.79505544607462
 20
9.744547303017899
 30
0.0
  0
POINT
  5
866
330
76B
100
AcDbEntity
  8
Defpoints
 62
     0
100
AcDbPoint
 10
22.29505544607462
 20
10.2445473030179
 30
0.0
  0
POINT
  5
867
330
76B
100
AcDbEntity
  8
Defpoints
 62
     0
100
AcDbPoint
 10
23.8071605835162
 20
10.2445473030179
 30
0.0
  0
ENDBLK
  5
76D
330
76B
100
AcDbEntity
  8
0
100
AcDbBlockEnd
  0
BLOCK
  5
86A
330
869
100
AcDbEntity
  8
0
100
AcDbBlockBegin
  2
*D11
 70
     1
 10
0.0
 20
0.0
 30
0.0
  3
*D11
  1

  0
LINE
  5
948
330
869
100
AcDbEntity
  8
Dimension (ANSI)
100
AcDbLine
 10
22.29505544607462
 20
10.0570473030179
 30
0.0
 11
22.29505544607462
 21
7.007342578608452
 31
0.0
  0
LINE
  5
949
330
869
100
AcDbEntity
  8
Dimension (ANSI)
100
AcDbLine
 10
21.79505544607462
 20
9.557047303017899
 30
0.0
 11
21.79505544607462
 21
7.007342578608452
 31
0.0
  0
LINE
  5
94A
330
869
100
AcDbEntity
  8
Dimension (ANSI)
100
AcDbLine
 10
22.59033102993788
 20
7.382342578608452
 30
0.0
 11
22.88560661380114
 21
7.382342578608452
 31
0.0
  0
LINE
  5
94B
330
869
100
AcDbEntity
  8
Dimension (ANSI)
100
AcDbLine
 10
21.49977986221136
 20
7.382342578608452
 30
0.0
 11
21.2045042783481
 21
7.382342578608452
 31
0.0
  0
SOLID
  5
94C
330
869
100
AcDbEntity
  8
Dimension (ANSI)
100
AcDbTrace
 10
22.59033102993788
 20
7.431555175918995
 30
0.0
 11
22.59033102993788
 21
7.333129981297909
 31
0.0
 12
22.29505544607462
 22
7.382342578608452
 32
0.0
 13
22.29505544607462
 23
7.382342578608452
 33
0.0
  0
SOLID
  5
94D
330
869
100
AcDbEntity
  8
Dimension (ANSI)
100
AcDbTrace
 10
21.49977986221136
 20
7.431555175918995
 30
0.0
 11
21.49977986221136
 21
7.333129981297909
 31
0.0
 12
21.79505544607462
 22
7.382342578608452
 32
0.0
 13
21.79505544607462
 23
7.382342578608452
 33
0.0
  0
MTEXT
  5
94E
330
869
100
AcDbEntity
  8
Dimension (ANSI)
100
AcDbMText
 10
20.18934446111526
 20
7.569716662615479
 30
0.0
 40
0.3600000143051147
 41
0.0
 71
     1
 72
     1
  1
\A1;0.50
  7
Note Text (ANSI)
 73
     1
 44
1.0
1001
ACAD
1000
MTEXTBEGIN
1070
    73
1070
     1
1070
    44
1040
1.0
1070
    74
1070
     0
1000
MTEXTEND
  0
POINT
  5
94F
330
869
100
AcDbEntity
  8
Defpoints
 62
     0
100
AcDbPoint
 10
22.29505544607462
 20
10.2445473030179
 30
0.0
  0
POINT
  5
950
330
869
100
AcDbEntity
  8
Defpoints
 62
     0
100
AcDbPoint
 10
21.79505544607462
 20
9.744547303017899
 30
0.0
  0
POINT
  5
951
330
869
100
AcDbEntity
  8
Defpoints
 62
     0
100
AcDbPoint
 10
21.79505544607462
 20
7.382342578608452
 30
0.0
  0
ENDBLK
  5
86B
330
869
100
AcDbEntity
  8
0
100
AcDbBlockEnd
  0
BLOCK
  5
954
330
953
100
AcDbEntity
  8
0
100
AcDbBlockBegin
  2
*D12
 70
     1
 10
0.0
 20
0.0
 30
0.0
  3
*D12
  1

  0
LINE
  5
A04
330
953
100
AcDbEntity
  8
Dimension (ANSI)
100
AcDbLine
 10
6.560511511229771
 20
25.59203464710709
 30
0.0
 11
6.927965007991328
 21
25.59203464710709
 31
0.0
  0
LINE
  5
A05
330
953
100
AcDbEntity
  8
Dimension (ANSI)
100
AcDbLine
 10
6.927965007991328
 20
25.59203464710709
 30
0.0
 11
8.280131927764529
 21
23.85483987701866
 31
0.0
  0
MTEXT
  5
A06
102
{ACAD_XDICTIONARY
360
BFB
102
}
330
953
100
AcDbEntity
  8
Dimension (ANSI)
100
AcDbMText
 10
6.466023322253392
 20
25.86654775405286
 30
0.0
 40
0.3600000143051147
 41
0.0
 71
     3
 72
     1
  1
\A1;\U+22050.50{\PTYP.(4PL.)}
  7
Note Text (ANSI)
 73
     1
 44
1.0
1001
ACAD
1000
MTEXTBEGIN
1070
    73
1070
     1
1070
    44
1040
1.0
1070
    74
1070
     0
1000
MTEXTEND
  0
SOLID
  5
A07
330
953
100
AcDbEntity
  8
Dimension (ANSI)
100
AcDbTrace
 10
8.318966997216911
 20
23.88506763106488
 30
0.0
 11
8.24129685831215
 21
23.82461212297245
 31
0.0
 12
8.461498452041817
 22
23.62182946030438
 32
0.0
 13
8.461498452041817
 23
23.62182946030438
 33
0.0
  0
LINE
  5
A08
330
953
100
AcDbEntity
  8
Dimension (ANSI)
100
AcDbLine
 10
8.345055446074621
 20
23.4245473030179
 30
0.0
 11
8.885055446074618
 21
23.4245473030179
 31
0.0
  0
LINE
  5
A09
330
953
100
AcDbEntity
  8
Dimension (ANSI)
100
AcDbLine
 10
8.615055446074615
 20
23.15454730301789
 30
0.0
 11
8.615055446074615
 21
23.6945473030179
 31
0.0
  0
POINT
  5
A0A
330
953
100
AcDbEntity
  8
Defpoints
 62
     0
100
AcDbPoint
 10
8.461498452041817
 20
23.62182946030438
 30
0.0
  0
POINT
  5
A0B
330
953
100
AcDbEntity
  8
Defpoints
 62
     0
100
AcDbPoint
 10
8.768612440107418
 20
23.22726514573141
 30
0.0
  0
ENDBLK
  5
955
330
953
100
AcDbEntity
  8
0
100
AcDbBlockEnd
  0
BLOCK
  5
A0E
330
A0D
100
AcDbEntity
  8
0
100
AcDbBlockBegin
  2
*D13
 70
     1
 10
0.0
 20
0.0
 30
0.0
  3
*D13
  1

  0
LINE
  5
ABD
330
A0D
100
AcDbEntity
  8
Dimension (ANSI)
100
AcDbLine
 10
10.27709304472839
 20
8.02729912898728
 30
0.0
 11
9.909697340772623
 21
8.027299128987282
 31
0.0
  0
LINE
  5
ABE
330
A0D
100
AcDbEntity
  8
Dimension (ANSI)
100
AcDbLine
 10
9.909697340772623
 20
8.027299128987282
 30
0.0
 11
8.794604955550253
 21
10.60025594837708
 31
0.0
  0
MTEXT
  5
ABF
102
{ACAD_XDICTIONARY
360
BFD
102
}
330
A0D
100
AcDbEntity
  8
Dimension (ANSI)
100
AcDbMText
 10
10.37158123370477
 20
8.301812235933059
 30
0.0
 40
0.3600000143051147
 41
0.0
 71
     1
 72
     1
  1
\A1;\U+22050.31{\PTYP. (4PL.)}
  7
Note Text (ANSI)
 73
     1
 44
1.0
1001
ACAD
1000
MTEXTBEGIN
1070
    73
1070
     1
1070
    44
1040
1.0
1070
    74
1070
     0
1000
MTEXTEND
  0
SOLID
  5
AC0
330
A0D
100
AcDbEntity
  8
Dimension (ANSI)
100
AcDbTrace
 10
8.839759326274354
 20
10.61982537704938
 30
0.0
 11
8.749450584826153
 21
10.58068651970478
 31
0.0
 12
8.677188383516462
 22
10.87118217272169
 32
0.0
 13
8.677188383516462
 23
10.87118217272169
 33
0.0
  0
LINE
  5
AC1
330
A0D
100
AcDbEntity
  8
Dimension (ANSI)
100
AcDbLine
 10
8.345055446074617
 20
11.0145473030179
 30
0.0
 11
8.885055446074616
 21
11.0145473030179
 31
0.0
  0
LINE
  5
AC2
330
A0D
100
AcDbEntity
  8
Dimension (ANSI)
100
AcDbLine
 10
8.615055446074617
 20
10.74454730301789
 30
0.0
 11
8.615055446074617
 21
11.28454730301789
 31
0.0
  0
POINT
  5
AC3
330
A0D
100
AcDbEntity
  8
Defpoints
 62
     0
100
AcDbPoint
 10
8.677188383516462
 20
10.87118217272169
 30
0.0
  0
POINT
  5
AC4
330
A0D
100
AcDbEntity
  8
Defpoints
 62
     0
100
AcDbPoint
 10
8.552922508632772
 20
11.1579124333141
 30
0.0
  0
ENDBLK
  5
A0F
330
A0D
100
AcDbEntity
  8
0
100
AcDbBlockEnd
  0
BLOCK
  5
AC7
330
AC6
100
AcDbEntity
  8
0
100
AcDbBlockBegin
  2
*D14
 70
     1
 10
0.0
 20
0.0
 30
0.0
  3
*D14
  1

  0
LINE
  5
BA5
330
AC6
100
AcDbEntity
  8
Dimension (ANSI)
100
AcDbLine
 10
21.77505544607462
 20
23.6120473030179
 30
0.0
 11
21.77505544607462
 21
25.5141416773967
 31
0.0
  0
LINE
  5
BA6
330
AC6
100
AcDbEntity
  8
Dimension (ANSI)
100
AcDbLine
 10
8.61505544607462
 20
23.6120473030179
 30
0.0
 11
8.61505544607462
 21
25.5141416773967
 31
0.0
  0
LINE
  5
BA7
330
AC6
100
AcDbEntity
  8
Dimension (ANSI)
100
AcDbLine
 10
21.47977986221136
 20
25.13914167739671
 30
0.0
 11
15.94569214860348
 21
25.13914167739671
 31
0.0
  0
LINE
  5
BA8
330
AC6
100
AcDbEntity
  8
Dimension (ANSI)
100
AcDbLine
 10
8.910331029937879
 20
25.13914167739671
 30
0.0
 11
14.33001322906947
 21
25.13914167739671
 31
0.0
  0
SOLID
  5
BA9
330
AC6
100
AcDbEntity
  8
Dimension (ANSI)
100
AcDbTrace
 10
21.47977986221136
 20
25.18835427470725
 30
0.0
 11
21.47977986221136
 21
25.08992908008616
 31
0.0
 12
21.77505544607462
 22
25.13914167739671
 32
0.0
 13
21.77505544607462
 23
25.13914167739671
 33
0.0
  0
SOLID
  5
BAA
330
AC6
100
AcDbEntity
  8
Dimension (ANSI)
100
AcDbTrace
 10
8.910331029937879
 20
25.18835427470725
 30
0.0
 11
8.910331029937879
 21
25.08992908008616
 31
0.0
 12
8.61505544607462
 22
25.13914167739671
 32
0.0
 13
8.61505544607462
 23
25.13914167739671
 33
0.0
  0
MTEXT
  5
BAB
330
AC6
100
AcDbEntity
  8
Dimension (ANSI)
100
AcDbMText
 10
14.42450141804585
 20
25.32663664790954
 30
0.0
 40
0.3600000143051147
 41
0.0
 71
     1
 72
     1
  1
\A1;13.160
  7
Note Text (ANSI)
 73
     1
 44
1.0
1001
ACAD
1000
MTEXTBEGIN
1070
    73
1070
     1
1070
    44
1040
1.0
1070
    74
1070
     0
1000
MTEXTEND
  0
POINT
  5
BAC
330
AC6
100
AcDbEntity
  8
Defpoints
 62
     0
100
AcDbPoint
 10
21.77505544607462
 20
23.4245473030179
 30
0.0
  0
POINT
  5
BAD
330
AC6
100
AcDbEntity
  8
Defpoints
 62
     0
100
AcDbPoint
 10
8.61505544607462
 20
23.4245473030179
 30
0.0
  0
POINT
  5
BAE
330
AC6
100
AcDbEntity
  8
Defpoints
 62
     0
100
AcDbPoint
 10
8.61505544607462
 20
25.13914167739671
 30
0.0
  0
ENDBLK
  5
AC8
330
AC6
100
AcDbEntity
  8
0
100
AcDbBlockEnd
  0
ENDSEC
  0
SECTION
  2
ENTITIES
  0
MTEXT
  5
74
330
6C
100
AcDbEntity
  8
Symbol (ANSI)
100
AcDbMText
 10
29.03107656716782
 20
5.203714240579937
 30
0.0
 40
0.4252500135715552
 41
15.69892683742553
 71
     1
 72
     1
  1
{\fRomanS|b0|i0|c0|p2;PART#: NP1616C\P(DATA SUBJECT TO CHANGE WITHOUT NOTICE)\PTHIS DRAWING AND COMPONENTS OF ARE\PPROPERTY OF HUBBELL INC. WIEGMANN\P }
  7
Note Text (ANSI)
 73
     2
 44
1.093904256820678
1001
ACAD
1000
MTEXTBEGIN
1070
    73
1070
     2
1070
    44
1040
1.093904256820678
1070
    74
1070
     0
1000
MTEXTEND
  0
TEXT
  5
77
330
6C
100
AcDbEntity
  8
0
100
AcDbText
 10
43.59404864371006
 20
2.768145954545238
 30
0.0
 40
0.2956609422453037
  1
HUBBELL
  7
SANSSERIF
100
AcDbText
  0
POLYLINE
  5
79
330
6C
100
AcDbEntity
  8
0
100
AcDb2dPolyline
 66
     1
 10
0.0
 20
0.0
 30
0.0
  0
VERTEX
  5
7A
330
79
100
AcDbEntity
  8
0
100
AcDbVertex
100
AcDb2dVertex
 10
43.74722853579301
 20
2.622072896972273
 30
0.0
 42
0.0538548888021971
  0
VERTEX
  5
7B
330
79
100
AcDbEntity
  8
0
100
AcDbVertex
100
AcDb2dVertex
 10
43.85370081399435
 20
2.538680980391013
 30
0.0
 42
0.0762621633615686
 70
     2
 50
328.0963691854962
  0
VERTEX
  5
7C
330
79
100
AcDbEntity
  8
0
100
AcDbVertex
100
AcDb2dVertex
 10
44.11391315460761
 20
2.427253195402356
 30
0.0
 42
0.0631748622128167
 50
328.0963691854962
  0
VERTEX
  5
7D
330
79
100
AcDbEntity
  8
0
100
AcDbVertex
100
AcDb2dVertex
 10
44.4522879002942
 20
2.384328323655597
 30
0.0
 42
0.0631748622128144
  0
VERTEX
  5
7E
330
79
100
AcDbEntity
  8
0
100
AcDbVertex
100
AcDb2dVertex
 10
44.79066264598081
 20
2.427253195402356
 30
0.0
 42
0.0762621633615716
  0
VERTEX
  5
7F
330
79
100
AcDbEntity
  8
0
100
AcDbVertex
100
AcDb2dVertex
 10
45.05087498659404
 20
2.538680980391013
 30
0.0
 42
0.0538548888021992
 70
     2
 50
31.90363081450366
  0
VERTEX
  5
80
330
79
100
AcDbEntity
  8
0
100
AcDbVertex
100
AcDb2dVertex
 10
45.15734726479542
 20
2.622072896972273
 30
0.0
 42
0.1478388992712208
 50
31.90363081450366
  0
SEQEND
  5
81
330
79
100
AcDbEntity
  8
0
  0
POLYLINE
  5
82
330
6C
100
AcDbEntity
  8
0
100
AcDb2dPolyline
 66
     1
 10
0.0
 20
0.0
 30
0.0
  0
VERTEX
  5
83
330
82
100
AcDbEntity
  8
0
100
AcDbVertex
100
AcDb2dVertex
 10
43.94243894816798
 20
2.654289773108013
 30
0.0
 42
0.0708473647366734
  0
VERTEX
  5
84
330
82
100
AcDbEntity
  8
0
100
AcDbVertex
100
AcDb2dVertex
 10
44.03896042967612
 20
2.538680980391013
 30
0.0
 42
0.0943474025114784
 70
     2
 50
317.9633854595613
  0
VERTEX
  5
85
330
82
100
AcDbEntity
  8
0
100
AcDbVertex
100
AcDb2dVertex
 10
44.225879612372
 20
2.425223908803509
 30
0.0
 42
0.0895889244631754
 50
317.9633854595613
  0
VERTEX
  5
86
330
82
100
AcDbEntity
  8
0
100
AcDbVertex
100
AcDb2dVertex
 10
44.4522879002942
 20
2.384328323655597
 30
0.0
 42
0.0895889244631755
  0
VERTEX
  5
87
330
82
100
AcDbEntity
  8
0
100
AcDbVertex
100
AcDb2dVertex
 10
44.6786961882164
 20
2.425223908803509
 30
0.0
 42
0.0943474025114826
  0
VERTEX
  5
88
330
82
100
AcDbEntity
  8
0
100
AcDbVertex
100
AcDb2dVertex
 10
44.86561537091232
 20
2.538680980391013
 30
0.0
 42
0.0708473647366705
 70
     2
 50
42.03661454043863
  0
VERTEX
  5
89
330
82
100
AcDbEntity
  8
0
100
AcDbVertex
100
AcDb2dVertex
 10
44.9621368524204
 20
2.654289773108013
 30
0.0
 42
0.1080871028423927
 50
42.03661454043863
  0
SEQEND
  5
8A
330
82
100
AcDbEntity
  8
0
  0
POLYLINE
  5
8B
330
6C
100
AcDbEntity
  8
0
100
AcDb2dPolyline
 66
     1
 10
0.0
 20
0.0
 30
0.0
  0
VERTEX
  5
8C
330
8B
100
AcDbEntity
  8
0
100
AcDbVertex
100
AcDb2dVertex
 10
45.15256898129004
 20
3.205173079752247
 30
0.0
 42
0.0512131062417871
  0
VERTEX
  5
8D
330
8B
100
AcDbEntity
  8
0
100
AcDbVertex
100
AcDb2dVertex
 10
45.05087498659404
 20
3.283961534948931
 30
0.0
 42
0.0762621633615678
 70
     2
 50
148.0963691854963
  0
VERTEX
  5
8E
330
8B
100
AcDbEntity
  8
0
100
AcDbVertex
100
AcDb2dVertex
 10
44.79066264598081
 20
3.395389319937587
 30
0.0
 42
0.0631748622128132
 50
148.0963691854963
  0
VERTEX
  5
8F
330
8B
100
AcDbEntity
  8
0
100
AcDbVertex
100
AcDb2dVertex
 10
44.4522879002942
 20
3.438314191684346
 30
0.0
 42
0.0631748622128155
  0
SEQEND
  5
90
330
8B
100
AcDbEntity
  8
0
  0
POLYLINE
  5
91
330
6C
100
AcDbEntity
  8
0
100
AcDb2dPolyline
 66
     1
 10
0.0
 20
0.0
 30
0.0
  0
VERTEX
  5
92
330
91
100
AcDbEntity
  8
0
100
AcDbVertex
100
AcDb2dVertex
 10
44.95976335839348
 20
3.172152051606998
 30
0.0
 42
0.0687403046083495
  0
VERTEX
  5
93
330
91
100
AcDbEntity
  8
0
100
AcDbVertex
100
AcDb2dVertex
 10
44.86561537091232
 20
3.283961534948931
 30
0.0
 42
0.0943474025114827
 70
     2
 50
137.9633854595613
  0
VERTEX
  5
94
330
91
100
AcDbEntity
  8
0
100
AcDbVertex
100
AcDb2dVertex
 10
44.6786961882164
 20
3.397418606536426
 30
0.0
 42
0.0895889244631755
 50
137.9633854595613
  0
VERTEX
  5
95
330
91
100
AcDbEntity
  8
0
100
AcDbVertex
100
AcDb2dVertex
 10
44.4522879002942
 20
3.438314191684346
 30
0.0
 42
0.0895889244631779
  0
SEQEND
  5
96
330
91
100
AcDbEntity
  8
0
  0
LINE
  5
97
330
6C
100
AcDbEntity
  8
0
100
AcDbLine
 10
45.57561974773082
 20
3.585320366131903
 30
0.0
 11
43.32895605285764
 21
3.585320366131903
 31
0.0
  0
LINE
  5
98
330
6C
100
AcDbEntity
  8
0
100
AcDbLine
 10
43.32895605285764
 20
2.237322149208024
 30
0.0
 11
45.57561974773082
 21
2.237322149208024
 31
0.0
  0
POLYLINE
  5
99
330
6C
100
AcDbEntity
  8
0
100
AcDb2dPolyline
 66
     1
 10
0.0
 20
0.0
 30
0.0
 70
     1
  0
VERTEX
  5
9A
330
99
100
AcDbEntity
  8
0
100
AcDbVertex
100
AcDb2dVertex
 10
43.32895605285764
 20
2.911321257669968
 30
0.0
 42
0.1828233251715505
  0
VERTEX
  5
9B
330
99
100
AcDbEntity
  8
0
100
AcDbVertex
100
AcDb2dVertex
 10
43.39552926796963
 20
2.735337018799775
 30
0.0
 42
0.1025674015815553
  0
VERTEX
  5
9C
330
99
100
AcDbEntity
  8
0
100
AcDbVertex
100
AcDb2dVertex
 10
43.65797233344899
 20
2.538680980391053
 30
0.0
 42
0.0617587255956112
 70
     2
 50
334.8671392208401
  0
VERTEX
  5
9D
330
99
100
AcDbEntity
  8
0
100
AcDbVertex
100
AcDb2dVertex
 10
43.99676306537544
 20
2.428177367757176
 30
0.0
 42
0.0480192641995976
 50
334.8671392208401
  0
VERTEX
  5
9E
330
99
100
AcDbEntity
  8
0
100
AcDbVertex
100
AcDb2dVertex
 10
44.4522879002942
 20
2.384328323655597
 30
0.0
 42
0.0480192641995965
  0
VERTEX
  5
9F
330
99
100
AcDbEntity
  8
0
100
AcDbVertex
100
AcDb2dVertex
 10
44.90781273521299
 20
2.428177367757176
 30
0.0
 42
0.0617587255956115
  0
VERTEX
  5
A0
330
99
100
AcDbEntity
  8
0
100
AcDbVertex
100
AcDb2dVertex
 10
45.24660346713945
 20
2.538680980391053
 30
0.0
 42
0.1025674015815654
 70
     2
 50
25.13286077915987
  0
VERTEX
  5
A1
330
99
100
AcDbEntity
  8
0
100
AcDbVertex
100
AcDb2dVertex
 10
45.50904653261873
 20
2.735337018799775
 30
0.0
 42
0.18282332517157
 50
25.13286077915987
  0
VERTEX
  5
A2
330
99
100
AcDbEntity
  8
0
100
AcDbVertex
100
AcDb2dVertex
 10
45.57561974773082
 20
2.911321257669968
 30
0.0
 42
0.1828233251715568
  0
VERTEX
  5
A3
330
99
100
AcDbEntity
  8
0
100
AcDbVertex
100
AcDb2dVertex
 10
45.50904653261873
 20
3.087305496540176
 30
0.0
 42
0.102567401581563
  0
VERTEX
  5
A4
330
99
100
AcDbEntity
  8
0
100
AcDbVertex
100
AcDb2dVertex
 10
45.24660346713945
 20
3.283961534948875
 30
0.0
 42
0.0617587255956141
 70
     2
 50
154.86713922084
  0
VERTEX
  5
A5
330
99
100
AcDbEntity
  8
0
100
AcDbVertex
100
AcDb2dVertex
 10
44.90781273521299
 20
3.394465147582767
 30
0.0
 42
0.0480192641995983
 50
154.86713922084
  0
VERTEX
  5
A6
330
99
100
AcDbEntity
  8
0
100
AcDbVertex
100
AcDb2dVertex
 10
44.4522879002942
 20
3.438314191684346
 30
0.0
 42
0.0480192641995976
  0
VERTEX
  5
A7
330
99
100
AcDbEntity
  8
0
100
AcDbVertex
100
AcDb2dVertex
 10
43.99676306537544
 20
3.394465147582767
 30
0.0
 42
0.0617587255956112
  0
VERTEX
  5
A8
330
99
100
AcDbEntity
  8
0
100
AcDbVertex
100
AcDb2dVertex
 10
43.65797233344899
 20
3.283961534948875
 30
0.0
 42
0.1025674015815593
 70
     2
 50
205.1328607791599
  0
VERTEX
  5
A9
330
99
100
AcDbEntity
  8
0
100
AcDbVertex
100
AcDb2dVertex
 10
43.39552926796963
 20
3.087305496540176
 30
0.0
 42
0.1828233251715536
 50
205.1328607791599
  0
SEQEND
  5
AA
330
99
100
AcDbEntity
  8
0
  0
ARC
  5
AB
330
6C
100
AcDbEntity
  8
0
100
AcDbCircle
 10
43.32895605285764
 20
3.360653996644589
 30
0.0
 40
0.2246663694873128
100
AcDbArc
 50
90.0
 51
180.0
  0
LINE
  5
AC
330
6C
100
AcDbEntity
  8
0
100
AcDbLine
 10
43.10428968337033
 20
3.360653996644589
 30
0.0
 11
43.10428968337033
 21
2.461988518695338
 31
0.0
  0
ARC
  5
AD
330
6C
100
AcDbEntity
  8
0
100
AcDbCircle
 10
43.32895605285764
 20
2.461988518695338
 30
0.0
 40
0.2246663694873128
100
AcDbArc
 50
180.0
 51
270.0
  0
POLYLINE
  5
AE
330
6C
100
AcDbEntity
  8
0
100
AcDb2dPolyline
 66
     1
 10
0.0
 20
0.0
 30
0.0
  0
VERTEX
  5
AF
330
AE
100
AcDbEntity
  8
0
100
AcDbVertex
100
AcDb2dVertex
 10
44.2184940124051
 20
2.679870989528193
 30
0.0
 42
0.0570538596573184
  0
VERTEX
  5
B0
330
AE
100
AcDbEntity
  8
0
100
AcDbVertex
100
AcDb2dVertex
 10
44.26895261083818
 20
2.538680980390981
 30
0.0
 42
0.1038195938885091
 70
     2
 50
296.1967246921072
  0
VERTEX
  5
B1
330
AE
100
AcDbEntity
  8
0
100
AcDbVertex
100
AcDb2dVertex
 10
44.36477167256025
 20
2.416263396111769
 30
0.0
 42
0.1767522344444316
 50
296.1967246921072
  0
VERTEX
  5
B2
330
AE
100
AcDbEntity
  8
0
100
AcDbVertex
100
AcDb2dVertex
 10
44.4522879002942
 20
2.384328323655597
 30
0.0
 42
0.1767522344444399
  0
VERTEX
  5
B3
330
AE
100
AcDbEntity
  8
0
100
AcDbVertex
100
AcDb2dVertex
 10
44.5398041280282
 20
2.416263396111769
 30
0.0
 42
0.1038195938885123
  0
VERTEX
  5
B4
330
AE
100
AcDbEntity
  8
0
100
AcDbVertex
100
AcDb2dVertex
 10
44.63562318975021
 20
2.538680980390981
 30
0.0
 42
0.0570538596573163
 70
     2
 50
63.8032753078928
  0
VERTEX
  5
B5
330
AE
100
AcDbEntity
  8
0
100
AcDbVertex
100
AcDb2dVertex
 10
44.68608178818327
 20
2.679870989528193
 30
0.0
 42
0.0503013836282066
 50
63.8032753078928
  0
SEQEND
  5
B6
330
AE
100
AcDbEntity
  8
0
  0
POLYLINE
  5
B7
330
6C
100
AcDbEntity
  8
0
100
AcDb2dPolyline
 66
     1
 10
0.0
 20
0.0
 30
0.0
  0
VERTEX
  5
B8
330
B7
100
AcDbEntity
  8
0
100
AcDbVertex
100
AcDb2dVertex
 10
44.4522879002942
 20
3.438314191684346
 30
0.0
 42
0.1767522344444361
  0
VERTEX
  5
B9
330
B7
100
AcDbEntity
  8
0
100
AcDbVertex
100
AcDb2dVertex
 10
44.36477167256025
 20
3.40637911922815
 30
0.0
 42
0.1038195938884991
  0
VERTEX
  5
BA
330
B7
100
AcDbEntity
  8
0
100
AcDbVertex
100
AcDb2dVertex
 10
44.26895261083818
 20
3.283961534948947
 30
0.0
 42
0.0567223889277798
 70
     2
 50
243.8032753078928
  0
VERTEX
  5
BB
330
B7
100
AcDbEntity
  8
0
100
AcDbVertex
100
AcDb2dVertex
 10
44.21869253097782
 20
3.143619714095239
 30
0.0
 42
0.0503013836282199
 50
243.8032753078928
  0
SEQEND
  5
BC
330
B7
100
AcDbEntity
  8
0
  0
POLYLINE
  5
BD
330
6C
100
AcDbEntity
  8
0
100
AcDb2dPolyline
 66
     1
 10
0.0
 20
0.0
 30
0.0
  0
VERTEX
  5
BE
330
BD
100
AcDbEntity
  8
0
100
AcDbVertex
100
AcDb2dVertex
 10
44.4522879002942
 20
3.438314191684346
 30
0.0
 42
0.0895889244631779
  0
VERTEX
  5
BF
330
BD
100
AcDbEntity
  8
0
100
AcDbVertex
100
AcDb2dVertex
 10
44.225879612372
 20
3.397418606536426
 30
0.0
 42
0.094347402511486
  0
VERTEX
  5
C0
330
BD
100
AcDbEntity
  8
0
100
AcDbVertex
100
AcDb2dVertex
 10
44.03896042967612
 20
3.283961534948931
 30
0.0
 42
0.0687403046083514
 70
     2
 50
222.0366145404387
  0
VERTEX
  5
C1
330
BD
100
AcDbEntity
  8
0
100
AcDbVertex
100
AcDb2dVertex
 10
43.94481244219494
 20
3.172152051606998
 30
0.0
 42
0.1080871028423927
 50
222.0366145404387
  0
SEQEND
  5
C2
330
BD
100
AcDbEntity
  8
0
  0
POLYLINE
  5
C3
330
6C
100
AcDbEntity
  8
0
100
AcDb2dPolyline
 66
     1
 10
0.0
 20
0.0
 30
0.0
  0
VERTEX
  5
C4
330
C3
100
AcDbEntity
  8
0
100
AcDbVertex
100
AcDb2dVertex
 10
44.4522879002942
 20
3.438314191684346
 30
0.0
 42
0.0631748622128155
  0
VERTEX
  5
C5
330
C3
100
AcDbEntity
  8
0
100
AcDbVertex
100
AcDb2dVertex
 10
44.11391315460761
 20
3.395389319937587
 30
0.0
 42
0.0762621633615699
  0
VERTEX
  5
C6
330
C3
100
AcDbEntity
  8
0
100
AcDbVertex
100
AcDb2dVertex
 10
43.85370081399435
 20
3.283961534948931
 30
0.0
 42
0.0512131062417906
 70
     2
 50
211.9036308145036
  0
VERTEX
  5
C7
330
C3
100
AcDbEntity
  8
0
100
AcDbVertex
100
AcDb2dVertex
 10
43.75200681929837
 20
3.205173079752247
 30
0.0
 42
0.1478388992712295
 50
211.9036308145036
  0
SEQEND
  5
C8
330
C3
100
AcDbEntity
  8
0
  0
POLYLINE
  5
C9
330
6C
100
AcDbEntity
  8
0
100
AcDb2dPolyline
 66
     1
 10
0.0
 20
0.0
 30
0.0
  0
VERTEX
  5
CA
330
C9
100
AcDbEntity
  8
0
100
AcDbVertex
100
AcDb2dVertex
 10
44.68588326961063
 20
3.143619714095239
 30
0.0
 42
0.0567223889277601
  0
VERTEX
  5
CB
330
C9
100
AcDbEntity
  8
0
100
AcDbVertex
100
AcDb2dVertex
 10
44.63562318975021
 20
3.283961534948947
 30
0.0
 42
0.1038195938884991
 70
     2
 50
116.1967246921072
  0
VERTEX
  5
CC
330
C9
100
AcDbEntity
  8
0
100
AcDbVertex
100
AcDb2dVertex
 10
44.5398041280282
 20
3.40637911922815
 30
0.0
 42
0.1767522344444361
 50
116.1967246921072
  0
VERTEX
  5
CD
330
C9
100
AcDbEntity
  8
0
100
AcDbVertex
100
AcDb2dVertex
 10
44.4522879002942
 20
3.438314191684346
 30
0.0
 42
0.1767522344444361
  0
SEQEND
  5
CE
330
C9
100
AcDbEntity
  8
0
  0
ARC
  5
CF
330
6C
100
AcDbEntity
  8
0
100
AcDbCircle
 10
45.57561974773082
 20
3.360653996644589
 30
0.0
 40
0.2246663694873128
100
AcDbArc
 50
0.0
 51
90.0
  0
CIRCLE
  5
D0
330
6C
100
AcDbEntity
  8
0
100
AcDbCircle
 10
46.01219245694437
 20
3.469541307979344
 30
0.0
 40
0.116920499470532
  0
TEXT
  5
D1
330
6C
100
AcDbEntity
  8
0
100
AcDbText
 10
45.93679426838895
 20
3.391384269262123
 30
0.0
 40
0.1372397586740553
  1
R
  7
SANSSERIF
100
AcDbText
  0
LINE
  5
D2
330
6C
100
AcDbEntity
  8
0
100
AcDbLine
 10
45.80028611721806
 20
2.461988518695338
 30
0.0
 11
45.80028611721806
 21
3.360653996644589
 31
0.0
  0
ARC
  5
D3
330
6C
100
AcDbEntity
  8
0
100
AcDbCircle
 10
45.57561974773082
 20
2.461988518695338
 30
0.0
 40
0.2246663694873128
100
AcDbArc
 50
270.0
 51
0.0
  0
CIRCLE
  5
183
330
6C
100
AcDbEntity
  8
Visible (ANSI)
100
AcDbCircle
 10
21.77505544607462
 20
23.4245473030179
 30
0.0
 40
0.25
  0
CIRCLE
  5
184
330
6C
100
AcDbEntity
  8
Visible (ANSI)
100
AcDbCircle
 10
8.61505544607462
 20
23.4245473030179
 30
0.0
 40
0.25
  0
CIRCLE
  5
185
330
6C
100
AcDbEntity
  8
Visible (ANSI)
100
AcDbCircle
 10
8.61505544607462
 20
10.26454730301789
 30
0.0
 40
0.25
  0
CIRCLE
  5
186
330
6C
100
AcDbEntity
  8
Visible (ANSI)
100
AcDbCircle
 10
21.77505544607462
 20
10.26454730301789
 30
0.0
 40
0.25
  0
CIRCLE
  5
187
330
6C
100
AcDbEntity
  8
Visible (ANSI)
100
AcDbCircle
 10
21.77505544607462
 20
22.6745473030179
 30
0.0
 40
0.15625
  0
CIRCLE
  5
188
330
6C
100
AcDbEntity
  8
Visible (ANSI)
100
AcDbCircle
 10
8.61505544607462
 20
22.67454730301789
 30
0.0
 40
0.15625
  0
CIRCLE
  5
189
330
6C
100
AcDbEntity
  8
Visible (ANSI)
100
AcDbCircle
 10
8.61505544607462
 20
11.0145473030179
 30
0.0
 40
0.15625
  0
CIRCLE
  5
18A
330
6C
100
AcDbEntity
  8
Visible (ANSI)
100
AcDbCircle
 10
21.77505544607462
 20
11.0145473030179
 30
0.0
 40
0.15625
  0
LINE
  5
18B
330
6C
100
AcDbEntity
  8
Visible (ANSI)
100
AcDbLine
 10
8.095055446074617
 20
23.44454730301789
 30
0.0
 11
8.595055446074617
 21
23.9445473030179
 31
0.0
  0
LINE
  5
18C
330
6C
100
AcDbEntity
  8
Visible (ANSI)
100
AcDbLine
 10
8.095055446074621
 20
10.2445473030179
 30
0.0
 11
8.095055446074617
 21
23.44454730301789
 31
0.0
  0
LINE
  5
18D
330
6C
100
AcDbEntity
  8
Visible (ANSI)
100
AcDbLine
 10
21.79505544607462
 20
9.744547303017899
 30
0.0
 11
8.595055446074622
 21
9.744547303017899
 31
0.0
  0
LINE
  5
18E
330
6C
100
AcDbEntity
  8
Visible (ANSI)
100
AcDbLine
 10
22.29505544607462
 20
23.4445473030179
 30
0.0
 11
22.29505544607462
 21
10.2445473030179
 31
0.0
  0
LINE
  5
18F
330
6C
100
AcDbEntity
  8
Visible (ANSI)
100
AcDbLine
 10
8.595055446074617
 20
23.9445473030179
 30
0.0
 11
21.79505544607462
 21
23.9445473030179
 31
0.0
  0
LINE
  5
190
330
6C
100
AcDbEntity
  8
Visible (ANSI)
100
AcDbLine
 10
8.595055446074622
 20
9.744547303017899
 30
0.0
 11
8.095055446074621
 21
10.2445473030179
 31
0.0
  0
LINE
  5
191
330
6C
100
AcDbEntity
  8
Visible (ANSI)
100
AcDbLine
 10
22.29505544607462
 20
10.2445473030179
 30
0.0
 11
21.79505544607462
 21
9.744547303017899
 31
0.0
  0
LINE
  5
192
330
6C
100
AcDbEntity
  8
Visible (ANSI)
100
AcDbLine
 10
21.79505544607462
 20
23.9445473030179
 30
0.0
 11
22.29505544607462
 21
23.4445473030179
 31
0.0
  0
LINE
  5
193
330
6C
100
AcDbEntity
  8
Visible (ANSI)
100
AcDbLine
 10
32.34416859711532
 20
23.4445473030179
 30
0.0
 11
32.34416859711517
 21
23.9445473030179
 31
0.0
  0
LINE
  5
194
330
6C
100
AcDbEntity
  8
Visible (ANSI)
100
AcDbLine
 10
32.25041859711531
 20
23.4445473030179
 30
0.0
 11
32.34416859711532
 21
23.4445473030179
 31
0.0
  0
LINE
  5
195
330
6C
100
AcDbEntity
  8
Visible (ANSI)
100
AcDbLine
 10
32.25041859711517
 20
23.9445473030179
 30
0.0
 11
32.25041859711531
 21
23.4445473030179
 31
0.0
  0
LINE
  5
196
330
6C
100
AcDbEntity
  8
Visible (ANSI)
100
AcDbLine
 10
32.34416859711517
 20
23.9445473030179
 30
0.0
 11
32.25041859711517
 21
23.9445473030179
 31
0.0
  0
LINE
  5
197
330
6C
100
AcDbEntity
  8
Visible (ANSI)
100
AcDbLine
 10
32.34416859711532
 20
10.2445473030179
 30
0.0
 11
32.34416859711532
 21
23.4445473030179
 31
0.0
  0
LINE
  5
198
330
6C
100
AcDbEntity
  8
Visible (ANSI)
100
AcDbLine
 10
32.25041859711531
 20
23.4445473030179
 30
0.0
 11
32.25041859711531
 21
10.2445473030179
 31
0.0
  0
LINE
  5
199
330
6C
100
AcDbEntity
  8
Visible (ANSI)
100
AcDbLine
 10
32.34416859711517
 20
9.744547303017899
 30
0.0
 11
32.34416859711532
 21
10.2445473030179
 31
0.0
  0
LINE
  5
19A
330
6C
100
AcDbEntity
  8
Visible (ANSI)
100
AcDbLine
 10
32.25041859711517
 20
9.744547303017899
 30
0.0
 11
32.34416859711517
 21
9.744547303017899
 31
0.0
  0
LINE
  5
19B
330
6C
100
AcDbEntity
  8
Visible (ANSI)
100
AcDbLine
 10
32.25041859711531
 20
10.2445473030179
 30
0.0
 11
32.25041859711517
 21
9.744547303017899
 31
0.0
  0
LINE
  5
19C
330
6C
100
AcDbEntity
  8
Visible (ANSI)
100
AcDbLine
 10
32.34416859711532
 20
10.2445473030179
 30
0.0
 11
32.25041859711531
 21
10.2445473030179
 31
0.0
  0
LINE
  5
19D
330
6C
100
AcDbEntity
  8
Hidden (ANSI)
 48
0.0594217702746391
100
AcDbLine
 10
32.25041859711517
 20
23.6745473030179
 30
0.0
 11
32.34416859711516
 21
23.6745473030179
 31
0.0
  0
LINE
  5
19E
330
6C
100
AcDbEntity
  8
Hidden (ANSI)
 48
0.0594217702746391
100
AcDbLine
 10
32.25041859711517
 20
23.1745473030179
 30
0.0
 11
32.34416859711516
 21
23.1745473030179
 31
0.0
  0
LINE
  5
19F
330
6C
100
AcDbEntity
  8
Hidden (ANSI)
 48
0.0594217702746391
100
AcDbLine
 10
32.25041859711517
 20
10.5145473030179
 30
0.0
 11
32.34416859711516
 21
10.5145473030179
 31
0.0
  0
LINE
  5
1A0
330
6C
100
AcDbEntity
  8
Hidden (ANSI)
 48
0.0594217702746391
100
AcDbLine
 10
32.25041859711517
 20
10.0145473030179
 30
0.0
 11
32.34416859711516
 21
10.0145473030179
 31
0.0
  0
LINE
  5
1A1
330
6C
100
AcDbEntity
  8
Hidden (ANSI)
 48
0.0594217702746391
100
AcDbLine
 10
32.25041859711517
 20
22.8307973030179
 30
0.0
 11
32.34416859711516
 21
22.8307973030179
 31
0.0
  0
LINE
  5
1A2
330
6C
100
AcDbEntity
  8
Hidden (ANSI)
 48
0.0594217702746391
100
AcDbLine
 10
32.25041859711517
 20
22.5182973030179
 30
0.0
 11
32.34416859711516
 21
22.5182973030179
 31
0.0
  0
LINE
  5
1A3
330
6C
100
AcDbEntity
  8
Hidden (ANSI)
 48
0.0594217702746391
100
AcDbLine
 10
32.25041859711517
 20
11.1707973030179
 30
0.0
 11
32.34416859711516
 21
11.1707973030179
 31
0.0
  0
LINE
  5
1A4
330
6C
100
AcDbEntity
  8
Hidden (ANSI)
 48
0.0594217702746391
100
AcDbLine
 10
32.25041859711517
 20
10.8582973030179
 30
0.0
 11
32.34416859711516
 21
10.8582973030179
 31
0.0
  0
ELLIPSE
  5
1A5
330
6C
100
AcDbEntity
  8
Visible (ANSI)
100
AcDbEllipse
 10
48.50727384388143
 20
25.23140093914675
 30
0.0
 11
-0.0935685396720749
 21
0.1624843942772207
 31
0.0
210
0.0
220
0.0
230
0.9999999999999998
 40
0.5780931159158121
 41
0.2678448778125306
 42
2.873747775777266
  0
ELLIPSE
  5
1A6
330
6C
100
AcDbEntity
  8
Visible (ANSI)
100
AcDbEllipse
 10
48.45755539832927
 20
25.20276999052072
 30
0.0
 11
-0.0935685396720749
 21
0.1624843942772208
 31
0.0
210
0.0
220
0.0
230
0.9999999999999998
 40
0.578093115915812
 41
0.0
 42
6.283185307179586
  0
ELLIPSE
  5
1A7
330
6C
100
AcDbEntity
  8
Visible (ANSI)
100
AcDbEllipse
 10
41.5281299135692
 20
29.25042263427647
 30
0.0
 11
-0.0935685396720747
 21
0.1624843942772203
 31
0.0
210
0.0
220
0.0
230
0.9999999999999998
 40
0.5780931159158122
 41
0.267844877812554
 42
2.873747775777266
  0
ELLIPSE
  5
1A8
330
6C
100
AcDbEntity
  8
Visible (ANSI)
100
AcDbEllipse
 10
41.47841146801702
 20
29.22179168565044
 30
0.0
 11
-0.0935685396720749
 21
0.1624843942772208
 31
0.0
210
0.0
220
0.0
230
0.9999999999999998
 40
0.578093115915812
 41
0.0
 42
6.283185307179586
  0
ELLIPSE
  5
1A9
330
6C
100
AcDbEntity
  8
Visible (ANSI)
100
AcDbEllipse
 10
41.52812991356918
 20
21.18123251208057
 30
0.0
 11
-0.0935685396720749
 21
0.1624843942772207
 31
0.0
210
0.0
220
0.0
230
0.9999999999999998
 40
0.5780931159158122
 41
0.2678448778125543
 42
2.873747775777266
  0
ELLIPSE
  5
1AA
330
6C
100
AcDbEntity
  8
Visible (ANSI)
100
AcDbEllipse
 10
41.47841146801702
 20
21.15260156345454
 30
0.0
 11
-0.0935685396720749
 21
0.1624843942772208
 31
0.0
210
0.0
220
0.0
230
0.9999999999999998
 40
0.578093115915812
 41
0.0
 42
6.283185307179586
  0
ELLIPSE
  5
1AB
330
6C
100
AcDbEntity
  8
Visible (ANSI)
100
AcDbEllipse
 10
48.50727384388143
 20
17.16221081695084
 30
0.0
 11
-0.0935685396720752
 21
0.1624843942772213
 31
0.0
210
0.0
220
0.0
230
1.0
 40
0.578093115915812
 41
0.267844877812542
 42
2.873747775777259
  0
ELLIPSE
  5
1AC
330
6C
100
AcDbEntity
  8
Visible (ANSI)
100
AcDbEllipse
 10
48.45755539832926
 20
17.13357986832482
 30
0.0
 11
-0.0935685396720749
 21
0.1624843942772208
 31
0.0
210
0.0
220
0.0
230
0.9999999999999998
 40
0.578093115915812
 41
0.0
 42
6.283185307179586
  0
ELLIPSE
  5
1AD
330
6C
100
AcDbEntity
  8
Visible (ANSI)
100
AcDbEllipse
 10
48.50727384388143
 20
24.77153068142282
 30
0.0
 11
0.0584803372950534
 21
-0.1015527464232604
 31
0.0
210
0.0
220
0.0
230
1.0
 40
0.5780931159158122
 41
3.578838513251547
 42
5.845939447516956
  0
ELLIPSE
  5
1AE
330
6C
100
AcDbEntity
  8
Visible (ANSI)
100
AcDbEllipse
 10
48.45755539832927
 20
24.74289973279679
 30
0.0
 11
-0.0584803372950468
 21
0.101552746423263
 31
0.0
210
0.0
220
0.0
230
1.0
 40
0.5780931159158121
 41
0.0
 42
6.283185307179586
  0
ELLIPSE
  5
1AF
330
6C
100
AcDbEntity
  8
Visible (ANSI)
100
AcDbEllipse
 10
41.52812991356919
 20
28.79055237655254
 30
0.0
 11
0.058480337295053
 21
-0.1015527464232596
 31
0.0
210
0.0
220
0.0
230
1.0
 40
0.5780931159158122
 41
3.578838513251547
 42
5.845939447516957
  0
ELLIPSE
  5
1B0
330
6C
100
AcDbEntity
  8
Visible (ANSI)
100
AcDbEllipse
 10
41.47841146801702
 20
28.76192142792651
 30
0.0
 11
-0.0584803372950468
 21
0.101552746423263
 31
0.0
210
0.0
220
0.0
230
1.0
 40
0.5780931159158121
 41
0.0
 42
6.283185307179586
  0
ELLIPSE
  5
1B1
330
6C
100
AcDbEntity
  8
Visible (ANSI)
100
AcDbEllipse
 10
41.52812991356919
 20
21.6411027698045
 30
0.0
 11
0.0584803372950529
 21
-0.1015527464232595
 31
0.0
210
0.0
220
0.0
230
1.0
 40
0.578093115915812
 41
3.578838513251547
 42
5.845939447516956
  0
ELLIPSE
  5
1B2
330
6C
100
AcDbEntity
  8
Visible (ANSI)
100
AcDbEllipse
 10
41.47841146801702
 20
21.61247182117847
 30
0.0
 11
-0.0584803372950468
 21
0.101552746423263
 31
0.0
210
0.0
220
0.0
230
1.0
 40
0.5780931159158121
 41
0.0
 42
6.283185307179586
  0
ELLIPSE
  5
1B3
330
6C
100
AcDbEntity
  8
Visible (ANSI)
100
AcDbEllipse
 10
48.50727384388143
 20
17.62208107467477
 30
0.0
 11
0.0584803372950539
 21
-0.1015527464232611
 31
0.0
210
0.0
220
0.0
230
1.0
 40
0.5780931159158122
 41
3.578838513251566
 42
5.845939447516948
  0
ELLIPSE
  5
1B4
330
6C
100
AcDbEntity
  8
Visible (ANSI)
100
AcDbEllipse
 10
48.45755539832926
 20
17.59345012604875
 30
0.0
 11
-0.0584803372950468
 21
0.101552746423263
 31
0.0
210
0.0
220
0.0
230
1.0
 40
0.5780931159158121
 41
0.0
 42
6.283185307179586
  0
LINE
  5
1B5
330
6C
100
AcDbEntity
  8
Visible (ANSI)
100
AcDbLine
 10
41.20263982335422
 20
29.39286122090206
 30
0.0
 11
41.46780486629922
 21
29.54674300004592
 31
0.0
  0
LINE
  5
1B6
330
6C
100
AcDbEntity
  8
Visible (ANSI)
100
AcDbLine
 10
41.46780486629922
 20
29.54674300004592
 30
0.0
 11
41.51752331185138
 21
29.57537394867194
 31
0.0
  0
LINE
  5
1B7
330
6C
100
AcDbEntity
  8
Visible (ANSI)
100
AcDbLine
 10
41.20263982335422
 20
21.29914468496089
 30
0.0
 11
41.20263982335422
 21
29.39286122090206
 31
0.0
  0
LINE
  5
1B8
330
6C
100
AcDbEntity
  8
Visible (ANSI)
100
AcDbLine
 10
48.51788044559924
 20
25.54413638212846
 30
0.0
 11
41.51752331185138
 21
29.57537394867194
 31
0.0
  0
LINE
  5
1B9
330
6C
100
AcDbEntity
  8
Visible (ANSI)
100
AcDbLine
 10
48.78304548854423
 20
16.99114128169922
 30
0.0
 11
48.78304548854423
 21
25.0848578176404
 31
0.0
  0
LINE
  5
1BA
330
6C
100
AcDbEntity
  8
Visible (ANSI)
100
AcDbLine
 10
48.46816200004706
 20
16.80862855392934
 30
0.0
 11
41.46780486629921
 21
20.83986612047283
 31
0.0
  0
LINE
  5
1BB
330
6C
100
AcDbEntity
  8
Visible (ANSI)
100
AcDbLine
 10
48.73332704299206
 20
25.05622686901438
 30
0.0
 11
48.73332704299205
 21
16.96251033307319
 31
0.0
  0
LINE
  5
1BC
330
6C
100
AcDbEntity
  8
Visible (ANSI)
100
AcDbLine
 10
41.46780486629922
 20
29.54674300004592
 30
0.0
 11
48.46816200004706
 21
25.51550543350243
 31
0.0
  0
LINE
  5
1BD
330
6C
100
AcDbEntity
  8
Visible (ANSI)
100
AcDbLine
 10
48.78304548854423
 20
25.0848578176404
 30
0.0
 11
48.51788044559924
 21
25.54413638212846
 31
0.0
  0
LINE
  5
1BE
330
6C
100
AcDbEntity
  8
Visible (ANSI)
100
AcDbLine
 10
48.73332704299206
 20
25.05622686901438
 30
0.0
 11
48.78304548854423
 21
25.0848578176404
 31
0.0
  0
LINE
  5
1BF
330
6C
100
AcDbEntity
  8
Visible (ANSI)
100
AcDbLine
 10
48.46816200004706
 20
25.51550543350243
 30
0.0
 11
48.73332704299206
 21
25.05622686901438
 31
0.0
  0
LINE
  5
1C0
330
6C
100
AcDbEntity
  8
Visible (ANSI)
100
AcDbLine
 10
48.51788044559924
 20
25.54413638212846
 30
0.0
 11
48.46816200004706
 21
25.51550543350243
 31
0.0
  0
LINE
  5
1C1
330
6C
100
AcDbEntity
  8
Visible (ANSI)
100
AcDbLine
 10
48.51788044559923
 20
16.83725950255537
 30
0.0
 11
48.78304548854423
 21
16.99114128169922
 31
0.0
  0
LINE
  5
1C2
330
6C
100
AcDbEntity
  8
Visible (ANSI)
100
AcDbLine
 10
48.46816200004706
 20
16.80862855392934
 30
0.0
 11
48.51788044559923
 21
16.83725950255537
 31
0.0
  0
LINE
  5
1C3
330
6C
100
AcDbEntity
  8
Visible (ANSI)
100
AcDbLine
 10
48.73332704299205
 20
16.96251033307319
 30
0.0
 11
48.46816200004706
 21
16.80862855392934
 31
0.0
  0
LINE
  5
1C4
330
6C
100
AcDbEntity
  8
Visible (ANSI)
100
AcDbLine
 10
48.78304548854423
 20
16.99114128169922
 30
0.0
 11
48.73332704299205
 21
16.96251033307319
 31
0.0
  0
LINE
  5
1C5
330
6C
100
AcDbEntity
  8
Visible (ANSI)
100
AcDbLine
 10
41.46780486629921
 20
20.83986612047283
 30
0.0
 11
41.20263982335422
 21
21.29914468496089
 31
0.0
  0
DIMENSION
  5
1C6
330
6C
100
AcDbEntity
  8
Dimension (ANSI)
100
AcDbDimension
  2
*D4
 10
5.287968831901399
 20
23.9445473030179
 30
0.0
 11
5.287968831901395
 21
16.8445473030179
 31
0.0
 70
   160
  1
<>
 42
14.2
  3
Default (ANSI)
100
AcDbAlignedDimension
 13
8.595055446074622
 23
9.744547303017899
 33
0.0
 14
8.595055446074617
 24
23.9445473030179
 34
0.0
 50
90.0
100
AcDbRotatedDimension
1001
ACAD
1000
DSTYLE
1002
{
1070
   289
1070
     1
1070
   271
1070
     2
1070
   272
1070
     2
1070
    48
1040
0.0
1070
    47
1040
0.0
1002
}
  0
DIMENSION
  5
2B3
330
6C
100
AcDbEntity
  8
Dimension (ANSI)
100
AcDbDimension
  2
*D5
 10
22.29505544607462
 20
26.04297249986829
 30
0.0
 11
15.19505544607462
 21
26.04297249986829
 31
0.0
 70
   160
  1
<>
 42
14.2
  3
Default (ANSI)
100
AcDbAlignedDimension
 13
8.095055446074617
 23
23.44454730301789
 33
0.0
 14
22.29505544607462
 24
23.44454730301789
 34
0.0
100
AcDbRotatedDimension
1001
ACAD
1000
DSTYLE
1002
{
1070
   289
1070
     1
1070
    73
1070
     0
1070
    74
1070
     0
1070
   271
1070
     2
1070
   272
1070
     2
1070
    48
1040
0.0
1070
    47
1040
0.0
1002
}
  0
DIMENSION
  5
39D
330
6C
100
AcDbEntity
  8
Dimension (ANSI)
100
AcDbDimension
  2
*D6
 10
7.887450607296729
 20
11.0145473030179
 30
0.0
 11
7.040252296468322
 21
9.404648308733458
 31
0.0
 70
   160
  1
<>
 42
0.75
  3
Default (ANSI)
100
AcDbAlignedDimension
 13
8.61505544607462
 23
10.26454730301789
 33
0.0
 14
8.61505544607462
 24
11.0145473030179
 34
0.0
 50
90.0
100
AcDbRotatedDimension
1001
ACAD
1000
DSTYLE
1002
{
1070
   289
1070
     1
1070
   271
1070
     2
1070
   272
1070
     2
1070
    48
1040
0.0
1070
    47
1040
0.0
1002
}
  0
DIMENSION
  5
496
330
6C
100
AcDbEntity
  8
Dimension (ANSI)
100
AcDbDimension
  2
*D7
 10
23.80541118970654
 20
23.4245473030179
 30
0.0
 11
22.95615780827935
 21
22.44748343530084
 31
0.0
 70
   160
  1
<>
 42
0.5199999999999961
  3
Default (ANSI)
100
AcDbAlignedDimension
 13
21.79505544607461
 23
23.9445473030179
 33
0.0
 14
21.77505544607462
 24
23.4245473030179
 34
0.0
 50
270.0
100
AcDbRotatedDimension
1001
ACAD
1000
DSTYLE
1002
{
1070
   289
1070
     1
1070
   271
1070
     2
1070
   272
1070
     2
1070
    48
1040
0.0
1070
    47
1040
0.0
1002
}
  0
DIMENSION
  5
594
330
6C
100
AcDbEntity
  8
Dimension (ANSI)
100
AcDbDimension
  2
*D8
 10
21.77505544607462
 20
25.13914167739671
 30
0.0
 11
23.73745171587676
 21
25.13914167739671
 31
0.0
 70
   160
  1
<>
 42
0.5199999999999961
  3
Default (ANSI)
100
AcDbAlignedDimension
 13
22.29505544607462
 23
23.44454730301789
 33
0.0
 14
21.77505544607462
 24
23.4245473030179
 34
0.0
 50
180.0
100
AcDbRotatedDimension
1001
ACAD
1000
DSTYLE
1002
{
1070
   289
1070
     1
1070
    73
1070
     0
1070
    74
1070
     0
1070
   271
1070
     2
1070
   272
1070
     2
1070
    48
1040
0.0
1070
    47
1040
0.0
1002
}
  0
DIMENSION
  5
67E
330
6C
100
AcDbEntity
  8
Dimension (ANSI)
100
AcDbDimension
  2
*D9
 10
6.304888459068396
 20
23.4245473030179
 30
0.0
 11
6.304888459068392
 21
18.90340440416071
 31
0.0
 70
   160
  1
<>
 42
13.16
  3
Default (ANSI)
100
AcDbAlignedDimension
 13
8.61505544607462
 23
10.26454730301789
 33
0.0
 14
8.61505544607462
 24
23.4245473030179
 34
0.0
 50
90.0
100
AcDbRotatedDimension
1001
ACAD
1000
DSTYLE
1002
{
1070
   289
1070
     1
1070
   271
1070
     3
1070
   272
1070
     3
1070
    48
1040
0.0
1070
    47
1040
0.0
1002
}
  0
MTEXT
  5
768
102
{ACAD_REACTORS
330
769
102
}
330
6C
100
AcDbEntity
  8
Symbol (ANSI)
100
AcDbMText
 10
33.85890224937558
 20
19.02446166071895
 30
0.0
 40
0.3600000044492286
 41
1.472382517311516
 71
     1
 72
     1
  1
{12 GA.}
  7
Note Text (ANSI)
 73
     1
 44
1.0
1001
ACAD
1000
MTEXTBEGIN
1070
    73
1070
     1
1070
    44
1040
1.0
1070
    74
1070
     0
1000
MTEXTEND
  0
LEADER
  5
769
330
6C
100
AcDbEntity
  8
Symbol (ANSI)
100
AcDbLeader
  3
Default (ANSI)$7
 73
     0
 74
     0
 75
     1
 40
0.374506384749399
 41
1.371820030386113
 76
     3
 10
32.34416859711532
 20
17.62500359678563
 30
0.0
 10
33.46913847653594
 20
18.84446165849434
 30
0.0
 10
33.7644140603992
 20
18.84446165849434
 30
0.0
340
768
213
0.0
223
-0.1800000022246143
233
0.0
1001
ACAD
1000
DSTYLE
1002
{
1070
    77
1070
     0
1002
}
  0
DIMENSION
  5
76A
330
6C
100
AcDbEntity
  8
Dimension (ANSI)
100
AcDbDimension
  2
*D10
 10
23.8071605835162
 20
10.2445473030179
 30
0.0
 11
24.65726017048407
 21
11.10444629730234
 31
0.0
 70
   160
  1
<>
 42
0.5
  3
Default (ANSI)
100
AcDbAlignedDimension
 13
21.79505544607462
 23
9.744547303017899
 33
0.0
 14
22.29505544607462
 24
10.2445473030179
 34
0.0
 50
90.0
100
AcDbRotatedDimension
1001
ACAD
1000
DSTYLE
1002
{
1070
   289
1070
     1
1070
   271
1070
     2
1070
   272
1070
     2
1070
    48
1040
0.0
1070
    47
1040
0.0
1002
}
  0
DIMENSION
  5
868
330
6C
100
AcDbEntity
  8
Dimension (ANSI)
100
AcDbDimension
  2
*D11
 10
21.79505544607462
 20
7.382342578608452
 30
0.0
 11
20.64968027524349
 21
7.382342578608452
 31
0.0
 70
   160
  1
<>
 42
0.5000000000000036
  3
Default (ANSI)
100
AcDbAlignedDimension
 13
22.29505544607462
 23
10.2445473030179
 33
0.0
 14
21.79505544607462
 24
9.744547303017899
 34
0.0
 50
180.0
100
AcDbRotatedDimension
1001
ACAD
1000
DSTYLE
1002
{
1070
   289
1070
     1
1070
    73
1070
     0
1070
    74
1070
     0
1070
   271
1070
     2
1070
   272
1070
     2
1070
    48
1040
0.0
1070
    47
1040
0.0
1002
}
  0
DIMENSION
  5
952
330
6C
100
AcDbEntity
  8
Dimension (ANSI)
100
AcDbDimension
  2
*D12
 10
8.768612440107418
 20
23.22726514573141
 30
0.0
 11
5.321107225717549
 21
25.59203464710709
 31
0.0
 70
   163
  1
<>{\PTYP.(4PL.)}
 71
     3
 42
0.5
  3
Default (ANSI)
100
AcDbDiametricDimension
 15
8.461498452041817
 25
23.62182946030438
 35
0.0
 40
0.0
1001
ACAD_DSTYLE_DIMRADIAL_EXTENSION
1070
   387
1070
     1
1070
   388
1040
0.0
1070
   390
1040
0.0
1001
ACAD
1000
DSTYLE
1002
{
1070
   145
1040
-0.25
1070
   144
1040
1.00000000000001
1070
   271
1070
     2
1070
   272
1070
     2
1070
    48
1040
0.0
1070
    47
1040
0.0
1002
}
  0
DIMENSION
  5
A0C
330
6C
100
AcDbEntity
  8
Dimension (ANSI)
100
AcDbDimension
  2
*D13
 10
8.552922508632772
 20
11.1579124333141
 30
0.0
 11
11.59386469395964
 21
8.02729912898728
 31
0.0
 70
   163
  1
<>{\PTYP. (4PL.)}
 42
0.3125
  3
Default (ANSI)
100
AcDbDiametricDimension
 15
8.677188383516462
 25
10.87118217272169
 35
0.0
 40
0.0
1001
ACAD_DSTYLE_DIMRADIAL_EXTENSION
1070
   387
1070
     1
1070
   388
1040
0.0
1070
   390
1040
0.0
1001
ACAD
1000
DSTYLE
1002
{
1070
   145
1040
-0.25
1070
   144
1040
0.9999999999999744
1070
   271
1070
     2
1070
   272
1070
     2
1070
    48
1040
0.0
1070
    47
1040
0.0
1002
}
  0
DIMENSION
  5
AC5
330
6C
100
AcDbEntity
  8
Dimension (ANSI)
100
AcDbDimension
  2
*D14
 10
8.61505544607462
 20
25.13914167739671
 30
0.0
 11
15.13785268883647
 21
25.13914167739671
 31
0.0
 70
   160
  1
<>
 42
13.16
  3
Default (ANSI)
100
AcDbAlignedDimension
 13
21.77505544607462
 23
23.4245473030179
 33
0.0
 14
8.61505544607462
 24
23.4245473030179
 34
0.0
 50
180.0
100
AcDbRotatedDimension
1001
ACAD
1000
DSTYLE
1002
{
1070
   289
1070
     1
1070
    73
1070
     0
1070
    74
1070
     0
1070
   271
1070
     3
1070
   272
1070
     3
1070
    48
1040
0.0
1070
    47
1040
0.0
1002
}
  0
ENDSEC
  0
SECTION
  2
OBJECTS
  0
DICTIONARY
  5
C
330
0
100
AcDbDictionary
281
     1
  3
ACAD_CIP_PREVIOUS_PRODUCT_INFO
350
BAF
  3
ACAD_COLOR
350
63
  3
ACAD_GROUP
350
D
  3
ACAD_LAYOUT
350
62
  3
ACAD_MATERIAL
350
10
  3
ACAD_MLEADERSTYLE
350
66
  3
ACAD_MLINESTYLE
350
5F
  3
ACAD_PLOTSETTINGS
350
61
  3
ACAD_PLOTSTYLENAME
350
E
  3
ACAD_SCALELIST
350
42
  3
ACAD_TABLESTYLE
350
64
  3
ACAD_VISUALSTYLE
350
29
  3
ACDB_RECOMPOSE_DATA
350
BBE
  3
AcDbVariableDictionary
350
D8
  3
DWGPROPS
350
BBF
  0
DICTIONARY
  5
BFB
330
A06
100
AcDbDictionary
280
     1
281
     1
  3
ACAD_MTEXT_RT
360
BFC
  0
DICTIONARY
  5
BFD
330
ABF
100
AcDbDictionary
280
     1
281
     1
  3
ACAD_MTEXT_RT
360
BFE
  0
XRECORD
  5
BAF
102
{ACAD_REACTORS
330
C
102
}
330
C
100
AcDbXrecord
280
     1
300
INVNTOR
300
2012
300
85795PDSP_2012_0F
  0
DICTIONARY
  5
63
102
{ACAD_REACTORS
330
C
102
}
330
C
100
AcDbDictionary
281
     1
  0
DICTIONARY
  5
D
102
{ACAD_REACTORS
330
C
102
}
330
C
100
AcDbDictionary
281
     1
  0
DICTIONARY
  5
62
102
{ACAD_REACTORS
330
C
102
}
330
C
100
AcDbDictionary
281
     1
  3
Layout1
350
6B
  3
Layout2
350
73
  3
Model
350
6F
  0
DICTIONARY
  5
10
102
{ACAD_REACTORS
330
C
102
}
330
C
100
AcDbDictionary
281
     1
  3
ByBlock
350
19
  3
ByLayer
350
11
  3
Global
350
21
  0
DICTIONARY
  5
66
102
{ACAD_REACTORS
330
C
102
}
330
C
100
AcDbDictionary
281
     1
  3
Standard
350
67
  0
DICTIONARY
  5
5F
102
{ACAD_REACTORS
330
C
102
}
330
C
100
AcDbDictionary
281
     1
  3
Standard
350
60
  0
DICTIONARY
  5
61
102
{ACAD_REACTORS
330
C
102
}
330
C
100
AcDbDictionary
281
     1
  0
ACDBDICTIONARYWDFLT
  5
E
102
{ACAD_REACTORS
330
C
102
}
330
C
100
AcDbDictionary
281
     1
  3
Normal
350
F
100
AcDbDictionaryWithDefault
340
F
  0
DICTIONARY
  5
42
102
{ACAD_REACTORS
330
C
102
}
330
C
100
AcDbDictionary
281
     1
  3
A0
350
43
  3
A1
350
44
  3
A2
350
45
  3
A3
350
46
  3
A4
350
47
  3
A5
350
48
  3
A6
350
49
  3
A7
350
4A
  3
A8
350
4B
  3
A9
350
4C
  3
B0
350
4D
  3
B1
350
4E
  3
B2
350
4F
  3
B3
350
50
  3
B4
350
51
  3
B5
350
52
  3
B6
350
53
  0
DICTIONARY
  5
64
102
{ACAD_REACTORS
330
C
102
}
330
C
100
AcDbDictionary
281
     1
  3
Standard
350
65
  0
DICTIONARY
  5
29
102
{ACAD_REACTORS
330
C
102
}
330
C
100
AcDbDictionary
281
     1
  3
2dWireframe
350
2F
  3
Basic
350
2E
  3
Brighten
350
35
  3
ColorChange
350
39
  3
Conceptual
350
32
  3
Dim
350
34
  3
EdgeColorOff
350
41
  3
Facepattern
350
38
  3
Flat
350
2A
  3
FlatWithEdges
350
2B
  3
Gouraud
350
2C
  3
GouraudWithEdges
350
2D
  3
Hidden
350
31
  3
JitterOff
350
3F
  3
Linepattern
350
37
  3
OverhangOff
350
40
  3
Realistic
350
33
  3
Shaded
350
3E
  3
Shaded with edges
350
3D
  3
Shades of Gray
350
3A
  3
Sketchy
350
3B
  3
Thicken
350
36
  3
Wireframe
350
30
  3
X-Ray
350
3C
  0
XRECORD
  5
BBE
102
{ACAD_REACTORS
330
C
102
}
330
C
100
AcDbXrecord
280
     1
 90
        1
330
65
  0
DICTIONARY
  5
D8
102
{ACAD_REACTORS
330
C
102
}
330
C
100
AcDbDictionary
281
     1
  3
CANNOSCALE
350
DB
  3
CMLEADERSTYLE
350
DA
  3
CTABLESTYLE
350
D9
  3
DIMASSOC
350
BB7
  3
HIDETEXT
350
BB6
  3
INDEXCTL
350
BB5
  3
LAYEREVAL
350
BB2
  3
LAYERNOTIFY
350
BB3
  3
LIGHTINGUNITS
350
BB1
  3
MSLTSCALE
350
BB0
  3
SORTENTS
350
BB4
  3
XCLIPFRAME
350
BB8
  0
XRECORD
  5
BBF
102
{ACAD_REACTORS
330
C
102
}
330
C
100
AcDbXrecord
280
     1
  1
DWGPROPS COOKIE
  2

  3

  4
EC
  6

  7

  8

  9
-
300
Manager=
301
Company=
302
Category=
303
Part Number=NP1616C
304
Description=NPC PANEL MASTER VIEW
305
Project=
306
Designer=EC
307
Engineer=
308
Authority=
309
Cost Center=
 40
0.0000350925925926
 41
2455944.464021909
 42
2455944.464021909
  1

 90
       20
300
Vendor=
300
User Status=
300
Design Status=WorkInProgress
300
Checked by=JG
300
Date Checked=02/19/2009
300
Engr Approved by=
300
Mfg Approved by=
300
DWG. NO=
300
NUMBER OF SHEETS=1
300
DRAWING #=1
  0
XRECORD
  5
BFC
102
{ACAD_REACTORS
330
BFB
102
}
330
BFB
100
AcDbXrecord
280
     1
 40
29624.0
  1
\A1;\U+22050.50{\PTYP.(4PL.)}
  0
XRECORD
  5
BFE
102
{ACAD_REACTORS
330
BFD
102
}
330
BFD
100
AcDbXrecord
280
     1
 40
30807.0
  1
\A1;\U+22050.31{\PTYP. (4PL.)}
  0
LAYOUT
  5
6B
102
{ACAD_XDICTIONARY
360
BF5
102
}
102
{ACAD_REACTORS
330
62
102
}
330
62
100
AcDbPlotSettings
  1

  2

  4

  6

 40
0.0
 41
0.0
 42
0.0
 43
0.0
 44
0.0
 45
0.0
 46
0.0
 47
0.0
 48
0.0
 49
0.0
140
0.0
141
0.0
142
1.0
143
1.0
 70
   688
 72
     0
 73
     0
 74
     5
  7

 75
    16
147
1.0
148
0.0
149
0.0
100
AcDbLayout
  1
Layout1
 70
     1
 71
     1
 10
0.0
 20
0.0
 11
12.0
 21
9.0
 12
0.0
 22
0.0
 32
0.0
 14
0.0
 24
0.0
 34
0.0
 15
0.0
 25
0.0
 35
0.0
146
0.0
 13
0.0
 23
0.0
 33
0.0
 16
1.0
 26
0.0
 36
0.0
 17
0.0
 27
1.0
 37
0.0
 76
     0
330
68
  0
LAYOUT
  5
73
102
{ACAD_XDICTIONARY
360
BF9
102
}
102
{ACAD_REACTORS
330
62
102
}
330
62
100
AcDbPlotSettings
  1

  2

  4

  6

 40
0.0
 41
0.0
 42
0.0
 43
0.0
 44
0.0
 45
0.0
 46
0.0
 47
0.0
 48
0.0
 49
0.0
140
0.0
141
0.0
142
1.0
143
1.0
 70
   688
 72
     0
 73
     0
 74
     5
  7

 75
    16
147
1.0
148
0.0
149
0.0
100
AcDbLayout
  1
Layout2
 70
     1
 71
     2
 10
0.0
 20
0.0
 11
12.0
 21
9.0
 12
0.0
 22
0.0
 32
0.0
 14
0.0
 24
0.0
 34
0.0
 15
0.0
 25
0.0
 35
0.0
146
0.0
 13
0.0
 23
0.0
 33
0.0
 16
1.0
 26
0.0
 36
0.0
 17
0.0
 27
1.0
 37
0.0
 76
     0
330
70
  0
LAYOUT
  5
6F
102
{ACAD_XDICTIONARY
360
BF7
102
}
102
{ACAD_REACTORS
330
62
102
}
330
62
100
AcDbPlotSettings
  1

  2

  4

  6

 40
0.0
 41
0.0
 42
0.0
 43
0.0
 44
0.0
 45
0.0
 46
0.0
 47
0.0
 48
0.0
 49
0.0
140
0.0
141
0.0
142
1.0
143
1.0
 70
  1712
 72
     0
 73
     0
 74
     0
  7

 75
     0
147
1.0
148
0.0
149
0.0
100
AcDbLayout
  1
Model
 70
     1
 71
     0
 10
0.0
 20
0.0
 11
12.0
 21
9.0
 12
0.0
 22
0.0
 32
0.0
 14
0.0
 24
0.0
 34
0.0
 15
0.0
 25
0.0
 35
0.0
146
0.0
 13
0.0
 23
0.0
 33
0.0
 16
1.0
 26
0.0
 36
0.0
 17
0.0
 27
1.0
 37
0.0
 76
     0
330
6C
  0
MATERIAL
  5
19
102
{ACAD_XDICTIONARY
360
1A
102
}
102
{ACAD_REACTORS
330
10
102
}
330
10
100
AcDbMaterial
  1
ByBlock
 72
     0
 43
0.0208333333333333
 43
0.0
 43
0.0
 43
0.0
 43
0.0
 43
0.0208333333333333
 43
0.0
 43
0.0
 43
0.0
 43
0.0
 43
1.0
 43
0.0
 43
0.0
 43
0.0
 43
0.0
 43
1.0
 77
     0
 47
0.0208333333333333
 47
0.0
 47
0.0
 47
0.0
 47
0.0
 47
0.0208333333333333
 47
0.0
 47
0.0
 47
0.0
 47
0.0
 47
1.0
 47
0.0
 47
0.0
 47
0.0
 47
0.0
 47
1.0
171
     0
 49
0.0208333333333333
 49
0.0
 49
0.0
 49
0.0
 49
0.0
 49
0.0208333333333333
 49
0.0
 49
0.0
 49
0.0
 49
0.0
 49
1.0
 49
0.0
 49
0.0
 49
0.0
 49
0.0
 49
1.0
175
     0
142
0.0208333333333333
142
0.0
142
0.0
142
0.0
142
0.0
142
0.0208333333333333
142
0.0
142
0.0
142
0.0
142
0.0
142
1.0
142
0.0
142
0.0
142
0.0
142
0.0
142
1.0
179
     0
144
0.0208333333333333
144
0.0
144
0.0
144
0.0
144
0.0
144
0.0208333333333333
144
0.0
144
0.0
144
0.0
144
0.0
144
1.0
144
0.0
144
0.0
144
0.0
144
0.0
144
1.0
147
0.0208333333333333
147
0.0
147
0.0
147
0.0
147
0.0
147
0.0208333333333333
147
0.0
147
0.0
147
0.0
147
0.0
147
1.0
147
0.0
147
0.0
147
0.0
147
0.0
147
1.0
  0
MATERIAL
  5
11
102
{ACAD_XDICTIONARY
360
12
102
}
102
{ACAD_REACTORS
330
10
102
}
330
10
100
AcDbMaterial
  1
ByLayer
 72
     0
 43
0.0208333333333333
 43
0.0
 43
0.0
 43
0.0
 43
0.0
 43
0.0208333333333333
 43
0.0
 43
0.0
 43
0.0
 43
0.0
 43
1.0
 43
0.0
 43
0.0
 43
0.0
 43
0.0
 43
1.0
 77
     0
 47
0.0208333333333333
 47
0.0
 47
0.0
 47
0.0
 47
0.0
 47
0.0208333333333333
 47
0.0
 47
0.0
 47
0.0
 47
0.0
 47
1.0
 47
0.0
 47
0.0
 47
0.0
 47
0.0
 47
1.0
171
     0
 49
0.0208333333333333
 49
0.0
 49
0.0
 49
0.0
 49
0.0
 49
0.0208333333333333
 49
0.0
 49
0.0
 49
0.0
 49
0.0
 49
1.0
 49
0.0
 49
0.0
 49
0.0
 49
0.0
 49
1.0
175
     0
142
0.0208333333333333
142
0.0
142
0.0
142
0.0
142
0.0
142
0.0208333333333333
142
0.0
142
0.0
142
0.0
142
0.0
142
1.0
142
0.0
142
0.0
142
0.0
142
0.0
142
1.0
179
     0
144
0.0208333333333333
144
0.0
144
0.0
144
0.0
144
0.0
144
0.0208333333333333
144
0.0
144
0.0
144
0.0
144
0.0
144
1.0
144
0.0
144
0.0
144
0.0
144
0.0
144
1.0
147
0.0208333333333333
147
0.0
147
0.0
147
0.0
147
0.0
147
0.0208333333333333
147
0.0
147
0.0
147
0.0
147
0.0
147
1.0
147
0.0
147
0.0
147
0.0
147
0.0
147
1.0
  0
MATERIAL
  5
21
102
{ACAD_XDICTIONARY
360
22
102
}
102
{ACAD_REACTORS
330
10
102
}
330
10
100
AcDbMaterial
  1
Global
 72
     0
 43
0.0208333333333333
 43
0.0
 43
0.0
 43
0.0
 43
0.0
 43
0.0208333333333333
 43
0.0
 43
0.0
 43
0.0
 43
0.0
 43
1.0
 43
0.0
 43
0.0
 43
0.0
 43
0.0
 43
1.0
 77
     0
 47
0.0208333333333333
 47
0.0
 47
0.0
 47
0.0
 47
0.0
 47
0.0208333333333333
 47
0.0
 47
0.0
 47
0.0
 47
0.0
 47
1.0
 47
0.0
 47
0.0
 47
0.0
 47
0.0
 47
1.0
171
     0
 49
0.0208333333333333
 49
0.0
 49
0.0
 49
0.0
 49
0.0
 49
0.0208333333333333
 49
0.0
 49
0.0
 49
0.0
 49
0.0
 49
1.0
 49
0.0
 49
0.0
 49
0.0
 49
0.0
 49
1.0
175
     0
142
0.0208333333333333
142
0.0
142
0.0
142
0.0
142
0.0
142
0.0208333333333333
142
0.0
142
0.0
142
0.0
142
0.0
142
1.0
142
0.0
142
0.0
142
0.0
142
0.0
142
1.0
179
     0
144
0.0208333333333333
144
0.0
144
0.0
144
0.0
144
0.0
144
0.0208333333333333
144
0.0
144
0.0
144
0.0
144
0.0
144
1.0
144
0.0
144
0.0
144
0.0
144
0.0
144
1.0
147
0.0208333333333333
147
0.0
147
0.0
147
0.0
147
0.0
147
0.0208333333333333
147
0.0
147
0.0
147
0.0
147
0.0
147
1.0
147
0.0
147
0.0
147
0.0
147
0.0
147
1.0
  0
MLEADERSTYLE
  5
67
102
{ACAD_XDICTIONARY
360
BBB
102
}
102
{ACAD_REACTORS
330
66
102
}
330
66
100
AcDbMLeaderStyle
170
     2
171
     1
172
     0
 90
        2
 40
0.0
 41
0.0
173
     1
 91
-1056964608
340
5B
 92
       -2
290
     1
 42
0.09
291
     1
 43
0.36
  3
Standard
 44
0.18
300

342
55
174
     1
178
     6
175
     1
176
     0
 93
-1056964608
 45
0.18
292
     0
297
     0
 46
0.18
 94
-1056964608
 47
1.0
 49
1.0
140
1.0
293
     1
141
0.0
294
     1
177
     0
142
1.0
295
     0
296
     0
143
0.125
1001
ACAD_MLEADERVER
1070
     2
  0
MLINESTYLE
  5
60
102
{ACAD_REACTORS
330
5F
102
}
330
5F
100
AcDbMlineStyle
  2
STANDARD
 70
     0
  3

 62
   256
 51
90.0
 52
90.0
 71
     2
 49
0.5
 62
   256
  6
BYLAYER
 49
-0.5
 62
   256
  6
BYLAYER
  0
ACDBPLACEHOLDER
  5
F
102
{ACAD_REACTORS
330
E
102
}
330
E
  0
SCALE
  5
43
102
{ACAD_REACTORS
330
42
102
}
330
42
100
AcDbScale
 70
     0
300
1:1
140
1.0
141
1.0
290
     1
  0
SCALE
  5
44
102
{ACAD_REACTORS
330
42
102
}
330
42
100
AcDbScale
 70
     0
300
1/128" = 1'-0"
140
0.0078125
141
12.0
290
     0
  0
SCALE
  5
45
102
{ACAD_REACTORS
330
42
102
}
330
42
100
AcDbScale
 70
     0
300
1/64" = 1'-0"
140
0.015625
141
12.0
290
     0
  0
SCALE
  5
46
102
{ACAD_REACTORS
330
42
102
}
330
42
100
AcDbScale
 70
     0
300
1/32" = 1'-0"
140
0.03125
141
12.0
290
     0
  0
SCALE
  5
47
102
{ACAD_REACTORS
330
42
102
}
330
42
100
AcDbScale
 70
     0
300
1/16" = 1'-0"
140
0.0625
141
12.0
290
     0
  0
SCALE
  5
48
102
{ACAD_REACTORS
330
42
102
}
330
42
100
AcDbScale
 70
     0
300
3/32" = 1'-0"
140
0.09375
141
12.0
290
     0
  0
SCALE
  5
49
102
{ACAD_REACTORS
330
42
102
}
330
42
100
AcDbScale
 70
     0
300
1/8" = 1'-0"
140
0.125
141
12.0
290
     0
  0
SCALE
  5
4A
102
{ACAD_REACTORS
330
42
102
}
330
42
100
AcDbScale
 70
     0
300
3/16" = 1'-0"
140
0.1875
141
12.0
290
     0
  0
SCALE
  5
4B
102
{ACAD_REACTORS
330
42
102
}
330
42
100
AcDbScale
 70
     0
300
1/4" = 1'-0"
140
0.25
141
12.0
290
     0
  0
SCALE
  5
4C
102
{ACAD_REACTORS
330
42
102
}
330
42
100
AcDbScale
 70
     0
300
3/8" = 1'-0"
140
0.375
141
12.0
290
     0
  0
SCALE
  5
4D
102
{ACAD_REACTORS
330
42
102
}
330
42
100
AcDbScale
 70
     0
300
1/2" = 1'-0"
140
0.5
141
12.0
290
     0
  0
SCALE
  5
4E
102
{ACAD_REACTORS
330
42
102
}
330
42
100
AcDbScale
 70
     0
300
3/4" = 1'-0"
140
0.75
141
12.0
290
     0
  0
SCALE
  5
4F
102
{ACAD_REACTORS
330
42
102
}
330
42
100
AcDbScale
 70
     0
300
1" = 1'-0"
140
1.0
141
12.0
290
     0
  0
SCALE
  5
50
102
{ACAD_REACTORS
330
42
102
}
330
42
100
AcDbScale
 70
     0
300
1-1/2" = 1'-0"
140
1.5
141
12.0
290
     0
  0
SCALE
  5
51
102
{ACAD_REACTORS
330
42
102
}
330
42
100
AcDbScale
 70
     0
300
3" = 1'-0"
140
3.0
141
12.0
290
     0
  0
SCALE
  5
52
102
{ACAD_REACTORS
330
42
102
}
330
42
100
AcDbScale
 70
     0
300
6" = 1'-0"
140
6.0
141
12.0
290
     0
  0
SCALE
  5
53
102
{ACAD_REACTORS
330
42
102
}
330
42
100
AcDbScale
 70
     0
300
1'-0" = 1'-0"
140
12.0
141
12.0
290
     0
  0
TABLESTYLE
  5
65
102
{ACAD_XDICTIONARY
360
BB9
102
}
102
{ACAD_REACTORS
330
64
102
}
330
64
100
AcDbTableStyle
  3
Standard
 70
     0
 71
     0
 40
0.06
 41
0.06
280
     0
281
     0
  7
Standard
140
0.18
170
     2
 62
     0
 63
     7
283
     0
274
    -2
284
     1
 64
     0
275
    -2
285
     1
 65
     0
276
    -2
286
     1
 66
     0
277
    -2
287
     1
 67
     0
278
    -2
288
     1
 68
     0
279
    -2
289
     1
 69
     0
  7
Standard
140
0.25
170
     5
 62
     0
 63
     7
283
     0
274
    -2
284
     1
 64
     0
275
    -2
285
     1
 65
     0
276
    -2
286
     1
 66
     0
277
    -2
287
     1
 67
     0
278
    -2
288
     1
 68
     0
279
    -2
289
     1
 69
     0
  7
Standard
140
0.18
170
     5
 62
     0
 63
     7
283
     0
274
    -2
284
     1
 64
     0
275
    -2
285
     1
 65
     0
276
    -2
286
     1
 66
     0
277
    -2
287
     1
 67
     0
278
    -2
288
     1
 68
     0
279
    -2
289
     1
 69
     0
  0
VISUALSTYLE
  5
2F
102
{ACAD_XDICTIONARY
360
BCD
102
}
102
{ACAD_REACTORS
330
29
102
}
330
29
100
AcDbVisualStyle
  2
2dWireframe
 70
     4
 71
     0
 72
     2
 73
     0
 90
        0
 40
-0.6
 41
-30.0
 62
     5
 63
     7
 74
     1
 91
        4
 64
     7
 65
   257
 75
     1
175
     1
 42
1.0
 92
        0
 66
   257
 43
1.0
 76
     1
 77
     6
 78
     2
 67
     7
 79
     5
170
     0
171
     0
290
     0
174
     0
 93
        1
 44
0.0
173
     0
291
     0
 45
0.0
1001
ACAD
1000
AcDbSavedByObjectVersion
1070
     0
  0
VISUALSTYLE
  5
2E
102
{ACAD_XDICTIONARY
360
BCB
102
}
102
{ACAD_REACTORS
330
29
102
}
330
29
100
AcDbVisualStyle
  2
Basic
 70
     7
 71
     1
 72
     0
 73
     1
 90
        0
 40
-0.6
 41
-30.0
 62
     5
 63
     7
 74
     0
 91
        4
 64
     7
 65
   257
 75
     1
175
     1
 42
1.0
 92
        8
 66
     7
 43
1.0
 76
     1
 77
     6
 78
     2
 67
     7
 79
     5
170
     0
171
     0
290
     0
174
     0
 93
        1
 44
0.0
173
     0
291
     1
 45
0.0
1001
ACAD
1000
AcDbSavedByObjectVersion
1070
     0
  0
VISUALSTYLE
  5
35
102
{ACAD_XDICTIONARY
360
BD9
102
}
102
{ACAD_REACTORS
330
29
102
}
330
29
100
AcDbVisualStyle
  2
Brighten
 70
    12
 71
     2
 72
     2
 73
     0
 90
        0
 40
-0.6
 41
-30.0
 62
     5
 63
     7
 74
     1
 91
        4
 64
     7
 65
   257
 75
     1
175
     1
 42
1.0
 92
        8
 66
     7
 43
1.0
 76
     1
 77
     6
 78
     2
 67
     7
 79
     5
170
     0
171
     0
290
     0
174
     0
 93
        1
 44
50.0
173
     0
291
     1
 45
0.0
1001
ACAD
1000
AcDbSavedByObjectVersion
1070
     0
  0
VISUALSTYLE
  5
39
102
{ACAD_XDICTIONARY
360
BE1
102
}
102
{ACAD_REACTORS
330
29
102
}
330
29
100
AcDbVisualStyle
  2
ColorChange
 70
    16
 71
     2
 72
     2
 73
     3
 90
        0
 40
-0.6
 41
-30.0
 62
     5
 63
     8
 74
     1
 91
        4
 64
     7
 65
   257
 75
     1
175
     1
 42
1.0
 92
        8
 66
     8
 43
1.0
 76
     1
 77
     6
 78
     2
 67
     7
 79
     5
170
     0
171
     0
290
     0
174
     0
 93
        1
 44
0.0
173
     0
291
     1
 45
0.0
1001
ACAD
1000
AcDbSavedByObjectVersion
1070
     0
  0
VISUALSTYLE
  5
32
102
{ACAD_XDICTIONARY
360
BD3
102
}
102
{ACAD_REACTORS
330
29
102
}
330
29
100
AcDbVisualStyle
  2
Conceptual
 70
     9
 71
     3
 72
     2
 73
     0
 90
        0
 40
-0.6
 41
-30.0
 62
     5
 63
     7
 74
     2
 91
        2
 64
     7
 65
   257
 75
     1
175
     1
 42
179.0
 92
        8
 66
     7
 43
1.0
 76
     1
 77
     6
 78
     2
 67
     7
 79
     3
170
     0
171
     0
290
     0
174
     0
 93
        1
 44
0.0
173
     0
291
     0
 45
0.0
1001
ACAD
1000
AcDbSavedByObjectVersion
1070
     0
  0
VISUALSTYLE
  5
34
102
{ACAD_XDICTIONARY
360
BD7
102
}
102
{ACAD_REACTORS
330
29
102
}
330
29
100
AcDbVisualStyle
  2
Dim
 70
    11
 71
     2
 72
     2
 73
     0
 90
        0
 40
-0.6
 41
-30.0
 62
     5
 63
     7
 74
     1
 91
        4
 64
     7
 65
   257
 75
     1
175
     1
 42
1.0
 92
        8
 66
     7
 43
1.0
 76
     1
 77
     6
 78
     2
 67
     7
 79
     5
170
     0
171
     0
290
     0
174
     0
 93
        1
 44
-50.0
173
     0
291
     1
 45
0.0
1001
ACAD
1000
AcDbSavedByObjectVersion
1070
     0
  0
VISUALSTYLE
  5
41
102
{ACAD_XDICTIONARY
360
BF1
102
}
102
{ACAD_REACTORS
330
29
102
}
330
29
100
AcDbVisualStyle
  2
EdgeColorOff
 70
    22
 71
     2
 72
     2
 73
     0
 90
        0
 40
-0.6
 41
-30.0
 62
     5
 63
     7
 74
     1
 91
        4
 64
     7
 65
   257
 75
     1
175
     1
 42
1.0
 92
        8
 66
     7
 43
1.0
 76
     1
 77
     6
 78
     2
 67
     7
 79
     5
170
     0
171
     0
290
     0
174
     0
 93
        1
 44
0.0
173
     0
291
     1
 45
0.0
1001
ACAD
1000
AcDbSavedByObjectVersion
1070
     0
  0
VISUALSTYLE
  5
38
102
{ACAD_XDICTIONARY
360
BDF
102
}
102
{ACAD_REACTORS
330
29
102
}
330
29
100
AcDbVisualStyle
  2
Facepattern
 70
    15
 71
     2
 72
     2
 73
     0
 90
        0
 40
-0.6
 41
-30.0
 62
     5
 63
     7
 74
     1
 91
        4
 64
     7
 65
   257
 75
     1
175
     1
 42
1.0
 92
        8
 66
     7
 43
1.0
 76
     1
 77
     6
 78
     2
 67
     7
 79
     5
170
     0
171
     0
290
     0
174
     0
 93
        1
 44
0.0
173
     0
291
     1
 45
0.0
1001
ACAD
1000
AcDbSavedByObjectVersion
1070
     0
  0
VISUALSTYLE
  5
2A
102
{ACAD_XDICTIONARY
360
BC3
102
}
102
{ACAD_REACTORS
330
29
102
}
330
29
100
AcDbVisualStyle
  2
Flat
 70
     0
 71
     2
 72
     1
 73
     1
 90
        2
 40
-0.6
 41
30.0
 62
     5
 63
     7
 74
     0
 91
        0
 64
     7
 65
   257
 75
     1
175
     1
 42
1.0
 92
        8
 66
     7
 43
1.0
 76
     1
 77
     6
 78
     2
 67
     7
 79
     5
170
     0
171
     0
290
     0
174
     0
 93
       13
 44
0.0
173
     0
291
     1
 45
0.0
1001
ACAD
1000
AcDbSavedByObjectVersion
1070
     0
  0
VISUALSTYLE
  5
2B
102
{ACAD_XDICTIONARY
360
BC5
102
}
102
{ACAD_REACTORS
330
29
102
}
330
29
100
AcDbVisualStyle
  2
FlatWithEdges
 70
     1
 71
     2
 72
     1
 73
     1
 90
        2
 40
-0.6
 41
30.0
 62
     5
 63
     7
 74
     1
 91
        0
 64
     7
 65
   257
 75
     1
175
     1
 42
1.0
 92
        0
 66
   257
 43
1.0
 76
     1
 77
     6
 78
     2
 67
     7
 79
     5
170
     0
171
     0
290
     0
174
     0
 93
       13
 44
0.0
173
     0
291
     1
 45
0.0
1001
ACAD
1000
AcDbSavedByObjectVersion
1070
     0
  0
VISUALSTYLE
  5
2C
102
{ACAD_XDICTIONARY
360
BC7
102
}
102
{ACAD_REACTORS
330
29
102
}
330
29
100
AcDbVisualStyle
  2
Gouraud
 70
     2
 71
     2
 72
     2
 73
     1
 90
        2
 40
-0.6
 41
30.0
 62
     5
 63
     7
 74
     0
 91
        0
 64
     7
 65
   257
 75
     1
175
     1
 42
1.0
 92
        0
 66
     7
 43
1.0
 76
     1
 77
     6
 78
     2
 67
     7
 79
     5
170
     0
171
     0
290
     0
174
     0
 93
       13
 44
0.0
173
     0
291
     1
 45
0.0
1001
ACAD
1000
AcDbSavedByObjectVersion
1070
     0
  0
VISUALSTYLE
  5
2D
102
{ACAD_XDICTIONARY
360
BC9
102
}
102
{ACAD_REACTORS
330
29
102
}
330
29
100
AcDbVisualStyle
  2
GouraudWithEdges
 70
     3
 71
     2
 72
     2
 73
     1
 90
        2
 40
-0.6
 41
30.0
 62
     5
 63
     7
 74
     1
 91
        0
 64
     7
 65
   257
 75
     1
175
     1
 42
1.0
 92
        0
 66
   257
 43
1.0
 76
     1
 77
     6
 78
     2
 67
     7
 79
     5
170
     0
171
     0
290
     0
174
     0
 93
       13
 44
0.0
173
     0
291
     1
 45
0.0
1001
ACAD
1000
AcDbSavedByObjectVersion
1070
     0
  0
VISUALSTYLE
  5
31
102
{ACAD_XDICTIONARY
360
BD1
102
}
102
{ACAD_REACTORS
330
29
102
}
330
29
100
AcDbVisualStyle
  2
Hidden
 70
     6
 71
     1
 72
     2
 73
     2
 90
        0
 40
-0.6
 41
-30.0
 62
     5
 63
     7
 74
     2
 91
        2
 64
     7
 65
   257
 75
     2
175
     1
 42
40.0
 92
        0
 66
   257
 43
1.0
 76
     1
 77
     6
 78
     2
 67
     7
 79
     3
170
     0
171
     0
290
     0
174
     0
 93
        1
 44
0.0
173
     0
291
     0
 45
0.0
1001
ACAD
1000
AcDbSavedByObjectVersion
1070
     0
  0
VISUALSTYLE
  5
3F
102
{ACAD_XDICTIONARY
360
BED
102
}
102
{ACAD_REACTORS
330
29
102
}
330
29
100
AcDbVisualStyle
  2
JitterOff
 70
    20
 71
     2
 72
     2
 73
     0
 90
        0
 40
-0.6
 41
-30.0
 62
     5
 63
     7
 74
     1
 91
        4
 64
     7
 65
   257
 75
     1
175
     1
 42
1.0
 92
       10
 66
     7
 43
1.0
 76
     1
 77
     6
 78
     2
 67
     7
 79
     5
170
     0
171
     0
290
     0
174
     0
 93
        1
 44
0.0
173
     0
291
     1
 45
0.0
1001
ACAD
1000
AcDbSavedByObjectVersion
1070
     0
  0
VISUALSTYLE
  5
37
102
{ACAD_XDICTIONARY
360
BDD
102
}
102
{ACAD_REACTORS
330
29
102
}
330
29
100
AcDbVisualStyle
  2
Linepattern
 70
    14
 71
     2
 72
     2
 73
     0
 90
        0
 40
-0.6
 41
-30.0
 62
     5
 63
     7
 74
     1
 91
        4
 64
     7
 65
   257
 75
     7
175
     7
 42
1.0
 92
        8
 66
     7
 43
1.0
 76
     1
 77
     6
 78
     2
 67
     7
 79
     5
170
     0
171
     0
290
     0
174
     0
 93
        1
 44
0.0
173
     0
291
     1
 45
0.0
1001
ACAD
1000
AcDbSavedByObjectVersion
1070
     0
  0
VISUALSTYLE
  5
40
102
{ACAD_XDICTIONARY
360
BEF
102
}
102
{ACAD_REACTORS
330
29
102
}
330
29
100
AcDbVisualStyle
  2
OverhangOff
 70
    21
 71
     2
 72
     2
 73
     0
 90
        0
 40
-0.6
 41
-30.0
 62
     5
 63
     7
 74
     1
 91
        4
 64
     7
 65
   257
 75
     1
175
     1
 42
1.0
 92
        9
 66
     7
 43
1.0
 76
     1
 77
     6
 78
     2
 67
     7
 79
     5
170
     0
171
     0
290
     0
174
     0
 93
        1
 44
0.0
173
     0
291
     1
 45
0.0
1001
ACAD
1000
AcDbSavedByObjectVersion
1070
     0
  0
VISUALSTYLE
  5
33
102
{ACAD_XDICTIONARY
360
BD5
102
}
102
{ACAD_REACTORS
330
29
102
}
330
29
100
AcDbVisualStyle
  2
Realistic
 70
     8
 71
     2
 72
     3
 73
     0
 90
        2
 40
-0.6
 41
30.0
 62
     5
 63
     7
 74
     0
 91
        0
 64
     7
 65
   257
 75
     1
175
     1
 42
1.0
 92
        8
 66
   257
 43
1.0
 76
     1
 77
     6
 78
     2
 67
     7
 79
     3
170
     0
171
     0
290
     0
174
     0
 93
       13
 44
0.0
173
     0
291
     0
 45
0.0
1001
ACAD
1000
AcDbSavedByObjectVersion
1070
     0
  0
VISUALSTYLE
  5
3E
102
{ACAD_XDICTIONARY
360
BEB
102
}
102
{ACAD_REACTORS
330
29
102
}
330
29
100
AcDbVisualStyle
  2
Shaded
 70
    27
 71
     2
 72
     2
 73
     1
 90
        2
 40
-0.6
 41
30.0
 62
     5
 63
     7
 74
     0
 91
        4
 64
     7
 65
   257
 75
     1
175
     1
 42
1.0
 92
        8
 66
   257
 43
1.0
 76
     1
 77
     6
 78
     2
 67
     8
 79
     3
170
     0
171
     0
290
     0
174
     0
 93
        5
 44
0.0
173
     0
291
     0
 45
0.0
1001
ACAD
1000
AcDbSavedByObjectVersion
1070
     0
  0
VISUALSTYLE
  5
3D
102
{ACAD_XDICTIONARY
360
BE9
102
}
102
{ACAD_REACTORS
330
29
102
}
330
29
100
AcDbVisualStyle
  2
Shaded with edges
 70
    26
 71
     2
 72
     2
 73
     1
 90
        2
 40
-0.6
 41
30.0
 62
     5
 63
     7
 74
     1
 91
       10
 64
     7
 65
   257
 75
     2
175
     1
 42
1.0
 92
        8
 66
   257
 43
1.0
 76
     1
 77
     6
 78
     2
 67
     7
 79
     3
170
     0
171
     0
290
     0
174
     0
 93
        5
 44
0.0
173
     0
291
     0
 45
0.0
1001
ACAD
1000
AcDbSavedByObjectVersion
1070
     0
  0
VISUALSTYLE
  5
3A
102
{ACAD_XDICTIONARY
360
BE3
102
}
102
{ACAD_REACTORS
330
29
102
}
330
29
100
AcDbVisualStyle
  2
Shades of Gray
 70
    23
 71
     2
 72
     2
 73
     3
 90
        0
 40
-0.6
 41
-30.0
 62
     5
 63
     7
 74
     2
 91
        2
 64
     7
 65
     7
 75
     1
175
     1
 42
40.0
 92
        8
 66
     7
 43
1.0
 76
     1
 77
     6
 78
     2
 67
     7
 79
     3
170
     0
171
     0
290
     0
174
     0
 93
        1
 44
0.0
173
     0
291
     0
 45
0.0
1001
ACAD
1000
AcDbSavedByObjectVersion
1070
     0
  0
VISUALSTYLE
  5
3B
102
{ACAD_XDICTIONARY
360
BE5
102
}
102
{ACAD_REACTORS
330
29
102
}
330
29
100
AcDbVisualStyle
  2
Sketchy
 70
    24
 71
     1
 72
     2
 73
     2
 90
        0
 40
-0.6
 41
-30.0
 62
     5
 63
     7
 74
     2
 91
        2
 64
     7
 65
     7
 75
     1
175
     1
 42
40.0
 92
       11
 66
     7
 43
1.0
 76
     1
 77
     6
 78
     2
 67
     7
 79
     6
170
     0
171
     0
290
     0
174
     0
 93
        1
 44
0.0
173
     0
291
     0
 45
0.0
1001
ACAD
1000
AcDbSavedByObjectVersion
1070
     0
  0
VISUALSTYLE
  5
36
102
{ACAD_XDICTIONARY
360
BDB
102
}
102
{ACAD_REACTORS
330
29
102
}
330
29
100
AcDbVisualStyle
  2
Thicken
 70
    13
 71
     2
 72
     2
 73
     0
 90
        0
 40
-0.6
 41
-30.0
 62
     5
 63
     7
 74
     1
 91
        4
 64
     7
 65
   257
 75
     1
175
     1
 42
1.0
 92
       12
 66
     7
 43
1.0
 76
     1
 77
     6
 78
     2
 67
     7
 79
     5
170
     0
171
     0
290
     0
174
     0
 93
        1
 44
0.0
173
     0
291
     1
 45
0.0
1001
ACAD
1000
AcDbSavedByObjectVersion
1070
     0
  0
VISUALSTYLE
  5
30
102
{ACAD_XDICTIONARY
360
BCF
102
}
102
{ACAD_REACTORS
330
29
102
}
330
29
100
AcDbVisualStyle
  2
Wireframe
 70
     5
 71
     0
 72
     2
 73
     0
 90
        0
 40
-0.6
 41
-30.0
 62
     5
 63
     7
 74
     1
 91
        4
 64
     7
 65
   257
 75
     1
175
     1
 42
1.0
 92
        0
 66
   257
 43
1.0
 76
     1
 77
     6
 78
     2
 67
     7
 79
     3
170
     0
171
     0
290
     0
174
     0
 93
        1
 44
0.0
173
     0
291
     0
 45
0.0
1001
ACAD
1000
AcDbSavedByObjectVersion
1070
     0
  0
VISUALSTYLE
  5
3C
102
{ACAD_XDICTIONARY
360
BE7
102
}
102
{ACAD_REACTORS
330
29
102
}
330
29
100
AcDbVisualStyle
  2
X-Ray
 70
    25
 71
     2
 72
     2
 73
     1
 90
        1
 40
0.5
 41
-30.0
 62
     5
 63
     7
 74
     1
 91
        0
 64
     7
 65
   257
 75
     1
175
     1
 42
1.0
 92
        8
 66
     7
 43
1.0
 76
     1
 77
     6
 78
     2
 67
     7
 79
     3
170
     0
171
     0
290
     0
174
     0
 93
       13
 44
0.0
173
     0
291
     0
 45
0.0
1001
ACAD
1000
AcDbSavedByObjectVersion
1070
     0
  0
DICTIONARYVAR
  5
DB
102
{ACAD_REACTORS
330
D8
102
}
330
D8
100
DictionaryVariables
280
     0
  1
1:1
  0
DICTIONARYVAR
  5
DA
102
{ACAD_REACTORS
330
D8
102
}
330
D8
100
DictionaryVariables
280
     0
  1
STANDARD
  0
DICTIONARYVAR
  5
D9
102
{ACAD_REACTORS
330
D8
102
}
330
D8
100
DictionaryVariables
280
     0
  1
STANDARD
  0
DICTIONARYVAR
  5
BB7
102
{ACAD_REACTORS
330
D8
102
}
330
D8
100
DictionaryVariables
280
     0
  1
1
  0
DICTIONARYVAR
  5
BB6
102
{ACAD_REACTORS
330
D8
102
}
330
D8
100
DictionaryVariables
280
     0
  1
1
  0
DICTIONARYVAR
  5
BB5
102
{ACAD_REACTORS
330
D8
102
}
330
D8
100
DictionaryVariables
280
     0
  1
0
  0
DICTIONARYVAR
  5
BB2
102
{ACAD_REACTORS
330
D8
102
}
330
D8
100
DictionaryVariables
280
     0
  1
0
  0
DICTIONARYVAR
  5
BB3
102
{ACAD_REACTORS
330
D8
102
}
330
D8
100
DictionaryVariables
280
     0
  1
0
  0
DICTIONARYVAR
  5
BB1
102
{ACAD_REACTORS
330
D8
102
}
330
D8
100
DictionaryVariables
280
     0
  1
2
  0
DICTIONARYVAR
  5
BB0
102
{ACAD_REACTORS
330
D8
102
}
330
D8
100
DictionaryVariables
280
     0
  1
1
  0
DICTIONARYVAR
  5
BB4
102
{ACAD_REACTORS
330
D8
102
}
330
D8
100
DictionaryVariables
280
     0
  1
127
  0
DICTIONARYVAR
  5
BB8
102
{ACAD_REACTORS
330
D8
102
}
330
D8
100
DictionaryVariables
280
     0
  1
2
  0
DICTIONARY
  5
BF5
330
6B
100
AcDbDictionary
280
     1
281
     1
  3
ACAD_XREC_ROUNDTRIP
360
BF6
  0
DICTIONARY
  5
BF9
330
73
100
AcDbDictionary
280
     1
281
     1
  3
ACAD_XREC_ROUNDTRIP
360
BFA
  0
DICTIONARY
  5
BF7
330
6F
100
AcDbDictionary
280
     1
281
     1
  3
ACAD_XREC_ROUNDTRIP
360
BF8
  0
DICTIONARY
  5
1A
330
19
100
AcDbDictionary
280
     1
281
     1
  3
ACAD_XREC_ROUNDTRIP
360
BC1
  3
BUMPTILE
360
1C
  3
DIFFUSETILE
360
1B
  3
OPACITYTILE
360
1F
  3
REFLECTIONTILE
360
1E
  3
REFRACTIONTILE
360
20
  3
SPECULARTILE
360
1D
  0
DICTIONARY
  5
12
330
11
100
AcDbDictionary
280
     1
281
     1
  3
ACAD_XREC_ROUNDTRIP
360
BC0
  3
BUMPTILE
360
14
  3
DIFFUSETILE
360
13
  3
FBXASSET
360
171
  3
OPACITYTILE
360
17
  3
REFLECTIONTILE
360
16
  3
REFRACTIONTILE
360
18
  3
SPECULARTILE
360
15
  0
DICTIONARY
  5
22
330
21
100
AcDbDictionary
280
     1
281
     1
  3
ACAD_XREC_ROUNDTRIP
360
BC2
  3
BUMPTILE
360
24
  3
DIFFUSETILE
360
23
  3
FBXASSET
360
11C
  3
OPACITYTILE
360
27
  3
REFLECTIONTILE
360
26
  3
REFRACTIONTILE
360
28
  3
SPECULARTILE
360
25
  0
DICTIONARY
  5
BBB
330
67
100
AcDbDictionary
280
     1
281
     1
  3
ACAD_XREC_ROUNDTRIP
360
BBC
  0
DICTIONARY
  5
BB9
330
65
100
AcDbDictionary
280
     1
281
     1
  3
ACAD_ROUNDTRIP_2008_TABLESTYLE_CELLSTYLEMAP
360
BBA
  3
ACAD_XREC_ROUNDTRIP
360
BF3
  0
DICTIONARY
  5
BCD
330
2F
100
AcDbDictionary
280
     1
281
     1
  3
ACAD_XREC_ROUNDTRIP
360
BCE
  0
DICTIONARY
  5
BCB
330
2E
100
AcDbDictionary
280
     1
281
     1
  3
ACAD_XREC_ROUNDTRIP
360
BCC
  0
DICTIONARY
  5
BD9
330
35
100
AcDbDictionary
280
     1
281
     1
  3
ACAD_XREC_ROUNDTRIP
360
BDA
  0
DICTIONARY
  5
BE1
330
39
100
AcDbDictionary
280
     1
281
     1
  3
ACAD_XREC_ROUNDTRIP
360
BE2
  0
DICTIONARY
  5
BD3
330
32
100
AcDbDictionary
280
     1
281
     1
  3
ACAD_XREC_ROUNDTRIP
360
BD4
  0
DICTIONARY
  5
BD7
330
34
100
AcDbDictionary
280
     1
281
     1
  3
ACAD_XREC_ROUNDTRIP
360
BD8
  0
DICTIONARY
  5
BF1
330
41
100
AcDbDictionary
280
     1
281
     1
  3
ACAD_XREC_ROUNDTRIP
360
BF2
  0
DICTIONARY
  5
BDF
330
38
100
AcDbDictionary
280
     1
281
     1
  3
ACAD_XREC_ROUNDTRIP
360
BE0
  0
DICTIONARY
  5
BC3
330
2A
100
AcDbDictionary
280
     1
281
     1
  3
ACAD_XREC_ROUNDTRIP
360
BC4
  0
DICTIONARY
  5
BC5
330
2B
100
AcDbDictionary
280
     1
281
     1
  3
ACAD_XREC_ROUNDTRIP
360
BC6
  0
DICTIONARY
  5
BC7
330
2C
100
AcDbDictionary
280
     1
281
     1
  3
ACAD_XREC_ROUNDTRIP
360
BC8
  0
DICTIONARY
  5
BC9
330
2D
100
AcDbDictionary
280
     1
281
     1
  3
ACAD_XREC_ROUNDTRIP
360
BCA
  0
DICTIONARY
  5
BD1
330
31
100
AcDbDictionary
280
     1
281
     1
  3
ACAD_XREC_ROUNDTRIP
360
BD2
  0
DICTIONARY
  5
BED
330
3F
100
AcDbDictionary
280
     1
281
     1
  3
ACAD_XREC_ROUNDTRIP
360
BEE
  0
DICTIONARY
  5
BDD
330
37
100
AcDbDictionary
280
     1
281
     1
  3
ACAD_XREC_ROUNDTRIP
360
BDE
  0
DICTIONARY
  5
BEF
330
40
100
AcDbDictionary
280
     1
281
     1
  3
ACAD_XREC_ROUNDTRIP
360
BF0
  0
DICTIONARY
  5
BD5
330
33
100
AcDbDictionary
280
     1
281
     1
  3
ACAD_XREC_ROUNDTRIP
360
BD6
  0
DICTIONARY
  5
BEB
330
3E
100
AcDbDictionary
280
     1
281
     1
  3
ACAD_XREC_ROUNDTRIP
360
BEC
  0
DICTIONARY
  5
BE9
330
3D
100
AcDbDictionary
280
     1
281
     1
  3
ACAD_XREC_ROUNDTRIP
360
BEA
  0
DICTIONARY
  5
BE3
330
3A
100
AcDbDictionary
280
     1
281
     1
  3
ACAD_XREC_ROUNDTRIP
360
BE4
  0
DICTIONARY
  5
BE5
330
3B
100
AcDbDictionary
280
     1
281
     1
  3
ACAD_XREC_ROUNDTRIP
360
BE6
  0
DICTIONARY
  5
BDB
330
36
100
AcDbDictionary
280
     1
281
     1
  3
ACAD_XREC_ROUNDTRIP
360
BDC
  0
DICTIONARY
  5
BCF
330
30
100
AcDbDictionary
280
     1
281
     1
  3
ACAD_XREC_ROUNDTRIP
360
BD0
  0
DICTIONARY
  5
BE7
330
3C
100
AcDbDictionary
280
     1
281
     1
  3
ACAD_XREC_ROUNDTRIP
360
BE8
  0
XRECORD
  5
BF6
102
{ACAD_REACTORS
330
BF5
102
}
330
BF5
100
AcDbXrecord
280
     1
102
SHADEPLOT
 70
     0
102
SHADEPLOTRESLEVEL
 70
     2
102
SHADEPLOTCUSTOMDPI
 70
   300
  0
XRECORD
  5
BFA
102
{ACAD_REACTORS
330
BF9
102
}
330
BF9
100
AcDbXrecord
280
     1
102
SHADEPLOT
 70
     0
102
SHADEPLOTRESLEVEL
 70
     2
102
SHADEPLOTCUSTOMDPI
 70
   300
  0
XRECORD
  5
BF8
102
{ACAD_REACTORS
330
BF7
102
}
330
BF7
100
AcDbXrecord
280
     1
102
SHADEPLOT
 70
     0
102
SHADEPLOTRESLEVEL
 70
     2
102
SHADEPLOTCUSTOMDPI
 70
   300
  0
XRECORD
  5
BC1
102
{ACAD_REACTORS
330
1A
102
}
330
1A
100
AcDbXrecord
280
     1
102
MATERIAL
148
0.0
149
0.0
149
0.0
 93
        0
 94
      127
282
     0
 72
     0
 77
     0
171
     0
175
     0
179
     0
273
     0
  0
XRECORD
  5
1C
102
{ACAD_REACTORS
330
1A
102
}
330
1A
100
AcDbXrecord
280
     1
270
     1
271
     1
  0
XRECORD
  5
1B
102
{ACAD_REACTORS
330
1A
102
}
330
1A
100
AcDbXrecord
280
     1
270
     1
271
     1
  0
XRECORD
  5
1F
102
{ACAD_REACTORS
330
1A
102
}
330
1A
100
AcDbXrecord
280
     1
270
     1
271
     1
  0
XRECORD
  5
1E
102
{ACAD_REACTORS
330
1A
102
}
330
1A
100
AcDbXrecord
280
     1
270
     1
271
     1
  0
XRECORD
  5
20
102
{ACAD_REACTORS
330
1A
102
}
330
1A
100
AcDbXrecord
280
     1
270
     1
271
     1
  0
XRECORD
  5
1D
102
{ACAD_REACTORS
330
1A
102
}
330
1A
100
AcDbXrecord
280
     1
270
     1
271
     1
  0
XRECORD
  5
BC0
102
{ACAD_REACTORS
330
12
102
}
330
12
100
AcDbXrecord
280
     1
102
MATERIAL
148
0.0
149
0.0
149
0.0
 93
        0
 94
      127
282
     0
 72
     0
 77
     0
171
     0
175
     0
179
     0
273
     0
  0
XRECORD
  5
14
102
{ACAD_REACTORS
330
12
102
}
330
12
100
AcDbXrecord
280
     1
270
     1
271
     1
  0
XRECORD
  5
13
102
{ACAD_REACTORS
330
12
102
}
330
12
100
AcDbXrecord
280
     1
270
     1
271
     1
  0
XRECORD
  5
171
102
{ACAD_REACTORS
330
12
102
}
330
12
100
AcDbXrecord
280
     1
 70
     1
 90
1959938040
 71
     1
  1
CFE8AE2E-2FAA-41F6-AD4E-D5F7A79E5B90
311
504B03040A0000080000075931403DEE336E79000000790000001B0000006175746F6465736B2D64657369676E2D7061636B6167652E786D6C3C3F786D6C2076657273696F6E3D22312E302220656E636F64696E673D227574662D3822203F3E3C666F726D6174733E3C666F726D61743E687474703A2F2F736368656D612E
311
6175746F6465736B2E636F6D2F64657369676E2D7061636B6167652F323030393C2F666F726D61743E3C2F666F726D6174733E504B030414000608080007593140D486FD9CA0000000F4000000130000005B436F6E74656E745F54797065735D2E786D6C7D8EC10E82300C865F65E91D8A1E8C310C0EEA1BF002731658846E
311
D98AC1B77784ABF1D8FE5FBFBF75BBCE937A534CCEB38643598122B6FEE978D0B0485F9C41B54DDD7D022595594E1A469170414C76A4D9A4D207E29CF43ECE46F218070CC6BECC4078ACAA135ACF422C856C0E68EA1BF5669944DDD7BCDE7B1F8E415D77AECB980613C2E4AC91FC167A2B244592486606FC29C8FD7F045B9A
311
EF7053A7E60B504B0304140006080800075931403450052DEA0000007C01000008000000636F72652E786D6C8D90D18EC22010457F85CC3B2DB4D6D6866274AB5FB03F40002BD14253C0F8F94BB526BB6FFB34933BF7CC4C2EDB3FC73B7AE8D91B673BA01901A4AD74CAD8A183182EB801B4E76C762EFCB201B262D41D2C32
311
7036CC2E4EAB249D0DDA86A45AA7F42A0AEF750024EFA9E9C0CBAB1E452662480E7FCB26216F62D019FD74098ED128F43E6254DA672E46CFC04FBBA2EACF5F074CEAA6C41B5A57F8581CCFB83C55FDA1AC773D69B62C5F60CE82193FF7E5AC45D00A7841688109C5B4FEA6B4254D4B37986C5B4258BED8FF407152FF84A2B1
311
A12CD677DF98074ED323AF0167F992452AAFA0525D72E33F504B03041400060808000759314055019EA25F0000007C00000007000000636E782E786D6C4DCB3B0E80201045D1AD90E915ED2CF8AC45050C11660C8261F98AB1B07AC9C97D42D718D865D3E909258CFD00CCE24AC6E326A164D74DC0B4128928FF326038472B
311
A13128B1252AC747C6BAB984FC68F0B87FE8960A5C09FE86CFB69FBA01504B03041400060808000759314075C989B067010000020300000C0000006662782F636F72652E786D6C8D52ED8EC220107C15C27F0AD48FAA418C9EFA04F702D8628FD882A1D0F8F8B7B5353D2FC6982694CCECECCE4E2B36B7BA42ADF68D71768D
311
79C230D2367785B1E51AC770260B8C365278E7C29F328CACAAF51A773096A2F42E5E07287736681B00B5AED003A89A46078CF20A2E6BDCE43FBA56898A012A9A4B7255F945953AE109D0502745133C1840FD90EEC4F27CBA09DAE352C4688A8135054C3367A33D9687653ADB1FBFB684658B0999F26C4676E9EE482687D97E
311
3BC9967BB6980BDA89A508A67EB8CBBD56411758A68CA78471C2B36FCE576CB1E253C2E62BC604EDCA9F44F15A7C288AC686493AD8ED650D961C8CDC897FDB42440135AA053F540ADA8508AF7BC2CF414320107250A7EAB1C705A056E7C1F92930858B23D5AA2A6A98CAD0FD11B467A1F3BD016CF6B24FFAA6CFFB1EF00195
311
2DC19A0A703DC5D04D17FDD4218AABF6A40D37649DAF55359AEB2D8EE738E8A53C7795F39FA8E9B02A1DC2A4DDDF2B7F01504B030414000608080007593140435BB89D7E0000009D0000000B0000006662782F636E782E786D6C4DCCD10A83201886E15B91FFDCB2E6AA811AB6D97DC4B2904C87E9D8E5AF46073BFAE0E1E3
311
65ED67B5E8ADC366BCE350640490764F3F1A37734871C20DA056B0E07DFCBB0172C3AA391C0C82CDC1A7D749A39E8664E3AED6B8E54455F7978E4882A9EA2B4C8B7B87E5AD7CE09A28296555D2AB6A20172CFF95F63DC2E20B504B0304140006080800075931408C2DA0002C01000014020000310000006662782F45374633
311
423041302D344546362D343143422D413932442D3730454141413632343545382F636F72652E786D6C8D51CB6EC32010FC158B537AC006421C27C2444EEB7C417FC00192A2C460F1A8F2F985DA91DA5B2E2C9A9D991DEDB2C363BC17DFCA796D4D0B708940A18CB0529B6B0B62B8C0061407CE9CB5E10F0D146618550B320C
311
38BB3A1BA70512D6046542428D956A0107EF550085B8A74F0BBCF852E3500E312486BF95D3206EC35595B84CEDC4E3CC07970214F390FC02DE6F4FEB23EA10A4FDA98614BF1F61B7231F708BFAAEEB6A42377DC3AA59C8598C5A2E722D531C7DD1CABD6A92C59C053D3EE30BA786A024E0046102118678FB89F11E357B4C21
311
AAF708B12AD3FF89E2245F14456DC29A2C716799071CB36A6E70266D3CDF9F61D463B22E1479DECA2BF106382A11DE2142E89A5533352D2079D674F1F4C1BAB4E0D5ED9CD878331BD794B32ADF2895DF03A69AEFC97F00504B03041400060808000759314023749ED54C01000033030000300000006662782F453746334230
311
41302D344546362D343143422D413932442D3730454141413632343545382F636E782E786D6CD593BD6E032110845F05D1DF0FCEC9B12C0E4B29F20429D272B0B6893938F113C56F9FC5268E1B1729D3A0D3EC30B3FAC4F1DDD76CC9278468BC1B296B7B4AC029AF8D3B8C34A77DB3A1642778F03EDDD9287172869116990A
311
7E083E2F55D2B097D92654AD71A72A06883E070511E5729358AFA4C500704D4611E609B4064D6E46FCDA43C055509CCE241D81BCBEBC133F7D804A91772545F0AE74085ECEDA7467A2445919E348A33AC22C5B9993D7104FAD9649B6ACFDE97AB0D36F1229177E2A7330A4948FB49C54D48D5AE4C83B1C0A1E53407AD594CE
311
0B502197C51A251342EE2EC6AB47F06C5C5A0FD56B107C40375B3F0D03865D668227334375A8003281A662D5B355D3B3863DBF31B6ED375B3634FD7ADBF7BC2B76C127EF6DBD843110FC429477095CA282F1AE8C1FE1AB3EA24D40D63E9CFF001201D4D62B9D5BC67FE6D35DDE37E20AF817886F504B030414000608080007
311
593140544F39AB9B0500007B100000340000006662782F45374633423041302D344546362D343143422D413932442D3730454141413632343545382F6F626A656374732E786D6CAD575B8F9B3814FE2B887D868424D3CEAC18AA4C2E55D49DB66AD46A1F468A0C18C63BE622DB4C33FDF5FB190C81349966577D016CECE373
311
BEF39D8BFD77FB8C5BCF544856E4B7B6E78E6D8BE65111B33CBDB52B9538D7B6F52EF04551A8DE32DBCA49466F6D3D6D077E2A8AAA3453314D48C5D5D1ECFAEE6F4B4634A7B6157122E5AD2DA3479A119754AA88A97C7263A2889B267BD7739B8543B1A920E5E391D092089A2B688AF91C52AC46296F381CDBA3C01FE9FF81
311
AF9F66D5F4FCAA516DCFF07C964B45F2E8A7C38EC44CBDD97235B9BA71AE66B3A9337B33F19CBBF5DDD2F1DE4EC78B378BC5CD7C758383A5129064341134B183F7C046B0C81F35BF02BF62B99A4ECC12E3A091A0CF4C7BCA0E2696E78F9A359D75C6C853EA47459ED3A8C60A68D4F619D1312D691EC3E78C4A68D643683C1C
311
7A1AC7DEEFA91E9B23FBD39721D0DFD113D4EADEBEFB9A16E13F30415EC22021A9666083A531B4E1EAF880705814DCFC63D2CA88A282116E71160A225EEC004BF592C01F88D14C163A1AB40576002F34BF87744118FD9AE7A7B44C2ACE358DEDA08E821D62852A596BC67E5071D0BE8F0C7482AF341BAE8D41EAA5A47670D3
311
50E4FA884D0D9056C2490A97C34CBD733A393274A1E374B3B4830FEB70BFD5B17BFAF0521425154AD307D46A1DD7BE354A4627EF22CFE90DF6912A0750BE00F98F08F5832AF09B60FBD97E664E5182E432294406DF5863CB19E331B6BCFAA9BF7B5FFEA8DB3CF4DE393CE16C0DD56FC0736843DF973D3803FF19842FC4D498
311
B68D0847DAB8673900D224B1788129E4E124DCDBC106590E5919BB080F3C980C759FF1E98F8C18248AFAA4DE3B07964769F182040DD86A46428D86FC46C1839F7E4A67F5C166D93978AF7E0B5DE7CBED876D251212D17B13D34B9AB09C2994B8036FFA0A0D301F58F4445FBE172286A13FE3BDEDE39D99A324D0D6986BE0D3
311
36A7EBC1E1E4C10111F6A5854E37FE2F4E8011BAB0F6E4DF331951CE494E8BAA3DF7D5FA81B2D140AC835D33B92B3087C202D2347F8E6210453A12ACD42076D5AA4B9AEE19EBBE6E3E82917670F7F21779E967AFF0907BA382176217BEEC9AB47412EA6F436E1B0C465A0AE85E07491BFF06F45DCC92A49248822770FDB659
311
F47DA7D30252442BB5899619EC4770116148DBCA45B5160495B4C8770C75137177F280BE7C406A18500B3CA7B1A43CD931CEAB6C97308E6AB4CB4879068EFFAF7F5865E58E644595AB33B207AAA33A0C751FB0577E272A7AB4836DFD76EE907B631A9F2183AE2527B01AB876B15E5DCF5793953359CFE7CECC5BBF71E6CBD9
311
CA595EADDFCEDFDEACAEEE6E0E1AD54D54E0B7A5A61FD1F0124A9B5F0966DCF77583F83149C00EEE89920FEF9BF06CDF5F372E7A617F843DA897DDC679FC8CBE8FC6BF1670587952D0262B39CD68AE888EA17BFDC1BF10F41903659AF94D46527A81944FEFB747C660E6827D9F75BCD3EF477BCDEC4207E44921EAB1CAC29C
311
307EB4316D9074CB3C35F8B53EE9DE4DA169877A641C83CE54169CC5C883B195D222A30AD9F0822224322A41BD7E4F1F9BBBC705BB9F9B0E519190D35693478226994B8405485E456A386FFD81A64EF755B736CAADFB8487C914B605CEDCDA68D2158BA874431468DD0AD5C2C1A57E270FCE923CE5E8B59B4DDDB8DBA5B119
311
94E46EC925FD93B1AB49E1C600A491127D031A2278A75626F06BDDCCFFE83F19DEAA631185CFB0529D2D8789CE98FA1884686394B92DA089793247EF11A8AF9BE5B9F59A012217DDB25E254123D55144A4F54D41EB67549A2F3F8FD0A1589B4F56C9AB14BEBC5C922328C85CE900078BC00A23B3240A545DFCF9F05914B8C9
311
66D69A81020F8B22CB8ADC0CE6E6266C6D1F71AF8D1F9016A8BE90C887C9D89B3CD417017337D985445297C4F20913F0A9601DC403C78391CD6D1115A8F9D1AD1B69271C7173B3B44C499B41A8214A3FAB6A58D072E4D442F4E8CBA48E95FE82F2D5BBC0A85E0A1504BAF8E05F504B03041400060800000759314000000000
311
0000000000000000350000006662782F45374633423041302D344546362D343143422D413932442D3730454141413632343545382F76657274696365732E62696E504B030414000608080007593140F270F1330600000004000000360000006662782F45374633423041302D344546362D343143422D413932442D37304541
311
41413632343545382F747269616E676C65732E62696E636660600000504B030414000608000007593140000000000000000000000000370000006662782F45374633423041302D344546362D343143422D413932442D3730454141413632343545382F617474726962757465732E62696E504B030414000608080007593140
311
D5987DFC8F00000041010000360000006662782F45374633423041302D344546362D343143422D413932442D3730454141413632343545382F6469726563746F72792E786D6C858F410EC2201045AF4266AF15DDB800BA74E7C21B903225242D6328188F2FA5C4183471359997F9FF81E89FF3C41E1816475E02DF1F80A11F
311
C8386F25A438EECEC07A250251FC3803E6F58C12560C4AD840E95E91C151A72936F496F35732D860FE635F62C8F2DA16B505C545B74125BAA2FA9E05D7CC053D063734D5C7665FD55B6B8D15D5E9BFEAFD8490FFA45E504B030414000608080007593140899966ECFD000000A00100003B0000006662782F45374633423041
311
302D344546362D343143422D413932442D3730454141413632343545382F7265736F75726365732F636F72652E786D6C8D50596EC23010BD4A34FF4EEC04C822C7A81438412F60390358101B79A97AFCDA2495DABFFECC8CDEA2797A7CFF353F8A4F745E5B33022B291468949DB4B98E10C3857450EC0577D6865F32288C9C
311
71840C83E05767E373859435014D48A8B113AEA0F41E0314EA918E11BCBAE12C4B194352F87BF994EA2EAF58B232D14927B80F2E05289627798270E86D740A3DAF1656F018F5B46AF4947EEA8B4607E2D4D7DBE3F9BD27B4ED1AB261ED961CEAC39934A7EDF1AD69FB23ED76BCCA66C1839E7F322A8732E004A2A6AC269411
311
D67E3036D06E601B427703A5BCCAF23FA6F89CFE698ADA84A65EE32E360F82A5202F42F02AF795D6ABCCB473B7E21B504B010214000A0000080000075931403DEE336E79000000790000001B00000000000000000000000000000000006175746F6465736B2D64657369676E2D7061636B6167652E786D6C504B0102140014
311
000608080007593140D486FD9CA0000000F40000001300000000000000000000000000B20000005B436F6E74656E745F54797065735D2E786D6C504B01021400140006080800075931403450052DEA0000007C010000080000000000000000000000000083010000636F72652E786D6C504B01021400140006080800075931
311
4055019EA25F0000007C000000070000000000000000000000000093020000636E782E786D6C504B010214001400060808000759314075C989B067010000020300000C00000000000000000000000000170300006662782F636F72652E786D6C504B0102140014000608080007593140435BB89D7E0000009D0000000B0000
311
0000000000000000000000A80400006662782F636E782E786D6C504B01021400140006080800075931408C2DA0002C0100001402000031000000000000000000000000004F0500006662782F45374633423041302D344546362D343143422D413932442D3730454141413632343545382F636F72652E786D6C504B01021400
311
1400060808000759314023749ED54C010000330300003000000000000000000000000000CA0600006662782F45374633423041302D344546362D343143422D413932442D3730454141413632343545382F636E782E786D6C504B0102140014000608080007593140544F39AB9B0500007B1000003400000000000000000000
311
000000640800006662782F45374633423041302D344546362D343143422D413932442D3730454141413632343545382F6F626A656374732E786D6C504B01021400140006080000075931400000000000000000000000003500000000000000000000000000510E00006662782F45374633423041302D344546362D34314342
311
2D413932442D3730454141413632343545382F76657274696365732E62696E504B0102140014000608080007593140F270F13306000000040000003600000000000000000000000000A40E00006662782F45374633423041302D344546362D343143422D413932442D3730454141413632343545382F747269616E676C6573
311
2E62696E504B01021400140006080000075931400000000000000000000000003700000000000000000000000000FE0E00006662782F45374633423041302D344546362D343143422D413932442D3730454141413632343545382F617474726962757465732E62696E504B0102140014000608080007593140D5987DFC8F00
311
0000410100003600000000000000000000000000530F00006662782F45374633423041302D344546362D343143422D413932442D3730454141413632343545382F6469726563746F72792E786D6C504B0102140014000608080007593140899966ECFD000000A00100003B0000000000000000000000000036100000666278
311
2F45374633423041302D344546362D343143422D413932442D3730454141413632343545382F7265736F75726365732F636F72652E786D6C504B0506000000000E000E00800400008C1100000000
310
504B03040A0000080000075931403DEE336E79000000790000001B0000006175746F6465736B2D64657369676E2D7061636B6167652E786D6C3C3F786D6C2076657273696F6E3D22312E302220656E636F64696E673D227574662D3822203F3E3C666F726D6174733E3C666F726D61743E687474703A2F2F736368656D612E
310
6175746F6465736B2E636F6D2F64657369676E2D7061636B6167652F323030393C2F666F726D61743E3C2F666F726D6174733E504B030414000608080007593140D486FD9CA0000000F4000000130000005B436F6E74656E745F54797065735D2E786D6C7D8EC10E82300C865F65E91D8A1E8C310C0EEA1BF002731658846E
310
D98AC1B77784ABF1D8FE5FBFBF75BBCE937A534CCEB38643598122B6FEE978D0B0485F9C41B54DDD7D022595594E1A469170414C76A4D9A4D207E29CF43ECE46F218070CC6BECC4078ACAA135ACF422C856C0E68EA1BF5669944DDD7BCDE7B1F8E415D77AECB980613C2E4AC91FC167A2B244592486606FC29C8FD7F045B9A
310
EF7053A7E60B504B030414000608080007593140EA11A16AE80000007C01000008000000636F72652E786D6C7590416EC3201045AF82668F0D7612BB16266AE4DEA0174030495162B00C543D7E2171A466D1CDCCE8F31F33FAE2F833DFC837AEC17A3702AF181074DA1BEB2E23A478A63D90A314ABF7F18F0D8853338E5064
310
90E2B2FAB46C92F62EA28B5975DEE026AA103002D1B73C8C10F417CEAA52296647B8568BD25775C18A3FA70CA7640D792CB126FF67CF1657901FFBB7A6EDBA8EEE783FE532F5F4BD3B95C2A67DD69BC3A9157581A588767EEED72BAA880664C3784319A7BCFBE47C60FDC05BCA0E0363A22EF617282DE63F68F70A25EB62DB
310
6CE73EB00092E743EE0F52D4258BDCEE41E55E7293BF504B03041400060808000759314055019EA25F0000007C00000007000000636E782E786D6C4DCB3B0E80201045D1AD90E915ED2CF8AC45050C11660C8261F98AB1B07AC9C97D42D718D865D3E909258CFD00CCE24AC6E326A164D74DC0B4128928FF326038472BA131
310
28B1252AC747C6BAB984FC68F0B87FE8960A5C09FE86CFB69FBA01504B0304140006080800075931401FCC0B0A61010000020300000C0000006662782F636F72652E786D6C8D52ED8E8320107C15C27F05B4AD5E8334D7F4DEE05E802AF548150C82E9E3DFFAD178BD344D63B292D99DDDD9017EB8B50D1A94EBB535056631
310
C54899D256DAD4050EFE12E5181D0477D6FA3F651819D9AA028F3016BC7636740B545AE395F1801A5BA905947DAF3C4665038702F7E58F6A652C83878AFE1A77B2BCCA5AC52C8634D409DE7B0702D03C648C585CCE374E665CF01074B5647505D3F4452B87C5D7F62349B32C8B362C3F4138E5D167761C033D6D014F76C794
310
93912CB8D7ED5D5DE994F4AAC222A12C89288B58F6CDD89EE67B964674B7A79493B1FC8114BAEA4D52D0C6A7C92277A6F55830103225FE6D0B1679D4CB01F410C1C96822FC26871F8D0643C0642FCFCD7D8F2B40832ABD751BC85436ACA9413641C1548AA68F93390B9DA706B0D9D33EC98B3EAF7BC0054A538334E9E1780E
310
7E9CCEE7A98B159D72D1E06FC858D7CA6615374B5CE33AE829BDB48D75EFB0C9B22A59CC24E3EB15BF504B030414000608080007593140031018167D0000009D0000000B0000006662782F636E782E786D6C4DCCD10AC2201805E05791FFDEE696840375FC351F64343724A7611A3D7E2E76D1CD39F0713872F86C9EBC6D7A
310
B91814B42706C4867B9C5D581594BC500164D032C598FF6640C2B459053B83966B8AE579D06C97A9F85CD5BBF038B0C71EF9E5C6297642506E3A41AF630D34783666E42D63021A2D9BDF53EDFD587F01504B0304140006080800075931405487CCF02901000014020000310000006662782F39413941343643342D41323838
310
2D344532382D424432382D4145413345454434313030382F636F72652E786D6C8D51CB6EC32010FC15C4293D60836DD94E8489DCC67FD01F20405294182C1E553EBF503B527BCB8545B333B3A35D7A7CCC77F0AD9CD7D60C90141802658495DA5C0718C305F5101C1975D6863F34080C9FD500330C19BD3A1B970D12D60465
310
42428D956A03B9F72A4020EEE933402FBED4CC0B1E4362F85BB17071E357559022B5138F511F5C0A00D621F9856C3FEEC7A6FD68D058F53D6AA6AA47EFA7F48CD3584FD3A92118F7B45C858CC6A8E526D732C5D117ADDCAB2659CC68D0F333BE708A072521AB30A9102688749F841C707F2035C2ED01635A66FA3F515CE48B
310
A2A84DA8AB2DEE2AF390115AAE0D46A58DE7FB338C7A2CD60590E7EDBC126F90E102937DD7E1BEA3E54A4D0B489E6DB379FA605D5AF0EE764EEC7A336E1B46CB7CA3547E0F986ABE27FB01504B03041400060808000759314003BEBC4D5401000033030000300000006662782F39413941343643342D413238382D34453238
310
2D424432382D4145413345454434313030382F636E782E786D6CBD93CD6EC32010845F0571F70F49E45A1126520F7D821E7AC5B04969305880ABE6EDBB2424CD25874A552FC89A1D66569F30DF7D4D967C4288C6BB81B2BAA5049CF2DAB8C34097B4AF7A4A768207EFD39D8D122727186896A9E087E097B9481AF672B10955
310
6BDCB18801A25F82828872BE49AC57D26200B86A4111A611B4064D6E46FCDA43C055501C4F24BD0379797E237EFC0095226F728AE04DEE103C9FA5E9CE4489B232C68146F50E93ACE592BC8678ACB54CB266F5B5EBC14E3F49245FB8562EC1905C3ED07C525136AA91236F7028784C01E915533ACD40859C676B944C08B939
310
1B2F1EC117E352B7295E83E003BAD7ABAEEF31EC3C133C99098A430590093415AB96ADAA9655ECE995B16DDB6FD9BA6ABB6DDBF226DB051FBDB7E512C640F03351DE2570890AC69B3C7E84AFF888360159FB70FA054804505A2F746E197FC98775EBCDE61FF934E7F78DB802FE05E21B504B03041400060808000759314099
310
0443295A070000941B0000340000006662782F39413941343643342D413238382D344532382D424432382D4145413345454434313030382F6F626A656374732E786D6CED59DD739B3810FF5718EED9D8D84EDBDC103A8E9D743CBDB49DFADAB987CC3032C84417211849A4F1FDF5B7FA00033109BEE6DEFA6003425AEDFEF6
310
534BF0FE31A3CE03E682E4ECC2F5BD89EB6016E70961E9855BCADDE89DEBBC0F039EE7B231CD7518CAF085AB86DD3048795E167628C13B5452D919BDBEFCCB113166D875628A84B870457C8733E4A152E60916F75E8224F2D2DDA3E77B66629B6CCA5171D7215A208E99044E619C0115C730E5B71F27EE380CC6EA7D18A87F
310
3B6B3668D6BC7FD6584BDDE6923021118B9FB0D421331BC4D2CC9FAFAEA667E7A3B3F97C369ABF99FAA3CBEBCBD5C87F3B9B2CDF2C97E78BAB73606F9BE7D4CA94E002B304F4B777433F18AB37B5E81681635CC7396338D64002545AAC2E4182056CD5806FD27EF495448DD75AC2C6F35CBDB72C3486676D2A7DB38601D1A2
310
0B82D8ED2A89AB6B53BE7CFB37082E861825175802B74272D0AE85878357B8E124189BD130D81E7441849321893941D4A164CB1107A5C05435250CCC024B46390707528E92406BCEBC6EDB1678E6CBAE738CCB5D49A9F20C37D48E1581FB61293467E41FCC0FDC3791019E40DA9230F9CE7229F70576C3F360AC07C3405D66
310
53FBD200E9EC284A8546C4BCED08BA54AEBF5EB9E1C7EBEDE3468583E39B173C2F3097CAE8941E355F60C8F6AA50B2DBFA8334A71680300654BBF200CA5740FE13448F032BA0374E1EE78F733B5772C4C42EE719E8C69938A309FC4D1C5FFFABFBC65D30AE17B7B5D78727B8A982EADDCFE3D996416365F96FC019060F60F0
310
399FD9579B1851B0E71BC2002065240ECD610842FB6EFBE8866B089C10E86115A2A10F2203BB0F701B8C2D9983562AF7B25EC70051BBC76C889200366D91C0468F9E3E40F6E0243EA8A929621FBC67AF62AE8BD5E6E3A6E43B14E31BEBD32BBC238C48C89AC7196A61DE92E81EEF7FE43C01419FE2BD69E29DD9AD04A0AD30
310
57C0A71508EAE1B0736B8318D6A5B90A37C10B3B80102A5737E8DF1011634A11C37959ED5B473765A8B5C7DB9AC10DA706E2D9B463C21C3F10555580D31C66B41885BC1F73522810DDF08391AC0E9A5E8F74DFD69FC022EBF93DB3D60C422F43F44F1DB48EE0D0B2EC0A690B442DF0F610CEE39CE63CDAEE2313E95CA82580
310
8DB6B77C6F1185586F94A4A8800769BFAB424A6AA48D12B2DB9502E2EA1116BFAF974D73987833FFCC69FE779C710ED1167C1771EB779D3D2292A114473B94F46DD7DCADA62D34C91ED21CEF28C8451E88DC4748469304A7A7407312F1F357A59ED25C08C2B0807C7514FC261A130F0289D166C5B2D26A076822A20C4B444F
310
414091E90157A71D5DE3C6503ABCCC636DBDCF69AC49F47FB2088EA096CC5944A014851CF222E3BE770631A48DAE41B9832F585B455B8B414B2821E27DF40393F44E9E82BA21DF837B0C4792524679816230EB01649FF88A526A87F72D8AEF55FE88E292BE9681084C7711A1B4CC22F81106278F21AE5D07A66751681037B1
310
4FE20C8A32244B3E649337679327FB989AA11B021B1BED0885B01D65A8E841BD1510753DE2D4E05BEA3D4ADD965911A12C2FD92043F1665D6FB2E4BB6A556407F2AB4A45281B2BC29660181026EBAC5AC56C30751D58C18D74A0DA4702650535A7B017128F5F7B93A6DCBB01B77EFABA1B6450F8F568AF1951E7150C96C756
310
61207E2019DFB9E1465F4797507F273839A4FAAAD66C568080988AE425275645DFD650DED81ACD0D6F9014B71F4CD6ADAEDFD61E743F8231AC81DAA55EB85640679849A42A931B7543BF2208C12D1A667CAD72EA29541649A2AB4644AF499F3A5B65446BD38C78C51D6679063F764B584CCB04DFA244DC473792461BA258B7
310
527A19A9307E56C0CF1F361D78606480485F5481877F74D6DAD1A52A978E12917765B6658840106C89961ADD78054BAD462A2DD75775A680BA0B0CCCAA78FEEB64D16C47FC3A59A4D6307EEA6471B9FF03ED9B7D91463A8F955D9F740CA8F393A2F21AC700DD76A8A9D659C424732BBF75A608826215E507576355D03004FB
310
38FECF59BB2F0B9AED3AFC9F96B5FD2715C74959A5355975A98E54AEEB660E5B5E5FBD5B5C4DAF46D3EBC56234F7AFDF8C16ABF9D5687576FD76F1F6FCEAECF2FCC09176D430A88399CE5DF06C825A35AC9E2C06D095153925099CE61327C510F3259CE907B4CF79860524CF66B33BB14DF901AB1F4C9F53A22DC515277708
310
1AC454405A078CCA58B6C79DDFA03529E1A07DE142D3C8BB873F6B95AE0399E7C2855681243116DE16DA4CAAA1A78943CAD5B9DF12037C104B554A348BEAE77A95C2A615FEEB2943D28095ABD5C380C2AD80EE57AB43A179B33CC527095EB1E32009B7DB5242B56664390CD4C2E86D0EEA37B251C2EEEDD68FE0BACF8BE57B
310
7A4E0B91419F0C9E3502437524114F75BF5B3166595AACBE8CA1CFE6AC3F3B052D53D0E5704A238EC1984B555081158155589A059260AACBDF6FBFF01C3EF1648EAE8A6E977996E5CC3E2CE03C96C027226773071F7C925B281BB06AAB8BDBE9C49FDEEA76B6EDB0475B24B0A7EA2118A8CA082542C7D8C0229FB4A66CE372
310
AC94D099BE5E39367C421BC058D093EEAEF9BCE580F7A80F29CA57B48757723EDBD11EEBA9600D1C7AD1E1BF504B030414000608000007593140000000000000000000000000350000006662782F39413941343643342D413238382D344532382D424432382D4145413345454434313030382F76657274696365732E62696E
310
504B030414000608080007593140F270F1330600000004000000360000006662782F39413941343643342D413238382D344532382D424432382D4145413345454434313030382F747269616E676C65732E62696E636660600000504B030414000608000007593140000000000000000000000000370000006662782F394139
310
41343643342D413238382D344532382D424432382D4145413345454434313030382F617474726962757465732E62696E504B030414000608080007593140D5987DFC8F00000041010000360000006662782F39413941343643342D413238382D344532382D424432382D4145413345454434313030382F6469726563746F72
310
792E786D6C858F410EC2201045AF4266AF15DDB800BA74E7C21B903225242D6328188F2FA5C4183471359997F9FF81E89FF3C41E1816475E02DF1F80A11FC8386F25A438EECEC07A250251FC3803E6F58C12560C4AD840E95E91C151A72936F496F35732D860FE635F62C8F2DA16B505C545B74125BAA2FA9E05D7CC053D06
310
3734D5C7665FD55B6B8D15D5E9BFEAFD8490FFA45E504B0304140006080800075931404EC506B4F8000000A00100003B0000006662782F39413941343643342D413238382D344532382D424432382D4145413345454434313030382F7265736F75726365732F636F72652E786D6C8D504B6E833010BD0A9A3D60438329328E
310
1AD11BF4029699102BC146FE543D7EED40A576D7CDCCE87D344F8F9FBFD647F189CE6B6B46A01581028DB2B336CB08315CCB1E8AB3E0CEDAF04B0685912B8E9061107C71366E07A4AC096842428D9DF100A5F718A0508F748CE0D50D5759C91892C2DFAB4DAABB5CB0A255A2934E701F5C0A50EC4FF204E1D0DBE8147A5EEF
310
ACE031EAF9D0E839FDD4578D0EC4FBE9B56919EBCA17DA4F694C7DF9C62E7990E9C4186BBA4BCBEB6C163CE8F527A3722803CE201A429B92D092B20F4A07D20FB42D493710C2EB2CFF638ADBFC4F53D426B4CD1177B779103405791282D7B9AFB49E65A69DBB15DF504B010214000A0000080000075931403DEE336E790000
310
00790000001B00000000000000000000000000000000006175746F6465736B2D64657369676E2D7061636B6167652E786D6C504B0102140014000608080007593140D486FD9CA0000000F40000001300000000000000000000000000B20000005B436F6E74656E745F54797065735D2E786D6C504B01021400140006080800
310
07593140EA11A16AE80000007C010000080000000000000000000000000083010000636F72652E786D6C504B010214001400060808000759314055019EA25F0000007C000000070000000000000000000000000091020000636E782E786D6C504B01021400140006080800075931401FCC0B0A61010000020300000C000000
310
00000000000000000000150300006662782F636F72652E786D6C504B0102140014000608080007593140031018167D0000009D0000000B00000000000000000000000000A00400006662782F636E782E786D6C504B01021400140006080800075931405487CCF0290100001402000031000000000000000000000000004605
310
00006662782F39413941343643342D413238382D344532382D424432382D4145413345454434313030382F636F72652E786D6C504B010214001400060808000759314003BEBC4D54010000330300003000000000000000000000000000BE0600006662782F39413941343643342D413238382D344532382D424432382D4145
310
413345454434313030382F636E782E786D6C504B0102140014000608080007593140990443295A070000941B00003400000000000000000000000000600800006662782F39413941343643342D413238382D344532382D424432382D4145413345454434313030382F6F626A656374732E786D6C504B010214001400060800
310
000759314000000000000000000000000035000000000000000000000000000C1000006662782F39413941343643342D413238382D344532382D424432382D4145413345454434313030382F76657274696365732E62696E504B0102140014000608080007593140F270F13306000000040000003600000000000000000000
310
0000005F1000006662782F39413941343643342D413238382D344532382D424432382D4145413345454434313030382F747269616E676C65732E62696E504B01021400140006080000075931400000000000000000000000003700000000000000000000000000B91000006662782F39413941343643342D413238382D3445
310
32382D424432382D4145413345454434313030382F617474726962757465732E62696E504B0102140014000608080007593140D5987DFC8F0000004101000036000000000000000000000000000E1100006662782F39413941343643342D413238382D344532382D424432382D4145413345454434313030382F6469726563
310
746F72792E786D6C504B01021400140006080800075931404EC506B4F8000000A00100003B00000000000000000000000000F11100006662782F39413941343643342D413238382D344532382D424432382D4145413345454434313030382F7265736F75726365732F636F72652E786D6C504B0506000000000E000E008004
310
0000421300000000
  0
XRECORD
  5
17
102
{ACAD_REACTORS
330
12
102
}
330
12
100
AcDbXrecord
280
     1
270
     1
271
     1
  0
XRECORD
  5
16
102
{ACAD_REACTORS
330
12
102
}
330
12
100
AcDbXrecord
280
     1
270
     1
271
     1
  0
XRECORD
  5
18
102
{ACAD_REACTORS
330
12
102
}
330
12
100
AcDbXrecord
280
     1
270
     1
271
     1
  0
XRECORD
  5
15
102
{ACAD_REACTORS
330
12
102
}
330
12
100
AcDbXrecord
280
     1
270
     1
271
     1
  0
XRECORD
  5
BC2
102
{ACAD_REACTORS
330
22
102
}
330
22
100
AcDbXrecord
280
     1
102
MATERIAL
148
0.0
149
0.0
149
0.0
 93
        0
 94
      127
282
     0
 72
     0
 77
     0
171
     0
175
     0
179
     0
273
     0
  0
XRECORD
  5
24
102
{ACAD_REACTORS
330
22
102
}
330
22
100
AcDbXrecord
280
     1
270
     1
271
     1
  0
XRECORD
  5
23
102
{ACAD_REACTORS
330
22
102
}
330
22
100
AcDbXrecord
280
     1
270
     1
271
     1
  0
XRECORD
  5
11C
102
{ACAD_REACTORS
330
22
102
}
330
22
100
AcDbXrecord
280
     1
 70
     1
 90
1959938040
 71
     1
  1
CC644D76-2A76-41C6-A370-069D853910F8
311
504B03040A0000080000065931403DEE336E79000000790000001B0000006175746F6465736B2D64657369676E2D7061636B6167652E786D6C3C3F786D6C2076657273696F6E3D22312E302220656E636F64696E673D227574662D3822203F3E3C666F726D6174733E3C666F726D61743E687474703A2F2F736368656D612E
311
6175746F6465736B2E636F6D2F64657369676E2D7061636B6167652F323030393C2F666F726D61743E3C2F666F726D6174733E504B030414000608080006593140D486FD9CA0000000F4000000130000005B436F6E74656E745F54797065735D2E786D6C7D8EC10E82300C865F65E91D8A1E8C310C0EEA1BF002731658846E
311
D98AC1B77784ABF1D8FE5FBFBF75BBCE937A534CCEB38643598122B6FEE978D0B0485F9C41B54DDD7D022595594E1A469170414C76A4D9A4D207E29CF43ECE46F218070CC6BECC4078ACAA135ACF422C856C0E68EA1BF5669944DDD7BCDE7B1F8E415D77AECB980613C2E4AC91FC167A2B244592486606FC29C8FD7F045B9A
311
EF7053A7E60B504B0304140006080800065931404A12640BE80000007C01000008000000636F72652E786D6C8D90D16EC3200C457F05F99D149334AD2242B5B5EA17EC0710D014B58128C0B4CF2F6953697BDB93ADEB7B6CEB8AC3CF7827DF768E2EF81EB06240ACD7C1383FF490D385EE811CA4984348BF6C40BC1A6D0F8B
311
0C520C73C8D32AE9E093F5A9A83E18BB8A2A469B80E87B697A88FA6A4755A99C8A23DEAA49E99B1A6C85EFAEC0393B435E479C29FBDCC5D919647B3E36EC7CE214DB0F4E9BD38ED14FBE6D68DDB46D835BCEB16662B3C0522437BEEFEBD9AA640D48CE90538614775F881DDB775853D676AC408BFD0F9427F34F283B9F6ABE
311
BEFBC222482C8F3C07526C962C4A790655EA929B7C00504B03041400060808000659314055019EA25F0000007C00000007000000636E782E786D6C4DCB3B0E80201045D1AD90E915ED2CF8AC45050C11660C8261F98AB1B07AC9C97D42D718D865D3E909258CFD00CCE24AC6E326A164D74DC0B4128928FF326038472BA131
311
28B1252AC747C6BAB984FC68F0B87FE8960A5C09FE86CFB69FBA01504B0304140006080800065931404775AEEE64010000020300000C0000006662782F636F72652E786D6C8D52ED8E8320107C15C27F14D0DAA6419ABB6BFA04F70254A967AA60104C1FFFD68FC6EBA5691A1324333BBBB3A3E2706B1B3468D7D7D6E49845
311
14236D0A5BD6A6CA71F017B2C3E82085B3D6FF29C3C8A856E77884B11495B3A15BA0C21AAF8D07D4D8522FA0EA7BED312A1AB8E4B82F7E74AB22153C54F4D7A853C555553A6211D0502745EF1D1840F390F1C4F272BE8978C6A508A12E17B62E615A7DA9B5C3323B7DA5F474E484651F9CA4C72D259F7C939224CDB2946D38
311
670915F12896C2D7EDDD5DE1B4F2BAC49253C60965846DBF19DBD3DD9E2584667B0AA2B1FC4114BAF24D51A88D4FF8627796F55832303211FFB685883CEAD5007E6229E23144784D093F060D8140C85E9D9BFB1E5780065D78EB52604A1B566A504DD03095A2E911F1CC42E7A9016CF6B40F7FD1E7750FF880CA54604D79B8
311
9E831FA78B79EA1245A71D19FC0D19EB5AD5ACE6668BEBB90E7A2A2F6C63DD3BEA7859355EC28CC7BF57FE02504B0304140006080800065931406BC9B53D7E0000009D0000000B0000006662782F636E782E786D6C4DCC410E83201445D1AD903F4711B4760018C1761FA6A2212234149A2EBFDA38E8E825272F97779FCDA1
311
B7892F1BBC80AA20808C7F84C9FA45404E33BE02EA248F21A4BF1B203F6E46C0C120F912437E9E349979CC2EEDEAAC5F4F64F78A36374D714F498B6BA63456036B31D18C325AAB415F1A28252F7FA57D8FB0FC02504B0304140006080800065931408323C2122C01000014020000310000006662782F33463132354543322D
311
413230372D343342432D424433372D3043333233323442444336352F636F72652E786D6C8D51CB6EC32010FC158B537AC0E6E1380F61A2C669BFA03F4081A42831583CAA7C7EA176A4F6960B8B66676647BBEC701F6FD5B7F6C138DB035C2350692B9D32F6D28314CF700BAA0367DEB9F887062A2B46DD830203CE2EDEA569
311
81A4B351DB9851EB945E4011828EA092B7FCE941905F7A14B5483133C2B59E84BC8A8BAE719DDB99C759883E07A8E621E5059CBE63B27E1B087C2568035B7A1CE0F14437100D9450D21E4F43B766CD2CE42C25A316B951398E391BED9F352962CEA2191FF1A5D7226A05384198408421DE7C60BC47DB3DA610757B845853E8
311
FF4469524F8A92B1919225EE2C0B8063D6CC0DCE944B9FB747187D9F9C8F5599B70A5ABE008E6A84776BBC43843533352F207B76EDE219A2F379C1ABEB6766E3BCA662DCB59C35E546B9FC1E30D7724FFE03504B0304140006080800065931406519735A4C01000033030000300000006662782F33463132354543322D4132
311
30372D343342432D424433372D3043333233323442444336352F636E782E786D6CD593CD6E022114855F85B09F1FD45863184CBAE81374D12D0357A53230E1A7A96FDF8BA275E3A2CB6EC8E4DCC339375F18BEFB9E2CF982108D7703656D4F0938E5B5718781E6B46F3694EC040FDEA7071B254E4E30D02253C10FC1E7B94A
311
1AF632DB84AA35EE54C500D1E7A020A25C6E12EB95B41800AEC928C23482D6A0C9DD885F7B08B80A8AE399A42390B7D70FE2C74F5029F2AEA408DE950EC1CB599B1E4C94282B631C68544798642B73F21AE2A9D532C996B5B7AE273BFD269172E156998321A57CA0E5A4A26ED42247DEE150F09802D2ABA6749E810A39CFD6
311
2899107277315E3D8267E3D27A55BD06C10774B3F572B5C2B0CB4CF06426A80E154026D0542C7AB6687AD6B09777C6B6FD66CB964DBFDEF63DEF8A5DF0D17B5B2F610C043F13E55D0297A860BC2BE367F8AA8F681390B50FE73F804400B5F54AE79EF19FF97497F78DB802FE05E207504B0304140006080800065931407830
311
D399990500007A100000340000006662782F33463132354543322D413230372D343342432D424433372D3043333233323442444336352F6F626A656374732E786D6CAD57DB6EDB3810FD1541FBEC8B6C274D168A0AC76E0AA3481BD468B10F010C4AA2146E285120A9D4D9AFDF4389BAB976EA5DF4451229723873E6CC85FE
311
FB7DC69D172A1513F98DEB8DA7AE43F348C42C4F6FDC5227A32BD7791FF85208DD5BE63A39C9E88D6BA6DDC04FA5280B3B15D384945C1FCCDEDDFEE5A888E6D475224E94BA7155F444333226A5163155CFE39868324E93FDD81BD70B876253498AA703A1059134D7D014F339A438B552DE70387527813F31FF03DF3CEDAAF9
311
E95593CA9EE1F92C579AE4D14F871D88997B8BF587D9C5F5E862B1988F1697336F747B77BB1E79EFE6D3D5E56A75BDFC708D839596906435913471838FC046B2C89FD4BF02BF64B99ECFEC12EBA089A42FCC78CA0D668EE74FEA35AD75D6C863EA4722CF69546105342AFBACE89816348FE173461534EB21341D0E3D8363EF
311
F7DC8CED91FDE9F310E8EFE8096A746FDE7D4D45F8374C50E730482A6A185863690DADB93AED100E85E0F61F534E4634958C7087B35012F9EA06586A9604FE408C61B234D1602C700378A1FE3DA40BC2E8D73C3FA66552726E68EC065514EC102B54AB4A33F60F959DF67D64A0137C65D870650DD2AF057583EB9A2257076C
311
AA8174124E52B81C669A9DF3D981A12B13A79BB51B7CBA0BF75B13BBC70F2FA428A8D4863EA056E3B8E66D50B23A796779CE6C700F54E940F90AE43F23D43B55E037C9F68BFDC29EA225C955226406DF38536734C563EA78D5D37CF7BEFC49BB79E8BD5378C2D906AADF80E7D086BE2F7B7006FE0B082FE4DC9AB68D0847DA
311
B8673900322471B8C014F27012EEDD60832C87AC8C5D84071E4C86BA2FF8F427560C12457552EF9D03CB83B4784682066C1523A1464D7EAB60E7A79FD25975B05D760ADE8BDF42D7E57AFB695BCA8444F4DEC6F49A262C671A25AEE34D5FA101E6038B9EE9EB0F216318FA33DEDB3EDE993D4A016D83B9013E6D72BA197427
311
0F0E88B02F1526DDF8BF38014698C2DA937FCF5444392739156573EE9BF50365A386D804BB61725B60BAC202D2D47F0E6210453A92AC3020B6D5AA4D9AE313D67DDB7C0623B19E8B90F06E51D8A5DE48702177E1EBAECE4A4791FE3EA4B6856062A480ED558C34E16F31DFC52C494A851C7804D6EF9B55DF75262B20433452
311
EB6059C07CC4169196B38D5C146B49504845BE63289B08BBA307F4E503514B804AE0298D15E5C98E715E66BB847114A35D468A1370FC7FFDC3322B76241365AE4FC81EA88EE230D47D405EF583E8E8C90DB6D57B748BD41BD3B873F360B1292547B01AB876B5BA5C2CD6EF2E47B3251E0B6F75395ACEDF4D47D3CBEBF5D5C5
311
FCDA9BDE5D357EAA85077E5369FA010D2FA1B2F9A564D67DDF36081F9B03DCE09E68F5F8B18ECEE6FD6D33462BEC4FB007E5B2DDB88C5FD0F6D1F8D702BA9547056DB282D38CE69A9810BA371FFC2B419B3150A69EDF6424A56748F9F2717B600C66CED8F760C29DFE38D86B675726208F0AD14F6516E684F1838D698DE4B8
311
C8538B5FE393F65DD799666846D631684C95E02C461A8C9D948A8C6A24C3336A90CCA802F5FA2D7D6CAF1E67EC7EA91B444D424E1B4D9E087A64AE1016A05619E9E1BCF3077A3AD356DDB8A8B6E3673C6CA6701D70E6C6458FAE5944D538447D369D50251C5CEA37F2E8FB499E72B4DAF5A676DCEE32D80C2A72BBE49CF6C9
311
DA5567706B00D24881B601FD10BC532913F8956EF67FF49F0C6FD47188C66758EAD6966EA235A63A06215A1B652F0BE8619EEDD17B04EADB6679E36ACD0091B32E596F92A0963AD244A6D545C1E867555AAE1F2668509CCD17A7E0650A5F9E2F692429C85C9A00078BC00A2BB3201A545DFDF9F820052EB29973C74081C795
311
C83291DBC1D25E849DED13AEB5F123D20235F711F5389B7AB3C7EA1E60AF26BB90283A26B17AC6047C2A590BF1C0F160647D594405AA7FB4EB26C60907DCDCAC1D5BD216106A89D2CFAA0616741C3975103DE62E6962A5BFA078F32A30A996420589263EF817504B0304140006080000065931400000000000000000000000
311
00350000006662782F33463132354543322D413230372D343342432D424433372D3043333233323442444336352F76657274696365732E62696E504B030414000608080006593140F270F1330600000004000000360000006662782F33463132354543322D413230372D343342432D424433372D3043333233323442444336
311
352F747269616E676C65732E62696E636660600000504B030414000608000006593140000000000000000000000000370000006662782F33463132354543322D413230372D343342432D424433372D3043333233323442444336352F617474726962757465732E62696E504B030414000608080006593140D5987DFC8F0000
311
0041010000360000006662782F33463132354543322D413230372D343342432D424433372D3043333233323442444336352F6469726563746F72792E786D6C858F410EC2201045AF4266AF15DDB800BA74E7C21B903225242D6328188F2FA5C4183471359997F9FF81E89FF3C41E1816475E02DF1F80A11FC8386F25A438EE
311
CEC07A250251FC3803E6F58C12560C4AD840E95E91C151A72936F496F35732D860FE635F62C8F2DA16B505C545B74125BAA2FA9E05D7CC053D063734D5C7665FD55B6B8D15D5E9BFEAFD8490FFA45E504B03041400060808000659314022F8393AFB000000A00100003B0000006662782F33463132354543322D413230372D
311
343342432D424433372D3043333233323442444336352F7265736F75726365732F636F72652E786D6C8D905D6EC3201084AF62ED3B3660C7892C4CD436CA097A0184372E4A0C163F558F5F885DA97DEB0B8B66E6D38E569CBF9647F5893E1867476035850AAD7693B1F30829DEC809AAB314DEB9F82B0695550B8E50649062
311
F62EADBBA49D8D686356AD9B7017550818A1D28FFC1921E80F5C54AD52CC8970AF57A5EF6AC69AD5D9CE392942F4B940B52D292F488FC125AF31886673A548C94C7BC64C79A7B919F420FBEB5B47AF174658FFC249773952F2CA0F1D69BBBEEFD88173D652D114588A68969F8EDAA38A3881E4947142337E7C676CA0A781B5
311
84F603CD5089FF81D23AFD134AC6C696EF75372C8064B9C8D390A229F7CAE379CC3CCB6DE537504B010214000A0000080000065931403DEE336E79000000790000001B00000000000000000000000000000000006175746F6465736B2D64657369676E2D7061636B6167652E786D6C504B0102140014000608080006593140
311
D486FD9CA0000000F40000001300000000000000000000000000B20000005B436F6E74656E745F54797065735D2E786D6C504B01021400140006080800065931404A12640BE80000007C010000080000000000000000000000000083010000636F72652E786D6C504B010214001400060808000659314055019EA25F000000
311
7C000000070000000000000000000000000091020000636E782E786D6C504B01021400140006080800065931404775AEEE64010000020300000C00000000000000000000000000150300006662782F636F72652E786D6C504B01021400140006080800065931406BC9B53D7E0000009D0000000B0000000000000000000000
311
0000A30400006662782F636E782E786D6C504B01021400140006080800065931408323C2122C0100001402000031000000000000000000000000004A0500006662782F33463132354543322D413230372D343342432D424433372D3043333233323442444336352F636F72652E786D6C504B01021400140006080800065931
311
406519735A4C010000330300003000000000000000000000000000C50600006662782F33463132354543322D413230372D343342432D424433372D3043333233323442444336352F636E782E786D6C504B01021400140006080800065931407830D399990500007A10000034000000000000000000000000005F0800006662
311
782F33463132354543322D413230372D343342432D424433372D3043333233323442444336352F6F626A656374732E786D6C504B010214001400060800000659314000000000000000000000000035000000000000000000000000004A0E00006662782F33463132354543322D413230372D343342432D424433372D304333
311
3233323442444336352F76657274696365732E62696E504B0102140014000608080006593140F270F133060000000400000036000000000000000000000000009D0E00006662782F33463132354543322D413230372D343342432D424433372D3043333233323442444336352F747269616E676C65732E62696E504B010214
311
00140006080000065931400000000000000000000000003700000000000000000000000000F70E00006662782F33463132354543322D413230372D343342432D424433372D3043333233323442444336352F617474726962757465732E62696E504B0102140014000608080006593140D5987DFC8F00000041010000360000
311
00000000000000000000004C0F00006662782F33463132354543322D413230372D343342432D424433372D3043333233323442444336352F6469726563746F72792E786D6C504B010214001400060808000659314022F8393AFB000000A00100003B000000000000000000000000002F1000006662782F3346313235454332
311
2D413230372D343342432D424433372D3043333233323442444336352F7265736F75726365732F636F72652E786D6C504B0506000000000E000E0080040000831100000000
310
504B03040A0000080000065931403DEE336E79000000790000001B0000006175746F6465736B2D64657369676E2D7061636B6167652E786D6C3C3F786D6C2076657273696F6E3D22312E302220656E636F64696E673D227574662D3822203F3E3C666F726D6174733E3C666F726D61743E687474703A2F2F736368656D612E
310
6175746F6465736B2E636F6D2F64657369676E2D7061636B6167652F323030393C2F666F726D61743E3C2F666F726D6174733E504B030414000608080006593140D486FD9CA0000000F4000000130000005B436F6E74656E745F54797065735D2E786D6C7D8EC10E82300C865F65E91D8A1E8C310C0EEA1BF002731658846E
310
D98AC1B77784ABF1D8FE5FBFBF75BBCE937A534CCEB38643598122B6FEE978D0B0485F9C41B54DDD7D022595594E1A469170414C76A4D9A4D207E29CF43ECE46F218070CC6BECC4078ACAA135ACF422C856C0E68EA1BF5669944DDD7BCDE7B1F8E415D77AECB980613C2E4AC91FC167A2B244592486606FC29C8FD7F045B9A
310
EF7053A7E60B504B0304140006080800065931403593EA50EA0000007C01000008000000636F72652E786D6C8D90D18E832010457F85CC3B0ADABAC6208DDAFA05FB0304A825AD600436FBF98BAD4D76DFF6692677EE99995C76FA9E1FE84BAFDE38DB02CD08206DA553C64E2DC470C535A01367AB73E1970D9015B36E6193
310
81B3697571D925E96CD03624D53AA5775178AF0320F9484D0B5EDEF42C32114372F87BB608791793CEE8BB4B708C46A1D711A3D23E73357A053E9071A0C7FE8CAB7A3CE0433776B8BF941DAEFA8E14F44886CB7866F9067316CCFCBE2F572D8256C00B420B4C28A61F9F9436A46E688949D510C2F2CDFE078A8BFA27148D0D
310
65B1BFFBC23C709A1E790E38CBB72C52790695EA961BFF01504B03041400060808000659314055019EA25F0000007C00000007000000636E782E786D6C4DCB3B0E80201045D1AD90E915ED2CF8AC45050C11660C8261F98AB1B07AC9C97D42D718D865D3E909258CFD00CCE24AC6E326A164D74DC0B4128928FF326038472B
310
A13128B1252AC747C6BAB984FC68F0B87FE8960A5C09FE86CFB69FBA01504B030414000608080006593140F25AE9BC66010000020300000C0000006662782F636F72652E786D6C8D52ED8E8320107C15C27F04ECC7350DD2D80F9FE05E802AF54C150C82E9E3DFFAD1F47A699AC604C9CCCEEEECA8D8DD9A1AF5DA75953509
310
E611C3489BDC169529131CFC856C30DA49E1ACF57FCA3032AAD1091E602C45E96C686728B7C66BE30135B6D033A8BA4E7B8CF21A2E09EEF21FDDA848050F15DD356A557E55A58E780434D449D1790706D0346438B1BC9C6F824EB8142154C5CC56054CAB2E9576581E5876E0ABFD91AC37D9922CD32C25FBD32225EB7DCA62
310
BE628753761474104BE1ABE6EE2E775A795D6019331E13C609FFFAE67CCB365BBE206CBD654CD0A1FC4914DAE24351A88C5FC4B3DD49D661C9C1C848FCDB1622F2A8533DF8A152D02144788D093F070D8140C85E9DEBFB1E57807A9D7BEB96C014363CA85ED541C35486C647D08985CE6303D8EC659FF84D9FF73DE0032A53
310
8235E5E17A0E7E982EA6A97314AD76A4F73764AC6B54FD3037597C9C8F412FE5B9ADADFB444DE755E91C261DFE5EF90B504B030414000608080006593140F98B86167E0000009D0000000B0000006662782F636E782E786D6C4DCCD10E82201886E15B61FF39A948221BE0C0EA3E5CA273213482D6E5A7CD838EBEEDD9B757
310
749FD5A1B78DAF257809D5A90464FD3D8C8B9F25E434E11650A7440C21FDDD00F961B512760625E618F2F3A0D14E43766953B7F8C781D73361BCE604F7CC5C30D5ACC7BC311ADFA8A6BA31755B91120A258A5F69DB3DACBE504B030414000608080006593140440C20A92B01000014020000310000006662782F4535323739
310
3339322D433742442D344137432D393642412D4634413441364233383132302F636F72652E786D6C8D51CB6EC32010FC15C4293D6003766D27C2444EDA7E417FC00192A2C460F1A8F2F985DA91DA5B2E2C9A9D991DEDB2FD7DBA816FE5BCB6A687A4C0102823ACD4E6D2C318CEA88360CF99B336FCA14160C649F530C390B3
310
8BB3715E21614D502624D458A95670F45E0508C42D7D7AE8C5979AC6628C2131FCB59847711D2FAA20456A271E673EB814002C43F20BF9FB2B6DB7D596A2637B7843F5D01ED1B6390CE8A31EEAA139541DA198958B90B318B55CE55AA638FAAC957BD6248B390B7A7AC4174E8D4149C8292614618248FB49C80E773B5221DC
310
EC709A9CE9FF4471964F8AA236A1A26BDC45E62127AC5C1A9C491B4FB74718759FAD0B20CFDB78255E20C705A6B42655D7B172A1A60524CFA65E3D7DB02E2D78733D2576B51A37356765BE512ABF074C35DF93FF00504B03041400060808000659314003BEBC4D5401000033030000300000006662782F4535323739333932
310
2D433742442D344137432D393642412D4634413441364233383132302F636E782E786D6CBD93CD6EC32010845F0571F70F49E45A1126520F7D821E7AC5B04969305880ABE6EDBB2424CD25874A552FC89A1D66569F30DF7D4D967C4288C6BB81B2BAA5049CF2DAB8C34097B4AF7A4A768207EFD39D8D122727186896A9E087
310
E097B9481AF672B109556BDCB18801A25F82828872BE49AC57D26200B86A4111A611B4064D6E46FCDA43C055501C4F24BD0379797E237EFC0095226F728AE04DEE103C9FA5E9CE4489B232C68146F50E93ACE592BC8678ACB54CB266F5B5EBC14E3F49245FB8562EC1905C3ED07C525136AA91236F7028784C01E915533ACD
310
40859C676B944C08B9391B2F1EC117E352B7295E83E003BAD7ABAEEF31EC3C133C99098A430590093415AB96ADAA9655ECE995B16DDB6FD9BA6ABB6DDBF226DB051FBDB7E512C640F03351DE2570890AC69B3C7E84AFF888360159FB70FA054804505A2F746E197FC98775EBCDE61FF934E7F78DB802FE05E21B504B030414
310
000608080006593140D46B3CB657070000931B0000340000006662782F45353237393339322D433742442D344137432D393642412D4634413441364233383132302F6F626A656374732E786D6CED595B6FA33814FE2B887D0E0949DA695794519B4CAB68D599D16467B40F9190030EF5D618649B5EF6D7EFF1050234B464A7
310
FB360F8160ECE373BE73F521F8F89451E70173417276E1FADEC475308BF384B0F4C22DE56E74E63A1FC380E7B96C4C731D86327CE1AA61370C529E97851D4AF00E95547646AFAFFE72448C19769D9822212E5C11DFE10C79A8947982C5BD972089BC74F7E4F99E99D8269B7254DC7588168863268153186740C5314CF9EDC7
310
893B0E83B17A1F06EA6A67CD06CD9AF7CF1A6BA9DB5C12262462F10B963A646683589AF9F3E5A7E9C9F9E8643E9F8DE6A7537F74757DB51CF91F6693C5E962717EF9E91CD8DBE639B53225B8C02C01FD3DBBA11F8CD59B5A748BC021AEE39C311C6B20012A2D569720C102B66AC037693FFA4AA2C66B2D61E379AEDE5B161A
310
C3B33695BE59C38068D10541EC7695C4D5BD295FBEFD1B0417438C920B2C815B213968D7C2C3C12BDC70128CCD68186CF7BA20C2C990C49C20EA50B2E588835260AA9A1206668125A39C8303294749A035675EB76D0B3CF36DD739C4E5AEA45479861B6AC78AC0FDB0149A33F20FE67BEE9BC8004F206D49983CB35CCAE702
310
BBE17930D68361A06EB3A97D6980747614A5422362DE76045D28D75F2DDDF08FEBEDD35A8583C39B173C2F3097CAE8941E355F60C8F6AE50B2DBFA8334A71680300654BB720FCA3740FE33448F3D2BA0374E9EE64F733B5772C4C42EE719E8C69938A3095C268EAFAFEA7FE35F30AE17B7B5D78727B8A982EAECE7F16CCBA0
310
B1B2FC37E00C830730F89CCFECAB758C28D8F32D610090321287E63004A17DB77D72C315044E08F4B00AD1D0079181DD07F81B8C2D99BD562AF7B25EC70051BBC76C889200366D91C0468F9E6E207B7012EFD5D414B10FDE937731D7CBE5FA8F75C97728C6B7D6A7977847189190350F33D4C2BC25D13D7E7ECC790282BEC4
310
7BDDC43BB35B09405B61AE804F2B10D4C37EE7D60631AC4B73156E823776002154AE6ED0BF2522C6942286F3B2DAB78E6ECA506B8FB735831B4E0DC4B369C784397E20AAAA00A7D9CF68310A793FE6A45020BAE18D91AC0E9A5E8F74DF579FC122EBF93DB3560C422F43F44F1DB40EE0D0B2EC0A690B442DF0761FCEE39CE6
310
3CDA3E4726D2B9504B001B6D6FF9D1220AB1DE284951010FD27E578594D4481B2564B72B05C4D5032CFE582D9AE630F166FE89D3BC769C710ED1167C1771EB779D3D2292A114473B94F46DD7DCADA62D34C91ED21CEF28C8451E887C8E908C26094E8F81E628E2E7EF4A3DA5B910846101F9EA20F84D34261E0412A3CD8A65
310
A5D50ED044441996881E838022D303AE4E3BBAC68DA174789BC7DA7A5FD35893E8FF64111C412D99B38840290A39E44DC67DEF0462481B5D8372075FB0B68AB61683965042C4CFD12326E99D3C067543BE07F7188E24A58CF202C560D603C8BEF015A5D40EEF5B14DFABFC11C5257D2F031198EE2242699945F0230C4E1E43
310
5CBB0E4CAFA2D0206E629FC419146548967CC826A7279317FB989AA11B021B1BED0885B01D65A8E841BD1510753DE2D4E05BEA3D4ADD965911A12C2FD92043F1665D6FB2E4BB6A556407F2AB4A45281B2BC29660181026EBAC5AC56C30751D58C18D74A07A8E04CA0A6A4E616F241EBFF6264DB977036EFDF47D37C8A0F0EB
310
D15E33A2CE2B182C8FADC2403C2219DFB9E15ADF4757507F2738D9A7FAAAD66C568080988AE425275645DF5750DED81ACD0D6F91149B1B9375ABFBF79507DD8F600C6BA076A917AE14D0196612A9CAE456FDA1DF1084E0160D33BE5239F5182A9749A2AB4644AF499F3A5B65446BD38C78C51D6679063FB6212CA665823728
310
11F7D1ADA4D19A28D6AD945E462A8C5F15F0CBCDBA030F8C0C10E9AB2AF0F06367AD1D5DA872E920117957665B860804C19668A9D18D57B0D46AA4D2727D57670AA8BBC0C0AC8AE7BF4E16CD76C4AF93456A0DE3E74E1634DF22BA8F368D6C1E2BB33EEA1450A72745E53D4E01BAEB5053AD9388C9E5567CEB4B11C4C42AC8
310
0F2EC6AA986108F671FC9F93765F1234DB75F83F2E69FB2F0A8EA3924A6BB26A521D285C57CD14B6589CCEE7CB0FA7A3E9255CE6FEE2747439FB30194D4ECF976727B3737F727D56A3A9FD340CEA58A653173C9B98560DAB278B013465454E490287F9C44931847C0947FA01DD739E6101B9B3D9EB4E6C4F7EC0EA07D3E694
310
684B71C5C91D82FE301590D501A33296ED71E737E84C4A38675FB8D033F2EEE162ADD27520F15CB8D0299024C6C2DB429749F5F33471C8B83AF55B62800F62A9CA886651FD5CAF52D8B4A27F3D654816B072B55A1850B715D0FC6A3528346F96A7F828C12B761C24E1EFB69450AC1959F603B5307A9BBDFA8D6C94B07BBBF5
310
13B8EEEB62F99E9ED34264D01783578DC0501D49C453DDEE568C59962E975FC7D06673565F9C829629E87238A511C760CCA5AAA7C08AC02A2CCD024930D5C5EF9BAF3C872F3C99A38BA2CD22CFB29CD9874B388E25F085C859DFC1F79E64035503565D75B1994EFCE94677B36D833DDA22813D550EC140554528113AC60616
310
F9A23365FB9663A584CEF4D5D2B1E113BA00C6825E3477CDD72D07BC477D4751BEA23DBC92F3D586F6584F056BE0D08A0EFF05504B030414000608000006593140000000000000000000000000350000006662782F45353237393339322D433742442D344137432D393642412D4634413441364233383132302F7665727469
310
6365732E62696E504B030414000608080006593140F270F1330600000004000000360000006662782F45353237393339322D433742442D344137432D393642412D4634413441364233383132302F747269616E676C65732E62696E636660600000504B03041400060800000659314000000000000000000000000037000000
310
6662782F45353237393339322D433742442D344137432D393642412D4634413441364233383132302F617474726962757465732E62696E504B030414000608080006593140D5987DFC8F00000041010000360000006662782F45353237393339322D433742442D344137432D393642412D4634413441364233383132302F64
310
69726563746F72792E786D6C858F410EC2201045AF4266AF15DDB800BA74E7C21B903225242D6328188F2FA5C4183471359997F9FF81E89FF3C41E1816475E02DF1F80A11FC8386F25A438EECEC07A250251FC3803E6F58C12560C4AD840E95E91C151A72936F496F35732D860FE635F62C8F2DA16B505C545B74125BAA2FA
310
9E05D7CC053D063734D5C7665FD55B6B8D15D5E9BFEAFD8490FFA45E504B030414000608080006593140EAFD20E8FC000000A00100003B0000006662782F45353237393339322D433742442D344137432D393642412D4634413441364233383132302F7265736F75726365732F636F72652E786D6C8D504B6E833010BD0A9A
310
BDC1868446917104349CA017B0CC84580936F2A7EAF16B0295DA5D3733A3F7D13C3D7EF99A9FD9273AAFAD6980E5143234CA8EDA4C0DC4702327C82E823B6BC32F196446CED8C00A83E093B371D921654D4013126AEC883B28BDC700997AA6A301AFEE38CB5CC69014FE912F523DE48439CB139D7482FBE052806C7BB24E10
310
0EBD8D4EA1E7C5C60A1EA31E778D1ED34F7DD3E840F474E8D9B1EB497D1A0EE4D00E2DE9AE554BEAAEA5253BD2FE3ABCF362350B1EF4FC93513994014710256525A18CB0B70FC6CEF4746615A1F599525EACF23FA6B88CFF34456D4255EE71379B07C15290172178B1F695D6ABCCB4D76EC537504B010214000A0000080000
310
065931403DEE336E79000000790000001B00000000000000000000000000000000006175746F6465736B2D64657369676E2D7061636B6167652E786D6C504B0102140014000608080006593140D486FD9CA0000000F40000001300000000000000000000000000B20000005B436F6E74656E745F54797065735D2E786D6C50
310
4B01021400140006080800065931403593EA50EA0000007C010000080000000000000000000000000083010000636F72652E786D6C504B010214001400060808000659314055019EA25F0000007C000000070000000000000000000000000093020000636E782E786D6C504B0102140014000608080006593140F25AE9BC66
310
010000020300000C00000000000000000000000000170300006662782F636F72652E786D6C504B0102140014000608080006593140F98B86167E0000009D0000000B00000000000000000000000000A70400006662782F636E782E786D6C504B0102140014000608080006593140440C20A92B010000140200003100000000
310
0000000000000000004E0500006662782F45353237393339322D433742442D344137432D393642412D4634413441364233383132302F636F72652E786D6C504B010214001400060808000659314003BEBC4D54010000330300003000000000000000000000000000C80600006662782F45353237393339322D433742442D34
310
4137432D393642412D4634413441364233383132302F636E782E786D6C504B0102140014000608080006593140D46B3CB657070000931B000034000000000000000000000000006A0800006662782F45353237393339322D433742442D344137432D393642412D4634413441364233383132302F6F626A656374732E786D6C
310
504B01021400140006080000065931400000000000000000000000003500000000000000000000000000131000006662782F45353237393339322D433742442D344137432D393642412D4634413441364233383132302F76657274696365732E62696E504B0102140014000608080006593140F270F1330600000004000000
310
3600000000000000000000000000661000006662782F45353237393339322D433742442D344137432D393642412D4634413441364233383132302F747269616E676C65732E62696E504B01021400140006080000065931400000000000000000000000003700000000000000000000000000C01000006662782F4535323739
310
3339322D433742442D344137432D393642412D4634413441364233383132302F617474726962757465732E62696E504B0102140014000608080006593140D5987DFC8F000000410100003600000000000000000000000000151100006662782F45353237393339322D433742442D344137432D393642412D46344134413642
310
33383132302F6469726563746F72792E786D6C504B0102140014000608080006593140EAFD20E8FC000000A00100003B00000000000000000000000000F81100006662782F45353237393339322D433742442D344137432D393642412D4634413441364233383132302F7265736F75726365732F636F72652E786D6C504B05
310
06000000000E000E00800400004D1300000000
  0
XRECORD
  5
27
102
{ACAD_REACTORS
330
22
102
}
330
22
100
AcDbXrecord
280
     1
270
     1
271
     1
  0
XRECORD
  5
26
102
{ACAD_REACTORS
330
22
102
}
330
22
100
AcDbXrecord
280
     1
270
     1
271
     1
  0
XRECORD
  5
28
102
{ACAD_REACTORS
330
22
102
}
330
22
100
AcDbXrecord
280
     1
270
     1
271
     1
  0
XRECORD
  5
25
102
{ACAD_REACTORS
330
22
102
}
330
22
100
AcDbXrecord
280
     1
270
     1
271
     1
  0
XRECORD
  5
BBC
102
{ACAD_REACTORS
330
BBB
102
}
330
BBB
100
AcDbXrecord
280
     1
102
ACAD_ROUNDTRIP_2012_MLEADER_STYLE
298
     1
  0
CELLSTYLEMAP
  5
BBA
102
{ACAD_REACTORS
330
BB9
102
}
330
BB9
100
AcDbCellStyleMap
 90
        3
300
CELLSTYLE
  1
TABLEFORMAT_BEGIN
 90
        5
170
     1
 91
        0
 92
    32768
 62
   257
 93
        1
300
CONTENTFORMAT
  1
CONTENTFORMAT_BEGIN
 90
        0
 91
        0
 92
      512
 93
        0
300

 40
0.0
140
1.0
 94
        5
 62
     0
340
55
144
0.25
309
CONTENTFORMAT_END
171
     0
 94
        0
309
TABLEFORMAT_END
  1
CELLSTYLE_BEGIN
 90
        1
 91
        1
300
_TITLE
309
CELLSTYLE_END
300
CELLSTYLE
  1
TABLEFORMAT_BEGIN
 90
        5
170
     1
 91
        0
 92
        0
 62
   257
 93
        1
300
CONTENTFORMAT
  1
CONTENTFORMAT_BEGIN
 90
        0
 91
        0
 92
      512
 93
        0
300

 40
0.0
140
1.0
 94
        5
 62
     0
340
55
144
0.18
309
CONTENTFORMAT_END
171
     0
 94
        0
309
TABLEFORMAT_END
  1
CELLSTYLE_BEGIN
 90
        2
 91
        1
300
_HEADER
309
CELLSTYLE_END
300
CELLSTYLE
  1
TABLEFORMAT_BEGIN
 90
        5
170
     1
 91
        0
 92
        0
 62
   257
 93
        1
300
CONTENTFORMAT
  1
CONTENTFORMAT_BEGIN
 90
        0
 91
        0
 92
      512
 93
        0
300

 40
0.0
140
1.0
 94
        2
 62
     0
340
55
144
0.18
309
CONTENTFORMAT_END
171
     0
 94
        0
309
TABLEFORMAT_END
  1
CELLSTYLE_BEGIN
 90
        3
 91
        2
300
_DATA
309
CELLSTYLE_END
  0
XRECORD
  5
BF3
102
{ACAD_REACTORS
330
BB9
102
}
330
BB9
100
AcDbXrecord
280
     1
102
ACAD_ROUNDTRIP_PRE2007_TABLESTYLE
 90
      512
 91
        0
  1

 92
      512
 93
        0
  2

 94
      512
 95
        0
  3

  0
XRECORD
  5
BCE
102
{ACAD_REACTORS
330
BCD
102
}
330
BCD
100
AcDbXrecord
280
     1
102
RTVSPropertyOp0
 70
     1
102
RTVSPropertyOp1
 70
     1
102
RTVSPropertyOp2
 70
     1
102
RTVSPropertyOp3
 70
     1
102
RTVSPropertyOp4
 70
     1
102
RTVSPropertyOp5
 70
     1
102
RTVSPropertyOp6
 70
     1
102
RTVSPropertyOp7
 70
     1
102
RTVSPropertyOp8
 70
     1
102
RTVSPropertyOp9
 70
     1
102
RTVSPropertyOp10
 70
     1
102
RTVSPropertyOp11
 70
     1
102
RTVSPropertyOp12
 70
     1
102
RTVSPropertyOp13
 70
     1
102
RTVSPropertyOp14
 70
     1
102
RTVSPropertyOp15
 70
     1
102
RTVSPropertyOp16
 70
     1
102
RTVSPropertyOp17
 70
     1
102
RTVSPropertyOp18
 70
     1
102
RTVSPropertyOp19
 70
     1
102
RTVSPropertyOp20
 70
     1
102
RTVSPropertyOp21
 70
     1
102
RTVSPropertyOp22
 70
     1
102
RTVSPropertyOp23
 70
     1
102
RTVSPropertyOp24
 70
     1
102
RTVSPropertyOp25
 70
     1
102
RTVSPropertyOp26
 70
     1
102
RTVSPropertyOp27
 70
     1
102
RTVSPropertyOp28
 70
     1
102
RTVSPropertyOp29
 70
     1
102
RTVSPropertyOp30
 70
     1
102
RTVSPropertyOp31
 70
     1
102
RTVSPropertyOp32
 70
     1
  0
XRECORD
  5
BCC
102
{ACAD_REACTORS
330
BCB
102
}
330
BCB
100
AcDbXrecord
280
     1
102
RTVSPropertyOp0
 70
     1
102
RTVSPropertyOp1
 70
     1
102
RTVSPropertyOp2
 70
     1
102
RTVSPropertyOp3
 70
     1
102
RTVSPropertyOp4
 70
     1
102
RTVSPropertyOp5
 70
     1
102
RTVSPropertyOp6
 70
     1
102
RTVSPropertyOp7
 70
     1
102
RTVSPropertyOp8
 70
     1
102
RTVSPropertyOp9
 70
     1
102
RTVSPropertyOp10
 70
     1
102
RTVSPropertyOp11
 70
     1
102
RTVSPropertyOp12
 70
     1
102
RTVSPropertyOp13
 70
     1
102
RTVSPropertyOp14
 70
     1
102
RTVSPropertyOp15
 70
     1
102
RTVSPropertyOp16
 70
     1
102
RTVSPropertyOp17
 70
     1
102
RTVSPropertyOp18
 70
     1
102
RTVSPropertyOp19
 70
     1
102
RTVSPropertyOp20
 70
     1
102
RTVSPropertyOp21
 70
     1
102
RTVSPropertyOp22
 70
     1
102
RTVSPropertyOp23
 70
     1
102
RTVSPropertyOp24
 70
     1
102
RTVSPropertyOp25
 70
     1
102
RTVSPropertyOp26
 70
     1
102
RTVSPropertyOp27
 70
     1
102
RTVSPropertyOp28
 70
     1
102
RTVSPropertyOp29
 70
     1
102
RTVSPropertyOp30
 70
     1
102
RTVSPropertyOp31
 70
     1
102
RTVSPropertyOp32
 70
     1
  0
XRECORD
  5
BDA
102
{ACAD_REACTORS
330
BD9
102
}
330
BD9
100
AcDbXrecord
280
     1
102
RTVSPropertyOp0
 70
     1
102
RTVSPropertyOp1
 70
     1
102
RTVSPropertyOp2
 70
     1
102
RTVSPropertyOp3
 70
     1
102
RTVSPropertyOp4
 70
     1
102
RTVSPropertyOp5
 70
     1
102
RTVSPropertyOp6
 70
     1
102
RTVSPropertyOp7
 70
     1
102
RTVSPropertyOp8
 70
     1
102
RTVSPropertyOp9
 70
     1
102
RTVSPropertyOp10
 70
     1
102
RTVSPropertyOp11
 70
     1
102
RTVSPropertyOp12
 70
     1
102
RTVSPropertyOp13
 70
     1
102
RTVSPropertyOp14
 70
     1
102
RTVSPropertyOp15
 70
     1
102
RTVSPropertyOp16
 70
     1
102
RTVSPropertyOp17
 70
     1
102
RTVSPropertyOp18
 70
     1
102
RTVSPropertyOp19
 70
     1
102
RTVSPropertyOp20
 70
     1
102
RTVSPropertyOp21
 70
     1
102
RTVSPropertyOp22
 70
     1
102
RTVSPropertyOp23
 70
     1
102
RTVSPropertyOp24
 70
     1
102
RTVSPropertyOp25
 70
     1
102
RTVSPropertyOp26
 70
     1
102
RTVSPropertyOp27
 70
     1
102
RTVSPropertyOp28
 70
     1
102
RTVSPropertyOp29
 70
     1
102
RTVSPropertyOp30
 70
     1
102
RTVSPropertyOp31
 70
     1
102
RTVSPropertyOp32
 70
     1
  0
XRECORD
  5
BE2
102
{ACAD_REACTORS
330
BE1
102
}
330
BE1
100
AcDbXrecord
280
     1
102
RTVSPropertyOp0
 70
     1
102
RTVSPropertyOp1
 70
     1
102
RTVSPropertyOp2
 70
     1
102
RTVSPropertyOp3
 70
     1
102
RTVSPropertyOp4
 70
     1
102
RTVSPropertyOp5
 70
     1
102
RTVSPropertyOp6
 70
     1
102
RTVSPropertyOp7
 70
     1
102
RTVSPropertyOp8
 70
     1
102
RTVSPropertyOp9
 70
     1
102
RTVSPropertyOp10
 70
     1
102
RTVSPropertyOp11
 70
     1
102
RTVSPropertyOp12
 70
     1
102
RTVSPropertyOp13
 70
     1
102
RTVSPropertyOp14
 70
     1
102
RTVSPropertyOp15
 70
     1
102
RTVSPropertyOp16
 70
     1
102
RTVSPropertyOp17
 70
     1
102
RTVSPropertyOp18
 70
     1
102
RTVSPropertyOp19
 70
     1
102
RTVSPropertyOp20
 70
     1
102
RTVSPropertyOp21
 70
     1
102
RTVSPropertyOp22
 70
     1
102
RTVSPropertyOp23
 70
     1
102
RTVSPropertyOp24
 70
     1
102
RTVSPropertyOp25
 70
     1
102
RTVSPropertyOp26
 70
     1
102
RTVSPropertyOp27
 70
     1
102
RTVSPropertyOp28
 70
     1
102
RTVSPropertyOp29
 70
     1
102
RTVSPropertyOp30
 70
     1
102
RTVSPropertyOp31
 70
     1
102
RTVSPropertyOp32
 70
     1
  0
XRECORD
  5
BD4
102
{ACAD_REACTORS
330
BD3
102
}
330
BD3
100
AcDbXrecord
280
     1
102
RTVSPropertyOp0
 70
     1
102
RTVSPropertyOp1
 70
     1
102
RTVSPropertyOp2
 70
     1
102
RTVSPropertyOp3
 70
     1
102
RTVSPropertyOp4
 70
     1
102
RTVSPropertyOp5
 70
     1
102
RTVSPropertyOp6
 70
     1
102
RTVSPropertyOp7
 70
     1
102
RTVSPropertyOp8
 70
     1
102
RTVSPropertyOp9
 70
     1
102
RTVSPropertyOp10
 70
     1
102
RTVSPropertyOp11
 70
     1
102
RTVSPropertyOp12
 70
     1
102
RTVSPropertyOp13
 70
     1
102
RTVSPropertyOp14
 70
     1
102
RTVSPropertyOp15
 70
     1
102
RTVSPropertyOp16
 70
     1
102
RTVSPropertyOp17
 70
     1
102
RTVSPropertyOp18
 70
     1
102
RTVSPropertyOp19
 70
     1
102
RTVSPropertyOp20
 70
     1
102
RTVSPropertyOp21
 70
     1
102
RTVSPropertyOp22
 70
     1
102
RTVSPropertyOp23
 70
     1
102
RTVSPropertyOp24
 70
     1
102
RTVSPropertyOp25
 70
     1
102
RTVSPropertyOp26
 70
     1
102
RTVSPropertyOp27
 70
     1
102
RTVSPropertyOp28
 70
     1
102
RTVSPropertyOp29
 70
     1
102
RTVSPropertyOp30
 70
     1
102
RTVSPropertyOp31
 70
     1
102
RTVSPropertyOp32
 70
     1
  0
XRECORD
  5
BD8
102
{ACAD_REACTORS
330
BD7
102
}
330
BD7
100
AcDbXrecord
280
     1
102
RTVSPropertyOp0
 70
     1
102
RTVSPropertyOp1
 70
     1
102
RTVSPropertyOp2
 70
     1
102
RTVSPropertyOp3
 70
     1
102
RTVSPropertyOp4
 70
     1
102
RTVSPropertyOp5
 70
     1
102
RTVSPropertyOp6
 70
     1
102
RTVSPropertyOp7
 70
     1
102
RTVSPropertyOp8
 70
     1
102
RTVSPropertyOp9
 70
     1
102
RTVSPropertyOp10
 70
     1
102
RTVSPropertyOp11
 70
     1
102
RTVSPropertyOp12
 70
     1
102
RTVSPropertyOp13
 70
     1
102
RTVSPropertyOp14
 70
     1
102
RTVSPropertyOp15
 70
     1
102
RTVSPropertyOp16
 70
     1
102
RTVSPropertyOp17
 70
     1
102
RTVSPropertyOp18
 70
     1
102
RTVSPropertyOp19
 70
     1
102
RTVSPropertyOp20
 70
     1
102
RTVSPropertyOp21
 70
     1
102
RTVSPropertyOp22
 70
     1
102
RTVSPropertyOp23
 70
     1
102
RTVSPropertyOp24
 70
     1
102
RTVSPropertyOp25
 70
     1
102
RTVSPropertyOp26
 70
     1
102
RTVSPropertyOp27
 70
     1
102
RTVSPropertyOp28
 70
     1
102
RTVSPropertyOp29
 70
     1
102
RTVSPropertyOp30
 70
     1
102
RTVSPropertyOp31
 70
     1
102
RTVSPropertyOp32
 70
     1
  0
XRECORD
  5
BF2
102
{ACAD_REACTORS
330
BF1
102
}
330
BF1
100
AcDbXrecord
280
     1
102
RTVSPropertyOp0
 70
     0
102
RTVSPropertyOp1
 70
     0
102
RTVSPropertyOp2
 70
     0
102
RTVSPropertyOp3
 70
     0
102
RTVSPropertyOp4
 70
     0
102
RTVSPropertyOp5
 70
     0
102
RTVSPropertyOp6
 70
     0
102
RTVSPropertyOp7
 70
     0
102
RTVSPropertyOp8
 70
     0
102
RTVSPropertyOp9
 70
     0
102
RTVSPropertyOp10
 70
     0
102
RTVSPropertyOp11
 70
     0
102
RTVSPropertyOp12
 70
     0
102
RTVSPropertyOp13
 70
     0
102
RTVSPropertyOp14
 70
     2
102
RTVSPropertyOp15
 70
     0
102
RTVSPropertyOp16
 70
     0
102
RTVSPropertyOp17
 70
     0
102
RTVSPropertyOp18
 70
     0
102
RTVSPropertyOp19
 70
     0
102
RTVSPropertyOp20
 70
     0
102
RTVSPropertyOp21
 70
     0
102
RTVSPropertyOp22
 70
     0
102
RTVSPropertyOp23
 70
     0
102
RTVSPropertyOp24
 70
     0
102
RTVSPropertyOp25
 70
     0
102
RTVSPropertyOp26
 70
     0
102
RTVSPropertyOp27
 70
     0
102
RTVSPropertyOp28
 70
     1
102
RTVSPropertyOp29
 70
     1
102
RTVSPropertyOp30
 70
     1
102
RTVSPropertyOp31
 70
     1
102
RTVSPropertyOp32
 70
     1
  0
XRECORD
  5
BE0
102
{ACAD_REACTORS
330
BDF
102
}
330
BDF
100
AcDbXrecord
280
     1
102
RTVSPropertyOp0
 70
     1
102
RTVSPropertyOp1
 70
     1
102
RTVSPropertyOp2
 70
     1
102
RTVSPropertyOp3
 70
     1
102
RTVSPropertyOp4
 70
     1
102
RTVSPropertyOp5
 70
     1
102
RTVSPropertyOp6
 70
     1
102
RTVSPropertyOp7
 70
     1
102
RTVSPropertyOp8
 70
     1
102
RTVSPropertyOp9
 70
     1
102
RTVSPropertyOp10
 70
     1
102
RTVSPropertyOp11
 70
     1
102
RTVSPropertyOp12
 70
     1
102
RTVSPropertyOp13
 70
     1
102
RTVSPropertyOp14
 70
     1
102
RTVSPropertyOp15
 70
     1
102
RTVSPropertyOp16
 70
     1
102
RTVSPropertyOp17
 70
     1
102
RTVSPropertyOp18
 70
     1
102
RTVSPropertyOp19
 70
     1
102
RTVSPropertyOp20
 70
     1
102
RTVSPropertyOp21
 70
     1
102
RTVSPropertyOp22
 70
     1
102
RTVSPropertyOp23
 70
     1
102
RTVSPropertyOp24
 70
     1
102
RTVSPropertyOp25
 70
     1
102
RTVSPropertyOp26
 70
     1
102
RTVSPropertyOp27
 70
     1
102
RTVSPropertyOp28
 70
     1
102
RTVSPropertyOp29
 70
     1
102
RTVSPropertyOp30
 70
     1
102
RTVSPropertyOp31
 70
     1
102
RTVSPropertyOp32
 70
     1
  0
XRECORD
  5
BC4
102
{ACAD_REACTORS
330
BC3
102
}
330
BC3
100
AcDbXrecord
280
     1
102
RTVSPropertyOp0
 70
     1
102
RTVSPropertyOp1
 70
     1
102
RTVSPropertyOp2
 70
     1
102
RTVSPropertyOp3
 70
     1
102
RTVSPropertyOp4
 70
     1
102
RTVSPropertyOp5
 70
     1
102
RTVSPropertyOp6
 70
     1
102
RTVSPropertyOp7
 70
     1
102
RTVSPropertyOp8
 70
     1
102
RTVSPropertyOp9
 70
     1
102
RTVSPropertyOp10
 70
     1
102
RTVSPropertyOp11
 70
     1
102
RTVSPropertyOp12
 70
     1
102
RTVSPropertyOp13
 70
     1
102
RTVSPropertyOp14
 70
     1
102
RTVSPropertyOp15
 70
     1
102
RTVSPropertyOp16
 70
     1
102
RTVSPropertyOp17
 70
     1
102
RTVSPropertyOp18
 70
     1
102
RTVSPropertyOp19
 70
     1
102
RTVSPropertyOp20
 70
     1
102
RTVSPropertyOp21
 70
     1
102
RTVSPropertyOp22
 70
     1
102
RTVSPropertyOp23
 70
     1
102
RTVSPropertyOp24
 70
     1
102
RTVSPropertyOp25
 70
     1
102
RTVSPropertyOp26
 70
     1
102
RTVSPropertyOp27
 70
     1
102
RTVSPropertyOp28
 70
     1
102
RTVSPropertyOp29
 70
     1
102
RTVSPropertyOp30
 70
     1
102
RTVSPropertyOp31
 70
     1
102
RTVSPropertyOp32
 70
     1
  0
XRECORD
  5
BC6
102
{ACAD_REACTORS
330
BC5
102
}
330
BC5
100
AcDbXrecord
280
     1
102
RTVSPropertyOp0
 70
     1
102
RTVSPropertyOp1
 70
     1
102
RTVSPropertyOp2
 70
     1
102
RTVSPropertyOp3
 70
     1
102
RTVSPropertyOp4
 70
     1
102
RTVSPropertyOp5
 70
     1
102
RTVSPropertyOp6
 70
     1
102
RTVSPropertyOp7
 70
     1
102
RTVSPropertyOp8
 70
     1
102
RTVSPropertyOp9
 70
     1
102
RTVSPropertyOp10
 70
     1
102
RTVSPropertyOp11
 70
     1
102
RTVSPropertyOp12
 70
     1
102
RTVSPropertyOp13
 70
     1
102
RTVSPropertyOp14
 70
     1
102
RTVSPropertyOp15
 70
     1
102
RTVSPropertyOp16
 70
     1
102
RTVSPropertyOp17
 70
     1
102
RTVSPropertyOp18
 70
     1
102
RTVSPropertyOp19
 70
     1
102
RTVSPropertyOp20
 70
     1
102
RTVSPropertyOp21
 70
     1
102
RTVSPropertyOp22
 70
     1
102
RTVSPropertyOp23
 70
     1
102
RTVSPropertyOp24
 70
     1
102
RTVSPropertyOp25
 70
     1
102
RTVSPropertyOp26
 70
     1
102
RTVSPropertyOp27
 70
     1
102
RTVSPropertyOp28
 70
     1
102
RTVSPropertyOp29
 70
     1
102
RTVSPropertyOp30
 70
     1
102
RTVSPropertyOp31
 70
     1
102
RTVSPropertyOp32
 70
     1
  0
XRECORD
  5
BC8
102
{ACAD_REACTORS
330
BC7
102
}
330
BC7
100
AcDbXrecord
280
     1
102
RTVSPropertyOp0
 70
     1
102
RTVSPropertyOp1
 70
     1
102
RTVSPropertyOp2
 70
     1
102
RTVSPropertyOp3
 70
     1
102
RTVSPropertyOp4
 70
     1
102
RTVSPropertyOp5
 70
     1
102
RTVSPropertyOp6
 70
     1
102
RTVSPropertyOp7
 70
     1
102
RTVSPropertyOp8
 70
     1
102
RTVSPropertyOp9
 70
     1
102
RTVSPropertyOp10
 70
     1
102
RTVSPropertyOp11
 70
     1
102
RTVSPropertyOp12
 70
     1
102
RTVSPropertyOp13
 70
     1
102
RTVSPropertyOp14
 70
     1
102
RTVSPropertyOp15
 70
     1
102
RTVSPropertyOp16
 70
     1
102
RTVSPropertyOp17
 70
     1
102
RTVSPropertyOp18
 70
     1
102
RTVSPropertyOp19
 70
     1
102
RTVSPropertyOp20
 70
     1
102
RTVSPropertyOp21
 70
     1
102
RTVSPropertyOp22
 70
     1
102
RTVSPropertyOp23
 70
     1
102
RTVSPropertyOp24
 70
     1
102
RTVSPropertyOp25
 70
     1
102
RTVSPropertyOp26
 70
     1
102
RTVSPropertyOp27
 70
     1
102
RTVSPropertyOp28
 70
     1
102
RTVSPropertyOp29
 70
     1
102
RTVSPropertyOp30
 70
     1
102
RTVSPropertyOp31
 70
     1
102
RTVSPropertyOp32
 70
     1
  0
XRECORD
  5
BCA
102
{ACAD_REACTORS
330
BC9
102
}
330
BC9
100
AcDbXrecord
280
     1
102
RTVSPropertyOp0
 70
     1
102
RTVSPropertyOp1
 70
     1
102
RTVSPropertyOp2
 70
     1
102
RTVSPropertyOp3
 70
     1
102
RTVSPropertyOp4
 70
     1
102
RTVSPropertyOp5
 70
     1
102
RTVSPropertyOp6
 70
     1
102
RTVSPropertyOp7
 70
     1
102
RTVSPropertyOp8
 70
     1
102
RTVSPropertyOp9
 70
     1
102
RTVSPropertyOp10
 70
     1
102
RTVSPropertyOp11
 70
     1
102
RTVSPropertyOp12
 70
     1
102
RTVSPropertyOp13
 70
     1
102
RTVSPropertyOp14
 70
     1
102
RTVSPropertyOp15
 70
     1
102
RTVSPropertyOp16
 70
     1
102
RTVSPropertyOp17
 70
     1
102
RTVSPropertyOp18
 70
     1
102
RTVSPropertyOp19
 70
     1
102
RTVSPropertyOp20
 70
     1
102
RTVSPropertyOp21
 70
     1
102
RTVSPropertyOp22
 70
     1
102
RTVSPropertyOp23
 70
     1
102
RTVSPropertyOp24
 70
     1
102
RTVSPropertyOp25
 70
     1
102
RTVSPropertyOp26
 70
     1
102
RTVSPropertyOp27
 70
     1
102
RTVSPropertyOp28
 70
     1
102
RTVSPropertyOp29
 70
     1
102
RTVSPropertyOp30
 70
     1
102
RTVSPropertyOp31
 70
     1
102
RTVSPropertyOp32
 70
     1
  0
XRECORD
  5
BD2
102
{ACAD_REACTORS
330
BD1
102
}
330
BD1
100
AcDbXrecord
280
     1
102
RTVSPropertyOp0
 70
     1
102
RTVSPropertyOp1
 70
     1
102
RTVSPropertyOp2
 70
     1
102
RTVSPropertyOp3
 70
     1
102
RTVSPropertyOp4
 70
     1
102
RTVSPropertyOp5
 70
     1
102
RTVSPropertyOp6
 70
     1
102
RTVSPropertyOp7
 70
     1
102
RTVSPropertyOp8
 70
     1
102
RTVSPropertyOp9
 70
     1
102
RTVSPropertyOp10
 70
     1
102
RTVSPropertyOp11
 70
     1
102
RTVSPropertyOp12
 70
     1
102
RTVSPropertyOp13
 70
     1
102
RTVSPropertyOp14
 70
     1
102
RTVSPropertyOp15
 70
     1
102
RTVSPropertyOp16
 70
     1
102
RTVSPropertyOp17
 70
     1
102
RTVSPropertyOp18
 70
     1
102
RTVSPropertyOp19
 70
     1
102
RTVSPropertyOp20
 70
     1
102
RTVSPropertyOp21
 70
     1
102
RTVSPropertyOp22
 70
     1
102
RTVSPropertyOp23
 70
     1
102
RTVSPropertyOp24
 70
     1
102
RTVSPropertyOp25
 70
     1
102
RTVSPropertyOp26
 70
     1
102
RTVSPropertyOp27
 70
     1
102
RTVSPropertyOp28
 70
     1
102
RTVSPropertyOp29
 70
     1
102
RTVSPropertyOp30
 70
     1
102
RTVSPropertyOp31
 70
     1
102
RTVSPropertyOp32
 70
     1
  0
XRECORD
  5
BEE
102
{ACAD_REACTORS
330
BED
102
}
330
BED
100
AcDbXrecord
280
     1
102
RTVSPropertyOp0
 70
     0
102
RTVSPropertyOp1
 70
     0
102
RTVSPropertyOp2
 70
     0
102
RTVSPropertyOp3
 70
     0
102
RTVSPropertyOp4
 70
     0
102
RTVSPropertyOp5
 70
     0
102
RTVSPropertyOp6
 70
     0
102
RTVSPropertyOp7
 70
     0
102
RTVSPropertyOp8
 70
     0
102
RTVSPropertyOp9
 70
     0
102
RTVSPropertyOp10
 70
     0
102
RTVSPropertyOp11
 70
     0
102
RTVSPropertyOp12
 70
     0
102
RTVSPropertyOp13
 70
     0
102
RTVSPropertyOp14
 70
     2
102
RTVSPropertyOp15
 70
     0
102
RTVSPropertyOp16
 70
     0
102
RTVSPropertyOp17
 70
     0
102
RTVSPropertyOp18
 70
     0
102
RTVSPropertyOp19
 70
     0
102
RTVSPropertyOp20
 70
     0
102
RTVSPropertyOp21
 70
     0
102
RTVSPropertyOp22
 70
     0
102
RTVSPropertyOp23
 70
     0
102
RTVSPropertyOp24
 70
     0
102
RTVSPropertyOp25
 70
     0
102
RTVSPropertyOp26
 70
     0
102
RTVSPropertyOp27
 70
     0
102
RTVSPropertyOp28
 70
     1
102
RTVSPropertyOp29
 70
     1
102
RTVSPropertyOp30
 70
     1
102
RTVSPropertyOp31
 70
     1
102
RTVSPropertyOp32
 70
     1
  0
XRECORD
  5
BDE
102
{ACAD_REACTORS
330
BDD
102
}
330
BDD
100
AcDbXrecord
280
     1
102
RTVSPropertyOp0
 70
     1
102
RTVSPropertyOp1
 70
     1
102
RTVSPropertyOp2
 70
     1
102
RTVSPropertyOp3
 70
     1
102
RTVSPropertyOp4
 70
     1
102
RTVSPropertyOp5
 70
     1
102
RTVSPropertyOp6
 70
     1
102
RTVSPropertyOp7
 70
     1
102
RTVSPropertyOp8
 70
     1
102
RTVSPropertyOp9
 70
     1
102
RTVSPropertyOp10
 70
     1
102
RTVSPropertyOp11
 70
     1
102
RTVSPropertyOp12
 70
     1
102
RTVSPropertyOp13
 70
     1
102
RTVSPropertyOp14
 70
     1
102
RTVSPropertyOp15
 70
     1
102
RTVSPropertyOp16
 70
     1
102
RTVSPropertyOp17
 70
     1
102
RTVSPropertyOp18
 70
     1
102
RTVSPropertyOp19
 70
     1
102
RTVSPropertyOp20
 70
     1
102
RTVSPropertyOp21
 70
     1
102
RTVSPropertyOp22
 70
     1
102
RTVSPropertyOp23
 70
     1
102
RTVSPropertyOp24
 70
     1
102
RTVSPropertyOp25
 70
     1
102
RTVSPropertyOp26
 70
     1
102
RTVSPropertyOp27
 70
     1
102
RTVSPropertyOp28
 70
     1
102
RTVSPropertyOp29
 70
     1
102
RTVSPropertyOp30
 70
     1
102
RTVSPropertyOp31
 70
     1
102
RTVSPropertyOp32
 70
     1
  0
XRECORD
  5
BF0
102
{ACAD_REACTORS
330
BEF
102
}
330
BEF
100
AcDbXrecord
280
     1
102
RTVSPropertyOp0
 70
     0
102
RTVSPropertyOp1
 70
     0
102
RTVSPropertyOp2
 70
     0
102
RTVSPropertyOp3
 70
     0
102
RTVSPropertyOp4
 70
     0
102
RTVSPropertyOp5
 70
     0
102
RTVSPropertyOp6
 70
     0
102
RTVSPropertyOp7
 70
     0
102
RTVSPropertyOp8
 70
     0
102
RTVSPropertyOp9
 70
     0
102
RTVSPropertyOp10
 70
     0
102
RTVSPropertyOp11
 70
     0
102
RTVSPropertyOp12
 70
     0
102
RTVSPropertyOp13
 70
     0
102
RTVSPropertyOp14
 70
     2
102
RTVSPropertyOp15
 70
     0
102
RTVSPropertyOp16
 70
     0
102
RTVSPropertyOp17
 70
     0
102
RTVSPropertyOp18
 70
     0
102
RTVSPropertyOp19
 70
     0
102
RTVSPropertyOp20
 70
     0
102
RTVSPropertyOp21
 70
     0
102
RTVSPropertyOp22
 70
     0
102
RTVSPropertyOp23
 70
     0
102
RTVSPropertyOp24
 70
     0
102
RTVSPropertyOp25
 70
     0
102
RTVSPropertyOp26
 70
     0
102
RTVSPropertyOp27
 70
     0
102
RTVSPropertyOp28
 70
     1
102
RTVSPropertyOp29
 70
     1
102
RTVSPropertyOp30
 70
     1
102
RTVSPropertyOp31
 70
     1
102
RTVSPropertyOp32
 70
     1
  0
XRECORD
  5
BD6
102
{ACAD_REACTORS
330
BD5
102
}
330
BD5
100
AcDbXrecord
280
     1
102
RTVSPropertyOp0
 70
     1
102
RTVSPropertyOp1
 70
     1
102
RTVSPropertyOp2
 70
     1
102
RTVSPropertyOp3
 70
     1
102
RTVSPropertyOp4
 70
     1
102
RTVSPropertyOp5
 70
     1
102
RTVSPropertyOp6
 70
     1
102
RTVSPropertyOp7
 70
     1
102
RTVSPropertyOp8
 70
     1
102
RTVSPropertyOp9
 70
     1
102
RTVSPropertyOp10
 70
     1
102
RTVSPropertyOp11
 70
     1
102
RTVSPropertyOp12
 70
     1
102
RTVSPropertyOp13
 70
     1
102
RTVSPropertyOp14
 70
     1
102
RTVSPropertyOp15
 70
     1
102
RTVSPropertyOp16
 70
     1
102
RTVSPropertyOp17
 70
     1
102
RTVSPropertyOp18
 70
     1
102
RTVSPropertyOp19
 70
     1
102
RTVSPropertyOp20
 70
     1
102
RTVSPropertyOp21
 70
     1
102
RTVSPropertyOp22
 70
     1
102
RTVSPropertyOp23
 70
     1
102
RTVSPropertyOp24
 70
     1
102
RTVSPropertyOp25
 70
     1
102
RTVSPropertyOp26
 70
     1
102
RTVSPropertyOp27
 70
     1
102
RTVSPropertyOp28
 70
     1
102
RTVSPropertyOp29
 70
     1
102
RTVSPropertyOp30
 70
     1
102
RTVSPropertyOp31
 70
     1
102
RTVSPropertyOp32
 70
     1
  0
XRECORD
  5
BEC
102
{ACAD_REACTORS
330
BEB
102
}
330
BEB
100
AcDbXrecord
280
     1
102
RTVSPropertyOp0
 70
     1
102
RTVSPropertyOp1
 70
     1
102
RTVSPropertyOp2
 70
     1
102
RTVSPropertyOp3
 70
     1
102
RTVSPropertyOp4
 70
     1
102
RTVSPropertyOp5
 70
     1
102
RTVSPropertyOp6
 70
     1
102
RTVSPropertyOp7
 70
     1
102
RTVSPropertyOp8
 70
     1
102
RTVSPropertyOp9
 70
     1
102
RTVSPropertyOp10
 70
     1
102
RTVSPropertyOp11
 70
     1
102
RTVSPropertyOp12
 70
     1
102
RTVSPropertyOp13
 70
     1
102
RTVSPropertyOp14
 70
     1
102
RTVSPropertyOp15
 70
     1
102
RTVSPropertyOp16
 70
     1
102
RTVSPropertyOp17
 70
     1
102
RTVSPropertyOp18
 70
     1
102
RTVSPropertyOp19
 70
     1
102
RTVSPropertyOp20
 70
     1
102
RTVSPropertyOp21
 70
     1
102
RTVSPropertyOp22
 70
     1
102
RTVSPropertyOp23
 70
     1
102
RTVSPropertyOp24
 70
     1
102
RTVSPropertyOp25
 70
     1
102
RTVSPropertyOp26
 70
     1
102
RTVSPropertyOp27
 70
     1
102
RTVSPropertyOp28
 70
     1
102
RTVSPropertyOp29
 70
     1
102
RTVSPropertyOp30
 70
     1
102
RTVSPropertyOp31
 70
     1
102
RTVSPropertyOp32
 70
     1
  0
XRECORD
  5
BEA
102
{ACAD_REACTORS
330
BE9
102
}
330
BE9
100
AcDbXrecord
280
     1
102
RTVSPropertyOp0
 70
     1
102
RTVSPropertyOp1
 70
     1
102
RTVSPropertyOp2
 70
     1
102
RTVSPropertyOp3
 70
     1
102
RTVSPropertyOp4
 70
     1
102
RTVSPropertyOp5
 70
     1
102
RTVSPropertyOp6
 70
     1
102
RTVSPropertyOp7
 70
     1
102
RTVSPropertyOp8
 70
     1
102
RTVSPropertyOp9
 70
     1
102
RTVSPropertyOp10
 70
     1
102
RTVSPropertyOp11
 70
     1
102
RTVSPropertyOp12
 70
     1
102
RTVSPropertyOp13
 70
     1
102
RTVSPropertyOp14
 70
     1
102
RTVSPropertyOp15
 70
     1
102
RTVSPropertyOp16
 70
     1
102
RTVSPropertyOp17
 70
     1
102
RTVSPropertyOp18
 70
     1
102
RTVSPropertyOp19
 70
     1
102
RTVSPropertyOp20
 70
     1
102
RTVSPropertyOp21
 70
     1
102
RTVSPropertyOp22
 70
     1
102
RTVSPropertyOp23
 70
     1
102
RTVSPropertyOp24
 70
     1
102
RTVSPropertyOp25
 70
     1
102
RTVSPropertyOp26
 70
     1
102
RTVSPropertyOp27
 70
     1
102
RTVSPropertyOp28
 70
     1
102
RTVSPropertyOp29
 70
     1
102
RTVSPropertyOp30
 70
     1
102
RTVSPropertyOp31
 70
     1
102
RTVSPropertyOp32
 70
     1
  0
XRECORD
  5
BE4
102
{ACAD_REACTORS
330
BE3
102
}
330
BE3
100
AcDbXrecord
280
     1
102
RTVSPropertyOp0
 70
     1
102
RTVSPropertyOp1
 70
     1
102
RTVSPropertyOp2
 70
     1
102
RTVSPropertyOp3
 70
     1
102
RTVSPropertyOp4
 70
     1
102
RTVSPropertyOp5
 70
     1
102
RTVSPropertyOp6
 70
     1
102
RTVSPropertyOp7
 70
     1
102
RTVSPropertyOp8
 70
     1
102
RTVSPropertyOp9
 70
     1
102
RTVSPropertyOp10
 70
     1
102
RTVSPropertyOp11
 70
     1
102
RTVSPropertyOp12
 70
     1
102
RTVSPropertyOp13
 70
     1
102
RTVSPropertyOp14
 70
     1
102
RTVSPropertyOp15
 70
     1
102
RTVSPropertyOp16
 70
     1
102
RTVSPropertyOp17
 70
     1
102
RTVSPropertyOp18
 70
     1
102
RTVSPropertyOp19
 70
     1
102
RTVSPropertyOp20
 70
     1
102
RTVSPropertyOp21
 70
     1
102
RTVSPropertyOp22
 70
     1
102
RTVSPropertyOp23
 70
     1
102
RTVSPropertyOp24
 70
     1
102
RTVSPropertyOp25
 70
     1
102
RTVSPropertyOp26
 70
     1
102
RTVSPropertyOp27
 70
     1
102
RTVSPropertyOp28
 70
     1
102
RTVSPropertyOp29
 70
     1
102
RTVSPropertyOp30
 70
     1
102
RTVSPropertyOp31
 70
     1
102
RTVSPropertyOp32
 70
     1
  0
XRECORD
  5
BE6
102
{ACAD_REACTORS
330
BE5
102
}
330
BE5
100
AcDbXrecord
280
     1
102
RTVSPropertyOp0
 70
     1
102
RTVSPropertyOp1
 70
     1
102
RTVSPropertyOp2
 70
     1
102
RTVSPropertyOp3
 70
     1
102
RTVSPropertyOp4
 70
     1
102
RTVSPropertyOp5
 70
     1
102
RTVSPropertyOp6
 70
     1
102
RTVSPropertyOp7
 70
     1
102
RTVSPropertyOp8
 70
     1
102
RTVSPropertyOp9
 70
     1
102
RTVSPropertyOp10
 70
     1
102
RTVSPropertyOp11
 70
     1
102
RTVSPropertyOp12
 70
     1
102
RTVSPropertyOp13
 70
     1
102
RTVSPropertyOp14
 70
     1
102
RTVSPropertyOp15
 70
     1
102
RTVSPropertyOp16
 70
     1
102
RTVSPropertyOp17
 70
     1
102
RTVSPropertyOp18
 70
     1
102
RTVSPropertyOp19
 70
     1
102
RTVSPropertyOp20
 70
     1
102
RTVSPropertyOp21
 70
     1
102
RTVSPropertyOp22
 70
     1
102
RTVSPropertyOp23
 70
     1
102
RTVSPropertyOp24
 70
     1
102
RTVSPropertyOp25
 70
     1
102
RTVSPropertyOp26
 70
     1
102
RTVSPropertyOp27
 70
     1
102
RTVSPropertyOp28
 70
     1
102
RTVSPropertyOp29
 70
     1
102
RTVSPropertyOp30
 70
     1
102
RTVSPropertyOp31
 70
     1
102
RTVSPropertyOp32
 70
     1
  0
XRECORD
  5
BDC
102
{ACAD_REACTORS
330
BDB
102
}
330
BDB
100
AcDbXrecord
280
     1
102
RTVSPropertyOp0
 70
     1
102
RTVSPropertyOp1
 70
     1
102
RTVSPropertyOp2
 70
     1
102
RTVSPropertyOp3
 70
     1
102
RTVSPropertyOp4
 70
     1
102
RTVSPropertyOp5
 70
     1
102
RTVSPropertyOp6
 70
     1
102
RTVSPropertyOp7
 70
     1
102
RTVSPropertyOp8
 70
     1
102
RTVSPropertyOp9
 70
     1
102
RTVSPropertyOp10
 70
     1
102
RTVSPropertyOp11
 70
     1
102
RTVSPropertyOp12
 70
     1
102
RTVSPropertyOp13
 70
     1
102
RTVSPropertyOp14
 70
     1
102
RTVSPropertyOp15
 70
     1
102
RTVSPropertyOp16
 70
     1
102
RTVSPropertyOp17
 70
     1
102
RTVSPropertyOp18
 70
     1
102
RTVSPropertyOp19
 70
     1
102
RTVSPropertyOp20
 70
     1
102
RTVSPropertyOp21
 70
     1
102
RTVSPropertyOp22
 70
     1
102
RTVSPropertyOp23
 70
     1
102
RTVSPropertyOp24
 70
     1
102
RTVSPropertyOp25
 70
     1
102
RTVSPropertyOp26
 70
     1
102
RTVSPropertyOp27
 70
     1
102
RTVSPropertyOp28
 70
     1
102
RTVSPropertyOp29
 70
     1
102
RTVSPropertyOp30
 70
     1
102
RTVSPropertyOp31
 70
     1
102
RTVSPropertyOp32
 70
     1
  0
XRECORD
  5
BD0
102
{ACAD_REACTORS
330
BCF
102
}
330
BCF
100
AcDbXrecord
280
     1
102
RTVSPropertyOp0
 70
     1
102
RTVSPropertyOp1
 70
     1
102
RTVSPropertyOp2
 70
     1
102
RTVSPropertyOp3
 70
     1
102
RTVSPropertyOp4
 70
     1
102
RTVSPropertyOp5
 70
     1
102
RTVSPropertyOp6
 70
     1
102
RTVSPropertyOp7
 70
     1
102
RTVSPropertyOp8
 70
     1
102
RTVSPropertyOp9
 70
     1
102
RTVSPropertyOp10
 70
     1
102
RTVSPropertyOp11
 70
     1
102
RTVSPropertyOp12
 70
     1
102
RTVSPropertyOp13
 70
     1
102
RTVSPropertyOp14
 70
     1
102
RTVSPropertyOp15
 70
     1
102
RTVSPropertyOp16
 70
     1
102
RTVSPropertyOp17
 70
     1
102
RTVSPropertyOp18
 70
     1
102
RTVSPropertyOp19
 70
     1
102
RTVSPropertyOp20
 70
     1
102
RTVSPropertyOp21
 70
     1
102
RTVSPropertyOp22
 70
     1
102
RTVSPropertyOp23
 70
     1
102
RTVSPropertyOp24
 70
     1
102
RTVSPropertyOp25
 70
     1
102
RTVSPropertyOp26
 70
     1
102
RTVSPropertyOp27
 70
     1
102
RTVSPropertyOp28
 70
     1
102
RTVSPropertyOp29
 70
     1
102
RTVSPropertyOp30
 70
     1
102
RTVSPropertyOp31
 70
     1
102
RTVSPropertyOp32
 70
     1
  0
XRECORD
  5
BE8
102
{ACAD_REACTORS
330
BE7
102
}
330
BE7
100
AcDbXrecord
280
     1
102
RTVSPropertyOp0
 70
     1
102
RTVSPropertyOp1
 70
     1
102
RTVSPropertyOp2
 70
     1
102
RTVSPropertyOp3
 70
     1
102
RTVSPropertyOp4
 70
     1
102
RTVSPropertyOp5
 70
     1
102
RTVSPropertyOp6
 70
     1
102
RTVSPropertyOp7
 70
     1
102
RTVSPropertyOp8
 70
     1
102
RTVSPropertyOp9
 70
     1
102
RTVSPropertyOp10
 70
     1
102
RTVSPropertyOp11
 70
     1
102
RTVSPropertyOp12
 70
     1
102
RTVSPropertyOp13
 70
     1
102
RTVSPropertyOp14
 70
     1
102
RTVSPropertyOp15
 70
     1
102
RTVSPropertyOp16
 70
     1
102
RTVSPropertyOp17
 70
     1
102
RTVSPropertyOp18
 70
     1
102
RTVSPropertyOp19
 70
     1
102
RTVSPropertyOp20
 70
     1
102
RTVSPropertyOp21
 70
     1
102
RTVSPropertyOp22
 70
     1
102
RTVSPropertyOp23
 70
     1
102
RTVSPropertyOp24
 70
     1
102
RTVSPropertyOp25
 70
     1
102
RTVSPropertyOp26
 70
     1
102
RTVSPropertyOp27
 70
     1
102
RTVSPropertyOp28
 70
     1
102
RTVSPropertyOp29
 70
     1
102
RTVSPropertyOp30
 70
     1
102
RTVSPropertyOp31
 70
     1
102
RTVSPropertyOp32
 70
     1
  0
ENDSEC
  0
EOF
