  0
SECTION
  2
HEADER
  9
$ACADVER
  1
AC1015
  9
$ACADMAINTVER
 70
    18
  9
$DWGCODEPAGE
  3
ANSI_1252
  9
$INSBASE
 10
0.0
 20
0.0
 30
0.0
  9
$EXTMIN
 10
0.0
 20
0.0
 30
0.0
  9
$EXTMAX
 10
45.33333333333333
 20
29.33333333333333
 30
0.0
  9
$LIMMIN
 10
0.0
 20
0.0
  9
$LIMMAX
 10
45.33333333333333
 20
29.33333333333333
  9
$ORTHOMODE
 70
     0
  9
$REGENMODE
 70
     1
  9
$FILLMODE
 70
     1
  9
$QTEXTMODE
 70
     0
  9
$MIRRTEXT
 70
     0
  9
$LTSCALE
 40
2.666666666666666
  9
$ATTMODE
 70
     1
  9
$TEXTSIZE
 40
0.2
  9
$TRACEWID
 40
0.05
  9
$TEXTSTYLE
  7
Standard
  9
$CLAYER
  8
0
  9
$CELTYPE
  6
ByLayer
  9
$CECOLOR
 62
   256
  9
$CELTSCALE
 40
1.0
  9
$DISPSILH
 70
     0
  9
$DIMSCALE
 40
1.0
  9
$DIMASZ
 40
0.0708661417322835
  9
$DIMEXO
 40
0.0625
  9
$DIMDLI
 40
0.38
  9
$DIMRND
 40
0.0
  9
$DIMDLE
 40
0.0
  9
$DIMEXE
 40
0.18
  9
$DIMTP
 40
0.0
  9
$DIMTM
 40
0.0
  9
$DIMTXT
 40
0.0708661417322835
  9
$DIMCEN
 40
0.09
  9
$DIMTSZ
 40
0.0
  9
$DIMTOL
 70
     0
  9
$DIMLIM
 70
     0
  9
$DIMTIH
 70
     1
  9
$DIMTOH
 70
     1
  9
$DIMSE1
 70
     0
  9
$DIMSE2
 70
     0
  9
$DIMTAD
 70
     0
  9
$DIMZIN
 70
     0
  9
$DIMBLK
  1

  9
$DIMASO
 70
     1
  9
$DIMSHO
 70
     1
  9
$DIMPOST
  1

  9
$DIMAPOST
  1

  9
$DIMALT
 70
     0
  9
$DIMALTD
 70
     2
  9
$DIMALTF
 40
25.4
  9
$DIMLFAC
 40
1.0
  9
$DIMTOFL
 70
     0
  9
$DIMTVP
 40
0.0
  9
$DIMTIX
 70
     0
  9
$DIMSOXD
 70
     0
  9
$DIMSAH
 70
     0
  9
$DIMBLK1
  1

  9
$DIMBLK2
  1

  9
$DIMSTYLE
  2
Standard
  9
$DIMCLRD
 70
     0
  9
$DIMCLRE
 70
     0
  9
$DIMCLRT
 70
     0
  9
$DIMTFAC
 40
1.0
  9
$DIMGAP
 40
0.09
  9
$DIMJUST
 70
     0
  9
$DIMSD1
 70
     0
  9
$DIMSD2
 70
     0
  9
$DIMTOLJ
 70
     1
  9
$DIMTZIN
 70
     0
  9
$DIMALTZ
 70
     0
  9
$DIMALTTZ
 70
     0
  9
$DIMUPT
 70
     0
  9
$DIMDEC
 70
     4
  9
$DIMTDEC
 70
     4
  9
$DIMALTU
 70
     2
  9
$DIMALTTD
 70
     2
  9
$DIMTXSTY
  7
Standard
  9
$DIMAUNIT
 70
     0
  9
$DIMADEC
 70
     0
  9
$DIMALTRND
 40
0.0
  9
$DIMAZIN
 70
     0
  9
$DIMDSEP
 70
    46
  9
$DIMATFIT
 70
     3
  9
$DIMFRAC
 70
     0
  9
$DIMLDRBLK
  1

  9
$DIMLUNIT
 70
     2
  9
$DIMLWD
 70
    -2
  9
$DIMLWE
 70
    -2
  9
$DIMTMOVE
 70
     0
  9
$LUNITS
 70
     2
  9
$LUPREC
 70
     4
  9
$SKETCHINC
 40
0.1
  9
$FILLETRAD
 40
0.0
  9
$AUNITS
 70
     0
  9
$AUPREC
 70
     0
  9
$MENU
  1
.
  9
$ELEVATION
 40
0.0
  9
$PELEVATION
 40
0.0
  9
$THICKNESS
 40
0.0
  9
$LIMCHECK
 70
     0
  9
$CHAMFERA
 40
0.0
  9
$CHAMFERB
 40
0.0
  9
$CHAMFERC
 40
0.0
  9
$CHAMFERD
 40
0.0
  9
$SKPOLY
 70
     0
  9
$TDCREATE
 40
2455945.543678310
  9
$TDUCREATE
 40
2455945.793678310
  9
$TDUPDATE
 40
2455945.543678310
  9
$TDUUPDATE
 40
2455945.793678310
  9
$TDINDWG
 40
0.0000349190
  9
$TDUSRTIMER
 40
0.0000349190
  9
$USRTIMER
 70
     1
  9
$ANGBASE
 50
0.0
  9
$ANGDIR
 70
     0
  9
$PDMODE
 70
     0
  9
$PDSIZE
 40
0.0
  9
$PLINEWID
 40
0.0
  9
$SPLFRAME
 70
     0
  9
$SPLINETYPE
 70
     6
  9
$SPLINESEGS
 70
     8
  9
$HANDSEED
  5
CE7
  9
$SURFTAB1
 70
     6
  9
$SURFTAB2
 70
     6
  9
$SURFTYPE
 70
     6
  9
$SURFU
 70
     6
  9
$SURFV
 70
     6
  9
$UCSBASE
  2

  9
$UCSNAME
  2

  9
$UCSORG
 10
0.0
 20
0.0
 30
0.0
  9
$UCSXDIR
 10
1.0
 20
0.0
 30
0.0
  9
$UCSYDIR
 10
0.0
 20
1.0
 30
0.0
  9
$UCSORTHOREF
  2

  9
$UCSORTHOVIEW
 70
     0
  9
$UCSORGTOP
 10
0.0
 20
0.0
 30
0.0
  9
$UCSORGBOTTOM
 10
0.0
 20
0.0
 30
0.0
  9
$UCSORGLEFT
 10
0.0
 20
0.0
 30
0.0
  9
$UCSORGRIGHT
 10
0.0
 20
0.0
 30
0.0
  9
$UCSORGFRONT
 10
0.0
 20
0.0
 30
0.0
  9
$UCSORGBACK
 10
0.0
 20
0.0
 30
0.0
  9
$PUCSBASE
  2

  9
$PUCSNAME
  2

  9
$PUCSORG
 10
0.0
 20
0.0
 30
0.0
  9
$PUCSXDIR
 10
1.0
 20
0.0
 30
0.0
  9
$PUCSYDIR
 10
0.0
 20
1.0
 30
0.0
  9
$PUCSORTHOREF
  2

  9
$PUCSORTHOVIEW
 70
     0
  9
$PUCSORGTOP
 10
0.0
 20
0.0
 30
0.0
  9
$PUCSORGBOTTOM
 10
0.0
 20
0.0
 30
0.0
  9
$PUCSORGLEFT
 10
0.0
 20
0.0
 30
0.0
  9
$PUCSORGRIGHT
 10
0.0
 20
0.0
 30
0.0
  9
$PUCSORGFRONT
 10
0.0
 20
0.0
 30
0.0
  9
$PUCSORGBACK
 10
0.0
 20
0.0
 30
0.0
  9
$USERI1
 70
     0
  9
$USERI2
 70
     0
  9
$USERI3
 70
     0
  9
$USERI4
 70
     0
  9
$USERI5
 70
     0
  9
$USERR1
 40
0.0
  9
$USERR2
 40
0.0
  9
$USERR3
 40
0.0
  9
$USERR4
 40
0.0
  9
$USERR5
 40
0.0
  9
$WORLDVIEW
 70
     1
  9
$SHADEDGE
 70
     3
  9
$SHADEDIF
 70
    70
  9
$TILEMODE
 70
     1
  9
$MAXACTVP
 70
    64
  9
$PINSBASE
 10
0.0
 20
0.0
 30
0.0
  9
$PLIMCHECK
 70
     0
  9
$PEXTMIN
 10
0.0
 20
0.0
 30
0.0
  9
$PEXTMAX
 10
45.33333333333333
 20
29.33333333333333
 30
0.0
  9
$PLIMMIN
 10
0.0
 20
0.0
  9
$PLIMMAX
 10
45.33333333333333
 20
29.33333333333333
  9
$UNITMODE
 70
     0
  9
$VISRETAIN
 70
     1
  9
$PLINEGEN
 70
     0
  9
$PSLTSCALE
 70
     1
  9
$TREEDEPTH
 70
  3020
  9
$CMLSTYLE
  2
Standard
  9
$CMLJUST
 70
     0
  9
$CMLSCALE
 40
1.0
  9
$PROXYGRAPHICS
 70
     1
  9
$MEASUREMENT
 70
     0
  9
$CELWEIGHT
370
    -1
  9
$ENDCAPS
280
     0
  9
$JOINSTYLE
280
     0
  9
$LWDISPLAY
290
     0
  9
$INSUNITS
 70
     1
  9
$HYPERLINKBASE
  1

  9
$STYLESHEET
  1

  9
$XEDIT
290
     1
  9
$CEPSNTYPE
380
     0
  9
$PSTYLEMODE
290
     1
  9
$FINGERPRINTGUID
  2
{BDA29C16-7932-4BB4-AFD2-0B67FD1963EB}
  9
$VERSIONGUID
  2
{F8448605-D030-464A-B4F3-D76AD514C934}
  9
$EXTNAMES
290
     1
  9
$PSVPSCALE
 40
0.0
  9
$OLESTARTUP
290
     0
  0
ENDSEC
  0
SECTION
  2
CLASSES
  0
CLASS
  1
ACDBDICTIONARYWDFLT
  2
AcDbDictionaryWithDefault
  3
ObjectDBX Classes
 90
        0
280
     0
281
     0
  0
CLASS
  1
MATERIAL
  2
AcDbMaterial
  3
ObjectDBX Classes
 90
     1153
280
     0
281
     0
  0
CLASS
  1
VISUALSTYLE
  2
AcDbVisualStyle
  3
ObjectDBX Classes
 90
     4095
280
     0
281
     0
  0
CLASS
  1
SCALE
  2
AcDbScale
  3
ObjectDBX Classes
 90
     1153
280
     0
281
     0
  0
CLASS
  1
TABLESTYLE
  2
AcDbTableStyle
  3
ObjectDBX Classes
 90
     4095
280
     0
281
     0
  0
CLASS
  1
MLEADERSTYLE
  2
AcDbMLeaderStyle
  3
ACDB_MLEADERSTYLE_CLASS
 90
     4095
280
     0
281
     0
  0
CLASS
  1
DICTIONARYVAR
  2
AcDbDictionaryVar
  3
ObjectDBX Classes
 90
        0
280
     0
281
     0
  0
CLASS
  1
CELLSTYLEMAP
  2
AcDbCellStyleMap
  3
ObjectDBX Classes
 90
     1152
280
     0
281
     0
  0
CLASS
  1
ACDBPLACEHOLDER
  2
AcDbPlaceHolder
  3
ObjectDBX Classes
 90
        0
280
     0
281
     0
  0
CLASS
  1
LAYOUT
  2
AcDbLayout
  3
ObjectDBX Classes
 90
        0
280
     0
281
     0
  0
ENDSEC
  0
SECTION
  2
TABLES
  0
TABLE
  2
VPORT
  5
8
330
0
100
AcDbSymbolTable
 70
     1
  0
VPORT
  5
57
330
8
100
AcDbSymbolTableRecord
100
AcDbViewportTableRecord
  2
*Active
 70
     0
 10
0.0
 20
0.0
 11
1.0
 21
1.0
 12
22.66666666666667
 22
14.66666666666666
 13
0.0
 23
0.0
 14
1.0
 24
1.0
 15
0.0
 25
0.0
 16
0.0
 26
0.0
 36
1.0
 17
0.0
 27
0.0
 37
0.0
 40
29.33333333333333
 41
1.545454545454545
 42
50.0
 43
0.0
 44
0.0
 50
0.0
 51
0.0
 71
     0
 72
   100
 73
     1
 74
     1
 75
     0
 76
     0
 77
     0
 78
     0
281
     0
 65
     1
110
0.0
120
0.0
130
0.0
111
1.0
121
0.0
131
0.0
112
0.0
122
1.0
132
0.0
 79
     0
146
0.0
  0
ENDTAB
  0
TABLE
  2
LTYPE
  5
5
330
0
100
AcDbSymbolTable
 70
    59
  0
LTYPE
  5
5B
330
5
100
AcDbSymbolTableRecord
100
AcDbLinetypeTableRecord
  2
ByBlock
 70
     0
  3

 72
    65
 73
     0
 40
0.0
  0
LTYPE
  5
5C
330
5
100
AcDbSymbolTableRecord
100
AcDbLinetypeTableRecord
  2
ByLayer
 70
     0
  3

 72
    65
 73
     0
 40
0.0
  0
LTYPE
  5
5D
330
5
100
AcDbSymbolTableRecord
100
AcDbLinetypeTableRecord
  2
Continuous
 70
     0
  3
Solid line
 72
    65
 73
     0
 40
0.0
  0
LTYPE
  5
7C
330
5
100
AcDbSymbolTableRecord
100
AcDbLinetypeTableRecord
  2
BY_STANDARD
 70
     0
  3
By Standard ____________    ____    ____   _
 72
    65
 73
     6
 40
1.240299999999999
 49
0.6614
 74
     0
 49
-0.0827
 74
     0
 49
0.1654
 74
     0
 49
-0.0827
 74
     0
 49
0.1654
 74
     0
 49
-0.0827
 74
     0
  0
LTYPE
  5
7D
330
5
100
AcDbSymbolTableRecord
100
AcDbLinetypeTableRecord
  2
CHAIN
 70
     0
  3
Chain ____ _ ____ _ ____ _ ____ _ ____ _ ____
 72
    65
 73
     4
 40
0.7087
 49
0.4724000000000001
 74
     0
 49
-0.0591
 74
     0
 49
0.1181
 74
     0
 49
-0.0591
 74
     0
  0
LTYPE
  5
7E
330
5
100
AcDbSymbolTableRecord
100
AcDbLinetypeTableRecord
  2
DASH_DOT
 70
     0
  3
Dash dot __ . __ . __ . __ . __ . __ . __ . __
 72
    65
 73
     4
 40
0.37
 49
0.24
 74
     0
 49
-0.06
 74
     0
 49
0.01
 74
     0
 49
-0.06
 74
     0
  0
LTYPE
  5
7F
330
5
100
AcDbSymbolTableRecord
100
AcDbLinetypeTableRecord
  2
DOUBLE_DASH_DOT
 70
     0
  3
Double-Dash Dot __ __ . __ __ . __ __ . __ _
 72
    65
 73
     6
 40
0.4398
 49
0.24
 74
     0
 49
-0.06
 74
     0
 49
0.0098
 74
     0
 49
-0.06
 74
     0
 49
0.01
 74
     0
 49
-0.06
 74
     0
  0
LTYPE
  5
80
330
5
100
AcDbSymbolTableRecord
100
AcDbLinetypeTableRecord
  2
DASH_TRIPLE_DOT
 70
     0
  3
Dash Triple-Dot _ . . . _ . . . _ . . . _
 72
    65
 73
     8
 40
0.51
 49
0.24
 74
     0
 49
-0.06
 74
     0
 49
0.01
 74
     0
 49
-0.06
 74
     0
 49
0.01
 74
     0
 49
-0.06
 74
     0
 49
0.01
 74
     0
 49
-0.06
 74
     0
  0
LTYPE
  5
81
330
5
100
AcDbSymbolTableRecord
100
AcDbLinetypeTableRecord
  2
DASHED
 70
     0
  3
Dashed __ __ __ __ __ __ __ __ __ __ __ __ __ _
 72
    65
 73
     2
 40
0.2067
 49
0.1654
 74
     0
 49
-0.0413
 74
     0
  0
LTYPE
  5
82
330
5
100
AcDbSymbolTableRecord
100
AcDbLinetypeTableRecord
  2
DASH_DOUBLE_DOT
 70
     0
  3
Dash Double-Dot __ . . __ . . __ . . __ . .
 72
    65
 73
     6
 40
0.4398
 49
0.24
 74
     0
 49
-0.06
 74
     0
 49
0.0098
 74
     0
 49
-0.06
 74
     0
 49
0.01
 74
     0
 49
-0.06
 74
     0
  0
LTYPE
  5
83
330
5
100
AcDbSymbolTableRecord
100
AcDbLinetypeTableRecord
  2
DASHED_SPACE
 70
     0
  3
Dashed Space __ __ __ __ __ __ __ __ __ __ __ _
 72
    65
 73
     2
 40
0.2067
 49
0.1654
 74
     0
 49
-0.0413
 74
     0
  0
LTYPE
  5
84
330
5
100
AcDbSymbolTableRecord
100
AcDbLinetypeTableRecord
  2
DOTTED
 70
     0
  3
Dotted . . . . . . . . . . . . . . . . . . . . 
 72
    65
 73
     2
 40
0.0482
 49
0.0069
 74
     0
 49
-0.0413
 74
     0
  0
LTYPE
  5
85
330
5
100
AcDbSymbolTableRecord
100
AcDbLinetypeTableRecord
  2
DOUBLE_DASH_CHAIN
 70
     0
  3
Double-Dash Chain ______  __  __  ______  __  _
 72
    65
 73
     6
 40
1.240299999999999
 49
0.6614
 74
     0
 49
-0.0827
 74
     0
 49
0.1654
 74
     0
 49
-0.0827
 74
     0
 49
0.1654
 74
     0
 49
-0.0827
 74
     0
  0
LTYPE
  5
87
330
5
100
AcDbSymbolTableRecord
100
AcDbLinetypeTableRecord
  2
DOUBLE_DASH_DOUBLE_DOT
 70
     0
  3
Double-Dash Double-dot _ _ . . _ _ . . _
 72
    65
 73
     8
 40
0.7400000000000001
 49
0.24
 74
     0
 49
-0.06
 74
     0
 49
0.24
 74
     0
 49
-0.06
 74
     0
 49
0.01
 74
     0
 49
-0.06
 74
     0
 49
0.01
 74
     0
 49
-0.06
 74
     0
  0
LTYPE
  5
88
330
5
100
AcDbSymbolTableRecord
100
AcDbLinetypeTableRecord
  2
DOUBLE_DASH_TRIPLE_DOT
 70
     0
  3
Double Dash Triple Dot __ __ . . . __ __ . .
 72
    65
 73
    10
 40
0.8100000000000001
 49
0.24
 74
     0
 49
-0.06
 74
     0
 49
0.24
 74
     0
 49
-0.06
 74
     0
 49
0.01
 74
     0
 49
-0.06
 74
     0
 49
0.01
 74
     0
 49
-0.06
 74
     0
 49
0.01
 74
     0
 49
-0.06
 74
     0
  0
LTYPE
  5
89
330
5
100
AcDbSymbolTableRecord
100
AcDbLinetypeTableRecord
  2
LONG_DASH_DOTTED
 70
     0
  3
Long Dash Dotted ____ . ____ . ____ . ____ . _
 72
    65
 73
     4
 40
0.3543
 49
0.2362
 74
     0
 49
-0.0295
 74
     0
 49
0.0591
 74
     0
 49
-0.0295
 74
     0
  0
LTYPE
  5
8A
330
5
100
AcDbSymbolTableRecord
100
AcDbLinetypeTableRecord
  2
LONG_DASH_DOUBLE_DOT
 70
     0
  3
Long Dash Double Dot ________  .  .  ________  
 72
    65
 73
     6
 40
0.6799999999999999
 49
0.48
 74
     0
 49
-0.06
 74
     0
 49
0.01
 74
     0
 49
-0.06
 74
     0
 49
0.01
 74
     0
 49
-0.06
 74
     0
  0
LTYPE
  5
8B
330
5
100
AcDbSymbolTableRecord
100
AcDbLinetypeTableRecord
  2
LONG_DASH_TRIPLE_DOT
 70
     0
  3
Long Dash Triple Dot ____ ... ____ ... ____
 72
    65
 73
     8
 40
0.3689
 49
0.2362
 74
     0
 49
-0.0295
 74
     0
 49
0.0049
 74
     0
 49
-0.0295
 74
     0
 49
0.0049
 74
     0
 49
-0.0295
 74
     0
 49
0.0049
 74
     0
 49
-0.0295
 74
     0
  0
LTYPE
  5
8C
330
5
100
AcDbSymbolTableRecord
100
AcDbLinetypeTableRecord
  2
BORDER
 70
     0
  3
Border __ __ . __ __ . __ __ . __ __ . __ __ .
 72
    65
 73
     6
 40
1.75
 49
0.5
 74
     0
 49
-0.25
 74
     0
 49
0.5
 74
     0
 49
-0.25
 74
     0
 49
0.0
 74
     0
 49
-0.25
 74
     0
  0
LTYPE
  5
8D
330
5
100
AcDbSymbolTableRecord
100
AcDbLinetypeTableRecord
  2
BORDER2
 70
     0
  3
Border (.5x) __.__.__.__.__.__.__.__.__.__.__.
 72
    65
 73
     6
 40
0.875
 49
0.25
 74
     0
 49
-0.125
 74
     0
 49
0.25
 74
     0
 49
-0.125
 74
     0
 49
0.0
 74
     0
 49
-0.125
 74
     0
  0
LTYPE
  5
8E
330
5
100
AcDbSymbolTableRecord
100
AcDbLinetypeTableRecord
  2
BORDERX2
 70
     0
  3
Border (2x) ____  ____  .  ____  ____  .  ___
 72
    65
 73
     6
 40
3.5
 49
1.0
 74
     0
 49
-0.5
 74
     0
 49
1.0
 74
     0
 49
-0.5
 74
     0
 49
0.0
 74
     0
 49
-0.5
 74
     0
  0
LTYPE
  5
8F
330
5
100
AcDbSymbolTableRecord
100
AcDbLinetypeTableRecord
  2
CENTER
 70
     0
  3
Center ____ _ ____ _ ____ _ ____ _ ____ _ ____
 72
    65
 73
     4
 40
2.0
 49
1.25
 74
     0
 49
-0.25
 74
     0
 49
0.25
 74
     0
 49
-0.25
 74
     0
  0
LTYPE
  5
90
330
5
100
AcDbSymbolTableRecord
100
AcDbLinetypeTableRecord
  2
CENTER2
 70
     0
  3
Center (.5x) ___ _ ___ _ ___ _ ___ _ ___ _ ___
 72
    65
 73
     4
 40
1.125
 49
0.75
 74
     0
 49
-0.125
 74
     0
 49
0.125
 74
     0
 49
-0.125
 74
     0
  0
LTYPE
  5
91
330
5
100
AcDbSymbolTableRecord
100
AcDbLinetypeTableRecord
  2
CENTERX2
 70
     0
  3
Center (2x) ________  __  ________  __  _____
 72
    65
 73
     4
 40
4.0
 49
2.5
 74
     0
 49
-0.5
 74
     0
 49
0.5
 74
     0
 49
-0.5
 74
     0
  0
LTYPE
  5
92
330
5
100
AcDbSymbolTableRecord
100
AcDbLinetypeTableRecord
  2
DASHDOT2
 70
     0
  3
Dash dot (.5x) _._._._._._._._._._._._._._._.
 72
    65
 73
     4
 40
0.5
 49
0.25
 74
     0
 49
-0.125
 74
     0
 49
0.0
 74
     0
 49
-0.125
 74
     0
  0
LTYPE
  5
93
330
5
100
AcDbSymbolTableRecord
100
AcDbLinetypeTableRecord
  2
DASHDOTX2
 70
     0
  3
Dash dot (2x) ____  .  ____  .  ____  .  ___
 72
    65
 73
     4
 40
2.0
 49
1.0
 74
     0
 49
-0.5
 74
     0
 49
0.0
 74
     0
 49
-0.5
 74
     0
  0
LTYPE
  5
95
330
5
100
AcDbSymbolTableRecord
100
AcDbLinetypeTableRecord
  2
DASHED2
 70
     0
  3
Dashed (.5x) _ _ _ _ _ _ _ _ _ _ _ _ _ _ _ _ _
 72
    65
 73
     2
 40
0.375
 49
0.25
 74
     0
 49
-0.125
 74
     0
  0
LTYPE
  5
96
330
5
100
AcDbSymbolTableRecord
100
AcDbLinetypeTableRecord
  2
DASHEDX2
 70
     0
  3
Dashed (2x) ____  ____  ____  ____  ____  ___
 72
    65
 73
     2
 40
1.5
 49
1.0
 74
     0
 49
-0.5
 74
     0
  0
LTYPE
  5
97
330
5
100
AcDbSymbolTableRecord
100
AcDbLinetypeTableRecord
  2
DIVIDE
 70
     0
  3
Divide ____ . . ____ . . ____ . . ____ . . ____
 72
    65
 73
     6
 40
1.25
 49
0.5
 74
     0
 49
-0.25
 74
     0
 49
0.0
 74
     0
 49
-0.25
 74
     0
 49
0.0
 74
     0
 49
-0.25
 74
     0
  0
LTYPE
  5
98
330
5
100
AcDbSymbolTableRecord
100
AcDbLinetypeTableRecord
  2
DIVIDE2
 70
     0
  3
Divide (.5x) __..__..__..__..__..__..__..__.._
 72
    65
 73
     6
 40
0.625
 49
0.25
 74
     0
 49
-0.125
 74
     0
 49
0.0
 74
     0
 49
-0.125
 74
     0
 49
0.0
 74
     0
 49
-0.125
 74
     0
  0
LTYPE
  5
99
330
5
100
AcDbSymbolTableRecord
100
AcDbLinetypeTableRecord
  2
DIVIDEX2
 70
     0
  3
Divide (2x) ________  .  .  ________  .  .  _
 72
    65
 73
     6
 40
2.5
 49
1.0
 74
     0
 49
-0.5
 74
     0
 49
0.0
 74
     0
 49
-0.5
 74
     0
 49
0.0
 74
     0
 49
-0.5
 74
     0
  0
LTYPE
  5
9A
330
5
100
AcDbSymbolTableRecord
100
AcDbLinetypeTableRecord
  2
DOT
 70
     0
  3
Dot . . . . . . . . . . . . . . . . . . . . . .
 72
    65
 73
     2
 40
0.25
 49
0.0
 74
     0
 49
-0.25
 74
     0
  0
LTYPE
  5
9B
330
5
100
AcDbSymbolTableRecord
100
AcDbLinetypeTableRecord
  2
DOT2
 70
     0
  3
Dot (.5x) .....................................
 72
    65
 73
     2
 40
0.125
 49
0.0
 74
     0
 49
-0.125
 74
     0
  0
LTYPE
  5
9C
330
5
100
AcDbSymbolTableRecord
100
AcDbLinetypeTableRecord
  2
DOTX2
 70
     0
  3
Dot (2x) .  .  .  .  .  .  .  .  .  .  .  .  . 
 72
    65
 73
     2
 40
0.5
 49
0.0
 74
     0
 49
-0.5
 74
     0
  0
LTYPE
  5
9D
330
5
100
AcDbSymbolTableRecord
100
AcDbLinetypeTableRecord
  2
HIDDEN
 70
     0
  3
Hidden __ __ __ __ __ __ __ __ __ __ __ __ __ _
 72
    65
 73
     2
 40
0.375
 49
0.25
 74
     0
 49
-0.125
 74
     0
  0
LTYPE
  5
9E
330
5
100
AcDbSymbolTableRecord
100
AcDbLinetypeTableRecord
  2
HIDDEN2
 70
     0
  3
Hidden (.5x) _ _ _ _ _ _ _ _ _ _ _ _ _ _ _ _ _
 72
    65
 73
     2
 40
0.1875
 49
0.125
 74
     0
 49
-0.0625
 74
     0
  0
LTYPE
  5
9F
330
5
100
AcDbSymbolTableRecord
100
AcDbLinetypeTableRecord
  2
HIDDENX2
 70
     0
  3
Hidden (2x) ____ ____ ____ ____ ____ ____ ____
 72
    65
 73
     2
 40
0.75
 49
0.5
 74
     0
 49
-0.25
 74
     0
  0
LTYPE
  5
A0
330
5
100
AcDbSymbolTableRecord
100
AcDbLinetypeTableRecord
  2
PHANTOM
 70
     0
  3
Phantom ______  __  __  ______  __  __  ______
 72
    65
 73
     6
 40
2.5
 49
1.25
 74
     0
 49
-0.25
 74
     0
 49
0.25
 74
     0
 49
-0.25
 74
     0
 49
0.25
 74
     0
 49
-0.25
 74
     0
  0
LTYPE
  5
A1
330
5
100
AcDbSymbolTableRecord
100
AcDbLinetypeTableRecord
  2
PHANTOM2
 70
     0
  3
Phantom (.5x) ___ _ _ ___ _ _ ___ _ _ ___ _ _
 72
    65
 73
     6
 40
1.25
 49
0.625
 74
     0
 49
-0.125
 74
     0
 49
0.125
 74
     0
 49
-0.125
 74
     0
 49
0.125
 74
     0
 49
-0.125
 74
     0
  0
LTYPE
  5
A2
330
5
100
AcDbSymbolTableRecord
100
AcDbLinetypeTableRecord
  2
PHANTOMX2
 70
     0
  3
Phantom (2x) ____________    ____    ____   _
 72
    65
 73
     6
 40
5.0
 49
2.5
 74
     0
 49
-0.5
 74
     0
 49
0.5
 74
     0
 49
-0.5
 74
     0
 49
0.5
 74
     0
 49
-0.5
 74
     0
  0
LTYPE
  5
A3
330
5
100
AcDbSymbolTableRecord
100
AcDbLinetypeTableRecord
  2
ACAD_ISO02W100
 70
     0
  3
ISO dash __ __ __ __ __ __ __ __ __ __ __ __ __
 72
    65
 73
     2
 40
0.59
 49
0.47
 74
     0
 49
-0.12
 74
     0
  0
LTYPE
  5
A4
330
5
100
AcDbSymbolTableRecord
100
AcDbLinetypeTableRecord
  2
ACAD_ISO03W100
 70
     0
  3
ISO dash space __    __    __    __    __    __
 72
    65
 73
     2
 40
1.179999999999999
 49
0.47
 74
     0
 49
-0.71
 74
     0
  0
LTYPE
  5
A5
330
5
100
AcDbSymbolTableRecord
100
AcDbLinetypeTableRecord
  2
ACAD_ISO04W100
 70
     0
  3
ISO long-dash dot ____ . ____ . ____ . ____ . _
 72
    65
 73
     4
 40
1.179999999999999
 49
0.9399999999999998
 74
     0
 49
-0.12
 74
     0
 49
0.0
 74
     0
 49
-0.12
 74
     0
  0
LTYPE
  5
A6
330
5
100
AcDbSymbolTableRecord
100
AcDbLinetypeTableRecord
  2
ACAD_ISO05W100
 70
     0
  3
ISO long-dash double-dot ____ .. ____ .. ____ .
 72
    65
 73
     6
 40
1.299999999999999
 49
0.9399999999999998
 74
     0
 49
-0.12
 74
     0
 49
0.0
 74
     0
 49
-0.12
 74
     0
 49
0.0
 74
     0
 49
-0.12
 74
     0
  0
LTYPE
  5
A7
330
5
100
AcDbSymbolTableRecord
100
AcDbLinetypeTableRecord
  2
ACAD_ISO06W100
 70
     0
  3
ISO long-dash triple-dot ____ ... ____ ... ____
 72
    65
 73
     8
 40
1.419999999999999
 49
0.9399999999999998
 74
     0
 49
-0.12
 74
     0
 49
0.0
 74
     0
 49
-0.12
 74
     0
 49
0.0
 74
     0
 49
-0.12
 74
     0
 49
0.0
 74
     0
 49
-0.12
 74
     0
  0
LTYPE
  5
A8
330
5
100
AcDbSymbolTableRecord
100
AcDbLinetypeTableRecord
  2
ACAD_ISO07W100
 70
     0
  3
ISO dot . . . . . . . . . . . . . . . . . . . .
 72
    65
 73
     2
 40
0.12
 49
0.0
 74
     0
 49
-0.12
 74
     0
  0
LTYPE
  5
A9
330
5
100
AcDbSymbolTableRecord
100
AcDbLinetypeTableRecord
  2
ACAD_ISO08W100
 70
     0
  3
ISO long-dash short-dash ____ __ ____ __ ____ _
 72
    65
 73
     4
 40
0.95
 49
0.47
 74
     0
 49
-0.12
 74
     0
 49
0.24
 74
     0
 49
-0.12
 74
     0
  0
LTYPE
  5
AA
330
5
100
AcDbSymbolTableRecord
100
AcDbLinetypeTableRecord
  2
ACAD_ISO09W100
 70
     0
  3
ISO long-dash double-short-dash ____ __ __ ____
 72
    65
 73
     6
 40
1.31
 49
0.47
 74
     0
 49
-0.12
 74
     0
 49
0.24
 74
     0
 49
-0.12
 74
     0
 49
0.24
 74
     0
 49
-0.12
 74
     0
  0
LTYPE
  5
AB
330
5
100
AcDbSymbolTableRecord
100
AcDbLinetypeTableRecord
  2
ACAD_ISO10W100
 70
     0
  3
ISO dash dot __ . __ . __ . __ . __ . __ . __ .
 72
    65
 73
     4
 40
0.71
 49
0.47
 74
     0
 49
-0.12
 74
     0
 49
0.0
 74
     0
 49
-0.12
 74
     0
  0
LTYPE
  5
AC
330
5
100
AcDbSymbolTableRecord
100
AcDbLinetypeTableRecord
  2
ACAD_ISO11W100
 70
     0
  3
ISO double-dash dot __ __ . __ __ . __ __ . __ 
 72
    65
 73
     6
 40
1.299999999999999
 49
0.47
 74
     0
 49
-0.12
 74
     0
 49
0.47
 74
     0
 49
-0.12
 74
     0
 49
0.0
 74
     0
 49
-0.12
 74
     0
  0
LTYPE
  5
AD
330
5
100
AcDbSymbolTableRecord
100
AcDbLinetypeTableRecord
  2
ACAD_ISO12W100
 70
     0
  3
ISO dash double-dot __ . . __ . . __ . . __ . .
 72
    65
 73
     6
 40
0.8299999999999998
 49
0.47
 74
     0
 49
-0.12
 74
     0
 49
0.0
 74
     0
 49
-0.12
 74
     0
 49
0.0
 74
     0
 49
-0.12
 74
     0
  0
LTYPE
  5
AE
330
5
100
AcDbSymbolTableRecord
100
AcDbLinetypeTableRecord
  2
ACAD_ISO13W100
 70
     0
  3
ISO double-dash double-dot __ __ . . __ __ . . 
 72
    65
 73
     8
 40
1.419999999999999
 49
0.47
 74
     0
 49
-0.12
 74
     0
 49
0.47
 74
     0
 49
-0.12
 74
     0
 49
0.0
 74
     0
 49
-0.12
 74
     0
 49
0.0
 74
     0
 49
-0.12
 74
     0
  0
LTYPE
  5
AF
330
5
100
AcDbSymbolTableRecord
100
AcDbLinetypeTableRecord
  2
ACAD_ISO14W100
 70
     0
  3
ISO dash triple-dot __ . . . __ . . . __ . . . 
 72
    65
 73
     8
 40
0.95
 49
0.47
 74
     0
 49
-0.12
 74
     0
 49
0.0
 74
     0
 49
-0.12
 74
     0
 49
0.0
 74
     0
 49
-0.12
 74
     0
 49
0.0
 74
     0
 49
-0.12
 74
     0
  0
LTYPE
  5
B0
330
5
100
AcDbSymbolTableRecord
100
AcDbLinetypeTableRecord
  2
ACAD_ISO15W100
 70
     0
  3
ISO double-dash triple-dot __ __ . . . __ __ . 
 72
    65
 73
    10
 40
1.539999999999999
 49
0.47
 74
     0
 49
-0.12
 74
     0
 49
0.47
 74
     0
 49
-0.12
 74
     0
 49
0.0
 74
     0
 49
-0.12
 74
     0
 49
0.0
 74
     0
 49
-0.12
 74
     0
 49
0.0
 74
     0
 49
-0.12
 74
     0
  0
LTYPE
  5
B3
330
5
100
AcDbSymbolTableRecord
100
AcDbLinetypeTableRecord
  2
FENCELINE1
 70
     0
  3
Fenceline circle ----0-----0----0-----0----0---
 72
    65
 73
     4
 40
1.45
 49
0.25
 74
     0
 49
-0.1
 74
     4
 75
   133
340
B2
 46
0.1
 50
0.0
 44
-0.1
 45
0.0
 49
-0.1
 74
     0
 49
1.0
 74
     0
  0
LTYPE
  5
B4
330
5
100
AcDbSymbolTableRecord
100
AcDbLinetypeTableRecord
  2
FENCELINE2
 70
     0
  3
Fenceline square ----[]-----[]----[]-----[]----
 72
    65
 73
     4
 40
1.45
 49
0.25
 74
     0
 49
-0.1
 74
     4
 75
   132
340
B2
 46
0.1
 50
0.0
 44
-0.1
 45
0.0
 49
-0.1
 74
     0
 49
1.0
 74
     0
  0
LTYPE
  5
B5
330
5
100
AcDbSymbolTableRecord
100
AcDbLinetypeTableRecord
  2
TRACKS
 70
     0
  3
Tracks -|-|-|-|-|-|-|-|-|-|-|-|-|-|-|-|-|-|-|-|
 72
    65
 73
     2
 40
0.3
 49
0.15
 74
     4
 75
   130
340
B2
 46
0.25
 50
0.0
 44
0.0
 45
0.0
 49
0.15
 74
     0
  0
LTYPE
  5
B6
330
5
100
AcDbSymbolTableRecord
100
AcDbLinetypeTableRecord
  2
BATTING
 70
     0
  3
Batting SSSSSSSSSSSSSSSSSSSSSSSSSSSSSSSSSSSSSSS
 72
    65
 73
     4
 40
0.4001000000000001
 49
0.0001
 74
     0
 49
-0.1
 74
     4
 75
   134
340
B2
 46
0.1
 50
0.0
 44
-0.1
 45
0.0
 49
-0.2
 74
     4
 75
   134
340
B2
 46
0.1
 50
180.0
 44
0.1
 45
0.0
 49
-0.1
 74
     0
  0
LTYPE
  5
B7
330
5
100
AcDbSymbolTableRecord
100
AcDbLinetypeTableRecord
  2
HOT_WATER_SUPPLY
 70
     0
  3
Hot water supply ---- HW ---- HW ---- HW ----
 72
    65
 73
     3
 40
0.9
 49
0.5
 74
     0
 49
-0.2
 74
     2
 75
     0
340
55
 46
0.1
 50
0.0
 44
-0.1
 45
-0.05
  9
HW
 49
-0.2
 74
     0
  0
LTYPE
  5
B8
330
5
100
AcDbSymbolTableRecord
100
AcDbLinetypeTableRecord
  2
GAS_LINE
 70
     0
  3
Gas line ----GAS----GAS----GAS----GAS----GAS---
 72
    65
 73
     3
 40
0.95
 49
0.5
 74
     0
 49
-0.2
 74
     2
 75
     0
340
55
 46
0.1
 50
0.0
 44
-0.1
 45
-0.05
  9
GAS
 49
-0.25
 74
     0
  0
LTYPE
  5
B9
330
5
100
AcDbSymbolTableRecord
100
AcDbLinetypeTableRecord
  2
ZIGZAG
 70
     0
  3
Zig zag /\/\/\/\/\/\/\/\/\/\/\/\/\/\/\/\/\/\/\/
 72
    65
 73
     4
 40
0.8001000000000001
 49
0.0001
 74
     0
 49
-0.2
 74
     4
 75
   131
340
B2
 46
0.2
 50
0.0
 44
-0.2
 45
0.0
 49
-0.4
 74
     4
 75
   131
340
B2
 46
0.2
 50
180.0
 44
0.2
 45
0.0
 49
-0.2
 74
     0
  0
ENDTAB
  0
TABLE
  2
LAYER
  5
2
330
0
100
AcDbSymbolTable
 70
    27
  0
LAYER
  5
54
330
2
100
AcDbSymbolTableRecord
100
AcDbLayerTableRecord
  2
0
 70
     0
 62
     7
  6
Continuous
370
     0
390
F
  0
LAYER
  5
C0
330
2
100
AcDbSymbolTableRecord
100
AcDbLayerTableRecord
  2
Center Mark (ANSI)
 70
     0
 62
     7
  6
Continuous
370
     5
390
F
  0
LAYER
  5
C1
330
2
100
AcDbSymbolTableRecord
100
AcDbLayerTableRecord
  2
Centerline (ANSI)
 70
     0
 62
     7
  6
Continuous
370
     5
390
F
  0
LAYER
  5
C3
330
2
100
AcDbSymbolTableRecord
100
AcDbLayerTableRecord
  2
Dimension (ANSI)
 70
     0
 62
     7
  6
Continuous
370
     5
390
F
  0
LAYER
  5
C5
330
2
100
AcDbSymbolTableRecord
100
AcDbLayerTableRecord
  2
Hidden (ANSI)
 70
     0
 62
     7
  6
DASHED
370
     5
390
F
  0
LAYER
  5
CC
330
2
100
AcDbSymbolTableRecord
100
AcDbLayerTableRecord
  2
Symbol (ANSI)
 70
     0
 62
     7
  6
Continuous
370
     5
390
F
  0
LAYER
  5
CF
330
2
100
AcDbSymbolTableRecord
100
AcDbLayerTableRecord
  2
Visible (ANSI)
 70
     0
 62
     7
  6
Continuous
370
     5
390
F
  0
LAYER
  5
152
330
2
100
AcDbSymbolTableRecord
100
AcDbLayerTableRecord
  2
Defpoints
 70
     0
 62
     7
  6
Continuous
290
     0
370
    -3
390
F
  0
ENDTAB
  0
TABLE
  2
STYLE
  5
3
330
0
100
AcDbSymbolTable
 70
    10
  0
STYLE
  5
55
330
3
100
AcDbSymbolTableRecord
100
AcDbTextStyleTableRecord
  2
Standard
 70
     0
 40
0.0
 41
1.0
 50
0.0
 71
     0
 42
0.2
  3
txt
  4

  0
STYLE
  5
5A
330
3
100
AcDbSymbolTableRecord
100
AcDbTextStyleTableRecord
  2
Annotative
 70
     0
 40
0.0
 41
1.0
 50
0.0
 71
     0
 42
0.2
  3
txt
  4

1001
AcadAnnotative
1000
AnnotativeData
1002
{
1070
     1
1070
     1
1002
}
  0
STYLE
  5
B2
330
3
100
AcDbSymbolTableRecord
100
AcDbTextStyleTableRecord
  2

 70
     1
 40
0.0
 41
1.0
 50
0.0
 71
     0
 42
0.2
  3
ltypeshp.shx
  4

  0
STYLE
  5
D4
330
3
100
AcDbSymbolTableRecord
100
AcDbTextStyleTableRecord
  2
ITALICC_120
 70
     0
 40
0.0
 41
1.0
 50
0.0
 71
     0
 42
0.2
  3
italicc.shx
  4

  0
STYLE
  5
D5
330
3
100
AcDbSymbolTableRecord
100
AcDbTextStyleTableRecord
  2
Label Text (ANSI)
 70
     0
 40
0.0
 41
1.0
 50
0.0
 71
     0
 42
0.2
  3
TAHOMA.TTF
  4

1001
ACAD
1000
Tahoma
1071
      256
  0
STYLE
  5
D6
330
3
100
AcDbSymbolTableRecord
100
AcDbTextStyleTableRecord
  2
Note Text (ANSI)
 70
     0
 40
0.0
 41
1.0
 50
0.0
 71
     0
 42
0.2
  3
RomanS.shx
  4

  0
STYLE
  5
D7
330
3
100
AcDbSymbolTableRecord
100
AcDbTextStyleTableRecord
  2
ROMANS
 70
     0
 40
0.0
 41
1.0
 50
0.0
 71
     0
 42
0.2
  3
romans.shx
  4

  0
STYLE
  5
D8
330
3
100
AcDbSymbolTableRecord
100
AcDbTextStyleTableRecord
  2
SANSSERIF_114
 70
     0
 40
0.0
 41
1.0
 50
0.0
 71
     0
 42
0.2
  3
TAHOMA.TTF
  4

1001
ACAD
1000
Tahoma
1071
      256
  0
STYLE
  5
D9
330
3
100
AcDbSymbolTableRecord
100
AcDbTextStyleTableRecord
  2
SANSSERIF_117
 70
     0
 40
0.0
 41
1.0
 50
0.0
 71
     0
 42
0.2
  3
TAHOMA.TTF
  4

1001
ACAD
1000
Tahoma
1071
      256
  0
STYLE
  5
117
330
3
100
AcDbSymbolTableRecord
100
AcDbTextStyleTableRecord
  2
Text Style168
 70
     0
 40
0.0
 41
1.0
 50
0.0
 71
     0
 42
0.2
  3
TAHOMA.TTF
  4

1001
ACAD
1000
Tahoma
1071
      256
  0
ENDTAB
  0
TABLE
  2
VIEW
  5
6
330
0
100
AcDbSymbolTable
 70
     0
  0
ENDTAB
  0
TABLE
  2
UCS
  5
7
330
0
100
AcDbSymbolTable
 70
     0
  0
ENDTAB
  0
TABLE
  2
APPID
  5
9
330
0
100
AcDbSymbolTable
 70
     4
  0
APPID
  5
56
330
9
100
AcDbSymbolTableRecord
100
AcDbRegAppTableRecord
  2
ACAD
 70
     0
  0
APPID
  5
5E
330
9
100
AcDbSymbolTableRecord
100
AcDbRegAppTableRecord
  2
AcadAnnotative
 70
     0
  0
APPID
  5
7B6
330
9
100
AcDbSymbolTableRecord
100
AcDbRegAppTableRecord
  2
ACAD_DSTYLE_DIMRADIAL_EXTENSION
 70
     0
  0
APPID
  5
CDC
330
9
100
AcDbSymbolTableRecord
100
AcDbRegAppTableRecord
  2
ACAD_MLEADERVER
 70
     0
  0
ENDTAB
  0
TABLE
  2
DIMSTYLE
  5
A
330
0
100
AcDbSymbolTable
 70
    15
100
AcDbDimStyleTable
 71
     2
340
E2
340
58
  0
DIMSTYLE
105
58
330
A
100
AcDbSymbolTableRecord
100
AcDbDimStyleTableRecord
  2
Standard
 70
     0
340
55
  0
DIMSTYLE
105
59
330
A
100
AcDbSymbolTableRecord
100
AcDbDimStyleTableRecord
  2
Annotative
 70
     0
340
55
1001
AcadAnnotative
1000
AnnotativeData
1002
{
1070
     1
1070
     1
1002
}
  0
DIMSTYLE
105
DA
330
A
100
AcDbSymbolTableRecord
100
AcDbDimStyleTableRecord
  2
Architectural (ANSI)
 70
     0
 40
2.666666666666666
 41
0.0984251946210861
 43
0.2362204724409449
 44
0.125
 45
0.00000001
 46
0.3937007874015748
 78
     3
 79
     3
140
0.1000000014901161
146
1.200000029802321
147
0.031496062992126
171
     1
176
   256
177
   256
178
   256
272
     2
274
     1
276
     2
277
     4
284
    12
285
     4
286
    12
340
D6
371
    -1
372
    -1
  0
DIMSTYLE
105
DB
330
A
100
AcDbSymbolTableRecord
100
AcDbDimStyleTableRecord
  2
Architectural (ANSI)$7
 70
     0
 40
2.666666666666666
 41
0.0984251946210861
 43
0.2362204724409449
 44
0.125
 45
0.00000001
 46
0.3937007874015748
 78
     3
 79
     3
140
0.1000000014901161
146
1.200000029802321
147
0.031496062992126
171
     1
176
   256
177
   256
178
   256
272
     2
274
     1
276
     2
277
     4
284
    12
285
     4
286
    12
340
D6
371
    -1
372
    -1
  0
DIMSTYLE
105
DC
330
A
100
AcDbSymbolTableRecord
100
AcDbDimStyleTableRecord
  2
Default - Fraction (ANSI)
 70
     0
 40
2.666666666666666
 41
0.0984251946210861
 43
0.2362204724409449
 44
0.125
 45
0.00000001
 46
0.3937007874015748
 79
     3
140
0.1000000014901161
146
1.200000029802321
147
0.031496062992126
171
     1
176
   256
177
   256
178
   256
272
     2
274
     1
276
     2
277
     5
284
    12
285
     4
286
    12
340
D6
371
    -1
372
    -1
  0
DIMSTYLE
105
DD
330
A
100
AcDbSymbolTableRecord
100
AcDbDimStyleTableRecord
  2
Default - Fraction (ANSI)$7
 70
     0
 40
2.666666666666666
 41
0.0984251946210861
 43
0.2362204724409449
 44
0.125
 45
0.00000001
 46
0.3937007874015748
 79
     3
140
0.1000000014901161
146
1.200000029802321
147
0.031496062992126
171
     1
176
   256
177
   256
178
   256
272
     2
274
     1
276
     2
277
     5
284
    12
285
     4
286
    12
340
D6
371
    -1
372
    -1
  0
DIMSTYLE
105
DE
330
A
100
AcDbSymbolTableRecord
100
AcDbDimStyleTableRecord
  2
Default - mm (ANSI)
 70
     0
 40
2.666666666666666
 41
0.0984251946210861
 42
0.063
 43
0.2362204724409449
 44
0.125
 45
0.00000001
 46
0.3937007874015748
 73
     0
 78
     4
 79
     1
140
0.1000000014901161
143
1.0
144
25.4
146
1.200000029802321
147
0.031496062992126
171
     1
176
   256
177
   256
178
   256
179
     1
271
     2
272
     2
274
     1
284
     4
285
     4
340
D6
371
    -1
372
    -1
  0
DIMSTYLE
105
DF
330
A
100
AcDbSymbolTableRecord
100
AcDbDimStyleTableRecord
  2
Default - mm (ANSI)$7
 70
     0
 40
2.666666666666666
 41
0.0984251946210861
 42
0.063
 43
0.2362204724409449
 44
0.125
 45
0.00000001
 46
0.3937007874015748
 73
     0
 78
     4
 79
     1
140
0.1000000014901161
143
1.0
144
25.4
146
1.200000029802321
147
0.031496062992126
171
     1
176
   256
177
   256
178
   256
179
     1
271
     2
272
     2
274
     1
284
     4
285
     4
340
D6
371
    -1
372
    -1
  0
DIMSTYLE
105
E0
330
A
100
AcDbSymbolTableRecord
100
AcDbDimStyleTableRecord
  2
Default - mm [in] (ANSI)
 70
     0
  4
 in
 40
2.666666666666666
 41
0.0984251946210861
 42
0.063
 43
0.25
 44
0.125
 45
0.00000001
 46
0.3937007874015748
 73
     0
 78
     4
 79
     1
140
0.1000000014901161
143
0.03937
144
25.4
146
1.200000029802321
147
0.031496062992126
170
     1
171
     3
176
   256
177
   256
178
   256
179
     1
271
     2
272
     2
274
     3
284
     4
285
     4
286
     4
340
D6
371
    -1
372
    -1
  0
DIMSTYLE
105
E1
330
A
100
AcDbSymbolTableRecord
100
AcDbDimStyleTableRecord
  2
Default - mm [in] (ANSI)$7
 70
     0
  4
 in
 40
2.666666666666666
 41
0.0984251946210861
 42
0.063
 43
0.25
 44
0.125
 45
0.00000001
 46
0.3937007874015748
 73
     0
 78
     4
 79
     1
140
0.1000000014901161
143
0.03937
144
25.4
146
1.200000029802321
147
0.031496062992126
170
     1
171
     3
176
   256
177
   256
178
   256
179
     1
271
     2
272
     2
274
     3
284
     4
285
     4
286
     4
340
D6
371
    -1
372
    -1
  0
DIMSTYLE
105
E2
102
{ACAD_REACTORS
330
150
330
23D
330
327
330
425
330
50F
330
60D
330
71D
330
7C7
330
870
330
982
330
A8F
330
B8D
102
}
330
A
100
AcDbSymbolTableRecord
100
AcDbDimStyleTableRecord
  2
Default (ANSI)
 70
     0
 40
2.666666666666666
 41
0.0984251946210861
 43
0.2362204724409449
 44
0.125
 45
0.00000001
 46
0.3937007874015748
140
0.1000000014901161
147
0.031496062992126
176
   256
177
   256
178
   256
271
     2
272
     2
340
D7
371
    -1
372
    -1
  0
DIMSTYLE
105
E3
330
A
100
AcDbSymbolTableRecord
100
AcDbDimStyleTableRecord
  2
Default (ANSI)$7
 70
     0
 40
2.666666666666666
 41
0.0984251946210861
 43
0.2362204724409449
 44
0.125
 45
0.00000001
 46
0.3937007874015748
140
0.1000000014901161
147
0.031496062992126
176
   256
177
   256
178
   256
271
     2
272
     2
340
D7
371
    -1
372
    -1
  0
DIMSTYLE
105
E4
330
A
100
AcDbSymbolTableRecord
100
AcDbDimStyleTableRecord
  2
Alternate (ANSI)
 70
     0
 40
2.666666666666666
 41
0.0979999974370003
340
55
342
E5
  0
DIMSTYLE
105
F7
330
A
100
AcDbSymbolTableRecord
100
AcDbDimStyleTableRecord
  2
Datum (ANSI)
 70
     0
 40
2.666666666666666
 41
0.0979999974370003
340
55
342
E5
  0
DIMSTYLE
105
106
330
A
100
AcDbSymbolTableRecord
100
AcDbDimStyleTableRecord
  2
Large (ANSI)
 70
     0
 40
2.666666666666666
 41
0.1959999948740005
340
55
342
E5
  0
ENDTAB
  0
TABLE
  2
BLOCK_RECORD
  5
1
330
0
100
AcDbSymbolTable
 70
    16
  0
BLOCK_RECORD
  5
6C
330
1
100
AcDbSymbolTableRecord
100
AcDbBlockTableRecord
  2
*Model_Space
340
6F
  0
BLOCK_RECORD
  5
68
330
1
100
AcDbSymbolTableRecord
100
AcDbBlockTableRecord
  2
*Paper_Space
340
6B
  0
BLOCK_RECORD
  5
70
330
1
100
AcDbSymbolTableRecord
100
AcDbBlockTableRecord
  2
*Paper_Space0
340
73
  0
BLOCK_RECORD
  5
E5
330
1
100
AcDbSymbolTableRecord
100
AcDbBlockTableRecord
  2
_Closed
340
0
  0
BLOCK_RECORD
  5
EC
330
1
100
AcDbSymbolTableRecord
100
AcDbBlockTableRecord
  2
DatumFilled45
340
0
  0
BLOCK_RECORD
  5
F8
330
1
100
AcDbSymbolTableRecord
100
AcDbBlockTableRecord
  2
Filled-1
340
0
  0
BLOCK_RECORD
  5
153
330
1
100
AcDbSymbolTableRecord
100
AcDbBlockTableRecord
  2
*D4
340
0
  0
BLOCK_RECORD
  5
23E
330
1
100
AcDbSymbolTableRecord
100
AcDbBlockTableRecord
  2
*D5
340
0
  0
BLOCK_RECORD
  5
328
330
1
100
AcDbSymbolTableRecord
100
AcDbBlockTableRecord
  2
*D6
340
0
  0
BLOCK_RECORD
  5
426
330
1
100
AcDbSymbolTableRecord
100
AcDbBlockTableRecord
  2
*D7
340
0
  0
BLOCK_RECORD
  5
510
330
1
100
AcDbSymbolTableRecord
100
AcDbBlockTableRecord
  2
*D8
340
0
  0
BLOCK_RECORD
  5
60E
330
1
100
AcDbSymbolTableRecord
100
AcDbBlockTableRecord
  2
*D9
340
0
  0
BLOCK_RECORD
  5
71E
330
1
100
AcDbSymbolTableRecord
100
AcDbBlockTableRecord
  2
*D10
340
0
  0
BLOCK_RECORD
  5
7C8
330
1
100
AcDbSymbolTableRecord
100
AcDbBlockTableRecord
  2
*D11
340
0
  0
BLOCK_RECORD
  5
871
330
1
100
AcDbSymbolTableRecord
100
AcDbBlockTableRecord
  2
*D12
340
0
  0
BLOCK_RECORD
  5
983
330
1
100
AcDbSymbolTableRecord
100
AcDbBlockTableRecord
  2
*D13
340
0
  0
BLOCK_RECORD
  5
A90
330
1
100
AcDbSymbolTableRecord
100
AcDbBlockTableRecord
  2
*D14
340
0
  0
BLOCK_RECORD
  5
B8E
330
1
100
AcDbSymbolTableRecord
100
AcDbBlockTableRecord
  2
*D15
340
0
  0
ENDTAB
  0
ENDSEC
  0
SECTION
  2
BLOCKS
  0
BLOCK
  5
6D
330
6C
100
AcDbEntity
  8
0
100
AcDbBlockBegin
  2
*Model_Space
 70
     0
 10
0.0
 20
0.0
 30
0.0
  3
*Model_Space
  1

  0
ENDBLK
  5
6E
330
6C
100
AcDbEntity
  8
0
100
AcDbBlockEnd
  0
BLOCK
  5
69
330
68
100
AcDbEntity
 67
     1
  8
0
100
AcDbBlockBegin
  2
*Paper_Space
 70
     0
 10
0.0
 20
0.0
 30
0.0
  3
*Paper_Space
  1

  0
ENDBLK
  5
6A
330
68
100
AcDbEntity
 67
     1
  8
0
100
AcDbBlockEnd
  0
BLOCK
  5
71
330
70
100
AcDbEntity
 67
     1
  8
0
100
AcDbBlockBegin
  2
*Paper_Space0
 70
     0
 10
0.0
 20
0.0
 30
0.0
  3
*Paper_Space0
  1

  0
ENDBLK
  5
72
330
70
100
AcDbEntity
 67
     1
  8
0
100
AcDbBlockEnd
  0
BLOCK
  5
EA
330
E5
100
AcDbEntity
  8
0
100
AcDbBlockBegin
  2
_Closed
 70
     0
 10
0.0
 20
0.0
 30
0.0
  3
_Closed
  1

  0
LINE
  5
E6
330
E5
100
AcDbEntity
  8
0
  6
ByBlock
 62
     0
370
    -2
100
AcDbLine
 10
-1.0
 20
0.1666666666666666
 30
0.0
 11
0.0
 21
0.0
 31
0.0
  0
LINE
  5
E7
330
E5
100
AcDbEntity
  8
0
  6
ByBlock
 62
     0
370
    -2
100
AcDbLine
 10
0.0
 20
0.0
 30
0.0
 11
-1.0
 21
-0.1666666666666666
 31
0.0
  0
LINE
  5
E8
330
E5
100
AcDbEntity
  8
0
  6
ByBlock
 62
     0
370
    -2
100
AcDbLine
 10
-1.0
 20
0.1666666666666666
 30
0.0
 11
-1.0
 21
-0.1666666666666666
 31
0.0
  0
LINE
  5
E9
330
E5
100
AcDbEntity
  8
0
  6
ByBlock
 62
     0
370
    -2
100
AcDbLine
 10
0.0
 20
0.0
 30
0.0
 11
-1.0
 21
0.0
 31
0.0
  0
ENDBLK
  5
EB
330
E5
100
AcDbEntity
  8
0
100
AcDbBlockEnd
  0
BLOCK
  5
ED
330
EC
100
AcDbEntity
  8
0
100
AcDbBlockBegin
  2
DatumFilled45
 70
     0
 10
0.0
 20
0.0
 30
0.0
  3
DatumFilled45
  1

  0
POLYLINE
  5
EF
330
EC
100
AcDbEntity
  8
0
 62
     0
100
AcDb2dPolyline
 66
     1
 10
0.0
 20
0.0
 30
0.0
 70
   128
  0
VERTEX
  5
F0
330
EF
100
AcDbEntity
  8
0
 62
     0
100
AcDbVertex
100
AcDb2dVertex
 10
0.0
 20
0.9999999999999998
 30
0.0
  0
VERTEX
  5
F1
330
EF
100
AcDbEntity
  8
0
 62
     0
100
AcDbVertex
100
AcDb2dVertex
 10
0.0
 20
-0.9999999999999998
 30
0.0
  0
VERTEX
  5
F3
330
EF
100
AcDbEntity
  8
0
 62
     0
100
AcDbVertex
100
AcDb2dVertex
 10
-0.9999999999999998
 20
0.0
 30
0.0
  0
VERTEX
  5
F4
330
EF
100
AcDbEntity
  8
0
 62
     0
100
AcDbVertex
100
AcDb2dVertex
 10
0.0
 20
0.9999999999999998
 30
0.0
  0
SEQEND
  5
F2
330
EF
100
AcDbEntity
  8
0
 62
     0
  0
SOLID
  5
F6
330
EC
100
AcDbEntity
  8
0
 62
     0
100
AcDbTrace
 10
0.0
 20
0.9999999999999998
 30
0.0
 11
0.0
 21
-0.9999999999999998
 31
0.0
 12
-0.9999999999999998
 22
0.0
 32
0.0
 13
0.0
 23
0.9999999999999998
 33
0.0
  0
ENDBLK
  5
EE
330
EC
100
AcDbEntity
  8
0
100
AcDbBlockEnd
  0
BLOCK
  5
F9
330
F8
100
AcDbEntity
  8
0
100
AcDbBlockBegin
  2
Filled-1
 70
     0
 10
0.0
 20
0.0
 30
0.0
  3
Filled-1
  1

  0
LINE
  5
FB
330
F8
100
AcDbEntity
  8
0
 62
     0
100
AcDbLine
 10
-0.9999999999999998
 20
0.0
 30
0.0
 11
0.0
 21
0.0
 31
0.0
  0
POLYLINE
  5
FC
330
F8
100
AcDbEntity
  8
0
 62
     0
100
AcDb2dPolyline
 66
     1
 10
0.0
 20
0.0
 30
0.0
 70
   128
  0
VERTEX
  5
FD
330
FC
100
AcDbEntity
  8
0
 62
     0
100
AcDbVertex
100
AcDb2dVertex
 10
-0.9999999999999998
 20
-0.0994897959183674
 30
0.0
  0
VERTEX
  5
FE
330
FC
100
AcDbEntity
  8
0
 62
     0
100
AcDbVertex
100
AcDb2dVertex
 10
0.0
 20
0.0
 30
0.0
  0
VERTEX
  5
100
330
FC
100
AcDbEntity
  8
0
 62
     0
100
AcDbVertex
100
AcDb2dVertex
 10
-0.9999999999999998
 20
0.0994897959183674
 30
0.0
  0
VERTEX
  5
101
330
FC
100
AcDbEntity
  8
0
 62
     0
100
AcDbVertex
100
AcDb2dVertex
 10
-0.9999999999999998
 20
-0.0994897959183674
 30
0.0
  0
SEQEND
  5
FF
330
FC
100
AcDbEntity
  8
0
 62
     0
  0
SOLID
  5
102
330
F8
100
AcDbEntity
  8
0
 62
     0
100
AcDbTrace
 10
-0.9999999999999998
 20
-0.0994897959183674
 30
0.0
 11
0.0
 21
0.0
 31
0.0
 12
-0.9999999999999998
 22
0.0994897959183674
 32
0.0
 13
-0.9999999999999998
 23
-0.0994897959183674
 33
0.0
  0
LINE
  5
103
330
F8
100
AcDbEntity
  8
0
 62
     0
100
AcDbLine
 10
-0.9999999999999998
 20
-0.0994897959183674
 30
0.0
 11
0.0
 21
0.0
 31
0.0
  0
LINE
  5
104
330
F8
100
AcDbEntity
  8
0
 62
     0
100
AcDbLine
 10
0.0
 20
0.0
 30
0.0
 11
-0.9999999999999998
 21
0.0994897959183674
 31
0.0
  0
LINE
  5
105
330
F8
100
AcDbEntity
  8
0
 62
     0
100
AcDbLine
 10
-0.9999999999999998
 20
0.0994897959183674
 30
0.0
 11
-0.9999999999999998
 21
-0.0994897959183674
 31
0.0
  0
ENDBLK
  5
FA
330
F8
100
AcDbEntity
  8
0
100
AcDbBlockEnd
  0
BLOCK
  5
154
330
153
100
AcDbEntity
  8
0
100
AcDbBlockBegin
  2
*D4
 70
     1
 10
0.0
 20
0.0
 30
0.0
  3
*D4
  1

  0
LINE
  5
233
330
153
100
AcDbEntity
  8
Dimension (ANSI)
100
AcDbLine
 10
7.30675009520172
 20
22.55255212086507
 30
0.0
 11
7.30675009520172
 21
26.28877259330601
 31
0.0
  0
LINE
  5
234
330
153
100
AcDbEntity
  8
Dimension (ANSI)
100
AcDbLine
 10
21.50675009520172
 20
22.55255212086507
 30
0.0
 11
21.50675009520172
 21
26.28877259330601
 31
0.0
  0
LINE
  5
235
330
153
100
AcDbEntity
  8
Dimension (ANSI)
100
AcDbLine
 10
7.56921728085795
 20
25.95543925997268
 30
0.0
 11
13.68149074306387
 21
25.95543925997268
 31
0.0
  0
LINE
  5
236
330
153
100
AcDbEntity
  8
Dimension (ANSI)
100
AcDbLine
 10
21.24428290954549
 20
25.95543925997268
 30
0.0
 11
15.13200944733956
 21
25.95543925997268
 31
0.0
  0
SOLID
  5
237
330
153
100
AcDbEntity
  8
Dimension (ANSI)
100
AcDbTrace
 10
7.56921728085795
 20
25.99918379091538
 30
0.0
 11
7.56921728085795
 21
25.91169472902997
 31
0.0
 12
7.30675009520172
 22
25.95543925997268
 32
0.0
 13
7.30675009520172
 23
25.95543925997268
 33
0.0
  0
SOLID
  5
238
330
153
100
AcDbEntity
  8
Dimension (ANSI)
100
AcDbTrace
 10
21.24428290954549
 20
25.99918379091538
 30
0.0
 11
21.24428290954549
 21
25.91169472902997
 31
0.0
 12
21.50675009520172
 22
25.95543925997268
 32
0.0
 13
21.50675009520172
 23
25.95543925997268
 33
0.0
  0
MTEXT
  5
239
330
153
100
AcDbEntity
  8
Dimension (ANSI)
100
AcDbMText
 10
13.76548024437621
 20
26.08877259529283
 30
0.0
 40
0.2666666706403096
 41
0.0
 71
     1
 72
     1
  1
\A1;14.200
  7
ROMANS
 73
     1
 44
1.0
1001
ACAD
1000
MTEXTBEGIN
1070
    73
1070
     1
1070
    44
1040
1.0
1070
    74
1070
     0
1000
MTEXTEND
  0
POINT
  5
23A
330
153
100
AcDbEntity
  8
Defpoints
 62
     0
100
AcDbPoint
 10
7.30675009520172
 20
22.3858854541984
 30
0.0
  0
POINT
  5
23B
330
153
100
AcDbEntity
  8
Defpoints
 62
     0
100
AcDbPoint
 10
21.50675009520172
 20
22.3858854541984
 30
0.0
  0
POINT
  5
23C
330
153
100
AcDbEntity
  8
Defpoints
 62
     0
100
AcDbPoint
 10
21.50675009520172
 20
25.95543925997268
 30
0.0
  0
ENDBLK
  5
155
330
153
100
AcDbEntity
  8
0
100
AcDbBlockEnd
  0
BLOCK
  5
23F
330
23E
100
AcDbEntity
  8
0
100
AcDbBlockBegin
  2
*D5
 70
     1
 10
0.0
 20
0.0
 30
0.0
  3
*D5
  1

  0
LINE
  5
31D
330
23E
100
AcDbEntity
  8
Dimension (ANSI)
100
AcDbLine
 10
7.806750095201719
 20
23.05255212086507
 30
0.0
 11
7.806750095201719
 21
25.3845731182404
 31
0.0
  0
LINE
  5
31E
330
23E
100
AcDbEntity
  8
Dimension (ANSI)
100
AcDbLine
 10
21.00675009520172
 20
23.05255212086508
 30
0.0
 11
21.00675009520172
 21
25.3845731182404
 31
0.0
  0
LINE
  5
31F
330
23E
100
AcDbEntity
  8
Dimension (ANSI)
100
AcDbLine
 10
8.069217280857948
 20
25.05123978490706
 30
0.0
 11
13.14180819533944
 21
25.05123978490706
 31
0.0
  0
LINE
  5
320
330
23E
100
AcDbEntity
  8
Dimension (ANSI)
100
AcDbLine
 10
20.74428290954549
 20
25.05123978490706
 30
0.0
 11
15.67169199506399
 21
25.05123978490706
 31
0.0
  0
SOLID
  5
321
330
23E
100
AcDbEntity
  8
Dimension (ANSI)
100
AcDbTrace
 10
8.069217280857948
 20
25.09498431584977
 30
0.0
 11
8.069217280857948
 21
25.00749525396436
 31
0.0
 12
7.806750095201719
 22
25.05123978490706
 32
0.0
 13
7.806750095201719
 23
25.05123978490706
 33
0.0
  0
SOLID
  5
322
330
23E
100
AcDbEntity
  8
Dimension (ANSI)
100
AcDbTrace
 10
20.74428290954549
 20
25.09498431584977
 30
0.0
 11
20.74428290954549
 21
25.00749525396436
 31
0.0
 12
21.00675009520172
 22
25.05123978490706
 32
0.0
 13
21.00675009520172
 23
25.05123978490706
 33
0.0
  0
MTEXT
  5
323
330
23E
100
AcDbEntity
  8
Dimension (ANSI)
100
AcDbMText
 10
14.40675009520172
 20
25.05123978490706
 30
0.0
 40
0.2666666706403096
 41
0.0
 71
     5
 72
     1
  1
\A1;13.200{ TYP.}
  7
ROMANS
 73
     1
 44
1.0
1001
ACAD
1000
MTEXTBEGIN
1070
    73
1070
     1
1070
    44
1040
1.0
1070
    74
1070
     0
1000
MTEXTEND
  0
POINT
  5
324
330
23E
100
AcDbEntity
  8
Defpoints
 62
     0
100
AcDbPoint
 10
7.806750095201719
 20
22.8858854541984
 30
0.0
  0
POINT
  5
325
330
23E
100
AcDbEntity
  8
Defpoints
 62
     0
100
AcDbPoint
 10
21.00675009520172
 20
22.88588545419841
 30
0.0
  0
POINT
  5
326
330
23E
100
AcDbEntity
  8
Defpoints
 62
     0
100
AcDbPoint
 10
21.00675009520172
 20
25.05123978490706
 30
0.0
  0
ENDBLK
  5
240
330
23E
100
AcDbEntity
  8
0
100
AcDbBlockEnd
  0
BLOCK
  5
329
330
328
100
AcDbEntity
  8
0
100
AcDbBlockBegin
  2
*D6
 70
     1
 10
0.0
 20
0.0
 30
0.0
  3
*D6
  1

  0
LINE
  5
41B
330
328
100
AcDbEntity
  8
Dimension (ANSI)
100
AcDbLine
 10
7.30675009520172
 20
22.55255212086507
 30
0.0
 11
7.30675009520172
 21
25.3845731182404
 31
0.0
  0
LINE
  5
41C
330
328
100
AcDbEntity
  8
Dimension (ANSI)
100
AcDbLine
 10
7.806750095201719
 20
23.05255212086507
 30
0.0
 11
7.806750095201719
 21
25.3845731182404
 31
0.0
  0
LINE
  5
41D
330
328
100
AcDbEntity
  8
Dimension (ANSI)
100
AcDbLine
 10
8.069217280857948
 20
25.05123978490706
 30
0.0
 11
8.331684466514179
 21
25.05123978490706
 31
0.0
  0
LINE
  5
41E
330
328
100
AcDbEntity
  8
Dimension (ANSI)
100
AcDbLine
 10
7.04428290954549
 20
25.05123978490706
 30
0.0
 11
6.393033641257245
 21
25.05123978490706
 31
0.0
  0
SOLID
  5
41F
330
328
100
AcDbEntity
  8
Dimension (ANSI)
100
AcDbTrace
 10
8.069217280857948
 20
25.09498431584977
 30
0.0
 11
8.069217280857948
 21
25.00749525396436
 31
0.0
 12
7.806750095201719
 22
25.05123978490706
 32
0.0
 13
7.806750095201719
 23
25.05123978490706
 33
0.0
  0
SOLID
  5
420
330
328
100
AcDbEntity
  8
Dimension (ANSI)
100
AcDbTrace
 10
7.04428290954549
 20
25.09498431584977
 30
0.0
 11
7.04428290954549
 21
25.00749525396436
 31
0.0
 12
7.30675009520172
 22
25.05123978490706
 32
0.0
 13
7.30675009520172
 23
25.05123978490706
 33
0.0
  0
MTEXT
  5
421
330
328
100
AcDbEntity
  8
Dimension (ANSI)
100
AcDbMText
 10
5.77571079866429
 20
25.05123978490706
 30
0.0
 40
0.2666666706403096
 41
0.0
 71
     5
 72
     1
  1
\A1;0.500{\PTYP.}
  7
ROMANS
 73
     1
 44
1.0
1001
ACAD
1000
MTEXTBEGIN
1070
    73
1070
     1
1070
    44
1040
1.0
1070
    74
1070
     0
1000
MTEXTEND
  0
POINT
  5
422
330
328
100
AcDbEntity
  8
Defpoints
 62
     0
100
AcDbPoint
 10
7.30675009520172
 20
22.3858854541984
 30
0.0
  0
POINT
  5
423
330
328
100
AcDbEntity
  8
Defpoints
 62
     0
100
AcDbPoint
 10
7.806750095201719
 20
22.8858854541984
 30
0.0
  0
POINT
  5
424
330
328
100
AcDbEntity
  8
Defpoints
 62
     0
100
AcDbPoint
 10
7.806750095201719
 20
25.05123978490706
 30
0.0
  0
ENDBLK
  5
32A
330
328
100
AcDbEntity
  8
0
100
AcDbBlockEnd
  0
BLOCK
  5
427
330
426
100
AcDbEntity
  8
0
100
AcDbBlockBegin
  2
*D7
 70
     1
 10
0.0
 20
0.0
 30
0.0
  3
*D7
  1

  0
LINE
  5
505
330
426
100
AcDbEntity
  8
Dimension (ANSI)
100
AcDbLine
 10
7.640083428535052
 20
22.8858854541984
 30
0.0
 11
2.945857706750285
 21
22.8858854541984
 31
0.0
  0
LINE
  5
506
330
426
100
AcDbEntity
  8
Dimension (ANSI)
100
AcDbLine
 10
7.640083428535058
 20
8.685885454198407
 30
0.0
 11
2.945857706750281
 21
8.685885454198409
 31
0.0
  0
LINE
  5
507
330
426
100
AcDbEntity
  8
Dimension (ANSI)
100
AcDbLine
 10
3.279191040083618
 20
22.62341826854217
 30
0.0
 11
3.279191040083616
 21
16.00320829083089
 31
0.0
  0
LINE
  5
508
330
426
100
AcDbEntity
  8
Dimension (ANSI)
100
AcDbLine
 10
3.279191040083615
 20
8.948352639854638
 30
0.0
 11
3.279191040083616
 21
15.56856261756591
 31
0.0
  0
SOLID
  5
509
330
426
100
AcDbEntity
  8
Dimension (ANSI)
100
AcDbTrace
 10
3.235446509140913
 20
22.62341826854217
 30
0.0
 11
3.322935571026323
 21
22.62341826854217
 31
0.0
 12
3.279191040083618
 22
22.8858854541984
 32
0.0
 13
3.279191040083618
 23
22.8858854541984
 33
0.0
  0
SOLID
  5
50A
330
426
100
AcDbEntity
  8
Dimension (ANSI)
100
AcDbTrace
 10
3.235446509140909
 20
8.948352639854638
 30
0.0
 11
3.32293557102632
 21
8.948352639854638
 31
0.0
 12
3.279191040083615
 22
8.685885454198409
 32
0.0
 13
3.279191040083615
 23
8.685885454198409
 33
0.0
  0
MTEXT
  5
50B
330
426
100
AcDbEntity
  8
Dimension (ANSI)
100
AcDbMText
 10
2.637921189258107
 20
15.91921878951856
 30
0.0
 40
0.2666666706403096
 41
0.0
 71
     1
 72
     1
  1
\A1;14.200
  7
ROMANS
 73
     1
 44
1.0
1001
ACAD
1000
MTEXTBEGIN
1070
    73
1070
     1
1070
    44
1040
1.0
1070
    74
1070
     0
1000
MTEXTEND
  0
POINT
  5
50C
330
426
100
AcDbEntity
  8
Defpoints
 62
     0
100
AcDbPoint
 10
7.806750095201719
 20
22.8858854541984
 30
0.0
  0
POINT
  5
50D
330
426
100
AcDbEntity
  8
Defpoints
 62
     0
100
AcDbPoint
 10
7.806750095201725
 20
8.685885454198407
 30
0.0
  0
POINT
  5
50E
330
426
100
AcDbEntity
  8
Defpoints
 62
     0
100
AcDbPoint
 10
3.279191040083615
 20
8.685885454198409
 30
0.0
  0
ENDBLK
  5
428
330
426
100
AcDbEntity
  8
0
100
AcDbBlockEnd
  0
BLOCK
  5
511
330
510
100
AcDbEntity
  8
0
100
AcDbBlockBegin
  2
*D8
 70
     1
 10
0.0
 20
0.0
 30
0.0
  3
*D8
  1

  0
LINE
  5
603
330
510
100
AcDbEntity
  8
Dimension (ANSI)
100
AcDbLine
 10
7.140083428535056
 20
9.185885454198409
 30
0.0
 11
5.398613612262092
 21
9.185885454198409
 31
0.0
  0
LINE
  5
604
330
510
100
AcDbEntity
  8
Dimension (ANSI)
100
AcDbLine
 10
7.140083428535053
 20
22.3858854541984
 30
0.0
 11
5.398613612262096
 21
22.3858854541984
 31
0.0
  0
LINE
  5
605
330
510
100
AcDbEntity
  8
Dimension (ANSI)
100
AcDbLine
 10
5.731946945595425
 20
9.448352639854638
 30
0.0
 11
5.731946945595427
 21
15.34634039203232
 31
0.0
  0
LINE
  5
606
330
510
100
AcDbEntity
  8
Dimension (ANSI)
100
AcDbLine
 10
5.731946945595429
 20
22.12341826854217
 30
0.0
 11
5.731946945595427
 21
16.22543051636449
 31
0.0
  0
SOLID
  5
607
330
510
100
AcDbEntity
  8
Dimension (ANSI)
100
AcDbTrace
 10
5.68820241465272
 20
9.448352639854638
 30
0.0
 11
5.77569147653813
 21
9.448352639854638
 31
0.0
 12
5.731946945595425
 22
9.185885454198409
 32
0.0
 13
5.731946945595425
 23
9.185885454198409
 33
0.0
  0
SOLID
  5
608
330
510
100
AcDbEntity
  8
Dimension (ANSI)
100
AcDbTrace
 10
5.688202414652724
 20
22.12341826854217
 30
0.0
 11
5.775691476538134
 21
22.12341826854217
 31
0.0
 12
5.731946945595429
 22
22.3858854541984
 32
0.0
 13
5.731946945595429
 23
22.3858854541984
 33
0.0
  0
MTEXT
  5
609
330
510
100
AcDbEntity
  8
Dimension (ANSI)
100
AcDbMText
 10
5.731946945595424
 20
15.7858854541984
 30
0.0
 40
0.2666666706403096
 41
0.0
 71
     5
 72
     1
  1
\A1;13.200{\PTYP.}
  7
ROMANS
 73
     1
 44
1.0
1001
ACAD
1000
MTEXTBEGIN
1070
    73
1070
     1
1070
    44
1040
1.0
1070
    74
1070
     0
1000
MTEXTEND
  0
POINT
  5
60A
330
510
100
AcDbEntity
  8
Defpoints
 62
     0
100
AcDbPoint
 10
7.306750095201723
 20
9.185885454198409
 30
0.0
  0
POINT
  5
60B
330
510
100
AcDbEntity
  8
Defpoints
 62
     0
100
AcDbPoint
 10
7.30675009520172
 20
22.3858854541984
 30
0.0
  0
POINT
  5
60C
330
510
100
AcDbEntity
  8
Defpoints
 62
     0
100
AcDbPoint
 10
5.731946945595429
 20
22.3858854541984
 30
0.0
  0
ENDBLK
  5
512
330
510
100
AcDbEntity
  8
0
100
AcDbBlockEnd
  0
BLOCK
  5
60F
330
60E
100
AcDbEntity
  8
0
100
AcDbBlockBegin
  2
*D9
 70
     1
 10
0.0
 20
0.0
 30
0.0
  3
*D9
  1

  0
LINE
  5
712
330
60E
100
AcDbEntity
  8
Dimension (ANSI)
100
AcDbLine
 10
7.640083428535052
 20
22.8858854541984
 30
0.0
 11
4.518823584012908
 21
22.8858854541984
 31
0.0
  0
LINE
  5
713
330
60E
100
AcDbEntity
  8
Dimension (ANSI)
100
AcDbLine
 10
7.140083428535053
 20
22.3858854541984
 30
0.0
 11
4.518823584012908
 21
22.3858854541984
 31
0.0
  0
LINE
  5
714
330
60E
100
AcDbEntity
  8
Dimension (ANSI)
100
AcDbLine
 10
4.852156917346242
 20
22.12341826854217
 30
0.0
 11
4.852156917346241
 21
21.86095108288594
 31
0.0
  0
LINE
  5
715
330
60E
100
AcDbEntity
  8
Dimension (ANSI)
100
AcDbLine
 10
4.852156917346242
 20
23.14835263985463
 30
0.0
 11
4.852156917346242
 21
23.91230200866489
 31
0.0
  0
LINE
  5
716
330
60E
100
AcDbEntity
  8
Dimension (ANSI)
100
AcDbLine
 10
4.852156917346242
 20
23.91230200866489
 30
0.0
 11
5.114624103002472
 21
23.91230200866489
 31
0.0
  0
SOLID
  5
717
330
60E
100
AcDbEntity
  8
Dimension (ANSI)
100
AcDbTrace
 10
4.808412386403537
 20
22.12341826854217
 30
0.0
 11
4.895901448288947
 21
22.12341826854217
 31
0.0
 12
4.852156917346242
 22
22.3858854541984
 32
0.0
 13
4.852156917346242
 23
22.3858854541984
 33
0.0
  0
SOLID
  5
718
330
60E
100
AcDbEntity
  8
Dimension (ANSI)
100
AcDbTrace
 10
4.808412386403537
 20
23.14835263985463
 30
0.0
 11
4.895901448288947
 21
23.14835263985463
 31
0.0
 12
4.852156917346242
 22
22.8858854541984
 32
0.0
 13
4.852156917346242
 23
22.8858854541984
 33
0.0
  0
MTEXT
  5
719
330
60E
100
AcDbEntity
  8
Dimension (ANSI)
100
AcDbMText
 10
5.731946945595423
 20
23.91230200866489
 30
0.0
 40
0.2666666706403096
 41
0.0
 71
     5
 72
     1
  1
\A1;0.500{\PTYP.}
  7
ROMANS
 73
     1
 44
1.0
1001
ACAD
1000
MTEXTBEGIN
1070
    73
1070
     1
1070
    44
1040
1.0
1070
    74
1070
     0
1000
MTEXTEND
  0
POINT
  5
71A
330
60E
100
AcDbEntity
  8
Defpoints
 62
     0
100
AcDbPoint
 10
7.806750095201719
 20
22.8858854541984
 30
0.0
  0
POINT
  5
71B
330
60E
100
AcDbEntity
  8
Defpoints
 62
     0
100
AcDbPoint
 10
7.30675009520172
 20
22.3858854541984
 30
0.0
  0
POINT
  5
71C
330
60E
100
AcDbEntity
  8
Defpoints
 62
     0
100
AcDbPoint
 10
4.852156917346242
 20
22.3858854541984
 30
0.0
  0
ENDBLK
  5
610
330
60E
100
AcDbEntity
  8
0
100
AcDbBlockEnd
  0
BLOCK
  5
71F
330
71E
100
AcDbEntity
  8
0
100
AcDbBlockBegin
  2
*D10
 70
     1
 10
0.0
 20
0.0
 30
0.0
  3
*D10
  1

  0
LINE
  5
7BF
330
71E
100
AcDbEntity
  8
Dimension (ANSI)
100
AcDbLine
 10
9.977061559489143
 20
7.487600986648892
 30
0.0
 11
9.545034562751736
 21
7.487600986648891
 31
0.0
  0
LINE
  5
7C0
330
71E
100
AcDbEntity
  8
Dimension (ANSI)
100
AcDbLine
 10
9.545034562751736
 20
7.487600986648891
 30
0.0
 11
8.189119117314882
 21
8.843516432085353
 31
0.0
  0
MTEXT
  5
7C1
102
{ACAD_XDICTIONARY
360
CE3
102
}
330
71E
100
AcDbEntity
  8
Dimension (ANSI)
100
AcDbMText
 10
10.06105106080148
 20
7.690775592851034
 30
0.0
 40
0.2666666706403096
 41
0.0
 71
     1
 72
     1
  1
\A1;\U+22050.500{ TYP. (4 PL.)}
  7
ROMANS
 73
     1
 44
1.0
1001
ACAD
1000
MTEXTBEGIN
1070
    73
1070
     1
1070
    44
1040
1.0
1070
    74
1070
     0
1000
MTEXTEND
  0
SOLID
  5
7C2
330
71E
100
AcDbEntity
  8
Dimension (ANSI)
100
AcDbTrace
 10
8.220051171784289
 20
8.87444848655477
 30
0.0
 11
8.158187062845476
 21
8.812584377615937
 31
0.0
 12
8.003526790498387
 22
9.029108758901795
 32
0.0
 13
8.003526790498387
 23
9.029108758901795
 33
0.0
  0
LINE
  5
7C3
330
71E
100
AcDbEntity
  8
Dimension (ANSI)
100
AcDbLine
 10
7.586750095201723
 20
9.205885454198408
 30
0.0
 11
8.066750095201724
 21
9.205885454198408
 31
0.0
  0
LINE
  5
7C4
330
71E
100
AcDbEntity
  8
Dimension (ANSI)
100
AcDbLine
 10
7.826750095201724
 20
8.965885454198408
 30
0.0
 11
7.826750095201723
 21
9.445885454198407
 31
0.0
  0
POINT
  5
7C5
330
71E
100
AcDbEntity
  8
Defpoints
 62
     0
100
AcDbPoint
 10
8.003526790498387
 20
9.029108758901795
 30
0.0
  0
POINT
  5
7C6
330
71E
100
AcDbEntity
  8
Defpoints
 62
     0
100
AcDbPoint
 10
7.649973399905062
 20
9.382662149495018
 30
0.0
  0
ENDBLK
  5
720
330
71E
100
AcDbEntity
  8
0
100
AcDbBlockEnd
  0
BLOCK
  5
7C9
330
7C8
100
AcDbEntity
  8
0
100
AcDbBlockBegin
  2
*D11
 70
     1
 10
0.0
 20
0.0
 30
0.0
  3
*D11
  1

  0
LINE
  5
868
330
7C8
100
AcDbEntity
  8
Dimension (ANSI)
100
AcDbLine
 10
10.09451748129302
 20
8.12014506484507
 30
0.0
 11
9.662490484555627
 21
8.12014506484507
 31
0.0
  0
LINE
  5
869
330
7C8
100
AcDbEntity
  8
Dimension (ANSI)
100
AcDbLine
 10
9.662490484555627
 20
8.12014506484507
 30
0.0
 11
8.122827856578636
 21
9.659807692821585
 31
0.0
  0
MTEXT
  5
86A
102
{ACAD_XDICTIONARY
360
CE5
102
}
330
7C8
100
AcDbEntity
  8
Dimension (ANSI)
100
AcDbMText
 10
10.17850698260535
 20
8.323319671047212
 30
0.0
 40
0.2666666706403096
 41
0.0
 71
     1
 72
     1
  1
\A1;\U+22050.313{ TYP. (4 PL.)}
  7
ROMANS
 73
     1
 44
1.0
1001
ACAD
1000
MTEXTBEGIN
1070
    73
1070
     1
1070
    44
1040
1.0
1070
    74
1070
     0
1000
MTEXTEND
  0
SOLID
  5
86B
330
7C8
100
AcDbEntity
  8
Dimension (ANSI)
100
AcDbTrace
 10
8.153759911048043
 20
9.690739747291001
 30
0.0
 11
8.091895802109229
 21
9.62887563835217
 31
0.0
 12
7.93723552976214
 22
9.845400019638026
 32
0.0
 13
7.93723552976214
 23
9.845400019638026
 33
0.0
  0
LINE
  5
86C
330
7C8
100
AcDbEntity
  8
Dimension (ANSI)
100
AcDbLine
 10
7.586750095201725
 20
9.955885454198408
 30
0.0
 11
8.066750095201724
 21
9.955885454198408
 31
0.0
  0
LINE
  5
86D
330
7C8
100
AcDbEntity
  8
Dimension (ANSI)
100
AcDbLine
 10
7.826750095201725
 20
9.715885454198406
 30
0.0
 11
7.826750095201722
 21
10.19588545419841
 31
0.0
  0
POINT
  5
86E
330
7C8
100
AcDbEntity
  8
Defpoints
 62
     0
100
AcDbPoint
 10
7.93723552976214
 20
9.845400019638026
 30
0.0
  0
POINT
  5
86F
330
7C8
100
AcDbEntity
  8
Defpoints
 62
     0
100
AcDbPoint
 10
7.716264660641309
 20
10.06637088875879
 30
0.0
  0
ENDBLK
  5
7CA
330
7C8
100
AcDbEntity
  8
0
100
AcDbBlockEnd
  0
BLOCK
  5
872
330
871
100
AcDbEntity
  8
0
100
AcDbBlockBegin
  2
*D12
 70
     1
 10
0.0
 20
0.0
 30
0.0
  3
*D12
  1

  0
LINE
  5
976
330
871
100
AcDbEntity
  8
Dimension (ANSI)
100
AcDbLine
 10
21.17341676186839
 20
8.685885454198407
 30
0.0
 11
23.36926520189335
 21
8.685885454198407
 31
0.0
  0
LINE
  5
977
330
871
100
AcDbEntity
  8
Dimension (ANSI)
100
AcDbLine
 10
21.15341676186839
 20
9.205885454198405
 30
0.0
 11
23.36926520189335
 21
9.205885454198405
 31
0.0
  0
LINE
  5
978
330
871
100
AcDbEntity
  8
Dimension (ANSI)
100
AcDbLine
 10
23.03593186856002
 20
8.423418268542178
 30
0.0
 11
23.03593186856002
 21
8.160951082885947
 31
0.0
  0
LINE
  5
979
330
871
100
AcDbEntity
  8
Dimension (ANSI)
100
AcDbLine
 10
23.03593186856002
 20
9.468352639854634
 30
0.0
 11
23.03593186856002
 21
9.730819825510865
 31
0.0
  0
LINE
  5
97A
330
871
100
AcDbEntity
  8
Dimension (ANSI)
100
AcDbLine
 10
23.29839905421625
 20
7.93207790624769
 30
0.0
 11
23.03593186856002
 21
7.93207790624769
 31
0.0
  0
LINE
  5
97B
330
871
100
AcDbEntity
  8
Dimension (ANSI)
100
AcDbLine
 10
23.03593186856002
 20
7.93207790624769
 30
0.0
 11
23.03593186856002
 21
8.160951082885947
 31
0.0
  0
MTEXT
  5
97C
330
871
100
AcDbEntity
  8
Dimension (ANSI)
100
AcDbMText
 10
23.9157218968092
 20
7.932077906247694
 30
0.0
 40
0.2666666706403096
 41
0.0
 71
     5
 72
     1
  1
\A1;0.520{ \PTYP.}
  7
ROMANS
 73
     1
 44
1.0
1001
ACAD
1000
MTEXTBEGIN
1070
    73
1070
     1
1070
    44
1040
1.0
1070
    74
1070
     0
1000
MTEXTEND
  0
SOLID
  5
97D
330
871
100
AcDbEntity
  8
Dimension (ANSI)
100
AcDbTrace
 10
22.99218733761732
 20
8.423418268542178
 30
0.0
 11
23.07967639950272
 21
8.423418268542178
 31
0.0
 12
23.03593186856002
 22
8.685885454198407
 32
0.0
 13
23.03593186856002
 23
8.685885454198407
 33
0.0
  0
SOLID
  5
97E
330
871
100
AcDbEntity
  8
Dimension (ANSI)
100
AcDbTrace
 10
22.99218733761732
 20
9.468352639854634
 30
0.0
 11
23.07967639950272
 21
9.468352639854634
 31
0.0
 12
23.03593186856002
 22
9.205885454198405
 32
0.0
 13
23.03593186856002
 23
9.205885454198405
 33
0.0
  0
POINT
  5
97F
330
871
100
AcDbEntity
  8
Defpoints
 62
     0
100
AcDbPoint
 10
21.00675009520172
 20
8.685885454198407
 30
0.0
  0
POINT
  5
980
330
871
100
AcDbEntity
  8
Defpoints
 62
     0
100
AcDbPoint
 10
20.98675009520173
 20
9.205885454198405
 30
0.0
  0
POINT
  5
981
330
871
100
AcDbEntity
  8
Defpoints
 62
     0
100
AcDbPoint
 10
23.03593186856002
 20
9.205885454198405
 30
0.0
  0
ENDBLK
  5
873
330
871
100
AcDbEntity
  8
0
100
AcDbBlockEnd
  0
BLOCK
  5
984
330
983
100
AcDbEntity
  8
0
100
AcDbBlockBegin
  2
*D13
 70
     1
 10
0.0
 20
0.0
 30
0.0
  3
*D13
  1

  0
LINE
  5
A84
330
983
100
AcDbEntity
  8
Dimension (ANSI)
100
AcDbLine
 10
21.17341676186839
 20
8.685885454198407
 30
0.0
 11
26.18747920199622
 21
8.685885454198407
 31
0.0
  0
LINE
  5
A85
330
983
100
AcDbEntity
  8
Dimension (ANSI)
100
AcDbLine
 10
21.15341676186839
 20
9.955885454198405
 30
0.0
 11
26.18747920199622
 21
9.955885454198405
 31
0.0
  0
LINE
  5
A86
330
983
100
AcDbEntity
  8
Dimension (ANSI)
100
AcDbLine
 10
25.85414586866288
 20
9.693418268542176
 30
0.0
 11
25.85414586866288
 21
8.948352639854636
 31
0.0
  0
LINE
  5
A87
330
983
100
AcDbEntity
  8
Dimension (ANSI)
100
AcDbLine
 10
25.85414586866288
 20
8.685885454198407
 30
0.0
 11
25.85414586866288
 21
7.921936091332967
 31
0.0
  0
LINE
  5
A88
330
983
100
AcDbEntity
  8
Dimension (ANSI)
100
AcDbLine
 10
25.85414586866288
 20
7.921936091332967
 30
0.0
 11
25.59167868300665
 21
7.921936091332967
 31
0.0
  0
SOLID
  5
A89
330
983
100
AcDbEntity
  8
Dimension (ANSI)
100
AcDbTrace
 10
25.81040133772018
 20
9.693418268542176
 30
0.0
 11
25.89789039960559
 21
9.693418268542176
 31
0.0
 12
25.85414586866288
 22
9.955885454198405
 32
0.0
 13
25.85414586866288
 23
9.955885454198405
 33
0.0
  0
SOLID
  5
A8A
330
983
100
AcDbEntity
  8
Dimension (ANSI)
100
AcDbTrace
 10
25.81040133772018
 20
8.948352639854636
 30
0.0
 11
25.89789039960559
 21
8.948352639854636
 31
0.0
 12
25.85414586866288
 22
8.685885454198407
 32
0.0
 13
25.85414586866288
 23
8.685885454198407
 33
0.0
  0
MTEXT
  5
A8B
330
983
100
AcDbEntity
  8
Dimension (ANSI)
100
AcDbMText
 10
24.99340345974515
 20
7.921936091332971
 30
0.0
 40
0.2666666706403096
 41
0.0
 71
     5
 72
     1
  1
\A1;1.270{\PTYP.}
  7
ROMANS
 73
     1
 44
1.0
1001
ACAD
1000
MTEXTBEGIN
1070
    73
1070
     1
1070
    44
1040
1.0
1070
    74
1070
     0
1000
MTEXTEND
  0
POINT
  5
A8C
330
983
100
AcDbEntity
  8
Defpoints
 62
     0
100
AcDbPoint
 10
21.00675009520172
 20
8.685885454198407
 30
0.0
  0
POINT
  5
A8D
330
983
100
AcDbEntity
  8
Defpoints
 62
     0
100
AcDbPoint
 10
20.98675009520173
 20
9.955885454198405
 30
0.0
  0
POINT
  5
A8E
330
983
100
AcDbEntity
  8
Defpoints
 62
     0
100
AcDbPoint
 10
25.85414586866288
 20
9.955885454198405
 30
0.0
  0
ENDBLK
  5
985
330
983
100
AcDbEntity
  8
0
100
AcDbBlockEnd
  0
BLOCK
  5
A91
330
A90
100
AcDbEntity
  8
0
100
AcDbBlockBegin
  2
*D14
 70
     1
 10
0.0
 20
0.0
 30
0.0
  3
*D14
  1

  0
LINE
  5
B83
330
A90
100
AcDbEntity
  8
Dimension (ANSI)
100
AcDbLine
 10
20.98675009520173
 20
9.789218787531739
 30
0.0
 11
20.98675009520173
 21
7.592709601180033
 31
0.0
  0
LINE
  5
B84
330
A90
100
AcDbEntity
  8
Dimension (ANSI)
100
AcDbLine
 10
21.50675009520172
 20
9.019218787531743
 30
0.0
 11
21.50675009520172
 21
7.592709601180033
 31
0.0
  0
LINE
  5
B85
330
A90
100
AcDbEntity
  8
Dimension (ANSI)
100
AcDbLine
 10
21.76921728085795
 20
7.926042934513366
 30
0.0
 11
22.03168446651418
 21
7.926042934513366
 31
0.0
  0
LINE
  5
B86
330
A90
100
AcDbEntity
  8
Dimension (ANSI)
100
AcDbLine
 10
20.72428290954549
 20
7.926042934513366
 30
0.0
 11
20.37626859446342
 21
7.926042934513366
 31
0.0
  0
SOLID
  5
B87
330
A90
100
AcDbEntity
  8
Dimension (ANSI)
100
AcDbTrace
 10
21.76921728085795
 20
7.969787465456072
 30
0.0
 11
21.76921728085795
 21
7.882298403570661
 31
0.0
 12
21.50675009520172
 22
7.926042934513366
 32
0.0
 13
21.50675009520172
 23
7.926042934513366
 33
0.0
  0
SOLID
  5
B88
330
A90
100
AcDbEntity
  8
Dimension (ANSI)
100
AcDbTrace
 10
20.72428290954549
 20
7.969787465456072
 30
0.0
 11
20.72428290954549
 21
7.882298403570661
 31
0.0
 12
20.98675009520173
 22
7.926042934513366
 32
0.0
 13
20.98675009520173
 23
7.926042934513366
 33
0.0
  0
MTEXT
  5
B89
330
A90
100
AcDbEntity
  8
Dimension (ANSI)
100
AcDbMText
 10
19.75894575187046
 20
7.926042934513366
 30
0.0
 40
0.2666666706403096
 41
0.0
 71
     5
 72
     1
  1
\A1;0.520{\PTYP.}
  7
ROMANS
 73
     1
 44
1.0
1001
ACAD
1000
MTEXTBEGIN
1070
    73
1070
     1
1070
    44
1040
1.0
1070
    74
1070
     0
1000
MTEXTEND
  0
POINT
  5
B8A
330
A90
100
AcDbEntity
  8
Defpoints
 62
     0
100
AcDbPoint
 10
20.98675009520173
 20
9.955885454198405
 30
0.0
  0
POINT
  5
B8B
330
A90
100
AcDbEntity
  8
Defpoints
 62
     0
100
AcDbPoint
 10
21.50675009520172
 20
9.185885454198409
 30
0.0
  0
POINT
  5
B8C
330
A90
100
AcDbEntity
  8
Defpoints
 62
     0
100
AcDbPoint
 10
21.50675009520172
 20
7.926042934513366
 30
0.0
  0
ENDBLK
  5
A92
330
A90
100
AcDbEntity
  8
0
100
AcDbBlockEnd
  0
BLOCK
  5
B8F
330
B8E
100
AcDbEntity
  8
0
100
AcDbBlockBegin
  2
*D15
 70
     1
 10
0.0
 20
0.0
 30
0.0
  3
*D15
  1

  0
LINE
  5
C7E
330
B8E
100
AcDbEntity
  8
Dimension (ANSI)
100
AcDbLine
 10
28.65013464232339
 20
16.00476599992517
 30
0.0
 11
28.38766745666716
 21
16.00476599992517
 31
0.0
  0
LINE
  5
C7F
330
B8E
100
AcDbEntity
  8
Dimension (ANSI)
100
AcDbLine
 10
29.26881901363585
 20
16.00476599992517
 30
0.0
 11
29.58501648274944
 21
16.00476599992517
 31
0.0
  0
SOLID
  5
C80
330
B8E
100
AcDbEntity
  8
Dimension (ANSI)
100
AcDbTrace
 10
28.65013464232339
 20
16.04851053086788
 30
0.0
 11
28.65013464232339
 21
15.96102146898247
 31
0.0
 12
28.91260182797962
 22
16.00476599992517
 32
0.0
 13
28.91260182797962
 23
16.00476599992517
 33
0.0
  0
SOLID
  5
C81
330
B8E
100
AcDbEntity
  8
Dimension (ANSI)
100
AcDbTrace
 10
29.26881901363585
 20
16.04851053086788
 30
0.0
 11
29.26881901363585
 21
15.96102146898247
 31
0.0
 12
29.00635182797962
 22
16.00476599992517
 32
0.0
 13
29.00635182797962
 23
16.00476599992517
 33
0.0
  0
MTEXT
  5
C82
330
B8E
100
AcDbEntity
  8
Dimension (ANSI)
100
AcDbMText
 10
30.36741869288164
 20
16.00476599992517
 30
0.0
 40
0.2666666706403096
 41
0.0
 71
     5
 72
     1
  1
\A1;(0.094){\P12 GA.\PGALV.}
  7
ROMANS
 73
     1
 44
1.0
1001
ACAD
1000
MTEXTBEGIN
1070
    73
1070
     1
1070
    44
1040
1.0
1070
    74
1070
     0
1000
MTEXTEND
  0
POINT
  5
C83
330
B8E
100
AcDbEntity
  8
Defpoints
 62
     0
100
AcDbPoint
 10
29.00635182797962
 20
16.69456582277938
 30
0.0
  0
POINT
  5
C84
330
B8E
100
AcDbEntity
  8
Defpoints
 62
     0
100
AcDbPoint
 10
28.91260182797962
 20
16.69456582277938
 30
0.0
  0
POINT
  5
C85
330
B8E
100
AcDbEntity
  8
Defpoints
 62
     0
100
AcDbPoint
 10
28.91260182797962
 20
16.00476599992517
 30
0.0
  0
ENDBLK
  5
B90
330
B8E
100
AcDbEntity
  8
0
100
AcDbBlockEnd
  0
ENDSEC
  0
SECTION
  2
ENTITIES
  0
CIRCLE
  5
107
330
6C
100
AcDbEntity
  8
Visible (ANSI)
100
AcDbCircle
 10
20.98675009520172
 20
22.3658854541984
 30
0.0
 40
0.25
  0
CIRCLE
  5
108
330
6C
100
AcDbEntity
  8
Visible (ANSI)
100
AcDbCircle
 10
7.826750095201724
 20
22.3658854541984
 30
0.0
 40
0.25
  0
CIRCLE
  5
109
330
6C
100
AcDbEntity
  8
Visible (ANSI)
100
AcDbCircle
 10
7.826750095201724
 20
9.205885454198407
 30
0.0
 40
0.25
  0
CIRCLE
  5
10A
330
6C
100
AcDbEntity
  8
Visible (ANSI)
100
AcDbCircle
 10
20.98675009520173
 20
9.205885454198407
 30
0.0
 40
0.25
  0
CIRCLE
  5
10B
330
6C
100
AcDbEntity
  8
Visible (ANSI)
100
AcDbCircle
 10
20.98675009520172
 20
21.6158854541984
 30
0.0
 40
0.15625
  0
CIRCLE
  5
10C
330
6C
100
AcDbEntity
  8
Visible (ANSI)
100
AcDbCircle
 10
7.826750095201724
 20
21.6158854541984
 30
0.0
 40
0.15625
  0
CIRCLE
  5
10D
330
6C
100
AcDbEntity
  8
Visible (ANSI)
100
AcDbCircle
 10
7.826750095201723
 20
9.955885454198407
 30
0.0
 40
0.15625
  0
CIRCLE
  5
10E
330
6C
100
AcDbEntity
  8
Visible (ANSI)
100
AcDbCircle
 10
20.98675009520173
 20
9.955885454198407
 30
0.0
 40
0.15625
  0
LINE
  5
10F
330
6C
100
AcDbEntity
  8
Visible (ANSI)
100
AcDbLine
 10
7.30675009520172
 20
22.3858854541984
 30
0.0
 11
7.806750095201719
 21
22.8858854541984
 31
0.0
  0
LINE
  5
110
330
6C
100
AcDbEntity
  8
Visible (ANSI)
100
AcDbLine
 10
7.306750095201723
 20
9.185885454198409
 30
0.0
 11
7.30675009520172
 21
22.3858854541984
 31
0.0
  0
LINE
  5
111
330
6C
100
AcDbEntity
  8
Visible (ANSI)
100
AcDbLine
 10
21.00675009520172
 20
8.685885454198407
 30
0.0
 11
7.806750095201725
 21
8.685885454198407
 31
0.0
  0
LINE
  5
112
330
6C
100
AcDbEntity
  8
Visible (ANSI)
100
AcDbLine
 10
21.50675009520172
 20
22.38588545419841
 30
0.0
 11
21.50675009520172
 21
9.185885454198409
 31
0.0
  0
LINE
  5
113
330
6C
100
AcDbEntity
  8
Visible (ANSI)
100
AcDbLine
 10
7.806750095201719
 20
22.8858854541984
 30
0.0
 11
21.00675009520172
 21
22.88588545419841
 31
0.0
  0
LINE
  5
114
330
6C
100
AcDbEntity
  8
Visible (ANSI)
100
AcDbLine
 10
7.806750095201724
 20
8.685885454198407
 30
0.0
 11
7.306750095201723
 21
9.185885454198409
 31
0.0
  0
LINE
  5
115
330
6C
100
AcDbEntity
  8
Visible (ANSI)
100
AcDbLine
 10
21.50675009520172
 20
9.185885454198409
 30
0.0
 11
21.00675009520172
 21
8.685885454198407
 31
0.0
  0
LINE
  5
116
330
6C
100
AcDbEntity
  8
Visible (ANSI)
100
AcDbLine
 10
21.00675009520172
 20
22.88588545419841
 30
0.0
 11
21.50675009520172
 21
22.38588545419841
 31
0.0
  0
MTEXT
  5
118
330
6C
100
AcDbEntity
  8
Symbol (ANSI)
100
AcDbMText
 10
13.10579027157348
 20
6.277100836460365
 30
0.0
 40
0.3200000039548698
 41
0.0
 71
     7
 72
     1
  1
FRONT VIEW
  7
Text Style168
 73
     1
 44
1.0
1001
ACAD
1000
MTEXTBEGIN
1070
    73
1070
     1
1070
    44
1040
1.0
1070
    74
1070
     0
1000
MTEXTEND
  0
LINE
  5
11A
330
6C
100
AcDbEntity
  8
Symbol (ANSI)
370
    30
100
AcDbLine
 10
13.07379018925778
 20
6.211843136793993
 30
0.0
 11
15.64649686735292
 21
6.211843136793993
 31
0.0
  0
LINE
  5
11B
330
6C
100
AcDbEntity
  8
Visible (ANSI)
100
AcDbLine
 10
29.00635182797962
 20
22.3858854541984
 30
0.0
 11
29.00635182797947
 21
22.8858854541984
 31
0.0
  0
LINE
  5
11C
330
6C
100
AcDbEntity
  8
Visible (ANSI)
100
AcDbLine
 10
28.91260182797962
 20
22.3858854541984
 30
0.0
 11
29.00635182797962
 21
22.3858854541984
 31
0.0
  0
LINE
  5
11D
330
6C
100
AcDbEntity
  8
Visible (ANSI)
100
AcDbLine
 10
28.91260182797947
 20
22.8858854541984
 30
0.0
 11
28.91260182797962
 21
22.3858854541984
 31
0.0
  0
LINE
  5
11E
330
6C
100
AcDbEntity
  8
Visible (ANSI)
100
AcDbLine
 10
29.00635182797947
 20
22.8858854541984
 30
0.0
 11
28.91260182797947
 21
22.8858854541984
 31
0.0
  0
LINE
  5
11F
330
6C
100
AcDbEntity
  8
Visible (ANSI)
100
AcDbLine
 10
29.00635182797962
 20
9.185885454198405
 30
0.0
 11
29.00635182797962
 21
22.3858854541984
 31
0.0
  0
LINE
  5
120
330
6C
100
AcDbEntity
  8
Visible (ANSI)
100
AcDbLine
 10
28.91260182797962
 20
22.3858854541984
 30
0.0
 11
28.91260182797962
 21
9.185885454198405
 31
0.0
  0
LINE
  5
121
330
6C
100
AcDbEntity
  8
Visible (ANSI)
100
AcDbLine
 10
29.00635182797947
 20
8.685885454198402
 30
0.0
 11
29.00635182797962
 21
9.185885454198405
 31
0.0
  0
LINE
  5
122
330
6C
100
AcDbEntity
  8
Visible (ANSI)
100
AcDbLine
 10
28.91260182797947
 20
8.685885454198402
 30
0.0
 11
29.00635182797947
 21
8.685885454198402
 31
0.0
  0
LINE
  5
123
330
6C
100
AcDbEntity
  8
Visible (ANSI)
100
AcDbLine
 10
28.91260182797962
 20
9.185885454198405
 30
0.0
 11
28.91260182797947
 21
8.685885454198402
 31
0.0
  0
LINE
  5
124
330
6C
100
AcDbEntity
  8
Visible (ANSI)
100
AcDbLine
 10
29.00635182797962
 20
9.185885454198405
 30
0.0
 11
28.91260182797962
 21
9.185885454198405
 31
0.0
  0
LINE
  5
125
330
6C
100
AcDbEntity
  8
Hidden (ANSI)
 48
0.0668619871139526
100
AcDbLine
 10
28.91260182797946
 20
22.6158854541984
 30
0.0
 11
29.00635182797947
 21
22.6158854541984
 31
0.0
  0
LINE
  5
126
330
6C
100
AcDbEntity
  8
Hidden (ANSI)
 48
0.0668619871139526
100
AcDbLine
 10
28.91260182797946
 20
22.1158854541984
 30
0.0
 11
29.00635182797947
 21
22.1158854541984
 31
0.0
  0
LINE
  5
127
330
6C
100
AcDbEntity
  8
Hidden (ANSI)
 48
0.0668619871139526
100
AcDbLine
 10
28.91260182797946
 20
9.455885454198403
 30
0.0
 11
29.00635182797947
 21
9.455885454198403
 31
0.0
  0
LINE
  5
128
330
6C
100
AcDbEntity
  8
Hidden (ANSI)
 48
0.0668619871139526
100
AcDbLine
 10
28.91260182797946
 20
8.955885454198403
 30
0.0
 11
29.00635182797947
 21
8.955885454198403
 31
0.0
  0
LINE
  5
129
330
6C
100
AcDbEntity
  8
Hidden (ANSI)
 48
0.0668619871139526
100
AcDbLine
 10
28.91260182797946
 20
21.7721354541984
 30
0.0
 11
29.00635182797947
 21
21.7721354541984
 31
0.0
  0
LINE
  5
12A
330
6C
100
AcDbEntity
  8
Hidden (ANSI)
 48
0.0668619871139526
100
AcDbLine
 10
28.91260182797946
 20
21.4596354541984
 30
0.0
 11
29.00635182797947
 21
21.4596354541984
 31
0.0
  0
LINE
  5
12B
330
6C
100
AcDbEntity
  8
Hidden (ANSI)
 48
0.0668619871139526
100
AcDbLine
 10
28.91260182797946
 20
10.1121354541984
 30
0.0
 11
29.00635182797947
 21
10.1121354541984
 31
0.0
  0
LINE
  5
12C
330
6C
100
AcDbEntity
  8
Hidden (ANSI)
 48
0.0668619871139526
100
AcDbLine
 10
28.91260182797946
 20
9.799635454198401
 30
0.0
 11
29.00635182797947
 21
9.799635454198401
 31
0.0
  0
MTEXT
  5
12D
330
6C
100
AcDbEntity
  8
Symbol (ANSI)
100
AcDbMText
 10
27.84802254268612
 20
6.279175390494937
 30
0.0
 40
0.3200000039548698
 41
0.0
 71
     7
 72
     1
  1
SIDE VIEW
  7
Text Style168
 73
     1
 44
1.0
1001
ACAD
1000
MTEXTBEGIN
1070
    73
1070
     1
1070
    44
1040
1.0
1070
    74
1070
     0
1000
MTEXTEND
  0
LINE
  5
12E
330
6C
100
AcDbEntity
  8
Symbol (ANSI)
370
    30
100
AcDbLine
 10
27.83163850054048
 20
6.212880414055717
 30
0.0
 11
29.9941020216218
 21
6.212880414055717
 31
0.0
  0
ELLIPSE
  5
12F
330
6C
100
AcDbEntity
  8
Visible (ANSI)
100
AcDbEllipse
 10
42.03930334084727
 20
21.62905047479889
 30
0.0
 11
-0.0831720352640676
 21
0.1444305726908631
 31
0.0
210
0.0
220
0.0
230
1.0
 40
0.5780931159158128
 41
0.2678448778125473
 42
2.87374777577726
  0
ELLIPSE
  5
130
330
6C
100
AcDbEntity
  8
Visible (ANSI)
100
AcDbEllipse
 10
41.99510916702311
 20
21.60360074268687
 30
0.0
 11
-0.0831720352640672
 21
0.1444305726908626
 31
0.0
210
0.0
220
0.0
230
1.0
 40
0.578093115915813
 41
0.0
 42
6.283185307179586
  0
ELLIPSE
  5
131
330
6C
100
AcDbEntity
  8
Visible (ANSI)
100
AcDbEllipse
 10
35.83561984723637
 20
25.20151420380309
 30
0.0
 11
-0.083172035264067
 21
0.1444305726908623
 31
0.0
210
0.0
220
0.0
230
0.9999999999999998
 40
0.578093115915813
 41
0.2678448778125473
 42
2.87374777577726
  0
ELLIPSE
  5
132
330
6C
100
AcDbEntity
  8
Visible (ANSI)
100
AcDbEllipse
 10
35.79142567341222
 20
25.17606447169106
 30
0.0
 11
-0.0831720352640672
 21
0.1444305726908626
 31
0.0
210
0.0
220
0.0
230
1.0
 40
0.578093115915813
 41
0.0
 42
6.283185307179586
  0
ELLIPSE
  5
133
330
6C
100
AcDbEntity
  8
Visible (ANSI)
100
AcDbEllipse
 10
35.83561984723637
 20
18.02890076185118
 30
0.0
 11
-0.0831720352640672
 21
0.1444305726908625
 31
0.0
210
0.0
220
0.0
230
1.0
 40
0.5780931159158129
 41
0.2678448778125467
 42
2.873747775777259
  0
ELLIPSE
  5
134
330
6C
100
AcDbEntity
  8
Visible (ANSI)
100
AcDbEllipse
 10
35.79142567341222
 20
18.00345102973916
 30
0.0
 11
-0.0831720352640672
 21
0.1444305726908626
 31
0.0
210
0.0
220
0.0
230
1.0
 40
0.578093115915813
 41
0.0
 42
6.283185307179586
  0
ELLIPSE
  5
135
330
6C
100
AcDbEntity
  8
Visible (ANSI)
100
AcDbEllipse
 10
42.03930334084726
 20
14.45643703284699
 30
0.0
 11
-0.0831720352640672
 21
0.1444305726908624
 31
0.0
210
0.0
220
0.0
230
0.9999999999999998
 40
0.5780931159158129
 41
0.2678448778125357
 42
2.87374777577726
  0
ELLIPSE
  5
136
330
6C
100
AcDbEntity
  8
Visible (ANSI)
100
AcDbEllipse
 10
41.99510916702311
 20
14.43098730073496
 30
0.0
 11
-0.0831720352640672
 21
0.1444305726908626
 31
0.0
210
0.0
220
0.0
230
1.0
 40
0.578093115915813
 41
0.0
 42
6.283185307179586
  0
ELLIPSE
  5
137
330
6C
100
AcDbEntity
  8
Visible (ANSI)
100
AcDbEllipse
 10
42.03930334084727
 20
21.22027691237762
 30
0.0
 11
0.0519825220400479
 21
-0.0902691079317869
 31
0.0
210
0.0
220
0.0
230
0.9999999999999998
 40
0.5780931159158129
 41
3.57883851325154
 42
5.845939447516951
  0
ELLIPSE
  5
138
330
6C
100
AcDbEntity
  8
Visible (ANSI)
100
AcDbEllipse
 10
41.99510916702311
 20
21.19482718026559
 30
0.0
 11
-0.051982522040042
 21
0.0902691079317891
 31
0.0
210
0.0
220
0.0
230
1.0
 40
0.578093115915813
 41
0.0
 42
6.283185307179586
  0
ELLIPSE
  5
139
330
6C
100
AcDbEntity
  8
Visible (ANSI)
100
AcDbEllipse
 10
35.83561984723637
 20
24.79274064138182
 30
0.0
 11
0.0519825220400476
 21
-0.0902691079317863
 31
0.0
210
0.0
220
0.0
230
1.0
 40
0.578093115915813
 41
3.57883851325154
 42
5.845939447516951
  0
ELLIPSE
  5
13A
330
6C
100
AcDbEntity
  8
Visible (ANSI)
100
AcDbEllipse
 10
35.79142567341222
 20
24.76729090926979
 30
0.0
 11
-0.051982522040042
 21
0.0902691079317891
 31
0.0
210
0.0
220
0.0
230
1.0
 40
0.578093115915813
 41
0.0
 42
6.283185307179586
  0
ELLIPSE
  5
13B
330
6C
100
AcDbEntity
  8
Visible (ANSI)
100
AcDbEllipse
 10
35.83561984723637
 20
18.43767432427245
 30
0.0
 11
0.0519825220400474
 21
-0.090269107931786
 31
0.0
210
0.0
220
0.0
230
1.0
 40
0.5780931159158129
 41
3.57883851325154
 42
5.84593944751695
  0
ELLIPSE
  5
13C
330
6C
100
AcDbEntity
  8
Visible (ANSI)
100
AcDbEllipse
 10
35.79142567341222
 20
18.41222459216043
 30
0.0
 11
-0.051982522040042
 21
0.0902691079317891
 31
0.0
210
0.0
220
0.0
230
1.0
 40
0.578093115915813
 41
0.0
 42
6.283185307179586
  0
ELLIPSE
  5
13D
330
6C
100
AcDbEntity
  8
Visible (ANSI)
100
AcDbEllipse
 10
42.03930334084726
 20
14.86521059526826
 30
0.0
 11
0.0519825220400473
 21
-0.0902691079317858
 31
0.0
210
0.0
220
0.0
230
1.0
 40
0.5780931159158128
 41
3.57883851325158
 42
5.845939447517055
  0
ELLIPSE
  5
13E
330
6C
100
AcDbEntity
  8
Visible (ANSI)
100
AcDbEllipse
 10
41.99510916702311
 20
14.83976086315624
 30
0.0
 11
-0.051982522040042
 21
0.0902691079317891
 31
0.0
210
0.0
220
0.0
230
1.0
 40
0.578093115915813
 41
0.0
 42
6.283185307179586
  0
LINE
  5
13F
330
6C
100
AcDbEntity
  8
Visible (ANSI)
100
AcDbLine
 10
35.54629532260084
 20
25.32812628080362
 30
0.0
 11
35.7819975829964
 21
25.46491008448704
 31
0.0
  0
LINE
  5
140
330
6C
100
AcDbEntity
  8
Visible (ANSI)
100
AcDbLine
 10
35.7819975829964
 20
25.46491008448704
 30
0.0
 11
35.82619175682055
 21
25.49035981659907
 31
0.0
  0
LINE
  5
141
330
6C
100
AcDbEntity
  8
Visible (ANSI)
100
AcDbLine
 10
35.54629532260084
 20
18.13371158218925
 30
0.0
 11
35.54629532260084
 21
25.32812628080362
 31
0.0
  0
LINE
  5
142
330
6C
100
AcDbEntity
  8
Visible (ANSI)
100
AcDbLine
 10
42.04873143126309
 20
21.90703753522708
 30
0.0
 11
35.82619175682055
 21
25.49035981659907
 31
0.0
  0
LINE
  5
143
330
6C
100
AcDbEntity
  8
Visible (ANSI)
100
AcDbLine
 10
42.28443369165863
 20
14.30437522373444
 30
0.0
 11
42.28443369165864
 21
21.49878992234881
 31
0.0
  0
LINE
  5
144
330
6C
100
AcDbEntity
  8
Visible (ANSI)
100
AcDbLine
 10
42.00453725743893
 20
14.14214168793899
 30
0.0
 11
35.78199758299639
 21
17.72546396931097
 31
0.0
  0
LINE
  5
145
330
6C
100
AcDbEntity
  8
Visible (ANSI)
100
AcDbLine
 10
42.2402395178345
 20
21.47334019023678
 30
0.0
 11
42.24023951783449
 21
14.27892549162241
 31
0.0
  0
LINE
  5
146
330
6C
100
AcDbEntity
  8
Visible (ANSI)
100
AcDbLine
 10
35.7819975829964
 20
25.46491008448704
 30
0.0
 11
42.00453725743893
 21
21.88158780311505
 31
0.0
  0
LINE
  5
147
330
6C
100
AcDbEntity
  8
Visible (ANSI)
100
AcDbLine
 10
42.28443369165864
 20
21.49878992234881
 30
0.0
 11
42.04873143126309
 21
21.90703753522708
 31
0.0
  0
LINE
  5
148
330
6C
100
AcDbEntity
  8
Visible (ANSI)
100
AcDbLine
 10
42.2402395178345
 20
21.47334019023678
 30
0.0
 11
42.28443369165864
 21
21.49878992234881
 31
0.0
  0
LINE
  5
149
330
6C
100
AcDbEntity
  8
Visible (ANSI)
100
AcDbLine
 10
42.00453725743893
 20
21.88158780311505
 30
0.0
 11
42.2402395178345
 21
21.47334019023678
 31
0.0
  0
LINE
  5
14A
330
6C
100
AcDbEntity
  8
Visible (ANSI)
100
AcDbLine
 10
42.04873143126309
 20
21.90703753522708
 30
0.0
 11
42.00453725743893
 21
21.88158780311505
 31
0.0
  0
LINE
  5
14B
330
6C
100
AcDbEntity
  8
Visible (ANSI)
100
AcDbLine
 10
42.04873143126309
 20
14.16759142005101
 30
0.0
 11
42.28443369165863
 21
14.30437522373444
 31
0.0
  0
LINE
  5
14C
330
6C
100
AcDbEntity
  8
Visible (ANSI)
100
AcDbLine
 10
42.00453725743893
 20
14.14214168793899
 30
0.0
 11
42.04873143126309
 21
14.16759142005101
 31
0.0
  0
LINE
  5
14D
330
6C
100
AcDbEntity
  8
Visible (ANSI)
100
AcDbLine
 10
42.24023951783449
 20
14.27892549162241
 30
0.0
 11
42.00453725743893
 21
14.14214168793899
 31
0.0
  0
LINE
  5
14E
330
6C
100
AcDbEntity
  8
Visible (ANSI)
100
AcDbLine
 10
42.28443369165863
 20
14.30437522373444
 30
0.0
 11
42.24023951783449
 21
14.27892549162241
 31
0.0
  0
LINE
  5
14F
330
6C
100
AcDbEntity
  8
Visible (ANSI)
100
AcDbLine
 10
35.78199758299639
 20
17.72546396931097
 30
0.0
 11
35.54629532260084
 21
18.13371158218925
 31
0.0
  0
DIMENSION
  5
150
330
6C
100
AcDbEntity
  8
Dimension (ANSI)
100
AcDbDimension
  2
*D4
 10
21.50675009520172
 20
25.95543925997268
 30
0.0
 11
14.40675009520172
 21
25.95543925997268
 31
0.0
 70
   160
  1
<>
 42
14.19999999999999
  3
Default (ANSI)
100
AcDbAlignedDimension
 13
7.30675009520172
 23
22.3858854541984
 33
0.0
 14
21.50675009520172
 24
22.3858854541984
 34
0.0
100
AcDbRotatedDimension
1001
ACAD
1000
DSTYLE
1002
{
1070
   289
1070
     1
1070
    73
1070
     0
1070
    74
1070
     0
1070
   271
1070
     3
1070
   272
1070
     3
1070
    48
1040
0.0
1070
    47
1040
0.0
1002
}
  0
DIMENSION
  5
23D
330
6C
100
AcDbEntity
  8
Dimension (ANSI)
100
AcDbDimension
  2
*D5
 10
21.00675009520172
 20
25.05123978490706
 30
0.0
 11
14.40675009520172
 21
25.05123978490706
 31
0.0
 70
   160
  1
<>{ TYP.}
 71
     5
 42
13.2
  3
Default (ANSI)
100
AcDbAlignedDimension
 13
7.806750095201719
 23
22.8858854541984
 33
0.0
 14
21.00675009520172
 24
22.88588545419841
 34
0.0
 50
180.0
100
AcDbRotatedDimension
1001
ACAD
1000
DSTYLE
1002
{
1070
   289
1070
     1
1070
    73
1070
     0
1070
    74
1070
     0
1070
   271
1070
     3
1070
   272
1070
     3
1070
    48
1040
0.0
1070
    47
1040
0.0
1002
}
  0
DIMENSION
  5
327
330
6C
100
AcDbEntity
  8
Dimension (ANSI)
100
AcDbDimension
  2
*D6
 10
7.806750095201719
 20
25.05123978490706
 30
0.0
 11
5.77571079866429
 21
25.05123978490706
 31
0.0
 70
   160
  1
<>{\PTYP.}
 71
     5
 42
0.4999999999999992
  3
Default (ANSI)
100
AcDbAlignedDimension
 13
7.30675009520172
 23
22.3858854541984
 33
0.0
 14
7.806750095201719
 24
22.8858854541984
 34
0.0
 50
180.0
100
AcDbRotatedDimension
1001
ACAD
1000
DSTYLE
1002
{
1070
   289
1070
     1
1070
    73
1070
     0
1070
    74
1070
     0
1070
   271
1070
     3
1070
   272
1070
     3
1070
    48
1040
0.0
1070
    47
1040
0.0
1002
}
  0
DIMENSION
  5
425
330
6C
100
AcDbEntity
  8
Dimension (ANSI)
100
AcDbDimension
  2
*D7
 10
3.279191040083615
 20
8.685885454198409
 30
0.0
 11
3.279191040083614
 21
15.7858854541984
 31
0.0
 70
   160
  1
<>
 42
14.19999999999999
  3
Default (ANSI)
100
AcDbAlignedDimension
 13
7.806750095201719
 23
22.8858854541984
 33
0.0
 14
7.806750095201725
 24
8.685885454198407
 34
0.0
 50
270.0
100
AcDbRotatedDimension
1001
ACAD
1000
DSTYLE
1002
{
1070
   289
1070
     1
1070
   271
1070
     3
1070
   272
1070
     3
1070
    48
1040
0.0
1070
    47
1040
0.0
1002
}
  0
DIMENSION
  5
50F
330
6C
100
AcDbEntity
  8
Dimension (ANSI)
100
AcDbDimension
  2
*D8
 10
5.731946945595429
 20
22.3858854541984
 30
0.0
 11
5.731946945595424
 21
15.7858854541984
 31
0.0
 70
   160
  1
<>{\PTYP.}
 71
     5
 42
13.19999999999999
  3
Default (ANSI)
100
AcDbAlignedDimension
 13
7.306750095201723
 23
9.185885454198409
 33
0.0
 14
7.30675009520172
 24
22.3858854541984
 34
0.0
 50
90.0
100
AcDbRotatedDimension
1001
ACAD
1000
DSTYLE
1002
{
1070
   289
1070
     1
1070
   271
1070
     3
1070
   272
1070
     3
1070
    48
1040
0.0
1070
    47
1040
0.0
1002
}
  0
DIMENSION
  5
60D
330
6C
100
AcDbEntity
  8
Dimension (ANSI)
100
AcDbDimension
  2
*D9
 10
4.852156917346242
 20
22.3858854541984
 30
0.0
 11
5.731946945595423
 21
23.91230200866489
 31
0.0
 70
   160
  1
<>{\PTYP.}
 71
     5
 42
0.5
  3
Default (ANSI)
100
AcDbAlignedDimension
 13
7.806750095201719
 23
22.8858854541984
 33
0.0
 14
7.30675009520172
 24
22.3858854541984
 34
0.0
 50
90.0
100
AcDbRotatedDimension
1001
ACAD
1000
DSTYLE
1002
{
1070
   289
1070
     1
1070
   271
1070
     3
1070
   272
1070
     3
1070
    48
1040
0.0
1070
    47
1040
0.0
1002
}
  0
DIMENSION
  5
71D
330
6C
100
AcDbEntity
  8
Dimension (ANSI)
100
AcDbDimension
  2
*D10
 10
7.649973399905062
 20
9.382662149495018
 30
0.0
 11
12.13089236148578
 21
7.487600986648893
 31
0.0
 70
   163
  1
<>{ TYP. (4 PL.)}
 42
0.5
  3
Default (ANSI)
100
AcDbDiametricDimension
 15
8.003526790498387
 25
9.029108758901795
 35
0.0
 40
0.0
1001
ACAD
1000
DSTYLE
1002
{
1070
   144
1040
0.9999999999999982
1070
   271
1070
     3
1070
   272
1070
     3
1070
    48
1040
0.0
1070
    47
1040
0.0
1002
}
1001
ACAD_DSTYLE_DIMRADIAL_EXTENSION
1070
   387
1070
     1
1070
   388
1040
0.0
1070
   390
1040
0.0
  0
DIMENSION
  5
7C7
330
6C
100
AcDbEntity
  8
Dimension (ANSI)
100
AcDbDimension
  2
*D11
 10
7.716264660641309
 20
10.06637088875879
 30
0.0
 11
12.24834828328966
 21
8.120145064845072
 31
0.0
 70
   163
  1
<>{ TYP. (4 PL.)}
 42
0.3125
  3
Default (ANSI)
100
AcDbDiametricDimension
 15
7.93723552976214
 25
9.845400019638026
 35
0.0
 40
0.0
1001
ACAD
1000
DSTYLE
1002
{
1070
   144
1040
0.9999999999999971
1070
   271
1070
     3
1070
   272
1070
     3
1070
    48
1040
0.0
1070
    47
1040
0.0
1002
}
1001
ACAD_DSTYLE_DIMRADIAL_EXTENSION
1070
   387
1070
     1
1070
   388
1040
0.0
1070
   390
1040
0.0
  0
DIMENSION
  5
870
330
6C
100
AcDbEntity
  8
Dimension (ANSI)
100
AcDbDimension
  2
*D12
 10
23.03593186856002
 20
9.205885454198405
 30
0.0
 11
23.05362614825333
 21
7.932077906247694
 31
0.0
 70
   160
  1
<>{ \PTYP.}
 71
     5
 42
0.5199999999999978
  3
Default (ANSI)
100
AcDbAlignedDimension
 13
21.00675009520172
 23
8.685885454198407
 33
0.0
 14
20.98675009520173
 24
9.205885454198405
 34
0.0
 50
90.0
100
AcDbRotatedDimension
1001
ACAD
1000
DSTYLE
1002
{
1070
   289
1070
     1
1070
   279
1070
     1
1070
   271
1070
     3
1070
   272
1070
     3
1070
    48
1040
0.0
1070
    47
1040
0.0
1002
}
  0
DIMENSION
  5
982
330
6C
100
AcDbEntity
  8
Dimension (ANSI)
100
AcDbDimension
  2
*D13
 10
25.85414586866288
 20
9.955885454198405
 30
0.0
 11
24.99340345974515
 21
7.921936091332971
 31
0.0
 70
   160
  1
<>{\PTYP.}
 71
     5
 42
1.269999999999997
  3
Default (ANSI)
100
AcDbAlignedDimension
 13
21.00675009520172
 23
8.685885454198407
 33
0.0
 14
20.98675009520173
 24
9.955885454198405
 34
0.0
 50
90.0
100
AcDbRotatedDimension
1001
ACAD
1000
DSTYLE
1002
{
1070
   289
1070
     2
1070
   271
1070
     3
1070
   272
1070
     3
1070
    48
1040
0.0
1070
    47
1040
0.0
1002
}
  0
DIMENSION
  5
A8F
330
6C
100
AcDbEntity
  8
Dimension (ANSI)
100
AcDbDimension
  2
*D14
 10
21.50675009520172
 20
7.926042934513366
 30
0.0
 11
19.75894575187046
 21
7.926042934513366
 31
0.0
 70
   160
  1
<>{\PTYP.}
 71
     5
 42
0.5199999999999961
  3
Default (ANSI)
100
AcDbAlignedDimension
 13
20.98675009520173
 23
9.955885454198405
 33
0.0
 14
21.50675009520172
 24
9.185885454198409
 34
0.0
 50
180.0
100
AcDbRotatedDimension
1001
ACAD
1000
DSTYLE
1002
{
1070
   289
1070
     1
1070
    73
1070
     0
1070
    74
1070
     0
1070
   271
1070
     3
1070
   272
1070
     3
1070
    48
1040
0.0
1070
    47
1040
0.0
1002
}
  0
DIMENSION
  5
B8D
330
6C
100
AcDbEntity
  8
Dimension (ANSI)
100
AcDbDimension
  2
*D15
 10
28.91260182797962
 20
16.00476599992517
 30
0.0
 11
30.36741869288164
 21
16.00476599992517
 31
0.0
 70
   160
  1
(<>){\P12 GA.\PGALV.}
 71
     5
 42
0.0937500000000036
  3
Default (ANSI)
100
AcDbAlignedDimension
 13
29.00635182797962
 23
16.69456582277938
 33
0.0
 14
28.91260182797962
 24
16.69456582277938
 34
0.0
100
AcDbRotatedDimension
1001
ACAD
1000
DSTYLE
1002
{
1070
   289
1070
     1
1070
    73
1070
     0
1070
    74
1070
     0
1070
   271
1070
     3
1070
    76
1070
     1
1070
    75
1070
     1
1070
   147
1040
0.031496062992126
1070
    72
1070
     0
1070
    71
1070
     0
1070
   272
1070
     3
1070
    48
1040
0.0
1070
    47
1040
0.0
1002
}
  0
MTEXT
  5
C86
102
{ACAD_XDICTIONARY
360
CA4
102
}
330
6C
100
AcDbEntity
  8
Symbol (ANSI)
100
AcDbMText
 10
31.94685339784812
 20
3.674725361217629
 30
0.0
 40
0.2666666751771461
 41
12.10124591368118
 71
     4
 72
     1
  3
{\fRomanS|b0|i0|c0|p2;\H1.9999x;PART#: NP1616CG\P(DATA SUBJECT TO CHANGE \H1.5966x; \H0.62633x;WITHOUT NOTICE) \H1.5133x; \H0.66083x;\P\H0.60004x;THIS DRAWING IS PROPERTY OF HUBBELL INC. \H1.5573x; \H0.64212x;WIEGMANN\H1.2077x; \H0.82802x;\PALL INFOR
  1
MATION IS PROPRIETARY AND NOT TO \H1.2375x; \H0.80806x;BE DUPLICATED\H1.235x; \H0.80973x;\P\H0.83344x; \H1.2822x; \H0.77991x;\P\H1.186x; \H0.84318x;\P\H1.1942x; }
  7
Note Text (ANSI)
 73
     1
 44
0.8139861822128295
1001
ACAD
1000
MTEXTBEGIN
1070
    73
1070
     1
1070
    44
1040
0.8139861822128295
1070
    74
1070
     0
1000
MTEXTEND
  0
LINE
  5
C88
330
6C
100
AcDbEntity
  8
Center Mark (ANSI)
  6
CHAIN
 48
0.2429423183202743
100
AcDbLine
 10
7.24341676186839
 20
22.3658854541984
 30
0.0
 11
8.410083428535056
 21
22.3658854541984
 31
0.0
  0
LINE
  5
C89
330
6C
100
AcDbEntity
  8
Center Mark (ANSI)
  6
CHAIN
 48
0.2429423183202743
100
AcDbLine
 10
21.57008342853505
 20
22.3658854541984
 30
0.0
 11
20.40341676186839
 21
22.3658854541984
 31
0.0
  0
LINE
  5
C8A
330
6C
100
AcDbEntity
  8
Centerline (ANSI)
  6
CHAIN
 48
0.9524481296539306
100
AcDbLine
 10
7.24341676186839
 20
22.3658854541984
 30
0.0
 11
21.57008342853505
 21
22.3658854541984
 31
0.0
  0
LINE
  5
C8B
330
6C
100
AcDbEntity
  8
Center Mark (ANSI)
  6
CHAIN
 48
0.2429423183202743
100
AcDbLine
 10
20.98675009520173
 20
8.622552120865073
 30
0.0
 11
20.98675009520173
 21
9.789218787531737
 31
0.0
  0
LINE
  5
C8C
330
6C
100
AcDbEntity
  8
Centerline (ANSI)
  6
CHAIN
 48
0.9524481296539306
100
AcDbLine
 10
20.98675009520172
 20
22.94921878753173
 30
0.0
 11
20.98675009520173
 21
8.622552120865073
 31
0.0
  0
LINE
  5
C8D
330
6C
100
AcDbEntity
  8
Center Mark (ANSI)
  6
CHAIN
 48
0.2429423183202743
100
AcDbLine
 10
7.24341676186839
 20
9.205885454198405
 30
0.0
 11
8.410083428535056
 21
9.205885454198405
 31
0.0
  0
LINE
  5
C8E
330
6C
100
AcDbEntity
  8
Centerline (ANSI)
  6
CHAIN
 48
0.9524481296539306
100
AcDbLine
 10
21.57008342853506
 20
9.205885454198405
 30
0.0
 11
7.24341676186839
 21
9.205885454198405
 31
0.0
  0
LINE
  5
C8F
330
6C
100
AcDbEntity
  8
Centerline (ANSI)
  6
CHAIN
 48
0.9524481296539306
100
AcDbLine
 10
7.826750095201723
 20
8.622552120865073
 30
0.0
 11
7.826750095201723
 21
22.94921878753173
 31
0.0
  0
LINE
  5
C90
330
6C
100
AcDbEntity
  8
Center Mark (ANSI)
  6
CHAIN
 48
0.2038819491863251
100
AcDbLine
 10
7.826750095201723
 20
22.10546878753174
 30
0.0
 11
7.826750095201723
 21
21.12630212086507
 31
0.0
  0
LINE
  5
C91
330
6C
100
AcDbEntity
  8
Center Mark (ANSI)
  6
CHAIN
 48
0.2038819491863251
100
AcDbLine
 10
20.98675009520172
 20
22.10546878753173
 30
0.0
 11
20.98675009520172
 21
21.12630212086507
 31
0.0
  0
LINE
  5
C92
330
6C
100
AcDbEntity
  8
Centerline (ANSI)
  6
CHAIN
 48
0.9524481296539306
100
AcDbLine
 10
7.33716676186839
 20
21.6158854541984
 30
0.0
 11
21.47633342853505
 21
21.6158854541984
 31
0.0
  0
LINE
  5
C93
330
6C
100
AcDbEntity
  8
Center Mark (ANSI)
  6
CHAIN
 48
0.2038819491863251
100
AcDbLine
 10
7.826750095201723
 20
10.44546878753174
 30
0.0
 11
7.826750095201723
 21
9.466302120865071
 31
0.0
  0
LINE
  5
C94
330
6C
100
AcDbEntity
  8
Center Mark (ANSI)
  6
CHAIN
 48
0.2038819491863251
100
AcDbLine
 10
20.98675009520173
 20
10.44546878753174
 30
0.0
 11
20.98675009520173
 21
9.466302120865071
 31
0.0
  0
LINE
  5
C95
330
6C
100
AcDbEntity
  8
Centerline (ANSI)
  6
CHAIN
 48
0.9524481296539306
100
AcDbLine
 10
7.33716676186839
 20
9.955885454198405
 30
0.0
 11
21.47633342853506
 21
9.955885454198405
 31
0.0
  0
ENDSEC
  0
SECTION
  2
OBJECTS
  0
DICTIONARY
  5
C
330
0
100
AcDbDictionary
281
     1
  3
ACAD_CIP_PREVIOUS_PRODUCT_INFO
350
C96
  3
ACAD_COLOR
350
63
  3
ACAD_GROUP
350
D
  3
ACAD_LAYOUT
350
62
  3
ACAD_MATERIAL
350
10
  3
ACAD_MLEADERSTYLE
350
66
  3
ACAD_MLINESTYLE
350
5F
  3
ACAD_PLOTSETTINGS
350
61
  3
ACAD_PLOTSTYLENAME
350
E
  3
ACAD_SCALELIST
350
42
  3
ACAD_TABLESTYLE
350
64
  3
ACAD_VISUALSTYLE
350
29
  3
ACDB_RECOMPOSE_DATA
350
CA6
  3
AcDbVariableDictionary
350
76
  3
DWGPROPS
350
CA7
  0
DICTIONARY
  5
CE3
330
7C1
100
AcDbDictionary
280
     1
281
     1
  3
ACAD_MTEXT_RT
360
CE4
  0
DICTIONARY
  5
CE5
330
86A
100
AcDbDictionary
280
     1
281
     1
  3
ACAD_MTEXT_RT
360
CE6
  0
DICTIONARY
  5
CA4
330
C86
100
AcDbDictionary
280
     1
281
     1
  3
ACAD_MTEXT_2008_RT
360
CA5
  0
XRECORD
  5
C96
102
{ACAD_REACTORS
330
C
102
}
330
C
100
AcDbXrecord
280
     1
300
INVNTOR
300
2012
300
85795PDSP_2012_0F
  0
DICTIONARY
  5
63
102
{ACAD_REACTORS
330
C
102
}
330
C
100
AcDbDictionary
281
     1
  0
DICTIONARY
  5
D
102
{ACAD_REACTORS
330
C
102
}
330
C
100
AcDbDictionary
281
     1
  0
DICTIONARY
  5
62
102
{ACAD_REACTORS
330
C
102
}
330
C
100
AcDbDictionary
281
     1
  3
Layout1
350
6B
  3
Layout2
350
73
  3
Model
350
6F
  0
DICTIONARY
  5
10
102
{ACAD_REACTORS
330
C
102
}
330
C
100
AcDbDictionary
281
     1
  3
ByBlock
350
19
  3
ByLayer
350
11
  3
Global
350
21
  0
DICTIONARY
  5
66
102
{ACAD_REACTORS
330
C
102
}
330
C
100
AcDbDictionary
281
     1
  3
Standard
350
67
  0
DICTIONARY
  5
5F
102
{ACAD_REACTORS
330
C
102
}
330
C
100
AcDbDictionary
281
     1
  3
Standard
350
60
  0
DICTIONARY
  5
61
102
{ACAD_REACTORS
330
C
102
}
330
C
100
AcDbDictionary
281
     1
  0
ACDBDICTIONARYWDFLT
  5
E
102
{ACAD_REACTORS
330
C
102
}
330
C
100
AcDbDictionary
281
     1
  3
Normal
350
F
100
AcDbDictionaryWithDefault
340
F
  0
DICTIONARY
  5
42
102
{ACAD_REACTORS
330
C
102
}
330
C
100
AcDbDictionary
281
     1
  3
A0
350
43
  3
A1
350
44
  3
A2
350
45
  3
A3
350
46
  3
A4
350
47
  3
A5
350
48
  3
A6
350
49
  3
A7
350
4A
  3
A8
350
4B
  3
A9
350
4C
  3
B0
350
4D
  3
B1
350
4E
  3
B2
350
4F
  3
B3
350
50
  3
B4
350
51
  3
B5
350
52
  3
B6
350
53
  0
DICTIONARY
  5
64
102
{ACAD_REACTORS
330
C
102
}
330
C
100
AcDbDictionary
281
     1
  3
Standard
350
65
  0
DICTIONARY
  5
29
102
{ACAD_REACTORS
330
C
102
}
330
C
100
AcDbDictionary
281
     1
  3
2dWireframe
350
2F
  3
Basic
350
2E
  3
Brighten
350
35
  3
ColorChange
350
39
  3
Conceptual
350
32
  3
Dim
350
34
  3
EdgeColorOff
350
41
  3
Facepattern
350
38
  3
Flat
350
2A
  3
FlatWithEdges
350
2B
  3
Gouraud
350
2C
  3
GouraudWithEdges
350
2D
  3
Hidden
350
31
  3
JitterOff
350
3F
  3
Linepattern
350
37
  3
OverhangOff
350
40
  3
Realistic
350
33
  3
Shaded
350
3E
  3
Shaded with edges
350
3D
  3
Shades of Gray
350
3A
  3
Sketchy
350
3B
  3
Thicken
350
36
  3
Wireframe
350
30
  3
X-Ray
350
3C
  0
XRECORD
  5
CA6
102
{ACAD_REACTORS
330
C
102
}
330
C
100
AcDbXrecord
280
     1
 90
        1
330
65
330
982
330
C86
  0
DICTIONARY
  5
76
102
{ACAD_REACTORS
330
C
102
}
330
C
100
AcDbDictionary
281
     1
  3
CANNOSCALE
350
79
  3
CMLEADERSTYLE
350
78
  3
CTABLESTYLE
350
77
  3
DIMASSOC
350
C9E
  3
HIDETEXT
350
C9D
  3
INDEXCTL
350
C9C
  3
LAYEREVAL
350
C99
  3
LAYERNOTIFY
350
C9A
  3
LIGHTINGUNITS
350
C98
  3
MSLTSCALE
350
C97
  3
SORTENTS
350
C9B
  3
XCLIPFRAME
350
C9F
  0
XRECORD
  5
CA7
102
{ACAD_REACTORS
330
C
102
}
330
C
100
AcDbXrecord
280
     1
  1
DWGPROPS COOKIE
  2

  3

  4
JF
  6

  7

  8

  9
-
300
Manager=
301
Company=
302
Category=
303
Part Number=NP1616CG-S
304
Description=
305
Project=
306
Designer=JF
307
Engineer=
308
Authority=
309
Cost Center=
 40
0.0000347337962963
 41
2455945.54367831
 42
2455945.54367831
  1

 90
       22
300
Vendor=
300
User Status=
300
Design Status=WorkInProgress
300
Checked by=DN
300
Date Checked=01/18/2012
300
Engr Approved by=
300
Date Eng Approved=01/18/2012
300
Mfg Approved by=
300
Date Mfg Approved=01/18/2012
300
DWG. NO=
300
NUMBER OF SHEETS=1
300
DRAWING #=
  0
XRECORD
  5
CE4
102
{ACAD_REACTORS
330
CE3
102
}
330
CE3
100
AcDbXrecord
280
     1
 40
30483.0
  1
\A1;\U+22050.500{ TYP. (4 PL.)}
  0
XRECORD
  5
CE6
102
{ACAD_REACTORS
330
CE5
102
}
330
CE5
100
AcDbXrecord
280
     1
 40
30518.0
  1
\A1;\U+22050.313{ TYP. (4 PL.)}
  0
XRECORD
  5
CA5
102
{ACAD_REACTORS
330
CA4
102
}
330
CA4
100
AcDbXrecord
280
     1
 40
5604586.0
  1
\pxsm0.94;{\fRomanS|b0|i0;\H0.5333;PART#: NP1616CG\P(DATA SUBJECT TO CHANGE WITHOUT NOTICE) \P\fRomanS|b0|i0;\H0.3200;THIS DRAWING IS PROPERTY OF HUBBELL INC. WIEGMANN\PALL INFORMATION IS PROPRIETARY AND NOT TO BE DUPLICATED\P\fRomanS|b0|i0;\H0.2667;
  1
 \P\P}
  0
LAYOUT
  5
6B
102
{ACAD_XDICTIONARY
360
CDD
102
}
102
{ACAD_REACTORS
330
62
102
}
330
62
100
AcDbPlotSettings
  1

  2

  4

  6

 40
0.0
 41
0.0
 42
0.0
 43
0.0
 44
0.0
 45
0.0
 46
0.0
 47
0.0
 48
0.0
 49
0.0
140
0.0
141
0.0
142
1.0
143
1.0
 70
   688
 72
     0
 73
     0
 74
     5
  7

 75
    16
147
1.0
148
0.0
149
0.0
100
AcDbLayout
  1
Layout1
 70
     1
 71
     1
 10
0.0
 20
0.0
 11
12.0
 21
9.0
 12
0.0
 22
0.0
 32
0.0
 14
0.0
 24
0.0
 34
0.0
 15
0.0
 25
0.0
 35
0.0
146
0.0
 13
0.0
 23
0.0
 33
0.0
 16
1.0
 26
0.0
 36
0.0
 17
0.0
 27
1.0
 37
0.0
 76
     0
330
68
  0
LAYOUT
  5
73
102
{ACAD_XDICTIONARY
360
CE1
102
}
102
{ACAD_REACTORS
330
62
102
}
330
62
100
AcDbPlotSettings
  1

  2

  4

  6

 40
0.0
 41
0.0
 42
0.0
 43
0.0
 44
0.0
 45
0.0
 46
0.0
 47
0.0
 48
0.0
 49
0.0
140
0.0
141
0.0
142
1.0
143
1.0
 70
   688
 72
     0
 73
     0
 74
     5
  7

 75
    16
147
1.0
148
0.0
149
0.0
100
AcDbLayout
  1
Layout2
 70
     1
 71
     2
 10
0.0
 20
0.0
 11
12.0
 21
9.0
 12
0.0
 22
0.0
 32
0.0
 14
0.0
 24
0.0
 34
0.0
 15
0.0
 25
0.0
 35
0.0
146
0.0
 13
0.0
 23
0.0
 33
0.0
 16
1.0
 26
0.0
 36
0.0
 17
0.0
 27
1.0
 37
0.0
 76
     0
330
70
  0
LAYOUT
  5
6F
102
{ACAD_XDICTIONARY
360
CDF
102
}
102
{ACAD_REACTORS
330
62
102
}
330
62
100
AcDbPlotSettings
  1

  2

  4

  6

 40
0.0
 41
0.0
 42
0.0
 43
0.0
 44
0.0
 45
0.0
 46
0.0
 47
0.0
 48
0.0
 49
0.0
140
0.0
141
0.0
142
1.0
143
1.0
 70
  1712
 72
     0
 73
     0
 74
     0
  7

 75
     0
147
1.0
148
0.0
149
0.0
100
AcDbLayout
  1
Model
 70
     1
 71
     0
 10
0.0
 20
0.0
 11
12.0
 21
9.0
 12
0.0
 22
0.0
 32
0.0
 14
0.0
 24
0.0
 34
0.0
 15
0.0
 25
0.0
 35
0.0
146
0.0
 13
0.0
 23
0.0
 33
0.0
 16
1.0
 26
0.0
 36
0.0
 17
0.0
 27
1.0
 37
0.0
 76
     0
330
6C
  0
MATERIAL
  5
19
102
{ACAD_XDICTIONARY
360
1A
102
}
102
{ACAD_REACTORS
330
10
102
}
330
10
100
AcDbMaterial
  1
ByBlock
 72
     0
 43
0.0208333333333333
 43
0.0
 43
0.0
 43
0.0
 43
0.0
 43
0.0208333333333333
 43
0.0
 43
0.0
 43
0.0
 43
0.0
 43
1.0
 43
0.0
 43
0.0
 43
0.0
 43
0.0
 43
1.0
 77
     0
 47
0.0208333333333333
 47
0.0
 47
0.0
 47
0.0
 47
0.0
 47
0.0208333333333333
 47
0.0
 47
0.0
 47
0.0
 47
0.0
 47
1.0
 47
0.0
 47
0.0
 47
0.0
 47
0.0
 47
1.0
171
     0
 49
0.0208333333333333
 49
0.0
 49
0.0
 49
0.0
 49
0.0
 49
0.0208333333333333
 49
0.0
 49
0.0
 49
0.0
 49
0.0
 49
1.0
 49
0.0
 49
0.0
 49
0.0
 49
0.0
 49
1.0
175
     0
142
0.0208333333333333
142
0.0
142
0.0
142
0.0
142
0.0
142
0.0208333333333333
142
0.0
142
0.0
142
0.0
142
0.0
142
1.0
142
0.0
142
0.0
142
0.0
142
0.0
142
1.0
179
     0
144
0.0208333333333333
144
0.0
144
0.0
144
0.0
144
0.0
144
0.0208333333333333
144
0.0
144
0.0
144
0.0
144
0.0
144
1.0
144
0.0
144
0.0
144
0.0
144
0.0
144
1.0
147
0.0208333333333333
147
0.0
147
0.0
147
0.0
147
0.0
147
0.0208333333333333
147
0.0
147
0.0
147
0.0
147
0.0
147
1.0
147
0.0
147
0.0
147
0.0
147
0.0
147
1.0
  0
MATERIAL
  5
11
102
{ACAD_XDICTIONARY
360
12
102
}
102
{ACAD_REACTORS
330
10
102
}
330
10
100
AcDbMaterial
  1
ByLayer
 72
     0
 43
0.0208333333333333
 43
0.0
 43
0.0
 43
0.0
 43
0.0
 43
0.0208333333333333
 43
0.0
 43
0.0
 43
0.0
 43
0.0
 43
1.0
 43
0.0
 43
0.0
 43
0.0
 43
0.0
 43
1.0
 77
     0
 47
0.0208333333333333
 47
0.0
 47
0.0
 47
0.0
 47
0.0
 47
0.0208333333333333
 47
0.0
 47
0.0
 47
0.0
 47
0.0
 47
1.0
 47
0.0
 47
0.0
 47
0.0
 47
0.0
 47
1.0
171
     0
 49
0.0208333333333333
 49
0.0
 49
0.0
 49
0.0
 49
0.0
 49
0.0208333333333333
 49
0.0
 49
0.0
 49
0.0
 49
0.0
 49
1.0
 49
0.0
 49
0.0
 49
0.0
 49
0.0
 49
1.0
175
     0
142
0.0208333333333333
142
0.0
142
0.0
142
0.0
142
0.0
142
0.0208333333333333
142
0.0
142
0.0
142
0.0
142
0.0
142
1.0
142
0.0
142
0.0
142
0.0
142
0.0
142
1.0
179
     0
144
0.0208333333333333
144
0.0
144
0.0
144
0.0
144
0.0
144
0.0208333333333333
144
0.0
144
0.0
144
0.0
144
0.0
144
1.0
144
0.0
144
0.0
144
0.0
144
0.0
144
1.0
147
0.0208333333333333
147
0.0
147
0.0
147
0.0
147
0.0
147
0.0208333333333333
147
0.0
147
0.0
147
0.0
147
0.0
147
1.0
147
0.0
147
0.0
147
0.0
147
0.0
147
1.0
  0
MATERIAL
  5
21
102
{ACAD_XDICTIONARY
360
22
102
}
102
{ACAD_REACTORS
330
10
102
}
330
10
100
AcDbMaterial
  1
Global
 72
     0
 43
0.0208333333333333
 43
0.0
 43
0.0
 43
0.0
 43
0.0
 43
0.0208333333333333
 43
0.0
 43
0.0
 43
0.0
 43
0.0
 43
1.0
 43
0.0
 43
0.0
 43
0.0
 43
0.0
 43
1.0
 77
     0
 47
0.0208333333333333
 47
0.0
 47
0.0
 47
0.0
 47
0.0
 47
0.0208333333333333
 47
0.0
 47
0.0
 47
0.0
 47
0.0
 47
1.0
 47
0.0
 47
0.0
 47
0.0
 47
0.0
 47
1.0
171
     0
 49
0.0208333333333333
 49
0.0
 49
0.0
 49
0.0
 49
0.0
 49
0.0208333333333333
 49
0.0
 49
0.0
 49
0.0
 49
0.0
 49
1.0
 49
0.0
 49
0.0
 49
0.0
 49
0.0
 49
1.0
175
     0
142
0.0208333333333333
142
0.0
142
0.0
142
0.0
142
0.0
142
0.0208333333333333
142
0.0
142
0.0
142
0.0
142
0.0
142
1.0
142
0.0
142
0.0
142
0.0
142
0.0
142
1.0
179
     0
144
0.0208333333333333
144
0.0
144
0.0
144
0.0
144
0.0
144
0.0208333333333333
144
0.0
144
0.0
144
0.0
144
0.0
144
1.0
144
0.0
144
0.0
144
0.0
144
0.0
144
1.0
147
0.0208333333333333
147
0.0
147
0.0
147
0.0
147
0.0
147
0.0208333333333333
147
0.0
147
0.0
147
0.0
147
0.0
147
1.0
147
0.0
147
0.0
147
0.0
147
0.0
147
1.0
  0
MLEADERSTYLE
  5
67
102
{ACAD_XDICTIONARY
360
CA2
102
}
102
{ACAD_REACTORS
330
66
102
}
330
66
100
AcDbMLeaderStyle
170
     2
171
     1
172
     0
 90
        2
 40
0.0
 41
0.0
173
     1
 91
-1056964608
340
5B
 92
       -2
290
     1
 42
0.09
291
     1
 43
0.36
  3
Standard
 44
0.18
300

342
55
174
     1
178
     6
175
     1
176
     0
 93
-1056964608
 45
0.18
292
     0
297
     0
 46
0.18
 94
-1056964608
 47
1.0
 49
1.0
140
1.0
293
     1
141
0.0
294
     1
177
     0
142
1.0
295
     0
296
     0
143
0.125
1001
ACAD_MLEADERVER
1070
     2
  0
MLINESTYLE
  5
60
102
{ACAD_REACTORS
330
5F
102
}
330
5F
100
AcDbMlineStyle
  2
STANDARD
 70
     0
  3

 62
   256
 51
90.0
 52
90.0
 71
     2
 49
0.5
 62
   256
  6
BYLAYER
 49
-0.5
 62
   256
  6
BYLAYER
  0
ACDBPLACEHOLDER
  5
F
102
{ACAD_REACTORS
330
E
102
}
330
E
  0
SCALE
  5
43
102
{ACAD_REACTORS
330
42
102
}
330
42
100
AcDbScale
 70
     0
300
1:1
140
1.0
141
1.0
290
     1
  0
SCALE
  5
44
102
{ACAD_REACTORS
330
42
102
}
330
42
100
AcDbScale
 70
     0
300
1/128" = 1'-0"
140
0.0078125
141
12.0
290
     0
  0
SCALE
  5
45
102
{ACAD_REACTORS
330
42
102
}
330
42
100
AcDbScale
 70
     0
300
1/64" = 1'-0"
140
0.015625
141
12.0
290
     0
  0
SCALE
  5
46
102
{ACAD_REACTORS
330
42
102
}
330
42
100
AcDbScale
 70
     0
300
1/32" = 1'-0"
140
0.03125
141
12.0
290
     0
  0
SCALE
  5
47
102
{ACAD_REACTORS
330
42
102
}
330
42
100
AcDbScale
 70
     0
300
1/16" = 1'-0"
140
0.0625
141
12.0
290
     0
  0
SCALE
  5
48
102
{ACAD_REACTORS
330
42
102
}
330
42
100
AcDbScale
 70
     0
300
3/32" = 1'-0"
140
0.09375
141
12.0
290
     0
  0
SCALE
  5
49
102
{ACAD_REACTORS
330
42
102
}
330
42
100
AcDbScale
 70
     0
300
1/8" = 1'-0"
140
0.125
141
12.0
290
     0
  0
SCALE
  5
4A
102
{ACAD_REACTORS
330
42
102
}
330
42
100
AcDbScale
 70
     0
300
3/16" = 1'-0"
140
0.1875
141
12.0
290
     0
  0
SCALE
  5
4B
102
{ACAD_REACTORS
330
42
102
}
330
42
100
AcDbScale
 70
     0
300
1/4" = 1'-0"
140
0.25
141
12.0
290
     0
  0
SCALE
  5
4C
102
{ACAD_REACTORS
330
42
102
}
330
42
100
AcDbScale
 70
     0
300
3/8" = 1'-0"
140
0.375
141
12.0
290
     0
  0
SCALE
  5
4D
102
{ACAD_REACTORS
330
42
102
}
330
42
100
AcDbScale
 70
     0
300
1/2" = 1'-0"
140
0.5
141
12.0
290
     0
  0
SCALE
  5
4E
102
{ACAD_REACTORS
330
42
102
}
330
42
100
AcDbScale
 70
     0
300
3/4" = 1'-0"
140
0.75
141
12.0
290
     0
  0
SCALE
  5
4F
102
{ACAD_REACTORS
330
42
102
}
330
42
100
AcDbScale
 70
     0
300
1" = 1'-0"
140
1.0
141
12.0
290
     0
  0
SCALE
  5
50
102
{ACAD_REACTORS
330
42
102
}
330
42
100
AcDbScale
 70
     0
300
1-1/2" = 1'-0"
140
1.5
141
12.0
290
     0
  0
SCALE
  5
51
102
{ACAD_REACTORS
330
42
102
}
330
42
100
AcDbScale
 70
     0
300
3" = 1'-0"
140
3.0
141
12.0
290
     0
  0
SCALE
  5
52
102
{ACAD_REACTORS
330
42
102
}
330
42
100
AcDbScale
 70
     0
300
6" = 1'-0"
140
6.0
141
12.0
290
     0
  0
SCALE
  5
53
102
{ACAD_REACTORS
330
42
102
}
330
42
100
AcDbScale
 70
     0
300
1'-0" = 1'-0"
140
12.0
141
12.0
290
     0
  0
TABLESTYLE
  5
65
102
{ACAD_XDICTIONARY
360
CA0
102
}
102
{ACAD_REACTORS
330
64
102
}
330
64
100
AcDbTableStyle
  3
Standard
 70
     0
 71
     0
 40
0.06
 41
0.06
280
     0
281
     0
  7
Standard
140
0.18
170
     2
 62
     0
 63
     7
283
     0
274
    -2
284
     1
 64
     0
275
    -2
285
     1
 65
     0
276
    -2
286
     1
 66
     0
277
    -2
287
     1
 67
     0
278
    -2
288
     1
 68
     0
279
    -2
289
     1
 69
     0
  7
Standard
140
0.25
170
     5
 62
     0
 63
     7
283
     0
274
    -2
284
     1
 64
     0
275
    -2
285
     1
 65
     0
276
    -2
286
     1
 66
     0
277
    -2
287
     1
 67
     0
278
    -2
288
     1
 68
     0
279
    -2
289
     1
 69
     0
  7
Standard
140
0.18
170
     5
 62
     0
 63
     7
283
     0
274
    -2
284
     1
 64
     0
275
    -2
285
     1
 65
     0
276
    -2
286
     1
 66
     0
277
    -2
287
     1
 67
     0
278
    -2
288
     1
 68
     0
279
    -2
289
     1
 69
     0
  0
VISUALSTYLE
  5
2F
102
{ACAD_XDICTIONARY
360
CB5
102
}
102
{ACAD_REACTORS
330
29
102
}
330
29
100
AcDbVisualStyle
  2
2dWireframe
 70
     4
 71
     0
 72
     2
 73
     0
 90
        0
 40
-0.6
 41
-30.0
 62
     5
 63
     7
 74
     1
 91
        4
 64
     7
 65
   257
 75
     1
175
     1
 42
1.0
 92
        0
 66
   257
 43
1.0
 76
     1
 77
     6
 78
     2
 67
     7
 79
     5
170
     0
171
     0
290
     0
174
     0
 93
        1
 44
0.0
173
     0
291
     0
 45
0.0
1001
ACAD
1000
AcDbSavedByObjectVersion
1070
     0
  0
VISUALSTYLE
  5
2E
102
{ACAD_XDICTIONARY
360
CB3
102
}
102
{ACAD_REACTORS
330
29
102
}
330
29
100
AcDbVisualStyle
  2
Basic
 70
     7
 71
     1
 72
     0
 73
     1
 90
        0
 40
-0.6
 41
-30.0
 62
     5
 63
     7
 74
     0
 91
        4
 64
     7
 65
   257
 75
     1
175
     1
 42
1.0
 92
        8
 66
     7
 43
1.0
 76
     1
 77
     6
 78
     2
 67
     7
 79
     5
170
     0
171
     0
290
     0
174
     0
 93
        1
 44
0.0
173
     0
291
     1
 45
0.0
1001
ACAD
1000
AcDbSavedByObjectVersion
1070
     0
  0
VISUALSTYLE
  5
35
102
{ACAD_XDICTIONARY
360
CC1
102
}
102
{ACAD_REACTORS
330
29
102
}
330
29
100
AcDbVisualStyle
  2
Brighten
 70
    12
 71
     2
 72
     2
 73
     0
 90
        0
 40
-0.6
 41
-30.0
 62
     5
 63
     7
 74
     1
 91
        4
 64
     7
 65
   257
 75
     1
175
     1
 42
1.0
 92
        8
 66
     7
 43
1.0
 76
     1
 77
     6
 78
     2
 67
     7
 79
     5
170
     0
171
     0
290
     0
174
     0
 93
        1
 44
50.0
173
     0
291
     1
 45
0.0
1001
ACAD
1000
AcDbSavedByObjectVersion
1070
     0
  0
VISUALSTYLE
  5
39
102
{ACAD_XDICTIONARY
360
CC9
102
}
102
{ACAD_REACTORS
330
29
102
}
330
29
100
AcDbVisualStyle
  2
ColorChange
 70
    16
 71
     2
 72
     2
 73
     3
 90
        0
 40
-0.6
 41
-30.0
 62
     5
 63
     8
 74
     1
 91
        4
 64
     7
 65
   257
 75
     1
175
     1
 42
1.0
 92
        8
 66
     8
 43
1.0
 76
     1
 77
     6
 78
     2
 67
     7
 79
     5
170
     0
171
     0
290
     0
174
     0
 93
        1
 44
0.0
173
     0
291
     1
 45
0.0
1001
ACAD
1000
AcDbSavedByObjectVersion
1070
     0
  0
VISUALSTYLE
  5
32
102
{ACAD_XDICTIONARY
360
CBB
102
}
102
{ACAD_REACTORS
330
29
102
}
330
29
100
AcDbVisualStyle
  2
Conceptual
 70
     9
 71
     3
 72
     2
 73
     0
 90
        0
 40
-0.6
 41
-30.0
 62
     5
 63
     7
 74
     2
 91
        2
 64
     7
 65
   257
 75
     1
175
     1
 42
179.0
 92
        8
 66
     7
 43
1.0
 76
     1
 77
     6
 78
     2
 67
     7
 79
     3
170
     0
171
     0
290
     0
174
     0
 93
        1
 44
0.0
173
     0
291
     0
 45
0.0
1001
ACAD
1000
AcDbSavedByObjectVersion
1070
     0
  0
VISUALSTYLE
  5
34
102
{ACAD_XDICTIONARY
360
CBF
102
}
102
{ACAD_REACTORS
330
29
102
}
330
29
100
AcDbVisualStyle
  2
Dim
 70
    11
 71
     2
 72
     2
 73
     0
 90
        0
 40
-0.6
 41
-30.0
 62
     5
 63
     7
 74
     1
 91
        4
 64
     7
 65
   257
 75
     1
175
     1
 42
1.0
 92
        8
 66
     7
 43
1.0
 76
     1
 77
     6
 78
     2
 67
     7
 79
     5
170
     0
171
     0
290
     0
174
     0
 93
        1
 44
-50.0
173
     0
291
     1
 45
0.0
1001
ACAD
1000
AcDbSavedByObjectVersion
1070
     0
  0
VISUALSTYLE
  5
41
102
{ACAD_XDICTIONARY
360
CD9
102
}
102
{ACAD_REACTORS
330
29
102
}
330
29
100
AcDbVisualStyle
  2
EdgeColorOff
 70
    22
 71
     2
 72
     2
 73
     0
 90
        0
 40
-0.6
 41
-30.0
 62
     5
 63
     7
 74
     1
 91
        4
 64
     7
 65
   257
 75
     1
175
     1
 42
1.0
 92
        8
 66
     7
 43
1.0
 76
     1
 77
     6
 78
     2
 67
     7
 79
     5
170
     0
171
     0
290
     0
174
     0
 93
        1
 44
0.0
173
     0
291
     1
 45
0.0
1001
ACAD
1000
AcDbSavedByObjectVersion
1070
     0
  0
VISUALSTYLE
  5
38
102
{ACAD_XDICTIONARY
360
CC7
102
}
102
{ACAD_REACTORS
330
29
102
}
330
29
100
AcDbVisualStyle
  2
Facepattern
 70
    15
 71
     2
 72
     2
 73
     0
 90
        0
 40
-0.6
 41
-30.0
 62
     5
 63
     7
 74
     1
 91
        4
 64
     7
 65
   257
 75
     1
175
     1
 42
1.0
 92
        8
 66
     7
 43
1.0
 76
     1
 77
     6
 78
     2
 67
     7
 79
     5
170
     0
171
     0
290
     0
174
     0
 93
        1
 44
0.0
173
     0
291
     1
 45
0.0
1001
ACAD
1000
AcDbSavedByObjectVersion
1070
     0
  0
VISUALSTYLE
  5
2A
102
{ACAD_XDICTIONARY
360
CAB
102
}
102
{ACAD_REACTORS
330
29
102
}
330
29
100
AcDbVisualStyle
  2
Flat
 70
     0
 71
     2
 72
     1
 73
     1
 90
        2
 40
-0.6
 41
30.0
 62
     5
 63
     7
 74
     0
 91
        0
 64
     7
 65
   257
 75
     1
175
     1
 42
1.0
 92
        8
 66
     7
 43
1.0
 76
     1
 77
     6
 78
     2
 67
     7
 79
     5
170
     0
171
     0
290
     0
174
     0
 93
       13
 44
0.0
173
     0
291
     1
 45
0.0
1001
ACAD
1000
AcDbSavedByObjectVersion
1070
     0
  0
VISUALSTYLE
  5
2B
102
{ACAD_XDICTIONARY
360
CAD
102
}
102
{ACAD_REACTORS
330
29
102
}
330
29
100
AcDbVisualStyle
  2
FlatWithEdges
 70
     1
 71
     2
 72
     1
 73
     1
 90
        2
 40
-0.6
 41
30.0
 62
     5
 63
     7
 74
     1
 91
        0
 64
     7
 65
   257
 75
     1
175
     1
 42
1.0
 92
        0
 66
   257
 43
1.0
 76
     1
 77
     6
 78
     2
 67
     7
 79
     5
170
     0
171
     0
290
     0
174
     0
 93
       13
 44
0.0
173
     0
291
     1
 45
0.0
1001
ACAD
1000
AcDbSavedByObjectVersion
1070
     0
  0
VISUALSTYLE
  5
2C
102
{ACAD_XDICTIONARY
360
CAF
102
}
102
{ACAD_REACTORS
330
29
102
}
330
29
100
AcDbVisualStyle
  2
Gouraud
 70
     2
 71
     2
 72
     2
 73
     1
 90
        2
 40
-0.6
 41
30.0
 62
     5
 63
     7
 74
     0
 91
        0
 64
     7
 65
   257
 75
     1
175
     1
 42
1.0
 92
        0
 66
     7
 43
1.0
 76
     1
 77
     6
 78
     2
 67
     7
 79
     5
170
     0
171
     0
290
     0
174
     0
 93
       13
 44
0.0
173
     0
291
     1
 45
0.0
1001
ACAD
1000
AcDbSavedByObjectVersion
1070
     0
  0
VISUALSTYLE
  5
2D
102
{ACAD_XDICTIONARY
360
CB1
102
}
102
{ACAD_REACTORS
330
29
102
}
330
29
100
AcDbVisualStyle
  2
GouraudWithEdges
 70
     3
 71
     2
 72
     2
 73
     1
 90
        2
 40
-0.6
 41
30.0
 62
     5
 63
     7
 74
     1
 91
        0
 64
     7
 65
   257
 75
     1
175
     1
 42
1.0
 92
        0
 66
   257
 43
1.0
 76
     1
 77
     6
 78
     2
 67
     7
 79
     5
170
     0
171
     0
290
     0
174
     0
 93
       13
 44
0.0
173
     0
291
     1
 45
0.0
1001
ACAD
1000
AcDbSavedByObjectVersion
1070
     0
  0
VISUALSTYLE
  5
31
102
{ACAD_XDICTIONARY
360
CB9
102
}
102
{ACAD_REACTORS
330
29
102
}
330
29
100
AcDbVisualStyle
  2
Hidden
 70
     6
 71
     1
 72
     2
 73
     2
 90
        0
 40
-0.6
 41
-30.0
 62
     5
 63
     7
 74
     2
 91
        2
 64
     7
 65
   257
 75
     2
175
     1
 42
40.0
 92
        0
 66
   257
 43
1.0
 76
     1
 77
     6
 78
     2
 67
     7
 79
     3
170
     0
171
     0
290
     0
174
     0
 93
        1
 44
0.0
173
     0
291
     0
 45
0.0
1001
ACAD
1000
AcDbSavedByObjectVersion
1070
     0
  0
VISUALSTYLE
  5
3F
102
{ACAD_XDICTIONARY
360
CD5
102
}
102
{ACAD_REACTORS
330
29
102
}
330
29
100
AcDbVisualStyle
  2
JitterOff
 70
    20
 71
     2
 72
     2
 73
     0
 90
        0
 40
-0.6
 41
-30.0
 62
     5
 63
     7
 74
     1
 91
        4
 64
     7
 65
   257
 75
     1
175
     1
 42
1.0
 92
       10
 66
     7
 43
1.0
 76
     1
 77
     6
 78
     2
 67
     7
 79
     5
170
     0
171
     0
290
     0
174
     0
 93
        1
 44
0.0
173
     0
291
     1
 45
0.0
1001
ACAD
1000
AcDbSavedByObjectVersion
1070
     0
  0
VISUALSTYLE
  5
37
102
{ACAD_XDICTIONARY
360
CC5
102
}
102
{ACAD_REACTORS
330
29
102
}
330
29
100
AcDbVisualStyle
  2
Linepattern
 70
    14
 71
     2
 72
     2
 73
     0
 90
        0
 40
-0.6
 41
-30.0
 62
     5
 63
     7
 74
     1
 91
        4
 64
     7
 65
   257
 75
     7
175
     7
 42
1.0
 92
        8
 66
     7
 43
1.0
 76
     1
 77
     6
 78
     2
 67
     7
 79
     5
170
     0
171
     0
290
     0
174
     0
 93
        1
 44
0.0
173
     0
291
     1
 45
0.0
1001
ACAD
1000
AcDbSavedByObjectVersion
1070
     0
  0
VISUALSTYLE
  5
40
102
{ACAD_XDICTIONARY
360
CD7
102
}
102
{ACAD_REACTORS
330
29
102
}
330
29
100
AcDbVisualStyle
  2
OverhangOff
 70
    21
 71
     2
 72
     2
 73
     0
 90
        0
 40
-0.6
 41
-30.0
 62
     5
 63
     7
 74
     1
 91
        4
 64
     7
 65
   257
 75
     1
175
     1
 42
1.0
 92
        9
 66
     7
 43
1.0
 76
     1
 77
     6
 78
     2
 67
     7
 79
     5
170
     0
171
     0
290
     0
174
     0
 93
        1
 44
0.0
173
     0
291
     1
 45
0.0
1001
ACAD
1000
AcDbSavedByObjectVersion
1070
     0
  0
VISUALSTYLE
  5
33
102
{ACAD_XDICTIONARY
360
CBD
102
}
102
{ACAD_REACTORS
330
29
102
}
330
29
100
AcDbVisualStyle
  2
Realistic
 70
     8
 71
     2
 72
     3
 73
     0
 90
        2
 40
-0.6
 41
30.0
 62
     5
 63
     7
 74
     0
 91
        0
 64
     7
 65
   257
 75
     1
175
     1
 42
1.0
 92
        8
 66
   257
 43
1.0
 76
     1
 77
     6
 78
     2
 67
     7
 79
     3
170
     0
171
     0
290
     0
174
     0
 93
       13
 44
0.0
173
     0
291
     0
 45
0.0
1001
ACAD
1000
AcDbSavedByObjectVersion
1070
     0
  0
VISUALSTYLE
  5
3E
102
{ACAD_XDICTIONARY
360
CD3
102
}
102
{ACAD_REACTORS
330
29
102
}
330
29
100
AcDbVisualStyle
  2
Shaded
 70
    27
 71
     2
 72
     2
 73
     1
 90
        2
 40
-0.6
 41
30.0
 62
     5
 63
     7
 74
     0
 91
        4
 64
     7
 65
   257
 75
     1
175
     1
 42
1.0
 92
        8
 66
   257
 43
1.0
 76
     1
 77
     6
 78
     2
 67
     8
 79
     3
170
     0
171
     0
290
     0
174
     0
 93
        5
 44
0.0
173
     0
291
     0
 45
0.0
1001
ACAD
1000
AcDbSavedByObjectVersion
1070
     0
  0
VISUALSTYLE
  5
3D
102
{ACAD_XDICTIONARY
360
CD1
102
}
102
{ACAD_REACTORS
330
29
102
}
330
29
100
AcDbVisualStyle
  2
Shaded with edges
 70
    26
 71
     2
 72
     2
 73
     1
 90
        2
 40
-0.6
 41
30.0
 62
     5
 63
     7
 74
     1
 91
       10
 64
     7
 65
   257
 75
     2
175
     1
 42
1.0
 92
        8
 66
   257
 43
1.0
 76
     1
 77
     6
 78
     2
 67
     7
 79
     3
170
     0
171
     0
290
     0
174
     0
 93
        5
 44
0.0
173
     0
291
     0
 45
0.0
1001
ACAD
1000
AcDbSavedByObjectVersion
1070
     0
  0
VISUALSTYLE
  5
3A
102
{ACAD_XDICTIONARY
360
CCB
102
}
102
{ACAD_REACTORS
330
29
102
}
330
29
100
AcDbVisualStyle
  2
Shades of Gray
 70
    23
 71
     2
 72
     2
 73
     3
 90
        0
 40
-0.6
 41
-30.0
 62
     5
 63
     7
 74
     2
 91
        2
 64
     7
 65
     7
 75
     1
175
     1
 42
40.0
 92
        8
 66
     7
 43
1.0
 76
     1
 77
     6
 78
     2
 67
     7
 79
     3
170
     0
171
     0
290
     0
174
     0
 93
        1
 44
0.0
173
     0
291
     0
 45
0.0
1001
ACAD
1000
AcDbSavedByObjectVersion
1070
     0
  0
VISUALSTYLE
  5
3B
102
{ACAD_XDICTIONARY
360
CCD
102
}
102
{ACAD_REACTORS
330
29
102
}
330
29
100
AcDbVisualStyle
  2
Sketchy
 70
    24
 71
     1
 72
     2
 73
     2
 90
        0
 40
-0.6
 41
-30.0
 62
     5
 63
     7
 74
     2
 91
        2
 64
     7
 65
     7
 75
     1
175
     1
 42
40.0
 92
       11
 66
     7
 43
1.0
 76
     1
 77
     6
 78
     2
 67
     7
 79
     6
170
     0
171
     0
290
     0
174
     0
 93
        1
 44
0.0
173
     0
291
     0
 45
0.0
1001
ACAD
1000
AcDbSavedByObjectVersion
1070
     0
  0
VISUALSTYLE
  5
36
102
{ACAD_XDICTIONARY
360
CC3
102
}
102
{ACAD_REACTORS
330
29
102
}
330
29
100
AcDbVisualStyle
  2
Thicken
 70
    13
 71
     2
 72
     2
 73
     0
 90
        0
 40
-0.6
 41
-30.0
 62
     5
 63
     7
 74
     1
 91
        4
 64
     7
 65
   257
 75
     1
175
     1
 42
1.0
 92
       12
 66
     7
 43
1.0
 76
     1
 77
     6
 78
     2
 67
     7
 79
     5
170
     0
171
     0
290
     0
174
     0
 93
        1
 44
0.0
173
     0
291
     1
 45
0.0
1001
ACAD
1000
AcDbSavedByObjectVersion
1070
     0
  0
VISUALSTYLE
  5
30
102
{ACAD_XDICTIONARY
360
CB7
102
}
102
{ACAD_REACTORS
330
29
102
}
330
29
100
AcDbVisualStyle
  2
Wireframe
 70
     5
 71
     0
 72
     2
 73
     0
 90
        0
 40
-0.6
 41
-30.0
 62
     5
 63
     7
 74
     1
 91
        4
 64
     7
 65
   257
 75
     1
175
     1
 42
1.0
 92
        0
 66
   257
 43
1.0
 76
     1
 77
     6
 78
     2
 67
     7
 79
     3
170
     0
171
     0
290
     0
174
     0
 93
        1
 44
0.0
173
     0
291
     0
 45
0.0
1001
ACAD
1000
AcDbSavedByObjectVersion
1070
     0
  0
VISUALSTYLE
  5
3C
102
{ACAD_XDICTIONARY
360
CCF
102
}
102
{ACAD_REACTORS
330
29
102
}
330
29
100
AcDbVisualStyle
  2
X-Ray
 70
    25
 71
     2
 72
     2
 73
     1
 90
        1
 40
0.5
 41
-30.0
 62
     5
 63
     7
 74
     1
 91
        0
 64
     7
 65
   257
 75
     1
175
     1
 42
1.0
 92
        8
 66
     7
 43
1.0
 76
     1
 77
     6
 78
     2
 67
     7
 79
     3
170
     0
171
     0
290
     0
174
     0
 93
       13
 44
0.0
173
     0
291
     0
 45
0.0
1001
ACAD
1000
AcDbSavedByObjectVersion
1070
     0
  0
DICTIONARYVAR
  5
79
102
{ACAD_REACTORS
330
76
102
}
330
76
100
DictionaryVariables
280
     0
  1
1:1
  0
DICTIONARYVAR
  5
78
102
{ACAD_REACTORS
330
76
102
}
330
76
100
DictionaryVariables
280
     0
  1
STANDARD
  0
DICTIONARYVAR
  5
77
102
{ACAD_REACTORS
330
76
102
}
330
76
100
DictionaryVariables
280
     0
  1
STANDARD
  0
DICTIONARYVAR
  5
C9E
102
{ACAD_REACTORS
330
76
102
}
330
76
100
DictionaryVariables
280
     0
  1
1
  0
DICTIONARYVAR
  5
C9D
102
{ACAD_REACTORS
330
76
102
}
330
76
100
DictionaryVariables
280
     0
  1
1
  0
DICTIONARYVAR
  5
C9C
102
{ACAD_REACTORS
330
76
102
}
330
76
100
DictionaryVariables
280
     0
  1
0
  0
DICTIONARYVAR
  5
C99
102
{ACAD_REACTORS
330
76
102
}
330
76
100
DictionaryVariables
280
     0
  1
0
  0
DICTIONARYVAR
  5
C9A
102
{ACAD_REACTORS
330
76
102
}
330
76
100
DictionaryVariables
280
     0
  1
0
  0
DICTIONARYVAR
  5
C98
102
{ACAD_REACTORS
330
76
102
}
330
76
100
DictionaryVariables
280
     0
  1
2
  0
DICTIONARYVAR
  5
C97
102
{ACAD_REACTORS
330
76
102
}
330
76
100
DictionaryVariables
280
     0
  1
1
  0
DICTIONARYVAR
  5
C9B
102
{ACAD_REACTORS
330
76
102
}
330
76
100
DictionaryVariables
280
     0
  1
127
  0
DICTIONARYVAR
  5
C9F
102
{ACAD_REACTORS
330
76
102
}
330
76
100
DictionaryVariables
280
     0
  1
2
  0
DICTIONARY
  5
CDD
330
6B
100
AcDbDictionary
280
     1
281
     1
  3
ACAD_XREC_ROUNDTRIP
360
CDE
  0
DICTIONARY
  5
CE1
330
73
100
AcDbDictionary
280
     1
281
     1
  3
ACAD_XREC_ROUNDTRIP
360
CE2
  0
DICTIONARY
  5
CDF
330
6F
100
AcDbDictionary
280
     1
281
     1
  3
ACAD_XREC_ROUNDTRIP
360
CE0
  0
DICTIONARY
  5
1A
330
19
100
AcDbDictionary
280
     1
281
     1
  3
ACAD_XREC_ROUNDTRIP
360
CA9
  3
BUMPTILE
360
1C
  3
DIFFUSETILE
360
1B
  3
OPACITYTILE
360
1F
  3
REFLECTIONTILE
360
1E
  3
REFRACTIONTILE
360
20
  3
SPECULARTILE
360
1D
  0
DICTIONARY
  5
12
330
11
100
AcDbDictionary
280
     1
281
     1
  3
ACAD_XREC_ROUNDTRIP
360
CA8
  3
BUMPTILE
360
14
  3
DIFFUSETILE
360
13
  3
FBXASSET
360
F5
  3
OPACITYTILE
360
17
  3
REFLECTIONTILE
360
16
  3
REFRACTIONTILE
360
18
  3
SPECULARTILE
360
15
  0
DICTIONARY
  5
22
330
21
100
AcDbDictionary
280
     1
281
     1
  3
ACAD_XREC_ROUNDTRIP
360
CAA
  3
BUMPTILE
360
24
  3
DIFFUSETILE
360
23
  3
FBXASSET
360
BA
  3
OPACITYTILE
360
27
  3
REFLECTIONTILE
360
26
  3
REFRACTIONTILE
360
28
  3
SPECULARTILE
360
25
  0
DICTIONARY
  5
CA2
330
67
100
AcDbDictionary
280
     1
281
     1
  3
ACAD_XREC_ROUNDTRIP
360
CA3
  0
DICTIONARY
  5
CA0
330
65
100
AcDbDictionary
280
     1
281
     1
  3
ACAD_ROUNDTRIP_2008_TABLESTYLE_CELLSTYLEMAP
360
CA1
  3
ACAD_XREC_ROUNDTRIP
360
CDB
  0
DICTIONARY
  5
CB5
330
2F
100
AcDbDictionary
280
     1
281
     1
  3
ACAD_XREC_ROUNDTRIP
360
CB6
  0
DICTIONARY
  5
CB3
330
2E
100
AcDbDictionary
280
     1
281
     1
  3
ACAD_XREC_ROUNDTRIP
360
CB4
  0
DICTIONARY
  5
CC1
330
35
100
AcDbDictionary
280
     1
281
     1
  3
ACAD_XREC_ROUNDTRIP
360
CC2
  0
DICTIONARY
  5
CC9
330
39
100
AcDbDictionary
280
     1
281
     1
  3
ACAD_XREC_ROUNDTRIP
360
CCA
  0
DICTIONARY
  5
CBB
330
32
100
AcDbDictionary
280
     1
281
     1
  3
ACAD_XREC_ROUNDTRIP
360
CBC
  0
DICTIONARY
  5
CBF
330
34
100
AcDbDictionary
280
     1
281
     1
  3
ACAD_XREC_ROUNDTRIP
360
CC0
  0
DICTIONARY
  5
CD9
330
41
100
AcDbDictionary
280
     1
281
     1
  3
ACAD_XREC_ROUNDTRIP
360
CDA
  0
DICTIONARY
  5
CC7
330
38
100
AcDbDictionary
280
     1
281
     1
  3
ACAD_XREC_ROUNDTRIP
360
CC8
  0
DICTIONARY
  5
CAB
330
2A
100
AcDbDictionary
280
     1
281
     1
  3
ACAD_XREC_ROUNDTRIP
360
CAC
  0
DICTIONARY
  5
CAD
330
2B
100
AcDbDictionary
280
     1
281
     1
  3
ACAD_XREC_ROUNDTRIP
360
CAE
  0
DICTIONARY
  5
CAF
330
2C
100
AcDbDictionary
280
     1
281
     1
  3
ACAD_XREC_ROUNDTRIP
360
CB0
  0
DICTIONARY
  5
CB1
330
2D
100
AcDbDictionary
280
     1
281
     1
  3
ACAD_XREC_ROUNDTRIP
360
CB2
  0
DICTIONARY
  5
CB9
330
31
100
AcDbDictionary
280
     1
281
     1
  3
ACAD_XREC_ROUNDTRIP
360
CBA
  0
DICTIONARY
  5
CD5
330
3F
100
AcDbDictionary
280
     1
281
     1
  3
ACAD_XREC_ROUNDTRIP
360
CD6
  0
DICTIONARY
  5
CC5
330
37
100
AcDbDictionary
280
     1
281
     1
  3
ACAD_XREC_ROUNDTRIP
360
CC6
  0
DICTIONARY
  5
CD7
330
40
100
AcDbDictionary
280
     1
281
     1
  3
ACAD_XREC_ROUNDTRIP
360
CD8
  0
DICTIONARY
  5
CBD
330
33
100
AcDbDictionary
280
     1
281
     1
  3
ACAD_XREC_ROUNDTRIP
360
CBE
  0
DICTIONARY
  5
CD3
330
3E
100
AcDbDictionary
280
     1
281
     1
  3
ACAD_XREC_ROUNDTRIP
360
CD4
  0
DICTIONARY
  5
CD1
330
3D
100
AcDbDictionary
280
     1
281
     1
  3
ACAD_XREC_ROUNDTRIP
360
CD2
  0
DICTIONARY
  5
CCB
330
3A
100
AcDbDictionary
280
     1
281
     1
  3
ACAD_XREC_ROUNDTRIP
360
CCC
  0
DICTIONARY
  5
CCD
330
3B
100
AcDbDictionary
280
     1
281
     1
  3
ACAD_XREC_ROUNDTRIP
360
CCE
  0
DICTIONARY
  5
CC3
330
36
100
AcDbDictionary
280
     1
281
     1
  3
ACAD_XREC_ROUNDTRIP
360
CC4
  0
DICTIONARY
  5
CB7
330
30
100
AcDbDictionary
280
     1
281
     1
  3
ACAD_XREC_ROUNDTRIP
360
CB8
  0
DICTIONARY
  5
CCF
330
3C
100
AcDbDictionary
280
     1
281
     1
  3
ACAD_XREC_ROUNDTRIP
360
CD0
  0
XRECORD
  5
CDE
102
{ACAD_REACTORS
330
CDD
102
}
330
CDD
100
AcDbXrecord
280
     1
102
SHADEPLOT
 70
     0
102
SHADEPLOTRESLEVEL
 70
     2
102
SHADEPLOTCUSTOMDPI
 70
   300
  0
XRECORD
  5
CE2
102
{ACAD_REACTORS
330
CE1
102
}
330
CE1
100
AcDbXrecord
280
     1
102
SHADEPLOT
 70
     0
102
SHADEPLOTRESLEVEL
 70
     2
102
SHADEPLOTCUSTOMDPI
 70
   300
  0
XRECORD
  5
CE0
102
{ACAD_REACTORS
330
CDF
102
}
330
CDF
100
AcDbXrecord
280
     1
102
SHADEPLOT
 70
     0
102
SHADEPLOTRESLEVEL
 70
     2
102
SHADEPLOTCUSTOMDPI
 70
   300
  0
XRECORD
  5
CA9
102
{ACAD_REACTORS
330
1A
102
}
330
1A
100
AcDbXrecord
280
     1
102
MATERIAL
148
0.0
149
0.0
149
0.0
 93
        0
 94
      127
282
     0
 72
     0
 77
     0
171
     0
175
     0
179
     0
273
     0
  0
XRECORD
  5
1C
102
{ACAD_REACTORS
330
1A
102
}
330
1A
100
AcDbXrecord
280
     1
270
     1
271
     1
  0
XRECORD
  5
1B
102
{ACAD_REACTORS
330
1A
102
}
330
1A
100
AcDbXrecord
280
     1
270
     1
271
     1
  0
XRECORD
  5
1F
102
{ACAD_REACTORS
330
1A
102
}
330
1A
100
AcDbXrecord
280
     1
270
     1
271
     1
  0
XRECORD
  5
1E
102
{ACAD_REACTORS
330
1A
102
}
330
1A
100
AcDbXrecord
280
     1
270
     1
271
     1
  0
XRECORD
  5
20
102
{ACAD_REACTORS
330
1A
102
}
330
1A
100
AcDbXrecord
280
     1
270
     1
271
     1
  0
XRECORD
  5
1D
102
{ACAD_REACTORS
330
1A
102
}
330
1A
100
AcDbXrecord
280
     1
270
     1
271
     1
  0
XRECORD
  5
CA8
102
{ACAD_REACTORS
330
12
102
}
330
12
100
AcDbXrecord
280
     1
102
MATERIAL
148
0.0
149
0.0
149
0.0
 93
        0
 94
      127
282
     0
 72
     0
 77
     0
171
     0
175
     0
179
     0
273
     0
  0
XRECORD
  5
14
102
{ACAD_REACTORS
330
12
102
}
330
12
100
AcDbXrecord
280
     1
270
     1
271
     1
  0
XRECORD
  5
13
102
{ACAD_REACTORS
330
12
102
}
330
12
100
AcDbXrecord
280
     1
270
     1
271
     1
  0
XRECORD
  5
F5
102
{ACAD_REACTORS
330
12
102
}
330
12
100
AcDbXrecord
280
     1
 70
     1
 90
1959938040
 71
     1
  1
55007501-354B-4A69-958A-5F820B749F9D
311
504B03040A00000800005C6832403DEE336E79000000790000001B0000006175746F6465736B2D64657369676E2D7061636B6167652E786D6C3C3F786D6C2076657273696F6E3D22312E302220656E636F64696E673D227574662D3822203F3E3C666F726D6174733E3C666F726D61743E687474703A2F2F736368656D612E
311
6175746F6465736B2E636F6D2F64657369676E2D7061636B6167652F323030393C2F666F726D61743E3C2F666F726D6174733E504B03041400060808005C683240D486FD9CA0000000F4000000130000005B436F6E74656E745F54797065735D2E786D6C7D8EC10E82300C865F65E91D8A1E8C310C0EEA1BF002731658846E
311
D98AC1B77784ABF1D8FE5FBFBF75BBCE937A534CCEB38643598122B6FEE978D0B0485F9C41B54DDD7D022595594E1A469170414C76A4D9A4D207E29CF43ECE46F218070CC6BECC4078ACAA135ACF422C856C0E68EA1BF5669944DDD7BCDE7B1F8E415D77AECB980613C2E4AC91FC167A2B244592486606FC29C8FD7F045B9A
311
EF7053A7E60B504B03041400060808005C6832407D4AFB6BE90000007C01000008000000636F72652E786D6C8D90416EC3201045AF82668F0D38768885C9A2B14FD00B20431C94182C03558F5F9C3852BBEB6A467FFE9B197D71FE9E1FE8CBACC17AD7012D0820E346AFAD9B3A48F18A39A0B314ABF7F1970D9053B3E96093
311
418A69F569D9A5D1BB685CCCAAF3DAECA20AC14440E323371D84F1666655A814B323DC8B458D77359982BEBB0CA764357A1DB13AEFB3576B5690CD855C6A7E3CE123EB077CA838C17CE82BDCD787819313AD3F1A26CA0D9622DAF97D7F5C8D8A46836484324C28A6FC93562D616DDD60D2B4848872B3FF81D2A2FF0925EB62
311
C5F6775F580049F323CF8114E596452ECFA072DD72933F504B03041400060808005C68324055019EA25F0000007C00000007000000636E782E786D6C4DCB3B0E80201045D1AD90E915ED2CF8AC45050C11660C8261F98AB1B07AC9C97D42D718D865D3E909258CFD00CCE24AC6E326A164D74DC0B4128928FF326038472BA1
311
3128B1252AC747C6BAB984FC68F0B87FE8960A5C09FE86CFB69FBA01504B03041400060808005C6832402E3DA7A065010000020300000C0000006662782F636F72652E786D6C8D52ED8E8230107C95A6FF4B0B08A229F5C7A94F702F50A17244684969898F7FCB87E1BC1863484A33B3B33B3BC00FF7B64183B27D6D748EC3
311
8061A47461CA5A5739F6EE4A328C0E825B63DC9F328CB46C558E47180B5E59E3BB052A8C764A3B40B529D502CABE570EA3A2814B8EFBE247B53290DE41457F0B3A59DC64A58230001AEA04EF9D0503681E329E585C2F774E675C70EFEB7261EB12A6D5D75A592CD2233B26D97647B6D1E94C3671C648763EC5E4946CCE19DB
311
85C9571A713A8A057775FB705758259D2AB188581811169230FB0EE33D8BF6494A58BA678CD3B1FC49E4BBF24391AFB58BA3C5EE2CEBB108C1C844FCDB162272A89703F8A182D33144784D093F070D8140C84E5E9AC71E37800655386337C094C6AFD4201BAF602A43D3C3E9CC42E7A9016CF6B24FF4A6CFFB1EF001A5AEC0
311
9A7470BD78374EE7F3D4258A4E5932B83BD2C6B6B259CDCD16D7731DF4525E98C6D84FD47459952E61D2F1EF15BF504B03041400060808005C6832401D1F61E47E0000009D0000000B0000006662782F636E782E786D6C4DCCDD0A832018C6F15B91F7DC95FB200535F6CEBA8F581632D3E174ECF257A3831D3DF0E3E12FDB
311
CFE2C9DBA6978B41013BD4406CB8C7D1855941C913E5405A2D538CF9EF06240C8B55B0316839A7589E3B8D761A8ACFAB7A171E3B360D3757C11815BC16F46C8E372ACC4950ECBA0BF688D873069596D5AFB4EE16D65F504B03041400060808005C68324035036BD92D01000014020000310000006662782F37373844413931
311
312D393830392D344432432D394433392D4245453542464242424638312F636F72652E786D6C8D51CB6E833010FC15E4537A30D8400844C65169922FE80F10E3502BC1467E54F9FCAE0B91DA5B2E5E6B766676EC6587C7744FBEA575CAE816D194A0446A6106A5C716057FC5354A0E9C5963FC1F1A4A743FC916451871365A
311
13E61512467BA93DA0DA0C72057BE7A44789B8C3A5454E7CC9A94FFBE081E16EE9DC8B5B3FCA94A6D0061E67CE5B08902C43E289F86E571FDF1B4A7153930697C7FC0337C7A2C1DDE9B4EDCE5DD79D6BCAB245C859086A58E56A8038EAAAA47DD5248A39F36A7AC61756F65E0E88E784E698504CEB4F5AEC49BEDF5698547B
311
425816E9FF44611E5E1405A57D91AF711799431C5EB334381B4CB8DC9F61E46336D62771DEC649F1863849494ECA5DD16C59B650E103C0B32A574FE78D850FDEDC2EC0A6C08AC655C959167704E5778150E33EF90F504B03041400060808005C683240ADE9EBE14D01000033030000300000006662782F3737384441393131
311
2D393830392D344432432D394433392D4245453542464242424638312F636E782E786D6CD593CD6E022114855F85B09F1FD41A63184CBAE81374D12D0357A53230E1A7A96FDF8BA275E3A2CB6EC8E4DCC339375F18BEFB9E2CF982108D7703656D4F0938E5B5718781E6B46F3694EC040FDEA7071B254E4E30D02253C10FC1
311
E7B94A1AF632DB84AA35EE54C500D1E7A020A25C6E12EB95B41800AEC928C23482D6A0C9DD885F7B08B80A8AE399A42390B7D70FE2C74F5029F2AEA408DE950EC1CB599B1E4C94282B631C68544798642B73F21AE2A9D532C996B5B7AE273BFD269172E156998321A57CA0E5A4A26ED42247DEE150F09802D2ABA6749E810A
311
39CFD62899107277315E3D8267E3D27A55BD06C10774B3F572B5C2B0CB4CF06426A80E154026D0542C7AB6687AD6B0CD3B5B6EFBC5F665DDF4EB6DDFF3AED8051FBDB7F512C640F03351DE2570890AC6BB327E86AFFA88360159FB70FE034804505BAF74EE19FF994F7779DF882BE05F207E00504B03041400060808005C68
311
32405E7AEF9E9B0500007B100000340000006662782F37373844413931312D393830392D344432432D394433392D4245453542464242424638312F6F626A656374732E786D6CAD575B8F9B3814FE2B887D26815CDAC98AA1CAA55345BBD3568D5AEDC3489101C378C75C649B69667FFD7E0643204DA6D9555F001BFBF89CEF
311
7CE762FFDD21E3D633159215F9ADED8D5CDBA27954C42C4F6FED4A25CE8D6DBD0B7C5114AAB7CCB67292D15B5B4FDB819F8AA22ACD544C13527175327BB7FACB9211CDA96D459C48796BCBE8916664442A55C4543E8D62A2C8284D0E236FD42C1C8A4D05291F4F849644D05C4153CCE79062354A79C3A16B8F037FACFF07BE
311
7E9A55D3CBABC6B53DC3F3592E15C9A31F0E3B1133F5669BF793F9C299CF665367F666E239ABBBD5C6F1DE4EDDF59BF57AB17CBFC0C1520948329A089AD8C107602358E48F9B5F815FB15C4D27668971D058D067A63D650713CBF3C7CD9ACE3A63E439F5A322CF69546305346AFB8CE89896348FE173462534EB21E40E879E
311
C6B1F77BAAC7E6C8FEF47508F477F404B5BAB7EFBEA645F8374C90D7304848AA19D860690C6DB8EA1E110E8B829B7F4C5A19515430C22DCE4241C48B1D60A95E12F803319AC9424783B6C00EE085E6F7902E08A39FF3FC9C9649C5B9A6B11DD451B047AC50256BCDD83F541CB5EF23039DE02BCD861B63907A29A91D2C1A8A
311
DC9CB0A901D24A3849E17298A9774E272786AE759C6E3776F0C75D78D8E9D83D7F78298A920AA5E9036AB58E6BDF1A25A3937795E7F406FB449523285F80FC4784FA5115F84DB0C3EC3033A7284172991422836F2CD7725C3C5CCBAB9FFABBF7E58FBBCD43EF5DC213CED650FD023C8736F47DD98333F09F41F8424C8D69BB
311
8870A48D7B9603204D128B1798421E4EC2831D6C91E59095B18BF0C083C950F7199FFED88841A2A84FEABD7360799216AF48D080AD6624D468C86F143CFAE98774561F6C965D8277FE4BE8BADCECFED855222111BD3731BDA109CB9942893BF2A6AFD000F381454FF4E57B216218FA23DEBB3EDE99394A026D8DB9063E6D73
311
BA1E1C4F1E1C10615F5AE874E3FFE40418A10B6B4FFE3D9311E59CE4B4A8DA735FAD1F281B0DC43AD83593BB02732C2C204DF3E7240651A423C14A0D6257ADBAA439BA60DDD7ED4730D20E562F7F92977EF60A8FB9372A7821F6E1CBBE494B67A1FE36E4B6C160ACA580EE7590B4F16F40DFC72C492A89247806D76FDB75DF
311
773A2D2045B4529B6899C17E04171186B4AD5C546B4150498B7CCF50371177670FE8CB07A48601B5C04B1A4BCA933DE3BCCAF609E3A846FB8C9417E0F8FFFA875556EE495654B9BA207BA03AAAC350F7017BE577A2A2473BD8D56F6785DC1BD3F80219742D3983D5C0B5F3B9EBBE9DBB9E339DCF56CE6CF966E12CE6374B67
311
7E773371576F678BBBC5A6F553A349E0B7A5A61FD1F0124A9B5F0966DCF7758BF83149C00EEE89920F1F9AF06CDF5FB723F4C2FE187B502FBB8DCBF8197D1F8D7F2EE0B8F2ACA06D56729AD15C111D43F7FA837F21E83306CA34F3DB8CA4F40A299F3EEC4E8CC1CC15FB3EEB78A7DF4FF69AD9B50EC8B342D46395853961FC
311
6463DA20392AF3D4E0D7FAA47B3785A61DEA91710C3A53597016230FC6564A8B8C2A64C32B8A90C8A804F5FA3D7D6CEE1E57EC7E6E3A4445424E5B4D1E099A642E1116A05615A9E1BCF51B9A3ADD57DDDA28B7A3273C4CA6B02D70E6D64693AE5844E5284481D6AD502D1C5CEA77F268FC499E72F4DACDA66EDCEDD2D80C4A
311
72B7E49AFEC9D8D5A4706300D24889BE010D11BC532B13F8B56EE67FF49F0C6FD5B188C26758A9CE96E344674C7D0C42B431CADC16D0C43C99A30F08D4D7CDF246F59A012257DDB25E254123D55144A4F54D41EB67545A6E3E8FD1A158DB4F56C9AB14BEBC5E922328C85CE900078BC00A23B3240A545DFFFEF05914B8C966
311
D61D03051ED6459615B9192CCD4DD8DA3DE25E1B3F202D507D21910F13D79B3CD417017337D98744D21189E51326E053C13A88078E07239BDB222A50F3A35B37D64E38E1E67663999236835043947E56D5B0A0E5C8A985E8D197491D2BFD05E5AB778171BD142A0874F1C1BF504B03041400060800005C6832400000000000
311
00000000000000350000006662782F37373844413931312D393830392D344432432D394433392D4245453542464242424638312F76657274696365732E62696E504B03041400060808005C683240F270F1330600000004000000360000006662782F37373844413931312D393830392D344432432D394433392D4245453542
311
464242424638312F747269616E676C65732E62696E636660600000504B03041400060800005C683240000000000000000000000000370000006662782F37373844413931312D393830392D344432432D394433392D4245453542464242424638312F617474726962757465732E62696E504B03041400060808005C683240D5
311
987DFC8F00000041010000360000006662782F37373844413931312D393830392D344432432D394433392D4245453542464242424638312F6469726563746F72792E786D6C858F410EC2201045AF4266AF15DDB800BA74E7C21B903225242D6328188F2FA5C4183471359997F9FF81E89FF3C41E1816475E02DF1F80A11FC8
311
386F25A438EECEC07A250251FC3803E6F58C12560C4AD840E95E91C151A72936F496F35732D860FE635F62C8F2DA16B505C545B74125BAA2FA9E05D7CC053D063734D5C7665FD55B6B8D15D5E9BFEAFD8490FFA45E504B03041400060808005C6832406EE1D5F3FC000000A00100003B0000006662782F3737384441393131
311
2D393830392D344432432D394433392D4245453542464242424638312F7265736F75726365732F636F72652E786D6C8D504B6EC32010BD8A357B6CC0B1432D4C164D72825E00E149821283C5A7EAF18B13576A77DDCC8CDE47F3F4E4E16B7E549F18A2F56E045653A8D0193F59771D21A70B11501D940CDEA75F32A89C9E71
311
84150625AFC1E765838C77095D2AA8F3136EA08E111354E6518E11A2B9E1AC6B9D5351C47BBD6873D757AC595DE8A25332A6500254AF27EB041530FA1C0C46D9BC582573B6D3A6B153F9692F1603A8FE488F9DD80BB2E7A733D9B58212713EB5E4D4EDCE82BEB1EEBDE7B259CD4A263BFF64340175C20914A78C13CA08131F
311
AC1D281FBA9ED07EA05436ABFC8F292FD33F4DD9BAD4F22DEECB1641B112E44928D9AC7D95F52CB3ECB55BF50D504B010214000A00000800005C6832403DEE336E79000000790000001B00000000000000000000000000000000006175746F6465736B2D64657369676E2D7061636B6167652E786D6C504B01021400140006
311
0808005C683240D486FD9CA0000000F40000001300000000000000000000000000B20000005B436F6E74656E745F54797065735D2E786D6C504B010214001400060808005C6832407D4AFB6BE90000007C010000080000000000000000000000000083010000636F72652E786D6C504B010214001400060808005C68324055
311
019EA25F0000007C000000070000000000000000000000000092020000636E782E786D6C504B010214001400060808005C6832402E3DA7A065010000020300000C00000000000000000000000000160300006662782F636F72652E786D6C504B010214001400060808005C6832401D1F61E47E0000009D0000000B00000000
311
000000000000000000A50400006662782F636E782E786D6C504B010214001400060808005C68324035036BD92D0100001402000031000000000000000000000000004C0500006662782F37373844413931312D393830392D344432432D394433392D4245453542464242424638312F636F72652E786D6C504B010214001400
311
060808005C683240ADE9EBE14D010000330300003000000000000000000000000000C80600006662782F37373844413931312D393830392D344432432D394433392D4245453542464242424638312F636E782E786D6C504B010214001400060808005C6832405E7AEF9E9B0500007B10000034000000000000000000000000
311
00630800006662782F37373844413931312D393830392D344432432D394433392D4245453542464242424638312F6F626A656374732E786D6C504B010214001400060800005C6832400000000000000000000000003500000000000000000000000000500E00006662782F37373844413931312D393830392D344432432D39
311
4433392D4245453542464242424638312F76657274696365732E62696E504B010214001400060808005C683240F270F13306000000040000003600000000000000000000000000A30E00006662782F37373844413931312D393830392D344432432D394433392D4245453542464242424638312F747269616E676C65732E62
311
696E504B010214001400060800005C6832400000000000000000000000003700000000000000000000000000FD0E00006662782F37373844413931312D393830392D344432432D394433392D4245453542464242424638312F617474726962757465732E62696E504B010214001400060808005C683240D5987DFC8F000000
311
410100003600000000000000000000000000520F00006662782F37373844413931312D393830392D344432432D394433392D4245453542464242424638312F6469726563746F72792E786D6C504B010214001400060808005C6832406EE1D5F3FC000000A00100003B00000000000000000000000000351000006662782F37
311
373844413931312D393830392D344432432D394433392D4245453542464242424638312F7265736F75726365732F636F72652E786D6C504B0506000000000E000E00800400008A1100000000
310
504B03040A00000800005C6832403DEE336E79000000790000001B0000006175746F6465736B2D64657369676E2D7061636B6167652E786D6C3C3F786D6C2076657273696F6E3D22312E302220656E636F64696E673D227574662D3822203F3E3C666F726D6174733E3C666F726D61743E687474703A2F2F736368656D612E
310
6175746F6465736B2E636F6D2F64657369676E2D7061636B6167652F323030393C2F666F726D61743E3C2F666F726D6174733E504B03041400060808005C683240D486FD9CA0000000F4000000130000005B436F6E74656E745F54797065735D2E786D6C7D8EC10E82300C865F65E91D8A1E8C310C0EEA1BF002731658846E
310
D98AC1B77784ABF1D8FE5FBFBF75BBCE937A534CCEB38643598122B6FEE978D0B0485F9C41B54DDD7D022595594E1A469170414C76A4D9A4D207E29CF43ECE46F218070CC6BECC4078ACAA135ACF422C856C0E68EA1BF5669944DDD7BCDE7B1F8E415D77AECB980613C2E4AC91FC167A2B244592486606FC29C8FD7F045B9A
310
EF7053A7E60B504B03041400060808005C68324010E73857E90000007C01000008000000636F72652E786D6C8D90D18E832010457F85CC3B0AA82D1AA4D998F60BF60708524B5AC1086CF6F3175B9BECBEEDD34CEEDC3333B9E2F43D3FD0975983F5AE075A1040C6693F5A37F590E2157340272956EFE32F1B20A766D3C326
310
8314D3EAD3B24BDABB685CCCAAF3A3D94515828980F423373D047D33B32A548AD911EEC5A2F45D4DA6A0EF2EC329D911BD8ED831EFB3576B5690356BEAE14C07CC5973C435FF2098B7B4C6C74B7BE643C52A7E6945B9C152443BBFEFEBD5A86846908C508609C5947FD2AA23AC6B0E981C3A4244B9D9FF406919FF0925EB62
310
C5F6775F580049F323CF8114E596452ECFA072DD72933F504B03041400060808005C68324055019EA25F0000007C00000007000000636E782E786D6C4DCB3B0E80201045D1AD90E915ED2CF8AC45050C11660C8261F98AB1B07AC9C97D42D718D865D3E909258CFD00CCE24AC6E326A164D74DC0B4128928FF326038472BA1
310
3128B1252AC747C6BAB984FC68F0B87FE8960A5C09FE86CFB69FBA01504B03041400060808005C683240F036C8E965010000020300000C0000006662782F636F72652E786D6C8D52ED8E8230107C95A6FF4B5B4045536A2E469FE05EA042E588D092D2121FFF960FE37931C69094666667777640EC6F6D8306EDFADA9A1CF3
310
8861A44D61CBDA54390EFE42328CF652386BFD9F328C8C6A758E47184B51391BBA052AACF1DA78408D2DF502AABED71EA3A2814B8EFBE247B72A52C143457F8D3A555C55A5231E010D7552F4DE8101340F194F2C2FE79BA0332E450875B9B07509D3EA4BAD1D9669BC4A0F477E2059BCDA9034FB6224DBF2946C4EDB637648
310
E2243B6D051DC552F8BABDBB2B9C565E9758C68CC78471C2B36F9EEC58BC5BAD095BEF1813742C7F1285AEFC50146AE39378B13BCB7A2C391899887FDB42441EF56A003F540A3A8608AF29E1E7A0211008D9AB7373DFE30AD0A00B6F5D0A4C69C3831A5413344C65687A049D59E83C3580CD5EF689DFF479DF033EA0321558
310
531EAEE7E0C7E9629EBA44D16947067F43C6BA56350F73B3C5C7F918F4525ED8C6BA4FD47459952E61D2F1EF95BF504B03041400060808005C683240D92FAF0A7D0000009D0000000B0000006662782F636E782E786D6C4DCCD10A83201886E15B91FFDCE5AC81811AD26FF711CB42563A9C8E5DFE6A74B0A30F1E3E5ED97D
310
B695BC5D7AF918145C2F0C880BF738F9B0282879A60248A7658A31FFDD808471730A0E062D9714CBF3A4C9CD6359F3AEAB0F8F1307E4D823725AB37AA08D354805B386DA56F0161B8BBDB941A565F52BED7B84F517504B03041400060808005C683240DD7A32882A01000014020000310000006662782F4644324443444432
310
2D333033462D344541442D383045412D4539383239443445444341352F636F72652E786D6C8D51CB6EC32010FC158B537AC006EC584E8489A2E07C417F8000495162B07854F9FCE2DA91DA5B2E2C9A9D991DEDD2C3737C14DFDA07E36C0F708940A1AD74CAD85B0F52BCC20E140746BD73F10F0D14568CBA07330C18BD7997
310
A61592CE466D6346AD537A0545083A82423EF2A707417EE9519422C5CC08F77212F22E6EBAC4656E671EA321FA1CA05886CC2F60674EF88973026B549F61331C39ECD07084C3AE233BDE0CFC74DCD26A11329A9251ABDCA81CC75C8DF6EF9ACC6246A3195FF1A5D7226A05184198408421EE3E71BD4764BF6D216AF708D16A
310
A6FF13A549BD294AC6C69AAC711759000CD36A6930AA5CBA3C5E61F473723E16F3BC4DD0F2033054228271834947AB859A17903DDB66F50CD1F9BCE0CDFD92D9F56ADC368C56F38D72F93D60AEF33DD90F504B03041400060808005C683240CB4E24F65401000033030000300000006662782F46443244434444322D333033
310
462D344541442D383045412D4539383239443445444341352F636E782E786D6CBD93CD6EC32010845F0571F76F522B8A30917AE813F4D02B864D4A83C1E2A76ADEBE4B42D25C72A854F582ACD96166F509B3DDD76CC827F8A09D1D6957B79480954E697B18698AFB6A43C98E33EF5CBCB35162C50C23CD32E5ECE05D5A8AA4
310
602F9289A81A6D8F45F4105CF21202CAF926314E0A830160AB8422CC1328058ADC8CF8B5078FABA0389D487C07F2F2FC46DCF4013206D6E414CE9ADCC1593E4BD39D8912694408230DF21D66518B149D8270AC9588A2EEEA6BD7839D7E9248BE70AD4C5E935C3ED27C525E36AA91236B70C859881EE915533C2D40B95816A3
310
A58808B9391B2F1ECE92B6715817AF46F01EDDAB7ED86C30EC3CE32CEA198A437A101114E57DDBF555DB55DDE6B55B6DDB7EFB3454EDB06D5BD6643B679373A65CC218F06E21D2D9083652DEB1268F1FE12B3EA2B447D6CE9F7E01120194D60B9D5BC65FF2E986D57AFD8F7C9AF3FB465C1EFF02FE0D504B03041400060808
310
005C6832409A827FB05A070000941B0000340000006662782F46443244434444322D333033462D344541442D383045412D4539383239443445444341352F6F626A656374732E786D6CED595B739B3814FE2B0CFB6C6C623B8D77089D5C9A8EA79BB6536F3BFBE019460699682304238924DE5FBF4717301093E06DF6AD0F36
310
20A4A373BE73D52178FF9451E70173417276EEFADEC475308BF384B0F4DC2DE57674E63AEFC380E7B96C4C731D86327CEEAA61370C529E97851D4AF016955476466F2EFF72448C19769D982221CE5D11DFE10C79A8947982C5BD972089BC74FBE4F99E99D8269B7254DC7588168863268153186740C5314CF9EDC7893B0E83
310
B17A1F06EADFCE9A0E9A35EB9F35D652B7B9244C48C4E2672C75C84C07B134F567D71F4EE68BD17C369B8E66A727FEE8F2E6F27AE4BF9B4EAE4EAFAE16171F16C0DE26CFA99529C1056609E86FE7867E30566F6AD12D0287B88E73C670AC8104A8B4585D82040BD8AA01DFA4FDE82B891AAFB5848DE7997A6F59680C4FDB54
310
FA660D03A2451704B1DB551257D7A67CF9E66F105C0C314A2EB0046E85E4A05D0B0F07AF70C3493036A361B0D9EB82082743127382A843C986230E4A81A96A4A189805968C720E0EA41C2581D69C79DDB62DF0CCD75DE71097DB9252E5196EA81D2B02F7C35268CEC83F98EFB96F22033C81B42561F2CC7229770576C34530
310
D68361A02ED313FBD200E96C294A8546C4BCED087AA55C7F79ED869F6E364F2B150E0E6F5EF0BCC05C2AA3537AD47C8121DBAB42C96EEB0FD29C5A00C21850EDCA3D28DF00F9CF103DF6AC80DE38799A3DCDEC5CC91113DB9C67A01B67E28C26F037717CFDAFEE1B77C1B85EDCD65E1F9EE0A60AAAB39FC7B32D83C6CAF2DF
310
80330C1EC0E0733EB5AF5631A260CFB7840140CA481C9AC31084F6EDE6C90D97103821D0C32A44431F4406761FE036185B327BAD54EE65BD8E01A2768FE91025016CDA22818D1E3D7D84ECC149BC575353C43E78E76F62AE17D7AB4FAB926F518C6FAD4F5FE32D614442D63CCC500BF39644F778F798F304047D8EF7AA8977
310
66B71280B6C25C019F5620A887FDCEAD0D625897E62ADC04AFEC0042A85CDDA07F4B448C29450CE765B56F1DDD94A1D61E6F6B06373C31104F4F3A26CCF10351550538CD7E468B51C8FB31278502D10D3F1AC9EAA0E9F548F77DF9192CB29EDF336BC920F43244FFD441EB000E2DCBAE90B640D4026FF6E13CCE69CEA3CD2E
310
3291CE855A02D8687BCB8F165188F546498A0A7890F6BB2AA4A446DA2821DB6D2920AE1E60F1C7F2AA690E136FEACF9DE67FC71967106DC17711B77ED7D92322194A71B44549DF76CDDD6ADA4293EC21CDF196825CE481C85D84643449707A0C3447115FBC29F594E642108605E4AB83E037D1987810488C362B9695563B40
310
13116558227A0C028A4C0FB83AEDE81A3786D2E1751E6BEB7D49634DA2FF93457004B564CE2202A528E4905719F7BD39C49036BA06E50EBE606D156D2D062DA1848877D12326E99D3C067543BE07F7188E24A58CF202C560D603C83EF315A5D40EEF1B14DFABFC11C5257D2B0311986E2342699945F0230C4E1E435CBB0E4C
310
2FA2D0206E629FC419146548967CC826A7F3C9B37D4CCDD00D818D8DB68442D88E3254F4A0DE0A88BA1E716AF02DF51EA56ECAAC885096976C90A178D3AE3759F25DB52AB203F955A522948D15614B300C08937556AD623698BA0EACE0463A50ED2281B2829A53D82B89C7AFBD4953EEDD805B3F7DDB0D3228FC7AB4D78CA8
310
B30A06CB63AB30108F48C6776EB8D2D7D125D4DF094EF6A9BEAA359B152020A62279C98955D1F7259437B64673C35B24C5FAA3C9BAD5F5FBD283EE4730863550BBD40B970AE80C3389546572AB6EE8370421B845C38C2F554E3D86CA4592E8AA11D11BD2A7CE5619D1DA34235E7187599EC18FAD098B6999E0354AC47D742B
310
69B4228A752BA597910AE31705FCF271D58107460688F4551578F8B1B3D68E5EA972E920117957661B860804C19668A9D18D57B0D46AA4D2727D55670AA8BBC0C0AC8A67BF4E16CD76C4AF93456A0DE3A74E1697BB3FD0AED91769A4F358D9F551C7803A3F292A6F710CD06D879A6A9D454C32B7F25B678A202856517E7035
310
56050D43B08FE3FF9CB5FBB2A0D9AEC3FF7159DB7F56711C95555A935597EA40E5BA6CE6B039D438EFE6137F349DCF2E47B38BD3C568313FBB18CD6FCE4E2697EF668B9BC5758DA676D430A88399CE5DF06C825A35AC9E2C06D095153925099CE61327C510F3259CE907B4CF79860524CF66B33BB14DF901AB1F4C9F53A20D
310
C5152777081AC454405A078CCA58B6C79DDFA03529E1A07DEE42D3C8BB873F6B95AE0399E7DC855681243116DE06DA4CAAA1A78943CAD5B9DF12037C104B554A348BEAE77A95C2A615FEEB2943D28095ABD5C380C2AD80EE57AB43A179B33CC547095EB1E32009B79B5242B56664D90FD4C2E86DF6EA37B251C2EEEDD64FE0
310
BA2F8BE57B7A4E0B91419F0C5E3402437524114F75BF5B316659BAB8FE3A863E9BB3FCE214B44C4197C3298D3806632E5541055604566169164882A95EFDBEFECA73F8C49339BA2A5A5FE5599633FB7001E7B1043E1139AB3BF8E093ACA16CC0AAAD2ED62713FF64ADDBD9B6C31E6D90C09EAA8760A02A2394081D63038B7C
310
D69AB28DCBB1524267FAF2DAB1E113DA00C6829E7577CDE72D07BC477D4851BEA23DBC92F3C58EF6584F056BE0D08B0EFF05504B03041400060800005C683240000000000000000000000000350000006662782F46443244434444322D333033462D344541442D383045412D4539383239443445444341352F766572746963
310
65732E62696E504B03041400060808005C683240F270F1330600000004000000360000006662782F46443244434444322D333033462D344541442D383045412D4539383239443445444341352F747269616E676C65732E62696E636660600000504B03041400060800005C6832400000000000000000000000003700000066
310
62782F46443244434444322D333033462D344541442D383045412D4539383239443445444341352F617474726962757465732E62696E504B03041400060808005C683240D5987DFC8F00000041010000360000006662782F46443244434444322D333033462D344541442D383045412D4539383239443445444341352F6469
310
726563746F72792E786D6C858F410EC2201045AF4266AF15DDB800BA74E7C21B903225242D6328188F2FA5C4183471359997F9FF81E89FF3C41E1816475E02DF1F80A11FC8386F25A438EECEC07A250251FC3803E6F58C12560C4AD840E95E91C151A72936F496F35732D860FE635F62C8F2DA16B505C545B74125BAA2FA9E
310
05D7CC053D063734D5C7665FD55B6B8D15D5E9BFEAFD8490FFA45E504B03041400060808005C683240034C16CFFD000000A00100003B0000006662782F46443244434444322D333033462D344541442D383045412D4539383239443445444341352F7265736F75726365732F636F72652E786D6C8D504B6EC23010BD4A347B
310
27B69380418E518BE004BD80E50C6041ECC89FAAC7AF03A9D4EEBA9919BD8FE6E9C9C3D7F4A83E3144EBDD00ACA650A1337EB4EE3A404E1722A03A2819BC4FBF6450393DE1000B0C4A5E83CFF30A19EF12BA5450E7475C411D2326A8CCA31C034473C349D73AA7A288F77AD6E6AEAF58B3BAD045A7644CA104A85E4F96092A
310
60F439188CB279B14AE66CC75563C7F2D35E2C06501DEFBBE389BD13C1FB2DE9C41B2562C73AB23DEF4EE2D8F2569C77B259CC4A263BFD64340175C21114A78C13CA08131FACDD53BEEF37846EF694CA6691FF31E579FCA7295B975ABEC67DD9222856823C09259BA5AFB29E6596BD74ABBE01504B010214000A0000080000
310
5C6832403DEE336E79000000790000001B00000000000000000000000000000000006175746F6465736B2D64657369676E2D7061636B6167652E786D6C504B010214001400060808005C683240D486FD9CA0000000F40000001300000000000000000000000000B20000005B436F6E74656E745F54797065735D2E786D6C50
310
4B010214001400060808005C68324010E73857E90000007C010000080000000000000000000000000083010000636F72652E786D6C504B010214001400060808005C68324055019EA25F0000007C000000070000000000000000000000000092020000636E782E786D6C504B010214001400060808005C683240F036C8E965
310
010000020300000C00000000000000000000000000160300006662782F636F72652E786D6C504B010214001400060808005C683240D92FAF0A7D0000009D0000000B00000000000000000000000000A50400006662782F636E782E786D6C504B010214001400060808005C683240DD7A32882A010000140200003100000000
310
0000000000000000004B0500006662782F46443244434444322D333033462D344541442D383045412D4539383239443445444341352F636F72652E786D6C504B010214001400060808005C683240CB4E24F654010000330300003000000000000000000000000000C40600006662782F46443244434444322D333033462D34
310
4541442D383045412D4539383239443445444341352F636E782E786D6C504B010214001400060808005C6832409A827FB05A070000941B00003400000000000000000000000000660800006662782F46443244434444322D333033462D344541442D383045412D4539383239443445444341352F6F626A656374732E786D6C
310
504B010214001400060800005C6832400000000000000000000000003500000000000000000000000000121000006662782F46443244434444322D333033462D344541442D383045412D4539383239443445444341352F76657274696365732E62696E504B010214001400060808005C683240F270F1330600000004000000
310
3600000000000000000000000000651000006662782F46443244434444322D333033462D344541442D383045412D4539383239443445444341352F747269616E676C65732E62696E504B010214001400060800005C6832400000000000000000000000003700000000000000000000000000BF1000006662782F4644324443
310
4444322D333033462D344541442D383045412D4539383239443445444341352F617474726962757465732E62696E504B010214001400060808005C683240D5987DFC8F000000410100003600000000000000000000000000141100006662782F46443244434444322D333033462D344541442D383045412D45393832394434
310
45444341352F6469726563746F72792E786D6C504B010214001400060808005C683240034C16CFFD000000A00100003B00000000000000000000000000F71100006662782F46443244434444322D333033462D344541442D383045412D4539383239443445444341352F7265736F75726365732F636F72652E786D6C504B05
310
06000000000E000E00800400004D1300000000
  0
XRECORD
  5
17
102
{ACAD_REACTORS
330
12
102
}
330
12
100
AcDbXrecord
280
     1
270
     1
271
     1
  0
XRECORD
  5
16
102
{ACAD_REACTORS
330
12
102
}
330
12
100
AcDbXrecord
280
     1
270
     1
271
     1
  0
XRECORD
  5
18
102
{ACAD_REACTORS
330
12
102
}
330
12
100
AcDbXrecord
280
     1
270
     1
271
     1
  0
XRECORD
  5
15
102
{ACAD_REACTORS
330
12
102
}
330
12
100
AcDbXrecord
280
     1
270
     1
271
     1
  0
XRECORD
  5
CAA
102
{ACAD_REACTORS
330
22
102
}
330
22
100
AcDbXrecord
280
     1
102
MATERIAL
148
0.0
149
0.0
149
0.0
 93
        0
 94
      127
282
     0
 72
     0
 77
     0
171
     0
175
     0
179
     0
273
     0
  0
XRECORD
  5
24
102
{ACAD_REACTORS
330
22
102
}
330
22
100
AcDbXrecord
280
     1
270
     1
271
     1
  0
XRECORD
  5
23
102
{ACAD_REACTORS
330
22
102
}
330
22
100
AcDbXrecord
280
     1
270
     1
271
     1
  0
XRECORD
  5
BA
102
{ACAD_REACTORS
330
22
102
}
330
22
100
AcDbXrecord
280
     1
 70
     1
 90
1959938040
 71
     1
  1
D579F58E-691B-4B22-AB15-DEDC5238D9EC
311
504B03040A00000800005B6832403DEE336E79000000790000001B0000006175746F6465736B2D64657369676E2D7061636B6167652E786D6C3C3F786D6C2076657273696F6E3D22312E302220656E636F64696E673D227574662D3822203F3E3C666F726D6174733E3C666F726D61743E687474703A2F2F736368656D612E
311
6175746F6465736B2E636F6D2F64657369676E2D7061636B6167652F323030393C2F666F726D61743E3C2F666F726D6174733E504B03041400060808005B683240D486FD9CA0000000F4000000130000005B436F6E74656E745F54797065735D2E786D6C7D8EC10E82300C865F65E91D8A1E8C310C0EEA1BF002731658846E
311
D98AC1B77784ABF1D8FE5FBFBF75BBCE937A534CCEB38643598122B6FEE978D0B0485F9C41B54DDD7D022595594E1A469170414C76A4D9A4D207E29CF43ECE46F218070CC6BECC4078ACAA135ACF422C856C0E68EA1BF5669944DDD7BCDE7B1F8E415D77AECB980613C2E4AC91FC167A2B244592486606FC29C8FD7F045B9A
311
EF7053A7E60B504B03041400060808005B683240D2D33481E80000007C01000008000000636F72652E786D6C8D905D6EC3201084AF8278C75EFC53391626525CF704BD00824D82128365A0EAF18B13476ADFFAB4AB613E7634E2F83DDFC917AEC17A37505E0025E8B437D65D069AE29975941CA558BD8FBF6C943835E34037
311
994A71597D5A76497B17D1C5AC3A6F701755081829D1F7BC0C34E82BCEAA50296647B8158BD23775C182BFB60CA7640D791EB126FF67CF16572AF9693A413B0283F7BA614D5B03EB3E6062D04D6333D530C2E120CA0D9622DAF9755FAFA8221A2A2BE01503CE78F7C9EB1EAABE6D19BCF500A2DCEC7FA0B4987F42C9BA5857
311
7BDC271672D61CE4F12045B97591C7A3A83CB7DEE40F504B03041400060808005B68324055019EA25F0000007C00000007000000636E782E786D6C4DCB3B0E80201045D1AD90E915ED2CF8AC45050C11660C8261F98AB1B07AC9C97D42D718D865D3E909258CFD00CCE24AC6E326A164D74DC0B4128928FF326038472BA131
311
28B1252AC747C6BAB984FC68F0B87FE8960A5C09FE86CFB69FBA01504B03041400060808005B68324078B9C2BF64010000020300000C0000006662782F636F72652E786D6C8D52ED8E8320107C15C27F04BF2EB6419AB4E73DC1BD0055EA992A1804D3C7BFF5A3F17A699AC604C9CCCEEEEC283FDCBA168DCA0E8DD1390E03
311
8691D2A5A91A5DE7D8BB0BC9303A086E8D717FCA30D2B253399E602C786D8DEF57A834DA29ED00D5A6522B288741398CCA162E391ECA1FD5C9407A0715C335E8657995B50AC20068A8137C70160CA065C874627139DF385D70C1BD6FAA956D2A98D65C1A65B1088FC591A52746D8679C90248D19C9BE584158569C92226627
311
B6DB713A8905774D7777575A259DAAB088581811169230FB0EE33D8BF6694AD8C79E314EA7F20791EFAB3745BED12E8E56BB8B6C00AF606426FE6D0B113934C811FC50C1E91422BCE6841F838640206427CFED7D8F2B40A32A9DB1093095F11B35CAD62B98CAD0FC70BAB0D0796E009B3DED13BDE8F3BA077C40A96BB0261D
311
5CCFDE4DD3F932758DA257968CEE86B4B19D6C37738BC5EDDC063D9597A635F61D355D57A56B9874FA7BC52F504B03041400060808005B683240E4A3406F7E0000009D0000000B0000006662782F636E782E786D6C4DCCD10A83201886E15B91FFDC5532968219FBE7BC8F581632D3703A76F9ABD1C18E3E78F87865FF593C
311
79DBF4723174D09C6A20363CE2E8C2DC41C913E5407A25538CF9EF06240C8BED606750724EB1AC078D761A8ACF9B7A179E07EA5633D372469B1B223D5F34A388E64E79CD853002AF0605544A56BFD2B67B587D01504B03041400060808005B6832406237C7012C01000014020000310000006662782F44374432463738322D
311
314342422D343644322D424246452D3830383939463942414642392F636F72652E786D6C8D51CB6EC32010FC15C4293D60034E5C3BC24475537F417FC00192A2C460F1A8F2F985DA91DA5B2E2C9A9D991DEDB2C37DBA816FE5BCB6A683A4C0102823ACD4E6D2C118CEA881E0C099B336FCA14160C6497530C390B38BB3715E
311
21614D502624D458A95670F45E0508C42D7D3AE8C5979AC6628C2131FCB59847711D2FAA20456A271E673EB814002C43F20BF9F1F54887D78622F2DEF7685B1F29EAFBE10335B869DBA1EDDF86BE65E522E42C462D57B996298E3E6BE59E35C962CE829E1EF18553635012728A09459820D27C926A8FE97EB743B8DE63CCCA
311
4CFF278AB37C5214B509155DE32E320F3961E5D2E04CDA78BA3DC2A8FB6C5D0079DEC62BF102392E30C5B4A655C5CA859A16903CEBEDEAE9837569C19BEB29B1C96E31AEB79C95F946A9FC1E30D57C4FFE03504B03041400060808005B683240AED667734C01000033030000300000006662782F44374432463738322D3143
311
42422D343644322D424246452D3830383939463942414642392F636E782E786D6CD593BB6E032110457F05D1EF03BF64592C9652E40B52A46561EC10B3B0E211C57F9FC1C68E1B1729D3A0D59DCBBDA32396EFBF274BBE2044E3DD4059DB53024E796DDC71A0391D9A2D257BC183F7E9C1468993130CB4C854F063F079AE92
311
8683CC36A16A8D3B553140F439288828979BC47A252D06806B328A308DA035687237E2D70102AE82E27826E903C8EBCB3BF1E327A81479575204EF4A87E0E5AC4D0F264A9495310E34AA0F98642B73F21AE2A9D532C996B5B7AE273BFD269172E156998321A57CA0E5A4A26ED42247DEE150F09802D2ABA6749E810A39CFD6
311
2899107277315E3D8267E3D26655BD06C10774B3CD72B5C2B0CB4CF06426A80E154026D0542C7AB6687AD6B0ED1B5BEEFAC56EBD6EFACDAEEF7957EC828FDEDB7A096320F89928EF12B84405E35D193FC3577D449B80AC7D38FF012402A8AD573AF78CFFCCA7BBBC6FC415F02F103F504B03041400060808005B6832402302
311
3B8A9C0500007A100000340000006662782F44374432463738322D314342422D343644322D424246452D3830383939463942414642392F6F626A656374732E786D6CAD57DB6EDB3810FD1541FBEC8B7C69E385A222B693C228D206355AEC4300839228851B4A14482A75F6EBF750A264C9B553EFA22F96450D873367CE5CE8
311
7FD867DC79A15231915FBBDE70EC3A348F44CCF2F4DA2D7532B8729D0F812F85D01D31D7C94946AF5DB3EC067E2A4559D8A59826A4E4FA68F56EF997A3229A53D7893851EADA55D113CDC890945AC4543D0F63A2C9304DF6436F580BF6D5A692144F474A0B2269AE6129D67368716AA3BCFEEBD81D05FEC87C0F7CF36BA5A6
311
E7A546953FFDF359AE34C9A39F0E3B5233F566EBDBC97C3198CF66D3C1ECDDC41B2CEF96EB81F77E3A5EBD5BAD1637B70B1CACB484266B89A4891B7C04369245FEA8FE14F825CBF57462456C804692BE3013293798389E3FAA655AEFAC93A7CC8F449ED3A8C20A6854FE59D5312D681E23E68C2A58D64168DC7FF50C8E9DCF
311
53F36E8FEC2E5F864077474751637BF3EC5A2AC2BFE182BA84415251C3C01A4BEB68CDD5F101E150086EBF31E5644453C90877380B2591AF6E00512312F83D3586C9D26483F1C00D1085FA739F2E48A35FF3FC949549C9B9A1B11B5459B043AE50AD2ACBD83F541EACEF22039B102BC3862BEB907E2DA81B2C6A8A5C1DB1A9
311
06D24938491172B869764E27478EAE4C9E6ED66EF0E92EDC6F4DEE9E3EBC90A2A0521BFA805A4DE09AA741C9DAE45D1439B3C13D32E500CA5720FF19A97E300571936C3FDBCFEC295A925C254266888D33760663FC8C1DAFFA35FF3BFFFC51BBB91FBD737822D806AADF8067DF876E2C3B7006FE0B082FE4D4BAB68D0847D9
311
B8673900322471B8C012EA7012EEDD60832A87AA8C5D84071E5C86B92FF8EB8FAC1A148AEAA4CE3307964765F182020DD82A46C28C9AFCD6C0439C7E2A67D5C156EC1CBCF3DF42D79BF5F6D3B6940989E8BDCDE9354D58CE345ADC81375D837A98F73C7AA6AF3F848CE1E8CF786FBB7867F62805B40DE606F8B4A9E9E6E570
311
72EF8008FB5261CA8DFF8B13E08469AC1DFDF74C45947392535136E7BED93FD0366A884DB21B26B70DE6D058409AFACB510EA24947921506C4B65BB5457378C6BB6F9BCF6024E4B908093F088587D21B092EE42E7CDDD555E924D2DFFBD4B6108C8C16B0BDCA9126FD2DE6BB982549A950034FC0FA7DB3EA86CE5405548846
311
6B9D2C33B88FDC22D272B6D18B662D091AA9C8770C6D136977F280AE7E206A0950293C67B1A23CD931CECB6C97308E66B4CB4871068EFF6F7F5866C58E64A2CCF519DD3DD3D11CFAB6F7C8AB7E101D3DB9C1B67A0E9628BD318D0F61EE099B567202AB5E68D7F3F78BBBF9D5EDE0DDC25B0E66CBC96470B3F4E683F5ED7A35
311
9F4CAFD68B5BB86E2DAA66A8C06F3A4D37A111257436BF94CC86EFDB06E9636B801BDC13AD1E3FD6D9D93CBF6D861885FD11F6A05DB61B6FE2178C7D34FEB58283E449459BACE034A3B9262685EECD1FFE9560CCE81953AF6F3292D20BB47CF9B83D72062B17EC7B30E94E7F1CEDB5AB2B93902795E8A7320B73C2F8D1C6B4
311
467258E4A9C5AF8949FBACFB4CF36ADE6C6030982AC1598C32183B291519D5288617F420995105EA7547FAD85E3D2ED8FD520F889A849C36963C11CCC85C212DC0DB32D2FD75E70FCC7466ACBA76D16D87CFF8B195C275C0996B1733BA661155C310FDD94C42957270A93BC883B3244F3946ED7A53FBDEEE32D8F43A722B72
311
C9F864FDAA2BB8750065A4C0D8807908D1A98C09FCCA36FB3DFA4F8E37E63844E36F58EAD697C342EB4C750C52B476CA5E1630C33CDBA3F748D4B7DDF286954C0F918B2E596F92A0D63AD044A6D545C1D8674DBA593F8C30A0389B2F4EC1CB14B1BC5CD3405290B934090E16811556674134A8BAFAF3F1410A5C6433E78E81
311
028F2B916522B72F37F622EC6C9F70AD8D1F5116A8B98FA8C7C9D89B3C56F7007B35D98544D12189D533161053C95A887B810723EBCB223A50FDA1951B99201C7173B3766C4B9B41A9254AB7AA1A583071E4D441F698BBA4C995AE40F1E655605489C20489213EF817504B03041400060800005B6832400000000000000000
311
00000000350000006662782F44374432463738322D314342422D343644322D424246452D3830383939463942414642392F76657274696365732E62696E504B03041400060808005B683240F270F1330600000004000000360000006662782F44374432463738322D314342422D343644322D424246452D3830383939463942
311
414642392F747269616E676C65732E62696E636660600000504B03041400060800005B683240000000000000000000000000370000006662782F44374432463738322D314342422D343644322D424246452D3830383939463942414642392F617474726962757465732E62696E504B03041400060808005B683240D5987DFC
311
8F00000041010000360000006662782F44374432463738322D314342422D343644322D424246452D3830383939463942414642392F6469726563746F72792E786D6C858F410EC2201045AF4266AF15DDB800BA74E7C21B903225242D6328188F2FA5C4183471359997F9FF81E89FF3C41E1816475E02DF1F80A11FC8386F25
311
A438EECEC07A250251FC3803E6F58C12560C4AD840E95E91C151A72936F496F35732D860FE635F62C8F2DA16B505C545B74125BAA2FA9E05D7CC053D063734D5C7665FD55B6B8D15D5E9BFEAFD8490FFA45E504B03041400060808005B683240563EEA26FB000000A00100003B0000006662782F44374432463738322D3143
311
42422D343644322D424246452D3830383939463942414642392F7265736F75726365732F636F72652E786D6C8D50596E833010BD0AF2BF61CC5211641C89949CA017B0CC84580936F252F5F835814AED5F7F66466FD13C3D7EFE5A9ED9273AAFADE909CB816468949DB4997B12C38DB6243B0BEEAC0DBF64243372C19E6C30
311
117C7636AE07A4AC096842428D9DF000A5F71848A69EE9E88957775C642E63480AFFC857A91E72C69CE5894E3AC17D702940B63FD926110EBD8D4EA1E7C5CE0A1EA39E0E8D9ED24F7DD3E88860C33840335C29BC5735AD9B0A687B8591423B5EEAB1820B9C4EBCD8CC8207BDFC64540E65C089881258498151D67EB0AA83B2
311
6B1A0A6F1D002F36F91F535CA77F9AA236A12A8FB8BBCDA7AC29C88B10BCD8FA4AEB5566DA5BB7E21B504B010214000A00000800005B6832403DEE336E79000000790000001B00000000000000000000000000000000006175746F6465736B2D64657369676E2D7061636B6167652E786D6C504B010214001400060808005B
311
683240D486FD9CA0000000F40000001300000000000000000000000000B20000005B436F6E74656E745F54797065735D2E786D6C504B010214001400060808005B683240D2D33481E80000007C010000080000000000000000000000000083010000636F72652E786D6C504B010214001400060808005B68324055019EA25F
311
0000007C000000070000000000000000000000000091020000636E782E786D6C504B010214001400060808005B68324078B9C2BF64010000020300000C00000000000000000000000000150300006662782F636F72652E786D6C504B010214001400060808005B683240E4A3406F7E0000009D0000000B0000000000000000
311
0000000000A30400006662782F636E782E786D6C504B010214001400060808005B6832406237C7012C0100001402000031000000000000000000000000004A0500006662782F44374432463738322D314342422D343644322D424246452D3830383939463942414642392F636F72652E786D6C504B01021400140006080800
311
5B683240AED667734C010000330300003000000000000000000000000000C50600006662782F44374432463738322D314342422D343644322D424246452D3830383939463942414642392F636E782E786D6C504B010214001400060808005B68324023023B8A9C0500007A10000034000000000000000000000000005F0800
311
006662782F44374432463738322D314342422D343644322D424246452D3830383939463942414642392F6F626A656374732E786D6C504B010214001400060800005B68324000000000000000000000000035000000000000000000000000004D0E00006662782F44374432463738322D314342422D343644322D424246452D
311
3830383939463942414642392F76657274696365732E62696E504B010214001400060808005B683240F270F13306000000040000003600000000000000000000000000A00E00006662782F44374432463738322D314342422D343644322D424246452D3830383939463942414642392F747269616E676C65732E62696E504B
311
010214001400060800005B6832400000000000000000000000003700000000000000000000000000FA0E00006662782F44374432463738322D314342422D343644322D424246452D3830383939463942414642392F617474726962757465732E62696E504B010214001400060808005B683240D5987DFC8F00000041010000
311
36000000000000000000000000004F0F00006662782F44374432463738322D314342422D343644322D424246452D3830383939463942414642392F6469726563746F72792E786D6C504B010214001400060808005B683240563EEA26FB000000A00100003B00000000000000000000000000321000006662782F4437443246
311
3738322D314342422D343644322D424246452D3830383939463942414642392F7265736F75726365732F636F72652E786D6C504B0506000000000E000E0080040000861100000000
310
504B03040A00000800005B6832403DEE336E79000000790000001B0000006175746F6465736B2D64657369676E2D7061636B6167652E786D6C3C3F786D6C2076657273696F6E3D22312E302220656E636F64696E673D227574662D3822203F3E3C666F726D6174733E3C666F726D61743E687474703A2F2F736368656D612E
310
6175746F6465736B2E636F6D2F64657369676E2D7061636B6167652F323030393C2F666F726D61743E3C2F666F726D6174733E504B03041400060808005B683240D486FD9CA0000000F4000000130000005B436F6E74656E745F54797065735D2E786D6C7D8EC10E82300C865F65E91D8A1E8C310C0EEA1BF002731658846E
310
D98AC1B77784ABF1D8FE5FBFBF75BBCE937A534CCEB38643598122B6FEE978D0B0485F9C41B54DDD7D022595594E1A469170414C76A4D9A4D207E29CF43ECE46F218070CC6BECC4078ACAA135ACF422C856C0E68EA1BF5669944DDD7BCDE7B1F8E415D77AECB980613C2E4AC91FC167A2B244592486606FC29C8FD7F045B9A
310
EF7053A7E60B504B03041400060808005B68324085DE98B9E80000007C01000008000000636F72652E786D6C8D90416EC3201045AF82668F0DD871120B13A12A39412F80803828315806AA1EBF3871A476D7D58CFEFC3733FAFCF43D3DD0975DA20B7E005A1140D6EB609C1F07C8E98A0F804E822F21A45F36405E4D768055
310
06C1C725E4799374F0C9FA54541F8CDD4415A34D80F4A33403447DB393AA544EC511EFD5ACF45D8DB6A2EFAEC0393B835E479C29FBDCD5D905442765B797E4823FDAF688DB96302CA53C62D99CC9FE5266EC2C79BDC2822737BDEFEBC5AA640D084628C384627AF8A44D4F58BFDB61D2F584F07AB5FF81F26CFE0965E753C3
310
B6775F580441CB23CF81E0F59A4529CFA04A5D73133F504B03041400060808005B68324055019EA25F0000007C00000007000000636E782E786D6C4DCB3B0E80201045D1AD90E915ED2CF8AC45050C11660C8261F98AB1B07AC9C97D42D718D865D3E909258CFD00CCE24AC6E326A164D74DC0B4128928FF326038472BA131
310
28B1252AC747C6BAB984FC68F0B87FE8960A5C09FE86CFB69FBA01504B03041400060808005B683240540AC26C63010000020300000C0000006662782F636F72652E786D6C8D52ED8E8320107C15C27F04ADFD0CD2984BFB04F70254A947AA60104C1FFFD68FC6EBA5691A1324333BBBB3A3FC786F6AD42BD7696B321C470C
310
23650A5B6A536538F82BD9617414DC59EBFF94616464A3323CC058F0CAD9D0CE50618D57C6036A6CA96650769DF21815355C32DC153FAA91910C1E2ABA5BD4CAE2262B15C511D0502778E71D1840D390E1C4E27AB9733AE18287A0CB99D5254CD357AD1C169B3CDF6C7376265F69BA2769CA1292E7F99EE4AB13DB9E814B4E
310
39A7835870AF9B87BBC229E9558945C2E284B098C4BBEF787560C961BD266C73608CD3A1FC4914DAF24351D0C6AF92D9EE24EBB088C1C848FCDB1622F2A8933DF8A182D32144788D093F070D8140C85E5EEAC71E37807A5578EB52604A1B16AA9775503095A1F1E17462A1F3D800367BD92779D3E77D0FF880D254604D7AB8
310
5E821FA6F369EA1C45AB1CE9FD1D19EB1A592FE6268BCBB90C7A292F6C6DDD276A3AAF4AE730E9F0F78A5F504B03041400060808005B68324047A28BA97D0000009D0000000B0000006662782F636E782E786D6C4DCCD10A83201886E15B91FFDC3273E1408DB6F23E625948A6C3E9D8E5AF46073BFAE0E1E315ED6773E86D
310
E2CB062FA12A0820E31F61B27E9190D38C39A056891842FABB01F2E366241C0C4A2C31E4E7499399C7ECD2AECEFAF54472ED346FC81D0F374A30AB078DB9BEF4B8EA59C3352594750C4A25CA5F69DF23ACBE504B03041400060808005B6832404E966F612B01000014020000310000006662782F30394146383630432D4542
310
32302D343345462D384635442D3144343638463230323441342F636F72652E786D6C8D514B6EC32014BC8AC52A5D6003765C27C24469139FA01720401294182C3E558E5FA81DA9DD65C343F366E60D3CBA7B8CF7E25B39AFADE9012E11289411566A73E9410C67D88162C7A8B336FCA181C2F051F520C380D18BB3715A2061
310
4D502624D458A916907BAF0228C43D5D7AE0C5558DBCE4312486BF951317377E51252E533BF118F5C1A500C53C249F80A1CD7EE85AF4098F1F04C1A63E0EB01BD607880F4DDB0D049166DFD06A16321AA3968B5CCB14479FB572AF9A6431A3418FCFF8C2291E94048C204C20C210775FB8DE22B25DAF216AB708D12AD3FF89
310
E2245F14456D424D96B8B3CC03866935371895369EEECF30EA3159178A3C6FE595784BAF2A1121ED3BDAD4B49AA9E9039267DB2C9E3E58973E78753B2576BD18B70DA355DE512ABF0B4C35EF93FD00504B03041400060808005B683240C871A8645401000033030000300000006662782F30394146383630432D454232302D
310
343345462D384635442D3144343638463230323441342F636E782E786D6CBD93CD6EC32010845F0571F76F12CB8A30917AE813F4D02B864D4283C1025C356FDF2521692E3954AA7A41D6EC30B3FA84D9EE6B32E4137CD0CE0EB4296B4AC04AA7B43D0C7489FBA2A764C799772E3ED828B162828126997276F06E99B3A4602F
310
16135135DA9EB2E821B8C54B0828A79BC438290C06802D1614611A412950E46EC4AF3D785C05C5F14CE211C8EBCB3B71E307C81858955238AB520767E9CC4D0F264AA411210C34C8234CA2144B740AC2A954228AB2296F5D4F76FA4922E9C2AD72F19AA4F281A693F2BC51891C598543CE42F4482F9BE27906CAC53C1B2D45
310
44C8D5C578F570B6681BBB75F66A04EFD1BD6ABBBEC7B0CB8CB3A827C80EE941445094B775D316755334FD5BB3DAD6ED76B329EA6E5BD7AC4A76CE46E74CBE8431E0DD4CA4B3116CA4BC61551A3FC3977D44698FAC9D3FFF022402C8AD573AF78CBFE4D374ABF5FA1FF95497F78DB83CFE05FC1B504B03041400060808005B
310
683240D7FFFE6B58070000931B0000340000006662782F30394146383630432D454232302D343345462D384635442D3144343638463230323441342F6F626A656374732E786D6CED595B6FA33814FE2B887D0E09B974DA1565D426ED285A756634D919ED4325E48043BD3506D9A697FDF57B7C81000D2DD9E9BECD430218FB
310
F89CEF5C7D083E3E65D479C05C909C9DBBBE37711DCCE23C212C3D774BB91B9DBACEC730E0792E1BD35C87A10C9FBB6AD80D8394E765618712BC4325959DD1EBCBBF1C1163865D27A648887357C47738431E2A659E6071EF2548222FDD3D79BE6726B6C9A61C15771DA205E29849E014C61950710C537EFB71E28EC360ACDE
310
8781FAB7B3668366CDFB678DB5D46D2E091312B1F8054B1D32B3412CCDFCF9EA6ABA381B2DE6F3D9687E32F54797D797AB91FF6136599E2C9767175767C0DE36CFA99529C1056609E8EFD90DFD60ACDED4A25B040E711DE78CE15803095069B1BA040916B05503BE49FBD15712355E6B091BCF73F5DEB2D0189EB5A9F4CD1A
310
06448B2E0862B7AB24AEAE4DF9F2EDDF20B81862945C6009DC0AC941BB161E0E5EE18693606C46C360BBD705114E8624E6045187922D471C940253D59430300B2C19E51C1C48394A02AD39F3BA6D5BE0996FBBCE212E7725A5CA33DC503B5604EE87A5D09C917F30DF73DF44067802694BC2E4A9E5523E17D80DCF82B11E0C
310
0375994DED4B03A4B3A328151A11F3B623E852B9FE7AE5867F5C6F9F362A1C1CDEBCE07981B95446A7F4A8F90243B6578592DDD61FA439B5008431A0DA957B50BE01F29F217AEC5901BD71F2347F9ADBB99223267639CF4037CEC4194DE06FE2F8FA5FDD37EE8271BDB8ADBD3E3CC14D1554A73F8F675B068D95E5BF016718
310
3C80C1E77C665F6D6244C19E6F08038094913834872108EDBBED931BAE217042A0875588863E880CEC3EC06D30B664F65AA9DCCB7A1D0344ED1EB3214A02D8B445021B3D7AFA04D9839378AFA6A6887DF02EDEC55C2F569B3F3625DFA118DF589F5EE11D614442D63CCC500BF39644F7F8F931E70908FA12EF4D13EFCC6E25
310
006D85B9023EAD40500FFB9D5B1BC4B02ECD55B809DED8018450B9BA41FF868818538A18CECB6ADF3ABA2943AD3DDED60C6E383510CFA61D13E6F881A8AA029C663FA3C528E4FD98934281E8869F8C6475D0F47AA4FBBEFE0C1659CFEF99B566107A19A27FEAA0750087966557485B206A81B7FB701EE734E7D1F6393291CE
310
855A02D8687BCB8F165188F546498A0A7890F6BB2AA4A446DA2821BB5D2920AE1E60F1C77AD934878937F3174EF3BFE38C7388B6E0BB885BBFEBEC11910CA538DAA1A46FBBE66E356DA149F690E67847412EF240E47384643449707A0C3447113F7B57EA29CD85200C0BC85707C16FA231F12090186D562C2BAD76802622CA
310
B044F4180414991E7075DAD1356E0CA5C3DB3CD6D6FB9AC69A44FF278BE0086AC99C45044A51C8216F32EE7B0B88216D740DCA1D7CC1DA2ADA5A0C5A4209113F478F98A477F218D40DF91EDC6338929432CA0B1483590F20FBC25794523BBC6F517CAFF2471497F4BD0C4460BA8B08A56516C18F3038790C71ED3A30BD8A42
310
83B8897D126750942159F2219B9C2C262FF631354337043636DA110A613BCA50D1837A2B20EA7AC4A9C1B7D47B94BA2DB32242595EB24186E2CDBADE64C977D5AAC80EE457958A503656842DC130204CD659B58AD960EA3AB0821BE940F51C099415D49CC2DE483C7EED4D9A72EF06DCFAE9FB6E9041E1D7A3BD66449D5730
310
581E5B8581784432BE73C38DBE8E2EA1FE4E70B24FF555ADD9AC00013115C94B4EAC8ABEAFA1BCB1359A1BDE20296E3F99AC5B5DBFAF3DE87E04635803B54BBD70AD80CE309348552637EA867E4310825B34CCF85AE5D463A85C2489AE1A11BD267DEA6C9511AD4D33E2157798E519FCD82D61312D137C8B12711FDD481A6D
310
8862DD4AE965A4C2F85501BF7CDA74E0819101227D55051E7EECACB5A34B552E1D2422EFCA6CCB108120D8122D35BAF10A965A8D545AAEAFEA4C017517189855F1FCD7C9A2D98EF875B248AD61FCDCC982E65B44F7D1A691CD6365D6479D02EAF4A4A8BCC72940771D6AAA751231B9DC8A6F7D2982985805F9C1C55815330C
310
C13E8EFF73D2EE4B8266BB0EFFC7256DFF45C1715452694D564DAA0385EBBA99C2568B0F67D78BD3ABD1C9997F399A5F4EA7A38B4B7F315A5DAD968BE9EC747576B5ACD1D47E1A06752CD3A90B9E4D4CAB86D593C5009AB222A72481C37CE2A41842BE8423FD80EE39CFB080DCD9EC7527B6273F60F58369734AB4A5B8E2E4
310
0E417F980AC8EA805119CBF6B8F31B7426259CB3CF5DE81979F7F067ADD27520F19CBBD0299024C6C2DB429749F5F33471C8B83AF55B62800F62A9CA886651FD5CAF52D8B4A27F3D654816B072B55A1850B715D0FC6A3528346F96A7F828C12B761C24E1765B4A28D68C2CFB815A18BDCD5EFD46364AD8BDDDFA095CF775B1
310
7C4FCF692132E88BC1AB4660A88E24E2A96E772BC62C4B17ABAF6368B339EB2F4E41CB1474399CD2886330E652D553604560159666812498EAF2F7DBAF3C872F3C99A38BA2DB659E6539B30F17701C4BE00B91B3B983EF3DC92D540D5875D5C5ED74E24F6F7537DB36D8A32D12D853E5100C54558412A1636C60912F3A53B6
310
6F39564AE84C5FAF1C1B3EA10B602CE84573D77CDD72C07BD47714E52BDAC32B395F6D688FF554B0060EADE8F05F504B03041400060800005B683240000000000000000000000000350000006662782F30394146383630432D454232302D343345462D384635442D3144343638463230323441342F76657274696365732E62
310
696E504B03041400060808005B683240F270F1330600000004000000360000006662782F30394146383630432D454232302D343345462D384635442D3144343638463230323441342F747269616E676C65732E62696E636660600000504B03041400060800005B683240000000000000000000000000370000006662782F30
310
394146383630432D454232302D343345462D384635442D3144343638463230323441342F617474726962757465732E62696E504B03041400060808005B683240D5987DFC8F00000041010000360000006662782F30394146383630432D454232302D343345462D384635442D3144343638463230323441342F646972656374
310
6F72792E786D6C858F410EC2201045AF4266AF15DDB800BA74E7C21B903225242D6328188F2FA5C4183471359997F9FF81E89FF3C41E1816475E02DF1F80A11FC8386F25A438EECEC07A250251FC3803E6F58C12560C4AD840E95E91C151A72936F496F35732D860FE635F62C8F2DA16B505C545B74125BAA2FA9E05D7CC05
310
3D063734D5C7665FD55B6B8D15D5E9BFEAFD8490FFA45E504B03041400060808005B683240ED34C588FB000000A00100003B0000006662782F30394146383630432D454232302D343345462D384635442D3144343638463230323441342F7265736F75726365732F636F72652E786D6C8D504B6E833010BD0A9ABDC1064212
310
641C59153D412F6099496225D8C89FAAC7AF09546A77DDCC8CDE47F3F4F8E56B7E169FE883717600565228D06A37197B1B20C52B39417111DC3B177FC9A0B06AC601561804BF7997961DD2CE46B431A3D64DB8832A048C50E8673E0608FA8EB32A558A59111EE5A2F443DDB06465A6B34EF0107D0E506C4FD609C26370C96B
310
0CBCDA58C15332D3AE3153FE69AE063D884ECAEE28E948DEDAF64CDA96D6444A7926B219E9F13D73F52879B59A058F66FEC9A83DAA8813889AB29A5046D8E983353DADFBC381D0AEA79457ABFC8F292DD33F4DC9D8D8D47BDCCD1640B01CE445085EAD7DE5F52A33EFB55BF10D504B010214000A00000800005B6832403DEE
310
336E79000000790000001B00000000000000000000000000000000006175746F6465736B2D64657369676E2D7061636B6167652E786D6C504B010214001400060808005B683240D486FD9CA0000000F40000001300000000000000000000000000B20000005B436F6E74656E745F54797065735D2E786D6C504B0102140014
310
00060808005B68324085DE98B9E80000007C010000080000000000000000000000000083010000636F72652E786D6C504B010214001400060808005B68324055019EA25F0000007C000000070000000000000000000000000091020000636E782E786D6C504B010214001400060808005B683240540AC26C63010000020300
310
000C00000000000000000000000000150300006662782F636F72652E786D6C504B010214001400060808005B68324047A28BA97D0000009D0000000B00000000000000000000000000A20400006662782F636E782E786D6C504B010214001400060808005B6832404E966F612B010000140200003100000000000000000000
310
000000480500006662782F30394146383630432D454232302D343345462D384635442D3144343638463230323441342F636F72652E786D6C504B010214001400060808005B683240C871A86454010000330300003000000000000000000000000000C20600006662782F30394146383630432D454232302D343345462D3846
310
35442D3144343638463230323441342F636E782E786D6C504B010214001400060808005B683240D7FFFE6B58070000931B00003400000000000000000000000000640800006662782F30394146383630432D454232302D343345462D384635442D3144343638463230323441342F6F626A656374732E786D6C504B01021400
310
1400060800005B68324000000000000000000000000035000000000000000000000000000E1000006662782F30394146383630432D454232302D343345462D384635442D3144343638463230323441342F76657274696365732E62696E504B010214001400060808005B683240F270F1330600000004000000360000000000
310
0000000000000000611000006662782F30394146383630432D454232302D343345462D384635442D3144343638463230323441342F747269616E676C65732E62696E504B010214001400060800005B6832400000000000000000000000003700000000000000000000000000BB1000006662782F30394146383630432D4542
310
32302D343345462D384635442D3144343638463230323441342F617474726962757465732E62696E504B010214001400060808005B683240D5987DFC8F000000410100003600000000000000000000000000101100006662782F30394146383630432D454232302D343345462D384635442D3144343638463230323441342F
310
6469726563746F72792E786D6C504B010214001400060808005B683240ED34C588FB000000A00100003B00000000000000000000000000F31100006662782F30394146383630432D454232302D343345462D384635442D3144343638463230323441342F7265736F75726365732F636F72652E786D6C504B0506000000000E
310
000E0080040000471300000000
  0
XRECORD
  5
27
102
{ACAD_REACTORS
330
22
102
}
330
22
100
AcDbXrecord
280
     1
270
     1
271
     1
  0
XRECORD
  5
26
102
{ACAD_REACTORS
330
22
102
}
330
22
100
AcDbXrecord
280
     1
270
     1
271
     1
  0
XRECORD
  5
28
102
{ACAD_REACTORS
330
22
102
}
330
22
100
AcDbXrecord
280
     1
270
     1
271
     1
  0
XRECORD
  5
25
102
{ACAD_REACTORS
330
22
102
}
330
22
100
AcDbXrecord
280
     1
270
     1
271
     1
  0
XRECORD
  5
CA3
102
{ACAD_REACTORS
330
CA2
102
}
330
CA2
100
AcDbXrecord
280
     1
102
ACAD_ROUNDTRIP_2012_MLEADER_STYLE
298
     1
  0
CELLSTYLEMAP
  5
CA1
102
{ACAD_REACTORS
330
CA0
102
}
330
CA0
100
AcDbCellStyleMap
 90
        3
300
CELLSTYLE
  1
TABLEFORMAT_BEGIN
 90
        5
170
     1
 91
        0
 92
    32768
 62
   257
 93
        1
300
CONTENTFORMAT
  1
CONTENTFORMAT_BEGIN
 90
        0
 91
        0
 92
      512
 93
        0
300

 40
0.0
140
1.0
 94
        5
 62
     0
340
55
144
0.25
309
CONTENTFORMAT_END
171
     0
 94
        0
309
TABLEFORMAT_END
  1
CELLSTYLE_BEGIN
 90
        1
 91
        1
300
_TITLE
309
CELLSTYLE_END
300
CELLSTYLE
  1
TABLEFORMAT_BEGIN
 90
        5
170
     1
 91
        0
 92
        0
 62
   257
 93
        1
300
CONTENTFORMAT
  1
CONTENTFORMAT_BEGIN
 90
        0
 91
        0
 92
      512
 93
        0
300

 40
0.0
140
1.0
 94
        5
 62
     0
340
55
144
0.18
309
CONTENTFORMAT_END
171
     0
 94
        0
309
TABLEFORMAT_END
  1
CELLSTYLE_BEGIN
 90
        2
 91
        1
300
_HEADER
309
CELLSTYLE_END
300
CELLSTYLE
  1
TABLEFORMAT_BEGIN
 90
        5
170
     1
 91
        0
 92
        0
 62
   257
 93
        1
300
CONTENTFORMAT
  1
CONTENTFORMAT_BEGIN
 90
        0
 91
        0
 92
      512
 93
        0
300

 40
0.0
140
1.0
 94
        2
 62
     0
340
55
144
0.18
309
CONTENTFORMAT_END
171
     0
 94
        0
309
TABLEFORMAT_END
  1
CELLSTYLE_BEGIN
 90
        3
 91
        2
300
_DATA
309
CELLSTYLE_END
  0
XRECORD
  5
CDB
102
{ACAD_REACTORS
330
CA0
102
}
330
CA0
100
AcDbXrecord
280
     1
102
ACAD_ROUNDTRIP_PRE2007_TABLESTYLE
 90
      512
 91
        0
  1

 92
      512
 93
        0
  2

 94
      512
 95
        0
  3

  0
XRECORD
  5
CB6
102
{ACAD_REACTORS
330
CB5
102
}
330
CB5
100
AcDbXrecord
280
     1
102
RTVSPropertyOp0
 70
     1
102
RTVSPropertyOp1
 70
     1
102
RTVSPropertyOp2
 70
     1
102
RTVSPropertyOp3
 70
     1
102
RTVSPropertyOp4
 70
     1
102
RTVSPropertyOp5
 70
     1
102
RTVSPropertyOp6
 70
     1
102
RTVSPropertyOp7
 70
     1
102
RTVSPropertyOp8
 70
     1
102
RTVSPropertyOp9
 70
     1
102
RTVSPropertyOp10
 70
     1
102
RTVSPropertyOp11
 70
     1
102
RTVSPropertyOp12
 70
     1
102
RTVSPropertyOp13
 70
     1
102
RTVSPropertyOp14
 70
     1
102
RTVSPropertyOp15
 70
     1
102
RTVSPropertyOp16
 70
     1
102
RTVSPropertyOp17
 70
     1
102
RTVSPropertyOp18
 70
     1
102
RTVSPropertyOp19
 70
     1
102
RTVSPropertyOp20
 70
     1
102
RTVSPropertyOp21
 70
     1
102
RTVSPropertyOp22
 70
     1
102
RTVSPropertyOp23
 70
     1
102
RTVSPropertyOp24
 70
     1
102
RTVSPropertyOp25
 70
     1
102
RTVSPropertyOp26
 70
     1
102
RTVSPropertyOp27
 70
     1
102
RTVSPropertyOp28
 70
     1
102
RTVSPropertyOp29
 70
     1
102
RTVSPropertyOp30
 70
     1
102
RTVSPropertyOp31
 70
     1
102
RTVSPropertyOp32
 70
     1
  0
XRECORD
  5
CB4
102
{ACAD_REACTORS
330
CB3
102
}
330
CB3
100
AcDbXrecord
280
     1
102
RTVSPropertyOp0
 70
     1
102
RTVSPropertyOp1
 70
     1
102
RTVSPropertyOp2
 70
     1
102
RTVSPropertyOp3
 70
     1
102
RTVSPropertyOp4
 70
     1
102
RTVSPropertyOp5
 70
     1
102
RTVSPropertyOp6
 70
     1
102
RTVSPropertyOp7
 70
     1
102
RTVSPropertyOp8
 70
     1
102
RTVSPropertyOp9
 70
     1
102
RTVSPropertyOp10
 70
     1
102
RTVSPropertyOp11
 70
     1
102
RTVSPropertyOp12
 70
     1
102
RTVSPropertyOp13
 70
     1
102
RTVSPropertyOp14
 70
     1
102
RTVSPropertyOp15
 70
     1
102
RTVSPropertyOp16
 70
     1
102
RTVSPropertyOp17
 70
     1
102
RTVSPropertyOp18
 70
     1
102
RTVSPropertyOp19
 70
     1
102
RTVSPropertyOp20
 70
     1
102
RTVSPropertyOp21
 70
     1
102
RTVSPropertyOp22
 70
     1
102
RTVSPropertyOp23
 70
     1
102
RTVSPropertyOp24
 70
     1
102
RTVSPropertyOp25
 70
     1
102
RTVSPropertyOp26
 70
     1
102
RTVSPropertyOp27
 70
     1
102
RTVSPropertyOp28
 70
     1
102
RTVSPropertyOp29
 70
     1
102
RTVSPropertyOp30
 70
     1
102
RTVSPropertyOp31
 70
     1
102
RTVSPropertyOp32
 70
     1
  0
XRECORD
  5
CC2
102
{ACAD_REACTORS
330
CC1
102
}
330
CC1
100
AcDbXrecord
280
     1
102
RTVSPropertyOp0
 70
     1
102
RTVSPropertyOp1
 70
     1
102
RTVSPropertyOp2
 70
     1
102
RTVSPropertyOp3
 70
     1
102
RTVSPropertyOp4
 70
     1
102
RTVSPropertyOp5
 70
     1
102
RTVSPropertyOp6
 70
     1
102
RTVSPropertyOp7
 70
     1
102
RTVSPropertyOp8
 70
     1
102
RTVSPropertyOp9
 70
     1
102
RTVSPropertyOp10
 70
     1
102
RTVSPropertyOp11
 70
     1
102
RTVSPropertyOp12
 70
     1
102
RTVSPropertyOp13
 70
     1
102
RTVSPropertyOp14
 70
     1
102
RTVSPropertyOp15
 70
     1
102
RTVSPropertyOp16
 70
     1
102
RTVSPropertyOp17
 70
     1
102
RTVSPropertyOp18
 70
     1
102
RTVSPropertyOp19
 70
     1
102
RTVSPropertyOp20
 70
     1
102
RTVSPropertyOp21
 70
     1
102
RTVSPropertyOp22
 70
     1
102
RTVSPropertyOp23
 70
     1
102
RTVSPropertyOp24
 70
     1
102
RTVSPropertyOp25
 70
     1
102
RTVSPropertyOp26
 70
     1
102
RTVSPropertyOp27
 70
     1
102
RTVSPropertyOp28
 70
     1
102
RTVSPropertyOp29
 70
     1
102
RTVSPropertyOp30
 70
     1
102
RTVSPropertyOp31
 70
     1
102
RTVSPropertyOp32
 70
     1
  0
XRECORD
  5
CCA
102
{ACAD_REACTORS
330
CC9
102
}
330
CC9
100
AcDbXrecord
280
     1
102
RTVSPropertyOp0
 70
     1
102
RTVSPropertyOp1
 70
     1
102
RTVSPropertyOp2
 70
     1
102
RTVSPropertyOp3
 70
     1
102
RTVSPropertyOp4
 70
     1
102
RTVSPropertyOp5
 70
     1
102
RTVSPropertyOp6
 70
     1
102
RTVSPropertyOp7
 70
     1
102
RTVSPropertyOp8
 70
     1
102
RTVSPropertyOp9
 70
     1
102
RTVSPropertyOp10
 70
     1
102
RTVSPropertyOp11
 70
     1
102
RTVSPropertyOp12
 70
     1
102
RTVSPropertyOp13
 70
     1
102
RTVSPropertyOp14
 70
     1
102
RTVSPropertyOp15
 70
     1
102
RTVSPropertyOp16
 70
     1
102
RTVSPropertyOp17
 70
     1
102
RTVSPropertyOp18
 70
     1
102
RTVSPropertyOp19
 70
     1
102
RTVSPropertyOp20
 70
     1
102
RTVSPropertyOp21
 70
     1
102
RTVSPropertyOp22
 70
     1
102
RTVSPropertyOp23
 70
     1
102
RTVSPropertyOp24
 70
     1
102
RTVSPropertyOp25
 70
     1
102
RTVSPropertyOp26
 70
     1
102
RTVSPropertyOp27
 70
     1
102
RTVSPropertyOp28
 70
     1
102
RTVSPropertyOp29
 70
     1
102
RTVSPropertyOp30
 70
     1
102
RTVSPropertyOp31
 70
     1
102
RTVSPropertyOp32
 70
     1
  0
XRECORD
  5
CBC
102
{ACAD_REACTORS
330
CBB
102
}
330
CBB
100
AcDbXrecord
280
     1
102
RTVSPropertyOp0
 70
     1
102
RTVSPropertyOp1
 70
     1
102
RTVSPropertyOp2
 70
     1
102
RTVSPropertyOp3
 70
     1
102
RTVSPropertyOp4
 70
     1
102
RTVSPropertyOp5
 70
     1
102
RTVSPropertyOp6
 70
     1
102
RTVSPropertyOp7
 70
     1
102
RTVSPropertyOp8
 70
     1
102
RTVSPropertyOp9
 70
     1
102
RTVSPropertyOp10
 70
     1
102
RTVSPropertyOp11
 70
     1
102
RTVSPropertyOp12
 70
     1
102
RTVSPropertyOp13
 70
     1
102
RTVSPropertyOp14
 70
     1
102
RTVSPropertyOp15
 70
     1
102
RTVSPropertyOp16
 70
     1
102
RTVSPropertyOp17
 70
     1
102
RTVSPropertyOp18
 70
     1
102
RTVSPropertyOp19
 70
     1
102
RTVSPropertyOp20
 70
     1
102
RTVSPropertyOp21
 70
     1
102
RTVSPropertyOp22
 70
     1
102
RTVSPropertyOp23
 70
     1
102
RTVSPropertyOp24
 70
     1
102
RTVSPropertyOp25
 70
     1
102
RTVSPropertyOp26
 70
     1
102
RTVSPropertyOp27
 70
     1
102
RTVSPropertyOp28
 70
     1
102
RTVSPropertyOp29
 70
     1
102
RTVSPropertyOp30
 70
     1
102
RTVSPropertyOp31
 70
     1
102
RTVSPropertyOp32
 70
     1
  0
XRECORD
  5
CC0
102
{ACAD_REACTORS
330
CBF
102
}
330
CBF
100
AcDbXrecord
280
     1
102
RTVSPropertyOp0
 70
     1
102
RTVSPropertyOp1
 70
     1
102
RTVSPropertyOp2
 70
     1
102
RTVSPropertyOp3
 70
     1
102
RTVSPropertyOp4
 70
     1
102
RTVSPropertyOp5
 70
     1
102
RTVSPropertyOp6
 70
     1
102
RTVSPropertyOp7
 70
     1
102
RTVSPropertyOp8
 70
     1
102
RTVSPropertyOp9
 70
     1
102
RTVSPropertyOp10
 70
     1
102
RTVSPropertyOp11
 70
     1
102
RTVSPropertyOp12
 70
     1
102
RTVSPropertyOp13
 70
     1
102
RTVSPropertyOp14
 70
     1
102
RTVSPropertyOp15
 70
     1
102
RTVSPropertyOp16
 70
     1
102
RTVSPropertyOp17
 70
     1
102
RTVSPropertyOp18
 70
     1
102
RTVSPropertyOp19
 70
     1
102
RTVSPropertyOp20
 70
     1
102
RTVSPropertyOp21
 70
     1
102
RTVSPropertyOp22
 70
     1
102
RTVSPropertyOp23
 70
     1
102
RTVSPropertyOp24
 70
     1
102
RTVSPropertyOp25
 70
     1
102
RTVSPropertyOp26
 70
     1
102
RTVSPropertyOp27
 70
     1
102
RTVSPropertyOp28
 70
     1
102
RTVSPropertyOp29
 70
     1
102
RTVSPropertyOp30
 70
     1
102
RTVSPropertyOp31
 70
     1
102
RTVSPropertyOp32
 70
     1
  0
XRECORD
  5
CDA
102
{ACAD_REACTORS
330
CD9
102
}
330
CD9
100
AcDbXrecord
280
     1
102
RTVSPropertyOp0
 70
     0
102
RTVSPropertyOp1
 70
     0
102
RTVSPropertyOp2
 70
     0
102
RTVSPropertyOp3
 70
     0
102
RTVSPropertyOp4
 70
     0
102
RTVSPropertyOp5
 70
     0
102
RTVSPropertyOp6
 70
     0
102
RTVSPropertyOp7
 70
     0
102
RTVSPropertyOp8
 70
     0
102
RTVSPropertyOp9
 70
     0
102
RTVSPropertyOp10
 70
     0
102
RTVSPropertyOp11
 70
     0
102
RTVSPropertyOp12
 70
     0
102
RTVSPropertyOp13
 70
     0
102
RTVSPropertyOp14
 70
     2
102
RTVSPropertyOp15
 70
     0
102
RTVSPropertyOp16
 70
     0
102
RTVSPropertyOp17
 70
     0
102
RTVSPropertyOp18
 70
     0
102
RTVSPropertyOp19
 70
     0
102
RTVSPropertyOp20
 70
     0
102
RTVSPropertyOp21
 70
     0
102
RTVSPropertyOp22
 70
     0
102
RTVSPropertyOp23
 70
     0
102
RTVSPropertyOp24
 70
     0
102
RTVSPropertyOp25
 70
     0
102
RTVSPropertyOp26
 70
     0
102
RTVSPropertyOp27
 70
     0
102
RTVSPropertyOp28
 70
     1
102
RTVSPropertyOp29
 70
     1
102
RTVSPropertyOp30
 70
     1
102
RTVSPropertyOp31
 70
     1
102
RTVSPropertyOp32
 70
     1
  0
XRECORD
  5
CC8
102
{ACAD_REACTORS
330
CC7
102
}
330
CC7
100
AcDbXrecord
280
     1
102
RTVSPropertyOp0
 70
     1
102
RTVSPropertyOp1
 70
     1
102
RTVSPropertyOp2
 70
     1
102
RTVSPropertyOp3
 70
     1
102
RTVSPropertyOp4
 70
     1
102
RTVSPropertyOp5
 70
     1
102
RTVSPropertyOp6
 70
     1
102
RTVSPropertyOp7
 70
     1
102
RTVSPropertyOp8
 70
     1
102
RTVSPropertyOp9
 70
     1
102
RTVSPropertyOp10
 70
     1
102
RTVSPropertyOp11
 70
     1
102
RTVSPropertyOp12
 70
     1
102
RTVSPropertyOp13
 70
     1
102
RTVSPropertyOp14
 70
     1
102
RTVSPropertyOp15
 70
     1
102
RTVSPropertyOp16
 70
     1
102
RTVSPropertyOp17
 70
     1
102
RTVSPropertyOp18
 70
     1
102
RTVSPropertyOp19
 70
     1
102
RTVSPropertyOp20
 70
     1
102
RTVSPropertyOp21
 70
     1
102
RTVSPropertyOp22
 70
     1
102
RTVSPropertyOp23
 70
     1
102
RTVSPropertyOp24
 70
     1
102
RTVSPropertyOp25
 70
     1
102
RTVSPropertyOp26
 70
     1
102
RTVSPropertyOp27
 70
     1
102
RTVSPropertyOp28
 70
     1
102
RTVSPropertyOp29
 70
     1
102
RTVSPropertyOp30
 70
     1
102
RTVSPropertyOp31
 70
     1
102
RTVSPropertyOp32
 70
     1
  0
XRECORD
  5
CAC
102
{ACAD_REACTORS
330
CAB
102
}
330
CAB
100
AcDbXrecord
280
     1
102
RTVSPropertyOp0
 70
     1
102
RTVSPropertyOp1
 70
     1
102
RTVSPropertyOp2
 70
     1
102
RTVSPropertyOp3
 70
     1
102
RTVSPropertyOp4
 70
     1
102
RTVSPropertyOp5
 70
     1
102
RTVSPropertyOp6
 70
     1
102
RTVSPropertyOp7
 70
     1
102
RTVSPropertyOp8
 70
     1
102
RTVSPropertyOp9
 70
     1
102
RTVSPropertyOp10
 70
     1
102
RTVSPropertyOp11
 70
     1
102
RTVSPropertyOp12
 70
     1
102
RTVSPropertyOp13
 70
     1
102
RTVSPropertyOp14
 70
     1
102
RTVSPropertyOp15
 70
     1
102
RTVSPropertyOp16
 70
     1
102
RTVSPropertyOp17
 70
     1
102
RTVSPropertyOp18
 70
     1
102
RTVSPropertyOp19
 70
     1
102
RTVSPropertyOp20
 70
     1
102
RTVSPropertyOp21
 70
     1
102
RTVSPropertyOp22
 70
     1
102
RTVSPropertyOp23
 70
     1
102
RTVSPropertyOp24
 70
     1
102
RTVSPropertyOp25
 70
     1
102
RTVSPropertyOp26
 70
     1
102
RTVSPropertyOp27
 70
     1
102
RTVSPropertyOp28
 70
     1
102
RTVSPropertyOp29
 70
     1
102
RTVSPropertyOp30
 70
     1
102
RTVSPropertyOp31
 70
     1
102
RTVSPropertyOp32
 70
     1
  0
XRECORD
  5
CAE
102
{ACAD_REACTORS
330
CAD
102
}
330
CAD
100
AcDbXrecord
280
     1
102
RTVSPropertyOp0
 70
     1
102
RTVSPropertyOp1
 70
     1
102
RTVSPropertyOp2
 70
     1
102
RTVSPropertyOp3
 70
     1
102
RTVSPropertyOp4
 70
     1
102
RTVSPropertyOp5
 70
     1
102
RTVSPropertyOp6
 70
     1
102
RTVSPropertyOp7
 70
     1
102
RTVSPropertyOp8
 70
     1
102
RTVSPropertyOp9
 70
     1
102
RTVSPropertyOp10
 70
     1
102
RTVSPropertyOp11
 70
     1
102
RTVSPropertyOp12
 70
     1
102
RTVSPropertyOp13
 70
     1
102
RTVSPropertyOp14
 70
     1
102
RTVSPropertyOp15
 70
     1
102
RTVSPropertyOp16
 70
     1
102
RTVSPropertyOp17
 70
     1
102
RTVSPropertyOp18
 70
     1
102
RTVSPropertyOp19
 70
     1
102
RTVSPropertyOp20
 70
     1
102
RTVSPropertyOp21
 70
     1
102
RTVSPropertyOp22
 70
     1
102
RTVSPropertyOp23
 70
     1
102
RTVSPropertyOp24
 70
     1
102
RTVSPropertyOp25
 70
     1
102
RTVSPropertyOp26
 70
     1
102
RTVSPropertyOp27
 70
     1
102
RTVSPropertyOp28
 70
     1
102
RTVSPropertyOp29
 70
     1
102
RTVSPropertyOp30
 70
     1
102
RTVSPropertyOp31
 70
     1
102
RTVSPropertyOp32
 70
     1
  0
XRECORD
  5
CB0
102
{ACAD_REACTORS
330
CAF
102
}
330
CAF
100
AcDbXrecord
280
     1
102
RTVSPropertyOp0
 70
     1
102
RTVSPropertyOp1
 70
     1
102
RTVSPropertyOp2
 70
     1
102
RTVSPropertyOp3
 70
     1
102
RTVSPropertyOp4
 70
     1
102
RTVSPropertyOp5
 70
     1
102
RTVSPropertyOp6
 70
     1
102
RTVSPropertyOp7
 70
     1
102
RTVSPropertyOp8
 70
     1
102
RTVSPropertyOp9
 70
     1
102
RTVSPropertyOp10
 70
     1
102
RTVSPropertyOp11
 70
     1
102
RTVSPropertyOp12
 70
     1
102
RTVSPropertyOp13
 70
     1
102
RTVSPropertyOp14
 70
     1
102
RTVSPropertyOp15
 70
     1
102
RTVSPropertyOp16
 70
     1
102
RTVSPropertyOp17
 70
     1
102
RTVSPropertyOp18
 70
     1
102
RTVSPropertyOp19
 70
     1
102
RTVSPropertyOp20
 70
     1
102
RTVSPropertyOp21
 70
     1
102
RTVSPropertyOp22
 70
     1
102
RTVSPropertyOp23
 70
     1
102
RTVSPropertyOp24
 70
     1
102
RTVSPropertyOp25
 70
     1
102
RTVSPropertyOp26
 70
     1
102
RTVSPropertyOp27
 70
     1
102
RTVSPropertyOp28
 70
     1
102
RTVSPropertyOp29
 70
     1
102
RTVSPropertyOp30
 70
     1
102
RTVSPropertyOp31
 70
     1
102
RTVSPropertyOp32
 70
     1
  0
XRECORD
  5
CB2
102
{ACAD_REACTORS
330
CB1
102
}
330
CB1
100
AcDbXrecord
280
     1
102
RTVSPropertyOp0
 70
     1
102
RTVSPropertyOp1
 70
     1
102
RTVSPropertyOp2
 70
     1
102
RTVSPropertyOp3
 70
     1
102
RTVSPropertyOp4
 70
     1
102
RTVSPropertyOp5
 70
     1
102
RTVSPropertyOp6
 70
     1
102
RTVSPropertyOp7
 70
     1
102
RTVSPropertyOp8
 70
     1
102
RTVSPropertyOp9
 70
     1
102
RTVSPropertyOp10
 70
     1
102
RTVSPropertyOp11
 70
     1
102
RTVSPropertyOp12
 70
     1
102
RTVSPropertyOp13
 70
     1
102
RTVSPropertyOp14
 70
     1
102
RTVSPropertyOp15
 70
     1
102
RTVSPropertyOp16
 70
     1
102
RTVSPropertyOp17
 70
     1
102
RTVSPropertyOp18
 70
     1
102
RTVSPropertyOp19
 70
     1
102
RTVSPropertyOp20
 70
     1
102
RTVSPropertyOp21
 70
     1
102
RTVSPropertyOp22
 70
     1
102
RTVSPropertyOp23
 70
     1
102
RTVSPropertyOp24
 70
     1
102
RTVSPropertyOp25
 70
     1
102
RTVSPropertyOp26
 70
     1
102
RTVSPropertyOp27
 70
     1
102
RTVSPropertyOp28
 70
     1
102
RTVSPropertyOp29
 70
     1
102
RTVSPropertyOp30
 70
     1
102
RTVSPropertyOp31
 70
     1
102
RTVSPropertyOp32
 70
     1
  0
XRECORD
  5
CBA
102
{ACAD_REACTORS
330
CB9
102
}
330
CB9
100
AcDbXrecord
280
     1
102
RTVSPropertyOp0
 70
     1
102
RTVSPropertyOp1
 70
     1
102
RTVSPropertyOp2
 70
     1
102
RTVSPropertyOp3
 70
     1
102
RTVSPropertyOp4
 70
     1
102
RTVSPropertyOp5
 70
     1
102
RTVSPropertyOp6
 70
     1
102
RTVSPropertyOp7
 70
     1
102
RTVSPropertyOp8
 70
     1
102
RTVSPropertyOp9
 70
     1
102
RTVSPropertyOp10
 70
     1
102
RTVSPropertyOp11
 70
     1
102
RTVSPropertyOp12
 70
     1
102
RTVSPropertyOp13
 70
     1
102
RTVSPropertyOp14
 70
     1
102
RTVSPropertyOp15
 70
     1
102
RTVSPropertyOp16
 70
     1
102
RTVSPropertyOp17
 70
     1
102
RTVSPropertyOp18
 70
     1
102
RTVSPropertyOp19
 70
     1
102
RTVSPropertyOp20
 70
     1
102
RTVSPropertyOp21
 70
     1
102
RTVSPropertyOp22
 70
     1
102
RTVSPropertyOp23
 70
     1
102
RTVSPropertyOp24
 70
     1
102
RTVSPropertyOp25
 70
     1
102
RTVSPropertyOp26
 70
     1
102
RTVSPropertyOp27
 70
     1
102
RTVSPropertyOp28
 70
     1
102
RTVSPropertyOp29
 70
     1
102
RTVSPropertyOp30
 70
     1
102
RTVSPropertyOp31
 70
     1
102
RTVSPropertyOp32
 70
     1
  0
XRECORD
  5
CD6
102
{ACAD_REACTORS
330
CD5
102
}
330
CD5
100
AcDbXrecord
280
     1
102
RTVSPropertyOp0
 70
     0
102
RTVSPropertyOp1
 70
     0
102
RTVSPropertyOp2
 70
     0
102
RTVSPropertyOp3
 70
     0
102
RTVSPropertyOp4
 70
     0
102
RTVSPropertyOp5
 70
     0
102
RTVSPropertyOp6
 70
     0
102
RTVSPropertyOp7
 70
     0
102
RTVSPropertyOp8
 70
     0
102
RTVSPropertyOp9
 70
     0
102
RTVSPropertyOp10
 70
     0
102
RTVSPropertyOp11
 70
     0
102
RTVSPropertyOp12
 70
     0
102
RTVSPropertyOp13
 70
     0
102
RTVSPropertyOp14
 70
     2
102
RTVSPropertyOp15
 70
     0
102
RTVSPropertyOp16
 70
     0
102
RTVSPropertyOp17
 70
     0
102
RTVSPropertyOp18
 70
     0
102
RTVSPropertyOp19
 70
     0
102
RTVSPropertyOp20
 70
     0
102
RTVSPropertyOp21
 70
     0
102
RTVSPropertyOp22
 70
     0
102
RTVSPropertyOp23
 70
     0
102
RTVSPropertyOp24
 70
     0
102
RTVSPropertyOp25
 70
     0
102
RTVSPropertyOp26
 70
     0
102
RTVSPropertyOp27
 70
     0
102
RTVSPropertyOp28
 70
     1
102
RTVSPropertyOp29
 70
     1
102
RTVSPropertyOp30
 70
     1
102
RTVSPropertyOp31
 70
     1
102
RTVSPropertyOp32
 70
     1
  0
XRECORD
  5
CC6
102
{ACAD_REACTORS
330
CC5
102
}
330
CC5
100
AcDbXrecord
280
     1
102
RTVSPropertyOp0
 70
     1
102
RTVSPropertyOp1
 70
     1
102
RTVSPropertyOp2
 70
     1
102
RTVSPropertyOp3
 70
     1
102
RTVSPropertyOp4
 70
     1
102
RTVSPropertyOp5
 70
     1
102
RTVSPropertyOp6
 70
     1
102
RTVSPropertyOp7
 70
     1
102
RTVSPropertyOp8
 70
     1
102
RTVSPropertyOp9
 70
     1
102
RTVSPropertyOp10
 70
     1
102
RTVSPropertyOp11
 70
     1
102
RTVSPropertyOp12
 70
     1
102
RTVSPropertyOp13
 70
     1
102
RTVSPropertyOp14
 70
     1
102
RTVSPropertyOp15
 70
     1
102
RTVSPropertyOp16
 70
     1
102
RTVSPropertyOp17
 70
     1
102
RTVSPropertyOp18
 70
     1
102
RTVSPropertyOp19
 70
     1
102
RTVSPropertyOp20
 70
     1
102
RTVSPropertyOp21
 70
     1
102
RTVSPropertyOp22
 70
     1
102
RTVSPropertyOp23
 70
     1
102
RTVSPropertyOp24
 70
     1
102
RTVSPropertyOp25
 70
     1
102
RTVSPropertyOp26
 70
     1
102
RTVSPropertyOp27
 70
     1
102
RTVSPropertyOp28
 70
     1
102
RTVSPropertyOp29
 70
     1
102
RTVSPropertyOp30
 70
     1
102
RTVSPropertyOp31
 70
     1
102
RTVSPropertyOp32
 70
     1
  0
XRECORD
  5
CD8
102
{ACAD_REACTORS
330
CD7
102
}
330
CD7
100
AcDbXrecord
280
     1
102
RTVSPropertyOp0
 70
     0
102
RTVSPropertyOp1
 70
     0
102
RTVSPropertyOp2
 70
     0
102
RTVSPropertyOp3
 70
     0
102
RTVSPropertyOp4
 70
     0
102
RTVSPropertyOp5
 70
     0
102
RTVSPropertyOp6
 70
     0
102
RTVSPropertyOp7
 70
     0
102
RTVSPropertyOp8
 70
     0
102
RTVSPropertyOp9
 70
     0
102
RTVSPropertyOp10
 70
     0
102
RTVSPropertyOp11
 70
     0
102
RTVSPropertyOp12
 70
     0
102
RTVSPropertyOp13
 70
     0
102
RTVSPropertyOp14
 70
     2
102
RTVSPropertyOp15
 70
     0
102
RTVSPropertyOp16
 70
     0
102
RTVSPropertyOp17
 70
     0
102
RTVSPropertyOp18
 70
     0
102
RTVSPropertyOp19
 70
     0
102
RTVSPropertyOp20
 70
     0
102
RTVSPropertyOp21
 70
     0
102
RTVSPropertyOp22
 70
     0
102
RTVSPropertyOp23
 70
     0
102
RTVSPropertyOp24
 70
     0
102
RTVSPropertyOp25
 70
     0
102
RTVSPropertyOp26
 70
     0
102
RTVSPropertyOp27
 70
     0
102
RTVSPropertyOp28
 70
     1
102
RTVSPropertyOp29
 70
     1
102
RTVSPropertyOp30
 70
     1
102
RTVSPropertyOp31
 70
     1
102
RTVSPropertyOp32
 70
     1
  0
XRECORD
  5
CBE
102
{ACAD_REACTORS
330
CBD
102
}
330
CBD
100
AcDbXrecord
280
     1
102
RTVSPropertyOp0
 70
     1
102
RTVSPropertyOp1
 70
     1
102
RTVSPropertyOp2
 70
     1
102
RTVSPropertyOp3
 70
     1
102
RTVSPropertyOp4
 70
     1
102
RTVSPropertyOp5
 70
     1
102
RTVSPropertyOp6
 70
     1
102
RTVSPropertyOp7
 70
     1
102
RTVSPropertyOp8
 70
     1
102
RTVSPropertyOp9
 70
     1
102
RTVSPropertyOp10
 70
     1
102
RTVSPropertyOp11
 70
     1
102
RTVSPropertyOp12
 70
     1
102
RTVSPropertyOp13
 70
     1
102
RTVSPropertyOp14
 70
     1
102
RTVSPropertyOp15
 70
     1
102
RTVSPropertyOp16
 70
     1
102
RTVSPropertyOp17
 70
     1
102
RTVSPropertyOp18
 70
     1
102
RTVSPropertyOp19
 70
     1
102
RTVSPropertyOp20
 70
     1
102
RTVSPropertyOp21
 70
     1
102
RTVSPropertyOp22
 70
     1
102
RTVSPropertyOp23
 70
     1
102
RTVSPropertyOp24
 70
     1
102
RTVSPropertyOp25
 70
     1
102
RTVSPropertyOp26
 70
     1
102
RTVSPropertyOp27
 70
     1
102
RTVSPropertyOp28
 70
     1
102
RTVSPropertyOp29
 70
     1
102
RTVSPropertyOp30
 70
     1
102
RTVSPropertyOp31
 70
     1
102
RTVSPropertyOp32
 70
     1
  0
XRECORD
  5
CD4
102
{ACAD_REACTORS
330
CD3
102
}
330
CD3
100
AcDbXrecord
280
     1
102
RTVSPropertyOp0
 70
     1
102
RTVSPropertyOp1
 70
     1
102
RTVSPropertyOp2
 70
     1
102
RTVSPropertyOp3
 70
     1
102
RTVSPropertyOp4
 70
     1
102
RTVSPropertyOp5
 70
     1
102
RTVSPropertyOp6
 70
     1
102
RTVSPropertyOp7
 70
     1
102
RTVSPropertyOp8
 70
     1
102
RTVSPropertyOp9
 70
     1
102
RTVSPropertyOp10
 70
     1
102
RTVSPropertyOp11
 70
     1
102
RTVSPropertyOp12
 70
     1
102
RTVSPropertyOp13
 70
     1
102
RTVSPropertyOp14
 70
     1
102
RTVSPropertyOp15
 70
     1
102
RTVSPropertyOp16
 70
     1
102
RTVSPropertyOp17
 70
     1
102
RTVSPropertyOp18
 70
     1
102
RTVSPropertyOp19
 70
     1
102
RTVSPropertyOp20
 70
     1
102
RTVSPropertyOp21
 70
     1
102
RTVSPropertyOp22
 70
     1
102
RTVSPropertyOp23
 70
     1
102
RTVSPropertyOp24
 70
     1
102
RTVSPropertyOp25
 70
     1
102
RTVSPropertyOp26
 70
     1
102
RTVSPropertyOp27
 70
     1
102
RTVSPropertyOp28
 70
     1
102
RTVSPropertyOp29
 70
     1
102
RTVSPropertyOp30
 70
     1
102
RTVSPropertyOp31
 70
     1
102
RTVSPropertyOp32
 70
     1
  0
XRECORD
  5
CD2
102
{ACAD_REACTORS
330
CD1
102
}
330
CD1
100
AcDbXrecord
280
     1
102
RTVSPropertyOp0
 70
     1
102
RTVSPropertyOp1
 70
     1
102
RTVSPropertyOp2
 70
     1
102
RTVSPropertyOp3
 70
     1
102
RTVSPropertyOp4
 70
     1
102
RTVSPropertyOp5
 70
     1
102
RTVSPropertyOp6
 70
     1
102
RTVSPropertyOp7
 70
     1
102
RTVSPropertyOp8
 70
     1
102
RTVSPropertyOp9
 70
     1
102
RTVSPropertyOp10
 70
     1
102
RTVSPropertyOp11
 70
     1
102
RTVSPropertyOp12
 70
     1
102
RTVSPropertyOp13
 70
     1
102
RTVSPropertyOp14
 70
     1
102
RTVSPropertyOp15
 70
     1
102
RTVSPropertyOp16
 70
     1
102
RTVSPropertyOp17
 70
     1
102
RTVSPropertyOp18
 70
     1
102
RTVSPropertyOp19
 70
     1
102
RTVSPropertyOp20
 70
     1
102
RTVSPropertyOp21
 70
     1
102
RTVSPropertyOp22
 70
     1
102
RTVSPropertyOp23
 70
     1
102
RTVSPropertyOp24
 70
     1
102
RTVSPropertyOp25
 70
     1
102
RTVSPropertyOp26
 70
     1
102
RTVSPropertyOp27
 70
     1
102
RTVSPropertyOp28
 70
     1
102
RTVSPropertyOp29
 70
     1
102
RTVSPropertyOp30
 70
     1
102
RTVSPropertyOp31
 70
     1
102
RTVSPropertyOp32
 70
     1
  0
XRECORD
  5
CCC
102
{ACAD_REACTORS
330
CCB
102
}
330
CCB
100
AcDbXrecord
280
     1
102
RTVSPropertyOp0
 70
     1
102
RTVSPropertyOp1
 70
     1
102
RTVSPropertyOp2
 70
     1
102
RTVSPropertyOp3
 70
     1
102
RTVSPropertyOp4
 70
     1
102
RTVSPropertyOp5
 70
     1
102
RTVSPropertyOp6
 70
     1
102
RTVSPropertyOp7
 70
     1
102
RTVSPropertyOp8
 70
     1
102
RTVSPropertyOp9
 70
     1
102
RTVSPropertyOp10
 70
     1
102
RTVSPropertyOp11
 70
     1
102
RTVSPropertyOp12
 70
     1
102
RTVSPropertyOp13
 70
     1
102
RTVSPropertyOp14
 70
     1
102
RTVSPropertyOp15
 70
     1
102
RTVSPropertyOp16
 70
     1
102
RTVSPropertyOp17
 70
     1
102
RTVSPropertyOp18
 70
     1
102
RTVSPropertyOp19
 70
     1
102
RTVSPropertyOp20
 70
     1
102
RTVSPropertyOp21
 70
     1
102
RTVSPropertyOp22
 70
     1
102
RTVSPropertyOp23
 70
     1
102
RTVSPropertyOp24
 70
     1
102
RTVSPropertyOp25
 70
     1
102
RTVSPropertyOp26
 70
     1
102
RTVSPropertyOp27
 70
     1
102
RTVSPropertyOp28
 70
     1
102
RTVSPropertyOp29
 70
     1
102
RTVSPropertyOp30
 70
     1
102
RTVSPropertyOp31
 70
     1
102
RTVSPropertyOp32
 70
     1
  0
XRECORD
  5
CCE
102
{ACAD_REACTORS
330
CCD
102
}
330
CCD
100
AcDbXrecord
280
     1
102
RTVSPropertyOp0
 70
     1
102
RTVSPropertyOp1
 70
     1
102
RTVSPropertyOp2
 70
     1
102
RTVSPropertyOp3
 70
     1
102
RTVSPropertyOp4
 70
     1
102
RTVSPropertyOp5
 70
     1
102
RTVSPropertyOp6
 70
     1
102
RTVSPropertyOp7
 70
     1
102
RTVSPropertyOp8
 70
     1
102
RTVSPropertyOp9
 70
     1
102
RTVSPropertyOp10
 70
     1
102
RTVSPropertyOp11
 70
     1
102
RTVSPropertyOp12
 70
     1
102
RTVSPropertyOp13
 70
     1
102
RTVSPropertyOp14
 70
     1
102
RTVSPropertyOp15
 70
     1
102
RTVSPropertyOp16
 70
     1
102
RTVSPropertyOp17
 70
     1
102
RTVSPropertyOp18
 70
     1
102
RTVSPropertyOp19
 70
     1
102
RTVSPropertyOp20
 70
     1
102
RTVSPropertyOp21
 70
     1
102
RTVSPropertyOp22
 70
     1
102
RTVSPropertyOp23
 70
     1
102
RTVSPropertyOp24
 70
     1
102
RTVSPropertyOp25
 70
     1
102
RTVSPropertyOp26
 70
     1
102
RTVSPropertyOp27
 70
     1
102
RTVSPropertyOp28
 70
     1
102
RTVSPropertyOp29
 70
     1
102
RTVSPropertyOp30
 70
     1
102
RTVSPropertyOp31
 70
     1
102
RTVSPropertyOp32
 70
     1
  0
XRECORD
  5
CC4
102
{ACAD_REACTORS
330
CC3
102
}
330
CC3
100
AcDbXrecord
280
     1
102
RTVSPropertyOp0
 70
     1
102
RTVSPropertyOp1
 70
     1
102
RTVSPropertyOp2
 70
     1
102
RTVSPropertyOp3
 70
     1
102
RTVSPropertyOp4
 70
     1
102
RTVSPropertyOp5
 70
     1
102
RTVSPropertyOp6
 70
     1
102
RTVSPropertyOp7
 70
     1
102
RTVSPropertyOp8
 70
     1
102
RTVSPropertyOp9
 70
     1
102
RTVSPropertyOp10
 70
     1
102
RTVSPropertyOp11
 70
     1
102
RTVSPropertyOp12
 70
     1
102
RTVSPropertyOp13
 70
     1
102
RTVSPropertyOp14
 70
     1
102
RTVSPropertyOp15
 70
     1
102
RTVSPropertyOp16
 70
     1
102
RTVSPropertyOp17
 70
     1
102
RTVSPropertyOp18
 70
     1
102
RTVSPropertyOp19
 70
     1
102
RTVSPropertyOp20
 70
     1
102
RTVSPropertyOp21
 70
     1
102
RTVSPropertyOp22
 70
     1
102
RTVSPropertyOp23
 70
     1
102
RTVSPropertyOp24
 70
     1
102
RTVSPropertyOp25
 70
     1
102
RTVSPropertyOp26
 70
     1
102
RTVSPropertyOp27
 70
     1
102
RTVSPropertyOp28
 70
     1
102
RTVSPropertyOp29
 70
     1
102
RTVSPropertyOp30
 70
     1
102
RTVSPropertyOp31
 70
     1
102
RTVSPropertyOp32
 70
     1
  0
XRECORD
  5
CB8
102
{ACAD_REACTORS
330
CB7
102
}
330
CB7
100
AcDbXrecord
280
     1
102
RTVSPropertyOp0
 70
     1
102
RTVSPropertyOp1
 70
     1
102
RTVSPropertyOp2
 70
     1
102
RTVSPropertyOp3
 70
     1
102
RTVSPropertyOp4
 70
     1
102
RTVSPropertyOp5
 70
     1
102
RTVSPropertyOp6
 70
     1
102
RTVSPropertyOp7
 70
     1
102
RTVSPropertyOp8
 70
     1
102
RTVSPropertyOp9
 70
     1
102
RTVSPropertyOp10
 70
     1
102
RTVSPropertyOp11
 70
     1
102
RTVSPropertyOp12
 70
     1
102
RTVSPropertyOp13
 70
     1
102
RTVSPropertyOp14
 70
     1
102
RTVSPropertyOp15
 70
     1
102
RTVSPropertyOp16
 70
     1
102
RTVSPropertyOp17
 70
     1
102
RTVSPropertyOp18
 70
     1
102
RTVSPropertyOp19
 70
     1
102
RTVSPropertyOp20
 70
     1
102
RTVSPropertyOp21
 70
     1
102
RTVSPropertyOp22
 70
     1
102
RTVSPropertyOp23
 70
     1
102
RTVSPropertyOp24
 70
     1
102
RTVSPropertyOp25
 70
     1
102
RTVSPropertyOp26
 70
     1
102
RTVSPropertyOp27
 70
     1
102
RTVSPropertyOp28
 70
     1
102
RTVSPropertyOp29
 70
     1
102
RTVSPropertyOp30
 70
     1
102
RTVSPropertyOp31
 70
     1
102
RTVSPropertyOp32
 70
     1
  0
XRECORD
  5
CD0
102
{ACAD_REACTORS
330
CCF
102
}
330
CCF
100
AcDbXrecord
280
     1
102
RTVSPropertyOp0
 70
     1
102
RTVSPropertyOp1
 70
     1
102
RTVSPropertyOp2
 70
     1
102
RTVSPropertyOp3
 70
     1
102
RTVSPropertyOp4
 70
     1
102
RTVSPropertyOp5
 70
     1
102
RTVSPropertyOp6
 70
     1
102
RTVSPropertyOp7
 70
     1
102
RTVSPropertyOp8
 70
     1
102
RTVSPropertyOp9
 70
     1
102
RTVSPropertyOp10
 70
     1
102
RTVSPropertyOp11
 70
     1
102
RTVSPropertyOp12
 70
     1
102
RTVSPropertyOp13
 70
     1
102
RTVSPropertyOp14
 70
     1
102
RTVSPropertyOp15
 70
     1
102
RTVSPropertyOp16
 70
     1
102
RTVSPropertyOp17
 70
     1
102
RTVSPropertyOp18
 70
     1
102
RTVSPropertyOp19
 70
     1
102
RTVSPropertyOp20
 70
     1
102
RTVSPropertyOp21
 70
     1
102
RTVSPropertyOp22
 70
     1
102
RTVSPropertyOp23
 70
     1
102
RTVSPropertyOp24
 70
     1
102
RTVSPropertyOp25
 70
     1
102
RTVSPropertyOp26
 70
     1
102
RTVSPropertyOp27
 70
     1
102
RTVSPropertyOp28
 70
     1
102
RTVSPropertyOp29
 70
     1
102
RTVSPropertyOp30
 70
     1
102
RTVSPropertyOp31
 70
     1
102
RTVSPropertyOp32
 70
     1
  0
ENDSEC
  0
EOF
