  0
SECTION
  2
HEADER
  9
$ACADVER
  1
AC1018
  9
$ACADMAINTVER
 70
   104
  9
$DWGCODEPAGE
  3
ANSI_1252
  9
$AUTHOR
  1
PS
  9
$REVISIONNUMBER
  1
-
  9
$CUSTOMPROPERTYTAG
  1
Manager
  9
$CUSTOMPROPERTY
  1

  9
$CUSTOMPROPERTYTAG
  1
Company
  9
$CUSTOMPROPERTY
  1

  9
$CUSTOMPROPERTYTAG
  1
Category
  9
$CUSTOMPROPERTY
  1

  9
$CUSTOMPROPERTYTAG
  1
Part Number
  9
$CUSTOMPROPERTY
  1
NP1616PP-S
  9
$CUSTOMPROPERTYTAG
  1
Description
  9
$CUSTOMPROPERTY
  1

  9
$CUSTOMPROPERTYTAG
  1
Project
  9
$CUSTOMPROPERTY
  1

  9
$CUSTOMPROPERTYTAG
  1
Designer
  9
$CUSTOMPROPERTY
  1
PS
  9
$CUSTOMPROPERTYTAG
  1
Engineer
  9
$CUSTOMPROPERTY
  1

  9
$CUSTOMPROPERTYTAG
  1
Authority
  9
$CUSTOMPROPERTY
  1

  9
$CUSTOMPROPERTYTAG
  1
Cost Center
  9
$CUSTOMPROPERTY
  1

  9
$CUSTOMPROPERTYTAG
  1
Vendor
  9
$CUSTOMPROPERTY
  1

  9
$CUSTOMPROPERTYTAG
  1
User Status
  9
$CUSTOMPROPERTY
  1

  9
$CUSTOMPROPERTYTAG
  1
Design Status
  9
$CUSTOMPROPERTY
  1
WorkInProgress
  9
$CUSTOMPROPERTYTAG
  1
Checked by
  9
$CUSTOMPROPERTY
  1
NJ
  9
$CUSTOMPROPERTYTAG
  1
Date Checked
  9
$CUSTOMPROPERTY
  1
07/04/2013
  9
$CUSTOMPROPERTYTAG
  1
Engr Approved by
  9
$CUSTOMPROPERTY
  1

  9
$CUSTOMPROPERTYTAG
  1
Date Eng Approved
  9
$CUSTOMPROPERTY
  1
07/04/2013
  9
$CUSTOMPROPERTYTAG
  1
Mfg Approved by
  9
$CUSTOMPROPERTY
  1

  9
$CUSTOMPROPERTYTAG
  1
DWG. NO
  9
$CUSTOMPROPERTY
  1

  9
$CUSTOMPROPERTYTAG
  1
NUMBER OF SHEETS
  9
$CUSTOMPROPERTY
  1
1
  9
$CUSTOMPROPERTYTAG
  1
DRAWING #
  9
$CUSTOMPROPERTY
  1
1
  9
$INSBASE
 10
0.0
 20
0.0
 30
0.0
  9
$EXTMIN
 10
0.0
 20
0.0
 30
0.0
  9
$EXTMAX
 10
51.0
 20
33.0
 30
0.0
  9
$LIMMIN
 10
0.0
 20
0.0
  9
$LIMMAX
 10
51.0
 20
33.0
  9
$ORTHOMODE
 70
     0
  9
$REGENMODE
 70
     1
  9
$FILLMODE
 70
     1
  9
$QTEXTMODE
 70
     0
  9
$MIRRTEXT
 70
     0
  9
$LTSCALE
 40
3.0
  9
$ATTMODE
 70
     1
  9
$TEXTSIZE
 40
0.2
  9
$TRACEWID
 40
0.05
  9
$TEXTSTYLE
  7
Standard
  9
$CLAYER
  8
0
  9
$CELTYPE
  6
ByLayer
  9
$CECOLOR
 62
   256
  9
$CELTSCALE
 40
1.0
  9
$DISPSILH
 70
     0
  9
$DIMSCALE
 40
1.0
  9
$DIMASZ
 40
0.0708661417322835
  9
$DIMEXO
 40
0.0625
  9
$DIMDLI
 40
0.38
  9
$DIMRND
 40
0.0
  9
$DIMDLE
 40
0.0
  9
$DIMEXE
 40
0.18
  9
$DIMTP
 40
0.0
  9
$DIMTM
 40
0.0
  9
$DIMTXT
 40
0.0708661417322835
  9
$DIMCEN
 40
0.09
  9
$DIMTSZ
 40
0.0
  9
$DIMTOL
 70
     0
  9
$DIMLIM
 70
     0
  9
$DIMTIH
 70
     1
  9
$DIMTOH
 70
     1
  9
$DIMSE1
 70
     0
  9
$DIMSE2
 70
     0
  9
$DIMTAD
 70
     0
  9
$DIMZIN
 70
     0
  9
$DIMBLK
  1

  9
$DIMASO
 70
     1
  9
$DIMSHO
 70
     1
  9
$DIMPOST
  1

  9
$DIMAPOST
  1

  9
$DIMALT
 70
     0
  9
$DIMALTD
 70
     2
  9
$DIMALTF
 40
25.4
  9
$DIMLFAC
 40
1.0
  9
$DIMTOFL
 70
     0
  9
$DIMTVP
 40
0.0
  9
$DIMTIX
 70
     0
  9
$DIMSOXD
 70
     0
  9
$DIMSAH
 70
     0
  9
$DIMBLK1
  1

  9
$DIMBLK2
  1

  9
$DIMSTYLE
  2
STANDARD
  9
$DIMCLRD
 70
     0
  9
$DIMCLRE
 70
     0
  9
$DIMCLRT
 70
     0
  9
$DIMTFAC
 40
1.0
  9
$DIMGAP
 40
0.09
  9
$DIMJUST
 70
     0
  9
$DIMSD1
 70
     0
  9
$DIMSD2
 70
     0
  9
$DIMTOLJ
 70
     1
  9
$DIMTZIN
 70
     0
  9
$DIMALTZ
 70
     0
  9
$DIMALTTZ
 70
     0
  9
$DIMUPT
 70
     0
  9
$DIMDEC
 70
     4
  9
$DIMTDEC
 70
     4
  9
$DIMALTU
 70
     2
  9
$DIMALTTD
 70
     2
  9
$DIMTXSTY
  7
Standard
  9
$DIMAUNIT
 70
     0
  9
$DIMADEC
 70
     0
  9
$DIMALTRND
 40
0.0
  9
$DIMAZIN
 70
     0
  9
$DIMDSEP
 70
    46
  9
$DIMATFIT
 70
     3
  9
$DIMFRAC
 70
     0
  9
$DIMLDRBLK
  1

  9
$DIMLUNIT
 70
     2
  9
$DIMLWD
 70
    -2
  9
$DIMLWE
 70
    -2
  9
$DIMTMOVE
 70
     0
  9
$LUNITS
 70
     2
  9
$LUPREC
 70
     4
  9
$SKETCHINC
 40
0.1
  9
$FILLETRAD
 40
0.0
  9
$AUNITS
 70
     0
  9
$AUPREC
 70
     0
  9
$MENU
  1
.
  9
$ELEVATION
 40
0.0
  9
$PELEVATION
 40
0.0
  9
$THICKNESS
 40
0.0
  9
$LIMCHECK
 70
     0
  9
$CHAMFERA
 40
0.0
  9
$CHAMFERB
 40
0.0
  9
$CHAMFERC
 40
0.0
  9
$CHAMFERD
 40
0.0
  9
$SKPOLY
 70
     0
  9
$TDCREATE
 40
2456479.525096817
  9
$TDUCREATE
 40
2456479.295930150
  9
$TDUPDATE
 40
2456479.525096829
  9
$TDUUPDATE
 40
2456479.295930162
  9
$TDINDWG
 40
0.0000407060
  9
$TDUSRTIMER
 40
0.0000407060
  9
$USRTIMER
 70
     1
  9
$ANGBASE
 50
0.0
  9
$ANGDIR
 70
     0
  9
$PDMODE
 70
     0
  9
$PDSIZE
 40
0.0
  9
$PLINEWID
 40
0.0
  9
$SPLFRAME
 70
     0
  9
$SPLINETYPE
 70
     6
  9
$SPLINESEGS
 70
     8
  9
$HANDSEED
  5
E26
  9
$SURFTAB1
 70
     6
  9
$SURFTAB2
 70
     6
  9
$SURFTYPE
 70
     6
  9
$SURFU
 70
     6
  9
$SURFV
 70
     6
  9
$UCSBASE
  2

  9
$UCSNAME
  2

  9
$UCSORG
 10
0.0
 20
0.0
 30
0.0
  9
$UCSXDIR
 10
1.0
 20
0.0
 30
0.0
  9
$UCSYDIR
 10
0.0
 20
1.0
 30
0.0
  9
$UCSORTHOREF
  2

  9
$UCSORTHOVIEW
 70
     0
  9
$UCSORGTOP
 10
0.0
 20
0.0
 30
0.0
  9
$UCSORGBOTTOM
 10
0.0
 20
0.0
 30
0.0
  9
$UCSORGLEFT
 10
0.0
 20
0.0
 30
0.0
  9
$UCSORGRIGHT
 10
0.0
 20
0.0
 30
0.0
  9
$UCSORGFRONT
 10
0.0
 20
0.0
 30
0.0
  9
$UCSORGBACK
 10
0.0
 20
0.0
 30
0.0
  9
$PUCSBASE
  2

  9
$PUCSNAME
  2

  9
$PUCSORG
 10
0.0
 20
0.0
 30
0.0
  9
$PUCSXDIR
 10
1.0
 20
0.0
 30
0.0
  9
$PUCSYDIR
 10
0.0
 20
1.0
 30
0.0
  9
$PUCSORTHOREF
  2

  9
$PUCSORTHOVIEW
 70
     0
  9
$PUCSORGTOP
 10
0.0
 20
0.0
 30
0.0
  9
$PUCSORGBOTTOM
 10
0.0
 20
0.0
 30
0.0
  9
$PUCSORGLEFT
 10
0.0
 20
0.0
 30
0.0
  9
$PUCSORGRIGHT
 10
0.0
 20
0.0
 30
0.0
  9
$PUCSORGFRONT
 10
0.0
 20
0.0
 30
0.0
  9
$PUCSORGBACK
 10
0.0
 20
0.0
 30
0.0
  9
$USERI1
 70
     0
  9
$USERI2
 70
     0
  9
$USERI3
 70
     0
  9
$USERI4
 70
     0
  9
$USERI5
 70
     0
  9
$USERR1
 40
0.0
  9
$USERR2
 40
0.0
  9
$USERR3
 40
0.0
  9
$USERR4
 40
0.0
  9
$USERR5
 40
0.0
  9
$WORLDVIEW
 70
     1
  9
$SHADEDGE
 70
     3
  9
$SHADEDIF
 70
    70
  9
$TILEMODE
 70
     1
  9
$MAXACTVP
 70
    64
  9
$PINSBASE
 10
0.0
 20
0.0
 30
0.0
  9
$PLIMCHECK
 70
     0
  9
$PEXTMIN
 10
0.0
 20
0.0
 30
0.0
  9
$PEXTMAX
 10
51.0
 20
33.0
 30
0.0
  9
$PLIMMIN
 10
0.0
 20
0.0
  9
$PLIMMAX
 10
51.0
 20
33.0
  9
$UNITMODE
 70
     0
  9
$VISRETAIN
 70
     1
  9
$PLINEGEN
 70
     0
  9
$PSLTSCALE
 70
     1
  9
$TREEDEPTH
 70
  3020
  9
$CMLSTYLE
  2
Standard
  9
$CMLJUST
 70
     0
  9
$CMLSCALE
 40
1.0
  9
$PROXYGRAPHICS
 70
     1
  9
$MEASUREMENT
 70
     0
  9
$CELWEIGHT
370
    -1
  9
$ENDCAPS
280
     0
  9
$JOINSTYLE
280
     0
  9
$LWDISPLAY
290
     0
  9
$INSUNITS
 70
     1
  9
$HYPERLINKBASE
  1

  9
$STYLESHEET
  1

  9
$XEDIT
290
     1
  9
$CEPSNTYPE
380
     0
  9
$PSTYLEMODE
290
     1
  9
$FINGERPRINTGUID
  2
{197D42A9-D572-40A7-AC02-C36BD5FE6BB9}
  9
$VERSIONGUID
  2
{0F0E31E5-E53B-45D4-B5B1-AE1F636E0629}
  9
$EXTNAMES
290
     1
  9
$PSVPSCALE
 40
0.0
  9
$OLESTARTUP
290
     0
  9
$SORTENTS
280
   127
  9
$INDEXCTL
280
     0
  9
$HIDETEXT
280
     1
  9
$XCLIPFRAME
290
     0
  9
$HALOGAP
280
     0
  9
$OBSCOLOR
 70
   257
  9
$OBSLTYPE
280
     0
  9
$INTERSECTIONDISPLAY
280
     0
  9
$INTERSECTIONCOLOR
 70
   257
  9
$DIMASSOC
280
     1
  9
$PROJECTNAME
  1

  0
ENDSEC
  0
SECTION
  2
CLASSES
  0
CLASS
  1
ACDBDICTIONARYWDFLT
  2
AcDbDictionaryWithDefault
  3
ObjectDBX Classes
 90
        0
 91
        1
280
     0
281
     0
  0
CLASS
  1
MATERIAL
  2
AcDbMaterial
  3
ObjectDBX Classes
 90
     1153
 91
        3
280
     0
281
     0
  0
CLASS
  1
VISUALSTYLE
  2
AcDbVisualStyle
  3
ObjectDBX Classes
 90
     4095
 91
       24
280
     0
281
     0
  0
CLASS
  1
SCALE
  2
AcDbScale
  3
ObjectDBX Classes
 90
     1153
 91
       17
280
     0
281
     0
  0
CLASS
  1
TABLESTYLE
  2
AcDbTableStyle
  3
ObjectDBX Classes
 90
     4095
 91
        1
280
     0
281
     0
  0
CLASS
  1
MLEADERSTYLE
  2
AcDbMLeaderStyle
  3
ACDB_MLEADERSTYLE_CLASS
 90
     4095
 91
        1
280
     0
281
     0
  0
CLASS
  1
DICTIONARYVAR
  2
AcDbDictionaryVar
  3
ObjectDBX Classes
 90
        0
 91
        8
280
     0
281
     0
  0
CLASS
  1
CELLSTYLEMAP
  2
AcDbCellStyleMap
  3
ObjectDBX Classes
 90
     1152
 91
        1
280
     0
281
     0
  0
ENDSEC
  0
SECTION
  2
TABLES
  0
TABLE
  2
VPORT
  5
8
330
0
100
AcDbSymbolTable
 70
     1
  0
VPORT
  5
57
330
8
100
AcDbSymbolTableRecord
100
AcDbViewportTableRecord
  2
*Active
 70
     0
 10
0.0
 20
0.0
 11
1.0
 21
1.0
 12
25.5
 22
16.5
 13
0.0
 23
0.0
 14
1.0
 24
1.0
 15
0.0
 25
0.0
 16
0.0
 26
0.0
 36
1.0
 17
0.0
 27
0.0
 37
0.0
 40
33.0
 41
1.545454545454545
 42
50.0
 43
0.0
 44
0.0
 50
0.0
 51
0.0
 71
     0
 72
   100
 73
     1
 74
     1
 75
     0
 76
     0
 77
     0
 78
     0
281
     0
 65
     1
110
0.0
120
0.0
130
0.0
111
1.0
121
0.0
131
0.0
112
0.0
122
1.0
132
0.0
 79
     0
146
0.0
  0
ENDTAB
  0
TABLE
  2
LTYPE
  5
5
330
0
100
AcDbSymbolTable
 70
    59
  0
LTYPE
  5
5B
330
5
100
AcDbSymbolTableRecord
100
AcDbLinetypeTableRecord
  2
ByBlock
 70
     0
  3

 72
    65
 73
     0
 40
0.0
  0
LTYPE
  5
5C
330
5
100
AcDbSymbolTableRecord
100
AcDbLinetypeTableRecord
  2
ByLayer
 70
     0
  3

 72
    65
 73
     0
 40
0.0
  0
LTYPE
  5
5D
330
5
100
AcDbSymbolTableRecord
100
AcDbLinetypeTableRecord
  2
Continuous
 70
     0
  3
Solid line
 72
    65
 73
     0
 40
0.0
  0
LTYPE
  5
7C
330
5
100
AcDbSymbolTableRecord
100
AcDbLinetypeTableRecord
  2
BY_STANDARD
 70
     0
  3
By Standard ____________    ____    ____   _
 72
    65
 73
     6
 40
1.240299999999999
 49
0.6614
 74
     0
 49
-0.0827
 74
     0
 49
0.1654
 74
     0
 49
-0.0827
 74
     0
 49
0.1654
 74
     0
 49
-0.0827
 74
     0
  0
LTYPE
  5
7D
330
5
100
AcDbSymbolTableRecord
100
AcDbLinetypeTableRecord
  2
CHAIN
 70
     0
  3
Chain ____ _ ____ _ ____ _ ____ _ ____ _ ____
 72
    65
 73
     4
 40
0.7087
 49
0.4724000000000001
 74
     0
 49
-0.0591
 74
     0
 49
0.1181
 74
     0
 49
-0.0591
 74
     0
  0
LTYPE
  5
7E
330
5
100
AcDbSymbolTableRecord
100
AcDbLinetypeTableRecord
  2
DASH_DOT
 70
     0
  3
Dash dot __ . __ . __ . __ . __ . __ . __ . __
 72
    65
 73
     4
 40
0.37
 49
0.24
 74
     0
 49
-0.06
 74
     0
 49
0.01
 74
     0
 49
-0.06
 74
     0
  0
LTYPE
  5
7F
330
5
100
AcDbSymbolTableRecord
100
AcDbLinetypeTableRecord
  2
DOUBLE_DASH_DOT
 70
     0
  3
Double-Dash Dot __ __ . __ __ . __ __ . __ _
 72
    65
 73
     6
 40
0.4398
 49
0.24
 74
     0
 49
-0.06
 74
     0
 49
0.0098
 74
     0
 49
-0.06
 74
     0
 49
0.01
 74
     0
 49
-0.06
 74
     0
  0
LTYPE
  5
80
330
5
100
AcDbSymbolTableRecord
100
AcDbLinetypeTableRecord
  2
DASH_TRIPLE_DOT
 70
     0
  3
Dash Triple-Dot _ . . . _ . . . _ . . . _
 72
    65
 73
     8
 40
0.51
 49
0.24
 74
     0
 49
-0.06
 74
     0
 49
0.01
 74
     0
 49
-0.06
 74
     0
 49
0.01
 74
     0
 49
-0.06
 74
     0
 49
0.01
 74
     0
 49
-0.06
 74
     0
  0
LTYPE
  5
81
330
5
100
AcDbSymbolTableRecord
100
AcDbLinetypeTableRecord
  2
DASHED
 70
     0
  3
Dashed __ __ __ __ __ __ __ __ __ __ __ __ __ _
 72
    65
 73
     2
 40
0.2067
 49
0.1654
 74
     0
 49
-0.0413
 74
     0
  0
LTYPE
  5
82
330
5
100
AcDbSymbolTableRecord
100
AcDbLinetypeTableRecord
  2
DASH_DOUBLE_DOT
 70
     0
  3
Dash Double-Dot __ . . __ . . __ . . __ . .
 72
    65
 73
     6
 40
0.4398
 49
0.24
 74
     0
 49
-0.06
 74
     0
 49
0.0098
 74
     0
 49
-0.06
 74
     0
 49
0.01
 74
     0
 49
-0.06
 74
     0
  0
LTYPE
  5
83
330
5
100
AcDbSymbolTableRecord
100
AcDbLinetypeTableRecord
  2
DASHED_SPACE
 70
     0
  3
Dashed Space __ __ __ __ __ __ __ __ __ __ __ _
 72
    65
 73
     2
 40
0.2067
 49
0.1654
 74
     0
 49
-0.0413
 74
     0
  0
LTYPE
  5
84
330
5
100
AcDbSymbolTableRecord
100
AcDbLinetypeTableRecord
  2
DOTTED
 70
     0
  3
Dotted . . . . . . . . . . . . . . . . . . . . 
 72
    65
 73
     2
 40
0.0482
 49
0.0069
 74
     0
 49
-0.0413
 74
     0
  0
LTYPE
  5
85
330
5
100
AcDbSymbolTableRecord
100
AcDbLinetypeTableRecord
  2
DOUBLE_DASH_CHAIN
 70
     0
  3
Double-Dash Chain ______  __  __  ______  __  _
 72
    65
 73
     6
 40
1.240299999999999
 49
0.6614
 74
     0
 49
-0.0827
 74
     0
 49
0.1654
 74
     0
 49
-0.0827
 74
     0
 49
0.1654
 74
     0
 49
-0.0827
 74
     0
  0
LTYPE
  5
87
330
5
100
AcDbSymbolTableRecord
100
AcDbLinetypeTableRecord
  2
DOUBLE_DASH_DOUBLE_DOT
 70
     0
  3
Double-Dash Double-dot _ _ . . _ _ . . _
 72
    65
 73
     8
 40
0.7400000000000001
 49
0.24
 74
     0
 49
-0.06
 74
     0
 49
0.24
 74
     0
 49
-0.06
 74
     0
 49
0.01
 74
     0
 49
-0.06
 74
     0
 49
0.01
 74
     0
 49
-0.06
 74
     0
  0
LTYPE
  5
88
330
5
100
AcDbSymbolTableRecord
100
AcDbLinetypeTableRecord
  2
DOUBLE_DASH_TRIPLE_DOT
 70
     0
  3
Double Dash Triple Dot __ __ . . . __ __ . .
 72
    65
 73
    10
 40
0.8100000000000001
 49
0.24
 74
     0
 49
-0.06
 74
     0
 49
0.24
 74
     0
 49
-0.06
 74
     0
 49
0.01
 74
     0
 49
-0.06
 74
     0
 49
0.01
 74
     0
 49
-0.06
 74
     0
 49
0.01
 74
     0
 49
-0.06
 74
     0
  0
LTYPE
  5
89
330
5
100
AcDbSymbolTableRecord
100
AcDbLinetypeTableRecord
  2
LONG_DASH_DOTTED
 70
     0
  3
Long Dash Dotted ____ . ____ . ____ . ____ . _
 72
    65
 73
     4
 40
0.3543
 49
0.2362
 74
     0
 49
-0.0295
 74
     0
 49
0.0591
 74
     0
 49
-0.0295
 74
     0
  0
LTYPE
  5
8A
330
5
100
AcDbSymbolTableRecord
100
AcDbLinetypeTableRecord
  2
LONG_DASH_DOUBLE_DOT
 70
     0
  3
Long Dash Double Dot ________  .  .  ________  
 72
    65
 73
     6
 40
0.6799999999999999
 49
0.48
 74
     0
 49
-0.06
 74
     0
 49
0.01
 74
     0
 49
-0.06
 74
     0
 49
0.01
 74
     0
 49
-0.06
 74
     0
  0
LTYPE
  5
8B
330
5
100
AcDbSymbolTableRecord
100
AcDbLinetypeTableRecord
  2
LONG_DASH_TRIPLE_DOT
 70
     0
  3
Long Dash Triple Dot ____ ... ____ ... ____
 72
    65
 73
     8
 40
0.3689
 49
0.2362
 74
     0
 49
-0.0295
 74
     0
 49
0.0049
 74
     0
 49
-0.0295
 74
     0
 49
0.0049
 74
     0
 49
-0.0295
 74
     0
 49
0.0049
 74
     0
 49
-0.0295
 74
     0
  0
LTYPE
  5
8C
330
5
100
AcDbSymbolTableRecord
100
AcDbLinetypeTableRecord
  2
BORDER
 70
     0
  3
Border __ __ . __ __ . __ __ . __ __ . __ __ .
 72
    65
 73
     6
 40
1.75
 49
0.5
 74
     0
 49
-0.25
 74
     0
 49
0.5
 74
     0
 49
-0.25
 74
     0
 49
0.0
 74
     0
 49
-0.25
 74
     0
  0
LTYPE
  5
8D
330
5
100
AcDbSymbolTableRecord
100
AcDbLinetypeTableRecord
  2
BORDER2
 70
     0
  3
Border (.5x) __.__.__.__.__.__.__.__.__.__.__.
 72
    65
 73
     6
 40
0.875
 49
0.25
 74
     0
 49
-0.125
 74
     0
 49
0.25
 74
     0
 49
-0.125
 74
     0
 49
0.0
 74
     0
 49
-0.125
 74
     0
  0
LTYPE
  5
8E
330
5
100
AcDbSymbolTableRecord
100
AcDbLinetypeTableRecord
  2
BORDERX2
 70
     0
  3
Border (2x) ____  ____  .  ____  ____  .  ___
 72
    65
 73
     6
 40
3.5
 49
1.0
 74
     0
 49
-0.5
 74
     0
 49
1.0
 74
     0
 49
-0.5
 74
     0
 49
0.0
 74
     0
 49
-0.5
 74
     0
  0
LTYPE
  5
8F
330
5
100
AcDbSymbolTableRecord
100
AcDbLinetypeTableRecord
  2
CENTER
 70
     0
  3
Center ____ _ ____ _ ____ _ ____ _ ____ _ ____
 72
    65
 73
     4
 40
2.0
 49
1.25
 74
     0
 49
-0.25
 74
     0
 49
0.25
 74
     0
 49
-0.25
 74
     0
  0
LTYPE
  5
90
330
5
100
AcDbSymbolTableRecord
100
AcDbLinetypeTableRecord
  2
CENTER2
 70
     0
  3
Center (.5x) ___ _ ___ _ ___ _ ___ _ ___ _ ___
 72
    65
 73
     4
 40
1.125
 49
0.75
 74
     0
 49
-0.125
 74
     0
 49
0.125
 74
     0
 49
-0.125
 74
     0
  0
LTYPE
  5
91
330
5
100
AcDbSymbolTableRecord
100
AcDbLinetypeTableRecord
  2
CENTERX2
 70
     0
  3
Center (2x) ________  __  ________  __  _____
 72
    65
 73
     4
 40
4.0
 49
2.5
 74
     0
 49
-0.5
 74
     0
 49
0.5
 74
     0
 49
-0.5
 74
     0
  0
LTYPE
  5
92
330
5
100
AcDbSymbolTableRecord
100
AcDbLinetypeTableRecord
  2
DASHDOT2
 70
     0
  3
Dash dot (.5x) _._._._._._._._._._._._._._._.
 72
    65
 73
     4
 40
0.5
 49
0.25
 74
     0
 49
-0.125
 74
     0
 49
0.0
 74
     0
 49
-0.125
 74
     0
  0
LTYPE
  5
93
330
5
100
AcDbSymbolTableRecord
100
AcDbLinetypeTableRecord
  2
DASHDOTX2
 70
     0
  3
Dash dot (2x) ____  .  ____  .  ____  .  ___
 72
    65
 73
     4
 40
2.0
 49
1.0
 74
     0
 49
-0.5
 74
     0
 49
0.0
 74
     0
 49
-0.5
 74
     0
  0
LTYPE
  5
95
330
5
100
AcDbSymbolTableRecord
100
AcDbLinetypeTableRecord
  2
DASHED2
 70
     0
  3
Dashed (.5x) _ _ _ _ _ _ _ _ _ _ _ _ _ _ _ _ _
 72
    65
 73
     2
 40
0.375
 49
0.25
 74
     0
 49
-0.125
 74
     0
  0
LTYPE
  5
96
330
5
100
AcDbSymbolTableRecord
100
AcDbLinetypeTableRecord
  2
DASHEDX2
 70
     0
  3
Dashed (2x) ____  ____  ____  ____  ____  ___
 72
    65
 73
     2
 40
1.5
 49
1.0
 74
     0
 49
-0.5
 74
     0
  0
LTYPE
  5
97
330
5
100
AcDbSymbolTableRecord
100
AcDbLinetypeTableRecord
  2
DIVIDE
 70
     0
  3
Divide ____ . . ____ . . ____ . . ____ . . ____
 72
    65
 73
     6
 40
1.25
 49
0.5
 74
     0
 49
-0.25
 74
     0
 49
0.0
 74
     0
 49
-0.25
 74
     0
 49
0.0
 74
     0
 49
-0.25
 74
     0
  0
LTYPE
  5
98
330
5
100
AcDbSymbolTableRecord
100
AcDbLinetypeTableRecord
  2
DIVIDE2
 70
     0
  3
Divide (.5x) __..__..__..__..__..__..__..__.._
 72
    65
 73
     6
 40
0.625
 49
0.25
 74
     0
 49
-0.125
 74
     0
 49
0.0
 74
     0
 49
-0.125
 74
     0
 49
0.0
 74
     0
 49
-0.125
 74
     0
  0
LTYPE
  5
99
330
5
100
AcDbSymbolTableRecord
100
AcDbLinetypeTableRecord
  2
DIVIDEX2
 70
     0
  3
Divide (2x) ________  .  .  ________  .  .  _
 72
    65
 73
     6
 40
2.5
 49
1.0
 74
     0
 49
-0.5
 74
     0
 49
0.0
 74
     0
 49
-0.5
 74
     0
 49
0.0
 74
     0
 49
-0.5
 74
     0
  0
LTYPE
  5
9A
330
5
100
AcDbSymbolTableRecord
100
AcDbLinetypeTableRecord
  2
DOT
 70
     0
  3
Dot . . . . . . . . . . . . . . . . . . . . . .
 72
    65
 73
     2
 40
0.25
 49
0.0
 74
     0
 49
-0.25
 74
     0
  0
LTYPE
  5
9B
330
5
100
AcDbSymbolTableRecord
100
AcDbLinetypeTableRecord
  2
DOT2
 70
     0
  3
Dot (.5x) .....................................
 72
    65
 73
     2
 40
0.125
 49
0.0
 74
     0
 49
-0.125
 74
     0
  0
LTYPE
  5
9C
330
5
100
AcDbSymbolTableRecord
100
AcDbLinetypeTableRecord
  2
DOTX2
 70
     0
  3
Dot (2x) .  .  .  .  .  .  .  .  .  .  .  .  . 
 72
    65
 73
     2
 40
0.5
 49
0.0
 74
     0
 49
-0.5
 74
     0
  0
LTYPE
  5
9D
330
5
100
AcDbSymbolTableRecord
100
AcDbLinetypeTableRecord
  2
HIDDEN
 70
     0
  3
Hidden __ __ __ __ __ __ __ __ __ __ __ __ __ _
 72
    65
 73
     2
 40
0.375
 49
0.25
 74
     0
 49
-0.125
 74
     0
  0
LTYPE
  5
9E
330
5
100
AcDbSymbolTableRecord
100
AcDbLinetypeTableRecord
  2
HIDDEN2
 70
     0
  3
Hidden (.5x) _ _ _ _ _ _ _ _ _ _ _ _ _ _ _ _ _
 72
    65
 73
     2
 40
0.1875
 49
0.125
 74
     0
 49
-0.0625
 74
     0
  0
LTYPE
  5
9F
330
5
100
AcDbSymbolTableRecord
100
AcDbLinetypeTableRecord
  2
HIDDENX2
 70
     0
  3
Hidden (2x) ____ ____ ____ ____ ____ ____ ____
 72
    65
 73
     2
 40
0.75
 49
0.5
 74
     0
 49
-0.25
 74
     0
  0
LTYPE
  5
A0
330
5
100
AcDbSymbolTableRecord
100
AcDbLinetypeTableRecord
  2
PHANTOM
 70
     0
  3
Phantom ______  __  __  ______  __  __  ______
 72
    65
 73
     6
 40
2.5
 49
1.25
 74
     0
 49
-0.25
 74
     0
 49
0.25
 74
     0
 49
-0.25
 74
     0
 49
0.25
 74
     0
 49
-0.25
 74
     0
  0
LTYPE
  5
A1
330
5
100
AcDbSymbolTableRecord
100
AcDbLinetypeTableRecord
  2
PHANTOM2
 70
     0
  3
Phantom (.5x) ___ _ _ ___ _ _ ___ _ _ ___ _ _
 72
    65
 73
     6
 40
1.25
 49
0.625
 74
     0
 49
-0.125
 74
     0
 49
0.125
 74
     0
 49
-0.125
 74
     0
 49
0.125
 74
     0
 49
-0.125
 74
     0
  0
LTYPE
  5
A2
330
5
100
AcDbSymbolTableRecord
100
AcDbLinetypeTableRecord
  2
PHANTOMX2
 70
     0
  3
Phantom (2x) ____________    ____    ____   _
 72
    65
 73
     6
 40
5.0
 49
2.5
 74
     0
 49
-0.5
 74
     0
 49
0.5
 74
     0
 49
-0.5
 74
     0
 49
0.5
 74
     0
 49
-0.5
 74
     0
  0
LTYPE
  5
A3
330
5
100
AcDbSymbolTableRecord
100
AcDbLinetypeTableRecord
  2
ACAD_ISO02W100
 70
     0
  3
ISO dash __ __ __ __ __ __ __ __ __ __ __ __ __
 72
    65
 73
     2
 40
0.59
 49
0.47
 74
     0
 49
-0.12
 74
     0
  0
LTYPE
  5
A4
330
5
100
AcDbSymbolTableRecord
100
AcDbLinetypeTableRecord
  2
ACAD_ISO03W100
 70
     0
  3
ISO dash space __    __    __    __    __    __
 72
    65
 73
     2
 40
1.179999999999999
 49
0.47
 74
     0
 49
-0.71
 74
     0
  0
LTYPE
  5
A5
330
5
100
AcDbSymbolTableRecord
100
AcDbLinetypeTableRecord
  2
ACAD_ISO04W100
 70
     0
  3
ISO long-dash dot ____ . ____ . ____ . ____ . _
 72
    65
 73
     4
 40
1.179999999999999
 49
0.9399999999999998
 74
     0
 49
-0.12
 74
     0
 49
0.0
 74
     0
 49
-0.12
 74
     0
  0
LTYPE
  5
A6
330
5
100
AcDbSymbolTableRecord
100
AcDbLinetypeTableRecord
  2
ACAD_ISO05W100
 70
     0
  3
ISO long-dash double-dot ____ .. ____ .. ____ .
 72
    65
 73
     6
 40
1.299999999999999
 49
0.9399999999999998
 74
     0
 49
-0.12
 74
     0
 49
0.0
 74
     0
 49
-0.12
 74
     0
 49
0.0
 74
     0
 49
-0.12
 74
     0
  0
LTYPE
  5
A7
330
5
100
AcDbSymbolTableRecord
100
AcDbLinetypeTableRecord
  2
ACAD_ISO06W100
 70
     0
  3
ISO long-dash triple-dot ____ ... ____ ... ____
 72
    65
 73
     8
 40
1.419999999999999
 49
0.9399999999999998
 74
     0
 49
-0.12
 74
     0
 49
0.0
 74
     0
 49
-0.12
 74
     0
 49
0.0
 74
     0
 49
-0.12
 74
     0
 49
0.0
 74
     0
 49
-0.12
 74
     0
  0
LTYPE
  5
A8
330
5
100
AcDbSymbolTableRecord
100
AcDbLinetypeTableRecord
  2
ACAD_ISO07W100
 70
     0
  3
ISO dot . . . . . . . . . . . . . . . . . . . .
 72
    65
 73
     2
 40
0.12
 49
0.0
 74
     0
 49
-0.12
 74
     0
  0
LTYPE
  5
A9
330
5
100
AcDbSymbolTableRecord
100
AcDbLinetypeTableRecord
  2
ACAD_ISO08W100
 70
     0
  3
ISO long-dash short-dash ____ __ ____ __ ____ _
 72
    65
 73
     4
 40
0.95
 49
0.47
 74
     0
 49
-0.12
 74
     0
 49
0.24
 74
     0
 49
-0.12
 74
     0
  0
LTYPE
  5
AA
330
5
100
AcDbSymbolTableRecord
100
AcDbLinetypeTableRecord
  2
ACAD_ISO09W100
 70
     0
  3
ISO long-dash double-short-dash ____ __ __ ____
 72
    65
 73
     6
 40
1.31
 49
0.47
 74
     0
 49
-0.12
 74
     0
 49
0.24
 74
     0
 49
-0.12
 74
     0
 49
0.24
 74
     0
 49
-0.12
 74
     0
  0
LTYPE
  5
AB
330
5
100
AcDbSymbolTableRecord
100
AcDbLinetypeTableRecord
  2
ACAD_ISO10W100
 70
     0
  3
ISO dash dot __ . __ . __ . __ . __ . __ . __ .
 72
    65
 73
     4
 40
0.71
 49
0.47
 74
     0
 49
-0.12
 74
     0
 49
0.0
 74
     0
 49
-0.12
 74
     0
  0
LTYPE
  5
AC
330
5
100
AcDbSymbolTableRecord
100
AcDbLinetypeTableRecord
  2
ACAD_ISO11W100
 70
     0
  3
ISO double-dash dot __ __ . __ __ . __ __ . __ 
 72
    65
 73
     6
 40
1.299999999999999
 49
0.47
 74
     0
 49
-0.12
 74
     0
 49
0.47
 74
     0
 49
-0.12
 74
     0
 49
0.0
 74
     0
 49
-0.12
 74
     0
  0
LTYPE
  5
AD
330
5
100
AcDbSymbolTableRecord
100
AcDbLinetypeTableRecord
  2
ACAD_ISO12W100
 70
     0
  3
ISO dash double-dot __ . . __ . . __ . . __ . .
 72
    65
 73
     6
 40
0.8299999999999998
 49
0.47
 74
     0
 49
-0.12
 74
     0
 49
0.0
 74
     0
 49
-0.12
 74
     0
 49
0.0
 74
     0
 49
-0.12
 74
     0
  0
LTYPE
  5
AE
330
5
100
AcDbSymbolTableRecord
100
AcDbLinetypeTableRecord
  2
ACAD_ISO13W100
 70
     0
  3
ISO double-dash double-dot __ __ . . __ __ . . 
 72
    65
 73
     8
 40
1.419999999999999
 49
0.47
 74
     0
 49
-0.12
 74
     0
 49
0.47
 74
     0
 49
-0.12
 74
     0
 49
0.0
 74
     0
 49
-0.12
 74
     0
 49
0.0
 74
     0
 49
-0.12
 74
     0
  0
LTYPE
  5
AF
330
5
100
AcDbSymbolTableRecord
100
AcDbLinetypeTableRecord
  2
ACAD_ISO14W100
 70
     0
  3
ISO dash triple-dot __ . . . __ . . . __ . . . 
 72
    65
 73
     8
 40
0.95
 49
0.47
 74
     0
 49
-0.12
 74
     0
 49
0.0
 74
     0
 49
-0.12
 74
     0
 49
0.0
 74
     0
 49
-0.12
 74
     0
 49
0.0
 74
     0
 49
-0.12
 74
     0
  0
LTYPE
  5
B0
330
5
100
AcDbSymbolTableRecord
100
AcDbLinetypeTableRecord
  2
ACAD_ISO15W100
 70
     0
  3
ISO double-dash triple-dot __ __ . . . __ __ . 
 72
    65
 73
    10
 40
1.539999999999999
 49
0.47
 74
     0
 49
-0.12
 74
     0
 49
0.47
 74
     0
 49
-0.12
 74
     0
 49
0.0
 74
     0
 49
-0.12
 74
     0
 49
0.0
 74
     0
 49
-0.12
 74
     0
 49
0.0
 74
     0
 49
-0.12
 74
     0
  0
LTYPE
  5
B3
330
5
100
AcDbSymbolTableRecord
100
AcDbLinetypeTableRecord
  2
FENCELINE1
 70
     0
  3
Fenceline circle ----0-----0----0-----0----0---
 72
    65
 73
     4
 40
1.45
 49
0.25
 74
     0
 49
-0.1
 74
     4
 75
   133
340
B2
 46
0.1
 50
0.0
 44
-0.1
 45
0.0
 49
-0.1
 74
     0
 49
1.0
 74
     0
  0
LTYPE
  5
B4
330
5
100
AcDbSymbolTableRecord
100
AcDbLinetypeTableRecord
  2
FENCELINE2
 70
     0
  3
Fenceline square ----[]-----[]----[]-----[]----
 72
    65
 73
     4
 40
1.45
 49
0.25
 74
     0
 49
-0.1
 74
     4
 75
   132
340
B2
 46
0.1
 50
0.0
 44
-0.1
 45
0.0
 49
-0.1
 74
     0
 49
1.0
 74
     0
  0
LTYPE
  5
B5
330
5
100
AcDbSymbolTableRecord
100
AcDbLinetypeTableRecord
  2
TRACKS
 70
     0
  3
Tracks -|-|-|-|-|-|-|-|-|-|-|-|-|-|-|-|-|-|-|-|
 72
    65
 73
     2
 40
0.3
 49
0.15
 74
     4
 75
   130
340
B2
 46
0.25
 50
0.0
 44
0.0
 45
0.0
 49
0.15
 74
     0
  0
LTYPE
  5
B6
330
5
100
AcDbSymbolTableRecord
100
AcDbLinetypeTableRecord
  2
BATTING
 70
     0
  3
Batting SSSSSSSSSSSSSSSSSSSSSSSSSSSSSSSSSSSSSSS
 72
    65
 73
     4
 40
0.4001000000000001
 49
0.0001
 74
     0
 49
-0.1
 74
     4
 75
   134
340
B2
 46
0.1
 50
0.0
 44
-0.1
 45
0.0
 49
-0.2
 74
     4
 75
   134
340
B2
 46
0.1
 50
180.0
 44
0.1
 45
0.0
 49
-0.1
 74
     0
  0
LTYPE
  5
B7
330
5
100
AcDbSymbolTableRecord
100
AcDbLinetypeTableRecord
  2
HOT_WATER_SUPPLY
 70
     0
  3
Hot water supply ---- HW ---- HW ---- HW ----
 72
    65
 73
     3
 40
0.9
 49
0.5
 74
     0
 49
-0.2
 74
     2
 75
     0
340
55
 46
0.1
 50
0.0
 44
-0.1
 45
-0.05
  9
HW
 49
-0.2
 74
     0
  0
LTYPE
  5
B8
330
5
100
AcDbSymbolTableRecord
100
AcDbLinetypeTableRecord
  2
GAS_LINE
 70
     0
  3
Gas line ----GAS----GAS----GAS----GAS----GAS---
 72
    65
 73
     3
 40
0.95
 49
0.5
 74
     0
 49
-0.2
 74
     2
 75
     0
340
55
 46
0.1
 50
0.0
 44
-0.1
 45
-0.05
  9
GAS
 49
-0.25
 74
     0
  0
LTYPE
  5
B9
330
5
100
AcDbSymbolTableRecord
100
AcDbLinetypeTableRecord
  2
ZIGZAG
 70
     0
  3
Zig zag /\/\/\/\/\/\/\/\/\/\/\/\/\/\/\/\/\/\/\/
 72
    65
 73
     4
 40
0.8001000000000001
 49
0.0001
 74
     0
 49
-0.2
 74
     4
 75
   131
340
B2
 46
0.2
 50
0.0
 44
-0.2
 45
0.0
 49
-0.4
 74
     4
 75
   131
340
B2
 46
0.2
 50
180.0
 44
0.2
 45
0.0
 49
-0.2
 74
     0
  0
ENDTAB
  0
TABLE
  2
LAYER
  5
2
330
0
100
AcDbSymbolTable
 70
    27
  0
LAYER
  5
54
330
2
100
AcDbSymbolTableRecord
100
AcDbLayerTableRecord
  2
0
 70
     0
 62
     7
  6
Continuous
370
    18
390
F
  0
LAYER
  5
C0
330
2
100
AcDbSymbolTableRecord
100
AcDbLayerTableRecord
  2
Center Mark (ANSI)
 70
     0
 62
     7
  6
Continuous
370
    15
390
F
  0
LAYER
  5
C1
330
2
100
AcDbSymbolTableRecord
100
AcDbLayerTableRecord
  2
Centerline (ANSI)
 70
     0
 62
     7
  6
Continuous
370
    15
390
F
  0
LAYER
  5
C3
330
2
100
AcDbSymbolTableRecord
100
AcDbLayerTableRecord
  2
Dimension (ANSI)
 70
     0
 62
     7
  6
Continuous
370
    13
390
F
  0
LAYER
  5
C5
330
2
100
AcDbSymbolTableRecord
100
AcDbLayerTableRecord
  2
Hidden (ANSI)
 70
     0
 62
     7
  6
DASHED
370
    15
390
F
  0
LAYER
  5
CB
330
2
100
AcDbSymbolTableRecord
100
AcDbLayerTableRecord
  2
Sketch Geometry (ANSI)
 70
     0
 62
     7
  6
Continuous
370
    20
390
F
  0
LAYER
  5
CC
330
2
100
AcDbSymbolTableRecord
100
AcDbLayerTableRecord
  2
Symbol (ANSI)
 70
     0
 62
     7
  6
Continuous
370
    18
390
F
  0
LAYER
  5
CF
330
2
100
AcDbSymbolTableRecord
100
AcDbLayerTableRecord
  2
Visible (ANSI)
 70
     0
 62
     7
  6
Continuous
370
    13
390
F
  0
LAYER
  5
149
330
2
100
AcDbSymbolTableRecord
100
AcDbLayerTableRecord
  2
Defpoints
 70
     0
 62
     7
  6
Continuous
290
     0
370
    -3
390
F
  0
ENDTAB
  0
TABLE
  2
STYLE
  5
3
330
0
100
AcDbSymbolTable
 70
    18
  0
STYLE
  5
55
330
3
100
AcDbSymbolTableRecord
100
AcDbTextStyleTableRecord
  2
Standard
 70
     0
 40
0.0
 41
1.0
 50
0.0
 71
     0
 42
0.2
  3
txt
  4

  0
STYLE
  5
5A
330
3
100
AcDbSymbolTableRecord
100
AcDbTextStyleTableRecord
  2
Annotative
 70
     0
 40
0.0
 41
1.0
 50
0.0
 71
     0
 42
0.2
  3
txt
  4

1001
AcadAnnotative
1000
AnnotativeData
1002
{
1070
     1
1070
     1
1002
}
  0
STYLE
  5
B2
330
3
100
AcDbSymbolTableRecord
100
AcDbTextStyleTableRecord
  2

 70
     1
 40
0.0
 41
1.0
 50
0.0
 71
     0
 42
0.2
  3
ltypeshp.shx
  4

  0
STYLE
  5
D4
330
3
100
AcDbSymbolTableRecord
100
AcDbTextStyleTableRecord
  2
ITALICC_120
 70
     0
 40
0.0
 41
1.0
 50
0.0
 71
     0
 42
0.2
  3
italicc.shx
  4

  0
STYLE
  5
D5
330
3
100
AcDbSymbolTableRecord
100
AcDbTextStyleTableRecord
  2
Label Text (ANSI)
 70
     0
 40
0.0
 41
1.0
 50
0.0
 71
     0
 42
0.2
  3
tahoma.ttf
  4

1001
ACAD
1000
Tahoma
1071
      256
  0
STYLE
  5
D6
330
3
100
AcDbSymbolTableRecord
100
AcDbTextStyleTableRecord
  2
Note Text (ANSI)
 70
     0
 40
0.0
 41
1.0
 50
0.0
 71
     0
 42
0.2
  3
tahoma.ttf
  4

1001
ACAD
1000
Tahoma
1071
      256
  0
STYLE
  5
D7
330
3
100
AcDbSymbolTableRecord
100
AcDbTextStyleTableRecord
  2
ROMANS
 70
     0
 40
0.0
 41
1.0
 50
0.0
 71
     0
 42
0.2
  3
romans.shx
  4

  0
STYLE
  5
D8
330
3
100
AcDbSymbolTableRecord
100
AcDbTextStyleTableRecord
  2
SANSSERIF_114
 70
     0
 40
0.0
 41
1.0
 50
0.0
 71
     0
 42
0.2
  3
tahoma.ttf
  4

1001
ACAD
1000
Tahoma
1071
      256
  0
STYLE
  5
D9
330
3
100
AcDbSymbolTableRecord
100
AcDbTextStyleTableRecord
  2
SANSSERIF_117
 70
     0
 40
0.0
 41
1.0
 50
0.0
 71
     0
 42
0.2
  3
tahoma.ttf
  4

1001
ACAD
1000
Tahoma
1071
      256
  0
STYLE
  5
DA
330
3
100
AcDbSymbolTableRecord
100
AcDbTextStyleTableRecord
  2
STANDARDAM_ANSI
 70
     0
 40
0.0
 41
1.0
 50
0.0
 71
     0
 42
0.2
  3
txt.shx
  4

  0
STYLE
  5
DB
330
3
100
AcDbSymbolTableRecord
100
AcDbTextStyleTableRecord
  2
StandardAM_ANSI$0
 70
     0
 40
0.0
 41
1.0
 50
0.0
 71
     0
 42
0.2
  3
txt.shx
  4

  0
STYLE
  5
DC
330
3
100
AcDbSymbolTableRecord
100
AcDbTextStyleTableRecord
  2
STANDARDAM_ANSI$3
 70
     0
 40
0.0
 41
1.0
 50
0.0
 71
     0
 42
0.2
  3
txt.shx
  4

  0
STYLE
  5
DD
330
3
100
AcDbSymbolTableRecord
100
AcDbTextStyleTableRecord
  2
STANDARDAM_ANSI$4
 70
     0
 40
0.0
 41
1.0
 50
0.0
 71
     0
 42
0.2
  3
txt.shx
  4

  0
STYLE
  5
DE
330
3
100
AcDbSymbolTableRecord
100
AcDbTextStyleTableRecord
  2
STANDARDAM_ANSI$7
 70
     0
 40
0.0
 41
1.0
 50
0.0
 71
     0
 42
0.2
  3
txt.shx
  4

  0
STYLE
  5
DF
330
3
100
AcDbSymbolTableRecord
100
AcDbTextStyleTableRecord
  2
STANDARDAM_ANSI$SF
 70
     0
 40
0.0
 41
1.0
 50
0.0
 71
     0
 42
0.2
  3
txt.shx
  4

  0
STYLE
  5
E0
330
3
100
AcDbSymbolTableRecord
100
AcDbTextStyleTableRecord
  2
STANDARDAM_ANSI$SH
 70
     0
 40
0.0
 41
1.0
 50
0.0
 71
     0
 42
0.2
  3
txt.shx
  4

  0
STYLE
  5
E1
330
3
100
AcDbSymbolTableRecord
100
AcDbTextStyleTableRecord
  2
STANDARDSTANDARD
 70
     0
 40
0.0
 41
1.0
 50
0.0
 71
     0
 42
0.2
  3
txt.shx
  4

  0
STYLE
  5
124
330
3
100
AcDbSymbolTableRecord
100
AcDbTextStyleTableRecord
  2
Text Style166
 70
     0
 40
0.0
 41
1.0
 50
0.0
 71
     0
 42
0.2
  3
tahoma.ttf
  4

1001
ACAD
1000
Tahoma
1071
      256
  0
ENDTAB
  0
TABLE
  2
VIEW
  5
6
330
0
100
AcDbSymbolTable
 70
     0
  0
ENDTAB
  0
TABLE
  2
UCS
  5
7
330
0
100
AcDbSymbolTable
 70
     0
  0
ENDTAB
  0
TABLE
  2
APPID
  5
9
330
0
100
AcDbSymbolTable
 70
     4
  0
APPID
  5
56
330
9
100
AcDbSymbolTableRecord
100
AcDbRegAppTableRecord
  2
ACAD
 70
     0
  0
APPID
  5
5E
330
9
100
AcDbSymbolTableRecord
100
AcDbRegAppTableRecord
  2
AcadAnnotative
 70
     0
  0
APPID
  5
5C7
330
9
100
AcDbSymbolTableRecord
100
AcDbRegAppTableRecord
  2
ACAD_DSTYLE_DIMRADIAL_EXTENSION
 70
     0
  0
APPID
  5
E1F
330
9
100
AcDbSymbolTableRecord
100
AcDbRegAppTableRecord
  2
ACAD_MLEADERVER
 70
     0
  0
ENDTAB
  0
TABLE
  2
DIMSTYLE
  5
A
330
0
100
AcDbSymbolTable
 70
    27
100
AcDbDimStyleTable
 71
     2
340
F6
340
58
  0
DIMSTYLE
105
58
330
A
100
AcDbSymbolTableRecord
100
AcDbDimStyleTableRecord
  2
STANDARD
 70
     0
 41
0.1800000071525573
 42
0.0625
140
0.1800000071525574
144
1.0
147
0.0900000035762787
176
   256
177
   256
178
   256
274
     3
340
55
371
    -1
372
    -1
  0
DIMSTYLE
105
59
330
A
100
AcDbSymbolTableRecord
100
AcDbDimStyleTableRecord
  2
Annotative
 70
     0
340
55
1001
AcadAnnotative
1000
AnnotativeData
1002
{
1070
     1
1070
     1
1002
}
  0
DIMSTYLE
105
E2
330
A
100
AcDbSymbolTableRecord
100
AcDbDimStyleTableRecord
  2
AM_ANSI
 70
     0
  4
 mm
 40
3.0
 41
0.119999997317791
 42
0.05
 43
0.5
 44
0.1
 45
0.00000001
 78
     4
 79
     2
140
0.1200000047683716
146
0.7099999189376831
147
0.0599999986588955
176
   256
177
   256
178
     2
284
     4
340
DA
371
    -1
372
    -1
  0
DIMSTYLE
105
E3
330
A
100
AcDbSymbolTableRecord
100
AcDbDimStyleTableRecord
  2
AM_ANSI$7
 70
     0
  4
 mm
 40
3.0
 41
0.119999997317791
 42
0.05
 43
0.5
 44
0.1
 45
0.00000001
 78
     4
 79
     2
140
0.1200000047683716
146
0.7099999189376831
147
0.0599999986588955
176
   256
177
   256
178
     2
284
     4
340
DA
371
    -1
372
    -1
  0
DIMSTYLE
105
E4
330
A
100
AcDbSymbolTableRecord
100
AcDbDimStyleTableRecord
  2
AM_ANSI$0
 70
     0
  4
 mm
 40
3.0
 41
0.119999997317791
 42
0.05
 43
0.5
 44
0.1
 45
0.00000001
 78
     4
 79
     2
140
0.1200000047683716
146
0.7099999189376831
147
0.0599999986588955
176
   256
177
   256
178
     2
284
     4
340
DB
371
    -1
372
    -1
  0
DIMSTYLE
105
E5
330
A
100
AcDbSymbolTableRecord
100
AcDbDimStyleTableRecord
  2
AM_ANSI$0$7
 70
     0
  4
 mm
 40
3.0
 41
0.119999997317791
 42
0.05
 43
0.5
 44
0.1
 45
0.00000001
 78
     4
 79
     2
140
0.1200000047683716
146
0.7099999189376831
147
0.0599999986588955
176
   256
177
   256
178
     2
284
     4
340
DB
371
    -1
372
    -1
  0
DIMSTYLE
105
E6
330
A
100
AcDbSymbolTableRecord
100
AcDbDimStyleTableRecord
  2
AM_ANSI$3
 70
     0
  4
 mm
 40
3.0
 41
0.119999997317791
 42
0.05
 43
0.5
 44
0.1
 45
0.00000001
 78
     4
 79
     2
140
0.1200000047683716
146
0.7099999189376831
147
0.0599999986588955
176
   256
177
   256
178
     2
284
     4
340
DC
371
    -1
372
    -1
  0
DIMSTYLE
105
E7
330
A
100
AcDbSymbolTableRecord
100
AcDbDimStyleTableRecord
  2
AM_ANSI$3$7
 70
     0
  4
 mm
 40
3.0
 41
0.119999997317791
 42
0.05
 43
0.5
 44
0.1
 45
0.00000001
 78
     4
 79
     2
140
0.1200000047683716
146
0.7099999189376831
147
0.0599999986588955
176
   256
177
   256
178
     2
284
     4
340
DC
371
    -1
372
    -1
  0
DIMSTYLE
105
E8
330
A
100
AcDbSymbolTableRecord
100
AcDbDimStyleTableRecord
  2
AM_ANSI$4
 70
     0
  4
 mm
 40
3.0
 41
0.119999997317791
 42
0.05
 43
0.5
 44
0.1
 45
0.00000001
 78
     4
 79
     2
140
0.1200000047683716
146
0.7099999189376831
147
0.0599999986588955
176
   256
177
   256
178
     2
284
     4
340
DD
371
    -1
372
    -1
  0
DIMSTYLE
105
E9
330
A
100
AcDbSymbolTableRecord
100
AcDbDimStyleTableRecord
  2
AM_ANSI$4$7
 70
     0
  4
 mm
 40
3.0
 41
0.119999997317791
 42
0.05
 43
0.5
 44
0.1
 45
0.00000001
 78
     4
 79
     2
140
0.1200000047683716
146
0.7099999189376831
147
0.0599999986588955
176
   256
177
   256
178
     2
284
     4
340
DD
371
    -1
372
    -1
  0
DIMSTYLE
105
EA
330
A
100
AcDbSymbolTableRecord
100
AcDbDimStyleTableRecord
  2
AM_ANSI$SF
 70
     0
  4
 mm
 40
3.0
 41
0.119999997317791
 42
0.05
 43
0.5
 44
0.1
 45
0.00000001
 75
     1
 76
     1
 78
     4
 79
     2
140
0.1200000047683716
146
0.7099999189376831
147
0.0599999986588955
176
   256
177
   256
178
     2
284
     4
340
DF
371
    -1
372
    -1
  0
DIMSTYLE
105
EB
330
A
100
AcDbSymbolTableRecord
100
AcDbDimStyleTableRecord
  2
AM_ANSI$SF$7
 70
     0
  4
 mm
 40
3.0
 41
0.119999997317791
 42
0.05
 43
0.5
 44
0.1
 45
0.00000001
 75
     1
 76
     1
 78
     4
 79
     2
140
0.1200000047683716
146
0.7099999189376831
147
0.0599999986588955
176
   256
177
   256
178
     2
284
     4
340
DF
371
    -1
372
    -1
  0
DIMSTYLE
105
EC
330
A
100
AcDbSymbolTableRecord
100
AcDbDimStyleTableRecord
  2
AM_ANSI$SH
 70
     0
  4
 mm
 40
3.0
 41
0.119999997317791
 42
0.05
 43
0.5
 44
0.1
 45
0.00000001
 75
     1
 76
     1
 78
     4
 79
     2
140
0.1200000047683716
146
0.7099999189376831
147
0.0599999986588955
176
   256
177
   256
178
     2
284
     4
340
E0
371
    -1
372
    -1
  0
DIMSTYLE
105
ED
330
A
100
AcDbSymbolTableRecord
100
AcDbDimStyleTableRecord
  2
AM_ANSI$SH$7
 70
     0
  4
 mm
 40
3.0
 41
0.119999997317791
 42
0.05
 43
0.5
 44
0.1
 45
0.00000001
 75
     1
 76
     1
 78
     4
 79
     2
140
0.1200000047683716
146
0.7099999189376831
147
0.0599999986588955
176
   256
177
   256
178
     2
284
     4
340
E0
371
    -1
372
    -1
  0
DIMSTYLE
105
EE
330
A
100
AcDbSymbolTableRecord
100
AcDbDimStyleTableRecord
  2
Architectural (ANSI)
 70
     0
 40
3.0
 41
0.0984251946210861
 43
0.2362204724409449
 44
0.125
 45
0.00000001
 46
0.3937007874015748
 78
     3
 79
     3
140
0.1200000047683716
147
0.031496062992126
171
     1
176
   256
177
   256
178
   256
272
     2
274
     1
276
     2
277
     4
284
    12
285
     4
286
    12
340
D6
371
    -1
372
    -1
  0
DIMSTYLE
105
EF
330
A
100
AcDbSymbolTableRecord
100
AcDbDimStyleTableRecord
  2
Architectural (ANSI)$7
 70
     0
 40
3.0
 41
0.0984251946210861
 43
0.2362204724409449
 44
0.125
 45
0.00000001
 46
0.3937007874015748
 78
     3
 79
     3
140
0.1200000047683716
147
0.031496062992126
171
     1
176
   256
177
   256
178
   256
272
     2
274
     1
276
     2
277
     4
284
    12
285
     4
286
    12
340
D6
371
    -1
372
    -1
  0
DIMSTYLE
105
F0
330
A
100
AcDbSymbolTableRecord
100
AcDbDimStyleTableRecord
  2
Default - Fraction (ANSI)
 70
     0
 40
3.0
 41
0.0984251946210861
 43
0.2362204724409449
 44
0.125
 45
0.00000001
 46
0.3937007874015748
 79
     3
140
0.1200000047683716
147
0.031496062992126
171
     1
176
   256
177
   256
178
   256
272
     2
274
     1
276
     2
277
     5
284
    12
285
     4
286
    12
340
D6
371
    -1
372
    -1
  0
DIMSTYLE
105
F1
330
A
100
AcDbSymbolTableRecord
100
AcDbDimStyleTableRecord
  2
Default - Fraction (ANSI)$7
 70
     0
 40
3.0
 41
0.0984251946210861
 43
0.2362204724409449
 44
0.125
 45
0.00000001
 46
0.3937007874015748
 79
     3
140
0.1200000047683716
147
0.031496062992126
171
     1
176
   256
177
   256
178
   256
272
     2
274
     1
276
     2
277
     5
284
    12
285
     4
286
    12
340
D6
371
    -1
372
    -1
  0
DIMSTYLE
105
F2
330
A
100
AcDbSymbolTableRecord
100
AcDbDimStyleTableRecord
  2
Default - mm (ANSI)
 70
     0
 40
3.0
 41
0.0984251946210861
 42
0.063
 43
0.2362204724409449
 44
0.125
 45
0.00000001
 46
0.3937007874015748
 73
     0
 78
     4
 79
     1
140
0.1200000047683716
143
1.0
144
25.4
147
0.031496062992126
171
     1
176
   256
177
   256
178
   256
179
     1
271
     2
272
     2
274
     1
284
     4
285
     4
340
D6
371
    -1
372
    -1
  0
DIMSTYLE
105
F3
330
A
100
AcDbSymbolTableRecord
100
AcDbDimStyleTableRecord
  2
Default - mm (ANSI)$7
 70
     0
 40
3.0
 41
0.0984251946210861
 42
0.063
 43
0.2362204724409449
 44
0.125
 45
0.00000001
 46
0.3937007874015748
 73
     0
 78
     4
 79
     1
140
0.1200000047683716
143
1.0
144
25.4
147
0.031496062992126
171
     1
176
   256
177
   256
178
   256
179
     1
271
     2
272
     2
274
     1
284
     4
285
     4
340
D6
371
    -1
372
    -1
  0
DIMSTYLE
105
F4
330
A
100
AcDbSymbolTableRecord
100
AcDbDimStyleTableRecord
  2
Default - mm [in] (ANSI)
 70
     0
  4
 in
 40
3.0
 41
0.0984251946210861
 42
0.063
 43
0.25
 44
0.125
 45
0.00000001
 46
0.3937007874015748
 73
     0
 78
     4
 79
     1
140
0.1200000047683716
143
0.03937
144
25.4
147
0.031496062992126
170
     1
171
     3
176
   256
177
   256
178
   256
179
     1
271
     2
272
     2
274
     3
284
     4
285
     4
286
     4
340
D6
371
    -1
372
    -1
  0
DIMSTYLE
105
F5
330
A
100
AcDbSymbolTableRecord
100
AcDbDimStyleTableRecord
  2
Default - mm [in] (ANSI)$7
 70
     0
  4
 in
 40
3.0
 41
0.0984251946210861
 42
0.063
 43
0.25
 44
0.125
 45
0.00000001
 46
0.3937007874015748
 73
     0
 78
     4
 79
     1
140
0.1200000047683716
143
0.03937
144
25.4
147
0.031496062992126
170
     1
171
     3
176
   256
177
   256
178
   256
179
     1
271
     2
272
     2
274
     3
284
     4
285
     4
286
     4
340
D6
371
    -1
372
    -1
  0
DIMSTYLE
105
F6
102
{ACAD_REACTORS
330
147
330
233
330
31D
330
41B
330
52D
330
5E8
330
6A1
330
7A9
330
893
330
97D
330
B00
330
C08
330
D27
102
}
330
A
100
AcDbSymbolTableRecord
100
AcDbDimStyleTableRecord
  2
Default (ANSI)
 70
     0
 40
3.0
 41
0.0984251946210861
 43
0.2362204724409449
 44
0.125
 45
0.00000001
 46
0.3937007874015748
 79
     1
140
0.1200000047683716
147
0.031496062992126
171
     1
176
   256
177
   256
178
   256
271
     2
272
     2
274
     1
284
     4
285
     4
340
D6
371
    -1
372
    -1
  0
DIMSTYLE
105
F7
330
A
100
AcDbSymbolTableRecord
100
AcDbDimStyleTableRecord
  2
Default (ANSI)$7
 70
     0
 40
3.0
 41
0.0984251946210861
 43
0.2362204724409449
 44
0.125
 45
0.00000001
 46
0.3937007874015748
 79
     1
140
0.1200000047683716
147
0.031496062992126
171
     1
176
   256
177
   256
178
   256
271
     2
272
     2
274
     1
284
     4
285
     4
340
D6
371
    -1
372
    -1
  0
DIMSTYLE
105
F8
330
A
100
AcDbSymbolTableRecord
100
AcDbDimStyleTableRecord
  2
Alternate (ANSI)
 70
     0
 40
3.0
 41
0.0979999974370003
340
55
342
F9
  0
DIMSTYLE
105
10B
330
A
100
AcDbSymbolTableRecord
100
AcDbDimStyleTableRecord
  2
Datum (ANSI)
 70
     0
 40
3.0
 41
0.0979999974370003
340
55
342
F9
  0
DIMSTYLE
105
11A
330
A
100
AcDbSymbolTableRecord
100
AcDbDimStyleTableRecord
  2
Large (ANSI)
 70
     0
 40
3.0
 41
0.1959999948740005
340
55
342
F9
  0
ENDTAB
  0
TABLE
  2
BLOCK_RECORD
  5
1
330
0
100
AcDbSymbolTable
 70
    17
  0
BLOCK_RECORD
  5
6C
330
1
100
AcDbSymbolTableRecord
100
AcDbBlockTableRecord
  2
*Model_Space
340
6F
  0
BLOCK_RECORD
  5
68
330
1
100
AcDbSymbolTableRecord
100
AcDbBlockTableRecord
  2
*Paper_Space
340
6B
  0
BLOCK_RECORD
  5
70
330
1
100
AcDbSymbolTableRecord
100
AcDbBlockTableRecord
  2
*Paper_Space0
340
73
  0
BLOCK_RECORD
  5
F9
330
1
100
AcDbSymbolTableRecord
100
AcDbBlockTableRecord
  2
_Closed
340
0
  0
BLOCK_RECORD
  5
100
330
1
100
AcDbSymbolTableRecord
100
AcDbBlockTableRecord
  2
DatumFilled45
340
0
  0
BLOCK_RECORD
  5
10C
330
1
100
AcDbSymbolTableRecord
100
AcDbBlockTableRecord
  2
Filled-1
340
0
  0
BLOCK_RECORD
  5
14A
330
1
100
AcDbSymbolTableRecord
100
AcDbBlockTableRecord
  2
*D4
340
0
  0
BLOCK_RECORD
  5
234
330
1
100
AcDbSymbolTableRecord
100
AcDbBlockTableRecord
  2
*D5
340
0
  0
BLOCK_RECORD
  5
31E
330
1
100
AcDbSymbolTableRecord
100
AcDbBlockTableRecord
  2
*D6
340
0
  0
BLOCK_RECORD
  5
41C
330
1
100
AcDbSymbolTableRecord
100
AcDbBlockTableRecord
  2
*D7
340
0
  0
BLOCK_RECORD
  5
52E
330
1
100
AcDbSymbolTableRecord
100
AcDbBlockTableRecord
  2
*D8
340
0
  0
BLOCK_RECORD
  5
5E9
330
1
100
AcDbSymbolTableRecord
100
AcDbBlockTableRecord
  2
*D9
340
0
  0
BLOCK_RECORD
  5
6A2
330
1
100
AcDbSymbolTableRecord
100
AcDbBlockTableRecord
  2
*D10
340
0
  0
BLOCK_RECORD
  5
7AA
330
1
100
AcDbSymbolTableRecord
100
AcDbBlockTableRecord
  2
*D11
340
0
  0
BLOCK_RECORD
  5
894
330
1
100
AcDbSymbolTableRecord
100
AcDbBlockTableRecord
  2
*D12
340
0
  0
BLOCK_RECORD
  5
97E
330
1
100
AcDbSymbolTableRecord
100
AcDbBlockTableRecord
  2
*D13
340
0
  0
BLOCK_RECORD
  5
B01
330
1
100
AcDbSymbolTableRecord
100
AcDbBlockTableRecord
  2
*D14
340
0
  0
BLOCK_RECORD
  5
C09
330
1
100
AcDbSymbolTableRecord
100
AcDbBlockTableRecord
  2
*D15
340
0
  0
BLOCK_RECORD
  5
D28
330
1
100
AcDbSymbolTableRecord
100
AcDbBlockTableRecord
  2
*D16
340
0
  0
ENDTAB
  0
ENDSEC
  0
SECTION
  2
BLOCKS
  0
BLOCK
  5
6D
330
6C
100
AcDbEntity
  8
0
100
AcDbBlockBegin
  2
*Model_Space
 70
     0
 10
0.0
 20
0.0
 30
0.0
  3
*Model_Space
  1

  0
ENDBLK
  5
6E
330
6C
100
AcDbEntity
  8
0
100
AcDbBlockEnd
  0
BLOCK
  5
69
330
68
100
AcDbEntity
 67
     1
  8
0
100
AcDbBlockBegin
  2
*Paper_Space
 70
     0
 10
0.0
 20
0.0
 30
0.0
  3
*Paper_Space
  1

  0
ENDBLK
  5
6A
330
68
100
AcDbEntity
 67
     1
  8
0
100
AcDbBlockEnd
  0
BLOCK
  5
71
330
70
100
AcDbEntity
 67
     1
  8
0
100
AcDbBlockBegin
  2
*Paper_Space0
 70
     0
 10
0.0
 20
0.0
 30
0.0
  3
*Paper_Space0
  1

  0
ENDBLK
  5
72
330
70
100
AcDbEntity
 67
     1
  8
0
100
AcDbBlockEnd
  0
BLOCK
  5
FE
330
F9
100
AcDbEntity
  8
0
100
AcDbBlockBegin
  2
_Closed
 70
     0
 10
0.0
 20
0.0
 30
0.0
  3
_Closed
  1

  0
LINE
  5
FA
330
F9
100
AcDbEntity
  8
0
  6
ByBlock
 62
     0
370
    -2
100
AcDbLine
 10
-1.0
 20
0.1666666666666666
 30
0.0
 11
0.0
 21
0.0
 31
0.0
  0
LINE
  5
FB
330
F9
100
AcDbEntity
  8
0
  6
ByBlock
 62
     0
370
    -2
100
AcDbLine
 10
0.0
 20
0.0
 30
0.0
 11
-1.0
 21
-0.1666666666666666
 31
0.0
  0
LINE
  5
FC
330
F9
100
AcDbEntity
  8
0
  6
ByBlock
 62
     0
370
    -2
100
AcDbLine
 10
-1.0
 20
0.1666666666666666
 30
0.0
 11
-1.0
 21
-0.1666666666666666
 31
0.0
  0
LINE
  5
FD
330
F9
100
AcDbEntity
  8
0
  6
ByBlock
 62
     0
370
    -2
100
AcDbLine
 10
0.0
 20
0.0
 30
0.0
 11
-1.0
 21
0.0
 31
0.0
  0
ENDBLK
  5
FF
330
F9
100
AcDbEntity
  8
0
100
AcDbBlockEnd
  0
BLOCK
  5
101
330
100
100
AcDbEntity
  8
0
100
AcDbBlockBegin
  2
DatumFilled45
 70
     0
 10
0.0
 20
0.0
 30
0.0
  3
DatumFilled45
  1

  0
POLYLINE
  5
103
330
100
100
AcDbEntity
  8
0
 62
     0
100
AcDb2dPolyline
 66
     1
 10
0.0
 20
0.0
 30
0.0
 70
   128
  0
VERTEX
  5
104
330
103
100
AcDbEntity
  8
0
 62
     0
100
AcDbVertex
100
AcDb2dVertex
 10
0.0
 20
0.9999999999999998
 30
0.0
  0
VERTEX
  5
105
330
103
100
AcDbEntity
  8
0
 62
     0
100
AcDbVertex
100
AcDb2dVertex
 10
0.0
 20
-0.9999999999999998
 30
0.0
  0
VERTEX
  5
107
330
103
100
AcDbEntity
  8
0
 62
     0
100
AcDbVertex
100
AcDb2dVertex
 10
-0.9999999999999998
 20
0.0
 30
0.0
  0
VERTEX
  5
108
330
103
100
AcDbEntity
  8
0
 62
     0
100
AcDbVertex
100
AcDb2dVertex
 10
0.0
 20
0.9999999999999998
 30
0.0
  0
SEQEND
  5
106
330
103
100
AcDbEntity
  8
0
 62
     0
  0
SOLID
  5
10A
330
100
100
AcDbEntity
  8
0
 62
     0
100
AcDbTrace
 10
0.0
 20
0.9999999999999998
 30
0.0
 11
0.0
 21
-0.9999999999999998
 31
0.0
 12
-0.9999999999999998
 22
0.0
 32
0.0
 13
0.0
 23
0.9999999999999998
 33
0.0
  0
ENDBLK
  5
102
330
100
100
AcDbEntity
  8
0
100
AcDbBlockEnd
  0
BLOCK
  5
10D
330
10C
100
AcDbEntity
  8
0
100
AcDbBlockBegin
  2
Filled-1
 70
     0
 10
0.0
 20
0.0
 30
0.0
  3
Filled-1
  1

  0
LINE
  5
10F
330
10C
100
AcDbEntity
  8
0
 62
     0
100
AcDbLine
 10
-0.9999999999999998
 20
0.0
 30
0.0
 11
0.0
 21
0.0
 31
0.0
  0
POLYLINE
  5
110
330
10C
100
AcDbEntity
  8
0
 62
     0
100
AcDb2dPolyline
 66
     1
 10
0.0
 20
0.0
 30
0.0
 70
   128
  0
VERTEX
  5
111
330
110
100
AcDbEntity
  8
0
 62
     0
100
AcDbVertex
100
AcDb2dVertex
 10
-0.9999999999999998
 20
-0.0994897959183674
 30
0.0
  0
VERTEX
  5
112
330
110
100
AcDbEntity
  8
0
 62
     0
100
AcDbVertex
100
AcDb2dVertex
 10
0.0
 20
0.0
 30
0.0
  0
VERTEX
  5
114
330
110
100
AcDbEntity
  8
0
 62
     0
100
AcDbVertex
100
AcDb2dVertex
 10
-0.9999999999999998
 20
0.0994897959183674
 30
0.0
  0
VERTEX
  5
115
330
110
100
AcDbEntity
  8
0
 62
     0
100
AcDbVertex
100
AcDb2dVertex
 10
-0.9999999999999998
 20
-0.0994897959183674
 30
0.0
  0
SEQEND
  5
113
330
110
100
AcDbEntity
  8
0
 62
     0
  0
SOLID
  5
116
330
10C
100
AcDbEntity
  8
0
 62
     0
100
AcDbTrace
 10
-0.9999999999999998
 20
-0.0994897959183674
 30
0.0
 11
0.0
 21
0.0
 31
0.0
 12
-0.9999999999999998
 22
0.0994897959183674
 32
0.0
 13
-0.9999999999999998
 23
-0.0994897959183674
 33
0.0
  0
LINE
  5
117
330
10C
100
AcDbEntity
  8
0
 62
     0
100
AcDbLine
 10
-0.9999999999999998
 20
-0.0994897959183674
 30
0.0
 11
0.0
 21
0.0
 31
0.0
  0
LINE
  5
118
330
10C
100
AcDbEntity
  8
0
 62
     0
100
AcDbLine
 10
0.0
 20
0.0
 30
0.0
 11
-0.9999999999999998
 21
0.0994897959183674
 31
0.0
  0
LINE
  5
119
330
10C
100
AcDbEntity
  8
0
 62
     0
100
AcDbLine
 10
-0.9999999999999998
 20
0.0994897959183674
 30
0.0
 11
-0.9999999999999998
 21
-0.0994897959183674
 31
0.0
  0
ENDBLK
  5
10E
330
10C
100
AcDbEntity
  8
0
100
AcDbBlockEnd
  0
BLOCK
  5
14B
330
14A
100
AcDbEntity
  8
0
100
AcDbBlockBegin
  2
*D4
 70
     1
 10
0.0
 20
0.0
 30
0.0
  3
*D4
  1

  0
LINE
  5
229
330
14A
100
AcDbEntity
  8
Dimension (ANSI)
440
 16777216
100
AcDbLine
 10
9.886859547155575
 20
10.50544206173588
 30
0.0
 11
6.389568952408566
 21
10.50544206173588
 31
0.0
  0
LINE
  5
22A
330
14A
100
AcDbEntity
  8
Dimension (ANSI)
440
 16777216
100
AcDbLine
 10
9.886859547155571
 20
23.50544206173588
 30
0.0
 11
6.389568952408569
 21
23.50544206173589
 31
0.0
  0
LINE
  5
22B
330
14A
100
AcDbEntity
  8
Dimension (ANSI)
440
 16777216
100
AcDbLine
 10
6.764568952408566
 20
10.80071764559914
 30
0.0
 11
6.764568952408567
 21
16.72345890345807
 31
0.0
  0
LINE
  5
22C
330
14A
100
AcDbEntity
  8
Dimension (ANSI)
440
 16777216
100
AcDbLine
 10
6.764568952408569
 20
23.21016647787263
 30
0.0
 11
6.764568952408567
 21
17.28742522001368
 31
0.0
  0
SOLID
  5
22D
330
14A
100
AcDbEntity
  8
Dimension (ANSI)
440
 16777216
100
AcDbTrace
 10
6.715356355098023
 20
10.80071764559914
 30
0.0
 11
6.813781549719109
 21
10.80071764559914
 31
0.0
 12
6.764568952408566
 22
10.50544206173588
 32
0.0
 13
6.764568952408566
 23
10.50544206173588
 33
0.0
  0
SOLID
  5
22E
330
14A
100
AcDbEntity
  8
Dimension (ANSI)
440
 16777216
100
AcDbTrace
 10
6.715356355098026
 20
23.21016647787263
 30
0.0
 11
6.813781549719112
 21
23.21016647787263
 31
0.0
 12
6.764568952408569
 22
23.50544206173589
 32
0.0
 13
6.764568952408569
 23
23.50544206173589
 33
0.0
  0
MTEXT
  5
22F
330
14A
100
AcDbEntity
  8
Dimension (ANSI)
440
 16777216
100
AcDbMText
 10
6.186368798850401
 20
17.1929370310373
 30
0.0
 40
0.3600000143051147
 41
0.0
 71
     1
 72
     1
  1
\A1;13.00
  7
Note Text (ANSI)
 73
     1
 44
1.0
  0
POINT
  5
230
330
14A
100
AcDbEntity
  8
Defpoints
 62
     0
440
 16777216
100
AcDbPoint
 10
10.07435954715557
 20
10.50544206173588
 30
0.0
  0
POINT
  5
231
330
14A
100
AcDbEntity
  8
Defpoints
 62
     0
440
 16777216
100
AcDbPoint
 10
10.07435954715557
 20
23.50544206173588
 30
0.0
  0
POINT
  5
232
330
14A
100
AcDbEntity
  8
Defpoints
 62
     0
440
 16777216
100
AcDbPoint
 10
6.764568952408569
 20
23.50544206173589
 30
0.0
  0
ENDBLK
  5
14C
330
14A
100
AcDbEntity
  8
0
100
AcDbBlockEnd
  0
BLOCK
  5
235
330
234
100
AcDbEntity
  8
0
100
AcDbBlockBegin
  2
*D5
 70
     1
 10
0.0
 20
0.0
 30
0.0
  3
*D5
  1

  0
LINE
  5
313
330
234
100
AcDbEntity
  8
Dimension (ANSI)
440
 16777216
100
AcDbLine
 10
10.07435954715557
 20
23.69294206173588
 30
0.0
 11
10.07435954715557
 21
26.47886725858628
 31
0.0
  0
LINE
  5
314
330
234
100
AcDbEntity
  8
Dimension (ANSI)
440
 16777216
100
AcDbLine
 10
23.07435954715557
 20
23.69294206173588
 30
0.0
 11
23.07435954715557
 21
26.47886725858628
 31
0.0
  0
LINE
  5
315
330
234
100
AcDbEntity
  8
Dimension (ANSI)
440
 16777216
100
AcDbLine
 10
10.36963513101883
 20
26.10386725858628
 30
0.0
 11
15.90167120462103
 21
26.10386725858628
 31
0.0
  0
LINE
  5
316
330
234
100
AcDbEntity
  8
Dimension (ANSI)
440
 16777216
100
AcDbLine
 10
22.77908396329231
 20
26.10386725858628
 30
0.0
 11
17.24704788969011
 21
26.10386725858628
 31
0.0
  0
SOLID
  5
317
330
234
100
AcDbEntity
  8
Dimension (ANSI)
440
 16777216
100
AcDbTrace
 10
10.36963513101883
 20
26.15307985589682
 30
0.0
 11
10.36963513101883
 21
26.05465466127574
 31
0.0
 12
10.07435954715557
 22
26.10386725858628
 32
0.0
 13
10.07435954715557
 23
26.10386725858628
 33
0.0
  0
SOLID
  5
318
330
234
100
AcDbEntity
  8
Dimension (ANSI)
440
 16777216
100
AcDbTrace
 10
22.77908396329231
 20
26.15307985589682
 30
0.0
 11
22.77908396329231
 21
26.05465466127574
 31
0.0
 12
23.07435954715557
 22
26.10386725858628
 32
0.0
 13
23.07435954715557
 23
26.10386725858628
 33
0.0
  0
MTEXT
  5
319
330
234
100
AcDbEntity
  8
Dimension (ANSI)
440
 16777216
100
AcDbMText
 10
15.99615939359741
 20
26.2913622278877
 30
0.0
 40
0.3600000143051147
 41
0.0
 71
     1
 72
     1
  1
\A1;13.00
  7
Note Text (ANSI)
 73
     1
 44
1.0
  0
POINT
  5
31A
330
234
100
AcDbEntity
  8
Defpoints
 62
     0
440
 16777216
100
AcDbPoint
 10
10.07435954715557
 20
23.50544206173588
 30
0.0
  0
POINT
  5
31B
330
234
100
AcDbEntity
  8
Defpoints
 62
     0
440
 16777216
100
AcDbPoint
 10
23.07435954715557
 20
23.50544206173589
 30
0.0
  0
POINT
  5
31C
330
234
100
AcDbEntity
  8
Defpoints
 62
     0
440
 16777216
100
AcDbPoint
 10
23.07435954715557
 20
26.10386725858628
 30
0.0
  0
ENDBLK
  5
236
330
234
100
AcDbEntity
  8
0
100
AcDbBlockEnd
  0
BLOCK
  5
31F
330
31E
100
AcDbEntity
  8
0
100
AcDbBlockBegin
  2
*D6
 70
     1
 10
0.0
 20
0.0
 30
0.0
  3
*D6
  1

  0
LINE
  5
411
330
31E
100
AcDbEntity
  8
Dimension (ANSI)
440
 16777216
100
AcDbLine
 10
23.07435954715557
 20
23.69294206173588
 30
0.0
 11
23.07435954715557
 21
25.34402893939685
 31
0.0
  0
LINE
  5
412
330
31E
100
AcDbEntity
  8
Dimension (ANSI)
440
 16777216
100
AcDbLine
 10
22.19935954715557
 20
23.47444206173589
 30
0.0
 11
22.19935954715557
 21
25.34402893939685
 31
0.0
  0
LINE
  5
413
330
31E
100
AcDbEntity
  8
Dimension (ANSI)
440
 16777216
100
AcDbLine
 10
21.90408396329232
 20
24.96902893939685
 30
0.0
 11
21.60880837942906
 21
24.96902893939685
 31
0.0
  0
LINE
  5
414
330
31E
100
AcDbEntity
  8
Dimension (ANSI)
440
 16777216
100
AcDbLine
 10
23.36963513101883
 20
24.96902893939685
 30
0.0
 11
24.28562436089594
 21
24.96902893939685
 31
0.0
  0
SOLID
  5
415
330
31E
100
AcDbEntity
  8
Dimension (ANSI)
440
 16777216
100
AcDbTrace
 10
21.90408396329232
 20
25.0182415367074
 30
0.0
 11
21.90408396329232
 21
24.91981634208631
 31
0.0
 12
22.19935954715557
 22
24.96902893939685
 32
0.0
 13
22.19935954715557
 23
24.96902893939685
 33
0.0
  0
SOLID
  5
416
330
31E
100
AcDbEntity
  8
Dimension (ANSI)
440
 16777216
100
AcDbTrace
 10
23.36963513101883
 20
25.0182415367074
 30
0.0
 11
23.36963513101883
 21
24.91981634208631
 31
0.0
 12
23.07435954715557
 22
24.96902893939685
 32
0.0
 13
23.07435954715557
 23
24.96902893939685
 33
0.0
  0
MTEXT
  5
417
330
31E
100
AcDbEntity
  8
Dimension (ANSI)
440
 16777216
100
AcDbMText
 10
24.97269819752905
 20
24.96902893939685
 30
0.0
 40
0.3600000143051147
 41
0.0
 71
     5
 72
     1
  1
\A1;0.875{\PTYP.}
  7
Note Text (ANSI)
 73
     1
 44
1.0
  0
POINT
  5
418
330
31E
100
AcDbEntity
  8
Defpoints
 62
     0
440
 16777216
100
AcDbPoint
 10
23.07435954715557
 20
23.50544206173589
 30
0.0
  0
POINT
  5
419
330
31E
100
AcDbEntity
  8
Defpoints
 62
     0
440
 16777216
100
AcDbPoint
 10
22.19935954715557
 20
23.28694206173588
 30
0.0
  0
POINT
  5
41A
330
31E
100
AcDbEntity
  8
Defpoints
 62
     0
440
 16777216
100
AcDbPoint
 10
22.19935954715557
 20
24.96902893939685
 30
0.0
  0
ENDBLK
  5
320
330
31E
100
AcDbEntity
  8
0
100
AcDbBlockEnd
  0
BLOCK
  5
41D
330
41C
100
AcDbEntity
  8
0
100
AcDbBlockBegin
  2
*D7
 70
     1
 10
0.0
 20
0.0
 30
0.0
  3
*D7
  1

  0
LINE
  5
522
330
41C
100
AcDbEntity
  8
Dimension (ANSI)
440
 16777216
100
AcDbLine
 10
23.26185954715557
 20
23.50544206173589
 30
0.0
 11
26.1586678958737
 21
23.50544206173588
 31
0.0
  0
LINE
  5
523
330
41C
100
AcDbEntity
  8
Dimension (ANSI)
440
 16777216
100
AcDbLine
 10
23.04335954715558
 20
22.63044206173589
 30
0.0
 11
26.1586678958737
 21
22.63044206173588
 31
0.0
  0
LINE
  5
524
330
41C
100
AcDbEntity
  8
Dimension (ANSI)
440
 16777216
100
AcDbLine
 10
25.7836678958737
 20
23.80071764559914
 30
0.0
 11
25.7836678958737
 21
24.0959932294624
 31
0.0
  0
LINE
  5
525
330
41C
100
AcDbEntity
  8
Dimension (ANSI)
440
 16777216
100
AcDbLine
 10
25.7836678958737
 20
22.33516647787262
 30
0.0
 11
25.7836678958737
 21
21.59656760174302
 31
0.0
  0
LINE
  5
526
330
41C
100
AcDbEntity
  8
Dimension (ANSI)
440
 16777216
100
AcDbLine
 10
25.7836678958737
 20
21.59656760174302
 30
0.0
 11
25.48839231201044
 21
21.59656760174302
 31
0.0
  0
SOLID
  5
527
330
41C
100
AcDbEntity
  8
Dimension (ANSI)
440
 16777216
100
AcDbTrace
 10
25.73445529856316
 20
23.80071764559914
 30
0.0
 11
25.83288049318424
 21
23.80071764559914
 31
0.0
 12
25.7836678958737
 22
23.50544206173588
 32
0.0
 13
25.7836678958737
 23
23.50544206173588
 33
0.0
  0
SOLID
  5
528
330
41C
100
AcDbEntity
  8
Dimension (ANSI)
440
 16777216
100
AcDbTrace
 10
25.73445529856316
 20
22.33516647787262
 30
0.0
 11
25.83288049318424
 21
22.33516647787262
 31
0.0
 12
25.7836678958737
 22
22.63044206173588
 32
0.0
 13
25.7836678958737
 23
22.63044206173588
 33
0.0
  0
MTEXT
  5
529
330
41C
100
AcDbEntity
  8
Dimension (ANSI)
440
 16777216
100
AcDbMText
 10
24.20873282772061
 20
21.83862268128378
 30
0.0
 40
0.3600000143051147
 41
0.0
 71
     1
 72
     1
  1
\A1;0.875{\PTYP.}
  7
Note Text (ANSI)
 73
     1
 44
1.0
  0
POINT
  5
52A
330
41C
100
AcDbEntity
  8
Defpoints
 62
     0
440
 16777216
100
AcDbPoint
 10
23.07435954715557
 20
23.50544206173589
 30
0.0
  0
POINT
  5
52B
330
41C
100
AcDbEntity
  8
Defpoints
 62
     0
440
 16777216
100
AcDbPoint
 10
22.85585954715557
 20
22.63044206173589
 30
0.0
  0
POINT
  5
52C
330
41C
100
AcDbEntity
  8
Defpoints
 62
     0
440
 16777216
100
AcDbPoint
 10
25.7836678958737
 20
22.63044206173588
 30
0.0
  0
ENDBLK
  5
41E
330
41C
100
AcDbEntity
  8
0
100
AcDbBlockEnd
  0
BLOCK
  5
52F
330
52E
100
AcDbEntity
  8
0
100
AcDbBlockBegin
  2
*D8
 70
     1
 10
0.0
 20
0.0
 30
0.0
  3
*D8
  1

  0
LINE
  5
5E0
330
52E
100
AcDbEntity
  8
Dimension (ANSI)
440
 16777216
100
AcDbLine
 10
23.75463747420559
 20
9.721597598531253
 30
0.0
 11
23.37025490696822
 21
9.721597598531252
 31
0.0
  0
LINE
  5
5E1
330
52E
100
AcDbEntity
  8
Dimension (ANSI)
440
 16777216
100
AcDbLine
 10
23.37025490696822
 20
9.721597598531252
 30
0.0
 11
22.53196615903453
 21
10.90922776242483
 31
0.0
  0
MTEXT
  5
5E2
102
{ACAD_XDICTIONARY
360
E20
102
}
330
52E
100
AcDbEntity
  8
Dimension (ANSI)
440
 16777216
100
AcDbMText
 10
23.84912566318196
 20
9.993865069362998
 30
0.0
 40
0.3600000143051147
 41
0.0
 71
     1
 72
     1
  1
\A1;\U+22050.563{\P(4 PL.)}
  7
Note Text (ANSI)
 73
     1
 44
1.0
  0
SOLID
  5
5E3
330
52E
100
AcDbEntity
  8
Dimension (ANSI)
440
 16777216
100
AcDbTrace
 10
22.572171882383
 20
10.93760697214031
 30
0.0
 11
22.49176043568605
 21
10.88084855270935
 31
0.0
 12
22.36169090074165
 22
11.15046210251571
 32
0.0
 13
22.36169090074165
 23
11.15046210251571
 33
0.0
  0
LINE
  5
5E4
330
52E
100
AcDbEntity
  8
Dimension (ANSI)
440
 16777216
100
AcDbLine
 10
21.92935954715556
 20
11.38044206173587
 30
0.0
 11
22.46935954715556
 21
11.38044206173587
 31
0.0
  0
LINE
  5
5E5
330
52E
100
AcDbEntity
  8
Dimension (ANSI)
440
 16777216
100
AcDbLine
 10
22.19935954715556
 20
11.11044206173587
 30
0.0
 11
22.19935954715556
 21
11.65044206173587
 31
0.0
  0
POINT
  5
5E6
330
52E
100
AcDbEntity
  8
Defpoints
 62
     0
440
 16777216
100
AcDbPoint
 10
22.36169090074165
 20
11.15046210251571
 30
0.0
  0
POINT
  5
5E7
330
52E
100
AcDbEntity
  8
Defpoints
 62
     0
440
 16777216
100
AcDbPoint
 10
22.03702819356947
 20
11.61042202095603
 30
0.0
  0
ENDBLK
  5
530
330
52E
100
AcDbEntity
  8
0
100
AcDbBlockEnd
  0
BLOCK
  5
5EA
330
5E9
100
AcDbEntity
  8
0
100
AcDbBlockBegin
  2
*D9
 70
     1
 10
0.0
 20
0.0
 30
0.0
  3
*D9
  1

  0
LINE
  5
699
330
5E9
100
AcDbEntity
  8
Dimension (ANSI)
440
 16777216
100
AcDbLine
 10
14.839204050432
 20
9.524844797044254
 30
0.0
 11
14.4689728601834
 21
9.524844797044254
 31
0.0
  0
LINE
  5
69A
330
5E9
100
AcDbEntity
  8
Dimension (ANSI)
440
 16777216
100
AcDbLine
 10
14.4689728601834
 20
9.524844797044254
 30
0.0
 11
13.23464817744215
 21
11.03207659437062
 31
0.0
  0
MTEXT
  5
69B
102
{ACAD_XDICTIONARY
360
E22
102
}
330
5E9
100
AcDbEntity
  8
Dimension (ANSI)
440
 16777216
100
AcDbMText
 10
14.93369223940837
 20
9.771907431577259
 30
0.0
 40
0.3600000143051147
 41
0.0
 71
     1
 72
     1
  1
\A1;\U+22050.310{\PGROUND HOLE}
  7
Note Text (ANSI)
 73
     1
 44
1.0
  0
SOLID
  5
69C
330
5E9
100
AcDbEntity
  8
Dimension (ANSI)
440
 16777216
100
AcDbTrace
 10
13.27272257027343
 20
11.06325704248445
 30
0.0
 11
13.19657378461086
 21
11.0008961462568
 31
0.0
 12
13.04756548875921
 22
11.26052295135832
 32
0.0
 13
13.04756548875921
 23
11.26052295135832
 33
0.0
  0
LINE
  5
69D
330
5E9
100
AcDbEntity
  8
Dimension (ANSI)
440
 16777216
100
AcDbLine
 10
12.67935954715557
 20
11.38044206173587
 30
0.0
 11
13.21935954715557
 21
11.38044206173587
 31
0.0
  0
LINE
  5
69E
330
5E9
100
AcDbEntity
  8
Dimension (ANSI)
440
 16777216
100
AcDbLine
 10
12.94935954715557
 20
11.11044206173587
 30
0.0
 11
12.94935954715557
 21
11.65044206173587
 31
0.0
  0
POINT
  5
69F
330
5E9
100
AcDbEntity
  8
Defpoints
 62
     0
440
 16777216
100
AcDbPoint
 10
13.04756548875921
 20
11.26052295135832
 30
0.0
  0
POINT
  5
6A0
330
5E9
100
AcDbEntity
  8
Defpoints
 62
     0
440
 16777216
100
AcDbPoint
 10
12.85115360555193
 20
11.50036117211342
 30
0.0
  0
ENDBLK
  5
5EB
330
5E9
100
AcDbEntity
  8
0
100
AcDbBlockEnd
  0
BLOCK
  5
6A3
330
6A2
100
AcDbEntity
  8
0
100
AcDbBlockBegin
  2
*D10
 70
     1
 10
0.0
 20
0.0
 30
0.0
  3
*D10
  1

  0
LINE
  5
79F
330
6A2
100
AcDbEntity
  8
Dimension (ANSI)
440
 16777216
100
AcDbLine
 10
33.66597114664247
 20
23.69294206173588
 30
0.0
 11
33.66597114664247
 21
25.06154442394061
 31
0.0
  0
LINE
  5
7A0
330
6A2
100
AcDbEntity
  8
Dimension (ANSI)
440
 16777216
100
AcDbLine
 10
33.73997114664247
 20
23.69294206173588
 30
0.0
 11
33.73997114664247
 21
25.06154442394061
 31
0.0
  0
LINE
  5
7A1
330
6A2
100
AcDbEntity
  8
Dimension (ANSI)
440
 16777216
100
AcDbLine
 10
34.03524673050573
 20
24.68654442394061
 30
0.0
 11
34.33052231436898
 21
24.68654442394061
 31
0.0
  0
LINE
  5
7A2
330
6A2
100
AcDbEntity
  8
Dimension (ANSI)
440
 16777216
100
AcDbLine
 10
33.37069556277921
 20
24.68654442394061
 30
0.0
 11
32.50228740420475
 21
24.68654442394061
 31
0.0
  0
SOLID
  5
7A3
330
6A2
100
AcDbEntity
  8
Dimension (ANSI)
440
 16777216
100
AcDbTrace
 10
34.03524673050573
 20
24.73575702125115
 30
0.0
 11
34.03524673050573
 21
24.63733182663006
 31
0.0
 12
33.73997114664247
 22
24.68654442394061
 32
0.0
 13
33.73997114664247
 23
24.68654442394061
 33
0.0
  0
SOLID
  5
7A4
330
6A2
100
AcDbEntity
  8
Dimension (ANSI)
440
 16777216
100
AcDbTrace
 10
33.37069556277921
 20
24.73575702125115
 30
0.0
 11
33.37069556277921
 21
24.63733182663006
 31
0.0
 12
33.66597114664247
 22
24.68654442394061
 32
0.0
 13
33.66597114664247
 23
24.68654442394061
 33
0.0
  0
MTEXT
  5
7A5
330
6A2
100
AcDbEntity
  8
Dimension (ANSI)
440
 16777216
100
AcDbMText
 10
31.03742979420906
 20
24.68654442394061
 30
0.0
 40
0.3600000143051147
 41
0.0
 71
     5
 72
     1
  1
\A1;{14 GA. C.R.S\P}(0.074)
  7
Note Text (ANSI)
 73
     1
 44
1.0
  0
POINT
  5
7A6
330
6A2
100
AcDbEntity
  8
Defpoints
 62
     0
440
 16777216
100
AcDbPoint
 10
33.66597114664247
 20
23.50544206173588
 30
0.0
  0
POINT
  5
7A7
330
6A2
100
AcDbEntity
  8
Defpoints
 62
     0
440
 16777216
100
AcDbPoint
 10
33.73997114664247
 20
23.50544206173588
 30
0.0
  0
POINT
  5
7A8
330
6A2
100
AcDbEntity
  8
Defpoints
 62
     0
440
 16777216
100
AcDbPoint
 10
33.73997114664247
 20
24.68654442394061
 30
0.0
  0
ENDBLK
  5
6A4
330
6A2
100
AcDbEntity
  8
0
100
AcDbBlockEnd
  0
BLOCK
  5
7AB
330
7AA
100
AcDbEntity
  8
0
100
AcDbBlockBegin
  2
*D11
 70
     1
 10
0.0
 20
0.0
 30
0.0
  3
*D11
  1

  0
LINE
  5
889
330
7AA
100
AcDbEntity
  8
Dimension (ANSI)
440
 16777216
100
AcDbLine
 10
10.10535954715557
 20
11.38044206173588
 30
0.0
 11
8.028095767628014
 21
11.38044206173588
 31
0.0
  0
LINE
  5
88A
330
7AA
100
AcDbEntity
  8
Dimension (ANSI)
440
 16777216
100
AcDbLine
 10
10.10535954715557
 20
22.63044206173588
 30
0.0
 11
8.028095767628018
 21
22.63044206173588
 31
0.0
  0
LINE
  5
88B
330
7AA
100
AcDbEntity
  8
Dimension (ANSI)
440
 16777216
100
AcDbLine
 10
8.403095767628014
 20
11.67571764559914
 30
0.0
 11
8.403095767628016
 21
16.72345890345807
 31
0.0
  0
LINE
  5
88C
330
7AA
100
AcDbEntity
  8
Dimension (ANSI)
440
 16777216
100
AcDbLine
 10
8.403095767628018
 20
22.33516647787262
 30
0.0
 11
8.403095767628016
 21
17.28742522001368
 31
0.0
  0
SOLID
  5
88D
330
7AA
100
AcDbEntity
  8
Dimension (ANSI)
440
 16777216
100
AcDbTrace
 10
8.353883170317471
 20
11.67571764559914
 30
0.0
 11
8.452308364938557
 21
11.67571764559914
 31
0.0
 12
8.403095767628014
 22
11.38044206173588
 32
0.0
 13
8.403095767628014
 23
11.38044206173588
 33
0.0
  0
SOLID
  5
88E
330
7AA
100
AcDbEntity
  8
Dimension (ANSI)
440
 16777216
100
AcDbTrace
 10
8.353883170317475
 20
22.33516647787262
 30
0.0
 11
8.452308364938561
 21
22.33516647787262
 31
0.0
 12
8.403095767628018
 22
22.63044206173588
 32
0.0
 13
8.403095767628018
 23
22.63044206173588
 33
0.0
  0
MTEXT
  5
88F
330
7AA
100
AcDbEntity
  8
Dimension (ANSI)
440
 16777216
100
AcDbMText
 10
7.689744501446387
 20
17.19293703103731
 30
0.0
 40
0.3600000143051147
 41
0.0
 71
     1
 72
     1
  1
\A1;11.250
  7
Note Text (ANSI)
 73
     1
 44
1.0
  0
POINT
  5
890
330
7AA
100
AcDbEntity
  8
Defpoints
 62
     0
440
 16777216
100
AcDbPoint
 10
10.29285954715557
 20
11.38044206173588
 30
0.0
  0
POINT
  5
891
330
7AA
100
AcDbEntity
  8
Defpoints
 62
     0
440
 16777216
100
AcDbPoint
 10
10.29285954715557
 20
22.63044206173588
 30
0.0
  0
POINT
  5
892
330
7AA
100
AcDbEntity
  8
Defpoints
 62
     0
440
 16777216
100
AcDbPoint
 10
8.403095767628018
 20
22.63044206173588
 30
0.0
  0
ENDBLK
  5
7AC
330
7AA
100
AcDbEntity
  8
0
100
AcDbBlockEnd
  0
BLOCK
  5
895
330
894
100
AcDbEntity
  8
0
100
AcDbBlockBegin
  2
*D12
 70
     1
 10
0.0
 20
0.0
 30
0.0
  3
*D12
  1

  0
LINE
  5
973
330
894
100
AcDbEntity
  8
Dimension (ANSI)
440
 16777216
100
AcDbLine
 10
10.94935954715557
 20
23.47444206173588
 30
0.0
 11
10.94935954715557
 21
25.34402893939685
 31
0.0
  0
LINE
  5
974
330
894
100
AcDbEntity
  8
Dimension (ANSI)
440
 16777216
100
AcDbLine
 10
22.19935954715557
 20
23.47444206173589
 30
0.0
 11
22.19935954715557
 21
25.34402893939685
 31
0.0
  0
LINE
  5
975
330
894
100
AcDbEntity
  8
Dimension (ANSI)
440
 16777216
100
AcDbLine
 10
11.24463513101883
 20
24.96902893939685
 30
0.0
 11
15.76652009199756
 21
24.96902893939685
 31
0.0
  0
LINE
  5
976
330
894
100
AcDbEntity
  8
Dimension (ANSI)
440
 16777216
100
AcDbLine
 10
21.90408396329232
 20
24.96902893939685
 30
0.0
 11
17.38219900231357
 21
24.96902893939685
 31
0.0
  0
SOLID
  5
977
330
894
100
AcDbEntity
  8
Dimension (ANSI)
440
 16777216
100
AcDbTrace
 10
11.24463513101883
 20
25.01824153670739
 30
0.0
 11
11.24463513101883
 21
24.9198163420863
 31
0.0
 12
10.94935954715557
 22
24.96902893939685
 32
0.0
 13
10.94935954715557
 23
24.96902893939685
 33
0.0
  0
SOLID
  5
978
330
894
100
AcDbEntity
  8
Dimension (ANSI)
440
 16777216
100
AcDbTrace
 10
21.90408396329232
 20
25.01824153670739
 30
0.0
 11
21.90408396329232
 21
24.9198163420863
 31
0.0
 12
22.19935954715557
 22
24.96902893939685
 32
0.0
 13
22.19935954715557
 23
24.96902893939685
 33
0.0
  0
MTEXT
  5
979
330
894
100
AcDbEntity
  8
Dimension (ANSI)
440
 16777216
100
AcDbMText
 10
15.86100828097394
 20
25.15652390869827
 30
0.0
 40
0.3600000143051147
 41
0.0
 71
     1
 72
     1
  1
\A1;11.250
  7
Note Text (ANSI)
 73
     1
 44
1.0
  0
POINT
  5
97A
330
894
100
AcDbEntity
  8
Defpoints
 62
     0
440
 16777216
100
AcDbPoint
 10
10.94935954715557
 20
23.28694206173588
 30
0.0
  0
POINT
  5
97B
330
894
100
AcDbEntity
  8
Defpoints
 62
     0
440
 16777216
100
AcDbPoint
 10
22.19935954715557
 20
23.28694206173588
 30
0.0
  0
POINT
  5
97C
330
894
100
AcDbEntity
  8
Defpoints
 62
     0
440
 16777216
100
AcDbPoint
 10
22.19935954715557
 20
24.96902893939685
 30
0.0
  0
ENDBLK
  5
896
330
894
100
AcDbEntity
  8
0
100
AcDbBlockEnd
  0
BLOCK
  5
97F
330
97E
100
AcDbEntity
  8
0
100
AcDbBlockBegin
  2
*D13
 70
     1
 10
0.0
 20
0.0
 30
0.0
  3
*D13
  1

  0
LINE
  5
A5D
330
97E
100
AcDbEntity
  8
Dimension (ANSI)
440
 16777216
100
AcDbLine
 10
10.94935954715557
 20
10.53644206173588
 30
0.0
 11
10.94935954715557
 21
8.990678282208321
 31
0.0
  0
LINE
  5
A5E
330
97E
100
AcDbEntity
  8
Dimension (ANSI)
440
 16777216
100
AcDbLine
 10
12.94935954715557
 20
10.66294206173588
 30
0.0
 11
12.94935954715557
 21
8.990678282208321
 31
0.0
  0
LINE
  5
A5F
330
97E
100
AcDbEntity
  8
Dimension (ANSI)
440
 16777216
100
AcDbLine
 10
10.65408396329231
 20
9.365678282208321
 30
0.0
 11
10.35880837942905
 21
9.365678282208321
 31
0.0
  0
LINE
  5
A60
330
97E
100
AcDbEntity
  8
Dimension (ANSI)
440
 16777216
100
AcDbLine
 10
13.24463513101883
 20
9.365678282208321
 30
0.0
 11
13.53991071488209
 21
9.365678282208321
 31
0.0
  0
SOLID
  5
A61
330
97E
100
AcDbEntity
  8
Dimension (ANSI)
440
 16777216
100
AcDbTrace
 10
10.65408396329231
 20
9.414890879518864
 30
0.0
 11
10.65408396329231
 21
9.316465684897778
 31
0.0
 12
10.94935954715557
 22
9.365678282208321
 32
0.0
 13
10.94935954715557
 23
9.365678282208321
 33
0.0
  0
SOLID
  5
A62
330
97E
100
AcDbEntity
  8
Dimension (ANSI)
440
 16777216
100
AcDbTrace
 10
13.24463513101883
 20
9.414890879518864
 30
0.0
 11
13.24463513101883
 21
9.316465684897778
 31
0.0
 12
12.94935954715557
 22
9.365678282208321
 32
0.0
 13
12.94935954715557
 23
9.365678282208321
 33
0.0
  0
MTEXT
  5
A63
330
97E
100
AcDbEntity
  8
Dimension (ANSI)
440
 16777216
100
AcDbMText
 10
11.3570156725089
 20
9.553173251509745
 30
0.0
 40
0.3600000143051147
 41
0.0
 71
     1
 72
     1
  1
\A1;2.000
  7
Note Text (ANSI)
 73
     1
 44
1.0
  0
POINT
  5
A64
330
97E
100
AcDbEntity
  8
Defpoints
 62
     0
440
 16777216
100
AcDbPoint
 10
10.94935954715557
 20
10.72394206173588
 30
0.0
  0
POINT
  5
A65
330
97E
100
AcDbEntity
  8
Defpoints
 62
     0
440
 16777216
100
AcDbPoint
 10
12.94935954715557
 20
10.85044206173588
 30
0.0
  0
POINT
  5
A66
330
97E
100
AcDbEntity
  8
Defpoints
 62
     0
440
 16777216
100
AcDbPoint
 10
12.94935954715557
 20
9.365678282208321
 30
0.0
  0
ENDBLK
  5
980
330
97E
100
AcDbEntity
  8
0
100
AcDbBlockEnd
  0
BLOCK
  5
B02
330
B01
100
AcDbEntity
  8
0
100
AcDbBlockBegin
  2
*D14
 70
     1
 10
0.0
 20
0.0
 30
0.0
  3
*D14
  1

  0
LINE
  5
BFE
330
B01
100
AcDbEntity
  8
Dimension (ANSI)
440
 16777216
100
AcDbLine
 10
43.79484769308797
 20
12.07014214223832
 30
0.0
 11
43.79484769308797
 21
14.85606733908872
 31
0.0
  0
LINE
  5
BFF
330
B01
100
AcDbEntity
  8
Dimension (ANSI)
440
 16777216
100
AcDbLine
 10
44.29484769308797
 20
12.07014214223832
 30
0.0
 11
44.29484769308797
 21
14.85606733908872
 31
0.0
  0
LINE
  5
C00
330
B01
100
AcDbEntity
  8
Dimension (ANSI)
440
 16777216
100
AcDbLine
 10
44.59012327695123
 20
14.48106733908872
 30
0.0
 11
44.88539886081449
 21
14.48106733908872
 31
0.0
  0
LINE
  5
C01
330
B01
100
AcDbEntity
  8
Dimension (ANSI)
440
 16777216
100
AcDbLine
 10
43.49957210922471
 20
14.48106733908872
 30
0.0
 11
42.32545476332433
 21
14.48106733908872
 31
0.0
  0
SOLID
  5
C02
330
B01
100
AcDbEntity
  8
Dimension (ANSI)
440
 16777216
100
AcDbTrace
 10
44.59012327695123
 20
14.53027993639926
 30
0.0
 11
44.59012327695123
 21
14.43185474177817
 31
0.0
 12
44.29484769308797
 22
14.48106733908872
 32
0.0
 13
44.29484769308797
 23
14.48106733908872
 33
0.0
  0
SOLID
  5
C03
330
B01
100
AcDbEntity
  8
Dimension (ANSI)
440
 16777216
100
AcDbTrace
 10
43.49957210922471
 20
14.53027993639926
 30
0.0
 11
43.49957210922471
 21
14.43185474177817
 31
0.0
 12
43.79484769308797
 22
14.48106733908872
 32
0.0
 13
43.79484769308797
 23
14.48106733908872
 33
0.0
  0
MTEXT
  5
C04
330
B01
100
AcDbEntity
  8
Dimension (ANSI)
440
 16777216
100
AcDbMText
 10
41.63547965057051
 20
14.48106733908872
 30
0.0
 40
0.3600000143051147
 41
0.0
 71
     5
 72
     1
  1
\A1;0.250{\PTYP.}
  7
Note Text (ANSI)
 73
     1
 44
1.0
  0
POINT
  5
C05
330
B01
100
AcDbEntity
  8
Defpoints
 62
     0
440
 16777216
100
AcDbPoint
 10
43.79484769308797
 20
11.88264214223832
 30
0.0
  0
POINT
  5
C06
330
B01
100
AcDbEntity
  8
Defpoints
 62
     0
440
 16777216
100
AcDbPoint
 10
44.29484769308797
 20
11.88264214223832
 30
0.0
  0
POINT
  5
C07
330
B01
100
AcDbEntity
  8
Defpoints
 62
     0
440
 16777216
100
AcDbPoint
 10
44.29484769308797
 20
14.48106733908872
 30
0.0
  0
ENDBLK
  5
B03
330
B01
100
AcDbEntity
  8
0
100
AcDbBlockEnd
  0
BLOCK
  5
C0A
330
C09
100
AcDbEntity
  8
0
100
AcDbBlockBegin
  2
*D15
 70
     1
 10
0.0
 20
0.0
 30
0.0
  3
*D15
  1

  0
LINE
  5
D1C
330
C09
100
AcDbEntity
  8
Dimension (ANSI)
440
 16777216
100
AcDbLine
 10
43.60734769308797
 20
11.88264214223832
 30
0.0
 11
40.32003370788052
 21
11.88264214223832
 31
0.0
  0
LINE
  5
D1D
330
C09
100
AcDbEntity
  8
Dimension (ANSI)
440
 16777216
100
AcDbLine
 10
43.60734769308797
 20
11.38264214223832
 30
0.0
 11
40.32003370788052
 21
11.38264214223832
 31
0.0
  0
LINE
  5
D1E
330
C09
100
AcDbEntity
  8
Dimension (ANSI)
440
 16777216
100
AcDbLine
 10
40.69503370788051
 20
11.08736655837507
 30
0.0
 11
40.69503370788051
 21
10.79209097451181
 31
0.0
  0
LINE
  5
D1F
330
C09
100
AcDbEntity
  8
Dimension (ANSI)
440
 16777216
100
AcDbLine
 10
40.69503370788051
 20
12.17791772610158
 30
0.0
 11
40.69503370788051
 21
13.18270989794356
 31
0.0
  0
LINE
  5
D20
330
C09
100
AcDbEntity
  8
Dimension (ANSI)
440
 16777216
100
AcDbLine
 10
40.69503370788051
 20
13.18270989794356
 30
0.0
 11
40.99030929174378
 21
13.18270989794356
 31
0.0
  0
SOLID
  5
D21
330
C09
100
AcDbEntity
  8
Dimension (ANSI)
440
 16777216
100
AcDbTrace
 10
40.64582111056997
 20
11.08736655837507
 30
0.0
 11
40.74424630519106
 21
11.08736655837507
 31
0.0
 12
40.69503370788051
 22
11.38264214223832
 32
0.0
 13
40.69503370788051
 23
11.38264214223832
 33
0.0
  0
SOLID
  5
D22
330
C09
100
AcDbEntity
  8
Dimension (ANSI)
440
 16777216
100
AcDbTrace
 10
40.64582111056997
 20
12.17791772610158
 30
0.0
 11
40.74424630519106
 21
12.17791772610158
 31
0.0
 12
40.69503370788051
 22
11.88264214223832
 32
0.0
 13
40.69503370788051
 23
11.88264214223832
 33
0.0
  0
MTEXT
  5
D23
330
C09
100
AcDbEntity
  8
Dimension (ANSI)
440
 16777216
100
AcDbMText
 10
41.68028440449759
 20
13.18270989794356
 30
0.0
 40
0.3600000143051147
 41
0.0
 71
     5
 72
     1
  1
\A1;0.250{\PTYP.}
  7
Note Text (ANSI)
 73
     1
 44
1.0
  0
POINT
  5
D24
330
C09
100
AcDbEntity
  8
Defpoints
 62
     0
440
 16777216
100
AcDbPoint
 10
43.79484769308797
 20
11.88264214223832
 30
0.0
  0
POINT
  5
D25
330
C09
100
AcDbEntity
  8
Defpoints
 62
     0
440
 16777216
100
AcDbPoint
 10
43.79484769308797
 20
11.38264214223832
 30
0.0
  0
POINT
  5
D26
330
C09
100
AcDbEntity
  8
Defpoints
 62
     0
440
 16777216
100
AcDbPoint
 10
40.69503370788051
 20
11.38264214223832
 30
0.0
  0
ENDBLK
  5
C0B
330
C09
100
AcDbEntity
  8
0
100
AcDbBlockEnd
  0
BLOCK
  5
D29
330
D28
100
AcDbEntity
  8
0
100
AcDbBlockBegin
  2
*D16
 70
     1
 10
0.0
 20
0.0
 30
0.0
  3
*D16
  1

  0
LINE
  5
DC9
330
D28
100
AcDbEntity
  8
Dimension (ANSI)
440
 16777216
100
AcDbLine
 10
46.37850878171024
 20
13.11637100442615
 30
0.0
 11
46.00714138377945
 21
13.11637100442615
 31
0.0
  0
LINE
  5
DCA
330
D28
100
AcDbEntity
  8
Dimension (ANSI)
440
 16777216
100
AcDbLine
 10
46.00714138377945
 20
13.11637100442615
 30
0.0
 11
45.50748548501968
 21
12.25094160147313
 31
0.0
  0
MTEXT
  5
DCB
102
{ACAD_XDICTIONARY
360
E24
102
}
330
D28
100
AcDbEntity
  8
Dimension (ANSI)
440
 16777216
100
AcDbMText
 10
47.27294585313025
 20
13.11637100442616
 30
0.0
 40
0.3600000143051147
 41
0.0
 71
     5
 72
     1
  1
\A1;{\fAIGDT|b0|i0;\H0.3600;\ln\fTahoma|b0|i0;\H0.3600;}0.130{\fTahoma|b0|i0;\H0.3600;\U+F8FA\fTahoma|b0|i0;\H0.3600;TYP.}
  7
Note Text (ANSI)
 73
     1
 44
1.0
  0
SOLID
  5
DCC
330
D28
100
AcDbEntity
  8
Dimension (ANSI)
440
 16777216
100
AcDbTrace
 10
45.46486612556255
 20
12.27554790012841
 30
0.0
 11
45.55010484447682
 21
12.22633530281785
 31
0.0
 12
45.359847693088
 22
11.99522544473029
 32
0.0
 13
45.359847693088
 23
11.99522544473029
 33
0.0
  0
LINE
  5
DCD
330
D28
100
AcDbEntity
  8
Dimension (ANSI)
440
 16777216
100
AcDbLine
 10
45.02484769308798
 20
11.88264214223832
 30
0.0
 11
45.56484769308799
 21
11.88264214223832
 31
0.0
  0
LINE
  5
DCE
330
D28
100
AcDbEntity
  8
Dimension (ANSI)
440
 16777216
100
AcDbLine
 10
45.29484769308798
 20
11.61264214223833
 30
0.0
 11
45.29484769308798
 21
12.15264214223833
 31
0.0
  0
POINT
  5
DCF
330
D28
100
AcDbEntity
  8
Defpoints
 62
     0
440
 16777216
100
AcDbPoint
 10
45.359847693088
 20
11.99522544473029
 30
0.0
  0
POINT
  5
DD0
330
D28
100
AcDbEntity
  8
Defpoints
 62
     0
440
 16777216
100
AcDbPoint
 10
45.22984769308796
 20
11.77005883974636
 30
0.0
  0
ENDBLK
  5
D2A
330
D28
100
AcDbEntity
  8
0
100
AcDbBlockEnd
  0
ENDSEC
  0
SECTION
  2
ENTITIES
  0
CIRCLE
  5
11B
330
6C
100
AcDbEntity
  8
Visible (ANSI)
100
AcDbCircle
 10
12.94935954715557
 20
11.38044206173588
 30
0.0
 40
0.155
  0
CIRCLE
  5
11C
330
6C
100
AcDbEntity
  8
Visible (ANSI)
100
AcDbCircle
 10
22.19935954715557
 20
22.63044206173588
 30
0.0
 40
0.2814999999999999
  0
CIRCLE
  5
11D
330
6C
100
AcDbEntity
  8
Visible (ANSI)
100
AcDbCircle
 10
22.19935954715557
 20
11.38044206173588
 30
0.0
 40
0.2814999999999999
  0
CIRCLE
  5
11E
330
6C
100
AcDbEntity
  8
Visible (ANSI)
100
AcDbCircle
 10
10.94935954715557
 20
11.38044206173588
 30
0.0
 40
0.2814999999999999
  0
CIRCLE
  5
11F
330
6C
100
AcDbEntity
  8
Visible (ANSI)
100
AcDbCircle
 10
10.94935954715557
 20
22.63044206173588
 30
0.0
 40
0.2814999999999999
  0
LINE
  5
120
330
6C
100
AcDbEntity
  8
Visible (ANSI)
100
AcDbLine
 10
10.07435954715557
 20
10.50544206173588
 30
0.0
 11
10.07435954715557
 21
23.50544206173588
 31
0.0
  0
LINE
  5
121
330
6C
100
AcDbEntity
  8
Visible (ANSI)
100
AcDbLine
 10
10.07435954715557
 20
23.50544206173588
 30
0.0
 11
23.07435954715557
 21
23.50544206173589
 31
0.0
  0
LINE
  5
122
330
6C
100
AcDbEntity
  8
Visible (ANSI)
100
AcDbLine
 10
23.07435954715557
 20
23.50544206173589
 30
0.0
 11
23.07435954715558
 21
10.50544206173588
 31
0.0
  0
LINE
  5
123
330
6C
100
AcDbEntity
  8
Visible (ANSI)
100
AcDbLine
 10
23.07435954715558
 20
10.50544206173588
 30
0.0
 11
10.07435954715557
 21
10.50544206173588
 31
0.0
  0
MTEXT
  5
125
330
6C
100
AcDbEntity
  8
Symbol (ANSI)
100
AcDbMText
 10
15.26554000591767
 20
6.845289484035879
 30
0.0
 40
0.3600000044492286
 41
0.0
 71
     7
 72
     1
  1
FRONT VIEW
  7
Text Style166
 73
     1
 44
1.0
  0
LINE
  5
127
330
6C
100
AcDbEntity
  8
Symbol (ANSI)
370
    30
100
AcDbLine
 10
15.22953991331251
 20
6.771874571911208
 30
0.0
 11
18.12383492616955
 21
6.771874571911208
 31
0.0
  0
LINE
  5
128
330
6C
100
AcDbEntity
  8
Visible (ANSI)
100
AcDbLine
 10
33.73997114664247
 20
23.50544206173589
 30
0.0
 11
33.66597114664247
 21
23.50544206173589
 31
0.0
  0
LINE
  5
129
330
6C
100
AcDbEntity
  8
Visible (ANSI)
100
AcDbLine
 10
33.66597114664247
 20
23.50544206173589
 30
0.0
 11
33.66597114664247
 21
10.50544206173588
 31
0.0
  0
LINE
  5
12A
330
6C
100
AcDbEntity
  8
Visible (ANSI)
100
AcDbLine
 10
33.73997114664247
 20
10.50544206173588
 30
0.0
 11
33.66597114664247
 21
10.50544206173588
 31
0.0
  0
LINE
  5
12B
330
6C
100
AcDbEntity
  8
Visible (ANSI)
100
AcDbLine
 10
33.73997114664247
 20
10.50544206173588
 30
0.0
 11
33.73997114664247
 21
23.50544206173589
 31
0.0
  0
LINE
  5
12C
330
6C
100
AcDbEntity
  8
Hidden (ANSI)
 48
0.0468825176358223
100
AcDbLine
 10
33.66597114663946
 20
11.53544206173588
 30
0.0
 11
33.73997114663946
 21
11.53544206173588
 31
0.0
  0
LINE
  5
12D
330
6C
100
AcDbEntity
  8
Hidden (ANSI)
 48
0.0468825176358223
100
AcDbLine
 10
33.66597114663946
 20
11.22544206173588
 30
0.0
 11
33.73997114663946
 21
11.22544206173588
 31
0.0
  0
LINE
  5
12E
330
6C
100
AcDbEntity
  8
Hidden (ANSI)
 48
0.0468825176358223
100
AcDbLine
 10
33.7399711466422
 20
22.34894206173588
 30
0.0
 11
33.66597114664221
 21
22.34894206173588
 31
0.0
  0
LINE
  5
12F
330
6C
100
AcDbEntity
  8
Hidden (ANSI)
 48
0.0468825176358223
100
AcDbLine
 10
33.7399711466422
 20
22.91194206173588
 30
0.0
 11
33.66597114664221
 21
22.91194206173588
 31
0.0
  0
LINE
  5
130
330
6C
100
AcDbEntity
  8
Hidden (ANSI)
 48
0.0468825176358223
100
AcDbLine
 10
33.7399711466422
 20
11.09894206173588
 30
0.0
 11
33.66597114664221
 21
11.09894206173588
 31
0.0
  0
LINE
  5
131
330
6C
100
AcDbEntity
  8
Hidden (ANSI)
 48
0.0468825176358223
100
AcDbLine
 10
33.7399711466422
 20
11.66194206173588
 30
0.0
 11
33.66597114664221
 21
11.66194206173588
 31
0.0
  0
MTEXT
  5
132
330
6C
100
AcDbEntity
  8
Symbol (ANSI)
100
AcDbMText
 10
32.45256760301935
 20
7.030870424382573
 30
0.0
 40
0.3600000044492286
 41
0.0
 71
     7
 72
     1
  1
SIDE VIEW
  7
Text Style166
 73
     1
 44
1.0
  0
LINE
  5
133
330
6C
100
AcDbEntity
  8
Symbol (ANSI)
370
    30
100
AcDbLine
 10
32.4341355556055
 20
6.956288575888452
 30
0.0
 11
34.86690701682199
 21
6.956288575888452
 31
0.0
  0
ELLIPSE
  5
134
330
6C
100
AcDbEntity
  8
Visible (ANSI)
100
AcDbEllipse
 10
41.79475878784845
 20
20.79045647587806
 30
0.0
 11
-0.0580124945966871
 21
0.1007403244518764
 31
0.0
210
0.0
220
0.0
230
1.0
 40
0.578093115915809
 41
0.3436602396192903
 42
2.797932413970581
  0
ELLIPSE
  5
135
330
6C
100
AcDbEntity
  8
Visible (ANSI)
100
AcDbEllipse
 10
41.75551436149262
 20
20.76785711376258
 30
0.0
 11
-0.0580124945966871
 21
0.1007403244518765
 31
0.0
210
0.0
220
0.0
230
1.0
 40
0.5780931159158089
 41
0.0
 42
6.283185307179586
  0
ELLIPSE
  5
136
330
6C
100
AcDbEntity
  8
Visible (ANSI)
100
AcDbEllipse
 10
46.66106765597502
 20
24.84099071518757
 30
0.0
 11
-0.1053581756707576
 21
0.1829574279561499
 31
0.0
210
0.0
220
0.0
230
1.0
 40
0.578093115915809
 41
0.0
 42
6.283185307179586
  0
ELLIPSE
  5
137
330
6C
100
AcDbEntity
  8
Visible (ANSI)
100
AcDbEllipse
 10
46.70031208233087
 20
24.86359007730305
 30
0.0
 11
-0.1053581756707576
 21
0.1829574279561499
 31
0.0
210
0.0
220
0.0
230
0.9999999999999998
 40
0.578093115915809
 41
0.1866051131310717
 42
2.954987540458744
  0
ELLIPSE
  5
138
330
6C
100
AcDbEntity
  8
Visible (ANSI)
100
AcDbEllipse
 10
46.66106765597501
 20
17.94293684932866
 30
0.0
 11
-0.1053581756707576
 21
0.1829574279561499
 31
0.0
210
0.0
220
0.0
230
1.0
 40
0.578093115915809
 41
0.0
 42
6.283185307179586
  0
ELLIPSE
  5
139
330
6C
100
AcDbEntity
  8
Visible (ANSI)
100
AcDbEllipse
 10
46.70031208233086
 20
17.96553621144413
 30
0.0
 11
-0.1053581756707574
 21
0.1829574279561494
 31
0.0
210
0.0
220
0.0
230
0.9999999999999998
 40
0.578093115915809
 41
0.1866051131310825
 42
2.954987540458758
  0
ELLIPSE
  5
13A
330
6C
100
AcDbEntity
  8
Visible (ANSI)
100
AcDbEllipse
 10
40.69485418971263
 20
21.378650684451
 30
0.0
 11
-0.1053581756707576
 21
0.1829574279561499
 31
0.0
210
0.0
220
0.0
230
1.0
 40
0.578093115915809
 41
0.0
 42
6.283185307179586
  0
ELLIPSE
  5
13B
330
6C
100
AcDbEntity
  8
Visible (ANSI)
100
AcDbEllipse
 10
40.73409861606847
 20
21.40125004656648
 30
0.0
 11
-0.1053581756707576
 21
0.1829574279561499
 31
0.0
210
0.0
220
0.0
230
0.9999999999999998
 40
0.578093115915809
 41
0.1866051131310176
 42
2.954987540458744
  0
ELLIPSE
  5
13C
330
6C
100
AcDbEntity
  8
Visible (ANSI)
100
AcDbEllipse
 10
40.69485418971265
 20
28.27670455030991
 30
0.0
 11
-0.1053581756707576
 21
0.1829574279561499
 31
0.0
210
0.0
220
0.0
230
1.0
 40
0.578093115915809
 41
0.0
 42
6.283185307179586
  0
ELLIPSE
  5
13D
330
6C
100
AcDbEntity
  8
Visible (ANSI)
100
AcDbEllipse
 10
40.7340986160685
 20
28.29930391242539
 30
0.0
 11
-0.1053581756707574
 21
0.1829574279561496
 31
0.0
210
0.0
220
0.0
230
1.0
 40
0.578093115915809
 41
0.1866051131310725
 42
2.954987540458758
  0
LINE
  5
13E
330
6C
100
AcDbEntity
  8
Visible (ANSI)
100
AcDbLine
 10
40.23081536455889
 20
21.10935757094927
 30
0.0
 11
40.23081536455891
 21
29.080442038164
 31
0.0
  0
LINE
  5
13F
330
6C
100
AcDbEntity
  8
Visible (ANSI)
100
AcDbLine
 10
40.27005979091476
 20
29.10304140027948
 30
0.0
 11
40.23081536455891
 21
29.080442038164
 31
0.0
  0
LINE
  5
140
330
6C
100
AcDbEntity
  8
Visible (ANSI)
100
AcDbLine
 10
40.23081536455891
 20
29.080442038164
 30
0.0
 11
47.12510648112877
 21
25.1102838286893
 31
0.0
  0
LINE
  5
141
330
6C
100
AcDbEntity
  8
Visible (ANSI)
100
AcDbLine
 10
47.16435090748461
 20
25.13288319080478
 30
0.0
 11
47.12510648112877
 21
25.1102838286893
 31
0.0
  0
LINE
  5
142
330
6C
100
AcDbEntity
  8
Visible (ANSI)
100
AcDbLine
 10
47.16435090748461
 20
25.13288319080478
 30
0.0
 11
40.27005979091476
 21
29.10304140027948
 31
0.0
  0
LINE
  5
143
330
6C
100
AcDbEntity
  8
Visible (ANSI)
100
AcDbLine
 10
47.12510648112877
 20
25.1102838286893
 30
0.0
 11
47.12510648112874
 21
17.13919936147456
 31
0.0
  0
LINE
  5
144
330
6C
100
AcDbEntity
  8
Visible (ANSI)
100
AcDbLine
 10
47.1643509074846
 20
17.16179872359004
 30
0.0
 11
47.12510648112874
 21
17.13919936147456
 31
0.0
  0
LINE
  5
145
330
6C
100
AcDbEntity
  8
Visible (ANSI)
100
AcDbLine
 10
47.1643509074846
 20
17.16179872359004
 30
0.0
 11
47.16435090748461
 21
25.13288319080478
 31
0.0
  0
LINE
  5
146
330
6C
100
AcDbEntity
  8
Visible (ANSI)
100
AcDbLine
 10
47.12510648112874
 20
17.13919936147456
 30
0.0
 11
40.23081536455889
 21
21.10935757094927
 31
0.0
  0
DIMENSION
  5
147
330
6C
100
AcDbEntity
  8
Dimension (ANSI)
100
AcDbDimension
  2
*D4
 10
6.764568952408569
 20
23.50544206173589
 30
0.0
 11
6.764568952408565
 21
17.00544206173588
 31
0.0
 70
   160
  1
<>
 42
13.0
  3
Default (ANSI)
100
AcDbAlignedDimension
 13
10.07435954715557
 23
10.50544206173588
 33
0.0
 14
10.07435954715557
 24
23.50544206173588
 34
0.0
 50
90.0
100
AcDbRotatedDimension
1001
ACAD
1000
DSTYLE
1002
{
1070
   289
1070
     1
1070
   271
1070
     2
1070
   272
1070
     2
1070
    48
1040
0.0
1070
    47
1040
0.0
1002
}
  0
DIMENSION
  5
233
330
6C
100
AcDbEntity
  8
Dimension (ANSI)
100
AcDbDimension
  2
*D5
 10
23.07435954715557
 20
26.10386725858628
 30
0.0
 11
16.57435954715557
 21
26.10386725858628
 31
0.0
 70
   160
  1
<>
 42
13.0
  3
Default (ANSI)
100
AcDbAlignedDimension
 13
10.07435954715557
 23
23.50544206173588
 33
0.0
 14
23.07435954715557
 24
23.50544206173589
 34
0.0
100
AcDbRotatedDimension
1001
ACAD
1000
DSTYLE
1002
{
1070
   289
1070
     1
1070
    73
1070
     0
1070
    74
1070
     0
1070
   271
1070
     2
1070
   272
1070
     2
1070
    48
1040
0.0
1070
    47
1040
0.0
1002
}
  0
DIMENSION
  5
31D
330
6C
100
AcDbEntity
  8
Dimension (ANSI)
100
AcDbDimension
  2
*D6
 10
22.19935954715557
 20
24.96902893939685
 30
0.0
 11
24.97269819752905
 21
24.96902893939685
 31
0.0
 70
   160
  1
<>{\PTYP.}
 71
     5
 42
0.8749999999999964
  3
Default (ANSI)
100
AcDbAlignedDimension
 13
23.07435954715557
 23
23.50544206173589
 33
0.0
 14
22.19935954715557
 24
23.28694206173588
 34
0.0
 50
180.0
100
AcDbRotatedDimension
1001
ACAD
1000
DSTYLE
1002
{
1070
   289
1070
     1
1070
    73
1070
     0
1070
    74
1070
     0
1070
   271
1070
     3
1070
   272
1070
     3
1070
    48
1040
0.0
1070
    47
1040
0.0
1002
}
  0
DIMENSION
  5
41B
330
6C
100
AcDbEntity
  8
Dimension (ANSI)
100
AcDbDimension
  2
*D7
 10
25.7836678958737
 20
22.63044206173588
 30
0.0
 11
24.80131847537733
 21
21.59656760174302
 31
0.0
 70
   160
  1
<>{\PTYP.}
 42
0.875
  3
Default (ANSI)
100
AcDbAlignedDimension
 13
23.07435954715557
 23
23.50544206173589
 33
0.0
 14
22.85585954715557
 24
22.63044206173589
 34
0.0
 50
90.0
100
AcDbRotatedDimension
1001
ACAD
1000
DSTYLE
1002
{
1070
   289
1070
     1
1070
   145
1040
-0.25
1070
   271
1070
     3
1070
   272
1070
     3
1070
    48
1040
0.0
1070
    47
1040
0.0
1002
}
  0
DIMENSION
  5
52D
330
6C
100
AcDbEntity
  8
Dimension (ANSI)
100
AcDbDimension
  2
*D8
 10
22.03702819356947
 20
11.61042202095603
 30
0.0
 11
24.63605937631899
 21
9.721597598531252
 31
0.0
 70
   163
  1
<>{\P(4 PL.)}
 42
0.5629999999999999
  3
Default (ANSI)
100
AcDbDiametricDimension
 15
22.36169090074165
 25
11.15046210251571
 35
0.0
 40
0.0
1001
ACAD_DSTYLE_DIMRADIAL_EXTENSION
1070
   387
1070
     1
1070
   388
1040
0.0
1070
   390
1040
0.0
1001
ACAD
1000
DSTYLE
1002
{
1070
   145
1040
-0.25
1070
   144
1040
1.000000000000001
1070
   271
1070
     3
1070
   272
1070
     3
1070
    48
1040
0.0
1070
    47
1040
0.0
1002
}
  0
DIMENSION
  5
5E8
330
6C
100
AcDbEntity
  8
Dimension (ANSI)
100
AcDbDimension
  2
*D9
 10
12.85115360555193
 20
11.50036117211342
 30
0.0
 11
16.58899115278323
 21
9.524844797044256
 31
0.0
 70
   163
  1
<>{\PGROUND HOLE}
 42
0.3100000000000017
  3
Default (ANSI)
100
AcDbDiametricDimension
 15
13.04756548875921
 25
11.26052295135832
 35
0.0
 40
0.0
1001
ACAD_DSTYLE_DIMRADIAL_EXTENSION
1070
   387
1070
     1
1070
   388
1040
0.0
1070
   390
1040
0.0
1001
ACAD
1000
DSTYLE
1002
{
1070
   145
1040
-0.25
1070
   144
1040
0.9999999999999868
1070
   271
1070
     3
1070
   272
1070
     2
1070
    48
1040
0.0
1070
    47
1040
0.0
1002
}
  0
DIMENSION
  5
6A1
330
6C
100
AcDbEntity
  8
Dimension (ANSI)
100
AcDbDimension
  2
*D10
 10
33.73997114664247
 20
24.68654442394061
 30
0.0
 11
31.03742979420906
 21
24.68654442394061
 31
0.0
 70
   160
  1
{14 GA. C.R.S\P}(<>)
 71
     5
 42
0.0739999999999981
  3
Default (ANSI)
100
AcDbAlignedDimension
 13
33.66597114664247
 23
23.50544206173588
 33
0.0
 14
33.73997114664247
 24
23.50544206173588
 34
0.0
 50
180.0
100
AcDbRotatedDimension
1001
ACAD
1000
DSTYLE
1002
{
1070
   289
1070
     1
1070
    73
1070
     0
1070
    74
1070
     0
1070
   271
1070
     3
1070
   147
1040
0.031496062992126
1070
    72
1070
     0
1070
    71
1070
     0
1070
   272
1070
     2
1070
    48
1040
0.0
1070
    47
1040
0.0
1002
}
  0
DIMENSION
  5
7A9
330
6C
100
AcDbEntity
  8
Dimension (ANSI)
100
AcDbDimension
  2
*D11
 10
8.403095767628018
 20
22.63044206173588
 30
0.0
 11
8.403095767628014
 21
17.00544206173588
 31
0.0
 70
   160
  1
<>
 42
11.25
  3
Default (ANSI)
100
AcDbAlignedDimension
 13
10.29285954715557
 23
11.38044206173588
 33
0.0
 14
10.29285954715557
 24
22.63044206173588
 34
0.0
 50
90.0
100
AcDbRotatedDimension
1001
ACAD
1000
DSTYLE
1002
{
1070
   289
1070
     1
1070
   271
1070
     3
1070
   272
1070
     3
1070
    48
1040
0.0
1070
    47
1040
0.0
1002
}
  0
DIMENSION
  5
893
330
6C
100
AcDbEntity
  8
Dimension (ANSI)
100
AcDbDimension
  2
*D12
 10
22.19935954715557
 20
24.96902893939685
 30
0.0
 11
16.57435954715557
 21
24.96902893939685
 31
0.0
 70
   160
  1
<>
 42
11.25
  3
Default (ANSI)
100
AcDbAlignedDimension
 13
10.94935954715557
 23
23.28694206173588
 33
0.0
 14
22.19935954715557
 24
23.28694206173588
 34
0.0
 50
180.0
100
AcDbRotatedDimension
1001
ACAD
1000
DSTYLE
1002
{
1070
   289
1070
     1
1070
    73
1070
     0
1070
    74
1070
     0
1070
   271
1070
     3
1070
   272
1070
     3
1070
    48
1040
0.0
1070
    47
1040
0.0
1002
}
  0
DIMENSION
  5
97D
330
6C
100
AcDbEntity
  8
Dimension (ANSI)
100
AcDbDimension
  2
*D13
 10
12.94935954715557
 20
9.365678282208321
 30
0.0
 11
11.94935954715557
 21
9.365678282208321
 31
0.0
 70
   160
  1
<>
 42
2.000000000000003
  3
Default (ANSI)
100
AcDbAlignedDimension
 13
10.94935954715557
 23
10.72394206173588
 33
0.0
 14
12.94935954715557
 24
10.85044206173588
 34
0.0
 50
180.0
100
AcDbRotatedDimension
1001
ACAD
1000
DSTYLE
1002
{
1070
   147
1040
1.797693134862314E+99
1070
    73
1070
     0
1070
    74
1070
     0
1070
   271
1070
     3
1070
   272
1070
     3
1070
    48
1040
0.0
1070
    47
1040
0.0
1002
}
  0
LINE
  5
A67
330
6C
100
AcDbEntity
  8
Center Mark (ANSI)
  6
CHAIN
 48
0.2430349141359329
100
AcDbLine
 10
10.94935954715557
 20
21.97394206173588
 30
0.0
 11
10.94935954715557
 21
23.28694206173588
 31
0.0
  0
LINE
  5
A68
330
6C
100
AcDbEntity
  8
Center Mark (ANSI)
  6
CHAIN
 48
0.2430349141359329
100
AcDbLine
 10
10.94935954715557
 20
12.03694206173588
 30
0.0
 11
10.94935954715557
 21
10.72394206173588
 31
0.0
  0
LINE
  5
A69
330
6C
100
AcDbEntity
  8
Centerline (ANSI)
  6
CHAIN
 48
0.9524481296539306
100
AcDbLine
 10
10.94935954715557
 20
23.28694206173588
 30
0.0
 11
10.94935954715557
 21
10.72394206173588
 31
0.0
  0
LINE
  5
A6A
330
6C
100
AcDbEntity
  8
Center Mark (ANSI)
  6
CHAIN
 48
0.2430349141359329
100
AcDbLine
 10
22.19935954715557
 20
12.03694206173588
 30
0.0
 11
22.19935954715557
 21
10.72394206173588
 31
0.0
  0
LINE
  5
A6B
330
6C
100
AcDbEntity
  8
Centerline (ANSI)
  6
CHAIN
 48
0.9524481296539306
100
AcDbLine
 10
10.29285954715557
 20
11.38044206173588
 30
0.0
 11
22.85585954715557
 21
11.38044206173588
 31
0.0
  0
LINE
  5
A6C
330
6C
100
AcDbEntity
  8
Center Mark (ANSI)
  6
CHAIN
 48
0.2430349141359329
100
AcDbLine
 10
21.54285954715557
 20
11.38044206173588
 30
0.0
 11
22.85585954715557
 21
11.38044206173588
 31
0.0
  0
LINE
  5
A6D
330
6C
100
AcDbEntity
  8
Center Mark (ANSI)
  6
CHAIN
 48
0.2430349141359329
100
AcDbLine
 10
22.19935954715557
 20
21.97394206173588
 30
0.0
 11
22.19935954715557
 21
23.28694206173588
 31
0.0
  0
LINE
  5
A6E
330
6C
100
AcDbEntity
  8
Centerline (ANSI)
  6
CHAIN
 48
0.9524481296539306
100
AcDbLine
 10
22.19935954715557
 20
10.72394206173588
 30
0.0
 11
22.19935954715557
 21
23.28694206173588
 31
0.0
  0
LINE
  5
A6F
330
6C
100
AcDbEntity
  8
Centerline (ANSI)
  6
CHAIN
 48
0.9524481296539306
100
AcDbLine
 10
22.85585954715557
 20
22.63044206173589
 30
0.0
 11
10.29285954715557
 21
22.63044206173588
 31
0.0
  0
LINE
  5
A70
330
6C
100
AcDbEntity
  8
Center Mark (ANSI)
  6
CHAIN
 48
0.1961856037378311
100
AcDbLine
 10
13.47935954715557
 20
11.38044206173588
 30
0.0
 11
12.41935954715557
 21
11.38044206173588
 31
0.0
  0
LINE
  5
A71
330
6C
100
AcDbEntity
  8
Center Mark (ANSI)
  6
CHAIN
 48
0.1961856037378311
100
AcDbLine
 10
12.94935954715557
 20
11.91044206173588
 30
0.0
 11
12.94935954715557
 21
10.85044206173588
 31
0.0
  0
CIRCLE
  5
A72
330
6C
100
AcDbEntity
  8
Sketch Geometry (ANSI)
100
AcDbCircle
 10
10.32435954715557
 20
23.25544206173588
 30
0.0
 40
0.065
  0
CIRCLE
  5
A73
330
6C
100
AcDbEntity
  8
Sketch Geometry (ANSI)
100
AcDbCircle
 10
10.57435954715557
 20
23.2554420617359
 30
0.0
 40
0.065
  0
CIRCLE
  5
A74
330
6C
100
AcDbEntity
  8
Sketch Geometry (ANSI)
100
AcDbCircle
 10
10.82435954715557
 20
23.2554420617359
 30
0.0
 40
0.065
  0
CIRCLE
  5
A75
330
6C
100
AcDbEntity
  8
Sketch Geometry (ANSI)
100
AcDbCircle
 10
11.07435954715557
 20
23.2554420617359
 30
0.0
 40
0.065
  0
CIRCLE
  5
A76
330
6C
100
AcDbEntity
  8
Sketch Geometry (ANSI)
100
AcDbCircle
 10
11.32435954715557
 20
23.2554420617359
 30
0.0
 40
0.065
  0
CIRCLE
  5
A77
330
6C
100
AcDbEntity
  8
Sketch Geometry (ANSI)
100
AcDbCircle
 10
11.57435954715557
 20
23.2554420617359
 30
0.0
 40
0.065
  0
CIRCLE
  5
A78
330
6C
100
AcDbEntity
  8
Sketch Geometry (ANSI)
100
AcDbCircle
 10
11.82435954715557
 20
23.2554420617359
 30
0.0
 40
0.065
  0
CIRCLE
  5
A79
330
6C
100
AcDbEntity
  8
Sketch Geometry (ANSI)
100
AcDbCircle
 10
12.07435954715557
 20
23.2554420617359
 30
0.0
 40
0.065
  0
CIRCLE
  5
A7A
330
6C
100
AcDbEntity
  8
Sketch Geometry (ANSI)
100
AcDbCircle
 10
12.32435954715557
 20
23.2554420617359
 30
0.0
 40
0.065
  0
CIRCLE
  5
A7B
330
6C
100
AcDbEntity
  8
Sketch Geometry (ANSI)
100
AcDbCircle
 10
12.57435954715557
 20
23.2554420617359
 30
0.0
 40
0.065
  0
CIRCLE
  5
A7C
330
6C
100
AcDbEntity
  8
Sketch Geometry (ANSI)
100
AcDbCircle
 10
12.82435954715557
 20
23.2554420617359
 30
0.0
 40
0.065
  0
CIRCLE
  5
A7D
330
6C
100
AcDbEntity
  8
Sketch Geometry (ANSI)
100
AcDbCircle
 10
10.32435954715557
 20
23.00544206173588
 30
0.0
 40
0.065
  0
CIRCLE
  5
A7E
330
6C
100
AcDbEntity
  8
Sketch Geometry (ANSI)
100
AcDbCircle
 10
10.57435954715557
 20
23.0054420617359
 30
0.0
 40
0.065
  0
CIRCLE
  5
A7F
330
6C
100
AcDbEntity
  8
Sketch Geometry (ANSI)
100
AcDbCircle
 10
10.82435954715557
 20
23.0054420617359
 30
0.0
 40
0.065
  0
CIRCLE
  5
A80
330
6C
100
AcDbEntity
  8
Sketch Geometry (ANSI)
100
AcDbCircle
 10
11.07435954715557
 20
23.0054420617359
 30
0.0
 40
0.065
  0
CIRCLE
  5
A81
330
6C
100
AcDbEntity
  8
Sketch Geometry (ANSI)
100
AcDbCircle
 10
11.32435954715557
 20
23.0054420617359
 30
0.0
 40
0.065
  0
CIRCLE
  5
A82
330
6C
100
AcDbEntity
  8
Sketch Geometry (ANSI)
100
AcDbCircle
 10
11.57435954715557
 20
23.0054420617359
 30
0.0
 40
0.065
  0
CIRCLE
  5
A83
330
6C
100
AcDbEntity
  8
Sketch Geometry (ANSI)
100
AcDbCircle
 10
11.82435954715557
 20
23.0054420617359
 30
0.0
 40
0.065
  0
CIRCLE
  5
A84
330
6C
100
AcDbEntity
  8
Sketch Geometry (ANSI)
100
AcDbCircle
 10
12.07435954715557
 20
23.0054420617359
 30
0.0
 40
0.065
  0
CIRCLE
  5
A85
330
6C
100
AcDbEntity
  8
Sketch Geometry (ANSI)
100
AcDbCircle
 10
12.32435954715557
 20
23.0054420617359
 30
0.0
 40
0.065
  0
CIRCLE
  5
A86
330
6C
100
AcDbEntity
  8
Sketch Geometry (ANSI)
100
AcDbCircle
 10
12.57435954715557
 20
23.0054420617359
 30
0.0
 40
0.065
  0
CIRCLE
  5
A87
330
6C
100
AcDbEntity
  8
Sketch Geometry (ANSI)
100
AcDbCircle
 10
12.82435954715557
 20
23.0054420617359
 30
0.0
 40
0.065
  0
CIRCLE
  5
A88
330
6C
100
AcDbEntity
  8
Sketch Geometry (ANSI)
100
AcDbCircle
 10
10.32435954715557
 20
22.75544206173588
 30
0.0
 40
0.065
  0
CIRCLE
  5
A89
330
6C
100
AcDbEntity
  8
Sketch Geometry (ANSI)
100
AcDbCircle
 10
10.57435954715557
 20
22.75544206173591
 30
0.0
 40
0.065
  0
CIRCLE
  5
A8A
330
6C
100
AcDbEntity
  8
Sketch Geometry (ANSI)
100
AcDbCircle
 10
11.32435954715557
 20
22.75544206173591
 30
0.0
 40
0.065
  0
CIRCLE
  5
A8B
330
6C
100
AcDbEntity
  8
Sketch Geometry (ANSI)
100
AcDbCircle
 10
11.57435954715557
 20
22.75544206173591
 30
0.0
 40
0.065
  0
CIRCLE
  5
A8C
330
6C
100
AcDbEntity
  8
Sketch Geometry (ANSI)
100
AcDbCircle
 10
11.82435954715557
 20
22.75544206173591
 30
0.0
 40
0.065
  0
CIRCLE
  5
A8D
330
6C
100
AcDbEntity
  8
Sketch Geometry (ANSI)
100
AcDbCircle
 10
12.07435954715557
 20
22.75544206173591
 30
0.0
 40
0.065
  0
CIRCLE
  5
A8E
330
6C
100
AcDbEntity
  8
Sketch Geometry (ANSI)
100
AcDbCircle
 10
12.32435954715557
 20
22.75544206173591
 30
0.0
 40
0.065
  0
CIRCLE
  5
A8F
330
6C
100
AcDbEntity
  8
Sketch Geometry (ANSI)
100
AcDbCircle
 10
12.57435954715557
 20
22.75544206173591
 30
0.0
 40
0.065
  0
CIRCLE
  5
A90
330
6C
100
AcDbEntity
  8
Sketch Geometry (ANSI)
100
AcDbCircle
 10
12.82435954715557
 20
22.75544206173591
 30
0.0
 40
0.065
  0
CIRCLE
  5
A91
330
6C
100
AcDbEntity
  8
Sketch Geometry (ANSI)
100
AcDbCircle
 10
10.32435954715557
 20
22.50544206173588
 30
0.0
 40
0.065
  0
CIRCLE
  5
A92
330
6C
100
AcDbEntity
  8
Sketch Geometry (ANSI)
100
AcDbCircle
 10
10.57435954715557
 20
22.50544206173591
 30
0.0
 40
0.065
  0
CIRCLE
  5
A93
330
6C
100
AcDbEntity
  8
Sketch Geometry (ANSI)
100
AcDbCircle
 10
11.32435954715557
 20
22.50544206173591
 30
0.0
 40
0.065
  0
CIRCLE
  5
A94
330
6C
100
AcDbEntity
  8
Sketch Geometry (ANSI)
100
AcDbCircle
 10
11.57435954715557
 20
22.50544206173591
 30
0.0
 40
0.065
  0
CIRCLE
  5
A95
330
6C
100
AcDbEntity
  8
Sketch Geometry (ANSI)
100
AcDbCircle
 10
11.82435954715557
 20
22.50544206173591
 30
0.0
 40
0.065
  0
CIRCLE
  5
A96
330
6C
100
AcDbEntity
  8
Sketch Geometry (ANSI)
100
AcDbCircle
 10
12.07435954715557
 20
22.50544206173591
 30
0.0
 40
0.065
  0
CIRCLE
  5
A97
330
6C
100
AcDbEntity
  8
Sketch Geometry (ANSI)
100
AcDbCircle
 10
12.32435954715557
 20
22.50544206173591
 30
0.0
 40
0.065
  0
CIRCLE
  5
A98
330
6C
100
AcDbEntity
  8
Sketch Geometry (ANSI)
100
AcDbCircle
 10
12.57435954715557
 20
22.50544206173591
 30
0.0
 40
0.065
  0
CIRCLE
  5
A99
330
6C
100
AcDbEntity
  8
Sketch Geometry (ANSI)
100
AcDbCircle
 10
12.82435954715557
 20
22.50544206173591
 30
0.0
 40
0.065
  0
CIRCLE
  5
A9A
330
6C
100
AcDbEntity
  8
Sketch Geometry (ANSI)
100
AcDbCircle
 10
10.32435954715557
 20
22.25544206173588
 30
0.0
 40
0.065
  0
CIRCLE
  5
A9B
330
6C
100
AcDbEntity
  8
Sketch Geometry (ANSI)
100
AcDbCircle
 10
10.57435954715557
 20
22.2554420617359
 30
0.0
 40
0.065
  0
CIRCLE
  5
A9C
330
6C
100
AcDbEntity
  8
Sketch Geometry (ANSI)
100
AcDbCircle
 10
10.82435954715557
 20
22.2554420617359
 30
0.0
 40
0.065
  0
CIRCLE
  5
A9D
330
6C
100
AcDbEntity
  8
Sketch Geometry (ANSI)
100
AcDbCircle
 10
11.07435954715557
 20
22.2554420617359
 30
0.0
 40
0.065
  0
CIRCLE
  5
A9E
330
6C
100
AcDbEntity
  8
Sketch Geometry (ANSI)
100
AcDbCircle
 10
11.32435954715557
 20
22.2554420617359
 30
0.0
 40
0.065
  0
CIRCLE
  5
A9F
330
6C
100
AcDbEntity
  8
Sketch Geometry (ANSI)
100
AcDbCircle
 10
11.57435954715557
 20
22.2554420617359
 30
0.0
 40
0.065
  0
CIRCLE
  5
AA0
330
6C
100
AcDbEntity
  8
Sketch Geometry (ANSI)
100
AcDbCircle
 10
11.82435954715557
 20
22.2554420617359
 30
0.0
 40
0.065
  0
CIRCLE
  5
AA1
330
6C
100
AcDbEntity
  8
Sketch Geometry (ANSI)
100
AcDbCircle
 10
12.07435954715557
 20
22.2554420617359
 30
0.0
 40
0.065
  0
CIRCLE
  5
AA2
330
6C
100
AcDbEntity
  8
Sketch Geometry (ANSI)
100
AcDbCircle
 10
12.32435954715557
 20
22.2554420617359
 30
0.0
 40
0.065
  0
CIRCLE
  5
AA3
330
6C
100
AcDbEntity
  8
Sketch Geometry (ANSI)
100
AcDbCircle
 10
12.57435954715557
 20
22.2554420617359
 30
0.0
 40
0.065
  0
CIRCLE
  5
AA4
330
6C
100
AcDbEntity
  8
Sketch Geometry (ANSI)
100
AcDbCircle
 10
12.82435954715557
 20
22.2554420617359
 30
0.0
 40
0.065
  0
CIRCLE
  5
AA5
330
6C
100
AcDbEntity
  8
Sketch Geometry (ANSI)
100
AcDbCircle
 10
10.32435954715557
 20
22.00544206173588
 30
0.0
 40
0.065
  0
CIRCLE
  5
AA6
330
6C
100
AcDbEntity
  8
Sketch Geometry (ANSI)
100
AcDbCircle
 10
10.57435954715557
 20
22.0054420617359
 30
0.0
 40
0.065
  0
CIRCLE
  5
AA7
330
6C
100
AcDbEntity
  8
Sketch Geometry (ANSI)
100
AcDbCircle
 10
10.82435954715557
 20
22.0054420617359
 30
0.0
 40
0.065
  0
CIRCLE
  5
AA8
330
6C
100
AcDbEntity
  8
Sketch Geometry (ANSI)
100
AcDbCircle
 10
11.07435954715557
 20
22.0054420617359
 30
0.0
 40
0.065
  0
CIRCLE
  5
AA9
330
6C
100
AcDbEntity
  8
Sketch Geometry (ANSI)
100
AcDbCircle
 10
11.32435954715557
 20
22.0054420617359
 30
0.0
 40
0.065
  0
CIRCLE
  5
AAA
330
6C
100
AcDbEntity
  8
Sketch Geometry (ANSI)
100
AcDbCircle
 10
11.57435954715557
 20
22.0054420617359
 30
0.0
 40
0.065
  0
CIRCLE
  5
AAB
330
6C
100
AcDbEntity
  8
Sketch Geometry (ANSI)
100
AcDbCircle
 10
11.82435954715557
 20
22.0054420617359
 30
0.0
 40
0.065
  0
CIRCLE
  5
AAC
330
6C
100
AcDbEntity
  8
Sketch Geometry (ANSI)
100
AcDbCircle
 10
12.07435954715557
 20
22.0054420617359
 30
0.0
 40
0.065
  0
CIRCLE
  5
AAD
330
6C
100
AcDbEntity
  8
Sketch Geometry (ANSI)
100
AcDbCircle
 10
12.32435954715557
 20
22.0054420617359
 30
0.0
 40
0.065
  0
CIRCLE
  5
AAE
330
6C
100
AcDbEntity
  8
Sketch Geometry (ANSI)
100
AcDbCircle
 10
12.57435954715557
 20
22.0054420617359
 30
0.0
 40
0.065
  0
CIRCLE
  5
AAF
330
6C
100
AcDbEntity
  8
Sketch Geometry (ANSI)
100
AcDbCircle
 10
12.82435954715557
 20
22.0054420617359
 30
0.0
 40
0.065
  0
CIRCLE
  5
AB0
330
6C
100
AcDbEntity
  8
Sketch Geometry (ANSI)
100
AcDbCircle
 10
10.32435954715557
 20
21.75544206173588
 30
0.0
 40
0.065
  0
CIRCLE
  5
AB1
330
6C
100
AcDbEntity
  8
Sketch Geometry (ANSI)
100
AcDbCircle
 10
10.57435954715557
 20
21.7554420617359
 30
0.0
 40
0.065
  0
CIRCLE
  5
AB2
330
6C
100
AcDbEntity
  8
Sketch Geometry (ANSI)
100
AcDbCircle
 10
10.82435954715557
 20
21.7554420617359
 30
0.0
 40
0.065
  0
CIRCLE
  5
AB3
330
6C
100
AcDbEntity
  8
Sketch Geometry (ANSI)
100
AcDbCircle
 10
11.07435954715557
 20
21.7554420617359
 30
0.0
 40
0.065
  0
CIRCLE
  5
AB4
330
6C
100
AcDbEntity
  8
Sketch Geometry (ANSI)
100
AcDbCircle
 10
11.32435954715557
 20
21.7554420617359
 30
0.0
 40
0.065
  0
CIRCLE
  5
AB5
330
6C
100
AcDbEntity
  8
Sketch Geometry (ANSI)
100
AcDbCircle
 10
11.57435954715557
 20
21.7554420617359
 30
0.0
 40
0.065
  0
CIRCLE
  5
AB6
330
6C
100
AcDbEntity
  8
Sketch Geometry (ANSI)
100
AcDbCircle
 10
11.82435954715557
 20
21.7554420617359
 30
0.0
 40
0.065
  0
CIRCLE
  5
AB7
330
6C
100
AcDbEntity
  8
Sketch Geometry (ANSI)
100
AcDbCircle
 10
12.07435954715557
 20
21.7554420617359
 30
0.0
 40
0.065
  0
CIRCLE
  5
AB8
330
6C
100
AcDbEntity
  8
Sketch Geometry (ANSI)
100
AcDbCircle
 10
12.32435954715557
 20
21.7554420617359
 30
0.0
 40
0.065
  0
CIRCLE
  5
AB9
330
6C
100
AcDbEntity
  8
Sketch Geometry (ANSI)
100
AcDbCircle
 10
12.57435954715557
 20
21.7554420617359
 30
0.0
 40
0.065
  0
CIRCLE
  5
ABA
330
6C
100
AcDbEntity
  8
Sketch Geometry (ANSI)
100
AcDbCircle
 10
12.82435954715557
 20
21.7554420617359
 30
0.0
 40
0.065
  0
CIRCLE
  5
ABB
330
6C
100
AcDbEntity
  8
Sketch Geometry (ANSI)
100
AcDbCircle
 10
10.32435954715557
 20
21.50544206173588
 30
0.0
 40
0.065
  0
CIRCLE
  5
ABC
330
6C
100
AcDbEntity
  8
Sketch Geometry (ANSI)
100
AcDbCircle
 10
10.57435954715557
 20
21.5054420617359
 30
0.0
 40
0.065
  0
CIRCLE
  5
ABD
330
6C
100
AcDbEntity
  8
Sketch Geometry (ANSI)
100
AcDbCircle
 10
10.82435954715557
 20
21.5054420617359
 30
0.0
 40
0.065
  0
CIRCLE
  5
ABE
330
6C
100
AcDbEntity
  8
Sketch Geometry (ANSI)
100
AcDbCircle
 10
11.07435954715557
 20
21.5054420617359
 30
0.0
 40
0.065
  0
CIRCLE
  5
ABF
330
6C
100
AcDbEntity
  8
Sketch Geometry (ANSI)
100
AcDbCircle
 10
11.32435954715557
 20
21.5054420617359
 30
0.0
 40
0.065
  0
CIRCLE
  5
AC0
330
6C
100
AcDbEntity
  8
Sketch Geometry (ANSI)
100
AcDbCircle
 10
11.57435954715557
 20
21.5054420617359
 30
0.0
 40
0.065
  0
CIRCLE
  5
AC1
330
6C
100
AcDbEntity
  8
Sketch Geometry (ANSI)
100
AcDbCircle
 10
11.82435954715557
 20
21.5054420617359
 30
0.0
 40
0.065
  0
CIRCLE
  5
AC2
330
6C
100
AcDbEntity
  8
Sketch Geometry (ANSI)
100
AcDbCircle
 10
12.07435954715557
 20
21.5054420617359
 30
0.0
 40
0.065
  0
CIRCLE
  5
AC3
330
6C
100
AcDbEntity
  8
Sketch Geometry (ANSI)
100
AcDbCircle
 10
12.32435954715557
 20
21.5054420617359
 30
0.0
 40
0.065
  0
CIRCLE
  5
AC4
330
6C
100
AcDbEntity
  8
Sketch Geometry (ANSI)
100
AcDbCircle
 10
12.57435954715557
 20
21.5054420617359
 30
0.0
 40
0.065
  0
CIRCLE
  5
AC5
330
6C
100
AcDbEntity
  8
Sketch Geometry (ANSI)
100
AcDbCircle
 10
12.82435954715557
 20
21.5054420617359
 30
0.0
 40
0.065
  0
CIRCLE
  5
AC6
330
6C
100
AcDbEntity
  8
Sketch Geometry (ANSI)
100
AcDbCircle
 10
10.32435954715557
 20
21.25544206173588
 30
0.0
 40
0.065
  0
CIRCLE
  5
AC7
330
6C
100
AcDbEntity
  8
Sketch Geometry (ANSI)
100
AcDbCircle
 10
10.57435954715557
 20
21.25544206173591
 30
0.0
 40
0.065
  0
CIRCLE
  5
AC8
330
6C
100
AcDbEntity
  8
Sketch Geometry (ANSI)
100
AcDbCircle
 10
10.82435954715557
 20
21.25544206173591
 30
0.0
 40
0.065
  0
CIRCLE
  5
AC9
330
6C
100
AcDbEntity
  8
Sketch Geometry (ANSI)
100
AcDbCircle
 10
11.07435954715557
 20
21.25544206173591
 30
0.0
 40
0.065
  0
CIRCLE
  5
ACA
330
6C
100
AcDbEntity
  8
Sketch Geometry (ANSI)
100
AcDbCircle
 10
11.32435954715557
 20
21.25544206173591
 30
0.0
 40
0.065
  0
CIRCLE
  5
ACB
330
6C
100
AcDbEntity
  8
Sketch Geometry (ANSI)
100
AcDbCircle
 10
11.57435954715557
 20
21.25544206173591
 30
0.0
 40
0.065
  0
CIRCLE
  5
ACC
330
6C
100
AcDbEntity
  8
Sketch Geometry (ANSI)
100
AcDbCircle
 10
11.82435954715557
 20
21.25544206173591
 30
0.0
 40
0.065
  0
CIRCLE
  5
ACD
330
6C
100
AcDbEntity
  8
Sketch Geometry (ANSI)
100
AcDbCircle
 10
12.07435954715557
 20
21.25544206173591
 30
0.0
 40
0.065
  0
CIRCLE
  5
ACE
330
6C
100
AcDbEntity
  8
Sketch Geometry (ANSI)
100
AcDbCircle
 10
12.32435954715557
 20
21.25544206173591
 30
0.0
 40
0.065
  0
CIRCLE
  5
ACF
330
6C
100
AcDbEntity
  8
Sketch Geometry (ANSI)
100
AcDbCircle
 10
12.57435954715557
 20
21.25544206173591
 30
0.0
 40
0.065
  0
CIRCLE
  5
AD0
330
6C
100
AcDbEntity
  8
Sketch Geometry (ANSI)
100
AcDbCircle
 10
12.82435954715557
 20
21.25544206173591
 30
0.0
 40
0.065
  0
CIRCLE
  5
AD1
330
6C
100
AcDbEntity
  8
Sketch Geometry (ANSI)
100
AcDbCircle
 10
10.32435954715557
 20
21.00544206173589
 30
0.0
 40
0.065
  0
CIRCLE
  5
AD2
330
6C
100
AcDbEntity
  8
Sketch Geometry (ANSI)
100
AcDbCircle
 10
10.57435954715557
 20
21.0054420617359
 30
0.0
 40
0.065
  0
CIRCLE
  5
AD3
330
6C
100
AcDbEntity
  8
Sketch Geometry (ANSI)
100
AcDbCircle
 10
10.82435954715557
 20
21.0054420617359
 30
0.0
 40
0.065
  0
CIRCLE
  5
AD4
330
6C
100
AcDbEntity
  8
Sketch Geometry (ANSI)
100
AcDbCircle
 10
11.07435954715557
 20
21.0054420617359
 30
0.0
 40
0.065
  0
CIRCLE
  5
AD5
330
6C
100
AcDbEntity
  8
Sketch Geometry (ANSI)
100
AcDbCircle
 10
11.32435954715557
 20
21.0054420617359
 30
0.0
 40
0.065
  0
CIRCLE
  5
AD6
330
6C
100
AcDbEntity
  8
Sketch Geometry (ANSI)
100
AcDbCircle
 10
11.57435954715557
 20
21.0054420617359
 30
0.0
 40
0.065
  0
CIRCLE
  5
AD7
330
6C
100
AcDbEntity
  8
Sketch Geometry (ANSI)
100
AcDbCircle
 10
11.82435954715557
 20
21.0054420617359
 30
0.0
 40
0.065
  0
CIRCLE
  5
AD8
330
6C
100
AcDbEntity
  8
Sketch Geometry (ANSI)
100
AcDbCircle
 10
12.07435954715557
 20
21.0054420617359
 30
0.0
 40
0.065
  0
CIRCLE
  5
AD9
330
6C
100
AcDbEntity
  8
Sketch Geometry (ANSI)
100
AcDbCircle
 10
12.32435954715557
 20
21.0054420617359
 30
0.0
 40
0.065
  0
CIRCLE
  5
ADA
330
6C
100
AcDbEntity
  8
Sketch Geometry (ANSI)
100
AcDbCircle
 10
12.57435954715557
 20
21.0054420617359
 30
0.0
 40
0.065
  0
CIRCLE
  5
ADB
330
6C
100
AcDbEntity
  8
Sketch Geometry (ANSI)
100
AcDbCircle
 10
12.82435954715557
 20
21.0054420617359
 30
0.0
 40
0.065
  0
CIRCLE
  5
ADC
330
6C
100
AcDbEntity
  8
Sketch Geometry (ANSI)
100
AcDbCircle
 10
10.32435954715557
 20
20.75544206173589
 30
0.0
 40
0.065
  0
CIRCLE
  5
ADD
330
6C
100
AcDbEntity
  8
Sketch Geometry (ANSI)
100
AcDbCircle
 10
10.57435954715557
 20
20.7554420617359
 30
0.0
 40
0.065
  0
CIRCLE
  5
ADE
330
6C
100
AcDbEntity
  8
Sketch Geometry (ANSI)
100
AcDbCircle
 10
10.82435954715557
 20
20.7554420617359
 30
0.0
 40
0.065
  0
CIRCLE
  5
ADF
330
6C
100
AcDbEntity
  8
Sketch Geometry (ANSI)
100
AcDbCircle
 10
11.07435954715557
 20
20.7554420617359
 30
0.0
 40
0.065
  0
CIRCLE
  5
AE0
330
6C
100
AcDbEntity
  8
Sketch Geometry (ANSI)
100
AcDbCircle
 10
11.32435954715557
 20
20.7554420617359
 30
0.0
 40
0.065
  0
CIRCLE
  5
AE1
330
6C
100
AcDbEntity
  8
Sketch Geometry (ANSI)
100
AcDbCircle
 10
11.57435954715557
 20
20.7554420617359
 30
0.0
 40
0.065
  0
CIRCLE
  5
AE2
330
6C
100
AcDbEntity
  8
Sketch Geometry (ANSI)
100
AcDbCircle
 10
11.82435954715557
 20
20.7554420617359
 30
0.0
 40
0.065
  0
CIRCLE
  5
AE3
330
6C
100
AcDbEntity
  8
Sketch Geometry (ANSI)
100
AcDbCircle
 10
12.07435954715557
 20
20.7554420617359
 30
0.0
 40
0.065
  0
CIRCLE
  5
AE4
330
6C
100
AcDbEntity
  8
Sketch Geometry (ANSI)
100
AcDbCircle
 10
12.32435954715557
 20
20.7554420617359
 30
0.0
 40
0.065
  0
CIRCLE
  5
AE5
330
6C
100
AcDbEntity
  8
Sketch Geometry (ANSI)
100
AcDbCircle
 10
12.57435954715557
 20
20.7554420617359
 30
0.0
 40
0.065
  0
CIRCLE
  5
AE6
330
6C
100
AcDbEntity
  8
Sketch Geometry (ANSI)
100
AcDbCircle
 10
12.82435954715557
 20
20.7554420617359
 30
0.0
 40
0.065
  0
CIRCLE
  5
AE7
330
6C
100
AcDbEntity
  8
Sketch Geometry (ANSI)
100
AcDbCircle
 10
10.658580391169
 20
22.88597647206968
 30
0.0
 40
0.8421115168122458
  0
CIRCLE
  5
AE8
330
6C
100
AcDbEntity
  8
Sketch Geometry (ANSI)
100
AcDbCircle
 10
44.45919655936289
 20
11.25264214223833
 30
0.0
 40
1.765599820042649
  0
CIRCLE
  5
AE9
330
6C
100
AcDbEntity
  8
Sketch Geometry (ANSI)
100
AcDbCircle
 10
43.79484769308797
 20
11.88264214223832
 30
0.0
 40
0.1299999999999999
  0
CIRCLE
  5
AEA
330
6C
100
AcDbEntity
  8
Sketch Geometry (ANSI)
100
AcDbCircle
 10
44.29484769308797
 20
11.88264214223832
 30
0.0
 40
0.1299999999999999
  0
CIRCLE
  5
AEB
330
6C
100
AcDbEntity
  8
Sketch Geometry (ANSI)
100
AcDbCircle
 10
44.79484769308798
 20
11.88264214223832
 30
0.0
 40
0.1299999999999999
  0
CIRCLE
  5
AEC
330
6C
100
AcDbEntity
  8
Sketch Geometry (ANSI)
100
AcDbCircle
 10
45.29484769308798
 20
11.88264214223832
 30
0.0
 40
0.1299999999999999
  0
CIRCLE
  5
AED
330
6C
100
AcDbEntity
  8
Sketch Geometry (ANSI)
100
AcDbCircle
 10
45.79484769308797
 20
11.88264214223833
 30
0.0
 40
0.1299999999999999
  0
CIRCLE
  5
AEE
330
6C
100
AcDbEntity
  8
Sketch Geometry (ANSI)
100
AcDbCircle
 10
43.79484769308797
 20
11.38264214223832
 30
0.0
 40
0.1299999999999999
  0
CIRCLE
  5
AEF
330
6C
100
AcDbEntity
  8
Sketch Geometry (ANSI)
100
AcDbCircle
 10
44.29484769308797
 20
11.38264214223832
 30
0.0
 40
0.1299999999999999
  0
CIRCLE
  5
AF0
330
6C
100
AcDbEntity
  8
Sketch Geometry (ANSI)
100
AcDbCircle
 10
45.29484769308798
 20
11.38264214223833
 30
0.0
 40
0.1299999999999999
  0
CIRCLE
  5
AF1
330
6C
100
AcDbEntity
  8
Sketch Geometry (ANSI)
100
AcDbCircle
 10
45.79484769308797
 20
11.38264214223833
 30
0.0
 40
0.1299999999999999
  0
CIRCLE
  5
AF2
330
6C
100
AcDbEntity
  8
Sketch Geometry (ANSI)
100
AcDbCircle
 10
43.79484769308797
 20
10.88264214223833
 30
0.0
 40
0.1299999999999999
  0
CIRCLE
  5
AF3
330
6C
100
AcDbEntity
  8
Sketch Geometry (ANSI)
100
AcDbCircle
 10
45.79484769308797
 20
10.88264214223833
 30
0.0
 40
0.1299999999999999
  0
CIRCLE
  5
AF4
330
6C
100
AcDbEntity
  8
Sketch Geometry (ANSI)
100
AcDbCircle
 10
43.79484769308797
 20
10.38264214223832
 30
0.0
 40
0.1299999999999999
  0
CIRCLE
  5
AF5
330
6C
100
AcDbEntity
  8
Sketch Geometry (ANSI)
100
AcDbCircle
 10
44.29484769308797
 20
10.38264214223832
 30
0.0
 40
0.1299999999999999
  0
CIRCLE
  5
AF6
330
6C
100
AcDbEntity
  8
Sketch Geometry (ANSI)
100
AcDbCircle
 10
45.79484769308797
 20
10.38264214223832
 30
0.0
 40
0.1299999999999999
  0
CIRCLE
  5
AF7
330
6C
100
AcDbEntity
  8
Sketch Geometry (ANSI)
100
AcDbCircle
 10
43.79484769308797
 20
9.88264214223833
 30
0.0
 40
0.1299999999999999
  0
CIRCLE
  5
AF8
330
6C
100
AcDbEntity
  8
Sketch Geometry (ANSI)
100
AcDbCircle
 10
44.29484769308797
 20
9.88264214223833
 30
0.0
 40
0.1299999999999999
  0
CIRCLE
  5
AF9
330
6C
100
AcDbEntity
  8
Sketch Geometry (ANSI)
100
AcDbCircle
 10
44.79484769308798
 20
9.88264214223833
 30
0.0
 40
0.1299999999999999
  0
CIRCLE
  5
AFA
330
6C
100
AcDbEntity
  8
Sketch Geometry (ANSI)
100
AcDbCircle
 10
45.29484769308798
 20
9.88264214223833
 30
0.0
 40
0.1299999999999999
  0
LINE
  5
AFB
330
6C
100
AcDbEntity
  8
Sketch Geometry (ANSI)
100
AcDbLine
 10
43.4408929474809
 20
12.15490528448128
 30
0.0
 11
43.4408929474809
 21
9.810282797774297
 31
0.0
  0
LINE
  5
AFC
330
6C
100
AcDbEntity
  8
Sketch Geometry (ANSI)
100
AcDbLine
 10
43.4408929474809
 20
12.15490528448128
 30
0.0
 11
45.97684735802657
 21
12.15490528448129
 31
0.0
  0
CIRCLE
  5
AFD
330
6C
100
AcDbEntity
  8
Sketch Geometry (ANSI)
100
AcDbCircle
 10
45.09055634651903
 20
10.5970893282329
 30
0.0
 40
0.5629999999999999
  0
CIRCLE
  5
AFE
330
6C
100
AcDbEntity
  8
Sketch Geometry (ANSI)
100
AcDbCircle
 10
44.79484769308798
 20
11.38264214223832
 30
0.0
 40
0.1299999999999999
  0
CIRCLE
  5
AFF
330
6C
100
AcDbEntity
  8
Sketch Geometry (ANSI)
100
AcDbCircle
 10
44.29484769308797
 20
10.86265293107491
 30
0.0
 40
0.1299999999999999
  0
DIMENSION
  5
B00
330
6C
100
AcDbEntity
  8
Dimension (ANSI)
100
AcDbDimension
  2
*D14
 10
44.29484769308797
 20
14.48106733908872
 30
0.0
 11
41.63547965057051
 21
14.48106733908872
 31
0.0
 70
   160
  1
<>{\PTYP.}
 71
     5
 42
0.2500000000000008
  3
Default (ANSI)
100
AcDbAlignedDimension
 13
43.79484769308797
 23
11.88264214223832
 33
0.0
 14
44.29484769308797
 24
11.88264214223832
 34
0.0
 50
180.0
100
AcDbRotatedDimension
1001
ACAD
1000
DSTYLE
1002
{
1070
   289
1070
     1
1070
    73
1070
     0
1070
    74
1070
     0
1070
   271
1070
     3
1070
   144
1040
0.5000000000000016
1070
   272
1070
     3
1070
    48
1040
0.0
1070
    47
1040
0.0
1002
}
  0
DIMENSION
  5
C08
330
6C
100
AcDbEntity
  8
Dimension (ANSI)
100
AcDbDimension
  2
*D15
 10
40.69503370788051
 20
11.38264214223832
 30
0.0
 11
41.68028440449759
 21
13.18270989794356
 31
0.0
 70
   160
  1
<>{\PTYP.}
 71
     5
 42
0.2499999999999997
  3
Default (ANSI)
100
AcDbAlignedDimension
 13
43.79484769308797
 23
11.88264214223832
 33
0.0
 14
43.79484769308797
 24
11.38264214223832
 34
0.0
 50
90.0
100
AcDbRotatedDimension
1001
ACAD
1000
DSTYLE
1002
{
1070
   289
1070
     1
1070
   271
1070
     3
1070
   144
1040
0.4999999999999995
1070
   272
1070
     3
1070
    48
1040
0.0
1070
    47
1040
0.0
1002
}
  0
DIMENSION
  5
D27
330
6C
100
AcDbEntity
  8
Dimension (ANSI)
100
AcDbDimension
  2
*D16
 10
45.22984769308796
 20
11.77005883974636
 30
0.0
 11
47.27294585313025
 21
13.11637100442616
 31
0.0
 70
   163
  1
{\fAIGDT|b0|i0;\H0.3600;\ln\fTahoma|b0|i0;\H0.3600;}0.130{\fTahoma|b0|i0;\H0.3600;\U+F8FA\fTahoma|b0|i0;\H0.3600;TYP.}
 71
     5
 42
0.2600000000000051
  3
Default (ANSI)
100
AcDbDiametricDimension
 15
45.359847693088
 25
11.99522544473029
 35
0.0
 40
0.0
1001
ACAD
1000
DSTYLE
1002
{
1070
   271
1070
     3
1070
   272
1070
     3
1070
    48
1040
0.0
1070
    47
1040
0.0
1002
}
1001
ACAD_DSTYLE_DIMRADIAL_EXTENSION
1070
   387
1070
     1
1070
   388
1040
0.0
1070
   390
1040
0.0
  0
MTEXT
  5
DD1
102
{ACAD_REACTORS
330
DD2
102
}
330
6C
100
AcDbEntity
  8
Symbol (ANSI)
100
AcDbMText
 10
9.067753027578254
 20
24.84435513127006
 30
0.0
 40
0.3600000044492286
 41
2.111863808369073
 71
     3
 72
     1
  1
{DETAIL-A}
  7
Note Text (ANSI)
 73
     1
 44
1.0
  0
LEADER
  5
DD2
330
6C
100
AcDbEntity
  8
Symbol (ANSI)
100
AcDbLeader
  3
Default (ANSI)$7
 73
     0
 75
     1
 40
0.3600000044492286
 41
2.07344527750772
 76
     3
 10
10.04072456341465
 20
23.45817048012797
 30
0.0
 10
9.45751680041789
 20
24.66435512904545
 30
0.0
 10
9.162241216554631
 20
24.66435512904545
 30
0.0
340
DD1
213
0.0
223
-0.1800000022246143
233
0.0
1001
ACAD
1000
DSTYLE
1002
{
1070
    77
1070
     0
1002
}
  0
MTEXT
  5
DD3
330
6C
100
AcDbEntity
  8
Symbol (ANSI)
100
AcDbMText
 10
44.6353893184897
 20
8.364992111142035
 30
0.0
 40
0.3600000044492286
 41
7.27429919043978
 71
     5
 72
     1
  1
{\fTahoma|b0|i0;\H0.3600;\LDETAIL-A\P(PERFORATED DETAIL)}
  7
Note Text (ANSI)
 73
     2
 44
0.9878841638565063
  0
LINE
  5
DD4
330
6C
100
AcDbEntity
  8
Center Mark (ANSI)
  6
CHAIN
 48
0.186926856637001
100
AcDbLine
 10
44.29984769308797
 20
11.88264214223832
 30
0.0
 11
43.28984769308798
 21
11.88264214223832
 31
0.0
  0
LINE
  5
DD5
330
6C
100
AcDbEntity
  8
Center Mark (ANSI)
  6
CHAIN
 48
0.186926856637001
100
AcDbLine
 10
43.79484769308797
 20
12.38764214223833
 30
0.0
 11
43.79484769308797
 21
11.37764214223832
 31
0.0
  0
LINE
  5
DD6
330
6C
100
AcDbEntity
  8
Center Mark (ANSI)
  6
CHAIN
 48
0.186926856637001
100
AcDbLine
 10
44.79984769308797
 20
11.88264214223832
 30
0.0
 11
43.78984769308797
 21
11.88264214223832
 31
0.0
  0
LINE
  5
DD7
330
6C
100
AcDbEntity
  8
Center Mark (ANSI)
  6
CHAIN
 48
0.186926856637001
100
AcDbLine
 10
44.29484769308797
 20
12.38764214223833
 30
0.0
 11
44.29484769308797
 21
11.37764214223832
 31
0.0
  0
LINE
  5
DD8
330
6C
100
AcDbEntity
  8
Center Mark (ANSI)
  6
CHAIN
 48
0.186926856637001
100
AcDbLine
 10
44.29984769308797
 20
11.38264214223832
 30
0.0
 11
43.28984769308798
 21
11.38264214223832
 31
0.0
  0
LINE
  5
DD9
330
6C
100
AcDbEntity
  8
Center Mark (ANSI)
  6
CHAIN
 48
0.186926856637001
100
AcDbLine
 10
43.79484769308797
 20
11.88764214223833
 30
0.0
 11
43.79484769308797
 21
10.87764214223832
 31
0.0
  0
LINE
  5
DDA
330
6C
100
AcDbEntity
  8
Center Mark (ANSI)
  6
CHAIN
 48
0.186926856637001
100
AcDbLine
 10
44.79984769308797
 20
11.38264214223832
 30
0.0
 11
43.78984769308797
 21
11.38264214223832
 31
0.0
  0
LINE
  5
DDB
330
6C
100
AcDbEntity
  8
Center Mark (ANSI)
  6
CHAIN
 48
0.186926856637001
100
AcDbLine
 10
44.29484769308797
 20
11.88764214223833
 30
0.0
 11
44.29484769308797
 21
10.87764214223832
 31
0.0
  0
MTEXT
  5
DDC
102
{ACAD_XDICTIONARY
360
DE8
102
}
330
6C
100
AcDbEntity
  8
Symbol (ANSI)
100
AcDbMText
 10
27.92699978652416
 20
2.9266947513771
 30
0.0
 40
0.3000000095742894
 41
22.15016132264627
 71
     4
 72
     1
  3
{\fRomanS|b0|i0|c0|p2;\H2x;PART#: NP1616PP\P(DATA SUBJECT TO CHANGE WITHOUT NOTICE)\H1.6157x; \H0.61894x;\P \H1.352x; \H0.73963x;\P\H0.6x;THIS DRAWING IS PROPERTY OF HUBBELL INC. WIEGMANN\H1.5633x; \H0.63966x;\PALL INFORMATION IS PROPRIETARY AND NOT 
  1
TO BE DUPLICATED\H1.234x; \H0.81039x;\P\H1.2571x; }
  7
Note Text (ANSI)
 73
     1
 44
0.8026435375213623
  0
ENDSEC
  0
SECTION
  2
OBJECTS
  0
DICTIONARY
  5
C
330
0
100
AcDbDictionary
281
     1
  3
ACAD_CIP_PREVIOUS_PRODUCT_INFO
350
DDE
  3
ACAD_COLOR
350
63
  3
ACAD_GROUP
350
D
  3
ACAD_LAYOUT
350
62
  3
ACAD_MATERIAL
350
10
  3
ACAD_MLEADERSTYLE
350
66
  3
ACAD_MLINESTYLE
350
5F
  3
ACAD_PLOTSETTINGS
350
61
  3
ACAD_PLOTSTYLENAME
350
E
  3
ACAD_SCALELIST
350
42
  3
ACAD_TABLESTYLE
350
64
  3
ACAD_VISUALSTYLE
350
29
  3
ACDB_RECOMPOSE_DATA
350
DEA
  3
AcDbVariableDictionary
350
76
  0
DICTIONARY
  5
E20
330
5E2
100
AcDbDictionary
280
     1
281
     1
  3
ACAD_MTEXT_2008_RT
360
E21
  0
DICTIONARY
  5
E22
330
69B
100
AcDbDictionary
280
     1
281
     1
  3
ACAD_MTEXT_2008_RT
360
E23
  0
DICTIONARY
  5
E24
330
DCB
100
AcDbDictionary
280
     1
281
     1
  3
ACAD_MTEXT_2008_RT
360
E25
  0
DICTIONARY
  5
DE8
330
DDC
100
AcDbDictionary
280
     1
281
     1
  3
ACAD_MTEXT_2008_RT
360
DE9
  0
XRECORD
  5
DDE
102
{ACAD_REACTORS
330
C
102
}
330
C
100
AcDbXrecord
280
     1
300
INVPROSA
300
2012
300
INVPROSA_F_S
  0
DICTIONARY
  5
63
102
{ACAD_REACTORS
330
C
102
}
330
C
100
AcDbDictionary
281
     1
  0
DICTIONARY
  5
D
102
{ACAD_REACTORS
330
C
102
}
330
C
100
AcDbDictionary
281
     1
  0
DICTIONARY
  5
62
102
{ACAD_REACTORS
330
C
102
}
330
C
100
AcDbDictionary
281
     1
  3
Layout1
350
6B
  3
Layout2
350
73
  3
Model
350
6F
  0
DICTIONARY
  5
10
102
{ACAD_REACTORS
330
C
102
}
330
C
100
AcDbDictionary
281
     1
  3
ByBlock
350
19
  3
ByLayer
350
11
  3
Global
350
21
  0
DICTIONARY
  5
66
102
{ACAD_REACTORS
330
C
102
}
330
C
100
AcDbDictionary
281
     1
  3
Standard
350
67
  0
DICTIONARY
  5
5F
102
{ACAD_REACTORS
330
C
102
}
330
C
100
AcDbDictionary
281
     1
  3
Standard
350
60
  0
DICTIONARY
  5
61
102
{ACAD_REACTORS
330
C
102
}
330
C
100
AcDbDictionary
281
     1
  0
ACDBDICTIONARYWDFLT
  5
E
102
{ACAD_REACTORS
330
C
102
}
330
C
100
AcDbDictionary
281
     1
  3
Normal
350
F
100
AcDbDictionaryWithDefault
340
F
  0
DICTIONARY
  5
42
102
{ACAD_REACTORS
330
C
102
}
330
C
100
AcDbDictionary
281
     1
  3
A0
350
43
  3
A1
350
44
  3
A2
350
45
  3
A3
350
46
  3
A4
350
47
  3
A5
350
48
  3
A6
350
49
  3
A7
350
4A
  3
A8
350
4B
  3
A9
350
4C
  3
B0
350
4D
  3
B1
350
4E
  3
B2
350
4F
  3
B3
350
50
  3
B4
350
51
  3
B5
350
52
  3
B6
350
53
  0
DICTIONARY
  5
64
102
{ACAD_REACTORS
330
C
102
}
330
C
100
AcDbDictionary
281
     1
  3
Standard
350
65
  0
DICTIONARY
  5
29
102
{ACAD_REACTORS
330
C
102
}
330
C
100
AcDbDictionary
281
     1
  3
2dWireframe
350
2F
  3
Basic
350
2E
  3
Brighten
350
35
  3
ColorChange
350
39
  3
Conceptual
350
32
  3
Dim
350
34
  3
EdgeColorOff
350
41
  3
Facepattern
350
38
  3
Flat
350
2A
  3
FlatWithEdges
350
2B
  3
Gouraud
350
2C
  3
GouraudWithEdges
350
2D
  3
Hidden
350
31
  3
JitterOff
350
3F
  3
Linepattern
350
37
  3
OverhangOff
350
40
  3
Realistic
350
33
  3
Shaded
350
3E
  3
Shaded with edges
350
3D
  3
Shades of Gray
350
3A
  3
Sketchy
350
3B
  3
Thicken
350
36
  3
Wireframe
350
30
  3
X-Ray
350
3C
  0
XRECORD
  5
DEA
102
{ACAD_REACTORS
330
C
102
}
330
C
100
AcDbXrecord
280
     1
 90
        1
330
65
330
DDC
  0
DICTIONARY
  5
76
102
{ACAD_REACTORS
330
C
102
}
330
C
100
AcDbDictionary
281
     1
  3
CANNOSCALE
350
79
  3
CMLEADERSTYLE
350
78
  3
CTABLESTYLE
350
77
  3
LAYEREVAL
350
DE1
  3
LAYERNOTIFY
350
DE2
  3
LIGHTINGUNITS
350
DE0
  3
MSLTSCALE
350
DDF
  3
XCLIPFRAME
350
DE3
  0
XRECORD
  5
E21
102
{ACAD_REACTORS
330
E20
102
}
330
E20
100
AcDbXrecord
280
     1
 40
24449.0
  1
\A1;\U+22050.563{\P(4 PL.)}
  0
XRECORD
  5
E23
102
{ACAD_REACTORS
330
E22
102
}
330
E22
100
AcDbXrecord
280
     1
 40
35991.0
  1
\A1;\U+22050.310{\PGROUND HOLE}
  0
XRECORD
  5
E25
102
{ACAD_REACTORS
330
E24
102
}
330
E24
100
AcDbXrecord
280
     1
 40
579858.0
  1
\A1;{\fAIGDT|b0|i0;\H0.3600;\ln\fTahoma|b0|i0;\H0.3600;}0.130{\fTahoma|b0|i0;\H0.3600;\U+F8FA\fTahoma|b0|i0;\H0.3600;TYP.}
  0
XRECORD
  5
DE9
102
{ACAD_REACTORS
330
DE8
102
}
330
DE8
100
AcDbXrecord
280
     1
 40
3069603.0
  1
\pxsm0.94;{\fRomanS|b0|i0;\H0.6000;PART#: NP1616PP\P(DATA SUBJECT TO CHANGE WITHOUT NOTICE)\P \P\fRomanS|b0|i0;\H0.3600;THIS DRAWING IS PROPERTY OF HUBBELL INC. WIEGMANN\PALL INFORMATION IS PROPRIETARY AND NOT TO BE DUPLICATED\P}
  0
LAYOUT
  5
6B
102
{ACAD_REACTORS
330
62
102
}
330
62
100
AcDbPlotSettings
  1

  2

  4

  6

 40
0.0
 41
0.0
 42
0.0
 43
0.0
 44
0.0
 45
0.0
 46
0.0
 47
0.0
 48
0.0
 49
0.0
140
0.0
141
0.0
142
1.0
143
1.0
 70
   688
 72
     0
 73
     0
 74
     5
  7

 75
    16
147
1.0
 76
     0
 77
     2
 78
   300
148
0.0
149
0.0
100
AcDbLayout
  1
Layout1
 70
     1
 71
     1
 10
0.0
 20
0.0
 11
12.0
 21
9.0
 12
0.0
 22
0.0
 32
0.0
 14
0.0
 24
0.0
 34
0.0
 15
0.0
 25
0.0
 35
0.0
146
0.0
 13
0.0
 23
0.0
 33
0.0
 16
1.0
 26
0.0
 36
0.0
 17
0.0
 27
1.0
 37
0.0
 76
     0
330
68
  0
LAYOUT
  5
73
102
{ACAD_REACTORS
330
62
102
}
330
62
100
AcDbPlotSettings
  1

  2

  4

  6

 40
0.0
 41
0.0
 42
0.0
 43
0.0
 44
0.0
 45
0.0
 46
0.0
 47
0.0
 48
0.0
 49
0.0
140
0.0
141
0.0
142
1.0
143
1.0
 70
   688
 72
     0
 73
     0
 74
     5
  7

 75
    16
147
1.0
 76
     0
 77
     2
 78
   300
148
0.0
149
0.0
100
AcDbLayout
  1
Layout2
 70
     1
 71
     2
 10
0.0
 20
0.0
 11
12.0
 21
9.0
 12
0.0
 22
0.0
 32
0.0
 14
0.0
 24
0.0
 34
0.0
 15
0.0
 25
0.0
 35
0.0
146
0.0
 13
0.0
 23
0.0
 33
0.0
 16
1.0
 26
0.0
 36
0.0
 17
0.0
 27
1.0
 37
0.0
 76
     0
330
70
  0
LAYOUT
  5
6F
102
{ACAD_REACTORS
330
62
102
}
330
62
100
AcDbPlotSettings
  1

  2

  4

  6

 40
0.0
 41
0.0
 42
0.0
 43
0.0
 44
0.0
 45
0.0
 46
0.0
 47
0.0
 48
0.0
 49
0.0
140
0.0
141
0.0
142
1.0
143
1.0
 70
  1712
 72
     0
 73
     0
 74
     0
  7

 75
     0
147
1.0
 76
     0
 77
     2
 78
   300
148
0.0
149
0.0
100
AcDbLayout
  1
Model
 70
     1
 71
     0
 10
0.0
 20
0.0
 11
12.0
 21
9.0
 12
0.0
 22
0.0
 32
0.0
 14
0.0
 24
0.0
 34
0.0
 15
0.0
 25
0.0
 35
0.0
146
0.0
 13
0.0
 23
0.0
 33
0.0
 16
1.0
 26
0.0
 36
0.0
 17
0.0
 27
1.0
 37
0.0
 76
     0
330
6C
  0
MATERIAL
  5
19
102
{ACAD_XDICTIONARY
360
1A
102
}
102
{ACAD_REACTORS
330
10
102
}
330
10
100
AcDbMaterial
  1
ByBlock
 72
     0
 43
0.0208333333333333
 43
0.0
 43
0.0
 43
0.0
 43
0.0
 43
0.0208333333333333
 43
0.0
 43
0.0
 43
0.0
 43
0.0
 43
1.0
 43
0.0
 43
0.0
 43
0.0
 43
0.0
 43
1.0
 77
     0
 47
0.0208333333333333
 47
0.0
 47
0.0
 47
0.0
 47
0.0
 47
0.0208333333333333
 47
0.0
 47
0.0
 47
0.0
 47
0.0
 47
1.0
 47
0.0
 47
0.0
 47
0.0
 47
0.0
 47
1.0
171
     0
 49
0.0208333333333333
 49
0.0
 49
0.0
 49
0.0
 49
0.0
 49
0.0208333333333333
 49
0.0
 49
0.0
 49
0.0
 49
0.0
 49
1.0
 49
0.0
 49
0.0
 49
0.0
 49
0.0
 49
1.0
175
     0
142
0.0208333333333333
142
0.0
142
0.0
142
0.0
142
0.0
142
0.0208333333333333
142
0.0
142
0.0
142
0.0
142
0.0
142
1.0
142
0.0
142
0.0
142
0.0
142
0.0
142
1.0
179
     0
144
0.0208333333333333
144
0.0
144
0.0
144
0.0
144
0.0
144
0.0208333333333333
144
0.0
144
0.0
144
0.0
144
0.0
144
1.0
144
0.0
144
0.0
144
0.0
144
0.0
144
1.0
147
0.0208333333333333
147
0.0
147
0.0
147
0.0
147
0.0
147
0.0208333333333333
147
0.0
147
0.0
147
0.0
147
0.0
147
1.0
147
0.0
147
0.0
147
0.0
147
0.0
147
1.0
  0
MATERIAL
  5
11
102
{ACAD_XDICTIONARY
360
12
102
}
102
{ACAD_REACTORS
330
10
102
}
330
10
100
AcDbMaterial
  1
ByLayer
 72
     0
 43
0.0208333333333333
 43
0.0
 43
0.0
 43
0.0
 43
0.0
 43
0.0208333333333333
 43
0.0
 43
0.0
 43
0.0
 43
0.0
 43
1.0
 43
0.0
 43
0.0
 43
0.0
 43
0.0
 43
1.0
 77
     0
 47
0.0208333333333333
 47
0.0
 47
0.0
 47
0.0
 47
0.0
 47
0.0208333333333333
 47
0.0
 47
0.0
 47
0.0
 47
0.0
 47
1.0
 47
0.0
 47
0.0
 47
0.0
 47
0.0
 47
1.0
171
     0
 49
0.0208333333333333
 49
0.0
 49
0.0
 49
0.0
 49
0.0
 49
0.0208333333333333
 49
0.0
 49
0.0
 49
0.0
 49
0.0
 49
1.0
 49
0.0
 49
0.0
 49
0.0
 49
0.0
 49
1.0
175
     0
142
0.0208333333333333
142
0.0
142
0.0
142
0.0
142
0.0
142
0.0208333333333333
142
0.0
142
0.0
142
0.0
142
0.0
142
1.0
142
0.0
142
0.0
142
0.0
142
0.0
142
1.0
179
     0
144
0.0208333333333333
144
0.0
144
0.0
144
0.0
144
0.0
144
0.0208333333333333
144
0.0
144
0.0
144
0.0
144
0.0
144
1.0
144
0.0
144
0.0
144
0.0
144
0.0
144
1.0
147
0.0208333333333333
147
0.0
147
0.0
147
0.0
147
0.0
147
0.0208333333333333
147
0.0
147
0.0
147
0.0
147
0.0
147
1.0
147
0.0
147
0.0
147
0.0
147
0.0
147
1.0
  0
MATERIAL
  5
21
102
{ACAD_XDICTIONARY
360
22
102
}
102
{ACAD_REACTORS
330
10
102
}
330
10
100
AcDbMaterial
  1
Global
 72
     0
 43
0.0208333333333333
 43
0.0
 43
0.0
 43
0.0
 43
0.0
 43
0.0208333333333333
 43
0.0
 43
0.0
 43
0.0
 43
0.0
 43
1.0
 43
0.0
 43
0.0
 43
0.0
 43
0.0
 43
1.0
 77
     0
 47
0.0208333333333333
 47
0.0
 47
0.0
 47
0.0
 47
0.0
 47
0.0208333333333333
 47
0.0
 47
0.0
 47
0.0
 47
0.0
 47
1.0
 47
0.0
 47
0.0
 47
0.0
 47
0.0
 47
1.0
171
     0
 49
0.0208333333333333
 49
0.0
 49
0.0
 49
0.0
 49
0.0
 49
0.0208333333333333
 49
0.0
 49
0.0
 49
0.0
 49
0.0
 49
1.0
 49
0.0
 49
0.0
 49
0.0
 49
0.0
 49
1.0
175
     0
142
0.0208333333333333
142
0.0
142
0.0
142
0.0
142
0.0
142
0.0208333333333333
142
0.0
142
0.0
142
0.0
142
0.0
142
1.0
142
0.0
142
0.0
142
0.0
142
0.0
142
1.0
179
     0
144
0.0208333333333333
144
0.0
144
0.0
144
0.0
144
0.0
144
0.0208333333333333
144
0.0
144
0.0
144
0.0
144
0.0
144
1.0
144
0.0
144
0.0
144
0.0
144
0.0
144
1.0
147
0.0208333333333333
147
0.0
147
0.0
147
0.0
147
0.0
147
0.0208333333333333
147
0.0
147
0.0
147
0.0
147
0.0
147
1.0
147
0.0
147
0.0
147
0.0
147
0.0
147
1.0
  0
MLEADERSTYLE
  5
67
102
{ACAD_XDICTIONARY
360
DE6
102
}
102
{ACAD_REACTORS
330
66
102
}
330
66
100
AcDbMLeaderStyle
170
     2
171
     1
172
     0
 90
        2
 40
0.0
 41
0.0
173
     1
 91
-1056964608
340
5B
 92
       -2
290
     1
 42
0.09
291
     1
 43
0.36
  3
Standard
 44
0.18
300

342
55
174
     1
178
     6
175
     1
176
     0
 93
-1056964608
 45
0.18
292
     0
297
     0
 46
0.18
 94
-1056964608
 47
1.0
 49
1.0
140
1.0
293
     1
141
0.0
294
     1
177
     0
142
1.0
295
     0
296
     0
143
0.125
1001
ACAD_MLEADERVER
1070
     2
  0
MLINESTYLE
  5
60
102
{ACAD_REACTORS
330
5F
102
}
330
5F
100
AcDbMlineStyle
  2
STANDARD
 70
     0
  3

 62
   256
 51
90.0
 52
90.0
 71
     2
 49
0.5
 62
   256
  6
BYLAYER
 49
-0.5
 62
   256
  6
BYLAYER
  0
ACDBPLACEHOLDER
  5
F
102
{ACAD_REACTORS
330
E
102
}
330
E
  0
SCALE
  5
43
102
{ACAD_REACTORS
330
42
102
}
330
42
100
AcDbScale
 70
     0
300
1:1
140
1.0
141
1.0
290
     1
  0
SCALE
  5
44
102
{ACAD_REACTORS
330
42
102
}
330
42
100
AcDbScale
 70
     0
300
1/128" = 1'-0"
140
0.0078125
141
12.0
290
     0
  0
SCALE
  5
45
102
{ACAD_REACTORS
330
42
102
}
330
42
100
AcDbScale
 70
     0
300
1/64" = 1'-0"
140
0.015625
141
12.0
290
     0
  0
SCALE
  5
46
102
{ACAD_REACTORS
330
42
102
}
330
42
100
AcDbScale
 70
     0
300
1/32" = 1'-0"
140
0.03125
141
12.0
290
     0
  0
SCALE
  5
47
102
{ACAD_REACTORS
330
42
102
}
330
42
100
AcDbScale
 70
     0
300
1/16" = 1'-0"
140
0.0625
141
12.0
290
     0
  0
SCALE
  5
48
102
{ACAD_REACTORS
330
42
102
}
330
42
100
AcDbScale
 70
     0
300
3/32" = 1'-0"
140
0.09375
141
12.0
290
     0
  0
SCALE
  5
49
102
{ACAD_REACTORS
330
42
102
}
330
42
100
AcDbScale
 70
     0
300
1/8" = 1'-0"
140
0.125
141
12.0
290
     0
  0
SCALE
  5
4A
102
{ACAD_REACTORS
330
42
102
}
330
42
100
AcDbScale
 70
     0
300
3/16" = 1'-0"
140
0.1875
141
12.0
290
     0
  0
SCALE
  5
4B
102
{ACAD_REACTORS
330
42
102
}
330
42
100
AcDbScale
 70
     0
300
1/4" = 1'-0"
140
0.25
141
12.0
290
     0
  0
SCALE
  5
4C
102
{ACAD_REACTORS
330
42
102
}
330
42
100
AcDbScale
 70
     0
300
3/8" = 1'-0"
140
0.375
141
12.0
290
     0
  0
SCALE
  5
4D
102
{ACAD_REACTORS
330
42
102
}
330
42
100
AcDbScale
 70
     0
300
1/2" = 1'-0"
140
0.5
141
12.0
290
     0
  0
SCALE
  5
4E
102
{ACAD_REACTORS
330
42
102
}
330
42
100
AcDbScale
 70
     0
300
3/4" = 1'-0"
140
0.75
141
12.0
290
     0
  0
SCALE
  5
4F
102
{ACAD_REACTORS
330
42
102
}
330
42
100
AcDbScale
 70
     0
300
1" = 1'-0"
140
1.0
141
12.0
290
     0
  0
SCALE
  5
50
102
{ACAD_REACTORS
330
42
102
}
330
42
100
AcDbScale
 70
     0
300
1-1/2" = 1'-0"
140
1.5
141
12.0
290
     0
  0
SCALE
  5
51
102
{ACAD_REACTORS
330
42
102
}
330
42
100
AcDbScale
 70
     0
300
3" = 1'-0"
140
3.0
141
12.0
290
     0
  0
SCALE
  5
52
102
{ACAD_REACTORS
330
42
102
}
330
42
100
AcDbScale
 70
     0
300
6" = 1'-0"
140
6.0
141
12.0
290
     0
  0
SCALE
  5
53
102
{ACAD_REACTORS
330
42
102
}
330
42
100
AcDbScale
 70
     0
300
1'-0" = 1'-0"
140
12.0
141
12.0
290
     0
  0
TABLESTYLE
  5
65
102
{ACAD_XDICTIONARY
360
DE4
102
}
102
{ACAD_REACTORS
330
64
102
}
330
64
100
AcDbTableStyle
  3
Standard
 70
     0
 71
     0
 40
0.06
 41
0.06
280
     0
281
     0
  7
Standard
140
0.18
170
     2
 62
     0
 63
     7
283
     0
274
    -2
284
     1
 64
     0
275
    -2
285
     1
 65
     0
276
    -2
286
     1
 66
     0
277
    -2
287
     1
 67
     0
278
    -2
288
     1
 68
     0
279
    -2
289
     1
 69
     0
  7
Standard
140
0.25
170
     5
 62
     0
 63
     7
283
     0
274
    -2
284
     1
 64
     0
275
    -2
285
     1
 65
     0
276
    -2
286
     1
 66
     0
277
    -2
287
     1
 67
     0
278
    -2
288
     1
 68
     0
279
    -2
289
     1
 69
     0
  7
Standard
140
0.18
170
     5
 62
     0
 63
     7
283
     0
274
    -2
284
     1
 64
     0
275
    -2
285
     1
 65
     0
276
    -2
286
     1
 66
     0
277
    -2
287
     1
 67
     0
278
    -2
288
     1
 68
     0
279
    -2
289
     1
 69
     0
  0
VISUALSTYLE
  5
2F
102
{ACAD_XDICTIONARY
360
DF8
102
}
102
{ACAD_REACTORS
330
29
102
}
330
29
100
AcDbVisualStyle
  2
2dWireframe
 70
     4
 71
     0
 72
     2
 73
     0
 90
        0
 40
-0.6
 41
-30.0
 62
     5
 63
     7
421
 16777215
 74
     1
 91
        4
 64
     7
 65
   257
 75
     1
175
     1
 42
1.0
 92
        0
 66
   257
 43
1.0
 76
     1
 77
     6
 78
     2
 67
     7
 79
     5
170
     0
171
     0
290
     0
174
     0
 93
        1
 44
0.0
173
     0
291
     0
 45
0.0
1001
ACAD
1000
AcDbSavedByObjectVersion
1070
     0
  0
VISUALSTYLE
  5
2E
102
{ACAD_XDICTIONARY
360
DF6
102
}
102
{ACAD_REACTORS
330
29
102
}
330
29
100
AcDbVisualStyle
  2
Basic
 70
     7
 71
     1
 72
     0
 73
     1
 90
        0
 40
-0.6
 41
-30.0
 62
     5
 63
     7
421
 16777215
 74
     0
 91
        4
 64
     7
 65
   257
 75
     1
175
     1
 42
1.0
 92
        8
 66
     7
 43
1.0
 76
     1
 77
     6
 78
     2
 67
     7
 79
     5
170
     0
171
     0
290
     0
174
     0
 93
        1
 44
0.0
173
     0
291
     1
 45
0.0
1001
ACAD
1000
AcDbSavedByObjectVersion
1070
     0
  0
VISUALSTYLE
  5
35
102
{ACAD_XDICTIONARY
360
E04
102
}
102
{ACAD_REACTORS
330
29
102
}
330
29
100
AcDbVisualStyle
  2
Brighten
 70
    12
 71
     2
 72
     2
 73
     0
 90
        0
 40
-0.6
 41
-30.0
 62
     5
 63
     7
421
 16777215
 74
     1
 91
        4
 64
     7
 65
   257
 75
     1
175
     1
 42
1.0
 92
        8
 66
     7
 43
1.0
 76
     1
 77
     6
 78
     2
 67
     7
 79
     5
170
     0
171
     0
290
     0
174
     0
 93
        1
 44
50.0
173
     0
291
     1
 45
0.0
1001
ACAD
1000
AcDbSavedByObjectVersion
1070
     0
  0
VISUALSTYLE
  5
39
102
{ACAD_XDICTIONARY
360
E0C
102
}
102
{ACAD_REACTORS
330
29
102
}
330
29
100
AcDbVisualStyle
  2
ColorChange
 70
    16
 71
     2
 72
     2
 73
     3
 90
        0
 40
-0.6
 41
-30.0
 62
     5
 63
     8
421
  8421504
 74
     1
 91
        4
 64
     7
 65
   257
 75
     1
175
     1
 42
1.0
 92
        8
 66
     8
424
  8421504
 43
1.0
 76
     1
 77
     6
 78
     2
 67
     7
 79
     5
170
     0
171
     0
290
     0
174
     0
 93
        1
 44
0.0
173
     0
291
     1
 45
0.0
1001
ACAD
1000
AcDbSavedByObjectVersion
1070
     0
  0
VISUALSTYLE
  5
32
102
{ACAD_XDICTIONARY
360
DFE
102
}
102
{ACAD_REACTORS
330
29
102
}
330
29
100
AcDbVisualStyle
  2
Conceptual
 70
     9
 71
     3
 72
     2
 73
     0
 90
        0
 40
-0.6
 41
-30.0
 62
     5
 63
     7
421
 16777215
 74
     2
 91
        2
 64
     7
 65
   257
 75
     1
175
     1
 42
179.0
 92
        8
 66
     7
 43
1.0
 76
     1
 77
     6
 78
     2
 67
     7
 79
     3
170
     0
171
     0
290
     0
174
     0
 93
        1
 44
0.0
173
     0
291
     0
 45
0.0
1001
ACAD
1000
AcDbSavedByObjectVersion
1070
     0
  0
VISUALSTYLE
  5
34
102
{ACAD_XDICTIONARY
360
E02
102
}
102
{ACAD_REACTORS
330
29
102
}
330
29
100
AcDbVisualStyle
  2
Dim
 70
    11
 71
     2
 72
     2
 73
     0
 90
        0
 40
-0.6
 41
-30.0
 62
     5
 63
     7
421
 16777215
 74
     1
 91
        4
 64
     7
 65
   257
 75
     1
175
     1
 42
1.0
 92
        8
 66
     7
 43
1.0
 76
     1
 77
     6
 78
     2
 67
     7
 79
     5
170
     0
171
     0
290
     0
174
     0
 93
        1
 44
-50.0
173
     0
291
     1
 45
0.0
1001
ACAD
1000
AcDbSavedByObjectVersion
1070
     0
  0
VISUALSTYLE
  5
41
102
{ACAD_XDICTIONARY
360
E1C
102
}
102
{ACAD_REACTORS
330
29
102
}
330
29
100
AcDbVisualStyle
  2
EdgeColorOff
 70
    22
 71
     2
 72
     2
 73
     0
 90
        0
 40
-0.6
 41
-30.0
 62
     5
 63
     7
421
 16777215
 74
     1
 91
        4
 64
     7
 65
   257
 75
     1
175
     1
 42
1.0
 92
        8
 66
     7
 43
1.0
 76
     1
 77
     6
 78
     2
 67
     7
 79
     5
170
     0
171
     0
290
     0
174
     0
 93
        1
 44
0.0
173
     0
291
     1
 45
0.0
1001
ACAD
1000
AcDbSavedByObjectVersion
1070
     0
  0
VISUALSTYLE
  5
38
102
{ACAD_XDICTIONARY
360
E0A
102
}
102
{ACAD_REACTORS
330
29
102
}
330
29
100
AcDbVisualStyle
  2
Facepattern
 70
    15
 71
     2
 72
     2
 73
     0
 90
        0
 40
-0.6
 41
-30.0
 62
     5
 63
     7
421
 16777215
 74
     1
 91
        4
 64
     7
 65
   257
 75
     1
175
     1
 42
1.0
 92
        8
 66
     7
 43
1.0
 76
     1
 77
     6
 78
     2
 67
     7
 79
     5
170
     0
171
     0
290
     0
174
     0
 93
        1
 44
0.0
173
     0
291
     1
 45
0.0
1001
ACAD
1000
AcDbSavedByObjectVersion
1070
     0
  0
VISUALSTYLE
  5
2A
102
{ACAD_XDICTIONARY
360
DEE
102
}
102
{ACAD_REACTORS
330
29
102
}
330
29
100
AcDbVisualStyle
  2
Flat
 70
     0
 71
     2
 72
     1
 73
     1
 90
        2
 40
-0.6
 41
30.0
 62
     5
 63
     7
421
 16777215
 74
     0
 91
        0
 64
     7
 65
   257
 75
     1
175
     1
 42
1.0
 92
        8
 66
     7
 43
1.0
 76
     1
 77
     6
 78
     2
 67
     7
 79
     5
170
     0
171
     0
290
     0
174
     0
 93
       13
 44
0.0
173
     0
291
     1
 45
0.0
1001
ACAD
1000
AcDbSavedByObjectVersion
1070
     0
  0
VISUALSTYLE
  5
2B
102
{ACAD_XDICTIONARY
360
DF0
102
}
102
{ACAD_REACTORS
330
29
102
}
330
29
100
AcDbVisualStyle
  2
FlatWithEdges
 70
     1
 71
     2
 72
     1
 73
     1
 90
        2
 40
-0.6
 41
30.0
 62
     5
 63
     7
421
 16777215
 74
     1
 91
        0
 64
     7
 65
   257
 75
     1
175
     1
 42
1.0
 92
        0
 66
   257
 43
1.0
 76
     1
 77
     6
 78
     2
 67
     7
 79
     5
170
     0
171
     0
290
     0
174
     0
 93
       13
 44
0.0
173
     0
291
     1
 45
0.0
1001
ACAD
1000
AcDbSavedByObjectVersion
1070
     0
  0
VISUALSTYLE
  5
2C
102
{ACAD_XDICTIONARY
360
DF2
102
}
102
{ACAD_REACTORS
330
29
102
}
330
29
100
AcDbVisualStyle
  2
Gouraud
 70
     2
 71
     2
 72
     2
 73
     1
 90
        2
 40
-0.6
 41
30.0
 62
     5
 63
     7
421
 16777215
 74
     0
 91
        0
 64
     7
 65
   257
 75
     1
175
     1
 42
1.0
 92
        0
 66
     7
 43
1.0
 76
     1
 77
     6
 78
     2
 67
     7
 79
     5
170
     0
171
     0
290
     0
174
     0
 93
       13
 44
0.0
173
     0
291
     1
 45
0.0
1001
ACAD
1000
AcDbSavedByObjectVersion
1070
     0
  0
VISUALSTYLE
  5
2D
102
{ACAD_XDICTIONARY
360
DF4
102
}
102
{ACAD_REACTORS
330
29
102
}
330
29
100
AcDbVisualStyle
  2
GouraudWithEdges
 70
     3
 71
     2
 72
     2
 73
     1
 90
        2
 40
-0.6
 41
30.0
 62
     5
 63
     7
421
 16777215
 74
     1
 91
        0
 64
     7
 65
   257
 75
     1
175
     1
 42
1.0
 92
        0
 66
   257
 43
1.0
 76
     1
 77
     6
 78
     2
 67
     7
 79
     5
170
     0
171
     0
290
     0
174
     0
 93
       13
 44
0.0
173
     0
291
     1
 45
0.0
1001
ACAD
1000
AcDbSavedByObjectVersion
1070
     0
  0
VISUALSTYLE
  5
31
102
{ACAD_XDICTIONARY
360
DFC
102
}
102
{ACAD_REACTORS
330
29
102
}
330
29
100
AcDbVisualStyle
  2
Hidden
 70
     6
 71
     1
 72
     2
 73
     2
 90
        0
 40
-0.6
 41
-30.0
 62
     5
 63
     7
421
 16777215
 74
     2
 91
        2
 64
     7
 65
   257
 75
     2
175
     1
 42
40.0
 92
        0
 66
   257
 43
1.0
 76
     1
 77
     6
 78
     2
 67
     7
 79
     3
170
     0
171
     0
290
     0
174
     0
 93
        1
 44
0.0
173
     0
291
     0
 45
0.0
1001
ACAD
1000
AcDbSavedByObjectVersion
1070
     0
  0
VISUALSTYLE
  5
3F
102
{ACAD_XDICTIONARY
360
E18
102
}
102
{ACAD_REACTORS
330
29
102
}
330
29
100
AcDbVisualStyle
  2
JitterOff
 70
    20
 71
     2
 72
     2
 73
     0
 90
        0
 40
-0.6
 41
-30.0
 62
     5
 63
     7
421
 16777215
 74
     1
 91
        4
 64
     7
 65
   257
 75
     1
175
     1
 42
1.0
 92
       10
 66
     7
 43
1.0
 76
     1
 77
     6
 78
     2
 67
     7
 79
     5
170
     0
171
     0
290
     0
174
     0
 93
        1
 44
0.0
173
     0
291
     1
 45
0.0
1001
ACAD
1000
AcDbSavedByObjectVersion
1070
     0
  0
VISUALSTYLE
  5
37
102
{ACAD_XDICTIONARY
360
E08
102
}
102
{ACAD_REACTORS
330
29
102
}
330
29
100
AcDbVisualStyle
  2
Linepattern
 70
    14
 71
     2
 72
     2
 73
     0
 90
        0
 40
-0.6
 41
-30.0
 62
     5
 63
     7
421
 16777215
 74
     1
 91
        4
 64
     7
 65
   257
 75
     7
175
     7
 42
1.0
 92
        8
 66
     7
 43
1.0
 76
     1
 77
     6
 78
     2
 67
     7
 79
     5
170
     0
171
     0
290
     0
174
     0
 93
        1
 44
0.0
173
     0
291
     1
 45
0.0
1001
ACAD
1000
AcDbSavedByObjectVersion
1070
     0
  0
VISUALSTYLE
  5
40
102
{ACAD_XDICTIONARY
360
E1A
102
}
102
{ACAD_REACTORS
330
29
102
}
330
29
100
AcDbVisualStyle
  2
OverhangOff
 70
    21
 71
     2
 72
     2
 73
     0
 90
        0
 40
-0.6
 41
-30.0
 62
     5
 63
     7
421
 16777215
 74
     1
 91
        4
 64
     7
 65
   257
 75
     1
175
     1
 42
1.0
 92
        9
 66
     7
 43
1.0
 76
     1
 77
     6
 78
     2
 67
     7
 79
     5
170
     0
171
     0
290
     0
174
     0
 93
        1
 44
0.0
173
     0
291
     1
 45
0.0
1001
ACAD
1000
AcDbSavedByObjectVersion
1070
     0
  0
VISUALSTYLE
  5
33
102
{ACAD_XDICTIONARY
360
E00
102
}
102
{ACAD_REACTORS
330
29
102
}
330
29
100
AcDbVisualStyle
  2
Realistic
 70
     8
 71
     2
 72
     3
 73
     0
 90
        2
 40
-0.6
 41
30.0
 62
     5
 63
     7
421
 16777215
 74
     0
 91
        0
 64
     7
 65
   257
 75
     1
175
     1
 42
1.0
 92
        8
 66
   257
 43
1.0
 76
     1
 77
     6
 78
     2
 67
     7
 79
     3
170
     0
171
     0
290
     0
174
     0
 93
       13
 44
0.0
173
     0
291
     0
 45
0.0
1001
ACAD
1000
AcDbSavedByObjectVersion
1070
     0
  0
VISUALSTYLE
  5
3E
102
{ACAD_XDICTIONARY
360
E16
102
}
102
{ACAD_REACTORS
330
29
102
}
330
29
100
AcDbVisualStyle
  2
Shaded
 70
    27
 71
     2
 72
     2
 73
     1
 90
        2
 40
-0.6
 41
30.0
 62
     5
 63
     7
421
 16777215
 74
     0
 91
        4
 64
     7
 65
   257
 75
     1
175
     1
 42
1.0
 92
        8
 66
   257
 43
1.0
 76
     1
 77
     6
 78
     2
 67
     8
425
  7895160
 79
     3
170
     0
171
     0
290
     0
174
     0
 93
        5
 44
0.0
173
     0
291
     0
 45
0.0
1001
ACAD
1000
AcDbSavedByObjectVersion
1070
     0
  0
VISUALSTYLE
  5
3D
102
{ACAD_XDICTIONARY
360
E14
102
}
102
{ACAD_REACTORS
330
29
102
}
330
29
100
AcDbVisualStyle
  2
Shaded with edges
 70
    26
 71
     2
 72
     2
 73
     1
 90
        2
 40
-0.6
 41
30.0
 62
     5
 63
     7
421
 16777215
 74
     1
 91
       10
 64
     7
 65
   257
 75
     2
175
     1
 42
1.0
 92
        8
 66
   257
 43
1.0
 76
     1
 77
     6
 78
     2
 67
     7
 79
     3
170
     0
171
     0
290
     0
174
     0
 93
        5
 44
0.0
173
     0
291
     0
 45
0.0
1001
ACAD
1000
AcDbSavedByObjectVersion
1070
     0
  0
VISUALSTYLE
  5
3A
102
{ACAD_XDICTIONARY
360
E0E
102
}
102
{ACAD_REACTORS
330
29
102
}
330
29
100
AcDbVisualStyle
  2
Shades of Gray
 70
    23
 71
     2
 72
     2
 73
     3
 90
        0
 40
-0.6
 41
-30.0
 62
     5
 63
     7
421
 16777215
 74
     2
 91
        2
 64
     7
 65
     7
 75
     1
175
     1
 42
40.0
 92
        8
 66
     7
 43
1.0
 76
     1
 77
     6
 78
     2
 67
     7
 79
     3
170
     0
171
     0
290
     0
174
     0
 93
        1
 44
0.0
173
     0
291
     0
 45
0.0
1001
ACAD
1000
AcDbSavedByObjectVersion
1070
     0
  0
VISUALSTYLE
  5
3B
102
{ACAD_XDICTIONARY
360
E10
102
}
102
{ACAD_REACTORS
330
29
102
}
330
29
100
AcDbVisualStyle
  2
Sketchy
 70
    24
 71
     1
 72
     2
 73
     2
 90
        0
 40
-0.6
 41
-30.0
 62
     5
 63
     7
421
 16777215
 74
     2
 91
        2
 64
     7
 65
     7
 75
     1
175
     1
 42
40.0
 92
       11
 66
     7
 43
1.0
 76
     1
 77
     6
 78
     2
 67
     7
 79
     6
170
     0
171
     0
290
     0
174
     0
 93
        1
 44
0.0
173
     0
291
     0
 45
0.0
1001
ACAD
1000
AcDbSavedByObjectVersion
1070
     0
  0
VISUALSTYLE
  5
36
102
{ACAD_XDICTIONARY
360
E06
102
}
102
{ACAD_REACTORS
330
29
102
}
330
29
100
AcDbVisualStyle
  2
Thicken
 70
    13
 71
     2
 72
     2
 73
     0
 90
        0
 40
-0.6
 41
-30.0
 62
     5
 63
     7
421
 16777215
 74
     1
 91
        4
 64
     7
 65
   257
 75
     1
175
     1
 42
1.0
 92
       12
 66
     7
 43
1.0
 76
     1
 77
     6
 78
     2
 67
     7
 79
     5
170
     0
171
     0
290
     0
174
     0
 93
        1
 44
0.0
173
     0
291
     1
 45
0.0
1001
ACAD
1000
AcDbSavedByObjectVersion
1070
     0
  0
VISUALSTYLE
  5
30
102
{ACAD_XDICTIONARY
360
DFA
102
}
102
{ACAD_REACTORS
330
29
102
}
330
29
100
AcDbVisualStyle
  2
Wireframe
 70
     5
 71
     0
 72
     2
 73
     0
 90
        0
 40
-0.6
 41
-30.0
 62
     5
 63
     7
421
 16777215
 74
     1
 91
        4
 64
     7
 65
   257
 75
     1
175
     1
 42
1.0
 92
        0
 66
   257
 43
1.0
 76
     1
 77
     6
 78
     2
 67
     7
 79
     3
170
     0
171
     0
290
     0
174
     0
 93
        1
 44
0.0
173
     0
291
     0
 45
0.0
1001
ACAD
1000
AcDbSavedByObjectVersion
1070
     0
  0
VISUALSTYLE
  5
3C
102
{ACAD_XDICTIONARY
360
E12
102
}
102
{ACAD_REACTORS
330
29
102
}
330
29
100
AcDbVisualStyle
  2
X-Ray
 70
    25
 71
     2
 72
     2
 73
     1
 90
        1
 40
0.5
 41
-30.0
 62
     5
 63
     7
421
 16777215
 74
     1
 91
        0
 64
     7
 65
   257
 75
     1
175
     1
 42
1.0
 92
        8
 66
     7
 43
1.0
 76
     1
 77
     6
 78
     2
 67
     7
 79
     3
170
     0
171
     0
290
     0
174
     0
 93
       13
 44
0.0
173
     0
291
     0
 45
0.0
1001
ACAD
1000
AcDbSavedByObjectVersion
1070
     0
  0
DICTIONARYVAR
  5
79
102
{ACAD_REACTORS
330
76
102
}
330
76
100
DictionaryVariables
280
     0
  1
1:1
  0
DICTIONARYVAR
  5
78
102
{ACAD_REACTORS
330
76
102
}
330
76
100
DictionaryVariables
280
     0
  1
STANDARD
  0
DICTIONARYVAR
  5
77
102
{ACAD_REACTORS
330
76
102
}
330
76
100
DictionaryVariables
280
     0
  1
STANDARD
  0
DICTIONARYVAR
  5
DE1
102
{ACAD_REACTORS
330
76
102
}
330
76
100
DictionaryVariables
280
     0
  1
0
  0
DICTIONARYVAR
  5
DE2
102
{ACAD_REACTORS
330
76
102
}
330
76
100
DictionaryVariables
280
     0
  1
0
  0
DICTIONARYVAR
  5
DE0
102
{ACAD_REACTORS
330
76
102
}
330
76
100
DictionaryVariables
280
     0
  1
2
  0
DICTIONARYVAR
  5
DDF
102
{ACAD_REACTORS
330
76
102
}
330
76
100
DictionaryVariables
280
     0
  1
1
  0
DICTIONARYVAR
  5
DE3
102
{ACAD_REACTORS
330
76
102
}
330
76
100
DictionaryVariables
280
     0
  1
2
  0
DICTIONARY
  5
1A
330
19
100
AcDbDictionary
280
     1
281
     1
  3
ACAD_XREC_ROUNDTRIP
360
DEC
  3
BUMPTILE
360
1C
  3
DIFFUSETILE
360
1B
  3
OPACITYTILE
360
1F
  3
REFLECTIONTILE
360
1E
  3
REFRACTIONTILE
360
20
  3
SPECULARTILE
360
1D
  0
DICTIONARY
  5
12
330
11
100
AcDbDictionary
280
     1
281
     1
  3
ACAD_XREC_ROUNDTRIP
360
DEB
  3
BUMPTILE
360
14
  3
DIFFUSETILE
360
13
  3
FBXASSET
360
109
  3
OPACITYTILE
360
17
  3
REFLECTIONTILE
360
16
  3
REFRACTIONTILE
360
18
  3
SPECULARTILE
360
15
  0
DICTIONARY
  5
22
330
21
100
AcDbDictionary
280
     1
281
     1
  3
ACAD_XREC_ROUNDTRIP
360
DED
  3
BUMPTILE
360
24
  3
DIFFUSETILE
360
23
  3
FBXASSET
360
BA
  3
OPACITYTILE
360
27
  3
REFLECTIONTILE
360
26
  3
REFRACTIONTILE
360
28
  3
SPECULARTILE
360
25
  0
DICTIONARY
  5
DE6
330
67
100
AcDbDictionary
280
     1
281
     1
  3
ACAD_XREC_ROUNDTRIP
360
DE7
  0
DICTIONARY
  5
DE4
330
65
100
AcDbDictionary
280
     1
281
     1
  3
ACAD_ROUNDTRIP_2008_TABLESTYLE_CELLSTYLEMAP
360
DE5
  3
ACAD_XREC_ROUNDTRIP
360
E1E
  0
DICTIONARY
  5
DF8
330
2F
100
AcDbDictionary
280
     1
281
     1
  3
ACAD_XREC_ROUNDTRIP
360
DF9
  0
DICTIONARY
  5
DF6
330
2E
100
AcDbDictionary
280
     1
281
     1
  3
ACAD_XREC_ROUNDTRIP
360
DF7
  0
DICTIONARY
  5
E04
330
35
100
AcDbDictionary
280
     1
281
     1
  3
ACAD_XREC_ROUNDTRIP
360
E05
  0
DICTIONARY
  5
E0C
330
39
100
AcDbDictionary
280
     1
281
     1
  3
ACAD_XREC_ROUNDTRIP
360
E0D
  0
DICTIONARY
  5
DFE
330
32
100
AcDbDictionary
280
     1
281
     1
  3
ACAD_XREC_ROUNDTRIP
360
DFF
  0
DICTIONARY
  5
E02
330
34
100
AcDbDictionary
280
     1
281
     1
  3
ACAD_XREC_ROUNDTRIP
360
E03
  0
DICTIONARY
  5
E1C
330
41
100
AcDbDictionary
280
     1
281
     1
  3
ACAD_XREC_ROUNDTRIP
360
E1D
  0
DICTIONARY
  5
E0A
330
38
100
AcDbDictionary
280
     1
281
     1
  3
ACAD_XREC_ROUNDTRIP
360
E0B
  0
DICTIONARY
  5
DEE
330
2A
100
AcDbDictionary
280
     1
281
     1
  3
ACAD_XREC_ROUNDTRIP
360
DEF
  0
DICTIONARY
  5
DF0
330
2B
100
AcDbDictionary
280
     1
281
     1
  3
ACAD_XREC_ROUNDTRIP
360
DF1
  0
DICTIONARY
  5
DF2
330
2C
100
AcDbDictionary
280
     1
281
     1
  3
ACAD_XREC_ROUNDTRIP
360
DF3
  0
DICTIONARY
  5
DF4
330
2D
100
AcDbDictionary
280
     1
281
     1
  3
ACAD_XREC_ROUNDTRIP
360
DF5
  0
DICTIONARY
  5
DFC
330
31
100
AcDbDictionary
280
     1
281
     1
  3
ACAD_XREC_ROUNDTRIP
360
DFD
  0
DICTIONARY
  5
E18
330
3F
100
AcDbDictionary
280
     1
281
     1
  3
ACAD_XREC_ROUNDTRIP
360
E19
  0
DICTIONARY
  5
E08
330
37
100
AcDbDictionary
280
     1
281
     1
  3
ACAD_XREC_ROUNDTRIP
360
E09
  0
DICTIONARY
  5
E1A
330
40
100
AcDbDictionary
280
     1
281
     1
  3
ACAD_XREC_ROUNDTRIP
360
E1B
  0
DICTIONARY
  5
E00
330
33
100
AcDbDictionary
280
     1
281
     1
  3
ACAD_XREC_ROUNDTRIP
360
E01
  0
DICTIONARY
  5
E16
330
3E
100
AcDbDictionary
280
     1
281
     1
  3
ACAD_XREC_ROUNDTRIP
360
E17
  0
DICTIONARY
  5
E14
330
3D
100
AcDbDictionary
280
     1
281
     1
  3
ACAD_XREC_ROUNDTRIP
360
E15
  0
DICTIONARY
  5
E0E
330
3A
100
AcDbDictionary
280
     1
281
     1
  3
ACAD_XREC_ROUNDTRIP
360
E0F
  0
DICTIONARY
  5
E10
330
3B
100
AcDbDictionary
280
     1
281
     1
  3
ACAD_XREC_ROUNDTRIP
360
E11
  0
DICTIONARY
  5
E06
330
36
100
AcDbDictionary
280
     1
281
     1
  3
ACAD_XREC_ROUNDTRIP
360
E07
  0
DICTIONARY
  5
DFA
330
30
100
AcDbDictionary
280
     1
281
     1
  3
ACAD_XREC_ROUNDTRIP
360
DFB
  0
DICTIONARY
  5
E12
330
3C
100
AcDbDictionary
280
     1
281
     1
  3
ACAD_XREC_ROUNDTRIP
360
E13
  0
XRECORD
  5
DEC
102
{ACAD_REACTORS
330
1A
102
}
330
1A
100
AcDbXrecord
280
     1
102
MATERIAL
148
0.0
149
0.0
149
0.0
 93
        0
 94
      127
282
     0
 72
     0
 77
     0
171
     0
175
     0
179
     0
273
     0
  0
XRECORD
  5
1C
102
{ACAD_REACTORS
330
1A
102
}
330
1A
100
AcDbXrecord
280
     1
270
     1
271
     1
  0
XRECORD
  5
1B
102
{ACAD_REACTORS
330
1A
102
}
330
1A
100
AcDbXrecord
280
     1
270
     1
271
     1
  0
XRECORD
  5
1F
102
{ACAD_REACTORS
330
1A
102
}
330
1A
100
AcDbXrecord
280
     1
270
     1
271
     1
  0
XRECORD
  5
1E
102
{ACAD_REACTORS
330
1A
102
}
330
1A
100
AcDbXrecord
280
     1
270
     1
271
     1
  0
XRECORD
  5
20
102
{ACAD_REACTORS
330
1A
102
}
330
1A
100
AcDbXrecord
280
     1
270
     1
271
     1
  0
XRECORD
  5
1D
102
{ACAD_REACTORS
330
1A
102
}
330
1A
100
AcDbXrecord
280
     1
270
     1
271
     1
  0
XRECORD
  5
DEB
102
{ACAD_REACTORS
330
12
102
}
330
12
100
AcDbXrecord
280
     1
102
MATERIAL
148
0.0
149
0.0
149
0.0
 93
        0
 94
      127
282
     0
 72
     0
 77
     0
171
     0
175
     0
179
     0
273
     0
  0
XRECORD
  5
14
102
{ACAD_REACTORS
330
12
102
}
330
12
100
AcDbXrecord
280
     1
270
     1
271
     1
  0
XRECORD
  5
13
102
{ACAD_REACTORS
330
12
102
}
330
12
100
AcDbXrecord
280
     1
270
     1
271
     1
  0
XRECORD
  5
109
102
{ACAD_REACTORS
330
12
102
}
330
12
100
AcDbXrecord
280
     1
 70
     1
 90
1959938040
 71
     1
  1
64968F70-6121-4B4A-AB1E-3A8D8E7C4E42
311
504B03040A00000800008564E5423DEE336E79000000790000001B0000006175746F6465736B2D64657369676E2D7061636B6167652E786D6C3C3F786D6C2076657273696F6E3D22312E302220656E636F64696E673D227574662D3822203F3E3C666F726D6174733E3C666F726D61743E687474703A2F2F736368656D612E
311
6175746F6465736B2E636F6D2F64657369676E2D7061636B6167652F323030393C2F666F726D61743E3C2F666F726D6174733E504B03041400060808008564E542D486FD9CA0000000F4000000130000005B436F6E74656E745F54797065735D2E786D6C7D8EC10E82300C865F65E91D8A1E8C310C0EEA1BF002731658846E
311
D98AC1B77784ABF1D8FE5FBFBF75BBCE937A534CCEB38643598122B6FEE978D0B0485F9C41B54DDD7D022595594E1A469170414C76A4D9A4D207E29CF43ECE46F218070CC6BECC4078ACAA135ACF422C856C0E68EA1BF5669944DDD7BCDE7B1F8E415D77AECB980613C2E4AC91FC167A2B244592486606FC29C8FD7F045B9A
311
EF7053A7E60B504B03041400060808008564E542AFBB255DEB0000007C01000008000000636F72652E786D6C8D90516EC3201044AF82F6B7C206133B8985891CAB39412F8080B828315806AA1EBF3871A4F6AF5FBB1AE6B1A3E1A7EFE98EBECC12AC771DD08200324E796DDDD8418A577C0074127CF13EFEB2017272321DAC
311
32083E2E3ECD9BA4BC8BC6C5AC3AAFCD26CA104C04A4EE79E920A84F33C942A6981DE156CC52DDE4680AFADA329C92D5E879C4EAFC9FBD5AB380A0F5E5CC869AE1BE2707BC63FD119FABDD80873DBDBC574DD3D3A1E1E50A0B1EEDF4BAAF1623A3D1202A4219267B4CEA0F5AB5AC69297D2375CB082F57FB1F28CDFA9F50B2
311
2EB26A8BFBC442CE9A833C1E042FD72EF2781495E7DA9BF801504B03041400060808008564E54255019EA25F0000007C00000007000000636E782E786D6C4DCB3B0E80201045D1AD90E915ED2CF8AC45050C11660C8261F98AB1B07AC9C97D42D718D865D3E909258CFD00CCE24AC6E326A164D74DC0B4128928FF32603847
311
2BA13128B1252AC747C6BAB984FC68F0B87FE8960A5C09FE86CFB69FBA01504B03041400060808008564E542399078A467010000020300000C0000006662782F636F72652E786D6C8D52ED8A8330107C9590BF87C668B5BD1253AC5C9FE05E20D5D4936A2231913EFEAD1FC5EB514A116298D9D99D1D65875BDBA0419ABED6
311
2AC5D40F3092AAD065ADAA143B7BF176181D38335ADB3F651829D1CA148F30E6AC32DA750B546865A5B2802A5DCA05147D2F2D4645039714F7C58F6C852F9C858AFEEA77A2B88A4AFAD4071AEA38EBAD0103681E329E985FCE3746669C33E7EA7261EB12A6D5975A1ACC697C3A46791C795916ECBC4D947D7AC770937BF996
311
9EBEC224C9689E30328A39B3757B77571829AC2C310F031A79C1D60BE26F1AEEA3644FE94710EFA38091B1FC41E4BAF24D91AB958DC2C5EE2CEBC12B1899887FDB424416F562003F8433328608AF29E1C7A0211008D98A7373DFE30AD0200BABCD069852BB951A44E3244C0DD0F43032B3D0796A009B3DED13BEE8F3BA077C
311
40A12AB0262C5CCFCE8ED3D93C7589A293C61BEC0D296D5AD1ACE6668BEBB90E7A2A2F74A3CD3B6AB2AC4A9630C9F8F7F25F504B03041400060808008564E542419029A47D0000009D0000000B0000006662782F636E782E786D6C4DCCD10A83201886E15B91FFDCD265CD811ADA6E249685CC74988E5DFE6A74B0A30F1E3E
311
5ED17F568FDE366D2E0609B422806C78C4C9854542C933E6807A25528CF9EF06288CAB95703028B1A4585E274D761E8BCFBB7A179E27B60D23774329BE71DE617621049BE1AA71ABA936A46B98E603D44AD4BFD2BE47587D01504B03041400060808008564E5426931187E2B01000015020000310000006662782F35333430
311
444231312D393838362D343230302D424337412D3541314142303633344138432F636F72652E786D6C8D515B6EC32010BC0AE22B55850DC6769C081339E9117A0162488A1283C5A3CAF10BB523B57FF961D1ECCCEC68971D1ED31D7C2BE7B5353D2405864099D14A6DAE3D8CE1823A080E9C396BC31F1A04464CAA8719869C
311
5D9D8DF30A8DD6046542428D956A0585F72A4030DED3A7877EFC529328440C89E16FC52CC69BB8AA8214A99D789CF9E05200B00CC92FE40DADF1C79110B4EBBA16D515C6E878DA0EA819C870C42DAD87EEC4CA45C8598C5AAE722D531C7DD1CABD6A92C59C053D3DE38F4E89A024E4152614E12DC2CD27A9F6B4DD13F28E9B
311
3DC5ACCCF47FA238CB1745519B40AB35EE22F39013562E0DCEA48DE7FB338C7ACCD60590E76DBC1ADF20C705C61DDD91AE4E9A859B36904CDB7A35F5C1BAB4E1CDED9CE8A4599CDB9AB3321F2995DF0BA69A0FCA7F00504B03041400060808008564E54269743ACB4F01000033030000300000006662782F35333430444231
311
312D393838362D343230302D424337412D3541314142303633344138432F636E782E786D6CD593CD6EC32010845F0571ADFC439CA4558489D4439FA0875E316C121A0C16E0AA79FB2E094973C9A1C75E90353BCCAC3E61BEFD1E2DF982108D773D65754B0938E5B571FB9ECE6957BD50B2153C789FEE6C943839424FB34C05
311
DF073F4F45D2B093B34DA85AE38E450C10FD1C144494F34D62BD921603C055338A300EA035687233E2D70E02AE82E27022E900E4EDF583F8E113548ABCC9298237B943F07C96A63B1325CACA187B1AD5014659CB39790DF1586B9964CDEA6BD7839D7E9348BE70AD9C8321B9BCA7F9A4A26C542347DEE050F09802D22BA674
311
9A800A394DD62899107273365E3C82CFC6A5F5B2780D820FE866EB6EB9C4B0F34CF06446280E154026D0542C5AD655ED73D5AEDED962D3AD378C3DB5AB4DD7F226DB051FBCB7E512C640F01351DE2570890AC69B3C7E84AFF888360159FB70FA034804505A2F746E19FF994F737EDF882BE05F207E00504B03041400060808
311
008564E5421C2379EAA405000081100000340000006662782F35333430444231312D393838362D343230302D424337412D3541314142303633344138432F6F626A656374732E786D6CAD57D96EDB3814FD1541F332F3E045B69B3A03458597A430DAB4458D16F360C0A0254AE1845A405289335F3F8722254BAE9D7A067DD1
311
C2E5F2DE73CF5DE8BFDBA7DC79A242B23CBB71BDFED0756816E611CB921BB754716FEA3AEF025FE4B96A2D739D8CA4F4C6D5C36EE027222F0B3B14D198945C1D8DDECDFF72644833EA3A212752DEB8327CA029E99352E511958FFD8828D24FE27DDFEB9B855DB18920C5C391D082089A29688AF10C521CA394D7FD1DBA83C0
311
1FE8F9C0D74FBB6A7C7ED5A0B2A77B3ECBA42259F8C3614762C6DE64793B7A73DD7B33998C7B93AB91D79BDFCD973DEFED78B8B85A2CAE67B7D738582A01495613416337780F6C040BFD81990AFC92656A3CB24BAC8306823E31ED293718399E3F306B1AEBAC91A7D40FF32CA3618515D0A8ECB3A2235AD02C82CF1995D0AC
311
85D0B0FBEB691C5BD363FD6F8F6C0F5F86407B474B50AD7BFD6E6B9AEFFE8609F21206094935030D96D650C3D5E101E15D9E733BC7A49312450523DCE16C27887871032CD54B02BF23463359E868D016B801BC60A6BB744118FD9CE7A7B48C4BCE358DDDA08A822D62852A5969C6FEA1E2A07D1B19E8045F69364CAD41EAA5
311
A06E706D28323D629301D2893949E07298A9778E4747862E749CAE966EF0E16EB75FEBD83D7D7821F2820AA5E9036AD58EABDF1A25AB937791E7F406F7489503285F81FC2784FA4115F84DB0FD643FB1A728413219E722856F9CA1D31BE23174BCEAA9BF5B5FFEA0D9DCF5DE393CE16C0DD52FC0B36B43DB972D3803FF0984
311
CFC5D89AB60E0947DAB8671900D22471788E21E4E178B7778315B21CB23276111E783019EA3EE1D31F58314814D549AD77062C8FD2E205091AB0558C841A86FC56C1839F7E4867D5C176D93978DFFC12BACE96EB0FEB52C424A4F736A69734661953287107DEB415EA60DEB1E891BE3CE72282A13FE2BD6EE39DDAA324D0D6
311
986BE0933AA7EB9FC3C99D0342EC4B729D6EFC9F9C002374616DC9BF6732A49C938CE6657DEEABF50365C340AC835D33B9293087C202D29899A31844910E052B34884DB56A9266FF8C75DF569FC0483798BF7C242FEDECB53BE4DE30E7B9D8EE5EB6262D9D84FA7B97DB1683819602BA574152C7BF057D1BB1382E2592E009
311
5CBFAF166DDFE9B48014514B35D13281FD082E222C696BB9A8D682A092E6D996A16E22EE4E1ED0960F482D032A81E7349694C75BC679996E63C6518DB62929CEC0F1FFF5DF9569B125695E66EA8CEC8EEAA80E5DDD3BEC95CF44850F6EB0AEDEBD39726F44A33364D0B5E404561DD75E4DAEAFA6776F87BD2B0FADD3643E99
311
F56673EFB6379E4D97D3DBB78BC9ED6454FBC96812F875A9694734BC84D2E6978259F77D5B217E6C1270837BA2E4E6BD09CFFAFD6DD5472FEC0FB007F5B2D9388B9ED0F7D1E8E7020E2B4F0A5AA505A729CD14D13174AF3FF857823EA3A38C195FA524A11748F9FC7E7D640C462ED8F745C73B7D3EDA6B47173A204F0A510F
311
65BACB08E3471B138364BFC8128B5FED93E66D0A4DFDABFFAC63D099CA9CB308793072129AA754211B5E5084444A25A8D7EEE9237BF7B860F793E91015D9715A6BF240D0247389B000B5CA5075C79DDFD0D4E9BEEAC645B9ED3FE2613385EB8033372E9A74C5422AFB3B1468DD0A55C2C1A576278FC69F640947AF6D3635FF
311
CD2E8D4DA724374B2EE99FAC5D26855B0390460AF40D6888E09D4A99C0AF74B3F3E17F32BC56C7210A9FBB5235B61C061A63AA6310A2C6287B5B4013F3688FDE23505F37CBEB576B3A885C74CB7A9504466A4F1191543705AD9F5569B6FC324087E2AC3E3B052F13F8F272493D4141E652073858045658990551A0EAE2CFCD
311
1791E3269B3A770C14707EDF4FAFFED82CF234CD3333B499D9FBB0B37EC0ED36DA2039507D2D919BD1D01B6DAAEB80BDA16C7744D23E89E42306E059C11AA03BEE072FCD9D1175C84C34EB06DA15470C5D2D1D5BD826106AE9D2CEAD1A1C341E19751043FA4AA923A6BDA078F54630A8964205815E3EF817504B0304140006
311
0800008564E542000000000000000000000000350000006662782F35333430444231312D393838362D343230302D424337412D3541314142303633344138432F76657274696365732E62696E504B03041400060808008564E542F270F1330600000004000000360000006662782F35333430444231312D393838362D343230
311
302D424337412D3541314142303633344138432F747269616E676C65732E62696E636660600000504B03041400060800008564E542000000000000000000000000370000006662782F35333430444231312D393838362D343230302D424337412D3541314142303633344138432F617474726962757465732E62696E504B03
311
041400060808008564E542D5987DFC8F00000041010000360000006662782F35333430444231312D393838362D343230302D424337412D3541314142303633344138432F6469726563746F72792E786D6C858F410EC2201045AF4266AF15DDB800BA74E7C21B903225242D6328188F2FA5C4183471359997F9FF81E89FF3C4
311
1E1816475E02DF1F80A11FC8386F25A438EECEC07A250251FC3803E6F58C12560C4AD840E95E91C151A72936F496F35732D860FE635F62C8F2DA16B505C545B74125BAA2FA9E05D7CC053D063734D5C7665FD55B6B8D15D5E9BFEAFD8490FFA45E504B03041400060808008564E542BC100BC5FE000000A00100003B000000
311
6662782F35333430444231312D393838362D343230302D424337412D3541314142303633344138432F7265736F75726365732F636F72652E786D6C8D504B6E833010BD8AE56D65B02190141947043527E8052C33A156828DFCA97AFCDA814AEDAE9B99D1FB689E1E3F7F2D0FF409CE6B6B7ACC0A8A111865276DE61EC77023
311
278CCE823B6BC32F1946462ED0E30C63C16767E3BA43CA9A002624D4D80976507A0F0123F548478FBDFA8045163286A4F0F76295EA2E67285891E8A413DC079702A0ED499E5838F0363A059E971B2B788C7ADA357A4A3FF54D83C38235D74B3D361519067A22877A782597EA3092F1C8AE6F55DB0E6C6C7999CD8207BDFC64
311
540E6480098B8AB29AD023A1CD3BABBABAED187BA14D57535E66F91F535CA77F9AA236A1AEF6B89BCDA7AC29C89310BCCC7DA5F52C33EDDCADF806504B010214000A00000800008564E5423DEE336E79000000790000001B00000000000000000000000000000000006175746F6465736B2D64657369676E2D7061636B6167
311
652E786D6C504B010214001400060808008564E542D486FD9CA0000000F40000001300000000000000000000000000B20000005B436F6E74656E745F54797065735D2E786D6C504B010214001400060808008564E542AFBB255DEB0000007C010000080000000000000000000000000083010000636F72652E786D6C504B01
311
0214001400060808008564E54255019EA25F0000007C000000070000000000000000000000000094020000636E782E786D6C504B010214001400060808008564E542399078A467010000020300000C00000000000000000000000000180300006662782F636F72652E786D6C504B010214001400060808008564E542419029
311
A47D0000009D0000000B00000000000000000000000000A90400006662782F636E782E786D6C504B010214001400060808008564E5426931187E2B0100001502000031000000000000000000000000004F0500006662782F35333430444231312D393838362D343230302D424337412D3541314142303633344138432F636F
311
72652E786D6C504B010214001400060808008564E54269743ACB4F010000330300003000000000000000000000000000C90600006662782F35333430444231312D393838362D343230302D424337412D3541314142303633344138432F636E782E786D6C504B010214001400060808008564E5421C2379EAA4050000811000
311
003400000000000000000000000000660800006662782F35333430444231312D393838362D343230302D424337412D3541314142303633344138432F6F626A656374732E786D6C504B010214001400060800008564E54200000000000000000000000035000000000000000000000000005C0E00006662782F353334304442
311
31312D393838362D343230302D424337412D3541314142303633344138432F76657274696365732E62696E504B010214001400060808008564E542F270F13306000000040000003600000000000000000000000000AF0E00006662782F35333430444231312D393838362D343230302D424337412D35413141423036333441
311
38432F747269616E676C65732E62696E504B010214001400060800008564E5420000000000000000000000003700000000000000000000000000090F00006662782F35333430444231312D393838362D343230302D424337412D3541314142303633344138432F617474726962757465732E62696E504B0102140014000608
311
08008564E542D5987DFC8F0000004101000036000000000000000000000000005E0F00006662782F35333430444231312D393838362D343230302D424337412D3541314142303633344138432F6469726563746F72792E786D6C504B010214001400060808008564E542BC100BC5FE000000A00100003B0000000000000000
311
0000000000411000006662782F35333430444231312D393838362D343230302D424337412D3541314142303633344138432F7265736F75726365732F636F72652E786D6C504B0506000000000E000E0080040000981100000000
310
504B03040A00000800008564E5423DEE336E79000000790000001B0000006175746F6465736B2D64657369676E2D7061636B6167652E786D6C3C3F786D6C2076657273696F6E3D22312E302220656E636F64696E673D227574662D3822203F3E3C666F726D6174733E3C666F726D61743E687474703A2F2F736368656D612E
310
6175746F6465736B2E636F6D2F64657369676E2D7061636B6167652F323030393C2F666F726D61743E3C2F666F726D6174733E504B03041400060808008564E542D486FD9CA0000000F4000000130000005B436F6E74656E745F54797065735D2E786D6C7D8EC10E82300C865F65E91D8A1E8C310C0EEA1BF002731658846E
310
D98AC1B77784ABF1D8FE5FBFBF75BBCE937A534CCEB38643598122B6FEE978D0B0485F9C41B54DDD7D022595594E1A469170414C76A4D9A4D207E29CF43ECE46F218070CC6BECC4078ACAA135ACF422C856C0E68EA1BF5669944DDD7BCDE7B1F8E415D77AECB980613C2E4AC91FC167A2B244592486606FC29C8FD7F045B9A
310
EF7053A7E60B504B03041400060808008564E54296823850EC0000007C01000008000000636F72652E786D6C8D904D6EC3201085AF82665B61839DD43FC2448E9C9CA01740405C94182C03558E1F9C3852BBEB6A466FDE37337AEC709F6EE8472FDE38DB01CD08206DA553C68E1DC470C135A003678B73E1970D901593EE60
310
9581B3717171DE24E96CD03624D53AA5375178AF0320794B4D075E7EEB49642286E4F0D76C16F22A469DD17797E0188D42AF2346A57DE662F402BCAF9AE13434041735A9F1AE2267DC14BB0A9FC9B1EFE971A8CA53CFF215E62C98E97D5F2E5A04AD80178496985498ECBF68D1969F2DA51F64DF9684E5ABFD0F1467F54F28
310
1A1BCA627BF78579E0343DF21C7096AF59A4F20C2AD53537FE00504B03041400060808008564E54255019EA25F0000007C00000007000000636E782E786D6C4DCB3B0E80201045D1AD90E915ED2CF8AC45050C11660C8261F98AB1B07AC9C97D42D718D865D3E909258CFD00CCE24AC6E326A164D74DC0B4128928FF326038
310
472BA13128B1252AC747C6BAB984FC68F0B87FE8960A5C09FE86CFB69FBA01504B03041400060808008564E54299F69E6E68010000020300000C0000006662782F636F72652E786D6C8D52ED8E8230107C95A67F2FA505F450536A30EA13DC0B54A81C115A525AE2E3DFF261382FC65C484A33B3B33B3BC0F7F7A646BDB25D
310
65748AC38061A4746E8A4A9729F6EE4A3618ED05B7C6B85F651869D9A8140F3016BCB4C6B733941BED9476806A53A819945DA71C46790D971477F9B76A6420BD838AEE16B432BFC95205610034D409DE390B06D0346438B1B85EEE9C4EB8E0DE57C5CC56054CABAE95B25864C9F6783A6E1989366C4356093B936DB44AC899
310
1DB22C3C1C93F894713A88057755F370975B259D2AB0885818139610B6FE0AA35DFCB90BC30FB6DEC58CD3A1FC49E4DBE29F225F691747B3DD49D66111829191F8B32D44E450277BF04305A74388F01A137E0E1A0281909DBCD48F3D6E00F52A77C6AE80298C5FA85ED65EC15486C687D38985CE6303D8EC659FE84D9FF73D
310
E0034A5D8235E9E07AF16E98CEA7A97314ADB2A47777A48D6D64BD989B2C2EE732E8A53C37B5B1FF51D379553A874987BF57FC00504B03041400060808008564E5428B7AE6327D0000009D0000000B0000006662782F636E782E786D6C4DCCD10A83201886E15B91FFDCA5D85A033512ED3E6259C84CC3E9D8E5AF46073BFA
310
E0E1E3E5DD67F5E86DD3CBC520805E08201B1E7172611150F28C5B409DE429C6FC770314C6D50A3818245F522CDB49939DC7E2F3AEDE85E7894C6BA31BCDB01A88C175C30C6E6F866276AD497FEF07A514854AF2EA57DAF708CB2F504B03041400060808008564E5423291D08C2C01000014020000310000006662782F3344
310
4445443644332D424630452D343633452D383745312D3335343041394146424242312F636F72652E786D6C8D515B6EC32010BC0AE22B55850DC1711EC244B1EC9CA0177081A42831583CAA1CBF503B52FB971F16CDCECC0E2C3B3EC63BF856CE6B6B1A480A0C8132C24A6DAE0D8CE18276101C3973D6863F3408CC30AA0666
310
18727675364E0B24AC09CA84841A2BD5020EDEAB0081B8A74B03BDF852E3500C312486BF15D3206EC35515A448EDC4E3CC0797028079483E21A75DD7777547517BC63DAA6ADAA3DDB627886E2A7CDA9FCE6DDB1256CE42CE62D472916B99E2E88B56EE55932CE62CE8F1195F38350425215F634211DE22BCF920EB03AD0F84
310
BCE3CD81625666FA3F519CE48BA2A84DA0EB25EE2CF390A7D7CC0DCEA48D9FF76718F598AC0B20CF5B7925DE20C705C6BB7A4FB77B56CED4F401C9B3AE164F1FAC4B1FBCBA7D26365D8CEB8AB332EF2895DF05A69AF7C97F00504B03041400060808008564E5420FD3F5DC5601000033030000300000006662782F33444445
310
443644332D424630452D343633452D383745312D3335343041394146424242312F636E782E786D6CBD93CD6EC23010845FC5F2B5CA1F811421C7483DF4097AE8D5B1177049ECC83F5579FBAEC1502E1C2A55BD58D1EC7866F5C961DBAF69249FE0BCB6A6A74D595302465AA5CDBEA731EC8A35255BCE9CB5E1CE46891113F4
310
34C994B3BDB371CE92829D88634075D4E6984507DE4627C1A39C6E92D14A3162009822A208D3004A812237237EEDC0E12A280E27120E405E5FDE891D3E4006CFAA94C259953A384B676EBA33512247E17D4FBD3CC0244A118355E08FA51241944D79ED7AB0D34F124917AE95D16992CA7B9A4ECAF346257264150E39F3C121
310
BD6C0AA7192817F33C6A290242AECEC68B87B3A84DE896D9AB11BC4377BBE8D66B0C3BCF380B7A82EC900E440045F9A26EDAA27E2EEAD55BB3D8B4DDA6699EEAD5A6AD5995EC9C0DD68EF912C680B33391D6043081F2865569FC085FF611A51DB2B6EEF40B900820B75EE8DC32FE924FD3B5CBE53FF2A9CEEF1B7139FC0BF8
310
37504B03041400060808008564E5428FF92F90630700009A1B0000340000006662782F33444445443644332D424630452D343633452D383745312D3335343041394146424242312F6F626A656374732E786D6CED59DD739B3810FF5718EEE5EEC1D8C44E9ADC103A8993743CBDB49DFADAB907CF3032C8441721184924F1FD
310
F5B7FA00033109BEE6DEFA6003425AEDFEF6534BF0FE29A3CE03E682E4ECDCF5BD89EB6016E70961E9B95BCACDE8D475DE8701CF73D998E63A0C65F8DC55C36E18A43C2F0B3B94E00D2AA9EC8CDE5CFEE5881833EC3A3145429CBB22BEC319F25029F3048B7B2F411279E9E6C9F33D33B14D36E5A8B8EB102D10C74C02A730
310
CE808A6398F2DB8F13771C0663F53E0CD4BF9D351D346BD63F6BACA56E7349989088C5CF58EA90990E6269EACFAEAE8F8ECF46C7B3D974343B39F2479737975723FFDD74323F99CFCF2EAECF80BD759E532B53820BCC12D0DFD60DFD60ACDED4A25B04F6711DE78CE15803095069B1BA040916B05503BE49FBD15712355E6B
310
091BCF33F5DEB2D0189EB6A9F4CD1A06448B2E0862B7AB24AEAE4DF9F2F5DF20B81862945C6009DC0AC941BB161E0E5EE18693606C46C360BDD305114E8624E60451879235471C940253D59430300B2C19E51C1C48394A02AD39F3BA6D5BE099AFBBCE3E2E3725A5CA33DC503B5604EE87A5D09C917F30DF71DF4406780269
310
4BC2E4A9E5526E0BEC8667C1580F8681BA4C8FEC4B03A4B3A128151A11F3B623E85CB9FEE2CA0D3FDEAC9F962A1CECDFBCE07981B95446A7F4A8F90243B6578592DDD61FA439B5008431A0DA953B50BE02F29F207AEC5801BD71F2347B9AD9B99223263639CF4037CEC4194DE06FE2F8FA5FDD37EE8271BDB8ADBD3E3CC14D
310
1554A73F8E675B068D95E5BF0167183C80C1E77C6A5F2D6344C19E6F09038094913834872108ED9BF5931B2E207042A0875588863E880CEC3EC06D30B664765AA9DCCB7A1D0344ED1ED3214A02D8B445021B3D7AFA00D9839378A7A6A6887DF01EBF89B95E5C2D3F2E4BBE4131BEB53E7D853784110959733F432DCC5B12DD
310
E3ED63CE1310F439DECB26DE99DD4A00DA0A73057C5A81A01E763BB73688615D9AAB7013BCB20308A1727583FE2D1131A614319C97D5BE757453865A7BBCAD19DCF0C8403C3DEA9830C70F445515E034BB192D4621EFC79C140A4437FC6024AB83A6D723DDB7C527B0C87A7ECFAC0583D0CB10FD5307AD3D38B42CBB42DA02
310
510BBCDE85F338A7398FD6DBC8443A176A0960A3ED2DDF5B4421D61B25292AE041DAEFAA90921A69A3846C36A580B8BA87C5EF8B79D31C26DED43F769AFF1D679C41B405DF45DCFA5D678F886428C5D106257DDB3577AB690B4DB28734C71B0A72910722B71192D124C1E921D01C44FCEC4DA9A7341782302C205FED05BF89
310
C6C4834062B459B1ACB4DA019A8828C312D1431050647AC0D56947D7B831940EAFF3585BEF4B1A6B12FD9F2C8223A82573161128452187BCCAB8EF1D430C69A36B50EEE00BD656D1D662D0124A88781B3D6292DEC9435037E47B708FE14852CA282F500C663D80EC335F514AEDF0BE46F1BDCA1F515CD2B7321081E9262294
310
9659043FC2E0E431C4B5EBC0F4220A0DE226F6499C41518664C9876C72723C79B68FA919BA21B0B1D1865008DB51868A1ED45B0151D7234E0DBEA5DEA3D475991511CAF2920D32146FDAF5264BBEAB56457620BFAA5484B2B1226C09860161B2CEAA55CC0653D78115DC4807AA6D24505650730A7B25F1F8B53769CABD1B70
310
EBA76FBB4106855F8FF69A117556C160796C1506E211C9F8CE0D97FA3ABA84FA3BC1C92ED557B566B30204C454242F39B12AFAB680F2C6D6686E788BA4587D3059B7BA7E5B78D0FD08C6B0066A977AE142019D612691AA4C6ED50DFD8A2004B76898F185CAA98750B948125D35227A43FAD4D92A235A9B66C42BEE30CB33F8
310
B11561312D13BC4289B88F6E258D9644B16EA5F4325261FCA2809F3F2C3BF0C0C80091BEA8020F3F76D6DAD1B92A97F612917765B6668840106C89961ADD78054BAD462A2DD75775A680BA0B0CCCAA78F6F364D16C47FC3C59A4D6307EE86471B9FD036D9B7D91463A8F955D1F740CA8F393A2F216C700DD76A8A9D659C424
310
732BBF75A608826215E507576355D03004FB38FECF59BB2F0B9AED3AFC1F96B5FD6715C74159A5355975A9F654AE8B660E3B999D9D9CDEBC9B8C4E7CE8CDCE2E6717A38B4BFF7A34BD38BD3ABD7E379F5DCFEA546C8887411DCC74EE826713D4AA61F5643180AEACC82949E0349F382986982FE14C3FA07DCE332C2079369B
310
DD896DCA0F58FD60FA9C12AD29AE38B943D020A602D23A8851C6B23DEEFC02AD490907ED73179A46DE3DFC59AB741DC83CE72EB40A2489B1F0D6D066520D3D4D1C52AECEFD96180432C4529512CDA2FAB95EA5B06985FF7ACA903460E56AF530A0702BA0FBD5EA5068DE2C4FF1418257EC3848C2EDBA9450AD19597603B530
310
7A9B9DFA8D6C94B07BBBF513B8EECB62F99E9ED34264D02783178DC0501D49C453DDEF568C59962EAEBE8CA1CFE62C3E3B052D53D0E5704A238EC1984B555081158155589A059260AAF3DF575F780E9F7832475745CEAF4FA727BFADE67996E5CC0CAD2EE05496C087226779079F7D9215140F5835D7C5EA68E21FAD7453DB
310
F6D9A33512D85355110C54C58412A463726097CF1A54B67D3956AAE84C5F5C3936884233C0D8D1B31EAFF9C8E5800FA9CF29CA63B49F57D2BED8D71EEBA960131C3AD2E1BF504B03041400060800008564E542000000000000000000000000350000006662782F33444445443644332D424630452D343633452D383745312D
310
3335343041394146424242312F76657274696365732E62696E504B03041400060808008564E542F270F1330600000004000000360000006662782F33444445443644332D424630452D343633452D383745312D3335343041394146424242312F747269616E676C65732E62696E636660600000504B03041400060800008564
310
E542000000000000000000000000370000006662782F33444445443644332D424630452D343633452D383745312D3335343041394146424242312F617474726962757465732E62696E504B03041400060808008564E542D5987DFC8F00000041010000360000006662782F33444445443644332D424630452D343633452D38
310
3745312D3335343041394146424242312F6469726563746F72792E786D6C858F410EC2201045AF4266AF15DDB800BA74E7C21B903225242D6328188F2FA5C4183471359997F9FF81E89FF3C41E1816475E02DF1F80A11FC8386F25A438EECEC07A250251FC3803E6F58C12560C4AD840E95E91C151A72936F496F35732D860
310
FE635F62C8F2DA16B505C545B74125BAA2FA9E05D7CC053D063734D5C7665FD55B6B8D15D5E9BFEAFD8490FFA45E504B03041400060808008564E542126FE6F7FE000000A00100003B0000006662782F33444445443644332D424630452D343633452D383745312D3335343041394146424242312F7265736F75726365732F
310
636F72652E786D6C8D504B6EC23010BD4A34DBCA899D401322C7280838412F603943B02036F2A7EAF16B432AB5BB6E6646EFA3797A7CFFB5DC8B4F745E5B33002B291468949DB4990788E1423A28F6823B6BC32F1914462E38408641F0D9D9F85821654D4013126AEC842B28BDC70085BAA76300AFAEB8C852C69014FE563E
310
A4BAC9194B56263AE904F7C1A500C5EB499E201C7A1B9D42CFAB172B788C7A5A357A4A3FF545A30331B6BBE3E9D89D49DDD18E6C5A7A26BB7AD392333D8C233B1CDBE634F22A9B050F7AF9C9A81CCA8013889AB286D096D0ED07ABFBE6BD67EC8D6EFB86F22ACBFF98E263FAA7296A139A7A8DFBB279102C0579128257B9AF
310
B49E65A69DBB15DF504B010214000A00000800008564E5423DEE336E79000000790000001B00000000000000000000000000000000006175746F6465736B2D64657369676E2D7061636B6167652E786D6C504B010214001400060808008564E542D486FD9CA0000000F40000001300000000000000000000000000B2000000
310
5B436F6E74656E745F54797065735D2E786D6C504B010214001400060808008564E54296823850EC0000007C010000080000000000000000000000000083010000636F72652E786D6C504B010214001400060808008564E54255019EA25F0000007C000000070000000000000000000000000095020000636E782E786D6C50
310
4B010214001400060808008564E54299F69E6E68010000020300000C00000000000000000000000000190300006662782F636F72652E786D6C504B010214001400060808008564E5428B7AE6327D0000009D0000000B00000000000000000000000000AB0400006662782F636E782E786D6C504B0102140014000608080085
310
64E5423291D08C2C010000140200003100000000000000000000000000510500006662782F33444445443644332D424630452D343633452D383745312D3335343041394146424242312F636F72652E786D6C504B010214001400060808008564E5420FD3F5DC56010000330300003000000000000000000000000000CC0600
310
006662782F33444445443644332D424630452D343633452D383745312D3335343041394146424242312F636E782E786D6C504B010214001400060808008564E5428FF92F90630700009A1B00003400000000000000000000000000700800006662782F33444445443644332D424630452D343633452D383745312D33353430
310
41394146424242312F6F626A656374732E786D6C504B010214001400060800008564E5420000000000000000000000003500000000000000000000000000251000006662782F33444445443644332D424630452D343633452D383745312D3335343041394146424242312F76657274696365732E62696E504B010214001400
310
060808008564E542F270F13306000000040000003600000000000000000000000000781000006662782F33444445443644332D424630452D343633452D383745312D3335343041394146424242312F747269616E676C65732E62696E504B010214001400060800008564E54200000000000000000000000037000000000000
310
00000000000000D21000006662782F33444445443644332D424630452D343633452D383745312D3335343041394146424242312F617474726962757465732E62696E504B010214001400060808008564E542D5987DFC8F000000410100003600000000000000000000000000271100006662782F33444445443644332D4246
310
30452D343633452D383745312D3335343041394146424242312F6469726563746F72792E786D6C504B010214001400060808008564E542126FE6F7FE000000A00100003B000000000000000000000000000A1200006662782F33444445443644332D424630452D343633452D383745312D3335343041394146424242312F72
310
65736F75726365732F636F72652E786D6C504B0506000000000E000E0080040000611300000000
  0
XRECORD
  5
17
102
{ACAD_REACTORS
330
12
102
}
330
12
100
AcDbXrecord
280
     1
270
     1
271
     1
  0
XRECORD
  5
16
102
{ACAD_REACTORS
330
12
102
}
330
12
100
AcDbXrecord
280
     1
270
     1
271
     1
  0
XRECORD
  5
18
102
{ACAD_REACTORS
330
12
102
}
330
12
100
AcDbXrecord
280
     1
270
     1
271
     1
  0
XRECORD
  5
15
102
{ACAD_REACTORS
330
12
102
}
330
12
100
AcDbXrecord
280
     1
270
     1
271
     1
  0
XRECORD
  5
DED
102
{ACAD_REACTORS
330
22
102
}
330
22
100
AcDbXrecord
280
     1
102
MATERIAL
148
0.0
149
0.0
149
0.0
 93
        0
 94
      127
282
     0
 72
     0
 77
     0
171
     0
175
     0
179
     0
273
     0
  0
XRECORD
  5
24
102
{ACAD_REACTORS
330
22
102
}
330
22
100
AcDbXrecord
280
     1
270
     1
271
     1
  0
XRECORD
  5
23
102
{ACAD_REACTORS
330
22
102
}
330
22
100
AcDbXrecord
280
     1
270
     1
271
     1
  0
XRECORD
  5
BA
102
{ACAD_REACTORS
330
22
102
}
330
22
100
AcDbXrecord
280
     1
 70
     1
 90
1959938040
 71
     1
  1
DA0280D1-3765-4D08-93B3-BDE1C5605269
311
504B03040A00000800008464E5423DEE336E79000000790000001B0000006175746F6465736B2D64657369676E2D7061636B6167652E786D6C3C3F786D6C2076657273696F6E3D22312E302220656E636F64696E673D227574662D3822203F3E3C666F726D6174733E3C666F726D61743E687474703A2F2F736368656D612E
311
6175746F6465736B2E636F6D2F64657369676E2D7061636B6167652F323030393C2F666F726D61743E3C2F666F726D6174733E504B03041400060808008464E542D486FD9CA0000000F4000000130000005B436F6E74656E745F54797065735D2E786D6C7D8EC10E82300C865F65E91D8A1E8C310C0EEA1BF002731658846E
311
D98AC1B77784ABF1D8FE5FBFBF75BBCE937A534CCEB38643598122B6FEE978D0B0485F9C41B54DDD7D022595594E1A469170414C76A4D9A4D207E29CF43ECE46F218070CC6BECC4078ACAA135ACF422C856C0E68EA1BF5669944DDD7BCDE7B1F8E415D77AECB980613C2E4AC91FC167A2B244592486606FC29C8FD7F045B9A
311
EF7053A7E60B504B03041400060808008464E542291CCDDCEC0000007C01000008000000636F72652E786D6C8D90416EC3201045AF82665B6183891DC7C2446EA29EA01740401C94182C03558F5F9C3852BBEB6A467FFE9B197D7EFC9EEEE8CB2CC17AD7032D0820E394D7D68D3DA478C12DA0A3E08BF7F1970D909393E961
311
9541F071F169DE24E55D342E66D5796D36518660222075CF4D0F415DCD240B996276845B314B7593A329E8ABCB704A56A3E711ABF33E7BB16601310CFB667F7AFFC0AC6635DE9DDB161F48D5E266A84FA4D9B5B4A9CEBC5C61C1A39D5EF7D56264341A444528C3648F49FD49AB8E351D39BC91BA638497ABFD0F9466FD4F28
311
591759B5BDFBC402089A1F790C042FD72C72790495EB9A9BF801504B03041400060808008464E54255019EA25F0000007C00000007000000636E782E786D6C4DCB3B0E80201045D1AD90E915ED2CF8AC45050C11660C8261F98AB1B07AC9C97D42D718D865D3E909258CFD00CCE24AC6E326A164D74DC0B4128928FF326038
311
472BA13128B1252AC747C6BAB984FC68F0B87FE8960A5C09FE86CFB69FBA01504B03041400060808008464E542F698C16168010000020300000C0000006662782F636F72652E786D6C8D52ED8E8230107C95A67F2FA50504D1941A4F734F702F50A17244684969898F7FCB87F1BC1863484A33B3B33B3BC077D7B64183B27D
311
6D748EC38061A47461CA5A5739F6EE4C328C76825B63DC9F328CB46C558E47180B5E59E3BB052A8C764A3B40B529D502CABE570EA3A2814B8EFBE247B53290DE41457F093A595C64A58230001AEA04EF9D0503681E329E589C4F574E675C70EFEB7261EB12A6D5E75A592CF6FB75BA3E7C7E91388913B23A6619D9B02823E9
311
3E39B07495856974E474140BEEEAF6E6AEB04A3A556211B130266C4D58F21D46DB38DDB2CD074BB631E3742C7F10F9AE7C53E46BEDE268B13BCB7A2C42303211FFB685881CEAE5007EA8E0740C115E53C28F41432010B293A7E6B6C705A04115CED81530A5F1776A908D573095A1E9E17466A1F3D400367BDA277AD1E7750F
311
F8805257604D3AB89EBC1BA7F379EA1245A72C19DC1569635BD9DCCDCD16EFE77DD05379611A63DF51D36555BA8449C7BF57FC02504B03041400060808008464E542A0E9E0637C0000009D0000000B0000006662782F636E782E786D6C4DCCD10A83201886E15B91FFDCE53F1417A861D185C4B290990EA76397BF1A1DECE8
311
83878F57759F2D90B7CB2F9FA206BC30202EDED3ECE3AAA19685DE807446E594CADF0D489C36A7E160306ACDA93E4F9ADD32D550760D3E3E4E44265ACBADA4237241793B486AD98054D87EC45E5CA5450E8D51CDAFB4EF11365F504B03041400060808008464E542B6A91C1F2C01000015020000310000006662782F313035
311
39413441372D453134352D343943372D413043312D3541424531423532374131342F636F72652E786D6C8D515B6EC23010BC4AE42FAA2A899D2720C728206ED00B98D8A416C48EFCA8387ED72448ED1F3F5E6B766676B44B0F8FE99EFC48EB94D11D22194689D483114A8F1D0AFE9A6E517260D41AE3FFD050A2F9243B1461
311
C4E8684D98576830DA4BED01D546C815E4CE498F92E10E9F0EB9E15B4E3CE3C103C3DDB2990F373ECA8C64D0061EA3CE5B08902C43E28B18C1F5AEAFFA363D93AA4EABDDA94D7B7C2269DD1FCFE458176D4F2A9ABBA790D1109458E54A401C7555D2BE6B12C58C7A35BDE20F56722F05620526658ADB14D75FA4D897CD1EEF
311
3E71BD2F31CD23FD9F28CCE24D5150DA97C51A779139C84AF3A5C1A830E1727F85918FD9589FC4791B27870FC47086F1B62A5BD236345FB8B001306DAAD5D4796361C39BDB05E8A45E9C9B8AD13C1E09CAF38250E341D92F504B03041400060808008464E54260648E864F01000033030000300000006662782F3130353941
311
3441372D453134352D343943372D413043312D3541424531423532374131342F636E782E786D6CD593BD6E032110845F05D146F7E7B39DC4E2B094224F90222D076B9B9883133F51FCF6596CECB84991320D3ACD0E33AB4F1CDB7E4D867C820FDAD98176754B0958E994B6FB81A6B8AB9E28D972E69D8B77364AAC9860A059
311
A69CEDBD4B739114EC44321155A3EDB1881E824B5E424039DF24C6496130006C9550846904A540919B11BF76E0711514C713890720AF2FEFC48D1F2063604D4EE1ACC91D9CE5B334DD992891468430D0200F30895AA4E8148463AD441475575FBB7ED9E92789E40BD7CAE435C9E503CD27E565A31A39B206879C85E8915E31
311
C5D30C948B79365A8A88909BB3F1E2E12C691BD7CBE2D508DEA3BB5BF7CB25869D679C453D4171480F2282A27CD1767DD53E56EDEAAD5B6CFAF5A67D7E68579BBE654DB673363A67CA258C01EF66229D8D6023E51D6BF2F8377CC54794F6C8DAF9D31F402280D27AA173CBF8CF7C9AF3FB465C1EFF02FE0D504B0304140006
311
0808008464E5421B1EC26EA505000080100000340000006662782F31303539413441372D453134352D343943372D413043312D3541424531423532374131342F6F626A656374732E786D6CAD57DB6EDB3810FD1541FBB2FB605BB29D3459282A12BB298C226D51A3C53E1830288952B8A12E20A9D4D9AFDF43919225D74EBD
311
8BBE5816351CCE9C397361F0769773E7990AC9CAE2C6F5C79EEBD0222E135664376EADD2D195EBBC0D035196AA27E63A05C9E98DAB97DD30C84459577629A129A9B93A58BDBFFBCB91312DA8EBC49C4879E3CAF891E6644C6A5526543E8D13A2C8384B77637F6C04876A3341AAC703A51511B450B014EB05B438C6287FF8EA
311
B9933098E8EF61A07FADD4ECB4D4A4F167783E2BA42245FCC361076A66FE7CF96E7A713DBA98CF67A3F9E5D41FDDDDDF2D47FE9B99B7B85C2CAE6FDF5DE360A90434594B044DDDF03DB0112C0E26E65318D4AC50B3A915B1019A08FACC74A4DC70EAF8C1C4C874DE59278F991F974541E3062BA0D1F8675527B4A245829833
311
2A61590F216FF8EA6B1C7B9F67FADD1ED95F3E0F81FE8E9EA2D6F6F6D9B7B48CFE860BF21C06094935030D96D651C3556F8F705496DC7E63D2C989A28211EE701609225EDC10A25A240C066A349385CE06ED811B220AE6F3902E48A39FF3FC989569CDB9A6B11B3659B045AE50251BCBD83F54ECADEF23039B102BCD862BEB
311
907AA9A81B5E1B8A5C1DB0C900E9A49C640839DCD43B67D30347173A4F574B37FC701FEDD63A778F1F5E89B2A24269FA805A6DE0DAA746C9DAE49F1539BDC13D30650FCA1720FF11A9BE370571136C37DFCDED294A9042A6A5C8111BC773461E7E3CC76F7EF5FFDEBF60D26D1E46EF149E08B686EA17E039F4A11FCB1E9C61
311
F00CC29762665D5BC784A36C3CB00200699238BCC412EA701AEDDC70852A87AA8C5D84873E5C86B9CFF81B4CAC1A148AE6A4DEB300960765F18C020DD81A46C20C437E6BE03E4E3F94B3E6602B760ADE8B5F42D7DBE5FAC3BA162989E983CDE9254D59C1145ADC9E377D8306980F3C7AA22FDF4B91C0D11FF15EF7F1CEED51
311
12686BCC35F0595BD3F5CBFEE4C10131F665A52E37C14F4E8013BAB1F6F43F301953CE4941CBBA3DF7D5FE81B66120D6C9AE99DC35987D630169CC97831C44938E05AB34885DB7EA8AE6F884775F571FC148C8F332227C2F14ED4B6F5CF2526CA397ADA94A4791FE36A4B68560A2B580ED4D8EB4E96F31DF262C4D6B891A78
311
04D66FAB453F74BA2AA042B45A4DB2CCE13E728B08CBD9562F9AB52068A465B165689B48BBA307F4F503514B8046E1298B25E5E996715EE7DB947134A36D4EAA1370FC7FFBA33AAFB6242FEB429DD03D301DCD6168FB80BCF23B51F1A31BAE9BE7E80EA537A1C93ECC0361DD4A8E603508EDF2D69B5E794B7F347B7379319A
311
2FBDABD1F5EC6E36BA5BBEF3171797DEC5F4F2BA8D93511E066DA7E92734A284CE16D482D9F07D5D217D6C0D70C307A2E4E6BDC9CEF6F97535C6281C4CB007EDB2DB789B3C63ECA3C9CF15EC258F2A5AE515A7392D14D129F4A0FFF02F0463C6C018B3BECA4946CFD0F2E9FDFAC019AC9CB1EFB34E77FAFD60AF5D5DE8843C
311
AA443DD6795410C60F366606C971556416BF3626DDD3F499F655BFD9C0603095256709CA60E264B4CCA942313CA307899C4A50AF3FD227F6EA71C6EE6733202A1271DA5AF24830237389B400B5EA580DD79DDF30D3E9B1EAC645B71D3FE1C7560AD701676E5CCCE88AC5548E23F4673D0935CAC1A5FE208FB99F1419C7A86D
311
3675EFDD2E8DCDA0237722E78C4FD62F53C1AD03282315C606CC43884E634C1834B6D9EFF17F72BC35C7210A7FA35A75BEEC173A679A6390A2C6297B59C00CF3648FDE21515F77CB1F37320344CEBA64BD4A02A375A488C89A8B82B6CF9A74BBFC3CC180E2AC3E3915AF33C4F27C4D234141E65A2738580456589D1551A0EA
311
E2CFCD6751E2229B3BF70C14707EDF5D5DFEB15994795E166669736BAFC3CEFA1197DB6483E240F5AD446EA69E3FDD34B7017B41D94644D23149E413161059C13AA007E1072FCD95117DC87CE8E4263A14070C5D2D1DDBD8E6506AE9D2AFAD1A1CCC1D05759043FA46A933A62F50BD7A219834A2304160940FFF05504B0304
311
1400060800008464E542000000000000000000000000350000006662782F31303539413441372D453134352D343943372D413043312D3541424531423532374131342F76657274696365732E62696E504B03041400060808008464E542F270F1330600000004000000360000006662782F31303539413441372D453134352D
311
343943372D413043312D3541424531423532374131342F747269616E676C65732E62696E636660600000504B03041400060800008464E542000000000000000000000000370000006662782F31303539413441372D453134352D343943372D413043312D3541424531423532374131342F617474726962757465732E62696E
311
504B03041400060808008464E542D5987DFC8F00000041010000360000006662782F31303539413441372D453134352D343943372D413043312D3541424531423532374131342F6469726563746F72792E786D6C858F410EC2201045AF4266AF15DDB800BA74E7C21B903225242D6328188F2FA5C4183471359997F9FF81E8
311
9FF3C41E1816475E02DF1F80A11FC8386F25A438EECEC07A250251FC3803E6F58C12560C4AD840E95E91C151A72936F496F35732D860FE635F62C8F2DA16B505C545B74125BAA2FA9E05D7CC053D063734D5C7665FD55B6B8D15D5E9BFEAFD8490FFA45E504B03041400060808008464E54241F690EDFE000000A00100003B
311
0000006662782F31303539413441372D453134352D343943372D413043312D3541424531423532374131342F7265736F75726365732F636F72652E786D6C8D504B6E833010BD0A9A6D65B02110828C239AF406BD806526D44AB0913F558F5F13A8D4EEBA9919BD8FE6E9F1F3D7FCC83ED1796D4D0F2CA790A15176D466EA21
311
861B69213B0BEEAC0DBF64901939630F2B0C824FCEC665879435014D48A8B123EEA0F41E0364EA918E1EBCFAC059E63286A4F0F77C91EA2E27CC599EE8A413DC07970264DB93758270E86D740A3D2F3656F018F5B86BF4987EEA9B460762188ECDF1F2FA46AABAAAC9E1DAB6E444CB9634437DA1CDA1654D79E5C56A163CE8
311
F927A37228038E204ACA2A428F84D6EFACECAAA6A3A7175A7715E5C52AFF638ACBF84F53D42654E51E77B379102C05791282176B5F693DCB4C7BED567C03504B010214000A00000800008464E5423DEE336E79000000790000001B00000000000000000000000000000000006175746F6465736B2D64657369676E2D706163
311
6B6167652E786D6C504B010214001400060808008464E542D486FD9CA0000000F40000001300000000000000000000000000B20000005B436F6E74656E745F54797065735D2E786D6C504B010214001400060808008464E542291CCDDCEC0000007C010000080000000000000000000000000083010000636F72652E786D6C
311
504B010214001400060808008464E54255019EA25F0000007C000000070000000000000000000000000095020000636E782E786D6C504B010214001400060808008464E542F698C16168010000020300000C00000000000000000000000000190300006662782F636F72652E786D6C504B010214001400060808008464E542
311
A0E9E0637C0000009D0000000B00000000000000000000000000AB0400006662782F636E782E786D6C504B010214001400060808008464E542B6A91C1F2C010000150200003100000000000000000000000000500500006662782F31303539413441372D453134352D343943372D413043312D354142453142353237413134
311
2F636F72652E786D6C504B010214001400060808008464E54260648E864F010000330300003000000000000000000000000000CB0600006662782F31303539413441372D453134352D343943372D413043312D3541424531423532374131342F636E782E786D6C504B010214001400060808008464E5421B1EC26EA5050000
311
801000003400000000000000000000000000680800006662782F31303539413441372D453134352D343943372D413043312D3541424531423532374131342F6F626A656374732E786D6C504B010214001400060800008464E54200000000000000000000000035000000000000000000000000005F0E00006662782F313035
311
39413441372D453134352D343943372D413043312D3541424531423532374131342F76657274696365732E62696E504B010214001400060808008464E542F270F13306000000040000003600000000000000000000000000B20E00006662782F31303539413441372D453134352D343943372D413043312D35414245314235
311
32374131342F747269616E676C65732E62696E504B010214001400060800008464E54200000000000000000000000037000000000000000000000000000C0F00006662782F31303539413441372D453134352D343943372D413043312D3541424531423532374131342F617474726962757465732E62696E504B0102140014
311
00060808008464E542D5987DFC8F000000410100003600000000000000000000000000610F00006662782F31303539413441372D453134352D343943372D413043312D3541424531423532374131342F6469726563746F72792E786D6C504B010214001400060808008464E54241F690EDFE000000A00100003B0000000000
311
0000000000000000441000006662782F31303539413441372D453134352D343943372D413043312D3541424531423532374131342F7265736F75726365732F636F72652E786D6C504B0506000000000E000E00800400009B1100000000
310
504B03040A00000800008464E5423DEE336E79000000790000001B0000006175746F6465736B2D64657369676E2D7061636B6167652E786D6C3C3F786D6C2076657273696F6E3D22312E302220656E636F64696E673D227574662D3822203F3E3C666F726D6174733E3C666F726D61743E687474703A2F2F736368656D612E
310
6175746F6465736B2E636F6D2F64657369676E2D7061636B6167652F323030393C2F666F726D61743E3C2F666F726D6174733E504B03041400060808008464E542D486FD9CA0000000F4000000130000005B436F6E74656E745F54797065735D2E786D6C7D8EC10E82300C865F65E91D8A1E8C310C0EEA1BF002731658846E
310
D98AC1B77784ABF1D8FE5FBFBF75BBCE937A534CCEB38643598122B6FEE978D0B0485F9C41B54DDD7D022595594E1A469170414C76A4D9A4D207E29CF43ECE46F218070CC6BECC4078ACAA135ACF422C856C0E68EA1BF5669944DDD7BCDE7B1F8E415D77AECB980613C2E4AC91FC167A2B244592486606FC29C8FD7F045B9A
310
EF7053A7E60B504B03041400060808008464E542328DB0F4EB0000007C01000008000000636F72652E786D6C8D90416EC3201045AF82665B61038E9BDAC24471ED1BF40208888B128365A0EAF18B13476A77DD30A3CF7F33A3CF4FDFF30D7D993558EF3AA00501649CF2DABAA983142FF80DD049F0D5FBF8CB06C8C9D974B0
310
C920F8B4FAB4EC92F22E1A17B3EABC36BB2843301190BAE5A683A03ECD2C0B996276846BB14875959329E8B3CB704A56A3C712ABF33C7BB1660551B3F391D066C44DCD467CC82FEEC7E33B1E49338CFD7960FD61E0E5060B1EEDFCDCAF5623A3D12018A11526474CEA0FCADAEAB525CD0BA9DB8AF072B3FF81D2A2FF0925EB
310
62C5F6731F580041F321F70FC1CB2D8B5CEE41E5BAE5267E00504B03041400060808008464E54255019EA25F0000007C00000007000000636E782E786D6C4DCB3B0E80201045D1AD90E915ED2CF8AC45050C11660C8261F98AB1B07AC9C97D42D718D865D3E909258CFD00CCE24AC6E326A164D74DC0B4128928FF32603847
310
2BA13128B1252AC747C6BAB984FC68F0B87FE8960A5C09FE86CFB69FBA01504B03041400060808008464E54299AFB96167010000020300000C0000006662782F636F72652E786D6C8D525B6E833010BC8AE5DFCAD840684A641C250D37E8051C70280AD8C8D828C7EFF28868AA28AA908C35B3B33B3BC0F7B7B64183B27D6D
310
7486C38061A47461CA5A5719F6EE423E30DA0B6E8D71BFCA30D2B255191E612C78658DEF16A830DA29ED00D5A6540B28FB5E398C8A062E19EE8B6FD5CA407A0715FD35E8647195950AC20068A813BC77160CA079C878627139DF389D71C1BDAFCB85AD4B98565F6A65B148A2C39685694ED224CAC9064E72CCB79F2467E929
310
3F1E4ED17173E274140BEEEAF6EEAEB04A3A556211B130266C4B58F21546BBF87DC7D23796EC62C6E958FE20F25DF94F91AFB58BA3C5EE2CEBB108C1C844FCD9162272A89703F8A182D33144784D093F060D8140C84E9E9BFB1E57800655386337C094C6AFD4201BAF602A43D3C3E9CC42E7A9016CF6B44FF4A2CFEB1EF001
310
A5AEC09A74703D7B374EE7F3D4258A4E5932B81BD2C6B6B259CDCD16D7731DF4545E98C6D8FFA8E9B22A5DC2A4E3DF2B7E00504B03041400060808008464E542E19217CA7D0000009D0000000B0000006662782F636E782E786D6C4DCCD10A83201886E15B91FFDC95CD61811A2AF33E6259C84CC3D9D8E5AF46073BFAE0E1
310
E3E5FD6709E8EDF2CBA728805C6A402E3ED2E8E32C602B136E01F592E794CADF0D501C1627E060907CCE695B4F1ADD346CA1EC1A7C7C9E6898261DEB2CA6441B4C95B9E2B6B60C37DA32D5DCE9ADD30A2AC9AB5F69DF232CBF504B03041400060808008464E542602C02162C01000015020000310000006662782F43374231
310
393739462D343142432D344143332D383046372D3242463741324534353942412F636F72652E786D6C8D515B6EC32010BC8AC557AA0A1BFC768489E2A839412FE000715162B07854397EA176A4F62F3F2C9A9D991DED92C363BE27DFC258A9550F708A402214D35CAAA907DE5D610B920325466BF787061235CEA207110694
310
4C46FB658398564E281750A5B9D8C0D15AE140C2EEE1D303CBBEC43CA6A37781616FE932B2DB388914A7A11D789458674280641D125F404FCD80BBA63BC3120F27581E4F056CD1B981F9706E8EF9475975C39164AB9012EF25DFE4928738F22A8579D5248A2971727EC667468C4E704073840B881A88AA4F9CEF8B7A8FBA77
310
54ED0B44B248FF27F20B7F51E4A57245BEC55D6516504CB2B54109D7FE727F86118F451B97C4793B2BD81BA02845A8ABEAA66B5B92ADDCB081605A979BA975DA840DEF6E97402F36E7BAA4248B470AE5F782A1C683D21F504B03041400060808008464E54206C341915701000033030000300000006662782F433742313937
310
39462D343142432D344143332D383046372D3242463741324534353942412F636E782E786D6CBD93CD6EC32010845F0571ADFC17276E1A6122F5D027E8A1570C9B84068305B86ADEBE4B42D25C7AA854F582ACD96166F509B3EDE768C807F8A09DED6953D69480954E69BBEFE91C77C59A922D67DEB97867A3C48A117A9A64
310
CAD9DEBB79CA92829D984D44D5687BCCA287E0662F21A09C6E12E3A4301800B69851847100A540919B11BF76E071151487138907202FCF6FC40DEF206360554AE1AC4A1D9CA53337DD9928914684D0D3200F308A52CCD12908C7528928CAA6BC76FDB0D377124917AE95B3D72495F7349D94E78D4AE4C82A1C7216A2477AD9
310
144F13502EA6C968292242AECEC68B87B359DBD82DB35723788FEE76D1ADD718769E7116F508D9213D88088AF245DDB445FD58D4ABD766B169BB4DFDF450AF366DCDAA64E76C70CEE44B1803DE4D443A1BC146CA1B56A5F14FF8B28F28ED91B5F3A75F804400B9F542E796F1977C9AAE5D2EFF914F757EDF88CBE35FC0BF00
310
504B03041400060808008464E542F9FD014261070000991B0000340000006662782F43374231393739462D343142432D344143332D383046372D3242463741324534353942412F6F626A656374732E786D6CED595B73A33614FE2B0C7D691F8CC19734E9103A89BDBBE3E9A4DDA9BB9D3E78869141266A846024914DFAEB7B
310
74010331096ED3B73ED880908ECEF9CE5587F0C7A79C3A8F980B52B06B37F07CD7C12C2952C2B26BB79287C9A5EBFC1885BC28646B9AEB3094E36B570DBB5198F1A22AED508A0FA8A2B237FAF1F60F47249861D7492812E2DA15C93DCE91872A59A4583C782992C8CB0E4F5EE099895DB21947E57D8F688938661238857106
310
541CC354D07DF4DD69144ED5FB2854FF76D67CD4ACC5F0ACA996BACB2561422296BC60A947663E8AA579B0587F982DAF26CBC5623E595CCC82C9EDC7DBF524F87EEEAF2E56ABAB9B0F57C0DEBE28A89529C5256629E8EFD98D8270AADE34A25B044E719D148CE14403095069B1FA040916B0550B3EBFFB1828895AAFB584AD
310
E7857A6F59680DCFBB5486668D03A2431704B1DBD512D7D7B67CC5FE4F105C8C314A2EB0046E85E4A05D0B0F07AF70233F9C9AD128DC1F7541849323893941D4A164CF1107A5C05435250ACD024B46390707528E92406BCEBCEEDA1678E6DBAE738ACB4345A9F20C37D28E1583FB61293467E42FCC8FDCB791019E40DA8A30
310
7969B994CF2576A3AB70AA07A3505DE633FBD200E91C28CA8446C4BCED09BA52AEBF59BBD14F1FF74F5B150E4E6F5EF2A2C45C2AA3537AD47C8121DBAB42C96E1B8CD29C5A00C21850EDCA2328BF02F23F43F438B2027AE3E469F1B4B07325474C1C0A9E836E1CDF99F8F0E73B81FE57F7ADBB70DA2CEE6A6F084F705305D5
310
E5BFC7B32B83C6CAF2DF82330A1FC1E00B3EB7AFB609A260CF77840140CA481C5AC01084F6C3FEC98D36103821D0C32A44A3004406761FE1369C5A3247ADD4EE65BD8E01A2768FF91825016CDA22818D013D7D82ECC1497254535BC4217897EF62AE37EBED4FDB8A1F5082EFAC4FAFF1813022216B9E66A8837947A207FCFC
310
B5E02908FA12EF6D1BEFDC6E25006D85B9023EAB41500FC79D3B1B24B02E2B54B809DFD8018450B9BA45FF8E8804538A182EAA7ADF26BA29436D3CDED60C6E343310CF673D13E6F891A8AA029CE638A3C328E4FD84935281E8469F8C644DD0F406A4FBB2F9192CB2993F306BC320F432447FD341EB040E1DCBAE91B6403402
310
EF8FE13C2968C1E3FD736C229D0BB504B0D1F596DF3B4421D61B25292AE041DAEFEA90921969E3941C0E9580B87A82C5DF37ABB639F8DE3C583AEDFF9E332E20DA82EF226EFDAEB7474C7294E1F880D2A1EDDABB35B4852639409AE30305B9C82391CF3192B19FE2EC1C68CE227EF5AED4335A0841181690AF4E82DF46C3F7
310
2090186DD62C2BADF6802622CEB144F41C041499017075DAD1356E02A5C3DB3C36D6FB9AC6DA44FF238BE0086AC982C5044A51C8216F321E784B88215D740DCA3D7CC1DA6ADA5A0C5A4109913CC75F31C9EEE539A81BF203B8277024A9645C942801B31E41F685AF28A5F678DFA3E441E58F38A9E87B1988C0F410134AAB3C
310
861F6170F218E3DA4D607A1585167113FB24CEA12843B2E26336B958FA2FF63135433F04B6363A100A613BCE5139807A2720EA7AC469C0B7D40794BAAFF232467951B15186E2CDFBDE64C9F7D5AAC88EE457958A5036D6842DC128244C3659B58ED960EA3AB0821BE940F51C0B9497D49CC2DE483C41E34D9AF2E006DCFAE9
310
FB6E9043E137A0BD76445DD430581E3B8581F88A6472EF465B7D9DDC42FD9DE2F498EAEB5AB35D0102622A92579C58157DD94079636B3437BA4352EC3E99AC5B5FBF6C3CE87E84535803B54BB370A380CE319348552677EA86FE8A2004776898F18DCAA9E750B949535D3522FA910CA9B353467436CD8957DE6356E4F0633B
310
C2125AA5788752F110DF491A6F8962DD4AE9E5A4C6F855017FF9B4EDC103232344FAAC0A3CFCB5B7D68EAE54B9749288BCAFF23D4304826047B4CCE8C62B596635526BB9B9AA3305D45D606056C58BFF4F16ED76C4FF278BCC1AC6BF3B59D0628FE831DAB4B279A2CCFAAC5340939E1495F73805E8AE4343B5492226975BF1
310
AD2FC51013EB203FBA18AB63862138C4F13F4EDA4349D06CD7E3FFBCA41DBC2838CE4A2A9DC9AA4975A270DDB453D8FAC69F5DFAEB6032FFFE623959ACFDCBC9D5FC763EB95D7F0856CB0B7F39BBB86AD0D47E1A854D2CD3A90B9E4D4CAB87D593C5009AB2A2A02485C37CEA641842BE8423FD88EE39CFB180DCD9EE75A7B6
310
273F62F5A369734AB4A7B8E6E41E417F980AC8EA805195C8EEB8F30D7426259CB3AF5DE819790FF067ADD27520F15CBBD0299024C1C2DB439749F5F33471C8B83AF55B62800F6299CA886651F3DCAC52D874A27F33654C16B072755A1850B795D0FCEA3428346F96A7E42CC16B761C24E1765F4928D68C2CC7814618BDCD51
310
FD46364AD883DDFA095CF775B1024FCFE92032EA8BC1AB4660A84E24E2996E772BC62C4B37EBCF5368B3399B5F9C925619E8723CA509C760CC95AAA7C08AC02A2CCD124930D5D50FBBCFBC802F3CB9A38B22E7DBA7CB8BEF76AB22CF0B6686763770284BE13B91B3BD87AF3EE90E6A07AC7AEB6237F383D94EF7B46D9B3DDE
310
23813D5514C1405D4B28417A260776F9A23F65BB9753A58ADEF4CDDAB141147A01C68E5EB478CD372E077C487D4D511EA3FDBC96F6D5B6F6544F059BE0D0908EFE06504B03041400060800008464E542000000000000000000000000350000006662782F43374231393739462D343142432D344143332D383046372D324246
310
3741324534353942412F76657274696365732E62696E504B03041400060808008464E542F270F1330600000004000000360000006662782F43374231393739462D343142432D344143332D383046372D3242463741324534353942412F747269616E676C65732E62696E636660600000504B03041400060800008464E54200
310
0000000000000000000000370000006662782F43374231393739462D343142432D344143332D383046372D3242463741324534353942412F617474726962757465732E62696E504B03041400060808008464E542D5987DFC8F00000041010000360000006662782F43374231393739462D343142432D344143332D38304637
310
2D3242463741324534353942412F6469726563746F72792E786D6C858F410EC2201045AF4266AF15DDB800BA74E7C21B903225242D6328188F2FA5C4183471359997F9FF81E89FF3C41E1816475E02DF1F80A11FC8386F25A438EECEC07A250251FC3803E6F58C12560C4AD840E95E91C151A72936F496F35732D860FE635F
310
62C8F2DA16B505C545B74125BAA2FA9E05D7CC053D063734D5C7665FD55B6B8D15D5E9BFEAFD8490FFA45E504B03041400060808008464E54221269E6CFC000000A00100003B0000006662782F43374231393739462D343142432D344143332D383046372D3242463741324534353942412F7265736F75726365732F636F72
310
652E786D6C8D504B6E833010BD0A9A6D6530104A41C65128DCA017B0CC84580936F2A7EAF16B0295DA5D3733A3F7D13C3D76FE5A1EC9275AA78CEE204F2924A8A599949E3B08FE4ADE203973668DF1BF649068B160071B0C9CCDD684F580A4D11EB58FA836131EA0700E3D24F2118F0E9CBCE12252117C54B87BBA0A791733
310
A6791AE9A8E3CC791B0324FB936D02B7E84CB0121DCB7696B310D47468D4147FAAAB420BBC2A2E35CD9B8134553192539CA41FEB7732D26618FBCB50F4A781659B9933AF969F8CD2A2F038012F685E125A135A7DE4455BBEB6B479A1555B52966DF23FA6B04EFF3405A57D591C71779B039EC7204F82B36CEB2BAE6799716F
310
DDF26F504B010214000A00000800008464E5423DEE336E79000000790000001B00000000000000000000000000000000006175746F6465736B2D64657369676E2D7061636B6167652E786D6C504B010214001400060808008464E542D486FD9CA0000000F40000001300000000000000000000000000B20000005B436F6E74
310
656E745F54797065735D2E786D6C504B010214001400060808008464E542328DB0F4EB0000007C010000080000000000000000000000000083010000636F72652E786D6C504B010214001400060808008464E54255019EA25F0000007C000000070000000000000000000000000094020000636E782E786D6C504B01021400
310
1400060808008464E54299AFB96167010000020300000C00000000000000000000000000180300006662782F636F72652E786D6C504B010214001400060808008464E542E19217CA7D0000009D0000000B00000000000000000000000000A90400006662782F636E782E786D6C504B010214001400060808008464E542602C
310
02162C0100001502000031000000000000000000000000004F0500006662782F43374231393739462D343142432D344143332D383046372D3242463741324534353942412F636F72652E786D6C504B010214001400060808008464E54206C3419157010000330300003000000000000000000000000000CA0600006662782F
310
43374231393739462D343142432D344143332D383046372D3242463741324534353942412F636E782E786D6C504B010214001400060808008464E542F9FD014261070000991B000034000000000000000000000000006F0800006662782F43374231393739462D343142432D344143332D383046372D324246374132453435
310
3942412F6F626A656374732E786D6C504B010214001400060800008464E5420000000000000000000000003500000000000000000000000000221000006662782F43374231393739462D343142432D344143332D383046372D3242463741324534353942412F76657274696365732E62696E504B0102140014000608080084
310
64E542F270F13306000000040000003600000000000000000000000000751000006662782F43374231393739462D343142432D344143332D383046372D3242463741324534353942412F747269616E676C65732E62696E504B010214001400060800008464E542000000000000000000000000370000000000000000000000
310
0000CF1000006662782F43374231393739462D343142432D344143332D383046372D3242463741324534353942412F617474726962757465732E62696E504B010214001400060808008464E542D5987DFC8F000000410100003600000000000000000000000000241100006662782F43374231393739462D343142432D3441
310
43332D383046372D3242463741324534353942412F6469726563746F72792E786D6C504B010214001400060808008464E54221269E6CFC000000A00100003B00000000000000000000000000071200006662782F43374231393739462D343142432D344143332D383046372D3242463741324534353942412F7265736F7572
310
6365732F636F72652E786D6C504B0506000000000E000E00800400005C1300000000
  0
XRECORD
  5
27
102
{ACAD_REACTORS
330
22
102
}
330
22
100
AcDbXrecord
280
     1
270
     1
271
     1
  0
XRECORD
  5
26
102
{ACAD_REACTORS
330
22
102
}
330
22
100
AcDbXrecord
280
     1
270
     1
271
     1
  0
XRECORD
  5
28
102
{ACAD_REACTORS
330
22
102
}
330
22
100
AcDbXrecord
280
     1
270
     1
271
     1
  0
XRECORD
  5
25
102
{ACAD_REACTORS
330
22
102
}
330
22
100
AcDbXrecord
280
     1
270
     1
271
     1
  0
XRECORD
  5
DE7
102
{ACAD_REACTORS
330
DE6
102
}
330
DE6
100
AcDbXrecord
280
     1
102
ACAD_ROUNDTRIP_2012_MLEADER_STYLE
298
     1
  0
CELLSTYLEMAP
  5
DE5
102
{ACAD_REACTORS
330
DE4
102
}
330
DE4
100
AcDbCellStyleMap
 90
        3
300
CELLSTYLE
  1
TABLEFORMAT_BEGIN
 90
        5
170
     1
 91
        0
 92
    32768
 62
   257
 93
        1
300
CONTENTFORMAT
  1
CONTENTFORMAT_BEGIN
 90
        0
 91
        0
 92
      512
 93
        0
300

 40
0.0
140
1.0
 94
        5
 62
     0
340
55
144
0.25
309
CONTENTFORMAT_END
171
     0
 94
        0
309
TABLEFORMAT_END
  1
CELLSTYLE_BEGIN
 90
        1
 91
        1
300
_TITLE
309
CELLSTYLE_END
300
CELLSTYLE
  1
TABLEFORMAT_BEGIN
 90
        5
170
     1
 91
        0
 92
        0
 62
   257
 93
        1
300
CONTENTFORMAT
  1
CONTENTFORMAT_BEGIN
 90
        0
 91
        0
 92
      512
 93
        0
300

 40
0.0
140
1.0
 94
        5
 62
     0
340
55
144
0.18
309
CONTENTFORMAT_END
171
     0
 94
        0
309
TABLEFORMAT_END
  1
CELLSTYLE_BEGIN
 90
        2
 91
        1
300
_HEADER
309
CELLSTYLE_END
300
CELLSTYLE
  1
TABLEFORMAT_BEGIN
 90
        5
170
     1
 91
        0
 92
        0
 62
   257
 93
        1
300
CONTENTFORMAT
  1
CONTENTFORMAT_BEGIN
 90
        0
 91
        0
 92
      512
 93
        0
300

 40
0.0
140
1.0
 94
        2
 62
     0
340
55
144
0.18
309
CONTENTFORMAT_END
171
     0
 94
        0
309
TABLEFORMAT_END
  1
CELLSTYLE_BEGIN
 90
        3
 91
        2
300
_DATA
309
CELLSTYLE_END
  0
XRECORD
  5
E1E
102
{ACAD_REACTORS
330
DE4
102
}
330
DE4
100
AcDbXrecord
280
     1
102
ACAD_ROUNDTRIP_PRE2007_TABLESTYLE
 90
      512
 91
        0
  1

 92
      512
 93
        0
  2

 94
      512
 95
        0
  3

  0
XRECORD
  5
DF9
102
{ACAD_REACTORS
330
DF8
102
}
330
DF8
100
AcDbXrecord
280
     1
102
RTVSPropertyOp0
 70
     1
102
RTVSPropertyOp1
 70
     1
102
RTVSPropertyOp2
 70
     1
102
RTVSPropertyOp3
 70
     1
102
RTVSPropertyOp4
 70
     1
102
RTVSPropertyOp5
 70
     1
102
RTVSPropertyOp6
 70
     1
102
RTVSPropertyOp7
 70
     1
102
RTVSPropertyOp8
 70
     1
102
RTVSPropertyOp9
 70
     1
102
RTVSPropertyOp10
 70
     1
102
RTVSPropertyOp11
 70
     1
102
RTVSPropertyOp12
 70
     1
102
RTVSPropertyOp13
 70
     1
102
RTVSPropertyOp14
 70
     1
102
RTVSPropertyOp15
 70
     1
102
RTVSPropertyOp16
 70
     1
102
RTVSPropertyOp17
 70
     1
102
RTVSPropertyOp18
 70
     1
102
RTVSPropertyOp19
 70
     1
102
RTVSPropertyOp20
 70
     1
102
RTVSPropertyOp21
 70
     1
102
RTVSPropertyOp22
 70
     1
102
RTVSPropertyOp23
 70
     1
102
RTVSPropertyOp24
 70
     1
102
RTVSPropertyOp25
 70
     1
102
RTVSPropertyOp26
 70
     1
102
RTVSPropertyOp27
 70
     1
102
RTVSPropertyOp28
 70
     1
102
RTVSPropertyOp29
 70
     1
102
RTVSPropertyOp30
 70
     1
102
RTVSPropertyOp31
 70
     1
102
RTVSPropertyOp32
 70
     1
  0
XRECORD
  5
DF7
102
{ACAD_REACTORS
330
DF6
102
}
330
DF6
100
AcDbXrecord
280
     1
102
RTVSPropertyOp0
 70
     1
102
RTVSPropertyOp1
 70
     1
102
RTVSPropertyOp2
 70
     1
102
RTVSPropertyOp3
 70
     1
102
RTVSPropertyOp4
 70
     1
102
RTVSPropertyOp5
 70
     1
102
RTVSPropertyOp6
 70
     1
102
RTVSPropertyOp7
 70
     1
102
RTVSPropertyOp8
 70
     1
102
RTVSPropertyOp9
 70
     1
102
RTVSPropertyOp10
 70
     1
102
RTVSPropertyOp11
 70
     1
102
RTVSPropertyOp12
 70
     1
102
RTVSPropertyOp13
 70
     1
102
RTVSPropertyOp14
 70
     1
102
RTVSPropertyOp15
 70
     1
102
RTVSPropertyOp16
 70
     1
102
RTVSPropertyOp17
 70
     1
102
RTVSPropertyOp18
 70
     1
102
RTVSPropertyOp19
 70
     1
102
RTVSPropertyOp20
 70
     1
102
RTVSPropertyOp21
 70
     1
102
RTVSPropertyOp22
 70
     1
102
RTVSPropertyOp23
 70
     1
102
RTVSPropertyOp24
 70
     1
102
RTVSPropertyOp25
 70
     1
102
RTVSPropertyOp26
 70
     1
102
RTVSPropertyOp27
 70
     1
102
RTVSPropertyOp28
 70
     1
102
RTVSPropertyOp29
 70
     1
102
RTVSPropertyOp30
 70
     1
102
RTVSPropertyOp31
 70
     1
102
RTVSPropertyOp32
 70
     1
  0
XRECORD
  5
E05
102
{ACAD_REACTORS
330
E04
102
}
330
E04
100
AcDbXrecord
280
     1
102
RTVSPropertyOp0
 70
     1
102
RTVSPropertyOp1
 70
     1
102
RTVSPropertyOp2
 70
     1
102
RTVSPropertyOp3
 70
     1
102
RTVSPropertyOp4
 70
     1
102
RTVSPropertyOp5
 70
     1
102
RTVSPropertyOp6
 70
     1
102
RTVSPropertyOp7
 70
     1
102
RTVSPropertyOp8
 70
     1
102
RTVSPropertyOp9
 70
     1
102
RTVSPropertyOp10
 70
     1
102
RTVSPropertyOp11
 70
     1
102
RTVSPropertyOp12
 70
     1
102
RTVSPropertyOp13
 70
     1
102
RTVSPropertyOp14
 70
     1
102
RTVSPropertyOp15
 70
     1
102
RTVSPropertyOp16
 70
     1
102
RTVSPropertyOp17
 70
     1
102
RTVSPropertyOp18
 70
     1
102
RTVSPropertyOp19
 70
     1
102
RTVSPropertyOp20
 70
     1
102
RTVSPropertyOp21
 70
     1
102
RTVSPropertyOp22
 70
     1
102
RTVSPropertyOp23
 70
     1
102
RTVSPropertyOp24
 70
     1
102
RTVSPropertyOp25
 70
     1
102
RTVSPropertyOp26
 70
     1
102
RTVSPropertyOp27
 70
     1
102
RTVSPropertyOp28
 70
     1
102
RTVSPropertyOp29
 70
     1
102
RTVSPropertyOp30
 70
     1
102
RTVSPropertyOp31
 70
     1
102
RTVSPropertyOp32
 70
     1
  0
XRECORD
  5
E0D
102
{ACAD_REACTORS
330
E0C
102
}
330
E0C
100
AcDbXrecord
280
     1
102
RTVSPropertyOp0
 70
     1
102
RTVSPropertyOp1
 70
     1
102
RTVSPropertyOp2
 70
     1
102
RTVSPropertyOp3
 70
     1
102
RTVSPropertyOp4
 70
     1
102
RTVSPropertyOp5
 70
     1
102
RTVSPropertyOp6
 70
     1
102
RTVSPropertyOp7
 70
     1
102
RTVSPropertyOp8
 70
     1
102
RTVSPropertyOp9
 70
     1
102
RTVSPropertyOp10
 70
     1
102
RTVSPropertyOp11
 70
     1
102
RTVSPropertyOp12
 70
     1
102
RTVSPropertyOp13
 70
     1
102
RTVSPropertyOp14
 70
     1
102
RTVSPropertyOp15
 70
     1
102
RTVSPropertyOp16
 70
     1
102
RTVSPropertyOp17
 70
     1
102
RTVSPropertyOp18
 70
     1
102
RTVSPropertyOp19
 70
     1
102
RTVSPropertyOp20
 70
     1
102
RTVSPropertyOp21
 70
     1
102
RTVSPropertyOp22
 70
     1
102
RTVSPropertyOp23
 70
     1
102
RTVSPropertyOp24
 70
     1
102
RTVSPropertyOp25
 70
     1
102
RTVSPropertyOp26
 70
     1
102
RTVSPropertyOp27
 70
     1
102
RTVSPropertyOp28
 70
     1
102
RTVSPropertyOp29
 70
     1
102
RTVSPropertyOp30
 70
     1
102
RTVSPropertyOp31
 70
     1
102
RTVSPropertyOp32
 70
     1
  0
XRECORD
  5
DFF
102
{ACAD_REACTORS
330
DFE
102
}
330
DFE
100
AcDbXrecord
280
     1
102
RTVSPropertyOp0
 70
     1
102
RTVSPropertyOp1
 70
     1
102
RTVSPropertyOp2
 70
     1
102
RTVSPropertyOp3
 70
     1
102
RTVSPropertyOp4
 70
     1
102
RTVSPropertyOp5
 70
     1
102
RTVSPropertyOp6
 70
     1
102
RTVSPropertyOp7
 70
     1
102
RTVSPropertyOp8
 70
     1
102
RTVSPropertyOp9
 70
     1
102
RTVSPropertyOp10
 70
     1
102
RTVSPropertyOp11
 70
     1
102
RTVSPropertyOp12
 70
     1
102
RTVSPropertyOp13
 70
     1
102
RTVSPropertyOp14
 70
     1
102
RTVSPropertyOp15
 70
     1
102
RTVSPropertyOp16
 70
     1
102
RTVSPropertyOp17
 70
     1
102
RTVSPropertyOp18
 70
     1
102
RTVSPropertyOp19
 70
     1
102
RTVSPropertyOp20
 70
     1
102
RTVSPropertyOp21
 70
     1
102
RTVSPropertyOp22
 70
     1
102
RTVSPropertyOp23
 70
     1
102
RTVSPropertyOp24
 70
     1
102
RTVSPropertyOp25
 70
     1
102
RTVSPropertyOp26
 70
     1
102
RTVSPropertyOp27
 70
     1
102
RTVSPropertyOp28
 70
     1
102
RTVSPropertyOp29
 70
     1
102
RTVSPropertyOp30
 70
     1
102
RTVSPropertyOp31
 70
     1
102
RTVSPropertyOp32
 70
     1
  0
XRECORD
  5
E03
102
{ACAD_REACTORS
330
E02
102
}
330
E02
100
AcDbXrecord
280
     1
102
RTVSPropertyOp0
 70
     1
102
RTVSPropertyOp1
 70
     1
102
RTVSPropertyOp2
 70
     1
102
RTVSPropertyOp3
 70
     1
102
RTVSPropertyOp4
 70
     1
102
RTVSPropertyOp5
 70
     1
102
RTVSPropertyOp6
 70
     1
102
RTVSPropertyOp7
 70
     1
102
RTVSPropertyOp8
 70
     1
102
RTVSPropertyOp9
 70
     1
102
RTVSPropertyOp10
 70
     1
102
RTVSPropertyOp11
 70
     1
102
RTVSPropertyOp12
 70
     1
102
RTVSPropertyOp13
 70
     1
102
RTVSPropertyOp14
 70
     1
102
RTVSPropertyOp15
 70
     1
102
RTVSPropertyOp16
 70
     1
102
RTVSPropertyOp17
 70
     1
102
RTVSPropertyOp18
 70
     1
102
RTVSPropertyOp19
 70
     1
102
RTVSPropertyOp20
 70
     1
102
RTVSPropertyOp21
 70
     1
102
RTVSPropertyOp22
 70
     1
102
RTVSPropertyOp23
 70
     1
102
RTVSPropertyOp24
 70
     1
102
RTVSPropertyOp25
 70
     1
102
RTVSPropertyOp26
 70
     1
102
RTVSPropertyOp27
 70
     1
102
RTVSPropertyOp28
 70
     1
102
RTVSPropertyOp29
 70
     1
102
RTVSPropertyOp30
 70
     1
102
RTVSPropertyOp31
 70
     1
102
RTVSPropertyOp32
 70
     1
  0
XRECORD
  5
E1D
102
{ACAD_REACTORS
330
E1C
102
}
330
E1C
100
AcDbXrecord
280
     1
102
RTVSPropertyOp0
 70
     0
102
RTVSPropertyOp1
 70
     0
102
RTVSPropertyOp2
 70
     0
102
RTVSPropertyOp3
 70
     0
102
RTVSPropertyOp4
 70
     0
102
RTVSPropertyOp5
 70
     0
102
RTVSPropertyOp6
 70
     0
102
RTVSPropertyOp7
 70
     0
102
RTVSPropertyOp8
 70
     0
102
RTVSPropertyOp9
 70
     0
102
RTVSPropertyOp10
 70
     0
102
RTVSPropertyOp11
 70
     0
102
RTVSPropertyOp12
 70
     0
102
RTVSPropertyOp13
 70
     0
102
RTVSPropertyOp14
 70
     2
102
RTVSPropertyOp15
 70
     0
102
RTVSPropertyOp16
 70
     0
102
RTVSPropertyOp17
 70
     0
102
RTVSPropertyOp18
 70
     0
102
RTVSPropertyOp19
 70
     0
102
RTVSPropertyOp20
 70
     0
102
RTVSPropertyOp21
 70
     0
102
RTVSPropertyOp22
 70
     0
102
RTVSPropertyOp23
 70
     0
102
RTVSPropertyOp24
 70
     0
102
RTVSPropertyOp25
 70
     0
102
RTVSPropertyOp26
 70
     0
102
RTVSPropertyOp27
 70
     0
102
RTVSPropertyOp28
 70
     1
102
RTVSPropertyOp29
 70
     1
102
RTVSPropertyOp30
 70
     1
102
RTVSPropertyOp31
 70
     1
102
RTVSPropertyOp32
 70
     1
  0
XRECORD
  5
E0B
102
{ACAD_REACTORS
330
E0A
102
}
330
E0A
100
AcDbXrecord
280
     1
102
RTVSPropertyOp0
 70
     1
102
RTVSPropertyOp1
 70
     1
102
RTVSPropertyOp2
 70
     1
102
RTVSPropertyOp3
 70
     1
102
RTVSPropertyOp4
 70
     1
102
RTVSPropertyOp5
 70
     1
102
RTVSPropertyOp6
 70
     1
102
RTVSPropertyOp7
 70
     1
102
RTVSPropertyOp8
 70
     1
102
RTVSPropertyOp9
 70
     1
102
RTVSPropertyOp10
 70
     1
102
RTVSPropertyOp11
 70
     1
102
RTVSPropertyOp12
 70
     1
102
RTVSPropertyOp13
 70
     1
102
RTVSPropertyOp14
 70
     1
102
RTVSPropertyOp15
 70
     1
102
RTVSPropertyOp16
 70
     1
102
RTVSPropertyOp17
 70
     1
102
RTVSPropertyOp18
 70
     1
102
RTVSPropertyOp19
 70
     1
102
RTVSPropertyOp20
 70
     1
102
RTVSPropertyOp21
 70
     1
102
RTVSPropertyOp22
 70
     1
102
RTVSPropertyOp23
 70
     1
102
RTVSPropertyOp24
 70
     1
102
RTVSPropertyOp25
 70
     1
102
RTVSPropertyOp26
 70
     1
102
RTVSPropertyOp27
 70
     1
102
RTVSPropertyOp28
 70
     1
102
RTVSPropertyOp29
 70
     1
102
RTVSPropertyOp30
 70
     1
102
RTVSPropertyOp31
 70
     1
102
RTVSPropertyOp32
 70
     1
  0
XRECORD
  5
DEF
102
{ACAD_REACTORS
330
DEE
102
}
330
DEE
100
AcDbXrecord
280
     1
102
RTVSPropertyOp0
 70
     1
102
RTVSPropertyOp1
 70
     1
102
RTVSPropertyOp2
 70
     1
102
RTVSPropertyOp3
 70
     1
102
RTVSPropertyOp4
 70
     1
102
RTVSPropertyOp5
 70
     1
102
RTVSPropertyOp6
 70
     1
102
RTVSPropertyOp7
 70
     1
102
RTVSPropertyOp8
 70
     1
102
RTVSPropertyOp9
 70
     1
102
RTVSPropertyOp10
 70
     1
102
RTVSPropertyOp11
 70
     1
102
RTVSPropertyOp12
 70
     1
102
RTVSPropertyOp13
 70
     1
102
RTVSPropertyOp14
 70
     1
102
RTVSPropertyOp15
 70
     1
102
RTVSPropertyOp16
 70
     1
102
RTVSPropertyOp17
 70
     1
102
RTVSPropertyOp18
 70
     1
102
RTVSPropertyOp19
 70
     1
102
RTVSPropertyOp20
 70
     1
102
RTVSPropertyOp21
 70
     1
102
RTVSPropertyOp22
 70
     1
102
RTVSPropertyOp23
 70
     1
102
RTVSPropertyOp24
 70
     1
102
RTVSPropertyOp25
 70
     1
102
RTVSPropertyOp26
 70
     1
102
RTVSPropertyOp27
 70
     1
102
RTVSPropertyOp28
 70
     1
102
RTVSPropertyOp29
 70
     1
102
RTVSPropertyOp30
 70
     1
102
RTVSPropertyOp31
 70
     1
102
RTVSPropertyOp32
 70
     1
  0
XRECORD
  5
DF1
102
{ACAD_REACTORS
330
DF0
102
}
330
DF0
100
AcDbXrecord
280
     1
102
RTVSPropertyOp0
 70
     1
102
RTVSPropertyOp1
 70
     1
102
RTVSPropertyOp2
 70
     1
102
RTVSPropertyOp3
 70
     1
102
RTVSPropertyOp4
 70
     1
102
RTVSPropertyOp5
 70
     1
102
RTVSPropertyOp6
 70
     1
102
RTVSPropertyOp7
 70
     1
102
RTVSPropertyOp8
 70
     1
102
RTVSPropertyOp9
 70
     1
102
RTVSPropertyOp10
 70
     1
102
RTVSPropertyOp11
 70
     1
102
RTVSPropertyOp12
 70
     1
102
RTVSPropertyOp13
 70
     1
102
RTVSPropertyOp14
 70
     1
102
RTVSPropertyOp15
 70
     1
102
RTVSPropertyOp16
 70
     1
102
RTVSPropertyOp17
 70
     1
102
RTVSPropertyOp18
 70
     1
102
RTVSPropertyOp19
 70
     1
102
RTVSPropertyOp20
 70
     1
102
RTVSPropertyOp21
 70
     1
102
RTVSPropertyOp22
 70
     1
102
RTVSPropertyOp23
 70
     1
102
RTVSPropertyOp24
 70
     1
102
RTVSPropertyOp25
 70
     1
102
RTVSPropertyOp26
 70
     1
102
RTVSPropertyOp27
 70
     1
102
RTVSPropertyOp28
 70
     1
102
RTVSPropertyOp29
 70
     1
102
RTVSPropertyOp30
 70
     1
102
RTVSPropertyOp31
 70
     1
102
RTVSPropertyOp32
 70
     1
  0
XRECORD
  5
DF3
102
{ACAD_REACTORS
330
DF2
102
}
330
DF2
100
AcDbXrecord
280
     1
102
RTVSPropertyOp0
 70
     1
102
RTVSPropertyOp1
 70
     1
102
RTVSPropertyOp2
 70
     1
102
RTVSPropertyOp3
 70
     1
102
RTVSPropertyOp4
 70
     1
102
RTVSPropertyOp5
 70
     1
102
RTVSPropertyOp6
 70
     1
102
RTVSPropertyOp7
 70
     1
102
RTVSPropertyOp8
 70
     1
102
RTVSPropertyOp9
 70
     1
102
RTVSPropertyOp10
 70
     1
102
RTVSPropertyOp11
 70
     1
102
RTVSPropertyOp12
 70
     1
102
RTVSPropertyOp13
 70
     1
102
RTVSPropertyOp14
 70
     1
102
RTVSPropertyOp15
 70
     1
102
RTVSPropertyOp16
 70
     1
102
RTVSPropertyOp17
 70
     1
102
RTVSPropertyOp18
 70
     1
102
RTVSPropertyOp19
 70
     1
102
RTVSPropertyOp20
 70
     1
102
RTVSPropertyOp21
 70
     1
102
RTVSPropertyOp22
 70
     1
102
RTVSPropertyOp23
 70
     1
102
RTVSPropertyOp24
 70
     1
102
RTVSPropertyOp25
 70
     1
102
RTVSPropertyOp26
 70
     1
102
RTVSPropertyOp27
 70
     1
102
RTVSPropertyOp28
 70
     1
102
RTVSPropertyOp29
 70
     1
102
RTVSPropertyOp30
 70
     1
102
RTVSPropertyOp31
 70
     1
102
RTVSPropertyOp32
 70
     1
  0
XRECORD
  5
DF5
102
{ACAD_REACTORS
330
DF4
102
}
330
DF4
100
AcDbXrecord
280
     1
102
RTVSPropertyOp0
 70
     1
102
RTVSPropertyOp1
 70
     1
102
RTVSPropertyOp2
 70
     1
102
RTVSPropertyOp3
 70
     1
102
RTVSPropertyOp4
 70
     1
102
RTVSPropertyOp5
 70
     1
102
RTVSPropertyOp6
 70
     1
102
RTVSPropertyOp7
 70
     1
102
RTVSPropertyOp8
 70
     1
102
RTVSPropertyOp9
 70
     1
102
RTVSPropertyOp10
 70
     1
102
RTVSPropertyOp11
 70
     1
102
RTVSPropertyOp12
 70
     1
102
RTVSPropertyOp13
 70
     1
102
RTVSPropertyOp14
 70
     1
102
RTVSPropertyOp15
 70
     1
102
RTVSPropertyOp16
 70
     1
102
RTVSPropertyOp17
 70
     1
102
RTVSPropertyOp18
 70
     1
102
RTVSPropertyOp19
 70
     1
102
RTVSPropertyOp20
 70
     1
102
RTVSPropertyOp21
 70
     1
102
RTVSPropertyOp22
 70
     1
102
RTVSPropertyOp23
 70
     1
102
RTVSPropertyOp24
 70
     1
102
RTVSPropertyOp25
 70
     1
102
RTVSPropertyOp26
 70
     1
102
RTVSPropertyOp27
 70
     1
102
RTVSPropertyOp28
 70
     1
102
RTVSPropertyOp29
 70
     1
102
RTVSPropertyOp30
 70
     1
102
RTVSPropertyOp31
 70
     1
102
RTVSPropertyOp32
 70
     1
  0
XRECORD
  5
DFD
102
{ACAD_REACTORS
330
DFC
102
}
330
DFC
100
AcDbXrecord
280
     1
102
RTVSPropertyOp0
 70
     1
102
RTVSPropertyOp1
 70
     1
102
RTVSPropertyOp2
 70
     1
102
RTVSPropertyOp3
 70
     1
102
RTVSPropertyOp4
 70
     1
102
RTVSPropertyOp5
 70
     1
102
RTVSPropertyOp6
 70
     1
102
RTVSPropertyOp7
 70
     1
102
RTVSPropertyOp8
 70
     1
102
RTVSPropertyOp9
 70
     1
102
RTVSPropertyOp10
 70
     1
102
RTVSPropertyOp11
 70
     1
102
RTVSPropertyOp12
 70
     1
102
RTVSPropertyOp13
 70
     1
102
RTVSPropertyOp14
 70
     1
102
RTVSPropertyOp15
 70
     1
102
RTVSPropertyOp16
 70
     1
102
RTVSPropertyOp17
 70
     1
102
RTVSPropertyOp18
 70
     1
102
RTVSPropertyOp19
 70
     1
102
RTVSPropertyOp20
 70
     1
102
RTVSPropertyOp21
 70
     1
102
RTVSPropertyOp22
 70
     1
102
RTVSPropertyOp23
 70
     1
102
RTVSPropertyOp24
 70
     1
102
RTVSPropertyOp25
 70
     1
102
RTVSPropertyOp26
 70
     1
102
RTVSPropertyOp27
 70
     1
102
RTVSPropertyOp28
 70
     1
102
RTVSPropertyOp29
 70
     1
102
RTVSPropertyOp30
 70
     1
102
RTVSPropertyOp31
 70
     1
102
RTVSPropertyOp32
 70
     1
  0
XRECORD
  5
E19
102
{ACAD_REACTORS
330
E18
102
}
330
E18
100
AcDbXrecord
280
     1
102
RTVSPropertyOp0
 70
     0
102
RTVSPropertyOp1
 70
     0
102
RTVSPropertyOp2
 70
     0
102
RTVSPropertyOp3
 70
     0
102
RTVSPropertyOp4
 70
     0
102
RTVSPropertyOp5
 70
     0
102
RTVSPropertyOp6
 70
     0
102
RTVSPropertyOp7
 70
     0
102
RTVSPropertyOp8
 70
     0
102
RTVSPropertyOp9
 70
     0
102
RTVSPropertyOp10
 70
     0
102
RTVSPropertyOp11
 70
     0
102
RTVSPropertyOp12
 70
     0
102
RTVSPropertyOp13
 70
     0
102
RTVSPropertyOp14
 70
     2
102
RTVSPropertyOp15
 70
     0
102
RTVSPropertyOp16
 70
     0
102
RTVSPropertyOp17
 70
     0
102
RTVSPropertyOp18
 70
     0
102
RTVSPropertyOp19
 70
     0
102
RTVSPropertyOp20
 70
     0
102
RTVSPropertyOp21
 70
     0
102
RTVSPropertyOp22
 70
     0
102
RTVSPropertyOp23
 70
     0
102
RTVSPropertyOp24
 70
     0
102
RTVSPropertyOp25
 70
     0
102
RTVSPropertyOp26
 70
     0
102
RTVSPropertyOp27
 70
     0
102
RTVSPropertyOp28
 70
     1
102
RTVSPropertyOp29
 70
     1
102
RTVSPropertyOp30
 70
     1
102
RTVSPropertyOp31
 70
     1
102
RTVSPropertyOp32
 70
     1
  0
XRECORD
  5
E09
102
{ACAD_REACTORS
330
E08
102
}
330
E08
100
AcDbXrecord
280
     1
102
RTVSPropertyOp0
 70
     1
102
RTVSPropertyOp1
 70
     1
102
RTVSPropertyOp2
 70
     1
102
RTVSPropertyOp3
 70
     1
102
RTVSPropertyOp4
 70
     1
102
RTVSPropertyOp5
 70
     1
102
RTVSPropertyOp6
 70
     1
102
RTVSPropertyOp7
 70
     1
102
RTVSPropertyOp8
 70
     1
102
RTVSPropertyOp9
 70
     1
102
RTVSPropertyOp10
 70
     1
102
RTVSPropertyOp11
 70
     1
102
RTVSPropertyOp12
 70
     1
102
RTVSPropertyOp13
 70
     1
102
RTVSPropertyOp14
 70
     1
102
RTVSPropertyOp15
 70
     1
102
RTVSPropertyOp16
 70
     1
102
RTVSPropertyOp17
 70
     1
102
RTVSPropertyOp18
 70
     1
102
RTVSPropertyOp19
 70
     1
102
RTVSPropertyOp20
 70
     1
102
RTVSPropertyOp21
 70
     1
102
RTVSPropertyOp22
 70
     1
102
RTVSPropertyOp23
 70
     1
102
RTVSPropertyOp24
 70
     1
102
RTVSPropertyOp25
 70
     1
102
RTVSPropertyOp26
 70
     1
102
RTVSPropertyOp27
 70
     1
102
RTVSPropertyOp28
 70
     1
102
RTVSPropertyOp29
 70
     1
102
RTVSPropertyOp30
 70
     1
102
RTVSPropertyOp31
 70
     1
102
RTVSPropertyOp32
 70
     1
  0
XRECORD
  5
E1B
102
{ACAD_REACTORS
330
E1A
102
}
330
E1A
100
AcDbXrecord
280
     1
102
RTVSPropertyOp0
 70
     0
102
RTVSPropertyOp1
 70
     0
102
RTVSPropertyOp2
 70
     0
102
RTVSPropertyOp3
 70
     0
102
RTVSPropertyOp4
 70
     0
102
RTVSPropertyOp5
 70
     0
102
RTVSPropertyOp6
 70
     0
102
RTVSPropertyOp7
 70
     0
102
RTVSPropertyOp8
 70
     0
102
RTVSPropertyOp9
 70
     0
102
RTVSPropertyOp10
 70
     0
102
RTVSPropertyOp11
 70
     0
102
RTVSPropertyOp12
 70
     0
102
RTVSPropertyOp13
 70
     0
102
RTVSPropertyOp14
 70
     2
102
RTVSPropertyOp15
 70
     0
102
RTVSPropertyOp16
 70
     0
102
RTVSPropertyOp17
 70
     0
102
RTVSPropertyOp18
 70
     0
102
RTVSPropertyOp19
 70
     0
102
RTVSPropertyOp20
 70
     0
102
RTVSPropertyOp21
 70
     0
102
RTVSPropertyOp22
 70
     0
102
RTVSPropertyOp23
 70
     0
102
RTVSPropertyOp24
 70
     0
102
RTVSPropertyOp25
 70
     0
102
RTVSPropertyOp26
 70
     0
102
RTVSPropertyOp27
 70
     0
102
RTVSPropertyOp28
 70
     1
102
RTVSPropertyOp29
 70
     1
102
RTVSPropertyOp30
 70
     1
102
RTVSPropertyOp31
 70
     1
102
RTVSPropertyOp32
 70
     1
  0
XRECORD
  5
E01
102
{ACAD_REACTORS
330
E00
102
}
330
E00
100
AcDbXrecord
280
     1
102
RTVSPropertyOp0
 70
     1
102
RTVSPropertyOp1
 70
     1
102
RTVSPropertyOp2
 70
     1
102
RTVSPropertyOp3
 70
     1
102
RTVSPropertyOp4
 70
     1
102
RTVSPropertyOp5
 70
     1
102
RTVSPropertyOp6
 70
     1
102
RTVSPropertyOp7
 70
     1
102
RTVSPropertyOp8
 70
     1
102
RTVSPropertyOp9
 70
     1
102
RTVSPropertyOp10
 70
     1
102
RTVSPropertyOp11
 70
     1
102
RTVSPropertyOp12
 70
     1
102
RTVSPropertyOp13
 70
     1
102
RTVSPropertyOp14
 70
     1
102
RTVSPropertyOp15
 70
     1
102
RTVSPropertyOp16
 70
     1
102
RTVSPropertyOp17
 70
     1
102
RTVSPropertyOp18
 70
     1
102
RTVSPropertyOp19
 70
     1
102
RTVSPropertyOp20
 70
     1
102
RTVSPropertyOp21
 70
     1
102
RTVSPropertyOp22
 70
     1
102
RTVSPropertyOp23
 70
     1
102
RTVSPropertyOp24
 70
     1
102
RTVSPropertyOp25
 70
     1
102
RTVSPropertyOp26
 70
     1
102
RTVSPropertyOp27
 70
     1
102
RTVSPropertyOp28
 70
     1
102
RTVSPropertyOp29
 70
     1
102
RTVSPropertyOp30
 70
     1
102
RTVSPropertyOp31
 70
     1
102
RTVSPropertyOp32
 70
     1
  0
XRECORD
  5
E17
102
{ACAD_REACTORS
330
E16
102
}
330
E16
100
AcDbXrecord
280
     1
102
RTVSPropertyOp0
 70
     1
102
RTVSPropertyOp1
 70
     1
102
RTVSPropertyOp2
 70
     1
102
RTVSPropertyOp3
 70
     1
102
RTVSPropertyOp4
 70
     1
102
RTVSPropertyOp5
 70
     1
102
RTVSPropertyOp6
 70
     1
102
RTVSPropertyOp7
 70
     1
102
RTVSPropertyOp8
 70
     1
102
RTVSPropertyOp9
 70
     1
102
RTVSPropertyOp10
 70
     1
102
RTVSPropertyOp11
 70
     1
102
RTVSPropertyOp12
 70
     1
102
RTVSPropertyOp13
 70
     1
102
RTVSPropertyOp14
 70
     1
102
RTVSPropertyOp15
 70
     1
102
RTVSPropertyOp16
 70
     1
102
RTVSPropertyOp17
 70
     1
102
RTVSPropertyOp18
 70
     1
102
RTVSPropertyOp19
 70
     1
102
RTVSPropertyOp20
 70
     1
102
RTVSPropertyOp21
 70
     1
102
RTVSPropertyOp22
 70
     1
102
RTVSPropertyOp23
 70
     1
102
RTVSPropertyOp24
 70
     1
102
RTVSPropertyOp25
 70
     1
102
RTVSPropertyOp26
 70
     1
102
RTVSPropertyOp27
 70
     1
102
RTVSPropertyOp28
 70
     1
102
RTVSPropertyOp29
 70
     1
102
RTVSPropertyOp30
 70
     1
102
RTVSPropertyOp31
 70
     1
102
RTVSPropertyOp32
 70
     1
  0
XRECORD
  5
E15
102
{ACAD_REACTORS
330
E14
102
}
330
E14
100
AcDbXrecord
280
     1
102
RTVSPropertyOp0
 70
     1
102
RTVSPropertyOp1
 70
     1
102
RTVSPropertyOp2
 70
     1
102
RTVSPropertyOp3
 70
     1
102
RTVSPropertyOp4
 70
     1
102
RTVSPropertyOp5
 70
     1
102
RTVSPropertyOp6
 70
     1
102
RTVSPropertyOp7
 70
     1
102
RTVSPropertyOp8
 70
     1
102
RTVSPropertyOp9
 70
     1
102
RTVSPropertyOp10
 70
     1
102
RTVSPropertyOp11
 70
     1
102
RTVSPropertyOp12
 70
     1
102
RTVSPropertyOp13
 70
     1
102
RTVSPropertyOp14
 70
     1
102
RTVSPropertyOp15
 70
     1
102
RTVSPropertyOp16
 70
     1
102
RTVSPropertyOp17
 70
     1
102
RTVSPropertyOp18
 70
     1
102
RTVSPropertyOp19
 70
     1
102
RTVSPropertyOp20
 70
     1
102
RTVSPropertyOp21
 70
     1
102
RTVSPropertyOp22
 70
     1
102
RTVSPropertyOp23
 70
     1
102
RTVSPropertyOp24
 70
     1
102
RTVSPropertyOp25
 70
     1
102
RTVSPropertyOp26
 70
     1
102
RTVSPropertyOp27
 70
     1
102
RTVSPropertyOp28
 70
     1
102
RTVSPropertyOp29
 70
     1
102
RTVSPropertyOp30
 70
     1
102
RTVSPropertyOp31
 70
     1
102
RTVSPropertyOp32
 70
     1
  0
XRECORD
  5
E0F
102
{ACAD_REACTORS
330
E0E
102
}
330
E0E
100
AcDbXrecord
280
     1
102
RTVSPropertyOp0
 70
     1
102
RTVSPropertyOp1
 70
     1
102
RTVSPropertyOp2
 70
     1
102
RTVSPropertyOp3
 70
     1
102
RTVSPropertyOp4
 70
     1
102
RTVSPropertyOp5
 70
     1
102
RTVSPropertyOp6
 70
     1
102
RTVSPropertyOp7
 70
     1
102
RTVSPropertyOp8
 70
     1
102
RTVSPropertyOp9
 70
     1
102
RTVSPropertyOp10
 70
     1
102
RTVSPropertyOp11
 70
     1
102
RTVSPropertyOp12
 70
     1
102
RTVSPropertyOp13
 70
     1
102
RTVSPropertyOp14
 70
     1
102
RTVSPropertyOp15
 70
     1
102
RTVSPropertyOp16
 70
     1
102
RTVSPropertyOp17
 70
     1
102
RTVSPropertyOp18
 70
     1
102
RTVSPropertyOp19
 70
     1
102
RTVSPropertyOp20
 70
     1
102
RTVSPropertyOp21
 70
     1
102
RTVSPropertyOp22
 70
     1
102
RTVSPropertyOp23
 70
     1
102
RTVSPropertyOp24
 70
     1
102
RTVSPropertyOp25
 70
     1
102
RTVSPropertyOp26
 70
     1
102
RTVSPropertyOp27
 70
     1
102
RTVSPropertyOp28
 70
     1
102
RTVSPropertyOp29
 70
     1
102
RTVSPropertyOp30
 70
     1
102
RTVSPropertyOp31
 70
     1
102
RTVSPropertyOp32
 70
     1
  0
XRECORD
  5
E11
102
{ACAD_REACTORS
330
E10
102
}
330
E10
100
AcDbXrecord
280
     1
102
RTVSPropertyOp0
 70
     1
102
RTVSPropertyOp1
 70
     1
102
RTVSPropertyOp2
 70
     1
102
RTVSPropertyOp3
 70
     1
102
RTVSPropertyOp4
 70
     1
102
RTVSPropertyOp5
 70
     1
102
RTVSPropertyOp6
 70
     1
102
RTVSPropertyOp7
 70
     1
102
RTVSPropertyOp8
 70
     1
102
RTVSPropertyOp9
 70
     1
102
RTVSPropertyOp10
 70
     1
102
RTVSPropertyOp11
 70
     1
102
RTVSPropertyOp12
 70
     1
102
RTVSPropertyOp13
 70
     1
102
RTVSPropertyOp14
 70
     1
102
RTVSPropertyOp15
 70
     1
102
RTVSPropertyOp16
 70
     1
102
RTVSPropertyOp17
 70
     1
102
RTVSPropertyOp18
 70
     1
102
RTVSPropertyOp19
 70
     1
102
RTVSPropertyOp20
 70
     1
102
RTVSPropertyOp21
 70
     1
102
RTVSPropertyOp22
 70
     1
102
RTVSPropertyOp23
 70
     1
102
RTVSPropertyOp24
 70
     1
102
RTVSPropertyOp25
 70
     1
102
RTVSPropertyOp26
 70
     1
102
RTVSPropertyOp27
 70
     1
102
RTVSPropertyOp28
 70
     1
102
RTVSPropertyOp29
 70
     1
102
RTVSPropertyOp30
 70
     1
102
RTVSPropertyOp31
 70
     1
102
RTVSPropertyOp32
 70
     1
  0
XRECORD
  5
E07
102
{ACAD_REACTORS
330
E06
102
}
330
E06
100
AcDbXrecord
280
     1
102
RTVSPropertyOp0
 70
     1
102
RTVSPropertyOp1
 70
     1
102
RTVSPropertyOp2
 70
     1
102
RTVSPropertyOp3
 70
     1
102
RTVSPropertyOp4
 70
     1
102
RTVSPropertyOp5
 70
     1
102
RTVSPropertyOp6
 70
     1
102
RTVSPropertyOp7
 70
     1
102
RTVSPropertyOp8
 70
     1
102
RTVSPropertyOp9
 70
     1
102
RTVSPropertyOp10
 70
     1
102
RTVSPropertyOp11
 70
     1
102
RTVSPropertyOp12
 70
     1
102
RTVSPropertyOp13
 70
     1
102
RTVSPropertyOp14
 70
     1
102
RTVSPropertyOp15
 70
     1
102
RTVSPropertyOp16
 70
     1
102
RTVSPropertyOp17
 70
     1
102
RTVSPropertyOp18
 70
     1
102
RTVSPropertyOp19
 70
     1
102
RTVSPropertyOp20
 70
     1
102
RTVSPropertyOp21
 70
     1
102
RTVSPropertyOp22
 70
     1
102
RTVSPropertyOp23
 70
     1
102
RTVSPropertyOp24
 70
     1
102
RTVSPropertyOp25
 70
     1
102
RTVSPropertyOp26
 70
     1
102
RTVSPropertyOp27
 70
     1
102
RTVSPropertyOp28
 70
     1
102
RTVSPropertyOp29
 70
     1
102
RTVSPropertyOp30
 70
     1
102
RTVSPropertyOp31
 70
     1
102
RTVSPropertyOp32
 70
     1
  0
XRECORD
  5
DFB
102
{ACAD_REACTORS
330
DFA
102
}
330
DFA
100
AcDbXrecord
280
     1
102
RTVSPropertyOp0
 70
     1
102
RTVSPropertyOp1
 70
     1
102
RTVSPropertyOp2
 70
     1
102
RTVSPropertyOp3
 70
     1
102
RTVSPropertyOp4
 70
     1
102
RTVSPropertyOp5
 70
     1
102
RTVSPropertyOp6
 70
     1
102
RTVSPropertyOp7
 70
     1
102
RTVSPropertyOp8
 70
     1
102
RTVSPropertyOp9
 70
     1
102
RTVSPropertyOp10
 70
     1
102
RTVSPropertyOp11
 70
     1
102
RTVSPropertyOp12
 70
     1
102
RTVSPropertyOp13
 70
     1
102
RTVSPropertyOp14
 70
     1
102
RTVSPropertyOp15
 70
     1
102
RTVSPropertyOp16
 70
     1
102
RTVSPropertyOp17
 70
     1
102
RTVSPropertyOp18
 70
     1
102
RTVSPropertyOp19
 70
     1
102
RTVSPropertyOp20
 70
     1
102
RTVSPropertyOp21
 70
     1
102
RTVSPropertyOp22
 70
     1
102
RTVSPropertyOp23
 70
     1
102
RTVSPropertyOp24
 70
     1
102
RTVSPropertyOp25
 70
     1
102
RTVSPropertyOp26
 70
     1
102
RTVSPropertyOp27
 70
     1
102
RTVSPropertyOp28
 70
     1
102
RTVSPropertyOp29
 70
     1
102
RTVSPropertyOp30
 70
     1
102
RTVSPropertyOp31
 70
     1
102
RTVSPropertyOp32
 70
     1
  0
XRECORD
  5
E13
102
{ACAD_REACTORS
330
E12
102
}
330
E12
100
AcDbXrecord
280
     1
102
RTVSPropertyOp0
 70
     1
102
RTVSPropertyOp1
 70
     1
102
RTVSPropertyOp2
 70
     1
102
RTVSPropertyOp3
 70
     1
102
RTVSPropertyOp4
 70
     1
102
RTVSPropertyOp5
 70
     1
102
RTVSPropertyOp6
 70
     1
102
RTVSPropertyOp7
 70
     1
102
RTVSPropertyOp8
 70
     1
102
RTVSPropertyOp9
 70
     1
102
RTVSPropertyOp10
 70
     1
102
RTVSPropertyOp11
 70
     1
102
RTVSPropertyOp12
 70
     1
102
RTVSPropertyOp13
 70
     1
102
RTVSPropertyOp14
 70
     1
102
RTVSPropertyOp15
 70
     1
102
RTVSPropertyOp16
 70
     1
102
RTVSPropertyOp17
 70
     1
102
RTVSPropertyOp18
 70
     1
102
RTVSPropertyOp19
 70
     1
102
RTVSPropertyOp20
 70
     1
102
RTVSPropertyOp21
 70
     1
102
RTVSPropertyOp22
 70
     1
102
RTVSPropertyOp23
 70
     1
102
RTVSPropertyOp24
 70
     1
102
RTVSPropertyOp25
 70
     1
102
RTVSPropertyOp26
 70
     1
102
RTVSPropertyOp27
 70
     1
102
RTVSPropertyOp28
 70
     1
102
RTVSPropertyOp29
 70
     1
102
RTVSPropertyOp30
 70
     1
102
RTVSPropertyOp31
 70
     1
102
RTVSPropertyOp32
 70
     1
  0
ENDSEC
  0
EOF
