  0
SECTION
  2
HEADER
  9
$ACADVER
  1
AC1015
  9
$ACADMAINTVER
 70
    18
  9
$DWGCODEPAGE
  3
ANSI_1252
  9
$INSBASE
 10
0.0
 20
0.0
 30
0.0
  9
$EXTMIN
 10
0.0
 20
0.0
 30
0.0
  9
$EXTMAX
 10
56.66666666666667
 20
36.66666666666667
 30
0.0
  9
$LIMMIN
 10
0.0
 20
0.0
  9
$LIMMAX
 10
56.66666666666667
 20
36.66666666666667
  9
$ORTHOMODE
 70
     0
  9
$REGENMODE
 70
     1
  9
$FILLMODE
 70
     1
  9
$QTEXTMODE
 70
     0
  9
$MIRRTEXT
 70
     0
  9
$LTSCALE
 40
3.333333333333333
  9
$ATTMODE
 70
     1
  9
$TEXTSIZE
 40
0.2
  9
$TRACEWID
 40
0.05
  9
$TEXTSTYLE
  7
Standard
  9
$CLAYER
  8
0
  9
$CELTYPE
  6
ByLayer
  9
$CECOLOR
 62
   256
  9
$CELTSCALE
 40
1.0
  9
$DISPSILH
 70
     0
  9
$DIMSCALE
 40
1.0
  9
$DIMASZ
 40
0.0708661417322835
  9
$DIMEXO
 40
0.0625
  9
$DIMDLI
 40
0.38
  9
$DIMRND
 40
0.0
  9
$DIMDLE
 40
0.0
  9
$DIMEXE
 40
0.18
  9
$DIMTP
 40
0.0
  9
$DIMTM
 40
0.0
  9
$DIMTXT
 40
0.0708661417322835
  9
$DIMCEN
 40
0.09
  9
$DIMTSZ
 40
0.0
  9
$DIMTOL
 70
     0
  9
$DIMLIM
 70
     0
  9
$DIMTIH
 70
     1
  9
$DIMTOH
 70
     1
  9
$DIMSE1
 70
     0
  9
$DIMSE2
 70
     0
  9
$DIMTAD
 70
     0
  9
$DIMZIN
 70
     0
  9
$DIMBLK
  1

  9
$DIMASO
 70
     1
  9
$DIMSHO
 70
     1
  9
$DIMPOST
  1

  9
$DIMAPOST
  1

  9
$DIMALT
 70
     0
  9
$DIMALTD
 70
     2
  9
$DIMALTF
 40
25.4
  9
$DIMLFAC
 40
1.0
  9
$DIMTOFL
 70
     0
  9
$DIMTVP
 40
0.0
  9
$DIMTIX
 70
     0
  9
$DIMSOXD
 70
     0
  9
$DIMSAH
 70
     0
  9
$DIMBLK1
  1

  9
$DIMBLK2
  1

  9
$DIMSTYLE
  2
STANDARD
  9
$DIMCLRD
 70
     0
  9
$DIMCLRE
 70
     0
  9
$DIMCLRT
 70
     0
  9
$DIMTFAC
 40
1.0
  9
$DIMGAP
 40
0.09
  9
$DIMJUST
 70
     0
  9
$DIMSD1
 70
     0
  9
$DIMSD2
 70
     0
  9
$DIMTOLJ
 70
     1
  9
$DIMTZIN
 70
     0
  9
$DIMALTZ
 70
     0
  9
$DIMALTTZ
 70
     0
  9
$DIMUPT
 70
     0
  9
$DIMDEC
 70
     4
  9
$DIMTDEC
 70
     4
  9
$DIMALTU
 70
     2
  9
$DIMALTTD
 70
     2
  9
$DIMTXSTY
  7
Standard
  9
$DIMAUNIT
 70
     0
  9
$DIMADEC
 70
     0
  9
$DIMALTRND
 40
0.0
  9
$DIMAZIN
 70
     0
  9
$DIMDSEP
 70
    46
  9
$DIMATFIT
 70
     3
  9
$DIMFRAC
 70
     0
  9
$DIMLDRBLK
  1

  9
$DIMLUNIT
 70
     2
  9
$DIMLWD
 70
    -2
  9
$DIMLWE
 70
    -2
  9
$DIMTMOVE
 70
     0
  9
$LUNITS
 70
     2
  9
$LUPREC
 70
     4
  9
$SKETCHINC
 40
0.1
  9
$FILLETRAD
 40
0.0
  9
$AUNITS
 70
     0
  9
$AUPREC
 70
     0
  9
$MENU
  1
.
  9
$ELEVATION
 40
0.0
  9
$PELEVATION
 40
0.0
  9
$THICKNESS
 40
0.0
  9
$LIMCHECK
 70
     0
  9
$CHAMFERA
 40
0.0
  9
$CHAMFERB
 40
0.0
  9
$CHAMFERC
 40
0.0
  9
$CHAMFERD
 40
0.0
  9
$SKPOLY
 70
     0
  9
$TDCREATE
 40
2455944.600583102
  9
$TDUCREATE
 40
2455944.850583102
  9
$TDUPDATE
 40
2455944.600583287
  9
$TDUUPDATE
 40
2455944.850583287
  9
$TDINDWG
 40
0.0000354630
  9
$TDUSRTIMER
 40
0.0000354630
  9
$USRTIMER
 70
     1
  9
$ANGBASE
 50
0.0
  9
$ANGDIR
 70
     0
  9
$PDMODE
 70
     0
  9
$PDSIZE
 40
0.0
  9
$PLINEWID
 40
0.0
  9
$SPLFRAME
 70
     0
  9
$SPLINETYPE
 70
     6
  9
$SPLINESEGS
 70
     8
  9
$HANDSEED
  5
C8D
  9
$SURFTAB1
 70
     6
  9
$SURFTAB2
 70
     6
  9
$SURFTYPE
 70
     6
  9
$SURFU
 70
     6
  9
$SURFV
 70
     6
  9
$UCSBASE
  2

  9
$UCSNAME
  2

  9
$UCSORG
 10
0.0
 20
0.0
 30
0.0
  9
$UCSXDIR
 10
1.0
 20
0.0
 30
0.0
  9
$UCSYDIR
 10
0.0
 20
1.0
 30
0.0
  9
$UCSORTHOREF
  2

  9
$UCSORTHOVIEW
 70
     0
  9
$UCSORGTOP
 10
0.0
 20
0.0
 30
0.0
  9
$UCSORGBOTTOM
 10
0.0
 20
0.0
 30
0.0
  9
$UCSORGLEFT
 10
0.0
 20
0.0
 30
0.0
  9
$UCSORGRIGHT
 10
0.0
 20
0.0
 30
0.0
  9
$UCSORGFRONT
 10
0.0
 20
0.0
 30
0.0
  9
$UCSORGBACK
 10
0.0
 20
0.0
 30
0.0
  9
$PUCSBASE
  2

  9
$PUCSNAME
  2

  9
$PUCSORG
 10
0.0
 20
0.0
 30
0.0
  9
$PUCSXDIR
 10
1.0
 20
0.0
 30
0.0
  9
$PUCSYDIR
 10
0.0
 20
1.0
 30
0.0
  9
$PUCSORTHOREF
  2

  9
$PUCSORTHOVIEW
 70
     0
  9
$PUCSORGTOP
 10
0.0
 20
0.0
 30
0.0
  9
$PUCSORGBOTTOM
 10
0.0
 20
0.0
 30
0.0
  9
$PUCSORGLEFT
 10
0.0
 20
0.0
 30
0.0
  9
$PUCSORGRIGHT
 10
0.0
 20
0.0
 30
0.0
  9
$PUCSORGFRONT
 10
0.0
 20
0.0
 30
0.0
  9
$PUCSORGBACK
 10
0.0
 20
0.0
 30
0.0
  9
$USERI1
 70
     0
  9
$USERI2
 70
     0
  9
$USERI3
 70
     0
  9
$USERI4
 70
     0
  9
$USERI5
 70
     0
  9
$USERR1
 40
0.0
  9
$USERR2
 40
0.0
  9
$USERR3
 40
0.0
  9
$USERR4
 40
0.0
  9
$USERR5
 40
0.0
  9
$WORLDVIEW
 70
     1
  9
$SHADEDGE
 70
     3
  9
$SHADEDIF
 70
    70
  9
$TILEMODE
 70
     1
  9
$MAXACTVP
 70
    64
  9
$PINSBASE
 10
0.0
 20
0.0
 30
0.0
  9
$PLIMCHECK
 70
     0
  9
$PEXTMIN
 10
0.0
 20
0.0
 30
0.0
  9
$PEXTMAX
 10
56.66666666666667
 20
36.66666666666667
 30
0.0
  9
$PLIMMIN
 10
0.0
 20
0.0
  9
$PLIMMAX
 10
56.66666666666667
 20
36.66666666666667
  9
$UNITMODE
 70
     0
  9
$VISRETAIN
 70
     1
  9
$PLINEGEN
 70
     0
  9
$PSLTSCALE
 70
     1
  9
$TREEDEPTH
 70
  3020
  9
$CMLSTYLE
  2
Standard
  9
$CMLJUST
 70
     0
  9
$CMLSCALE
 40
1.0
  9
$PROXYGRAPHICS
 70
     1
  9
$MEASUREMENT
 70
     0
  9
$CELWEIGHT
370
    -1
  9
$ENDCAPS
280
     0
  9
$JOINSTYLE
280
     0
  9
$LWDISPLAY
290
     0
  9
$INSUNITS
 70
     1
  9
$HYPERLINKBASE
  1

  9
$STYLESHEET
  1

  9
$XEDIT
290
     1
  9
$CEPSNTYPE
380
     0
  9
$PSTYLEMODE
290
     1
  9
$FINGERPRINTGUID
  2
{9E8A707C-5D98-4AC7-B4C4-B854FF3C365F}
  9
$VERSIONGUID
  2
{DFDE2578-F75F-4B65-A776-44B05EE14BB9}
  9
$EXTNAMES
290
     1
  9
$PSVPSCALE
 40
0.0
  9
$OLESTARTUP
290
     0
  0
ENDSEC
  0
SECTION
  2
CLASSES
  0
CLASS
  1
ACDBDICTIONARYWDFLT
  2
AcDbDictionaryWithDefault
  3
ObjectDBX Classes
 90
        0
280
     0
281
     0
  0
CLASS
  1
MATERIAL
  2
AcDbMaterial
  3
ObjectDBX Classes
 90
     1153
280
     0
281
     0
  0
CLASS
  1
VISUALSTYLE
  2
AcDbVisualStyle
  3
ObjectDBX Classes
 90
     4095
280
     0
281
     0
  0
CLASS
  1
SCALE
  2
AcDbScale
  3
ObjectDBX Classes
 90
     1153
280
     0
281
     0
  0
CLASS
  1
TABLESTYLE
  2
AcDbTableStyle
  3
ObjectDBX Classes
 90
     4095
280
     0
281
     0
  0
CLASS
  1
MLEADERSTYLE
  2
AcDbMLeaderStyle
  3
ACDB_MLEADERSTYLE_CLASS
 90
     4095
280
     0
281
     0
  0
CLASS
  1
DICTIONARYVAR
  2
AcDbDictionaryVar
  3
ObjectDBX Classes
 90
        0
280
     0
281
     0
  0
CLASS
  1
CELLSTYLEMAP
  2
AcDbCellStyleMap
  3
ObjectDBX Classes
 90
     1152
280
     0
281
     0
  0
CLASS
  1
ACDBPLACEHOLDER
  2
AcDbPlaceHolder
  3
ObjectDBX Classes
 90
        0
280
     0
281
     0
  0
CLASS
  1
LAYOUT
  2
AcDbLayout
  3
ObjectDBX Classes
 90
        0
280
     0
281
     0
  0
ENDSEC
  0
SECTION
  2
TABLES
  0
TABLE
  2
VPORT
  5
8
330
0
100
AcDbSymbolTable
 70
     1
  0
VPORT
  5
57
330
8
100
AcDbSymbolTableRecord
100
AcDbViewportTableRecord
  2
*Active
 70
     0
 10
0.0
 20
0.0
 11
1.0
 21
1.0
 12
28.33333333333334
 22
18.33333333333333
 13
0.0
 23
0.0
 14
1.0
 24
1.0
 15
0.0
 25
0.0
 16
0.0
 26
0.0
 36
1.0
 17
0.0
 27
0.0
 37
0.0
 40
36.66666666666667
 41
1.545454545454545
 42
50.0
 43
0.0
 44
0.0
 50
0.0
 51
0.0
 71
     0
 72
   100
 73
     1
 74
     1
 75
     0
 76
     0
 77
     0
 78
     0
281
     0
 65
     1
110
0.0
120
0.0
130
0.0
111
1.0
121
0.0
131
0.0
112
0.0
122
1.0
132
0.0
 79
     0
146
0.0
  0
ENDTAB
  0
TABLE
  2
LTYPE
  5
5
330
0
100
AcDbSymbolTable
 70
    59
  0
LTYPE
  5
5B
330
5
100
AcDbSymbolTableRecord
100
AcDbLinetypeTableRecord
  2
ByBlock
 70
     0
  3

 72
    65
 73
     0
 40
0.0
  0
LTYPE
  5
5C
330
5
100
AcDbSymbolTableRecord
100
AcDbLinetypeTableRecord
  2
ByLayer
 70
     0
  3

 72
    65
 73
     0
 40
0.0
  0
LTYPE
  5
5D
330
5
100
AcDbSymbolTableRecord
100
AcDbLinetypeTableRecord
  2
Continuous
 70
     0
  3
Solid line
 72
    65
 73
     0
 40
0.0
  0
LTYPE
  5
7C
330
5
100
AcDbSymbolTableRecord
100
AcDbLinetypeTableRecord
  2
BY_STANDARD
 70
     0
  3
By Standard ____________    ____    ____   _
 72
    65
 73
     6
 40
1.240299999999999
 49
0.6614
 74
     0
 49
-0.0827
 74
     0
 49
0.1654
 74
     0
 49
-0.0827
 74
     0
 49
0.1654
 74
     0
 49
-0.0827
 74
     0
  0
LTYPE
  5
7D
330
5
100
AcDbSymbolTableRecord
100
AcDbLinetypeTableRecord
  2
CHAIN
 70
     0
  3
Chain ____ _ ____ _ ____ _ ____ _ ____ _ ____
 72
    65
 73
     4
 40
0.7087
 49
0.4724000000000001
 74
     0
 49
-0.0591
 74
     0
 49
0.1181
 74
     0
 49
-0.0591
 74
     0
  0
LTYPE
  5
7E
330
5
100
AcDbSymbolTableRecord
100
AcDbLinetypeTableRecord
  2
DASH_DOT
 70
     0
  3
Dash dot __ . __ . __ . __ . __ . __ . __ . __
 72
    65
 73
     4
 40
0.37
 49
0.24
 74
     0
 49
-0.06
 74
     0
 49
0.01
 74
     0
 49
-0.06
 74
     0
  0
LTYPE
  5
7F
330
5
100
AcDbSymbolTableRecord
100
AcDbLinetypeTableRecord
  2
DOUBLE_DASH_DOT
 70
     0
  3
Double-Dash Dot __ __ . __ __ . __ __ . __ _
 72
    65
 73
     6
 40
0.4398
 49
0.24
 74
     0
 49
-0.06
 74
     0
 49
0.0098
 74
     0
 49
-0.06
 74
     0
 49
0.01
 74
     0
 49
-0.06
 74
     0
  0
LTYPE
  5
80
330
5
100
AcDbSymbolTableRecord
100
AcDbLinetypeTableRecord
  2
DASH_TRIPLE_DOT
 70
     0
  3
Dash Triple-Dot _ . . . _ . . . _ . . . _
 72
    65
 73
     8
 40
0.51
 49
0.24
 74
     0
 49
-0.06
 74
     0
 49
0.01
 74
     0
 49
-0.06
 74
     0
 49
0.01
 74
     0
 49
-0.06
 74
     0
 49
0.01
 74
     0
 49
-0.06
 74
     0
  0
LTYPE
  5
81
330
5
100
AcDbSymbolTableRecord
100
AcDbLinetypeTableRecord
  2
DASHED
 70
     0
  3
Dashed __ __ __ __ __ __ __ __ __ __ __ __ __ _
 72
    65
 73
     2
 40
0.2067
 49
0.1654
 74
     0
 49
-0.0413
 74
     0
  0
LTYPE
  5
82
330
5
100
AcDbSymbolTableRecord
100
AcDbLinetypeTableRecord
  2
DASH_DOUBLE_DOT
 70
     0
  3
Dash Double-Dot __ . . __ . . __ . . __ . .
 72
    65
 73
     6
 40
0.4398
 49
0.24
 74
     0
 49
-0.06
 74
     0
 49
0.0098
 74
     0
 49
-0.06
 74
     0
 49
0.01
 74
     0
 49
-0.06
 74
     0
  0
LTYPE
  5
83
330
5
100
AcDbSymbolTableRecord
100
AcDbLinetypeTableRecord
  2
DASHED_SPACE
 70
     0
  3
Dashed Space __ __ __ __ __ __ __ __ __ __ __ _
 72
    65
 73
     2
 40
0.2067
 49
0.1654
 74
     0
 49
-0.0413
 74
     0
  0
LTYPE
  5
84
330
5
100
AcDbSymbolTableRecord
100
AcDbLinetypeTableRecord
  2
DOTTED
 70
     0
  3
Dotted . . . . . . . . . . . . . . . . . . . . 
 72
    65
 73
     2
 40
0.0482
 49
0.0069
 74
     0
 49
-0.0413
 74
     0
  0
LTYPE
  5
85
330
5
100
AcDbSymbolTableRecord
100
AcDbLinetypeTableRecord
  2
DOUBLE_DASH_CHAIN
 70
     0
  3
Double-Dash Chain ______  __  __  ______  __  _
 72
    65
 73
     6
 40
1.240299999999999
 49
0.6614
 74
     0
 49
-0.0827
 74
     0
 49
0.1654
 74
     0
 49
-0.0827
 74
     0
 49
0.1654
 74
     0
 49
-0.0827
 74
     0
  0
LTYPE
  5
87
330
5
100
AcDbSymbolTableRecord
100
AcDbLinetypeTableRecord
  2
DOUBLE_DASH_DOUBLE_DOT
 70
     0
  3
Double-Dash Double-dot _ _ . . _ _ . . _
 72
    65
 73
     8
 40
0.7400000000000001
 49
0.24
 74
     0
 49
-0.06
 74
     0
 49
0.24
 74
     0
 49
-0.06
 74
     0
 49
0.01
 74
     0
 49
-0.06
 74
     0
 49
0.01
 74
     0
 49
-0.06
 74
     0
  0
LTYPE
  5
88
330
5
100
AcDbSymbolTableRecord
100
AcDbLinetypeTableRecord
  2
DOUBLE_DASH_TRIPLE_DOT
 70
     0
  3
Double Dash Triple Dot __ __ . . . __ __ . .
 72
    65
 73
    10
 40
0.8100000000000001
 49
0.24
 74
     0
 49
-0.06
 74
     0
 49
0.24
 74
     0
 49
-0.06
 74
     0
 49
0.01
 74
     0
 49
-0.06
 74
     0
 49
0.01
 74
     0
 49
-0.06
 74
     0
 49
0.01
 74
     0
 49
-0.06
 74
     0
  0
LTYPE
  5
89
330
5
100
AcDbSymbolTableRecord
100
AcDbLinetypeTableRecord
  2
LONG_DASH_DOTTED
 70
     0
  3
Long Dash Dotted ____ . ____ . ____ . ____ . _
 72
    65
 73
     4
 40
0.3543
 49
0.2362
 74
     0
 49
-0.0295
 74
     0
 49
0.0591
 74
     0
 49
-0.0295
 74
     0
  0
LTYPE
  5
8A
330
5
100
AcDbSymbolTableRecord
100
AcDbLinetypeTableRecord
  2
LONG_DASH_DOUBLE_DOT
 70
     0
  3
Long Dash Double Dot ________  .  .  ________  
 72
    65
 73
     6
 40
0.6799999999999999
 49
0.48
 74
     0
 49
-0.06
 74
     0
 49
0.01
 74
     0
 49
-0.06
 74
     0
 49
0.01
 74
     0
 49
-0.06
 74
     0
  0
LTYPE
  5
8B
330
5
100
AcDbSymbolTableRecord
100
AcDbLinetypeTableRecord
  2
LONG_DASH_TRIPLE_DOT
 70
     0
  3
Long Dash Triple Dot ____ ... ____ ... ____
 72
    65
 73
     8
 40
0.3689
 49
0.2362
 74
     0
 49
-0.0295
 74
     0
 49
0.0049
 74
     0
 49
-0.0295
 74
     0
 49
0.0049
 74
     0
 49
-0.0295
 74
     0
 49
0.0049
 74
     0
 49
-0.0295
 74
     0
  0
LTYPE
  5
8C
330
5
100
AcDbSymbolTableRecord
100
AcDbLinetypeTableRecord
  2
BORDER
 70
     0
  3
Border __ __ . __ __ . __ __ . __ __ . __ __ .
 72
    65
 73
     6
 40
1.75
 49
0.5
 74
     0
 49
-0.25
 74
     0
 49
0.5
 74
     0
 49
-0.25
 74
     0
 49
0.0
 74
     0
 49
-0.25
 74
     0
  0
LTYPE
  5
8D
330
5
100
AcDbSymbolTableRecord
100
AcDbLinetypeTableRecord
  2
BORDER2
 70
     0
  3
Border (.5x) __.__.__.__.__.__.__.__.__.__.__.
 72
    65
 73
     6
 40
0.875
 49
0.25
 74
     0
 49
-0.125
 74
     0
 49
0.25
 74
     0
 49
-0.125
 74
     0
 49
0.0
 74
     0
 49
-0.125
 74
     0
  0
LTYPE
  5
8E
330
5
100
AcDbSymbolTableRecord
100
AcDbLinetypeTableRecord
  2
BORDERX2
 70
     0
  3
Border (2x) ____  ____  .  ____  ____  .  ___
 72
    65
 73
     6
 40
3.5
 49
1.0
 74
     0
 49
-0.5
 74
     0
 49
1.0
 74
     0
 49
-0.5
 74
     0
 49
0.0
 74
     0
 49
-0.5
 74
     0
  0
LTYPE
  5
8F
330
5
100
AcDbSymbolTableRecord
100
AcDbLinetypeTableRecord
  2
CENTER
 70
     0
  3
Center ____ _ ____ _ ____ _ ____ _ ____ _ ____
 72
    65
 73
     4
 40
2.0
 49
1.25
 74
     0
 49
-0.25
 74
     0
 49
0.25
 74
     0
 49
-0.25
 74
     0
  0
LTYPE
  5
90
330
5
100
AcDbSymbolTableRecord
100
AcDbLinetypeTableRecord
  2
CENTER2
 70
     0
  3
Center (.5x) ___ _ ___ _ ___ _ ___ _ ___ _ ___
 72
    65
 73
     4
 40
1.125
 49
0.75
 74
     0
 49
-0.125
 74
     0
 49
0.125
 74
     0
 49
-0.125
 74
     0
  0
LTYPE
  5
91
330
5
100
AcDbSymbolTableRecord
100
AcDbLinetypeTableRecord
  2
CENTERX2
 70
     0
  3
Center (2x) ________  __  ________  __  _____
 72
    65
 73
     4
 40
4.0
 49
2.5
 74
     0
 49
-0.5
 74
     0
 49
0.5
 74
     0
 49
-0.5
 74
     0
  0
LTYPE
  5
92
330
5
100
AcDbSymbolTableRecord
100
AcDbLinetypeTableRecord
  2
DASHDOT2
 70
     0
  3
Dash dot (.5x) _._._._._._._._._._._._._._._.
 72
    65
 73
     4
 40
0.5
 49
0.25
 74
     0
 49
-0.125
 74
     0
 49
0.0
 74
     0
 49
-0.125
 74
     0
  0
LTYPE
  5
93
330
5
100
AcDbSymbolTableRecord
100
AcDbLinetypeTableRecord
  2
DASHDOTX2
 70
     0
  3
Dash dot (2x) ____  .  ____  .  ____  .  ___
 72
    65
 73
     4
 40
2.0
 49
1.0
 74
     0
 49
-0.5
 74
     0
 49
0.0
 74
     0
 49
-0.5
 74
     0
  0
LTYPE
  5
95
330
5
100
AcDbSymbolTableRecord
100
AcDbLinetypeTableRecord
  2
DASHED2
 70
     0
  3
Dashed (.5x) _ _ _ _ _ _ _ _ _ _ _ _ _ _ _ _ _
 72
    65
 73
     2
 40
0.375
 49
0.25
 74
     0
 49
-0.125
 74
     0
  0
LTYPE
  5
96
330
5
100
AcDbSymbolTableRecord
100
AcDbLinetypeTableRecord
  2
DASHEDX2
 70
     0
  3
Dashed (2x) ____  ____  ____  ____  ____  ___
 72
    65
 73
     2
 40
1.5
 49
1.0
 74
     0
 49
-0.5
 74
     0
  0
LTYPE
  5
97
330
5
100
AcDbSymbolTableRecord
100
AcDbLinetypeTableRecord
  2
DIVIDE
 70
     0
  3
Divide ____ . . ____ . . ____ . . ____ . . ____
 72
    65
 73
     6
 40
1.25
 49
0.5
 74
     0
 49
-0.25
 74
     0
 49
0.0
 74
     0
 49
-0.25
 74
     0
 49
0.0
 74
     0
 49
-0.25
 74
     0
  0
LTYPE
  5
98
330
5
100
AcDbSymbolTableRecord
100
AcDbLinetypeTableRecord
  2
DIVIDE2
 70
     0
  3
Divide (.5x) __..__..__..__..__..__..__..__.._
 72
    65
 73
     6
 40
0.625
 49
0.25
 74
     0
 49
-0.125
 74
     0
 49
0.0
 74
     0
 49
-0.125
 74
     0
 49
0.0
 74
     0
 49
-0.125
 74
     0
  0
LTYPE
  5
99
330
5
100
AcDbSymbolTableRecord
100
AcDbLinetypeTableRecord
  2
DIVIDEX2
 70
     0
  3
Divide (2x) ________  .  .  ________  .  .  _
 72
    65
 73
     6
 40
2.5
 49
1.0
 74
     0
 49
-0.5
 74
     0
 49
0.0
 74
     0
 49
-0.5
 74
     0
 49
0.0
 74
     0
 49
-0.5
 74
     0
  0
LTYPE
  5
9A
330
5
100
AcDbSymbolTableRecord
100
AcDbLinetypeTableRecord
  2
DOT
 70
     0
  3
Dot . . . . . . . . . . . . . . . . . . . . . .
 72
    65
 73
     2
 40
0.25
 49
0.0
 74
     0
 49
-0.25
 74
     0
  0
LTYPE
  5
9B
330
5
100
AcDbSymbolTableRecord
100
AcDbLinetypeTableRecord
  2
DOT2
 70
     0
  3
Dot (.5x) .....................................
 72
    65
 73
     2
 40
0.125
 49
0.0
 74
     0
 49
-0.125
 74
     0
  0
LTYPE
  5
9C
330
5
100
AcDbSymbolTableRecord
100
AcDbLinetypeTableRecord
  2
DOTX2
 70
     0
  3
Dot (2x) .  .  .  .  .  .  .  .  .  .  .  .  . 
 72
    65
 73
     2
 40
0.5
 49
0.0
 74
     0
 49
-0.5
 74
     0
  0
LTYPE
  5
9D
330
5
100
AcDbSymbolTableRecord
100
AcDbLinetypeTableRecord
  2
HIDDEN
 70
     0
  3
Hidden __ __ __ __ __ __ __ __ __ __ __ __ __ _
 72
    65
 73
     2
 40
0.375
 49
0.25
 74
     0
 49
-0.125
 74
     0
  0
LTYPE
  5
9E
330
5
100
AcDbSymbolTableRecord
100
AcDbLinetypeTableRecord
  2
HIDDEN2
 70
     0
  3
Hidden (.5x) _ _ _ _ _ _ _ _ _ _ _ _ _ _ _ _ _
 72
    65
 73
     2
 40
0.1875
 49
0.125
 74
     0
 49
-0.0625
 74
     0
  0
LTYPE
  5
9F
330
5
100
AcDbSymbolTableRecord
100
AcDbLinetypeTableRecord
  2
HIDDENX2
 70
     0
  3
Hidden (2x) ____ ____ ____ ____ ____ ____ ____
 72
    65
 73
     2
 40
0.75
 49
0.5
 74
     0
 49
-0.25
 74
     0
  0
LTYPE
  5
A0
330
5
100
AcDbSymbolTableRecord
100
AcDbLinetypeTableRecord
  2
PHANTOM
 70
     0
  3
Phantom ______  __  __  ______  __  __  ______
 72
    65
 73
     6
 40
2.5
 49
1.25
 74
     0
 49
-0.25
 74
     0
 49
0.25
 74
     0
 49
-0.25
 74
     0
 49
0.25
 74
     0
 49
-0.25
 74
     0
  0
LTYPE
  5
A1
330
5
100
AcDbSymbolTableRecord
100
AcDbLinetypeTableRecord
  2
PHANTOM2
 70
     0
  3
Phantom (.5x) ___ _ _ ___ _ _ ___ _ _ ___ _ _
 72
    65
 73
     6
 40
1.25
 49
0.625
 74
     0
 49
-0.125
 74
     0
 49
0.125
 74
     0
 49
-0.125
 74
     0
 49
0.125
 74
     0
 49
-0.125
 74
     0
  0
LTYPE
  5
A2
330
5
100
AcDbSymbolTableRecord
100
AcDbLinetypeTableRecord
  2
PHANTOMX2
 70
     0
  3
Phantom (2x) ____________    ____    ____   _
 72
    65
 73
     6
 40
5.0
 49
2.5
 74
     0
 49
-0.5
 74
     0
 49
0.5
 74
     0
 49
-0.5
 74
     0
 49
0.5
 74
     0
 49
-0.5
 74
     0
  0
LTYPE
  5
A3
330
5
100
AcDbSymbolTableRecord
100
AcDbLinetypeTableRecord
  2
ACAD_ISO02W100
 70
     0
  3
ISO dash __ __ __ __ __ __ __ __ __ __ __ __ __
 72
    65
 73
     2
 40
0.59
 49
0.47
 74
     0
 49
-0.12
 74
     0
  0
LTYPE
  5
A4
330
5
100
AcDbSymbolTableRecord
100
AcDbLinetypeTableRecord
  2
ACAD_ISO03W100
 70
     0
  3
ISO dash space __    __    __    __    __    __
 72
    65
 73
     2
 40
1.179999999999999
 49
0.47
 74
     0
 49
-0.71
 74
     0
  0
LTYPE
  5
A5
330
5
100
AcDbSymbolTableRecord
100
AcDbLinetypeTableRecord
  2
ACAD_ISO04W100
 70
     0
  3
ISO long-dash dot ____ . ____ . ____ . ____ . _
 72
    65
 73
     4
 40
1.179999999999999
 49
0.9399999999999998
 74
     0
 49
-0.12
 74
     0
 49
0.0
 74
     0
 49
-0.12
 74
     0
  0
LTYPE
  5
A6
330
5
100
AcDbSymbolTableRecord
100
AcDbLinetypeTableRecord
  2
ACAD_ISO05W100
 70
     0
  3
ISO long-dash double-dot ____ .. ____ .. ____ .
 72
    65
 73
     6
 40
1.299999999999999
 49
0.9399999999999998
 74
     0
 49
-0.12
 74
     0
 49
0.0
 74
     0
 49
-0.12
 74
     0
 49
0.0
 74
     0
 49
-0.12
 74
     0
  0
LTYPE
  5
A7
330
5
100
AcDbSymbolTableRecord
100
AcDbLinetypeTableRecord
  2
ACAD_ISO06W100
 70
     0
  3
ISO long-dash triple-dot ____ ... ____ ... ____
 72
    65
 73
     8
 40
1.419999999999999
 49
0.9399999999999998
 74
     0
 49
-0.12
 74
     0
 49
0.0
 74
     0
 49
-0.12
 74
     0
 49
0.0
 74
     0
 49
-0.12
 74
     0
 49
0.0
 74
     0
 49
-0.12
 74
     0
  0
LTYPE
  5
A8
330
5
100
AcDbSymbolTableRecord
100
AcDbLinetypeTableRecord
  2
ACAD_ISO07W100
 70
     0
  3
ISO dot . . . . . . . . . . . . . . . . . . . .
 72
    65
 73
     2
 40
0.12
 49
0.0
 74
     0
 49
-0.12
 74
     0
  0
LTYPE
  5
A9
330
5
100
AcDbSymbolTableRecord
100
AcDbLinetypeTableRecord
  2
ACAD_ISO08W100
 70
     0
  3
ISO long-dash short-dash ____ __ ____ __ ____ _
 72
    65
 73
     4
 40
0.95
 49
0.47
 74
     0
 49
-0.12
 74
     0
 49
0.24
 74
     0
 49
-0.12
 74
     0
  0
LTYPE
  5
AA
330
5
100
AcDbSymbolTableRecord
100
AcDbLinetypeTableRecord
  2
ACAD_ISO09W100
 70
     0
  3
ISO long-dash double-short-dash ____ __ __ ____
 72
    65
 73
     6
 40
1.31
 49
0.47
 74
     0
 49
-0.12
 74
     0
 49
0.24
 74
     0
 49
-0.12
 74
     0
 49
0.24
 74
     0
 49
-0.12
 74
     0
  0
LTYPE
  5
AB
330
5
100
AcDbSymbolTableRecord
100
AcDbLinetypeTableRecord
  2
ACAD_ISO10W100
 70
     0
  3
ISO dash dot __ . __ . __ . __ . __ . __ . __ .
 72
    65
 73
     4
 40
0.71
 49
0.47
 74
     0
 49
-0.12
 74
     0
 49
0.0
 74
     0
 49
-0.12
 74
     0
  0
LTYPE
  5
AC
330
5
100
AcDbSymbolTableRecord
100
AcDbLinetypeTableRecord
  2
ACAD_ISO11W100
 70
     0
  3
ISO double-dash dot __ __ . __ __ . __ __ . __ 
 72
    65
 73
     6
 40
1.299999999999999
 49
0.47
 74
     0
 49
-0.12
 74
     0
 49
0.47
 74
     0
 49
-0.12
 74
     0
 49
0.0
 74
     0
 49
-0.12
 74
     0
  0
LTYPE
  5
AD
330
5
100
AcDbSymbolTableRecord
100
AcDbLinetypeTableRecord
  2
ACAD_ISO12W100
 70
     0
  3
ISO dash double-dot __ . . __ . . __ . . __ . .
 72
    65
 73
     6
 40
0.8299999999999998
 49
0.47
 74
     0
 49
-0.12
 74
     0
 49
0.0
 74
     0
 49
-0.12
 74
     0
 49
0.0
 74
     0
 49
-0.12
 74
     0
  0
LTYPE
  5
AE
330
5
100
AcDbSymbolTableRecord
100
AcDbLinetypeTableRecord
  2
ACAD_ISO13W100
 70
     0
  3
ISO double-dash double-dot __ __ . . __ __ . . 
 72
    65
 73
     8
 40
1.419999999999999
 49
0.47
 74
     0
 49
-0.12
 74
     0
 49
0.47
 74
     0
 49
-0.12
 74
     0
 49
0.0
 74
     0
 49
-0.12
 74
     0
 49
0.0
 74
     0
 49
-0.12
 74
     0
  0
LTYPE
  5
AF
330
5
100
AcDbSymbolTableRecord
100
AcDbLinetypeTableRecord
  2
ACAD_ISO14W100
 70
     0
  3
ISO dash triple-dot __ . . . __ . . . __ . . . 
 72
    65
 73
     8
 40
0.95
 49
0.47
 74
     0
 49
-0.12
 74
     0
 49
0.0
 74
     0
 49
-0.12
 74
     0
 49
0.0
 74
     0
 49
-0.12
 74
     0
 49
0.0
 74
     0
 49
-0.12
 74
     0
  0
LTYPE
  5
B0
330
5
100
AcDbSymbolTableRecord
100
AcDbLinetypeTableRecord
  2
ACAD_ISO15W100
 70
     0
  3
ISO double-dash triple-dot __ __ . . . __ __ . 
 72
    65
 73
    10
 40
1.539999999999999
 49
0.47
 74
     0
 49
-0.12
 74
     0
 49
0.47
 74
     0
 49
-0.12
 74
     0
 49
0.0
 74
     0
 49
-0.12
 74
     0
 49
0.0
 74
     0
 49
-0.12
 74
     0
 49
0.0
 74
     0
 49
-0.12
 74
     0
  0
LTYPE
  5
B3
330
5
100
AcDbSymbolTableRecord
100
AcDbLinetypeTableRecord
  2
FENCELINE1
 70
     0
  3
Fenceline circle ----0-----0----0-----0----0---
 72
    65
 73
     4
 40
1.45
 49
0.25
 74
     0
 49
-0.1
 74
     4
 75
   133
340
B2
 46
0.1
 50
0.0
 44
-0.1
 45
0.0
 49
-0.1
 74
     0
 49
1.0
 74
     0
  0
LTYPE
  5
B4
330
5
100
AcDbSymbolTableRecord
100
AcDbLinetypeTableRecord
  2
FENCELINE2
 70
     0
  3
Fenceline square ----[]-----[]----[]-----[]----
 72
    65
 73
     4
 40
1.45
 49
0.25
 74
     0
 49
-0.1
 74
     4
 75
   132
340
B2
 46
0.1
 50
0.0
 44
-0.1
 45
0.0
 49
-0.1
 74
     0
 49
1.0
 74
     0
  0
LTYPE
  5
B5
330
5
100
AcDbSymbolTableRecord
100
AcDbLinetypeTableRecord
  2
TRACKS
 70
     0
  3
Tracks -|-|-|-|-|-|-|-|-|-|-|-|-|-|-|-|-|-|-|-|
 72
    65
 73
     2
 40
0.3
 49
0.15
 74
     4
 75
   130
340
B2
 46
0.25
 50
0.0
 44
0.0
 45
0.0
 49
0.15
 74
     0
  0
LTYPE
  5
B6
330
5
100
AcDbSymbolTableRecord
100
AcDbLinetypeTableRecord
  2
BATTING
 70
     0
  3
Batting SSSSSSSSSSSSSSSSSSSSSSSSSSSSSSSSSSSSSSS
 72
    65
 73
     4
 40
0.4001000000000001
 49
0.0001
 74
     0
 49
-0.1
 74
     4
 75
   134
340
B2
 46
0.1
 50
0.0
 44
-0.1
 45
0.0
 49
-0.2
 74
     4
 75
   134
340
B2
 46
0.1
 50
180.0
 44
0.1
 45
0.0
 49
-0.1
 74
     0
  0
LTYPE
  5
B7
330
5
100
AcDbSymbolTableRecord
100
AcDbLinetypeTableRecord
  2
HOT_WATER_SUPPLY
 70
     0
  3
Hot water supply ---- HW ---- HW ---- HW ----
 72
    65
 73
     3
 40
0.9
 49
0.5
 74
     0
 49
-0.2
 74
     2
 75
     0
340
55
 46
0.1
 50
0.0
 44
-0.1
 45
-0.05
  9
HW
 49
-0.2
 74
     0
  0
LTYPE
  5
B8
330
5
100
AcDbSymbolTableRecord
100
AcDbLinetypeTableRecord
  2
GAS_LINE
 70
     0
  3
Gas line ----GAS----GAS----GAS----GAS----GAS---
 72
    65
 73
     3
 40
0.95
 49
0.5
 74
     0
 49
-0.2
 74
     2
 75
     0
340
55
 46
0.1
 50
0.0
 44
-0.1
 45
-0.05
  9
GAS
 49
-0.25
 74
     0
  0
LTYPE
  5
B9
330
5
100
AcDbSymbolTableRecord
100
AcDbLinetypeTableRecord
  2
ZIGZAG
 70
     0
  3
Zig zag /\/\/\/\/\/\/\/\/\/\/\/\/\/\/\/\/\/\/\/
 72
    65
 73
     4
 40
0.8001000000000001
 49
0.0001
 74
     0
 49
-0.2
 74
     4
 75
   131
340
B2
 46
0.2
 50
0.0
 44
-0.2
 45
0.0
 49
-0.4
 74
     4
 75
   131
340
B2
 46
0.2
 50
180.0
 44
0.2
 45
0.0
 49
-0.2
 74
     0
  0
ENDTAB
  0
TABLE
  2
LAYER
  5
2
330
0
100
AcDbSymbolTable
 70
    27
  0
LAYER
  5
54
330
2
100
AcDbSymbolTableRecord
100
AcDbLayerTableRecord
  2
0
 70
     0
 62
     7
  6
Continuous
370
    18
390
F
  0
LAYER
  5
C3
330
2
100
AcDbSymbolTableRecord
100
AcDbLayerTableRecord
  2
Dimension (ANSI)
 70
     0
 62
     7
  6
Continuous
370
    13
390
F
  0
LAYER
  5
C5
330
2
100
AcDbSymbolTableRecord
100
AcDbLayerTableRecord
  2
Hidden (ANSI)
 70
     0
 62
     7
  6
DASHED
370
    15
390
F
  0
LAYER
  5
CC
330
2
100
AcDbSymbolTableRecord
100
AcDbLayerTableRecord
  2
Symbol (ANSI)
 70
     0
 62
     7
  6
Continuous
370
    18
390
F
  0
LAYER
  5
CF
330
2
100
AcDbSymbolTableRecord
100
AcDbLayerTableRecord
  2
Visible (ANSI)
 70
     0
 62
     7
  6
Continuous
370
    13
390
F
  0
LAYER
  5
160
330
2
100
AcDbSymbolTableRecord
100
AcDbLayerTableRecord
  2
Defpoints
 70
     0
 62
     7
  6
Continuous
290
     0
370
    -3
390
F
  0
ENDTAB
  0
TABLE
  2
STYLE
  5
3
330
0
100
AcDbSymbolTable
 70
    17
  0
STYLE
  5
55
330
3
100
AcDbSymbolTableRecord
100
AcDbTextStyleTableRecord
  2
Standard
 70
     0
 40
0.0
 41
1.0
 50
0.0
 71
     0
 42
0.2
  3
txt
  4

  0
STYLE
  5
5A
330
3
100
AcDbSymbolTableRecord
100
AcDbTextStyleTableRecord
  2
Annotative
 70
     0
 40
0.0
 41
1.0
 50
0.0
 71
     0
 42
0.2
  3
txt
  4

1001
AcadAnnotative
1000
AnnotativeData
1002
{
1070
     1
1070
     1
1002
}
  0
STYLE
  5
B2
330
3
100
AcDbSymbolTableRecord
100
AcDbTextStyleTableRecord
  2

 70
     1
 40
0.0
 41
1.0
 50
0.0
 71
     0
 42
0.2
  3
ltypeshp.shx
  4

  0
STYLE
  5
D4
330
3
100
AcDbSymbolTableRecord
100
AcDbTextStyleTableRecord
  2
ITALICC_120
 70
     0
 40
0.0
 41
1.0
 50
0.0
 71
     0
 42
0.2
  3
italicc.shx
  4

  0
STYLE
  5
D5
330
3
100
AcDbSymbolTableRecord
100
AcDbTextStyleTableRecord
  2
Label Text (ANSI)
 70
     0
 40
0.0
 41
1.0
 50
0.0
 71
     0
 42
0.2
  3
RomanS.shx
  4

  0
STYLE
  5
D6
330
3
100
AcDbSymbolTableRecord
100
AcDbTextStyleTableRecord
  2
Note Text (ANSI)
 70
     0
 40
0.0
 41
1.0
 50
0.0
 71
     0
 42
0.2
  3
RomanS.shx
  4

  0
STYLE
  5
D7
330
3
100
AcDbSymbolTableRecord
100
AcDbTextStyleTableRecord
  2
ROMANS
 70
     0
 40
0.0
 41
1.0
 50
0.0
 71
     0
 42
0.2
  3
romans.shx
  4

  0
STYLE
  5
D8
330
3
100
AcDbSymbolTableRecord
100
AcDbTextStyleTableRecord
  2
SANSSERIF_114
 70
     0
 40
0.0
 41
1.0
 50
0.0
 71
     0
 42
0.2
  3
TAHOMA.TTF
  4

1001
ACAD
1000
Tahoma
1071
      256
  0
STYLE
  5
D9
330
3
100
AcDbSymbolTableRecord
100
AcDbTextStyleTableRecord
  2
SANSSERIF_117
 70
     0
 40
0.0
 41
1.0
 50
0.0
 71
     0
 42
0.2
  3
TAHOMA.TTF
  4

1001
ACAD
1000
Tahoma
1071
      256
  0
STYLE
  5
DA
330
3
100
AcDbSymbolTableRecord
100
AcDbTextStyleTableRecord
  2
STANDARDAM_ANSI
 70
     0
 40
0.0
 41
1.0
 50
0.0
 71
     0
 42
0.2
  3
txt.shx
  4

  0
STYLE
  5
DB
330
3
100
AcDbSymbolTableRecord
100
AcDbTextStyleTableRecord
  2
StandardAM_ANSI$0
 70
     0
 40
0.0
 41
1.0
 50
0.0
 71
     0
 42
0.2
  3
txt.shx
  4

  0
STYLE
  5
DC
330
3
100
AcDbSymbolTableRecord
100
AcDbTextStyleTableRecord
  2
STANDARDAM_ANSI$3
 70
     0
 40
0.0
 41
1.0
 50
0.0
 71
     0
 42
0.2
  3
txt.shx
  4

  0
STYLE
  5
DD
330
3
100
AcDbSymbolTableRecord
100
AcDbTextStyleTableRecord
  2
STANDARDAM_ANSI$4
 70
     0
 40
0.0
 41
1.0
 50
0.0
 71
     0
 42
0.2
  3
txt.shx
  4

  0
STYLE
  5
DE
330
3
100
AcDbSymbolTableRecord
100
AcDbTextStyleTableRecord
  2
STANDARDAM_ANSI$7
 70
     0
 40
0.0
 41
1.0
 50
0.0
 71
     0
 42
0.2
  3
txt.shx
  4

  0
STYLE
  5
DF
330
3
100
AcDbSymbolTableRecord
100
AcDbTextStyleTableRecord
  2
STANDARDAM_ANSI$SF
 70
     0
 40
0.0
 41
1.0
 50
0.0
 71
     0
 42
0.2
  3
txt.shx
  4

  0
STYLE
  5
E0
330
3
100
AcDbSymbolTableRecord
100
AcDbTextStyleTableRecord
  2
STANDARDAM_ANSI$SH
 70
     0
 40
0.0
 41
1.0
 50
0.0
 71
     0
 42
0.2
  3
txt.shx
  4

  0
STYLE
  5
E1
330
3
100
AcDbSymbolTableRecord
100
AcDbTextStyleTableRecord
  2
STANDARDSTANDARD
 70
     0
 40
0.0
 41
1.0
 50
0.0
 71
     0
 42
0.2
  3
txt.shx
  4

  0
ENDTAB
  0
TABLE
  2
VIEW
  5
6
330
0
100
AcDbSymbolTable
 70
     0
  0
ENDTAB
  0
TABLE
  2
UCS
  5
7
330
0
100
AcDbSymbolTable
 70
     0
  0
ENDTAB
  0
TABLE
  2
APPID
  5
9
330
0
100
AcDbSymbolTable
 70
     4
  0
APPID
  5
56
330
9
100
AcDbSymbolTableRecord
100
AcDbRegAppTableRecord
  2
ACAD
 70
     0
  0
APPID
  5
5E
330
9
100
AcDbSymbolTableRecord
100
AcDbRegAppTableRecord
  2
AcadAnnotative
 70
     0
  0
APPID
  5
3CE
330
9
100
AcDbSymbolTableRecord
100
AcDbRegAppTableRecord
  2
ACAD_DSTYLE_DIMRADIAL_EXTENSION
 70
     0
  0
APPID
  5
C82
330
9
100
AcDbSymbolTableRecord
100
AcDbRegAppTableRecord
  2
ACAD_MLEADERVER
 70
     0
  0
ENDTAB
  0
TABLE
  2
DIMSTYLE
  5
A
330
0
100
AcDbSymbolTable
 70
    27
100
AcDbDimStyleTable
 71
     2
340
F6
340
58
  0
DIMSTYLE
105
58
330
A
100
AcDbSymbolTableRecord
100
AcDbDimStyleTableRecord
  2
STANDARD
 70
     0
 41
0.1800000071525573
 42
0.0625
140
0.1800000071525574
144
1.0
147
0.0900000035762787
176
   256
177
   256
178
   256
274
     3
340
55
371
    -1
372
    -1
  0
DIMSTYLE
105
59
330
A
100
AcDbSymbolTableRecord
100
AcDbDimStyleTableRecord
  2
Annotative
 70
     0
340
55
1001
AcadAnnotative
1000
AnnotativeData
1002
{
1070
     1
1070
     1
1002
}
  0
DIMSTYLE
105
E2
330
A
100
AcDbSymbolTableRecord
100
AcDbDimStyleTableRecord
  2
AM_ANSI
 70
     0
  4
 mm
 40
3.333333333333333
 41
0.119999997317791
 42
0.05
 43
0.5
 44
0.1
 45
0.00000001
 78
     4
 79
     2
140
0.1200000047683716
146
0.7099999453624112
147
0.0599999986588955
176
   256
177
   256
178
     2
284
     4
340
DA
371
    -1
372
    -1
  0
DIMSTYLE
105
E3
330
A
100
AcDbSymbolTableRecord
100
AcDbDimStyleTableRecord
  2
AM_ANSI$7
 70
     0
  4
 mm
 40
3.333333333333333
 41
0.119999997317791
 42
0.05
 43
0.5
 44
0.1
 45
0.00000001
 78
     4
 79
     2
140
0.1200000047683716
146
0.7099999453624112
147
0.0599999986588955
176
   256
177
   256
178
     2
284
     4
340
DA
371
    -1
372
    -1
  0
DIMSTYLE
105
E4
330
A
100
AcDbSymbolTableRecord
100
AcDbDimStyleTableRecord
  2
AM_ANSI$0
 70
     0
  4
 mm
 40
3.333333333333333
 41
0.119999997317791
 42
0.05
 43
0.5
 44
0.1
 45
0.00000001
 78
     4
 79
     2
140
0.1200000047683716
146
0.7099999453624112
147
0.0599999986588955
176
   256
177
   256
178
     2
284
     4
340
DB
371
    -1
372
    -1
  0
DIMSTYLE
105
E5
330
A
100
AcDbSymbolTableRecord
100
AcDbDimStyleTableRecord
  2
AM_ANSI$0$7
 70
     0
  4
 mm
 40
3.333333333333333
 41
0.119999997317791
 42
0.05
 43
0.5
 44
0.1
 45
0.00000001
 78
     4
 79
     2
140
0.1200000047683716
146
0.7099999453624112
147
0.0599999986588955
176
   256
177
   256
178
     2
284
     4
340
DB
371
    -1
372
    -1
  0
DIMSTYLE
105
E6
330
A
100
AcDbSymbolTableRecord
100
AcDbDimStyleTableRecord
  2
AM_ANSI$3
 70
     0
  4
 mm
 40
3.333333333333333
 41
0.119999997317791
 42
0.05
 43
0.5
 44
0.1
 45
0.00000001
 78
     4
 79
     2
140
0.1200000047683716
146
0.7099999453624112
147
0.0599999986588955
176
   256
177
   256
178
     2
284
     4
340
DC
371
    -1
372
    -1
  0
DIMSTYLE
105
E7
330
A
100
AcDbSymbolTableRecord
100
AcDbDimStyleTableRecord
  2
AM_ANSI$3$7
 70
     0
  4
 mm
 40
3.333333333333333
 41
0.119999997317791
 42
0.05
 43
0.5
 44
0.1
 45
0.00000001
 78
     4
 79
     2
140
0.1200000047683716
146
0.7099999453624112
147
0.0599999986588955
176
   256
177
   256
178
     2
284
     4
340
DC
371
    -1
372
    -1
  0
DIMSTYLE
105
E8
330
A
100
AcDbSymbolTableRecord
100
AcDbDimStyleTableRecord
  2
AM_ANSI$4
 70
     0
  4
 mm
 40
3.333333333333333
 41
0.119999997317791
 42
0.05
 43
0.5
 44
0.1
 45
0.00000001
 78
     4
 79
     2
140
0.1200000047683716
146
0.7099999453624112
147
0.0599999986588955
176
   256
177
   256
178
     2
284
     4
340
DD
371
    -1
372
    -1
  0
DIMSTYLE
105
E9
330
A
100
AcDbSymbolTableRecord
100
AcDbDimStyleTableRecord
  2
AM_ANSI$4$7
 70
     0
  4
 mm
 40
3.333333333333333
 41
0.119999997317791
 42
0.05
 43
0.5
 44
0.1
 45
0.00000001
 78
     4
 79
     2
140
0.1200000047683716
146
0.7099999453624112
147
0.0599999986588955
176
   256
177
   256
178
     2
284
     4
340
DD
371
    -1
372
    -1
  0
DIMSTYLE
105
EA
330
A
100
AcDbSymbolTableRecord
100
AcDbDimStyleTableRecord
  2
AM_ANSI$SF
 70
     0
  4
 mm
 40
3.333333333333333
 41
0.119999997317791
 42
0.05
 43
0.5
 44
0.1
 45
0.00000001
 75
     1
 76
     1
 78
     4
 79
     2
140
0.1200000047683716
146
0.7099999453624112
147
0.0599999986588955
176
   256
177
   256
178
     2
284
     4
340
DF
371
    -1
372
    -1
  0
DIMSTYLE
105
EB
330
A
100
AcDbSymbolTableRecord
100
AcDbDimStyleTableRecord
  2
AM_ANSI$SF$7
 70
     0
  4
 mm
 40
3.333333333333333
 41
0.119999997317791
 42
0.05
 43
0.5
 44
0.1
 45
0.00000001
 75
     1
 76
     1
 78
     4
 79
     2
140
0.1200000047683716
146
0.7099999453624112
147
0.0599999986588955
176
   256
177
   256
178
     2
284
     4
340
DF
371
    -1
372
    -1
  0
DIMSTYLE
105
EC
330
A
100
AcDbSymbolTableRecord
100
AcDbDimStyleTableRecord
  2
AM_ANSI$SH
 70
     0
  4
 mm
 40
3.333333333333333
 41
0.119999997317791
 42
0.05
 43
0.5
 44
0.1
 45
0.00000001
 75
     1
 76
     1
 78
     4
 79
     2
140
0.1200000047683716
146
0.7099999453624112
147
0.0599999986588955
176
   256
177
   256
178
     2
284
     4
340
E0
371
    -1
372
    -1
  0
DIMSTYLE
105
ED
330
A
100
AcDbSymbolTableRecord
100
AcDbDimStyleTableRecord
  2
AM_ANSI$SH$7
 70
     0
  4
 mm
 40
3.333333333333333
 41
0.119999997317791
 42
0.05
 43
0.5
 44
0.1
 45
0.00000001
 75
     1
 76
     1
 78
     4
 79
     2
140
0.1200000047683716
146
0.7099999453624112
147
0.0599999986588955
176
   256
177
   256
178
     2
284
     4
340
E0
371
    -1
372
    -1
  0
DIMSTYLE
105
EE
330
A
100
AcDbSymbolTableRecord
100
AcDbDimStyleTableRecord
  2
Architectural (ANSI)
 70
     0
 40
3.333333333333333
 41
0.0984251946210861
 43
0.2362204724409449
 44
0.125
 45
0.00000001
 46
0.3937007874015748
 78
     3
 79
     3
140
0.1200000047683716
147
0.031496062992126
171
     1
176
   256
177
   256
178
   256
272
     2
274
     1
276
     2
277
     4
284
    12
285
     4
286
    12
340
D6
371
    -1
372
    -1
  0
DIMSTYLE
105
EF
330
A
100
AcDbSymbolTableRecord
100
AcDbDimStyleTableRecord
  2
Architectural (ANSI)$7
 70
     0
 40
3.333333333333333
 41
0.0984251946210861
 43
0.2362204724409449
 44
0.125
 45
0.00000001
 46
0.3937007874015748
 78
     3
 79
     3
140
0.1200000047683716
147
0.031496062992126
171
     1
176
   256
177
   256
178
   256
272
     2
274
     1
276
     2
277
     4
284
    12
285
     4
286
    12
340
D6
371
    -1
372
    -1
  0
DIMSTYLE
105
F0
330
A
100
AcDbSymbolTableRecord
100
AcDbDimStyleTableRecord
  2
Default - Fraction (ANSI)
 70
     0
 40
3.333333333333333
 41
0.0984251946210861
 43
0.2362204724409449
 44
0.125
 45
0.00000001
 46
0.3937007874015748
 79
     3
140
0.1200000047683716
147
0.031496062992126
171
     1
176
   256
177
   256
178
   256
272
     2
274
     1
276
     2
277
     5
284
    12
285
     4
286
    12
340
D6
371
    -1
372
    -1
  0
DIMSTYLE
105
F1
330
A
100
AcDbSymbolTableRecord
100
AcDbDimStyleTableRecord
  2
Default - Fraction (ANSI)$7
 70
     0
 40
3.333333333333333
 41
0.0984251946210861
 43
0.2362204724409449
 44
0.125
 45
0.00000001
 46
0.3937007874015748
 79
     3
140
0.1200000047683716
147
0.031496062992126
171
     1
176
   256
177
   256
178
   256
272
     2
274
     1
276
     2
277
     5
284
    12
285
     4
286
    12
340
D6
371
    -1
372
    -1
  0
DIMSTYLE
105
F2
330
A
100
AcDbSymbolTableRecord
100
AcDbDimStyleTableRecord
  2
Default - mm (ANSI)
 70
     0
 40
3.333333333333333
 41
0.0984251946210861
 42
0.063
 43
0.2362204724409449
 44
0.125
 45
0.00000001
 46
0.3937007874015748
 73
     0
 78
     4
 79
     1
140
0.1200000047683716
143
1.0
144
25.4
147
0.031496062992126
171
     1
176
   256
177
   256
178
   256
179
     1
271
     2
272
     2
274
     1
284
     4
285
     4
340
D6
371
    -1
372
    -1
  0
DIMSTYLE
105
F3
330
A
100
AcDbSymbolTableRecord
100
AcDbDimStyleTableRecord
  2
Default - mm (ANSI)$7
 70
     0
 40
3.333333333333333
 41
0.0984251946210861
 42
0.063
 43
0.2362204724409449
 44
0.125
 45
0.00000001
 46
0.3937007874015748
 73
     0
 78
     4
 79
     1
140
0.1200000047683716
143
1.0
144
25.4
147
0.031496062992126
171
     1
176
   256
177
   256
178
   256
179
     1
271
     2
272
     2
274
     1
284
     4
285
     4
340
D6
371
    -1
372
    -1
  0
DIMSTYLE
105
F4
330
A
100
AcDbSymbolTableRecord
100
AcDbDimStyleTableRecord
  2
Default - mm [in] (ANSI)
 70
     0
  4
 in
 40
3.333333333333333
 41
0.0984251946210861
 42
0.063
 43
0.25
 44
0.125
 45
0.00000001
 46
0.3937007874015748
 73
     0
 78
     4
 79
     1
140
0.1200000047683716
143
0.03937
144
25.4
147
0.031496062992126
170
     1
171
     3
176
   256
177
   256
178
   256
179
     1
271
     2
272
     2
274
     3
284
     4
285
     4
286
     4
340
D6
371
    -1
372
    -1
  0
DIMSTYLE
105
F5
330
A
100
AcDbSymbolTableRecord
100
AcDbDimStyleTableRecord
  2
Default - mm [in] (ANSI)$7
 70
     0
  4
 in
 40
3.333333333333333
 41
0.0984251946210861
 42
0.063
 43
0.25
 44
0.125
 45
0.00000001
 46
0.3937007874015748
 73
     0
 78
     4
 79
     1
140
0.1200000047683716
143
0.03937
144
25.4
147
0.031496062992126
170
     1
171
     3
176
   256
177
   256
178
   256
179
     1
271
     2
272
     2
274
     3
284
     4
285
     4
286
     4
340
D6
371
    -1
372
    -1
  0
DIMSTYLE
105
F6
102
{ACAD_REACTORS
330
15E
330
24B
330
335
330
3EF
330
4A8
330
597
330
681
330
780
330
86A
330
968
330
A52
330
B3C
102
}
330
A
100
AcDbSymbolTableRecord
100
AcDbDimStyleTableRecord
  2
Default (ANSI)
 70
     0
 40
3.333333333333333
 41
0.0984251946210861
 43
0.2362204724409449
 44
0.125
 45
0.00000001
 46
0.3937007874015748
 79
     1
140
0.1200000047683716
147
0.031496062992126
171
     1
176
   256
177
   256
178
   256
271
     3
272
     2
274
     1
284
     4
285
     4
340
D6
371
    -1
372
    -1
  0
DIMSTYLE
105
F7
330
A
100
AcDbSymbolTableRecord
100
AcDbDimStyleTableRecord
  2
Default (ANSI)$7
 70
     0
 40
3.333333333333333
 41
0.0984251946210861
 43
0.2362204724409449
 44
0.125
 45
0.00000001
 46
0.3937007874015748
 79
     1
140
0.1200000047683716
147
0.031496062992126
171
     1
176
   256
177
   256
178
   256
271
     3
272
     2
274
     1
284
     4
285
     4
340
D6
371
    -1
372
    -1
  0
DIMSTYLE
105
F8
330
A
100
AcDbSymbolTableRecord
100
AcDbDimStyleTableRecord
  2
Alternate (ANSI)
 70
     0
 40
3.333333333333333
 41
0.0979999974370003
340
55
342
F9
  0
DIMSTYLE
105
10B
330
A
100
AcDbSymbolTableRecord
100
AcDbDimStyleTableRecord
  2
Datum (ANSI)
 70
     0
 40
3.333333333333333
 41
0.0979999974370003
340
55
342
F9
  0
DIMSTYLE
105
11A
330
A
100
AcDbSymbolTableRecord
100
AcDbDimStyleTableRecord
  2
Large (ANSI)
 70
     0
 40
3.333333333333333
 41
0.1959999948740005
340
55
342
F9
  0
ENDTAB
  0
TABLE
  2
BLOCK_RECORD
  5
1
330
0
100
AcDbSymbolTable
 70
    16
  0
BLOCK_RECORD
  5
6C
330
1
100
AcDbSymbolTableRecord
100
AcDbBlockTableRecord
  2
*Model_Space
340
6F
  0
BLOCK_RECORD
  5
68
330
1
100
AcDbSymbolTableRecord
100
AcDbBlockTableRecord
  2
*Paper_Space
340
6B
  0
BLOCK_RECORD
  5
70
330
1
100
AcDbSymbolTableRecord
100
AcDbBlockTableRecord
  2
*Paper_Space0
340
73
  0
BLOCK_RECORD
  5
F9
330
1
100
AcDbSymbolTableRecord
100
AcDbBlockTableRecord
  2
_Closed
340
0
  0
BLOCK_RECORD
  5
100
330
1
100
AcDbSymbolTableRecord
100
AcDbBlockTableRecord
  2
DatumFilled45
340
0
  0
BLOCK_RECORD
  5
10C
330
1
100
AcDbSymbolTableRecord
100
AcDbBlockTableRecord
  2
Filled-1
340
0
  0
BLOCK_RECORD
  5
161
330
1
100
AcDbSymbolTableRecord
100
AcDbBlockTableRecord
  2
*D4
340
0
  0
BLOCK_RECORD
  5
24C
330
1
100
AcDbSymbolTableRecord
100
AcDbBlockTableRecord
  2
*D5
340
0
  0
BLOCK_RECORD
  5
336
330
1
100
AcDbSymbolTableRecord
100
AcDbBlockTableRecord
  2
*D6
340
0
  0
BLOCK_RECORD
  5
3F0
330
1
100
AcDbSymbolTableRecord
100
AcDbBlockTableRecord
  2
*D7
340
0
  0
BLOCK_RECORD
  5
4A9
330
1
100
AcDbSymbolTableRecord
100
AcDbBlockTableRecord
  2
*D8
340
0
  0
BLOCK_RECORD
  5
598
330
1
100
AcDbSymbolTableRecord
100
AcDbBlockTableRecord
  2
*D9
340
0
  0
BLOCK_RECORD
  5
682
330
1
100
AcDbSymbolTableRecord
100
AcDbBlockTableRecord
  2
*D10
340
0
  0
BLOCK_RECORD
  5
781
330
1
100
AcDbSymbolTableRecord
100
AcDbBlockTableRecord
  2
*D11
340
0
  0
BLOCK_RECORD
  5
86B
330
1
100
AcDbSymbolTableRecord
100
AcDbBlockTableRecord
  2
*D12
340
0
  0
BLOCK_RECORD
  5
969
330
1
100
AcDbSymbolTableRecord
100
AcDbBlockTableRecord
  2
*D13
340
0
  0
BLOCK_RECORD
  5
A53
330
1
100
AcDbSymbolTableRecord
100
AcDbBlockTableRecord
  2
*D14
340
0
  0
BLOCK_RECORD
  5
B3D
330
1
100
AcDbSymbolTableRecord
100
AcDbBlockTableRecord
  2
*D15
340
0
  0
ENDTAB
  0
ENDSEC
  0
SECTION
  2
BLOCKS
  0
BLOCK
  5
6D
330
6C
100
AcDbEntity
  8
0
100
AcDbBlockBegin
  2
*Model_Space
 70
     0
 10
0.0
 20
0.0
 30
0.0
  3
*Model_Space
  1

  0
ENDBLK
  5
6E
330
6C
100
AcDbEntity
  8
0
100
AcDbBlockEnd
  0
BLOCK
  5
69
330
68
100
AcDbEntity
 67
     1
  8
0
100
AcDbBlockBegin
  2
*Paper_Space
 70
     0
 10
0.0
 20
0.0
 30
0.0
  3
*Paper_Space
  1

  0
ENDBLK
  5
6A
330
68
100
AcDbEntity
 67
     1
  8
0
100
AcDbBlockEnd
  0
BLOCK
  5
71
330
70
100
AcDbEntity
 67
     1
  8
0
100
AcDbBlockBegin
  2
*Paper_Space0
 70
     0
 10
0.0
 20
0.0
 30
0.0
  3
*Paper_Space0
  1

  0
ENDBLK
  5
72
330
70
100
AcDbEntity
 67
     1
  8
0
100
AcDbBlockEnd
  0
BLOCK
  5
FE
330
F9
100
AcDbEntity
  8
0
100
AcDbBlockBegin
  2
_Closed
 70
     0
 10
0.0
 20
0.0
 30
0.0
  3
_Closed
  1

  0
LINE
  5
FA
330
F9
100
AcDbEntity
  8
0
  6
ByBlock
 62
     0
370
    -2
100
AcDbLine
 10
-1.0
 20
0.1666666666666666
 30
0.0
 11
0.0
 21
0.0
 31
0.0
  0
LINE
  5
FB
330
F9
100
AcDbEntity
  8
0
  6
ByBlock
 62
     0
370
    -2
100
AcDbLine
 10
0.0
 20
0.0
 30
0.0
 11
-1.0
 21
-0.1666666666666666
 31
0.0
  0
LINE
  5
FC
330
F9
100
AcDbEntity
  8
0
  6
ByBlock
 62
     0
370
    -2
100
AcDbLine
 10
-1.0
 20
0.1666666666666666
 30
0.0
 11
-1.0
 21
-0.1666666666666666
 31
0.0
  0
LINE
  5
FD
330
F9
100
AcDbEntity
  8
0
  6
ByBlock
 62
     0
370
    -2
100
AcDbLine
 10
0.0
 20
0.0
 30
0.0
 11
-1.0
 21
0.0
 31
0.0
  0
ENDBLK
  5
FF
330
F9
100
AcDbEntity
  8
0
100
AcDbBlockEnd
  0
BLOCK
  5
101
330
100
100
AcDbEntity
  8
0
100
AcDbBlockBegin
  2
DatumFilled45
 70
     0
 10
0.0
 20
0.0
 30
0.0
  3
DatumFilled45
  1

  0
POLYLINE
  5
103
330
100
100
AcDbEntity
  8
0
 62
     0
100
AcDb2dPolyline
 66
     1
 10
0.0
 20
0.0
 30
0.0
 70
   128
  0
VERTEX
  5
104
330
103
100
AcDbEntity
  8
0
 62
     0
100
AcDbVertex
100
AcDb2dVertex
 10
0.0
 20
0.9999999999999998
 30
0.0
  0
VERTEX
  5
105
330
103
100
AcDbEntity
  8
0
 62
     0
100
AcDbVertex
100
AcDb2dVertex
 10
0.0
 20
-0.9999999999999998
 30
0.0
  0
VERTEX
  5
107
330
103
100
AcDbEntity
  8
0
 62
     0
100
AcDbVertex
100
AcDb2dVertex
 10
-0.9999999999999998
 20
0.0
 30
0.0
  0
VERTEX
  5
108
330
103
100
AcDbEntity
  8
0
 62
     0
100
AcDbVertex
100
AcDb2dVertex
 10
0.0
 20
0.9999999999999998
 30
0.0
  0
SEQEND
  5
106
330
103
100
AcDbEntity
  8
0
 62
     0
  0
SOLID
  5
10A
330
100
100
AcDbEntity
  8
0
 62
     0
100
AcDbTrace
 10
0.0
 20
0.9999999999999998
 30
0.0
 11
0.0
 21
-0.9999999999999998
 31
0.0
 12
-0.9999999999999998
 22
0.0
 32
0.0
 13
0.0
 23
0.9999999999999998
 33
0.0
  0
ENDBLK
  5
102
330
100
100
AcDbEntity
  8
0
100
AcDbBlockEnd
  0
BLOCK
  5
10D
330
10C
100
AcDbEntity
  8
0
100
AcDbBlockBegin
  2
Filled-1
 70
     0
 10
0.0
 20
0.0
 30
0.0
  3
Filled-1
  1

  0
LINE
  5
10F
330
10C
100
AcDbEntity
  8
0
 62
     0
100
AcDbLine
 10
-0.9999999999999998
 20
0.0
 30
0.0
 11
0.0
 21
0.0
 31
0.0
  0
POLYLINE
  5
110
330
10C
100
AcDbEntity
  8
0
 62
     0
100
AcDb2dPolyline
 66
     1
 10
0.0
 20
0.0
 30
0.0
 70
   128
  0
VERTEX
  5
111
330
110
100
AcDbEntity
  8
0
 62
     0
100
AcDbVertex
100
AcDb2dVertex
 10
-0.9999999999999998
 20
-0.0994897959183674
 30
0.0
  0
VERTEX
  5
112
330
110
100
AcDbEntity
  8
0
 62
     0
100
AcDbVertex
100
AcDb2dVertex
 10
0.0
 20
0.0
 30
0.0
  0
VERTEX
  5
114
330
110
100
AcDbEntity
  8
0
 62
     0
100
AcDbVertex
100
AcDb2dVertex
 10
-0.9999999999999998
 20
0.0994897959183674
 30
0.0
  0
VERTEX
  5
115
330
110
100
AcDbEntity
  8
0
 62
     0
100
AcDbVertex
100
AcDb2dVertex
 10
-0.9999999999999998
 20
-0.0994897959183674
 30
0.0
  0
SEQEND
  5
113
330
110
100
AcDbEntity
  8
0
 62
     0
  0
SOLID
  5
116
330
10C
100
AcDbEntity
  8
0
 62
     0
100
AcDbTrace
 10
-0.9999999999999998
 20
-0.0994897959183674
 30
0.0
 11
0.0
 21
0.0
 31
0.0
 12
-0.9999999999999998
 22
0.0994897959183674
 32
0.0
 13
-0.9999999999999998
 23
-0.0994897959183674
 33
0.0
  0
LINE
  5
117
330
10C
100
AcDbEntity
  8
0
 62
     0
100
AcDbLine
 10
-0.9999999999999998
 20
-0.0994897959183674
 30
0.0
 11
0.0
 21
0.0
 31
0.0
  0
LINE
  5
118
330
10C
100
AcDbEntity
  8
0
 62
     0
100
AcDbLine
 10
0.0
 20
0.0
 30
0.0
 11
-0.9999999999999998
 21
0.0994897959183674
 31
0.0
  0
LINE
  5
119
330
10C
100
AcDbEntity
  8
0
 62
     0
100
AcDbLine
 10
-0.9999999999999998
 20
0.0994897959183674
 30
0.0
 11
-0.9999999999999998
 21
-0.0994897959183674
 31
0.0
  0
ENDBLK
  5
10E
330
10C
100
AcDbEntity
  8
0
100
AcDbBlockEnd
  0
BLOCK
  5
162
330
161
100
AcDbEntity
  8
0
100
AcDbBlockBegin
  2
*D4
 70
     1
 10
0.0
 20
0.0
 30
0.0
  3
*D4
  1

  0
LINE
  5
241
330
161
100
AcDbEntity
  8
Dimension (ANSI)
100
AcDbLine
 10
23.59352876074878
 20
26.20990153827448
 30
0.0
 11
23.59352876074878
 21
30.61904860503498
 31
0.0
  0
LINE
  5
242
330
161
100
AcDbEntity
  8
Dimension (ANSI)
100
AcDbLine
 10
9.393528760748782
 20
26.20990153827448
 30
0.0
 11
9.393528760748782
 21
30.61904860503498
 31
0.0
  0
LINE
  5
243
330
161
100
AcDbEntity
  8
Dimension (ANSI)
100
AcDbLine
 10
23.2654447786785
 20
30.20238193836831
 30
0.0
 11
17.56042043751662
 21
30.20238193836831
 31
0.0
  0
LINE
  5
244
330
161
100
AcDbEntity
  8
Dimension (ANSI)
100
AcDbLine
 10
9.72161274281907
 20
30.20238193836831
 30
0.0
 11
15.42663708398094
 21
30.20238193836831
 31
0.0
  0
SOLID
  5
245
330
161
100
AcDbEntity
  8
Dimension (ANSI)
100
AcDbTrace
 10
23.2654447786785
 20
30.25706260204669
 30
0.0
 11
23.2654447786785
 21
30.14770127468993
 31
0.0
 12
23.59352876074878
 22
30.20238193836831
 32
0.0
 13
23.59352876074878
 23
30.20238193836831
 33
0.0
  0
SOLID
  5
246
330
161
100
AcDbEntity
  8
Dimension (ANSI)
100
AcDbTrace
 10
9.72161274281907
 20
30.25706260204669
 30
0.0
 11
9.72161274281907
 21
30.14770127468993
 31
0.0
 12
9.393528760748782
 22
30.20238193836831
 32
0.0
 13
9.393528760748782
 23
30.20238193836831
 33
0.0
  0
MTEXT
  5
247
330
161
100
AcDbEntity
  8
Dimension (ANSI)
100
AcDbMText
 10
15.53162396062136
 20
30.40238194631559
 30
0.0
 40
0.400000015894572
 41
0.0
 71
     1
 72
     1
  1
\A1;14.200
  7
Note Text (ANSI)
 73
     1
 44
1.0
1001
ACAD
1000
MTEXTBEGIN
1070
    73
1070
     1
1070
    44
1040
1.0
1070
    74
1070
     0
1000
MTEXTEND
  0
POINT
  5
248
330
161
100
AcDbEntity
  8
Defpoints
 62
     0
100
AcDbPoint
 10
23.59352876074878
 20
26.00156820494115
 30
0.0
  0
POINT
  5
249
330
161
100
AcDbEntity
  8
Defpoints
 62
     0
100
AcDbPoint
 10
9.393528760748782
 20
26.00156820494114
 30
0.0
  0
POINT
  5
24A
330
161
100
AcDbEntity
  8
Defpoints
 62
     0
100
AcDbPoint
 10
9.393528760748782
 20
30.20238193836831
 30
0.0
  0
ENDBLK
  5
163
330
161
100
AcDbEntity
  8
0
100
AcDbBlockEnd
  0
BLOCK
  5
24D
330
24C
100
AcDbEntity
  8
0
100
AcDbBlockBegin
  2
*D5
 70
     1
 10
0.0
 20
0.0
 30
0.0
  3
*D5
  1

  0
LINE
  5
32B
330
24C
100
AcDbEntity
  8
Dimension (ANSI)
100
AcDbLine
 10
9.685195427415449
 20
26.50156820494114
 30
0.0
 11
3.601599169761426
 21
26.50156820494115
 31
0.0
  0
LINE
  5
32C
330
24C
100
AcDbEntity
  8
Dimension (ANSI)
100
AcDbLine
 10
9.685195427415452
 20
12.30156820494114
 30
0.0
 11
3.601599169761423
 21
12.30156820494114
 31
0.0
  0
LINE
  5
32D
330
24C
100
AcDbEntity
  8
Dimension (ANSI)
100
AcDbLine
 10
4.018265836428094
 20
26.17348422287086
 30
0.0
 11
4.018265836428092
 21
20.82637438920222
 31
0.0
  0
LINE
  5
32E
330
24C
100
AcDbEntity
  8
Dimension (ANSI)
100
AcDbLine
 10
4.01826583642809
 20
12.62965218701143
 30
0.0
 11
4.018265836428092
 21
20.21640062002681
 31
0.0
  0
SOLID
  5
32F
330
24C
100
AcDbEntity
  8
Dimension (ANSI)
100
AcDbTrace
 10
3.963585172749712
 20
26.17348422287086
 30
0.0
 11
4.072946500106475
 21
26.17348422287086
 31
0.0
 12
4.018265836428094
 22
26.50156820494115
 32
0.0
 13
4.018265836428094
 23
26.50156820494115
 33
0.0
  0
SOLID
  5
330
330
24C
100
AcDbEntity
  8
Dimension (ANSI)
100
AcDbTrace
 10
3.963585172749709
 20
12.62965218701143
 30
0.0
 11
4.072946500106471
 21
12.62965218701143
 31
0.0
 12
4.01826583642809
 22
12.30156820494114
 32
0.0
 13
4.01826583642809
 23
12.30156820494114
 33
0.0
  0
MTEXT
  5
331
330
24C
100
AcDbEntity
  8
Dimension (ANSI)
100
AcDbMText
 10
3.056361036300666
 20
20.72138751256181
 30
0.0
 40
0.400000015894572
 41
0.0
 71
     1
 72
     1
  1
\A1;14.200
  7
Note Text (ANSI)
 73
     1
 44
1.0
1001
ACAD
1000
MTEXTBEGIN
1070
    73
1070
     1
1070
    44
1040
1.0
1070
    74
1070
     0
1000
MTEXTEND
  0
POINT
  5
332
330
24C
100
AcDbEntity
  8
Defpoints
 62
     0
100
AcDbPoint
 10
9.893528760748782
 20
26.50156820494114
 30
0.0
  0
POINT
  5
333
330
24C
100
AcDbEntity
  8
Defpoints
 62
     0
100
AcDbPoint
 10
9.893528760748786
 20
12.30156820494114
 30
0.0
  0
POINT
  5
334
330
24C
100
AcDbEntity
  8
Defpoints
 62
     0
100
AcDbPoint
 10
4.01826583642809
 20
12.30156820494114
 30
0.0
  0
ENDBLK
  5
24E
330
24C
100
AcDbEntity
  8
0
100
AcDbBlockEnd
  0
BLOCK
  5
337
330
336
100
AcDbEntity
  8
0
100
AcDbBlockBegin
  2
*D6
 70
     1
 10
0.0
 20
0.0
 30
0.0
  3
*D6
  1

  0
LINE
  5
3E7
330
336
100
AcDbEntity
  8
Dimension (ANSI)
100
AcDbLine
 10
12.99308550304734
 20
8.308543945146455
 30
0.0
 11
12.51912453200176
 21
8.308543945146455
 31
0.0
  0
LINE
  5
3E8
330
336
100
AcDbEntity
  8
Dimension (ANSI)
100
AcDbLine
 10
12.51912453200176
 20
8.308543945146455
 30
0.0
 11
10.20257075178403
 21
12.32093279094746
 31
0.0
  0
MTEXT
  5
3E9
102
{ACAD_XDICTIONARY
360
C89
102
}
330
336
100
AcDbEntity
  8
Dimension (ANSI)
100
AcDbMText
 10
13.09807237968776
 20
8.627591576871887
 30
0.0
 40
0.400000015894572
 41
0.0
 71
     1
 72
     1
  1
\A1;\U+22050.500{\PTYP.(4PL.)}
  7
Note Text (ANSI)
 73
     1
 44
1.0
1001
ACAD
1000
MTEXTBEGIN
1070
    73
1070
     1
1070
    44
1040
1.0
1070
    74
1070
     0
1000
MTEXTEND
  0
SOLID
  5
3EA
330
336
100
AcDbEntity
  8
Dimension (ANSI)
100
AcDbTrace
 10
10.24992559562529
 20
12.34827312278667
 30
0.0
 11
10.15521590794276
 21
12.29359245910826
 31
0.0
 12
10.03852876074883
 22
12.60506185399506
 32
0.0
 13
10.03852876074883
 23
12.60506185399506
 33
0.0
  0
LINE
  5
3EB
330
336
100
AcDbEntity
  8
Dimension (ANSI)
100
AcDbLine
 10
9.613528760748785
 20
12.82156820494114
 30
0.0
 11
10.21352876074878
 21
12.82156820494114
 31
0.0
  0
LINE
  5
3EC
330
336
100
AcDbEntity
  8
Dimension (ANSI)
100
AcDbLine
 10
9.913528760748782
 20
12.52156820494114
 30
0.0
 11
9.913528760748786
 21
13.12156820494115
 31
0.0
  0
POINT
  5
3ED
330
336
100
AcDbEntity
  8
Defpoints
 62
     0
100
AcDbPoint
 10
10.03852876074883
 20
12.60506185399506
 30
0.0
  0
POINT
  5
3EE
330
336
100
AcDbEntity
  8
Defpoints
 62
     0
100
AcDbPoint
 10
9.788528760748741
 20
13.03807455588723
 30
0.0
  0
ENDBLK
  5
338
330
336
100
AcDbEntity
  8
0
100
AcDbBlockEnd
  0
BLOCK
  5
3F1
330
3F0
100
AcDbEntity
  8
0
100
AcDbBlockBegin
  2
*D7
 70
     1
 10
0.0
 20
0.0
 30
0.0
  3
*D7
  1

  0
LINE
  5
4A0
330
3F0
100
AcDbEntity
  8
Dimension (ANSI)
100
AcDbLine
 10
12.89396004622946
 20
11.06509789050675
 30
0.0
 11
12.41999907518389
 21
11.06509789050674
 31
0.0
  0
LINE
  5
4A1
330
3F0
100
AcDbEntity
  8
Dimension (ANSI)
100
AcDbLine
 10
12.41999907518389
 20
11.06509789050674
 30
0.0
 11
10.25600460382982
 21
13.22909236186021
 31
0.0
  0
MTEXT
  5
4A2
102
{ACAD_XDICTIONARY
360
C8B
102
}
330
3F0
100
AcDbEntity
  8
Dimension (ANSI)
100
AcDbMText
 10
12.99894692286988
 20
11.38414552223218
 30
0.0
 40
0.400000015894572
 41
0.0
 71
     1
 72
     1
  1
\A1;\U+22050.313{\PTYP.(4PL.)}
  7
Note Text (ANSI)
 73
     1
 44
1.0
1001
ACAD
1000
MTEXTBEGIN
1070
    73
1070
     1
1070
    44
1040
1.0
1070
    74
1070
     0
1000
MTEXTEND
  0
SOLID
  5
4A3
330
3F0
100
AcDbEntity
  8
Dimension (ANSI)
100
AcDbTrace
 10
10.29466967191658
 20
13.26775742994698
 30
0.0
 11
10.21733953574306
 21
13.19042729377344
 31
0.0
 12
10.0240141953092
 22
13.46108277038076
 32
0.0
 13
10.0240141953092
 23
13.46108277038076
 33
0.0
  0
LINE
  5
4A4
330
3F0
100
AcDbEntity
  8
Dimension (ANSI)
100
AcDbLine
 10
9.613528760748788
 20
13.57156820494115
 30
0.0
 11
10.21352876074879
 21
13.57156820494115
 31
0.0
  0
LINE
  5
4A5
330
3F0
100
AcDbEntity
  8
Dimension (ANSI)
100
AcDbLine
 10
9.913528760748786
 20
13.27156820494114
 30
0.0
 11
9.913528760748787
 21
13.87156820494114
 31
0.0
  0
POINT
  5
4A6
330
3F0
100
AcDbEntity
  8
Defpoints
 62
     0
100
AcDbPoint
 10
10.0240141953092
 20
13.46108277038076
 30
0.0
  0
POINT
  5
4A7
330
3F0
100
AcDbEntity
  8
Defpoints
 62
     0
100
AcDbPoint
 10
9.803043326188371
 20
13.68205363950153
 30
0.0
  0
ENDBLK
  5
3F2
330
3F0
100
AcDbEntity
  8
0
100
AcDbBlockEnd
  0
BLOCK
  5
4AA
330
4A9
100
AcDbEntity
  8
0
100
AcDbBlockBegin
  2
*D8
 70
     1
 10
0.0
 20
0.0
 30
0.0
  3
*D8
  1

  0
LINE
  5
58F
330
4A9
100
AcDbEntity
  8
Dimension (ANSI)
100
AcDbLine
 10
33.95504711471393
 20
22.79811680334959
 30
0.0
 11
33.62696313264365
 21
22.79811680334959
 31
0.0
  0
LINE
  5
590
330
4A9
100
AcDbEntity
  8
Dimension (ANSI)
100
AcDbLine
 10
34.70496507885451
 20
22.79811680334959
 30
0.0
 11
35.26167613255645
 21
22.79811680334959
 31
0.0
  0
SOLID
  5
591
330
4A9
100
AcDbEntity
  8
Dimension (ANSI)
100
AcDbTrace
 10
33.95504711471393
 20
22.85279746702797
 30
0.0
 11
33.95504711471393
 21
22.74343613967121
 31
0.0
 12
34.28313109678422
 22
22.79811680334959
 32
0.0
 13
34.28313109678422
 23
22.79811680334959
 33
0.0
  0
SOLID
  5
592
330
4A9
100
AcDbEntity
  8
Dimension (ANSI)
100
AcDbTrace
 10
34.70496507885451
 20
22.85279746702797
 30
0.0
 11
34.70496507885451
 21
22.74343613967121
 31
0.0
 12
34.37688109678422
 22
22.79811680334959
 32
0.0
 13
34.37688109678422
 23
22.79811680334959
 33
0.0
  0
MTEXT
  5
593
330
4A9
100
AcDbEntity
  8
Dimension (ANSI)
100
AcDbMText
 10
35.36666300919687
 20
23.06478348061264
 30
0.0
 40
0.400000015894572
 41
0.0
 71
     1
 72
     1
  1
\A1; 12 GA.\P304 SS
  7
Note Text (ANSI)
 73
     1
 44
1.0
1001
ACAD
1000
MTEXTBEGIN
1070
    73
1070
     1
1070
    44
1040
1.0
1070
    74
1070
     0
1000
MTEXTEND
  0
POINT
  5
594
330
4A9
100
AcDbEntity
  8
Defpoints
 62
     0
100
AcDbPoint
 10
34.28313109678422
 20
21.22331365374328
 30
0.0
  0
POINT
  5
595
330
4A9
100
AcDbEntity
  8
Defpoints
 62
     0
100
AcDbPoint
 10
34.37688109678422
 20
21.22331365374328
 30
0.0
  0
POINT
  5
596
330
4A9
100
AcDbEntity
  8
Defpoints
 62
     0
100
AcDbPoint
 10
34.37688109678422
 20
22.79811680334959
 30
0.0
  0
ENDBLK
  5
4AB
330
4A9
100
AcDbEntity
  8
0
100
AcDbBlockEnd
  0
BLOCK
  5
599
330
598
100
AcDbEntity
  8
0
100
AcDbBlockBegin
  2
*D9
 70
     1
 10
0.0
 20
0.0
 30
0.0
  3
*D9
  1

  0
LINE
  5
677
330
598
100
AcDbEntity
  8
Dimension (ANSI)
100
AcDbLine
 10
9.705195427415452
 20
25.98156820494115
 30
0.0
 11
5.654882519917971
 21
25.98156820494115
 31
0.0
  0
LINE
  5
678
330
598
100
AcDbEntity
  8
Dimension (ANSI)
100
AcDbLine
 10
9.705195427415452
 20
12.82156820494114
 30
0.0
 11
5.654882519917968
 21
12.82156820494114
 31
0.0
  0
LINE
  5
679
330
598
100
AcDbEntity
  8
Dimension (ANSI)
100
AcDbLine
 10
6.071549186584638
 20
25.65348422287086
 30
0.0
 11
6.071549186584637
 21
18.95560503041236
 31
0.0
  0
LINE
  5
67A
330
598
100
AcDbEntity
  8
Dimension (ANSI)
100
AcDbLine
 10
6.071549186584635
 20
13.14965218701143
 30
0.0
 11
6.071549186584637
 21
18.34563126123694
 31
0.0
  0
SOLID
  5
67B
330
598
100
AcDbEntity
  8
Dimension (ANSI)
100
AcDbTrace
 10
6.016868522906257
 20
25.65348422287086
 30
0.0
 11
6.126229850263019
 21
25.65348422287086
 31
0.0
 12
6.071549186584638
 22
25.98156820494115
 32
0.0
 13
6.071549186584638
 23
25.98156820494115
 33
0.0
  0
SOLID
  5
67C
330
598
100
AcDbEntity
  8
Dimension (ANSI)
100
AcDbTrace
 10
6.016868522906254
 20
13.14965218701143
 30
0.0
 11
6.126229850263016
 21
13.14965218701143
 31
0.0
 12
6.071549186584635
 22
12.82156820494114
 32
0.0
 13
6.071549186584635
 23
12.82156820494114
 33
0.0
  0
MTEXT
  5
67D
330
598
100
AcDbEntity
  8
Dimension (ANSI)
100
AcDbMText
 10
5.109644386457211
 20
18.85061815377193
 30
0.0
 40
0.400000015894572
 41
0.0
 71
     1
 72
     1
  1
\A1;13.160
  7
Note Text (ANSI)
 73
     1
 44
1.0
1001
ACAD
1000
MTEXTBEGIN
1070
    73
1070
     1
1070
    44
1040
1.0
1070
    74
1070
     0
1000
MTEXTEND
  0
POINT
  5
67E
330
598
100
AcDbEntity
  8
Defpoints
 62
     0
100
AcDbPoint
 10
9.913528760748786
 20
25.98156820494115
 30
0.0
  0
POINT
  5
67F
330
598
100
AcDbEntity
  8
Defpoints
 62
     0
100
AcDbPoint
 10
9.913528760748786
 20
12.82156820494114
 30
0.0
  0
POINT
  5
680
330
598
100
AcDbEntity
  8
Defpoints
 62
     0
100
AcDbPoint
 10
6.071549186584635
 20
12.82156820494114
 30
0.0
  0
ENDBLK
  5
59A
330
598
100
AcDbEntity
  8
0
100
AcDbBlockEnd
  0
BLOCK
  5
683
330
682
100
AcDbEntity
  8
0
100
AcDbBlockBegin
  2
*D10
 70
     1
 10
0.0
 20
0.0
 30
0.0
  3
*D10
  1

  0
LINE
  5
775
330
682
100
AcDbEntity
  8
Dimension (ANSI)
100
AcDbLine
 10
9.705195427415452
 20
13.57156820494114
 30
0.0
 11
6.132881087881906
 21
13.57156820494114
 31
0.0
  0
LINE
  5
776
330
682
100
AcDbEntity
  8
Dimension (ANSI)
100
AcDbLine
 10
9.705195427415452
 20
12.82156820494114
 30
0.0
 11
6.132881087881906
 21
12.82156820494114
 31
0.0
  0
LINE
  5
777
330
682
100
AcDbEntity
  8
Dimension (ANSI)
100
AcDbLine
 10
6.549547754548572
 20
12.49348422287086
 30
0.0
 11
6.549547754548572
 21
12.16540024080057
 31
0.0
  0
LINE
  5
778
330
682
100
AcDbEntity
  8
Dimension (ANSI)
100
AcDbLine
 10
6.549547754548572
 20
13.89965218701143
 30
0.0
 11
6.549547754548573
 21
14.52180132798758
 31
0.0
  0
LINE
  5
779
330
682
100
AcDbEntity
  8
Dimension (ANSI)
100
AcDbLine
 10
6.549547754548573
 20
14.52180132798758
 30
0.0
 11
6.87763173661886
 21
14.52180132798758
 31
0.0
  0
SOLID
  5
77A
330
682
100
AcDbEntity
  8
Dimension (ANSI)
100
AcDbTrace
 10
6.494867090870191
 20
12.49348422287086
 30
0.0
 11
6.604228418226953
 21
12.49348422287086
 31
0.0
 12
6.549547754548572
 22
12.82156820494114
 32
0.0
 13
6.549547754548572
 23
12.82156820494114
 33
0.0
  0
SOLID
  5
77B
330
682
100
AcDbEntity
  8
Dimension (ANSI)
100
AcDbTrace
 10
6.494867090870191
 20
13.89965218701143
 30
0.0
 11
6.604228418226953
 21
13.89965218701143
 31
0.0
 12
6.549547754548572
 22
13.57156820494114
 32
0.0
 13
6.549547754548572
 23
13.57156820494114
 33
0.0
  0
MTEXT
  5
77C
330
682
100
AcDbEntity
  8
Dimension (ANSI)
100
AcDbMText
 10
6.982618613259278
 20
14.72180133593486
 30
0.0
 40
0.400000015894572
 41
0.0
 71
     1
 72
     1
  1
\A1;0.750
  7
Note Text (ANSI)
 73
     1
 44
1.0
1001
ACAD
1000
MTEXTBEGIN
1070
    73
1070
     1
1070
    44
1040
1.0
1070
    74
1070
     0
1000
MTEXTEND
  0
POINT
  5
77D
330
682
100
AcDbEntity
  8
Defpoints
 62
     0
100
AcDbPoint
 10
9.913528760748786
 20
13.57156820494114
 30
0.0
  0
POINT
  5
77E
330
682
100
AcDbEntity
  8
Defpoints
 62
     0
100
AcDbPoint
 10
9.913528760748786
 20
12.82156820494114
 30
0.0
  0
POINT
  5
77F
330
682
100
AcDbEntity
  8
Defpoints
 62
     0
100
AcDbPoint
 10
6.549547754548572
 20
12.82156820494114
 30
0.0
  0
ENDBLK
  5
684
330
682
100
AcDbEntity
  8
0
100
AcDbBlockEnd
  0
BLOCK
  5
782
330
781
100
AcDbEntity
  8
0
100
AcDbBlockBegin
  2
*D11
 70
     1
 10
0.0
 20
0.0
 30
0.0
  3
*D11
  1

  0
LINE
  5
860
330
781
100
AcDbEntity
  8
Dimension (ANSI)
100
AcDbLine
 10
23.07352876074879
 20
26.18990153827448
 30
0.0
 11
23.07352876074879
 21
29.52218428763774
 31
0.0
  0
LINE
  5
861
330
781
100
AcDbEntity
  8
Dimension (ANSI)
100
AcDbLine
 10
9.913528760748786
 20
26.18990153827448
 30
0.0
 11
9.913528760748786
 21
29.52218428763774
 31
0.0
  0
LINE
  5
862
330
781
100
AcDbEntity
  8
Dimension (ANSI)
100
AcDbLine
 10
22.7454447786785
 20
29.10551762097107
 30
0.0
 11
17.56042043751662
 21
29.10551762097107
 31
0.0
  0
LINE
  5
863
330
781
100
AcDbEntity
  8
Dimension (ANSI)
100
AcDbLine
 10
10.24161274281907
 20
29.10551762097107
 30
0.0
 11
15.42663708398094
 21
29.10551762097107
 31
0.0
  0
SOLID
  5
864
330
781
100
AcDbEntity
  8
Dimension (ANSI)
100
AcDbTrace
 10
22.7454447786785
 20
29.16019828464945
 30
0.0
 11
22.7454447786785
 21
29.05083695729269
 31
0.0
 12
23.07352876074879
 22
29.10551762097107
 32
0.0
 13
23.07352876074879
 23
29.10551762097107
 33
0.0
  0
SOLID
  5
865
330
781
100
AcDbEntity
  8
Dimension (ANSI)
100
AcDbTrace
 10
10.24161274281907
 20
29.16019828464945
 30
0.0
 11
10.24161274281907
 21
29.05083695729269
 31
0.0
 12
9.913528760748786
 22
29.10551762097107
 32
0.0
 13
9.913528760748786
 23
29.10551762097107
 33
0.0
  0
MTEXT
  5
866
330
781
100
AcDbEntity
  8
Dimension (ANSI)
100
AcDbMText
 10
15.53162396062136
 20
29.30551762891835
 30
0.0
 40
0.400000015894572
 41
0.0
 71
     1
 72
     1
  1
\A1;13.160
  7
Note Text (ANSI)
 73
     1
 44
1.0
1001
ACAD
1000
MTEXTBEGIN
1070
    73
1070
     1
1070
    44
1040
1.0
1070
    74
1070
     0
1000
MTEXTEND
  0
POINT
  5
867
330
781
100
AcDbEntity
  8
Defpoints
 62
     0
100
AcDbPoint
 10
23.07352876074879
 20
25.98156820494115
 30
0.0
  0
POINT
  5
868
330
781
100
AcDbEntity
  8
Defpoints
 62
     0
100
AcDbPoint
 10
9.913528760748786
 20
25.98156820494115
 30
0.0
  0
POINT
  5
869
330
781
100
AcDbEntity
  8
Defpoints
 62
     0
100
AcDbPoint
 10
9.913528760748786
 20
29.10551762097107
 30
0.0
  0
ENDBLK
  5
783
330
781
100
AcDbEntity
  8
0
100
AcDbBlockEnd
  0
BLOCK
  5
86C
330
86B
100
AcDbEntity
  8
0
100
AcDbBlockBegin
  2
*D12
 70
     1
 10
0.0
 20
0.0
 30
0.0
  3
*D12
  1

  0
LINE
  5
95D
330
86B
100
AcDbEntity
  8
Dimension (ANSI)
100
AcDbLine
 10
23.80186209408212
 20
12.80156820494115
 30
0.0
 11
25.96127323473982
 21
12.80156820494115
 31
0.0
  0
LINE
  5
95E
330
86B
100
AcDbEntity
  8
Dimension (ANSI)
100
AcDbLine
 10
23.30186209408212
 20
12.30156820494114
 30
0.0
 11
25.96127323473982
 21
12.30156820494114
 31
0.0
  0
LINE
  5
95F
330
86B
100
AcDbEntity
  8
Dimension (ANSI)
100
AcDbLine
 10
25.54460656807315
 20
11.97348422287086
 30
0.0
 11
25.54460656807315
 21
11.64540024080057
 31
0.0
  0
LINE
  5
960
330
86B
100
AcDbEntity
  8
Dimension (ANSI)
100
AcDbLine
 10
25.54460656807315
 20
13.12965218701143
 30
0.0
 11
25.54460656807315
 21
13.75180132798758
 31
0.0
  0
LINE
  5
961
330
86B
100
AcDbEntity
  8
Dimension (ANSI)
100
AcDbLine
 10
25.54460656807315
 20
13.75180132798758
 30
0.0
 11
25.87269055014344
 21
13.75180132798758
 31
0.0
  0
SOLID
  5
962
330
86B
100
AcDbEntity
  8
Dimension (ANSI)
100
AcDbTrace
 10
25.48992590439477
 20
11.97348422287086
 30
0.0
 11
25.59928723175154
 21
11.97348422287086
 31
0.0
 12
25.54460656807315
 22
12.30156820494114
 32
0.0
 13
25.54460656807315
 23
12.30156820494114
 33
0.0
  0
SOLID
  5
963
330
86B
100
AcDbEntity
  8
Dimension (ANSI)
100
AcDbTrace
 10
25.48992590439477
 20
13.12965218701143
 30
0.0
 11
25.59928723175154
 21
13.12965218701143
 31
0.0
 12
25.54460656807315
 22
12.80156820494115
 32
0.0
 13
25.54460656807315
 23
12.80156820494115
 33
0.0
  0
MTEXT
  5
964
330
86B
100
AcDbEntity
  8
Dimension (ANSI)
100
AcDbMText
 10
25.97767742678386
 20
13.95180133593487
 30
0.0
 40
0.400000015894572
 41
0.0
 71
     1
 72
     1
  1
\A1;0.500
  7
Note Text (ANSI)
 73
     1
 44
1.0
1001
ACAD
1000
MTEXTBEGIN
1070
    73
1070
     1
1070
    44
1040
1.0
1070
    74
1070
     0
1000
MTEXTEND
  0
POINT
  5
965
330
86B
100
AcDbEntity
  8
Defpoints
 62
     0
100
AcDbPoint
 10
23.59352876074879
 20
12.80156820494115
 30
0.0
  0
POINT
  5
966
330
86B
100
AcDbEntity
  8
Defpoints
 62
     0
100
AcDbPoint
 10
23.09352876074878
 20
12.30156820494114
 30
0.0
  0
POINT
  5
967
330
86B
100
AcDbEntity
  8
Defpoints
 62
     0
100
AcDbPoint
 10
25.54460656807315
 20
12.30156820494114
 30
0.0
  0
ENDBLK
  5
86D
330
86B
100
AcDbEntity
  8
0
100
AcDbBlockEnd
  0
BLOCK
  5
96A
330
969
100
AcDbEntity
  8
0
100
AcDbBlockBegin
  2
*D13
 70
     1
 10
0.0
 20
0.0
 30
0.0
  3
*D13
  1

  0
LINE
  5
A48
330
969
100
AcDbEntity
  8
Dimension (ANSI)
100
AcDbLine
 10
23.59352876074879
 20
12.59323487160781
 30
0.0
 11
23.59352876074879
 21
10.03106128647734
 31
0.0
  0
LINE
  5
A49
330
969
100
AcDbEntity
  8
Dimension (ANSI)
100
AcDbLine
 10
23.09352876074878
 20
12.09323487160781
 30
0.0
 11
23.09352876074878
 21
10.03106128647734
 31
0.0
  0
LINE
  5
A4A
330
969
100
AcDbEntity
  8
Dimension (ANSI)
100
AcDbLine
 10
23.92161274281907
 20
10.447727953144
 30
0.0
 11
24.24969672488936
 21
10.447727953144
 31
0.0
  0
LINE
  5
A4B
330
969
100
AcDbEntity
  8
Dimension (ANSI)
100
AcDbLine
 10
22.7654447786785
 20
10.447727953144
 30
0.0
 11
22.03877769497644
 21
10.447727953144
 31
0.0
  0
SOLID
  5
A4C
330
969
100
AcDbEntity
  8
Dimension (ANSI)
100
AcDbTrace
 10
23.92161274281907
 20
10.50240861682238
 30
0.0
 11
23.92161274281907
 21
10.39304728946562
 31
0.0
 12
23.59352876074879
 22
10.447727953144
 32
0.0
 13
23.59352876074879
 23
10.447727953144
 33
0.0
  0
SOLID
  5
A4D
330
969
100
AcDbEntity
  8
Dimension (ANSI)
100
AcDbTrace
 10
22.7654447786785
 20
10.50240861682238
 30
0.0
 11
22.7654447786785
 21
10.39304728946562
 31
0.0
 12
23.09352876074878
 22
10.447727953144
 32
0.0
 13
23.09352876074878
 23
10.447727953144
 33
0.0
  0
MTEXT
  5
A4E
330
969
100
AcDbEntity
  8
Dimension (ANSI)
100
AcDbMText
 10
20.33379075475773
 20
10.64772796109129
 30
0.0
 40
0.400000015894572
 41
0.0
 71
     1
 72
     1
  1
\A1;0.500
  7
Note Text (ANSI)
 73
     1
 44
1.0
1001
ACAD
1000
MTEXTBEGIN
1070
    73
1070
     1
1070
    44
1040
1.0
1070
    74
1070
     0
1000
MTEXTEND
  0
POINT
  5
A4F
330
969
100
AcDbEntity
  8
Defpoints
 62
     0
100
AcDbPoint
 10
23.59352876074879
 20
12.80156820494115
 30
0.0
  0
POINT
  5
A50
330
969
100
AcDbEntity
  8
Defpoints
 62
     0
100
AcDbPoint
 10
23.09352876074878
 20
12.30156820494114
 30
0.0
  0
POINT
  5
A51
330
969
100
AcDbEntity
  8
Defpoints
 62
     0
100
AcDbPoint
 10
23.09352876074878
 20
10.447727953144
 30
0.0
  0
ENDBLK
  5
96B
330
969
100
AcDbEntity
  8
0
100
AcDbBlockEnd
  0
BLOCK
  5
A54
330
A53
100
AcDbEntity
  8
0
100
AcDbBlockBegin
  2
*D14
 70
     1
 10
0.0
 20
0.0
 30
0.0
  3
*D14
  1

  0
LINE
  5
B32
330
A53
100
AcDbEntity
  8
Dimension (ANSI)
100
AcDbLine
 10
23.07352876074879
 20
26.18990153827448
 30
0.0
 11
23.07352876074879
 21
28.26864689834519
 31
0.0
  0
LINE
  5
B33
330
A53
100
AcDbEntity
  8
Dimension (ANSI)
100
AcDbLine
 10
23.59352876074878
 20
26.20990153827448
 30
0.0
 11
23.59352876074878
 21
28.26864689834519
 31
0.0
  0
LINE
  5
B34
330
A53
100
AcDbEntity
  8
Dimension (ANSI)
100
AcDbLine
 10
23.92161274281907
 20
27.85198023167853
 30
0.0
 11
24.24969672488936
 21
27.85198023167853
 31
0.0
  0
LINE
  5
B35
330
A53
100
AcDbEntity
  8
Dimension (ANSI)
100
AcDbLine
 10
22.7454447786785
 20
27.85198023167853
 30
0.0
 11
22.00852295022748
 21
27.85198023167853
 31
0.0
  0
SOLID
  5
B36
330
A53
100
AcDbEntity
  8
Dimension (ANSI)
100
AcDbTrace
 10
23.92161274281907
 20
27.90666089535691
 30
0.0
 11
23.92161274281907
 21
27.79729956800014
 31
0.0
 12
23.59352876074878
 22
27.85198023167853
 32
0.0
 13
23.59352876074878
 23
27.85198023167853
 33
0.0
  0
SOLID
  5
B37
330
A53
100
AcDbEntity
  8
Dimension (ANSI)
100
AcDbTrace
 10
22.7454447786785
 20
27.90666089535691
 30
0.0
 11
22.7454447786785
 21
27.79729956800014
 31
0.0
 12
23.07352876074879
 22
27.85198023167853
 32
0.0
 13
23.07352876074879
 23
27.85198023167853
 33
0.0
  0
MTEXT
  5
B38
330
A53
100
AcDbEntity
  8
Dimension (ANSI)
100
AcDbMText
 10
20.30353601000878
 20
28.05198023962581
 30
0.0
 40
0.400000015894572
 41
0.0
 71
     1
 72
     1
  1
\A1;0.520
  7
Note Text (ANSI)
 73
     1
 44
1.0
1001
ACAD
1000
MTEXTBEGIN
1070
    73
1070
     1
1070
    44
1040
1.0
1070
    74
1070
     0
1000
MTEXTEND
  0
POINT
  5
B39
330
A53
100
AcDbEntity
  8
Defpoints
 62
     0
100
AcDbPoint
 10
23.07352876074879
 20
25.98156820494115
 30
0.0
  0
POINT
  5
B3A
330
A53
100
AcDbEntity
  8
Defpoints
 62
     0
100
AcDbPoint
 10
23.59352876074878
 20
26.00156820494115
 30
0.0
  0
POINT
  5
B3B
330
A53
100
AcDbEntity
  8
Defpoints
 62
     0
100
AcDbPoint
 10
23.59352876074878
 20
27.85198023167853
 30
0.0
  0
ENDBLK
  5
A55
330
A53
100
AcDbEntity
  8
0
100
AcDbBlockEnd
  0
BLOCK
  5
B3E
330
B3D
100
AcDbEntity
  8
0
100
AcDbBlockBegin
  2
*D15
 70
     1
 10
0.0
 20
0.0
 30
0.0
  3
*D15
  1

  0
LINE
  5
C2F
330
B3D
100
AcDbEntity
  8
Dimension (ANSI)
100
AcDbLine
 10
23.28186209408212
 20
25.98156820494115
 30
0.0
 11
27.31098757651504
 21
25.98156820494115
 31
0.0
  0
LINE
  5
C30
330
B3D
100
AcDbEntity
  8
Dimension (ANSI)
100
AcDbLine
 10
23.30186209408211
 20
26.50156820494115
 30
0.0
 11
27.31098757651504
 21
26.50156820494114
 31
0.0
  0
LINE
  5
C31
330
B3D
100
AcDbEntity
  8
Dimension (ANSI)
100
AcDbLine
 10
26.89432090984837
 20
26.82965218701143
 30
0.0
 11
26.89432090984837
 21
27.15773616908172
 31
0.0
  0
LINE
  5
C32
330
B3D
100
AcDbEntity
  8
Dimension (ANSI)
100
AcDbLine
 10
26.89432090984837
 20
25.65348422287086
 30
0.0
 11
26.89432090984837
 21
25.03133508189471
 31
0.0
  0
LINE
  5
C33
330
B3D
100
AcDbEntity
  8
Dimension (ANSI)
100
AcDbLine
 10
26.89432090984837
 20
25.03133508189471
 30
0.0
 11
26.56623692777809
 21
25.03133508189471
 31
0.0
  0
SOLID
  5
C34
330
B3D
100
AcDbEntity
  8
Dimension (ANSI)
100
AcDbTrace
 10
26.83964024617
 20
26.82965218701143
 30
0.0
 11
26.94900157352676
 21
26.82965218701143
 31
0.0
 12
26.89432090984837
 22
26.50156820494114
 32
0.0
 13
26.89432090984837
 23
26.50156820494114
 33
0.0
  0
SOLID
  5
C35
330
B3D
100
AcDbEntity
  8
Dimension (ANSI)
100
AcDbTrace
 10
26.83964024617
 20
25.65348422287086
 30
0.0
 11
26.94900157352676
 21
25.65348422287086
 31
0.0
 12
26.89432090984837
 22
25.98156820494115
 32
0.0
 13
26.89432090984837
 23
25.98156820494115
 33
0.0
  0
MTEXT
  5
C36
330
B3D
100
AcDbEntity
  8
Dimension (ANSI)
100
AcDbMText
 10
24.86124998755938
 20
25.231335089842
 30
0.0
 40
0.400000015894572
 41
0.0
 71
     1
 72
     1
  1
\A1;0.520
  7
Note Text (ANSI)
 73
     1
 44
1.0
1001
ACAD
1000
MTEXTBEGIN
1070
    73
1070
     1
1070
    44
1040
1.0
1070
    74
1070
     0
1000
MTEXTEND
  0
POINT
  5
C37
330
B3D
100
AcDbEntity
  8
Defpoints
 62
     0
100
AcDbPoint
 10
23.07352876074879
 20
25.98156820494115
 30
0.0
  0
POINT
  5
C38
330
B3D
100
AcDbEntity
  8
Defpoints
 62
     0
100
AcDbPoint
 10
23.09352876074878
 20
26.50156820494115
 30
0.0
  0
POINT
  5
C39
330
B3D
100
AcDbEntity
  8
Defpoints
 62
     0
100
AcDbPoint
 10
26.89432090984837
 20
26.50156820494114
 30
0.0
  0
ENDBLK
  5
B3F
330
B3D
100
AcDbEntity
  8
0
100
AcDbBlockEnd
  0
ENDSEC
  0
SECTION
  2
ENTITIES
  0
CIRCLE
  5
11B
330
6C
100
AcDbEntity
  8
Visible (ANSI)
100
AcDbCircle
 10
23.07352876074879
 20
25.98156820494115
 30
0.0
 40
0.25
  0
CIRCLE
  5
11C
330
6C
100
AcDbEntity
  8
Visible (ANSI)
100
AcDbCircle
 10
9.913528760748786
 20
25.98156820494115
 30
0.0
 40
0.25
  0
CIRCLE
  5
11D
330
6C
100
AcDbEntity
  8
Visible (ANSI)
100
AcDbCircle
 10
9.913528760748786
 20
12.82156820494114
 30
0.0
 40
0.25
  0
CIRCLE
  5
11E
330
6C
100
AcDbEntity
  8
Visible (ANSI)
100
AcDbCircle
 10
23.07352876074879
 20
12.82156820494114
 30
0.0
 40
0.25
  0
CIRCLE
  5
11F
330
6C
100
AcDbEntity
  8
Visible (ANSI)
100
AcDbCircle
 10
23.07352876074879
 20
25.23156820494115
 30
0.0
 40
0.15625
  0
CIRCLE
  5
120
330
6C
100
AcDbEntity
  8
Visible (ANSI)
100
AcDbCircle
 10
9.913528760748786
 20
25.23156820494115
 30
0.0
 40
0.15625
  0
CIRCLE
  5
121
330
6C
100
AcDbEntity
  8
Visible (ANSI)
100
AcDbCircle
 10
9.913528760748786
 20
13.57156820494114
 30
0.0
 40
0.15625
  0
CIRCLE
  5
122
330
6C
100
AcDbEntity
  8
Visible (ANSI)
100
AcDbCircle
 10
23.07352876074879
 20
13.57156820494114
 30
0.0
 40
0.15625
  0
LINE
  5
123
330
6C
100
AcDbEntity
  8
Visible (ANSI)
100
AcDbLine
 10
9.393528760748782
 20
26.00156820494114
 30
0.0
 11
9.893528760748782
 21
26.50156820494114
 31
0.0
  0
LINE
  5
124
330
6C
100
AcDbEntity
  8
Visible (ANSI)
100
AcDbLine
 10
9.393528760748786
 20
12.80156820494114
 30
0.0
 11
9.393528760748782
 21
26.00156820494114
 31
0.0
  0
LINE
  5
125
330
6C
100
AcDbEntity
  8
Visible (ANSI)
100
AcDbLine
 10
23.09352876074878
 20
12.30156820494114
 30
0.0
 11
9.893528760748788
 21
12.30156820494114
 31
0.0
  0
LINE
  5
126
330
6C
100
AcDbEntity
  8
Visible (ANSI)
100
AcDbLine
 10
23.59352876074879
 20
26.00156820494115
 30
0.0
 11
23.59352876074879
 21
12.80156820494114
 31
0.0
  0
LINE
  5
127
330
6C
100
AcDbEntity
  8
Visible (ANSI)
100
AcDbLine
 10
9.893528760748782
 20
26.50156820494114
 30
0.0
 11
23.09352876074878
 21
26.50156820494115
 31
0.0
  0
LINE
  5
128
330
6C
100
AcDbEntity
  8
Visible (ANSI)
100
AcDbLine
 10
9.893528760748788
 20
12.30156820494114
 30
0.0
 11
9.393528760748786
 21
12.80156820494114
 31
0.0
  0
LINE
  5
129
330
6C
100
AcDbEntity
  8
Visible (ANSI)
100
AcDbLine
 10
23.59352876074879
 20
12.80156820494114
 30
0.0
 11
23.09352876074878
 21
12.30156820494114
 31
0.0
  0
LINE
  5
12A
330
6C
100
AcDbEntity
  8
Visible (ANSI)
100
AcDbLine
 10
23.09352876074878
 20
26.50156820494115
 30
0.0
 11
23.59352876074879
 21
26.00156820494115
 31
0.0
  0
LINE
  5
12B
330
6C
100
AcDbEntity
  8
Visible (ANSI)
100
AcDbLine
 10
34.37688109678422
 20
26.00156820494114
 30
0.0
 11
34.37688109678407
 21
26.50156820494114
 31
0.0
  0
LINE
  5
12C
330
6C
100
AcDbEntity
  8
Visible (ANSI)
100
AcDbLine
 10
34.28313109678422
 20
26.00156820494114
 30
0.0
 11
34.37688109678422
 21
26.00156820494114
 31
0.0
  0
LINE
  5
12D
330
6C
100
AcDbEntity
  8
Visible (ANSI)
100
AcDbLine
 10
34.28313109678408
 20
26.50156820494114
 30
0.0
 11
34.28313109678422
 21
26.00156820494114
 31
0.0
  0
LINE
  5
12E
330
6C
100
AcDbEntity
  8
Visible (ANSI)
100
AcDbLine
 10
34.37688109678407
 20
26.50156820494114
 30
0.0
 11
34.28313109678408
 21
26.50156820494114
 31
0.0
  0
LINE
  5
12F
330
6C
100
AcDbEntity
  8
Visible (ANSI)
100
AcDbLine
 10
34.37688109678422
 20
12.80156820494114
 30
0.0
 11
34.37688109678422
 21
26.00156820494114
 31
0.0
  0
LINE
  5
130
330
6C
100
AcDbEntity
  8
Visible (ANSI)
100
AcDbLine
 10
34.28313109678422
 20
26.00156820494114
 30
0.0
 11
34.28313109678422
 21
12.80156820494114
 31
0.0
  0
LINE
  5
131
330
6C
100
AcDbEntity
  8
Visible (ANSI)
100
AcDbLine
 10
34.37688109678407
 20
12.30156820494114
 30
0.0
 11
34.37688109678422
 21
12.80156820494114
 31
0.0
  0
LINE
  5
132
330
6C
100
AcDbEntity
  8
Visible (ANSI)
100
AcDbLine
 10
34.28313109678408
 20
12.30156820494114
 30
0.0
 11
34.37688109678407
 21
12.30156820494114
 31
0.0
  0
LINE
  5
133
330
6C
100
AcDbEntity
  8
Visible (ANSI)
100
AcDbLine
 10
34.28313109678422
 20
12.80156820494114
 30
0.0
 11
34.28313109678408
 21
12.30156820494114
 31
0.0
  0
LINE
  5
134
330
6C
100
AcDbEntity
  8
Visible (ANSI)
100
AcDbLine
 10
34.37688109678422
 20
12.80156820494114
 30
0.0
 11
34.28313109678422
 21
12.80156820494114
 31
0.0
  0
LINE
  5
135
330
6C
100
AcDbEntity
  8
Hidden (ANSI)
 48
0.0534695908427239
100
AcDbLine
 10
34.28313109678407
 20
26.23156820494115
 30
0.0
 11
34.37688109678407
 21
26.23156820494115
 31
0.0
  0
LINE
  5
136
330
6C
100
AcDbEntity
  8
Hidden (ANSI)
 48
0.0534695908427239
100
AcDbLine
 10
34.28313109678407
 20
25.73156820494114
 30
0.0
 11
34.37688109678407
 21
25.73156820494114
 31
0.0
  0
LINE
  5
137
330
6C
100
AcDbEntity
  8
Hidden (ANSI)
 48
0.0534695908427239
100
AcDbLine
 10
34.28313109678407
 20
13.07156820494114
 30
0.0
 11
34.37688109678407
 21
13.07156820494114
 31
0.0
  0
LINE
  5
138
330
6C
100
AcDbEntity
  8
Hidden (ANSI)
 48
0.0534695908427239
100
AcDbLine
 10
34.28313109678407
 20
12.57156820494114
 30
0.0
 11
34.37688109678407
 21
12.57156820494114
 31
0.0
  0
LINE
  5
139
330
6C
100
AcDbEntity
  8
Hidden (ANSI)
 48
0.0534695908427239
100
AcDbLine
 10
34.28313109678407
 20
25.38781820494115
 30
0.0
 11
34.37688109678407
 21
25.38781820494115
 31
0.0
  0
LINE
  5
13A
330
6C
100
AcDbEntity
  8
Hidden (ANSI)
 48
0.0534695908427239
100
AcDbLine
 10
34.28313109678407
 20
25.07531820494115
 30
0.0
 11
34.37688109678407
 21
25.07531820494115
 31
0.0
  0
LINE
  5
13B
330
6C
100
AcDbEntity
  8
Hidden (ANSI)
 48
0.0534695908427239
100
AcDbLine
 10
34.28313109678407
 20
13.72781820494114
 30
0.0
 11
34.37688109678407
 21
13.72781820494114
 31
0.0
  0
LINE
  5
13C
330
6C
100
AcDbEntity
  8
Hidden (ANSI)
 48
0.0534695908427239
100
AcDbLine
 10
34.28313109678407
 20
13.41531820494114
 30
0.0
 11
34.37688109678407
 21
13.41531820494114
 31
0.0
  0
ELLIPSE
  5
13D
330
6C
100
AcDbEntity
  8
Visible (ANSI)
100
AcDbEllipse
 10
53.02839573194015
 20
27.93723919556161
 30
0.0
 11
-0.1039650440800847
 21
0.1805382158635774
 31
0.0
210
0.0
220
0.0
230
1.0
 40
0.5780931159158116
 41
0.2678448778125396
 42
2.873747775777251
  0
ELLIPSE
  5
13E
330
6C
100
AcDbEntity
  8
Visible (ANSI)
100
AcDbEllipse
 10
52.97315301465996
 20
27.90542703042158
 30
0.0
 11
-0.1039650440800848
 21
0.1805382158635778
 31
0.0
210
0.0
220
0.0
230
1.0
 40
0.5780931159158117
 41
0.0
 42
6.283185307179586
  0
ELLIPSE
  5
13F
330
6C
100
AcDbEntity
  8
Visible (ANSI)
100
AcDbEllipse
 10
45.2737913649265
 20
32.40281885681689
 30
0.0
 11
-0.1039650440800852
 21
0.1805382158635785
 31
0.0
210
0.0
220
0.0
230
1.0
 40
0.5780931159158115
 41
0.2678448778125402
 42
2.873747775777251
  0
ELLIPSE
  5
140
330
6C
100
AcDbEntity
  8
Visible (ANSI)
100
AcDbEllipse
 10
45.21854864764631
 20
32.37100669167686
 30
0.0
 11
-0.1039650440800848
 21
0.1805382158635778
 31
0.0
210
0.0
220
0.0
230
1.0
 40
0.5780931159158117
 41
0.0
 42
6.283185307179586
  0
ELLIPSE
  5
141
330
6C
100
AcDbEntity
  8
Visible (ANSI)
100
AcDbEllipse
 10
45.27379136492649
 20
23.43705205437706
 30
0.0
 11
-0.1039650440800848
 21
0.1805382158635778
 31
0.0
210
0.0
220
0.0
230
1.0
 40
0.5780931159158117
 41
0.2678448778125402
 42
2.873747775777251
  0
ELLIPSE
  5
142
330
6C
100
AcDbEntity
  8
Visible (ANSI)
100
AcDbEllipse
 10
45.21854864764629
 20
23.40523988923703
 30
0.0
 11
-0.1039650440800848
 21
0.1805382158635778
 31
0.0
210
0.0
220
0.0
230
1.0
 40
0.5780931159158117
 41
0.0
 42
6.283185307179586
  0
ELLIPSE
  5
143
330
6C
100
AcDbEntity
  8
Visible (ANSI)
100
AcDbEllipse
 10
53.02839573194013
 20
18.97147239312177
 30
0.0
 11
-0.1039650440800848
 21
0.1805382158635776
 31
0.0
210
0.0
220
0.0
230
1.0
 40
0.5780931159158119
 41
0.2678448778125397
 42
2.873747775777251
  0
ELLIPSE
  5
144
330
6C
100
AcDbEntity
  8
Visible (ANSI)
100
AcDbEllipse
 10
52.97315301465993
 20
18.93966022798174
 30
0.0
 11
-0.1039650440800848
 21
0.1805382158635778
 31
0.0
210
0.0
220
0.0
230
1.0
 40
0.5780931159158117
 41
0.0
 42
6.283185307179586
  0
ELLIPSE
  5
145
330
6C
100
AcDbEntity
  8
Visible (ANSI)
100
AcDbEllipse
 10
53.02839573194015
 20
27.42627224253502
 30
0.0
 11
0.0649781525500604
 21
-0.1128363849147333
 31
0.0
210
0.0
220
0.0
230
1.0
 40
0.5780931159158117
 41
3.578838513251533
 42
5.845939447516942
  0
ELLIPSE
  5
146
330
6C
100
AcDbEntity
  8
Visible (ANSI)
100
AcDbEllipse
 10
52.97315301465996
 20
27.39446007739499
 30
0.0
 11
-0.0649781525500531
 21
0.1128363849147361
 31
0.0
210
0.0
220
0.0
230
1.0
 40
0.5780931159158116
 41
0.0
 42
6.283185307179586
  0
ELLIPSE
  5
147
330
6C
100
AcDbEntity
  8
Visible (ANSI)
100
AcDbEllipse
 10
45.2737913649265
 20
31.89185190379031
 30
0.0
 11
0.0649781525500602
 21
-0.1128363849147329
 31
0.0
210
0.0
220
0.0
230
0.9999999999999998
 40
0.5780931159158114
 41
3.578838513251534
 42
5.845939447516943
  0
ELLIPSE
  5
148
330
6C
100
AcDbEntity
  8
Visible (ANSI)
100
AcDbEllipse
 10
45.21854864764631
 20
31.86003973865028
 30
0.0
 11
-0.0649781525500531
 21
0.1128363849147361
 31
0.0
210
0.0
220
0.0
230
1.0
 40
0.5780931159158116
 41
0.0
 42
6.283185307179586
  0
ELLIPSE
  5
149
330
6C
100
AcDbEntity
  8
Visible (ANSI)
100
AcDbEllipse
 10
45.27379136492649
 20
23.94801900740365
 30
0.0
 11
0.0649781525500597
 21
-0.1128363849147322
 31
0.0
210
0.0
220
0.0
230
1.0
 40
0.5780931159158117
 41
3.578838513251534
 42
5.845939447516943
  0
ELLIPSE
  5
14A
330
6C
100
AcDbEntity
  8
Visible (ANSI)
100
AcDbEllipse
 10
45.21854864764629
 20
23.91620684226361
 30
0.0
 11
-0.0649781525500531
 21
0.1128363849147361
 31
0.0
210
0.0
220
0.0
230
1.0
 40
0.5780931159158116
 41
0.0
 42
6.283185307179586
  0
ELLIPSE
  5
14B
330
6C
100
AcDbEntity
  8
Visible (ANSI)
100
AcDbEllipse
 10
53.02839573194013
 20
19.48243934614836
 30
0.0
 11
0.0649781525500608
 21
-0.1128363849147339
 31
0.0
210
0.0
220
0.0
230
1.0
 40
0.5780931159158115
 41
3.578838513251534
 42
5.845939447516927
  0
ELLIPSE
  5
14C
330
6C
100
AcDbEntity
  8
Visible (ANSI)
100
AcDbEllipse
 10
52.97315301465993
 20
19.45062718100833
 30
0.0
 11
-0.0649781525500531
 21
0.1128363849147361
 31
0.0
210
0.0
220
0.0
230
1.0
 40
0.5780931159158116
 41
0.0
 42
6.283185307179586
  0
LINE
  5
14D
330
6C
100
AcDbEntity
  8
Visible (ANSI)
100
AcDbLine
 10
44.9121357091321
 20
32.56108395306756
 30
0.0
 11
45.20676353462653
 21
32.73206370767184
 31
0.0
  0
LINE
  5
14E
330
6C
100
AcDbEntity
  8
Visible (ANSI)
100
AcDbLine
 10
45.20676353462653
 20
32.73206370767184
 30
0.0
 11
45.26200625190673
 21
32.76387587281187
 31
0.0
  0
LINE
  5
14F
330
6C
100
AcDbEntity
  8
Visible (ANSI)
100
AcDbLine
 10
44.91213570913208
 20
23.56806557979964
 30
0.0
 11
44.9121357091321
 21
32.56108395306756
 31
0.0
  0
LINE
  5
150
330
6C
100
AcDbEntity
  8
Visible (ANSI)
100
AcDbLine
 10
53.04018084495992
 20
28.28472302109684
 30
0.0
 11
45.26200625190673
 21
32.76387587281187
 31
0.0
  0
LINE
  5
151
330
6C
100
AcDbEntity
  8
Visible (ANSI)
100
AcDbLine
 10
53.33480867045434
 20
18.78139513173108
 30
0.0
 11
53.33480867045437
 21
27.774413504999
 31
0.0
  0
LINE
  5
152
330
6C
100
AcDbEntity
  8
Visible (ANSI)
100
AcDbLine
 10
52.98493812767972
 20
18.57860321198677
 30
0.0
 11
45.20676353462651
 21
23.0577560637018
 31
0.0
  0
LINE
  5
153
330
6C
100
AcDbEntity
  8
Visible (ANSI)
100
AcDbLine
 10
53.27956595317417
 20
27.74260133985897
 30
0.0
 11
53.27956595317416
 21
18.74958296659104
 31
0.0
  0
LINE
  5
154
330
6C
100
AcDbEntity
  8
Visible (ANSI)
100
AcDbLine
 10
45.20676353462653
 20
32.73206370767184
 30
0.0
 11
52.98493812767973
 21
28.25291085595681
 31
0.0
  0
LINE
  5
155
330
6C
100
AcDbEntity
  8
Visible (ANSI)
100
AcDbLine
 10
53.33480867045437
 20
27.774413504999
 30
0.0
 11
53.04018084495992
 21
28.28472302109684
 31
0.0
  0
LINE
  5
156
330
6C
100
AcDbEntity
  8
Visible (ANSI)
100
AcDbLine
 10
53.27956595317417
 20
27.74260133985897
 30
0.0
 11
53.33480867045437
 21
27.774413504999
 31
0.0
  0
LINE
  5
157
330
6C
100
AcDbEntity
  8
Visible (ANSI)
100
AcDbLine
 10
52.98493812767973
 20
28.25291085595681
 30
0.0
 11
53.27956595317417
 21
27.74260133985897
 31
0.0
  0
LINE
  5
158
330
6C
100
AcDbEntity
  8
Visible (ANSI)
100
AcDbLine
 10
53.04018084495992
 20
28.28472302109684
 30
0.0
 11
52.98493812767973
 21
28.25291085595681
 31
0.0
  0
LINE
  5
159
330
6C
100
AcDbEntity
  8
Visible (ANSI)
100
AcDbLine
 10
53.0401808449599
 20
18.6104153771268
 30
0.0
 11
53.33480867045434
 21
18.78139513173108
 31
0.0
  0
LINE
  5
15A
330
6C
100
AcDbEntity
  8
Visible (ANSI)
100
AcDbLine
 10
52.98493812767972
 20
18.57860321198677
 30
0.0
 11
53.0401808449599
 21
18.6104153771268
 31
0.0
  0
LINE
  5
15B
330
6C
100
AcDbEntity
  8
Visible (ANSI)
100
AcDbLine
 10
53.27956595317416
 20
18.74958296659104
 30
0.0
 11
52.98493812767972
 21
18.57860321198677
 31
0.0
  0
LINE
  5
15C
330
6C
100
AcDbEntity
  8
Visible (ANSI)
100
AcDbLine
 10
53.33480867045434
 20
18.78139513173108
 30
0.0
 11
53.27956595317416
 21
18.74958296659104
 31
0.0
  0
LINE
  5
15D
330
6C
100
AcDbEntity
  8
Visible (ANSI)
100
AcDbLine
 10
45.20676353462651
 20
23.0577560637018
 30
0.0
 11
44.91213570913208
 21
23.56806557979964
 31
0.0
  0
DIMENSION
  5
15E
330
6C
100
AcDbEntity
  8
Dimension (ANSI)
100
AcDbDimension
  2
*D4
 10
9.393528760748782
 20
30.20238193836831
 30
0.0
 11
16.49352876074878
 21
30.20238193836831
 31
0.0
 70
   160
  1
<>
 42
14.2
  3
Default (ANSI)
100
AcDbAlignedDimension
 13
23.59352876074878
 23
26.00156820494115
 33
0.0
 14
9.393528760748782
 24
26.00156820494114
 34
0.0
 50
180.0
100
AcDbRotatedDimension
1001
ACAD
1000
DSTYLE
1002
{
1070
   289
1070
     1
1070
    73
1070
     0
1070
    74
1070
     0
1070
   271
1070
     3
1070
   272
1070
     2
1070
    48
1040
0.0
1070
    47
1040
0.0
1002
}
  0
DIMENSION
  5
24B
330
6C
100
AcDbEntity
  8
Dimension (ANSI)
100
AcDbDimension
  2
*D5
 10
4.01826583642809
 20
12.30156820494114
 30
0.0
 11
4.018265836428088
 21
20.52138750461452
 31
0.0
 70
   160
  1
<>
 42
14.2
  3
Default (ANSI)
100
AcDbAlignedDimension
 13
9.893528760748782
 23
26.50156820494114
 33
0.0
 14
9.893528760748786
 24
12.30156820494114
 34
0.0
 50
270.0
100
AcDbRotatedDimension
1001
ACAD
1000
DSTYLE
1002
{
1070
   289
1070
     1
1070
   271
1070
     3
1070
   272
1070
     2
1070
    48
1040
0.0
1070
    47
1040
0.0
1002
}
  0
DIMENSION
  5
335
330
6C
100
AcDbEntity
  8
Dimension (ANSI)
100
AcDbDimension
  2
*D6
 10
9.788528760748741
 20
13.03807455588723
 30
0.0
 11
14.58378672443903
 21
8.308543945146455
 31
0.0
 70
   163
  1
<>{\PTYP.(4PL.)}
 42
0.5
  3
Default (ANSI)
100
AcDbDiametricDimension
 15
10.03852876074883
 25
12.60506185399506
 35
0.0
 40
0.0
1001
ACAD_DSTYLE_DIMRADIAL_EXTENSION
1070
   387
1070
     1
1070
   388
1040
0.0
1070
   390
1040
0.0
1001
ACAD
1000
DSTYLE
1002
{
1070
   145
1040
-0.25
1070
   144
1040
0.9999999999999982
1070
   271
1070
     3
1070
   272
1070
     2
1070
    48
1040
0.0
1070
    47
1040
0.0
1002
}
  0
DIMENSION
  5
3EF
330
6C
100
AcDbEntity
  8
Dimension (ANSI)
100
AcDbDimension
  2
*D7
 10
9.803043326188371
 20
13.68205363950153
 30
0.0
 11
14.48466126762115
 21
11.06509789050674
 31
0.0
 70
   163
  1
<>{\PTYP.(4PL.)}
 42
0.3125
  3
Default (ANSI)
100
AcDbDiametricDimension
 15
10.0240141953092
 25
13.46108277038076
 35
0.0
 40
0.0
1001
ACAD_DSTYLE_DIMRADIAL_EXTENSION
1070
   387
1070
     1
1070
   388
1040
0.0
1070
   390
1040
0.0
1001
ACAD
1000
DSTYLE
1002
{
1070
   145
1040
-0.25
1070
   144
1040
0.9999999999999772
1070
   271
1070
     3
1070
   272
1070
     2
1070
    48
1040
0.0
1070
    47
1040
0.0
1002
}
  0
DIMENSION
  5
4A8
330
6C
100
AcDbEntity
  8
Dimension (ANSI)
100
AcDbDimension
  2
*D8
 10
34.37688109678422
 20
22.79811680334959
 30
0.0
 11
36.57618686678284
 21
22.79811680334959
 31
0.0
 70
   160
  1
 12 GA.\P304 SS
 42
0.09375
  3
Default (ANSI)
100
AcDbAlignedDimension
 13
34.28313109678422
 23
21.22331365374328
 33
0.0
 14
34.37688109678422
 24
21.22331365374328
 34
0.0
 50
180.0
100
AcDbRotatedDimension
1001
ACAD
1000
DSTYLE
1002
{
1070
   289
1070
     1
1070
    73
1070
     0
1070
    74
1070
     0
1070
   145
1040
-0.25
1070
   271
1070
     3
1070
    76
1070
     1
1070
    75
1070
     1
1070
   272
1070
     2
1070
    48
1040
0.0
1070
    47
1040
0.0
1002
}
  0
DIMENSION
  5
597
330
6C
100
AcDbEntity
  8
Dimension (ANSI)
100
AcDbDimension
  2
*D9
 10
6.071549186584635
 20
12.82156820494114
 30
0.0
 11
6.071549186584634
 21
18.65061814582465
 31
0.0
 70
   160
  1
<>
 42
13.16
  3
Default (ANSI)
100
AcDbAlignedDimension
 13
9.913528760748786
 23
25.98156820494115
 33
0.0
 14
9.913528760748786
 24
12.82156820494114
 34
0.0
 50
90.0
100
AcDbRotatedDimension
1001
ACAD
1000
DSTYLE
1002
{
1070
   289
1070
     1
1070
   271
1070
     3
1070
   272
1070
     2
1070
    48
1040
0.0
1070
    47
1040
0.0
1002
}
  0
DIMENSION
  5
681
330
6C
100
AcDbEntity
  8
Dimension (ANSI)
100
AcDbDimension
  2
*D10
 10
6.549547754548572
 20
12.82156820494114
 30
0.0
 11
7.782618645048422
 21
14.52180132798758
 31
0.0
 70
   160
  1
<>
 42
0.75
  3
Default (ANSI)
100
AcDbAlignedDimension
 13
9.913528760748786
 23
13.57156820494114
 33
0.0
 14
9.913528760748786
 24
12.82156820494114
 34
0.0
 50
90.0
100
AcDbRotatedDimension
1001
ACAD
1000
DSTYLE
1002
{
1070
   289
1070
     1
1070
   271
1070
     3
1070
   272
1070
     2
1070
    48
1040
0.0
1070
    47
1040
0.0
1002
}
  0
DIMENSION
  5
780
330
6C
100
AcDbEntity
  8
Dimension (ANSI)
100
AcDbDimension
  2
*D11
 10
9.913528760748786
 20
29.10551762097107
 30
0.0
 11
16.49352876074878
 21
29.10551762097107
 31
0.0
 70
   160
  1
<>
 42
13.16
  3
Default (ANSI)
100
AcDbAlignedDimension
 13
23.07352876074879
 23
25.98156820494115
 33
0.0
 14
9.913528760748786
 24
25.98156820494115
 34
0.0
 50
180.0
100
AcDbRotatedDimension
1001
ACAD
1000
DSTYLE
1002
{
1070
   289
1070
     1
1070
    73
1070
     0
1070
    74
1070
     0
1070
   271
1070
     3
1070
   272
1070
     2
1070
    48
1040
0.0
1070
    47
1040
0.0
1002
}
  0
DIMENSION
  5
86A
330
6C
100
AcDbEntity
  8
Dimension (ANSI)
100
AcDbDimension
  2
*D12
 10
25.54460656807315
 20
12.30156820494114
 30
0.0
 11
26.777677458573
 21
13.75180132798758
 31
0.0
 70
   160
  1
<>
 42
0.5000000000000036
  3
Default (ANSI)
100
AcDbAlignedDimension
 13
23.59352876074879
 23
12.80156820494115
 33
0.0
 14
23.09352876074878
 24
12.30156820494114
 34
0.0
 50
90.0
100
AcDbRotatedDimension
1001
ACAD
1000
DSTYLE
1002
{
1070
   289
1070
     1
1070
   271
1070
     3
1070
   272
1070
     2
1070
    48
1040
0.0
1070
    47
1040
0.0
1002
}
  0
DIMENSION
  5
968
330
6C
100
AcDbEntity
  8
Dimension (ANSI)
100
AcDbDimension
  2
*D13
 10
23.09352876074878
 20
10.447727953144
 30
0.0
 11
21.13379078654688
 21
10.447727953144
 31
0.0
 70
   160
  1
<>
 42
0.5
  3
Default (ANSI)
100
AcDbAlignedDimension
 13
23.59352876074879
 23
12.80156820494115
 33
0.0
 14
23.09352876074878
 24
12.30156820494114
 34
0.0
 50
180.0
100
AcDbRotatedDimension
1001
ACAD
1000
DSTYLE
1002
{
1070
   289
1070
     1
1070
    73
1070
     0
1070
    74
1070
     0
1070
   271
1070
     3
1070
   272
1070
     2
1070
    48
1040
0.0
1070
    47
1040
0.0
1002
}
  0
DIMENSION
  5
A52
330
6C
100
AcDbEntity
  8
Dimension (ANSI)
100
AcDbDimension
  2
*D14
 10
23.59352876074878
 20
27.85198023167853
 30
0.0
 11
21.10353604179792
 21
27.85198023167853
 31
0.0
 70
   160
  1
<>
 42
0.5199999999999961
  3
Default (ANSI)
100
AcDbAlignedDimension
 13
23.07352876074879
 23
25.98156820494115
 33
0.0
 14
23.59352876074878
 24
26.00156820494115
 34
0.0
 50
180.0
100
AcDbRotatedDimension
1001
ACAD
1000
DSTYLE
1002
{
1070
   289
1070
     1
1070
    73
1070
     0
1070
    74
1070
     0
1070
   271
1070
     3
1070
   272
1070
     2
1070
    48
1040
0.0
1070
    47
1040
0.0
1002
}
  0
DIMENSION
  5
B3C
330
6C
100
AcDbEntity
  8
Dimension (ANSI)
100
AcDbDimension
  2
*D15
 10
26.89432090984837
 20
26.50156820494114
 30
0.0
 11
25.66125001934852
 21
25.03133508189472
 31
0.0
 70
   160
  1
<>
 42
0.5199999999999996
  3
Default (ANSI)
100
AcDbAlignedDimension
 13
23.07352876074879
 23
25.98156820494115
 33
0.0
 14
23.09352876074878
 24
26.50156820494115
 34
0.0
 50
270.0
100
AcDbRotatedDimension
1001
ACAD
1000
DSTYLE
1002
{
1070
   289
1070
     1
1070
   271
1070
     3
1070
   272
1070
     2
1070
    48
1040
0.0
1070
    47
1040
0.0
1002
}
  0
MTEXT
  5
C3A
102
{ACAD_XDICTIONARY
360
C4A
102
}
330
6C
100
AcDbEntity
  8
Symbol (ANSI)
100
AcDbMText
 10
30.10475970764566
 20
8.483672101105669
 30
0.0
 40
0.4000000049435874
 41
24.816010525442
 71
     1
 72
     1
  3
{\fRomanS|b0|i0|c0|p2;\H2x;PART#: NP1616SSC\P(DATA SUBJECT TO CHANGE WITHOUT \H1.4011x; \H0.71374x;NOTICE) \H1.2931x; \H0.77332x;\P\H0.6x;THIS DRAWING IS PROPERTY OF HUBBELL INC. WIEGMANN\H1.2219x; \H0.81839x;\PALL INFORMATION IS PROPRIETARY AND NOT 
  1
TO BE DUPLICATED\H1.0144x; \H0.82154x;\P\H1.0771x; }
  7
Note Text (ANSI)
 73
     1
 44
0.9303776025772094
1001
ACAD
1000
MTEXTBEGIN
1070
    73
1070
     1
1070
    44
1040
0.9303776025772094
1070
    74
1070
     0
1000
MTEXTEND
  0
ENDSEC
  0
SECTION
  2
OBJECTS
  0
DICTIONARY
  5
C
330
0
100
AcDbDictionary
281
     1
  3
ACAD_CIP_PREVIOUS_PRODUCT_INFO
350
C3C
  3
ACAD_COLOR
350
63
  3
ACAD_GROUP
350
D
  3
ACAD_LAYOUT
350
62
  3
ACAD_MATERIAL
350
10
  3
ACAD_MLEADERSTYLE
350
66
  3
ACAD_MLINESTYLE
350
5F
  3
ACAD_PLOTSETTINGS
350
61
  3
ACAD_PLOTSTYLENAME
350
E
  3
ACAD_SCALELIST
350
42
  3
ACAD_TABLESTYLE
350
64
  3
ACAD_VISUALSTYLE
350
29
  3
ACDB_RECOMPOSE_DATA
350
C4C
  3
AcDbVariableDictionary
350
76
  3
DWGPROPS
350
C4D
  0
DICTIONARY
  5
C89
330
3E9
100
AcDbDictionary
280
     1
281
     1
  3
ACAD_MTEXT_RT
360
C8A
  0
DICTIONARY
  5
C8B
330
4A2
100
AcDbDictionary
280
     1
281
     1
  3
ACAD_MTEXT_RT
360
C8C
  0
DICTIONARY
  5
C4A
330
C3A
100
AcDbDictionary
280
     1
281
     1
  3
ACAD_MTEXT_2008_RT
360
C4B
  0
XRECORD
  5
C3C
102
{ACAD_REACTORS
330
C
102
}
330
C
100
AcDbXrecord
280
     1
300
INVNTOR
300
2012
300
85795PDSP_2012_0F
  0
DICTIONARY
  5
63
102
{ACAD_REACTORS
330
C
102
}
330
C
100
AcDbDictionary
281
     1
  0
DICTIONARY
  5
D
102
{ACAD_REACTORS
330
C
102
}
330
C
100
AcDbDictionary
281
     1
  0
DICTIONARY
  5
62
102
{ACAD_REACTORS
330
C
102
}
330
C
100
AcDbDictionary
281
     1
  3
Layout1
350
6B
  3
Layout2
350
73
  3
Model
350
6F
  0
DICTIONARY
  5
10
102
{ACAD_REACTORS
330
C
102
}
330
C
100
AcDbDictionary
281
     1
  3
ByBlock
350
19
  3
ByLayer
350
11
  3
Global
350
21
  0
DICTIONARY
  5
66
102
{ACAD_REACTORS
330
C
102
}
330
C
100
AcDbDictionary
281
     1
  3
Standard
350
67
  0
DICTIONARY
  5
5F
102
{ACAD_REACTORS
330
C
102
}
330
C
100
AcDbDictionary
281
     1
  3
Standard
350
60
  0
DICTIONARY
  5
61
102
{ACAD_REACTORS
330
C
102
}
330
C
100
AcDbDictionary
281
     1
  0
ACDBDICTIONARYWDFLT
  5
E
102
{ACAD_REACTORS
330
C
102
}
330
C
100
AcDbDictionary
281
     1
  3
Normal
350
F
100
AcDbDictionaryWithDefault
340
F
  0
DICTIONARY
  5
42
102
{ACAD_REACTORS
330
C
102
}
330
C
100
AcDbDictionary
281
     1
  3
A0
350
43
  3
A1
350
44
  3
A2
350
45
  3
A3
350
46
  3
A4
350
47
  3
A5
350
48
  3
A6
350
49
  3
A7
350
4A
  3
A8
350
4B
  3
A9
350
4C
  3
B0
350
4D
  3
B1
350
4E
  3
B2
350
4F
  3
B3
350
50
  3
B4
350
51
  3
B5
350
52
  3
B6
350
53
  0
DICTIONARY
  5
64
102
{ACAD_REACTORS
330
C
102
}
330
C
100
AcDbDictionary
281
     1
  3
Standard
350
65
  0
DICTIONARY
  5
29
102
{ACAD_REACTORS
330
C
102
}
330
C
100
AcDbDictionary
281
     1
  3
2dWireframe
350
2F
  3
Basic
350
2E
  3
Brighten
350
35
  3
ColorChange
350
39
  3
Conceptual
350
32
  3
Dim
350
34
  3
EdgeColorOff
350
41
  3
Facepattern
350
38
  3
Flat
350
2A
  3
FlatWithEdges
350
2B
  3
Gouraud
350
2C
  3
GouraudWithEdges
350
2D
  3
Hidden
350
31
  3
JitterOff
350
3F
  3
Linepattern
350
37
  3
OverhangOff
350
40
  3
Realistic
350
33
  3
Shaded
350
3E
  3
Shaded with edges
350
3D
  3
Shades of Gray
350
3A
  3
Sketchy
350
3B
  3
Thicken
350
36
  3
Wireframe
350
30
  3
X-Ray
350
3C
  0
XRECORD
  5
C4C
102
{ACAD_REACTORS
330
C
102
}
330
C
100
AcDbXrecord
280
     1
 90
        1
330
65
330
C3A
  0
DICTIONARY
  5
76
102
{ACAD_REACTORS
330
C
102
}
330
C
100
AcDbDictionary
281
     1
  3
CANNOSCALE
350
79
  3
CMLEADERSTYLE
350
78
  3
CTABLESTYLE
350
77
  3
DIMASSOC
350
C44
  3
HIDETEXT
350
C43
  3
INDEXCTL
350
C42
  3
LAYEREVAL
350
C3F
  3
LAYERNOTIFY
350
C40
  3
LIGHTINGUNITS
350
C3E
  3
MSLTSCALE
350
C3D
  3
SORTENTS
350
C41
  3
XCLIPFRAME
350
C45
  0
XRECORD
  5
C4D
102
{ACAD_REACTORS
330
C
102
}
330
C
100
AcDbXrecord
280
     1
  1
DWGPROPS COOKIE
  2

  3

  4
dnichola
  6

  7

  8

  9
-
300
Manager=
301
Company=
302
Category=
303
Part Number=NP1616SSC-S
304
Description=
305
Project=
306
Designer=dnichola
307
Engineer=
308
Authority=
309
Cost Center=
 40
0.0000350925925926
 41
2455944.600583102
 42
2455944.600583287
  1

 90
       19
300
Vendor=
300
User Status=
300
Design Status=WorkInProgress
300
Checked by=
300
Engr Approved by=
300
Mfg Approved by=
300
DWG. NO=
300
NUMBER OF SHEETS=1
300
DRAWING #=
  0
XRECORD
  5
C8A
102
{ACAD_REACTORS
330
C89
102
}
330
C89
100
AcDbXrecord
280
     1
 40
31446.0
  1
\A1;\U+22050.500{\PTYP.(4PL.)}
  0
XRECORD
  5
C8C
102
{ACAD_REACTORS
330
C8B
102
}
330
C8B
100
AcDbXrecord
280
     1
 40
31481.0
  1
\A1;\U+22050.313{\PTYP.(4PL.)}
  0
XRECORD
  5
C4B
102
{ACAD_REACTORS
330
C4A
102
}
330
C4A
100
AcDbXrecord
280
     1
 40
3076931.0
  1
\pxsm0.94;{\fRomanS|b0|i0;\H0.8000;PART#: NP1616SSC\P(DATA SUBJECT TO CHANGE WITHOUT NOTICE) \P\fRomanS|b0|i0;\H0.4800;THIS DRAWING IS PROPERTY OF HUBBELL INC. WIEGMANN\PALL INFORMATION IS PROPRIETARY AND NOT TO BE DUPLICATED\fRomanS|b0|i0;\H0.4000;\
  1
P}
  0
LAYOUT
  5
6B
102
{ACAD_XDICTIONARY
360
C83
102
}
102
{ACAD_REACTORS
330
62
102
}
330
62
100
AcDbPlotSettings
  1

  2

  4

  6

 40
0.0
 41
0.0
 42
0.0
 43
0.0
 44
0.0
 45
0.0
 46
0.0
 47
0.0
 48
0.0
 49
0.0
140
0.0
141
0.0
142
1.0
143
1.0
 70
   688
 72
     0
 73
     0
 74
     5
  7

 75
    16
147
1.0
148
0.0
149
0.0
100
AcDbLayout
  1
Layout1
 70
     1
 71
     1
 10
0.0
 20
0.0
 11
12.0
 21
9.0
 12
0.0
 22
0.0
 32
0.0
 14
0.0
 24
0.0
 34
0.0
 15
0.0
 25
0.0
 35
0.0
146
0.0
 13
0.0
 23
0.0
 33
0.0
 16
1.0
 26
0.0
 36
0.0
 17
0.0
 27
1.0
 37
0.0
 76
     0
330
68
  0
LAYOUT
  5
73
102
{ACAD_XDICTIONARY
360
C87
102
}
102
{ACAD_REACTORS
330
62
102
}
330
62
100
AcDbPlotSettings
  1

  2

  4

  6

 40
0.0
 41
0.0
 42
0.0
 43
0.0
 44
0.0
 45
0.0
 46
0.0
 47
0.0
 48
0.0
 49
0.0
140
0.0
141
0.0
142
1.0
143
1.0
 70
   688
 72
     0
 73
     0
 74
     5
  7

 75
    16
147
1.0
148
0.0
149
0.0
100
AcDbLayout
  1
Layout2
 70
     1
 71
     2
 10
0.0
 20
0.0
 11
12.0
 21
9.0
 12
0.0
 22
0.0
 32
0.0
 14
0.0
 24
0.0
 34
0.0
 15
0.0
 25
0.0
 35
0.0
146
0.0
 13
0.0
 23
0.0
 33
0.0
 16
1.0
 26
0.0
 36
0.0
 17
0.0
 27
1.0
 37
0.0
 76
     0
330
70
  0
LAYOUT
  5
6F
102
{ACAD_XDICTIONARY
360
C85
102
}
102
{ACAD_REACTORS
330
62
102
}
330
62
100
AcDbPlotSettings
  1

  2

  4

  6

 40
0.0
 41
0.0
 42
0.0
 43
0.0
 44
0.0
 45
0.0
 46
0.0
 47
0.0
 48
0.0
 49
0.0
140
0.0
141
0.0
142
1.0
143
1.0
 70
  1712
 72
     0
 73
     0
 74
     0
  7

 75
     0
147
1.0
148
0.0
149
0.0
100
AcDbLayout
  1
Model
 70
     1
 71
     0
 10
0.0
 20
0.0
 11
12.0
 21
9.0
 12
0.0
 22
0.0
 32
0.0
 14
0.0
 24
0.0
 34
0.0
 15
0.0
 25
0.0
 35
0.0
146
0.0
 13
0.0
 23
0.0
 33
0.0
 16
1.0
 26
0.0
 36
0.0
 17
0.0
 27
1.0
 37
0.0
 76
     0
330
6C
  0
MATERIAL
  5
19
102
{ACAD_XDICTIONARY
360
1A
102
}
102
{ACAD_REACTORS
330
10
102
}
330
10
100
AcDbMaterial
  1
ByBlock
 72
     0
 43
0.0208333333333333
 43
0.0
 43
0.0
 43
0.0
 43
0.0
 43
0.0208333333333333
 43
0.0
 43
0.0
 43
0.0
 43
0.0
 43
1.0
 43
0.0
 43
0.0
 43
0.0
 43
0.0
 43
1.0
 77
     0
 47
0.0208333333333333
 47
0.0
 47
0.0
 47
0.0
 47
0.0
 47
0.0208333333333333
 47
0.0
 47
0.0
 47
0.0
 47
0.0
 47
1.0
 47
0.0
 47
0.0
 47
0.0
 47
0.0
 47
1.0
171
     0
 49
0.0208333333333333
 49
0.0
 49
0.0
 49
0.0
 49
0.0
 49
0.0208333333333333
 49
0.0
 49
0.0
 49
0.0
 49
0.0
 49
1.0
 49
0.0
 49
0.0
 49
0.0
 49
0.0
 49
1.0
175
     0
142
0.0208333333333333
142
0.0
142
0.0
142
0.0
142
0.0
142
0.0208333333333333
142
0.0
142
0.0
142
0.0
142
0.0
142
1.0
142
0.0
142
0.0
142
0.0
142
0.0
142
1.0
179
     0
144
0.0208333333333333
144
0.0
144
0.0
144
0.0
144
0.0
144
0.0208333333333333
144
0.0
144
0.0
144
0.0
144
0.0
144
1.0
144
0.0
144
0.0
144
0.0
144
0.0
144
1.0
147
0.0208333333333333
147
0.0
147
0.0
147
0.0
147
0.0
147
0.0208333333333333
147
0.0
147
0.0
147
0.0
147
0.0
147
1.0
147
0.0
147
0.0
147
0.0
147
0.0
147
1.0
  0
MATERIAL
  5
11
102
{ACAD_XDICTIONARY
360
12
102
}
102
{ACAD_REACTORS
330
10
102
}
330
10
100
AcDbMaterial
  1
ByLayer
 72
     0
 43
0.0208333333333333
 43
0.0
 43
0.0
 43
0.0
 43
0.0
 43
0.0208333333333333
 43
0.0
 43
0.0
 43
0.0
 43
0.0
 43
1.0
 43
0.0
 43
0.0
 43
0.0
 43
0.0
 43
1.0
 77
     0
 47
0.0208333333333333
 47
0.0
 47
0.0
 47
0.0
 47
0.0
 47
0.0208333333333333
 47
0.0
 47
0.0
 47
0.0
 47
0.0
 47
1.0
 47
0.0
 47
0.0
 47
0.0
 47
0.0
 47
1.0
171
     0
 49
0.0208333333333333
 49
0.0
 49
0.0
 49
0.0
 49
0.0
 49
0.0208333333333333
 49
0.0
 49
0.0
 49
0.0
 49
0.0
 49
1.0
 49
0.0
 49
0.0
 49
0.0
 49
0.0
 49
1.0
175
     0
142
0.0208333333333333
142
0.0
142
0.0
142
0.0
142
0.0
142
0.0208333333333333
142
0.0
142
0.0
142
0.0
142
0.0
142
1.0
142
0.0
142
0.0
142
0.0
142
0.0
142
1.0
179
     0
144
0.0208333333333333
144
0.0
144
0.0
144
0.0
144
0.0
144
0.0208333333333333
144
0.0
144
0.0
144
0.0
144
0.0
144
1.0
144
0.0
144
0.0
144
0.0
144
0.0
144
1.0
147
0.0208333333333333
147
0.0
147
0.0
147
0.0
147
0.0
147
0.0208333333333333
147
0.0
147
0.0
147
0.0
147
0.0
147
1.0
147
0.0
147
0.0
147
0.0
147
0.0
147
1.0
  0
MATERIAL
  5
21
102
{ACAD_XDICTIONARY
360
22
102
}
102
{ACAD_REACTORS
330
10
102
}
330
10
100
AcDbMaterial
  1
Global
 72
     0
 43
0.0208333333333333
 43
0.0
 43
0.0
 43
0.0
 43
0.0
 43
0.0208333333333333
 43
0.0
 43
0.0
 43
0.0
 43
0.0
 43
1.0
 43
0.0
 43
0.0
 43
0.0
 43
0.0
 43
1.0
 77
     0
 47
0.0208333333333333
 47
0.0
 47
0.0
 47
0.0
 47
0.0
 47
0.0208333333333333
 47
0.0
 47
0.0
 47
0.0
 47
0.0
 47
1.0
 47
0.0
 47
0.0
 47
0.0
 47
0.0
 47
1.0
171
     0
 49
0.0208333333333333
 49
0.0
 49
0.0
 49
0.0
 49
0.0
 49
0.0208333333333333
 49
0.0
 49
0.0
 49
0.0
 49
0.0
 49
1.0
 49
0.0
 49
0.0
 49
0.0
 49
0.0
 49
1.0
175
     0
142
0.0208333333333333
142
0.0
142
0.0
142
0.0
142
0.0
142
0.0208333333333333
142
0.0
142
0.0
142
0.0
142
0.0
142
1.0
142
0.0
142
0.0
142
0.0
142
0.0
142
1.0
179
     0
144
0.0208333333333333
144
0.0
144
0.0
144
0.0
144
0.0
144
0.0208333333333333
144
0.0
144
0.0
144
0.0
144
0.0
144
1.0
144
0.0
144
0.0
144
0.0
144
0.0
144
1.0
147
0.0208333333333333
147
0.0
147
0.0
147
0.0
147
0.0
147
0.0208333333333333
147
0.0
147
0.0
147
0.0
147
0.0
147
1.0
147
0.0
147
0.0
147
0.0
147
0.0
147
1.0
  0
MLEADERSTYLE
  5
67
102
{ACAD_XDICTIONARY
360
C48
102
}
102
{ACAD_REACTORS
330
66
102
}
330
66
100
AcDbMLeaderStyle
170
     2
171
     1
172
     0
 90
        2
 40
0.0
 41
0.0
173
     1
 91
-1056964608
340
5B
 92
       -2
290
     1
 42
0.09
291
     1
 43
0.36
  3
Standard
 44
0.18
300

342
55
174
     1
178
     6
175
     1
176
     0
 93
-1056964608
 45
0.18
292
     0
297
     0
 46
0.18
 94
-1056964608
 47
1.0
 49
1.0
140
1.0
293
     1
141
0.0
294
     1
177
     0
142
1.0
295
     0
296
     0
143
0.125
1001
ACAD_MLEADERVER
1070
     2
  0
MLINESTYLE
  5
60
102
{ACAD_REACTORS
330
5F
102
}
330
5F
100
AcDbMlineStyle
  2
STANDARD
 70
     0
  3

 62
   256
 51
90.0
 52
90.0
 71
     2
 49
0.5
 62
   256
  6
BYLAYER
 49
-0.5
 62
   256
  6
BYLAYER
  0
ACDBPLACEHOLDER
  5
F
102
{ACAD_REACTORS
330
E
102
}
330
E
  0
SCALE
  5
43
102
{ACAD_REACTORS
330
42
102
}
330
42
100
AcDbScale
 70
     0
300
1:1
140
1.0
141
1.0
290
     1
  0
SCALE
  5
44
102
{ACAD_REACTORS
330
42
102
}
330
42
100
AcDbScale
 70
     0
300
1/128" = 1'-0"
140
0.0078125
141
12.0
290
     0
  0
SCALE
  5
45
102
{ACAD_REACTORS
330
42
102
}
330
42
100
AcDbScale
 70
     0
300
1/64" = 1'-0"
140
0.015625
141
12.0
290
     0
  0
SCALE
  5
46
102
{ACAD_REACTORS
330
42
102
}
330
42
100
AcDbScale
 70
     0
300
1/32" = 1'-0"
140
0.03125
141
12.0
290
     0
  0
SCALE
  5
47
102
{ACAD_REACTORS
330
42
102
}
330
42
100
AcDbScale
 70
     0
300
1/16" = 1'-0"
140
0.0625
141
12.0
290
     0
  0
SCALE
  5
48
102
{ACAD_REACTORS
330
42
102
}
330
42
100
AcDbScale
 70
     0
300
3/32" = 1'-0"
140
0.09375
141
12.0
290
     0
  0
SCALE
  5
49
102
{ACAD_REACTORS
330
42
102
}
330
42
100
AcDbScale
 70
     0
300
1/8" = 1'-0"
140
0.125
141
12.0
290
     0
  0
SCALE
  5
4A
102
{ACAD_REACTORS
330
42
102
}
330
42
100
AcDbScale
 70
     0
300
3/16" = 1'-0"
140
0.1875
141
12.0
290
     0
  0
SCALE
  5
4B
102
{ACAD_REACTORS
330
42
102
}
330
42
100
AcDbScale
 70
     0
300
1/4" = 1'-0"
140
0.25
141
12.0
290
     0
  0
SCALE
  5
4C
102
{ACAD_REACTORS
330
42
102
}
330
42
100
AcDbScale
 70
     0
300
3/8" = 1'-0"
140
0.375
141
12.0
290
     0
  0
SCALE
  5
4D
102
{ACAD_REACTORS
330
42
102
}
330
42
100
AcDbScale
 70
     0
300
1/2" = 1'-0"
140
0.5
141
12.0
290
     0
  0
SCALE
  5
4E
102
{ACAD_REACTORS
330
42
102
}
330
42
100
AcDbScale
 70
     0
300
3/4" = 1'-0"
140
0.75
141
12.0
290
     0
  0
SCALE
  5
4F
102
{ACAD_REACTORS
330
42
102
}
330
42
100
AcDbScale
 70
     0
300
1" = 1'-0"
140
1.0
141
12.0
290
     0
  0
SCALE
  5
50
102
{ACAD_REACTORS
330
42
102
}
330
42
100
AcDbScale
 70
     0
300
1-1/2" = 1'-0"
140
1.5
141
12.0
290
     0
  0
SCALE
  5
51
102
{ACAD_REACTORS
330
42
102
}
330
42
100
AcDbScale
 70
     0
300
3" = 1'-0"
140
3.0
141
12.0
290
     0
  0
SCALE
  5
52
102
{ACAD_REACTORS
330
42
102
}
330
42
100
AcDbScale
 70
     0
300
6" = 1'-0"
140
6.0
141
12.0
290
     0
  0
SCALE
  5
53
102
{ACAD_REACTORS
330
42
102
}
330
42
100
AcDbScale
 70
     0
300
1'-0" = 1'-0"
140
12.0
141
12.0
290
     0
  0
TABLESTYLE
  5
65
102
{ACAD_XDICTIONARY
360
C46
102
}
102
{ACAD_REACTORS
330
64
102
}
330
64
100
AcDbTableStyle
  3
Standard
 70
     0
 71
     0
 40
0.06
 41
0.06
280
     0
281
     0
  7
Standard
140
0.18
170
     2
 62
     0
 63
     7
283
     0
274
    -2
284
     1
 64
     0
275
    -2
285
     1
 65
     0
276
    -2
286
     1
 66
     0
277
    -2
287
     1
 67
     0
278
    -2
288
     1
 68
     0
279
    -2
289
     1
 69
     0
  7
Standard
140
0.25
170
     5
 62
     0
 63
     7
283
     0
274
    -2
284
     1
 64
     0
275
    -2
285
     1
 65
     0
276
    -2
286
     1
 66
     0
277
    -2
287
     1
 67
     0
278
    -2
288
     1
 68
     0
279
    -2
289
     1
 69
     0
  7
Standard
140
0.18
170
     5
 62
     0
 63
     7
283
     0
274
    -2
284
     1
 64
     0
275
    -2
285
     1
 65
     0
276
    -2
286
     1
 66
     0
277
    -2
287
     1
 67
     0
278
    -2
288
     1
 68
     0
279
    -2
289
     1
 69
     0
  0
VISUALSTYLE
  5
2F
102
{ACAD_XDICTIONARY
360
C5B
102
}
102
{ACAD_REACTORS
330
29
102
}
330
29
100
AcDbVisualStyle
  2
2dWireframe
 70
     4
 71
     0
 72
     2
 73
     0
 90
        0
 40
-0.6
 41
-30.0
 62
     5
 63
     7
 74
     1
 91
        4
 64
     7
 65
   257
 75
     1
175
     1
 42
1.0
 92
        0
 66
   257
 43
1.0
 76
     1
 77
     6
 78
     2
 67
     7
 79
     5
170
     0
171
     0
290
     0
174
     0
 93
        1
 44
0.0
173
     0
291
     0
 45
0.0
1001
ACAD
1000
AcDbSavedByObjectVersion
1070
     0
  0
VISUALSTYLE
  5
2E
102
{ACAD_XDICTIONARY
360
C59
102
}
102
{ACAD_REACTORS
330
29
102
}
330
29
100
AcDbVisualStyle
  2
Basic
 70
     7
 71
     1
 72
     0
 73
     1
 90
        0
 40
-0.6
 41
-30.0
 62
     5
 63
     7
 74
     0
 91
        4
 64
     7
 65
   257
 75
     1
175
     1
 42
1.0
 92
        8
 66
     7
 43
1.0
 76
     1
 77
     6
 78
     2
 67
     7
 79
     5
170
     0
171
     0
290
     0
174
     0
 93
        1
 44
0.0
173
     0
291
     1
 45
0.0
1001
ACAD
1000
AcDbSavedByObjectVersion
1070
     0
  0
VISUALSTYLE
  5
35
102
{ACAD_XDICTIONARY
360
C67
102
}
102
{ACAD_REACTORS
330
29
102
}
330
29
100
AcDbVisualStyle
  2
Brighten
 70
    12
 71
     2
 72
     2
 73
     0
 90
        0
 40
-0.6
 41
-30.0
 62
     5
 63
     7
 74
     1
 91
        4
 64
     7
 65
   257
 75
     1
175
     1
 42
1.0
 92
        8
 66
     7
 43
1.0
 76
     1
 77
     6
 78
     2
 67
     7
 79
     5
170
     0
171
     0
290
     0
174
     0
 93
        1
 44
50.0
173
     0
291
     1
 45
0.0
1001
ACAD
1000
AcDbSavedByObjectVersion
1070
     0
  0
VISUALSTYLE
  5
39
102
{ACAD_XDICTIONARY
360
C6F
102
}
102
{ACAD_REACTORS
330
29
102
}
330
29
100
AcDbVisualStyle
  2
ColorChange
 70
    16
 71
     2
 72
     2
 73
     3
 90
        0
 40
-0.6
 41
-30.0
 62
     5
 63
     8
 74
     1
 91
        4
 64
     7
 65
   257
 75
     1
175
     1
 42
1.0
 92
        8
 66
     8
 43
1.0
 76
     1
 77
     6
 78
     2
 67
     7
 79
     5
170
     0
171
     0
290
     0
174
     0
 93
        1
 44
0.0
173
     0
291
     1
 45
0.0
1001
ACAD
1000
AcDbSavedByObjectVersion
1070
     0
  0
VISUALSTYLE
  5
32
102
{ACAD_XDICTIONARY
360
C61
102
}
102
{ACAD_REACTORS
330
29
102
}
330
29
100
AcDbVisualStyle
  2
Conceptual
 70
     9
 71
     3
 72
     2
 73
     0
 90
        0
 40
-0.6
 41
-30.0
 62
     5
 63
     7
 74
     2
 91
        2
 64
     7
 65
   257
 75
     1
175
     1
 42
179.0
 92
        8
 66
     7
 43
1.0
 76
     1
 77
     6
 78
     2
 67
     7
 79
     3
170
     0
171
     0
290
     0
174
     0
 93
        1
 44
0.0
173
     0
291
     0
 45
0.0
1001
ACAD
1000
AcDbSavedByObjectVersion
1070
     0
  0
VISUALSTYLE
  5
34
102
{ACAD_XDICTIONARY
360
C65
102
}
102
{ACAD_REACTORS
330
29
102
}
330
29
100
AcDbVisualStyle
  2
Dim
 70
    11
 71
     2
 72
     2
 73
     0
 90
        0
 40
-0.6
 41
-30.0
 62
     5
 63
     7
 74
     1
 91
        4
 64
     7
 65
   257
 75
     1
175
     1
 42
1.0
 92
        8
 66
     7
 43
1.0
 76
     1
 77
     6
 78
     2
 67
     7
 79
     5
170
     0
171
     0
290
     0
174
     0
 93
        1
 44
-50.0
173
     0
291
     1
 45
0.0
1001
ACAD
1000
AcDbSavedByObjectVersion
1070
     0
  0
VISUALSTYLE
  5
41
102
{ACAD_XDICTIONARY
360
C7F
102
}
102
{ACAD_REACTORS
330
29
102
}
330
29
100
AcDbVisualStyle
  2
EdgeColorOff
 70
    22
 71
     2
 72
     2
 73
     0
 90
        0
 40
-0.6
 41
-30.0
 62
     5
 63
     7
 74
     1
 91
        4
 64
     7
 65
   257
 75
     1
175
     1
 42
1.0
 92
        8
 66
     7
 43
1.0
 76
     1
 77
     6
 78
     2
 67
     7
 79
     5
170
     0
171
     0
290
     0
174
     0
 93
        1
 44
0.0
173
     0
291
     1
 45
0.0
1001
ACAD
1000
AcDbSavedByObjectVersion
1070
     0
  0
VISUALSTYLE
  5
38
102
{ACAD_XDICTIONARY
360
C6D
102
}
102
{ACAD_REACTORS
330
29
102
}
330
29
100
AcDbVisualStyle
  2
Facepattern
 70
    15
 71
     2
 72
     2
 73
     0
 90
        0
 40
-0.6
 41
-30.0
 62
     5
 63
     7
 74
     1
 91
        4
 64
     7
 65
   257
 75
     1
175
     1
 42
1.0
 92
        8
 66
     7
 43
1.0
 76
     1
 77
     6
 78
     2
 67
     7
 79
     5
170
     0
171
     0
290
     0
174
     0
 93
        1
 44
0.0
173
     0
291
     1
 45
0.0
1001
ACAD
1000
AcDbSavedByObjectVersion
1070
     0
  0
VISUALSTYLE
  5
2A
102
{ACAD_XDICTIONARY
360
C51
102
}
102
{ACAD_REACTORS
330
29
102
}
330
29
100
AcDbVisualStyle
  2
Flat
 70
     0
 71
     2
 72
     1
 73
     1
 90
        2
 40
-0.6
 41
30.0
 62
     5
 63
     7
 74
     0
 91
        0
 64
     7
 65
   257
 75
     1
175
     1
 42
1.0
 92
        8
 66
     7
 43
1.0
 76
     1
 77
     6
 78
     2
 67
     7
 79
     5
170
     0
171
     0
290
     0
174
     0
 93
       13
 44
0.0
173
     0
291
     1
 45
0.0
1001
ACAD
1000
AcDbSavedByObjectVersion
1070
     0
  0
VISUALSTYLE
  5
2B
102
{ACAD_XDICTIONARY
360
C53
102
}
102
{ACAD_REACTORS
330
29
102
}
330
29
100
AcDbVisualStyle
  2
FlatWithEdges
 70
     1
 71
     2
 72
     1
 73
     1
 90
        2
 40
-0.6
 41
30.0
 62
     5
 63
     7
 74
     1
 91
        0
 64
     7
 65
   257
 75
     1
175
     1
 42
1.0
 92
        0
 66
   257
 43
1.0
 76
     1
 77
     6
 78
     2
 67
     7
 79
     5
170
     0
171
     0
290
     0
174
     0
 93
       13
 44
0.0
173
     0
291
     1
 45
0.0
1001
ACAD
1000
AcDbSavedByObjectVersion
1070
     0
  0
VISUALSTYLE
  5
2C
102
{ACAD_XDICTIONARY
360
C55
102
}
102
{ACAD_REACTORS
330
29
102
}
330
29
100
AcDbVisualStyle
  2
Gouraud
 70
     2
 71
     2
 72
     2
 73
     1
 90
        2
 40
-0.6
 41
30.0
 62
     5
 63
     7
 74
     0
 91
        0
 64
     7
 65
   257
 75
     1
175
     1
 42
1.0
 92
        0
 66
     7
 43
1.0
 76
     1
 77
     6
 78
     2
 67
     7
 79
     5
170
     0
171
     0
290
     0
174
     0
 93
       13
 44
0.0
173
     0
291
     1
 45
0.0
1001
ACAD
1000
AcDbSavedByObjectVersion
1070
     0
  0
VISUALSTYLE
  5
2D
102
{ACAD_XDICTIONARY
360
C57
102
}
102
{ACAD_REACTORS
330
29
102
}
330
29
100
AcDbVisualStyle
  2
GouraudWithEdges
 70
     3
 71
     2
 72
     2
 73
     1
 90
        2
 40
-0.6
 41
30.0
 62
     5
 63
     7
 74
     1
 91
        0
 64
     7
 65
   257
 75
     1
175
     1
 42
1.0
 92
        0
 66
   257
 43
1.0
 76
     1
 77
     6
 78
     2
 67
     7
 79
     5
170
     0
171
     0
290
     0
174
     0
 93
       13
 44
0.0
173
     0
291
     1
 45
0.0
1001
ACAD
1000
AcDbSavedByObjectVersion
1070
     0
  0
VISUALSTYLE
  5
31
102
{ACAD_XDICTIONARY
360
C5F
102
}
102
{ACAD_REACTORS
330
29
102
}
330
29
100
AcDbVisualStyle
  2
Hidden
 70
     6
 71
     1
 72
     2
 73
     2
 90
        0
 40
-0.6
 41
-30.0
 62
     5
 63
     7
 74
     2
 91
        2
 64
     7
 65
   257
 75
     2
175
     1
 42
40.0
 92
        0
 66
   257
 43
1.0
 76
     1
 77
     6
 78
     2
 67
     7
 79
     3
170
     0
171
     0
290
     0
174
     0
 93
        1
 44
0.0
173
     0
291
     0
 45
0.0
1001
ACAD
1000
AcDbSavedByObjectVersion
1070
     0
  0
VISUALSTYLE
  5
3F
102
{ACAD_XDICTIONARY
360
C7B
102
}
102
{ACAD_REACTORS
330
29
102
}
330
29
100
AcDbVisualStyle
  2
JitterOff
 70
    20
 71
     2
 72
     2
 73
     0
 90
        0
 40
-0.6
 41
-30.0
 62
     5
 63
     7
 74
     1
 91
        4
 64
     7
 65
   257
 75
     1
175
     1
 42
1.0
 92
       10
 66
     7
 43
1.0
 76
     1
 77
     6
 78
     2
 67
     7
 79
     5
170
     0
171
     0
290
     0
174
     0
 93
        1
 44
0.0
173
     0
291
     1
 45
0.0
1001
ACAD
1000
AcDbSavedByObjectVersion
1070
     0
  0
VISUALSTYLE
  5
37
102
{ACAD_XDICTIONARY
360
C6B
102
}
102
{ACAD_REACTORS
330
29
102
}
330
29
100
AcDbVisualStyle
  2
Linepattern
 70
    14
 71
     2
 72
     2
 73
     0
 90
        0
 40
-0.6
 41
-30.0
 62
     5
 63
     7
 74
     1
 91
        4
 64
     7
 65
   257
 75
     7
175
     7
 42
1.0
 92
        8
 66
     7
 43
1.0
 76
     1
 77
     6
 78
     2
 67
     7
 79
     5
170
     0
171
     0
290
     0
174
     0
 93
        1
 44
0.0
173
     0
291
     1
 45
0.0
1001
ACAD
1000
AcDbSavedByObjectVersion
1070
     0
  0
VISUALSTYLE
  5
40
102
{ACAD_XDICTIONARY
360
C7D
102
}
102
{ACAD_REACTORS
330
29
102
}
330
29
100
AcDbVisualStyle
  2
OverhangOff
 70
    21
 71
     2
 72
     2
 73
     0
 90
        0
 40
-0.6
 41
-30.0
 62
     5
 63
     7
 74
     1
 91
        4
 64
     7
 65
   257
 75
     1
175
     1
 42
1.0
 92
        9
 66
     7
 43
1.0
 76
     1
 77
     6
 78
     2
 67
     7
 79
     5
170
     0
171
     0
290
     0
174
     0
 93
        1
 44
0.0
173
     0
291
     1
 45
0.0
1001
ACAD
1000
AcDbSavedByObjectVersion
1070
     0
  0
VISUALSTYLE
  5
33
102
{ACAD_XDICTIONARY
360
C63
102
}
102
{ACAD_REACTORS
330
29
102
}
330
29
100
AcDbVisualStyle
  2
Realistic
 70
     8
 71
     2
 72
     3
 73
     0
 90
        2
 40
-0.6
 41
30.0
 62
     5
 63
     7
 74
     0
 91
        0
 64
     7
 65
   257
 75
     1
175
     1
 42
1.0
 92
        8
 66
   257
 43
1.0
 76
     1
 77
     6
 78
     2
 67
     7
 79
     3
170
     0
171
     0
290
     0
174
     0
 93
       13
 44
0.0
173
     0
291
     0
 45
0.0
1001
ACAD
1000
AcDbSavedByObjectVersion
1070
     0
  0
VISUALSTYLE
  5
3E
102
{ACAD_XDICTIONARY
360
C79
102
}
102
{ACAD_REACTORS
330
29
102
}
330
29
100
AcDbVisualStyle
  2
Shaded
 70
    27
 71
     2
 72
     2
 73
     1
 90
        2
 40
-0.6
 41
30.0
 62
     5
 63
     7
 74
     0
 91
        4
 64
     7
 65
   257
 75
     1
175
     1
 42
1.0
 92
        8
 66
   257
 43
1.0
 76
     1
 77
     6
 78
     2
 67
     8
 79
     3
170
     0
171
     0
290
     0
174
     0
 93
        5
 44
0.0
173
     0
291
     0
 45
0.0
1001
ACAD
1000
AcDbSavedByObjectVersion
1070
     0
  0
VISUALSTYLE
  5
3D
102
{ACAD_XDICTIONARY
360
C77
102
}
102
{ACAD_REACTORS
330
29
102
}
330
29
100
AcDbVisualStyle
  2
Shaded with edges
 70
    26
 71
     2
 72
     2
 73
     1
 90
        2
 40
-0.6
 41
30.0
 62
     5
 63
     7
 74
     1
 91
       10
 64
     7
 65
   257
 75
     2
175
     1
 42
1.0
 92
        8
 66
   257
 43
1.0
 76
     1
 77
     6
 78
     2
 67
     7
 79
     3
170
     0
171
     0
290
     0
174
     0
 93
        5
 44
0.0
173
     0
291
     0
 45
0.0
1001
ACAD
1000
AcDbSavedByObjectVersion
1070
     0
  0
VISUALSTYLE
  5
3A
102
{ACAD_XDICTIONARY
360
C71
102
}
102
{ACAD_REACTORS
330
29
102
}
330
29
100
AcDbVisualStyle
  2
Shades of Gray
 70
    23
 71
     2
 72
     2
 73
     3
 90
        0
 40
-0.6
 41
-30.0
 62
     5
 63
     7
 74
     2
 91
        2
 64
     7
 65
     7
 75
     1
175
     1
 42
40.0
 92
        8
 66
     7
 43
1.0
 76
     1
 77
     6
 78
     2
 67
     7
 79
     3
170
     0
171
     0
290
     0
174
     0
 93
        1
 44
0.0
173
     0
291
     0
 45
0.0
1001
ACAD
1000
AcDbSavedByObjectVersion
1070
     0
  0
VISUALSTYLE
  5
3B
102
{ACAD_XDICTIONARY
360
C73
102
}
102
{ACAD_REACTORS
330
29
102
}
330
29
100
AcDbVisualStyle
  2
Sketchy
 70
    24
 71
     1
 72
     2
 73
     2
 90
        0
 40
-0.6
 41
-30.0
 62
     5
 63
     7
 74
     2
 91
        2
 64
     7
 65
     7
 75
     1
175
     1
 42
40.0
 92
       11
 66
     7
 43
1.0
 76
     1
 77
     6
 78
     2
 67
     7
 79
     6
170
     0
171
     0
290
     0
174
     0
 93
        1
 44
0.0
173
     0
291
     0
 45
0.0
1001
ACAD
1000
AcDbSavedByObjectVersion
1070
     0
  0
VISUALSTYLE
  5
36
102
{ACAD_XDICTIONARY
360
C69
102
}
102
{ACAD_REACTORS
330
29
102
}
330
29
100
AcDbVisualStyle
  2
Thicken
 70
    13
 71
     2
 72
     2
 73
     0
 90
        0
 40
-0.6
 41
-30.0
 62
     5
 63
     7
 74
     1
 91
        4
 64
     7
 65
   257
 75
     1
175
     1
 42
1.0
 92
       12
 66
     7
 43
1.0
 76
     1
 77
     6
 78
     2
 67
     7
 79
     5
170
     0
171
     0
290
     0
174
     0
 93
        1
 44
0.0
173
     0
291
     1
 45
0.0
1001
ACAD
1000
AcDbSavedByObjectVersion
1070
     0
  0
VISUALSTYLE
  5
30
102
{ACAD_XDICTIONARY
360
C5D
102
}
102
{ACAD_REACTORS
330
29
102
}
330
29
100
AcDbVisualStyle
  2
Wireframe
 70
     5
 71
     0
 72
     2
 73
     0
 90
        0
 40
-0.6
 41
-30.0
 62
     5
 63
     7
 74
     1
 91
        4
 64
     7
 65
   257
 75
     1
175
     1
 42
1.0
 92
        0
 66
   257
 43
1.0
 76
     1
 77
     6
 78
     2
 67
     7
 79
     3
170
     0
171
     0
290
     0
174
     0
 93
        1
 44
0.0
173
     0
291
     0
 45
0.0
1001
ACAD
1000
AcDbSavedByObjectVersion
1070
     0
  0
VISUALSTYLE
  5
3C
102
{ACAD_XDICTIONARY
360
C75
102
}
102
{ACAD_REACTORS
330
29
102
}
330
29
100
AcDbVisualStyle
  2
X-Ray
 70
    25
 71
     2
 72
     2
 73
     1
 90
        1
 40
0.5
 41
-30.0
 62
     5
 63
     7
 74
     1
 91
        0
 64
     7
 65
   257
 75
     1
175
     1
 42
1.0
 92
        8
 66
     7
 43
1.0
 76
     1
 77
     6
 78
     2
 67
     7
 79
     3
170
     0
171
     0
290
     0
174
     0
 93
       13
 44
0.0
173
     0
291
     0
 45
0.0
1001
ACAD
1000
AcDbSavedByObjectVersion
1070
     0
  0
DICTIONARYVAR
  5
79
102
{ACAD_REACTORS
330
76
102
}
330
76
100
DictionaryVariables
280
     0
  1
1:1
  0
DICTIONARYVAR
  5
78
102
{ACAD_REACTORS
330
76
102
}
330
76
100
DictionaryVariables
280
     0
  1
STANDARD
  0
DICTIONARYVAR
  5
77
102
{ACAD_REACTORS
330
76
102
}
330
76
100
DictionaryVariables
280
     0
  1
STANDARD
  0
DICTIONARYVAR
  5
C44
102
{ACAD_REACTORS
330
76
102
}
330
76
100
DictionaryVariables
280
     0
  1
1
  0
DICTIONARYVAR
  5
C43
102
{ACAD_REACTORS
330
76
102
}
330
76
100
DictionaryVariables
280
     0
  1
1
  0
DICTIONARYVAR
  5
C42
102
{ACAD_REACTORS
330
76
102
}
330
76
100
DictionaryVariables
280
     0
  1
0
  0
DICTIONARYVAR
  5
C3F
102
{ACAD_REACTORS
330
76
102
}
330
76
100
DictionaryVariables
280
     0
  1
0
  0
DICTIONARYVAR
  5
C40
102
{ACAD_REACTORS
330
76
102
}
330
76
100
DictionaryVariables
280
     0
  1
0
  0
DICTIONARYVAR
  5
C3E
102
{ACAD_REACTORS
330
76
102
}
330
76
100
DictionaryVariables
280
     0
  1
2
  0
DICTIONARYVAR
  5
C3D
102
{ACAD_REACTORS
330
76
102
}
330
76
100
DictionaryVariables
280
     0
  1
1
  0
DICTIONARYVAR
  5
C41
102
{ACAD_REACTORS
330
76
102
}
330
76
100
DictionaryVariables
280
     0
  1
127
  0
DICTIONARYVAR
  5
C45
102
{ACAD_REACTORS
330
76
102
}
330
76
100
DictionaryVariables
280
     0
  1
2
  0
DICTIONARY
  5
C83
330
6B
100
AcDbDictionary
280
     1
281
     1
  3
ACAD_XREC_ROUNDTRIP
360
C84
  0
DICTIONARY
  5
C87
330
73
100
AcDbDictionary
280
     1
281
     1
  3
ACAD_XREC_ROUNDTRIP
360
C88
  0
DICTIONARY
  5
C85
330
6F
100
AcDbDictionary
280
     1
281
     1
  3
ACAD_XREC_ROUNDTRIP
360
C86
  0
DICTIONARY
  5
1A
330
19
100
AcDbDictionary
280
     1
281
     1
  3
ACAD_XREC_ROUNDTRIP
360
C4F
  3
BUMPTILE
360
1C
  3
DIFFUSETILE
360
1B
  3
OPACITYTILE
360
1F
  3
REFLECTIONTILE
360
1E
  3
REFRACTIONTILE
360
20
  3
SPECULARTILE
360
1D
  0
DICTIONARY
  5
12
330
11
100
AcDbDictionary
280
     1
281
     1
  3
ACAD_XREC_ROUNDTRIP
360
C4E
  3
BUMPTILE
360
14
  3
DIFFUSETILE
360
13
  3
FBXASSET
360
109
  3
OPACITYTILE
360
17
  3
REFLECTIONTILE
360
16
  3
REFRACTIONTILE
360
18
  3
SPECULARTILE
360
15
  0
DICTIONARY
  5
22
330
21
100
AcDbDictionary
280
     1
281
     1
  3
ACAD_XREC_ROUNDTRIP
360
C50
  3
BUMPTILE
360
24
  3
DIFFUSETILE
360
23
  3
FBXASSET
360
BA
  3
OPACITYTILE
360
27
  3
REFLECTIONTILE
360
26
  3
REFRACTIONTILE
360
28
  3
SPECULARTILE
360
25
  0
DICTIONARY
  5
C48
330
67
100
AcDbDictionary
280
     1
281
     1
  3
ACAD_XREC_ROUNDTRIP
360
C49
  0
DICTIONARY
  5
C46
330
65
100
AcDbDictionary
280
     1
281
     1
  3
ACAD_ROUNDTRIP_2008_TABLESTYLE_CELLSTYLEMAP
360
C47
  3
ACAD_XREC_ROUNDTRIP
360
C81
  0
DICTIONARY
  5
C5B
330
2F
100
AcDbDictionary
280
     1
281
     1
  3
ACAD_XREC_ROUNDTRIP
360
C5C
  0
DICTIONARY
  5
C59
330
2E
100
AcDbDictionary
280
     1
281
     1
  3
ACAD_XREC_ROUNDTRIP
360
C5A
  0
DICTIONARY
  5
C67
330
35
100
AcDbDictionary
280
     1
281
     1
  3
ACAD_XREC_ROUNDTRIP
360
C68
  0
DICTIONARY
  5
C6F
330
39
100
AcDbDictionary
280
     1
281
     1
  3
ACAD_XREC_ROUNDTRIP
360
C70
  0
DICTIONARY
  5
C61
330
32
100
AcDbDictionary
280
     1
281
     1
  3
ACAD_XREC_ROUNDTRIP
360
C62
  0
DICTIONARY
  5
C65
330
34
100
AcDbDictionary
280
     1
281
     1
  3
ACAD_XREC_ROUNDTRIP
360
C66
  0
DICTIONARY
  5
C7F
330
41
100
AcDbDictionary
280
     1
281
     1
  3
ACAD_XREC_ROUNDTRIP
360
C80
  0
DICTIONARY
  5
C6D
330
38
100
AcDbDictionary
280
     1
281
     1
  3
ACAD_XREC_ROUNDTRIP
360
C6E
  0
DICTIONARY
  5
C51
330
2A
100
AcDbDictionary
280
     1
281
     1
  3
ACAD_XREC_ROUNDTRIP
360
C52
  0
DICTIONARY
  5
C53
330
2B
100
AcDbDictionary
280
     1
281
     1
  3
ACAD_XREC_ROUNDTRIP
360
C54
  0
DICTIONARY
  5
C55
330
2C
100
AcDbDictionary
280
     1
281
     1
  3
ACAD_XREC_ROUNDTRIP
360
C56
  0
DICTIONARY
  5
C57
330
2D
100
AcDbDictionary
280
     1
281
     1
  3
ACAD_XREC_ROUNDTRIP
360
C58
  0
DICTIONARY
  5
C5F
330
31
100
AcDbDictionary
280
     1
281
     1
  3
ACAD_XREC_ROUNDTRIP
360
C60
  0
DICTIONARY
  5
C7B
330
3F
100
AcDbDictionary
280
     1
281
     1
  3
ACAD_XREC_ROUNDTRIP
360
C7C
  0
DICTIONARY
  5
C6B
330
37
100
AcDbDictionary
280
     1
281
     1
  3
ACAD_XREC_ROUNDTRIP
360
C6C
  0
DICTIONARY
  5
C7D
330
40
100
AcDbDictionary
280
     1
281
     1
  3
ACAD_XREC_ROUNDTRIP
360
C7E
  0
DICTIONARY
  5
C63
330
33
100
AcDbDictionary
280
     1
281
     1
  3
ACAD_XREC_ROUNDTRIP
360
C64
  0
DICTIONARY
  5
C79
330
3E
100
AcDbDictionary
280
     1
281
     1
  3
ACAD_XREC_ROUNDTRIP
360
C7A
  0
DICTIONARY
  5
C77
330
3D
100
AcDbDictionary
280
     1
281
     1
  3
ACAD_XREC_ROUNDTRIP
360
C78
  0
DICTIONARY
  5
C71
330
3A
100
AcDbDictionary
280
     1
281
     1
  3
ACAD_XREC_ROUNDTRIP
360
C72
  0
DICTIONARY
  5
C73
330
3B
100
AcDbDictionary
280
     1
281
     1
  3
ACAD_XREC_ROUNDTRIP
360
C74
  0
DICTIONARY
  5
C69
330
36
100
AcDbDictionary
280
     1
281
     1
  3
ACAD_XREC_ROUNDTRIP
360
C6A
  0
DICTIONARY
  5
C5D
330
30
100
AcDbDictionary
280
     1
281
     1
  3
ACAD_XREC_ROUNDTRIP
360
C5E
  0
DICTIONARY
  5
C75
330
3C
100
AcDbDictionary
280
     1
281
     1
  3
ACAD_XREC_ROUNDTRIP
360
C76
  0
XRECORD
  5
C84
102
{ACAD_REACTORS
330
C83
102
}
330
C83
100
AcDbXrecord
280
     1
102
SHADEPLOT
 70
     0
102
SHADEPLOTRESLEVEL
 70
     2
102
SHADEPLOTCUSTOMDPI
 70
   300
  0
XRECORD
  5
C88
102
{ACAD_REACTORS
330
C87
102
}
330
C87
100
AcDbXrecord
280
     1
102
SHADEPLOT
 70
     0
102
SHADEPLOTRESLEVEL
 70
     2
102
SHADEPLOTCUSTOMDPI
 70
   300
  0
XRECORD
  5
C86
102
{ACAD_REACTORS
330
C85
102
}
330
C85
100
AcDbXrecord
280
     1
102
SHADEPLOT
 70
     0
102
SHADEPLOTRESLEVEL
 70
     2
102
SHADEPLOTCUSTOMDPI
 70
   300
  0
XRECORD
  5
C4F
102
{ACAD_REACTORS
330
1A
102
}
330
1A
100
AcDbXrecord
280
     1
102
MATERIAL
148
0.0
149
0.0
149
0.0
 93
        0
 94
      127
282
     0
 72
     0
 77
     0
171
     0
175
     0
179
     0
273
     0
  0
XRECORD
  5
1C
102
{ACAD_REACTORS
330
1A
102
}
330
1A
100
AcDbXrecord
280
     1
270
     1
271
     1
  0
XRECORD
  5
1B
102
{ACAD_REACTORS
330
1A
102
}
330
1A
100
AcDbXrecord
280
     1
270
     1
271
     1
  0
XRECORD
  5
1F
102
{ACAD_REACTORS
330
1A
102
}
330
1A
100
AcDbXrecord
280
     1
270
     1
271
     1
  0
XRECORD
  5
1E
102
{ACAD_REACTORS
330
1A
102
}
330
1A
100
AcDbXrecord
280
     1
270
     1
271
     1
  0
XRECORD
  5
20
102
{ACAD_REACTORS
330
1A
102
}
330
1A
100
AcDbXrecord
280
     1
270
     1
271
     1
  0
XRECORD
  5
1D
102
{ACAD_REACTORS
330
1A
102
}
330
1A
100
AcDbXrecord
280
     1
270
     1
271
     1
  0
XRECORD
  5
C4E
102
{ACAD_REACTORS
330
12
102
}
330
12
100
AcDbXrecord
280
     1
102
MATERIAL
148
0.0
149
0.0
149
0.0
 93
        0
 94
      127
282
     0
 72
     0
 77
     0
171
     0
175
     0
179
     0
273
     0
  0
XRECORD
  5
14
102
{ACAD_REACTORS
330
12
102
}
330
12
100
AcDbXrecord
280
     1
270
     1
271
     1
  0
XRECORD
  5
13
102
{ACAD_REACTORS
330
12
102
}
330
12
100
AcDbXrecord
280
     1
270
     1
271
     1
  0
XRECORD
  5
109
102
{ACAD_REACTORS
330
12
102
}
330
12
100
AcDbXrecord
280
     1
 70
     1
 90
1959938040
 71
     1
  1
1621F079-DC2A-467D-B2F2-5E8A5358A09F
311
504B03040A00000800001A7331403DEE336E79000000790000001B0000006175746F6465736B2D64657369676E2D7061636B6167652E786D6C3C3F786D6C2076657273696F6E3D22312E302220656E636F64696E673D227574662D3822203F3E3C666F726D6174733E3C666F726D61743E687474703A2F2F736368656D612E
311
6175746F6465736B2E636F6D2F64657369676E2D7061636B6167652F323030393C2F666F726D61743E3C2F666F726D6174733E504B03041400060808001A733140D486FD9CA0000000F4000000130000005B436F6E74656E745F54797065735D2E786D6C7D8EC10E82300C865F65E91D8A1E8C310C0EEA1BF002731658846E
311
D98AC1B77784ABF1D8FE5FBFBF75BBCE937A534CCEB38643598122B6FEE978D0B0485F9C41B54DDD7D022595594E1A469170414C76A4D9A4D207E29CF43ECE46F218070CC6BECC4078ACAA135ACF422C856C0E68EA1BF5669944DDD7BCDE7B1F8E415D77AECB980613C2E4AC91FC167A2B244592486606FC29C8FD7F045B9A
311
EF7053A7E60B504B03041400060808001A733140C7B5C1DCEC0000007C01000008000000636F72652E786D6C75905B6EC3201045B782E61F9B87DD120B13A54E76D00D204C5C94182C0355975F9C87947EF46B86CB3D33A32BF73FF3157DDB35BAE07BA0150164BD09A3F3530F399DB100B457720D21BDD800793DDB1E3619
311
949CD690978764824FD6A7A2FA30DA87A863B40990B996A68768BEECAC2B9D5371C44BB56873D193ADE8B32B70CE6E44F7256E2CF3DCD9D9151417848A83E0F8C47727DC34478205E3033E1CDB7618C48E7F7026EB0D5632B9F9B9DFAC56273B826284324C28A6EF9FB4E958D3B5E5F9D61122EBCDFE07CACBF81FC4317985
311
B2F389B3C7B9772C82A2E590DB8792F5964529B7A04ADD7253BF504B03041400060808001A73314055019EA25F0000007C00000007000000636E782E786D6C4DCB3B0E80201045D1AD90E915ED2CF8AC45050C11660C8261F98AB1B07AC9C97D42D718D865D3E909258CFD00CCE24AC6E326A164D74DC0B4128928FF326038
311
472BA13128B1252AC747C6BAB984FC68F0B87FE8960A5C09FE86CFB69FBA01504B03041400060808001A7331402DD4518B6A010000020300000C0000006662782F636F72652E786D6C8D525B6E833010BC8AE57F63F3484B23E3284D72835EC001875A011B191BE5F85D1E51922A8D2A24303B3B3BB3037C73691B3428D76B
311
6B0A1C470C23654A5B69531738F813C931DA08EEACF5776D1819D9AA028F652C78ED6CE89652698D57C643D5D84A2D45D9F7CA6354367028705F7EAB56463278E8E8CF5127CBB3AC55144700439FE0BD776000CD22E31D8BD3F1C2E95C173C045D2DA8AE404D9FB47258A4398BF36D9E9243FA712059B667244FD21DD9EE57
311
ABDD2EFF483FD384D3912CB8D7EDD55DE994F4AAC222617142584CE2F7AF385B27D97A05AF6F6BC6381DDB1F48A1ABFE22A584DD9382363E4D16BB33ADC722062313F06B5B88C8A35E0EE0870A4EC710E13125FC18340402217B796CAE7B9CA134A8D25B970152D9708306D90405AA0C4D17A7330A93A701B0D9D339C98B39
311
AF67C00794A6066BD2C3F118FCA8CE67D5258A4E3932F80B32D6B5B2B9999B2DDEEE37A1A7F4D236D6FD874D9755E912261DFF5EF103504B03041400060808001A733140EFB2ADD97D0000009D0000000B0000006662782F636E782E786D6C4DCCD10A83201886E15B91FFDC65A3D97FA086C6BA8F581632D3703A76F9ABD1
311
C18E3E78F87845F7593D79DBF4723148A82F0C880D8F38B9B0482879A608A45322C598FF6E40C2B85A090783124B8A653B69B2F3587CDED5BBF03CB1E72D43637A6A7A8EB441D4546373A3436DD855B7FC3E68039512D5AFB4EF11565F504B03041400060808001A733140BBDBA76D3001000014020000310000006662782F
311
43363730384242432D424336382D343838412D413834352D4631423032413736454641422F636F72652E786D6C8D514B6EC32014BC0A62952EB0C1C1C48A30911D3527E8051C20294A0C169F2AC72FAE1D295D54EA8607C3CCBCD17BFCF018EFE04BFB609C6D21293004DA4AA78CBDB630C50B6A203808EE9D8B2F3408EC30
311
EA16CE3014FCEA5D9A56483A1BB58D19B54EE9151C42D0110279CF971606F9A9C7A11852CC8C702BA641DE86AB2E4891BF334FF0107D0E009626F309C591ED70D3F747D41F598368D374A86B688D4EA4C755B763EFA7AEE7E522143C25A356B951398EB918EDFF6B328B058F667CC6975E0F512B282A4C2A840922BB0F42F7
311
15DDD7F9C9F618F372A6FF12A549FD25DA22FC2A4AC6C66DB5C65D64010AC2CBE54370E5D2F9FE0CA31F93F311CCFD3641CB372870812BCC6A4A192F176A1E40F66474F50CD1F93CE0CDED9CD9A45E8C1915BC9C7794CBCF02739DF729BE01504B03041400060808001A7331400E9C25FD5201000033030000300000006662
311
782F43363730384242432D424336382D343838412D413834352D4631423032413736454641422F636E782E786D6CC593CD6EC32010845F0571F70F899B561126520F7D821E7A25B049693058FC54CDDB7749489A4B0EEDA51764CF0E33AB4F36DF7C4D967C4288C6BB91B2B6A7049CF2DAB8FD4873DA354F946C040FDEA71B
311
1B254E4E30D22253C1F7C1E7B94A1A7632DB84AA35EE50C500D1E7A020A25C6E12EB95B41800AEC928C2B405AD4193AB119F7610701514B74792DE81BC3CBF11BFFD009522EF4A8AE05DE910BC9CB5E9C64489B232C69146F50E936C654E5E433CB45A26D9B2F6D27567A79F24522E5C2A7330A4948FB49C54D48D5AE4C83B
311
1C0A1E53407AD5948E335021E7D91A251342EE4EC6B347F06C5C5A0DD56B107C40375B2D8701C34E33C19399A03A5400994053B1E8D9A2E959C31E5FD9B05E0CEB077C5DADFB9E77C52EF8D67B5B2F610C043F13E55D0297A860BC2BE37BF8AA8F681390B50FC75F804400B5F54CE79AF1EF7C964DFF573EDDE9FB465C01FF
311
02F10D504B03041400060808001A7331405DD172759A0500007B100000340000006662782F43363730384242432D424336382D343838412D413834352D4631423032413736454641422F6F626A656374732E786D6CAD57DB6EDB3810FD1541FB6CC9B7B4C94251E1D87561ECA62D6AB4D887000625510A37D40524953AFBF5
311
7B2852B2E4DAA977D11749A4C8E1CC99331706EFF639779EA990AC2C6EDD8937761D5AC465C28AECD6AD553ABA769D776120CA52F596B94E41727AEBEA69370C3251D6959D4A684A6AAE8E66D7777F3932A605759D9813296F5D193FD29C78A4566542E593971045BC2CDD7B13CF2C1C8ACD04A91E8F845644D0424153CC17
311
90E218A526C3E1D8F5C3C0D7FFC3403FEDAAD9F9557E63CFF07C5648458AF887C38EC4CC26F3D5FBE9D5CDE86A3E9F8DE66FA693D1DDFA6E359ABC9D8D976F96CB9BC5FB1B1C2C958024AB89A0A91B7E003682C5816F7E8541CD0A359BDA25D641BEA0CF4C7BCA0DA7CE24F0CD9ACE3A6BE429F5E3B22868DC6005341AFBAC
311
E88456B448E073462534EB21341E0E271AC7DEEF991EDB23FBD39721D0DFD113D4EADEBEFB9A96D1DF30415EC22021A966A0C1D21A6AB83A3E201C9525B7FF987472A2A860843B9C4582881737C452BD240C06623493858E066D811BC20BE6F7902E08A39FF3FC949669CDB9A6B11B3651B043AC50251BCDD83F541CB4EF23
311
039DE02BCD866B6B907AA9A81BDE188A5C1FB1C900E9A49C647039CCD43B67D32343973A4E372B37FC631DEDB73A764F1F5E89B2A24269FA805AADE3DAB746C9EA34B9C8737A837BA4CA01942F40FE2342FDA00AFC26D87EBE9FDB539420854C4B91C337CED8198DF1183B93E6A9BF7B5F81DF6D1E7AEF1C9E70B686EA17E0
311
39B4A1EFCB1E9C61F00CC29762664DDBC684236DDCB30200699238BCC414F2701AEDDD70832C87AC8C5D848713980C759FF119F8560C12457352EF5D00CBA3B4784182066C0D23A18621BF55F0E0A71FD25973B05D760EDEAB5F42D7C56AFBC7B6162989E9BD8DE9154D59C1144ADC81377D8506980F2C7AA22FDF4B91C0D0
311
1FF1DEF6F1CEED5112686BCC35F0599BD3F5E070F2E08018FBB252A79BE02727C0085D587BF2EF998C29E7A4A065DD9EFB6AFD40D93010EB60D74CEE0ACCA1B08034E6CF510CA248C782551AC4AE5A7549D33B63DDD7CD4730D20DEF5EFE242FFDEC151D726F5CF252ECA2979D494B27A1FE36E4B6C5C0D75240F72648DAF8
311
B7A0EF1296A6B544123C81EBB7CDB2EF3B9D1690225AA9265AE6B01FC14584256D2B17D55A1054D2B2D831D44DC4DDC903FAF201A9654023F09CC692F274C738AFF35DCA38AAD12E27D51938FEBFFE519D573B929775A1CEC81EA88EEA30D47DC05EF99DA8F8D10DB7CD7B7487DC9BD0E40C19742D3981D5D0B5E898D6E3B7
311
37A3D572BA40FFF47635BA9BAEA7A3ABF7D78BABD9D5F5627CB36EFD64340983B6D4F4231A5E42690B6AC1ACFBBE6E103F3609B8E13D51F2E18309CFF6FD75E3A1170E7CEC41BDEC362E9267F47D34F9B980C3CA93823679C5694E0B45740CDDEB0FFE85A0CF182863E63739C9E805523E7DD81E1983990BF67DD6F14EBF1F
311
EDB5B34B1D902785A8C73A8F0AC2F8D1C6CC20E9554566F16B7DD2BD4DA169877A641D83CE54969C25C8838993D132A70AD9F0822224722A41BD7E4F9FD8BBC705BB9F4D87A848C469ABC9234193CC25C202D4AA63359C777E4353A7FBAA5B17E5D67BC2C3660AD701676E5D34E98AC5547A110AB46E851AE1E052BF9347E3
311
4F8A8CA3D7369BBA71B74B633328C9DD924BFA276B9749E1D600A4910A7D031A2278A751260C1ADDECFFF83F19DEAAE31085CFA8569D2D8789CE98E61884A831CADE16D0C43CD9A3F708D4D7CD9A78CD9A012217DDB25E2581913A524464CD4D41EB67555AAC3EFBE8509CCD27A7E275065F5E2E692428C85CEB00078BC00A
311
2BB3220A545DFEFEF05994B8C9E6CE9A81020FCB32CFCBC20E16F626EC6C1F71AF4D1E9016A8BE90C887E978327D682E02F66EB28B88A41E49E41326E053C13A88078E0723CD6D1115C8FCE8D6F9DA0947DCDCAC1C5BD2E6106A89D2CFAA1A16B41C0575103DFA32A963A5BFA07AF52EE0374BA18240171FFE0B504B030414
311
00060800001A733140000000000000000000000000350000006662782F43363730384242432D424336382D343838412D413834352D4631423032413736454641422F76657274696365732E62696E504B03041400060808001A733140F270F1330600000004000000360000006662782F43363730384242432D424336382D34
311
3838412D413834352D4631423032413736454641422F747269616E676C65732E62696E636660600000504B03041400060800001A733140000000000000000000000000370000006662782F43363730384242432D424336382D343838412D413834352D4631423032413736454641422F617474726962757465732E62696E50
311
4B03041400060808001A733140D5987DFC8F00000041010000360000006662782F43363730384242432D424336382D343838412D413834352D4631423032413736454641422F6469726563746F72792E786D6C858F410EC2201045AF4266AF15DDB800BA74E7C21B903225242D6328188F2FA5C4183471359997F9FF81E89F
311
F3C41E1816475E02DF1F80A11FC8386F25A438EECEC07A250251FC3803E6F58C12560C4AD840E95E91C151A72936F496F35732D860FE635F62C8F2DA16B505C545B74125BAA2FA9E05D7CC053D063734D5C7665FD55B6B8D15D5E9BFEAFD8490FFA45E504B03041400060808001A733140D41EEF44FF000000A00100003B00
311
00006662782F43363730384242432D424336382D343838412D413834352D4631423032413736454641422F7265736F75726365732F636F72652E786D6C7550596EC23010BD4A34FF4EBC246D408E11056ED00B58CE0016C48EBC543D7E1D4825FAD11F8FE72D9AA72777DFD3BDFAC210AD7703B09A4285CEF8D1BACB00399D
311
490FD54EC9E07D7A9141E5F484032C302879093ECF2B64BC4BE852419D1F7105758C98A032F7F219209A2B4EBAD6391545BCD5B336377DC19AD5852E3A25630A2540F53CB2BCA002469F83C1289B27AB64CE765C35762C37EDD96200257ACAFA7DCFC9496C4EA46D8F94F45C1CC8FED8758743BF111F82CB66312B99ECF49B
311
D104D40947509C324E2823ECFD93B55BDE6EBBB2BE6D2995CD22FF63CAF3F89F4910FA6ACAD625C1D7B84F5B04C54A9007A164B3F455C6A3CC32976ED50F504B010214000A00000800001A7331403DEE336E79000000790000001B00000000000000000000000000000000006175746F6465736B2D64657369676E2D706163
311
6B6167652E786D6C504B010214001400060808001A733140D486FD9CA0000000F40000001300000000000000000000000000B20000005B436F6E74656E745F54797065735D2E786D6C504B010214001400060808001A733140C7B5C1DCEC0000007C010000080000000000000000000000000083010000636F72652E786D6C
311
504B010214001400060808001A73314055019EA25F0000007C000000070000000000000000000000000095020000636E782E786D6C504B010214001400060808001A7331402DD4518B6A010000020300000C00000000000000000000000000190300006662782F636F72652E786D6C504B010214001400060808001A733140
311
EFB2ADD97D0000009D0000000B00000000000000000000000000AD0400006662782F636E782E786D6C504B010214001400060808001A733140BBDBA76D30010000140200003100000000000000000000000000530500006662782F43363730384242432D424336382D343838412D413834352D463142303241373645464142
311
2F636F72652E786D6C504B010214001400060808001A7331400E9C25FD52010000330300003000000000000000000000000000D20600006662782F43363730384242432D424336382D343838412D413834352D4631423032413736454641422F636E782E786D6C504B010214001400060808001A7331405DD172759A050000
311
7B1000003400000000000000000000000000720800006662782F43363730384242432D424336382D343838412D413834352D4631423032413736454641422F6F626A656374732E786D6C504B010214001400060800001A73314000000000000000000000000035000000000000000000000000005E0E00006662782F433637
311
30384242432D424336382D343838412D413834352D4631423032413736454641422F76657274696365732E62696E504B010214001400060808001A733140F270F13306000000040000003600000000000000000000000000B10E00006662782F43363730384242432D424336382D343838412D413834352D46314230324137
311
36454641422F747269616E676C65732E62696E504B010214001400060800001A73314000000000000000000000000037000000000000000000000000000B0F00006662782F43363730384242432D424336382D343838412D413834352D4631423032413736454641422F617474726962757465732E62696E504B0102140014
311
00060808001A733140D5987DFC8F000000410100003600000000000000000000000000600F00006662782F43363730384242432D424336382D343838412D413834352D4631423032413736454641422F6469726563746F72792E786D6C504B010214001400060808001A733140D41EEF44FF000000A00100003B0000000000
311
0000000000000000431000006662782F43363730384242432D424336382D343838412D413834352D4631423032413736454641422F7265736F75726365732F636F72652E786D6C504B0506000000000E000E00800400009B1100000000
310
504B03040A00000800001A7331403DEE336E79000000790000001B0000006175746F6465736B2D64657369676E2D7061636B6167652E786D6C3C3F786D6C2076657273696F6E3D22312E302220656E636F64696E673D227574662D3822203F3E3C666F726D6174733E3C666F726D61743E687474703A2F2F736368656D612E
310
6175746F6465736B2E636F6D2F64657369676E2D7061636B6167652F323030393C2F666F726D61743E3C2F666F726D6174733E504B03041400060808001A733140D486FD9CA0000000F4000000130000005B436F6E74656E745F54797065735D2E786D6C7D8EC10E82300C865F65E91D8A1E8C310C0EEA1BF002731658846E
310
D98AC1B77784ABF1D8FE5FBFBF75BBCE937A534CCEB38643598122B6FEE978D0B0485F9C41B54DDD7D022595594E1A469170414C76A4D9A4D207E29CF43ECE46F218070CC6BECC4078ACAA135ACF422C856C0E68EA1BF5669944DDD7BCDE7B1F8E415D77AECB980613C2E4AC91FC167A2B244592486606FC29C8FD7F045B9A
310
EF7053A7E60B504B03041400060808001A733140CBD33CFEE90000007C01000008000000636F72652E786D6C8D904D6EC3201085AF82668F636CC77FC2448D9C9EA0174030715162B00C543D7E71E248EDAEAB191EEF9B193D7EFA9EEFE40B576F9C1D80653910B4CA6963A70162B8D216C849F0D5B9F0CB06C4CA1907D864
310
107C5A5D5C7649391BD086A45AA77117A5F71880A87B6A06F0EA136799C91892C3DFB245AA9B9C3063AF2EC1311A4D9E4B8C4EF3CCD5E00AA26ECE63DB9515ADDEBA0BADCEE53B6D59DDD2761C9B8ED5C7F232E6FCB0C1820733BFF6AB1565400DA2C85941734659F3C1AABEA8FA637AD67D9EA0CDFE078A8BFE27148D0D65
310
B19FFBC43C08960E797C087ED8B248E51154AA5B6EE207504B03041400060808001A73314055019EA25F0000007C00000007000000636E782E786D6C4DCB3B0E80201045D1AD90E915ED2CF8AC45050C11660C8261F98AB1B07AC9C97D42D718D865D3E909258CFD00CCE24AC6E326A164D74DC0B4128928FF326038472BA1
310
3128B1252AC747C6BAB984FC68F0B87FE8960A5C09FE86CFB69FBA01504B03041400060808001A73314084B461AA65010000020300000C0000006662782F636F72652E786D6C8D52ED8E8230107C95A6FF0B1410D1949A33784F702F50A1728DD092D2121FFF960FE37931E642026567676776801D6E5D8B46690765748169
310
10612475656AA59B027B7721394607CEAC31EE571B465A74B2C0531973D658E3FBB55419EDA47650D5A6966B510C837418552D1C0A3C54DFB21381F00E3A866BD08BEA2A1A19D00060E8E36C70160CA04564BA637E39DF58B8D439F35ED52BAA6A505317252DE6D9F658E6BB2425E9C7EE44D263F249729AE5242FCBED8E66
310
9BE454462C9CC89C39D5DDDD55560A276BCCE388C624A2846EBF68BA8FD3FD065EB37D04A4A9FD89E4FBFA9F24AFB44BE2D5EE421B30A7606406FE6C0B1139348811FC849C855388F098137E0E1A0281909D38B7F73DAE501A65E58C4D01A98D7F40A368BD04D508CD170B171426CF0360B39773E23773DECF800F287403D6
310
8483E3D9BB499D2DAA6B14BDB4647437A48DED44FB30B7587CDC1F422FE995698DFD0F3B5C570DD730C3E9EFE53F504B03041400060808001A733140E473C1807E0000009D0000000B0000006662782F636E782E786D6C4DCCD10A83201805E05791FFDEA5CB9103355AD97BC4B290990EA7638F3F1B5DECE61CF8381CD17E
310
3687DE26BE6CF012E8890032FE1E66EB5709392D98036A958821A4BF19203F6D46C2CEA0C41A437E1E349B65CA2E1575D63F0E644413DA0F0DE6D74E63D695B89D1B8D6B560F9C533A5EC61E2A25AADF53E9FD587D01504B03041400060808001A7331400D1929C62901000013020000310000006662782F34304530314344
310
372D383941452D344141452D423237452D3334334438383131463546432F636F72652E786D6C8D51CB6EC32010FC15C4293DD806EC386E8489D23CBEA03FE060E2A2C460F1A8F2F95D6A476A6FB9ECC2EECCECC0F2DD63BCA36FE5BCB6A6C534271829236DAFCDD0E218AE5983D14E70676DF803C3C874A36A712A63C10767
310
E3B494A43541990055637BB5143BEF55C048DEE1D0622FBFD4D8E55D0C80F0B77CEAE4AD1B544E7368034E701F1C1840F39014B1A8C889D0C3719335EFFB5356ED217CB0CD292BABF2D834949ED7E7032F66A2E031EA7EA1EB1EECE8AB56EE559144163CE8F1695F3AD505D563C1086519A119DD7CD26ACBAAED1AAEF59610
310
5E24F83F529CFA1749519B50B2C5EE4CF358505ECC0DC17B1B2FF7A719F598AC0B28CD5B7925DFB02039618CAC59CD8B1909EF07C9BA5A247DB00EFE7775BB00B85C74EB4AF022AD08D2EFFE20A7758A1F504B03041400060808001A7331406667261D5401000033030000300000006662782F34304530314344372D383941
310
452D344141452D423237452D3334334438383131463546432F636E782E786D6CBD93CD6EC32010845F0571F76F5C378A30917AE813F4D02B864D4283C1025C356FDF2521692E3954AA7A41F6EC30B3FA64B3EDD764C827F8A09D1D6853D69480954E69BB1FE81277C59A922D67DEB97867A3C48A09069A64CAD9DEBB65CE92
310
829D584C44D5687BCCA287E0162F21A09C6E12E3A4301800B65850846904A540919B119F76E0711514C713890720AF2FEFC48D1F206360554AE1AC4A1D9CA53337DD992891468430D0200F3089522CD12908C7528928CAA6BC763DD8E92789A40BD7CAC56B92CA079A4ECAF346257264150E390BD123BD6C8AA7192817F36C
310
B41411215767E3C5C3D9A26DECBBECD508DEA37BD5F6EB35869D679C453D4176480F2282A2BCAD9BB6A89BA2797E6BBA4DDB6D9EF0B5DFD435AB929DB3D139932F610C783713E96C041B296F5895C68FF0651F51DA236BE74FBF00890072EB85CE2DE32FF934FDAAEBFE914F75FEBE1197C7BF807F03504B03041400060808
310
001A733140FC238FFB5A070000941B0000340000006662782F34304530314344372D383941452D344141452D423237452D3334334438383131463546432F6F626A656374732E786D6CED595B739B3814FE2B0CFB6C6C7C69931D4227B19B8EA79BB6536F3BFB9019460699682304238934DE5FBF4717301093E06DF6AD0F36
310
20A4A373BE73D52178F79851E70173417276E1FADEC475308BF384B0F4C22DE56E74E63AEFC280E7B96C4C731D86327CE1AA61370C529E97851D4AF00E95547646AFAFFE72448C19769D9822212E5C11DFE10C79A8947982C5BD972089BC74F7E8F99E99D8269B7254DC7588168863268153186740C5314CF9EDC7893B0E83
310
B17A1F06EADFCE9A0D9A35EF9F35D652B7B9244C48C4E2272C75C8CC06B134F3E7ABF7D3C5F968319FCF46F337537F74757DB51AF96F6793E59BE5F2FCF2FD39B0B7CD736A654A70815902FADBBBA11F8CD59B5A748BC031AEE39C311C6B20012A2D569720C102B66AC037693FFA4AA2C66B2D61E379AEDE5B161AC3B33695
310
BE59C38068D10541EC7695C4D5B5295FBEFD1B0417438C920B2C815B213968D7C2C3C12BDC70128CCD68186C0FBA20C2C990C49C20EA50B2E588835260AA9A1206668125A39C8303294749A035675EB76D0B3CF365D739C6E5AEA45479861B6AC78AC0FDB0149A33F20FE607EE9BC8004F206D49983CB35CCA7D81DDF03C18
310
EBC1305097D9D4BE34403A3B8A52A111316F3B822E95EBAF576EF8F17AFBB851E1E0F8E605CF0BCCA5323AA547CD1718B2BD2A94ECB6FE20CDA905208C01D5AE3C80F21590FF04D1E3C00AE88D93C7F9E3DCCE951C31B1CB7906BA7126CE68027F13C7D7FFEABE71178CEBC56DEDF5E1096EAAA03AFB793CDB3268AC2CFF0D
310
38C3E0010C3EE733FB6A13230AF67C431800A48CC4A1390C4168DF6D1FDD700D8113023DAC4234F4416460F7016E83B12573D04AE55ED6EB18206AF7980D5112C0A62D12D8E8D1D307C81E9CC407353545EC8377F12AE67AB9DA7CDC947C87627C637D7A857784110959F338432DCC5B12DDE3FD8F9C2720E853BC374DBC33
310
BB9500B415E60AF8B402413D1C766E6D10C3BA3457E1267861071042E5EA06FD1B22624C2962382FAB7DEBE8A60CB5F6785B33B8E1D4403C9B764C98E307A2AA0A709AC38C16A390F7634E0A05A21B7E3092D541D3EB91EEDBFA1358643DBF67D69A41E86588FEA983D6111C5A965D216D81A805DE1EC2799CD39C47DB7D64
310
229D0BB504B0D1F696EF2DA210EB8D921415F020ED775548498DB4514276BB52405C3DC2E2F7F5B2690E136FE62F9CE67FC719E7106DC17711B77ED7D92322194A71B44349DF76CDDD6ADA4293EC21CDF18E825CE481C87D84643449707A0A3427113F7F55EA29CD85200C0BC85747C16FA231F12090186D562C2BAD768026
310
22CAB044F4140414991E7075DAD1356E0CA5C3CB3CD6D6FB9CC69A44FF278BE0086AC99C45044A51C8212F32EE7B0B88216D740DCA1D7CC1DA2ADA5A0C5A420911EFA31F98A477F214D40DF91EDC6338929432CA0B1483590F20FBC45794523BBC6F517CAFF2471497F4B50C4460BA8B08A56516C18F3038790C71ED3A303D
310
8B4283B8897D126750942159F2219BBC594C9EEC636A866E086C6CB42314C27694A1A207F55640D4F58853836FA9F728755B664584B2BC64830CC59B75BDC992EFAA55911DC8AF2A15A16CAC085B82614098ACB36A15B3C1D475600537D2816A1F099415D49CC25E483C7EED4D9A72EF06DCFAE9EB6E9041E1D7A3BD66449D
310
5730581E5B8581F881647CE7861B7D1D5D41FD9DE0E490EAAB5AB3590102622A92979C58157D5B4379636B3437BC4152DC7E3059B7BA7E5B7BD0FD08C6B0066A977AE15A019D612691AA4C6ED40DFD8A2004B76898F1B5CAA9A750B94C125D35227A4DFAD4D92A235A9B66C42BEE30CB33F8B15BC2625A26F81625E23EBA91
310
34DA10C5BA95D2CB4885F1B3027EFEB0E9C003230344FAA20A3CFCA3B3D68E2E55B9749488BC2BB32D430482604BB4D4E8C62B586A355269B9BEAA3305D45D606056C5F35F278B663BE2D7C922B586F153278BABFD1F68DFEC8B34D279ACECFAA463409D9F1495D73806E8B6434DB5CE2226995BF9AD33451014AB283FB81A
310
AB828621D8C7F17FCEDA7D59D06CD7E1FFB4ACED3FA9384ECA2AADC9AA4B75A4725D3773980F2DD9EBC9DBF3D16A39BD8406EDDBD5E86A7A3D1D2DDE9F5D2E668BB3CBC9F9758DA676D430A88399CE5DF06C825A35AC9E2C06D095153925099CE61327C510F3259CE907B4CF79860524CF66B33BB14DF901AB1F4C9F53A22D
310
C5152777081AC454405A078CCA58B6C79DDFA03529E1A07DE142D3C8BB873F6B95AE0399E7C2855681243116DE16DA4CAAA1A78943CAD5B9DF12037C104B554A348BEAE77A95C2A615FEEB2943D28095ABD5C380C2AD80EE57AB43A179B33CC527095EB1E32009B7DB5242B56664390CD4C2E86D0EEA37B251C2EEEDD68FE0
310
BACF8BE57B7A4E0B91419F0C9E3502437524114F75BF5B316659BA5C7D19439FCD597F760A5AA6A0CBE194461C833197AAA0022B02ABB0340B24C15497BFDF7EE1397CE2C91C5D15DD2EF32CCB997DB884F358029F889CCD1D7CF0496EA16CC0AAAD2E6EA7137F7AABDBD9B6C31E6D91C09EAA8760A02A2394081D63038B7C
310
D29AB28DCBB1524267FA7AE5D8F0096D0063414FBABBE6F39603DEA33EA4285FD11E5EC9F96C477BACA7823570E84587FF02504B03041400060800001A733140000000000000000000000000350000006662782F34304530314344372D383941452D344141452D423237452D3334334438383131463546432F766572746963
310
65732E62696E504B03041400060808001A733140F270F1330600000004000000360000006662782F34304530314344372D383941452D344141452D423237452D3334334438383131463546432F747269616E676C65732E62696E636660600000504B03041400060800001A7331400000000000000000000000003700000066
310
62782F34304530314344372D383941452D344141452D423237452D3334334438383131463546432F617474726962757465732E62696E504B03041400060808001A733140D5987DFC8F00000041010000360000006662782F34304530314344372D383941452D344141452D423237452D3334334438383131463546432F6469
310
726563746F72792E786D6C858F410EC2201045AF4266AF15DDB800BA74E7C21B903225242D6328188F2FA5C4183471359997F9FF81E89FF3C41E1816475E02DF1F80A11FC8386F25A438EECEC07A250251FC3803E6F58C12560C4AD840E95E91C151A72936F496F35732D860FE635F62C8F2DA16B505C545B74125BAA2FA9E
310
05D7CC053D063734D5C7665FD55B6B8D15D5E9BFEAFD8490FFA45E504B03041400060808001A73314014BDF646FB000000A00100003B0000006662782F34304530314344372D383941452D344141452D423237452D3334334438383131463546432F7265736F75726365732F636F72652E786D6C8D50596E833010BD0A9A7F
310
0306C226E3A811E9097A01CB4C889560232F558F5F13A8D4FEF5C7E3798BE6E9B1F3D7F24C3ED13A65F40034CD21412DCDA4F43C40F037D24272E6CC1AE37FC920D162C1013618389BAD09EB0149A33D6A1F516D263C40E11C7A48E4337E0670F28E8B4845F051E11EE92AE443CC98D234D251C799F3360648F623DB0BDCA2
310
33C14A742CDB59CE4250D3A15153BCA96E0A2DF0BAB98C6D5796A47AEBAEA4BA94EFA4A5754BDA716C3A5A9FCAEB98B36C3373E6D5F293515A141E27E0454E0B9253429B0F5AF545D59FE25AF779346DF23FA6B04EFF3405A57D591C71779B034E639017C159B6F515C7ABCC38B76EF937504B010214000A00000800001A73
310
31403DEE336E79000000790000001B00000000000000000000000000000000006175746F6465736B2D64657369676E2D7061636B6167652E786D6C504B010214001400060808001A733140D486FD9CA0000000F40000001300000000000000000000000000B20000005B436F6E74656E745F54797065735D2E786D6C504B01
310
0214001400060808001A733140CBD33CFEE90000007C010000080000000000000000000000000083010000636F72652E786D6C504B010214001400060808001A73314055019EA25F0000007C000000070000000000000000000000000092020000636E782E786D6C504B010214001400060808001A73314084B461AA650100
310
00020300000C00000000000000000000000000160300006662782F636F72652E786D6C504B010214001400060808001A733140E473C1807E0000009D0000000B00000000000000000000000000A50400006662782F636E782E786D6C504B010214001400060808001A7331400D1929C6290100001302000031000000000000
310
000000000000004C0500006662782F34304530314344372D383941452D344141452D423237452D3334334438383131463546432F636F72652E786D6C504B010214001400060808001A7331406667261D54010000330300003000000000000000000000000000C40600006662782F34304530314344372D383941452D344141
310
452D423237452D3334334438383131463546432F636E782E786D6C504B010214001400060808001A733140FC238FFB5A070000941B00003400000000000000000000000000660800006662782F34304530314344372D383941452D344141452D423237452D3334334438383131463546432F6F626A656374732E786D6C504B
310
010214001400060800001A7331400000000000000000000000003500000000000000000000000000121000006662782F34304530314344372D383941452D344141452D423237452D3334334438383131463546432F76657274696365732E62696E504B010214001400060808001A733140F270F13306000000040000003600
310
000000000000000000000000651000006662782F34304530314344372D383941452D344141452D423237452D3334334438383131463546432F747269616E676C65732E62696E504B010214001400060800001A7331400000000000000000000000003700000000000000000000000000BF1000006662782F34304530314344
310
372D383941452D344141452D423237452D3334334438383131463546432F617474726962757465732E62696E504B010214001400060808001A733140D5987DFC8F000000410100003600000000000000000000000000141100006662782F34304530314344372D383941452D344141452D423237452D333433443838313146
310
3546432F6469726563746F72792E786D6C504B010214001400060808001A73314014BDF646FB000000A00100003B00000000000000000000000000F71100006662782F34304530314344372D383941452D344141452D423237452D3334334438383131463546432F7265736F75726365732F636F72652E786D6C504B050600
310
0000000E000E00800400004B1300000000
  0
XRECORD
  5
17
102
{ACAD_REACTORS
330
12
102
}
330
12
100
AcDbXrecord
280
     1
270
     1
271
     1
  0
XRECORD
  5
16
102
{ACAD_REACTORS
330
12
102
}
330
12
100
AcDbXrecord
280
     1
270
     1
271
     1
  0
XRECORD
  5
18
102
{ACAD_REACTORS
330
12
102
}
330
12
100
AcDbXrecord
280
     1
270
     1
271
     1
  0
XRECORD
  5
15
102
{ACAD_REACTORS
330
12
102
}
330
12
100
AcDbXrecord
280
     1
270
     1
271
     1
  0
XRECORD
  5
C50
102
{ACAD_REACTORS
330
22
102
}
330
22
100
AcDbXrecord
280
     1
102
MATERIAL
148
0.0
149
0.0
149
0.0
 93
        0
 94
      127
282
     0
 72
     0
 77
     0
171
     0
175
     0
179
     0
273
     0
  0
XRECORD
  5
24
102
{ACAD_REACTORS
330
22
102
}
330
22
100
AcDbXrecord
280
     1
270
     1
271
     1
  0
XRECORD
  5
23
102
{ACAD_REACTORS
330
22
102
}
330
22
100
AcDbXrecord
280
     1
270
     1
271
     1
  0
XRECORD
  5
BA
102
{ACAD_REACTORS
330
22
102
}
330
22
100
AcDbXrecord
280
     1
 70
     1
 90
1959938040
 71
     1
  1
593D4A53-D43D-47DB-964D-6D7C79DE89F9
311
504B03040A00000800001A7331403DEE336E79000000790000001B0000006175746F6465736B2D64657369676E2D7061636B6167652E786D6C3C3F786D6C2076657273696F6E3D22312E302220656E636F64696E673D227574662D3822203F3E3C666F726D6174733E3C666F726D61743E687474703A2F2F736368656D612E
311
6175746F6465736B2E636F6D2F64657369676E2D7061636B6167652F323030393C2F666F726D61743E3C2F666F726D6174733E504B03041400060808001A733140D486FD9CA0000000F4000000130000005B436F6E74656E745F54797065735D2E786D6C7D8EC10E82300C865F65E91D8A1E8C310C0EEA1BF002731658846E
311
D98AC1B77784ABF1D8FE5FBFBF75BBCE937A534CCEB38643598122B6FEE978D0B0485F9C41B54DDD7D022595594E1A469170414C76A4D9A4D207E29CF43ECE46F218070CC6BECC4078ACAA135ACF422C856C0E68EA1BF5669944DDD7BCDE7B1F8E415D77AECB980613C2E4AC91FC167A2B244592486606FC29C8FD7F045B9A
311
EF7053A7E60B504B03041400060808001A7331407BED7A9DE70000007C01000008000000636F72652E786D6C8D50D16EC3200CFC15E477124893348D0855A4AD5FB01F40E066A80D4401A67DFE489B4ADBDB9E7C3EDFD9D689F3F77C275FB806EBDD00BC6040D0696FAC9B0648F14A3B20672956EFE32F1910A7661C60A341
311
8A69F569D929ED5D441733EBBCC19D54216004A2EF190C10F427CEAA50296645B8158BD2373561C15F289B53B2863C8F5893F7D9ABC5152463F5D836A7868E97B78ED675D7D291F38C0EE38575A7A6398EEFA2DCCC52443BBFEEEB15554403B262BCA28C537EFCE0755FD57D93DBB6674C949BFC8F292DE69FA6645D3C54FB
311
BB4F5B00C9F3238F8114E596452E8FA072DD72933F504B03041400060808001A73314055019EA25F0000007C00000007000000636E782E786D6C4DCB3B0E80201045D1AD90E915ED2CF8AC45050C11660C8261F98AB1B07AC9C97D42D718D865D3E909258CFD00CCE24AC6E326A164D74DC0B4128928FF326038472BA13128
311
B1252AC747C6BAB984FC68F0B87FE8960A5C09FE86CFB69FBA01504B03041400060808001A7331406060892164010000020300000C0000006662782F636F72652E786D6C8D52ED8E8320107C15C27F05ACB6BD06694CEEFA04F70254A947AA60104C1FFFD68FC6EBA5691A135C7776766747F8F1D6366850AED7D6E498C514
311
23654A5B6953E738F84BB4C7E828B8B3D6FF29C3C8C856E5784C63C16B6743B7A44A6BBC321EB2C6566A49CABE571EA3B28120C77DF9A35A19CBE0A1A2BFC69D2CAFB256318B01863AC17BEF40009A878C271697F38D93392F7808BA5A505DC1347DD1CA6141695A6CB38F2C2A4E9FFB284DF7DBA8600CA24D71A2FB8F2CDB
311
155F9C8C64C1BD6EEFEA4AA7A45715160965494459C476DF2C3D24E92183CFED81524EC6F20752E8AA3749411BBF4916B933ADC782819009F8B72D58E4512F07D0430427A389F09A1C7E341A0C0193BD3C37F73DAE901A54E9AD4B01A96C58A1413641C1548AA687931985CE5303D8EC699FE4459FD73DE0074A538334E921
311
3C073F4EE7F3D4C58A4EB968F03764AC6B65B38A9B25AEE73AE829BDB48D75EFB0C9B22A59CC24E3ED15BF504B03041400060808001A73314061AA916E7D0000009D0000000B0000006662782F636E782E786D6C4DCCD10A83201886E15B91FFDCB559E12FA85130EF239685CC349C8E5DFE6A74B0A30F1E3E5ED97D564FDE
311
36BD5C0C0A6E972B101B1E7172615150F24C1148A7658A31FFDD808471B50A0E062D9714CB76D264E7B1F8BCAB77E179220A8E0C0743D1DC1BDA08D652C1FB9A623D0CCC20E7A66FA1D2B2FA95F63DC2FA0B504B03041400060808001A733140419FC35D2C01000014020000310000006662782F38393738323842462D3846
311
45342D343932352D393741332D3833424232463837374641352F636F72652E786D6C8D51CB6EC32010FC158B537AC006E257224C9448F517F407884D1294182C1E553EBF4BED48ED2D17168699D9D12E3F3CA747F6AD9CD7D67488E60465CA0C76D4E6DAA1182EB845D94170676DF84343999193EA508291E05767E3BC4283
311
35419900A8B1A35A41E9BD0A281B1E70E9901F6E6A92B98C0118FE9ECF72B8CBABCA690EDFC013DC070701B2A5493A9168774DCBDA538FDBFEB3C4E58E5578D71CB7B8DD9E4EAC6F9BA63F56BC588482C7A8C755AE4788A32F5AB9774D9258F0A0A757FCC12919D4880423946142316DBE68B967E5BE8267BD27841789FE4F
311
14E7F14D51D4266CD91A77917924282F960FC1471BCF8F5718F59CAD0B59EAB7F16AF84082E48491A6AA6AC68B850A0300CFBA5C3D7DB00E06BCB99F814D614CC9B82E052FD28EA0FC2E106ADAA7F801504B03041400060808001A73314000C0E90A4C01000033030000300000006662782F38393738323842462D38464534
311
2D343932352D393741332D3833424232463837374641352F636E782E786D6CD593CD6EC32010845F0571F70FA99B561126520F7D821E7AC5B049693058FC54CDDB7749489A4B0E3DF682ECD98F99D5C8E6DBEFD9922F08D1783752D6F69480535E1BB71F694EBBE69992ADE0C1FB748351E2E40C232D32157C1F7C5EAAA461
311
27B34DA85AE30E550C107D0E0A22CAE526B15E498B06E09A8C22CC13680D9A5C417CDA41C055509C8E247D00797D79277EFA049522EF8A8BE05DC910BC9C35E906A2445919E348A3FA8059B63227AF211E5A2D936C597BC9BAB3D3AF1329172E91391852C2475A4E2AEA462DF6C83B1C0A1E53C0F62A948E0B502197C51A25
311
1396DC9DC0332378362EAD87CA1A2C3E20CDD60FC38066A799E0C9CC5009154026D054AC7AB66A7AD6B0A737366C56C3E6115FD79BBEE75DC1059FBCB7F512DA40F00B51DE2570890AC6BB32BE575FE5883601BBF6E1F88722B1809A7A6EE7EAF19FFBE94EDF37D615F02F103F504B03041400060808001A73314059DCD008
311
9B0500007A100000340000006662782F38393738323842462D384645342D343932352D393741332D3833424232463837374641352F6F626A656374732E786D6CAD575B8F9B3814FE2B887DCE852473C98AA19A099D2AAAA6AD1AB5DA8791220386F18EC1C836D3CCFEFAFD0C86409A4CB3ABBE84608E8FCFF9CE772EF6DFED
311
72EEBC50A998286E5C6F3C751D5AC422614576E3563A1D5DBBCEBBC09742E89E98EB1424A737AE5976033F93A22AED52425352717DB07A7FF797A3625A50D7893951EAC655F113CDC998545A24543D8F13A2C9384B77636FDC080ED56692944F074A4B2269A16129D60B68711AA3BCE1EBD49D04FEC47C0F7CF36BA5E6A7A5
311
26B53FC3F359A13429E29F0E3B5033F716E1FBD9C57274B158CC478BCB9937BABBBF0B47DED57CBABA5CAD96B7EF97385869094DD612495337F8006C248BFD49F329F02B56E8F9CC8AD8004D247D6126526E30733C7FD2C874DE59278F991F8BA2A0718D15D0A8FDB3AA135AD22241CC1955B0AC87D074F8EA191C7B9FE7E6
311
DD1ED95F3E0F81FE8E9EA2D6F6F6D9B754447FC305750E83A4A286810D96D6D186ABD33DC29110DC7E63CAC989A69211EE701649225FDD00A24624F0076A0C93A5C906E3811B200ACDE7215D9046BFE6F9312BD38A73436337A8B3608B5CA15AD596B17FA8DC5BDF4706362156860DD7D621FD5A5237583614B93E605303A4
311
93729221E470D3EC9CCF0E1C5D993C5D876EF0F13EDA6D4CEE1E3FBC94A2A4521BFA805A6DE0DAA741C9DAE49D1539B3C13D30650FCA5720FF09A9BE370571936CB7D82DEC295A9242A542E6888D33754653FC4C1DAFFE35FF7BFFFC49B77918BD537822D806AADF80E7D0877E2C7B7006FE0B082FE4DCBAB6890947D97860
311
0500322471B8C012EA701AEDDC608D2A87AA8C5D84071E5C86B92FF8EB4FAC1A148AFAA4DEB300960765F18C020DD86A46C28C86FCD6C07D9C7E2A67F5C156EC14BC17BF85AEB7E1E6E3A6922989E983CDE990A6AC601A2D6ECF9BBE4103CC071E3DD3D71F422670F467BC377DBC737B9402DA0673037CD6D674F3B23F7970
311
408C7D9930E5C6FFC50970C234D69EFE07A662CA3929A8A8DA73DFEC1F681B0DC426D90D93BB06B36F2C204DF3E52007D1A463C94A0362D7ADBAA2393EE1DDB7F5273012F25C4484EF85A27DE98D0517721BBD6E9BAA7414E9EF436A5B0826460BD85EE7489BFE16F36DC2D2B452A8814760FDBE5EF54367AA022A44ABB549
311
9605DC476E116939DBEA45B396048D54145B86B689B43B7A405F3F10B504A8159EB258519E6E19E755BE4D194733DAE6A43C01C7FFB73FAAF2724B725115FA84EE81E9680E43DB07E4553F888E9FDC60533F477728BD094DF6611E089B567204AB41682F96F370717B311F858B79385A5C8577A3E5E5221C5D8657ABAB65F8
311
FE7A79BF6CE3D4280FFCB6D3F4131A514267F32BC96CF8BEAD913EB606B8C103D1EAF143939DEDF3DB7A8C51D89F600FDA65B7F13679C1D847935F2BD84B1E55B4CE4B4E735A686252E8C1FCE15F09C68C8131CDFA3A27193D43CBE70F9B0367B072C6BE2F26DDE98F83BD76756512F2A812FD54E55141183FD89835488ECB
311
22B3F8B531E99E4D9F695FCD9B0D0C065325384B50061327A322A71AC5F08C1E2473AA40BDFE489FD8ABC719BB5F9A01519388D3D692278219992BA405A855C57AB8EEFC8199CE8C55372EBAEDF8193FB652B80E3873E36246D72CA66A1CA13F9B49A8560E2EF50779CCFDA4C83846ED6653F7DEED32D80C3A722772CEF864
311
FD6A2AB8750065A4C4D8807908D1A98D09FCDA36FB3DFE4F8EB7E63844E36F54E9CE97FD42E74C7D0C52B471CA5E1630C33CDBA37748D4B7DDF2C6B5CC0091B32E596F92A0D13AD24466F545C1D8674DBA0DBF4C30A038EBCF4EC9AB0CB13C5FD3485290B932090E16811556674934A8BAFAF3F18B14B8C8E6CE3D03051E57
311
22CF45615F6EED45D8D93CE15A9B3CA22C50731F518FB3A9377BACEF01F66AB28D88A26392A8672C20A69275100F020F4636974574A0E6432737314138E0E63A746C4B5B40A9254ABFAA1A58307114D441F698BBA4C995BE40F9E65560528BC20489213EF817504B03041400060800001A7331400000000000000000000000
311
00350000006662782F38393738323842462D384645342D343932352D393741332D3833424232463837374641352F76657274696365732E62696E504B03041400060808001A733140F270F1330600000004000000360000006662782F38393738323842462D384645342D343932352D393741332D3833424232463837374641
311
352F747269616E676C65732E62696E636660600000504B03041400060800001A733140000000000000000000000000370000006662782F38393738323842462D384645342D343932352D393741332D3833424232463837374641352F617474726962757465732E62696E504B03041400060808001A733140D5987DFC8F0000
311
0041010000360000006662782F38393738323842462D384645342D343932352D393741332D3833424232463837374641352F6469726563746F72792E786D6C858F410EC2201045AF4266AF15DDB800BA74E7C21B903225242D6328188F2FA5C4183471359997F9FF81E89FF3C41E1816475E02DF1F80A11FC8386F25A438EE
311
CEC07A250251FC3803E6F58C12560C4AD840E95E91C151A72936F496F35732D860FE635F62C8F2DA16B505C545B74125BAA2FA9E05D7CC053D063734D5C7665FD55B6B8D15D5E9BFEAFD8490FFA45E504B03041400060808001A73314068465405FB000000A00100003B0000006662782F38393738323842462D384645342D
311
343932352D393741332D3833424232463837374641352F7265736F75726365732F636F72652E786D6C8D504B6E833010BD0A9ABDC1268610641C21B539412F609909B1126CE44FD5E3D724546A77DD78C6EFA3797AE2FCB53C8A4FF4C1383B002B291468B59B8C9D0748F14A3A28CE5278E7E22F1914562D38C0068314B377
311
69DD21ED6C441B336ADD843BA842C008857EE46580A06FB8A852A59815E15EAE4ADFD58C252B339D755284E87380E275647B417A0C2E798D41542F568A94CCB46BCC946F9AAB410F92523EB6CD8993F1F2D611CEBB968C8CE5ED305E68776A9AE3F82EAACD2C4534CB4F46ED51459C40D694D58432C28E1F8CF735EF9BFC6D
311
7B4A45B5C9FF98D23AFDD3948C8D877A8FFBB205902C07791252545B5F793CCBCC73EB567E03504B010214000A00000800001A7331403DEE336E79000000790000001B00000000000000000000000000000000006175746F6465736B2D64657369676E2D7061636B6167652E786D6C504B010214001400060808001A733140
311
D486FD9CA0000000F40000001300000000000000000000000000B20000005B436F6E74656E745F54797065735D2E786D6C504B010214001400060808001A7331407BED7A9DE70000007C010000080000000000000000000000000083010000636F72652E786D6C504B010214001400060808001A73314055019EA25F000000
311
7C000000070000000000000000000000000090020000636E782E786D6C504B010214001400060808001A7331406060892164010000020300000C00000000000000000000000000140300006662782F636F72652E786D6C504B010214001400060808001A73314061AA916E7D0000009D0000000B0000000000000000000000
311
0000A20400006662782F636E782E786D6C504B010214001400060808001A733140419FC35D2C010000140200003100000000000000000000000000480500006662782F38393738323842462D384645342D343932352D393741332D3833424232463837374641352F636F72652E786D6C504B010214001400060808001A7331
311
4000C0E90A4C010000330300003000000000000000000000000000C30600006662782F38393738323842462D384645342D343932352D393741332D3833424232463837374641352F636E782E786D6C504B010214001400060808001A73314059DCD0089B0500007A10000034000000000000000000000000005D0800006662
311
782F38393738323842462D384645342D343932352D393741332D3833424232463837374641352F6F626A656374732E786D6C504B010214001400060800001A73314000000000000000000000000035000000000000000000000000004A0E00006662782F38393738323842462D384645342D343932352D393741332D383342
311
4232463837374641352F76657274696365732E62696E504B010214001400060808001A733140F270F133060000000400000036000000000000000000000000009D0E00006662782F38393738323842462D384645342D343932352D393741332D3833424232463837374641352F747269616E676C65732E62696E504B010214
311
001400060800001A7331400000000000000000000000003700000000000000000000000000F70E00006662782F38393738323842462D384645342D343932352D393741332D3833424232463837374641352F617474726962757465732E62696E504B010214001400060808001A733140D5987DFC8F00000041010000360000
311
00000000000000000000004C0F00006662782F38393738323842462D384645342D343932352D393741332D3833424232463837374641352F6469726563746F72792E786D6C504B010214001400060808001A73314068465405FB000000A00100003B000000000000000000000000002F1000006662782F3839373832384246
311
2D384645342D343932352D393741332D3833424232463837374641352F7265736F75726365732F636F72652E786D6C504B0506000000000E000E0080040000831100000000
310
504B03040A00000800001A7331403DEE336E79000000790000001B0000006175746F6465736B2D64657369676E2D7061636B6167652E786D6C3C3F786D6C2076657273696F6E3D22312E302220656E636F64696E673D227574662D3822203F3E3C666F726D6174733E3C666F726D61743E687474703A2F2F736368656D612E
310
6175746F6465736B2E636F6D2F64657369676E2D7061636B6167652F323030393C2F666F726D61743E3C2F666F726D6174733E504B03041400060808001A733140D486FD9CA0000000F4000000130000005B436F6E74656E745F54797065735D2E786D6C7D8EC10E82300C865F65E91D8A1E8C310C0EEA1BF002731658846E
310
D98AC1B77784ABF1D8FE5FBFBF75BBCE937A534CCEB38643598122B6FEE978D0B0485F9C41B54DDD7D022595594E1A469170414C76A4D9A4D207E29CF43ECE46F218070CC6BECC4078ACAA135ACF422C856C0E68EA1BF5669944DDD7BCDE7B1F8E415D77AECB980613C2E4AC91FC167A2B244592486606FC29C8FD7F045B9A
310
EF7053A7E60B504B03041400060808001A7331405D24BFC7E90000007C01000008000000636F72652E786D6C8D90416EC3201045AF82668F0DD8711D0B13A9767A825E0001715062B00C543D7E71E248EDAE1B66F8FCC78C3E3F7DCF77F465D660BDEB8116049071CA6BEBA61E52BCE016D049F0D5FBF8CB06C8C9D9F4B0C9
310
20F8B4FAB4EC92F22E1A17B3EABC36BB2843301190BAE7A687A0AE6696854C313BC2AD58A4BAC9C914F4D5653825ABD17388D5F93F7BB1660551BD1FD848C9119FAB66C0353B7EE076CC47C3EA6A189AB13AB4675E6EB0E0D1CEAFF96A35321A0D8211CA30A198BE7DD2BA637577C8D7A62384979BFD0F9416FD4F2859172B
310
B6AFFBC402089A17793C085E6E59E4F2082AD72D37F103504B03041400060808001A73314055019EA25F0000007C00000007000000636E782E786D6C4DCB3B0E80201045D1AD90E915ED2CF8AC45050C11660C8261F98AB1B07AC9C97D42D718D865D3E909258CFD00CCE24AC6E326A164D74DC0B4128928FF326038472BA1
310
3128B1252AC747C6BAB984FC68F0B87FE8960A5C09FE86CFB69FBA01504B03041400060808001A733140668D055765010000020300000C0000006662782F636F72652E786D6C8D526D8E823014BC4AD3FF500AC8AA293559754FB017A8A5B28DD092D2128FBF8F0FE3BA31C6903CCABC8F993794EDAE6D8306E57A6D4D8969
310
9C60A48CB495367589833F476B8C769C396BFD9F328C8C685589471873563B1BBA0592D678653CA0C6566A0145DF2B8F916CE050E25EFEA856C42278A8E82F7127E445D42AA631A4A18EB3DE3B1080669231627E3E5D199971CE42D0D592D515B0E9B3560EF3EC73951E68B2898E59B18FF274F315AD0F108A34CFF6FBE290
310
ADD64746C666CEBC6E6FEAA453C2AB0AF334A16994D0887E7CD37C9BE6DB157C16DB2461642C7F680A5DF56653D0C667E922776EEB31A720644AFCDB162CF2A81703E8219C91D144784D0E3F1A0D8680C95E9C9ADB1E17800625BD7539642A1BEEA9413441016B82A68791390B93A701B0D9D339E98B39AF67C00F14A60669
310
C2C3F114FCC8CE66D6C58A4EB968F05764AC6B457317374BBCC73BD1D376691BEBDEE926CBAA6431938CB797FF02504B03041400060808001A7331406D53B6F17C0000009D0000000B0000006662782F636E782E786D6C4DCCD10A83201886E15B91FFDCB24CF60FD488D985C4B290990EA76397BF1A1DECE883878F57F69F
310
CD93B74D2F178382A662406CB8C7D9855541C90B4520BD9629C6FC770312A6CD2A3818B45C532CCF9366BB4CC5E75DBD0B8F130537E305CD4807DE5E69675AA4D8704399305CDCB0130C116A2DEB5F69DF23ACBF504B03041400060808001A73314092F5BBB32801000014020000310000006662782F35334445373844452D
310
413332392D344432382D383133442D3035443335433834353038382F636F72652E786D6C8D514B6EC32014BC8AC52A5D60F3B1131A61A2AACE0D7A018249821283C5A7CAF10BB523B5BB6C7830CCCC1BBDC70F8FE95E7D6B1F8CB33DC0350295B6CA8DC65E7A90E21932501D04F7CEC53F34505939E91E1418087EF12ECD2B
310
A49C8DDAC68C5A37EA159421E8082A75CF971E0475D593AC658A99116EF52CD54D5E748DEBFC9D798287E873806A69524E203A3A1C776C38C20F4ADE613B100619A60344DD40BB4FD6768831DE2C42C15332E32A37638E63CE46FB574D8A58F068A6677CE5B58C7A0482204C20C210EFBE70BB27EDBECBCFED1E21DE14FA3F
310
519AC71745C9D848C91A77910520306F960FC147974EF76718FD989D8F55E9B7095ABD01816A4428439811DE2CD43C80ECB96D57CF109DCF03DEDC4E994D57E36D2B78537694CBEF02732DFB143F504B03041400060808001A7331406667261D5401000033030000300000006662782F35334445373844452D413332392D34
310
4432382D383133442D3035443335433834353038382F636E782E786D6CBD93CD6EC32010845F0571F76F5C378A30917AE813F4D02B864D4283C1025C356FDF2521692E3954AA7A41F6EC30B3FA64B3EDD764C827F8A09D1D6853D69480954E69BB1FE81277C59A922D67DEB97867A3C48A09069A64CAD9DEBB65CE92829D58
310
4C44D5687BCCA287E0162F21A09C6E12E3A4301800B65850846904A540919B119F76E0711514C713890720AF2FEFC48D1F206360554AE1AC4A1D9CA53337DD992891468430D0200F3089522CD12908C7528928CAA6BC763DD8E92789A40BD7CAC56B92CA079A4ECAF346257264150E390BD123BD6C8AA7192817F36CB41411
310
215767E3C5C3D9A26DECBBECD508DEA37BD5F6EB35869D679C453D4176480F2282A2BCAD9BB6A89BA2797E6BBA4DDB6D9EF0B5DFD435AB929DB3D139932F610C783713E96C041B296F5895C68FF0651F51DA236BE74FBF00890072EB85CE2DE32FF934FDAAEBFE914F75FEBE1197C7BF807F03504B03041400060808001A73
310
3140F6ED415E59070000931B0000340000006662782F35334445373844452D413332392D344432382D383133442D3035443335433834353038382F6F626A656374732E786D6CED595B6FA33814FE2B887D0E094DDA4E5694519B4CAB68D599D16467B40F9190030EF5D618649B5EF6D7EFF1050234B464A7FB360F0960ECE3
310
73BE73F521F8F89451E70173417276E1FADEC475308BF384B0F4C22DE56EF4C1753E8601CF73D998E63A0C65F8C255C36E18A43C2F0B3B94E01D2AA9EC8C5E5FFDE5881833EC3A3145425CB822BEC319F25029F3048B7B2F411279E9EEC9F33D33B14D36E5A8B8EB102D10C74C02A730CE808A6398F2DB8F13771C0663F53E
310
0CD4BF9D351D346BD63F6BACA56E7349989088C52F58EA90990E6269EACF969F4E4EE7A3D3D96C3A9A9D9DF8A3ABEBABE5C83F9F4E16678BC5FCF2D31CD8DBE639B53225B8C02C01FD3DBBA11F8CD59B5A748BC021AEE39C311C6B20012A2D569720C102B66AC037693FFA4AA2C66B2D61E379A6DE5B161AC3D33695BE59C3
310
8068D10541EC7695C4D5B5295FBEFD1B0417438C920B2C815B213968D7C2C3C12BDC70128CCD68186CF7BA20C2C990C49C20EA50B2E588835260AA9A1206668125A39C8303294749A035675EB76D0B3CF36DD739C4E5AEA45479861B6AC78AC0FDB0149A33F20FE67BEE9BC8004F206D4998FC60B994CF0576C37930D68361
310
A02ED313FBD200E9EC284A8546C4BCED08BA50AEBF5ABAE11FD7DBA7B50A0787372F785E602E95D1293D6ABEC090ED55A164B7F507694E2D00610CA876E51E946F80FC67881E7B56406F9C3CCD9E6676AEE488895DCE33D08D33714613F89B38BEFE57F78DBB605C2F6E6BAF0F4F705305D5879FC7B32D83C6CAF2DF80330C
310
1EC0E0733EB5AFD631A260CFB7840140CA481C9AC31084F6DDF6C90D57103821D0C32A44431F4406761FE036185B327BAD54EE65BD8E01A2768FE91025016CDA22818D1E3DDD40F6E024DEABA929621FBCA7EF62AE97CBF51FEB92EF508C6FAD4F2FF18E3022216B1E66A885794BA27BFCFC98F304047D89F7BA897766B712
310
80B6C25C019F5620A887FDCEAD0D625897E62ADC046FEC0042A85CDDA07F4B448C29450CE765B56F1DDD94A1D61E6F6B06373C31104F4F3A26CCF10351550538CD7E468B51C8FB31278502D10D6F8C6475D0F47AA4FBBEFA0C1659CFEF99B562107A19A27FEAA0750087966557485B206A81B7FB701EE734E7D1F6393291CE
310
855A02D8687BCB8F165188F546498A0A7890F6BB2AA4A446DA2821BB5D2920AE1E60F1C76AD134878937F54F9DE67FC71967106DC17711B77ED7D92322194A71B44349DF76CDDD6ADA4293EC21CDF18E825CE481C8E708C96892E0F418688E223E7F57EA29CD85200C0BC85707C16FA231F12090186D562C2BAD76802622CA
310
B044F4180414991E7075DAD1356E0CA5C3DB3CD6D6FB9AC69A44FF278BE0086AC99C45044A51C8216F32EE7BA71043DAE81A943BF882B555B4B518B48412227E8E1E3149EFE431A81BF23DB8C77024296594172806B31E40F685AF28A57678DFA2F85EE58F282EE97B1988C07417114ACB2C821F6170F218E2DA75607A1585
310
067113FB24CEA02843B2E44336393B9DBCD8C7D40CDD10D8D868472884ED2843450FEAAD80A8EB11A706DF52EF51EAB6CC8A086579C906198A37ED7A9325DF55AB223B905F552A42D95811B604C380305967D52A6683A9EBC00A6EA403D57324505650730A7B23F1F8B53769CABD1B70EBA7EFBB4106855F8FF69A117556C1
310
60796C1506E211C9F8CE0DD7FA3ABA82FA3BC1C93ED557B566B30204C454242F39B12AFABE82F2C6D6686E788BA4D8DC98AC5B5DBFAF3CE87E04635803B54BBD70A580CE3093485526B7EA867E4310825B34CCF84AE5D463A85C2689AE1A11BD267DEA6C9511AD4D33E2157798E519FCD886B0989609DEA044DC47B792466B
310
A258B7527A19A9307E55C02F37EB0E3C303240A4AFAAC0C38F9DB57674A1CAA58344E45D996D192210045BA2A546375EC152AB914ACBF5559D29A0EE0203B32A9EFD3A5934DB11BF4E16A9358C9F3B59D07C8BE83EDA34B279ACCCFAA853409D9E1495F73805E8AE434DB54E2226975BF1AD2F451013AB203FB818AB628621
310
D8C7F17F4EDA7D49D06CD7E1FFB8A4EDBF28388E4A2AADC9AA4975A0705D3553D8E97CBA9C5D9E4E47CBD974399A9D2FAF46F3B3D97274B63C5F9CCF979F3ECCAFE7359ADA4FC3A08E653A75C1B38969D5B07AB218405356E4942470984F9C1443C89770A41FD03DE71916903B9BBDEEC4F6E407AC7E306D4E89B614579CDC
310
21E80F5301591D302A63D91E777E83CEA48473F6850B3D23EF1EFEAC55BA0E249E0B173A0592C458785BE832A97E9E260E1957A77E4B0CF0412C5519D12CAA9FEB550A9B56F4AFA70CC90256AE560B03EAB6029A5FAD0685E6CDF2141F2578C58E8324DC6E4B09C59A91653F500BA3B7D9ABDFC84609BBB75B3F81EBBE2E96
310
EFE9392D44067D3178D5080CD591443CD5ED6EC59865E972F9750C6D3667F5C5296899822E87531A710CC65CAA7A0AAC08ACC2D22C9004535DFCBEF9CA73F8C29339BA28DA2CF22CCB997DB884E358025F889CF51D7CEF4936503560D555179B93897FB2D1DD6CDB608FB648604F9543305055114A848EB18145BEE84CD9BE
310
E55829A1337DB5746CF8842E80B1A017CD5DF375CB01EF51DF5194AF680FAFE47CB5A13DD653C11A38B4A2C37F01504B03041400060800001A733140000000000000000000000000350000006662782F35334445373844452D413332392D344432382D383133442D3035443335433834353038382F76657274696365732E62
310
696E504B03041400060808001A733140F270F1330600000004000000360000006662782F35334445373844452D413332392D344432382D383133442D3035443335433834353038382F747269616E676C65732E62696E636660600000504B03041400060800001A733140000000000000000000000000370000006662782F35
310
334445373844452D413332392D344432382D383133442D3035443335433834353038382F617474726962757465732E62696E504B03041400060808001A733140D5987DFC8F00000041010000360000006662782F35334445373844452D413332392D344432382D383133442D3035443335433834353038382F646972656374
310
6F72792E786D6C858F410EC2201045AF4266AF15DDB800BA74E7C21B903225242D6328188F2FA5C4183471359997F9FF81E89FF3C41E1816475E02DF1F80A11FC8386F25A438EECEC07A250251FC3803E6F58C12560C4AD840E95E91C151A72936F496F35732D860FE635F62C8F2DA16B505C545B74125BAA2FA9E05D7CC05
310
3D063734D5C7665FD55B6B8D15D5E9BFEAFD8490FFA45E504B03041400060808001A7331404E8F915FFB000000A00100003B0000006662782F35334445373844452D413332392D344432382D383133442D3035443335433834353038382F7265736F75726365732F636F72652E786D6C8D50596EC32010BD8A35FF5EC04B5D
310
0B13A9767A825E00E189831283C552F5F885C495DABFFECCC05B344F8F9DBEB67BF689D629A347204505196A6916A5D71182BFE43D6427CEAC31FE970C322D361C21C1C0D96A4DD80F481AED51FB886AB3E0010AE7D04326EFF131829357DC4421828F0A772B76216F62C58214918E3ACE9CB73140F63C9226708BCE042BD1
310
B1F2C97216825A0E8D5AE24D75516881D76F2D9D49D5E7E7BA9BF286BEBEE7FD1C47479B7A9ABAB96EFB332B939933AFB69F8CD2A2F0B800A715A1794572F2F2419A8136431BBFDD5055AC4CF23FA6B02FFF3405A57D4D8FB84F9B034E629007C15999FA8AEB5166DCA95BFE0D504B010214000A00000800001A7331403DEE
310
336E79000000790000001B00000000000000000000000000000000006175746F6465736B2D64657369676E2D7061636B6167652E786D6C504B010214001400060808001A733140D486FD9CA0000000F40000001300000000000000000000000000B20000005B436F6E74656E745F54797065735D2E786D6C504B0102140014
310
00060808001A7331405D24BFC7E90000007C010000080000000000000000000000000083010000636F72652E786D6C504B010214001400060808001A73314055019EA25F0000007C000000070000000000000000000000000092020000636E782E786D6C504B010214001400060808001A733140668D055765010000020300
310
000C00000000000000000000000000160300006662782F636F72652E786D6C504B010214001400060808001A7331406D53B6F17C0000009D0000000B00000000000000000000000000A50400006662782F636E782E786D6C504B010214001400060808001A73314092F5BBB328010000140200003100000000000000000000
310
0000004A0500006662782F35334445373844452D413332392D344432382D383133442D3035443335433834353038382F636F72652E786D6C504B010214001400060808001A7331406667261D54010000330300003000000000000000000000000000C10600006662782F35334445373844452D413332392D344432382D3831
310
33442D3035443335433834353038382F636E782E786D6C504B010214001400060808001A733140F6ED415E59070000931B00003400000000000000000000000000630800006662782F35334445373844452D413332392D344432382D383133442D3035443335433834353038382F6F626A656374732E786D6C504B01021400
310
1400060800001A73314000000000000000000000000035000000000000000000000000000E1000006662782F35334445373844452D413332392D344432382D383133442D3035443335433834353038382F76657274696365732E62696E504B010214001400060808001A733140F270F1330600000004000000360000000000
310
0000000000000000611000006662782F35334445373844452D413332392D344432382D383133442D3035443335433834353038382F747269616E676C65732E62696E504B010214001400060800001A7331400000000000000000000000003700000000000000000000000000BB1000006662782F35334445373844452D4133
310
32392D344432382D383133442D3035443335433834353038382F617474726962757465732E62696E504B010214001400060808001A733140D5987DFC8F000000410100003600000000000000000000000000101100006662782F35334445373844452D413332392D344432382D383133442D3035443335433834353038382F
310
6469726563746F72792E786D6C504B010214001400060808001A7331404E8F915FFB000000A00100003B00000000000000000000000000F31100006662782F35334445373844452D413332392D344432382D383133442D3035443335433834353038382F7265736F75726365732F636F72652E786D6C504B0506000000000E
310
000E0080040000471300000000
  0
XRECORD
  5
27
102
{ACAD_REACTORS
330
22
102
}
330
22
100
AcDbXrecord
280
     1
270
     1
271
     1
  0
XRECORD
  5
26
102
{ACAD_REACTORS
330
22
102
}
330
22
100
AcDbXrecord
280
     1
270
     1
271
     1
  0
XRECORD
  5
28
102
{ACAD_REACTORS
330
22
102
}
330
22
100
AcDbXrecord
280
     1
270
     1
271
     1
  0
XRECORD
  5
25
102
{ACAD_REACTORS
330
22
102
}
330
22
100
AcDbXrecord
280
     1
270
     1
271
     1
  0
XRECORD
  5
C49
102
{ACAD_REACTORS
330
C48
102
}
330
C48
100
AcDbXrecord
280
     1
102
ACAD_ROUNDTRIP_2012_MLEADER_STYLE
298
     1
  0
CELLSTYLEMAP
  5
C47
102
{ACAD_REACTORS
330
C46
102
}
330
C46
100
AcDbCellStyleMap
 90
        3
300
CELLSTYLE
  1
TABLEFORMAT_BEGIN
 90
        5
170
     1
 91
        0
 92
    32768
 62
   257
 93
        1
300
CONTENTFORMAT
  1
CONTENTFORMAT_BEGIN
 90
        0
 91
        0
 92
      512
 93
        0
300

 40
0.0
140
1.0
 94
        5
 62
     0
340
55
144
0.25
309
CONTENTFORMAT_END
171
     0
 94
        0
309
TABLEFORMAT_END
  1
CELLSTYLE_BEGIN
 90
        1
 91
        1
300
_TITLE
309
CELLSTYLE_END
300
CELLSTYLE
  1
TABLEFORMAT_BEGIN
 90
        5
170
     1
 91
        0
 92
        0
 62
   257
 93
        1
300
CONTENTFORMAT
  1
CONTENTFORMAT_BEGIN
 90
        0
 91
        0
 92
      512
 93
        0
300

 40
0.0
140
1.0
 94
        5
 62
     0
340
55
144
0.18
309
CONTENTFORMAT_END
171
     0
 94
        0
309
TABLEFORMAT_END
  1
CELLSTYLE_BEGIN
 90
        2
 91
        1
300
_HEADER
309
CELLSTYLE_END
300
CELLSTYLE
  1
TABLEFORMAT_BEGIN
 90
        5
170
     1
 91
        0
 92
        0
 62
   257
 93
        1
300
CONTENTFORMAT
  1
CONTENTFORMAT_BEGIN
 90
        0
 91
        0
 92
      512
 93
        0
300

 40
0.0
140
1.0
 94
        2
 62
     0
340
55
144
0.18
309
CONTENTFORMAT_END
171
     0
 94
        0
309
TABLEFORMAT_END
  1
CELLSTYLE_BEGIN
 90
        3
 91
        2
300
_DATA
309
CELLSTYLE_END
  0
XRECORD
  5
C81
102
{ACAD_REACTORS
330
C46
102
}
330
C46
100
AcDbXrecord
280
     1
102
ACAD_ROUNDTRIP_PRE2007_TABLESTYLE
 90
      512
 91
        0
  1

 92
      512
 93
        0
  2

 94
      512
 95
        0
  3

  0
XRECORD
  5
C5C
102
{ACAD_REACTORS
330
C5B
102
}
330
C5B
100
AcDbXrecord
280
     1
102
RTVSPropertyOp0
 70
     1
102
RTVSPropertyOp1
 70
     1
102
RTVSPropertyOp2
 70
     1
102
RTVSPropertyOp3
 70
     1
102
RTVSPropertyOp4
 70
     1
102
RTVSPropertyOp5
 70
     1
102
RTVSPropertyOp6
 70
     1
102
RTVSPropertyOp7
 70
     1
102
RTVSPropertyOp8
 70
     1
102
RTVSPropertyOp9
 70
     1
102
RTVSPropertyOp10
 70
     1
102
RTVSPropertyOp11
 70
     1
102
RTVSPropertyOp12
 70
     1
102
RTVSPropertyOp13
 70
     1
102
RTVSPropertyOp14
 70
     1
102
RTVSPropertyOp15
 70
     1
102
RTVSPropertyOp16
 70
     1
102
RTVSPropertyOp17
 70
     1
102
RTVSPropertyOp18
 70
     1
102
RTVSPropertyOp19
 70
     1
102
RTVSPropertyOp20
 70
     1
102
RTVSPropertyOp21
 70
     1
102
RTVSPropertyOp22
 70
     1
102
RTVSPropertyOp23
 70
     1
102
RTVSPropertyOp24
 70
     1
102
RTVSPropertyOp25
 70
     1
102
RTVSPropertyOp26
 70
     1
102
RTVSPropertyOp27
 70
     1
102
RTVSPropertyOp28
 70
     1
102
RTVSPropertyOp29
 70
     1
102
RTVSPropertyOp30
 70
     1
102
RTVSPropertyOp31
 70
     1
102
RTVSPropertyOp32
 70
     1
  0
XRECORD
  5
C5A
102
{ACAD_REACTORS
330
C59
102
}
330
C59
100
AcDbXrecord
280
     1
102
RTVSPropertyOp0
 70
     1
102
RTVSPropertyOp1
 70
     1
102
RTVSPropertyOp2
 70
     1
102
RTVSPropertyOp3
 70
     1
102
RTVSPropertyOp4
 70
     1
102
RTVSPropertyOp5
 70
     1
102
RTVSPropertyOp6
 70
     1
102
RTVSPropertyOp7
 70
     1
102
RTVSPropertyOp8
 70
     1
102
RTVSPropertyOp9
 70
     1
102
RTVSPropertyOp10
 70
     1
102
RTVSPropertyOp11
 70
     1
102
RTVSPropertyOp12
 70
     1
102
RTVSPropertyOp13
 70
     1
102
RTVSPropertyOp14
 70
     1
102
RTVSPropertyOp15
 70
     1
102
RTVSPropertyOp16
 70
     1
102
RTVSPropertyOp17
 70
     1
102
RTVSPropertyOp18
 70
     1
102
RTVSPropertyOp19
 70
     1
102
RTVSPropertyOp20
 70
     1
102
RTVSPropertyOp21
 70
     1
102
RTVSPropertyOp22
 70
     1
102
RTVSPropertyOp23
 70
     1
102
RTVSPropertyOp24
 70
     1
102
RTVSPropertyOp25
 70
     1
102
RTVSPropertyOp26
 70
     1
102
RTVSPropertyOp27
 70
     1
102
RTVSPropertyOp28
 70
     1
102
RTVSPropertyOp29
 70
     1
102
RTVSPropertyOp30
 70
     1
102
RTVSPropertyOp31
 70
     1
102
RTVSPropertyOp32
 70
     1
  0
XRECORD
  5
C68
102
{ACAD_REACTORS
330
C67
102
}
330
C67
100
AcDbXrecord
280
     1
102
RTVSPropertyOp0
 70
     1
102
RTVSPropertyOp1
 70
     1
102
RTVSPropertyOp2
 70
     1
102
RTVSPropertyOp3
 70
     1
102
RTVSPropertyOp4
 70
     1
102
RTVSPropertyOp5
 70
     1
102
RTVSPropertyOp6
 70
     1
102
RTVSPropertyOp7
 70
     1
102
RTVSPropertyOp8
 70
     1
102
RTVSPropertyOp9
 70
     1
102
RTVSPropertyOp10
 70
     1
102
RTVSPropertyOp11
 70
     1
102
RTVSPropertyOp12
 70
     1
102
RTVSPropertyOp13
 70
     1
102
RTVSPropertyOp14
 70
     1
102
RTVSPropertyOp15
 70
     1
102
RTVSPropertyOp16
 70
     1
102
RTVSPropertyOp17
 70
     1
102
RTVSPropertyOp18
 70
     1
102
RTVSPropertyOp19
 70
     1
102
RTVSPropertyOp20
 70
     1
102
RTVSPropertyOp21
 70
     1
102
RTVSPropertyOp22
 70
     1
102
RTVSPropertyOp23
 70
     1
102
RTVSPropertyOp24
 70
     1
102
RTVSPropertyOp25
 70
     1
102
RTVSPropertyOp26
 70
     1
102
RTVSPropertyOp27
 70
     1
102
RTVSPropertyOp28
 70
     1
102
RTVSPropertyOp29
 70
     1
102
RTVSPropertyOp30
 70
     1
102
RTVSPropertyOp31
 70
     1
102
RTVSPropertyOp32
 70
     1
  0
XRECORD
  5
C70
102
{ACAD_REACTORS
330
C6F
102
}
330
C6F
100
AcDbXrecord
280
     1
102
RTVSPropertyOp0
 70
     1
102
RTVSPropertyOp1
 70
     1
102
RTVSPropertyOp2
 70
     1
102
RTVSPropertyOp3
 70
     1
102
RTVSPropertyOp4
 70
     1
102
RTVSPropertyOp5
 70
     1
102
RTVSPropertyOp6
 70
     1
102
RTVSPropertyOp7
 70
     1
102
RTVSPropertyOp8
 70
     1
102
RTVSPropertyOp9
 70
     1
102
RTVSPropertyOp10
 70
     1
102
RTVSPropertyOp11
 70
     1
102
RTVSPropertyOp12
 70
     1
102
RTVSPropertyOp13
 70
     1
102
RTVSPropertyOp14
 70
     1
102
RTVSPropertyOp15
 70
     1
102
RTVSPropertyOp16
 70
     1
102
RTVSPropertyOp17
 70
     1
102
RTVSPropertyOp18
 70
     1
102
RTVSPropertyOp19
 70
     1
102
RTVSPropertyOp20
 70
     1
102
RTVSPropertyOp21
 70
     1
102
RTVSPropertyOp22
 70
     1
102
RTVSPropertyOp23
 70
     1
102
RTVSPropertyOp24
 70
     1
102
RTVSPropertyOp25
 70
     1
102
RTVSPropertyOp26
 70
     1
102
RTVSPropertyOp27
 70
     1
102
RTVSPropertyOp28
 70
     1
102
RTVSPropertyOp29
 70
     1
102
RTVSPropertyOp30
 70
     1
102
RTVSPropertyOp31
 70
     1
102
RTVSPropertyOp32
 70
     1
  0
XRECORD
  5
C62
102
{ACAD_REACTORS
330
C61
102
}
330
C61
100
AcDbXrecord
280
     1
102
RTVSPropertyOp0
 70
     1
102
RTVSPropertyOp1
 70
     1
102
RTVSPropertyOp2
 70
     1
102
RTVSPropertyOp3
 70
     1
102
RTVSPropertyOp4
 70
     1
102
RTVSPropertyOp5
 70
     1
102
RTVSPropertyOp6
 70
     1
102
RTVSPropertyOp7
 70
     1
102
RTVSPropertyOp8
 70
     1
102
RTVSPropertyOp9
 70
     1
102
RTVSPropertyOp10
 70
     1
102
RTVSPropertyOp11
 70
     1
102
RTVSPropertyOp12
 70
     1
102
RTVSPropertyOp13
 70
     1
102
RTVSPropertyOp14
 70
     1
102
RTVSPropertyOp15
 70
     1
102
RTVSPropertyOp16
 70
     1
102
RTVSPropertyOp17
 70
     1
102
RTVSPropertyOp18
 70
     1
102
RTVSPropertyOp19
 70
     1
102
RTVSPropertyOp20
 70
     1
102
RTVSPropertyOp21
 70
     1
102
RTVSPropertyOp22
 70
     1
102
RTVSPropertyOp23
 70
     1
102
RTVSPropertyOp24
 70
     1
102
RTVSPropertyOp25
 70
     1
102
RTVSPropertyOp26
 70
     1
102
RTVSPropertyOp27
 70
     1
102
RTVSPropertyOp28
 70
     1
102
RTVSPropertyOp29
 70
     1
102
RTVSPropertyOp30
 70
     1
102
RTVSPropertyOp31
 70
     1
102
RTVSPropertyOp32
 70
     1
  0
XRECORD
  5
C66
102
{ACAD_REACTORS
330
C65
102
}
330
C65
100
AcDbXrecord
280
     1
102
RTVSPropertyOp0
 70
     1
102
RTVSPropertyOp1
 70
     1
102
RTVSPropertyOp2
 70
     1
102
RTVSPropertyOp3
 70
     1
102
RTVSPropertyOp4
 70
     1
102
RTVSPropertyOp5
 70
     1
102
RTVSPropertyOp6
 70
     1
102
RTVSPropertyOp7
 70
     1
102
RTVSPropertyOp8
 70
     1
102
RTVSPropertyOp9
 70
     1
102
RTVSPropertyOp10
 70
     1
102
RTVSPropertyOp11
 70
     1
102
RTVSPropertyOp12
 70
     1
102
RTVSPropertyOp13
 70
     1
102
RTVSPropertyOp14
 70
     1
102
RTVSPropertyOp15
 70
     1
102
RTVSPropertyOp16
 70
     1
102
RTVSPropertyOp17
 70
     1
102
RTVSPropertyOp18
 70
     1
102
RTVSPropertyOp19
 70
     1
102
RTVSPropertyOp20
 70
     1
102
RTVSPropertyOp21
 70
     1
102
RTVSPropertyOp22
 70
     1
102
RTVSPropertyOp23
 70
     1
102
RTVSPropertyOp24
 70
     1
102
RTVSPropertyOp25
 70
     1
102
RTVSPropertyOp26
 70
     1
102
RTVSPropertyOp27
 70
     1
102
RTVSPropertyOp28
 70
     1
102
RTVSPropertyOp29
 70
     1
102
RTVSPropertyOp30
 70
     1
102
RTVSPropertyOp31
 70
     1
102
RTVSPropertyOp32
 70
     1
  0
XRECORD
  5
C80
102
{ACAD_REACTORS
330
C7F
102
}
330
C7F
100
AcDbXrecord
280
     1
102
RTVSPropertyOp0
 70
     0
102
RTVSPropertyOp1
 70
     0
102
RTVSPropertyOp2
 70
     0
102
RTVSPropertyOp3
 70
     0
102
RTVSPropertyOp4
 70
     0
102
RTVSPropertyOp5
 70
     0
102
RTVSPropertyOp6
 70
     0
102
RTVSPropertyOp7
 70
     0
102
RTVSPropertyOp8
 70
     0
102
RTVSPropertyOp9
 70
     0
102
RTVSPropertyOp10
 70
     0
102
RTVSPropertyOp11
 70
     0
102
RTVSPropertyOp12
 70
     0
102
RTVSPropertyOp13
 70
     0
102
RTVSPropertyOp14
 70
     2
102
RTVSPropertyOp15
 70
     0
102
RTVSPropertyOp16
 70
     0
102
RTVSPropertyOp17
 70
     0
102
RTVSPropertyOp18
 70
     0
102
RTVSPropertyOp19
 70
     0
102
RTVSPropertyOp20
 70
     0
102
RTVSPropertyOp21
 70
     0
102
RTVSPropertyOp22
 70
     0
102
RTVSPropertyOp23
 70
     0
102
RTVSPropertyOp24
 70
     0
102
RTVSPropertyOp25
 70
     0
102
RTVSPropertyOp26
 70
     0
102
RTVSPropertyOp27
 70
     0
102
RTVSPropertyOp28
 70
     1
102
RTVSPropertyOp29
 70
     1
102
RTVSPropertyOp30
 70
     1
102
RTVSPropertyOp31
 70
     1
102
RTVSPropertyOp32
 70
     1
  0
XRECORD
  5
C6E
102
{ACAD_REACTORS
330
C6D
102
}
330
C6D
100
AcDbXrecord
280
     1
102
RTVSPropertyOp0
 70
     1
102
RTVSPropertyOp1
 70
     1
102
RTVSPropertyOp2
 70
     1
102
RTVSPropertyOp3
 70
     1
102
RTVSPropertyOp4
 70
     1
102
RTVSPropertyOp5
 70
     1
102
RTVSPropertyOp6
 70
     1
102
RTVSPropertyOp7
 70
     1
102
RTVSPropertyOp8
 70
     1
102
RTVSPropertyOp9
 70
     1
102
RTVSPropertyOp10
 70
     1
102
RTVSPropertyOp11
 70
     1
102
RTVSPropertyOp12
 70
     1
102
RTVSPropertyOp13
 70
     1
102
RTVSPropertyOp14
 70
     1
102
RTVSPropertyOp15
 70
     1
102
RTVSPropertyOp16
 70
     1
102
RTVSPropertyOp17
 70
     1
102
RTVSPropertyOp18
 70
     1
102
RTVSPropertyOp19
 70
     1
102
RTVSPropertyOp20
 70
     1
102
RTVSPropertyOp21
 70
     1
102
RTVSPropertyOp22
 70
     1
102
RTVSPropertyOp23
 70
     1
102
RTVSPropertyOp24
 70
     1
102
RTVSPropertyOp25
 70
     1
102
RTVSPropertyOp26
 70
     1
102
RTVSPropertyOp27
 70
     1
102
RTVSPropertyOp28
 70
     1
102
RTVSPropertyOp29
 70
     1
102
RTVSPropertyOp30
 70
     1
102
RTVSPropertyOp31
 70
     1
102
RTVSPropertyOp32
 70
     1
  0
XRECORD
  5
C52
102
{ACAD_REACTORS
330
C51
102
}
330
C51
100
AcDbXrecord
280
     1
102
RTVSPropertyOp0
 70
     1
102
RTVSPropertyOp1
 70
     1
102
RTVSPropertyOp2
 70
     1
102
RTVSPropertyOp3
 70
     1
102
RTVSPropertyOp4
 70
     1
102
RTVSPropertyOp5
 70
     1
102
RTVSPropertyOp6
 70
     1
102
RTVSPropertyOp7
 70
     1
102
RTVSPropertyOp8
 70
     1
102
RTVSPropertyOp9
 70
     1
102
RTVSPropertyOp10
 70
     1
102
RTVSPropertyOp11
 70
     1
102
RTVSPropertyOp12
 70
     1
102
RTVSPropertyOp13
 70
     1
102
RTVSPropertyOp14
 70
     1
102
RTVSPropertyOp15
 70
     1
102
RTVSPropertyOp16
 70
     1
102
RTVSPropertyOp17
 70
     1
102
RTVSPropertyOp18
 70
     1
102
RTVSPropertyOp19
 70
     1
102
RTVSPropertyOp20
 70
     1
102
RTVSPropertyOp21
 70
     1
102
RTVSPropertyOp22
 70
     1
102
RTVSPropertyOp23
 70
     1
102
RTVSPropertyOp24
 70
     1
102
RTVSPropertyOp25
 70
     1
102
RTVSPropertyOp26
 70
     1
102
RTVSPropertyOp27
 70
     1
102
RTVSPropertyOp28
 70
     1
102
RTVSPropertyOp29
 70
     1
102
RTVSPropertyOp30
 70
     1
102
RTVSPropertyOp31
 70
     1
102
RTVSPropertyOp32
 70
     1
  0
XRECORD
  5
C54
102
{ACAD_REACTORS
330
C53
102
}
330
C53
100
AcDbXrecord
280
     1
102
RTVSPropertyOp0
 70
     1
102
RTVSPropertyOp1
 70
     1
102
RTVSPropertyOp2
 70
     1
102
RTVSPropertyOp3
 70
     1
102
RTVSPropertyOp4
 70
     1
102
RTVSPropertyOp5
 70
     1
102
RTVSPropertyOp6
 70
     1
102
RTVSPropertyOp7
 70
     1
102
RTVSPropertyOp8
 70
     1
102
RTVSPropertyOp9
 70
     1
102
RTVSPropertyOp10
 70
     1
102
RTVSPropertyOp11
 70
     1
102
RTVSPropertyOp12
 70
     1
102
RTVSPropertyOp13
 70
     1
102
RTVSPropertyOp14
 70
     1
102
RTVSPropertyOp15
 70
     1
102
RTVSPropertyOp16
 70
     1
102
RTVSPropertyOp17
 70
     1
102
RTVSPropertyOp18
 70
     1
102
RTVSPropertyOp19
 70
     1
102
RTVSPropertyOp20
 70
     1
102
RTVSPropertyOp21
 70
     1
102
RTVSPropertyOp22
 70
     1
102
RTVSPropertyOp23
 70
     1
102
RTVSPropertyOp24
 70
     1
102
RTVSPropertyOp25
 70
     1
102
RTVSPropertyOp26
 70
     1
102
RTVSPropertyOp27
 70
     1
102
RTVSPropertyOp28
 70
     1
102
RTVSPropertyOp29
 70
     1
102
RTVSPropertyOp30
 70
     1
102
RTVSPropertyOp31
 70
     1
102
RTVSPropertyOp32
 70
     1
  0
XRECORD
  5
C56
102
{ACAD_REACTORS
330
C55
102
}
330
C55
100
AcDbXrecord
280
     1
102
RTVSPropertyOp0
 70
     1
102
RTVSPropertyOp1
 70
     1
102
RTVSPropertyOp2
 70
     1
102
RTVSPropertyOp3
 70
     1
102
RTVSPropertyOp4
 70
     1
102
RTVSPropertyOp5
 70
     1
102
RTVSPropertyOp6
 70
     1
102
RTVSPropertyOp7
 70
     1
102
RTVSPropertyOp8
 70
     1
102
RTVSPropertyOp9
 70
     1
102
RTVSPropertyOp10
 70
     1
102
RTVSPropertyOp11
 70
     1
102
RTVSPropertyOp12
 70
     1
102
RTVSPropertyOp13
 70
     1
102
RTVSPropertyOp14
 70
     1
102
RTVSPropertyOp15
 70
     1
102
RTVSPropertyOp16
 70
     1
102
RTVSPropertyOp17
 70
     1
102
RTVSPropertyOp18
 70
     1
102
RTVSPropertyOp19
 70
     1
102
RTVSPropertyOp20
 70
     1
102
RTVSPropertyOp21
 70
     1
102
RTVSPropertyOp22
 70
     1
102
RTVSPropertyOp23
 70
     1
102
RTVSPropertyOp24
 70
     1
102
RTVSPropertyOp25
 70
     1
102
RTVSPropertyOp26
 70
     1
102
RTVSPropertyOp27
 70
     1
102
RTVSPropertyOp28
 70
     1
102
RTVSPropertyOp29
 70
     1
102
RTVSPropertyOp30
 70
     1
102
RTVSPropertyOp31
 70
     1
102
RTVSPropertyOp32
 70
     1
  0
XRECORD
  5
C58
102
{ACAD_REACTORS
330
C57
102
}
330
C57
100
AcDbXrecord
280
     1
102
RTVSPropertyOp0
 70
     1
102
RTVSPropertyOp1
 70
     1
102
RTVSPropertyOp2
 70
     1
102
RTVSPropertyOp3
 70
     1
102
RTVSPropertyOp4
 70
     1
102
RTVSPropertyOp5
 70
     1
102
RTVSPropertyOp6
 70
     1
102
RTVSPropertyOp7
 70
     1
102
RTVSPropertyOp8
 70
     1
102
RTVSPropertyOp9
 70
     1
102
RTVSPropertyOp10
 70
     1
102
RTVSPropertyOp11
 70
     1
102
RTVSPropertyOp12
 70
     1
102
RTVSPropertyOp13
 70
     1
102
RTVSPropertyOp14
 70
     1
102
RTVSPropertyOp15
 70
     1
102
RTVSPropertyOp16
 70
     1
102
RTVSPropertyOp17
 70
     1
102
RTVSPropertyOp18
 70
     1
102
RTVSPropertyOp19
 70
     1
102
RTVSPropertyOp20
 70
     1
102
RTVSPropertyOp21
 70
     1
102
RTVSPropertyOp22
 70
     1
102
RTVSPropertyOp23
 70
     1
102
RTVSPropertyOp24
 70
     1
102
RTVSPropertyOp25
 70
     1
102
RTVSPropertyOp26
 70
     1
102
RTVSPropertyOp27
 70
     1
102
RTVSPropertyOp28
 70
     1
102
RTVSPropertyOp29
 70
     1
102
RTVSPropertyOp30
 70
     1
102
RTVSPropertyOp31
 70
     1
102
RTVSPropertyOp32
 70
     1
  0
XRECORD
  5
C60
102
{ACAD_REACTORS
330
C5F
102
}
330
C5F
100
AcDbXrecord
280
     1
102
RTVSPropertyOp0
 70
     1
102
RTVSPropertyOp1
 70
     1
102
RTVSPropertyOp2
 70
     1
102
RTVSPropertyOp3
 70
     1
102
RTVSPropertyOp4
 70
     1
102
RTVSPropertyOp5
 70
     1
102
RTVSPropertyOp6
 70
     1
102
RTVSPropertyOp7
 70
     1
102
RTVSPropertyOp8
 70
     1
102
RTVSPropertyOp9
 70
     1
102
RTVSPropertyOp10
 70
     1
102
RTVSPropertyOp11
 70
     1
102
RTVSPropertyOp12
 70
     1
102
RTVSPropertyOp13
 70
     1
102
RTVSPropertyOp14
 70
     1
102
RTVSPropertyOp15
 70
     1
102
RTVSPropertyOp16
 70
     1
102
RTVSPropertyOp17
 70
     1
102
RTVSPropertyOp18
 70
     1
102
RTVSPropertyOp19
 70
     1
102
RTVSPropertyOp20
 70
     1
102
RTVSPropertyOp21
 70
     1
102
RTVSPropertyOp22
 70
     1
102
RTVSPropertyOp23
 70
     1
102
RTVSPropertyOp24
 70
     1
102
RTVSPropertyOp25
 70
     1
102
RTVSPropertyOp26
 70
     1
102
RTVSPropertyOp27
 70
     1
102
RTVSPropertyOp28
 70
     1
102
RTVSPropertyOp29
 70
     1
102
RTVSPropertyOp30
 70
     1
102
RTVSPropertyOp31
 70
     1
102
RTVSPropertyOp32
 70
     1
  0
XRECORD
  5
C7C
102
{ACAD_REACTORS
330
C7B
102
}
330
C7B
100
AcDbXrecord
280
     1
102
RTVSPropertyOp0
 70
     0
102
RTVSPropertyOp1
 70
     0
102
RTVSPropertyOp2
 70
     0
102
RTVSPropertyOp3
 70
     0
102
RTVSPropertyOp4
 70
     0
102
RTVSPropertyOp5
 70
     0
102
RTVSPropertyOp6
 70
     0
102
RTVSPropertyOp7
 70
     0
102
RTVSPropertyOp8
 70
     0
102
RTVSPropertyOp9
 70
     0
102
RTVSPropertyOp10
 70
     0
102
RTVSPropertyOp11
 70
     0
102
RTVSPropertyOp12
 70
     0
102
RTVSPropertyOp13
 70
     0
102
RTVSPropertyOp14
 70
     2
102
RTVSPropertyOp15
 70
     0
102
RTVSPropertyOp16
 70
     0
102
RTVSPropertyOp17
 70
     0
102
RTVSPropertyOp18
 70
     0
102
RTVSPropertyOp19
 70
     0
102
RTVSPropertyOp20
 70
     0
102
RTVSPropertyOp21
 70
     0
102
RTVSPropertyOp22
 70
     0
102
RTVSPropertyOp23
 70
     0
102
RTVSPropertyOp24
 70
     0
102
RTVSPropertyOp25
 70
     0
102
RTVSPropertyOp26
 70
     0
102
RTVSPropertyOp27
 70
     0
102
RTVSPropertyOp28
 70
     1
102
RTVSPropertyOp29
 70
     1
102
RTVSPropertyOp30
 70
     1
102
RTVSPropertyOp31
 70
     1
102
RTVSPropertyOp32
 70
     1
  0
XRECORD
  5
C6C
102
{ACAD_REACTORS
330
C6B
102
}
330
C6B
100
AcDbXrecord
280
     1
102
RTVSPropertyOp0
 70
     1
102
RTVSPropertyOp1
 70
     1
102
RTVSPropertyOp2
 70
     1
102
RTVSPropertyOp3
 70
     1
102
RTVSPropertyOp4
 70
     1
102
RTVSPropertyOp5
 70
     1
102
RTVSPropertyOp6
 70
     1
102
RTVSPropertyOp7
 70
     1
102
RTVSPropertyOp8
 70
     1
102
RTVSPropertyOp9
 70
     1
102
RTVSPropertyOp10
 70
     1
102
RTVSPropertyOp11
 70
     1
102
RTVSPropertyOp12
 70
     1
102
RTVSPropertyOp13
 70
     1
102
RTVSPropertyOp14
 70
     1
102
RTVSPropertyOp15
 70
     1
102
RTVSPropertyOp16
 70
     1
102
RTVSPropertyOp17
 70
     1
102
RTVSPropertyOp18
 70
     1
102
RTVSPropertyOp19
 70
     1
102
RTVSPropertyOp20
 70
     1
102
RTVSPropertyOp21
 70
     1
102
RTVSPropertyOp22
 70
     1
102
RTVSPropertyOp23
 70
     1
102
RTVSPropertyOp24
 70
     1
102
RTVSPropertyOp25
 70
     1
102
RTVSPropertyOp26
 70
     1
102
RTVSPropertyOp27
 70
     1
102
RTVSPropertyOp28
 70
     1
102
RTVSPropertyOp29
 70
     1
102
RTVSPropertyOp30
 70
     1
102
RTVSPropertyOp31
 70
     1
102
RTVSPropertyOp32
 70
     1
  0
XRECORD
  5
C7E
102
{ACAD_REACTORS
330
C7D
102
}
330
C7D
100
AcDbXrecord
280
     1
102
RTVSPropertyOp0
 70
     0
102
RTVSPropertyOp1
 70
     0
102
RTVSPropertyOp2
 70
     0
102
RTVSPropertyOp3
 70
     0
102
RTVSPropertyOp4
 70
     0
102
RTVSPropertyOp5
 70
     0
102
RTVSPropertyOp6
 70
     0
102
RTVSPropertyOp7
 70
     0
102
RTVSPropertyOp8
 70
     0
102
RTVSPropertyOp9
 70
     0
102
RTVSPropertyOp10
 70
     0
102
RTVSPropertyOp11
 70
     0
102
RTVSPropertyOp12
 70
     0
102
RTVSPropertyOp13
 70
     0
102
RTVSPropertyOp14
 70
     2
102
RTVSPropertyOp15
 70
     0
102
RTVSPropertyOp16
 70
     0
102
RTVSPropertyOp17
 70
     0
102
RTVSPropertyOp18
 70
     0
102
RTVSPropertyOp19
 70
     0
102
RTVSPropertyOp20
 70
     0
102
RTVSPropertyOp21
 70
     0
102
RTVSPropertyOp22
 70
     0
102
RTVSPropertyOp23
 70
     0
102
RTVSPropertyOp24
 70
     0
102
RTVSPropertyOp25
 70
     0
102
RTVSPropertyOp26
 70
     0
102
RTVSPropertyOp27
 70
     0
102
RTVSPropertyOp28
 70
     1
102
RTVSPropertyOp29
 70
     1
102
RTVSPropertyOp30
 70
     1
102
RTVSPropertyOp31
 70
     1
102
RTVSPropertyOp32
 70
     1
  0
XRECORD
  5
C64
102
{ACAD_REACTORS
330
C63
102
}
330
C63
100
AcDbXrecord
280
     1
102
RTVSPropertyOp0
 70
     1
102
RTVSPropertyOp1
 70
     1
102
RTVSPropertyOp2
 70
     1
102
RTVSPropertyOp3
 70
     1
102
RTVSPropertyOp4
 70
     1
102
RTVSPropertyOp5
 70
     1
102
RTVSPropertyOp6
 70
     1
102
RTVSPropertyOp7
 70
     1
102
RTVSPropertyOp8
 70
     1
102
RTVSPropertyOp9
 70
     1
102
RTVSPropertyOp10
 70
     1
102
RTVSPropertyOp11
 70
     1
102
RTVSPropertyOp12
 70
     1
102
RTVSPropertyOp13
 70
     1
102
RTVSPropertyOp14
 70
     1
102
RTVSPropertyOp15
 70
     1
102
RTVSPropertyOp16
 70
     1
102
RTVSPropertyOp17
 70
     1
102
RTVSPropertyOp18
 70
     1
102
RTVSPropertyOp19
 70
     1
102
RTVSPropertyOp20
 70
     1
102
RTVSPropertyOp21
 70
     1
102
RTVSPropertyOp22
 70
     1
102
RTVSPropertyOp23
 70
     1
102
RTVSPropertyOp24
 70
     1
102
RTVSPropertyOp25
 70
     1
102
RTVSPropertyOp26
 70
     1
102
RTVSPropertyOp27
 70
     1
102
RTVSPropertyOp28
 70
     1
102
RTVSPropertyOp29
 70
     1
102
RTVSPropertyOp30
 70
     1
102
RTVSPropertyOp31
 70
     1
102
RTVSPropertyOp32
 70
     1
  0
XRECORD
  5
C7A
102
{ACAD_REACTORS
330
C79
102
}
330
C79
100
AcDbXrecord
280
     1
102
RTVSPropertyOp0
 70
     1
102
RTVSPropertyOp1
 70
     1
102
RTVSPropertyOp2
 70
     1
102
RTVSPropertyOp3
 70
     1
102
RTVSPropertyOp4
 70
     1
102
RTVSPropertyOp5
 70
     1
102
RTVSPropertyOp6
 70
     1
102
RTVSPropertyOp7
 70
     1
102
RTVSPropertyOp8
 70
     1
102
RTVSPropertyOp9
 70
     1
102
RTVSPropertyOp10
 70
     1
102
RTVSPropertyOp11
 70
     1
102
RTVSPropertyOp12
 70
     1
102
RTVSPropertyOp13
 70
     1
102
RTVSPropertyOp14
 70
     1
102
RTVSPropertyOp15
 70
     1
102
RTVSPropertyOp16
 70
     1
102
RTVSPropertyOp17
 70
     1
102
RTVSPropertyOp18
 70
     1
102
RTVSPropertyOp19
 70
     1
102
RTVSPropertyOp20
 70
     1
102
RTVSPropertyOp21
 70
     1
102
RTVSPropertyOp22
 70
     1
102
RTVSPropertyOp23
 70
     1
102
RTVSPropertyOp24
 70
     1
102
RTVSPropertyOp25
 70
     1
102
RTVSPropertyOp26
 70
     1
102
RTVSPropertyOp27
 70
     1
102
RTVSPropertyOp28
 70
     1
102
RTVSPropertyOp29
 70
     1
102
RTVSPropertyOp30
 70
     1
102
RTVSPropertyOp31
 70
     1
102
RTVSPropertyOp32
 70
     1
  0
XRECORD
  5
C78
102
{ACAD_REACTORS
330
C77
102
}
330
C77
100
AcDbXrecord
280
     1
102
RTVSPropertyOp0
 70
     1
102
RTVSPropertyOp1
 70
     1
102
RTVSPropertyOp2
 70
     1
102
RTVSPropertyOp3
 70
     1
102
RTVSPropertyOp4
 70
     1
102
RTVSPropertyOp5
 70
     1
102
RTVSPropertyOp6
 70
     1
102
RTVSPropertyOp7
 70
     1
102
RTVSPropertyOp8
 70
     1
102
RTVSPropertyOp9
 70
     1
102
RTVSPropertyOp10
 70
     1
102
RTVSPropertyOp11
 70
     1
102
RTVSPropertyOp12
 70
     1
102
RTVSPropertyOp13
 70
     1
102
RTVSPropertyOp14
 70
     1
102
RTVSPropertyOp15
 70
     1
102
RTVSPropertyOp16
 70
     1
102
RTVSPropertyOp17
 70
     1
102
RTVSPropertyOp18
 70
     1
102
RTVSPropertyOp19
 70
     1
102
RTVSPropertyOp20
 70
     1
102
RTVSPropertyOp21
 70
     1
102
RTVSPropertyOp22
 70
     1
102
RTVSPropertyOp23
 70
     1
102
RTVSPropertyOp24
 70
     1
102
RTVSPropertyOp25
 70
     1
102
RTVSPropertyOp26
 70
     1
102
RTVSPropertyOp27
 70
     1
102
RTVSPropertyOp28
 70
     1
102
RTVSPropertyOp29
 70
     1
102
RTVSPropertyOp30
 70
     1
102
RTVSPropertyOp31
 70
     1
102
RTVSPropertyOp32
 70
     1
  0
XRECORD
  5
C72
102
{ACAD_REACTORS
330
C71
102
}
330
C71
100
AcDbXrecord
280
     1
102
RTVSPropertyOp0
 70
     1
102
RTVSPropertyOp1
 70
     1
102
RTVSPropertyOp2
 70
     1
102
RTVSPropertyOp3
 70
     1
102
RTVSPropertyOp4
 70
     1
102
RTVSPropertyOp5
 70
     1
102
RTVSPropertyOp6
 70
     1
102
RTVSPropertyOp7
 70
     1
102
RTVSPropertyOp8
 70
     1
102
RTVSPropertyOp9
 70
     1
102
RTVSPropertyOp10
 70
     1
102
RTVSPropertyOp11
 70
     1
102
RTVSPropertyOp12
 70
     1
102
RTVSPropertyOp13
 70
     1
102
RTVSPropertyOp14
 70
     1
102
RTVSPropertyOp15
 70
     1
102
RTVSPropertyOp16
 70
     1
102
RTVSPropertyOp17
 70
     1
102
RTVSPropertyOp18
 70
     1
102
RTVSPropertyOp19
 70
     1
102
RTVSPropertyOp20
 70
     1
102
RTVSPropertyOp21
 70
     1
102
RTVSPropertyOp22
 70
     1
102
RTVSPropertyOp23
 70
     1
102
RTVSPropertyOp24
 70
     1
102
RTVSPropertyOp25
 70
     1
102
RTVSPropertyOp26
 70
     1
102
RTVSPropertyOp27
 70
     1
102
RTVSPropertyOp28
 70
     1
102
RTVSPropertyOp29
 70
     1
102
RTVSPropertyOp30
 70
     1
102
RTVSPropertyOp31
 70
     1
102
RTVSPropertyOp32
 70
     1
  0
XRECORD
  5
C74
102
{ACAD_REACTORS
330
C73
102
}
330
C73
100
AcDbXrecord
280
     1
102
RTVSPropertyOp0
 70
     1
102
RTVSPropertyOp1
 70
     1
102
RTVSPropertyOp2
 70
     1
102
RTVSPropertyOp3
 70
     1
102
RTVSPropertyOp4
 70
     1
102
RTVSPropertyOp5
 70
     1
102
RTVSPropertyOp6
 70
     1
102
RTVSPropertyOp7
 70
     1
102
RTVSPropertyOp8
 70
     1
102
RTVSPropertyOp9
 70
     1
102
RTVSPropertyOp10
 70
     1
102
RTVSPropertyOp11
 70
     1
102
RTVSPropertyOp12
 70
     1
102
RTVSPropertyOp13
 70
     1
102
RTVSPropertyOp14
 70
     1
102
RTVSPropertyOp15
 70
     1
102
RTVSPropertyOp16
 70
     1
102
RTVSPropertyOp17
 70
     1
102
RTVSPropertyOp18
 70
     1
102
RTVSPropertyOp19
 70
     1
102
RTVSPropertyOp20
 70
     1
102
RTVSPropertyOp21
 70
     1
102
RTVSPropertyOp22
 70
     1
102
RTVSPropertyOp23
 70
     1
102
RTVSPropertyOp24
 70
     1
102
RTVSPropertyOp25
 70
     1
102
RTVSPropertyOp26
 70
     1
102
RTVSPropertyOp27
 70
     1
102
RTVSPropertyOp28
 70
     1
102
RTVSPropertyOp29
 70
     1
102
RTVSPropertyOp30
 70
     1
102
RTVSPropertyOp31
 70
     1
102
RTVSPropertyOp32
 70
     1
  0
XRECORD
  5
C6A
102
{ACAD_REACTORS
330
C69
102
}
330
C69
100
AcDbXrecord
280
     1
102
RTVSPropertyOp0
 70
     1
102
RTVSPropertyOp1
 70
     1
102
RTVSPropertyOp2
 70
     1
102
RTVSPropertyOp3
 70
     1
102
RTVSPropertyOp4
 70
     1
102
RTVSPropertyOp5
 70
     1
102
RTVSPropertyOp6
 70
     1
102
RTVSPropertyOp7
 70
     1
102
RTVSPropertyOp8
 70
     1
102
RTVSPropertyOp9
 70
     1
102
RTVSPropertyOp10
 70
     1
102
RTVSPropertyOp11
 70
     1
102
RTVSPropertyOp12
 70
     1
102
RTVSPropertyOp13
 70
     1
102
RTVSPropertyOp14
 70
     1
102
RTVSPropertyOp15
 70
     1
102
RTVSPropertyOp16
 70
     1
102
RTVSPropertyOp17
 70
     1
102
RTVSPropertyOp18
 70
     1
102
RTVSPropertyOp19
 70
     1
102
RTVSPropertyOp20
 70
     1
102
RTVSPropertyOp21
 70
     1
102
RTVSPropertyOp22
 70
     1
102
RTVSPropertyOp23
 70
     1
102
RTVSPropertyOp24
 70
     1
102
RTVSPropertyOp25
 70
     1
102
RTVSPropertyOp26
 70
     1
102
RTVSPropertyOp27
 70
     1
102
RTVSPropertyOp28
 70
     1
102
RTVSPropertyOp29
 70
     1
102
RTVSPropertyOp30
 70
     1
102
RTVSPropertyOp31
 70
     1
102
RTVSPropertyOp32
 70
     1
  0
XRECORD
  5
C5E
102
{ACAD_REACTORS
330
C5D
102
}
330
C5D
100
AcDbXrecord
280
     1
102
RTVSPropertyOp0
 70
     1
102
RTVSPropertyOp1
 70
     1
102
RTVSPropertyOp2
 70
     1
102
RTVSPropertyOp3
 70
     1
102
RTVSPropertyOp4
 70
     1
102
RTVSPropertyOp5
 70
     1
102
RTVSPropertyOp6
 70
     1
102
RTVSPropertyOp7
 70
     1
102
RTVSPropertyOp8
 70
     1
102
RTVSPropertyOp9
 70
     1
102
RTVSPropertyOp10
 70
     1
102
RTVSPropertyOp11
 70
     1
102
RTVSPropertyOp12
 70
     1
102
RTVSPropertyOp13
 70
     1
102
RTVSPropertyOp14
 70
     1
102
RTVSPropertyOp15
 70
     1
102
RTVSPropertyOp16
 70
     1
102
RTVSPropertyOp17
 70
     1
102
RTVSPropertyOp18
 70
     1
102
RTVSPropertyOp19
 70
     1
102
RTVSPropertyOp20
 70
     1
102
RTVSPropertyOp21
 70
     1
102
RTVSPropertyOp22
 70
     1
102
RTVSPropertyOp23
 70
     1
102
RTVSPropertyOp24
 70
     1
102
RTVSPropertyOp25
 70
     1
102
RTVSPropertyOp26
 70
     1
102
RTVSPropertyOp27
 70
     1
102
RTVSPropertyOp28
 70
     1
102
RTVSPropertyOp29
 70
     1
102
RTVSPropertyOp30
 70
     1
102
RTVSPropertyOp31
 70
     1
102
RTVSPropertyOp32
 70
     1
  0
XRECORD
  5
C76
102
{ACAD_REACTORS
330
C75
102
}
330
C75
100
AcDbXrecord
280
     1
102
RTVSPropertyOp0
 70
     1
102
RTVSPropertyOp1
 70
     1
102
RTVSPropertyOp2
 70
     1
102
RTVSPropertyOp3
 70
     1
102
RTVSPropertyOp4
 70
     1
102
RTVSPropertyOp5
 70
     1
102
RTVSPropertyOp6
 70
     1
102
RTVSPropertyOp7
 70
     1
102
RTVSPropertyOp8
 70
     1
102
RTVSPropertyOp9
 70
     1
102
RTVSPropertyOp10
 70
     1
102
RTVSPropertyOp11
 70
     1
102
RTVSPropertyOp12
 70
     1
102
RTVSPropertyOp13
 70
     1
102
RTVSPropertyOp14
 70
     1
102
RTVSPropertyOp15
 70
     1
102
RTVSPropertyOp16
 70
     1
102
RTVSPropertyOp17
 70
     1
102
RTVSPropertyOp18
 70
     1
102
RTVSPropertyOp19
 70
     1
102
RTVSPropertyOp20
 70
     1
102
RTVSPropertyOp21
 70
     1
102
RTVSPropertyOp22
 70
     1
102
RTVSPropertyOp23
 70
     1
102
RTVSPropertyOp24
 70
     1
102
RTVSPropertyOp25
 70
     1
102
RTVSPropertyOp26
 70
     1
102
RTVSPropertyOp27
 70
     1
102
RTVSPropertyOp28
 70
     1
102
RTVSPropertyOp29
 70
     1
102
RTVSPropertyOp30
 70
     1
102
RTVSPropertyOp31
 70
     1
102
RTVSPropertyOp32
 70
     1
  0
ENDSEC
  0
EOF
