  0
SECTION
  2
HEADER
  9
$ACADVER
  1
AC1015
  9
$ACADMAINTVER
 70
    18
  9
$DWGCODEPAGE
  3
ANSI_1252
  9
$INSBASE
 10
0.0
 20
0.0
 30
0.0
  9
$EXTMIN
 10
0.0
 20
0.0
 30
0.0
  9
$EXTMAX
 10
61.81818181818181
 20
40.0
 30
0.0
  9
$LIMMIN
 10
0.0
 20
0.0
  9
$LIMMAX
 10
61.81818181818181
 20
40.0
  9
$ORTHOMODE
 70
     0
  9
$REGENMODE
 70
     1
  9
$FILLMODE
 70
     1
  9
$QTEXTMODE
 70
     0
  9
$MIRRTEXT
 70
     0
  9
$LTSCALE
 40
3.636363636363636
  9
$ATTMODE
 70
     1
  9
$TEXTSIZE
 40
0.2
  9
$TRACEWID
 40
0.05
  9
$TEXTSTYLE
  7
Standard
  9
$CLAYER
  8
0
  9
$CELTYPE
  6
ByLayer
  9
$CECOLOR
 62
   256
  9
$CELTSCALE
 40
1.0
  9
$DISPSILH
 70
     0
  9
$DIMSCALE
 40
1.0
  9
$DIMASZ
 40
0.0708661417322835
  9
$DIMEXO
 40
0.0625
  9
$DIMDLI
 40
0.38
  9
$DIMRND
 40
0.0
  9
$DIMDLE
 40
0.0
  9
$DIMEXE
 40
0.18
  9
$DIMTP
 40
0.0
  9
$DIMTM
 40
0.0
  9
$DIMTXT
 40
0.0708661417322835
  9
$DIMCEN
 40
0.09
  9
$DIMTSZ
 40
0.0
  9
$DIMTOL
 70
     0
  9
$DIMLIM
 70
     0
  9
$DIMTIH
 70
     1
  9
$DIMTOH
 70
     1
  9
$DIMSE1
 70
     0
  9
$DIMSE2
 70
     0
  9
$DIMTAD
 70
     0
  9
$DIMZIN
 70
     0
  9
$DIMBLK
  1

  9
$DIMASO
 70
     1
  9
$DIMSHO
 70
     1
  9
$DIMPOST
  1

  9
$DIMAPOST
  1

  9
$DIMALT
 70
     0
  9
$DIMALTD
 70
     2
  9
$DIMALTF
 40
25.4
  9
$DIMLFAC
 40
1.0
  9
$DIMTOFL
 70
     0
  9
$DIMTVP
 40
0.0
  9
$DIMTIX
 70
     0
  9
$DIMSOXD
 70
     0
  9
$DIMSAH
 70
     0
  9
$DIMBLK1
  1

  9
$DIMBLK2
  1

  9
$DIMSTYLE
  2
STANDARD
  9
$DIMCLRD
 70
     0
  9
$DIMCLRE
 70
     0
  9
$DIMCLRT
 70
     0
  9
$DIMTFAC
 40
1.0
  9
$DIMGAP
 40
0.09
  9
$DIMJUST
 70
     0
  9
$DIMSD1
 70
     0
  9
$DIMSD2
 70
     0
  9
$DIMTOLJ
 70
     1
  9
$DIMTZIN
 70
     0
  9
$DIMALTZ
 70
     0
  9
$DIMALTTZ
 70
     0
  9
$DIMUPT
 70
     0
  9
$DIMDEC
 70
     4
  9
$DIMTDEC
 70
     4
  9
$DIMALTU
 70
     2
  9
$DIMALTTD
 70
     2
  9
$DIMTXSTY
  7
Standard
  9
$DIMAUNIT
 70
     0
  9
$DIMADEC
 70
     0
  9
$DIMALTRND
 40
0.0
  9
$DIMAZIN
 70
     0
  9
$DIMDSEP
 70
    46
  9
$DIMATFIT
 70
     3
  9
$DIMFRAC
 70
     0
  9
$DIMLDRBLK
  1

  9
$DIMLUNIT
 70
     2
  9
$DIMLWD
 70
    -2
  9
$DIMLWE
 70
    -2
  9
$DIMTMOVE
 70
     0
  9
$LUNITS
 70
     2
  9
$LUPREC
 70
     4
  9
$SKETCHINC
 40
0.1
  9
$FILLETRAD
 40
0.0
  9
$AUNITS
 70
     0
  9
$AUPREC
 70
     0
  9
$MENU
  1
.
  9
$ELEVATION
 40
0.0
  9
$PELEVATION
 40
0.0
  9
$THICKNESS
 40
0.0
  9
$LIMCHECK
 70
     0
  9
$CHAMFERA
 40
0.0
  9
$CHAMFERB
 40
0.0
  9
$CHAMFERC
 40
0.0
  9
$CHAMFERD
 40
0.0
  9
$SKPOLY
 70
     0
  9
$TDCREATE
 40
2455944.477723507
  9
$TDUCREATE
 40
2455944.727723507
  9
$TDUPDATE
 40
2455944.477723692
  9
$TDUUPDATE
 40
2455944.727723692
  9
$TDINDWG
 40
0.0000452199
  9
$TDUSRTIMER
 40
0.0000452199
  9
$USRTIMER
 70
     1
  9
$ANGBASE
 50
0.0
  9
$ANGDIR
 70
     0
  9
$PDMODE
 70
     0
  9
$PDSIZE
 40
0.0
  9
$PLINEWID
 40
0.0
  9
$SPLFRAME
 70
     0
  9
$SPLINETYPE
 70
     6
  9
$SPLINESEGS
 70
     8
  9
$HANDSEED
  5
C03
  9
$SURFTAB1
 70
     6
  9
$SURFTAB2
 70
     6
  9
$SURFTYPE
 70
     6
  9
$SURFU
 70
     6
  9
$SURFV
 70
     6
  9
$UCSBASE
  2

  9
$UCSNAME
  2

  9
$UCSORG
 10
0.0
 20
0.0
 30
0.0
  9
$UCSXDIR
 10
1.0
 20
0.0
 30
0.0
  9
$UCSYDIR
 10
0.0
 20
1.0
 30
0.0
  9
$UCSORTHOREF
  2

  9
$UCSORTHOVIEW
 70
     0
  9
$UCSORGTOP
 10
0.0
 20
0.0
 30
0.0
  9
$UCSORGBOTTOM
 10
0.0
 20
0.0
 30
0.0
  9
$UCSORGLEFT
 10
0.0
 20
0.0
 30
0.0
  9
$UCSORGRIGHT
 10
0.0
 20
0.0
 30
0.0
  9
$UCSORGFRONT
 10
0.0
 20
0.0
 30
0.0
  9
$UCSORGBACK
 10
0.0
 20
0.0
 30
0.0
  9
$PUCSBASE
  2

  9
$PUCSNAME
  2

  9
$PUCSORG
 10
0.0
 20
0.0
 30
0.0
  9
$PUCSXDIR
 10
1.0
 20
0.0
 30
0.0
  9
$PUCSYDIR
 10
0.0
 20
1.0
 30
0.0
  9
$PUCSORTHOREF
  2

  9
$PUCSORTHOVIEW
 70
     0
  9
$PUCSORGTOP
 10
0.0
 20
0.0
 30
0.0
  9
$PUCSORGBOTTOM
 10
0.0
 20
0.0
 30
0.0
  9
$PUCSORGLEFT
 10
0.0
 20
0.0
 30
0.0
  9
$PUCSORGRIGHT
 10
0.0
 20
0.0
 30
0.0
  9
$PUCSORGFRONT
 10
0.0
 20
0.0
 30
0.0
  9
$PUCSORGBACK
 10
0.0
 20
0.0
 30
0.0
  9
$USERI1
 70
     0
  9
$USERI2
 70
     0
  9
$USERI3
 70
     0
  9
$USERI4
 70
     0
  9
$USERI5
 70
     0
  9
$USERR1
 40
0.0
  9
$USERR2
 40
0.0
  9
$USERR3
 40
0.0
  9
$USERR4
 40
0.0
  9
$USERR5
 40
0.0
  9
$WORLDVIEW
 70
     1
  9
$SHADEDGE
 70
     3
  9
$SHADEDIF
 70
    70
  9
$TILEMODE
 70
     1
  9
$MAXACTVP
 70
    64
  9
$PINSBASE
 10
0.0
 20
0.0
 30
0.0
  9
$PLIMCHECK
 70
     0
  9
$PEXTMIN
 10
0.0
 20
0.0
 30
0.0
  9
$PEXTMAX
 10
61.81818181818181
 20
40.0
 30
0.0
  9
$PLIMMIN
 10
0.0
 20
0.0
  9
$PLIMMAX
 10
61.81818181818181
 20
40.0
  9
$UNITMODE
 70
     0
  9
$VISRETAIN
 70
     1
  9
$PLINEGEN
 70
     0
  9
$PSLTSCALE
 70
     1
  9
$TREEDEPTH
 70
  3020
  9
$CMLSTYLE
  2
Standard
  9
$CMLJUST
 70
     0
  9
$CMLSCALE
 40
1.0
  9
$PROXYGRAPHICS
 70
     1
  9
$MEASUREMENT
 70
     0
  9
$CELWEIGHT
370
    -1
  9
$ENDCAPS
280
     0
  9
$JOINSTYLE
280
     0
  9
$LWDISPLAY
290
     0
  9
$INSUNITS
 70
     1
  9
$HYPERLINKBASE
  1

  9
$STYLESHEET
  1

  9
$XEDIT
290
     1
  9
$CEPSNTYPE
380
     0
  9
$PSTYLEMODE
290
     1
  9
$FINGERPRINTGUID
  2
{BDC359C4-F2E7-42CE-90E9-3C2F4D6B3C8F}
  9
$VERSIONGUID
  2
{9235580A-BE3E-4354-B347-C4B1AB03DDEF}
  9
$EXTNAMES
290
     1
  9
$PSVPSCALE
 40
0.0
  9
$OLESTARTUP
290
     0
  0
ENDSEC
  0
SECTION
  2
CLASSES
  0
CLASS
  1
ACDBDICTIONARYWDFLT
  2
AcDbDictionaryWithDefault
  3
ObjectDBX Classes
 90
        0
280
     0
281
     0
  0
CLASS
  1
MATERIAL
  2
AcDbMaterial
  3
ObjectDBX Classes
 90
     1153
280
     0
281
     0
  0
CLASS
  1
VISUALSTYLE
  2
AcDbVisualStyle
  3
ObjectDBX Classes
 90
     4095
280
     0
281
     0
  0
CLASS
  1
SCALE
  2
AcDbScale
  3
ObjectDBX Classes
 90
     1153
280
     0
281
     0
  0
CLASS
  1
TABLESTYLE
  2
AcDbTableStyle
  3
ObjectDBX Classes
 90
     4095
280
     0
281
     0
  0
CLASS
  1
MLEADERSTYLE
  2
AcDbMLeaderStyle
  3
ACDB_MLEADERSTYLE_CLASS
 90
     4095
280
     0
281
     0
  0
CLASS
  1
DICTIONARYVAR
  2
AcDbDictionaryVar
  3
ObjectDBX Classes
 90
        0
280
     0
281
     0
  0
CLASS
  1
CELLSTYLEMAP
  2
AcDbCellStyleMap
  3
ObjectDBX Classes
 90
     1152
280
     0
281
     0
  0
CLASS
  1
ACDBPLACEHOLDER
  2
AcDbPlaceHolder
  3
ObjectDBX Classes
 90
        0
280
     0
281
     0
  0
CLASS
  1
LAYOUT
  2
AcDbLayout
  3
ObjectDBX Classes
 90
        0
280
     0
281
     0
  0
ENDSEC
  0
SECTION
  2
TABLES
  0
TABLE
  2
VPORT
  5
8
330
0
100
AcDbSymbolTable
 70
     1
  0
VPORT
  5
57
330
8
100
AcDbSymbolTableRecord
100
AcDbViewportTableRecord
  2
*Active
 70
     0
 10
0.0
 20
0.0
 11
1.0
 21
1.0
 12
30.90909090909091
 22
20.0
 13
0.0
 23
0.0
 14
1.0
 24
1.0
 15
0.0
 25
0.0
 16
0.0
 26
0.0
 36
1.0
 17
0.0
 27
0.0
 37
0.0
 40
40.0
 41
1.545454545454545
 42
50.0
 43
0.0
 44
0.0
 50
0.0
 51
0.0
 71
     0
 72
   100
 73
     1
 74
     1
 75
     0
 76
     0
 77
     0
 78
     0
281
     0
 65
     1
110
0.0
120
0.0
130
0.0
111
1.0
121
0.0
131
0.0
112
0.0
122
1.0
132
0.0
 79
     0
146
0.0
  0
ENDTAB
  0
TABLE
  2
LTYPE
  5
5
330
0
100
AcDbSymbolTable
 70
    67
  0
LTYPE
  5
5B
330
5
100
AcDbSymbolTableRecord
100
AcDbLinetypeTableRecord
  2
ByBlock
 70
     0
  3

 72
    65
 73
     0
 40
0.0
  0
LTYPE
  5
5C
330
5
100
AcDbSymbolTableRecord
100
AcDbLinetypeTableRecord
  2
ByLayer
 70
     0
  3

 72
    65
 73
     0
 40
0.0
  0
LTYPE
  5
5D
330
5
100
AcDbSymbolTableRecord
100
AcDbLinetypeTableRecord
  2
Continuous
 70
     0
  3
Solid line
 72
    65
 73
     0
 40
0.0
  0
LTYPE
  5
DD
330
5
100
AcDbSymbolTableRecord
100
AcDbLinetypeTableRecord
  2
BY_STANDARD
 70
     0
  3
By Standard ____________    ____    ____   _
 72
    65
 73
     6
 40
1.240299999999999
 49
0.6614
 74
     0
 49
-0.0827
 74
     0
 49
0.1654
 74
     0
 49
-0.0827
 74
     0
 49
0.1654
 74
     0
 49
-0.0827
 74
     0
  0
LTYPE
  5
DE
330
5
100
AcDbSymbolTableRecord
100
AcDbLinetypeTableRecord
  2
CHAIN
 70
     0
  3
Chain ____ _ ____ _ ____ _ ____ _ ____ _ ____
 72
    65
 73
     4
 40
0.7087
 49
0.4724000000000001
 74
     0
 49
-0.0591
 74
     0
 49
0.1181
 74
     0
 49
-0.0591
 74
     0
  0
LTYPE
  5
DF
330
5
100
AcDbSymbolTableRecord
100
AcDbLinetypeTableRecord
  2
DASH_DOT
 70
     0
  3
Dash dot __ . __ . __ . __ . __ . __ . __ . __
 72
    65
 73
     4
 40
0.37
 49
0.24
 74
     0
 49
-0.06
 74
     0
 49
0.01
 74
     0
 49
-0.06
 74
     0
  0
LTYPE
  5
E0
330
5
100
AcDbSymbolTableRecord
100
AcDbLinetypeTableRecord
  2
DOUBLE_DASH_DOT
 70
     0
  3
Double-Dash Dot __ __ . __ __ . __ __ . __ _
 72
    65
 73
     6
 40
0.4398
 49
0.24
 74
     0
 49
-0.06
 74
     0
 49
0.0098
 74
     0
 49
-0.06
 74
     0
 49
0.01
 74
     0
 49
-0.06
 74
     0
  0
LTYPE
  5
E1
330
5
100
AcDbSymbolTableRecord
100
AcDbLinetypeTableRecord
  2
DASH_TRIPLE_DOT
 70
     0
  3
Dash Triple-Dot _ . . . _ . . . _ . . . _
 72
    65
 73
     8
 40
0.51
 49
0.24
 74
     0
 49
-0.06
 74
     0
 49
0.01
 74
     0
 49
-0.06
 74
     0
 49
0.01
 74
     0
 49
-0.06
 74
     0
 49
0.01
 74
     0
 49
-0.06
 74
     0
  0
LTYPE
  5
E2
330
5
100
AcDbSymbolTableRecord
100
AcDbLinetypeTableRecord
  2
DASHED
 70
     0
  3
Dashed __ __ __ __ __ __ __ __ __ __ __ __ __ _
 72
    65
 73
     2
 40
0.2067
 49
0.1654
 74
     0
 49
-0.0413
 74
     0
  0
LTYPE
  5
E3
330
5
100
AcDbSymbolTableRecord
100
AcDbLinetypeTableRecord
  2
DASH_DOUBLE_DOT
 70
     0
  3
Dash Double-Dot __ . . __ . . __ . . __ . .
 72
    65
 73
     6
 40
0.4398
 49
0.24
 74
     0
 49
-0.06
 74
     0
 49
0.0098
 74
     0
 49
-0.06
 74
     0
 49
0.01
 74
     0
 49
-0.06
 74
     0
  0
LTYPE
  5
E4
330
5
100
AcDbSymbolTableRecord
100
AcDbLinetypeTableRecord
  2
DASHED_SPACE
 70
     0
  3
Dashed Space __ __ __ __ __ __ __ __ __ __ __ _
 72
    65
 73
     2
 40
0.2067
 49
0.1654
 74
     0
 49
-0.0413
 74
     0
  0
LTYPE
  5
E5
330
5
100
AcDbSymbolTableRecord
100
AcDbLinetypeTableRecord
  2
DOTTED
 70
     0
  3
Dotted . . . . . . . . . . . . . . . . . . . . 
 72
    65
 73
     2
 40
0.0482
 49
0.0069
 74
     0
 49
-0.0413
 74
     0
  0
LTYPE
  5
E6
330
5
100
AcDbSymbolTableRecord
100
AcDbLinetypeTableRecord
  2
DOUBLE_DASH_CHAIN
 70
     0
  3
Double-Dash Chain ______  __  __  ______  __  _
 72
    65
 73
     6
 40
1.240299999999999
 49
0.6614
 74
     0
 49
-0.0827
 74
     0
 49
0.1654
 74
     0
 49
-0.0827
 74
     0
 49
0.1654
 74
     0
 49
-0.0827
 74
     0
  0
LTYPE
  5
E8
330
5
100
AcDbSymbolTableRecord
100
AcDbLinetypeTableRecord
  2
DOUBLE_DASH_DOUBLE_DOT
 70
     0
  3
Double-Dash Double-dot _ _ . . _ _ . . _
 72
    65
 73
     8
 40
0.7400000000000001
 49
0.24
 74
     0
 49
-0.06
 74
     0
 49
0.24
 74
     0
 49
-0.06
 74
     0
 49
0.01
 74
     0
 49
-0.06
 74
     0
 49
0.01
 74
     0
 49
-0.06
 74
     0
  0
LTYPE
  5
E9
330
5
100
AcDbSymbolTableRecord
100
AcDbLinetypeTableRecord
  2
DOUBLE_DASH_TRIPLE_DOT
 70
     0
  3
Double Dash Triple Dot __ __ . . . __ __ . .
 72
    65
 73
    10
 40
0.8100000000000001
 49
0.24
 74
     0
 49
-0.06
 74
     0
 49
0.24
 74
     0
 49
-0.06
 74
     0
 49
0.01
 74
     0
 49
-0.06
 74
     0
 49
0.01
 74
     0
 49
-0.06
 74
     0
 49
0.01
 74
     0
 49
-0.06
 74
     0
  0
LTYPE
  5
EA
330
5
100
AcDbSymbolTableRecord
100
AcDbLinetypeTableRecord
  2
LONG_DASH_DOTTED
 70
     0
  3
Long Dash Dotted ____ . ____ . ____ . ____ . _
 72
    65
 73
     4
 40
0.3543
 49
0.2362
 74
     0
 49
-0.0295
 74
     0
 49
0.0591
 74
     0
 49
-0.0295
 74
     0
  0
LTYPE
  5
EB
330
5
100
AcDbSymbolTableRecord
100
AcDbLinetypeTableRecord
  2
LONG_DASH_DOUBLE_DOT
 70
     0
  3
Long Dash Double Dot ________  .  .  ________  
 72
    65
 73
     6
 40
0.6799999999999999
 49
0.48
 74
     0
 49
-0.06
 74
     0
 49
0.01
 74
     0
 49
-0.06
 74
     0
 49
0.01
 74
     0
 49
-0.06
 74
     0
  0
LTYPE
  5
EC
330
5
100
AcDbSymbolTableRecord
100
AcDbLinetypeTableRecord
  2
LONG_DASH_TRIPLE_DOT
 70
     0
  3
Long Dash Triple Dot ____ ... ____ ... ____
 72
    65
 73
     8
 40
0.3689
 49
0.2362
 74
     0
 49
-0.0295
 74
     0
 49
0.0049
 74
     0
 49
-0.0295
 74
     0
 49
0.0049
 74
     0
 49
-0.0295
 74
     0
 49
0.0049
 74
     0
 49
-0.0295
 74
     0
  0
LTYPE
  5
ED
330
5
100
AcDbSymbolTableRecord
100
AcDbLinetypeTableRecord
  2
BORDER
 70
     0
  3
Border __ __ . __ __ . __ __ . __ __ . __ __ .
 72
    65
 73
     6
 40
1.75
 49
0.5
 74
     0
 49
-0.25
 74
     0
 49
0.5
 74
     0
 49
-0.25
 74
     0
 49
0.0
 74
     0
 49
-0.25
 74
     0
  0
LTYPE
  5
EE
330
5
100
AcDbSymbolTableRecord
100
AcDbLinetypeTableRecord
  2
BORDER2
 70
     0
  3
Border (.5x) __.__.__.__.__.__.__.__.__.__.__.
 72
    65
 73
     6
 40
0.875
 49
0.25
 74
     0
 49
-0.125
 74
     0
 49
0.25
 74
     0
 49
-0.125
 74
     0
 49
0.0
 74
     0
 49
-0.125
 74
     0
  0
LTYPE
  5
EF
330
5
100
AcDbSymbolTableRecord
100
AcDbLinetypeTableRecord
  2
BORDERX2
 70
     0
  3
Border (2x) ____  ____  .  ____  ____  .  ___
 72
    65
 73
     6
 40
3.5
 49
1.0
 74
     0
 49
-0.5
 74
     0
 49
1.0
 74
     0
 49
-0.5
 74
     0
 49
0.0
 74
     0
 49
-0.5
 74
     0
  0
LTYPE
  5
F0
330
5
100
AcDbSymbolTableRecord
100
AcDbLinetypeTableRecord
  2
CENTER
 70
     0
  3
Center ____ _ ____ _ ____ _ ____ _ ____ _ ____
 72
    65
 73
     4
 40
2.0
 49
1.25
 74
     0
 49
-0.25
 74
     0
 49
0.25
 74
     0
 49
-0.25
 74
     0
  0
LTYPE
  5
F1
330
5
100
AcDbSymbolTableRecord
100
AcDbLinetypeTableRecord
  2
CENTER2
 70
     0
  3
Center (.5x) ___ _ ___ _ ___ _ ___ _ ___ _ ___
 72
    65
 73
     4
 40
1.125
 49
0.75
 74
     0
 49
-0.125
 74
     0
 49
0.125
 74
     0
 49
-0.125
 74
     0
  0
LTYPE
  5
F2
330
5
100
AcDbSymbolTableRecord
100
AcDbLinetypeTableRecord
  2
CENTERX2
 70
     0
  3
Center (2x) ________  __  ________  __  _____
 72
    65
 73
     4
 40
4.0
 49
2.5
 74
     0
 49
-0.5
 74
     0
 49
0.5
 74
     0
 49
-0.5
 74
     0
  0
LTYPE
  5
F3
330
5
100
AcDbSymbolTableRecord
100
AcDbLinetypeTableRecord
  2
DASHDOT2
 70
     0
  3
Dash dot (.5x) _._._._._._._._._._._._._._._.
 72
    65
 73
     4
 40
0.5
 49
0.25
 74
     0
 49
-0.125
 74
     0
 49
0.0
 74
     0
 49
-0.125
 74
     0
  0
LTYPE
  5
F4
330
5
100
AcDbSymbolTableRecord
100
AcDbLinetypeTableRecord
  2
DASHDOTX2
 70
     0
  3
Dash dot (2x) ____  .  ____  .  ____  .  ___
 72
    65
 73
     4
 40
2.0
 49
1.0
 74
     0
 49
-0.5
 74
     0
 49
0.0
 74
     0
 49
-0.5
 74
     0
  0
LTYPE
  5
F6
330
5
100
AcDbSymbolTableRecord
100
AcDbLinetypeTableRecord
  2
DASHED2
 70
     0
  3
Dashed (.5x) _ _ _ _ _ _ _ _ _ _ _ _ _ _ _ _ _
 72
    65
 73
     2
 40
0.375
 49
0.25
 74
     0
 49
-0.125
 74
     0
  0
LTYPE
  5
F7
330
5
100
AcDbSymbolTableRecord
100
AcDbLinetypeTableRecord
  2
DASHEDX2
 70
     0
  3
Dashed (2x) ____  ____  ____  ____  ____  ___
 72
    65
 73
     2
 40
1.5
 49
1.0
 74
     0
 49
-0.5
 74
     0
  0
LTYPE
  5
F8
330
5
100
AcDbSymbolTableRecord
100
AcDbLinetypeTableRecord
  2
DIVIDE
 70
     0
  3
Divide ____ . . ____ . . ____ . . ____ . . ____
 72
    65
 73
     6
 40
1.25
 49
0.5
 74
     0
 49
-0.25
 74
     0
 49
0.0
 74
     0
 49
-0.25
 74
     0
 49
0.0
 74
     0
 49
-0.25
 74
     0
  0
LTYPE
  5
F9
330
5
100
AcDbSymbolTableRecord
100
AcDbLinetypeTableRecord
  2
DIVIDE2
 70
     0
  3
Divide (.5x) __..__..__..__..__..__..__..__.._
 72
    65
 73
     6
 40
0.625
 49
0.25
 74
     0
 49
-0.125
 74
     0
 49
0.0
 74
     0
 49
-0.125
 74
     0
 49
0.0
 74
     0
 49
-0.125
 74
     0
  0
LTYPE
  5
FA
330
5
100
AcDbSymbolTableRecord
100
AcDbLinetypeTableRecord
  2
DIVIDEX2
 70
     0
  3
Divide (2x) ________  .  .  ________  .  .  _
 72
    65
 73
     6
 40
2.5
 49
1.0
 74
     0
 49
-0.5
 74
     0
 49
0.0
 74
     0
 49
-0.5
 74
     0
 49
0.0
 74
     0
 49
-0.5
 74
     0
  0
LTYPE
  5
FB
330
5
100
AcDbSymbolTableRecord
100
AcDbLinetypeTableRecord
  2
DOT
 70
     0
  3
Dot . . . . . . . . . . . . . . . . . . . . . .
 72
    65
 73
     2
 40
0.25
 49
0.0
 74
     0
 49
-0.25
 74
     0
  0
LTYPE
  5
FC
330
5
100
AcDbSymbolTableRecord
100
AcDbLinetypeTableRecord
  2
DOT2
 70
     0
  3
Dot (.5x) .....................................
 72
    65
 73
     2
 40
0.125
 49
0.0
 74
     0
 49
-0.125
 74
     0
  0
LTYPE
  5
FD
330
5
100
AcDbSymbolTableRecord
100
AcDbLinetypeTableRecord
  2
DOTX2
 70
     0
  3
Dot (2x) .  .  .  .  .  .  .  .  .  .  .  .  . 
 72
    65
 73
     2
 40
0.5
 49
0.0
 74
     0
 49
-0.5
 74
     0
  0
LTYPE
  5
FE
330
5
100
AcDbSymbolTableRecord
100
AcDbLinetypeTableRecord
  2
HIDDEN
 70
     0
  3
Hidden __ __ __ __ __ __ __ __ __ __ __ __ __ _
 72
    65
 73
     2
 40
0.375
 49
0.25
 74
     0
 49
-0.125
 74
     0
  0
LTYPE
  5
FF
330
5
100
AcDbSymbolTableRecord
100
AcDbLinetypeTableRecord
  2
HIDDEN2
 70
     0
  3
Hidden (.5x) _ _ _ _ _ _ _ _ _ _ _ _ _ _ _ _ _
 72
    65
 73
     2
 40
0.1875
 49
0.125
 74
     0
 49
-0.0625
 74
     0
  0
LTYPE
  5
100
330
5
100
AcDbSymbolTableRecord
100
AcDbLinetypeTableRecord
  2
HIDDENX2
 70
     0
  3
Hidden (2x) ____ ____ ____ ____ ____ ____ ____
 72
    65
 73
     2
 40
0.75
 49
0.5
 74
     0
 49
-0.25
 74
     0
  0
LTYPE
  5
101
330
5
100
AcDbSymbolTableRecord
100
AcDbLinetypeTableRecord
  2
PHANTOM
 70
     0
  3
Phantom ______  __  __  ______  __  __  ______
 72
    65
 73
     6
 40
2.5
 49
1.25
 74
     0
 49
-0.25
 74
     0
 49
0.25
 74
     0
 49
-0.25
 74
     0
 49
0.25
 74
     0
 49
-0.25
 74
     0
  0
LTYPE
  5
102
330
5
100
AcDbSymbolTableRecord
100
AcDbLinetypeTableRecord
  2
PHANTOM2
 70
     0
  3
Phantom (.5x) ___ _ _ ___ _ _ ___ _ _ ___ _ _
 72
    65
 73
     6
 40
1.25
 49
0.625
 74
     0
 49
-0.125
 74
     0
 49
0.125
 74
     0
 49
-0.125
 74
     0
 49
0.125
 74
     0
 49
-0.125
 74
     0
  0
LTYPE
  5
103
330
5
100
AcDbSymbolTableRecord
100
AcDbLinetypeTableRecord
  2
PHANTOMX2
 70
     0
  3
Phantom (2x) ____________    ____    ____   _
 72
    65
 73
     6
 40
5.0
 49
2.5
 74
     0
 49
-0.5
 74
     0
 49
0.5
 74
     0
 49
-0.5
 74
     0
 49
0.5
 74
     0
 49
-0.5
 74
     0
  0
LTYPE
  5
104
330
5
100
AcDbSymbolTableRecord
100
AcDbLinetypeTableRecord
  2
ACAD_ISO02W100
 70
     0
  3
ISO dash __ __ __ __ __ __ __ __ __ __ __ __ __
 72
    65
 73
     2
 40
0.59
 49
0.47
 74
     0
 49
-0.12
 74
     0
  0
LTYPE
  5
105
330
5
100
AcDbSymbolTableRecord
100
AcDbLinetypeTableRecord
  2
ACAD_ISO03W100
 70
     0
  3
ISO dash space __    __    __    __    __    __
 72
    65
 73
     2
 40
1.179999999999999
 49
0.47
 74
     0
 49
-0.71
 74
     0
  0
LTYPE
  5
106
330
5
100
AcDbSymbolTableRecord
100
AcDbLinetypeTableRecord
  2
ACAD_ISO04W100
 70
     0
  3
ISO long-dash dot ____ . ____ . ____ . ____ . _
 72
    65
 73
     4
 40
1.179999999999999
 49
0.9399999999999998
 74
     0
 49
-0.12
 74
     0
 49
0.0
 74
     0
 49
-0.12
 74
     0
  0
LTYPE
  5
107
330
5
100
AcDbSymbolTableRecord
100
AcDbLinetypeTableRecord
  2
ACAD_ISO05W100
 70
     0
  3
ISO long-dash double-dot ____ .. ____ .. ____ .
 72
    65
 73
     6
 40
1.299999999999999
 49
0.9399999999999998
 74
     0
 49
-0.12
 74
     0
 49
0.0
 74
     0
 49
-0.12
 74
     0
 49
0.0
 74
     0
 49
-0.12
 74
     0
  0
LTYPE
  5
108
330
5
100
AcDbSymbolTableRecord
100
AcDbLinetypeTableRecord
  2
ACAD_ISO06W100
 70
     0
  3
ISO long-dash triple-dot ____ ... ____ ... ____
 72
    65
 73
     8
 40
1.419999999999999
 49
0.9399999999999998
 74
     0
 49
-0.12
 74
     0
 49
0.0
 74
     0
 49
-0.12
 74
     0
 49
0.0
 74
     0
 49
-0.12
 74
     0
 49
0.0
 74
     0
 49
-0.12
 74
     0
  0
LTYPE
  5
109
330
5
100
AcDbSymbolTableRecord
100
AcDbLinetypeTableRecord
  2
ACAD_ISO07W100
 70
     0
  3
ISO dot . . . . . . . . . . . . . . . . . . . .
 72
    65
 73
     2
 40
0.12
 49
0.0
 74
     0
 49
-0.12
 74
     0
  0
LTYPE
  5
10A
330
5
100
AcDbSymbolTableRecord
100
AcDbLinetypeTableRecord
  2
ACAD_ISO08W100
 70
     0
  3
ISO long-dash short-dash ____ __ ____ __ ____ _
 72
    65
 73
     4
 40
0.95
 49
0.47
 74
     0
 49
-0.12
 74
     0
 49
0.24
 74
     0
 49
-0.12
 74
     0
  0
LTYPE
  5
10B
330
5
100
AcDbSymbolTableRecord
100
AcDbLinetypeTableRecord
  2
ACAD_ISO09W100
 70
     0
  3
ISO long-dash double-short-dash ____ __ __ ____
 72
    65
 73
     6
 40
1.31
 49
0.47
 74
     0
 49
-0.12
 74
     0
 49
0.24
 74
     0
 49
-0.12
 74
     0
 49
0.24
 74
     0
 49
-0.12
 74
     0
  0
LTYPE
  5
10C
330
5
100
AcDbSymbolTableRecord
100
AcDbLinetypeTableRecord
  2
ACAD_ISO10W100
 70
     0
  3
ISO dash dot __ . __ . __ . __ . __ . __ . __ .
 72
    65
 73
     4
 40
0.71
 49
0.47
 74
     0
 49
-0.12
 74
     0
 49
0.0
 74
     0
 49
-0.12
 74
     0
  0
LTYPE
  5
10D
330
5
100
AcDbSymbolTableRecord
100
AcDbLinetypeTableRecord
  2
ACAD_ISO11W100
 70
     0
  3
ISO double-dash dot __ __ . __ __ . __ __ . __ 
 72
    65
 73
     6
 40
1.299999999999999
 49
0.47
 74
     0
 49
-0.12
 74
     0
 49
0.47
 74
     0
 49
-0.12
 74
     0
 49
0.0
 74
     0
 49
-0.12
 74
     0
  0
LTYPE
  5
10E
330
5
100
AcDbSymbolTableRecord
100
AcDbLinetypeTableRecord
  2
ACAD_ISO12W100
 70
     0
  3
ISO dash double-dot __ . . __ . . __ . . __ . .
 72
    65
 73
     6
 40
0.8299999999999998
 49
0.47
 74
     0
 49
-0.12
 74
     0
 49
0.0
 74
     0
 49
-0.12
 74
     0
 49
0.0
 74
     0
 49
-0.12
 74
     0
  0
LTYPE
  5
10F
330
5
100
AcDbSymbolTableRecord
100
AcDbLinetypeTableRecord
  2
ACAD_ISO13W100
 70
     0
  3
ISO double-dash double-dot __ __ . . __ __ . . 
 72
    65
 73
     8
 40
1.419999999999999
 49
0.47
 74
     0
 49
-0.12
 74
     0
 49
0.47
 74
     0
 49
-0.12
 74
     0
 49
0.0
 74
     0
 49
-0.12
 74
     0
 49
0.0
 74
     0
 49
-0.12
 74
     0
  0
LTYPE
  5
110
330
5
100
AcDbSymbolTableRecord
100
AcDbLinetypeTableRecord
  2
ACAD_ISO14W100
 70
     0
  3
ISO dash triple-dot __ . . . __ . . . __ . . . 
 72
    65
 73
     8
 40
0.95
 49
0.47
 74
     0
 49
-0.12
 74
     0
 49
0.0
 74
     0
 49
-0.12
 74
     0
 49
0.0
 74
     0
 49
-0.12
 74
     0
 49
0.0
 74
     0
 49
-0.12
 74
     0
  0
LTYPE
  5
111
330
5
100
AcDbSymbolTableRecord
100
AcDbLinetypeTableRecord
  2
ACAD_ISO15W100
 70
     0
  3
ISO double-dash triple-dot __ __ . . . __ __ . 
 72
    65
 73
    10
 40
1.539999999999999
 49
0.47
 74
     0
 49
-0.12
 74
     0
 49
0.47
 74
     0
 49
-0.12
 74
     0
 49
0.0
 74
     0
 49
-0.12
 74
     0
 49
0.0
 74
     0
 49
-0.12
 74
     0
 49
0.0
 74
     0
 49
-0.12
 74
     0
  0
LTYPE
  5
114
330
5
100
AcDbSymbolTableRecord
100
AcDbLinetypeTableRecord
  2
FENCELINE1
 70
     0
  3
Fenceline circle ----0-----0----0-----0----0---
 72
    65
 73
     4
 40
1.45
 49
0.25
 74
     0
 49
-0.1
 74
     4
 75
   133
340
113
 46
0.1
 50
0.0
 44
-0.1
 45
0.0
 49
-0.1
 74
     0
 49
1.0
 74
     0
  0
LTYPE
  5
115
330
5
100
AcDbSymbolTableRecord
100
AcDbLinetypeTableRecord
  2
FENCELINE2
 70
     0
  3
Fenceline square ----[]-----[]----[]-----[]----
 72
    65
 73
     4
 40
1.45
 49
0.25
 74
     0
 49
-0.1
 74
     4
 75
   132
340
113
 46
0.1
 50
0.0
 44
-0.1
 45
0.0
 49
-0.1
 74
     0
 49
1.0
 74
     0
  0
LTYPE
  5
116
330
5
100
AcDbSymbolTableRecord
100
AcDbLinetypeTableRecord
  2
TRACKS
 70
     0
  3
Tracks -|-|-|-|-|-|-|-|-|-|-|-|-|-|-|-|-|-|-|-|
 72
    65
 73
     2
 40
0.3
 49
0.15
 74
     4
 75
   130
340
113
 46
0.25
 50
0.0
 44
0.0
 45
0.0
 49
0.15
 74
     0
  0
LTYPE
  5
117
330
5
100
AcDbSymbolTableRecord
100
AcDbLinetypeTableRecord
  2
BATTING
 70
     0
  3
Batting SSSSSSSSSSSSSSSSSSSSSSSSSSSSSSSSSSSSSSS
 72
    65
 73
     4
 40
0.4001000000000001
 49
0.0001
 74
     0
 49
-0.1
 74
     4
 75
   134
340
113
 46
0.1
 50
0.0
 44
-0.1
 45
0.0
 49
-0.2
 74
     4
 75
   134
340
113
 46
0.1
 50
180.0
 44
0.1
 45
0.0
 49
-0.1
 74
     0
  0
LTYPE
  5
118
330
5
100
AcDbSymbolTableRecord
100
AcDbLinetypeTableRecord
  2
HOT_WATER_SUPPLY
 70
     0
  3
Hot water supply ---- HW ---- HW ---- HW ----
 72
    65
 73
     3
 40
0.9
 49
0.5
 74
     0
 49
-0.2
 74
     2
 75
     0
340
55
 46
0.1
 50
0.0
 44
-0.1
 45
-0.05
  9
HW
 49
-0.2
 74
     0
  0
LTYPE
  5
119
330
5
100
AcDbSymbolTableRecord
100
AcDbLinetypeTableRecord
  2
GAS_LINE
 70
     0
  3
Gas line ----GAS----GAS----GAS----GAS----GAS---
 72
    65
 73
     3
 40
0.95
 49
0.5
 74
     0
 49
-0.2
 74
     2
 75
     0
340
55
 46
0.1
 50
0.0
 44
-0.1
 45
-0.05
  9
GAS
 49
-0.25
 74
     0
  0
LTYPE
  5
11A
330
5
100
AcDbSymbolTableRecord
100
AcDbLinetypeTableRecord
  2
ZIGZAG
 70
     0
  3
Zig zag /\/\/\/\/\/\/\/\/\/\/\/\/\/\/\/\/\/\/\/
 72
    65
 73
     4
 40
0.8001000000000001
 49
0.0001
 74
     0
 49
-0.2
 74
     4
 75
   131
340
113
 46
0.2
 50
0.0
 44
-0.2
 45
0.0
 49
-0.4
 74
     4
 75
   131
340
113
 46
0.2
 50
180.0
 44
0.2
 45
0.0
 49
-0.2
 74
     0
  0
LTYPE
  5
134
330
5
100
AcDbSymbolTableRecord
100
AcDbLinetypeTableRecord
  2
AM_ISO02W050
 70
     0
  3
_ 
 72
    65
 73
     2
 40
197.3684310913086
 49
157.8947448730469
 74
     0
 49
-39.47368621826172
 74
     0
  0
LTYPE
  5
135
330
5
100
AcDbSymbolTableRecord
100
AcDbLinetypeTableRecord
  2
AM_ISO08W050
 70
     0
  3
_ _ 
 72
    65
 73
     4
 40
473.6842346191406
 49
315.7894897460938
 74
     0
 49
-39.47368621826172
 74
     0
 49
78.94737243652343
 74
     0
 49
-39.47368621826172
 74
     0
  0
LTYPE
  5
136
330
5
100
AcDbSymbolTableRecord
100
AcDbLinetypeTableRecord
  2
AM_ISO09W050
 70
     0
  3
_ _ _ 
 72
    65
 73
     6
 40
592.1052932739257
 49
315.7894897460938
 74
     0
 49
-39.47368621826172
 74
     0
 49
78.94737243652343
 74
     0
 49
-39.47368621826172
 74
     0
 49
78.94737243652343
 74
     0
 49
-39.47368621826172
 74
     0
  0
LTYPE
  5
137
330
5
100
AcDbSymbolTableRecord
100
AcDbLinetypeTableRecord
  2
Amconstr
 70
     0
  3
_.
 72
    65
 73
     2
 40
263131.59375
 49
263131.59375
 74
     0
 49
0.0
 74
     0
  0
LTYPE
  5
138
330
5
100
AcDbSymbolTableRecord
100
AcDbLinetypeTableRecord
  2
AM_ISO08W050x2
 70
     0
  3
_ _ 
 72
    65
 73
     4
 40
236.8421173095703
 49
157.8947448730469
 74
     0
 49
-19.73684310913086
 74
     0
 49
39.47368621826172
 74
     0
 49
-19.73684310913086
 74
     0
  0
LTYPE
  5
139
330
5
100
AcDbSymbolTableRecord
100
AcDbLinetypeTableRecord
  2
AM_ISO02W050x2
 70
     0
  3
_ 
 72
    65
 73
     2
 40
98.68421554565429
 49
78.94737243652343
 74
     0
 49
-19.73684310913086
 74
     0
  0
LTYPE
  5
13A
330
5
100
AcDbSymbolTableRecord
100
AcDbLinetypeTableRecord
  2
ACANSTGB
 70
     0
  3
_ _ _ 
 72
    65
 73
     6
 40
9.324492573738098
 49
4.144218921661376
 74
     0
 49
-1.036054730415344
 74
     0
 49
1.036054730415344
 74
     0
 49
-1.036054730415344
 74
     0
 49
1.036054730415344
 74
     0
 49
-1.036054730415344
 74
     0
  0
LTYPE
  5
13B
330
5
100
AcDbSymbolTableRecord
100
AcDbLinetypeTableRecord
  2
ACANSTGL
 70
     0
  3
_ 
 72
    65
 73
     2
 40
3.108164191246032
 49
2.072109460830688
 74
     0
 49
-1.036054730415344
 74
     0
  0
ENDTAB
  0
TABLE
  2
LAYER
  5
2
330
0
100
AcDbSymbolTable
 70
    27
  0
LAYER
  5
54
330
2
100
AcDbSymbolTableRecord
100
AcDbLayerTableRecord
  2
0
 70
     0
 62
     7
  6
Continuous
370
    18
390
F
  0
LAYER
  5
75
330
2
100
AcDbSymbolTableRecord
100
AcDbLayerTableRecord
  2
Symbol (ANSI)
 70
     0
 62
     7
  6
Continuous
370
    18
390
F
  0
LAYER
  5
124
330
2
100
AcDbSymbolTableRecord
100
AcDbLayerTableRecord
  2
Dimension (ANSI)
 70
     0
 62
     7
  6
Continuous
370
    13
390
F
  0
LAYER
  5
126
330
2
100
AcDbSymbolTableRecord
100
AcDbLayerTableRecord
  2
Hidden (ANSI)
 70
     0
 62
     7
  6
DASHED
370
    15
390
F
  0
LAYER
  5
12F
330
2
100
AcDbSymbolTableRecord
100
AcDbLayerTableRecord
  2
Visible (ANSI)
 70
     0
 62
     7
  6
Continuous
370
    13
390
F
  0
LAYER
  5
1C7
330
2
100
AcDbSymbolTableRecord
100
AcDbLayerTableRecord
  2
Defpoints
 70
     0
 62
     7
  6
Continuous
290
     0
370
    -3
390
F
  0
ENDTAB
  0
TABLE
  2
STYLE
  5
3
330
0
100
AcDbSymbolTable
 70
    18
  0
STYLE
  5
55
330
3
100
AcDbSymbolTableRecord
100
AcDbTextStyleTableRecord
  2
Standard
 70
     0
 40
0.0
 41
1.0
 50
0.0
 71
     0
 42
0.2
  3
txt
  4

  0
STYLE
  5
5A
330
3
100
AcDbSymbolTableRecord
100
AcDbTextStyleTableRecord
  2
Annotative
 70
     0
 40
0.0
 41
1.0
 50
0.0
 71
     0
 42
0.2
  3
txt
  4

1001
AcadAnnotative
1000
AnnotativeData
1002
{
1070
     1
1070
     1
1002
}
  0
STYLE
  5
76
330
3
100
AcDbSymbolTableRecord
100
AcDbTextStyleTableRecord
  2
Note Text (ANSI)
 70
     0
 40
0.0
 41
1.0
 50
0.0
 71
     0
 42
0.2
  3
TAHOMA.TTF
  4

1001
ACAD
1000
Tahoma
1071
      256
  0
STYLE
  5
78
330
3
100
AcDbSymbolTableRecord
100
AcDbTextStyleTableRecord
  2
SANSSERIF
 70
     0
 40
0.125
 41
1.0
 50
0.0
 71
     0
 42
0.125
  3
sas_____.pfb
  4

  0
STYLE
  5
113
330
3
100
AcDbSymbolTableRecord
100
AcDbTextStyleTableRecord
  2

 70
     1
 40
0.0
 41
1.0
 50
0.0
 71
     0
 42
0.2
  3
ltypeshp.shx
  4

  0
STYLE
  5
13C
330
3
100
AcDbSymbolTableRecord
100
AcDbTextStyleTableRecord
  2
ITALICC_120
 70
     0
 40
0.0
 41
1.0
 50
0.0
 71
     0
 42
0.2
  3
italicc.shx
  4

  0
STYLE
  5
13D
330
3
100
AcDbSymbolTableRecord
100
AcDbTextStyleTableRecord
  2
Label Text (ANSI)
 70
     0
 40
0.0
 41
1.0
 50
0.0
 71
     0
 42
0.2
  3
TAHOMA.TTF
  4

1001
ACAD
1000
Tahoma
1071
      256
  0
STYLE
  5
13E
330
3
100
AcDbSymbolTableRecord
100
AcDbTextStyleTableRecord
  2
ROMANS
 70
     0
 40
0.0
 41
1.0
 50
0.0
 71
     0
 42
0.2
  3
romans.shx
  4

  0
STYLE
  5
13F
330
3
100
AcDbSymbolTableRecord
100
AcDbTextStyleTableRecord
  2
SANSSERIF_114
 70
     0
 40
0.0
 41
1.0
 50
0.0
 71
     0
 42
0.2
  3
TAHOMA.TTF
  4

1001
ACAD
1000
Tahoma
1071
      256
  0
STYLE
  5
140
330
3
100
AcDbSymbolTableRecord
100
AcDbTextStyleTableRecord
  2
SANSSERIF_117
 70
     0
 40
0.0
 41
1.0
 50
0.0
 71
     0
 42
0.2
  3
TAHOMA.TTF
  4

1001
ACAD
1000
Tahoma
1071
      256
  0
STYLE
  5
141
330
3
100
AcDbSymbolTableRecord
100
AcDbTextStyleTableRecord
  2
STANDARDAM_ANSI
 70
     0
 40
0.0
 41
1.0
 50
0.0
 71
     0
 42
0.2
  3
txt.shx
  4

  0
STYLE
  5
142
330
3
100
AcDbSymbolTableRecord
100
AcDbTextStyleTableRecord
  2
StandardAM_ANSI$0
 70
     0
 40
0.0
 41
1.0
 50
0.0
 71
     0
 42
0.2
  3
txt.shx
  4

  0
STYLE
  5
143
330
3
100
AcDbSymbolTableRecord
100
AcDbTextStyleTableRecord
  2
STANDARDAM_ANSI$3
 70
     0
 40
0.0
 41
1.0
 50
0.0
 71
     0
 42
0.2
  3
txt.shx
  4

  0
STYLE
  5
144
330
3
100
AcDbSymbolTableRecord
100
AcDbTextStyleTableRecord
  2
STANDARDAM_ANSI$4
 70
     0
 40
0.0
 41
1.0
 50
0.0
 71
     0
 42
0.2
  3
txt.shx
  4

  0
STYLE
  5
145
330
3
100
AcDbSymbolTableRecord
100
AcDbTextStyleTableRecord
  2
STANDARDAM_ANSI$7
 70
     0
 40
0.0
 41
1.0
 50
0.0
 71
     0
 42
0.2
  3
txt.shx
  4

  0
STYLE
  5
146
330
3
100
AcDbSymbolTableRecord
100
AcDbTextStyleTableRecord
  2
STANDARDAM_ANSI$SF
 70
     0
 40
0.0
 41
1.0
 50
0.0
 71
     0
 42
0.2
  3
txt.shx
  4

  0
STYLE
  5
147
330
3
100
AcDbSymbolTableRecord
100
AcDbTextStyleTableRecord
  2
STANDARDAM_ANSI$SH
 70
     0
 40
0.0
 41
1.0
 50
0.0
 71
     0
 42
0.2
  3
txt.shx
  4

  0
STYLE
  5
148
330
3
100
AcDbSymbolTableRecord
100
AcDbTextStyleTableRecord
  2
STANDARDSTANDARD
 70
     0
 40
0.0
 41
1.0
 50
0.0
 71
     0
 42
0.2
  3
txt.shx
  4

  0
ENDTAB
  0
TABLE
  2
VIEW
  5
6
330
0
100
AcDbSymbolTable
 70
     0
  0
ENDTAB
  0
TABLE
  2
UCS
  5
7
330
0
100
AcDbSymbolTable
 70
     0
  0
ENDTAB
  0
TABLE
  2
APPID
  5
9
330
0
100
AcDbSymbolTable
 70
     4
  0
APPID
  5
56
330
9
100
AcDbSymbolTableRecord
100
AcDbRegAppTableRecord
  2
ACAD
 70
     0
  0
APPID
  5
5E
330
9
100
AcDbSymbolTableRecord
100
AcDbRegAppTableRecord
  2
AcadAnnotative
 70
     0
  0
APPID
  5
9F0
330
9
100
AcDbSymbolTableRecord
100
AcDbRegAppTableRecord
  2
ACAD_DSTYLE_DIMRADIAL_EXTENSION
 70
     0
  0
APPID
  5
BF8
330
9
100
AcDbSymbolTableRecord
100
AcDbRegAppTableRecord
  2
ACAD_MLEADERVER
 70
     0
  0
ENDTAB
  0
TABLE
  2
DIMSTYLE
  5
A
330
0
100
AcDbSymbolTable
 70
    27
100
AcDbDimStyleTable
 71
     2
340
15D
340
58
  0
DIMSTYLE
105
58
330
A
100
AcDbSymbolTableRecord
100
AcDbDimStyleTableRecord
  2
STANDARD
 70
     0
 41
0.1800000071525573
 42
0.0625
140
0.1800000071525574
144
1.0
147
0.0900000035762787
176
   256
177
   256
178
   256
274
     3
340
55
371
    -1
372
    -1
  0
DIMSTYLE
105
59
330
A
100
AcDbSymbolTableRecord
100
AcDbDimStyleTableRecord
  2
Annotative
 70
     0
340
55
1001
AcadAnnotative
1000
AnnotativeData
1002
{
1070
     1
1070
     1
1002
}
  0
DIMSTYLE
105
149
330
A
100
AcDbSymbolTableRecord
100
AcDbDimStyleTableRecord
  2
AM_ANSI
 70
     0
  4
 mm
 40
3.636363636363636
 41
0.119999997317791
 42
0.05
 43
0.5
 44
0.1
 45
0.00000001
 78
     4
 79
     2
140
0.1200000047683716
146
0.7099999453624112
147
0.0599999986588955
176
   256
177
   256
178
     2
284
     4
340
141
371
    -1
372
    -1
  0
DIMSTYLE
105
14A
330
A
100
AcDbSymbolTableRecord
100
AcDbDimStyleTableRecord
  2
AM_ANSI$7
 70
     0
  4
 mm
 40
3.636363636363636
 41
0.119999997317791
 42
0.05
 43
0.5
 44
0.1
 45
0.00000001
 78
     4
 79
     2
140
0.1200000047683716
146
0.7099999453624112
147
0.0599999986588955
176
   256
177
   256
178
     2
284
     4
340
141
371
    -1
372
    -1
  0
DIMSTYLE
105
14B
330
A
100
AcDbSymbolTableRecord
100
AcDbDimStyleTableRecord
  2
AM_ANSI$0
 70
     0
  4
 mm
 40
3.636363636363636
 41
0.119999997317791
 42
0.05
 43
0.5
 44
0.1
 45
0.00000001
 78
     4
 79
     2
140
0.1200000047683716
146
0.7099999453624112
147
0.0599999986588955
176
   256
177
   256
178
     2
284
     4
340
142
371
    -1
372
    -1
  0
DIMSTYLE
105
14C
330
A
100
AcDbSymbolTableRecord
100
AcDbDimStyleTableRecord
  2
AM_ANSI$0$7
 70
     0
  4
 mm
 40
3.636363636363636
 41
0.119999997317791
 42
0.05
 43
0.5
 44
0.1
 45
0.00000001
 78
     4
 79
     2
140
0.1200000047683716
146
0.7099999453624112
147
0.0599999986588955
176
   256
177
   256
178
     2
284
     4
340
142
371
    -1
372
    -1
  0
DIMSTYLE
105
14D
330
A
100
AcDbSymbolTableRecord
100
AcDbDimStyleTableRecord
  2
AM_ANSI$3
 70
     0
  4
 mm
 40
3.636363636363636
 41
0.119999997317791
 42
0.05
 43
0.5
 44
0.1
 45
0.00000001
 78
     4
 79
     2
140
0.1200000047683716
146
0.7099999453624112
147
0.0599999986588955
176
   256
177
   256
178
     2
284
     4
340
143
371
    -1
372
    -1
  0
DIMSTYLE
105
14E
330
A
100
AcDbSymbolTableRecord
100
AcDbDimStyleTableRecord
  2
AM_ANSI$3$7
 70
     0
  4
 mm
 40
3.636363636363636
 41
0.119999997317791
 42
0.05
 43
0.5
 44
0.1
 45
0.00000001
 78
     4
 79
     2
140
0.1200000047683716
146
0.7099999453624112
147
0.0599999986588955
176
   256
177
   256
178
     2
284
     4
340
143
371
    -1
372
    -1
  0
DIMSTYLE
105
14F
330
A
100
AcDbSymbolTableRecord
100
AcDbDimStyleTableRecord
  2
AM_ANSI$4
 70
     0
  4
 mm
 40
3.636363636363636
 41
0.119999997317791
 42
0.05
 43
0.5
 44
0.1
 45
0.00000001
 78
     4
 79
     2
140
0.1200000047683716
146
0.7099999453624112
147
0.0599999986588955
176
   256
177
   256
178
     2
284
     4
340
144
371
    -1
372
    -1
  0
DIMSTYLE
105
150
330
A
100
AcDbSymbolTableRecord
100
AcDbDimStyleTableRecord
  2
AM_ANSI$4$7
 70
     0
  4
 mm
 40
3.636363636363636
 41
0.119999997317791
 42
0.05
 43
0.5
 44
0.1
 45
0.00000001
 78
     4
 79
     2
140
0.1200000047683716
146
0.7099999453624112
147
0.0599999986588955
176
   256
177
   256
178
     2
284
     4
340
144
371
    -1
372
    -1
  0
DIMSTYLE
105
151
330
A
100
AcDbSymbolTableRecord
100
AcDbDimStyleTableRecord
  2
AM_ANSI$SF
 70
     0
  4
 mm
 40
3.636363636363636
 41
0.119999997317791
 42
0.05
 43
0.5
 44
0.1
 45
0.00000001
 75
     1
 76
     1
 78
     4
 79
     2
140
0.1200000047683716
146
0.7099999453624112
147
0.0599999986588955
176
   256
177
   256
178
     2
284
     4
340
146
371
    -1
372
    -1
  0
DIMSTYLE
105
152
330
A
100
AcDbSymbolTableRecord
100
AcDbDimStyleTableRecord
  2
AM_ANSI$SF$7
 70
     0
  4
 mm
 40
3.636363636363636
 41
0.119999997317791
 42
0.05
 43
0.5
 44
0.1
 45
0.00000001
 75
     1
 76
     1
 78
     4
 79
     2
140
0.1200000047683716
146
0.7099999453624112
147
0.0599999986588955
176
   256
177
   256
178
     2
284
     4
340
146
371
    -1
372
    -1
  0
DIMSTYLE
105
153
330
A
100
AcDbSymbolTableRecord
100
AcDbDimStyleTableRecord
  2
AM_ANSI$SH
 70
     0
  4
 mm
 40
3.636363636363636
 41
0.119999997317791
 42
0.05
 43
0.5
 44
0.1
 45
0.00000001
 75
     1
 76
     1
 78
     4
 79
     2
140
0.1200000047683716
146
0.7099999453624112
147
0.0599999986588955
176
   256
177
   256
178
     2
284
     4
340
147
371
    -1
372
    -1
  0
DIMSTYLE
105
154
330
A
100
AcDbSymbolTableRecord
100
AcDbDimStyleTableRecord
  2
AM_ANSI$SH$7
 70
     0
  4
 mm
 40
3.636363636363636
 41
0.119999997317791
 42
0.05
 43
0.5
 44
0.1
 45
0.00000001
 75
     1
 76
     1
 78
     4
 79
     2
140
0.1200000047683716
146
0.7099999453624112
147
0.0599999986588955
176
   256
177
   256
178
     2
284
     4
340
147
371
    -1
372
    -1
  0
DIMSTYLE
105
155
330
A
100
AcDbSymbolTableRecord
100
AcDbDimStyleTableRecord
  2
Architectural (ANSI)
 70
     0
 40
3.636363636363636
 41
0.0984251946210861
 43
0.2362204724409449
 44
0.125
 45
0.00000001
 46
0.3937007874015748
 78
     3
 79
     3
140
0.1200000047683716
147
0.031496062992126
171
     1
176
   256
177
   256
178
   256
272
     2
274
     1
276
     2
277
     4
284
    12
285
     4
286
    12
340
76
371
    -1
372
    -1
  0
DIMSTYLE
105
156
330
A
100
AcDbSymbolTableRecord
100
AcDbDimStyleTableRecord
  2
Architectural (ANSI)$7
 70
     0
 40
3.636363636363636
 41
0.0984251946210861
 43
0.2362204724409449
 44
0.125
 45
0.00000001
 46
0.3937007874015748
 78
     3
 79
     3
140
0.1200000047683716
147
0.031496062992126
171
     1
176
   256
177
   256
178
   256
272
     2
274
     1
276
     2
277
     4
284
    12
285
     4
286
    12
340
76
371
    -1
372
    -1
  0
DIMSTYLE
105
157
330
A
100
AcDbSymbolTableRecord
100
AcDbDimStyleTableRecord
  2
Default - Fraction (ANSI)
 70
     0
 40
3.636363636363636
 41
0.0984251946210861
 43
0.2362204724409449
 44
0.125
 45
0.00000001
 46
0.3937007874015748
 79
     3
140
0.1200000047683716
147
0.031496062992126
171
     1
176
   256
177
   256
178
   256
272
     2
274
     1
276
     2
277
     5
284
    12
285
     4
286
    12
340
76
371
    -1
372
    -1
  0
DIMSTYLE
105
158
330
A
100
AcDbSymbolTableRecord
100
AcDbDimStyleTableRecord
  2
Default - Fraction (ANSI)$7
 70
     0
 40
3.636363636363636
 41
0.0984251946210861
 43
0.2362204724409449
 44
0.125
 45
0.00000001
 46
0.3937007874015748
 79
     3
140
0.1200000047683716
147
0.031496062992126
171
     1
176
   256
177
   256
178
   256
272
     2
274
     1
276
     2
277
     5
284
    12
285
     4
286
    12
340
76
371
    -1
372
    -1
  0
DIMSTYLE
105
159
330
A
100
AcDbSymbolTableRecord
100
AcDbDimStyleTableRecord
  2
Default - mm (ANSI)
 70
     0
 40
3.636363636363636
 41
0.0984251946210861
 42
0.063
 43
0.2362204724409449
 44
0.125
 45
0.00000001
 46
0.3937007874015748
 73
     0
 78
     4
 79
     1
140
0.1200000047683716
143
1.0
144
25.4
147
0.031496062992126
171
     1
176
   256
177
   256
178
   256
179
     1
271
     2
272
     2
274
     1
284
     4
285
     4
340
76
371
    -1
372
    -1
  0
DIMSTYLE
105
15A
330
A
100
AcDbSymbolTableRecord
100
AcDbDimStyleTableRecord
  2
Default - mm (ANSI)$7
 70
     0
 40
3.636363636363636
 41
0.0984251946210861
 42
0.063
 43
0.2362204724409449
 44
0.125
 45
0.00000001
 46
0.3937007874015748
 73
     0
 78
     4
 79
     1
140
0.1200000047683716
143
1.0
144
25.4
147
0.031496062992126
171
     1
176
   256
177
   256
178
   256
179
     1
271
     2
272
     2
274
     1
284
     4
285
     4
340
76
371
    -1
372
    -1
  0
DIMSTYLE
105
15B
330
A
100
AcDbSymbolTableRecord
100
AcDbDimStyleTableRecord
  2
Default - mm [in] (ANSI)
 70
     0
  4
 in
 40
3.636363636363636
 41
0.0984251946210861
 42
0.063
 43
0.25
 44
0.125
 45
0.00000001
 46
0.3937007874015748
 73
     0
 78
     4
 79
     1
140
0.1200000047683716
143
0.03937
144
25.4
147
0.031496062992126
170
     1
171
     3
176
   256
177
   256
178
   256
179
     1
271
     2
272
     2
274
     3
284
     4
285
     4
286
     4
340
76
371
    -1
372
    -1
  0
DIMSTYLE
105
15C
330
A
100
AcDbSymbolTableRecord
100
AcDbDimStyleTableRecord
  2
Default - mm [in] (ANSI)$7
 70
     0
  4
 in
 40
3.636363636363636
 41
0.0984251946210861
 42
0.063
 43
0.25
 44
0.125
 45
0.00000001
 46
0.3937007874015748
 73
     0
 78
     4
 79
     1
140
0.1200000047683716
143
0.03937
144
25.4
147
0.031496062992126
170
     1
171
     3
176
   256
177
   256
178
   256
179
     1
271
     2
272
     2
274
     3
284
     4
285
     4
286
     4
340
76
371
    -1
372
    -1
  0
DIMSTYLE
105
15D
102
{ACAD_REACTORS
330
1C5
330
2B2
330
39C
330
499
330
597
330
681
330
76D
330
86D
330
957
330
A11
330
ACA
102
}
330
A
100
AcDbSymbolTableRecord
100
AcDbDimStyleTableRecord
  2
Default (ANSI)
 70
     0
 40
3.636363636363636
 41
0.0984251946210861
 43
0.2362204724409449
 44
0.125
 45
0.00000001
 46
0.3937007874015748
 79
     1
140
0.1200000047683716
147
0.031496062992126
171
     1
176
   256
177
   256
178
   256
271
     2
272
     2
274
     1
284
     4
285
     4
340
76
371
    -1
372
    -1
  0
DIMSTYLE
105
15E
330
A
100
AcDbSymbolTableRecord
100
AcDbDimStyleTableRecord
  2
Default (ANSI)$7
 70
     0
 40
3.636363636363636
 41
0.0984251946210861
 43
0.2362204724409449
 44
0.125
 45
0.00000001
 46
0.3937007874015748
 79
     1
140
0.1200000047683716
147
0.031496062992126
171
     1
176
   256
177
   256
178
   256
271
     2
272
     2
274
     1
284
     4
285
     4
340
76
371
    -1
372
    -1
  0
DIMSTYLE
105
15F
330
A
100
AcDbSymbolTableRecord
100
AcDbDimStyleTableRecord
  2
Alternate (ANSI)
 70
     0
 40
3.636363636363636
 41
0.0979999974370003
340
55
342
160
  0
DIMSTYLE
105
172
330
A
100
AcDbSymbolTableRecord
100
AcDbDimStyleTableRecord
  2
Datum (ANSI)
 70
     0
 40
3.636363636363636
 41
0.0979999974370003
340
55
342
160
  0
DIMSTYLE
105
181
330
A
100
AcDbSymbolTableRecord
100
AcDbDimStyleTableRecord
  2
Large (ANSI)
 70
     0
 40
3.636363636363636
 41
0.1959999948740005
340
55
342
160
  0
ENDTAB
  0
TABLE
  2
BLOCK_RECORD
  5
1
330
0
100
AcDbSymbolTable
 70
    15
  0
BLOCK_RECORD
  5
6C
330
1
100
AcDbSymbolTableRecord
100
AcDbBlockTableRecord
  2
*Model_Space
340
6F
  0
BLOCK_RECORD
  5
68
330
1
100
AcDbSymbolTableRecord
100
AcDbBlockTableRecord
  2
*Paper_Space
340
6B
  0
BLOCK_RECORD
  5
70
330
1
100
AcDbSymbolTableRecord
100
AcDbBlockTableRecord
  2
*Paper_Space0
340
73
  0
BLOCK_RECORD
  5
160
330
1
100
AcDbSymbolTableRecord
100
AcDbBlockTableRecord
  2
_Closed
340
0
  0
BLOCK_RECORD
  5
167
330
1
100
AcDbSymbolTableRecord
100
AcDbBlockTableRecord
  2
DatumFilled45
340
0
  0
BLOCK_RECORD
  5
173
330
1
100
AcDbSymbolTableRecord
100
AcDbBlockTableRecord
  2
Filled-1
340
0
  0
BLOCK_RECORD
  5
1C8
330
1
100
AcDbSymbolTableRecord
100
AcDbBlockTableRecord
  2
*D4
340
0
  0
BLOCK_RECORD
  5
2B3
330
1
100
AcDbSymbolTableRecord
100
AcDbBlockTableRecord
  2
*D5
340
0
  0
BLOCK_RECORD
  5
39D
330
1
100
AcDbSymbolTableRecord
100
AcDbBlockTableRecord
  2
*D6
340
0
  0
BLOCK_RECORD
  5
49A
330
1
100
AcDbSymbolTableRecord
100
AcDbBlockTableRecord
  2
*D7
340
0
  0
BLOCK_RECORD
  5
598
330
1
100
AcDbSymbolTableRecord
100
AcDbBlockTableRecord
  2
*D8
340
0
  0
BLOCK_RECORD
  5
682
330
1
100
AcDbSymbolTableRecord
100
AcDbBlockTableRecord
  2
*D9
340
0
  0
BLOCK_RECORD
  5
76E
330
1
100
AcDbSymbolTableRecord
100
AcDbBlockTableRecord
  2
*D10
340
0
  0
BLOCK_RECORD
  5
86E
330
1
100
AcDbSymbolTableRecord
100
AcDbBlockTableRecord
  2
*D11
340
0
  0
BLOCK_RECORD
  5
958
330
1
100
AcDbSymbolTableRecord
100
AcDbBlockTableRecord
  2
*D12
340
0
  0
BLOCK_RECORD
  5
A12
330
1
100
AcDbSymbolTableRecord
100
AcDbBlockTableRecord
  2
*D13
340
0
  0
BLOCK_RECORD
  5
ACB
330
1
100
AcDbSymbolTableRecord
100
AcDbBlockTableRecord
  2
*D14
340
0
  0
ENDTAB
  0
ENDSEC
  0
SECTION
  2
BLOCKS
  0
BLOCK
  5
6D
330
6C
100
AcDbEntity
  8
0
100
AcDbBlockBegin
  2
*Model_Space
 70
     0
 10
0.0
 20
0.0
 30
0.0
  3
*Model_Space
  1

  0
ENDBLK
  5
6E
330
6C
100
AcDbEntity
  8
0
100
AcDbBlockEnd
  0
BLOCK
  5
69
330
68
100
AcDbEntity
 67
     1
  8
0
100
AcDbBlockBegin
  2
*Paper_Space
 70
     0
 10
0.0
 20
0.0
 30
0.0
  3
*Paper_Space
  1

  0
ENDBLK
  5
6A
330
68
100
AcDbEntity
 67
     1
  8
0
100
AcDbBlockEnd
  0
BLOCK
  5
71
330
70
100
AcDbEntity
 67
     1
  8
0
100
AcDbBlockBegin
  2
*Paper_Space0
 70
     0
 10
0.0
 20
0.0
 30
0.0
  3
*Paper_Space0
  1

  0
ENDBLK
  5
72
330
70
100
AcDbEntity
 67
     1
  8
0
100
AcDbBlockEnd
  0
BLOCK
  5
165
330
160
100
AcDbEntity
  8
0
100
AcDbBlockBegin
  2
_Closed
 70
     0
 10
0.0
 20
0.0
 30
0.0
  3
_Closed
  1

  0
LINE
  5
161
330
160
100
AcDbEntity
  8
0
  6
ByBlock
 62
     0
370
    -2
100
AcDbLine
 10
-1.0
 20
0.1666666666666666
 30
0.0
 11
0.0
 21
0.0
 31
0.0
  0
LINE
  5
162
330
160
100
AcDbEntity
  8
0
  6
ByBlock
 62
     0
370
    -2
100
AcDbLine
 10
0.0
 20
0.0
 30
0.0
 11
-1.0
 21
-0.1666666666666666
 31
0.0
  0
LINE
  5
163
330
160
100
AcDbEntity
  8
0
  6
ByBlock
 62
     0
370
    -2
100
AcDbLine
 10
-1.0
 20
0.1666666666666666
 30
0.0
 11
-1.0
 21
-0.1666666666666666
 31
0.0
  0
LINE
  5
164
330
160
100
AcDbEntity
  8
0
  6
ByBlock
 62
     0
370
    -2
100
AcDbLine
 10
0.0
 20
0.0
 30
0.0
 11
-1.0
 21
0.0
 31
0.0
  0
ENDBLK
  5
166
330
160
100
AcDbEntity
  8
0
100
AcDbBlockEnd
  0
BLOCK
  5
168
330
167
100
AcDbEntity
  8
0
100
AcDbBlockBegin
  2
DatumFilled45
 70
     0
 10
0.0
 20
0.0
 30
0.0
  3
DatumFilled45
  1

  0
POLYLINE
  5
16A
330
167
100
AcDbEntity
  8
0
 62
     0
100
AcDb2dPolyline
 66
     1
 10
0.0
 20
0.0
 30
0.0
 70
   128
  0
VERTEX
  5
16B
330
16A
100
AcDbEntity
  8
0
 62
     0
100
AcDbVertex
100
AcDb2dVertex
 10
0.0
 20
0.9999999999999998
 30
0.0
  0
VERTEX
  5
16C
330
16A
100
AcDbEntity
  8
0
 62
     0
100
AcDbVertex
100
AcDb2dVertex
 10
0.0
 20
-0.9999999999999998
 30
0.0
  0
VERTEX
  5
16E
330
16A
100
AcDbEntity
  8
0
 62
     0
100
AcDbVertex
100
AcDb2dVertex
 10
-0.9999999999999998
 20
0.0
 30
0.0
  0
VERTEX
  5
16F
330
16A
100
AcDbEntity
  8
0
 62
     0
100
AcDbVertex
100
AcDb2dVertex
 10
0.0
 20
0.9999999999999998
 30
0.0
  0
SEQEND
  5
16D
330
16A
100
AcDbEntity
  8
0
 62
     0
  0
SOLID
  5
171
330
167
100
AcDbEntity
  8
0
 62
     0
100
AcDbTrace
 10
0.0
 20
0.9999999999999998
 30
0.0
 11
0.0
 21
-0.9999999999999998
 31
0.0
 12
-0.9999999999999998
 22
0.0
 32
0.0
 13
0.0
 23
0.9999999999999998
 33
0.0
  0
ENDBLK
  5
169
330
167
100
AcDbEntity
  8
0
100
AcDbBlockEnd
  0
BLOCK
  5
174
330
173
100
AcDbEntity
  8
0
100
AcDbBlockBegin
  2
Filled-1
 70
     0
 10
0.0
 20
0.0
 30
0.0
  3
Filled-1
  1

  0
LINE
  5
176
330
173
100
AcDbEntity
  8
0
 62
     0
100
AcDbLine
 10
-0.9999999999999998
 20
0.0
 30
0.0
 11
0.0
 21
0.0
 31
0.0
  0
POLYLINE
  5
177
330
173
100
AcDbEntity
  8
0
 62
     0
100
AcDb2dPolyline
 66
     1
 10
0.0
 20
0.0
 30
0.0
 70
   128
  0
VERTEX
  5
178
330
177
100
AcDbEntity
  8
0
 62
     0
100
AcDbVertex
100
AcDb2dVertex
 10
-0.9999999999999998
 20
-0.0994897959183674
 30
0.0
  0
VERTEX
  5
179
330
177
100
AcDbEntity
  8
0
 62
     0
100
AcDbVertex
100
AcDb2dVertex
 10
0.0
 20
0.0
 30
0.0
  0
VERTEX
  5
17B
330
177
100
AcDbEntity
  8
0
 62
     0
100
AcDbVertex
100
AcDb2dVertex
 10
-0.9999999999999998
 20
0.0994897959183674
 30
0.0
  0
VERTEX
  5
17C
330
177
100
AcDbEntity
  8
0
 62
     0
100
AcDbVertex
100
AcDb2dVertex
 10
-0.9999999999999998
 20
-0.0994897959183674
 30
0.0
  0
SEQEND
  5
17A
330
177
100
AcDbEntity
  8
0
 62
     0
  0
SOLID
  5
17D
330
173
100
AcDbEntity
  8
0
 62
     0
100
AcDbTrace
 10
-0.9999999999999998
 20
-0.0994897959183674
 30
0.0
 11
0.0
 21
0.0
 31
0.0
 12
-0.9999999999999998
 22
0.0994897959183674
 32
0.0
 13
-0.9999999999999998
 23
-0.0994897959183674
 33
0.0
  0
LINE
  5
17E
330
173
100
AcDbEntity
  8
0
 62
     0
100
AcDbLine
 10
-0.9999999999999998
 20
-0.0994897959183674
 30
0.0
 11
0.0
 21
0.0
 31
0.0
  0
LINE
  5
17F
330
173
100
AcDbEntity
  8
0
 62
     0
100
AcDbLine
 10
0.0
 20
0.0
 30
0.0
 11
-0.9999999999999998
 21
0.0994897959183674
 31
0.0
  0
LINE
  5
180
330
173
100
AcDbEntity
  8
0
 62
     0
100
AcDbLine
 10
-0.9999999999999998
 20
0.0994897959183674
 30
0.0
 11
-0.9999999999999998
 21
-0.0994897959183674
 31
0.0
  0
ENDBLK
  5
175
330
173
100
AcDbEntity
  8
0
100
AcDbBlockEnd
  0
BLOCK
  5
1C9
330
1C8
100
AcDbEntity
  8
0
100
AcDbBlockBegin
  2
*D4
 70
     1
 10
0.0
 20
0.0
 30
0.0
  3
*D4
  1

  0
LINE
  5
2A8
330
1C8
100
AcDbEntity
  8
Dimension (ANSI)
100
AcDbLine
 10
11.20222580061368
 20
9.503464091424124
 30
0.0
 11
7.131581751090162
 21
9.503464091424124
 31
0.0
  0
LINE
  5
2A9
330
1C8
100
AcDbEntity
  8
Dimension (ANSI)
100
AcDbLine
 10
11.20222580061367
 20
27.70346409142413
 30
0.0
 11
7.131581751090166
 21
27.70346409142413
 31
0.0
  0
LINE
  5
2AA
330
1C8
100
AcDbEntity
  8
Dimension (ANSI)
100
AcDbLine
 10
7.586127205635616
 20
9.861373890046255
 30
0.0
 11
7.586127205635619
 21
18.26078714775857
 31
0.0
  0
LINE
  5
2AB
330
1C8
100
AcDbEntity
  8
Dimension (ANSI)
100
AcDbLine
 10
7.58612720563562
 20
27.345554292802
 30
0.0
 11
7.586127205635619
 21
18.94614103508968
 31
0.0
  0
SOLID
  5
2AC
330
1C8
100
AcDbEntity
  8
Dimension (ANSI)
100
AcDbTrace
 10
7.526475572531928
 20
9.861373890046255
 30
0.0
 11
7.645778838739304
 21
9.861373890046255
 31
0.0
 12
7.586127205635616
 22
9.503464091424124
 32
0.0
 13
7.586127205635616
 23
9.503464091424124
 33
0.0
  0
SOLID
  5
2AD
330
1C8
100
AcDbEntity
  8
Dimension (ANSI)
100
AcDbTrace
 10
7.526475572531932
 20
27.345554292802
 30
0.0
 11
7.645778838739309
 21
27.345554292802
 31
0.0
 12
7.58612720563562
 22
27.70346409142413
 32
0.0
 13
7.58612720563562
 23
27.70346409142413
 33
0.0
  0
MTEXT
  5
2AE
330
1C8
100
AcDbEntity
  8
Dimension (ANSI)
100
AcDbMText
 10
6.885278530127805
 20
18.8316098969365
 30
0.0
 40
0.4363636537031694
 41
0.0
 71
     1
 72
     1
  1
\A1;18.20
  7
Note Text (ANSI)
 73
     1
 44
1.0
1001
ACAD
1000
MTEXTBEGIN
1070
    73
1070
     1
1070
    44
1040
1.0
1070
    74
1070
     0
1000
MTEXTEND
  0
POINT
  5
2AF
330
1C8
100
AcDbEntity
  8
Defpoints
 62
     0
100
AcDbPoint
 10
11.4294985278864
 20
9.503464091424124
 30
0.0
  0
POINT
  5
2B0
330
1C8
100
AcDbEntity
  8
Defpoints
 62
     0
100
AcDbPoint
 10
11.4294985278864
 20
27.70346409142413
 30
0.0
  0
POINT
  5
2B1
330
1C8
100
AcDbEntity
  8
Defpoints
 62
     0
100
AcDbPoint
 10
7.58612720563562
 20
27.70346409142413
 30
0.0
  0
ENDBLK
  5
1CA
330
1C8
100
AcDbEntity
  8
0
100
AcDbBlockEnd
  0
BLOCK
  5
2B4
330
2B3
100
AcDbEntity
  8
0
100
AcDbBlockBegin
  2
*D5
 70
     1
 10
0.0
 20
0.0
 30
0.0
  3
*D5
  1

  0
LINE
  5
392
330
2B3
100
AcDbEntity
  8
Dimension (ANSI)
100
AcDbLine
 10
10.9294985278864
 20
27.43073681869685
 30
0.0
 11
10.9294985278864
 21
30.83607487581532
 31
0.0
  0
LINE
  5
393
330
2B3
100
AcDbEntity
  8
Dimension (ANSI)
100
AcDbLine
 10
25.1294985278864
 20
27.43073681869685
 30
0.0
 11
25.1294985278864
 21
30.83607487581532
 31
0.0
  0
LINE
  5
394
330
2B3
100
AcDbEntity
  8
Dimension (ANSI)
100
AcDbLine
 10
11.28740832650853
 20
30.38152942126986
 30
0.0
 11
17.2141187142254
 21
30.38152942126986
 31
0.0
  0
LINE
  5
395
330
2B3
100
AcDbEntity
  8
Dimension (ANSI)
100
AcDbLine
 10
24.77158872926426
 20
30.38152942126986
 30
0.0
 11
18.84487834154739
 21
30.38152942126986
 31
0.0
  0
SOLID
  5
396
330
2B3
100
AcDbEntity
  8
Dimension (ANSI)
100
AcDbTrace
 10
11.28740832650853
 20
30.44118105437355
 30
0.0
 11
11.28740832650853
 21
30.32187778816618
 31
0.0
 12
10.9294985278864
 22
30.38152942126986
 32
0.0
 13
10.9294985278864
 23
30.38152942126986
 33
0.0
  0
SOLID
  5
397
330
2B3
100
AcDbEntity
  8
Dimension (ANSI)
100
AcDbTrace
 10
24.77158872926426
 20
30.44118105437355
 30
0.0
 11
24.77158872926426
 21
30.32187778816618
 31
0.0
 12
25.1294985278864
 22
30.38152942126986
 32
0.0
 13
25.1294985278864
 23
30.38152942126986
 33
0.0
  0
MTEXT
  5
398
330
2B3
100
AcDbEntity
  8
Dimension (ANSI)
100
AcDbMText
 10
17.32864985237859
 20
30.60879605219452
 30
0.0
 40
0.4363636537031694
 41
0.0
 71
     1
 72
     1
  1
\A1;14.20
  7
Note Text (ANSI)
 73
     1
 44
1.0
1001
ACAD
1000
MTEXTBEGIN
1070
    73
1070
     1
1070
    44
1040
1.0
1070
    74
1070
     0
1000
MTEXTEND
  0
POINT
  5
399
330
2B3
100
AcDbEntity
  8
Defpoints
 62
     0
100
AcDbPoint
 10
10.9294985278864
 20
27.20346409142412
 30
0.0
  0
POINT
  5
39A
330
2B3
100
AcDbEntity
  8
Defpoints
 62
     0
100
AcDbPoint
 10
25.1294985278864
 20
27.20346409142412
 30
0.0
  0
POINT
  5
39B
330
2B3
100
AcDbEntity
  8
Defpoints
 62
     0
100
AcDbPoint
 10
25.1294985278864
 20
30.38152942126986
 30
0.0
  0
ENDBLK
  5
2B5
330
2B3
100
AcDbEntity
  8
0
100
AcDbBlockEnd
  0
BLOCK
  5
39E
330
39D
100
AcDbEntity
  8
0
100
AcDbBlockBegin
  2
*D6
 70
     1
 10
0.0
 20
0.0
 30
0.0
  3
*D6
  1

  0
LINE
  5
48E
330
39D
100
AcDbEntity
  8
Dimension (ANSI)
100
AcDbLine
 10
11.22222580061367
 20
10.02346409142412
 30
0.0
 11
10.44705696716302
 21
10.02346409142412
 31
0.0
  0
LINE
  5
48F
330
39D
100
AcDbEntity
  8
Dimension (ANSI)
100
AcDbLine
 10
11.22222580061367
 20
10.77346409142412
 30
0.0
 11
10.44705696716302
 21
10.77346409142412
 31
0.0
  0
LINE
  5
490
330
39D
100
AcDbEntity
  8
Dimension (ANSI)
100
AcDbLine
 10
10.90160242170847
 20
11.13137389004625
 30
0.0
 11
10.90160242170847
 21
11.48928368866839
 31
0.0
  0
LINE
  5
491
330
39D
100
AcDbEntity
  8
Dimension (ANSI)
100
AcDbLine
 10
10.90160242170847
 20
9.665554292801992
 30
0.0
 11
10.90160242170847
 21
8.981162280170254
 31
0.0
  0
LINE
  5
492
330
39D
100
AcDbEntity
  8
Dimension (ANSI)
100
AcDbLine
 10
10.90160242170847
 20
8.981162280170254
 30
0.0
 11
10.54369262308634
 21
8.981162280170254
 31
0.0
  0
SOLID
  5
493
330
39D
100
AcDbEntity
  8
Dimension (ANSI)
100
AcDbTrace
 10
10.84195078860479
 20
11.13137389004625
 30
0.0
 11
10.96125405481216
 21
11.13137389004625
 31
0.0
 12
10.90160242170847
 22
10.77346409142412
 32
0.0
 13
10.90160242170847
 23
10.77346409142412
 33
0.0
  0
SOLID
  5
494
330
39D
100
AcDbEntity
  8
Dimension (ANSI)
100
AcDbTrace
 10
10.84195078860479
 20
9.665554292801992
 30
0.0
 11
10.96125405481216
 21
9.665554292801992
 31
0.0
 12
10.90160242170847
 22
10.02346409142412
 32
0.0
 13
10.90160242170847
 23
10.02346409142412
 33
0.0
  0
MTEXT
  5
495
330
39D
100
AcDbEntity
  8
Dimension (ANSI)
100
AcDbMText
 10
9.32022927162705
 20
9.208282381996955
 30
0.0
 40
0.4363636537031694
 41
0.0
 71
     1
 72
     1
  1
\A1;0.75
  7
Note Text (ANSI)
 73
     1
 44
1.0
1001
ACAD
1000
MTEXTBEGIN
1070
    73
1070
     1
1070
    44
1040
1.0
1070
    74
1070
     0
1000
MTEXTEND
  0
POINT
  5
496
330
39D
100
AcDbEntity
  8
Defpoints
 62
     0
100
AcDbPoint
 10
11.4494985278864
 20
10.02346409142412
 30
0.0
  0
POINT
  5
497
330
39D
100
AcDbEntity
  8
Defpoints
 62
     0
100
AcDbPoint
 10
11.4494985278864
 20
10.77346409142412
 30
0.0
  0
POINT
  5
498
330
39D
100
AcDbEntity
  8
Defpoints
 62
     0
100
AcDbPoint
 10
10.90160242170847
 20
10.77346409142412
 30
0.0
  0
ENDBLK
  5
39F
330
39D
100
AcDbEntity
  8
0
100
AcDbBlockEnd
  0
BLOCK
  5
49B
330
49A
100
AcDbEntity
  8
0
100
AcDbBlockBegin
  2
*D7
 70
     1
 10
0.0
 20
0.0
 30
0.0
  3
*D7
  1

  0
LINE
  5
58C
330
49A
100
AcDbEntity
  8
Dimension (ANSI)
100
AcDbLine
 10
24.85677125515912
 20
27.70346409142412
 30
0.0
 11
27.66824517013173
 21
27.70346409142412
 31
0.0
  0
LINE
  5
58D
330
49A
100
AcDbEntity
  8
Dimension (ANSI)
100
AcDbLine
 10
24.83677125515913
 20
27.18346409142413
 30
0.0
 11
27.66824517013173
 21
27.18346409142413
 31
0.0
  0
LINE
  5
58E
330
49A
100
AcDbEntity
  8
Dimension (ANSI)
100
AcDbLine
 10
27.21369971558628
 20
28.06137389004625
 30
0.0
 11
27.21369971558628
 21
28.41928368866838
 31
0.0
  0
LINE
  5
58F
330
49A
100
AcDbEntity
  8
Dimension (ANSI)
100
AcDbLine
 10
27.21369971558628
 20
26.825554292802
 30
0.0
 11
27.21369971558628
 21
26.14089706723401
 31
0.0
  0
LINE
  5
590
330
49A
100
AcDbEntity
  8
Dimension (ANSI)
100
AcDbLine
 10
27.21369971558628
 20
26.14089706723401
 30
0.0
 11
26.85578991696415
 21
26.14089706723401
 31
0.0
  0
SOLID
  5
591
330
49A
100
AcDbEntity
  8
Dimension (ANSI)
100
AcDbTrace
 10
27.15404808248259
 20
28.06137389004625
 30
0.0
 11
27.27335134868997
 21
28.06137389004625
 31
0.0
 12
27.21369971558628
 22
27.70346409142412
 32
0.0
 13
27.21369971558628
 23
27.70346409142412
 33
0.0
  0
SOLID
  5
592
330
49A
100
AcDbEntity
  8
Dimension (ANSI)
100
AcDbTrace
 10
27.15404808248259
 20
26.825554292802
 30
0.0
 11
27.27335134868997
 21
26.825554292802
 31
0.0
 12
27.21369971558628
 22
27.18346409142413
 32
0.0
 13
27.21369971558628
 23
27.18346409142413
 33
0.0
  0
MTEXT
  5
593
330
49A
100
AcDbEntity
  8
Dimension (ANSI)
100
AcDbMText
 10
25.62734457617446
 20
26.36816369815868
 30
0.0
 40
0.4363636537031694
 41
0.0
 71
     1
 72
     1
  1
\A1;0.52
  7
Note Text (ANSI)
 73
     1
 44
1.0
1001
ACAD
1000
MTEXTBEGIN
1070
    73
1070
     1
1070
    44
1040
1.0
1070
    74
1070
     0
1000
MTEXTEND
  0
POINT
  5
594
330
49A
100
AcDbEntity
  8
Defpoints
 62
     0
100
AcDbPoint
 10
24.62949852788639
 20
27.70346409142412
 30
0.0
  0
POINT
  5
595
330
49A
100
AcDbEntity
  8
Defpoints
 62
     0
100
AcDbPoint
 10
24.6094985278864
 20
27.18346409142413
 30
0.0
  0
POINT
  5
596
330
49A
100
AcDbEntity
  8
Defpoints
 62
     0
100
AcDbPoint
 10
27.21369971558628
 20
27.18346409142413
 30
0.0
  0
ENDBLK
  5
49C
330
49A
100
AcDbEntity
  8
0
100
AcDbBlockEnd
  0
BLOCK
  5
599
330
598
100
AcDbEntity
  8
0
100
AcDbBlockBegin
  2
*D8
 70
     1
 10
0.0
 20
0.0
 30
0.0
  3
*D8
  1

  0
LINE
  5
677
330
598
100
AcDbEntity
  8
Dimension (ANSI)
100
AcDbLine
 10
25.1294985278864
 20
27.43073681869685
 30
0.0
 11
25.1294985278864
 21
29.68702188278919
 31
0.0
  0
LINE
  5
678
330
598
100
AcDbEntity
  8
Dimension (ANSI)
100
AcDbLine
 10
24.6094985278864
 20
27.41073681869685
 30
0.0
 11
24.6094985278864
 21
29.68702188278919
 31
0.0
  0
LINE
  5
679
330
598
100
AcDbEntity
  8
Dimension (ANSI)
100
AcDbLine
 10
24.25158872926427
 20
29.23247642824374
 30
0.0
 11
23.89367893064214
 21
29.23247642824374
 31
0.0
  0
LINE
  5
67A
330
598
100
AcDbEntity
  8
Dimension (ANSI)
100
AcDbLine
 10
25.48740832650853
 20
29.23247642824374
 30
0.0
 11
25.84531812513065
 21
29.23247642824374
 31
0.0
  0
SOLID
  5
67B
330
598
100
AcDbEntity
  8
Dimension (ANSI)
100
AcDbTrace
 10
24.25158872926427
 20
29.29212806134743
 30
0.0
 11
24.25158872926427
 21
29.17282479514005
 31
0.0
 12
24.6094985278864
 22
29.23247642824374
 32
0.0
 13
24.6094985278864
 23
29.23247642824374
 33
0.0
  0
SOLID
  5
67C
330
598
100
AcDbEntity
  8
Dimension (ANSI)
100
AcDbTrace
 10
25.48740832650853
 20
29.29212806134743
 30
0.0
 11
25.48740832650853
 21
29.17282479514005
 31
0.0
 12
25.1294985278864
 22
29.23247642824374
 32
0.0
 13
25.1294985278864
 23
29.23247642824374
 33
0.0
  0
MTEXT
  5
67D
330
598
100
AcDbEntity
  8
Dimension (ANSI)
100
AcDbMText
 10
25.95984926328384
 20
29.45974305916839
 30
0.0
 40
0.4363636537031694
 41
0.0
 71
     1
 72
     1
  1
\A1;0.52
  7
Note Text (ANSI)
 73
     1
 44
1.0
1001
ACAD
1000
MTEXTBEGIN
1070
    73
1070
     1
1070
    44
1040
1.0
1070
    74
1070
     0
1000
MTEXTEND
  0
POINT
  5
67E
330
598
100
AcDbEntity
  8
Defpoints
 62
     0
100
AcDbPoint
 10
25.1294985278864
 20
27.20346409142412
 30
0.0
  0
POINT
  5
67F
330
598
100
AcDbEntity
  8
Defpoints
 62
     0
100
AcDbPoint
 10
24.6094985278864
 20
27.18346409142413
 30
0.0
  0
POINT
  5
680
330
598
100
AcDbEntity
  8
Defpoints
 62
     0
100
AcDbPoint
 10
24.6094985278864
 20
29.23247642824374
 30
0.0
  0
ENDBLK
  5
59A
330
598
100
AcDbEntity
  8
0
100
AcDbBlockEnd
  0
BLOCK
  5
683
330
682
100
AcDbEntity
  8
0
100
AcDbBlockBegin
  2
*D9
 70
     1
 10
0.0
 20
0.0
 30
0.0
  3
*D9
  1

  0
LINE
  5
761
330
682
100
AcDbEntity
  8
Dimension (ANSI)
100
AcDbLine
 10
11.22222580061367
 20
10.02346409142412
 30
0.0
 11
8.47526803397087
 21
10.02346409142412
 31
0.0
  0
LINE
  5
762
330
682
100
AcDbEntity
  8
Dimension (ANSI)
100
AcDbLine
 10
11.22222580061367
 20
27.18346409142413
 30
0.0
 11
8.475268033970873
 21
27.18346409142413
 31
0.0
  0
LINE
  5
763
330
682
100
AcDbEntity
  8
Dimension (ANSI)
100
AcDbLine
 10
8.929813488516325
 20
10.38137389004625
 30
0.0
 11
8.929813488516328
 21
20.95850225236561
 31
0.0
  0
LINE
  5
764
330
682
100
AcDbEntity
  8
Dimension (ANSI)
100
AcDbLine
 10
8.929813488516328
 20
26.825554292802
 30
0.0
 11
8.929813488516328
 21
21.64180473232538
 31
0.0
  0
SOLID
  5
765
330
682
100
AcDbEntity
  8
Dimension (ANSI)
100
AcDbTrace
 10
8.870161855412636
 20
10.38137389004625
 30
0.0
 11
8.989465121620014
 21
10.38137389004625
 31
0.0
 12
8.929813488516325
 22
10.02346409142412
 32
0.0
 13
8.929813488516325
 23
10.02346409142412
 33
0.0
  0
SOLID
  5
766
330
682
100
AcDbEntity
  8
Dimension (ANSI)
100
AcDbTrace
 10
8.870161855412639
 20
26.825554292802
 30
0.0
 11
8.989465121620018
 21
26.825554292802
 31
0.0
 12
8.929813488516328
 22
27.18346409142413
 32
0.0
 13
8.929813488516328
 23
27.18346409142413
 33
0.0
  0
MTEXT
  5
767
330
682
100
AcDbEntity
  8
Dimension (ANSI)
100
AcDbMText
 10
8.065145281497386
 20
21.5272735941722
 30
0.0
 40
0.4363636537031694
 41
0.0
 71
     1
 72
     1
  1
\A1;17.160
  7
Note Text (ANSI)
 73
     1
 44
1.0
1001
ACAD
1000
MTEXTBEGIN
1070
    73
1070
     1
1070
    44
1040
1.0
1070
    74
1070
     0
1000
MTEXTEND
  0
POINT
  5
768
330
682
100
AcDbEntity
  8
Defpoints
 62
     0
100
AcDbPoint
 10
11.4494985278864
 20
10.02346409142412
 30
0.0
  0
POINT
  5
769
330
682
100
AcDbEntity
  8
Defpoints
 62
     0
100
AcDbPoint
 10
11.4494985278864
 20
27.18346409142413
 30
0.0
  0
POINT
  5
76A
330
682
100
AcDbEntity
  8
Defpoints
 62
     0
100
AcDbPoint
 10
8.929813488516328
 20
27.18346409142413
 30
0.0
  0
ENDBLK
  5
684
330
682
100
AcDbEntity
  8
0
100
AcDbBlockEnd
  0
BLOCK
  5
76F
330
76E
100
AcDbEntity
  8
0
100
AcDbBlockBegin
  2
*D10
 70
     1
 10
0.0
 20
0.0
 30
0.0
  3
*D10
  1

  0
LINE
  5
862
330
76E
100
AcDbEntity
  8
Dimension (ANSI)
100
AcDbLine
 10
24.85677125515913
 20
9.503464091424124
 30
0.0
 11
26.91582496506208
 21
9.503464091424124
 31
0.0
  0
LINE
  5
863
330
76E
100
AcDbEntity
  8
Dimension (ANSI)
100
AcDbLine
 10
25.35677125515913
 20
10.00346409142412
 30
0.0
 11
26.91582496506208
 21
10.00346409142412
 31
0.0
  0
LINE
  5
864
330
76E
100
AcDbEntity
  8
Dimension (ANSI)
100
AcDbLine
 10
26.46127951051662
 20
9.145554292801993
 30
0.0
 11
26.46127951051662
 21
8.787644494179861
 31
0.0
  0
LINE
  5
865
330
76E
100
AcDbEntity
  8
Dimension (ANSI)
100
AcDbLine
 10
26.46127951051662
 20
10.36137389004625
 30
0.0
 11
26.46127951051662
 21
11.04576590267799
 31
0.0
  0
LINE
  5
866
330
76E
100
AcDbEntity
  8
Dimension (ANSI)
100
AcDbLine
 10
26.46127951051662
 20
11.04576590267799
 30
0.0
 11
26.81918930913875
 21
11.04576590267799
 31
0.0
  0
SOLID
  5
867
330
76E
100
AcDbEntity
  8
Dimension (ANSI)
100
AcDbTrace
 10
26.40162787741294
 20
9.145554292801993
 30
0.0
 11
26.52093114362031
 21
9.145554292801993
 31
0.0
 12
26.46127951051662
 22
9.503464091424124
 32
0.0
 13
26.46127951051662
 23
9.503464091424124
 33
0.0
  0
SOLID
  5
868
330
76E
100
AcDbEntity
  8
Dimension (ANSI)
100
AcDbTrace
 10
26.40162787741294
 20
10.36137389004625
 30
0.0
 11
26.52093114362031
 21
10.36137389004625
 31
0.0
 12
26.46127951051662
 22
10.00346409142412
 32
0.0
 13
26.46127951051662
 23
10.00346409142412
 33
0.0
  0
MTEXT
  5
869
330
76E
100
AcDbEntity
  8
Dimension (ANSI)
100
AcDbMText
 10
26.93372044729194
 20
11.27288600450469
 30
0.0
 40
0.4363636537031694
 41
0.0
 71
     1
 72
     1
  1
\A1;0.50
  7
Note Text (ANSI)
 73
     1
 44
1.0
1001
ACAD
1000
MTEXTBEGIN
1070
    73
1070
     1
1070
    44
1040
1.0
1070
    74
1070
     0
1000
MTEXTEND
  0
POINT
  5
86A
330
76E
100
AcDbEntity
  8
Defpoints
 62
     0
100
AcDbPoint
 10
24.62949852788641
 20
9.503464091424124
 30
0.0
  0
POINT
  5
86B
330
76E
100
AcDbEntity
  8
Defpoints
 62
     0
100
AcDbPoint
 10
25.1294985278864
 20
10.00346409142412
 30
0.0
  0
POINT
  5
86C
330
76E
100
AcDbEntity
  8
Defpoints
 62
     0
100
AcDbPoint
 10
26.46127951051662
 20
10.00346409142412
 30
0.0
  0
ENDBLK
  5
770
330
76E
100
AcDbEntity
  8
0
100
AcDbBlockEnd
  0
BLOCK
  5
86F
330
86E
100
AcDbEntity
  8
0
100
AcDbBlockBegin
  2
*D11
 70
     1
 10
0.0
 20
0.0
 30
0.0
  3
*D11
  1

  0
LINE
  5
94D
330
86E
100
AcDbEntity
  8
Dimension (ANSI)
100
AcDbLine
 10
25.1294985278864
 20
9.776191364151397
 30
0.0
 11
25.1294985278864
 21
6.686713912469222
 31
0.0
  0
LINE
  5
94E
330
86E
100
AcDbEntity
  8
Dimension (ANSI)
100
AcDbLine
 10
24.62949852788641
 20
9.276191364151397
 30
0.0
 11
24.62949852788641
 21
6.686713912469222
 31
0.0
  0
LINE
  5
94F
330
86E
100
AcDbEntity
  8
Dimension (ANSI)
100
AcDbLine
 10
25.48740832650854
 20
7.141259367014678
 30
0.0
 11
25.84531812513067
 21
7.141259367014678
 31
0.0
  0
LINE
  5
950
330
86E
100
AcDbEntity
  8
Dimension (ANSI)
100
AcDbLine
 10
24.27158872926427
 20
7.141259367014678
 30
0.0
 11
23.72742839175983
 21
7.141259367014678
 31
0.0
  0
SOLID
  5
951
330
86E
100
AcDbEntity
  8
Dimension (ANSI)
100
AcDbTrace
 10
25.48740832650854
 20
7.200911000118366
 30
0.0
 11
25.48740832650854
 21
7.081607733910989
 31
0.0
 12
25.1294985278864
 22
7.141259367014678
 32
0.0
 13
25.1294985278864
 23
7.141259367014678
 33
0.0
  0
SOLID
  5
952
330
86E
100
AcDbEntity
  8
Dimension (ANSI)
100
AcDbTrace
 10
24.27158872926427
 20
7.200911000118366
 30
0.0
 11
24.27158872926427
 21
7.081607733910989
 31
0.0
 12
24.62949852788641
 22
7.141259367014678
 32
0.0
 13
24.62949852788641
 23
7.141259367014678
 33
0.0
  0
MTEXT
  5
953
330
86E
100
AcDbEntity
  8
Dimension (ANSI)
100
AcDbMText
 10
22.4969316435988
 20
7.368379468841378
 30
0.0
 40
0.4363636537031694
 41
0.0
 71
     1
 72
     1
  1
\A1;0.50
  7
Note Text (ANSI)
 73
     1
 44
1.0
1001
ACAD
1000
MTEXTBEGIN
1070
    73
1070
     1
1070
    44
1040
1.0
1070
    74
1070
     0
1000
MTEXTEND
  0
POINT
  5
954
330
86E
100
AcDbEntity
  8
Defpoints
 62
     0
100
AcDbPoint
 10
25.1294985278864
 20
10.00346409142412
 30
0.0
  0
POINT
  5
955
330
86E
100
AcDbEntity
  8
Defpoints
 62
     0
100
AcDbPoint
 10
24.62949852788641
 20
9.503464091424124
 30
0.0
  0
POINT
  5
956
330
86E
100
AcDbEntity
  8
Defpoints
 62
     0
100
AcDbPoint
 10
24.62949852788641
 20
7.141259367014678
 30
0.0
  0
ENDBLK
  5
870
330
86E
100
AcDbEntity
  8
0
100
AcDbBlockEnd
  0
BLOCK
  5
959
330
958
100
AcDbEntity
  8
0
100
AcDbBlockBegin
  2
*D12
 70
     1
 10
0.0
 20
0.0
 30
0.0
  3
*D12
  1

  0
LINE
  5
A09
330
958
100
AcDbEntity
  8
Dimension (ANSI)
100
AcDbLine
 10
7.518900265301764
 20
30.66866417611496
 30
0.0
 11
7.964298443194428
 21
30.66866417611496
 31
0.0
  0
LINE
  5
A0A
330
958
100
AcDbEntity
  8
Dimension (ANSI)
100
AcDbLine
 10
7.964298443194428
 20
30.66866417611496
 30
0.0
 11
11.01964138693088
 21
27.61332123237953
 31
0.0
  0
MTEXT
  5
A0B
102
{ACAD_XDICTIONARY
360
BFF
102
}
330
958
100
AcDbEntity
  8
Dimension (ANSI)
100
AcDbMText
 10
7.404369127148581
 20
31.00140733604924
 30
0.0
 40
0.4363636537031694
 41
0.0
 71
     3
 72
     1
  1
\A1;\U+22050.50{\PTYP.(4PL.)}
  7
Note Text (ANSI)
 73
     1
 44
1.0
1001
ACAD
1000
MTEXTBEGIN
1070
    73
1070
     1
1070
    44
1040
1.0
1070
    74
1070
     0
1000
MTEXTEND
  0
SOLID
  5
A0C
330
958
100
AcDbEntity
  8
Dimension (ANSI)
100
AcDbTrace
 10
11.06182146120734
 20
27.655501306656
 30
0.0
 11
10.97746131265441
 21
27.57114115810305
 31
0.0
 12
11.27272183258974
 22
27.36024078672075
 32
0.0
 13
11.27272183258974
 23
27.36024078672075
 33
0.0
  0
LINE
  5
A0D
330
958
100
AcDbEntity
  8
Dimension (ANSI)
100
AcDbLine
 10
11.12222580061369
 20
27.18346409142414
 30
0.0
 11
11.77677125515915
 21
27.18346409142414
 31
0.0
  0
LINE
  5
A0E
330
958
100
AcDbEntity
  8
Dimension (ANSI)
100
AcDbLine
 10
11.44949852788641
 20
26.85619136415141
 30
0.0
 11
11.44949852788641
 21
27.51073681869686
 31
0.0
  0
POINT
  5
A0F
330
958
100
AcDbEntity
  8
Defpoints
 62
     0
100
AcDbPoint
 10
11.27272183258974
 20
27.36024078672075
 30
0.0
  0
POINT
  5
A10
330
958
100
AcDbEntity
  8
Defpoints
 62
     0
100
AcDbPoint
 10
11.62627522318308
 20
27.00668739612753
 30
0.0
  0
ENDBLK
  5
95A
330
958
100
AcDbEntity
  8
0
100
AcDbBlockEnd
  0
BLOCK
  5
A13
330
A12
100
AcDbEntity
  8
0
100
AcDbBlockBegin
  2
*D13
 70
     1
 10
0.0
 20
0.0
 30
0.0
  3
*D13
  1

  0
LINE
  5
AC2
330
A12
100
AcDbEntity
  8
Dimension (ANSI)
100
AcDbLine
 10
13.18946854859139
 20
7.786215917393506
 30
0.0
 11
12.7441404225844
 21
7.786215917393505
 31
0.0
  0
LINE
  5
AC3
330
A12
100
AcDbEntity
  8
Dimension (ANSI)
100
AcDbLine
 10
12.7441404225844
 20
7.786215917393505
 30
0.0
 11
11.65395458294496
 21
10.30170353767991
 31
0.0
  0
MTEXT
  5
AC4
102
{ACAD_XDICTIONARY
360
C01
102
}
330
A12
100
AcDbEntity
  8
Dimension (ANSI)
100
AcDbMText
 10
13.30399968674457
 20
8.118959077327783
 30
0.0
 40
0.4363636537031694
 41
0.0
 71
     1
 72
     1
  1
\A1;\U+22050.31{\PTYP. (4PL.)}
  7
Note Text (ANSI)
 73
     1
 44
1.0
1001
ACAD
1000
MTEXTBEGIN
1070
    73
1070
     1
1070
    44
1040
1.0
1070
    74
1070
     0
1000
MTEXTEND
  0
SOLID
  5
AC5
330
A12
100
AcDbEntity
  8
Dimension (ANSI)
100
AcDbTrace
 10
11.70868715351963
 20
10.3254240572827
 30
0.0
 11
11.59922201237029
 21
10.27798301807713
 31
0.0
 12
11.51163146532825
 22
10.63009896112792
 32
0.0
 13
11.51163146532825
 23
10.63009896112792
 33
0.0
  0
LINE
  5
AC6
330
A12
100
AcDbEntity
  8
Dimension (ANSI)
100
AcDbLine
 10
11.12222580061368
 20
10.77346409142412
 30
0.0
 11
11.77677125515913
 21
10.77346409142412
 31
0.0
  0
LINE
  5
AC7
330
A12
100
AcDbEntity
  8
Dimension (ANSI)
100
AcDbLine
 10
11.44949852788641
 20
10.4461913641514
 30
0.0
 11
11.44949852788641
 21
11.10073681869685
 31
0.0
  0
POINT
  5
AC8
330
A12
100
AcDbEntity
  8
Defpoints
 62
     0
100
AcDbPoint
 10
11.51163146532825
 20
10.63009896112792
 30
0.0
  0
POINT
  5
AC9
330
A12
100
AcDbEntity
  8
Defpoints
 62
     0
100
AcDbPoint
 10
11.38736559044456
 20
10.91682922172033
 30
0.0
  0
ENDBLK
  5
A14
330
A12
100
AcDbEntity
  8
0
100
AcDbBlockEnd
  0
BLOCK
  5
ACC
330
ACB
100
AcDbEntity
  8
0
100
AcDbBlockBegin
  2
*D14
 70
     1
 10
0.0
 20
0.0
 30
0.0
  3
*D14
  1

  0
LINE
  5
BAA
330
ACB
100
AcDbEntity
  8
Dimension (ANSI)
100
AcDbLine
 10
24.6094985278864
 20
27.41073681869685
 30
0.0
 11
24.6094985278864
 21
29.68702188278918
 31
0.0
  0
LINE
  5
BAB
330
ACB
100
AcDbEntity
  8
Dimension (ANSI)
100
AcDbLine
 10
11.4494985278864
 20
27.41073681869685
 30
0.0
 11
11.4494985278864
 21
29.68702188278918
 31
0.0
  0
LINE
  5
BAC
330
ACB
100
AcDbEntity
  8
Dimension (ANSI)
100
AcDbLine
 10
24.25158872926427
 20
29.23247642824373
 30
0.0
 11
19.00869787305852
 21
29.23247642824373
 31
0.0
  0
LINE
  5
BAD
330
ACB
100
AcDbEntity
  8
Dimension (ANSI)
100
AcDbLine
 10
11.80740832650853
 20
29.23247642824373
 30
0.0
 11
17.05029918271427
 21
29.23247642824373
 31
0.0
  0
SOLID
  5
BAE
330
ACB
100
AcDbEntity
  8
Dimension (ANSI)
100
AcDbTrace
 10
24.25158872926427
 20
29.29212806134741
 30
0.0
 11
24.25158872926427
 21
29.17282479514004
 31
0.0
 12
24.6094985278864
 22
29.23247642824373
 32
0.0
 13
24.6094985278864
 23
29.23247642824373
 33
0.0
  0
SOLID
  5
BAF
330
ACB
100
AcDbEntity
  8
Dimension (ANSI)
100
AcDbTrace
 10
11.80740832650853
 20
29.29212806134741
 30
0.0
 11
11.80740832650853
 21
29.17282479514004
 31
0.0
 12
11.4494985278864
 22
29.23247642824373
 32
0.0
 13
11.4494985278864
 23
29.23247642824373
 33
0.0
  0
MTEXT
  5
BB0
330
ACB
100
AcDbEntity
  8
Dimension (ANSI)
100
AcDbMText
 10
17.16483032086746
 20
29.45974305916838
 30
0.0
 40
0.4363636537031694
 41
0.0
 71
     1
 72
     1
  1
\A1;13.160
  7
Note Text (ANSI)
 73
     1
 44
1.0
1001
ACAD
1000
MTEXTBEGIN
1070
    73
1070
     1
1070
    44
1040
1.0
1070
    74
1070
     0
1000
MTEXTEND
  0
POINT
  5
BB1
330
ACB
100
AcDbEntity
  8
Defpoints
 62
     0
100
AcDbPoint
 10
24.6094985278864
 20
27.18346409142413
 30
0.0
  0
POINT
  5
BB2
330
ACB
100
AcDbEntity
  8
Defpoints
 62
     0
100
AcDbPoint
 10
11.4494985278864
 20
27.18346409142413
 30
0.0
  0
POINT
  5
BB3
330
ACB
100
AcDbEntity
  8
Defpoints
 62
     0
100
AcDbPoint
 10
11.4494985278864
 20
29.23247642824373
 30
0.0
  0
ENDBLK
  5
ACD
330
ACB
100
AcDbEntity
  8
0
100
AcDbBlockEnd
  0
ENDSEC
  0
SECTION
  2
ENTITIES
  0
MTEXT
  5
74
330
6C
100
AcDbEntity
  8
Symbol (ANSI)
100
AcDbMText
 10
5.195859849205002
 20
37.91559742173915
 30
0.0
 40
0.509090925338188
 41
18.79407627376045
 71
     1
 72
     1
  1
PART#: NP2016C\P(DATA SUBJECT TO CHANGE WITHOUT NOTICE)\PTHIS DRAWING AND COMPONENTS OF ARE\PPROPERTY OF HUBBELL INC. WIEGMANN\P 
  7
Note Text (ANSI)
 73
     2
 44
1.093904256820678
1001
ACAD
1000
MTEXTBEGIN
1070
    73
1070
     2
1070
    44
1040
1.093904256820678
1070
    74
1070
     0
1000
MTEXTEND
  0
TEXT
  5
77
330
6C
100
AcDbEntity
  8
0
100
AcDbText
 10
22.63002021019835
 20
34.99984040142076
 30
0.0
 40
0.3539524935222491
  1
HUBBELL
  7
SANSSERIF
100
AcDbText
  0
POLYLINE
  5
79
330
6C
100
AcDbEntity
  8
0
100
AcDb2dPolyline
 66
     1
 10
0.0
 20
0.0
 30
0.0
  0
VERTEX
  5
7A
330
79
100
AcDbEntity
  8
0
100
AcDbVertex
100
AcDb2dVertex
 10
22.81340055238519
 20
34.82496805415796
 30
0.0
 42
0.0538548888021971
  0
VERTEX
  5
7B
330
79
100
AcDbEntity
  8
0
100
AcDbVertex
100
AcDb2dVertex
 10
22.9408645592106
 20
34.72513485810106
 30
0.0
 42
0.0762621633615686
 70
     2
 50
328.0963691854962
  0
VERTEX
  5
7C
330
79
100
AcDbEntity
  8
0
100
AcDbVertex
100
AcDb2dVertex
 10
23.25237951991484
 20
34.59173833286213
 30
0.0
 42
0.0631748622128167
 50
328.0963691854962
  0
VERTEX
  5
7D
330
79
100
AcDbEntity
  8
0
100
AcDbVertex
100
AcDb2dVertex
 10
23.65746713166085
 20
34.54035053279119
 30
0.0
 42
0.0631748622128144
  0
VERTEX
  5
7E
330
79
100
AcDbEntity
  8
0
100
AcDbVertex
100
AcDb2dVertex
 10
24.06255474340688
 20
34.59173833286213
 30
0.0
 42
0.0762621633615716
  0
VERTEX
  5
7F
330
79
100
AcDbEntity
  8
0
100
AcDbVertex
100
AcDb2dVertex
 10
24.37406970411108
 20
34.72513485810106
 30
0.0
 42
0.0538548888021992
 70
     2
 50
31.90363081450366
  0
VERTEX
  5
80
330
79
100
AcDbEntity
  8
0
100
AcDbVertex
100
AcDb2dVertex
 10
24.50153371093652
 20
34.82496805415796
 30
0.0
 42
0.1478388992712208
 50
31.90363081450366
  0
SEQEND
  5
81
330
79
100
AcDbEntity
  8
0
  0
POLYLINE
  5
82
330
6C
100
AcDbEntity
  8
0
100
AcDb2dPolyline
 66
     1
 10
0.0
 20
0.0
 30
0.0
  0
VERTEX
  5
83
330
82
100
AcDbEntity
  8
0
100
AcDbVertex
100
AcDb2dVertex
 10
23.04709801575966
 20
34.86353670497515
 30
0.0
 42
0.0708473647366734
  0
VERTEX
  5
84
330
82
100
AcDbEntity
  8
0
100
AcDbVertex
100
AcDb2dVertex
 10
23.1626493591289
 20
34.72513485810106
 30
0.0
 42
0.0943474025114784
 70
     2
 50
317.9633854595613
  0
VERTEX
  5
85
330
82
100
AcDbEntity
  8
0
100
AcDbVertex
100
AcDb2dVertex
 10
23.38642092090477
 20
34.58930895870713
 30
0.0
 42
0.0895889244631754
 50
317.9633854595613
  0
VERTEX
  5
86
330
82
100
AcDbEntity
  8
0
100
AcDbVertex
100
AcDb2dVertex
 10
23.65746713166085
 20
34.54035053279119
 30
0.0
 42
0.0895889244631755
  0
VERTEX
  5
87
330
82
100
AcDbEntity
  8
0
100
AcDbVertex
100
AcDb2dVertex
 10
23.92851334241694
 20
34.58930895870713
 30
0.0
 42
0.0943474025114826
  0
VERTEX
  5
88
330
82
100
AcDbEntity
  8
0
100
AcDbVertex
100
AcDb2dVertex
 10
24.15228490419281
 20
34.72513485810106
 30
0.0
 42
0.0708473647366705
 70
     2
 50
42.03661454043863
  0
VERTEX
  5
89
330
82
100
AcDbEntity
  8
0
100
AcDbVertex
100
AcDb2dVertex
 10
24.26783624756203
 20
34.86353670497515
 30
0.0
 42
0.1080871028423927
 50
42.03661454043863
  0
SEQEND
  5
8A
330
82
100
AcDbEntity
  8
0
  0
POLYLINE
  5
8B
330
6C
100
AcDbEntity
  8
0
100
AcDb2dPolyline
 66
     1
 10
0.0
 20
0.0
 30
0.0
  0
VERTEX
  5
8C
330
8B
100
AcDbEntity
  8
0
100
AcDbVertex
100
AcDb2dVertex
 10
24.4958133565717
 20
35.52303037548078
 30
0.0
 42
0.0512131062417871
  0
VERTEX
  5
8D
330
8B
100
AcDbEntity
  8
0
100
AcDbVertex
100
AcDb2dVertex
 10
24.37406970411108
 20
35.61735250665526
 30
0.0
 42
0.0762621633615678
 70
     2
 50
148.0963691854963
  0
VERTEX
  5
8E
330
8B
100
AcDbEntity
  8
0
100
AcDbVertex
100
AcDb2dVertex
 10
24.06255474340688
 20
35.7507490318942
 30
0.0
 42
0.0631748622128132
 50
148.0963691854963
  0
VERTEX
  5
8F
330
8B
100
AcDbEntity
  8
0
100
AcDbVertex
100
AcDb2dVertex
 10
23.65746713166085
 20
35.80213683196515
 30
0.0
 42
0.0631748622128155
  0
SEQEND
  5
90
330
8B
100
AcDbEntity
  8
0
  0
POLYLINE
  5
91
330
6C
100
AcDbEntity
  8
0
100
AcDb2dPolyline
 66
     1
 10
0.0
 20
0.0
 30
0.0
  0
VERTEX
  5
92
330
91
100
AcDbEntity
  8
0
100
AcDbVertex
100
AcDb2dVertex
 10
24.26499480316017
 20
35.4834990286552
 30
0.0
 42
0.0687403046083495
  0
VERTEX
  5
93
330
91
100
AcDbEntity
  8
0
100
AcDbVertex
100
AcDb2dVertex
 10
24.15228490419281
 20
35.61735250665526
 30
0.0
 42
0.0943474025114827
 70
     2
 50
137.9633854595613
  0
VERTEX
  5
94
330
91
100
AcDbEntity
  8
0
100
AcDbVertex
100
AcDb2dVertex
 10
23.92851334241694
 20
35.75317840604919
 30
0.0
 42
0.0895889244631755
 50
137.9633854595613
  0
VERTEX
  5
95
330
91
100
AcDbEntity
  8
0
100
AcDbVertex
100
AcDb2dVertex
 10
23.65746713166085
 20
35.80213683196515
 30
0.0
 42
0.0895889244631779
  0
SEQEND
  5
96
330
91
100
AcDbEntity
  8
0
  0
LINE
  5
97
330
6C
100
AcDbEntity
  8
0
100
AcDbLine
 10
25.00227143835638
 20
35.97812626639545
 30
0.0
 11
22.31266282496538
 21
35.97812626639545
 31
0.0
  0
POLYLINE
  5
98
330
6C
100
AcDbEntity
  8
0
100
AcDb2dPolyline
 66
     1
 10
0.0
 20
0.0
 30
0.0
 70
     1
  0
VERTEX
  5
99
330
98
100
AcDbEntity
  8
0
100
AcDbVertex
100
AcDb2dVertex
 10
22.31266282496538
 20
35.17124368237816
 30
0.0
 42
0.1828233251715505
  0
VERTEX
  5
9A
330
98
100
AcDbEntity
  8
0
100
AcDbVertex
100
AcDb2dVertex
 10
22.39236139898647
 20
34.96056296244378
 30
0.0
 42
0.1025674015815553
  0
VERTEX
  5
9B
330
98
100
AcDbEntity
  8
0
100
AcDbVertex
100
AcDb2dVertex
 10
22.7065468870276
 20
34.72513485810113
 30
0.0
 42
0.0617587255956112
 70
     2
 50
334.8671392208401
  0
VERTEX
  5
9C
330
98
100
AcDbEntity
  8
0
100
AcDbVertex
100
AcDb2dVertex
 10
23.11213249950969
 20
34.59284471203738
 30
0.0
 42
0.0480192641995976
 50
334.8671392208401
  0
VERTEX
  5
9D
330
98
100
AcDbEntity
  8
0
100
AcDbVertex
100
AcDb2dVertex
 10
23.65746713166085
 20
34.54035053279119
 30
0.0
 42
0.0480192641995965
  0
VERTEX
  5
9E
330
98
100
AcDbEntity
  8
0
100
AcDbVertex
100
AcDb2dVertex
 10
24.20280176381205
 20
34.59284471203738
 30
0.0
 42
0.0617587255956115
  0
VERTEX
  5
9F
330
98
100
AcDbEntity
  8
0
100
AcDbVertex
100
AcDb2dVertex
 10
24.60838737629413
 20
34.72513485810113
 30
0.0
 42
0.1025674015815654
 70
     2
 50
25.13286077915987
  0
VERTEX
  5
A0
330
98
100
AcDbEntity
  8
0
100
AcDbVertex
100
AcDb2dVertex
 10
24.92257286433517
 20
34.96056296244378
 30
0.0
 42
0.18282332517157
 50
25.13286077915987
  0
VERTEX
  5
A1
330
98
100
AcDbEntity
  8
0
100
AcDbVertex
100
AcDb2dVertex
 10
25.00227143835638
 20
35.17124368237816
 30
0.0
 42
0.1828233251715568
  0
VERTEX
  5
A2
330
98
100
AcDbEntity
  8
0
100
AcDbVertex
100
AcDb2dVertex
 10
24.92257286433517
 20
35.38192440231256
 30
0.0
 42
0.102567401581563
  0
VERTEX
  5
A3
330
98
100
AcDbEntity
  8
0
100
AcDbVertex
100
AcDb2dVertex
 10
24.60838737629413
 20
35.61735250665519
 30
0.0
 42
0.0617587255956141
 70
     2
 50
154.86713922084
  0
VERTEX
  5
A4
330
98
100
AcDbEntity
  8
0
100
AcDbVertex
100
AcDb2dVertex
 10
24.20280176381205
 20
35.74964265271896
 30
0.0
 42
0.0480192641995983
 50
154.86713922084
  0
VERTEX
  5
A5
330
98
100
AcDbEntity
  8
0
100
AcDbVertex
100
AcDb2dVertex
 10
23.65746713166085
 20
35.80213683196515
 30
0.0
 42
0.0480192641995976
  0
VERTEX
  5
A6
330
98
100
AcDbEntity
  8
0
100
AcDbVertex
100
AcDb2dVertex
 10
23.11213249950969
 20
35.74964265271896
 30
0.0
 42
0.0617587255956112
  0
VERTEX
  5
A7
330
98
100
AcDbEntity
  8
0
100
AcDbVertex
100
AcDb2dVertex
 10
22.7065468870276
 20
35.61735250665519
 30
0.0
 42
0.1025674015815593
 70
     2
 50
205.1328607791599
  0
VERTEX
  5
A8
330
98
100
AcDbEntity
  8
0
100
AcDbVertex
100
AcDb2dVertex
 10
22.39236139898647
 20
35.38192440231256
 30
0.0
 42
0.1828233251715536
 50
205.1328607791599
  0
SEQEND
  5
A9
330
98
100
AcDbEntity
  8
0
  0
ARC
  5
AA
330
6C
100
AcDbEntity
  8
0
100
AcDbCircle
 10
22.31266282496538
 20
35.70916540505635
 30
0.0
 40
0.268960861339095
100
AcDbArc
 50
90.0
 51
180.0
  0
LINE
  5
AB
330
6C
100
AcDbEntity
  8
0
100
AcDbLine
 10
22.04370196362629
 20
35.70916540505635
 30
0.0
 11
22.04370196362629
 21
34.63332195969996
 31
0.0
  0
ARC
  5
AC
330
6C
100
AcDbEntity
  8
0
100
AcDbCircle
 10
22.31266282496538
 20
34.63332195969996
 30
0.0
 40
0.268960861339095
100
AcDbArc
 50
180.0
 51
270.0
  0
POLYLINE
  5
AD
330
6C
100
AcDbEntity
  8
0
100
AcDb2dPolyline
 66
     1
 10
0.0
 20
0.0
 30
0.0
  0
VERTEX
  5
AE
330
AD
100
AcDbEntity
  8
0
100
AcDbVertex
100
AcDb2dVertex
 10
23.37757920003156
 20
34.89416143095516
 30
0.0
 42
0.0570538596573184
  0
VERTEX
  5
AF
330
AD
100
AcDbEntity
  8
0
100
AcDbVertex
100
AcDb2dVertex
 10
23.4379860518781
 20
34.72513485810104
 30
0.0
 42
0.1038195938885091
 70
     2
 50
296.1967246921072
  0
VERTEX
  5
B0
330
AD
100
AcDbEntity
  8
0
100
AcDbVertex
100
AcDb2dVertex
 10
23.55269648865725
 20
34.57858182043044
 30
0.0
 42
0.1767522344444316
 50
296.1967246921072
  0
VERTEX
  5
B1
330
AD
100
AcDbEntity
  8
0
100
AcDbVertex
100
AcDb2dVertex
 10
23.65746713166085
 20
34.54035053279119
 30
0.0
 42
0.1767522344444399
  0
VERTEX
  5
B2
330
AD
100
AcDbEntity
  8
0
100
AcDbVertex
100
AcDb2dVertex
 10
23.76223777466452
 20
34.57858182043044
 30
0.0
 42
0.1038195938885123
  0
VERTEX
  5
B3
330
AD
100
AcDbEntity
  8
0
100
AcDbVertex
100
AcDb2dVertex
 10
23.87694821144358
 20
34.72513485810104
 30
0.0
 42
0.0570538596573163
 70
     2
 50
63.8032753078928
  0
VERTEX
  5
B4
330
AD
100
AcDbEntity
  8
0
100
AcDbVertex
100
AcDb2dVertex
 10
23.93735506329012
 20
34.89416143095516
 30
0.0
 42
0.0503013836282066
 50
63.8032753078928
  0
SEQEND
  5
B5
330
AD
100
AcDbEntity
  8
0
  0
POLYLINE
  5
B6
330
6C
100
AcDbEntity
  8
0
100
AcDb2dPolyline
 66
     1
 10
0.0
 20
0.0
 30
0.0
  0
VERTEX
  5
B7
330
B6
100
AcDbEntity
  8
0
100
AcDbVertex
100
AcDb2dVertex
 10
23.65746713166085
 20
35.80213683196515
 30
0.0
 42
0.1767522344444361
  0
VERTEX
  5
B8
330
B6
100
AcDbEntity
  8
0
100
AcDbVertex
100
AcDb2dVertex
 10
23.55269648865725
 20
35.76390554432586
 30
0.0
 42
0.1038195938884991
  0
VERTEX
  5
B9
330
B6
100
AcDbEntity
  8
0
100
AcDbVertex
100
AcDb2dVertex
 10
23.4379860518781
 20
35.61735250665528
 30
0.0
 42
0.0567223889277798
 70
     2
 50
243.8032753078928
  0
VERTEX
  5
BA
330
B6
100
AcDbEntity
  8
0
100
AcDbVertex
100
AcDb2dVertex
 10
23.37781685788142
 20
35.44934134813232
 30
0.0
 42
0.0503013836282199
 50
243.8032753078928
  0
SEQEND
  5
BB
330
B6
100
AcDbEntity
  8
0
  0
POLYLINE
  5
BC
330
6C
100
AcDbEntity
  8
0
100
AcDb2dPolyline
 66
     1
 10
0.0
 20
0.0
 30
0.0
  0
VERTEX
  5
BD
330
BC
100
AcDbEntity
  8
0
100
AcDbVertex
100
AcDb2dVertex
 10
23.65746713166085
 20
35.80213683196515
 30
0.0
 42
0.0895889244631779
  0
VERTEX
  5
BE
330
BC
100
AcDbEntity
  8
0
100
AcDbVertex
100
AcDb2dVertex
 10
23.38642092090477
 20
35.75317840604919
 30
0.0
 42
0.094347402511486
  0
VERTEX
  5
BF
330
BC
100
AcDbEntity
  8
0
100
AcDbVertex
100
AcDb2dVertex
 10
23.1626493591289
 20
35.61735250665526
 30
0.0
 42
0.0687403046083514
 70
     2
 50
222.0366145404387
  0
VERTEX
  5
C0
330
BC
100
AcDbEntity
  8
0
100
AcDbVertex
100
AcDb2dVertex
 10
23.04993946016155
 20
35.4834990286552
 30
0.0
 42
0.1080871028423927
 50
222.0366145404387
  0
SEQEND
  5
C1
330
BC
100
AcDbEntity
  8
0
  0
POLYLINE
  5
C2
330
6C
100
AcDbEntity
  8
0
100
AcDb2dPolyline
 66
     1
 10
0.0
 20
0.0
 30
0.0
  0
VERTEX
  5
C3
330
C2
100
AcDbEntity
  8
0
100
AcDbVertex
100
AcDb2dVertex
 10
23.65746713166085
 20
35.80213683196515
 30
0.0
 42
0.0631748622128155
  0
VERTEX
  5
C4
330
C2
100
AcDbEntity
  8
0
100
AcDbVertex
100
AcDb2dVertex
 10
23.25237951991484
 20
35.7507490318942
 30
0.0
 42
0.0762621633615699
  0
VERTEX
  5
C5
330
C2
100
AcDbEntity
  8
0
100
AcDbVertex
100
AcDb2dVertex
 10
22.9408645592106
 20
35.61735250665526
 30
0.0
 42
0.0512131062417906
 70
     2
 50
211.9036308145036
  0
VERTEX
  5
C6
330
C2
100
AcDbEntity
  8
0
100
AcDbVertex
100
AcDb2dVertex
 10
22.81912090675001
 20
35.52303037548078
 30
0.0
 42
0.1478388992712295
 50
211.9036308145036
  0
SEQEND
  5
C7
330
C2
100
AcDbEntity
  8
0
  0
POLYLINE
  5
C8
330
6C
100
AcDbEntity
  8
0
100
AcDb2dPolyline
 66
     1
 10
0.0
 20
0.0
 30
0.0
  0
VERTEX
  5
C9
330
C8
100
AcDbEntity
  8
0
100
AcDbVertex
100
AcDb2dVertex
 10
23.93711740544033
 20
35.44934134813232
 30
0.0
 42
0.0567223889277601
  0
VERTEX
  5
CA
330
C8
100
AcDbEntity
  8
0
100
AcDbVertex
100
AcDb2dVertex
 10
23.87694821144358
 20
35.61735250665528
 30
0.0
 42
0.1038195938884991
 70
     2
 50
116.1967246921072
  0
VERTEX
  5
CB
330
C8
100
AcDbEntity
  8
0
100
AcDbVertex
100
AcDb2dVertex
 10
23.76223777466452
 20
35.76390554432586
 30
0.0
 42
0.1767522344444361
 50
116.1967246921072
  0
VERTEX
  5
CC
330
C8
100
AcDbEntity
  8
0
100
AcDbVertex
100
AcDb2dVertex
 10
23.65746713166085
 20
35.80213683196515
 30
0.0
 42
0.1767522344444361
  0
SEQEND
  5
CD
330
C8
100
AcDbEntity
  8
0
  0
ARC
  5
CE
330
6C
100
AcDbEntity
  8
0
100
AcDbCircle
 10
25.00227143835638
 20
35.70916540505635
 30
0.0
 40
0.268960861339095
100
AcDbArc
 50
0.0
 51
90.0
  0
CIRCLE
  5
CF
330
6C
100
AcDbEntity
  8
0
100
AcDbCircle
 10
25.5249174052413
 20
35.83952058510543
 30
0.0
 40
0.1399721654716432
  0
TEXT
  5
D0
330
6C
100
AcDbEntity
  8
0
100
AcDbText
 10
25.4346539546699
 20
35.74595435843312
 30
0.0
 40
0.1642975038372528
  1
R
  7
SANSSERIF
100
AcDbText
  0
LINE
  5
D1
330
6C
100
AcDbEntity
  8
0
100
AcDbLine
 10
25.27123229969541
 20
34.63332195969996
 30
0.0
 11
25.27123229969541
 21
35.70916540505635
 31
0.0
  0
ARC
  5
D2
330
6C
100
AcDbEntity
  8
0
100
AcDbCircle
 10
25.00227143835638
 20
34.63332195969996
 30
0.0
 40
0.268960861339095
100
AcDbArc
 50
270.0
 51
0.0
  0
LINE
  5
D3
330
6C
100
AcDbEntity
  8
0
100
AcDbLine
 10
22.31266282496538
 20
34.36436109836087
 30
0.0
 11
25.00227143835638
 21
34.36436109836087
 31
0.0
  0
CIRCLE
  5
182
330
6C
100
AcDbEntity
  8
Visible (ANSI)
100
AcDbCircle
 10
24.6094985278864
 20
27.18346409142413
 30
0.0
 40
0.25
  0
CIRCLE
  5
183
330
6C
100
AcDbEntity
  8
Visible (ANSI)
100
AcDbCircle
 10
11.4494985278864
 20
27.18346409142413
 30
0.0
 40
0.25
  0
CIRCLE
  5
184
330
6C
100
AcDbEntity
  8
Visible (ANSI)
100
AcDbCircle
 10
11.4494985278864
 20
10.02346409142412
 30
0.0
 40
0.25
  0
CIRCLE
  5
185
330
6C
100
AcDbEntity
  8
Visible (ANSI)
100
AcDbCircle
 10
24.6094985278864
 20
10.02346409142412
 30
0.0
 40
0.25
  0
CIRCLE
  5
186
330
6C
100
AcDbEntity
  8
Visible (ANSI)
100
AcDbCircle
 10
24.6094985278864
 20
26.43346409142413
 30
0.0
 40
0.15625
  0
CIRCLE
  5
187
330
6C
100
AcDbEntity
  8
Visible (ANSI)
100
AcDbCircle
 10
11.4494985278864
 20
26.43346409142413
 30
0.0
 40
0.15625
  0
CIRCLE
  5
188
330
6C
100
AcDbEntity
  8
Visible (ANSI)
100
AcDbCircle
 10
11.4494985278864
 20
10.77346409142412
 30
0.0
 40
0.15625
  0
CIRCLE
  5
189
330
6C
100
AcDbEntity
  8
Visible (ANSI)
100
AcDbCircle
 10
24.6094985278864
 20
10.77346409142412
 30
0.0
 40
0.15625
  0
LINE
  5
18A
330
6C
100
AcDbEntity
  8
Visible (ANSI)
100
AcDbLine
 10
10.9294985278864
 20
27.20346409142412
 30
0.0
 11
11.4294985278864
 21
27.70346409142412
 31
0.0
  0
LINE
  5
18B
330
6C
100
AcDbEntity
  8
Visible (ANSI)
100
AcDbLine
 10
10.9294985278864
 20
10.00346409142412
 30
0.0
 11
10.9294985278864
 21
27.20346409142412
 31
0.0
  0
LINE
  5
18C
330
6C
100
AcDbEntity
  8
Visible (ANSI)
100
AcDbLine
 10
24.62949852788641
 20
9.503464091424124
 30
0.0
 11
11.4294985278864
 21
9.503464091424124
 31
0.0
  0
LINE
  5
18D
330
6C
100
AcDbEntity
  8
Visible (ANSI)
100
AcDbLine
 10
25.1294985278864
 20
27.20346409142412
 30
0.0
 11
25.1294985278864
 21
10.00346409142412
 31
0.0
  0
LINE
  5
18E
330
6C
100
AcDbEntity
  8
Visible (ANSI)
100
AcDbLine
 10
11.4294985278864
 20
27.70346409142412
 30
0.0
 11
24.6294985278864
 21
27.70346409142413
 31
0.0
  0
LINE
  5
18F
330
6C
100
AcDbEntity
  8
Visible (ANSI)
100
AcDbLine
 10
11.4294985278864
 20
9.503464091424124
 30
0.0
 11
10.9294985278864
 21
10.00346409142412
 31
0.0
  0
LINE
  5
190
330
6C
100
AcDbEntity
  8
Visible (ANSI)
100
AcDbLine
 10
25.1294985278864
 20
10.00346409142412
 30
0.0
 11
24.62949852788641
 21
9.503464091424124
 31
0.0
  0
LINE
  5
191
330
6C
100
AcDbEntity
  8
Visible (ANSI)
100
AcDbLine
 10
24.6294985278864
 20
27.70346409142413
 30
0.0
 11
25.1294985278864
 21
27.20346409142412
 31
0.0
  0
LINE
  5
192
330
6C
100
AcDbEntity
  8
Visible (ANSI)
100
AcDbLine
 10
39.19510966316963
 20
27.20346409142412
 30
0.0
 11
39.19510966316948
 21
27.70346409142413
 31
0.0
  0
LINE
  5
193
330
6C
100
AcDbEntity
  8
Visible (ANSI)
100
AcDbLine
 10
39.10135966316963
 20
27.20346409142412
 30
0.0
 11
39.19510966316963
 21
27.20346409142412
 31
0.0
  0
LINE
  5
194
330
6C
100
AcDbEntity
  8
Visible (ANSI)
100
AcDbLine
 10
39.10135966316948
 20
27.70346409142413
 30
0.0
 11
39.10135966316963
 21
27.20346409142412
 31
0.0
  0
LINE
  5
195
330
6C
100
AcDbEntity
  8
Visible (ANSI)
100
AcDbLine
 10
39.19510966316948
 20
27.70346409142413
 30
0.0
 11
39.10135966316948
 21
27.70346409142413
 31
0.0
  0
LINE
  5
196
330
6C
100
AcDbEntity
  8
Visible (ANSI)
100
AcDbLine
 10
39.19510966316963
 20
10.00346409142412
 30
0.0
 11
39.19510966316963
 21
27.20346409142412
 31
0.0
  0
LINE
  5
197
330
6C
100
AcDbEntity
  8
Visible (ANSI)
100
AcDbLine
 10
39.10135966316963
 20
27.20346409142412
 30
0.0
 11
39.10135966316963
 21
10.00346409142412
 31
0.0
  0
LINE
  5
198
330
6C
100
AcDbEntity
  8
Visible (ANSI)
100
AcDbLine
 10
39.19510966316948
 20
9.503464091424124
 30
0.0
 11
39.19510966316963
 21
10.00346409142412
 31
0.0
  0
LINE
  5
199
330
6C
100
AcDbEntity
  8
Visible (ANSI)
100
AcDbLine
 10
39.10135966316948
 20
9.503464091424124
 30
0.0
 11
39.19510966316948
 21
9.503464091424124
 31
0.0
  0
LINE
  5
19A
330
6C
100
AcDbEntity
  8
Visible (ANSI)
100
AcDbLine
 10
39.10135966316963
 20
10.00346409142412
 30
0.0
 11
39.10135966316948
 21
9.503464091424124
 31
0.0
  0
LINE
  5
19B
330
6C
100
AcDbEntity
  8
Visible (ANSI)
100
AcDbLine
 10
39.19510966316963
 20
10.00346409142412
 30
0.0
 11
39.10135966316963
 21
10.00346409142412
 31
0.0
  0
LINE
  5
19C
330
6C
100
AcDbEntity
  8
Hidden (ANSI)
 48
0.0490054599940777
100
AcDbLine
 10
39.10135966316948
 20
27.43346409142412
 30
0.0
 11
39.19510966316948
 21
27.43346409142412
 31
0.0
  0
LINE
  5
19D
330
6C
100
AcDbEntity
  8
Hidden (ANSI)
 48
0.0490054599940777
100
AcDbLine
 10
39.10135966316948
 20
26.93346409142412
 30
0.0
 11
39.19510966316948
 21
26.93346409142412
 31
0.0
  0
LINE
  5
19E
330
6C
100
AcDbEntity
  8
Hidden (ANSI)
 48
0.0490054599940777
100
AcDbLine
 10
39.10135966316948
 20
10.27346409142412
 30
0.0
 11
39.19510966316948
 21
10.27346409142412
 31
0.0
  0
LINE
  5
19F
330
6C
100
AcDbEntity
  8
Hidden (ANSI)
 48
0.0490054599940777
100
AcDbLine
 10
39.10135966316948
 20
9.773464091424125
 30
0.0
 11
39.19510966316948
 21
9.773464091424125
 31
0.0
  0
LINE
  5
1A0
330
6C
100
AcDbEntity
  8
Hidden (ANSI)
 48
0.0490054599940777
100
AcDbLine
 10
39.10135966316948
 20
26.58971409142413
 30
0.0
 11
39.19510966316948
 21
26.58971409142413
 31
0.0
  0
LINE
  5
1A1
330
6C
100
AcDbEntity
  8
Hidden (ANSI)
 48
0.0490054599940777
100
AcDbLine
 10
39.10135966316948
 20
26.27721409142413
 30
0.0
 11
39.19510966316948
 21
26.27721409142413
 31
0.0
  0
LINE
  5
1A2
330
6C
100
AcDbEntity
  8
Hidden (ANSI)
 48
0.0490054599940777
100
AcDbLine
 10
39.10135966316948
 20
10.92971409142412
 30
0.0
 11
39.19510966316948
 21
10.92971409142412
 31
0.0
  0
LINE
  5
1A3
330
6C
100
AcDbEntity
  8
Hidden (ANSI)
 48
0.0490054599940777
100
AcDbLine
 10
39.10135966316948
 20
10.61721409142412
 30
0.0
 11
39.19510966316948
 21
10.61721409142412
 31
0.0
  0
ELLIPSE
  5
1A4
330
6C
100
AcDbEntity
  8
Visible (ANSI)
100
AcDbEllipse
 10
57.94471225005453
 20
31.27827581986494
 30
0.0
 11
-0.0907331293789818
 21
0.1575606247536686
 31
0.0
210
0.0
220
0.0
230
1.0
 40
0.5780931159158121
 41
0.2678448778125713
 42
2.873747775777269
  0
ELLIPSE
  5
1A5
330
6C
100
AcDbEntity
  8
Visible (ANSI)
100
AcDbEllipse
 10
57.89650042406455
 20
31.25051247574273
 30
0.0
 11
-0.0907331293789817
 21
0.1575606247536687
 31
0.0
210
0.0
220
0.0
230
1.0
 40
0.5780931159158121
 41
0.0
 42
6.283185307179586
  0
ELLIPSE
  5
1A6
330
6C
100
AcDbEntity
  8
Visible (ANSI)
100
AcDbEllipse
 10
51.17705752975176
 20
35.17550897877861
 30
0.0
 11
-0.0907331293789814
 21
0.1575606247536682
 31
0.0
210
0.0
220
0.0
230
1.0
 40
0.578093115915812
 41
0.267844877812602
 42
2.873747775777252
  0
ELLIPSE
  5
1A7
330
6C
100
AcDbEntity
  8
Visible (ANSI)
100
AcDbEllipse
 10
51.12884570376177
 20
35.14774563465639
 30
0.0
 11
-0.0907331293789817
 21
0.1575606247536687
 31
0.0
210
0.0
220
0.0
230
1.0
 40
0.5780931159158121
 41
0.0
 42
6.283185307179586
  0
ELLIPSE
  5
1A8
330
6C
100
AcDbEntity
  8
Visible (ANSI)
100
AcDbEllipse
 10
51.17705752975175
 20
24.97252086074368
 30
0.0
 11
-0.0907331293789818
 21
0.1575606247536686
 31
0.0
210
0.0
220
0.0
230
1.0
 40
0.5780931159158122
 41
0.2678448778125713
 42
2.873747775777252
  0
ELLIPSE
  5
1A9
330
6C
100
AcDbEntity
  8
Visible (ANSI)
100
AcDbEllipse
 10
51.12884570376176
 20
24.94475751662147
 30
0.0
 11
-0.0907331293789817
 21
0.1575606247536687
 31
0.0
210
0.0
220
0.0
230
1.0
 40
0.5780931159158121
 41
0.0
 42
6.283185307179586
  0
ELLIPSE
  5
1AA
330
6C
100
AcDbEntity
  8
Visible (ANSI)
100
AcDbEllipse
 10
57.94471225005453
 20
21.07528770183001
 30
0.0
 11
-0.090733129378982
 21
0.1575606247536689
 31
0.0
210
0.0
220
0.0
230
1.0
 40
0.5780931159158122
 41
0.2678448778125866
 42
2.87374777577726
  0
ELLIPSE
  5
1AB
330
6C
100
AcDbEntity
  8
Visible (ANSI)
100
AcDbEllipse
 10
57.89650042406454
 20
21.0475243577078
 30
0.0
 11
-0.0907331293789817
 21
0.1575606247536687
 31
0.0
210
0.0
220
0.0
230
1.0
 40
0.5780931159158121
 41
0.0
 42
6.283185307179586
  0
ELLIPSE
  5
1AC
330
6C
100
AcDbEntity
  8
Visible (ANSI)
100
AcDbEllipse
 10
57.94471225005453
 20
30.83234102449628
 30
0.0
 11
0.0567082058618691
 21
-0.0984753904710388
 31
0.0
210
0.0
220
0.0
230
0.9999999999999998
 40
0.5780931159158121
 41
3.578838513251474
 42
5.845939447516932
  0
ELLIPSE
  5
1AD
330
6C
100
AcDbEntity
  8
Visible (ANSI)
100
AcDbEllipse
 10
57.89650042406455
 20
30.80457768037407
 30
0.0
 11
-0.0567082058618636
 21
0.0984753904710429
 31
0.0
210
0.0
220
0.0
230
0.9999999999999998
 40
0.5780931159158121
 41
0.0
 42
6.283185307179586
  0
ELLIPSE
  5
1AE
330
6C
100
AcDbEntity
  8
Visible (ANSI)
100
AcDbEllipse
 10
51.17705752975176
 20
34.72957418340995
 30
0.0
 11
0.0567082058618696
 21
-0.0984753904710397
 31
0.0
210
0.0
220
0.0
230
1.0
 40
0.578093115915812
 41
3.578838513251577
 42
5.845939447516932
  0
ELLIPSE
  5
1AF
330
6C
100
AcDbEntity
  8
Visible (ANSI)
100
AcDbEllipse
 10
51.12884570376177
 20
34.70181083928774
 30
0.0
 11
-0.0567082058618636
 21
0.0984753904710429
 31
0.0
210
0.0
220
0.0
230
0.9999999999999998
 40
0.5780931159158121
 41
0.0
 42
6.283185307179586
  0
ELLIPSE
  5
1B0
330
6C
100
AcDbEntity
  8
Visible (ANSI)
100
AcDbEllipse
 10
51.17705752975175
 20
25.41845565611233
 30
0.0
 11
0.0567082058618695
 21
-0.0984753904710395
 31
0.0
210
0.0
220
0.0
230
0.9999999999999998
 40
0.5780931159158122
 41
3.578838513251577
 42
5.845939447516932
  0
ELLIPSE
  5
1B1
330
6C
100
AcDbEntity
  8
Visible (ANSI)
100
AcDbEllipse
 10
51.12884570376176
 20
25.39069231199012
 30
0.0
 11
-0.0567082058618636
 21
0.0984753904710429
 31
0.0
210
0.0
220
0.0
230
0.9999999999999998
 40
0.5780931159158121
 41
0.0
 42
6.283185307179586
  0
ELLIPSE
  5
1B2
330
6C
100
AcDbEntity
  8
Visible (ANSI)
100
AcDbEllipse
 10
57.94471225005453
 20
21.52122249719866
 30
0.0
 11
0.0567082058618694
 21
-0.0984753904710394
 31
0.0
210
0.0
220
0.0
230
1.0
 40
0.5780931159158121
 41
3.578838513251579
 42
5.845939447516914
  0
ELLIPSE
  5
1B3
330
6C
100
AcDbEntity
  8
Visible (ANSI)
100
AcDbEllipse
 10
57.89650042406454
 20
21.49345915307646
 30
0.0
 11
-0.0567082058618636
 21
0.0984753904710429
 31
0.0
210
0.0
220
0.0
230
0.9999999999999998
 40
0.5780931159158121
 41
0.0
 42
6.283185307179586
  0
LINE
  5
1B4
330
6C
100
AcDbEntity
  8
Visible (ANSI)
100
AcDbLine
 10
50.86143077560391
 20
35.31363124459737
 30
0.0
 11
51.11856051421724
 21
35.46284993952474
 31
0.0
  0
LINE
  5
1B5
330
6C
100
AcDbEntity
  8
Visible (ANSI)
100
AcDbLine
 10
51.11856051421724
 20
35.46284993952474
 30
0.0
 11
51.16677234020722
 21
35.49061328364695
 31
0.0
  0
LINE
  5
1B6
330
6C
100
AcDbEntity
  8
Visible (ANSI)
100
AcDbLine
 10
50.86143077560389
 20
25.08685993747611
 30
0.0
 11
50.86143077560391
 21
35.31363124459737
 31
0.0
  0
LINE
  5
1B7
330
6C
100
AcDbEntity
  8
Visible (ANSI)
100
AcDbLine
 10
57.95499743959906
 20
31.58153443124115
 30
0.0
 11
51.16677234020722
 21
35.49061328364695
 31
0.0
  0
LINE
  5
1B8
330
6C
100
AcDbEntity
  8
Visible (ANSI)
100
AcDbLine
 10
58.21212717821239
 20
20.90940209188904
 30
0.0
 11
58.21212717821239
 21
31.1361733990103
 31
0.0
  0
LINE
  5
1B9
330
6C
100
AcDbEntity
  8
Visible (ANSI)
100
AcDbLine
 10
57.90678561360908
 20
20.73242005283946
 30
0.0
 11
51.11856051421722
 21
24.64149890524526
 31
0.0
  0
LINE
  5
1BA
330
6C
100
AcDbEntity
  8
Visible (ANSI)
100
AcDbLine
 10
58.16391535222241
 20
31.1084100548881
 30
0.0
 11
58.16391535222241
 21
20.88163874776683
 31
0.0
  0
LINE
  5
1BB
330
6C
100
AcDbEntity
  8
Visible (ANSI)
100
AcDbLine
 10
51.11856051421724
 20
35.46284993952474
 30
0.0
 11
57.90678561360909
 21
31.55377108711894
 31
0.0
  0
LINE
  5
1BC
330
6C
100
AcDbEntity
  8
Visible (ANSI)
100
AcDbLine
 10
58.21212717821239
 20
31.1361733990103
 30
0.0
 11
57.95499743959906
 21
31.58153443124115
 31
0.0
  0
LINE
  5
1BD
330
6C
100
AcDbEntity
  8
Visible (ANSI)
100
AcDbLine
 10
58.16391535222241
 20
31.1084100548881
 30
0.0
 11
58.21212717821239
 21
31.1361733990103
 31
0.0
  0
LINE
  5
1BE
330
6C
100
AcDbEntity
  8
Visible (ANSI)
100
AcDbLine
 10
57.90678561360909
 20
31.55377108711894
 30
0.0
 11
58.16391535222241
 21
31.1084100548881
 31
0.0
  0
LINE
  5
1BF
330
6C
100
AcDbEntity
  8
Visible (ANSI)
100
AcDbLine
 10
57.95499743959906
 20
31.58153443124115
 30
0.0
 11
57.90678561360909
 21
31.55377108711894
 31
0.0
  0
LINE
  5
1C0
330
6C
100
AcDbEntity
  8
Visible (ANSI)
100
AcDbLine
 10
57.95499743959906
 20
20.76018339696167
 30
0.0
 11
58.21212717821239
 21
20.90940209188904
 31
0.0
  0
LINE
  5
1C1
330
6C
100
AcDbEntity
  8
Visible (ANSI)
100
AcDbLine
 10
57.90678561360908
 20
20.73242005283946
 30
0.0
 11
57.95499743959906
 21
20.76018339696167
 31
0.0
  0
LINE
  5
1C2
330
6C
100
AcDbEntity
  8
Visible (ANSI)
100
AcDbLine
 10
58.16391535222241
 20
20.88163874776683
 30
0.0
 11
57.90678561360908
 21
20.73242005283946
 31
0.0
  0
LINE
  5
1C3
330
6C
100
AcDbEntity
  8
Visible (ANSI)
100
AcDbLine
 10
58.21212717821239
 20
20.90940209188904
 30
0.0
 11
58.16391535222241
 21
20.88163874776683
 31
0.0
  0
LINE
  5
1C4
330
6C
100
AcDbEntity
  8
Visible (ANSI)
100
AcDbLine
 10
51.11856051421722
 20
24.64149890524526
 30
0.0
 11
50.86143077560389
 21
25.08685993747611
 31
0.0
  0
DIMENSION
  5
1C5
330
6C
100
AcDbEntity
  8
Dimension (ANSI)
100
AcDbDimension
  2
*D4
 10
7.58612720563562
 20
27.70346409142413
 30
0.0
 11
7.586127205635615
 21
18.60346409142413
 31
0.0
 70
   160
  1
<>
 42
18.2
  3
Default (ANSI)
100
AcDbAlignedDimension
 13
11.4294985278864
 23
9.503464091424124
 33
0.0
 14
11.4294985278864
 24
27.70346409142413
 34
0.0
 50
90.0
100
AcDbRotatedDimension
1001
ACAD
1000
DSTYLE
1002
{
1070
   289
1070
     1
1070
   271
1070
     2
1070
   272
1070
     2
1070
    48
1040
0.0
1070
    47
1040
0.0
1002
}
  0
DIMENSION
  5
2B2
330
6C
100
AcDbEntity
  8
Dimension (ANSI)
100
AcDbDimension
  2
*D5
 10
25.1294985278864
 20
30.38152942126986
 30
0.0
 11
18.0294985278864
 21
30.38152942126986
 31
0.0
 70
   160
  1
<>
 42
14.19999999999999
  3
Default (ANSI)
100
AcDbAlignedDimension
 13
10.9294985278864
 23
27.20346409142412
 33
0.0
 14
25.1294985278864
 24
27.20346409142412
 34
0.0
100
AcDbRotatedDimension
1001
ACAD
1000
DSTYLE
1002
{
1070
   289
1070
     1
1070
    73
1070
     0
1070
    74
1070
     0
1070
   271
1070
     2
1070
   272
1070
     2
1070
    48
1040
0.0
1070
    47
1040
0.0
1002
}
  0
DIMENSION
  5
39C
330
6C
100
AcDbEntity
  8
Dimension (ANSI)
100
AcDbDimension
  2
*D6
 10
10.90160242170847
 20
10.77346409142412
 30
0.0
 11
9.874695378280105
 21
8.981162280170256
 31
0.0
 70
   160
  1
<>
 42
0.7500000000000018
  3
Default (ANSI)
100
AcDbAlignedDimension
 13
11.4494985278864
 23
10.02346409142412
 33
0.0
 14
11.4494985278864
 24
10.77346409142412
 34
0.0
 50
90.0
100
AcDbRotatedDimension
1001
ACAD
1000
DSTYLE
1002
{
1070
   289
1070
     1
1070
   271
1070
     2
1070
   272
1070
     2
1070
    48
1040
0.0
1070
    47
1040
0.0
1002
}
  0
DIMENSION
  5
499
330
6C
100
AcDbEntity
  8
Dimension (ANSI)
100
AcDbDimension
  2
*D7
 10
27.21369971558628
 20
27.18346409142413
 30
0.0
 11
26.18430167749271
 21
26.14089706723402
 31
0.0
 70
   160
  1
<>
 42
0.5199999999999961
  3
Default (ANSI)
100
AcDbAlignedDimension
 13
24.62949852788639
 23
27.70346409142412
 33
0.0
 14
24.6094985278864
 24
27.18346409142413
 34
0.0
 50
270.0
100
AcDbRotatedDimension
1001
ACAD
1000
DSTYLE
1002
{
1070
   289
1070
     1
1070
   271
1070
     2
1070
   272
1070
     2
1070
    48
1040
0.0
1070
    47
1040
0.0
1002
}
  0
DIMENSION
  5
597
330
6C
100
AcDbEntity
  8
Dimension (ANSI)
100
AcDbDimension
  2
*D8
 10
24.6094985278864
 20
29.23247642824374
 30
0.0
 11
26.51680636460209
 21
29.23247642824374
 31
0.0
 70
   160
  1
<>
 42
0.5199999999999925
  3
Default (ANSI)
100
AcDbAlignedDimension
 13
25.1294985278864
 23
27.20346409142412
 33
0.0
 14
24.6094985278864
 24
27.18346409142413
 34
0.0
 50
180.0
100
AcDbRotatedDimension
1001
ACAD
1000
DSTYLE
1002
{
1070
   289
1070
     1
1070
    73
1070
     0
1070
    74
1070
     0
1070
   271
1070
     2
1070
   272
1070
     2
1070
    48
1040
0.0
1070
    47
1040
0.0
1002
}
  0
DIMENSION
  5
681
330
6C
100
AcDbEntity
  8
Dimension (ANSI)
100
AcDbDimension
  2
*D9
 10
8.929813488516328
 20
27.18346409142413
 30
0.0
 11
8.929813488516325
 21
21.3001534923455
 31
0.0
 70
   160
  1
<>
 42
17.16
  3
Default (ANSI)
100
AcDbAlignedDimension
 13
11.4494985278864
 23
10.02346409142412
 33
0.0
 14
11.4494985278864
 24
27.18346409142413
 34
0.0
 50
90.0
100
AcDbRotatedDimension
1001
ACAD
1000
DSTYLE
1002
{
1070
   289
1070
     1
1070
   271
1070
     3
1070
   272
1070
     3
1070
    48
1040
0.0
1070
    47
1040
0.0
1002
}
  0
MTEXT
  5
76B
102
{ACAD_REACTORS
330
76C
102
}
330
6C
100
AcDbEntity
  8
Symbol (ANSI)
100
AcDbMText
 10
41.49966849356718
 20
22.01756963200411
 30
0.0
 40
0.4363636417566407
 41
1.784706081589716
 71
     1
 72
     1
  1
{12 GA.}
  7
Note Text (ANSI)
 73
     1
 44
1.0
1001
ACAD
1000
MTEXTBEGIN
1070
    73
1070
     1
1070
    44
1040
1.0
1070
    74
1070
     0
1000
MTEXTEND
  0
LEADER
  5
76C
330
6C
100
AcDbEntity
  8
Symbol (ANSI)
100
AcDbLeader
  3
Default (ANSI)$7
 73
     0
 74
     0
 75
     1
 40
0.4539471330295745
 41
1.662812158043773
 76
     3
 10
39.19510966316963
 20
19.6204222923942
 30
0.0
 10
41.02722755679187
 20
21.79938781112579
 30
0.0
 10
41.385137355414
 20
21.79938781112579
 30
0.0
340
76B
213
0.0
223
-0.2181818208783203
233
0.0
1001
ACAD
1000
DSTYLE
1002
{
1070
    77
1070
     0
1002
}
  0
DIMENSION
  5
76D
330
6C
100
AcDbEntity
  8
Dimension (ANSI)
100
AcDbDimension
  2
*D10
 10
26.46127951051662
 20
10.00346409142412
 30
0.0
 11
27.49170325229585
 21
11.04576590267799
 31
0.0
 70
   160
  1
<>
 42
0.5
  3
Default (ANSI)
100
AcDbAlignedDimension
 13
24.62949852788641
 23
9.503464091424124
 33
0.0
 14
25.1294985278864
 24
10.00346409142412
 34
0.0
 50
90.0
100
AcDbRotatedDimension
1001
ACAD
1000
DSTYLE
1002
{
1070
   289
1070
     1
1070
   271
1070
     2
1070
   272
1070
     2
1070
    48
1040
0.0
1070
    47
1040
0.0
1002
}
  0
DIMENSION
  5
86D
330
6C
100
AcDbEntity
  8
Dimension (ANSI)
100
AcDbDimension
  2
*D11
 10
24.62949852788641
 20
7.141259367014678
 30
0.0
 11
23.05491444860273
 21
7.141259367014678
 31
0.0
 70
   160
  1
<>
 42
0.4999999999999965
  3
Default (ANSI)
100
AcDbAlignedDimension
 13
25.1294985278864
 23
10.00346409142412
 33
0.0
 14
24.62949852788641
 24
9.503464091424124
 34
0.0
 50
180.0
100
AcDbRotatedDimension
1001
ACAD
1000
DSTYLE
1002
{
1070
   289
1070
     1
1070
    73
1070
     0
1070
    74
1070
     0
1070
   271
1070
     2
1070
   272
1070
     2
1070
    48
1040
0.0
1070
    47
1040
0.0
1002
}
  0
DIMENSION
  5
957
330
6C
100
AcDbEntity
  8
Dimension (ANSI)
100
AcDbDimension
  2
*D12
 10
11.62627522318308
 20
27.00668739612753
 30
0.0
 11
6.016592040438467
 21
30.66866417611496
 31
0.0
 70
   163
  1
<>{\PTYP.(4PL.)}
 71
     3
 42
0.5
  3
Default (ANSI)
100
AcDbDiametricDimension
 15
11.27272183258974
 25
27.36024078672075
 35
0.0
 40
0.0
1001
ACAD_DSTYLE_DIMRADIAL_EXTENSION
1070
   387
1070
     1
1070
   388
1040
0.0
1070
   390
1040
0.0
1001
ACAD
1000
DSTYLE
1002
{
1070
   145
1040
-0.25
1070
   144
1040
0.9999999999999857
1070
   271
1070
     2
1070
   272
1070
     2
1070
    48
1040
0.0
1070
    47
1040
0.0
1002
}
  0
DIMENSION
  5
A11
330
6C
100
AcDbEntity
  8
Dimension (ANSI)
100
AcDbDimension
  2
*D13
 10
11.38736559044456
 20
10.91682922172033
 30
0.0
 11
14.78555539614442
 21
7.786215917393505
 31
0.0
 70
   163
  1
<>{\PTYP. (4PL.)}
 42
0.3125000000000009
  3
Default (ANSI)
100
AcDbDiametricDimension
 15
11.51163146532825
 25
10.63009896112792
 35
0.0
 40
0.0
1001
ACAD_DSTYLE_DIMRADIAL_EXTENSION
1070
   387
1070
     1
1070
   388
1040
0.0
1070
   390
1040
0.0
1001
ACAD
1000
DSTYLE
1002
{
1070
   145
1040
-0.25
1070
   144
1040
1.0
1070
   271
1070
     2
1070
   272
1070
     2
1070
    48
1040
0.0
1070
    47
1040
0.0
1002
}
  0
DIMENSION
  5
ACA
330
6C
100
AcDbEntity
  8
Dimension (ANSI)
100
AcDbDimension
  2
*D14
 10
11.4494985278864
 20
29.23247642824373
 30
0.0
 11
18.0294985278864
 21
29.23247642824373
 31
0.0
 70
   160
  1
<>
 42
13.16
  3
Default (ANSI)
100
AcDbAlignedDimension
 13
24.6094985278864
 23
27.18346409142413
 33
0.0
 14
11.4494985278864
 24
27.18346409142413
 34
0.0
 50
180.0
100
AcDbRotatedDimension
1001
ACAD
1000
DSTYLE
1002
{
1070
   289
1070
     1
1070
    73
1070
     0
1070
    74
1070
     0
1070
   271
1070
     3
1070
   272
1070
     3
1070
    48
1040
0.0
1070
    47
1040
0.0
1002
}
  0
ENDSEC
  0
SECTION
  2
OBJECTS
  0
DICTIONARY
  5
C
330
0
100
AcDbDictionary
281
     1
  3
ACAD_CIP_PREVIOUS_PRODUCT_INFO
350
BB4
  3
ACAD_COLOR
350
63
  3
ACAD_GROUP
350
D
  3
ACAD_LAYOUT
350
62
  3
ACAD_MATERIAL
350
10
  3
ACAD_MLEADERSTYLE
350
66
  3
ACAD_MLINESTYLE
350
5F
  3
ACAD_PLOTSETTINGS
350
61
  3
ACAD_PLOTSTYLENAME
350
E
  3
ACAD_SCALELIST
350
42
  3
ACAD_TABLESTYLE
350
64
  3
ACAD_VISUALSTYLE
350
29
  3
ACDB_RECOMPOSE_DATA
350
BC2
  3
AcDbVariableDictionary
350
D7
  3
DWGPROPS
350
BC3
  0
DICTIONARY
  5
BFF
330
A0B
100
AcDbDictionary
280
     1
281
     1
  3
ACAD_MTEXT_RT
360
C00
  0
DICTIONARY
  5
C01
330
AC4
100
AcDbDictionary
280
     1
281
     1
  3
ACAD_MTEXT_RT
360
C02
  0
XRECORD
  5
BB4
102
{ACAD_REACTORS
330
C
102
}
330
C
100
AcDbXrecord
280
     1
300
INVNTOR
300
2012
300
85795PDSP_2012_0F
  0
DICTIONARY
  5
63
102
{ACAD_REACTORS
330
C
102
}
330
C
100
AcDbDictionary
281
     1
  0
DICTIONARY
  5
D
102
{ACAD_REACTORS
330
C
102
}
330
C
100
AcDbDictionary
281
     1
  0
DICTIONARY
  5
62
102
{ACAD_REACTORS
330
C
102
}
330
C
100
AcDbDictionary
281
     1
  3
Layout1
350
6B
  3
Layout2
350
73
  3
Model
350
6F
  0
DICTIONARY
  5
10
102
{ACAD_REACTORS
330
C
102
}
330
C
100
AcDbDictionary
281
     1
  3
ByBlock
350
19
  3
ByLayer
350
11
  3
Global
350
21
  0
DICTIONARY
  5
66
102
{ACAD_REACTORS
330
C
102
}
330
C
100
AcDbDictionary
281
     1
  3
Standard
350
67
  0
DICTIONARY
  5
5F
102
{ACAD_REACTORS
330
C
102
}
330
C
100
AcDbDictionary
281
     1
  3
Standard
350
60
  0
DICTIONARY
  5
61
102
{ACAD_REACTORS
330
C
102
}
330
C
100
AcDbDictionary
281
     1
  0
ACDBDICTIONARYWDFLT
  5
E
102
{ACAD_REACTORS
330
C
102
}
330
C
100
AcDbDictionary
281
     1
  3
Normal
350
F
100
AcDbDictionaryWithDefault
340
F
  0
DICTIONARY
  5
42
102
{ACAD_REACTORS
330
C
102
}
330
C
100
AcDbDictionary
281
     1
  3
A0
350
43
  3
A1
350
44
  3
A2
350
45
  3
A3
350
46
  3
A4
350
47
  3
A5
350
48
  3
A6
350
49
  3
A7
350
4A
  3
A8
350
4B
  3
A9
350
4C
  3
B0
350
4D
  3
B1
350
4E
  3
B2
350
4F
  3
B3
350
50
  3
B4
350
51
  3
B5
350
52
  3
B6
350
53
  0
DICTIONARY
  5
64
102
{ACAD_REACTORS
330
C
102
}
330
C
100
AcDbDictionary
281
     1
  3
Standard
350
65
  0
DICTIONARY
  5
29
102
{ACAD_REACTORS
330
C
102
}
330
C
100
AcDbDictionary
281
     1
  3
2dWireframe
350
2F
  3
Basic
350
2E
  3
Brighten
350
35
  3
ColorChange
350
39
  3
Conceptual
350
32
  3
Dim
350
34
  3
EdgeColorOff
350
41
  3
Facepattern
350
38
  3
Flat
350
2A
  3
FlatWithEdges
350
2B
  3
Gouraud
350
2C
  3
GouraudWithEdges
350
2D
  3
Hidden
350
31
  3
JitterOff
350
3F
  3
Linepattern
350
37
  3
OverhangOff
350
40
  3
Realistic
350
33
  3
Shaded
350
3E
  3
Shaded with edges
350
3D
  3
Shades of Gray
350
3A
  3
Sketchy
350
3B
  3
Thicken
350
36
  3
Wireframe
350
30
  3
X-Ray
350
3C
  0
XRECORD
  5
BC2
102
{ACAD_REACTORS
330
C
102
}
330
C
100
AcDbXrecord
280
     1
 90
        1
330
65
  0
DICTIONARY
  5
D7
102
{ACAD_REACTORS
330
C
102
}
330
C
100
AcDbDictionary
281
     1
  3
CANNOSCALE
350
DA
  3
CMLEADERSTYLE
350
D9
  3
CTABLESTYLE
350
D8
  3
DIMASSOC
350
BBC
  3
HIDETEXT
350
BBB
  3
INDEXCTL
350
BBA
  3
LAYEREVAL
350
BB7
  3
LAYERNOTIFY
350
BB8
  3
LIGHTINGUNITS
350
BB6
  3
MSLTSCALE
350
BB5
  3
SORTENTS
350
BB9
  3
XCLIPFRAME
350
BBD
  0
XRECORD
  5
BC3
102
{ACAD_REACTORS
330
C
102
}
330
C
100
AcDbXrecord
280
     1
  1
DWGPROPS COOKIE
  2

  3

  4
EC
  6

  7

  8

  9
-
300
Manager=
301
Company=
302
Category=
303
Part Number=NP2016C
304
Description=NPC PANEL MASTER VIEW
305
Project=
306
Designer=EC
307
Engineer=
308
Authority=
309
Cost Center=
 40
0.0000448611111111
 41
2455944.477723507
 42
2455944.477723692
  1

 90
       20
300
Vendor=
300
User Status=
300
Design Status=WorkInProgress
300
Checked by=JG
300
Date Checked=02/19/2009
300
Engr Approved by=
300
Mfg Approved by=
300
DWG. NO=
300
NUMBER OF SHEETS=1
300
DRAWING #=1
  0
XRECORD
  5
C00
102
{ACAD_REACTORS
330
BFF
102
}
330
BFF
100
AcDbXrecord
280
     1
 40
29624.0
  1
\A1;\U+22050.50{\PTYP.(4PL.)}
  0
XRECORD
  5
C02
102
{ACAD_REACTORS
330
C01
102
}
330
C01
100
AcDbXrecord
280
     1
 40
30807.0
  1
\A1;\U+22050.31{\PTYP. (4PL.)}
  0
LAYOUT
  5
6B
102
{ACAD_XDICTIONARY
360
BF9
102
}
102
{ACAD_REACTORS
330
62
102
}
330
62
100
AcDbPlotSettings
  1

  2

  4

  6

 40
0.0
 41
0.0
 42
0.0
 43
0.0
 44
0.0
 45
0.0
 46
0.0
 47
0.0
 48
0.0
 49
0.0
140
0.0
141
0.0
142
1.0
143
1.0
 70
   688
 72
     0
 73
     0
 74
     5
  7

 75
    16
147
1.0
148
0.0
149
0.0
100
AcDbLayout
  1
Layout1
 70
     1
 71
     1
 10
0.0
 20
0.0
 11
12.0
 21
9.0
 12
0.0
 22
0.0
 32
0.0
 14
0.0
 24
0.0
 34
0.0
 15
0.0
 25
0.0
 35
0.0
146
0.0
 13
0.0
 23
0.0
 33
0.0
 16
1.0
 26
0.0
 36
0.0
 17
0.0
 27
1.0
 37
0.0
 76
     0
330
68
  0
LAYOUT
  5
73
102
{ACAD_XDICTIONARY
360
BFD
102
}
102
{ACAD_REACTORS
330
62
102
}
330
62
100
AcDbPlotSettings
  1

  2

  4

  6

 40
0.0
 41
0.0
 42
0.0
 43
0.0
 44
0.0
 45
0.0
 46
0.0
 47
0.0
 48
0.0
 49
0.0
140
0.0
141
0.0
142
1.0
143
1.0
 70
   688
 72
     0
 73
     0
 74
     5
  7

 75
    16
147
1.0
148
0.0
149
0.0
100
AcDbLayout
  1
Layout2
 70
     1
 71
     2
 10
0.0
 20
0.0
 11
12.0
 21
9.0
 12
0.0
 22
0.0
 32
0.0
 14
0.0
 24
0.0
 34
0.0
 15
0.0
 25
0.0
 35
0.0
146
0.0
 13
0.0
 23
0.0
 33
0.0
 16
1.0
 26
0.0
 36
0.0
 17
0.0
 27
1.0
 37
0.0
 76
     0
330
70
  0
LAYOUT
  5
6F
102
{ACAD_XDICTIONARY
360
BFB
102
}
102
{ACAD_REACTORS
330
62
102
}
330
62
100
AcDbPlotSettings
  1

  2

  4

  6

 40
0.0
 41
0.0
 42
0.0
 43
0.0
 44
0.0
 45
0.0
 46
0.0
 47
0.0
 48
0.0
 49
0.0
140
0.0
141
0.0
142
1.0
143
1.0
 70
  1712
 72
     0
 73
     0
 74
     0
  7

 75
     0
147
1.0
148
0.0
149
0.0
100
AcDbLayout
  1
Model
 70
     1
 71
     0
 10
0.0
 20
0.0
 11
12.0
 21
9.0
 12
0.0
 22
0.0
 32
0.0
 14
0.0
 24
0.0
 34
0.0
 15
0.0
 25
0.0
 35
0.0
146
0.0
 13
0.0
 23
0.0
 33
0.0
 16
1.0
 26
0.0
 36
0.0
 17
0.0
 27
1.0
 37
0.0
 76
     0
330
6C
  0
MATERIAL
  5
19
102
{ACAD_XDICTIONARY
360
1A
102
}
102
{ACAD_REACTORS
330
10
102
}
330
10
100
AcDbMaterial
  1
ByBlock
 72
     0
 43
0.0208333333333333
 43
0.0
 43
0.0
 43
0.0
 43
0.0
 43
0.0208333333333333
 43
0.0
 43
0.0
 43
0.0
 43
0.0
 43
1.0
 43
0.0
 43
0.0
 43
0.0
 43
0.0
 43
1.0
 77
     0
 47
0.0208333333333333
 47
0.0
 47
0.0
 47
0.0
 47
0.0
 47
0.0208333333333333
 47
0.0
 47
0.0
 47
0.0
 47
0.0
 47
1.0
 47
0.0
 47
0.0
 47
0.0
 47
0.0
 47
1.0
171
     0
 49
0.0208333333333333
 49
0.0
 49
0.0
 49
0.0
 49
0.0
 49
0.0208333333333333
 49
0.0
 49
0.0
 49
0.0
 49
0.0
 49
1.0
 49
0.0
 49
0.0
 49
0.0
 49
0.0
 49
1.0
175
     0
142
0.0208333333333333
142
0.0
142
0.0
142
0.0
142
0.0
142
0.0208333333333333
142
0.0
142
0.0
142
0.0
142
0.0
142
1.0
142
0.0
142
0.0
142
0.0
142
0.0
142
1.0
179
     0
144
0.0208333333333333
144
0.0
144
0.0
144
0.0
144
0.0
144
0.0208333333333333
144
0.0
144
0.0
144
0.0
144
0.0
144
1.0
144
0.0
144
0.0
144
0.0
144
0.0
144
1.0
147
0.0208333333333333
147
0.0
147
0.0
147
0.0
147
0.0
147
0.0208333333333333
147
0.0
147
0.0
147
0.0
147
0.0
147
1.0
147
0.0
147
0.0
147
0.0
147
0.0
147
1.0
  0
MATERIAL
  5
11
102
{ACAD_XDICTIONARY
360
12
102
}
102
{ACAD_REACTORS
330
10
102
}
330
10
100
AcDbMaterial
  1
ByLayer
 72
     0
 43
0.0208333333333333
 43
0.0
 43
0.0
 43
0.0
 43
0.0
 43
0.0208333333333333
 43
0.0
 43
0.0
 43
0.0
 43
0.0
 43
1.0
 43
0.0
 43
0.0
 43
0.0
 43
0.0
 43
1.0
 77
     0
 47
0.0208333333333333
 47
0.0
 47
0.0
 47
0.0
 47
0.0
 47
0.0208333333333333
 47
0.0
 47
0.0
 47
0.0
 47
0.0
 47
1.0
 47
0.0
 47
0.0
 47
0.0
 47
0.0
 47
1.0
171
     0
 49
0.0208333333333333
 49
0.0
 49
0.0
 49
0.0
 49
0.0
 49
0.0208333333333333
 49
0.0
 49
0.0
 49
0.0
 49
0.0
 49
1.0
 49
0.0
 49
0.0
 49
0.0
 49
0.0
 49
1.0
175
     0
142
0.0208333333333333
142
0.0
142
0.0
142
0.0
142
0.0
142
0.0208333333333333
142
0.0
142
0.0
142
0.0
142
0.0
142
1.0
142
0.0
142
0.0
142
0.0
142
0.0
142
1.0
179
     0
144
0.0208333333333333
144
0.0
144
0.0
144
0.0
144
0.0
144
0.0208333333333333
144
0.0
144
0.0
144
0.0
144
0.0
144
1.0
144
0.0
144
0.0
144
0.0
144
0.0
144
1.0
147
0.0208333333333333
147
0.0
147
0.0
147
0.0
147
0.0
147
0.0208333333333333
147
0.0
147
0.0
147
0.0
147
0.0
147
1.0
147
0.0
147
0.0
147
0.0
147
0.0
147
1.0
  0
MATERIAL
  5
21
102
{ACAD_XDICTIONARY
360
22
102
}
102
{ACAD_REACTORS
330
10
102
}
330
10
100
AcDbMaterial
  1
Global
 72
     0
 43
0.0208333333333333
 43
0.0
 43
0.0
 43
0.0
 43
0.0
 43
0.0208333333333333
 43
0.0
 43
0.0
 43
0.0
 43
0.0
 43
1.0
 43
0.0
 43
0.0
 43
0.0
 43
0.0
 43
1.0
 77
     0
 47
0.0208333333333333
 47
0.0
 47
0.0
 47
0.0
 47
0.0
 47
0.0208333333333333
 47
0.0
 47
0.0
 47
0.0
 47
0.0
 47
1.0
 47
0.0
 47
0.0
 47
0.0
 47
0.0
 47
1.0
171
     0
 49
0.0208333333333333
 49
0.0
 49
0.0
 49
0.0
 49
0.0
 49
0.0208333333333333
 49
0.0
 49
0.0
 49
0.0
 49
0.0
 49
1.0
 49
0.0
 49
0.0
 49
0.0
 49
0.0
 49
1.0
175
     0
142
0.0208333333333333
142
0.0
142
0.0
142
0.0
142
0.0
142
0.0208333333333333
142
0.0
142
0.0
142
0.0
142
0.0
142
1.0
142
0.0
142
0.0
142
0.0
142
0.0
142
1.0
179
     0
144
0.0208333333333333
144
0.0
144
0.0
144
0.0
144
0.0
144
0.0208333333333333
144
0.0
144
0.0
144
0.0
144
0.0
144
1.0
144
0.0
144
0.0
144
0.0
144
0.0
144
1.0
147
0.0208333333333333
147
0.0
147
0.0
147
0.0
147
0.0
147
0.0208333333333333
147
0.0
147
0.0
147
0.0
147
0.0
147
1.0
147
0.0
147
0.0
147
0.0
147
0.0
147
1.0
  0
MLEADERSTYLE
  5
67
102
{ACAD_XDICTIONARY
360
BC0
102
}
102
{ACAD_REACTORS
330
66
102
}
330
66
100
AcDbMLeaderStyle
170
     2
171
     1
172
     0
 90
        2
 40
0.0
 41
0.0
173
     1
 91
-1056964608
340
5B
 92
       -2
290
     1
 42
0.09
291
     1
 43
0.36
  3
Standard
 44
0.18
300

342
55
174
     1
178
     6
175
     1
176
     0
 93
-1056964608
 45
0.18
292
     0
297
     0
 46
0.18
 94
-1056964608
 47
1.0
 49
1.0
140
1.0
293
     1
141
0.0
294
     1
177
     0
142
1.0
295
     0
296
     0
143
0.125
1001
ACAD_MLEADERVER
1070
     2
  0
MLINESTYLE
  5
60
102
{ACAD_REACTORS
330
5F
102
}
330
5F
100
AcDbMlineStyle
  2
STANDARD
 70
     0
  3

 62
   256
 51
90.0
 52
90.0
 71
     2
 49
0.5
 62
   256
  6
BYLAYER
 49
-0.5
 62
   256
  6
BYLAYER
  0
ACDBPLACEHOLDER
  5
F
102
{ACAD_REACTORS
330
E
102
}
330
E
  0
SCALE
  5
43
102
{ACAD_REACTORS
330
42
102
}
330
42
100
AcDbScale
 70
     0
300
1:1
140
1.0
141
1.0
290
     1
  0
SCALE
  5
44
102
{ACAD_REACTORS
330
42
102
}
330
42
100
AcDbScale
 70
     0
300
1/128" = 1'-0"
140
0.0078125
141
12.0
290
     0
  0
SCALE
  5
45
102
{ACAD_REACTORS
330
42
102
}
330
42
100
AcDbScale
 70
     0
300
1/64" = 1'-0"
140
0.015625
141
12.0
290
     0
  0
SCALE
  5
46
102
{ACAD_REACTORS
330
42
102
}
330
42
100
AcDbScale
 70
     0
300
1/32" = 1'-0"
140
0.03125
141
12.0
290
     0
  0
SCALE
  5
47
102
{ACAD_REACTORS
330
42
102
}
330
42
100
AcDbScale
 70
     0
300
1/16" = 1'-0"
140
0.0625
141
12.0
290
     0
  0
SCALE
  5
48
102
{ACAD_REACTORS
330
42
102
}
330
42
100
AcDbScale
 70
     0
300
3/32" = 1'-0"
140
0.09375
141
12.0
290
     0
  0
SCALE
  5
49
102
{ACAD_REACTORS
330
42
102
}
330
42
100
AcDbScale
 70
     0
300
1/8" = 1'-0"
140
0.125
141
12.0
290
     0
  0
SCALE
  5
4A
102
{ACAD_REACTORS
330
42
102
}
330
42
100
AcDbScale
 70
     0
300
3/16" = 1'-0"
140
0.1875
141
12.0
290
     0
  0
SCALE
  5
4B
102
{ACAD_REACTORS
330
42
102
}
330
42
100
AcDbScale
 70
     0
300
1/4" = 1'-0"
140
0.25
141
12.0
290
     0
  0
SCALE
  5
4C
102
{ACAD_REACTORS
330
42
102
}
330
42
100
AcDbScale
 70
     0
300
3/8" = 1'-0"
140
0.375
141
12.0
290
     0
  0
SCALE
  5
4D
102
{ACAD_REACTORS
330
42
102
}
330
42
100
AcDbScale
 70
     0
300
1/2" = 1'-0"
140
0.5
141
12.0
290
     0
  0
SCALE
  5
4E
102
{ACAD_REACTORS
330
42
102
}
330
42
100
AcDbScale
 70
     0
300
3/4" = 1'-0"
140
0.75
141
12.0
290
     0
  0
SCALE
  5
4F
102
{ACAD_REACTORS
330
42
102
}
330
42
100
AcDbScale
 70
     0
300
1" = 1'-0"
140
1.0
141
12.0
290
     0
  0
SCALE
  5
50
102
{ACAD_REACTORS
330
42
102
}
330
42
100
AcDbScale
 70
     0
300
1-1/2" = 1'-0"
140
1.5
141
12.0
290
     0
  0
SCALE
  5
51
102
{ACAD_REACTORS
330
42
102
}
330
42
100
AcDbScale
 70
     0
300
3" = 1'-0"
140
3.0
141
12.0
290
     0
  0
SCALE
  5
52
102
{ACAD_REACTORS
330
42
102
}
330
42
100
AcDbScale
 70
     0
300
6" = 1'-0"
140
6.0
141
12.0
290
     0
  0
SCALE
  5
53
102
{ACAD_REACTORS
330
42
102
}
330
42
100
AcDbScale
 70
     0
300
1'-0" = 1'-0"
140
12.0
141
12.0
290
     0
  0
TABLESTYLE
  5
65
102
{ACAD_XDICTIONARY
360
BBE
102
}
102
{ACAD_REACTORS
330
64
102
}
330
64
100
AcDbTableStyle
  3
Standard
 70
     0
 71
     0
 40
0.06
 41
0.06
280
     0
281
     0
  7
Standard
140
0.18
170
     2
 62
     0
 63
     7
283
     0
274
    -2
284
     1
 64
     0
275
    -2
285
     1
 65
     0
276
    -2
286
     1
 66
     0
277
    -2
287
     1
 67
     0
278
    -2
288
     1
 68
     0
279
    -2
289
     1
 69
     0
  7
Standard
140
0.25
170
     5
 62
     0
 63
     7
283
     0
274
    -2
284
     1
 64
     0
275
    -2
285
     1
 65
     0
276
    -2
286
     1
 66
     0
277
    -2
287
     1
 67
     0
278
    -2
288
     1
 68
     0
279
    -2
289
     1
 69
     0
  7
Standard
140
0.18
170
     5
 62
     0
 63
     7
283
     0
274
    -2
284
     1
 64
     0
275
    -2
285
     1
 65
     0
276
    -2
286
     1
 66
     0
277
    -2
287
     1
 67
     0
278
    -2
288
     1
 68
     0
279
    -2
289
     1
 69
     0
  0
VISUALSTYLE
  5
2F
102
{ACAD_XDICTIONARY
360
BD1
102
}
102
{ACAD_REACTORS
330
29
102
}
330
29
100
AcDbVisualStyle
  2
2dWireframe
 70
     4
 71
     0
 72
     2
 73
     0
 90
        0
 40
-0.6
 41
-30.0
 62
     5
 63
     7
 74
     1
 91
        4
 64
     7
 65
   257
 75
     1
175
     1
 42
1.0
 92
        0
 66
   257
 43
1.0
 76
     1
 77
     6
 78
     2
 67
     7
 79
     5
170
     0
171
     0
290
     0
174
     0
 93
        1
 44
0.0
173
     0
291
     0
 45
0.0
1001
ACAD
1000
AcDbSavedByObjectVersion
1070
     0
  0
VISUALSTYLE
  5
2E
102
{ACAD_XDICTIONARY
360
BCF
102
}
102
{ACAD_REACTORS
330
29
102
}
330
29
100
AcDbVisualStyle
  2
Basic
 70
     7
 71
     1
 72
     0
 73
     1
 90
        0
 40
-0.6
 41
-30.0
 62
     5
 63
     7
 74
     0
 91
        4
 64
     7
 65
   257
 75
     1
175
     1
 42
1.0
 92
        8
 66
     7
 43
1.0
 76
     1
 77
     6
 78
     2
 67
     7
 79
     5
170
     0
171
     0
290
     0
174
     0
 93
        1
 44
0.0
173
     0
291
     1
 45
0.0
1001
ACAD
1000
AcDbSavedByObjectVersion
1070
     0
  0
VISUALSTYLE
  5
35
102
{ACAD_XDICTIONARY
360
BDD
102
}
102
{ACAD_REACTORS
330
29
102
}
330
29
100
AcDbVisualStyle
  2
Brighten
 70
    12
 71
     2
 72
     2
 73
     0
 90
        0
 40
-0.6
 41
-30.0
 62
     5
 63
     7
 74
     1
 91
        4
 64
     7
 65
   257
 75
     1
175
     1
 42
1.0
 92
        8
 66
     7
 43
1.0
 76
     1
 77
     6
 78
     2
 67
     7
 79
     5
170
     0
171
     0
290
     0
174
     0
 93
        1
 44
50.0
173
     0
291
     1
 45
0.0
1001
ACAD
1000
AcDbSavedByObjectVersion
1070
     0
  0
VISUALSTYLE
  5
39
102
{ACAD_XDICTIONARY
360
BE5
102
}
102
{ACAD_REACTORS
330
29
102
}
330
29
100
AcDbVisualStyle
  2
ColorChange
 70
    16
 71
     2
 72
     2
 73
     3
 90
        0
 40
-0.6
 41
-30.0
 62
     5
 63
     8
 74
     1
 91
        4
 64
     7
 65
   257
 75
     1
175
     1
 42
1.0
 92
        8
 66
     8
 43
1.0
 76
     1
 77
     6
 78
     2
 67
     7
 79
     5
170
     0
171
     0
290
     0
174
     0
 93
        1
 44
0.0
173
     0
291
     1
 45
0.0
1001
ACAD
1000
AcDbSavedByObjectVersion
1070
     0
  0
VISUALSTYLE
  5
32
102
{ACAD_XDICTIONARY
360
BD7
102
}
102
{ACAD_REACTORS
330
29
102
}
330
29
100
AcDbVisualStyle
  2
Conceptual
 70
     9
 71
     3
 72
     2
 73
     0
 90
        0
 40
-0.6
 41
-30.0
 62
     5
 63
     7
 74
     2
 91
        2
 64
     7
 65
   257
 75
     1
175
     1
 42
179.0
 92
        8
 66
     7
 43
1.0
 76
     1
 77
     6
 78
     2
 67
     7
 79
     3
170
     0
171
     0
290
     0
174
     0
 93
        1
 44
0.0
173
     0
291
     0
 45
0.0
1001
ACAD
1000
AcDbSavedByObjectVersion
1070
     0
  0
VISUALSTYLE
  5
34
102
{ACAD_XDICTIONARY
360
BDB
102
}
102
{ACAD_REACTORS
330
29
102
}
330
29
100
AcDbVisualStyle
  2
Dim
 70
    11
 71
     2
 72
     2
 73
     0
 90
        0
 40
-0.6
 41
-30.0
 62
     5
 63
     7
 74
     1
 91
        4
 64
     7
 65
   257
 75
     1
175
     1
 42
1.0
 92
        8
 66
     7
 43
1.0
 76
     1
 77
     6
 78
     2
 67
     7
 79
     5
170
     0
171
     0
290
     0
174
     0
 93
        1
 44
-50.0
173
     0
291
     1
 45
0.0
1001
ACAD
1000
AcDbSavedByObjectVersion
1070
     0
  0
VISUALSTYLE
  5
41
102
{ACAD_XDICTIONARY
360
BF5
102
}
102
{ACAD_REACTORS
330
29
102
}
330
29
100
AcDbVisualStyle
  2
EdgeColorOff
 70
    22
 71
     2
 72
     2
 73
     0
 90
        0
 40
-0.6
 41
-30.0
 62
     5
 63
     7
 74
     1
 91
        4
 64
     7
 65
   257
 75
     1
175
     1
 42
1.0
 92
        8
 66
     7
 43
1.0
 76
     1
 77
     6
 78
     2
 67
     7
 79
     5
170
     0
171
     0
290
     0
174
     0
 93
        1
 44
0.0
173
     0
291
     1
 45
0.0
1001
ACAD
1000
AcDbSavedByObjectVersion
1070
     0
  0
VISUALSTYLE
  5
38
102
{ACAD_XDICTIONARY
360
BE3
102
}
102
{ACAD_REACTORS
330
29
102
}
330
29
100
AcDbVisualStyle
  2
Facepattern
 70
    15
 71
     2
 72
     2
 73
     0
 90
        0
 40
-0.6
 41
-30.0
 62
     5
 63
     7
 74
     1
 91
        4
 64
     7
 65
   257
 75
     1
175
     1
 42
1.0
 92
        8
 66
     7
 43
1.0
 76
     1
 77
     6
 78
     2
 67
     7
 79
     5
170
     0
171
     0
290
     0
174
     0
 93
        1
 44
0.0
173
     0
291
     1
 45
0.0
1001
ACAD
1000
AcDbSavedByObjectVersion
1070
     0
  0
VISUALSTYLE
  5
2A
102
{ACAD_XDICTIONARY
360
BC7
102
}
102
{ACAD_REACTORS
330
29
102
}
330
29
100
AcDbVisualStyle
  2
Flat
 70
     0
 71
     2
 72
     1
 73
     1
 90
        2
 40
-0.6
 41
30.0
 62
     5
 63
     7
 74
     0
 91
        0
 64
     7
 65
   257
 75
     1
175
     1
 42
1.0
 92
        8
 66
     7
 43
1.0
 76
     1
 77
     6
 78
     2
 67
     7
 79
     5
170
     0
171
     0
290
     0
174
     0
 93
       13
 44
0.0
173
     0
291
     1
 45
0.0
1001
ACAD
1000
AcDbSavedByObjectVersion
1070
     0
  0
VISUALSTYLE
  5
2B
102
{ACAD_XDICTIONARY
360
BC9
102
}
102
{ACAD_REACTORS
330
29
102
}
330
29
100
AcDbVisualStyle
  2
FlatWithEdges
 70
     1
 71
     2
 72
     1
 73
     1
 90
        2
 40
-0.6
 41
30.0
 62
     5
 63
     7
 74
     1
 91
        0
 64
     7
 65
   257
 75
     1
175
     1
 42
1.0
 92
        0
 66
   257
 43
1.0
 76
     1
 77
     6
 78
     2
 67
     7
 79
     5
170
     0
171
     0
290
     0
174
     0
 93
       13
 44
0.0
173
     0
291
     1
 45
0.0
1001
ACAD
1000
AcDbSavedByObjectVersion
1070
     0
  0
VISUALSTYLE
  5
2C
102
{ACAD_XDICTIONARY
360
BCB
102
}
102
{ACAD_REACTORS
330
29
102
}
330
29
100
AcDbVisualStyle
  2
Gouraud
 70
     2
 71
     2
 72
     2
 73
     1
 90
        2
 40
-0.6
 41
30.0
 62
     5
 63
     7
 74
     0
 91
        0
 64
     7
 65
   257
 75
     1
175
     1
 42
1.0
 92
        0
 66
     7
 43
1.0
 76
     1
 77
     6
 78
     2
 67
     7
 79
     5
170
     0
171
     0
290
     0
174
     0
 93
       13
 44
0.0
173
     0
291
     1
 45
0.0
1001
ACAD
1000
AcDbSavedByObjectVersion
1070
     0
  0
VISUALSTYLE
  5
2D
102
{ACAD_XDICTIONARY
360
BCD
102
}
102
{ACAD_REACTORS
330
29
102
}
330
29
100
AcDbVisualStyle
  2
GouraudWithEdges
 70
     3
 71
     2
 72
     2
 73
     1
 90
        2
 40
-0.6
 41
30.0
 62
     5
 63
     7
 74
     1
 91
        0
 64
     7
 65
   257
 75
     1
175
     1
 42
1.0
 92
        0
 66
   257
 43
1.0
 76
     1
 77
     6
 78
     2
 67
     7
 79
     5
170
     0
171
     0
290
     0
174
     0
 93
       13
 44
0.0
173
     0
291
     1
 45
0.0
1001
ACAD
1000
AcDbSavedByObjectVersion
1070
     0
  0
VISUALSTYLE
  5
31
102
{ACAD_XDICTIONARY
360
BD5
102
}
102
{ACAD_REACTORS
330
29
102
}
330
29
100
AcDbVisualStyle
  2
Hidden
 70
     6
 71
     1
 72
     2
 73
     2
 90
        0
 40
-0.6
 41
-30.0
 62
     5
 63
     7
 74
     2
 91
        2
 64
     7
 65
   257
 75
     2
175
     1
 42
40.0
 92
        0
 66
   257
 43
1.0
 76
     1
 77
     6
 78
     2
 67
     7
 79
     3
170
     0
171
     0
290
     0
174
     0
 93
        1
 44
0.0
173
     0
291
     0
 45
0.0
1001
ACAD
1000
AcDbSavedByObjectVersion
1070
     0
  0
VISUALSTYLE
  5
3F
102
{ACAD_XDICTIONARY
360
BF1
102
}
102
{ACAD_REACTORS
330
29
102
}
330
29
100
AcDbVisualStyle
  2
JitterOff
 70
    20
 71
     2
 72
     2
 73
     0
 90
        0
 40
-0.6
 41
-30.0
 62
     5
 63
     7
 74
     1
 91
        4
 64
     7
 65
   257
 75
     1
175
     1
 42
1.0
 92
       10
 66
     7
 43
1.0
 76
     1
 77
     6
 78
     2
 67
     7
 79
     5
170
     0
171
     0
290
     0
174
     0
 93
        1
 44
0.0
173
     0
291
     1
 45
0.0
1001
ACAD
1000
AcDbSavedByObjectVersion
1070
     0
  0
VISUALSTYLE
  5
37
102
{ACAD_XDICTIONARY
360
BE1
102
}
102
{ACAD_REACTORS
330
29
102
}
330
29
100
AcDbVisualStyle
  2
Linepattern
 70
    14
 71
     2
 72
     2
 73
     0
 90
        0
 40
-0.6
 41
-30.0
 62
     5
 63
     7
 74
     1
 91
        4
 64
     7
 65
   257
 75
     7
175
     7
 42
1.0
 92
        8
 66
     7
 43
1.0
 76
     1
 77
     6
 78
     2
 67
     7
 79
     5
170
     0
171
     0
290
     0
174
     0
 93
        1
 44
0.0
173
     0
291
     1
 45
0.0
1001
ACAD
1000
AcDbSavedByObjectVersion
1070
     0
  0
VISUALSTYLE
  5
40
102
{ACAD_XDICTIONARY
360
BF3
102
}
102
{ACAD_REACTORS
330
29
102
}
330
29
100
AcDbVisualStyle
  2
OverhangOff
 70
    21
 71
     2
 72
     2
 73
     0
 90
        0
 40
-0.6
 41
-30.0
 62
     5
 63
     7
 74
     1
 91
        4
 64
     7
 65
   257
 75
     1
175
     1
 42
1.0
 92
        9
 66
     7
 43
1.0
 76
     1
 77
     6
 78
     2
 67
     7
 79
     5
170
     0
171
     0
290
     0
174
     0
 93
        1
 44
0.0
173
     0
291
     1
 45
0.0
1001
ACAD
1000
AcDbSavedByObjectVersion
1070
     0
  0
VISUALSTYLE
  5
33
102
{ACAD_XDICTIONARY
360
BD9
102
}
102
{ACAD_REACTORS
330
29
102
}
330
29
100
AcDbVisualStyle
  2
Realistic
 70
     8
 71
     2
 72
     3
 73
     0
 90
        2
 40
-0.6
 41
30.0
 62
     5
 63
     7
 74
     0
 91
        0
 64
     7
 65
   257
 75
     1
175
     1
 42
1.0
 92
        8
 66
   257
 43
1.0
 76
     1
 77
     6
 78
     2
 67
     7
 79
     3
170
     0
171
     0
290
     0
174
     0
 93
       13
 44
0.0
173
     0
291
     0
 45
0.0
1001
ACAD
1000
AcDbSavedByObjectVersion
1070
     0
  0
VISUALSTYLE
  5
3E
102
{ACAD_XDICTIONARY
360
BEF
102
}
102
{ACAD_REACTORS
330
29
102
}
330
29
100
AcDbVisualStyle
  2
Shaded
 70
    27
 71
     2
 72
     2
 73
     1
 90
        2
 40
-0.6
 41
30.0
 62
     5
 63
     7
 74
     0
 91
        4
 64
     7
 65
   257
 75
     1
175
     1
 42
1.0
 92
        8
 66
   257
 43
1.0
 76
     1
 77
     6
 78
     2
 67
     8
 79
     3
170
     0
171
     0
290
     0
174
     0
 93
        5
 44
0.0
173
     0
291
     0
 45
0.0
1001
ACAD
1000
AcDbSavedByObjectVersion
1070
     0
  0
VISUALSTYLE
  5
3D
102
{ACAD_XDICTIONARY
360
BED
102
}
102
{ACAD_REACTORS
330
29
102
}
330
29
100
AcDbVisualStyle
  2
Shaded with edges
 70
    26
 71
     2
 72
     2
 73
     1
 90
        2
 40
-0.6
 41
30.0
 62
     5
 63
     7
 74
     1
 91
       10
 64
     7
 65
   257
 75
     2
175
     1
 42
1.0
 92
        8
 66
   257
 43
1.0
 76
     1
 77
     6
 78
     2
 67
     7
 79
     3
170
     0
171
     0
290
     0
174
     0
 93
        5
 44
0.0
173
     0
291
     0
 45
0.0
1001
ACAD
1000
AcDbSavedByObjectVersion
1070
     0
  0
VISUALSTYLE
  5
3A
102
{ACAD_XDICTIONARY
360
BE7
102
}
102
{ACAD_REACTORS
330
29
102
}
330
29
100
AcDbVisualStyle
  2
Shades of Gray
 70
    23
 71
     2
 72
     2
 73
     3
 90
        0
 40
-0.6
 41
-30.0
 62
     5
 63
     7
 74
     2
 91
        2
 64
     7
 65
     7
 75
     1
175
     1
 42
40.0
 92
        8
 66
     7
 43
1.0
 76
     1
 77
     6
 78
     2
 67
     7
 79
     3
170
     0
171
     0
290
     0
174
     0
 93
        1
 44
0.0
173
     0
291
     0
 45
0.0
1001
ACAD
1000
AcDbSavedByObjectVersion
1070
     0
  0
VISUALSTYLE
  5
3B
102
{ACAD_XDICTIONARY
360
BE9
102
}
102
{ACAD_REACTORS
330
29
102
}
330
29
100
AcDbVisualStyle
  2
Sketchy
 70
    24
 71
     1
 72
     2
 73
     2
 90
        0
 40
-0.6
 41
-30.0
 62
     5
 63
     7
 74
     2
 91
        2
 64
     7
 65
     7
 75
     1
175
     1
 42
40.0
 92
       11
 66
     7
 43
1.0
 76
     1
 77
     6
 78
     2
 67
     7
 79
     6
170
     0
171
     0
290
     0
174
     0
 93
        1
 44
0.0
173
     0
291
     0
 45
0.0
1001
ACAD
1000
AcDbSavedByObjectVersion
1070
     0
  0
VISUALSTYLE
  5
36
102
{ACAD_XDICTIONARY
360
BDF
102
}
102
{ACAD_REACTORS
330
29
102
}
330
29
100
AcDbVisualStyle
  2
Thicken
 70
    13
 71
     2
 72
     2
 73
     0
 90
        0
 40
-0.6
 41
-30.0
 62
     5
 63
     7
 74
     1
 91
        4
 64
     7
 65
   257
 75
     1
175
     1
 42
1.0
 92
       12
 66
     7
 43
1.0
 76
     1
 77
     6
 78
     2
 67
     7
 79
     5
170
     0
171
     0
290
     0
174
     0
 93
        1
 44
0.0
173
     0
291
     1
 45
0.0
1001
ACAD
1000
AcDbSavedByObjectVersion
1070
     0
  0
VISUALSTYLE
  5
30
102
{ACAD_XDICTIONARY
360
BD3
102
}
102
{ACAD_REACTORS
330
29
102
}
330
29
100
AcDbVisualStyle
  2
Wireframe
 70
     5
 71
     0
 72
     2
 73
     0
 90
        0
 40
-0.6
 41
-30.0
 62
     5
 63
     7
 74
     1
 91
        4
 64
     7
 65
   257
 75
     1
175
     1
 42
1.0
 92
        0
 66
   257
 43
1.0
 76
     1
 77
     6
 78
     2
 67
     7
 79
     3
170
     0
171
     0
290
     0
174
     0
 93
        1
 44
0.0
173
     0
291
     0
 45
0.0
1001
ACAD
1000
AcDbSavedByObjectVersion
1070
     0
  0
VISUALSTYLE
  5
3C
102
{ACAD_XDICTIONARY
360
BEB
102
}
102
{ACAD_REACTORS
330
29
102
}
330
29
100
AcDbVisualStyle
  2
X-Ray
 70
    25
 71
     2
 72
     2
 73
     1
 90
        1
 40
0.5
 41
-30.0
 62
     5
 63
     7
 74
     1
 91
        0
 64
     7
 65
   257
 75
     1
175
     1
 42
1.0
 92
        8
 66
     7
 43
1.0
 76
     1
 77
     6
 78
     2
 67
     7
 79
     3
170
     0
171
     0
290
     0
174
     0
 93
       13
 44
0.0
173
     0
291
     0
 45
0.0
1001
ACAD
1000
AcDbSavedByObjectVersion
1070
     0
  0
DICTIONARYVAR
  5
DA
102
{ACAD_REACTORS
330
D7
102
}
330
D7
100
DictionaryVariables
280
     0
  1
1:1
  0
DICTIONARYVAR
  5
D9
102
{ACAD_REACTORS
330
D7
102
}
330
D7
100
DictionaryVariables
280
     0
  1
STANDARD
  0
DICTIONARYVAR
  5
D8
102
{ACAD_REACTORS
330
D7
102
}
330
D7
100
DictionaryVariables
280
     0
  1
STANDARD
  0
DICTIONARYVAR
  5
BBC
102
{ACAD_REACTORS
330
D7
102
}
330
D7
100
DictionaryVariables
280
     0
  1
1
  0
DICTIONARYVAR
  5
BBB
102
{ACAD_REACTORS
330
D7
102
}
330
D7
100
DictionaryVariables
280
     0
  1
1
  0
DICTIONARYVAR
  5
BBA
102
{ACAD_REACTORS
330
D7
102
}
330
D7
100
DictionaryVariables
280
     0
  1
0
  0
DICTIONARYVAR
  5
BB7
102
{ACAD_REACTORS
330
D7
102
}
330
D7
100
DictionaryVariables
280
     0
  1
0
  0
DICTIONARYVAR
  5
BB8
102
{ACAD_REACTORS
330
D7
102
}
330
D7
100
DictionaryVariables
280
     0
  1
0
  0
DICTIONARYVAR
  5
BB6
102
{ACAD_REACTORS
330
D7
102
}
330
D7
100
DictionaryVariables
280
     0
  1
2
  0
DICTIONARYVAR
  5
BB5
102
{ACAD_REACTORS
330
D7
102
}
330
D7
100
DictionaryVariables
280
     0
  1
1
  0
DICTIONARYVAR
  5
BB9
102
{ACAD_REACTORS
330
D7
102
}
330
D7
100
DictionaryVariables
280
     0
  1
127
  0
DICTIONARYVAR
  5
BBD
102
{ACAD_REACTORS
330
D7
102
}
330
D7
100
DictionaryVariables
280
     0
  1
2
  0
DICTIONARY
  5
BF9
330
6B
100
AcDbDictionary
280
     1
281
     1
  3
ACAD_XREC_ROUNDTRIP
360
BFA
  0
DICTIONARY
  5
BFD
330
73
100
AcDbDictionary
280
     1
281
     1
  3
ACAD_XREC_ROUNDTRIP
360
BFE
  0
DICTIONARY
  5
BFB
330
6F
100
AcDbDictionary
280
     1
281
     1
  3
ACAD_XREC_ROUNDTRIP
360
BFC
  0
DICTIONARY
  5
1A
330
19
100
AcDbDictionary
280
     1
281
     1
  3
ACAD_XREC_ROUNDTRIP
360
BC5
  3
BUMPTILE
360
1C
  3
DIFFUSETILE
360
1B
  3
OPACITYTILE
360
1F
  3
REFLECTIONTILE
360
1E
  3
REFRACTIONTILE
360
20
  3
SPECULARTILE
360
1D
  0
DICTIONARY
  5
12
330
11
100
AcDbDictionary
280
     1
281
     1
  3
ACAD_XREC_ROUNDTRIP
360
BC4
  3
BUMPTILE
360
14
  3
DIFFUSETILE
360
13
  3
FBXASSET
360
170
  3
OPACITYTILE
360
17
  3
REFLECTIONTILE
360
16
  3
REFRACTIONTILE
360
18
  3
SPECULARTILE
360
15
  0
DICTIONARY
  5
22
330
21
100
AcDbDictionary
280
     1
281
     1
  3
ACAD_XREC_ROUNDTRIP
360
BC6
  3
BUMPTILE
360
24
  3
DIFFUSETILE
360
23
  3
FBXASSET
360
11B
  3
OPACITYTILE
360
27
  3
REFLECTIONTILE
360
26
  3
REFRACTIONTILE
360
28
  3
SPECULARTILE
360
25
  0
DICTIONARY
  5
BC0
330
67
100
AcDbDictionary
280
     1
281
     1
  3
ACAD_XREC_ROUNDTRIP
360
BC1
  0
DICTIONARY
  5
BBE
330
65
100
AcDbDictionary
280
     1
281
     1
  3
ACAD_ROUNDTRIP_2008_TABLESTYLE_CELLSTYLEMAP
360
BBF
  3
ACAD_XREC_ROUNDTRIP
360
BF7
  0
DICTIONARY
  5
BD1
330
2F
100
AcDbDictionary
280
     1
281
     1
  3
ACAD_XREC_ROUNDTRIP
360
BD2
  0
DICTIONARY
  5
BCF
330
2E
100
AcDbDictionary
280
     1
281
     1
  3
ACAD_XREC_ROUNDTRIP
360
BD0
  0
DICTIONARY
  5
BDD
330
35
100
AcDbDictionary
280
     1
281
     1
  3
ACAD_XREC_ROUNDTRIP
360
BDE
  0
DICTIONARY
  5
BE5
330
39
100
AcDbDictionary
280
     1
281
     1
  3
ACAD_XREC_ROUNDTRIP
360
BE6
  0
DICTIONARY
  5
BD7
330
32
100
AcDbDictionary
280
     1
281
     1
  3
ACAD_XREC_ROUNDTRIP
360
BD8
  0
DICTIONARY
  5
BDB
330
34
100
AcDbDictionary
280
     1
281
     1
  3
ACAD_XREC_ROUNDTRIP
360
BDC
  0
DICTIONARY
  5
BF5
330
41
100
AcDbDictionary
280
     1
281
     1
  3
ACAD_XREC_ROUNDTRIP
360
BF6
  0
DICTIONARY
  5
BE3
330
38
100
AcDbDictionary
280
     1
281
     1
  3
ACAD_XREC_ROUNDTRIP
360
BE4
  0
DICTIONARY
  5
BC7
330
2A
100
AcDbDictionary
280
     1
281
     1
  3
ACAD_XREC_ROUNDTRIP
360
BC8
  0
DICTIONARY
  5
BC9
330
2B
100
AcDbDictionary
280
     1
281
     1
  3
ACAD_XREC_ROUNDTRIP
360
BCA
  0
DICTIONARY
  5
BCB
330
2C
100
AcDbDictionary
280
     1
281
     1
  3
ACAD_XREC_ROUNDTRIP
360
BCC
  0
DICTIONARY
  5
BCD
330
2D
100
AcDbDictionary
280
     1
281
     1
  3
ACAD_XREC_ROUNDTRIP
360
BCE
  0
DICTIONARY
  5
BD5
330
31
100
AcDbDictionary
280
     1
281
     1
  3
ACAD_XREC_ROUNDTRIP
360
BD6
  0
DICTIONARY
  5
BF1
330
3F
100
AcDbDictionary
280
     1
281
     1
  3
ACAD_XREC_ROUNDTRIP
360
BF2
  0
DICTIONARY
  5
BE1
330
37
100
AcDbDictionary
280
     1
281
     1
  3
ACAD_XREC_ROUNDTRIP
360
BE2
  0
DICTIONARY
  5
BF3
330
40
100
AcDbDictionary
280
     1
281
     1
  3
ACAD_XREC_ROUNDTRIP
360
BF4
  0
DICTIONARY
  5
BD9
330
33
100
AcDbDictionary
280
     1
281
     1
  3
ACAD_XREC_ROUNDTRIP
360
BDA
  0
DICTIONARY
  5
BEF
330
3E
100
AcDbDictionary
280
     1
281
     1
  3
ACAD_XREC_ROUNDTRIP
360
BF0
  0
DICTIONARY
  5
BED
330
3D
100
AcDbDictionary
280
     1
281
     1
  3
ACAD_XREC_ROUNDTRIP
360
BEE
  0
DICTIONARY
  5
BE7
330
3A
100
AcDbDictionary
280
     1
281
     1
  3
ACAD_XREC_ROUNDTRIP
360
BE8
  0
DICTIONARY
  5
BE9
330
3B
100
AcDbDictionary
280
     1
281
     1
  3
ACAD_XREC_ROUNDTRIP
360
BEA
  0
DICTIONARY
  5
BDF
330
36
100
AcDbDictionary
280
     1
281
     1
  3
ACAD_XREC_ROUNDTRIP
360
BE0
  0
DICTIONARY
  5
BD3
330
30
100
AcDbDictionary
280
     1
281
     1
  3
ACAD_XREC_ROUNDTRIP
360
BD4
  0
DICTIONARY
  5
BEB
330
3C
100
AcDbDictionary
280
     1
281
     1
  3
ACAD_XREC_ROUNDTRIP
360
BEC
  0
XRECORD
  5
BFA
102
{ACAD_REACTORS
330
BF9
102
}
330
BF9
100
AcDbXrecord
280
     1
102
SHADEPLOT
 70
     0
102
SHADEPLOTRESLEVEL
 70
     2
102
SHADEPLOTCUSTOMDPI
 70
   300
  0
XRECORD
  5
BFE
102
{ACAD_REACTORS
330
BFD
102
}
330
BFD
100
AcDbXrecord
280
     1
102
SHADEPLOT
 70
     0
102
SHADEPLOTRESLEVEL
 70
     2
102
SHADEPLOTCUSTOMDPI
 70
   300
  0
XRECORD
  5
BFC
102
{ACAD_REACTORS
330
BFB
102
}
330
BFB
100
AcDbXrecord
280
     1
102
SHADEPLOT
 70
     0
102
SHADEPLOTRESLEVEL
 70
     2
102
SHADEPLOTCUSTOMDPI
 70
   300
  0
XRECORD
  5
BC5
102
{ACAD_REACTORS
330
1A
102
}
330
1A
100
AcDbXrecord
280
     1
102
MATERIAL
148
0.0
149
0.0
149
0.0
 93
        0
 94
      127
282
     0
 72
     0
 77
     0
171
     0
175
     0
179
     0
273
     0
  0
XRECORD
  5
1C
102
{ACAD_REACTORS
330
1A
102
}
330
1A
100
AcDbXrecord
280
     1
270
     1
271
     1
  0
XRECORD
  5
1B
102
{ACAD_REACTORS
330
1A
102
}
330
1A
100
AcDbXrecord
280
     1
270
     1
271
     1
  0
XRECORD
  5
1F
102
{ACAD_REACTORS
330
1A
102
}
330
1A
100
AcDbXrecord
280
     1
270
     1
271
     1
  0
XRECORD
  5
1E
102
{ACAD_REACTORS
330
1A
102
}
330
1A
100
AcDbXrecord
280
     1
270
     1
271
     1
  0
XRECORD
  5
20
102
{ACAD_REACTORS
330
1A
102
}
330
1A
100
AcDbXrecord
280
     1
270
     1
271
     1
  0
XRECORD
  5
1D
102
{ACAD_REACTORS
330
1A
102
}
330
1A
100
AcDbXrecord
280
     1
270
     1
271
     1
  0
XRECORD
  5
BC4
102
{ACAD_REACTORS
330
12
102
}
330
12
100
AcDbXrecord
280
     1
102
MATERIAL
148
0.0
149
0.0
149
0.0
 93
        0
 94
      127
282
     0
 72
     0
 77
     0
171
     0
175
     0
179
     0
273
     0
  0
XRECORD
  5
14
102
{ACAD_REACTORS
330
12
102
}
330
12
100
AcDbXrecord
280
     1
270
     1
271
     1
  0
XRECORD
  5
13
102
{ACAD_REACTORS
330
12
102
}
330
12
100
AcDbXrecord
280
     1
270
     1
271
     1
  0
XRECORD
  5
170
102
{ACAD_REACTORS
330
12
102
}
330
12
100
AcDbXrecord
280
     1
 70
     1
 90
1959938040
 71
     1
  1
88D431D9-3DA7-4320-B552-A7352079E9D5
311
504B03040A00000800007D5B31403DEE336E79000000790000001B0000006175746F6465736B2D64657369676E2D7061636B6167652E786D6C3C3F786D6C2076657273696F6E3D22312E302220656E636F64696E673D227574662D3822203F3E3C666F726D6174733E3C666F726D61743E687474703A2F2F736368656D612E
311
6175746F6465736B2E636F6D2F64657369676E2D7061636B6167652F323030393C2F666F726D61743E3C2F666F726D6174733E504B03041400060808007D5B3140D486FD9CA0000000F4000000130000005B436F6E74656E745F54797065735D2E786D6C7D8EC10E82300C865F65E91D8A1E8C310C0EEA1BF002731658846E
311
D98AC1B77784ABF1D8FE5FBFBF75BBCE937A534CCEB38643598122B6FEE978D0B0485F9C41B54DDD7D022595594E1A469170414C76A4D9A4D207E29CF43ECE46F218070CC6BECC4078ACAA135ACF422C856C0E68EA1BF5669944DDD7BCDE7B1F8E415D77AECB980613C2E4AC91FC167A2B244592486606FC29C8FD7F045B9A
311
EF7053A7E60B504B03041400060808007D5B3140682D66C4E90000007C01000008000000636F72652E786D6C8D904D6EC3201085AF82668F0DF8170B13A5527A825E0019E2A2C46019A87AFCE2C491DA5D57337AF3BE99D113A7EFE58EBECC16AC7723D08200326EF2DABA798414AFB807749262F33EFEB201726A3123EC32
311
48316F3EAD873479178D8B59755E9B435421980868BAE76684307D9A45152AC5EC08B76255D34DCDA6A0AF2EC329598D9E47ACCEFBECD59A0D24EFDA3363970BE6356970CD18C767FE46705BF186D286F7F57B25CA1D9622DAE5757FDA8C8A46836484324C28A6DD07A503EB86A6C7A41D0811E56EFF03A555FF134AD6C58A
311
1DEF3EB10092E6471E0329CA3D8B5C1E41E5BAE7267F00504B03041400060808007D5B314055019EA25F0000007C00000007000000636E782E786D6C4DCB3B0E80201045D1AD90E915ED2CF8AC45050C11660C8261F98AB1B07AC9C97D42D718D865D3E909258CFD00CCE24AC6E326A164D74DC0B4128928FF326038472BA1
311
3128B1252AC747C6BAB984FC68F0B87FE8960A5C09FE86CFB69FBA01504B03041400060808007D5B31408C061F5E65010000020300000C0000006662782F636F72652E786D6C8D525B6EC32010BC0AE21FF3C8D311214AA5F404BD00B1898B624384C1CAF1BB7E446EAA28AA2C6134B3B33B3BB63CDC9B1A7526B4D6BB3DE6
311
19C3C8B8C297D6557B9CE2856C313A2819BC8FBFCA3072BA317BDCC358C92AF8749BA0C2BB685C04D4F9D24CA06E5B13312A6AB8EC715B7C9B46673A45A868AFD94D17575D998C6740439D926D0C60008D43FA13ABCBF92EE9882B99922D27D69630CD5EAC0958E59BF55188D389E44BB6224B217272CC3F18592FF215E7AB
311
7CBBFC5C48DA8B958CB679B82B82D1D1945809C605619CF0CD17E73BB1D9ADB684AD778C49DA973F89D2ADFCA72859171762B23BCA5AAC381819883FDB424411B5BA033F5449DA8708AF21E1E7A021100839EA73FDD8E30A50678AE8C31298D2A799EA749D0C4C656878241D59E83C3480CD5EF6116FFABCEF011F50BB0AAC
311
E908D7738AFD74394E9DA2B89940BA7847CE8746D7B3B9D1E27CCE835ECA0B5FFBF01F359D56A55398B4FF7BD50F504B03041400060808007D5B3140E63860B97E0000009D0000000B0000006662782F636E782E786D6C4DCCDD0AC22018C6F15B91F7FC6DB5363F401D8DEC3E467343721AA6D1E5B7C50E3A7AE0C7C35F76
311
9FC593B74D2F178382D3E108C4867B1C5D9815943C2107D2699962CC7F37206158AC828D41CB39C5F2DC69B4D3507C5ED5BBF0D891B19AF7756F900A61B0694D8B972B17C86E8C1A6A787366142A2DAB5F69DD2DACBF504B03041400060808007D5B3140BD87F1BA2B01000014020000310000006662782F37373238423242
311
452D363939452D343545352D414438392D3746373645364538343337362F636F72652E786D6C8D51CB6EC32010FC15C4293D608363831D61A24675BFA03FE000495162B07854F9FCE2DA95DA5B2E2C9A9D991DEDF2E363BA832FED8371B687A4C010682B9D32F6DAC3142FA885E028B8772EFEA14160C749F77081A1E057EF
311
D2BC41D2D9A86DCCA8754A6FE018828E10C87BFEF430C84F3D8DC5986266845B318FF2365E75418ADCCE3CC143F4390058872C2F148C55EDA93A0D8876DD80EA6668D0EB5BDB21F6CEE84087B6DE33CACB5528784A466D72A3721C7331DA3F6BB288058F66FA8D2FBD1EA35650549854081344D80721878A1D9A16617AC098
311
970BFD9F28CDEA49513236EEAB2DEE2A0B50105EAE0DC1954BE7FB6F18FD989D8F6099B70B5ABE40810B4C3A8209E978B952F302B227AD37CF109DCF0BDEDDCE994D9AD598D68297CB8D72F93960AECB3DC537504B03041400060808007D5B3140195AC3B34D01000033030000300000006662782F37373238423242452D36
311
3939452D343545352D414438392D3746373645364538343337362F636E782E786D6CD593CD6E022114855F85B09F1FAC5563184CBAE81374D12D03574B6560C24F53DFBE1745EBC64597DD90C9B987736EBE307CF73D59F205211AEF06CADA9E1270CA6BE30E03CD69DF6C28D9091EBC4F77364A9C9C60A045A6821F82CF73
311
9534EC65B609556BDCB18A01A2CF414144B9DC24D62B6931005C9351846904AD41939B11BFF610701514C713491F405E5FDE891F3F41A5C8BB922278573A042F676DBA3351A2AC8C71A0517DC0245B9993D7108FAD9649B6ACBD763DD8E93789940BD7CA1C0C29E5032D271575A31639F20E8782C714905E35A5D30C54C879
311
B646C98490BBB3F1E2113C1B9756CBEA35083EA09BAD9E964B0C3BCF044F6682EA500164024DC5A2678BA6670D5BBF31B65DACB7CF9BA65F6DFB9E77C52EF8E8BDAD973006829F89F22E814B5430DE95F1237CD547B409C8DA87D31F402280DA7AA173CBF8CF7CBAF3FB465C01FF02F103504B03041400060808007D5B3140
311
195A346D9D0500007B100000340000006662782F37373238423242452D363939452D343545352D414438392D3746373645364538343337362F6F626A656374732E786D6CAD575D739B3814FD2B0CFB0C18DB69E21D42C7B1938EA79BB6534F3BFB90198F0C8268233E4612A9D35FBF472030B876E2DDE90B20215DDD7BEEB9
311
1F0ADEEF326E3D532159915FDBBE3BB22D9A4745CCF2F4DAAE54E25CD9D6FB301045A17ACB6C2B2719BDB6F5B41D06A928AAD24CC53421155707B377377F5B32A239B5AD881329AF6D193DD28CB8A452454CE5931B1345DC34D9B9BEDB2C1C8A4D05291F0F849644D05C4153CCE79062354AF9C3E1C8F6C2C0D3FFC3403FCD
311
AAC9E9555E6DCFF07C964B45F2E897C30EC44CFCE9F2767C31732EA6D389337D37F69D9BBB9BA5E35F4E468B778BC56C7E3BC3C1520948329A089AD8E1076023581478CDAF30A858AE2663B3C438C813F499694FD9E1D8F203AF59D359678C3CA67E54E4398D6AAC80466D9F111DD392E6317CCEA884663D8446C3A1AF71EC
311
FD9EE8B139B23F7D1E02FD1D3D41ADEEEDBBAF69B1FD0726C873182424D50C6CB03486365C1DED11DE160537FF98B432A2A860845B9C6D05112F7688A57A49180CC468260B1D0DDA023B84179ADF43BA208CDEE6F9312D938A734D633BACA3608358A14AD69AB19F54ECB5EF23039DE02BCD862B63907A29A91DCE1A8A5C1D
311
B0A901D24A3849E17298A9774EC607862E749CAE9676F8F16EBB5BEBD83D7E78298A920AA5E9036AB58E6BDF1A25A3937F96E7F406FB40953D285F81FC2784FA5E15F84DB0DD743735A7284172991422836FAC91E58CF018597EFDD4DFBDAFC0EB360FBD770A4F385B43F51BF01CDAD0F7650FCE307806E10B3131A6AD23C2
311
9136EE590E8034492C5E600A7938D9EEEC70852C87AC8C5D84873E4C86BACFF80C3C230689A23EA9F7CE81E5415A3C234103B69A9150A321BF5170EFA75FD2597DB059760ADE8BDF42D7F972FD715D898444F4DEC4F492262C670A256ECF9BBE4203CC07163DD1971F858861E8AF78AFFB7867E62809B435E61AF8B4CDE97A
311
B03F797040847D69A1D34DF0C609304217D69EFC7B2623CA39C96951B5E7BE5A3F50361A8875B06B267705665F58409AE6CF410CA2484782951AC4AE5A7549D33D61DDB7D52730D20E6F5EFE222FFDECB5DDE7DEA8E085D86C5F364D5A3A0AF5F721B70D069E9602BAD741D2C6BF017D13B324A92492E0115CBFAF167DDFE9
311
B48014D14A6DA2650AFB115C4418D2B67251AD0541252DF20D43DD44DC1D3DA02F1F901A06D4024F692C294F368CF32ADB248CA31A6D32529E80E3FFEBBFADB27243B2A2CAD509D903D5511D86BA0FD82B7F10153DDAE1BA7E3B37C8BD318D4F9041D79223580D5C7B75B59C4EFCE5CC992CE797CE74321E3937171763677E
311
39B9188F2E67B7B325B284D1A86EA2C2A02D35FD88869750DA824A30E3BE6F2BC48F490276784F947CF8D08467FBFEB672D10B071EF6A05E761BE7F133FA3E1ABF2D60BFF2A8A05556729AD15C111D43F7FA837F25E83306CA34F3AB8CA4F40C299F3FAC0F8CC1CC19FBBEE878A73F0EF69AD9850EC8A342D463956D73C2F8
311
C1C6B441D22DF3D4E0D7FAA47B3785A61DEA91710C3A53597016230FC6564A8B8C2A64C3338A90C8A804F5FA3D7D6CEE1E67EC7E6E3A4445B69CB69A3C1234C95C222C40F22A52C379EB0F3475BAAFBAB6516EDD273C4CA6B02D70E6DA4693AE5844A5BB4581D6AD502D1C5CEA77F2E02CC9538E5EBBD9D48DBB5D1A9B4149
311
EE969CD33F19BB9A146E0C401A29D137A02182776A65C2A0D6CDFC8FFE93E1AD3A1651F8DC56AAB3653FD119531F83106D8C32B70534314FE6E81D02F575B37CB75E3340E4AC5BD6AB2468A43A8A88B4BE2968FD8C4AF3E5170F1D8AB5FA6C95BC4AE1CBF325398282CC950E70B008AC30324BA240D5C59F0F5F44819B6C66
311
DD3150E061516459919BC1DCDC84ADF523EEB5F103D202D51712F9301EF9E387FA2260EE269B2D91D425B17CC2047C2A5807F1C0F16064735B44056A7E74EB3CED84036EAE9696296953083544E967550D0B5A8E9C5A881E7D99D4B1D25F50BE7A17F0EAA55041A08B0FFF05504B03041400060800007D5B31400000000000
311
00000000000000350000006662782F37373238423242452D363939452D343545352D414438392D3746373645364538343337362F76657274696365732E62696E504B03041400060808007D5B3140F270F1330600000004000000360000006662782F37373238423242452D363939452D343545352D414438392D3746373645
311
364538343337362F747269616E676C65732E62696E636660600000504B03041400060800007D5B3140000000000000000000000000370000006662782F37373238423242452D363939452D343545352D414438392D3746373645364538343337362F617474726962757465732E62696E504B03041400060808007D5B3140D5
311
987DFC8F00000041010000360000006662782F37373238423242452D363939452D343545352D414438392D3746373645364538343337362F6469726563746F72792E786D6C858F410EC2201045AF4266AF15DDB800BA74E7C21B903225242D6328188F2FA5C4183471359997F9FF81E89FF3C41E1816475E02DF1F80A11FC8
311
386F25A438EECEC07A250251FC3803E6F58C12560C4AD840E95E91C151A72936F496F35732D860FE635F62C8F2DA16B505C545B74125BAA2FA9E05D7CC053D063734D5C7665FD55B6B8D15D5E9BFEAFD8490FFA45E504B03041400060808007D5B31407B86485CFC000000A00100003B0000006662782F3737323842324245
311
2D363939452D343545352D414438392D3746373645364538343337362F7265736F75726365732F636F72652E786D6C8D504B6E833010BD0A9ABDC1369004641CA56A7B825EC032136225D8C89FAAC7AF09546A77DDCC8CDE47F3F4C4F96B7E149FE883717600565228D06A371A3B0D90E2959CA0384BE19D8BBF64505835E3
311
002B0C524CDEA56587B4B3116DCCA87523EEA00A012314FA918F0182BEE1AC4A956256847BB9287D571396ACCC74D64911A2CF018AEDC93A417A0C2E798D41541B2B454A66DC3566CC3FCDD5A007D91D0F17CEDF5E49D7D096349C77E4D2BD5072A8BB96B1B63B35EFB5A856B314D1CC3F19B547157104C929E38432C28E1F
311
8CF5FCD8B727420F3DA5A25AE57F4C6919FF694AC6C69AEF71375B00C97290272145B5F695D7B3CCBCD76EE537504B010214000A00000800007D5B31403DEE336E79000000790000001B00000000000000000000000000000000006175746F6465736B2D64657369676E2D7061636B6167652E786D6C504B01021400140006
311
0808007D5B3140D486FD9CA0000000F40000001300000000000000000000000000B20000005B436F6E74656E745F54797065735D2E786D6C504B010214001400060808007D5B3140682D66C4E90000007C010000080000000000000000000000000083010000636F72652E786D6C504B010214001400060808007D5B314055
311
019EA25F0000007C000000070000000000000000000000000092020000636E782E786D6C504B010214001400060808007D5B31408C061F5E65010000020300000C00000000000000000000000000160300006662782F636F72652E786D6C504B010214001400060808007D5B3140E63860B97E0000009D0000000B00000000
311
000000000000000000A50400006662782F636E782E786D6C504B010214001400060808007D5B3140BD87F1BA2B0100001402000031000000000000000000000000004C0500006662782F37373238423242452D363939452D343545352D414438392D3746373645364538343337362F636F72652E786D6C504B010214001400
311
060808007D5B3140195AC3B34D010000330300003000000000000000000000000000C60600006662782F37373238423242452D363939452D343545352D414438392D3746373645364538343337362F636E782E786D6C504B010214001400060808007D5B3140195A346D9D0500007B10000034000000000000000000000000
311
00610800006662782F37373238423242452D363939452D343545352D414438392D3746373645364538343337362F6F626A656374732E786D6C504B010214001400060800007D5B31400000000000000000000000003500000000000000000000000000500E00006662782F37373238423242452D363939452D343545352D41
311
4438392D3746373645364538343337362F76657274696365732E62696E504B010214001400060808007D5B3140F270F13306000000040000003600000000000000000000000000A30E00006662782F37373238423242452D363939452D343545352D414438392D3746373645364538343337362F747269616E676C65732E62
311
696E504B010214001400060800007D5B31400000000000000000000000003700000000000000000000000000FD0E00006662782F37373238423242452D363939452D343545352D414438392D3746373645364538343337362F617474726962757465732E62696E504B010214001400060808007D5B3140D5987DFC8F000000
311
410100003600000000000000000000000000520F00006662782F37373238423242452D363939452D343545352D414438392D3746373645364538343337362F6469726563746F72792E786D6C504B010214001400060808007D5B31407B86485CFC000000A00100003B00000000000000000000000000351000006662782F37
311
373238423242452D363939452D343545352D414438392D3746373645364538343337362F7265736F75726365732F636F72652E786D6C504B0506000000000E000E00800400008A1100000000
310
504B03040A00000800007D5B31403DEE336E79000000790000001B0000006175746F6465736B2D64657369676E2D7061636B6167652E786D6C3C3F786D6C2076657273696F6E3D22312E302220656E636F64696E673D227574662D3822203F3E3C666F726D6174733E3C666F726D61743E687474703A2F2F736368656D612E
310
6175746F6465736B2E636F6D2F64657369676E2D7061636B6167652F323030393C2F666F726D61743E3C2F666F726D6174733E504B03041400060808007D5B3140D486FD9CA0000000F4000000130000005B436F6E74656E745F54797065735D2E786D6C7D8EC10E82300C865F65E91D8A1E8C310C0EEA1BF002731658846E
310
D98AC1B77784ABF1D8FE5FBFBF75BBCE937A534CCEB38643598122B6FEE978D0B0485F9C41B54DDD7D022595594E1A469170414C76A4D9A4D207E29CF43ECE46F218070CC6BECC4078ACAA135ACF422C856C0E68EA1BF5669944DDD7BCDE7B1F8E415D77AECB980613C2E4AC91FC167A2B244592486606FC29C8FD7F045B9A
310
EF7053A7E60B504B03041400060808007D5B314007FFA435EA0000007C01000008000000636F72652E786D6C8D90416EC3201045AF82668F0D2EB15D0B13D54D7A825E0001715062B00C44397E71E248EDAEAB19FDF96F66F4F9FE3E5DD1CD2CC17AD7032D0820E394D7D68D3DA478C22DA0BDE08BF7F1970D909393E96195
310
41F071F169DE24E55D342E66D5796D36518660222075CD4D0F419DCD240B996276844B314B7591A329E8ABCB704A56A3E711ABF33E7BB2660141DA23FDF86C191EDEBF06CCEA81E1F6D0349811C26A76A8C9B1DEF17285058F767ADD578B91D1681015A1152614D3E69BD2AE6ABA5D8349DD11C2CBD5FE074AB3FE2794AC8B
310
6FD5F6EE130B20687EE43110BC5CB3C8E51154AE6B6EE207504B03041400060808007D5B314055019EA25F0000007C00000007000000636E782E786D6C4DCB3B0E80201045D1AD90E915ED2CF8AC45050C11660C8261F98AB1B07AC9C97D42D718D865D3E909258CFD00CCE24AC6E326A164D74DC0B4128928FF326038472B
310
A13128B1252AC747C6BAB984FC68F0B87FE8960A5C09FE86CFB69FBA01504B03041400060808007D5B3140F2579C3D66010000020300000C0000006662782F636F72652E786D6C8D52D18E823010FC95A6EFA52D87E09952739EDE17DC0F54A85C23B4A6B4C4CFBF45309E17630C49696676766707C4FADCB568D0BE37CE96
310
98270C236D2B571BDB943886035962B496C23B17FE94616455A74B3CC2588AC6BB789AA1CAD9A06D00D4BA5ACFA0EA7B1D30AA5AB894B8AF7E74A712150354F4C7E4A4AAA36A74C213A0A14E8A3E783080A621E389E5617F1674C2A588D1D4336B6A98660E467B2CD972C73F3E9719D9BC7F6D48966F32B2DC1605C918CBF2
310
6C9BB35DBE1074144B114C77755779AD82AEB14C194F09E38417DF9CAFD262B52808CB578C093A96DF89E2A97E51148D0D6FE96C7792F55872307221FE6D0B1105D4AB01FC5029E81822BC2E09DF070D8140C841EDDBEB1E4780065D05E733606A176FD4A0DAA8612A439747D08985CE9706B0D9C33EE9933ECF7BC00754B6
310
016B2AC0751FC3385D4C53E7284EDA93219C9175BE53EDCDDC64F176DE063D9457AE75FE15359D57A5739874FC7BE52F504B03041400060808007D5B3140BC5C2B317E0000009D0000000B0000006662782F636E782E786D6C4DCCD10A83201886E15B91FFDCD54FB915A8A1DBBC8F581691E9703A76F9ABD1C18E3E78F878
310
79F7591D79DBF89A831780A71288F58F30CC7E1290D3481B209DE43184F47703E2FBD50AD819249F62C8CF83063BF6D9A54DDDEC9703199A16CFED8DD6D820AD953654DDB1A225D3AC62E672554A432179F12B6DBB87E517504B03041400060808007D5B3140590051432A01000014020000310000006662782F3531463931
310
3639442D343138312D344142462D414531332D3035423533354637434141422F636F72652E786D6C8D51CB6EC32010FC15C4293D60839F7184899CB6F982FE8003244189C1E251E5F30BB523B5B75C58343B333BDAA5FBC77407DFD23A65740F498621909A1BA1F4A587C19FD116823DA3D618FF8706811E27D9C30443462F
310
D6847985B8D15E6A1F516D845CC1D139E921E0F7F8E9A1E357398DD9187C64B85B368FFC365E6446B2D88E3C469DB731005886A417B29A1C3BD2741FA8225B82AAE17044C3272911AE0F75591FDBF76138D07C11321A8212AB5C8918479D95B4AF9A2431A35E4DCFF8DCCAD14B01598149813041A4FD226457B4BBBA45B8D9
310
614CF344FF270AB378511494F665B1C65D640E3242F3A5C1A830E1747F86918FD9580FD2BC8D93FC0D329CE1025775D775345FA87101D1B3A9564FE78D8D0BDEDC4E915DAEC64DC5689E6E14CBEF01634DF7643F504B03041400060808007D5B3140B33423115501000033030000300000006662782F35314639313639442D
310
343138312D344142462D414531332D3035423533354637434141422F636E782E786D6CBD93CD6EC32010845F0571F70F4EEA441126520F7D821E7A25B04969305880ABE6EDBB2424CD25874A552FC89A1D66569F30DF7E8D967C4288C6BB81B2BAA5049CF2DAB8C340E7B4AFD6946C050FDEA73B1B254E8E30D02C53C10FC1
310
CF539134ECE56C13AAD6B8631103443F070511E57C9358AFA4C50070D58C228C3BD01A34B919F16B0F015741717722E91DC8CBF31BF1BB0F5029F226A708DEE40EC1F3599AEE4C94282B631C6854EF30CA5ACEC96B88C75ACB246B565FBB1EECF49344F2856BE51C0CC9E503CD271565A31A39F2068782C714905E31A5D304
310
54C869B246C984909BB3F1E2117C362EF5CBE235083EA07BD1F5EB35869D678227334271A8003281A6A26B5957B5AC62AB57C636DD6AF3B4AADA7ED3B6BCC976C177DEDB72096320F88928EF12B84405E34D1E3FC2577C449B80AC7D38FD02240228AD173AB78CBFE4C3FAC572F98F7C9AF3FB465C01FF02F10D504B030414
310
00060808007D5B3140214C9E005A070000941B0000340000006662782F35314639313639442D343138312D344142462D414531332D3035423533354637434141422F6F626A656374732E786D6CED595B739B3814FE2B0CFB6C6C7C69931D4227899B8CA79BB6536F3BFB9019460699682304238924DE5FBF4717301093E06D
310
F6AD0F3620A4A373BE73D521F8F09451E70173417276E6FADEC475308BF384B0F4CC2DE57674E23A1FC280E7B96C4C731D86327CE6AA61370C529E97851D4AF01695547646AF2EFE72448C19769D982221CE5C11DFE10C79A8947982C5BD972089BC74FBE4F99E99D8269B7254DC7588168863268153186740C5314CF9EDC7
310
893B0E83B17A1F06EADFCE9A0D9A35EF9F35D652B7B9244C48C4E2672C75C8CC06B134F3E7CB8FD3C5E968319FCF46F377537F747175B11CF9EF6793CB779797A7E71F4F81BD4D9E532B53820BCC12D0DFCE0DFD60ACDED4A25B040E711DE78CE15803095069B1BA040916B05503BE49FBD15712355E6B091BCF73F5DEB2D0
310
189EB5A9F4CD1A06448B2E0862B7AB24AEAE4DF9F2CDDF20B81862945C6009DC0AC941BB161E0E5EE18693606C46C360B3D705114E8624E6045187920D471C940253D59430300B2C19E51C1C48394A02AD39F3BA6D5BE099AFBBCE212EB725A5CA33DC503B5604EE87A5D09C917F30DF73DF44067802694BC2E489E552EE0A
310
EC86A7C1580F8681BACCA6F6A501D2D952940A8D8879DB11F452B9FE6AE9869FAE364F6B150E0E6F5EF0BCC05C2AA3537AD47C8121DBAB42C96EEB0FD29C5A00C21850EDCA3D28DF00F9CF103DF6AC80DE38799A3FCDED5CC91113DB9C67A01B67E28C26F037717CFDAFEE1B77C1B85EDCD65E1F9EE0A60AAA939FC7B32D83
310
C6CAF2DF80330C1EC0E0733EB3AFD631A260CF37840140CA481C9AC31084F6EDE6C90D57103821D0C32A44431F4406761FE036185B327BAD54EE65BD8E01A2768FD91025016CDA22818D1E3D5D43F6E024DEABA929621FBC8B3731D7F3E5FAD3BAE45B14E31BEBD34BBC258C48C89A87196A61DE92E81EEF1E739E80A0CFF1
310
5E37F1CEEC5602D056982BE0D30A04F5B0DFB9B5410CEBD25C859BE0951D400895AB1BF46F888831A588E1BCACF6ADA39B32D4DAE36DCDE0865303F16CDA31618E1F88AA2AC069F6335A8C42DE8F392914886E786D24AB83A6D723DDF7D567B0C87A7ECFAC1583D0CB10FD5307AD0338B42CBB42DA02510BBCD987F338A739
310
8F36BBC8443A176A0960A3ED2D3F5A4421D61B25292AE041DAEFAA90921A69A3846CB7A580B87A80C51FABCBA6394CBC99BF709AFF1D679C43B405DF45DCFA5D678F886428C5D116257DDB3577AB690B4DB28734C75B0A72910722771192D124C1E931D01C45FCF44DA9A7341782302C205F1D04BF89C6C4834062B459B1AC
310
B4DA019A8828C312D1631050647AC0D56947D7B831940EAFF3585BEF4B1A6B12FD9F2C8223A82573161128452187BCCAB8EF2D2086B4D1352877F0056BAB686B3168092544BC8B1E3149EFE431A81BF23DB8C77024296594172806B31E40F699AF28A57678DFA0F85EE58F282EE95B1988C0741B114ACB2C821F6170F218E2
310
DA75607A1185067113FB24CEA02843B2E4433679B7983CDBC7D40CDD10D8D8684B2884ED2843450FEAAD80A8EB11A706DF52EF51EAA6CC8A086579C906198A37EB7A9325DF55AB223B905F552A42D95811B604C380305967D52A6683A9EBC00A6EA403D52E12282BA83985BD9278FCDA9B34E5DE0DB8F5D3B7DD2083C2AF47
310
7BCD883AAF60B03CB60A03F188647CE7866B7D1D5D40FD9DE0649FEAAB5AB3590102622A92979C58157D5F4179636B3437BC4152DC5E9BAC5B5DBFAF3CE87E04635803B54BBD70A580CE309348552637EA867E4310825B34CCF84AE5D463A89C2789AE1A11BD227DEA6C9511AD4D33E2157798E519FCD82D61312D137C8B12
310
711FDD481AAD8962DD4AE965A4C2F84501BF5CAF3BF0C0C80091BEAA020F3F76D6DAD14B552E1D2422EFCA6CC3108120D8122D35BAF10A965A8D545AAEAFEA4C017517189855F1FCD7C9A2D98EF875B248AD61FCD4C9E262F707DA35FB228D741E2BBB3EEA1850E72745E52D8E01BAED5053ADB38849E6567EEB4C1104C52A
310
CA0FAEC6AAA06108F671FC9FB3765F1634DB75F83F2E6BFBCF2A8EA3B24A6BB2EA521DA85C57CD1C7672B29CCFFCE5E968B63C7F3F9ACFA693D1C562311D9DBF9F2DA693F7A71F4F97FB638376D430A88399CE5DF06C825A35AC9E2C06D095153925099CE61327C510F3259CE907B4CF79860524CF66B33BB14DF901AB1F4C
310
9F53A20DC5152777081AC454405A078CCA58B6C79DDFA03529E1A07DE642D3C8BB873F6B95AE0399E7CC855681243116DE06DA4CAAA1A78943CAD5B9DF12037C104B554A348BEAE77A95C2A615FEEB2943D28095ABD5C380C2AD80EE57AB43A179B33CC547095EB1E32009B79B5242B56664D90FD4C2E86DF6EA37B251C2EE
310
EDD64FE0BA2F8BE57B7A4E0B91419F0C5E3402437524114F75BF5B3166593A5F7E1D439FCD597D710A5AA6A0CBE194461C833197AAA0022B02ABB0340B24C1542F7FBFFDCA73F8C49339BA2ABABDCCB32C67F6E11CCE63097C2272D677F0C127B985B201ABB6BAB89D4EFCE9AD6E67DB0E7BB441027BAA1E8281AA8C502274
310
8C0D2CF2596BCA362EC74A099DE9ABA563C327F8B3B1A067DD5DF379CB01EF511F5294AF680FAFE47CB1A33DD653C11A38F4A2C37F01504B03041400060800007D5B3140000000000000000000000000350000006662782F35314639313639442D343138312D344142462D414531332D3035423533354637434141422F7665
310
7274696365732E62696E504B03041400060808007D5B3140F270F1330600000004000000360000006662782F35314639313639442D343138312D344142462D414531332D3035423533354637434141422F747269616E676C65732E62696E636660600000504B03041400060800007D5B314000000000000000000000000037
310
0000006662782F35314639313639442D343138312D344142462D414531332D3035423533354637434141422F617474726962757465732E62696E504B03041400060808007D5B3140D5987DFC8F00000041010000360000006662782F35314639313639442D343138312D344142462D414531332D3035423533354637434141
310
422F6469726563746F72792E786D6C858F410EC2201045AF4266AF15DDB800BA74E7C21B903225242D6328188F2FA5C4183471359997F9FF81E89FF3C41E1816475E02DF1F80A11FC8386F25A438EECEC07A250251FC3803E6F58C12560C4AD840E95E91C151A72936F496F35732D860FE635F62C8F2DA16B505C545B74125
310
BAA2FA9E05D7CC053D063734D5C7665FD55B6B8D15D5E9BFEAFD8490FFA45E504B03041400060808007D5B3140D8916E8DFC000000A00100003B0000006662782F35314639313639442D343138312D344142462D414531332D3035423533354637434141422F7265736F75726365732F636F72652E786D6C8D504B6E833010
310
BD0A9ABDC1260428328E4A939EA017B0CC84580936F2A7EAF16B0295DA5D3733A3F7D13C3D7EFA9A1FD9273AAFADE981E5143234CA8EDA4C3DC470252D6427C19DB5E1970C322367EC618541F0C9D9B8EC90B226A009093576C41D94DE63804C3DD2D18357379C652E63480A7FCF17A9EE72C29CE5894E3AC17D702940B63D
310
59270887DE46A7D0F36263058F518FBB468FE9A7BE6A7420687B61AF6FED810C2FEF03A9EAA122EDB9694845695557E79A5EEA232F56B3E041CF3F19954319700451525612CA086B3E18EBCAA63B3684D61DA5BC58E57F4C7119FF698ADA8443B9C7DD6C1E044B419E84E0C5DA575ACF32D35EBB15DF504B010214000A0000
310
0800007D5B31403DEE336E79000000790000001B00000000000000000000000000000000006175746F6465736B2D64657369676E2D7061636B6167652E786D6C504B010214001400060808007D5B3140D486FD9CA0000000F40000001300000000000000000000000000B20000005B436F6E74656E745F54797065735D2E78
310
6D6C504B010214001400060808007D5B314007FFA435EA0000007C010000080000000000000000000000000083010000636F72652E786D6C504B010214001400060808007D5B314055019EA25F0000007C000000070000000000000000000000000093020000636E782E786D6C504B010214001400060808007D5B3140F257
310
9C3D66010000020300000C00000000000000000000000000170300006662782F636F72652E786D6C504B010214001400060808007D5B3140BC5C2B317E0000009D0000000B00000000000000000000000000A70400006662782F636E782E786D6C504B010214001400060808007D5B3140590051432A010000140200003100
310
0000000000000000000000004E0500006662782F35314639313639442D343138312D344142462D414531332D3035423533354637434141422F636F72652E786D6C504B010214001400060808007D5B3140B334231155010000330300003000000000000000000000000000C70600006662782F35314639313639442D343138
310
312D344142462D414531332D3035423533354637434141422F636E782E786D6C504B010214001400060808007D5B3140214C9E005A070000941B000034000000000000000000000000006A0800006662782F35314639313639442D343138312D344142462D414531332D3035423533354637434141422F6F626A656374732E
310
786D6C504B010214001400060800007D5B31400000000000000000000000003500000000000000000000000000161000006662782F35314639313639442D343138312D344142462D414531332D3035423533354637434141422F76657274696365732E62696E504B010214001400060808007D5B3140F270F1330600000004
310
0000003600000000000000000000000000691000006662782F35314639313639442D343138312D344142462D414531332D3035423533354637434141422F747269616E676C65732E62696E504B010214001400060800007D5B31400000000000000000000000003700000000000000000000000000C31000006662782F3531
310
4639313639442D343138312D344142462D414531332D3035423533354637434141422F617474726962757465732E62696E504B010214001400060808007D5B3140D5987DFC8F000000410100003600000000000000000000000000181100006662782F35314639313639442D343138312D344142462D414531332D30354235
310
33354637434141422F6469726563746F72792E786D6C504B010214001400060808007D5B3140D8916E8DFC000000A00100003B00000000000000000000000000FB1100006662782F35314639313639442D343138312D344142462D414531332D3035423533354637434141422F7265736F75726365732F636F72652E786D6C
310
504B0506000000000E000E0080040000501300000000
  0
XRECORD
  5
17
102
{ACAD_REACTORS
330
12
102
}
330
12
100
AcDbXrecord
280
     1
270
     1
271
     1
  0
XRECORD
  5
16
102
{ACAD_REACTORS
330
12
102
}
330
12
100
AcDbXrecord
280
     1
270
     1
271
     1
  0
XRECORD
  5
18
102
{ACAD_REACTORS
330
12
102
}
330
12
100
AcDbXrecord
280
     1
270
     1
271
     1
  0
XRECORD
  5
15
102
{ACAD_REACTORS
330
12
102
}
330
12
100
AcDbXrecord
280
     1
270
     1
271
     1
  0
XRECORD
  5
BC6
102
{ACAD_REACTORS
330
22
102
}
330
22
100
AcDbXrecord
280
     1
102
MATERIAL
148
0.0
149
0.0
149
0.0
 93
        0
 94
      127
282
     0
 72
     0
 77
     0
171
     0
175
     0
179
     0
273
     0
  0
XRECORD
  5
24
102
{ACAD_REACTORS
330
22
102
}
330
22
100
AcDbXrecord
280
     1
270
     1
271
     1
  0
XRECORD
  5
23
102
{ACAD_REACTORS
330
22
102
}
330
22
100
AcDbXrecord
280
     1
270
     1
271
     1
  0
XRECORD
  5
11B
102
{ACAD_REACTORS
330
22
102
}
330
22
100
AcDbXrecord
280
     1
 70
     1
 90
1959938040
 71
     1
  1
321918E2-DE0E-43B6-AFC8-E9ACF84D5CDA
311
504B03040A00000800007C5B31403DEE336E79000000790000001B0000006175746F6465736B2D64657369676E2D7061636B6167652E786D6C3C3F786D6C2076657273696F6E3D22312E302220656E636F64696E673D227574662D3822203F3E3C666F726D6174733E3C666F726D61743E687474703A2F2F736368656D612E
311
6175746F6465736B2E636F6D2F64657369676E2D7061636B6167652F323030393C2F666F726D61743E3C2F666F726D6174733E504B03041400060808007C5B3140D486FD9CA0000000F4000000130000005B436F6E74656E745F54797065735D2E786D6C7D8EC10E82300C865F65E91D8A1E8C310C0EEA1BF002731658846E
311
D98AC1B77784ABF1D8FE5FBFBF75BBCE937A534CCEB38643598122B6FEE978D0B0485F9C41B54DDD7D022595594E1A469170414C76A4D9A4D207E29CF43ECE46F218070CC6BECC4078ACAA135ACF422C856C0E68EA1BF5669944DDD7BCDE7B1F8E415D77AECB980613C2E4AC91FC167A2B244592486606FC29C8FD7F045B9A
311
EF7053A7E60B504B03041400060808007C5B3140F0C58005EA0000007C01000008000000636F72652E786D6C8D90D18EC22010457F85CC3B2D506DB5A11875EB17EC0F108A9568A129B0D9CF5FD09AECBEEDD34CEEDC3333B9FCF03D3DD0975EBC71B6035A1040DA2A37183B7610C315EF001D045F9C0BBF6C80AC9C740759
311
06C1C7C5C5799594B341DB9054EB06BD8AD27B1D00A9476A3AF0EAA62759C81892C3DF8B59AABB1C7541DF5D826334037A1D3143DA67AE462F201A5257FD71FF814FC7EA8237FD9EE03DBB34B83A6F4FE7BADF6D2A46799961C18399DEF7D5A265D003084628C38462DA7C52DAB2A6DD3698D42D21BCCCF63F509C877F42D1
311
D850B1F5DD17E641E4479E03C1CB9C452ACFA052CDB9891F504B03041400060808007C5B314055019EA25F0000007C00000007000000636E782E786D6C4DCB3B0E80201045D1AD90E915ED2CF8AC45050C11660C8261F98AB1B07AC9C97D42D718D865D3E909258CFD00CCE24AC6E326A164D74DC0B4128928FF326038472B
311
A13128B1252AC747C6BAB984FC68F0B87FE8960A5C09FE86CFB69FBA01504B03041400060808007C5B3140423F223D66010000020300000C0000006662782F636F72652E786D6C8D52ED8E8230107C95A6FF4B0BA8A82935EAE913DC0B54A81C115A525AE2E3DFF261382FC61892D2CCECECCE0EF0DDBDAE50A76C5B1A9DE2
311
306018299D99BCD4458ABDBB9235463BC1AD31EE4F19465AD62AC53D8C052FACF1CD0465463BA51DA0DAE46A0265DB2A875156C125C56DF6A36A1948EFA0A2BD058DCC6EB2504118000D7582B7CE8201340EE94F2CAE973BA7232EB8F7653EB1650ED3CA6BA92C16095BC5A7FDE68B1CF6F1992C4E1B4636D13921F1717938
311
AE4EEB451C859CF662C15D593FDC655649A7722C2216468485244CBEC3701B25DB6542D86ACB18A77DF993C837F987225F6A174793DD51D662D11B19887FDB42440EB5B2033F5470DA8708AF21E1E7A0211008D9C94BF5D8E30650A73267EC0298DCF899EA64E5154C656878381D59E83C3480CD5EF689DEF479DF033EA0D4
311
0558930EAE17EFFAE97C9C3A45D1284B3A7747DAD85A56B3B9D1E27CCE835ECA335319FB899A4EABD2294CDAFFBDE217504B03041400060808007C5B31405D6208317E0000009D0000000B0000006662782F636E782E786D6C4DCCD10A83201886E15B91FFDC55964B410DCAED3E625948A6C3E9D8E5AF46073BFAE0E1E315
311
DD6773E86DE2CB062FA1BA94808C7F84C9FA45424E3366803A256208E9EF06C88F9B91703028B1C4909F274D661EB34BBB3AEBD71339D72D67B4C42D6BAEB8E9EF036603A93027946AD2DF685D6B2894287EA57D8FB0FA02504B03041400060808007C5B3140502D2EF42B01000014020000310000006662782F3939443739
311
3835302D373834362D344246432D384332312D3932353544324245353333442F636F72652E786D6C8D51CB6EC32010FC158B537AC00662FC88309192B45FD01F2086A42831583CAA7C7EA176A4F6960B8B66676647BB6CFF98EEC5B7725E5B33005C225028335AA9CD7500315C60078A3D67CEDAF087060A232635800C03CE
311
AECEC67985466B823221A1C64AB582C27B154031DED367007EFC529328450C89E16FE52CC69BB8AA1297A99D789CF9E052806219925FC0FBFED4F61D45B0EDEA06D6878F23EC8E04C39E507A228777BADD9E58B508398B51CB55AE658AA32F5AB9574DB298B3A0A767FCD1291194049C204C20C210B79F18EF48BBA32D44CD
311
0E215665FA3F519CE58BA2A84DD89235EE22F38063562D0DCEA48DE7FB338C7ACCD68522CFDB7835BE018E4A84BB9E92BA65D5424D0B489E4DBD7AFA605D5AF0E6764E6C4C17E3A6E6ACCA374AE5F780A9E67BF21F504B03041400060808007C5B3140D593EC064D01000033030000300000006662782F3939443739383530
311
2D373834362D344246432D384332312D3932353544324245353333442F636E782E786D6CD593CD6E022114855F85B09F1FACD5C6309874D127E8A25B06AE4A6560C24F53DFBE1745EBC64597DD90C9B987736EBE307CFB3D59F205211AEF06CADA9E1270CA6BE3F603CD69D7BC50B2153C789FEE6C943839C1408B4C05DF07
311
9FE72A69D8C96C13AAD6B8631503449F83828872B949AC57D26200B826A308D3085A832637237EED20E02A288E27920E40DE5E3F881F3F41A5C8BB922278573A042F676DBA3351A2AC8C71A0511D6092ADCCC96B88C756CB245BD65EBB1EECF49B44CA856B650E8694F28196938ABA518B1C798743C1630A48AF9AD269062A
311
E43C5BA36442C8DDD978F1089E8D4BAB65F51A041FD0CD564FCB25869D678227334175A8003281A662D1B345D3B386ADDF19DB2CD69BE775D3AF367DCFBB62177CF4DED64B1803C1CF447997C0252A18EFCAF811BEEA23DA0464EDC3E90F2011406DBDD0B965FC673EDDF97D23AE807F81F801504B03041400060808007C5B
311
3140BC624A879A0500007A100000340000006662782F39394437393835302D373834362D344246432D384332312D3932353544324245353333442F6F626A656374732E786D6CAD575D6FA33814FD2B887D2609493ADBAE28A3346947D1A833D54433DA874A910143BD3518D9A693CEAFDF633001324927BB9A9710CCF5F5BD
311
E79EFBE1E0FD2EE7CE0B958A89E2DAF54713D7A1452C125664D76EA553EFD275DE87811442F7C45CA72039BD76CDB21B069914556997129A928AEB83D5BB9BBF1D15D382BA4ECC8952D7AE8A9F684E46A4D222A1EA7994104D4659BA1BF9A34670A83693A47C3A505A12490B0D4BB15E408BD318E50F5F27EE380CC6E67B18
311
985F2B353B2D35AEFD199ECF0AA54911FF74D8819A993F5FDD4E2FAEBC8BF97CE6CDDF4D7DEFE6EE66E5F97FCE26CB77CBE5D5E2F60A072B2DA1C95A2269EA861F808D6471306E3E8541C50A3D9B5A111BA0B1A42FCC44CA0DA78E1F8C1B99BD77D6C963E6C7A228685C6305346AFFACEA8496B448107346152CEB213419BE
311
FA06C7DEE79979B747F697CF43A0BFA3A7A8B5BD7DF62D15D13F70419DC320A9A8616083A575B4E1EAA443381282DB6F4C3939D15432C21DCE2249E4AB1B42D48884C1408D61B234D9603C704344A1F93CA40BD2E8D73C3F66655A716E68EC8675166C912B54ABDA32F683CACEFA3E32B009B1326CB8B40EE9D792BAE15543
311
91CB033635403A292719420E37CDCED9F4C0D1A5C9D3F5CA0D3FDE45BB8DC9DDE387975294546A431F50AB0D5CFB3428599BFCB3226736B807A674A07C01F29F90EA9D29889B64BBF96E6E4FD192142A1532476C9C89E34DF03371FCFAD7FCEFFD0BC6FBCDC3E89DC213C13650FD063C873EF463D983330C5E40782167D6B5
311
4D4C38CAC63D2B00902189C305965087D368E7866B54395465EC223CF4E132CC7DC1DF606CD5A050D427F59E05B03C288B671468C05633126634E4B7067671FAA99CD5075BB153F05EFC16BA2E569B8F9B4AA624A6F736A757346505D368711D6FFA060D301F78F44C5FBF0B99C0D19FF1DEF4F1CEED510A681BCC0DF0595B
311
D3CD4B77F2E08018FB3261CA4DF08B13E08469AC3DFDF74CC59473525051B5E7BED93FD0361A884DB21B26EF1B4CD758409AE6CB410EA249C7929506C47DB7DA17CDD109EFBEAE3F819190E72222BC138ABAD21B0B2EE4367ADD3655E928D2DF86D4B6108C8D16B0BDCE9136FD2DE6DB84A569A550038FC0FA6DBDEC87CE54
311
055488566B932C73B88FDC22D272B6D58B662D091AA928B60C6D136977F480BE7E206A09502B3C65B1A23CDD32CEAB7C9B328E66B4CD4979028EFF6F7F54E5E596E4A22AF409DD03D3D11C86B60FC8ABBE131D3FB9E1A67E7A3728BD094DBA300F844D2B3982D520B4B3A97FE55FDE4EBDD5EDE4D69BCF6EDE798BBBE5A577
311
7BB558DE5DCE5717CBD5A28D53A33C0CDA4ED34F6844099D2DA824B3E1FBBA46FAD81AE086F744ABC70F4D76B6CFAFEB1146E1608C3D6897FB8D8BE405631F4D7EADA0933CAA689D979CE6B4D0C4A4D0BDF9C3BF108C1903639AF5754E327A8696CF1F3607CE60E58C7D0F26DDE9F783BD76756912F2A812FD54E55141183F
311
D89835488ECA22B3F8B531D93F9B3ED3BE9A371B180CA64A7096A00C264E46454E358AE1193D48E654817AFD913EB1578F3376BF3403A22611A7AD254F04333257480B50AB8AF570DDF903339D19ABAE5D74DBD1337E6CA5701D70E6DAC58CAE594CD528427F369350AD1C5CEA0FF298FB4991718CDACDA6FDFB7E97C166D0
311
91F722E78C4FD6AFA6825B0750464A8C0D9887109DDA9830A86DB3DFE3FFE4786B8E4334FE4695DEFBD22DEC9DA98F418A364ED9CB026698677BF40E89FAB65BFEA896192072D625EB4D12345A3D4D64565F148C7DD6A4C5EA618C01C5597F764A5E6588E5F99A3C4941E6CA2438580456589D25D1A0EAF2AFC707297091CD
311
9D3B060A3C2E459E8BC2BE2CEC45D8D93CE15A9B3CA22C50731F518FD3893F7DACEF01F66AB28D88A22392A8672C20A692ED211E041E8C6C2E8B3E846CE06D0CC6260807DC5CAF1CDBD2E69D7CBFAA1A58307114D441F698BBA4C995BE40F9E655605C8BC25489213EFC17504B03041400060800007C5B3140000000000000
311
000000000000350000006662782F39394437393835302D373834362D344246432D384332312D3932353544324245353333442F76657274696365732E62696E504B03041400060808007C5B3140F270F1330600000004000000360000006662782F39394437393835302D373834362D344246432D384332312D393235354432
311
4245353333442F747269616E676C65732E62696E636660600000504B03041400060800007C5B3140000000000000000000000000370000006662782F39394437393835302D373834362D344246432D384332312D3932353544324245353333442F617474726962757465732E62696E504B03041400060808007C5B3140D598
311
7DFC8F00000041010000360000006662782F39394437393835302D373834362D344246432D384332312D3932353544324245353333442F6469726563746F72792E786D6C858F410EC2201045AF4266AF15DDB800BA74E7C21B903225242D6328188F2FA5C4183471359997F9FF81E89FF3C41E1816475E02DF1F80A11FC838
311
6F25A438EECEC07A250251FC3803E6F58C12560C4AD840E95E91C151A72936F496F35732D860FE635F62C8F2DA16B505C545B74125BAA2FA9E05D7CC053D063734D5C7665FD55B6B8D15D5E9BFEAFD8490FFA45E504B03041400060808007C5B31402FAB4ABDFD000000A00100003B0000006662782F39394437393835302D
311
373834362D344246432D384332312D3932353544324245353333442F7265736F75726365732F636F72652E786D6C8D504B6EC23010BD4A347B2776028420C7082238412F60390358103BF2A7EAF16B93546A77DDCC8CDE47F3F4F8F16B7A159FE8BCB6A607565228D0283B6A73EF21861BD9437114DC591B7EC9A03072C21E
311
320C82DF9D8DF30A296B029A905063475C41E93D0628D42B1D3D78F5C049963286A4F0CF7296EA29EF58B232D14927B80F2E05289627798270E86D740A3DAF1656F018F5B86AF4987EEA9B4607A2A5BBE672EA06723E3557B2B9749474F5B525CDB03D0FBBCB7ED3D48C57D92C78D0D34F46E550061C41D494D58432C2DA0F
311
C60E757BD8B684EE0E94F22ACBFF98E23CFED314B5094DBDC65D6C1E440EF22604AF725F69BDCB4C3B772BBE01504B010214000A00000800007C5B31403DEE336E79000000790000001B00000000000000000000000000000000006175746F6465736B2D64657369676E2D7061636B6167652E786D6C504B01021400140006
311
0808007C5B3140D486FD9CA0000000F40000001300000000000000000000000000B20000005B436F6E74656E745F54797065735D2E786D6C504B010214001400060808007C5B3140F0C58005EA0000007C010000080000000000000000000000000083010000636F72652E786D6C504B010214001400060808007C5B314055
311
019EA25F0000007C000000070000000000000000000000000093020000636E782E786D6C504B010214001400060808007C5B3140423F223D66010000020300000C00000000000000000000000000170300006662782F636F72652E786D6C504B010214001400060808007C5B31405D6208317E0000009D0000000B00000000
311
000000000000000000A70400006662782F636E782E786D6C504B010214001400060808007C5B3140502D2EF42B0100001402000031000000000000000000000000004E0500006662782F39394437393835302D373834362D344246432D384332312D3932353544324245353333442F636F72652E786D6C504B010214001400
311
060808007C5B3140D593EC064D010000330300003000000000000000000000000000C80600006662782F39394437393835302D373834362D344246432D384332312D3932353544324245353333442F636E782E786D6C504B010214001400060808007C5B3140BC624A879A0500007A10000034000000000000000000000000
311
00630800006662782F39394437393835302D373834362D344246432D384332312D3932353544324245353333442F6F626A656374732E786D6C504B010214001400060800007C5B314000000000000000000000000035000000000000000000000000004F0E00006662782F39394437393835302D373834362D344246432D38
311
4332312D3932353544324245353333442F76657274696365732E62696E504B010214001400060808007C5B3140F270F13306000000040000003600000000000000000000000000A20E00006662782F39394437393835302D373834362D344246432D384332312D3932353544324245353333442F747269616E676C65732E62
311
696E504B010214001400060800007C5B31400000000000000000000000003700000000000000000000000000FC0E00006662782F39394437393835302D373834362D344246432D384332312D3932353544324245353333442F617474726962757465732E62696E504B010214001400060808007C5B3140D5987DFC8F000000
311
410100003600000000000000000000000000510F00006662782F39394437393835302D373834362D344246432D384332312D3932353544324245353333442F6469726563746F72792E786D6C504B010214001400060808007C5B31402FAB4ABDFD000000A00100003B00000000000000000000000000341000006662782F39
311
394437393835302D373834362D344246432D384332312D3932353544324245353333442F7265736F75726365732F636F72652E786D6C504B0506000000000E000E00800400008A1100000000
310
504B03040A00000800007C5B31403DEE336E79000000790000001B0000006175746F6465736B2D64657369676E2D7061636B6167652E786D6C3C3F786D6C2076657273696F6E3D22312E302220656E636F64696E673D227574662D3822203F3E3C666F726D6174733E3C666F726D61743E687474703A2F2F736368656D612E
310
6175746F6465736B2E636F6D2F64657369676E2D7061636B6167652F323030393C2F666F726D61743E3C2F666F726D6174733E504B03041400060808007C5B3140D486FD9CA0000000F4000000130000005B436F6E74656E745F54797065735D2E786D6C7D8EC10E82300C865F65E91D8A1E8C310C0EEA1BF002731658846E
310
D98AC1B77784ABF1D8FE5FBFBF75BBCE937A534CCEB38643598122B6FEE978D0B0485F9C41B54DDD7D022595594E1A469170414C76A4D9A4D207E29CF43ECE46F218070CC6BECC4078ACAA135ACF422C856C0E68EA1BF5669944DDD7BCDE7B1F8E415D77AECB980613C2E4AC91FC167A2B244592486606FC29C8FD7F045B9A
310
EF7053A7E60B504B03041400060808007C5B31409D21E324E90000007C01000008000000636F72652E786D6C8D90618E83201085AF42E63F0A5AAB314853BB7A82BD00416A492B1881CD1E7FA1B5C9EEBF4D4866F278DFCCE4B1D3F7F2405F6A73DA9A0E6846002923EDA4CDDC41F057DC003A71B659EB7FD90019B1A80E92
310
0C9CCD9B0DEB2E496BBC323EAAC64E6A178573CA03928FD874E0E44D2D2213C14787BB67AB907731AB8CBEBB0887A027F45AA2A7384F5FB5DA8037633554FD58E0437D3CE3C3C740707F19CFB8A92FE540D2EB4B96279833AF97F77EB929E1D504BC20B4C084625A7F52DA16755BD5981C5B42589EEC7FA0B04EFF848236BE
310
2CF6735F98034EE321CF0FCEF294452CCFA0624DB9F11F504B03041400060808007C5B314055019EA25F0000007C00000007000000636E782E786D6C4DCB3B0E80201045D1AD90E915ED2CF8AC45050C11660C8261F98AB1B07AC9C97D42D718D865D3E909258CFD00CCE24AC6E326A164D74DC0B4128928FF326038472BA1
310
3128B1252AC747C6BAB984FC68F0B87FE8960A5C09FE86CFB69FBA01504B03041400060808007C5B31407F2BE56F65010000020300000C0000006662782F636F72652E786D6C8D52ED8E8230107C95A6FF4B0B7E604CA9514F9FE05EA042E51AA125A5253EFE2D1F86F3628C814033B3B33B3BC077F7BA429D72ADB626C371
310
C4305226B78536658683BF920D463BC19DB5FE4F194646D62AC33D8C052F9D0DCD04E5D678653CA0C6166A0265DB2A8F515EC121C36DFEA36A19C9E0A1A2BD458DCC6FB254511C010D7582B7DE8101340EE99F585C2F774E475CF0107431B1BA8069FAAA95C362735E9D5687734296E97A4F965F27460EC7F39E6CD2E3E2C4
310
FAFBB0E0B4170BEE75FD70973B25BD2AB048589C10169338FD8EE36D926E572961EB2D639CF6E54FA2D0141F8A82367E914C7647598B450C4606E2DFB6109147ADECC00F159CF621C26B48F83968080442F6F2523DF6B801D4A9DC5BB704A6B061A63A59050553191A2E4E47163A0F0D60B3977D92377DDEF7800F284D09D6
310
A487E325F87E3A1FA74E5134CA91CEDF91B1AE96D56C6EB4383FE7412FE5B9ADACFB444DA755E91426EDFF5EF10B504B03041400060808007C5B31404597CAAC7E0000009D0000000B0000006662782F636E782E786D6C4DCCDF0A83201C86E15B91DFB9EBCF6C19A8E112EF239685643A9C8E5DFE6A74B0A30F1E3E5ED67F
310
3687DE26BE6CF01CAA4B09C8F84798AC5F38E434630AA8172C8690FE6E80FCB8190E0783604B0CF979D264E631BBB4ABB37E3DB1ADBB1BAD9B0697AAE930D1BAC2544A85AF2D2152C981EAE10E8560C5AFB4EF11165F504B03041400060808007C5B3140533189382A01000014020000310000006662782F37323936383235
310
352D304435392D344646312D384141442D3337343441444143384643422F636F72652E786D6C8D51CB6EC32010FC158B537AC006E2678489DC44F982FE0031244189C1E251E5F30BB523B5B75C58343B333BDAA5FBE7F4C8BEA575CAE81EE01C814CEAD108A5AF3D08FE025B90ED19B5C6F83F3490693EC91E2418307AB526
310
CC2B341AEDA5F611D546C815E4CE490FB2F1113F3D70E34D4E3CE7C14786BBE7331FEFFC2A739CC776E431EABC8D01B265487A016B4857B7A4AA203A561D2C4F270CDB6138C26D5396C37138B4A7C3272D1621A32128B1CA958871D44549FBAE491233EAD5F48A3F5AC9BD14801184094418E2E60BE31D6976550351BD4388
310
1689FE4F1466F1A62828EDB7648DBBC81C6098164B835161C2F9F10A239FB3B13E4BF3364E8E1F80A11C114C08EE3A5A2CD4B880E85997ABA7F3C6C6056FEEE7C8DEAEC675C968916E14CBEF01634DF7643F504B03041400060808007C5B3140B33423115501000033030000300000006662782F37323936383235352D3044
310
35392D344646312D384141442D3337343441444143384643422F636E782E786D6CBD93CD6EC32010845F0571F70F4EEA441126520F7D821E7A25B04969305880ABE6EDBB2424CD25874A552FC89A1D66569F30DF7E8D967C4288C6BB81B2BAA5049CF2DAB8C340E7B4AFD6946C050FDEA73B1B254E8E30D02C53C10FC1CF53
310
9134ECE56C13AAD6B8631103443F070511E57C9358AFA4C50070D58C228C3BD01A34B919F16B0F015741717722E91DC8CBF31BF1BB0F5029F226A708DEE40EC1F3599AEE4C94282B631C6854EF30CA5ACEC96B88C75ACB246B565FBB1EECF49344F2856BE51C0CC9E503CD271565A31A39F2068782C714905E31A5D30454C8
310
69B246C984909BB3F1E2117C362EF5CBE235083EA07BD1F5EB35869D678227334271A8003281A6A26B5957B5AC62AB57C636DD6AF3B4AADA7ED3B6BCC976C177DEDB72096320F88928EF12B84405E34D1E3FC2577C449B80AC7D38FD02240228AD173AB78CBFE4C3FAC572F98F7C9AF3FB465C01FF02F10D504B0304140006
310
0808007C5B31406CF3AB6358070000931B0000340000006662782F37323936383235352D304435392D344646312D384141442D3337343441444143384643422F6F626A656374732E786D6CED595B6FA33814FE2B887D0E0949DA6D5794519BB4A368D499D16467B40F9190030EF5D618649B5EF6D7EFF1050234B464A7FB36
310
0F0960ECE373BE73F521F8F09451E70173417276E1FADEC475308BF384B0F4C22DE56E74E63A1FC280E7B96C4C731D86327CE1AA61370C529E97851D4AF00E955476466FAEFE72448C19769D9822212E5C11DFE10C79A8947982C5BD972089BC74F7E4F99E99D8269B7254DC7588168863268153186740C5314CF9EDC7893B
310
0E83B17A1F06EADFCE9A0D9A35EF9F35D652B7B9244C48C4E2172C75C8CC06B134F3E7CBEBE9C9F9E8643E9F8DE6A7537F747573B51CF9BFCF268BD3C5E2FCF2FA1CD8DBE639B53225B8C02C01FD3DBBA11F8CD59B5A748BC021AEE39C311C6B20012A2D569720C102B66AC037693FFA4AA2C66B2D61E379AEDE5B161AC3B3
310
3695BE59C38068D10541EC7695C4D5B5295FBEFD1B0417438C920B2C815B213968D7C2C3C12BDC70128CCD68186CF7BA20C2C990C49C20EA50B2E588835260AA9A1206668125A39C8303294749A035675EB76D0B3CF36DD739C4E5AEA45479861B6AC78AC0FDB0149A33F20FE67BEE9BC8004F206D49983CB35CCAE702BBE1
310
7930D68361A02EB3A97D6980747614A5422362DE76045D28D75F2DDDF0D3CDF669ADC2C1E1CD0B9E17984B65744A8F9A2F30647B5528D96DFD419A530B401803AA5DB907E51B20FF19A2C79E15D01B274FF3A7B99D2B39626297F30C74E34C9CD104FE268EAFFFD57DE32E18D78BDBDAEBC313DC544175F6F378B665D05859
310
FE1B7086C103187CCE67F6D53A4614ECF996300048198943731882D0BEDB3EB9E10A0227047A588568E883C8C0EE03DC06634B66AF95CABDACD73140D4EE311BA224804D5B24B0D1A3A78F903D3889F76A6A8AD807EFC9BB98EBE572FD695DF21D8AF1ADF5E925DE11462464CDC30CB5306F49748F9F1F739E80A02FF15E37
310
F1CEEC5602D056982BE0D30A04F5B0DFB9B5410CEBD25C859BE08D1D400895AB1BF46F898831A588E1BCACF6ADA39B32D4DAE36DCDE0865303F16CDA31618E1F88AA2AC069F6335A8C42DE8F392914886EF8D14856074DAF47BAEFABCF6091F5FC9E592B06A19721FAA70E5A077068597685B405A21678BB0FE7714E731E6D
310
9F2313E95CA825808DB6B7FC681185586F94A4A8800769BFAB424A6AA48D12B2DB9502E2EA01167FAC164D73987833FFC469FE779C710ED1167C1771EB779D3D2292A114473B94F46DD7DCADA62D34C91ED21CEF28C8451E887C8E908C26094E8F81E628E2E7EF4A3DA5B910846101F9EA20F84D34261E0412A3CD8A65A5D5
310
0ED044441996881E838022D303AE4E3BBAC68DA174789BC7DA7A5FD35893E8FF64111C412D99B38840290A39E44DC67DEF0462481B5D8372075FB0B68AB61683965042C4CFD12326E99D3C067543BE07F7188E24A58CF202C560D603C8BEF015A5D40EEF5B14DFABFC11C5257D2F031198EE2242699945F0230C4E1E435CBB
310
0E4CAFA2D0206E629FC419146548967CC826A7279317FB989AA11B021B1BED0885B01D65A8E841BD1510753DE2D4E05BEA3D4ADD965911A12C2FD92043F1665D6FB2E4BB6A556407F2AB4A45281B2BC29660181026EBAC5AC56C30751D58C18D74A07A8E04CA0A6A4E616F241EBFF6264DB977036EFDF47D37C8A0F0EBD15E
310
33A2CE2B182C8FADC2403C2219DFB9E15A5F4757507F2738D9A7FAAAD66C568080988AE425275645DF5750DED81ACD0D6F91149B8F26EB56D7EF2B0FBA1FC118D640ED522F5C29A033CC245295C9ADBAA1DF1084E0160D33BE5239F5182A9749A2AB46446F489F3A5B65446BD38C78C51D6679063FB6212CA66582372811F7
310
D1ADA4D19A28D6AD945E462A8C5F15F0CBC775071E181920D25755E0E1C7CE5A3BBA50E5D24122F2AECCB60C1108822DD152A31BAF60A9D548A5E5FAAACE14507781815915CF7F9D2C9AED885F278BD41AC6CF9D2C68BE45741F6D1AD93C56667DD429A04E4F8ACA7B9C0274D7A1A65A271193CBADF8D69722888955901F5C
310
8C5531C310ECE3F83F27EDBE2468B6EBF07F5CD2F65F141C472595D664D5A43A50B8AE9A296C36F5CFFDB3EBE968793DB91ECD6757A7A3CB9BC5D9E8FAFC727173365F9E2C9697359ADA4FC3A08E653A75C1B38969D5B07AB218405356E4942470984F9C1443C89770A41FD03DE71916903B9BBDEEC4F6E407AC7E306D4E89
310
B614579CDC21E80F5301591D302A63D91E777E83CEA48473F6850B3D23EF1EFEAC55BA0E249E0B173A0592C458785BE832A97E9E260E1957A77E4B0CF0412C5519D12CAA9FEB550A9B56F4AFA70CC90256AE560B03EAB6029A5FAD0685E6CDF2141F2578C58E8324DC6E4B09C59A91653F500BA3B7D9ABDFC84609BBB75B3F
310
81EBBE2E96EFE9392D44067D3178D5080CD591443CD5ED6EC59865E972F9750C6D3667F5C5296899822E87531A710CC65CAA7A0AAC08ACC2D22C9004535DFCB1F9CA73F8C29339BA28DA2CF22CCB997DB884E358025F889CF51D7CEF4936503560D555179BE9C49F6E7437DB36D8A32D12D853E5100C54558412A1636C6091
310
2F3A53B66F39564AE84C5F2D1D1B3EA10B602CE84573D77CDD72C07BD47714E52BDAC32B395F6D688FF554B0060EADE8F05F504B03041400060800007C5B3140000000000000000000000000350000006662782F37323936383235352D304435392D344646312D384141442D3337343441444143384643422F766572746963
310
65732E62696E504B03041400060808007C5B3140F270F1330600000004000000360000006662782F37323936383235352D304435392D344646312D384141442D3337343441444143384643422F747269616E676C65732E62696E636660600000504B03041400060800007C5B31400000000000000000000000003700000066
310
62782F37323936383235352D304435392D344646312D384141442D3337343441444143384643422F617474726962757465732E62696E504B03041400060808007C5B3140D5987DFC8F00000041010000360000006662782F37323936383235352D304435392D344646312D384141442D3337343441444143384643422F6469
310
726563746F72792E786D6C858F410EC2201045AF4266AF15DDB800BA74E7C21B903225242D6328188F2FA5C4183471359997F9FF81E89FF3C41E1816475E02DF1F80A11FC8386F25A438EECEC07A250251FC3803E6F58C12560C4AD840E95E91C151A72936F496F35732D860FE635F62C8F2DA16B505C545B74125BAA2FA9E
310
05D7CC053D063734D5C7665FD55B6B8D15D5E9BFEAFD8490FFA45E504B03041400060808007C5B3140F5CBBE15FC000000A00100003B0000006662782F37323936383235352D304435392D344646312D384141442D3337343441444143384643422F7265736F75726365732F636F72652E786D6C8D505B6AC33010BC8AD97F
310
D9929DC4C6C80A719A9CA01710F2C6158925A347E9F12B252EB47F05A15DE6C10EC38F5FCBA3F844E7B53503B092428146D9499B7980186EA483E228B8B336FC924161E482036418049F9D8DEB06296B029A90506327DC40E93D0628D4232D0378F5818B2C650C49E1EFE52AD55DCE58B232D14927B80F2E05285E47F20FC2
310
A1B7D129F4BC7AB182C7A8A74DA3A77453DF343A10DD757FD98F574676EDE144766F174AC6F3F544BAF6DC5C687E63C3AB6C163CE8E527A37228034E206ACA6A421961ED3B637DDDF6FB96D0434F29AFB2FC8F29AED33F4D519BD0D45BDC97CD836029C89310BCCA7DA5F12C33CDDCADF806504B010214000A00000800007C
310
5B31403DEE336E79000000790000001B00000000000000000000000000000000006175746F6465736B2D64657369676E2D7061636B6167652E786D6C504B010214001400060808007C5B3140D486FD9CA0000000F40000001300000000000000000000000000B20000005B436F6E74656E745F54797065735D2E786D6C504B
310
010214001400060808007C5B31409D21E324E90000007C010000080000000000000000000000000083010000636F72652E786D6C504B010214001400060808007C5B314055019EA25F0000007C000000070000000000000000000000000092020000636E782E786D6C504B010214001400060808007C5B31407F2BE56F6501
310
0000020300000C00000000000000000000000000160300006662782F636F72652E786D6C504B010214001400060808007C5B31404597CAAC7E0000009D0000000B00000000000000000000000000A50400006662782F636E782E786D6C504B010214001400060808007C5B3140533189382A01000014020000310000000000
310
00000000000000004C0500006662782F37323936383235352D304435392D344646312D384141442D3337343441444143384643422F636F72652E786D6C504B010214001400060808007C5B3140B334231155010000330300003000000000000000000000000000C50600006662782F37323936383235352D304435392D3446
310
46312D384141442D3337343441444143384643422F636E782E786D6C504B010214001400060808007C5B31406CF3AB6358070000931B00003400000000000000000000000000680800006662782F37323936383235352D304435392D344646312D384141442D3337343441444143384643422F6F626A656374732E786D6C50
310
4B010214001400060800007C5B31400000000000000000000000003500000000000000000000000000121000006662782F37323936383235352D304435392D344646312D384141442D3337343441444143384643422F76657274696365732E62696E504B010214001400060808007C5B3140F270F133060000000400000036
310
00000000000000000000000000651000006662782F37323936383235352D304435392D344646312D384141442D3337343441444143384643422F747269616E676C65732E62696E504B010214001400060800007C5B31400000000000000000000000003700000000000000000000000000BF1000006662782F373239363832
310
35352D304435392D344646312D384141442D3337343441444143384643422F617474726962757465732E62696E504B010214001400060808007C5B3140D5987DFC8F000000410100003600000000000000000000000000141100006662782F37323936383235352D304435392D344646312D384141442D3337343441444143
310
384643422F6469726563746F72792E786D6C504B010214001400060808007C5B3140F5CBBE15FC000000A00100003B00000000000000000000000000F71100006662782F37323936383235352D304435392D344646312D384141442D3337343441444143384643422F7265736F75726365732F636F72652E786D6C504B0506
310
000000000E000E00800400004C1300000000
  0
XRECORD
  5
27
102
{ACAD_REACTORS
330
22
102
}
330
22
100
AcDbXrecord
280
     1
270
     1
271
     1
  0
XRECORD
  5
26
102
{ACAD_REACTORS
330
22
102
}
330
22
100
AcDbXrecord
280
     1
270
     1
271
     1
  0
XRECORD
  5
28
102
{ACAD_REACTORS
330
22
102
}
330
22
100
AcDbXrecord
280
     1
270
     1
271
     1
  0
XRECORD
  5
25
102
{ACAD_REACTORS
330
22
102
}
330
22
100
AcDbXrecord
280
     1
270
     1
271
     1
  0
XRECORD
  5
BC1
102
{ACAD_REACTORS
330
BC0
102
}
330
BC0
100
AcDbXrecord
280
     1
102
ACAD_ROUNDTRIP_2012_MLEADER_STYLE
298
     1
  0
CELLSTYLEMAP
  5
BBF
102
{ACAD_REACTORS
330
BBE
102
}
330
BBE
100
AcDbCellStyleMap
 90
        3
300
CELLSTYLE
  1
TABLEFORMAT_BEGIN
 90
        5
170
     1
 91
        0
 92
    32768
 62
   257
 93
        1
300
CONTENTFORMAT
  1
CONTENTFORMAT_BEGIN
 90
        0
 91
        0
 92
      512
 93
        0
300

 40
0.0
140
1.0
 94
        5
 62
     0
340
55
144
0.25
309
CONTENTFORMAT_END
171
     0
 94
        0
309
TABLEFORMAT_END
  1
CELLSTYLE_BEGIN
 90
        1
 91
        1
300
_TITLE
309
CELLSTYLE_END
300
CELLSTYLE
  1
TABLEFORMAT_BEGIN
 90
        5
170
     1
 91
        0
 92
        0
 62
   257
 93
        1
300
CONTENTFORMAT
  1
CONTENTFORMAT_BEGIN
 90
        0
 91
        0
 92
      512
 93
        0
300

 40
0.0
140
1.0
 94
        5
 62
     0
340
55
144
0.18
309
CONTENTFORMAT_END
171
     0
 94
        0
309
TABLEFORMAT_END
  1
CELLSTYLE_BEGIN
 90
        2
 91
        1
300
_HEADER
309
CELLSTYLE_END
300
CELLSTYLE
  1
TABLEFORMAT_BEGIN
 90
        5
170
     1
 91
        0
 92
        0
 62
   257
 93
        1
300
CONTENTFORMAT
  1
CONTENTFORMAT_BEGIN
 90
        0
 91
        0
 92
      512
 93
        0
300

 40
0.0
140
1.0
 94
        2
 62
     0
340
55
144
0.18
309
CONTENTFORMAT_END
171
     0
 94
        0
309
TABLEFORMAT_END
  1
CELLSTYLE_BEGIN
 90
        3
 91
        2
300
_DATA
309
CELLSTYLE_END
  0
XRECORD
  5
BF7
102
{ACAD_REACTORS
330
BBE
102
}
330
BBE
100
AcDbXrecord
280
     1
102
ACAD_ROUNDTRIP_PRE2007_TABLESTYLE
 90
      512
 91
        0
  1

 92
      512
 93
        0
  2

 94
      512
 95
        0
  3

  0
XRECORD
  5
BD2
102
{ACAD_REACTORS
330
BD1
102
}
330
BD1
100
AcDbXrecord
280
     1
102
RTVSPropertyOp0
 70
     1
102
RTVSPropertyOp1
 70
     1
102
RTVSPropertyOp2
 70
     1
102
RTVSPropertyOp3
 70
     1
102
RTVSPropertyOp4
 70
     1
102
RTVSPropertyOp5
 70
     1
102
RTVSPropertyOp6
 70
     1
102
RTVSPropertyOp7
 70
     1
102
RTVSPropertyOp8
 70
     1
102
RTVSPropertyOp9
 70
     1
102
RTVSPropertyOp10
 70
     1
102
RTVSPropertyOp11
 70
     1
102
RTVSPropertyOp12
 70
     1
102
RTVSPropertyOp13
 70
     1
102
RTVSPropertyOp14
 70
     1
102
RTVSPropertyOp15
 70
     1
102
RTVSPropertyOp16
 70
     1
102
RTVSPropertyOp17
 70
     1
102
RTVSPropertyOp18
 70
     1
102
RTVSPropertyOp19
 70
     1
102
RTVSPropertyOp20
 70
     1
102
RTVSPropertyOp21
 70
     1
102
RTVSPropertyOp22
 70
     1
102
RTVSPropertyOp23
 70
     1
102
RTVSPropertyOp24
 70
     1
102
RTVSPropertyOp25
 70
     1
102
RTVSPropertyOp26
 70
     1
102
RTVSPropertyOp27
 70
     1
102
RTVSPropertyOp28
 70
     1
102
RTVSPropertyOp29
 70
     1
102
RTVSPropertyOp30
 70
     1
102
RTVSPropertyOp31
 70
     1
102
RTVSPropertyOp32
 70
     1
  0
XRECORD
  5
BD0
102
{ACAD_REACTORS
330
BCF
102
}
330
BCF
100
AcDbXrecord
280
     1
102
RTVSPropertyOp0
 70
     1
102
RTVSPropertyOp1
 70
     1
102
RTVSPropertyOp2
 70
     1
102
RTVSPropertyOp3
 70
     1
102
RTVSPropertyOp4
 70
     1
102
RTVSPropertyOp5
 70
     1
102
RTVSPropertyOp6
 70
     1
102
RTVSPropertyOp7
 70
     1
102
RTVSPropertyOp8
 70
     1
102
RTVSPropertyOp9
 70
     1
102
RTVSPropertyOp10
 70
     1
102
RTVSPropertyOp11
 70
     1
102
RTVSPropertyOp12
 70
     1
102
RTVSPropertyOp13
 70
     1
102
RTVSPropertyOp14
 70
     1
102
RTVSPropertyOp15
 70
     1
102
RTVSPropertyOp16
 70
     1
102
RTVSPropertyOp17
 70
     1
102
RTVSPropertyOp18
 70
     1
102
RTVSPropertyOp19
 70
     1
102
RTVSPropertyOp20
 70
     1
102
RTVSPropertyOp21
 70
     1
102
RTVSPropertyOp22
 70
     1
102
RTVSPropertyOp23
 70
     1
102
RTVSPropertyOp24
 70
     1
102
RTVSPropertyOp25
 70
     1
102
RTVSPropertyOp26
 70
     1
102
RTVSPropertyOp27
 70
     1
102
RTVSPropertyOp28
 70
     1
102
RTVSPropertyOp29
 70
     1
102
RTVSPropertyOp30
 70
     1
102
RTVSPropertyOp31
 70
     1
102
RTVSPropertyOp32
 70
     1
  0
XRECORD
  5
BDE
102
{ACAD_REACTORS
330
BDD
102
}
330
BDD
100
AcDbXrecord
280
     1
102
RTVSPropertyOp0
 70
     1
102
RTVSPropertyOp1
 70
     1
102
RTVSPropertyOp2
 70
     1
102
RTVSPropertyOp3
 70
     1
102
RTVSPropertyOp4
 70
     1
102
RTVSPropertyOp5
 70
     1
102
RTVSPropertyOp6
 70
     1
102
RTVSPropertyOp7
 70
     1
102
RTVSPropertyOp8
 70
     1
102
RTVSPropertyOp9
 70
     1
102
RTVSPropertyOp10
 70
     1
102
RTVSPropertyOp11
 70
     1
102
RTVSPropertyOp12
 70
     1
102
RTVSPropertyOp13
 70
     1
102
RTVSPropertyOp14
 70
     1
102
RTVSPropertyOp15
 70
     1
102
RTVSPropertyOp16
 70
     1
102
RTVSPropertyOp17
 70
     1
102
RTVSPropertyOp18
 70
     1
102
RTVSPropertyOp19
 70
     1
102
RTVSPropertyOp20
 70
     1
102
RTVSPropertyOp21
 70
     1
102
RTVSPropertyOp22
 70
     1
102
RTVSPropertyOp23
 70
     1
102
RTVSPropertyOp24
 70
     1
102
RTVSPropertyOp25
 70
     1
102
RTVSPropertyOp26
 70
     1
102
RTVSPropertyOp27
 70
     1
102
RTVSPropertyOp28
 70
     1
102
RTVSPropertyOp29
 70
     1
102
RTVSPropertyOp30
 70
     1
102
RTVSPropertyOp31
 70
     1
102
RTVSPropertyOp32
 70
     1
  0
XRECORD
  5
BE6
102
{ACAD_REACTORS
330
BE5
102
}
330
BE5
100
AcDbXrecord
280
     1
102
RTVSPropertyOp0
 70
     1
102
RTVSPropertyOp1
 70
     1
102
RTVSPropertyOp2
 70
     1
102
RTVSPropertyOp3
 70
     1
102
RTVSPropertyOp4
 70
     1
102
RTVSPropertyOp5
 70
     1
102
RTVSPropertyOp6
 70
     1
102
RTVSPropertyOp7
 70
     1
102
RTVSPropertyOp8
 70
     1
102
RTVSPropertyOp9
 70
     1
102
RTVSPropertyOp10
 70
     1
102
RTVSPropertyOp11
 70
     1
102
RTVSPropertyOp12
 70
     1
102
RTVSPropertyOp13
 70
     1
102
RTVSPropertyOp14
 70
     1
102
RTVSPropertyOp15
 70
     1
102
RTVSPropertyOp16
 70
     1
102
RTVSPropertyOp17
 70
     1
102
RTVSPropertyOp18
 70
     1
102
RTVSPropertyOp19
 70
     1
102
RTVSPropertyOp20
 70
     1
102
RTVSPropertyOp21
 70
     1
102
RTVSPropertyOp22
 70
     1
102
RTVSPropertyOp23
 70
     1
102
RTVSPropertyOp24
 70
     1
102
RTVSPropertyOp25
 70
     1
102
RTVSPropertyOp26
 70
     1
102
RTVSPropertyOp27
 70
     1
102
RTVSPropertyOp28
 70
     1
102
RTVSPropertyOp29
 70
     1
102
RTVSPropertyOp30
 70
     1
102
RTVSPropertyOp31
 70
     1
102
RTVSPropertyOp32
 70
     1
  0
XRECORD
  5
BD8
102
{ACAD_REACTORS
330
BD7
102
}
330
BD7
100
AcDbXrecord
280
     1
102
RTVSPropertyOp0
 70
     1
102
RTVSPropertyOp1
 70
     1
102
RTVSPropertyOp2
 70
     1
102
RTVSPropertyOp3
 70
     1
102
RTVSPropertyOp4
 70
     1
102
RTVSPropertyOp5
 70
     1
102
RTVSPropertyOp6
 70
     1
102
RTVSPropertyOp7
 70
     1
102
RTVSPropertyOp8
 70
     1
102
RTVSPropertyOp9
 70
     1
102
RTVSPropertyOp10
 70
     1
102
RTVSPropertyOp11
 70
     1
102
RTVSPropertyOp12
 70
     1
102
RTVSPropertyOp13
 70
     1
102
RTVSPropertyOp14
 70
     1
102
RTVSPropertyOp15
 70
     1
102
RTVSPropertyOp16
 70
     1
102
RTVSPropertyOp17
 70
     1
102
RTVSPropertyOp18
 70
     1
102
RTVSPropertyOp19
 70
     1
102
RTVSPropertyOp20
 70
     1
102
RTVSPropertyOp21
 70
     1
102
RTVSPropertyOp22
 70
     1
102
RTVSPropertyOp23
 70
     1
102
RTVSPropertyOp24
 70
     1
102
RTVSPropertyOp25
 70
     1
102
RTVSPropertyOp26
 70
     1
102
RTVSPropertyOp27
 70
     1
102
RTVSPropertyOp28
 70
     1
102
RTVSPropertyOp29
 70
     1
102
RTVSPropertyOp30
 70
     1
102
RTVSPropertyOp31
 70
     1
102
RTVSPropertyOp32
 70
     1
  0
XRECORD
  5
BDC
102
{ACAD_REACTORS
330
BDB
102
}
330
BDB
100
AcDbXrecord
280
     1
102
RTVSPropertyOp0
 70
     1
102
RTVSPropertyOp1
 70
     1
102
RTVSPropertyOp2
 70
     1
102
RTVSPropertyOp3
 70
     1
102
RTVSPropertyOp4
 70
     1
102
RTVSPropertyOp5
 70
     1
102
RTVSPropertyOp6
 70
     1
102
RTVSPropertyOp7
 70
     1
102
RTVSPropertyOp8
 70
     1
102
RTVSPropertyOp9
 70
     1
102
RTVSPropertyOp10
 70
     1
102
RTVSPropertyOp11
 70
     1
102
RTVSPropertyOp12
 70
     1
102
RTVSPropertyOp13
 70
     1
102
RTVSPropertyOp14
 70
     1
102
RTVSPropertyOp15
 70
     1
102
RTVSPropertyOp16
 70
     1
102
RTVSPropertyOp17
 70
     1
102
RTVSPropertyOp18
 70
     1
102
RTVSPropertyOp19
 70
     1
102
RTVSPropertyOp20
 70
     1
102
RTVSPropertyOp21
 70
     1
102
RTVSPropertyOp22
 70
     1
102
RTVSPropertyOp23
 70
     1
102
RTVSPropertyOp24
 70
     1
102
RTVSPropertyOp25
 70
     1
102
RTVSPropertyOp26
 70
     1
102
RTVSPropertyOp27
 70
     1
102
RTVSPropertyOp28
 70
     1
102
RTVSPropertyOp29
 70
     1
102
RTVSPropertyOp30
 70
     1
102
RTVSPropertyOp31
 70
     1
102
RTVSPropertyOp32
 70
     1
  0
XRECORD
  5
BF6
102
{ACAD_REACTORS
330
BF5
102
}
330
BF5
100
AcDbXrecord
280
     1
102
RTVSPropertyOp0
 70
     0
102
RTVSPropertyOp1
 70
     0
102
RTVSPropertyOp2
 70
     0
102
RTVSPropertyOp3
 70
     0
102
RTVSPropertyOp4
 70
     0
102
RTVSPropertyOp5
 70
     0
102
RTVSPropertyOp6
 70
     0
102
RTVSPropertyOp7
 70
     0
102
RTVSPropertyOp8
 70
     0
102
RTVSPropertyOp9
 70
     0
102
RTVSPropertyOp10
 70
     0
102
RTVSPropertyOp11
 70
     0
102
RTVSPropertyOp12
 70
     0
102
RTVSPropertyOp13
 70
     0
102
RTVSPropertyOp14
 70
     2
102
RTVSPropertyOp15
 70
     0
102
RTVSPropertyOp16
 70
     0
102
RTVSPropertyOp17
 70
     0
102
RTVSPropertyOp18
 70
     0
102
RTVSPropertyOp19
 70
     0
102
RTVSPropertyOp20
 70
     0
102
RTVSPropertyOp21
 70
     0
102
RTVSPropertyOp22
 70
     0
102
RTVSPropertyOp23
 70
     0
102
RTVSPropertyOp24
 70
     0
102
RTVSPropertyOp25
 70
     0
102
RTVSPropertyOp26
 70
     0
102
RTVSPropertyOp27
 70
     0
102
RTVSPropertyOp28
 70
     1
102
RTVSPropertyOp29
 70
     1
102
RTVSPropertyOp30
 70
     1
102
RTVSPropertyOp31
 70
     1
102
RTVSPropertyOp32
 70
     1
  0
XRECORD
  5
BE4
102
{ACAD_REACTORS
330
BE3
102
}
330
BE3
100
AcDbXrecord
280
     1
102
RTVSPropertyOp0
 70
     1
102
RTVSPropertyOp1
 70
     1
102
RTVSPropertyOp2
 70
     1
102
RTVSPropertyOp3
 70
     1
102
RTVSPropertyOp4
 70
     1
102
RTVSPropertyOp5
 70
     1
102
RTVSPropertyOp6
 70
     1
102
RTVSPropertyOp7
 70
     1
102
RTVSPropertyOp8
 70
     1
102
RTVSPropertyOp9
 70
     1
102
RTVSPropertyOp10
 70
     1
102
RTVSPropertyOp11
 70
     1
102
RTVSPropertyOp12
 70
     1
102
RTVSPropertyOp13
 70
     1
102
RTVSPropertyOp14
 70
     1
102
RTVSPropertyOp15
 70
     1
102
RTVSPropertyOp16
 70
     1
102
RTVSPropertyOp17
 70
     1
102
RTVSPropertyOp18
 70
     1
102
RTVSPropertyOp19
 70
     1
102
RTVSPropertyOp20
 70
     1
102
RTVSPropertyOp21
 70
     1
102
RTVSPropertyOp22
 70
     1
102
RTVSPropertyOp23
 70
     1
102
RTVSPropertyOp24
 70
     1
102
RTVSPropertyOp25
 70
     1
102
RTVSPropertyOp26
 70
     1
102
RTVSPropertyOp27
 70
     1
102
RTVSPropertyOp28
 70
     1
102
RTVSPropertyOp29
 70
     1
102
RTVSPropertyOp30
 70
     1
102
RTVSPropertyOp31
 70
     1
102
RTVSPropertyOp32
 70
     1
  0
XRECORD
  5
BC8
102
{ACAD_REACTORS
330
BC7
102
}
330
BC7
100
AcDbXrecord
280
     1
102
RTVSPropertyOp0
 70
     1
102
RTVSPropertyOp1
 70
     1
102
RTVSPropertyOp2
 70
     1
102
RTVSPropertyOp3
 70
     1
102
RTVSPropertyOp4
 70
     1
102
RTVSPropertyOp5
 70
     1
102
RTVSPropertyOp6
 70
     1
102
RTVSPropertyOp7
 70
     1
102
RTVSPropertyOp8
 70
     1
102
RTVSPropertyOp9
 70
     1
102
RTVSPropertyOp10
 70
     1
102
RTVSPropertyOp11
 70
     1
102
RTVSPropertyOp12
 70
     1
102
RTVSPropertyOp13
 70
     1
102
RTVSPropertyOp14
 70
     1
102
RTVSPropertyOp15
 70
     1
102
RTVSPropertyOp16
 70
     1
102
RTVSPropertyOp17
 70
     1
102
RTVSPropertyOp18
 70
     1
102
RTVSPropertyOp19
 70
     1
102
RTVSPropertyOp20
 70
     1
102
RTVSPropertyOp21
 70
     1
102
RTVSPropertyOp22
 70
     1
102
RTVSPropertyOp23
 70
     1
102
RTVSPropertyOp24
 70
     1
102
RTVSPropertyOp25
 70
     1
102
RTVSPropertyOp26
 70
     1
102
RTVSPropertyOp27
 70
     1
102
RTVSPropertyOp28
 70
     1
102
RTVSPropertyOp29
 70
     1
102
RTVSPropertyOp30
 70
     1
102
RTVSPropertyOp31
 70
     1
102
RTVSPropertyOp32
 70
     1
  0
XRECORD
  5
BCA
102
{ACAD_REACTORS
330
BC9
102
}
330
BC9
100
AcDbXrecord
280
     1
102
RTVSPropertyOp0
 70
     1
102
RTVSPropertyOp1
 70
     1
102
RTVSPropertyOp2
 70
     1
102
RTVSPropertyOp3
 70
     1
102
RTVSPropertyOp4
 70
     1
102
RTVSPropertyOp5
 70
     1
102
RTVSPropertyOp6
 70
     1
102
RTVSPropertyOp7
 70
     1
102
RTVSPropertyOp8
 70
     1
102
RTVSPropertyOp9
 70
     1
102
RTVSPropertyOp10
 70
     1
102
RTVSPropertyOp11
 70
     1
102
RTVSPropertyOp12
 70
     1
102
RTVSPropertyOp13
 70
     1
102
RTVSPropertyOp14
 70
     1
102
RTVSPropertyOp15
 70
     1
102
RTVSPropertyOp16
 70
     1
102
RTVSPropertyOp17
 70
     1
102
RTVSPropertyOp18
 70
     1
102
RTVSPropertyOp19
 70
     1
102
RTVSPropertyOp20
 70
     1
102
RTVSPropertyOp21
 70
     1
102
RTVSPropertyOp22
 70
     1
102
RTVSPropertyOp23
 70
     1
102
RTVSPropertyOp24
 70
     1
102
RTVSPropertyOp25
 70
     1
102
RTVSPropertyOp26
 70
     1
102
RTVSPropertyOp27
 70
     1
102
RTVSPropertyOp28
 70
     1
102
RTVSPropertyOp29
 70
     1
102
RTVSPropertyOp30
 70
     1
102
RTVSPropertyOp31
 70
     1
102
RTVSPropertyOp32
 70
     1
  0
XRECORD
  5
BCC
102
{ACAD_REACTORS
330
BCB
102
}
330
BCB
100
AcDbXrecord
280
     1
102
RTVSPropertyOp0
 70
     1
102
RTVSPropertyOp1
 70
     1
102
RTVSPropertyOp2
 70
     1
102
RTVSPropertyOp3
 70
     1
102
RTVSPropertyOp4
 70
     1
102
RTVSPropertyOp5
 70
     1
102
RTVSPropertyOp6
 70
     1
102
RTVSPropertyOp7
 70
     1
102
RTVSPropertyOp8
 70
     1
102
RTVSPropertyOp9
 70
     1
102
RTVSPropertyOp10
 70
     1
102
RTVSPropertyOp11
 70
     1
102
RTVSPropertyOp12
 70
     1
102
RTVSPropertyOp13
 70
     1
102
RTVSPropertyOp14
 70
     1
102
RTVSPropertyOp15
 70
     1
102
RTVSPropertyOp16
 70
     1
102
RTVSPropertyOp17
 70
     1
102
RTVSPropertyOp18
 70
     1
102
RTVSPropertyOp19
 70
     1
102
RTVSPropertyOp20
 70
     1
102
RTVSPropertyOp21
 70
     1
102
RTVSPropertyOp22
 70
     1
102
RTVSPropertyOp23
 70
     1
102
RTVSPropertyOp24
 70
     1
102
RTVSPropertyOp25
 70
     1
102
RTVSPropertyOp26
 70
     1
102
RTVSPropertyOp27
 70
     1
102
RTVSPropertyOp28
 70
     1
102
RTVSPropertyOp29
 70
     1
102
RTVSPropertyOp30
 70
     1
102
RTVSPropertyOp31
 70
     1
102
RTVSPropertyOp32
 70
     1
  0
XRECORD
  5
BCE
102
{ACAD_REACTORS
330
BCD
102
}
330
BCD
100
AcDbXrecord
280
     1
102
RTVSPropertyOp0
 70
     1
102
RTVSPropertyOp1
 70
     1
102
RTVSPropertyOp2
 70
     1
102
RTVSPropertyOp3
 70
     1
102
RTVSPropertyOp4
 70
     1
102
RTVSPropertyOp5
 70
     1
102
RTVSPropertyOp6
 70
     1
102
RTVSPropertyOp7
 70
     1
102
RTVSPropertyOp8
 70
     1
102
RTVSPropertyOp9
 70
     1
102
RTVSPropertyOp10
 70
     1
102
RTVSPropertyOp11
 70
     1
102
RTVSPropertyOp12
 70
     1
102
RTVSPropertyOp13
 70
     1
102
RTVSPropertyOp14
 70
     1
102
RTVSPropertyOp15
 70
     1
102
RTVSPropertyOp16
 70
     1
102
RTVSPropertyOp17
 70
     1
102
RTVSPropertyOp18
 70
     1
102
RTVSPropertyOp19
 70
     1
102
RTVSPropertyOp20
 70
     1
102
RTVSPropertyOp21
 70
     1
102
RTVSPropertyOp22
 70
     1
102
RTVSPropertyOp23
 70
     1
102
RTVSPropertyOp24
 70
     1
102
RTVSPropertyOp25
 70
     1
102
RTVSPropertyOp26
 70
     1
102
RTVSPropertyOp27
 70
     1
102
RTVSPropertyOp28
 70
     1
102
RTVSPropertyOp29
 70
     1
102
RTVSPropertyOp30
 70
     1
102
RTVSPropertyOp31
 70
     1
102
RTVSPropertyOp32
 70
     1
  0
XRECORD
  5
BD6
102
{ACAD_REACTORS
330
BD5
102
}
330
BD5
100
AcDbXrecord
280
     1
102
RTVSPropertyOp0
 70
     1
102
RTVSPropertyOp1
 70
     1
102
RTVSPropertyOp2
 70
     1
102
RTVSPropertyOp3
 70
     1
102
RTVSPropertyOp4
 70
     1
102
RTVSPropertyOp5
 70
     1
102
RTVSPropertyOp6
 70
     1
102
RTVSPropertyOp7
 70
     1
102
RTVSPropertyOp8
 70
     1
102
RTVSPropertyOp9
 70
     1
102
RTVSPropertyOp10
 70
     1
102
RTVSPropertyOp11
 70
     1
102
RTVSPropertyOp12
 70
     1
102
RTVSPropertyOp13
 70
     1
102
RTVSPropertyOp14
 70
     1
102
RTVSPropertyOp15
 70
     1
102
RTVSPropertyOp16
 70
     1
102
RTVSPropertyOp17
 70
     1
102
RTVSPropertyOp18
 70
     1
102
RTVSPropertyOp19
 70
     1
102
RTVSPropertyOp20
 70
     1
102
RTVSPropertyOp21
 70
     1
102
RTVSPropertyOp22
 70
     1
102
RTVSPropertyOp23
 70
     1
102
RTVSPropertyOp24
 70
     1
102
RTVSPropertyOp25
 70
     1
102
RTVSPropertyOp26
 70
     1
102
RTVSPropertyOp27
 70
     1
102
RTVSPropertyOp28
 70
     1
102
RTVSPropertyOp29
 70
     1
102
RTVSPropertyOp30
 70
     1
102
RTVSPropertyOp31
 70
     1
102
RTVSPropertyOp32
 70
     1
  0
XRECORD
  5
BF2
102
{ACAD_REACTORS
330
BF1
102
}
330
BF1
100
AcDbXrecord
280
     1
102
RTVSPropertyOp0
 70
     0
102
RTVSPropertyOp1
 70
     0
102
RTVSPropertyOp2
 70
     0
102
RTVSPropertyOp3
 70
     0
102
RTVSPropertyOp4
 70
     0
102
RTVSPropertyOp5
 70
     0
102
RTVSPropertyOp6
 70
     0
102
RTVSPropertyOp7
 70
     0
102
RTVSPropertyOp8
 70
     0
102
RTVSPropertyOp9
 70
     0
102
RTVSPropertyOp10
 70
     0
102
RTVSPropertyOp11
 70
     0
102
RTVSPropertyOp12
 70
     0
102
RTVSPropertyOp13
 70
     0
102
RTVSPropertyOp14
 70
     2
102
RTVSPropertyOp15
 70
     0
102
RTVSPropertyOp16
 70
     0
102
RTVSPropertyOp17
 70
     0
102
RTVSPropertyOp18
 70
     0
102
RTVSPropertyOp19
 70
     0
102
RTVSPropertyOp20
 70
     0
102
RTVSPropertyOp21
 70
     0
102
RTVSPropertyOp22
 70
     0
102
RTVSPropertyOp23
 70
     0
102
RTVSPropertyOp24
 70
     0
102
RTVSPropertyOp25
 70
     0
102
RTVSPropertyOp26
 70
     0
102
RTVSPropertyOp27
 70
     0
102
RTVSPropertyOp28
 70
     1
102
RTVSPropertyOp29
 70
     1
102
RTVSPropertyOp30
 70
     1
102
RTVSPropertyOp31
 70
     1
102
RTVSPropertyOp32
 70
     1
  0
XRECORD
  5
BE2
102
{ACAD_REACTORS
330
BE1
102
}
330
BE1
100
AcDbXrecord
280
     1
102
RTVSPropertyOp0
 70
     1
102
RTVSPropertyOp1
 70
     1
102
RTVSPropertyOp2
 70
     1
102
RTVSPropertyOp3
 70
     1
102
RTVSPropertyOp4
 70
     1
102
RTVSPropertyOp5
 70
     1
102
RTVSPropertyOp6
 70
     1
102
RTVSPropertyOp7
 70
     1
102
RTVSPropertyOp8
 70
     1
102
RTVSPropertyOp9
 70
     1
102
RTVSPropertyOp10
 70
     1
102
RTVSPropertyOp11
 70
     1
102
RTVSPropertyOp12
 70
     1
102
RTVSPropertyOp13
 70
     1
102
RTVSPropertyOp14
 70
     1
102
RTVSPropertyOp15
 70
     1
102
RTVSPropertyOp16
 70
     1
102
RTVSPropertyOp17
 70
     1
102
RTVSPropertyOp18
 70
     1
102
RTVSPropertyOp19
 70
     1
102
RTVSPropertyOp20
 70
     1
102
RTVSPropertyOp21
 70
     1
102
RTVSPropertyOp22
 70
     1
102
RTVSPropertyOp23
 70
     1
102
RTVSPropertyOp24
 70
     1
102
RTVSPropertyOp25
 70
     1
102
RTVSPropertyOp26
 70
     1
102
RTVSPropertyOp27
 70
     1
102
RTVSPropertyOp28
 70
     1
102
RTVSPropertyOp29
 70
     1
102
RTVSPropertyOp30
 70
     1
102
RTVSPropertyOp31
 70
     1
102
RTVSPropertyOp32
 70
     1
  0
XRECORD
  5
BF4
102
{ACAD_REACTORS
330
BF3
102
}
330
BF3
100
AcDbXrecord
280
     1
102
RTVSPropertyOp0
 70
     0
102
RTVSPropertyOp1
 70
     0
102
RTVSPropertyOp2
 70
     0
102
RTVSPropertyOp3
 70
     0
102
RTVSPropertyOp4
 70
     0
102
RTVSPropertyOp5
 70
     0
102
RTVSPropertyOp6
 70
     0
102
RTVSPropertyOp7
 70
     0
102
RTVSPropertyOp8
 70
     0
102
RTVSPropertyOp9
 70
     0
102
RTVSPropertyOp10
 70
     0
102
RTVSPropertyOp11
 70
     0
102
RTVSPropertyOp12
 70
     0
102
RTVSPropertyOp13
 70
     0
102
RTVSPropertyOp14
 70
     2
102
RTVSPropertyOp15
 70
     0
102
RTVSPropertyOp16
 70
     0
102
RTVSPropertyOp17
 70
     0
102
RTVSPropertyOp18
 70
     0
102
RTVSPropertyOp19
 70
     0
102
RTVSPropertyOp20
 70
     0
102
RTVSPropertyOp21
 70
     0
102
RTVSPropertyOp22
 70
     0
102
RTVSPropertyOp23
 70
     0
102
RTVSPropertyOp24
 70
     0
102
RTVSPropertyOp25
 70
     0
102
RTVSPropertyOp26
 70
     0
102
RTVSPropertyOp27
 70
     0
102
RTVSPropertyOp28
 70
     1
102
RTVSPropertyOp29
 70
     1
102
RTVSPropertyOp30
 70
     1
102
RTVSPropertyOp31
 70
     1
102
RTVSPropertyOp32
 70
     1
  0
XRECORD
  5
BDA
102
{ACAD_REACTORS
330
BD9
102
}
330
BD9
100
AcDbXrecord
280
     1
102
RTVSPropertyOp0
 70
     1
102
RTVSPropertyOp1
 70
     1
102
RTVSPropertyOp2
 70
     1
102
RTVSPropertyOp3
 70
     1
102
RTVSPropertyOp4
 70
     1
102
RTVSPropertyOp5
 70
     1
102
RTVSPropertyOp6
 70
     1
102
RTVSPropertyOp7
 70
     1
102
RTVSPropertyOp8
 70
     1
102
RTVSPropertyOp9
 70
     1
102
RTVSPropertyOp10
 70
     1
102
RTVSPropertyOp11
 70
     1
102
RTVSPropertyOp12
 70
     1
102
RTVSPropertyOp13
 70
     1
102
RTVSPropertyOp14
 70
     1
102
RTVSPropertyOp15
 70
     1
102
RTVSPropertyOp16
 70
     1
102
RTVSPropertyOp17
 70
     1
102
RTVSPropertyOp18
 70
     1
102
RTVSPropertyOp19
 70
     1
102
RTVSPropertyOp20
 70
     1
102
RTVSPropertyOp21
 70
     1
102
RTVSPropertyOp22
 70
     1
102
RTVSPropertyOp23
 70
     1
102
RTVSPropertyOp24
 70
     1
102
RTVSPropertyOp25
 70
     1
102
RTVSPropertyOp26
 70
     1
102
RTVSPropertyOp27
 70
     1
102
RTVSPropertyOp28
 70
     1
102
RTVSPropertyOp29
 70
     1
102
RTVSPropertyOp30
 70
     1
102
RTVSPropertyOp31
 70
     1
102
RTVSPropertyOp32
 70
     1
  0
XRECORD
  5
BF0
102
{ACAD_REACTORS
330
BEF
102
}
330
BEF
100
AcDbXrecord
280
     1
102
RTVSPropertyOp0
 70
     1
102
RTVSPropertyOp1
 70
     1
102
RTVSPropertyOp2
 70
     1
102
RTVSPropertyOp3
 70
     1
102
RTVSPropertyOp4
 70
     1
102
RTVSPropertyOp5
 70
     1
102
RTVSPropertyOp6
 70
     1
102
RTVSPropertyOp7
 70
     1
102
RTVSPropertyOp8
 70
     1
102
RTVSPropertyOp9
 70
     1
102
RTVSPropertyOp10
 70
     1
102
RTVSPropertyOp11
 70
     1
102
RTVSPropertyOp12
 70
     1
102
RTVSPropertyOp13
 70
     1
102
RTVSPropertyOp14
 70
     1
102
RTVSPropertyOp15
 70
     1
102
RTVSPropertyOp16
 70
     1
102
RTVSPropertyOp17
 70
     1
102
RTVSPropertyOp18
 70
     1
102
RTVSPropertyOp19
 70
     1
102
RTVSPropertyOp20
 70
     1
102
RTVSPropertyOp21
 70
     1
102
RTVSPropertyOp22
 70
     1
102
RTVSPropertyOp23
 70
     1
102
RTVSPropertyOp24
 70
     1
102
RTVSPropertyOp25
 70
     1
102
RTVSPropertyOp26
 70
     1
102
RTVSPropertyOp27
 70
     1
102
RTVSPropertyOp28
 70
     1
102
RTVSPropertyOp29
 70
     1
102
RTVSPropertyOp30
 70
     1
102
RTVSPropertyOp31
 70
     1
102
RTVSPropertyOp32
 70
     1
  0
XRECORD
  5
BEE
102
{ACAD_REACTORS
330
BED
102
}
330
BED
100
AcDbXrecord
280
     1
102
RTVSPropertyOp0
 70
     1
102
RTVSPropertyOp1
 70
     1
102
RTVSPropertyOp2
 70
     1
102
RTVSPropertyOp3
 70
     1
102
RTVSPropertyOp4
 70
     1
102
RTVSPropertyOp5
 70
     1
102
RTVSPropertyOp6
 70
     1
102
RTVSPropertyOp7
 70
     1
102
RTVSPropertyOp8
 70
     1
102
RTVSPropertyOp9
 70
     1
102
RTVSPropertyOp10
 70
     1
102
RTVSPropertyOp11
 70
     1
102
RTVSPropertyOp12
 70
     1
102
RTVSPropertyOp13
 70
     1
102
RTVSPropertyOp14
 70
     1
102
RTVSPropertyOp15
 70
     1
102
RTVSPropertyOp16
 70
     1
102
RTVSPropertyOp17
 70
     1
102
RTVSPropertyOp18
 70
     1
102
RTVSPropertyOp19
 70
     1
102
RTVSPropertyOp20
 70
     1
102
RTVSPropertyOp21
 70
     1
102
RTVSPropertyOp22
 70
     1
102
RTVSPropertyOp23
 70
     1
102
RTVSPropertyOp24
 70
     1
102
RTVSPropertyOp25
 70
     1
102
RTVSPropertyOp26
 70
     1
102
RTVSPropertyOp27
 70
     1
102
RTVSPropertyOp28
 70
     1
102
RTVSPropertyOp29
 70
     1
102
RTVSPropertyOp30
 70
     1
102
RTVSPropertyOp31
 70
     1
102
RTVSPropertyOp32
 70
     1
  0
XRECORD
  5
BE8
102
{ACAD_REACTORS
330
BE7
102
}
330
BE7
100
AcDbXrecord
280
     1
102
RTVSPropertyOp0
 70
     1
102
RTVSPropertyOp1
 70
     1
102
RTVSPropertyOp2
 70
     1
102
RTVSPropertyOp3
 70
     1
102
RTVSPropertyOp4
 70
     1
102
RTVSPropertyOp5
 70
     1
102
RTVSPropertyOp6
 70
     1
102
RTVSPropertyOp7
 70
     1
102
RTVSPropertyOp8
 70
     1
102
RTVSPropertyOp9
 70
     1
102
RTVSPropertyOp10
 70
     1
102
RTVSPropertyOp11
 70
     1
102
RTVSPropertyOp12
 70
     1
102
RTVSPropertyOp13
 70
     1
102
RTVSPropertyOp14
 70
     1
102
RTVSPropertyOp15
 70
     1
102
RTVSPropertyOp16
 70
     1
102
RTVSPropertyOp17
 70
     1
102
RTVSPropertyOp18
 70
     1
102
RTVSPropertyOp19
 70
     1
102
RTVSPropertyOp20
 70
     1
102
RTVSPropertyOp21
 70
     1
102
RTVSPropertyOp22
 70
     1
102
RTVSPropertyOp23
 70
     1
102
RTVSPropertyOp24
 70
     1
102
RTVSPropertyOp25
 70
     1
102
RTVSPropertyOp26
 70
     1
102
RTVSPropertyOp27
 70
     1
102
RTVSPropertyOp28
 70
     1
102
RTVSPropertyOp29
 70
     1
102
RTVSPropertyOp30
 70
     1
102
RTVSPropertyOp31
 70
     1
102
RTVSPropertyOp32
 70
     1
  0
XRECORD
  5
BEA
102
{ACAD_REACTORS
330
BE9
102
}
330
BE9
100
AcDbXrecord
280
     1
102
RTVSPropertyOp0
 70
     1
102
RTVSPropertyOp1
 70
     1
102
RTVSPropertyOp2
 70
     1
102
RTVSPropertyOp3
 70
     1
102
RTVSPropertyOp4
 70
     1
102
RTVSPropertyOp5
 70
     1
102
RTVSPropertyOp6
 70
     1
102
RTVSPropertyOp7
 70
     1
102
RTVSPropertyOp8
 70
     1
102
RTVSPropertyOp9
 70
     1
102
RTVSPropertyOp10
 70
     1
102
RTVSPropertyOp11
 70
     1
102
RTVSPropertyOp12
 70
     1
102
RTVSPropertyOp13
 70
     1
102
RTVSPropertyOp14
 70
     1
102
RTVSPropertyOp15
 70
     1
102
RTVSPropertyOp16
 70
     1
102
RTVSPropertyOp17
 70
     1
102
RTVSPropertyOp18
 70
     1
102
RTVSPropertyOp19
 70
     1
102
RTVSPropertyOp20
 70
     1
102
RTVSPropertyOp21
 70
     1
102
RTVSPropertyOp22
 70
     1
102
RTVSPropertyOp23
 70
     1
102
RTVSPropertyOp24
 70
     1
102
RTVSPropertyOp25
 70
     1
102
RTVSPropertyOp26
 70
     1
102
RTVSPropertyOp27
 70
     1
102
RTVSPropertyOp28
 70
     1
102
RTVSPropertyOp29
 70
     1
102
RTVSPropertyOp30
 70
     1
102
RTVSPropertyOp31
 70
     1
102
RTVSPropertyOp32
 70
     1
  0
XRECORD
  5
BE0
102
{ACAD_REACTORS
330
BDF
102
}
330
BDF
100
AcDbXrecord
280
     1
102
RTVSPropertyOp0
 70
     1
102
RTVSPropertyOp1
 70
     1
102
RTVSPropertyOp2
 70
     1
102
RTVSPropertyOp3
 70
     1
102
RTVSPropertyOp4
 70
     1
102
RTVSPropertyOp5
 70
     1
102
RTVSPropertyOp6
 70
     1
102
RTVSPropertyOp7
 70
     1
102
RTVSPropertyOp8
 70
     1
102
RTVSPropertyOp9
 70
     1
102
RTVSPropertyOp10
 70
     1
102
RTVSPropertyOp11
 70
     1
102
RTVSPropertyOp12
 70
     1
102
RTVSPropertyOp13
 70
     1
102
RTVSPropertyOp14
 70
     1
102
RTVSPropertyOp15
 70
     1
102
RTVSPropertyOp16
 70
     1
102
RTVSPropertyOp17
 70
     1
102
RTVSPropertyOp18
 70
     1
102
RTVSPropertyOp19
 70
     1
102
RTVSPropertyOp20
 70
     1
102
RTVSPropertyOp21
 70
     1
102
RTVSPropertyOp22
 70
     1
102
RTVSPropertyOp23
 70
     1
102
RTVSPropertyOp24
 70
     1
102
RTVSPropertyOp25
 70
     1
102
RTVSPropertyOp26
 70
     1
102
RTVSPropertyOp27
 70
     1
102
RTVSPropertyOp28
 70
     1
102
RTVSPropertyOp29
 70
     1
102
RTVSPropertyOp30
 70
     1
102
RTVSPropertyOp31
 70
     1
102
RTVSPropertyOp32
 70
     1
  0
XRECORD
  5
BD4
102
{ACAD_REACTORS
330
BD3
102
}
330
BD3
100
AcDbXrecord
280
     1
102
RTVSPropertyOp0
 70
     1
102
RTVSPropertyOp1
 70
     1
102
RTVSPropertyOp2
 70
     1
102
RTVSPropertyOp3
 70
     1
102
RTVSPropertyOp4
 70
     1
102
RTVSPropertyOp5
 70
     1
102
RTVSPropertyOp6
 70
     1
102
RTVSPropertyOp7
 70
     1
102
RTVSPropertyOp8
 70
     1
102
RTVSPropertyOp9
 70
     1
102
RTVSPropertyOp10
 70
     1
102
RTVSPropertyOp11
 70
     1
102
RTVSPropertyOp12
 70
     1
102
RTVSPropertyOp13
 70
     1
102
RTVSPropertyOp14
 70
     1
102
RTVSPropertyOp15
 70
     1
102
RTVSPropertyOp16
 70
     1
102
RTVSPropertyOp17
 70
     1
102
RTVSPropertyOp18
 70
     1
102
RTVSPropertyOp19
 70
     1
102
RTVSPropertyOp20
 70
     1
102
RTVSPropertyOp21
 70
     1
102
RTVSPropertyOp22
 70
     1
102
RTVSPropertyOp23
 70
     1
102
RTVSPropertyOp24
 70
     1
102
RTVSPropertyOp25
 70
     1
102
RTVSPropertyOp26
 70
     1
102
RTVSPropertyOp27
 70
     1
102
RTVSPropertyOp28
 70
     1
102
RTVSPropertyOp29
 70
     1
102
RTVSPropertyOp30
 70
     1
102
RTVSPropertyOp31
 70
     1
102
RTVSPropertyOp32
 70
     1
  0
XRECORD
  5
BEC
102
{ACAD_REACTORS
330
BEB
102
}
330
BEB
100
AcDbXrecord
280
     1
102
RTVSPropertyOp0
 70
     1
102
RTVSPropertyOp1
 70
     1
102
RTVSPropertyOp2
 70
     1
102
RTVSPropertyOp3
 70
     1
102
RTVSPropertyOp4
 70
     1
102
RTVSPropertyOp5
 70
     1
102
RTVSPropertyOp6
 70
     1
102
RTVSPropertyOp7
 70
     1
102
RTVSPropertyOp8
 70
     1
102
RTVSPropertyOp9
 70
     1
102
RTVSPropertyOp10
 70
     1
102
RTVSPropertyOp11
 70
     1
102
RTVSPropertyOp12
 70
     1
102
RTVSPropertyOp13
 70
     1
102
RTVSPropertyOp14
 70
     1
102
RTVSPropertyOp15
 70
     1
102
RTVSPropertyOp16
 70
     1
102
RTVSPropertyOp17
 70
     1
102
RTVSPropertyOp18
 70
     1
102
RTVSPropertyOp19
 70
     1
102
RTVSPropertyOp20
 70
     1
102
RTVSPropertyOp21
 70
     1
102
RTVSPropertyOp22
 70
     1
102
RTVSPropertyOp23
 70
     1
102
RTVSPropertyOp24
 70
     1
102
RTVSPropertyOp25
 70
     1
102
RTVSPropertyOp26
 70
     1
102
RTVSPropertyOp27
 70
     1
102
RTVSPropertyOp28
 70
     1
102
RTVSPropertyOp29
 70
     1
102
RTVSPropertyOp30
 70
     1
102
RTVSPropertyOp31
 70
     1
102
RTVSPropertyOp32
 70
     1
  0
ENDSEC
  0
EOF
