  0
SECTION
  2
HEADER
  9
$ACADVER
  1
AC1015
  9
$ACADMAINTVER
 70
    18
  9
$DWGCODEPAGE
  3
ANSI_1252
  9
$INSBASE
 10
0.0
 20
0.0
 30
0.0
  9
$EXTMIN
 10
0.0
 20
0.0
 30
0.0
  9
$EXTMAX
 10
62.96296296296295
 20
40.74074074074073
 30
0.0
  9
$LIMMIN
 10
0.0
 20
0.0
  9
$LIMMAX
 10
62.96296296296295
 20
40.74074074074073
  9
$ORTHOMODE
 70
     0
  9
$REGENMODE
 70
     1
  9
$FILLMODE
 70
     1
  9
$QTEXTMODE
 70
     0
  9
$MIRRTEXT
 70
     0
  9
$LTSCALE
 40
3.703703703703703
  9
$ATTMODE
 70
     1
  9
$TEXTSIZE
 40
0.2
  9
$TRACEWID
 40
0.05
  9
$TEXTSTYLE
  7
Standard
  9
$CLAYER
  8
0
  9
$CELTYPE
  6
ByLayer
  9
$CECOLOR
 62
   256
  9
$CELTSCALE
 40
1.0
  9
$DISPSILH
 70
     0
  9
$DIMSCALE
 40
1.0
  9
$DIMASZ
 40
0.0708661417322835
  9
$DIMEXO
 40
0.0625
  9
$DIMDLI
 40
0.38
  9
$DIMRND
 40
0.0
  9
$DIMDLE
 40
0.0
  9
$DIMEXE
 40
0.18
  9
$DIMTP
 40
0.0
  9
$DIMTM
 40
0.0
  9
$DIMTXT
 40
0.0708661417322835
  9
$DIMCEN
 40
0.09
  9
$DIMTSZ
 40
0.0
  9
$DIMTOL
 70
     0
  9
$DIMLIM
 70
     0
  9
$DIMTIH
 70
     1
  9
$DIMTOH
 70
     1
  9
$DIMSE1
 70
     0
  9
$DIMSE2
 70
     0
  9
$DIMTAD
 70
     0
  9
$DIMZIN
 70
     0
  9
$DIMBLK
  1

  9
$DIMASO
 70
     1
  9
$DIMSHO
 70
     1
  9
$DIMPOST
  1

  9
$DIMAPOST
  1

  9
$DIMALT
 70
     0
  9
$DIMALTD
 70
     2
  9
$DIMALTF
 40
25.4
  9
$DIMLFAC
 40
1.0
  9
$DIMTOFL
 70
     0
  9
$DIMTVP
 40
0.0
  9
$DIMTIX
 70
     0
  9
$DIMSOXD
 70
     0
  9
$DIMSAH
 70
     0
  9
$DIMBLK1
  1

  9
$DIMBLK2
  1

  9
$DIMSTYLE
  2
STANDARD
  9
$DIMCLRD
 70
     0
  9
$DIMCLRE
 70
     0
  9
$DIMCLRT
 70
     0
  9
$DIMTFAC
 40
1.0
  9
$DIMGAP
 40
0.09
  9
$DIMJUST
 70
     0
  9
$DIMSD1
 70
     0
  9
$DIMSD2
 70
     0
  9
$DIMTOLJ
 70
     1
  9
$DIMTZIN
 70
     0
  9
$DIMALTZ
 70
     0
  9
$DIMALTTZ
 70
     0
  9
$DIMUPT
 70
     0
  9
$DIMDEC
 70
     4
  9
$DIMTDEC
 70
     4
  9
$DIMALTU
 70
     2
  9
$DIMALTTD
 70
     2
  9
$DIMTXSTY
  7
Standard
  9
$DIMAUNIT
 70
     0
  9
$DIMADEC
 70
     0
  9
$DIMALTRND
 40
0.0
  9
$DIMAZIN
 70
     0
  9
$DIMDSEP
 70
    46
  9
$DIMATFIT
 70
     3
  9
$DIMFRAC
 70
     0
  9
$DIMLDRBLK
  1

  9
$DIMLUNIT
 70
     2
  9
$DIMLWD
 70
    -2
  9
$DIMLWE
 70
    -2
  9
$DIMTMOVE
 70
     0
  9
$LUNITS
 70
     2
  9
$LUPREC
 70
     4
  9
$SKETCHINC
 40
0.1
  9
$FILLETRAD
 40
0.0
  9
$AUNITS
 70
     0
  9
$AUPREC
 70
     0
  9
$MENU
  1
.
  9
$ELEVATION
 40
0.0
  9
$PELEVATION
 40
0.0
  9
$THICKNESS
 40
0.0
  9
$LIMCHECK
 70
     0
  9
$CHAMFERA
 40
0.0
  9
$CHAMFERB
 40
0.0
  9
$CHAMFERC
 40
0.0
  9
$CHAMFERD
 40
0.0
  9
$SKPOLY
 70
     0
  9
$TDCREATE
 40
2455944.606617500
  9
$TDUCREATE
 40
2455944.856617500
  9
$TDUPDATE
 40
2455944.606617500
  9
$TDUUPDATE
 40
2455944.856617500
  9
$TDINDWG
 40
0.0000336458
  9
$TDUSRTIMER
 40
0.0000336458
  9
$USRTIMER
 70
     1
  9
$ANGBASE
 50
0.0
  9
$ANGDIR
 70
     0
  9
$PDMODE
 70
     0
  9
$PDSIZE
 40
0.0
  9
$PLINEWID
 40
0.0
  9
$SPLFRAME
 70
     0
  9
$SPLINETYPE
 70
     6
  9
$SPLINESEGS
 70
     8
  9
$HANDSEED
  5
C8F
  9
$SURFTAB1
 70
     6
  9
$SURFTAB2
 70
     6
  9
$SURFTYPE
 70
     6
  9
$SURFU
 70
     6
  9
$SURFV
 70
     6
  9
$UCSBASE
  2

  9
$UCSNAME
  2

  9
$UCSORG
 10
0.0
 20
0.0
 30
0.0
  9
$UCSXDIR
 10
1.0
 20
0.0
 30
0.0
  9
$UCSYDIR
 10
0.0
 20
1.0
 30
0.0
  9
$UCSORTHOREF
  2

  9
$UCSORTHOVIEW
 70
     0
  9
$UCSORGTOP
 10
0.0
 20
0.0
 30
0.0
  9
$UCSORGBOTTOM
 10
0.0
 20
0.0
 30
0.0
  9
$UCSORGLEFT
 10
0.0
 20
0.0
 30
0.0
  9
$UCSORGRIGHT
 10
0.0
 20
0.0
 30
0.0
  9
$UCSORGFRONT
 10
0.0
 20
0.0
 30
0.0
  9
$UCSORGBACK
 10
0.0
 20
0.0
 30
0.0
  9
$PUCSBASE
  2

  9
$PUCSNAME
  2

  9
$PUCSORG
 10
0.0
 20
0.0
 30
0.0
  9
$PUCSXDIR
 10
1.0
 20
0.0
 30
0.0
  9
$PUCSYDIR
 10
0.0
 20
1.0
 30
0.0
  9
$PUCSORTHOREF
  2

  9
$PUCSORTHOVIEW
 70
     0
  9
$PUCSORGTOP
 10
0.0
 20
0.0
 30
0.0
  9
$PUCSORGBOTTOM
 10
0.0
 20
0.0
 30
0.0
  9
$PUCSORGLEFT
 10
0.0
 20
0.0
 30
0.0
  9
$PUCSORGRIGHT
 10
0.0
 20
0.0
 30
0.0
  9
$PUCSORGFRONT
 10
0.0
 20
0.0
 30
0.0
  9
$PUCSORGBACK
 10
0.0
 20
0.0
 30
0.0
  9
$USERI1
 70
     0
  9
$USERI2
 70
     0
  9
$USERI3
 70
     0
  9
$USERI4
 70
     0
  9
$USERI5
 70
     0
  9
$USERR1
 40
0.0
  9
$USERR2
 40
0.0
  9
$USERR3
 40
0.0
  9
$USERR4
 40
0.0
  9
$USERR5
 40
0.0
  9
$WORLDVIEW
 70
     1
  9
$SHADEDGE
 70
     3
  9
$SHADEDIF
 70
    70
  9
$TILEMODE
 70
     1
  9
$MAXACTVP
 70
    64
  9
$PINSBASE
 10
0.0
 20
0.0
 30
0.0
  9
$PLIMCHECK
 70
     0
  9
$PEXTMIN
 10
0.0
 20
0.0
 30
0.0
  9
$PEXTMAX
 10
62.96296296296295
 20
40.74074074074073
 30
0.0
  9
$PLIMMIN
 10
0.0
 20
0.0
  9
$PLIMMAX
 10
62.96296296296295
 20
40.74074074074073
  9
$UNITMODE
 70
     0
  9
$VISRETAIN
 70
     1
  9
$PLINEGEN
 70
     0
  9
$PSLTSCALE
 70
     1
  9
$TREEDEPTH
 70
  3020
  9
$CMLSTYLE
  2
Standard
  9
$CMLJUST
 70
     0
  9
$CMLSCALE
 40
1.0
  9
$PROXYGRAPHICS
 70
     1
  9
$MEASUREMENT
 70
     0
  9
$CELWEIGHT
370
    -1
  9
$ENDCAPS
280
     0
  9
$JOINSTYLE
280
     0
  9
$LWDISPLAY
290
     0
  9
$INSUNITS
 70
     1
  9
$HYPERLINKBASE
  1

  9
$STYLESHEET
  1

  9
$XEDIT
290
     1
  9
$CEPSNTYPE
380
     0
  9
$PSTYLEMODE
290
     1
  9
$FINGERPRINTGUID
  2
{DC673439-179F-411F-B70E-EE84531D1765}
  9
$VERSIONGUID
  2
{F1807447-FE7F-477C-A416-543478AEA2DA}
  9
$EXTNAMES
290
     1
  9
$PSVPSCALE
 40
0.0
  9
$OLESTARTUP
290
     0
  0
ENDSEC
  0
SECTION
  2
CLASSES
  0
CLASS
  1
ACDBDICTIONARYWDFLT
  2
AcDbDictionaryWithDefault
  3
ObjectDBX Classes
 90
        0
280
     0
281
     0
  0
CLASS
  1
MATERIAL
  2
AcDbMaterial
  3
ObjectDBX Classes
 90
     1153
280
     0
281
     0
  0
CLASS
  1
VISUALSTYLE
  2
AcDbVisualStyle
  3
ObjectDBX Classes
 90
     4095
280
     0
281
     0
  0
CLASS
  1
SCALE
  2
AcDbScale
  3
ObjectDBX Classes
 90
     1153
280
     0
281
     0
  0
CLASS
  1
TABLESTYLE
  2
AcDbTableStyle
  3
ObjectDBX Classes
 90
     4095
280
     0
281
     0
  0
CLASS
  1
MLEADERSTYLE
  2
AcDbMLeaderStyle
  3
ACDB_MLEADERSTYLE_CLASS
 90
     4095
280
     0
281
     0
  0
CLASS
  1
DICTIONARYVAR
  2
AcDbDictionaryVar
  3
ObjectDBX Classes
 90
        0
280
     0
281
     0
  0
CLASS
  1
CELLSTYLEMAP
  2
AcDbCellStyleMap
  3
ObjectDBX Classes
 90
     1152
280
     0
281
     0
  0
CLASS
  1
ACDBPLACEHOLDER
  2
AcDbPlaceHolder
  3
ObjectDBX Classes
 90
        0
280
     0
281
     0
  0
CLASS
  1
LAYOUT
  2
AcDbLayout
  3
ObjectDBX Classes
 90
        0
280
     0
281
     0
  0
ENDSEC
  0
SECTION
  2
TABLES
  0
TABLE
  2
VPORT
  5
8
330
0
100
AcDbSymbolTable
 70
     1
  0
VPORT
  5
57
330
8
100
AcDbSymbolTableRecord
100
AcDbViewportTableRecord
  2
*Active
 70
     0
 10
0.0
 20
0.0
 11
1.0
 21
1.0
 12
31.48148148148148
 22
20.37037037037037
 13
0.0
 23
0.0
 14
1.0
 24
1.0
 15
0.0
 25
0.0
 16
0.0
 26
0.0
 36
1.0
 17
0.0
 27
0.0
 37
0.0
 40
40.74074074074073
 41
1.545454545454545
 42
50.0
 43
0.0
 44
0.0
 50
0.0
 51
0.0
 71
     0
 72
   100
 73
     1
 74
     1
 75
     0
 76
     0
 77
     0
 78
     0
281
     0
 65
     1
110
0.0
120
0.0
130
0.0
111
1.0
121
0.0
131
0.0
112
0.0
122
1.0
132
0.0
 79
     0
146
0.0
  0
ENDTAB
  0
TABLE
  2
LTYPE
  5
5
330
0
100
AcDbSymbolTable
 70
    59
  0
LTYPE
  5
5B
330
5
100
AcDbSymbolTableRecord
100
AcDbLinetypeTableRecord
  2
ByBlock
 70
     0
  3

 72
    65
 73
     0
 40
0.0
  0
LTYPE
  5
5C
330
5
100
AcDbSymbolTableRecord
100
AcDbLinetypeTableRecord
  2
ByLayer
 70
     0
  3

 72
    65
 73
     0
 40
0.0
  0
LTYPE
  5
5D
330
5
100
AcDbSymbolTableRecord
100
AcDbLinetypeTableRecord
  2
Continuous
 70
     0
  3
Solid line
 72
    65
 73
     0
 40
0.0
  0
LTYPE
  5
7C
330
5
100
AcDbSymbolTableRecord
100
AcDbLinetypeTableRecord
  2
BY_STANDARD
 70
     0
  3
By Standard ____________    ____    ____   _
 72
    65
 73
     6
 40
1.240299999999999
 49
0.6614
 74
     0
 49
-0.0827
 74
     0
 49
0.1654
 74
     0
 49
-0.0827
 74
     0
 49
0.1654
 74
     0
 49
-0.0827
 74
     0
  0
LTYPE
  5
7D
330
5
100
AcDbSymbolTableRecord
100
AcDbLinetypeTableRecord
  2
CHAIN
 70
     0
  3
Chain ____ _ ____ _ ____ _ ____ _ ____ _ ____
 72
    65
 73
     4
 40
0.7087
 49
0.4724000000000001
 74
     0
 49
-0.0591
 74
     0
 49
0.1181
 74
     0
 49
-0.0591
 74
     0
  0
LTYPE
  5
7E
330
5
100
AcDbSymbolTableRecord
100
AcDbLinetypeTableRecord
  2
DASH_DOT
 70
     0
  3
Dash dot __ . __ . __ . __ . __ . __ . __ . __
 72
    65
 73
     4
 40
0.37
 49
0.24
 74
     0
 49
-0.06
 74
     0
 49
0.01
 74
     0
 49
-0.06
 74
     0
  0
LTYPE
  5
7F
330
5
100
AcDbSymbolTableRecord
100
AcDbLinetypeTableRecord
  2
DOUBLE_DASH_DOT
 70
     0
  3
Double-Dash Dot __ __ . __ __ . __ __ . __ _
 72
    65
 73
     6
 40
0.4398
 49
0.24
 74
     0
 49
-0.06
 74
     0
 49
0.0098
 74
     0
 49
-0.06
 74
     0
 49
0.01
 74
     0
 49
-0.06
 74
     0
  0
LTYPE
  5
80
330
5
100
AcDbSymbolTableRecord
100
AcDbLinetypeTableRecord
  2
DASH_TRIPLE_DOT
 70
     0
  3
Dash Triple-Dot _ . . . _ . . . _ . . . _
 72
    65
 73
     8
 40
0.51
 49
0.24
 74
     0
 49
-0.06
 74
     0
 49
0.01
 74
     0
 49
-0.06
 74
     0
 49
0.01
 74
     0
 49
-0.06
 74
     0
 49
0.01
 74
     0
 49
-0.06
 74
     0
  0
LTYPE
  5
81
330
5
100
AcDbSymbolTableRecord
100
AcDbLinetypeTableRecord
  2
DASHED
 70
     0
  3
Dashed __ __ __ __ __ __ __ __ __ __ __ __ __ _
 72
    65
 73
     2
 40
0.2067
 49
0.1654
 74
     0
 49
-0.0413
 74
     0
  0
LTYPE
  5
82
330
5
100
AcDbSymbolTableRecord
100
AcDbLinetypeTableRecord
  2
DASH_DOUBLE_DOT
 70
     0
  3
Dash Double-Dot __ . . __ . . __ . . __ . .
 72
    65
 73
     6
 40
0.4398
 49
0.24
 74
     0
 49
-0.06
 74
     0
 49
0.0098
 74
     0
 49
-0.06
 74
     0
 49
0.01
 74
     0
 49
-0.06
 74
     0
  0
LTYPE
  5
83
330
5
100
AcDbSymbolTableRecord
100
AcDbLinetypeTableRecord
  2
DASHED_SPACE
 70
     0
  3
Dashed Space __ __ __ __ __ __ __ __ __ __ __ _
 72
    65
 73
     2
 40
0.2067
 49
0.1654
 74
     0
 49
-0.0413
 74
     0
  0
LTYPE
  5
84
330
5
100
AcDbSymbolTableRecord
100
AcDbLinetypeTableRecord
  2
DOTTED
 70
     0
  3
Dotted . . . . . . . . . . . . . . . . . . . . 
 72
    65
 73
     2
 40
0.0482
 49
0.0069
 74
     0
 49
-0.0413
 74
     0
  0
LTYPE
  5
85
330
5
100
AcDbSymbolTableRecord
100
AcDbLinetypeTableRecord
  2
DOUBLE_DASH_CHAIN
 70
     0
  3
Double-Dash Chain ______  __  __  ______  __  _
 72
    65
 73
     6
 40
1.240299999999999
 49
0.6614
 74
     0
 49
-0.0827
 74
     0
 49
0.1654
 74
     0
 49
-0.0827
 74
     0
 49
0.1654
 74
     0
 49
-0.0827
 74
     0
  0
LTYPE
  5
87
330
5
100
AcDbSymbolTableRecord
100
AcDbLinetypeTableRecord
  2
DOUBLE_DASH_DOUBLE_DOT
 70
     0
  3
Double-Dash Double-dot _ _ . . _ _ . . _
 72
    65
 73
     8
 40
0.7400000000000001
 49
0.24
 74
     0
 49
-0.06
 74
     0
 49
0.24
 74
     0
 49
-0.06
 74
     0
 49
0.01
 74
     0
 49
-0.06
 74
     0
 49
0.01
 74
     0
 49
-0.06
 74
     0
  0
LTYPE
  5
88
330
5
100
AcDbSymbolTableRecord
100
AcDbLinetypeTableRecord
  2
DOUBLE_DASH_TRIPLE_DOT
 70
     0
  3
Double Dash Triple Dot __ __ . . . __ __ . .
 72
    65
 73
    10
 40
0.8100000000000001
 49
0.24
 74
     0
 49
-0.06
 74
     0
 49
0.24
 74
     0
 49
-0.06
 74
     0
 49
0.01
 74
     0
 49
-0.06
 74
     0
 49
0.01
 74
     0
 49
-0.06
 74
     0
 49
0.01
 74
     0
 49
-0.06
 74
     0
  0
LTYPE
  5
89
330
5
100
AcDbSymbolTableRecord
100
AcDbLinetypeTableRecord
  2
LONG_DASH_DOTTED
 70
     0
  3
Long Dash Dotted ____ . ____ . ____ . ____ . _
 72
    65
 73
     4
 40
0.3543
 49
0.2362
 74
     0
 49
-0.0295
 74
     0
 49
0.0591
 74
     0
 49
-0.0295
 74
     0
  0
LTYPE
  5
8A
330
5
100
AcDbSymbolTableRecord
100
AcDbLinetypeTableRecord
  2
LONG_DASH_DOUBLE_DOT
 70
     0
  3
Long Dash Double Dot ________  .  .  ________  
 72
    65
 73
     6
 40
0.6799999999999999
 49
0.48
 74
     0
 49
-0.06
 74
     0
 49
0.01
 74
     0
 49
-0.06
 74
     0
 49
0.01
 74
     0
 49
-0.06
 74
     0
  0
LTYPE
  5
8B
330
5
100
AcDbSymbolTableRecord
100
AcDbLinetypeTableRecord
  2
LONG_DASH_TRIPLE_DOT
 70
     0
  3
Long Dash Triple Dot ____ ... ____ ... ____
 72
    65
 73
     8
 40
0.3689
 49
0.2362
 74
     0
 49
-0.0295
 74
     0
 49
0.0049
 74
     0
 49
-0.0295
 74
     0
 49
0.0049
 74
     0
 49
-0.0295
 74
     0
 49
0.0049
 74
     0
 49
-0.0295
 74
     0
  0
LTYPE
  5
8C
330
5
100
AcDbSymbolTableRecord
100
AcDbLinetypeTableRecord
  2
BORDER
 70
     0
  3
Border __ __ . __ __ . __ __ . __ __ . __ __ .
 72
    65
 73
     6
 40
1.75
 49
0.5
 74
     0
 49
-0.25
 74
     0
 49
0.5
 74
     0
 49
-0.25
 74
     0
 49
0.0
 74
     0
 49
-0.25
 74
     0
  0
LTYPE
  5
8D
330
5
100
AcDbSymbolTableRecord
100
AcDbLinetypeTableRecord
  2
BORDER2
 70
     0
  3
Border (.5x) __.__.__.__.__.__.__.__.__.__.__.
 72
    65
 73
     6
 40
0.875
 49
0.25
 74
     0
 49
-0.125
 74
     0
 49
0.25
 74
     0
 49
-0.125
 74
     0
 49
0.0
 74
     0
 49
-0.125
 74
     0
  0
LTYPE
  5
8E
330
5
100
AcDbSymbolTableRecord
100
AcDbLinetypeTableRecord
  2
BORDERX2
 70
     0
  3
Border (2x) ____  ____  .  ____  ____  .  ___
 72
    65
 73
     6
 40
3.5
 49
1.0
 74
     0
 49
-0.5
 74
     0
 49
1.0
 74
     0
 49
-0.5
 74
     0
 49
0.0
 74
     0
 49
-0.5
 74
     0
  0
LTYPE
  5
8F
330
5
100
AcDbSymbolTableRecord
100
AcDbLinetypeTableRecord
  2
CENTER
 70
     0
  3
Center ____ _ ____ _ ____ _ ____ _ ____ _ ____
 72
    65
 73
     4
 40
2.0
 49
1.25
 74
     0
 49
-0.25
 74
     0
 49
0.25
 74
     0
 49
-0.25
 74
     0
  0
LTYPE
  5
90
330
5
100
AcDbSymbolTableRecord
100
AcDbLinetypeTableRecord
  2
CENTER2
 70
     0
  3
Center (.5x) ___ _ ___ _ ___ _ ___ _ ___ _ ___
 72
    65
 73
     4
 40
1.125
 49
0.75
 74
     0
 49
-0.125
 74
     0
 49
0.125
 74
     0
 49
-0.125
 74
     0
  0
LTYPE
  5
91
330
5
100
AcDbSymbolTableRecord
100
AcDbLinetypeTableRecord
  2
CENTERX2
 70
     0
  3
Center (2x) ________  __  ________  __  _____
 72
    65
 73
     4
 40
4.0
 49
2.5
 74
     0
 49
-0.5
 74
     0
 49
0.5
 74
     0
 49
-0.5
 74
     0
  0
LTYPE
  5
92
330
5
100
AcDbSymbolTableRecord
100
AcDbLinetypeTableRecord
  2
DASHDOT2
 70
     0
  3
Dash dot (.5x) _._._._._._._._._._._._._._._.
 72
    65
 73
     4
 40
0.5
 49
0.25
 74
     0
 49
-0.125
 74
     0
 49
0.0
 74
     0
 49
-0.125
 74
     0
  0
LTYPE
  5
93
330
5
100
AcDbSymbolTableRecord
100
AcDbLinetypeTableRecord
  2
DASHDOTX2
 70
     0
  3
Dash dot (2x) ____  .  ____  .  ____  .  ___
 72
    65
 73
     4
 40
2.0
 49
1.0
 74
     0
 49
-0.5
 74
     0
 49
0.0
 74
     0
 49
-0.5
 74
     0
  0
LTYPE
  5
95
330
5
100
AcDbSymbolTableRecord
100
AcDbLinetypeTableRecord
  2
DASHED2
 70
     0
  3
Dashed (.5x) _ _ _ _ _ _ _ _ _ _ _ _ _ _ _ _ _
 72
    65
 73
     2
 40
0.375
 49
0.25
 74
     0
 49
-0.125
 74
     0
  0
LTYPE
  5
96
330
5
100
AcDbSymbolTableRecord
100
AcDbLinetypeTableRecord
  2
DASHEDX2
 70
     0
  3
Dashed (2x) ____  ____  ____  ____  ____  ___
 72
    65
 73
     2
 40
1.5
 49
1.0
 74
     0
 49
-0.5
 74
     0
  0
LTYPE
  5
97
330
5
100
AcDbSymbolTableRecord
100
AcDbLinetypeTableRecord
  2
DIVIDE
 70
     0
  3
Divide ____ . . ____ . . ____ . . ____ . . ____
 72
    65
 73
     6
 40
1.25
 49
0.5
 74
     0
 49
-0.25
 74
     0
 49
0.0
 74
     0
 49
-0.25
 74
     0
 49
0.0
 74
     0
 49
-0.25
 74
     0
  0
LTYPE
  5
98
330
5
100
AcDbSymbolTableRecord
100
AcDbLinetypeTableRecord
  2
DIVIDE2
 70
     0
  3
Divide (.5x) __..__..__..__..__..__..__..__.._
 72
    65
 73
     6
 40
0.625
 49
0.25
 74
     0
 49
-0.125
 74
     0
 49
0.0
 74
     0
 49
-0.125
 74
     0
 49
0.0
 74
     0
 49
-0.125
 74
     0
  0
LTYPE
  5
99
330
5
100
AcDbSymbolTableRecord
100
AcDbLinetypeTableRecord
  2
DIVIDEX2
 70
     0
  3
Divide (2x) ________  .  .  ________  .  .  _
 72
    65
 73
     6
 40
2.5
 49
1.0
 74
     0
 49
-0.5
 74
     0
 49
0.0
 74
     0
 49
-0.5
 74
     0
 49
0.0
 74
     0
 49
-0.5
 74
     0
  0
LTYPE
  5
9A
330
5
100
AcDbSymbolTableRecord
100
AcDbLinetypeTableRecord
  2
DOT
 70
     0
  3
Dot . . . . . . . . . . . . . . . . . . . . . .
 72
    65
 73
     2
 40
0.25
 49
0.0
 74
     0
 49
-0.25
 74
     0
  0
LTYPE
  5
9B
330
5
100
AcDbSymbolTableRecord
100
AcDbLinetypeTableRecord
  2
DOT2
 70
     0
  3
Dot (.5x) .....................................
 72
    65
 73
     2
 40
0.125
 49
0.0
 74
     0
 49
-0.125
 74
     0
  0
LTYPE
  5
9C
330
5
100
AcDbSymbolTableRecord
100
AcDbLinetypeTableRecord
  2
DOTX2
 70
     0
  3
Dot (2x) .  .  .  .  .  .  .  .  .  .  .  .  . 
 72
    65
 73
     2
 40
0.5
 49
0.0
 74
     0
 49
-0.5
 74
     0
  0
LTYPE
  5
9D
330
5
100
AcDbSymbolTableRecord
100
AcDbLinetypeTableRecord
  2
HIDDEN
 70
     0
  3
Hidden __ __ __ __ __ __ __ __ __ __ __ __ __ _
 72
    65
 73
     2
 40
0.375
 49
0.25
 74
     0
 49
-0.125
 74
     0
  0
LTYPE
  5
9E
330
5
100
AcDbSymbolTableRecord
100
AcDbLinetypeTableRecord
  2
HIDDEN2
 70
     0
  3
Hidden (.5x) _ _ _ _ _ _ _ _ _ _ _ _ _ _ _ _ _
 72
    65
 73
     2
 40
0.1875
 49
0.125
 74
     0
 49
-0.0625
 74
     0
  0
LTYPE
  5
9F
330
5
100
AcDbSymbolTableRecord
100
AcDbLinetypeTableRecord
  2
HIDDENX2
 70
     0
  3
Hidden (2x) ____ ____ ____ ____ ____ ____ ____
 72
    65
 73
     2
 40
0.75
 49
0.5
 74
     0
 49
-0.25
 74
     0
  0
LTYPE
  5
A0
330
5
100
AcDbSymbolTableRecord
100
AcDbLinetypeTableRecord
  2
PHANTOM
 70
     0
  3
Phantom ______  __  __  ______  __  __  ______
 72
    65
 73
     6
 40
2.5
 49
1.25
 74
     0
 49
-0.25
 74
     0
 49
0.25
 74
     0
 49
-0.25
 74
     0
 49
0.25
 74
     0
 49
-0.25
 74
     0
  0
LTYPE
  5
A1
330
5
100
AcDbSymbolTableRecord
100
AcDbLinetypeTableRecord
  2
PHANTOM2
 70
     0
  3
Phantom (.5x) ___ _ _ ___ _ _ ___ _ _ ___ _ _
 72
    65
 73
     6
 40
1.25
 49
0.625
 74
     0
 49
-0.125
 74
     0
 49
0.125
 74
     0
 49
-0.125
 74
     0
 49
0.125
 74
     0
 49
-0.125
 74
     0
  0
LTYPE
  5
A2
330
5
100
AcDbSymbolTableRecord
100
AcDbLinetypeTableRecord
  2
PHANTOMX2
 70
     0
  3
Phantom (2x) ____________    ____    ____   _
 72
    65
 73
     6
 40
5.0
 49
2.5
 74
     0
 49
-0.5
 74
     0
 49
0.5
 74
     0
 49
-0.5
 74
     0
 49
0.5
 74
     0
 49
-0.5
 74
     0
  0
LTYPE
  5
A3
330
5
100
AcDbSymbolTableRecord
100
AcDbLinetypeTableRecord
  2
ACAD_ISO02W100
 70
     0
  3
ISO dash __ __ __ __ __ __ __ __ __ __ __ __ __
 72
    65
 73
     2
 40
0.59
 49
0.47
 74
     0
 49
-0.12
 74
     0
  0
LTYPE
  5
A4
330
5
100
AcDbSymbolTableRecord
100
AcDbLinetypeTableRecord
  2
ACAD_ISO03W100
 70
     0
  3
ISO dash space __    __    __    __    __    __
 72
    65
 73
     2
 40
1.179999999999999
 49
0.47
 74
     0
 49
-0.71
 74
     0
  0
LTYPE
  5
A5
330
5
100
AcDbSymbolTableRecord
100
AcDbLinetypeTableRecord
  2
ACAD_ISO04W100
 70
     0
  3
ISO long-dash dot ____ . ____ . ____ . ____ . _
 72
    65
 73
     4
 40
1.179999999999999
 49
0.9399999999999998
 74
     0
 49
-0.12
 74
     0
 49
0.0
 74
     0
 49
-0.12
 74
     0
  0
LTYPE
  5
A6
330
5
100
AcDbSymbolTableRecord
100
AcDbLinetypeTableRecord
  2
ACAD_ISO05W100
 70
     0
  3
ISO long-dash double-dot ____ .. ____ .. ____ .
 72
    65
 73
     6
 40
1.299999999999999
 49
0.9399999999999998
 74
     0
 49
-0.12
 74
     0
 49
0.0
 74
     0
 49
-0.12
 74
     0
 49
0.0
 74
     0
 49
-0.12
 74
     0
  0
LTYPE
  5
A7
330
5
100
AcDbSymbolTableRecord
100
AcDbLinetypeTableRecord
  2
ACAD_ISO06W100
 70
     0
  3
ISO long-dash triple-dot ____ ... ____ ... ____
 72
    65
 73
     8
 40
1.419999999999999
 49
0.9399999999999998
 74
     0
 49
-0.12
 74
     0
 49
0.0
 74
     0
 49
-0.12
 74
     0
 49
0.0
 74
     0
 49
-0.12
 74
     0
 49
0.0
 74
     0
 49
-0.12
 74
     0
  0
LTYPE
  5
A8
330
5
100
AcDbSymbolTableRecord
100
AcDbLinetypeTableRecord
  2
ACAD_ISO07W100
 70
     0
  3
ISO dot . . . . . . . . . . . . . . . . . . . .
 72
    65
 73
     2
 40
0.12
 49
0.0
 74
     0
 49
-0.12
 74
     0
  0
LTYPE
  5
A9
330
5
100
AcDbSymbolTableRecord
100
AcDbLinetypeTableRecord
  2
ACAD_ISO08W100
 70
     0
  3
ISO long-dash short-dash ____ __ ____ __ ____ _
 72
    65
 73
     4
 40
0.95
 49
0.47
 74
     0
 49
-0.12
 74
     0
 49
0.24
 74
     0
 49
-0.12
 74
     0
  0
LTYPE
  5
AA
330
5
100
AcDbSymbolTableRecord
100
AcDbLinetypeTableRecord
  2
ACAD_ISO09W100
 70
     0
  3
ISO long-dash double-short-dash ____ __ __ ____
 72
    65
 73
     6
 40
1.31
 49
0.47
 74
     0
 49
-0.12
 74
     0
 49
0.24
 74
     0
 49
-0.12
 74
     0
 49
0.24
 74
     0
 49
-0.12
 74
     0
  0
LTYPE
  5
AB
330
5
100
AcDbSymbolTableRecord
100
AcDbLinetypeTableRecord
  2
ACAD_ISO10W100
 70
     0
  3
ISO dash dot __ . __ . __ . __ . __ . __ . __ .
 72
    65
 73
     4
 40
0.71
 49
0.47
 74
     0
 49
-0.12
 74
     0
 49
0.0
 74
     0
 49
-0.12
 74
     0
  0
LTYPE
  5
AC
330
5
100
AcDbSymbolTableRecord
100
AcDbLinetypeTableRecord
  2
ACAD_ISO11W100
 70
     0
  3
ISO double-dash dot __ __ . __ __ . __ __ . __ 
 72
    65
 73
     6
 40
1.299999999999999
 49
0.47
 74
     0
 49
-0.12
 74
     0
 49
0.47
 74
     0
 49
-0.12
 74
     0
 49
0.0
 74
     0
 49
-0.12
 74
     0
  0
LTYPE
  5
AD
330
5
100
AcDbSymbolTableRecord
100
AcDbLinetypeTableRecord
  2
ACAD_ISO12W100
 70
     0
  3
ISO dash double-dot __ . . __ . . __ . . __ . .
 72
    65
 73
     6
 40
0.8299999999999998
 49
0.47
 74
     0
 49
-0.12
 74
     0
 49
0.0
 74
     0
 49
-0.12
 74
     0
 49
0.0
 74
     0
 49
-0.12
 74
     0
  0
LTYPE
  5
AE
330
5
100
AcDbSymbolTableRecord
100
AcDbLinetypeTableRecord
  2
ACAD_ISO13W100
 70
     0
  3
ISO double-dash double-dot __ __ . . __ __ . . 
 72
    65
 73
     8
 40
1.419999999999999
 49
0.47
 74
     0
 49
-0.12
 74
     0
 49
0.47
 74
     0
 49
-0.12
 74
     0
 49
0.0
 74
     0
 49
-0.12
 74
     0
 49
0.0
 74
     0
 49
-0.12
 74
     0
  0
LTYPE
  5
AF
330
5
100
AcDbSymbolTableRecord
100
AcDbLinetypeTableRecord
  2
ACAD_ISO14W100
 70
     0
  3
ISO dash triple-dot __ . . . __ . . . __ . . . 
 72
    65
 73
     8
 40
0.95
 49
0.47
 74
     0
 49
-0.12
 74
     0
 49
0.0
 74
     0
 49
-0.12
 74
     0
 49
0.0
 74
     0
 49
-0.12
 74
     0
 49
0.0
 74
     0
 49
-0.12
 74
     0
  0
LTYPE
  5
B0
330
5
100
AcDbSymbolTableRecord
100
AcDbLinetypeTableRecord
  2
ACAD_ISO15W100
 70
     0
  3
ISO double-dash triple-dot __ __ . . . __ __ . 
 72
    65
 73
    10
 40
1.539999999999999
 49
0.47
 74
     0
 49
-0.12
 74
     0
 49
0.47
 74
     0
 49
-0.12
 74
     0
 49
0.0
 74
     0
 49
-0.12
 74
     0
 49
0.0
 74
     0
 49
-0.12
 74
     0
 49
0.0
 74
     0
 49
-0.12
 74
     0
  0
LTYPE
  5
B3
330
5
100
AcDbSymbolTableRecord
100
AcDbLinetypeTableRecord
  2
FENCELINE1
 70
     0
  3
Fenceline circle ----0-----0----0-----0----0---
 72
    65
 73
     4
 40
1.45
 49
0.25
 74
     0
 49
-0.1
 74
     4
 75
   133
340
B2
 46
0.1
 50
0.0
 44
-0.1
 45
0.0
 49
-0.1
 74
     0
 49
1.0
 74
     0
  0
LTYPE
  5
B4
330
5
100
AcDbSymbolTableRecord
100
AcDbLinetypeTableRecord
  2
FENCELINE2
 70
     0
  3
Fenceline square ----[]-----[]----[]-----[]----
 72
    65
 73
     4
 40
1.45
 49
0.25
 74
     0
 49
-0.1
 74
     4
 75
   132
340
B2
 46
0.1
 50
0.0
 44
-0.1
 45
0.0
 49
-0.1
 74
     0
 49
1.0
 74
     0
  0
LTYPE
  5
B5
330
5
100
AcDbSymbolTableRecord
100
AcDbLinetypeTableRecord
  2
TRACKS
 70
     0
  3
Tracks -|-|-|-|-|-|-|-|-|-|-|-|-|-|-|-|-|-|-|-|
 72
    65
 73
     2
 40
0.3
 49
0.15
 74
     4
 75
   130
340
B2
 46
0.25
 50
0.0
 44
0.0
 45
0.0
 49
0.15
 74
     0
  0
LTYPE
  5
B6
330
5
100
AcDbSymbolTableRecord
100
AcDbLinetypeTableRecord
  2
BATTING
 70
     0
  3
Batting SSSSSSSSSSSSSSSSSSSSSSSSSSSSSSSSSSSSSSS
 72
    65
 73
     4
 40
0.4001000000000001
 49
0.0001
 74
     0
 49
-0.1
 74
     4
 75
   134
340
B2
 46
0.1
 50
0.0
 44
-0.1
 45
0.0
 49
-0.2
 74
     4
 75
   134
340
B2
 46
0.1
 50
180.0
 44
0.1
 45
0.0
 49
-0.1
 74
     0
  0
LTYPE
  5
B7
330
5
100
AcDbSymbolTableRecord
100
AcDbLinetypeTableRecord
  2
HOT_WATER_SUPPLY
 70
     0
  3
Hot water supply ---- HW ---- HW ---- HW ----
 72
    65
 73
     3
 40
0.9
 49
0.5
 74
     0
 49
-0.2
 74
     2
 75
     0
340
55
 46
0.1
 50
0.0
 44
-0.1
 45
-0.05
  9
HW
 49
-0.2
 74
     0
  0
LTYPE
  5
B8
330
5
100
AcDbSymbolTableRecord
100
AcDbLinetypeTableRecord
  2
GAS_LINE
 70
     0
  3
Gas line ----GAS----GAS----GAS----GAS----GAS---
 72
    65
 73
     3
 40
0.95
 49
0.5
 74
     0
 49
-0.2
 74
     2
 75
     0
340
55
 46
0.1
 50
0.0
 44
-0.1
 45
-0.05
  9
GAS
 49
-0.25
 74
     0
  0
LTYPE
  5
B9
330
5
100
AcDbSymbolTableRecord
100
AcDbLinetypeTableRecord
  2
ZIGZAG
 70
     0
  3
Zig zag /\/\/\/\/\/\/\/\/\/\/\/\/\/\/\/\/\/\/\/
 72
    65
 73
     4
 40
0.8001000000000001
 49
0.0001
 74
     0
 49
-0.2
 74
     4
 75
   131
340
B2
 46
0.2
 50
0.0
 44
-0.2
 45
0.0
 49
-0.4
 74
     4
 75
   131
340
B2
 46
0.2
 50
180.0
 44
0.2
 45
0.0
 49
-0.2
 74
     0
  0
ENDTAB
  0
TABLE
  2
LAYER
  5
2
330
0
100
AcDbSymbolTable
 70
    27
  0
LAYER
  5
54
330
2
100
AcDbSymbolTableRecord
100
AcDbLayerTableRecord
  2
0
 70
     0
 62
     7
  6
Continuous
370
    18
390
F
  0
LAYER
  5
C3
330
2
100
AcDbSymbolTableRecord
100
AcDbLayerTableRecord
  2
Dimension (ANSI)
 70
     0
 62
     7
  6
Continuous
370
    13
390
F
  0
LAYER
  5
C5
330
2
100
AcDbSymbolTableRecord
100
AcDbLayerTableRecord
  2
Hidden (ANSI)
 70
     0
 62
     7
  6
DASHED
370
    15
390
F
  0
LAYER
  5
CC
330
2
100
AcDbSymbolTableRecord
100
AcDbLayerTableRecord
  2
Symbol (ANSI)
 70
     0
 62
     7
  6
Continuous
370
    18
390
F
  0
LAYER
  5
CF
330
2
100
AcDbSymbolTableRecord
100
AcDbLayerTableRecord
  2
Visible (ANSI)
 70
     0
 62
     7
  6
Continuous
370
    13
390
F
  0
LAYER
  5
160
330
2
100
AcDbSymbolTableRecord
100
AcDbLayerTableRecord
  2
Defpoints
 70
     0
 62
     7
  6
Continuous
290
     0
370
    -3
390
F
  0
ENDTAB
  0
TABLE
  2
STYLE
  5
3
330
0
100
AcDbSymbolTable
 70
    17
  0
STYLE
  5
55
330
3
100
AcDbSymbolTableRecord
100
AcDbTextStyleTableRecord
  2
Standard
 70
     0
 40
0.0
 41
1.0
 50
0.0
 71
     0
 42
0.2
  3
txt
  4

  0
STYLE
  5
5A
330
3
100
AcDbSymbolTableRecord
100
AcDbTextStyleTableRecord
  2
Annotative
 70
     0
 40
0.0
 41
1.0
 50
0.0
 71
     0
 42
0.2
  3
txt
  4

1001
AcadAnnotative
1000
AnnotativeData
1002
{
1070
     1
1070
     1
1002
}
  0
STYLE
  5
B2
330
3
100
AcDbSymbolTableRecord
100
AcDbTextStyleTableRecord
  2

 70
     1
 40
0.0
 41
1.0
 50
0.0
 71
     0
 42
0.2
  3
ltypeshp.shx
  4

  0
STYLE
  5
D4
330
3
100
AcDbSymbolTableRecord
100
AcDbTextStyleTableRecord
  2
ITALICC_120
 70
     0
 40
0.0
 41
1.0
 50
0.0
 71
     0
 42
0.2
  3
italicc.shx
  4

  0
STYLE
  5
D5
330
3
100
AcDbSymbolTableRecord
100
AcDbTextStyleTableRecord
  2
Label Text (ANSI)
 70
     0
 40
0.0
 41
1.0
 50
0.0
 71
     0
 42
0.2
  3
RomanS.shx
  4

  0
STYLE
  5
D6
330
3
100
AcDbSymbolTableRecord
100
AcDbTextStyleTableRecord
  2
Note Text (ANSI)
 70
     0
 40
0.0
 41
1.0
 50
0.0
 71
     0
 42
0.2
  3
RomanS.shx
  4

  0
STYLE
  5
D7
330
3
100
AcDbSymbolTableRecord
100
AcDbTextStyleTableRecord
  2
ROMANS
 70
     0
 40
0.0
 41
1.0
 50
0.0
 71
     0
 42
0.2
  3
romans.shx
  4

  0
STYLE
  5
D8
330
3
100
AcDbSymbolTableRecord
100
AcDbTextStyleTableRecord
  2
SANSSERIF_114
 70
     0
 40
0.0
 41
1.0
 50
0.0
 71
     0
 42
0.2
  3
TAHOMA.TTF
  4

1001
ACAD
1000
Tahoma
1071
      256
  0
STYLE
  5
D9
330
3
100
AcDbSymbolTableRecord
100
AcDbTextStyleTableRecord
  2
SANSSERIF_117
 70
     0
 40
0.0
 41
1.0
 50
0.0
 71
     0
 42
0.2
  3
TAHOMA.TTF
  4

1001
ACAD
1000
Tahoma
1071
      256
  0
STYLE
  5
DA
330
3
100
AcDbSymbolTableRecord
100
AcDbTextStyleTableRecord
  2
STANDARDAM_ANSI
 70
     0
 40
0.0
 41
1.0
 50
0.0
 71
     0
 42
0.2
  3
txt.shx
  4

  0
STYLE
  5
DB
330
3
100
AcDbSymbolTableRecord
100
AcDbTextStyleTableRecord
  2
StandardAM_ANSI$0
 70
     0
 40
0.0
 41
1.0
 50
0.0
 71
     0
 42
0.2
  3
txt.shx
  4

  0
STYLE
  5
DC
330
3
100
AcDbSymbolTableRecord
100
AcDbTextStyleTableRecord
  2
STANDARDAM_ANSI$3
 70
     0
 40
0.0
 41
1.0
 50
0.0
 71
     0
 42
0.2
  3
txt.shx
  4

  0
STYLE
  5
DD
330
3
100
AcDbSymbolTableRecord
100
AcDbTextStyleTableRecord
  2
STANDARDAM_ANSI$4
 70
     0
 40
0.0
 41
1.0
 50
0.0
 71
     0
 42
0.2
  3
txt.shx
  4

  0
STYLE
  5
DE
330
3
100
AcDbSymbolTableRecord
100
AcDbTextStyleTableRecord
  2
STANDARDAM_ANSI$7
 70
     0
 40
0.0
 41
1.0
 50
0.0
 71
     0
 42
0.2
  3
txt.shx
  4

  0
STYLE
  5
DF
330
3
100
AcDbSymbolTableRecord
100
AcDbTextStyleTableRecord
  2
STANDARDAM_ANSI$SF
 70
     0
 40
0.0
 41
1.0
 50
0.0
 71
     0
 42
0.2
  3
txt.shx
  4

  0
STYLE
  5
E0
330
3
100
AcDbSymbolTableRecord
100
AcDbTextStyleTableRecord
  2
STANDARDAM_ANSI$SH
 70
     0
 40
0.0
 41
1.0
 50
0.0
 71
     0
 42
0.2
  3
txt.shx
  4

  0
STYLE
  5
E1
330
3
100
AcDbSymbolTableRecord
100
AcDbTextStyleTableRecord
  2
STANDARDSTANDARD
 70
     0
 40
0.0
 41
1.0
 50
0.0
 71
     0
 42
0.2
  3
txt.shx
  4

  0
ENDTAB
  0
TABLE
  2
VIEW
  5
6
330
0
100
AcDbSymbolTable
 70
     0
  0
ENDTAB
  0
TABLE
  2
UCS
  5
7
330
0
100
AcDbSymbolTable
 70
     0
  0
ENDTAB
  0
TABLE
  2
APPID
  5
9
330
0
100
AcDbSymbolTable
 70
     4
  0
APPID
  5
56
330
9
100
AcDbSymbolTableRecord
100
AcDbRegAppTableRecord
  2
ACAD
 70
     0
  0
APPID
  5
5E
330
9
100
AcDbSymbolTableRecord
100
AcDbRegAppTableRecord
  2
AcadAnnotative
 70
     0
  0
APPID
  5
3CE
330
9
100
AcDbSymbolTableRecord
100
AcDbRegAppTableRecord
  2
ACAD_DSTYLE_DIMRADIAL_EXTENSION
 70
     0
  0
APPID
  5
C84
330
9
100
AcDbSymbolTableRecord
100
AcDbRegAppTableRecord
  2
ACAD_MLEADERVER
 70
     0
  0
ENDTAB
  0
TABLE
  2
DIMSTYLE
  5
A
330
0
100
AcDbSymbolTable
 70
    27
100
AcDbDimStyleTable
 71
     2
340
F6
340
58
  0
DIMSTYLE
105
58
330
A
100
AcDbSymbolTableRecord
100
AcDbDimStyleTableRecord
  2
STANDARD
 70
     0
 41
0.1800000071525573
 42
0.0625
140
0.1800000071525574
144
1.0
147
0.0900000035762787
176
   256
177
   256
178
   256
274
     3
340
55
371
    -1
372
    -1
  0
DIMSTYLE
105
59
330
A
100
AcDbSymbolTableRecord
100
AcDbDimStyleTableRecord
  2
Annotative
 70
     0
340
55
1001
AcadAnnotative
1000
AnnotativeData
1002
{
1070
     1
1070
     1
1002
}
  0
DIMSTYLE
105
E2
330
A
100
AcDbSymbolTableRecord
100
AcDbDimStyleTableRecord
  2
AM_ANSI
 70
     0
  4
 mm
 40
3.703703703703703
 41
0.119999997317791
 42
0.05
 43
0.5
 44
0.1
 45
0.00000001
 78
     4
 79
     2
140
0.1200000047683716
146
0.7099999453624112
147
0.0599999986588955
176
   256
177
   256
178
     2
284
     4
340
DA
371
    -1
372
    -1
  0
DIMSTYLE
105
E3
330
A
100
AcDbSymbolTableRecord
100
AcDbDimStyleTableRecord
  2
AM_ANSI$7
 70
     0
  4
 mm
 40
3.703703703703703
 41
0.119999997317791
 42
0.05
 43
0.5
 44
0.1
 45
0.00000001
 78
     4
 79
     2
140
0.1200000047683716
146
0.7099999453624112
147
0.0599999986588955
176
   256
177
   256
178
     2
284
     4
340
DA
371
    -1
372
    -1
  0
DIMSTYLE
105
E4
330
A
100
AcDbSymbolTableRecord
100
AcDbDimStyleTableRecord
  2
AM_ANSI$0
 70
     0
  4
 mm
 40
3.703703703703703
 41
0.119999997317791
 42
0.05
 43
0.5
 44
0.1
 45
0.00000001
 78
     4
 79
     2
140
0.1200000047683716
146
0.7099999453624112
147
0.0599999986588955
176
   256
177
   256
178
     2
284
     4
340
DB
371
    -1
372
    -1
  0
DIMSTYLE
105
E5
330
A
100
AcDbSymbolTableRecord
100
AcDbDimStyleTableRecord
  2
AM_ANSI$0$7
 70
     0
  4
 mm
 40
3.703703703703703
 41
0.119999997317791
 42
0.05
 43
0.5
 44
0.1
 45
0.00000001
 78
     4
 79
     2
140
0.1200000047683716
146
0.7099999453624112
147
0.0599999986588955
176
   256
177
   256
178
     2
284
     4
340
DB
371
    -1
372
    -1
  0
DIMSTYLE
105
E6
330
A
100
AcDbSymbolTableRecord
100
AcDbDimStyleTableRecord
  2
AM_ANSI$3
 70
     0
  4
 mm
 40
3.703703703703703
 41
0.119999997317791
 42
0.05
 43
0.5
 44
0.1
 45
0.00000001
 78
     4
 79
     2
140
0.1200000047683716
146
0.7099999453624112
147
0.0599999986588955
176
   256
177
   256
178
     2
284
     4
340
DC
371
    -1
372
    -1
  0
DIMSTYLE
105
E7
330
A
100
AcDbSymbolTableRecord
100
AcDbDimStyleTableRecord
  2
AM_ANSI$3$7
 70
     0
  4
 mm
 40
3.703703703703703
 41
0.119999997317791
 42
0.05
 43
0.5
 44
0.1
 45
0.00000001
 78
     4
 79
     2
140
0.1200000047683716
146
0.7099999453624112
147
0.0599999986588955
176
   256
177
   256
178
     2
284
     4
340
DC
371
    -1
372
    -1
  0
DIMSTYLE
105
E8
330
A
100
AcDbSymbolTableRecord
100
AcDbDimStyleTableRecord
  2
AM_ANSI$4
 70
     0
  4
 mm
 40
3.703703703703703
 41
0.119999997317791
 42
0.05
 43
0.5
 44
0.1
 45
0.00000001
 78
     4
 79
     2
140
0.1200000047683716
146
0.7099999453624112
147
0.0599999986588955
176
   256
177
   256
178
     2
284
     4
340
DD
371
    -1
372
    -1
  0
DIMSTYLE
105
E9
330
A
100
AcDbSymbolTableRecord
100
AcDbDimStyleTableRecord
  2
AM_ANSI$4$7
 70
     0
  4
 mm
 40
3.703703703703703
 41
0.119999997317791
 42
0.05
 43
0.5
 44
0.1
 45
0.00000001
 78
     4
 79
     2
140
0.1200000047683716
146
0.7099999453624112
147
0.0599999986588955
176
   256
177
   256
178
     2
284
     4
340
DD
371
    -1
372
    -1
  0
DIMSTYLE
105
EA
330
A
100
AcDbSymbolTableRecord
100
AcDbDimStyleTableRecord
  2
AM_ANSI$SF
 70
     0
  4
 mm
 40
3.703703703703703
 41
0.119999997317791
 42
0.05
 43
0.5
 44
0.1
 45
0.00000001
 75
     1
 76
     1
 78
     4
 79
     2
140
0.1200000047683716
146
0.7099999453624112
147
0.0599999986588955
176
   256
177
   256
178
     2
284
     4
340
DF
371
    -1
372
    -1
  0
DIMSTYLE
105
EB
330
A
100
AcDbSymbolTableRecord
100
AcDbDimStyleTableRecord
  2
AM_ANSI$SF$7
 70
     0
  4
 mm
 40
3.703703703703703
 41
0.119999997317791
 42
0.05
 43
0.5
 44
0.1
 45
0.00000001
 75
     1
 76
     1
 78
     4
 79
     2
140
0.1200000047683716
146
0.7099999453624112
147
0.0599999986588955
176
   256
177
   256
178
     2
284
     4
340
DF
371
    -1
372
    -1
  0
DIMSTYLE
105
EC
330
A
100
AcDbSymbolTableRecord
100
AcDbDimStyleTableRecord
  2
AM_ANSI$SH
 70
     0
  4
 mm
 40
3.703703703703703
 41
0.119999997317791
 42
0.05
 43
0.5
 44
0.1
 45
0.00000001
 75
     1
 76
     1
 78
     4
 79
     2
140
0.1200000047683716
146
0.7099999453624112
147
0.0599999986588955
176
   256
177
   256
178
     2
284
     4
340
E0
371
    -1
372
    -1
  0
DIMSTYLE
105
ED
330
A
100
AcDbSymbolTableRecord
100
AcDbDimStyleTableRecord
  2
AM_ANSI$SH$7
 70
     0
  4
 mm
 40
3.703703703703703
 41
0.119999997317791
 42
0.05
 43
0.5
 44
0.1
 45
0.00000001
 75
     1
 76
     1
 78
     4
 79
     2
140
0.1200000047683716
146
0.7099999453624112
147
0.0599999986588955
176
   256
177
   256
178
     2
284
     4
340
E0
371
    -1
372
    -1
  0
DIMSTYLE
105
EE
330
A
100
AcDbSymbolTableRecord
100
AcDbDimStyleTableRecord
  2
Architectural (ANSI)
 70
     0
 40
3.703703703703703
 41
0.0984251946210861
 43
0.2362204724409449
 44
0.125
 45
0.00000001
 46
0.3937007874015748
 78
     3
 79
     3
140
0.1200000047683716
147
0.031496062992126
171
     1
176
   256
177
   256
178
   256
272
     2
274
     1
276
     2
277
     4
284
    12
285
     4
286
    12
340
D6
371
    -1
372
    -1
  0
DIMSTYLE
105
EF
330
A
100
AcDbSymbolTableRecord
100
AcDbDimStyleTableRecord
  2
Architectural (ANSI)$7
 70
     0
 40
3.703703703703703
 41
0.0984251946210861
 43
0.2362204724409449
 44
0.125
 45
0.00000001
 46
0.3937007874015748
 78
     3
 79
     3
140
0.1200000047683716
147
0.031496062992126
171
     1
176
   256
177
   256
178
   256
272
     2
274
     1
276
     2
277
     4
284
    12
285
     4
286
    12
340
D6
371
    -1
372
    -1
  0
DIMSTYLE
105
F0
330
A
100
AcDbSymbolTableRecord
100
AcDbDimStyleTableRecord
  2
Default - Fraction (ANSI)
 70
     0
 40
3.703703703703703
 41
0.0984251946210861
 43
0.2362204724409449
 44
0.125
 45
0.00000001
 46
0.3937007874015748
 79
     3
140
0.1200000047683716
147
0.031496062992126
171
     1
176
   256
177
   256
178
   256
272
     2
274
     1
276
     2
277
     5
284
    12
285
     4
286
    12
340
D6
371
    -1
372
    -1
  0
DIMSTYLE
105
F1
330
A
100
AcDbSymbolTableRecord
100
AcDbDimStyleTableRecord
  2
Default - Fraction (ANSI)$7
 70
     0
 40
3.703703703703703
 41
0.0984251946210861
 43
0.2362204724409449
 44
0.125
 45
0.00000001
 46
0.3937007874015748
 79
     3
140
0.1200000047683716
147
0.031496062992126
171
     1
176
   256
177
   256
178
   256
272
     2
274
     1
276
     2
277
     5
284
    12
285
     4
286
    12
340
D6
371
    -1
372
    -1
  0
DIMSTYLE
105
F2
330
A
100
AcDbSymbolTableRecord
100
AcDbDimStyleTableRecord
  2
Default - mm (ANSI)
 70
     0
 40
3.703703703703703
 41
0.0984251946210861
 42
0.063
 43
0.2362204724409449
 44
0.125
 45
0.00000001
 46
0.3937007874015748
 73
     0
 78
     4
 79
     1
140
0.1200000047683716
143
1.0
144
25.4
147
0.031496062992126
171
     1
176
   256
177
   256
178
   256
179
     1
271
     2
272
     2
274
     1
284
     4
285
     4
340
D6
371
    -1
372
    -1
  0
DIMSTYLE
105
F3
330
A
100
AcDbSymbolTableRecord
100
AcDbDimStyleTableRecord
  2
Default - mm (ANSI)$7
 70
     0
 40
3.703703703703703
 41
0.0984251946210861
 42
0.063
 43
0.2362204724409449
 44
0.125
 45
0.00000001
 46
0.3937007874015748
 73
     0
 78
     4
 79
     1
140
0.1200000047683716
143
1.0
144
25.4
147
0.031496062992126
171
     1
176
   256
177
   256
178
   256
179
     1
271
     2
272
     2
274
     1
284
     4
285
     4
340
D6
371
    -1
372
    -1
  0
DIMSTYLE
105
F4
330
A
100
AcDbSymbolTableRecord
100
AcDbDimStyleTableRecord
  2
Default - mm [in] (ANSI)
 70
     0
  4
 in
 40
3.703703703703703
 41
0.0984251946210861
 42
0.063
 43
0.25
 44
0.125
 45
0.00000001
 46
0.3937007874015748
 73
     0
 78
     4
 79
     1
140
0.1200000047683716
143
0.03937
144
25.4
147
0.031496062992126
170
     1
171
     3
176
   256
177
   256
178
   256
179
     1
271
     2
272
     2
274
     3
284
     4
285
     4
286
     4
340
D6
371
    -1
372
    -1
  0
DIMSTYLE
105
F5
330
A
100
AcDbSymbolTableRecord
100
AcDbDimStyleTableRecord
  2
Default - mm [in] (ANSI)$7
 70
     0
  4
 in
 40
3.703703703703703
 41
0.0984251946210861
 42
0.063
 43
0.25
 44
0.125
 45
0.00000001
 46
0.3937007874015748
 73
     0
 78
     4
 79
     1
140
0.1200000047683716
143
0.03937
144
25.4
147
0.031496062992126
170
     1
171
     3
176
   256
177
   256
178
   256
179
     1
271
     2
272
     2
274
     3
284
     4
285
     4
286
     4
340
D6
371
    -1
372
    -1
  0
DIMSTYLE
105
F6
102
{ACAD_REACTORS
330
15E
330
24B
330
335
330
3EF
330
4A8
330
597
330
681
330
77E
330
868
330
968
330
A52
330
B3C
102
}
330
A
100
AcDbSymbolTableRecord
100
AcDbDimStyleTableRecord
  2
Default (ANSI)
 70
     0
 40
3.703703703703703
 41
0.0984251946210861
 43
0.2362204724409449
 44
0.125
 45
0.00000001
 46
0.3937007874015748
 79
     1
140
0.1200000047683716
147
0.031496062992126
171
     1
176
   256
177
   256
178
   256
271
     3
272
     2
274
     1
284
     4
285
     4
340
D6
371
    -1
372
    -1
  0
DIMSTYLE
105
F7
330
A
100
AcDbSymbolTableRecord
100
AcDbDimStyleTableRecord
  2
Default (ANSI)$7
 70
     0
 40
3.703703703703703
 41
0.0984251946210861
 43
0.2362204724409449
 44
0.125
 45
0.00000001
 46
0.3937007874015748
 79
     1
140
0.1200000047683716
147
0.031496062992126
171
     1
176
   256
177
   256
178
   256
271
     3
272
     2
274
     1
284
     4
285
     4
340
D6
371
    -1
372
    -1
  0
DIMSTYLE
105
F8
330
A
100
AcDbSymbolTableRecord
100
AcDbDimStyleTableRecord
  2
Alternate (ANSI)
 70
     0
 40
3.703703703703703
 41
0.0979999974370003
340
55
342
F9
  0
DIMSTYLE
105
10B
330
A
100
AcDbSymbolTableRecord
100
AcDbDimStyleTableRecord
  2
Datum (ANSI)
 70
     0
 40
3.703703703703703
 41
0.0979999974370003
340
55
342
F9
  0
DIMSTYLE
105
11A
330
A
100
AcDbSymbolTableRecord
100
AcDbDimStyleTableRecord
  2
Large (ANSI)
 70
     0
 40
3.703703703703703
 41
0.1959999948740005
340
55
342
F9
  0
ENDTAB
  0
TABLE
  2
BLOCK_RECORD
  5
1
330
0
100
AcDbSymbolTable
 70
    16
  0
BLOCK_RECORD
  5
6C
330
1
100
AcDbSymbolTableRecord
100
AcDbBlockTableRecord
  2
*Model_Space
340
6F
  0
BLOCK_RECORD
  5
68
330
1
100
AcDbSymbolTableRecord
100
AcDbBlockTableRecord
  2
*Paper_Space
340
6B
  0
BLOCK_RECORD
  5
70
330
1
100
AcDbSymbolTableRecord
100
AcDbBlockTableRecord
  2
*Paper_Space0
340
73
  0
BLOCK_RECORD
  5
F9
330
1
100
AcDbSymbolTableRecord
100
AcDbBlockTableRecord
  2
_Closed
340
0
  0
BLOCK_RECORD
  5
100
330
1
100
AcDbSymbolTableRecord
100
AcDbBlockTableRecord
  2
DatumFilled45
340
0
  0
BLOCK_RECORD
  5
10C
330
1
100
AcDbSymbolTableRecord
100
AcDbBlockTableRecord
  2
Filled-1
340
0
  0
BLOCK_RECORD
  5
161
330
1
100
AcDbSymbolTableRecord
100
AcDbBlockTableRecord
  2
*D4
340
0
  0
BLOCK_RECORD
  5
24C
330
1
100
AcDbSymbolTableRecord
100
AcDbBlockTableRecord
  2
*D5
340
0
  0
BLOCK_RECORD
  5
336
330
1
100
AcDbSymbolTableRecord
100
AcDbBlockTableRecord
  2
*D6
340
0
  0
BLOCK_RECORD
  5
3F0
330
1
100
AcDbSymbolTableRecord
100
AcDbBlockTableRecord
  2
*D7
340
0
  0
BLOCK_RECORD
  5
4A9
330
1
100
AcDbSymbolTableRecord
100
AcDbBlockTableRecord
  2
*D8
340
0
  0
BLOCK_RECORD
  5
598
330
1
100
AcDbSymbolTableRecord
100
AcDbBlockTableRecord
  2
*D9
340
0
  0
BLOCK_RECORD
  5
682
330
1
100
AcDbSymbolTableRecord
100
AcDbBlockTableRecord
  2
*D10
340
0
  0
BLOCK_RECORD
  5
77F
330
1
100
AcDbSymbolTableRecord
100
AcDbBlockTableRecord
  2
*D11
340
0
  0
BLOCK_RECORD
  5
869
330
1
100
AcDbSymbolTableRecord
100
AcDbBlockTableRecord
  2
*D12
340
0
  0
BLOCK_RECORD
  5
969
330
1
100
AcDbSymbolTableRecord
100
AcDbBlockTableRecord
  2
*D13
340
0
  0
BLOCK_RECORD
  5
A53
330
1
100
AcDbSymbolTableRecord
100
AcDbBlockTableRecord
  2
*D14
340
0
  0
BLOCK_RECORD
  5
B3D
330
1
100
AcDbSymbolTableRecord
100
AcDbBlockTableRecord
  2
*D15
340
0
  0
ENDTAB
  0
ENDSEC
  0
SECTION
  2
BLOCKS
  0
BLOCK
  5
6D
330
6C
100
AcDbEntity
  8
0
100
AcDbBlockBegin
  2
*Model_Space
 70
     0
 10
0.0
 20
0.0
 30
0.0
  3
*Model_Space
  1

  0
ENDBLK
  5
6E
330
6C
100
AcDbEntity
  8
0
100
AcDbBlockEnd
  0
BLOCK
  5
69
330
68
100
AcDbEntity
 67
     1
  8
0
100
AcDbBlockBegin
  2
*Paper_Space
 70
     0
 10
0.0
 20
0.0
 30
0.0
  3
*Paper_Space
  1

  0
ENDBLK
  5
6A
330
68
100
AcDbEntity
 67
     1
  8
0
100
AcDbBlockEnd
  0
BLOCK
  5
71
330
70
100
AcDbEntity
 67
     1
  8
0
100
AcDbBlockBegin
  2
*Paper_Space0
 70
     0
 10
0.0
 20
0.0
 30
0.0
  3
*Paper_Space0
  1

  0
ENDBLK
  5
72
330
70
100
AcDbEntity
 67
     1
  8
0
100
AcDbBlockEnd
  0
BLOCK
  5
FE
330
F9
100
AcDbEntity
  8
0
100
AcDbBlockBegin
  2
_Closed
 70
     0
 10
0.0
 20
0.0
 30
0.0
  3
_Closed
  1

  0
LINE
  5
FA
330
F9
100
AcDbEntity
  8
0
  6
ByBlock
 62
     0
370
    -2
100
AcDbLine
 10
-1.0
 20
0.1666666666666666
 30
0.0
 11
0.0
 21
0.0
 31
0.0
  0
LINE
  5
FB
330
F9
100
AcDbEntity
  8
0
  6
ByBlock
 62
     0
370
    -2
100
AcDbLine
 10
0.0
 20
0.0
 30
0.0
 11
-1.0
 21
-0.1666666666666666
 31
0.0
  0
LINE
  5
FC
330
F9
100
AcDbEntity
  8
0
  6
ByBlock
 62
     0
370
    -2
100
AcDbLine
 10
-1.0
 20
0.1666666666666666
 30
0.0
 11
-1.0
 21
-0.1666666666666666
 31
0.0
  0
LINE
  5
FD
330
F9
100
AcDbEntity
  8
0
  6
ByBlock
 62
     0
370
    -2
100
AcDbLine
 10
0.0
 20
0.0
 30
0.0
 11
-1.0
 21
0.0
 31
0.0
  0
ENDBLK
  5
FF
330
F9
100
AcDbEntity
  8
0
100
AcDbBlockEnd
  0
BLOCK
  5
101
330
100
100
AcDbEntity
  8
0
100
AcDbBlockBegin
  2
DatumFilled45
 70
     0
 10
0.0
 20
0.0
 30
0.0
  3
DatumFilled45
  1

  0
POLYLINE
  5
103
330
100
100
AcDbEntity
  8
0
 62
     0
100
AcDb2dPolyline
 66
     1
 10
0.0
 20
0.0
 30
0.0
 70
   128
  0
VERTEX
  5
104
330
103
100
AcDbEntity
  8
0
 62
     0
100
AcDbVertex
100
AcDb2dVertex
 10
0.0
 20
0.9999999999999998
 30
0.0
  0
VERTEX
  5
105
330
103
100
AcDbEntity
  8
0
 62
     0
100
AcDbVertex
100
AcDb2dVertex
 10
0.0
 20
-0.9999999999999998
 30
0.0
  0
VERTEX
  5
107
330
103
100
AcDbEntity
  8
0
 62
     0
100
AcDbVertex
100
AcDb2dVertex
 10
-0.9999999999999998
 20
0.0
 30
0.0
  0
VERTEX
  5
108
330
103
100
AcDbEntity
  8
0
 62
     0
100
AcDbVertex
100
AcDb2dVertex
 10
0.0
 20
0.9999999999999998
 30
0.0
  0
SEQEND
  5
106
330
103
100
AcDbEntity
  8
0
 62
     0
  0
SOLID
  5
10A
330
100
100
AcDbEntity
  8
0
 62
     0
100
AcDbTrace
 10
0.0
 20
0.9999999999999998
 30
0.0
 11
0.0
 21
-0.9999999999999998
 31
0.0
 12
-0.9999999999999998
 22
0.0
 32
0.0
 13
0.0
 23
0.9999999999999998
 33
0.0
  0
ENDBLK
  5
102
330
100
100
AcDbEntity
  8
0
100
AcDbBlockEnd
  0
BLOCK
  5
10D
330
10C
100
AcDbEntity
  8
0
100
AcDbBlockBegin
  2
Filled-1
 70
     0
 10
0.0
 20
0.0
 30
0.0
  3
Filled-1
  1

  0
LINE
  5
10F
330
10C
100
AcDbEntity
  8
0
 62
     0
100
AcDbLine
 10
-0.9999999999999998
 20
0.0
 30
0.0
 11
0.0
 21
0.0
 31
0.0
  0
POLYLINE
  5
110
330
10C
100
AcDbEntity
  8
0
 62
     0
100
AcDb2dPolyline
 66
     1
 10
0.0
 20
0.0
 30
0.0
 70
   128
  0
VERTEX
  5
111
330
110
100
AcDbEntity
  8
0
 62
     0
100
AcDbVertex
100
AcDb2dVertex
 10
-0.9999999999999998
 20
-0.0994897959183674
 30
0.0
  0
VERTEX
  5
112
330
110
100
AcDbEntity
  8
0
 62
     0
100
AcDbVertex
100
AcDb2dVertex
 10
0.0
 20
0.0
 30
0.0
  0
VERTEX
  5
114
330
110
100
AcDbEntity
  8
0
 62
     0
100
AcDbVertex
100
AcDb2dVertex
 10
-0.9999999999999998
 20
0.0994897959183674
 30
0.0
  0
VERTEX
  5
115
330
110
100
AcDbEntity
  8
0
 62
     0
100
AcDbVertex
100
AcDb2dVertex
 10
-0.9999999999999998
 20
-0.0994897959183674
 30
0.0
  0
SEQEND
  5
113
330
110
100
AcDbEntity
  8
0
 62
     0
  0
SOLID
  5
116
330
10C
100
AcDbEntity
  8
0
 62
     0
100
AcDbTrace
 10
-0.9999999999999998
 20
-0.0994897959183674
 30
0.0
 11
0.0
 21
0.0
 31
0.0
 12
-0.9999999999999998
 22
0.0994897959183674
 32
0.0
 13
-0.9999999999999998
 23
-0.0994897959183674
 33
0.0
  0
LINE
  5
117
330
10C
100
AcDbEntity
  8
0
 62
     0
100
AcDbLine
 10
-0.9999999999999998
 20
-0.0994897959183674
 30
0.0
 11
0.0
 21
0.0
 31
0.0
  0
LINE
  5
118
330
10C
100
AcDbEntity
  8
0
 62
     0
100
AcDbLine
 10
0.0
 20
0.0
 30
0.0
 11
-0.9999999999999998
 21
0.0994897959183674
 31
0.0
  0
LINE
  5
119
330
10C
100
AcDbEntity
  8
0
 62
     0
100
AcDbLine
 10
-0.9999999999999998
 20
0.0994897959183674
 30
0.0
 11
-0.9999999999999998
 21
-0.0994897959183674
 31
0.0
  0
ENDBLK
  5
10E
330
10C
100
AcDbEntity
  8
0
100
AcDbBlockEnd
  0
BLOCK
  5
162
330
161
100
AcDbEntity
  8
0
100
AcDbBlockBegin
  2
*D4
 70
     1
 10
0.0
 20
0.0
 30
0.0
  3
*D4
  1

  0
LINE
  5
241
330
161
100
AcDbEntity
  8
Dimension (ANSI)
100
AcDbLine
 10
25.60299046640573
 20
30.02649245839127
 30
0.0
 11
25.60299046640573
 21
34.66742275877038
 31
0.0
  0
LINE
  5
242
330
161
100
AcDbEntity
  8
Dimension (ANSI)
100
AcDbLine
 10
11.40299046640572
 20
30.02649245839126
 30
0.0
 11
11.40299046640572
 21
34.66742275877038
 31
0.0
  0
LINE
  5
243
330
161
100
AcDbEntity
  8
Dimension (ANSI)
100
AcDbLine
 10
25.23845270854986
 20
34.20445979580743
 30
0.0
 11
19.68842566281444
 21
34.20445979580743
 31
0.0
  0
LINE
  5
244
330
161
100
AcDbEntity
  8
Dimension (ANSI)
100
AcDbLine
 10
11.76752822426159
 20
34.20445979580743
 30
0.0
 11
17.31755526999701
 21
34.20445979580743
 31
0.0
  0
SOLID
  5
245
330
161
100
AcDbEntity
  8
Dimension (ANSI)
100
AcDbTrace
 10
25.23845270854986
 20
34.26521608878341
 30
0.0
 11
25.23845270854986
 21
34.14370350283145
 31
0.0
 12
25.60299046640573
 22
34.20445979580743
 32
0.0
 13
25.60299046640573
 23
34.20445979580743
 33
0.0
  0
SOLID
  5
246
330
161
100
AcDbEntity
  8
Dimension (ANSI)
100
AcDbTrace
 10
11.76752822426159
 20
34.26521608878341
 30
0.0
 11
11.76752822426159
 21
34.14370350283145
 31
0.0
 12
11.40299046640572
 22
34.20445979580743
 32
0.0
 13
11.40299046640572
 23
34.20445979580743
 33
0.0
  0
MTEXT
  5
247
330
161
100
AcDbEntity
  8
Dimension (ANSI)
100
AcDbMText
 10
17.43420735515303
 20
34.42668202685997
 30
0.0
 40
0.4444444621050799
 41
0.0
 71
     1
 72
     1
  1
\A1;14.200
  7
Note Text (ANSI)
 73
     1
 44
1.0
1001
ACAD
1000
MTEXTBEGIN
1070
    73
1070
     1
1070
    44
1040
1.0
1070
    74
1070
     0
1000
MTEXTEND
  0
POINT
  5
248
330
161
100
AcDbEntity
  8
Defpoints
 62
     0
100
AcDbPoint
 10
25.60299046640573
 20
29.79501097690979
 30
0.0
  0
POINT
  5
249
330
161
100
AcDbEntity
  8
Defpoints
 62
     0
100
AcDbPoint
 10
11.40299046640572
 20
29.79501097690978
 30
0.0
  0
POINT
  5
24A
330
161
100
AcDbEntity
  8
Defpoints
 62
     0
100
AcDbPoint
 10
11.40299046640572
 20
34.20445979580743
 30
0.0
  0
ENDBLK
  5
163
330
161
100
AcDbEntity
  8
0
100
AcDbBlockEnd
  0
BLOCK
  5
24D
330
24C
100
AcDbEntity
  8
0
100
AcDbBlockBegin
  2
*D5
 70
     1
 10
0.0
 20
0.0
 30
0.0
  3
*D5
  1

  0
LINE
  5
32B
330
24C
100
AcDbEntity
  8
Dimension (ANSI)
100
AcDbLine
 10
11.67150898492424
 20
30.29501097690978
 30
0.0
 11
5.564764579122075
 21
30.29501097690979
 31
0.0
  0
LINE
  5
32C
330
24C
100
AcDbEntity
  8
Dimension (ANSI)
100
AcDbLine
 10
11.67150898492425
 20
12.09501097690978
 30
0.0
 11
5.564764579122071
 21
12.09501097690978
 31
0.0
  0
LINE
  5
32D
330
24C
100
AcDbEntity
  8
Dimension (ANSI)
100
AcDbLine
 10
6.027727542085037
 20
29.93047321905391
 30
0.0
 11
6.027727542085036
 21
22.6330336360097
 31
0.0
  0
LINE
  5
32E
330
24C
100
AcDbEntity
  8
Dimension (ANSI)
100
AcDbLine
 10
6.027727542085034
 20
12.45954873476566
 30
0.0
 11
6.027727542085036
 21
21.95528500359258
 31
0.0
  0
SOLID
  5
32F
330
24C
100
AcDbEntity
  8
Dimension (ANSI)
100
AcDbTrace
 10
5.966971249109058
 20
29.93047321905391
 30
0.0
 11
6.088483835061016
 21
29.93047321905391
 31
0.0
 12
6.027727542085038
 22
30.29501097690979
 32
0.0
 13
6.027727542085038
 23
30.29501097690979
 33
0.0
  0
SOLID
  5
330
330
24C
100
AcDbEntity
  8
Dimension (ANSI)
100
AcDbTrace
 10
5.966971249109055
 20
12.45954873476566
 30
0.0
 11
6.088483835061013
 21
12.45954873476566
 31
0.0
 12
6.027727542085034
 22
12.09501097690978
 32
0.0
 13
6.027727542085034
 23
12.09501097690978
 33
0.0
  0
MTEXT
  5
331
330
24C
100
AcDbEntity
  8
Dimension (ANSI)
100
AcDbMText
 10
4.958944430832341
 20
22.51638155085368
 30
0.0
 40
0.4444444621050799
 41
0.0
 71
     1
 72
     1
  1
\A1;18.200
  7
Note Text (ANSI)
 73
     1
 44
1.0
1001
ACAD
1000
MTEXTBEGIN
1070
    73
1070
     1
1070
    44
1040
1.0
1070
    74
1070
     0
1000
MTEXTEND
  0
POINT
  5
332
330
24C
100
AcDbEntity
  8
Defpoints
 62
     0
100
AcDbPoint
 10
11.90299046640572
 20
30.29501097690978
 30
0.0
  0
POINT
  5
333
330
24C
100
AcDbEntity
  8
Defpoints
 62
     0
100
AcDbPoint
 10
11.90299046640573
 20
12.09501097690978
 30
0.0
  0
POINT
  5
334
330
24C
100
AcDbEntity
  8
Defpoints
 62
     0
100
AcDbPoint
 10
6.027727542085034
 20
12.09501097690978
 30
0.0
  0
ENDBLK
  5
24E
330
24C
100
AcDbEntity
  8
0
100
AcDbBlockEnd
  0
BLOCK
  5
337
330
336
100
AcDbEntity
  8
0
100
AcDbBlockBegin
  2
*D6
 70
     1
 10
0.0
 20
0.0
 30
0.0
  3
*D6
  1

  0
LINE
  5
3E7
330
336
100
AcDbEntity
  8
Dimension (ANSI)
100
AcDbLine
 10
14.84430108253192
 20
7.603259709941182
 30
0.0
 11
14.31767778137015
 21
7.603259709941182
 31
0.0
  0
LINE
  5
3E8
330
336
100
AcDbEntity
  8
Dimension (ANSI)
100
AcDbLine
 10
14.31767778137015
 20
7.603259709941182
 30
0.0
 11
12.18793469918879
 21
12.06051912904769
 31
0.0
  0
MTEXT
  5
3E9
102
{ACAD_XDICTIONARY
360
C8B
102
}
330
336
100
AcDbEntity
  8
Dimension (ANSI)
100
AcDbMText
 10
14.96095316768795
 20
7.957757078524997
 30
0.0
 40
0.4444444621050799
 41
0.0
 71
     1
 72
     1
  1
\A1;\U+22050.500{\PTYP.(4PL.)}
  7
Note Text (ANSI)
 73
     1
 44
1.0
1001
ACAD
1000
MTEXTBEGIN
1070
    73
1070
     1
1070
    44
1040
1.0
1070
    74
1070
     0
1000
MTEXTEND
  0
SOLID
  5
3EA
330
336
100
AcDbEntity
  8
Dimension (ANSI)
100
AcDbTrace
 10
12.24275455155888
 20
12.08671284818616
 30
0.0
 11
12.1331148468187
 21
12.03432540990921
 31
0.0
 12
12.03077238435795
 22
12.38943824326819
 32
0.0
 13
12.03077238435795
 23
12.38943824326819
 33
0.0
  0
LINE
  5
3EB
330
336
100
AcDbEntity
  8
Dimension (ANSI)
100
AcDbLine
 10
11.58965713307239
 20
12.61501097690978
 30
0.0
 11
12.25632379973906
 21
12.61501097690978
 31
0.0
  0
LINE
  5
3EC
330
336
100
AcDbEntity
  8
Dimension (ANSI)
100
AcDbLine
 10
11.92299046640573
 20
12.28167764357645
 30
0.0
 11
11.92299046640573
 21
12.94834431024312
 31
0.0
  0
POINT
  5
3ED
330
336
100
AcDbEntity
  8
Defpoints
 62
     0
100
AcDbPoint
 10
12.03077238435795
 20
12.38943824326819
 30
0.0
  0
POINT
  5
3EE
330
336
100
AcDbEntity
  8
Defpoints
 62
     0
100
AcDbPoint
 10
11.8152085484535
 20
12.84058371055137
 30
0.0
  0
ENDBLK
  5
338
330
336
100
AcDbEntity
  8
0
100
AcDbBlockEnd
  0
BLOCK
  5
3F1
330
3F0
100
AcDbEntity
  8
0
100
AcDbBlockBegin
  2
*D7
 70
     1
 10
0.0
 20
0.0
 30
0.0
  3
*D7
  1

  0
LINE
  5
4A0
330
3F0
100
AcDbEntity
  8
Dimension (ANSI)
100
AcDbLine
 10
14.84430098190295
 20
10.24761237076337
 30
0.0
 11
14.31767768074119
 21
10.24761237076337
 31
0.0
  0
LINE
  5
4A1
330
3F0
100
AcDbEntity
  8
Dimension (ANSI)
100
AcDbLine
 10
14.31767768074119
 20
10.24761237076337
 30
0.0
 11
12.24024465347173
 21
12.95201016635169
 31
0.0
  0
MTEXT
  5
4A2
102
{ACAD_XDICTIONARY
360
C8D
102
}
330
3F0
100
AcDbEntity
  8
Dimension (ANSI)
100
AcDbMText
 10
14.96095306705897
 20
10.60210973934718
 30
0.0
 40
0.4444444621050799
 41
0.0
 71
     1
 72
     1
  1
\A1;\U+22050.313{\PTYP.(4PL.)}
  7
Note Text (ANSI)
 73
     1
 44
1.0
1001
ACAD
1000
MTEXTBEGIN
1070
    73
1070
     1
1070
    44
1040
1.0
1070
    74
1070
     0
1000
MTEXTEND
  0
SOLID
  5
4A3
330
3F0
100
AcDbEntity
  8
Dimension (ANSI)
100
AcDbTrace
 10
12.28842627423196
 20
12.98902176665619
 30
0.0
 11
12.19206303271149
 21
12.91499856604719
 31
0.0
 12
12.01817505164473
 22
13.24109989091309
 32
0.0
 13
12.01817505164473
 23
13.24109989091309
 33
0.0
  0
LINE
  5
4A4
330
3F0
100
AcDbEntity
  8
Dimension (ANSI)
100
AcDbLine
 10
11.58965713307239
 20
13.36501097690978
 30
0.0
 11
12.25632379973906
 21
13.36501097690978
 31
0.0
  0
LINE
  5
4A5
330
3F0
100
AcDbEntity
  8
Dimension (ANSI)
100
AcDbLine
 10
11.92299046640573
 20
13.03167764357645
 30
0.0
 11
11.92299046640573
 21
13.69834431024311
 31
0.0
  0
POINT
  5
4A6
330
3F0
100
AcDbEntity
  8
Defpoints
 62
     0
100
AcDbPoint
 10
12.01817505164473
 20
13.24109989091309
 30
0.0
  0
POINT
  5
4A7
330
3F0
100
AcDbEntity
  8
Defpoints
 62
     0
100
AcDbPoint
 10
11.82780588116673
 20
13.48892206290647
 30
0.0
  0
ENDBLK
  5
3F2
330
3F0
100
AcDbEntity
  8
0
100
AcDbBlockEnd
  0
BLOCK
  5
4AA
330
4A9
100
AcDbEntity
  8
0
100
AcDbBlockBegin
  2
*D8
 70
     1
 10
0.0
 20
0.0
 30
0.0
  3
*D8
  1

  0
LINE
  5
58F
330
4A9
100
AcDbEntity
  8
Dimension (ANSI)
100
AcDbLine
 10
38.71781677909683
 20
13.66116589841408
 30
0.0
 11
38.35327902124096
 21
13.66116589841408
 31
0.0
  0
LINE
  5
590
330
4A9
100
AcDbEntity
  8
Dimension (ANSI)
100
AcDbLine
 10
39.54064229480859
 20
13.66116589841408
 30
0.0
 11
40.03009728532265
 21
13.66116589841408
 31
0.0
  0
SOLID
  5
591
330
4A9
100
AcDbEntity
  8
Dimension (ANSI)
100
AcDbTrace
 10
38.71781677909683
 20
13.72192219139006
 30
0.0
 11
38.71781677909683
 21
13.60040960543811
 31
0.0
 12
39.08235453695271
 22
13.66116589841408
 32
0.0
 13
39.08235453695271
 23
13.66116589841408
 33
0.0
  0
SOLID
  5
592
330
4A9
100
AcDbEntity
  8
Dimension (ANSI)
100
AcDbTrace
 10
39.54064229480859
 20
13.72192219139006
 30
0.0
 11
39.54064229480859
 21
13.60040960543811
 31
0.0
 12
39.17610453695271
 22
13.66116589841408
 32
0.0
 13
39.17610453695271
 23
13.66116589841408
 33
0.0
  0
MTEXT
  5
593
330
4A9
100
AcDbEntity
  8
Dimension (ANSI)
100
AcDbMText
 10
40.14674937047867
 20
13.95746220648414
 30
0.0
 40
0.4444444621050799
 41
0.0
 71
     1
 72
     1
  1
\A1; 12 GA.\P304 SS
  7
Note Text (ANSI)
 73
     1
 44
1.0
1001
ACAD
1000
MTEXTBEGIN
1070
    73
1070
     1
1070
    44
1040
1.0
1070
    74
1070
     0
1000
MTEXTEND
  0
POINT
  5
594
330
4A9
100
AcDbEntity
  8
Defpoints
 62
     0
100
AcDbPoint
 10
39.08235453695271
 20
23.56880050110651
 30
0.0
  0
POINT
  5
595
330
4A9
100
AcDbEntity
  8
Defpoints
 62
     0
100
AcDbPoint
 10
39.17610453695271
 20
23.56880050110651
 30
0.0
  0
POINT
  5
596
330
4A9
100
AcDbEntity
  8
Defpoints
 62
     0
100
AcDbPoint
 10
39.17610453695271
 20
13.66116589841408
 30
0.0
  0
ENDBLK
  5
4AB
330
4A9
100
AcDbEntity
  8
0
100
AcDbBlockEnd
  0
BLOCK
  5
599
330
598
100
AcDbEntity
  8
0
100
AcDbBlockBegin
  2
*D9
 70
     1
 10
0.0
 20
0.0
 30
0.0
  3
*D9
  1

  0
LINE
  5
677
330
598
100
AcDbEntity
  8
Dimension (ANSI)
100
AcDbLine
 10
11.69150898492425
 20
29.77501097690978
 30
0.0
 11
7.576718019471574
 21
29.77501097690979
 31
0.0
  0
LINE
  5
678
330
598
100
AcDbEntity
  8
Dimension (ANSI)
100
AcDbLine
 10
11.69150898492425
 20
12.61501097690978
 30
0.0
 11
7.57671801947157
 21
12.61501097690978
 31
0.0
  0
LINE
  5
679
330
598
100
AcDbEntity
  8
Dimension (ANSI)
100
AcDbLine
 10
8.039680982434537
 20
29.4104732190539
 30
0.0
 11
8.039680982434536
 21
20.57451894179333
 31
0.0
  0
LINE
  5
67A
330
598
100
AcDbEntity
  8
Dimension (ANSI)
100
AcDbLine
 10
8.039680982434534
 20
12.97954873476566
 30
0.0
 11
8.039680982434534
 21
19.89677030937621
 31
0.0
  0
SOLID
  5
67B
330
598
100
AcDbEntity
  8
Dimension (ANSI)
100
AcDbTrace
 10
7.978924689458557
 20
29.41047321905391
 30
0.0
 11
8.100437275410516
 21
29.4104732190539
 31
0.0
 12
8.039680982434537
 22
29.77501097690978
 32
0.0
 13
8.039680982434537
 23
29.77501097690978
 33
0.0
  0
SOLID
  5
67C
330
598
100
AcDbEntity
  8
Dimension (ANSI)
100
AcDbTrace
 10
7.978924689458554
 20
12.97954873476566
 30
0.0
 11
8.100437275410513
 21
12.97954873476566
 31
0.0
 12
8.039680982434534
 22
12.61501097690978
 32
0.0
 13
8.039680982434534
 23
12.61501097690978
 33
0.0
  0
MTEXT
  5
67D
330
598
100
AcDbEntity
  8
Dimension (ANSI)
100
AcDbMText
 10
6.97089787118184
 20
20.45786685663732
 30
0.0
 40
0.4444444621050799
 41
0.0
 71
     1
 72
     1
  1
\A1;17.160
  7
Note Text (ANSI)
 73
     1
 44
1.0
1001
ACAD
1000
MTEXTBEGIN
1070
    73
1070
     1
1070
    44
1040
1.0
1070
    74
1070
     0
1000
MTEXTEND
  0
POINT
  5
67E
330
598
100
AcDbEntity
  8
Defpoints
 62
     0
100
AcDbPoint
 10
11.92299046640573
 20
29.77501097690978
 30
0.0
  0
POINT
  5
67F
330
598
100
AcDbEntity
  8
Defpoints
 62
     0
100
AcDbPoint
 10
11.92299046640573
 20
12.61501097690978
 30
0.0
  0
POINT
  5
680
330
598
100
AcDbEntity
  8
Defpoints
 62
     0
100
AcDbPoint
 10
8.039680982434534
 20
12.61501097690978
 30
0.0
  0
ENDBLK
  5
59A
330
598
100
AcDbEntity
  8
0
100
AcDbBlockEnd
  0
BLOCK
  5
683
330
682
100
AcDbEntity
  8
0
100
AcDbBlockBegin
  2
*D10
 70
     1
 10
0.0
 20
0.0
 30
0.0
  3
*D10
  1

  0
LINE
  5
773
330
682
100
AcDbEntity
  8
Dimension (ANSI)
100
AcDbLine
 10
11.69150898492425
 20
13.36501097690978
 30
0.0
 11
7.959038620520347
 21
13.36501097690978
 31
0.0
  0
LINE
  5
774
330
682
100
AcDbEntity
  8
Dimension (ANSI)
100
AcDbLine
 10
11.69150898492425
 20
12.61501097690978
 30
0.0
 11
7.959038620520347
 21
12.61501097690978
 31
0.0
  0
LINE
  5
775
330
682
100
AcDbEntity
  8
Dimension (ANSI)
100
AcDbLine
 10
8.422001583483311
 20
12.25047321905391
 30
0.0
 11
8.422001583483309
 21
11.88593546119803
 31
0.0
  0
LINE
  5
776
330
682
100
AcDbEntity
  8
Dimension (ANSI)
100
AcDbLine
 10
8.422001583483311
 20
13.72954873476565
 30
0.0
 11
8.422001583483311
 21
14.42082555807248
 31
0.0
  0
LINE
  5
777
330
682
100
AcDbEntity
  8
Dimension (ANSI)
100
AcDbLine
 10
8.422001583483311
 20
14.42082555807248
 30
0.0
 11
8.786539341339185
 21
14.42082555807248
 31
0.0
  0
SOLID
  5
778
330
682
100
AcDbEntity
  8
Dimension (ANSI)
100
AcDbTrace
 10
8.361245290507332
 20
12.25047321905391
 30
0.0
 11
8.48275787645929
 21
12.25047321905391
 31
0.0
 12
8.422001583483311
 22
12.61501097690978
 32
0.0
 13
8.422001583483311
 23
12.61501097690978
 33
0.0
  0
SOLID
  5
779
330
682
100
AcDbEntity
  8
Dimension (ANSI)
100
AcDbTrace
 10
8.361245290507332
 20
13.72954873476565
 30
0.0
 11
8.48275787645929
 21
13.72954873476565
 31
0.0
 12
8.422001583483311
 22
13.36501097690978
 32
0.0
 13
8.422001583483311
 23
13.36501097690978
 33
0.0
  0
MTEXT
  5
77A
330
682
100
AcDbEntity
  8
Dimension (ANSI)
100
AcDbMText
 10
8.903191426495205
 20
14.64304778912502
 30
0.0
 40
0.4444444621050799
 41
0.0
 71
     1
 72
     1
  1
\A1;0.750
  7
Note Text (ANSI)
 73
     1
 44
1.0
1001
ACAD
1000
MTEXTBEGIN
1070
    73
1070
     1
1070
    44
1040
1.0
1070
    74
1070
     0
1000
MTEXTEND
  0
POINT
  5
77B
330
682
100
AcDbEntity
  8
Defpoints
 62
     0
100
AcDbPoint
 10
11.92299046640573
 20
13.36501097690978
 30
0.0
  0
POINT
  5
77C
330
682
100
AcDbEntity
  8
Defpoints
 62
     0
100
AcDbPoint
 10
11.92299046640573
 20
12.61501097690978
 30
0.0
  0
POINT
  5
77D
330
682
100
AcDbEntity
  8
Defpoints
 62
     0
100
AcDbPoint
 10
8.422001583483311
 20
12.61501097690978
 30
0.0
  0
ENDBLK
  5
684
330
682
100
AcDbEntity
  8
0
100
AcDbBlockEnd
  0
BLOCK
  5
780
330
77F
100
AcDbEntity
  8
0
100
AcDbBlockBegin
  2
*D11
 70
     1
 10
0.0
 20
0.0
 30
0.0
  3
*D11
  1

  0
LINE
  5
85E
330
77F
100
AcDbEntity
  8
Dimension (ANSI)
100
AcDbLine
 10
25.08299046640573
 20
30.00649245839126
 30
0.0
 11
25.08299046640573
 21
33.10533128424644
 31
0.0
  0
LINE
  5
85F
330
77F
100
AcDbEntity
  8
Dimension (ANSI)
100
AcDbLine
 10
11.92299046640573
 20
30.00649245839126
 30
0.0
 11
11.92299046640573
 21
33.10533128424644
 31
0.0
  0
LINE
  5
860
330
77F
100
AcDbEntity
  8
Dimension (ANSI)
100
AcDbLine
 10
24.71845270854986
 20
32.64236832128348
 30
0.0
 11
19.68842566281444
 21
32.64236832128348
 31
0.0
  0
LINE
  5
861
330
77F
100
AcDbEntity
  8
Dimension (ANSI)
100
AcDbLine
 10
12.2875282242616
 20
32.64236832128348
 30
0.0
 11
17.31755526999701
 21
32.64236832128348
 31
0.0
  0
SOLID
  5
862
330
77F
100
AcDbEntity
  8
Dimension (ANSI)
100
AcDbTrace
 10
24.71845270854986
 20
32.70312461425946
 30
0.0
 11
24.71845270854986
 21
32.5816120283075
 31
0.0
 12
25.08299046640573
 22
32.64236832128348
 32
0.0
 13
25.08299046640573
 23
32.64236832128348
 33
0.0
  0
SOLID
  5
863
330
77F
100
AcDbEntity
  8
Dimension (ANSI)
100
AcDbTrace
 10
12.2875282242616
 20
32.70312461425946
 30
0.0
 11
12.2875282242616
 21
32.5816120283075
 31
0.0
 12
11.92299046640573
 22
32.64236832128348
 32
0.0
 13
11.92299046640573
 23
32.64236832128348
 33
0.0
  0
MTEXT
  5
864
330
77F
100
AcDbEntity
  8
Dimension (ANSI)
100
AcDbMText
 10
17.43420735515304
 20
32.86459055233602
 30
0.0
 40
0.4444444621050799
 41
0.0
 71
     1
 72
     1
  1
\A1;13.160
  7
Note Text (ANSI)
 73
     1
 44
1.0
1001
ACAD
1000
MTEXTBEGIN
1070
    73
1070
     1
1070
    44
1040
1.0
1070
    74
1070
     0
1000
MTEXTEND
  0
POINT
  5
865
330
77F
100
AcDbEntity
  8
Defpoints
 62
     0
100
AcDbPoint
 10
25.08299046640573
 20
29.77501097690978
 30
0.0
  0
POINT
  5
866
330
77F
100
AcDbEntity
  8
Defpoints
 62
     0
100
AcDbPoint
 10
11.92299046640573
 20
29.77501097690978
 30
0.0
  0
POINT
  5
867
330
77F
100
AcDbEntity
  8
Defpoints
 62
     0
100
AcDbPoint
 10
11.92299046640573
 20
32.64236832128348
 30
0.0
  0
ENDBLK
  5
781
330
77F
100
AcDbEntity
  8
0
100
AcDbBlockEnd
  0
BLOCK
  5
86A
330
869
100
AcDbEntity
  8
0
100
AcDbBlockBegin
  2
*D12
 70
     1
 10
0.0
 20
0.0
 30
0.0
  3
*D12
  1

  0
LINE
  5
95D
330
869
100
AcDbEntity
  8
Dimension (ANSI)
100
AcDbLine
 10
25.83447194788721
 20
12.59501097690978
 30
0.0
 11
26.78464907811339
 21
12.59501097690978
 31
0.0
  0
LINE
  5
95E
330
869
100
AcDbEntity
  8
Dimension (ANSI)
100
AcDbLine
 10
25.33447194788721
 20
12.09501097690978
 30
0.0
 11
26.78464907811339
 21
12.09501097690978
 31
0.0
  0
LINE
  5
95F
330
869
100
AcDbEntity
  8
Dimension (ANSI)
100
AcDbLine
 10
26.32168611515043
 20
11.73047321905391
 30
0.0
 11
26.32168611515043
 21
11.36593546119804
 31
0.0
  0
LINE
  5
960
330
869
100
AcDbEntity
  8
Dimension (ANSI)
100
AcDbLine
 10
26.32168611515043
 20
12.95954873476566
 30
0.0
 11
26.32168611515043
 21
13.65082555807248
 31
0.0
  0
LINE
  5
961
330
869
100
AcDbEntity
  8
Dimension (ANSI)
100
AcDbLine
 10
26.32168611515043
 20
13.65082555807248
 30
0.0
 11
26.68622387300631
 21
13.65082555807248
 31
0.0
  0
SOLID
  5
962
330
869
100
AcDbEntity
  8
Dimension (ANSI)
100
AcDbTrace
 10
26.26092982217445
 20
11.73047321905391
 30
0.0
 11
26.38244240812641
 21
11.73047321905391
 31
0.0
 12
26.32168611515043
 22
12.09501097690978
 32
0.0
 13
26.32168611515043
 23
12.09501097690978
 33
0.0
  0
SOLID
  5
963
330
869
100
AcDbEntity
  8
Dimension (ANSI)
100
AcDbTrace
 10
26.26092982217445
 20
12.95954873476566
 30
0.0
 11
26.38244240812641
 21
12.95954873476566
 31
0.0
 12
26.32168611515043
 22
12.59501097690978
 32
0.0
 13
26.32168611515043
 23
12.59501097690978
 33
0.0
  0
MTEXT
  5
964
330
869
100
AcDbEntity
  8
Dimension (ANSI)
100
AcDbMText
 10
26.80287595816232
 20
13.87304778912503
 30
0.0
 40
0.4444444621050799
 41
0.0
 71
     1
 72
     1
  1
\A1;0.500
  7
Note Text (ANSI)
 73
     1
 44
1.0
1001
ACAD
1000
MTEXTBEGIN
1070
    73
1070
     1
1070
    44
1040
1.0
1070
    74
1070
     0
1000
MTEXTEND
  0
POINT
  5
965
330
869
100
AcDbEntity
  8
Defpoints
 62
     0
100
AcDbPoint
 10
25.60299046640573
 20
12.59501097690978
 30
0.0
  0
POINT
  5
966
330
869
100
AcDbEntity
  8
Defpoints
 62
     0
100
AcDbPoint
 10
25.10299046640573
 20
12.09501097690978
 30
0.0
  0
POINT
  5
967
330
869
100
AcDbEntity
  8
Defpoints
 62
     0
100
AcDbPoint
 10
26.32168611515043
 20
12.09501097690978
 30
0.0
  0
ENDBLK
  5
86B
330
869
100
AcDbEntity
  8
0
100
AcDbBlockEnd
  0
BLOCK
  5
96A
330
969
100
AcDbEntity
  8
0
100
AcDbBlockBegin
  2
*D13
 70
     1
 10
0.0
 20
0.0
 30
0.0
  3
*D13
  1

  0
LINE
  5
A48
330
969
100
AcDbEntity
  8
Dimension (ANSI)
100
AcDbLine
 10
25.60299046640573
 20
12.3635294954283
 30
0.0
 11
25.60299046640573
 21
9.778207762149676
 31
0.0
  0
LINE
  5
A49
330
969
100
AcDbEntity
  8
Dimension (ANSI)
100
AcDbLine
 10
25.10299046640573
 20
11.8635294954283
 30
0.0
 11
25.10299046640573
 21
9.778207762149676
 31
0.0
  0
LINE
  5
A4A
330
969
100
AcDbEntity
  8
Dimension (ANSI)
100
AcDbLine
 10
25.9675282242616
 20
10.24117072511264
 30
0.0
 11
26.33206598211748
 21
10.24117072511264
 31
0.0
  0
LINE
  5
A4B
330
969
100
AcDbEntity
  8
Dimension (ANSI)
100
AcDbLine
 10
24.73845270854985
 20
10.24117072511264
 30
0.0
 11
23.93104483776979
 21
10.24117072511264
 31
0.0
  0
SOLID
  5
A4C
330
969
100
AcDbEntity
  8
Dimension (ANSI)
100
AcDbTrace
 10
25.9675282242616
 20
10.30192701808862
 30
0.0
 11
25.9675282242616
 21
10.18041443213666
 31
0.0
 12
25.60299046640573
 22
10.24117072511264
 32
0.0
 13
25.60299046640573
 23
10.24117072511264
 33
0.0
  0
SOLID
  5
A4D
330
969
100
AcDbEntity
  8
Dimension (ANSI)
100
AcDbTrace
 10
24.73845270854985
 20
10.30192701808862
 30
0.0
 11
24.73845270854985
 21
10.18041443213666
 31
0.0
 12
25.10299046640573
 22
10.24117072511264
 32
0.0
 13
25.10299046640573
 23
10.24117072511264
 33
0.0
  0
MTEXT
  5
A4E
330
969
100
AcDbEntity
  8
Dimension (ANSI)
100
AcDbMText
 10
22.03661490419345
 20
10.46339295616518
 30
0.0
 40
0.4444444621050799
 41
0.0
 71
     1
 72
     1
  1
\A1;0.500
  7
Note Text (ANSI)
 73
     1
 44
1.0
1001
ACAD
1000
MTEXTBEGIN
1070
    73
1070
     1
1070
    44
1040
1.0
1070
    74
1070
     0
1000
MTEXTEND
  0
POINT
  5
A4F
330
969
100
AcDbEntity
  8
Defpoints
 62
     0
100
AcDbPoint
 10
25.60299046640573
 20
12.59501097690978
 30
0.0
  0
POINT
  5
A50
330
969
100
AcDbEntity
  8
Defpoints
 62
     0
100
AcDbPoint
 10
25.10299046640573
 20
12.09501097690978
 30
0.0
  0
POINT
  5
A51
330
969
100
AcDbEntity
  8
Defpoints
 62
     0
100
AcDbPoint
 10
25.10299046640573
 20
10.24117072511264
 30
0.0
  0
ENDBLK
  5
96B
330
969
100
AcDbEntity
  8
0
100
AcDbBlockEnd
  0
BLOCK
  5
A54
330
A53
100
AcDbEntity
  8
0
100
AcDbBlockBegin
  2
*D14
 70
     1
 10
0.0
 20
0.0
 30
0.0
  3
*D14
  1

  0
LINE
  5
B32
330
A53
100
AcDbEntity
  8
Dimension (ANSI)
100
AcDbLine
 10
25.08299046640573
 20
30.00649245839126
 30
0.0
 11
25.08299046640573
 21
31.81277708947904
 31
0.0
  0
LINE
  5
B33
330
A53
100
AcDbEntity
  8
Dimension (ANSI)
100
AcDbLine
 10
25.60299046640573
 20
30.02649245839127
 30
0.0
 11
25.60299046640573
 21
31.81277708947904
 31
0.0
  0
LINE
  5
B34
330
A53
100
AcDbEntity
  8
Dimension (ANSI)
100
AcDbLine
 10
25.9675282242616
 20
31.34981412651608
 30
0.0
 11
26.33206598211748
 21
31.34981412651608
 31
0.0
  0
LINE
  5
B35
330
A53
100
AcDbEntity
  8
Dimension (ANSI)
100
AcDbLine
 10
24.71845270854986
 20
31.34981412651608
 30
0.0
 11
24.13775327174951
 21
31.34981412651608
 31
0.0
  0
SOLID
  5
B36
330
A53
100
AcDbEntity
  8
Dimension (ANSI)
100
AcDbTrace
 10
25.9675282242616
 20
31.41057041949206
 30
0.0
 11
25.9675282242616
 21
31.2890578335401
 31
0.0
 12
25.60299046640573
 22
31.34981412651608
 32
0.0
 13
25.60299046640573
 23
31.34981412651608
 33
0.0
  0
SOLID
  5
B37
330
A53
100
AcDbEntity
  8
Dimension (ANSI)
100
AcDbTrace
 10
24.71845270854986
 20
31.41057041949206
 30
0.0
 11
24.71845270854986
 21
31.2890578335401
 31
0.0
 12
25.08299046640573
 22
31.34981412651608
 32
0.0
 13
25.08299046640573
 23
31.34981412651608
 33
0.0
  0
MTEXT
  5
B38
330
A53
100
AcDbEntity
  8
Dimension (ANSI)
100
AcDbMText
 10
22.24332333817317
 20
31.57203635756862
 30
0.0
 40
0.4444444621050799
 41
0.0
 71
     1
 72
     1
  1
\A1;0.520
  7
Note Text (ANSI)
 73
     1
 44
1.0
1001
ACAD
1000
MTEXTBEGIN
1070
    73
1070
     1
1070
    44
1040
1.0
1070
    74
1070
     0
1000
MTEXTEND
  0
POINT
  5
B39
330
A53
100
AcDbEntity
  8
Defpoints
 62
     0
100
AcDbPoint
 10
25.08299046640573
 20
29.77501097690978
 30
0.0
  0
POINT
  5
B3A
330
A53
100
AcDbEntity
  8
Defpoints
 62
     0
100
AcDbPoint
 10
25.60299046640573
 20
29.79501097690979
 30
0.0
  0
POINT
  5
B3B
330
A53
100
AcDbEntity
  8
Defpoints
 62
     0
100
AcDbPoint
 10
25.60299046640573
 20
31.34981412651608
 30
0.0
  0
ENDBLK
  5
A55
330
A53
100
AcDbEntity
  8
0
100
AcDbBlockEnd
  0
BLOCK
  5
B3E
330
B3D
100
AcDbEntity
  8
0
100
AcDbBlockBegin
  2
*D15
 70
     1
 10
0.0
 20
0.0
 30
0.0
  3
*D15
  1

  0
LINE
  5
C31
330
B3D
100
AcDbEntity
  8
Dimension (ANSI)
100
AcDbLine
 10
25.31447194788722
 20
29.77501097690978
 30
0.0
 11
28.89576085795401
 21
29.77501097690978
 31
0.0
  0
LINE
  5
C32
330
B3D
100
AcDbEntity
  8
Dimension (ANSI)
100
AcDbLine
 10
25.33447194788721
 20
30.29501097690979
 30
0.0
 11
28.89576085795401
 21
30.29501097690979
 31
0.0
  0
LINE
  5
C33
330
B3D
100
AcDbEntity
  8
Dimension (ANSI)
100
AcDbLine
 10
28.43279789499105
 20
30.65954873476566
 30
0.0
 11
28.43279789499105
 21
31.02408649262154
 31
0.0
  0
LINE
  5
C34
330
B3D
100
AcDbEntity
  8
Dimension (ANSI)
100
AcDbLine
 10
28.43279789499105
 20
29.4104732190539
 30
0.0
 11
28.43279789499105
 21
28.72322437311251
 31
0.0
  0
LINE
  5
C35
330
B3D
100
AcDbEntity
  8
Dimension (ANSI)
100
AcDbLine
 10
28.43279789499105
 20
28.72322437311251
 30
0.0
 11
28.06826013713518
 21
28.72322437311251
 31
0.0
  0
SOLID
  5
C36
330
B3D
100
AcDbEntity
  8
Dimension (ANSI)
100
AcDbTrace
 10
28.37204160201507
 20
30.65954873476566
 30
0.0
 11
28.49355418796703
 21
30.65954873476566
 31
0.0
 12
28.43279789499105
 22
30.29501097690979
 32
0.0
 13
28.43279789499105
 23
30.29501097690979
 33
0.0
  0
SOLID
  5
C37
330
B3D
100
AcDbEntity
  8
Dimension (ANSI)
100
AcDbTrace
 10
28.37204160201507
 20
29.4104732190539
 30
0.0
 11
28.49355418796703
 21
29.4104732190539
 31
0.0
 12
28.43279789499105
 22
29.77501097690978
 32
0.0
 13
28.43279789499105
 23
29.77501097690978
 33
0.0
  0
MTEXT
  5
C38
330
B3D
100
AcDbEntity
  8
Dimension (ANSI)
100
AcDbMText
 10
26.17383020355882
 20
28.94544660416505
 30
0.0
 40
0.4444444621050799
 41
0.0
 71
     1
 72
     1
  1
\A1;0.520
  7
Note Text (ANSI)
 73
     1
 44
1.0
1001
ACAD
1000
MTEXTBEGIN
1070
    73
1070
     1
1070
    44
1040
1.0
1070
    74
1070
     0
1000
MTEXTEND
  0
POINT
  5
C39
330
B3D
100
AcDbEntity
  8
Defpoints
 62
     0
100
AcDbPoint
 10
25.08299046640573
 20
29.77501097690978
 30
0.0
  0
POINT
  5
C3A
330
B3D
100
AcDbEntity
  8
Defpoints
 62
     0
100
AcDbPoint
 10
25.10299046640573
 20
30.29501097690979
 30
0.0
  0
POINT
  5
C3B
330
B3D
100
AcDbEntity
  8
Defpoints
 62
     0
100
AcDbPoint
 10
28.43279789499105
 20
30.29501097690979
 30
0.0
  0
ENDBLK
  5
B3F
330
B3D
100
AcDbEntity
  8
0
100
AcDbBlockEnd
  0
ENDSEC
  0
SECTION
  2
ENTITIES
  0
CIRCLE
  5
11B
330
6C
100
AcDbEntity
  8
Visible (ANSI)
100
AcDbCircle
 10
25.08299046640573
 20
29.77501097690978
 30
0.0
 40
0.25
  0
CIRCLE
  5
11C
330
6C
100
AcDbEntity
  8
Visible (ANSI)
100
AcDbCircle
 10
11.92299046640573
 20
29.77501097690978
 30
0.0
 40
0.25
  0
CIRCLE
  5
11D
330
6C
100
AcDbEntity
  8
Visible (ANSI)
100
AcDbCircle
 10
11.92299046640573
 20
12.61501097690978
 30
0.0
 40
0.25
  0
CIRCLE
  5
11E
330
6C
100
AcDbEntity
  8
Visible (ANSI)
100
AcDbCircle
 10
25.08299046640573
 20
12.61501097690978
 30
0.0
 40
0.25
  0
CIRCLE
  5
11F
330
6C
100
AcDbEntity
  8
Visible (ANSI)
100
AcDbCircle
 10
25.08299046640573
 20
29.02501097690978
 30
0.0
 40
0.15625
  0
CIRCLE
  5
120
330
6C
100
AcDbEntity
  8
Visible (ANSI)
100
AcDbCircle
 10
11.92299046640573
 20
29.02501097690978
 30
0.0
 40
0.15625
  0
CIRCLE
  5
121
330
6C
100
AcDbEntity
  8
Visible (ANSI)
100
AcDbCircle
 10
11.92299046640572
 20
13.36501097690978
 30
0.0
 40
0.15625
  0
CIRCLE
  5
122
330
6C
100
AcDbEntity
  8
Visible (ANSI)
100
AcDbCircle
 10
25.08299046640573
 20
13.36501097690978
 30
0.0
 40
0.15625
  0
LINE
  5
123
330
6C
100
AcDbEntity
  8
Visible (ANSI)
100
AcDbLine
 10
11.40299046640572
 20
29.79501097690978
 30
0.0
 11
11.90299046640572
 21
30.29501097690979
 31
0.0
  0
LINE
  5
124
330
6C
100
AcDbEntity
  8
Visible (ANSI)
100
AcDbLine
 10
11.40299046640572
 20
12.59501097690978
 30
0.0
 11
11.40299046640572
 21
29.79501097690978
 31
0.0
  0
LINE
  5
125
330
6C
100
AcDbEntity
  8
Visible (ANSI)
100
AcDbLine
 10
25.10299046640573
 20
12.09501097690978
 30
0.0
 11
11.90299046640573
 21
12.09501097690978
 31
0.0
  0
LINE
  5
126
330
6C
100
AcDbEntity
  8
Visible (ANSI)
100
AcDbLine
 10
25.60299046640573
 20
29.79501097690979
 30
0.0
 11
25.60299046640573
 21
12.59501097690978
 31
0.0
  0
LINE
  5
127
330
6C
100
AcDbEntity
  8
Visible (ANSI)
100
AcDbLine
 10
11.90299046640572
 20
30.29501097690979
 30
0.0
 11
25.10299046640573
 21
30.29501097690979
 31
0.0
  0
LINE
  5
128
330
6C
100
AcDbEntity
  8
Visible (ANSI)
100
AcDbLine
 10
11.90299046640573
 20
12.09501097690978
 30
0.0
 11
11.40299046640572
 21
12.59501097690978
 31
0.0
  0
LINE
  5
129
330
6C
100
AcDbEntity
  8
Visible (ANSI)
100
AcDbLine
 10
25.60299046640573
 20
12.59501097690978
 30
0.0
 11
25.10299046640573
 21
12.09501097690978
 31
0.0
  0
LINE
  5
12A
330
6C
100
AcDbEntity
  8
Visible (ANSI)
100
AcDbLine
 10
25.10299046640573
 20
30.29501097690979
 30
0.0
 11
25.60299046640573
 21
29.79501097690979
 31
0.0
  0
LINE
  5
12B
330
6C
100
AcDbEntity
  8
Visible (ANSI)
100
AcDbLine
 10
39.17610453695271
 20
29.79501097690979
 30
0.0
 11
39.17610453695257
 21
30.29501097690979
 31
0.0
  0
LINE
  5
12C
330
6C
100
AcDbEntity
  8
Visible (ANSI)
100
AcDbLine
 10
39.08235453695271
 20
29.79501097690979
 30
0.0
 11
39.17610453695271
 21
29.79501097690979
 31
0.0
  0
LINE
  5
12D
330
6C
100
AcDbEntity
  8
Visible (ANSI)
100
AcDbLine
 10
39.08235453695257
 20
30.29501097690979
 30
0.0
 11
39.08235453695271
 21
29.79501097690979
 31
0.0
  0
LINE
  5
12E
330
6C
100
AcDbEntity
  8
Visible (ANSI)
100
AcDbLine
 10
39.17610453695257
 20
30.29501097690979
 30
0.0
 11
39.08235453695257
 21
30.29501097690979
 31
0.0
  0
LINE
  5
12F
330
6C
100
AcDbEntity
  8
Visible (ANSI)
100
AcDbLine
 10
39.17610453695271
 20
12.59501097690978
 30
0.0
 11
39.17610453695271
 21
29.79501097690979
 31
0.0
  0
LINE
  5
130
330
6C
100
AcDbEntity
  8
Visible (ANSI)
100
AcDbLine
 10
39.08235453695271
 20
29.79501097690979
 30
0.0
 11
39.08235453695271
 21
12.59501097690978
 31
0.0
  0
LINE
  5
131
330
6C
100
AcDbEntity
  8
Visible (ANSI)
100
AcDbLine
 10
39.17610453695257
 20
12.09501097690978
 30
0.0
 11
39.17610453695271
 21
12.59501097690978
 31
0.0
  0
LINE
  5
132
330
6C
100
AcDbEntity
  8
Visible (ANSI)
100
AcDbLine
 10
39.08235453695257
 20
12.09501097690978
 30
0.0
 11
39.17610453695257
 21
12.09501097690978
 31
0.0
  0
LINE
  5
133
330
6C
100
AcDbEntity
  8
Visible (ANSI)
100
AcDbLine
 10
39.08235453695271
 20
12.59501097690978
 30
0.0
 11
39.08235453695257
 21
12.09501097690978
 31
0.0
  0
LINE
  5
134
330
6C
100
AcDbEntity
  8
Visible (ANSI)
100
AcDbLine
 10
39.17610453695271
 20
12.59501097690978
 30
0.0
 11
39.08235453695271
 21
12.59501097690978
 31
0.0
  0
LINE
  5
135
330
6C
100
AcDbEntity
  8
Hidden (ANSI)
 48
0.0481126345694065
100
AcDbLine
 10
39.08235453695256
 20
30.02501097690978
 30
0.0
 11
39.17610453695256
 21
30.02501097690978
 31
0.0
  0
LINE
  5
136
330
6C
100
AcDbEntity
  8
Hidden (ANSI)
 48
0.0481126345694065
100
AcDbLine
 10
39.08235453695256
 20
29.52501097690979
 30
0.0
 11
39.17610453695256
 21
29.52501097690979
 31
0.0
  0
LINE
  5
137
330
6C
100
AcDbEntity
  8
Hidden (ANSI)
 48
0.0481126345694065
100
AcDbLine
 10
39.08235453695256
 20
12.86501097690978
 30
0.0
 11
39.17610453695256
 21
12.86501097690978
 31
0.0
  0
LINE
  5
138
330
6C
100
AcDbEntity
  8
Hidden (ANSI)
 48
0.0481126345694065
100
AcDbLine
 10
39.08235453695256
 20
12.36501097690978
 30
0.0
 11
39.17610453695256
 21
12.36501097690978
 31
0.0
  0
LINE
  5
139
330
6C
100
AcDbEntity
  8
Hidden (ANSI)
 48
0.0481126345694065
100
AcDbLine
 10
39.08235453695256
 20
29.18126097690978
 30
0.0
 11
39.17610453695256
 21
29.18126097690978
 31
0.0
  0
LINE
  5
13A
330
6C
100
AcDbEntity
  8
Hidden (ANSI)
 48
0.0481126345694065
100
AcDbLine
 10
39.08235453695256
 20
28.86876097690979
 30
0.0
 11
39.17610453695256
 21
28.86876097690979
 31
0.0
  0
LINE
  5
13B
330
6C
100
AcDbEntity
  8
Hidden (ANSI)
 48
0.0481126345694065
100
AcDbLine
 10
39.08235453695256
 20
13.52126097690978
 30
0.0
 11
39.17610453695256
 21
13.52126097690978
 31
0.0
  0
LINE
  5
13C
330
6C
100
AcDbEntity
  8
Hidden (ANSI)
 48
0.0481126345694065
100
AcDbLine
 10
39.08235453695256
 20
13.20876097690978
 30
0.0
 11
39.17610453695256
 21
13.20876097690978
 31
0.0
  0
ELLIPSE
  5
13D
330
6C
100
AcDbEntity
  8
Visible (ANSI)
100
AcDbEllipse
 10
58.53068613995429
 20
31.0742894859783
 30
0.0
 11
-0.1155167156445385
 21
0.2005980176261971
 31
0.0
210
0.0
220
0.0
230
0.9999999999999996
 40
0.5780931159158115
 41
0.2678448778125397
 42
2.873747775777251
  0
ELLIPSE
  5
13E
330
6C
100
AcDbEntity
  8
Visible (ANSI)
100
AcDbEllipse
 10
58.4693053429763
 20
31.03894263582271
 30
0.0
 11
-0.1155167156445387
 21
0.2005980176261974
 31
0.0
210
0.0
220
0.0
230
0.9999999999999998
 40
0.5780931159158114
 41
0.0
 42
6.283185307179586
  0
ELLIPSE
  5
13F
330
6C
100
AcDbEntity
  8
Visible (ANSI)
100
AcDbEllipse
 10
49.91445906549468
 20
36.03604466515083
 30
0.0
 11
-0.1155167156445391
 21
0.2005980176261982
 31
0.0
210
0.0
220
0.0
230
0.9999999999999998
 40
0.5780931159158115
 41
0.2678448778125404
 42
2.873747775777251
  0
ELLIPSE
  5
140
330
6C
100
AcDbEntity
  8
Visible (ANSI)
100
AcDbEllipse
 10
49.8530782685167
 20
36.00069781499525
 30
0.0
 11
-0.1155167156445387
 21
0.2005980176261974
 31
0.0
210
0.0
220
0.0
230
0.9999999999999998
 40
0.5780931159158114
 41
0.0
 42
6.283185307179586
  0
ELLIPSE
  5
141
330
6C
100
AcDbEntity
  8
Visible (ANSI)
100
AcDbEllipse
 10
49.91445906549467
 20
23.04612923709718
 30
0.0
 11
-0.1155167156445387
 21
0.2005980176261975
 31
0.0
210
0.0
220
0.0
230
0.9999999999999998
 40
0.5780931159158115
 41
0.2678448778125286
 42
2.873747775777244
  0
ELLIPSE
  5
142
330
6C
100
AcDbEntity
  8
Visible (ANSI)
100
AcDbEllipse
 10
49.85307826851667
 20
23.01078238694159
 30
0.0
 11
-0.1155167156445387
 21
0.2005980176261974
 31
0.0
210
0.0
220
0.0
230
0.9999999999999998
 40
0.5780931159158114
 41
0.0
 42
6.283185307179586
  0
ELLIPSE
  5
143
330
6C
100
AcDbEntity
  8
Visible (ANSI)
100
AcDbEllipse
 10
58.53068613995426
 20
18.08437405792464
 30
0.0
 11
-0.1155167156445386
 21
0.2005980176261972
 31
0.0
210
0.0
220
0.0
230
0.9999999999999998
 40
0.5780931159158115
 41
0.26784487781254
 42
2.873747775777251
  0
ELLIPSE
  5
144
330
6C
100
AcDbEntity
  8
Visible (ANSI)
100
AcDbEllipse
 10
58.46930534297627
 20
18.04902720776905
 30
0.0
 11
-0.1155167156445387
 21
0.2005980176261974
 31
0.0
210
0.0
220
0.0
230
0.9999999999999998
 40
0.5780931159158114
 41
0.0
 42
6.283185307179586
  0
ELLIPSE
  5
145
330
6C
100
AcDbEntity
  8
Visible (ANSI)
100
AcDbEllipse
 10
58.53068613995429
 20
30.50654842705987
 30
0.0
 11
0.0721979472778437
 21
-0.1253737610163682
 31
0.0
210
0.0
220
0.0
230
1.0
 40
0.5780931159158114
 41
3.578838513251575
 42
5.845939447517055
  0
ELLIPSE
  5
146
330
6C
100
AcDbEntity
  8
Visible (ANSI)
100
AcDbEllipse
 10
58.4693053429763
 20
30.47120157690428
 30
0.0
 11
-0.0721979472778367
 21
0.1253737610163734
 31
0.0
210
0.0
220
0.0
230
1.0
 40
0.5780931159158116
 41
0.0
 42
6.283185307179586
  0
ELLIPSE
  5
147
330
6C
100
AcDbEntity
  8
Visible (ANSI)
100
AcDbEllipse
 10
49.91445906549468
 20
35.4683036062324
 30
0.0
 11
0.0721979472778446
 21
-0.1253737610163699
 31
0.0
210
0.0
220
0.0
230
0.9999999999999998
 40
0.5780931159158114
 41
3.578838513251534
 42
5.845939447516943
  0
ELLIPSE
  5
148
330
6C
100
AcDbEntity
  8
Visible (ANSI)
100
AcDbEllipse
 10
49.8530782685167
 20
35.43295675607681
 30
0.0
 11
-0.0721979472778367
 21
0.1253737610163734
 31
0.0
210
0.0
220
0.0
230
1.0
 40
0.5780931159158116
 41
0.0
 42
6.283185307179586
  0
ELLIPSE
  5
149
330
6C
100
AcDbEntity
  8
Visible (ANSI)
100
AcDbEllipse
 10
49.91445906549467
 20
23.61387029601561
 30
0.0
 11
0.0721979472778442
 21
-0.1253737610163691
 31
0.0
210
0.0
220
0.0
230
1.0
 40
0.5780931159158115
 41
3.578838513251533
 42
5.845939447516943
  0
ELLIPSE
  5
14A
330
6C
100
AcDbEntity
  8
Visible (ANSI)
100
AcDbEllipse
 10
49.85307826851667
 20
23.57852344586001
 30
0.0
 11
-0.0721979472778367
 21
0.1253737610163734
 31
0.0
210
0.0
220
0.0
230
1.0
 40
0.5780931159158116
 41
0.0
 42
6.283185307179586
  0
ELLIPSE
  5
14B
330
6C
100
AcDbEntity
  8
Visible (ANSI)
100
AcDbEllipse
 10
58.53068613995426
 20
18.65211511684307
 30
0.0
 11
0.072197947277844
 21
-0.1253737610163687
 31
0.0
210
0.0
220
0.0
230
1.0
 40
0.5780931159158116
 41
3.578838513251575
 42
5.845939447517048
  0
ELLIPSE
  5
14C
330
6C
100
AcDbEntity
  8
Visible (ANSI)
100
AcDbEllipse
 10
58.46930534297627
 20
18.61676826668748
 30
0.0
 11
-0.0721979472778367
 21
0.1253737610163734
 31
0.0
210
0.0
220
0.0
230
1.0
 40
0.5780931159158116
 41
0.0
 42
6.283185307179586
  0
LINE
  5
14D
330
6C
100
AcDbEntity
  8
Visible (ANSI)
100
AcDbLine
 10
49.51261944794534
 20
36.21189477209602
 30
0.0
 11
49.83998369849473
 21
36.40187227721189
 31
0.0
  0
LINE
  5
14E
330
6C
100
AcDbEntity
  8
Visible (ANSI)
100
AcDbLine
 10
49.83998369849473
 20
36.40187227721189
 30
0.0
 11
49.90136449547271
 21
36.43721912736747
 31
0.0
  0
LINE
  5
14F
330
6C
100
AcDbEntity
  8
Visible (ANSI)
100
AcDbLine
 10
49.51261944794532
 20
23.19169982090004
 30
0.0
 11
49.51261944794534
 21
36.21189477209602
 31
0.0
  0
LINE
  5
150
330
6C
100
AcDbEntity
  8
Visible (ANSI)
100
AcDbLine
 10
58.54378070997626
 20
31.46038262546189
 30
0.0
 11
49.90136449547271
 21
36.43721912736747
 31
0.0
  0
LINE
  5
151
330
6C
100
AcDbEntity
  8
Visible (ANSI)
100
AcDbLine
 10
58.87114496052562
 20
17.87317710082387
 30
0.0
 11
58.87114496052564
 21
30.89337205201984
 31
0.0
  0
LINE
  5
152
330
6C
100
AcDbEntity
  8
Visible (ANSI)
100
AcDbLine
 10
58.48239991299825
 20
17.64785274555241
 30
0.0
 11
49.83998369849469
 21
22.624689247458
 31
0.0
  0
LINE
  5
153
330
6C
100
AcDbEntity
  8
Visible (ANSI)
100
AcDbLine
 10
58.80976416354766
 20
30.85802520186426
 30
0.0
 11
58.80976416354762
 21
17.83783025066828
 31
0.0
  0
LINE
  5
154
330
6C
100
AcDbEntity
  8
Visible (ANSI)
100
AcDbLine
 10
49.83998369849473
 20
36.40187227721189
 30
0.0
 11
58.48239991299827
 21
31.4250357753063
 31
0.0
  0
LINE
  5
155
330
6C
100
AcDbEntity
  8
Visible (ANSI)
100
AcDbLine
 10
58.87114496052564
 20
30.89337205201984
 30
0.0
 11
58.54378070997626
 21
31.46038262546189
 31
0.0
  0
LINE
  5
156
330
6C
100
AcDbEntity
  8
Visible (ANSI)
100
AcDbLine
 10
58.80976416354766
 20
30.85802520186426
 30
0.0
 11
58.87114496052564
 21
30.89337205201984
 31
0.0
  0
LINE
  5
157
330
6C
100
AcDbEntity
  8
Visible (ANSI)
100
AcDbLine
 10
58.48239991299827
 20
31.4250357753063
 30
0.0
 11
58.80976416354766
 21
30.85802520186426
 31
0.0
  0
LINE
  5
158
330
6C
100
AcDbEntity
  8
Visible (ANSI)
100
AcDbLine
 10
58.54378070997626
 20
31.46038262546189
 30
0.0
 11
58.48239991299827
 21
31.4250357753063
 31
0.0
  0
LINE
  5
159
330
6C
100
AcDbEntity
  8
Visible (ANSI)
100
AcDbLine
 10
58.54378070997624
 20
17.68319959570801
 30
0.0
 11
58.87114496052562
 21
17.87317710082387
 31
0.0
  0
LINE
  5
15A
330
6C
100
AcDbEntity
  8
Visible (ANSI)
100
AcDbLine
 10
58.48239991299825
 20
17.64785274555241
 30
0.0
 11
58.54378070997624
 21
17.68319959570801
 31
0.0
  0
LINE
  5
15B
330
6C
100
AcDbEntity
  8
Visible (ANSI)
100
AcDbLine
 10
58.80976416354762
 20
17.83783025066828
 30
0.0
 11
58.48239991299825
 21
17.64785274555241
 31
0.0
  0
LINE
  5
15C
330
6C
100
AcDbEntity
  8
Visible (ANSI)
100
AcDbLine
 10
58.87114496052562
 20
17.87317710082387
 30
0.0
 11
58.80976416354762
 21
17.83783025066828
 31
0.0
  0
LINE
  5
15D
330
6C
100
AcDbEntity
  8
Visible (ANSI)
100
AcDbLine
 10
49.83998369849469
 20
22.624689247458
 30
0.0
 11
49.51261944794532
 21
23.19169982090004
 31
0.0
  0
DIMENSION
  5
15E
330
6C
100
AcDbEntity
  8
Dimension (ANSI)
100
AcDbDimension
  2
*D4
 10
11.40299046640572
 20
34.20445979580743
 30
0.0
 11
18.50299046640572
 21
34.20445979580743
 31
0.0
 70
   160
  1
<>
 42
14.2
  3
Default (ANSI)
100
AcDbAlignedDimension
 13
25.60299046640573
 23
29.79501097690979
 33
0.0
 14
11.40299046640572
 24
29.79501097690978
 34
0.0
 50
180.0
100
AcDbRotatedDimension
1001
ACAD
1000
DSTYLE
1002
{
1070
   289
1070
     1
1070
    73
1070
     0
1070
    74
1070
     0
1070
   271
1070
     3
1070
   272
1070
     2
1070
    48
1040
0.0
1070
    47
1040
0.0
1002
}
  0
DIMENSION
  5
24B
330
6C
100
AcDbEntity
  8
Dimension (ANSI)
100
AcDbDimension
  2
*D5
 10
6.027727542085034
 20
12.09501097690978
 30
0.0
 11
6.027727542085033
 21
22.29415931980114
 31
0.0
 70
   160
  1
<>
 42
18.19999999999999
  3
Default (ANSI)
100
AcDbAlignedDimension
 13
11.90299046640572
 23
30.29501097690978
 33
0.0
 14
11.90299046640573
 24
12.09501097690978
 34
0.0
 50
270.0
100
AcDbRotatedDimension
1001
ACAD
1000
DSTYLE
1002
{
1070
   289
1070
     1
1070
   271
1070
     3
1070
   272
1070
     2
1070
    48
1040
0.0
1070
    47
1040
0.0
1002
}
  0
DIMENSION
  5
335
330
6C
100
AcDbEntity
  8
Dimension (ANSI)
100
AcDbDimension
  2
*D6
 10
11.8152085484535
 20
12.84058371055137
 30
0.0
 11
16.61174688407825
 21
7.603259709941182
 31
0.0
 70
   163
  1
<>{\PTYP.(4PL.)}
 42
0.5
  3
Default (ANSI)
100
AcDbDiametricDimension
 15
12.03077238435795
 25
12.38943824326819
 35
0.0
 40
0.0
1001
ACAD_DSTYLE_DIMRADIAL_EXTENSION
1070
   387
1070
     1
1070
   388
1040
0.0
1070
   390
1040
0.0
1001
ACAD
1000
DSTYLE
1002
{
1070
   145
1040
-0.25
1070
   144
1040
0.9999999999999964
1070
   271
1070
     3
1070
   272
1070
     2
1070
    48
1040
0.0
1070
    47
1040
0.0
1002
}
  0
DIMENSION
  5
3EF
330
6C
100
AcDbEntity
  8
Dimension (ANSI)
100
AcDbDimension
  2
*D7
 10
11.82780588116673
 20
13.48892206290647
 30
0.0
 11
16.61174678344927
 21
10.24761237076337
 31
0.0
 70
   163
  1
<>{\PTYP.(4PL.)}
 42
0.3125
  3
Default (ANSI)
100
AcDbDiametricDimension
 15
12.01817505164473
 25
13.24109989091309
 35
0.0
 40
0.0
1001
ACAD_DSTYLE_DIMRADIAL_EXTENSION
1070
   387
1070
     1
1070
   388
1040
0.0
1070
   390
1040
0.0
1001
ACAD
1000
DSTYLE
1002
{
1070
   145
1040
-0.25
1070
   144
1040
1.000000000000005
1070
   271
1070
     3
1070
   272
1070
     2
1070
    48
1040
0.0
1070
    47
1040
0.0
1002
}
  0
DIMENSION
  5
4A8
330
6C
100
AcDbEntity
  8
Dimension (ANSI)
100
AcDbDimension
  2
*D8
 10
39.17610453695271
 20
13.66116589841408
 30
0.0
 11
41.49066476779641
 21
13.66116589841408
 31
0.0
 70
   160
  1
 12 GA.\P304 SS
 42
0.09375
  3
Default (ANSI)
100
AcDbAlignedDimension
 13
39.08235453695271
 23
23.56880050110651
 33
0.0
 14
39.17610453695271
 24
23.56880050110651
 34
0.0
 50
180.0
100
AcDbRotatedDimension
1001
ACAD
1000
DSTYLE
1002
{
1070
   289
1070
     1
1070
    73
1070
     0
1070
    74
1070
     0
1070
   145
1040
-0.25
1070
   271
1070
     3
1070
    76
1070
     1
1070
    75
1070
     1
1070
   272
1070
     2
1070
    48
1040
0.0
1070
    47
1040
0.0
1002
}
  0
DIMENSION
  5
597
330
6C
100
AcDbEntity
  8
Dimension (ANSI)
100
AcDbDimension
  2
*D9
 10
8.039680982434534
 20
12.61501097690978
 30
0.0
 11
8.039680982434532
 21
20.23564462558478
 31
0.0
 70
   160
  1
<>
 42
17.16
  3
Default (ANSI)
100
AcDbAlignedDimension
 13
11.92299046640573
 23
29.77501097690978
 33
0.0
 14
11.92299046640573
 24
12.61501097690978
 34
0.0
 50
90.0
100
AcDbRotatedDimension
1001
ACAD
1000
DSTYLE
1002
{
1070
   289
1070
     1
1070
   271
1070
     3
1070
   272
1070
     2
1070
    48
1040
0.0
1070
    47
1040
0.0
1002
}
  0
DIMENSION
  5
681
330
6C
100
AcDbEntity
  8
Dimension (ANSI)
100
AcDbDimension
  2
*D10
 10
8.422001583483311
 20
12.61501097690978
 30
0.0
 11
9.792080350705363
 21
14.42082555807248
 31
0.0
 70
   160
  1
<>
 42
0.75
  3
Default (ANSI)
100
AcDbAlignedDimension
 13
11.92299046640573
 23
13.36501097690978
 33
0.0
 14
11.92299046640573
 24
12.61501097690978
 34
0.0
 50
90.0
100
AcDbRotatedDimension
1001
ACAD
1000
DSTYLE
1002
{
1070
   289
1070
     1
1070
   271
1070
     3
1070
   272
1070
     2
1070
    48
1040
0.0
1070
    47
1040
0.0
1002
}
  0
DIMENSION
  5
77E
330
6C
100
AcDbEntity
  8
Dimension (ANSI)
100
AcDbDimension
  2
*D11
 10
11.92299046640573
 20
32.64236832128348
 30
0.0
 11
18.50299046640573
 21
32.64236832128348
 31
0.0
 70
   160
  1
<>
 42
13.16
  3
Default (ANSI)
100
AcDbAlignedDimension
 13
25.08299046640573
 23
29.77501097690978
 33
0.0
 14
11.92299046640573
 24
29.77501097690978
 34
0.0
 50
180.0
100
AcDbRotatedDimension
1001
ACAD
1000
DSTYLE
1002
{
1070
   289
1070
     1
1070
    73
1070
     0
1070
    74
1070
     0
1070
   271
1070
     3
1070
   272
1070
     2
1070
    48
1040
0.0
1070
    47
1040
0.0
1002
}
  0
DIMENSION
  5
868
330
6C
100
AcDbEntity
  8
Dimension (ANSI)
100
AcDbDimension
  2
*D12
 10
26.32168611515043
 20
12.09501097690978
 30
0.0
 11
27.69176488237248
 21
13.65082555807249
 31
0.0
 70
   160
  1
<>
 42
0.5
  3
Default (ANSI)
100
AcDbAlignedDimension
 13
25.60299046640573
 23
12.59501097690978
 33
0.0
 14
25.10299046640573
 24
12.09501097690978
 34
0.0
 50
90.0
100
AcDbRotatedDimension
1001
ACAD
1000
DSTYLE
1002
{
1070
   289
1070
     1
1070
   271
1070
     3
1070
   272
1070
     2
1070
    48
1040
0.0
1070
    47
1040
0.0
1002
}
  0
DIMENSION
  5
968
330
6C
100
AcDbEntity
  8
Dimension (ANSI)
100
AcDbDimension
  2
*D13
 10
25.10299046640573
 20
10.24117072511264
 30
0.0
 11
22.92550382840361
 21
10.24117072511264
 31
0.0
 70
   160
  1
<>
 42
0.5000000000000036
  3
Default (ANSI)
100
AcDbAlignedDimension
 13
25.60299046640573
 23
12.59501097690978
 33
0.0
 14
25.10299046640573
 24
12.09501097690978
 34
0.0
 50
180.0
100
AcDbRotatedDimension
1001
ACAD
1000
DSTYLE
1002
{
1070
   289
1070
     1
1070
    73
1070
     0
1070
    74
1070
     0
1070
   271
1070
     3
1070
   272
1070
     2
1070
    48
1040
0.0
1070
    47
1040
0.0
1002
}
  0
DIMENSION
  5
A52
330
6C
100
AcDbEntity
  8
Dimension (ANSI)
100
AcDbDimension
  2
*D14
 10
25.60299046640573
 20
31.34981412651608
 30
0.0
 11
23.13221226238333
 21
31.34981412651608
 31
0.0
 70
   160
  1
<>
 42
0.5199999999999961
  3
Default (ANSI)
100
AcDbAlignedDimension
 13
25.08299046640573
 23
29.77501097690978
 33
0.0
 14
25.60299046640573
 24
29.79501097690979
 34
0.0
 50
180.0
100
AcDbRotatedDimension
1001
ACAD
1000
DSTYLE
1002
{
1070
   289
1070
     1
1070
    73
1070
     0
1070
    74
1070
     0
1070
   271
1070
     3
1070
   272
1070
     2
1070
    48
1040
0.0
1070
    47
1040
0.0
1002
}
  0
DIMENSION
  5
B3C
330
6C
100
AcDbEntity
  8
Dimension (ANSI)
100
AcDbDimension
  2
*D15
 10
28.43279789499105
 20
30.29501097690979
 30
0.0
 11
27.06271912776899
 21
28.72322437311251
 31
0.0
 70
   160
  1
<>
 42
0.5200000000000067
  3
Default (ANSI)
100
AcDbAlignedDimension
 13
25.08299046640573
 23
29.77501097690978
 33
0.0
 14
25.10299046640573
 24
30.29501097690979
 34
0.0
 50
270.0
100
AcDbRotatedDimension
1001
ACAD
1000
DSTYLE
1002
{
1070
   289
1070
     1
1070
   271
1070
     3
1070
   272
1070
     2
1070
    48
1040
0.0
1070
    47
1040
0.0
1002
}
  0
MTEXT
  5
C3C
102
{ACAD_XDICTIONARY
360
C4C
102
}
330
6C
100
AcDbEntity
  8
Symbol (ANSI)
100
AcDbMText
 10
32.56057677586662
 20
9.324080991568955
 30
0.0
 40
0.4444444499373192
 41
28.84445459166976
 71
     1
 72
     1
  3
{\fRomanS|b0|i0|c0|p2;\H2x;PART#: NP2016SSC\P(DATA SUBJECT TO CHANGE WITHOUT \H1.4011x; \H0.71374x;NOTICE) \H1.2931x; \H0.77332x;\P\H0.59996x;THIS DRAWING IS PROPERTY OF HUBBELL INC. WIEGMANN\H1.2219x; \H0.81838x;\PALL INFORMATION IS PROPRIETARY AND 
  1
NOT TO BE DUPLICATED\H1.0143x; \H0.82153x;\P\H1.0771x; }
  7
Note Text (ANSI)
 73
     1
 44
0.9303776025772094
1001
ACAD
1000
MTEXTBEGIN
1070
    73
1070
     1
1070
    44
1040
0.9303776025772094
1070
    74
1070
     0
1000
MTEXTEND
  0
ENDSEC
  0
SECTION
  2
OBJECTS
  0
DICTIONARY
  5
C
330
0
100
AcDbDictionary
281
     1
  3
ACAD_CIP_PREVIOUS_PRODUCT_INFO
350
C3E
  3
ACAD_COLOR
350
63
  3
ACAD_GROUP
350
D
  3
ACAD_LAYOUT
350
62
  3
ACAD_MATERIAL
350
10
  3
ACAD_MLEADERSTYLE
350
66
  3
ACAD_MLINESTYLE
350
5F
  3
ACAD_PLOTSETTINGS
350
61
  3
ACAD_PLOTSTYLENAME
350
E
  3
ACAD_SCALELIST
350
42
  3
ACAD_TABLESTYLE
350
64
  3
ACAD_VISUALSTYLE
350
29
  3
ACDB_RECOMPOSE_DATA
350
C4E
  3
AcDbVariableDictionary
350
76
  3
DWGPROPS
350
C4F
  0
DICTIONARY
  5
C8B
330
3E9
100
AcDbDictionary
280
     1
281
     1
  3
ACAD_MTEXT_RT
360
C8C
  0
DICTIONARY
  5
C8D
330
4A2
100
AcDbDictionary
280
     1
281
     1
  3
ACAD_MTEXT_RT
360
C8E
  0
DICTIONARY
  5
C4C
330
C3C
100
AcDbDictionary
280
     1
281
     1
  3
ACAD_MTEXT_2008_RT
360
C4D
  0
XRECORD
  5
C3E
102
{ACAD_REACTORS
330
C
102
}
330
C
100
AcDbXrecord
280
     1
300
INVNTOR
300
2012
300
85795PDSP_2012_0F
  0
DICTIONARY
  5
63
102
{ACAD_REACTORS
330
C
102
}
330
C
100
AcDbDictionary
281
     1
  0
DICTIONARY
  5
D
102
{ACAD_REACTORS
330
C
102
}
330
C
100
AcDbDictionary
281
     1
  0
DICTIONARY
  5
62
102
{ACAD_REACTORS
330
C
102
}
330
C
100
AcDbDictionary
281
     1
  3
Layout1
350
6B
  3
Layout2
350
73
  3
Model
350
6F
  0
DICTIONARY
  5
10
102
{ACAD_REACTORS
330
C
102
}
330
C
100
AcDbDictionary
281
     1
  3
ByBlock
350
19
  3
ByLayer
350
11
  3
Global
350
21
  0
DICTIONARY
  5
66
102
{ACAD_REACTORS
330
C
102
}
330
C
100
AcDbDictionary
281
     1
  3
Standard
350
67
  0
DICTIONARY
  5
5F
102
{ACAD_REACTORS
330
C
102
}
330
C
100
AcDbDictionary
281
     1
  3
Standard
350
60
  0
DICTIONARY
  5
61
102
{ACAD_REACTORS
330
C
102
}
330
C
100
AcDbDictionary
281
     1
  0
ACDBDICTIONARYWDFLT
  5
E
102
{ACAD_REACTORS
330
C
102
}
330
C
100
AcDbDictionary
281
     1
  3
Normal
350
F
100
AcDbDictionaryWithDefault
340
F
  0
DICTIONARY
  5
42
102
{ACAD_REACTORS
330
C
102
}
330
C
100
AcDbDictionary
281
     1
  3
A0
350
43
  3
A1
350
44
  3
A2
350
45
  3
A3
350
46
  3
A4
350
47
  3
A5
350
48
  3
A6
350
49
  3
A7
350
4A
  3
A8
350
4B
  3
A9
350
4C
  3
B0
350
4D
  3
B1
350
4E
  3
B2
350
4F
  3
B3
350
50
  3
B4
350
51
  3
B5
350
52
  3
B6
350
53
  0
DICTIONARY
  5
64
102
{ACAD_REACTORS
330
C
102
}
330
C
100
AcDbDictionary
281
     1
  3
Standard
350
65
  0
DICTIONARY
  5
29
102
{ACAD_REACTORS
330
C
102
}
330
C
100
AcDbDictionary
281
     1
  3
2dWireframe
350
2F
  3
Basic
350
2E
  3
Brighten
350
35
  3
ColorChange
350
39
  3
Conceptual
350
32
  3
Dim
350
34
  3
EdgeColorOff
350
41
  3
Facepattern
350
38
  3
Flat
350
2A
  3
FlatWithEdges
350
2B
  3
Gouraud
350
2C
  3
GouraudWithEdges
350
2D
  3
Hidden
350
31
  3
JitterOff
350
3F
  3
Linepattern
350
37
  3
OverhangOff
350
40
  3
Realistic
350
33
  3
Shaded
350
3E
  3
Shaded with edges
350
3D
  3
Shades of Gray
350
3A
  3
Sketchy
350
3B
  3
Thicken
350
36
  3
Wireframe
350
30
  3
X-Ray
350
3C
  0
XRECORD
  5
C4E
102
{ACAD_REACTORS
330
C
102
}
330
C
100
AcDbXrecord
280
     1
 90
        1
330
65
330
C3C
  0
DICTIONARY
  5
76
102
{ACAD_REACTORS
330
C
102
}
330
C
100
AcDbDictionary
281
     1
  3
CANNOSCALE
350
79
  3
CMLEADERSTYLE
350
78
  3
CTABLESTYLE
350
77
  3
DIMASSOC
350
C46
  3
HIDETEXT
350
C45
  3
INDEXCTL
350
C44
  3
LAYEREVAL
350
C41
  3
LAYERNOTIFY
350
C42
  3
LIGHTINGUNITS
350
C40
  3
MSLTSCALE
350
C3F
  3
SORTENTS
350
C43
  3
XCLIPFRAME
350
C47
  0
XRECORD
  5
C4F
102
{ACAD_REACTORS
330
C
102
}
330
C
100
AcDbXrecord
280
     1
  1
DWGPROPS COOKIE
  2

  3

  4
dnichola
  6

  7

  8

  9
-
300
Manager=
301
Company=
302
Category=
303
Part Number=NP2016SSC-S
304
Description=
305
Project=
306
Designer=dnichola
307
Engineer=
308
Authority=
309
Cost Center=
 40
0.0000334606481481
 41
2455944.6066175
 42
2455944.6066175
  1

 90
       19
300
Vendor=
300
User Status=
300
Design Status=WorkInProgress
300
Checked by=
300
Engr Approved by=
300
Mfg Approved by=
300
DWG. NO=
300
NUMBER OF SHEETS=1
300
DRAWING #=
  0
XRECORD
  5
C8C
102
{ACAD_REACTORS
330
C8B
102
}
330
C8B
100
AcDbXrecord
280
     1
 40
31446.0
  1
\A1;\U+22050.500{\PTYP.(4PL.)}
  0
XRECORD
  5
C8E
102
{ACAD_REACTORS
330
C8D
102
}
330
C8D
100
AcDbXrecord
280
     1
 40
31481.0
  1
\A1;\U+22050.313{\PTYP.(4PL.)}
  0
XRECORD
  5
C4D
102
{ACAD_REACTORS
330
C4C
102
}
330
C4C
100
AcDbXrecord
280
     1
 40
3152079.0
  1
\pxsm0.94;{\fRomanS|b0|i0;\H0.8889;PART#: NP2016SSC\P(DATA SUBJECT TO CHANGE WITHOUT NOTICE) \P\fRomanS|b0|i0;\H0.5333;THIS DRAWING IS PROPERTY OF HUBBELL INC. WIEGMANN\PALL INFORMATION IS PROPRIETARY AND NOT TO BE DUPLICATED\fRomanS|b0|i0;\H0.4444;\
  1
P}
  0
LAYOUT
  5
6B
102
{ACAD_XDICTIONARY
360
C85
102
}
102
{ACAD_REACTORS
330
62
102
}
330
62
100
AcDbPlotSettings
  1

  2

  4

  6

 40
0.0
 41
0.0
 42
0.0
 43
0.0
 44
0.0
 45
0.0
 46
0.0
 47
0.0
 48
0.0
 49
0.0
140
0.0
141
0.0
142
1.0
143
1.0
 70
   688
 72
     0
 73
     0
 74
     5
  7

 75
    16
147
1.0
148
0.0
149
0.0
100
AcDbLayout
  1
Layout1
 70
     1
 71
     1
 10
0.0
 20
0.0
 11
12.0
 21
9.0
 12
0.0
 22
0.0
 32
0.0
 14
0.0
 24
0.0
 34
0.0
 15
0.0
 25
0.0
 35
0.0
146
0.0
 13
0.0
 23
0.0
 33
0.0
 16
1.0
 26
0.0
 36
0.0
 17
0.0
 27
1.0
 37
0.0
 76
     0
330
68
  0
LAYOUT
  5
73
102
{ACAD_XDICTIONARY
360
C89
102
}
102
{ACAD_REACTORS
330
62
102
}
330
62
100
AcDbPlotSettings
  1

  2

  4

  6

 40
0.0
 41
0.0
 42
0.0
 43
0.0
 44
0.0
 45
0.0
 46
0.0
 47
0.0
 48
0.0
 49
0.0
140
0.0
141
0.0
142
1.0
143
1.0
 70
   688
 72
     0
 73
     0
 74
     5
  7

 75
    16
147
1.0
148
0.0
149
0.0
100
AcDbLayout
  1
Layout2
 70
     1
 71
     2
 10
0.0
 20
0.0
 11
12.0
 21
9.0
 12
0.0
 22
0.0
 32
0.0
 14
0.0
 24
0.0
 34
0.0
 15
0.0
 25
0.0
 35
0.0
146
0.0
 13
0.0
 23
0.0
 33
0.0
 16
1.0
 26
0.0
 36
0.0
 17
0.0
 27
1.0
 37
0.0
 76
     0
330
70
  0
LAYOUT
  5
6F
102
{ACAD_XDICTIONARY
360
C87
102
}
102
{ACAD_REACTORS
330
62
102
}
330
62
100
AcDbPlotSettings
  1

  2

  4

  6

 40
0.0
 41
0.0
 42
0.0
 43
0.0
 44
0.0
 45
0.0
 46
0.0
 47
0.0
 48
0.0
 49
0.0
140
0.0
141
0.0
142
1.0
143
1.0
 70
  1712
 72
     0
 73
     0
 74
     0
  7

 75
     0
147
1.0
148
0.0
149
0.0
100
AcDbLayout
  1
Model
 70
     1
 71
     0
 10
0.0
 20
0.0
 11
12.0
 21
9.0
 12
0.0
 22
0.0
 32
0.0
 14
0.0
 24
0.0
 34
0.0
 15
0.0
 25
0.0
 35
0.0
146
0.0
 13
0.0
 23
0.0
 33
0.0
 16
1.0
 26
0.0
 36
0.0
 17
0.0
 27
1.0
 37
0.0
 76
     0
330
6C
  0
MATERIAL
  5
19
102
{ACAD_XDICTIONARY
360
1A
102
}
102
{ACAD_REACTORS
330
10
102
}
330
10
100
AcDbMaterial
  1
ByBlock
 72
     0
 43
0.0208333333333333
 43
0.0
 43
0.0
 43
0.0
 43
0.0
 43
0.0208333333333333
 43
0.0
 43
0.0
 43
0.0
 43
0.0
 43
1.0
 43
0.0
 43
0.0
 43
0.0
 43
0.0
 43
1.0
 77
     0
 47
0.0208333333333333
 47
0.0
 47
0.0
 47
0.0
 47
0.0
 47
0.0208333333333333
 47
0.0
 47
0.0
 47
0.0
 47
0.0
 47
1.0
 47
0.0
 47
0.0
 47
0.0
 47
0.0
 47
1.0
171
     0
 49
0.0208333333333333
 49
0.0
 49
0.0
 49
0.0
 49
0.0
 49
0.0208333333333333
 49
0.0
 49
0.0
 49
0.0
 49
0.0
 49
1.0
 49
0.0
 49
0.0
 49
0.0
 49
0.0
 49
1.0
175
     0
142
0.0208333333333333
142
0.0
142
0.0
142
0.0
142
0.0
142
0.0208333333333333
142
0.0
142
0.0
142
0.0
142
0.0
142
1.0
142
0.0
142
0.0
142
0.0
142
0.0
142
1.0
179
     0
144
0.0208333333333333
144
0.0
144
0.0
144
0.0
144
0.0
144
0.0208333333333333
144
0.0
144
0.0
144
0.0
144
0.0
144
1.0
144
0.0
144
0.0
144
0.0
144
0.0
144
1.0
147
0.0208333333333333
147
0.0
147
0.0
147
0.0
147
0.0
147
0.0208333333333333
147
0.0
147
0.0
147
0.0
147
0.0
147
1.0
147
0.0
147
0.0
147
0.0
147
0.0
147
1.0
  0
MATERIAL
  5
11
102
{ACAD_XDICTIONARY
360
12
102
}
102
{ACAD_REACTORS
330
10
102
}
330
10
100
AcDbMaterial
  1
ByLayer
 72
     0
 43
0.0208333333333333
 43
0.0
 43
0.0
 43
0.0
 43
0.0
 43
0.0208333333333333
 43
0.0
 43
0.0
 43
0.0
 43
0.0
 43
1.0
 43
0.0
 43
0.0
 43
0.0
 43
0.0
 43
1.0
 77
     0
 47
0.0208333333333333
 47
0.0
 47
0.0
 47
0.0
 47
0.0
 47
0.0208333333333333
 47
0.0
 47
0.0
 47
0.0
 47
0.0
 47
1.0
 47
0.0
 47
0.0
 47
0.0
 47
0.0
 47
1.0
171
     0
 49
0.0208333333333333
 49
0.0
 49
0.0
 49
0.0
 49
0.0
 49
0.0208333333333333
 49
0.0
 49
0.0
 49
0.0
 49
0.0
 49
1.0
 49
0.0
 49
0.0
 49
0.0
 49
0.0
 49
1.0
175
     0
142
0.0208333333333333
142
0.0
142
0.0
142
0.0
142
0.0
142
0.0208333333333333
142
0.0
142
0.0
142
0.0
142
0.0
142
1.0
142
0.0
142
0.0
142
0.0
142
0.0
142
1.0
179
     0
144
0.0208333333333333
144
0.0
144
0.0
144
0.0
144
0.0
144
0.0208333333333333
144
0.0
144
0.0
144
0.0
144
0.0
144
1.0
144
0.0
144
0.0
144
0.0
144
0.0
144
1.0
147
0.0208333333333333
147
0.0
147
0.0
147
0.0
147
0.0
147
0.0208333333333333
147
0.0
147
0.0
147
0.0
147
0.0
147
1.0
147
0.0
147
0.0
147
0.0
147
0.0
147
1.0
  0
MATERIAL
  5
21
102
{ACAD_XDICTIONARY
360
22
102
}
102
{ACAD_REACTORS
330
10
102
}
330
10
100
AcDbMaterial
  1
Global
 72
     0
 43
0.0208333333333333
 43
0.0
 43
0.0
 43
0.0
 43
0.0
 43
0.0208333333333333
 43
0.0
 43
0.0
 43
0.0
 43
0.0
 43
1.0
 43
0.0
 43
0.0
 43
0.0
 43
0.0
 43
1.0
 77
     0
 47
0.0208333333333333
 47
0.0
 47
0.0
 47
0.0
 47
0.0
 47
0.0208333333333333
 47
0.0
 47
0.0
 47
0.0
 47
0.0
 47
1.0
 47
0.0
 47
0.0
 47
0.0
 47
0.0
 47
1.0
171
     0
 49
0.0208333333333333
 49
0.0
 49
0.0
 49
0.0
 49
0.0
 49
0.0208333333333333
 49
0.0
 49
0.0
 49
0.0
 49
0.0
 49
1.0
 49
0.0
 49
0.0
 49
0.0
 49
0.0
 49
1.0
175
     0
142
0.0208333333333333
142
0.0
142
0.0
142
0.0
142
0.0
142
0.0208333333333333
142
0.0
142
0.0
142
0.0
142
0.0
142
1.0
142
0.0
142
0.0
142
0.0
142
0.0
142
1.0
179
     0
144
0.0208333333333333
144
0.0
144
0.0
144
0.0
144
0.0
144
0.0208333333333333
144
0.0
144
0.0
144
0.0
144
0.0
144
1.0
144
0.0
144
0.0
144
0.0
144
0.0
144
1.0
147
0.0208333333333333
147
0.0
147
0.0
147
0.0
147
0.0
147
0.0208333333333333
147
0.0
147
0.0
147
0.0
147
0.0
147
1.0
147
0.0
147
0.0
147
0.0
147
0.0
147
1.0
  0
MLEADERSTYLE
  5
67
102
{ACAD_XDICTIONARY
360
C4A
102
}
102
{ACAD_REACTORS
330
66
102
}
330
66
100
AcDbMLeaderStyle
170
     2
171
     1
172
     0
 90
        2
 40
0.0
 41
0.0
173
     1
 91
-1056964608
340
5B
 92
       -2
290
     1
 42
0.09
291
     1
 43
0.36
  3
Standard
 44
0.18
300

342
55
174
     1
178
     6
175
     1
176
     0
 93
-1056964608
 45
0.18
292
     0
297
     0
 46
0.18
 94
-1056964608
 47
1.0
 49
1.0
140
1.0
293
     1
141
0.0
294
     1
177
     0
142
1.0
295
     0
296
     0
143
0.125
1001
ACAD_MLEADERVER
1070
     2
  0
MLINESTYLE
  5
60
102
{ACAD_REACTORS
330
5F
102
}
330
5F
100
AcDbMlineStyle
  2
STANDARD
 70
     0
  3

 62
   256
 51
90.0
 52
90.0
 71
     2
 49
0.5
 62
   256
  6
BYLAYER
 49
-0.5
 62
   256
  6
BYLAYER
  0
ACDBPLACEHOLDER
  5
F
102
{ACAD_REACTORS
330
E
102
}
330
E
  0
SCALE
  5
43
102
{ACAD_REACTORS
330
42
102
}
330
42
100
AcDbScale
 70
     0
300
1:1
140
1.0
141
1.0
290
     1
  0
SCALE
  5
44
102
{ACAD_REACTORS
330
42
102
}
330
42
100
AcDbScale
 70
     0
300
1/128" = 1'-0"
140
0.0078125
141
12.0
290
     0
  0
SCALE
  5
45
102
{ACAD_REACTORS
330
42
102
}
330
42
100
AcDbScale
 70
     0
300
1/64" = 1'-0"
140
0.015625
141
12.0
290
     0
  0
SCALE
  5
46
102
{ACAD_REACTORS
330
42
102
}
330
42
100
AcDbScale
 70
     0
300
1/32" = 1'-0"
140
0.03125
141
12.0
290
     0
  0
SCALE
  5
47
102
{ACAD_REACTORS
330
42
102
}
330
42
100
AcDbScale
 70
     0
300
1/16" = 1'-0"
140
0.0625
141
12.0
290
     0
  0
SCALE
  5
48
102
{ACAD_REACTORS
330
42
102
}
330
42
100
AcDbScale
 70
     0
300
3/32" = 1'-0"
140
0.09375
141
12.0
290
     0
  0
SCALE
  5
49
102
{ACAD_REACTORS
330
42
102
}
330
42
100
AcDbScale
 70
     0
300
1/8" = 1'-0"
140
0.125
141
12.0
290
     0
  0
SCALE
  5
4A
102
{ACAD_REACTORS
330
42
102
}
330
42
100
AcDbScale
 70
     0
300
3/16" = 1'-0"
140
0.1875
141
12.0
290
     0
  0
SCALE
  5
4B
102
{ACAD_REACTORS
330
42
102
}
330
42
100
AcDbScale
 70
     0
300
1/4" = 1'-0"
140
0.25
141
12.0
290
     0
  0
SCALE
  5
4C
102
{ACAD_REACTORS
330
42
102
}
330
42
100
AcDbScale
 70
     0
300
3/8" = 1'-0"
140
0.375
141
12.0
290
     0
  0
SCALE
  5
4D
102
{ACAD_REACTORS
330
42
102
}
330
42
100
AcDbScale
 70
     0
300
1/2" = 1'-0"
140
0.5
141
12.0
290
     0
  0
SCALE
  5
4E
102
{ACAD_REACTORS
330
42
102
}
330
42
100
AcDbScale
 70
     0
300
3/4" = 1'-0"
140
0.75
141
12.0
290
     0
  0
SCALE
  5
4F
102
{ACAD_REACTORS
330
42
102
}
330
42
100
AcDbScale
 70
     0
300
1" = 1'-0"
140
1.0
141
12.0
290
     0
  0
SCALE
  5
50
102
{ACAD_REACTORS
330
42
102
}
330
42
100
AcDbScale
 70
     0
300
1-1/2" = 1'-0"
140
1.5
141
12.0
290
     0
  0
SCALE
  5
51
102
{ACAD_REACTORS
330
42
102
}
330
42
100
AcDbScale
 70
     0
300
3" = 1'-0"
140
3.0
141
12.0
290
     0
  0
SCALE
  5
52
102
{ACAD_REACTORS
330
42
102
}
330
42
100
AcDbScale
 70
     0
300
6" = 1'-0"
140
6.0
141
12.0
290
     0
  0
SCALE
  5
53
102
{ACAD_REACTORS
330
42
102
}
330
42
100
AcDbScale
 70
     0
300
1'-0" = 1'-0"
140
12.0
141
12.0
290
     0
  0
TABLESTYLE
  5
65
102
{ACAD_XDICTIONARY
360
C48
102
}
102
{ACAD_REACTORS
330
64
102
}
330
64
100
AcDbTableStyle
  3
Standard
 70
     0
 71
     0
 40
0.06
 41
0.06
280
     0
281
     0
  7
Standard
140
0.18
170
     2
 62
     0
 63
     7
283
     0
274
    -2
284
     1
 64
     0
275
    -2
285
     1
 65
     0
276
    -2
286
     1
 66
     0
277
    -2
287
     1
 67
     0
278
    -2
288
     1
 68
     0
279
    -2
289
     1
 69
     0
  7
Standard
140
0.25
170
     5
 62
     0
 63
     7
283
     0
274
    -2
284
     1
 64
     0
275
    -2
285
     1
 65
     0
276
    -2
286
     1
 66
     0
277
    -2
287
     1
 67
     0
278
    -2
288
     1
 68
     0
279
    -2
289
     1
 69
     0
  7
Standard
140
0.18
170
     5
 62
     0
 63
     7
283
     0
274
    -2
284
     1
 64
     0
275
    -2
285
     1
 65
     0
276
    -2
286
     1
 66
     0
277
    -2
287
     1
 67
     0
278
    -2
288
     1
 68
     0
279
    -2
289
     1
 69
     0
  0
VISUALSTYLE
  5
2F
102
{ACAD_XDICTIONARY
360
C5D
102
}
102
{ACAD_REACTORS
330
29
102
}
330
29
100
AcDbVisualStyle
  2
2dWireframe
 70
     4
 71
     0
 72
     2
 73
     0
 90
        0
 40
-0.6
 41
-30.0
 62
     5
 63
     7
 74
     1
 91
        4
 64
     7
 65
   257
 75
     1
175
     1
 42
1.0
 92
        0
 66
   257
 43
1.0
 76
     1
 77
     6
 78
     2
 67
     7
 79
     5
170
     0
171
     0
290
     0
174
     0
 93
        1
 44
0.0
173
     0
291
     0
 45
0.0
1001
ACAD
1000
AcDbSavedByObjectVersion
1070
     0
  0
VISUALSTYLE
  5
2E
102
{ACAD_XDICTIONARY
360
C5B
102
}
102
{ACAD_REACTORS
330
29
102
}
330
29
100
AcDbVisualStyle
  2
Basic
 70
     7
 71
     1
 72
     0
 73
     1
 90
        0
 40
-0.6
 41
-30.0
 62
     5
 63
     7
 74
     0
 91
        4
 64
     7
 65
   257
 75
     1
175
     1
 42
1.0
 92
        8
 66
     7
 43
1.0
 76
     1
 77
     6
 78
     2
 67
     7
 79
     5
170
     0
171
     0
290
     0
174
     0
 93
        1
 44
0.0
173
     0
291
     1
 45
0.0
1001
ACAD
1000
AcDbSavedByObjectVersion
1070
     0
  0
VISUALSTYLE
  5
35
102
{ACAD_XDICTIONARY
360
C69
102
}
102
{ACAD_REACTORS
330
29
102
}
330
29
100
AcDbVisualStyle
  2
Brighten
 70
    12
 71
     2
 72
     2
 73
     0
 90
        0
 40
-0.6
 41
-30.0
 62
     5
 63
     7
 74
     1
 91
        4
 64
     7
 65
   257
 75
     1
175
     1
 42
1.0
 92
        8
 66
     7
 43
1.0
 76
     1
 77
     6
 78
     2
 67
     7
 79
     5
170
     0
171
     0
290
     0
174
     0
 93
        1
 44
50.0
173
     0
291
     1
 45
0.0
1001
ACAD
1000
AcDbSavedByObjectVersion
1070
     0
  0
VISUALSTYLE
  5
39
102
{ACAD_XDICTIONARY
360
C71
102
}
102
{ACAD_REACTORS
330
29
102
}
330
29
100
AcDbVisualStyle
  2
ColorChange
 70
    16
 71
     2
 72
     2
 73
     3
 90
        0
 40
-0.6
 41
-30.0
 62
     5
 63
     8
 74
     1
 91
        4
 64
     7
 65
   257
 75
     1
175
     1
 42
1.0
 92
        8
 66
     8
 43
1.0
 76
     1
 77
     6
 78
     2
 67
     7
 79
     5
170
     0
171
     0
290
     0
174
     0
 93
        1
 44
0.0
173
     0
291
     1
 45
0.0
1001
ACAD
1000
AcDbSavedByObjectVersion
1070
     0
  0
VISUALSTYLE
  5
32
102
{ACAD_XDICTIONARY
360
C63
102
}
102
{ACAD_REACTORS
330
29
102
}
330
29
100
AcDbVisualStyle
  2
Conceptual
 70
     9
 71
     3
 72
     2
 73
     0
 90
        0
 40
-0.6
 41
-30.0
 62
     5
 63
     7
 74
     2
 91
        2
 64
     7
 65
   257
 75
     1
175
     1
 42
179.0
 92
        8
 66
     7
 43
1.0
 76
     1
 77
     6
 78
     2
 67
     7
 79
     3
170
     0
171
     0
290
     0
174
     0
 93
        1
 44
0.0
173
     0
291
     0
 45
0.0
1001
ACAD
1000
AcDbSavedByObjectVersion
1070
     0
  0
VISUALSTYLE
  5
34
102
{ACAD_XDICTIONARY
360
C67
102
}
102
{ACAD_REACTORS
330
29
102
}
330
29
100
AcDbVisualStyle
  2
Dim
 70
    11
 71
     2
 72
     2
 73
     0
 90
        0
 40
-0.6
 41
-30.0
 62
     5
 63
     7
 74
     1
 91
        4
 64
     7
 65
   257
 75
     1
175
     1
 42
1.0
 92
        8
 66
     7
 43
1.0
 76
     1
 77
     6
 78
     2
 67
     7
 79
     5
170
     0
171
     0
290
     0
174
     0
 93
        1
 44
-50.0
173
     0
291
     1
 45
0.0
1001
ACAD
1000
AcDbSavedByObjectVersion
1070
     0
  0
VISUALSTYLE
  5
41
102
{ACAD_XDICTIONARY
360
C81
102
}
102
{ACAD_REACTORS
330
29
102
}
330
29
100
AcDbVisualStyle
  2
EdgeColorOff
 70
    22
 71
     2
 72
     2
 73
     0
 90
        0
 40
-0.6
 41
-30.0
 62
     5
 63
     7
 74
     1
 91
        4
 64
     7
 65
   257
 75
     1
175
     1
 42
1.0
 92
        8
 66
     7
 43
1.0
 76
     1
 77
     6
 78
     2
 67
     7
 79
     5
170
     0
171
     0
290
     0
174
     0
 93
        1
 44
0.0
173
     0
291
     1
 45
0.0
1001
ACAD
1000
AcDbSavedByObjectVersion
1070
     0
  0
VISUALSTYLE
  5
38
102
{ACAD_XDICTIONARY
360
C6F
102
}
102
{ACAD_REACTORS
330
29
102
}
330
29
100
AcDbVisualStyle
  2
Facepattern
 70
    15
 71
     2
 72
     2
 73
     0
 90
        0
 40
-0.6
 41
-30.0
 62
     5
 63
     7
 74
     1
 91
        4
 64
     7
 65
   257
 75
     1
175
     1
 42
1.0
 92
        8
 66
     7
 43
1.0
 76
     1
 77
     6
 78
     2
 67
     7
 79
     5
170
     0
171
     0
290
     0
174
     0
 93
        1
 44
0.0
173
     0
291
     1
 45
0.0
1001
ACAD
1000
AcDbSavedByObjectVersion
1070
     0
  0
VISUALSTYLE
  5
2A
102
{ACAD_XDICTIONARY
360
C53
102
}
102
{ACAD_REACTORS
330
29
102
}
330
29
100
AcDbVisualStyle
  2
Flat
 70
     0
 71
     2
 72
     1
 73
     1
 90
        2
 40
-0.6
 41
30.0
 62
     5
 63
     7
 74
     0
 91
        0
 64
     7
 65
   257
 75
     1
175
     1
 42
1.0
 92
        8
 66
     7
 43
1.0
 76
     1
 77
     6
 78
     2
 67
     7
 79
     5
170
     0
171
     0
290
     0
174
     0
 93
       13
 44
0.0
173
     0
291
     1
 45
0.0
1001
ACAD
1000
AcDbSavedByObjectVersion
1070
     0
  0
VISUALSTYLE
  5
2B
102
{ACAD_XDICTIONARY
360
C55
102
}
102
{ACAD_REACTORS
330
29
102
}
330
29
100
AcDbVisualStyle
  2
FlatWithEdges
 70
     1
 71
     2
 72
     1
 73
     1
 90
        2
 40
-0.6
 41
30.0
 62
     5
 63
     7
 74
     1
 91
        0
 64
     7
 65
   257
 75
     1
175
     1
 42
1.0
 92
        0
 66
   257
 43
1.0
 76
     1
 77
     6
 78
     2
 67
     7
 79
     5
170
     0
171
     0
290
     0
174
     0
 93
       13
 44
0.0
173
     0
291
     1
 45
0.0
1001
ACAD
1000
AcDbSavedByObjectVersion
1070
     0
  0
VISUALSTYLE
  5
2C
102
{ACAD_XDICTIONARY
360
C57
102
}
102
{ACAD_REACTORS
330
29
102
}
330
29
100
AcDbVisualStyle
  2
Gouraud
 70
     2
 71
     2
 72
     2
 73
     1
 90
        2
 40
-0.6
 41
30.0
 62
     5
 63
     7
 74
     0
 91
        0
 64
     7
 65
   257
 75
     1
175
     1
 42
1.0
 92
        0
 66
     7
 43
1.0
 76
     1
 77
     6
 78
     2
 67
     7
 79
     5
170
     0
171
     0
290
     0
174
     0
 93
       13
 44
0.0
173
     0
291
     1
 45
0.0
1001
ACAD
1000
AcDbSavedByObjectVersion
1070
     0
  0
VISUALSTYLE
  5
2D
102
{ACAD_XDICTIONARY
360
C59
102
}
102
{ACAD_REACTORS
330
29
102
}
330
29
100
AcDbVisualStyle
  2
GouraudWithEdges
 70
     3
 71
     2
 72
     2
 73
     1
 90
        2
 40
-0.6
 41
30.0
 62
     5
 63
     7
 74
     1
 91
        0
 64
     7
 65
   257
 75
     1
175
     1
 42
1.0
 92
        0
 66
   257
 43
1.0
 76
     1
 77
     6
 78
     2
 67
     7
 79
     5
170
     0
171
     0
290
     0
174
     0
 93
       13
 44
0.0
173
     0
291
     1
 45
0.0
1001
ACAD
1000
AcDbSavedByObjectVersion
1070
     0
  0
VISUALSTYLE
  5
31
102
{ACAD_XDICTIONARY
360
C61
102
}
102
{ACAD_REACTORS
330
29
102
}
330
29
100
AcDbVisualStyle
  2
Hidden
 70
     6
 71
     1
 72
     2
 73
     2
 90
        0
 40
-0.6
 41
-30.0
 62
     5
 63
     7
 74
     2
 91
        2
 64
     7
 65
   257
 75
     2
175
     1
 42
40.0
 92
        0
 66
   257
 43
1.0
 76
     1
 77
     6
 78
     2
 67
     7
 79
     3
170
     0
171
     0
290
     0
174
     0
 93
        1
 44
0.0
173
     0
291
     0
 45
0.0
1001
ACAD
1000
AcDbSavedByObjectVersion
1070
     0
  0
VISUALSTYLE
  5
3F
102
{ACAD_XDICTIONARY
360
C7D
102
}
102
{ACAD_REACTORS
330
29
102
}
330
29
100
AcDbVisualStyle
  2
JitterOff
 70
    20
 71
     2
 72
     2
 73
     0
 90
        0
 40
-0.6
 41
-30.0
 62
     5
 63
     7
 74
     1
 91
        4
 64
     7
 65
   257
 75
     1
175
     1
 42
1.0
 92
       10
 66
     7
 43
1.0
 76
     1
 77
     6
 78
     2
 67
     7
 79
     5
170
     0
171
     0
290
     0
174
     0
 93
        1
 44
0.0
173
     0
291
     1
 45
0.0
1001
ACAD
1000
AcDbSavedByObjectVersion
1070
     0
  0
VISUALSTYLE
  5
37
102
{ACAD_XDICTIONARY
360
C6D
102
}
102
{ACAD_REACTORS
330
29
102
}
330
29
100
AcDbVisualStyle
  2
Linepattern
 70
    14
 71
     2
 72
     2
 73
     0
 90
        0
 40
-0.6
 41
-30.0
 62
     5
 63
     7
 74
     1
 91
        4
 64
     7
 65
   257
 75
     7
175
     7
 42
1.0
 92
        8
 66
     7
 43
1.0
 76
     1
 77
     6
 78
     2
 67
     7
 79
     5
170
     0
171
     0
290
     0
174
     0
 93
        1
 44
0.0
173
     0
291
     1
 45
0.0
1001
ACAD
1000
AcDbSavedByObjectVersion
1070
     0
  0
VISUALSTYLE
  5
40
102
{ACAD_XDICTIONARY
360
C7F
102
}
102
{ACAD_REACTORS
330
29
102
}
330
29
100
AcDbVisualStyle
  2
OverhangOff
 70
    21
 71
     2
 72
     2
 73
     0
 90
        0
 40
-0.6
 41
-30.0
 62
     5
 63
     7
 74
     1
 91
        4
 64
     7
 65
   257
 75
     1
175
     1
 42
1.0
 92
        9
 66
     7
 43
1.0
 76
     1
 77
     6
 78
     2
 67
     7
 79
     5
170
     0
171
     0
290
     0
174
     0
 93
        1
 44
0.0
173
     0
291
     1
 45
0.0
1001
ACAD
1000
AcDbSavedByObjectVersion
1070
     0
  0
VISUALSTYLE
  5
33
102
{ACAD_XDICTIONARY
360
C65
102
}
102
{ACAD_REACTORS
330
29
102
}
330
29
100
AcDbVisualStyle
  2
Realistic
 70
     8
 71
     2
 72
     3
 73
     0
 90
        2
 40
-0.6
 41
30.0
 62
     5
 63
     7
 74
     0
 91
        0
 64
     7
 65
   257
 75
     1
175
     1
 42
1.0
 92
        8
 66
   257
 43
1.0
 76
     1
 77
     6
 78
     2
 67
     7
 79
     3
170
     0
171
     0
290
     0
174
     0
 93
       13
 44
0.0
173
     0
291
     0
 45
0.0
1001
ACAD
1000
AcDbSavedByObjectVersion
1070
     0
  0
VISUALSTYLE
  5
3E
102
{ACAD_XDICTIONARY
360
C7B
102
}
102
{ACAD_REACTORS
330
29
102
}
330
29
100
AcDbVisualStyle
  2
Shaded
 70
    27
 71
     2
 72
     2
 73
     1
 90
        2
 40
-0.6
 41
30.0
 62
     5
 63
     7
 74
     0
 91
        4
 64
     7
 65
   257
 75
     1
175
     1
 42
1.0
 92
        8
 66
   257
 43
1.0
 76
     1
 77
     6
 78
     2
 67
     8
 79
     3
170
     0
171
     0
290
     0
174
     0
 93
        5
 44
0.0
173
     0
291
     0
 45
0.0
1001
ACAD
1000
AcDbSavedByObjectVersion
1070
     0
  0
VISUALSTYLE
  5
3D
102
{ACAD_XDICTIONARY
360
C79
102
}
102
{ACAD_REACTORS
330
29
102
}
330
29
100
AcDbVisualStyle
  2
Shaded with edges
 70
    26
 71
     2
 72
     2
 73
     1
 90
        2
 40
-0.6
 41
30.0
 62
     5
 63
     7
 74
     1
 91
       10
 64
     7
 65
   257
 75
     2
175
     1
 42
1.0
 92
        8
 66
   257
 43
1.0
 76
     1
 77
     6
 78
     2
 67
     7
 79
     3
170
     0
171
     0
290
     0
174
     0
 93
        5
 44
0.0
173
     0
291
     0
 45
0.0
1001
ACAD
1000
AcDbSavedByObjectVersion
1070
     0
  0
VISUALSTYLE
  5
3A
102
{ACAD_XDICTIONARY
360
C73
102
}
102
{ACAD_REACTORS
330
29
102
}
330
29
100
AcDbVisualStyle
  2
Shades of Gray
 70
    23
 71
     2
 72
     2
 73
     3
 90
        0
 40
-0.6
 41
-30.0
 62
     5
 63
     7
 74
     2
 91
        2
 64
     7
 65
     7
 75
     1
175
     1
 42
40.0
 92
        8
 66
     7
 43
1.0
 76
     1
 77
     6
 78
     2
 67
     7
 79
     3
170
     0
171
     0
290
     0
174
     0
 93
        1
 44
0.0
173
     0
291
     0
 45
0.0
1001
ACAD
1000
AcDbSavedByObjectVersion
1070
     0
  0
VISUALSTYLE
  5
3B
102
{ACAD_XDICTIONARY
360
C75
102
}
102
{ACAD_REACTORS
330
29
102
}
330
29
100
AcDbVisualStyle
  2
Sketchy
 70
    24
 71
     1
 72
     2
 73
     2
 90
        0
 40
-0.6
 41
-30.0
 62
     5
 63
     7
 74
     2
 91
        2
 64
     7
 65
     7
 75
     1
175
     1
 42
40.0
 92
       11
 66
     7
 43
1.0
 76
     1
 77
     6
 78
     2
 67
     7
 79
     6
170
     0
171
     0
290
     0
174
     0
 93
        1
 44
0.0
173
     0
291
     0
 45
0.0
1001
ACAD
1000
AcDbSavedByObjectVersion
1070
     0
  0
VISUALSTYLE
  5
36
102
{ACAD_XDICTIONARY
360
C6B
102
}
102
{ACAD_REACTORS
330
29
102
}
330
29
100
AcDbVisualStyle
  2
Thicken
 70
    13
 71
     2
 72
     2
 73
     0
 90
        0
 40
-0.6
 41
-30.0
 62
     5
 63
     7
 74
     1
 91
        4
 64
     7
 65
   257
 75
     1
175
     1
 42
1.0
 92
       12
 66
     7
 43
1.0
 76
     1
 77
     6
 78
     2
 67
     7
 79
     5
170
     0
171
     0
290
     0
174
     0
 93
        1
 44
0.0
173
     0
291
     1
 45
0.0
1001
ACAD
1000
AcDbSavedByObjectVersion
1070
     0
  0
VISUALSTYLE
  5
30
102
{ACAD_XDICTIONARY
360
C5F
102
}
102
{ACAD_REACTORS
330
29
102
}
330
29
100
AcDbVisualStyle
  2
Wireframe
 70
     5
 71
     0
 72
     2
 73
     0
 90
        0
 40
-0.6
 41
-30.0
 62
     5
 63
     7
 74
     1
 91
        4
 64
     7
 65
   257
 75
     1
175
     1
 42
1.0
 92
        0
 66
   257
 43
1.0
 76
     1
 77
     6
 78
     2
 67
     7
 79
     3
170
     0
171
     0
290
     0
174
     0
 93
        1
 44
0.0
173
     0
291
     0
 45
0.0
1001
ACAD
1000
AcDbSavedByObjectVersion
1070
     0
  0
VISUALSTYLE
  5
3C
102
{ACAD_XDICTIONARY
360
C77
102
}
102
{ACAD_REACTORS
330
29
102
}
330
29
100
AcDbVisualStyle
  2
X-Ray
 70
    25
 71
     2
 72
     2
 73
     1
 90
        1
 40
0.5
 41
-30.0
 62
     5
 63
     7
 74
     1
 91
        0
 64
     7
 65
   257
 75
     1
175
     1
 42
1.0
 92
        8
 66
     7
 43
1.0
 76
     1
 77
     6
 78
     2
 67
     7
 79
     3
170
     0
171
     0
290
     0
174
     0
 93
       13
 44
0.0
173
     0
291
     0
 45
0.0
1001
ACAD
1000
AcDbSavedByObjectVersion
1070
     0
  0
DICTIONARYVAR
  5
79
102
{ACAD_REACTORS
330
76
102
}
330
76
100
DictionaryVariables
280
     0
  1
1:1
  0
DICTIONARYVAR
  5
78
102
{ACAD_REACTORS
330
76
102
}
330
76
100
DictionaryVariables
280
     0
  1
STANDARD
  0
DICTIONARYVAR
  5
77
102
{ACAD_REACTORS
330
76
102
}
330
76
100
DictionaryVariables
280
     0
  1
STANDARD
  0
DICTIONARYVAR
  5
C46
102
{ACAD_REACTORS
330
76
102
}
330
76
100
DictionaryVariables
280
     0
  1
1
  0
DICTIONARYVAR
  5
C45
102
{ACAD_REACTORS
330
76
102
}
330
76
100
DictionaryVariables
280
     0
  1
1
  0
DICTIONARYVAR
  5
C44
102
{ACAD_REACTORS
330
76
102
}
330
76
100
DictionaryVariables
280
     0
  1
0
  0
DICTIONARYVAR
  5
C41
102
{ACAD_REACTORS
330
76
102
}
330
76
100
DictionaryVariables
280
     0
  1
0
  0
DICTIONARYVAR
  5
C42
102
{ACAD_REACTORS
330
76
102
}
330
76
100
DictionaryVariables
280
     0
  1
0
  0
DICTIONARYVAR
  5
C40
102
{ACAD_REACTORS
330
76
102
}
330
76
100
DictionaryVariables
280
     0
  1
2
  0
DICTIONARYVAR
  5
C3F
102
{ACAD_REACTORS
330
76
102
}
330
76
100
DictionaryVariables
280
     0
  1
1
  0
DICTIONARYVAR
  5
C43
102
{ACAD_REACTORS
330
76
102
}
330
76
100
DictionaryVariables
280
     0
  1
127
  0
DICTIONARYVAR
  5
C47
102
{ACAD_REACTORS
330
76
102
}
330
76
100
DictionaryVariables
280
     0
  1
2
  0
DICTIONARY
  5
C85
330
6B
100
AcDbDictionary
280
     1
281
     1
  3
ACAD_XREC_ROUNDTRIP
360
C86
  0
DICTIONARY
  5
C89
330
73
100
AcDbDictionary
280
     1
281
     1
  3
ACAD_XREC_ROUNDTRIP
360
C8A
  0
DICTIONARY
  5
C87
330
6F
100
AcDbDictionary
280
     1
281
     1
  3
ACAD_XREC_ROUNDTRIP
360
C88
  0
DICTIONARY
  5
1A
330
19
100
AcDbDictionary
280
     1
281
     1
  3
ACAD_XREC_ROUNDTRIP
360
C51
  3
BUMPTILE
360
1C
  3
DIFFUSETILE
360
1B
  3
OPACITYTILE
360
1F
  3
REFLECTIONTILE
360
1E
  3
REFRACTIONTILE
360
20
  3
SPECULARTILE
360
1D
  0
DICTIONARY
  5
12
330
11
100
AcDbDictionary
280
     1
281
     1
  3
ACAD_XREC_ROUNDTRIP
360
C50
  3
BUMPTILE
360
14
  3
DIFFUSETILE
360
13
  3
FBXASSET
360
109
  3
OPACITYTILE
360
17
  3
REFLECTIONTILE
360
16
  3
REFRACTIONTILE
360
18
  3
SPECULARTILE
360
15
  0
DICTIONARY
  5
22
330
21
100
AcDbDictionary
280
     1
281
     1
  3
ACAD_XREC_ROUNDTRIP
360
C52
  3
BUMPTILE
360
24
  3
DIFFUSETILE
360
23
  3
FBXASSET
360
BA
  3
OPACITYTILE
360
27
  3
REFLECTIONTILE
360
26
  3
REFRACTIONTILE
360
28
  3
SPECULARTILE
360
25
  0
DICTIONARY
  5
C4A
330
67
100
AcDbDictionary
280
     1
281
     1
  3
ACAD_XREC_ROUNDTRIP
360
C4B
  0
DICTIONARY
  5
C48
330
65
100
AcDbDictionary
280
     1
281
     1
  3
ACAD_ROUNDTRIP_2008_TABLESTYLE_CELLSTYLEMAP
360
C49
  3
ACAD_XREC_ROUNDTRIP
360
C83
  0
DICTIONARY
  5
C5D
330
2F
100
AcDbDictionary
280
     1
281
     1
  3
ACAD_XREC_ROUNDTRIP
360
C5E
  0
DICTIONARY
  5
C5B
330
2E
100
AcDbDictionary
280
     1
281
     1
  3
ACAD_XREC_ROUNDTRIP
360
C5C
  0
DICTIONARY
  5
C69
330
35
100
AcDbDictionary
280
     1
281
     1
  3
ACAD_XREC_ROUNDTRIP
360
C6A
  0
DICTIONARY
  5
C71
330
39
100
AcDbDictionary
280
     1
281
     1
  3
ACAD_XREC_ROUNDTRIP
360
C72
  0
DICTIONARY
  5
C63
330
32
100
AcDbDictionary
280
     1
281
     1
  3
ACAD_XREC_ROUNDTRIP
360
C64
  0
DICTIONARY
  5
C67
330
34
100
AcDbDictionary
280
     1
281
     1
  3
ACAD_XREC_ROUNDTRIP
360
C68
  0
DICTIONARY
  5
C81
330
41
100
AcDbDictionary
280
     1
281
     1
  3
ACAD_XREC_ROUNDTRIP
360
C82
  0
DICTIONARY
  5
C6F
330
38
100
AcDbDictionary
280
     1
281
     1
  3
ACAD_XREC_ROUNDTRIP
360
C70
  0
DICTIONARY
  5
C53
330
2A
100
AcDbDictionary
280
     1
281
     1
  3
ACAD_XREC_ROUNDTRIP
360
C54
  0
DICTIONARY
  5
C55
330
2B
100
AcDbDictionary
280
     1
281
     1
  3
ACAD_XREC_ROUNDTRIP
360
C56
  0
DICTIONARY
  5
C57
330
2C
100
AcDbDictionary
280
     1
281
     1
  3
ACAD_XREC_ROUNDTRIP
360
C58
  0
DICTIONARY
  5
C59
330
2D
100
AcDbDictionary
280
     1
281
     1
  3
ACAD_XREC_ROUNDTRIP
360
C5A
  0
DICTIONARY
  5
C61
330
31
100
AcDbDictionary
280
     1
281
     1
  3
ACAD_XREC_ROUNDTRIP
360
C62
  0
DICTIONARY
  5
C7D
330
3F
100
AcDbDictionary
280
     1
281
     1
  3
ACAD_XREC_ROUNDTRIP
360
C7E
  0
DICTIONARY
  5
C6D
330
37
100
AcDbDictionary
280
     1
281
     1
  3
ACAD_XREC_ROUNDTRIP
360
C6E
  0
DICTIONARY
  5
C7F
330
40
100
AcDbDictionary
280
     1
281
     1
  3
ACAD_XREC_ROUNDTRIP
360
C80
  0
DICTIONARY
  5
C65
330
33
100
AcDbDictionary
280
     1
281
     1
  3
ACAD_XREC_ROUNDTRIP
360
C66
  0
DICTIONARY
  5
C7B
330
3E
100
AcDbDictionary
280
     1
281
     1
  3
ACAD_XREC_ROUNDTRIP
360
C7C
  0
DICTIONARY
  5
C79
330
3D
100
AcDbDictionary
280
     1
281
     1
  3
ACAD_XREC_ROUNDTRIP
360
C7A
  0
DICTIONARY
  5
C73
330
3A
100
AcDbDictionary
280
     1
281
     1
  3
ACAD_XREC_ROUNDTRIP
360
C74
  0
DICTIONARY
  5
C75
330
3B
100
AcDbDictionary
280
     1
281
     1
  3
ACAD_XREC_ROUNDTRIP
360
C76
  0
DICTIONARY
  5
C6B
330
36
100
AcDbDictionary
280
     1
281
     1
  3
ACAD_XREC_ROUNDTRIP
360
C6C
  0
DICTIONARY
  5
C5F
330
30
100
AcDbDictionary
280
     1
281
     1
  3
ACAD_XREC_ROUNDTRIP
360
C60
  0
DICTIONARY
  5
C77
330
3C
100
AcDbDictionary
280
     1
281
     1
  3
ACAD_XREC_ROUNDTRIP
360
C78
  0
XRECORD
  5
C86
102
{ACAD_REACTORS
330
C85
102
}
330
C85
100
AcDbXrecord
280
     1
102
SHADEPLOT
 70
     0
102
SHADEPLOTRESLEVEL
 70
     2
102
SHADEPLOTCUSTOMDPI
 70
   300
  0
XRECORD
  5
C8A
102
{ACAD_REACTORS
330
C89
102
}
330
C89
100
AcDbXrecord
280
     1
102
SHADEPLOT
 70
     0
102
SHADEPLOTRESLEVEL
 70
     2
102
SHADEPLOTCUSTOMDPI
 70
   300
  0
XRECORD
  5
C88
102
{ACAD_REACTORS
330
C87
102
}
330
C87
100
AcDbXrecord
280
     1
102
SHADEPLOT
 70
     0
102
SHADEPLOTRESLEVEL
 70
     2
102
SHADEPLOTCUSTOMDPI
 70
   300
  0
XRECORD
  5
C51
102
{ACAD_REACTORS
330
1A
102
}
330
1A
100
AcDbXrecord
280
     1
102
MATERIAL
148
0.0
149
0.0
149
0.0
 93
        0
 94
      127
282
     0
 72
     0
 77
     0
171
     0
175
     0
179
     0
273
     0
  0
XRECORD
  5
1C
102
{ACAD_REACTORS
330
1A
102
}
330
1A
100
AcDbXrecord
280
     1
270
     1
271
     1
  0
XRECORD
  5
1B
102
{ACAD_REACTORS
330
1A
102
}
330
1A
100
AcDbXrecord
280
     1
270
     1
271
     1
  0
XRECORD
  5
1F
102
{ACAD_REACTORS
330
1A
102
}
330
1A
100
AcDbXrecord
280
     1
270
     1
271
     1
  0
XRECORD
  5
1E
102
{ACAD_REACTORS
330
1A
102
}
330
1A
100
AcDbXrecord
280
     1
270
     1
271
     1
  0
XRECORD
  5
20
102
{ACAD_REACTORS
330
1A
102
}
330
1A
100
AcDbXrecord
280
     1
270
     1
271
     1
  0
XRECORD
  5
1D
102
{ACAD_REACTORS
330
1A
102
}
330
1A
100
AcDbXrecord
280
     1
270
     1
271
     1
  0
XRECORD
  5
C50
102
{ACAD_REACTORS
330
12
102
}
330
12
100
AcDbXrecord
280
     1
102
MATERIAL
148
0.0
149
0.0
149
0.0
 93
        0
 94
      127
282
     0
 72
     0
 77
     0
171
     0
175
     0
179
     0
273
     0
  0
XRECORD
  5
14
102
{ACAD_REACTORS
330
12
102
}
330
12
100
AcDbXrecord
280
     1
270
     1
271
     1
  0
XRECORD
  5
13
102
{ACAD_REACTORS
330
12
102
}
330
12
100
AcDbXrecord
280
     1
270
     1
271
     1
  0
XRECORD
  5
109
102
{ACAD_REACTORS
330
12
102
}
330
12
100
AcDbXrecord
280
     1
 70
     1
 90
1959938040
 71
     1
  1
97BF1E79-5015-402B-9D80-3AE87F83F39C
311
504B03040A0000080000317431403DEE336E79000000790000001B0000006175746F6465736B2D64657369676E2D7061636B6167652E786D6C3C3F786D6C2076657273696F6E3D22312E302220656E636F64696E673D227574662D3822203F3E3C666F726D6174733E3C666F726D61743E687474703A2F2F736368656D612E
311
6175746F6465736B2E636F6D2F64657369676E2D7061636B6167652F323030393C2F666F726D61743E3C2F666F726D6174733E504B030414000608080031743140D486FD9CA0000000F4000000130000005B436F6E74656E745F54797065735D2E786D6C7D8EC10E82300C865F65E91D8A1E8C310C0EEA1BF002731658846E
311
D98AC1B77784ABF1D8FE5FBFBF75BBCE937A534CCEB38643598122B6FEE978D0B0485F9C41B54DDD7D022595594E1A469170414C76A4D9A4D207E29CF43ECE46F218070CC6BECC4078ACAA135ACF422C856C0E68EA1BF5669944DDD7BCDE7B1F8E415D77AECB980613C2E4AC91FC167A2B244592486606FC29C8FD7F045B9A
311
EF7053A7E60B504B030414000608080031743140E8149514EA0000007C01000008000000636F72652E786D6C8D904D6EC3201085AF82668F0DC64E520B13598E73825E0001715062B00C543D7E717EA476D7D58CDEBC6F66F4F8F17BBEA32FB306EB5D07B420808C535E5B377590E2051F001D055FBD8FBF6C809C9C4D079B
311
0C824FAB4FCB4B52DE45E362569DD7E625CA104C04A4EEB9E920A8AB99652153CC8E702B16A96E7232057D77194EC96AF43C6275DE672FD6AC20AAA1271FC3698F6B3636B8EEAB11F76C24B81FD8819CCE4DB3ABCFBCDC60C1A39DDFF7D56A64343AF3845698504CF79FB46E196B598DC9AE2584979BFD0F9416FD4F285917
311
59F57AF7890510343FF218085E6E59E4F2082AD72D37F103504B03041400060808003174314055019EA25F0000007C00000007000000636E782E786D6C4DCB3B0E80201045D1AD90E915ED2CF8AC45050C11660C8261F98AB1B07AC9C97D42D718D865D3E909258CFD00CCE24AC6E326A164D74DC0B4128928FF326038472B
311
A13128B1252AC747C6BAB984FC68F0B87FE8960A5C09FE86CFB69FBA01504B0304140006080800317431402D3A77EC66010000020300000C0000006662782F636F72652E786D6C8D52DB8E832014FC15C23B82975EB6411AD3CB17EC0F50A5AEA9824130FDFC3D5E1AB79BA6694C90CC9C3967CE28DFDF9B1AF5CA7695D129
311
0E038691D2B9292A5DA6D8BB2BD962B417DC1AE3FE9461A465A3523CC058F0D21ADFCE506EB453DA01AA4DA16650769D7218E5355C52DCE53FAA9181F40E2ABA5BD0CAFC264B158401D0502778E72C1840D390E1C4E27AB9733AE1827B5F15335B1530ADBA56CA62111D32F675386E48129F5624C9A213C9E21323D921DEB2
311
E379B55A27674E07B1E0AE6A1EEE72ABA45305E8591811169270F31D26BB38DEC50961EB1D639C0EE54F22DF161F8A7CA55D1CCD7627598745084646E2DFB61091439DECC10F159C0E21C26B4CF8396808044276F2523FF6B801D4ABDC199B005318BF50BDACBD82A90C8D0FA7130B9DC706B0D9CB3ED19B3EEF7BC00794BA
311
046BD2C1F5E2DD309D4F53E7285A6549EFEE481BDBC87A3137595CCE65D04B796E6A633F51D379553A874987BF57FC02504B0304140006080800317431404D79C7A77E0000009D0000000B0000006662782F636E782E786D6C4DCCD10E82201805E05761FF3DA965A81BE0FAC3DEC3253A164223683D7ED8BCE8E69CEDDBD9
311
E1FD67B5E4ADC3CB7827A03A9440B4BBFBC9B845408A336D81F49207EFE3DF0C881B572D6063907C093E3D779AF43C261BB35AE31E3BE2F9820C878E628525AD953A516C7274D8B4C34DD5EC7A6450485EFC9E726FC7F20B504B030414000608080031743140A6076E062B01000014020000310000006662782F4235414236
311
4245392D423142302D344444332D423744332D3942373845464434364332362F636F72652E786D6C8D51CB6EC32010FC15C4293D6083ED380F61A2D2A45FD01FA0405294182C1E553EBF503B527BCB8545B333B3A35D7AB88F37F0AD7D30CE0E905418026DA553C65E0698E2196D213830EA9D8B7F68105831EA011618327A
311
F12E4D0B249D8DDAC68C5AA7F4028A10748440DEF26780417EE9515422C5CC08D76A12F22A2EBA22556E671EA321FA1C00CC43CA0B195FBFF29E9F7688138E51773CB6886FF2B3E39BEDE9FDD8F56F4D4FEB59C8684A462D72A3721C7336DA3F6B52C48C46333EE24BAF45D40AB20693066182C8E68374FBB6DDB71DC2FD1E
311
635A17FA3F519AD493A2646C6C9B25EE2C0B90115ACF0D46954B9FB747187D9F9C8FA0CC5B052D5F20C3156EF0BAC1DD8ED633352F207BF6DDE219A2F379C1ABEB676693F56CDC778CD6E546B9FC1E30D7724FF603504B030414000608080031743140C56585BC4D01000033030000300000006662782F4235414236424539
311
2D423142302D344444332D423744332D3942373845464434364332362F636E782E786D6CD593BD6E032110845F05D1DF0FBE9313591C9652E40952A4C5B076883938F113C56F9FC5C68E1B1729D3A0D3EC30B3FAC4F1EDF76CC9178468BC9B286B7B4AC029AF8D3B4C34A77DF34CC956F0E07DBAB351E2E40C132D3215FC10
311
7C5EAAA4612FB34DA85AE38E550C107D0E0A22CAE526B15E498B01E09A8C22CC3BD01A34B919F16B0F015741717722E903C8EBCB3BF1BB4F5029F2AEA408DE950EC1CB599BEE4C94282B639C68541F30CB56E6E435C463AB65922D6BAF5D0F76FA4D22E5C2B53207434AF944CB4945DDA8458EBCC3A1E03105A4574DE9B400
311
157259AC513221E4EE6CBC7804CFC6A5F558BD06C10774B3F5308E18769E099ECC0CD5A102C8049A8A55CF564DCF1AF6F4C6C6CD306C86B1E9D79BBEE75DB10BBEF3DED64B1803C12F447997C0252A18EFCAF811BEEA23DA0464EDC3E90F2011406DBDD0B965FC673EDDF97D23AE807F81F801504B03041400060808003174
311
3140E0BAF58E9C0500007B100000340000006662782F42354142364245392D423142302D344444332D423744332D3942373845464434364332362F6F626A656374732E786D6CAD575D8F9B3814FD2B887D0E8424D399AC18AA4932A9A2DD69AB46ADF661A4C88061BC633E649B69667FFD1E83219026D3ECAA2F808D7D7DEF
311
B9E77ED87FBFCFB8F5428564457E6B7BCED8B6681E1531CBD35BBB52C9E8C6B6DE07BE280AD55B665B39C9E8ADADA7EDC04F455195662AA609A9B83A9A5D2FFEB26444736A5B112752DEDA327AA2197148A58A98CA6727268A3869B2773CA75938149B0A523E1D092D89A0B982A698CF21C56A94F286C3B1ED06BEABFF07BE
311
7E9A55D3F3ABDCDA9EE1F92C978AE4D10F871D89997AB3D5FDE46A3EBA9ACDA6A3D9BB89375AAC17AB91773D1D2FDF2D97F3BBFB390E964A4092D144D0C40E3E001BC122DF6D7E057EC572359D9825C641AEA02F4C7BCA0E2696E7BBCD9ACE3A63E429F5A322CF69546305346AFB8CE89896348FE173462534EB21341E0E3D
311
8D63EFF7548FCD91FDE9CB10E8EFE8096A756FDF7D4D8BF06F98202F6190905433B0C1D218DA70757C40382C0A6EFE3169654451C108B7380B0511AF7680A57A49E00FC468260B1D0DDA023B80179ADF43BA208C7ECEF3535A2615E79AC6765047C10EB14295AC3563FF5071D0BE8F0C7482AF341B6E8C41EAB5A476306F28
311
7273C4A606482BE12485CB61A6DE399D1C19BAD471BA59D9C11FEB70BFD5B17BFAF0521425154AD307D46A1DD7BE354A4627EF22CFE90DF6912A0750BE00F98F08F5832AF09B60FBD97E664E5182E432294406DF58636B34C6636C79F5537FF7BE7CB7DB3CF4DE393CE16C0DD52FC0736843DF973D3803FF05842FC4D498B6
311
8D0847DA78603900D224B1788129E4E124DCDBC106590E5919BB080F3C980C755FF0E9BB460C12457D52EF9D03CBA3B4784182066C3523A146437EA3E0C14F3FA4B3FA60B3EC1CBC57BF84AE77ABED1FDB4A2424A20F26A65734613953287107DEF4151A603EB0E899BE7E2F440C437FC47BDBC73B334749A0AD31D7C0A76D
311
4ED783C3C9830322EC4B0B9D6EFC9F9C00237461EDC97F6032A29C939C16557BEE9BF50365A3815807BB667257600E8505A469FE1CC5208A742458A941ECAA5597349D33D67DDD7C0423ED60F1FA2779ED67AFF0907BA382176217BEEE9AB47412EA6F436E1B0C5C2D0574AF83A48D7F03FA2E6649524924C113B87EDB2CFB
311
BED3690129A295DA44CB0CF623B88830A46DE5A25A0B824A5AE43B86BA89B83B79405F3E20350CA8059ED358529EEC18E755B64B184735DA65A43C03C7FFD73FACB27247B2A2CAD519D903D5511D86BA0FD82BBF13153DD9C1B67E8F16C8BD318DCF9041D79213580D5C3BBF5EACBDFB6BF44F63EF6A341B4F16A3F9EA663C
311
9ADEDDDF5CAF6FA6EBE91CA61B8DEA262AF0DB52D38F687809A5CDAF0433EEFBBA41FC982460070F44C9C70F4D78B6EFAF1B07BDB0EF620FEA65B7F12E7E41DF47E39F0B38AC3C296893959C66345744C7D083FEE05F08FA8C8132CDFC262329BD40CAA70FDB23633073C1BECF3ADEE9F7A3BD6676A903F2A410F55465614E
311
183FDA9836483A659E1AFC5A9F74EFA6D0B4433D328E41672A0BCE62E4C1D84A699151856C784111121995A05EBFA78FCDDDE382DD2F4D87A848C869ABC9134193CC25C20224AF22359CB77E4353A7FBAA5B1BE5D679C6C3640ADB02676E6D34E98A45543A210AB46E856AE1E052BF930767499E72F4DACDA66EDCEDD2D80C
311
4A72B7E492FEC9D8D5A4706300D24889BE010D11BC532B13F8B56EE67FF49F0C6FD5B188C26758A9CE96C344674C7D0C42B431CADC16D0C43C9BA3F708D4B7CDF29C7ACD00918B6E596F92A0913A5244A4F54D41EB6754BA5B7D76D1A1589B4F56C9AB14BEBC5CD2485090B9D2010E16811546664914A8BAFCFDF1B3287093
311
CDAC3503051E97459615B919DC999BB0B57DC2BD367E445AA0FA42221F27636FF2585F04CCDD641712491D12CB674CC0A78275100F1C0F4636B74554A0E647B7CED54E38E2E66665999236835043947E56D5B0A0E5C8A985E8D197491D2BFD05E59B7701B75E0A1504BAF8E05F504B03041400060800003174314000000000
311
0000000000000000350000006662782F42354142364245392D423142302D344444332D423744332D3942373845464434364332362F76657274696365732E62696E504B030414000608080031743140F270F1330600000004000000360000006662782F42354142364245392D423142302D344444332D423744332D39423738
311
45464434364332362F747269616E676C65732E62696E636660600000504B030414000608000031743140000000000000000000000000370000006662782F42354142364245392D423142302D344444332D423744332D3942373845464434364332362F617474726962757465732E62696E504B030414000608080031743140
311
D5987DFC8F00000041010000360000006662782F42354142364245392D423142302D344444332D423744332D3942373845464434364332362F6469726563746F72792E786D6C858F410EC2201045AF4266AF15DDB800BA74E7C21B903225242D6328188F2FA5C4183471359997F9FF81E89FF3C41E1816475E02DF1F80A11F
311
C8386F25A438EECEC07A250251FC3803E6F58C12560C4AD840E95E91C151A72936F496F35732D860FE635F62C8F2DA16B505C545B74125BAA2FA9E05D7CC053D063734D5C7665FD55B6B8D15D5E9BFEAFD8490FFA45E504B030414000608080031743140FBBFBB8CFC000000A00100003B0000006662782F42354142364245
311
392D423142302D344444332D423744332D3942373845464434364332362F7265736F75726365732F636F72652E786D6C8D504B6E833010BD0AF2DE6063A029328E102127E8052C332156828DFCA97AFC9A40A576D7CDCCE87D344F8F9FBF9667F609CE6B6B3A4473823230CA4EDACC1D8AE1864F283B0BEEAC0DBF64283372
311
810E6D30127C7636AE07A4AC096042428D9DE000A5F71050A69EE9E890577758642E63480AFFC857A91E72869CE6894E3AC17D702940B63FD926120EBC8D4E81E7C5CE0A1EA39E0E8D9ED24F7DD3E09028879EBC0F9706576CAC71D59723EED948703FB013B95CEBBAA9AEBCD8CC8207BDFC64540E648029F9092D31A198BE
311
7DD0AA65AC6515264D4B082F36F91F535CA77F9AA236819547DCDDE691A029C88B10BCD8FA4AEB5566DA5BB7E21B504B010214000A0000080000317431403DEE336E79000000790000001B00000000000000000000000000000000006175746F6465736B2D64657369676E2D7061636B6167652E786D6C504B010214001400
311
0608080031743140D486FD9CA0000000F40000001300000000000000000000000000B20000005B436F6E74656E745F54797065735D2E786D6C504B0102140014000608080031743140E8149514EA0000007C010000080000000000000000000000000083010000636F72652E786D6C504B0102140014000608080031743140
311
55019EA25F0000007C000000070000000000000000000000000093020000636E782E786D6C504B01021400140006080800317431402D3A77EC66010000020300000C00000000000000000000000000170300006662782F636F72652E786D6C504B01021400140006080800317431404D79C7A77E0000009D0000000B000000
311
00000000000000000000A70400006662782F636E782E786D6C504B0102140014000608080031743140A6076E062B0100001402000031000000000000000000000000004E0500006662782F42354142364245392D423142302D344444332D423744332D3942373845464434364332362F636F72652E786D6C504B0102140014
311
000608080031743140C56585BC4D010000330300003000000000000000000000000000C80600006662782F42354142364245392D423142302D344444332D423744332D3942373845464434364332362F636E782E786D6C504B0102140014000608080031743140E0BAF58E9C0500007B100000340000000000000000000000
311
0000630800006662782F42354142364245392D423142302D344444332D423744332D3942373845464434364332362F6F626A656374732E786D6C504B01021400140006080000317431400000000000000000000000003500000000000000000000000000510E00006662782F42354142364245392D423142302D344444332D
311
423744332D3942373845464434364332362F76657274696365732E62696E504B0102140014000608080031743140F270F13306000000040000003600000000000000000000000000A40E00006662782F42354142364245392D423142302D344444332D423744332D3942373845464434364332362F747269616E676C65732E
311
62696E504B01021400140006080000317431400000000000000000000000003700000000000000000000000000FE0E00006662782F42354142364245392D423142302D344444332D423744332D3942373845464434364332362F617474726962757465732E62696E504B0102140014000608080031743140D5987DFC8F0000
311
00410100003600000000000000000000000000530F00006662782F42354142364245392D423142302D344444332D423744332D3942373845464434364332362F6469726563746F72792E786D6C504B0102140014000608080031743140FBBFBB8CFC000000A00100003B00000000000000000000000000361000006662782F
311
42354142364245392D423142302D344444332D423744332D3942373845464434364332362F7265736F75726365732F636F72652E786D6C504B0506000000000E000E00800400008B1100000000
310
504B03040A0000080000317431403DEE336E79000000790000001B0000006175746F6465736B2D64657369676E2D7061636B6167652E786D6C3C3F786D6C2076657273696F6E3D22312E302220656E636F64696E673D227574662D3822203F3E3C666F726D6174733E3C666F726D61743E687474703A2F2F736368656D612E
310
6175746F6465736B2E636F6D2F64657369676E2D7061636B6167652F323030393C2F666F726D61743E3C2F666F726D6174733E504B030414000608080031743140D486FD9CA0000000F4000000130000005B436F6E74656E745F54797065735D2E786D6C7D8EC10E82300C865F65E91D8A1E8C310C0EEA1BF002731658846E
310
D98AC1B77784ABF1D8FE5FBFBF75BBCE937A534CCEB38643598122B6FEE978D0B0485F9C41B54DDD7D022595594E1A469170414C76A4D9A4D207E29CF43ECE46F218070CC6BECC4078ACAA135ACF422C856C0E68EA1BF5669944DDD7BCDE7B1F8E415D77AECB980613C2E4AC91FC167A2B244592486606FC29C8FD7F045B9A
310
EF7053A7E60B504B0304140006080800317431401F46A6A4EA0000007C01000008000000636F72652E786D6C8D90416EC3201045AF82668F0DD8491C0B13396A7D825E0001715162B00C54397E70E248EDAEAB19FDF96F66F4F9E93EDDD08F5982F5AE035A1040C629AFAD1B3B48F1821B4027C117EFE32F1B202727D3C12A
310
83E0E3E2D3BC49CABB685CCCAAF3DA6CA20CC14440EA969B0E82FA36932C648AD911AEC52CD5558EA6A0EF2EC329598D5E47ACCEFBECC59A05444F3EFA33AD6A7C6E588FEBE1B8C3FD6137E0E6B8FF24A461ACA9075EAEB0E0D14EEFFB6A31321A0D8211CA30A1981EBE68DD56559B57917D4B082F57FB1F28CDFA9F50B22E
310
566C7BF7850510343FF21C085EAE59E4F20C2AD73537F100504B03041400060808003174314055019EA25F0000007C00000007000000636E782E786D6C4DCB3B0E80201045D1AD90E915ED2CF8AC45050C11660C8261F98AB1B07AC9C97D42D718D865D3E909258CFD00CCE24AC6E326A164D74DC0B4128928FF326038472B
310
A13128B1252AC747C6BAB984FC68F0B87FE8960A5C09FE86CFB69FBA01504B030414000608080031743140DF450BD666010000020300000C0000006662782F636F72652E786D6C8D52ED8E8320107C15C27F053FDA7A0DD2D8DCF509EE05A8528F54C120983EFEAD1F8DD74BD33426487676766647D9E1D6366890B65746E7
310
380A29465297A652BACEB1779720C3E8C09935C6FD69C3488B56E6782C63CE6A6B7CB7944AA39DD40EAADA5472298ABE970EA3B2814B8EFBF247B62214DE41477F0D3B515E452DC3280418FA38EB9D05036816194FCC2FE71B23739D33EF55B5A0AA02357551D2625ED0CFE218256970CCE222484F1F9BA0D86D4E41F6B1FD
310
A2348BE32C3D3132923973AABDBB2BAD144E5698C7348A031A05D1EE3B4AF749B2875174BBA79491B1FD81E4BBEA4D9257DA25F16277A6F59847606402FE6D0B1139D48B01FC10CEC81822BCA6841F838640206427CECD7D8F2B9406593A6353402AE35768108D97A04AD1F43032A330791A009B3D9D13BF98F37A067C40A1
310
6BB0261C5CCFDE8DEA6C565DA2E8A40D067743DAD85634ABB9D9E27AAE424FE9A5698C7D874D9655C9122619FF5EFE0B504B0304140006080800317431402C20751F7E0000009D0000000B0000006662782F636E782E786D6C4DCCD10A83201886E15B91FFDC952EA9408D9CEB3E625948A6C3E9D8E5AF46073BFAE0E1E3E5
310
DD6773E86DE2CB062F805C4A40C63FC264FD2220A71937803AC96308E9EF06C88F9B11703048BEC4909F274D661EB34BBB3AEBD713D95D33AA6B8A07A27A5C0DAAC17D7B6598965457A4567DAB6E50485EFC4AFB1E61F905504B0304140006080800317431408D41921A2B01000014020000310000006662782F3545443532
310
4437322D463142412D344642382D413933352D3230324434313742413942432F636F72652E786D6C8D51CB6EC23010FC95C8277A70E2174F3946A4942FE80F84C4500B62477E547C7ED74D90DA1B17AF353B333BDA95FBC7702FBEB50FC6D91AD192A042DBCEF5C65E6B94E2056F50B157D23B17FFD05061DB41D728C348C9
310
AB77699CA1CED9A86D04D4BA5ECF601B828EA8E8EEF0A951E8BEF4D0966D8AC008B7726CBB5B7BD5252DA10D3C2543F410A09886E417A9E5C771C98E6B864FB43960716A36F8B0E54BCC083B0ABA6E0EDBE65D569350C9944C3FCB4D0F71CCC568FFAA49162B19CDF08CDF79DD46DD23C5086598504CD79F54EC38DF7181C9
310
6A4788AC32FD9F288DFD8BA2646CE46C8E3BC9025254565343C9DEA5F3FD19463F46E76391E72D82EEDE90222561948B0D05C944850580E74ACC9E213A0F0B5EDCCEC0E6C0CAC62BA164956F04E5F78050F33DD50F504B030414000608080031743140A3C24AAB5401000033030000300000006662782F3545443532443732
310
2D463142412D344642382D413933352D3230324434313742413942432F636E782E786D6CBD93CD6EC32010845F0571F75F6CB9518489D4439FA0875E096C521A0C163F55F3F65D1292E69243A5AA1764CD0E33AB4F986DBF66433EC107EDEC44BBBAA504AC744ADBC34453DC576B4AB69C79E7E29D8D122B66986896296707
310
EFD25224057B914C44D5687B2CA287E092971050CE37897152180C005B251461DE8152A0C8CD885F7BF0B80A8ABB1389EF405E9EDF88DB7D808C81353985B326777096CFD27467A2441A11C244837C8759D42245A7201C6B25A2A8BBFADAF560A79F24922F5C2B93D724974F349F94978D6AE4C81A1C7216A2477AC5144F0B
310
502E96C5682922426ECEC68B87B3A46D1C87E2D508DEA3BB5F8DEB35869D679C453D4371480F2282A27CD576ABAAEDAAEEE9B51B367DBFE987AA1D376DCB9A6CE76CE79C29973006BC5B887436828D9477ACC9E347F88A8F28ED91B5F3A75F804400A5F542E796F1977CBAB11F867FE4D39CDF37E2F2F817F06F504B030414
310
00060808003174314016FFEEE35A070000941B0000340000006662782F35454435324437322D463142412D344642382D413933352D3230324434313742413942432F6F626A656374732E786D6CED595B739B3814FE2B0CFB6C6C62A78977089DC4B98CA79BB6536F3BFB9019460699682304238924DE5FBF4717301093E06D
310
F6AD0F3620A4A373BE73D521F8F89C51E71173417276E6FADEC475308BF384B0F4CC2DE56674EA3A1FC380E7B96C4C731D86327CE6AA61370C529E97851D4AF00695547646AF2FFE72448C19769D982221CE5C11DFE30C79A8947982C583972089BC74F3ECF99E99D8269B7254DC7788168863268153186740C5314CF9EDC7
310
893B0E83B17A1F06EADFCE9A0E9A35EB9F35D652B7B9244C48C4E2172C75C84C07B134F567975747C7F3D1F16C361DCD3E1CF9A38BEB8BCB917F329D2C3E2C16F3F3AB39B0B7CE736A654A70815902FADBBAA11F8CD59B5A748BC03EAEE39C311C6B20012A2D569720C102B66AC037693FFA4AA2C66B2D61E379A6DE5B161A
310
C3D33695BE59C38068D10541EC7695C4D5B5295FBEFE1B0417438C920B2C815B213968D7C2C3C12BDC70128CCD6818AC77BA20C2C990C49C20EA50B2E688835260AA9A1206668125A39C8303294749A035675EB76D0B3CF36DD7D9C7E5A6A45479861B6AC78AC0FDB0149A33F20FE63BEE9BC8004F206D49983CB55CCA6D81
310
DD701E8CF56018A8CBF4C8BE34403A1B8A52A111316F3B822E94EB2F2FDDF0D3F5FA79A5C2C1FECD0B9E17984B65744A8F9A2F30647B5528D96DFD419A530B401803AA5DB903E51B20FF19A2C78E15D01B27CFB3E7999D2B39626293F30C74E34C9CD104FE268EAFFFD57DE32E18D78BDBDAEBC313DC544175FAF378B665D0
310
5859FE1B7086C123187CCEA7F6D52A4614ECF996300048198943731882D0BE593FBBE1120227047A588568E883C8C0EE23DC06634B66A795CABDACD73140D4EE311DA224804D5B24B0D1A3A71BC81E9CC43B353545EC83F7F85DCCF5FC72F56955F20D8AF1ADF5E94BBC218C48C89AFB196A61DE92E8016F9F729E80A02FF1
310
5E35F1CEEC5602D056982BE0D30A04F5B0DBB9B5410CEBD25C859BE08D1D400895AB1BF46F898831A588E1BCACF6ADA39B32D4DAE36DCDE0864706E2E951C784397E24AAAA00A7D9CD68310A793FE6A45020BAE18D91AC0E9A5E8F74DF979FC122EBF93DB3960C422F43F44F1DB4F6E0D0B2EC0A690B442DF07A17CEE39CE6
310
3C5A6F2313E95CA825808DB6B7FC681185586F94A4A8800769BFAB424A6AA48D12B2D99402E2EA1E167F2C174D73987853FFD869FE779C7106D1167C1771EB779D3D2292A114471B94F46DD7DCADA62D34C91ED21C6F28C8451E89DC4648469304A787407310F1F9BB524F692E04615840BEDA0B7E138D890781C468B36259
310
69B5033411518625A28720A0C8F480ABD38EAE7163281DDEE6B1B6DED734D624FA3F590447504BE62C22508A420E799371DF3B8618D246D7A0DCC117ACADA2ADC5A0259410F1367AC224BD9787A06EC8F7E01EC391A494515EA018CC7A00D917BEA294DAE17D8DE207953FA2B8A4EF652002D34D44282DB3087E84C1C96388
310
6BD781E955141AC44DEC933883A20CC9920FD9E4C3F1E4C53EA666E886C0C6461B42216C47192A7A506F05445D8F3835F8967A8F52D765564428CB4B36C850BC69D79B2CF9AE5A15D981FCAA5211CAC68AB025180684C93AAB56311B4C5D075670231DA8B691405941CD29EC8DC4E3D7DEA429F76EC0AD9FBEEF0619147E3D
310
DA6B46D4590583E5B15518882724E37B375CE9EBE802EAEF0427BB545FD59ACD0A10105391BCE4C4AAE8FB12CA1B5BA3B9E12D92E2EEC664DDEAFA7DE941F72318C31AA85DEA854B0574869944AA32B95537F41B8210DCA261C6972AA71E42E53C4974D588E835E95367AB8C686D9A11AFB8C72CCFE0C7EE088B6999E03B94
310
8887E856D2684514EB564A2F2315C6AF0AF8E566D58107460688F4551578F8A9B3D68E2E54B9B49788BC2FB335430482604BB4D4E8C62B586A355269B9BEAA3305D45D606056C5B35F278B663BE2D7C922B586F153278B8BED1F68DBEC8B34D279ACECFAA063409D9F1495F73806E8B6434DB5CE2226995BF9AD33451014AB
310
283FB81AAB828621D8C7F17FCEDA7D59D06CD7E1FFB0ACEDBFA8380ECA2AADC9AA4BB5A7725D3673D8FCE4E2DABF3A8106EDC43F1ECD264717A3F9E5E964343DBF3A3DB93E9D5E4FE78B1A4DEDA8615007339DBBE0D904B56A583D590CA02B2B724A1238CD274E8A21E64B38D30F689FF30C0B489ECD6677629BF203563F9A
310
3EA7446B8A2B4EEE113488A980B40E1895B16C8F3BBF416B52C241FBCC85A691F7007FD62A5D0732CF990BAD0249622CBC35B49954434F138794AB73BF2506F82096AA946816D5CFF52A854D2BFCD75386A4012B57AB8701855B01DDAF568742F366798A0F12BC62C741126ED7A5846ACDC8B21BA885D1DBECD46F64A3843D
310
D8AD9FC1755F17CBF7F49C1622833E19BC6A0486EA48229EEA7EB762CCB2747EF9750C7D3667F9C5296899822E87531A710CC65CAA820AAC08ACC2D22C9004535DFC7EF795E7F0892773745574B7C8B32C67F6E11CCE63097C227256F7F0C127B983B201ABB6BAB83B9AF84777BA9D6D3BECD11A09ECA97A0806AA324289D0
310
3136B0C817AD29DBB81C2B2574A62F2F1D1B3EA10D602CE84577D77CDE72C07BD48714E52BDAC32B395FED688FF554B0060EBDE8F05F504B030414000608000031743140000000000000000000000000350000006662782F35454435324437322D463142412D344642382D413933352D3230324434313742413942432F7665
310
7274696365732E62696E504B030414000608080031743140F270F1330600000004000000360000006662782F35454435324437322D463142412D344642382D413933352D3230324434313742413942432F747269616E676C65732E62696E636660600000504B03041400060800003174314000000000000000000000000037
310
0000006662782F35454435324437322D463142412D344642382D413933352D3230324434313742413942432F617474726962757465732E62696E504B030414000608080031743140D5987DFC8F00000041010000360000006662782F35454435324437322D463142412D344642382D413933352D3230324434313742413942
310
432F6469726563746F72792E786D6C858F410EC2201045AF4266AF15DDB800BA74E7C21B903225242D6328188F2FA5C4183471359997F9FF81E89FF3C41E1816475E02DF1F80A11FC8386F25A438EECEC07A250251FC3803E6F58C12560C4AD840E95E91C151A72936F496F35732D860FE635F62C8F2DA16B505C545B74125
310
BAA2FA9E05D7CC053D063734D5C7665FD55B6B8D15D5E9BFEAFD8490FFA45E504B030414000608080031743140C0286C1CFC000000A00100003B0000006662782F35454435324437322D463142412D344642382D413933352D3230324434313742413942432F7265736F75726365732F636F72652E786D6C8D504B6E833010
310
BD0A9ABDC1069210641C11B59CA017B0CC84580936F2A7EAF16B0295DA5D3733A3F7D13C3D7EF99A9FD9273AAFADE980E5143234CA8EDA4C1DC470230D6417C19DB5E1970C322367EC608541F0C9D9B8EC90B226A009093576C41D94DE63804C3DD3D18157779C652E63480AFFC817A91E72C29CE5894E3AC17D702940B63D
310
59270887DE46A7D0F36263058F518FBB468FE9A7BE6974207AFAD65F5955916B53F6A41ECE07D29F0E0369CEC7774A9BB26CEA8117AB59F0A0E79F8CCAA10C388228292B0965849D3E58DD56555BD5841E5B4A79B1CAFF98E232FED314B50955B9C7DD6C1E044B415E84E0C5DA575AAF32D35EBB15DF504B010214000A0000
310
080000317431403DEE336E79000000790000001B00000000000000000000000000000000006175746F6465736B2D64657369676E2D7061636B6167652E786D6C504B0102140014000608080031743140D486FD9CA0000000F40000001300000000000000000000000000B20000005B436F6E74656E745F54797065735D2E78
310
6D6C504B01021400140006080800317431401F46A6A4EA0000007C010000080000000000000000000000000083010000636F72652E786D6C504B010214001400060808003174314055019EA25F0000007C000000070000000000000000000000000093020000636E782E786D6C504B0102140014000608080031743140DF45
310
0BD666010000020300000C00000000000000000000000000170300006662782F636F72652E786D6C504B01021400140006080800317431402C20751F7E0000009D0000000B00000000000000000000000000A70400006662782F636E782E786D6C504B01021400140006080800317431408D41921A2B010000140200003100
310
0000000000000000000000004E0500006662782F35454435324437322D463142412D344642382D413933352D3230324434313742413942432F636F72652E786D6C504B0102140014000608080031743140A3C24AAB54010000330300003000000000000000000000000000C80600006662782F35454435324437322D463142
310
412D344642382D413933352D3230324434313742413942432F636E782E786D6C504B010214001400060808003174314016FFEEE35A070000941B000034000000000000000000000000006A0800006662782F35454435324437322D463142412D344642382D413933352D3230324434313742413942432F6F626A656374732E
310
786D6C504B01021400140006080000317431400000000000000000000000003500000000000000000000000000161000006662782F35454435324437322D463142412D344642382D413933352D3230324434313742413942432F76657274696365732E62696E504B0102140014000608080031743140F270F1330600000004
310
0000003600000000000000000000000000691000006662782F35454435324437322D463142412D344642382D413933352D3230324434313742413942432F747269616E676C65732E62696E504B01021400140006080000317431400000000000000000000000003700000000000000000000000000C31000006662782F3545
310
4435324437322D463142412D344642382D413933352D3230324434313742413942432F617474726962757465732E62696E504B0102140014000608080031743140D5987DFC8F000000410100003600000000000000000000000000181100006662782F35454435324437322D463142412D344642382D413933352D32303244
310
34313742413942432F6469726563746F72792E786D6C504B0102140014000608080031743140C0286C1CFC000000A00100003B00000000000000000000000000FB1100006662782F35454435324437322D463142412D344642382D413933352D3230324434313742413942432F7265736F75726365732F636F72652E786D6C
310
504B0506000000000E000E0080040000501300000000
  0
XRECORD
  5
17
102
{ACAD_REACTORS
330
12
102
}
330
12
100
AcDbXrecord
280
     1
270
     1
271
     1
  0
XRECORD
  5
16
102
{ACAD_REACTORS
330
12
102
}
330
12
100
AcDbXrecord
280
     1
270
     1
271
     1
  0
XRECORD
  5
18
102
{ACAD_REACTORS
330
12
102
}
330
12
100
AcDbXrecord
280
     1
270
     1
271
     1
  0
XRECORD
  5
15
102
{ACAD_REACTORS
330
12
102
}
330
12
100
AcDbXrecord
280
     1
270
     1
271
     1
  0
XRECORD
  5
C52
102
{ACAD_REACTORS
330
22
102
}
330
22
100
AcDbXrecord
280
     1
102
MATERIAL
148
0.0
149
0.0
149
0.0
 93
        0
 94
      127
282
     0
 72
     0
 77
     0
171
     0
175
     0
179
     0
273
     0
  0
XRECORD
  5
24
102
{ACAD_REACTORS
330
22
102
}
330
22
100
AcDbXrecord
280
     1
270
     1
271
     1
  0
XRECORD
  5
23
102
{ACAD_REACTORS
330
22
102
}
330
22
100
AcDbXrecord
280
     1
270
     1
271
     1
  0
XRECORD
  5
BA
102
{ACAD_REACTORS
330
22
102
}
330
22
100
AcDbXrecord
280
     1
 70
     1
 90
1959938040
 71
     1
  1
EA005E42-6CCF-4B88-9D34-34FC833C81A8
311
504B03040A0000080000307431403DEE336E79000000790000001B0000006175746F6465736B2D64657369676E2D7061636B6167652E786D6C3C3F786D6C2076657273696F6E3D22312E302220656E636F64696E673D227574662D3822203F3E3C666F726D6174733E3C666F726D61743E687474703A2F2F736368656D612E
311
6175746F6465736B2E636F6D2F64657369676E2D7061636B6167652F323030393C2F666F726D61743E3C2F666F726D6174733E504B030414000608080030743140D486FD9CA0000000F4000000130000005B436F6E74656E745F54797065735D2E786D6C7D8EC10E82300C865F65E91D8A1E8C310C0EEA1BF002731658846E
311
D98AC1B77784ABF1D8FE5FBFBF75BBCE937A534CCEB38643598122B6FEE978D0B0485F9C41B54DDD7D022595594E1A469170414C76A4D9A4D207E29CF43ECE46F218070CC6BECC4078ACAA135ACF422C856C0E68EA1BF5669944DDD7BCDE7B1F8E415D77AECB980613C2E4AC91FC167A2B244592486606FC29C8FD7F045B9A
311
EF7053A7E60B504B030414000608080030743140E70D7183E90000007C01000008000000636F72652E786D6C8D90618E83201085AF42E63F0A6A5B6D90C6ADF104BD00016A492B1881CD1E7FB1B549F7DF26243379BC6F66F2D8E9677AA06FBD78E36C0B342380B4954E193BB610C315D7804E9C2DCE850F1B202B26DDC22A
311
0367E3E2E2BC49D2D9A06D48AA754A6FA2F05E0740F2919A16BCBCE949642286E4F0F76C16F22E469DD17797E0188D42AF2546A579E66AF402FC7CE886332D4A5CD64383AB7D3FE08E108A49D5EC765F55DF7475CFF215E62C98E9BD5F2E5A04AD8017841638F9E9E142AB6359A687C9FE4808CB57FB1F28CEEA9F50343694
311
C576EE0BF3C0693AE4F9C159BE6691CA33A854D7DCF82F504B03041400060808003074314055019EA25F0000007C00000007000000636E782E786D6C4DCB3B0E80201045D1AD90E915ED2CF8AC45050C11660C8261F98AB1B07AC9C97D42D718D865D3E909258CFD00CCE24AC6E326A164D74DC0B4128928FF326038472BA1
311
3128B1252AC747C6BAB984FC68F0B87FE8960A5C09FE86CFB69FBA01504B0304140006080800307431405F8BD4A964010000020300000C0000006662782F636F72652E786D6C8D52ED8E8230107C95A6FFA12DE0674A8DA7F109EE052A548E082DE907F1F16FF9309E17630C049A9D9D9DD901BEBBB50DEA9575B5D1396631
311
C548E9C294B5AE721CFC255A63B413DC1AE3FFB461A465AB723C94B1E09535A19B4B85D15E690F556D4A3517A573CA63543470C8B12B7E542B63193C74B86BDCC9E22A2B15B31860E813DC790B06D024323CB1B89C6F9C4C75C143A8CB19AD4B50AB2FB5B2581C56FBD381256994AE4F9B285B1E4FD19E5216D16CB3587C65
311
C7CD7E7DE464200BEEEBF6EEAEB04A7A556291509644D0CF56DF2CDBA629DC115D6E29E564687F2285AEFC90146AEDD364B63BD11C160C8C8CC0BF6D21228F9CECC10F119C0C21C26B4CF83968080442F6F2DCDCF7B842A95785373603A434E101F5B2090A54291A2F4E2614268F0360B39773923773DECF800F287505D6A4
311
87E339F8419D4FAA73149DB251EF6F481BDBCAE6616EB2F8783E845ED20BD318FB099BCCAB92394C32FCBDE217504B030414000608080030743140015265367E0000009D0000000B0000006662782F636E782E786D6C4DCCD10A83201886E15B91FFDC55ACE51FA821A5F711CB22663A9C8E5DFE6A74B0A30F1E3E5EDE7D36
311
47DE36BED6E00554971288F5F730AD7E1190D34C114827790C21FDDD80F871B3020E06C99718F2F3A4C9CE63766957B7FAC7898D1EDA12F146593D185A2B44AAD8555364C6A8A6ED2BDD2B28242F7EA57D8FB0FC02504B03041400060808003074314091BEB17E2B01000013020000310000006662782F3645443930383835
311
2D373444462D344138382D413733452D3837464641363943314543412F636F72652E786D6C8D51DB8E832014FC15C353F70105B56A1BA431BD7CC1FE8015EA9256305C36FDFC3DAC36D97D6B42386498993370D8E1393D926F699D32BA45342528917A3042E9B145C1DF7083920367D618FF878612DD4FB24511469C8DD684
311
798506A3BDD41E506D845CC1DE39E951323CE0D022377CC9A94FFBE081E1EEE9DC0FF77E94294DE11A789C396F2140B234893BE2D5F9B4234DB3C57579BAE0B26B1ADCD5C51937F5E5D255BB233D1F3B962D42CE425062952B0171D44D49FBAE491473E6D5F48A3F58D97B2910CF09CD31A198D69FB4DC17052C4CAA3D212C
311
8BF47FA2308B374541695FE46BDC45E610A72C5B2E3813265C1FAF30F2391BEB93D86FE3E4F0813849494EAAB2DCB26C61C2FBC1B22A574BE78D85FFDDDCAF40A6C08ABE55C959164704E5777E50E338F90F504B030414000608080030743140830868334C01000033030000300000006662782F36454439303838352D3734
311
44462D344138382D413733452D3837464641363943314543412F636E782E786D6CD593CD6EC32010845F0571F70F8995561126520F7D821E7AC5B049693058FC54CDDB7749489A4B0E3D56B290353BCCAC3ED97CF73D5BF205211AEF46CADA9E1270CA6BE30E23CD69DF3C53B2133C789FEE6C943839C3488B4C053F049F97
311
2A69D8CB6C13AAD6B8631503449F83828872B949AC57D26200B826A308F3045A83263723BEED21E02A284E27923E80BCBEBC133F7D824A91772545F0AE74085ECEDA7467A2445919E348A3FA8059B63227AF211E5B2D936C597BED7AB0D36F122917AE95391852CA475A4E2AEA462D72E41D0E058F2920BD6A4AA705A890CB
311
628D9209217767E3C52378362E6D86EA35083EA09B6DD6C38061E799E0C9CC501D2A804CA0A958F56CD5F4AC614F6F6CD8AED7F834FD66DBF7BC2B76C127EF6DBD843110FC429477095CA282F1AE8C1FE1AB3EA24D40D63E9CFE001201D4D60B9D5BC67FE6D39DBF6FC415F02F103F504B030414000608080030743140BFAC
311
B0969A0500007A100000340000006662782F36454439303838352D373444462D344138382D413733452D3837464641363943314543412F6F626A656374732E786D6CAD57DB6EDB3810FD1541FBEC8B6CA7EB2C14158E9D14C6226D51A3C53E0430288952B8A14481A45267BF7E0F25EAE6DAA977D117CBA286C39933672EF4
311
DF1F32EEBC50A998C86F5C6F3C751D9A472266797AE3963A192D5DE77DE04B21744FCC757292D11BD72CBB819F4A51167629A60929B93E5ABDBFFDCB5111CDA9EB449C2875E3AAE88966644C4A2D62AA9EC731D1649C2687B137AE05876A53498AA723A5059134D7B014EB39B438B551DEF075EA4E027F62BE07BEF9B552F3
311
F35293CA9FE1F92C579AE4D10F871DA9997B8BCDDDECEA7A74B558CC478B77336F747B7FBB1979BFCFA7EB77EBF5F5EAEE1A072B2DA1C95A2269E2061F808D64913FA93F057EC9723D9F59111BA089A42FCC44CA0D668EE74F6A99D63BEBE429F32391E734AAB0021A957F56754C0B9AC78839A30A96F5109A0E5F3D8363EF
311
F3DCBCDB23FBCB9721D0DFD153D4D8DE3CFB968AF06FB8A02E619054D430B0C6D23A5A7375DA211C0AC1ED37A69C8C682A19E10E67A124F2D50D206A44027FA0C630599A6C301EB801A2507F1ED20569F4739E9FB2322939373476832A0BF6C815AA556519FB87CACEFA3E32B009B1326C585A87F46B41DDE0BAA6C8F2884D
311
35904EC2498A90C34DB3733E3B72746DF274BB71833FEFC3C3CEE4EEE9C30B290A2AB5A10FA8D504AE791A94AC4DDE4591331BDC23533A50BE00F98F48F5CE14C44DB2C3E2B0B0A76849729508992136CED4194DF13375BCEAD7FCEFFDF327EDE661F4CEE189601BA87E019E431FFAB1ECC119F82F20BC9073EBDA2E221C65
311
E381E500C890C4E1024BA8C3497870832DAA1CAA3276111E787019E6BEE0AF3FB16A5028AA937ACF1C581E95C50B0A3460AB1809336AF25B03BB38FD50CEAA83ADD83978AF7E095D579BDD9FBB522624A20F36A737346139D368711D6FFA060D301F78F44C5FBF0B19C3D11FF1DEF5F1CEEC510A681BCC0DF06953D3CD4B77
311
F2E08008FB5261CA8DFF9313E08469AC3DFD0F4C45947392535136E7BED93FD0366A884DB21B26B70DA66B2C204DFDE52807D1A423C90A0362DBADDAA2393EE3DDD7ED473012F25C8484774261577A23C185DC87AFFBBA2A9D44FADB90DA168289D102B65739D2A4BFC57C1FB32429156AE00958BF6DD7FDD099AA800AD168
311
AD936501F7915B445ACE367AD1AC25412315F99EA16D22ED4E1ED0D70F442D012A85E72C5694277BC67999ED13C6D18CF61929CEC0F1FFED0FCBACD8934C94B93EA37B603A9AC3D0F60179D577A2A32737D855CFD12D4A6F4CE32ECC0361D34A4E603508EDDD6A3ABDBA5BCC461895EE478BDBE57274BD992F46F3C5FD7A39
311
9FAF97DE6AD9C4A9561EF84DA7E92734A284CEE69792D9F07DDD227D6C0D708307A2D5E3873A3B9BE7D7ED18A3B03FC11EB4CB76E32A7EC1D847E39F2BE8244F2ADA6605A719CD353129F460FEF02F0463C6C0987A7D9B91945EA0E5D387DD913358B960DF6793EEF4FBD15EBBBA36097952897E2AB330278C1F6D4C6B24C7
311
459E5AFC9A98B4CFBACF34AFE6CD060683A9129CC52883B1935291518D6278410F921955A05E7FA48FEDD5E382DD2FF580A849C86963C913C18CCC15D202D42A233D5C777EC34C67C6AA1B17DD76FC8C1F5B295C079CB97131A36B1651350ED19FCD2454290797FA833CE67E92A71CA376BDA97D6F77196C061DB915B9647C
311
B27ED515DC3A803252606CC03C84E854C6047E659BFD1EFD27C71B731CA2F1372C75EB4BB7D03A531D8314AD9DB29705CC30CFF6E80312F56DB7BC71253340E4A24BD69B24A8B58E349169755130F65993569BCF130C28CEF69353F032452C2FD7349214642E4D8283456085D559100DAAAEFF78FC2C052EB29973CF4081C7
311
B5C83291DB9795BD083BBB275C6BE34794056AEE23EA7136F5668FD53DC05E4DF62151744C62F58C05C454B216E241E0C1C8FAB2880E547F68E526260847DCDC6E1CDBD216506A89D2AFAA06164C1C3975903DE62E6972A52F50BC79159854A2304162880FFE05504B03041400060800003074314000000000000000000000
311
0000350000006662782F36454439303838352D373444462D344138382D413733452D3837464641363943314543412F76657274696365732E62696E504B030414000608080030743140F270F1330600000004000000360000006662782F36454439303838352D373444462D344138382D413733452D38374646413639433145
311
43412F747269616E676C65732E62696E636660600000504B030414000608000030743140000000000000000000000000370000006662782F36454439303838352D373444462D344138382D413733452D3837464641363943314543412F617474726962757465732E62696E504B030414000608080030743140D5987DFC8F00
311
000041010000360000006662782F36454439303838352D373444462D344138382D413733452D3837464641363943314543412F6469726563746F72792E786D6C858F410EC2201045AF4266AF15DDB800BA74E7C21B903225242D6328188F2FA5C4183471359997F9FF81E89FF3C41E1816475E02DF1F80A11FC8386F25A438
311
EECEC07A250251FC3803E6F58C12560C4AD840E95E91C151A72936F496F35732D860FE635F62C8F2DA16B505C545B74125BAA2FA9E05D7CC053D063734D5C7665FD55B6B8D15D5E9BFEAFD8490FFA45E504B030414000608080030743140F4A65F1BFC000000A00100003B0000006662782F36454439303838352D37344446
311
2D344138382D413733452D3837464641363943314543412F7265736F75726365732F636F72652E786D6C8D505B6E833010BC0ADA7F830D2481C838A24139412F60990DB5126CE447D5E3D7042AB57F952CEF6A1EDAD1F0CBD7FCCC3ED1796D4D072CA790A15176D466EA20863B6920BB08EEAC0DBF6490193963072B0C824F
311
CEC665879435014D48A8B123EEA0F41E0364EA99960EBCFAC059E63286A4F08F7C91EA2127CC599EE8A413DC07970264DB91F507E1D0DBE8147A5E6CACE031EA71D7E831DDD4778D0EC4F5D4DFAEAC2C49D5DC5A521F871BE9296584D6EDE1F0560F6DDF0CBC58CD82073DFF64540E65C01144495949929E9DDE597DAEAAF4
311
083D9E29E5C52AFF638ACBF84F53D42654E51E77B379102C05791182176B5F69BCCA4C73ED567C03504B010214000A0000080000307431403DEE336E79000000790000001B00000000000000000000000000000000006175746F6465736B2D64657369676E2D7061636B6167652E786D6C504B010214001400060808003074
311
3140D486FD9CA0000000F40000001300000000000000000000000000B20000005B436F6E74656E745F54797065735D2E786D6C504B0102140014000608080030743140E70D7183E90000007C010000080000000000000000000000000083010000636F72652E786D6C504B010214001400060808003074314055019EA25F00
311
00007C000000070000000000000000000000000092020000636E782E786D6C504B01021400140006080800307431405F8BD4A964010000020300000C00000000000000000000000000160300006662782F636F72652E786D6C504B0102140014000608080030743140015265367E0000009D0000000B000000000000000000
311
00000000A40400006662782F636E782E786D6C504B010214001400060808003074314091BEB17E2B0100001302000031000000000000000000000000004B0500006662782F36454439303838352D373444462D344138382D413733452D3837464641363943314543412F636F72652E786D6C504B0102140014000608080030
311
743140830868334C010000330300003000000000000000000000000000C50600006662782F36454439303838352D373444462D344138382D413733452D3837464641363943314543412F636E782E786D6C504B0102140014000608080030743140BFACB0969A0500007A10000034000000000000000000000000005F080000
311
6662782F36454439303838352D373444462D344138382D413733452D3837464641363943314543412F6F626A656374732E786D6C504B010214001400060800003074314000000000000000000000000035000000000000000000000000004B0E00006662782F36454439303838352D373444462D344138382D413733452D38
311
37464641363943314543412F76657274696365732E62696E504B0102140014000608080030743140F270F133060000000400000036000000000000000000000000009E0E00006662782F36454439303838352D373444462D344138382D413733452D3837464641363943314543412F747269616E676C65732E62696E504B01
311
021400140006080000307431400000000000000000000000003700000000000000000000000000F80E00006662782F36454439303838352D373444462D344138382D413733452D3837464641363943314543412F617474726962757465732E62696E504B0102140014000608080030743140D5987DFC8F0000004101000036
311
000000000000000000000000004D0F00006662782F36454439303838352D373444462D344138382D413733452D3837464641363943314543412F6469726563746F72792E786D6C504B0102140014000608080030743140F4A65F1BFC000000A00100003B00000000000000000000000000301000006662782F364544393038
311
38352D373444462D344138382D413733452D3837464641363943314543412F7265736F75726365732F636F72652E786D6C504B0506000000000E000E0080040000851100000000
310
504B03040A0000080000307431403DEE336E79000000790000001B0000006175746F6465736B2D64657369676E2D7061636B6167652E786D6C3C3F786D6C2076657273696F6E3D22312E302220656E636F64696E673D227574662D3822203F3E3C666F726D6174733E3C666F726D61743E687474703A2F2F736368656D612E
310
6175746F6465736B2E636F6D2F64657369676E2D7061636B6167652F323030393C2F666F726D61743E3C2F666F726D6174733E504B030414000608080030743140D486FD9CA0000000F4000000130000005B436F6E74656E745F54797065735D2E786D6C7D8EC10E82300C865F65E91D8A1E8C310C0EEA1BF002731658846E
310
D98AC1B77784ABF1D8FE5FBFBF75BBCE937A534CCEB38643598122B6FEE978D0B0485F9C41B54DDD7D022595594E1A469170414C76A4D9A4D207E29CF43ECE46F218070CC6BECC4078ACAA135ACF422C856C0E68EA1BF5669944DDD7BCDE7B1F8E415D77AECB980613C2E4AC91FC167A2B244592486606FC29C8FD7F045B9A
310
EF7053A7E60B504B030414000608080030743140C1B1D15EE70000007C01000008000000636F72652E786D6C8D905D6EC3201084AF82F61D07B0FB930813B96972825E00C1C64589C13250F5F885C491DAB74A48BB1AE6DB5D8DDC7F4F57F2854B74C1F7C01B0604BD09D6F9B1879CCEF415C85EC92584F4CB06C4EB097BA8
310
3228392E21CFAB64824FE853517DB0B88A3A464C40CCB5343D44F389936E744EC5112FCDACCD458FD8F04757E09C9D25F725CE9679EEEC7001D51DB74288774187526977E207BA3D0E4FF43074ED490C6FC39631B9A9B092C94D8FFD66419DD082128C0BCA38E52F1FBCDBB56D79943DEF2A54ED7FA03CDB7F42D9F9D48AF5
310
DC3B1641F172C8ED43C94DCDA2945B50A5D6DCD40F504B03041400060808003074314055019EA25F0000007C00000007000000636E782E786D6C4DCB3B0E80201045D1AD90E915ED2CF8AC45050C11660C8261F98AB1B07AC9C97D42D718D865D3E909258CFD00CCE24AC6E326A164D74DC0B4128928FF326038472BA13128
310
B1252AC747C6BAB984FC68F0B87FE8960A5C09FE86CFB69FBA01504B0304140006080800307431404F379A6563010000020300000C0000006662782F636F72652E786D6C8D525B6E833010BC8AE57F6330F491C838A26972825EC00187A2808DFC40397E97474453455165645BBB3B3BB363F8EEDAB56850D63546E7388962
310
8C942E4DD5E83AC7C19FC93B463BC1AD31FE5719465A762AC763180B5E5B13FA25541AED95F610D5A6524B503AA73C46650B971CBBF25B753292C14385BB44BD2C2FB2565112411AEA0477DE820034938C3B16E7D395D3392E78084DB5649B0AD89A73A32C16D961C318FB64A4809364C7644F3687E285EC8B2C3DB2E2A3D8
310
C431A7235870DF743775A555D2AB0A0B16278CC40949DEBE926C9BA6F091F8753B82C6F23B50E8AB7F8242A37DCA16B933CC6191809029F1675AB0C8232707D04305A7A389704C0EDF1B0D8680C95E9EDADB1C17080DAAF4C66690A94C5853836C8302D6184D8BD3390B9DA70630D9C33EEC499FE73DE001A5AE419AF4703D
310
053FB2F39975B1A257960CFE8AB4B19D6C5771B3C4755F891EC24BD31AFB1F345D46A58B9974FC7BC50F504B0304140006080800307431402B8A48A57E0000009D0000000B0000006662782F636E782E786D6C4DCCD10A83201886E15B91FFDCF567AB16A851D985C4B290990EA76397BF1A1DECE883878F97B79FCD92B70E
310
2FE39D80FC8240B4BBFBD9B855408A0BBD0169250FDEC7BF1B10376D5AC0C120F91A7C7A9E34EB654A36EE6A8D7B9C8845CF9842A4356305BDE6E3403B1C4A5AA97A64555736AAE921933CFB95F63DC2F20B504B0304140006080800307431406B89115A2901000014020000310000006662782F30334232324430302D3732
310
32332D343145432D413043352D3644374532364135394439422F636F72652E786D6C8D51D96EC32010FC15C453FA80CDE138873051AE3FE80F3836495162B038AA7C7E97DA91DAB7488845BB33B3C3AEDC3D8707FAD63E18671BCC0A8A91B69DEB8DBD3538C52B5963B453D23B17FFC030B2EDA01B9CD358C99B77699C539D
310
B351DB0859EB7A3D27DB1074C4A87BC0A3C1A1FBD2435BB4290222DC8BB1EDEEED4D17AC8032E0940CD183013435C93756541C383F514A569C0B52B1F391ECE97149EAD3EACCEBFD7273DA1C643911954CC9F433DDF460C75C8DF6EF8A64B292D10C2FFB9DD76DD43D569C324E28236CF5C9AAAD107008ADB794CA32C3FF91
310
D2D8BF494AC646C167BB132D60C564391594EC5DBA3C5E66F473743EA2DC6F1174F701BF2A2817A2A24CC87282C20040B3AE66CD109D87012FEE17408B59B8AE942CF38E20FC2E1062DEA7FA01504B030414000608080030743140E5AFA7245401000033030000300000006662782F30334232324430302D373232332D3431
310
45432D413043352D3644374532364135394439422F636E782E786D6CBD93CD6AC33010845F45E8EEBFD8B821C80AF4D027E8A15745DAA46A64C9E8A7346FDF55A2A4B9E450280523CCEC6866F9B0D9F66B36E4137CD0CE4EB4AB5B4AC04AA7B43D4C34C57DB5A664CB99772EDED928B162868966997276F02E2D4552B017C9
310
44548DB6C7227A082E790901E57C93182785C100B0554211E61D28058ADC8CF8B6078FABA0B83B91F80EE4E5F98DB8DD07C818589353386B720767F92C4D77264AA411214C34C87798452D52740AC2B156228ABAABAF5D0F76FA4922F9C2B532794D72F944F34979D9A8468EACC12167217AA4574CF1B400E562598C962222
310
E4E66CBC78384BDAC671285E8DE03DBAFBD5B85E63D879C659D4331487F4202228CA576DB7AADAAEEA9E5EBB61D3F7F854EDB8695BD6643B673BE74CB98431E0DD42A4B3116CA4BC634D1E3FC2577C44698FAC9D3FFD02240228AD173AB78CBFE4D38DFD30FC239FE6FC7D232E8F7F01FF06504B0304140006080800307431
310
405B1990BE57070000931B0000340000006662782F30334232324430302D373232332D343145432D413043352D3644374532364135394439422F6F626A656374732E786D6CED595B6FA33814FE2B887D0E09493ADBAE28A336BD281A756634D919ED4324E48043BC3506D9A697FDF57B7C81000D2DD9E9BECD430218FBF89C
310
EF5C7D083E3E65D479C05C909C9DBBBE37711DCCE23C212C3D774BB91D9DBACEC730E0792E1BD35C87A10C9FBB6AD80D8394E765618712BC4525959DD19BCBBF1C1163865D27A648887357C43B9C210F95324FB0B8F7122491976E9F3CDF3313DB64538E8A5D87688138661238857106541CC394DF7E9CB8E33018ABF761A0
310
FEEDACD9A059F3FE59632D759B4BC284442C7EC15287CC6C104B337F7E753D3D391B9DCCE7B3D1FCC3D41F5DDE5C5E8DFCDF6793C587C5E2ECE2FA0CD8DBE439B53225B8C02C01FD3DBBA11F8CD59B5A748BC021AEE39C311C6B20012A2D569720C102B66AC037693FFA4AA2C66B2D61E379AEDE5B161AC3B33695BE59C380
310
68D10541EC7695C4D5B5295FBEF91B0417438C920B2C815B213968D7C2C3C12BDC70128CCD68186CF6BA20C2C990C49C20EA50B2E188835260AA9A1206668125A39C8303294749A035675EB76D0B3CF36DD739C4E5B6A45479861B6AC78AC0FDB0149A33F20FE67BEE9BC8004F206D49983CB55CCAE702BBE15930D68361A0
310
2EB3A97D698074B614A5422362DE76045D28D75F5EB9E1A79BCDD34A8583C39B173C2F3097CAE8941E355F60C8F6AA50B2DBFA8334A71680300654BB720FCA3740FE33448F3D2BA0374E9EE64F733B5772C4C436E719E8C69938A309FC4D1C5FFFABFBC65D30AE17B7B5D78727B8A982EAF4E7F16CCBA0B1B2FC37E00C8307
310
30F89CCFECAB558C28D8F31D610090321287E63004A17DBB7972C325044E08F4B00AD1D0079181DD07B80DC696CC5E2B957B59AF6380A8DD63364449009BB64860A3474FB7903D3889F76A6A8AD807EFC9BB98EBC5D5EAD3AAE45B14E33BEBD357784B189190350F33D4C2BC25D13D7E7ECC790282BEC47BD5C43BB35B0940
310
5B61AE804F2B10D4C37EE7D60631AC4B73156E823776002154AE6ED0BF2322C6942286F3B2DAB78E6ECA506B8FB735831B4E0DC4B369C784397E20AAAA00A7D9CF68310A793FE6A45020BAE1AD91AC0E9A5E8F74DF979FC122EBF93DB3960C422F43F44F1DB40EE0D0B2EC0A690B442DF0661FCEE39CE63CDA3C4726D2B950
310
4B001B6D6FF9D1220AB1DE284951010FD27E578594D4481B2564BB2D05C4D5032CFE582E9AE630F166FE89D3FCEF38E31CA22DF82EE2D6EF3A7B442443298EB628E9DBAEB95B4D5B68923DA439DE52908B3C10F91C21194D129C1E03CD51C4CFDE957A4A732108C302F2D541F09B684C3C0824469B15CB4AAB1DA08988322C
310
113D060145A6075C9D76748D1B43E9F0368FB5F5BEA6B126D1FFC92238825A32671181521472C89B8CFBDE09C49036BA06E50EBE606D156D2D062DA184889FA3474CD29D3C067543BE07F7188E24A58CF202C560D603C8BEF015A5D40EEF1B14DFABFC11C5257D2F0311986E2342699945F0230C4E1E435CBB0E4CAFA2D020
310
6E629FC419146548967CC8261F4E262FF631354337043636DA120A613BCA50D1837A2B20EA7AC4A9C1B7D47B94BA29B32242595EB24186E2CDBADE64C977D5AAC80EE457958A503656842DC130204CD659B58AD960EA3AB0821BE940F51C099415D49CC2DE483C7EED4D9A72EF06DCFAE9FB6E9041E1D7A3BD66449D573058
310
1E5B8581784432DEB9E14A5F4797507F2738D9A7FAAAD66C568080988AE425275645DF9750DED81ACD0DEF9014EB5B9375ABEBF7A507DD8F600C6BA076A9172E15D0196612A9CAE44EDDD06F0842708B86195FAA9C7A0C958B24D15523A237A44F9DAD32A2B56946BC6287599EC18FAD098B6999E0354AC47D742769B4228A
310
752BA597910AE35705FC72BBEAC003230344FAAA0A3CFCD8596B4717AA5C3A4844EECA6CC3108120D8122D35BAF10A965A8D545AAEAFEA4C017517189855F1FCD7C9A2D98EF875B248AD61FCDCC982E61B44F7D1A691CD6365D6479D02EAF4A4A8BCC72940771D6AAA751231B9DC8A6F7D2982985805F9C1C55815330CC13E
310
8EFF73D2EE4B8266BB0EFFC7256DFF45C1715452694D564DAA0385EBB299C2AE2F269393EBF97404BDD89BD1FCF2F4747476359B8F66F39BC5E96CB638F52F4E6B34B59F86411DCB74EA826713D3AA61F5643180A6ACC82949E0309F382986902FE1483FA07BCE332C2077367BDD89EDC90F58FD60DA9C126D28AE38D921E8
310
0F5301591D302A63D91E777E83CEA48473F6B90B3D23EF1EFEAC55BA0E249E73173A0592C458781BE832A97E9E260E1957A77E4B0CF0412C5519D12CAA9FEB550A9B56F4AFA70CC90256AE560B03EAB6029A5FAD0685E6CDF2141F2578C58E8324DC6E4A09C59A91653F500BA3B7D9ABDFC84609BBB75B3F81EBBE2E96EFE9
310
392D44067D3178D5080CD591443CD5ED6EC59865E9E2EAEB18DA6CCEF28B53D032055D0EA734E2188CB954F51458115885A5592009A6BAF863FD95E7F08527737451B45EE4599633FB7001C7B104BE1039AB1D7CEF49D6503560D55517EBE9C49FAE7537DB36D8A30D12D853E5100C54558412A1636C60912F3A53B66F3956
310
4AE84C5F5E39367C4217C058D08BE6AEF9BAE580F7A8EF28CA57B4875772BEDAD01EEBA9600D1C5AD1E1BF504B030414000608000030743140000000000000000000000000350000006662782F30334232324430302D373232332D343145432D413043352D3644374532364135394439422F76657274696365732E62696E50
310
4B030414000608080030743140F270F1330600000004000000360000006662782F30334232324430302D373232332D343145432D413043352D3644374532364135394439422F747269616E676C65732E62696E636660600000504B030414000608000030743140000000000000000000000000370000006662782F30334232
310
324430302D373232332D343145432D413043352D3644374532364135394439422F617474726962757465732E62696E504B030414000608080030743140D5987DFC8F00000041010000360000006662782F30334232324430302D373232332D343145432D413043352D3644374532364135394439422F6469726563746F7279
310
2E786D6C858F410EC2201045AF4266AF15DDB800BA74E7C21B903225242D6328188F2FA5C4183471359997F9FF81E89FF3C41E1816475E02DF1F80A11FC8386F25A438EECEC07A250251FC3803E6F58C12560C4AD840E95E91C151A72936F496F35732D860FE635F62C8F2DA16B505C545B74125BAA2FA9E05D7CC053D0637
310
34D5C7665FD55B6B8D15D5E9BFEAFD8490FFA45E504B030414000608080030743140A95B8C6FF9000000A00100003B0000006662782F30334232324430302D373232332D343145432D413043352D3644374532364135394439422F7265736F75726365732F636F72652E786D6C8D50596EC32010BD8A35FFD880DD25112672
310
D3E404BD00C2130725068BA5EAF10BB12BB57F9510337A8BE6E989C3D77CAF3ED107E36C0FACA650A1D56E3476EA21C50B7985EA2085772EFE924165D58C3D1418A498BC4BCB06696723DA9851EB46DC40150246A8F43D2F3D047DC559D52AC5AC08B77A51FAA626AC599DE9AC9322449F0354EB91F283F4185CF21A836856
310
568A94CCB869CC986F9A8B410FB23BED38E7EF8C0C7992EECC8E64771A9EC871E8DA331FDE861DA5A2296629A2997F326A8F2AE2089253C6096584BD7CB06EDFB6F911FABC2FA622FF634ACBF84F533236B67C8BBBDA024896833C08299AD2571E8F32F32CDDCA6F504B010214000A0000080000307431403DEE336E790000
310
00790000001B00000000000000000000000000000000006175746F6465736B2D64657369676E2D7061636B6167652E786D6C504B0102140014000608080030743140D486FD9CA0000000F40000001300000000000000000000000000B20000005B436F6E74656E745F54797065735D2E786D6C504B01021400140006080800
310
30743140C1B1D15EE70000007C010000080000000000000000000000000083010000636F72652E786D6C504B010214001400060808003074314055019EA25F0000007C000000070000000000000000000000000090020000636E782E786D6C504B01021400140006080800307431404F379A6563010000020300000C000000
310
00000000000000000000140300006662782F636F72652E786D6C504B01021400140006080800307431402B8A48A57E0000009D0000000B00000000000000000000000000A10400006662782F636E782E786D6C504B01021400140006080800307431406B89115A290100001402000031000000000000000000000000004805
310
00006662782F30334232324430302D373232332D343145432D413043352D3644374532364135394439422F636F72652E786D6C504B0102140014000608080030743140E5AFA72454010000330300003000000000000000000000000000C00600006662782F30334232324430302D373232332D343145432D413043352D3644
310
374532364135394439422F636E782E786D6C504B01021400140006080800307431405B1990BE57070000931B00003400000000000000000000000000620800006662782F30334232324430302D373232332D343145432D413043352D3644374532364135394439422F6F626A656374732E786D6C504B010214001400060800
310
003074314000000000000000000000000035000000000000000000000000000B1000006662782F30334232324430302D373232332D343145432D413043352D3644374532364135394439422F76657274696365732E62696E504B0102140014000608080030743140F270F13306000000040000003600000000000000000000
310
0000005E1000006662782F30334232324430302D373232332D343145432D413043352D3644374532364135394439422F747269616E676C65732E62696E504B01021400140006080000307431400000000000000000000000003700000000000000000000000000B81000006662782F30334232324430302D373232332D3431
310
45432D413043352D3644374532364135394439422F617474726962757465732E62696E504B0102140014000608080030743140D5987DFC8F0000004101000036000000000000000000000000000D1100006662782F30334232324430302D373232332D343145432D413043352D3644374532364135394439422F6469726563
310
746F72792E786D6C504B0102140014000608080030743140A95B8C6FF9000000A00100003B00000000000000000000000000F01100006662782F30334232324430302D373232332D343145432D413043352D3644374532364135394439422F7265736F75726365732F636F72652E786D6C504B0506000000000E000E008004
310
0000421300000000
  0
XRECORD
  5
27
102
{ACAD_REACTORS
330
22
102
}
330
22
100
AcDbXrecord
280
     1
270
     1
271
     1
  0
XRECORD
  5
26
102
{ACAD_REACTORS
330
22
102
}
330
22
100
AcDbXrecord
280
     1
270
     1
271
     1
  0
XRECORD
  5
28
102
{ACAD_REACTORS
330
22
102
}
330
22
100
AcDbXrecord
280
     1
270
     1
271
     1
  0
XRECORD
  5
25
102
{ACAD_REACTORS
330
22
102
}
330
22
100
AcDbXrecord
280
     1
270
     1
271
     1
  0
XRECORD
  5
C4B
102
{ACAD_REACTORS
330
C4A
102
}
330
C4A
100
AcDbXrecord
280
     1
102
ACAD_ROUNDTRIP_2012_MLEADER_STYLE
298
     1
  0
CELLSTYLEMAP
  5
C49
102
{ACAD_REACTORS
330
C48
102
}
330
C48
100
AcDbCellStyleMap
 90
        3
300
CELLSTYLE
  1
TABLEFORMAT_BEGIN
 90
        5
170
     1
 91
        0
 92
    32768
 62
   257
 93
        1
300
CONTENTFORMAT
  1
CONTENTFORMAT_BEGIN
 90
        0
 91
        0
 92
      512
 93
        0
300

 40
0.0
140
1.0
 94
        5
 62
     0
340
55
144
0.25
309
CONTENTFORMAT_END
171
     0
 94
        0
309
TABLEFORMAT_END
  1
CELLSTYLE_BEGIN
 90
        1
 91
        1
300
_TITLE
309
CELLSTYLE_END
300
CELLSTYLE
  1
TABLEFORMAT_BEGIN
 90
        5
170
     1
 91
        0
 92
        0
 62
   257
 93
        1
300
CONTENTFORMAT
  1
CONTENTFORMAT_BEGIN
 90
        0
 91
        0
 92
      512
 93
        0
300

 40
0.0
140
1.0
 94
        5
 62
     0
340
55
144
0.18
309
CONTENTFORMAT_END
171
     0
 94
        0
309
TABLEFORMAT_END
  1
CELLSTYLE_BEGIN
 90
        2
 91
        1
300
_HEADER
309
CELLSTYLE_END
300
CELLSTYLE
  1
TABLEFORMAT_BEGIN
 90
        5
170
     1
 91
        0
 92
        0
 62
   257
 93
        1
300
CONTENTFORMAT
  1
CONTENTFORMAT_BEGIN
 90
        0
 91
        0
 92
      512
 93
        0
300

 40
0.0
140
1.0
 94
        2
 62
     0
340
55
144
0.18
309
CONTENTFORMAT_END
171
     0
 94
        0
309
TABLEFORMAT_END
  1
CELLSTYLE_BEGIN
 90
        3
 91
        2
300
_DATA
309
CELLSTYLE_END
  0
XRECORD
  5
C83
102
{ACAD_REACTORS
330
C48
102
}
330
C48
100
AcDbXrecord
280
     1
102
ACAD_ROUNDTRIP_PRE2007_TABLESTYLE
 90
      512
 91
        0
  1

 92
      512
 93
        0
  2

 94
      512
 95
        0
  3

  0
XRECORD
  5
C5E
102
{ACAD_REACTORS
330
C5D
102
}
330
C5D
100
AcDbXrecord
280
     1
102
RTVSPropertyOp0
 70
     1
102
RTVSPropertyOp1
 70
     1
102
RTVSPropertyOp2
 70
     1
102
RTVSPropertyOp3
 70
     1
102
RTVSPropertyOp4
 70
     1
102
RTVSPropertyOp5
 70
     1
102
RTVSPropertyOp6
 70
     1
102
RTVSPropertyOp7
 70
     1
102
RTVSPropertyOp8
 70
     1
102
RTVSPropertyOp9
 70
     1
102
RTVSPropertyOp10
 70
     1
102
RTVSPropertyOp11
 70
     1
102
RTVSPropertyOp12
 70
     1
102
RTVSPropertyOp13
 70
     1
102
RTVSPropertyOp14
 70
     1
102
RTVSPropertyOp15
 70
     1
102
RTVSPropertyOp16
 70
     1
102
RTVSPropertyOp17
 70
     1
102
RTVSPropertyOp18
 70
     1
102
RTVSPropertyOp19
 70
     1
102
RTVSPropertyOp20
 70
     1
102
RTVSPropertyOp21
 70
     1
102
RTVSPropertyOp22
 70
     1
102
RTVSPropertyOp23
 70
     1
102
RTVSPropertyOp24
 70
     1
102
RTVSPropertyOp25
 70
     1
102
RTVSPropertyOp26
 70
     1
102
RTVSPropertyOp27
 70
     1
102
RTVSPropertyOp28
 70
     1
102
RTVSPropertyOp29
 70
     1
102
RTVSPropertyOp30
 70
     1
102
RTVSPropertyOp31
 70
     1
102
RTVSPropertyOp32
 70
     1
  0
XRECORD
  5
C5C
102
{ACAD_REACTORS
330
C5B
102
}
330
C5B
100
AcDbXrecord
280
     1
102
RTVSPropertyOp0
 70
     1
102
RTVSPropertyOp1
 70
     1
102
RTVSPropertyOp2
 70
     1
102
RTVSPropertyOp3
 70
     1
102
RTVSPropertyOp4
 70
     1
102
RTVSPropertyOp5
 70
     1
102
RTVSPropertyOp6
 70
     1
102
RTVSPropertyOp7
 70
     1
102
RTVSPropertyOp8
 70
     1
102
RTVSPropertyOp9
 70
     1
102
RTVSPropertyOp10
 70
     1
102
RTVSPropertyOp11
 70
     1
102
RTVSPropertyOp12
 70
     1
102
RTVSPropertyOp13
 70
     1
102
RTVSPropertyOp14
 70
     1
102
RTVSPropertyOp15
 70
     1
102
RTVSPropertyOp16
 70
     1
102
RTVSPropertyOp17
 70
     1
102
RTVSPropertyOp18
 70
     1
102
RTVSPropertyOp19
 70
     1
102
RTVSPropertyOp20
 70
     1
102
RTVSPropertyOp21
 70
     1
102
RTVSPropertyOp22
 70
     1
102
RTVSPropertyOp23
 70
     1
102
RTVSPropertyOp24
 70
     1
102
RTVSPropertyOp25
 70
     1
102
RTVSPropertyOp26
 70
     1
102
RTVSPropertyOp27
 70
     1
102
RTVSPropertyOp28
 70
     1
102
RTVSPropertyOp29
 70
     1
102
RTVSPropertyOp30
 70
     1
102
RTVSPropertyOp31
 70
     1
102
RTVSPropertyOp32
 70
     1
  0
XRECORD
  5
C6A
102
{ACAD_REACTORS
330
C69
102
}
330
C69
100
AcDbXrecord
280
     1
102
RTVSPropertyOp0
 70
     1
102
RTVSPropertyOp1
 70
     1
102
RTVSPropertyOp2
 70
     1
102
RTVSPropertyOp3
 70
     1
102
RTVSPropertyOp4
 70
     1
102
RTVSPropertyOp5
 70
     1
102
RTVSPropertyOp6
 70
     1
102
RTVSPropertyOp7
 70
     1
102
RTVSPropertyOp8
 70
     1
102
RTVSPropertyOp9
 70
     1
102
RTVSPropertyOp10
 70
     1
102
RTVSPropertyOp11
 70
     1
102
RTVSPropertyOp12
 70
     1
102
RTVSPropertyOp13
 70
     1
102
RTVSPropertyOp14
 70
     1
102
RTVSPropertyOp15
 70
     1
102
RTVSPropertyOp16
 70
     1
102
RTVSPropertyOp17
 70
     1
102
RTVSPropertyOp18
 70
     1
102
RTVSPropertyOp19
 70
     1
102
RTVSPropertyOp20
 70
     1
102
RTVSPropertyOp21
 70
     1
102
RTVSPropertyOp22
 70
     1
102
RTVSPropertyOp23
 70
     1
102
RTVSPropertyOp24
 70
     1
102
RTVSPropertyOp25
 70
     1
102
RTVSPropertyOp26
 70
     1
102
RTVSPropertyOp27
 70
     1
102
RTVSPropertyOp28
 70
     1
102
RTVSPropertyOp29
 70
     1
102
RTVSPropertyOp30
 70
     1
102
RTVSPropertyOp31
 70
     1
102
RTVSPropertyOp32
 70
     1
  0
XRECORD
  5
C72
102
{ACAD_REACTORS
330
C71
102
}
330
C71
100
AcDbXrecord
280
     1
102
RTVSPropertyOp0
 70
     1
102
RTVSPropertyOp1
 70
     1
102
RTVSPropertyOp2
 70
     1
102
RTVSPropertyOp3
 70
     1
102
RTVSPropertyOp4
 70
     1
102
RTVSPropertyOp5
 70
     1
102
RTVSPropertyOp6
 70
     1
102
RTVSPropertyOp7
 70
     1
102
RTVSPropertyOp8
 70
     1
102
RTVSPropertyOp9
 70
     1
102
RTVSPropertyOp10
 70
     1
102
RTVSPropertyOp11
 70
     1
102
RTVSPropertyOp12
 70
     1
102
RTVSPropertyOp13
 70
     1
102
RTVSPropertyOp14
 70
     1
102
RTVSPropertyOp15
 70
     1
102
RTVSPropertyOp16
 70
     1
102
RTVSPropertyOp17
 70
     1
102
RTVSPropertyOp18
 70
     1
102
RTVSPropertyOp19
 70
     1
102
RTVSPropertyOp20
 70
     1
102
RTVSPropertyOp21
 70
     1
102
RTVSPropertyOp22
 70
     1
102
RTVSPropertyOp23
 70
     1
102
RTVSPropertyOp24
 70
     1
102
RTVSPropertyOp25
 70
     1
102
RTVSPropertyOp26
 70
     1
102
RTVSPropertyOp27
 70
     1
102
RTVSPropertyOp28
 70
     1
102
RTVSPropertyOp29
 70
     1
102
RTVSPropertyOp30
 70
     1
102
RTVSPropertyOp31
 70
     1
102
RTVSPropertyOp32
 70
     1
  0
XRECORD
  5
C64
102
{ACAD_REACTORS
330
C63
102
}
330
C63
100
AcDbXrecord
280
     1
102
RTVSPropertyOp0
 70
     1
102
RTVSPropertyOp1
 70
     1
102
RTVSPropertyOp2
 70
     1
102
RTVSPropertyOp3
 70
     1
102
RTVSPropertyOp4
 70
     1
102
RTVSPropertyOp5
 70
     1
102
RTVSPropertyOp6
 70
     1
102
RTVSPropertyOp7
 70
     1
102
RTVSPropertyOp8
 70
     1
102
RTVSPropertyOp9
 70
     1
102
RTVSPropertyOp10
 70
     1
102
RTVSPropertyOp11
 70
     1
102
RTVSPropertyOp12
 70
     1
102
RTVSPropertyOp13
 70
     1
102
RTVSPropertyOp14
 70
     1
102
RTVSPropertyOp15
 70
     1
102
RTVSPropertyOp16
 70
     1
102
RTVSPropertyOp17
 70
     1
102
RTVSPropertyOp18
 70
     1
102
RTVSPropertyOp19
 70
     1
102
RTVSPropertyOp20
 70
     1
102
RTVSPropertyOp21
 70
     1
102
RTVSPropertyOp22
 70
     1
102
RTVSPropertyOp23
 70
     1
102
RTVSPropertyOp24
 70
     1
102
RTVSPropertyOp25
 70
     1
102
RTVSPropertyOp26
 70
     1
102
RTVSPropertyOp27
 70
     1
102
RTVSPropertyOp28
 70
     1
102
RTVSPropertyOp29
 70
     1
102
RTVSPropertyOp30
 70
     1
102
RTVSPropertyOp31
 70
     1
102
RTVSPropertyOp32
 70
     1
  0
XRECORD
  5
C68
102
{ACAD_REACTORS
330
C67
102
}
330
C67
100
AcDbXrecord
280
     1
102
RTVSPropertyOp0
 70
     1
102
RTVSPropertyOp1
 70
     1
102
RTVSPropertyOp2
 70
     1
102
RTVSPropertyOp3
 70
     1
102
RTVSPropertyOp4
 70
     1
102
RTVSPropertyOp5
 70
     1
102
RTVSPropertyOp6
 70
     1
102
RTVSPropertyOp7
 70
     1
102
RTVSPropertyOp8
 70
     1
102
RTVSPropertyOp9
 70
     1
102
RTVSPropertyOp10
 70
     1
102
RTVSPropertyOp11
 70
     1
102
RTVSPropertyOp12
 70
     1
102
RTVSPropertyOp13
 70
     1
102
RTVSPropertyOp14
 70
     1
102
RTVSPropertyOp15
 70
     1
102
RTVSPropertyOp16
 70
     1
102
RTVSPropertyOp17
 70
     1
102
RTVSPropertyOp18
 70
     1
102
RTVSPropertyOp19
 70
     1
102
RTVSPropertyOp20
 70
     1
102
RTVSPropertyOp21
 70
     1
102
RTVSPropertyOp22
 70
     1
102
RTVSPropertyOp23
 70
     1
102
RTVSPropertyOp24
 70
     1
102
RTVSPropertyOp25
 70
     1
102
RTVSPropertyOp26
 70
     1
102
RTVSPropertyOp27
 70
     1
102
RTVSPropertyOp28
 70
     1
102
RTVSPropertyOp29
 70
     1
102
RTVSPropertyOp30
 70
     1
102
RTVSPropertyOp31
 70
     1
102
RTVSPropertyOp32
 70
     1
  0
XRECORD
  5
C82
102
{ACAD_REACTORS
330
C81
102
}
330
C81
100
AcDbXrecord
280
     1
102
RTVSPropertyOp0
 70
     0
102
RTVSPropertyOp1
 70
     0
102
RTVSPropertyOp2
 70
     0
102
RTVSPropertyOp3
 70
     0
102
RTVSPropertyOp4
 70
     0
102
RTVSPropertyOp5
 70
     0
102
RTVSPropertyOp6
 70
     0
102
RTVSPropertyOp7
 70
     0
102
RTVSPropertyOp8
 70
     0
102
RTVSPropertyOp9
 70
     0
102
RTVSPropertyOp10
 70
     0
102
RTVSPropertyOp11
 70
     0
102
RTVSPropertyOp12
 70
     0
102
RTVSPropertyOp13
 70
     0
102
RTVSPropertyOp14
 70
     2
102
RTVSPropertyOp15
 70
     0
102
RTVSPropertyOp16
 70
     0
102
RTVSPropertyOp17
 70
     0
102
RTVSPropertyOp18
 70
     0
102
RTVSPropertyOp19
 70
     0
102
RTVSPropertyOp20
 70
     0
102
RTVSPropertyOp21
 70
     0
102
RTVSPropertyOp22
 70
     0
102
RTVSPropertyOp23
 70
     0
102
RTVSPropertyOp24
 70
     0
102
RTVSPropertyOp25
 70
     0
102
RTVSPropertyOp26
 70
     0
102
RTVSPropertyOp27
 70
     0
102
RTVSPropertyOp28
 70
     1
102
RTVSPropertyOp29
 70
     1
102
RTVSPropertyOp30
 70
     1
102
RTVSPropertyOp31
 70
     1
102
RTVSPropertyOp32
 70
     1
  0
XRECORD
  5
C70
102
{ACAD_REACTORS
330
C6F
102
}
330
C6F
100
AcDbXrecord
280
     1
102
RTVSPropertyOp0
 70
     1
102
RTVSPropertyOp1
 70
     1
102
RTVSPropertyOp2
 70
     1
102
RTVSPropertyOp3
 70
     1
102
RTVSPropertyOp4
 70
     1
102
RTVSPropertyOp5
 70
     1
102
RTVSPropertyOp6
 70
     1
102
RTVSPropertyOp7
 70
     1
102
RTVSPropertyOp8
 70
     1
102
RTVSPropertyOp9
 70
     1
102
RTVSPropertyOp10
 70
     1
102
RTVSPropertyOp11
 70
     1
102
RTVSPropertyOp12
 70
     1
102
RTVSPropertyOp13
 70
     1
102
RTVSPropertyOp14
 70
     1
102
RTVSPropertyOp15
 70
     1
102
RTVSPropertyOp16
 70
     1
102
RTVSPropertyOp17
 70
     1
102
RTVSPropertyOp18
 70
     1
102
RTVSPropertyOp19
 70
     1
102
RTVSPropertyOp20
 70
     1
102
RTVSPropertyOp21
 70
     1
102
RTVSPropertyOp22
 70
     1
102
RTVSPropertyOp23
 70
     1
102
RTVSPropertyOp24
 70
     1
102
RTVSPropertyOp25
 70
     1
102
RTVSPropertyOp26
 70
     1
102
RTVSPropertyOp27
 70
     1
102
RTVSPropertyOp28
 70
     1
102
RTVSPropertyOp29
 70
     1
102
RTVSPropertyOp30
 70
     1
102
RTVSPropertyOp31
 70
     1
102
RTVSPropertyOp32
 70
     1
  0
XRECORD
  5
C54
102
{ACAD_REACTORS
330
C53
102
}
330
C53
100
AcDbXrecord
280
     1
102
RTVSPropertyOp0
 70
     1
102
RTVSPropertyOp1
 70
     1
102
RTVSPropertyOp2
 70
     1
102
RTVSPropertyOp3
 70
     1
102
RTVSPropertyOp4
 70
     1
102
RTVSPropertyOp5
 70
     1
102
RTVSPropertyOp6
 70
     1
102
RTVSPropertyOp7
 70
     1
102
RTVSPropertyOp8
 70
     1
102
RTVSPropertyOp9
 70
     1
102
RTVSPropertyOp10
 70
     1
102
RTVSPropertyOp11
 70
     1
102
RTVSPropertyOp12
 70
     1
102
RTVSPropertyOp13
 70
     1
102
RTVSPropertyOp14
 70
     1
102
RTVSPropertyOp15
 70
     1
102
RTVSPropertyOp16
 70
     1
102
RTVSPropertyOp17
 70
     1
102
RTVSPropertyOp18
 70
     1
102
RTVSPropertyOp19
 70
     1
102
RTVSPropertyOp20
 70
     1
102
RTVSPropertyOp21
 70
     1
102
RTVSPropertyOp22
 70
     1
102
RTVSPropertyOp23
 70
     1
102
RTVSPropertyOp24
 70
     1
102
RTVSPropertyOp25
 70
     1
102
RTVSPropertyOp26
 70
     1
102
RTVSPropertyOp27
 70
     1
102
RTVSPropertyOp28
 70
     1
102
RTVSPropertyOp29
 70
     1
102
RTVSPropertyOp30
 70
     1
102
RTVSPropertyOp31
 70
     1
102
RTVSPropertyOp32
 70
     1
  0
XRECORD
  5
C56
102
{ACAD_REACTORS
330
C55
102
}
330
C55
100
AcDbXrecord
280
     1
102
RTVSPropertyOp0
 70
     1
102
RTVSPropertyOp1
 70
     1
102
RTVSPropertyOp2
 70
     1
102
RTVSPropertyOp3
 70
     1
102
RTVSPropertyOp4
 70
     1
102
RTVSPropertyOp5
 70
     1
102
RTVSPropertyOp6
 70
     1
102
RTVSPropertyOp7
 70
     1
102
RTVSPropertyOp8
 70
     1
102
RTVSPropertyOp9
 70
     1
102
RTVSPropertyOp10
 70
     1
102
RTVSPropertyOp11
 70
     1
102
RTVSPropertyOp12
 70
     1
102
RTVSPropertyOp13
 70
     1
102
RTVSPropertyOp14
 70
     1
102
RTVSPropertyOp15
 70
     1
102
RTVSPropertyOp16
 70
     1
102
RTVSPropertyOp17
 70
     1
102
RTVSPropertyOp18
 70
     1
102
RTVSPropertyOp19
 70
     1
102
RTVSPropertyOp20
 70
     1
102
RTVSPropertyOp21
 70
     1
102
RTVSPropertyOp22
 70
     1
102
RTVSPropertyOp23
 70
     1
102
RTVSPropertyOp24
 70
     1
102
RTVSPropertyOp25
 70
     1
102
RTVSPropertyOp26
 70
     1
102
RTVSPropertyOp27
 70
     1
102
RTVSPropertyOp28
 70
     1
102
RTVSPropertyOp29
 70
     1
102
RTVSPropertyOp30
 70
     1
102
RTVSPropertyOp31
 70
     1
102
RTVSPropertyOp32
 70
     1
  0
XRECORD
  5
C58
102
{ACAD_REACTORS
330
C57
102
}
330
C57
100
AcDbXrecord
280
     1
102
RTVSPropertyOp0
 70
     1
102
RTVSPropertyOp1
 70
     1
102
RTVSPropertyOp2
 70
     1
102
RTVSPropertyOp3
 70
     1
102
RTVSPropertyOp4
 70
     1
102
RTVSPropertyOp5
 70
     1
102
RTVSPropertyOp6
 70
     1
102
RTVSPropertyOp7
 70
     1
102
RTVSPropertyOp8
 70
     1
102
RTVSPropertyOp9
 70
     1
102
RTVSPropertyOp10
 70
     1
102
RTVSPropertyOp11
 70
     1
102
RTVSPropertyOp12
 70
     1
102
RTVSPropertyOp13
 70
     1
102
RTVSPropertyOp14
 70
     1
102
RTVSPropertyOp15
 70
     1
102
RTVSPropertyOp16
 70
     1
102
RTVSPropertyOp17
 70
     1
102
RTVSPropertyOp18
 70
     1
102
RTVSPropertyOp19
 70
     1
102
RTVSPropertyOp20
 70
     1
102
RTVSPropertyOp21
 70
     1
102
RTVSPropertyOp22
 70
     1
102
RTVSPropertyOp23
 70
     1
102
RTVSPropertyOp24
 70
     1
102
RTVSPropertyOp25
 70
     1
102
RTVSPropertyOp26
 70
     1
102
RTVSPropertyOp27
 70
     1
102
RTVSPropertyOp28
 70
     1
102
RTVSPropertyOp29
 70
     1
102
RTVSPropertyOp30
 70
     1
102
RTVSPropertyOp31
 70
     1
102
RTVSPropertyOp32
 70
     1
  0
XRECORD
  5
C5A
102
{ACAD_REACTORS
330
C59
102
}
330
C59
100
AcDbXrecord
280
     1
102
RTVSPropertyOp0
 70
     1
102
RTVSPropertyOp1
 70
     1
102
RTVSPropertyOp2
 70
     1
102
RTVSPropertyOp3
 70
     1
102
RTVSPropertyOp4
 70
     1
102
RTVSPropertyOp5
 70
     1
102
RTVSPropertyOp6
 70
     1
102
RTVSPropertyOp7
 70
     1
102
RTVSPropertyOp8
 70
     1
102
RTVSPropertyOp9
 70
     1
102
RTVSPropertyOp10
 70
     1
102
RTVSPropertyOp11
 70
     1
102
RTVSPropertyOp12
 70
     1
102
RTVSPropertyOp13
 70
     1
102
RTVSPropertyOp14
 70
     1
102
RTVSPropertyOp15
 70
     1
102
RTVSPropertyOp16
 70
     1
102
RTVSPropertyOp17
 70
     1
102
RTVSPropertyOp18
 70
     1
102
RTVSPropertyOp19
 70
     1
102
RTVSPropertyOp20
 70
     1
102
RTVSPropertyOp21
 70
     1
102
RTVSPropertyOp22
 70
     1
102
RTVSPropertyOp23
 70
     1
102
RTVSPropertyOp24
 70
     1
102
RTVSPropertyOp25
 70
     1
102
RTVSPropertyOp26
 70
     1
102
RTVSPropertyOp27
 70
     1
102
RTVSPropertyOp28
 70
     1
102
RTVSPropertyOp29
 70
     1
102
RTVSPropertyOp30
 70
     1
102
RTVSPropertyOp31
 70
     1
102
RTVSPropertyOp32
 70
     1
  0
XRECORD
  5
C62
102
{ACAD_REACTORS
330
C61
102
}
330
C61
100
AcDbXrecord
280
     1
102
RTVSPropertyOp0
 70
     1
102
RTVSPropertyOp1
 70
     1
102
RTVSPropertyOp2
 70
     1
102
RTVSPropertyOp3
 70
     1
102
RTVSPropertyOp4
 70
     1
102
RTVSPropertyOp5
 70
     1
102
RTVSPropertyOp6
 70
     1
102
RTVSPropertyOp7
 70
     1
102
RTVSPropertyOp8
 70
     1
102
RTVSPropertyOp9
 70
     1
102
RTVSPropertyOp10
 70
     1
102
RTVSPropertyOp11
 70
     1
102
RTVSPropertyOp12
 70
     1
102
RTVSPropertyOp13
 70
     1
102
RTVSPropertyOp14
 70
     1
102
RTVSPropertyOp15
 70
     1
102
RTVSPropertyOp16
 70
     1
102
RTVSPropertyOp17
 70
     1
102
RTVSPropertyOp18
 70
     1
102
RTVSPropertyOp19
 70
     1
102
RTVSPropertyOp20
 70
     1
102
RTVSPropertyOp21
 70
     1
102
RTVSPropertyOp22
 70
     1
102
RTVSPropertyOp23
 70
     1
102
RTVSPropertyOp24
 70
     1
102
RTVSPropertyOp25
 70
     1
102
RTVSPropertyOp26
 70
     1
102
RTVSPropertyOp27
 70
     1
102
RTVSPropertyOp28
 70
     1
102
RTVSPropertyOp29
 70
     1
102
RTVSPropertyOp30
 70
     1
102
RTVSPropertyOp31
 70
     1
102
RTVSPropertyOp32
 70
     1
  0
XRECORD
  5
C7E
102
{ACAD_REACTORS
330
C7D
102
}
330
C7D
100
AcDbXrecord
280
     1
102
RTVSPropertyOp0
 70
     0
102
RTVSPropertyOp1
 70
     0
102
RTVSPropertyOp2
 70
     0
102
RTVSPropertyOp3
 70
     0
102
RTVSPropertyOp4
 70
     0
102
RTVSPropertyOp5
 70
     0
102
RTVSPropertyOp6
 70
     0
102
RTVSPropertyOp7
 70
     0
102
RTVSPropertyOp8
 70
     0
102
RTVSPropertyOp9
 70
     0
102
RTVSPropertyOp10
 70
     0
102
RTVSPropertyOp11
 70
     0
102
RTVSPropertyOp12
 70
     0
102
RTVSPropertyOp13
 70
     0
102
RTVSPropertyOp14
 70
     2
102
RTVSPropertyOp15
 70
     0
102
RTVSPropertyOp16
 70
     0
102
RTVSPropertyOp17
 70
     0
102
RTVSPropertyOp18
 70
     0
102
RTVSPropertyOp19
 70
     0
102
RTVSPropertyOp20
 70
     0
102
RTVSPropertyOp21
 70
     0
102
RTVSPropertyOp22
 70
     0
102
RTVSPropertyOp23
 70
     0
102
RTVSPropertyOp24
 70
     0
102
RTVSPropertyOp25
 70
     0
102
RTVSPropertyOp26
 70
     0
102
RTVSPropertyOp27
 70
     0
102
RTVSPropertyOp28
 70
     1
102
RTVSPropertyOp29
 70
     1
102
RTVSPropertyOp30
 70
     1
102
RTVSPropertyOp31
 70
     1
102
RTVSPropertyOp32
 70
     1
  0
XRECORD
  5
C6E
102
{ACAD_REACTORS
330
C6D
102
}
330
C6D
100
AcDbXrecord
280
     1
102
RTVSPropertyOp0
 70
     1
102
RTVSPropertyOp1
 70
     1
102
RTVSPropertyOp2
 70
     1
102
RTVSPropertyOp3
 70
     1
102
RTVSPropertyOp4
 70
     1
102
RTVSPropertyOp5
 70
     1
102
RTVSPropertyOp6
 70
     1
102
RTVSPropertyOp7
 70
     1
102
RTVSPropertyOp8
 70
     1
102
RTVSPropertyOp9
 70
     1
102
RTVSPropertyOp10
 70
     1
102
RTVSPropertyOp11
 70
     1
102
RTVSPropertyOp12
 70
     1
102
RTVSPropertyOp13
 70
     1
102
RTVSPropertyOp14
 70
     1
102
RTVSPropertyOp15
 70
     1
102
RTVSPropertyOp16
 70
     1
102
RTVSPropertyOp17
 70
     1
102
RTVSPropertyOp18
 70
     1
102
RTVSPropertyOp19
 70
     1
102
RTVSPropertyOp20
 70
     1
102
RTVSPropertyOp21
 70
     1
102
RTVSPropertyOp22
 70
     1
102
RTVSPropertyOp23
 70
     1
102
RTVSPropertyOp24
 70
     1
102
RTVSPropertyOp25
 70
     1
102
RTVSPropertyOp26
 70
     1
102
RTVSPropertyOp27
 70
     1
102
RTVSPropertyOp28
 70
     1
102
RTVSPropertyOp29
 70
     1
102
RTVSPropertyOp30
 70
     1
102
RTVSPropertyOp31
 70
     1
102
RTVSPropertyOp32
 70
     1
  0
XRECORD
  5
C80
102
{ACAD_REACTORS
330
C7F
102
}
330
C7F
100
AcDbXrecord
280
     1
102
RTVSPropertyOp0
 70
     0
102
RTVSPropertyOp1
 70
     0
102
RTVSPropertyOp2
 70
     0
102
RTVSPropertyOp3
 70
     0
102
RTVSPropertyOp4
 70
     0
102
RTVSPropertyOp5
 70
     0
102
RTVSPropertyOp6
 70
     0
102
RTVSPropertyOp7
 70
     0
102
RTVSPropertyOp8
 70
     0
102
RTVSPropertyOp9
 70
     0
102
RTVSPropertyOp10
 70
     0
102
RTVSPropertyOp11
 70
     0
102
RTVSPropertyOp12
 70
     0
102
RTVSPropertyOp13
 70
     0
102
RTVSPropertyOp14
 70
     2
102
RTVSPropertyOp15
 70
     0
102
RTVSPropertyOp16
 70
     0
102
RTVSPropertyOp17
 70
     0
102
RTVSPropertyOp18
 70
     0
102
RTVSPropertyOp19
 70
     0
102
RTVSPropertyOp20
 70
     0
102
RTVSPropertyOp21
 70
     0
102
RTVSPropertyOp22
 70
     0
102
RTVSPropertyOp23
 70
     0
102
RTVSPropertyOp24
 70
     0
102
RTVSPropertyOp25
 70
     0
102
RTVSPropertyOp26
 70
     0
102
RTVSPropertyOp27
 70
     0
102
RTVSPropertyOp28
 70
     1
102
RTVSPropertyOp29
 70
     1
102
RTVSPropertyOp30
 70
     1
102
RTVSPropertyOp31
 70
     1
102
RTVSPropertyOp32
 70
     1
  0
XRECORD
  5
C66
102
{ACAD_REACTORS
330
C65
102
}
330
C65
100
AcDbXrecord
280
     1
102
RTVSPropertyOp0
 70
     1
102
RTVSPropertyOp1
 70
     1
102
RTVSPropertyOp2
 70
     1
102
RTVSPropertyOp3
 70
     1
102
RTVSPropertyOp4
 70
     1
102
RTVSPropertyOp5
 70
     1
102
RTVSPropertyOp6
 70
     1
102
RTVSPropertyOp7
 70
     1
102
RTVSPropertyOp8
 70
     1
102
RTVSPropertyOp9
 70
     1
102
RTVSPropertyOp10
 70
     1
102
RTVSPropertyOp11
 70
     1
102
RTVSPropertyOp12
 70
     1
102
RTVSPropertyOp13
 70
     1
102
RTVSPropertyOp14
 70
     1
102
RTVSPropertyOp15
 70
     1
102
RTVSPropertyOp16
 70
     1
102
RTVSPropertyOp17
 70
     1
102
RTVSPropertyOp18
 70
     1
102
RTVSPropertyOp19
 70
     1
102
RTVSPropertyOp20
 70
     1
102
RTVSPropertyOp21
 70
     1
102
RTVSPropertyOp22
 70
     1
102
RTVSPropertyOp23
 70
     1
102
RTVSPropertyOp24
 70
     1
102
RTVSPropertyOp25
 70
     1
102
RTVSPropertyOp26
 70
     1
102
RTVSPropertyOp27
 70
     1
102
RTVSPropertyOp28
 70
     1
102
RTVSPropertyOp29
 70
     1
102
RTVSPropertyOp30
 70
     1
102
RTVSPropertyOp31
 70
     1
102
RTVSPropertyOp32
 70
     1
  0
XRECORD
  5
C7C
102
{ACAD_REACTORS
330
C7B
102
}
330
C7B
100
AcDbXrecord
280
     1
102
RTVSPropertyOp0
 70
     1
102
RTVSPropertyOp1
 70
     1
102
RTVSPropertyOp2
 70
     1
102
RTVSPropertyOp3
 70
     1
102
RTVSPropertyOp4
 70
     1
102
RTVSPropertyOp5
 70
     1
102
RTVSPropertyOp6
 70
     1
102
RTVSPropertyOp7
 70
     1
102
RTVSPropertyOp8
 70
     1
102
RTVSPropertyOp9
 70
     1
102
RTVSPropertyOp10
 70
     1
102
RTVSPropertyOp11
 70
     1
102
RTVSPropertyOp12
 70
     1
102
RTVSPropertyOp13
 70
     1
102
RTVSPropertyOp14
 70
     1
102
RTVSPropertyOp15
 70
     1
102
RTVSPropertyOp16
 70
     1
102
RTVSPropertyOp17
 70
     1
102
RTVSPropertyOp18
 70
     1
102
RTVSPropertyOp19
 70
     1
102
RTVSPropertyOp20
 70
     1
102
RTVSPropertyOp21
 70
     1
102
RTVSPropertyOp22
 70
     1
102
RTVSPropertyOp23
 70
     1
102
RTVSPropertyOp24
 70
     1
102
RTVSPropertyOp25
 70
     1
102
RTVSPropertyOp26
 70
     1
102
RTVSPropertyOp27
 70
     1
102
RTVSPropertyOp28
 70
     1
102
RTVSPropertyOp29
 70
     1
102
RTVSPropertyOp30
 70
     1
102
RTVSPropertyOp31
 70
     1
102
RTVSPropertyOp32
 70
     1
  0
XRECORD
  5
C7A
102
{ACAD_REACTORS
330
C79
102
}
330
C79
100
AcDbXrecord
280
     1
102
RTVSPropertyOp0
 70
     1
102
RTVSPropertyOp1
 70
     1
102
RTVSPropertyOp2
 70
     1
102
RTVSPropertyOp3
 70
     1
102
RTVSPropertyOp4
 70
     1
102
RTVSPropertyOp5
 70
     1
102
RTVSPropertyOp6
 70
     1
102
RTVSPropertyOp7
 70
     1
102
RTVSPropertyOp8
 70
     1
102
RTVSPropertyOp9
 70
     1
102
RTVSPropertyOp10
 70
     1
102
RTVSPropertyOp11
 70
     1
102
RTVSPropertyOp12
 70
     1
102
RTVSPropertyOp13
 70
     1
102
RTVSPropertyOp14
 70
     1
102
RTVSPropertyOp15
 70
     1
102
RTVSPropertyOp16
 70
     1
102
RTVSPropertyOp17
 70
     1
102
RTVSPropertyOp18
 70
     1
102
RTVSPropertyOp19
 70
     1
102
RTVSPropertyOp20
 70
     1
102
RTVSPropertyOp21
 70
     1
102
RTVSPropertyOp22
 70
     1
102
RTVSPropertyOp23
 70
     1
102
RTVSPropertyOp24
 70
     1
102
RTVSPropertyOp25
 70
     1
102
RTVSPropertyOp26
 70
     1
102
RTVSPropertyOp27
 70
     1
102
RTVSPropertyOp28
 70
     1
102
RTVSPropertyOp29
 70
     1
102
RTVSPropertyOp30
 70
     1
102
RTVSPropertyOp31
 70
     1
102
RTVSPropertyOp32
 70
     1
  0
XRECORD
  5
C74
102
{ACAD_REACTORS
330
C73
102
}
330
C73
100
AcDbXrecord
280
     1
102
RTVSPropertyOp0
 70
     1
102
RTVSPropertyOp1
 70
     1
102
RTVSPropertyOp2
 70
     1
102
RTVSPropertyOp3
 70
     1
102
RTVSPropertyOp4
 70
     1
102
RTVSPropertyOp5
 70
     1
102
RTVSPropertyOp6
 70
     1
102
RTVSPropertyOp7
 70
     1
102
RTVSPropertyOp8
 70
     1
102
RTVSPropertyOp9
 70
     1
102
RTVSPropertyOp10
 70
     1
102
RTVSPropertyOp11
 70
     1
102
RTVSPropertyOp12
 70
     1
102
RTVSPropertyOp13
 70
     1
102
RTVSPropertyOp14
 70
     1
102
RTVSPropertyOp15
 70
     1
102
RTVSPropertyOp16
 70
     1
102
RTVSPropertyOp17
 70
     1
102
RTVSPropertyOp18
 70
     1
102
RTVSPropertyOp19
 70
     1
102
RTVSPropertyOp20
 70
     1
102
RTVSPropertyOp21
 70
     1
102
RTVSPropertyOp22
 70
     1
102
RTVSPropertyOp23
 70
     1
102
RTVSPropertyOp24
 70
     1
102
RTVSPropertyOp25
 70
     1
102
RTVSPropertyOp26
 70
     1
102
RTVSPropertyOp27
 70
     1
102
RTVSPropertyOp28
 70
     1
102
RTVSPropertyOp29
 70
     1
102
RTVSPropertyOp30
 70
     1
102
RTVSPropertyOp31
 70
     1
102
RTVSPropertyOp32
 70
     1
  0
XRECORD
  5
C76
102
{ACAD_REACTORS
330
C75
102
}
330
C75
100
AcDbXrecord
280
     1
102
RTVSPropertyOp0
 70
     1
102
RTVSPropertyOp1
 70
     1
102
RTVSPropertyOp2
 70
     1
102
RTVSPropertyOp3
 70
     1
102
RTVSPropertyOp4
 70
     1
102
RTVSPropertyOp5
 70
     1
102
RTVSPropertyOp6
 70
     1
102
RTVSPropertyOp7
 70
     1
102
RTVSPropertyOp8
 70
     1
102
RTVSPropertyOp9
 70
     1
102
RTVSPropertyOp10
 70
     1
102
RTVSPropertyOp11
 70
     1
102
RTVSPropertyOp12
 70
     1
102
RTVSPropertyOp13
 70
     1
102
RTVSPropertyOp14
 70
     1
102
RTVSPropertyOp15
 70
     1
102
RTVSPropertyOp16
 70
     1
102
RTVSPropertyOp17
 70
     1
102
RTVSPropertyOp18
 70
     1
102
RTVSPropertyOp19
 70
     1
102
RTVSPropertyOp20
 70
     1
102
RTVSPropertyOp21
 70
     1
102
RTVSPropertyOp22
 70
     1
102
RTVSPropertyOp23
 70
     1
102
RTVSPropertyOp24
 70
     1
102
RTVSPropertyOp25
 70
     1
102
RTVSPropertyOp26
 70
     1
102
RTVSPropertyOp27
 70
     1
102
RTVSPropertyOp28
 70
     1
102
RTVSPropertyOp29
 70
     1
102
RTVSPropertyOp30
 70
     1
102
RTVSPropertyOp31
 70
     1
102
RTVSPropertyOp32
 70
     1
  0
XRECORD
  5
C6C
102
{ACAD_REACTORS
330
C6B
102
}
330
C6B
100
AcDbXrecord
280
     1
102
RTVSPropertyOp0
 70
     1
102
RTVSPropertyOp1
 70
     1
102
RTVSPropertyOp2
 70
     1
102
RTVSPropertyOp3
 70
     1
102
RTVSPropertyOp4
 70
     1
102
RTVSPropertyOp5
 70
     1
102
RTVSPropertyOp6
 70
     1
102
RTVSPropertyOp7
 70
     1
102
RTVSPropertyOp8
 70
     1
102
RTVSPropertyOp9
 70
     1
102
RTVSPropertyOp10
 70
     1
102
RTVSPropertyOp11
 70
     1
102
RTVSPropertyOp12
 70
     1
102
RTVSPropertyOp13
 70
     1
102
RTVSPropertyOp14
 70
     1
102
RTVSPropertyOp15
 70
     1
102
RTVSPropertyOp16
 70
     1
102
RTVSPropertyOp17
 70
     1
102
RTVSPropertyOp18
 70
     1
102
RTVSPropertyOp19
 70
     1
102
RTVSPropertyOp20
 70
     1
102
RTVSPropertyOp21
 70
     1
102
RTVSPropertyOp22
 70
     1
102
RTVSPropertyOp23
 70
     1
102
RTVSPropertyOp24
 70
     1
102
RTVSPropertyOp25
 70
     1
102
RTVSPropertyOp26
 70
     1
102
RTVSPropertyOp27
 70
     1
102
RTVSPropertyOp28
 70
     1
102
RTVSPropertyOp29
 70
     1
102
RTVSPropertyOp30
 70
     1
102
RTVSPropertyOp31
 70
     1
102
RTVSPropertyOp32
 70
     1
  0
XRECORD
  5
C60
102
{ACAD_REACTORS
330
C5F
102
}
330
C5F
100
AcDbXrecord
280
     1
102
RTVSPropertyOp0
 70
     1
102
RTVSPropertyOp1
 70
     1
102
RTVSPropertyOp2
 70
     1
102
RTVSPropertyOp3
 70
     1
102
RTVSPropertyOp4
 70
     1
102
RTVSPropertyOp5
 70
     1
102
RTVSPropertyOp6
 70
     1
102
RTVSPropertyOp7
 70
     1
102
RTVSPropertyOp8
 70
     1
102
RTVSPropertyOp9
 70
     1
102
RTVSPropertyOp10
 70
     1
102
RTVSPropertyOp11
 70
     1
102
RTVSPropertyOp12
 70
     1
102
RTVSPropertyOp13
 70
     1
102
RTVSPropertyOp14
 70
     1
102
RTVSPropertyOp15
 70
     1
102
RTVSPropertyOp16
 70
     1
102
RTVSPropertyOp17
 70
     1
102
RTVSPropertyOp18
 70
     1
102
RTVSPropertyOp19
 70
     1
102
RTVSPropertyOp20
 70
     1
102
RTVSPropertyOp21
 70
     1
102
RTVSPropertyOp22
 70
     1
102
RTVSPropertyOp23
 70
     1
102
RTVSPropertyOp24
 70
     1
102
RTVSPropertyOp25
 70
     1
102
RTVSPropertyOp26
 70
     1
102
RTVSPropertyOp27
 70
     1
102
RTVSPropertyOp28
 70
     1
102
RTVSPropertyOp29
 70
     1
102
RTVSPropertyOp30
 70
     1
102
RTVSPropertyOp31
 70
     1
102
RTVSPropertyOp32
 70
     1
  0
XRECORD
  5
C78
102
{ACAD_REACTORS
330
C77
102
}
330
C77
100
AcDbXrecord
280
     1
102
RTVSPropertyOp0
 70
     1
102
RTVSPropertyOp1
 70
     1
102
RTVSPropertyOp2
 70
     1
102
RTVSPropertyOp3
 70
     1
102
RTVSPropertyOp4
 70
     1
102
RTVSPropertyOp5
 70
     1
102
RTVSPropertyOp6
 70
     1
102
RTVSPropertyOp7
 70
     1
102
RTVSPropertyOp8
 70
     1
102
RTVSPropertyOp9
 70
     1
102
RTVSPropertyOp10
 70
     1
102
RTVSPropertyOp11
 70
     1
102
RTVSPropertyOp12
 70
     1
102
RTVSPropertyOp13
 70
     1
102
RTVSPropertyOp14
 70
     1
102
RTVSPropertyOp15
 70
     1
102
RTVSPropertyOp16
 70
     1
102
RTVSPropertyOp17
 70
     1
102
RTVSPropertyOp18
 70
     1
102
RTVSPropertyOp19
 70
     1
102
RTVSPropertyOp20
 70
     1
102
RTVSPropertyOp21
 70
     1
102
RTVSPropertyOp22
 70
     1
102
RTVSPropertyOp23
 70
     1
102
RTVSPropertyOp24
 70
     1
102
RTVSPropertyOp25
 70
     1
102
RTVSPropertyOp26
 70
     1
102
RTVSPropertyOp27
 70
     1
102
RTVSPropertyOp28
 70
     1
102
RTVSPropertyOp29
 70
     1
102
RTVSPropertyOp30
 70
     1
102
RTVSPropertyOp31
 70
     1
102
RTVSPropertyOp32
 70
     1
  0
ENDSEC
  0
EOF
