  0
SECTION
  2
HEADER
  9
$ACADVER
  1
AC1015
  9
$ACADMAINTVER
 70
    18
  9
$DWGCODEPAGE
  3
ANSI_1252
  9
$INSBASE
 10
0.0
 20
0.0
 30
0.0
  9
$EXTMIN
 10
0.0
 20
0.0
 30
0.0
  9
$EXTMAX
 10
68.0
 20
44.0
 30
0.0
  9
$LIMMIN
 10
0.0
 20
0.0
  9
$LIMMAX
 10
68.0
 20
44.0
  9
$ORTHOMODE
 70
     0
  9
$REGENMODE
 70
     1
  9
$FILLMODE
 70
     1
  9
$QTEXTMODE
 70
     0
  9
$MIRRTEXT
 70
     0
  9
$LTSCALE
 40
4.0
  9
$ATTMODE
 70
     1
  9
$TEXTSIZE
 40
0.2
  9
$TRACEWID
 40
0.05
  9
$TEXTSTYLE
  7
Standard
  9
$CLAYER
  8
0
  9
$CELTYPE
  6
ByLayer
  9
$CECOLOR
 62
   256
  9
$CELTSCALE
 40
1.0
  9
$DISPSILH
 70
     0
  9
$DIMSCALE
 40
1.0
  9
$DIMASZ
 40
0.0708661417322835
  9
$DIMEXO
 40
0.0625
  9
$DIMDLI
 40
0.38
  9
$DIMRND
 40
0.0
  9
$DIMDLE
 40
0.0
  9
$DIMEXE
 40
0.18
  9
$DIMTP
 40
0.0
  9
$DIMTM
 40
0.0
  9
$DIMTXT
 40
0.0708661417322835
  9
$DIMCEN
 40
0.09
  9
$DIMTSZ
 40
0.0
  9
$DIMTOL
 70
     0
  9
$DIMLIM
 70
     0
  9
$DIMTIH
 70
     1
  9
$DIMTOH
 70
     1
  9
$DIMSE1
 70
     0
  9
$DIMSE2
 70
     0
  9
$DIMTAD
 70
     0
  9
$DIMZIN
 70
     0
  9
$DIMBLK
  1

  9
$DIMASO
 70
     1
  9
$DIMSHO
 70
     1
  9
$DIMPOST
  1

  9
$DIMAPOST
  1

  9
$DIMALT
 70
     0
  9
$DIMALTD
 70
     2
  9
$DIMALTF
 40
25.4
  9
$DIMLFAC
 40
1.0
  9
$DIMTOFL
 70
     0
  9
$DIMTVP
 40
0.0
  9
$DIMTIX
 70
     0
  9
$DIMSOXD
 70
     0
  9
$DIMSAH
 70
     0
  9
$DIMBLK1
  1

  9
$DIMBLK2
  1

  9
$DIMSTYLE
  2
STANDARD
  9
$DIMCLRD
 70
     0
  9
$DIMCLRE
 70
     0
  9
$DIMCLRT
 70
     0
  9
$DIMTFAC
 40
1.0
  9
$DIMGAP
 40
0.09
  9
$DIMJUST
 70
     0
  9
$DIMSD1
 70
     0
  9
$DIMSD2
 70
     0
  9
$DIMTOLJ
 70
     1
  9
$DIMTZIN
 70
     0
  9
$DIMALTZ
 70
     0
  9
$DIMALTTZ
 70
     0
  9
$DIMUPT
 70
     0
  9
$DIMDEC
 70
     4
  9
$DIMTDEC
 70
     4
  9
$DIMALTU
 70
     2
  9
$DIMALTTD
 70
     2
  9
$DIMTXSTY
  7
Standard
  9
$DIMAUNIT
 70
     0
  9
$DIMADEC
 70
     0
  9
$DIMALTRND
 40
0.0
  9
$DIMAZIN
 70
     0
  9
$DIMDSEP
 70
    46
  9
$DIMATFIT
 70
     3
  9
$DIMFRAC
 70
     0
  9
$DIMLDRBLK
  1

  9
$DIMLUNIT
 70
     2
  9
$DIMLWD
 70
    -2
  9
$DIMLWE
 70
    -2
  9
$DIMTMOVE
 70
     0
  9
$LUNITS
 70
     2
  9
$LUPREC
 70
     4
  9
$SKETCHINC
 40
0.1
  9
$FILLETRAD
 40
0.0
  9
$AUNITS
 70
     0
  9
$AUPREC
 70
     0
  9
$MENU
  1
.
  9
$ELEVATION
 40
0.0
  9
$PELEVATION
 40
0.0
  9
$THICKNESS
 40
0.0
  9
$LIMCHECK
 70
     0
  9
$CHAMFERA
 40
0.0
  9
$CHAMFERB
 40
0.0
  9
$CHAMFERC
 40
0.0
  9
$CHAMFERD
 40
0.0
  9
$SKPOLY
 70
     0
  9
$TDCREATE
 40
2455944.476710718
  9
$TDUCREATE
 40
2455944.726710718
  9
$TDUPDATE
 40
2455944.476711088
  9
$TDUUPDATE
 40
2455944.726711088
  9
$TDINDWG
 40
0.0000359954
  9
$TDUSRTIMER
 40
0.0000359954
  9
$USRTIMER
 70
     1
  9
$ANGBASE
 50
0.0
  9
$ANGDIR
 70
     0
  9
$PDMODE
 70
     0
  9
$PDSIZE
 40
0.0
  9
$PLINEWID
 40
0.0
  9
$SPLFRAME
 70
     0
  9
$SPLINETYPE
 70
     6
  9
$SPLINESEGS
 70
     8
  9
$HANDSEED
  5
C06
  9
$SURFTAB1
 70
     6
  9
$SURFTAB2
 70
     6
  9
$SURFTYPE
 70
     6
  9
$SURFU
 70
     6
  9
$SURFV
 70
     6
  9
$UCSBASE
  2

  9
$UCSNAME
  2

  9
$UCSORG
 10
0.0
 20
0.0
 30
0.0
  9
$UCSXDIR
 10
1.0
 20
0.0
 30
0.0
  9
$UCSYDIR
 10
0.0
 20
1.0
 30
0.0
  9
$UCSORTHOREF
  2

  9
$UCSORTHOVIEW
 70
     0
  9
$UCSORGTOP
 10
0.0
 20
0.0
 30
0.0
  9
$UCSORGBOTTOM
 10
0.0
 20
0.0
 30
0.0
  9
$UCSORGLEFT
 10
0.0
 20
0.0
 30
0.0
  9
$UCSORGRIGHT
 10
0.0
 20
0.0
 30
0.0
  9
$UCSORGFRONT
 10
0.0
 20
0.0
 30
0.0
  9
$UCSORGBACK
 10
0.0
 20
0.0
 30
0.0
  9
$PUCSBASE
  2

  9
$PUCSNAME
  2

  9
$PUCSORG
 10
0.0
 20
0.0
 30
0.0
  9
$PUCSXDIR
 10
1.0
 20
0.0
 30
0.0
  9
$PUCSYDIR
 10
0.0
 20
1.0
 30
0.0
  9
$PUCSORTHOREF
  2

  9
$PUCSORTHOVIEW
 70
     0
  9
$PUCSORGTOP
 10
0.0
 20
0.0
 30
0.0
  9
$PUCSORGBOTTOM
 10
0.0
 20
0.0
 30
0.0
  9
$PUCSORGLEFT
 10
0.0
 20
0.0
 30
0.0
  9
$PUCSORGRIGHT
 10
0.0
 20
0.0
 30
0.0
  9
$PUCSORGFRONT
 10
0.0
 20
0.0
 30
0.0
  9
$PUCSORGBACK
 10
0.0
 20
0.0
 30
0.0
  9
$USERI1
 70
     0
  9
$USERI2
 70
     0
  9
$USERI3
 70
     0
  9
$USERI4
 70
     0
  9
$USERI5
 70
     0
  9
$USERR1
 40
0.0
  9
$USERR2
 40
0.0
  9
$USERR3
 40
0.0
  9
$USERR4
 40
0.0
  9
$USERR5
 40
0.0
  9
$WORLDVIEW
 70
     1
  9
$SHADEDGE
 70
     3
  9
$SHADEDIF
 70
    70
  9
$TILEMODE
 70
     1
  9
$MAXACTVP
 70
    64
  9
$PINSBASE
 10
0.0
 20
0.0
 30
0.0
  9
$PLIMCHECK
 70
     0
  9
$PEXTMIN
 10
0.0
 20
0.0
 30
0.0
  9
$PEXTMAX
 10
68.0
 20
44.0
 30
0.0
  9
$PLIMMIN
 10
0.0
 20
0.0
  9
$PLIMMAX
 10
68.0
 20
44.0
  9
$UNITMODE
 70
     0
  9
$VISRETAIN
 70
     1
  9
$PLINEGEN
 70
     0
  9
$PSLTSCALE
 70
     1
  9
$TREEDEPTH
 70
  3020
  9
$CMLSTYLE
  2
Standard
  9
$CMLJUST
 70
     0
  9
$CMLSCALE
 40
1.0
  9
$PROXYGRAPHICS
 70
     1
  9
$MEASUREMENT
 70
     0
  9
$CELWEIGHT
370
    -1
  9
$ENDCAPS
280
     0
  9
$JOINSTYLE
280
     0
  9
$LWDISPLAY
290
     0
  9
$INSUNITS
 70
     1
  9
$HYPERLINKBASE
  1

  9
$STYLESHEET
  1

  9
$XEDIT
290
     1
  9
$CEPSNTYPE
380
     0
  9
$PSTYLEMODE
290
     1
  9
$FINGERPRINTGUID
  2
{688BFFE3-FD36-4A90-978D-54CBAEC596D6}
  9
$VERSIONGUID
  2
{8EEF61D7-A42E-4C25-AF0A-CFEEFD79F19A}
  9
$EXTNAMES
290
     1
  9
$PSVPSCALE
 40
0.0
  9
$OLESTARTUP
290
     0
  0
ENDSEC
  0
SECTION
  2
CLASSES
  0
CLASS
  1
ACDBDICTIONARYWDFLT
  2
AcDbDictionaryWithDefault
  3
ObjectDBX Classes
 90
        0
280
     0
281
     0
  0
CLASS
  1
MATERIAL
  2
AcDbMaterial
  3
ObjectDBX Classes
 90
     1153
280
     0
281
     0
  0
CLASS
  1
VISUALSTYLE
  2
AcDbVisualStyle
  3
ObjectDBX Classes
 90
     4095
280
     0
281
     0
  0
CLASS
  1
SCALE
  2
AcDbScale
  3
ObjectDBX Classes
 90
     1153
280
     0
281
     0
  0
CLASS
  1
TABLESTYLE
  2
AcDbTableStyle
  3
ObjectDBX Classes
 90
     4095
280
     0
281
     0
  0
CLASS
  1
MLEADERSTYLE
  2
AcDbMLeaderStyle
  3
ACDB_MLEADERSTYLE_CLASS
 90
     4095
280
     0
281
     0
  0
CLASS
  1
DICTIONARYVAR
  2
AcDbDictionaryVar
  3
ObjectDBX Classes
 90
        0
280
     0
281
     0
  0
CLASS
  1
CELLSTYLEMAP
  2
AcDbCellStyleMap
  3
ObjectDBX Classes
 90
     1152
280
     0
281
     0
  0
CLASS
  1
ACDBPLACEHOLDER
  2
AcDbPlaceHolder
  3
ObjectDBX Classes
 90
        0
280
     0
281
     0
  0
CLASS
  1
LAYOUT
  2
AcDbLayout
  3
ObjectDBX Classes
 90
        0
280
     0
281
     0
  0
ENDSEC
  0
SECTION
  2
TABLES
  0
TABLE
  2
VPORT
  5
8
330
0
100
AcDbSymbolTable
 70
     1
  0
VPORT
  5
57
330
8
100
AcDbSymbolTableRecord
100
AcDbViewportTableRecord
  2
*Active
 70
     0
 10
0.0
 20
0.0
 11
1.0
 21
1.0
 12
34.0
 22
22.0
 13
0.0
 23
0.0
 14
1.0
 24
1.0
 15
0.0
 25
0.0
 16
0.0
 26
0.0
 36
1.0
 17
0.0
 27
0.0
 37
0.0
 40
44.0
 41
1.545454545454545
 42
50.0
 43
0.0
 44
0.0
 50
0.0
 51
0.0
 71
     0
 72
   100
 73
     1
 74
     1
 75
     0
 76
     0
 77
     0
 78
     0
281
     0
 65
     1
110
0.0
120
0.0
130
0.0
111
1.0
121
0.0
131
0.0
112
0.0
122
1.0
132
0.0
 79
     0
146
0.0
  0
ENDTAB
  0
TABLE
  2
LTYPE
  5
5
330
0
100
AcDbSymbolTable
 70
    67
  0
LTYPE
  5
5B
330
5
100
AcDbSymbolTableRecord
100
AcDbLinetypeTableRecord
  2
ByBlock
 70
     0
  3

 72
    65
 73
     0
 40
0.0
  0
LTYPE
  5
5C
330
5
100
AcDbSymbolTableRecord
100
AcDbLinetypeTableRecord
  2
ByLayer
 70
     0
  3

 72
    65
 73
     0
 40
0.0
  0
LTYPE
  5
5D
330
5
100
AcDbSymbolTableRecord
100
AcDbLinetypeTableRecord
  2
Continuous
 70
     0
  3
Solid line
 72
    65
 73
     0
 40
0.0
  0
LTYPE
  5
DD
330
5
100
AcDbSymbolTableRecord
100
AcDbLinetypeTableRecord
  2
BY_STANDARD
 70
     0
  3
By Standard ____________    ____    ____   _
 72
    65
 73
     6
 40
1.240299999999999
 49
0.6614
 74
     0
 49
-0.0827
 74
     0
 49
0.1654
 74
     0
 49
-0.0827
 74
     0
 49
0.1654
 74
     0
 49
-0.0827
 74
     0
  0
LTYPE
  5
DE
330
5
100
AcDbSymbolTableRecord
100
AcDbLinetypeTableRecord
  2
CHAIN
 70
     0
  3
Chain ____ _ ____ _ ____ _ ____ _ ____ _ ____
 72
    65
 73
     4
 40
0.7087
 49
0.4724000000000001
 74
     0
 49
-0.0591
 74
     0
 49
0.1181
 74
     0
 49
-0.0591
 74
     0
  0
LTYPE
  5
DF
330
5
100
AcDbSymbolTableRecord
100
AcDbLinetypeTableRecord
  2
DASH_DOT
 70
     0
  3
Dash dot __ . __ . __ . __ . __ . __ . __ . __
 72
    65
 73
     4
 40
0.37
 49
0.24
 74
     0
 49
-0.06
 74
     0
 49
0.01
 74
     0
 49
-0.06
 74
     0
  0
LTYPE
  5
E0
330
5
100
AcDbSymbolTableRecord
100
AcDbLinetypeTableRecord
  2
DOUBLE_DASH_DOT
 70
     0
  3
Double-Dash Dot __ __ . __ __ . __ __ . __ _
 72
    65
 73
     6
 40
0.4398
 49
0.24
 74
     0
 49
-0.06
 74
     0
 49
0.0098
 74
     0
 49
-0.06
 74
     0
 49
0.01
 74
     0
 49
-0.06
 74
     0
  0
LTYPE
  5
E1
330
5
100
AcDbSymbolTableRecord
100
AcDbLinetypeTableRecord
  2
DASH_TRIPLE_DOT
 70
     0
  3
Dash Triple-Dot _ . . . _ . . . _ . . . _
 72
    65
 73
     8
 40
0.51
 49
0.24
 74
     0
 49
-0.06
 74
     0
 49
0.01
 74
     0
 49
-0.06
 74
     0
 49
0.01
 74
     0
 49
-0.06
 74
     0
 49
0.01
 74
     0
 49
-0.06
 74
     0
  0
LTYPE
  5
E2
330
5
100
AcDbSymbolTableRecord
100
AcDbLinetypeTableRecord
  2
DASHED
 70
     0
  3
Dashed __ __ __ __ __ __ __ __ __ __ __ __ __ _
 72
    65
 73
     2
 40
0.2067
 49
0.1654
 74
     0
 49
-0.0413
 74
     0
  0
LTYPE
  5
E3
330
5
100
AcDbSymbolTableRecord
100
AcDbLinetypeTableRecord
  2
DASH_DOUBLE_DOT
 70
     0
  3
Dash Double-Dot __ . . __ . . __ . . __ . .
 72
    65
 73
     6
 40
0.4398
 49
0.24
 74
     0
 49
-0.06
 74
     0
 49
0.0098
 74
     0
 49
-0.06
 74
     0
 49
0.01
 74
     0
 49
-0.06
 74
     0
  0
LTYPE
  5
E4
330
5
100
AcDbSymbolTableRecord
100
AcDbLinetypeTableRecord
  2
DASHED_SPACE
 70
     0
  3
Dashed Space __ __ __ __ __ __ __ __ __ __ __ _
 72
    65
 73
     2
 40
0.2067
 49
0.1654
 74
     0
 49
-0.0413
 74
     0
  0
LTYPE
  5
E5
330
5
100
AcDbSymbolTableRecord
100
AcDbLinetypeTableRecord
  2
DOTTED
 70
     0
  3
Dotted . . . . . . . . . . . . . . . . . . . . 
 72
    65
 73
     2
 40
0.0482
 49
0.0069
 74
     0
 49
-0.0413
 74
     0
  0
LTYPE
  5
E6
330
5
100
AcDbSymbolTableRecord
100
AcDbLinetypeTableRecord
  2
DOUBLE_DASH_CHAIN
 70
     0
  3
Double-Dash Chain ______  __  __  ______  __  _
 72
    65
 73
     6
 40
1.240299999999999
 49
0.6614
 74
     0
 49
-0.0827
 74
     0
 49
0.1654
 74
     0
 49
-0.0827
 74
     0
 49
0.1654
 74
     0
 49
-0.0827
 74
     0
  0
LTYPE
  5
E8
330
5
100
AcDbSymbolTableRecord
100
AcDbLinetypeTableRecord
  2
DOUBLE_DASH_DOUBLE_DOT
 70
     0
  3
Double-Dash Double-dot _ _ . . _ _ . . _
 72
    65
 73
     8
 40
0.7400000000000001
 49
0.24
 74
     0
 49
-0.06
 74
     0
 49
0.24
 74
     0
 49
-0.06
 74
     0
 49
0.01
 74
     0
 49
-0.06
 74
     0
 49
0.01
 74
     0
 49
-0.06
 74
     0
  0
LTYPE
  5
E9
330
5
100
AcDbSymbolTableRecord
100
AcDbLinetypeTableRecord
  2
DOUBLE_DASH_TRIPLE_DOT
 70
     0
  3
Double Dash Triple Dot __ __ . . . __ __ . .
 72
    65
 73
    10
 40
0.8100000000000001
 49
0.24
 74
     0
 49
-0.06
 74
     0
 49
0.24
 74
     0
 49
-0.06
 74
     0
 49
0.01
 74
     0
 49
-0.06
 74
     0
 49
0.01
 74
     0
 49
-0.06
 74
     0
 49
0.01
 74
     0
 49
-0.06
 74
     0
  0
LTYPE
  5
EA
330
5
100
AcDbSymbolTableRecord
100
AcDbLinetypeTableRecord
  2
LONG_DASH_DOTTED
 70
     0
  3
Long Dash Dotted ____ . ____ . ____ . ____ . _
 72
    65
 73
     4
 40
0.3543
 49
0.2362
 74
     0
 49
-0.0295
 74
     0
 49
0.0591
 74
     0
 49
-0.0295
 74
     0
  0
LTYPE
  5
EB
330
5
100
AcDbSymbolTableRecord
100
AcDbLinetypeTableRecord
  2
LONG_DASH_DOUBLE_DOT
 70
     0
  3
Long Dash Double Dot ________  .  .  ________  
 72
    65
 73
     6
 40
0.6799999999999999
 49
0.48
 74
     0
 49
-0.06
 74
     0
 49
0.01
 74
     0
 49
-0.06
 74
     0
 49
0.01
 74
     0
 49
-0.06
 74
     0
  0
LTYPE
  5
EC
330
5
100
AcDbSymbolTableRecord
100
AcDbLinetypeTableRecord
  2
LONG_DASH_TRIPLE_DOT
 70
     0
  3
Long Dash Triple Dot ____ ... ____ ... ____
 72
    65
 73
     8
 40
0.3689
 49
0.2362
 74
     0
 49
-0.0295
 74
     0
 49
0.0049
 74
     0
 49
-0.0295
 74
     0
 49
0.0049
 74
     0
 49
-0.0295
 74
     0
 49
0.0049
 74
     0
 49
-0.0295
 74
     0
  0
LTYPE
  5
ED
330
5
100
AcDbSymbolTableRecord
100
AcDbLinetypeTableRecord
  2
BORDER
 70
     0
  3
Border __ __ . __ __ . __ __ . __ __ . __ __ .
 72
    65
 73
     6
 40
1.75
 49
0.5
 74
     0
 49
-0.25
 74
     0
 49
0.5
 74
     0
 49
-0.25
 74
     0
 49
0.0
 74
     0
 49
-0.25
 74
     0
  0
LTYPE
  5
EE
330
5
100
AcDbSymbolTableRecord
100
AcDbLinetypeTableRecord
  2
BORDER2
 70
     0
  3
Border (.5x) __.__.__.__.__.__.__.__.__.__.__.
 72
    65
 73
     6
 40
0.875
 49
0.25
 74
     0
 49
-0.125
 74
     0
 49
0.25
 74
     0
 49
-0.125
 74
     0
 49
0.0
 74
     0
 49
-0.125
 74
     0
  0
LTYPE
  5
EF
330
5
100
AcDbSymbolTableRecord
100
AcDbLinetypeTableRecord
  2
BORDERX2
 70
     0
  3
Border (2x) ____  ____  .  ____  ____  .  ___
 72
    65
 73
     6
 40
3.5
 49
1.0
 74
     0
 49
-0.5
 74
     0
 49
1.0
 74
     0
 49
-0.5
 74
     0
 49
0.0
 74
     0
 49
-0.5
 74
     0
  0
LTYPE
  5
F0
330
5
100
AcDbSymbolTableRecord
100
AcDbLinetypeTableRecord
  2
CENTER
 70
     0
  3
Center ____ _ ____ _ ____ _ ____ _ ____ _ ____
 72
    65
 73
     4
 40
2.0
 49
1.25
 74
     0
 49
-0.25
 74
     0
 49
0.25
 74
     0
 49
-0.25
 74
     0
  0
LTYPE
  5
F1
330
5
100
AcDbSymbolTableRecord
100
AcDbLinetypeTableRecord
  2
CENTER2
 70
     0
  3
Center (.5x) ___ _ ___ _ ___ _ ___ _ ___ _ ___
 72
    65
 73
     4
 40
1.125
 49
0.75
 74
     0
 49
-0.125
 74
     0
 49
0.125
 74
     0
 49
-0.125
 74
     0
  0
LTYPE
  5
F2
330
5
100
AcDbSymbolTableRecord
100
AcDbLinetypeTableRecord
  2
CENTERX2
 70
     0
  3
Center (2x) ________  __  ________  __  _____
 72
    65
 73
     4
 40
4.0
 49
2.5
 74
     0
 49
-0.5
 74
     0
 49
0.5
 74
     0
 49
-0.5
 74
     0
  0
LTYPE
  5
F3
330
5
100
AcDbSymbolTableRecord
100
AcDbLinetypeTableRecord
  2
DASHDOT2
 70
     0
  3
Dash dot (.5x) _._._._._._._._._._._._._._._.
 72
    65
 73
     4
 40
0.5
 49
0.25
 74
     0
 49
-0.125
 74
     0
 49
0.0
 74
     0
 49
-0.125
 74
     0
  0
LTYPE
  5
F4
330
5
100
AcDbSymbolTableRecord
100
AcDbLinetypeTableRecord
  2
DASHDOTX2
 70
     0
  3
Dash dot (2x) ____  .  ____  .  ____  .  ___
 72
    65
 73
     4
 40
2.0
 49
1.0
 74
     0
 49
-0.5
 74
     0
 49
0.0
 74
     0
 49
-0.5
 74
     0
  0
LTYPE
  5
F6
330
5
100
AcDbSymbolTableRecord
100
AcDbLinetypeTableRecord
  2
DASHED2
 70
     0
  3
Dashed (.5x) _ _ _ _ _ _ _ _ _ _ _ _ _ _ _ _ _
 72
    65
 73
     2
 40
0.375
 49
0.25
 74
     0
 49
-0.125
 74
     0
  0
LTYPE
  5
F7
330
5
100
AcDbSymbolTableRecord
100
AcDbLinetypeTableRecord
  2
DASHEDX2
 70
     0
  3
Dashed (2x) ____  ____  ____  ____  ____  ___
 72
    65
 73
     2
 40
1.5
 49
1.0
 74
     0
 49
-0.5
 74
     0
  0
LTYPE
  5
F8
330
5
100
AcDbSymbolTableRecord
100
AcDbLinetypeTableRecord
  2
DIVIDE
 70
     0
  3
Divide ____ . . ____ . . ____ . . ____ . . ____
 72
    65
 73
     6
 40
1.25
 49
0.5
 74
     0
 49
-0.25
 74
     0
 49
0.0
 74
     0
 49
-0.25
 74
     0
 49
0.0
 74
     0
 49
-0.25
 74
     0
  0
LTYPE
  5
F9
330
5
100
AcDbSymbolTableRecord
100
AcDbLinetypeTableRecord
  2
DIVIDE2
 70
     0
  3
Divide (.5x) __..__..__..__..__..__..__..__.._
 72
    65
 73
     6
 40
0.625
 49
0.25
 74
     0
 49
-0.125
 74
     0
 49
0.0
 74
     0
 49
-0.125
 74
     0
 49
0.0
 74
     0
 49
-0.125
 74
     0
  0
LTYPE
  5
FA
330
5
100
AcDbSymbolTableRecord
100
AcDbLinetypeTableRecord
  2
DIVIDEX2
 70
     0
  3
Divide (2x) ________  .  .  ________  .  .  _
 72
    65
 73
     6
 40
2.5
 49
1.0
 74
     0
 49
-0.5
 74
     0
 49
0.0
 74
     0
 49
-0.5
 74
     0
 49
0.0
 74
     0
 49
-0.5
 74
     0
  0
LTYPE
  5
FB
330
5
100
AcDbSymbolTableRecord
100
AcDbLinetypeTableRecord
  2
DOT
 70
     0
  3
Dot . . . . . . . . . . . . . . . . . . . . . .
 72
    65
 73
     2
 40
0.25
 49
0.0
 74
     0
 49
-0.25
 74
     0
  0
LTYPE
  5
FC
330
5
100
AcDbSymbolTableRecord
100
AcDbLinetypeTableRecord
  2
DOT2
 70
     0
  3
Dot (.5x) .....................................
 72
    65
 73
     2
 40
0.125
 49
0.0
 74
     0
 49
-0.125
 74
     0
  0
LTYPE
  5
FD
330
5
100
AcDbSymbolTableRecord
100
AcDbLinetypeTableRecord
  2
DOTX2
 70
     0
  3
Dot (2x) .  .  .  .  .  .  .  .  .  .  .  .  . 
 72
    65
 73
     2
 40
0.5
 49
0.0
 74
     0
 49
-0.5
 74
     0
  0
LTYPE
  5
FE
330
5
100
AcDbSymbolTableRecord
100
AcDbLinetypeTableRecord
  2
HIDDEN
 70
     0
  3
Hidden __ __ __ __ __ __ __ __ __ __ __ __ __ _
 72
    65
 73
     2
 40
0.375
 49
0.25
 74
     0
 49
-0.125
 74
     0
  0
LTYPE
  5
FF
330
5
100
AcDbSymbolTableRecord
100
AcDbLinetypeTableRecord
  2
HIDDEN2
 70
     0
  3
Hidden (.5x) _ _ _ _ _ _ _ _ _ _ _ _ _ _ _ _ _
 72
    65
 73
     2
 40
0.1875
 49
0.125
 74
     0
 49
-0.0625
 74
     0
  0
LTYPE
  5
100
330
5
100
AcDbSymbolTableRecord
100
AcDbLinetypeTableRecord
  2
HIDDENX2
 70
     0
  3
Hidden (2x) ____ ____ ____ ____ ____ ____ ____
 72
    65
 73
     2
 40
0.75
 49
0.5
 74
     0
 49
-0.25
 74
     0
  0
LTYPE
  5
101
330
5
100
AcDbSymbolTableRecord
100
AcDbLinetypeTableRecord
  2
PHANTOM
 70
     0
  3
Phantom ______  __  __  ______  __  __  ______
 72
    65
 73
     6
 40
2.5
 49
1.25
 74
     0
 49
-0.25
 74
     0
 49
0.25
 74
     0
 49
-0.25
 74
     0
 49
0.25
 74
     0
 49
-0.25
 74
     0
  0
LTYPE
  5
102
330
5
100
AcDbSymbolTableRecord
100
AcDbLinetypeTableRecord
  2
PHANTOM2
 70
     0
  3
Phantom (.5x) ___ _ _ ___ _ _ ___ _ _ ___ _ _
 72
    65
 73
     6
 40
1.25
 49
0.625
 74
     0
 49
-0.125
 74
     0
 49
0.125
 74
     0
 49
-0.125
 74
     0
 49
0.125
 74
     0
 49
-0.125
 74
     0
  0
LTYPE
  5
103
330
5
100
AcDbSymbolTableRecord
100
AcDbLinetypeTableRecord
  2
PHANTOMX2
 70
     0
  3
Phantom (2x) ____________    ____    ____   _
 72
    65
 73
     6
 40
5.0
 49
2.5
 74
     0
 49
-0.5
 74
     0
 49
0.5
 74
     0
 49
-0.5
 74
     0
 49
0.5
 74
     0
 49
-0.5
 74
     0
  0
LTYPE
  5
104
330
5
100
AcDbSymbolTableRecord
100
AcDbLinetypeTableRecord
  2
ACAD_ISO02W100
 70
     0
  3
ISO dash __ __ __ __ __ __ __ __ __ __ __ __ __
 72
    65
 73
     2
 40
0.59
 49
0.47
 74
     0
 49
-0.12
 74
     0
  0
LTYPE
  5
105
330
5
100
AcDbSymbolTableRecord
100
AcDbLinetypeTableRecord
  2
ACAD_ISO03W100
 70
     0
  3
ISO dash space __    __    __    __    __    __
 72
    65
 73
     2
 40
1.179999999999999
 49
0.47
 74
     0
 49
-0.71
 74
     0
  0
LTYPE
  5
106
330
5
100
AcDbSymbolTableRecord
100
AcDbLinetypeTableRecord
  2
ACAD_ISO04W100
 70
     0
  3
ISO long-dash dot ____ . ____ . ____ . ____ . _
 72
    65
 73
     4
 40
1.179999999999999
 49
0.9399999999999998
 74
     0
 49
-0.12
 74
     0
 49
0.0
 74
     0
 49
-0.12
 74
     0
  0
LTYPE
  5
107
330
5
100
AcDbSymbolTableRecord
100
AcDbLinetypeTableRecord
  2
ACAD_ISO05W100
 70
     0
  3
ISO long-dash double-dot ____ .. ____ .. ____ .
 72
    65
 73
     6
 40
1.299999999999999
 49
0.9399999999999998
 74
     0
 49
-0.12
 74
     0
 49
0.0
 74
     0
 49
-0.12
 74
     0
 49
0.0
 74
     0
 49
-0.12
 74
     0
  0
LTYPE
  5
108
330
5
100
AcDbSymbolTableRecord
100
AcDbLinetypeTableRecord
  2
ACAD_ISO06W100
 70
     0
  3
ISO long-dash triple-dot ____ ... ____ ... ____
 72
    65
 73
     8
 40
1.419999999999999
 49
0.9399999999999998
 74
     0
 49
-0.12
 74
     0
 49
0.0
 74
     0
 49
-0.12
 74
     0
 49
0.0
 74
     0
 49
-0.12
 74
     0
 49
0.0
 74
     0
 49
-0.12
 74
     0
  0
LTYPE
  5
109
330
5
100
AcDbSymbolTableRecord
100
AcDbLinetypeTableRecord
  2
ACAD_ISO07W100
 70
     0
  3
ISO dot . . . . . . . . . . . . . . . . . . . .
 72
    65
 73
     2
 40
0.12
 49
0.0
 74
     0
 49
-0.12
 74
     0
  0
LTYPE
  5
10A
330
5
100
AcDbSymbolTableRecord
100
AcDbLinetypeTableRecord
  2
ACAD_ISO08W100
 70
     0
  3
ISO long-dash short-dash ____ __ ____ __ ____ _
 72
    65
 73
     4
 40
0.95
 49
0.47
 74
     0
 49
-0.12
 74
     0
 49
0.24
 74
     0
 49
-0.12
 74
     0
  0
LTYPE
  5
10B
330
5
100
AcDbSymbolTableRecord
100
AcDbLinetypeTableRecord
  2
ACAD_ISO09W100
 70
     0
  3
ISO long-dash double-short-dash ____ __ __ ____
 72
    65
 73
     6
 40
1.31
 49
0.47
 74
     0
 49
-0.12
 74
     0
 49
0.24
 74
     0
 49
-0.12
 74
     0
 49
0.24
 74
     0
 49
-0.12
 74
     0
  0
LTYPE
  5
10C
330
5
100
AcDbSymbolTableRecord
100
AcDbLinetypeTableRecord
  2
ACAD_ISO10W100
 70
     0
  3
ISO dash dot __ . __ . __ . __ . __ . __ . __ .
 72
    65
 73
     4
 40
0.71
 49
0.47
 74
     0
 49
-0.12
 74
     0
 49
0.0
 74
     0
 49
-0.12
 74
     0
  0
LTYPE
  5
10D
330
5
100
AcDbSymbolTableRecord
100
AcDbLinetypeTableRecord
  2
ACAD_ISO11W100
 70
     0
  3
ISO double-dash dot __ __ . __ __ . __ __ . __ 
 72
    65
 73
     6
 40
1.299999999999999
 49
0.47
 74
     0
 49
-0.12
 74
     0
 49
0.47
 74
     0
 49
-0.12
 74
     0
 49
0.0
 74
     0
 49
-0.12
 74
     0
  0
LTYPE
  5
10E
330
5
100
AcDbSymbolTableRecord
100
AcDbLinetypeTableRecord
  2
ACAD_ISO12W100
 70
     0
  3
ISO dash double-dot __ . . __ . . __ . . __ . .
 72
    65
 73
     6
 40
0.8299999999999998
 49
0.47
 74
     0
 49
-0.12
 74
     0
 49
0.0
 74
     0
 49
-0.12
 74
     0
 49
0.0
 74
     0
 49
-0.12
 74
     0
  0
LTYPE
  5
10F
330
5
100
AcDbSymbolTableRecord
100
AcDbLinetypeTableRecord
  2
ACAD_ISO13W100
 70
     0
  3
ISO double-dash double-dot __ __ . . __ __ . . 
 72
    65
 73
     8
 40
1.419999999999999
 49
0.47
 74
     0
 49
-0.12
 74
     0
 49
0.47
 74
     0
 49
-0.12
 74
     0
 49
0.0
 74
     0
 49
-0.12
 74
     0
 49
0.0
 74
     0
 49
-0.12
 74
     0
  0
LTYPE
  5
110
330
5
100
AcDbSymbolTableRecord
100
AcDbLinetypeTableRecord
  2
ACAD_ISO14W100
 70
     0
  3
ISO dash triple-dot __ . . . __ . . . __ . . . 
 72
    65
 73
     8
 40
0.95
 49
0.47
 74
     0
 49
-0.12
 74
     0
 49
0.0
 74
     0
 49
-0.12
 74
     0
 49
0.0
 74
     0
 49
-0.12
 74
     0
 49
0.0
 74
     0
 49
-0.12
 74
     0
  0
LTYPE
  5
111
330
5
100
AcDbSymbolTableRecord
100
AcDbLinetypeTableRecord
  2
ACAD_ISO15W100
 70
     0
  3
ISO double-dash triple-dot __ __ . . . __ __ . 
 72
    65
 73
    10
 40
1.539999999999999
 49
0.47
 74
     0
 49
-0.12
 74
     0
 49
0.47
 74
     0
 49
-0.12
 74
     0
 49
0.0
 74
     0
 49
-0.12
 74
     0
 49
0.0
 74
     0
 49
-0.12
 74
     0
 49
0.0
 74
     0
 49
-0.12
 74
     0
  0
LTYPE
  5
114
330
5
100
AcDbSymbolTableRecord
100
AcDbLinetypeTableRecord
  2
FENCELINE1
 70
     0
  3
Fenceline circle ----0-----0----0-----0----0---
 72
    65
 73
     4
 40
1.45
 49
0.25
 74
     0
 49
-0.1
 74
     4
 75
   133
340
113
 46
0.1
 50
0.0
 44
-0.1
 45
0.0
 49
-0.1
 74
     0
 49
1.0
 74
     0
  0
LTYPE
  5
115
330
5
100
AcDbSymbolTableRecord
100
AcDbLinetypeTableRecord
  2
FENCELINE2
 70
     0
  3
Fenceline square ----[]-----[]----[]-----[]----
 72
    65
 73
     4
 40
1.45
 49
0.25
 74
     0
 49
-0.1
 74
     4
 75
   132
340
113
 46
0.1
 50
0.0
 44
-0.1
 45
0.0
 49
-0.1
 74
     0
 49
1.0
 74
     0
  0
LTYPE
  5
116
330
5
100
AcDbSymbolTableRecord
100
AcDbLinetypeTableRecord
  2
TRACKS
 70
     0
  3
Tracks -|-|-|-|-|-|-|-|-|-|-|-|-|-|-|-|-|-|-|-|
 72
    65
 73
     2
 40
0.3
 49
0.15
 74
     4
 75
   130
340
113
 46
0.25
 50
0.0
 44
0.0
 45
0.0
 49
0.15
 74
     0
  0
LTYPE
  5
117
330
5
100
AcDbSymbolTableRecord
100
AcDbLinetypeTableRecord
  2
BATTING
 70
     0
  3
Batting SSSSSSSSSSSSSSSSSSSSSSSSSSSSSSSSSSSSSSS
 72
    65
 73
     4
 40
0.4001000000000001
 49
0.0001
 74
     0
 49
-0.1
 74
     4
 75
   134
340
113
 46
0.1
 50
0.0
 44
-0.1
 45
0.0
 49
-0.2
 74
     4
 75
   134
340
113
 46
0.1
 50
180.0
 44
0.1
 45
0.0
 49
-0.1
 74
     0
  0
LTYPE
  5
118
330
5
100
AcDbSymbolTableRecord
100
AcDbLinetypeTableRecord
  2
HOT_WATER_SUPPLY
 70
     0
  3
Hot water supply ---- HW ---- HW ---- HW ----
 72
    65
 73
     3
 40
0.9
 49
0.5
 74
     0
 49
-0.2
 74
     2
 75
     0
340
55
 46
0.1
 50
0.0
 44
-0.1
 45
-0.05
  9
HW
 49
-0.2
 74
     0
  0
LTYPE
  5
119
330
5
100
AcDbSymbolTableRecord
100
AcDbLinetypeTableRecord
  2
GAS_LINE
 70
     0
  3
Gas line ----GAS----GAS----GAS----GAS----GAS---
 72
    65
 73
     3
 40
0.95
 49
0.5
 74
     0
 49
-0.2
 74
     2
 75
     0
340
55
 46
0.1
 50
0.0
 44
-0.1
 45
-0.05
  9
GAS
 49
-0.25
 74
     0
  0
LTYPE
  5
11A
330
5
100
AcDbSymbolTableRecord
100
AcDbLinetypeTableRecord
  2
ZIGZAG
 70
     0
  3
Zig zag /\/\/\/\/\/\/\/\/\/\/\/\/\/\/\/\/\/\/\/
 72
    65
 73
     4
 40
0.8001000000000001
 49
0.0001
 74
     0
 49
-0.2
 74
     4
 75
   131
340
113
 46
0.2
 50
0.0
 44
-0.2
 45
0.0
 49
-0.4
 74
     4
 75
   131
340
113
 46
0.2
 50
180.0
 44
0.2
 45
0.0
 49
-0.2
 74
     0
  0
LTYPE
  5
134
330
5
100
AcDbSymbolTableRecord
100
AcDbLinetypeTableRecord
  2
AM_ISO02W050
 70
     0
  3
_ 
 72
    65
 73
     2
 40
197.3684310913086
 49
157.8947448730469
 74
     0
 49
-39.47368621826172
 74
     0
  0
LTYPE
  5
135
330
5
100
AcDbSymbolTableRecord
100
AcDbLinetypeTableRecord
  2
AM_ISO08W050
 70
     0
  3
_ _ 
 72
    65
 73
     4
 40
473.6842346191406
 49
315.7894897460938
 74
     0
 49
-39.47368621826172
 74
     0
 49
78.94737243652343
 74
     0
 49
-39.47368621826172
 74
     0
  0
LTYPE
  5
136
330
5
100
AcDbSymbolTableRecord
100
AcDbLinetypeTableRecord
  2
AM_ISO09W050
 70
     0
  3
_ _ _ 
 72
    65
 73
     6
 40
592.1052932739257
 49
315.7894897460938
 74
     0
 49
-39.47368621826172
 74
     0
 49
78.94737243652343
 74
     0
 49
-39.47368621826172
 74
     0
 49
78.94737243652343
 74
     0
 49
-39.47368621826172
 74
     0
  0
LTYPE
  5
137
330
5
100
AcDbSymbolTableRecord
100
AcDbLinetypeTableRecord
  2
Amconstr
 70
     0
  3
_.
 72
    65
 73
     2
 40
263131.59375
 49
263131.59375
 74
     0
 49
0.0
 74
     0
  0
LTYPE
  5
138
330
5
100
AcDbSymbolTableRecord
100
AcDbLinetypeTableRecord
  2
AM_ISO08W050x2
 70
     0
  3
_ _ 
 72
    65
 73
     4
 40
236.8421173095703
 49
157.8947448730469
 74
     0
 49
-19.73684310913086
 74
     0
 49
39.47368621826172
 74
     0
 49
-19.73684310913086
 74
     0
  0
LTYPE
  5
139
330
5
100
AcDbSymbolTableRecord
100
AcDbLinetypeTableRecord
  2
AM_ISO02W050x2
 70
     0
  3
_ 
 72
    65
 73
     2
 40
98.68421554565429
 49
78.94737243652343
 74
     0
 49
-19.73684310913086
 74
     0
  0
LTYPE
  5
13A
330
5
100
AcDbSymbolTableRecord
100
AcDbLinetypeTableRecord
  2
ACANSTGB
 70
     0
  3
_ _ _ 
 72
    65
 73
     6
 40
9.324492573738098
 49
4.144218921661376
 74
     0
 49
-1.036054730415344
 74
     0
 49
1.036054730415344
 74
     0
 49
-1.036054730415344
 74
     0
 49
1.036054730415344
 74
     0
 49
-1.036054730415344
 74
     0
  0
LTYPE
  5
13B
330
5
100
AcDbSymbolTableRecord
100
AcDbLinetypeTableRecord
  2
ACANSTGL
 70
     0
  3
_ 
 72
    65
 73
     2
 40
3.108164191246032
 49
2.072109460830688
 74
     0
 49
-1.036054730415344
 74
     0
  0
ENDTAB
  0
TABLE
  2
LAYER
  5
2
330
0
100
AcDbSymbolTable
 70
    27
  0
LAYER
  5
54
330
2
100
AcDbSymbolTableRecord
100
AcDbLayerTableRecord
  2
0
 70
     0
 62
     7
  6
Continuous
370
    18
390
F
  0
LAYER
  5
75
330
2
100
AcDbSymbolTableRecord
100
AcDbLayerTableRecord
  2
Symbol (ANSI)
 70
     0
 62
     7
  6
Continuous
370
    18
390
F
  0
LAYER
  5
124
330
2
100
AcDbSymbolTableRecord
100
AcDbLayerTableRecord
  2
Dimension (ANSI)
 70
     0
 62
     7
  6
Continuous
370
    13
390
F
  0
LAYER
  5
126
330
2
100
AcDbSymbolTableRecord
100
AcDbLayerTableRecord
  2
Hidden (ANSI)
 70
     0
 62
     7
  6
DASHED
370
    15
390
F
  0
LAYER
  5
12F
330
2
100
AcDbSymbolTableRecord
100
AcDbLayerTableRecord
  2
Visible (ANSI)
 70
     0
 62
     7
  6
Continuous
370
    13
390
F
  0
LAYER
  5
1C7
330
2
100
AcDbSymbolTableRecord
100
AcDbLayerTableRecord
  2
Defpoints
 70
     0
 62
     7
  6
Continuous
290
     0
370
    -3
390
F
  0
ENDTAB
  0
TABLE
  2
STYLE
  5
3
330
0
100
AcDbSymbolTable
 70
    18
  0
STYLE
  5
55
330
3
100
AcDbSymbolTableRecord
100
AcDbTextStyleTableRecord
  2
Standard
 70
     0
 40
0.0
 41
1.0
 50
0.0
 71
     0
 42
0.2
  3
txt
  4

  0
STYLE
  5
5A
330
3
100
AcDbSymbolTableRecord
100
AcDbTextStyleTableRecord
  2
Annotative
 70
     0
 40
0.0
 41
1.0
 50
0.0
 71
     0
 42
0.2
  3
txt
  4

1001
AcadAnnotative
1000
AnnotativeData
1002
{
1070
     1
1070
     1
1002
}
  0
STYLE
  5
76
330
3
100
AcDbSymbolTableRecord
100
AcDbTextStyleTableRecord
  2
Note Text (ANSI)
 70
     0
 40
0.0
 41
1.0
 50
0.0
 71
     0
 42
0.2
  3
TAHOMA.TTF
  4

1001
ACAD
1000
Tahoma
1071
      256
  0
STYLE
  5
78
330
3
100
AcDbSymbolTableRecord
100
AcDbTextStyleTableRecord
  2
SANSSERIF
 70
     0
 40
0.125
 41
1.0
 50
0.0
 71
     0
 42
0.125
  3
sas_____.pfb
  4

  0
STYLE
  5
113
330
3
100
AcDbSymbolTableRecord
100
AcDbTextStyleTableRecord
  2

 70
     1
 40
0.0
 41
1.0
 50
0.0
 71
     0
 42
0.2
  3
ltypeshp.shx
  4

  0
STYLE
  5
13C
330
3
100
AcDbSymbolTableRecord
100
AcDbTextStyleTableRecord
  2
ITALICC_120
 70
     0
 40
0.0
 41
1.0
 50
0.0
 71
     0
 42
0.2
  3
italicc.shx
  4

  0
STYLE
  5
13D
330
3
100
AcDbSymbolTableRecord
100
AcDbTextStyleTableRecord
  2
Label Text (ANSI)
 70
     0
 40
0.0
 41
1.0
 50
0.0
 71
     0
 42
0.2
  3
TAHOMA.TTF
  4

1001
ACAD
1000
Tahoma
1071
      256
  0
STYLE
  5
13E
330
3
100
AcDbSymbolTableRecord
100
AcDbTextStyleTableRecord
  2
ROMANS
 70
     0
 40
0.0
 41
1.0
 50
0.0
 71
     0
 42
0.2
  3
romans.shx
  4

  0
STYLE
  5
13F
330
3
100
AcDbSymbolTableRecord
100
AcDbTextStyleTableRecord
  2
SANSSERIF_114
 70
     0
 40
0.0
 41
1.0
 50
0.0
 71
     0
 42
0.2
  3
TAHOMA.TTF
  4

1001
ACAD
1000
Tahoma
1071
      256
  0
STYLE
  5
140
330
3
100
AcDbSymbolTableRecord
100
AcDbTextStyleTableRecord
  2
SANSSERIF_117
 70
     0
 40
0.0
 41
1.0
 50
0.0
 71
     0
 42
0.2
  3
TAHOMA.TTF
  4

1001
ACAD
1000
Tahoma
1071
      256
  0
STYLE
  5
141
330
3
100
AcDbSymbolTableRecord
100
AcDbTextStyleTableRecord
  2
STANDARDAM_ANSI
 70
     0
 40
0.0
 41
1.0
 50
0.0
 71
     0
 42
0.2
  3
txt.shx
  4

  0
STYLE
  5
142
330
3
100
AcDbSymbolTableRecord
100
AcDbTextStyleTableRecord
  2
StandardAM_ANSI$0
 70
     0
 40
0.0
 41
1.0
 50
0.0
 71
     0
 42
0.2
  3
txt.shx
  4

  0
STYLE
  5
143
330
3
100
AcDbSymbolTableRecord
100
AcDbTextStyleTableRecord
  2
STANDARDAM_ANSI$3
 70
     0
 40
0.0
 41
1.0
 50
0.0
 71
     0
 42
0.2
  3
txt.shx
  4

  0
STYLE
  5
144
330
3
100
AcDbSymbolTableRecord
100
AcDbTextStyleTableRecord
  2
STANDARDAM_ANSI$4
 70
     0
 40
0.0
 41
1.0
 50
0.0
 71
     0
 42
0.2
  3
txt.shx
  4

  0
STYLE
  5
145
330
3
100
AcDbSymbolTableRecord
100
AcDbTextStyleTableRecord
  2
STANDARDAM_ANSI$7
 70
     0
 40
0.0
 41
1.0
 50
0.0
 71
     0
 42
0.2
  3
txt.shx
  4

  0
STYLE
  5
146
330
3
100
AcDbSymbolTableRecord
100
AcDbTextStyleTableRecord
  2
STANDARDAM_ANSI$SF
 70
     0
 40
0.0
 41
1.0
 50
0.0
 71
     0
 42
0.2
  3
txt.shx
  4

  0
STYLE
  5
147
330
3
100
AcDbSymbolTableRecord
100
AcDbTextStyleTableRecord
  2
STANDARDAM_ANSI$SH
 70
     0
 40
0.0
 41
1.0
 50
0.0
 71
     0
 42
0.2
  3
txt.shx
  4

  0
STYLE
  5
148
330
3
100
AcDbSymbolTableRecord
100
AcDbTextStyleTableRecord
  2
STANDARDSTANDARD
 70
     0
 40
0.0
 41
1.0
 50
0.0
 71
     0
 42
0.2
  3
txt.shx
  4

  0
ENDTAB
  0
TABLE
  2
VIEW
  5
6
330
0
100
AcDbSymbolTable
 70
     0
  0
ENDTAB
  0
TABLE
  2
UCS
  5
7
330
0
100
AcDbSymbolTable
 70
     0
  0
ENDTAB
  0
TABLE
  2
APPID
  5
9
330
0
100
AcDbSymbolTable
 70
     4
  0
APPID
  5
56
330
9
100
AcDbSymbolTableRecord
100
AcDbRegAppTableRecord
  2
ACAD
 70
     0
  0
APPID
  5
5E
330
9
100
AcDbSymbolTableRecord
100
AcDbRegAppTableRecord
  2
AcadAnnotative
 70
     0
  0
APPID
  5
9F3
330
9
100
AcDbSymbolTableRecord
100
AcDbRegAppTableRecord
  2
ACAD_DSTYLE_DIMRADIAL_EXTENSION
 70
     0
  0
APPID
  5
BFB
330
9
100
AcDbSymbolTableRecord
100
AcDbRegAppTableRecord
  2
ACAD_MLEADERVER
 70
     0
  0
ENDTAB
  0
TABLE
  2
DIMSTYLE
  5
A
330
0
100
AcDbSymbolTable
 70
    27
100
AcDbDimStyleTable
 71
     2
340
15D
340
58
  0
DIMSTYLE
105
58
330
A
100
AcDbSymbolTableRecord
100
AcDbDimStyleTableRecord
  2
STANDARD
 70
     0
 41
0.1800000071525573
 42
0.0625
140
0.1800000071525574
144
1.0
147
0.0900000035762787
176
   256
177
   256
178
   256
274
     3
340
55
371
    -1
372
    -1
  0
DIMSTYLE
105
59
330
A
100
AcDbSymbolTableRecord
100
AcDbDimStyleTableRecord
  2
Annotative
 70
     0
340
55
1001
AcadAnnotative
1000
AnnotativeData
1002
{
1070
     1
1070
     1
1002
}
  0
DIMSTYLE
105
149
330
A
100
AcDbSymbolTableRecord
100
AcDbDimStyleTableRecord
  2
AM_ANSI
 70
     0
  4
 mm
 40
4.0
 41
0.119999997317791
 42
0.05
 43
0.5
 44
0.1
 45
0.00000001
 78
     4
 79
     2
140
0.1200000047683716
146
0.7099999453624112
147
0.0599999986588955
176
   256
177
   256
178
     2
284
     4
340
141
371
    -1
372
    -1
  0
DIMSTYLE
105
14A
330
A
100
AcDbSymbolTableRecord
100
AcDbDimStyleTableRecord
  2
AM_ANSI$7
 70
     0
  4
 mm
 40
4.0
 41
0.119999997317791
 42
0.05
 43
0.5
 44
0.1
 45
0.00000001
 78
     4
 79
     2
140
0.1200000047683716
146
0.7099999453624112
147
0.0599999986588955
176
   256
177
   256
178
     2
284
     4
340
141
371
    -1
372
    -1
  0
DIMSTYLE
105
14B
330
A
100
AcDbSymbolTableRecord
100
AcDbDimStyleTableRecord
  2
AM_ANSI$0
 70
     0
  4
 mm
 40
4.0
 41
0.119999997317791
 42
0.05
 43
0.5
 44
0.1
 45
0.00000001
 78
     4
 79
     2
140
0.1200000047683716
146
0.7099999453624112
147
0.0599999986588955
176
   256
177
   256
178
     2
284
     4
340
142
371
    -1
372
    -1
  0
DIMSTYLE
105
14C
330
A
100
AcDbSymbolTableRecord
100
AcDbDimStyleTableRecord
  2
AM_ANSI$0$7
 70
     0
  4
 mm
 40
4.0
 41
0.119999997317791
 42
0.05
 43
0.5
 44
0.1
 45
0.00000001
 78
     4
 79
     2
140
0.1200000047683716
146
0.7099999453624112
147
0.0599999986588955
176
   256
177
   256
178
     2
284
     4
340
142
371
    -1
372
    -1
  0
DIMSTYLE
105
14D
330
A
100
AcDbSymbolTableRecord
100
AcDbDimStyleTableRecord
  2
AM_ANSI$3
 70
     0
  4
 mm
 40
4.0
 41
0.119999997317791
 42
0.05
 43
0.5
 44
0.1
 45
0.00000001
 78
     4
 79
     2
140
0.1200000047683716
146
0.7099999453624112
147
0.0599999986588955
176
   256
177
   256
178
     2
284
     4
340
143
371
    -1
372
    -1
  0
DIMSTYLE
105
14E
330
A
100
AcDbSymbolTableRecord
100
AcDbDimStyleTableRecord
  2
AM_ANSI$3$7
 70
     0
  4
 mm
 40
4.0
 41
0.119999997317791
 42
0.05
 43
0.5
 44
0.1
 45
0.00000001
 78
     4
 79
     2
140
0.1200000047683716
146
0.7099999453624112
147
0.0599999986588955
176
   256
177
   256
178
     2
284
     4
340
143
371
    -1
372
    -1
  0
DIMSTYLE
105
14F
330
A
100
AcDbSymbolTableRecord
100
AcDbDimStyleTableRecord
  2
AM_ANSI$4
 70
     0
  4
 mm
 40
4.0
 41
0.119999997317791
 42
0.05
 43
0.5
 44
0.1
 45
0.00000001
 78
     4
 79
     2
140
0.1200000047683716
146
0.7099999453624112
147
0.0599999986588955
176
   256
177
   256
178
     2
284
     4
340
144
371
    -1
372
    -1
  0
DIMSTYLE
105
150
330
A
100
AcDbSymbolTableRecord
100
AcDbDimStyleTableRecord
  2
AM_ANSI$4$7
 70
     0
  4
 mm
 40
4.0
 41
0.119999997317791
 42
0.05
 43
0.5
 44
0.1
 45
0.00000001
 78
     4
 79
     2
140
0.1200000047683716
146
0.7099999453624112
147
0.0599999986588955
176
   256
177
   256
178
     2
284
     4
340
144
371
    -1
372
    -1
  0
DIMSTYLE
105
151
330
A
100
AcDbSymbolTableRecord
100
AcDbDimStyleTableRecord
  2
AM_ANSI$SF
 70
     0
  4
 mm
 40
4.0
 41
0.119999997317791
 42
0.05
 43
0.5
 44
0.1
 45
0.00000001
 75
     1
 76
     1
 78
     4
 79
     2
140
0.1200000047683716
146
0.7099999453624112
147
0.0599999986588955
176
   256
177
   256
178
     2
284
     4
340
146
371
    -1
372
    -1
  0
DIMSTYLE
105
152
330
A
100
AcDbSymbolTableRecord
100
AcDbDimStyleTableRecord
  2
AM_ANSI$SF$7
 70
     0
  4
 mm
 40
4.0
 41
0.119999997317791
 42
0.05
 43
0.5
 44
0.1
 45
0.00000001
 75
     1
 76
     1
 78
     4
 79
     2
140
0.1200000047683716
146
0.7099999453624112
147
0.0599999986588955
176
   256
177
   256
178
     2
284
     4
340
146
371
    -1
372
    -1
  0
DIMSTYLE
105
153
330
A
100
AcDbSymbolTableRecord
100
AcDbDimStyleTableRecord
  2
AM_ANSI$SH
 70
     0
  4
 mm
 40
4.0
 41
0.119999997317791
 42
0.05
 43
0.5
 44
0.1
 45
0.00000001
 75
     1
 76
     1
 78
     4
 79
     2
140
0.1200000047683716
146
0.7099999453624112
147
0.0599999986588955
176
   256
177
   256
178
     2
284
     4
340
147
371
    -1
372
    -1
  0
DIMSTYLE
105
154
330
A
100
AcDbSymbolTableRecord
100
AcDbDimStyleTableRecord
  2
AM_ANSI$SH$7
 70
     0
  4
 mm
 40
4.0
 41
0.119999997317791
 42
0.05
 43
0.5
 44
0.1
 45
0.00000001
 75
     1
 76
     1
 78
     4
 79
     2
140
0.1200000047683716
146
0.7099999453624112
147
0.0599999986588955
176
   256
177
   256
178
     2
284
     4
340
147
371
    -1
372
    -1
  0
DIMSTYLE
105
155
330
A
100
AcDbSymbolTableRecord
100
AcDbDimStyleTableRecord
  2
Architectural (ANSI)
 70
     0
 40
4.0
 41
0.0984251946210861
 43
0.2362204724409449
 44
0.125
 45
0.00000001
 46
0.3937007874015748
 78
     3
 79
     3
140
0.1200000047683716
147
0.031496062992126
171
     1
176
   256
177
   256
178
   256
272
     2
274
     1
276
     2
277
     4
284
    12
285
     4
286
    12
340
76
371
    -1
372
    -1
  0
DIMSTYLE
105
156
330
A
100
AcDbSymbolTableRecord
100
AcDbDimStyleTableRecord
  2
Architectural (ANSI)$7
 70
     0
 40
4.0
 41
0.0984251946210861
 43
0.2362204724409449
 44
0.125
 45
0.00000001
 46
0.3937007874015748
 78
     3
 79
     3
140
0.1200000047683716
147
0.031496062992126
171
     1
176
   256
177
   256
178
   256
272
     2
274
     1
276
     2
277
     4
284
    12
285
     4
286
    12
340
76
371
    -1
372
    -1
  0
DIMSTYLE
105
157
330
A
100
AcDbSymbolTableRecord
100
AcDbDimStyleTableRecord
  2
Default - Fraction (ANSI)
 70
     0
 40
4.0
 41
0.0984251946210861
 43
0.2362204724409449
 44
0.125
 45
0.00000001
 46
0.3937007874015748
 79
     3
140
0.1200000047683716
147
0.031496062992126
171
     1
176
   256
177
   256
178
   256
272
     2
274
     1
276
     2
277
     5
284
    12
285
     4
286
    12
340
76
371
    -1
372
    -1
  0
DIMSTYLE
105
158
330
A
100
AcDbSymbolTableRecord
100
AcDbDimStyleTableRecord
  2
Default - Fraction (ANSI)$7
 70
     0
 40
4.0
 41
0.0984251946210861
 43
0.2362204724409449
 44
0.125
 45
0.00000001
 46
0.3937007874015748
 79
     3
140
0.1200000047683716
147
0.031496062992126
171
     1
176
   256
177
   256
178
   256
272
     2
274
     1
276
     2
277
     5
284
    12
285
     4
286
    12
340
76
371
    -1
372
    -1
  0
DIMSTYLE
105
159
330
A
100
AcDbSymbolTableRecord
100
AcDbDimStyleTableRecord
  2
Default - mm (ANSI)
 70
     0
 40
4.0
 41
0.0984251946210861
 42
0.063
 43
0.2362204724409449
 44
0.125
 45
0.00000001
 46
0.3937007874015748
 73
     0
 78
     4
 79
     1
140
0.1200000047683716
143
1.0
144
25.4
147
0.031496062992126
171
     1
176
   256
177
   256
178
   256
179
     1
271
     2
272
     2
274
     1
284
     4
285
     4
340
76
371
    -1
372
    -1
  0
DIMSTYLE
105
15A
330
A
100
AcDbSymbolTableRecord
100
AcDbDimStyleTableRecord
  2
Default - mm (ANSI)$7
 70
     0
 40
4.0
 41
0.0984251946210861
 42
0.063
 43
0.2362204724409449
 44
0.125
 45
0.00000001
 46
0.3937007874015748
 73
     0
 78
     4
 79
     1
140
0.1200000047683716
143
1.0
144
25.4
147
0.031496062992126
171
     1
176
   256
177
   256
178
   256
179
     1
271
     2
272
     2
274
     1
284
     4
285
     4
340
76
371
    -1
372
    -1
  0
DIMSTYLE
105
15B
330
A
100
AcDbSymbolTableRecord
100
AcDbDimStyleTableRecord
  2
Default - mm [in] (ANSI)
 70
     0
  4
 in
 40
4.0
 41
0.0984251946210861
 42
0.063
 43
0.25
 44
0.125
 45
0.00000001
 46
0.3937007874015748
 73
     0
 78
     4
 79
     1
140
0.1200000047683716
143
0.03937
144
25.4
147
0.031496062992126
170
     1
171
     3
176
   256
177
   256
178
   256
179
     1
271
     2
272
     2
274
     3
284
     4
285
     4
286
     4
340
76
371
    -1
372
    -1
  0
DIMSTYLE
105
15C
330
A
100
AcDbSymbolTableRecord
100
AcDbDimStyleTableRecord
  2
Default - mm [in] (ANSI)$7
 70
     0
  4
 in
 40
4.0
 41
0.0984251946210861
 42
0.063
 43
0.25
 44
0.125
 45
0.00000001
 46
0.3937007874015748
 73
     0
 78
     4
 79
     1
140
0.1200000047683716
143
0.03937
144
25.4
147
0.031496062992126
170
     1
171
     3
176
   256
177
   256
178
   256
179
     1
271
     2
272
     2
274
     3
284
     4
285
     4
286
     4
340
76
371
    -1
372
    -1
  0
DIMSTYLE
105
15D
102
{ACAD_REACTORS
330
1C5
330
2B2
330
39C
330
49A
330
59A
330
684
330
770
330
870
330
95A
330
A14
330
ACD
102
}
330
A
100
AcDbSymbolTableRecord
100
AcDbDimStyleTableRecord
  2
Default (ANSI)
 70
     0
 40
4.0
 41
0.0984251946210861
 43
0.2362204724409449
 44
0.125
 45
0.00000001
 46
0.3937007874015748
 79
     1
140
0.1200000047683716
147
0.031496062992126
171
     1
176
   256
177
   256
178
   256
271
     2
272
     2
274
     1
284
     4
285
     4
340
76
371
    -1
372
    -1
  0
DIMSTYLE
105
15E
330
A
100
AcDbSymbolTableRecord
100
AcDbDimStyleTableRecord
  2
Default (ANSI)$7
 70
     0
 40
4.0
 41
0.0984251946210861
 43
0.2362204724409449
 44
0.125
 45
0.00000001
 46
0.3937007874015748
 79
     1
140
0.1200000047683716
147
0.031496062992126
171
     1
176
   256
177
   256
178
   256
271
     2
272
     2
274
     1
284
     4
285
     4
340
76
371
    -1
372
    -1
  0
DIMSTYLE
105
15F
330
A
100
AcDbSymbolTableRecord
100
AcDbDimStyleTableRecord
  2
Alternate (ANSI)
 70
     0
 40
4.0
 41
0.0979999974370003
340
55
342
160
  0
DIMSTYLE
105
172
330
A
100
AcDbSymbolTableRecord
100
AcDbDimStyleTableRecord
  2
Datum (ANSI)
 70
     0
 40
4.0
 41
0.0979999974370003
340
55
342
160
  0
DIMSTYLE
105
181
330
A
100
AcDbSymbolTableRecord
100
AcDbDimStyleTableRecord
  2
Large (ANSI)
 70
     0
 40
4.0
 41
0.1959999948740005
340
55
342
160
  0
ENDTAB
  0
TABLE
  2
BLOCK_RECORD
  5
1
330
0
100
AcDbSymbolTable
 70
    15
  0
BLOCK_RECORD
  5
6C
330
1
100
AcDbSymbolTableRecord
100
AcDbBlockTableRecord
  2
*Model_Space
340
6F
  0
BLOCK_RECORD
  5
68
330
1
100
AcDbSymbolTableRecord
100
AcDbBlockTableRecord
  2
*Paper_Space
340
6B
  0
BLOCK_RECORD
  5
70
330
1
100
AcDbSymbolTableRecord
100
AcDbBlockTableRecord
  2
*Paper_Space0
340
73
  0
BLOCK_RECORD
  5
160
330
1
100
AcDbSymbolTableRecord
100
AcDbBlockTableRecord
  2
_Closed
340
0
  0
BLOCK_RECORD
  5
167
330
1
100
AcDbSymbolTableRecord
100
AcDbBlockTableRecord
  2
DatumFilled45
340
0
  0
BLOCK_RECORD
  5
173
330
1
100
AcDbSymbolTableRecord
100
AcDbBlockTableRecord
  2
Filled-1
340
0
  0
BLOCK_RECORD
  5
1C8
330
1
100
AcDbSymbolTableRecord
100
AcDbBlockTableRecord
  2
*D4
340
0
  0
BLOCK_RECORD
  5
2B3
330
1
100
AcDbSymbolTableRecord
100
AcDbBlockTableRecord
  2
*D5
340
0
  0
BLOCK_RECORD
  5
39D
330
1
100
AcDbSymbolTableRecord
100
AcDbBlockTableRecord
  2
*D6
340
0
  0
BLOCK_RECORD
  5
49B
330
1
100
AcDbSymbolTableRecord
100
AcDbBlockTableRecord
  2
*D7
340
0
  0
BLOCK_RECORD
  5
59B
330
1
100
AcDbSymbolTableRecord
100
AcDbBlockTableRecord
  2
*D8
340
0
  0
BLOCK_RECORD
  5
685
330
1
100
AcDbSymbolTableRecord
100
AcDbBlockTableRecord
  2
*D9
340
0
  0
BLOCK_RECORD
  5
771
330
1
100
AcDbSymbolTableRecord
100
AcDbBlockTableRecord
  2
*D10
340
0
  0
BLOCK_RECORD
  5
871
330
1
100
AcDbSymbolTableRecord
100
AcDbBlockTableRecord
  2
*D11
340
0
  0
BLOCK_RECORD
  5
95B
330
1
100
AcDbSymbolTableRecord
100
AcDbBlockTableRecord
  2
*D12
340
0
  0
BLOCK_RECORD
  5
A15
330
1
100
AcDbSymbolTableRecord
100
AcDbBlockTableRecord
  2
*D13
340
0
  0
BLOCK_RECORD
  5
ACE
330
1
100
AcDbSymbolTableRecord
100
AcDbBlockTableRecord
  2
*D14
340
0
  0
ENDTAB
  0
ENDSEC
  0
SECTION
  2
BLOCKS
  0
BLOCK
  5
6D
330
6C
100
AcDbEntity
  8
0
100
AcDbBlockBegin
  2
*Model_Space
 70
     0
 10
0.0
 20
0.0
 30
0.0
  3
*Model_Space
  1

  0
ENDBLK
  5
6E
330
6C
100
AcDbEntity
  8
0
100
AcDbBlockEnd
  0
BLOCK
  5
69
330
68
100
AcDbEntity
 67
     1
  8
0
100
AcDbBlockBegin
  2
*Paper_Space
 70
     0
 10
0.0
 20
0.0
 30
0.0
  3
*Paper_Space
  1

  0
ENDBLK
  5
6A
330
68
100
AcDbEntity
 67
     1
  8
0
100
AcDbBlockEnd
  0
BLOCK
  5
71
330
70
100
AcDbEntity
 67
     1
  8
0
100
AcDbBlockBegin
  2
*Paper_Space0
 70
     0
 10
0.0
 20
0.0
 30
0.0
  3
*Paper_Space0
  1

  0
ENDBLK
  5
72
330
70
100
AcDbEntity
 67
     1
  8
0
100
AcDbBlockEnd
  0
BLOCK
  5
165
330
160
100
AcDbEntity
  8
0
100
AcDbBlockBegin
  2
_Closed
 70
     0
 10
0.0
 20
0.0
 30
0.0
  3
_Closed
  1

  0
LINE
  5
161
330
160
100
AcDbEntity
  8
0
  6
ByBlock
 62
     0
370
    -2
100
AcDbLine
 10
-1.0
 20
0.1666666666666666
 30
0.0
 11
0.0
 21
0.0
 31
0.0
  0
LINE
  5
162
330
160
100
AcDbEntity
  8
0
  6
ByBlock
 62
     0
370
    -2
100
AcDbLine
 10
0.0
 20
0.0
 30
0.0
 11
-1.0
 21
-0.1666666666666666
 31
0.0
  0
LINE
  5
163
330
160
100
AcDbEntity
  8
0
  6
ByBlock
 62
     0
370
    -2
100
AcDbLine
 10
-1.0
 20
0.1666666666666666
 30
0.0
 11
-1.0
 21
-0.1666666666666666
 31
0.0
  0
LINE
  5
164
330
160
100
AcDbEntity
  8
0
  6
ByBlock
 62
     0
370
    -2
100
AcDbLine
 10
0.0
 20
0.0
 30
0.0
 11
-1.0
 21
0.0
 31
0.0
  0
ENDBLK
  5
166
330
160
100
AcDbEntity
  8
0
100
AcDbBlockEnd
  0
BLOCK
  5
168
330
167
100
AcDbEntity
  8
0
100
AcDbBlockBegin
  2
DatumFilled45
 70
     0
 10
0.0
 20
0.0
 30
0.0
  3
DatumFilled45
  1

  0
POLYLINE
  5
16A
330
167
100
AcDbEntity
  8
0
 62
     0
100
AcDb2dPolyline
 66
     1
 10
0.0
 20
0.0
 30
0.0
 70
   128
  0
VERTEX
  5
16B
330
16A
100
AcDbEntity
  8
0
 62
     0
100
AcDbVertex
100
AcDb2dVertex
 10
0.0
 20
0.9999999999999998
 30
0.0
  0
VERTEX
  5
16C
330
16A
100
AcDbEntity
  8
0
 62
     0
100
AcDbVertex
100
AcDb2dVertex
 10
0.0
 20
-0.9999999999999998
 30
0.0
  0
VERTEX
  5
16E
330
16A
100
AcDbEntity
  8
0
 62
     0
100
AcDbVertex
100
AcDb2dVertex
 10
-0.9999999999999998
 20
0.0
 30
0.0
  0
VERTEX
  5
16F
330
16A
100
AcDbEntity
  8
0
 62
     0
100
AcDbVertex
100
AcDb2dVertex
 10
0.0
 20
0.9999999999999998
 30
0.0
  0
SEQEND
  5
16D
330
16A
100
AcDbEntity
  8
0
 62
     0
  0
SOLID
  5
171
330
167
100
AcDbEntity
  8
0
 62
     0
100
AcDbTrace
 10
0.0
 20
0.9999999999999998
 30
0.0
 11
0.0
 21
-0.9999999999999998
 31
0.0
 12
-0.9999999999999998
 22
0.0
 32
0.0
 13
0.0
 23
0.9999999999999998
 33
0.0
  0
ENDBLK
  5
169
330
167
100
AcDbEntity
  8
0
100
AcDbBlockEnd
  0
BLOCK
  5
174
330
173
100
AcDbEntity
  8
0
100
AcDbBlockBegin
  2
Filled-1
 70
     0
 10
0.0
 20
0.0
 30
0.0
  3
Filled-1
  1

  0
LINE
  5
176
330
173
100
AcDbEntity
  8
0
 62
     0
100
AcDbLine
 10
-0.9999999999999998
 20
0.0
 30
0.0
 11
0.0
 21
0.0
 31
0.0
  0
POLYLINE
  5
177
330
173
100
AcDbEntity
  8
0
 62
     0
100
AcDb2dPolyline
 66
     1
 10
0.0
 20
0.0
 30
0.0
 70
   128
  0
VERTEX
  5
178
330
177
100
AcDbEntity
  8
0
 62
     0
100
AcDbVertex
100
AcDb2dVertex
 10
-0.9999999999999998
 20
-0.0994897959183674
 30
0.0
  0
VERTEX
  5
179
330
177
100
AcDbEntity
  8
0
 62
     0
100
AcDbVertex
100
AcDb2dVertex
 10
0.0
 20
0.0
 30
0.0
  0
VERTEX
  5
17B
330
177
100
AcDbEntity
  8
0
 62
     0
100
AcDbVertex
100
AcDb2dVertex
 10
-0.9999999999999998
 20
0.0994897959183674
 30
0.0
  0
VERTEX
  5
17C
330
177
100
AcDbEntity
  8
0
 62
     0
100
AcDbVertex
100
AcDb2dVertex
 10
-0.9999999999999998
 20
-0.0994897959183674
 30
0.0
  0
SEQEND
  5
17A
330
177
100
AcDbEntity
  8
0
 62
     0
  0
SOLID
  5
17D
330
173
100
AcDbEntity
  8
0
 62
     0
100
AcDbTrace
 10
-0.9999999999999998
 20
-0.0994897959183674
 30
0.0
 11
0.0
 21
0.0
 31
0.0
 12
-0.9999999999999998
 22
0.0994897959183674
 32
0.0
 13
-0.9999999999999998
 23
-0.0994897959183674
 33
0.0
  0
LINE
  5
17E
330
173
100
AcDbEntity
  8
0
 62
     0
100
AcDbLine
 10
-0.9999999999999998
 20
-0.0994897959183674
 30
0.0
 11
0.0
 21
0.0
 31
0.0
  0
LINE
  5
17F
330
173
100
AcDbEntity
  8
0
 62
     0
100
AcDbLine
 10
0.0
 20
0.0
 30
0.0
 11
-0.9999999999999998
 21
0.0994897959183674
 31
0.0
  0
LINE
  5
180
330
173
100
AcDbEntity
  8
0
 62
     0
100
AcDbLine
 10
-0.9999999999999998
 20
0.0994897959183674
 30
0.0
 11
-0.9999999999999998
 21
-0.0994897959183674
 31
0.0
  0
ENDBLK
  5
175
330
173
100
AcDbEntity
  8
0
100
AcDbBlockEnd
  0
BLOCK
  5
1C9
330
1C8
100
AcDbEntity
  8
0
100
AcDbBlockBegin
  2
*D4
 70
     1
 10
0.0
 20
0.0
 30
0.0
  3
*D4
  1

  0
LINE
  5
2A8
330
1C8
100
AcDbEntity
  8
Dimension (ANSI)
100
AcDbLine
 10
11.4100739280995
 20
13.35939640402386
 30
0.0
 11
7.316702605848706
 21
13.35939640402386
 31
0.0
  0
LINE
  5
2A9
330
1C8
100
AcDbEntity
  8
Dimension (ANSI)
100
AcDbLine
 10
11.41007392809949
 20
31.55939640402387
 30
0.0
 11
7.316702605848711
 21
31.55939640402387
 31
0.0
  0
LINE
  5
2AA
330
1C8
100
AcDbEntity
  8
Dimension (ANSI)
100
AcDbLine
 10
7.816702605848706
 20
13.75309718250821
 30
0.0
 11
7.816702605848709
 21
22.08245176599175
 31
0.0
  0
LINE
  5
2AB
330
1C8
100
AcDbEntity
  8
Dimension (ANSI)
100
AcDbLine
 10
7.816702605848711
 20
31.16569562553953
 30
0.0
 11
7.816702605848709
 21
22.83634104205598
 31
0.0
  0
SOLID
  5
2AC
330
1C8
100
AcDbEntity
  8
Dimension (ANSI)
100
AcDbTrace
 10
7.751085809434648
 20
13.75309718250821
 30
0.0
 11
7.882319402262764
 21
13.75309718250821
 31
0.0
 12
7.816702605848706
 22
13.35939640402386
 32
0.0
 13
7.816702605848706
 23
13.35939640402386
 33
0.0
  0
SOLID
  5
2AD
330
1C8
100
AcDbEntity
  8
Dimension (ANSI)
100
AcDbTrace
 10
7.751085809434653
 20
31.16569562553953
 30
0.0
 11
7.882319402262768
 21
31.16569562553953
 31
0.0
 12
7.816702605848711
 22
31.55939640402387
 32
0.0
 13
7.816702605848711
 23
31.55939640402387
 33
0.0
  0
MTEXT
  5
2AE
330
1C8
100
AcDbEntity
  8
Dimension (ANSI)
100
AcDbMText
 10
7.045769062790114
 20
22.71035679008747
 30
0.0
 40
0.4800000190734864
 41
0.0
 71
     1
 72
     1
  1
\A1;18.20
  7
Note Text (ANSI)
 73
     1
 44
1.0
1001
ACAD
1000
MTEXTBEGIN
1070
    73
1070
     1
1070
    44
1040
1.0
1070
    74
1070
     0
1000
MTEXTEND
  0
POINT
  5
2AF
330
1C8
100
AcDbEntity
  8
Defpoints
 62
     0
100
AcDbPoint
 10
11.66007392809949
 20
13.35939640402386
 30
0.0
  0
POINT
  5
2B0
330
1C8
100
AcDbEntity
  8
Defpoints
 62
     0
100
AcDbPoint
 10
11.66007392809949
 20
31.55939640402387
 30
0.0
  0
POINT
  5
2B1
330
1C8
100
AcDbEntity
  8
Defpoints
 62
     0
100
AcDbPoint
 10
7.816702605848711
 20
31.55939640402387
 30
0.0
  0
ENDBLK
  5
1CA
330
1C8
100
AcDbEntity
  8
0
100
AcDbBlockEnd
  0
BLOCK
  5
2B4
330
2B3
100
AcDbEntity
  8
0
100
AcDbBlockBegin
  2
*D5
 70
     1
 10
0.0
 20
0.0
 30
0.0
  3
*D5
  1

  0
LINE
  5
392
330
2B3
100
AcDbEntity
  8
Dimension (ANSI)
100
AcDbLine
 10
11.16007392809949
 20
31.30939640402387
 30
0.0
 11
11.16007392809949
 21
34.73746173386961
 31
0.0
  0
LINE
  5
393
330
2B3
100
AcDbEntity
  8
Dimension (ANSI)
100
AcDbLine
 10
29.36007392809949
 20
31.30939640402387
 30
0.0
 11
29.36007392809949
 21
34.73746173386961
 31
0.0
  0
LINE
  5
394
330
2B3
100
AcDbEntity
  8
Dimension (ANSI)
100
AcDbLine
 10
11.55377470658383
 20
34.23746173386961
 30
0.0
 11
19.36315613307239
 21
34.23746173386961
 31
0.0
  0
LINE
  5
395
330
2B3
100
AcDbEntity
  8
Dimension (ANSI)
100
AcDbLine
 10
28.96637314961514
 20
34.23746173386961
 30
0.0
 11
21.15699172312659
 21
34.23746173386961
 31
0.0
  0
SOLID
  5
396
330
2B3
100
AcDbEntity
  8
Dimension (ANSI)
100
AcDbTrace
 10
11.55377470658383
 20
34.30307853028367
 30
0.0
 11
11.55377470658383
 21
34.17184493745555
 31
0.0
 12
11.16007392809949
 22
34.23746173386961
 32
0.0
 13
11.16007392809949
 23
34.23746173386961
 33
0.0
  0
SOLID
  5
397
330
2B3
100
AcDbEntity
  8
Dimension (ANSI)
100
AcDbTrace
 10
28.96637314961514
 20
34.30307853028367
 30
0.0
 11
28.96637314961514
 21
34.17184493745555
 31
0.0
 12
29.36007392809949
 22
34.23746173386961
 32
0.0
 13
29.36007392809949
 23
34.23746173386961
 33
0.0
  0
MTEXT
  5
398
330
2B3
100
AcDbEntity
  8
Dimension (ANSI)
100
AcDbMText
 10
19.48914038504089
 20
34.48842211993321
 30
0.0
 40
0.4800000190734864
 41
0.0
 71
     1
 72
     1
  1
\A1;18.20
  7
Note Text (ANSI)
 73
     1
 44
1.0
1001
ACAD
1000
MTEXTBEGIN
1070
    73
1070
     1
1070
    44
1040
1.0
1070
    74
1070
     0
1000
MTEXTEND
  0
POINT
  5
399
330
2B3
100
AcDbEntity
  8
Defpoints
 62
     0
100
AcDbPoint
 10
11.16007392809949
 20
31.05939640402386
 30
0.0
  0
POINT
  5
39A
330
2B3
100
AcDbEntity
  8
Defpoints
 62
     0
100
AcDbPoint
 10
29.36007392809949
 20
31.05939640402386
 30
0.0
  0
POINT
  5
39B
330
2B3
100
AcDbEntity
  8
Defpoints
 62
     0
100
AcDbPoint
 10
29.36007392809949
 20
34.23746173386961
 30
0.0
  0
ENDBLK
  5
2B5
330
2B3
100
AcDbEntity
  8
0
100
AcDbBlockEnd
  0
BLOCK
  5
39E
330
39D
100
AcDbEntity
  8
0
100
AcDbBlockBegin
  2
*D6
 70
     1
 10
0.0
 20
0.0
 30
0.0
  3
*D6
  1

  0
LINE
  5
48F
330
39D
100
AcDbEntity
  8
Dimension (ANSI)
100
AcDbLine
 10
11.43007392809949
 20
13.87939640402386
 30
0.0
 11
10.7348685262644
 21
13.87939640402386
 31
0.0
  0
LINE
  5
490
330
39D
100
AcDbEntity
  8
Dimension (ANSI)
100
AcDbLine
 10
11.43007392809949
 20
14.62939640402386
 30
0.0
 11
10.7348685262644
 21
14.62939640402386
 31
0.0
  0
LINE
  5
491
330
39D
100
AcDbEntity
  8
Dimension (ANSI)
100
AcDbLine
 10
11.2348685262644
 20
15.02309718250821
 30
0.0
 11
11.2348685262644
 21
15.41679796099255
 31
0.0
  0
LINE
  5
492
330
39D
100
AcDbEntity
  8
Dimension (ANSI)
100
AcDbLine
 10
11.2348685262644
 20
13.48569562553952
 30
0.0
 11
11.2348685262644
 21
12.73286441164461
 31
0.0
  0
LINE
  5
493
330
39D
100
AcDbEntity
  8
Dimension (ANSI)
100
AcDbLine
 10
11.2348685262644
 20
12.73286441164461
 30
0.0
 11
10.84116774778006
 21
12.73286441164461
 31
0.0
  0
SOLID
  5
494
330
39D
100
AcDbEntity
  8
Dimension (ANSI)
100
AcDbTrace
 10
11.16925172985035
 20
15.02309718250821
 30
0.0
 11
11.30048532267846
 21
15.02309718250821
 31
0.0
 12
11.2348685262644
 22
14.62939640402386
 32
0.0
 13
11.2348685262644
 23
14.62939640402386
 33
0.0
  0
SOLID
  5
495
330
39D
100
AcDbEntity
  8
Dimension (ANSI)
100
AcDbTrace
 10
11.16925172985035
 20
13.48569562553952
 30
0.0
 11
11.30048532267846
 21
13.48569562553952
 31
0.0
 12
11.2348685262644
 22
13.87939640402386
 32
0.0
 13
11.2348685262644
 23
13.87939640402386
 33
0.0
  0
MTEXT
  5
496
330
39D
100
AcDbEntity
  8
Dimension (ANSI)
100
AcDbMText
 10
9.495358061174835
 20
12.98269652365398
 30
0.0
 40
0.4800000190734864
 41
0.0
 71
     1
 72
     1
  1
\A1;0.75
  7
Note Text (ANSI)
 73
     1
 44
1.0
1001
ACAD
1000
MTEXTBEGIN
1070
    73
1070
     1
1070
    44
1040
1.0
1070
    74
1070
     0
1000
MTEXTEND
  0
POINT
  5
497
330
39D
100
AcDbEntity
  8
Defpoints
 62
     0
100
AcDbPoint
 10
11.68007392809949
 20
13.87939640402386
 30
0.0
  0
POINT
  5
498
330
39D
100
AcDbEntity
  8
Defpoints
 62
     0
100
AcDbPoint
 10
11.68007392809949
 20
14.62939640402386
 30
0.0
  0
POINT
  5
499
330
39D
100
AcDbEntity
  8
Defpoints
 62
     0
100
AcDbPoint
 10
11.2348685262644
 20
14.62939640402386
 30
0.0
  0
ENDBLK
  5
39F
330
39D
100
AcDbEntity
  8
0
100
AcDbBlockEnd
  0
BLOCK
  5
49C
330
49B
100
AcDbEntity
  8
0
100
AcDbBlockBegin
  2
*D7
 70
     1
 10
0.0
 20
0.0
 30
0.0
  3
*D7
  1

  0
LINE
  5
58F
330
49B
100
AcDbEntity
  8
Dimension (ANSI)
100
AcDbLine
 10
29.11007392809948
 20
31.55939640402386
 30
0.0
 11
32.52442216963439
 21
31.55939640402386
 31
0.0
  0
LINE
  5
590
330
49B
100
AcDbEntity
  8
Dimension (ANSI)
100
AcDbLine
 10
29.09007392809949
 20
31.03939640402387
 30
0.0
 11
32.52442216963439
 21
31.03939640402387
 31
0.0
  0
LINE
  5
591
330
49B
100
AcDbEntity
  8
Dimension (ANSI)
100
AcDbLine
 10
32.02442216963439
 20
31.9530971825082
 30
0.0
 11
32.02442216963439
 21
32.34679796099256
 31
0.0
  0
LINE
  5
592
330
49B
100
AcDbEntity
  8
Dimension (ANSI)
100
AcDbLine
 10
32.02442216963439
 20
30.64569562553952
 30
0.0
 11
32.02442216963439
 21
29.89257267741475
 31
0.0
  0
LINE
  5
593
330
49B
100
AcDbEntity
  8
Dimension (ANSI)
100
AcDbLine
 10
32.02442216963439
 20
29.89257267741475
 30
0.0
 11
31.63072139115005
 21
29.89257267741475
 31
0.0
  0
SOLID
  5
594
330
49B
100
AcDbEntity
  8
Dimension (ANSI)
100
AcDbTrace
 10
31.95880537322033
 20
31.9530971825082
 30
0.0
 11
32.09003896604845
 21
31.9530971825082
 31
0.0
 12
32.02442216963439
 22
31.55939640402386
 32
0.0
 13
32.02442216963439
 23
31.55939640402386
 33
0.0
  0
SOLID
  5
595
330
49B
100
AcDbEntity
  8
Dimension (ANSI)
100
AcDbTrace
 10
31.95880537322033
 20
30.64569562553952
 30
0.0
 11
32.09003896604845
 21
30.64569562553952
 31
0.0
 12
32.02442216963439
 22
31.03939640402387
 32
0.0
 13
32.02442216963439
 23
31.03939640402387
 33
0.0
  0
MTEXT
  5
596
330
49B
100
AcDbEntity
  8
Dimension (ANSI)
100
AcDbMText
 10
30.27943151628139
 20
30.14256597143187
 30
0.0
 40
0.4800000190734864
 41
0.0
 71
     1
 72
     1
  1
\A1;0.52
  7
Note Text (ANSI)
 73
     1
 44
1.0
1001
ACAD
1000
MTEXTBEGIN
1070
    73
1070
     1
1070
    44
1040
1.0
1070
    74
1070
     0
1000
MTEXTEND
  0
POINT
  5
597
330
49B
100
AcDbEntity
  8
Defpoints
 62
     0
100
AcDbPoint
 10
28.86007392809947
 20
31.55939640402386
 30
0.0
  0
POINT
  5
598
330
49B
100
AcDbEntity
  8
Defpoints
 62
     0
100
AcDbPoint
 10
28.84007392809949
 20
31.03939640402387
 30
0.0
  0
POINT
  5
599
330
49B
100
AcDbEntity
  8
Defpoints
 62
     0
100
AcDbPoint
 10
32.02442216963439
 20
31.03939640402387
 30
0.0
  0
ENDBLK
  5
49D
330
49B
100
AcDbEntity
  8
0
100
AcDbBlockEnd
  0
BLOCK
  5
59C
330
59B
100
AcDbEntity
  8
0
100
AcDbBlockBegin
  2
*D8
 70
     1
 10
0.0
 20
0.0
 30
0.0
  3
*D8
  1

  0
LINE
  5
67A
330
59B
100
AcDbEntity
  8
Dimension (ANSI)
100
AcDbLine
 10
29.36007392809949
 20
31.30939640402387
 30
0.0
 11
29.36007392809949
 21
33.58840874084348
 31
0.0
  0
LINE
  5
67B
330
59B
100
AcDbEntity
  8
Dimension (ANSI)
100
AcDbLine
 10
28.84007392809949
 20
31.28939640402387
 30
0.0
 11
28.84007392809949
 21
33.58840874084348
 31
0.0
  0
LINE
  5
67C
330
59B
100
AcDbEntity
  8
Dimension (ANSI)
100
AcDbLine
 10
28.44637314961515
 20
33.08840874084348
 30
0.0
 11
28.0526723711308
 21
33.08840874084348
 31
0.0
  0
LINE
  5
67D
330
59B
100
AcDbEntity
  8
Dimension (ANSI)
100
AcDbLine
 10
29.75377470658383
 20
33.08840874084348
 30
0.0
 11
30.35347935189296
 21
33.08840874084348
 31
0.0
  0
SOLID
  5
67E
330
59B
100
AcDbEntity
  8
Dimension (ANSI)
100
AcDbTrace
 10
28.44637314961515
 20
33.15402553725753
 30
0.0
 11
28.44637314961515
 21
33.02279194442942
 31
0.0
 12
28.84007392809949
 22
33.08840874084348
 32
0.0
 13
28.84007392809949
 23
33.08840874084348
 33
0.0
  0
SOLID
  5
67F
330
59B
100
AcDbEntity
  8
Dimension (ANSI)
100
AcDbTrace
 10
29.75377470658383
 20
33.15402553725753
 30
0.0
 11
29.75377470658383
 21
33.02279194442942
 31
0.0
 12
29.36007392809949
 22
33.08840874084348
 32
0.0
 13
29.36007392809949
 23
33.08840874084348
 33
0.0
  0
MTEXT
  5
680
330
59B
100
AcDbEntity
  8
Dimension (ANSI)
100
AcDbMText
 10
30.47946360386146
 20
33.33840203486059
 30
0.0
 40
0.4800000190734864
 41
0.0
 71
     1
 72
     1
  1
\A1;0.52
  7
Note Text (ANSI)
 73
     1
 44
1.0
1001
ACAD
1000
MTEXTBEGIN
1070
    73
1070
     1
1070
    44
1040
1.0
1070
    74
1070
     0
1000
MTEXTEND
  0
POINT
  5
681
330
59B
100
AcDbEntity
  8
Defpoints
 62
     0
100
AcDbPoint
 10
29.36007392809949
 20
31.05939640402386
 30
0.0
  0
POINT
  5
682
330
59B
100
AcDbEntity
  8
Defpoints
 62
     0
100
AcDbPoint
 10
28.84007392809949
 20
31.03939640402387
 30
0.0
  0
POINT
  5
683
330
59B
100
AcDbEntity
  8
Defpoints
 62
     0
100
AcDbPoint
 10
28.84007392809949
 20
33.08840874084348
 30
0.0
  0
ENDBLK
  5
59D
330
59B
100
AcDbEntity
  8
0
100
AcDbBlockEnd
  0
BLOCK
  5
686
330
685
100
AcDbEntity
  8
0
100
AcDbBlockBegin
  2
*D9
 70
     1
 10
0.0
 20
0.0
 30
0.0
  3
*D9
  1

  0
LINE
  5
764
330
685
100
AcDbEntity
  8
Dimension (ANSI)
100
AcDbLine
 10
11.43007392809949
 20
13.87939640402386
 30
0.0
 11
8.660388888729418
 21
13.87939640402386
 31
0.0
  0
LINE
  5
765
330
685
100
AcDbEntity
  8
Dimension (ANSI)
100
AcDbLine
 10
11.43007392809949
 20
31.03939640402386
 30
0.0
 11
8.660388888729421
 21
31.03939640402386
 31
0.0
  0
LINE
  5
766
330
685
100
AcDbEntity
  8
Dimension (ANSI)
100
AcDbLine
 10
9.160388888729418
 20
14.27309718250821
 30
0.0
 11
9.16038888872942
 21
24.78026944096737
 31
0.0
  0
LINE
  5
767
330
685
100
AcDbEntity
  8
Dimension (ANSI)
100
AcDbLine
 10
9.160388888729421
 20
30.64569562553951
 30
0.0
 11
9.16038888872942
 21
25.53190216892311
 31
0.0
  0
SOLID
  5
768
330
685
100
AcDbEntity
  8
Dimension (ANSI)
100
AcDbTrace
 10
9.094772092315361
 20
14.27309718250821
 30
0.0
 11
9.226005685143475
 21
14.27309718250821
 31
0.0
 12
9.160388888729418
 22
13.87939640402386
 32
0.0
 13
9.160388888729418
 23
13.87939640402386
 33
0.0
  0
SOLID
  5
769
330
685
100
AcDbEntity
  8
Dimension (ANSI)
100
AcDbTrace
 10
9.094772092315364
 20
30.64569562553951
 30
0.0
 11
9.226005685143478
 21
30.64569562553951
 31
0.0
 12
9.160388888729421
 22
31.03939640402386
 32
0.0
 13
9.160388888729421
 23
31.03939640402386
 33
0.0
  0
MTEXT
  5
76A
330
685
100
AcDbEntity
  8
Dimension (ANSI)
100
AcDbMText
 10
8.209253861008582
 20
25.40591791695462
 30
0.0
 40
0.4800000190734864
 41
0.0
 71
     1
 72
     1
  1
\A1;17.160
  7
Note Text (ANSI)
 73
     1
 44
1.0
1001
ACAD
1000
MTEXTBEGIN
1070
    73
1070
     1
1070
    44
1040
1.0
1070
    74
1070
     0
1000
MTEXTEND
  0
POINT
  5
76B
330
685
100
AcDbEntity
  8
Defpoints
 62
     0
100
AcDbPoint
 10
11.68007392809949
 20
13.87939640402386
 30
0.0
  0
POINT
  5
76C
330
685
100
AcDbEntity
  8
Defpoints
 62
     0
100
AcDbPoint
 10
11.68007392809949
 20
31.03939640402386
 30
0.0
  0
POINT
  5
76D
330
685
100
AcDbEntity
  8
Defpoints
 62
     0
100
AcDbPoint
 10
9.160388888729421
 20
31.03939640402386
 30
0.0
  0
ENDBLK
  5
687
330
685
100
AcDbEntity
  8
0
100
AcDbBlockEnd
  0
BLOCK
  5
772
330
771
100
AcDbEntity
  8
0
100
AcDbBlockBegin
  2
*D10
 70
     1
 10
0.0
 20
0.0
 30
0.0
  3
*D10
  1

  0
LINE
  5
865
330
771
100
AcDbEntity
  8
Dimension (ANSI)
100
AcDbLine
 10
29.11007392809949
 20
13.35939640402386
 30
0.0
 11
31.08881253655179
 21
13.35939640402386
 31
0.0
  0
LINE
  5
866
330
771
100
AcDbEntity
  8
Dimension (ANSI)
100
AcDbLine
 10
29.61007392809949
 20
13.85939640402386
 30
0.0
 11
31.08881253655179
 21
13.85939640402386
 31
0.0
  0
LINE
  5
867
330
771
100
AcDbEntity
  8
Dimension (ANSI)
100
AcDbLine
 10
30.58881253655179
 20
12.96569562553952
 30
0.0
 11
30.58881253655179
 21
12.57199484705517
 31
0.0
  0
LINE
  5
868
330
771
100
AcDbEntity
  8
Dimension (ANSI)
100
AcDbLine
 10
30.58881253655179
 20
14.25309718250821
 30
0.0
 11
30.58881253655179
 21
15.00592839640311
 31
0.0
  0
LINE
  5
869
330
771
100
AcDbEntity
  8
Dimension (ANSI)
100
AcDbLine
 10
30.58881253655179
 20
15.00592839640311
 30
0.0
 11
30.98251331503613
 21
15.00592839640311
 31
0.0
  0
SOLID
  5
86A
330
771
100
AcDbEntity
  8
Dimension (ANSI)
100
AcDbTrace
 10
30.52319574013773
 20
12.96569562553952
 30
0.0
 11
30.65442933296584
 21
12.96569562553952
 31
0.0
 12
30.58881253655179
 22
13.35939640402386
 32
0.0
 13
30.58881253655179
 23
13.35939640402386
 33
0.0
  0
SOLID
  5
86B
330
771
100
AcDbEntity
  8
Dimension (ANSI)
100
AcDbTrace
 10
30.52319574013773
 20
14.25309718250821
 30
0.0
 11
30.65442933296584
 21
14.25309718250821
 31
0.0
 12
30.58881253655179
 22
13.85939640402386
 32
0.0
 13
30.58881253655179
 23
13.85939640402386
 33
0.0
  0
MTEXT
  5
86C
330
771
100
AcDbEntity
  8
Dimension (ANSI)
100
AcDbMText
 10
31.10849756700463
 20
15.25576050841249
 30
0.0
 40
0.4800000190734864
 41
0.0
 71
     1
 72
     1
  1
\A1;0.50
  7
Note Text (ANSI)
 73
     1
 44
1.0
1001
ACAD
1000
MTEXTBEGIN
1070
    73
1070
     1
1070
    44
1040
1.0
1070
    74
1070
     0
1000
MTEXTEND
  0
POINT
  5
86D
330
771
100
AcDbEntity
  8
Defpoints
 62
     0
100
AcDbPoint
 10
28.86007392809949
 20
13.35939640402386
 30
0.0
  0
POINT
  5
86E
330
771
100
AcDbEntity
  8
Defpoints
 62
     0
100
AcDbPoint
 10
29.36007392809949
 20
13.85939640402386
 30
0.0
  0
POINT
  5
86F
330
771
100
AcDbEntity
  8
Defpoints
 62
     0
100
AcDbPoint
 10
30.58881253655179
 20
13.85939640402386
 30
0.0
  0
ENDBLK
  5
773
330
771
100
AcDbEntity
  8
0
100
AcDbBlockEnd
  0
BLOCK
  5
872
330
871
100
AcDbEntity
  8
0
100
AcDbBlockBegin
  2
*D11
 70
     1
 10
0.0
 20
0.0
 30
0.0
  3
*D11
  1

  0
LINE
  5
950
330
871
100
AcDbEntity
  8
Dimension (ANSI)
100
AcDbLine
 10
29.36007392809949
 20
13.60939640402387
 30
0.0
 11
29.36007392809949
 21
10.49719167961442
 31
0.0
  0
LINE
  5
951
330
871
100
AcDbEntity
  8
Dimension (ANSI)
100
AcDbLine
 10
28.86007392809949
 20
13.10939640402386
 30
0.0
 11
28.86007392809949
 21
10.49719167961442
 31
0.0
  0
LINE
  5
952
330
871
100
AcDbEntity
  8
Dimension (ANSI)
100
AcDbLine
 10
29.75377470658384
 20
10.99719167961442
 30
0.0
 11
30.14747548506818
 21
10.99719167961442
 31
0.0
  0
LINE
  5
953
330
871
100
AcDbEntity
  8
Dimension (ANSI)
100
AcDbLine
 10
28.46637314961515
 20
10.99719167961442
 30
0.0
 11
27.86779677836026
 21
10.99719167961442
 31
0.0
  0
SOLID
  5
954
330
871
100
AcDbEntity
  8
Dimension (ANSI)
100
AcDbTrace
 10
29.75377470658384
 20
11.06280847602847
 30
0.0
 11
29.75377470658384
 21
10.93157488320036
 31
0.0
 12
29.36007392809949
 22
10.99719167961442
 32
0.0
 13
29.36007392809949
 23
10.99719167961442
 33
0.0
  0
SOLID
  5
955
330
871
100
AcDbEntity
  8
Dimension (ANSI)
100
AcDbTrace
 10
28.46637314961515
 20
11.06280847602847
 30
0.0
 11
28.46637314961515
 21
10.93157488320036
 31
0.0
 12
28.86007392809949
 22
10.99719167961442
 32
0.0
 13
28.86007392809949
 23
10.99719167961442
 33
0.0
  0
MTEXT
  5
956
330
871
100
AcDbEntity
  8
Dimension (ANSI)
100
AcDbMText
 10
26.51425035538313
 20
11.24702379162379
 30
0.0
 40
0.4800000190734864
 41
0.0
 71
     1
 72
     1
  1
\A1;0.50
  7
Note Text (ANSI)
 73
     1
 44
1.0
1001
ACAD
1000
MTEXTBEGIN
1070
    73
1070
     1
1070
    44
1040
1.0
1070
    74
1070
     0
1000
MTEXTEND
  0
POINT
  5
957
330
871
100
AcDbEntity
  8
Defpoints
 62
     0
100
AcDbPoint
 10
29.36007392809949
 20
13.85939640402386
 30
0.0
  0
POINT
  5
958
330
871
100
AcDbEntity
  8
Defpoints
 62
     0
100
AcDbPoint
 10
28.86007392809949
 20
13.35939640402386
 30
0.0
  0
POINT
  5
959
330
871
100
AcDbEntity
  8
Defpoints
 62
     0
100
AcDbPoint
 10
28.86007392809949
 20
10.99719167961442
 30
0.0
  0
ENDBLK
  5
873
330
871
100
AcDbEntity
  8
0
100
AcDbBlockEnd
  0
BLOCK
  5
95C
330
95B
100
AcDbEntity
  8
0
100
AcDbBlockBegin
  2
*D12
 70
     1
 10
0.0
 20
0.0
 30
0.0
  3
*D12
  1

  0
LINE
  5
A0C
330
95B
100
AcDbEntity
  8
Dimension (ANSI)
100
AcDbLine
 10
7.704935847725565
 20
34.52459648871467
 30
0.0
 11
8.194873843407668
 21
34.52459648871467
 31
0.0
  0
LINE
  5
A0D
330
95B
100
AcDbEntity
  8
Dimension (ANSI)
100
AcDbLine
 10
8.194873843407668
 20
34.52459648871467
 30
0.0
 11
11.22490874257808
 21
31.49456158954512
 31
0.0
  0
MTEXT
  5
A0E
102
{ACAD_XDICTIONARY
360
C02
102
}
330
95B
100
AcDbEntity
  8
Dimension (ANSI)
100
AcDbMText
 10
7.578951595757058
 20
34.89061396464238
 30
0.0
 40
0.4800000190734864
 41
0.0
 71
     3
 72
     1
  1
\A1;\U+22050.50{\PTYP.(4PL.)}
  7
Note Text (ANSI)
 73
     1
 44
1.0
1001
ACAD
1000
MTEXTBEGIN
1070
    73
1070
     1
1070
    44
1040
1.0
1070
    74
1070
     0
1000
MTEXTEND
  0
SOLID
  5
A0F
330
95B
100
AcDbEntity
  8
Dimension (ANSI)
100
AcDbTrace
 10
11.27130682428219
 20
31.54095967124924
 30
0.0
 11
11.17851066087397
 21
31.448163507841
 31
0.0
 12
11.50329723280283
 22
31.21617309932046
 32
0.0
 13
11.50329723280283
 23
31.21617309932046
 33
0.0
  0
LINE
  5
A10
330
95B
100
AcDbEntity
  8
Dimension (ANSI)
100
AcDbLine
 10
11.32007392809949
 20
31.03939640402385
 30
0.0
 11
12.04007392809949
 21
31.03939640402386
 31
0.0
  0
LINE
  5
A11
330
95B
100
AcDbEntity
  8
Dimension (ANSI)
100
AcDbLine
 10
11.68007392809949
 20
30.67939640402385
 30
0.0
 11
11.68007392809949
 21
31.39939640402385
 31
0.0
  0
POINT
  5
A12
330
95B
100
AcDbEntity
  8
Defpoints
 62
     0
100
AcDbPoint
 10
11.50329723280283
 20
31.21617309932046
 30
0.0
  0
POINT
  5
A13
330
95B
100
AcDbEntity
  8
Defpoints
 62
     0
100
AcDbPoint
 10
11.85685062339615
 20
30.86261970872724
 30
0.0
  0
ENDBLK
  5
95D
330
95B
100
AcDbEntity
  8
0
100
AcDbBlockEnd
  0
BLOCK
  5
A16
330
A15
100
AcDbEntity
  8
0
100
AcDbBlockBegin
  2
*D13
 70
     1
 10
0.0
 20
0.0
 30
0.0
  3
*D13
  1

  0
LINE
  5
AC5
330
A15
100
AcDbEntity
  8
Dimension (ANSI)
100
AcDbLine
 10
13.46457676140518
 20
11.64214822999324
 30
0.0
 11
12.97471582279748
 21
11.64214822999324
 31
0.0
  0
LINE
  5
AC6
330
A15
100
AcDbEntity
  8
Dimension (ANSI)
100
AcDbLine
 10
12.97471582279748
 20
11.64214822999324
 30
0.0
 11
11.89876229491972
 21
14.12479630793485
 31
0.0
  0
MTEXT
  5
AC7
102
{ACAD_XDICTIONARY
360
C04
102
}
330
A15
100
AcDbEntity
  8
Dimension (ANSI)
100
AcDbMText
 10
13.59056101337368
 20
12.00816570592095
 30
0.0
 40
0.4800000190734864
 41
0.0
 71
     1
 72
     1
  1
\A1;\U+22050.31{\PTYP. (4PL.)}
  7
Note Text (ANSI)
 73
     1
 44
1.0
1001
ACAD
1000
MTEXTBEGIN
1070
    73
1070
     1
1070
    44
1040
1.0
1070
    74
1070
     0
1000
MTEXTEND
  0
SOLID
  5
AC8
330
A15
100
AcDbEntity
  8
Dimension (ANSI)
100
AcDbTrace
 10
11.95896812255186
 20
14.15088887949791
 30
0.0
 11
11.83855646728759
 21
14.09870373637179
 31
0.0
 12
11.74220686554134
 22
14.48603127372766
 32
0.0
 13
11.74220686554134
 23
14.48603127372766
 33
0.0
  0
LINE
  5
AC9
330
A15
100
AcDbEntity
  8
Dimension (ANSI)
100
AcDbLine
 10
11.32007392809949
 20
14.62939640402386
 30
0.0
 11
12.04007392809949
 21
14.62939640402386
 31
0.0
  0
LINE
  5
ACA
330
A15
100
AcDbEntity
  8
Dimension (ANSI)
100
AcDbLine
 10
11.68007392809949
 20
14.26939640402387
 30
0.0
 11
11.68007392809949
 21
14.98939640402386
 31
0.0
  0
POINT
  5
ACB
330
A15
100
AcDbEntity
  8
Defpoints
 62
     0
100
AcDbPoint
 10
11.74220686554134
 20
14.48603127372766
 30
0.0
  0
POINT
  5
ACC
330
A15
100
AcDbEntity
  8
Defpoints
 62
     0
100
AcDbPoint
 10
11.61794099065765
 20
14.77276153432007
 30
0.0
  0
ENDBLK
  5
A17
330
A15
100
AcDbEntity
  8
0
100
AcDbBlockEnd
  0
BLOCK
  5
ACF
330
ACE
100
AcDbEntity
  8
0
100
AcDbBlockBegin
  2
*D14
 70
     1
 10
0.0
 20
0.0
 30
0.0
  3
*D14
  1

  0
LINE
  5
BAD
330
ACE
100
AcDbEntity
  8
Dimension (ANSI)
100
AcDbLine
 10
28.84007392809949
 20
31.28939640402387
 30
0.0
 11
28.84007392809949
 21
33.58840874084347
 31
0.0
  0
LINE
  5
BAE
330
ACE
100
AcDbEntity
  8
Dimension (ANSI)
100
AcDbLine
 10
11.68007392809949
 20
31.28939640402386
 30
0.0
 11
11.68007392809949
 21
33.58840874084347
 31
0.0
  0
LINE
  5
BAF
330
ACE
100
AcDbEntity
  8
Dimension (ANSI)
100
AcDbLine
 10
28.44637314961515
 20
33.08840874084347
 30
0.0
 11
21.33719320778883
 21
33.08840874084347
 31
0.0
  0
LINE
  5
BB0
330
ACE
100
AcDbEntity
  8
Dimension (ANSI)
100
AcDbLine
 10
12.07377470658384
 20
33.08840874084347
 30
0.0
 11
19.18295464841015
 21
33.08840874084347
 31
0.0
  0
SOLID
  5
BB1
330
ACE
100
AcDbEntity
  8
Dimension (ANSI)
100
AcDbTrace
 10
28.44637314961515
 20
33.15402553725752
 30
0.0
 11
28.44637314961515
 21
33.02279194442942
 31
0.0
 12
28.84007392809949
 22
33.08840874084347
 32
0.0
 13
28.84007392809949
 23
33.08840874084347
 33
0.0
  0
SOLID
  5
BB2
330
ACE
100
AcDbEntity
  8
Dimension (ANSI)
100
AcDbTrace
 10
12.07377470658384
 20
33.15402553725752
 30
0.0
 11
12.07377470658384
 21
33.02279194442942
 31
0.0
 12
11.68007392809949
 22
33.08840874084347
 32
0.0
 13
11.68007392809949
 23
33.08840874084347
 33
0.0
  0
MTEXT
  5
BB3
330
ACE
100
AcDbEntity
  8
Dimension (ANSI)
100
AcDbMText
 10
19.30893890037866
 20
33.33824085285284
 30
0.0
 40
0.4800000190734864
 41
0.0
 71
     1
 72
     1
  1
\A1;17.160
  7
Note Text (ANSI)
 73
     1
 44
1.0
1001
ACAD
1000
MTEXTBEGIN
1070
    73
1070
     1
1070
    44
1040
1.0
1070
    74
1070
     0
1000
MTEXTEND
  0
POINT
  5
BB4
330
ACE
100
AcDbEntity
  8
Defpoints
 62
     0
100
AcDbPoint
 10
28.84007392809949
 20
31.03939640402387
 30
0.0
  0
POINT
  5
BB5
330
ACE
100
AcDbEntity
  8
Defpoints
 62
     0
100
AcDbPoint
 10
11.68007392809949
 20
31.03939640402386
 30
0.0
  0
POINT
  5
BB6
330
ACE
100
AcDbEntity
  8
Defpoints
 62
     0
100
AcDbPoint
 10
11.68007392809949
 20
33.08840874084347
 30
0.0
  0
ENDBLK
  5
AD0
330
ACE
100
AcDbEntity
  8
0
100
AcDbBlockEnd
  0
ENDSEC
  0
SECTION
  2
ENTITIES
  0
MTEXT
  5
74
330
6C
100
AcDbEntity
  8
Symbol (ANSI)
100
AcDbMText
 10
41.0877613483015
 20
8.861162214442977
 30
0.0
 40
0.5600000178720068
 41
20.6734839011365
 71
     1
 72
     1
  1
PART#: NP2020C\P(DATA SUBJECT TO CHANGE WITHOUT NOTICE)\PTHIS DRAWING AND COMPONENTS OF ARE\PPROPERTY OF HUBBELL INC. WIEGMANN\P 
  7
Note Text (ANSI)
 73
     2
 44
1.093904256820678
1001
ACAD
1000
MTEXTBEGIN
1070
    73
1070
     2
1070
    44
1040
1.093904256820678
1070
    74
1070
     0
1000
MTEXTEND
  0
TEXT
  5
77
330
6C
100
AcDbEntity
  8
0
100
AcDbText
 10
60.26533774539418
 20
5.653829492092754
 30
0.0
 40
0.389347742874474
  1
HUBBELL
  7
SANSSERIF
100
AcDbText
  0
POLYLINE
  5
79
330
6C
100
AcDbEntity
  8
0
100
AcDb2dPolyline
 66
     1
 10
0.0
 20
0.0
 30
0.0
  0
VERTEX
  5
7A
330
79
100
AcDbEntity
  8
0
100
AcDbVertex
100
AcDb2dVertex
 10
60.4670561217997
 20
5.461469910103673
 30
0.0
 42
0.0538548888021971
  0
VERTEX
  5
7B
330
79
100
AcDbEntity
  8
0
100
AcDbVertex
100
AcDb2dVertex
 10
60.60726652930766
 20
5.351653394441093
 30
0.0
 42
0.0762621633615686
 70
     2
 50
328.0963691854962
  0
VERTEX
  5
7C
330
79
100
AcDbEntity
  8
0
100
AcDbVertex
100
AcDb2dVertex
 10
60.94993298608232
 20
5.204917216678261
 30
0.0
 42
0.0631748622128167
 50
328.0963691854962
  0
VERTEX
  5
7D
330
79
100
AcDbEntity
  8
0
100
AcDbVertex
100
AcDb2dVertex
 10
61.39552935900294
 20
5.148390636600225
 30
0.0
 42
0.0631748622128144
  0
VERTEX
  5
7E
330
79
100
AcDbEntity
  8
0
100
AcDbVertex
100
AcDb2dVertex
 10
61.84112573192356
 20
5.204917216678261
 30
0.0
 42
0.0762621633615716
  0
VERTEX
  5
7F
330
79
100
AcDbEntity
  8
0
100
AcDbVertex
100
AcDb2dVertex
 10
62.18379218869818
 20
5.351653394441093
 30
0.0
 42
0.0538548888021992
 70
     2
 50
31.90363081450366
  0
VERTEX
  5
80
330
79
100
AcDbEntity
  8
0
100
AcDbVertex
100
AcDb2dVertex
 10
62.32400259620617
 20
5.461469910103673
 30
0.0
 42
0.1478388992712208
 50
31.90363081450366
  0
SEQEND
  5
81
330
79
100
AcDbEntity
  8
0
  0
POLYLINE
  5
82
330
6C
100
AcDbEntity
  8
0
100
AcDb2dPolyline
 66
     1
 10
0.0
 20
0.0
 30
0.0
  0
VERTEX
  5
83
330
82
100
AcDbEntity
  8
0
100
AcDbVertex
100
AcDb2dVertex
 10
60.72412333151162
 20
5.503895426002586
 30
0.0
 42
0.0708473647366734
  0
VERTEX
  5
84
330
82
100
AcDbEntity
  8
0
100
AcDbVertex
100
AcDb2dVertex
 10
60.85122980921778
 20
5.351653394441093
 30
0.0
 42
0.0943474025114784
 70
     2
 50
317.9633854595613
  0
VERTEX
  5
85
330
82
100
AcDbEntity
  8
0
100
AcDbVertex
100
AcDb2dVertex
 10
61.09737852717124
 20
5.202244905107761
 30
0.0
 42
0.0895889244631754
 50
317.9633854595613
  0
VERTEX
  5
86
330
82
100
AcDbEntity
  8
0
100
AcDbVertex
100
AcDb2dVertex
 10
61.39552935900294
 20
5.148390636600225
 30
0.0
 42
0.0895889244631755
  0
VERTEX
  5
87
330
82
100
AcDbEntity
  8
0
100
AcDbVertex
100
AcDb2dVertex
 10
61.69368019083463
 20
5.202244905107761
 30
0.0
 42
0.0943474025114826
  0
VERTEX
  5
88
330
82
100
AcDbEntity
  8
0
100
AcDbVertex
100
AcDb2dVertex
 10
61.93982890878809
 20
5.351653394441093
 30
0.0
 42
0.0708473647366705
 70
     2
 50
42.03661454043863
  0
VERTEX
  5
89
330
82
100
AcDbEntity
  8
0
100
AcDbVertex
100
AcDb2dVertex
 10
62.06693538649422
 20
5.503895426002586
 30
0.0
 42
0.1080871028423927
 50
42.03661454043863
  0
SEQEND
  5
8A
330
82
100
AcDbEntity
  8
0
  0
POLYLINE
  5
8B
330
6C
100
AcDbEntity
  8
0
100
AcDb2dPolyline
 66
     1
 10
0.0
 20
0.0
 30
0.0
  0
VERTEX
  5
8C
330
8B
100
AcDbEntity
  8
0
100
AcDbVertex
100
AcDb2dVertex
 10
62.31771020640486
 20
6.229338463558775
 30
0.0
 42
0.0512131062417871
  0
VERTEX
  5
8D
330
8B
100
AcDbEntity
  8
0
100
AcDbVertex
100
AcDb2dVertex
 10
62.18379218869818
 20
6.333092807850704
 30
0.0
 42
0.0762621633615678
 70
     2
 50
148.0963691854963
  0
VERTEX
  5
8E
330
8B
100
AcDbEntity
  8
0
100
AcDbVertex
100
AcDb2dVertex
 10
61.84112573192356
 20
6.479828985613544
 30
0.0
 42
0.0631748622128132
 50
148.0963691854963
  0
VERTEX
  5
8F
330
8B
100
AcDbEntity
  8
0
100
AcDbVertex
100
AcDb2dVertex
 10
61.39552935900294
 20
6.536355565691579
 30
0.0
 42
0.0631748622128155
  0
SEQEND
  5
90
330
8B
100
AcDbEntity
  8
0
  0
POLYLINE
  5
91
330
6C
100
AcDbEntity
  8
0
100
AcDb2dPolyline
 66
     1
 10
0.0
 20
0.0
 30
0.0
  0
VERTEX
  5
92
330
91
100
AcDbEntity
  8
0
100
AcDbVertex
100
AcDb2dVertex
 10
62.06380979765218
 20
6.18585398205063
 30
0.0
 42
0.0687403046083495
  0
VERTEX
  5
93
330
91
100
AcDbEntity
  8
0
100
AcDbVertex
100
AcDb2dVertex
 10
61.93982890878809
 20
6.333092807850704
 30
0.0
 42
0.0943474025114827
 70
     2
 50
137.9633854595613
  0
VERTEX
  5
94
330
91
100
AcDbEntity
  8
0
100
AcDbVertex
100
AcDb2dVertex
 10
61.69368019083463
 20
6.482501297184036
 30
0.0
 42
0.0895889244631755
 50
137.9633854595613
  0
VERTEX
  5
95
330
91
100
AcDbEntity
  8
0
100
AcDbVertex
100
AcDb2dVertex
 10
61.39552935900294
 20
6.536355565691579
 30
0.0
 42
0.0895889244631779
  0
SEQEND
  5
96
330
91
100
AcDbEntity
  8
0
  0
LINE
  5
97
330
6C
100
AcDbEntity
  8
0
100
AcDbLine
 10
62.87481409636801
 20
6.729943943564911
 30
0.0
 11
59.91624462163791
 21
6.729943943564911
 31
0.0
  0
POLYLINE
  5
98
330
6C
100
AcDbEntity
  8
0
100
AcDb2dPolyline
 66
     1
 10
0.0
 20
0.0
 30
0.0
 70
     1
  0
VERTEX
  5
99
330
98
100
AcDbEntity
  8
0
100
AcDbVertex
100
AcDb2dVertex
 10
59.91624462163791
 20
5.842373101145895
 30
0.0
 42
0.1828233251715505
  0
VERTEX
  5
9A
330
98
100
AcDbEntity
  8
0
100
AcDbVertex
100
AcDb2dVertex
 10
60.00391305306111
 20
5.610624309218067
 30
0.0
 42
0.1025674015815553
  0
VERTEX
  5
9B
330
98
100
AcDbEntity
  8
0
100
AcDbVertex
100
AcDb2dVertex
 10
60.34951708990636
 20
5.351653394441157
 30
0.0
 42
0.0617587255956112
 70
     2
 50
334.8671392208401
  0
VERTEX
  5
9C
330
98
100
AcDbEntity
  8
0
100
AcDbVertex
100
AcDb2dVertex
 10
60.79566126363666
 20
5.206134233771031
 30
0.0
 42
0.0480192641995976
 50
334.8671392208401
  0
VERTEX
  5
9D
330
98
100
AcDbEntity
  8
0
100
AcDbVertex
100
AcDb2dVertex
 10
61.39552935900294
 20
5.148390636600225
 30
0.0
 42
0.0480192641995965
  0
VERTEX
  5
9E
330
98
100
AcDbEntity
  8
0
100
AcDbVertex
100
AcDb2dVertex
 10
61.99539745436925
 20
5.206134233771031
 30
0.0
 42
0.0617587255956115
  0
VERTEX
  5
9F
330
98
100
AcDbEntity
  8
0
100
AcDbVertex
100
AcDb2dVertex
 10
62.44154162809954
 20
5.351653394441157
 30
0.0
 42
0.1025674015815654
 70
     2
 50
25.13286077915987
  0
VERTEX
  5
A0
330
98
100
AcDbEntity
  8
0
100
AcDbVertex
100
AcDb2dVertex
 10
62.78714566494468
 20
5.610624309218067
 30
0.0
 42
0.18282332517157
 50
25.13286077915987
  0
VERTEX
  5
A1
330
98
100
AcDbEntity
  8
0
100
AcDbVertex
100
AcDb2dVertex
 10
62.87481409636801
 20
5.842373101145895
 30
0.0
 42
0.1828233251715568
  0
VERTEX
  5
A2
330
98
100
AcDbEntity
  8
0
100
AcDbVertex
100
AcDb2dVertex
 10
62.78714566494468
 20
6.074121893073737
 30
0.0
 42
0.102567401581563
  0
VERTEX
  5
A3
330
98
100
AcDbEntity
  8
0
100
AcDbVertex
100
AcDb2dVertex
 10
62.44154162809954
 20
6.333092807850626
 30
0.0
 42
0.0617587255956141
 70
     2
 50
154.86713922084
  0
VERTEX
  5
A4
330
98
100
AcDbEntity
  8
0
100
AcDbVertex
100
AcDb2dVertex
 10
61.99539745436925
 20
6.478611968520773
 30
0.0
 42
0.0480192641995983
 50
154.86713922084
  0
VERTEX
  5
A5
330
98
100
AcDbEntity
  8
0
100
AcDbVertex
100
AcDb2dVertex
 10
61.39552935900294
 20
6.536355565691579
 30
0.0
 42
0.0480192641995976
  0
VERTEX
  5
A6
330
98
100
AcDbEntity
  8
0
100
AcDbVertex
100
AcDb2dVertex
 10
60.79566126363666
 20
6.478611968520773
 30
0.0
 42
0.0617587255956112
  0
VERTEX
  5
A7
330
98
100
AcDbEntity
  8
0
100
AcDbVertex
100
AcDb2dVertex
 10
60.34951708990636
 20
6.333092807850626
 30
0.0
 42
0.1025674015815593
 70
     2
 50
205.1328607791599
  0
VERTEX
  5
A8
330
98
100
AcDbEntity
  8
0
100
AcDbVertex
100
AcDb2dVertex
 10
60.00391305306111
 20
6.074121893073737
 30
0.0
 42
0.1828233251715536
 50
205.1328607791599
  0
SEQEND
  5
A9
330
98
100
AcDbEntity
  8
0
  0
ARC
  5
AA
330
6C
100
AcDbEntity
  8
0
100
AcDbCircle
 10
59.91624462163791
 20
6.434086996091906
 30
0.0
 40
0.2958569474730044
100
AcDbArc
 50
90.0
 51
180.0
  0
LINE
  5
AB
330
6C
100
AcDbEntity
  8
0
100
AcDbLine
 10
59.6203876741649
 20
6.434086996091906
 30
0.0
 11
59.6203876741649
 21
5.250659206199877
 31
0.0
  0
ARC
  5
AC
330
6C
100
AcDbEntity
  8
0
100
AcDbCircle
 10
59.91624462163791
 20
5.250659206199877
 30
0.0
 40
0.2958569474730044
100
AcDbArc
 50
180.0
 51
270.0
  0
POLYLINE
  5
AD
330
6C
100
AcDbEntity
  8
0
100
AcDb2dPolyline
 66
     1
 10
0.0
 20
0.0
 30
0.0
  0
VERTEX
  5
AE
330
AD
100
AcDbEntity
  8
0
100
AcDbVertex
100
AcDb2dVertex
 10
61.0876526342107
 20
5.537582624580593
 30
0.0
 42
0.0570538596573184
  0
VERTEX
  5
AF
330
AD
100
AcDbEntity
  8
0
100
AcDbVertex
100
AcDb2dVertex
 10
61.1541001712419
 20
5.351653394441058
 30
0.0
 42
0.1038195938885091
 70
     2
 50
296.1967246921072
  0
VERTEX
  5
B0
330
AD
100
AcDbEntity
  8
0
100
AcDbVertex
100
AcDb2dVertex
 10
61.28028165169897
 20
5.190445053003408
 30
0.0
 42
0.1767522344444316
 50
296.1967246921072
  0
VERTEX
  5
B1
330
AD
100
AcDbEntity
  8
0
100
AcDbVertex
100
AcDb2dVertex
 10
61.39552935900294
 20
5.148390636600225
 30
0.0
 42
0.1767522344444399
  0
VERTEX
  5
B2
330
AD
100
AcDbEntity
  8
0
100
AcDbVertex
100
AcDb2dVertex
 10
61.51077706630696
 20
5.190445053003408
 30
0.0
 42
0.1038195938885123
  0
VERTEX
  5
B3
330
AD
100
AcDbEntity
  8
0
100
AcDbVertex
100
AcDb2dVertex
 10
61.63695854676394
 20
5.351653394441058
 30
0.0
 42
0.0570538596573163
 70
     2
 50
63.8032753078928
  0
VERTEX
  5
B4
330
AD
100
AcDbEntity
  8
0
100
AcDbVertex
100
AcDb2dVertex
 10
61.70340608379513
 20
5.537582624580593
 30
0.0
 42
0.0503013836282066
 50
63.8032753078928
  0
SEQEND
  5
B5
330
AD
100
AcDbEntity
  8
0
  0
POLYLINE
  5
B6
330
6C
100
AcDbEntity
  8
0
100
AcDb2dPolyline
 66
     1
 10
0.0
 20
0.0
 30
0.0
  0
VERTEX
  5
B7
330
B6
100
AcDbEntity
  8
0
100
AcDbVertex
100
AcDb2dVertex
 10
61.39552935900294
 20
6.536355565691579
 30
0.0
 42
0.1767522344444361
  0
VERTEX
  5
B8
330
B6
100
AcDbEntity
  8
0
100
AcDbVertex
100
AcDb2dVertex
 10
61.28028165169897
 20
6.494301149288361
 30
0.0
 42
0.1038195938884991
  0
VERTEX
  5
B9
330
B6
100
AcDbEntity
  8
0
100
AcDbVertex
100
AcDb2dVertex
 10
61.1541001712419
 20
6.333092807850725
 30
0.0
 42
0.0567223889277798
 70
     2
 50
243.8032753078928
  0
VERTEX
  5
BA
330
B6
100
AcDbEntity
  8
0
100
AcDbVertex
100
AcDb2dVertex
 10
61.08791405784555
 20
6.148280533475471
 30
0.0
 42
0.0503013836282199
 50
243.8032753078928
  0
SEQEND
  5
BB
330
B6
100
AcDbEntity
  8
0
  0
POLYLINE
  5
BC
330
6C
100
AcDbEntity
  8
0
100
AcDb2dPolyline
 66
     1
 10
0.0
 20
0.0
 30
0.0
  0
VERTEX
  5
BD
330
BC
100
AcDbEntity
  8
0
100
AcDbVertex
100
AcDb2dVertex
 10
61.39552935900294
 20
6.536355565691579
 30
0.0
 42
0.0895889244631779
  0
VERTEX
  5
BE
330
BC
100
AcDbEntity
  8
0
100
AcDbVertex
100
AcDb2dVertex
 10
61.09737852717124
 20
6.482501297184036
 30
0.0
 42
0.094347402511486
  0
VERTEX
  5
BF
330
BC
100
AcDbEntity
  8
0
100
AcDbVertex
100
AcDb2dVertex
 10
60.85122980921778
 20
6.333092807850704
 30
0.0
 42
0.0687403046083514
 70
     2
 50
222.0366145404387
  0
VERTEX
  5
C0
330
BC
100
AcDbEntity
  8
0
100
AcDbVertex
100
AcDb2dVertex
 10
60.7272489203537
 20
6.18585398205063
 30
0.0
 42
0.1080871028423927
 50
222.0366145404387
  0
SEQEND
  5
C1
330
BC
100
AcDbEntity
  8
0
  0
POLYLINE
  5
C2
330
6C
100
AcDbEntity
  8
0
100
AcDb2dPolyline
 66
     1
 10
0.0
 20
0.0
 30
0.0
  0
VERTEX
  5
C3
330
C2
100
AcDbEntity
  8
0
100
AcDbVertex
100
AcDb2dVertex
 10
61.39552935900294
 20
6.536355565691579
 30
0.0
 42
0.0631748622128155
  0
VERTEX
  5
C4
330
C2
100
AcDbEntity
  8
0
100
AcDbVertex
100
AcDb2dVertex
 10
60.94993298608232
 20
6.479828985613544
 30
0.0
 42
0.0762621633615699
  0
VERTEX
  5
C5
330
C2
100
AcDbEntity
  8
0
100
AcDbVertex
100
AcDb2dVertex
 10
60.60726652930766
 20
6.333092807850704
 30
0.0
 42
0.0512131062417906
 70
     2
 50
211.9036308145036
  0
VERTEX
  5
C6
330
C2
100
AcDbEntity
  8
0
100
AcDbVertex
100
AcDb2dVertex
 10
60.47334851160101
 20
6.229338463558775
 30
0.0
 42
0.1478388992712295
 50
211.9036308145036
  0
SEQEND
  5
C7
330
C2
100
AcDbEntity
  8
0
  0
POLYLINE
  5
C8
330
6C
100
AcDbEntity
  8
0
100
AcDb2dPolyline
 66
     1
 10
0.0
 20
0.0
 30
0.0
  0
VERTEX
  5
C9
330
C8
100
AcDbEntity
  8
0
100
AcDbVertex
100
AcDb2dVertex
 10
61.70314466016036
 20
6.148280533475471
 30
0.0
 42
0.0567223889277601
  0
VERTEX
  5
CA
330
C8
100
AcDbEntity
  8
0
100
AcDbVertex
100
AcDb2dVertex
 10
61.63695854676394
 20
6.333092807850725
 30
0.0
 42
0.1038195938884991
 70
     2
 50
116.1967246921072
  0
VERTEX
  5
CB
330
C8
100
AcDbEntity
  8
0
100
AcDbVertex
100
AcDb2dVertex
 10
61.51077706630696
 20
6.494301149288361
 30
0.0
 42
0.1767522344444361
 50
116.1967246921072
  0
VERTEX
  5
CC
330
C8
100
AcDbEntity
  8
0
100
AcDbVertex
100
AcDb2dVertex
 10
61.39552935900294
 20
6.536355565691579
 30
0.0
 42
0.1767522344444361
  0
SEQEND
  5
CD
330
C8
100
AcDbEntity
  8
0
  0
ARC
  5
CE
330
6C
100
AcDbEntity
  8
0
100
AcDbCircle
 10
62.87481409636801
 20
6.434086996091906
 30
0.0
 40
0.2958569474730044
100
AcDbArc
 50
0.0
 51
90.0
  0
CIRCLE
  5
CF
330
6C
100
AcDbEntity
  8
0
100
AcDbCircle
 10
63.44972465994143
 20
6.577477694145898
 30
0.0
 40
0.1539693820188075
  0
TEXT
  5
D0
330
6C
100
AcDbEntity
  8
0
100
AcDbText
 10
63.35043486431288
 20
6.474554844806348
 30
0.0
 40
0.1807272542209781
  1
R
  7
SANSSERIF
100
AcDbText
  0
LINE
  5
D1
330
6C
100
AcDbEntity
  8
0
100
AcDbLine
 10
63.17067104384094
 20
5.250659206199877
 30
0.0
 11
63.17067104384094
 21
6.434086996091906
 31
0.0
  0
ARC
  5
D2
330
6C
100
AcDbEntity
  8
0
100
AcDbCircle
 10
62.87481409636801
 20
5.250659206199877
 30
0.0
 40
0.2958569474730044
100
AcDbArc
 50
270.0
 51
0.0
  0
LINE
  5
D3
330
6C
100
AcDbEntity
  8
0
100
AcDbLine
 10
59.91624462163791
 20
4.954802258726871
 30
0.0
 11
62.87481409636801
 21
4.954802258726871
 31
0.0
  0
CIRCLE
  5
182
330
6C
100
AcDbEntity
  8
Visible (ANSI)
100
AcDbCircle
 10
28.84007392809949
 20
31.03939640402387
 30
0.0
 40
0.25
  0
CIRCLE
  5
183
330
6C
100
AcDbEntity
  8
Visible (ANSI)
100
AcDbCircle
 10
11.68007392809949
 20
31.03939640402386
 30
0.0
 40
0.25
  0
CIRCLE
  5
184
330
6C
100
AcDbEntity
  8
Visible (ANSI)
100
AcDbCircle
 10
11.68007392809949
 20
13.87939640402386
 30
0.0
 40
0.25
  0
CIRCLE
  5
185
330
6C
100
AcDbEntity
  8
Visible (ANSI)
100
AcDbCircle
 10
28.84007392809949
 20
13.87939640402386
 30
0.0
 40
0.25
  0
CIRCLE
  5
186
330
6C
100
AcDbEntity
  8
Visible (ANSI)
100
AcDbCircle
 10
28.84007392809949
 20
30.28939640402386
 30
0.0
 40
0.15625
  0
CIRCLE
  5
187
330
6C
100
AcDbEntity
  8
Visible (ANSI)
100
AcDbCircle
 10
11.68007392809949
 20
30.28939640402386
 30
0.0
 40
0.15625
  0
CIRCLE
  5
188
330
6C
100
AcDbEntity
  8
Visible (ANSI)
100
AcDbCircle
 10
11.68007392809949
 20
14.62939640402386
 30
0.0
 40
0.15625
  0
CIRCLE
  5
189
330
6C
100
AcDbEntity
  8
Visible (ANSI)
100
AcDbCircle
 10
28.84007392809949
 20
14.62939640402386
 30
0.0
 40
0.15625
  0
LINE
  5
18A
330
6C
100
AcDbEntity
  8
Visible (ANSI)
100
AcDbLine
 10
11.16007392809949
 20
31.05939640402386
 30
0.0
 11
11.66007392809949
 21
31.55939640402386
 31
0.0
  0
LINE
  5
18B
330
6C
100
AcDbEntity
  8
Visible (ANSI)
100
AcDbLine
 10
11.16007392809949
 20
13.85939640402386
 30
0.0
 11
11.16007392809949
 21
31.05939640402386
 31
0.0
  0
LINE
  5
18C
330
6C
100
AcDbEntity
  8
Visible (ANSI)
100
AcDbLine
 10
28.86007392809949
 20
13.35939640402386
 30
0.0
 11
11.66007392809949
 21
13.35939640402386
 31
0.0
  0
LINE
  5
18D
330
6C
100
AcDbEntity
  8
Visible (ANSI)
100
AcDbLine
 10
29.36007392809949
 20
31.05939640402386
 30
0.0
 11
29.36007392809949
 21
13.85939640402386
 31
0.0
  0
LINE
  5
18E
330
6C
100
AcDbEntity
  8
Visible (ANSI)
100
AcDbLine
 10
11.66007392809949
 20
31.55939640402386
 30
0.0
 11
28.86007392809948
 21
31.55939640402387
 31
0.0
  0
LINE
  5
18F
330
6C
100
AcDbEntity
  8
Visible (ANSI)
100
AcDbLine
 10
11.66007392809949
 20
13.35939640402386
 30
0.0
 11
11.16007392809949
 21
13.85939640402386
 31
0.0
  0
LINE
  5
190
330
6C
100
AcDbEntity
  8
Visible (ANSI)
100
AcDbLine
 10
29.36007392809949
 20
13.85939640402386
 30
0.0
 11
28.86007392809949
 21
13.35939640402386
 31
0.0
  0
LINE
  5
191
330
6C
100
AcDbEntity
  8
Visible (ANSI)
100
AcDbLine
 10
28.86007392809948
 20
31.55939640402387
 30
0.0
 11
29.36007392809949
 21
31.05939640402386
 31
0.0
  0
LINE
  5
192
330
6C
100
AcDbEntity
  8
Visible (ANSI)
100
AcDbLine
 10
43.10993312948698
 20
31.05939640402386
 30
0.0
 11
43.10993312948683
 21
31.55939640402387
 31
0.0
  0
LINE
  5
193
330
6C
100
AcDbEntity
  8
Visible (ANSI)
100
AcDbLine
 10
43.01618312948698
 20
31.05939640402386
 30
0.0
 11
43.10993312948698
 21
31.05939640402386
 31
0.0
  0
LINE
  5
194
330
6C
100
AcDbEntity
  8
Visible (ANSI)
100
AcDbLine
 10
43.01618312948683
 20
31.55939640402387
 30
0.0
 11
43.01618312948698
 21
31.05939640402386
 31
0.0
  0
LINE
  5
195
330
6C
100
AcDbEntity
  8
Visible (ANSI)
100
AcDbLine
 10
43.10993312948683
 20
31.55939640402387
 30
0.0
 11
43.01618312948683
 21
31.55939640402387
 31
0.0
  0
LINE
  5
196
330
6C
100
AcDbEntity
  8
Visible (ANSI)
100
AcDbLine
 10
43.10993312948698
 20
13.85939640402386
 30
0.0
 11
43.10993312948698
 21
31.05939640402386
 31
0.0
  0
LINE
  5
197
330
6C
100
AcDbEntity
  8
Visible (ANSI)
100
AcDbLine
 10
43.01618312948698
 20
31.05939640402386
 30
0.0
 11
43.01618312948698
 21
13.85939640402386
 31
0.0
  0
LINE
  5
198
330
6C
100
AcDbEntity
  8
Visible (ANSI)
100
AcDbLine
 10
43.10993312948683
 20
13.35939640402386
 30
0.0
 11
43.10993312948698
 21
13.85939640402386
 31
0.0
  0
LINE
  5
199
330
6C
100
AcDbEntity
  8
Visible (ANSI)
100
AcDbLine
 10
43.01618312948683
 20
13.35939640402386
 30
0.0
 11
43.10993312948683
 21
13.35939640402386
 31
0.0
  0
LINE
  5
19A
330
6C
100
AcDbEntity
  8
Visible (ANSI)
100
AcDbLine
 10
43.01618312948698
 20
13.85939640402386
 30
0.0
 11
43.01618312948683
 21
13.35939640402386
 31
0.0
  0
LINE
  5
19B
330
6C
100
AcDbEntity
  8
Visible (ANSI)
100
AcDbLine
 10
43.10993312948698
 20
13.85939640402386
 30
0.0
 11
43.01618312948698
 21
13.85939640402386
 31
0.0
  0
LINE
  5
19C
330
6C
100
AcDbEntity
  8
Hidden (ANSI)
 48
0.0445413254201412
100
AcDbLine
 10
43.01618312948682
 20
31.28939640402387
 30
0.0
 11
43.10993312948683
 21
31.28939640402387
 31
0.0
  0
LINE
  5
19D
330
6C
100
AcDbEntity
  8
Hidden (ANSI)
 48
0.0445413254201412
100
AcDbLine
 10
43.01618312948682
 20
30.78939640402386
 30
0.0
 11
43.10993312948683
 21
30.78939640402386
 31
0.0
  0
LINE
  5
19E
330
6C
100
AcDbEntity
  8
Hidden (ANSI)
 48
0.0445413254201412
100
AcDbLine
 10
43.01618312948682
 20
14.12939640402386
 30
0.0
 11
43.10993312948683
 21
14.12939640402386
 31
0.0
  0
LINE
  5
19F
330
6C
100
AcDbEntity
  8
Hidden (ANSI)
 48
0.0445413254201412
100
AcDbLine
 10
43.01618312948682
 20
13.62939640402386
 30
0.0
 11
43.10993312948683
 21
13.62939640402386
 31
0.0
  0
LINE
  5
1A0
330
6C
100
AcDbEntity
  8
Hidden (ANSI)
 48
0.0445413254201412
100
AcDbLine
 10
43.01618312948682
 20
30.44564640402387
 30
0.0
 11
43.10993312948683
 21
30.44564640402387
 31
0.0
  0
LINE
  5
1A1
330
6C
100
AcDbEntity
  8
Hidden (ANSI)
 48
0.0445413254201412
100
AcDbLine
 10
43.01618312948682
 20
30.13314640402386
 30
0.0
 11
43.10993312948683
 21
30.13314640402386
 31
0.0
  0
LINE
  5
1A2
330
6C
100
AcDbEntity
  8
Hidden (ANSI)
 48
0.0445413254201412
100
AcDbLine
 10
43.01618312948682
 20
14.78564640402386
 30
0.0
 11
43.10993312948683
 21
14.78564640402386
 31
0.0
  0
LINE
  5
1A3
330
6C
100
AcDbEntity
  8
Hidden (ANSI)
 48
0.0445413254201412
100
AcDbLine
 10
43.01618312948682
 20
14.47314640402386
 30
0.0
 11
43.10993312948683
 21
14.47314640402386
 31
0.0
  0
ELLIPSE
  5
1A4
330
6C
100
AcDbEntity
  8
Visible (ANSI)
100
AcDbEllipse
 10
64.05720474989867
 20
33.28260327233109
 30
0.0
 11
-0.0831720352640666
 21
0.1444305726908629
 31
0.0
210
0.0
220
0.0
230
1.0
 40
0.578093115915812
 41
0.2678448778125722
 42
2.873747775777294
  0
ELLIPSE
  5
1A5
330
6C
100
AcDbEntity
  8
Visible (ANSI)
100
AcDbEllipse
 10
64.01301057607454
 20
33.25715354021907
 30
0.0
 11
-0.0831720352640666
 21
0.1444305726908629
 31
0.0
210
0.0
220
0.0
230
1.0
 40
0.578093115915812
 41
0.0
 42
6.283185307179586
  0
ELLIPSE
  5
1A6
330
6C
100
AcDbEntity
  8
Visible (ANSI)
100
AcDbEllipse
 10
55.9679031731234
 20
37.94092223811468
 30
0.0
 11
-0.0831720352640664
 21
0.1444305726908624
 31
0.0
210
0.0
220
0.0
230
1.0
 40
0.5780931159158122
 41
0.2678448778125718
 42
2.873747775777295
  0
ELLIPSE
  5
1A7
330
6C
100
AcDbEntity
  8
Visible (ANSI)
100
AcDbEllipse
 10
55.92370899929925
 20
37.91547250600265
 30
0.0
 11
-0.0831720352640666
 21
0.1444305726908629
 31
0.0
210
0.0
220
0.0
230
1.0
 40
0.578093115915812
 41
0.0
 42
6.283185307179586
  0
ELLIPSE
  5
1A8
330
6C
100
AcDbEntity
  8
Visible (ANSI)
100
AcDbEllipse
 10
55.9679031731234
 20
28.58818312991598
 30
0.0
 11
-0.0831720352640666
 21
0.1444305726908629
 31
0.0
210
0.0
220
0.0
230
1.0
 40
0.578093115915812
 41
0.2678448778125716
 42
2.873747775777294
  0
ELLIPSE
  5
1A9
330
6C
100
AcDbEntity
  8
Visible (ANSI)
100
AcDbEllipse
 10
55.92370899929924
 20
28.56273339780396
 30
0.0
 11
-0.0831720352640666
 21
0.1444305726908629
 31
0.0
210
0.0
220
0.0
230
1.0
 40
0.578093115915812
 41
0.0
 42
6.283185307179586
  0
ELLIPSE
  5
1AA
330
6C
100
AcDbEntity
  8
Visible (ANSI)
100
AcDbEllipse
 10
64.05720474989867
 20
23.9298641641324
 30
0.0
 11
-0.0831720352640668
 21
0.1444305726908632
 31
0.0
210
0.0
220
0.0
230
1.0
 40
0.578093115915812
 41
0.2678448778125719
 42
2.873747775777295
  0
ELLIPSE
  5
1AB
330
6C
100
AcDbEntity
  8
Visible (ANSI)
100
AcDbEllipse
 10
64.01301057607452
 20
23.90441443202037
 30
0.0
 11
-0.0831720352640666
 21
0.1444305726908629
 31
0.0
210
0.0
220
0.0
230
1.0
 40
0.578093115915812
 41
0.0
 42
6.283185307179586
  0
ELLIPSE
  5
1AC
330
6C
100
AcDbEntity
  8
Visible (ANSI)
100
AcDbEllipse
 10
64.05720474989867
 20
32.87382970990982
 30
0.0
 11
0.0519825220400466
 21
-0.0902691079317856
 31
0.0
210
0.0
220
0.0
230
1.0
 40
0.578093115915812
 41
3.578838513251611
 42
5.845939447516887
  0
ELLIPSE
  5
1AD
330
6C
100
AcDbEntity
  8
Visible (ANSI)
100
AcDbEllipse
 10
64.01301057607454
 20
32.84837997779779
 30
0.0
 11
-0.0519825220400416
 21
0.0902691079317894
 31
0.0
210
0.0
220
0.0
230
1.0
 40
0.578093115915812
 41
0.0
 42
6.283185307179586
  0
ELLIPSE
  5
1AE
330
6C
100
AcDbEntity
  8
Visible (ANSI)
100
AcDbEllipse
 10
55.9679031731234
 20
37.5321486756934
 30
0.0
 11
0.0519825220400471
 21
-0.0902691079317864
 31
0.0
210
0.0
220
0.0
230
0.9999999999999998
 40
0.578093115915812
 41
3.578838513251611
 42
5.845939447516887
  0
ELLIPSE
  5
1AF
330
6C
100
AcDbEntity
  8
Visible (ANSI)
100
AcDbEllipse
 10
55.92370899929925
 20
37.50669894358138
 30
0.0
 11
-0.0519825220400416
 21
0.0902691079317894
 31
0.0
210
0.0
220
0.0
230
1.0
 40
0.578093115915812
 41
0.0
 42
6.283185307179586
  0
ELLIPSE
  5
1B0
330
6C
100
AcDbEntity
  8
Visible (ANSI)
100
AcDbEllipse
 10
55.9679031731234
 20
28.99695669233725
 30
0.0
 11
0.051982522040047
 21
-0.0902691079317862
 31
0.0
210
0.0
220
0.0
230
1.0
 40
0.5780931159158121
 41
3.578838513251609
 42
5.845939447516886
  0
ELLIPSE
  5
1B1
330
6C
100
AcDbEntity
  8
Visible (ANSI)
100
AcDbEllipse
 10
55.92370899929924
 20
28.97150696022523
 30
0.0
 11
-0.0519825220400416
 21
0.0902691079317894
 31
0.0
210
0.0
220
0.0
230
1.0
 40
0.578093115915812
 41
0.0
 42
6.283185307179586
  0
ELLIPSE
  5
1B2
330
6C
100
AcDbEntity
  8
Visible (ANSI)
100
AcDbEllipse
 10
64.05720474989867
 20
24.33863772655367
 30
0.0
 11
0.051982522040047
 21
-0.0902691079317861
 31
0.0
210
0.0
220
0.0
230
0.9999999999999998
 40
0.578093115915812
 41
3.578838513251577
 42
5.845939447516885
  0
ELLIPSE
  5
1B3
330
6C
100
AcDbEntity
  8
Visible (ANSI)
100
AcDbEllipse
 10
64.01301057607452
 20
24.31318799444164
 30
0.0
 11
-0.0519825220400416
 21
0.0902691079317894
 31
0.0
210
0.0
220
0.0
230
1.0
 40
0.578093115915812
 41
0.0
 42
6.283185307179586
  0
LINE
  5
1B4
330
6C
100
AcDbEntity
  8
Visible (ANSI)
100
AcDbLine
 10
55.67857864848787
 20
38.0675343151152
 30
0.0
 11
55.91428090888342
 21
38.20431811879863
 31
0.0
  0
LINE
  5
1B5
330
6C
100
AcDbEntity
  8
Visible (ANSI)
100
AcDbLine
 10
55.91428090888342
 20
38.20431811879863
 30
0.0
 11
55.95847508270757
 21
38.22976785091065
 31
0.0
  0
LINE
  5
1B6
330
6C
100
AcDbEntity
  8
Visible (ANSI)
100
AcDbLine
 10
55.67857864848787
 20
28.69299395025404
 30
0.0
 11
55.67857864848787
 21
38.0675343151152
 31
0.0
  0
LINE
  5
1B7
330
6C
100
AcDbEntity
  8
Visible (ANSI)
100
AcDbLine
 10
64.06663284031451
 20
33.56059033275927
 30
0.0
 11
55.95847508270757
 21
38.22976785091065
 31
0.0
  0
LINE
  5
1B8
330
6C
100
AcDbEntity
  8
Visible (ANSI)
100
AcDbLine
 10
64.30233510071004
 20
23.77780235501985
 30
0.0
 11
64.30233510071005
 21
33.15234271988101
 31
0.0
  0
LINE
  5
1B9
330
6C
100
AcDbEntity
  8
Visible (ANSI)
100
AcDbLine
 10
64.02243866649034
 20
23.6155688192244
 30
0.0
 11
55.91428090888342
 21
28.28474633737577
 31
0.0
  0
LINE
  5
1BA
330
6C
100
AcDbEntity
  8
Visible (ANSI)
100
AcDbLine
 10
64.2581409268859
 20
33.12689298776898
 30
0.0
 11
64.2581409268859
 21
23.75235262290782
 31
0.0
  0
LINE
  5
1BB
330
6C
100
AcDbEntity
  8
Visible (ANSI)
100
AcDbLine
 10
55.91428090888342
 20
38.20431811879863
 30
0.0
 11
64.02243866649036
 21
33.53514060064725
 31
0.0
  0
LINE
  5
1BC
330
6C
100
AcDbEntity
  8
Visible (ANSI)
100
AcDbLine
 10
64.30233510071005
 20
33.15234271988101
 30
0.0
 11
64.06663284031451
 21
33.56059033275927
 31
0.0
  0
LINE
  5
1BD
330
6C
100
AcDbEntity
  8
Visible (ANSI)
100
AcDbLine
 10
64.2581409268859
 20
33.12689298776898
 30
0.0
 11
64.30233510071005
 21
33.15234271988101
 31
0.0
  0
LINE
  5
1BE
330
6C
100
AcDbEntity
  8
Visible (ANSI)
100
AcDbLine
 10
64.02243866649036
 20
33.53514060064725
 30
0.0
 11
64.2581409268859
 21
33.12689298776898
 31
0.0
  0
LINE
  5
1BF
330
6C
100
AcDbEntity
  8
Visible (ANSI)
100
AcDbLine
 10
64.06663284031451
 20
33.56059033275927
 30
0.0
 11
64.02243866649036
 21
33.53514060064725
 31
0.0
  0
LINE
  5
1C0
330
6C
100
AcDbEntity
  8
Visible (ANSI)
100
AcDbLine
 10
64.06663284031449
 20
23.64101855133642
 30
0.0
 11
64.30233510071004
 21
23.77780235501985
 31
0.0
  0
LINE
  5
1C1
330
6C
100
AcDbEntity
  8
Visible (ANSI)
100
AcDbLine
 10
64.02243866649034
 20
23.6155688192244
 30
0.0
 11
64.06663284031449
 21
23.64101855133642
 31
0.0
  0
LINE
  5
1C2
330
6C
100
AcDbEntity
  8
Visible (ANSI)
100
AcDbLine
 10
64.2581409268859
 20
23.75235262290782
 30
0.0
 11
64.02243866649034
 21
23.6155688192244
 31
0.0
  0
LINE
  5
1C3
330
6C
100
AcDbEntity
  8
Visible (ANSI)
100
AcDbLine
 10
64.30233510071004
 20
23.77780235501985
 30
0.0
 11
64.2581409268859
 21
23.75235262290782
 31
0.0
  0
LINE
  5
1C4
330
6C
100
AcDbEntity
  8
Visible (ANSI)
100
AcDbLine
 10
55.91428090888342
 20
28.28474633737577
 30
0.0
 11
55.67857864848787
 21
28.69299395025404
 31
0.0
  0
DIMENSION
  5
1C5
330
6C
100
AcDbEntity
  8
Dimension (ANSI)
100
AcDbDimension
  2
*D4
 10
7.816702605848711
 20
31.55939640402387
 30
0.0
 11
7.816702605848705
 21
22.45939640402387
 31
0.0
 70
   160
  1
<>
 42
18.2
  3
Default (ANSI)
100
AcDbAlignedDimension
 13
11.66007392809949
 23
13.35939640402386
 33
0.0
 14
11.66007392809949
 24
31.55939640402387
 34
0.0
 50
90.0
100
AcDbRotatedDimension
1001
ACAD
1000
DSTYLE
1002
{
1070
   289
1070
     1
1070
   271
1070
     2
1070
   272
1070
     2
1070
    48
1040
0.0
1070
    47
1040
0.0
1002
}
  0
DIMENSION
  5
2B2
330
6C
100
AcDbEntity
  8
Dimension (ANSI)
100
AcDbDimension
  2
*D5
 10
29.36007392809949
 20
34.23746173386961
 30
0.0
 11
20.26007392809949
 21
34.23746173386961
 31
0.0
 70
   160
  1
<>
 42
18.19999999999999
  3
Default (ANSI)
100
AcDbAlignedDimension
 13
11.16007392809949
 23
31.05939640402386
 33
0.0
 14
29.36007392809949
 24
31.05939640402386
 34
0.0
100
AcDbRotatedDimension
1001
ACAD
1000
DSTYLE
1002
{
1070
   289
1070
     1
1070
    73
1070
     0
1070
    74
1070
     0
1070
   271
1070
     2
1070
   272
1070
     2
1070
    48
1040
0.0
1070
    47
1040
0.0
1002
}
  0
DIMENSION
  5
39C
330
6C
100
AcDbEntity
  8
Dimension (ANSI)
100
AcDbDimension
  2
*D6
 10
11.2348685262644
 20
14.62939640402386
 30
0.0
 11
10.10527077849319
 21
12.73286441164461
 31
0.0
 70
   160
  1
<>
 42
0.75
  3
Default (ANSI)
100
AcDbAlignedDimension
 13
11.68007392809949
 23
13.87939640402386
 33
0.0
 14
11.68007392809949
 24
14.62939640402386
 34
0.0
 50
90.0
100
AcDbRotatedDimension
1001
ACAD
1000
DSTYLE
1002
{
1070
   289
1070
     1
1070
   271
1070
     2
1070
   272
1070
     2
1070
    48
1040
0.0
1070
    47
1040
0.0
1002
}
  0
DIMENSION
  5
49A
330
6C
100
AcDbEntity
  8
Dimension (ANSI)
100
AcDbDimension
  2
*D7
 10
32.02442216963439
 20
31.03939640402387
 30
0.0
 11
30.89208432773146
 21
29.89257267741475
 31
0.0
 70
   160
  1
<>
 42
0.5199999999999961
  3
Default (ANSI)
100
AcDbAlignedDimension
 13
28.86007392809947
 23
31.55939640402386
 33
0.0
 14
28.84007392809949
 24
31.03939640402387
 34
0.0
 50
270.0
100
AcDbRotatedDimension
1001
ACAD
1000
DSTYLE
1002
{
1070
   289
1070
     1
1070
   271
1070
     2
1070
   272
1070
     2
1070
    48
1040
0.0
1070
    47
1040
0.0
1002
}
  0
DIMENSION
  5
59A
330
6C
100
AcDbEntity
  8
Dimension (ANSI)
100
AcDbDimension
  2
*D8
 10
28.84007392809949
 20
33.08840874084348
 30
0.0
 11
31.09211641531154
 21
33.08840874084348
 31
0.0
 70
   160
  1
<>
 42
0.5199999999999961
  3
Default (ANSI)
100
AcDbAlignedDimension
 13
29.36007392809949
 23
31.05939640402386
 33
0.0
 14
28.84007392809949
 24
31.03939640402387
 34
0.0
 50
180.0
100
AcDbRotatedDimension
1001
ACAD
1000
DSTYLE
1002
{
1070
   289
1070
     1
1070
    73
1070
     0
1070
    74
1070
     0
1070
   271
1070
     2
1070
   272
1070
     2
1070
    48
1040
0.0
1070
    47
1040
0.0
1002
}
  0
DIMENSION
  5
684
330
6C
100
AcDbEntity
  8
Dimension (ANSI)
100
AcDbDimension
  2
*D9
 10
9.160388888729421
 20
31.03939640402386
 30
0.0
 11
9.160388888729416
 21
25.15608580494525
 31
0.0
 70
   160
  1
<>
 42
17.16
  3
Default (ANSI)
100
AcDbAlignedDimension
 13
11.68007392809949
 23
13.87939640402386
 33
0.0
 14
11.68007392809949
 24
31.03939640402386
 34
0.0
 50
90.0
100
AcDbRotatedDimension
1001
ACAD
1000
DSTYLE
1002
{
1070
   289
1070
     1
1070
   271
1070
     3
1070
   272
1070
     3
1070
    48
1040
0.0
1070
    47
1040
0.0
1002
}
  0
MTEXT
  5
76E
102
{ACAD_REACTORS
330
76F
102
}
330
6C
100
AcDbEntity
  8
Symbol (ANSI)
100
AcDbMText
 10
45.45028294055681
 20
25.89532012669169
 30
0.0
 40
0.4800000059323048
 41
1.963176689748688
 71
     1
 72
     1
  1
{12 GA.}
  7
Note Text (ANSI)
 73
     1
 44
1.0
1001
ACAD
1000
MTEXTBEGIN
1070
    73
1070
     1
1070
    44
1040
1.0
1070
    74
1070
     0
1000
MTEXTEND
  0
LEADER
  5
76F
330
6C
100
AcDbEntity
  8
Symbol (ANSI)
100
AcDbLeader
  3
Default (ANSI)$7
 73
     0
 74
     0
 75
     1
 40
0.499341846332532
 41
1.829093373848151
 76
     3
 10
43.10993312948698
 20
23.47635460499394
 30
0.0
 10
44.93059791010396
 20
25.65532012372554
 30
0.0
 10
45.3242986885883
 20
25.65532012372554
 30
0.0
340
76E
213
0.0
223
-0.2400000029661524
233
0.0
1001
ACAD
1000
DSTYLE
1002
{
1070
    77
1070
     0
1002
}
  0
DIMENSION
  5
770
330
6C
100
AcDbEntity
  8
Dimension (ANSI)
100
AcDbDimension
  2
*D10
 10
30.58881253655179
 20
13.85939640402386
 30
0.0
 11
31.72227865250894
 21
15.00592839640312
 31
0.0
 70
   160
  1
<>
 42
0.5000000000000018
  3
Default (ANSI)
100
AcDbAlignedDimension
 13
28.86007392809949
 23
13.35939640402386
 33
0.0
 14
29.36007392809949
 24
13.85939640402386
 34
0.0
 50
90.0
100
AcDbRotatedDimension
1001
ACAD
1000
DSTYLE
1002
{
1070
   289
1070
     1
1070
   271
1070
     2
1070
   272
1070
     2
1070
    48
1040
0.0
1070
    47
1040
0.0
1002
}
  0
DIMENSION
  5
870
330
6C
100
AcDbEntity
  8
Dimension (ANSI)
100
AcDbDimension
  2
*D11
 10
28.86007392809949
 20
10.99719167961442
 30
0.0
 11
27.12803144088744
 21
10.99719167961442
 31
0.0
 70
   160
  1
<>
 42
0.5
  3
Default (ANSI)
100
AcDbAlignedDimension
 13
29.36007392809949
 23
13.85939640402386
 33
0.0
 14
28.86007392809949
 24
13.35939640402386
 34
0.0
 50
180.0
100
AcDbRotatedDimension
1001
ACAD
1000
DSTYLE
1002
{
1070
   289
1070
     1
1070
    73
1070
     0
1070
    74
1070
     0
1070
   271
1070
     2
1070
   272
1070
     2
1070
    48
1040
0.0
1070
    47
1040
0.0
1002
}
  0
DIMENSION
  5
95A
330
6C
100
AcDbEntity
  8
Dimension (ANSI)
100
AcDbDimension
  2
*D12
 10
11.85685062339615
 20
30.86261970872724
 30
0.0
 11
6.052396800375934
 21
34.52459648871467
 31
0.0
 70
   163
  1
<>{\PTYP.(4PL.)}
 71
     3
 42
0.5
  3
Default (ANSI)
100
AcDbDiametricDimension
 15
11.50329723280283
 25
31.21617309932046
 35
0.0
 40
0.0
1001
ACAD_DSTYLE_DIMRADIAL_EXTENSION
1070
   387
1070
     1
1070
   388
1040
0.0
1070
   390
1040
0.0
1001
ACAD
1000
DSTYLE
1002
{
1070
   145
1040
-0.25
1070
   144
1040
1.000000000000007
1070
   271
1070
     2
1070
   272
1070
     2
1070
    48
1040
0.0
1070
    47
1040
0.0
1002
}
  0
DIMENSION
  5
A14
330
6C
100
AcDbEntity
  8
Dimension (ANSI)
100
AcDbDimension
  2
*D13
 10
11.61794099065765
 20
14.77276153432007
 30
0.0
 11
15.22027229371351
 21
11.64214822999324
 31
0.0
 70
   163
  1
<>{\PTYP. (4PL.)}
 42
0.3125
  3
Default (ANSI)
100
AcDbDiametricDimension
 15
11.74220686554134
 25
14.48603127372766
 35
0.0
 40
0.0
1001
ACAD_DSTYLE_DIMRADIAL_EXTENSION
1070
   387
1070
     1
1070
   388
1040
0.0
1070
   390
1040
0.0
1001
ACAD
1000
DSTYLE
1002
{
1070
   145
1040
-0.25
1070
   144
1040
0.9999999999999943
1070
   271
1070
     2
1070
   272
1070
     2
1070
    48
1040
0.0
1070
    47
1040
0.0
1002
}
  0
DIMENSION
  5
ACD
330
6C
100
AcDbEntity
  8
Dimension (ANSI)
100
AcDbDimension
  2
*D14
 10
11.68007392809949
 20
33.08840874084347
 30
0.0
 11
20.26007392809949
 21
33.08840874084347
 31
0.0
 70
   160
  1
<>
 42
17.16
  3
Default (ANSI)
100
AcDbAlignedDimension
 13
28.84007392809949
 23
31.03939640402387
 33
0.0
 14
11.68007392809949
 24
31.03939640402386
 34
0.0
 50
180.0
100
AcDbRotatedDimension
1001
ACAD
1000
DSTYLE
1002
{
1070
   289
1070
     1
1070
    73
1070
     0
1070
    74
1070
     0
1070
   271
1070
     3
1070
   272
1070
     3
1070
    48
1040
0.0
1070
    47
1040
0.0
1002
}
  0
ENDSEC
  0
SECTION
  2
OBJECTS
  0
DICTIONARY
  5
C
330
0
100
AcDbDictionary
281
     1
  3
ACAD_CIP_PREVIOUS_PRODUCT_INFO
350
BB7
  3
ACAD_COLOR
350
63
  3
ACAD_GROUP
350
D
  3
ACAD_LAYOUT
350
62
  3
ACAD_MATERIAL
350
10
  3
ACAD_MLEADERSTYLE
350
66
  3
ACAD_MLINESTYLE
350
5F
  3
ACAD_PLOTSETTINGS
350
61
  3
ACAD_PLOTSTYLENAME
350
E
  3
ACAD_SCALELIST
350
42
  3
ACAD_TABLESTYLE
350
64
  3
ACAD_VISUALSTYLE
350
29
  3
ACDB_RECOMPOSE_DATA
350
BC5
  3
AcDbVariableDictionary
350
D7
  3
DWGPROPS
350
BC6
  0
DICTIONARY
  5
C02
330
A0E
100
AcDbDictionary
280
     1
281
     1
  3
ACAD_MTEXT_RT
360
C03
  0
DICTIONARY
  5
C04
330
AC7
100
AcDbDictionary
280
     1
281
     1
  3
ACAD_MTEXT_RT
360
C05
  0
XRECORD
  5
BB7
102
{ACAD_REACTORS
330
C
102
}
330
C
100
AcDbXrecord
280
     1
300
INVNTOR
300
2012
300
85795PDSP_2012_0F
  0
DICTIONARY
  5
63
102
{ACAD_REACTORS
330
C
102
}
330
C
100
AcDbDictionary
281
     1
  0
DICTIONARY
  5
D
102
{ACAD_REACTORS
330
C
102
}
330
C
100
AcDbDictionary
281
     1
  0
DICTIONARY
  5
62
102
{ACAD_REACTORS
330
C
102
}
330
C
100
AcDbDictionary
281
     1
  3
Layout1
350
6B
  3
Layout2
350
73
  3
Model
350
6F
  0
DICTIONARY
  5
10
102
{ACAD_REACTORS
330
C
102
}
330
C
100
AcDbDictionary
281
     1
  3
ByBlock
350
19
  3
ByLayer
350
11
  3
Global
350
21
  0
DICTIONARY
  5
66
102
{ACAD_REACTORS
330
C
102
}
330
C
100
AcDbDictionary
281
     1
  3
Standard
350
67
  0
DICTIONARY
  5
5F
102
{ACAD_REACTORS
330
C
102
}
330
C
100
AcDbDictionary
281
     1
  3
Standard
350
60
  0
DICTIONARY
  5
61
102
{ACAD_REACTORS
330
C
102
}
330
C
100
AcDbDictionary
281
     1
  0
ACDBDICTIONARYWDFLT
  5
E
102
{ACAD_REACTORS
330
C
102
}
330
C
100
AcDbDictionary
281
     1
  3
Normal
350
F
100
AcDbDictionaryWithDefault
340
F
  0
DICTIONARY
  5
42
102
{ACAD_REACTORS
330
C
102
}
330
C
100
AcDbDictionary
281
     1
  3
A0
350
43
  3
A1
350
44
  3
A2
350
45
  3
A3
350
46
  3
A4
350
47
  3
A5
350
48
  3
A6
350
49
  3
A7
350
4A
  3
A8
350
4B
  3
A9
350
4C
  3
B0
350
4D
  3
B1
350
4E
  3
B2
350
4F
  3
B3
350
50
  3
B4
350
51
  3
B5
350
52
  3
B6
350
53
  0
DICTIONARY
  5
64
102
{ACAD_REACTORS
330
C
102
}
330
C
100
AcDbDictionary
281
     1
  3
Standard
350
65
  0
DICTIONARY
  5
29
102
{ACAD_REACTORS
330
C
102
}
330
C
100
AcDbDictionary
281
     1
  3
2dWireframe
350
2F
  3
Basic
350
2E
  3
Brighten
350
35
  3
ColorChange
350
39
  3
Conceptual
350
32
  3
Dim
350
34
  3
EdgeColorOff
350
41
  3
Facepattern
350
38
  3
Flat
350
2A
  3
FlatWithEdges
350
2B
  3
Gouraud
350
2C
  3
GouraudWithEdges
350
2D
  3
Hidden
350
31
  3
JitterOff
350
3F
  3
Linepattern
350
37
  3
OverhangOff
350
40
  3
Realistic
350
33
  3
Shaded
350
3E
  3
Shaded with edges
350
3D
  3
Shades of Gray
350
3A
  3
Sketchy
350
3B
  3
Thicken
350
36
  3
Wireframe
350
30
  3
X-Ray
350
3C
  0
XRECORD
  5
BC5
102
{ACAD_REACTORS
330
C
102
}
330
C
100
AcDbXrecord
280
     1
 90
        1
330
65
  0
DICTIONARY
  5
D7
102
{ACAD_REACTORS
330
C
102
}
330
C
100
AcDbDictionary
281
     1
  3
CANNOSCALE
350
DA
  3
CMLEADERSTYLE
350
D9
  3
CTABLESTYLE
350
D8
  3
DIMASSOC
350
BBF
  3
HIDETEXT
350
BBE
  3
INDEXCTL
350
BBD
  3
LAYEREVAL
350
BBA
  3
LAYERNOTIFY
350
BBB
  3
LIGHTINGUNITS
350
BB9
  3
MSLTSCALE
350
BB8
  3
SORTENTS
350
BBC
  3
XCLIPFRAME
350
BC0
  0
XRECORD
  5
BC6
102
{ACAD_REACTORS
330
C
102
}
330
C
100
AcDbXrecord
280
     1
  1
DWGPROPS COOKIE
  2

  3

  4
EC
  6

  7

  8

  9
-
300
Manager=
301
Company=
302
Category=
303
Part Number=NP2020C
304
Description=NPC PANEL MASTER VIEW
305
Project=
306
Designer=EC
307
Engineer=
308
Authority=
309
Cost Center=
 40
0.0000358101851852
 41
2455944.476710718
 42
2455944.476711088
  1

 90
       20
300
Vendor=
300
User Status=
300
Design Status=WorkInProgress
300
Checked by=JG
300
Date Checked=02/19/2009
300
Engr Approved by=
300
Mfg Approved by=
300
DWG. NO=
300
NUMBER OF SHEETS=1
300
DRAWING #=1
  0
XRECORD
  5
C03
102
{ACAD_REACTORS
330
C02
102
}
330
C02
100
AcDbXrecord
280
     1
 40
29624.0
  1
\A1;\U+22050.50{\PTYP.(4PL.)}
  0
XRECORD
  5
C05
102
{ACAD_REACTORS
330
C04
102
}
330
C04
100
AcDbXrecord
280
     1
 40
30807.0
  1
\A1;\U+22050.31{\PTYP. (4PL.)}
  0
LAYOUT
  5
6B
102
{ACAD_XDICTIONARY
360
BFC
102
}
102
{ACAD_REACTORS
330
62
102
}
330
62
100
AcDbPlotSettings
  1

  2

  4

  6

 40
0.0
 41
0.0
 42
0.0
 43
0.0
 44
0.0
 45
0.0
 46
0.0
 47
0.0
 48
0.0
 49
0.0
140
0.0
141
0.0
142
1.0
143
1.0
 70
   688
 72
     0
 73
     0
 74
     5
  7

 75
    16
147
1.0
148
0.0
149
0.0
100
AcDbLayout
  1
Layout1
 70
     1
 71
     1
 10
0.0
 20
0.0
 11
12.0
 21
9.0
 12
0.0
 22
0.0
 32
0.0
 14
0.0
 24
0.0
 34
0.0
 15
0.0
 25
0.0
 35
0.0
146
0.0
 13
0.0
 23
0.0
 33
0.0
 16
1.0
 26
0.0
 36
0.0
 17
0.0
 27
1.0
 37
0.0
 76
     0
330
68
  0
LAYOUT
  5
73
102
{ACAD_XDICTIONARY
360
C00
102
}
102
{ACAD_REACTORS
330
62
102
}
330
62
100
AcDbPlotSettings
  1

  2

  4

  6

 40
0.0
 41
0.0
 42
0.0
 43
0.0
 44
0.0
 45
0.0
 46
0.0
 47
0.0
 48
0.0
 49
0.0
140
0.0
141
0.0
142
1.0
143
1.0
 70
   688
 72
     0
 73
     0
 74
     5
  7

 75
    16
147
1.0
148
0.0
149
0.0
100
AcDbLayout
  1
Layout2
 70
     1
 71
     2
 10
0.0
 20
0.0
 11
12.0
 21
9.0
 12
0.0
 22
0.0
 32
0.0
 14
0.0
 24
0.0
 34
0.0
 15
0.0
 25
0.0
 35
0.0
146
0.0
 13
0.0
 23
0.0
 33
0.0
 16
1.0
 26
0.0
 36
0.0
 17
0.0
 27
1.0
 37
0.0
 76
     0
330
70
  0
LAYOUT
  5
6F
102
{ACAD_XDICTIONARY
360
BFE
102
}
102
{ACAD_REACTORS
330
62
102
}
330
62
100
AcDbPlotSettings
  1

  2

  4

  6

 40
0.0
 41
0.0
 42
0.0
 43
0.0
 44
0.0
 45
0.0
 46
0.0
 47
0.0
 48
0.0
 49
0.0
140
0.0
141
0.0
142
1.0
143
1.0
 70
  1712
 72
     0
 73
     0
 74
     0
  7

 75
     0
147
1.0
148
0.0
149
0.0
100
AcDbLayout
  1
Model
 70
     1
 71
     0
 10
0.0
 20
0.0
 11
12.0
 21
9.0
 12
0.0
 22
0.0
 32
0.0
 14
0.0
 24
0.0
 34
0.0
 15
0.0
 25
0.0
 35
0.0
146
0.0
 13
0.0
 23
0.0
 33
0.0
 16
1.0
 26
0.0
 36
0.0
 17
0.0
 27
1.0
 37
0.0
 76
     0
330
6C
  0
MATERIAL
  5
19
102
{ACAD_XDICTIONARY
360
1A
102
}
102
{ACAD_REACTORS
330
10
102
}
330
10
100
AcDbMaterial
  1
ByBlock
 72
     0
 43
0.0208333333333333
 43
0.0
 43
0.0
 43
0.0
 43
0.0
 43
0.0208333333333333
 43
0.0
 43
0.0
 43
0.0
 43
0.0
 43
1.0
 43
0.0
 43
0.0
 43
0.0
 43
0.0
 43
1.0
 77
     0
 47
0.0208333333333333
 47
0.0
 47
0.0
 47
0.0
 47
0.0
 47
0.0208333333333333
 47
0.0
 47
0.0
 47
0.0
 47
0.0
 47
1.0
 47
0.0
 47
0.0
 47
0.0
 47
0.0
 47
1.0
171
     0
 49
0.0208333333333333
 49
0.0
 49
0.0
 49
0.0
 49
0.0
 49
0.0208333333333333
 49
0.0
 49
0.0
 49
0.0
 49
0.0
 49
1.0
 49
0.0
 49
0.0
 49
0.0
 49
0.0
 49
1.0
175
     0
142
0.0208333333333333
142
0.0
142
0.0
142
0.0
142
0.0
142
0.0208333333333333
142
0.0
142
0.0
142
0.0
142
0.0
142
1.0
142
0.0
142
0.0
142
0.0
142
0.0
142
1.0
179
     0
144
0.0208333333333333
144
0.0
144
0.0
144
0.0
144
0.0
144
0.0208333333333333
144
0.0
144
0.0
144
0.0
144
0.0
144
1.0
144
0.0
144
0.0
144
0.0
144
0.0
144
1.0
147
0.0208333333333333
147
0.0
147
0.0
147
0.0
147
0.0
147
0.0208333333333333
147
0.0
147
0.0
147
0.0
147
0.0
147
1.0
147
0.0
147
0.0
147
0.0
147
0.0
147
1.0
  0
MATERIAL
  5
11
102
{ACAD_XDICTIONARY
360
12
102
}
102
{ACAD_REACTORS
330
10
102
}
330
10
100
AcDbMaterial
  1
ByLayer
 72
     0
 43
0.0208333333333333
 43
0.0
 43
0.0
 43
0.0
 43
0.0
 43
0.0208333333333333
 43
0.0
 43
0.0
 43
0.0
 43
0.0
 43
1.0
 43
0.0
 43
0.0
 43
0.0
 43
0.0
 43
1.0
 77
     0
 47
0.0208333333333333
 47
0.0
 47
0.0
 47
0.0
 47
0.0
 47
0.0208333333333333
 47
0.0
 47
0.0
 47
0.0
 47
0.0
 47
1.0
 47
0.0
 47
0.0
 47
0.0
 47
0.0
 47
1.0
171
     0
 49
0.0208333333333333
 49
0.0
 49
0.0
 49
0.0
 49
0.0
 49
0.0208333333333333
 49
0.0
 49
0.0
 49
0.0
 49
0.0
 49
1.0
 49
0.0
 49
0.0
 49
0.0
 49
0.0
 49
1.0
175
     0
142
0.0208333333333333
142
0.0
142
0.0
142
0.0
142
0.0
142
0.0208333333333333
142
0.0
142
0.0
142
0.0
142
0.0
142
1.0
142
0.0
142
0.0
142
0.0
142
0.0
142
1.0
179
     0
144
0.0208333333333333
144
0.0
144
0.0
144
0.0
144
0.0
144
0.0208333333333333
144
0.0
144
0.0
144
0.0
144
0.0
144
1.0
144
0.0
144
0.0
144
0.0
144
0.0
144
1.0
147
0.0208333333333333
147
0.0
147
0.0
147
0.0
147
0.0
147
0.0208333333333333
147
0.0
147
0.0
147
0.0
147
0.0
147
1.0
147
0.0
147
0.0
147
0.0
147
0.0
147
1.0
  0
MATERIAL
  5
21
102
{ACAD_XDICTIONARY
360
22
102
}
102
{ACAD_REACTORS
330
10
102
}
330
10
100
AcDbMaterial
  1
Global
 72
     0
 43
0.0208333333333333
 43
0.0
 43
0.0
 43
0.0
 43
0.0
 43
0.0208333333333333
 43
0.0
 43
0.0
 43
0.0
 43
0.0
 43
1.0
 43
0.0
 43
0.0
 43
0.0
 43
0.0
 43
1.0
 77
     0
 47
0.0208333333333333
 47
0.0
 47
0.0
 47
0.0
 47
0.0
 47
0.0208333333333333
 47
0.0
 47
0.0
 47
0.0
 47
0.0
 47
1.0
 47
0.0
 47
0.0
 47
0.0
 47
0.0
 47
1.0
171
     0
 49
0.0208333333333333
 49
0.0
 49
0.0
 49
0.0
 49
0.0
 49
0.0208333333333333
 49
0.0
 49
0.0
 49
0.0
 49
0.0
 49
1.0
 49
0.0
 49
0.0
 49
0.0
 49
0.0
 49
1.0
175
     0
142
0.0208333333333333
142
0.0
142
0.0
142
0.0
142
0.0
142
0.0208333333333333
142
0.0
142
0.0
142
0.0
142
0.0
142
1.0
142
0.0
142
0.0
142
0.0
142
0.0
142
1.0
179
     0
144
0.0208333333333333
144
0.0
144
0.0
144
0.0
144
0.0
144
0.0208333333333333
144
0.0
144
0.0
144
0.0
144
0.0
144
1.0
144
0.0
144
0.0
144
0.0
144
0.0
144
1.0
147
0.0208333333333333
147
0.0
147
0.0
147
0.0
147
0.0
147
0.0208333333333333
147
0.0
147
0.0
147
0.0
147
0.0
147
1.0
147
0.0
147
0.0
147
0.0
147
0.0
147
1.0
  0
MLEADERSTYLE
  5
67
102
{ACAD_XDICTIONARY
360
BC3
102
}
102
{ACAD_REACTORS
330
66
102
}
330
66
100
AcDbMLeaderStyle
170
     2
171
     1
172
     0
 90
        2
 40
0.0
 41
0.0
173
     1
 91
-1056964608
340
5B
 92
       -2
290
     1
 42
0.09
291
     1
 43
0.36
  3
Standard
 44
0.18
300

342
55
174
     1
178
     6
175
     1
176
     0
 93
-1056964608
 45
0.18
292
     0
297
     0
 46
0.18
 94
-1056964608
 47
1.0
 49
1.0
140
1.0
293
     1
141
0.0
294
     1
177
     0
142
1.0
295
     0
296
     0
143
0.125
1001
ACAD_MLEADERVER
1070
     2
  0
MLINESTYLE
  5
60
102
{ACAD_REACTORS
330
5F
102
}
330
5F
100
AcDbMlineStyle
  2
STANDARD
 70
     0
  3

 62
   256
 51
90.0
 52
90.0
 71
     2
 49
0.5
 62
   256
  6
BYLAYER
 49
-0.5
 62
   256
  6
BYLAYER
  0
ACDBPLACEHOLDER
  5
F
102
{ACAD_REACTORS
330
E
102
}
330
E
  0
SCALE
  5
43
102
{ACAD_REACTORS
330
42
102
}
330
42
100
AcDbScale
 70
     0
300
1:1
140
1.0
141
1.0
290
     1
  0
SCALE
  5
44
102
{ACAD_REACTORS
330
42
102
}
330
42
100
AcDbScale
 70
     0
300
1/128" = 1'-0"
140
0.0078125
141
12.0
290
     0
  0
SCALE
  5
45
102
{ACAD_REACTORS
330
42
102
}
330
42
100
AcDbScale
 70
     0
300
1/64" = 1'-0"
140
0.015625
141
12.0
290
     0
  0
SCALE
  5
46
102
{ACAD_REACTORS
330
42
102
}
330
42
100
AcDbScale
 70
     0
300
1/32" = 1'-0"
140
0.03125
141
12.0
290
     0
  0
SCALE
  5
47
102
{ACAD_REACTORS
330
42
102
}
330
42
100
AcDbScale
 70
     0
300
1/16" = 1'-0"
140
0.0625
141
12.0
290
     0
  0
SCALE
  5
48
102
{ACAD_REACTORS
330
42
102
}
330
42
100
AcDbScale
 70
     0
300
3/32" = 1'-0"
140
0.09375
141
12.0
290
     0
  0
SCALE
  5
49
102
{ACAD_REACTORS
330
42
102
}
330
42
100
AcDbScale
 70
     0
300
1/8" = 1'-0"
140
0.125
141
12.0
290
     0
  0
SCALE
  5
4A
102
{ACAD_REACTORS
330
42
102
}
330
42
100
AcDbScale
 70
     0
300
3/16" = 1'-0"
140
0.1875
141
12.0
290
     0
  0
SCALE
  5
4B
102
{ACAD_REACTORS
330
42
102
}
330
42
100
AcDbScale
 70
     0
300
1/4" = 1'-0"
140
0.25
141
12.0
290
     0
  0
SCALE
  5
4C
102
{ACAD_REACTORS
330
42
102
}
330
42
100
AcDbScale
 70
     0
300
3/8" = 1'-0"
140
0.375
141
12.0
290
     0
  0
SCALE
  5
4D
102
{ACAD_REACTORS
330
42
102
}
330
42
100
AcDbScale
 70
     0
300
1/2" = 1'-0"
140
0.5
141
12.0
290
     0
  0
SCALE
  5
4E
102
{ACAD_REACTORS
330
42
102
}
330
42
100
AcDbScale
 70
     0
300
3/4" = 1'-0"
140
0.75
141
12.0
290
     0
  0
SCALE
  5
4F
102
{ACAD_REACTORS
330
42
102
}
330
42
100
AcDbScale
 70
     0
300
1" = 1'-0"
140
1.0
141
12.0
290
     0
  0
SCALE
  5
50
102
{ACAD_REACTORS
330
42
102
}
330
42
100
AcDbScale
 70
     0
300
1-1/2" = 1'-0"
140
1.5
141
12.0
290
     0
  0
SCALE
  5
51
102
{ACAD_REACTORS
330
42
102
}
330
42
100
AcDbScale
 70
     0
300
3" = 1'-0"
140
3.0
141
12.0
290
     0
  0
SCALE
  5
52
102
{ACAD_REACTORS
330
42
102
}
330
42
100
AcDbScale
 70
     0
300
6" = 1'-0"
140
6.0
141
12.0
290
     0
  0
SCALE
  5
53
102
{ACAD_REACTORS
330
42
102
}
330
42
100
AcDbScale
 70
     0
300
1'-0" = 1'-0"
140
12.0
141
12.0
290
     0
  0
TABLESTYLE
  5
65
102
{ACAD_XDICTIONARY
360
BC1
102
}
102
{ACAD_REACTORS
330
64
102
}
330
64
100
AcDbTableStyle
  3
Standard
 70
     0
 71
     0
 40
0.06
 41
0.06
280
     0
281
     0
  7
Standard
140
0.18
170
     2
 62
     0
 63
     7
283
     0
274
    -2
284
     1
 64
     0
275
    -2
285
     1
 65
     0
276
    -2
286
     1
 66
     0
277
    -2
287
     1
 67
     0
278
    -2
288
     1
 68
     0
279
    -2
289
     1
 69
     0
  7
Standard
140
0.25
170
     5
 62
     0
 63
     7
283
     0
274
    -2
284
     1
 64
     0
275
    -2
285
     1
 65
     0
276
    -2
286
     1
 66
     0
277
    -2
287
     1
 67
     0
278
    -2
288
     1
 68
     0
279
    -2
289
     1
 69
     0
  7
Standard
140
0.18
170
     5
 62
     0
 63
     7
283
     0
274
    -2
284
     1
 64
     0
275
    -2
285
     1
 65
     0
276
    -2
286
     1
 66
     0
277
    -2
287
     1
 67
     0
278
    -2
288
     1
 68
     0
279
    -2
289
     1
 69
     0
  0
VISUALSTYLE
  5
2F
102
{ACAD_XDICTIONARY
360
BD4
102
}
102
{ACAD_REACTORS
330
29
102
}
330
29
100
AcDbVisualStyle
  2
2dWireframe
 70
     4
 71
     0
 72
     2
 73
     0
 90
        0
 40
-0.6
 41
-30.0
 62
     5
 63
     7
 74
     1
 91
        4
 64
     7
 65
   257
 75
     1
175
     1
 42
1.0
 92
        0
 66
   257
 43
1.0
 76
     1
 77
     6
 78
     2
 67
     7
 79
     5
170
     0
171
     0
290
     0
174
     0
 93
        1
 44
0.0
173
     0
291
     0
 45
0.0
1001
ACAD
1000
AcDbSavedByObjectVersion
1070
     0
  0
VISUALSTYLE
  5
2E
102
{ACAD_XDICTIONARY
360
BD2
102
}
102
{ACAD_REACTORS
330
29
102
}
330
29
100
AcDbVisualStyle
  2
Basic
 70
     7
 71
     1
 72
     0
 73
     1
 90
        0
 40
-0.6
 41
-30.0
 62
     5
 63
     7
 74
     0
 91
        4
 64
     7
 65
   257
 75
     1
175
     1
 42
1.0
 92
        8
 66
     7
 43
1.0
 76
     1
 77
     6
 78
     2
 67
     7
 79
     5
170
     0
171
     0
290
     0
174
     0
 93
        1
 44
0.0
173
     0
291
     1
 45
0.0
1001
ACAD
1000
AcDbSavedByObjectVersion
1070
     0
  0
VISUALSTYLE
  5
35
102
{ACAD_XDICTIONARY
360
BE0
102
}
102
{ACAD_REACTORS
330
29
102
}
330
29
100
AcDbVisualStyle
  2
Brighten
 70
    12
 71
     2
 72
     2
 73
     0
 90
        0
 40
-0.6
 41
-30.0
 62
     5
 63
     7
 74
     1
 91
        4
 64
     7
 65
   257
 75
     1
175
     1
 42
1.0
 92
        8
 66
     7
 43
1.0
 76
     1
 77
     6
 78
     2
 67
     7
 79
     5
170
     0
171
     0
290
     0
174
     0
 93
        1
 44
50.0
173
     0
291
     1
 45
0.0
1001
ACAD
1000
AcDbSavedByObjectVersion
1070
     0
  0
VISUALSTYLE
  5
39
102
{ACAD_XDICTIONARY
360
BE8
102
}
102
{ACAD_REACTORS
330
29
102
}
330
29
100
AcDbVisualStyle
  2
ColorChange
 70
    16
 71
     2
 72
     2
 73
     3
 90
        0
 40
-0.6
 41
-30.0
 62
     5
 63
     8
 74
     1
 91
        4
 64
     7
 65
   257
 75
     1
175
     1
 42
1.0
 92
        8
 66
     8
 43
1.0
 76
     1
 77
     6
 78
     2
 67
     7
 79
     5
170
     0
171
     0
290
     0
174
     0
 93
        1
 44
0.0
173
     0
291
     1
 45
0.0
1001
ACAD
1000
AcDbSavedByObjectVersion
1070
     0
  0
VISUALSTYLE
  5
32
102
{ACAD_XDICTIONARY
360
BDA
102
}
102
{ACAD_REACTORS
330
29
102
}
330
29
100
AcDbVisualStyle
  2
Conceptual
 70
     9
 71
     3
 72
     2
 73
     0
 90
        0
 40
-0.6
 41
-30.0
 62
     5
 63
     7
 74
     2
 91
        2
 64
     7
 65
   257
 75
     1
175
     1
 42
179.0
 92
        8
 66
     7
 43
1.0
 76
     1
 77
     6
 78
     2
 67
     7
 79
     3
170
     0
171
     0
290
     0
174
     0
 93
        1
 44
0.0
173
     0
291
     0
 45
0.0
1001
ACAD
1000
AcDbSavedByObjectVersion
1070
     0
  0
VISUALSTYLE
  5
34
102
{ACAD_XDICTIONARY
360
BDE
102
}
102
{ACAD_REACTORS
330
29
102
}
330
29
100
AcDbVisualStyle
  2
Dim
 70
    11
 71
     2
 72
     2
 73
     0
 90
        0
 40
-0.6
 41
-30.0
 62
     5
 63
     7
 74
     1
 91
        4
 64
     7
 65
   257
 75
     1
175
     1
 42
1.0
 92
        8
 66
     7
 43
1.0
 76
     1
 77
     6
 78
     2
 67
     7
 79
     5
170
     0
171
     0
290
     0
174
     0
 93
        1
 44
-50.0
173
     0
291
     1
 45
0.0
1001
ACAD
1000
AcDbSavedByObjectVersion
1070
     0
  0
VISUALSTYLE
  5
41
102
{ACAD_XDICTIONARY
360
BF8
102
}
102
{ACAD_REACTORS
330
29
102
}
330
29
100
AcDbVisualStyle
  2
EdgeColorOff
 70
    22
 71
     2
 72
     2
 73
     0
 90
        0
 40
-0.6
 41
-30.0
 62
     5
 63
     7
 74
     1
 91
        4
 64
     7
 65
   257
 75
     1
175
     1
 42
1.0
 92
        8
 66
     7
 43
1.0
 76
     1
 77
     6
 78
     2
 67
     7
 79
     5
170
     0
171
     0
290
     0
174
     0
 93
        1
 44
0.0
173
     0
291
     1
 45
0.0
1001
ACAD
1000
AcDbSavedByObjectVersion
1070
     0
  0
VISUALSTYLE
  5
38
102
{ACAD_XDICTIONARY
360
BE6
102
}
102
{ACAD_REACTORS
330
29
102
}
330
29
100
AcDbVisualStyle
  2
Facepattern
 70
    15
 71
     2
 72
     2
 73
     0
 90
        0
 40
-0.6
 41
-30.0
 62
     5
 63
     7
 74
     1
 91
        4
 64
     7
 65
   257
 75
     1
175
     1
 42
1.0
 92
        8
 66
     7
 43
1.0
 76
     1
 77
     6
 78
     2
 67
     7
 79
     5
170
     0
171
     0
290
     0
174
     0
 93
        1
 44
0.0
173
     0
291
     1
 45
0.0
1001
ACAD
1000
AcDbSavedByObjectVersion
1070
     0
  0
VISUALSTYLE
  5
2A
102
{ACAD_XDICTIONARY
360
BCA
102
}
102
{ACAD_REACTORS
330
29
102
}
330
29
100
AcDbVisualStyle
  2
Flat
 70
     0
 71
     2
 72
     1
 73
     1
 90
        2
 40
-0.6
 41
30.0
 62
     5
 63
     7
 74
     0
 91
        0
 64
     7
 65
   257
 75
     1
175
     1
 42
1.0
 92
        8
 66
     7
 43
1.0
 76
     1
 77
     6
 78
     2
 67
     7
 79
     5
170
     0
171
     0
290
     0
174
     0
 93
       13
 44
0.0
173
     0
291
     1
 45
0.0
1001
ACAD
1000
AcDbSavedByObjectVersion
1070
     0
  0
VISUALSTYLE
  5
2B
102
{ACAD_XDICTIONARY
360
BCC
102
}
102
{ACAD_REACTORS
330
29
102
}
330
29
100
AcDbVisualStyle
  2
FlatWithEdges
 70
     1
 71
     2
 72
     1
 73
     1
 90
        2
 40
-0.6
 41
30.0
 62
     5
 63
     7
 74
     1
 91
        0
 64
     7
 65
   257
 75
     1
175
     1
 42
1.0
 92
        0
 66
   257
 43
1.0
 76
     1
 77
     6
 78
     2
 67
     7
 79
     5
170
     0
171
     0
290
     0
174
     0
 93
       13
 44
0.0
173
     0
291
     1
 45
0.0
1001
ACAD
1000
AcDbSavedByObjectVersion
1070
     0
  0
VISUALSTYLE
  5
2C
102
{ACAD_XDICTIONARY
360
BCE
102
}
102
{ACAD_REACTORS
330
29
102
}
330
29
100
AcDbVisualStyle
  2
Gouraud
 70
     2
 71
     2
 72
     2
 73
     1
 90
        2
 40
-0.6
 41
30.0
 62
     5
 63
     7
 74
     0
 91
        0
 64
     7
 65
   257
 75
     1
175
     1
 42
1.0
 92
        0
 66
     7
 43
1.0
 76
     1
 77
     6
 78
     2
 67
     7
 79
     5
170
     0
171
     0
290
     0
174
     0
 93
       13
 44
0.0
173
     0
291
     1
 45
0.0
1001
ACAD
1000
AcDbSavedByObjectVersion
1070
     0
  0
VISUALSTYLE
  5
2D
102
{ACAD_XDICTIONARY
360
BD0
102
}
102
{ACAD_REACTORS
330
29
102
}
330
29
100
AcDbVisualStyle
  2
GouraudWithEdges
 70
     3
 71
     2
 72
     2
 73
     1
 90
        2
 40
-0.6
 41
30.0
 62
     5
 63
     7
 74
     1
 91
        0
 64
     7
 65
   257
 75
     1
175
     1
 42
1.0
 92
        0
 66
   257
 43
1.0
 76
     1
 77
     6
 78
     2
 67
     7
 79
     5
170
     0
171
     0
290
     0
174
     0
 93
       13
 44
0.0
173
     0
291
     1
 45
0.0
1001
ACAD
1000
AcDbSavedByObjectVersion
1070
     0
  0
VISUALSTYLE
  5
31
102
{ACAD_XDICTIONARY
360
BD8
102
}
102
{ACAD_REACTORS
330
29
102
}
330
29
100
AcDbVisualStyle
  2
Hidden
 70
     6
 71
     1
 72
     2
 73
     2
 90
        0
 40
-0.6
 41
-30.0
 62
     5
 63
     7
 74
     2
 91
        2
 64
     7
 65
   257
 75
     2
175
     1
 42
40.0
 92
        0
 66
   257
 43
1.0
 76
     1
 77
     6
 78
     2
 67
     7
 79
     3
170
     0
171
     0
290
     0
174
     0
 93
        1
 44
0.0
173
     0
291
     0
 45
0.0
1001
ACAD
1000
AcDbSavedByObjectVersion
1070
     0
  0
VISUALSTYLE
  5
3F
102
{ACAD_XDICTIONARY
360
BF4
102
}
102
{ACAD_REACTORS
330
29
102
}
330
29
100
AcDbVisualStyle
  2
JitterOff
 70
    20
 71
     2
 72
     2
 73
     0
 90
        0
 40
-0.6
 41
-30.0
 62
     5
 63
     7
 74
     1
 91
        4
 64
     7
 65
   257
 75
     1
175
     1
 42
1.0
 92
       10
 66
     7
 43
1.0
 76
     1
 77
     6
 78
     2
 67
     7
 79
     5
170
     0
171
     0
290
     0
174
     0
 93
        1
 44
0.0
173
     0
291
     1
 45
0.0
1001
ACAD
1000
AcDbSavedByObjectVersion
1070
     0
  0
VISUALSTYLE
  5
37
102
{ACAD_XDICTIONARY
360
BE4
102
}
102
{ACAD_REACTORS
330
29
102
}
330
29
100
AcDbVisualStyle
  2
Linepattern
 70
    14
 71
     2
 72
     2
 73
     0
 90
        0
 40
-0.6
 41
-30.0
 62
     5
 63
     7
 74
     1
 91
        4
 64
     7
 65
   257
 75
     7
175
     7
 42
1.0
 92
        8
 66
     7
 43
1.0
 76
     1
 77
     6
 78
     2
 67
     7
 79
     5
170
     0
171
     0
290
     0
174
     0
 93
        1
 44
0.0
173
     0
291
     1
 45
0.0
1001
ACAD
1000
AcDbSavedByObjectVersion
1070
     0
  0
VISUALSTYLE
  5
40
102
{ACAD_XDICTIONARY
360
BF6
102
}
102
{ACAD_REACTORS
330
29
102
}
330
29
100
AcDbVisualStyle
  2
OverhangOff
 70
    21
 71
     2
 72
     2
 73
     0
 90
        0
 40
-0.6
 41
-30.0
 62
     5
 63
     7
 74
     1
 91
        4
 64
     7
 65
   257
 75
     1
175
     1
 42
1.0
 92
        9
 66
     7
 43
1.0
 76
     1
 77
     6
 78
     2
 67
     7
 79
     5
170
     0
171
     0
290
     0
174
     0
 93
        1
 44
0.0
173
     0
291
     1
 45
0.0
1001
ACAD
1000
AcDbSavedByObjectVersion
1070
     0
  0
VISUALSTYLE
  5
33
102
{ACAD_XDICTIONARY
360
BDC
102
}
102
{ACAD_REACTORS
330
29
102
}
330
29
100
AcDbVisualStyle
  2
Realistic
 70
     8
 71
     2
 72
     3
 73
     0
 90
        2
 40
-0.6
 41
30.0
 62
     5
 63
     7
 74
     0
 91
        0
 64
     7
 65
   257
 75
     1
175
     1
 42
1.0
 92
        8
 66
   257
 43
1.0
 76
     1
 77
     6
 78
     2
 67
     7
 79
     3
170
     0
171
     0
290
     0
174
     0
 93
       13
 44
0.0
173
     0
291
     0
 45
0.0
1001
ACAD
1000
AcDbSavedByObjectVersion
1070
     0
  0
VISUALSTYLE
  5
3E
102
{ACAD_XDICTIONARY
360
BF2
102
}
102
{ACAD_REACTORS
330
29
102
}
330
29
100
AcDbVisualStyle
  2
Shaded
 70
    27
 71
     2
 72
     2
 73
     1
 90
        2
 40
-0.6
 41
30.0
 62
     5
 63
     7
 74
     0
 91
        4
 64
     7
 65
   257
 75
     1
175
     1
 42
1.0
 92
        8
 66
   257
 43
1.0
 76
     1
 77
     6
 78
     2
 67
     8
 79
     3
170
     0
171
     0
290
     0
174
     0
 93
        5
 44
0.0
173
     0
291
     0
 45
0.0
1001
ACAD
1000
AcDbSavedByObjectVersion
1070
     0
  0
VISUALSTYLE
  5
3D
102
{ACAD_XDICTIONARY
360
BF0
102
}
102
{ACAD_REACTORS
330
29
102
}
330
29
100
AcDbVisualStyle
  2
Shaded with edges
 70
    26
 71
     2
 72
     2
 73
     1
 90
        2
 40
-0.6
 41
30.0
 62
     5
 63
     7
 74
     1
 91
       10
 64
     7
 65
   257
 75
     2
175
     1
 42
1.0
 92
        8
 66
   257
 43
1.0
 76
     1
 77
     6
 78
     2
 67
     7
 79
     3
170
     0
171
     0
290
     0
174
     0
 93
        5
 44
0.0
173
     0
291
     0
 45
0.0
1001
ACAD
1000
AcDbSavedByObjectVersion
1070
     0
  0
VISUALSTYLE
  5
3A
102
{ACAD_XDICTIONARY
360
BEA
102
}
102
{ACAD_REACTORS
330
29
102
}
330
29
100
AcDbVisualStyle
  2
Shades of Gray
 70
    23
 71
     2
 72
     2
 73
     3
 90
        0
 40
-0.6
 41
-30.0
 62
     5
 63
     7
 74
     2
 91
        2
 64
     7
 65
     7
 75
     1
175
     1
 42
40.0
 92
        8
 66
     7
 43
1.0
 76
     1
 77
     6
 78
     2
 67
     7
 79
     3
170
     0
171
     0
290
     0
174
     0
 93
        1
 44
0.0
173
     0
291
     0
 45
0.0
1001
ACAD
1000
AcDbSavedByObjectVersion
1070
     0
  0
VISUALSTYLE
  5
3B
102
{ACAD_XDICTIONARY
360
BEC
102
}
102
{ACAD_REACTORS
330
29
102
}
330
29
100
AcDbVisualStyle
  2
Sketchy
 70
    24
 71
     1
 72
     2
 73
     2
 90
        0
 40
-0.6
 41
-30.0
 62
     5
 63
     7
 74
     2
 91
        2
 64
     7
 65
     7
 75
     1
175
     1
 42
40.0
 92
       11
 66
     7
 43
1.0
 76
     1
 77
     6
 78
     2
 67
     7
 79
     6
170
     0
171
     0
290
     0
174
     0
 93
        1
 44
0.0
173
     0
291
     0
 45
0.0
1001
ACAD
1000
AcDbSavedByObjectVersion
1070
     0
  0
VISUALSTYLE
  5
36
102
{ACAD_XDICTIONARY
360
BE2
102
}
102
{ACAD_REACTORS
330
29
102
}
330
29
100
AcDbVisualStyle
  2
Thicken
 70
    13
 71
     2
 72
     2
 73
     0
 90
        0
 40
-0.6
 41
-30.0
 62
     5
 63
     7
 74
     1
 91
        4
 64
     7
 65
   257
 75
     1
175
     1
 42
1.0
 92
       12
 66
     7
 43
1.0
 76
     1
 77
     6
 78
     2
 67
     7
 79
     5
170
     0
171
     0
290
     0
174
     0
 93
        1
 44
0.0
173
     0
291
     1
 45
0.0
1001
ACAD
1000
AcDbSavedByObjectVersion
1070
     0
  0
VISUALSTYLE
  5
30
102
{ACAD_XDICTIONARY
360
BD6
102
}
102
{ACAD_REACTORS
330
29
102
}
330
29
100
AcDbVisualStyle
  2
Wireframe
 70
     5
 71
     0
 72
     2
 73
     0
 90
        0
 40
-0.6
 41
-30.0
 62
     5
 63
     7
 74
     1
 91
        4
 64
     7
 65
   257
 75
     1
175
     1
 42
1.0
 92
        0
 66
   257
 43
1.0
 76
     1
 77
     6
 78
     2
 67
     7
 79
     3
170
     0
171
     0
290
     0
174
     0
 93
        1
 44
0.0
173
     0
291
     0
 45
0.0
1001
ACAD
1000
AcDbSavedByObjectVersion
1070
     0
  0
VISUALSTYLE
  5
3C
102
{ACAD_XDICTIONARY
360
BEE
102
}
102
{ACAD_REACTORS
330
29
102
}
330
29
100
AcDbVisualStyle
  2
X-Ray
 70
    25
 71
     2
 72
     2
 73
     1
 90
        1
 40
0.5
 41
-30.0
 62
     5
 63
     7
 74
     1
 91
        0
 64
     7
 65
   257
 75
     1
175
     1
 42
1.0
 92
        8
 66
     7
 43
1.0
 76
     1
 77
     6
 78
     2
 67
     7
 79
     3
170
     0
171
     0
290
     0
174
     0
 93
       13
 44
0.0
173
     0
291
     0
 45
0.0
1001
ACAD
1000
AcDbSavedByObjectVersion
1070
     0
  0
DICTIONARYVAR
  5
DA
102
{ACAD_REACTORS
330
D7
102
}
330
D7
100
DictionaryVariables
280
     0
  1
1:1
  0
DICTIONARYVAR
  5
D9
102
{ACAD_REACTORS
330
D7
102
}
330
D7
100
DictionaryVariables
280
     0
  1
STANDARD
  0
DICTIONARYVAR
  5
D8
102
{ACAD_REACTORS
330
D7
102
}
330
D7
100
DictionaryVariables
280
     0
  1
STANDARD
  0
DICTIONARYVAR
  5
BBF
102
{ACAD_REACTORS
330
D7
102
}
330
D7
100
DictionaryVariables
280
     0
  1
1
  0
DICTIONARYVAR
  5
BBE
102
{ACAD_REACTORS
330
D7
102
}
330
D7
100
DictionaryVariables
280
     0
  1
1
  0
DICTIONARYVAR
  5
BBD
102
{ACAD_REACTORS
330
D7
102
}
330
D7
100
DictionaryVariables
280
     0
  1
0
  0
DICTIONARYVAR
  5
BBA
102
{ACAD_REACTORS
330
D7
102
}
330
D7
100
DictionaryVariables
280
     0
  1
0
  0
DICTIONARYVAR
  5
BBB
102
{ACAD_REACTORS
330
D7
102
}
330
D7
100
DictionaryVariables
280
     0
  1
0
  0
DICTIONARYVAR
  5
BB9
102
{ACAD_REACTORS
330
D7
102
}
330
D7
100
DictionaryVariables
280
     0
  1
2
  0
DICTIONARYVAR
  5
BB8
102
{ACAD_REACTORS
330
D7
102
}
330
D7
100
DictionaryVariables
280
     0
  1
1
  0
DICTIONARYVAR
  5
BBC
102
{ACAD_REACTORS
330
D7
102
}
330
D7
100
DictionaryVariables
280
     0
  1
127
  0
DICTIONARYVAR
  5
BC0
102
{ACAD_REACTORS
330
D7
102
}
330
D7
100
DictionaryVariables
280
     0
  1
2
  0
DICTIONARY
  5
BFC
330
6B
100
AcDbDictionary
280
     1
281
     1
  3
ACAD_XREC_ROUNDTRIP
360
BFD
  0
DICTIONARY
  5
C00
330
73
100
AcDbDictionary
280
     1
281
     1
  3
ACAD_XREC_ROUNDTRIP
360
C01
  0
DICTIONARY
  5
BFE
330
6F
100
AcDbDictionary
280
     1
281
     1
  3
ACAD_XREC_ROUNDTRIP
360
BFF
  0
DICTIONARY
  5
1A
330
19
100
AcDbDictionary
280
     1
281
     1
  3
ACAD_XREC_ROUNDTRIP
360
BC8
  3
BUMPTILE
360
1C
  3
DIFFUSETILE
360
1B
  3
OPACITYTILE
360
1F
  3
REFLECTIONTILE
360
1E
  3
REFRACTIONTILE
360
20
  3
SPECULARTILE
360
1D
  0
DICTIONARY
  5
12
330
11
100
AcDbDictionary
280
     1
281
     1
  3
ACAD_XREC_ROUNDTRIP
360
BC7
  3
BUMPTILE
360
14
  3
DIFFUSETILE
360
13
  3
FBXASSET
360
170
  3
OPACITYTILE
360
17
  3
REFLECTIONTILE
360
16
  3
REFRACTIONTILE
360
18
  3
SPECULARTILE
360
15
  0
DICTIONARY
  5
22
330
21
100
AcDbDictionary
280
     1
281
     1
  3
ACAD_XREC_ROUNDTRIP
360
BC9
  3
BUMPTILE
360
24
  3
DIFFUSETILE
360
23
  3
FBXASSET
360
11B
  3
OPACITYTILE
360
27
  3
REFLECTIONTILE
360
26
  3
REFRACTIONTILE
360
28
  3
SPECULARTILE
360
25
  0
DICTIONARY
  5
BC3
330
67
100
AcDbDictionary
280
     1
281
     1
  3
ACAD_XREC_ROUNDTRIP
360
BC4
  0
DICTIONARY
  5
BC1
330
65
100
AcDbDictionary
280
     1
281
     1
  3
ACAD_ROUNDTRIP_2008_TABLESTYLE_CELLSTYLEMAP
360
BC2
  3
ACAD_XREC_ROUNDTRIP
360
BFA
  0
DICTIONARY
  5
BD4
330
2F
100
AcDbDictionary
280
     1
281
     1
  3
ACAD_XREC_ROUNDTRIP
360
BD5
  0
DICTIONARY
  5
BD2
330
2E
100
AcDbDictionary
280
     1
281
     1
  3
ACAD_XREC_ROUNDTRIP
360
BD3
  0
DICTIONARY
  5
BE0
330
35
100
AcDbDictionary
280
     1
281
     1
  3
ACAD_XREC_ROUNDTRIP
360
BE1
  0
DICTIONARY
  5
BE8
330
39
100
AcDbDictionary
280
     1
281
     1
  3
ACAD_XREC_ROUNDTRIP
360
BE9
  0
DICTIONARY
  5
BDA
330
32
100
AcDbDictionary
280
     1
281
     1
  3
ACAD_XREC_ROUNDTRIP
360
BDB
  0
DICTIONARY
  5
BDE
330
34
100
AcDbDictionary
280
     1
281
     1
  3
ACAD_XREC_ROUNDTRIP
360
BDF
  0
DICTIONARY
  5
BF8
330
41
100
AcDbDictionary
280
     1
281
     1
  3
ACAD_XREC_ROUNDTRIP
360
BF9
  0
DICTIONARY
  5
BE6
330
38
100
AcDbDictionary
280
     1
281
     1
  3
ACAD_XREC_ROUNDTRIP
360
BE7
  0
DICTIONARY
  5
BCA
330
2A
100
AcDbDictionary
280
     1
281
     1
  3
ACAD_XREC_ROUNDTRIP
360
BCB
  0
DICTIONARY
  5
BCC
330
2B
100
AcDbDictionary
280
     1
281
     1
  3
ACAD_XREC_ROUNDTRIP
360
BCD
  0
DICTIONARY
  5
BCE
330
2C
100
AcDbDictionary
280
     1
281
     1
  3
ACAD_XREC_ROUNDTRIP
360
BCF
  0
DICTIONARY
  5
BD0
330
2D
100
AcDbDictionary
280
     1
281
     1
  3
ACAD_XREC_ROUNDTRIP
360
BD1
  0
DICTIONARY
  5
BD8
330
31
100
AcDbDictionary
280
     1
281
     1
  3
ACAD_XREC_ROUNDTRIP
360
BD9
  0
DICTIONARY
  5
BF4
330
3F
100
AcDbDictionary
280
     1
281
     1
  3
ACAD_XREC_ROUNDTRIP
360
BF5
  0
DICTIONARY
  5
BE4
330
37
100
AcDbDictionary
280
     1
281
     1
  3
ACAD_XREC_ROUNDTRIP
360
BE5
  0
DICTIONARY
  5
BF6
330
40
100
AcDbDictionary
280
     1
281
     1
  3
ACAD_XREC_ROUNDTRIP
360
BF7
  0
DICTIONARY
  5
BDC
330
33
100
AcDbDictionary
280
     1
281
     1
  3
ACAD_XREC_ROUNDTRIP
360
BDD
  0
DICTIONARY
  5
BF2
330
3E
100
AcDbDictionary
280
     1
281
     1
  3
ACAD_XREC_ROUNDTRIP
360
BF3
  0
DICTIONARY
  5
BF0
330
3D
100
AcDbDictionary
280
     1
281
     1
  3
ACAD_XREC_ROUNDTRIP
360
BF1
  0
DICTIONARY
  5
BEA
330
3A
100
AcDbDictionary
280
     1
281
     1
  3
ACAD_XREC_ROUNDTRIP
360
BEB
  0
DICTIONARY
  5
BEC
330
3B
100
AcDbDictionary
280
     1
281
     1
  3
ACAD_XREC_ROUNDTRIP
360
BED
  0
DICTIONARY
  5
BE2
330
36
100
AcDbDictionary
280
     1
281
     1
  3
ACAD_XREC_ROUNDTRIP
360
BE3
  0
DICTIONARY
  5
BD6
330
30
100
AcDbDictionary
280
     1
281
     1
  3
ACAD_XREC_ROUNDTRIP
360
BD7
  0
DICTIONARY
  5
BEE
330
3C
100
AcDbDictionary
280
     1
281
     1
  3
ACAD_XREC_ROUNDTRIP
360
BEF
  0
XRECORD
  5
BFD
102
{ACAD_REACTORS
330
BFC
102
}
330
BFC
100
AcDbXrecord
280
     1
102
SHADEPLOT
 70
     0
102
SHADEPLOTRESLEVEL
 70
     2
102
SHADEPLOTCUSTOMDPI
 70
   300
  0
XRECORD
  5
C01
102
{ACAD_REACTORS
330
C00
102
}
330
C00
100
AcDbXrecord
280
     1
102
SHADEPLOT
 70
     0
102
SHADEPLOTRESLEVEL
 70
     2
102
SHADEPLOTCUSTOMDPI
 70
   300
  0
XRECORD
  5
BFF
102
{ACAD_REACTORS
330
BFE
102
}
330
BFE
100
AcDbXrecord
280
     1
102
SHADEPLOT
 70
     0
102
SHADEPLOTRESLEVEL
 70
     2
102
SHADEPLOTCUSTOMDPI
 70
   300
  0
XRECORD
  5
BC8
102
{ACAD_REACTORS
330
1A
102
}
330
1A
100
AcDbXrecord
280
     1
102
MATERIAL
148
0.0
149
0.0
149
0.0
 93
        0
 94
      127
282
     0
 72
     0
 77
     0
171
     0
175
     0
179
     0
273
     0
  0
XRECORD
  5
1C
102
{ACAD_REACTORS
330
1A
102
}
330
1A
100
AcDbXrecord
280
     1
270
     1
271
     1
  0
XRECORD
  5
1B
102
{ACAD_REACTORS
330
1A
102
}
330
1A
100
AcDbXrecord
280
     1
270
     1
271
     1
  0
XRECORD
  5
1F
102
{ACAD_REACTORS
330
1A
102
}
330
1A
100
AcDbXrecord
280
     1
270
     1
271
     1
  0
XRECORD
  5
1E
102
{ACAD_REACTORS
330
1A
102
}
330
1A
100
AcDbXrecord
280
     1
270
     1
271
     1
  0
XRECORD
  5
20
102
{ACAD_REACTORS
330
1A
102
}
330
1A
100
AcDbXrecord
280
     1
270
     1
271
     1
  0
XRECORD
  5
1D
102
{ACAD_REACTORS
330
1A
102
}
330
1A
100
AcDbXrecord
280
     1
270
     1
271
     1
  0
XRECORD
  5
BC7
102
{ACAD_REACTORS
330
12
102
}
330
12
100
AcDbXrecord
280
     1
102
MATERIAL
148
0.0
149
0.0
149
0.0
 93
        0
 94
      127
282
     0
 72
     0
 77
     0
171
     0
175
     0
179
     0
273
     0
  0
XRECORD
  5
14
102
{ACAD_REACTORS
330
12
102
}
330
12
100
AcDbXrecord
280
     1
270
     1
271
     1
  0
XRECORD
  5
13
102
{ACAD_REACTORS
330
12
102
}
330
12
100
AcDbXrecord
280
     1
270
     1
271
     1
  0
XRECORD
  5
170
102
{ACAD_REACTORS
330
12
102
}
330
12
100
AcDbXrecord
280
     1
 70
     1
 90
1959938040
 71
     1
  1
A7AAD931-0AEF-4098-A7A5-9932D4D4AEA2
311
504B03040A00000800004F5B31403DEE336E79000000790000001B0000006175746F6465736B2D64657369676E2D7061636B6167652E786D6C3C3F786D6C2076657273696F6E3D22312E302220656E636F64696E673D227574662D3822203F3E3C666F726D6174733E3C666F726D61743E687474703A2F2F736368656D612E
311
6175746F6465736B2E636F6D2F64657369676E2D7061636B6167652F323030393C2F666F726D61743E3C2F666F726D6174733E504B03041400060808004F5B3140D486FD9CA0000000F4000000130000005B436F6E74656E745F54797065735D2E786D6C7D8EC10E82300C865F65E91D8A1E8C310C0EEA1BF002731658846E
311
D98AC1B77784ABF1D8FE5FBFBF75BBCE937A534CCEB38643598122B6FEE978D0B0485F9C41B54DDD7D022595594E1A469170414C76A4D9A4D207E29CF43ECE46F218070CC6BECC4078ACAA135ACF422C856C0E68EA1BF5669944DDD7BCDE7B1F8E415D77AECB980613C2E4AC91FC167A2B244592486606FC29C8FD7F045B9A
311
EF7053A7E60B504B03041400060808004F5B3140BE3DAF8EEA0000007C01000008000000636F72652E786D6C8D90D16E83300C457F25F27B200EA32B28A4DAA8F882FD40145216B5248824D33E7FA1A5D2F6B6275BD7F7D8D615A7EFF946BECC1AAC771D60C18018A7FD68DDD4418A177A04729262F53EFEB201716A361D6C
311
324831AD3E2DBBA4BD8BC6C5AC3A3F9A5D5421980844DF72D341D09F6656854A313BC2B55894BEAAC914F8EC329C921DC9E3881DF33E7BB1660539E0F0563738D09E57037D69FA77DA34EC4CEB0AFBBE3E361CCFBD2837588A68E7E77DBD1A15CD089233E49421C5D70FC4961FDA8A5176681913E566FF03A565FC2794AC8B
311
15DFDF7D600124E647EE0329CA2D8B5CEE41E5BAE5267F00504B03041400060808004F5B314055019EA25F0000007C00000007000000636E782E786D6C4DCB3B0E80201045D1AD90E915ED2CF8AC45050C11660C8261F98AB1B07AC9C97D42D718D865D3E909258CFD00CCE24AC6E326A164D74DC0B4128928FF326038472B
311
A13128B1252AC747C6BAB984FC68F0B87FE8960A5C09FE86CFB69FBA01504B03041400060808004F5B3140B05F624F66010000020300000C0000006662782F636F72652E786D6C8D52ED8E8320107C15C27F04ECC7D586D2DCD9F804F70254A947AAD020983EFEADD5C6EBA5691A1324333BBBB3A3627F6D1BD46BDF196777
311
98270C236D4B57195BEF700C27B2C1682F85772EFC29C3C8AA56EFF00063296AEFE265824A6783B60150EB2A3D81AAEB74C0A86CE0B2C35DF9A35B95A818A0A23B2717559E55AD139E000D755274C18301340E194E2C4FC7ABA0232E458CA69A5853C1347332DA6359F0E27395F182E4E9A220CB2CFF2259C60E64B5E079BE
311
DA64293FE4820E62298269EFEE4AAF55D0159629E329619CF08F6FCEB7E97ABB6084ADB78C093A943F88E2A57A53148D0D8B74B23BCA3A2C3918B911FFB6858802EA540F7EA8147408115EB7841F83864020E4A08ECD7D8F3340BD2E83F34B602A1767AA574DD43095A1DB23E8C842E75B03D8EC699FF4459FD73DE0032A5B
311
833515E07A8C61982EC6A9531417ED491FAEC83ADFAA6636375A9CCF79D05379E91AE7DF51D369553A854987BF57FE02504B03041400060808004F5B3140BC70CE017E0000009D0000000B0000006662782F636E782E786D6C4DCCD10E82201886E15B61FF394982E601E0C0E83E5CA263213482D6E5A7CD838EBEEDD9B797
311
F79FD5A3B74D2F178380F38900B2E11E2717160125CFB803D44B9E62CC7F3740615CAD809D41F225C5F23C68B2F3587CDED4BBF03890B664E874A3F0C5288699196E586BDAE09AB68629666A4DAE50495EFD4ADBEE61F905504B03041400060808004F5B314046A2D1052B01000013020000310000006662782F3336304338
311
4235412D374541342D344543462D424233352D3233364534413445324230442F636F72652E786D6C8D514B6EC32014BC8AC52A5D6003769C8F30519CBA27E80508901425068B4F95E3176A476A77D9F0D0BC9979038F1E1EE3BDF856CE6B6B3A804B040A658495DA5C3B10C3056E417160D4591BFED04061F8A83A9061C0E8
311
D5D9382D90B0262813126AAC540BC8BD570114E29E2E1DF0E24B8DBCE4312486BF951317377E55252E533BF118F5C1A500C53C249F80D52D3A6DFBF5116E8663039BE1F401FBBE5E4352B743736C06D2A3775ACD424663D472916B99E2E88B56EE55932C6634E8F1195F38C58392801184094418E2CD27C67BD2EE6B0451BB
311
47885699FE4F1427F9A2286A136AB2C49D651E304CABB9C1A8B4F17C7F86518FC9BA50E4792BAFC41B60A84404ED50BDA5D5CC4CEF4F966DB358FA605DFADFD5ED9CC8783DFBB60DA3555E512ABFFB4B35AF93FD00504B03041400060808004F5B3140B388E5BD4D01000033030000300000006662782F3336304338423541
311
2D374541342D344543462D424233352D3233364534413445324230442F636E782E786D6CD593BD6E032110845F05D1DF0FB675892C0E4B29F20429D272B076883938F113C56F9FC5C68E1B1729D3A0D3EC30B3FAC4F1DDF76CC9178468BC1B296B7B4AC029AF8D3B8C34A77DF34CC94EF0E07DBAB351E2E40C232D3215FC10
311
7C5EAAA4612FB34DA85AE38E550C107D0E0A22CAE526B15E498B01E09A8C22CC13680D9ADC8CF8B58780ABA0389D48FA00F2FAF24EFCF4092A45DE9514C1BBD22178396BD39D891265658C238DEA0366D9CA9CBC86786CB54CB265EDB5EBC14EBF49A45CB856E66048291F6939A9A81BB5C8917738143CA680F4AA299D16A0
311
422E8B354A2684DC9D8D178FE0D9B8346CAAD720F8806E36AC371B0C3BCF044F6686EA500164024DC5AA67ABA6670D7B7A636CBB1AB6EBBEE9876DDFF3AED8059FBCB7F512C640F00B51DE2570890AC6BB327E84AFFA88360159FB70FA034804505B2F746E19FF994F777EDF882BE05F207E00504B03041400060808004F5B
311
31409D654CD39A0500007B100000340000006662782F33363043384235412D374541342D344543462D424233352D3233364534413445324230442F6F626A656374732E786D6CAD575D739B3814FD2B0CFB8C31B6D3C63B848E6327194F376DA79E76F621331E018268233E4612A9D35FBF472030B876E2DDE90B20215DDD7B
311
EEB91FF23FEC326E3D532159915FD9DE686C5B348F8A98E5E9955DA9C4B9B4AD0F812F8A42F596D9564E327A65EB693BF0535154A5998A69422AAE0E666FAFFFB66444736A5B1127525ED9327AA41919914A1531954FA39828324A93DDC81B350B87625341CAC703A125113457D014F339A4588D52DE7038B6DDC077F5FFC0
311
D74FB36A7A7A955BDB333C9FE552913CFAE5B00331536FB6BA995CCC9D8BD96CEACCDE4D3CE7FAF67AE578EFA7E3E5BBE572BEB899E360A90424194D044DECE00ED80816F96EF32BF02B96ABE9C42C310E72057D66DA537630B13CDF6DD674D619238FA91F15794EA31A2BA051DB6744C7B4A4790C9F332AA1590FA1F170E8
311
691C7BBFA77A6C8EEC4F9F87407F474F50AB7BFBEE6B5A84FFC004790E8384A49A810D96C6D086ABE33DC2615170F38F492B238A0A46B8C559288878B1032CD54B027F20463359E868D016D801BCD0FC1ED20561F436CF8F6999549C6B1ADB411D055BC40A55B2D68CFDA462AF7D1F19E8045F69365C1A83D44B49ED60DE50
311
E4F2804D0D9056C2490A97C34CBD733A393074A9E374BDB2838FB7E16EA363F7F8E1A5284A2A94A60FA8D53AAE7D6B948C4EDE599ED31BEC0355F6A07C05F29F10EA7B55E037C176B3DDCC9CA204C96552880CBEB1C69633C6636C79F5537FF7BE7CB7DB3CF4DE293CE16C0DD56FC0736843DF973D3803FF19842FC4D498B6
311
890847DAB8673900D224B1788129E4E124DCD9C11A590E5919BB080F3C980C759FF1E9BB460C12457D52EF9D03CB83B4784682066C3523A146437EA3E0DE4FBFA4B3FA60B3EC14BC17BF85AE8BD5E6E3A6120989E8BD89E9154D58CE144ADC9E377D8506980F2C7AA22F3F0A11C3D05FF1DEF4F1CECC5112686BCC35F0699B
311
D3F5607FF2E08008FBD242A71BFF8D1360842EAC3DF9F74C46947392D3A26ACF7DB57EA06C3410EB60D74CEE0ACCBEB08034CD9F831844918E042B35885DB5EA92E6E88475DFD69FC0483BB87EF98BBCF4B357B8CFBD51C10BB10D5FB64D5A3A0AF5F721B70D06AE9602BAD741D2C6BF017D1BB324A92492E0115CBFAF977D
311
DFE9B48014D14A6DA26506FB115C4418D2B67251AD0541252DF22D43DD44DC1D3DA02F1F901A06D4024F692C294FB68CF32ADB268CA31A6D33529E80E3FFEB1F5659B9255951E5EA84EC81EAA80E43DD07EC953F888A1EED6053BF9D6BE4DE98C627C8A06BC911AC06AE5DBC5F2C56F3A9E78C1737B7CE6C3CBF743075E1CC
311
E7D3C96AB69A2D6E1693D64F8D2681DF969A7E44C34B286D7E259871DFB735E2C724013BB8274A3EDC35E1D9BEBFAD47E8857D177B502FBB8D8BF8197D1F8DDF16B05F7954D03A2B39CD68AE888EA17BFDC1BF12F41903659AF97546527A8694CF779B03633073C6BE2F3ADEE98F83BD6676A903F2A810F55865614E183FD8
311
9836488ECA3C35F8B53EE9DE4DA169877A641C83CE54169CC5C883B195D222A30AD9F08C2224322A41BD7E4F1F9BBBC719BB9F9B0E519190D35693478226994B8405A855456A386FFD81A64EF7555736CAEDE8090F93296C0B9CB9B2D1A42B1651390A51A0752B540B0797FA9D3C1A7F92A71CBD76B3A91B77BB34368392DC
311
2D39A77F32763529DC18803452A26F404304EFD4CA047EAD9BF91FFD27C35B752CA2F01956AAB3653FD119531F83106D8C32B70534314FE6E81D02F575B3BC51BD6680C859B7AC5749D048751411697D53D0FA199516AB2F2E3A146BFDD92A7995C297E74B720405992B1DE06011586164964481AACB3F1FBE880237D9CCBA
311
65A0C0C3B2C8B222378385B9095B9B47DC6BE307A405AA2F24F26132F6260FF545C0DC4DB62191744462F98409F854B00EE281E3C1C8E6B6880AD4FCE8D6B9DA0907DC5CAF2C53D266106A88D2CFAA1A16B41C39B5103DFA32A963A5BFA07CF52EE0D64BA18240171FFC0B504B03041400060800004F5B3140000000000000
311
000000000000350000006662782F33363043384235412D374541342D344543462D424233352D3233364534413445324230442F76657274696365732E62696E504B03041400060808004F5B3140F270F1330600000004000000360000006662782F33363043384235412D374541342D344543462D424233352D323336453441
311
3445324230442F747269616E676C65732E62696E636660600000504B03041400060800004F5B3140000000000000000000000000370000006662782F33363043384235412D374541342D344543462D424233352D3233364534413445324230442F617474726962757465732E62696E504B03041400060808004F5B3140D598
311
7DFC8F00000041010000360000006662782F33363043384235412D374541342D344543462D424233352D3233364534413445324230442F6469726563746F72792E786D6C858F410EC2201045AF4266AF15DDB800BA74E7C21B903225242D6328188F2FA5C4183471359997F9FF81E89FF3C41E1816475E02DF1F80A11FC838
311
6F25A438EECEC07A250251FC3803E6F58C12560C4AD840E95E91C151A72936F496F35732D860FE635F62C8F2DA16B505C545B74125BAA2FA9E05D7CC053D063734D5C7665FD55B6B8D15D5E9BFEAFD8490FFA45E504B03041400060808004F5B3140D6D7F2BFFC000000A00100003B0000006662782F33363043384235412D
311
374541342D344543462D424233352D3233364534413445324230442F7265736F75726365732F636F72652E786D6C8D504B6E833010BD0A9ABDC136250DC8386A4973825EC032136A25D8C89FAAC7AF09546A77DDCC8CDE47F3F4C4E96BBE179FE88371B607565228D06A371A3BF590E2951CA13849E19D8BBF64505835630F
311
2B0C524CDEA56587B4B3116DCCA87523EEA00A012314FA9E8F1E82FEC059952AC5AC08B77251FAA6262C5999E9AC9322449F0314DB937582F4185CF21A83A836568A94CCB86BCC987F9AAB410FF2C22E2F4DCBDEC8C0EB0B796A8757D2B6F44C9A9A0D43736C393B0FA25ACD524433FF64D41E55C41124A78C13CA087B7E67
311
ACE387AEA6841E3A4A45B5CAFF98D232FED3948C8D35DFE36EB60092E5200F428A6AED2BAF479979AFDDCA6F504B010214000A00000800004F5B31403DEE336E79000000790000001B00000000000000000000000000000000006175746F6465736B2D64657369676E2D7061636B6167652E786D6C504B0102140014000608
311
08004F5B3140D486FD9CA0000000F40000001300000000000000000000000000B20000005B436F6E74656E745F54797065735D2E786D6C504B010214001400060808004F5B3140BE3DAF8EEA0000007C010000080000000000000000000000000083010000636F72652E786D6C504B010214001400060808004F5B31405501
311
9EA25F0000007C000000070000000000000000000000000093020000636E782E786D6C504B010214001400060808004F5B3140B05F624F66010000020300000C00000000000000000000000000170300006662782F636F72652E786D6C504B010214001400060808004F5B3140BC70CE017E0000009D0000000B0000000000
311
0000000000000000A70400006662782F636E782E786D6C504B010214001400060808004F5B314046A2D1052B0100001302000031000000000000000000000000004E0500006662782F33363043384235412D374541342D344543462D424233352D3233364534413445324230442F636F72652E786D6C504B01021400140006
311
0808004F5B3140B388E5BD4D010000330300003000000000000000000000000000C80600006662782F33363043384235412D374541342D344543462D424233352D3233364534413445324230442F636E782E786D6C504B010214001400060808004F5B31409D654CD39A0500007B1000003400000000000000000000000000
311
630800006662782F33363043384235412D374541342D344543462D424233352D3233364534413445324230442F6F626A656374732E786D6C504B010214001400060800004F5B314000000000000000000000000035000000000000000000000000004F0E00006662782F33363043384235412D374541342D344543462D4242
311
33352D3233364534413445324230442F76657274696365732E62696E504B010214001400060808004F5B3140F270F13306000000040000003600000000000000000000000000A20E00006662782F33363043384235412D374541342D344543462D424233352D3233364534413445324230442F747269616E676C65732E6269
311
6E504B010214001400060800004F5B31400000000000000000000000003700000000000000000000000000FC0E00006662782F33363043384235412D374541342D344543462D424233352D3233364534413445324230442F617474726962757465732E62696E504B010214001400060808004F5B3140D5987DFC8F00000041
311
0100003600000000000000000000000000510F00006662782F33363043384235412D374541342D344543462D424233352D3233364534413445324230442F6469726563746F72792E786D6C504B010214001400060808004F5B3140D6D7F2BFFC000000A00100003B00000000000000000000000000341000006662782F3336
311
3043384235412D374541342D344543462D424233352D3233364534413445324230442F7265736F75726365732F636F72652E786D6C504B0506000000000E000E0080040000891100000000
310
504B03040A00000800004F5B31403DEE336E79000000790000001B0000006175746F6465736B2D64657369676E2D7061636B6167652E786D6C3C3F786D6C2076657273696F6E3D22312E302220656E636F64696E673D227574662D3822203F3E3C666F726D6174733E3C666F726D61743E687474703A2F2F736368656D612E
310
6175746F6465736B2E636F6D2F64657369676E2D7061636B6167652F323030393C2F666F726D61743E3C2F666F726D6174733E504B03041400060808004F5B3140D486FD9CA0000000F4000000130000005B436F6E74656E745F54797065735D2E786D6C7D8EC10E82300C865F65E91D8A1E8C310C0EEA1BF002731658846E
310
D98AC1B77784ABF1D8FE5FBFBF75BBCE937A534CCEB38643598122B6FEE978D0B0485F9C41B54DDD7D022595594E1A469170414C76A4D9A4D207E29CF43ECE46F218070CC6BECC4078ACAA135ACF422C856C0E68EA1BF5669944DDD7BCDE7B1F8E415D77AECB980613C2E4AC91FC167A2B244592486606FC29C8FD7F045B9A
310
EF7053A7E60B504B03041400060808004F5B3140E7BCA3B4E90000007C01000008000000636F72652E786D6C8D90D18E832010457F85CC3B0AEA6A6B9046BBDB2FD81F20402D690523D0F4F3175B9BECBEEDD3DC5CEE6126971D1ED30DDDF5E28DB31DD08C00D2563A65ECD8410C67BC0374E06C712EFC8A01B262D21DAC36
310
70362E2ECE9B259D0DDA86E45AA7F4660AEF7500246F4974E0E5454F221331A484BF66B3905731EA8CBE558263340ABD961895FE3367A317E0FDEE58D2A6F8C0A7BA3FE2EA3434784F9B01D7FBA1AAFAF22BE94F96AF3067C14CEFFD72D1226805BC20B4C08462DA7C53DA16755B124CEA961096AFF13F509CD53FA1686C28
310
8BEDDC17E681D374C8F381B37CED228D675169AEBDF11F504B03041400060808004F5B314055019EA25F0000007C00000007000000636E782E786D6C4DCB3B0E80201045D1AD90E915ED2CF8AC45050C11660C8261F98AB1B07AC9C97D42D718D865D3E909258CFD00CCE24AC6E326A164D74DC0B4128928FF326038472BA1
310
3128B1252AC747C6BAB984FC68F0B87FE8960A5C09FE86CFB69FBA01504B03041400060808004F5B314020DDA8F366010000020300000C0000006662782F636F72652E786D6C8D52ED8E8230107C95A6FF4B2970A0A6D4A8773EC1BD4085CA11A125A5253EFE2D1FC6F3628C2129CDCCCEEEEC00DF5EDB060DCAF6B5D13966
310
418891D285296B5DE5D8BB335961B415DC1AE3FE9461A465AB723CC258F0CA1ADF2D5061B453DA01AA4DA91650F6BD7218150D5C72DC173FAA9581F40E2AFA4BD0C9E2222B15B00068A813BC77160CA079C87862713E5D399D71C1BDAFCB85AD4B98569F6B65B1D8AD0E31CBA20F724C7707921CF71959B36C4FD2F53E4976
310
F117DC3F391DC582BBBABDB92BAC924E955844218B48C808CBBE19DB44E9260E49986EC290D3B1FC41E4BBF24D91AFB58BA3C5EE2CEBB160606422FE6D0B1139D4CB01FC50C1E91822BCA6841F8386402064274FCD6D8F0B40832A9CB10930A5F1776A908D57303544D3C3E9CC42E7A9016CF6B44FF4A2CFEB1EF001A5AEC0
310
9A74703D79374EE7F3D4258A4E5932B82BD2C6B6B2B99B9B2DDECFFBA0A7F2C234C6BEA3A6CBAA7409938E7FAFF805504B03041400060808004F5B31407E89626D7E0000009D0000000B0000006662782F636E782E786D6C4DCCDF0A83201C86E15B91DFB9CB0DCB0235C83FF711CB42563A9C8E5DFE6A74B0A30F1E3E5EDE
310
7FB615BD5D7AF918045C2F04900BF738F9B0082879C62DA05EF21463FEBB010AE3E6041C0C922F2996E749939BC7B2E65D571F1E27765DA398361613AA5B4C99D178A0B5C5CC0EB5224611756BA092BCFA95F63DC2F20B504B03041400060808004F5B3140FA298F362B01000014020000310000006662782F393936433744
310
45462D303444382D343745442D423435462D3746423543304543304332362F636F72652E786D6C8D51DB8EC22014FC15C293FB400BB5D26A282656FD82FD012CE8122D345C367EFEC2B626BB6FBE70C89C99399373D8FE393EC0B7725E5BD3415260089419ACD4E6D6C118AEA88560CF99B336FCA14160C4A83A9861C8D9CD
310
D9382DD0604D502624D458A9165078AF0204C3237D3AE8872F358A42C49018FE5E4C62B88B9B2A4891DA89C7990F2E0500F390FC42BEDDD2BE399ECE08D7C716D5CDE9880EF5E68C9AF361D3E3538FFB8AB272167216A3968B5CCB14475FB572EF9A643167418FAFF88353222809798549853041A4F9246457D1DD1A234C77
310
18B332D3FF89E224DF14456DC2BA5AE2CE320F3961E5DCE04CDA7879BCC2A8E7645D0079DECAABE103725C60B26D6BDA54AC9CA96901C993D68BA70FD6A505AFEE97C45E2FC6B4E6ACCC374AE5F780A9E67BF21F504B03041400060808004F5B3140D52F2AAA5401000033030000300000006662782F39393643374445462D
310
303444382D343745442D423435462D3746423543304543304332362F636E782E786D6CBD93CD6EC32010845F0571F70F4EE4461126520F7D821E7AC5B04969305880ABE6EDBB2424CD25874A552FC89A1D66569F30DF7D4D967C4288C6BB81B2BAA5049CF2DAB8C34097B4AF3694EC040FDEA73B1B254E4E30D02C53C10FC1
310
2F739134ECE56213AAD6B863110344BF040511E57C9358AFA4C50070D582224C23680D9ADC8CF8B58780ABA0389E487A07F2F2FC46FCF8012A45DEE414C19BDC21783E4BD39D891265658C038DEA1D2659CB25790DF1586B9964CDEA6BD7839D7E9248BE70AD5C8221B97CA0F9A4A26C542347DEE050F09802D22BA6749A81
310
0A39CFD62899107273365E3C822FC6A57E5DBC06C10774AFBA7EB3C1B0F34CF06426280E154026D054742DEBAA9655ECE995B16DD76F576DD5F6DBB6E54DB60B3E7A6FCB258C81E067A2BC4BE012158C3779FC085FF1116D02B2F6E1F40B9008A0B45EE8DC32FE920FEB57EBF53FF269CEEF1B7105FC0BC437504B03041400
310
060808004F5B3140A78D7CF558070000941B0000340000006662782F39393643374445462D303444382D343745442D423435462D3746423543304543304332362F6F626A656374732E786D6CED59DD739B3810FF5718EED9D8C44E5BDF103A4E9C643CBDB49DFADAB987CC3032C8441721184924F1FDF5B7FA00033109BEE6
310
DEFA6003425AEDFEF6534BF0F129A3CE03E682E4ECCCF5BD89EB6016E70961E9995BCAEDE883EB7C0C039EE7B231CD7518CAF099AB86DD3048795E167628C15B5452D919BD3AFFCB113166D875628A843873457C8733E4A152E60916F75E8224F2D2ED93E77B66629B6CCA5171D7215A208E99044E619C0115C730E5B71F27
310
EE380CC6EA7D18A87F3B6B3A68D6AC7FD6584BDDE6923021118B9FB1D421331DC4D2D49F2D2F4F4EE7A3D3D96C3A9ABD3BF147E757E7CB91FF7E3AB9787771315F5CCE81BD4D9E532B53820BCC12D0DFCE0DFD60ACDED4A25B040E711DE78CE15803095069B1BA040916B05503BE49FBD15712355E6B091BCF33F5DEB2D018
310
9EB6A9F4CD1A06448B2E0862B7AB24AEAE4DF9F2CDDF20B81862945C6009DC0AC941BB161E0E5EE18693606C46C360B3D705114E8624E6045187920D471C940253D59430300B2C19E51C1C48394A02AD39F3BA6D5BE099AFBBCE212EB725A5CA33DC503B5604EE87A5D09C917F30DF73DF44067802694BC2E407CBA5DC15D8
310
0DE7C1580F8681BA4C4FEC4B03A4B3A528151A11F3B623E88572FDD5D20D3F5D6D9ED62A1C1CDEBCE07981B95446A7F4A8F90243B6578592DDD61FA439B5008431A0DA957B50BE01F29F217AEC5901BD71F2347B9AD9B9922326B639CF4037CEC4194DE06FE2F8FA5FDD37EE8271BDB8ADBD3E3CC14D15541F7E1ECFB60C1A
310
2BCB7F03CE30780083CFF9D4BE5AC788823DDF100600292371680E4310DAB79B27375C41E084400FAB100D7D1019D87D80DB606CC9ECB552B997F53A0688DA3DA6439404B0698B04367AF4740DD9839378AFA6A6887DF09EBE89B92E96EB4FEB926F518C6FAC4F2FF1963022216B1E66A885794BA27BBC7BCC7902823EC77B
310
DDC43BB35B09405B61AE804F2B10D4C37EE7D60631AC4B73156E825776002154AE6ED0BF2122C6942286F3B2DAB78E6ECA506B8FB735831B9E1888A7271D13E6F881A8AA029C663FA3C528E4FD98934281E886D746B23A687A3DD27D5F7D068BACE7F7CC5A3108BD0CD13F75D03A8043CBB22BA42D10B5C09B7D388F739AF3
310
68B38B4CA473A1960036DADEF2A3451462BD5192A2021EA4FDAE0A29A991364AC8765B0A88AB0758FCB1BA689AC3C49BFAA74EF3BFE38C3388B6E0BB885BBFEBEC11910CA538DAA2A46FBBE66E356DA149F690E6784B412EF240E42E42329A24383D069AA388CFDF947A4A732108C302F2D541F09B684C3C0824469B15CB4A
310
AB1DA08988322C113D060145A6075C9D76748D1B43E9F03A8FB5F5BEA4B126D1FFC92238825A32671181521472C8AB8CFBDE29C49036BA06E50EBE606D156D2D062DA1848877D12326E99D3C067543BE07F7188E24A58CF202C560D603C83EF315A5D40EEF1B14DFABFC11C5257D2B0311986E2342699945F0230C4E1E435C
310
BB0E4C2FA2D0206E629FC419146548967CC826EF4E27CFF631354337043636DA120A613BCA50D1837A2B20EA7AC4A9C1B7D47B94BA29B32242595EB24186E24DBBDE64C977D5AAC80EE457958A503656842DC130204CD659B58AD960EA3AB0821BE940B58B04CA0A6A4E61AF241EBFF6264DB977036EFDF46D37C8A0F0EBD1
310
5E33A2CE2A182C8FADC2403C2219DFB9E15A5F47E7507F2738D9A7FAAAD66C568080988AE425275645DF5750DED81ACD0D6F9014B7D726EB56D7EF2B0FBA1FC118D640ED522F5C29A033CC245295C98DBAA1DF1084E0160D33BE5239F5182A8B24D15523A257A44F9DAD32A2B56946BCE20EB33C831FBB252CA665826F5122
310
EEA31B49A33551AC5B29BD8C5418BF28E097EB75071E181920D25755E0E1C7CE5A3B7AA1CAA58344E45D996D182210045BA2A546375EC152AB914ACBF5559D29A0EE0203B32A9EFD3A5934DB11BF4E16A9358C9F3A599CEFFE40BB665FA491CE6365D7471D03EAFCA4A8BCC53140B71D6AAA751631C9DCCA6F9D2982A05845
310
F9C1D55815340CC13E8EFF73D6EECB8266BB0EFFC7656DFF59C5715456694D565DAA0395EBAA99C316EF178BE57CEA8F268BCBABD16C32FF3082A1D3D17C3E3D59CE96B3C5E5A24EC5867818D4C14CE72E783641AD1A564F1603E8CA8A9C92044EF389936288F912CEF403DAE73CC3029267B3D99DD8A6FC80D50FA6CF29D1
310
86E28A933B040D622A20AD8318652CDBE3CE6FD09A9470D03E73A169E4DDC39FB54AD781CC73E642AB4092180B6F036D26D5D0D3C421E5EADC6F894120432C5529D12CAA9FEB550A9B56F8AFA70C490356AE560F030AB702BA5FAD0E85E6CDF2141F2578C58E8324DC6E4A09D59A91653F500BA3B7D9ABDFC84609BBB75B3F
310
81EBBE2C96EFE9392D44067D3278D1080CD591443CD5FD6EC5986569B1FC3A863E9BB3FAE214B44C4197C3298D3806632E5541055604566169164882A95EFC7EFB95E7F08927737455747B916759CEECC302CE63097C2272D677F0C127B985B201ABB6BAB83D99F827B7BA9D6D3BECD10609ECA97A0806AA324289D03136B0
310
C867AD29DBB81C2B2574A6AF968E0D9FD0063016F4ACBB6B3E6F39E03DEA438AF215EDE1959C2F76B4C77A2A5803875E74F82F504B03041400060800004F5B3140000000000000000000000000350000006662782F39393643374445462D303444382D343745442D423435462D3746423543304543304332362F7665727469
310
6365732E62696E504B03041400060808004F5B3140F270F1330600000004000000360000006662782F39393643374445462D303444382D343745442D423435462D3746423543304543304332362F747269616E676C65732E62696E636660600000504B03041400060800004F5B314000000000000000000000000037000000
310
6662782F39393643374445462D303444382D343745442D423435462D3746423543304543304332362F617474726962757465732E62696E504B03041400060808004F5B3140D5987DFC8F00000041010000360000006662782F39393643374445462D303444382D343745442D423435462D3746423543304543304332362F64
310
69726563746F72792E786D6C858F410EC2201045AF4266AF15DDB800BA74E7C21B903225242D6328188F2FA5C4183471359997F9FF81E89FF3C41E1816475E02DF1F80A11FC8386F25A438EECEC07A250251FC3803E6F58C12560C4AD840E95E91C151A72936F496F35732D860FE635F62C8F2DA16B505C545B74125BAA2FA
310
9E05D7CC053D063734D5C7665FD55B6B8D15D5E9BFEAFD8490FFA45E504B03041400060808004F5B3140F4178D2CFC000000A00100003B0000006662782F39393643374445462D303444382D343745442D423435462D3746423543304543304332362F7265736F75726365732F636F72652E786D6C8D504B6E833010BD0A9A
310
BDC1060409328E206D4ED00B586642AC041BF953F5F8350995DA5D3733A3F7D13C3D7EFA5A1ED9273AAFADE981E5143234CA4EDACC3DC4702507C84E823B6BC32F1964462ED8C30683E0B3B371DD21654D4013126AEC843B28BDC700997AA4A307AF6EB8C85CC69014FE9EAF52DDE58C39CB139D7482FBE05280ECF5649B20
310
1C7A1B9D42CF8B172B788C7ADA357A4A3FF555A303311CCE156BCB9A5C9AE14CEACBD892236B47D21CC7BA1EAAF774BFF162330B1EF4F293513994012710256525A18CB0F683B1AE6CBA8A12DA7494F26293FF31C575FAA7296A13AA728FFBB279102C05791282175B5F693DCB4C7BEB567C03504B010214000A0000080000
310
4F5B31403DEE336E79000000790000001B00000000000000000000000000000000006175746F6465736B2D64657369676E2D7061636B6167652E786D6C504B010214001400060808004F5B3140D486FD9CA0000000F40000001300000000000000000000000000B20000005B436F6E74656E745F54797065735D2E786D6C50
310
4B010214001400060808004F5B3140E7BCA3B4E90000007C010000080000000000000000000000000083010000636F72652E786D6C504B010214001400060808004F5B314055019EA25F0000007C000000070000000000000000000000000092020000636E782E786D6C504B010214001400060808004F5B314020DDA8F366
310
010000020300000C00000000000000000000000000160300006662782F636F72652E786D6C504B010214001400060808004F5B31407E89626D7E0000009D0000000B00000000000000000000000000A60400006662782F636E782E786D6C504B010214001400060808004F5B3140FA298F362B010000140200003100000000
310
0000000000000000004D0500006662782F39393643374445462D303444382D343745442D423435462D3746423543304543304332362F636F72652E786D6C504B010214001400060808004F5B3140D52F2AAA54010000330300003000000000000000000000000000C70600006662782F39393643374445462D303444382D34
310
3745442D423435462D3746423543304543304332362F636E782E786D6C504B010214001400060808004F5B3140A78D7CF558070000941B00003400000000000000000000000000690800006662782F39393643374445462D303444382D343745442D423435462D3746423543304543304332362F6F626A656374732E786D6C
310
504B010214001400060800004F5B31400000000000000000000000003500000000000000000000000000131000006662782F39393643374445462D303444382D343745442D423435462D3746423543304543304332362F76657274696365732E62696E504B010214001400060808004F5B3140F270F1330600000004000000
310
3600000000000000000000000000661000006662782F39393643374445462D303444382D343745442D423435462D3746423543304543304332362F747269616E676C65732E62696E504B010214001400060800004F5B31400000000000000000000000003700000000000000000000000000C01000006662782F3939364337
310
4445462D303444382D343745442D423435462D3746423543304543304332362F617474726962757465732E62696E504B010214001400060808004F5B3140D5987DFC8F000000410100003600000000000000000000000000151100006662782F39393643374445462D303444382D343745442D423435462D37464235433045
310
43304332362F6469726563746F72792E786D6C504B010214001400060808004F5B3140F4178D2CFC000000A00100003B00000000000000000000000000F81100006662782F39393643374445462D303444382D343745442D423435462D3746423543304543304332362F7265736F75726365732F636F72652E786D6C504B05
310
06000000000E000E00800400004D1300000000
  0
XRECORD
  5
17
102
{ACAD_REACTORS
330
12
102
}
330
12
100
AcDbXrecord
280
     1
270
     1
271
     1
  0
XRECORD
  5
16
102
{ACAD_REACTORS
330
12
102
}
330
12
100
AcDbXrecord
280
     1
270
     1
271
     1
  0
XRECORD
  5
18
102
{ACAD_REACTORS
330
12
102
}
330
12
100
AcDbXrecord
280
     1
270
     1
271
     1
  0
XRECORD
  5
15
102
{ACAD_REACTORS
330
12
102
}
330
12
100
AcDbXrecord
280
     1
270
     1
271
     1
  0
XRECORD
  5
BC9
102
{ACAD_REACTORS
330
22
102
}
330
22
100
AcDbXrecord
280
     1
102
MATERIAL
148
0.0
149
0.0
149
0.0
 93
        0
 94
      127
282
     0
 72
     0
 77
     0
171
     0
175
     0
179
     0
273
     0
  0
XRECORD
  5
24
102
{ACAD_REACTORS
330
22
102
}
330
22
100
AcDbXrecord
280
     1
270
     1
271
     1
  0
XRECORD
  5
23
102
{ACAD_REACTORS
330
22
102
}
330
22
100
AcDbXrecord
280
     1
270
     1
271
     1
  0
XRECORD
  5
11B
102
{ACAD_REACTORS
330
22
102
}
330
22
100
AcDbXrecord
280
     1
 70
     1
 90
1959938040
 71
     1
  1
4C82E376-AB68-4E55-948C-E61017C169E1
311
504B03040A00000800004E5B31403DEE336E79000000790000001B0000006175746F6465736B2D64657369676E2D7061636B6167652E786D6C3C3F786D6C2076657273696F6E3D22312E302220656E636F64696E673D227574662D3822203F3E3C666F726D6174733E3C666F726D61743E687474703A2F2F736368656D612E
311
6175746F6465736B2E636F6D2F64657369676E2D7061636B6167652F323030393C2F666F726D61743E3C2F666F726D6174733E504B03041400060808004E5B3140D486FD9CA0000000F4000000130000005B436F6E74656E745F54797065735D2E786D6C7D8EC10E82300C865F65E91D8A1E8C310C0EEA1BF002731658846E
311
D98AC1B77784ABF1D8FE5FBFBF75BBCE937A534CCEB38643598122B6FEE978D0B0485F9C41B54DDD7D022595594E1A469170414C76A4D9A4D207E29CF43ECE46F218070CC6BECC4078ACAA135ACF422C856C0E68EA1BF5669944DDD7BCDE7B1F8E415D77AECB980613C2E4AC91FC167A2B244592486606FC29C8FD7F045B9A
311
EF7053A7E60B504B03041400060808004E5B3140B289B602EA0000007C01000008000000636F72652E786D6C8D904D6EC3201085AF82668F0DD4F24F8489DCBA3E412F8080B828315806AA1EBF3871A476D7D58CDEBC6F66F4F8F97BB9A12FB305EB5D0FB420808C535E5B37F790E205B780CE826FDEC75F36404E2EA6875D
311
06C1E7CDA7F5909477D1B89855E7B5394419828980D42D373D04F5691659C814B3235C8B55AAAB9C4D419F5D8653B21A3D8E589DF7D98B351B88F79ABC758CB4789AAA06574333E2AE1B2B3C8CED340E6DD376AF232F7758F06897E77DB519198D06C1086598504C9B0F4A4FAC3EB10E93FA44082F77FB1F28ADFA9F50B22E
311
BEB0E3DD071640D0FCC87D2078B96791CB3DA85CF7DCC40F504B03041400060808004E5B314055019EA25F0000007C00000007000000636E782E786D6C4DCB3B0E80201045D1AD90E915ED2CF8AC45050C11660C8261F98AB1B07AC9C97D42D718D865D3E909258CFD00CCE24AC6E326A164D74DC0B4128928FF326038472B
311
A13128B1252AC747C6BAB984FC68F0B87FE8960A5C09FE86CFB69FBA01504B03041400060808004E5B31400BC35BC966010000020300000C0000006662782F636F72652E786D6C8D525B6E833010BC8AE57F63435180C8384A4B73825EC00187A2808D8C8D72FC2E8F88A68AA20AC958333BBBB303FC70EB5A342A3B3446E7
311
380C18464A97A66A749D63EF2E24C5E820B835C6FD2AC348CB4EE57882B1E0B535BE5FA1D268A7B403549B4AADA01C06E5302A5BB8E47828BF552703E91D540CD7A097E555D62A0803A0A14EF0C15930809621D389C5E57CE374C105F7BEA956B6A9605A736994C5E273C73EB288A5E4748A13121F93826459119363919E8A
311
639AA4D97BC1E92416DC35DDDD5D699574AAC2226261445848C2E42B0CF7D16E1F6584EDF68C713A953F887C5FFD53E41BEDDEA2D5EE221BB008C1C84CFCD9162272689023F8A182D3294478CD093F060D8140C84E9EDBFB1E578046553A6363602AE3376A94AD573095A1F9E17461A1F3DC00367BDA277AD1E7750FF88052
311
D7604D3AB89EBD9BA6F365EA1A45AF2C19DD0D69633BD96EE6168BDBB90D7A2A2F4D6BEC7FD4745D95AE61D2E9EF153F504B03041400060808004E5B31407E69E5487D0000009D0000000B0000006662782F636E782E786D6C4DCCD10A83201886E15B91FFDC95E940418DD5E67DC4B290990EA7D1E5AF46073BFAE0E1E395
311
EDB678B4DAF471312820971A900DCF38BA302B2879C21C50AB658A31FFDD008561B10A0E062DE714CBFBA4D14E43F17957EFC2EBC4BE31820B66B079D01B66E2DAE38ED50DA644102AF8DD748440A565F52BED7B84F517504B03041400060808004E5B3140C290FCA52C01000014020000310000006662782F433246393839
311
34462D464533412D343935432D423430322D3331393133393844464231312F636F72652E786D6C8D51CB6EC32010FC158B537AC066B1E39A08133569FD05FD01C726294A0C168F2A9F5FA81DA9BDE5C2A2D999D981E5FBFB74CBBEA575CAE816414E5026F56046A52F2D0AFE8C1B94ED05B7C6F83F3494E97E922D4A3012FC
311
624D98576830DA4BED23AACD2857B0774E7A940DB77869911BBEE4D4E77DF091E1AEF9DC0FD7FE2273C8633BF20477DEC600D932249D481C69C71A5675B8FB28DF70C5B6477CA808C525302859F3DE1D0078B108050F418DAB5C8D318E3A2B699F354962C1BD9A1EF1072B7B2F472428018A096078FD04D8D17A471926F58E
311
105E24FA3F5198C7274541695FD235EE227348C4D72C0DC147134EB74718799F8DF5599AB77172784182E404584901182F166AFC80E85957ABA7F3C6C60FDE5C4F910D5B5E24E3BA12BC483B8AE57781B1A67D8A1F504B03041400060808004E5B3140BB8DD5814D01000033030000300000006662782F4332463938393446
311
2D464533412D343935432D423430322D3331393133393844464231312F636E782E786D6CD593BD6E032110845F05D1DF0F17EB92581C9652E40952A4C5B076883938F113C56F9FC5C68E1B1729D3A0D3EC30B3FAC4F1CDF76CC9178468BC9B286B7B4AC029AF8DDB4F34A75DF344C946F0E07DBAB151E2E40C132D32157C1F
311
7C5EAAA46127B34DA85AE30E550C107D0E0A22CAE526B15E498B01E09A8C22CC5BD01A34B91AF16B07015741717B24E903C8EBCB3BF1DB4F5029F2AEA408DE950EC1CB599B6E4C94282B639C68541F30CB56E6E435C443AB65922D6B2F5D7776FA4D22E5C2A53207434AF944CB4945DDA8458EBCC3A1E03105A4574DE9B800
311
157259AC513221E4EE643C7B04CFC6A57155BD06C10774B3F161B5C2B0D34CF06466A80E154026D0540C3D1B9A9E35ECF18DB1F530AE87E7A61FD77DCFBB62177CEBBDAD973006825F88F22E814B5430DE95F13D7CD547B409C8DA87E31F402280DA7AA673CDF8CF7CBAD3FB465C01FF02F103504B03041400060808004E5B
311
3140D3DEDBF29A0500007A100000340000006662782F43324639383934462D464533412D343935432D423430322D3331393133393844464231312F6F626A656374732E786D6CAD57DB6EDB3810FD1541FBEC8B6C274D168A8AC44E0AA3485BD468B10F010C4AA2146E285120A9D4D9AFDF4389BA3976E25DF4C5B2A8E170E6
311
CC990BFD8FBB8C3BCF542A26F22BD71B4F5D87E69188599E5EB9A54E4617AEF331F0A510BA27E63A39C9E8956B96DDC04FA5280BBB14D384945CEFADDEDDFCE5A888E6D475224E94BA7255F448333226A51631554FE39868324E93DDD81BD78243B5A924C5E39ED282489A6B588AF51C5A9CDA286FF83A7527813F31DF03DF
311
FC5AA9F971A949E5CFF07C962B4DF2E8D5617B6AE6DE62753B3BBB1C9D2D16F3D1E27CE68D6EEE6E5623EFC37CBA3C5F2E2FAF6F2F71B0D2129AAC2592266EF009D84816F993FA53E0972CD7F39915B1019A48FACC4CA4DC60E678FEA49669BDB34E1E323F12794EA30A2BA051F96755C7B4A0798C9833AA60590FA1E9F0D5
311
3338F63ECFCDBB3DB2BF7C1A02FD1D3D458DEDCDB36FA908FF860BEA140649450D036B2CADA33557A71DC2A110DC7E63CAC988A69211EE70164A225FDC00A24624F0076A0C93A5C906E3811B200AF5E7215D9046EFF3FC909549C9B9A1B11B5459B045AE50AD2ACBD83F5476D6F791814D889561C3857548BF14D40D2E6B8A
311
5CECB1A906D24938491172B86976CE677B8E2E4D9EAE576EF0F92EDC6D4CEE1E3EBC90A2A0521BFA805A4DE09AA741C9DAE49D1439B3C1DD33A503E53B90FF8254EF4C41DC24DB2D760B7B8A96245789901962E34C9DD1143F53C7AB7ECDFFDE3F7FD26E1E46EF189E08B681EA37E039F4A11FCB1E9C81FF0CC20B39B7AE6D
311
22C25136EE590E800C491C2EB0843A9C843B3758A3CAA12A6317E181079761EE33FEFA13AB0685A23AA9F7CC81E55E593CA14003B68A9130A326BF35B08BD3AB72561D6CC58EC17BF65BE87ABDDA7CDE94322111BDB739BDA209CB99468BEB78D3376880F9C0A327FAF24BC8188EBEC67BD3C73BB34729A06D3037C0A74D4D
311
372FDDC9830322EC4B852937FE3B27C009D3587BFAEF998A28E724A7A26CCE7DB37FA06DD4109B64374C6E1B4CD758409AFACB5E0EA24947921506C4B65BB545737CC4BB1FEB2F6024E4B90809EF84C2AEF446820BB90D5FB675553A88F4CF21B52D0413A3056CAF72A4497F8BF9366649522AD4C003B0FE5C2FFBA1335501
311
15A2D15A27CB02EE23B788B49C6DF4A2594B82462AF22D43DB44DA1D3CA0AF1F885A02540A8F59AC284FB68CF332DB268CA3196D33521C81E3FFDB1F9659B1259928737D44F7C0743487A1ED03F2AA5F44478F6EB0A99EA31B94DE98C65D9807C2A6951CC06A10DAC5F262763BFF703EBABE39BF182D6ECFCE46978B8BE5E8
311
F6DC9B7A1F96DEF9E56D87663543057ED369FA098D28A1B3F9A564367C3FD6481F5B03DCE09E68F5F0A9CECEE6F9633DC628EC4FB007EDB2DD781D3F63ECA3F1FB0A3AC9838AD659C16946734D4C0ADD9B3FFC3BC1983130A65E5F6724A52768F9FA69B3E70C564ED8F7CDA43BFDB5B7D7AE2E4D421E54A21FCB2CCC09E37B
311
1BD31AC97191A716BF2626EDB3EE33CDAB79B381C160AA046731CA60ECA4546454A3189ED083644615A8D71FE9637BF53861F7733D206A1272DA58F24830237385B4006FCB480FD79D3F30D399B1EACA45B71D3FE1C7560AD70167AE5CCCE89A45548D43F467330955CAC1A5FE200FCE923CE518B5EB4DED7BBBCB6033E8C8
311
ADC829E393F5ABAEE0D6019491026303E62144A73226F02BDBECF7E83F39DE98E3108DBF61A95B5FBA85D699EA18A468ED94BD2C608679B247EF90A86FBBE58D2B990122275DB2DE2441AD75A4894CAB8B82B1CF9A74BDFA36C180E2ACBF3A052F53C4F2744D234941E6D22438580456589D05D1A0EAF2CF876F52E0229B39
311
770C1478588A2C13B97DB9B6176167F3886B6DFC80B240CD7D443DCCA6DEECA1BA07D8ABC936248A8E49AC9EB080984AD6423C083C18595F165133EB0FADDCC404618F9BEB95635BDA024A2D51FA55D5C0828923A70EB2C7DC254DAEF4058A37AF02934A1426480CF1C1BF504B03041400060800004E5B3140000000000000
311
000000000000350000006662782F43324639383934462D464533412D343935432D423430322D3331393133393844464231312F76657274696365732E62696E504B03041400060808004E5B3140F270F1330600000004000000360000006662782F43324639383934462D464533412D343935432D423430322D333139313339
311
3844464231312F747269616E676C65732E62696E636660600000504B03041400060800004E5B3140000000000000000000000000370000006662782F43324639383934462D464533412D343935432D423430322D3331393133393844464231312F617474726962757465732E62696E504B03041400060808004E5B3140D598
311
7DFC8F00000041010000360000006662782F43324639383934462D464533412D343935432D423430322D3331393133393844464231312F6469726563746F72792E786D6C858F410EC2201045AF4266AF15DDB800BA74E7C21B903225242D6328188F2FA5C4183471359997F9FF81E89FF3C41E1816475E02DF1F80A11FC838
311
6F25A438EECEC07A250251FC3803E6F58C12560C4AD840E95E91C151A72936F496F35732D860FE635F62C8F2DA16B505C545B74125BAA2FA9E05D7CC053D063734D5C7665FD55B6B8D15D5E9BFEAFD8490FFA45E504B03041400060808004E5B314042E82272FD000000A00100003B0000006662782F43324639383934462D
311
464533412D343935432D423430322D3331393133393844464231312F7265736F75726365732F636F72652E786D6C8D504B6E833010BD0A9ABDC1765180C838A2A539412F609909B1126CE44FD5E3D724546A77DDCC8CDE47F3F4C4E96BB9179FE88371B607565228D06A37193BF790E285B4509CA4F0CEC55F3228AC5AB087
311
0D062966EFD2BA43DAD9883666D4BA0977508580110A7DCF470F415F7151A54A312BC2AD5C95BEA9194B56663AEBA408D1E700C5F3C936417A0C2E798D41544F568A94CCB46BCC947F9A8B410FF2FD40DF3A4E1B723ED70DA98766245D37D66418DBF338B44DDBBD8EA2DACC5244B3FC64D41E55C40924A78C13CA086B3E18
311
3BF2C39177841E8E948A6A93FF31A575FAA729191B5FF81EF7690B20590EF220A4A8B6BEF27A9499F7D6ADFC06504B010214000A00000800004E5B31403DEE336E79000000790000001B00000000000000000000000000000000006175746F6465736B2D64657369676E2D7061636B6167652E786D6C504B01021400140006
311
0808004E5B3140D486FD9CA0000000F40000001300000000000000000000000000B20000005B436F6E74656E745F54797065735D2E786D6C504B010214001400060808004E5B3140B289B602EA0000007C010000080000000000000000000000000083010000636F72652E786D6C504B010214001400060808004E5B314055
311
019EA25F0000007C000000070000000000000000000000000093020000636E782E786D6C504B010214001400060808004E5B31400BC35BC966010000020300000C00000000000000000000000000170300006662782F636F72652E786D6C504B010214001400060808004E5B31407E69E5487D0000009D0000000B00000000
311
000000000000000000A70400006662782F636E782E786D6C504B010214001400060808004E5B3140C290FCA52C0100001402000031000000000000000000000000004D0500006662782F43324639383934462D464533412D343935432D423430322D3331393133393844464231312F636F72652E786D6C504B010214001400
311
060808004E5B3140BB8DD5814D010000330300003000000000000000000000000000C80600006662782F43324639383934462D464533412D343935432D423430322D3331393133393844464231312F636E782E786D6C504B010214001400060808004E5B3140D3DEDBF29A0500007A10000034000000000000000000000000
311
00630800006662782F43324639383934462D464533412D343935432D423430322D3331393133393844464231312F6F626A656374732E786D6C504B010214001400060800004E5B314000000000000000000000000035000000000000000000000000004F0E00006662782F43324639383934462D464533412D343935432D42
311
3430322D3331393133393844464231312F76657274696365732E62696E504B010214001400060808004E5B3140F270F13306000000040000003600000000000000000000000000A20E00006662782F43324639383934462D464533412D343935432D423430322D3331393133393844464231312F747269616E676C65732E62
311
696E504B010214001400060800004E5B31400000000000000000000000003700000000000000000000000000FC0E00006662782F43324639383934462D464533412D343935432D423430322D3331393133393844464231312F617474726962757465732E62696E504B010214001400060808004E5B3140D5987DFC8F000000
311
410100003600000000000000000000000000510F00006662782F43324639383934462D464533412D343935432D423430322D3331393133393844464231312F6469726563746F72792E786D6C504B010214001400060808004E5B314042E82272FD000000A00100003B00000000000000000000000000341000006662782F43
311
324639383934462D464533412D343935432D423430322D3331393133393844464231312F7265736F75726365732F636F72652E786D6C504B0506000000000E000E00800400008A1100000000
310
504B03040A00000800004E5B31403DEE336E79000000790000001B0000006175746F6465736B2D64657369676E2D7061636B6167652E786D6C3C3F786D6C2076657273696F6E3D22312E302220656E636F64696E673D227574662D3822203F3E3C666F726D6174733E3C666F726D61743E687474703A2F2F736368656D612E
310
6175746F6465736B2E636F6D2F64657369676E2D7061636B6167652F323030393C2F666F726D61743E3C2F666F726D6174733E504B03041400060808004E5B3140D486FD9CA0000000F4000000130000005B436F6E74656E745F54797065735D2E786D6C7D8EC10E82300C865F65E91D8A1E8C310C0EEA1BF002731658846E
310
D98AC1B77784ABF1D8FE5FBFBF75BBCE937A534CCEB38643598122B6FEE978D0B0485F9C41B54DDD7D022595594E1A469170414C76A4D9A4D207E29CF43ECE46F218070CC6BECC4078ACAA135ACF422C856C0E68EA1BF5669944DDD7BCDE7B1F8E415D77AECB980613C2E4AC91FC167A2B244592486606FC29C8FD7F045B9A
310
EF7053A7E60B504B03041400060808004E5B314065022A4AE90000007C01000008000000636F72652E786D6C8D90D18E832010457F85F08E02355A0DD2AC69FB05FB0304A696B48211D8F4F38BAD4D76DFF6692677EE99995C71784C77F4034BB0DEF59815142370DA1BEBC61EA778217B8C0E522CDEC75F368C9C9AA0C7AB
310
8CA518179FE64DD2DE457031ABCE1BD8441502448CF43D373D0EFA0A932A548AD9116EC5ACF44D8D50B04F97E194AC41EF23D6E47DF66261C192337E1E7603232D3F5352D1BA21ED501D4955ED875373A2C7AFA612E50A4B11EDF4B9AF1750114CE629E38432C29A6FC63A5E77BC25B4EE2815E56AFF03A5D9FC134AD6C51D
310
DFDE7D63014B961F790DA428D72C72790595EB9A9B7C02504B03041400060808004E5B314055019EA25F0000007C00000007000000636E782E786D6C4DCB3B0E80201045D1AD90E915ED2CF8AC45050C11660C8261F98AB1B07AC9C97D42D718D865D3E909258CFD00CCE24AC6E326A164D74DC0B4128928FF326038472BA1
310
3128B1252AC747C6BAB984FC68F0B87FE8960A5C09FE86CFB69FBA01504B03041400060808004E5B3140B27EC4A064010000020300000C0000006662782F636F72652E786D6C8D52ED8E8230107C95A6FF4B5B24A2A6D41C519FE05EA042E588D092D2121FFF960FE37931C69094666667777640EC6F6D8306EDFADA9A0CF3
310
8861A44D61CBDA54190EFE423618EDA570D6FA3F651819D5EA0C8F3096A27236740B5458E3B5F1801A5BEA05547DAF3D464503970CF7C58F6E55A482878AFE1A75AAB8AA4A473C021AEAA4E8BD0303681E329E585ECE3741675C8A10EA7261EB12A6D5975A3B2C631E9FF255CEC9363E3192B0754AB679722049B2C98FE991
310
1DBED244D0512C85AFDBBBBBC269E575097AC663C238E1E937E7BB78BD8BB784AD778C093A963F8942577E280AB5F1AB78B13BCB7A2C391899887FDB42441EF56A003F540A3A8608AF29E1E7A0211008D9AB7373DFE30AD0A00B6F5D024C69C3831A5413344C65687A049D59E83C3580CD5EF689DFF479DF033EA032155853
310
1EAEE7E0C7E9629EBA44D16947067F43C6BA56350F73B3C5C7F918F4525ED8C6BA4FD47459952E61D2F1EF95BF504B03041400060808004E5B3140A1E9D7017D0000009D0000000B0000006662782F636E782E786D6C4DCCD10AC2201886E15B91FFDCD6F62B18A8035DDDC7686E484EC334BAFCB6D841471F3C7CBCB2FFAC
310
81BC5D7EF91415B4A7331017EF69F2715150CB4C05905ECB9C52F9BB0189E3EA14EC0C5A2E39D5E741939BC71ACAA6C1C7C7811CB9E5D674948B4E50C68CA006D98D22C38BC50187965FA1D1B2F995B6DDC3FA0B504B03041400060808004E5B3140C3D6C2D02A01000014020000310000006662782F35333543354342322D
310
353832382D343442382D423334462D3334333943334433443135452F636F72652E786D6C8D51CB6EC32010FC15C4293D60F3B2EB44984849DA2FE80F50435294182C1E553EBFB876A4F6960B8B66676647BB627F1F6FE0DB8468BDEB21A93004C60D5E5B77E9614E67D441B09722789FFED020706A343D9C6128C525F83CAD
310
D0E05D322E15D4796D5650C5681204C3AD7C7A18872F33AA4AE55418F15A4D6AB8AA8BA94855DA8527454CA10400CB90F985B261CDB1391E286A3ADA21CE0F1D3A30FE8E1867DB233BB11369DE44BD08A5C8D9EA556E758963CFD684674D66B114C98E8FF843302A190D25C584224C1079FD206447DB1DDD22DCEE3016F54C
310
FF27CA937E5294AD4B8CAE7117598492887A6948A17DFEBC3DC298FBE44302F3BC4D34C30B94B8C29472420915F5422D0B289E2D5F3D63F2A12C7873FD2C6CB61AB75C8A7ABE5129BF072C75BEA7FC01504B03041400060808004E5B3140DD2A1A965501000033030000300000006662782F35333543354342322D35383238
310
2D343442382D423334462D3334333943334433443135452F636E782E786D6CBD93CD6EC32010845F0571F70F4EE4A61126520F7D821E7A25B04968305880ABE6EDBB2424CD25874A552FC89A1D66569F30DF7C8D967C4288C6BB81B2BAA5049CF2DAB8FD40E7B4AB56946C040FDEA73B1B254E8E30D02C53C1F7C1CF539134
310
ECE46C13AAD6B8631103443F070511E57C9358AFA4C50070D58C228C5BD01A34B919F16B07015741717B22E900E4F5E59DF8ED07A814799353046F7287E0F92C4D77264A9495310E34AA038CB29673F21AE2B1D632C99AD5D7AE073BFD24917CE15A39074372F940F34945D9A8468EBCC1A1E03105A4574CE9340115729AAC
310
513221E4E66CBC78049F8D4BFDB2780D820FE85E74FD6A8561E799E0C98C501C2A804CA0A9E85AD6552DABD8D31B63EBAE5F77CF55DBAFDB9637D92EF8D67B5B2E610C043F11E55D0297A860BCC9E347F88A8F681390B50FA75F804400A5F542E796F1977C58BF582EFF914F737EDF882BE05F20BE01504B03041400060808
310
004E5B31400BA7789857070000931B0000340000006662782F35333543354342322D353832382D343442382D423334462D3334333943334433443135452F6F626A656374732E786D6CED595B6FA33814FE2B887D0E0949DA695794519BB6A368D599D16467B40F9190030EF1D618649B5EF6D7EFF1050234B464A7FB360F09
310
60ECE373BE73F521F8F89451E70173417276E1FADEC475308BF384B0F4C22DE57674E63A1FC380E7B96C4C731D86327CE1AA61370C529E97851D4AF016955476466FAFFE72448C19769D9822212E5C11EF70863C54CA3CC1E2DE4B90445EBA7DF27CCF4C6C934D392A761DA205E29849E014C61950710C537EFB71E28EC360
310
ACDE8781FAB7B3668366CDFB678DB5D46D2E091312B1F8054B1D32B3412CCDFCF9F5CDF4E47C74329FCF46F3D3A93FBABABDBA1EF91F6693C5E962717E79730EEC6DF29C5A99125C609680FE9EDDD00FC6EA4D2DBA45E010D771CE188E3590009516AB4B9060015B35E09BB41F7D2551E3B596B0F13C57EF2D0B8DE1599B4A
310
DFAC6140B4E8822076BB4AE2EADA942FDFFC0D828B2146C90596C0AD901CB46BE1E1E0156E3809C666340C367B5D10E16448624E107528D970C4412930554D0903B3C09251CEC18194A324D09A33AFDBB6059EF9B6EB1CE2725B52AA3CC30DB56345E07E580ACD19F907F33DF74D64802790B6244C9E592EE57381DDF03C18
310
EBC1305097D9D4BE34403A5B8A52A111316F3B822E94EB2FAFDDF08FDBCDD34A8583C39B173C2F3097CAE8941E355F60C8F6AA50B2DBFA8334A71680300654BB720FCA3740FE33448F3D2BA0374E9EE64F733B5772C4C436E719E8C69938A309FC4D1C5FFFABFBC65D30AE17B7B5D78727B8A982EAECE7F16CCBA0B1B2FC37
310
E00C830730F89CCFECAB558C28D8F31D610090321287E63004A17DBB7972C325044E08F4B00AD1D0079181DD07B80DC696CC5E2B957B59AF6380A8DD63364449009BB64860A3474F9F207B7012EFD5D414B10FDE937731D7CBEBD51FAB926F518CEFAC4F5FE32D614442D63CCC500BF39644F7F8F931E70908FA12EF5513EF
310
CC6E25006D85B9023EAD40500FFB9D5B1BC4B02ECD55B809DED8018450B9BA41FF8E8818538A18CECB6ADF3ABA2943AD3DDED60C6E383510CFA61D13E6F881A8AA029C663FA3C528E4FD98934281E8869F8C6475D0F47AA4FBBEFC0C1659CFEF99B564107A19A27FEAA0750087966557485B206A8137FB701EE734E7D1E639
310
3291CE855A02D8687BCB8F165188F546498A0A7890F6BB2AA4A446DA2821DB6D2920AE1E60F1C772D134878937F34F9CE67FC719E7106DC17711B77ED7D92322194A71B44549DF76CDDD6ADA4293EC21CDF196825CE481C8E708C96892E0F418688E227EFEAED4539A0B41181690AF0E82DF4463E2412031DAAC58565AED00
310
4D44946189E8310828323DE0EAB4A36BDC184A87B779ACADF7358D3589FE4F16C111D492398B0894A29043DE64DCF74E2086B4D1352877F0056BAB686B3168092544FC1C3D6292EEE431A81BF23DB8C77024296594172806B31E40F685AF28A57678DFA0F85EE58F282EE97B1988C0741B114ACB2C821F6170F218E2DA7560
310
7A1585067113FB24CEA02843B2E44336393D99BCD8C7D40CDD10D8D8684B2884ED2843450FEAAD80A8EB11A706DF52EF51EAA6CC8A086579C906198A37EB7A9325DF55AB223B905F552A42D95811B604C380305967D52A6683A9EBC00A6EA403D57324505650730A7B23F1F8B53769CABD1B70EBA7EFBB4106855F8FF69A11
310
755EC160796C1506E211C978E7862B7D1D5D41FD9DE0649FEAAB5AB3590102622A92979C58157D5F4279636B3437BC4352AC3F99AC5B5DBF2F3DE87E04635803B54BBD70A980CE309348552677EA867E4310825B34CCF852E5D463A85C2689AE1A11BD257DEA6C9511AD4D33E2153BCCF20C7E6C4D584CCB04AF5122EEA33B
310
49A31551AC5B29BD8C5418BF2AE0974FAB0E3C303240A4AFAAC0C38F9DB57674A1CAA58344E4AECC360C1108822DD152A31BAF60A9D548A5E5FAAACE14507781815915CF7F9D2C9AED885F278BD41AC6CF9D2C68BE41741F6D1AD93C56667DD429A04E4F8ACA7B9C0274D7A1A65A271193CBADF8D69722888955901F5C8C55
310
31C310ECE3F83F27EDBE2468B6EBF07F5CD2F65F141C472595D664D5A43A50B82E5B296C7136BD997D381D5D5E9D9E8DE6372727A3F3F9D9627473EA4FFC0F0BFFF4FCA6D693211E06752CD3A90B9E4D4CAB86D593C5009AB222A72481C37CE2A41842BE8423FD80EE39CFB080DCD9EC7527B6273F60F58369734AB4A1B8E2
310
6487A03F4C05647510A38C657BDCF90D3A9312CED9172EF48CBC7BF8B356E93A90782E5CE814481263E16DA0CBA4FA799A38645C9DFA2D31886388A52A239A45F573BD4A61D38AFEF5942159C0CAD56A6140DD5640F3ABD5A0D0BC599EE2A304AFD8719084DB4D29A15833B2EC076A61F4367BF51BD92861F776EB2770DDD7
310
C5F23D3DA785C8A02F06AF1A81A13A9288A7BADDAD18B32C5D5E7F1D439BCD597E710A5AA6A0CBE194461C833197AA9E022B02ABB0340B24C15417BFAFBFF21CBEF0648E2E8AD68B3CCB72661F2EE13896C0172267B583EF3DC91AAA06ACBAEA623D9DF8D3B5EE66DB067BB441027BAA1C8281AA8A5022748C0D2CF24567CA
310
F62DC74A099DE9CB6BC7864FE802180B7AD1DC355FB71CF01EF51D45F98AF6F04ACE571BDA633D15AC81432B3AFC17504B03041400060800004E5B3140000000000000000000000000350000006662782F35333543354342322D353832382D343442382D423334462D3334333943334433443135452F76657274696365732E
310
62696E504B03041400060808004E5B3140F270F1330600000004000000360000006662782F35333543354342322D353832382D343442382D423334462D3334333943334433443135452F747269616E676C65732E62696E636660600000504B03041400060800004E5B3140000000000000000000000000370000006662782F
310
35333543354342322D353832382D343442382D423334462D3334333943334433443135452F617474726962757465732E62696E504B03041400060808004E5B3140D5987DFC8F00000041010000360000006662782F35333543354342322D353832382D343442382D423334462D3334333943334433443135452F6469726563
310
746F72792E786D6C858F410EC2201045AF4266AF15DDB800BA74E7C21B903225242D6328188F2FA5C4183471359997F9FF81E89FF3C41E1816475E02DF1F80A11FC8386F25A438EECEC07A250251FC3803E6F58C12560C4AD840E95E91C151A72936F496F35732D860FE635F62C8F2DA16B505C545B74125BAA2FA9E05D7CC
310
053D063734D5C7665FD55B6B8D15D5E9BFEAFD8490FFA45E504B03041400060808004E5B314076A904D2FB000000A00100003B0000006662782F35333543354342322D353832382D343442382D423334462D3334333943334433443135452F7265736F75726365732F636F72652E786D6C8D504B6EC32010BD0A628F0DC4B2
310
630B13D54A72825E00E1498A1283C5A7EAF10BB12BB5BB6E6646EFA3797AE2F4B53CD127F8609C1D31AB284660B59B8DBD8F38C51B39627492C23B177FC930B26A811117184B71F72EAD3BA49D8D606346AD9B610755081031D2CF7C8C38E80F5854A552CC8AF0A856A51FEA0E15AB329D755284E87300B43D29134B0FC125
310
AF21887A63A548C9CCBBC6CCF9A7B919F05872C6AFD361A2A4E7574A1ADA76A49F9A33699AE374E92EF4FCD635A22E6629A2597E326A0F2AC29CFD9471421961DD3B63036F07DE13DA0E948ABAC8FF98D23AFFD3948C8D07BEC7DD6C014B9683BC0829EAD2575EAF32F32EDDCA6F504B010214000A00000800004E5B31403D
310
EE336E79000000790000001B00000000000000000000000000000000006175746F6465736B2D64657369676E2D7061636B6167652E786D6C504B010214001400060808004E5B3140D486FD9CA0000000F40000001300000000000000000000000000B20000005B436F6E74656E745F54797065735D2E786D6C504B01021400
310
1400060808004E5B314065022A4AE90000007C010000080000000000000000000000000083010000636F72652E786D6C504B010214001400060808004E5B314055019EA25F0000007C000000070000000000000000000000000092020000636E782E786D6C504B010214001400060808004E5B3140B27EC4A0640100000203
310
00000C00000000000000000000000000160300006662782F636F72652E786D6C504B010214001400060808004E5B3140A1E9D7017D0000009D0000000B00000000000000000000000000A40400006662782F636E782E786D6C504B010214001400060808004E5B3140C3D6C2D02A0100001402000031000000000000000000
310
000000004A0500006662782F35333543354342322D353832382D343442382D423334462D3334333943334433443135452F636F72652E786D6C504B010214001400060808004E5B3140DD2A1A9655010000330300003000000000000000000000000000C30600006662782F35333543354342322D353832382D343442382D42
310
3334462D3334333943334433443135452F636E782E786D6C504B010214001400060808004E5B31400BA7789857070000931B00003400000000000000000000000000660800006662782F35333543354342322D353832382D343442382D423334462D3334333943334433443135452F6F626A656374732E786D6C504B010214
310
001400060800004E5B314000000000000000000000000035000000000000000000000000000F1000006662782F35333543354342322D353832382D343442382D423334462D3334333943334433443135452F76657274696365732E62696E504B010214001400060808004E5B3140F270F13306000000040000003600000000
310
000000000000000000621000006662782F35333543354342322D353832382D343442382D423334462D3334333943334433443135452F747269616E676C65732E62696E504B010214001400060800004E5B31400000000000000000000000003700000000000000000000000000BC1000006662782F35333543354342322D35
310
3832382D343442382D423334462D3334333943334433443135452F617474726962757465732E62696E504B010214001400060808004E5B3140D5987DFC8F000000410100003600000000000000000000000000111100006662782F35333543354342322D353832382D343442382D423334462D333433394333443344313545
310
2F6469726563746F72792E786D6C504B010214001400060808004E5B314076A904D2FB000000A00100003B00000000000000000000000000F41100006662782F35333543354342322D353832382D343442382D423334462D3334333943334433443135452F7265736F75726365732F636F72652E786D6C504B050600000000
310
0E000E0080040000481300000000
  0
XRECORD
  5
27
102
{ACAD_REACTORS
330
22
102
}
330
22
100
AcDbXrecord
280
     1
270
     1
271
     1
  0
XRECORD
  5
26
102
{ACAD_REACTORS
330
22
102
}
330
22
100
AcDbXrecord
280
     1
270
     1
271
     1
  0
XRECORD
  5
28
102
{ACAD_REACTORS
330
22
102
}
330
22
100
AcDbXrecord
280
     1
270
     1
271
     1
  0
XRECORD
  5
25
102
{ACAD_REACTORS
330
22
102
}
330
22
100
AcDbXrecord
280
     1
270
     1
271
     1
  0
XRECORD
  5
BC4
102
{ACAD_REACTORS
330
BC3
102
}
330
BC3
100
AcDbXrecord
280
     1
102
ACAD_ROUNDTRIP_2012_MLEADER_STYLE
298
     1
  0
CELLSTYLEMAP
  5
BC2
102
{ACAD_REACTORS
330
BC1
102
}
330
BC1
100
AcDbCellStyleMap
 90
        3
300
CELLSTYLE
  1
TABLEFORMAT_BEGIN
 90
        5
170
     1
 91
        0
 92
    32768
 62
   257
 93
        1
300
CONTENTFORMAT
  1
CONTENTFORMAT_BEGIN
 90
        0
 91
        0
 92
      512
 93
        0
300

 40
0.0
140
1.0
 94
        5
 62
     0
340
55
144
0.25
309
CONTENTFORMAT_END
171
     0
 94
        0
309
TABLEFORMAT_END
  1
CELLSTYLE_BEGIN
 90
        1
 91
        1
300
_TITLE
309
CELLSTYLE_END
300
CELLSTYLE
  1
TABLEFORMAT_BEGIN
 90
        5
170
     1
 91
        0
 92
        0
 62
   257
 93
        1
300
CONTENTFORMAT
  1
CONTENTFORMAT_BEGIN
 90
        0
 91
        0
 92
      512
 93
        0
300

 40
0.0
140
1.0
 94
        5
 62
     0
340
55
144
0.18
309
CONTENTFORMAT_END
171
     0
 94
        0
309
TABLEFORMAT_END
  1
CELLSTYLE_BEGIN
 90
        2
 91
        1
300
_HEADER
309
CELLSTYLE_END
300
CELLSTYLE
  1
TABLEFORMAT_BEGIN
 90
        5
170
     1
 91
        0
 92
        0
 62
   257
 93
        1
300
CONTENTFORMAT
  1
CONTENTFORMAT_BEGIN
 90
        0
 91
        0
 92
      512
 93
        0
300

 40
0.0
140
1.0
 94
        2
 62
     0
340
55
144
0.18
309
CONTENTFORMAT_END
171
     0
 94
        0
309
TABLEFORMAT_END
  1
CELLSTYLE_BEGIN
 90
        3
 91
        2
300
_DATA
309
CELLSTYLE_END
  0
XRECORD
  5
BFA
102
{ACAD_REACTORS
330
BC1
102
}
330
BC1
100
AcDbXrecord
280
     1
102
ACAD_ROUNDTRIP_PRE2007_TABLESTYLE
 90
      512
 91
        0
  1

 92
      512
 93
        0
  2

 94
      512
 95
        0
  3

  0
XRECORD
  5
BD5
102
{ACAD_REACTORS
330
BD4
102
}
330
BD4
100
AcDbXrecord
280
     1
102
RTVSPropertyOp0
 70
     1
102
RTVSPropertyOp1
 70
     1
102
RTVSPropertyOp2
 70
     1
102
RTVSPropertyOp3
 70
     1
102
RTVSPropertyOp4
 70
     1
102
RTVSPropertyOp5
 70
     1
102
RTVSPropertyOp6
 70
     1
102
RTVSPropertyOp7
 70
     1
102
RTVSPropertyOp8
 70
     1
102
RTVSPropertyOp9
 70
     1
102
RTVSPropertyOp10
 70
     1
102
RTVSPropertyOp11
 70
     1
102
RTVSPropertyOp12
 70
     1
102
RTVSPropertyOp13
 70
     1
102
RTVSPropertyOp14
 70
     1
102
RTVSPropertyOp15
 70
     1
102
RTVSPropertyOp16
 70
     1
102
RTVSPropertyOp17
 70
     1
102
RTVSPropertyOp18
 70
     1
102
RTVSPropertyOp19
 70
     1
102
RTVSPropertyOp20
 70
     1
102
RTVSPropertyOp21
 70
     1
102
RTVSPropertyOp22
 70
     1
102
RTVSPropertyOp23
 70
     1
102
RTVSPropertyOp24
 70
     1
102
RTVSPropertyOp25
 70
     1
102
RTVSPropertyOp26
 70
     1
102
RTVSPropertyOp27
 70
     1
102
RTVSPropertyOp28
 70
     1
102
RTVSPropertyOp29
 70
     1
102
RTVSPropertyOp30
 70
     1
102
RTVSPropertyOp31
 70
     1
102
RTVSPropertyOp32
 70
     1
  0
XRECORD
  5
BD3
102
{ACAD_REACTORS
330
BD2
102
}
330
BD2
100
AcDbXrecord
280
     1
102
RTVSPropertyOp0
 70
     1
102
RTVSPropertyOp1
 70
     1
102
RTVSPropertyOp2
 70
     1
102
RTVSPropertyOp3
 70
     1
102
RTVSPropertyOp4
 70
     1
102
RTVSPropertyOp5
 70
     1
102
RTVSPropertyOp6
 70
     1
102
RTVSPropertyOp7
 70
     1
102
RTVSPropertyOp8
 70
     1
102
RTVSPropertyOp9
 70
     1
102
RTVSPropertyOp10
 70
     1
102
RTVSPropertyOp11
 70
     1
102
RTVSPropertyOp12
 70
     1
102
RTVSPropertyOp13
 70
     1
102
RTVSPropertyOp14
 70
     1
102
RTVSPropertyOp15
 70
     1
102
RTVSPropertyOp16
 70
     1
102
RTVSPropertyOp17
 70
     1
102
RTVSPropertyOp18
 70
     1
102
RTVSPropertyOp19
 70
     1
102
RTVSPropertyOp20
 70
     1
102
RTVSPropertyOp21
 70
     1
102
RTVSPropertyOp22
 70
     1
102
RTVSPropertyOp23
 70
     1
102
RTVSPropertyOp24
 70
     1
102
RTVSPropertyOp25
 70
     1
102
RTVSPropertyOp26
 70
     1
102
RTVSPropertyOp27
 70
     1
102
RTVSPropertyOp28
 70
     1
102
RTVSPropertyOp29
 70
     1
102
RTVSPropertyOp30
 70
     1
102
RTVSPropertyOp31
 70
     1
102
RTVSPropertyOp32
 70
     1
  0
XRECORD
  5
BE1
102
{ACAD_REACTORS
330
BE0
102
}
330
BE0
100
AcDbXrecord
280
     1
102
RTVSPropertyOp0
 70
     1
102
RTVSPropertyOp1
 70
     1
102
RTVSPropertyOp2
 70
     1
102
RTVSPropertyOp3
 70
     1
102
RTVSPropertyOp4
 70
     1
102
RTVSPropertyOp5
 70
     1
102
RTVSPropertyOp6
 70
     1
102
RTVSPropertyOp7
 70
     1
102
RTVSPropertyOp8
 70
     1
102
RTVSPropertyOp9
 70
     1
102
RTVSPropertyOp10
 70
     1
102
RTVSPropertyOp11
 70
     1
102
RTVSPropertyOp12
 70
     1
102
RTVSPropertyOp13
 70
     1
102
RTVSPropertyOp14
 70
     1
102
RTVSPropertyOp15
 70
     1
102
RTVSPropertyOp16
 70
     1
102
RTVSPropertyOp17
 70
     1
102
RTVSPropertyOp18
 70
     1
102
RTVSPropertyOp19
 70
     1
102
RTVSPropertyOp20
 70
     1
102
RTVSPropertyOp21
 70
     1
102
RTVSPropertyOp22
 70
     1
102
RTVSPropertyOp23
 70
     1
102
RTVSPropertyOp24
 70
     1
102
RTVSPropertyOp25
 70
     1
102
RTVSPropertyOp26
 70
     1
102
RTVSPropertyOp27
 70
     1
102
RTVSPropertyOp28
 70
     1
102
RTVSPropertyOp29
 70
     1
102
RTVSPropertyOp30
 70
     1
102
RTVSPropertyOp31
 70
     1
102
RTVSPropertyOp32
 70
     1
  0
XRECORD
  5
BE9
102
{ACAD_REACTORS
330
BE8
102
}
330
BE8
100
AcDbXrecord
280
     1
102
RTVSPropertyOp0
 70
     1
102
RTVSPropertyOp1
 70
     1
102
RTVSPropertyOp2
 70
     1
102
RTVSPropertyOp3
 70
     1
102
RTVSPropertyOp4
 70
     1
102
RTVSPropertyOp5
 70
     1
102
RTVSPropertyOp6
 70
     1
102
RTVSPropertyOp7
 70
     1
102
RTVSPropertyOp8
 70
     1
102
RTVSPropertyOp9
 70
     1
102
RTVSPropertyOp10
 70
     1
102
RTVSPropertyOp11
 70
     1
102
RTVSPropertyOp12
 70
     1
102
RTVSPropertyOp13
 70
     1
102
RTVSPropertyOp14
 70
     1
102
RTVSPropertyOp15
 70
     1
102
RTVSPropertyOp16
 70
     1
102
RTVSPropertyOp17
 70
     1
102
RTVSPropertyOp18
 70
     1
102
RTVSPropertyOp19
 70
     1
102
RTVSPropertyOp20
 70
     1
102
RTVSPropertyOp21
 70
     1
102
RTVSPropertyOp22
 70
     1
102
RTVSPropertyOp23
 70
     1
102
RTVSPropertyOp24
 70
     1
102
RTVSPropertyOp25
 70
     1
102
RTVSPropertyOp26
 70
     1
102
RTVSPropertyOp27
 70
     1
102
RTVSPropertyOp28
 70
     1
102
RTVSPropertyOp29
 70
     1
102
RTVSPropertyOp30
 70
     1
102
RTVSPropertyOp31
 70
     1
102
RTVSPropertyOp32
 70
     1
  0
XRECORD
  5
BDB
102
{ACAD_REACTORS
330
BDA
102
}
330
BDA
100
AcDbXrecord
280
     1
102
RTVSPropertyOp0
 70
     1
102
RTVSPropertyOp1
 70
     1
102
RTVSPropertyOp2
 70
     1
102
RTVSPropertyOp3
 70
     1
102
RTVSPropertyOp4
 70
     1
102
RTVSPropertyOp5
 70
     1
102
RTVSPropertyOp6
 70
     1
102
RTVSPropertyOp7
 70
     1
102
RTVSPropertyOp8
 70
     1
102
RTVSPropertyOp9
 70
     1
102
RTVSPropertyOp10
 70
     1
102
RTVSPropertyOp11
 70
     1
102
RTVSPropertyOp12
 70
     1
102
RTVSPropertyOp13
 70
     1
102
RTVSPropertyOp14
 70
     1
102
RTVSPropertyOp15
 70
     1
102
RTVSPropertyOp16
 70
     1
102
RTVSPropertyOp17
 70
     1
102
RTVSPropertyOp18
 70
     1
102
RTVSPropertyOp19
 70
     1
102
RTVSPropertyOp20
 70
     1
102
RTVSPropertyOp21
 70
     1
102
RTVSPropertyOp22
 70
     1
102
RTVSPropertyOp23
 70
     1
102
RTVSPropertyOp24
 70
     1
102
RTVSPropertyOp25
 70
     1
102
RTVSPropertyOp26
 70
     1
102
RTVSPropertyOp27
 70
     1
102
RTVSPropertyOp28
 70
     1
102
RTVSPropertyOp29
 70
     1
102
RTVSPropertyOp30
 70
     1
102
RTVSPropertyOp31
 70
     1
102
RTVSPropertyOp32
 70
     1
  0
XRECORD
  5
BDF
102
{ACAD_REACTORS
330
BDE
102
}
330
BDE
100
AcDbXrecord
280
     1
102
RTVSPropertyOp0
 70
     1
102
RTVSPropertyOp1
 70
     1
102
RTVSPropertyOp2
 70
     1
102
RTVSPropertyOp3
 70
     1
102
RTVSPropertyOp4
 70
     1
102
RTVSPropertyOp5
 70
     1
102
RTVSPropertyOp6
 70
     1
102
RTVSPropertyOp7
 70
     1
102
RTVSPropertyOp8
 70
     1
102
RTVSPropertyOp9
 70
     1
102
RTVSPropertyOp10
 70
     1
102
RTVSPropertyOp11
 70
     1
102
RTVSPropertyOp12
 70
     1
102
RTVSPropertyOp13
 70
     1
102
RTVSPropertyOp14
 70
     1
102
RTVSPropertyOp15
 70
     1
102
RTVSPropertyOp16
 70
     1
102
RTVSPropertyOp17
 70
     1
102
RTVSPropertyOp18
 70
     1
102
RTVSPropertyOp19
 70
     1
102
RTVSPropertyOp20
 70
     1
102
RTVSPropertyOp21
 70
     1
102
RTVSPropertyOp22
 70
     1
102
RTVSPropertyOp23
 70
     1
102
RTVSPropertyOp24
 70
     1
102
RTVSPropertyOp25
 70
     1
102
RTVSPropertyOp26
 70
     1
102
RTVSPropertyOp27
 70
     1
102
RTVSPropertyOp28
 70
     1
102
RTVSPropertyOp29
 70
     1
102
RTVSPropertyOp30
 70
     1
102
RTVSPropertyOp31
 70
     1
102
RTVSPropertyOp32
 70
     1
  0
XRECORD
  5
BF9
102
{ACAD_REACTORS
330
BF8
102
}
330
BF8
100
AcDbXrecord
280
     1
102
RTVSPropertyOp0
 70
     0
102
RTVSPropertyOp1
 70
     0
102
RTVSPropertyOp2
 70
     0
102
RTVSPropertyOp3
 70
     0
102
RTVSPropertyOp4
 70
     0
102
RTVSPropertyOp5
 70
     0
102
RTVSPropertyOp6
 70
     0
102
RTVSPropertyOp7
 70
     0
102
RTVSPropertyOp8
 70
     0
102
RTVSPropertyOp9
 70
     0
102
RTVSPropertyOp10
 70
     0
102
RTVSPropertyOp11
 70
     0
102
RTVSPropertyOp12
 70
     0
102
RTVSPropertyOp13
 70
     0
102
RTVSPropertyOp14
 70
     2
102
RTVSPropertyOp15
 70
     0
102
RTVSPropertyOp16
 70
     0
102
RTVSPropertyOp17
 70
     0
102
RTVSPropertyOp18
 70
     0
102
RTVSPropertyOp19
 70
     0
102
RTVSPropertyOp20
 70
     0
102
RTVSPropertyOp21
 70
     0
102
RTVSPropertyOp22
 70
     0
102
RTVSPropertyOp23
 70
     0
102
RTVSPropertyOp24
 70
     0
102
RTVSPropertyOp25
 70
     0
102
RTVSPropertyOp26
 70
     0
102
RTVSPropertyOp27
 70
     0
102
RTVSPropertyOp28
 70
     1
102
RTVSPropertyOp29
 70
     1
102
RTVSPropertyOp30
 70
     1
102
RTVSPropertyOp31
 70
     1
102
RTVSPropertyOp32
 70
     1
  0
XRECORD
  5
BE7
102
{ACAD_REACTORS
330
BE6
102
}
330
BE6
100
AcDbXrecord
280
     1
102
RTVSPropertyOp0
 70
     1
102
RTVSPropertyOp1
 70
     1
102
RTVSPropertyOp2
 70
     1
102
RTVSPropertyOp3
 70
     1
102
RTVSPropertyOp4
 70
     1
102
RTVSPropertyOp5
 70
     1
102
RTVSPropertyOp6
 70
     1
102
RTVSPropertyOp7
 70
     1
102
RTVSPropertyOp8
 70
     1
102
RTVSPropertyOp9
 70
     1
102
RTVSPropertyOp10
 70
     1
102
RTVSPropertyOp11
 70
     1
102
RTVSPropertyOp12
 70
     1
102
RTVSPropertyOp13
 70
     1
102
RTVSPropertyOp14
 70
     1
102
RTVSPropertyOp15
 70
     1
102
RTVSPropertyOp16
 70
     1
102
RTVSPropertyOp17
 70
     1
102
RTVSPropertyOp18
 70
     1
102
RTVSPropertyOp19
 70
     1
102
RTVSPropertyOp20
 70
     1
102
RTVSPropertyOp21
 70
     1
102
RTVSPropertyOp22
 70
     1
102
RTVSPropertyOp23
 70
     1
102
RTVSPropertyOp24
 70
     1
102
RTVSPropertyOp25
 70
     1
102
RTVSPropertyOp26
 70
     1
102
RTVSPropertyOp27
 70
     1
102
RTVSPropertyOp28
 70
     1
102
RTVSPropertyOp29
 70
     1
102
RTVSPropertyOp30
 70
     1
102
RTVSPropertyOp31
 70
     1
102
RTVSPropertyOp32
 70
     1
  0
XRECORD
  5
BCB
102
{ACAD_REACTORS
330
BCA
102
}
330
BCA
100
AcDbXrecord
280
     1
102
RTVSPropertyOp0
 70
     1
102
RTVSPropertyOp1
 70
     1
102
RTVSPropertyOp2
 70
     1
102
RTVSPropertyOp3
 70
     1
102
RTVSPropertyOp4
 70
     1
102
RTVSPropertyOp5
 70
     1
102
RTVSPropertyOp6
 70
     1
102
RTVSPropertyOp7
 70
     1
102
RTVSPropertyOp8
 70
     1
102
RTVSPropertyOp9
 70
     1
102
RTVSPropertyOp10
 70
     1
102
RTVSPropertyOp11
 70
     1
102
RTVSPropertyOp12
 70
     1
102
RTVSPropertyOp13
 70
     1
102
RTVSPropertyOp14
 70
     1
102
RTVSPropertyOp15
 70
     1
102
RTVSPropertyOp16
 70
     1
102
RTVSPropertyOp17
 70
     1
102
RTVSPropertyOp18
 70
     1
102
RTVSPropertyOp19
 70
     1
102
RTVSPropertyOp20
 70
     1
102
RTVSPropertyOp21
 70
     1
102
RTVSPropertyOp22
 70
     1
102
RTVSPropertyOp23
 70
     1
102
RTVSPropertyOp24
 70
     1
102
RTVSPropertyOp25
 70
     1
102
RTVSPropertyOp26
 70
     1
102
RTVSPropertyOp27
 70
     1
102
RTVSPropertyOp28
 70
     1
102
RTVSPropertyOp29
 70
     1
102
RTVSPropertyOp30
 70
     1
102
RTVSPropertyOp31
 70
     1
102
RTVSPropertyOp32
 70
     1
  0
XRECORD
  5
BCD
102
{ACAD_REACTORS
330
BCC
102
}
330
BCC
100
AcDbXrecord
280
     1
102
RTVSPropertyOp0
 70
     1
102
RTVSPropertyOp1
 70
     1
102
RTVSPropertyOp2
 70
     1
102
RTVSPropertyOp3
 70
     1
102
RTVSPropertyOp4
 70
     1
102
RTVSPropertyOp5
 70
     1
102
RTVSPropertyOp6
 70
     1
102
RTVSPropertyOp7
 70
     1
102
RTVSPropertyOp8
 70
     1
102
RTVSPropertyOp9
 70
     1
102
RTVSPropertyOp10
 70
     1
102
RTVSPropertyOp11
 70
     1
102
RTVSPropertyOp12
 70
     1
102
RTVSPropertyOp13
 70
     1
102
RTVSPropertyOp14
 70
     1
102
RTVSPropertyOp15
 70
     1
102
RTVSPropertyOp16
 70
     1
102
RTVSPropertyOp17
 70
     1
102
RTVSPropertyOp18
 70
     1
102
RTVSPropertyOp19
 70
     1
102
RTVSPropertyOp20
 70
     1
102
RTVSPropertyOp21
 70
     1
102
RTVSPropertyOp22
 70
     1
102
RTVSPropertyOp23
 70
     1
102
RTVSPropertyOp24
 70
     1
102
RTVSPropertyOp25
 70
     1
102
RTVSPropertyOp26
 70
     1
102
RTVSPropertyOp27
 70
     1
102
RTVSPropertyOp28
 70
     1
102
RTVSPropertyOp29
 70
     1
102
RTVSPropertyOp30
 70
     1
102
RTVSPropertyOp31
 70
     1
102
RTVSPropertyOp32
 70
     1
  0
XRECORD
  5
BCF
102
{ACAD_REACTORS
330
BCE
102
}
330
BCE
100
AcDbXrecord
280
     1
102
RTVSPropertyOp0
 70
     1
102
RTVSPropertyOp1
 70
     1
102
RTVSPropertyOp2
 70
     1
102
RTVSPropertyOp3
 70
     1
102
RTVSPropertyOp4
 70
     1
102
RTVSPropertyOp5
 70
     1
102
RTVSPropertyOp6
 70
     1
102
RTVSPropertyOp7
 70
     1
102
RTVSPropertyOp8
 70
     1
102
RTVSPropertyOp9
 70
     1
102
RTVSPropertyOp10
 70
     1
102
RTVSPropertyOp11
 70
     1
102
RTVSPropertyOp12
 70
     1
102
RTVSPropertyOp13
 70
     1
102
RTVSPropertyOp14
 70
     1
102
RTVSPropertyOp15
 70
     1
102
RTVSPropertyOp16
 70
     1
102
RTVSPropertyOp17
 70
     1
102
RTVSPropertyOp18
 70
     1
102
RTVSPropertyOp19
 70
     1
102
RTVSPropertyOp20
 70
     1
102
RTVSPropertyOp21
 70
     1
102
RTVSPropertyOp22
 70
     1
102
RTVSPropertyOp23
 70
     1
102
RTVSPropertyOp24
 70
     1
102
RTVSPropertyOp25
 70
     1
102
RTVSPropertyOp26
 70
     1
102
RTVSPropertyOp27
 70
     1
102
RTVSPropertyOp28
 70
     1
102
RTVSPropertyOp29
 70
     1
102
RTVSPropertyOp30
 70
     1
102
RTVSPropertyOp31
 70
     1
102
RTVSPropertyOp32
 70
     1
  0
XRECORD
  5
BD1
102
{ACAD_REACTORS
330
BD0
102
}
330
BD0
100
AcDbXrecord
280
     1
102
RTVSPropertyOp0
 70
     1
102
RTVSPropertyOp1
 70
     1
102
RTVSPropertyOp2
 70
     1
102
RTVSPropertyOp3
 70
     1
102
RTVSPropertyOp4
 70
     1
102
RTVSPropertyOp5
 70
     1
102
RTVSPropertyOp6
 70
     1
102
RTVSPropertyOp7
 70
     1
102
RTVSPropertyOp8
 70
     1
102
RTVSPropertyOp9
 70
     1
102
RTVSPropertyOp10
 70
     1
102
RTVSPropertyOp11
 70
     1
102
RTVSPropertyOp12
 70
     1
102
RTVSPropertyOp13
 70
     1
102
RTVSPropertyOp14
 70
     1
102
RTVSPropertyOp15
 70
     1
102
RTVSPropertyOp16
 70
     1
102
RTVSPropertyOp17
 70
     1
102
RTVSPropertyOp18
 70
     1
102
RTVSPropertyOp19
 70
     1
102
RTVSPropertyOp20
 70
     1
102
RTVSPropertyOp21
 70
     1
102
RTVSPropertyOp22
 70
     1
102
RTVSPropertyOp23
 70
     1
102
RTVSPropertyOp24
 70
     1
102
RTVSPropertyOp25
 70
     1
102
RTVSPropertyOp26
 70
     1
102
RTVSPropertyOp27
 70
     1
102
RTVSPropertyOp28
 70
     1
102
RTVSPropertyOp29
 70
     1
102
RTVSPropertyOp30
 70
     1
102
RTVSPropertyOp31
 70
     1
102
RTVSPropertyOp32
 70
     1
  0
XRECORD
  5
BD9
102
{ACAD_REACTORS
330
BD8
102
}
330
BD8
100
AcDbXrecord
280
     1
102
RTVSPropertyOp0
 70
     1
102
RTVSPropertyOp1
 70
     1
102
RTVSPropertyOp2
 70
     1
102
RTVSPropertyOp3
 70
     1
102
RTVSPropertyOp4
 70
     1
102
RTVSPropertyOp5
 70
     1
102
RTVSPropertyOp6
 70
     1
102
RTVSPropertyOp7
 70
     1
102
RTVSPropertyOp8
 70
     1
102
RTVSPropertyOp9
 70
     1
102
RTVSPropertyOp10
 70
     1
102
RTVSPropertyOp11
 70
     1
102
RTVSPropertyOp12
 70
     1
102
RTVSPropertyOp13
 70
     1
102
RTVSPropertyOp14
 70
     1
102
RTVSPropertyOp15
 70
     1
102
RTVSPropertyOp16
 70
     1
102
RTVSPropertyOp17
 70
     1
102
RTVSPropertyOp18
 70
     1
102
RTVSPropertyOp19
 70
     1
102
RTVSPropertyOp20
 70
     1
102
RTVSPropertyOp21
 70
     1
102
RTVSPropertyOp22
 70
     1
102
RTVSPropertyOp23
 70
     1
102
RTVSPropertyOp24
 70
     1
102
RTVSPropertyOp25
 70
     1
102
RTVSPropertyOp26
 70
     1
102
RTVSPropertyOp27
 70
     1
102
RTVSPropertyOp28
 70
     1
102
RTVSPropertyOp29
 70
     1
102
RTVSPropertyOp30
 70
     1
102
RTVSPropertyOp31
 70
     1
102
RTVSPropertyOp32
 70
     1
  0
XRECORD
  5
BF5
102
{ACAD_REACTORS
330
BF4
102
}
330
BF4
100
AcDbXrecord
280
     1
102
RTVSPropertyOp0
 70
     0
102
RTVSPropertyOp1
 70
     0
102
RTVSPropertyOp2
 70
     0
102
RTVSPropertyOp3
 70
     0
102
RTVSPropertyOp4
 70
     0
102
RTVSPropertyOp5
 70
     0
102
RTVSPropertyOp6
 70
     0
102
RTVSPropertyOp7
 70
     0
102
RTVSPropertyOp8
 70
     0
102
RTVSPropertyOp9
 70
     0
102
RTVSPropertyOp10
 70
     0
102
RTVSPropertyOp11
 70
     0
102
RTVSPropertyOp12
 70
     0
102
RTVSPropertyOp13
 70
     0
102
RTVSPropertyOp14
 70
     2
102
RTVSPropertyOp15
 70
     0
102
RTVSPropertyOp16
 70
     0
102
RTVSPropertyOp17
 70
     0
102
RTVSPropertyOp18
 70
     0
102
RTVSPropertyOp19
 70
     0
102
RTVSPropertyOp20
 70
     0
102
RTVSPropertyOp21
 70
     0
102
RTVSPropertyOp22
 70
     0
102
RTVSPropertyOp23
 70
     0
102
RTVSPropertyOp24
 70
     0
102
RTVSPropertyOp25
 70
     0
102
RTVSPropertyOp26
 70
     0
102
RTVSPropertyOp27
 70
     0
102
RTVSPropertyOp28
 70
     1
102
RTVSPropertyOp29
 70
     1
102
RTVSPropertyOp30
 70
     1
102
RTVSPropertyOp31
 70
     1
102
RTVSPropertyOp32
 70
     1
  0
XRECORD
  5
BE5
102
{ACAD_REACTORS
330
BE4
102
}
330
BE4
100
AcDbXrecord
280
     1
102
RTVSPropertyOp0
 70
     1
102
RTVSPropertyOp1
 70
     1
102
RTVSPropertyOp2
 70
     1
102
RTVSPropertyOp3
 70
     1
102
RTVSPropertyOp4
 70
     1
102
RTVSPropertyOp5
 70
     1
102
RTVSPropertyOp6
 70
     1
102
RTVSPropertyOp7
 70
     1
102
RTVSPropertyOp8
 70
     1
102
RTVSPropertyOp9
 70
     1
102
RTVSPropertyOp10
 70
     1
102
RTVSPropertyOp11
 70
     1
102
RTVSPropertyOp12
 70
     1
102
RTVSPropertyOp13
 70
     1
102
RTVSPropertyOp14
 70
     1
102
RTVSPropertyOp15
 70
     1
102
RTVSPropertyOp16
 70
     1
102
RTVSPropertyOp17
 70
     1
102
RTVSPropertyOp18
 70
     1
102
RTVSPropertyOp19
 70
     1
102
RTVSPropertyOp20
 70
     1
102
RTVSPropertyOp21
 70
     1
102
RTVSPropertyOp22
 70
     1
102
RTVSPropertyOp23
 70
     1
102
RTVSPropertyOp24
 70
     1
102
RTVSPropertyOp25
 70
     1
102
RTVSPropertyOp26
 70
     1
102
RTVSPropertyOp27
 70
     1
102
RTVSPropertyOp28
 70
     1
102
RTVSPropertyOp29
 70
     1
102
RTVSPropertyOp30
 70
     1
102
RTVSPropertyOp31
 70
     1
102
RTVSPropertyOp32
 70
     1
  0
XRECORD
  5
BF7
102
{ACAD_REACTORS
330
BF6
102
}
330
BF6
100
AcDbXrecord
280
     1
102
RTVSPropertyOp0
 70
     0
102
RTVSPropertyOp1
 70
     0
102
RTVSPropertyOp2
 70
     0
102
RTVSPropertyOp3
 70
     0
102
RTVSPropertyOp4
 70
     0
102
RTVSPropertyOp5
 70
     0
102
RTVSPropertyOp6
 70
     0
102
RTVSPropertyOp7
 70
     0
102
RTVSPropertyOp8
 70
     0
102
RTVSPropertyOp9
 70
     0
102
RTVSPropertyOp10
 70
     0
102
RTVSPropertyOp11
 70
     0
102
RTVSPropertyOp12
 70
     0
102
RTVSPropertyOp13
 70
     0
102
RTVSPropertyOp14
 70
     2
102
RTVSPropertyOp15
 70
     0
102
RTVSPropertyOp16
 70
     0
102
RTVSPropertyOp17
 70
     0
102
RTVSPropertyOp18
 70
     0
102
RTVSPropertyOp19
 70
     0
102
RTVSPropertyOp20
 70
     0
102
RTVSPropertyOp21
 70
     0
102
RTVSPropertyOp22
 70
     0
102
RTVSPropertyOp23
 70
     0
102
RTVSPropertyOp24
 70
     0
102
RTVSPropertyOp25
 70
     0
102
RTVSPropertyOp26
 70
     0
102
RTVSPropertyOp27
 70
     0
102
RTVSPropertyOp28
 70
     1
102
RTVSPropertyOp29
 70
     1
102
RTVSPropertyOp30
 70
     1
102
RTVSPropertyOp31
 70
     1
102
RTVSPropertyOp32
 70
     1
  0
XRECORD
  5
BDD
102
{ACAD_REACTORS
330
BDC
102
}
330
BDC
100
AcDbXrecord
280
     1
102
RTVSPropertyOp0
 70
     1
102
RTVSPropertyOp1
 70
     1
102
RTVSPropertyOp2
 70
     1
102
RTVSPropertyOp3
 70
     1
102
RTVSPropertyOp4
 70
     1
102
RTVSPropertyOp5
 70
     1
102
RTVSPropertyOp6
 70
     1
102
RTVSPropertyOp7
 70
     1
102
RTVSPropertyOp8
 70
     1
102
RTVSPropertyOp9
 70
     1
102
RTVSPropertyOp10
 70
     1
102
RTVSPropertyOp11
 70
     1
102
RTVSPropertyOp12
 70
     1
102
RTVSPropertyOp13
 70
     1
102
RTVSPropertyOp14
 70
     1
102
RTVSPropertyOp15
 70
     1
102
RTVSPropertyOp16
 70
     1
102
RTVSPropertyOp17
 70
     1
102
RTVSPropertyOp18
 70
     1
102
RTVSPropertyOp19
 70
     1
102
RTVSPropertyOp20
 70
     1
102
RTVSPropertyOp21
 70
     1
102
RTVSPropertyOp22
 70
     1
102
RTVSPropertyOp23
 70
     1
102
RTVSPropertyOp24
 70
     1
102
RTVSPropertyOp25
 70
     1
102
RTVSPropertyOp26
 70
     1
102
RTVSPropertyOp27
 70
     1
102
RTVSPropertyOp28
 70
     1
102
RTVSPropertyOp29
 70
     1
102
RTVSPropertyOp30
 70
     1
102
RTVSPropertyOp31
 70
     1
102
RTVSPropertyOp32
 70
     1
  0
XRECORD
  5
BF3
102
{ACAD_REACTORS
330
BF2
102
}
330
BF2
100
AcDbXrecord
280
     1
102
RTVSPropertyOp0
 70
     1
102
RTVSPropertyOp1
 70
     1
102
RTVSPropertyOp2
 70
     1
102
RTVSPropertyOp3
 70
     1
102
RTVSPropertyOp4
 70
     1
102
RTVSPropertyOp5
 70
     1
102
RTVSPropertyOp6
 70
     1
102
RTVSPropertyOp7
 70
     1
102
RTVSPropertyOp8
 70
     1
102
RTVSPropertyOp9
 70
     1
102
RTVSPropertyOp10
 70
     1
102
RTVSPropertyOp11
 70
     1
102
RTVSPropertyOp12
 70
     1
102
RTVSPropertyOp13
 70
     1
102
RTVSPropertyOp14
 70
     1
102
RTVSPropertyOp15
 70
     1
102
RTVSPropertyOp16
 70
     1
102
RTVSPropertyOp17
 70
     1
102
RTVSPropertyOp18
 70
     1
102
RTVSPropertyOp19
 70
     1
102
RTVSPropertyOp20
 70
     1
102
RTVSPropertyOp21
 70
     1
102
RTVSPropertyOp22
 70
     1
102
RTVSPropertyOp23
 70
     1
102
RTVSPropertyOp24
 70
     1
102
RTVSPropertyOp25
 70
     1
102
RTVSPropertyOp26
 70
     1
102
RTVSPropertyOp27
 70
     1
102
RTVSPropertyOp28
 70
     1
102
RTVSPropertyOp29
 70
     1
102
RTVSPropertyOp30
 70
     1
102
RTVSPropertyOp31
 70
     1
102
RTVSPropertyOp32
 70
     1
  0
XRECORD
  5
BF1
102
{ACAD_REACTORS
330
BF0
102
}
330
BF0
100
AcDbXrecord
280
     1
102
RTVSPropertyOp0
 70
     1
102
RTVSPropertyOp1
 70
     1
102
RTVSPropertyOp2
 70
     1
102
RTVSPropertyOp3
 70
     1
102
RTVSPropertyOp4
 70
     1
102
RTVSPropertyOp5
 70
     1
102
RTVSPropertyOp6
 70
     1
102
RTVSPropertyOp7
 70
     1
102
RTVSPropertyOp8
 70
     1
102
RTVSPropertyOp9
 70
     1
102
RTVSPropertyOp10
 70
     1
102
RTVSPropertyOp11
 70
     1
102
RTVSPropertyOp12
 70
     1
102
RTVSPropertyOp13
 70
     1
102
RTVSPropertyOp14
 70
     1
102
RTVSPropertyOp15
 70
     1
102
RTVSPropertyOp16
 70
     1
102
RTVSPropertyOp17
 70
     1
102
RTVSPropertyOp18
 70
     1
102
RTVSPropertyOp19
 70
     1
102
RTVSPropertyOp20
 70
     1
102
RTVSPropertyOp21
 70
     1
102
RTVSPropertyOp22
 70
     1
102
RTVSPropertyOp23
 70
     1
102
RTVSPropertyOp24
 70
     1
102
RTVSPropertyOp25
 70
     1
102
RTVSPropertyOp26
 70
     1
102
RTVSPropertyOp27
 70
     1
102
RTVSPropertyOp28
 70
     1
102
RTVSPropertyOp29
 70
     1
102
RTVSPropertyOp30
 70
     1
102
RTVSPropertyOp31
 70
     1
102
RTVSPropertyOp32
 70
     1
  0
XRECORD
  5
BEB
102
{ACAD_REACTORS
330
BEA
102
}
330
BEA
100
AcDbXrecord
280
     1
102
RTVSPropertyOp0
 70
     1
102
RTVSPropertyOp1
 70
     1
102
RTVSPropertyOp2
 70
     1
102
RTVSPropertyOp3
 70
     1
102
RTVSPropertyOp4
 70
     1
102
RTVSPropertyOp5
 70
     1
102
RTVSPropertyOp6
 70
     1
102
RTVSPropertyOp7
 70
     1
102
RTVSPropertyOp8
 70
     1
102
RTVSPropertyOp9
 70
     1
102
RTVSPropertyOp10
 70
     1
102
RTVSPropertyOp11
 70
     1
102
RTVSPropertyOp12
 70
     1
102
RTVSPropertyOp13
 70
     1
102
RTVSPropertyOp14
 70
     1
102
RTVSPropertyOp15
 70
     1
102
RTVSPropertyOp16
 70
     1
102
RTVSPropertyOp17
 70
     1
102
RTVSPropertyOp18
 70
     1
102
RTVSPropertyOp19
 70
     1
102
RTVSPropertyOp20
 70
     1
102
RTVSPropertyOp21
 70
     1
102
RTVSPropertyOp22
 70
     1
102
RTVSPropertyOp23
 70
     1
102
RTVSPropertyOp24
 70
     1
102
RTVSPropertyOp25
 70
     1
102
RTVSPropertyOp26
 70
     1
102
RTVSPropertyOp27
 70
     1
102
RTVSPropertyOp28
 70
     1
102
RTVSPropertyOp29
 70
     1
102
RTVSPropertyOp30
 70
     1
102
RTVSPropertyOp31
 70
     1
102
RTVSPropertyOp32
 70
     1
  0
XRECORD
  5
BED
102
{ACAD_REACTORS
330
BEC
102
}
330
BEC
100
AcDbXrecord
280
     1
102
RTVSPropertyOp0
 70
     1
102
RTVSPropertyOp1
 70
     1
102
RTVSPropertyOp2
 70
     1
102
RTVSPropertyOp3
 70
     1
102
RTVSPropertyOp4
 70
     1
102
RTVSPropertyOp5
 70
     1
102
RTVSPropertyOp6
 70
     1
102
RTVSPropertyOp7
 70
     1
102
RTVSPropertyOp8
 70
     1
102
RTVSPropertyOp9
 70
     1
102
RTVSPropertyOp10
 70
     1
102
RTVSPropertyOp11
 70
     1
102
RTVSPropertyOp12
 70
     1
102
RTVSPropertyOp13
 70
     1
102
RTVSPropertyOp14
 70
     1
102
RTVSPropertyOp15
 70
     1
102
RTVSPropertyOp16
 70
     1
102
RTVSPropertyOp17
 70
     1
102
RTVSPropertyOp18
 70
     1
102
RTVSPropertyOp19
 70
     1
102
RTVSPropertyOp20
 70
     1
102
RTVSPropertyOp21
 70
     1
102
RTVSPropertyOp22
 70
     1
102
RTVSPropertyOp23
 70
     1
102
RTVSPropertyOp24
 70
     1
102
RTVSPropertyOp25
 70
     1
102
RTVSPropertyOp26
 70
     1
102
RTVSPropertyOp27
 70
     1
102
RTVSPropertyOp28
 70
     1
102
RTVSPropertyOp29
 70
     1
102
RTVSPropertyOp30
 70
     1
102
RTVSPropertyOp31
 70
     1
102
RTVSPropertyOp32
 70
     1
  0
XRECORD
  5
BE3
102
{ACAD_REACTORS
330
BE2
102
}
330
BE2
100
AcDbXrecord
280
     1
102
RTVSPropertyOp0
 70
     1
102
RTVSPropertyOp1
 70
     1
102
RTVSPropertyOp2
 70
     1
102
RTVSPropertyOp3
 70
     1
102
RTVSPropertyOp4
 70
     1
102
RTVSPropertyOp5
 70
     1
102
RTVSPropertyOp6
 70
     1
102
RTVSPropertyOp7
 70
     1
102
RTVSPropertyOp8
 70
     1
102
RTVSPropertyOp9
 70
     1
102
RTVSPropertyOp10
 70
     1
102
RTVSPropertyOp11
 70
     1
102
RTVSPropertyOp12
 70
     1
102
RTVSPropertyOp13
 70
     1
102
RTVSPropertyOp14
 70
     1
102
RTVSPropertyOp15
 70
     1
102
RTVSPropertyOp16
 70
     1
102
RTVSPropertyOp17
 70
     1
102
RTVSPropertyOp18
 70
     1
102
RTVSPropertyOp19
 70
     1
102
RTVSPropertyOp20
 70
     1
102
RTVSPropertyOp21
 70
     1
102
RTVSPropertyOp22
 70
     1
102
RTVSPropertyOp23
 70
     1
102
RTVSPropertyOp24
 70
     1
102
RTVSPropertyOp25
 70
     1
102
RTVSPropertyOp26
 70
     1
102
RTVSPropertyOp27
 70
     1
102
RTVSPropertyOp28
 70
     1
102
RTVSPropertyOp29
 70
     1
102
RTVSPropertyOp30
 70
     1
102
RTVSPropertyOp31
 70
     1
102
RTVSPropertyOp32
 70
     1
  0
XRECORD
  5
BD7
102
{ACAD_REACTORS
330
BD6
102
}
330
BD6
100
AcDbXrecord
280
     1
102
RTVSPropertyOp0
 70
     1
102
RTVSPropertyOp1
 70
     1
102
RTVSPropertyOp2
 70
     1
102
RTVSPropertyOp3
 70
     1
102
RTVSPropertyOp4
 70
     1
102
RTVSPropertyOp5
 70
     1
102
RTVSPropertyOp6
 70
     1
102
RTVSPropertyOp7
 70
     1
102
RTVSPropertyOp8
 70
     1
102
RTVSPropertyOp9
 70
     1
102
RTVSPropertyOp10
 70
     1
102
RTVSPropertyOp11
 70
     1
102
RTVSPropertyOp12
 70
     1
102
RTVSPropertyOp13
 70
     1
102
RTVSPropertyOp14
 70
     1
102
RTVSPropertyOp15
 70
     1
102
RTVSPropertyOp16
 70
     1
102
RTVSPropertyOp17
 70
     1
102
RTVSPropertyOp18
 70
     1
102
RTVSPropertyOp19
 70
     1
102
RTVSPropertyOp20
 70
     1
102
RTVSPropertyOp21
 70
     1
102
RTVSPropertyOp22
 70
     1
102
RTVSPropertyOp23
 70
     1
102
RTVSPropertyOp24
 70
     1
102
RTVSPropertyOp25
 70
     1
102
RTVSPropertyOp26
 70
     1
102
RTVSPropertyOp27
 70
     1
102
RTVSPropertyOp28
 70
     1
102
RTVSPropertyOp29
 70
     1
102
RTVSPropertyOp30
 70
     1
102
RTVSPropertyOp31
 70
     1
102
RTVSPropertyOp32
 70
     1
  0
XRECORD
  5
BEF
102
{ACAD_REACTORS
330
BEE
102
}
330
BEE
100
AcDbXrecord
280
     1
102
RTVSPropertyOp0
 70
     1
102
RTVSPropertyOp1
 70
     1
102
RTVSPropertyOp2
 70
     1
102
RTVSPropertyOp3
 70
     1
102
RTVSPropertyOp4
 70
     1
102
RTVSPropertyOp5
 70
     1
102
RTVSPropertyOp6
 70
     1
102
RTVSPropertyOp7
 70
     1
102
RTVSPropertyOp8
 70
     1
102
RTVSPropertyOp9
 70
     1
102
RTVSPropertyOp10
 70
     1
102
RTVSPropertyOp11
 70
     1
102
RTVSPropertyOp12
 70
     1
102
RTVSPropertyOp13
 70
     1
102
RTVSPropertyOp14
 70
     1
102
RTVSPropertyOp15
 70
     1
102
RTVSPropertyOp16
 70
     1
102
RTVSPropertyOp17
 70
     1
102
RTVSPropertyOp18
 70
     1
102
RTVSPropertyOp19
 70
     1
102
RTVSPropertyOp20
 70
     1
102
RTVSPropertyOp21
 70
     1
102
RTVSPropertyOp22
 70
     1
102
RTVSPropertyOp23
 70
     1
102
RTVSPropertyOp24
 70
     1
102
RTVSPropertyOp25
 70
     1
102
RTVSPropertyOp26
 70
     1
102
RTVSPropertyOp27
 70
     1
102
RTVSPropertyOp28
 70
     1
102
RTVSPropertyOp29
 70
     1
102
RTVSPropertyOp30
 70
     1
102
RTVSPropertyOp31
 70
     1
102
RTVSPropertyOp32
 70
     1
  0
ENDSEC
  0
EOF
