  0
SECTION
  2
HEADER
  9
$ACADVER
  1
AC1015
  9
$ACADMAINTVER
 70
    18
  9
$DWGCODEPAGE
  3
ANSI_1252
  9
$INSBASE
 10
0.0
 20
0.0
 30
0.0
  9
$EXTMIN
 10
0.0
 20
0.0
 30
0.0
  9
$EXTMAX
 10
56.66666666666667
 20
36.66666666666667
 30
0.0
  9
$LIMMIN
 10
0.0
 20
0.0
  9
$LIMMAX
 10
56.66666666666667
 20
36.66666666666667
  9
$ORTHOMODE
 70
     0
  9
$REGENMODE
 70
     1
  9
$FILLMODE
 70
     1
  9
$QTEXTMODE
 70
     0
  9
$MIRRTEXT
 70
     0
  9
$LTSCALE
 40
3.333333333333333
  9
$ATTMODE
 70
     1
  9
$TEXTSIZE
 40
0.2
  9
$TRACEWID
 40
0.05
  9
$TEXTSTYLE
  7
Standard
  9
$CLAYER
  8
0
  9
$CELTYPE
  6
ByLayer
  9
$CECOLOR
 62
   256
  9
$CELTSCALE
 40
1.0
  9
$DISPSILH
 70
     0
  9
$DIMSCALE
 40
1.0
  9
$DIMASZ
 40
0.0708661417322835
  9
$DIMEXO
 40
0.0625
  9
$DIMDLI
 40
0.38
  9
$DIMRND
 40
0.0
  9
$DIMDLE
 40
0.0
  9
$DIMEXE
 40
0.18
  9
$DIMTP
 40
0.0
  9
$DIMTM
 40
0.0
  9
$DIMTXT
 40
0.0708661417322835
  9
$DIMCEN
 40
0.09
  9
$DIMTSZ
 40
0.0
  9
$DIMTOL
 70
     0
  9
$DIMLIM
 70
     0
  9
$DIMTIH
 70
     1
  9
$DIMTOH
 70
     1
  9
$DIMSE1
 70
     0
  9
$DIMSE2
 70
     0
  9
$DIMTAD
 70
     0
  9
$DIMZIN
 70
     0
  9
$DIMBLK
  1

  9
$DIMASO
 70
     1
  9
$DIMSHO
 70
     1
  9
$DIMPOST
  1

  9
$DIMAPOST
  1

  9
$DIMALT
 70
     0
  9
$DIMALTD
 70
     2
  9
$DIMALTF
 40
25.4
  9
$DIMLFAC
 40
1.0
  9
$DIMTOFL
 70
     0
  9
$DIMTVP
 40
0.0
  9
$DIMTIX
 70
     0
  9
$DIMSOXD
 70
     0
  9
$DIMSAH
 70
     0
  9
$DIMBLK1
  1

  9
$DIMBLK2
  1

  9
$DIMSTYLE
  2
Standard
  9
$DIMCLRD
 70
     0
  9
$DIMCLRE
 70
     0
  9
$DIMCLRT
 70
     0
  9
$DIMTFAC
 40
1.0
  9
$DIMGAP
 40
0.09
  9
$DIMJUST
 70
     0
  9
$DIMSD1
 70
     0
  9
$DIMSD2
 70
     0
  9
$DIMTOLJ
 70
     1
  9
$DIMTZIN
 70
     0
  9
$DIMALTZ
 70
     0
  9
$DIMALTTZ
 70
     0
  9
$DIMUPT
 70
     0
  9
$DIMDEC
 70
     4
  9
$DIMTDEC
 70
     4
  9
$DIMALTU
 70
     2
  9
$DIMALTTD
 70
     2
  9
$DIMTXSTY
  7
Standard
  9
$DIMAUNIT
 70
     0
  9
$DIMADEC
 70
     0
  9
$DIMALTRND
 40
0.0
  9
$DIMAZIN
 70
     0
  9
$DIMDSEP
 70
    46
  9
$DIMATFIT
 70
     3
  9
$DIMFRAC
 70
     0
  9
$DIMLDRBLK
  1

  9
$DIMLUNIT
 70
     2
  9
$DIMLWD
 70
    -2
  9
$DIMLWE
 70
    -2
  9
$DIMTMOVE
 70
     0
  9
$LUNITS
 70
     2
  9
$LUPREC
 70
     4
  9
$SKETCHINC
 40
0.1
  9
$FILLETRAD
 40
0.0
  9
$AUNITS
 70
     0
  9
$AUPREC
 70
     0
  9
$MENU
  1
.
  9
$ELEVATION
 40
0.0
  9
$PELEVATION
 40
0.0
  9
$THICKNESS
 40
0.0
  9
$LIMCHECK
 70
     0
  9
$CHAMFERA
 40
0.0
  9
$CHAMFERB
 40
0.0
  9
$CHAMFERC
 40
0.0
  9
$CHAMFERD
 40
0.0
  9
$SKPOLY
 70
     0
  9
$TDCREATE
 40
2455945.566725382
  9
$TDUCREATE
 40
2455945.816725382
  9
$TDUPDATE
 40
2455945.566725382
  9
$TDUUPDATE
 40
2455945.816725382
  9
$TDINDWG
 40
0.0000356250
  9
$TDUSRTIMER
 40
0.0000356250
  9
$USRTIMER
 70
     1
  9
$ANGBASE
 50
0.0
  9
$ANGDIR
 70
     0
  9
$PDMODE
 70
     0
  9
$PDSIZE
 40
0.0
  9
$PLINEWID
 40
0.0
  9
$SPLFRAME
 70
     0
  9
$SPLINETYPE
 70
     6
  9
$SPLINESEGS
 70
     8
  9
$HANDSEED
  5
CF3
  9
$SURFTAB1
 70
     6
  9
$SURFTAB2
 70
     6
  9
$SURFTYPE
 70
     6
  9
$SURFU
 70
     6
  9
$SURFV
 70
     6
  9
$UCSBASE
  2

  9
$UCSNAME
  2

  9
$UCSORG
 10
0.0
 20
0.0
 30
0.0
  9
$UCSXDIR
 10
1.0
 20
0.0
 30
0.0
  9
$UCSYDIR
 10
0.0
 20
1.0
 30
0.0
  9
$UCSORTHOREF
  2

  9
$UCSORTHOVIEW
 70
     0
  9
$UCSORGTOP
 10
0.0
 20
0.0
 30
0.0
  9
$UCSORGBOTTOM
 10
0.0
 20
0.0
 30
0.0
  9
$UCSORGLEFT
 10
0.0
 20
0.0
 30
0.0
  9
$UCSORGRIGHT
 10
0.0
 20
0.0
 30
0.0
  9
$UCSORGFRONT
 10
0.0
 20
0.0
 30
0.0
  9
$UCSORGBACK
 10
0.0
 20
0.0
 30
0.0
  9
$PUCSBASE
  2

  9
$PUCSNAME
  2

  9
$PUCSORG
 10
0.0
 20
0.0
 30
0.0
  9
$PUCSXDIR
 10
1.0
 20
0.0
 30
0.0
  9
$PUCSYDIR
 10
0.0
 20
1.0
 30
0.0
  9
$PUCSORTHOREF
  2

  9
$PUCSORTHOVIEW
 70
     0
  9
$PUCSORGTOP
 10
0.0
 20
0.0
 30
0.0
  9
$PUCSORGBOTTOM
 10
0.0
 20
0.0
 30
0.0
  9
$PUCSORGLEFT
 10
0.0
 20
0.0
 30
0.0
  9
$PUCSORGRIGHT
 10
0.0
 20
0.0
 30
0.0
  9
$PUCSORGFRONT
 10
0.0
 20
0.0
 30
0.0
  9
$PUCSORGBACK
 10
0.0
 20
0.0
 30
0.0
  9
$USERI1
 70
     0
  9
$USERI2
 70
     0
  9
$USERI3
 70
     0
  9
$USERI4
 70
     0
  9
$USERI5
 70
     0
  9
$USERR1
 40
0.0
  9
$USERR2
 40
0.0
  9
$USERR3
 40
0.0
  9
$USERR4
 40
0.0
  9
$USERR5
 40
0.0
  9
$WORLDVIEW
 70
     1
  9
$SHADEDGE
 70
     3
  9
$SHADEDIF
 70
    70
  9
$TILEMODE
 70
     1
  9
$MAXACTVP
 70
    64
  9
$PINSBASE
 10
0.0
 20
0.0
 30
0.0
  9
$PLIMCHECK
 70
     0
  9
$PEXTMIN
 10
0.0
 20
0.0
 30
0.0
  9
$PEXTMAX
 10
56.66666666666667
 20
36.66666666666667
 30
0.0
  9
$PLIMMIN
 10
0.0
 20
0.0
  9
$PLIMMAX
 10
56.66666666666667
 20
36.66666666666667
  9
$UNITMODE
 70
     0
  9
$VISRETAIN
 70
     1
  9
$PLINEGEN
 70
     0
  9
$PSLTSCALE
 70
     1
  9
$TREEDEPTH
 70
  3020
  9
$CMLSTYLE
  2
Standard
  9
$CMLJUST
 70
     0
  9
$CMLSCALE
 40
1.0
  9
$PROXYGRAPHICS
 70
     1
  9
$MEASUREMENT
 70
     0
  9
$CELWEIGHT
370
    -1
  9
$ENDCAPS
280
     0
  9
$JOINSTYLE
280
     0
  9
$LWDISPLAY
290
     0
  9
$INSUNITS
 70
     1
  9
$HYPERLINKBASE
  1

  9
$STYLESHEET
  1

  9
$XEDIT
290
     1
  9
$CEPSNTYPE
380
     0
  9
$PSTYLEMODE
290
     1
  9
$FINGERPRINTGUID
  2
{189D89A6-B750-417E-9927-C843E829F145}
  9
$VERSIONGUID
  2
{EDDEFF32-7633-440C-A90E-6838FCC9DA71}
  9
$EXTNAMES
290
     1
  9
$PSVPSCALE
 40
0.0
  9
$OLESTARTUP
290
     0
  0
ENDSEC
  0
SECTION
  2
CLASSES
  0
CLASS
  1
ACDBDICTIONARYWDFLT
  2
AcDbDictionaryWithDefault
  3
ObjectDBX Classes
 90
        0
280
     0
281
     0
  0
CLASS
  1
MATERIAL
  2
AcDbMaterial
  3
ObjectDBX Classes
 90
     1153
280
     0
281
     0
  0
CLASS
  1
VISUALSTYLE
  2
AcDbVisualStyle
  3
ObjectDBX Classes
 90
     4095
280
     0
281
     0
  0
CLASS
  1
SCALE
  2
AcDbScale
  3
ObjectDBX Classes
 90
     1153
280
     0
281
     0
  0
CLASS
  1
TABLESTYLE
  2
AcDbTableStyle
  3
ObjectDBX Classes
 90
     4095
280
     0
281
     0
  0
CLASS
  1
MLEADERSTYLE
  2
AcDbMLeaderStyle
  3
ACDB_MLEADERSTYLE_CLASS
 90
     4095
280
     0
281
     0
  0
CLASS
  1
DICTIONARYVAR
  2
AcDbDictionaryVar
  3
ObjectDBX Classes
 90
        0
280
     0
281
     0
  0
CLASS
  1
CELLSTYLEMAP
  2
AcDbCellStyleMap
  3
ObjectDBX Classes
 90
     1152
280
     0
281
     0
  0
CLASS
  1
ACDBPLACEHOLDER
  2
AcDbPlaceHolder
  3
ObjectDBX Classes
 90
        0
280
     0
281
     0
  0
CLASS
  1
LAYOUT
  2
AcDbLayout
  3
ObjectDBX Classes
 90
        0
280
     0
281
     0
  0
ENDSEC
  0
SECTION
  2
TABLES
  0
TABLE
  2
VPORT
  5
8
330
0
100
AcDbSymbolTable
 70
     1
  0
VPORT
  5
57
330
8
100
AcDbSymbolTableRecord
100
AcDbViewportTableRecord
  2
*Active
 70
     0
 10
0.0
 20
0.0
 11
1.0
 21
1.0
 12
28.33333333333334
 22
18.33333333333333
 13
0.0
 23
0.0
 14
1.0
 24
1.0
 15
0.0
 25
0.0
 16
0.0
 26
0.0
 36
1.0
 17
0.0
 27
0.0
 37
0.0
 40
36.66666666666667
 41
1.545454545454545
 42
50.0
 43
0.0
 44
0.0
 50
0.0
 51
0.0
 71
     0
 72
   100
 73
     1
 74
     1
 75
     0
 76
     0
 77
     0
 78
     0
281
     0
 65
     1
110
0.0
120
0.0
130
0.0
111
1.0
121
0.0
131
0.0
112
0.0
122
1.0
132
0.0
 79
     0
146
0.0
  0
ENDTAB
  0
TABLE
  2
LTYPE
  5
5
330
0
100
AcDbSymbolTable
 70
    59
  0
LTYPE
  5
5B
330
5
100
AcDbSymbolTableRecord
100
AcDbLinetypeTableRecord
  2
ByBlock
 70
     0
  3

 72
    65
 73
     0
 40
0.0
  0
LTYPE
  5
5C
330
5
100
AcDbSymbolTableRecord
100
AcDbLinetypeTableRecord
  2
ByLayer
 70
     0
  3

 72
    65
 73
     0
 40
0.0
  0
LTYPE
  5
5D
330
5
100
AcDbSymbolTableRecord
100
AcDbLinetypeTableRecord
  2
Continuous
 70
     0
  3
Solid line
 72
    65
 73
     0
 40
0.0
  0
LTYPE
  5
7C
330
5
100
AcDbSymbolTableRecord
100
AcDbLinetypeTableRecord
  2
BY_STANDARD
 70
     0
  3
By Standard ____________    ____    ____   _
 72
    65
 73
     6
 40
1.240299999999999
 49
0.6614
 74
     0
 49
-0.0827
 74
     0
 49
0.1654
 74
     0
 49
-0.0827
 74
     0
 49
0.1654
 74
     0
 49
-0.0827
 74
     0
  0
LTYPE
  5
7D
330
5
100
AcDbSymbolTableRecord
100
AcDbLinetypeTableRecord
  2
CHAIN
 70
     0
  3
Chain ____ _ ____ _ ____ _ ____ _ ____ _ ____
 72
    65
 73
     4
 40
0.7087
 49
0.4724000000000001
 74
     0
 49
-0.0591
 74
     0
 49
0.1181
 74
     0
 49
-0.0591
 74
     0
  0
LTYPE
  5
7E
330
5
100
AcDbSymbolTableRecord
100
AcDbLinetypeTableRecord
  2
DASH_DOT
 70
     0
  3
Dash dot __ . __ . __ . __ . __ . __ . __ . __
 72
    65
 73
     4
 40
0.37
 49
0.24
 74
     0
 49
-0.06
 74
     0
 49
0.01
 74
     0
 49
-0.06
 74
     0
  0
LTYPE
  5
7F
330
5
100
AcDbSymbolTableRecord
100
AcDbLinetypeTableRecord
  2
DOUBLE_DASH_DOT
 70
     0
  3
Double-Dash Dot __ __ . __ __ . __ __ . __ _
 72
    65
 73
     6
 40
0.4398
 49
0.24
 74
     0
 49
-0.06
 74
     0
 49
0.0098
 74
     0
 49
-0.06
 74
     0
 49
0.01
 74
     0
 49
-0.06
 74
     0
  0
LTYPE
  5
80
330
5
100
AcDbSymbolTableRecord
100
AcDbLinetypeTableRecord
  2
DASH_TRIPLE_DOT
 70
     0
  3
Dash Triple-Dot _ . . . _ . . . _ . . . _
 72
    65
 73
     8
 40
0.51
 49
0.24
 74
     0
 49
-0.06
 74
     0
 49
0.01
 74
     0
 49
-0.06
 74
     0
 49
0.01
 74
     0
 49
-0.06
 74
     0
 49
0.01
 74
     0
 49
-0.06
 74
     0
  0
LTYPE
  5
81
330
5
100
AcDbSymbolTableRecord
100
AcDbLinetypeTableRecord
  2
DASHED
 70
     0
  3
Dashed __ __ __ __ __ __ __ __ __ __ __ __ __ _
 72
    65
 73
     2
 40
0.2067
 49
0.1654
 74
     0
 49
-0.0413
 74
     0
  0
LTYPE
  5
82
330
5
100
AcDbSymbolTableRecord
100
AcDbLinetypeTableRecord
  2
DASH_DOUBLE_DOT
 70
     0
  3
Dash Double-Dot __ . . __ . . __ . . __ . .
 72
    65
 73
     6
 40
0.4398
 49
0.24
 74
     0
 49
-0.06
 74
     0
 49
0.0098
 74
     0
 49
-0.06
 74
     0
 49
0.01
 74
     0
 49
-0.06
 74
     0
  0
LTYPE
  5
83
330
5
100
AcDbSymbolTableRecord
100
AcDbLinetypeTableRecord
  2
DASHED_SPACE
 70
     0
  3
Dashed Space __ __ __ __ __ __ __ __ __ __ __ _
 72
    65
 73
     2
 40
0.2067
 49
0.1654
 74
     0
 49
-0.0413
 74
     0
  0
LTYPE
  5
84
330
5
100
AcDbSymbolTableRecord
100
AcDbLinetypeTableRecord
  2
DOTTED
 70
     0
  3
Dotted . . . . . . . . . . . . . . . . . . . . 
 72
    65
 73
     2
 40
0.0482
 49
0.0069
 74
     0
 49
-0.0413
 74
     0
  0
LTYPE
  5
85
330
5
100
AcDbSymbolTableRecord
100
AcDbLinetypeTableRecord
  2
DOUBLE_DASH_CHAIN
 70
     0
  3
Double-Dash Chain ______  __  __  ______  __  _
 72
    65
 73
     6
 40
1.240299999999999
 49
0.6614
 74
     0
 49
-0.0827
 74
     0
 49
0.1654
 74
     0
 49
-0.0827
 74
     0
 49
0.1654
 74
     0
 49
-0.0827
 74
     0
  0
LTYPE
  5
87
330
5
100
AcDbSymbolTableRecord
100
AcDbLinetypeTableRecord
  2
DOUBLE_DASH_DOUBLE_DOT
 70
     0
  3
Double-Dash Double-dot _ _ . . _ _ . . _
 72
    65
 73
     8
 40
0.7400000000000001
 49
0.24
 74
     0
 49
-0.06
 74
     0
 49
0.24
 74
     0
 49
-0.06
 74
     0
 49
0.01
 74
     0
 49
-0.06
 74
     0
 49
0.01
 74
     0
 49
-0.06
 74
     0
  0
LTYPE
  5
88
330
5
100
AcDbSymbolTableRecord
100
AcDbLinetypeTableRecord
  2
DOUBLE_DASH_TRIPLE_DOT
 70
     0
  3
Double Dash Triple Dot __ __ . . . __ __ . .
 72
    65
 73
    10
 40
0.8100000000000001
 49
0.24
 74
     0
 49
-0.06
 74
     0
 49
0.24
 74
     0
 49
-0.06
 74
     0
 49
0.01
 74
     0
 49
-0.06
 74
     0
 49
0.01
 74
     0
 49
-0.06
 74
     0
 49
0.01
 74
     0
 49
-0.06
 74
     0
  0
LTYPE
  5
89
330
5
100
AcDbSymbolTableRecord
100
AcDbLinetypeTableRecord
  2
LONG_DASH_DOTTED
 70
     0
  3
Long Dash Dotted ____ . ____ . ____ . ____ . _
 72
    65
 73
     4
 40
0.3543
 49
0.2362
 74
     0
 49
-0.0295
 74
     0
 49
0.0591
 74
     0
 49
-0.0295
 74
     0
  0
LTYPE
  5
8A
330
5
100
AcDbSymbolTableRecord
100
AcDbLinetypeTableRecord
  2
LONG_DASH_DOUBLE_DOT
 70
     0
  3
Long Dash Double Dot ________  .  .  ________  
 72
    65
 73
     6
 40
0.6799999999999999
 49
0.48
 74
     0
 49
-0.06
 74
     0
 49
0.01
 74
     0
 49
-0.06
 74
     0
 49
0.01
 74
     0
 49
-0.06
 74
     0
  0
LTYPE
  5
8B
330
5
100
AcDbSymbolTableRecord
100
AcDbLinetypeTableRecord
  2
LONG_DASH_TRIPLE_DOT
 70
     0
  3
Long Dash Triple Dot ____ ... ____ ... ____
 72
    65
 73
     8
 40
0.3689
 49
0.2362
 74
     0
 49
-0.0295
 74
     0
 49
0.0049
 74
     0
 49
-0.0295
 74
     0
 49
0.0049
 74
     0
 49
-0.0295
 74
     0
 49
0.0049
 74
     0
 49
-0.0295
 74
     0
  0
LTYPE
  5
8C
330
5
100
AcDbSymbolTableRecord
100
AcDbLinetypeTableRecord
  2
BORDER
 70
     0
  3
Border __ __ . __ __ . __ __ . __ __ . __ __ .
 72
    65
 73
     6
 40
1.75
 49
0.5
 74
     0
 49
-0.25
 74
     0
 49
0.5
 74
     0
 49
-0.25
 74
     0
 49
0.0
 74
     0
 49
-0.25
 74
     0
  0
LTYPE
  5
8D
330
5
100
AcDbSymbolTableRecord
100
AcDbLinetypeTableRecord
  2
BORDER2
 70
     0
  3
Border (.5x) __.__.__.__.__.__.__.__.__.__.__.
 72
    65
 73
     6
 40
0.875
 49
0.25
 74
     0
 49
-0.125
 74
     0
 49
0.25
 74
     0
 49
-0.125
 74
     0
 49
0.0
 74
     0
 49
-0.125
 74
     0
  0
LTYPE
  5
8E
330
5
100
AcDbSymbolTableRecord
100
AcDbLinetypeTableRecord
  2
BORDERX2
 70
     0
  3
Border (2x) ____  ____  .  ____  ____  .  ___
 72
    65
 73
     6
 40
3.5
 49
1.0
 74
     0
 49
-0.5
 74
     0
 49
1.0
 74
     0
 49
-0.5
 74
     0
 49
0.0
 74
     0
 49
-0.5
 74
     0
  0
LTYPE
  5
8F
330
5
100
AcDbSymbolTableRecord
100
AcDbLinetypeTableRecord
  2
CENTER
 70
     0
  3
Center ____ _ ____ _ ____ _ ____ _ ____ _ ____
 72
    65
 73
     4
 40
2.0
 49
1.25
 74
     0
 49
-0.25
 74
     0
 49
0.25
 74
     0
 49
-0.25
 74
     0
  0
LTYPE
  5
90
330
5
100
AcDbSymbolTableRecord
100
AcDbLinetypeTableRecord
  2
CENTER2
 70
     0
  3
Center (.5x) ___ _ ___ _ ___ _ ___ _ ___ _ ___
 72
    65
 73
     4
 40
1.125
 49
0.75
 74
     0
 49
-0.125
 74
     0
 49
0.125
 74
     0
 49
-0.125
 74
     0
  0
LTYPE
  5
91
330
5
100
AcDbSymbolTableRecord
100
AcDbLinetypeTableRecord
  2
CENTERX2
 70
     0
  3
Center (2x) ________  __  ________  __  _____
 72
    65
 73
     4
 40
4.0
 49
2.5
 74
     0
 49
-0.5
 74
     0
 49
0.5
 74
     0
 49
-0.5
 74
     0
  0
LTYPE
  5
92
330
5
100
AcDbSymbolTableRecord
100
AcDbLinetypeTableRecord
  2
DASHDOT2
 70
     0
  3
Dash dot (.5x) _._._._._._._._._._._._._._._.
 72
    65
 73
     4
 40
0.5
 49
0.25
 74
     0
 49
-0.125
 74
     0
 49
0.0
 74
     0
 49
-0.125
 74
     0
  0
LTYPE
  5
93
330
5
100
AcDbSymbolTableRecord
100
AcDbLinetypeTableRecord
  2
DASHDOTX2
 70
     0
  3
Dash dot (2x) ____  .  ____  .  ____  .  ___
 72
    65
 73
     4
 40
2.0
 49
1.0
 74
     0
 49
-0.5
 74
     0
 49
0.0
 74
     0
 49
-0.5
 74
     0
  0
LTYPE
  5
95
330
5
100
AcDbSymbolTableRecord
100
AcDbLinetypeTableRecord
  2
DASHED2
 70
     0
  3
Dashed (.5x) _ _ _ _ _ _ _ _ _ _ _ _ _ _ _ _ _
 72
    65
 73
     2
 40
0.375
 49
0.25
 74
     0
 49
-0.125
 74
     0
  0
LTYPE
  5
96
330
5
100
AcDbSymbolTableRecord
100
AcDbLinetypeTableRecord
  2
DASHEDX2
 70
     0
  3
Dashed (2x) ____  ____  ____  ____  ____  ___
 72
    65
 73
     2
 40
1.5
 49
1.0
 74
     0
 49
-0.5
 74
     0
  0
LTYPE
  5
97
330
5
100
AcDbSymbolTableRecord
100
AcDbLinetypeTableRecord
  2
DIVIDE
 70
     0
  3
Divide ____ . . ____ . . ____ . . ____ . . ____
 72
    65
 73
     6
 40
1.25
 49
0.5
 74
     0
 49
-0.25
 74
     0
 49
0.0
 74
     0
 49
-0.25
 74
     0
 49
0.0
 74
     0
 49
-0.25
 74
     0
  0
LTYPE
  5
98
330
5
100
AcDbSymbolTableRecord
100
AcDbLinetypeTableRecord
  2
DIVIDE2
 70
     0
  3
Divide (.5x) __..__..__..__..__..__..__..__.._
 72
    65
 73
     6
 40
0.625
 49
0.25
 74
     0
 49
-0.125
 74
     0
 49
0.0
 74
     0
 49
-0.125
 74
     0
 49
0.0
 74
     0
 49
-0.125
 74
     0
  0
LTYPE
  5
99
330
5
100
AcDbSymbolTableRecord
100
AcDbLinetypeTableRecord
  2
DIVIDEX2
 70
     0
  3
Divide (2x) ________  .  .  ________  .  .  _
 72
    65
 73
     6
 40
2.5
 49
1.0
 74
     0
 49
-0.5
 74
     0
 49
0.0
 74
     0
 49
-0.5
 74
     0
 49
0.0
 74
     0
 49
-0.5
 74
     0
  0
LTYPE
  5
9A
330
5
100
AcDbSymbolTableRecord
100
AcDbLinetypeTableRecord
  2
DOT
 70
     0
  3
Dot . . . . . . . . . . . . . . . . . . . . . .
 72
    65
 73
     2
 40
0.25
 49
0.0
 74
     0
 49
-0.25
 74
     0
  0
LTYPE
  5
9B
330
5
100
AcDbSymbolTableRecord
100
AcDbLinetypeTableRecord
  2
DOT2
 70
     0
  3
Dot (.5x) .....................................
 72
    65
 73
     2
 40
0.125
 49
0.0
 74
     0
 49
-0.125
 74
     0
  0
LTYPE
  5
9C
330
5
100
AcDbSymbolTableRecord
100
AcDbLinetypeTableRecord
  2
DOTX2
 70
     0
  3
Dot (2x) .  .  .  .  .  .  .  .  .  .  .  .  . 
 72
    65
 73
     2
 40
0.5
 49
0.0
 74
     0
 49
-0.5
 74
     0
  0
LTYPE
  5
9D
330
5
100
AcDbSymbolTableRecord
100
AcDbLinetypeTableRecord
  2
HIDDEN
 70
     0
  3
Hidden __ __ __ __ __ __ __ __ __ __ __ __ __ _
 72
    65
 73
     2
 40
0.375
 49
0.25
 74
     0
 49
-0.125
 74
     0
  0
LTYPE
  5
9E
330
5
100
AcDbSymbolTableRecord
100
AcDbLinetypeTableRecord
  2
HIDDEN2
 70
     0
  3
Hidden (.5x) _ _ _ _ _ _ _ _ _ _ _ _ _ _ _ _ _
 72
    65
 73
     2
 40
0.1875
 49
0.125
 74
     0
 49
-0.0625
 74
     0
  0
LTYPE
  5
9F
330
5
100
AcDbSymbolTableRecord
100
AcDbLinetypeTableRecord
  2
HIDDENX2
 70
     0
  3
Hidden (2x) ____ ____ ____ ____ ____ ____ ____
 72
    65
 73
     2
 40
0.75
 49
0.5
 74
     0
 49
-0.25
 74
     0
  0
LTYPE
  5
A0
330
5
100
AcDbSymbolTableRecord
100
AcDbLinetypeTableRecord
  2
PHANTOM
 70
     0
  3
Phantom ______  __  __  ______  __  __  ______
 72
    65
 73
     6
 40
2.5
 49
1.25
 74
     0
 49
-0.25
 74
     0
 49
0.25
 74
     0
 49
-0.25
 74
     0
 49
0.25
 74
     0
 49
-0.25
 74
     0
  0
LTYPE
  5
A1
330
5
100
AcDbSymbolTableRecord
100
AcDbLinetypeTableRecord
  2
PHANTOM2
 70
     0
  3
Phantom (.5x) ___ _ _ ___ _ _ ___ _ _ ___ _ _
 72
    65
 73
     6
 40
1.25
 49
0.625
 74
     0
 49
-0.125
 74
     0
 49
0.125
 74
     0
 49
-0.125
 74
     0
 49
0.125
 74
     0
 49
-0.125
 74
     0
  0
LTYPE
  5
A2
330
5
100
AcDbSymbolTableRecord
100
AcDbLinetypeTableRecord
  2
PHANTOMX2
 70
     0
  3
Phantom (2x) ____________    ____    ____   _
 72
    65
 73
     6
 40
5.0
 49
2.5
 74
     0
 49
-0.5
 74
     0
 49
0.5
 74
     0
 49
-0.5
 74
     0
 49
0.5
 74
     0
 49
-0.5
 74
     0
  0
LTYPE
  5
A3
330
5
100
AcDbSymbolTableRecord
100
AcDbLinetypeTableRecord
  2
ACAD_ISO02W100
 70
     0
  3
ISO dash __ __ __ __ __ __ __ __ __ __ __ __ __
 72
    65
 73
     2
 40
0.59
 49
0.47
 74
     0
 49
-0.12
 74
     0
  0
LTYPE
  5
A4
330
5
100
AcDbSymbolTableRecord
100
AcDbLinetypeTableRecord
  2
ACAD_ISO03W100
 70
     0
  3
ISO dash space __    __    __    __    __    __
 72
    65
 73
     2
 40
1.179999999999999
 49
0.47
 74
     0
 49
-0.71
 74
     0
  0
LTYPE
  5
A5
330
5
100
AcDbSymbolTableRecord
100
AcDbLinetypeTableRecord
  2
ACAD_ISO04W100
 70
     0
  3
ISO long-dash dot ____ . ____ . ____ . ____ . _
 72
    65
 73
     4
 40
1.179999999999999
 49
0.9399999999999998
 74
     0
 49
-0.12
 74
     0
 49
0.0
 74
     0
 49
-0.12
 74
     0
  0
LTYPE
  5
A6
330
5
100
AcDbSymbolTableRecord
100
AcDbLinetypeTableRecord
  2
ACAD_ISO05W100
 70
     0
  3
ISO long-dash double-dot ____ .. ____ .. ____ .
 72
    65
 73
     6
 40
1.299999999999999
 49
0.9399999999999998
 74
     0
 49
-0.12
 74
     0
 49
0.0
 74
     0
 49
-0.12
 74
     0
 49
0.0
 74
     0
 49
-0.12
 74
     0
  0
LTYPE
  5
A7
330
5
100
AcDbSymbolTableRecord
100
AcDbLinetypeTableRecord
  2
ACAD_ISO06W100
 70
     0
  3
ISO long-dash triple-dot ____ ... ____ ... ____
 72
    65
 73
     8
 40
1.419999999999999
 49
0.9399999999999998
 74
     0
 49
-0.12
 74
     0
 49
0.0
 74
     0
 49
-0.12
 74
     0
 49
0.0
 74
     0
 49
-0.12
 74
     0
 49
0.0
 74
     0
 49
-0.12
 74
     0
  0
LTYPE
  5
A8
330
5
100
AcDbSymbolTableRecord
100
AcDbLinetypeTableRecord
  2
ACAD_ISO07W100
 70
     0
  3
ISO dot . . . . . . . . . . . . . . . . . . . .
 72
    65
 73
     2
 40
0.12
 49
0.0
 74
     0
 49
-0.12
 74
     0
  0
LTYPE
  5
A9
330
5
100
AcDbSymbolTableRecord
100
AcDbLinetypeTableRecord
  2
ACAD_ISO08W100
 70
     0
  3
ISO long-dash short-dash ____ __ ____ __ ____ _
 72
    65
 73
     4
 40
0.95
 49
0.47
 74
     0
 49
-0.12
 74
     0
 49
0.24
 74
     0
 49
-0.12
 74
     0
  0
LTYPE
  5
AA
330
5
100
AcDbSymbolTableRecord
100
AcDbLinetypeTableRecord
  2
ACAD_ISO09W100
 70
     0
  3
ISO long-dash double-short-dash ____ __ __ ____
 72
    65
 73
     6
 40
1.31
 49
0.47
 74
     0
 49
-0.12
 74
     0
 49
0.24
 74
     0
 49
-0.12
 74
     0
 49
0.24
 74
     0
 49
-0.12
 74
     0
  0
LTYPE
  5
AB
330
5
100
AcDbSymbolTableRecord
100
AcDbLinetypeTableRecord
  2
ACAD_ISO10W100
 70
     0
  3
ISO dash dot __ . __ . __ . __ . __ . __ . __ .
 72
    65
 73
     4
 40
0.71
 49
0.47
 74
     0
 49
-0.12
 74
     0
 49
0.0
 74
     0
 49
-0.12
 74
     0
  0
LTYPE
  5
AC
330
5
100
AcDbSymbolTableRecord
100
AcDbLinetypeTableRecord
  2
ACAD_ISO11W100
 70
     0
  3
ISO double-dash dot __ __ . __ __ . __ __ . __ 
 72
    65
 73
     6
 40
1.299999999999999
 49
0.47
 74
     0
 49
-0.12
 74
     0
 49
0.47
 74
     0
 49
-0.12
 74
     0
 49
0.0
 74
     0
 49
-0.12
 74
     0
  0
LTYPE
  5
AD
330
5
100
AcDbSymbolTableRecord
100
AcDbLinetypeTableRecord
  2
ACAD_ISO12W100
 70
     0
  3
ISO dash double-dot __ . . __ . . __ . . __ . .
 72
    65
 73
     6
 40
0.8299999999999998
 49
0.47
 74
     0
 49
-0.12
 74
     0
 49
0.0
 74
     0
 49
-0.12
 74
     0
 49
0.0
 74
     0
 49
-0.12
 74
     0
  0
LTYPE
  5
AE
330
5
100
AcDbSymbolTableRecord
100
AcDbLinetypeTableRecord
  2
ACAD_ISO13W100
 70
     0
  3
ISO double-dash double-dot __ __ . . __ __ . . 
 72
    65
 73
     8
 40
1.419999999999999
 49
0.47
 74
     0
 49
-0.12
 74
     0
 49
0.47
 74
     0
 49
-0.12
 74
     0
 49
0.0
 74
     0
 49
-0.12
 74
     0
 49
0.0
 74
     0
 49
-0.12
 74
     0
  0
LTYPE
  5
AF
330
5
100
AcDbSymbolTableRecord
100
AcDbLinetypeTableRecord
  2
ACAD_ISO14W100
 70
     0
  3
ISO dash triple-dot __ . . . __ . . . __ . . . 
 72
    65
 73
     8
 40
0.95
 49
0.47
 74
     0
 49
-0.12
 74
     0
 49
0.0
 74
     0
 49
-0.12
 74
     0
 49
0.0
 74
     0
 49
-0.12
 74
     0
 49
0.0
 74
     0
 49
-0.12
 74
     0
  0
LTYPE
  5
B0
330
5
100
AcDbSymbolTableRecord
100
AcDbLinetypeTableRecord
  2
ACAD_ISO15W100
 70
     0
  3
ISO double-dash triple-dot __ __ . . . __ __ . 
 72
    65
 73
    10
 40
1.539999999999999
 49
0.47
 74
     0
 49
-0.12
 74
     0
 49
0.47
 74
     0
 49
-0.12
 74
     0
 49
0.0
 74
     0
 49
-0.12
 74
     0
 49
0.0
 74
     0
 49
-0.12
 74
     0
 49
0.0
 74
     0
 49
-0.12
 74
     0
  0
LTYPE
  5
B3
330
5
100
AcDbSymbolTableRecord
100
AcDbLinetypeTableRecord
  2
FENCELINE1
 70
     0
  3
Fenceline circle ----0-----0----0-----0----0---
 72
    65
 73
     4
 40
1.45
 49
0.25
 74
     0
 49
-0.1
 74
     4
 75
   133
340
B2
 46
0.1
 50
0.0
 44
-0.1
 45
0.0
 49
-0.1
 74
     0
 49
1.0
 74
     0
  0
LTYPE
  5
B4
330
5
100
AcDbSymbolTableRecord
100
AcDbLinetypeTableRecord
  2
FENCELINE2
 70
     0
  3
Fenceline square ----[]-----[]----[]-----[]----
 72
    65
 73
     4
 40
1.45
 49
0.25
 74
     0
 49
-0.1
 74
     4
 75
   132
340
B2
 46
0.1
 50
0.0
 44
-0.1
 45
0.0
 49
-0.1
 74
     0
 49
1.0
 74
     0
  0
LTYPE
  5
B5
330
5
100
AcDbSymbolTableRecord
100
AcDbLinetypeTableRecord
  2
TRACKS
 70
     0
  3
Tracks -|-|-|-|-|-|-|-|-|-|-|-|-|-|-|-|-|-|-|-|
 72
    65
 73
     2
 40
0.3
 49
0.15
 74
     4
 75
   130
340
B2
 46
0.25
 50
0.0
 44
0.0
 45
0.0
 49
0.15
 74
     0
  0
LTYPE
  5
B6
330
5
100
AcDbSymbolTableRecord
100
AcDbLinetypeTableRecord
  2
BATTING
 70
     0
  3
Batting SSSSSSSSSSSSSSSSSSSSSSSSSSSSSSSSSSSSSSS
 72
    65
 73
     4
 40
0.4001000000000001
 49
0.0001
 74
     0
 49
-0.1
 74
     4
 75
   134
340
B2
 46
0.1
 50
0.0
 44
-0.1
 45
0.0
 49
-0.2
 74
     4
 75
   134
340
B2
 46
0.1
 50
180.0
 44
0.1
 45
0.0
 49
-0.1
 74
     0
  0
LTYPE
  5
B7
330
5
100
AcDbSymbolTableRecord
100
AcDbLinetypeTableRecord
  2
HOT_WATER_SUPPLY
 70
     0
  3
Hot water supply ---- HW ---- HW ---- HW ----
 72
    65
 73
     3
 40
0.9
 49
0.5
 74
     0
 49
-0.2
 74
     2
 75
     0
340
55
 46
0.1
 50
0.0
 44
-0.1
 45
-0.05
  9
HW
 49
-0.2
 74
     0
  0
LTYPE
  5
B8
330
5
100
AcDbSymbolTableRecord
100
AcDbLinetypeTableRecord
  2
GAS_LINE
 70
     0
  3
Gas line ----GAS----GAS----GAS----GAS----GAS---
 72
    65
 73
     3
 40
0.95
 49
0.5
 74
     0
 49
-0.2
 74
     2
 75
     0
340
55
 46
0.1
 50
0.0
 44
-0.1
 45
-0.05
  9
GAS
 49
-0.25
 74
     0
  0
LTYPE
  5
B9
330
5
100
AcDbSymbolTableRecord
100
AcDbLinetypeTableRecord
  2
ZIGZAG
 70
     0
  3
Zig zag /\/\/\/\/\/\/\/\/\/\/\/\/\/\/\/\/\/\/\/
 72
    65
 73
     4
 40
0.8001000000000001
 49
0.0001
 74
     0
 49
-0.2
 74
     4
 75
   131
340
B2
 46
0.2
 50
0.0
 44
-0.2
 45
0.0
 49
-0.4
 74
     4
 75
   131
340
B2
 46
0.2
 50
180.0
 44
0.2
 45
0.0
 49
-0.2
 74
     0
  0
ENDTAB
  0
TABLE
  2
LAYER
  5
2
330
0
100
AcDbSymbolTable
 70
    27
  0
LAYER
  5
54
330
2
100
AcDbSymbolTableRecord
100
AcDbLayerTableRecord
  2
0
 70
     0
 62
     7
  6
Continuous
370
     0
390
F
  0
LAYER
  5
C0
330
2
100
AcDbSymbolTableRecord
100
AcDbLayerTableRecord
  2
Center Mark (ANSI)
 70
     0
 62
     7
  6
Continuous
370
     5
390
F
  0
LAYER
  5
C1
330
2
100
AcDbSymbolTableRecord
100
AcDbLayerTableRecord
  2
Centerline (ANSI)
 70
     0
 62
     7
  6
Continuous
370
     5
390
F
  0
LAYER
  5
C3
330
2
100
AcDbSymbolTableRecord
100
AcDbLayerTableRecord
  2
Dimension (ANSI)
 70
     0
 62
     7
  6
Continuous
370
     5
390
F
  0
LAYER
  5
C5
330
2
100
AcDbSymbolTableRecord
100
AcDbLayerTableRecord
  2
Hidden (ANSI)
 70
     0
 62
     7
  6
DASHED
370
     5
390
F
  0
LAYER
  5
CC
330
2
100
AcDbSymbolTableRecord
100
AcDbLayerTableRecord
  2
Symbol (ANSI)
 70
     0
 62
     7
  6
Continuous
370
     5
390
F
  0
LAYER
  5
CF
330
2
100
AcDbSymbolTableRecord
100
AcDbLayerTableRecord
  2
Visible (ANSI)
 70
     0
 62
     7
  6
Continuous
370
     5
390
F
  0
LAYER
  5
152
330
2
100
AcDbSymbolTableRecord
100
AcDbLayerTableRecord
  2
Defpoints
 70
     0
 62
     7
  6
Continuous
290
     0
370
    -3
390
F
  0
ENDTAB
  0
TABLE
  2
STYLE
  5
3
330
0
100
AcDbSymbolTable
 70
    10
  0
STYLE
  5
55
330
3
100
AcDbSymbolTableRecord
100
AcDbTextStyleTableRecord
  2
Standard
 70
     0
 40
0.0
 41
1.0
 50
0.0
 71
     0
 42
0.2
  3
txt
  4

  0
STYLE
  5
5A
330
3
100
AcDbSymbolTableRecord
100
AcDbTextStyleTableRecord
  2
Annotative
 70
     0
 40
0.0
 41
1.0
 50
0.0
 71
     0
 42
0.2
  3
txt
  4

1001
AcadAnnotative
1000
AnnotativeData
1002
{
1070
     1
1070
     1
1002
}
  0
STYLE
  5
B2
330
3
100
AcDbSymbolTableRecord
100
AcDbTextStyleTableRecord
  2

 70
     1
 40
0.0
 41
1.0
 50
0.0
 71
     0
 42
0.2
  3
ltypeshp.shx
  4

  0
STYLE
  5
D4
330
3
100
AcDbSymbolTableRecord
100
AcDbTextStyleTableRecord
  2
ITALICC_120
 70
     0
 40
0.0
 41
1.0
 50
0.0
 71
     0
 42
0.2
  3
italicc.shx
  4

  0
STYLE
  5
D5
330
3
100
AcDbSymbolTableRecord
100
AcDbTextStyleTableRecord
  2
Label Text (ANSI)
 70
     0
 40
0.0
 41
1.0
 50
0.0
 71
     0
 42
0.2
  3
TAHOMA.TTF
  4

1001
ACAD
1000
Tahoma
1071
      256
  0
STYLE
  5
D6
330
3
100
AcDbSymbolTableRecord
100
AcDbTextStyleTableRecord
  2
Note Text (ANSI)
 70
     0
 40
0.0
 41
1.0
 50
0.0
 71
     0
 42
0.2
  3
RomanS.shx
  4

  0
STYLE
  5
D7
330
3
100
AcDbSymbolTableRecord
100
AcDbTextStyleTableRecord
  2
ROMANS
 70
     0
 40
0.0
 41
1.0
 50
0.0
 71
     0
 42
0.2
  3
romans.shx
  4

  0
STYLE
  5
D8
330
3
100
AcDbSymbolTableRecord
100
AcDbTextStyleTableRecord
  2
SANSSERIF_114
 70
     0
 40
0.0
 41
1.0
 50
0.0
 71
     0
 42
0.2
  3
TAHOMA.TTF
  4

1001
ACAD
1000
Tahoma
1071
      256
  0
STYLE
  5
D9
330
3
100
AcDbSymbolTableRecord
100
AcDbTextStyleTableRecord
  2
SANSSERIF_117
 70
     0
 40
0.0
 41
1.0
 50
0.0
 71
     0
 42
0.2
  3
TAHOMA.TTF
  4

1001
ACAD
1000
Tahoma
1071
      256
  0
STYLE
  5
117
330
3
100
AcDbSymbolTableRecord
100
AcDbTextStyleTableRecord
  2
Text Style168
 70
     0
 40
0.0
 41
1.0
 50
0.0
 71
     0
 42
0.2
  3
TAHOMA.TTF
  4

1001
ACAD
1000
Tahoma
1071
      256
  0
ENDTAB
  0
TABLE
  2
VIEW
  5
6
330
0
100
AcDbSymbolTable
 70
     0
  0
ENDTAB
  0
TABLE
  2
UCS
  5
7
330
0
100
AcDbSymbolTable
 70
     0
  0
ENDTAB
  0
TABLE
  2
APPID
  5
9
330
0
100
AcDbSymbolTable
 70
     4
  0
APPID
  5
56
330
9
100
AcDbSymbolTableRecord
100
AcDbRegAppTableRecord
  2
ACAD
 70
     0
  0
APPID
  5
5E
330
9
100
AcDbSymbolTableRecord
100
AcDbRegAppTableRecord
  2
AcadAnnotative
 70
     0
  0
APPID
  5
7BA
330
9
100
AcDbSymbolTableRecord
100
AcDbRegAppTableRecord
  2
ACAD_DSTYLE_DIMRADIAL_EXTENSION
 70
     0
  0
APPID
  5
CE8
330
9
100
AcDbSymbolTableRecord
100
AcDbRegAppTableRecord
  2
ACAD_MLEADERVER
 70
     0
  0
ENDTAB
  0
TABLE
  2
DIMSTYLE
  5
A
330
0
100
AcDbSymbolTable
 70
    15
100
AcDbDimStyleTable
 71
     2
340
E2
340
58
  0
DIMSTYLE
105
58
330
A
100
AcDbSymbolTableRecord
100
AcDbDimStyleTableRecord
  2
Standard
 70
     0
340
55
  0
DIMSTYLE
105
59
330
A
100
AcDbSymbolTableRecord
100
AcDbDimStyleTableRecord
  2
Annotative
 70
     0
340
55
1001
AcadAnnotative
1000
AnnotativeData
1002
{
1070
     1
1070
     1
1002
}
  0
DIMSTYLE
105
DA
330
A
100
AcDbSymbolTableRecord
100
AcDbDimStyleTableRecord
  2
Architectural (ANSI)
 70
     0
 40
3.333333333333333
 41
0.0984251946210861
 43
0.2362204724409449
 44
0.125
 45
0.00000001
 46
0.3937007874015748
 78
     3
 79
     3
140
0.1000000014901161
146
1.200000029802321
147
0.031496062992126
171
     1
176
   256
177
   256
178
   256
272
     2
274
     1
276
     2
277
     4
284
    12
285
     4
286
    12
340
D6
371
    -1
372
    -1
  0
DIMSTYLE
105
DB
330
A
100
AcDbSymbolTableRecord
100
AcDbDimStyleTableRecord
  2
Architectural (ANSI)$7
 70
     0
 40
3.333333333333333
 41
0.0984251946210861
 43
0.2362204724409449
 44
0.125
 45
0.00000001
 46
0.3937007874015748
 78
     3
 79
     3
140
0.1000000014901161
146
1.200000029802321
147
0.031496062992126
171
     1
176
   256
177
   256
178
   256
272
     2
274
     1
276
     2
277
     4
284
    12
285
     4
286
    12
340
D6
371
    -1
372
    -1
  0
DIMSTYLE
105
DC
330
A
100
AcDbSymbolTableRecord
100
AcDbDimStyleTableRecord
  2
Default - Fraction (ANSI)
 70
     0
 40
3.333333333333333
 41
0.0984251946210861
 43
0.2362204724409449
 44
0.125
 45
0.00000001
 46
0.3937007874015748
 79
     3
140
0.1000000014901161
146
1.200000029802321
147
0.031496062992126
171
     1
176
   256
177
   256
178
   256
272
     2
274
     1
276
     2
277
     5
284
    12
285
     4
286
    12
340
D6
371
    -1
372
    -1
  0
DIMSTYLE
105
DD
330
A
100
AcDbSymbolTableRecord
100
AcDbDimStyleTableRecord
  2
Default - Fraction (ANSI)$7
 70
     0
 40
3.333333333333333
 41
0.0984251946210861
 43
0.2362204724409449
 44
0.125
 45
0.00000001
 46
0.3937007874015748
 79
     3
140
0.1000000014901161
146
1.200000029802321
147
0.031496062992126
171
     1
176
   256
177
   256
178
   256
272
     2
274
     1
276
     2
277
     5
284
    12
285
     4
286
    12
340
D6
371
    -1
372
    -1
  0
DIMSTYLE
105
DE
330
A
100
AcDbSymbolTableRecord
100
AcDbDimStyleTableRecord
  2
Default - mm (ANSI)
 70
     0
 40
3.333333333333333
 41
0.0984251946210861
 42
0.063
 43
0.2362204724409449
 44
0.125
 45
0.00000001
 46
0.3937007874015748
 73
     0
 78
     4
 79
     1
140
0.1000000014901161
143
1.0
144
25.4
146
1.200000029802321
147
0.031496062992126
171
     1
176
   256
177
   256
178
   256
179
     1
271
     2
272
     2
274
     1
284
     4
285
     4
340
D6
371
    -1
372
    -1
  0
DIMSTYLE
105
DF
330
A
100
AcDbSymbolTableRecord
100
AcDbDimStyleTableRecord
  2
Default - mm (ANSI)$7
 70
     0
 40
3.333333333333333
 41
0.0984251946210861
 42
0.063
 43
0.2362204724409449
 44
0.125
 45
0.00000001
 46
0.3937007874015748
 73
     0
 78
     4
 79
     1
140
0.1000000014901161
143
1.0
144
25.4
146
1.200000029802321
147
0.031496062992126
171
     1
176
   256
177
   256
178
   256
179
     1
271
     2
272
     2
274
     1
284
     4
285
     4
340
D6
371
    -1
372
    -1
  0
DIMSTYLE
105
E0
330
A
100
AcDbSymbolTableRecord
100
AcDbDimStyleTableRecord
  2
Default - mm [in] (ANSI)
 70
     0
  4
 in
 40
3.333333333333333
 41
0.0984251946210861
 42
0.063
 43
0.25
 44
0.125
 45
0.00000001
 46
0.3937007874015748
 73
     0
 78
     4
 79
     1
140
0.1000000014901161
143
0.03937
144
25.4
146
1.200000029802321
147
0.031496062992126
170
     1
171
     3
176
   256
177
   256
178
   256
179
     1
271
     2
272
     2
274
     3
284
     4
285
     4
286
     4
340
D6
371
    -1
372
    -1
  0
DIMSTYLE
105
E1
330
A
100
AcDbSymbolTableRecord
100
AcDbDimStyleTableRecord
  2
Default - mm [in] (ANSI)$7
 70
     0
  4
 in
 40
3.333333333333333
 41
0.0984251946210861
 42
0.063
 43
0.25
 44
0.125
 45
0.00000001
 46
0.3937007874015748
 73
     0
 78
     4
 79
     1
140
0.1000000014901161
143
0.03937
144
25.4
146
1.200000029802321
147
0.031496062992126
170
     1
171
     3
176
   256
177
   256
178
   256
179
     1
271
     2
272
     2
274
     3
284
     4
285
     4
286
     4
340
D6
371
    -1
372
    -1
  0
DIMSTYLE
105
E2
102
{ACAD_REACTORS
330
150
330
23D
330
327
330
425
330
50F
330
60D
330
721
330
7CB
330
874
330
988
330
A9B
330
B99
102
}
330
A
100
AcDbSymbolTableRecord
100
AcDbDimStyleTableRecord
  2
Default (ANSI)
 70
     0
 40
3.333333333333333
 41
0.0984251946210861
 43
0.2362204724409449
 44
0.125
 45
0.00000001
 46
0.3937007874015748
140
0.1000000014901161
147
0.031496062992126
176
   256
177
   256
178
   256
271
     2
272
     2
340
D7
371
    -1
372
    -1
  0
DIMSTYLE
105
E3
330
A
100
AcDbSymbolTableRecord
100
AcDbDimStyleTableRecord
  2
Default (ANSI)$7
 70
     0
 40
3.333333333333333
 41
0.0984251946210861
 43
0.2362204724409449
 44
0.125
 45
0.00000001
 46
0.3937007874015748
140
0.1000000014901161
147
0.031496062992126
176
   256
177
   256
178
   256
271
     2
272
     2
340
D7
371
    -1
372
    -1
  0
DIMSTYLE
105
E4
330
A
100
AcDbSymbolTableRecord
100
AcDbDimStyleTableRecord
  2
Alternate (ANSI)
 70
     0
 40
3.333333333333333
 41
0.0979999974370003
340
55
342
E5
  0
DIMSTYLE
105
F7
330
A
100
AcDbSymbolTableRecord
100
AcDbDimStyleTableRecord
  2
Datum (ANSI)
 70
     0
 40
3.333333333333333
 41
0.0979999974370003
340
55
342
E5
  0
DIMSTYLE
105
106
330
A
100
AcDbSymbolTableRecord
100
AcDbDimStyleTableRecord
  2
Large (ANSI)
 70
     0
 40
3.333333333333333
 41
0.1959999948740005
340
55
342
E5
  0
ENDTAB
  0
TABLE
  2
BLOCK_RECORD
  5
1
330
0
100
AcDbSymbolTable
 70
    16
  0
BLOCK_RECORD
  5
6C
330
1
100
AcDbSymbolTableRecord
100
AcDbBlockTableRecord
  2
*Model_Space
340
6F
  0
BLOCK_RECORD
  5
68
330
1
100
AcDbSymbolTableRecord
100
AcDbBlockTableRecord
  2
*Paper_Space
340
6B
  0
BLOCK_RECORD
  5
70
330
1
100
AcDbSymbolTableRecord
100
AcDbBlockTableRecord
  2
*Paper_Space0
340
73
  0
BLOCK_RECORD
  5
E5
330
1
100
AcDbSymbolTableRecord
100
AcDbBlockTableRecord
  2
_Closed
340
0
  0
BLOCK_RECORD
  5
EC
330
1
100
AcDbSymbolTableRecord
100
AcDbBlockTableRecord
  2
DatumFilled45
340
0
  0
BLOCK_RECORD
  5
F8
330
1
100
AcDbSymbolTableRecord
100
AcDbBlockTableRecord
  2
Filled-1
340
0
  0
BLOCK_RECORD
  5
153
330
1
100
AcDbSymbolTableRecord
100
AcDbBlockTableRecord
  2
*D4
340
0
  0
BLOCK_RECORD
  5
23E
330
1
100
AcDbSymbolTableRecord
100
AcDbBlockTableRecord
  2
*D5
340
0
  0
BLOCK_RECORD
  5
328
330
1
100
AcDbSymbolTableRecord
100
AcDbBlockTableRecord
  2
*D6
340
0
  0
BLOCK_RECORD
  5
426
330
1
100
AcDbSymbolTableRecord
100
AcDbBlockTableRecord
  2
*D7
340
0
  0
BLOCK_RECORD
  5
510
330
1
100
AcDbSymbolTableRecord
100
AcDbBlockTableRecord
  2
*D8
340
0
  0
BLOCK_RECORD
  5
60E
330
1
100
AcDbSymbolTableRecord
100
AcDbBlockTableRecord
  2
*D9
340
0
  0
BLOCK_RECORD
  5
722
330
1
100
AcDbSymbolTableRecord
100
AcDbBlockTableRecord
  2
*D10
340
0
  0
BLOCK_RECORD
  5
7CC
330
1
100
AcDbSymbolTableRecord
100
AcDbBlockTableRecord
  2
*D11
340
0
  0
BLOCK_RECORD
  5
875
330
1
100
AcDbSymbolTableRecord
100
AcDbBlockTableRecord
  2
*D12
340
0
  0
BLOCK_RECORD
  5
989
330
1
100
AcDbSymbolTableRecord
100
AcDbBlockTableRecord
  2
*D13
340
0
  0
BLOCK_RECORD
  5
A9C
330
1
100
AcDbSymbolTableRecord
100
AcDbBlockTableRecord
  2
*D14
340
0
  0
BLOCK_RECORD
  5
B9A
330
1
100
AcDbSymbolTableRecord
100
AcDbBlockTableRecord
  2
*D15
340
0
  0
ENDTAB
  0
ENDSEC
  0
SECTION
  2
BLOCKS
  0
BLOCK
  5
6D
330
6C
100
AcDbEntity
  8
0
100
AcDbBlockBegin
  2
*Model_Space
 70
     0
 10
0.0
 20
0.0
 30
0.0
  3
*Model_Space
  1

  0
ENDBLK
  5
6E
330
6C
100
AcDbEntity
  8
0
100
AcDbBlockEnd
  0
BLOCK
  5
69
330
68
100
AcDbEntity
 67
     1
  8
0
100
AcDbBlockBegin
  2
*Paper_Space
 70
     0
 10
0.0
 20
0.0
 30
0.0
  3
*Paper_Space
  1

  0
ENDBLK
  5
6A
330
68
100
AcDbEntity
 67
     1
  8
0
100
AcDbBlockEnd
  0
BLOCK
  5
71
330
70
100
AcDbEntity
 67
     1
  8
0
100
AcDbBlockBegin
  2
*Paper_Space0
 70
     0
 10
0.0
 20
0.0
 30
0.0
  3
*Paper_Space0
  1

  0
ENDBLK
  5
72
330
70
100
AcDbEntity
 67
     1
  8
0
100
AcDbBlockEnd
  0
BLOCK
  5
EA
330
E5
100
AcDbEntity
  8
0
100
AcDbBlockBegin
  2
_Closed
 70
     0
 10
0.0
 20
0.0
 30
0.0
  3
_Closed
  1

  0
LINE
  5
E6
330
E5
100
AcDbEntity
  8
0
  6
ByBlock
 62
     0
370
    -2
100
AcDbLine
 10
-1.0
 20
0.1666666666666666
 30
0.0
 11
0.0
 21
0.0
 31
0.0
  0
LINE
  5
E7
330
E5
100
AcDbEntity
  8
0
  6
ByBlock
 62
     0
370
    -2
100
AcDbLine
 10
0.0
 20
0.0
 30
0.0
 11
-1.0
 21
-0.1666666666666666
 31
0.0
  0
LINE
  5
E8
330
E5
100
AcDbEntity
  8
0
  6
ByBlock
 62
     0
370
    -2
100
AcDbLine
 10
-1.0
 20
0.1666666666666666
 30
0.0
 11
-1.0
 21
-0.1666666666666666
 31
0.0
  0
LINE
  5
E9
330
E5
100
AcDbEntity
  8
0
  6
ByBlock
 62
     0
370
    -2
100
AcDbLine
 10
0.0
 20
0.0
 30
0.0
 11
-1.0
 21
0.0
 31
0.0
  0
ENDBLK
  5
EB
330
E5
100
AcDbEntity
  8
0
100
AcDbBlockEnd
  0
BLOCK
  5
ED
330
EC
100
AcDbEntity
  8
0
100
AcDbBlockBegin
  2
DatumFilled45
 70
     0
 10
0.0
 20
0.0
 30
0.0
  3
DatumFilled45
  1

  0
POLYLINE
  5
EF
330
EC
100
AcDbEntity
  8
0
 62
     0
100
AcDb2dPolyline
 66
     1
 10
0.0
 20
0.0
 30
0.0
 70
   128
  0
VERTEX
  5
F0
330
EF
100
AcDbEntity
  8
0
 62
     0
100
AcDbVertex
100
AcDb2dVertex
 10
0.0
 20
0.9999999999999998
 30
0.0
  0
VERTEX
  5
F1
330
EF
100
AcDbEntity
  8
0
 62
     0
100
AcDbVertex
100
AcDb2dVertex
 10
0.0
 20
-0.9999999999999998
 30
0.0
  0
VERTEX
  5
F3
330
EF
100
AcDbEntity
  8
0
 62
     0
100
AcDbVertex
100
AcDb2dVertex
 10
-0.9999999999999998
 20
0.0
 30
0.0
  0
VERTEX
  5
F4
330
EF
100
AcDbEntity
  8
0
 62
     0
100
AcDbVertex
100
AcDb2dVertex
 10
0.0
 20
0.9999999999999998
 30
0.0
  0
SEQEND
  5
F2
330
EF
100
AcDbEntity
  8
0
 62
     0
  0
SOLID
  5
F6
330
EC
100
AcDbEntity
  8
0
 62
     0
100
AcDbTrace
 10
0.0
 20
0.9999999999999998
 30
0.0
 11
0.0
 21
-0.9999999999999998
 31
0.0
 12
-0.9999999999999998
 22
0.0
 32
0.0
 13
0.0
 23
0.9999999999999998
 33
0.0
  0
ENDBLK
  5
EE
330
EC
100
AcDbEntity
  8
0
100
AcDbBlockEnd
  0
BLOCK
  5
F9
330
F8
100
AcDbEntity
  8
0
100
AcDbBlockBegin
  2
Filled-1
 70
     0
 10
0.0
 20
0.0
 30
0.0
  3
Filled-1
  1

  0
LINE
  5
FB
330
F8
100
AcDbEntity
  8
0
 62
     0
100
AcDbLine
 10
-0.9999999999999998
 20
0.0
 30
0.0
 11
0.0
 21
0.0
 31
0.0
  0
POLYLINE
  5
FC
330
F8
100
AcDbEntity
  8
0
 62
     0
100
AcDb2dPolyline
 66
     1
 10
0.0
 20
0.0
 30
0.0
 70
   128
  0
VERTEX
  5
FD
330
FC
100
AcDbEntity
  8
0
 62
     0
100
AcDbVertex
100
AcDb2dVertex
 10
-0.9999999999999998
 20
-0.0994897959183674
 30
0.0
  0
VERTEX
  5
FE
330
FC
100
AcDbEntity
  8
0
 62
     0
100
AcDbVertex
100
AcDb2dVertex
 10
0.0
 20
0.0
 30
0.0
  0
VERTEX
  5
100
330
FC
100
AcDbEntity
  8
0
 62
     0
100
AcDbVertex
100
AcDb2dVertex
 10
-0.9999999999999998
 20
0.0994897959183674
 30
0.0
  0
VERTEX
  5
101
330
FC
100
AcDbEntity
  8
0
 62
     0
100
AcDbVertex
100
AcDb2dVertex
 10
-0.9999999999999998
 20
-0.0994897959183674
 30
0.0
  0
SEQEND
  5
FF
330
FC
100
AcDbEntity
  8
0
 62
     0
  0
SOLID
  5
102
330
F8
100
AcDbEntity
  8
0
 62
     0
100
AcDbTrace
 10
-0.9999999999999998
 20
-0.0994897959183674
 30
0.0
 11
0.0
 21
0.0
 31
0.0
 12
-0.9999999999999998
 22
0.0994897959183674
 32
0.0
 13
-0.9999999999999998
 23
-0.0994897959183674
 33
0.0
  0
LINE
  5
103
330
F8
100
AcDbEntity
  8
0
 62
     0
100
AcDbLine
 10
-0.9999999999999998
 20
-0.0994897959183674
 30
0.0
 11
0.0
 21
0.0
 31
0.0
  0
LINE
  5
104
330
F8
100
AcDbEntity
  8
0
 62
     0
100
AcDbLine
 10
0.0
 20
0.0
 30
0.0
 11
-0.9999999999999998
 21
0.0994897959183674
 31
0.0
  0
LINE
  5
105
330
F8
100
AcDbEntity
  8
0
 62
     0
100
AcDbLine
 10
-0.9999999999999998
 20
0.0994897959183674
 30
0.0
 11
-0.9999999999999998
 21
-0.0994897959183674
 31
0.0
  0
ENDBLK
  5
FA
330
F8
100
AcDbEntity
  8
0
100
AcDbBlockEnd
  0
BLOCK
  5
154
330
153
100
AcDbEntity
  8
0
100
AcDbBlockBegin
  2
*D4
 70
     1
 10
0.0
 20
0.0
 30
0.0
  3
*D4
  1

  0
LINE
  5
233
330
153
100
AcDbEntity
  8
Dimension (ANSI)
100
AcDbLine
 10
7.975755551566556
 20
28.89044592691951
 30
0.0
 11
7.975755551566556
 21
33.21749518999239
 31
0.0
  0
LINE
  5
234
330
153
100
AcDbEntity
  8
Dimension (ANSI)
100
AcDbLine
 10
26.17575555156656
 20
28.89044592691952
 30
0.0
 11
26.17575555156656
 21
33.21749518999239
 31
0.0
  0
LINE
  5
235
330
153
100
AcDbEntity
  8
Dimension (ANSI)
100
AcDbLine
 10
8.303839533636843
 20
32.80082852332573
 30
0.0
 11
16.16918136139425
 21
32.80082852332573
 31
0.0
  0
LINE
  5
236
330
153
100
AcDbEntity
  8
Dimension (ANSI)
100
AcDbLine
 10
25.84767156949627
 20
32.80082852332573
 30
0.0
 11
17.98232974173886
 21
32.80082852332573
 31
0.0
  0
SOLID
  5
237
330
153
100
AcDbEntity
  8
Dimension (ANSI)
100
AcDbTrace
 10
8.303839533636843
 20
32.85550918700411
 30
0.0
 11
8.303839533636843
 21
32.74614785964735
 31
0.0
 12
7.975755551566556
 22
32.80082852332573
 32
0.0
 13
7.975755551566556
 23
32.80082852332573
 33
0.0
  0
SOLID
  5
238
330
153
100
AcDbEntity
  8
Dimension (ANSI)
100
AcDbTrace
 10
25.84767156949627
 20
32.85550918700411
 30
0.0
 11
25.84767156949627
 21
32.74614785964735
 31
0.0
 12
26.17575555156656
 22
32.80082852332573
 32
0.0
 13
26.17575555156656
 23
32.80082852332573
 33
0.0
  0
MTEXT
  5
239
330
153
100
AcDbEntity
  8
Dimension (ANSI)
100
AcDbMText
 10
16.27416823803467
 20
32.96749519247593
 30
0.0
 40
0.3333333383003871
 41
0.0
 71
     1
 72
     1
  1
\A1;18.200
  7
ROMANS
 73
     1
 44
1.0
1001
ACAD
1000
MTEXTBEGIN
1070
    73
1070
     1
1070
    44
1040
1.0
1070
    74
1070
     0
1000
MTEXTEND
  0
POINT
  5
23A
330
153
100
AcDbEntity
  8
Defpoints
 62
     0
100
AcDbPoint
 10
7.975755551566556
 20
28.68211259358618
 30
0.0
  0
POINT
  5
23B
330
153
100
AcDbEntity
  8
Defpoints
 62
     0
100
AcDbPoint
 10
26.17575555156656
 20
28.68211259358619
 30
0.0
  0
POINT
  5
23C
330
153
100
AcDbEntity
  8
Defpoints
 62
     0
100
AcDbPoint
 10
26.17575555156656
 20
32.80082852332573
 30
0.0
  0
ENDBLK
  5
155
330
153
100
AcDbEntity
  8
0
100
AcDbBlockEnd
  0
BLOCK
  5
23F
330
23E
100
AcDbEntity
  8
0
100
AcDbBlockBegin
  2
*D5
 70
     1
 10
0.0
 20
0.0
 30
0.0
  3
*D5
  1

  0
LINE
  5
31D
330
23E
100
AcDbEntity
  8
Dimension (ANSI)
100
AcDbLine
 10
8.475755551566557
 20
29.39044592691951
 30
0.0
 11
8.475755551566557
 21
32.26383074420197
 31
0.0
  0
LINE
  5
31E
330
23E
100
AcDbEntity
  8
Dimension (ANSI)
100
AcDbLine
 10
25.67575555156655
 20
29.39044592691951
 30
0.0
 11
25.67575555156655
 21
32.26383074420197
 31
0.0
  0
LINE
  5
31F
330
23E
100
AcDbEntity
  8
Dimension (ANSI)
100
AcDbLine
 10
8.803839533636844
 20
31.8471640775353
 30
0.0
 11
15.4945781767387
 21
31.8471640775353
 31
0.0
  0
LINE
  5
320
330
23E
100
AcDbEntity
  8
Dimension (ANSI)
100
AcDbLine
 10
25.34767156949627
 20
31.8471640775353
 30
0.0
 11
18.6569329263944
 21
31.8471640775353
 31
0.0
  0
SOLID
  5
321
330
23E
100
AcDbEntity
  8
Dimension (ANSI)
100
AcDbTrace
 10
8.803839533636844
 20
31.90184474121368
 30
0.0
 11
8.803839533636844
 21
31.79248341385692
 31
0.0
 12
8.475755551566557
 22
31.8471640775353
 32
0.0
 13
8.475755551566557
 23
31.8471640775353
 33
0.0
  0
SOLID
  5
322
330
23E
100
AcDbEntity
  8
Dimension (ANSI)
100
AcDbTrace
 10
25.34767156949627
 20
31.90184474121368
 30
0.0
 11
25.34767156949627
 21
31.79248341385692
 31
0.0
 12
25.67575555156655
 22
31.8471640775353
 32
0.0
 13
25.67575555156655
 23
31.8471640775353
 33
0.0
  0
MTEXT
  5
323
330
23E
100
AcDbEntity
  8
Dimension (ANSI)
100
AcDbMText
 10
17.07575555156655
 20
31.8471640775353
 30
0.0
 40
0.3333333383003871
 41
0.0
 71
     5
 72
     1
  1
\A1;17.200{ TYP.}
  7
ROMANS
 73
     1
 44
1.0
1001
ACAD
1000
MTEXTBEGIN
1070
    73
1070
     1
1070
    44
1040
1.0
1070
    74
1070
     0
1000
MTEXTEND
  0
POINT
  5
324
330
23E
100
AcDbEntity
  8
Defpoints
 62
     0
100
AcDbPoint
 10
8.475755551566557
 20
29.18211259358618
 30
0.0
  0
POINT
  5
325
330
23E
100
AcDbEntity
  8
Defpoints
 62
     0
100
AcDbPoint
 10
25.67575555156655
 20
29.18211259358619
 30
0.0
  0
POINT
  5
326
330
23E
100
AcDbEntity
  8
Defpoints
 62
     0
100
AcDbPoint
 10
25.67575555156655
 20
31.8471640775353
 30
0.0
  0
ENDBLK
  5
240
330
23E
100
AcDbEntity
  8
0
100
AcDbBlockEnd
  0
BLOCK
  5
329
330
328
100
AcDbEntity
  8
0
100
AcDbBlockBegin
  2
*D6
 70
     1
 10
0.0
 20
0.0
 30
0.0
  3
*D6
  1

  0
LINE
  5
41B
330
328
100
AcDbEntity
  8
Dimension (ANSI)
100
AcDbLine
 10
7.975755551566556
 20
28.89044592691951
 30
0.0
 11
7.975755551566556
 21
32.26383074420197
 31
0.0
  0
LINE
  5
41C
330
328
100
AcDbEntity
  8
Dimension (ANSI)
100
AcDbLine
 10
8.475755551566557
 20
29.39044592691951
 30
0.0
 11
8.475755551566557
 21
32.26383074420197
 31
0.0
  0
LINE
  5
41D
330
328
100
AcDbEntity
  8
Dimension (ANSI)
100
AcDbLine
 10
8.803839533636844
 20
31.8471640775353
 30
0.0
 11
9.13192351570713
 21
31.8471640775353
 31
0.0
  0
LINE
  5
41E
330
328
100
AcDbEntity
  8
Dimension (ANSI)
100
AcDbLine
 10
7.647671569496269
 20
31.8471640775353
 30
0.0
 11
7.216369808270319
 21
31.8471640775353
 31
0.0
  0
SOLID
  5
41F
330
328
100
AcDbEntity
  8
Dimension (ANSI)
100
AcDbTrace
 10
8.803839533636844
 20
31.90184474121368
 30
0.0
 11
8.803839533636844
 21
31.79248341385692
 31
0.0
 12
8.475755551566557
 22
31.8471640775353
 32
0.0
 13
8.475755551566557
 23
31.8471640775353
 33
0.0
  0
SOLID
  5
420
330
328
100
AcDbEntity
  8
Dimension (ANSI)
100
AcDbTrace
 10
7.647671569496269
 20
31.90184474121368
 30
0.0
 11
7.647671569496269
 21
31.79248341385692
 31
0.0
 12
7.975755551566556
 22
31.8471640775353
 32
0.0
 13
7.975755551566556
 23
31.8471640775353
 33
0.0
  0
MTEXT
  5
421
330
328
100
AcDbEntity
  8
Dimension (ANSI)
100
AcDbMText
 10
6.444716255029125
 20
31.8471640775353
 30
0.0
 40
0.3333333383003871
 41
0.0
 71
     5
 72
     1
  1
\A1;0.500{\PTYP.}
  7
ROMANS
 73
     1
 44
1.0
1001
ACAD
1000
MTEXTBEGIN
1070
    73
1070
     1
1070
    44
1040
1.0
1070
    74
1070
     0
1000
MTEXTEND
  0
POINT
  5
422
330
328
100
AcDbEntity
  8
Defpoints
 62
     0
100
AcDbPoint
 10
7.975755551566556
 20
28.68211259358618
 30
0.0
  0
POINT
  5
423
330
328
100
AcDbEntity
  8
Defpoints
 62
     0
100
AcDbPoint
 10
8.475755551566557
 20
29.18211259358618
 30
0.0
  0
POINT
  5
424
330
328
100
AcDbEntity
  8
Defpoints
 62
     0
100
AcDbPoint
 10
8.475755551566557
 20
31.8471640775353
 30
0.0
  0
ENDBLK
  5
32A
330
328
100
AcDbEntity
  8
0
100
AcDbBlockEnd
  0
BLOCK
  5
427
330
426
100
AcDbEntity
  8
0
100
AcDbBlockBegin
  2
*D7
 70
     1
 10
0.0
 20
0.0
 30
0.0
  3
*D7
  1

  0
LINE
  5
505
330
426
100
AcDbEntity
  8
Dimension (ANSI)
100
AcDbLine
 10
8.267422218233223
 20
29.18211259358618
 30
0.0
 11
3.213540732265136
 21
29.18211259358619
 31
0.0
  0
LINE
  5
506
330
426
100
AcDbEntity
  8
Dimension (ANSI)
100
AcDbLine
 10
8.26742221823323
 20
10.98211259358618
 30
0.0
 11
3.213540732265131
 21
10.98211259358618
 31
0.0
  0
LINE
  5
507
330
426
100
AcDbEntity
  8
Dimension (ANSI)
100
AcDbLine
 10
3.630207398931802
 20
28.8540286115159
 30
0.0
 11
3.6302073989318
 21
20.35376613937679
 31
0.0
  0
LINE
  5
508
330
426
100
AcDbEntity
  8
Dimension (ANSI)
100
AcDbLine
 10
3.630207398931799
 20
11.31019657565647
 30
0.0
 11
3.6302073989318
 21
19.81045904779556
 31
0.0
  0
SOLID
  5
509
330
426
100
AcDbEntity
  8
Dimension (ANSI)
100
AcDbTrace
 10
3.575526735253421
 20
28.8540286115159
 30
0.0
 11
3.684888062610183
 21
28.8540286115159
 31
0.0
 12
3.630207398931803
 22
29.18211259358619
 32
0.0
 13
3.630207398931803
 23
29.18211259358619
 33
0.0
  0
SOLID
  5
50A
330
426
100
AcDbEntity
  8
Dimension (ANSI)
100
AcDbTrace
 10
3.575526735253418
 20
11.31019657565647
 30
0.0
 11
3.68488806261018
 21
11.31019657565647
 31
0.0
 12
3.630207398931798
 22
10.98211259358618
 32
0.0
 13
3.630207398931798
 23
10.98211259358618
 33
0.0
  0
MTEXT
  5
50B
330
426
100
AcDbEntity
  8
Dimension (ANSI)
100
AcDbMText
 10
2.828620085399914
 20
20.24877926273637
 30
0.0
 40
0.3333333383003871
 41
0.0
 71
     1
 72
     1
  1
\A1;18.200
  7
ROMANS
 73
     1
 44
1.0
1001
ACAD
1000
MTEXTBEGIN
1070
    73
1070
     1
1070
    44
1040
1.0
1070
    74
1070
     0
1000
MTEXTEND
  0
POINT
  5
50C
330
426
100
AcDbEntity
  8
Defpoints
 62
     0
100
AcDbPoint
 10
8.475755551566557
 20
29.18211259358618
 30
0.0
  0
POINT
  5
50D
330
426
100
AcDbEntity
  8
Defpoints
 62
     0
100
AcDbPoint
 10
8.475755551566564
 20
10.98211259358618
 30
0.0
  0
POINT
  5
50E
330
426
100
AcDbEntity
  8
Defpoints
 62
     0
100
AcDbPoint
 10
3.630207398931798
 20
10.98211259358618
 30
0.0
  0
ENDBLK
  5
428
330
426
100
AcDbEntity
  8
0
100
AcDbBlockEnd
  0
BLOCK
  5
511
330
510
100
AcDbEntity
  8
0
100
AcDbBlockBegin
  2
*D8
 70
     1
 10
0.0
 20
0.0
 30
0.0
  3
*D8
  1

  0
LINE
  5
603
330
510
100
AcDbEntity
  8
Dimension (ANSI)
100
AcDbLine
 10
7.767422218233229
 20
11.48211259358618
 30
0.0
 11
5.984285735293598
 21
11.48211259358618
 31
0.0
  0
LINE
  5
604
330
510
100
AcDbEntity
  8
Dimension (ANSI)
100
AcDbLine
 10
7.767422218233223
 20
28.68211259358618
 30
0.0
 11
5.984285735293601
 21
28.68211259358618
 31
0.0
  0
LINE
  5
605
330
510
100
AcDbEntity
  8
Dimension (ANSI)
100
AcDbLine
 10
6.400952401960265
 20
11.81019657565647
 30
0.0
 11
6.400952401960267
 21
19.53268126587857
 31
0.0
  0
LINE
  5
606
330
510
100
AcDbEntity
  8
Dimension (ANSI)
100
AcDbLine
 10
6.400952401960268
 20
28.35402861151589
 30
0.0
 11
6.400952401960267
 21
20.63154392129378
 31
0.0
  0
SOLID
  5
607
330
510
100
AcDbEntity
  8
Dimension (ANSI)
100
AcDbTrace
 10
6.346271738281884
 20
11.81019657565647
 30
0.0
 11
6.455633065638646
 21
11.81019657565647
 31
0.0
 12
6.400952401960265
 22
11.48211259358618
 32
0.0
 13
6.400952401960265
 23
11.48211259358618
 33
0.0
  0
SOLID
  5
608
330
510
100
AcDbEntity
  8
Dimension (ANSI)
100
AcDbTrace
 10
6.346271738281887
 20
28.35402861151589
 30
0.0
 11
6.455633065638649
 21
28.35402861151589
 31
0.0
 12
6.400952401960268
 22
28.68211259358618
 32
0.0
 13
6.400952401960268
 23
28.68211259358618
 33
0.0
  0
MTEXT
  5
609
330
510
100
AcDbEntity
  8
Dimension (ANSI)
100
AcDbMText
 10
6.400952401960263
 20
20.08211259358617
 30
0.0
 40
0.3333333383003871
 41
0.0
 71
     5
 72
     1
  1
\A1;17.200{\PTYP.}
  7
ROMANS
 73
     1
 44
1.0
1001
ACAD
1000
MTEXTBEGIN
1070
    73
1070
     1
1070
    44
1040
1.0
1070
    74
1070
     0
1000
MTEXTEND
  0
POINT
  5
60A
330
510
100
AcDbEntity
  8
Defpoints
 62
     0
100
AcDbPoint
 10
7.975755551566562
 20
11.48211259358618
 30
0.0
  0
POINT
  5
60B
330
510
100
AcDbEntity
  8
Defpoints
 62
     0
100
AcDbPoint
 10
7.975755551566556
 20
28.68211259358618
 30
0.0
  0
POINT
  5
60C
330
510
100
AcDbEntity
  8
Defpoints
 62
     0
100
AcDbPoint
 10
6.400952401960268
 20
28.68211259358618
 30
0.0
  0
ENDBLK
  5
512
330
510
100
AcDbEntity
  8
0
100
AcDbBlockEnd
  0
BLOCK
  5
60F
330
60E
100
AcDbEntity
  8
0
100
AcDbBlockBegin
  2
*D9
 70
     1
 10
0.0
 20
0.0
 30
0.0
  3
*D9
  1

  0
LINE
  5
716
330
60E
100
AcDbEntity
  8
Dimension (ANSI)
100
AcDbLine
 10
8.267422218233223
 20
29.18211259358618
 30
0.0
 11
4.884548199982119
 21
29.18211259358619
 31
0.0
  0
LINE
  5
717
330
60E
100
AcDbEntity
  8
Dimension (ANSI)
100
AcDbLine
 10
7.767422218233223
 20
28.68211259358618
 30
0.0
 11
4.884548199982119
 21
28.68211259358618
 31
0.0
  0
LINE
  5
718
330
60E
100
AcDbEntity
  8
Dimension (ANSI)
100
AcDbLine
 10
5.301214866648785
 20
28.35402861151589
 30
0.0
 11
5.301214866648785
 21
28.0259446294456
 31
0.0
  0
LINE
  5
719
330
60E
100
AcDbEntity
  8
Dimension (ANSI)
100
AcDbLine
 10
5.301214866648785
 20
29.51019657565647
 30
0.0
 11
5.301214866648786
 21
30.46513328666929
 31
0.0
  0
LINE
  5
71A
330
60E
100
AcDbEntity
  8
Dimension (ANSI)
100
AcDbLine
 10
5.301214866648786
 20
30.46513328666929
 30
0.0
 11
5.629298848719073
 21
30.46513328666929
 31
0.0
  0
SOLID
  5
71B
330
60E
100
AcDbEntity
  8
Dimension (ANSI)
100
AcDbTrace
 10
5.246534202970404
 20
28.35402861151589
 30
0.0
 11
5.355895530327166
 21
28.35402861151589
 31
0.0
 12
5.301214866648785
 22
28.68211259358618
 32
0.0
 13
5.301214866648785
 23
28.68211259358618
 33
0.0
  0
SOLID
  5
71C
330
60E
100
AcDbEntity
  8
Dimension (ANSI)
100
AcDbTrace
 10
5.246534202970404
 20
29.51019657565647
 30
0.0
 11
5.355895530327166
 21
29.51019657565647
 31
0.0
 12
5.301214866648785
 22
29.18211259358619
 32
0.0
 13
5.301214866648785
 23
29.18211259358619
 33
0.0
  0
MTEXT
  5
71D
330
60E
100
AcDbEntity
  8
Dimension (ANSI)
100
AcDbMText
 10
6.400952401960262
 20
30.46513328666929
 30
0.0
 40
0.3333333383003871
 41
0.0
 71
     5
 72
     1
  1
\A1;0.500{\PTYP.}
  7
ROMANS
 73
     1
 44
1.0
1001
ACAD
1000
MTEXTBEGIN
1070
    73
1070
     1
1070
    44
1040
1.0
1070
    74
1070
     0
1000
MTEXTEND
  0
POINT
  5
71E
330
60E
100
AcDbEntity
  8
Defpoints
 62
     0
100
AcDbPoint
 10
8.475755551566557
 20
29.18211259358618
 30
0.0
  0
POINT
  5
71F
330
60E
100
AcDbEntity
  8
Defpoints
 62
     0
100
AcDbPoint
 10
7.975755551566556
 20
28.68211259358618
 30
0.0
  0
POINT
  5
720
330
60E
100
AcDbEntity
  8
Defpoints
 62
     0
100
AcDbPoint
 10
5.301214866648785
 20
28.68211259358618
 30
0.0
  0
ENDBLK
  5
610
330
60E
100
AcDbEntity
  8
0
100
AcDbBlockEnd
  0
BLOCK
  5
723
330
722
100
AcDbEntity
  8
0
100
AcDbBlockBegin
  2
*D10
 70
     1
 10
0.0
 20
0.0
 30
0.0
  3
*D10
  1

  0
LINE
  5
7C3
330
722
100
AcDbEntity
  8
Dimension (ANSI)
100
AcDbLine
 10
10.75407376503833
 20
9.783828126036663
 30
0.0
 11
10.21404001911657
 21
9.783828126036665
 31
0.0
  0
LINE
  5
7C4
330
722
100
AcDbEntity
  8
Dimension (ANSI)
100
AcDbLine
 10
10.21404001911657
 20
9.783828126036665
 30
0.0
 11
8.904522655383841
 21
11.09334548976901
 31
0.0
  0
MTEXT
  5
7C5
102
{ACAD_XDICTIONARY
360
CEF
102
}
330
722
100
AcDbEntity
  8
Dimension (ANSI)
100
AcDbMText
 10
10.85906064167875
 20
10.03779638378934
 30
0.0
 40
0.3333333383003871
 41
0.0
 71
     1
 72
     1
  1
\A1;\U+22050.500{ TYP. (4 PL.)}
  7
ROMANS
 73
     1
 44
1.0
1001
ACAD
1000
MTEXTBEGIN
1070
    73
1070
     1
1070
    44
1040
1.0
1070
    74
1070
     0
1000
MTEXTEND
  0
SOLID
  5
7C6
330
722
100
AcDbEntity
  8
Dimension (ANSI)
100
AcDbTrace
 10
8.9431877234706
 20
11.13201055785578
 30
0.0
 11
8.865857587297083
 21
11.05468042168225
 31
0.0
 12
8.672532246863221
 22
11.32533589828957
 32
0.0
 13
8.672532246863221
 23
11.32533589828957
 33
0.0
  0
LINE
  5
7C7
330
722
100
AcDbEntity
  8
Dimension (ANSI)
100
AcDbLine
 10
8.195755551566557
 20
11.50211259358618
 30
0.0
 11
8.795755551566561
 21
11.50211259358618
 31
0.0
  0
LINE
  5
7C8
330
722
100
AcDbEntity
  8
Dimension (ANSI)
100
AcDbLine
 10
8.495755551566558
 20
11.20211259358618
 30
0.0
 11
8.495755551566558
 21
11.80211259358618
 31
0.0
  0
POINT
  5
7C9
330
722
100
AcDbEntity
  8
Defpoints
 62
     0
100
AcDbPoint
 10
8.672532246863221
 20
11.32533589828957
 30
0.0
  0
POINT
  5
7CA
330
722
100
AcDbEntity
  8
Defpoints
 62
     0
100
AcDbPoint
 10
8.318978856269898
 20
11.67888928888279
 30
0.0
  0
ENDBLK
  5
724
330
722
100
AcDbEntity
  8
0
100
AcDbBlockEnd
  0
BLOCK
  5
7CD
330
7CC
100
AcDbEntity
  8
0
100
AcDbBlockBegin
  2
*D11
 70
     1
 10
0.0
 20
0.0
 30
0.0
  3
*D11
  1

  0
LINE
  5
86C
330
7CC
100
AcDbEntity
  8
Dimension (ANSI)
100
AcDbLine
 10
10.87152968684221
 20
10.41637220423285
 30
0.0
 11
10.33149594092045
 21
10.41637220423285
 31
0.0
  0
LINE
  5
86D
330
7CC
100
AcDbEntity
  8
Dimension (ANSI)
100
AcDbLine
 10
10.33149594092045
 20
10.41637220423285
 30
0.0
 11
8.838231394647598
 21
11.90963675050525
 31
0.0
  0
MTEXT
  5
86E
102
{ACAD_XDICTIONARY
360
CF1
102
}
330
7CC
100
AcDbEntity
  8
Dimension (ANSI)
100
AcDbMText
 10
10.97651656348263
 20
10.67034046198553
 30
0.0
 40
0.3333333383003871
 41
0.0
 71
     1
 72
     1
  1
\A1;\U+22050.313{ TYP. (4 PL.)}
  7
ROMANS
 73
     1
 44
1.0
1001
ACAD
1000
MTEXTBEGIN
1070
    73
1070
     1
1070
    44
1040
1.0
1070
    74
1070
     0
1000
MTEXTEND
  0
SOLID
  5
86F
330
7CC
100
AcDbEntity
  8
Dimension (ANSI)
100
AcDbTrace
 10
8.876896462734356
 20
11.94830181859201
 30
0.0
 11
8.799566326560839
 21
11.87097168241848
 31
0.0
 12
8.606240986126977
 22
12.1416271590258
 32
0.0
 13
8.606240986126977
 23
12.1416271590258
 33
0.0
  0
LINE
  5
870
330
7CC
100
AcDbEntity
  8
Dimension (ANSI)
100
AcDbLine
 10
8.195755551566563
 20
12.25211259358618
 30
0.0
 11
8.795755551566564
 21
12.25211259358618
 31
0.0
  0
LINE
  5
871
330
7CC
100
AcDbEntity
  8
Dimension (ANSI)
100
AcDbLine
 10
8.49575555156656
 20
11.95211259358617
 30
0.0
 11
8.495755551566562
 21
12.55211259358618
 31
0.0
  0
POINT
  5
872
330
7CC
100
AcDbEntity
  8
Defpoints
 62
     0
100
AcDbPoint
 10
8.606240986126977
 20
12.1416271590258
 30
0.0
  0
POINT
  5
873
330
7CC
100
AcDbEntity
  8
Defpoints
 62
     0
100
AcDbPoint
 10
8.385270117006147
 20
12.36259802814656
 30
0.0
  0
ENDBLK
  5
7CE
330
7CC
100
AcDbEntity
  8
0
100
AcDbBlockEnd
  0
BLOCK
  5
876
330
875
100
AcDbEntity
  8
0
100
AcDbBlockBegin
  2
*D12
 70
     1
 10
0.0
 20
0.0
 30
0.0
  3
*D12
  1

  0
LINE
  5
97D
330
875
100
AcDbEntity
  8
Dimension (ANSI)
100
AcDbLine
 10
25.88408888489989
 20
10.98211259358618
 30
0.0
 11
29.83665411280716
 21
10.98211259358618
 31
0.0
  0
LINE
  5
97E
330
875
100
AcDbEntity
  8
Dimension (ANSI)
100
AcDbLine
 10
25.8640888848999
 20
11.50211259358618
 30
0.0
 11
29.83665411280716
 21
11.50211259358618
 31
0.0
  0
LINE
  5
97F
330
875
100
AcDbEntity
  8
Dimension (ANSI)
100
AcDbLine
 10
29.4199874461405
 20
11.83019657565646
 30
0.0
 11
29.4199874461405
 21
12.15828055772675
 31
0.0
  0
LINE
  5
980
330
875
100
AcDbEntity
  8
Dimension (ANSI)
100
AcDbLine
 10
29.4199874461405
 20
10.65402861151589
 30
0.0
 11
29.4199874461405
 21
9.961471230304081
 31
0.0
  0
LINE
  5
981
330
875
100
AcDbEntity
  8
Dimension (ANSI)
100
AcDbLine
 10
29.4199874461405
 20
9.961471230304081
 30
0.0
 11
29.09190346407021
 21
9.961471230304081
 31
0.0
  0
SOLID
  5
982
330
875
100
AcDbEntity
  8
Dimension (ANSI)
100
AcDbTrace
 10
29.36530678246212
 20
11.83019657565646
 30
0.0
 11
29.47466810981888
 21
11.83019657565646
 31
0.0
 12
29.4199874461405
 22
11.50211259358618
 32
0.0
 13
29.4199874461405
 23
11.50211259358618
 33
0.0
  0
SOLID
  5
983
330
875
100
AcDbEntity
  8
Dimension (ANSI)
100
AcDbTrace
 10
29.36530678246212
 20
10.65402861151589
 30
0.0
 11
29.47466810981888
 21
10.65402861151589
 31
0.0
 12
29.4199874461405
 22
10.98211259358618
 32
0.0
 13
29.4199874461405
 23
10.98211259358618
 33
0.0
  0
MTEXT
  5
984
330
875
100
AcDbEntity
  8
Dimension (ANSI)
100
AcDbMText
 10
28.32024991082901
 20
9.961471230304086
 30
0.0
 40
0.3333333383003871
 41
0.0
 71
     5
 72
     1
  1
\A1;0.520{ \PTYP.}
  7
ROMANS
 73
     1
 44
1.0
1001
ACAD
1000
MTEXTBEGIN
1070
    73
1070
     1
1070
    44
1040
1.0
1070
    74
1070
     0
1000
MTEXTEND
  0
POINT
  5
985
330
875
100
AcDbEntity
  8
Defpoints
 62
     0
100
AcDbPoint
 10
25.67575555156656
 20
10.98211259358618
 30
0.0
  0
POINT
  5
986
330
875
100
AcDbEntity
  8
Defpoints
 62
     0
100
AcDbPoint
 10
25.65575555156656
 20
11.50211259358618
 30
0.0
  0
POINT
  5
987
330
875
100
AcDbEntity
  8
Defpoints
 62
     0
100
AcDbPoint
 10
29.4199874461405
 20
11.50211259358618
 30
0.0
  0
ENDBLK
  5
877
330
875
100
AcDbEntity
  8
0
100
AcDbBlockEnd
  0
BLOCK
  5
98A
330
989
100
AcDbEntity
  8
0
100
AcDbBlockBegin
  2
*D13
 70
     1
 10
0.0
 20
0.0
 30
0.0
  3
*D13
  1

  0
LINE
  5
A90
330
989
100
AcDbEntity
  8
Dimension (ANSI)
100
AcDbLine
 10
25.88408888489989
 20
10.98211259358618
 30
0.0
 11
31.63029248659824
 21
10.98211259358618
 31
0.0
  0
LINE
  5
A91
330
989
100
AcDbEntity
  8
Dimension (ANSI)
100
AcDbLine
 10
25.8640888848999
 20
12.25211259358618
 30
0.0
 11
31.63029248659824
 21
12.25211259358618
 31
0.0
  0
LINE
  5
A92
330
989
100
AcDbEntity
  8
Dimension (ANSI)
100
AcDbLine
 10
31.21362581993157
 20
11.92402861151589
 30
0.0
 11
31.21362581993157
 21
11.31019657565647
 31
0.0
  0
LINE
  5
A93
330
989
100
AcDbEntity
  8
Dimension (ANSI)
100
AcDbLine
 10
31.21362581993157
 20
10.98211259358618
 30
0.0
 11
31.21362581993157
 21
9.912807758326312
 31
0.0
  0
LINE
  5
A94
330
989
100
AcDbEntity
  8
Dimension (ANSI)
100
AcDbLine
 10
31.21362581993157
 20
9.912807758326312
 30
0.0
 11
30.88554183786129
 21
9.912807758326312
 31
0.0
  0
SOLID
  5
A95
330
989
100
AcDbEntity
  8
Dimension (ANSI)
100
AcDbTrace
 10
31.15894515625319
 20
11.92402861151589
 30
0.0
 11
31.26830648360996
 21
11.92402861151589
 31
0.0
 12
31.21362581993157
 22
12.25211259358618
 32
0.0
 13
31.21362581993157
 23
12.25211259358618
 33
0.0
  0
SOLID
  5
A96
330
989
100
AcDbEntity
  8
Dimension (ANSI)
100
AcDbTrace
 10
31.15894515625319
 20
11.31019657565647
 30
0.0
 11
31.26830648360996
 21
11.31019657565647
 31
0.0
 12
31.21362581993157
 22
10.98211259358618
 32
0.0
 13
31.21362581993157
 23
10.98211259358618
 33
0.0
  0
MTEXT
  5
A97
330
989
100
AcDbEntity
  8
Dimension (ANSI)
100
AcDbMText
 10
30.1376978087844
 20
9.912807758326318
 30
0.0
 40
0.3333333383003871
 41
0.0
 71
     5
 72
     1
  1
\A1;1.270{\PTYP.}
  7
ROMANS
 73
     1
 44
1.0
1001
ACAD
1000
MTEXTBEGIN
1070
    73
1070
     1
1070
    44
1040
1.0
1070
    74
1070
     0
1000
MTEXTEND
  0
POINT
  5
A98
330
989
100
AcDbEntity
  8
Defpoints
 62
     0
100
AcDbPoint
 10
25.67575555156656
 20
10.98211259358618
 30
0.0
  0
POINT
  5
A99
330
989
100
AcDbEntity
  8
Defpoints
 62
     0
100
AcDbPoint
 10
25.65575555156656
 20
12.25211259358618
 30
0.0
  0
POINT
  5
A9A
330
989
100
AcDbEntity
  8
Defpoints
 62
     0
100
AcDbPoint
 10
31.21362581993157
 20
12.25211259358618
 30
0.0
  0
ENDBLK
  5
98B
330
989
100
AcDbEntity
  8
0
100
AcDbBlockEnd
  0
BLOCK
  5
A9D
330
A9C
100
AcDbEntity
  8
0
100
AcDbBlockBegin
  2
*D14
 70
     1
 10
0.0
 20
0.0
 30
0.0
  3
*D14
  1

  0
LINE
  5
B8F
330
A9C
100
AcDbEntity
  8
Dimension (ANSI)
100
AcDbLine
 10
25.65575555156656
 20
12.04377926025285
 30
0.0
 11
25.65575555156656
 21
9.512362248985574
 31
0.0
  0
LINE
  5
B90
330
A9C
100
AcDbEntity
  8
Dimension (ANSI)
100
AcDbLine
 10
26.17575555156657
 20
11.27377926025284
 30
0.0
 11
26.17575555156657
 21
9.512362248985574
 31
0.0
  0
LINE
  5
B91
330
A9C
100
AcDbEntity
  8
Dimension (ANSI)
100
AcDbLine
 10
26.50383953363685
 20
9.92902891565224
 30
0.0
 11
26.83192351570714
 21
9.92902891565224
 31
0.0
  0
LINE
  5
B92
330
A9C
100
AcDbEntity
  8
Dimension (ANSI)
100
AcDbLine
 10
25.32767156949628
 20
9.92902891565224
 30
0.0
 11
24.97172964178127
 21
9.92902891565224
 31
0.0
  0
SOLID
  5
B93
330
A9C
100
AcDbEntity
  8
Dimension (ANSI)
100
AcDbTrace
 10
26.50383953363685
 20
9.983709579330621
 30
0.0
 11
26.50383953363685
 21
9.874348251973859
 31
0.0
 12
26.17575555156657
 22
9.92902891565224
 32
0.0
 13
26.17575555156657
 23
9.92902891565224
 33
0.0
  0
SOLID
  5
B94
330
A9C
100
AcDbEntity
  8
Dimension (ANSI)
100
AcDbTrace
 10
25.32767156949628
 20
9.983709579330621
 30
0.0
 11
25.32767156949628
 21
9.874348251973859
 31
0.0
 12
25.65575555156656
 22
9.92902891565224
 32
0.0
 13
25.65575555156656
 23
9.92902891565224
 33
0.0
  0
MTEXT
  5
B95
330
A9C
100
AcDbEntity
  8
Dimension (ANSI)
100
AcDbMText
 10
24.20007608854007
 20
9.92902891565224
 30
0.0
 40
0.3333333383003871
 41
0.0
 71
     5
 72
     1
  1
\A1;0.520{\PTYP.}
  7
ROMANS
 73
     1
 44
1.0
1001
ACAD
1000
MTEXTBEGIN
1070
    73
1070
     1
1070
    44
1040
1.0
1070
    74
1070
     0
1000
MTEXTEND
  0
POINT
  5
B96
330
A9C
100
AcDbEntity
  8
Defpoints
 62
     0
100
AcDbPoint
 10
25.65575555156656
 20
12.25211259358618
 30
0.0
  0
POINT
  5
B97
330
A9C
100
AcDbEntity
  8
Defpoints
 62
     0
100
AcDbPoint
 10
26.17575555156657
 20
11.48211259358618
 30
0.0
  0
POINT
  5
B98
330
A9C
100
AcDbEntity
  8
Defpoints
 62
     0
100
AcDbPoint
 10
26.17575555156657
 20
9.92902891565224
 30
0.0
  0
ENDBLK
  5
A9E
330
A9C
100
AcDbEntity
  8
0
100
AcDbBlockEnd
  0
BLOCK
  5
B9B
330
B9A
100
AcDbEntity
  8
0
100
AcDbBlockBegin
  2
*D15
 70
     1
 10
0.0
 20
0.0
 30
0.0
  3
*D15
  1

  0
LINE
  5
C8A
330
B9A
100
AcDbEntity
  8
Dimension (ANSI)
100
AcDbLine
 10
35.12487550232762
 20
20.05476361145725
 30
0.0
 11
34.79679152025734
 21
20.05476361145725
 31
0.0
  0
LINE
  5
C8B
330
B9A
100
AcDbEntity
  8
Dimension (ANSI)
100
AcDbLine
 10
35.87479346646821
 20
20.05476361145725
 30
0.0
 11
36.25202875871056
 21
20.05476361145725
 31
0.0
  0
SOLID
  5
C8C
330
B9A
100
AcDbEntity
  8
Dimension (ANSI)
100
AcDbTrace
 10
35.12487550232762
 20
20.10944427513563
 30
0.0
 11
35.12487550232762
 21
20.00008294777887
 31
0.0
 12
35.45295948439791
 22
20.05476361145725
 32
0.0
 13
35.45295948439791
 23
20.05476361145725
 33
0.0
  0
SOLID
  5
C8D
330
B9A
100
AcDbEntity
  8
Dimension (ANSI)
100
AcDbTrace
 10
35.87479346646821
 20
20.10944427513563
 30
0.0
 11
35.87479346646821
 21
20.00008294777887
 31
0.0
 12
35.54670948439792
 22
20.05476361145725
 32
0.0
 13
35.54670948439792
 23
20.05476361145725
 33
0.0
  0
MTEXT
  5
C8E
330
B9A
100
AcDbEntity
  8
Dimension (ANSI)
100
AcDbMText
 10
37.2300315213758
 20
20.05476361145725
 30
0.0
 40
0.3333333383003871
 41
0.0
 71
     5
 72
     1
  1
\A1;(0.094){\P12 GA.\PGALV.}
  7
ROMANS
 73
     1
 44
1.0
1001
ACAD
1000
MTEXTBEGIN
1070
    73
1070
     1
1070
    44
1040
1.0
1070
    74
1070
     0
1000
MTEXTEND
  0
POINT
  5
C8F
330
B9A
100
AcDbEntity
  8
Defpoints
 62
     0
100
AcDbPoint
 10
35.54670948439792
 20
21.26615064961594
 30
0.0
  0
POINT
  5
C90
330
B9A
100
AcDbEntity
  8
Defpoints
 62
     0
100
AcDbPoint
 10
35.45295948439791
 20
21.26615064961594
 30
0.0
  0
POINT
  5
C91
330
B9A
100
AcDbEntity
  8
Defpoints
 62
     0
100
AcDbPoint
 10
35.45295948439791
 20
20.05476361145725
 30
0.0
  0
ENDBLK
  5
B9C
330
B9A
100
AcDbEntity
  8
0
100
AcDbBlockEnd
  0
ENDSEC
  0
SECTION
  2
ENTITIES
  0
CIRCLE
  5
107
330
6C
100
AcDbEntity
  8
Visible (ANSI)
100
AcDbCircle
 10
25.65575555156656
 20
28.66211259358619
 30
0.0
 40
0.25
  0
CIRCLE
  5
108
330
6C
100
AcDbEntity
  8
Visible (ANSI)
100
AcDbCircle
 10
8.495755551566562
 20
28.66211259358618
 30
0.0
 40
0.25
  0
CIRCLE
  5
109
330
6C
100
AcDbEntity
  8
Visible (ANSI)
100
AcDbCircle
 10
8.495755551566562
 20
11.50211259358618
 30
0.0
 40
0.25
  0
CIRCLE
  5
10A
330
6C
100
AcDbEntity
  8
Visible (ANSI)
100
AcDbCircle
 10
25.65575555156656
 20
11.50211259358618
 30
0.0
 40
0.25
  0
CIRCLE
  5
10B
330
6C
100
AcDbEntity
  8
Visible (ANSI)
100
AcDbCircle
 10
25.65575555156656
 20
27.91211259358619
 30
0.0
 40
0.15625
  0
CIRCLE
  5
10C
330
6C
100
AcDbEntity
  8
Visible (ANSI)
100
AcDbCircle
 10
8.495755551566562
 20
27.91211259358618
 30
0.0
 40
0.15625
  0
CIRCLE
  5
10D
330
6C
100
AcDbEntity
  8
Visible (ANSI)
100
AcDbCircle
 10
8.495755551566562
 20
12.25211259358618
 30
0.0
 40
0.15625
  0
CIRCLE
  5
10E
330
6C
100
AcDbEntity
  8
Visible (ANSI)
100
AcDbCircle
 10
25.65575555156656
 20
12.25211259358618
 30
0.0
 40
0.15625
  0
LINE
  5
10F
330
6C
100
AcDbEntity
  8
Visible (ANSI)
100
AcDbLine
 10
7.975755551566556
 20
28.68211259358618
 30
0.0
 11
8.475755551566557
 21
29.18211259358618
 31
0.0
  0
LINE
  5
110
330
6C
100
AcDbEntity
  8
Visible (ANSI)
100
AcDbLine
 10
7.975755551566562
 20
11.48211259358618
 30
0.0
 11
7.975755551566556
 21
28.68211259358618
 31
0.0
  0
LINE
  5
111
330
6C
100
AcDbEntity
  8
Visible (ANSI)
100
AcDbLine
 10
25.67575555156656
 20
10.98211259358618
 30
0.0
 11
8.475755551566564
 21
10.98211259358618
 31
0.0
  0
LINE
  5
112
330
6C
100
AcDbEntity
  8
Visible (ANSI)
100
AcDbLine
 10
26.17575555156656
 20
28.68211259358619
 30
0.0
 11
26.17575555156656
 21
11.48211259358618
 31
0.0
  0
LINE
  5
113
330
6C
100
AcDbEntity
  8
Visible (ANSI)
100
AcDbLine
 10
8.475755551566557
 20
29.18211259358618
 30
0.0
 11
25.67575555156655
 21
29.18211259358619
 31
0.0
  0
LINE
  5
114
330
6C
100
AcDbEntity
  8
Visible (ANSI)
100
AcDbLine
 10
8.475755551566564
 20
10.98211259358618
 30
0.0
 11
7.975755551566562
 21
11.48211259358618
 31
0.0
  0
LINE
  5
115
330
6C
100
AcDbEntity
  8
Visible (ANSI)
100
AcDbLine
 10
26.17575555156656
 20
11.48211259358618
 30
0.0
 11
25.67575555156656
 21
10.98211259358618
 31
0.0
  0
LINE
  5
116
330
6C
100
AcDbEntity
  8
Visible (ANSI)
100
AcDbLine
 10
25.67575555156655
 20
29.18211259358619
 30
0.0
 11
26.17575555156656
 21
28.68211259358619
 31
0.0
  0
MTEXT
  5
118
330
6C
100
AcDbEntity
  8
Symbol (ANSI)
100
AcDbMText
 10
15.37605305624876
 20
7.537939097881014
 30
0.0
 40
0.4000000049435874
 41
0.0
 71
     7
 72
     1
  1
FRONT VIEW
  7
Text Style168
 73
     1
 44
1.0
1001
ACAD
1000
MTEXTBEGIN
1070
    73
1070
     1
1070
    44
1040
1.0
1070
    74
1070
     0
1000
MTEXTEND
  0
LINE
  5
11A
330
6C
100
AcDbEntity
  8
Symbol (ANSI)
370
    30
100
AcDbLine
 10
15.33605295335414
 20
7.456366973298046
 30
0.0
 11
18.55193630097306
 21
7.456366973298046
 31
0.0
  0
LINE
  5
11B
330
6C
100
AcDbEntity
  8
Visible (ANSI)
100
AcDbLine
 10
35.54670948439792
 20
28.68211259358618
 30
0.0
 11
35.54670948439777
 21
29.18211259358619
 31
0.0
  0
LINE
  5
11C
330
6C
100
AcDbEntity
  8
Visible (ANSI)
100
AcDbLine
 10
35.45295948439792
 20
28.68211259358618
 30
0.0
 11
35.54670948439792
 21
28.68211259358618
 31
0.0
  0
LINE
  5
11D
330
6C
100
AcDbEntity
  8
Visible (ANSI)
100
AcDbLine
 10
35.45295948439777
 20
29.18211259358619
 30
0.0
 11
35.45295948439792
 21
28.68211259358618
 31
0.0
  0
LINE
  5
11E
330
6C
100
AcDbEntity
  8
Visible (ANSI)
100
AcDbLine
 10
35.54670948439777
 20
29.18211259358619
 30
0.0
 11
35.45295948439777
 21
29.18211259358619
 31
0.0
  0
LINE
  5
11F
330
6C
100
AcDbEntity
  8
Visible (ANSI)
100
AcDbLine
 10
35.54670948439792
 20
11.48211259358617
 30
0.0
 11
35.54670948439792
 21
28.68211259358618
 31
0.0
  0
LINE
  5
120
330
6C
100
AcDbEntity
  8
Visible (ANSI)
100
AcDbLine
 10
35.45295948439792
 20
28.68211259358618
 30
0.0
 11
35.45295948439792
 21
11.48211259358617
 31
0.0
  0
LINE
  5
121
330
6C
100
AcDbEntity
  8
Visible (ANSI)
100
AcDbLine
 10
35.54670948439777
 20
10.98211259358617
 30
0.0
 11
35.54670948439792
 21
11.48211259358617
 31
0.0
  0
LINE
  5
122
330
6C
100
AcDbEntity
  8
Visible (ANSI)
100
AcDbLine
 10
35.45295948439777
 20
10.98211259358617
 30
0.0
 11
35.54670948439777
 21
10.98211259358617
 31
0.0
  0
LINE
  5
123
330
6C
100
AcDbEntity
  8
Visible (ANSI)
100
AcDbLine
 10
35.45295948439792
 20
11.48211259358617
 30
0.0
 11
35.45295948439777
 21
10.98211259358617
 31
0.0
  0
LINE
  5
124
330
6C
100
AcDbEntity
  8
Visible (ANSI)
100
AcDbLine
 10
35.54670948439792
 20
11.48211259358617
 30
0.0
 11
35.45295948439792
 21
11.48211259358617
 31
0.0
  0
LINE
  5
125
330
6C
100
AcDbEntity
  8
Hidden (ANSI)
 48
0.0534695908427239
100
AcDbLine
 10
35.45295948439776
 20
28.91211259358618
 30
0.0
 11
35.54670948439776
 21
28.91211259358618
 31
0.0
  0
LINE
  5
126
330
6C
100
AcDbEntity
  8
Hidden (ANSI)
 48
0.0534695908427239
100
AcDbLine
 10
35.45295948439776
 20
28.41211259358617
 30
0.0
 11
35.54670948439776
 21
28.41211259358617
 31
0.0
  0
LINE
  5
127
330
6C
100
AcDbEntity
  8
Hidden (ANSI)
 48
0.0534695908427239
100
AcDbLine
 10
35.45295948439776
 20
11.75211259358618
 30
0.0
 11
35.54670948439776
 21
11.75211259358618
 31
0.0
  0
LINE
  5
128
330
6C
100
AcDbEntity
  8
Hidden (ANSI)
 48
0.0534695908427239
100
AcDbLine
 10
35.45295948439776
 20
11.25211259358618
 30
0.0
 11
35.54670948439776
 21
11.25211259358618
 31
0.0
  0
LINE
  5
129
330
6C
100
AcDbEntity
  8
Hidden (ANSI)
 48
0.0534695908427239
100
AcDbLine
 10
35.45295948439776
 20
28.06836259358618
 30
0.0
 11
35.54670948439776
 21
28.06836259358618
 31
0.0
  0
LINE
  5
12A
330
6C
100
AcDbEntity
  8
Hidden (ANSI)
 48
0.0534695908427239
100
AcDbLine
 10
35.45295948439776
 20
27.75586259358618
 30
0.0
 11
35.54670948439776
 21
27.75586259358618
 31
0.0
  0
LINE
  5
12B
330
6C
100
AcDbEntity
  8
Hidden (ANSI)
 48
0.0534695908427239
100
AcDbLine
 10
35.45295948439776
 20
12.40836259358617
 30
0.0
 11
35.54670948439776
 21
12.40836259358617
 31
0.0
  0
LINE
  5
12C
330
6C
100
AcDbEntity
  8
Hidden (ANSI)
 48
0.0534695908427239
100
AcDbLine
 10
35.45295948439776
 20
12.09586259358618
 30
0.0
 11
35.54670948439776
 21
12.09586259358618
 31
0.0
  0
MTEXT
  5
12D
330
6C
100
AcDbEntity
  8
Symbol (ANSI)
100
AcDbMText
 10
34.03701391199848
 20
7.540532290424232
 30
0.0
 40
0.4000000049435874
 41
0.0
 71
     7
 72
     1
  1
SIDE VIEW
  7
Text Style168
 73
     1
 44
1.0
1001
ACAD
1000
MTEXTBEGIN
1070
    73
1070
     1
1070
    44
1040
1.0
1070
    74
1070
     0
1000
MTEXTEND
  0
LINE
  5
12E
330
6C
100
AcDbEntity
  8
Symbol (ANSI)
370
    30
100
AcDbLine
 10
34.01653385931644
 20
7.457663569875208
 30
0.0
 11
36.71961326066808
 21
7.457663569875208
 31
0.0
  0
ELLIPSE
  5
12F
330
6C
100
AcDbEntity
  8
Visible (ANSI)
100
AcDbEllipse
 10
53.21929699362439
 20
27.4252402447578
 30
0.0
 11
-0.093568539672076
 21
0.162484394277221
 31
0.0
210
0.0
220
0.0
230
1.0
 40
0.578093115915813
 41
0.2678448778124958
 42
2.873747775777214
  0
ELLIPSE
  5
130
330
6C
100
AcDbEntity
  8
Visible (ANSI)
100
AcDbEllipse
 10
53.16957854807222
 20
27.39660929613177
 30
0.0
 11
-0.0935685396720757
 21
0.1624843942772204
 31
0.0
210
0.0
220
0.0
230
1.0
 40
0.5780931159158129
 41
0.0
 42
6.283185307179586
  0
ELLIPSE
  5
131
330
6C
100
AcDbEntity
  8
Visible (ANSI)
100
AcDbEllipse
 10
44.11883271975217
 20
32.66584908126433
 30
0.0
 11
-0.0935685396720754
 21
0.1624843942772201
 31
0.0
210
0.0
220
0.0
230
1.0
 40
0.578093115915813
 41
0.2678448778124958
 42
2.873747775777215
  0
ELLIPSE
  5
132
330
6C
100
AcDbEntity
  8
Visible (ANSI)
100
AcDbEllipse
 10
44.06911427419999
 20
32.6372181326383
 30
0.0
 11
-0.0935685396720757
 21
0.1624843942772204
 31
0.0
210
0.0
220
0.0
230
1.0
 40
0.5780931159158129
 41
0.0
 42
6.283185307179586
  0
ELLIPSE
  5
133
330
6C
100
AcDbEntity
  8
Visible (ANSI)
100
AcDbEllipse
 10
44.11883271975216
 20
22.14401758454082
 30
0.0
 11
-0.0935685396720756
 21
0.1624843942772204
 31
0.0
210
0.0
220
0.0
230
1.0
 40
0.5780931159158129
 41
0.2678448778124958
 42
2.873747775777214
  0
ELLIPSE
  5
134
330
6C
100
AcDbEntity
  8
Visible (ANSI)
100
AcDbEllipse
 10
44.06911427419998
 20
22.11538663591479
 30
0.0
 11
-0.0935685396720757
 21
0.1624843942772204
 31
0.0
210
0.0
220
0.0
230
1.0
 40
0.5780931159158129
 41
0.0
 42
6.283185307179586
  0
ELLIPSE
  5
135
330
6C
100
AcDbEntity
  8
Visible (ANSI)
100
AcDbEllipse
 10
53.21929699362438
 20
16.90340874803428
 30
0.0
 11
-0.0935685396720756
 21
0.1624843942772204
 31
0.0
210
0.0
220
0.0
230
1.0
 40
0.5780931159158129
 41
0.2678448778125091
 42
2.873747775777214
  0
ELLIPSE
  5
136
330
6C
100
AcDbEntity
  8
Visible (ANSI)
100
AcDbEllipse
 10
53.16957854807221
 20
16.87477779940825
 30
0.0
 11
-0.0935685396720757
 21
0.1624843942772204
 31
0.0
210
0.0
220
0.0
230
1.0
 40
0.5780931159158129
 41
0.0
 42
6.283185307179586
  0
ELLIPSE
  5
137
330
6C
100
AcDbEntity
  8
Visible (ANSI)
100
AcDbEllipse
 10
53.21929699362439
 20
26.96536998703387
 30
0.0
 11
0.0584803372950529
 21
-0.1015527464232585
 31
0.0
210
0.0
220
0.0
230
0.9999999999999998
 40
0.5780931159158129
 41
3.578838513251668
 42
5.845939447516869
  0
ELLIPSE
  5
138
330
6C
100
AcDbEntity
  8
Visible (ANSI)
100
AcDbEllipse
 10
53.16957854807222
 20
26.93673903840784
 30
0.0
 11
-0.0584803372950473
 21
0.1015527464232628
 31
0.0
210
0.0
220
0.0
230
1.0
 40
0.578093115915813
 41
0.0
 42
6.283185307179586
  0
ELLIPSE
  5
139
330
6C
100
AcDbEntity
  8
Visible (ANSI)
100
AcDbEllipse
 10
44.11883271975217
 20
32.2059788235404
 30
0.0
 11
0.0584803372950535
 21
-0.1015527464232596
 31
0.0
210
0.0
220
0.0
230
1.0
 40
0.5780931159158129
 41
3.578838513251621
 42
5.845939447516869
  0
ELLIPSE
  5
13A
330
6C
100
AcDbEntity
  8
Visible (ANSI)
100
AcDbEllipse
 10
44.06911427419999
 20
32.17734787491437
 30
0.0
 11
-0.0584803372950473
 21
0.1015527464232628
 31
0.0
210
0.0
220
0.0
230
1.0
 40
0.578093115915813
 41
0.0
 42
6.283185307179586
  0
ELLIPSE
  5
13B
330
6C
100
AcDbEntity
  8
Visible (ANSI)
100
AcDbEllipse
 10
44.11883271975216
 20
22.60388784226475
 30
0.0
 11
0.0584803372950534
 21
-0.1015527464232593
 31
0.0
210
0.0
220
0.0
230
1.0
 40
0.578093115915813
 41
3.578838513251575
 42
5.845939447516868
  0
ELLIPSE
  5
13C
330
6C
100
AcDbEntity
  8
Visible (ANSI)
100
AcDbEllipse
 10
44.06911427419998
 20
22.57525689363871
 30
0.0
 11
-0.0584803372950473
 21
0.1015527464232628
 31
0.0
210
0.0
220
0.0
230
1.0
 40
0.578093115915813
 41
0.0
 42
6.283185307179586
  0
ELLIPSE
  5
13D
330
6C
100
AcDbEntity
  8
Visible (ANSI)
100
AcDbEllipse
 10
53.21929699362438
 20
17.36327900575821
 30
0.0
 11
0.0584803372950533
 21
-0.1015527464232591
 31
0.0
210
0.0
220
0.0
230
1.0
 40
0.578093115915813
 41
3.5788385132516
 42
5.845939447516869
  0
ELLIPSE
  5
13E
330
6C
100
AcDbEntity
  8
Visible (ANSI)
100
AcDbEllipse
 10
53.16957854807221
 20
17.33464805713218
 30
0.0
 11
-0.0584803372950473
 21
0.1015527464232628
 31
0.0
210
0.0
220
0.0
230
1.0
 40
0.578093115915813
 41
0.0
 42
6.283185307179586
  0
LINE
  5
13F
330
6C
100
AcDbEntity
  8
Visible (ANSI)
100
AcDbLine
 10
43.7933426295372
 20
32.80828766788993
 30
0.0
 11
44.05850767248219
 21
32.96216944703378
 31
0.0
  0
LINE
  5
140
330
6C
100
AcDbEntity
  8
Visible (ANSI)
100
AcDbLine
 10
44.05850767248219
 20
32.96216944703378
 30
0.0
 11
44.10822611803437
 21
32.99080039565981
 31
0.0
  0
LINE
  5
141
330
6C
100
AcDbEntity
  8
Visible (ANSI)
100
AcDbLine
 10
43.7933426295372
 20
22.26192975742113
 30
0.0
 11
43.7933426295372
 21
32.80828766788993
 31
0.0
  0
LINE
  5
142
330
6C
100
AcDbEntity
  8
Visible (ANSI)
100
AcDbLine
 10
53.2299035953422
 20
27.73797568773951
 30
0.0
 11
44.10822611803437
 21
32.99080039565981
 31
0.0
  0
LINE
  5
143
330
6C
100
AcDbEntity
  8
Visible (ANSI)
100
AcDbLine
 10
53.49506863828718
 20
16.73233921278265
 30
0.0
 11
53.49506863828718
 21
27.27869712325145
 31
0.0
  0
LINE
  5
144
330
6C
100
AcDbEntity
  8
Visible (ANSI)
100
AcDbLine
 10
53.18018514979002
 20
16.54982648501278
 30
0.0
 11
44.05850767248219
 21
21.80265119293308
 31
0.0
  0
LINE
  5
145
330
6C
100
AcDbEntity
  8
Visible (ANSI)
100
AcDbLine
 10
53.44535019273501
 20
27.25006617462542
 30
0.0
 11
53.44535019273501
 21
16.70370826415663
 31
0.0
  0
LINE
  5
146
330
6C
100
AcDbEntity
  8
Visible (ANSI)
100
AcDbLine
 10
44.05850767248219
 20
32.96216944703378
 30
0.0
 11
53.18018514979002
 21
27.70934473911348
 31
0.0
  0
LINE
  5
147
330
6C
100
AcDbEntity
  8
Visible (ANSI)
100
AcDbLine
 10
53.49506863828718
 20
27.27869712325145
 30
0.0
 11
53.2299035953422
 21
27.73797568773951
 31
0.0
  0
LINE
  5
148
330
6C
100
AcDbEntity
  8
Visible (ANSI)
100
AcDbLine
 10
53.44535019273501
 20
27.25006617462542
 30
0.0
 11
53.49506863828718
 21
27.27869712325145
 31
0.0
  0
LINE
  5
149
330
6C
100
AcDbEntity
  8
Visible (ANSI)
100
AcDbLine
 10
53.18018514979002
 20
27.70934473911348
 30
0.0
 11
53.44535019273501
 21
27.25006617462542
 31
0.0
  0
LINE
  5
14A
330
6C
100
AcDbEntity
  8
Visible (ANSI)
100
AcDbLine
 10
53.2299035953422
 20
27.73797568773951
 30
0.0
 11
53.18018514979002
 21
27.70934473911348
 31
0.0
  0
LINE
  5
14B
330
6C
100
AcDbEntity
  8
Visible (ANSI)
100
AcDbLine
 10
53.2299035953422
 20
16.5784574336388
 30
0.0
 11
53.49506863828718
 21
16.73233921278265
 31
0.0
  0
LINE
  5
14C
330
6C
100
AcDbEntity
  8
Visible (ANSI)
100
AcDbLine
 10
53.18018514979002
 20
16.54982648501278
 30
0.0
 11
53.2299035953422
 21
16.5784574336388
 31
0.0
  0
LINE
  5
14D
330
6C
100
AcDbEntity
  8
Visible (ANSI)
100
AcDbLine
 10
53.44535019273501
 20
16.70370826415663
 30
0.0
 11
53.18018514979002
 21
16.54982648501278
 31
0.0
  0
LINE
  5
14E
330
6C
100
AcDbEntity
  8
Visible (ANSI)
100
AcDbLine
 10
53.49506863828718
 20
16.73233921278265
 30
0.0
 11
53.44535019273501
 21
16.70370826415663
 31
0.0
  0
LINE
  5
14F
330
6C
100
AcDbEntity
  8
Visible (ANSI)
100
AcDbLine
 10
44.05850767248219
 20
21.80265119293308
 30
0.0
 11
43.7933426295372
 21
22.26192975742113
 31
0.0
  0
DIMENSION
  5
150
330
6C
100
AcDbEntity
  8
Dimension (ANSI)
100
AcDbDimension
  2
*D4
 10
26.17575555156656
 20
32.80082852332573
 30
0.0
 11
17.07575555156655
 21
32.80082852332573
 31
0.0
 70
   160
  1
<>
 42
18.2
  3
Default (ANSI)
100
AcDbAlignedDimension
 13
7.975755551566556
 23
28.68211259358618
 33
0.0
 14
26.17575555156656
 24
28.68211259358619
 34
0.0
100
AcDbRotatedDimension
1001
ACAD
1000
DSTYLE
1002
{
1070
   289
1070
     1
1070
    73
1070
     0
1070
    74
1070
     0
1070
   271
1070
     3
1070
   272
1070
     3
1070
    48
1040
0.0
1070
    47
1040
0.0
1002
}
  0
DIMENSION
  5
23D
330
6C
100
AcDbEntity
  8
Dimension (ANSI)
100
AcDbDimension
  2
*D5
 10
25.67575555156655
 20
31.8471640775353
 30
0.0
 11
17.07575555156655
 21
31.8471640775353
 31
0.0
 70
   160
  1
<>{ TYP.}
 71
     5
 42
17.19999999999999
  3
Default (ANSI)
100
AcDbAlignedDimension
 13
8.475755551566557
 23
29.18211259358618
 33
0.0
 14
25.67575555156655
 24
29.18211259358619
 34
0.0
 50
180.0
100
AcDbRotatedDimension
1001
ACAD
1000
DSTYLE
1002
{
1070
   289
1070
     1
1070
    73
1070
     0
1070
    74
1070
     0
1070
   271
1070
     3
1070
   272
1070
     3
1070
    48
1040
0.0
1070
    47
1040
0.0
1002
}
  0
DIMENSION
  5
327
330
6C
100
AcDbEntity
  8
Dimension (ANSI)
100
AcDbDimension
  2
*D6
 10
8.475755551566557
 20
31.8471640775353
 30
0.0
 11
6.444716255029125
 21
31.8471640775353
 31
0.0
 70
   160
  1
<>{\PTYP.}
 71
     5
 42
0.5000000000000009
  3
Default (ANSI)
100
AcDbAlignedDimension
 13
7.975755551566556
 23
28.68211259358618
 33
0.0
 14
8.475755551566557
 24
29.18211259358618
 34
0.0
 50
180.0
100
AcDbRotatedDimension
1001
ACAD
1000
DSTYLE
1002
{
1070
   289
1070
     1
1070
    73
1070
     0
1070
    74
1070
     0
1070
   271
1070
     3
1070
   272
1070
     3
1070
    48
1040
0.0
1070
    47
1040
0.0
1002
}
  0
DIMENSION
  5
425
330
6C
100
AcDbEntity
  8
Dimension (ANSI)
100
AcDbDimension
  2
*D7
 10
3.630207398931798
 20
10.98211259358618
 30
0.0
 11
3.630207398931797
 21
20.08211259358618
 31
0.0
 70
   160
  1
<>
 42
18.2
  3
Default (ANSI)
100
AcDbAlignedDimension
 13
8.475755551566557
 23
29.18211259358618
 33
0.0
 14
8.475755551566564
 24
10.98211259358618
 34
0.0
 50
270.0
100
AcDbRotatedDimension
1001
ACAD
1000
DSTYLE
1002
{
1070
   289
1070
     1
1070
   271
1070
     3
1070
   272
1070
     3
1070
    48
1040
0.0
1070
    47
1040
0.0
1002
}
  0
DIMENSION
  5
50F
330
6C
100
AcDbEntity
  8
Dimension (ANSI)
100
AcDbDimension
  2
*D8
 10
6.400952401960268
 20
28.68211259358618
 30
0.0
 11
6.400952401960263
 21
20.08211259358617
 31
0.0
 70
   160
  1
<>{\PTYP.}
 71
     5
 42
17.19999999999999
  3
Default (ANSI)
100
AcDbAlignedDimension
 13
7.975755551566562
 23
11.48211259358618
 33
0.0
 14
7.975755551566556
 24
28.68211259358618
 34
0.0
 50
90.0
100
AcDbRotatedDimension
1001
ACAD
1000
DSTYLE
1002
{
1070
   289
1070
     1
1070
   271
1070
     3
1070
   272
1070
     3
1070
    48
1040
0.0
1070
    47
1040
0.0
1002
}
  0
DIMENSION
  5
60D
330
6C
100
AcDbEntity
  8
Dimension (ANSI)
100
AcDbDimension
  2
*D9
 10
5.301214866648785
 20
28.68211259358618
 30
0.0
 11
6.400952401960262
 21
30.46513328666929
 31
0.0
 70
   160
  1
<>{\PTYP.}
 71
     5
 42
0.5000000000000036
  3
Default (ANSI)
100
AcDbAlignedDimension
 13
8.475755551566557
 23
29.18211259358618
 33
0.0
 14
7.975755551566556
 24
28.68211259358618
 34
0.0
 50
90.0
100
AcDbRotatedDimension
1001
ACAD
1000
DSTYLE
1002
{
1070
   289
1070
     1
1070
   271
1070
     3
1070
   272
1070
     3
1070
    48
1040
0.0
1070
    47
1040
0.0
1002
}
  0
DIMENSION
  5
721
330
6C
100
AcDbEntity
  8
Dimension (ANSI)
100
AcDbDimension
  2
*D10
 10
8.318978856269898
 20
11.67888928888279
 30
0.0
 11
13.44636226753413
 21
9.783828126036663
 31
0.0
 70
   163
  1
<>{ TYP. (4 PL.)}
 42
0.5
  3
Default (ANSI)
100
AcDbDiametricDimension
 15
8.672532246863221
 25
11.32533589828957
 35
0.0
 40
0.0
1001
ACAD
1000
DSTYLE
1002
{
1070
   144
1040
1.000000000000007
1070
   271
1070
     3
1070
   272
1070
     3
1070
    48
1040
0.0
1070
    47
1040
0.0
1002
}
1001
ACAD_DSTYLE_DIMRADIAL_EXTENSION
1070
   387
1070
     1
1070
   388
1040
0.0
1070
   390
1040
0.0
  0
DIMENSION
  5
7CB
330
6C
100
AcDbEntity
  8
Dimension (ANSI)
100
AcDbDimension
  2
*D11
 10
8.385270117006147
 20
12.36259802814656
 30
0.0
 11
13.56381818933801
 21
10.41637220423285
 31
0.0
 70
   163
  1
<>{ TYP. (4 PL.)}
 42
0.3125
  3
Default (ANSI)
100
AcDbDiametricDimension
 15
8.606240986126977
 25
12.1416271590258
 35
0.0
 40
0.0
1001
ACAD
1000
DSTYLE
1002
{
1070
   144
1040
1.0
1070
   271
1070
     3
1070
   272
1070
     3
1070
    48
1040
0.0
1070
    47
1040
0.0
1002
}
1001
ACAD_DSTYLE_DIMRADIAL_EXTENSION
1070
   387
1070
     1
1070
   388
1040
0.0
1070
   390
1040
0.0
  0
DIMENSION
  5
874
330
6C
100
AcDbEntity
  8
Dimension (ANSI)
100
AcDbDimension
  2
*D12
 10
29.4199874461405
 20
11.50211259358618
 30
0.0
 11
28.32024991082901
 21
9.961471230304086
 31
0.0
 70
   160
  1
<>{ \PTYP.}
 71
     5
 42
0.5199999999999978
  3
Default (ANSI)
100
AcDbAlignedDimension
 13
25.67575555156656
 23
10.98211259358618
 33
0.0
 14
25.65575555156656
 24
11.50211259358618
 34
0.0
 50
90.0
100
AcDbRotatedDimension
1001
ACAD
1000
DSTYLE
1002
{
1070
   289
1070
     1
1070
   271
1070
     3
1070
   272
1070
     3
1070
    48
1040
0.0
1070
    47
1040
0.0
1002
}
  0
DIMENSION
  5
988
330
6C
100
AcDbEntity
  8
Dimension (ANSI)
100
AcDbDimension
  2
*D13
 10
31.21362581993157
 20
12.25211259358618
 30
0.0
 11
30.1376978087844
 21
9.912807758326318
 31
0.0
 70
   160
  1
<>{\PTYP.}
 71
     5
 42
1.269999999999999
  3
Default (ANSI)
100
AcDbAlignedDimension
 13
25.67575555156656
 23
10.98211259358618
 33
0.0
 14
25.65575555156656
 24
12.25211259358618
 34
0.0
 50
90.0
100
AcDbRotatedDimension
1001
ACAD
1000
DSTYLE
1002
{
1070
   289
1070
     2
1070
   271
1070
     3
1070
   272
1070
     3
1070
    48
1040
0.0
1070
    47
1040
0.0
1002
}
  0
DIMENSION
  5
A9B
330
6C
100
AcDbEntity
  8
Dimension (ANSI)
100
AcDbDimension
  2
*D14
 10
26.17575555156657
 20
9.92902891565224
 30
0.0
 11
24.20007608854007
 21
9.92902891565224
 31
0.0
 70
   160
  1
<>{\PTYP.}
 71
     5
 42
0.5200000000000032
  3
Default (ANSI)
100
AcDbAlignedDimension
 13
25.65575555156656
 23
12.25211259358618
 33
0.0
 14
26.17575555156657
 24
11.48211259358618
 34
0.0
 50
180.0
100
AcDbRotatedDimension
1001
ACAD
1000
DSTYLE
1002
{
1070
   289
1070
     1
1070
    73
1070
     0
1070
    74
1070
     0
1070
   271
1070
     3
1070
   272
1070
     3
1070
    48
1040
0.0
1070
    47
1040
0.0
1002
}
  0
DIMENSION
  5
B99
330
6C
100
AcDbEntity
  8
Dimension (ANSI)
100
AcDbDimension
  2
*D15
 10
35.45295948439791
 20
20.05476361145725
 30
0.0
 11
37.2300315213758
 21
20.05476361145725
 31
0.0
 70
   160
  1
(<>){\P12 GA.\PGALV.}
 71
     5
 42
0.0937500000000071
  3
Default (ANSI)
100
AcDbAlignedDimension
 13
35.54670948439792
 23
21.26615064961594
 33
0.0
 14
35.45295948439791
 24
21.26615064961594
 34
0.0
100
AcDbRotatedDimension
1001
ACAD
1000
DSTYLE
1002
{
1070
   289
1070
     1
1070
    73
1070
     0
1070
    74
1070
     0
1070
   271
1070
     3
1070
    76
1070
     1
1070
    75
1070
     1
1070
   147
1040
0.031496062992126
1070
    72
1070
     0
1070
    71
1070
     0
1070
   272
1070
     3
1070
    48
1040
0.0
1070
    47
1040
0.0
1002
}
  0
MTEXT
  5
C92
102
{ACAD_XDICTIONARY
360
CB0
102
}
330
6C
100
AcDbEntity
  8
Symbol (ANSI)
100
AcDbMText
 10
40.10844463495431
 20
5.176332994585647
 30
0.0
 40
0.3333333439714327
 41
15.41980858549984
 71
     4
 72
     1
  3
{\fRomanS|b0|i0|c0|p2;\H2.0001x;PART#: NP2020CG\P(DATA SUBJECT TO CHANGE \H1.5966x; \H0.62632x;WITHOUT NOTICE) \H1.5133x; \H0.66082x;\P\H0.59997x;THIS DRAWING IS PROPERTY OF HUBBELL INC. \H1.5574x; \H0.64208x;WIEGMANN\H1.2077x; \H0.82803x;\PALL INFOR
  1
MATION IS PROPRIETARY AND NOT TO \H1.2375x; \H0.80806x;BE DUPLICATED\H1.235x; \H0.80973x;\P\H0.83325x; \H1.2823x; \H0.77987x;\P\H1.1859x; \H0.84323x;\P\H1.1941x; }
  7
Note Text (ANSI)
 73
     1
 44
0.8139861822128295
1001
ACAD
1000
MTEXTBEGIN
1070
    73
1070
     1
1070
    44
1040
0.8139861822128295
1070
    74
1070
     0
1000
MTEXTEND
  0
LINE
  5
C94
330
6C
100
AcDbEntity
  8
Center Mark (ANSI)
  6
CHAIN
 48
0.2221101224422455
100
AcDbLine
 10
7.829088884899895
 20
28.66211259358618
 30
0.0
 11
9.162422218233228
 21
28.66211259358618
 31
0.0
  0
LINE
  5
C95
330
6C
100
AcDbEntity
  8
Center Mark (ANSI)
  6
CHAIN
 48
0.2221101224422455
100
AcDbLine
 10
26.32242221823323
 20
28.66211259358618
 30
0.0
 11
24.98908888489989
 21
28.66211259358618
 31
0.0
  0
LINE
  5
C96
330
6C
100
AcDbEntity
  8
Centerline (ANSI)
  6
CHAIN
 48
0.9524481296539306
100
AcDbLine
 10
7.829088884899895
 20
28.66211259358618
 30
0.0
 11
26.32242221823323
 21
28.66211259358618
 31
0.0
  0
LINE
  5
C97
330
6C
100
AcDbEntity
  8
Center Mark (ANSI)
  6
CHAIN
 48
0.2221101224422455
100
AcDbLine
 10
25.65575555156656
 20
10.83544592691951
 30
0.0
 11
25.65575555156656
 21
12.16877926025284
 31
0.0
  0
LINE
  5
C98
330
6C
100
AcDbEntity
  8
Centerline (ANSI)
  6
CHAIN
 48
0.9524481296539306
100
AcDbLine
 10
25.65575555156656
 20
29.32877926025285
 30
0.0
 11
25.65575555156656
 21
10.83544592691951
 31
0.0
  0
LINE
  5
C99
330
6C
100
AcDbEntity
  8
Center Mark (ANSI)
  6
CHAIN
 48
0.2221101224422455
100
AcDbLine
 10
7.829088884899895
 20
11.50211259358618
 30
0.0
 11
9.162422218233228
 21
11.50211259358618
 31
0.0
  0
LINE
  5
C9A
330
6C
100
AcDbEntity
  8
Centerline (ANSI)
  6
CHAIN
 48
0.9524481296539306
100
AcDbLine
 10
26.32242221823323
 20
11.50211259358618
 30
0.0
 11
7.829088884899895
 21
11.50211259358618
 31
0.0
  0
LINE
  5
C9B
330
6C
100
AcDbEntity
  8
Centerline (ANSI)
  6
CHAIN
 48
0.9524481296539306
100
AcDbLine
 10
8.495755551566562
 20
10.83544592691951
 30
0.0
 11
8.495755551566562
 21
29.32877926025285
 31
0.0
  0
LINE
  5
C9C
330
6C
100
AcDbEntity
  8
Center Mark (ANSI)
  6
CHAIN
 48
0.1908618211746216
100
AcDbLine
 10
8.495755551566562
 20
28.48502926025285
 30
0.0
 11
8.495755551566562
 21
27.33919592691951
 31
0.0
  0
LINE
  5
C9D
330
6C
100
AcDbEntity
  8
Center Mark (ANSI)
  6
CHAIN
 48
0.1908618211746216
100
AcDbLine
 10
25.65575555156656
 20
28.48502926025285
 30
0.0
 11
25.65575555156656
 21
27.33919592691951
 31
0.0
  0
LINE
  5
C9E
330
6C
100
AcDbEntity
  8
Centerline (ANSI)
  6
CHAIN
 48
0.9524481296539306
100
AcDbLine
 10
7.922838884899895
 20
27.91211259358618
 30
0.0
 11
26.22867221823323
 21
27.91211259358618
 31
0.0
  0
LINE
  5
C9F
330
6C
100
AcDbEntity
  8
Center Mark (ANSI)
  6
CHAIN
 48
0.1908618211746216
100
AcDbLine
 10
8.495755551566562
 20
12.82502926025285
 30
0.0
 11
8.495755551566562
 21
11.67919592691951
 31
0.0
  0
LINE
  5
CA0
330
6C
100
AcDbEntity
  8
Center Mark (ANSI)
  6
CHAIN
 48
0.1908618211746216
100
AcDbLine
 10
25.65575555156656
 20
12.82502926025285
 30
0.0
 11
25.65575555156656
 21
11.67919592691951
 31
0.0
  0
LINE
  5
CA1
330
6C
100
AcDbEntity
  8
Centerline (ANSI)
  6
CHAIN
 48
0.9524481296539306
100
AcDbLine
 10
7.922838884899895
 20
12.25211259358618
 30
0.0
 11
26.22867221823323
 21
12.25211259358618
 31
0.0
  0
ENDSEC
  0
SECTION
  2
OBJECTS
  0
DICTIONARY
  5
C
330
0
100
AcDbDictionary
281
     1
  3
ACAD_CIP_PREVIOUS_PRODUCT_INFO
350
CA2
  3
ACAD_COLOR
350
63
  3
ACAD_GROUP
350
D
  3
ACAD_LAYOUT
350
62
  3
ACAD_MATERIAL
350
10
  3
ACAD_MLEADERSTYLE
350
66
  3
ACAD_MLINESTYLE
350
5F
  3
ACAD_PLOTSETTINGS
350
61
  3
ACAD_PLOTSTYLENAME
350
E
  3
ACAD_SCALELIST
350
42
  3
ACAD_TABLESTYLE
350
64
  3
ACAD_VISUALSTYLE
350
29
  3
ACDB_RECOMPOSE_DATA
350
CB2
  3
AcDbVariableDictionary
350
76
  3
DWGPROPS
350
CB3
  0
DICTIONARY
  5
CEF
330
7C5
100
AcDbDictionary
280
     1
281
     1
  3
ACAD_MTEXT_RT
360
CF0
  0
DICTIONARY
  5
CF1
330
86E
100
AcDbDictionary
280
     1
281
     1
  3
ACAD_MTEXT_RT
360
CF2
  0
DICTIONARY
  5
CB0
330
C92
100
AcDbDictionary
280
     1
281
     1
  3
ACAD_MTEXT_2008_RT
360
CB1
  0
XRECORD
  5
CA2
102
{ACAD_REACTORS
330
C
102
}
330
C
100
AcDbXrecord
280
     1
300
INVNTOR
300
2012
300
85795PDSP_2012_0F
  0
DICTIONARY
  5
63
102
{ACAD_REACTORS
330
C
102
}
330
C
100
AcDbDictionary
281
     1
  0
DICTIONARY
  5
D
102
{ACAD_REACTORS
330
C
102
}
330
C
100
AcDbDictionary
281
     1
  0
DICTIONARY
  5
62
102
{ACAD_REACTORS
330
C
102
}
330
C
100
AcDbDictionary
281
     1
  3
Layout1
350
6B
  3
Layout2
350
73
  3
Model
350
6F
  0
DICTIONARY
  5
10
102
{ACAD_REACTORS
330
C
102
}
330
C
100
AcDbDictionary
281
     1
  3
ByBlock
350
19
  3
ByLayer
350
11
  3
Global
350
21
  0
DICTIONARY
  5
66
102
{ACAD_REACTORS
330
C
102
}
330
C
100
AcDbDictionary
281
     1
  3
Standard
350
67
  0
DICTIONARY
  5
5F
102
{ACAD_REACTORS
330
C
102
}
330
C
100
AcDbDictionary
281
     1
  3
Standard
350
60
  0
DICTIONARY
  5
61
102
{ACAD_REACTORS
330
C
102
}
330
C
100
AcDbDictionary
281
     1
  0
ACDBDICTIONARYWDFLT
  5
E
102
{ACAD_REACTORS
330
C
102
}
330
C
100
AcDbDictionary
281
     1
  3
Normal
350
F
100
AcDbDictionaryWithDefault
340
F
  0
DICTIONARY
  5
42
102
{ACAD_REACTORS
330
C
102
}
330
C
100
AcDbDictionary
281
     1
  3
A0
350
43
  3
A1
350
44
  3
A2
350
45
  3
A3
350
46
  3
A4
350
47
  3
A5
350
48
  3
A6
350
49
  3
A7
350
4A
  3
A8
350
4B
  3
A9
350
4C
  3
B0
350
4D
  3
B1
350
4E
  3
B2
350
4F
  3
B3
350
50
  3
B4
350
51
  3
B5
350
52
  3
B6
350
53
  0
DICTIONARY
  5
64
102
{ACAD_REACTORS
330
C
102
}
330
C
100
AcDbDictionary
281
     1
  3
Standard
350
65
  0
DICTIONARY
  5
29
102
{ACAD_REACTORS
330
C
102
}
330
C
100
AcDbDictionary
281
     1
  3
2dWireframe
350
2F
  3
Basic
350
2E
  3
Brighten
350
35
  3
ColorChange
350
39
  3
Conceptual
350
32
  3
Dim
350
34
  3
EdgeColorOff
350
41
  3
Facepattern
350
38
  3
Flat
350
2A
  3
FlatWithEdges
350
2B
  3
Gouraud
350
2C
  3
GouraudWithEdges
350
2D
  3
Hidden
350
31
  3
JitterOff
350
3F
  3
Linepattern
350
37
  3
OverhangOff
350
40
  3
Realistic
350
33
  3
Shaded
350
3E
  3
Shaded with edges
350
3D
  3
Shades of Gray
350
3A
  3
Sketchy
350
3B
  3
Thicken
350
36
  3
Wireframe
350
30
  3
X-Ray
350
3C
  0
XRECORD
  5
CB2
102
{ACAD_REACTORS
330
C
102
}
330
C
100
AcDbXrecord
280
     1
 90
        1
330
65
330
988
330
C92
  0
DICTIONARY
  5
76
102
{ACAD_REACTORS
330
C
102
}
330
C
100
AcDbDictionary
281
     1
  3
CANNOSCALE
350
79
  3
CMLEADERSTYLE
350
78
  3
CTABLESTYLE
350
77
  3
DIMASSOC
350
CAA
  3
HIDETEXT
350
CA9
  3
INDEXCTL
350
CA8
  3
LAYEREVAL
350
CA5
  3
LAYERNOTIFY
350
CA6
  3
LIGHTINGUNITS
350
CA4
  3
MSLTSCALE
350
CA3
  3
SORTENTS
350
CA7
  3
XCLIPFRAME
350
CAB
  0
XRECORD
  5
CB3
102
{ACAD_REACTORS
330
C
102
}
330
C
100
AcDbXrecord
280
     1
  1
DWGPROPS COOKIE
  2

  3

  4
JF
  6

  7

  8

  9
-
300
Manager=
301
Company=
302
Category=
303
Part Number=NP2020CG-S
304
Description=
305
Project=
306
Designer=JF
307
Engineer=
308
Authority=
309
Cost Center=
 40
0.0000354398148148
 41
2455945.566725382
 42
2455945.566725382
  1

 90
       22
300
Vendor=
300
User Status=
300
Design Status=WorkInProgress
300
Checked by=DN
300
Date Checked=01/18/2012
300
Engr Approved by=
300
Date Eng Approved=01/18/2012
300
Mfg Approved by=
300
Date Mfg Approved=01/18/2012
300
DWG. NO=
300
NUMBER OF SHEETS=1
300
DRAWING #=
  0
XRECORD
  5
CF0
102
{ACAD_REACTORS
330
CEF
102
}
330
CEF
100
AcDbXrecord
280
     1
 40
30483.0
  1
\A1;\U+22050.500{ TYP. (4 PL.)}
  0
XRECORD
  5
CF2
102
{ACAD_REACTORS
330
CF1
102
}
330
CF1
100
AcDbXrecord
280
     1
 40
30518.0
  1
\A1;\U+22050.313{ TYP. (4 PL.)}
  0
XRECORD
  5
CB1
102
{ACAD_REACTORS
330
CB0
102
}
330
CB0
100
AcDbXrecord
280
     1
 40
5631872.0
  1
\pxsm0.94;{\fRomanS|b0|i0;\H0.6667;PART#: NP2020CG\P(DATA SUBJECT TO CHANGE WITHOUT NOTICE) \P\fRomanS|b0|i0;\H0.4000;THIS DRAWING IS PROPERTY OF HUBBELL INC. WIEGMANN\PALL INFORMATION IS PROPRIETARY AND NOT TO BE DUPLICATED\P\fRomanS|b0|i0;\H0.3333;
  1
 \P\P}
  0
LAYOUT
  5
6B
102
{ACAD_XDICTIONARY
360
CE9
102
}
102
{ACAD_REACTORS
330
62
102
}
330
62
100
AcDbPlotSettings
  1

  2

  4

  6

 40
0.0
 41
0.0
 42
0.0
 43
0.0
 44
0.0
 45
0.0
 46
0.0
 47
0.0
 48
0.0
 49
0.0
140
0.0
141
0.0
142
1.0
143
1.0
 70
   688
 72
     0
 73
     0
 74
     5
  7

 75
    16
147
1.0
148
0.0
149
0.0
100
AcDbLayout
  1
Layout1
 70
     1
 71
     1
 10
0.0
 20
0.0
 11
12.0
 21
9.0
 12
0.0
 22
0.0
 32
0.0
 14
0.0
 24
0.0
 34
0.0
 15
0.0
 25
0.0
 35
0.0
146
0.0
 13
0.0
 23
0.0
 33
0.0
 16
1.0
 26
0.0
 36
0.0
 17
0.0
 27
1.0
 37
0.0
 76
     0
330
68
  0
LAYOUT
  5
73
102
{ACAD_XDICTIONARY
360
CED
102
}
102
{ACAD_REACTORS
330
62
102
}
330
62
100
AcDbPlotSettings
  1

  2

  4

  6

 40
0.0
 41
0.0
 42
0.0
 43
0.0
 44
0.0
 45
0.0
 46
0.0
 47
0.0
 48
0.0
 49
0.0
140
0.0
141
0.0
142
1.0
143
1.0
 70
   688
 72
     0
 73
     0
 74
     5
  7

 75
    16
147
1.0
148
0.0
149
0.0
100
AcDbLayout
  1
Layout2
 70
     1
 71
     2
 10
0.0
 20
0.0
 11
12.0
 21
9.0
 12
0.0
 22
0.0
 32
0.0
 14
0.0
 24
0.0
 34
0.0
 15
0.0
 25
0.0
 35
0.0
146
0.0
 13
0.0
 23
0.0
 33
0.0
 16
1.0
 26
0.0
 36
0.0
 17
0.0
 27
1.0
 37
0.0
 76
     0
330
70
  0
LAYOUT
  5
6F
102
{ACAD_XDICTIONARY
360
CEB
102
}
102
{ACAD_REACTORS
330
62
102
}
330
62
100
AcDbPlotSettings
  1

  2

  4

  6

 40
0.0
 41
0.0
 42
0.0
 43
0.0
 44
0.0
 45
0.0
 46
0.0
 47
0.0
 48
0.0
 49
0.0
140
0.0
141
0.0
142
1.0
143
1.0
 70
  1712
 72
     0
 73
     0
 74
     0
  7

 75
     0
147
1.0
148
0.0
149
0.0
100
AcDbLayout
  1
Model
 70
     1
 71
     0
 10
0.0
 20
0.0
 11
12.0
 21
9.0
 12
0.0
 22
0.0
 32
0.0
 14
0.0
 24
0.0
 34
0.0
 15
0.0
 25
0.0
 35
0.0
146
0.0
 13
0.0
 23
0.0
 33
0.0
 16
1.0
 26
0.0
 36
0.0
 17
0.0
 27
1.0
 37
0.0
 76
     0
330
6C
  0
MATERIAL
  5
19
102
{ACAD_XDICTIONARY
360
1A
102
}
102
{ACAD_REACTORS
330
10
102
}
330
10
100
AcDbMaterial
  1
ByBlock
 72
     0
 43
0.0208333333333333
 43
0.0
 43
0.0
 43
0.0
 43
0.0
 43
0.0208333333333333
 43
0.0
 43
0.0
 43
0.0
 43
0.0
 43
1.0
 43
0.0
 43
0.0
 43
0.0
 43
0.0
 43
1.0
 77
     0
 47
0.0208333333333333
 47
0.0
 47
0.0
 47
0.0
 47
0.0
 47
0.0208333333333333
 47
0.0
 47
0.0
 47
0.0
 47
0.0
 47
1.0
 47
0.0
 47
0.0
 47
0.0
 47
0.0
 47
1.0
171
     0
 49
0.0208333333333333
 49
0.0
 49
0.0
 49
0.0
 49
0.0
 49
0.0208333333333333
 49
0.0
 49
0.0
 49
0.0
 49
0.0
 49
1.0
 49
0.0
 49
0.0
 49
0.0
 49
0.0
 49
1.0
175
     0
142
0.0208333333333333
142
0.0
142
0.0
142
0.0
142
0.0
142
0.0208333333333333
142
0.0
142
0.0
142
0.0
142
0.0
142
1.0
142
0.0
142
0.0
142
0.0
142
0.0
142
1.0
179
     0
144
0.0208333333333333
144
0.0
144
0.0
144
0.0
144
0.0
144
0.0208333333333333
144
0.0
144
0.0
144
0.0
144
0.0
144
1.0
144
0.0
144
0.0
144
0.0
144
0.0
144
1.0
147
0.0208333333333333
147
0.0
147
0.0
147
0.0
147
0.0
147
0.0208333333333333
147
0.0
147
0.0
147
0.0
147
0.0
147
1.0
147
0.0
147
0.0
147
0.0
147
0.0
147
1.0
  0
MATERIAL
  5
11
102
{ACAD_XDICTIONARY
360
12
102
}
102
{ACAD_REACTORS
330
10
102
}
330
10
100
AcDbMaterial
  1
ByLayer
 72
     0
 43
0.0208333333333333
 43
0.0
 43
0.0
 43
0.0
 43
0.0
 43
0.0208333333333333
 43
0.0
 43
0.0
 43
0.0
 43
0.0
 43
1.0
 43
0.0
 43
0.0
 43
0.0
 43
0.0
 43
1.0
 77
     0
 47
0.0208333333333333
 47
0.0
 47
0.0
 47
0.0
 47
0.0
 47
0.0208333333333333
 47
0.0
 47
0.0
 47
0.0
 47
0.0
 47
1.0
 47
0.0
 47
0.0
 47
0.0
 47
0.0
 47
1.0
171
     0
 49
0.0208333333333333
 49
0.0
 49
0.0
 49
0.0
 49
0.0
 49
0.0208333333333333
 49
0.0
 49
0.0
 49
0.0
 49
0.0
 49
1.0
 49
0.0
 49
0.0
 49
0.0
 49
0.0
 49
1.0
175
     0
142
0.0208333333333333
142
0.0
142
0.0
142
0.0
142
0.0
142
0.0208333333333333
142
0.0
142
0.0
142
0.0
142
0.0
142
1.0
142
0.0
142
0.0
142
0.0
142
0.0
142
1.0
179
     0
144
0.0208333333333333
144
0.0
144
0.0
144
0.0
144
0.0
144
0.0208333333333333
144
0.0
144
0.0
144
0.0
144
0.0
144
1.0
144
0.0
144
0.0
144
0.0
144
0.0
144
1.0
147
0.0208333333333333
147
0.0
147
0.0
147
0.0
147
0.0
147
0.0208333333333333
147
0.0
147
0.0
147
0.0
147
0.0
147
1.0
147
0.0
147
0.0
147
0.0
147
0.0
147
1.0
  0
MATERIAL
  5
21
102
{ACAD_XDICTIONARY
360
22
102
}
102
{ACAD_REACTORS
330
10
102
}
330
10
100
AcDbMaterial
  1
Global
 72
     0
 43
0.0208333333333333
 43
0.0
 43
0.0
 43
0.0
 43
0.0
 43
0.0208333333333333
 43
0.0
 43
0.0
 43
0.0
 43
0.0
 43
1.0
 43
0.0
 43
0.0
 43
0.0
 43
0.0
 43
1.0
 77
     0
 47
0.0208333333333333
 47
0.0
 47
0.0
 47
0.0
 47
0.0
 47
0.0208333333333333
 47
0.0
 47
0.0
 47
0.0
 47
0.0
 47
1.0
 47
0.0
 47
0.0
 47
0.0
 47
0.0
 47
1.0
171
     0
 49
0.0208333333333333
 49
0.0
 49
0.0
 49
0.0
 49
0.0
 49
0.0208333333333333
 49
0.0
 49
0.0
 49
0.0
 49
0.0
 49
1.0
 49
0.0
 49
0.0
 49
0.0
 49
0.0
 49
1.0
175
     0
142
0.0208333333333333
142
0.0
142
0.0
142
0.0
142
0.0
142
0.0208333333333333
142
0.0
142
0.0
142
0.0
142
0.0
142
1.0
142
0.0
142
0.0
142
0.0
142
0.0
142
1.0
179
     0
144
0.0208333333333333
144
0.0
144
0.0
144
0.0
144
0.0
144
0.0208333333333333
144
0.0
144
0.0
144
0.0
144
0.0
144
1.0
144
0.0
144
0.0
144
0.0
144
0.0
144
1.0
147
0.0208333333333333
147
0.0
147
0.0
147
0.0
147
0.0
147
0.0208333333333333
147
0.0
147
0.0
147
0.0
147
0.0
147
1.0
147
0.0
147
0.0
147
0.0
147
0.0
147
1.0
  0
MLEADERSTYLE
  5
67
102
{ACAD_XDICTIONARY
360
CAE
102
}
102
{ACAD_REACTORS
330
66
102
}
330
66
100
AcDbMLeaderStyle
170
     2
171
     1
172
     0
 90
        2
 40
0.0
 41
0.0
173
     1
 91
-1056964608
340
5B
 92
       -2
290
     1
 42
0.09
291
     1
 43
0.36
  3
Standard
 44
0.18
300

342
55
174
     1
178
     6
175
     1
176
     0
 93
-1056964608
 45
0.18
292
     0
297
     0
 46
0.18
 94
-1056964608
 47
1.0
 49
1.0
140
1.0
293
     1
141
0.0
294
     1
177
     0
142
1.0
295
     0
296
     0
143
0.125
1001
ACAD_MLEADERVER
1070
     2
  0
MLINESTYLE
  5
60
102
{ACAD_REACTORS
330
5F
102
}
330
5F
100
AcDbMlineStyle
  2
STANDARD
 70
     0
  3

 62
   256
 51
90.0
 52
90.0
 71
     2
 49
0.5
 62
   256
  6
BYLAYER
 49
-0.5
 62
   256
  6
BYLAYER
  0
ACDBPLACEHOLDER
  5
F
102
{ACAD_REACTORS
330
E
102
}
330
E
  0
SCALE
  5
43
102
{ACAD_REACTORS
330
42
102
}
330
42
100
AcDbScale
 70
     0
300
1:1
140
1.0
141
1.0
290
     1
  0
SCALE
  5
44
102
{ACAD_REACTORS
330
42
102
}
330
42
100
AcDbScale
 70
     0
300
1/128" = 1'-0"
140
0.0078125
141
12.0
290
     0
  0
SCALE
  5
45
102
{ACAD_REACTORS
330
42
102
}
330
42
100
AcDbScale
 70
     0
300
1/64" = 1'-0"
140
0.015625
141
12.0
290
     0
  0
SCALE
  5
46
102
{ACAD_REACTORS
330
42
102
}
330
42
100
AcDbScale
 70
     0
300
1/32" = 1'-0"
140
0.03125
141
12.0
290
     0
  0
SCALE
  5
47
102
{ACAD_REACTORS
330
42
102
}
330
42
100
AcDbScale
 70
     0
300
1/16" = 1'-0"
140
0.0625
141
12.0
290
     0
  0
SCALE
  5
48
102
{ACAD_REACTORS
330
42
102
}
330
42
100
AcDbScale
 70
     0
300
3/32" = 1'-0"
140
0.09375
141
12.0
290
     0
  0
SCALE
  5
49
102
{ACAD_REACTORS
330
42
102
}
330
42
100
AcDbScale
 70
     0
300
1/8" = 1'-0"
140
0.125
141
12.0
290
     0
  0
SCALE
  5
4A
102
{ACAD_REACTORS
330
42
102
}
330
42
100
AcDbScale
 70
     0
300
3/16" = 1'-0"
140
0.1875
141
12.0
290
     0
  0
SCALE
  5
4B
102
{ACAD_REACTORS
330
42
102
}
330
42
100
AcDbScale
 70
     0
300
1/4" = 1'-0"
140
0.25
141
12.0
290
     0
  0
SCALE
  5
4C
102
{ACAD_REACTORS
330
42
102
}
330
42
100
AcDbScale
 70
     0
300
3/8" = 1'-0"
140
0.375
141
12.0
290
     0
  0
SCALE
  5
4D
102
{ACAD_REACTORS
330
42
102
}
330
42
100
AcDbScale
 70
     0
300
1/2" = 1'-0"
140
0.5
141
12.0
290
     0
  0
SCALE
  5
4E
102
{ACAD_REACTORS
330
42
102
}
330
42
100
AcDbScale
 70
     0
300
3/4" = 1'-0"
140
0.75
141
12.0
290
     0
  0
SCALE
  5
4F
102
{ACAD_REACTORS
330
42
102
}
330
42
100
AcDbScale
 70
     0
300
1" = 1'-0"
140
1.0
141
12.0
290
     0
  0
SCALE
  5
50
102
{ACAD_REACTORS
330
42
102
}
330
42
100
AcDbScale
 70
     0
300
1-1/2" = 1'-0"
140
1.5
141
12.0
290
     0
  0
SCALE
  5
51
102
{ACAD_REACTORS
330
42
102
}
330
42
100
AcDbScale
 70
     0
300
3" = 1'-0"
140
3.0
141
12.0
290
     0
  0
SCALE
  5
52
102
{ACAD_REACTORS
330
42
102
}
330
42
100
AcDbScale
 70
     0
300
6" = 1'-0"
140
6.0
141
12.0
290
     0
  0
SCALE
  5
53
102
{ACAD_REACTORS
330
42
102
}
330
42
100
AcDbScale
 70
     0
300
1'-0" = 1'-0"
140
12.0
141
12.0
290
     0
  0
TABLESTYLE
  5
65
102
{ACAD_XDICTIONARY
360
CAC
102
}
102
{ACAD_REACTORS
330
64
102
}
330
64
100
AcDbTableStyle
  3
Standard
 70
     0
 71
     0
 40
0.06
 41
0.06
280
     0
281
     0
  7
Standard
140
0.18
170
     2
 62
     0
 63
     7
283
     0
274
    -2
284
     1
 64
     0
275
    -2
285
     1
 65
     0
276
    -2
286
     1
 66
     0
277
    -2
287
     1
 67
     0
278
    -2
288
     1
 68
     0
279
    -2
289
     1
 69
     0
  7
Standard
140
0.25
170
     5
 62
     0
 63
     7
283
     0
274
    -2
284
     1
 64
     0
275
    -2
285
     1
 65
     0
276
    -2
286
     1
 66
     0
277
    -2
287
     1
 67
     0
278
    -2
288
     1
 68
     0
279
    -2
289
     1
 69
     0
  7
Standard
140
0.18
170
     5
 62
     0
 63
     7
283
     0
274
    -2
284
     1
 64
     0
275
    -2
285
     1
 65
     0
276
    -2
286
     1
 66
     0
277
    -2
287
     1
 67
     0
278
    -2
288
     1
 68
     0
279
    -2
289
     1
 69
     0
  0
VISUALSTYLE
  5
2F
102
{ACAD_XDICTIONARY
360
CC1
102
}
102
{ACAD_REACTORS
330
29
102
}
330
29
100
AcDbVisualStyle
  2
2dWireframe
 70
     4
 71
     0
 72
     2
 73
     0
 90
        0
 40
-0.6
 41
-30.0
 62
     5
 63
     7
 74
     1
 91
        4
 64
     7
 65
   257
 75
     1
175
     1
 42
1.0
 92
        0
 66
   257
 43
1.0
 76
     1
 77
     6
 78
     2
 67
     7
 79
     5
170
     0
171
     0
290
     0
174
     0
 93
        1
 44
0.0
173
     0
291
     0
 45
0.0
1001
ACAD
1000
AcDbSavedByObjectVersion
1070
     0
  0
VISUALSTYLE
  5
2E
102
{ACAD_XDICTIONARY
360
CBF
102
}
102
{ACAD_REACTORS
330
29
102
}
330
29
100
AcDbVisualStyle
  2
Basic
 70
     7
 71
     1
 72
     0
 73
     1
 90
        0
 40
-0.6
 41
-30.0
 62
     5
 63
     7
 74
     0
 91
        4
 64
     7
 65
   257
 75
     1
175
     1
 42
1.0
 92
        8
 66
     7
 43
1.0
 76
     1
 77
     6
 78
     2
 67
     7
 79
     5
170
     0
171
     0
290
     0
174
     0
 93
        1
 44
0.0
173
     0
291
     1
 45
0.0
1001
ACAD
1000
AcDbSavedByObjectVersion
1070
     0
  0
VISUALSTYLE
  5
35
102
{ACAD_XDICTIONARY
360
CCD
102
}
102
{ACAD_REACTORS
330
29
102
}
330
29
100
AcDbVisualStyle
  2
Brighten
 70
    12
 71
     2
 72
     2
 73
     0
 90
        0
 40
-0.6
 41
-30.0
 62
     5
 63
     7
 74
     1
 91
        4
 64
     7
 65
   257
 75
     1
175
     1
 42
1.0
 92
        8
 66
     7
 43
1.0
 76
     1
 77
     6
 78
     2
 67
     7
 79
     5
170
     0
171
     0
290
     0
174
     0
 93
        1
 44
50.0
173
     0
291
     1
 45
0.0
1001
ACAD
1000
AcDbSavedByObjectVersion
1070
     0
  0
VISUALSTYLE
  5
39
102
{ACAD_XDICTIONARY
360
CD5
102
}
102
{ACAD_REACTORS
330
29
102
}
330
29
100
AcDbVisualStyle
  2
ColorChange
 70
    16
 71
     2
 72
     2
 73
     3
 90
        0
 40
-0.6
 41
-30.0
 62
     5
 63
     8
 74
     1
 91
        4
 64
     7
 65
   257
 75
     1
175
     1
 42
1.0
 92
        8
 66
     8
 43
1.0
 76
     1
 77
     6
 78
     2
 67
     7
 79
     5
170
     0
171
     0
290
     0
174
     0
 93
        1
 44
0.0
173
     0
291
     1
 45
0.0
1001
ACAD
1000
AcDbSavedByObjectVersion
1070
     0
  0
VISUALSTYLE
  5
32
102
{ACAD_XDICTIONARY
360
CC7
102
}
102
{ACAD_REACTORS
330
29
102
}
330
29
100
AcDbVisualStyle
  2
Conceptual
 70
     9
 71
     3
 72
     2
 73
     0
 90
        0
 40
-0.6
 41
-30.0
 62
     5
 63
     7
 74
     2
 91
        2
 64
     7
 65
   257
 75
     1
175
     1
 42
179.0
 92
        8
 66
     7
 43
1.0
 76
     1
 77
     6
 78
     2
 67
     7
 79
     3
170
     0
171
     0
290
     0
174
     0
 93
        1
 44
0.0
173
     0
291
     0
 45
0.0
1001
ACAD
1000
AcDbSavedByObjectVersion
1070
     0
  0
VISUALSTYLE
  5
34
102
{ACAD_XDICTIONARY
360
CCB
102
}
102
{ACAD_REACTORS
330
29
102
}
330
29
100
AcDbVisualStyle
  2
Dim
 70
    11
 71
     2
 72
     2
 73
     0
 90
        0
 40
-0.6
 41
-30.0
 62
     5
 63
     7
 74
     1
 91
        4
 64
     7
 65
   257
 75
     1
175
     1
 42
1.0
 92
        8
 66
     7
 43
1.0
 76
     1
 77
     6
 78
     2
 67
     7
 79
     5
170
     0
171
     0
290
     0
174
     0
 93
        1
 44
-50.0
173
     0
291
     1
 45
0.0
1001
ACAD
1000
AcDbSavedByObjectVersion
1070
     0
  0
VISUALSTYLE
  5
41
102
{ACAD_XDICTIONARY
360
CE5
102
}
102
{ACAD_REACTORS
330
29
102
}
330
29
100
AcDbVisualStyle
  2
EdgeColorOff
 70
    22
 71
     2
 72
     2
 73
     0
 90
        0
 40
-0.6
 41
-30.0
 62
     5
 63
     7
 74
     1
 91
        4
 64
     7
 65
   257
 75
     1
175
     1
 42
1.0
 92
        8
 66
     7
 43
1.0
 76
     1
 77
     6
 78
     2
 67
     7
 79
     5
170
     0
171
     0
290
     0
174
     0
 93
        1
 44
0.0
173
     0
291
     1
 45
0.0
1001
ACAD
1000
AcDbSavedByObjectVersion
1070
     0
  0
VISUALSTYLE
  5
38
102
{ACAD_XDICTIONARY
360
CD3
102
}
102
{ACAD_REACTORS
330
29
102
}
330
29
100
AcDbVisualStyle
  2
Facepattern
 70
    15
 71
     2
 72
     2
 73
     0
 90
        0
 40
-0.6
 41
-30.0
 62
     5
 63
     7
 74
     1
 91
        4
 64
     7
 65
   257
 75
     1
175
     1
 42
1.0
 92
        8
 66
     7
 43
1.0
 76
     1
 77
     6
 78
     2
 67
     7
 79
     5
170
     0
171
     0
290
     0
174
     0
 93
        1
 44
0.0
173
     0
291
     1
 45
0.0
1001
ACAD
1000
AcDbSavedByObjectVersion
1070
     0
  0
VISUALSTYLE
  5
2A
102
{ACAD_XDICTIONARY
360
CB7
102
}
102
{ACAD_REACTORS
330
29
102
}
330
29
100
AcDbVisualStyle
  2
Flat
 70
     0
 71
     2
 72
     1
 73
     1
 90
        2
 40
-0.6
 41
30.0
 62
     5
 63
     7
 74
     0
 91
        0
 64
     7
 65
   257
 75
     1
175
     1
 42
1.0
 92
        8
 66
     7
 43
1.0
 76
     1
 77
     6
 78
     2
 67
     7
 79
     5
170
     0
171
     0
290
     0
174
     0
 93
       13
 44
0.0
173
     0
291
     1
 45
0.0
1001
ACAD
1000
AcDbSavedByObjectVersion
1070
     0
  0
VISUALSTYLE
  5
2B
102
{ACAD_XDICTIONARY
360
CB9
102
}
102
{ACAD_REACTORS
330
29
102
}
330
29
100
AcDbVisualStyle
  2
FlatWithEdges
 70
     1
 71
     2
 72
     1
 73
     1
 90
        2
 40
-0.6
 41
30.0
 62
     5
 63
     7
 74
     1
 91
        0
 64
     7
 65
   257
 75
     1
175
     1
 42
1.0
 92
        0
 66
   257
 43
1.0
 76
     1
 77
     6
 78
     2
 67
     7
 79
     5
170
     0
171
     0
290
     0
174
     0
 93
       13
 44
0.0
173
     0
291
     1
 45
0.0
1001
ACAD
1000
AcDbSavedByObjectVersion
1070
     0
  0
VISUALSTYLE
  5
2C
102
{ACAD_XDICTIONARY
360
CBB
102
}
102
{ACAD_REACTORS
330
29
102
}
330
29
100
AcDbVisualStyle
  2
Gouraud
 70
     2
 71
     2
 72
     2
 73
     1
 90
        2
 40
-0.6
 41
30.0
 62
     5
 63
     7
 74
     0
 91
        0
 64
     7
 65
   257
 75
     1
175
     1
 42
1.0
 92
        0
 66
     7
 43
1.0
 76
     1
 77
     6
 78
     2
 67
     7
 79
     5
170
     0
171
     0
290
     0
174
     0
 93
       13
 44
0.0
173
     0
291
     1
 45
0.0
1001
ACAD
1000
AcDbSavedByObjectVersion
1070
     0
  0
VISUALSTYLE
  5
2D
102
{ACAD_XDICTIONARY
360
CBD
102
}
102
{ACAD_REACTORS
330
29
102
}
330
29
100
AcDbVisualStyle
  2
GouraudWithEdges
 70
     3
 71
     2
 72
     2
 73
     1
 90
        2
 40
-0.6
 41
30.0
 62
     5
 63
     7
 74
     1
 91
        0
 64
     7
 65
   257
 75
     1
175
     1
 42
1.0
 92
        0
 66
   257
 43
1.0
 76
     1
 77
     6
 78
     2
 67
     7
 79
     5
170
     0
171
     0
290
     0
174
     0
 93
       13
 44
0.0
173
     0
291
     1
 45
0.0
1001
ACAD
1000
AcDbSavedByObjectVersion
1070
     0
  0
VISUALSTYLE
  5
31
102
{ACAD_XDICTIONARY
360
CC5
102
}
102
{ACAD_REACTORS
330
29
102
}
330
29
100
AcDbVisualStyle
  2
Hidden
 70
     6
 71
     1
 72
     2
 73
     2
 90
        0
 40
-0.6
 41
-30.0
 62
     5
 63
     7
 74
     2
 91
        2
 64
     7
 65
   257
 75
     2
175
     1
 42
40.0
 92
        0
 66
   257
 43
1.0
 76
     1
 77
     6
 78
     2
 67
     7
 79
     3
170
     0
171
     0
290
     0
174
     0
 93
        1
 44
0.0
173
     0
291
     0
 45
0.0
1001
ACAD
1000
AcDbSavedByObjectVersion
1070
     0
  0
VISUALSTYLE
  5
3F
102
{ACAD_XDICTIONARY
360
CE1
102
}
102
{ACAD_REACTORS
330
29
102
}
330
29
100
AcDbVisualStyle
  2
JitterOff
 70
    20
 71
     2
 72
     2
 73
     0
 90
        0
 40
-0.6
 41
-30.0
 62
     5
 63
     7
 74
     1
 91
        4
 64
     7
 65
   257
 75
     1
175
     1
 42
1.0
 92
       10
 66
     7
 43
1.0
 76
     1
 77
     6
 78
     2
 67
     7
 79
     5
170
     0
171
     0
290
     0
174
     0
 93
        1
 44
0.0
173
     0
291
     1
 45
0.0
1001
ACAD
1000
AcDbSavedByObjectVersion
1070
     0
  0
VISUALSTYLE
  5
37
102
{ACAD_XDICTIONARY
360
CD1
102
}
102
{ACAD_REACTORS
330
29
102
}
330
29
100
AcDbVisualStyle
  2
Linepattern
 70
    14
 71
     2
 72
     2
 73
     0
 90
        0
 40
-0.6
 41
-30.0
 62
     5
 63
     7
 74
     1
 91
        4
 64
     7
 65
   257
 75
     7
175
     7
 42
1.0
 92
        8
 66
     7
 43
1.0
 76
     1
 77
     6
 78
     2
 67
     7
 79
     5
170
     0
171
     0
290
     0
174
     0
 93
        1
 44
0.0
173
     0
291
     1
 45
0.0
1001
ACAD
1000
AcDbSavedByObjectVersion
1070
     0
  0
VISUALSTYLE
  5
40
102
{ACAD_XDICTIONARY
360
CE3
102
}
102
{ACAD_REACTORS
330
29
102
}
330
29
100
AcDbVisualStyle
  2
OverhangOff
 70
    21
 71
     2
 72
     2
 73
     0
 90
        0
 40
-0.6
 41
-30.0
 62
     5
 63
     7
 74
     1
 91
        4
 64
     7
 65
   257
 75
     1
175
     1
 42
1.0
 92
        9
 66
     7
 43
1.0
 76
     1
 77
     6
 78
     2
 67
     7
 79
     5
170
     0
171
     0
290
     0
174
     0
 93
        1
 44
0.0
173
     0
291
     1
 45
0.0
1001
ACAD
1000
AcDbSavedByObjectVersion
1070
     0
  0
VISUALSTYLE
  5
33
102
{ACAD_XDICTIONARY
360
CC9
102
}
102
{ACAD_REACTORS
330
29
102
}
330
29
100
AcDbVisualStyle
  2
Realistic
 70
     8
 71
     2
 72
     3
 73
     0
 90
        2
 40
-0.6
 41
30.0
 62
     5
 63
     7
 74
     0
 91
        0
 64
     7
 65
   257
 75
     1
175
     1
 42
1.0
 92
        8
 66
   257
 43
1.0
 76
     1
 77
     6
 78
     2
 67
     7
 79
     3
170
     0
171
     0
290
     0
174
     0
 93
       13
 44
0.0
173
     0
291
     0
 45
0.0
1001
ACAD
1000
AcDbSavedByObjectVersion
1070
     0
  0
VISUALSTYLE
  5
3E
102
{ACAD_XDICTIONARY
360
CDF
102
}
102
{ACAD_REACTORS
330
29
102
}
330
29
100
AcDbVisualStyle
  2
Shaded
 70
    27
 71
     2
 72
     2
 73
     1
 90
        2
 40
-0.6
 41
30.0
 62
     5
 63
     7
 74
     0
 91
        4
 64
     7
 65
   257
 75
     1
175
     1
 42
1.0
 92
        8
 66
   257
 43
1.0
 76
     1
 77
     6
 78
     2
 67
     8
 79
     3
170
     0
171
     0
290
     0
174
     0
 93
        5
 44
0.0
173
     0
291
     0
 45
0.0
1001
ACAD
1000
AcDbSavedByObjectVersion
1070
     0
  0
VISUALSTYLE
  5
3D
102
{ACAD_XDICTIONARY
360
CDD
102
}
102
{ACAD_REACTORS
330
29
102
}
330
29
100
AcDbVisualStyle
  2
Shaded with edges
 70
    26
 71
     2
 72
     2
 73
     1
 90
        2
 40
-0.6
 41
30.0
 62
     5
 63
     7
 74
     1
 91
       10
 64
     7
 65
   257
 75
     2
175
     1
 42
1.0
 92
        8
 66
   257
 43
1.0
 76
     1
 77
     6
 78
     2
 67
     7
 79
     3
170
     0
171
     0
290
     0
174
     0
 93
        5
 44
0.0
173
     0
291
     0
 45
0.0
1001
ACAD
1000
AcDbSavedByObjectVersion
1070
     0
  0
VISUALSTYLE
  5
3A
102
{ACAD_XDICTIONARY
360
CD7
102
}
102
{ACAD_REACTORS
330
29
102
}
330
29
100
AcDbVisualStyle
  2
Shades of Gray
 70
    23
 71
     2
 72
     2
 73
     3
 90
        0
 40
-0.6
 41
-30.0
 62
     5
 63
     7
 74
     2
 91
        2
 64
     7
 65
     7
 75
     1
175
     1
 42
40.0
 92
        8
 66
     7
 43
1.0
 76
     1
 77
     6
 78
     2
 67
     7
 79
     3
170
     0
171
     0
290
     0
174
     0
 93
        1
 44
0.0
173
     0
291
     0
 45
0.0
1001
ACAD
1000
AcDbSavedByObjectVersion
1070
     0
  0
VISUALSTYLE
  5
3B
102
{ACAD_XDICTIONARY
360
CD9
102
}
102
{ACAD_REACTORS
330
29
102
}
330
29
100
AcDbVisualStyle
  2
Sketchy
 70
    24
 71
     1
 72
     2
 73
     2
 90
        0
 40
-0.6
 41
-30.0
 62
     5
 63
     7
 74
     2
 91
        2
 64
     7
 65
     7
 75
     1
175
     1
 42
40.0
 92
       11
 66
     7
 43
1.0
 76
     1
 77
     6
 78
     2
 67
     7
 79
     6
170
     0
171
     0
290
     0
174
     0
 93
        1
 44
0.0
173
     0
291
     0
 45
0.0
1001
ACAD
1000
AcDbSavedByObjectVersion
1070
     0
  0
VISUALSTYLE
  5
36
102
{ACAD_XDICTIONARY
360
CCF
102
}
102
{ACAD_REACTORS
330
29
102
}
330
29
100
AcDbVisualStyle
  2
Thicken
 70
    13
 71
     2
 72
     2
 73
     0
 90
        0
 40
-0.6
 41
-30.0
 62
     5
 63
     7
 74
     1
 91
        4
 64
     7
 65
   257
 75
     1
175
     1
 42
1.0
 92
       12
 66
     7
 43
1.0
 76
     1
 77
     6
 78
     2
 67
     7
 79
     5
170
     0
171
     0
290
     0
174
     0
 93
        1
 44
0.0
173
     0
291
     1
 45
0.0
1001
ACAD
1000
AcDbSavedByObjectVersion
1070
     0
  0
VISUALSTYLE
  5
30
102
{ACAD_XDICTIONARY
360
CC3
102
}
102
{ACAD_REACTORS
330
29
102
}
330
29
100
AcDbVisualStyle
  2
Wireframe
 70
     5
 71
     0
 72
     2
 73
     0
 90
        0
 40
-0.6
 41
-30.0
 62
     5
 63
     7
 74
     1
 91
        4
 64
     7
 65
   257
 75
     1
175
     1
 42
1.0
 92
        0
 66
   257
 43
1.0
 76
     1
 77
     6
 78
     2
 67
     7
 79
     3
170
     0
171
     0
290
     0
174
     0
 93
        1
 44
0.0
173
     0
291
     0
 45
0.0
1001
ACAD
1000
AcDbSavedByObjectVersion
1070
     0
  0
VISUALSTYLE
  5
3C
102
{ACAD_XDICTIONARY
360
CDB
102
}
102
{ACAD_REACTORS
330
29
102
}
330
29
100
AcDbVisualStyle
  2
X-Ray
 70
    25
 71
     2
 72
     2
 73
     1
 90
        1
 40
0.5
 41
-30.0
 62
     5
 63
     7
 74
     1
 91
        0
 64
     7
 65
   257
 75
     1
175
     1
 42
1.0
 92
        8
 66
     7
 43
1.0
 76
     1
 77
     6
 78
     2
 67
     7
 79
     3
170
     0
171
     0
290
     0
174
     0
 93
       13
 44
0.0
173
     0
291
     0
 45
0.0
1001
ACAD
1000
AcDbSavedByObjectVersion
1070
     0
  0
DICTIONARYVAR
  5
79
102
{ACAD_REACTORS
330
76
102
}
330
76
100
DictionaryVariables
280
     0
  1
1:1
  0
DICTIONARYVAR
  5
78
102
{ACAD_REACTORS
330
76
102
}
330
76
100
DictionaryVariables
280
     0
  1
STANDARD
  0
DICTIONARYVAR
  5
77
102
{ACAD_REACTORS
330
76
102
}
330
76
100
DictionaryVariables
280
     0
  1
STANDARD
  0
DICTIONARYVAR
  5
CAA
102
{ACAD_REACTORS
330
76
102
}
330
76
100
DictionaryVariables
280
     0
  1
1
  0
DICTIONARYVAR
  5
CA9
102
{ACAD_REACTORS
330
76
102
}
330
76
100
DictionaryVariables
280
     0
  1
1
  0
DICTIONARYVAR
  5
CA8
102
{ACAD_REACTORS
330
76
102
}
330
76
100
DictionaryVariables
280
     0
  1
0
  0
DICTIONARYVAR
  5
CA5
102
{ACAD_REACTORS
330
76
102
}
330
76
100
DictionaryVariables
280
     0
  1
0
  0
DICTIONARYVAR
  5
CA6
102
{ACAD_REACTORS
330
76
102
}
330
76
100
DictionaryVariables
280
     0
  1
0
  0
DICTIONARYVAR
  5
CA4
102
{ACAD_REACTORS
330
76
102
}
330
76
100
DictionaryVariables
280
     0
  1
2
  0
DICTIONARYVAR
  5
CA3
102
{ACAD_REACTORS
330
76
102
}
330
76
100
DictionaryVariables
280
     0
  1
1
  0
DICTIONARYVAR
  5
CA7
102
{ACAD_REACTORS
330
76
102
}
330
76
100
DictionaryVariables
280
     0
  1
127
  0
DICTIONARYVAR
  5
CAB
102
{ACAD_REACTORS
330
76
102
}
330
76
100
DictionaryVariables
280
     0
  1
2
  0
DICTIONARY
  5
CE9
330
6B
100
AcDbDictionary
280
     1
281
     1
  3
ACAD_XREC_ROUNDTRIP
360
CEA
  0
DICTIONARY
  5
CED
330
73
100
AcDbDictionary
280
     1
281
     1
  3
ACAD_XREC_ROUNDTRIP
360
CEE
  0
DICTIONARY
  5
CEB
330
6F
100
AcDbDictionary
280
     1
281
     1
  3
ACAD_XREC_ROUNDTRIP
360
CEC
  0
DICTIONARY
  5
1A
330
19
100
AcDbDictionary
280
     1
281
     1
  3
ACAD_XREC_ROUNDTRIP
360
CB5
  3
BUMPTILE
360
1C
  3
DIFFUSETILE
360
1B
  3
OPACITYTILE
360
1F
  3
REFLECTIONTILE
360
1E
  3
REFRACTIONTILE
360
20
  3
SPECULARTILE
360
1D
  0
DICTIONARY
  5
12
330
11
100
AcDbDictionary
280
     1
281
     1
  3
ACAD_XREC_ROUNDTRIP
360
CB4
  3
BUMPTILE
360
14
  3
DIFFUSETILE
360
13
  3
FBXASSET
360
F5
  3
OPACITYTILE
360
17
  3
REFLECTIONTILE
360
16
  3
REFRACTIONTILE
360
18
  3
SPECULARTILE
360
15
  0
DICTIONARY
  5
22
330
21
100
AcDbDictionary
280
     1
281
     1
  3
ACAD_XREC_ROUNDTRIP
360
CB6
  3
BUMPTILE
360
24
  3
DIFFUSETILE
360
23
  3
FBXASSET
360
BA
  3
OPACITYTILE
360
27
  3
REFLECTIONTILE
360
26
  3
REFRACTIONTILE
360
28
  3
SPECULARTILE
360
25
  0
DICTIONARY
  5
CAE
330
67
100
AcDbDictionary
280
     1
281
     1
  3
ACAD_XREC_ROUNDTRIP
360
CAF
  0
DICTIONARY
  5
CAC
330
65
100
AcDbDictionary
280
     1
281
     1
  3
ACAD_ROUNDTRIP_2008_TABLESTYLE_CELLSTYLEMAP
360
CAD
  3
ACAD_XREC_ROUNDTRIP
360
CE7
  0
DICTIONARY
  5
CC1
330
2F
100
AcDbDictionary
280
     1
281
     1
  3
ACAD_XREC_ROUNDTRIP
360
CC2
  0
DICTIONARY
  5
CBF
330
2E
100
AcDbDictionary
280
     1
281
     1
  3
ACAD_XREC_ROUNDTRIP
360
CC0
  0
DICTIONARY
  5
CCD
330
35
100
AcDbDictionary
280
     1
281
     1
  3
ACAD_XREC_ROUNDTRIP
360
CCE
  0
DICTIONARY
  5
CD5
330
39
100
AcDbDictionary
280
     1
281
     1
  3
ACAD_XREC_ROUNDTRIP
360
CD6
  0
DICTIONARY
  5
CC7
330
32
100
AcDbDictionary
280
     1
281
     1
  3
ACAD_XREC_ROUNDTRIP
360
CC8
  0
DICTIONARY
  5
CCB
330
34
100
AcDbDictionary
280
     1
281
     1
  3
ACAD_XREC_ROUNDTRIP
360
CCC
  0
DICTIONARY
  5
CE5
330
41
100
AcDbDictionary
280
     1
281
     1
  3
ACAD_XREC_ROUNDTRIP
360
CE6
  0
DICTIONARY
  5
CD3
330
38
100
AcDbDictionary
280
     1
281
     1
  3
ACAD_XREC_ROUNDTRIP
360
CD4
  0
DICTIONARY
  5
CB7
330
2A
100
AcDbDictionary
280
     1
281
     1
  3
ACAD_XREC_ROUNDTRIP
360
CB8
  0
DICTIONARY
  5
CB9
330
2B
100
AcDbDictionary
280
     1
281
     1
  3
ACAD_XREC_ROUNDTRIP
360
CBA
  0
DICTIONARY
  5
CBB
330
2C
100
AcDbDictionary
280
     1
281
     1
  3
ACAD_XREC_ROUNDTRIP
360
CBC
  0
DICTIONARY
  5
CBD
330
2D
100
AcDbDictionary
280
     1
281
     1
  3
ACAD_XREC_ROUNDTRIP
360
CBE
  0
DICTIONARY
  5
CC5
330
31
100
AcDbDictionary
280
     1
281
     1
  3
ACAD_XREC_ROUNDTRIP
360
CC6
  0
DICTIONARY
  5
CE1
330
3F
100
AcDbDictionary
280
     1
281
     1
  3
ACAD_XREC_ROUNDTRIP
360
CE2
  0
DICTIONARY
  5
CD1
330
37
100
AcDbDictionary
280
     1
281
     1
  3
ACAD_XREC_ROUNDTRIP
360
CD2
  0
DICTIONARY
  5
CE3
330
40
100
AcDbDictionary
280
     1
281
     1
  3
ACAD_XREC_ROUNDTRIP
360
CE4
  0
DICTIONARY
  5
CC9
330
33
100
AcDbDictionary
280
     1
281
     1
  3
ACAD_XREC_ROUNDTRIP
360
CCA
  0
DICTIONARY
  5
CDF
330
3E
100
AcDbDictionary
280
     1
281
     1
  3
ACAD_XREC_ROUNDTRIP
360
CE0
  0
DICTIONARY
  5
CDD
330
3D
100
AcDbDictionary
280
     1
281
     1
  3
ACAD_XREC_ROUNDTRIP
360
CDE
  0
DICTIONARY
  5
CD7
330
3A
100
AcDbDictionary
280
     1
281
     1
  3
ACAD_XREC_ROUNDTRIP
360
CD8
  0
DICTIONARY
  5
CD9
330
3B
100
AcDbDictionary
280
     1
281
     1
  3
ACAD_XREC_ROUNDTRIP
360
CDA
  0
DICTIONARY
  5
CCF
330
36
100
AcDbDictionary
280
     1
281
     1
  3
ACAD_XREC_ROUNDTRIP
360
CD0
  0
DICTIONARY
  5
CC3
330
30
100
AcDbDictionary
280
     1
281
     1
  3
ACAD_XREC_ROUNDTRIP
360
CC4
  0
DICTIONARY
  5
CDB
330
3C
100
AcDbDictionary
280
     1
281
     1
  3
ACAD_XREC_ROUNDTRIP
360
CDC
  0
XRECORD
  5
CEA
102
{ACAD_REACTORS
330
CE9
102
}
330
CE9
100
AcDbXrecord
280
     1
102
SHADEPLOT
 70
     0
102
SHADEPLOTRESLEVEL
 70
     2
102
SHADEPLOTCUSTOMDPI
 70
   300
  0
XRECORD
  5
CEE
102
{ACAD_REACTORS
330
CED
102
}
330
CED
100
AcDbXrecord
280
     1
102
SHADEPLOT
 70
     0
102
SHADEPLOTRESLEVEL
 70
     2
102
SHADEPLOTCUSTOMDPI
 70
   300
  0
XRECORD
  5
CEC
102
{ACAD_REACTORS
330
CEB
102
}
330
CEB
100
AcDbXrecord
280
     1
102
SHADEPLOT
 70
     0
102
SHADEPLOTRESLEVEL
 70
     2
102
SHADEPLOTCUSTOMDPI
 70
   300
  0
XRECORD
  5
CB5
102
{ACAD_REACTORS
330
1A
102
}
330
1A
100
AcDbXrecord
280
     1
102
MATERIAL
148
0.0
149
0.0
149
0.0
 93
        0
 94
      127
282
     0
 72
     0
 77
     0
171
     0
175
     0
179
     0
273
     0
  0
XRECORD
  5
1C
102
{ACAD_REACTORS
330
1A
102
}
330
1A
100
AcDbXrecord
280
     1
270
     1
271
     1
  0
XRECORD
  5
1B
102
{ACAD_REACTORS
330
1A
102
}
330
1A
100
AcDbXrecord
280
     1
270
     1
271
     1
  0
XRECORD
  5
1F
102
{ACAD_REACTORS
330
1A
102
}
330
1A
100
AcDbXrecord
280
     1
270
     1
271
     1
  0
XRECORD
  5
1E
102
{ACAD_REACTORS
330
1A
102
}
330
1A
100
AcDbXrecord
280
     1
270
     1
271
     1
  0
XRECORD
  5
20
102
{ACAD_REACTORS
330
1A
102
}
330
1A
100
AcDbXrecord
280
     1
270
     1
271
     1
  0
XRECORD
  5
1D
102
{ACAD_REACTORS
330
1A
102
}
330
1A
100
AcDbXrecord
280
     1
270
     1
271
     1
  0
XRECORD
  5
CB4
102
{ACAD_REACTORS
330
12
102
}
330
12
100
AcDbXrecord
280
     1
102
MATERIAL
148
0.0
149
0.0
149
0.0
 93
        0
 94
      127
282
     0
 72
     0
 77
     0
171
     0
175
     0
179
     0
273
     0
  0
XRECORD
  5
14
102
{ACAD_REACTORS
330
12
102
}
330
12
100
AcDbXrecord
280
     1
270
     1
271
     1
  0
XRECORD
  5
13
102
{ACAD_REACTORS
330
12
102
}
330
12
100
AcDbXrecord
280
     1
270
     1
271
     1
  0
XRECORD
  5
F5
102
{ACAD_REACTORS
330
12
102
}
330
12
100
AcDbXrecord
280
     1
 70
     1
 90
1959938040
 71
     1
  1
D6D9AB74-3CD8-4D37-AE54-26EB365C211B
311
504B03040A0000080000836C32403DEE336E79000000790000001B0000006175746F6465736B2D64657369676E2D7061636B6167652E786D6C3C3F786D6C2076657273696F6E3D22312E302220656E636F64696E673D227574662D3822203F3E3C666F726D6174733E3C666F726D61743E687474703A2F2F736368656D612E
311
6175746F6465736B2E636F6D2F64657369676E2D7061636B6167652F323030393C2F666F726D61743E3C2F666F726D6174733E504B0304140006080800836C3240D486FD9CA0000000F4000000130000005B436F6E74656E745F54797065735D2E786D6C7D8EC10E82300C865F65E91D8A1E8C310C0EEA1BF002731658846E
311
D98AC1B77784ABF1D8FE5FBFBF75BBCE937A534CCEB38643598122B6FEE978D0B0485F9C41B54DDD7D022595594E1A469170414C76A4D9A4D207E29CF43ECE46F218070CC6BECC4078ACAA135ACF422C856C0E68EA1BF5669944DDD7BCDE7B1F8E415D77AECB980613C2E4AC91FC167A2B244592486606FC29C8FD7F045B9A
311
EF7053A7E60B504B0304140006080800836C324008E8FC0FE90000007C01000008000000636F72652E786D6C8D90416EC3201045AF82668F03C6B2DD0813B97672825E0001715162B00C543D7E71E248EDAE1B66F4F96F66F4F9E97BBEA32FB306EB5D07B420808C535E5B377590E215B7804E82AFDEC75F36404ECEA6834D
311
06C1A7D5A765979477D1B89855E7B5D94519828980D43D371D04F5696659C814B323DC8A45AA9B9C4C415F5D8653B21A3D97589DE7D9AB352B0832BE9575338CB8EFAB0BAEC6B6C6EF6DD5E0E13234AC3CF7ECCC083F6CB0E0D1CEAFFD6A35321A0DA224B4C48462DA7E507664F5913498E437439BFD0F9416FD4F28591759
311
B99FFBC402089A0F797C087ED8B2C8E51154AE5B6EE207504B0304140006080800836C324055019EA25F0000007C00000007000000636E782E786D6C4DCB3B0E80201045D1AD90E915ED2CF8AC45050C11660C8261F98AB1B07AC9C97D42D718D865D3E909258CFD00CCE24AC6E326A164D74DC0B4128928FF326038472BA1
311
3128B1252AC747C6BAB984FC68F0B87FE8960A5C09FE86CFB69FBA01504B0304140006080800836C32404889C64765010000020300000C0000006662782F636F72652E786D6C8D52D96E833010FC15CBEF067328D0CA384A737C417FC00187A2808D7CA07C7E9723A2A9A2284232D6CCCEEEEC00DBDEBA160DD2D846AB0247
311
01C548AA52578DAA0BECDD85E4186D39335ABB3F651829D1C9028F30E6AC36DAF70B546AE5A472802A5DC90514D64A8751D9C2A5C0B6FC919D0884775061AF412FCAABA865100540431D67D6193080E621E389F9E57C63E18C73E67D532D6C53C1B4E6D24883393D7CC49B6C7F20BB5D7A22E921DF90AF3CCDC8FEB4CF92F8
311
B84B8E0965E128E6CC35DDDD5D69A470B2C23CA6514C6844A2FC3B4A3E93CD27CD0885134463F983C8F7D59B22DF2897C48BDD5966318FC0C844FCDB162272C88A01FC849C856388F09A127E0C1A0281909D38B7F73DAE000DB274DAA4C054DAAFD4205A2F612A45D3C3C29985CE5303D8EC699FF8459FD73DE0030A558335
311
E1E07AF66E9CCEE6A94B14BD34647037A4B4E944BB9A9B2DAEE73AE8A9BCD4AD36EFA8C365D57009331CFF5EFE0B504B0304140006080800836C3240F9CD663C7D0000009D0000000B0000006662782F636E782E786D6C4DCCD10A83201886E15B91FFDC95CD350335267621B12C64E63F9C8E5DFE6A74B0A30F1E3E5ED97F
311
D640DE2EBD3C4605EC540371F18E938F8B8292672A80F45A26C4FC770312C7D529D819B45C1296E741939BC712F2A6C1C7C781AC354CB4D652616E86F2E1DA506119A71763BBDA9E391B9A0E2A2DAB5F69DB3DACBF504B0304140006080800836C32408EAE54872A01000014020000310000006662782F3136423138364444
311
2D384241422D344537322D384431342D3542443930443334314532392F636F72652E786D6C8D51CB6E833010FC15E4537A30D84008898CA322F207FD01623B899560233FAA7C7ED78548ED2D17AF353B333BDA65C7E7F4C8BE95F3DA9A0ED19CA04C1961A536D70EC570C12DCA8E9C396BC31F1ACACC38A90E251871767536
311
CE2B24AC09CA04408D956A0547EF55409978C0A7435EDCD434E6630CC0F0F77C1EC57DBCAA9CE6D0061E673E3808902D43D28B386D7ADA36C380DBFEB3C7F56957E276A035DEF6C39E0C554D4FE59E158B90B318B55CE55A421C7DD1CABD6B92C49C053DBDE20BA7C6A024E225A1252614D3F68B5687AA39901D26F0125624
311
FA3F519CE59BA2A84DA8CA35EE22F39095154B833369E3F9F10AA39EB375214BF3365E890FC4494E4A52D53BB265C5428505806753AF9E3E58070BDEDCCFC0A6C04AC64DCD59916E04E5F78050D33DF90F504B0304140006080800836C324020956E914C01000033030000300000006662782F31364231383644442D384241
311
422D344537322D384431342D3542443930443334314532392F636E782E786D6CD593BB6E023110457FC572BF0F032208798D94225F9022ADD71EC0C16BAFFC88C2DF670C86D050A44C335ADDB9337774E4E5BBEFC9922F08D1783750D6F69480535E1B7718684EFB6643C94EF0E07D7AB051E2E404032D3215FC107C9EABA4
311
612FB34DA85AE34E550C107D0E0A22CA659258AFA4C505E09A8C224C23680D9ADC8DF8B58780A7A0389E493A02797BFD207EFC049522EFCA16C1BB922178A935E9C14489B232C68146758449B63227AF219E5A2D936C597BCB7A72D3EF2652066E91391852C2075A2A15F5A21639F20E9B82C714905E35A5F30C54C879B646
311
C98490BB8BF1EA113C1B97D6ABEA35083EA09BAD97AB152EBBF4044F6682EA500164024DC5A2678BA6670DDBBCB3E576B9DEF62F4D8FB5E75DB10B3E7A6FEB10AE81E067A2BC4BE012158C77A5FD0C5FF5116D02B2F6E1FC079008A0A65EE9DC77FC673EDDE57D23AE807F81F801504B0304140006080800836C3240164949
311
789C0500007B100000340000006662782F31364231383644442D384241422D344537322D384431342D3542443930443334314532392F6F626A656374732E786D6CAD575B739B3814FE2B0CFB0C36B693263B848E2F49C7D34DDBA9A79D7DC88C478020DA88CB482271FAEBF713080CAE9D7A77FA02484847E77CE73B17F9EF
311
7719B79EA990ACC86F6CCF1DDB16CDA32266797A63572A71AE6CEB7DE08BA250BD65B695938CDED87ADA0EFC54145569A6629A908AAB83D9BBC5DF968C684E6D2BE244CA1B5B468F34232EA9541153F9E4C64411374D76AEE7360B87625341CAC703A125113457D014F339A4588D52DE7038B647813FD2FF035F3FCDAAE9E9
311
55A3DA9EE1F92C978AE4D14F871D88997AB3D5EDE4E2DAB998CDA6CEEC72E2398BBBC5CAF1DE4DC7CBCBE5F27A7E7B8D83A5129064341134B1830FC046B0C81F35BF02BF62B99A4ECC12E3A091A0CF4C7BCA0E2696E78F9A359D75C6C863EA47459ED3A8C60A68D4F619D1312D691EC3E78C4A68D643683C1C7A1AC7DEEFA9
311
1E9B23FBD3E721D0DFD113D4EADEBEFB9A16E13F30419EC32021A9666083A531B4E1EA788F705814DCFC63D2CA88A282116E71160A225EED004BF592C01F88D14C163A1AB40576002F34BF87744118FD9AE7C7B44C2ACE358DEDA08E822D62852A596BC67E50B1D7BE8F0C7482AF341BAE8C41EAB5A47670DD50E4EA804D0D
311
9056C2490A97C34CBD733A393074A9E374BDB2838F77E16EA363F7F8E1A5284A2A94A60FA8D53AAE7D6B948C4EDE599ED31BEC0355F6A07C05F29F10EA7B55E037C176B3DDCC9CA204C96552880CBEB1C69633C6636C79F5537FF7BEFC51B779E8BD5378C2D91AAADF80E7D086BE2F7B7006FE33085F88A9316D13118EB471
311
CF7200A44962F10253C8C349B8B38335B21CB23276111E783019EA3EE3D31F19314814F549BD770E2C0FD2E219091AB0D58C841A0DF98D827B3FFD94CEEA83CDB253F05EFC16BACE579B8F9B4A2424A2F726A6573461395328717BDEF4151A603EB0E889BEBE142286A13FE3BDE9E39D99A324D0D6986BE0D336A7EBC1FEE4
311
C10111F6A5854E37FE2F4E8011BAB0F6E4DF331951CE494E8BAA3DF7CDFA81B2D140AC835D33B92B30FBC202D2347F0E6210453A12ACD42076D5AA4B9AEE09EBBEAD3F819176B078FD8BBCF6B357B8CFBD51C10BB10D5FB74D5A3A0AF5F721B70D06232D0574AF83A48D7F03FA366649524924C123B87E5F2FFBBED3690129
311
A295DA44CB0CF623B88830A46DE5A25A0B824A5AE45B86BA89B83B7A405F3E20350CA8059ED258529E6C19E755B64D184735DA66A43C01C7FFD73FACB2724BB2A2CAD509D903D5511D86BA0FD82B5F888A1EED6053BF9D05726F4CE31364D0B5E4085603D7AE2E57D7F3C5BB99335DAEAE9CD96AFACE99DF5ECC9CC9E5ED62
311
7A79B19C78DEA2F553A349E0B7A5A61FD1F0124A9B5F0966DCF76D8DF83149C00EEE89920F1F9AF06CDFDFD62E7A617F843DA897DDC679FC8CBE8FC6BF16B05F7954D03A2B39CD68AE888EA17BFDC1BF12F41903659AF97546527A8694CF1F3607C660E68C7D5F74BCD39783BD6676A903F2A810F55865614E183FD8983648
311
BA659E1AFC5A9F74EFA6D0B4433D328E41672A0BCE62E4C1D84A699151856C784611121995A05EBFA78FCDDDE38CDDCF4D87A848C869ABC9234193CC25C202D4AA22359CB7FE4053A7FBAA1B1BE5D67DC2C3640ADB02676E6C34E98A4554BA210AB46E856AE1E052BF9347E34FF294A3D76E3675E36E97C6665092BB25E7F4
311
4FC6AE26851B0390464AF40D6888E09D5A99C0AF7533FFA3FF6478AB8E45143EC34A75B6EC273A63EA6310A28D51E6B68026E6C91CBD43A0BE6D96E7D66B06889C75CB7A93048D54471191D63705AD9F5169BEFA32428762AD3F5B25AF52F8F27C498EA02073A5031C2C022B8CCC92285075F9E7C31751E0269B59770C1478
311
58165956E466303737616BF3887B6DFC80B440F585443E4CC6DEE4A1BE0898BBC9362492BA24964F98804F05EB201E381E8C6C6E8BA840CD8F6EDD483BE1809BEB95654ADA0C420D51FA5955C3829623A716A2475F2675ACF417946FDE0546F552A820D0C507FF02504B0304140006080000836C3240000000000000000000
311
000000350000006662782F31364231383644442D384241422D344537322D384431342D3542443930443334314532392F76657274696365732E62696E504B0304140006080800836C3240F270F1330600000004000000360000006662782F31364231383644442D384241422D344537322D384431342D354244393044333431
311
4532392F747269616E676C65732E62696E636660600000504B0304140006080000836C3240000000000000000000000000370000006662782F31364231383644442D384241422D344537322D384431342D3542443930443334314532392F617474726962757465732E62696E504B0304140006080800836C3240D5987DFC8F
311
00000041010000360000006662782F31364231383644442D384241422D344537322D384431342D3542443930443334314532392F6469726563746F72792E786D6C858F410EC2201045AF4266AF15DDB800BA74E7C21B903225242D6328188F2FA5C4183471359997F9FF81E89FF3C41E1816475E02DF1F80A11FC8386F25A4
311
38EECEC07A250251FC3803E6F58C12560C4AD840E95E91C151A72936F496F35732D860FE635F62C8F2DA16B505C545B74125BAA2FA9E05D7CC053D063734D5C7665FD55B6B8D15D5E9BFEAFD8490FFA45E504B0304140006080800836C3240D78636B7FB000000A00100003B0000006662782F31364231383644442D384241
311
422D344537322D384431342D3542443930443334314532392F7265736F75726365732F636F72652E786D6C8D504B6E833010BD0A9ABDC1061468641C51929CA017B0CC84580936F2A7EAF16B0295DA5D3733A3F7D13C3D7EFA9A9FD9273AAFADE980E5143234CA8EDA4C1DC470232D6427C19DB5E1970C322367EC608541F0
311
C9D9B8EC90B226A009093576C41D94DE63804C3DD3D18157779C652E63480AFFC817A91E72C29CE5894E3AC17D702940B63D59270887DE46A7D0F36263058F518FBB468FE9A7BE697420E8F9AD3C34C340FABEBE92FADC1EC87B5B3764B80E4D555EFAEA52515EAC66C1839E7F322A8732E008A2A4AC249411D67EB0EA581D
311
8EB42134CD645AE57F4C7119FF698ADA84AADCE36E360F82A5202F42F062ED2BAD579969AFDD8A6F504B010214000A0000080000836C32403DEE336E79000000790000001B00000000000000000000000000000000006175746F6465736B2D64657369676E2D7061636B6167652E786D6C504B01021400140006080800836C
311
3240D486FD9CA0000000F40000001300000000000000000000000000B20000005B436F6E74656E745F54797065735D2E786D6C504B01021400140006080800836C324008E8FC0FE90000007C010000080000000000000000000000000083010000636F72652E786D6C504B01021400140006080800836C324055019EA25F00
311
00007C000000070000000000000000000000000092020000636E782E786D6C504B01021400140006080800836C32404889C64765010000020300000C00000000000000000000000000160300006662782F636F72652E786D6C504B01021400140006080800836C3240F9CD663C7D0000009D0000000B000000000000000000
311
00000000A50400006662782F636E782E786D6C504B01021400140006080800836C32408EAE54872A0100001402000031000000000000000000000000004B0500006662782F31364231383644442D384241422D344537322D384431342D3542443930443334314532392F636F72652E786D6C504B0102140014000608080083
311
6C324020956E914C010000330300003000000000000000000000000000C40600006662782F31364231383644442D384241422D344537322D384431342D3542443930443334314532392F636E782E786D6C504B01021400140006080800836C3240164949789C0500007B10000034000000000000000000000000005E080000
311
6662782F31364231383644442D384241422D344537322D384431342D3542443930443334314532392F6F626A656374732E786D6C504B01021400140006080000836C324000000000000000000000000035000000000000000000000000004C0E00006662782F31364231383644442D384241422D344537322D384431342D35
311
42443930443334314532392F76657274696365732E62696E504B01021400140006080800836C3240F270F133060000000400000036000000000000000000000000009F0E00006662782F31364231383644442D384241422D344537322D384431342D3542443930443334314532392F747269616E676C65732E62696E504B01
311
021400140006080000836C32400000000000000000000000003700000000000000000000000000F90E00006662782F31364231383644442D384241422D344537322D384431342D3542443930443334314532392F617474726962757465732E62696E504B01021400140006080800836C3240D5987DFC8F0000004101000036
311
000000000000000000000000004E0F00006662782F31364231383644442D384241422D344537322D384431342D3542443930443334314532392F6469726563746F72792E786D6C504B01021400140006080800836C3240D78636B7FB000000A00100003B00000000000000000000000000311000006662782F313642313836
311
44442D384241422D344537322D384431342D3542443930443334314532392F7265736F75726365732F636F72652E786D6C504B0506000000000E000E0080040000851100000000
310
504B03040A0000080000836C32403DEE336E79000000790000001B0000006175746F6465736B2D64657369676E2D7061636B6167652E786D6C3C3F786D6C2076657273696F6E3D22312E302220656E636F64696E673D227574662D3822203F3E3C666F726D6174733E3C666F726D61743E687474703A2F2F736368656D612E
310
6175746F6465736B2E636F6D2F64657369676E2D7061636B6167652F323030393C2F666F726D61743E3C2F666F726D6174733E504B0304140006080800836C3240D486FD9CA0000000F4000000130000005B436F6E74656E745F54797065735D2E786D6C7D8EC10E82300C865F65E91D8A1E8C310C0EEA1BF002731658846E
310
D98AC1B77784ABF1D8FE5FBFBF75BBCE937A534CCEB38643598122B6FEE978D0B0485F9C41B54DDD7D022595594E1A469170414C76A4D9A4D207E29CF43ECE46F218070CC6BECC4078ACAA135ACF422C856C0E68EA1BF5669944DDD7BCDE7B1F8E415D77AECB980613C2E4AC91FC167A2B244592486606FC29C8FD7F045B9A
310
EF7053A7E60B504B0304140006080800836C324099DA4609E90000007C01000008000000636F72652E786D6C8D904D6EC3201085AF82668F0DD871DD0813254A7A825E00C1C44189C13250F5F8C5F991DA5D37CCE8F1BE99D193BBEFE946BE70892EF80178C580A037C13A3F0E90D399F640764A2E21A45F36205E4F38C02A
310
8392E312F2FC944CF0097D2AAA0F169FA28E111310732BCD00D15C70D295CEA938E2B59AB5B9EA112BFEEA0A9CB3B3E4B1C4D932CF9D1D2EA0DA13E3EDA1FBA09C359CB6622FE8E1FDB4A7BCDF34FDF1B8E95AD1CB7A85954C6E7AED370BEA841694605C50C68BFF9337DBA6DBB237CACACB64BDDAFF4079B6FF84B2F3A911
310
CF731F5804C5CB21F70F25EB358B52EE4195BAE6A67E00504B0304140006080800836C324055019EA25F0000007C00000007000000636E782E786D6C4DCB3B0E80201045D1AD90E915ED2CF8AC45050C11660C8261F98AB1B07AC9C97D42D718D865D3E909258CFD00CCE24AC6E326A164D74DC0B4128928FF326038472BA1
310
3128B1252AC747C6BAB984FC68F0B87FE8960A5C09FE86CFB69FBA01504B0304140006080800836C32402B010B9A64010000020300000C0000006662782F636F72652E786D6C8D52ED8E8230107C95A6FFA12DA0E79952A3D17B827B810A956B84969496F8F8B77C18CE8B3186A434B33B3BB3037C776B6AD42BD7696B72CC
310
628A9132852DB5A9721CFC25DA60B413DC59EBFFB4616464A3723CC058F0CAD9D0CE50618D57C6036A6CA96650769DF21815355C72DC153FAA91B10C1E3ABA6BDCCAE22A2B15B318CAD02778E71D184093C870627139DF389970C143D0E55CD525A8E98B560E8BEC445976587F458CA62CCA927D121D3E4FFB886D56E9E678
310
5CADB364C3C94016DCEBE6EEAE704A7A5562915096449441FF374BB7E97A4B3F220A27E564687F2085B67C9314B4F16932DB9D681D160C8C8C857FDB42441E75B2073F4470328408AF31E1C7A0211008D9CB737DDFE30A50AF0A6F5D0695D286A5D4CB3A2850A5687C3899AA30791C009B3D9D93BC98F37A067C40692AB026
310
3D5CCFC10FEA7C529DA368958B7A7F43C6BA46D68BB9C9E2722E424FE985ADAD7B874DE655C91C2619FE5EF10B504B0304140006080800836C3240D88F63857D0000009D0000000B0000006662782F636E782E786D6C4DCCD10A83201886E15B91FFDC55244E410DDDF03E6259C84CC3E9D8E5AF46073BFAE0E1E315C3670D
310
E8EDF2CBA728A1BBB4805C7CA4C9C745422D3366800625724AE5EF06288EAB93703028B1E454B79326378F35945D838FCF139966C6587EC5FC4E19269ADC306F6D8769DF1B46A9D694586894687EA57D8FB0FA02504B0304140006080800836C3240B67E66C42901000014020000310000006662782F38413842424639372D
310
394436382D344134432D393046312D3633334238363641413634462F636F72652E786D6C8D51CB6EC32010FC15C4293D60836D1127C2444EAB7C417F8000495162B07854F9FC42ED48ED2D1716CDCECC8E76D9E131DDC1B7F6C1383B40526108B4954E197B1D608A17D44370E0CC3B17FFD020B062D2032C30E4ECEA5D9A57
310
483A1BB58D19B54EE9151421E80881BCE7CF0083FCD293A8448A99116ED52CE44D5C7545AADCCE3CCE42F4390058869417F27EEC8FC7D36E8B761FB447DDD8BDA31D3E1144DBF6D8533A8EB43BB17A1172969251ABDCA81CC75C8CF6AF9A143167D14CCFF8D26B11B582BCC1A4419820D27F9276DFD23DDE229C5FCCEA42FF
310
274AB37A51948C8D6DB3C65D640172C2EAA5C19972E97C7F86D18FD9F908CABC4DD0F20D725CE186E0A66FB6AC5EA87901D99376AB6788CEE7056F6EE7CC6E5763DA7156971BE5F27BC05CCB3DF90F504B0304140006080800836C32404632A1865401000033030000300000006662782F38413842424639372D394436382D
310
344134432D393046312D3633334238363641413634462F636E782E786D6CBD93CB6EC23010457FC5F23E2F8252841C2375D12FE8A25BC71EA88B63477E54E5EF3B0643D9B0A85475338AEEDC993B3A72D8EE6B36E4137CD0CE8EB4AB5B4AC04AA7B43D8C34C57DB5A164C799772EDED928B162869166997276F02E2D4552B0
310
17C944548DB6C7227A082E790901E53C498C93C2E002B0554211E6099402456E46FCDA83C753509C4E24BE0379797E236EFA0019036BF216CE9A9CC159AE25E9CE44893422849106F90EB3A8458A4E4138D64A445177F535EBC14D3F9B481EB84626AF490E1F69AE94978B6AE4C81A6C7216A2477AC5144F0B502E96C56829
310
22426ECEC68B87B3A46D1CD6C5AB11BC4777BF1A361B5C76EE7116F50CC5213D88088AF255DBADAAB6ABBACD6BD76FFB61DB3E552DD69635D9CED9E49C2943B806BC5B887436828D9477ACC9ED47F88A8F28ED91B5F3A75F80440025F542E7B6E32FF97443BF5EFF239FE6FCBE1197C7BF807F03504B030414000608080083
310
6C324018A655BB5A070000941B0000340000006662782F38413842424639372D394436382D344134432D393046312D3633334238363641413634462F6F626A656374732E786D6CED59DD739B3810FF5718EED9D8D84EDADC103A899D743CBDB49DFADAB987CC3032C8441721184924F1FDF5B7FA00033109BEE6DEFA600342
310
5AEDFEF6534BF0E129A3CE03E682E4ECDCF5BD89EB6016E70961E9B95BCAEDE8BDEB7C08039EE7B231CD7518CAF0B9AB86DD3048795E167628C15B5452D919BDBEFCCB113166D875628A843877457C8733E4A152E60916F75E8224F2D2ED93E77B66629B6CCA5171D7215A208E99044E619C0115C730E5B71F27EE380CC6EA
310
7D18A87F3B6B3668D6BC7FD6584BDDE6923021118B9FB1D421331BC4D2CC9F2FAFA62767A393F97C369A9F4EFDD1E5F5E572E4BF9B4D16A78BC5D9C5D519B0B7C9736A654A70815902FADBB9A11F8CD59B5A748BC021AEE39C311C6B20012A2D569720C102B66AC037693FFA4AA2C66B2D61E379AEDE5B161AC3B33695BE59
310
C38068D10541EC7695C4D5B5295FBEF91B0417438C920B2C815B213968D7C2C3C12BDC70128CCD68186CF6BA20C2C990C49C20EA50B2E188835260AA9A1206668125A39C8303294749A035675EB76D0B3CF375D739C4E5B6A45479861B6AC78AC0FDB0149A33F20FE67BEE9BC8004F206D49987C6FB994BB02BBE15930D683
310
61A02EB3A97D698074B614A5422362DE76045D28D75F2DDDF0D3F5E669ADC2C1E1CD0B9E17984B65744A8F9A2F30647B5528D96DFD419A530B401803AA5DB907E51B20FF19A2C79E15D01B274FF3A7B99D2B3962629BF30C74E34C9CD104FE268EAFFFD57DE32E18D78BDBDAEBC313DC5441F5FEE7F16CCBA0B1B2FC37E00C
310
830730F89CCFECAB758C28D8F30D610090321287E63004A17DBB7972C315044E08F4B00AD1D0079181DD07B80DC696CC5E2B957B59AF6380A8DD63364449009BB64860A3474F1F217B7012EFD5D414B10FDE933731D78BE5FAD3BAE45B14E31BEBD34BBC258C48C89A87196A61DE92E81EEF1E739E80A0CFF15E37F1CEEC56
310
02D056982BE0D30A04F5B0DFB9B5410CEBD25C859BE0951D400895AB1BF46F888831A588E1BCACF6ADA39B32D4DAE36DCDE0865303F16CDA31618E1F88AA2AC069F6335A8C42DE8F392914886EF8D14856074DAF47BAEFABCF6091F5FC9E592B06A19721FAA70E5A077068597685B405A21678B30FE7714E731E6D76918974
310
2ED412C046DB5B7EB48842AC374A5254C083B4DF55212535D24609D96E4B0171F5008B3F568BA6394CBC997FE234FF3BCE3887680BBE8BB8F5BBCE1E11C9508AA32D4AFAB66BEE56D3169A640F698EB714E4220F44EE2224A34982D363A0398AF8D99B524F692E04615840BE3A087E138D890781C468B3625969B503341151
310
8625A2C720A0C8F480ABD38EAE7163281D5EE7B1B6DE9734D624FA3F590447504BE62C22508A420E799571DF3B8118D246D7A0DCC117ACADA2ADC5A0259410F12E7AC424BD93C7A06EC8F7E01EC391A494515EA018CC7A00D967BEA294DAE17D83E27B953FA2B8A46F652002D36D44282DB3087E84C1C963886BD781E94514
310
1AC44DEC933883A20CC9920FD9E4F464F26C1F533374436063A32DA110B6A30C153DA8B702A2AE479C1A7C4BBD47A99B322B2294E5251B6428DEACEB4D967C57AD8AEC407E55A908656345D8120C03C2649D55AB980DA6AE032BB8910E54BB48A0ACA0E614F64AE2F16B6FD2947B37E0D64FDF76830C0ABF1EED3523EABC82
310
C1F2D82A0CC42392F19D1BAEF5757409F57782937DAAAF6ACD66050888A9485E726255F47D05E58DADD1DCF0064971FBD164DDEAFA7DE541F72318C31AA85DEA852B0574869944AA32B95137F41B8210DCA261C6572AA71E43E5224974D588E835E95367AB8C686D9A11AFB8C32CCFE0C76E098B6999E05B9488FBE846D268
310
4D14EB564A2F2315C62F0AF8E5E3BA030F8C0C10E9AB2AF0F06367AD1D5DA872E920117957661B860804C19668A9D18D57B0D46AA4D2727D55670AA8BBC0C0AC8AE7BF4E16CD76C4AF93456A0DE3A74E1697BB3FD0AED91769A4F358D9F551C7803A3F292A6F710CD06D879A6A9D454C32B7F25B678A202856517E70355605
310
0D43B08FE3FF9CB5FBB2A0D9AEC3FF7159DB7F56711C95555A935597EA40E5BA6AE6B0E5E9F2ECE2F2DD7C345B2CDF8FE6CBD9BBD1C5D5C97C343DBDBA9C9D9E2CA6BE7F59A3A91D350CEA60A673173C9BA0560DAB278B017465454E4902A7F9C44931C47C0967FA01ED739E6101C9B3D9EC4E6C537EC0EA07D3E794684371
310
C5C91D8206311590D601A33296ED71E737684D4A38689FBBD034F2EEE1CF5AA5EB40E63977A15520498C85B78136936AE869E2907275EEB7C4001FC4529512CDA2FAB95EA5B06985FF7ACA903460E56AF530A0702BA0FBD5EA5068DE2C4FF1518257EC3848C2EDA69450AD1959F603B5307A9BBDFA8D6C94B07BBBF513B8EE
310
CB62F99E9ED34264D02783178DC0501D49C453DDEF568C59962E965FC7D06773565F9C829629E87238A511C760CCA52AA8C08AC02A2CCD024930D5C5EFB75F790E9F7832475745B78B3CCB72661F2EE03C96C02722677D071F7C925B281BB06AAB8BDBE9C49FDEEA76B6EDB0471B24B0A7EA2118A8CA082542C7D8C0229FB5
310
A66CE372AC94D099BE5A3A367C421BC058D0B3EEAEF9BCE580F7A80F29CA57B4875772BED8D11EEBA9600D1C7AD1E1BF504B0304140006080000836C3240000000000000000000000000350000006662782F38413842424639372D394436382D344134432D393046312D3633334238363641413634462F7665727469636573
310
2E62696E504B0304140006080800836C3240F270F1330600000004000000360000006662782F38413842424639372D394436382D344134432D393046312D3633334238363641413634462F747269616E676C65732E62696E636660600000504B0304140006080000836C324000000000000000000000000037000000666278
310
2F38413842424639372D394436382D344134432D393046312D3633334238363641413634462F617474726962757465732E62696E504B0304140006080800836C3240D5987DFC8F00000041010000360000006662782F38413842424639372D394436382D344134432D393046312D3633334238363641413634462F64697265
310
63746F72792E786D6C858F410EC2201045AF4266AF15DDB800BA74E7C21B903225242D6328188F2FA5C4183471359997F9FF81E89FF3C41E1816475E02DF1F80A11FC8386F25A438EECEC07A250251FC3803E6F58C12560C4AD840E95E91C151A72936F496F35732D860FE635F62C8F2DA16B505C545B74125BAA2FA9E05D7
310
CC053D063734D5C7665FD55B6B8D15D5E9BFEAFD8490FFA45E504B0304140006080800836C3240F1301B38FA000000A00100003B0000006662782F38413842424639372D394436382D344134432D393046312D3633334238363641413634462F7265736F75726365732F636F72652E786D6C8D504B6E833010BD0A9ABDC136
310
84D2C8384A146ED00B586642AC041BF953F5F835814AEDAE9B99D1FB689E9E387DCDCFE2137D30CEF6C04A0A055AED4663A71E52BC910E8A9314DEB9F84B06855533F6B0C220C5E45D5A76483B1BD1C68C5A37E20EAA103042A19FF9E821E83BCEAA5429664578948BD20F3561C9CA4C679D1421FA1CA0D89EAC13A4C7E092
310
D71844B5B152A464C65D63C6FCD3DC0C7A90CD4059736907C268CD48C3CF9C5CDE873361DDA1EEAED743DBF04E54AB598A68E69F8CDAA38A3882E494714259D67FB0FA58B747FA46689E5454ABFC8F292DE33F4DC9D858F33DEE660B20590EF222A4A8D6BEF27A9599F7DAADFC06504B010214000A0000080000836C32403D
310
EE336E79000000790000001B00000000000000000000000000000000006175746F6465736B2D64657369676E2D7061636B6167652E786D6C504B01021400140006080800836C3240D486FD9CA0000000F40000001300000000000000000000000000B20000005B436F6E74656E745F54797065735D2E786D6C504B01021400
310
140006080800836C324099DA4609E90000007C010000080000000000000000000000000083010000636F72652E786D6C504B01021400140006080800836C324055019EA25F0000007C000000070000000000000000000000000092020000636E782E786D6C504B01021400140006080800836C32402B010B9A640100000203
310
00000C00000000000000000000000000160300006662782F636F72652E786D6C504B01021400140006080800836C3240D88F63857D0000009D0000000B00000000000000000000000000A40400006662782F636E782E786D6C504B01021400140006080800836C3240B67E66C4290100001402000031000000000000000000
310
000000004A0500006662782F38413842424639372D394436382D344134432D393046312D3633334238363641413634462F636F72652E786D6C504B01021400140006080800836C32404632A18654010000330300003000000000000000000000000000C20600006662782F38413842424639372D394436382D344134432D39
310
3046312D3633334238363641413634462F636E782E786D6C504B01021400140006080800836C324018A655BB5A070000941B00003400000000000000000000000000640800006662782F38413842424639372D394436382D344134432D393046312D3633334238363641413634462F6F626A656374732E786D6C504B010214
310
00140006080000836C32400000000000000000000000003500000000000000000000000000101000006662782F38413842424639372D394436382D344134432D393046312D3633334238363641413634462F76657274696365732E62696E504B01021400140006080800836C3240F270F13306000000040000003600000000
310
000000000000000000631000006662782F38413842424639372D394436382D344134432D393046312D3633334238363641413634462F747269616E676C65732E62696E504B01021400140006080000836C32400000000000000000000000003700000000000000000000000000BD1000006662782F38413842424639372D39
310
4436382D344134432D393046312D3633334238363641413634462F617474726962757465732E62696E504B01021400140006080800836C3240D5987DFC8F000000410100003600000000000000000000000000121100006662782F38413842424639372D394436382D344134432D393046312D363333423836364141363446
310
2F6469726563746F72792E786D6C504B01021400140006080800836C3240F1301B38FA000000A00100003B00000000000000000000000000F51100006662782F38413842424639372D394436382D344134432D393046312D3633334238363641413634462F7265736F75726365732F636F72652E786D6C504B050600000000
310
0E000E0080040000481300000000
  0
XRECORD
  5
17
102
{ACAD_REACTORS
330
12
102
}
330
12
100
AcDbXrecord
280
     1
270
     1
271
     1
  0
XRECORD
  5
16
102
{ACAD_REACTORS
330
12
102
}
330
12
100
AcDbXrecord
280
     1
270
     1
271
     1
  0
XRECORD
  5
18
102
{ACAD_REACTORS
330
12
102
}
330
12
100
AcDbXrecord
280
     1
270
     1
271
     1
  0
XRECORD
  5
15
102
{ACAD_REACTORS
330
12
102
}
330
12
100
AcDbXrecord
280
     1
270
     1
271
     1
  0
XRECORD
  5
CB6
102
{ACAD_REACTORS
330
22
102
}
330
22
100
AcDbXrecord
280
     1
102
MATERIAL
148
0.0
149
0.0
149
0.0
 93
        0
 94
      127
282
     0
 72
     0
 77
     0
171
     0
175
     0
179
     0
273
     0
  0
XRECORD
  5
24
102
{ACAD_REACTORS
330
22
102
}
330
22
100
AcDbXrecord
280
     1
270
     1
271
     1
  0
XRECORD
  5
23
102
{ACAD_REACTORS
330
22
102
}
330
22
100
AcDbXrecord
280
     1
270
     1
271
     1
  0
XRECORD
  5
BA
102
{ACAD_REACTORS
330
22
102
}
330
22
100
AcDbXrecord
280
     1
 70
     1
 90
1959938040
 71
     1
  1
67C762E8-4250-481E-ADE1-73055DCC904E
311
504B03040A0000080000836C32403DEE336E79000000790000001B0000006175746F6465736B2D64657369676E2D7061636B6167652E786D6C3C3F786D6C2076657273696F6E3D22312E302220656E636F64696E673D227574662D3822203F3E3C666F726D6174733E3C666F726D61743E687474703A2F2F736368656D612E
311
6175746F6465736B2E636F6D2F64657369676E2D7061636B6167652F323030393C2F666F726D61743E3C2F666F726D6174733E504B0304140006080800836C3240D486FD9CA0000000F4000000130000005B436F6E74656E745F54797065735D2E786D6C7D8EC10E82300C865F65E91D8A1E8C310C0EEA1BF002731658846E
311
D98AC1B77784ABF1D8FE5FBFBF75BBCE937A534CCEB38643598122B6FEE978D0B0485F9C41B54DDD7D022595594E1A469170414C76A4D9A4D207E29CF43ECE46F218070CC6BECC4078ACAA135ACF422C856C0E68EA1BF5669944DDD7BCDE7B1F8E415D77AECB980613C2E4AC91FC167A2B244592486606FC29C8FD7F045B9A
311
EF7053A7E60B504B0304140006080800836C3240AA637D1FE90000007C01000008000000636F72652E786D6C8D90416EC3201045AF82668F0DC6B1DD0813C5756FD00B20200E4A0C9681AAC72F4E1CA9DD75C38C3EFFCD8C3E3F7DCF77F465D660BDEB8116049071CA6BEBA61E52BCE00ED049F0D5FBF8CB06C8C9D9F4B0C9
311
20F8B4FAB4EC92F22E1A17B3EABC36BB2843301190BAE7A687A0AE6696854C313BC2AD58A4BAC9C914F4D5653825ABD17389D5799EBD58B38260847DB4B419F1C03A8AEB7A7CC3DDB93BE366381CEAE19D8EAC6D79B9C182473BBFF6ABD5C86834888AD00A138A69F749D9913547D262925FC2CBCDFE074A8BFE2794AC8BAC
311
DACF7D620104CD873C3E042FB72C72790495EB969BF801504B0304140006080800836C324055019EA25F0000007C00000007000000636E782E786D6C4DCB3B0E80201045D1AD90E915ED2CF8AC45050C11660C8261F98AB1B07AC9C97D42D718D865D3E909258CFD00CCE24AC6E326A164D74DC0B4128928FF326038472BA1
311
3128B1252AC747C6BAB984FC68F0B87FE8960A5C09FE86CFB69FBA01504B0304140006080800836C3240BBE8C67B65010000020300000C0000006662782F636F72652E786D6C8D52ED8E8320107C15C27F44D456AF419AF67A6F702F40957AA60A06C1F4F16FFD68BC5E9AA6314132B3B33B3BCAF7B7B64183B27D6D748E59
311
1062A47461CA5A5739F6EE42328CF6825B63DC9F328CB46C558E47180B5E59E3BB052A8C764A3B40B529D502CABE570EA3A2814B8EFBE247B53290DE41457F0D3A595C65A50216000D7582F7CE8201340F194F2C2EE71BA7332EB8F775B9B07509D3EA4BAD2C1671187FA56C7B22C7386324494E1F243B6407B23D6E36C9F1
311
939DE234E574140BEEEAF6EEAEB04A3A556211852C2221232CFB66F12EDEEEC2948470869C8EE50F22DF956F8A7CAD5D1C2D7667598F05032313F16F5B88C8A15E0EE0870A4EC710E13525FC18340402213B796EEE7B5C011A54E18C4D80298D5FA941365EC1D4104D0FA7330B9DA706B0D9D33ED18B3EAF7BC00794BA026B
311
D2C1F5ECDD389DCF5397283A65C9E06E481BDBCA6635375B5CCF75D05379611A63DF51D36555BA8449C7BF57FC02504B0304140006080800836C3240E4198BCC7D0000009D0000000B0000006662782F636E782E786D6C4DCCDF0A83201C86E15B91DFB9CBFC331DA811D885C4B290950EA76397BF1A1DECE883878F57779F
311
6D456F9F5F214503ED8500F2F19EA6101703B5CC5801EAACCE2995BF1BA0386EDEC0C160F592537D9E34F979AC6BD9750DF171226384D3AB2278E08E602EC5806F42B458AA5EF6C4394A2983C6EAE657DAF708DB2F504B0304140006080800836C3240CD98261F2901000014020000310000006662782F3333303432363830
311
2D453444302D343735452D393535312D3738413741304444323232332F636F72652E786D6C8D51CB6EC32010FC15C4A93D6003B6B11B61A248C91FF4070826294A0C168F2A9F5FA81DA9BDE5C2A2D999D9D12EDF3FE63BF8D63E186747482A0C81B6CA4DC65E4798E2050D10EC05F7CEC53F3408AC9CF5080B0C05BF7A9796
311
0D52CE466D6346AD9BF406CA10748440DDF36784417DE9595632C5CC08B76A91EA26AFBA22556E679EE021FA1C00AC43CA0B45D3E096B201A3537BC4A8EDBB13FAE83A82FAE1D01FF0F148296D78BD0A054FC94C9BDC4C398EB918ED5F352962C1A3999FF195D732EA090A8A09459820327C9266D7B01DEE11CE2FE675A1FF
311
13A5657A51948C8D0DDDE2AEB20005E1F5DA107C72E97C7F86D18FC5F908CABCB7A0D53B14B8C214778CB196D72B352F207BB276F30CD1F9BCE0B7DB39B349B71AB356F0BADC2897DF03E65AEE297E00504B0304140006080800836C324020956E914C01000033030000300000006662782F33333034323638302D45344430
311
2D343735452D393535312D3738413741304444323232332F636E782E786D6CD593BB6E023110457FC572BF0F032208798D94225F9022ADD71EC0C16BAFFC88C2DF670C86D050A44C335ADDB9337774E4E5BBEFC9922F08D1783750D6F69480535E1B7718684EFB6643C94EF0E07D7AB051E2E404032D3215FC107C9EABA461
311
2FB34DA85AE34E550C107D0E0A22CA659258AFA4C505E09A8C224C23680D9ADC8DF8B58780A7A0389E493A02797BFD207EFC049522EFCA16C1BB922178A935E9C14489B232C68146758449B63227AF219E5A2D936C597BCB7A72D3EF2652066E91391852C2075A2A15F5A21639F20E9B82C714905E35A5F30C54C879B646C9
311
8490BB8BF1EA113C1B97D6ABEA35083EA09BAD97AB152EBBF4044F6682EA500164024DC5A2678BA6670DDBBCB3E576B9DEF62F4D8FB5E75DB10B3E7A6FEB10AE81E067A2BC4BE012158C77A5FD0C5FF5116D02B2F6E1FC079008A0A65EE9DC77FC673EDDE57D23AE807F81F801504B0304140006080800836C32404AD07909
311
9A0500007A100000340000006662782F33333034323638302D453444302D343735452D393535312D3738413741304444323232332F6F626A656374732E786D6CAD575D6FA33814FD2B887D260949DA695794519BB4A368D499D14433DA874A910143BD3518D9A693EEAFDF633004D2A4CDAEE62504737D7DEFB9E77E38F8B8
311
CDB9F34CA562A2B872FDD1C47568118B8415D9955BE9D4BB709D8F612085D03D31D729484EAF5CB3EC8641264555DAA584A6A4E27A6FF5EEE62F47C5B4A0AE1373A2D495ABE2479A9311A9B448A87A1A25449351966E47FEA8111CAACD24291FF7949644D242C352AC17D0E23446F9C3D7893B0E83B1F91E06E6D74ACD8E4B
311
8D6B7F86E7B3426952C4AF0EDB5333F3E7CBDBE9D9A577369FCFBCF9F9D4F76EEE6E969EFF6136599C2F1697D7B797385869094DD612495337FC046C248B8371F3290C2A56E8D9D48AD8008D257D6626526E3875FC60DCC874DE59270F991F8BA2A0718D15D0A8FDB3AA135AD22241CC1955B0AC87D064F8EA1B1C7B9F67E6
311
DD1ED95F3E0D81FE8E9EA2D6F6F6D9B754447FC305750A83A4A286810D96D6D186AB931DC29110DC7E63CAC989A69211EE701649225FDC10A246240C066A0C93A5C906E3811B220ACDE7215D9046EFF3FC909569C5B9A1B11BD659B041AE50AD6ACBD83F54EEACEF23039B102BC3860BEB907E29A91B5E3614B9D8635303A4
311
93729221E470D3EC9C4DF71C5D983C5D2DDDF0F35DB45D9BDC3D7C78294549A536F401B5DAC0B54F8392B5C93F29726683BB67CA0E94EF40FE0B527D670AE226D976BE9DDB53B424854A85CC111B67E27813FC4C1CBFFE35FF7BFF8271B77918BD637822D806AADF80E7D0877E2C7B7086C133082FE4CCBAB68E0947D9B867
311
0500322471B8C012EA701A6DDD70852A87AA8C5D84873E5C86B9CFF81B8CAD1A148AFAA4DEB300967B65F184020DD86A46C28C86FCD6C05D9C5E95B3FA602B760CDEB3DF42D7EBE5FAF3BA922989E9BDCDE9254D59C1345ADC8E377D8306980F3C7AA22FBF844CE0E86BBCD77DBC737B9402DA0673037CD6D674F3B23B7970
311
408C7D9930E52678E70438611A6B4FFF3D5331E59C145454EDB96FF60FB48D066293EC86C95D83D9351690A6F9B2978368D2B164A501B1EB565DD11C1DF1EEC7EA0B1809792E22C27742D1AEF4C6820BB9895E364D553A88F4CF21B52D0463A3056CAF73A44D7F8BF92661695A29D4C003B0FE5C2DFAA133550115A2D5DA24
311
CB1CEE23B788B49C6DF5A2594B82462A8A0D43DB44DA1D3CA0AF1F885A02D40A8F59AC284F378CF32ADFA48CA3196D72521E81E3FFDB1F5579B921B9A80A7D44F7C0743487A1ED03F2AA5F44C78F6EB8AE9FDE0D4A6F42935D9807C2A6951CC06A10DAF30F8B0FE7D3DB0B6F3E3D9B78F30BFFD6BB5EDEFA1EA6A7B3B325C6
311
A7C9FCB68D53A33C0CDA4ED34F6844099D2DA824B3E1FBB142FAD81AE086F744AB874F4D76B6CF1FAB1146E1608C3D6897DDC6EBE419631F4DDE57B0933CA86895979CE6B4D0C4A4D0BDF9C3BF138C1903639AF5554E327A8296AF9FD67BCE60E5847DDF4CBAD35F7B7BEDEAC224E44125FAB1CAA38230BEB7316B901C9545
311
66F16B63D23D9B3ED3BE9A371B180CA64A7096A00C264E46454E358AE1093D48E654817AFD913EB1578F13763F3703A22611A7AD258F04333257480B50AB8AF570DDF903339D19ABAE5C74DBD1137E6CA5701D70E6CAC58CAE594CD528427F369350AD1C5CEA0FF298FB4991718CDACDA6EEBDDB65B01974E44EE494F1C9FA
311
D55470EB00CA4889B101F310A2531B1306B56DF67BFC9F1C6FCD7188C6DFA8D29D2FBB85CE99FA18A468E394BD2C608679B2476F91A86FBBE58F6A990122275DB2DE2441A3D5D34466F545C1D8674DBA5E7E1B634071565F9D9257196279BA264F5290B932090E16811556674934A8BAF8F3E19B14B8C8E6CE1D03051E1622
311
CF45615FAEED45D8593FE25A9B3CA02C50731F510FD3893F7DA8EF01F66AB28988A22392A8272C20A69275100F020F4636974574A0E64327373641D8E3E66AE9D8963687524B947E5535B060E228A883EC317749932B7D81F2CDABC0B816850912437CF82F504B0304140006080000836C3240000000000000000000000000
311
350000006662782F33333034323638302D453444302D343735452D393535312D3738413741304444323232332F76657274696365732E62696E504B0304140006080800836C3240F270F1330600000004000000360000006662782F33333034323638302D453444302D343735452D393535312D373841374130444432323233
311
2F747269616E676C65732E62696E636660600000504B0304140006080000836C3240000000000000000000000000370000006662782F33333034323638302D453444302D343735452D393535312D3738413741304444323232332F617474726962757465732E62696E504B0304140006080800836C3240D5987DFC8F000000
311
41010000360000006662782F33333034323638302D453444302D343735452D393535312D3738413741304444323232332F6469726563746F72792E786D6C858F410EC2201045AF4266AF15DDB800BA74E7C21B903225242D6328188F2FA5C4183471359997F9FF81E89FF3C41E1816475E02DF1F80A11FC8386F25A438EECE
311
C07A250251FC3803E6F58C12560C4AD840E95E91C151A72936F496F35732D860FE635F62C8F2DA16B505C545B74125BAA2FA9E05D7CC053D063734D5C7665FD55B6B8D15D5E9BFEAFD8490FFA45E504B0304140006080800836C3240750DB7A7FB000000A00100003B0000006662782F33333034323638302D453444302D34
311
3735452D393535312D3738413741304444323232332F7265736F75726365732F636F72652E786D6C8D50596EC32010BD8A35FFD86092D88D305196DEA0174078E2A0C460B1543D7E2171A5F6AF3F33A3B7689E9E387CCD8FEA137D30CE0EC06A0A155AED4663A70152BC921EAA8314DEB9F84B069555330E50609062F22E2D
311
2BA49D8D686346AD1B7105550818A1D28F7C0C10F40D6755AB14B322DCEB45E9BB9AB06675A6B34E8A107D0E50BD9E9409D26370C96B0CA279B152A464C65563C6FCD35C0D7A909CF2F78EEDCEE4C47B46369BCB1BE98FFD91EC4EDBEDE6746617DE75A2296629A2997F326A8F2AE208B2A5AC259411D67F30BEE7BB3DED08
311
CD938AA6C8FF98D232FED3948C8DBC5DE3BE6C0124CB419E84144DE92BAF679979976EE537504B010214000A0000080000836C32403DEE336E79000000790000001B00000000000000000000000000000000006175746F6465736B2D64657369676E2D7061636B6167652E786D6C504B01021400140006080800836C3240D4
311
86FD9CA0000000F40000001300000000000000000000000000B20000005B436F6E74656E745F54797065735D2E786D6C504B01021400140006080800836C3240AA637D1FE90000007C010000080000000000000000000000000083010000636F72652E786D6C504B01021400140006080800836C324055019EA25F0000007C
311
000000070000000000000000000000000092020000636E782E786D6C504B01021400140006080800836C3240BBE8C67B65010000020300000C00000000000000000000000000160300006662782F636F72652E786D6C504B01021400140006080800836C3240E4198BCC7D0000009D0000000B000000000000000000000000
311
00A50400006662782F636E782E786D6C504B01021400140006080800836C3240CD98261F290100001402000031000000000000000000000000004B0500006662782F33333034323638302D453444302D343735452D393535312D3738413741304444323232332F636F72652E786D6C504B01021400140006080800836C3240
311
20956E914C010000330300003000000000000000000000000000C30600006662782F33333034323638302D453444302D343735452D393535312D3738413741304444323232332F636E782E786D6C504B01021400140006080800836C32404AD079099A0500007A10000034000000000000000000000000005D080000666278
311
2F33333034323638302D453444302D343735452D393535312D3738413741304444323232332F6F626A656374732E786D6C504B01021400140006080000836C32400000000000000000000000003500000000000000000000000000490E00006662782F33333034323638302D453444302D343735452D393535312D37384137
311
41304444323232332F76657274696365732E62696E504B01021400140006080800836C3240F270F133060000000400000036000000000000000000000000009C0E00006662782F33333034323638302D453444302D343735452D393535312D3738413741304444323232332F747269616E676C65732E62696E504B01021400
311
140006080000836C32400000000000000000000000003700000000000000000000000000F60E00006662782F33333034323638302D453444302D343735452D393535312D3738413741304444323232332F617474726962757465732E62696E504B01021400140006080800836C3240D5987DFC8F0000004101000036000000
311
000000000000000000004B0F00006662782F33333034323638302D453444302D343735452D393535312D3738413741304444323232332F6469726563746F72792E786D6C504B01021400140006080800836C3240750DB7A7FB000000A00100003B000000000000000000000000002E1000006662782F33333034323638302D
311
453444302D343735452D393535312D3738413741304444323232332F7265736F75726365732F636F72652E786D6C504B0506000000000E000E0080040000821100000000
310
504B03040A0000080000836C32403DEE336E79000000790000001B0000006175746F6465736B2D64657369676E2D7061636B6167652E786D6C3C3F786D6C2076657273696F6E3D22312E302220656E636F64696E673D227574662D3822203F3E3C666F726D6174733E3C666F726D61743E687474703A2F2F736368656D612E
310
6175746F6465736B2E636F6D2F64657369676E2D7061636B6167652F323030393C2F666F726D61743E3C2F666F726D6174733E504B0304140006080800836C3240D486FD9CA0000000F4000000130000005B436F6E74656E745F54797065735D2E786D6C7D8EC10E82300C865F65E91D8A1E8C310C0EEA1BF002731658846E
310
D98AC1B77784ABF1D8FE5FBFBF75BBCE937A534CCEB38643598122B6FEE978D0B0485F9C41B54DDD7D022595594E1A469170414C76A4D9A4D207E29CF43ECE46F218070CC6BECC4078ACAA135ACF422C856C0E68EA1BF5669944DDD7BCDE7B1F8E415D77AECB980613C2E4AC91FC167A2B244592486606FC29C8FD7F045B9A
310
EF7053A7E60B504B0304140006080800836C32406996AFABE90000007C01000008000000636F72652E786D6C8D905B6EC3201045B782E61F07FCA04E8489D2D45D41378080B82831583CAA2EBF3871A4F6AF3FCCE872CFCCE8F2E3F77C435F2644EBDD00B422808C535E5B370D90D305F7808E8207EFD32F1B20276733C02A
310
83E053F079D924E55D322E15D5796D3651C6681220752BCD00517D9A595632A7E288D76A91EA2A2753D16757E09CAD468F25569779F6624D00D13242CE1D7DC1EF6FFB136E29EDF0FE3C32DCBDF68CB2F1349296F0DD0A0B9EECFCDCAF8291C9681035A1352614D3FE833687861D08C3A4BC055AED7FA0BCE87F42D9BAD4D4
310
DBB90F2C82A0E590FB87E0BB358B52EE4195BAE6267E00504B0304140006080800836C324055019EA25F0000007C00000007000000636E782E786D6C4DCB3B0E80201045D1AD90E915ED2CF8AC45050C11660C8261F98AB1B07AC9C97D42D718D865D3E909258CFD00CCE24AC6E326A164D74DC0B4128928FF326038472BA1
310
3128B1252AC747C6BAB984FC68F0B87FE8960A5C09FE86CFB69FBA01504B0304140006080800836C32400D71A7B965010000020300000C0000006662782F636F72652E786D6C8D52ED8E8320107C15C27F14ACF57A0DD2F47ABD27B817A04A3D52058360FAF8B77E345E2F4DD3982099D9D99D1DE5BB6B53A35EB94E5B9363
310
16518C94296CA94D95E3E0CF6483D14E7067ADFF538691918DCAF10063C12B67433B4385355E190FA8B1A59A41D975CA6354D470C97157FCA846463278A8E82E512B8B8BAC54C422A0A14EF0CE3B3080A621C389C5F974E5F1840B1E822E675697304D9FB57258A419A587357B235F9FEF7B9232B626EF876346D61F9B8C65
310
C7FD91A694C7835870AF9B9BBBC229E955894542594228236CF3CD56DB55B6A519A170826828BF1385B67C5114B4F1AB64B63BC93A2C181819897FDB42441E75B2073FB1E0F11022BCC684EF83864020642F4FF56D8F0B40BD2ABC752930A50D0BD5CB3A28984AD1F8F07862A1F3D800367BD82779D2E7790FF880D254604D
310
7AB89E821FA6F369EA1C45AB1CE9FD1519EB1A592FE6268BCBB90C7A282F6C6DDD2BEA785E359EC38C87BF57FC02504B0304140006080800836C3240D5D2273D7E0000009D0000000B0000006662782F636E782E786D6C4DCCD10E82201886E15B61FF394929A81BE090EC3E5CA263213482D6E5A7CD838EBEEDD9B797779F
310
D5A1B7892F1BBC80F3890032FE1E26EB170139CDB801D4491E43487F37407E5C8D809D41F22586FC3C6832F3985DDAD459FF3890969AA95B73C5BA240C57AA66582932E0B6BAF4B4EE07D2520D85E4C5AFB4ED1E965F504B0304140006080800836C32403C961A0A2B01000014020000310000006662782F35334336414638
310
442D433330362D344137362D414130452D3934324235374245303935432F636F72652E786D6C8D51CB6EC23010FC95C8277A70623B2104E418054ABFA03F101C432D881DF951F1F95D37416A6F5CBCD6ECCCEC6897EF1FE33DFB56CE6B6B5A4473823265A41DB4B9B628860B6E50B617DC591BFED05066FA51B528C148F0AB
310
B3715A20694D5026006AECA016B0F75E0594C93B7C5AE4E5971AFBBC8F0118FE964FBDBCF55795D31CDAC013DC070701B279487A915897C7BAFB68DEF1B12435AEBA4D8DBB8E9CF0B66287F5E67022DBF59117B350F018F5B0C8F50071F4452BF7AA49120B1EF4F88C2F9DEA831A906084324C28A6CD272D7765BD8328045E
310
C28B44FF278AD3F0A2286A134AB6C49D651E09CA8BB921F860E3F9FE0CA31E9375214BF3565EC93724484E18AB186B4032536101E059578BA70FD6C18257B733B04B6025E3BA12BC483782F27B40A8E99EE207504B0304140006080800836C3240472725F75301000033030000300000006662782F35334336414638442D43
310
3330362D344137362D414130452D3934324235374245303935432F636E782E786D6CBD93CB6EC23010457FC5F23E2F8222841C2375D12FE8A25BC71EC0C5B1233FAAF2F71D83A16C5854AABA194577EECC1D1D396CF7351BF2093E686747DAD52D2560A553DA1E469AE2BEDA50B2E3CC3B171F6C945831C348B34C393B7897
310
962229D88B6422AA46DB53113D0497BC8480729E24C649617001D82AA108F3044A812277237EEDC1E329284E67128F405E5FDE899B3E40C6C09ABC85B3266770966B497A3051228D0861A4411E6116B548D12908A75A8928EAAEBE653DB9E96713C903B7C8E435C9E123CD95F272518D1C59834DCE42F448AF98E27901CAC5
310
B2182D4544C8CDC578F57096B48DC3BA783582F7E8EE57C36683CB2E3DCEA29EA138A407114151BE6ABB55D57655B779EBFA6D3F6CDBA16AB1B6ACC976CE26E74C19C235E0DD42A4B3116CA4BC634D6E3FC3577C44698FAC9D3FFF02240228A9573AF71D7FC9A71BFAF5FA1FF93497F78DB83CFE05FC1B504B030414000608
310
0800836C32406BC7A3345A070000931B0000340000006662782F35334336414638442D433330362D344137362D414130452D3934324235374245303935432F6F626A656374732E786D6CED595B73A33816FE2B14FB6C6C7C49275B84A9B49DEE724D65A66BBC3DB50FA9A264908936E25242A493F9F5FB49080CC4247826F3
310
360F3620A4A373BE73D5C1FBE939E1D6131505CBD26BDB7566B645D3308B581A5FDBA53C4C2E6DEB27DF1359265BD36C2B2509BDB6D5B0ED7BB1C8CADC0C45F4404A2E7BA35F3EFFD72A429A52DB0A39298A6BBB081F68421C52CA2CA2C5A31311499CF8F0ECB84E35B14B3616247FE811CD89A0A904A7184F41C5AA9872BB
310
8F337BEA7B53F5DEF7D4BF99B518356B393C6BAAA5EE72C9D24292347CC5528FCC62144B0B77B9B99DAFAE26ABE57231595ECCDDC9E72F9F3713F7D362B6BE58AFAF6E6EAFC0DE3ECBB89129A2394D23E8EFC5F65D6FAADE34A21B044E711D66694A430D24A0D262F509325A60AB167CB3EEA3AB246ABDD612B69E97EABD61
310
A135BCE852199A350E880E5D0862B6AB25AEAF6DF9B2FDFF207831C628454125B82DA480760D3C025E61FB336F5A8DFADEFEA80B565809915430C22DCEF68208280553D514DFAB161832CA390448594A02ADB9EA75D7B6E099EFBBCE292E0F25E7CA336C5F3B5600F7A3B2D09CB13FA83872DF46063C41DA92A5F2D270295F
310
726AFB57DE540FFA9EBA2CE6E66505A475E0242E3422D5DB9EA06BE5FADB8DEDFFFC65FFBC53E1E0F4E6B9C8722AA4323AA547CD170CD95C154A665B7794E6D4020853816A561E41F90DC8FF82E87164057A13EC79F9BC3473A5206971C84402DD58336B32C3DFCC72F5BFBA6FDD79D36671577B4378C24D1554977F1DCFAE
310
0C1A2BC37F0B4EDF7B82C16762615EED42C261CF772C0540CA482C9E6108A1FDB07FB6FD2D0227023D5611EEBB1019EC3EE1D69B1A3247ADD4EE65BC2E05A2668FC5182501366D916063404F5F913D040B8F6A6A8B3804EFEA43CCF566B3FB79578A0309E99DF1E90D3DB0944964CDD30C7530EF48F4485F7E642282A0AFF1
310
DEB5F14ECC5605D056982BE0E31A04F570DCB9B341887571A6C28DF7CE0E1042E5EA16FD3B5684947392D2ACACF76DA29B32D4C6E34DCD60FBF30AE2C5BC67C2823E315555C0698E333A8C22EF8782E50A44DBFF5A49D6044D6740BAEFDB5F6091CDFC8159DB14A13725FC3F3A689DC0A163D935D2068846E0FD319C8719CF
310
44B07F09AA4867A396001B5D6FF9BD4314B1BE5292A2020FD27E578794B8923688D8E1501688AB2758FC7DBB6E9BC3CC59B82BABFDDF73C625A22D7C9708E377BD3D029690980607120D6DD7DEADA15D689203A4053D70C8C59E987C09880C66118DCF81E62CE2571F4A3DE65951B09416C85727C16FA3317310482A6DD62C
310
2BADF6806645905049F83908283203E0EAB4A36BDC10A5C3FB3C36D6FB96C6DA44FF268B1004B56496060CA52872C8BB8CBBCE0A31A48B6E85720F5F585B4D5B8BC14B9410E14BF083B2F8419E837A457E00F71047925206594E4298F508B2AF7C4529B5C7FB9E848F2A7F0461C93FCA400ACA0F01E3BC4C02FC588A93C718
310
D76E02D39B28B48857B14FD204451991A518B3C9C56AF66A9FAA66E887C0D64607C611B68384E403A87702A2AE47AC067C437D40A9FB32C9039264653ACA509C45DF9B0CF9BE5A15D991FCAA521165634DD810F43D96CA26ABD6311BA6AE032BDC4807AA97A02049CEAB53D83B89C76DBC49531EDC40183FFDD80D12147E03
310
DA6B47D4650D83E1B15318143F880C1F6C7FA7AF93CFA8BF231A1D537D5D6BB62B4020A62279299851D1F72DCA1B53A3D9FE1D91C5FDD72AEBD6D7EF5B07DD0F6F8A35A85D9A855B0574425349546572A76EF86F0421B843A31ADFAA9C7A0E959B28D25523E15FD8903A3B654467D38439F9034DB304BFF49EA5212F237A4F
310
A2E231B8933CD831C5BA91D249588DF19B02FEFA75D78307232344FAA60A3CFAA3B7D68CAE55B97492887C28937D4A18826047B4B8D28D93A7B1D148ADE5E6AACE14A8BB606046C5CB7F4E16ED76C43F278BD818C65F3B59F06C4FF831DAB4B279A8CCFAAC5340939E14958F3805E8AE4343B54922552E37E21B5F0A1013EB
310
203FBA18AB6346457088E33F9DB4879260B55D8FFFF392B6FBAAE0382BA97426AB26D589C275DB4E61179FD69F2EE6B79793E57C359B2C2FDDDBC9CDE6D69DA03DBB5A6DD09F9D2D6F1B34B59FFA5E13CB74EAC27315D3EA61F564304053B6C8388B70988FAC9822E44B1CE94774CF45420BE4CE76AF3B323DF911AB9FAA36
310
A7247B4E6B4E1E08FAC3BC405607466528BBE3D6BFD0999438675FDBE819398FF83356695B483CD7363A059285B470F6E832A97E9E268E8CAB53BF21067C481AAB8C582D6A9E9B550A9B4EF46FA68CC90246AE4E0B03755B8EE657A741A179333C8567095EB3631189DB7D2951AC55B21C071A61F43647F557B271963E9AAD
310
9FE1BA6F8BE53A7A4E0791515F0CDE34828AEA441211EB76B762CCB074B3F936459BCDDAFE6AE5BC8CA1CBF1942682C2984B554FC18A601586664E244C75FDEFFB6F22C3179EC4D245D1FD3A4B922C350F37388E45F84264ED1EF0BD27BA47D5405557BDB89FCFDCF9BDEE669B067BB027057554398481BA8A5022F48C0D16
310
F9AA3365FA9653A584DEF4EDC632E17305A2DA6A5F3577ABAF5B16BC477D4751BEA23DBC96F3CD86F6544F853508B4A2FDFF03504B0304140006080000836C3240000000000000000000000000350000006662782F35334336414638442D433330362D344137362D414130452D3934324235374245303935432F7665727469
310
6365732E62696E504B0304140006080800836C3240F270F1330600000004000000360000006662782F35334336414638442D433330362D344137362D414130452D3934324235374245303935432F747269616E676C65732E62696E636660600000504B0304140006080000836C324000000000000000000000000037000000
310
6662782F35334336414638442D433330362D344137362D414130452D3934324235374245303935432F617474726962757465732E62696E504B0304140006080800836C3240D5987DFC8F00000041010000360000006662782F35334336414638442D433330362D344137362D414130452D3934324235374245303935432F64
310
69726563746F72792E786D6C858F410EC2201045AF4266AF15DDB800BA74E7C21B903225242D6328188F2FA5C4183471359997F9FF81E89FF3C41E1816475E02DF1F80A11FC8386F25A438EECEC07A250251FC3803E6F58C12560C4AD840E95E91C151A72936F496F35732D860FE635F62C8F2DA16B505C545B74125BAA2FA
310
9E05D7CC053D063734D5C7665FD55B6B8D15D5E9BFEAFD8490FFA45E504B0304140006080800836C32407A3D8133FA000000A00100003B0000006662782F35334336414638442D433330362D344137362D414130452D3934324235374245303935432F7265736F75726365732F636F72652E786D6C8D50596E833010BD0A9A
310
7F83CD6225917194A6F404BD806526D44AB09197AAC7AF09546AFFFA33337A8BE6E989F3D7FC283ED107E36C0FACA450A0D56E3476EA21C51B39407196C23B177FC9A0B06AC61E5618A498BC4BCB0E696723DA9851EB46DC4115024628F4231F3D04FD81B32A558A5911EEE5A2F45D4D58B232D3592745883E0728B627EB04
310
E931B8E43506516DAC14299971D79831FF3437831E64CB29BD768C93B7D7E385B48C75E4781D38E95E0E9CF1E132D0968A6A354B11CDFC93517B54114790356535A18CB0C33B6B4E0D3F514E689ED9B4CAFF98D232FED3948C8D4DBDC7DD6C0124CB419E8414D5DA575ECF32F35EBB95DF504B010214000A0000080000836C
310
32403DEE336E79000000790000001B00000000000000000000000000000000006175746F6465736B2D64657369676E2D7061636B6167652E786D6C504B01021400140006080800836C3240D486FD9CA0000000F40000001300000000000000000000000000B20000005B436F6E74656E745F54797065735D2E786D6C504B01
310
021400140006080800836C32406996AFABE90000007C010000080000000000000000000000000083010000636F72652E786D6C504B01021400140006080800836C324055019EA25F0000007C000000070000000000000000000000000092020000636E782E786D6C504B01021400140006080800836C32400D71A7B9650100
310
00020300000C00000000000000000000000000160300006662782F636F72652E786D6C504B01021400140006080800836C3240D5D2273D7E0000009D0000000B00000000000000000000000000A50400006662782F636E782E786D6C504B01021400140006080800836C32403C961A0A2B0100001402000031000000000000
310
000000000000004C0500006662782F35334336414638442D433330362D344137362D414130452D3934324235374245303935432F636F72652E786D6C504B01021400140006080800836C3240472725F753010000330300003000000000000000000000000000C60600006662782F35334336414638442D433330362D344137
310
362D414130452D3934324235374245303935432F636E782E786D6C504B01021400140006080800836C32406BC7A3345A070000931B00003400000000000000000000000000670800006662782F35334336414638442D433330362D344137362D414130452D3934324235374245303935432F6F626A656374732E786D6C504B
310
01021400140006080000836C32400000000000000000000000003500000000000000000000000000131000006662782F35334336414638442D433330362D344137362D414130452D3934324235374245303935432F76657274696365732E62696E504B01021400140006080800836C3240F270F13306000000040000003600
310
000000000000000000000000661000006662782F35334336414638442D433330362D344137362D414130452D3934324235374245303935432F747269616E676C65732E62696E504B01021400140006080000836C32400000000000000000000000003700000000000000000000000000C01000006662782F35334336414638
310
442D433330362D344137362D414130452D3934324235374245303935432F617474726962757465732E62696E504B01021400140006080800836C3240D5987DFC8F000000410100003600000000000000000000000000151100006662782F35334336414638442D433330362D344137362D414130452D393432423537424530
310
3935432F6469726563746F72792E786D6C504B01021400140006080800836C32407A3D8133FA000000A00100003B00000000000000000000000000F81100006662782F35334336414638442D433330362D344137362D414130452D3934324235374245303935432F7265736F75726365732F636F72652E786D6C504B050600
310
0000000E000E00800400004B1300000000
  0
XRECORD
  5
27
102
{ACAD_REACTORS
330
22
102
}
330
22
100
AcDbXrecord
280
     1
270
     1
271
     1
  0
XRECORD
  5
26
102
{ACAD_REACTORS
330
22
102
}
330
22
100
AcDbXrecord
280
     1
270
     1
271
     1
  0
XRECORD
  5
28
102
{ACAD_REACTORS
330
22
102
}
330
22
100
AcDbXrecord
280
     1
270
     1
271
     1
  0
XRECORD
  5
25
102
{ACAD_REACTORS
330
22
102
}
330
22
100
AcDbXrecord
280
     1
270
     1
271
     1
  0
XRECORD
  5
CAF
102
{ACAD_REACTORS
330
CAE
102
}
330
CAE
100
AcDbXrecord
280
     1
102
ACAD_ROUNDTRIP_2012_MLEADER_STYLE
298
     1
  0
CELLSTYLEMAP
  5
CAD
102
{ACAD_REACTORS
330
CAC
102
}
330
CAC
100
AcDbCellStyleMap
 90
        3
300
CELLSTYLE
  1
TABLEFORMAT_BEGIN
 90
        5
170
     1
 91
        0
 92
    32768
 62
   257
 93
        1
300
CONTENTFORMAT
  1
CONTENTFORMAT_BEGIN
 90
        0
 91
        0
 92
      512
 93
        0
300

 40
0.0
140
1.0
 94
        5
 62
     0
340
55
144
0.25
309
CONTENTFORMAT_END
171
     0
 94
        0
309
TABLEFORMAT_END
  1
CELLSTYLE_BEGIN
 90
        1
 91
        1
300
_TITLE
309
CELLSTYLE_END
300
CELLSTYLE
  1
TABLEFORMAT_BEGIN
 90
        5
170
     1
 91
        0
 92
        0
 62
   257
 93
        1
300
CONTENTFORMAT
  1
CONTENTFORMAT_BEGIN
 90
        0
 91
        0
 92
      512
 93
        0
300

 40
0.0
140
1.0
 94
        5
 62
     0
340
55
144
0.18
309
CONTENTFORMAT_END
171
     0
 94
        0
309
TABLEFORMAT_END
  1
CELLSTYLE_BEGIN
 90
        2
 91
        1
300
_HEADER
309
CELLSTYLE_END
300
CELLSTYLE
  1
TABLEFORMAT_BEGIN
 90
        5
170
     1
 91
        0
 92
        0
 62
   257
 93
        1
300
CONTENTFORMAT
  1
CONTENTFORMAT_BEGIN
 90
        0
 91
        0
 92
      512
 93
        0
300

 40
0.0
140
1.0
 94
        2
 62
     0
340
55
144
0.18
309
CONTENTFORMAT_END
171
     0
 94
        0
309
TABLEFORMAT_END
  1
CELLSTYLE_BEGIN
 90
        3
 91
        2
300
_DATA
309
CELLSTYLE_END
  0
XRECORD
  5
CE7
102
{ACAD_REACTORS
330
CAC
102
}
330
CAC
100
AcDbXrecord
280
     1
102
ACAD_ROUNDTRIP_PRE2007_TABLESTYLE
 90
      512
 91
        0
  1

 92
      512
 93
        0
  2

 94
      512
 95
        0
  3

  0
XRECORD
  5
CC2
102
{ACAD_REACTORS
330
CC1
102
}
330
CC1
100
AcDbXrecord
280
     1
102
RTVSPropertyOp0
 70
     1
102
RTVSPropertyOp1
 70
     1
102
RTVSPropertyOp2
 70
     1
102
RTVSPropertyOp3
 70
     1
102
RTVSPropertyOp4
 70
     1
102
RTVSPropertyOp5
 70
     1
102
RTVSPropertyOp6
 70
     1
102
RTVSPropertyOp7
 70
     1
102
RTVSPropertyOp8
 70
     1
102
RTVSPropertyOp9
 70
     1
102
RTVSPropertyOp10
 70
     1
102
RTVSPropertyOp11
 70
     1
102
RTVSPropertyOp12
 70
     1
102
RTVSPropertyOp13
 70
     1
102
RTVSPropertyOp14
 70
     1
102
RTVSPropertyOp15
 70
     1
102
RTVSPropertyOp16
 70
     1
102
RTVSPropertyOp17
 70
     1
102
RTVSPropertyOp18
 70
     1
102
RTVSPropertyOp19
 70
     1
102
RTVSPropertyOp20
 70
     1
102
RTVSPropertyOp21
 70
     1
102
RTVSPropertyOp22
 70
     1
102
RTVSPropertyOp23
 70
     1
102
RTVSPropertyOp24
 70
     1
102
RTVSPropertyOp25
 70
     1
102
RTVSPropertyOp26
 70
     1
102
RTVSPropertyOp27
 70
     1
102
RTVSPropertyOp28
 70
     1
102
RTVSPropertyOp29
 70
     1
102
RTVSPropertyOp30
 70
     1
102
RTVSPropertyOp31
 70
     1
102
RTVSPropertyOp32
 70
     1
  0
XRECORD
  5
CC0
102
{ACAD_REACTORS
330
CBF
102
}
330
CBF
100
AcDbXrecord
280
     1
102
RTVSPropertyOp0
 70
     1
102
RTVSPropertyOp1
 70
     1
102
RTVSPropertyOp2
 70
     1
102
RTVSPropertyOp3
 70
     1
102
RTVSPropertyOp4
 70
     1
102
RTVSPropertyOp5
 70
     1
102
RTVSPropertyOp6
 70
     1
102
RTVSPropertyOp7
 70
     1
102
RTVSPropertyOp8
 70
     1
102
RTVSPropertyOp9
 70
     1
102
RTVSPropertyOp10
 70
     1
102
RTVSPropertyOp11
 70
     1
102
RTVSPropertyOp12
 70
     1
102
RTVSPropertyOp13
 70
     1
102
RTVSPropertyOp14
 70
     1
102
RTVSPropertyOp15
 70
     1
102
RTVSPropertyOp16
 70
     1
102
RTVSPropertyOp17
 70
     1
102
RTVSPropertyOp18
 70
     1
102
RTVSPropertyOp19
 70
     1
102
RTVSPropertyOp20
 70
     1
102
RTVSPropertyOp21
 70
     1
102
RTVSPropertyOp22
 70
     1
102
RTVSPropertyOp23
 70
     1
102
RTVSPropertyOp24
 70
     1
102
RTVSPropertyOp25
 70
     1
102
RTVSPropertyOp26
 70
     1
102
RTVSPropertyOp27
 70
     1
102
RTVSPropertyOp28
 70
     1
102
RTVSPropertyOp29
 70
     1
102
RTVSPropertyOp30
 70
     1
102
RTVSPropertyOp31
 70
     1
102
RTVSPropertyOp32
 70
     1
  0
XRECORD
  5
CCE
102
{ACAD_REACTORS
330
CCD
102
}
330
CCD
100
AcDbXrecord
280
     1
102
RTVSPropertyOp0
 70
     1
102
RTVSPropertyOp1
 70
     1
102
RTVSPropertyOp2
 70
     1
102
RTVSPropertyOp3
 70
     1
102
RTVSPropertyOp4
 70
     1
102
RTVSPropertyOp5
 70
     1
102
RTVSPropertyOp6
 70
     1
102
RTVSPropertyOp7
 70
     1
102
RTVSPropertyOp8
 70
     1
102
RTVSPropertyOp9
 70
     1
102
RTVSPropertyOp10
 70
     1
102
RTVSPropertyOp11
 70
     1
102
RTVSPropertyOp12
 70
     1
102
RTVSPropertyOp13
 70
     1
102
RTVSPropertyOp14
 70
     1
102
RTVSPropertyOp15
 70
     1
102
RTVSPropertyOp16
 70
     1
102
RTVSPropertyOp17
 70
     1
102
RTVSPropertyOp18
 70
     1
102
RTVSPropertyOp19
 70
     1
102
RTVSPropertyOp20
 70
     1
102
RTVSPropertyOp21
 70
     1
102
RTVSPropertyOp22
 70
     1
102
RTVSPropertyOp23
 70
     1
102
RTVSPropertyOp24
 70
     1
102
RTVSPropertyOp25
 70
     1
102
RTVSPropertyOp26
 70
     1
102
RTVSPropertyOp27
 70
     1
102
RTVSPropertyOp28
 70
     1
102
RTVSPropertyOp29
 70
     1
102
RTVSPropertyOp30
 70
     1
102
RTVSPropertyOp31
 70
     1
102
RTVSPropertyOp32
 70
     1
  0
XRECORD
  5
CD6
102
{ACAD_REACTORS
330
CD5
102
}
330
CD5
100
AcDbXrecord
280
     1
102
RTVSPropertyOp0
 70
     1
102
RTVSPropertyOp1
 70
     1
102
RTVSPropertyOp2
 70
     1
102
RTVSPropertyOp3
 70
     1
102
RTVSPropertyOp4
 70
     1
102
RTVSPropertyOp5
 70
     1
102
RTVSPropertyOp6
 70
     1
102
RTVSPropertyOp7
 70
     1
102
RTVSPropertyOp8
 70
     1
102
RTVSPropertyOp9
 70
     1
102
RTVSPropertyOp10
 70
     1
102
RTVSPropertyOp11
 70
     1
102
RTVSPropertyOp12
 70
     1
102
RTVSPropertyOp13
 70
     1
102
RTVSPropertyOp14
 70
     1
102
RTVSPropertyOp15
 70
     1
102
RTVSPropertyOp16
 70
     1
102
RTVSPropertyOp17
 70
     1
102
RTVSPropertyOp18
 70
     1
102
RTVSPropertyOp19
 70
     1
102
RTVSPropertyOp20
 70
     1
102
RTVSPropertyOp21
 70
     1
102
RTVSPropertyOp22
 70
     1
102
RTVSPropertyOp23
 70
     1
102
RTVSPropertyOp24
 70
     1
102
RTVSPropertyOp25
 70
     1
102
RTVSPropertyOp26
 70
     1
102
RTVSPropertyOp27
 70
     1
102
RTVSPropertyOp28
 70
     1
102
RTVSPropertyOp29
 70
     1
102
RTVSPropertyOp30
 70
     1
102
RTVSPropertyOp31
 70
     1
102
RTVSPropertyOp32
 70
     1
  0
XRECORD
  5
CC8
102
{ACAD_REACTORS
330
CC7
102
}
330
CC7
100
AcDbXrecord
280
     1
102
RTVSPropertyOp0
 70
     1
102
RTVSPropertyOp1
 70
     1
102
RTVSPropertyOp2
 70
     1
102
RTVSPropertyOp3
 70
     1
102
RTVSPropertyOp4
 70
     1
102
RTVSPropertyOp5
 70
     1
102
RTVSPropertyOp6
 70
     1
102
RTVSPropertyOp7
 70
     1
102
RTVSPropertyOp8
 70
     1
102
RTVSPropertyOp9
 70
     1
102
RTVSPropertyOp10
 70
     1
102
RTVSPropertyOp11
 70
     1
102
RTVSPropertyOp12
 70
     1
102
RTVSPropertyOp13
 70
     1
102
RTVSPropertyOp14
 70
     1
102
RTVSPropertyOp15
 70
     1
102
RTVSPropertyOp16
 70
     1
102
RTVSPropertyOp17
 70
     1
102
RTVSPropertyOp18
 70
     1
102
RTVSPropertyOp19
 70
     1
102
RTVSPropertyOp20
 70
     1
102
RTVSPropertyOp21
 70
     1
102
RTVSPropertyOp22
 70
     1
102
RTVSPropertyOp23
 70
     1
102
RTVSPropertyOp24
 70
     1
102
RTVSPropertyOp25
 70
     1
102
RTVSPropertyOp26
 70
     1
102
RTVSPropertyOp27
 70
     1
102
RTVSPropertyOp28
 70
     1
102
RTVSPropertyOp29
 70
     1
102
RTVSPropertyOp30
 70
     1
102
RTVSPropertyOp31
 70
     1
102
RTVSPropertyOp32
 70
     1
  0
XRECORD
  5
CCC
102
{ACAD_REACTORS
330
CCB
102
}
330
CCB
100
AcDbXrecord
280
     1
102
RTVSPropertyOp0
 70
     1
102
RTVSPropertyOp1
 70
     1
102
RTVSPropertyOp2
 70
     1
102
RTVSPropertyOp3
 70
     1
102
RTVSPropertyOp4
 70
     1
102
RTVSPropertyOp5
 70
     1
102
RTVSPropertyOp6
 70
     1
102
RTVSPropertyOp7
 70
     1
102
RTVSPropertyOp8
 70
     1
102
RTVSPropertyOp9
 70
     1
102
RTVSPropertyOp10
 70
     1
102
RTVSPropertyOp11
 70
     1
102
RTVSPropertyOp12
 70
     1
102
RTVSPropertyOp13
 70
     1
102
RTVSPropertyOp14
 70
     1
102
RTVSPropertyOp15
 70
     1
102
RTVSPropertyOp16
 70
     1
102
RTVSPropertyOp17
 70
     1
102
RTVSPropertyOp18
 70
     1
102
RTVSPropertyOp19
 70
     1
102
RTVSPropertyOp20
 70
     1
102
RTVSPropertyOp21
 70
     1
102
RTVSPropertyOp22
 70
     1
102
RTVSPropertyOp23
 70
     1
102
RTVSPropertyOp24
 70
     1
102
RTVSPropertyOp25
 70
     1
102
RTVSPropertyOp26
 70
     1
102
RTVSPropertyOp27
 70
     1
102
RTVSPropertyOp28
 70
     1
102
RTVSPropertyOp29
 70
     1
102
RTVSPropertyOp30
 70
     1
102
RTVSPropertyOp31
 70
     1
102
RTVSPropertyOp32
 70
     1
  0
XRECORD
  5
CE6
102
{ACAD_REACTORS
330
CE5
102
}
330
CE5
100
AcDbXrecord
280
     1
102
RTVSPropertyOp0
 70
     0
102
RTVSPropertyOp1
 70
     0
102
RTVSPropertyOp2
 70
     0
102
RTVSPropertyOp3
 70
     0
102
RTVSPropertyOp4
 70
     0
102
RTVSPropertyOp5
 70
     0
102
RTVSPropertyOp6
 70
     0
102
RTVSPropertyOp7
 70
     0
102
RTVSPropertyOp8
 70
     0
102
RTVSPropertyOp9
 70
     0
102
RTVSPropertyOp10
 70
     0
102
RTVSPropertyOp11
 70
     0
102
RTVSPropertyOp12
 70
     0
102
RTVSPropertyOp13
 70
     0
102
RTVSPropertyOp14
 70
     2
102
RTVSPropertyOp15
 70
     0
102
RTVSPropertyOp16
 70
     0
102
RTVSPropertyOp17
 70
     0
102
RTVSPropertyOp18
 70
     0
102
RTVSPropertyOp19
 70
     0
102
RTVSPropertyOp20
 70
     0
102
RTVSPropertyOp21
 70
     0
102
RTVSPropertyOp22
 70
     0
102
RTVSPropertyOp23
 70
     0
102
RTVSPropertyOp24
 70
     0
102
RTVSPropertyOp25
 70
     0
102
RTVSPropertyOp26
 70
     0
102
RTVSPropertyOp27
 70
     0
102
RTVSPropertyOp28
 70
     1
102
RTVSPropertyOp29
 70
     1
102
RTVSPropertyOp30
 70
     1
102
RTVSPropertyOp31
 70
     1
102
RTVSPropertyOp32
 70
     1
  0
XRECORD
  5
CD4
102
{ACAD_REACTORS
330
CD3
102
}
330
CD3
100
AcDbXrecord
280
     1
102
RTVSPropertyOp0
 70
     1
102
RTVSPropertyOp1
 70
     1
102
RTVSPropertyOp2
 70
     1
102
RTVSPropertyOp3
 70
     1
102
RTVSPropertyOp4
 70
     1
102
RTVSPropertyOp5
 70
     1
102
RTVSPropertyOp6
 70
     1
102
RTVSPropertyOp7
 70
     1
102
RTVSPropertyOp8
 70
     1
102
RTVSPropertyOp9
 70
     1
102
RTVSPropertyOp10
 70
     1
102
RTVSPropertyOp11
 70
     1
102
RTVSPropertyOp12
 70
     1
102
RTVSPropertyOp13
 70
     1
102
RTVSPropertyOp14
 70
     1
102
RTVSPropertyOp15
 70
     1
102
RTVSPropertyOp16
 70
     1
102
RTVSPropertyOp17
 70
     1
102
RTVSPropertyOp18
 70
     1
102
RTVSPropertyOp19
 70
     1
102
RTVSPropertyOp20
 70
     1
102
RTVSPropertyOp21
 70
     1
102
RTVSPropertyOp22
 70
     1
102
RTVSPropertyOp23
 70
     1
102
RTVSPropertyOp24
 70
     1
102
RTVSPropertyOp25
 70
     1
102
RTVSPropertyOp26
 70
     1
102
RTVSPropertyOp27
 70
     1
102
RTVSPropertyOp28
 70
     1
102
RTVSPropertyOp29
 70
     1
102
RTVSPropertyOp30
 70
     1
102
RTVSPropertyOp31
 70
     1
102
RTVSPropertyOp32
 70
     1
  0
XRECORD
  5
CB8
102
{ACAD_REACTORS
330
CB7
102
}
330
CB7
100
AcDbXrecord
280
     1
102
RTVSPropertyOp0
 70
     1
102
RTVSPropertyOp1
 70
     1
102
RTVSPropertyOp2
 70
     1
102
RTVSPropertyOp3
 70
     1
102
RTVSPropertyOp4
 70
     1
102
RTVSPropertyOp5
 70
     1
102
RTVSPropertyOp6
 70
     1
102
RTVSPropertyOp7
 70
     1
102
RTVSPropertyOp8
 70
     1
102
RTVSPropertyOp9
 70
     1
102
RTVSPropertyOp10
 70
     1
102
RTVSPropertyOp11
 70
     1
102
RTVSPropertyOp12
 70
     1
102
RTVSPropertyOp13
 70
     1
102
RTVSPropertyOp14
 70
     1
102
RTVSPropertyOp15
 70
     1
102
RTVSPropertyOp16
 70
     1
102
RTVSPropertyOp17
 70
     1
102
RTVSPropertyOp18
 70
     1
102
RTVSPropertyOp19
 70
     1
102
RTVSPropertyOp20
 70
     1
102
RTVSPropertyOp21
 70
     1
102
RTVSPropertyOp22
 70
     1
102
RTVSPropertyOp23
 70
     1
102
RTVSPropertyOp24
 70
     1
102
RTVSPropertyOp25
 70
     1
102
RTVSPropertyOp26
 70
     1
102
RTVSPropertyOp27
 70
     1
102
RTVSPropertyOp28
 70
     1
102
RTVSPropertyOp29
 70
     1
102
RTVSPropertyOp30
 70
     1
102
RTVSPropertyOp31
 70
     1
102
RTVSPropertyOp32
 70
     1
  0
XRECORD
  5
CBA
102
{ACAD_REACTORS
330
CB9
102
}
330
CB9
100
AcDbXrecord
280
     1
102
RTVSPropertyOp0
 70
     1
102
RTVSPropertyOp1
 70
     1
102
RTVSPropertyOp2
 70
     1
102
RTVSPropertyOp3
 70
     1
102
RTVSPropertyOp4
 70
     1
102
RTVSPropertyOp5
 70
     1
102
RTVSPropertyOp6
 70
     1
102
RTVSPropertyOp7
 70
     1
102
RTVSPropertyOp8
 70
     1
102
RTVSPropertyOp9
 70
     1
102
RTVSPropertyOp10
 70
     1
102
RTVSPropertyOp11
 70
     1
102
RTVSPropertyOp12
 70
     1
102
RTVSPropertyOp13
 70
     1
102
RTVSPropertyOp14
 70
     1
102
RTVSPropertyOp15
 70
     1
102
RTVSPropertyOp16
 70
     1
102
RTVSPropertyOp17
 70
     1
102
RTVSPropertyOp18
 70
     1
102
RTVSPropertyOp19
 70
     1
102
RTVSPropertyOp20
 70
     1
102
RTVSPropertyOp21
 70
     1
102
RTVSPropertyOp22
 70
     1
102
RTVSPropertyOp23
 70
     1
102
RTVSPropertyOp24
 70
     1
102
RTVSPropertyOp25
 70
     1
102
RTVSPropertyOp26
 70
     1
102
RTVSPropertyOp27
 70
     1
102
RTVSPropertyOp28
 70
     1
102
RTVSPropertyOp29
 70
     1
102
RTVSPropertyOp30
 70
     1
102
RTVSPropertyOp31
 70
     1
102
RTVSPropertyOp32
 70
     1
  0
XRECORD
  5
CBC
102
{ACAD_REACTORS
330
CBB
102
}
330
CBB
100
AcDbXrecord
280
     1
102
RTVSPropertyOp0
 70
     1
102
RTVSPropertyOp1
 70
     1
102
RTVSPropertyOp2
 70
     1
102
RTVSPropertyOp3
 70
     1
102
RTVSPropertyOp4
 70
     1
102
RTVSPropertyOp5
 70
     1
102
RTVSPropertyOp6
 70
     1
102
RTVSPropertyOp7
 70
     1
102
RTVSPropertyOp8
 70
     1
102
RTVSPropertyOp9
 70
     1
102
RTVSPropertyOp10
 70
     1
102
RTVSPropertyOp11
 70
     1
102
RTVSPropertyOp12
 70
     1
102
RTVSPropertyOp13
 70
     1
102
RTVSPropertyOp14
 70
     1
102
RTVSPropertyOp15
 70
     1
102
RTVSPropertyOp16
 70
     1
102
RTVSPropertyOp17
 70
     1
102
RTVSPropertyOp18
 70
     1
102
RTVSPropertyOp19
 70
     1
102
RTVSPropertyOp20
 70
     1
102
RTVSPropertyOp21
 70
     1
102
RTVSPropertyOp22
 70
     1
102
RTVSPropertyOp23
 70
     1
102
RTVSPropertyOp24
 70
     1
102
RTVSPropertyOp25
 70
     1
102
RTVSPropertyOp26
 70
     1
102
RTVSPropertyOp27
 70
     1
102
RTVSPropertyOp28
 70
     1
102
RTVSPropertyOp29
 70
     1
102
RTVSPropertyOp30
 70
     1
102
RTVSPropertyOp31
 70
     1
102
RTVSPropertyOp32
 70
     1
  0
XRECORD
  5
CBE
102
{ACAD_REACTORS
330
CBD
102
}
330
CBD
100
AcDbXrecord
280
     1
102
RTVSPropertyOp0
 70
     1
102
RTVSPropertyOp1
 70
     1
102
RTVSPropertyOp2
 70
     1
102
RTVSPropertyOp3
 70
     1
102
RTVSPropertyOp4
 70
     1
102
RTVSPropertyOp5
 70
     1
102
RTVSPropertyOp6
 70
     1
102
RTVSPropertyOp7
 70
     1
102
RTVSPropertyOp8
 70
     1
102
RTVSPropertyOp9
 70
     1
102
RTVSPropertyOp10
 70
     1
102
RTVSPropertyOp11
 70
     1
102
RTVSPropertyOp12
 70
     1
102
RTVSPropertyOp13
 70
     1
102
RTVSPropertyOp14
 70
     1
102
RTVSPropertyOp15
 70
     1
102
RTVSPropertyOp16
 70
     1
102
RTVSPropertyOp17
 70
     1
102
RTVSPropertyOp18
 70
     1
102
RTVSPropertyOp19
 70
     1
102
RTVSPropertyOp20
 70
     1
102
RTVSPropertyOp21
 70
     1
102
RTVSPropertyOp22
 70
     1
102
RTVSPropertyOp23
 70
     1
102
RTVSPropertyOp24
 70
     1
102
RTVSPropertyOp25
 70
     1
102
RTVSPropertyOp26
 70
     1
102
RTVSPropertyOp27
 70
     1
102
RTVSPropertyOp28
 70
     1
102
RTVSPropertyOp29
 70
     1
102
RTVSPropertyOp30
 70
     1
102
RTVSPropertyOp31
 70
     1
102
RTVSPropertyOp32
 70
     1
  0
XRECORD
  5
CC6
102
{ACAD_REACTORS
330
CC5
102
}
330
CC5
100
AcDbXrecord
280
     1
102
RTVSPropertyOp0
 70
     1
102
RTVSPropertyOp1
 70
     1
102
RTVSPropertyOp2
 70
     1
102
RTVSPropertyOp3
 70
     1
102
RTVSPropertyOp4
 70
     1
102
RTVSPropertyOp5
 70
     1
102
RTVSPropertyOp6
 70
     1
102
RTVSPropertyOp7
 70
     1
102
RTVSPropertyOp8
 70
     1
102
RTVSPropertyOp9
 70
     1
102
RTVSPropertyOp10
 70
     1
102
RTVSPropertyOp11
 70
     1
102
RTVSPropertyOp12
 70
     1
102
RTVSPropertyOp13
 70
     1
102
RTVSPropertyOp14
 70
     1
102
RTVSPropertyOp15
 70
     1
102
RTVSPropertyOp16
 70
     1
102
RTVSPropertyOp17
 70
     1
102
RTVSPropertyOp18
 70
     1
102
RTVSPropertyOp19
 70
     1
102
RTVSPropertyOp20
 70
     1
102
RTVSPropertyOp21
 70
     1
102
RTVSPropertyOp22
 70
     1
102
RTVSPropertyOp23
 70
     1
102
RTVSPropertyOp24
 70
     1
102
RTVSPropertyOp25
 70
     1
102
RTVSPropertyOp26
 70
     1
102
RTVSPropertyOp27
 70
     1
102
RTVSPropertyOp28
 70
     1
102
RTVSPropertyOp29
 70
     1
102
RTVSPropertyOp30
 70
     1
102
RTVSPropertyOp31
 70
     1
102
RTVSPropertyOp32
 70
     1
  0
XRECORD
  5
CE2
102
{ACAD_REACTORS
330
CE1
102
}
330
CE1
100
AcDbXrecord
280
     1
102
RTVSPropertyOp0
 70
     0
102
RTVSPropertyOp1
 70
     0
102
RTVSPropertyOp2
 70
     0
102
RTVSPropertyOp3
 70
     0
102
RTVSPropertyOp4
 70
     0
102
RTVSPropertyOp5
 70
     0
102
RTVSPropertyOp6
 70
     0
102
RTVSPropertyOp7
 70
     0
102
RTVSPropertyOp8
 70
     0
102
RTVSPropertyOp9
 70
     0
102
RTVSPropertyOp10
 70
     0
102
RTVSPropertyOp11
 70
     0
102
RTVSPropertyOp12
 70
     0
102
RTVSPropertyOp13
 70
     0
102
RTVSPropertyOp14
 70
     2
102
RTVSPropertyOp15
 70
     0
102
RTVSPropertyOp16
 70
     0
102
RTVSPropertyOp17
 70
     0
102
RTVSPropertyOp18
 70
     0
102
RTVSPropertyOp19
 70
     0
102
RTVSPropertyOp20
 70
     0
102
RTVSPropertyOp21
 70
     0
102
RTVSPropertyOp22
 70
     0
102
RTVSPropertyOp23
 70
     0
102
RTVSPropertyOp24
 70
     0
102
RTVSPropertyOp25
 70
     0
102
RTVSPropertyOp26
 70
     0
102
RTVSPropertyOp27
 70
     0
102
RTVSPropertyOp28
 70
     1
102
RTVSPropertyOp29
 70
     1
102
RTVSPropertyOp30
 70
     1
102
RTVSPropertyOp31
 70
     1
102
RTVSPropertyOp32
 70
     1
  0
XRECORD
  5
CD2
102
{ACAD_REACTORS
330
CD1
102
}
330
CD1
100
AcDbXrecord
280
     1
102
RTVSPropertyOp0
 70
     1
102
RTVSPropertyOp1
 70
     1
102
RTVSPropertyOp2
 70
     1
102
RTVSPropertyOp3
 70
     1
102
RTVSPropertyOp4
 70
     1
102
RTVSPropertyOp5
 70
     1
102
RTVSPropertyOp6
 70
     1
102
RTVSPropertyOp7
 70
     1
102
RTVSPropertyOp8
 70
     1
102
RTVSPropertyOp9
 70
     1
102
RTVSPropertyOp10
 70
     1
102
RTVSPropertyOp11
 70
     1
102
RTVSPropertyOp12
 70
     1
102
RTVSPropertyOp13
 70
     1
102
RTVSPropertyOp14
 70
     1
102
RTVSPropertyOp15
 70
     1
102
RTVSPropertyOp16
 70
     1
102
RTVSPropertyOp17
 70
     1
102
RTVSPropertyOp18
 70
     1
102
RTVSPropertyOp19
 70
     1
102
RTVSPropertyOp20
 70
     1
102
RTVSPropertyOp21
 70
     1
102
RTVSPropertyOp22
 70
     1
102
RTVSPropertyOp23
 70
     1
102
RTVSPropertyOp24
 70
     1
102
RTVSPropertyOp25
 70
     1
102
RTVSPropertyOp26
 70
     1
102
RTVSPropertyOp27
 70
     1
102
RTVSPropertyOp28
 70
     1
102
RTVSPropertyOp29
 70
     1
102
RTVSPropertyOp30
 70
     1
102
RTVSPropertyOp31
 70
     1
102
RTVSPropertyOp32
 70
     1
  0
XRECORD
  5
CE4
102
{ACAD_REACTORS
330
CE3
102
}
330
CE3
100
AcDbXrecord
280
     1
102
RTVSPropertyOp0
 70
     0
102
RTVSPropertyOp1
 70
     0
102
RTVSPropertyOp2
 70
     0
102
RTVSPropertyOp3
 70
     0
102
RTVSPropertyOp4
 70
     0
102
RTVSPropertyOp5
 70
     0
102
RTVSPropertyOp6
 70
     0
102
RTVSPropertyOp7
 70
     0
102
RTVSPropertyOp8
 70
     0
102
RTVSPropertyOp9
 70
     0
102
RTVSPropertyOp10
 70
     0
102
RTVSPropertyOp11
 70
     0
102
RTVSPropertyOp12
 70
     0
102
RTVSPropertyOp13
 70
     0
102
RTVSPropertyOp14
 70
     2
102
RTVSPropertyOp15
 70
     0
102
RTVSPropertyOp16
 70
     0
102
RTVSPropertyOp17
 70
     0
102
RTVSPropertyOp18
 70
     0
102
RTVSPropertyOp19
 70
     0
102
RTVSPropertyOp20
 70
     0
102
RTVSPropertyOp21
 70
     0
102
RTVSPropertyOp22
 70
     0
102
RTVSPropertyOp23
 70
     0
102
RTVSPropertyOp24
 70
     0
102
RTVSPropertyOp25
 70
     0
102
RTVSPropertyOp26
 70
     0
102
RTVSPropertyOp27
 70
     0
102
RTVSPropertyOp28
 70
     1
102
RTVSPropertyOp29
 70
     1
102
RTVSPropertyOp30
 70
     1
102
RTVSPropertyOp31
 70
     1
102
RTVSPropertyOp32
 70
     1
  0
XRECORD
  5
CCA
102
{ACAD_REACTORS
330
CC9
102
}
330
CC9
100
AcDbXrecord
280
     1
102
RTVSPropertyOp0
 70
     1
102
RTVSPropertyOp1
 70
     1
102
RTVSPropertyOp2
 70
     1
102
RTVSPropertyOp3
 70
     1
102
RTVSPropertyOp4
 70
     1
102
RTVSPropertyOp5
 70
     1
102
RTVSPropertyOp6
 70
     1
102
RTVSPropertyOp7
 70
     1
102
RTVSPropertyOp8
 70
     1
102
RTVSPropertyOp9
 70
     1
102
RTVSPropertyOp10
 70
     1
102
RTVSPropertyOp11
 70
     1
102
RTVSPropertyOp12
 70
     1
102
RTVSPropertyOp13
 70
     1
102
RTVSPropertyOp14
 70
     1
102
RTVSPropertyOp15
 70
     1
102
RTVSPropertyOp16
 70
     1
102
RTVSPropertyOp17
 70
     1
102
RTVSPropertyOp18
 70
     1
102
RTVSPropertyOp19
 70
     1
102
RTVSPropertyOp20
 70
     1
102
RTVSPropertyOp21
 70
     1
102
RTVSPropertyOp22
 70
     1
102
RTVSPropertyOp23
 70
     1
102
RTVSPropertyOp24
 70
     1
102
RTVSPropertyOp25
 70
     1
102
RTVSPropertyOp26
 70
     1
102
RTVSPropertyOp27
 70
     1
102
RTVSPropertyOp28
 70
     1
102
RTVSPropertyOp29
 70
     1
102
RTVSPropertyOp30
 70
     1
102
RTVSPropertyOp31
 70
     1
102
RTVSPropertyOp32
 70
     1
  0
XRECORD
  5
CE0
102
{ACAD_REACTORS
330
CDF
102
}
330
CDF
100
AcDbXrecord
280
     1
102
RTVSPropertyOp0
 70
     1
102
RTVSPropertyOp1
 70
     1
102
RTVSPropertyOp2
 70
     1
102
RTVSPropertyOp3
 70
     1
102
RTVSPropertyOp4
 70
     1
102
RTVSPropertyOp5
 70
     1
102
RTVSPropertyOp6
 70
     1
102
RTVSPropertyOp7
 70
     1
102
RTVSPropertyOp8
 70
     1
102
RTVSPropertyOp9
 70
     1
102
RTVSPropertyOp10
 70
     1
102
RTVSPropertyOp11
 70
     1
102
RTVSPropertyOp12
 70
     1
102
RTVSPropertyOp13
 70
     1
102
RTVSPropertyOp14
 70
     1
102
RTVSPropertyOp15
 70
     1
102
RTVSPropertyOp16
 70
     1
102
RTVSPropertyOp17
 70
     1
102
RTVSPropertyOp18
 70
     1
102
RTVSPropertyOp19
 70
     1
102
RTVSPropertyOp20
 70
     1
102
RTVSPropertyOp21
 70
     1
102
RTVSPropertyOp22
 70
     1
102
RTVSPropertyOp23
 70
     1
102
RTVSPropertyOp24
 70
     1
102
RTVSPropertyOp25
 70
     1
102
RTVSPropertyOp26
 70
     1
102
RTVSPropertyOp27
 70
     1
102
RTVSPropertyOp28
 70
     1
102
RTVSPropertyOp29
 70
     1
102
RTVSPropertyOp30
 70
     1
102
RTVSPropertyOp31
 70
     1
102
RTVSPropertyOp32
 70
     1
  0
XRECORD
  5
CDE
102
{ACAD_REACTORS
330
CDD
102
}
330
CDD
100
AcDbXrecord
280
     1
102
RTVSPropertyOp0
 70
     1
102
RTVSPropertyOp1
 70
     1
102
RTVSPropertyOp2
 70
     1
102
RTVSPropertyOp3
 70
     1
102
RTVSPropertyOp4
 70
     1
102
RTVSPropertyOp5
 70
     1
102
RTVSPropertyOp6
 70
     1
102
RTVSPropertyOp7
 70
     1
102
RTVSPropertyOp8
 70
     1
102
RTVSPropertyOp9
 70
     1
102
RTVSPropertyOp10
 70
     1
102
RTVSPropertyOp11
 70
     1
102
RTVSPropertyOp12
 70
     1
102
RTVSPropertyOp13
 70
     1
102
RTVSPropertyOp14
 70
     1
102
RTVSPropertyOp15
 70
     1
102
RTVSPropertyOp16
 70
     1
102
RTVSPropertyOp17
 70
     1
102
RTVSPropertyOp18
 70
     1
102
RTVSPropertyOp19
 70
     1
102
RTVSPropertyOp20
 70
     1
102
RTVSPropertyOp21
 70
     1
102
RTVSPropertyOp22
 70
     1
102
RTVSPropertyOp23
 70
     1
102
RTVSPropertyOp24
 70
     1
102
RTVSPropertyOp25
 70
     1
102
RTVSPropertyOp26
 70
     1
102
RTVSPropertyOp27
 70
     1
102
RTVSPropertyOp28
 70
     1
102
RTVSPropertyOp29
 70
     1
102
RTVSPropertyOp30
 70
     1
102
RTVSPropertyOp31
 70
     1
102
RTVSPropertyOp32
 70
     1
  0
XRECORD
  5
CD8
102
{ACAD_REACTORS
330
CD7
102
}
330
CD7
100
AcDbXrecord
280
     1
102
RTVSPropertyOp0
 70
     1
102
RTVSPropertyOp1
 70
     1
102
RTVSPropertyOp2
 70
     1
102
RTVSPropertyOp3
 70
     1
102
RTVSPropertyOp4
 70
     1
102
RTVSPropertyOp5
 70
     1
102
RTVSPropertyOp6
 70
     1
102
RTVSPropertyOp7
 70
     1
102
RTVSPropertyOp8
 70
     1
102
RTVSPropertyOp9
 70
     1
102
RTVSPropertyOp10
 70
     1
102
RTVSPropertyOp11
 70
     1
102
RTVSPropertyOp12
 70
     1
102
RTVSPropertyOp13
 70
     1
102
RTVSPropertyOp14
 70
     1
102
RTVSPropertyOp15
 70
     1
102
RTVSPropertyOp16
 70
     1
102
RTVSPropertyOp17
 70
     1
102
RTVSPropertyOp18
 70
     1
102
RTVSPropertyOp19
 70
     1
102
RTVSPropertyOp20
 70
     1
102
RTVSPropertyOp21
 70
     1
102
RTVSPropertyOp22
 70
     1
102
RTVSPropertyOp23
 70
     1
102
RTVSPropertyOp24
 70
     1
102
RTVSPropertyOp25
 70
     1
102
RTVSPropertyOp26
 70
     1
102
RTVSPropertyOp27
 70
     1
102
RTVSPropertyOp28
 70
     1
102
RTVSPropertyOp29
 70
     1
102
RTVSPropertyOp30
 70
     1
102
RTVSPropertyOp31
 70
     1
102
RTVSPropertyOp32
 70
     1
  0
XRECORD
  5
CDA
102
{ACAD_REACTORS
330
CD9
102
}
330
CD9
100
AcDbXrecord
280
     1
102
RTVSPropertyOp0
 70
     1
102
RTVSPropertyOp1
 70
     1
102
RTVSPropertyOp2
 70
     1
102
RTVSPropertyOp3
 70
     1
102
RTVSPropertyOp4
 70
     1
102
RTVSPropertyOp5
 70
     1
102
RTVSPropertyOp6
 70
     1
102
RTVSPropertyOp7
 70
     1
102
RTVSPropertyOp8
 70
     1
102
RTVSPropertyOp9
 70
     1
102
RTVSPropertyOp10
 70
     1
102
RTVSPropertyOp11
 70
     1
102
RTVSPropertyOp12
 70
     1
102
RTVSPropertyOp13
 70
     1
102
RTVSPropertyOp14
 70
     1
102
RTVSPropertyOp15
 70
     1
102
RTVSPropertyOp16
 70
     1
102
RTVSPropertyOp17
 70
     1
102
RTVSPropertyOp18
 70
     1
102
RTVSPropertyOp19
 70
     1
102
RTVSPropertyOp20
 70
     1
102
RTVSPropertyOp21
 70
     1
102
RTVSPropertyOp22
 70
     1
102
RTVSPropertyOp23
 70
     1
102
RTVSPropertyOp24
 70
     1
102
RTVSPropertyOp25
 70
     1
102
RTVSPropertyOp26
 70
     1
102
RTVSPropertyOp27
 70
     1
102
RTVSPropertyOp28
 70
     1
102
RTVSPropertyOp29
 70
     1
102
RTVSPropertyOp30
 70
     1
102
RTVSPropertyOp31
 70
     1
102
RTVSPropertyOp32
 70
     1
  0
XRECORD
  5
CD0
102
{ACAD_REACTORS
330
CCF
102
}
330
CCF
100
AcDbXrecord
280
     1
102
RTVSPropertyOp0
 70
     1
102
RTVSPropertyOp1
 70
     1
102
RTVSPropertyOp2
 70
     1
102
RTVSPropertyOp3
 70
     1
102
RTVSPropertyOp4
 70
     1
102
RTVSPropertyOp5
 70
     1
102
RTVSPropertyOp6
 70
     1
102
RTVSPropertyOp7
 70
     1
102
RTVSPropertyOp8
 70
     1
102
RTVSPropertyOp9
 70
     1
102
RTVSPropertyOp10
 70
     1
102
RTVSPropertyOp11
 70
     1
102
RTVSPropertyOp12
 70
     1
102
RTVSPropertyOp13
 70
     1
102
RTVSPropertyOp14
 70
     1
102
RTVSPropertyOp15
 70
     1
102
RTVSPropertyOp16
 70
     1
102
RTVSPropertyOp17
 70
     1
102
RTVSPropertyOp18
 70
     1
102
RTVSPropertyOp19
 70
     1
102
RTVSPropertyOp20
 70
     1
102
RTVSPropertyOp21
 70
     1
102
RTVSPropertyOp22
 70
     1
102
RTVSPropertyOp23
 70
     1
102
RTVSPropertyOp24
 70
     1
102
RTVSPropertyOp25
 70
     1
102
RTVSPropertyOp26
 70
     1
102
RTVSPropertyOp27
 70
     1
102
RTVSPropertyOp28
 70
     1
102
RTVSPropertyOp29
 70
     1
102
RTVSPropertyOp30
 70
     1
102
RTVSPropertyOp31
 70
     1
102
RTVSPropertyOp32
 70
     1
  0
XRECORD
  5
CC4
102
{ACAD_REACTORS
330
CC3
102
}
330
CC3
100
AcDbXrecord
280
     1
102
RTVSPropertyOp0
 70
     1
102
RTVSPropertyOp1
 70
     1
102
RTVSPropertyOp2
 70
     1
102
RTVSPropertyOp3
 70
     1
102
RTVSPropertyOp4
 70
     1
102
RTVSPropertyOp5
 70
     1
102
RTVSPropertyOp6
 70
     1
102
RTVSPropertyOp7
 70
     1
102
RTVSPropertyOp8
 70
     1
102
RTVSPropertyOp9
 70
     1
102
RTVSPropertyOp10
 70
     1
102
RTVSPropertyOp11
 70
     1
102
RTVSPropertyOp12
 70
     1
102
RTVSPropertyOp13
 70
     1
102
RTVSPropertyOp14
 70
     1
102
RTVSPropertyOp15
 70
     1
102
RTVSPropertyOp16
 70
     1
102
RTVSPropertyOp17
 70
     1
102
RTVSPropertyOp18
 70
     1
102
RTVSPropertyOp19
 70
     1
102
RTVSPropertyOp20
 70
     1
102
RTVSPropertyOp21
 70
     1
102
RTVSPropertyOp22
 70
     1
102
RTVSPropertyOp23
 70
     1
102
RTVSPropertyOp24
 70
     1
102
RTVSPropertyOp25
 70
     1
102
RTVSPropertyOp26
 70
     1
102
RTVSPropertyOp27
 70
     1
102
RTVSPropertyOp28
 70
     1
102
RTVSPropertyOp29
 70
     1
102
RTVSPropertyOp30
 70
     1
102
RTVSPropertyOp31
 70
     1
102
RTVSPropertyOp32
 70
     1
  0
XRECORD
  5
CDC
102
{ACAD_REACTORS
330
CDB
102
}
330
CDB
100
AcDbXrecord
280
     1
102
RTVSPropertyOp0
 70
     1
102
RTVSPropertyOp1
 70
     1
102
RTVSPropertyOp2
 70
     1
102
RTVSPropertyOp3
 70
     1
102
RTVSPropertyOp4
 70
     1
102
RTVSPropertyOp5
 70
     1
102
RTVSPropertyOp6
 70
     1
102
RTVSPropertyOp7
 70
     1
102
RTVSPropertyOp8
 70
     1
102
RTVSPropertyOp9
 70
     1
102
RTVSPropertyOp10
 70
     1
102
RTVSPropertyOp11
 70
     1
102
RTVSPropertyOp12
 70
     1
102
RTVSPropertyOp13
 70
     1
102
RTVSPropertyOp14
 70
     1
102
RTVSPropertyOp15
 70
     1
102
RTVSPropertyOp16
 70
     1
102
RTVSPropertyOp17
 70
     1
102
RTVSPropertyOp18
 70
     1
102
RTVSPropertyOp19
 70
     1
102
RTVSPropertyOp20
 70
     1
102
RTVSPropertyOp21
 70
     1
102
RTVSPropertyOp22
 70
     1
102
RTVSPropertyOp23
 70
     1
102
RTVSPropertyOp24
 70
     1
102
RTVSPropertyOp25
 70
     1
102
RTVSPropertyOp26
 70
     1
102
RTVSPropertyOp27
 70
     1
102
RTVSPropertyOp28
 70
     1
102
RTVSPropertyOp29
 70
     1
102
RTVSPropertyOp30
 70
     1
102
RTVSPropertyOp31
 70
     1
102
RTVSPropertyOp32
 70
     1
  0
ENDSEC
  0
EOF
