  0
SECTION
  2
HEADER
  9
$ACADVER
  1
AC1015
  9
$ACADMAINTVER
 70
    18
  9
$DWGCODEPAGE
  3
ANSI_1252
  9
$INSBASE
 10
0.0
 20
0.0
 30
0.0
  9
$EXTMIN
 10
0.0
 20
0.0
 30
0.0
  9
$EXTMAX
 10
56.66666666666667
 20
36.66666666666667
 30
0.0
  9
$LIMMIN
 10
0.0
 20
0.0
  9
$LIMMAX
 10
56.66666666666667
 20
36.66666666666667
  9
$ORTHOMODE
 70
     0
  9
$REGENMODE
 70
     1
  9
$FILLMODE
 70
     1
  9
$QTEXTMODE
 70
     0
  9
$MIRRTEXT
 70
     0
  9
$LTSCALE
 40
3.333333333333333
  9
$ATTMODE
 70
     1
  9
$TEXTSIZE
 40
0.2
  9
$TRACEWID
 40
0.05
  9
$TEXTSTYLE
  7
Standard
  9
$CLAYER
  8
0
  9
$CELTYPE
  6
ByLayer
  9
$CECOLOR
 62
   256
  9
$CELTSCALE
 40
1.0
  9
$DISPSILH
 70
     0
  9
$DIMSCALE
 40
1.0
  9
$DIMASZ
 40
0.0708661417322835
  9
$DIMEXO
 40
0.0625
  9
$DIMDLI
 40
0.38
  9
$DIMRND
 40
0.0
  9
$DIMDLE
 40
0.0
  9
$DIMEXE
 40
0.18
  9
$DIMTP
 40
0.0
  9
$DIMTM
 40
0.0
  9
$DIMTXT
 40
0.0708661417322835
  9
$DIMCEN
 40
0.09
  9
$DIMTSZ
 40
0.0
  9
$DIMTOL
 70
     0
  9
$DIMLIM
 70
     0
  9
$DIMTIH
 70
     1
  9
$DIMTOH
 70
     1
  9
$DIMSE1
 70
     0
  9
$DIMSE2
 70
     0
  9
$DIMTAD
 70
     0
  9
$DIMZIN
 70
     0
  9
$DIMBLK
  1

  9
$DIMASO
 70
     1
  9
$DIMSHO
 70
     1
  9
$DIMPOST
  1

  9
$DIMAPOST
  1

  9
$DIMALT
 70
     0
  9
$DIMALTD
 70
     2
  9
$DIMALTF
 40
25.4
  9
$DIMLFAC
 40
1.0
  9
$DIMTOFL
 70
     0
  9
$DIMTVP
 40
0.0
  9
$DIMTIX
 70
     0
  9
$DIMSOXD
 70
     0
  9
$DIMSAH
 70
     0
  9
$DIMBLK1
  1

  9
$DIMBLK2
  1

  9
$DIMSTYLE
  2
STANDARD
  9
$DIMCLRD
 70
     0
  9
$DIMCLRE
 70
     0
  9
$DIMCLRT
 70
     0
  9
$DIMTFAC
 40
1.0
  9
$DIMGAP
 40
0.09
  9
$DIMJUST
 70
     0
  9
$DIMSD1
 70
     0
  9
$DIMSD2
 70
     0
  9
$DIMTOLJ
 70
     1
  9
$DIMTZIN
 70
     0
  9
$DIMALTZ
 70
     0
  9
$DIMALTTZ
 70
     0
  9
$DIMUPT
 70
     0
  9
$DIMDEC
 70
     4
  9
$DIMTDEC
 70
     4
  9
$DIMALTU
 70
     2
  9
$DIMALTTD
 70
     2
  9
$DIMTXSTY
  7
Standard
  9
$DIMAUNIT
 70
     0
  9
$DIMADEC
 70
     0
  9
$DIMALTRND
 40
0.0
  9
$DIMAZIN
 70
     0
  9
$DIMDSEP
 70
    46
  9
$DIMATFIT
 70
     3
  9
$DIMFRAC
 70
     0
  9
$DIMLDRBLK
  1

  9
$DIMLUNIT
 70
     2
  9
$DIMLWD
 70
    -2
  9
$DIMLWE
 70
    -2
  9
$DIMTMOVE
 70
     0
  9
$LUNITS
 70
     2
  9
$LUPREC
 70
     4
  9
$SKETCHINC
 40
0.1
  9
$FILLETRAD
 40
0.0
  9
$AUNITS
 70
     0
  9
$AUPREC
 70
     0
  9
$MENU
  1
.
  9
$ELEVATION
 40
0.0
  9
$PELEVATION
 40
0.0
  9
$THICKNESS
 40
0.0
  9
$LIMCHECK
 70
     0
  9
$CHAMFERA
 40
0.0
  9
$CHAMFERB
 40
0.0
  9
$CHAMFERC
 40
0.0
  9
$CHAMFERD
 40
0.0
  9
$SKPOLY
 70
     0
  9
$TDCREATE
 40
2455944.608614734
  9
$TDUCREATE
 40
2455944.858614734
  9
$TDUPDATE
 40
2455944.608614734
  9
$TDUUPDATE
 40
2455944.858614734
  9
$TDINDWG
 40
0.0000340046
  9
$TDUSRTIMER
 40
0.0000340046
  9
$USRTIMER
 70
     1
  9
$ANGBASE
 50
0.0
  9
$ANGDIR
 70
     0
  9
$PDMODE
 70
     0
  9
$PDSIZE
 40
0.0
  9
$PLINEWID
 40
0.0
  9
$SPLFRAME
 70
     0
  9
$SPLINETYPE
 70
     6
  9
$SPLINESEGS
 70
     8
  9
$HANDSEED
  5
C8D
  9
$SURFTAB1
 70
     6
  9
$SURFTAB2
 70
     6
  9
$SURFTYPE
 70
     6
  9
$SURFU
 70
     6
  9
$SURFV
 70
     6
  9
$UCSBASE
  2

  9
$UCSNAME
  2

  9
$UCSORG
 10
0.0
 20
0.0
 30
0.0
  9
$UCSXDIR
 10
1.0
 20
0.0
 30
0.0
  9
$UCSYDIR
 10
0.0
 20
1.0
 30
0.0
  9
$UCSORTHOREF
  2

  9
$UCSORTHOVIEW
 70
     0
  9
$UCSORGTOP
 10
0.0
 20
0.0
 30
0.0
  9
$UCSORGBOTTOM
 10
0.0
 20
0.0
 30
0.0
  9
$UCSORGLEFT
 10
0.0
 20
0.0
 30
0.0
  9
$UCSORGRIGHT
 10
0.0
 20
0.0
 30
0.0
  9
$UCSORGFRONT
 10
0.0
 20
0.0
 30
0.0
  9
$UCSORGBACK
 10
0.0
 20
0.0
 30
0.0
  9
$PUCSBASE
  2

  9
$PUCSNAME
  2

  9
$PUCSORG
 10
0.0
 20
0.0
 30
0.0
  9
$PUCSXDIR
 10
1.0
 20
0.0
 30
0.0
  9
$PUCSYDIR
 10
0.0
 20
1.0
 30
0.0
  9
$PUCSORTHOREF
  2

  9
$PUCSORTHOVIEW
 70
     0
  9
$PUCSORGTOP
 10
0.0
 20
0.0
 30
0.0
  9
$PUCSORGBOTTOM
 10
0.0
 20
0.0
 30
0.0
  9
$PUCSORGLEFT
 10
0.0
 20
0.0
 30
0.0
  9
$PUCSORGRIGHT
 10
0.0
 20
0.0
 30
0.0
  9
$PUCSORGFRONT
 10
0.0
 20
0.0
 30
0.0
  9
$PUCSORGBACK
 10
0.0
 20
0.0
 30
0.0
  9
$USERI1
 70
     0
  9
$USERI2
 70
     0
  9
$USERI3
 70
     0
  9
$USERI4
 70
     0
  9
$USERI5
 70
     0
  9
$USERR1
 40
0.0
  9
$USERR2
 40
0.0
  9
$USERR3
 40
0.0
  9
$USERR4
 40
0.0
  9
$USERR5
 40
0.0
  9
$WORLDVIEW
 70
     1
  9
$SHADEDGE
 70
     3
  9
$SHADEDIF
 70
    70
  9
$TILEMODE
 70
     1
  9
$MAXACTVP
 70
    64
  9
$PINSBASE
 10
0.0
 20
0.0
 30
0.0
  9
$PLIMCHECK
 70
     0
  9
$PEXTMIN
 10
0.0
 20
0.0
 30
0.0
  9
$PEXTMAX
 10
56.66666666666667
 20
36.66666666666667
 30
0.0
  9
$PLIMMIN
 10
0.0
 20
0.0
  9
$PLIMMAX
 10
56.66666666666667
 20
36.66666666666667
  9
$UNITMODE
 70
     0
  9
$VISRETAIN
 70
     1
  9
$PLINEGEN
 70
     0
  9
$PSLTSCALE
 70
     1
  9
$TREEDEPTH
 70
  3020
  9
$CMLSTYLE
  2
Standard
  9
$CMLJUST
 70
     0
  9
$CMLSCALE
 40
1.0
  9
$PROXYGRAPHICS
 70
     1
  9
$MEASUREMENT
 70
     0
  9
$CELWEIGHT
370
    -1
  9
$ENDCAPS
280
     0
  9
$JOINSTYLE
280
     0
  9
$LWDISPLAY
290
     0
  9
$INSUNITS
 70
     1
  9
$HYPERLINKBASE
  1

  9
$STYLESHEET
  1

  9
$XEDIT
290
     1
  9
$CEPSNTYPE
380
     0
  9
$PSTYLEMODE
290
     1
  9
$FINGERPRINTGUID
  2
{0E8A6CA3-6E90-4687-9A6D-42A376B52CA5}
  9
$VERSIONGUID
  2
{47C715D6-B1CB-48BB-BBC9-24FDC0C5D077}
  9
$EXTNAMES
290
     1
  9
$PSVPSCALE
 40
0.0
  9
$OLESTARTUP
290
     0
  0
ENDSEC
  0
SECTION
  2
CLASSES
  0
CLASS
  1
ACDBDICTIONARYWDFLT
  2
AcDbDictionaryWithDefault
  3
ObjectDBX Classes
 90
        0
280
     0
281
     0
  0
CLASS
  1
MATERIAL
  2
AcDbMaterial
  3
ObjectDBX Classes
 90
     1153
280
     0
281
     0
  0
CLASS
  1
VISUALSTYLE
  2
AcDbVisualStyle
  3
ObjectDBX Classes
 90
     4095
280
     0
281
     0
  0
CLASS
  1
SCALE
  2
AcDbScale
  3
ObjectDBX Classes
 90
     1153
280
     0
281
     0
  0
CLASS
  1
TABLESTYLE
  2
AcDbTableStyle
  3
ObjectDBX Classes
 90
     4095
280
     0
281
     0
  0
CLASS
  1
MLEADERSTYLE
  2
AcDbMLeaderStyle
  3
ACDB_MLEADERSTYLE_CLASS
 90
     4095
280
     0
281
     0
  0
CLASS
  1
DICTIONARYVAR
  2
AcDbDictionaryVar
  3
ObjectDBX Classes
 90
        0
280
     0
281
     0
  0
CLASS
  1
CELLSTYLEMAP
  2
AcDbCellStyleMap
  3
ObjectDBX Classes
 90
     1152
280
     0
281
     0
  0
CLASS
  1
ACDBPLACEHOLDER
  2
AcDbPlaceHolder
  3
ObjectDBX Classes
 90
        0
280
     0
281
     0
  0
CLASS
  1
LAYOUT
  2
AcDbLayout
  3
ObjectDBX Classes
 90
        0
280
     0
281
     0
  0
ENDSEC
  0
SECTION
  2
TABLES
  0
TABLE
  2
VPORT
  5
8
330
0
100
AcDbSymbolTable
 70
     1
  0
VPORT
  5
57
330
8
100
AcDbSymbolTableRecord
100
AcDbViewportTableRecord
  2
*Active
 70
     0
 10
0.0
 20
0.0
 11
1.0
 21
1.0
 12
28.33333333333334
 22
18.33333333333333
 13
0.0
 23
0.0
 14
1.0
 24
1.0
 15
0.0
 25
0.0
 16
0.0
 26
0.0
 36
1.0
 17
0.0
 27
0.0
 37
0.0
 40
36.66666666666667
 41
1.545454545454545
 42
50.0
 43
0.0
 44
0.0
 50
0.0
 51
0.0
 71
     0
 72
   100
 73
     1
 74
     1
 75
     0
 76
     0
 77
     0
 78
     0
281
     0
 65
     1
110
0.0
120
0.0
130
0.0
111
1.0
121
0.0
131
0.0
112
0.0
122
1.0
132
0.0
 79
     0
146
0.0
  0
ENDTAB
  0
TABLE
  2
LTYPE
  5
5
330
0
100
AcDbSymbolTable
 70
    59
  0
LTYPE
  5
5B
330
5
100
AcDbSymbolTableRecord
100
AcDbLinetypeTableRecord
  2
ByBlock
 70
     0
  3

 72
    65
 73
     0
 40
0.0
  0
LTYPE
  5
5C
330
5
100
AcDbSymbolTableRecord
100
AcDbLinetypeTableRecord
  2
ByLayer
 70
     0
  3

 72
    65
 73
     0
 40
0.0
  0
LTYPE
  5
5D
330
5
100
AcDbSymbolTableRecord
100
AcDbLinetypeTableRecord
  2
Continuous
 70
     0
  3
Solid line
 72
    65
 73
     0
 40
0.0
  0
LTYPE
  5
7C
330
5
100
AcDbSymbolTableRecord
100
AcDbLinetypeTableRecord
  2
BY_STANDARD
 70
     0
  3
By Standard ____________    ____    ____   _
 72
    65
 73
     6
 40
1.240299999999999
 49
0.6614
 74
     0
 49
-0.0827
 74
     0
 49
0.1654
 74
     0
 49
-0.0827
 74
     0
 49
0.1654
 74
     0
 49
-0.0827
 74
     0
  0
LTYPE
  5
7D
330
5
100
AcDbSymbolTableRecord
100
AcDbLinetypeTableRecord
  2
CHAIN
 70
     0
  3
Chain ____ _ ____ _ ____ _ ____ _ ____ _ ____
 72
    65
 73
     4
 40
0.7087
 49
0.4724000000000001
 74
     0
 49
-0.0591
 74
     0
 49
0.1181
 74
     0
 49
-0.0591
 74
     0
  0
LTYPE
  5
7E
330
5
100
AcDbSymbolTableRecord
100
AcDbLinetypeTableRecord
  2
DASH_DOT
 70
     0
  3
Dash dot __ . __ . __ . __ . __ . __ . __ . __
 72
    65
 73
     4
 40
0.37
 49
0.24
 74
     0
 49
-0.06
 74
     0
 49
0.01
 74
     0
 49
-0.06
 74
     0
  0
LTYPE
  5
7F
330
5
100
AcDbSymbolTableRecord
100
AcDbLinetypeTableRecord
  2
DOUBLE_DASH_DOT
 70
     0
  3
Double-Dash Dot __ __ . __ __ . __ __ . __ _
 72
    65
 73
     6
 40
0.4398
 49
0.24
 74
     0
 49
-0.06
 74
     0
 49
0.0098
 74
     0
 49
-0.06
 74
     0
 49
0.01
 74
     0
 49
-0.06
 74
     0
  0
LTYPE
  5
80
330
5
100
AcDbSymbolTableRecord
100
AcDbLinetypeTableRecord
  2
DASH_TRIPLE_DOT
 70
     0
  3
Dash Triple-Dot _ . . . _ . . . _ . . . _
 72
    65
 73
     8
 40
0.51
 49
0.24
 74
     0
 49
-0.06
 74
     0
 49
0.01
 74
     0
 49
-0.06
 74
     0
 49
0.01
 74
     0
 49
-0.06
 74
     0
 49
0.01
 74
     0
 49
-0.06
 74
     0
  0
LTYPE
  5
81
330
5
100
AcDbSymbolTableRecord
100
AcDbLinetypeTableRecord
  2
DASHED
 70
     0
  3
Dashed __ __ __ __ __ __ __ __ __ __ __ __ __ _
 72
    65
 73
     2
 40
0.2067
 49
0.1654
 74
     0
 49
-0.0413
 74
     0
  0
LTYPE
  5
82
330
5
100
AcDbSymbolTableRecord
100
AcDbLinetypeTableRecord
  2
DASH_DOUBLE_DOT
 70
     0
  3
Dash Double-Dot __ . . __ . . __ . . __ . .
 72
    65
 73
     6
 40
0.4398
 49
0.24
 74
     0
 49
-0.06
 74
     0
 49
0.0098
 74
     0
 49
-0.06
 74
     0
 49
0.01
 74
     0
 49
-0.06
 74
     0
  0
LTYPE
  5
83
330
5
100
AcDbSymbolTableRecord
100
AcDbLinetypeTableRecord
  2
DASHED_SPACE
 70
     0
  3
Dashed Space __ __ __ __ __ __ __ __ __ __ __ _
 72
    65
 73
     2
 40
0.2067
 49
0.1654
 74
     0
 49
-0.0413
 74
     0
  0
LTYPE
  5
84
330
5
100
AcDbSymbolTableRecord
100
AcDbLinetypeTableRecord
  2
DOTTED
 70
     0
  3
Dotted . . . . . . . . . . . . . . . . . . . . 
 72
    65
 73
     2
 40
0.0482
 49
0.0069
 74
     0
 49
-0.0413
 74
     0
  0
LTYPE
  5
85
330
5
100
AcDbSymbolTableRecord
100
AcDbLinetypeTableRecord
  2
DOUBLE_DASH_CHAIN
 70
     0
  3
Double-Dash Chain ______  __  __  ______  __  _
 72
    65
 73
     6
 40
1.240299999999999
 49
0.6614
 74
     0
 49
-0.0827
 74
     0
 49
0.1654
 74
     0
 49
-0.0827
 74
     0
 49
0.1654
 74
     0
 49
-0.0827
 74
     0
  0
LTYPE
  5
87
330
5
100
AcDbSymbolTableRecord
100
AcDbLinetypeTableRecord
  2
DOUBLE_DASH_DOUBLE_DOT
 70
     0
  3
Double-Dash Double-dot _ _ . . _ _ . . _
 72
    65
 73
     8
 40
0.7400000000000001
 49
0.24
 74
     0
 49
-0.06
 74
     0
 49
0.24
 74
     0
 49
-0.06
 74
     0
 49
0.01
 74
     0
 49
-0.06
 74
     0
 49
0.01
 74
     0
 49
-0.06
 74
     0
  0
LTYPE
  5
88
330
5
100
AcDbSymbolTableRecord
100
AcDbLinetypeTableRecord
  2
DOUBLE_DASH_TRIPLE_DOT
 70
     0
  3
Double Dash Triple Dot __ __ . . . __ __ . .
 72
    65
 73
    10
 40
0.8100000000000001
 49
0.24
 74
     0
 49
-0.06
 74
     0
 49
0.24
 74
     0
 49
-0.06
 74
     0
 49
0.01
 74
     0
 49
-0.06
 74
     0
 49
0.01
 74
     0
 49
-0.06
 74
     0
 49
0.01
 74
     0
 49
-0.06
 74
     0
  0
LTYPE
  5
89
330
5
100
AcDbSymbolTableRecord
100
AcDbLinetypeTableRecord
  2
LONG_DASH_DOTTED
 70
     0
  3
Long Dash Dotted ____ . ____ . ____ . ____ . _
 72
    65
 73
     4
 40
0.3543
 49
0.2362
 74
     0
 49
-0.0295
 74
     0
 49
0.0591
 74
     0
 49
-0.0295
 74
     0
  0
LTYPE
  5
8A
330
5
100
AcDbSymbolTableRecord
100
AcDbLinetypeTableRecord
  2
LONG_DASH_DOUBLE_DOT
 70
     0
  3
Long Dash Double Dot ________  .  .  ________  
 72
    65
 73
     6
 40
0.6799999999999999
 49
0.48
 74
     0
 49
-0.06
 74
     0
 49
0.01
 74
     0
 49
-0.06
 74
     0
 49
0.01
 74
     0
 49
-0.06
 74
     0
  0
LTYPE
  5
8B
330
5
100
AcDbSymbolTableRecord
100
AcDbLinetypeTableRecord
  2
LONG_DASH_TRIPLE_DOT
 70
     0
  3
Long Dash Triple Dot ____ ... ____ ... ____
 72
    65
 73
     8
 40
0.3689
 49
0.2362
 74
     0
 49
-0.0295
 74
     0
 49
0.0049
 74
     0
 49
-0.0295
 74
     0
 49
0.0049
 74
     0
 49
-0.0295
 74
     0
 49
0.0049
 74
     0
 49
-0.0295
 74
     0
  0
LTYPE
  5
8C
330
5
100
AcDbSymbolTableRecord
100
AcDbLinetypeTableRecord
  2
BORDER
 70
     0
  3
Border __ __ . __ __ . __ __ . __ __ . __ __ .
 72
    65
 73
     6
 40
1.75
 49
0.5
 74
     0
 49
-0.25
 74
     0
 49
0.5
 74
     0
 49
-0.25
 74
     0
 49
0.0
 74
     0
 49
-0.25
 74
     0
  0
LTYPE
  5
8D
330
5
100
AcDbSymbolTableRecord
100
AcDbLinetypeTableRecord
  2
BORDER2
 70
     0
  3
Border (.5x) __.__.__.__.__.__.__.__.__.__.__.
 72
    65
 73
     6
 40
0.875
 49
0.25
 74
     0
 49
-0.125
 74
     0
 49
0.25
 74
     0
 49
-0.125
 74
     0
 49
0.0
 74
     0
 49
-0.125
 74
     0
  0
LTYPE
  5
8E
330
5
100
AcDbSymbolTableRecord
100
AcDbLinetypeTableRecord
  2
BORDERX2
 70
     0
  3
Border (2x) ____  ____  .  ____  ____  .  ___
 72
    65
 73
     6
 40
3.5
 49
1.0
 74
     0
 49
-0.5
 74
     0
 49
1.0
 74
     0
 49
-0.5
 74
     0
 49
0.0
 74
     0
 49
-0.5
 74
     0
  0
LTYPE
  5
8F
330
5
100
AcDbSymbolTableRecord
100
AcDbLinetypeTableRecord
  2
CENTER
 70
     0
  3
Center ____ _ ____ _ ____ _ ____ _ ____ _ ____
 72
    65
 73
     4
 40
2.0
 49
1.25
 74
     0
 49
-0.25
 74
     0
 49
0.25
 74
     0
 49
-0.25
 74
     0
  0
LTYPE
  5
90
330
5
100
AcDbSymbolTableRecord
100
AcDbLinetypeTableRecord
  2
CENTER2
 70
     0
  3
Center (.5x) ___ _ ___ _ ___ _ ___ _ ___ _ ___
 72
    65
 73
     4
 40
1.125
 49
0.75
 74
     0
 49
-0.125
 74
     0
 49
0.125
 74
     0
 49
-0.125
 74
     0
  0
LTYPE
  5
91
330
5
100
AcDbSymbolTableRecord
100
AcDbLinetypeTableRecord
  2
CENTERX2
 70
     0
  3
Center (2x) ________  __  ________  __  _____
 72
    65
 73
     4
 40
4.0
 49
2.5
 74
     0
 49
-0.5
 74
     0
 49
0.5
 74
     0
 49
-0.5
 74
     0
  0
LTYPE
  5
92
330
5
100
AcDbSymbolTableRecord
100
AcDbLinetypeTableRecord
  2
DASHDOT2
 70
     0
  3
Dash dot (.5x) _._._._._._._._._._._._._._._.
 72
    65
 73
     4
 40
0.5
 49
0.25
 74
     0
 49
-0.125
 74
     0
 49
0.0
 74
     0
 49
-0.125
 74
     0
  0
LTYPE
  5
93
330
5
100
AcDbSymbolTableRecord
100
AcDbLinetypeTableRecord
  2
DASHDOTX2
 70
     0
  3
Dash dot (2x) ____  .  ____  .  ____  .  ___
 72
    65
 73
     4
 40
2.0
 49
1.0
 74
     0
 49
-0.5
 74
     0
 49
0.0
 74
     0
 49
-0.5
 74
     0
  0
LTYPE
  5
95
330
5
100
AcDbSymbolTableRecord
100
AcDbLinetypeTableRecord
  2
DASHED2
 70
     0
  3
Dashed (.5x) _ _ _ _ _ _ _ _ _ _ _ _ _ _ _ _ _
 72
    65
 73
     2
 40
0.375
 49
0.25
 74
     0
 49
-0.125
 74
     0
  0
LTYPE
  5
96
330
5
100
AcDbSymbolTableRecord
100
AcDbLinetypeTableRecord
  2
DASHEDX2
 70
     0
  3
Dashed (2x) ____  ____  ____  ____  ____  ___
 72
    65
 73
     2
 40
1.5
 49
1.0
 74
     0
 49
-0.5
 74
     0
  0
LTYPE
  5
97
330
5
100
AcDbSymbolTableRecord
100
AcDbLinetypeTableRecord
  2
DIVIDE
 70
     0
  3
Divide ____ . . ____ . . ____ . . ____ . . ____
 72
    65
 73
     6
 40
1.25
 49
0.5
 74
     0
 49
-0.25
 74
     0
 49
0.0
 74
     0
 49
-0.25
 74
     0
 49
0.0
 74
     0
 49
-0.25
 74
     0
  0
LTYPE
  5
98
330
5
100
AcDbSymbolTableRecord
100
AcDbLinetypeTableRecord
  2
DIVIDE2
 70
     0
  3
Divide (.5x) __..__..__..__..__..__..__..__.._
 72
    65
 73
     6
 40
0.625
 49
0.25
 74
     0
 49
-0.125
 74
     0
 49
0.0
 74
     0
 49
-0.125
 74
     0
 49
0.0
 74
     0
 49
-0.125
 74
     0
  0
LTYPE
  5
99
330
5
100
AcDbSymbolTableRecord
100
AcDbLinetypeTableRecord
  2
DIVIDEX2
 70
     0
  3
Divide (2x) ________  .  .  ________  .  .  _
 72
    65
 73
     6
 40
2.5
 49
1.0
 74
     0
 49
-0.5
 74
     0
 49
0.0
 74
     0
 49
-0.5
 74
     0
 49
0.0
 74
     0
 49
-0.5
 74
     0
  0
LTYPE
  5
9A
330
5
100
AcDbSymbolTableRecord
100
AcDbLinetypeTableRecord
  2
DOT
 70
     0
  3
Dot . . . . . . . . . . . . . . . . . . . . . .
 72
    65
 73
     2
 40
0.25
 49
0.0
 74
     0
 49
-0.25
 74
     0
  0
LTYPE
  5
9B
330
5
100
AcDbSymbolTableRecord
100
AcDbLinetypeTableRecord
  2
DOT2
 70
     0
  3
Dot (.5x) .....................................
 72
    65
 73
     2
 40
0.125
 49
0.0
 74
     0
 49
-0.125
 74
     0
  0
LTYPE
  5
9C
330
5
100
AcDbSymbolTableRecord
100
AcDbLinetypeTableRecord
  2
DOTX2
 70
     0
  3
Dot (2x) .  .  .  .  .  .  .  .  .  .  .  .  . 
 72
    65
 73
     2
 40
0.5
 49
0.0
 74
     0
 49
-0.5
 74
     0
  0
LTYPE
  5
9D
330
5
100
AcDbSymbolTableRecord
100
AcDbLinetypeTableRecord
  2
HIDDEN
 70
     0
  3
Hidden __ __ __ __ __ __ __ __ __ __ __ __ __ _
 72
    65
 73
     2
 40
0.375
 49
0.25
 74
     0
 49
-0.125
 74
     0
  0
LTYPE
  5
9E
330
5
100
AcDbSymbolTableRecord
100
AcDbLinetypeTableRecord
  2
HIDDEN2
 70
     0
  3
Hidden (.5x) _ _ _ _ _ _ _ _ _ _ _ _ _ _ _ _ _
 72
    65
 73
     2
 40
0.1875
 49
0.125
 74
     0
 49
-0.0625
 74
     0
  0
LTYPE
  5
9F
330
5
100
AcDbSymbolTableRecord
100
AcDbLinetypeTableRecord
  2
HIDDENX2
 70
     0
  3
Hidden (2x) ____ ____ ____ ____ ____ ____ ____
 72
    65
 73
     2
 40
0.75
 49
0.5
 74
     0
 49
-0.25
 74
     0
  0
LTYPE
  5
A0
330
5
100
AcDbSymbolTableRecord
100
AcDbLinetypeTableRecord
  2
PHANTOM
 70
     0
  3
Phantom ______  __  __  ______  __  __  ______
 72
    65
 73
     6
 40
2.5
 49
1.25
 74
     0
 49
-0.25
 74
     0
 49
0.25
 74
     0
 49
-0.25
 74
     0
 49
0.25
 74
     0
 49
-0.25
 74
     0
  0
LTYPE
  5
A1
330
5
100
AcDbSymbolTableRecord
100
AcDbLinetypeTableRecord
  2
PHANTOM2
 70
     0
  3
Phantom (.5x) ___ _ _ ___ _ _ ___ _ _ ___ _ _
 72
    65
 73
     6
 40
1.25
 49
0.625
 74
     0
 49
-0.125
 74
     0
 49
0.125
 74
     0
 49
-0.125
 74
     0
 49
0.125
 74
     0
 49
-0.125
 74
     0
  0
LTYPE
  5
A2
330
5
100
AcDbSymbolTableRecord
100
AcDbLinetypeTableRecord
  2
PHANTOMX2
 70
     0
  3
Phantom (2x) ____________    ____    ____   _
 72
    65
 73
     6
 40
5.0
 49
2.5
 74
     0
 49
-0.5
 74
     0
 49
0.5
 74
     0
 49
-0.5
 74
     0
 49
0.5
 74
     0
 49
-0.5
 74
     0
  0
LTYPE
  5
A3
330
5
100
AcDbSymbolTableRecord
100
AcDbLinetypeTableRecord
  2
ACAD_ISO02W100
 70
     0
  3
ISO dash __ __ __ __ __ __ __ __ __ __ __ __ __
 72
    65
 73
     2
 40
0.59
 49
0.47
 74
     0
 49
-0.12
 74
     0
  0
LTYPE
  5
A4
330
5
100
AcDbSymbolTableRecord
100
AcDbLinetypeTableRecord
  2
ACAD_ISO03W100
 70
     0
  3
ISO dash space __    __    __    __    __    __
 72
    65
 73
     2
 40
1.179999999999999
 49
0.47
 74
     0
 49
-0.71
 74
     0
  0
LTYPE
  5
A5
330
5
100
AcDbSymbolTableRecord
100
AcDbLinetypeTableRecord
  2
ACAD_ISO04W100
 70
     0
  3
ISO long-dash dot ____ . ____ . ____ . ____ . _
 72
    65
 73
     4
 40
1.179999999999999
 49
0.9399999999999998
 74
     0
 49
-0.12
 74
     0
 49
0.0
 74
     0
 49
-0.12
 74
     0
  0
LTYPE
  5
A6
330
5
100
AcDbSymbolTableRecord
100
AcDbLinetypeTableRecord
  2
ACAD_ISO05W100
 70
     0
  3
ISO long-dash double-dot ____ .. ____ .. ____ .
 72
    65
 73
     6
 40
1.299999999999999
 49
0.9399999999999998
 74
     0
 49
-0.12
 74
     0
 49
0.0
 74
     0
 49
-0.12
 74
     0
 49
0.0
 74
     0
 49
-0.12
 74
     0
  0
LTYPE
  5
A7
330
5
100
AcDbSymbolTableRecord
100
AcDbLinetypeTableRecord
  2
ACAD_ISO06W100
 70
     0
  3
ISO long-dash triple-dot ____ ... ____ ... ____
 72
    65
 73
     8
 40
1.419999999999999
 49
0.9399999999999998
 74
     0
 49
-0.12
 74
     0
 49
0.0
 74
     0
 49
-0.12
 74
     0
 49
0.0
 74
     0
 49
-0.12
 74
     0
 49
0.0
 74
     0
 49
-0.12
 74
     0
  0
LTYPE
  5
A8
330
5
100
AcDbSymbolTableRecord
100
AcDbLinetypeTableRecord
  2
ACAD_ISO07W100
 70
     0
  3
ISO dot . . . . . . . . . . . . . . . . . . . .
 72
    65
 73
     2
 40
0.12
 49
0.0
 74
     0
 49
-0.12
 74
     0
  0
LTYPE
  5
A9
330
5
100
AcDbSymbolTableRecord
100
AcDbLinetypeTableRecord
  2
ACAD_ISO08W100
 70
     0
  3
ISO long-dash short-dash ____ __ ____ __ ____ _
 72
    65
 73
     4
 40
0.95
 49
0.47
 74
     0
 49
-0.12
 74
     0
 49
0.24
 74
     0
 49
-0.12
 74
     0
  0
LTYPE
  5
AA
330
5
100
AcDbSymbolTableRecord
100
AcDbLinetypeTableRecord
  2
ACAD_ISO09W100
 70
     0
  3
ISO long-dash double-short-dash ____ __ __ ____
 72
    65
 73
     6
 40
1.31
 49
0.47
 74
     0
 49
-0.12
 74
     0
 49
0.24
 74
     0
 49
-0.12
 74
     0
 49
0.24
 74
     0
 49
-0.12
 74
     0
  0
LTYPE
  5
AB
330
5
100
AcDbSymbolTableRecord
100
AcDbLinetypeTableRecord
  2
ACAD_ISO10W100
 70
     0
  3
ISO dash dot __ . __ . __ . __ . __ . __ . __ .
 72
    65
 73
     4
 40
0.71
 49
0.47
 74
     0
 49
-0.12
 74
     0
 49
0.0
 74
     0
 49
-0.12
 74
     0
  0
LTYPE
  5
AC
330
5
100
AcDbSymbolTableRecord
100
AcDbLinetypeTableRecord
  2
ACAD_ISO11W100
 70
     0
  3
ISO double-dash dot __ __ . __ __ . __ __ . __ 
 72
    65
 73
     6
 40
1.299999999999999
 49
0.47
 74
     0
 49
-0.12
 74
     0
 49
0.47
 74
     0
 49
-0.12
 74
     0
 49
0.0
 74
     0
 49
-0.12
 74
     0
  0
LTYPE
  5
AD
330
5
100
AcDbSymbolTableRecord
100
AcDbLinetypeTableRecord
  2
ACAD_ISO12W100
 70
     0
  3
ISO dash double-dot __ . . __ . . __ . . __ . .
 72
    65
 73
     6
 40
0.8299999999999998
 49
0.47
 74
     0
 49
-0.12
 74
     0
 49
0.0
 74
     0
 49
-0.12
 74
     0
 49
0.0
 74
     0
 49
-0.12
 74
     0
  0
LTYPE
  5
AE
330
5
100
AcDbSymbolTableRecord
100
AcDbLinetypeTableRecord
  2
ACAD_ISO13W100
 70
     0
  3
ISO double-dash double-dot __ __ . . __ __ . . 
 72
    65
 73
     8
 40
1.419999999999999
 49
0.47
 74
     0
 49
-0.12
 74
     0
 49
0.47
 74
     0
 49
-0.12
 74
     0
 49
0.0
 74
     0
 49
-0.12
 74
     0
 49
0.0
 74
     0
 49
-0.12
 74
     0
  0
LTYPE
  5
AF
330
5
100
AcDbSymbolTableRecord
100
AcDbLinetypeTableRecord
  2
ACAD_ISO14W100
 70
     0
  3
ISO dash triple-dot __ . . . __ . . . __ . . . 
 72
    65
 73
     8
 40
0.95
 49
0.47
 74
     0
 49
-0.12
 74
     0
 49
0.0
 74
     0
 49
-0.12
 74
     0
 49
0.0
 74
     0
 49
-0.12
 74
     0
 49
0.0
 74
     0
 49
-0.12
 74
     0
  0
LTYPE
  5
B0
330
5
100
AcDbSymbolTableRecord
100
AcDbLinetypeTableRecord
  2
ACAD_ISO15W100
 70
     0
  3
ISO double-dash triple-dot __ __ . . . __ __ . 
 72
    65
 73
    10
 40
1.539999999999999
 49
0.47
 74
     0
 49
-0.12
 74
     0
 49
0.47
 74
     0
 49
-0.12
 74
     0
 49
0.0
 74
     0
 49
-0.12
 74
     0
 49
0.0
 74
     0
 49
-0.12
 74
     0
 49
0.0
 74
     0
 49
-0.12
 74
     0
  0
LTYPE
  5
B3
330
5
100
AcDbSymbolTableRecord
100
AcDbLinetypeTableRecord
  2
FENCELINE1
 70
     0
  3
Fenceline circle ----0-----0----0-----0----0---
 72
    65
 73
     4
 40
1.45
 49
0.25
 74
     0
 49
-0.1
 74
     4
 75
   133
340
B2
 46
0.1
 50
0.0
 44
-0.1
 45
0.0
 49
-0.1
 74
     0
 49
1.0
 74
     0
  0
LTYPE
  5
B4
330
5
100
AcDbSymbolTableRecord
100
AcDbLinetypeTableRecord
  2
FENCELINE2
 70
     0
  3
Fenceline square ----[]-----[]----[]-----[]----
 72
    65
 73
     4
 40
1.45
 49
0.25
 74
     0
 49
-0.1
 74
     4
 75
   132
340
B2
 46
0.1
 50
0.0
 44
-0.1
 45
0.0
 49
-0.1
 74
     0
 49
1.0
 74
     0
  0
LTYPE
  5
B5
330
5
100
AcDbSymbolTableRecord
100
AcDbLinetypeTableRecord
  2
TRACKS
 70
     0
  3
Tracks -|-|-|-|-|-|-|-|-|-|-|-|-|-|-|-|-|-|-|-|
 72
    65
 73
     2
 40
0.3
 49
0.15
 74
     4
 75
   130
340
B2
 46
0.25
 50
0.0
 44
0.0
 45
0.0
 49
0.15
 74
     0
  0
LTYPE
  5
B6
330
5
100
AcDbSymbolTableRecord
100
AcDbLinetypeTableRecord
  2
BATTING
 70
     0
  3
Batting SSSSSSSSSSSSSSSSSSSSSSSSSSSSSSSSSSSSSSS
 72
    65
 73
     4
 40
0.4001000000000001
 49
0.0001
 74
     0
 49
-0.1
 74
     4
 75
   134
340
B2
 46
0.1
 50
0.0
 44
-0.1
 45
0.0
 49
-0.2
 74
     4
 75
   134
340
B2
 46
0.1
 50
180.0
 44
0.1
 45
0.0
 49
-0.1
 74
     0
  0
LTYPE
  5
B7
330
5
100
AcDbSymbolTableRecord
100
AcDbLinetypeTableRecord
  2
HOT_WATER_SUPPLY
 70
     0
  3
Hot water supply ---- HW ---- HW ---- HW ----
 72
    65
 73
     3
 40
0.9
 49
0.5
 74
     0
 49
-0.2
 74
     2
 75
     0
340
55
 46
0.1
 50
0.0
 44
-0.1
 45
-0.05
  9
HW
 49
-0.2
 74
     0
  0
LTYPE
  5
B8
330
5
100
AcDbSymbolTableRecord
100
AcDbLinetypeTableRecord
  2
GAS_LINE
 70
     0
  3
Gas line ----GAS----GAS----GAS----GAS----GAS---
 72
    65
 73
     3
 40
0.95
 49
0.5
 74
     0
 49
-0.2
 74
     2
 75
     0
340
55
 46
0.1
 50
0.0
 44
-0.1
 45
-0.05
  9
GAS
 49
-0.25
 74
     0
  0
LTYPE
  5
B9
330
5
100
AcDbSymbolTableRecord
100
AcDbLinetypeTableRecord
  2
ZIGZAG
 70
     0
  3
Zig zag /\/\/\/\/\/\/\/\/\/\/\/\/\/\/\/\/\/\/\/
 72
    65
 73
     4
 40
0.8001000000000001
 49
0.0001
 74
     0
 49
-0.2
 74
     4
 75
   131
340
B2
 46
0.2
 50
0.0
 44
-0.2
 45
0.0
 49
-0.4
 74
     4
 75
   131
340
B2
 46
0.2
 50
180.0
 44
0.2
 45
0.0
 49
-0.2
 74
     0
  0
ENDTAB
  0
TABLE
  2
LAYER
  5
2
330
0
100
AcDbSymbolTable
 70
    27
  0
LAYER
  5
54
330
2
100
AcDbSymbolTableRecord
100
AcDbLayerTableRecord
  2
0
 70
     0
 62
     7
  6
Continuous
370
    18
390
F
  0
LAYER
  5
C3
330
2
100
AcDbSymbolTableRecord
100
AcDbLayerTableRecord
  2
Dimension (ANSI)
 70
     0
 62
     7
  6
Continuous
370
    13
390
F
  0
LAYER
  5
C5
330
2
100
AcDbSymbolTableRecord
100
AcDbLayerTableRecord
  2
Hidden (ANSI)
 70
     0
 62
     7
  6
DASHED
370
    15
390
F
  0
LAYER
  5
CC
330
2
100
AcDbSymbolTableRecord
100
AcDbLayerTableRecord
  2
Symbol (ANSI)
 70
     0
 62
     7
  6
Continuous
370
    18
390
F
  0
LAYER
  5
CF
330
2
100
AcDbSymbolTableRecord
100
AcDbLayerTableRecord
  2
Visible (ANSI)
 70
     0
 62
     7
  6
Continuous
370
    13
390
F
  0
LAYER
  5
160
330
2
100
AcDbSymbolTableRecord
100
AcDbLayerTableRecord
  2
Defpoints
 70
     0
 62
     7
  6
Continuous
290
     0
370
    -3
390
F
  0
ENDTAB
  0
TABLE
  2
STYLE
  5
3
330
0
100
AcDbSymbolTable
 70
    17
  0
STYLE
  5
55
330
3
100
AcDbSymbolTableRecord
100
AcDbTextStyleTableRecord
  2
Standard
 70
     0
 40
0.0
 41
1.0
 50
0.0
 71
     0
 42
0.2
  3
txt
  4

  0
STYLE
  5
5A
330
3
100
AcDbSymbolTableRecord
100
AcDbTextStyleTableRecord
  2
Annotative
 70
     0
 40
0.0
 41
1.0
 50
0.0
 71
     0
 42
0.2
  3
txt
  4

1001
AcadAnnotative
1000
AnnotativeData
1002
{
1070
     1
1070
     1
1002
}
  0
STYLE
  5
B2
330
3
100
AcDbSymbolTableRecord
100
AcDbTextStyleTableRecord
  2

 70
     1
 40
0.0
 41
1.0
 50
0.0
 71
     0
 42
0.2
  3
ltypeshp.shx
  4

  0
STYLE
  5
D4
330
3
100
AcDbSymbolTableRecord
100
AcDbTextStyleTableRecord
  2
ITALICC_120
 70
     0
 40
0.0
 41
1.0
 50
0.0
 71
     0
 42
0.2
  3
italicc.shx
  4

  0
STYLE
  5
D5
330
3
100
AcDbSymbolTableRecord
100
AcDbTextStyleTableRecord
  2
Label Text (ANSI)
 70
     0
 40
0.0
 41
1.0
 50
0.0
 71
     0
 42
0.2
  3
RomanS.shx
  4

  0
STYLE
  5
D6
330
3
100
AcDbSymbolTableRecord
100
AcDbTextStyleTableRecord
  2
Note Text (ANSI)
 70
     0
 40
0.0
 41
1.0
 50
0.0
 71
     0
 42
0.2
  3
RomanS.shx
  4

  0
STYLE
  5
D7
330
3
100
AcDbSymbolTableRecord
100
AcDbTextStyleTableRecord
  2
ROMANS
 70
     0
 40
0.0
 41
1.0
 50
0.0
 71
     0
 42
0.2
  3
romans.shx
  4

  0
STYLE
  5
D8
330
3
100
AcDbSymbolTableRecord
100
AcDbTextStyleTableRecord
  2
SANSSERIF_114
 70
     0
 40
0.0
 41
1.0
 50
0.0
 71
     0
 42
0.2
  3
TAHOMA.TTF
  4

1001
ACAD
1000
Tahoma
1071
      256
  0
STYLE
  5
D9
330
3
100
AcDbSymbolTableRecord
100
AcDbTextStyleTableRecord
  2
SANSSERIF_117
 70
     0
 40
0.0
 41
1.0
 50
0.0
 71
     0
 42
0.2
  3
TAHOMA.TTF
  4

1001
ACAD
1000
Tahoma
1071
      256
  0
STYLE
  5
DA
330
3
100
AcDbSymbolTableRecord
100
AcDbTextStyleTableRecord
  2
STANDARDAM_ANSI
 70
     0
 40
0.0
 41
1.0
 50
0.0
 71
     0
 42
0.2
  3
txt.shx
  4

  0
STYLE
  5
DB
330
3
100
AcDbSymbolTableRecord
100
AcDbTextStyleTableRecord
  2
StandardAM_ANSI$0
 70
     0
 40
0.0
 41
1.0
 50
0.0
 71
     0
 42
0.2
  3
txt.shx
  4

  0
STYLE
  5
DC
330
3
100
AcDbSymbolTableRecord
100
AcDbTextStyleTableRecord
  2
STANDARDAM_ANSI$3
 70
     0
 40
0.0
 41
1.0
 50
0.0
 71
     0
 42
0.2
  3
txt.shx
  4

  0
STYLE
  5
DD
330
3
100
AcDbSymbolTableRecord
100
AcDbTextStyleTableRecord
  2
STANDARDAM_ANSI$4
 70
     0
 40
0.0
 41
1.0
 50
0.0
 71
     0
 42
0.2
  3
txt.shx
  4

  0
STYLE
  5
DE
330
3
100
AcDbSymbolTableRecord
100
AcDbTextStyleTableRecord
  2
STANDARDAM_ANSI$7
 70
     0
 40
0.0
 41
1.0
 50
0.0
 71
     0
 42
0.2
  3
txt.shx
  4

  0
STYLE
  5
DF
330
3
100
AcDbSymbolTableRecord
100
AcDbTextStyleTableRecord
  2
STANDARDAM_ANSI$SF
 70
     0
 40
0.0
 41
1.0
 50
0.0
 71
     0
 42
0.2
  3
txt.shx
  4

  0
STYLE
  5
E0
330
3
100
AcDbSymbolTableRecord
100
AcDbTextStyleTableRecord
  2
STANDARDAM_ANSI$SH
 70
     0
 40
0.0
 41
1.0
 50
0.0
 71
     0
 42
0.2
  3
txt.shx
  4

  0
STYLE
  5
E1
330
3
100
AcDbSymbolTableRecord
100
AcDbTextStyleTableRecord
  2
STANDARDSTANDARD
 70
     0
 40
0.0
 41
1.0
 50
0.0
 71
     0
 42
0.2
  3
txt.shx
  4

  0
ENDTAB
  0
TABLE
  2
VIEW
  5
6
330
0
100
AcDbSymbolTable
 70
     0
  0
ENDTAB
  0
TABLE
  2
UCS
  5
7
330
0
100
AcDbSymbolTable
 70
     0
  0
ENDTAB
  0
TABLE
  2
APPID
  5
9
330
0
100
AcDbSymbolTable
 70
     4
  0
APPID
  5
56
330
9
100
AcDbSymbolTableRecord
100
AcDbRegAppTableRecord
  2
ACAD
 70
     0
  0
APPID
  5
5E
330
9
100
AcDbSymbolTableRecord
100
AcDbRegAppTableRecord
  2
AcadAnnotative
 70
     0
  0
APPID
  5
3CE
330
9
100
AcDbSymbolTableRecord
100
AcDbRegAppTableRecord
  2
ACAD_DSTYLE_DIMRADIAL_EXTENSION
 70
     0
  0
APPID
  5
C82
330
9
100
AcDbSymbolTableRecord
100
AcDbRegAppTableRecord
  2
ACAD_MLEADERVER
 70
     0
  0
ENDTAB
  0
TABLE
  2
DIMSTYLE
  5
A
330
0
100
AcDbSymbolTable
 70
    27
100
AcDbDimStyleTable
 71
     2
340
F6
340
58
  0
DIMSTYLE
105
58
330
A
100
AcDbSymbolTableRecord
100
AcDbDimStyleTableRecord
  2
STANDARD
 70
     0
 41
0.1800000071525573
 42
0.0625
140
0.1800000071525574
144
1.0
147
0.0900000035762787
176
   256
177
   256
178
   256
274
     3
340
55
371
    -1
372
    -1
  0
DIMSTYLE
105
59
330
A
100
AcDbSymbolTableRecord
100
AcDbDimStyleTableRecord
  2
Annotative
 70
     0
340
55
1001
AcadAnnotative
1000
AnnotativeData
1002
{
1070
     1
1070
     1
1002
}
  0
DIMSTYLE
105
E2
330
A
100
AcDbSymbolTableRecord
100
AcDbDimStyleTableRecord
  2
AM_ANSI
 70
     0
  4
 mm
 40
3.333333333333333
 41
0.119999997317791
 42
0.05
 43
0.5
 44
0.1
 45
0.00000001
 78
     4
 79
     2
140
0.1200000047683716
146
0.7099999453624112
147
0.0599999986588955
176
   256
177
   256
178
     2
284
     4
340
DA
371
    -1
372
    -1
  0
DIMSTYLE
105
E3
330
A
100
AcDbSymbolTableRecord
100
AcDbDimStyleTableRecord
  2
AM_ANSI$7
 70
     0
  4
 mm
 40
3.333333333333333
 41
0.119999997317791
 42
0.05
 43
0.5
 44
0.1
 45
0.00000001
 78
     4
 79
     2
140
0.1200000047683716
146
0.7099999453624112
147
0.0599999986588955
176
   256
177
   256
178
     2
284
     4
340
DA
371
    -1
372
    -1
  0
DIMSTYLE
105
E4
330
A
100
AcDbSymbolTableRecord
100
AcDbDimStyleTableRecord
  2
AM_ANSI$0
 70
     0
  4
 mm
 40
3.333333333333333
 41
0.119999997317791
 42
0.05
 43
0.5
 44
0.1
 45
0.00000001
 78
     4
 79
     2
140
0.1200000047683716
146
0.7099999453624112
147
0.0599999986588955
176
   256
177
   256
178
     2
284
     4
340
DB
371
    -1
372
    -1
  0
DIMSTYLE
105
E5
330
A
100
AcDbSymbolTableRecord
100
AcDbDimStyleTableRecord
  2
AM_ANSI$0$7
 70
     0
  4
 mm
 40
3.333333333333333
 41
0.119999997317791
 42
0.05
 43
0.5
 44
0.1
 45
0.00000001
 78
     4
 79
     2
140
0.1200000047683716
146
0.7099999453624112
147
0.0599999986588955
176
   256
177
   256
178
     2
284
     4
340
DB
371
    -1
372
    -1
  0
DIMSTYLE
105
E6
330
A
100
AcDbSymbolTableRecord
100
AcDbDimStyleTableRecord
  2
AM_ANSI$3
 70
     0
  4
 mm
 40
3.333333333333333
 41
0.119999997317791
 42
0.05
 43
0.5
 44
0.1
 45
0.00000001
 78
     4
 79
     2
140
0.1200000047683716
146
0.7099999453624112
147
0.0599999986588955
176
   256
177
   256
178
     2
284
     4
340
DC
371
    -1
372
    -1
  0
DIMSTYLE
105
E7
330
A
100
AcDbSymbolTableRecord
100
AcDbDimStyleTableRecord
  2
AM_ANSI$3$7
 70
     0
  4
 mm
 40
3.333333333333333
 41
0.119999997317791
 42
0.05
 43
0.5
 44
0.1
 45
0.00000001
 78
     4
 79
     2
140
0.1200000047683716
146
0.7099999453624112
147
0.0599999986588955
176
   256
177
   256
178
     2
284
     4
340
DC
371
    -1
372
    -1
  0
DIMSTYLE
105
E8
330
A
100
AcDbSymbolTableRecord
100
AcDbDimStyleTableRecord
  2
AM_ANSI$4
 70
     0
  4
 mm
 40
3.333333333333333
 41
0.119999997317791
 42
0.05
 43
0.5
 44
0.1
 45
0.00000001
 78
     4
 79
     2
140
0.1200000047683716
146
0.7099999453624112
147
0.0599999986588955
176
   256
177
   256
178
     2
284
     4
340
DD
371
    -1
372
    -1
  0
DIMSTYLE
105
E9
330
A
100
AcDbSymbolTableRecord
100
AcDbDimStyleTableRecord
  2
AM_ANSI$4$7
 70
     0
  4
 mm
 40
3.333333333333333
 41
0.119999997317791
 42
0.05
 43
0.5
 44
0.1
 45
0.00000001
 78
     4
 79
     2
140
0.1200000047683716
146
0.7099999453624112
147
0.0599999986588955
176
   256
177
   256
178
     2
284
     4
340
DD
371
    -1
372
    -1
  0
DIMSTYLE
105
EA
330
A
100
AcDbSymbolTableRecord
100
AcDbDimStyleTableRecord
  2
AM_ANSI$SF
 70
     0
  4
 mm
 40
3.333333333333333
 41
0.119999997317791
 42
0.05
 43
0.5
 44
0.1
 45
0.00000001
 75
     1
 76
     1
 78
     4
 79
     2
140
0.1200000047683716
146
0.7099999453624112
147
0.0599999986588955
176
   256
177
   256
178
     2
284
     4
340
DF
371
    -1
372
    -1
  0
DIMSTYLE
105
EB
330
A
100
AcDbSymbolTableRecord
100
AcDbDimStyleTableRecord
  2
AM_ANSI$SF$7
 70
     0
  4
 mm
 40
3.333333333333333
 41
0.119999997317791
 42
0.05
 43
0.5
 44
0.1
 45
0.00000001
 75
     1
 76
     1
 78
     4
 79
     2
140
0.1200000047683716
146
0.7099999453624112
147
0.0599999986588955
176
   256
177
   256
178
     2
284
     4
340
DF
371
    -1
372
    -1
  0
DIMSTYLE
105
EC
330
A
100
AcDbSymbolTableRecord
100
AcDbDimStyleTableRecord
  2
AM_ANSI$SH
 70
     0
  4
 mm
 40
3.333333333333333
 41
0.119999997317791
 42
0.05
 43
0.5
 44
0.1
 45
0.00000001
 75
     1
 76
     1
 78
     4
 79
     2
140
0.1200000047683716
146
0.7099999453624112
147
0.0599999986588955
176
   256
177
   256
178
     2
284
     4
340
E0
371
    -1
372
    -1
  0
DIMSTYLE
105
ED
330
A
100
AcDbSymbolTableRecord
100
AcDbDimStyleTableRecord
  2
AM_ANSI$SH$7
 70
     0
  4
 mm
 40
3.333333333333333
 41
0.119999997317791
 42
0.05
 43
0.5
 44
0.1
 45
0.00000001
 75
     1
 76
     1
 78
     4
 79
     2
140
0.1200000047683716
146
0.7099999453624112
147
0.0599999986588955
176
   256
177
   256
178
     2
284
     4
340
E0
371
    -1
372
    -1
  0
DIMSTYLE
105
EE
330
A
100
AcDbSymbolTableRecord
100
AcDbDimStyleTableRecord
  2
Architectural (ANSI)
 70
     0
 40
3.333333333333333
 41
0.0984251946210861
 43
0.2362204724409449
 44
0.125
 45
0.00000001
 46
0.3937007874015748
 78
     3
 79
     3
140
0.1200000047683716
147
0.031496062992126
171
     1
176
   256
177
   256
178
   256
272
     2
274
     1
276
     2
277
     4
284
    12
285
     4
286
    12
340
D6
371
    -1
372
    -1
  0
DIMSTYLE
105
EF
330
A
100
AcDbSymbolTableRecord
100
AcDbDimStyleTableRecord
  2
Architectural (ANSI)$7
 70
     0
 40
3.333333333333333
 41
0.0984251946210861
 43
0.2362204724409449
 44
0.125
 45
0.00000001
 46
0.3937007874015748
 78
     3
 79
     3
140
0.1200000047683716
147
0.031496062992126
171
     1
176
   256
177
   256
178
   256
272
     2
274
     1
276
     2
277
     4
284
    12
285
     4
286
    12
340
D6
371
    -1
372
    -1
  0
DIMSTYLE
105
F0
330
A
100
AcDbSymbolTableRecord
100
AcDbDimStyleTableRecord
  2
Default - Fraction (ANSI)
 70
     0
 40
3.333333333333333
 41
0.0984251946210861
 43
0.2362204724409449
 44
0.125
 45
0.00000001
 46
0.3937007874015748
 79
     3
140
0.1200000047683716
147
0.031496062992126
171
     1
176
   256
177
   256
178
   256
272
     2
274
     1
276
     2
277
     5
284
    12
285
     4
286
    12
340
D6
371
    -1
372
    -1
  0
DIMSTYLE
105
F1
330
A
100
AcDbSymbolTableRecord
100
AcDbDimStyleTableRecord
  2
Default - Fraction (ANSI)$7
 70
     0
 40
3.333333333333333
 41
0.0984251946210861
 43
0.2362204724409449
 44
0.125
 45
0.00000001
 46
0.3937007874015748
 79
     3
140
0.1200000047683716
147
0.031496062992126
171
     1
176
   256
177
   256
178
   256
272
     2
274
     1
276
     2
277
     5
284
    12
285
     4
286
    12
340
D6
371
    -1
372
    -1
  0
DIMSTYLE
105
F2
330
A
100
AcDbSymbolTableRecord
100
AcDbDimStyleTableRecord
  2
Default - mm (ANSI)
 70
     0
 40
3.333333333333333
 41
0.0984251946210861
 42
0.063
 43
0.2362204724409449
 44
0.125
 45
0.00000001
 46
0.3937007874015748
 73
     0
 78
     4
 79
     1
140
0.1200000047683716
143
1.0
144
25.4
147
0.031496062992126
171
     1
176
   256
177
   256
178
   256
179
     1
271
     2
272
     2
274
     1
284
     4
285
     4
340
D6
371
    -1
372
    -1
  0
DIMSTYLE
105
F3
330
A
100
AcDbSymbolTableRecord
100
AcDbDimStyleTableRecord
  2
Default - mm (ANSI)$7
 70
     0
 40
3.333333333333333
 41
0.0984251946210861
 42
0.063
 43
0.2362204724409449
 44
0.125
 45
0.00000001
 46
0.3937007874015748
 73
     0
 78
     4
 79
     1
140
0.1200000047683716
143
1.0
144
25.4
147
0.031496062992126
171
     1
176
   256
177
   256
178
   256
179
     1
271
     2
272
     2
274
     1
284
     4
285
     4
340
D6
371
    -1
372
    -1
  0
DIMSTYLE
105
F4
330
A
100
AcDbSymbolTableRecord
100
AcDbDimStyleTableRecord
  2
Default - mm [in] (ANSI)
 70
     0
  4
 in
 40
3.333333333333333
 41
0.0984251946210861
 42
0.063
 43
0.25
 44
0.125
 45
0.00000001
 46
0.3937007874015748
 73
     0
 78
     4
 79
     1
140
0.1200000047683716
143
0.03937
144
25.4
147
0.031496062992126
170
     1
171
     3
176
   256
177
   256
178
   256
179
     1
271
     2
272
     2
274
     3
284
     4
285
     4
286
     4
340
D6
371
    -1
372
    -1
  0
DIMSTYLE
105
F5
330
A
100
AcDbSymbolTableRecord
100
AcDbDimStyleTableRecord
  2
Default - mm [in] (ANSI)$7
 70
     0
  4
 in
 40
3.333333333333333
 41
0.0984251946210861
 42
0.063
 43
0.25
 44
0.125
 45
0.00000001
 46
0.3937007874015748
 73
     0
 78
     4
 79
     1
140
0.1200000047683716
143
0.03937
144
25.4
147
0.031496062992126
170
     1
171
     3
176
   256
177
   256
178
   256
179
     1
271
     2
272
     2
274
     3
284
     4
285
     4
286
     4
340
D6
371
    -1
372
    -1
  0
DIMSTYLE
105
F6
102
{ACAD_REACTORS
330
15E
330
24B
330
335
330
3EF
330
4A8
330
597
330
681
330
780
330
86A
330
968
330
A52
330
B3C
102
}
330
A
100
AcDbSymbolTableRecord
100
AcDbDimStyleTableRecord
  2
Default (ANSI)
 70
     0
 40
3.333333333333333
 41
0.0984251946210861
 43
0.2362204724409449
 44
0.125
 45
0.00000001
 46
0.3937007874015748
 79
     1
140
0.1200000047683716
147
0.031496062992126
171
     1
176
   256
177
   256
178
   256
271
     3
272
     2
274
     1
284
     4
285
     4
340
D6
371
    -1
372
    -1
  0
DIMSTYLE
105
F7
330
A
100
AcDbSymbolTableRecord
100
AcDbDimStyleTableRecord
  2
Default (ANSI)$7
 70
     0
 40
3.333333333333333
 41
0.0984251946210861
 43
0.2362204724409449
 44
0.125
 45
0.00000001
 46
0.3937007874015748
 79
     1
140
0.1200000047683716
147
0.031496062992126
171
     1
176
   256
177
   256
178
   256
271
     3
272
     2
274
     1
284
     4
285
     4
340
D6
371
    -1
372
    -1
  0
DIMSTYLE
105
F8
330
A
100
AcDbSymbolTableRecord
100
AcDbDimStyleTableRecord
  2
Alternate (ANSI)
 70
     0
 40
3.333333333333333
 41
0.0979999974370003
340
55
342
F9
  0
DIMSTYLE
105
10B
330
A
100
AcDbSymbolTableRecord
100
AcDbDimStyleTableRecord
  2
Datum (ANSI)
 70
     0
 40
3.333333333333333
 41
0.0979999974370003
340
55
342
F9
  0
DIMSTYLE
105
11A
330
A
100
AcDbSymbolTableRecord
100
AcDbDimStyleTableRecord
  2
Large (ANSI)
 70
     0
 40
3.333333333333333
 41
0.1959999948740005
340
55
342
F9
  0
ENDTAB
  0
TABLE
  2
BLOCK_RECORD
  5
1
330
0
100
AcDbSymbolTable
 70
    16
  0
BLOCK_RECORD
  5
6C
330
1
100
AcDbSymbolTableRecord
100
AcDbBlockTableRecord
  2
*Model_Space
340
6F
  0
BLOCK_RECORD
  5
68
330
1
100
AcDbSymbolTableRecord
100
AcDbBlockTableRecord
  2
*Paper_Space
340
6B
  0
BLOCK_RECORD
  5
70
330
1
100
AcDbSymbolTableRecord
100
AcDbBlockTableRecord
  2
*Paper_Space0
340
73
  0
BLOCK_RECORD
  5
F9
330
1
100
AcDbSymbolTableRecord
100
AcDbBlockTableRecord
  2
_Closed
340
0
  0
BLOCK_RECORD
  5
100
330
1
100
AcDbSymbolTableRecord
100
AcDbBlockTableRecord
  2
DatumFilled45
340
0
  0
BLOCK_RECORD
  5
10C
330
1
100
AcDbSymbolTableRecord
100
AcDbBlockTableRecord
  2
Filled-1
340
0
  0
BLOCK_RECORD
  5
161
330
1
100
AcDbSymbolTableRecord
100
AcDbBlockTableRecord
  2
*D4
340
0
  0
BLOCK_RECORD
  5
24C
330
1
100
AcDbSymbolTableRecord
100
AcDbBlockTableRecord
  2
*D5
340
0
  0
BLOCK_RECORD
  5
336
330
1
100
AcDbSymbolTableRecord
100
AcDbBlockTableRecord
  2
*D6
340
0
  0
BLOCK_RECORD
  5
3F0
330
1
100
AcDbSymbolTableRecord
100
AcDbBlockTableRecord
  2
*D7
340
0
  0
BLOCK_RECORD
  5
4A9
330
1
100
AcDbSymbolTableRecord
100
AcDbBlockTableRecord
  2
*D8
340
0
  0
BLOCK_RECORD
  5
598
330
1
100
AcDbSymbolTableRecord
100
AcDbBlockTableRecord
  2
*D9
340
0
  0
BLOCK_RECORD
  5
682
330
1
100
AcDbSymbolTableRecord
100
AcDbBlockTableRecord
  2
*D10
340
0
  0
BLOCK_RECORD
  5
781
330
1
100
AcDbSymbolTableRecord
100
AcDbBlockTableRecord
  2
*D11
340
0
  0
BLOCK_RECORD
  5
86B
330
1
100
AcDbSymbolTableRecord
100
AcDbBlockTableRecord
  2
*D12
340
0
  0
BLOCK_RECORD
  5
969
330
1
100
AcDbSymbolTableRecord
100
AcDbBlockTableRecord
  2
*D13
340
0
  0
BLOCK_RECORD
  5
A53
330
1
100
AcDbSymbolTableRecord
100
AcDbBlockTableRecord
  2
*D14
340
0
  0
BLOCK_RECORD
  5
B3D
330
1
100
AcDbSymbolTableRecord
100
AcDbBlockTableRecord
  2
*D15
340
0
  0
ENDTAB
  0
ENDSEC
  0
SECTION
  2
BLOCKS
  0
BLOCK
  5
6D
330
6C
100
AcDbEntity
  8
0
100
AcDbBlockBegin
  2
*Model_Space
 70
     0
 10
0.0
 20
0.0
 30
0.0
  3
*Model_Space
  1

  0
ENDBLK
  5
6E
330
6C
100
AcDbEntity
  8
0
100
AcDbBlockEnd
  0
BLOCK
  5
69
330
68
100
AcDbEntity
 67
     1
  8
0
100
AcDbBlockBegin
  2
*Paper_Space
 70
     0
 10
0.0
 20
0.0
 30
0.0
  3
*Paper_Space
  1

  0
ENDBLK
  5
6A
330
68
100
AcDbEntity
 67
     1
  8
0
100
AcDbBlockEnd
  0
BLOCK
  5
71
330
70
100
AcDbEntity
 67
     1
  8
0
100
AcDbBlockBegin
  2
*Paper_Space0
 70
     0
 10
0.0
 20
0.0
 30
0.0
  3
*Paper_Space0
  1

  0
ENDBLK
  5
72
330
70
100
AcDbEntity
 67
     1
  8
0
100
AcDbBlockEnd
  0
BLOCK
  5
FE
330
F9
100
AcDbEntity
  8
0
100
AcDbBlockBegin
  2
_Closed
 70
     0
 10
0.0
 20
0.0
 30
0.0
  3
_Closed
  1

  0
LINE
  5
FA
330
F9
100
AcDbEntity
  8
0
  6
ByBlock
 62
     0
370
    -2
100
AcDbLine
 10
-1.0
 20
0.1666666666666666
 30
0.0
 11
0.0
 21
0.0
 31
0.0
  0
LINE
  5
FB
330
F9
100
AcDbEntity
  8
0
  6
ByBlock
 62
     0
370
    -2
100
AcDbLine
 10
0.0
 20
0.0
 30
0.0
 11
-1.0
 21
-0.1666666666666666
 31
0.0
  0
LINE
  5
FC
330
F9
100
AcDbEntity
  8
0
  6
ByBlock
 62
     0
370
    -2
100
AcDbLine
 10
-1.0
 20
0.1666666666666666
 30
0.0
 11
-1.0
 21
-0.1666666666666666
 31
0.0
  0
LINE
  5
FD
330
F9
100
AcDbEntity
  8
0
  6
ByBlock
 62
     0
370
    -2
100
AcDbLine
 10
0.0
 20
0.0
 30
0.0
 11
-1.0
 21
0.0
 31
0.0
  0
ENDBLK
  5
FF
330
F9
100
AcDbEntity
  8
0
100
AcDbBlockEnd
  0
BLOCK
  5
101
330
100
100
AcDbEntity
  8
0
100
AcDbBlockBegin
  2
DatumFilled45
 70
     0
 10
0.0
 20
0.0
 30
0.0
  3
DatumFilled45
  1

  0
POLYLINE
  5
103
330
100
100
AcDbEntity
  8
0
 62
     0
100
AcDb2dPolyline
 66
     1
 10
0.0
 20
0.0
 30
0.0
 70
   128
  0
VERTEX
  5
104
330
103
100
AcDbEntity
  8
0
 62
     0
100
AcDbVertex
100
AcDb2dVertex
 10
0.0
 20
0.9999999999999998
 30
0.0
  0
VERTEX
  5
105
330
103
100
AcDbEntity
  8
0
 62
     0
100
AcDbVertex
100
AcDb2dVertex
 10
0.0
 20
-0.9999999999999998
 30
0.0
  0
VERTEX
  5
107
330
103
100
AcDbEntity
  8
0
 62
     0
100
AcDbVertex
100
AcDb2dVertex
 10
-0.9999999999999998
 20
0.0
 30
0.0
  0
VERTEX
  5
108
330
103
100
AcDbEntity
  8
0
 62
     0
100
AcDbVertex
100
AcDb2dVertex
 10
0.0
 20
0.9999999999999998
 30
0.0
  0
SEQEND
  5
106
330
103
100
AcDbEntity
  8
0
 62
     0
  0
SOLID
  5
10A
330
100
100
AcDbEntity
  8
0
 62
     0
100
AcDbTrace
 10
0.0
 20
0.9999999999999998
 30
0.0
 11
0.0
 21
-0.9999999999999998
 31
0.0
 12
-0.9999999999999998
 22
0.0
 32
0.0
 13
0.0
 23
0.9999999999999998
 33
0.0
  0
ENDBLK
  5
102
330
100
100
AcDbEntity
  8
0
100
AcDbBlockEnd
  0
BLOCK
  5
10D
330
10C
100
AcDbEntity
  8
0
100
AcDbBlockBegin
  2
Filled-1
 70
     0
 10
0.0
 20
0.0
 30
0.0
  3
Filled-1
  1

  0
LINE
  5
10F
330
10C
100
AcDbEntity
  8
0
 62
     0
100
AcDbLine
 10
-0.9999999999999998
 20
0.0
 30
0.0
 11
0.0
 21
0.0
 31
0.0
  0
POLYLINE
  5
110
330
10C
100
AcDbEntity
  8
0
 62
     0
100
AcDb2dPolyline
 66
     1
 10
0.0
 20
0.0
 30
0.0
 70
   128
  0
VERTEX
  5
111
330
110
100
AcDbEntity
  8
0
 62
     0
100
AcDbVertex
100
AcDb2dVertex
 10
-0.9999999999999998
 20
-0.0994897959183674
 30
0.0
  0
VERTEX
  5
112
330
110
100
AcDbEntity
  8
0
 62
     0
100
AcDbVertex
100
AcDb2dVertex
 10
0.0
 20
0.0
 30
0.0
  0
VERTEX
  5
114
330
110
100
AcDbEntity
  8
0
 62
     0
100
AcDbVertex
100
AcDb2dVertex
 10
-0.9999999999999998
 20
0.0994897959183674
 30
0.0
  0
VERTEX
  5
115
330
110
100
AcDbEntity
  8
0
 62
     0
100
AcDbVertex
100
AcDb2dVertex
 10
-0.9999999999999998
 20
-0.0994897959183674
 30
0.0
  0
SEQEND
  5
113
330
110
100
AcDbEntity
  8
0
 62
     0
  0
SOLID
  5
116
330
10C
100
AcDbEntity
  8
0
 62
     0
100
AcDbTrace
 10
-0.9999999999999998
 20
-0.0994897959183674
 30
0.0
 11
0.0
 21
0.0
 31
0.0
 12
-0.9999999999999998
 22
0.0994897959183674
 32
0.0
 13
-0.9999999999999998
 23
-0.0994897959183674
 33
0.0
  0
LINE
  5
117
330
10C
100
AcDbEntity
  8
0
 62
     0
100
AcDbLine
 10
-0.9999999999999998
 20
-0.0994897959183674
 30
0.0
 11
0.0
 21
0.0
 31
0.0
  0
LINE
  5
118
330
10C
100
AcDbEntity
  8
0
 62
     0
100
AcDbLine
 10
0.0
 20
0.0
 30
0.0
 11
-0.9999999999999998
 21
0.0994897959183674
 31
0.0
  0
LINE
  5
119
330
10C
100
AcDbEntity
  8
0
 62
     0
100
AcDbLine
 10
-0.9999999999999998
 20
0.0994897959183674
 30
0.0
 11
-0.9999999999999998
 21
-0.0994897959183674
 31
0.0
  0
ENDBLK
  5
10E
330
10C
100
AcDbEntity
  8
0
100
AcDbBlockEnd
  0
BLOCK
  5
162
330
161
100
AcDbEntity
  8
0
100
AcDbBlockBegin
  2
*D4
 70
     1
 10
0.0
 20
0.0
 30
0.0
  3
*D4
  1

  0
LINE
  5
241
330
161
100
AcDbEntity
  8
Dimension (ANSI)
100
AcDbLine
 10
27.87586815241026
 20
29.29720347419239
 30
0.0
 11
27.87586815241026
 21
33.91498562642336
 31
0.0
  0
LINE
  5
242
330
161
100
AcDbEntity
  8
Dimension (ANSI)
100
AcDbLine
 10
9.675868152410261
 20
29.29720347419239
 30
0.0
 11
9.675868152410261
 21
33.91498562642336
 31
0.0
  0
LINE
  5
243
330
161
100
AcDbEntity
  8
Dimension (ANSI)
100
AcDbLine
 10
27.54778417033998
 20
33.4983189597567
 30
0.0
 11
19.8427598291781
 21
33.4983189597567
 31
0.0
  0
LINE
  5
244
330
161
100
AcDbEntity
  8
Dimension (ANSI)
100
AcDbLine
 10
10.00395213448055
 20
33.4983189597567
 30
0.0
 11
17.70897647564242
 21
33.4983189597567
 31
0.0
  0
SOLID
  5
245
330
161
100
AcDbEntity
  8
Dimension (ANSI)
100
AcDbTrace
 10
27.54778417033998
 20
33.55299962343508
 30
0.0
 11
27.54778417033998
 21
33.44363829607831
 31
0.0
 12
27.87586815241026
 22
33.4983189597567
 32
0.0
 13
27.87586815241026
 23
33.4983189597567
 33
0.0
  0
SOLID
  5
246
330
161
100
AcDbEntity
  8
Dimension (ANSI)
100
AcDbTrace
 10
10.00395213448055
 20
33.55299962343508
 30
0.0
 11
10.00395213448055
 21
33.44363829607831
 31
0.0
 12
9.675868152410261
 22
33.4983189597567
 32
0.0
 13
9.675868152410261
 23
33.4983189597567
 33
0.0
  0
MTEXT
  5
247
330
161
100
AcDbEntity
  8
Dimension (ANSI)
100
AcDbMText
 10
17.81396335228284
 20
33.69831896770398
 30
0.0
 40
0.400000015894572
 41
0.0
 71
     1
 72
     1
  1
\A1;18.200
  7
Note Text (ANSI)
 73
     1
 44
1.0
1001
ACAD
1000
MTEXTBEGIN
1070
    73
1070
     1
1070
    44
1040
1.0
1070
    74
1070
     0
1000
MTEXTEND
  0
POINT
  5
248
330
161
100
AcDbEntity
  8
Defpoints
 62
     0
100
AcDbPoint
 10
27.87586815241026
 20
29.08887014085906
 30
0.0
  0
POINT
  5
249
330
161
100
AcDbEntity
  8
Defpoints
 62
     0
100
AcDbPoint
 10
9.675868152410261
 20
29.08887014085906
 30
0.0
  0
POINT
  5
24A
330
161
100
AcDbEntity
  8
Defpoints
 62
     0
100
AcDbPoint
 10
9.675868152410261
 20
33.4983189597567
 30
0.0
  0
ENDBLK
  5
163
330
161
100
AcDbEntity
  8
0
100
AcDbBlockEnd
  0
BLOCK
  5
24D
330
24C
100
AcDbEntity
  8
0
100
AcDbBlockBegin
  2
*D5
 70
     1
 10
0.0
 20
0.0
 30
0.0
  3
*D5
  1

  0
LINE
  5
32B
330
24C
100
AcDbEntity
  8
Dimension (ANSI)
100
AcDbLine
 10
9.967534819076929
 20
29.58887014085906
 30
0.0
 11
2.93505450411631
 21
29.58887014085906
 31
0.0
  0
LINE
  5
32C
330
24C
100
AcDbEntity
  8
Dimension (ANSI)
100
AcDbLine
 10
9.967534819076934
 20
11.38887014085906
 30
0.0
 11
2.935054504116306
 21
11.38887014085906
 31
0.0
  0
LINE
  5
32D
330
24C
100
AcDbEntity
  8
Dimension (ANSI)
100
AcDbLine
 10
3.351721170782978
 20
29.26078615878878
 30
0.0
 11
3.351721170782976
 21
20.79385702544676
 31
0.0
  0
LINE
  5
32E
330
24C
100
AcDbEntity
  8
Dimension (ANSI)
100
AcDbLine
 10
3.351721170782974
 20
11.71695412292935
 30
0.0
 11
3.351721170782976
 21
20.18388325627135
 31
0.0
  0
SOLID
  5
32F
330
24C
100
AcDbEntity
  8
Dimension (ANSI)
100
AcDbTrace
 10
3.297040507104597
 20
29.26078615878878
 30
0.0
 11
3.406401834461359
 21
29.26078615878878
 31
0.0
 12
3.351721170782978
 22
29.58887014085906
 32
0.0
 13
3.351721170782978
 23
29.58887014085906
 33
0.0
  0
SOLID
  5
330
330
24C
100
AcDbEntity
  8
Dimension (ANSI)
100
AcDbTrace
 10
3.297040507104593
 20
11.71695412292935
 30
0.0
 11
3.406401834461355
 21
11.71695412292935
 31
0.0
 12
3.351721170782974
 22
11.38887014085906
 32
0.0
 13
3.351721170782974
 23
11.38887014085906
 33
0.0
  0
MTEXT
  5
331
330
24C
100
AcDbEntity
  8
Dimension (ANSI)
100
AcDbMText
 10
2.38981637065555
 20
20.68887014880634
 30
0.0
 40
0.400000015894572
 41
0.0
 71
     1
 72
     1
  1
\A1;18.200
  7
Note Text (ANSI)
 73
     1
 44
1.0
1001
ACAD
1000
MTEXTBEGIN
1070
    73
1070
     1
1070
    44
1040
1.0
1070
    74
1070
     0
1000
MTEXTEND
  0
POINT
  5
332
330
24C
100
AcDbEntity
  8
Defpoints
 62
     0
100
AcDbPoint
 10
10.17586815241026
 20
29.58887014085906
 30
0.0
  0
POINT
  5
333
330
24C
100
AcDbEntity
  8
Defpoints
 62
     0
100
AcDbPoint
 10
10.17586815241027
 20
11.38887014085906
 30
0.0
  0
POINT
  5
334
330
24C
100
AcDbEntity
  8
Defpoints
 62
     0
100
AcDbPoint
 10
3.351721170782974
 20
11.38887014085906
 30
0.0
  0
ENDBLK
  5
24E
330
24C
100
AcDbEntity
  8
0
100
AcDbBlockEnd
  0
BLOCK
  5
337
330
336
100
AcDbEntity
  8
0
100
AcDbBlockBegin
  2
*D6
 70
     1
 10
0.0
 20
0.0
 30
0.0
  3
*D6
  1

  0
LINE
  5
3E7
330
336
100
AcDbEntity
  8
Dimension (ANSI)
100
AcDbLine
 10
13.06451643842029
 20
6.897118873890458
 30
0.0
 11
12.59055546737472
 21
6.897118873890458
 31
0.0
  0
LINE
  5
3E8
330
336
100
AcDbEntity
  8
Dimension (ANSI)
100
AcDbLine
 10
12.59055546737472
 20
6.897118873890458
 30
0.0
 11
10.44509615371024
 21
11.38727020441901
 31
0.0
  0
MTEXT
  5
3E9
102
{ACAD_XDICTIONARY
360
C89
102
}
330
336
100
AcDbEntity
  8
Dimension (ANSI)
100
AcDbMText
 10
13.16950331506071
 20
7.216166505615889
 30
0.0
 40
0.400000015894572
 41
0.0
 71
     1
 72
     1
  1
\A1;\U+22050.500{\PTYP.(4PL.)}
  7
Note Text (ANSI)
 73
     1
 44
1.0
1001
ACAD
1000
MTEXTBEGIN
1070
    73
1070
     1
1070
    44
1040
1.0
1070
    74
1070
     0
1000
MTEXTEND
  0
SOLID
  5
3EA
330
336
100
AcDbEntity
  8
Dimension (ANSI)
100
AcDbTrace
 10
10.49443402084332
 20
11.41084455164364
 30
0.0
 11
10.39575828657717
 21
11.36369585719439
 31
0.0
 12
10.30365007036249
 22
11.68329740721747
 32
0.0
 13
10.30365007036249
 23
11.68329740721747
 33
0.0
  0
LINE
  5
3EB
330
336
100
AcDbEntity
  8
Dimension (ANSI)
100
AcDbLine
 10
9.895868152410264
 20
11.90887014085906
 30
0.0
 11
10.49586815241026
 21
11.90887014085906
 31
0.0
  0
LINE
  5
3EC
330
336
100
AcDbEntity
  8
Dimension (ANSI)
100
AcDbLine
 10
10.19586815241027
 20
11.60887014085905
 30
0.0
 11
10.19586815241027
 21
12.20887014085906
 31
0.0
  0
POINT
  5
3ED
330
336
100
AcDbEntity
  8
Defpoints
 62
     0
100
AcDbPoint
 10
10.30365007036249
 20
11.68329740721747
 30
0.0
  0
POINT
  5
3EE
330
336
100
AcDbEntity
  8
Defpoints
 62
     0
100
AcDbPoint
 10
10.08808623445804
 20
12.13444287450064
 30
0.0
  0
ENDBLK
  5
338
330
336
100
AcDbEntity
  8
0
100
AcDbBlockEnd
  0
BLOCK
  5
3F1
330
3F0
100
AcDbEntity
  8
0
100
AcDbBlockBegin
  2
*D7
 70
     1
 10
0.0
 20
0.0
 30
0.0
  3
*D7
  1

  0
LINE
  5
4A0
330
3F0
100
AcDbEntity
  8
Dimension (ANSI)
100
AcDbLine
 10
13.0645163377913
 20
9.541471534712632
 30
0.0
 11
12.59055536674566
 21
9.541471534712634
 31
0.0
  0
LINE
  5
4A1
330
3F0
100
AcDbEntity
  8
Dimension (ANSI)
100
AcDbLine
 10
12.59055536674566
 20
9.541471534712634
 30
0.0
 11
10.49091537929355
 21
12.2747783027571
 31
0.0
  0
MTEXT
  5
4A2
102
{ACAD_XDICTIONARY
360
C8B
102
}
330
3F0
100
AcDbEntity
  8
Dimension (ANSI)
100
AcDbMText
 10
13.16950321443172
 20
9.860519166438065
 30
0.0
 40
0.400000015894572
 41
0.0
 71
     1
 72
     1
  1
\A1;\U+22050.313{\PTYP.(4PL.)}
  7
Note Text (ANSI)
 73
     1
 44
1.0
1001
ACAD
1000
MTEXTBEGIN
1070
    73
1070
     1
1070
    44
1040
1.0
1070
    74
1070
     0
1000
MTEXTEND
  0
SOLID
  5
4A3
330
3F0
100
AcDbEntity
  8
Dimension (ANSI)
100
AcDbTrace
 10
10.53427883797776
 20
12.30808874303115
 30
0.0
 11
10.44755192060934
 21
12.24146786248305
 31
0.0
 12
10.29105273764926
 22
12.53495905486237
 32
0.0
 13
10.29105273764926
 23
12.53495905486237
 33
0.0
  0
LINE
  5
4A4
330
3F0
100
AcDbEntity
  8
Dimension (ANSI)
100
AcDbLine
 10
9.895868152410265
 20
12.65887014085906
 30
0.0
 11
10.49586815241027
 21
12.65887014085906
 31
0.0
  0
LINE
  5
4A5
330
3F0
100
AcDbEntity
  8
Dimension (ANSI)
100
AcDbLine
 10
10.19586815241027
 20
12.35887014085906
 30
0.0
 11
10.19586815241026
 21
12.95887014085906
 31
0.0
  0
POINT
  5
4A6
330
3F0
100
AcDbEntity
  8
Defpoints
 62
     0
100
AcDbPoint
 10
10.29105273764926
 20
12.53495905486237
 30
0.0
  0
POINT
  5
4A7
330
3F0
100
AcDbEntity
  8
Defpoints
 62
     0
100
AcDbPoint
 10
10.10068356717126
 20
12.78278122685575
 30
0.0
  0
ENDBLK
  5
3F2
330
3F0
100
AcDbEntity
  8
0
100
AcDbBlockEnd
  0
BLOCK
  5
4AA
330
4A9
100
AcDbEntity
  8
0
100
AcDbBlockBegin
  2
*D8
 70
     1
 10
0.0
 20
0.0
 30
0.0
  3
*D8
  1

  0
LINE
  5
58F
330
4A9
100
AcDbEntity
  8
Dimension (ANSI)
100
AcDbLine
 10
35.59915178097937
 20
14.54572732049526
 30
0.0
 11
35.27106779890909
 21
14.54572732049526
 31
0.0
  0
LINE
  5
590
330
4A9
100
AcDbEntity
  8
Dimension (ANSI)
100
AcDbLine
 10
36.34906974511995
 20
14.54572732049526
 30
0.0
 11
37.04365676941794
 21
14.54572732049526
 31
0.0
  0
SOLID
  5
591
330
4A9
100
AcDbEntity
  8
Dimension (ANSI)
100
AcDbTrace
 10
35.59915178097937
 20
14.60040798417364
 30
0.0
 11
35.59915178097937
 21
14.49104665681688
 31
0.0
 12
35.92723576304966
 22
14.54572732049526
 32
0.0
 13
35.92723576304966
 23
14.54572732049526
 33
0.0
  0
SOLID
  5
592
330
4A9
100
AcDbEntity
  8
Dimension (ANSI)
100
AcDbTrace
 10
36.34906974511995
 20
14.60040798417364
 30
0.0
 11
36.34906974511995
 21
14.49104665681688
 31
0.0
 12
36.02098576304966
 22
14.54572732049526
 32
0.0
 13
36.02098576304966
 23
14.54572732049526
 33
0.0
  0
MTEXT
  5
593
330
4A9
100
AcDbEntity
  8
Dimension (ANSI)
100
AcDbMText
 10
37.14864364605836
 20
14.81239399775831
 30
0.0
 40
0.400000015894572
 41
0.0
 71
     1
 72
     1
  1
\A1; 12 GA.\P304 SS
  7
Note Text (ANSI)
 73
     1
 44
1.0
1001
ACAD
1000
MTEXTBEGIN
1070
    73
1070
     1
1070
    44
1040
1.0
1070
    74
1070
     0
1000
MTEXTEND
  0
POINT
  5
594
330
4A9
100
AcDbEntity
  8
Defpoints
 62
     0
100
AcDbPoint
 10
35.92723576304966
 20
22.86265966505579
 30
0.0
  0
POINT
  5
595
330
4A9
100
AcDbEntity
  8
Defpoints
 62
     0
100
AcDbPoint
 10
36.02098576304966
 20
22.86265966505579
 30
0.0
  0
POINT
  5
596
330
4A9
100
AcDbEntity
  8
Defpoints
 62
     0
100
AcDbPoint
 10
36.02098576304966
 20
14.54572732049526
 30
0.0
  0
ENDBLK
  5
4AB
330
4A9
100
AcDbEntity
  8
0
100
AcDbBlockEnd
  0
BLOCK
  5
599
330
598
100
AcDbEntity
  8
0
100
AcDbBlockBegin
  2
*D9
 70
     1
 10
0.0
 20
0.0
 30
0.0
  3
*D9
  1

  0
LINE
  5
677
330
598
100
AcDbEntity
  8
Dimension (ANSI)
100
AcDbLine
 10
9.987534819076932
 20
29.06887014085906
 30
0.0
 11
6.104660803328907
 21
29.06887014085906
 31
0.0
  0
LINE
  5
678
330
598
100
AcDbEntity
  8
Dimension (ANSI)
100
AcDbLine
 10
9.987534819076932
 20
11.90887014085906
 30
0.0
 11
6.104660803328903
 21
11.90887014085906
 31
0.0
  0
LINE
  5
679
330
598
100
AcDbEntity
  8
Dimension (ANSI)
100
AcDbLine
 10
6.521327469995574
 20
28.74078615878877
 30
0.0
 11
6.521327469995572
 21
20.79385702544676
 31
0.0
  0
LINE
  5
67A
330
598
100
AcDbEntity
  8
Dimension (ANSI)
100
AcDbLine
 10
6.52132746999557
 20
12.23695412292935
 30
0.0
 11
6.521327469995572
 21
20.18388325627135
 31
0.0
  0
SOLID
  5
67B
330
598
100
AcDbEntity
  8
Dimension (ANSI)
100
AcDbTrace
 10
6.466646806317193
 20
28.74078615878877
 30
0.0
 11
6.576008133673955
 21
28.74078615878877
 31
0.0
 12
6.521327469995574
 22
29.06887014085906
 32
0.0
 13
6.521327469995574
 23
29.06887014085906
 33
0.0
  0
SOLID
  5
67C
330
598
100
AcDbEntity
  8
Dimension (ANSI)
100
AcDbTrace
 10
6.466646806317189
 20
12.23695412292935
 30
0.0
 11
6.576008133673951
 21
12.23695412292935
 31
0.0
 12
6.52132746999557
 22
11.90887014085906
 32
0.0
 13
6.52132746999557
 23
11.90887014085906
 33
0.0
  0
MTEXT
  5
67D
330
598
100
AcDbEntity
  8
Dimension (ANSI)
100
AcDbMText
 10
5.559422669868146
 20
20.68887014880634
 30
0.0
 40
0.400000015894572
 41
0.0
 71
     1
 72
     1
  1
\A1;17.160
  7
Note Text (ANSI)
 73
     1
 44
1.0
1001
ACAD
1000
MTEXTBEGIN
1070
    73
1070
     1
1070
    44
1040
1.0
1070
    74
1070
     0
1000
MTEXTEND
  0
POINT
  5
67E
330
598
100
AcDbEntity
  8
Defpoints
 62
     0
100
AcDbPoint
 10
10.19586815241027
 20
29.06887014085906
 30
0.0
  0
POINT
  5
67F
330
598
100
AcDbEntity
  8
Defpoints
 62
     0
100
AcDbPoint
 10
10.19586815241027
 20
11.90887014085906
 30
0.0
  0
POINT
  5
680
330
598
100
AcDbEntity
  8
Defpoints
 62
     0
100
AcDbPoint
 10
6.52132746999557
 20
11.90887014085906
 30
0.0
  0
ENDBLK
  5
59A
330
598
100
AcDbEntity
  8
0
100
AcDbBlockEnd
  0
BLOCK
  5
683
330
682
100
AcDbEntity
  8
0
100
AcDbBlockBegin
  2
*D10
 70
     1
 10
0.0
 20
0.0
 30
0.0
  3
*D10
  1

  0
LINE
  5
775
330
682
100
AcDbEntity
  8
Dimension (ANSI)
100
AcDbLine
 10
9.987534819076932
 20
12.65887014085906
 30
0.0
 11
6.415220479543388
 21
12.65887014085906
 31
0.0
  0
LINE
  5
776
330
682
100
AcDbEntity
  8
Dimension (ANSI)
100
AcDbLine
 10
9.987534819076932
 20
11.90887014085906
 30
0.0
 11
6.415220479543388
 21
11.90887014085906
 31
0.0
  0
LINE
  5
777
330
682
100
AcDbEntity
  8
Dimension (ANSI)
100
AcDbLine
 10
6.831887146210054
 20
11.58078615878877
 30
0.0
 11
6.831887146210054
 21
11.25270217671848
 31
0.0
  0
LINE
  5
778
330
682
100
AcDbEntity
  8
Dimension (ANSI)
100
AcDbLine
 10
6.831887146210054
 20
12.98695412292935
 30
0.0
 11
6.831887146210054
 21
13.60910326390549
 31
0.0
  0
LINE
  5
779
330
682
100
AcDbEntity
  8
Dimension (ANSI)
100
AcDbLine
 10
6.831887146210054
 20
13.60910326390549
 30
0.0
 11
7.159971128280341
 21
13.60910326390549
 31
0.0
  0
SOLID
  5
77A
330
682
100
AcDbEntity
  8
Dimension (ANSI)
100
AcDbTrace
 10
6.777206482531673
 20
11.58078615878877
 30
0.0
 11
6.886567809888435
 21
11.58078615878877
 31
0.0
 12
6.831887146210054
 22
11.90887014085906
 32
0.0
 13
6.831887146210054
 23
11.90887014085906
 33
0.0
  0
SOLID
  5
77B
330
682
100
AcDbEntity
  8
Dimension (ANSI)
100
AcDbTrace
 10
6.777206482531673
 20
12.98695412292935
 30
0.0
 11
6.886567809888435
 21
12.98695412292935
 31
0.0
 12
6.831887146210054
 22
12.65887014085906
 32
0.0
 13
6.831887146210054
 23
12.65887014085906
 33
0.0
  0
MTEXT
  5
77C
330
682
100
AcDbEntity
  8
Dimension (ANSI)
100
AcDbMText
 10
7.264958004920759
 20
13.80910327185278
 30
0.0
 40
0.400000015894572
 41
0.0
 71
     1
 72
     1
  1
\A1;0.750
  7
Note Text (ANSI)
 73
     1
 44
1.0
1001
ACAD
1000
MTEXTBEGIN
1070
    73
1070
     1
1070
    44
1040
1.0
1070
    74
1070
     0
1000
MTEXTEND
  0
POINT
  5
77D
330
682
100
AcDbEntity
  8
Defpoints
 62
     0
100
AcDbPoint
 10
10.19586815241027
 20
12.65887014085906
 30
0.0
  0
POINT
  5
77E
330
682
100
AcDbEntity
  8
Defpoints
 62
     0
100
AcDbPoint
 10
10.19586815241027
 20
11.90887014085906
 30
0.0
  0
POINT
  5
77F
330
682
100
AcDbEntity
  8
Defpoints
 62
     0
100
AcDbPoint
 10
6.831887146210054
 20
11.90887014085906
 30
0.0
  0
ENDBLK
  5
684
330
682
100
AcDbEntity
  8
0
100
AcDbBlockEnd
  0
BLOCK
  5
782
330
781
100
AcDbEntity
  8
0
100
AcDbBlockBegin
  2
*D11
 70
     1
 10
0.0
 20
0.0
 30
0.0
  3
*D11
  1

  0
LINE
  5
860
330
781
100
AcDbEntity
  8
Dimension (ANSI)
100
AcDbLine
 10
27.35586815241027
 20
29.27720347419239
 30
0.0
 11
27.35586815241027
 21
32.35289415189943
 31
0.0
  0
LINE
  5
861
330
781
100
AcDbEntity
  8
Dimension (ANSI)
100
AcDbLine
 10
10.19586815241027
 20
29.27720347419239
 30
0.0
 11
10.19586815241027
 21
32.35289415189943
 31
0.0
  0
LINE
  5
862
330
781
100
AcDbEntity
  8
Dimension (ANSI)
100
AcDbLine
 10
27.02778417033999
 20
31.93622748523276
 30
0.0
 11
19.84275982917811
 21
31.93622748523276
 31
0.0
  0
LINE
  5
863
330
781
100
AcDbEntity
  8
Dimension (ANSI)
100
AcDbLine
 10
10.52395213448055
 20
31.93622748523276
 30
0.0
 11
17.70897647564243
 21
31.93622748523276
 31
0.0
  0
SOLID
  5
864
330
781
100
AcDbEntity
  8
Dimension (ANSI)
100
AcDbTrace
 10
27.02778417033999
 20
31.99090814891115
 30
0.0
 11
27.02778417033999
 21
31.88154682155438
 31
0.0
 12
27.35586815241027
 22
31.93622748523276
 32
0.0
 13
27.35586815241027
 23
31.93622748523276
 33
0.0
  0
SOLID
  5
865
330
781
100
AcDbEntity
  8
Dimension (ANSI)
100
AcDbTrace
 10
10.52395213448055
 20
31.99090814891115
 30
0.0
 11
10.52395213448055
 21
31.88154682155438
 31
0.0
 12
10.19586815241027
 22
31.93622748523276
 32
0.0
 13
10.19586815241027
 23
31.93622748523276
 33
0.0
  0
MTEXT
  5
866
330
781
100
AcDbEntity
  8
Dimension (ANSI)
100
AcDbMText
 10
17.81396335228285
 20
32.13622749318004
 30
0.0
 40
0.400000015894572
 41
0.0
 71
     1
 72
     1
  1
\A1;17.160
  7
Note Text (ANSI)
 73
     1
 44
1.0
1001
ACAD
1000
MTEXTBEGIN
1070
    73
1070
     1
1070
    44
1040
1.0
1070
    74
1070
     0
1000
MTEXTEND
  0
POINT
  5
867
330
781
100
AcDbEntity
  8
Defpoints
 62
     0
100
AcDbPoint
 10
27.35586815241027
 20
29.06887014085906
 30
0.0
  0
POINT
  5
868
330
781
100
AcDbEntity
  8
Defpoints
 62
     0
100
AcDbPoint
 10
10.19586815241027
 20
29.06887014085906
 30
0.0
  0
POINT
  5
869
330
781
100
AcDbEntity
  8
Defpoints
 62
     0
100
AcDbPoint
 10
10.19586815241027
 20
31.93622748523276
 30
0.0
  0
ENDBLK
  5
783
330
781
100
AcDbEntity
  8
0
100
AcDbBlockEnd
  0
BLOCK
  5
86C
330
86B
100
AcDbEntity
  8
0
100
AcDbBlockBegin
  2
*D12
 70
     1
 10
0.0
 20
0.0
 30
0.0
  3
*D12
  1

  0
LINE
  5
95D
330
86B
100
AcDbEntity
  8
Dimension (ANSI)
100
AcDbLine
 10
28.0842014857436
 20
11.88887014085906
 30
0.0
 11
29.14823834454383
 21
11.88887014085906
 31
0.0
  0
LINE
  5
95E
330
86B
100
AcDbEntity
  8
Dimension (ANSI)
100
AcDbLine
 10
27.5842014857436
 20
11.38887014085906
 30
0.0
 11
29.14823834454383
 21
11.38887014085906
 31
0.0
  0
LINE
  5
95F
330
86B
100
AcDbEntity
  8
Dimension (ANSI)
100
AcDbLine
 10
28.73157167787717
 20
11.06078615878877
 30
0.0
 11
28.73157167787717
 21
10.73270217671848
 31
0.0
  0
LINE
  5
960
330
86B
100
AcDbEntity
  8
Dimension (ANSI)
100
AcDbLine
 10
28.73157167787717
 20
12.21695412292934
 30
0.0
 11
28.73157167787717
 21
12.83910326390549
 31
0.0
  0
LINE
  5
961
330
86B
100
AcDbEntity
  8
Dimension (ANSI)
100
AcDbLine
 10
28.73157167787717
 20
12.83910326390549
 30
0.0
 11
29.05965565994745
 21
12.83910326390549
 31
0.0
  0
SOLID
  5
962
330
86B
100
AcDbEntity
  8
Dimension (ANSI)
100
AcDbTrace
 10
28.67689101419879
 20
11.06078615878877
 30
0.0
 11
28.78625234155555
 21
11.06078615878877
 31
0.0
 12
28.73157167787717
 22
11.38887014085906
 32
0.0
 13
28.73157167787717
 23
11.38887014085906
 33
0.0
  0
SOLID
  5
963
330
86B
100
AcDbEntity
  8
Dimension (ANSI)
100
AcDbTrace
 10
28.67689101419879
 20
12.21695412292934
 30
0.0
 11
28.78625234155555
 21
12.21695412292934
 31
0.0
 12
28.73157167787717
 22
11.88887014085906
 32
0.0
 13
28.73157167787717
 23
11.88887014085906
 33
0.0
  0
MTEXT
  5
964
330
86B
100
AcDbEntity
  8
Dimension (ANSI)
100
AcDbMText
 10
29.16464253658787
 20
13.03910327185278
 30
0.0
 40
0.400000015894572
 41
0.0
 71
     1
 72
     1
  1
\A1;0.500
  7
Note Text (ANSI)
 73
     1
 44
1.0
1001
ACAD
1000
MTEXTBEGIN
1070
    73
1070
     1
1070
    44
1040
1.0
1070
    74
1070
     0
1000
MTEXTEND
  0
POINT
  5
965
330
86B
100
AcDbEntity
  8
Defpoints
 62
     0
100
AcDbPoint
 10
27.87586815241026
 20
11.88887014085906
 30
0.0
  0
POINT
  5
966
330
86B
100
AcDbEntity
  8
Defpoints
 62
     0
100
AcDbPoint
 10
27.37586815241026
 20
11.38887014085906
 30
0.0
  0
POINT
  5
967
330
86B
100
AcDbEntity
  8
Defpoints
 62
     0
100
AcDbPoint
 10
28.73157167787717
 20
11.38887014085906
 30
0.0
  0
ENDBLK
  5
86D
330
86B
100
AcDbEntity
  8
0
100
AcDbBlockEnd
  0
BLOCK
  5
96A
330
969
100
AcDbEntity
  8
0
100
AcDbBlockBegin
  2
*D13
 70
     1
 10
0.0
 20
0.0
 30
0.0
  3
*D13
  1

  0
LINE
  5
A48
330
969
100
AcDbEntity
  8
Dimension (ANSI)
100
AcDbLine
 10
27.87586815241026
 20
11.68053680752572
 30
0.0
 11
27.87586815241026
 21
9.118363222395249
 31
0.0
  0
LINE
  5
A49
330
969
100
AcDbEntity
  8
Dimension (ANSI)
100
AcDbLine
 10
27.37586815241026
 20
11.18053680752572
 30
0.0
 11
27.37586815241026
 21
9.118363222395249
 31
0.0
  0
LINE
  5
A4A
330
969
100
AcDbEntity
  8
Dimension (ANSI)
100
AcDbLine
 10
28.20395213448055
 20
9.535029889061915
 30
0.0
 11
28.53203611655084
 21
9.535029889061915
 31
0.0
  0
LINE
  5
A4B
330
969
100
AcDbEntity
  8
Dimension (ANSI)
100
AcDbLine
 10
27.04778417033998
 20
9.535029889061915
 30
0.0
 11
26.32111708663792
 21
9.535029889061915
 31
0.0
  0
SOLID
  5
A4C
330
969
100
AcDbEntity
  8
Dimension (ANSI)
100
AcDbTrace
 10
28.20395213448055
 20
9.589710552740296
 30
0.0
 11
28.20395213448055
 21
9.480349225383534
 31
0.0
 12
27.87586815241026
 22
9.535029889061915
 32
0.0
 13
27.87586815241026
 23
9.535029889061915
 33
0.0
  0
SOLID
  5
A4D
330
969
100
AcDbEntity
  8
Dimension (ANSI)
100
AcDbTrace
 10
27.04778417033998
 20
9.589710552740296
 30
0.0
 11
27.04778417033998
 21
9.480349225383534
 31
0.0
 12
27.37586815241026
 22
9.535029889061915
 32
0.0
 13
27.37586815241026
 23
9.535029889061915
 33
0.0
  0
MTEXT
  5
A4E
330
969
100
AcDbEntity
  8
Dimension (ANSI)
100
AcDbMText
 10
24.61613014641921
 20
9.735029897009201
 30
0.0
 40
0.400000015894572
 41
0.0
 71
     1
 72
     1
  1
\A1;0.500
  7
Note Text (ANSI)
 73
     1
 44
1.0
1001
ACAD
1000
MTEXTBEGIN
1070
    73
1070
     1
1070
    44
1040
1.0
1070
    74
1070
     0
1000
MTEXTEND
  0
POINT
  5
A4F
330
969
100
AcDbEntity
  8
Defpoints
 62
     0
100
AcDbPoint
 10
27.87586815241026
 20
11.88887014085906
 30
0.0
  0
POINT
  5
A50
330
969
100
AcDbEntity
  8
Defpoints
 62
     0
100
AcDbPoint
 10
27.37586815241026
 20
11.38887014085906
 30
0.0
  0
POINT
  5
A51
330
969
100
AcDbEntity
  8
Defpoints
 62
     0
100
AcDbPoint
 10
27.37586815241026
 20
9.535029889061915
 30
0.0
  0
ENDBLK
  5
96B
330
969
100
AcDbEntity
  8
0
100
AcDbBlockEnd
  0
BLOCK
  5
A54
330
A53
100
AcDbEntity
  8
0
100
AcDbBlockBegin
  2
*D14
 70
     1
 10
0.0
 20
0.0
 30
0.0
  3
*D14
  1

  0
LINE
  5
B32
330
A53
100
AcDbEntity
  8
Dimension (ANSI)
100
AcDbLine
 10
27.35586815241027
 20
29.27720347419239
 30
0.0
 11
27.35586815241027
 21
31.06033995713203
 31
0.0
  0
LINE
  5
B33
330
A53
100
AcDbEntity
  8
Dimension (ANSI)
100
AcDbLine
 10
27.87586815241026
 20
29.29720347419239
 30
0.0
 11
27.87586815241026
 21
31.06033995713203
 31
0.0
  0
LINE
  5
B34
330
A53
100
AcDbEntity
  8
Dimension (ANSI)
100
AcDbLine
 10
28.20395213448055
 20
30.64367329046536
 30
0.0
 11
28.53203611655084
 21
30.64367329046536
 31
0.0
  0
LINE
  5
B35
330
A53
100
AcDbEntity
  8
Dimension (ANSI)
100
AcDbLine
 10
27.02778417033999
 20
30.64367329046536
 30
0.0
 11
26.31007685681743
 21
30.64367329046536
 31
0.0
  0
SOLID
  5
B36
330
A53
100
AcDbEntity
  8
Dimension (ANSI)
100
AcDbTrace
 10
28.20395213448055
 20
30.69835395414374
 30
0.0
 11
28.20395213448055
 21
30.58899262678698
 31
0.0
 12
27.87586815241026
 22
30.64367329046536
 32
0.0
 13
27.87586815241026
 23
30.64367329046536
 33
0.0
  0
SOLID
  5
B37
330
A53
100
AcDbEntity
  8
Dimension (ANSI)
100
AcDbTrace
 10
27.02778417033999
 20
30.69835395414374
 30
0.0
 11
27.02778417033999
 21
30.58899262678698
 31
0.0
 12
27.35586815241027
 22
30.64367329046536
 32
0.0
 13
27.35586815241027
 23
30.64367329046536
 33
0.0
  0
MTEXT
  5
B38
330
A53
100
AcDbEntity
  8
Dimension (ANSI)
100
AcDbMText
 10
24.60508991659873
 20
30.84367329841264
 30
0.0
 40
0.400000015894572
 41
0.0
 71
     1
 72
     1
  1
\A1;0.520
  7
Note Text (ANSI)
 73
     1
 44
1.0
1001
ACAD
1000
MTEXTBEGIN
1070
    73
1070
     1
1070
    44
1040
1.0
1070
    74
1070
     0
1000
MTEXTEND
  0
POINT
  5
B39
330
A53
100
AcDbEntity
  8
Defpoints
 62
     0
100
AcDbPoint
 10
27.35586815241027
 20
29.06887014085906
 30
0.0
  0
POINT
  5
B3A
330
A53
100
AcDbEntity
  8
Defpoints
 62
     0
100
AcDbPoint
 10
27.87586815241026
 20
29.08887014085906
 30
0.0
  0
POINT
  5
B3B
330
A53
100
AcDbEntity
  8
Defpoints
 62
     0
100
AcDbPoint
 10
27.87586815241026
 20
30.64367329046536
 30
0.0
  0
ENDBLK
  5
A55
330
A53
100
AcDbEntity
  8
0
100
AcDbBlockEnd
  0
BLOCK
  5
B3E
330
B3D
100
AcDbEntity
  8
0
100
AcDbBlockBegin
  2
*D15
 70
     1
 10
0.0
 20
0.0
 30
0.0
  3
*D15
  1

  0
LINE
  5
C2F
330
B3D
100
AcDbEntity
  8
Dimension (ANSI)
100
AcDbLine
 10
27.5642014857436
 20
29.06887014085906
 30
0.0
 11
30.98533437094006
 21
29.06887014085906
 31
0.0
  0
LINE
  5
C30
330
B3D
100
AcDbEntity
  8
Dimension (ANSI)
100
AcDbLine
 10
27.5842014857436
 20
29.58887014085906
 30
0.0
 11
30.98533437094006
 21
29.58887014085906
 31
0.0
  0
LINE
  5
C31
330
B3D
100
AcDbEntity
  8
Dimension (ANSI)
100
AcDbLine
 10
30.56866770427339
 20
29.91695412292935
 30
0.0
 11
30.56866770427339
 21
30.24503810499964
 31
0.0
  0
LINE
  5
C32
330
B3D
100
AcDbEntity
  8
Dimension (ANSI)
100
AcDbLine
 10
30.56866770427339
 20
28.74078615878877
 30
0.0
 11
30.56866770427339
 21
28.0170835370618
 31
0.0
  0
LINE
  5
C33
330
B3D
100
AcDbEntity
  8
Dimension (ANSI)
100
AcDbLine
 10
30.56866770427339
 20
28.0170835370618
 30
0.0
 11
30.2405837222031
 21
28.0170835370618
 31
0.0
  0
SOLID
  5
C34
330
B3D
100
AcDbEntity
  8
Dimension (ANSI)
100
AcDbTrace
 10
30.51398704059501
 20
29.91695412292935
 30
0.0
 11
30.62334836795177
 21
29.91695412292935
 31
0.0
 12
30.56866770427339
 22
29.58887014085906
 32
0.0
 13
30.56866770427339
 23
29.58887014085906
 33
0.0
  0
SOLID
  5
C35
330
B3D
100
AcDbEntity
  8
Dimension (ANSI)
100
AcDbTrace
 10
30.51398704059501
 20
28.74078615878877
 30
0.0
 11
30.62334836795177
 21
28.74078615878877
 31
0.0
 12
30.56866770427339
 22
29.06887014085906
 32
0.0
 13
30.56866770427339
 23
29.06887014085906
 33
0.0
  0
MTEXT
  5
C36
330
B3D
100
AcDbEntity
  8
Dimension (ANSI)
100
AcDbMText
 10
28.53559678198439
 20
28.21708354500908
 30
0.0
 40
0.400000015894572
 41
0.0
 71
     1
 72
     1
  1
\A1;0.520
  7
Note Text (ANSI)
 73
     1
 44
1.0
1001
ACAD
1000
MTEXTBEGIN
1070
    73
1070
     1
1070
    44
1040
1.0
1070
    74
1070
     0
1000
MTEXTEND
  0
POINT
  5
C37
330
B3D
100
AcDbEntity
  8
Defpoints
 62
     0
100
AcDbPoint
 10
27.35586815241027
 20
29.06887014085906
 30
0.0
  0
POINT
  5
C38
330
B3D
100
AcDbEntity
  8
Defpoints
 62
     0
100
AcDbPoint
 10
27.37586815241026
 20
29.58887014085906
 30
0.0
  0
POINT
  5
C39
330
B3D
100
AcDbEntity
  8
Defpoints
 62
     0
100
AcDbPoint
 10
30.56866770427339
 20
29.58887014085906
 30
0.0
  0
ENDBLK
  5
B3F
330
B3D
100
AcDbEntity
  8
0
100
AcDbBlockEnd
  0
ENDSEC
  0
SECTION
  2
ENTITIES
  0
CIRCLE
  5
11B
330
6C
100
AcDbEntity
  8
Visible (ANSI)
100
AcDbCircle
 10
27.35586815241027
 20
29.06887014085907
 30
0.0
 40
0.25
  0
CIRCLE
  5
11C
330
6C
100
AcDbEntity
  8
Visible (ANSI)
100
AcDbCircle
 10
10.19586815241027
 20
29.06887014085906
 30
0.0
 40
0.25
  0
CIRCLE
  5
11D
330
6C
100
AcDbEntity
  8
Visible (ANSI)
100
AcDbCircle
 10
10.19586815241027
 20
11.90887014085906
 30
0.0
 40
0.25
  0
CIRCLE
  5
11E
330
6C
100
AcDbEntity
  8
Visible (ANSI)
100
AcDbCircle
 10
27.35586815241027
 20
11.90887014085906
 30
0.0
 40
0.25
  0
CIRCLE
  5
11F
330
6C
100
AcDbEntity
  8
Visible (ANSI)
100
AcDbCircle
 10
27.35586815241027
 20
28.31887014085907
 30
0.0
 40
0.15625
  0
CIRCLE
  5
120
330
6C
100
AcDbEntity
  8
Visible (ANSI)
100
AcDbCircle
 10
10.19586815241027
 20
28.31887014085906
 30
0.0
 40
0.15625
  0
CIRCLE
  5
121
330
6C
100
AcDbEntity
  8
Visible (ANSI)
100
AcDbCircle
 10
10.19586815241027
 20
12.65887014085906
 30
0.0
 40
0.15625
  0
CIRCLE
  5
122
330
6C
100
AcDbEntity
  8
Visible (ANSI)
100
AcDbCircle
 10
27.35586815241027
 20
12.65887014085906
 30
0.0
 40
0.15625
  0
LINE
  5
123
330
6C
100
AcDbEntity
  8
Visible (ANSI)
100
AcDbLine
 10
9.675868152410261
 20
29.08887014085906
 30
0.0
 11
10.17586815241026
 21
29.58887014085906
 31
0.0
  0
LINE
  5
124
330
6C
100
AcDbEntity
  8
Visible (ANSI)
100
AcDbLine
 10
9.675868152410266
 20
11.88887014085906
 30
0.0
 11
9.675868152410261
 21
29.08887014085906
 31
0.0
  0
LINE
  5
125
330
6C
100
AcDbEntity
  8
Visible (ANSI)
100
AcDbLine
 10
27.37586815241026
 20
11.38887014085906
 30
0.0
 11
10.17586815241027
 21
11.38887014085906
 31
0.0
  0
LINE
  5
126
330
6C
100
AcDbEntity
  8
Visible (ANSI)
100
AcDbLine
 10
27.87586815241026
 20
29.08887014085906
 30
0.0
 11
27.87586815241026
 21
11.88887014085906
 31
0.0
  0
LINE
  5
127
330
6C
100
AcDbEntity
  8
Visible (ANSI)
100
AcDbLine
 10
10.17586815241026
 20
29.58887014085906
 30
0.0
 11
27.37586815241026
 21
29.58887014085906
 31
0.0
  0
LINE
  5
128
330
6C
100
AcDbEntity
  8
Visible (ANSI)
100
AcDbLine
 10
10.17586815241027
 20
11.38887014085906
 30
0.0
 11
9.675868152410266
 21
11.88887014085906
 31
0.0
  0
LINE
  5
129
330
6C
100
AcDbEntity
  8
Visible (ANSI)
100
AcDbLine
 10
27.87586815241026
 20
11.88887014085906
 30
0.0
 11
27.37586815241026
 21
11.38887014085906
 31
0.0
  0
LINE
  5
12A
330
6C
100
AcDbEntity
  8
Visible (ANSI)
100
AcDbLine
 10
27.37586815241026
 20
29.58887014085906
 30
0.0
 11
27.87586815241026
 21
29.08887014085906
 31
0.0
  0
LINE
  5
12B
330
6C
100
AcDbEntity
  8
Visible (ANSI)
100
AcDbLine
 10
36.02098576304966
 20
29.08887014085906
 30
0.0
 11
36.02098576304952
 21
29.58887014085906
 31
0.0
  0
LINE
  5
12C
330
6C
100
AcDbEntity
  8
Visible (ANSI)
100
AcDbLine
 10
35.92723576304967
 20
29.08887014085906
 30
0.0
 11
36.02098576304966
 21
29.08887014085906
 31
0.0
  0
LINE
  5
12D
330
6C
100
AcDbEntity
  8
Visible (ANSI)
100
AcDbLine
 10
35.92723576304952
 20
29.58887014085906
 30
0.0
 11
35.92723576304967
 21
29.08887014085906
 31
0.0
  0
LINE
  5
12E
330
6C
100
AcDbEntity
  8
Visible (ANSI)
100
AcDbLine
 10
36.02098576304952
 20
29.58887014085906
 30
0.0
 11
35.92723576304952
 21
29.58887014085906
 31
0.0
  0
LINE
  5
12F
330
6C
100
AcDbEntity
  8
Visible (ANSI)
100
AcDbLine
 10
36.02098576304966
 20
11.88887014085906
 30
0.0
 11
36.02098576304966
 21
29.08887014085906
 31
0.0
  0
LINE
  5
130
330
6C
100
AcDbEntity
  8
Visible (ANSI)
100
AcDbLine
 10
35.92723576304967
 20
29.08887014085906
 30
0.0
 11
35.92723576304967
 21
11.88887014085906
 31
0.0
  0
LINE
  5
131
330
6C
100
AcDbEntity
  8
Visible (ANSI)
100
AcDbLine
 10
36.02098576304952
 20
11.38887014085905
 30
0.0
 11
36.02098576304966
 21
11.88887014085906
 31
0.0
  0
LINE
  5
132
330
6C
100
AcDbEntity
  8
Visible (ANSI)
100
AcDbLine
 10
35.92723576304952
 20
11.38887014085905
 30
0.0
 11
36.02098576304952
 21
11.38887014085905
 31
0.0
  0
LINE
  5
133
330
6C
100
AcDbEntity
  8
Visible (ANSI)
100
AcDbLine
 10
35.92723576304967
 20
11.88887014085906
 30
0.0
 11
35.92723576304952
 21
11.38887014085905
 31
0.0
  0
LINE
  5
134
330
6C
100
AcDbEntity
  8
Visible (ANSI)
100
AcDbLine
 10
36.02098576304966
 20
11.88887014085906
 30
0.0
 11
35.92723576304967
 21
11.88887014085906
 31
0.0
  0
LINE
  5
135
330
6C
100
AcDbEntity
  8
Hidden (ANSI)
 48
0.0534695908427239
100
AcDbLine
 10
35.92723576304951
 20
29.31887014085905
 30
0.0
 11
36.02098576304951
 21
29.31887014085905
 31
0.0
  0
LINE
  5
136
330
6C
100
AcDbEntity
  8
Hidden (ANSI)
 48
0.0534695908427239
100
AcDbLine
 10
35.92723576304951
 20
28.81887014085906
 30
0.0
 11
36.02098576304951
 21
28.81887014085906
 31
0.0
  0
LINE
  5
137
330
6C
100
AcDbEntity
  8
Hidden (ANSI)
 48
0.0534695908427239
100
AcDbLine
 10
35.92723576304951
 20
12.15887014085905
 30
0.0
 11
36.02098576304951
 21
12.15887014085905
 31
0.0
  0
LINE
  5
138
330
6C
100
AcDbEntity
  8
Hidden (ANSI)
 48
0.0534695908427239
100
AcDbLine
 10
35.92723576304951
 20
11.65887014085905
 30
0.0
 11
36.02098576304951
 21
11.65887014085905
 31
0.0
  0
LINE
  5
139
330
6C
100
AcDbEntity
  8
Hidden (ANSI)
 48
0.0534695908427239
100
AcDbLine
 10
35.92723576304951
 20
28.47512014085906
 30
0.0
 11
36.02098576304951
 21
28.47512014085906
 31
0.0
  0
LINE
  5
13A
330
6C
100
AcDbEntity
  8
Hidden (ANSI)
 48
0.0534695908427239
100
AcDbLine
 10
35.92723576304951
 20
28.16262014085906
 30
0.0
 11
36.02098576304951
 21
28.16262014085906
 31
0.0
  0
LINE
  5
13B
330
6C
100
AcDbEntity
  8
Hidden (ANSI)
 48
0.0534695908427239
100
AcDbLine
 10
35.92723576304951
 20
12.81512014085905
 30
0.0
 11
36.02098576304951
 21
12.81512014085905
 31
0.0
  0
LINE
  5
13C
330
6C
100
AcDbEntity
  8
Hidden (ANSI)
 48
0.0534695908427239
100
AcDbLine
 10
35.92723576304951
 20
12.50262014085905
 30
0.0
 11
36.02098576304951
 21
12.50262014085905
 31
0.0
  0
ELLIPSE
  5
13D
330
6C
100
AcDbEntity
  8
Visible (ANSI)
100
AcDbEllipse
 10
53.76447019953882
 20
26.77101682070228
 30
0.0
 11
-0.1039650440800846
 21
0.1805382158635774
 31
0.0
210
0.0
220
0.0
230
1.0
 40
0.5780931159158115
 41
0.2678448778125397
 42
2.873747775777251
  0
ELLIPSE
  5
13E
330
6C
100
AcDbEntity
  8
Visible (ANSI)
100
AcDbEllipse
 10
53.70922748225863
 20
26.73920465556225
 30
0.0
 11
-0.1039650440800849
 21
0.1805382158635778
 31
0.0
210
0.0
220
0.0
230
1.0
 40
0.5780931159158116
 41
0.0
 42
6.283185307179586
  0
ELLIPSE
  5
13F
330
6C
100
AcDbEntity
  8
Visible (ANSI)
100
AcDbEllipse
 10
43.65284322856966
 20
32.59391552793181
 30
0.0
 11
-0.1039650440800852
 21
0.1805382158635784
 31
0.0
210
0.0
220
0.0
230
1.0
 40
0.5780931159158116
 41
0.2678448778125404
 42
2.873747775777252
  0
ELLIPSE
  5
140
330
6C
100
AcDbEntity
  8
Visible (ANSI)
100
AcDbEllipse
 10
43.59760051128947
 20
32.56210336279178
 30
0.0
 11
-0.1039650440800849
 21
0.1805382158635778
 31
0.0
210
0.0
220
0.0
230
1.0
 40
0.5780931159158116
 41
0.0
 42
6.283185307179586
  0
ELLIPSE
  5
141
330
6C
100
AcDbEntity
  8
Visible (ANSI)
100
AcDbEllipse
 10
43.65284322856965
 20
20.90299164268352
 30
0.0
 11
-0.1039650440800848
 21
0.1805382158635778
 31
0.0
210
0.0
220
0.0
230
1.0
 40
0.5780931159158116
 41
0.2678448778125284
 42
2.873747775777244
  0
ELLIPSE
  5
142
330
6C
100
AcDbEntity
  8
Visible (ANSI)
100
AcDbEllipse
 10
43.59760051128945
 20
20.87117947754349
 30
0.0
 11
-0.1039650440800849
 21
0.1805382158635778
 31
0.0
210
0.0
220
0.0
230
1.0
 40
0.5780931159158116
 41
0.0
 42
6.283185307179586
  0
ELLIPSE
  5
143
330
6C
100
AcDbEntity
  8
Visible (ANSI)
100
AcDbEllipse
 10
53.7644701995388
 20
15.08009293545398
 30
0.0
 11
-0.1039650440800848
 21
0.1805382158635776
 31
0.0
210
0.0
220
0.0
230
1.0
 40
0.5780931159158117
 41
0.2678448778125396
 42
2.873747775777251
  0
ELLIPSE
  5
144
330
6C
100
AcDbEntity
  8
Visible (ANSI)
100
AcDbEllipse
 10
53.70922748225861
 20
15.04828077031395
 30
0.0
 11
-0.1039650440800849
 21
0.1805382158635778
 31
0.0
210
0.0
220
0.0
230
1.0
 40
0.5780931159158116
 41
0.0
 42
6.283185307179586
  0
ELLIPSE
  5
145
330
6C
100
AcDbEntity
  8
Visible (ANSI)
100
AcDbEllipse
 10
53.76447019953882
 20
26.26004986767569
 30
0.0
 11
0.0649781525500593
 21
-0.1128363849147314
 31
0.0
210
0.0
220
0.0
230
1.0
 40
0.5780931159158116
 41
3.578838513251575
 42
5.845939447517055
  0
ELLIPSE
  5
146
330
6C
100
AcDbEntity
  8
Visible (ANSI)
100
AcDbEllipse
 10
53.70922748225863
 20
26.22823770253566
 30
0.0
 11
-0.064978152550053
 21
0.1128363849147361
 31
0.0
210
0.0
220
0.0
230
1.0
 40
0.5780931159158116
 41
0.0
 42
6.283185307179586
  0
ELLIPSE
  5
147
330
6C
100
AcDbEntity
  8
Visible (ANSI)
100
AcDbEllipse
 10
43.65284322856966
 20
32.08294857490523
 30
0.0
 11
0.0649781525500602
 21
-0.1128363849147329
 31
0.0
210
0.0
220
0.0
230
1.0
 40
0.5780931159158117
 41
3.578838513251534
 42
5.845939447516943
  0
ELLIPSE
  5
148
330
6C
100
AcDbEntity
  8
Visible (ANSI)
100
AcDbEllipse
 10
43.59760051128947
 20
32.05113640976519
 30
0.0
 11
-0.064978152550053
 21
0.1128363849147361
 31
0.0
210
0.0
220
0.0
230
1.0
 40
0.5780931159158116
 41
0.0
 42
6.283185307179586
  0
ELLIPSE
  5
149
330
6C
100
AcDbEntity
  8
Visible (ANSI)
100
AcDbEllipse
 10
43.65284322856965
 20
21.4139585957101
 30
0.0
 11
0.0649781525500598
 21
-0.1128363849147322
 31
0.0
210
0.0
220
0.0
230
1.0
 40
0.5780931159158115
 41
3.578838513251534
 42
5.845939447516943
  0
ELLIPSE
  5
14A
330
6C
100
AcDbEntity
  8
Visible (ANSI)
100
AcDbEllipse
 10
43.59760051128945
 20
21.38214643057007
 30
0.0
 11
-0.064978152550053
 21
0.1128363849147361
 31
0.0
210
0.0
220
0.0
230
1.0
 40
0.5780931159158116
 41
0.0
 42
6.283185307179586
  0
ELLIPSE
  5
14B
330
6C
100
AcDbEntity
  8
Visible (ANSI)
100
AcDbEllipse
 10
53.7644701995388
 20
15.59105988848056
 30
0.0
 11
0.0649781525500596
 21
-0.1128363849147319
 31
0.0
210
0.0
220
0.0
230
0.9999999999999998
 40
0.5780931159158115
 41
3.578838513251575
 42
5.845939447517048
  0
ELLIPSE
  5
14C
330
6C
100
AcDbEntity
  8
Visible (ANSI)
100
AcDbEllipse
 10
53.70922748225861
 20
15.55924772334053
 30
0.0
 11
-0.064978152550053
 21
0.1128363849147361
 31
0.0
210
0.0
220
0.0
230
1.0
 40
0.5780931159158116
 41
0.0
 42
6.283185307179586
  0
LINE
  5
14D
330
6C
100
AcDbEntity
  8
Visible (ANSI)
100
AcDbLine
 10
43.29118757277526
 20
32.75218062418247
 30
0.0
 11
43.5858153982697
 21
32.92316037878676
 31
0.0
  0
LINE
  5
14E
330
6C
100
AcDbEntity
  8
Visible (ANSI)
100
AcDbLine
 10
43.5858153982697
 20
32.92316037878676
 30
0.0
 11
43.64105811554988
 21
32.95497254392679
 31
0.0
  0
LINE
  5
14F
330
6C
100
AcDbEntity
  8
Visible (ANSI)
100
AcDbLine
 10
43.29118757277524
 20
21.0340051681061
 30
0.0
 11
43.29118757277526
 21
32.75218062418247
 31
0.0
  0
LINE
  5
150
330
6C
100
AcDbEntity
  8
Visible (ANSI)
100
AcDbLine
 10
53.7762553125586
 20
27.11850064623751
 30
0.0
 11
43.64105811554988
 21
32.95497254392679
 31
0.0
  0
LINE
  5
151
330
6C
100
AcDbEntity
  8
Visible (ANSI)
100
AcDbLine
 10
54.07088313805301
 20
14.89001567406329
 30
0.0
 11
54.07088313805304
 21
26.60819113013967
 31
0.0
  0
LINE
  5
152
330
6C
100
AcDbEntity
  8
Visible (ANSI)
100
AcDbLine
 10
53.72101259527838
 20
14.68722375431898
 30
0.0
 11
43.58581539826967
 21
20.52369565200826
 31
0.0
  0
LINE
  5
153
330
6C
100
AcDbEntity
  8
Visible (ANSI)
100
AcDbLine
 10
54.01564042077286
 20
26.57637896499963
 30
0.0
 11
54.01564042077282
 21
14.85820350892326
 31
0.0
  0
LINE
  5
154
330
6C
100
AcDbEntity
  8
Visible (ANSI)
100
AcDbLine
 10
43.5858153982697
 20
32.92316037878676
 30
0.0
 11
53.72101259527841
 21
27.08668848109748
 31
0.0
  0
LINE
  5
155
330
6C
100
AcDbEntity
  8
Visible (ANSI)
100
AcDbLine
 10
54.07088313805304
 20
26.60819113013967
 30
0.0
 11
53.7762553125586
 21
27.11850064623751
 31
0.0
  0
LINE
  5
156
330
6C
100
AcDbEntity
  8
Visible (ANSI)
100
AcDbLine
 10
54.01564042077286
 20
26.57637896499963
 30
0.0
 11
54.07088313805304
 21
26.60819113013967
 31
0.0
  0
LINE
  5
157
330
6C
100
AcDbEntity
  8
Visible (ANSI)
100
AcDbLine
 10
53.72101259527841
 20
27.08668848109748
 30
0.0
 11
54.01564042077286
 21
26.57637896499963
 31
0.0
  0
LINE
  5
158
330
6C
100
AcDbEntity
  8
Visible (ANSI)
100
AcDbLine
 10
53.7762553125586
 20
27.11850064623751
 30
0.0
 11
53.72101259527841
 21
27.08668848109748
 31
0.0
  0
LINE
  5
159
330
6C
100
AcDbEntity
  8
Visible (ANSI)
100
AcDbLine
 10
53.77625531255858
 20
14.71903591945901
 30
0.0
 11
54.07088313805301
 21
14.89001567406329
 31
0.0
  0
LINE
  5
15A
330
6C
100
AcDbEntity
  8
Visible (ANSI)
100
AcDbLine
 10
53.72101259527838
 20
14.68722375431898
 30
0.0
 11
53.77625531255858
 21
14.71903591945901
 31
0.0
  0
LINE
  5
15B
330
6C
100
AcDbEntity
  8
Visible (ANSI)
100
AcDbLine
 10
54.01564042077282
 20
14.85820350892326
 30
0.0
 11
53.72101259527838
 21
14.68722375431898
 31
0.0
  0
LINE
  5
15C
330
6C
100
AcDbEntity
  8
Visible (ANSI)
100
AcDbLine
 10
54.07088313805301
 20
14.89001567406329
 30
0.0
 11
54.01564042077282
 21
14.85820350892326
 31
0.0
  0
LINE
  5
15D
330
6C
100
AcDbEntity
  8
Visible (ANSI)
100
AcDbLine
 10
43.58581539826967
 20
20.52369565200826
 30
0.0
 11
43.29118757277524
 21
21.0340051681061
 31
0.0
  0
DIMENSION
  5
15E
330
6C
100
AcDbEntity
  8
Dimension (ANSI)
100
AcDbDimension
  2
*D4
 10
9.675868152410261
 20
33.4983189597567
 30
0.0
 11
18.77586815241026
 21
33.4983189597567
 31
0.0
 70
   160
  1
<>
 42
18.2
  3
Default (ANSI)
100
AcDbAlignedDimension
 13
27.87586815241026
 23
29.08887014085906
 33
0.0
 14
9.675868152410261
 24
29.08887014085906
 34
0.0
 50
180.0
100
AcDbRotatedDimension
1001
ACAD
1000
DSTYLE
1002
{
1070
   289
1070
     1
1070
    73
1070
     0
1070
    74
1070
     0
1070
   271
1070
     3
1070
   272
1070
     2
1070
    48
1040
0.0
1070
    47
1040
0.0
1002
}
  0
DIMENSION
  5
24B
330
6C
100
AcDbEntity
  8
Dimension (ANSI)
100
AcDbDimension
  2
*D5
 10
3.351721170782974
 20
11.38887014085906
 30
0.0
 11
3.351721170782973
 21
20.48887014085906
 31
0.0
 70
   160
  1
<>
 42
18.2
  3
Default (ANSI)
100
AcDbAlignedDimension
 13
10.17586815241026
 23
29.58887014085906
 33
0.0
 14
10.17586815241027
 24
11.38887014085906
 34
0.0
 50
270.0
100
AcDbRotatedDimension
1001
ACAD
1000
DSTYLE
1002
{
1070
   289
1070
     1
1070
   271
1070
     3
1070
   272
1070
     2
1070
    48
1040
0.0
1070
    47
1040
0.0
1002
}
  0
DIMENSION
  5
335
330
6C
100
AcDbEntity
  8
Dimension (ANSI)
100
AcDbDimension
  2
*D6
 10
10.08808623445804
 20
12.13444287450064
 30
0.0
 11
14.65521765981198
 21
6.897118873890457
 31
0.0
 70
   163
  1
<>{\PTYP.(4PL.)}
 42
0.5
  3
Default (ANSI)
100
AcDbDiametricDimension
 15
10.30365007036249
 25
11.68329740721747
 35
0.0
 40
0.0
1001
ACAD_DSTYLE_DIMRADIAL_EXTENSION
1070
   387
1070
     1
1070
   388
1040
0.0
1070
   390
1040
0.0
1001
ACAD
1000
DSTYLE
1002
{
1070
   145
1040
-0.25
1070
   144
1040
1.00000000000001
1070
   271
1070
     3
1070
   272
1070
     2
1070
    48
1040
0.0
1070
    47
1040
0.0
1002
}
  0
DIMENSION
  5
3EF
330
6C
100
AcDbEntity
  8
Dimension (ANSI)
100
AcDbDimension
  2
*D7
 10
10.10068356717126
 20
12.78278122685575
 30
0.0
 11
14.65521755918299
 21
9.541471534712632
 31
0.0
 70
   163
  1
<>{\PTYP.(4PL.)}
 42
0.3125
  3
Default (ANSI)
100
AcDbDiametricDimension
 15
10.29105273764926
 25
12.53495905486237
 35
0.0
 40
0.0
1001
ACAD_DSTYLE_DIMRADIAL_EXTENSION
1070
   387
1070
     1
1070
   388
1040
0.0
1070
   390
1040
0.0
1001
ACAD
1000
DSTYLE
1002
{
1070
   145
1040
-0.25
1070
   144
1040
1.000000000000005
1070
   271
1070
     3
1070
   272
1070
     2
1070
    48
1040
0.0
1070
    47
1040
0.0
1002
}
  0
DIMENSION
  5
4A8
330
6C
100
AcDbEntity
  8
Dimension (ANSI)
100
AcDbDimension
  2
*D8
 10
36.02098576304966
 20
14.54572732049526
 30
0.0
 11
38.35816750364433
 21
14.54572732049526
 31
0.0
 70
   160
  1
 12 GA.\P304 SS
 42
0.09375
  3
Default (ANSI)
100
AcDbAlignedDimension
 13
35.92723576304966
 23
22.86265966505579
 33
0.0
 14
36.02098576304966
 24
22.86265966505579
 34
0.0
 50
180.0
100
AcDbRotatedDimension
1001
ACAD
1000
DSTYLE
1002
{
1070
   289
1070
     1
1070
    73
1070
     0
1070
    74
1070
     0
1070
   145
1040
-0.25
1070
   271
1070
     3
1070
    76
1070
     1
1070
    75
1070
     1
1070
   272
1070
     2
1070
    48
1040
0.0
1070
    47
1040
0.0
1002
}
  0
DIMENSION
  5
597
330
6C
100
AcDbEntity
  8
Dimension (ANSI)
100
AcDbDimension
  2
*D9
 10
6.52132746999557
 20
11.90887014085906
 30
0.0
 11
6.521327469995569
 21
20.48887014085906
 31
0.0
 70
   160
  1
<>
 42
17.16
  3
Default (ANSI)
100
AcDbAlignedDimension
 13
10.19586815241027
 23
29.06887014085906
 33
0.0
 14
10.19586815241027
 24
11.90887014085906
 34
0.0
 50
90.0
100
AcDbRotatedDimension
1001
ACAD
1000
DSTYLE
1002
{
1070
   289
1070
     1
1070
   271
1070
     3
1070
   272
1070
     2
1070
    48
1040
0.0
1070
    47
1040
0.0
1002
}
  0
DIMENSION
  5
681
330
6C
100
AcDbEntity
  8
Dimension (ANSI)
100
AcDbDimension
  2
*D10
 10
6.831887146210054
 20
11.90887014085906
 30
0.0
 11
8.064958036709903
 21
13.60910326390549
 31
0.0
 70
   160
  1
<>
 42
0.75
  3
Default (ANSI)
100
AcDbAlignedDimension
 13
10.19586815241027
 23
12.65887014085906
 33
0.0
 14
10.19586815241027
 24
11.90887014085906
 34
0.0
 50
90.0
100
AcDbRotatedDimension
1001
ACAD
1000
DSTYLE
1002
{
1070
   289
1070
     1
1070
   271
1070
     3
1070
   272
1070
     2
1070
    48
1040
0.0
1070
    47
1040
0.0
1002
}
  0
DIMENSION
  5
780
330
6C
100
AcDbEntity
  8
Dimension (ANSI)
100
AcDbDimension
  2
*D11
 10
10.19586815241027
 20
31.93622748523276
 30
0.0
 11
18.77586815241027
 21
31.93622748523276
 31
0.0
 70
   160
  1
<>
 42
17.16
  3
Default (ANSI)
100
AcDbAlignedDimension
 13
27.35586815241027
 23
29.06887014085906
 33
0.0
 14
10.19586815241027
 24
29.06887014085906
 34
0.0
 50
180.0
100
AcDbRotatedDimension
1001
ACAD
1000
DSTYLE
1002
{
1070
   289
1070
     1
1070
    73
1070
     0
1070
    74
1070
     0
1070
   271
1070
     3
1070
   272
1070
     2
1070
    48
1040
0.0
1070
    47
1040
0.0
1002
}
  0
DIMENSION
  5
86A
330
6C
100
AcDbEntity
  8
Dimension (ANSI)
100
AcDbDimension
  2
*D12
 10
28.73157167787717
 20
11.38887014085906
 30
0.0
 11
29.96464256837701
 21
12.83910326390549
 31
0.0
 70
   160
  1
<>
 42
0.5
  3
Default (ANSI)
100
AcDbAlignedDimension
 13
27.87586815241026
 23
11.88887014085906
 33
0.0
 14
27.37586815241026
 24
11.38887014085906
 34
0.0
 50
90.0
100
AcDbRotatedDimension
1001
ACAD
1000
DSTYLE
1002
{
1070
   289
1070
     1
1070
   271
1070
     3
1070
   272
1070
     2
1070
    48
1040
0.0
1070
    47
1040
0.0
1002
}
  0
DIMENSION
  5
968
330
6C
100
AcDbEntity
  8
Dimension (ANSI)
100
AcDbDimension
  2
*D13
 10
27.37586815241026
 20
9.535029889061915
 30
0.0
 11
25.41613017820835
 21
9.535029889061915
 31
0.0
 70
   160
  1
<>
 42
0.5
  3
Default (ANSI)
100
AcDbAlignedDimension
 13
27.87586815241026
 23
11.88887014085906
 33
0.0
 14
27.37586815241026
 24
11.38887014085906
 34
0.0
 50
180.0
100
AcDbRotatedDimension
1001
ACAD
1000
DSTYLE
1002
{
1070
   289
1070
     1
1070
    73
1070
     0
1070
    74
1070
     0
1070
   271
1070
     3
1070
   272
1070
     2
1070
    48
1040
0.0
1070
    47
1040
0.0
1002
}
  0
DIMENSION
  5
A52
330
6C
100
AcDbEntity
  8
Dimension (ANSI)
100
AcDbDimension
  2
*D14
 10
27.87586815241026
 20
30.64367329046536
 30
0.0
 11
25.40508994838787
 21
30.64367329046536
 31
0.0
 70
   160
  1
<>
 42
0.5199999999999925
  3
Default (ANSI)
100
AcDbAlignedDimension
 13
27.35586815241027
 23
29.06887014085906
 33
0.0
 14
27.87586815241026
 24
29.08887014085906
 34
0.0
 50
180.0
100
AcDbRotatedDimension
1001
ACAD
1000
DSTYLE
1002
{
1070
   289
1070
     1
1070
    73
1070
     0
1070
    74
1070
     0
1070
   271
1070
     3
1070
   272
1070
     2
1070
    48
1040
0.0
1070
    47
1040
0.0
1002
}
  0
DIMENSION
  5
B3C
330
6C
100
AcDbEntity
  8
Dimension (ANSI)
100
AcDbDimension
  2
*D15
 10
30.56866770427339
 20
29.58887014085906
 30
0.0
 11
29.33559681377353
 21
28.0170835370618
 31
0.0
 70
   160
  1
<>
 42
0.5200000000000032
  3
Default (ANSI)
100
AcDbAlignedDimension
 13
27.35586815241027
 23
29.06887014085906
 33
0.0
 14
27.37586815241026
 24
29.58887014085906
 34
0.0
 50
270.0
100
AcDbRotatedDimension
1001
ACAD
1000
DSTYLE
1002
{
1070
   289
1070
     1
1070
   271
1070
     3
1070
   272
1070
     2
1070
    48
1040
0.0
1070
    47
1040
0.0
1002
}
  0
MTEXT
  5
C3A
102
{ACAD_XDICTIONARY
360
C4A
102
}
330
6C
100
AcDbEntity
  8
Symbol (ANSI)
100
AcDbMText
 10
32.56271263771893
 20
8.565843075655942
 30
0.0
 40
0.4000000049435874
 41
22.67271722019607
 71
     1
 72
     1
  3
{\fRomanS|b0|i0|c0|p2;\H2x;PART#: NP2020SSC\P(DATA SUBJECT TO CHANGE \H1.4574x; \H0.68616x;WITHOUT NOTICE) \H1.3503x; \H0.74058x;\P\H0.6x;THIS DRAWING IS PROPERTY OF HUBBELL INC. WIEGMANN\H1.3089x; \H0.76402x;\PALL INFORMATION IS PROPRIETARY AND NOT 
  1
TO BE \H1.0612x; \H0.94229x;DUPLICATED\H1.1097x; \H0.75093x;\P\H1.1203x; }
  7
Note Text (ANSI)
 73
     1
 44
0.8968595266342163
1001
ACAD
1000
MTEXTBEGIN
1070
    73
1070
     1
1070
    44
1040
0.8968595266342163
1070
    74
1070
     0
1000
MTEXTEND
  0
ENDSEC
  0
SECTION
  2
OBJECTS
  0
DICTIONARY
  5
C
330
0
100
AcDbDictionary
281
     1
  3
ACAD_CIP_PREVIOUS_PRODUCT_INFO
350
C3C
  3
ACAD_COLOR
350
63
  3
ACAD_GROUP
350
D
  3
ACAD_LAYOUT
350
62
  3
ACAD_MATERIAL
350
10
  3
ACAD_MLEADERSTYLE
350
66
  3
ACAD_MLINESTYLE
350
5F
  3
ACAD_PLOTSETTINGS
350
61
  3
ACAD_PLOTSTYLENAME
350
E
  3
ACAD_SCALELIST
350
42
  3
ACAD_TABLESTYLE
350
64
  3
ACAD_VISUALSTYLE
350
29
  3
ACDB_RECOMPOSE_DATA
350
C4C
  3
AcDbVariableDictionary
350
76
  3
DWGPROPS
350
C4D
  0
DICTIONARY
  5
C89
330
3E9
100
AcDbDictionary
280
     1
281
     1
  3
ACAD_MTEXT_RT
360
C8A
  0
DICTIONARY
  5
C8B
330
4A2
100
AcDbDictionary
280
     1
281
     1
  3
ACAD_MTEXT_RT
360
C8C
  0
DICTIONARY
  5
C4A
330
C3A
100
AcDbDictionary
280
     1
281
     1
  3
ACAD_MTEXT_2008_RT
360
C4B
  0
XRECORD
  5
C3C
102
{ACAD_REACTORS
330
C
102
}
330
C
100
AcDbXrecord
280
     1
300
INVNTOR
300
2012
300
85795PDSP_2012_0F
  0
DICTIONARY
  5
63
102
{ACAD_REACTORS
330
C
102
}
330
C
100
AcDbDictionary
281
     1
  0
DICTIONARY
  5
D
102
{ACAD_REACTORS
330
C
102
}
330
C
100
AcDbDictionary
281
     1
  0
DICTIONARY
  5
62
102
{ACAD_REACTORS
330
C
102
}
330
C
100
AcDbDictionary
281
     1
  3
Layout1
350
6B
  3
Layout2
350
73
  3
Model
350
6F
  0
DICTIONARY
  5
10
102
{ACAD_REACTORS
330
C
102
}
330
C
100
AcDbDictionary
281
     1
  3
ByBlock
350
19
  3
ByLayer
350
11
  3
Global
350
21
  0
DICTIONARY
  5
66
102
{ACAD_REACTORS
330
C
102
}
330
C
100
AcDbDictionary
281
     1
  3
Standard
350
67
  0
DICTIONARY
  5
5F
102
{ACAD_REACTORS
330
C
102
}
330
C
100
AcDbDictionary
281
     1
  3
Standard
350
60
  0
DICTIONARY
  5
61
102
{ACAD_REACTORS
330
C
102
}
330
C
100
AcDbDictionary
281
     1
  0
ACDBDICTIONARYWDFLT
  5
E
102
{ACAD_REACTORS
330
C
102
}
330
C
100
AcDbDictionary
281
     1
  3
Normal
350
F
100
AcDbDictionaryWithDefault
340
F
  0
DICTIONARY
  5
42
102
{ACAD_REACTORS
330
C
102
}
330
C
100
AcDbDictionary
281
     1
  3
A0
350
43
  3
A1
350
44
  3
A2
350
45
  3
A3
350
46
  3
A4
350
47
  3
A5
350
48
  3
A6
350
49
  3
A7
350
4A
  3
A8
350
4B
  3
A9
350
4C
  3
B0
350
4D
  3
B1
350
4E
  3
B2
350
4F
  3
B3
350
50
  3
B4
350
51
  3
B5
350
52
  3
B6
350
53
  0
DICTIONARY
  5
64
102
{ACAD_REACTORS
330
C
102
}
330
C
100
AcDbDictionary
281
     1
  3
Standard
350
65
  0
DICTIONARY
  5
29
102
{ACAD_REACTORS
330
C
102
}
330
C
100
AcDbDictionary
281
     1
  3
2dWireframe
350
2F
  3
Basic
350
2E
  3
Brighten
350
35
  3
ColorChange
350
39
  3
Conceptual
350
32
  3
Dim
350
34
  3
EdgeColorOff
350
41
  3
Facepattern
350
38
  3
Flat
350
2A
  3
FlatWithEdges
350
2B
  3
Gouraud
350
2C
  3
GouraudWithEdges
350
2D
  3
Hidden
350
31
  3
JitterOff
350
3F
  3
Linepattern
350
37
  3
OverhangOff
350
40
  3
Realistic
350
33
  3
Shaded
350
3E
  3
Shaded with edges
350
3D
  3
Shades of Gray
350
3A
  3
Sketchy
350
3B
  3
Thicken
350
36
  3
Wireframe
350
30
  3
X-Ray
350
3C
  0
XRECORD
  5
C4C
102
{ACAD_REACTORS
330
C
102
}
330
C
100
AcDbXrecord
280
     1
 90
        1
330
65
330
C3A
  0
DICTIONARY
  5
76
102
{ACAD_REACTORS
330
C
102
}
330
C
100
AcDbDictionary
281
     1
  3
CANNOSCALE
350
79
  3
CMLEADERSTYLE
350
78
  3
CTABLESTYLE
350
77
  3
DIMASSOC
350
C44
  3
HIDETEXT
350
C43
  3
INDEXCTL
350
C42
  3
LAYEREVAL
350
C3F
  3
LAYERNOTIFY
350
C40
  3
LIGHTINGUNITS
350
C3E
  3
MSLTSCALE
350
C3D
  3
SORTENTS
350
C41
  3
XCLIPFRAME
350
C45
  0
XRECORD
  5
C4D
102
{ACAD_REACTORS
330
C
102
}
330
C
100
AcDbXrecord
280
     1
  1
DWGPROPS COOKIE
  2

  3

  4
dnichola
  6

  7

  8

  9
-
300
Manager=
301
Company=
302
Category=
303
Part Number=NP2020SSC-S
304
Description=
305
Project=
306
Designer=dnichola
307
Engineer=
308
Authority=
309
Cost Center=
 40
0.0000338194444444
 41
2455944.608614734
 42
2455944.608614734
  1

 90
       19
300
Vendor=
300
User Status=
300
Design Status=WorkInProgress
300
Checked by=
300
Engr Approved by=
300
Mfg Approved by=
300
DWG. NO=
300
NUMBER OF SHEETS=1
300
DRAWING #=
  0
XRECORD
  5
C8A
102
{ACAD_REACTORS
330
C89
102
}
330
C89
100
AcDbXrecord
280
     1
 40
31446.0
  1
\A1;\U+22050.500{\PTYP.(4PL.)}
  0
XRECORD
  5
C8C
102
{ACAD_REACTORS
330
C8B
102
}
330
C8B
100
AcDbXrecord
280
     1
 40
31481.0
  1
\A1;\U+22050.313{\PTYP.(4PL.)}
  0
XRECORD
  5
C4B
102
{ACAD_REACTORS
330
C4A
102
}
330
C4A
100
AcDbXrecord
280
     1
 40
3515175.0
  1
\pxsm0.94;{\fRomanS|b0|i0;\H0.8000;PART#: NP2020SSC\P(DATA SUBJECT TO CHANGE WITHOUT NOTICE) \P\fRomanS|b0|i0;\H0.4800;THIS DRAWING IS PROPERTY OF HUBBELL INC. WIEGMANN\PALL INFORMATION IS PROPRIETARY AND NOT TO BE DUPLICATED\fRomanS|b0|i0;\H0.4000;\
  1
P}
  0
LAYOUT
  5
6B
102
{ACAD_XDICTIONARY
360
C83
102
}
102
{ACAD_REACTORS
330
62
102
}
330
62
100
AcDbPlotSettings
  1

  2

  4

  6

 40
0.0
 41
0.0
 42
0.0
 43
0.0
 44
0.0
 45
0.0
 46
0.0
 47
0.0
 48
0.0
 49
0.0
140
0.0
141
0.0
142
1.0
143
1.0
 70
   688
 72
     0
 73
     0
 74
     5
  7

 75
    16
147
1.0
148
0.0
149
0.0
100
AcDbLayout
  1
Layout1
 70
     1
 71
     1
 10
0.0
 20
0.0
 11
12.0
 21
9.0
 12
0.0
 22
0.0
 32
0.0
 14
0.0
 24
0.0
 34
0.0
 15
0.0
 25
0.0
 35
0.0
146
0.0
 13
0.0
 23
0.0
 33
0.0
 16
1.0
 26
0.0
 36
0.0
 17
0.0
 27
1.0
 37
0.0
 76
     0
330
68
  0
LAYOUT
  5
73
102
{ACAD_XDICTIONARY
360
C87
102
}
102
{ACAD_REACTORS
330
62
102
}
330
62
100
AcDbPlotSettings
  1

  2

  4

  6

 40
0.0
 41
0.0
 42
0.0
 43
0.0
 44
0.0
 45
0.0
 46
0.0
 47
0.0
 48
0.0
 49
0.0
140
0.0
141
0.0
142
1.0
143
1.0
 70
   688
 72
     0
 73
     0
 74
     5
  7

 75
    16
147
1.0
148
0.0
149
0.0
100
AcDbLayout
  1
Layout2
 70
     1
 71
     2
 10
0.0
 20
0.0
 11
12.0
 21
9.0
 12
0.0
 22
0.0
 32
0.0
 14
0.0
 24
0.0
 34
0.0
 15
0.0
 25
0.0
 35
0.0
146
0.0
 13
0.0
 23
0.0
 33
0.0
 16
1.0
 26
0.0
 36
0.0
 17
0.0
 27
1.0
 37
0.0
 76
     0
330
70
  0
LAYOUT
  5
6F
102
{ACAD_XDICTIONARY
360
C85
102
}
102
{ACAD_REACTORS
330
62
102
}
330
62
100
AcDbPlotSettings
  1

  2

  4

  6

 40
0.0
 41
0.0
 42
0.0
 43
0.0
 44
0.0
 45
0.0
 46
0.0
 47
0.0
 48
0.0
 49
0.0
140
0.0
141
0.0
142
1.0
143
1.0
 70
  1712
 72
     0
 73
     0
 74
     0
  7

 75
     0
147
1.0
148
0.0
149
0.0
100
AcDbLayout
  1
Model
 70
     1
 71
     0
 10
0.0
 20
0.0
 11
12.0
 21
9.0
 12
0.0
 22
0.0
 32
0.0
 14
0.0
 24
0.0
 34
0.0
 15
0.0
 25
0.0
 35
0.0
146
0.0
 13
0.0
 23
0.0
 33
0.0
 16
1.0
 26
0.0
 36
0.0
 17
0.0
 27
1.0
 37
0.0
 76
     0
330
6C
  0
MATERIAL
  5
19
102
{ACAD_XDICTIONARY
360
1A
102
}
102
{ACAD_REACTORS
330
10
102
}
330
10
100
AcDbMaterial
  1
ByBlock
 72
     0
 43
0.0208333333333333
 43
0.0
 43
0.0
 43
0.0
 43
0.0
 43
0.0208333333333333
 43
0.0
 43
0.0
 43
0.0
 43
0.0
 43
1.0
 43
0.0
 43
0.0
 43
0.0
 43
0.0
 43
1.0
 77
     0
 47
0.0208333333333333
 47
0.0
 47
0.0
 47
0.0
 47
0.0
 47
0.0208333333333333
 47
0.0
 47
0.0
 47
0.0
 47
0.0
 47
1.0
 47
0.0
 47
0.0
 47
0.0
 47
0.0
 47
1.0
171
     0
 49
0.0208333333333333
 49
0.0
 49
0.0
 49
0.0
 49
0.0
 49
0.0208333333333333
 49
0.0
 49
0.0
 49
0.0
 49
0.0
 49
1.0
 49
0.0
 49
0.0
 49
0.0
 49
0.0
 49
1.0
175
     0
142
0.0208333333333333
142
0.0
142
0.0
142
0.0
142
0.0
142
0.0208333333333333
142
0.0
142
0.0
142
0.0
142
0.0
142
1.0
142
0.0
142
0.0
142
0.0
142
0.0
142
1.0
179
     0
144
0.0208333333333333
144
0.0
144
0.0
144
0.0
144
0.0
144
0.0208333333333333
144
0.0
144
0.0
144
0.0
144
0.0
144
1.0
144
0.0
144
0.0
144
0.0
144
0.0
144
1.0
147
0.0208333333333333
147
0.0
147
0.0
147
0.0
147
0.0
147
0.0208333333333333
147
0.0
147
0.0
147
0.0
147
0.0
147
1.0
147
0.0
147
0.0
147
0.0
147
0.0
147
1.0
  0
MATERIAL
  5
11
102
{ACAD_XDICTIONARY
360
12
102
}
102
{ACAD_REACTORS
330
10
102
}
330
10
100
AcDbMaterial
  1
ByLayer
 72
     0
 43
0.0208333333333333
 43
0.0
 43
0.0
 43
0.0
 43
0.0
 43
0.0208333333333333
 43
0.0
 43
0.0
 43
0.0
 43
0.0
 43
1.0
 43
0.0
 43
0.0
 43
0.0
 43
0.0
 43
1.0
 77
     0
 47
0.0208333333333333
 47
0.0
 47
0.0
 47
0.0
 47
0.0
 47
0.0208333333333333
 47
0.0
 47
0.0
 47
0.0
 47
0.0
 47
1.0
 47
0.0
 47
0.0
 47
0.0
 47
0.0
 47
1.0
171
     0
 49
0.0208333333333333
 49
0.0
 49
0.0
 49
0.0
 49
0.0
 49
0.0208333333333333
 49
0.0
 49
0.0
 49
0.0
 49
0.0
 49
1.0
 49
0.0
 49
0.0
 49
0.0
 49
0.0
 49
1.0
175
     0
142
0.0208333333333333
142
0.0
142
0.0
142
0.0
142
0.0
142
0.0208333333333333
142
0.0
142
0.0
142
0.0
142
0.0
142
1.0
142
0.0
142
0.0
142
0.0
142
0.0
142
1.0
179
     0
144
0.0208333333333333
144
0.0
144
0.0
144
0.0
144
0.0
144
0.0208333333333333
144
0.0
144
0.0
144
0.0
144
0.0
144
1.0
144
0.0
144
0.0
144
0.0
144
0.0
144
1.0
147
0.0208333333333333
147
0.0
147
0.0
147
0.0
147
0.0
147
0.0208333333333333
147
0.0
147
0.0
147
0.0
147
0.0
147
1.0
147
0.0
147
0.0
147
0.0
147
0.0
147
1.0
  0
MATERIAL
  5
21
102
{ACAD_XDICTIONARY
360
22
102
}
102
{ACAD_REACTORS
330
10
102
}
330
10
100
AcDbMaterial
  1
Global
 72
     0
 43
0.0208333333333333
 43
0.0
 43
0.0
 43
0.0
 43
0.0
 43
0.0208333333333333
 43
0.0
 43
0.0
 43
0.0
 43
0.0
 43
1.0
 43
0.0
 43
0.0
 43
0.0
 43
0.0
 43
1.0
 77
     0
 47
0.0208333333333333
 47
0.0
 47
0.0
 47
0.0
 47
0.0
 47
0.0208333333333333
 47
0.0
 47
0.0
 47
0.0
 47
0.0
 47
1.0
 47
0.0
 47
0.0
 47
0.0
 47
0.0
 47
1.0
171
     0
 49
0.0208333333333333
 49
0.0
 49
0.0
 49
0.0
 49
0.0
 49
0.0208333333333333
 49
0.0
 49
0.0
 49
0.0
 49
0.0
 49
1.0
 49
0.0
 49
0.0
 49
0.0
 49
0.0
 49
1.0
175
     0
142
0.0208333333333333
142
0.0
142
0.0
142
0.0
142
0.0
142
0.0208333333333333
142
0.0
142
0.0
142
0.0
142
0.0
142
1.0
142
0.0
142
0.0
142
0.0
142
0.0
142
1.0
179
     0
144
0.0208333333333333
144
0.0
144
0.0
144
0.0
144
0.0
144
0.0208333333333333
144
0.0
144
0.0
144
0.0
144
0.0
144
1.0
144
0.0
144
0.0
144
0.0
144
0.0
144
1.0
147
0.0208333333333333
147
0.0
147
0.0
147
0.0
147
0.0
147
0.0208333333333333
147
0.0
147
0.0
147
0.0
147
0.0
147
1.0
147
0.0
147
0.0
147
0.0
147
0.0
147
1.0
  0
MLEADERSTYLE
  5
67
102
{ACAD_XDICTIONARY
360
C48
102
}
102
{ACAD_REACTORS
330
66
102
}
330
66
100
AcDbMLeaderStyle
170
     2
171
     1
172
     0
 90
        2
 40
0.0
 41
0.0
173
     1
 91
-1056964608
340
5B
 92
       -2
290
     1
 42
0.09
291
     1
 43
0.36
  3
Standard
 44
0.18
300

342
55
174
     1
178
     6
175
     1
176
     0
 93
-1056964608
 45
0.18
292
     0
297
     0
 46
0.18
 94
-1056964608
 47
1.0
 49
1.0
140
1.0
293
     1
141
0.0
294
     1
177
     0
142
1.0
295
     0
296
     0
143
0.125
1001
ACAD_MLEADERVER
1070
     2
  0
MLINESTYLE
  5
60
102
{ACAD_REACTORS
330
5F
102
}
330
5F
100
AcDbMlineStyle
  2
STANDARD
 70
     0
  3

 62
   256
 51
90.0
 52
90.0
 71
     2
 49
0.5
 62
   256
  6
BYLAYER
 49
-0.5
 62
   256
  6
BYLAYER
  0
ACDBPLACEHOLDER
  5
F
102
{ACAD_REACTORS
330
E
102
}
330
E
  0
SCALE
  5
43
102
{ACAD_REACTORS
330
42
102
}
330
42
100
AcDbScale
 70
     0
300
1:1
140
1.0
141
1.0
290
     1
  0
SCALE
  5
44
102
{ACAD_REACTORS
330
42
102
}
330
42
100
AcDbScale
 70
     0
300
1/128" = 1'-0"
140
0.0078125
141
12.0
290
     0
  0
SCALE
  5
45
102
{ACAD_REACTORS
330
42
102
}
330
42
100
AcDbScale
 70
     0
300
1/64" = 1'-0"
140
0.015625
141
12.0
290
     0
  0
SCALE
  5
46
102
{ACAD_REACTORS
330
42
102
}
330
42
100
AcDbScale
 70
     0
300
1/32" = 1'-0"
140
0.03125
141
12.0
290
     0
  0
SCALE
  5
47
102
{ACAD_REACTORS
330
42
102
}
330
42
100
AcDbScale
 70
     0
300
1/16" = 1'-0"
140
0.0625
141
12.0
290
     0
  0
SCALE
  5
48
102
{ACAD_REACTORS
330
42
102
}
330
42
100
AcDbScale
 70
     0
300
3/32" = 1'-0"
140
0.09375
141
12.0
290
     0
  0
SCALE
  5
49
102
{ACAD_REACTORS
330
42
102
}
330
42
100
AcDbScale
 70
     0
300
1/8" = 1'-0"
140
0.125
141
12.0
290
     0
  0
SCALE
  5
4A
102
{ACAD_REACTORS
330
42
102
}
330
42
100
AcDbScale
 70
     0
300
3/16" = 1'-0"
140
0.1875
141
12.0
290
     0
  0
SCALE
  5
4B
102
{ACAD_REACTORS
330
42
102
}
330
42
100
AcDbScale
 70
     0
300
1/4" = 1'-0"
140
0.25
141
12.0
290
     0
  0
SCALE
  5
4C
102
{ACAD_REACTORS
330
42
102
}
330
42
100
AcDbScale
 70
     0
300
3/8" = 1'-0"
140
0.375
141
12.0
290
     0
  0
SCALE
  5
4D
102
{ACAD_REACTORS
330
42
102
}
330
42
100
AcDbScale
 70
     0
300
1/2" = 1'-0"
140
0.5
141
12.0
290
     0
  0
SCALE
  5
4E
102
{ACAD_REACTORS
330
42
102
}
330
42
100
AcDbScale
 70
     0
300
3/4" = 1'-0"
140
0.75
141
12.0
290
     0
  0
SCALE
  5
4F
102
{ACAD_REACTORS
330
42
102
}
330
42
100
AcDbScale
 70
     0
300
1" = 1'-0"
140
1.0
141
12.0
290
     0
  0
SCALE
  5
50
102
{ACAD_REACTORS
330
42
102
}
330
42
100
AcDbScale
 70
     0
300
1-1/2" = 1'-0"
140
1.5
141
12.0
290
     0
  0
SCALE
  5
51
102
{ACAD_REACTORS
330
42
102
}
330
42
100
AcDbScale
 70
     0
300
3" = 1'-0"
140
3.0
141
12.0
290
     0
  0
SCALE
  5
52
102
{ACAD_REACTORS
330
42
102
}
330
42
100
AcDbScale
 70
     0
300
6" = 1'-0"
140
6.0
141
12.0
290
     0
  0
SCALE
  5
53
102
{ACAD_REACTORS
330
42
102
}
330
42
100
AcDbScale
 70
     0
300
1'-0" = 1'-0"
140
12.0
141
12.0
290
     0
  0
TABLESTYLE
  5
65
102
{ACAD_XDICTIONARY
360
C46
102
}
102
{ACAD_REACTORS
330
64
102
}
330
64
100
AcDbTableStyle
  3
Standard
 70
     0
 71
     0
 40
0.06
 41
0.06
280
     0
281
     0
  7
Standard
140
0.18
170
     2
 62
     0
 63
     7
283
     0
274
    -2
284
     1
 64
     0
275
    -2
285
     1
 65
     0
276
    -2
286
     1
 66
     0
277
    -2
287
     1
 67
     0
278
    -2
288
     1
 68
     0
279
    -2
289
     1
 69
     0
  7
Standard
140
0.25
170
     5
 62
     0
 63
     7
283
     0
274
    -2
284
     1
 64
     0
275
    -2
285
     1
 65
     0
276
    -2
286
     1
 66
     0
277
    -2
287
     1
 67
     0
278
    -2
288
     1
 68
     0
279
    -2
289
     1
 69
     0
  7
Standard
140
0.18
170
     5
 62
     0
 63
     7
283
     0
274
    -2
284
     1
 64
     0
275
    -2
285
     1
 65
     0
276
    -2
286
     1
 66
     0
277
    -2
287
     1
 67
     0
278
    -2
288
     1
 68
     0
279
    -2
289
     1
 69
     0
  0
VISUALSTYLE
  5
2F
102
{ACAD_XDICTIONARY
360
C5B
102
}
102
{ACAD_REACTORS
330
29
102
}
330
29
100
AcDbVisualStyle
  2
2dWireframe
 70
     4
 71
     0
 72
     2
 73
     0
 90
        0
 40
-0.6
 41
-30.0
 62
     5
 63
     7
 74
     1
 91
        4
 64
     7
 65
   257
 75
     1
175
     1
 42
1.0
 92
        0
 66
   257
 43
1.0
 76
     1
 77
     6
 78
     2
 67
     7
 79
     5
170
     0
171
     0
290
     0
174
     0
 93
        1
 44
0.0
173
     0
291
     0
 45
0.0
1001
ACAD
1000
AcDbSavedByObjectVersion
1070
     0
  0
VISUALSTYLE
  5
2E
102
{ACAD_XDICTIONARY
360
C59
102
}
102
{ACAD_REACTORS
330
29
102
}
330
29
100
AcDbVisualStyle
  2
Basic
 70
     7
 71
     1
 72
     0
 73
     1
 90
        0
 40
-0.6
 41
-30.0
 62
     5
 63
     7
 74
     0
 91
        4
 64
     7
 65
   257
 75
     1
175
     1
 42
1.0
 92
        8
 66
     7
 43
1.0
 76
     1
 77
     6
 78
     2
 67
     7
 79
     5
170
     0
171
     0
290
     0
174
     0
 93
        1
 44
0.0
173
     0
291
     1
 45
0.0
1001
ACAD
1000
AcDbSavedByObjectVersion
1070
     0
  0
VISUALSTYLE
  5
35
102
{ACAD_XDICTIONARY
360
C67
102
}
102
{ACAD_REACTORS
330
29
102
}
330
29
100
AcDbVisualStyle
  2
Brighten
 70
    12
 71
     2
 72
     2
 73
     0
 90
        0
 40
-0.6
 41
-30.0
 62
     5
 63
     7
 74
     1
 91
        4
 64
     7
 65
   257
 75
     1
175
     1
 42
1.0
 92
        8
 66
     7
 43
1.0
 76
     1
 77
     6
 78
     2
 67
     7
 79
     5
170
     0
171
     0
290
     0
174
     0
 93
        1
 44
50.0
173
     0
291
     1
 45
0.0
1001
ACAD
1000
AcDbSavedByObjectVersion
1070
     0
  0
VISUALSTYLE
  5
39
102
{ACAD_XDICTIONARY
360
C6F
102
}
102
{ACAD_REACTORS
330
29
102
}
330
29
100
AcDbVisualStyle
  2
ColorChange
 70
    16
 71
     2
 72
     2
 73
     3
 90
        0
 40
-0.6
 41
-30.0
 62
     5
 63
     8
 74
     1
 91
        4
 64
     7
 65
   257
 75
     1
175
     1
 42
1.0
 92
        8
 66
     8
 43
1.0
 76
     1
 77
     6
 78
     2
 67
     7
 79
     5
170
     0
171
     0
290
     0
174
     0
 93
        1
 44
0.0
173
     0
291
     1
 45
0.0
1001
ACAD
1000
AcDbSavedByObjectVersion
1070
     0
  0
VISUALSTYLE
  5
32
102
{ACAD_XDICTIONARY
360
C61
102
}
102
{ACAD_REACTORS
330
29
102
}
330
29
100
AcDbVisualStyle
  2
Conceptual
 70
     9
 71
     3
 72
     2
 73
     0
 90
        0
 40
-0.6
 41
-30.0
 62
     5
 63
     7
 74
     2
 91
        2
 64
     7
 65
   257
 75
     1
175
     1
 42
179.0
 92
        8
 66
     7
 43
1.0
 76
     1
 77
     6
 78
     2
 67
     7
 79
     3
170
     0
171
     0
290
     0
174
     0
 93
        1
 44
0.0
173
     0
291
     0
 45
0.0
1001
ACAD
1000
AcDbSavedByObjectVersion
1070
     0
  0
VISUALSTYLE
  5
34
102
{ACAD_XDICTIONARY
360
C65
102
}
102
{ACAD_REACTORS
330
29
102
}
330
29
100
AcDbVisualStyle
  2
Dim
 70
    11
 71
     2
 72
     2
 73
     0
 90
        0
 40
-0.6
 41
-30.0
 62
     5
 63
     7
 74
     1
 91
        4
 64
     7
 65
   257
 75
     1
175
     1
 42
1.0
 92
        8
 66
     7
 43
1.0
 76
     1
 77
     6
 78
     2
 67
     7
 79
     5
170
     0
171
     0
290
     0
174
     0
 93
        1
 44
-50.0
173
     0
291
     1
 45
0.0
1001
ACAD
1000
AcDbSavedByObjectVersion
1070
     0
  0
VISUALSTYLE
  5
41
102
{ACAD_XDICTIONARY
360
C7F
102
}
102
{ACAD_REACTORS
330
29
102
}
330
29
100
AcDbVisualStyle
  2
EdgeColorOff
 70
    22
 71
     2
 72
     2
 73
     0
 90
        0
 40
-0.6
 41
-30.0
 62
     5
 63
     7
 74
     1
 91
        4
 64
     7
 65
   257
 75
     1
175
     1
 42
1.0
 92
        8
 66
     7
 43
1.0
 76
     1
 77
     6
 78
     2
 67
     7
 79
     5
170
     0
171
     0
290
     0
174
     0
 93
        1
 44
0.0
173
     0
291
     1
 45
0.0
1001
ACAD
1000
AcDbSavedByObjectVersion
1070
     0
  0
VISUALSTYLE
  5
38
102
{ACAD_XDICTIONARY
360
C6D
102
}
102
{ACAD_REACTORS
330
29
102
}
330
29
100
AcDbVisualStyle
  2
Facepattern
 70
    15
 71
     2
 72
     2
 73
     0
 90
        0
 40
-0.6
 41
-30.0
 62
     5
 63
     7
 74
     1
 91
        4
 64
     7
 65
   257
 75
     1
175
     1
 42
1.0
 92
        8
 66
     7
 43
1.0
 76
     1
 77
     6
 78
     2
 67
     7
 79
     5
170
     0
171
     0
290
     0
174
     0
 93
        1
 44
0.0
173
     0
291
     1
 45
0.0
1001
ACAD
1000
AcDbSavedByObjectVersion
1070
     0
  0
VISUALSTYLE
  5
2A
102
{ACAD_XDICTIONARY
360
C51
102
}
102
{ACAD_REACTORS
330
29
102
}
330
29
100
AcDbVisualStyle
  2
Flat
 70
     0
 71
     2
 72
     1
 73
     1
 90
        2
 40
-0.6
 41
30.0
 62
     5
 63
     7
 74
     0
 91
        0
 64
     7
 65
   257
 75
     1
175
     1
 42
1.0
 92
        8
 66
     7
 43
1.0
 76
     1
 77
     6
 78
     2
 67
     7
 79
     5
170
     0
171
     0
290
     0
174
     0
 93
       13
 44
0.0
173
     0
291
     1
 45
0.0
1001
ACAD
1000
AcDbSavedByObjectVersion
1070
     0
  0
VISUALSTYLE
  5
2B
102
{ACAD_XDICTIONARY
360
C53
102
}
102
{ACAD_REACTORS
330
29
102
}
330
29
100
AcDbVisualStyle
  2
FlatWithEdges
 70
     1
 71
     2
 72
     1
 73
     1
 90
        2
 40
-0.6
 41
30.0
 62
     5
 63
     7
 74
     1
 91
        0
 64
     7
 65
   257
 75
     1
175
     1
 42
1.0
 92
        0
 66
   257
 43
1.0
 76
     1
 77
     6
 78
     2
 67
     7
 79
     5
170
     0
171
     0
290
     0
174
     0
 93
       13
 44
0.0
173
     0
291
     1
 45
0.0
1001
ACAD
1000
AcDbSavedByObjectVersion
1070
     0
  0
VISUALSTYLE
  5
2C
102
{ACAD_XDICTIONARY
360
C55
102
}
102
{ACAD_REACTORS
330
29
102
}
330
29
100
AcDbVisualStyle
  2
Gouraud
 70
     2
 71
     2
 72
     2
 73
     1
 90
        2
 40
-0.6
 41
30.0
 62
     5
 63
     7
 74
     0
 91
        0
 64
     7
 65
   257
 75
     1
175
     1
 42
1.0
 92
        0
 66
     7
 43
1.0
 76
     1
 77
     6
 78
     2
 67
     7
 79
     5
170
     0
171
     0
290
     0
174
     0
 93
       13
 44
0.0
173
     0
291
     1
 45
0.0
1001
ACAD
1000
AcDbSavedByObjectVersion
1070
     0
  0
VISUALSTYLE
  5
2D
102
{ACAD_XDICTIONARY
360
C57
102
}
102
{ACAD_REACTORS
330
29
102
}
330
29
100
AcDbVisualStyle
  2
GouraudWithEdges
 70
     3
 71
     2
 72
     2
 73
     1
 90
        2
 40
-0.6
 41
30.0
 62
     5
 63
     7
 74
     1
 91
        0
 64
     7
 65
   257
 75
     1
175
     1
 42
1.0
 92
        0
 66
   257
 43
1.0
 76
     1
 77
     6
 78
     2
 67
     7
 79
     5
170
     0
171
     0
290
     0
174
     0
 93
       13
 44
0.0
173
     0
291
     1
 45
0.0
1001
ACAD
1000
AcDbSavedByObjectVersion
1070
     0
  0
VISUALSTYLE
  5
31
102
{ACAD_XDICTIONARY
360
C5F
102
}
102
{ACAD_REACTORS
330
29
102
}
330
29
100
AcDbVisualStyle
  2
Hidden
 70
     6
 71
     1
 72
     2
 73
     2
 90
        0
 40
-0.6
 41
-30.0
 62
     5
 63
     7
 74
     2
 91
        2
 64
     7
 65
   257
 75
     2
175
     1
 42
40.0
 92
        0
 66
   257
 43
1.0
 76
     1
 77
     6
 78
     2
 67
     7
 79
     3
170
     0
171
     0
290
     0
174
     0
 93
        1
 44
0.0
173
     0
291
     0
 45
0.0
1001
ACAD
1000
AcDbSavedByObjectVersion
1070
     0
  0
VISUALSTYLE
  5
3F
102
{ACAD_XDICTIONARY
360
C7B
102
}
102
{ACAD_REACTORS
330
29
102
}
330
29
100
AcDbVisualStyle
  2
JitterOff
 70
    20
 71
     2
 72
     2
 73
     0
 90
        0
 40
-0.6
 41
-30.0
 62
     5
 63
     7
 74
     1
 91
        4
 64
     7
 65
   257
 75
     1
175
     1
 42
1.0
 92
       10
 66
     7
 43
1.0
 76
     1
 77
     6
 78
     2
 67
     7
 79
     5
170
     0
171
     0
290
     0
174
     0
 93
        1
 44
0.0
173
     0
291
     1
 45
0.0
1001
ACAD
1000
AcDbSavedByObjectVersion
1070
     0
  0
VISUALSTYLE
  5
37
102
{ACAD_XDICTIONARY
360
C6B
102
}
102
{ACAD_REACTORS
330
29
102
}
330
29
100
AcDbVisualStyle
  2
Linepattern
 70
    14
 71
     2
 72
     2
 73
     0
 90
        0
 40
-0.6
 41
-30.0
 62
     5
 63
     7
 74
     1
 91
        4
 64
     7
 65
   257
 75
     7
175
     7
 42
1.0
 92
        8
 66
     7
 43
1.0
 76
     1
 77
     6
 78
     2
 67
     7
 79
     5
170
     0
171
     0
290
     0
174
     0
 93
        1
 44
0.0
173
     0
291
     1
 45
0.0
1001
ACAD
1000
AcDbSavedByObjectVersion
1070
     0
  0
VISUALSTYLE
  5
40
102
{ACAD_XDICTIONARY
360
C7D
102
}
102
{ACAD_REACTORS
330
29
102
}
330
29
100
AcDbVisualStyle
  2
OverhangOff
 70
    21
 71
     2
 72
     2
 73
     0
 90
        0
 40
-0.6
 41
-30.0
 62
     5
 63
     7
 74
     1
 91
        4
 64
     7
 65
   257
 75
     1
175
     1
 42
1.0
 92
        9
 66
     7
 43
1.0
 76
     1
 77
     6
 78
     2
 67
     7
 79
     5
170
     0
171
     0
290
     0
174
     0
 93
        1
 44
0.0
173
     0
291
     1
 45
0.0
1001
ACAD
1000
AcDbSavedByObjectVersion
1070
     0
  0
VISUALSTYLE
  5
33
102
{ACAD_XDICTIONARY
360
C63
102
}
102
{ACAD_REACTORS
330
29
102
}
330
29
100
AcDbVisualStyle
  2
Realistic
 70
     8
 71
     2
 72
     3
 73
     0
 90
        2
 40
-0.6
 41
30.0
 62
     5
 63
     7
 74
     0
 91
        0
 64
     7
 65
   257
 75
     1
175
     1
 42
1.0
 92
        8
 66
   257
 43
1.0
 76
     1
 77
     6
 78
     2
 67
     7
 79
     3
170
     0
171
     0
290
     0
174
     0
 93
       13
 44
0.0
173
     0
291
     0
 45
0.0
1001
ACAD
1000
AcDbSavedByObjectVersion
1070
     0
  0
VISUALSTYLE
  5
3E
102
{ACAD_XDICTIONARY
360
C79
102
}
102
{ACAD_REACTORS
330
29
102
}
330
29
100
AcDbVisualStyle
  2
Shaded
 70
    27
 71
     2
 72
     2
 73
     1
 90
        2
 40
-0.6
 41
30.0
 62
     5
 63
     7
 74
     0
 91
        4
 64
     7
 65
   257
 75
     1
175
     1
 42
1.0
 92
        8
 66
   257
 43
1.0
 76
     1
 77
     6
 78
     2
 67
     8
 79
     3
170
     0
171
     0
290
     0
174
     0
 93
        5
 44
0.0
173
     0
291
     0
 45
0.0
1001
ACAD
1000
AcDbSavedByObjectVersion
1070
     0
  0
VISUALSTYLE
  5
3D
102
{ACAD_XDICTIONARY
360
C77
102
}
102
{ACAD_REACTORS
330
29
102
}
330
29
100
AcDbVisualStyle
  2
Shaded with edges
 70
    26
 71
     2
 72
     2
 73
     1
 90
        2
 40
-0.6
 41
30.0
 62
     5
 63
     7
 74
     1
 91
       10
 64
     7
 65
   257
 75
     2
175
     1
 42
1.0
 92
        8
 66
   257
 43
1.0
 76
     1
 77
     6
 78
     2
 67
     7
 79
     3
170
     0
171
     0
290
     0
174
     0
 93
        5
 44
0.0
173
     0
291
     0
 45
0.0
1001
ACAD
1000
AcDbSavedByObjectVersion
1070
     0
  0
VISUALSTYLE
  5
3A
102
{ACAD_XDICTIONARY
360
C71
102
}
102
{ACAD_REACTORS
330
29
102
}
330
29
100
AcDbVisualStyle
  2
Shades of Gray
 70
    23
 71
     2
 72
     2
 73
     3
 90
        0
 40
-0.6
 41
-30.0
 62
     5
 63
     7
 74
     2
 91
        2
 64
     7
 65
     7
 75
     1
175
     1
 42
40.0
 92
        8
 66
     7
 43
1.0
 76
     1
 77
     6
 78
     2
 67
     7
 79
     3
170
     0
171
     0
290
     0
174
     0
 93
        1
 44
0.0
173
     0
291
     0
 45
0.0
1001
ACAD
1000
AcDbSavedByObjectVersion
1070
     0
  0
VISUALSTYLE
  5
3B
102
{ACAD_XDICTIONARY
360
C73
102
}
102
{ACAD_REACTORS
330
29
102
}
330
29
100
AcDbVisualStyle
  2
Sketchy
 70
    24
 71
     1
 72
     2
 73
     2
 90
        0
 40
-0.6
 41
-30.0
 62
     5
 63
     7
 74
     2
 91
        2
 64
     7
 65
     7
 75
     1
175
     1
 42
40.0
 92
       11
 66
     7
 43
1.0
 76
     1
 77
     6
 78
     2
 67
     7
 79
     6
170
     0
171
     0
290
     0
174
     0
 93
        1
 44
0.0
173
     0
291
     0
 45
0.0
1001
ACAD
1000
AcDbSavedByObjectVersion
1070
     0
  0
VISUALSTYLE
  5
36
102
{ACAD_XDICTIONARY
360
C69
102
}
102
{ACAD_REACTORS
330
29
102
}
330
29
100
AcDbVisualStyle
  2
Thicken
 70
    13
 71
     2
 72
     2
 73
     0
 90
        0
 40
-0.6
 41
-30.0
 62
     5
 63
     7
 74
     1
 91
        4
 64
     7
 65
   257
 75
     1
175
     1
 42
1.0
 92
       12
 66
     7
 43
1.0
 76
     1
 77
     6
 78
     2
 67
     7
 79
     5
170
     0
171
     0
290
     0
174
     0
 93
        1
 44
0.0
173
     0
291
     1
 45
0.0
1001
ACAD
1000
AcDbSavedByObjectVersion
1070
     0
  0
VISUALSTYLE
  5
30
102
{ACAD_XDICTIONARY
360
C5D
102
}
102
{ACAD_REACTORS
330
29
102
}
330
29
100
AcDbVisualStyle
  2
Wireframe
 70
     5
 71
     0
 72
     2
 73
     0
 90
        0
 40
-0.6
 41
-30.0
 62
     5
 63
     7
 74
     1
 91
        4
 64
     7
 65
   257
 75
     1
175
     1
 42
1.0
 92
        0
 66
   257
 43
1.0
 76
     1
 77
     6
 78
     2
 67
     7
 79
     3
170
     0
171
     0
290
     0
174
     0
 93
        1
 44
0.0
173
     0
291
     0
 45
0.0
1001
ACAD
1000
AcDbSavedByObjectVersion
1070
     0
  0
VISUALSTYLE
  5
3C
102
{ACAD_XDICTIONARY
360
C75
102
}
102
{ACAD_REACTORS
330
29
102
}
330
29
100
AcDbVisualStyle
  2
X-Ray
 70
    25
 71
     2
 72
     2
 73
     1
 90
        1
 40
0.5
 41
-30.0
 62
     5
 63
     7
 74
     1
 91
        0
 64
     7
 65
   257
 75
     1
175
     1
 42
1.0
 92
        8
 66
     7
 43
1.0
 76
     1
 77
     6
 78
     2
 67
     7
 79
     3
170
     0
171
     0
290
     0
174
     0
 93
       13
 44
0.0
173
     0
291
     0
 45
0.0
1001
ACAD
1000
AcDbSavedByObjectVersion
1070
     0
  0
DICTIONARYVAR
  5
79
102
{ACAD_REACTORS
330
76
102
}
330
76
100
DictionaryVariables
280
     0
  1
1:1
  0
DICTIONARYVAR
  5
78
102
{ACAD_REACTORS
330
76
102
}
330
76
100
DictionaryVariables
280
     0
  1
STANDARD
  0
DICTIONARYVAR
  5
77
102
{ACAD_REACTORS
330
76
102
}
330
76
100
DictionaryVariables
280
     0
  1
STANDARD
  0
DICTIONARYVAR
  5
C44
102
{ACAD_REACTORS
330
76
102
}
330
76
100
DictionaryVariables
280
     0
  1
1
  0
DICTIONARYVAR
  5
C43
102
{ACAD_REACTORS
330
76
102
}
330
76
100
DictionaryVariables
280
     0
  1
1
  0
DICTIONARYVAR
  5
C42
102
{ACAD_REACTORS
330
76
102
}
330
76
100
DictionaryVariables
280
     0
  1
0
  0
DICTIONARYVAR
  5
C3F
102
{ACAD_REACTORS
330
76
102
}
330
76
100
DictionaryVariables
280
     0
  1
0
  0
DICTIONARYVAR
  5
C40
102
{ACAD_REACTORS
330
76
102
}
330
76
100
DictionaryVariables
280
     0
  1
0
  0
DICTIONARYVAR
  5
C3E
102
{ACAD_REACTORS
330
76
102
}
330
76
100
DictionaryVariables
280
     0
  1
2
  0
DICTIONARYVAR
  5
C3D
102
{ACAD_REACTORS
330
76
102
}
330
76
100
DictionaryVariables
280
     0
  1
1
  0
DICTIONARYVAR
  5
C41
102
{ACAD_REACTORS
330
76
102
}
330
76
100
DictionaryVariables
280
     0
  1
127
  0
DICTIONARYVAR
  5
C45
102
{ACAD_REACTORS
330
76
102
}
330
76
100
DictionaryVariables
280
     0
  1
2
  0
DICTIONARY
  5
C83
330
6B
100
AcDbDictionary
280
     1
281
     1
  3
ACAD_XREC_ROUNDTRIP
360
C84
  0
DICTIONARY
  5
C87
330
73
100
AcDbDictionary
280
     1
281
     1
  3
ACAD_XREC_ROUNDTRIP
360
C88
  0
DICTIONARY
  5
C85
330
6F
100
AcDbDictionary
280
     1
281
     1
  3
ACAD_XREC_ROUNDTRIP
360
C86
  0
DICTIONARY
  5
1A
330
19
100
AcDbDictionary
280
     1
281
     1
  3
ACAD_XREC_ROUNDTRIP
360
C4F
  3
BUMPTILE
360
1C
  3
DIFFUSETILE
360
1B
  3
OPACITYTILE
360
1F
  3
REFLECTIONTILE
360
1E
  3
REFRACTIONTILE
360
20
  3
SPECULARTILE
360
1D
  0
DICTIONARY
  5
12
330
11
100
AcDbDictionary
280
     1
281
     1
  3
ACAD_XREC_ROUNDTRIP
360
C4E
  3
BUMPTILE
360
14
  3
DIFFUSETILE
360
13
  3
FBXASSET
360
109
  3
OPACITYTILE
360
17
  3
REFLECTIONTILE
360
16
  3
REFRACTIONTILE
360
18
  3
SPECULARTILE
360
15
  0
DICTIONARY
  5
22
330
21
100
AcDbDictionary
280
     1
281
     1
  3
ACAD_XREC_ROUNDTRIP
360
C50
  3
BUMPTILE
360
24
  3
DIFFUSETILE
360
23
  3
FBXASSET
360
BA
  3
OPACITYTILE
360
27
  3
REFLECTIONTILE
360
26
  3
REFRACTIONTILE
360
28
  3
SPECULARTILE
360
25
  0
DICTIONARY
  5
C48
330
67
100
AcDbDictionary
280
     1
281
     1
  3
ACAD_XREC_ROUNDTRIP
360
C49
  0
DICTIONARY
  5
C46
330
65
100
AcDbDictionary
280
     1
281
     1
  3
ACAD_ROUNDTRIP_2008_TABLESTYLE_CELLSTYLEMAP
360
C47
  3
ACAD_XREC_ROUNDTRIP
360
C81
  0
DICTIONARY
  5
C5B
330
2F
100
AcDbDictionary
280
     1
281
     1
  3
ACAD_XREC_ROUNDTRIP
360
C5C
  0
DICTIONARY
  5
C59
330
2E
100
AcDbDictionary
280
     1
281
     1
  3
ACAD_XREC_ROUNDTRIP
360
C5A
  0
DICTIONARY
  5
C67
330
35
100
AcDbDictionary
280
     1
281
     1
  3
ACAD_XREC_ROUNDTRIP
360
C68
  0
DICTIONARY
  5
C6F
330
39
100
AcDbDictionary
280
     1
281
     1
  3
ACAD_XREC_ROUNDTRIP
360
C70
  0
DICTIONARY
  5
C61
330
32
100
AcDbDictionary
280
     1
281
     1
  3
ACAD_XREC_ROUNDTRIP
360
C62
  0
DICTIONARY
  5
C65
330
34
100
AcDbDictionary
280
     1
281
     1
  3
ACAD_XREC_ROUNDTRIP
360
C66
  0
DICTIONARY
  5
C7F
330
41
100
AcDbDictionary
280
     1
281
     1
  3
ACAD_XREC_ROUNDTRIP
360
C80
  0
DICTIONARY
  5
C6D
330
38
100
AcDbDictionary
280
     1
281
     1
  3
ACAD_XREC_ROUNDTRIP
360
C6E
  0
DICTIONARY
  5
C51
330
2A
100
AcDbDictionary
280
     1
281
     1
  3
ACAD_XREC_ROUNDTRIP
360
C52
  0
DICTIONARY
  5
C53
330
2B
100
AcDbDictionary
280
     1
281
     1
  3
ACAD_XREC_ROUNDTRIP
360
C54
  0
DICTIONARY
  5
C55
330
2C
100
AcDbDictionary
280
     1
281
     1
  3
ACAD_XREC_ROUNDTRIP
360
C56
  0
DICTIONARY
  5
C57
330
2D
100
AcDbDictionary
280
     1
281
     1
  3
ACAD_XREC_ROUNDTRIP
360
C58
  0
DICTIONARY
  5
C5F
330
31
100
AcDbDictionary
280
     1
281
     1
  3
ACAD_XREC_ROUNDTRIP
360
C60
  0
DICTIONARY
  5
C7B
330
3F
100
AcDbDictionary
280
     1
281
     1
  3
ACAD_XREC_ROUNDTRIP
360
C7C
  0
DICTIONARY
  5
C6B
330
37
100
AcDbDictionary
280
     1
281
     1
  3
ACAD_XREC_ROUNDTRIP
360
C6C
  0
DICTIONARY
  5
C7D
330
40
100
AcDbDictionary
280
     1
281
     1
  3
ACAD_XREC_ROUNDTRIP
360
C7E
  0
DICTIONARY
  5
C63
330
33
100
AcDbDictionary
280
     1
281
     1
  3
ACAD_XREC_ROUNDTRIP
360
C64
  0
DICTIONARY
  5
C79
330
3E
100
AcDbDictionary
280
     1
281
     1
  3
ACAD_XREC_ROUNDTRIP
360
C7A
  0
DICTIONARY
  5
C77
330
3D
100
AcDbDictionary
280
     1
281
     1
  3
ACAD_XREC_ROUNDTRIP
360
C78
  0
DICTIONARY
  5
C71
330
3A
100
AcDbDictionary
280
     1
281
     1
  3
ACAD_XREC_ROUNDTRIP
360
C72
  0
DICTIONARY
  5
C73
330
3B
100
AcDbDictionary
280
     1
281
     1
  3
ACAD_XREC_ROUNDTRIP
360
C74
  0
DICTIONARY
  5
C69
330
36
100
AcDbDictionary
280
     1
281
     1
  3
ACAD_XREC_ROUNDTRIP
360
C6A
  0
DICTIONARY
  5
C5D
330
30
100
AcDbDictionary
280
     1
281
     1
  3
ACAD_XREC_ROUNDTRIP
360
C5E
  0
DICTIONARY
  5
C75
330
3C
100
AcDbDictionary
280
     1
281
     1
  3
ACAD_XREC_ROUNDTRIP
360
C76
  0
XRECORD
  5
C84
102
{ACAD_REACTORS
330
C83
102
}
330
C83
100
AcDbXrecord
280
     1
102
SHADEPLOT
 70
     0
102
SHADEPLOTRESLEVEL
 70
     2
102
SHADEPLOTCUSTOMDPI
 70
   300
  0
XRECORD
  5
C88
102
{ACAD_REACTORS
330
C87
102
}
330
C87
100
AcDbXrecord
280
     1
102
SHADEPLOT
 70
     0
102
SHADEPLOTRESLEVEL
 70
     2
102
SHADEPLOTCUSTOMDPI
 70
   300
  0
XRECORD
  5
C86
102
{ACAD_REACTORS
330
C85
102
}
330
C85
100
AcDbXrecord
280
     1
102
SHADEPLOT
 70
     0
102
SHADEPLOTRESLEVEL
 70
     2
102
SHADEPLOTCUSTOMDPI
 70
   300
  0
XRECORD
  5
C4F
102
{ACAD_REACTORS
330
1A
102
}
330
1A
100
AcDbXrecord
280
     1
102
MATERIAL
148
0.0
149
0.0
149
0.0
 93
        0
 94
      127
282
     0
 72
     0
 77
     0
171
     0
175
     0
179
     0
273
     0
  0
XRECORD
  5
1C
102
{ACAD_REACTORS
330
1A
102
}
330
1A
100
AcDbXrecord
280
     1
270
     1
271
     1
  0
XRECORD
  5
1B
102
{ACAD_REACTORS
330
1A
102
}
330
1A
100
AcDbXrecord
280
     1
270
     1
271
     1
  0
XRECORD
  5
1F
102
{ACAD_REACTORS
330
1A
102
}
330
1A
100
AcDbXrecord
280
     1
270
     1
271
     1
  0
XRECORD
  5
1E
102
{ACAD_REACTORS
330
1A
102
}
330
1A
100
AcDbXrecord
280
     1
270
     1
271
     1
  0
XRECORD
  5
20
102
{ACAD_REACTORS
330
1A
102
}
330
1A
100
AcDbXrecord
280
     1
270
     1
271
     1
  0
XRECORD
  5
1D
102
{ACAD_REACTORS
330
1A
102
}
330
1A
100
AcDbXrecord
280
     1
270
     1
271
     1
  0
XRECORD
  5
C4E
102
{ACAD_REACTORS
330
12
102
}
330
12
100
AcDbXrecord
280
     1
102
MATERIAL
148
0.0
149
0.0
149
0.0
 93
        0
 94
      127
282
     0
 72
     0
 77
     0
171
     0
175
     0
179
     0
273
     0
  0
XRECORD
  5
14
102
{ACAD_REACTORS
330
12
102
}
330
12
100
AcDbXrecord
280
     1
270
     1
271
     1
  0
XRECORD
  5
13
102
{ACAD_REACTORS
330
12
102
}
330
12
100
AcDbXrecord
280
     1
270
     1
271
     1
  0
XRECORD
  5
109
102
{ACAD_REACTORS
330
12
102
}
330
12
100
AcDbXrecord
280
     1
 70
     1
 90
1959938040
 71
     1
  1
6E0274EC-8037-49D0-898F-027D52FB201A
311
504B03040A00000800008D7431403DEE336E79000000790000001B0000006175746F6465736B2D64657369676E2D7061636B6167652E786D6C3C3F786D6C2076657273696F6E3D22312E302220656E636F64696E673D227574662D3822203F3E3C666F726D6174733E3C666F726D61743E687474703A2F2F736368656D612E
311
6175746F6465736B2E636F6D2F64657369676E2D7061636B6167652F323030393C2F666F726D61743E3C2F666F726D6174733E504B03041400060808008D743140D486FD9CA0000000F4000000130000005B436F6E74656E745F54797065735D2E786D6C7D8EC10E82300C865F65E91D8A1E8C310C0EEA1BF002731658846E
311
D98AC1B77784ABF1D8FE5FBFBF75BBCE937A534CCEB38643598122B6FEE978D0B0485F9C41B54DDD7D022595594E1A469170414C76A4D9A4D207E29CF43ECE46F218070CC6BECC4078ACAA135ACF422C856C0E68EA1BF5669944DDD7BCDE7B1F8E415D77AECB980613C2E4AC91FC167A2B244592486606FC29C8FD7F045B9A
311
EF7053A7E60B504B03041400060808008D743140FFABC4E9E90000007C01000008000000636F72652E786D6C8D904D6EC3201085AF82668F03FE6D2D4C14CBEE097A0104C44189C13210E5F8C58923B5BBAE66F4E67D33A3C78E8FF986EE7AF5C6D90E684600692B9D3276EA208633FE0074E46C752EFCB201B262D61D6C32
311
7036AD2E2EBB249D0DDA86A45AA7F42E0AEF7500246FA9E9C0CB8B9E452662480E7FCD1621AF62D2197D77098ED128F43A6254DA67CE46AFC0C79AF4655F8EB8A9AB1197C589E2BEA2031E8A72688AAFCF5345093B6C3067C1CCEFFB72D52268053C2734C78462DA7CD3B22DEA36AF31A95B92A0CDFE078A8BFA27148D0D45
311
BEBFFBC23C709A1E790E383B6C59A4F20C2AD52D37FE03504B03041400060808008D74314055019EA25F0000007C00000007000000636E782E786D6C4DCB3B0E80201045D1AD90E915ED2CF8AC45050C11660C8261F98AB1B07AC9C97D42D718D865D3E909258CFD00CCE24AC6E326A164D74DC0B4128928FF326038472BA1
311
3128B1252AC747C6BAB984FC68F0B87FE8960A5C09FE86CFB69FBA01504B03041400060808008D743140F0216B5566010000020300000C0000006662782F636F72652E786D6C8D52ED8E8230107C95A6FF4B2920DE9952A3D17B827B810A956B84969496F8F8B77C18CF8B3186A434333BBBB3037C7B6D1B3428D76B6B0ACC
311
A21823654A5B69531738F833F9C0682BB8B3D6FF29C3C8C856157884B1E0B5B3A15BA0D21AAF8C07D4D84A2DA0EC7BE5312A1BB814B82F7F542B23193C54F497A893E545D62A6211D0502778EF1D1840F390F1C4E27CBA723AE38287A0AB85D5154CD367AD1C16C73CDE67FBEC48D6F9EA48B274C7C87EC50EE490668775FA
311
F5B95BB198D3512CB8D7EDCD5DE994F4AAC2228959426246D8FA9B659B34DF243989F34D0CA2B1FC4114BAEA4D51D0C6A7C9627796F55830303211FFB685883CEAE5007EA8E0740C115E53C28F41432010B297A7E6B6C705A04195DEBA0C98CA863B35C82628981AA3E9E17466A1F3D400367BDA2779D1E7750FF880D2D460
311
4D7AB89E821FA7F379EA1245A71C19FC1519EB5AD9DCCDCD16EFE77DD05379691BEBDE51D36555BA8449C7BF57FC02504B03041400060808008D74314025DA63B27E0000009D0000000B0000006662782F636E782E786D6C4DCCD10A83201886E15B91FFDCA5B98D04359CADFB886521990EA76397BF1A1DECE883878F57B4
311
9FD5A3B74D2F1783047A22806C78C4D1855942C9136E00B54AA418F3DF0D5018562B616750624EB13C0F1AED34149F37F52E2C0772668CBEDC19BED5E48ACFD434981BC271A76BC2FA9E6AD211A894A87EA56DF7B0FA02504B03041400060808008D743140610352102B01000014020000310000006662782F393343434135
311
45332D423230362D343143382D394330392D4441323033464631413044302F636F72652E786D6C8D51CB6EC32010FC15C4293D60037EE4214C943ACD17F4071C20294A0C168F2A9F5FA81DA9BDE5C2A2D999D9D12EDB3FC63BF856CE6B6B3A480A0C8132C24A6DAE1D8CE1823610EC3973D6863F3408CC30AA0E6618727675
311
364E0B24AC09CA84841A2BD5020EDEAB0081B8A74F07BDF852E3500C312486BF15D3206EC35515A448EDC4E3CC0797028079487E21DF567D7F683E2AF44E718B6AD26FD0B6C75B743C505C9D4EE4808F9895B390B318B55CE45AA638FAA2957BD5248B390B7A7CC6174E0D4149C82926146182C8FA93D4BBAADDD116E17687
311
D3E44CFF278A937C5114B509155DE2CE320F3961E5DCE04CDA78BE3FC3A8C7645D0079DECA2BF106392E30C54DB3AE36AC9CA96901C9B3AD174F1FAC4B0B5EDDCE894D9AD9B8AD392BF38D52F93D60AAF99EFC07504B03041400060808008D743140011130304D01000033030000300000006662782F39334343413545332D
311
423230362D343143382D394330392D4441323033464631413044302F636E782E786D6CD593BD6E032110845F05D1DF0FF6E912591C9652E40952A4C5B076883938F113C56F9FC5C68E1B1729D3A0D3EC30B3FAC4F1EDF76CC9178468BC9B286B7B4AC029AF8D3B4C34A77DF34CC956F0E07DBAB351E2E40C132D3215FC107C
311
5EAAA4612FB34DA85AE38E550C107D0E0A22CAE526B15E498B01E09A8C22CC3BD01A34B919F16B0F015741717722E903C8EBCB3BF1BB4F5029F2AEA408DE950EC1CB599BEE4C94282B639C68541F30CB56E6E435C463AB65922D6BAF5D0F76FA4D22E5C2B53207434AF944CB4945DDA8458EBCC3A1E03105A4574DE9B40015
311
7259AC513221E4EE6CBC7804CFC6A571A85E83E003BAD9B81E060C3BCF044F6686EA500164024DC5AA67ABA6670D7B7A63C3663D6E5663D38F9BBEE75DB10BBEF3DED64B1803C12F447997C0252A18EFCAF811BEEA23DA0464EDC3E90F2011406DBDD0B965FC673EDDF97D23AE807F81F801504B03041400060808008D7431
311
4099D61CA3990500007B100000340000006662782F39334343413545332D423230362D343143382D394330392D4441323033464631413044302F6F626A656374732E786D6CAD575D739B3814FD2B0CFB0C18DB49931D4227B1938EA79BB6534F3BFB90198F0041B4111F2389D4E9AFDF2310185C3BF1EEF4059090AEEE3DF7
311
DC0F05EFB739B79EA990AC2CAE6CDF9DD8162DE23261457665D72A752E6CEB7D1888B2548365B655909C5ED97ADA0E834C947565A6129A929AABBDD9BB9BBF2D19D382DA56CC899457B68C1F694E5C52AB32A1F2C94D88226E966E5DDF6D178EC56682548F7B422B2268A1A029E60B48B15AA5FCF170627B61E0E9FF61A09F
311
66D5ECF82AAFB1677C3E2BA42245FCCB617B6266FE7C793B3DBB74CEE6F399333F9FFACECDDDCDD2F1DFCD268BF3C5E2F2FAF612074B2520C96822686A871F808D6071E0B5BFC2A066859A4DCD12E3204FD067A63D658753CB0FBC764D6F9D31F290FA715914346EB0021A8D7D4674422B5A24F039A3129A0D109A8C87BEC6
311
71F07BA6C7E6C8E1F469080C770C0475BA77EFA1A665F40F4C90A7304848AA19D862690C6DB93AD9211C952537FF98B472A2A860845B9C458288173BC452BD240C46623493858E066D811DC20BEDEF315D10466FF3FC909669CDB9A6B11D3651B041AC50251BCDD84F2A76DA0F91814EF09566C3853148BD54D40E2F5B8A5C
311
ECB1A905D24A39C9E07298A977CEA67B862E749CAE9676F8F12EDAAE75EC1E3EBC12654585D2F401B53AC7756F8D92D1C93FC9737A83BDA7CA0E94AF40FE13427DA70AFC26D876BE9D9B539420854C4B91C337D6C47226784C2CBF79EAEFC157E0F59BC7DE3B86279CADA1FA0D788E6D18FA720067183C83F0A59819D3D631
311
E1481BF7AC00409A24162F31853C9C465B3B5C21CB212B6317E1A10F93A1EE333E03CF8841A2684E1ABC0B60B997164F48D080AD6124D468C96F14DCF9E99774D61C6C961D83F7ECB7D0F57AB9FEB8AE454A627A6F627A495356308512B7E3CD50A111E6238B9EE8CB8F522430F457BCD743BC73739404DA1A730D7CD6E574
311
3DD89D3C3A20C6BEACD4E92678E30418A10BEB40FE3D9331E59C14B4ACBB735FAD1F281B2DC43AD83593FB02B32B2C204DFB672F0651A463C12A0D625FADFAA4E91EB1EEDBEA13186987372F7F919761F68A76B9372E792936D1CBA64D4B07A1FE3EE6B6C1C0D35240F72648BAF837A06F1296A6B544123C80EBF7D562E83B
311
9D1690223AA96DB4CC613F828B0843DA4E2EAAB520A8A465B161A89B88BB83070CE50352C38046E0318D25E5E986715EE79B947154A34D4EAA2370FC7FFDA33AAF36242FEB421D913D521DD561ACFB88BDF20751F1A31DAE9BB77383DC9BD0E40819742D3980D5C8B5E7B793E9BBF9EDC2B998CCDE39F3CBE5C4B9B8BCB873
311
30BB3C9BDEDD4C27FE75E7A7569330E84ACD30A2E12594B6A016CCB8EFDB0AF16392801DDE13251F3EB4E1D9BDBFAD5CF4C281873DA897FDC6EBE4197D1F4DDE16B05B7950D02AAF38CD69A1888EA17BFDC1BF12F4192365DAF9554E327A8294CF1FD67BC660E6847D5F74BCD31F7B7BCDEC4207E44121EAB1CEA38230BEB7
311
316B9174AB2233F8753EE9DF6DA1E9867A641C83CE54969C25C8838995D132A70AD9F0842224722A41BD614F9F98BBC709BB9FDB0E519188D34E93478226994B8405A855C76A3C6FFD81A64EF7555736CAADFB8487C914B605CE5CD968D2158BA974231468DD0A35C2C1A561278FC69F141947AFDD6EEAC7FD2E8DCDA824F7
311
4B4EE99F8C5D6D0A3706208D54E81BD010C13B8D3261D0E866FEC7FFC9F04E1D8B287C46B5EA6DD94DF4C634C720445BA3CC6D014DCC93397A8B407DDD2CDF6DD68C1039E996F52A095AA98E22226B6E0A5A3FA3D2F5F28B870EC55A7DB62A5E67F0E5E9921C4141E65A073858045618991551A0EAE2CF872FA2C44D36B7EE
311
1828F0B028F3BC2CCCE0DADC84ADF523EEB5C903D202D51712F980A4377D682E02E66EB28988A42E49E41326E053C17A88478E0723DBDBA28F45C6F1C6079E76C21E37574BCB94B4F96EFD30AB6A58D07214D442F4E8CBA48E95E182EAD5BB80D72C85AA025D7CF82F504B03041400060800008D7431400000000000000000
311
00000000350000006662782F39334343413545332D423230362D343143382D394330392D4441323033464631413044302F76657274696365732E62696E504B03041400060808008D743140F270F1330600000004000000360000006662782F39334343413545332D423230362D343143382D394330392D4441323033464631
311
413044302F747269616E676C65732E62696E636660600000504B03041400060800008D743140000000000000000000000000370000006662782F39334343413545332D423230362D343143382D394330392D4441323033464631413044302F617474726962757465732E62696E504B03041400060808008D743140D5987DFC
311
8F00000041010000360000006662782F39334343413545332D423230362D343143382D394330392D4441323033464631413044302F6469726563746F72792E786D6C858F410EC2201045AF4266AF15DDB800BA74E7C21B903225242D6328188F2FA5C4183471359997F9FF81E89FF3C41E1816475E02DF1F80A11FC8386F25
311
A438EECEC07A250251FC3803E6F58C12560C4AD840E95E91C151A72936F496F35732D860FE635F62C8F2DA16B505C545B74125BAA2FA9E05D7CC053D063734D5C7665FD55B6B8D15D5E9BFEAFD8490FFA45E504B03041400060808008D743140EC00EA71FC000000A00100003B0000006662782F39334343413545332D4232
311
30362D343143382D394330392D4441323033464631413044302F7265736F75726365732F636F72652E786D6C8D50596E833010BD0A9A7F83CD9616194741A427E8052C33A156828DBC543D7E4DA052FBD79F99D15B344F8F9FBF9647F689CE6B6B7A6039850C8DB29336730F31DCC80B6467C19DB5E1970C322317EC618341
311
F0D9D9B81E90B226A009093576C20394DE63804C3DD2D183571FB8C85CC69014FE9EAF52DDE58C39CB139D7482FBE052806C7FB24D100EBD8D4EA1E7C5CE0A1EA39E0E8D9ED24F7DD3E8405C5B3AD4433D9253DB5C495D5D18191A3692B1AAC753F5F67A6918E5C566163CE8E527A37228034E204ACA4A421961A777567755
311
DB952DA16D47936993FF31C575FAA7296A13AAF288BBDB3C0896823C09C18BADAFB49E65A6BD752BBE01504B010214000A00000800008D7431403DEE336E79000000790000001B00000000000000000000000000000000006175746F6465736B2D64657369676E2D7061636B6167652E786D6C504B01021400140006080800
311
8D743140D486FD9CA0000000F40000001300000000000000000000000000B20000005B436F6E74656E745F54797065735D2E786D6C504B010214001400060808008D743140FFABC4E9E90000007C010000080000000000000000000000000083010000636F72652E786D6C504B010214001400060808008D74314055019EA2
311
5F0000007C000000070000000000000000000000000092020000636E782E786D6C504B010214001400060808008D743140F0216B5566010000020300000C00000000000000000000000000160300006662782F636F72652E786D6C504B010214001400060808008D74314025DA63B27E0000009D0000000B00000000000000
311
000000000000A60400006662782F636E782E786D6C504B010214001400060808008D743140610352102B0100001402000031000000000000000000000000004D0500006662782F39334343413545332D423230362D343143382D394330392D4441323033464631413044302F636F72652E786D6C504B010214001400060808
311
008D743140011130304D010000330300003000000000000000000000000000C70600006662782F39334343413545332D423230362D343143382D394330392D4441323033464631413044302F636E782E786D6C504B010214001400060808008D74314099D61CA3990500007B10000034000000000000000000000000006208
311
00006662782F39334343413545332D423230362D343143382D394330392D4441323033464631413044302F6F626A656374732E786D6C504B010214001400060800008D74314000000000000000000000000035000000000000000000000000004D0E00006662782F39334343413545332D423230362D343143382D39433039
311
2D4441323033464631413044302F76657274696365732E62696E504B010214001400060808008D743140F270F13306000000040000003600000000000000000000000000A00E00006662782F39334343413545332D423230362D343143382D394330392D4441323033464631413044302F747269616E676C65732E62696E50
311
4B010214001400060800008D7431400000000000000000000000003700000000000000000000000000FA0E00006662782F39334343413545332D423230362D343143382D394330392D4441323033464631413044302F617474726962757465732E62696E504B010214001400060808008D743140D5987DFC8F000000410100
311
0036000000000000000000000000004F0F00006662782F39334343413545332D423230362D343143382D394330392D4441323033464631413044302F6469726563746F72792E786D6C504B010214001400060808008D743140EC00EA71FC000000A00100003B00000000000000000000000000321000006662782F39334343
311
413545332D423230362D343143382D394330392D4441323033464631413044302F7265736F75726365732F636F72652E786D6C504B0506000000000E000E0080040000871100000000
310
504B03040A00000800008D7431403DEE336E79000000790000001B0000006175746F6465736B2D64657369676E2D7061636B6167652E786D6C3C3F786D6C2076657273696F6E3D22312E302220656E636F64696E673D227574662D3822203F3E3C666F726D6174733E3C666F726D61743E687474703A2F2F736368656D612E
310
6175746F6465736B2E636F6D2F64657369676E2D7061636B6167652F323030393C2F666F726D61743E3C2F666F726D6174733E504B03041400060808008D743140D486FD9CA0000000F4000000130000005B436F6E74656E745F54797065735D2E786D6C7D8EC10E82300C865F65E91D8A1E8C310C0EEA1BF002731658846E
310
D98AC1B77784ABF1D8FE5FBFBF75BBCE937A534CCEB38643598122B6FEE978D0B0485F9C41B54DDD7D022595594E1A469170414C76A4D9A4D207E29CF43ECE46F218070CC6BECC4078ACAA135ACF422C856C0E68EA1BF5669944DDD7BCDE7B1F8E415D77AECB980613C2E4AC91FC167A2B244592486606FC29C8FD7F045B9A
310
EF7053A7E60B504B03041400060808008D743140DC27475CE80000007C01000008000000636F72652E786D6C8D50416EC32010FC0AE28ECD12D7B1224CE4B6E90BFA01041B072506CB40D5E717278ED4DE7ADAD5ECCCCE68E4F17BBA912F5CA20BBEA750714AD09B609D1F7B9AD39975941C955C4248BF6894783D614F5798
310
2A392E21CF1B64824FE853417DB0B8813A464C94985B597A1ACD05275DE99C0A235EAB599BAB1EB182E756C4393B4B1E26CE967FEEEC70A10AF61C864EB4AC3941C39AAE3DB1D7E1E59D0D023A00F1F6C1BB41D6AB58C9E4A6A7BF595027B454090E827160B0FF84E6B06B0FE5156F0F9CCB7AA5FF11E5D9FE53949D4F3BB1
310
C57DC862C95A82DC0F4AD66B1765DC8B2A73ED4DFD00504B03041400060808008D74314055019EA25F0000007C00000007000000636E782E786D6C4DCB3B0E80201045D1AD90E915ED2CF8AC45050C11660C8261F98AB1B07AC9C97D42D718D865D3E909258CFD00CCE24AC6E326A164D74DC0B4128928FF326038472BA131
310
28B1252AC747C6BAB984FC68F0B87FE8960A5C09FE86CFB69FBA01504B03041400060808008D743140A6A27F5064010000020300000C0000006662782F636F72652E786D6C8D52ED8E8320107C15C27F05AC674D8334DE5DEF09EE05A8528F54C120983EFEAD1F4DAF97A6694C90ECECECCC8EF2FDA56BD1A8DCA0AD29308B
310
2946CA54B6D6A62970F0A728C7682FB8B3D6FF69C3C8C84E15782A63C11B6743BF962A6BBC321EAAC6D66A2DCA61501EA3AA854B8187EA47753296C143C7708E7B599D65A36216030C7D820FDE8101B4884C2716A7E38593A52E7808BA5E515D839A3E69E5B0605BCACA3CC9A2F4C0D228CDB343F45EBE7D4665C272C6928F
310
2F9A979C4C64C1BDEEAEEE2AA7A45735160965494459C4B6DF2CDD6DB21D8CA2D98E524EA6F63B52E8EB1749411BBF4956BB0B6D00AF606406FE6D0B117934C811FC10C1C91422BCE684EF83864020642F8FED758F3394465579EB52406A1B6ED028DBA04095A2F9E1644161F23C00367B38277932E7F90CF880D234604D7A
310
B81E839FD4F9A2BA46D12B178DFE828C759D6C6FE6168BB7F326F4905ED9D6BA57D8645D95AC6192E9EF15BF504B03041400060808008D74314099C170977E0000009D0000000B0000006662782F636E782E786D6C4DCCDD0A83201C05F05791FFBD6B5F4E033574D57BC4B2904C87D3B1C79F8D2EC6B938F0E37078F3591D
310
7A9BF8B2C10B381D8E808C7F84D1FA59404E1366801AC96308E96F06C80FAB11B031483EC7909F3B8D661AB24B459DF5CB8E17A655D7E93BD62D21F87AAE29AE694FB0EA5BAA6E258C6AA824AF7E4FA5B763F905504B03041400060808008D743140BF4006A62C01000014020000310000006662782F33384241454542432D
310
424435352D343239372D393746352D4146443741364136413837422F636F72652E786D6C8D51DB8EC22010FD958627F78116DADA56433176D52FD81FA8149568A1E1B2F1F377D8D664F74D481872E69C999319B67B8E8FE45B5AA78C6E114D094AA4166650FADAA2E02FB841C98E336B8CFF434389EE47D9A20823CEAED684
310
698184D15E6A0FA836835CC0DE39E951221EF06991133739F6691F3C30DC3D9D7A71EFAF32A529A481C799F3160C247393F8225E34DDFE78EC3E717758AF71996F6ABCA94F6BBC3F1DEA7D05B7A93B96CD42CE4250C3225703D8511725EDBB45A29833AFC6977D6165EFE580784E688E09C5B4FEA2E5B6A8B6798549B52584
310
6591FE4F14A6E14D5150DA17F962779639C429CBE604678309E7C7CB8C7C4EC6FA24F65B39293E102729C9299C06243315060035AB72A9E9BCB130E0D5FD0CEC0258B170557296C51D41F85D20C4B84FFE03504B03041400060808008D74314067B6FF275401000033030000300000006662782F33384241454542432D4244
310
35352D343239372D393746352D4146443741364136413837422F636E782E786D6CBD93CD6EC32010845F0571F76F2C378A30917AE813F4D02B814D4A83C1E2A76ADEBE4B42D25C72A854F582ACD96166F509B3EDD76CC827F8A09D9D6857B79480954E697B98688AFB6A4DC99633EF5CBCB35162C50C13CD32E5ECE05D5A8A
310
A4602F9289A81A6D8F45F4105CF21202CAF926314E0A830160AB8422CC3B500A14B919F16B0F1E5741717722F11DC8CBF31B71BB0F9031B026A770D6E40ECEF2599AEE4C94482342986890EF308B5AA4E8148463AD441475575FBB1EECF49344F2856B65F29AE4F289E693F2B2518D1C598343CE42F448AF98E26901CAC5B2
310
182D4544C8CDD978F17096B48DE350BC1AC17B74AFFA71BDC6B0F38CB3A867280EE941445094F76DD7576D57754FAFDDB0598D9B7EACDA71D3B6ACC976CE76CE99720963C0BB85486723D84879C79A3C7E84AFF888D21E593B7FFA054804505A2F746E197FC9A71B57C3F08F7C9AF3FB465C1EFF02FE0D504B030414000608
310
08008D743140642B7A0559070000941B0000340000006662782F33384241454542432D424435352D343239372D393746352D4146443741364136413837422F6F626A656374732E786D6CED59DD739B3810FF5718EED9D8D84E9ADC103A89DD643CBDB49DFADAB987CC3032C84417211849A4F1FDF5B7FA00033109BEE6DEFA
310
6003425AEDFEF6534BF0FE29A3CE23E682E4ECC2F5BD89EB6016E70961E9855BCAEDE8CC75DE8701CF73D998E63A0C65F8C255C36E18A43C2F0B3B94E02D2AA9EC8C5E5FFDE5881833EC3A3145425CB822BEC719F25029F3048B072F411279E9F6C9F33D33B14D36E5A8B8EF102D10C74C02A730CE808A6398F2DB8F13771C
310
0663F53E0CD4BF9D351B346BDE3F6BACA56E7349989088C5CF58EA90990D6269E6CF971FA627E7A393F97C369A9F4EFDD1D5F5D572E4BF9B4D16A78BC5F9E58773606F93E7D4CA94E002B304F4B773433F18AB37B5E81681435CC7396338D64002545AAC2E4182056CD5806FD27EF495448DD75AC2C6F35CBDB72C3486676D
310
2A7DB38601D1A20B82D8ED2A89AB6B53BE7CF337082E861825175802B74272D0AE85878357B8E124189BD130D8EC7541849321893941D4A164C31107A5C05435250CCC024B46390707528E92406BCEBC6EDB1678E6EBAE7388CB6D49A9F20C37D48E1581FB61293467E41FCCF7DC3791019E40DA92307966B994BB02BBE179
310
30D68361A02EB3A97D698074B614A5422362DE76045D28D75F2DDDF0E3F5E669ADC2C1E1CD0B9E17984B65744A8F9A2F30647B5528D96DFD419A530B401803AA5DB907E52B20FF09A2C79E15D01B274FF3A7B99D2B3962629BF30C74E34C9CD104FE268EAFFFD57DE32E18D78BDBDAEBC313DC544175F6F378B665D05859FE
310
1B7086C123187CCE67F6D53A4614ECF996300048198943731882D0BEDD3CB9E10A0227047A588568E883C8C0EE23DC06634B66AF95CABDACD73140D4EE311BA224804D5B24B0D1A3A71BC81E9CC47B353545EC83F7E44DCCF572B9FEB82EF916C5F8D6FAF4126F092312B2E661865A98B7247AC0BB1F394F40D0E778AF9B78
310
67762B01682BCC15F06905827AD8EFDCDA20867569AEC24DF0CA0E2084CAD50DFAB744C49852C4705E56FBD6D14D196AEDF1B66670C3A9817836ED9830C78F445515E034FB192D4621EFC79C140A4437BC3192D541D3EB91EEDBEA1358643DBF67D68A41E86588FEA983D6011C5A965D216D81A805DEECC3799CD39C479B5D
310
64229D0BB504B0D1F696EF2DA210EB8D921415F020ED775548498DB45142B6DB52405C3DC0E2F7D5A2690E136FE69F38CDFF8E33CE21DA82EF226EFDAEB347443294E2688B92BEED9ABBD5B48526D9439AE32D05B9C82391BB08C96892E0F418688E227EFEA6D4539A0B41181690AF0E82DF4463E2412031DAAC58565AED00
310
4D44946189E8310828323DE0EAB4A36BDC184A87D779ACADF7258D3589FE4F16C111D492398B0894A290435E65DCF74E2086B4D1352877F0056BAB686B3168092544BC8B7E6092DECB635037E47B708FE14852CA282F500C663D80EC335F514AEDF0BE41F183CA1F515CD2B7321081E93622949659043FC2E0E431C4B5EBC0
310
F4220A0DE226F6499C41518664C9876C727A3279B68FA919BA21B0B1D1965008DB51868A1ED45B0151D7234E0DBEA5DEA3D44D991511CAF2920D32146FD6F5264BBEAB56457620BFAA5484B2B1226C09860161B2CEAA55CC0653D78115DC4807AA5D24505650730A7B25F1F8B53769CABD1B70EBA76FBB4106855F8FF69A11
310
755EC160796C1506E20792F1BD1BAEF5757405F57782937DAAAF6ACD66050888A9485E726255F46D05E58DADD1DCF01649717763B26E75FDB6F2A0FB118C610DD42EF5C295023AC34C225599DCAA1BFA1541086ED130E32B95538FA1729924BA6A44F49AF4A9B35546B436CD8857DC639667F0637784C5B44CF01D4AC44374
310
2B69B4268A752BA597910AE31705FC7CB3EEC003230344FAA20A3CFCA3B3D68E2E54B9749088BC2FB30D430482604BB4D4E8C62B586A355269B9BEAA3305D45D606056C5F35F278B663BE2D7C922B586F153278BABDD1F68D7EC8B34D279ACECFAA863409D9F1495B73806E8B6434DB5CE2226995BF9AD33451014AB283FB8
310
1AAB828621D8C7F17FCEDA7D59D06CD7E1FFB8ACED3FAB388ECA2AADC9AA4B75A0725D3573D8E987C9F4DDFCC362743699BD1BCDCF9793D1D9F9D9F508469727D3EBABE9C4BFACD1D48E1A067530D3B90B9E4D50AB86D593C500BAB222A72481D37CE2A41862BE8433FD80F639CFB080E4D96C7627B6293F60F5A3E9734AB4
310
A1B8E2E41E4183980A48EB805119CBF6B8F31BB426251CB42F5C681A790FF067ADD27520F35CB8D02A9024C6C2DB409B4935F4347148B93AF75B62800F62A94A896651FD5CAF52D8B4C27F3D65481AB072B57A1850B815D0FD6A7528346F96A7F828C12B761C24E176534AA8D68C2CFB815A18BDCD5EFD46364AD883DDFA09
310
5CF765B17C4FCF692132E893C18B4660A88E24E2A9EE772BC62C4B97CB2F63E8B339ABCF4E41CB1474399CD2886330E6521554604560159666812498EAE2F7BB2F3C874F3C99A3ABA2BB459E6539B30F97701E4BE01391B3BE870F3EC91D940D58B5D5C51D38D8F44EB7B36D873DDA20813D550FC140554628113AC60616F9
310
AC35651B9763A584CEF4D5D2B1E113DA00C6829E7577CDE72D07BC477D4851BEA23DBC92F3C58EF6584F056BE0D08B0EFF05504B03041400060800008D743140000000000000000000000000350000006662782F33384241454542432D424435352D343239372D393746352D4146443741364136413837422F766572746963
310
65732E62696E504B03041400060808008D743140F270F1330600000004000000360000006662782F33384241454542432D424435352D343239372D393746352D4146443741364136413837422F747269616E676C65732E62696E636660600000504B03041400060800008D7431400000000000000000000000003700000066
310
62782F33384241454542432D424435352D343239372D393746352D4146443741364136413837422F617474726962757465732E62696E504B03041400060808008D743140D5987DFC8F00000041010000360000006662782F33384241454542432D424435352D343239372D393746352D4146443741364136413837422F6469
310
726563746F72792E786D6C858F410EC2201045AF4266AF15DDB800BA74E7C21B903225242D6328188F2FA5C4183471359997F9FF81E89FF3C41E1816475E02DF1F80A11FC8386F25A438EECEC07A250251FC3803E6F58C12560C4AD840E95E91C151A72936F496F35732D860FE635F62C8F2DA16B505C545B74125BAA2FA9E
310
05D7CC053D063734D5C7665FD55B6B8D15D5E9BFEAFD8490FFA45E504B03041400060808008D743140B4CD1A6DFB000000A00100003B0000006662782F33384241454542432D424435352D343239372D393746352D4146443741364136413837422F7265736F75726365732F636F72652E786D6C8D504B6EC32010BD8AC51E
310
1B88E358162672DBF404BD008289831283C5A7EAF10BB12BB5BB6E6646EFA3797AFCFCB53CAA4FF0C1383B225A135481554E1B3B8F28C52BEE517516DC3B177FC95065E502232A30127CF62EAD3BA49C8D606346ADD3B083320488A8528F7C8C28A81B2CB296296645B8D7AB547739434DEB4C679DE021FA1CA0DA9E948984
310
87E092571078B3B182A764F4AE313AFF3457031E097A2274EAD911B717DAE2B6EF2EF8653ABEE189D19E52F6FA4EFA8937C52C7834CB4F46E54146D0483042192614D3D3076D874337B00E936E20843745FEC79456FD4F5332361ED81E77B3859C350779128237A5AFBC9E65E65DBA15DF504B010214000A00000800008D74
310
31403DEE336E79000000790000001B00000000000000000000000000000000006175746F6465736B2D64657369676E2D7061636B6167652E786D6C504B010214001400060808008D743140D486FD9CA0000000F40000001300000000000000000000000000B20000005B436F6E74656E745F54797065735D2E786D6C504B01
310
0214001400060808008D743140DC27475CE80000007C010000080000000000000000000000000083010000636F72652E786D6C504B010214001400060808008D74314055019EA25F0000007C000000070000000000000000000000000091020000636E782E786D6C504B010214001400060808008D743140A6A27F50640100
310
00020300000C00000000000000000000000000150300006662782F636F72652E786D6C504B010214001400060808008D74314099C170977E0000009D0000000B00000000000000000000000000A30400006662782F636E782E786D6C504B010214001400060808008D743140BF4006A62C0100001402000031000000000000
310
000000000000004A0500006662782F33384241454542432D424435352D343239372D393746352D4146443741364136413837422F636F72652E786D6C504B010214001400060808008D74314067B6FF2754010000330300003000000000000000000000000000C50600006662782F33384241454542432D424435352D343239
310
372D393746352D4146443741364136413837422F636E782E786D6C504B010214001400060808008D743140642B7A0559070000941B00003400000000000000000000000000670800006662782F33384241454542432D424435352D343239372D393746352D4146443741364136413837422F6F626A656374732E786D6C504B
310
010214001400060800008D7431400000000000000000000000003500000000000000000000000000121000006662782F33384241454542432D424435352D343239372D393746352D4146443741364136413837422F76657274696365732E62696E504B010214001400060808008D743140F270F13306000000040000003600
310
000000000000000000000000651000006662782F33384241454542432D424435352D343239372D393746352D4146443741364136413837422F747269616E676C65732E62696E504B010214001400060800008D7431400000000000000000000000003700000000000000000000000000BF1000006662782F33384241454542
310
432D424435352D343239372D393746352D4146443741364136413837422F617474726962757465732E62696E504B010214001400060808008D743140D5987DFC8F000000410100003600000000000000000000000000141100006662782F33384241454542432D424435352D343239372D393746352D414644374136413641
310
3837422F6469726563746F72792E786D6C504B010214001400060808008D743140B4CD1A6DFB000000A00100003B00000000000000000000000000F71100006662782F33384241454542432D424435352D343239372D393746352D4146443741364136413837422F7265736F75726365732F636F72652E786D6C504B050600
310
0000000E000E00800400004B1300000000
  0
XRECORD
  5
17
102
{ACAD_REACTORS
330
12
102
}
330
12
100
AcDbXrecord
280
     1
270
     1
271
     1
  0
XRECORD
  5
16
102
{ACAD_REACTORS
330
12
102
}
330
12
100
AcDbXrecord
280
     1
270
     1
271
     1
  0
XRECORD
  5
18
102
{ACAD_REACTORS
330
12
102
}
330
12
100
AcDbXrecord
280
     1
270
     1
271
     1
  0
XRECORD
  5
15
102
{ACAD_REACTORS
330
12
102
}
330
12
100
AcDbXrecord
280
     1
270
     1
271
     1
  0
XRECORD
  5
C50
102
{ACAD_REACTORS
330
22
102
}
330
22
100
AcDbXrecord
280
     1
102
MATERIAL
148
0.0
149
0.0
149
0.0
 93
        0
 94
      127
282
     0
 72
     0
 77
     0
171
     0
175
     0
179
     0
273
     0
  0
XRECORD
  5
24
102
{ACAD_REACTORS
330
22
102
}
330
22
100
AcDbXrecord
280
     1
270
     1
271
     1
  0
XRECORD
  5
23
102
{ACAD_REACTORS
330
22
102
}
330
22
100
AcDbXrecord
280
     1
270
     1
271
     1
  0
XRECORD
  5
BA
102
{ACAD_REACTORS
330
22
102
}
330
22
100
AcDbXrecord
280
     1
 70
     1
 90
1959938040
 71
     1
  1
EDF0870D-8B80-4168-AE57-F27400E81A40
311
504B03040A00000800008D7431403DEE336E79000000790000001B0000006175746F6465736B2D64657369676E2D7061636B6167652E786D6C3C3F786D6C2076657273696F6E3D22312E302220656E636F64696E673D227574662D3822203F3E3C666F726D6174733E3C666F726D61743E687474703A2F2F736368656D612E
311
6175746F6465736B2E636F6D2F64657369676E2D7061636B6167652F323030393C2F666F726D61743E3C2F666F726D6174733E504B03041400060808008D743140D486FD9CA0000000F4000000130000005B436F6E74656E745F54797065735D2E786D6C7D8EC10E82300C865F65E91D8A1E8C310C0EEA1BF002731658846E
311
D98AC1B77784ABF1D8FE5FBFBF75BBCE937A534CCEB38643598122B6FEE978D0B0485F9C41B54DDD7D022595594E1A469170414C76A4D9A4D207E29CF43ECE46F218070CC6BECC4078ACAA135ACF422C856C0E68EA1BF5669944DDD7BCDE7B1F8E415D77AECB980613C2E4AC91FC167A2B244592486606FC29C8FD7F045B9A
311
EF7053A7E60B504B03041400060808008D74314008DBAEE9E90000007C01000008000000636F72652E786D6C8D905D6EC3201084AF82F61D1B886BBB1626B2F273825C0001715062B00C543D7E71E248ED5B9F7635CCC78E86EFBFA707FA324BB0DEF5400B02C838E5B575630F295E710B682FF8E27DFC6503E4E4647A5865
311
107C5C7C9A374979178D8B59755E9B4D94219808483DF2D243503733C942A6981DE15ECC52DDE5680AFADE329C92D5E875C4EAFC9FBD5AB380A09F47D6B635C1840D075CB1D38087AAA5F8D89C86E64C3E0E036B78B9C282473BBDEFABC5C86834084628C38462DA5C68D5EDEA8ED598D41D21BC5CED7FA034EB7F42C9BAB8
311
635BDC171672D61CE4F92078B97691C7B3A83CD7DEC40F504B03041400060808008D74314055019EA25F0000007C00000007000000636E782E786D6C4DCB3B0E80201045D1AD90E915ED2CF8AC45050C11660C8261F98AB1B07AC9C97D42D718D865D3E909258CFD00CCE24AC6E326A164D74DC0B4128928FF326038472BA1
311
3128B1252AC747C6BAB984FC68F0B87FE8960A5C09FE86CFB69FBA01504B03041400060808008D743140240CF27865010000020300000C0000006662782F636F72652E786D6C8D52D18E823010FC95A6EFA5A572EA995243D4FB82FB810A956B84969496F8F9B708C6F3628C2129CDCCCEEEEC80D85EDA060DDAF7C6D91CA7
311
09C348DBD255C6D6398EE144D6186DA5F0CE853F651859D5EA1C8F3096A2F62E7633543A1BB40D805A57E919547DAF03466503971CF7E58F6E55A262808AFE9C74AA3CAB5A27690234D449D1070F06D034643CB13C1D2F824EB814319A6A664D05D3CCC9688F65FAB9E7EBF59211C68B1DC9F8A12045B64EC97E7528565FEC
311
6357F095A0A3588A60DA9BBBD26B157485256729272C25E9EA3BCD368BE5862F095B6E1813742C7F10C5AE7A53148D0D0B3EDB9D643D78052357E2DFB6105140BD1AC00F95828E21C2EB9AF063D01008841CD4B1B9ED710668D065703E03A672F14E0DAA891AA632747D049D58E87C6D009B3DEDC35FF479DD033EA0B23558
311
5301AEC718C6E9629A3A47D1694F867041D6F95635777393C5FB791FF4545EBAC6F977D4745E95CE61D2F1EF95BF504B03041400060808008D74314024B775507D0000009D0000000B0000006662782F636E782E786D6C4DCCD10A83201886E15B91FFDC55E84C418DC2BA8F5816B2D2703A76F9ABD1C18E3E78F87865F3D9
311
56F4B6F1E5825750DD4A40D63FC2E4FCA220A71973408D963184F47703E4C7CD2A3819B45C62C8FB45939DC7BCA64357E79F17D28176860C2516BDE198DE798FDB9A335C919A75A265821A028596C5AF74EC19D65F504B03041400060808008D743140F2FEB7FA2C01000014020000310000006662782F3446344244334630
311
2D394544382D343538452D413738362D3133373642394136393444332F636F72652E786D6C8D51DB8EC22014FC958627F78116DA8AADA1188DFA05FB0308E8122D345C367EFEC2B626BB6FBE70C89C99399373E8EE393E8A6FE5BCB66600B844A0504658A9CD6D00315C61078A1DA3CEDAF087060AC34735800C03466FCEC6
311
698184354199905063A55A40EEBD0AA0108FF41980175F6AE4258F2131FCBD9CB8B8F39B2A7199DA89C7A80F2E0528E621F905AC3DB787637346B03F1D3BD8AEBB13DC6F3A0271B321877E4FFAF6D8D06A16321AA3968B5CCB14475FB572EF9A6431A3418FAFF8C2291E9404AC46B8860843BCF9C4EDB621DB9A4044B608D1
311
2AD3FF89E224DF14456D42532F716799070CD36A6E302A6DBC3C5E61D473B22E1479DECA2BF101182A518D50DDAFD302666A5A40F224EDE2E9837569C1ABFB25B1F17A36262DA355BE512ABF074C35DF93FD00504B03041400060808008D743140011130304D01000033030000300000006662782F34463442443346302D39
311
4544382D343538452D413738362D3133373642394136393444332F636E782E786D6CD593BD6E032110845F05D1DF0FF6E912591C9652E40952A4C5B076883938F113C56F9FC5C68E1B1729D3A0D3EC30B3FAC4F1EDF76CC9178468BC9B286B7B4AC029AF8D3B4C34A77DF34CC956F0E07DBAB351E2E40C132D3215FC107C5E
311
AAA4612FB34DA85AE38E550C107D0E0A22CAE526B15E498B01E09A8C22CC3BD01A34B919F16B0F015741717722E903C8EBCB3BF1BB4F5029F2AEA408DE950EC1CB599BEE4C94282B639C68541F30CB56E6E435C463AB65922D6BAF5D0F76FA4D22E5C2B53207434AF944CB4945DDA8458EBCC3A1E03105A4574DE9B4001572
311
59AC513221E4EE6CBC7804CFC6A571A85E83E003BAD9B81E060C3BCF044F6686EA500164024DC5AA67ABA6670D7B7A63C3663D6E5663D38F9BBEE75DB10BBEF3DED64B1803C12F447997C0252A18EFCAF811BEEA23DA0464EDC3E90F2011406DBDD0B965FC673EDDF97D23AE807F81F801504B03041400060808008D743140
311
17E1C74A9A0500007A100000340000006662782F34463442443346302D394544382D343538452D413738362D3133373642394136393444332F6F626A656374732E786D6CAD57DB6EDB3810FD1541FB6C5BB29DC659282A1C3B298C226D51A3C53E0430288952B8A12E20A9D4D9AFDF4389BA3976E25DF4C5B2A8E170E6CC99
311
0BBD8FFB945BCF54489667D7B63B766C8B66611EB12CB9B64B158F16B6F5D1F7449EAB9E986D6524A5D7B65EB67D2F11795998A588C6A4E4EA60F5EEE62F4B8634A3B6157222E5B52DC3479A923129551E51F9348E8822E324DE8FDD712D38549B08523C1E282D88A09982A558CFA0C5AA8D7287AF8E3DF1BD89FEEE7BFAD7
311
48CD4E4B4D2A7F86E7B34C2A9285AF0E3B503373E7EBDBE9C5D5E8623E9F8DE61FA6EEE8E6EE663D722F67CEEAC36A75B5BCBDC2C15209683296081ADBFE27602358E84DEA4FBE57B24CCDA646C4046822E833D391B2FDA9E57A935AA6F5CE3879CCFC30CF321A5658018DCA3FA33AA205CD22C49C5109CB7A0839C35757E3
311
D8FB3CD3EFE6C8FEF27908F477F41435B637CFBEA579F0375C90E7304848AA195863691CADB9EA74080779CECD3726AD94282A18E116678120E2C5F621AA457C6FA0463359E86CD01ED83EA2507F1ED20569F43ECF8F5919979C6B1ADB7E95053BE40A55B2B28CFD4345677D1F19D8845869362C8C43EAA5A0B67F55536471
311
C0A61A482BE62441C8E1A6DE399B1E38BAD279BA59DBFEE7BB60BFD5B97BFCF042E405154AD307D46A02D73C354AC626F7ACC8E90DF681291D28DF81FC17A47A670AE226D87EBE9F9B539420998C7391223696638D1CFC38965BFDEAFFBD7FDEA4DD3C8CDE293C116C0DD56FC073E8433F963D387DEF1984CFC5CCB8B60D09
311
47D9B8671900D224B1788E25D4E138D8DBFE06550E5519BB08F75DB80C739FF1D79B18352814D549BD67062C0FCAE219051AB0558C841935F98D815D9C5E95B3EA6023760ADE8BDF42D7E57AFB795B8A9884F4DEE4F49AC62C630A2DAEE34DDFA001E6038F9EE8CBAF5C4470F435DEDB3EDEA9394A026D8DB9063E696ABA7E
311
E94E1E1C10625F92EB72E3BD73029CD08DB5A7FF9EC990724E329A97CDB96FF60FB48D1A629DEC9AC96D83E91A0B48537F39C84134E950B04283D876ABB6688E4F78F763F3058C843CCF03C23BA1A02BBD61CE73B10B5E7675553A8AF4CF21B50D0413AD056CAF72A4497F83F92E62715C4AD4C023B0FEDCACFAA1D3550115
311
A2D15A27CB1CEE23B788309C6DF4A2590B82469A673B86B689B43B7A405F3F103504A8149EB258521EEF18E765BA8B194733DAA5A43801C7FFB73F28D36247D2BCCCD409DD03D3D11C86B60FC82B7F11153EDAFEB67A8E6E507A231A75611E08EB567204AB41686FD777CEE2D2598F16370B6734773F2C46CBDB8BCBD1DDF4
311
72EE38B70B7739EF2CAA6628DF6B3A4D3FA111257436AF14CC84EFC706E9636A80EDDF13251F3ED5D9D93C7F6CC61885BD09F6A05DB61B97D133C63E1ABDAFA0933CAA6893169CA6345344A7D0BDFEC3BF138C190363EAF54D4A127A8696AF9FB607CE60E58C7DDF74BAD35F077BCDEA4A27E45125EAB14C838C307EB031A9
311
911C175962F06B62D23EEB3ED3BCEA3713180CA632E72C42198CAC84E62955288667F420915209EAF547FAC85C3DCED8FD5C0F888A049C36963C12CCC85C222DC0DB3254C375EB0FCC747AACBAB6D16DC74FF83195C2B6C0996B1B33BA622195E300FD594F42957270A93FC883B3244B3846ED7A53FBDEEED2D80C3A722B72
311
CEF864FCAA2BB8710065A4C0D8807908D1A98CF1BDCA36F33DFC4F8E37E65844E16F50AAD6976EA175A63A06295A3B652E0B98619ECCD17B24EADB6EB9E34A6680C85997AC3749506B1D292292EAA2A0ED33262DD7DF261850ACCD57ABE06582589EAF692428C85CEA04078BC00AA3B3200A545DFDF9F04DE4B8C8A6D61D03
311
051E56799AE69979599A8BB0B57DC4B5367A4059A0FA3E221FA68E3B7DA8EE01E66AB20B88A46312C9272C20A682B5100F020F46D6974574A0FA432B37D14138E0E6666D999636875243947E55D5B060E2C8A885ECD177499D2B7D81E2CDABC0A41285090243BCFF2F504B03041400060800008D7431400000000000000000
311
00000000350000006662782F34463442443346302D394544382D343538452D413738362D3133373642394136393444332F76657274696365732E62696E504B03041400060808008D743140F270F1330600000004000000360000006662782F34463442443346302D394544382D343538452D413738362D3133373642394136
311
393444332F747269616E676C65732E62696E636660600000504B03041400060800008D743140000000000000000000000000370000006662782F34463442443346302D394544382D343538452D413738362D3133373642394136393444332F617474726962757465732E62696E504B03041400060808008D743140D5987DFC
311
8F00000041010000360000006662782F34463442443346302D394544382D343538452D413738362D3133373642394136393444332F6469726563746F72792E786D6C858F410EC2201045AF4266AF15DDB800BA74E7C21B903225242D6328188F2FA5C4183471359997F9FF81E89FF3C41E1816475E02DF1F80A11FC8386F25
311
A438EECEC07A250251FC3803E6F58C12560C4AD840E95E91C151A72936F496F35732D860FE635F62C8F2DA16B505C545B74125BAA2FA9E05D7CC053D063734D5C7665FD55B6B8D15D5E9BFEAFD8490FFA45E504B03041400060808008D74314079ED0E89FC000000A00100003B0000006662782F34463442443346302D3945
311
44382D343538452D413738362D3133373642394136393444332F7265736F75726365732F636F72652E786D6C8D50596E833010BD0AF2BFC1760850641CA12C27E8052C33A156828DBC543D7EED40A5F6AF3F33A3B7689E1E3F7D2DCFE2139CD7D60C8896041560949DB4990714C31D77A83809EEAC0DBF64A8307281016518
311
093E3B1BD71D52D6043021A1C64EB083D27B08A850CF740CC8AB0F58642963480AFF2857A91E72869296894E3AC17D702940B13DC9130907DE46A7C0F36A63058F514FBB464FE9A7BE6B7048D0B70BEBBAE30D13369E71CDAE231EEB8EE24B7B1DDB1B399E47D6F22A9B050F7AF9C9A81CC80013128C508609C5B47DA7757F
311
687AD660D2F484F02ACBFF98E23AFDD314B50907B6C7DD6C3E654D415E84E055EE2BAD579969E76EC537504B010214000A00000800008D7431403DEE336E79000000790000001B00000000000000000000000000000000006175746F6465736B2D64657369676E2D7061636B6167652E786D6C504B01021400140006080800
311
8D743140D486FD9CA0000000F40000001300000000000000000000000000B20000005B436F6E74656E745F54797065735D2E786D6C504B010214001400060808008D74314008DBAEE9E90000007C010000080000000000000000000000000083010000636F72652E786D6C504B010214001400060808008D74314055019EA2
311
5F0000007C000000070000000000000000000000000092020000636E782E786D6C504B010214001400060808008D743140240CF27865010000020300000C00000000000000000000000000160300006662782F636F72652E786D6C504B010214001400060808008D74314024B775507D0000009D0000000B00000000000000
311
000000000000A50400006662782F636E782E786D6C504B010214001400060808008D743140F2FEB7FA2C0100001402000031000000000000000000000000004B0500006662782F34463442443346302D394544382D343538452D413738362D3133373642394136393444332F636F72652E786D6C504B010214001400060808
311
008D743140011130304D010000330300003000000000000000000000000000C60600006662782F34463442443346302D394544382D343538452D413738362D3133373642394136393444332F636E782E786D6C504B010214001400060808008D74314017E1C74A9A0500007A10000034000000000000000000000000006108
311
00006662782F34463442443346302D394544382D343538452D413738362D3133373642394136393444332F6F626A656374732E786D6C504B010214001400060800008D74314000000000000000000000000035000000000000000000000000004D0E00006662782F34463442443346302D394544382D343538452D41373836
311
2D3133373642394136393444332F76657274696365732E62696E504B010214001400060808008D743140F270F13306000000040000003600000000000000000000000000A00E00006662782F34463442443346302D394544382D343538452D413738362D3133373642394136393444332F747269616E676C65732E62696E50
311
4B010214001400060800008D7431400000000000000000000000003700000000000000000000000000FA0E00006662782F34463442443346302D394544382D343538452D413738362D3133373642394136393444332F617474726962757465732E62696E504B010214001400060808008D743140D5987DFC8F000000410100
311
0036000000000000000000000000004F0F00006662782F34463442443346302D394544382D343538452D413738362D3133373642394136393444332F6469726563746F72792E786D6C504B010214001400060808008D74314079ED0E89FC000000A00100003B00000000000000000000000000321000006662782F34463442
311
443346302D394544382D343538452D413738362D3133373642394136393444332F7265736F75726365732F636F72652E786D6C504B0506000000000E000E0080040000871100000000
310
504B03040A00000800008D7431403DEE336E79000000790000001B0000006175746F6465736B2D64657369676E2D7061636B6167652E786D6C3C3F786D6C2076657273696F6E3D22312E302220656E636F64696E673D227574662D3822203F3E3C666F726D6174733E3C666F726D61743E687474703A2F2F736368656D612E
310
6175746F6465736B2E636F6D2F64657369676E2D7061636B6167652F323030393C2F666F726D61743E3C2F666F726D6174733E504B03041400060808008D743140D486FD9CA0000000F4000000130000005B436F6E74656E745F54797065735D2E786D6C7D8EC10E82300C865F65E91D8A1E8C310C0EEA1BF002731658846E
310
D98AC1B77784ABF1D8FE5FBFBF75BBCE937A534CCEB38643598122B6FEE978D0B0485F9C41B54DDD7D022595594E1A469170414C76A4D9A4D207E29CF43ECE46F218070CC6BECC4078ACAA135ACF422C856C0E68EA1BF5669944DDD7BCDE7B1F8E415D77AECB980613C2E4AC91FC167A2B244592486606FC29C8FD7F045B9A
310
EF7053A7E60B504B03041400060808008D74314076C418BEE90000007C01000008000000636F72652E786D6C8D90416EC3201045AF82668F0DB663520B1339727B825E0001715062B00C543D7E71E248EDAEAB19FDF96F66F4F9E97BBEA32FB306EB5D0FB420808C535E5B37F590E2051F019D045FBD8FBF6C809C9C4D0F9B
310
0C824FAB4FCB2E29EFA27131ABCE6BB38B32041301A97B6E7A08EA6A6659C814B323DC8A45AA9B9C4C415F5D8653B21A3D8F589DF7D98B352B88E37BFBC6C6F30193A166B819AB060FCD9960CA06DA12F6C1C603E3E5060B1EEDFCBAAF5623A3D1202A422B4C68F67FD2A6ABDBAE6A31693B4278B9D9FF4069D1FF849275B1
310
AEF6779F580041F3238F81E0E596452E8FA072DD72133F504B03041400060808008D74314055019EA25F0000007C00000007000000636E782E786D6C4DCB3B0E80201045D1AD90E915ED2CF8AC45050C11660C8261F98AB1B07AC9C97D42D718D865D3E909258CFD00CCE24AC6E326A164D74DC0B4128928FF326038472BA1
310
3128B1252AC747C6BAB984FC68F0B87FE8960A5C09FE86CFB69FBA01504B03041400060808008D743140BE4FEC3C65010000020300000C0000006662782F636F72652E786D6C8D52ED8E8230107C95A6FFA105113C536A34DE3DC1BD402D9523424BFA417CFC5B3E8CE7C51843529A999DDDD901B6BB762D1A94758DD1254E
310
628A91D2D2548DAE4B1CFC39DA60B4E3CC1AE3FF9461A445A74A3CC298B3DA9AD02F9034DA2BED01D5A6520B289C531E23D9C2A5C44EFEA84EC42278A87097B817F2226A152731D050C799F3160CA079C878627E3E5D199971CE4268AA856D2A98D69C1B6531DF7CE61FC5F1B08EE87E5544D931CDA27D76A05152EC939C16
310
5FC5715D30328A39F34D777327AD125E5598A73449239A40FD77926D57F936CD239A6F2965642C7F1085BE7A53141AED57E962779639CC13303211FFB685883C7262003F8433328608AF29E1C7A0211008D98B537BDBE302D0A0A4373603A632E14E0DA20D0AA652343D8CCC2C749E1AC0664FFBA42FFABCEE011F50E81AAC
310
090FD753F0E374364F5DA2E8958D067F45DAD84EB47773B3C5FB791FF4542E4D6BEC3B6AB2AC4A9630C9F8F7F25F504B03041400060808008D74314039658E997D0000009D0000000B0000006662782F636E782E786D6C4DCCD10A83201886E15B91FFDCF52B450DD410C3FB886521330D676397BF1A1DECE883878F57F49F
310
3590B7CB2F9FA2047643202E3ED2E4E322612F33ED80F44AE494CADF0D481C5727E1645062C969DF2E9ADC3CEEA11C1A7C7C5EA8996DEF4DC728DABAA135B348B56103458E5AB7C6E0C039544A54BFD2B167587D01504B03041400060808008D7431406B0C3ACD2A01000014020000310000006662782F4131463739353831
310
2D304634352D343146302D414331442D3032304141374343304432322F636F72652E786D6C8D51DB8EC22014FC15C293FB400B586B3514D368FC82FD01047489161A2E1B3F7F615B93DD375F3864CECC9CC939ECF01C1FE05BFB609CED21A93004DA4AA78CBDF530C52BEA203870E69D8B7F68105831EA1E16187276F32E4D
310
0B249D8DDAC68C5AA7F4028A107484403EF2A787417EE9515422C5CC08F76A12F22E6EBA22556E671E6721FA1C00CC43CA0BF940CEDBDDA623089F9B0D6AC819A3E1484E08533C0CDBE3119F2865F52CE42C25A316B951398EB91AEDDF352962CEA2195FF1A5D7226A0539C584224C10D97E9266BF6EF7B445B8DD63CCEA42
310
FF274A937A53948C8D6BBAC49D650172C2EAB9C19972E9F27885D1CFC9F908CABC55D0F203725C614A77CDA6EB583D53F302B267DB2C9E213A9F17BCBA5F327BBD18B70D6775B9512EBF07CCB5DC93FF00504B03041400060808008D74314067B6FF275401000033030000300000006662782F41314637393538312D304634
310
352D343146302D414331442D3032304141374343304432322F636E782E786D6CBD93CD6EC32010845F0571F76F2C378A30917AE813F4D02B814D4A83C1E2A76ADEBE4B42D25C72A854F582ACD96166F509B3EDD76CC827F8A09D9D6857B79480954E697B98688AFB6A4DC99633EF5CBCB35162C50C13CD32E5ECE05D5A8AA4
310
602F9289A81A6D8F45F4105CF21202CAF926314E0A830160AB8422CC3B500A14B919F16B0F1E5741717722F11DC8CBF31B71BB0F9031B026A770D6E40ECEF2599AEE4C94482342986890EF308B5AA4E8148463AD441475575FBB1EECF49344F2856B65F29AE4F289E693F2B2518D1C598343CE42F448AF98E26901CAC5B218
310
2D4544C8CDD978F17096B48DE350BC1AC17B74AFFA71BDC6B0F38CB3A867280EE941445094F76DD7576D57754FAFDDB0598D9B7EACDA71D3B6ACC976CE76CE99720963C0BB85486723D84879C79A3C7E84AFF888D21E593B7FFA054804505A2F746E197FC9A71B57C3F08F7C9AF3FB465C1EFF02FE0D504B03041400060808
310
008D743140B3C7992C57070000931B0000340000006662782F41314637393538312D304634352D343146302D414331442D3032304141374343304432322F6F626A656374732E786D6CED595B6FA33814FE2B887D0E8126BDAD28A3B669AB68D599D16467B40F9590030EF5D618649B5EF6D7EFF1050234B464A7FB360F0960
310
ECE373BE73F521FCF49C53E71173410A76E6069EEF3A9825454A5876E656723339719D4F51C88B42B6A6B90E43393E73D5B01B85192FAAD20EA578832A2A7BA3D7177F3922C10CBB4E42911067AE48EE718E3C54C922C5E2C14B91445EB679F602CF4CEC92CD382AEF7B444BC43193C0298C33A0E218A682EEA3EF4EA370AA
310
DE47A1FAB7B366A366CD87674DB5D45D2E091312B1E4154B3D32B3512CCD82F9E2EAE0F07472389FCF26F3A3836072717DB19804C733FFF2E8F2F2F4FCEA14D85B1705B532A5B8C42C05FDBDB851104ED59B46748BC02EAE9382319C6820012A2D569F20C102B66AC1E7771F032551EBB596B0F53C57EF2D0BADE15997CAD0
310
AC714074E8822076BB5AE2FADA96AF58FF0D828B3146C90596C0AD901CB46BE1E1E0156EE48753331A85EBAD2E887072243127883A94AC39E2A01498AAA644A15960C928E7E040CA511268CD99D75DDB02CF7CDF757671B9A928559EE146DAB162703F2C85E68CFC83F996FB3632C013485B11264F2C97F2A5C46E741A4EF5
310
6014AACBECC0BE34403A1B8A32A111316F7B825E2AD75F2EDCE88FEBF5F34A8583DD9B97BC283197CAE8941E355F60C8F6AA50B2DB06A334A71680300654BB720BCA3740FE33448F2D2BA0374E9EE7CF733B5772C4C4A6E039E8C6F19D890F7FBE13E87F75DFBA0BA7CDE2AEF686F0043755509DFC3C9E5D19345696FF169C
310
51F808065FF0997DB54A10057BBE250C005246E2D0028620B46FD6CF6EB484C009811E56211A052032B0FB08B7E1D492D96AA5762FEB750C10B57BCCC6280960D316096C0CE8E906B20727C9564D6D1187E03DFC10733D5FACFE58557C83127C6B7D7A8137841109597337431DCC3B123DE097A782A720E86BBC576DBC73BB
310
9500B415E60AF8AC06413D6C77EE6C90C0BAAC50E1267C67071042E5EA16FD5B22124C2962B8A8EA7D9BE8A60CB5F1785B33B8D181817876D033618E1F89AA2AC069B6333A8C42DE4F382915886E7463246B82A63720DDF7E567B0C866FEC0AC2583D0CB10FD5307AD1D38742CBB46DA02D108BCDE86F3A4A0058FD72FB189
310
742ED412C046D75B7E748842AC374A5254C083B4DFD5212533D2C629D96C2A017175078B3F96976D73F0BD5970E8B4FF7BCE3887680BBE8BB8F5BBDE1E31C95186E30D4A87B66BEFD6D0169AE400698E3714E4228F44BEC448C67E8AB37DA0D98BF8E98752CF682104615840BEDA097E1B0DDF834062B459B3ACB4DA039A88
310
38C712D17D10506406C0D56947D7B809940EEFF3D858EF5B1A6B13FD9F2C8223A8250B161328452187BCCB78E01D420CE9A26B50EEE10BD656D3D662D00A4A88E4257EC224BB97FBA06EC80FE09EC091A4927151A204CC7A04D957BEA294DAE37D8D9207953FE2A4A21F652002D34D4C28ADF2187E84C1C9638C6B3781E94D
310
145AC44DEC933887A20CC98A8FD9E4E8D07FB58FA919FA21B0B5D1865008DB718ECA01D43B0151D7234E03BEA53EA0D475959731CA8B8A8D32146FD6F7264BBEAF56457624BFAA5484B2B1266C09462161B2C9AA75CC0653D78115DC4807AA9758A0BCA4E614F64EE2091A6FD2940737E0D64F3F76831C0ABF01EDB523EABC
310
86C1F2D8290CC41392C9BD1BADF4757201F5778AD36DAAAF6BCD76050888A9485E716255F47D09E58DADD1DCE81649717763B26E7DFDBEF4A0FB114E610DD42ECDC2A5023AC74C225599DCAA1BFA0D4108EED030E34B9553F7A1729EA6BA6A44F49A0CA9B353467436CD8957DE6356E4F063778425B44AF11D4AC5437C2B69
310
BC228A752BA597931AE33705FC72B3EAC103232344FAAA0A3CFCD45B6B472F55B9B49388BCAFF2354304826047B4CCE8C62B596635526BB9B9AA3305D45D606056C5F35F278B763BE2D7C922B386F173270B5AAC11DD469B56364F9459EF750A68D293A2F211A700DD7568A83649C4E4722BBEF5A51862621DE447176375CC
310
30048738FECF497B28099AED7AFCEF97B4835705C75E49A5335935A97614AECB760ABB5A5CFB27C7FE62727271E24FE6C1D1C9E4FCEAF078727D703CF7FDAB93E07CBEE548FB691436B14CA72E783631AD1E564F160368CA8A8292140EF3A9936108F9128EF423BAE73CC7027267BBD79DDA9EFC88D58FA6CD29D19AE29A93
310
7B04FD612A20AB03465522BBE3CE6FD0999470CE3E73A167E43DC09FB54AD781C473E642A74092040B6F0D5D26D5CFD3C421E3EAD46F89013E88652A239A45CD73B34A61D389FECD943159C0CAD5696140DD5642F3ABD3A0D0BC599E92BD04AFD9719084DB7525A15833B26C071A61F4365BF51BD928610F76EB6770DDB7C5
310
0A3C3DA783C8A82F066F1A81A13A918867BADDAD18B32C9D2FBE4EA1CDE62CBF3825AD32D0E5784A138EC1982B554F81158155589A259260AA97BFDF7DE5057CE1C91D5D14DD5D16795E30FB700EC7B114BE1039AB7BF8DE93DE41D58055575DDC1DF8C1C19DEE66DB067BBC46027BAA1C8281BA8A5022F48C0D2CF25567CA
310
F62DA74A09BDE9CB8563C32774018C05BD6AEE9AAF5B0E788FFA8EA27C457B782DE79B0DEDA99E0AD6C0A1151DFD0B504B03041400060800008D743140000000000000000000000000350000006662782F41314637393538312D304634352D343146302D414331442D3032304141374343304432322F76657274696365732E
310
62696E504B03041400060808008D743140F270F1330600000004000000360000006662782F41314637393538312D304634352D343146302D414331442D3032304141374343304432322F747269616E676C65732E62696E636660600000504B03041400060800008D743140000000000000000000000000370000006662782F
310
41314637393538312D304634352D343146302D414331442D3032304141374343304432322F617474726962757465732E62696E504B03041400060808008D743140D5987DFC8F00000041010000360000006662782F41314637393538312D304634352D343146302D414331442D3032304141374343304432322F6469726563
310
746F72792E786D6C858F410EC2201045AF4266AF15DDB800BA74E7C21B903225242D6328188F2FA5C4183471359997F9FF81E89FF3C41E1816475E02DF1F80A11FC8386F25A438EECEC07A250251FC3803E6F58C12560C4AD840E95E91C151A72936F496F35732D860FE635F62C8F2DA16B505C545B74125BAA2FA9E05D7CC
310
053D063734D5C7665FD55B6B8D15D5E9BFEAFD8490FFA45E504B03041400060808008D743140656F3626FD000000A00100003B0000006662782F41314637393538312D304634352D343146302D414331442D3032304141374343304432322F7265736F75726365732F636F72652E786D6C8D905D6E83301084AF82F6DD6003
310
8514194744B427E8052CB32156828DFC53F5F835814AED5B5FBCD6CC37DAD1F2F3D7F2C83ED1796D4D0F2CA790A15176D266EE21862B39417616DC591B7E619019B9600F9B0C82CFCEC6F5909435014D48AAB1131EA2F41E0364EA913E3D7875C345E6328644F87BBE4A759733E62C4F76E204F7C1A502D9BE647B4138F436
310
3A859E17BB2B788C7A3A183DA59DFAAAD18138BD35AFED78A9091DAA96D4635993A1BE50C2DA8135B47D6FC79796175B58F0A0979F8ECAA10C388128292B096589FF607557355DD910DA7494F262C3FF84E23AFD3314B5095579D4DD631E044B459E86E0C576AF349EC74C73BBADF806504B010214000A00000800008D7431
310
403DEE336E79000000790000001B00000000000000000000000000000000006175746F6465736B2D64657369676E2D7061636B6167652E786D6C504B010214001400060808008D743140D486FD9CA0000000F40000001300000000000000000000000000B20000005B436F6E74656E745F54797065735D2E786D6C504B0102
310
14001400060808008D74314076C418BEE90000007C010000080000000000000000000000000083010000636F72652E786D6C504B010214001400060808008D74314055019EA25F0000007C000000070000000000000000000000000092020000636E782E786D6C504B010214001400060808008D743140BE4FEC3C65010000
310
020300000C00000000000000000000000000160300006662782F636F72652E786D6C504B010214001400060808008D74314039658E997D0000009D0000000B00000000000000000000000000A50400006662782F636E782E786D6C504B010214001400060808008D7431406B0C3ACD2A010000140200003100000000000000
310
0000000000004B0500006662782F41314637393538312D304634352D343146302D414331442D3032304141374343304432322F636F72652E786D6C504B010214001400060808008D74314067B6FF2754010000330300003000000000000000000000000000C40600006662782F41314637393538312D304634352D34314630
310
2D414331442D3032304141374343304432322F636E782E786D6C504B010214001400060808008D743140B3C7992C57070000931B00003400000000000000000000000000660800006662782F41314637393538312D304634352D343146302D414331442D3032304141374343304432322F6F626A656374732E786D6C504B01
310
0214001400060800008D74314000000000000000000000000035000000000000000000000000000F1000006662782F41314637393538312D304634352D343146302D414331442D3032304141374343304432322F76657274696365732E62696E504B010214001400060808008D743140F270F1330600000004000000360000
310
0000000000000000000000621000006662782F41314637393538312D304634352D343146302D414331442D3032304141374343304432322F747269616E676C65732E62696E504B010214001400060800008D7431400000000000000000000000003700000000000000000000000000BC1000006662782F4131463739353831
310
2D304634352D343146302D414331442D3032304141374343304432322F617474726962757465732E62696E504B010214001400060808008D743140D5987DFC8F000000410100003600000000000000000000000000111100006662782F41314637393538312D304634352D343146302D414331442D30323041413743433044
310
32322F6469726563746F72792E786D6C504B010214001400060808008D743140656F3626FD000000A00100003B00000000000000000000000000F41100006662782F41314637393538312D304634352D343146302D414331442D3032304141374343304432322F7265736F75726365732F636F72652E786D6C504B05060000
310
00000E000E00800400004A1300000000
  0
XRECORD
  5
27
102
{ACAD_REACTORS
330
22
102
}
330
22
100
AcDbXrecord
280
     1
270
     1
271
     1
  0
XRECORD
  5
26
102
{ACAD_REACTORS
330
22
102
}
330
22
100
AcDbXrecord
280
     1
270
     1
271
     1
  0
XRECORD
  5
28
102
{ACAD_REACTORS
330
22
102
}
330
22
100
AcDbXrecord
280
     1
270
     1
271
     1
  0
XRECORD
  5
25
102
{ACAD_REACTORS
330
22
102
}
330
22
100
AcDbXrecord
280
     1
270
     1
271
     1
  0
XRECORD
  5
C49
102
{ACAD_REACTORS
330
C48
102
}
330
C48
100
AcDbXrecord
280
     1
102
ACAD_ROUNDTRIP_2012_MLEADER_STYLE
298
     1
  0
CELLSTYLEMAP
  5
C47
102
{ACAD_REACTORS
330
C46
102
}
330
C46
100
AcDbCellStyleMap
 90
        3
300
CELLSTYLE
  1
TABLEFORMAT_BEGIN
 90
        5
170
     1
 91
        0
 92
    32768
 62
   257
 93
        1
300
CONTENTFORMAT
  1
CONTENTFORMAT_BEGIN
 90
        0
 91
        0
 92
      512
 93
        0
300

 40
0.0
140
1.0
 94
        5
 62
     0
340
55
144
0.25
309
CONTENTFORMAT_END
171
     0
 94
        0
309
TABLEFORMAT_END
  1
CELLSTYLE_BEGIN
 90
        1
 91
        1
300
_TITLE
309
CELLSTYLE_END
300
CELLSTYLE
  1
TABLEFORMAT_BEGIN
 90
        5
170
     1
 91
        0
 92
        0
 62
   257
 93
        1
300
CONTENTFORMAT
  1
CONTENTFORMAT_BEGIN
 90
        0
 91
        0
 92
      512
 93
        0
300

 40
0.0
140
1.0
 94
        5
 62
     0
340
55
144
0.18
309
CONTENTFORMAT_END
171
     0
 94
        0
309
TABLEFORMAT_END
  1
CELLSTYLE_BEGIN
 90
        2
 91
        1
300
_HEADER
309
CELLSTYLE_END
300
CELLSTYLE
  1
TABLEFORMAT_BEGIN
 90
        5
170
     1
 91
        0
 92
        0
 62
   257
 93
        1
300
CONTENTFORMAT
  1
CONTENTFORMAT_BEGIN
 90
        0
 91
        0
 92
      512
 93
        0
300

 40
0.0
140
1.0
 94
        2
 62
     0
340
55
144
0.18
309
CONTENTFORMAT_END
171
     0
 94
        0
309
TABLEFORMAT_END
  1
CELLSTYLE_BEGIN
 90
        3
 91
        2
300
_DATA
309
CELLSTYLE_END
  0
XRECORD
  5
C81
102
{ACAD_REACTORS
330
C46
102
}
330
C46
100
AcDbXrecord
280
     1
102
ACAD_ROUNDTRIP_PRE2007_TABLESTYLE
 90
      512
 91
        0
  1

 92
      512
 93
        0
  2

 94
      512
 95
        0
  3

  0
XRECORD
  5
C5C
102
{ACAD_REACTORS
330
C5B
102
}
330
C5B
100
AcDbXrecord
280
     1
102
RTVSPropertyOp0
 70
     1
102
RTVSPropertyOp1
 70
     1
102
RTVSPropertyOp2
 70
     1
102
RTVSPropertyOp3
 70
     1
102
RTVSPropertyOp4
 70
     1
102
RTVSPropertyOp5
 70
     1
102
RTVSPropertyOp6
 70
     1
102
RTVSPropertyOp7
 70
     1
102
RTVSPropertyOp8
 70
     1
102
RTVSPropertyOp9
 70
     1
102
RTVSPropertyOp10
 70
     1
102
RTVSPropertyOp11
 70
     1
102
RTVSPropertyOp12
 70
     1
102
RTVSPropertyOp13
 70
     1
102
RTVSPropertyOp14
 70
     1
102
RTVSPropertyOp15
 70
     1
102
RTVSPropertyOp16
 70
     1
102
RTVSPropertyOp17
 70
     1
102
RTVSPropertyOp18
 70
     1
102
RTVSPropertyOp19
 70
     1
102
RTVSPropertyOp20
 70
     1
102
RTVSPropertyOp21
 70
     1
102
RTVSPropertyOp22
 70
     1
102
RTVSPropertyOp23
 70
     1
102
RTVSPropertyOp24
 70
     1
102
RTVSPropertyOp25
 70
     1
102
RTVSPropertyOp26
 70
     1
102
RTVSPropertyOp27
 70
     1
102
RTVSPropertyOp28
 70
     1
102
RTVSPropertyOp29
 70
     1
102
RTVSPropertyOp30
 70
     1
102
RTVSPropertyOp31
 70
     1
102
RTVSPropertyOp32
 70
     1
  0
XRECORD
  5
C5A
102
{ACAD_REACTORS
330
C59
102
}
330
C59
100
AcDbXrecord
280
     1
102
RTVSPropertyOp0
 70
     1
102
RTVSPropertyOp1
 70
     1
102
RTVSPropertyOp2
 70
     1
102
RTVSPropertyOp3
 70
     1
102
RTVSPropertyOp4
 70
     1
102
RTVSPropertyOp5
 70
     1
102
RTVSPropertyOp6
 70
     1
102
RTVSPropertyOp7
 70
     1
102
RTVSPropertyOp8
 70
     1
102
RTVSPropertyOp9
 70
     1
102
RTVSPropertyOp10
 70
     1
102
RTVSPropertyOp11
 70
     1
102
RTVSPropertyOp12
 70
     1
102
RTVSPropertyOp13
 70
     1
102
RTVSPropertyOp14
 70
     1
102
RTVSPropertyOp15
 70
     1
102
RTVSPropertyOp16
 70
     1
102
RTVSPropertyOp17
 70
     1
102
RTVSPropertyOp18
 70
     1
102
RTVSPropertyOp19
 70
     1
102
RTVSPropertyOp20
 70
     1
102
RTVSPropertyOp21
 70
     1
102
RTVSPropertyOp22
 70
     1
102
RTVSPropertyOp23
 70
     1
102
RTVSPropertyOp24
 70
     1
102
RTVSPropertyOp25
 70
     1
102
RTVSPropertyOp26
 70
     1
102
RTVSPropertyOp27
 70
     1
102
RTVSPropertyOp28
 70
     1
102
RTVSPropertyOp29
 70
     1
102
RTVSPropertyOp30
 70
     1
102
RTVSPropertyOp31
 70
     1
102
RTVSPropertyOp32
 70
     1
  0
XRECORD
  5
C68
102
{ACAD_REACTORS
330
C67
102
}
330
C67
100
AcDbXrecord
280
     1
102
RTVSPropertyOp0
 70
     1
102
RTVSPropertyOp1
 70
     1
102
RTVSPropertyOp2
 70
     1
102
RTVSPropertyOp3
 70
     1
102
RTVSPropertyOp4
 70
     1
102
RTVSPropertyOp5
 70
     1
102
RTVSPropertyOp6
 70
     1
102
RTVSPropertyOp7
 70
     1
102
RTVSPropertyOp8
 70
     1
102
RTVSPropertyOp9
 70
     1
102
RTVSPropertyOp10
 70
     1
102
RTVSPropertyOp11
 70
     1
102
RTVSPropertyOp12
 70
     1
102
RTVSPropertyOp13
 70
     1
102
RTVSPropertyOp14
 70
     1
102
RTVSPropertyOp15
 70
     1
102
RTVSPropertyOp16
 70
     1
102
RTVSPropertyOp17
 70
     1
102
RTVSPropertyOp18
 70
     1
102
RTVSPropertyOp19
 70
     1
102
RTVSPropertyOp20
 70
     1
102
RTVSPropertyOp21
 70
     1
102
RTVSPropertyOp22
 70
     1
102
RTVSPropertyOp23
 70
     1
102
RTVSPropertyOp24
 70
     1
102
RTVSPropertyOp25
 70
     1
102
RTVSPropertyOp26
 70
     1
102
RTVSPropertyOp27
 70
     1
102
RTVSPropertyOp28
 70
     1
102
RTVSPropertyOp29
 70
     1
102
RTVSPropertyOp30
 70
     1
102
RTVSPropertyOp31
 70
     1
102
RTVSPropertyOp32
 70
     1
  0
XRECORD
  5
C70
102
{ACAD_REACTORS
330
C6F
102
}
330
C6F
100
AcDbXrecord
280
     1
102
RTVSPropertyOp0
 70
     1
102
RTVSPropertyOp1
 70
     1
102
RTVSPropertyOp2
 70
     1
102
RTVSPropertyOp3
 70
     1
102
RTVSPropertyOp4
 70
     1
102
RTVSPropertyOp5
 70
     1
102
RTVSPropertyOp6
 70
     1
102
RTVSPropertyOp7
 70
     1
102
RTVSPropertyOp8
 70
     1
102
RTVSPropertyOp9
 70
     1
102
RTVSPropertyOp10
 70
     1
102
RTVSPropertyOp11
 70
     1
102
RTVSPropertyOp12
 70
     1
102
RTVSPropertyOp13
 70
     1
102
RTVSPropertyOp14
 70
     1
102
RTVSPropertyOp15
 70
     1
102
RTVSPropertyOp16
 70
     1
102
RTVSPropertyOp17
 70
     1
102
RTVSPropertyOp18
 70
     1
102
RTVSPropertyOp19
 70
     1
102
RTVSPropertyOp20
 70
     1
102
RTVSPropertyOp21
 70
     1
102
RTVSPropertyOp22
 70
     1
102
RTVSPropertyOp23
 70
     1
102
RTVSPropertyOp24
 70
     1
102
RTVSPropertyOp25
 70
     1
102
RTVSPropertyOp26
 70
     1
102
RTVSPropertyOp27
 70
     1
102
RTVSPropertyOp28
 70
     1
102
RTVSPropertyOp29
 70
     1
102
RTVSPropertyOp30
 70
     1
102
RTVSPropertyOp31
 70
     1
102
RTVSPropertyOp32
 70
     1
  0
XRECORD
  5
C62
102
{ACAD_REACTORS
330
C61
102
}
330
C61
100
AcDbXrecord
280
     1
102
RTVSPropertyOp0
 70
     1
102
RTVSPropertyOp1
 70
     1
102
RTVSPropertyOp2
 70
     1
102
RTVSPropertyOp3
 70
     1
102
RTVSPropertyOp4
 70
     1
102
RTVSPropertyOp5
 70
     1
102
RTVSPropertyOp6
 70
     1
102
RTVSPropertyOp7
 70
     1
102
RTVSPropertyOp8
 70
     1
102
RTVSPropertyOp9
 70
     1
102
RTVSPropertyOp10
 70
     1
102
RTVSPropertyOp11
 70
     1
102
RTVSPropertyOp12
 70
     1
102
RTVSPropertyOp13
 70
     1
102
RTVSPropertyOp14
 70
     1
102
RTVSPropertyOp15
 70
     1
102
RTVSPropertyOp16
 70
     1
102
RTVSPropertyOp17
 70
     1
102
RTVSPropertyOp18
 70
     1
102
RTVSPropertyOp19
 70
     1
102
RTVSPropertyOp20
 70
     1
102
RTVSPropertyOp21
 70
     1
102
RTVSPropertyOp22
 70
     1
102
RTVSPropertyOp23
 70
     1
102
RTVSPropertyOp24
 70
     1
102
RTVSPropertyOp25
 70
     1
102
RTVSPropertyOp26
 70
     1
102
RTVSPropertyOp27
 70
     1
102
RTVSPropertyOp28
 70
     1
102
RTVSPropertyOp29
 70
     1
102
RTVSPropertyOp30
 70
     1
102
RTVSPropertyOp31
 70
     1
102
RTVSPropertyOp32
 70
     1
  0
XRECORD
  5
C66
102
{ACAD_REACTORS
330
C65
102
}
330
C65
100
AcDbXrecord
280
     1
102
RTVSPropertyOp0
 70
     1
102
RTVSPropertyOp1
 70
     1
102
RTVSPropertyOp2
 70
     1
102
RTVSPropertyOp3
 70
     1
102
RTVSPropertyOp4
 70
     1
102
RTVSPropertyOp5
 70
     1
102
RTVSPropertyOp6
 70
     1
102
RTVSPropertyOp7
 70
     1
102
RTVSPropertyOp8
 70
     1
102
RTVSPropertyOp9
 70
     1
102
RTVSPropertyOp10
 70
     1
102
RTVSPropertyOp11
 70
     1
102
RTVSPropertyOp12
 70
     1
102
RTVSPropertyOp13
 70
     1
102
RTVSPropertyOp14
 70
     1
102
RTVSPropertyOp15
 70
     1
102
RTVSPropertyOp16
 70
     1
102
RTVSPropertyOp17
 70
     1
102
RTVSPropertyOp18
 70
     1
102
RTVSPropertyOp19
 70
     1
102
RTVSPropertyOp20
 70
     1
102
RTVSPropertyOp21
 70
     1
102
RTVSPropertyOp22
 70
     1
102
RTVSPropertyOp23
 70
     1
102
RTVSPropertyOp24
 70
     1
102
RTVSPropertyOp25
 70
     1
102
RTVSPropertyOp26
 70
     1
102
RTVSPropertyOp27
 70
     1
102
RTVSPropertyOp28
 70
     1
102
RTVSPropertyOp29
 70
     1
102
RTVSPropertyOp30
 70
     1
102
RTVSPropertyOp31
 70
     1
102
RTVSPropertyOp32
 70
     1
  0
XRECORD
  5
C80
102
{ACAD_REACTORS
330
C7F
102
}
330
C7F
100
AcDbXrecord
280
     1
102
RTVSPropertyOp0
 70
     0
102
RTVSPropertyOp1
 70
     0
102
RTVSPropertyOp2
 70
     0
102
RTVSPropertyOp3
 70
     0
102
RTVSPropertyOp4
 70
     0
102
RTVSPropertyOp5
 70
     0
102
RTVSPropertyOp6
 70
     0
102
RTVSPropertyOp7
 70
     0
102
RTVSPropertyOp8
 70
     0
102
RTVSPropertyOp9
 70
     0
102
RTVSPropertyOp10
 70
     0
102
RTVSPropertyOp11
 70
     0
102
RTVSPropertyOp12
 70
     0
102
RTVSPropertyOp13
 70
     0
102
RTVSPropertyOp14
 70
     2
102
RTVSPropertyOp15
 70
     0
102
RTVSPropertyOp16
 70
     0
102
RTVSPropertyOp17
 70
     0
102
RTVSPropertyOp18
 70
     0
102
RTVSPropertyOp19
 70
     0
102
RTVSPropertyOp20
 70
     0
102
RTVSPropertyOp21
 70
     0
102
RTVSPropertyOp22
 70
     0
102
RTVSPropertyOp23
 70
     0
102
RTVSPropertyOp24
 70
     0
102
RTVSPropertyOp25
 70
     0
102
RTVSPropertyOp26
 70
     0
102
RTVSPropertyOp27
 70
     0
102
RTVSPropertyOp28
 70
     1
102
RTVSPropertyOp29
 70
     1
102
RTVSPropertyOp30
 70
     1
102
RTVSPropertyOp31
 70
     1
102
RTVSPropertyOp32
 70
     1
  0
XRECORD
  5
C6E
102
{ACAD_REACTORS
330
C6D
102
}
330
C6D
100
AcDbXrecord
280
     1
102
RTVSPropertyOp0
 70
     1
102
RTVSPropertyOp1
 70
     1
102
RTVSPropertyOp2
 70
     1
102
RTVSPropertyOp3
 70
     1
102
RTVSPropertyOp4
 70
     1
102
RTVSPropertyOp5
 70
     1
102
RTVSPropertyOp6
 70
     1
102
RTVSPropertyOp7
 70
     1
102
RTVSPropertyOp8
 70
     1
102
RTVSPropertyOp9
 70
     1
102
RTVSPropertyOp10
 70
     1
102
RTVSPropertyOp11
 70
     1
102
RTVSPropertyOp12
 70
     1
102
RTVSPropertyOp13
 70
     1
102
RTVSPropertyOp14
 70
     1
102
RTVSPropertyOp15
 70
     1
102
RTVSPropertyOp16
 70
     1
102
RTVSPropertyOp17
 70
     1
102
RTVSPropertyOp18
 70
     1
102
RTVSPropertyOp19
 70
     1
102
RTVSPropertyOp20
 70
     1
102
RTVSPropertyOp21
 70
     1
102
RTVSPropertyOp22
 70
     1
102
RTVSPropertyOp23
 70
     1
102
RTVSPropertyOp24
 70
     1
102
RTVSPropertyOp25
 70
     1
102
RTVSPropertyOp26
 70
     1
102
RTVSPropertyOp27
 70
     1
102
RTVSPropertyOp28
 70
     1
102
RTVSPropertyOp29
 70
     1
102
RTVSPropertyOp30
 70
     1
102
RTVSPropertyOp31
 70
     1
102
RTVSPropertyOp32
 70
     1
  0
XRECORD
  5
C52
102
{ACAD_REACTORS
330
C51
102
}
330
C51
100
AcDbXrecord
280
     1
102
RTVSPropertyOp0
 70
     1
102
RTVSPropertyOp1
 70
     1
102
RTVSPropertyOp2
 70
     1
102
RTVSPropertyOp3
 70
     1
102
RTVSPropertyOp4
 70
     1
102
RTVSPropertyOp5
 70
     1
102
RTVSPropertyOp6
 70
     1
102
RTVSPropertyOp7
 70
     1
102
RTVSPropertyOp8
 70
     1
102
RTVSPropertyOp9
 70
     1
102
RTVSPropertyOp10
 70
     1
102
RTVSPropertyOp11
 70
     1
102
RTVSPropertyOp12
 70
     1
102
RTVSPropertyOp13
 70
     1
102
RTVSPropertyOp14
 70
     1
102
RTVSPropertyOp15
 70
     1
102
RTVSPropertyOp16
 70
     1
102
RTVSPropertyOp17
 70
     1
102
RTVSPropertyOp18
 70
     1
102
RTVSPropertyOp19
 70
     1
102
RTVSPropertyOp20
 70
     1
102
RTVSPropertyOp21
 70
     1
102
RTVSPropertyOp22
 70
     1
102
RTVSPropertyOp23
 70
     1
102
RTVSPropertyOp24
 70
     1
102
RTVSPropertyOp25
 70
     1
102
RTVSPropertyOp26
 70
     1
102
RTVSPropertyOp27
 70
     1
102
RTVSPropertyOp28
 70
     1
102
RTVSPropertyOp29
 70
     1
102
RTVSPropertyOp30
 70
     1
102
RTVSPropertyOp31
 70
     1
102
RTVSPropertyOp32
 70
     1
  0
XRECORD
  5
C54
102
{ACAD_REACTORS
330
C53
102
}
330
C53
100
AcDbXrecord
280
     1
102
RTVSPropertyOp0
 70
     1
102
RTVSPropertyOp1
 70
     1
102
RTVSPropertyOp2
 70
     1
102
RTVSPropertyOp3
 70
     1
102
RTVSPropertyOp4
 70
     1
102
RTVSPropertyOp5
 70
     1
102
RTVSPropertyOp6
 70
     1
102
RTVSPropertyOp7
 70
     1
102
RTVSPropertyOp8
 70
     1
102
RTVSPropertyOp9
 70
     1
102
RTVSPropertyOp10
 70
     1
102
RTVSPropertyOp11
 70
     1
102
RTVSPropertyOp12
 70
     1
102
RTVSPropertyOp13
 70
     1
102
RTVSPropertyOp14
 70
     1
102
RTVSPropertyOp15
 70
     1
102
RTVSPropertyOp16
 70
     1
102
RTVSPropertyOp17
 70
     1
102
RTVSPropertyOp18
 70
     1
102
RTVSPropertyOp19
 70
     1
102
RTVSPropertyOp20
 70
     1
102
RTVSPropertyOp21
 70
     1
102
RTVSPropertyOp22
 70
     1
102
RTVSPropertyOp23
 70
     1
102
RTVSPropertyOp24
 70
     1
102
RTVSPropertyOp25
 70
     1
102
RTVSPropertyOp26
 70
     1
102
RTVSPropertyOp27
 70
     1
102
RTVSPropertyOp28
 70
     1
102
RTVSPropertyOp29
 70
     1
102
RTVSPropertyOp30
 70
     1
102
RTVSPropertyOp31
 70
     1
102
RTVSPropertyOp32
 70
     1
  0
XRECORD
  5
C56
102
{ACAD_REACTORS
330
C55
102
}
330
C55
100
AcDbXrecord
280
     1
102
RTVSPropertyOp0
 70
     1
102
RTVSPropertyOp1
 70
     1
102
RTVSPropertyOp2
 70
     1
102
RTVSPropertyOp3
 70
     1
102
RTVSPropertyOp4
 70
     1
102
RTVSPropertyOp5
 70
     1
102
RTVSPropertyOp6
 70
     1
102
RTVSPropertyOp7
 70
     1
102
RTVSPropertyOp8
 70
     1
102
RTVSPropertyOp9
 70
     1
102
RTVSPropertyOp10
 70
     1
102
RTVSPropertyOp11
 70
     1
102
RTVSPropertyOp12
 70
     1
102
RTVSPropertyOp13
 70
     1
102
RTVSPropertyOp14
 70
     1
102
RTVSPropertyOp15
 70
     1
102
RTVSPropertyOp16
 70
     1
102
RTVSPropertyOp17
 70
     1
102
RTVSPropertyOp18
 70
     1
102
RTVSPropertyOp19
 70
     1
102
RTVSPropertyOp20
 70
     1
102
RTVSPropertyOp21
 70
     1
102
RTVSPropertyOp22
 70
     1
102
RTVSPropertyOp23
 70
     1
102
RTVSPropertyOp24
 70
     1
102
RTVSPropertyOp25
 70
     1
102
RTVSPropertyOp26
 70
     1
102
RTVSPropertyOp27
 70
     1
102
RTVSPropertyOp28
 70
     1
102
RTVSPropertyOp29
 70
     1
102
RTVSPropertyOp30
 70
     1
102
RTVSPropertyOp31
 70
     1
102
RTVSPropertyOp32
 70
     1
  0
XRECORD
  5
C58
102
{ACAD_REACTORS
330
C57
102
}
330
C57
100
AcDbXrecord
280
     1
102
RTVSPropertyOp0
 70
     1
102
RTVSPropertyOp1
 70
     1
102
RTVSPropertyOp2
 70
     1
102
RTVSPropertyOp3
 70
     1
102
RTVSPropertyOp4
 70
     1
102
RTVSPropertyOp5
 70
     1
102
RTVSPropertyOp6
 70
     1
102
RTVSPropertyOp7
 70
     1
102
RTVSPropertyOp8
 70
     1
102
RTVSPropertyOp9
 70
     1
102
RTVSPropertyOp10
 70
     1
102
RTVSPropertyOp11
 70
     1
102
RTVSPropertyOp12
 70
     1
102
RTVSPropertyOp13
 70
     1
102
RTVSPropertyOp14
 70
     1
102
RTVSPropertyOp15
 70
     1
102
RTVSPropertyOp16
 70
     1
102
RTVSPropertyOp17
 70
     1
102
RTVSPropertyOp18
 70
     1
102
RTVSPropertyOp19
 70
     1
102
RTVSPropertyOp20
 70
     1
102
RTVSPropertyOp21
 70
     1
102
RTVSPropertyOp22
 70
     1
102
RTVSPropertyOp23
 70
     1
102
RTVSPropertyOp24
 70
     1
102
RTVSPropertyOp25
 70
     1
102
RTVSPropertyOp26
 70
     1
102
RTVSPropertyOp27
 70
     1
102
RTVSPropertyOp28
 70
     1
102
RTVSPropertyOp29
 70
     1
102
RTVSPropertyOp30
 70
     1
102
RTVSPropertyOp31
 70
     1
102
RTVSPropertyOp32
 70
     1
  0
XRECORD
  5
C60
102
{ACAD_REACTORS
330
C5F
102
}
330
C5F
100
AcDbXrecord
280
     1
102
RTVSPropertyOp0
 70
     1
102
RTVSPropertyOp1
 70
     1
102
RTVSPropertyOp2
 70
     1
102
RTVSPropertyOp3
 70
     1
102
RTVSPropertyOp4
 70
     1
102
RTVSPropertyOp5
 70
     1
102
RTVSPropertyOp6
 70
     1
102
RTVSPropertyOp7
 70
     1
102
RTVSPropertyOp8
 70
     1
102
RTVSPropertyOp9
 70
     1
102
RTVSPropertyOp10
 70
     1
102
RTVSPropertyOp11
 70
     1
102
RTVSPropertyOp12
 70
     1
102
RTVSPropertyOp13
 70
     1
102
RTVSPropertyOp14
 70
     1
102
RTVSPropertyOp15
 70
     1
102
RTVSPropertyOp16
 70
     1
102
RTVSPropertyOp17
 70
     1
102
RTVSPropertyOp18
 70
     1
102
RTVSPropertyOp19
 70
     1
102
RTVSPropertyOp20
 70
     1
102
RTVSPropertyOp21
 70
     1
102
RTVSPropertyOp22
 70
     1
102
RTVSPropertyOp23
 70
     1
102
RTVSPropertyOp24
 70
     1
102
RTVSPropertyOp25
 70
     1
102
RTVSPropertyOp26
 70
     1
102
RTVSPropertyOp27
 70
     1
102
RTVSPropertyOp28
 70
     1
102
RTVSPropertyOp29
 70
     1
102
RTVSPropertyOp30
 70
     1
102
RTVSPropertyOp31
 70
     1
102
RTVSPropertyOp32
 70
     1
  0
XRECORD
  5
C7C
102
{ACAD_REACTORS
330
C7B
102
}
330
C7B
100
AcDbXrecord
280
     1
102
RTVSPropertyOp0
 70
     0
102
RTVSPropertyOp1
 70
     0
102
RTVSPropertyOp2
 70
     0
102
RTVSPropertyOp3
 70
     0
102
RTVSPropertyOp4
 70
     0
102
RTVSPropertyOp5
 70
     0
102
RTVSPropertyOp6
 70
     0
102
RTVSPropertyOp7
 70
     0
102
RTVSPropertyOp8
 70
     0
102
RTVSPropertyOp9
 70
     0
102
RTVSPropertyOp10
 70
     0
102
RTVSPropertyOp11
 70
     0
102
RTVSPropertyOp12
 70
     0
102
RTVSPropertyOp13
 70
     0
102
RTVSPropertyOp14
 70
     2
102
RTVSPropertyOp15
 70
     0
102
RTVSPropertyOp16
 70
     0
102
RTVSPropertyOp17
 70
     0
102
RTVSPropertyOp18
 70
     0
102
RTVSPropertyOp19
 70
     0
102
RTVSPropertyOp20
 70
     0
102
RTVSPropertyOp21
 70
     0
102
RTVSPropertyOp22
 70
     0
102
RTVSPropertyOp23
 70
     0
102
RTVSPropertyOp24
 70
     0
102
RTVSPropertyOp25
 70
     0
102
RTVSPropertyOp26
 70
     0
102
RTVSPropertyOp27
 70
     0
102
RTVSPropertyOp28
 70
     1
102
RTVSPropertyOp29
 70
     1
102
RTVSPropertyOp30
 70
     1
102
RTVSPropertyOp31
 70
     1
102
RTVSPropertyOp32
 70
     1
  0
XRECORD
  5
C6C
102
{ACAD_REACTORS
330
C6B
102
}
330
C6B
100
AcDbXrecord
280
     1
102
RTVSPropertyOp0
 70
     1
102
RTVSPropertyOp1
 70
     1
102
RTVSPropertyOp2
 70
     1
102
RTVSPropertyOp3
 70
     1
102
RTVSPropertyOp4
 70
     1
102
RTVSPropertyOp5
 70
     1
102
RTVSPropertyOp6
 70
     1
102
RTVSPropertyOp7
 70
     1
102
RTVSPropertyOp8
 70
     1
102
RTVSPropertyOp9
 70
     1
102
RTVSPropertyOp10
 70
     1
102
RTVSPropertyOp11
 70
     1
102
RTVSPropertyOp12
 70
     1
102
RTVSPropertyOp13
 70
     1
102
RTVSPropertyOp14
 70
     1
102
RTVSPropertyOp15
 70
     1
102
RTVSPropertyOp16
 70
     1
102
RTVSPropertyOp17
 70
     1
102
RTVSPropertyOp18
 70
     1
102
RTVSPropertyOp19
 70
     1
102
RTVSPropertyOp20
 70
     1
102
RTVSPropertyOp21
 70
     1
102
RTVSPropertyOp22
 70
     1
102
RTVSPropertyOp23
 70
     1
102
RTVSPropertyOp24
 70
     1
102
RTVSPropertyOp25
 70
     1
102
RTVSPropertyOp26
 70
     1
102
RTVSPropertyOp27
 70
     1
102
RTVSPropertyOp28
 70
     1
102
RTVSPropertyOp29
 70
     1
102
RTVSPropertyOp30
 70
     1
102
RTVSPropertyOp31
 70
     1
102
RTVSPropertyOp32
 70
     1
  0
XRECORD
  5
C7E
102
{ACAD_REACTORS
330
C7D
102
}
330
C7D
100
AcDbXrecord
280
     1
102
RTVSPropertyOp0
 70
     0
102
RTVSPropertyOp1
 70
     0
102
RTVSPropertyOp2
 70
     0
102
RTVSPropertyOp3
 70
     0
102
RTVSPropertyOp4
 70
     0
102
RTVSPropertyOp5
 70
     0
102
RTVSPropertyOp6
 70
     0
102
RTVSPropertyOp7
 70
     0
102
RTVSPropertyOp8
 70
     0
102
RTVSPropertyOp9
 70
     0
102
RTVSPropertyOp10
 70
     0
102
RTVSPropertyOp11
 70
     0
102
RTVSPropertyOp12
 70
     0
102
RTVSPropertyOp13
 70
     0
102
RTVSPropertyOp14
 70
     2
102
RTVSPropertyOp15
 70
     0
102
RTVSPropertyOp16
 70
     0
102
RTVSPropertyOp17
 70
     0
102
RTVSPropertyOp18
 70
     0
102
RTVSPropertyOp19
 70
     0
102
RTVSPropertyOp20
 70
     0
102
RTVSPropertyOp21
 70
     0
102
RTVSPropertyOp22
 70
     0
102
RTVSPropertyOp23
 70
     0
102
RTVSPropertyOp24
 70
     0
102
RTVSPropertyOp25
 70
     0
102
RTVSPropertyOp26
 70
     0
102
RTVSPropertyOp27
 70
     0
102
RTVSPropertyOp28
 70
     1
102
RTVSPropertyOp29
 70
     1
102
RTVSPropertyOp30
 70
     1
102
RTVSPropertyOp31
 70
     1
102
RTVSPropertyOp32
 70
     1
  0
XRECORD
  5
C64
102
{ACAD_REACTORS
330
C63
102
}
330
C63
100
AcDbXrecord
280
     1
102
RTVSPropertyOp0
 70
     1
102
RTVSPropertyOp1
 70
     1
102
RTVSPropertyOp2
 70
     1
102
RTVSPropertyOp3
 70
     1
102
RTVSPropertyOp4
 70
     1
102
RTVSPropertyOp5
 70
     1
102
RTVSPropertyOp6
 70
     1
102
RTVSPropertyOp7
 70
     1
102
RTVSPropertyOp8
 70
     1
102
RTVSPropertyOp9
 70
     1
102
RTVSPropertyOp10
 70
     1
102
RTVSPropertyOp11
 70
     1
102
RTVSPropertyOp12
 70
     1
102
RTVSPropertyOp13
 70
     1
102
RTVSPropertyOp14
 70
     1
102
RTVSPropertyOp15
 70
     1
102
RTVSPropertyOp16
 70
     1
102
RTVSPropertyOp17
 70
     1
102
RTVSPropertyOp18
 70
     1
102
RTVSPropertyOp19
 70
     1
102
RTVSPropertyOp20
 70
     1
102
RTVSPropertyOp21
 70
     1
102
RTVSPropertyOp22
 70
     1
102
RTVSPropertyOp23
 70
     1
102
RTVSPropertyOp24
 70
     1
102
RTVSPropertyOp25
 70
     1
102
RTVSPropertyOp26
 70
     1
102
RTVSPropertyOp27
 70
     1
102
RTVSPropertyOp28
 70
     1
102
RTVSPropertyOp29
 70
     1
102
RTVSPropertyOp30
 70
     1
102
RTVSPropertyOp31
 70
     1
102
RTVSPropertyOp32
 70
     1
  0
XRECORD
  5
C7A
102
{ACAD_REACTORS
330
C79
102
}
330
C79
100
AcDbXrecord
280
     1
102
RTVSPropertyOp0
 70
     1
102
RTVSPropertyOp1
 70
     1
102
RTVSPropertyOp2
 70
     1
102
RTVSPropertyOp3
 70
     1
102
RTVSPropertyOp4
 70
     1
102
RTVSPropertyOp5
 70
     1
102
RTVSPropertyOp6
 70
     1
102
RTVSPropertyOp7
 70
     1
102
RTVSPropertyOp8
 70
     1
102
RTVSPropertyOp9
 70
     1
102
RTVSPropertyOp10
 70
     1
102
RTVSPropertyOp11
 70
     1
102
RTVSPropertyOp12
 70
     1
102
RTVSPropertyOp13
 70
     1
102
RTVSPropertyOp14
 70
     1
102
RTVSPropertyOp15
 70
     1
102
RTVSPropertyOp16
 70
     1
102
RTVSPropertyOp17
 70
     1
102
RTVSPropertyOp18
 70
     1
102
RTVSPropertyOp19
 70
     1
102
RTVSPropertyOp20
 70
     1
102
RTVSPropertyOp21
 70
     1
102
RTVSPropertyOp22
 70
     1
102
RTVSPropertyOp23
 70
     1
102
RTVSPropertyOp24
 70
     1
102
RTVSPropertyOp25
 70
     1
102
RTVSPropertyOp26
 70
     1
102
RTVSPropertyOp27
 70
     1
102
RTVSPropertyOp28
 70
     1
102
RTVSPropertyOp29
 70
     1
102
RTVSPropertyOp30
 70
     1
102
RTVSPropertyOp31
 70
     1
102
RTVSPropertyOp32
 70
     1
  0
XRECORD
  5
C78
102
{ACAD_REACTORS
330
C77
102
}
330
C77
100
AcDbXrecord
280
     1
102
RTVSPropertyOp0
 70
     1
102
RTVSPropertyOp1
 70
     1
102
RTVSPropertyOp2
 70
     1
102
RTVSPropertyOp3
 70
     1
102
RTVSPropertyOp4
 70
     1
102
RTVSPropertyOp5
 70
     1
102
RTVSPropertyOp6
 70
     1
102
RTVSPropertyOp7
 70
     1
102
RTVSPropertyOp8
 70
     1
102
RTVSPropertyOp9
 70
     1
102
RTVSPropertyOp10
 70
     1
102
RTVSPropertyOp11
 70
     1
102
RTVSPropertyOp12
 70
     1
102
RTVSPropertyOp13
 70
     1
102
RTVSPropertyOp14
 70
     1
102
RTVSPropertyOp15
 70
     1
102
RTVSPropertyOp16
 70
     1
102
RTVSPropertyOp17
 70
     1
102
RTVSPropertyOp18
 70
     1
102
RTVSPropertyOp19
 70
     1
102
RTVSPropertyOp20
 70
     1
102
RTVSPropertyOp21
 70
     1
102
RTVSPropertyOp22
 70
     1
102
RTVSPropertyOp23
 70
     1
102
RTVSPropertyOp24
 70
     1
102
RTVSPropertyOp25
 70
     1
102
RTVSPropertyOp26
 70
     1
102
RTVSPropertyOp27
 70
     1
102
RTVSPropertyOp28
 70
     1
102
RTVSPropertyOp29
 70
     1
102
RTVSPropertyOp30
 70
     1
102
RTVSPropertyOp31
 70
     1
102
RTVSPropertyOp32
 70
     1
  0
XRECORD
  5
C72
102
{ACAD_REACTORS
330
C71
102
}
330
C71
100
AcDbXrecord
280
     1
102
RTVSPropertyOp0
 70
     1
102
RTVSPropertyOp1
 70
     1
102
RTVSPropertyOp2
 70
     1
102
RTVSPropertyOp3
 70
     1
102
RTVSPropertyOp4
 70
     1
102
RTVSPropertyOp5
 70
     1
102
RTVSPropertyOp6
 70
     1
102
RTVSPropertyOp7
 70
     1
102
RTVSPropertyOp8
 70
     1
102
RTVSPropertyOp9
 70
     1
102
RTVSPropertyOp10
 70
     1
102
RTVSPropertyOp11
 70
     1
102
RTVSPropertyOp12
 70
     1
102
RTVSPropertyOp13
 70
     1
102
RTVSPropertyOp14
 70
     1
102
RTVSPropertyOp15
 70
     1
102
RTVSPropertyOp16
 70
     1
102
RTVSPropertyOp17
 70
     1
102
RTVSPropertyOp18
 70
     1
102
RTVSPropertyOp19
 70
     1
102
RTVSPropertyOp20
 70
     1
102
RTVSPropertyOp21
 70
     1
102
RTVSPropertyOp22
 70
     1
102
RTVSPropertyOp23
 70
     1
102
RTVSPropertyOp24
 70
     1
102
RTVSPropertyOp25
 70
     1
102
RTVSPropertyOp26
 70
     1
102
RTVSPropertyOp27
 70
     1
102
RTVSPropertyOp28
 70
     1
102
RTVSPropertyOp29
 70
     1
102
RTVSPropertyOp30
 70
     1
102
RTVSPropertyOp31
 70
     1
102
RTVSPropertyOp32
 70
     1
  0
XRECORD
  5
C74
102
{ACAD_REACTORS
330
C73
102
}
330
C73
100
AcDbXrecord
280
     1
102
RTVSPropertyOp0
 70
     1
102
RTVSPropertyOp1
 70
     1
102
RTVSPropertyOp2
 70
     1
102
RTVSPropertyOp3
 70
     1
102
RTVSPropertyOp4
 70
     1
102
RTVSPropertyOp5
 70
     1
102
RTVSPropertyOp6
 70
     1
102
RTVSPropertyOp7
 70
     1
102
RTVSPropertyOp8
 70
     1
102
RTVSPropertyOp9
 70
     1
102
RTVSPropertyOp10
 70
     1
102
RTVSPropertyOp11
 70
     1
102
RTVSPropertyOp12
 70
     1
102
RTVSPropertyOp13
 70
     1
102
RTVSPropertyOp14
 70
     1
102
RTVSPropertyOp15
 70
     1
102
RTVSPropertyOp16
 70
     1
102
RTVSPropertyOp17
 70
     1
102
RTVSPropertyOp18
 70
     1
102
RTVSPropertyOp19
 70
     1
102
RTVSPropertyOp20
 70
     1
102
RTVSPropertyOp21
 70
     1
102
RTVSPropertyOp22
 70
     1
102
RTVSPropertyOp23
 70
     1
102
RTVSPropertyOp24
 70
     1
102
RTVSPropertyOp25
 70
     1
102
RTVSPropertyOp26
 70
     1
102
RTVSPropertyOp27
 70
     1
102
RTVSPropertyOp28
 70
     1
102
RTVSPropertyOp29
 70
     1
102
RTVSPropertyOp30
 70
     1
102
RTVSPropertyOp31
 70
     1
102
RTVSPropertyOp32
 70
     1
  0
XRECORD
  5
C6A
102
{ACAD_REACTORS
330
C69
102
}
330
C69
100
AcDbXrecord
280
     1
102
RTVSPropertyOp0
 70
     1
102
RTVSPropertyOp1
 70
     1
102
RTVSPropertyOp2
 70
     1
102
RTVSPropertyOp3
 70
     1
102
RTVSPropertyOp4
 70
     1
102
RTVSPropertyOp5
 70
     1
102
RTVSPropertyOp6
 70
     1
102
RTVSPropertyOp7
 70
     1
102
RTVSPropertyOp8
 70
     1
102
RTVSPropertyOp9
 70
     1
102
RTVSPropertyOp10
 70
     1
102
RTVSPropertyOp11
 70
     1
102
RTVSPropertyOp12
 70
     1
102
RTVSPropertyOp13
 70
     1
102
RTVSPropertyOp14
 70
     1
102
RTVSPropertyOp15
 70
     1
102
RTVSPropertyOp16
 70
     1
102
RTVSPropertyOp17
 70
     1
102
RTVSPropertyOp18
 70
     1
102
RTVSPropertyOp19
 70
     1
102
RTVSPropertyOp20
 70
     1
102
RTVSPropertyOp21
 70
     1
102
RTVSPropertyOp22
 70
     1
102
RTVSPropertyOp23
 70
     1
102
RTVSPropertyOp24
 70
     1
102
RTVSPropertyOp25
 70
     1
102
RTVSPropertyOp26
 70
     1
102
RTVSPropertyOp27
 70
     1
102
RTVSPropertyOp28
 70
     1
102
RTVSPropertyOp29
 70
     1
102
RTVSPropertyOp30
 70
     1
102
RTVSPropertyOp31
 70
     1
102
RTVSPropertyOp32
 70
     1
  0
XRECORD
  5
C5E
102
{ACAD_REACTORS
330
C5D
102
}
330
C5D
100
AcDbXrecord
280
     1
102
RTVSPropertyOp0
 70
     1
102
RTVSPropertyOp1
 70
     1
102
RTVSPropertyOp2
 70
     1
102
RTVSPropertyOp3
 70
     1
102
RTVSPropertyOp4
 70
     1
102
RTVSPropertyOp5
 70
     1
102
RTVSPropertyOp6
 70
     1
102
RTVSPropertyOp7
 70
     1
102
RTVSPropertyOp8
 70
     1
102
RTVSPropertyOp9
 70
     1
102
RTVSPropertyOp10
 70
     1
102
RTVSPropertyOp11
 70
     1
102
RTVSPropertyOp12
 70
     1
102
RTVSPropertyOp13
 70
     1
102
RTVSPropertyOp14
 70
     1
102
RTVSPropertyOp15
 70
     1
102
RTVSPropertyOp16
 70
     1
102
RTVSPropertyOp17
 70
     1
102
RTVSPropertyOp18
 70
     1
102
RTVSPropertyOp19
 70
     1
102
RTVSPropertyOp20
 70
     1
102
RTVSPropertyOp21
 70
     1
102
RTVSPropertyOp22
 70
     1
102
RTVSPropertyOp23
 70
     1
102
RTVSPropertyOp24
 70
     1
102
RTVSPropertyOp25
 70
     1
102
RTVSPropertyOp26
 70
     1
102
RTVSPropertyOp27
 70
     1
102
RTVSPropertyOp28
 70
     1
102
RTVSPropertyOp29
 70
     1
102
RTVSPropertyOp30
 70
     1
102
RTVSPropertyOp31
 70
     1
102
RTVSPropertyOp32
 70
     1
  0
XRECORD
  5
C76
102
{ACAD_REACTORS
330
C75
102
}
330
C75
100
AcDbXrecord
280
     1
102
RTVSPropertyOp0
 70
     1
102
RTVSPropertyOp1
 70
     1
102
RTVSPropertyOp2
 70
     1
102
RTVSPropertyOp3
 70
     1
102
RTVSPropertyOp4
 70
     1
102
RTVSPropertyOp5
 70
     1
102
RTVSPropertyOp6
 70
     1
102
RTVSPropertyOp7
 70
     1
102
RTVSPropertyOp8
 70
     1
102
RTVSPropertyOp9
 70
     1
102
RTVSPropertyOp10
 70
     1
102
RTVSPropertyOp11
 70
     1
102
RTVSPropertyOp12
 70
     1
102
RTVSPropertyOp13
 70
     1
102
RTVSPropertyOp14
 70
     1
102
RTVSPropertyOp15
 70
     1
102
RTVSPropertyOp16
 70
     1
102
RTVSPropertyOp17
 70
     1
102
RTVSPropertyOp18
 70
     1
102
RTVSPropertyOp19
 70
     1
102
RTVSPropertyOp20
 70
     1
102
RTVSPropertyOp21
 70
     1
102
RTVSPropertyOp22
 70
     1
102
RTVSPropertyOp23
 70
     1
102
RTVSPropertyOp24
 70
     1
102
RTVSPropertyOp25
 70
     1
102
RTVSPropertyOp26
 70
     1
102
RTVSPropertyOp27
 70
     1
102
RTVSPropertyOp28
 70
     1
102
RTVSPropertyOp29
 70
     1
102
RTVSPropertyOp30
 70
     1
102
RTVSPropertyOp31
 70
     1
102
RTVSPropertyOp32
 70
     1
  0
ENDSEC
  0
EOF
