  0
SECTION
  2
HEADER
  9
$ACADVER
  1
AC1015
  9
$ACADMAINTVER
 70
    18
  9
$DWGCODEPAGE
  3
ANSI_1252
  9
$INSBASE
 10
0.0
 20
0.0
 30
0.0
  9
$EXTMIN
 10
0.0
 20
0.0
 30
0.0
  9
$EXTMAX
 10
56.66666666666667
 20
36.66666666666667
 30
0.0
  9
$LIMMIN
 10
0.0
 20
0.0
  9
$LIMMAX
 10
56.66666666666667
 20
36.66666666666667
  9
$ORTHOMODE
 70
     0
  9
$REGENMODE
 70
     1
  9
$FILLMODE
 70
     1
  9
$QTEXTMODE
 70
     0
  9
$MIRRTEXT
 70
     0
  9
$LTSCALE
 40
3.333333333333333
  9
$ATTMODE
 70
     1
  9
$TEXTSIZE
 40
0.2
  9
$TRACEWID
 40
0.05
  9
$TEXTSTYLE
  7
Standard
  9
$CLAYER
  8
0
  9
$CELTYPE
  6
ByLayer
  9
$CECOLOR
 62
   256
  9
$CELTSCALE
 40
1.0
  9
$DISPSILH
 70
     0
  9
$DIMSCALE
 40
1.0
  9
$DIMASZ
 40
0.0708661417322835
  9
$DIMEXO
 40
0.0625
  9
$DIMDLI
 40
0.38
  9
$DIMRND
 40
0.0
  9
$DIMDLE
 40
0.0
  9
$DIMEXE
 40
0.18
  9
$DIMTP
 40
0.0
  9
$DIMTM
 40
0.0
  9
$DIMTXT
 40
0.0708661417322835
  9
$DIMCEN
 40
0.09
  9
$DIMTSZ
 40
0.0
  9
$DIMTOL
 70
     0
  9
$DIMLIM
 70
     0
  9
$DIMTIH
 70
     1
  9
$DIMTOH
 70
     1
  9
$DIMSE1
 70
     0
  9
$DIMSE2
 70
     0
  9
$DIMTAD
 70
     0
  9
$DIMZIN
 70
     0
  9
$DIMBLK
  1

  9
$DIMASO
 70
     1
  9
$DIMSHO
 70
     1
  9
$DIMPOST
  1

  9
$DIMAPOST
  1

  9
$DIMALT
 70
     0
  9
$DIMALTD
 70
     2
  9
$DIMALTF
 40
25.4
  9
$DIMLFAC
 40
1.0
  9
$DIMTOFL
 70
     0
  9
$DIMTVP
 40
0.0
  9
$DIMTIX
 70
     0
  9
$DIMSOXD
 70
     0
  9
$DIMSAH
 70
     0
  9
$DIMBLK1
  1

  9
$DIMBLK2
  1

  9
$DIMSTYLE
  2
Standard
  9
$DIMCLRD
 70
     0
  9
$DIMCLRE
 70
     0
  9
$DIMCLRT
 70
     0
  9
$DIMTFAC
 40
1.0
  9
$DIMGAP
 40
0.09
  9
$DIMJUST
 70
     0
  9
$DIMSD1
 70
     0
  9
$DIMSD2
 70
     0
  9
$DIMTOLJ
 70
     1
  9
$DIMTZIN
 70
     0
  9
$DIMALTZ
 70
     0
  9
$DIMALTTZ
 70
     0
  9
$DIMUPT
 70
     0
  9
$DIMDEC
 70
     4
  9
$DIMTDEC
 70
     4
  9
$DIMALTU
 70
     2
  9
$DIMALTTD
 70
     2
  9
$DIMTXSTY
  7
Standard
  9
$DIMAUNIT
 70
     0
  9
$DIMADEC
 70
     0
  9
$DIMALTRND
 40
0.0
  9
$DIMAZIN
 70
     0
  9
$DIMDSEP
 70
    46
  9
$DIMATFIT
 70
     3
  9
$DIMFRAC
 70
     0
  9
$DIMLDRBLK
  1

  9
$DIMLUNIT
 70
     2
  9
$DIMLWD
 70
    -2
  9
$DIMLWE
 70
    -2
  9
$DIMTMOVE
 70
     0
  9
$LUNITS
 70
     2
  9
$LUPREC
 70
     4
  9
$SKETCHINC
 40
0.1
  9
$FILLETRAD
 40
0.0
  9
$AUNITS
 70
     0
  9
$AUPREC
 70
     0
  9
$MENU
  1
.
  9
$ELEVATION
 40
0.0
  9
$PELEVATION
 40
0.0
  9
$THICKNESS
 40
0.0
  9
$LIMCHECK
 70
     0
  9
$CHAMFERA
 40
0.0
  9
$CHAMFERB
 40
0.0
  9
$CHAMFERC
 40
0.0
  9
$CHAMFERD
 40
0.0
  9
$SKPOLY
 70
     0
  9
$TDCREATE
 40
2455945.619495984
  9
$TDUCREATE
 40
2455945.869495984
  9
$TDUPDATE
 40
2455945.619496169
  9
$TDUUPDATE
 40
2455945.869496169
  9
$TDINDWG
 40
0.0000365394
  9
$TDUSRTIMER
 40
0.0000365394
  9
$USRTIMER
 70
     1
  9
$ANGBASE
 50
0.0
  9
$ANGDIR
 70
     0
  9
$PDMODE
 70
     0
  9
$PDSIZE
 40
0.0
  9
$PLINEWID
 40
0.0
  9
$SPLFRAME
 70
     0
  9
$SPLINETYPE
 70
     6
  9
$SPLINESEGS
 70
     8
  9
$HANDSEED
  5
E31
  9
$SURFTAB1
 70
     6
  9
$SURFTAB2
 70
     6
  9
$SURFTYPE
 70
     6
  9
$SURFU
 70
     6
  9
$SURFV
 70
     6
  9
$UCSBASE
  2

  9
$UCSNAME
  2

  9
$UCSORG
 10
0.0
 20
0.0
 30
0.0
  9
$UCSXDIR
 10
1.0
 20
0.0
 30
0.0
  9
$UCSYDIR
 10
0.0
 20
1.0
 30
0.0
  9
$UCSORTHOREF
  2

  9
$UCSORTHOVIEW
 70
     0
  9
$UCSORGTOP
 10
0.0
 20
0.0
 30
0.0
  9
$UCSORGBOTTOM
 10
0.0
 20
0.0
 30
0.0
  9
$UCSORGLEFT
 10
0.0
 20
0.0
 30
0.0
  9
$UCSORGRIGHT
 10
0.0
 20
0.0
 30
0.0
  9
$UCSORGFRONT
 10
0.0
 20
0.0
 30
0.0
  9
$UCSORGBACK
 10
0.0
 20
0.0
 30
0.0
  9
$PUCSBASE
  2

  9
$PUCSNAME
  2

  9
$PUCSORG
 10
0.0
 20
0.0
 30
0.0
  9
$PUCSXDIR
 10
1.0
 20
0.0
 30
0.0
  9
$PUCSYDIR
 10
0.0
 20
1.0
 30
0.0
  9
$PUCSORTHOREF
  2

  9
$PUCSORTHOVIEW
 70
     0
  9
$PUCSORGTOP
 10
0.0
 20
0.0
 30
0.0
  9
$PUCSORGBOTTOM
 10
0.0
 20
0.0
 30
0.0
  9
$PUCSORGLEFT
 10
0.0
 20
0.0
 30
0.0
  9
$PUCSORGRIGHT
 10
0.0
 20
0.0
 30
0.0
  9
$PUCSORGFRONT
 10
0.0
 20
0.0
 30
0.0
  9
$PUCSORGBACK
 10
0.0
 20
0.0
 30
0.0
  9
$USERI1
 70
     0
  9
$USERI2
 70
     0
  9
$USERI3
 70
     0
  9
$USERI4
 70
     0
  9
$USERI5
 70
     0
  9
$USERR1
 40
0.0
  9
$USERR2
 40
0.0
  9
$USERR3
 40
0.0
  9
$USERR4
 40
0.0
  9
$USERR5
 40
0.0
  9
$WORLDVIEW
 70
     1
  9
$SHADEDGE
 70
     3
  9
$SHADEDIF
 70
    70
  9
$TILEMODE
 70
     1
  9
$MAXACTVP
 70
    64
  9
$PINSBASE
 10
0.0
 20
0.0
 30
0.0
  9
$PLIMCHECK
 70
     0
  9
$PEXTMIN
 10
0.0
 20
0.0
 30
0.0
  9
$PEXTMAX
 10
56.66666666666667
 20
36.66666666666667
 30
0.0
  9
$PLIMMIN
 10
0.0
 20
0.0
  9
$PLIMMAX
 10
56.66666666666667
 20
36.66666666666667
  9
$UNITMODE
 70
     0
  9
$VISRETAIN
 70
     1
  9
$PLINEGEN
 70
     0
  9
$PSLTSCALE
 70
     1
  9
$TREEDEPTH
 70
  3020
  9
$CMLSTYLE
  2
Standard
  9
$CMLJUST
 70
     0
  9
$CMLSCALE
 40
1.0
  9
$PROXYGRAPHICS
 70
     1
  9
$MEASUREMENT
 70
     0
  9
$CELWEIGHT
370
    -1
  9
$ENDCAPS
280
     0
  9
$JOINSTYLE
280
     0
  9
$LWDISPLAY
290
     0
  9
$INSUNITS
 70
     1
  9
$HYPERLINKBASE
  1

  9
$STYLESHEET
  1

  9
$XEDIT
290
     1
  9
$CEPSNTYPE
380
     0
  9
$PSTYLEMODE
290
     1
  9
$FINGERPRINTGUID
  2
{F441A06F-3AFB-4D38-9F03-9CB72D789200}
  9
$VERSIONGUID
  2
{E09039F7-8A6E-4339-9510-7298F75EA377}
  9
$EXTNAMES
290
     1
  9
$PSVPSCALE
 40
0.0
  9
$OLESTARTUP
290
     0
  0
ENDSEC
  0
SECTION
  2
CLASSES
  0
CLASS
  1
ACDBDICTIONARYWDFLT
  2
AcDbDictionaryWithDefault
  3
ObjectDBX Classes
 90
        0
280
     0
281
     0
  0
CLASS
  1
MATERIAL
  2
AcDbMaterial
  3
ObjectDBX Classes
 90
     1153
280
     0
281
     0
  0
CLASS
  1
VISUALSTYLE
  2
AcDbVisualStyle
  3
ObjectDBX Classes
 90
     4095
280
     0
281
     0
  0
CLASS
  1
SCALE
  2
AcDbScale
  3
ObjectDBX Classes
 90
     1153
280
     0
281
     0
  0
CLASS
  1
TABLESTYLE
  2
AcDbTableStyle
  3
ObjectDBX Classes
 90
     4095
280
     0
281
     0
  0
CLASS
  1
MLEADERSTYLE
  2
AcDbMLeaderStyle
  3
ACDB_MLEADERSTYLE_CLASS
 90
     4095
280
     0
281
     0
  0
CLASS
  1
DICTIONARYVAR
  2
AcDbDictionaryVar
  3
ObjectDBX Classes
 90
        0
280
     0
281
     0
  0
CLASS
  1
CELLSTYLEMAP
  2
AcDbCellStyleMap
  3
ObjectDBX Classes
 90
     1152
280
     0
281
     0
  0
CLASS
  1
ACDBPLACEHOLDER
  2
AcDbPlaceHolder
  3
ObjectDBX Classes
 90
        0
280
     0
281
     0
  0
CLASS
  1
LAYOUT
  2
AcDbLayout
  3
ObjectDBX Classes
 90
        0
280
     0
281
     0
  0
ENDSEC
  0
SECTION
  2
TABLES
  0
TABLE
  2
VPORT
  5
8
330
0
100
AcDbSymbolTable
 70
     1
  0
VPORT
  5
57
330
8
100
AcDbSymbolTableRecord
100
AcDbViewportTableRecord
  2
*Active
 70
     0
 10
0.0
 20
0.0
 11
1.0
 21
1.0
 12
28.33333333333334
 22
18.33333333333333
 13
0.0
 23
0.0
 14
1.0
 24
1.0
 15
0.0
 25
0.0
 16
0.0
 26
0.0
 36
1.0
 17
0.0
 27
0.0
 37
0.0
 40
36.66666666666667
 41
1.545454545454545
 42
50.0
 43
0.0
 44
0.0
 50
0.0
 51
0.0
 71
     0
 72
   100
 73
     1
 74
     1
 75
     0
 76
     0
 77
     0
 78
     0
281
     0
 65
     1
110
0.0
120
0.0
130
0.0
111
1.0
121
0.0
131
0.0
112
0.0
122
1.0
132
0.0
 79
     0
146
0.0
  0
ENDTAB
  0
TABLE
  2
LTYPE
  5
5
330
0
100
AcDbSymbolTable
 70
    59
  0
LTYPE
  5
5B
330
5
100
AcDbSymbolTableRecord
100
AcDbLinetypeTableRecord
  2
ByBlock
 70
     0
  3

 72
    65
 73
     0
 40
0.0
  0
LTYPE
  5
5C
330
5
100
AcDbSymbolTableRecord
100
AcDbLinetypeTableRecord
  2
ByLayer
 70
     0
  3

 72
    65
 73
     0
 40
0.0
  0
LTYPE
  5
5D
330
5
100
AcDbSymbolTableRecord
100
AcDbLinetypeTableRecord
  2
Continuous
 70
     0
  3
Solid line
 72
    65
 73
     0
 40
0.0
  0
LTYPE
  5
7C
330
5
100
AcDbSymbolTableRecord
100
AcDbLinetypeTableRecord
  2
BY_STANDARD
 70
     0
  3
By Standard ____________    ____    ____   _
 72
    65
 73
     6
 40
1.240299999999999
 49
0.6614
 74
     0
 49
-0.0827
 74
     0
 49
0.1654
 74
     0
 49
-0.0827
 74
     0
 49
0.1654
 74
     0
 49
-0.0827
 74
     0
  0
LTYPE
  5
7D
330
5
100
AcDbSymbolTableRecord
100
AcDbLinetypeTableRecord
  2
CHAIN
 70
     0
  3
Chain ____ _ ____ _ ____ _ ____ _ ____ _ ____
 72
    65
 73
     4
 40
0.7087
 49
0.4724000000000001
 74
     0
 49
-0.0591
 74
     0
 49
0.1181
 74
     0
 49
-0.0591
 74
     0
  0
LTYPE
  5
7E
330
5
100
AcDbSymbolTableRecord
100
AcDbLinetypeTableRecord
  2
DASH_DOT
 70
     0
  3
Dash dot __ . __ . __ . __ . __ . __ . __ . __
 72
    65
 73
     4
 40
0.37
 49
0.24
 74
     0
 49
-0.06
 74
     0
 49
0.01
 74
     0
 49
-0.06
 74
     0
  0
LTYPE
  5
7F
330
5
100
AcDbSymbolTableRecord
100
AcDbLinetypeTableRecord
  2
DOUBLE_DASH_DOT
 70
     0
  3
Double-Dash Dot __ __ . __ __ . __ __ . __ _
 72
    65
 73
     6
 40
0.4398
 49
0.24
 74
     0
 49
-0.06
 74
     0
 49
0.0098
 74
     0
 49
-0.06
 74
     0
 49
0.01
 74
     0
 49
-0.06
 74
     0
  0
LTYPE
  5
80
330
5
100
AcDbSymbolTableRecord
100
AcDbLinetypeTableRecord
  2
DASH_TRIPLE_DOT
 70
     0
  3
Dash Triple-Dot _ . . . _ . . . _ . . . _
 72
    65
 73
     8
 40
0.51
 49
0.24
 74
     0
 49
-0.06
 74
     0
 49
0.01
 74
     0
 49
-0.06
 74
     0
 49
0.01
 74
     0
 49
-0.06
 74
     0
 49
0.01
 74
     0
 49
-0.06
 74
     0
  0
LTYPE
  5
81
330
5
100
AcDbSymbolTableRecord
100
AcDbLinetypeTableRecord
  2
DASHED
 70
     0
  3
Dashed __ __ __ __ __ __ __ __ __ __ __ __ __ _
 72
    65
 73
     2
 40
0.2067
 49
0.1654
 74
     0
 49
-0.0413
 74
     0
  0
LTYPE
  5
82
330
5
100
AcDbSymbolTableRecord
100
AcDbLinetypeTableRecord
  2
DASH_DOUBLE_DOT
 70
     0
  3
Dash Double-Dot __ . . __ . . __ . . __ . .
 72
    65
 73
     6
 40
0.4398
 49
0.24
 74
     0
 49
-0.06
 74
     0
 49
0.0098
 74
     0
 49
-0.06
 74
     0
 49
0.01
 74
     0
 49
-0.06
 74
     0
  0
LTYPE
  5
83
330
5
100
AcDbSymbolTableRecord
100
AcDbLinetypeTableRecord
  2
DASHED_SPACE
 70
     0
  3
Dashed Space __ __ __ __ __ __ __ __ __ __ __ _
 72
    65
 73
     2
 40
0.2067
 49
0.1654
 74
     0
 49
-0.0413
 74
     0
  0
LTYPE
  5
84
330
5
100
AcDbSymbolTableRecord
100
AcDbLinetypeTableRecord
  2
DOTTED
 70
     0
  3
Dotted . . . . . . . . . . . . . . . . . . . . 
 72
    65
 73
     2
 40
0.0482
 49
0.0069
 74
     0
 49
-0.0413
 74
     0
  0
LTYPE
  5
85
330
5
100
AcDbSymbolTableRecord
100
AcDbLinetypeTableRecord
  2
DOUBLE_DASH_CHAIN
 70
     0
  3
Double-Dash Chain ______  __  __  ______  __  _
 72
    65
 73
     6
 40
1.240299999999999
 49
0.6614
 74
     0
 49
-0.0827
 74
     0
 49
0.1654
 74
     0
 49
-0.0827
 74
     0
 49
0.1654
 74
     0
 49
-0.0827
 74
     0
  0
LTYPE
  5
87
330
5
100
AcDbSymbolTableRecord
100
AcDbLinetypeTableRecord
  2
DOUBLE_DASH_DOUBLE_DOT
 70
     0
  3
Double-Dash Double-dot _ _ . . _ _ . . _
 72
    65
 73
     8
 40
0.7400000000000001
 49
0.24
 74
     0
 49
-0.06
 74
     0
 49
0.24
 74
     0
 49
-0.06
 74
     0
 49
0.01
 74
     0
 49
-0.06
 74
     0
 49
0.01
 74
     0
 49
-0.06
 74
     0
  0
LTYPE
  5
88
330
5
100
AcDbSymbolTableRecord
100
AcDbLinetypeTableRecord
  2
DOUBLE_DASH_TRIPLE_DOT
 70
     0
  3
Double Dash Triple Dot __ __ . . . __ __ . .
 72
    65
 73
    10
 40
0.8100000000000001
 49
0.24
 74
     0
 49
-0.06
 74
     0
 49
0.24
 74
     0
 49
-0.06
 74
     0
 49
0.01
 74
     0
 49
-0.06
 74
     0
 49
0.01
 74
     0
 49
-0.06
 74
     0
 49
0.01
 74
     0
 49
-0.06
 74
     0
  0
LTYPE
  5
89
330
5
100
AcDbSymbolTableRecord
100
AcDbLinetypeTableRecord
  2
LONG_DASH_DOTTED
 70
     0
  3
Long Dash Dotted ____ . ____ . ____ . ____ . _
 72
    65
 73
     4
 40
0.3543
 49
0.2362
 74
     0
 49
-0.0295
 74
     0
 49
0.0591
 74
     0
 49
-0.0295
 74
     0
  0
LTYPE
  5
8A
330
5
100
AcDbSymbolTableRecord
100
AcDbLinetypeTableRecord
  2
LONG_DASH_DOUBLE_DOT
 70
     0
  3
Long Dash Double Dot ________  .  .  ________  
 72
    65
 73
     6
 40
0.6799999999999999
 49
0.48
 74
     0
 49
-0.06
 74
     0
 49
0.01
 74
     0
 49
-0.06
 74
     0
 49
0.01
 74
     0
 49
-0.06
 74
     0
  0
LTYPE
  5
8B
330
5
100
AcDbSymbolTableRecord
100
AcDbLinetypeTableRecord
  2
LONG_DASH_TRIPLE_DOT
 70
     0
  3
Long Dash Triple Dot ____ ... ____ ... ____
 72
    65
 73
     8
 40
0.3689
 49
0.2362
 74
     0
 49
-0.0295
 74
     0
 49
0.0049
 74
     0
 49
-0.0295
 74
     0
 49
0.0049
 74
     0
 49
-0.0295
 74
     0
 49
0.0049
 74
     0
 49
-0.0295
 74
     0
  0
LTYPE
  5
8C
330
5
100
AcDbSymbolTableRecord
100
AcDbLinetypeTableRecord
  2
BORDER
 70
     0
  3
Border __ __ . __ __ . __ __ . __ __ . __ __ .
 72
    65
 73
     6
 40
1.75
 49
0.5
 74
     0
 49
-0.25
 74
     0
 49
0.5
 74
     0
 49
-0.25
 74
     0
 49
0.0
 74
     0
 49
-0.25
 74
     0
  0
LTYPE
  5
8D
330
5
100
AcDbSymbolTableRecord
100
AcDbLinetypeTableRecord
  2
BORDER2
 70
     0
  3
Border (.5x) __.__.__.__.__.__.__.__.__.__.__.
 72
    65
 73
     6
 40
0.875
 49
0.25
 74
     0
 49
-0.125
 74
     0
 49
0.25
 74
     0
 49
-0.125
 74
     0
 49
0.0
 74
     0
 49
-0.125
 74
     0
  0
LTYPE
  5
8E
330
5
100
AcDbSymbolTableRecord
100
AcDbLinetypeTableRecord
  2
BORDERX2
 70
     0
  3
Border (2x) ____  ____  .  ____  ____  .  ___
 72
    65
 73
     6
 40
3.5
 49
1.0
 74
     0
 49
-0.5
 74
     0
 49
1.0
 74
     0
 49
-0.5
 74
     0
 49
0.0
 74
     0
 49
-0.5
 74
     0
  0
LTYPE
  5
8F
330
5
100
AcDbSymbolTableRecord
100
AcDbLinetypeTableRecord
  2
CENTER
 70
     0
  3
Center ____ _ ____ _ ____ _ ____ _ ____ _ ____
 72
    65
 73
     4
 40
2.0
 49
1.25
 74
     0
 49
-0.25
 74
     0
 49
0.25
 74
     0
 49
-0.25
 74
     0
  0
LTYPE
  5
90
330
5
100
AcDbSymbolTableRecord
100
AcDbLinetypeTableRecord
  2
CENTER2
 70
     0
  3
Center (.5x) ___ _ ___ _ ___ _ ___ _ ___ _ ___
 72
    65
 73
     4
 40
1.125
 49
0.75
 74
     0
 49
-0.125
 74
     0
 49
0.125
 74
     0
 49
-0.125
 74
     0
  0
LTYPE
  5
91
330
5
100
AcDbSymbolTableRecord
100
AcDbLinetypeTableRecord
  2
CENTERX2
 70
     0
  3
Center (2x) ________  __  ________  __  _____
 72
    65
 73
     4
 40
4.0
 49
2.5
 74
     0
 49
-0.5
 74
     0
 49
0.5
 74
     0
 49
-0.5
 74
     0
  0
LTYPE
  5
92
330
5
100
AcDbSymbolTableRecord
100
AcDbLinetypeTableRecord
  2
DASHDOT2
 70
     0
  3
Dash dot (.5x) _._._._._._._._._._._._._._._.
 72
    65
 73
     4
 40
0.5
 49
0.25
 74
     0
 49
-0.125
 74
     0
 49
0.0
 74
     0
 49
-0.125
 74
     0
  0
LTYPE
  5
93
330
5
100
AcDbSymbolTableRecord
100
AcDbLinetypeTableRecord
  2
DASHDOTX2
 70
     0
  3
Dash dot (2x) ____  .  ____  .  ____  .  ___
 72
    65
 73
     4
 40
2.0
 49
1.0
 74
     0
 49
-0.5
 74
     0
 49
0.0
 74
     0
 49
-0.5
 74
     0
  0
LTYPE
  5
95
330
5
100
AcDbSymbolTableRecord
100
AcDbLinetypeTableRecord
  2
DASHED2
 70
     0
  3
Dashed (.5x) _ _ _ _ _ _ _ _ _ _ _ _ _ _ _ _ _
 72
    65
 73
     2
 40
0.375
 49
0.25
 74
     0
 49
-0.125
 74
     0
  0
LTYPE
  5
96
330
5
100
AcDbSymbolTableRecord
100
AcDbLinetypeTableRecord
  2
DASHEDX2
 70
     0
  3
Dashed (2x) ____  ____  ____  ____  ____  ___
 72
    65
 73
     2
 40
1.5
 49
1.0
 74
     0
 49
-0.5
 74
     0
  0
LTYPE
  5
97
330
5
100
AcDbSymbolTableRecord
100
AcDbLinetypeTableRecord
  2
DIVIDE
 70
     0
  3
Divide ____ . . ____ . . ____ . . ____ . . ____
 72
    65
 73
     6
 40
1.25
 49
0.5
 74
     0
 49
-0.25
 74
     0
 49
0.0
 74
     0
 49
-0.25
 74
     0
 49
0.0
 74
     0
 49
-0.25
 74
     0
  0
LTYPE
  5
98
330
5
100
AcDbSymbolTableRecord
100
AcDbLinetypeTableRecord
  2
DIVIDE2
 70
     0
  3
Divide (.5x) __..__..__..__..__..__..__..__.._
 72
    65
 73
     6
 40
0.625
 49
0.25
 74
     0
 49
-0.125
 74
     0
 49
0.0
 74
     0
 49
-0.125
 74
     0
 49
0.0
 74
     0
 49
-0.125
 74
     0
  0
LTYPE
  5
99
330
5
100
AcDbSymbolTableRecord
100
AcDbLinetypeTableRecord
  2
DIVIDEX2
 70
     0
  3
Divide (2x) ________  .  .  ________  .  .  _
 72
    65
 73
     6
 40
2.5
 49
1.0
 74
     0
 49
-0.5
 74
     0
 49
0.0
 74
     0
 49
-0.5
 74
     0
 49
0.0
 74
     0
 49
-0.5
 74
     0
  0
LTYPE
  5
9A
330
5
100
AcDbSymbolTableRecord
100
AcDbLinetypeTableRecord
  2
DOT
 70
     0
  3
Dot . . . . . . . . . . . . . . . . . . . . . .
 72
    65
 73
     2
 40
0.25
 49
0.0
 74
     0
 49
-0.25
 74
     0
  0
LTYPE
  5
9B
330
5
100
AcDbSymbolTableRecord
100
AcDbLinetypeTableRecord
  2
DOT2
 70
     0
  3
Dot (.5x) .....................................
 72
    65
 73
     2
 40
0.125
 49
0.0
 74
     0
 49
-0.125
 74
     0
  0
LTYPE
  5
9C
330
5
100
AcDbSymbolTableRecord
100
AcDbLinetypeTableRecord
  2
DOTX2
 70
     0
  3
Dot (2x) .  .  .  .  .  .  .  .  .  .  .  .  . 
 72
    65
 73
     2
 40
0.5
 49
0.0
 74
     0
 49
-0.5
 74
     0
  0
LTYPE
  5
9D
330
5
100
AcDbSymbolTableRecord
100
AcDbLinetypeTableRecord
  2
HIDDEN
 70
     0
  3
Hidden __ __ __ __ __ __ __ __ __ __ __ __ __ _
 72
    65
 73
     2
 40
0.375
 49
0.25
 74
     0
 49
-0.125
 74
     0
  0
LTYPE
  5
9E
330
5
100
AcDbSymbolTableRecord
100
AcDbLinetypeTableRecord
  2
HIDDEN2
 70
     0
  3
Hidden (.5x) _ _ _ _ _ _ _ _ _ _ _ _ _ _ _ _ _
 72
    65
 73
     2
 40
0.1875
 49
0.125
 74
     0
 49
-0.0625
 74
     0
  0
LTYPE
  5
9F
330
5
100
AcDbSymbolTableRecord
100
AcDbLinetypeTableRecord
  2
HIDDENX2
 70
     0
  3
Hidden (2x) ____ ____ ____ ____ ____ ____ ____
 72
    65
 73
     2
 40
0.75
 49
0.5
 74
     0
 49
-0.25
 74
     0
  0
LTYPE
  5
A0
330
5
100
AcDbSymbolTableRecord
100
AcDbLinetypeTableRecord
  2
PHANTOM
 70
     0
  3
Phantom ______  __  __  ______  __  __  ______
 72
    65
 73
     6
 40
2.5
 49
1.25
 74
     0
 49
-0.25
 74
     0
 49
0.25
 74
     0
 49
-0.25
 74
     0
 49
0.25
 74
     0
 49
-0.25
 74
     0
  0
LTYPE
  5
A1
330
5
100
AcDbSymbolTableRecord
100
AcDbLinetypeTableRecord
  2
PHANTOM2
 70
     0
  3
Phantom (.5x) ___ _ _ ___ _ _ ___ _ _ ___ _ _
 72
    65
 73
     6
 40
1.25
 49
0.625
 74
     0
 49
-0.125
 74
     0
 49
0.125
 74
     0
 49
-0.125
 74
     0
 49
0.125
 74
     0
 49
-0.125
 74
     0
  0
LTYPE
  5
A2
330
5
100
AcDbSymbolTableRecord
100
AcDbLinetypeTableRecord
  2
PHANTOMX2
 70
     0
  3
Phantom (2x) ____________    ____    ____   _
 72
    65
 73
     6
 40
5.0
 49
2.5
 74
     0
 49
-0.5
 74
     0
 49
0.5
 74
     0
 49
-0.5
 74
     0
 49
0.5
 74
     0
 49
-0.5
 74
     0
  0
LTYPE
  5
A3
330
5
100
AcDbSymbolTableRecord
100
AcDbLinetypeTableRecord
  2
ACAD_ISO02W100
 70
     0
  3
ISO dash __ __ __ __ __ __ __ __ __ __ __ __ __
 72
    65
 73
     2
 40
0.59
 49
0.47
 74
     0
 49
-0.12
 74
     0
  0
LTYPE
  5
A4
330
5
100
AcDbSymbolTableRecord
100
AcDbLinetypeTableRecord
  2
ACAD_ISO03W100
 70
     0
  3
ISO dash space __    __    __    __    __    __
 72
    65
 73
     2
 40
1.179999999999999
 49
0.47
 74
     0
 49
-0.71
 74
     0
  0
LTYPE
  5
A5
330
5
100
AcDbSymbolTableRecord
100
AcDbLinetypeTableRecord
  2
ACAD_ISO04W100
 70
     0
  3
ISO long-dash dot ____ . ____ . ____ . ____ . _
 72
    65
 73
     4
 40
1.179999999999999
 49
0.9399999999999998
 74
     0
 49
-0.12
 74
     0
 49
0.0
 74
     0
 49
-0.12
 74
     0
  0
LTYPE
  5
A6
330
5
100
AcDbSymbolTableRecord
100
AcDbLinetypeTableRecord
  2
ACAD_ISO05W100
 70
     0
  3
ISO long-dash double-dot ____ .. ____ .. ____ .
 72
    65
 73
     6
 40
1.299999999999999
 49
0.9399999999999998
 74
     0
 49
-0.12
 74
     0
 49
0.0
 74
     0
 49
-0.12
 74
     0
 49
0.0
 74
     0
 49
-0.12
 74
     0
  0
LTYPE
  5
A7
330
5
100
AcDbSymbolTableRecord
100
AcDbLinetypeTableRecord
  2
ACAD_ISO06W100
 70
     0
  3
ISO long-dash triple-dot ____ ... ____ ... ____
 72
    65
 73
     8
 40
1.419999999999999
 49
0.9399999999999998
 74
     0
 49
-0.12
 74
     0
 49
0.0
 74
     0
 49
-0.12
 74
     0
 49
0.0
 74
     0
 49
-0.12
 74
     0
 49
0.0
 74
     0
 49
-0.12
 74
     0
  0
LTYPE
  5
A8
330
5
100
AcDbSymbolTableRecord
100
AcDbLinetypeTableRecord
  2
ACAD_ISO07W100
 70
     0
  3
ISO dot . . . . . . . . . . . . . . . . . . . .
 72
    65
 73
     2
 40
0.12
 49
0.0
 74
     0
 49
-0.12
 74
     0
  0
LTYPE
  5
A9
330
5
100
AcDbSymbolTableRecord
100
AcDbLinetypeTableRecord
  2
ACAD_ISO08W100
 70
     0
  3
ISO long-dash short-dash ____ __ ____ __ ____ _
 72
    65
 73
     4
 40
0.95
 49
0.47
 74
     0
 49
-0.12
 74
     0
 49
0.24
 74
     0
 49
-0.12
 74
     0
  0
LTYPE
  5
AA
330
5
100
AcDbSymbolTableRecord
100
AcDbLinetypeTableRecord
  2
ACAD_ISO09W100
 70
     0
  3
ISO long-dash double-short-dash ____ __ __ ____
 72
    65
 73
     6
 40
1.31
 49
0.47
 74
     0
 49
-0.12
 74
     0
 49
0.24
 74
     0
 49
-0.12
 74
     0
 49
0.24
 74
     0
 49
-0.12
 74
     0
  0
LTYPE
  5
AB
330
5
100
AcDbSymbolTableRecord
100
AcDbLinetypeTableRecord
  2
ACAD_ISO10W100
 70
     0
  3
ISO dash dot __ . __ . __ . __ . __ . __ . __ .
 72
    65
 73
     4
 40
0.71
 49
0.47
 74
     0
 49
-0.12
 74
     0
 49
0.0
 74
     0
 49
-0.12
 74
     0
  0
LTYPE
  5
AC
330
5
100
AcDbSymbolTableRecord
100
AcDbLinetypeTableRecord
  2
ACAD_ISO11W100
 70
     0
  3
ISO double-dash dot __ __ . __ __ . __ __ . __ 
 72
    65
 73
     6
 40
1.299999999999999
 49
0.47
 74
     0
 49
-0.12
 74
     0
 49
0.47
 74
     0
 49
-0.12
 74
     0
 49
0.0
 74
     0
 49
-0.12
 74
     0
  0
LTYPE
  5
AD
330
5
100
AcDbSymbolTableRecord
100
AcDbLinetypeTableRecord
  2
ACAD_ISO12W100
 70
     0
  3
ISO dash double-dot __ . . __ . . __ . . __ . .
 72
    65
 73
     6
 40
0.8299999999999998
 49
0.47
 74
     0
 49
-0.12
 74
     0
 49
0.0
 74
     0
 49
-0.12
 74
     0
 49
0.0
 74
     0
 49
-0.12
 74
     0
  0
LTYPE
  5
AE
330
5
100
AcDbSymbolTableRecord
100
AcDbLinetypeTableRecord
  2
ACAD_ISO13W100
 70
     0
  3
ISO double-dash double-dot __ __ . . __ __ . . 
 72
    65
 73
     8
 40
1.419999999999999
 49
0.47
 74
     0
 49
-0.12
 74
     0
 49
0.47
 74
     0
 49
-0.12
 74
     0
 49
0.0
 74
     0
 49
-0.12
 74
     0
 49
0.0
 74
     0
 49
-0.12
 74
     0
  0
LTYPE
  5
AF
330
5
100
AcDbSymbolTableRecord
100
AcDbLinetypeTableRecord
  2
ACAD_ISO14W100
 70
     0
  3
ISO dash triple-dot __ . . . __ . . . __ . . . 
 72
    65
 73
     8
 40
0.95
 49
0.47
 74
     0
 49
-0.12
 74
     0
 49
0.0
 74
     0
 49
-0.12
 74
     0
 49
0.0
 74
     0
 49
-0.12
 74
     0
 49
0.0
 74
     0
 49
-0.12
 74
     0
  0
LTYPE
  5
B0
330
5
100
AcDbSymbolTableRecord
100
AcDbLinetypeTableRecord
  2
ACAD_ISO15W100
 70
     0
  3
ISO double-dash triple-dot __ __ . . . __ __ . 
 72
    65
 73
    10
 40
1.539999999999999
 49
0.47
 74
     0
 49
-0.12
 74
     0
 49
0.47
 74
     0
 49
-0.12
 74
     0
 49
0.0
 74
     0
 49
-0.12
 74
     0
 49
0.0
 74
     0
 49
-0.12
 74
     0
 49
0.0
 74
     0
 49
-0.12
 74
     0
  0
LTYPE
  5
B3
330
5
100
AcDbSymbolTableRecord
100
AcDbLinetypeTableRecord
  2
FENCELINE1
 70
     0
  3
Fenceline circle ----0-----0----0-----0----0---
 72
    65
 73
     4
 40
1.45
 49
0.25
 74
     0
 49
-0.1
 74
     4
 75
   133
340
B2
 46
0.1
 50
0.0
 44
-0.1
 45
0.0
 49
-0.1
 74
     0
 49
1.0
 74
     0
  0
LTYPE
  5
B4
330
5
100
AcDbSymbolTableRecord
100
AcDbLinetypeTableRecord
  2
FENCELINE2
 70
     0
  3
Fenceline square ----[]-----[]----[]-----[]----
 72
    65
 73
     4
 40
1.45
 49
0.25
 74
     0
 49
-0.1
 74
     4
 75
   132
340
B2
 46
0.1
 50
0.0
 44
-0.1
 45
0.0
 49
-0.1
 74
     0
 49
1.0
 74
     0
  0
LTYPE
  5
B5
330
5
100
AcDbSymbolTableRecord
100
AcDbLinetypeTableRecord
  2
TRACKS
 70
     0
  3
Tracks -|-|-|-|-|-|-|-|-|-|-|-|-|-|-|-|-|-|-|-|
 72
    65
 73
     2
 40
0.3
 49
0.15
 74
     4
 75
   130
340
B2
 46
0.25
 50
0.0
 44
0.0
 45
0.0
 49
0.15
 74
     0
  0
LTYPE
  5
B6
330
5
100
AcDbSymbolTableRecord
100
AcDbLinetypeTableRecord
  2
BATTING
 70
     0
  3
Batting SSSSSSSSSSSSSSSSSSSSSSSSSSSSSSSSSSSSSSS
 72
    65
 73
     4
 40
0.4001000000000001
 49
0.0001
 74
     0
 49
-0.1
 74
     4
 75
   134
340
B2
 46
0.1
 50
0.0
 44
-0.1
 45
0.0
 49
-0.2
 74
     4
 75
   134
340
B2
 46
0.1
 50
180.0
 44
0.1
 45
0.0
 49
-0.1
 74
     0
  0
LTYPE
  5
B7
330
5
100
AcDbSymbolTableRecord
100
AcDbLinetypeTableRecord
  2
HOT_WATER_SUPPLY
 70
     0
  3
Hot water supply ---- HW ---- HW ---- HW ----
 72
    65
 73
     3
 40
0.9
 49
0.5
 74
     0
 49
-0.2
 74
     2
 75
     0
340
55
 46
0.1
 50
0.0
 44
-0.1
 45
-0.05
  9
HW
 49
-0.2
 74
     0
  0
LTYPE
  5
B8
330
5
100
AcDbSymbolTableRecord
100
AcDbLinetypeTableRecord
  2
GAS_LINE
 70
     0
  3
Gas line ----GAS----GAS----GAS----GAS----GAS---
 72
    65
 73
     3
 40
0.95
 49
0.5
 74
     0
 49
-0.2
 74
     2
 75
     0
340
55
 46
0.1
 50
0.0
 44
-0.1
 45
-0.05
  9
GAS
 49
-0.25
 74
     0
  0
LTYPE
  5
B9
330
5
100
AcDbSymbolTableRecord
100
AcDbLinetypeTableRecord
  2
ZIGZAG
 70
     0
  3
Zig zag /\/\/\/\/\/\/\/\/\/\/\/\/\/\/\/\/\/\/\/
 72
    65
 73
     4
 40
0.8001000000000001
 49
0.0001
 74
     0
 49
-0.2
 74
     4
 75
   131
340
B2
 46
0.2
 50
0.0
 44
-0.2
 45
0.0
 49
-0.4
 74
     4
 75
   131
340
B2
 46
0.2
 50
180.0
 44
0.2
 45
0.0
 49
-0.2
 74
     0
  0
ENDTAB
  0
TABLE
  2
LAYER
  5
2
330
0
100
AcDbSymbolTable
 70
    27
  0
LAYER
  5
54
330
2
100
AcDbSymbolTableRecord
100
AcDbLayerTableRecord
  2
0
 70
     0
 62
     7
  6
Continuous
370
     0
390
F
  0
LAYER
  5
C0
330
2
100
AcDbSymbolTableRecord
100
AcDbLayerTableRecord
  2
Center Mark (ANSI)
 70
     0
 62
     7
  6
Continuous
370
     5
390
F
  0
LAYER
  5
C1
330
2
100
AcDbSymbolTableRecord
100
AcDbLayerTableRecord
  2
Centerline (ANSI)
 70
     0
 62
     7
  6
Continuous
370
     5
390
F
  0
LAYER
  5
C3
330
2
100
AcDbSymbolTableRecord
100
AcDbLayerTableRecord
  2
Dimension (ANSI)
 70
     0
 62
     7
  6
Continuous
370
     5
390
F
  0
LAYER
  5
C5
330
2
100
AcDbSymbolTableRecord
100
AcDbLayerTableRecord
  2
Hidden (ANSI)
 70
     0
 62
     7
  6
DASHED
370
     5
390
F
  0
LAYER
  5
CC
330
2
100
AcDbSymbolTableRecord
100
AcDbLayerTableRecord
  2
Symbol (ANSI)
 70
     0
 62
     7
  6
Continuous
370
     5
390
F
  0
LAYER
  5
CF
330
2
100
AcDbSymbolTableRecord
100
AcDbLayerTableRecord
  2
Visible (ANSI)
 70
     0
 62
     7
  6
Continuous
370
     5
390
F
  0
LAYER
  5
D0
330
2
100
AcDbSymbolTableRecord
100
AcDbLayerTableRecord
  2
Visible Narrow (ANSI)
 70
     0
 62
     7
  6
Continuous
370
     5
390
F
  0
LAYER
  5
19C
330
2
100
AcDbSymbolTableRecord
100
AcDbLayerTableRecord
  2
Defpoints
 70
     0
 62
     7
  6
Continuous
290
     0
370
    -3
390
F
  0
ENDTAB
  0
TABLE
  2
STYLE
  5
3
330
0
100
AcDbSymbolTable
 70
    10
  0
STYLE
  5
55
330
3
100
AcDbSymbolTableRecord
100
AcDbTextStyleTableRecord
  2
Standard
 70
     0
 40
0.0
 41
1.0
 50
0.0
 71
     0
 42
0.2
  3
txt
  4

  0
STYLE
  5
5A
330
3
100
AcDbSymbolTableRecord
100
AcDbTextStyleTableRecord
  2
Annotative
 70
     0
 40
0.0
 41
1.0
 50
0.0
 71
     0
 42
0.2
  3
txt
  4

1001
AcadAnnotative
1000
AnnotativeData
1002
{
1070
     1
1070
     1
1002
}
  0
STYLE
  5
B2
330
3
100
AcDbSymbolTableRecord
100
AcDbTextStyleTableRecord
  2

 70
     1
 40
0.0
 41
1.0
 50
0.0
 71
     0
 42
0.2
  3
ltypeshp.shx
  4

  0
STYLE
  5
D4
330
3
100
AcDbSymbolTableRecord
100
AcDbTextStyleTableRecord
  2
ITALICC_120
 70
     0
 40
0.0
 41
1.0
 50
0.0
 71
     0
 42
0.2
  3
italicc.shx
  4

  0
STYLE
  5
D5
330
3
100
AcDbSymbolTableRecord
100
AcDbTextStyleTableRecord
  2
Label Text (ANSI)
 70
     0
 40
0.0
 41
1.0
 50
0.0
 71
     0
 42
0.2
  3
TAHOMA.TTF
  4

1001
ACAD
1000
Tahoma
1071
      256
  0
STYLE
  5
D6
330
3
100
AcDbSymbolTableRecord
100
AcDbTextStyleTableRecord
  2
Note Text (ANSI)
 70
     0
 40
0.0
 41
1.0
 50
0.0
 71
     0
 42
0.2
  3
RomanS.shx
  4

  0
STYLE
  5
D7
330
3
100
AcDbSymbolTableRecord
100
AcDbTextStyleTableRecord
  2
ROMANS
 70
     0
 40
0.0
 41
1.0
 50
0.0
 71
     0
 42
0.2
  3
romans.shx
  4

  0
STYLE
  5
D8
330
3
100
AcDbSymbolTableRecord
100
AcDbTextStyleTableRecord
  2
SANSSERIF_114
 70
     0
 40
0.0
 41
1.0
 50
0.0
 71
     0
 42
0.2
  3
TAHOMA.TTF
  4

1001
ACAD
1000
Tahoma
1071
      256
  0
STYLE
  5
D9
330
3
100
AcDbSymbolTableRecord
100
AcDbTextStyleTableRecord
  2
SANSSERIF_117
 70
     0
 40
0.0
 41
1.0
 50
0.0
 71
     0
 42
0.2
  3
TAHOMA.TTF
  4

1001
ACAD
1000
Tahoma
1071
      256
  0
STYLE
  5
12D
330
3
100
AcDbSymbolTableRecord
100
AcDbTextStyleTableRecord
  2
Text Style168
 70
     0
 40
0.0
 41
1.0
 50
0.0
 71
     0
 42
0.2
  3
TAHOMA.TTF
  4

1001
ACAD
1000
Tahoma
1071
      256
  0
ENDTAB
  0
TABLE
  2
VIEW
  5
6
330
0
100
AcDbSymbolTable
 70
     0
  0
ENDTAB
  0
TABLE
  2
UCS
  5
7
330
0
100
AcDbSymbolTable
 70
     0
  0
ENDTAB
  0
TABLE
  2
APPID
  5
9
330
0
100
AcDbSymbolTable
 70
     4
  0
APPID
  5
56
330
9
100
AcDbSymbolTableRecord
100
AcDbRegAppTableRecord
  2
ACAD
 70
     0
  0
APPID
  5
5E
330
9
100
AcDbSymbolTableRecord
100
AcDbRegAppTableRecord
  2
AcadAnnotative
 70
     0
  0
APPID
  5
804
330
9
100
AcDbSymbolTableRecord
100
AcDbRegAppTableRecord
  2
ACAD_DSTYLE_DIMRADIAL_EXTENSION
 70
     0
  0
APPID
  5
E26
330
9
100
AcDbSymbolTableRecord
100
AcDbRegAppTableRecord
  2
ACAD_MLEADERVER
 70
     0
  0
ENDTAB
  0
TABLE
  2
DIMSTYLE
  5
A
330
0
100
AcDbSymbolTable
 70
    15
100
AcDbDimStyleTable
 71
     2
340
E2
340
58
  0
DIMSTYLE
105
58
330
A
100
AcDbSymbolTableRecord
100
AcDbDimStyleTableRecord
  2
Standard
 70
     0
340
55
  0
DIMSTYLE
105
59
330
A
100
AcDbSymbolTableRecord
100
AcDbDimStyleTableRecord
  2
Annotative
 70
     0
340
55
1001
AcadAnnotative
1000
AnnotativeData
1002
{
1070
     1
1070
     1
1002
}
  0
DIMSTYLE
105
DA
330
A
100
AcDbSymbolTableRecord
100
AcDbDimStyleTableRecord
  2
Architectural (ANSI)
 70
     0
 40
3.333333333333333
 41
0.0984251946210861
 43
0.2362204724409449
 44
0.125
 45
0.00000001
 46
0.3937007874015748
 78
     3
 79
     3
140
0.1000000014901161
146
1.200000029802321
147
0.031496062992126
171
     1
176
   256
177
   256
178
   256
272
     2
274
     1
276
     2
277
     4
284
    12
285
     4
286
    12
340
D6
371
    -1
372
    -1
  0
DIMSTYLE
105
DB
330
A
100
AcDbSymbolTableRecord
100
AcDbDimStyleTableRecord
  2
Architectural (ANSI)$7
 70
     0
 40
3.333333333333333
 41
0.0984251946210861
 43
0.2362204724409449
 44
0.125
 45
0.00000001
 46
0.3937007874015748
 78
     3
 79
     3
140
0.1000000014901161
146
1.200000029802321
147
0.031496062992126
171
     1
176
   256
177
   256
178
   256
272
     2
274
     1
276
     2
277
     4
284
    12
285
     4
286
    12
340
D6
371
    -1
372
    -1
  0
DIMSTYLE
105
DC
330
A
100
AcDbSymbolTableRecord
100
AcDbDimStyleTableRecord
  2
Default - Fraction (ANSI)
 70
     0
 40
3.333333333333333
 41
0.0984251946210861
 43
0.2362204724409449
 44
0.125
 45
0.00000001
 46
0.3937007874015748
 79
     3
140
0.1000000014901161
146
1.200000029802321
147
0.031496062992126
171
     1
176
   256
177
   256
178
   256
272
     2
274
     1
276
     2
277
     5
284
    12
285
     4
286
    12
340
D6
371
    -1
372
    -1
  0
DIMSTYLE
105
DD
330
A
100
AcDbSymbolTableRecord
100
AcDbDimStyleTableRecord
  2
Default - Fraction (ANSI)$7
 70
     0
 40
3.333333333333333
 41
0.0984251946210861
 43
0.2362204724409449
 44
0.125
 45
0.00000001
 46
0.3937007874015748
 79
     3
140
0.1000000014901161
146
1.200000029802321
147
0.031496062992126
171
     1
176
   256
177
   256
178
   256
272
     2
274
     1
276
     2
277
     5
284
    12
285
     4
286
    12
340
D6
371
    -1
372
    -1
  0
DIMSTYLE
105
DE
330
A
100
AcDbSymbolTableRecord
100
AcDbDimStyleTableRecord
  2
Default - mm (ANSI)
 70
     0
 40
3.333333333333333
 41
0.0984251946210861
 42
0.063
 43
0.2362204724409449
 44
0.125
 45
0.00000001
 46
0.3937007874015748
 73
     0
 78
     4
 79
     1
140
0.1000000014901161
143
1.0
144
25.4
146
1.200000029802321
147
0.031496062992126
171
     1
176
   256
177
   256
178
   256
179
     1
271
     2
272
     2
274
     1
284
     4
285
     4
340
D6
371
    -1
372
    -1
  0
DIMSTYLE
105
DF
330
A
100
AcDbSymbolTableRecord
100
AcDbDimStyleTableRecord
  2
Default - mm (ANSI)$7
 70
     0
 40
3.333333333333333
 41
0.0984251946210861
 42
0.063
 43
0.2362204724409449
 44
0.125
 45
0.00000001
 46
0.3937007874015748
 73
     0
 78
     4
 79
     1
140
0.1000000014901161
143
1.0
144
25.4
146
1.200000029802321
147
0.031496062992126
171
     1
176
   256
177
   256
178
   256
179
     1
271
     2
272
     2
274
     1
284
     4
285
     4
340
D6
371
    -1
372
    -1
  0
DIMSTYLE
105
E0
330
A
100
AcDbSymbolTableRecord
100
AcDbDimStyleTableRecord
  2
Default - mm [in] (ANSI)
 70
     0
  4
 in
 40
3.333333333333333
 41
0.0984251946210861
 42
0.063
 43
0.25
 44
0.125
 45
0.00000001
 46
0.3937007874015748
 73
     0
 78
     4
 79
     1
140
0.1000000014901161
143
0.03937
144
25.4
146
1.200000029802321
147
0.031496062992126
170
     1
171
     3
176
   256
177
   256
178
   256
179
     1
271
     2
272
     2
274
     3
284
     4
285
     4
286
     4
340
D6
371
    -1
372
    -1
  0
DIMSTYLE
105
E1
330
A
100
AcDbSymbolTableRecord
100
AcDbDimStyleTableRecord
  2
Default - mm [in] (ANSI)$7
 70
     0
  4
 in
 40
3.333333333333333
 41
0.0984251946210861
 42
0.063
 43
0.25
 44
0.125
 45
0.00000001
 46
0.3937007874015748
 73
     0
 78
     4
 79
     1
140
0.1000000014901161
143
0.03937
144
25.4
146
1.200000029802321
147
0.031496062992126
170
     1
171
     3
176
   256
177
   256
178
   256
179
     1
271
     2
272
     2
274
     3
284
     4
285
     4
286
     4
340
D6
371
    -1
372
    -1
  0
DIMSTYLE
105
E2
102
{ACAD_REACTORS
330
19A
330
287
330
371
330
46F
330
559
330
657
330
76B
330
815
330
8BE
330
9D2
330
AE5
330
BE3
330
CFB
102
}
330
A
100
AcDbSymbolTableRecord
100
AcDbDimStyleTableRecord
  2
Default (ANSI)
 70
     0
 40
3.333333333333333
 41
0.0984251946210861
 43
0.2362204724409449
 44
0.125
 45
0.00000001
 46
0.3937007874015748
140
0.1000000014901161
147
0.031496062992126
176
   256
177
   256
178
   256
271
     2
272
     2
340
D7
371
    -1
372
    -1
  0
DIMSTYLE
105
E3
330
A
100
AcDbSymbolTableRecord
100
AcDbDimStyleTableRecord
  2
Default (ANSI)$7
 70
     0
 40
3.333333333333333
 41
0.0984251946210861
 43
0.2362204724409449
 44
0.125
 45
0.00000001
 46
0.3937007874015748
140
0.1000000014901161
147
0.031496062992126
176
   256
177
   256
178
   256
271
     2
272
     2
340
D7
371
    -1
372
    -1
  0
DIMSTYLE
105
E4
330
A
100
AcDbSymbolTableRecord
100
AcDbDimStyleTableRecord
  2
Alternate (ANSI)
 70
     0
 40
3.333333333333333
 41
0.0979999974370003
340
55
342
E5
  0
DIMSTYLE
105
F7
330
A
100
AcDbSymbolTableRecord
100
AcDbDimStyleTableRecord
  2
Datum (ANSI)
 70
     0
 40
3.333333333333333
 41
0.0979999974370003
340
55
342
E5
  0
DIMSTYLE
105
106
330
A
100
AcDbSymbolTableRecord
100
AcDbDimStyleTableRecord
  2
Large (ANSI)
 70
     0
 40
3.333333333333333
 41
0.1959999948740005
340
55
342
E5
  0
ENDTAB
  0
TABLE
  2
BLOCK_RECORD
  5
1
330
0
100
AcDbSymbolTable
 70
    17
  0
BLOCK_RECORD
  5
6C
330
1
100
AcDbSymbolTableRecord
100
AcDbBlockTableRecord
  2
*Model_Space
340
6F
  0
BLOCK_RECORD
  5
68
330
1
100
AcDbSymbolTableRecord
100
AcDbBlockTableRecord
  2
*Paper_Space
340
6B
  0
BLOCK_RECORD
  5
70
330
1
100
AcDbSymbolTableRecord
100
AcDbBlockTableRecord
  2
*Paper_Space0
340
73
  0
BLOCK_RECORD
  5
E5
330
1
100
AcDbSymbolTableRecord
100
AcDbBlockTableRecord
  2
_Closed
340
0
  0
BLOCK_RECORD
  5
EC
330
1
100
AcDbSymbolTableRecord
100
AcDbBlockTableRecord
  2
DatumFilled45
340
0
  0
BLOCK_RECORD
  5
F8
330
1
100
AcDbSymbolTableRecord
100
AcDbBlockTableRecord
  2
Filled-1
340
0
  0
BLOCK_RECORD
  5
19D
330
1
100
AcDbSymbolTableRecord
100
AcDbBlockTableRecord
  2
*D4
340
0
  0
BLOCK_RECORD
  5
288
330
1
100
AcDbSymbolTableRecord
100
AcDbBlockTableRecord
  2
*D5
340
0
  0
BLOCK_RECORD
  5
372
330
1
100
AcDbSymbolTableRecord
100
AcDbBlockTableRecord
  2
*D6
340
0
  0
BLOCK_RECORD
  5
470
330
1
100
AcDbSymbolTableRecord
100
AcDbBlockTableRecord
  2
*D7
340
0
  0
BLOCK_RECORD
  5
55A
330
1
100
AcDbSymbolTableRecord
100
AcDbBlockTableRecord
  2
*D8
340
0
  0
BLOCK_RECORD
  5
658
330
1
100
AcDbSymbolTableRecord
100
AcDbBlockTableRecord
  2
*D9
340
0
  0
BLOCK_RECORD
  5
76C
330
1
100
AcDbSymbolTableRecord
100
AcDbBlockTableRecord
  2
*D10
340
0
  0
BLOCK_RECORD
  5
816
330
1
100
AcDbSymbolTableRecord
100
AcDbBlockTableRecord
  2
*D11
340
0
  0
BLOCK_RECORD
  5
8BF
330
1
100
AcDbSymbolTableRecord
100
AcDbBlockTableRecord
  2
*D12
340
0
  0
BLOCK_RECORD
  5
9D3
330
1
100
AcDbSymbolTableRecord
100
AcDbBlockTableRecord
  2
*D13
340
0
  0
BLOCK_RECORD
  5
AE6
330
1
100
AcDbSymbolTableRecord
100
AcDbBlockTableRecord
  2
*D14
340
0
  0
BLOCK_RECORD
  5
BE4
330
1
100
AcDbSymbolTableRecord
100
AcDbBlockTableRecord
  2
*D15
340
0
  0
BLOCK_RECORD
  5
CFC
330
1
100
AcDbSymbolTableRecord
100
AcDbBlockTableRecord
  2
*D16
340
0
  0
ENDTAB
  0
ENDSEC
  0
SECTION
  2
BLOCKS
  0
BLOCK
  5
6D
330
6C
100
AcDbEntity
  8
0
100
AcDbBlockBegin
  2
*Model_Space
 70
     0
 10
0.0
 20
0.0
 30
0.0
  3
*Model_Space
  1

  0
ENDBLK
  5
6E
330
6C
100
AcDbEntity
  8
0
100
AcDbBlockEnd
  0
BLOCK
  5
69
330
68
100
AcDbEntity
 67
     1
  8
0
100
AcDbBlockBegin
  2
*Paper_Space
 70
     0
 10
0.0
 20
0.0
 30
0.0
  3
*Paper_Space
  1

  0
ENDBLK
  5
6A
330
68
100
AcDbEntity
 67
     1
  8
0
100
AcDbBlockEnd
  0
BLOCK
  5
71
330
70
100
AcDbEntity
 67
     1
  8
0
100
AcDbBlockBegin
  2
*Paper_Space0
 70
     0
 10
0.0
 20
0.0
 30
0.0
  3
*Paper_Space0
  1

  0
ENDBLK
  5
72
330
70
100
AcDbEntity
 67
     1
  8
0
100
AcDbBlockEnd
  0
BLOCK
  5
EA
330
E5
100
AcDbEntity
  8
0
100
AcDbBlockBegin
  2
_Closed
 70
     0
 10
0.0
 20
0.0
 30
0.0
  3
_Closed
  1

  0
LINE
  5
E6
330
E5
100
AcDbEntity
  8
0
  6
ByBlock
 62
     0
370
    -2
100
AcDbLine
 10
-1.0
 20
0.1666666666666666
 30
0.0
 11
0.0
 21
0.0
 31
0.0
  0
LINE
  5
E7
330
E5
100
AcDbEntity
  8
0
  6
ByBlock
 62
     0
370
    -2
100
AcDbLine
 10
0.0
 20
0.0
 30
0.0
 11
-1.0
 21
-0.1666666666666666
 31
0.0
  0
LINE
  5
E8
330
E5
100
AcDbEntity
  8
0
  6
ByBlock
 62
     0
370
    -2
100
AcDbLine
 10
-1.0
 20
0.1666666666666666
 30
0.0
 11
-1.0
 21
-0.1666666666666666
 31
0.0
  0
LINE
  5
E9
330
E5
100
AcDbEntity
  8
0
  6
ByBlock
 62
     0
370
    -2
100
AcDbLine
 10
0.0
 20
0.0
 30
0.0
 11
-1.0
 21
0.0
 31
0.0
  0
ENDBLK
  5
EB
330
E5
100
AcDbEntity
  8
0
100
AcDbBlockEnd
  0
BLOCK
  5
ED
330
EC
100
AcDbEntity
  8
0
100
AcDbBlockBegin
  2
DatumFilled45
 70
     0
 10
0.0
 20
0.0
 30
0.0
  3
DatumFilled45
  1

  0
POLYLINE
  5
EF
330
EC
100
AcDbEntity
  8
0
 62
     0
100
AcDb2dPolyline
 66
     1
 10
0.0
 20
0.0
 30
0.0
 70
   128
  0
VERTEX
  5
F0
330
EF
100
AcDbEntity
  8
0
 62
     0
100
AcDbVertex
100
AcDb2dVertex
 10
0.0
 20
0.9999999999999998
 30
0.0
  0
VERTEX
  5
F1
330
EF
100
AcDbEntity
  8
0
 62
     0
100
AcDbVertex
100
AcDb2dVertex
 10
0.0
 20
-0.9999999999999998
 30
0.0
  0
VERTEX
  5
F3
330
EF
100
AcDbEntity
  8
0
 62
     0
100
AcDbVertex
100
AcDb2dVertex
 10
-0.9999999999999998
 20
0.0
 30
0.0
  0
VERTEX
  5
F4
330
EF
100
AcDbEntity
  8
0
 62
     0
100
AcDbVertex
100
AcDb2dVertex
 10
0.0
 20
0.9999999999999998
 30
0.0
  0
SEQEND
  5
F2
330
EF
100
AcDbEntity
  8
0
 62
     0
  0
SOLID
  5
F6
330
EC
100
AcDbEntity
  8
0
 62
     0
100
AcDbTrace
 10
0.0
 20
0.9999999999999998
 30
0.0
 11
0.0
 21
-0.9999999999999998
 31
0.0
 12
-0.9999999999999998
 22
0.0
 32
0.0
 13
0.0
 23
0.9999999999999998
 33
0.0
  0
ENDBLK
  5
EE
330
EC
100
AcDbEntity
  8
0
100
AcDbBlockEnd
  0
BLOCK
  5
F9
330
F8
100
AcDbEntity
  8
0
100
AcDbBlockBegin
  2
Filled-1
 70
     0
 10
0.0
 20
0.0
 30
0.0
  3
Filled-1
  1

  0
LINE
  5
FB
330
F8
100
AcDbEntity
  8
0
 62
     0
100
AcDbLine
 10
-0.9999999999999998
 20
0.0
 30
0.0
 11
0.0
 21
0.0
 31
0.0
  0
POLYLINE
  5
FC
330
F8
100
AcDbEntity
  8
0
 62
     0
100
AcDb2dPolyline
 66
     1
 10
0.0
 20
0.0
 30
0.0
 70
   128
  0
VERTEX
  5
FD
330
FC
100
AcDbEntity
  8
0
 62
     0
100
AcDbVertex
100
AcDb2dVertex
 10
-0.9999999999999998
 20
-0.0994897959183674
 30
0.0
  0
VERTEX
  5
FE
330
FC
100
AcDbEntity
  8
0
 62
     0
100
AcDbVertex
100
AcDb2dVertex
 10
0.0
 20
0.0
 30
0.0
  0
VERTEX
  5
100
330
FC
100
AcDbEntity
  8
0
 62
     0
100
AcDbVertex
100
AcDb2dVertex
 10
-0.9999999999999998
 20
0.0994897959183674
 30
0.0
  0
VERTEX
  5
101
330
FC
100
AcDbEntity
  8
0
 62
     0
100
AcDbVertex
100
AcDb2dVertex
 10
-0.9999999999999998
 20
-0.0994897959183674
 30
0.0
  0
SEQEND
  5
FF
330
FC
100
AcDbEntity
  8
0
 62
     0
  0
SOLID
  5
102
330
F8
100
AcDbEntity
  8
0
 62
     0
100
AcDbTrace
 10
-0.9999999999999998
 20
-0.0994897959183674
 30
0.0
 11
0.0
 21
0.0
 31
0.0
 12
-0.9999999999999998
 22
0.0994897959183674
 32
0.0
 13
-0.9999999999999998
 23
-0.0994897959183674
 33
0.0
  0
LINE
  5
103
330
F8
100
AcDbEntity
  8
0
 62
     0
100
AcDbLine
 10
-0.9999999999999998
 20
-0.0994897959183674
 30
0.0
 11
0.0
 21
0.0
 31
0.0
  0
LINE
  5
104
330
F8
100
AcDbEntity
  8
0
 62
     0
100
AcDbLine
 10
0.0
 20
0.0
 30
0.0
 11
-0.9999999999999998
 21
0.0994897959183674
 31
0.0
  0
LINE
  5
105
330
F8
100
AcDbEntity
  8
0
 62
     0
100
AcDbLine
 10
-0.9999999999999998
 20
0.0994897959183674
 30
0.0
 11
-0.9999999999999998
 21
-0.0994897959183674
 31
0.0
  0
ENDBLK
  5
FA
330
F8
100
AcDbEntity
  8
0
100
AcDbBlockEnd
  0
BLOCK
  5
19E
330
19D
100
AcDbEntity
  8
0
100
AcDbBlockBegin
  2
*D4
 70
     1
 10
0.0
 20
0.0
 30
0.0
  3
*D4
  1

  0
LINE
  5
27D
330
19D
100
AcDbEntity
  8
Dimension (ANSI)
100
AcDbLine
 10
8.841223605365673
 20
29.27805369935393
 30
0.0
 11
8.841223605365673
 21
33.9483292899051
 31
0.0
  0
LINE
  5
27E
330
19D
100
AcDbEntity
  8
Dimension (ANSI)
100
AcDbLine
 10
23.04122360536567
 20
29.27805369935393
 30
0.0
 11
23.04122360536567
 21
33.9483292899051
 31
0.0
  0
LINE
  5
27F
330
19D
100
AcDbEntity
  8
Dimension (ANSI)
100
AcDbLine
 10
9.169307587435961
 20
33.53166262323844
 30
0.0
 11
15.19337957628879
 21
33.53166262323844
 31
0.0
  0
LINE
  5
280
330
19D
100
AcDbEntity
  8
Dimension (ANSI)
100
AcDbLine
 10
22.71313962329539
 20
33.53166262323844
 30
0.0
 11
16.68906763444255
 21
33.53166262323844
 31
0.0
  0
SOLID
  5
281
330
19D
100
AcDbEntity
  8
Dimension (ANSI)
100
AcDbTrace
 10
9.169307587435961
 20
33.58634328691682
 30
0.0
 11
9.169307587435961
 21
33.47698195956006
 31
0.0
 12
8.841223605365673
 22
33.53166262323844
 32
0.0
 13
8.841223605365673
 23
33.53166262323844
 33
0.0
  0
SOLID
  5
282
330
19D
100
AcDbEntity
  8
Dimension (ANSI)
100
AcDbTrace
 10
22.71313962329539
 20
33.58634328691682
 30
0.0
 11
22.71313962329539
 21
33.47698195956006
 31
0.0
 12
23.04122360536567
 22
33.53166262323844
 32
0.0
 13
23.04122360536567
 23
33.53166262323844
 33
0.0
  0
MTEXT
  5
283
330
19D
100
AcDbEntity
  8
Dimension (ANSI)
100
AcDbMText
 10
15.29836645292921
 20
33.69832929238864
 30
0.0
 40
0.3333333383003871
 41
0.0
 71
     1
 72
     1
  1
\A1;14.20
  7
ROMANS
 73
     1
 44
1.0
1001
ACAD
1000
MTEXTBEGIN
1070
    73
1070
     1
1070
    44
1040
1.0
1070
    74
1070
     0
1000
MTEXTEND
  0
POINT
  5
284
330
19D
100
AcDbEntity
  8
Defpoints
 62
     0
100
AcDbPoint
 10
8.841223605365673
 20
29.0697203660206
 30
0.0
  0
POINT
  5
285
330
19D
100
AcDbEntity
  8
Defpoints
 62
     0
100
AcDbPoint
 10
23.04122360536567
 20
29.0697203660206
 30
0.0
  0
POINT
  5
286
330
19D
100
AcDbEntity
  8
Defpoints
 62
     0
100
AcDbPoint
 10
23.04122360536567
 20
33.53166262323844
 30
0.0
  0
ENDBLK
  5
19F
330
19D
100
AcDbEntity
  8
0
100
AcDbBlockEnd
  0
BLOCK
  5
289
330
288
100
AcDbEntity
  8
0
100
AcDbBlockBegin
  2
*D5
 70
     1
 10
0.0
 20
0.0
 30
0.0
  3
*D5
  1

  0
LINE
  5
367
330
288
100
AcDbEntity
  8
Dimension (ANSI)
100
AcDbLine
 10
9.341223605365673
 20
29.77805369935392
 30
0.0
 11
9.341223605365673
 21
32.65824490176849
 31
0.0
  0
LINE
  5
368
330
288
100
AcDbEntity
  8
Dimension (ANSI)
100
AcDbLine
 10
22.54122360536567
 20
29.77805369935392
 30
0.0
 11
22.54122360536567
 21
32.65824490176849
 31
0.0
  0
LINE
  5
369
330
288
100
AcDbEntity
  8
Dimension (ANSI)
100
AcDbLine
 10
9.669307587435961
 20
32.24157823510182
 30
0.0
 11
14.51877639163325
 21
32.24157823510182
 31
0.0
  0
LINE
  5
36A
330
288
100
AcDbEntity
  8
Dimension (ANSI)
100
AcDbLine
 10
22.21313962329539
 20
32.24157823510182
 30
0.0
 11
17.3636708190981
 21
32.24157823510182
 31
0.0
  0
SOLID
  5
36B
330
288
100
AcDbEntity
  8
Dimension (ANSI)
100
AcDbTrace
 10
9.669307587435961
 20
32.29625889878021
 30
0.0
 11
9.669307587435961
 21
32.18689757142344
 31
0.0
 12
9.341223605365673
 22
32.24157823510182
 32
0.0
 13
9.341223605365673
 23
32.24157823510182
 33
0.0
  0
SOLID
  5
36C
330
288
100
AcDbEntity
  8
Dimension (ANSI)
100
AcDbTrace
 10
22.21313962329539
 20
32.29625889878021
 30
0.0
 11
22.21313962329539
 21
32.18689757142344
 31
0.0
 12
22.54122360536567
 22
32.24157823510182
 32
0.0
 13
22.54122360536567
 23
32.24157823510182
 33
0.0
  0
MTEXT
  5
36D
330
288
100
AcDbEntity
  8
Dimension (ANSI)
100
AcDbMText
 10
15.94122360536567
 20
32.24157823510182
 30
0.0
 40
0.3333333383003871
 41
0.0
 71
     5
 72
     1
  1
\A1;13.20{ TYP.}
  7
ROMANS
 73
     1
 44
1.0
1001
ACAD
1000
MTEXTBEGIN
1070
    73
1070
     1
1070
    44
1040
1.0
1070
    74
1070
     0
1000
MTEXTEND
  0
POINT
  5
36E
330
288
100
AcDbEntity
  8
Defpoints
 62
     0
100
AcDbPoint
 10
9.341223605365673
 20
29.5697203660206
 30
0.0
  0
POINT
  5
36F
330
288
100
AcDbEntity
  8
Defpoints
 62
     0
100
AcDbPoint
 10
22.54122360536567
 20
29.5697203660206
 30
0.0
  0
POINT
  5
370
330
288
100
AcDbEntity
  8
Defpoints
 62
     0
100
AcDbPoint
 10
22.54122360536567
 20
32.24157823510182
 30
0.0
  0
ENDBLK
  5
28A
330
288
100
AcDbEntity
  8
0
100
AcDbBlockEnd
  0
BLOCK
  5
373
330
372
100
AcDbEntity
  8
0
100
AcDbBlockBegin
  2
*D6
 70
     1
 10
0.0
 20
0.0
 30
0.0
  3
*D6
  1

  0
LINE
  5
465
330
372
100
AcDbEntity
  8
Dimension (ANSI)
100
AcDbLine
 10
8.841223605365673
 20
29.27805369935393
 30
0.0
 11
8.841223605365673
 21
32.65824490176849
 31
0.0
  0
LINE
  5
466
330
372
100
AcDbEntity
  8
Dimension (ANSI)
100
AcDbLine
 10
9.341223605365673
 20
29.77805369935392
 30
0.0
 11
9.341223605365673
 21
32.65824490176849
 31
0.0
  0
LINE
  5
467
330
372
100
AcDbEntity
  8
Dimension (ANSI)
100
AcDbLine
 10
9.669307587435961
 20
32.24157823510182
 30
0.0
 11
9.997391569506246
 21
32.24157823510182
 31
0.0
  0
LINE
  5
468
330
372
100
AcDbEntity
  8
Dimension (ANSI)
100
AcDbLine
 10
8.513139623295385
 20
32.24157823510182
 30
0.0
 11
7.923107700974016
 21
32.24157823510182
 31
0.0
  0
SOLID
  5
469
330
372
100
AcDbEntity
  8
Dimension (ANSI)
100
AcDbTrace
 10
9.669307587435961
 20
32.29625889878021
 30
0.0
 11
9.669307587435961
 21
32.18689757142344
 31
0.0
 12
9.341223605365673
 22
32.24157823510182
 32
0.0
 13
9.341223605365673
 23
32.24157823510182
 33
0.0
  0
SOLID
  5
46A
330
372
100
AcDbEntity
  8
Dimension (ANSI)
100
AcDbTrace
 10
8.513139623295385
 20
32.29625889878021
 30
0.0
 11
8.513139623295385
 21
32.18689757142344
 31
0.0
 12
8.841223605365673
 22
32.24157823510182
 32
0.0
 13
8.841223605365673
 23
32.24157823510182
 33
0.0
  0
MTEXT
  5
46B
330
372
100
AcDbEntity
  8
Dimension (ANSI)
100
AcDbMText
 10
7.310184308828245
 20
32.24157823510182
 30
0.0
 40
0.3333333383003871
 41
0.0
 71
     5
 72
     1
  1
\A1;0.50{\PTYP.}
  7
ROMANS
 73
     1
 44
1.0
1001
ACAD
1000
MTEXTBEGIN
1070
    73
1070
     1
1070
    44
1040
1.0
1070
    74
1070
     0
1000
MTEXTEND
  0
POINT
  5
46C
330
372
100
AcDbEntity
  8
Defpoints
 62
     0
100
AcDbPoint
 10
8.841223605365673
 20
29.0697203660206
 30
0.0
  0
POINT
  5
46D
330
372
100
AcDbEntity
  8
Defpoints
 62
     0
100
AcDbPoint
 10
9.341223605365673
 20
29.5697203660206
 30
0.0
  0
POINT
  5
46E
330
372
100
AcDbEntity
  8
Defpoints
 62
     0
100
AcDbPoint
 10
9.341223605365673
 20
32.24157823510182
 30
0.0
  0
ENDBLK
  5
374
330
372
100
AcDbEntity
  8
0
100
AcDbBlockEnd
  0
BLOCK
  5
471
330
470
100
AcDbEntity
  8
0
100
AcDbBlockBegin
  2
*D7
 70
     1
 10
0.0
 20
0.0
 30
0.0
  3
*D7
  1

  0
LINE
  5
54F
330
470
100
AcDbEntity
  8
Dimension (ANSI)
100
AcDbLine
 10
9.132890272032339
 20
29.5697203660206
 30
0.0
 11
4.46261468148117
 21
29.5697203660206
 31
0.0
  0
LINE
  5
550
330
470
100
AcDbEntity
  8
Dimension (ANSI)
100
AcDbLine
 10
9.132890272032348
 20
7.369720366020597
 30
0.0
 11
4.462614681481166
 21
7.369720366020598
 31
0.0
  0
LINE
  5
551
330
470
100
AcDbEntity
  8
Dimension (ANSI)
100
AcDbLine
 10
4.879281348147837
 20
29.24163638395031
 30
0.0
 11
4.879281348147835
 21
18.7413739118112
 31
0.0
  0
LINE
  5
552
330
470
100
AcDbEntity
  8
Dimension (ANSI)
100
AcDbLine
 10
4.879281348147832
 20
7.697804348090885
 30
0.0
 11
4.879281348147835
 21
18.19806682022998
 31
0.0
  0
SOLID
  5
553
330
470
100
AcDbEntity
  8
Dimension (ANSI)
100
AcDbTrace
 10
4.824600684469456
 20
29.24163638395031
 30
0.0
 11
4.933962011826218
 21
29.24163638395031
 31
0.0
 12
4.879281348147837
 22
29.5697203660206
 32
0.0
 13
4.879281348147837
 23
29.5697203660206
 33
0.0
  0
SOLID
  5
554
330
470
100
AcDbEntity
  8
Dimension (ANSI)
100
AcDbTrace
 10
4.824600684469452
 20
7.697804348090885
 30
0.0
 11
4.933962011826213
 21
7.697804348090885
 31
0.0
 12
4.879281348147832
 22
7.369720366020598
 32
0.0
 13
4.879281348147832
 23
7.369720366020598
 33
0.0
  0
MTEXT
  5
555
330
470
100
AcDbEntity
  8
Dimension (ANSI)
100
AcDbMText
 10
4.212614671547058
 20
18.63638703517078
 30
0.0
 40
0.3333333383003871
 41
0.0
 71
     1
 72
     1
  1
\A1;22.20
  7
ROMANS
 73
     1
 44
1.0
1001
ACAD
1000
MTEXTBEGIN
1070
    73
1070
     1
1070
    44
1040
1.0
1070
    74
1070
     0
1000
MTEXTEND
  0
POINT
  5
556
330
470
100
AcDbEntity
  8
Defpoints
 62
     0
100
AcDbPoint
 10
9.341223605365673
 20
29.5697203660206
 30
0.0
  0
POINT
  5
557
330
470
100
AcDbEntity
  8
Defpoints
 62
     0
100
AcDbPoint
 10
9.341223605365682
 20
7.369720366020597
 30
0.0
  0
POINT
  5
558
330
470
100
AcDbEntity
  8
Defpoints
 62
     0
100
AcDbPoint
 10
4.879281348147832
 20
7.369720366020598
 30
0.0
  0
ENDBLK
  5
472
330
470
100
AcDbEntity
  8
0
100
AcDbBlockEnd
  0
BLOCK
  5
55B
330
55A
100
AcDbEntity
  8
0
100
AcDbBlockBegin
  2
*D8
 70
     1
 10
0.0
 20
0.0
 30
0.0
  3
*D8
  1

  0
LINE
  5
64D
330
55A
100
AcDbEntity
  8
Dimension (ANSI)
100
AcDbLine
 10
8.632890272032346
 20
7.869720366020597
 30
0.0
 11
6.832470701780136
 21
7.869720366020597
 31
0.0
  0
LINE
  5
64E
330
55A
100
AcDbEntity
  8
Dimension (ANSI)
100
AcDbLine
 10
8.632890272032339
 20
29.0697203660206
 30
0.0
 11
6.832470701780141
 21
29.0697203660206
 31
0.0
  0
LINE
  5
64F
330
55A
100
AcDbEntity
  8
Dimension (ANSI)
100
AcDbLine
 10
7.249137368446803
 20
8.197804348090885
 30
0.0
 11
7.249137368446804
 21
17.92028903831299
 31
0.0
  0
LINE
  5
650
330
55A
100
AcDbEntity
  8
Dimension (ANSI)
100
AcDbLine
 10
7.249137368446807
 20
28.74163638395031
 30
0.0
 11
7.249137368446805
 21
19.0191516937282
 31
0.0
  0
SOLID
  5
651
330
55A
100
AcDbEntity
  8
Dimension (ANSI)
100
AcDbTrace
 10
7.194456704768422
 20
8.197804348090885
 30
0.0
 11
7.303818032125183
 21
8.197804348090885
 31
0.0
 12
7.249137368446803
 22
7.869720366020597
 32
0.0
 13
7.249137368446803
 23
7.869720366020597
 33
0.0
  0
SOLID
  5
652
330
55A
100
AcDbEntity
  8
Dimension (ANSI)
100
AcDbTrace
 10
7.194456704768426
 20
28.74163638395031
 30
0.0
 11
7.303818032125188
 21
28.74163638395031
 31
0.0
 12
7.249137368446807
 22
29.0697203660206
 32
0.0
 13
7.249137368446807
 23
29.0697203660206
 33
0.0
  0
MTEXT
  5
653
330
55A
100
AcDbEntity
  8
Dimension (ANSI)
100
AcDbMText
 10
7.249137368446802
 20
18.46972036602059
 30
0.0
 40
0.3333333383003871
 41
0.0
 71
     5
 72
     1
  1
\A1;21.20{\PTYP.}
  7
ROMANS
 73
     1
 44
1.0
1001
ACAD
1000
MTEXTBEGIN
1070
    73
1070
     1
1070
    44
1040
1.0
1070
    74
1070
     0
1000
MTEXTEND
  0
POINT
  5
654
330
55A
100
AcDbEntity
  8
Defpoints
 62
     0
100
AcDbPoint
 10
8.84122360536568
 20
7.869720366020597
 30
0.0
  0
POINT
  5
655
330
55A
100
AcDbEntity
  8
Defpoints
 62
     0
100
AcDbPoint
 10
8.841223605365673
 20
29.0697203660206
 30
0.0
  0
POINT
  5
656
330
55A
100
AcDbEntity
  8
Defpoints
 62
     0
100
AcDbPoint
 10
7.249137368446807
 20
29.0697203660206
 30
0.0
  0
ENDBLK
  5
55C
330
55A
100
AcDbEntity
  8
0
100
AcDbBlockEnd
  0
BLOCK
  5
659
330
658
100
AcDbEntity
  8
0
100
AcDbBlockBegin
  2
*D9
 70
     1
 10
0.0
 20
0.0
 30
0.0
  3
*D9
  1

  0
LINE
  5
760
330
658
100
AcDbEntity
  8
Dimension (ANSI)
100
AcDbLine
 10
9.132890272032339
 20
29.5697203660206
 30
0.0
 11
5.908746414876655
 21
29.5697203660206
 31
0.0
  0
LINE
  5
761
330
658
100
AcDbEntity
  8
Dimension (ANSI)
100
AcDbLine
 10
8.632890272032339
 20
29.0697203660206
 30
0.0
 11
5.908746414876655
 21
29.0697203660206
 31
0.0
  0
LINE
  5
762
330
658
100
AcDbEntity
  8
Dimension (ANSI)
100
AcDbLine
 10
6.325413081543322
 20
28.74163638395031
 30
0.0
 11
6.325413081543322
 21
28.41355240188002
 31
0.0
  0
LINE
  5
763
330
658
100
AcDbEntity
  8
Dimension (ANSI)
100
AcDbLine
 10
6.325413081543322
 20
29.89780434809088
 30
0.0
 11
6.325413081543323
 21
30.8527410591037
 31
0.0
  0
LINE
  5
764
330
658
100
AcDbEntity
  8
Dimension (ANSI)
100
AcDbLine
 10
6.325413081543323
 20
30.8527410591037
 30
0.0
 11
6.65349706361361
 21
30.8527410591037
 31
0.0
  0
SOLID
  5
765
330
658
100
AcDbEntity
  8
Dimension (ANSI)
100
AcDbTrace
 10
6.270732417864941
 20
28.74163638395031
 30
0.0
 11
6.380093745221703
 21
28.74163638395031
 31
0.0
 12
6.325413081543322
 22
29.0697203660206
 32
0.0
 13
6.325413081543322
 23
29.0697203660206
 33
0.0
  0
SOLID
  5
766
330
658
100
AcDbEntity
  8
Dimension (ANSI)
100
AcDbTrace
 10
6.270732417864941
 20
29.89780434809088
 30
0.0
 11
6.380093745221703
 21
29.89780434809088
 31
0.0
 12
6.325413081543322
 22
29.5697203660206
 32
0.0
 13
6.325413081543322
 23
29.5697203660206
 33
0.0
  0
MTEXT
  5
767
330
658
100
AcDbEntity
  8
Dimension (ANSI)
100
AcDbMText
 10
7.266420455759377
 20
30.8527410591037
 30
0.0
 40
0.3333333383003871
 41
0.0
 71
     5
 72
     1
  1
\A1;0.50{\PTYP.}
  7
ROMANS
 73
     1
 44
1.0
1001
ACAD
1000
MTEXTBEGIN
1070
    73
1070
     1
1070
    44
1040
1.0
1070
    74
1070
     0
1000
MTEXTEND
  0
POINT
  5
768
330
658
100
AcDbEntity
  8
Defpoints
 62
     0
100
AcDbPoint
 10
9.341223605365673
 20
29.5697203660206
 30
0.0
  0
POINT
  5
769
330
658
100
AcDbEntity
  8
Defpoints
 62
     0
100
AcDbPoint
 10
8.841223605365673
 20
29.0697203660206
 30
0.0
  0
POINT
  5
76A
330
658
100
AcDbEntity
  8
Defpoints
 62
     0
100
AcDbPoint
 10
6.325413081543322
 20
29.0697203660206
 30
0.0
  0
ENDBLK
  5
65A
330
658
100
AcDbEntity
  8
0
100
AcDbBlockEnd
  0
BLOCK
  5
76D
330
76C
100
AcDbEntity
  8
0
100
AcDbBlockBegin
  2
*D10
 70
     1
 10
0.0
 20
0.0
 30
0.0
  3
*D10
  1

  0
LINE
  5
80D
330
76C
100
AcDbEntity
  8
Dimension (ANSI)
100
AcDbLine
 10
7.235597406590462
 20
5.137486707560429
 30
0.0
 11
7.772220761780234
 21
5.137486707560429
 31
0.0
  0
LINE
  5
80E
330
76C
100
AcDbEntity
  8
Dimension (ANSI)
100
AcDbLine
 10
7.772220761780234
 20
5.137486707560429
 30
0.0
 11
9.072181614330437
 21
7.389084952026915
 31
0.0
  0
MTEXT
  5
80F
102
{ACAD_XDICTIONARY
360
E2D
102
}
330
76C
100
AcDbEntity
  8
Dimension (ANSI)
100
AcDbMText
 10
2.273467600430117
 20
5.391454965313104
 30
0.0
 40
0.3333333383003871
 41
0.0
 71
     1
 72
     1
  1
\A1;\U+22050.50{ TYP. (4 PL.)}
  7
ROMANS
 73
     1
 44
1.0
1001
ACAD
1000
MTEXTBEGIN
1070
    73
1070
     1
1070
    44
1040
1.0
1070
    74
1070
     0
1000
MTEXTEND
  0
SOLID
  5
810
330
76C
100
AcDbEntity
  8
Dimension (ANSI)
100
AcDbTrace
 10
9.024826770489172
 20
7.416425283866114
 30
0.0
 11
9.119536458171703
 21
7.361744620187716
 31
0.0
 12
9.236223605365637
 22
7.673214015074511
 32
0.0
 13
9.236223605365637
 23
7.673214015074511
 33
0.0
  0
LINE
  5
811
330
76C
100
AcDbEntity
  8
Dimension (ANSI)
100
AcDbLine
 10
9.061223605365679
 20
7.889720366020595
 30
0.0
 11
9.66122360536568
 21
7.889720366020595
 31
0.0
  0
LINE
  5
812
330
76C
100
AcDbEntity
  8
Dimension (ANSI)
100
AcDbLine
 10
9.36122360536568
 20
7.589720366020596
 30
0.0
 11
9.36122360536568
 21
8.189720366020594
 31
0.0
  0
POINT
  5
813
330
76C
100
AcDbEntity
  8
Defpoints
 62
     0
100
AcDbPoint
 10
9.236223605365637
 20
7.673214015074511
 30
0.0
  0
POINT
  5
814
330
76C
100
AcDbEntity
  8
Defpoints
 62
     0
100
AcDbPoint
 10
9.486223605365722
 20
8.106226716966681
 30
0.0
  0
ENDBLK
  5
76E
330
76C
100
AcDbEntity
  8
0
100
AcDbBlockEnd
  0
BLOCK
  5
817
330
816
100
AcDbEntity
  8
0
100
AcDbBlockBegin
  2
*D11
 70
     1
 10
0.0
 20
0.0
 30
0.0
  3
*D11
  1

  0
LINE
  5
8B6
330
816
100
AcDbEntity
  8
Dimension (ANSI)
100
AcDbLine
 10
7.346323150470353
 20
6.079269321666208
 30
0.0
 11
7.88294650566013
 21
6.079269321666208
 31
0.0
  0
LINE
  5
8B7
330
816
100
AcDbEntity
  8
Dimension (ANSI)
100
AcDbLine
 10
7.88294650566013
 20
6.079269321666208
 30
0.0
 11
9.119056614330453
 21
8.2202748336317
 31
0.0
  0
MTEXT
  5
8B8
102
{ACAD_XDICTIONARY
360
E2F
102
}
330
816
100
AcDbEntity
  8
Dimension (ANSI)
100
AcDbMText
 10
2.384193344310009
 20
6.333237579418883
 30
0.0
 40
0.3333333383003871
 41
0.0
 71
     1
 72
     1
  1
\A1;\U+22050.31{ TYP. (4 PL.)}
  7
ROMANS
 73
     1
 44
1.0
1001
ACAD
1000
MTEXTBEGIN
1070
    73
1070
     1
1070
    44
1040
1.0
1070
    74
1070
     0
1000
MTEXTEND
  0
SOLID
  5
8B9
330
816
100
AcDbEntity
  8
Dimension (ANSI)
100
AcDbTrace
 10
9.071701770489188
 20
8.2476151654709
 30
0.0
 11
9.166411458171719
 21
8.1929345017925
 31
0.0
 12
9.283098605365653
 22
8.504403896679294
 32
0.0
 13
9.283098605365653
 23
8.504403896679294
 33
0.0
  0
LINE
  5
8BA
330
816
100
AcDbEntity
  8
Dimension (ANSI)
100
AcDbLine
 10
9.061223605365679
 20
8.639720366020597
 30
0.0
 11
9.66122360536568
 21
8.639720366020593
 31
0.0
  0
LINE
  5
8BB
330
816
100
AcDbEntity
  8
Dimension (ANSI)
100
AcDbLine
 10
9.36122360536568
 20
8.339720366020594
 30
0.0
 11
9.36122360536568
 21
8.939720366020596
 31
0.0
  0
POINT
  5
8BC
330
816
100
AcDbEntity
  8
Defpoints
 62
     0
100
AcDbPoint
 10
9.283098605365653
 20
8.504403896679294
 30
0.0
  0
POINT
  5
8BD
330
816
100
AcDbEntity
  8
Defpoints
 62
     0
100
AcDbPoint
 10
9.439348605365706
 20
8.775036835361898
 30
0.0
  0
ENDBLK
  5
818
330
816
100
AcDbEntity
  8
0
100
AcDbBlockEnd
  0
BLOCK
  5
8C0
330
8BF
100
AcDbEntity
  8
0
100
AcDbBlockBegin
  2
*D12
 70
     1
 10
0.0
 20
0.0
 30
0.0
  3
*D12
  1

  0
LINE
  5
9C7
330
8BF
100
AcDbEntity
  8
Dimension (ANSI)
100
AcDbLine
 10
22.74955693869901
 20
7.369720366020597
 30
0.0
 11
26.54339200551087
 21
7.369720366020596
 31
0.0
  0
LINE
  5
9C8
330
8BF
100
AcDbEntity
  8
Dimension (ANSI)
100
AcDbLine
 10
22.72955693869902
 20
7.889720366020596
 30
0.0
 11
26.54339200551087
 21
7.889720366020595
 31
0.0
  0
LINE
  5
9C9
330
8BF
100
AcDbEntity
  8
Dimension (ANSI)
100
AcDbLine
 10
26.12672533884421
 20
8.217804348090883
 30
0.0
 11
26.12672533884421
 21
8.54588833016117
 31
0.0
  0
LINE
  5
9CA
330
8BF
100
AcDbEntity
  8
Dimension (ANSI)
100
AcDbLine
 10
26.1267253388442
 20
7.04163638395031
 30
0.0
 11
26.1267253388442
 21
6.349079002738497
 31
0.0
  0
LINE
  5
9CB
330
8BF
100
AcDbEntity
  8
Dimension (ANSI)
100
AcDbLine
 10
26.1267253388442
 20
6.349079002738497
 30
0.0
 11
25.79864135677392
 21
6.349079002738498
 31
0.0
  0
SOLID
  5
9CC
330
8BF
100
AcDbEntity
  8
Dimension (ANSI)
100
AcDbTrace
 10
26.07204467516582
 20
8.217804348090883
 30
0.0
 11
26.18140600252259
 21
8.217804348090883
 31
0.0
 12
26.1267253388442
 22
7.889720366020595
 32
0.0
 13
26.1267253388442
 23
7.889720366020595
 33
0.0
  0
SOLID
  5
9CD
330
8BF
100
AcDbEntity
  8
Dimension (ANSI)
100
AcDbTrace
 10
26.07204467516582
 20
7.04163638395031
 30
0.0
 11
26.18140600252258
 21
7.04163638395031
 31
0.0
 12
26.1267253388442
 22
7.369720366020596
 32
0.0
 13
26.1267253388442
 23
7.369720366020596
 33
0.0
  0
MTEXT
  5
9CE
330
8BF
100
AcDbEntity
  8
Dimension (ANSI)
100
AcDbMText
 10
25.18571796462814
 20
6.349079002738501
 30
0.0
 40
0.3333333383003871
 41
0.0
 71
     5
 72
     1
  1
\A1;0.52{ \PTYP.}
  7
ROMANS
 73
     1
 44
1.0
1001
ACAD
1000
MTEXTBEGIN
1070
    73
1070
     1
1070
    44
1040
1.0
1070
    74
1070
     0
1000
MTEXTEND
  0
POINT
  5
9CF
330
8BF
100
AcDbEntity
  8
Defpoints
 62
     0
100
AcDbPoint
 10
22.54122360536568
 20
7.369720366020597
 30
0.0
  0
POINT
  5
9D0
330
8BF
100
AcDbEntity
  8
Defpoints
 62
     0
100
AcDbPoint
 10
22.52122360536569
 20
7.889720366020596
 30
0.0
  0
POINT
  5
9D1
330
8BF
100
AcDbEntity
  8
Defpoints
 62
     0
100
AcDbPoint
 10
26.1267253388442
 20
7.889720366020595
 30
0.0
  0
ENDBLK
  5
8C1
330
8BF
100
AcDbEntity
  8
0
100
AcDbBlockEnd
  0
BLOCK
  5
9D4
330
9D3
100
AcDbEntity
  8
0
100
AcDbBlockBegin
  2
*D13
 70
     1
 10
0.0
 20
0.0
 30
0.0
  3
*D13
  1

  0
LINE
  5
ADA
330
9D3
100
AcDbEntity
  8
Dimension (ANSI)
100
AcDbLine
 10
22.74955693869901
 20
7.369720366020597
 30
0.0
 11
28.33703037930193
 21
7.369720366020596
 31
0.0
  0
LINE
  5
ADB
330
9D3
100
AcDbEntity
  8
Dimension (ANSI)
100
AcDbLine
 10
22.72955693869902
 20
8.639720366020597
 30
0.0
 11
28.33703037930194
 21
8.639720366020595
 31
0.0
  0
LINE
  5
ADC
330
9D3
100
AcDbEntity
  8
Dimension (ANSI)
100
AcDbLine
 10
27.92036371263527
 20
8.311636383950309
 30
0.0
 11
27.92036371263526
 21
7.697804348090883
 31
0.0
  0
LINE
  5
ADD
330
9D3
100
AcDbEntity
  8
Dimension (ANSI)
100
AcDbLine
 10
27.92036371263526
 20
7.369720366020596
 30
0.0
 11
27.92036371263526
 21
6.300415530760728
 31
0.0
  0
LINE
  5
ADE
330
9D3
100
AcDbEntity
  8
Dimension (ANSI)
100
AcDbLine
 10
27.92036371263526
 20
6.300415530760728
 30
0.0
 11
27.59227973056498
 21
6.300415530760728
 31
0.0
  0
SOLID
  5
ADF
330
9D3
100
AcDbEntity
  8
Dimension (ANSI)
100
AcDbTrace
 10
27.86568304895689
 20
8.311636383950309
 30
0.0
 11
27.97504437631365
 21
8.311636383950309
 31
0.0
 12
27.92036371263527
 22
8.639720366020597
 32
0.0
 13
27.92036371263527
 23
8.639720366020597
 33
0.0
  0
SOLID
  5
AE0
330
9D3
100
AcDbEntity
  8
Dimension (ANSI)
100
AcDbTrace
 10
27.86568304895688
 20
7.697804348090883
 30
0.0
 11
27.97504437631365
 21
7.697804348090883
 31
0.0
 12
27.92036371263526
 22
7.369720366020596
 32
0.0
 13
27.92036371263526
 23
7.369720366020596
 33
0.0
  0
MTEXT
  5
AE1
330
9D3
100
AcDbEntity
  8
Dimension (ANSI)
100
AcDbMText
 10
27.00316586258352
 20
6.300415530760733
 30
0.0
 40
0.3333333383003871
 41
0.0
 71
     5
 72
     1
  1
\A1;1.27{\PTYP.}
  7
ROMANS
 73
     1
 44
1.0
1001
ACAD
1000
MTEXTBEGIN
1070
    73
1070
     1
1070
    44
1040
1.0
1070
    74
1070
     0
1000
MTEXTEND
  0
POINT
  5
AE2
330
9D3
100
AcDbEntity
  8
Defpoints
 62
     0
100
AcDbPoint
 10
22.54122360536568
 20
7.369720366020597
 30
0.0
  0
POINT
  5
AE3
330
9D3
100
AcDbEntity
  8
Defpoints
 62
     0
100
AcDbPoint
 10
22.52122360536569
 20
8.639720366020597
 30
0.0
  0
POINT
  5
AE4
330
9D3
100
AcDbEntity
  8
Defpoints
 62
     0
100
AcDbPoint
 10
27.92036371263527
 20
8.639720366020597
 30
0.0
  0
ENDBLK
  5
9D5
330
9D3
100
AcDbEntity
  8
0
100
AcDbBlockEnd
  0
BLOCK
  5
AE7
330
AE6
100
AcDbEntity
  8
0
100
AcDbBlockBegin
  2
*D14
 70
     1
 10
0.0
 20
0.0
 30
0.0
  3
*D14
  1

  0
LINE
  5
BD9
330
AE6
100
AcDbEntity
  8
Dimension (ANSI)
100
AcDbLine
 10
22.52122360536569
 20
8.431387032687263
 30
0.0
 11
22.52122360536569
 21
5.89997002141999
 31
0.0
  0
LINE
  5
BDA
330
AE6
100
AcDbEntity
  8
Dimension (ANSI)
100
AcDbLine
 10
23.04122360536568
 20
7.661387032687267
 30
0.0
 11
23.04122360536568
 21
5.89997002141999
 31
0.0
  0
LINE
  5
BDB
330
AE6
100
AcDbEntity
  8
Dimension (ANSI)
100
AcDbLine
 10
23.36930758743597
 20
6.316636688086657
 30
0.0
 11
23.69739156950625
 21
6.316636688086657
 31
0.0
  0
LINE
  5
BDC
330
AE6
100
AcDbEntity
  8
Dimension (ANSI)
100
AcDbLine
 10
22.1931396232954
 20
6.316636688086657
 30
0.0
 11
21.67846753448497
 21
6.316636688086657
 31
0.0
  0
SOLID
  5
BDD
330
AE6
100
AcDbEntity
  8
Dimension (ANSI)
100
AcDbTrace
 10
23.36930758743597
 20
6.371317351765038
 30
0.0
 11
23.36930758743597
 21
6.261956024408276
 31
0.0
 12
23.04122360536568
 22
6.316636688086657
 32
0.0
 13
23.04122360536568
 23
6.316636688086657
 33
0.0
  0
SOLID
  5
BDE
330
AE6
100
AcDbEntity
  8
Dimension (ANSI)
100
AcDbTrace
 10
22.1931396232954
 20
6.371317351765038
 30
0.0
 11
22.1931396232954
 21
6.261956024408276
 31
0.0
 12
22.52122360536569
 22
6.316636688086657
 32
0.0
 13
22.52122360536569
 23
6.316636688086657
 33
0.0
  0
MTEXT
  5
BDF
330
AE6
100
AcDbEntity
  8
Dimension (ANSI)
100
AcDbMText
 10
21.0655441423392
 20
6.316636688086657
 30
0.0
 40
0.3333333383003871
 41
0.0
 71
     5
 72
     1
  1
\A1;0.52{\PTYP.}
  7
ROMANS
 73
     1
 44
1.0
1001
ACAD
1000
MTEXTBEGIN
1070
    73
1070
     1
1070
    44
1040
1.0
1070
    74
1070
     0
1000
MTEXTEND
  0
POINT
  5
BE0
330
AE6
100
AcDbEntity
  8
Defpoints
 62
     0
100
AcDbPoint
 10
22.52122360536569
 20
8.639720366020597
 30
0.0
  0
POINT
  5
BE1
330
AE6
100
AcDbEntity
  8
Defpoints
 62
     0
100
AcDbPoint
 10
23.04122360536568
 20
7.8697203660206
 30
0.0
  0
POINT
  5
BE2
330
AE6
100
AcDbEntity
  8
Defpoints
 62
     0
100
AcDbPoint
 10
23.04122360536568
 20
6.316636688086657
 30
0.0
  0
ENDBLK
  5
AE8
330
AE6
100
AcDbEntity
  8
0
100
AcDbBlockEnd
  0
BLOCK
  5
BE5
330
BE4
100
AcDbEntity
  8
0
100
AcDbBlockBegin
  2
*D15
 70
     1
 10
0.0
 20
0.0
 30
0.0
  3
*D15
  1

  0
LINE
  5
CE1
330
BE4
100
AcDbEntity
  8
Dimension (ANSI)
100
AcDbLine
 10
32.57296046020783
 20
20.13744944283247
 30
0.0
 11
32.57296046020783
 21
29.37526588611145
 31
0.0
  0
LINE
  5
CE2
330
BE4
100
AcDbEntity
  8
Dimension (ANSI)
100
AcDbLine
 10
32.47921046020784
 20
20.13744944283247
 30
0.0
 11
32.47921046020784
 21
29.37526588611145
 31
0.0
  0
LINE
  5
CE3
330
BE4
100
AcDbEntity
  8
Dimension (ANSI)
100
AcDbLine
 10
32.15112647813755
 20
28.95859921944479
 30
0.0
 11
31.82304249606727
 21
28.95859921944479
 31
0.0
  0
LINE
  5
CE4
330
BE4
100
AcDbEntity
  8
Dimension (ANSI)
100
AcDbLine
 10
32.90104444227812
 20
28.95859921944479
 30
0.0
 11
33.75906965880423
 21
28.95859921944479
 31
0.0
  0
SOLID
  5
CE5
330
BE4
100
AcDbEntity
  8
Dimension (ANSI)
100
AcDbTrace
 10
32.15112647813755
 20
29.01327988312317
 30
0.0
 11
32.15112647813755
 21
28.9039185557664
 31
0.0
 12
32.47921046020784
 22
28.95859921944479
 32
0.0
 13
32.47921046020784
 23
28.95859921944479
 33
0.0
  0
SOLID
  5
CE6
330
BE4
100
AcDbEntity
  8
Dimension (ANSI)
100
AcDbTrace
 10
32.90104444227812
 20
29.01327988312317
 30
0.0
 11
32.90104444227812
 21
28.9039185557664
 31
0.0
 12
32.57296046020783
 22
28.95859921944479
 32
0.0
 13
32.57296046020783
 23
28.95859921944479
 33
0.0
  0
MTEXT
  5
CE7
330
BE4
100
AcDbEntity
  8
Dimension (ANSI)
100
AcDbMText
 10
34.73707242146947
 20
28.95859921944479
 30
0.0
 40
0.3333333383003871
 41
0.0
 71
     5
 72
     1
  1
\A1;(0.094){\P12 GA.\PGALV.}
  7
ROMANS
 73
     1
 44
1.0
1001
ACAD
1000
MTEXTBEGIN
1070
    73
1070
     1
1070
    44
1040
1.0
1070
    74
1070
     0
1000
MTEXTEND
  0
POINT
  5
CE8
330
BE4
100
AcDbEntity
  8
Defpoints
 62
     0
100
AcDbPoint
 10
32.57296046020783
 20
19.92911610949914
 30
0.0
  0
POINT
  5
CE9
330
BE4
100
AcDbEntity
  8
Defpoints
 62
     0
100
AcDbPoint
 10
32.47921046020784
 20
19.92911610949914
 30
0.0
  0
POINT
  5
CEA
330
BE4
100
AcDbEntity
  8
Defpoints
 62
     0
100
AcDbPoint
 10
32.47921046020784
 20
28.95859921944479
 30
0.0
  0
ENDBLK
  5
BE6
330
BE4
100
AcDbEntity
  8
0
100
AcDbBlockEnd
  0
BLOCK
  5
CFD
330
CFC
100
AcDbEntity
  8
0
100
AcDbBlockBegin
  2
*D16
 70
     1
 10
0.0
 20
0.0
 30
0.0
  3
*D16
  1

  0
LINE
  5
DD7
330
CFC
100
AcDbEntity
  8
Dimension (ANSI)
100
AcDbLine
 10
32.47921046020784
 20
27.64358703268726
 30
0.0
 11
32.47921046020784
 21
25.91614579055344
 31
0.0
  0
LINE
  5
DD8
330
CFC
100
AcDbEntity
  8
Dimension (ANSI)
100
AcDbLine
 10
32.15112647813755
 20
26.33281245722011
 30
0.0
 11
31.82304249606727
 21
26.33281245722011
 31
0.0
  0
LINE
  5
DD9
330
CFC
100
AcDbEntity
  8
Dimension (ANSI)
100
AcDbLine
 10
33.58129444227812
 20
26.33281245722011
 30
0.0
 11
34.03878450656397
 21
26.33281245722011
 31
0.0
  0
SOLID
  5
DDA
330
CFC
100
AcDbEntity
  8
Dimension (ANSI)
100
AcDbTrace
 10
32.15112647813755
 20
26.3874931208985
 30
0.0
 11
32.15112647813755
 21
26.27813179354173
 31
0.0
 12
32.47921046020784
 22
26.33281245722011
 32
0.0
 13
32.47921046020784
 23
26.33281245722011
 33
0.0
  0
SOLID
  5
DDB
330
CFC
100
AcDbEntity
  8
Dimension (ANSI)
100
AcDbTrace
 10
33.58129444227812
 20
26.3874931208985
 30
0.0
 11
33.58129444227812
 21
26.27813179354173
 31
0.0
 12
33.25321046020783
 22
26.33281245722011
 32
0.0
 13
33.25321046020783
 23
26.33281245722011
 33
0.0
  0
MTEXT
  5
DDC
330
CFC
100
AcDbEntity
  8
Dimension (ANSI)
100
AcDbMText
 10
34.14377138320439
 20
26.4994791263703
 30
0.0
 40
0.3333333383003871
 41
0.0
 71
     1
 72
     1
  1
\A1;0.77
  7
ROMANS
 73
     1
 44
1.0
1001
ACAD
1000
MTEXTBEGIN
1070
    73
1070
     1
1070
    44
1040
1.0
1070
    74
1070
     0
1000
MTEXTEND
  0
POINT
  5
DDD
330
CFC
100
AcDbEntity
  8
Defpoints
 62
     0
100
AcDbPoint
 10
32.47921046020784
 20
27.8519203660206
 30
0.0
  0
POINT
  5
DDE
330
CFC
100
AcDbEntity
  8
Defpoints
 62
     0
100
AcDbPoint
 10
33.25321046020783
 20
18.46972036602009
 30
0.0
  0
POINT
  5
DDF
330
CFC
100
AcDbEntity
  8
Defpoints
 62
     0
100
AcDbPoint
 10
33.25321046020783
 20
26.33281245722011
 30
0.0
  0
ENDBLK
  5
CFE
330
CFC
100
AcDbEntity
  8
0
100
AcDbBlockEnd
  0
ENDSEC
  0
SECTION
  2
ENTITIES
  0
LINE
  5
107
330
6C
100
AcDbEntity
  8
Visible (ANSI)
100
AcDbLine
 10
23.04122360536568
 20
9.08772036602059
 30
0.0
 11
23.04122360536568
 21
27.8517203660206
 31
0.0
  0
LINE
  5
108
330
6C
100
AcDbEntity
  8
Visible (ANSI)
100
AcDbLine
 10
23.04122360536569
 20
9.08772036602059
 30
0.0
 11
22.93187360536569
 21
9.08772036602059
 31
0.0
  0
LINE
  5
109
330
6C
100
AcDbEntity
  8
Visible (ANSI)
100
AcDbLine
 10
23.04122360536568
 20
27.8517203660206
 30
0.0
 11
22.93187360536568
 21
27.8517203660206
 31
0.0
  0
LINE
  5
10A
330
6C
100
AcDbEntity
  8
Visible (ANSI)
100
AcDbLine
 10
22.93167360536568
 20
27.8519203660206
 30
0.0
 11
23.04122360536568
 21
27.8519203660206
 31
0.0
  0
LINE
  5
10B
330
6C
100
AcDbEntity
  8
Visible (ANSI)
100
AcDbLine
 10
22.93167360536568
 20
27.8517203660206
 30
0.0
 11
22.93167360536568
 21
27.8519203660206
 31
0.0
  0
LINE
  5
10C
330
6C
100
AcDbEntity
  8
Visible (ANSI)
100
AcDbLine
 10
22.93167360536568
 20
9.087520366020589
 30
0.0
 11
22.93167360536568
 21
9.08772036602059
 31
0.0
  0
LINE
  5
10D
330
6C
100
AcDbEntity
  8
Visible (ANSI)
100
AcDbLine
 10
23.04122360536568
 20
9.087520366020589
 30
0.0
 11
22.93167360536568
 21
9.087520366020589
 31
0.0
  0
LINE
  5
10E
330
6C
100
AcDbEntity
  8
Hidden (ANSI)
 48
1.089346885681152
100
AcDbLine
 10
22.94747360536568
 20
27.8517203660206
 30
0.0
 11
22.94747360536568
 21
9.08772036602059
 31
0.0
  0
LINE
  5
10F
330
6C
100
AcDbEntity
  8
Visible (ANSI)
100
AcDbLine
 10
22.93167360536568
 20
9.08772036602059
 30
0.0
 11
22.93187360536568
 21
9.08772036602059
 31
0.0
  0
LINE
  5
110
330
6C
100
AcDbEntity
  8
Visible (ANSI)
100
AcDbLine
 10
22.93187360536568
 20
27.8517203660206
 30
0.0
 11
22.93167360536568
 21
27.8517203660206
 31
0.0
  0
LINE
  5
111
330
6C
100
AcDbEntity
  8
Visible (ANSI)
100
AcDbLine
 10
23.04122360536568
 20
29.0697203660206
 30
0.0
 11
23.04122360536568
 21
27.8519203660206
 31
0.0
  0
LINE
  5
112
330
6C
100
AcDbEntity
  8
Visible (ANSI)
100
AcDbLine
 10
9.341223605365673
 20
29.5697203660206
 30
0.0
 11
22.54122360536567
 21
29.5697203660206
 31
0.0
  0
LINE
  5
113
330
6C
100
AcDbEntity
  8
Visible (ANSI)
100
AcDbLine
 10
8.841223605365675
 20
27.8519203660206
 30
0.0
 11
8.841223605365673
 21
29.0697203660206
 31
0.0
  0
LINE
  5
114
330
6C
100
AcDbEntity
  8
Visible (ANSI)
100
AcDbLine
 10
8.84122360536568
 20
7.869720366020598
 30
0.0
 11
8.84122360536568
 21
9.087520366020598
 31
0.0
  0
LINE
  5
115
330
6C
100
AcDbEntity
  8
Visible (ANSI)
100
AcDbLine
 10
22.54122360536568
 20
7.369720366020597
 30
0.0
 11
9.341223605365682
 21
7.369720366020597
 31
0.0
  0
LINE
  5
116
330
6C
100
AcDbEntity
  8
Visible (ANSI)
100
AcDbLine
 10
23.04122360536568
 20
9.087520366020589
 30
0.0
 11
23.04122360536568
 21
7.869720366020598
 31
0.0
  0
LINE
  5
117
330
6C
100
AcDbEntity
  8
Visible (ANSI)
100
AcDbLine
 10
22.54122360536567
 20
29.5697203660206
 30
0.0
 11
23.04122360536568
 21
29.0697203660206
 31
0.0
  0
LINE
  5
118
330
6C
100
AcDbEntity
  8
Visible (ANSI)
100
AcDbLine
 10
8.841223605365673
 20
29.0697203660206
 30
0.0
 11
9.341223605365673
 21
29.5697203660206
 31
0.0
  0
LINE
  5
119
330
6C
100
AcDbEntity
  8
Visible (ANSI)
100
AcDbLine
 10
8.841223605365675
 20
27.8519203660206
 30
0.0
 11
8.950773605365668
 21
27.8519203660206
 31
0.0
  0
LINE
  5
11A
330
6C
100
AcDbEntity
  8
Visible (ANSI)
100
AcDbLine
 10
8.950773605365668
 20
27.8519203660206
 30
0.0
 11
8.950773605365668
 21
27.85172036602059
 31
0.0
  0
LINE
  5
11B
330
6C
100
AcDbEntity
  8
Visible (ANSI)
100
AcDbLine
 10
8.950773605365673
 20
9.087720366020597
 30
0.0
 11
8.950773605365673
 21
9.087520366020598
 31
0.0
  0
LINE
  5
11C
330
6C
100
AcDbEntity
  8
Visible (ANSI)
100
AcDbLine
 10
8.950773605365673
 20
9.087520366020598
 30
0.0
 11
8.84122360536568
 21
9.087520366020598
 31
0.0
  0
LINE
  5
11D
330
6C
100
AcDbEntity
  8
Visible (ANSI)
100
AcDbLine
 10
8.84122360536568
 20
27.85172036602059
 30
0.0
 11
8.841223605365685
 21
9.087720366020599
 31
0.0
  0
LINE
  5
11E
330
6C
100
AcDbEntity
  8
Visible (ANSI)
100
AcDbLine
 10
8.841223605365678
 20
27.85172036602059
 30
0.0
 11
8.950573605365667
 21
27.85172036602059
 31
0.0
  0
LINE
  5
11F
330
6C
100
AcDbEntity
  8
Visible (ANSI)
100
AcDbLine
 10
8.841223605365685
 20
9.087720366020597
 30
0.0
 11
8.950573605365674
 21
9.087720366020599
 31
0.0
  0
LINE
  5
120
330
6C
100
AcDbEntity
  8
Hidden (ANSI)
 48
1.089346885681152
100
AcDbLine
 10
8.934973605365685
 20
9.087720366020597
 30
0.0
 11
8.93497360536568
 21
27.85172036602059
 31
0.0
  0
LINE
  5
121
330
6C
100
AcDbEntity
  8
Visible (ANSI)
100
AcDbLine
 10
8.950773605365668
 20
27.85172036602059
 30
0.0
 11
8.950573605365667
 21
27.85172036602059
 31
0.0
  0
LINE
  5
122
330
6C
100
AcDbEntity
  8
Visible (ANSI)
100
AcDbLine
 10
8.950573605365674
 20
9.087720366020597
 30
0.0
 11
8.950773605365673
 21
9.087720366020597
 31
0.0
  0
LINE
  5
123
330
6C
100
AcDbEntity
  8
Visible (ANSI)
100
AcDbLine
 10
9.341223605365682
 20
7.369720366020597
 30
0.0
 11
8.84122360536568
 21
7.869720366020598
 31
0.0
  0
LINE
  5
124
330
6C
100
AcDbEntity
  8
Visible (ANSI)
100
AcDbLine
 10
23.04122360536568
 20
7.869720366020598
 30
0.0
 11
22.54122360536568
 21
7.369720366020597
 31
0.0
  0
CIRCLE
  5
125
330
6C
100
AcDbEntity
  8
Visible (ANSI)
100
AcDbCircle
 10
22.52122360536568
 20
29.0497203660206
 30
0.0
 40
0.25
  0
CIRCLE
  5
126
330
6C
100
AcDbEntity
  8
Visible (ANSI)
100
AcDbCircle
 10
9.36122360536568
 20
29.0497203660206
 30
0.0
 40
0.25
  0
CIRCLE
  5
127
330
6C
100
AcDbEntity
  8
Visible (ANSI)
100
AcDbCircle
 10
9.36122360536568
 20
7.889720366020597
 30
0.0
 40
0.25
  0
CIRCLE
  5
128
330
6C
100
AcDbEntity
  8
Visible (ANSI)
100
AcDbCircle
 10
22.52122360536569
 20
7.889720366020597
 30
0.0
 40
0.25
  0
CIRCLE
  5
129
330
6C
100
AcDbEntity
  8
Visible (ANSI)
100
AcDbCircle
 10
22.52122360536568
 20
28.2997203660206
 30
0.0
 40
0.15625
  0
CIRCLE
  5
12A
330
6C
100
AcDbEntity
  8
Visible (ANSI)
100
AcDbCircle
 10
9.36122360536568
 20
28.2997203660206
 30
0.0
 40
0.15625
  0
CIRCLE
  5
12B
330
6C
100
AcDbEntity
  8
Visible (ANSI)
100
AcDbCircle
 10
9.36122360536568
 20
8.639720366020597
 30
0.0
 40
0.15625
  0
CIRCLE
  5
12C
330
6C
100
AcDbEntity
  8
Visible (ANSI)
100
AcDbCircle
 10
22.52122360536569
 20
8.639720366020597
 30
0.0
 40
0.15625
  0
MTEXT
  5
12E
330
6C
100
AcDbEntity
  8
Symbol (ANSI)
100
AcDbMText
 10
13.93411381080225
 20
3.4223729650272
 30
0.0
 40
0.4000000049435874
 41
0.0
 71
     7
 72
     1
  1
FRONT VIEW
  7
Text Style168
 73
     1
 44
1.0
1001
ACAD
1000
MTEXTBEGIN
1070
    73
1070
     1
1070
    44
1040
1.0
1070
    74
1070
     0
1000
MTEXTEND
  0
LINE
  5
130
330
6C
100
AcDbEntity
  8
Symbol (ANSI)
370
    30
100
AcDbLine
 10
13.89411370790763
 20
3.340800840444233
 30
0.0
 11
17.10999705552655
 21
3.340800840444233
 31
0.0
  0
LINE
  5
131
330
6C
100
AcDbEntity
  8
Visible (ANSI)
100
AcDbLine
 10
32.58856046020784
 20
9.08772036602059
 30
0.0
 11
33.25321046020783
 21
9.08772036602059
 31
0.0
  0
LINE
  5
132
330
6C
100
AcDbEntity
  8
Visible (ANSI)
100
AcDbLine
 10
33.25321046020783
 20
27.8517203660206
 30
0.0
 11
33.25321046020783
 21
9.08772036602059
 31
0.0
  0
LINE
  5
133
330
6C
100
AcDbEntity
  8
Visible (ANSI)
100
AcDbLine
 10
33.25321046020783
 20
27.8517203660206
 30
0.0
 11
32.58856046020784
 21
27.8517203660206
 31
0.0
  0
LINE
  5
134
330
6C
100
AcDbEntity
  8
Visible (ANSI)
100
AcDbLine
 10
32.58856046020785
 20
9.08772036602059
 30
0.0
 11
32.4792104602078
 21
9.08772036602059
 31
0.0
  0
LINE
  5
135
330
6C
100
AcDbEntity
  8
Visible (ANSI)
100
AcDbLine
 10
32.58856046020784
 20
27.8517203660206
 30
0.0
 11
32.4792104602078
 21
27.8517203660206
 31
0.0
  0
LINE
  5
136
330
6C
100
AcDbEntity
  8
Visible (ANSI)
100
AcDbLine
 10
32.4792104602078
 20
9.08772036602059
 30
0.0
 11
32.4792104602078
 21
27.8517203660206
 31
0.0
  0
LINE
  5
137
330
6C
100
AcDbEntity
  8
Visible (ANSI)
100
AcDbLine
 10
32.47921046020783
 20
27.8519203660206
 30
0.0
 11
32.57296046020783
 21
27.8519203660206
 31
0.0
  0
LINE
  5
138
330
6C
100
AcDbEntity
  8
Visible (ANSI)
100
AcDbLine
 10
32.5729604602078
 20
27.8519203660206
 30
0.0
 11
32.5729604602078
 21
27.8517203660206
 31
0.0
  0
LINE
  5
139
330
6C
100
AcDbEntity
  8
Visible (ANSI)
100
AcDbLine
 10
32.4792104602078
 20
27.8517203660206
 30
0.0
 11
32.4792104602078
 21
27.8519203660206
 31
0.0
  0
LINE
  5
13A
330
6C
100
AcDbEntity
  8
Visible (ANSI)
100
AcDbLine
 10
32.5729604602078
 20
9.08772036602059
 30
0.0
 11
32.5729604602078
 21
9.087520366020589
 31
0.0
  0
LINE
  5
13B
330
6C
100
AcDbEntity
  8
Visible (ANSI)
100
AcDbLine
 10
32.4792104602078
 20
9.087520366020589
 30
0.0
 11
32.4792104602078
 21
9.08772036602059
 31
0.0
  0
LINE
  5
13C
330
6C
100
AcDbEntity
  8
Visible (ANSI)
100
AcDbLine
 10
32.57296046020783
 20
9.087520366020589
 30
0.0
 11
32.47921046020783
 21
9.087520366020589
 31
0.0
  0
LINE
  5
13D
330
6C
100
AcDbEntity
  8
Hidden (ANSI)
 48
1.089346885681152
100
AcDbLine
 10
32.5729604602078
 20
27.8517203660206
 30
0.0
 11
32.5729604602078
 21
9.08772036602059
 31
0.0
  0
LINE
  5
13E
330
6C
100
AcDbEntity
  8
Visible (ANSI)
100
AcDbLine
 10
32.57296046020783
 20
7.869720366020598
 30
0.0
 11
32.57296046020783
 21
9.087520366020589
 31
0.0
  0
LINE
  5
13F
330
6C
100
AcDbEntity
  8
Visible (ANSI)
100
AcDbLine
 10
32.57296046020783
 20
27.8519203660206
 30
0.0
 11
32.57296046020783
 21
29.0697203660206
 31
0.0
  0
LINE
  5
140
330
6C
100
AcDbEntity
  8
Visible (ANSI)
100
AcDbLine
 10
32.47921046020783
 20
29.0697203660206
 30
0.0
 11
32.47921046020783
 21
27.8519203660206
 31
0.0
  0
LINE
  5
141
330
6C
100
AcDbEntity
  8
Visible (ANSI)
100
AcDbLine
 10
32.47921046020783
 20
9.087520366020589
 30
0.0
 11
32.47921046020783
 21
7.869720366020598
 31
0.0
  0
LINE
  5
142
330
6C
100
AcDbEntity
  8
Visible (ANSI)
100
AcDbLine
 10
32.57296046020768
 20
7.369720366020597
 30
0.0
 11
32.57296046020783
 21
7.869720366020598
 31
0.0
  0
LINE
  5
143
330
6C
100
AcDbEntity
  8
Visible (ANSI)
100
AcDbLine
 10
32.47921046020783
 20
7.869720366020598
 30
0.0
 11
32.47921046020768
 21
7.369720366020597
 31
0.0
  0
LINE
  5
144
330
6C
100
AcDbEntity
  8
Visible (ANSI)
100
AcDbLine
 10
32.47921046020768
 20
7.369720366020597
 30
0.0
 11
32.57296046020768
 21
7.369720366020597
 31
0.0
  0
LINE
  5
145
330
6C
100
AcDbEntity
  8
Visible (ANSI)
100
AcDbLine
 10
32.57296046020783
 20
7.869720366020598
 30
0.0
 11
32.47921046020783
 21
7.869720366020598
 31
0.0
  0
LINE
  5
146
330
6C
100
AcDbEntity
  8
Visible (ANSI)
100
AcDbLine
 10
32.57296046020783
 20
29.0697203660206
 30
0.0
 11
32.57296046020768
 21
29.5697203660206
 31
0.0
  0
LINE
  5
147
330
6C
100
AcDbEntity
  8
Visible (ANSI)
100
AcDbLine
 10
32.47921046020768
 20
29.5697203660206
 30
0.0
 11
32.47921046020783
 21
29.0697203660206
 31
0.0
  0
LINE
  5
148
330
6C
100
AcDbEntity
  8
Visible (ANSI)
100
AcDbLine
 10
32.47921046020783
 20
29.0697203660206
 30
0.0
 11
32.57296046020783
 21
29.0697203660206
 31
0.0
  0
LINE
  5
149
330
6C
100
AcDbEntity
  8
Visible (ANSI)
100
AcDbLine
 10
32.57296046020768
 20
29.5697203660206
 30
0.0
 11
32.47921046020768
 21
29.5697203660206
 31
0.0
  0
LINE
  5
14A
330
6C
100
AcDbEntity
  8
Hidden (ANSI)
 48
0.0534695908427239
100
AcDbLine
 10
32.47921046020767
 20
29.2997203660206
 30
0.0
 11
32.57296046020768
 21
29.2997203660206
 31
0.0
  0
LINE
  5
14B
330
6C
100
AcDbEntity
  8
Hidden (ANSI)
 48
0.0534695908427239
100
AcDbLine
 10
32.47921046020767
 20
28.7997203660206
 30
0.0
 11
32.57296046020768
 21
28.7997203660206
 31
0.0
  0
LINE
  5
14C
330
6C
100
AcDbEntity
  8
Hidden (ANSI)
 48
0.0534695908427239
100
AcDbLine
 10
32.47921046020767
 20
8.139720366020597
 30
0.0
 11
32.57296046020768
 21
8.139720366020597
 31
0.0
  0
LINE
  5
14D
330
6C
100
AcDbEntity
  8
Hidden (ANSI)
 48
0.0534695908427239
100
AcDbLine
 10
32.47921046020767
 20
7.639720366020597
 30
0.0
 11
32.57296046020768
 21
7.639720366020597
 31
0.0
  0
LINE
  5
14E
330
6C
100
AcDbEntity
  8
Hidden (ANSI)
 48
0.0534695908427239
100
AcDbLine
 10
32.47921046020767
 20
28.4559703660206
 30
0.0
 11
32.57296046020768
 21
28.4559703660206
 31
0.0
  0
LINE
  5
14F
330
6C
100
AcDbEntity
  8
Hidden (ANSI)
 48
0.0534695908427239
100
AcDbLine
 10
32.47921046020767
 20
28.1434703660206
 30
0.0
 11
32.57296046020768
 21
28.1434703660206
 31
0.0
  0
LINE
  5
150
330
6C
100
AcDbEntity
  8
Hidden (ANSI)
 48
0.0534695908427239
100
AcDbLine
 10
32.47921046020767
 20
8.795970366020597
 30
0.0
 11
32.57296046020768
 21
8.795970366020597
 31
0.0
  0
LINE
  5
151
330
6C
100
AcDbEntity
  8
Hidden (ANSI)
 48
0.0534695908427239
100
AcDbLine
 10
32.47921046020767
 20
8.483470366020597
 30
0.0
 11
32.57296046020768
 21
8.483470366020597
 31
0.0
  0
MTEXT
  5
152
330
6C
100
AcDbEntity
  8
Symbol (ANSI)
100
AcDbMText
 10
31.403389887809
 20
5.928140062858648
 30
0.0
 40
0.4000000049435874
 41
0.0
 71
     7
 72
     1
  1
SIDE VIEW
  7
Text Style168
 73
     1
 44
1.0
1001
ACAD
1000
MTEXTBEGIN
1070
    73
1070
     1
1070
    44
1040
1.0
1070
    74
1070
     0
1000
MTEXTEND
  0
LINE
  5
153
330
6C
100
AcDbEntity
  8
Symbol (ANSI)
370
    30
100
AcDbLine
 10
31.38290983512695
 20
5.845271342309625
 30
0.0
 11
34.0859892364786
 21
5.845271342309625
 31
0.0
  0
LINE
  5
154
330
6C
100
AcDbEntity
  8
Visible Narrow (ANSI)
100
AcDbLine
 10
52.22380692373853
 20
13.69481958977497
 30
0.0
 11
52.22380692373853
 21
25.20016027768408
 31
0.0
  0
ELLIPSE
  5
155
330
6C
100
AcDbEntity
  8
Visible (ANSI)
100
AcDbEllipse
 10
52.16581532884645
 20
13.72821472825236
 30
0.0
 11
0.0820125000000008
 21
0.0000000000000048
 31
0.0
210
0.0
220
0.0
230
1.0
 40
0.5758617009853089
 41
3.926990816987226
 42
5.497787143782154
  0
LINE
  5
156
330
6C
100
AcDbEntity
  8
Visible (ANSI)
100
AcDbLine
 10
52.10771766793723
 20
25.20022135704113
 30
0.0
 11
52.10782414495117
 21
25.20028267307549
 31
0.0
  0
ELLIPSE
  5
157
330
6C
100
AcDbEntity
  8
Visible (ANSI)
100
AcDbEllipse
 10
52.16581532884645
 20
25.23355541616145
 30
0.0
 11
0.0820124999999814
 21
0.0000000000000048
 31
0.0
210
0.0
220
0.0
230
1.0
 40
0.5758617009853089
 41
3.926990816987237
 42
3.987598387465485
  0
ELLIPSE
  5
158
330
6C
100
AcDbEntity
  8
Visible (ANSI)
100
AcDbEllipse
 10
52.16581532884636
 20
25.23355541616153
 30
0.0
 11
0.0820125000001574
 21
-0.0000000000000001
 31
0.0
210
0.0
220
0.0
230
1.0
 40
0.575861700985309
 41
5.363700662383163
 42
5.497787143782119
  0
LINE
  5
159
330
6C
100
AcDbEntity
  8
Visible Narrow (ANSI)
100
AcDbLine
 10
52.10782373395439
 20
13.69481958977496
 30
0.0
 11
52.10782373395441
 21
25.20016027768406
 31
0.0
  0
LINE
  5
15A
330
6C
100
AcDbEntity
  8
Visible (ANSI)
100
AcDbLine
 10
52.16581532884648
 20
25.1668877712754
 30
0.0
 11
52.21553377439865
 21
25.19551871990143
 31
0.0
  0
LINE
  5
15B
330
6C
100
AcDbEntity
  8
Visible (ANSI)
100
AcDbLine
 10
52.10771766793723
 20
25.20034398910985
 30
0.0
 11
52.16581532884648
 21
25.1668877712754
 31
0.0
  0
LINE
  5
15C
330
6C
100
AcDbEntity
  8
Visible (ANSI)
100
AcDbLine
 10
52.10771766793723
 20
25.20022135704113
 30
0.0
 11
52.10771766793723
 21
25.20034398910985
 31
0.0
  0
LINE
  5
15D
330
6C
100
AcDbEntity
  8
Visible (ANSI)
100
AcDbLine
 10
52.10771766793723
 20
13.6947580370633
 30
0.0
 11
52.10771766793723
 21
13.69488066913203
 31
0.0
  0
LINE
  5
15E
330
6C
100
AcDbEntity
  8
Visible (ANSI)
100
AcDbLine
 10
52.10771766793723
 20
13.6947580370633
 30
0.0
 11
52.10782414495262
 21
13.6948193530985
 31
0.0
  0
LINE
  5
15F
330
6C
100
AcDbEntity
  8
Visible (ANSI)
100
AcDbLine
 10
52.2148186872555
 20
13.69034455915347
 30
0.0
 11
52.21553377439864
 21
13.68993276785487
 31
0.0
  0
LINE
  5
160
330
6C
100
AcDbEntity
  8
Visible (ANSI)
100
AcDbLine
 10
52.16581532884647
 20
13.66130181922885
 30
0.0
 11
52.10771766793723
 21
13.6947580370633
 31
0.0
  0
LINE
  5
161
330
6C
100
AcDbEntity
  8
Visible (ANSI)
100
AcDbLine
 10
52.21553377439864
 20
13.68993276785487
 30
0.0
 11
52.16581532884647
 21
13.66130181922885
 31
0.0
  0
LINE
  5
162
330
6C
100
AcDbEntity
  8
Visible (ANSI)
100
AcDbLine
 10
52.22380692373853
 20
13.69481958977497
 30
0.0
 11
52.57629081532519
 21
13.89780156315405
 31
0.0
  0
LINE
  5
163
330
6C
100
AcDbEntity
  8
Visible (ANSI)
100
AcDbLine
 10
52.5762908153252
 20
25.40314225106316
 30
0.0
 11
52.57629081532519
 21
13.89780156315405
 31
0.0
  0
LINE
  5
164
330
6C
100
AcDbEntity
  8
Visible (ANSI)
100
AcDbLine
 10
52.5762908153252
 20
25.40314225106316
 30
0.0
 11
52.22380692373853
 21
25.20016027768408
 31
0.0
  0
LINE
  5
165
330
6C
100
AcDbEntity
  8
Visible (ANSI)
100
AcDbLine
 10
52.10771766793723
 20
13.69488066913203
 30
0.0
 11
52.10782373395439
 21
13.69481958977496
 31
0.0
  0
LINE
  5
166
330
6C
100
AcDbEntity
  8
Visible (ANSI)
100
AcDbLine
 10
52.52657236977301
 20
25.43177319968918
 30
0.0
 11
52.5762908153252
 21
25.40314225106316
 31
0.0
  0
LINE
  5
167
330
6C
100
AcDbEntity
  8
Visible (ANSI)
100
AcDbLine
 10
52.21553377439865
 20
25.25265798508476
 30
0.0
 11
52.52657236977301
 21
25.43177319968918
 31
0.0
  0
LINE
  5
168
330
6C
100
AcDbEntity
  8
Visible (ANSI)
100
AcDbLine
 10
52.10782373395441
 20
25.20016027768406
 30
0.0
 11
52.10771766793723
 21
25.20022135704113
 31
0.0
  0
ELLIPSE
  5
169
330
6C
100
AcDbEntity
  8
Visible (ANSI)
100
AcDbEllipse
 10
51.93976212973585
 20
26.08876850788271
 30
0.0
 11
-0.093568539672076
 21
0.162484394277221
 31
0.0
210
0.0
220
0.0
230
1.0
 40
0.5780931159158129
 41
0.2678448778124958
 42
2.873747775777214
  0
ELLIPSE
  5
16A
330
6C
100
AcDbEntity
  8
Visible (ANSI)
100
AcDbEllipse
 10
44.96061819942359
 20
30.10779020301243
 30
0.0
 11
-0.0935685396720758
 21
0.1624843942772205
 31
0.0
210
0.0
220
0.0
230
1.0
 40
0.578093115915813
 41
0.2678448778124949
 42
2.873747775777213
  0
ELLIPSE
  5
16B
330
6C
100
AcDbEntity
  8
Visible (ANSI)
100
AcDbEllipse
 10
44.96061819942357
 20
17.13331733176129
 30
0.0
 11
-0.0935685396720756
 21
0.1624843942772204
 31
0.0
210
0.0
220
0.0
230
1.0
 40
0.5780931159158129
 41
0.2678448778125091
 42
2.873747775777214
  0
ELLIPSE
  5
16C
330
6C
100
AcDbEntity
  8
Visible (ANSI)
100
AcDbEllipse
 10
51.93976212973584
 20
13.11429563663156
 30
0.0
 11
-0.0935685396720756
 21
0.1624843942772203
 31
0.0
210
0.0
220
0.0
230
1.0
 40
0.578093115915813
 41
0.2678448778125082
 42
2.873747775777213
  0
ELLIPSE
  5
16D
330
6C
100
AcDbEntity
  8
Visible (ANSI)
100
AcDbEllipse
 10
51.93976212973585
 20
25.62889825015878
 30
0.0
 11
0.0584803372950539
 21
-0.1015527464232602
 31
0.0
210
0.0
220
0.0
230
0.9999999999999998
 40
0.578093115915813
 41
3.578838513251621
 42
5.845939447516869
  0
ELLIPSE
  5
16E
330
6C
100
AcDbEntity
  8
Visible (ANSI)
100
AcDbEllipse
 10
44.96061819942359
 20
29.6479199452885
 30
0.0
 11
0.0584803372950535
 21
-0.1015527464232596
 31
0.0
210
0.0
220
0.0
230
1.0
 40
0.578093115915813
 41
3.578838513251621
 42
5.845939447516869
  0
ELLIPSE
  5
16F
330
6C
100
AcDbEntity
  8
Visible (ANSI)
100
AcDbEllipse
 10
44.96061819942357
 20
17.59318758948521
 30
0.0
 11
0.0584803372950534
 21
-0.1015527464232592
 31
0.0
210
0.0
220
0.0
230
1.0
 40
0.5780931159158131
 41
3.578838513251598
 42
5.845939447516868
  0
ELLIPSE
  5
170
330
6C
100
AcDbEntity
  8
Visible (ANSI)
100
AcDbEllipse
 10
51.93976212973584
 20
13.57416589435549
 30
0.0
 11
0.0584803372950533
 21
-0.1015527464232591
 31
0.0
210
0.0
220
0.0
230
0.9999999999999998
 40
0.578093115915813
 41
3.5788385132516
 42
5.845939447516869
  0
ELLIPSE
  5
171
330
6C
100
AcDbEntity
  8
Visible (ANSI)
100
AcDbEllipse
 10
51.89004368418369
 20
26.06013755925668
 30
0.0
 11
-0.0935685396720757
 21
0.1624843942772205
 31
0.0
210
0.0
220
0.0
230
1.0
 40
0.578093115915813
 41
0.0
 42
6.283185307179586
  0
ELLIPSE
  5
172
330
6C
100
AcDbEntity
  8
Visible (ANSI)
100
AcDbEllipse
 10
44.91089975387141
 20
30.0791592543864
 30
0.0
 11
-0.0935685396720757
 21
0.1624843942772205
 31
0.0
210
0.0
220
0.0
230
1.0
 40
0.578093115915813
 41
0.0
 42
6.283185307179586
  0
ELLIPSE
  5
173
330
6C
100
AcDbEntity
  8
Visible (ANSI)
100
AcDbEllipse
 10
44.9108997538714
 20
17.10468638313526
 30
0.0
 11
-0.0935685396720757
 21
0.1624843942772205
 31
0.0
210
0.0
220
0.0
230
1.0
 40
0.578093115915813
 41
0.0
 42
6.283185307179586
  0
ELLIPSE
  5
174
330
6C
100
AcDbEntity
  8
Visible (ANSI)
100
AcDbEllipse
 10
51.89004368418367
 20
13.08566468800554
 30
0.0
 11
-0.0935685396720757
 21
0.1624843942772205
 31
0.0
210
0.0
220
0.0
230
1.0
 40
0.578093115915813
 41
0.0
 42
6.283185307179586
  0
ELLIPSE
  5
175
330
6C
100
AcDbEntity
  8
Visible (ANSI)
100
AcDbEllipse
 10
51.89004368418369
 20
25.60026730153275
 30
0.0
 11
-0.0584803372950473
 21
0.1015527464232627
 31
0.0
210
0.0
220
0.0
230
0.9999999999999998
 40
0.578093115915813
 41
0.0
 42
6.283185307179586
  0
ELLIPSE
  5
176
330
6C
100
AcDbEntity
  8
Visible (ANSI)
100
AcDbEllipse
 10
44.91089975387141
 20
29.61928899666247
 30
0.0
 11
-0.0584803372950473
 21
0.1015527464232627
 31
0.0
210
0.0
220
0.0
230
0.9999999999999998
 40
0.578093115915813
 41
0.0
 42
6.283185307179586
  0
ELLIPSE
  5
177
330
6C
100
AcDbEntity
  8
Visible (ANSI)
100
AcDbEllipse
 10
44.9108997538714
 20
17.56455664085919
 30
0.0
 11
-0.0584803372950473
 21
0.1015527464232627
 31
0.0
210
0.0
220
0.0
230
0.9999999999999998
 40
0.578093115915813
 41
0.0
 42
6.283185307179586
  0
ELLIPSE
  5
178
330
6C
100
AcDbEntity
  8
Visible (ANSI)
100
AcDbEllipse
 10
51.89004368418367
 20
13.54553494572947
 30
0.0
 11
-0.0584803372950473
 21
0.1015527464232627
 31
0.0
210
0.0
220
0.0
230
0.9999999999999998
 40
0.578093115915813
 41
0.0
 42
6.283185307179586
  0
LINE
  5
179
330
6C
100
AcDbEntity
  8
Visible (ANSI)
100
AcDbLine
 10
52.21553377439864
 20
12.94322610137994
 30
0.0
 11
52.21553377439864
 21
13.68993276785487
 31
0.0
  0
LINE
  5
17A
330
6C
100
AcDbEntity
  8
Visible (ANSI)
100
AcDbLine
 10
51.95036873145365
 20
26.40150395086442
 30
0.0
 11
44.95001159770579
 21
30.4327415174079
 31
0.0
  0
LINE
  5
17B
330
6C
100
AcDbEntity
  8
Visible (ANSI)
100
AcDbLine
 10
52.21553377439865
 20
25.19551871990143
 30
0.0
 11
52.21553377439865
 21
25.94222538637636
 31
0.0
  0
LINE
  5
17C
330
6C
100
AcDbEntity
  8
Visible (ANSI)
100
AcDbLine
 10
52.16581532884648
 20
25.91359443775033
 30
0.0
 11
52.16581532884648
 21
25.1668877712754
 31
0.0
  0
LINE
  5
17D
330
6C
100
AcDbEntity
  8
Visible (ANSI)
100
AcDbLine
 10
44.90029315215362
 20
30.40411056878188
 30
0.0
 11
51.90065028590148
 21
26.37287300223839
 31
0.0
  0
LINE
  5
17E
330
6C
100
AcDbEntity
  8
Visible (ANSI)
100
AcDbLine
 10
44.63512810920862
 20
29.50352212316309
 30
0.0
 11
44.63512810920862
 21
30.25022878963802
 31
0.0
  0
LINE
  5
17F
330
6C
100
AcDbEntity
  8
Visible (ANSI)
100
AcDbLine
 10
44.6351281092086
 20
17.2512295046416
 30
0.0
 11
44.6351281092086
 21
17.99793617111654
 31
0.0
  0
LINE
  5
180
330
6C
100
AcDbEntity
  8
Visible (ANSI)
100
AcDbLine
 10
51.90065028590147
 20
12.76071337361006
 30
0.0
 11
44.90029315215361
 21
16.79195094015355
 31
0.0
  0
LINE
  5
181
330
6C
100
AcDbEntity
  8
Visible (ANSI)
100
AcDbLine
 10
52.16581532884647
 20
13.66130181922885
 30
0.0
 11
52.16581532884647
 21
12.91459515275392
 31
0.0
  0
LINE
  5
182
330
6C
100
AcDbEntity
  8
Visible (ANSI)
100
AcDbLine
 10
51.95036873145364
 20
12.78934432223609
 30
0.0
 11
52.21553377439864
 21
12.94322610137994
 31
0.0
  0
LINE
  5
183
330
6C
100
AcDbEntity
  8
Visible (ANSI)
100
AcDbLine
 10
52.16581532884647
 20
12.91459515275392
 30
0.0
 11
51.90065028590147
 21
12.76071337361006
 31
0.0
  0
LINE
  5
184
330
6C
100
AcDbEntity
  8
Visible (ANSI)
100
AcDbLine
 10
51.90065028590147
 20
12.76071337361006
 30
0.0
 11
51.95036873145364
 21
12.78934432223609
 31
0.0
  0
LINE
  5
185
330
6C
100
AcDbEntity
  8
Visible (ANSI)
100
AcDbLine
 10
52.21553377439864
 20
12.94322610137994
 30
0.0
 11
52.16581532884647
 21
12.91459515275392
 31
0.0
  0
LINE
  5
186
330
6C
100
AcDbEntity
  8
Visible (ANSI)
100
AcDbLine
 10
52.21553377439865
 20
25.94222538637636
 30
0.0
 11
51.95036873145365
 21
26.40150395086442
 31
0.0
  0
LINE
  5
187
330
6C
100
AcDbEntity
  8
Visible (ANSI)
100
AcDbLine
 10
51.90065028590148
 20
26.37287300223839
 30
0.0
 11
52.16581532884648
 21
25.91359443775033
 31
0.0
  0
LINE
  5
188
330
6C
100
AcDbEntity
  8
Visible (ANSI)
100
AcDbLine
 10
52.16581532884648
 20
25.91359443775033
 30
0.0
 11
52.21553377439865
 21
25.94222538637636
 31
0.0
  0
LINE
  5
189
330
6C
100
AcDbEntity
  8
Visible (ANSI)
100
AcDbLine
 10
51.95036873145365
 20
26.40150395086442
 30
0.0
 11
51.90065028590148
 21
26.37287300223839
 31
0.0
  0
LINE
  5
18A
330
6C
100
AcDbEntity
  8
Visible (ANSI)
100
AcDbLine
 10
44.63512810920862
 20
30.25022878963802
 30
0.0
 11
44.90029315215362
 21
30.40411056878188
 31
0.0
  0
LINE
  5
18B
330
6C
100
AcDbEntity
  8
Visible (ANSI)
100
AcDbLine
 10
44.90029315215362
 20
30.40411056878188
 30
0.0
 11
44.95001159770579
 21
30.4327415174079
 31
0.0
  0
LINE
  5
18C
330
6C
100
AcDbEntity
  8
Visible (ANSI)
100
AcDbLine
 10
44.63512810920862
 20
29.50352212316309
 30
0.0
 11
44.69322577011786
 21
29.47006590532863
 31
0.0
  0
LINE
  5
18D
330
6C
100
AcDbEntity
  8
Visible (ANSI)
100
AcDbLine
 10
44.69322577011786
 20
29.47006590532863
 30
0.0
 11
44.69322577011786
 21
29.4699432732599
 31
0.0
  0
LINE
  5
18E
330
6C
100
AcDbEntity
  8
Visible Narrow (ANSI)
100
AcDbLine
 10
44.69311970410068
 20
29.47000435261697
 30
0.0
 11
44.69311970410068
 21
17.96466366470788
 31
0.0
  0
LINE
  5
18F
330
6C
100
AcDbEntity
  8
Visible (ANSI)
100
AcDbLine
 10
44.69322577011785
 20
17.96460258535081
 30
0.0
 11
44.69322577011785
 21
17.96447995328209
 31
0.0
  0
LINE
  5
190
330
6C
100
AcDbEntity
  8
Visible (ANSI)
100
AcDbLine
 10
44.69322577011785
 20
17.96447995328209
 30
0.0
 11
44.6351281092086
 21
17.99793617111654
 31
0.0
  0
ELLIPSE
  5
191
330
6C
100
AcDbEntity
  8
Visible (ANSI)
100
AcDbEllipse
 10
44.75111129899273
 20
29.50339949109435
 30
0.0
 11
-0.0820124999999747
 21
0.0000000000000001
 31
0.0
210
0.0
220
0.0
230
1.0
 40
0.5758617009853091
 41
0.7247905929201801
 42
0.7853981633974776
  0
ELLIPSE
  5
192
330
6C
100
AcDbEntity
  8
Visible (ANSI)
100
AcDbEllipse
 10
44.75111129899274
 20
17.99805880318527
 30
0.0
 11
-0.0820124999999999
 21
0.000000000000002
 31
0.0
210
0.0
220
0.0
230
1.0
 40
0.5758617009852984
 41
0.0
 42
0.7853981633974918
  0
LINE
  5
193
330
6C
100
AcDbEntity
  8
Visible (ANSI)
100
AcDbLine
 10
44.6351281092086
 20
17.99793617111654
 30
0.0
 11
44.66909879899273
 21
18.01749859031928
 31
0.0
  0
LINE
  5
194
330
6C
100
AcDbEntity
  8
Visible (ANSI)
100
AcDbLine
 10
44.66909879899275
 20
29.48395970396036
 30
0.0
 11
44.66909879899273
 21
17.99805880318527
 31
0.0
  0
LINE
  5
195
330
6C
100
AcDbEntity
  8
Visible (ANSI)
100
AcDbLine
 10
44.69322577011786
 20
29.4699432732599
 30
0.0
 11
44.69311970410068
 21
29.47000435261697
 31
0.0
  0
LINE
  5
196
330
6C
100
AcDbEntity
  8
Visible (ANSI)
100
AcDbLine
 10
44.69311970410068
 20
17.96466366470788
 30
0.0
 11
44.69322577011785
 21
17.96460258535081
 31
0.0
  0
LINE
  5
197
330
6C
100
AcDbEntity
  8
Visible (ANSI)
100
AcDbLine
 10
44.8863866566084
 20
29.64808966558713
 30
0.0
 11
44.94801227495963
 21
29.68357749899516
 31
0.0
  0
LINE
  5
198
330
6C
100
AcDbEntity
  8
Visible (ANSI)
100
AcDbLine
 10
44.97547902297061
 20
29.64213264997325
 30
0.0
 11
44.90844607267503
 21
29.60353094119397
 31
0.0
  0
LINE
  5
199
330
6C
100
AcDbEntity
  8
Visible (ANSI)
100
AcDbLine
 10
44.90029315215361
 20
16.79195094015355
 30
0.0
 11
44.6351281092086
 21
17.2512295046416
 31
0.0
  0
DIMENSION
  5
19A
330
6C
100
AcDbEntity
  8
Dimension (ANSI)
100
AcDbDimension
  2
*D4
 10
23.04122360536567
 20
33.53166262323844
 30
0.0
 11
15.94122360536567
 21
33.53166262323844
 31
0.0
 70
   160
  1
<>
 42
14.2
  3
Default (ANSI)
100
AcDbAlignedDimension
 13
8.841223605365673
 23
29.0697203660206
 33
0.0
 14
23.04122360536567
 24
29.0697203660206
 34
0.0
100
AcDbRotatedDimension
1001
ACAD
1000
DSTYLE
1002
{
1070
   289
1070
     1
1070
    73
1070
     0
1070
    74
1070
     0
1070
   271
1070
     2
1070
   272
1070
     2
1070
    48
1040
0.0
1070
    47
1040
0.0
1002
}
  0
DIMENSION
  5
287
330
6C
100
AcDbEntity
  8
Dimension (ANSI)
100
AcDbDimension
  2
*D5
 10
22.54122360536567
 20
32.24157823510182
 30
0.0
 11
15.94122360536567
 21
32.24157823510182
 31
0.0
 70
   160
  1
<>{ TYP.}
 71
     5
 42
13.2
  3
Default (ANSI)
100
AcDbAlignedDimension
 13
9.341223605365673
 23
29.5697203660206
 33
0.0
 14
22.54122360536567
 24
29.5697203660206
 34
0.0
 50
180.0
100
AcDbRotatedDimension
1001
ACAD
1000
DSTYLE
1002
{
1070
   289
1070
     1
1070
    73
1070
     0
1070
    74
1070
     0
1070
   271
1070
     2
1070
   272
1070
     2
1070
    48
1040
0.0
1070
    47
1040
0.0
1002
}
  0
DIMENSION
  5
371
330
6C
100
AcDbEntity
  8
Dimension (ANSI)
100
AcDbDimension
  2
*D6
 10
9.341223605365673
 20
32.24157823510182
 30
0.0
 11
7.310184308828245
 21
32.24157823510182
 31
0.0
 70
   160
  1
<>{\PTYP.}
 71
     5
 42
0.5
  3
Default (ANSI)
100
AcDbAlignedDimension
 13
8.841223605365673
 23
29.0697203660206
 33
0.0
 14
9.341223605365673
 24
29.5697203660206
 34
0.0
 50
180.0
100
AcDbRotatedDimension
1001
ACAD
1000
DSTYLE
1002
{
1070
   289
1070
     1
1070
    73
1070
     0
1070
    74
1070
     0
1070
   271
1070
     2
1070
   272
1070
     2
1070
    48
1040
0.0
1070
    47
1040
0.0
1002
}
  0
DIMENSION
  5
46F
330
6C
100
AcDbEntity
  8
Dimension (ANSI)
100
AcDbDimension
  2
*D7
 10
4.879281348147832
 20
7.369720366020598
 30
0.0
 11
4.879281348147832
 21
18.46972036602059
 31
0.0
 70
   160
  1
<>
 42
22.2
  3
Default (ANSI)
100
AcDbAlignedDimension
 13
9.341223605365673
 23
29.5697203660206
 33
0.0
 14
9.341223605365682
 24
7.369720366020597
 34
0.0
 50
270.0
100
AcDbRotatedDimension
1001
ACAD
1000
DSTYLE
1002
{
1070
   289
1070
     1
1070
   271
1070
     2
1070
   272
1070
     2
1070
    48
1040
0.0
1070
    47
1040
0.0
1002
}
  0
DIMENSION
  5
559
330
6C
100
AcDbEntity
  8
Dimension (ANSI)
100
AcDbDimension
  2
*D8
 10
7.249137368446807
 20
29.0697203660206
 30
0.0
 11
7.249137368446802
 21
18.46972036602059
 31
0.0
 70
   160
  1
<>{\PTYP.}
 71
     5
 42
21.2
  3
Default (ANSI)
100
AcDbAlignedDimension
 13
8.84122360536568
 23
7.869720366020597
 33
0.0
 14
8.841223605365673
 24
29.0697203660206
 34
0.0
 50
90.0
100
AcDbRotatedDimension
1001
ACAD
1000
DSTYLE
1002
{
1070
   289
1070
     1
1070
   271
1070
     2
1070
   272
1070
     2
1070
    48
1040
0.0
1070
    47
1040
0.0
1002
}
  0
DIMENSION
  5
657
330
6C
100
AcDbEntity
  8
Dimension (ANSI)
100
AcDbDimension
  2
*D9
 10
6.325413081543322
 20
29.0697203660206
 30
0.0
 11
7.266420455759377
 21
30.8527410591037
 31
0.0
 70
   160
  1
<>{\PTYP.}
 71
     5
 42
0.5
  3
Default (ANSI)
100
AcDbAlignedDimension
 13
9.341223605365673
 23
29.5697203660206
 33
0.0
 14
8.841223605365673
 24
29.0697203660206
 34
0.0
 50
90.0
100
AcDbRotatedDimension
1001
ACAD
1000
DSTYLE
1002
{
1070
   289
1070
     1
1070
   271
1070
     2
1070
   272
1070
     2
1070
    48
1040
0.0
1070
    47
1040
0.0
1002
}
  0
DIMENSION
  5
76B
330
6C
100
AcDbEntity
  8
Dimension (ANSI)
100
AcDbDimension
  2
*D10
 10
9.486223605365722
 20
8.106226716966681
 30
0.0
 11
4.70203906519008
 21
5.137486707560428
 31
0.0
 70
   163
  1
<>{ TYP. (4 PL.)}
 42
0.5
  3
Default (ANSI)
100
AcDbDiametricDimension
 15
9.236223605365637
 25
7.673214015074511
 35
0.0
 40
0.0
1001
ACAD
1000
DSTYLE
1002
{
1070
   144
1040
1.0
1070
   271
1070
     2
1070
   272
1070
     2
1070
    48
1040
0.0
1070
    47
1040
0.0
1002
}
1001
ACAD_DSTYLE_DIMRADIAL_EXTENSION
1070
   387
1070
     1
1070
   388
1040
0.0
1070
   390
1040
0.0
  0
DIMENSION
  5
815
330
6C
100
AcDbEntity
  8
Dimension (ANSI)
100
AcDbDimension
  2
*D11
 10
9.439348605365706
 20
8.775036835361898
 30
0.0
 11
4.812764809069971
 21
6.079269321666207
 31
0.0
 70
   163
  1
<>{ TYP. (4 PL.)}
 42
0.3125
  3
Default (ANSI)
100
AcDbDiametricDimension
 15
9.283098605365653
 25
8.504403896679294
 35
0.0
 40
0.0
1001
ACAD
1000
DSTYLE
1002
{
1070
   144
1040
1.000000000000005
1070
   271
1070
     2
1070
   272
1070
     2
1070
    48
1040
0.0
1070
    47
1040
0.0
1002
}
1001
ACAD_DSTYLE_DIMRADIAL_EXTENSION
1070
   387
1070
     1
1070
   388
1040
0.0
1070
   390
1040
0.0
  0
DIMENSION
  5
8BE
330
6C
100
AcDbEntity
  8
Dimension (ANSI)
100
AcDbDimension
  2
*D12
 10
26.1267253388442
 20
7.889720366020595
 30
0.0
 11
25.18571796462814
 21
6.349079002738501
 31
0.0
 70
   160
  1
<>{ \PTYP.}
 71
     5
 42
0.5199999999999987
  3
Default (ANSI)
100
AcDbAlignedDimension
 13
22.54122360536568
 23
7.369720366020597
 33
0.0
 14
22.52122360536569
 24
7.889720366020596
 34
0.0
 50
90.0
100
AcDbRotatedDimension
1001
ACAD
1000
DSTYLE
1002
{
1070
   289
1070
     1
1070
   271
1070
     2
1070
   272
1070
     2
1070
    48
1040
0.0
1070
    47
1040
0.0
1002
}
  0
DIMENSION
  5
9D2
330
6C
100
AcDbEntity
  8
Dimension (ANSI)
100
AcDbDimension
  2
*D13
 10
27.92036371263527
 20
8.639720366020597
 30
0.0
 11
27.00316586258352
 21
6.300415530760733
 31
0.0
 70
   160
  1
<>{\PTYP.}
 71
     5
 42
1.269999999999999
  3
Default (ANSI)
100
AcDbAlignedDimension
 13
22.54122360536568
 23
7.369720366020597
 33
0.0
 14
22.52122360536569
 24
8.639720366020597
 34
0.0
 50
90.0
100
AcDbRotatedDimension
1001
ACAD
1000
DSTYLE
1002
{
1070
   289
1070
     2
1070
   271
1070
     2
1070
   272
1070
     2
1070
    48
1040
0.0
1070
    47
1040
0.0
1002
}
  0
DIMENSION
  5
AE5
330
6C
100
AcDbEntity
  8
Dimension (ANSI)
100
AcDbDimension
  2
*D14
 10
23.04122360536568
 20
6.316636688086657
 30
0.0
 11
21.0655441423392
 21
6.316636688086657
 31
0.0
 70
   160
  1
<>{\PTYP.}
 71
     5
 42
0.5199999999999961
  3
Default (ANSI)
100
AcDbAlignedDimension
 13
22.52122360536569
 23
8.639720366020597
 33
0.0
 14
23.04122360536568
 24
7.8697203660206
 34
0.0
 50
180.0
100
AcDbRotatedDimension
1001
ACAD
1000
DSTYLE
1002
{
1070
   289
1070
     1
1070
    73
1070
     0
1070
    74
1070
     0
1070
   271
1070
     2
1070
   272
1070
     2
1070
    48
1040
0.0
1070
    47
1040
0.0
1002
}
  0
DIMENSION
  5
BE3
330
6C
100
AcDbEntity
  8
Dimension (ANSI)
100
AcDbDimension
  2
*D15
 10
32.47921046020784
 20
28.95859921944479
 30
0.0
 11
34.73707242146947
 21
28.95859921944479
 31
0.0
 70
   160
  1
(<>){\P12 GA.\PGALV.}
 71
     5
 42
0.0937499999999929
  3
Default (ANSI)
100
AcDbAlignedDimension
 13
32.57296046020783
 23
19.92911610949914
 33
0.0
 14
32.47921046020784
 24
19.92911610949914
 34
0.0
100
AcDbRotatedDimension
1001
ACAD
1000
DSTYLE
1002
{
1070
   289
1070
     1
1070
    73
1070
     0
1070
    74
1070
     0
1070
   271
1070
     3
1070
   147
1040
0.031496062992126
1070
    72
1070
     0
1070
    71
1070
     0
1070
   272
1070
     3
1070
    48
1040
0.0
1070
    47
1040
0.0
1002
}
  0
MTEXT
  5
CEB
102
{ACAD_XDICTIONARY
360
DEE
102
}
330
6C
100
AcDbEntity
  8
Symbol (ANSI)
100
AcDbMText
 10
37.71844683715059
 20
6.050722434181061
 30
0.0
 40
0.3333333439714327
 41
17.5165551899052
 71
     4
 72
     1
  3
{\fRomanS|b0|i0|c0|p2;\H2.0001x;PART#: NP2416CG\P(DATA SUBJECT TO CHANGE \H1.5966x; \H0.62632x;WITHOUT NOTICE) \H1.5133x; \H0.66082x;\P\H0.59997x;THIS DRAWING IS PROPERTY OF HUBBELL INC. \H1.5574x; \H0.64208x;WIEGMANN\H1.2077x; \H0.82803x;\PALL INFOR
  1
MATION IS PROPRIETARY AND NOT TO BE \H1.2375x; \H0.80806x;DUPLICATED\H1.235x; \H0.80973x;\P\H0.83325x; \H1.2823x; \H0.77987x;\P\H1.1859x; \H0.84323x;\P\H1.1941x; }
  7
Note Text (ANSI)
 73
     1
 44
0.8139861822128295
1001
ACAD
1000
MTEXTBEGIN
1070
    73
1070
     1
1070
    44
1040
0.8139861822128295
1070
    74
1070
     0
1000
MTEXTEND
  0
LINE
  5
CED
330
6C
100
AcDbEntity
  8
Center Mark (ANSI)
  6
CHAIN
 48
0.2221101224422455
100
AcDbLine
 10
8.694556938699014
 20
29.0497203660206
 30
0.0
 11
10.02789027203234
 21
29.0497203660206
 31
0.0
  0
LINE
  5
CEE
330
6C
100
AcDbEntity
  8
Center Mark (ANSI)
  6
CHAIN
 48
0.2221101224422455
100
AcDbLine
 10
23.18789027203234
 20
29.0497203660206
 30
0.0
 11
21.85455693869902
 21
29.0497203660206
 31
0.0
  0
LINE
  5
CEF
330
6C
100
AcDbEntity
  8
Centerline (ANSI)
  6
CHAIN
 48
0.9524481296539306
100
AcDbLine
 10
8.694556938699014
 20
29.0497203660206
 30
0.0
 11
23.18789027203234
 21
29.0497203660206
 31
0.0
  0
LINE
  5
CF0
330
6C
100
AcDbEntity
  8
Center Mark (ANSI)
  6
CHAIN
 48
0.2221101224422455
100
AcDbLine
 10
22.52122360536569
 20
7.223053699353929
 30
0.0
 11
22.52122360536569
 21
8.556387032687263
 31
0.0
  0
LINE
  5
CF1
330
6C
100
AcDbEntity
  8
Centerline (ANSI)
  6
CHAIN
 48
0.9524481296539306
100
AcDbLine
 10
22.52122360536568
 20
29.71638703268726
 30
0.0
 11
22.52122360536569
 21
7.223053699353927
 31
0.0
  0
LINE
  5
CF2
330
6C
100
AcDbEntity
  8
Center Mark (ANSI)
  6
CHAIN
 48
0.2221101224422455
100
AcDbLine
 10
8.694556938699014
 20
7.889720366020596
 30
0.0
 11
10.02789027203234
 21
7.889720366020596
 31
0.0
  0
LINE
  5
CF3
330
6C
100
AcDbEntity
  8
Centerline (ANSI)
  6
CHAIN
 48
0.9524481296539306
100
AcDbLine
 10
23.18789027203235
 20
7.889720366020596
 30
0.0
 11
8.694556938699012
 21
7.889720366020596
 31
0.0
  0
LINE
  5
CF4
330
6C
100
AcDbEntity
  8
Centerline (ANSI)
  6
CHAIN
 48
0.9524481296539306
100
AcDbLine
 10
9.36122360536568
 20
7.223053699353929
 30
0.0
 11
9.36122360536568
 21
29.71638703268726
 31
0.0
  0
LINE
  5
CF5
330
6C
100
AcDbEntity
  8
Center Mark (ANSI)
  6
CHAIN
 48
0.1908618211746216
100
AcDbLine
 10
9.36122360536568
 20
28.87263703268727
 30
0.0
 11
9.36122360536568
 21
27.72680369935393
 31
0.0
  0
LINE
  5
CF6
330
6C
100
AcDbEntity
  8
Center Mark (ANSI)
  6
CHAIN
 48
0.1908618211746216
100
AcDbLine
 10
22.52122360536568
 20
28.87263703268727
 30
0.0
 11
22.52122360536568
 21
27.72680369935393
 31
0.0
  0
LINE
  5
CF7
330
6C
100
AcDbEntity
  8
Centerline (ANSI)
  6
CHAIN
 48
0.9524481296539306
100
AcDbLine
 10
8.788306938699014
 20
28.2997203660206
 30
0.0
 11
23.09414027203235
 21
28.2997203660206
 31
0.0
  0
LINE
  5
CF8
330
6C
100
AcDbEntity
  8
Center Mark (ANSI)
  6
CHAIN
 48
0.1908618211746216
100
AcDbLine
 10
9.36122360536568
 20
9.212637032687263
 30
0.0
 11
9.36122360536568
 21
8.066803699353929
 31
0.0
  0
LINE
  5
CF9
330
6C
100
AcDbEntity
  8
Center Mark (ANSI)
  6
CHAIN
 48
0.1908618211746216
100
AcDbLine
 10
22.52122360536569
 20
9.212637032687263
 30
0.0
 11
22.52122360536569
 21
8.066803699353929
 31
0.0
  0
LINE
  5
CFA
330
6C
100
AcDbEntity
  8
Centerline (ANSI)
  6
CHAIN
 48
0.9524481296539306
100
AcDbLine
 10
8.788306938699014
 20
8.639720366020597
 30
0.0
 11
23.09414027203235
 21
8.639720366020597
 31
0.0
  0
DIMENSION
  5
CFB
330
6C
100
AcDbEntity
  8
Dimension (ANSI)
100
AcDbDimension
  2
*D16
 10
33.25321046020783
 20
26.33281245722011
 30
0.0
 11
34.65170789870974
 21
26.33281245722011
 31
0.0
 70
   160
  1
<>
 42
0.7739999999999938
  3
Default (ANSI)
100
AcDbAlignedDimension
 13
32.47921046020784
 23
27.8519203660206
 33
0.0
 14
33.25321046020783
 24
18.46972036602009
 34
0.0
 50
180.0
100
AcDbRotatedDimension
1001
ACAD
1000
DSTYLE
1002
{
1070
   289
1070
     1
1070
    73
1070
     0
1070
    74
1070
     0
1070
   271
1070
     2
1070
    76
1070
     1
1070
   272
1070
     2
1070
    48
1040
0.0
1070
    47
1040
0.0
1002
}
  0
ENDSEC
  0
SECTION
  2
OBJECTS
  0
DICTIONARY
  5
C
330
0
100
AcDbDictionary
281
     1
  3
ACAD_CIP_PREVIOUS_PRODUCT_INFO
350
DE0
  3
ACAD_COLOR
350
63
  3
ACAD_GROUP
350
D
  3
ACAD_LAYOUT
350
62
  3
ACAD_MATERIAL
350
10
  3
ACAD_MLEADERSTYLE
350
66
  3
ACAD_MLINESTYLE
350
5F
  3
ACAD_PLOTSETTINGS
350
61
  3
ACAD_PLOTSTYLENAME
350
E
  3
ACAD_SCALELIST
350
42
  3
ACAD_TABLESTYLE
350
64
  3
ACAD_VISUALSTYLE
350
29
  3
ACDB_RECOMPOSE_DATA
350
DF0
  3
AcDbVariableDictionary
350
76
  3
DWGPROPS
350
DF1
  0
DICTIONARY
  5
E2D
330
80F
100
AcDbDictionary
280
     1
281
     1
  3
ACAD_MTEXT_RT
360
E2E
  0
DICTIONARY
  5
E2F
330
8B8
100
AcDbDictionary
280
     1
281
     1
  3
ACAD_MTEXT_RT
360
E30
  0
DICTIONARY
  5
DEE
330
CEB
100
AcDbDictionary
280
     1
281
     1
  3
ACAD_MTEXT_2008_RT
360
DEF
  0
XRECORD
  5
DE0
102
{ACAD_REACTORS
330
C
102
}
330
C
100
AcDbXrecord
280
     1
300
INVNTOR
300
2012
300
85795PDSP_2012_0F
  0
DICTIONARY
  5
63
102
{ACAD_REACTORS
330
C
102
}
330
C
100
AcDbDictionary
281
     1
  0
DICTIONARY
  5
D
102
{ACAD_REACTORS
330
C
102
}
330
C
100
AcDbDictionary
281
     1
  0
DICTIONARY
  5
62
102
{ACAD_REACTORS
330
C
102
}
330
C
100
AcDbDictionary
281
     1
  3
Layout1
350
6B
  3
Layout2
350
73
  3
Model
350
6F
  0
DICTIONARY
  5
10
102
{ACAD_REACTORS
330
C
102
}
330
C
100
AcDbDictionary
281
     1
  3
ByBlock
350
19
  3
ByLayer
350
11
  3
Global
350
21
  0
DICTIONARY
  5
66
102
{ACAD_REACTORS
330
C
102
}
330
C
100
AcDbDictionary
281
     1
  3
Standard
350
67
  0
DICTIONARY
  5
5F
102
{ACAD_REACTORS
330
C
102
}
330
C
100
AcDbDictionary
281
     1
  3
Standard
350
60
  0
DICTIONARY
  5
61
102
{ACAD_REACTORS
330
C
102
}
330
C
100
AcDbDictionary
281
     1
  0
ACDBDICTIONARYWDFLT
  5
E
102
{ACAD_REACTORS
330
C
102
}
330
C
100
AcDbDictionary
281
     1
  3
Normal
350
F
100
AcDbDictionaryWithDefault
340
F
  0
DICTIONARY
  5
42
102
{ACAD_REACTORS
330
C
102
}
330
C
100
AcDbDictionary
281
     1
  3
A0
350
43
  3
A1
350
44
  3
A2
350
45
  3
A3
350
46
  3
A4
350
47
  3
A5
350
48
  3
A6
350
49
  3
A7
350
4A
  3
A8
350
4B
  3
A9
350
4C
  3
B0
350
4D
  3
B1
350
4E
  3
B2
350
4F
  3
B3
350
50
  3
B4
350
51
  3
B5
350
52
  3
B6
350
53
  0
DICTIONARY
  5
64
102
{ACAD_REACTORS
330
C
102
}
330
C
100
AcDbDictionary
281
     1
  3
Standard
350
65
  0
DICTIONARY
  5
29
102
{ACAD_REACTORS
330
C
102
}
330
C
100
AcDbDictionary
281
     1
  3
2dWireframe
350
2F
  3
Basic
350
2E
  3
Brighten
350
35
  3
ColorChange
350
39
  3
Conceptual
350
32
  3
Dim
350
34
  3
EdgeColorOff
350
41
  3
Facepattern
350
38
  3
Flat
350
2A
  3
FlatWithEdges
350
2B
  3
Gouraud
350
2C
  3
GouraudWithEdges
350
2D
  3
Hidden
350
31
  3
JitterOff
350
3F
  3
Linepattern
350
37
  3
OverhangOff
350
40
  3
Realistic
350
33
  3
Shaded
350
3E
  3
Shaded with edges
350
3D
  3
Shades of Gray
350
3A
  3
Sketchy
350
3B
  3
Thicken
350
36
  3
Wireframe
350
30
  3
X-Ray
350
3C
  0
XRECORD
  5
DF0
102
{ACAD_REACTORS
330
C
102
}
330
C
100
AcDbXrecord
280
     1
 90
        1
330
65
330
9D2
330
CEB
  0
DICTIONARY
  5
76
102
{ACAD_REACTORS
330
C
102
}
330
C
100
AcDbDictionary
281
     1
  3
CANNOSCALE
350
79
  3
CMLEADERSTYLE
350
78
  3
CTABLESTYLE
350
77
  3
DIMASSOC
350
DE8
  3
HIDETEXT
350
DE7
  3
INDEXCTL
350
DE6
  3
LAYEREVAL
350
DE3
  3
LAYERNOTIFY
350
DE4
  3
LIGHTINGUNITS
350
DE2
  3
MSLTSCALE
350
DE1
  3
SORTENTS
350
DE5
  3
XCLIPFRAME
350
DE9
  0
XRECORD
  5
DF1
102
{ACAD_REACTORS
330
C
102
}
330
C
100
AcDbXrecord
280
     1
  1
DWGPROPS COOKIE
  2

  3

  4
JF
  6

  7

  8

  9
-
300
Manager=
301
Company=
302
Category=
303
Part Number=NP2416CG-S
304
Description=
305
Project=
306
Designer=JF
307
Engineer=
308
Authority=
309
Cost Center=
 40
0.0000363541666667
 41
2455945.619495984
 42
2455945.619496169
  1

 90
       22
300
Vendor=
300
User Status=
300
Design Status=WorkInProgress
300
Checked by=DN
300
Date Checked=01/18/2012
300
Engr Approved by=
300
Date Eng Approved=01/18/2012
300
Mfg Approved by=
300
Date Mfg Approved=01/18/2012
300
DWG. NO=
300
NUMBER OF SHEETS=1
300
DRAWING #=
  0
XRECORD
  5
E2E
102
{ACAD_REACTORS
330
E2D
102
}
330
E2D
100
AcDbXrecord
280
     1
 40
28737.0
  1
\A1;\U+22050.50{ TYP. (4 PL.)}
  0
XRECORD
  5
E30
102
{ACAD_REACTORS
330
E2F
102
}
330
E2F
100
AcDbXrecord
280
     1
 40
28724.0
  1
\A1;\U+22050.31{ TYP. (4 PL.)}
  0
XRECORD
  5
DEF
102
{ACAD_REACTORS
330
DEE
102
}
330
DEE
100
AcDbXrecord
280
     1
 40
5632730.0
  1
\pxsm0.94;{\fRomanS|b0|i0;\H0.6667;PART#: NP2416CG\P(DATA SUBJECT TO CHANGE WITHOUT NOTICE) \P\fRomanS|b0|i0;\H0.4000;THIS DRAWING IS PROPERTY OF HUBBELL INC. WIEGMANN\PALL INFORMATION IS PROPRIETARY AND NOT TO BE DUPLICATED\P\fRomanS|b0|i0;\H0.3333;
  1
 \P\P}
  0
LAYOUT
  5
6B
102
{ACAD_XDICTIONARY
360
E27
102
}
102
{ACAD_REACTORS
330
62
102
}
330
62
100
AcDbPlotSettings
  1

  2

  4

  6

 40
0.0
 41
0.0
 42
0.0
 43
0.0
 44
0.0
 45
0.0
 46
0.0
 47
0.0
 48
0.0
 49
0.0
140
0.0
141
0.0
142
1.0
143
1.0
 70
   688
 72
     0
 73
     0
 74
     5
  7

 75
    16
147
1.0
148
0.0
149
0.0
100
AcDbLayout
  1
Layout1
 70
     1
 71
     1
 10
0.0
 20
0.0
 11
12.0
 21
9.0
 12
0.0
 22
0.0
 32
0.0
 14
0.0
 24
0.0
 34
0.0
 15
0.0
 25
0.0
 35
0.0
146
0.0
 13
0.0
 23
0.0
 33
0.0
 16
1.0
 26
0.0
 36
0.0
 17
0.0
 27
1.0
 37
0.0
 76
     0
330
68
  0
LAYOUT
  5
73
102
{ACAD_XDICTIONARY
360
E2B
102
}
102
{ACAD_REACTORS
330
62
102
}
330
62
100
AcDbPlotSettings
  1

  2

  4

  6

 40
0.0
 41
0.0
 42
0.0
 43
0.0
 44
0.0
 45
0.0
 46
0.0
 47
0.0
 48
0.0
 49
0.0
140
0.0
141
0.0
142
1.0
143
1.0
 70
   688
 72
     0
 73
     0
 74
     5
  7

 75
    16
147
1.0
148
0.0
149
0.0
100
AcDbLayout
  1
Layout2
 70
     1
 71
     2
 10
0.0
 20
0.0
 11
12.0
 21
9.0
 12
0.0
 22
0.0
 32
0.0
 14
0.0
 24
0.0
 34
0.0
 15
0.0
 25
0.0
 35
0.0
146
0.0
 13
0.0
 23
0.0
 33
0.0
 16
1.0
 26
0.0
 36
0.0
 17
0.0
 27
1.0
 37
0.0
 76
     0
330
70
  0
LAYOUT
  5
6F
102
{ACAD_XDICTIONARY
360
E29
102
}
102
{ACAD_REACTORS
330
62
102
}
330
62
100
AcDbPlotSettings
  1

  2

  4

  6

 40
0.0
 41
0.0
 42
0.0
 43
0.0
 44
0.0
 45
0.0
 46
0.0
 47
0.0
 48
0.0
 49
0.0
140
0.0
141
0.0
142
1.0
143
1.0
 70
  1712
 72
     0
 73
     0
 74
     0
  7

 75
     0
147
1.0
148
0.0
149
0.0
100
AcDbLayout
  1
Model
 70
     1
 71
     0
 10
0.0
 20
0.0
 11
12.0
 21
9.0
 12
0.0
 22
0.0
 32
0.0
 14
0.0
 24
0.0
 34
0.0
 15
0.0
 25
0.0
 35
0.0
146
0.0
 13
0.0
 23
0.0
 33
0.0
 16
1.0
 26
0.0
 36
0.0
 17
0.0
 27
1.0
 37
0.0
 76
     0
330
6C
  0
MATERIAL
  5
19
102
{ACAD_XDICTIONARY
360
1A
102
}
102
{ACAD_REACTORS
330
10
102
}
330
10
100
AcDbMaterial
  1
ByBlock
 72
     0
 43
0.0208333333333333
 43
0.0
 43
0.0
 43
0.0
 43
0.0
 43
0.0208333333333333
 43
0.0
 43
0.0
 43
0.0
 43
0.0
 43
1.0
 43
0.0
 43
0.0
 43
0.0
 43
0.0
 43
1.0
 77
     0
 47
0.0208333333333333
 47
0.0
 47
0.0
 47
0.0
 47
0.0
 47
0.0208333333333333
 47
0.0
 47
0.0
 47
0.0
 47
0.0
 47
1.0
 47
0.0
 47
0.0
 47
0.0
 47
0.0
 47
1.0
171
     0
 49
0.0208333333333333
 49
0.0
 49
0.0
 49
0.0
 49
0.0
 49
0.0208333333333333
 49
0.0
 49
0.0
 49
0.0
 49
0.0
 49
1.0
 49
0.0
 49
0.0
 49
0.0
 49
0.0
 49
1.0
175
     0
142
0.0208333333333333
142
0.0
142
0.0
142
0.0
142
0.0
142
0.0208333333333333
142
0.0
142
0.0
142
0.0
142
0.0
142
1.0
142
0.0
142
0.0
142
0.0
142
0.0
142
1.0
179
     0
144
0.0208333333333333
144
0.0
144
0.0
144
0.0
144
0.0
144
0.0208333333333333
144
0.0
144
0.0
144
0.0
144
0.0
144
1.0
144
0.0
144
0.0
144
0.0
144
0.0
144
1.0
147
0.0208333333333333
147
0.0
147
0.0
147
0.0
147
0.0
147
0.0208333333333333
147
0.0
147
0.0
147
0.0
147
0.0
147
1.0
147
0.0
147
0.0
147
0.0
147
0.0
147
1.0
  0
MATERIAL
  5
11
102
{ACAD_XDICTIONARY
360
12
102
}
102
{ACAD_REACTORS
330
10
102
}
330
10
100
AcDbMaterial
  1
ByLayer
 72
     0
 43
0.0208333333333333
 43
0.0
 43
0.0
 43
0.0
 43
0.0
 43
0.0208333333333333
 43
0.0
 43
0.0
 43
0.0
 43
0.0
 43
1.0
 43
0.0
 43
0.0
 43
0.0
 43
0.0
 43
1.0
 77
     0
 47
0.0208333333333333
 47
0.0
 47
0.0
 47
0.0
 47
0.0
 47
0.0208333333333333
 47
0.0
 47
0.0
 47
0.0
 47
0.0
 47
1.0
 47
0.0
 47
0.0
 47
0.0
 47
0.0
 47
1.0
171
     0
 49
0.0208333333333333
 49
0.0
 49
0.0
 49
0.0
 49
0.0
 49
0.0208333333333333
 49
0.0
 49
0.0
 49
0.0
 49
0.0
 49
1.0
 49
0.0
 49
0.0
 49
0.0
 49
0.0
 49
1.0
175
     0
142
0.0208333333333333
142
0.0
142
0.0
142
0.0
142
0.0
142
0.0208333333333333
142
0.0
142
0.0
142
0.0
142
0.0
142
1.0
142
0.0
142
0.0
142
0.0
142
0.0
142
1.0
179
     0
144
0.0208333333333333
144
0.0
144
0.0
144
0.0
144
0.0
144
0.0208333333333333
144
0.0
144
0.0
144
0.0
144
0.0
144
1.0
144
0.0
144
0.0
144
0.0
144
0.0
144
1.0
147
0.0208333333333333
147
0.0
147
0.0
147
0.0
147
0.0
147
0.0208333333333333
147
0.0
147
0.0
147
0.0
147
0.0
147
1.0
147
0.0
147
0.0
147
0.0
147
0.0
147
1.0
  0
MATERIAL
  5
21
102
{ACAD_XDICTIONARY
360
22
102
}
102
{ACAD_REACTORS
330
10
102
}
330
10
100
AcDbMaterial
  1
Global
 72
     0
 43
0.0208333333333333
 43
0.0
 43
0.0
 43
0.0
 43
0.0
 43
0.0208333333333333
 43
0.0
 43
0.0
 43
0.0
 43
0.0
 43
1.0
 43
0.0
 43
0.0
 43
0.0
 43
0.0
 43
1.0
 77
     0
 47
0.0208333333333333
 47
0.0
 47
0.0
 47
0.0
 47
0.0
 47
0.0208333333333333
 47
0.0
 47
0.0
 47
0.0
 47
0.0
 47
1.0
 47
0.0
 47
0.0
 47
0.0
 47
0.0
 47
1.0
171
     0
 49
0.0208333333333333
 49
0.0
 49
0.0
 49
0.0
 49
0.0
 49
0.0208333333333333
 49
0.0
 49
0.0
 49
0.0
 49
0.0
 49
1.0
 49
0.0
 49
0.0
 49
0.0
 49
0.0
 49
1.0
175
     0
142
0.0208333333333333
142
0.0
142
0.0
142
0.0
142
0.0
142
0.0208333333333333
142
0.0
142
0.0
142
0.0
142
0.0
142
1.0
142
0.0
142
0.0
142
0.0
142
0.0
142
1.0
179
     0
144
0.0208333333333333
144
0.0
144
0.0
144
0.0
144
0.0
144
0.0208333333333333
144
0.0
144
0.0
144
0.0
144
0.0
144
1.0
144
0.0
144
0.0
144
0.0
144
0.0
144
1.0
147
0.0208333333333333
147
0.0
147
0.0
147
0.0
147
0.0
147
0.0208333333333333
147
0.0
147
0.0
147
0.0
147
0.0
147
1.0
147
0.0
147
0.0
147
0.0
147
0.0
147
1.0
  0
MLEADERSTYLE
  5
67
102
{ACAD_XDICTIONARY
360
DEC
102
}
102
{ACAD_REACTORS
330
66
102
}
330
66
100
AcDbMLeaderStyle
170
     2
171
     1
172
     0
 90
        2
 40
0.0
 41
0.0
173
     1
 91
-1056964608
340
5B
 92
       -2
290
     1
 42
0.09
291
     1
 43
0.36
  3
Standard
 44
0.18
300

342
55
174
     1
178
     6
175
     1
176
     0
 93
-1056964608
 45
0.18
292
     0
297
     0
 46
0.18
 94
-1056964608
 47
1.0
 49
1.0
140
1.0
293
     1
141
0.0
294
     1
177
     0
142
1.0
295
     0
296
     0
143
0.125
1001
ACAD_MLEADERVER
1070
     2
  0
MLINESTYLE
  5
60
102
{ACAD_REACTORS
330
5F
102
}
330
5F
100
AcDbMlineStyle
  2
STANDARD
 70
     0
  3

 62
   256
 51
90.0
 52
90.0
 71
     2
 49
0.5
 62
   256
  6
BYLAYER
 49
-0.5
 62
   256
  6
BYLAYER
  0
ACDBPLACEHOLDER
  5
F
102
{ACAD_REACTORS
330
E
102
}
330
E
  0
SCALE
  5
43
102
{ACAD_REACTORS
330
42
102
}
330
42
100
AcDbScale
 70
     0
300
1:1
140
1.0
141
1.0
290
     1
  0
SCALE
  5
44
102
{ACAD_REACTORS
330
42
102
}
330
42
100
AcDbScale
 70
     0
300
1/128" = 1'-0"
140
0.0078125
141
12.0
290
     0
  0
SCALE
  5
45
102
{ACAD_REACTORS
330
42
102
}
330
42
100
AcDbScale
 70
     0
300
1/64" = 1'-0"
140
0.015625
141
12.0
290
     0
  0
SCALE
  5
46
102
{ACAD_REACTORS
330
42
102
}
330
42
100
AcDbScale
 70
     0
300
1/32" = 1'-0"
140
0.03125
141
12.0
290
     0
  0
SCALE
  5
47
102
{ACAD_REACTORS
330
42
102
}
330
42
100
AcDbScale
 70
     0
300
1/16" = 1'-0"
140
0.0625
141
12.0
290
     0
  0
SCALE
  5
48
102
{ACAD_REACTORS
330
42
102
}
330
42
100
AcDbScale
 70
     0
300
3/32" = 1'-0"
140
0.09375
141
12.0
290
     0
  0
SCALE
  5
49
102
{ACAD_REACTORS
330
42
102
}
330
42
100
AcDbScale
 70
     0
300
1/8" = 1'-0"
140
0.125
141
12.0
290
     0
  0
SCALE
  5
4A
102
{ACAD_REACTORS
330
42
102
}
330
42
100
AcDbScale
 70
     0
300
3/16" = 1'-0"
140
0.1875
141
12.0
290
     0
  0
SCALE
  5
4B
102
{ACAD_REACTORS
330
42
102
}
330
42
100
AcDbScale
 70
     0
300
1/4" = 1'-0"
140
0.25
141
12.0
290
     0
  0
SCALE
  5
4C
102
{ACAD_REACTORS
330
42
102
}
330
42
100
AcDbScale
 70
     0
300
3/8" = 1'-0"
140
0.375
141
12.0
290
     0
  0
SCALE
  5
4D
102
{ACAD_REACTORS
330
42
102
}
330
42
100
AcDbScale
 70
     0
300
1/2" = 1'-0"
140
0.5
141
12.0
290
     0
  0
SCALE
  5
4E
102
{ACAD_REACTORS
330
42
102
}
330
42
100
AcDbScale
 70
     0
300
3/4" = 1'-0"
140
0.75
141
12.0
290
     0
  0
SCALE
  5
4F
102
{ACAD_REACTORS
330
42
102
}
330
42
100
AcDbScale
 70
     0
300
1" = 1'-0"
140
1.0
141
12.0
290
     0
  0
SCALE
  5
50
102
{ACAD_REACTORS
330
42
102
}
330
42
100
AcDbScale
 70
     0
300
1-1/2" = 1'-0"
140
1.5
141
12.0
290
     0
  0
SCALE
  5
51
102
{ACAD_REACTORS
330
42
102
}
330
42
100
AcDbScale
 70
     0
300
3" = 1'-0"
140
3.0
141
12.0
290
     0
  0
SCALE
  5
52
102
{ACAD_REACTORS
330
42
102
}
330
42
100
AcDbScale
 70
     0
300
6" = 1'-0"
140
6.0
141
12.0
290
     0
  0
SCALE
  5
53
102
{ACAD_REACTORS
330
42
102
}
330
42
100
AcDbScale
 70
     0
300
1'-0" = 1'-0"
140
12.0
141
12.0
290
     0
  0
TABLESTYLE
  5
65
102
{ACAD_XDICTIONARY
360
DEA
102
}
102
{ACAD_REACTORS
330
64
102
}
330
64
100
AcDbTableStyle
  3
Standard
 70
     0
 71
     0
 40
0.06
 41
0.06
280
     0
281
     0
  7
Standard
140
0.18
170
     2
 62
     0
 63
     7
283
     0
274
    -2
284
     1
 64
     0
275
    -2
285
     1
 65
     0
276
    -2
286
     1
 66
     0
277
    -2
287
     1
 67
     0
278
    -2
288
     1
 68
     0
279
    -2
289
     1
 69
     0
  7
Standard
140
0.25
170
     5
 62
     0
 63
     7
283
     0
274
    -2
284
     1
 64
     0
275
    -2
285
     1
 65
     0
276
    -2
286
     1
 66
     0
277
    -2
287
     1
 67
     0
278
    -2
288
     1
 68
     0
279
    -2
289
     1
 69
     0
  7
Standard
140
0.18
170
     5
 62
     0
 63
     7
283
     0
274
    -2
284
     1
 64
     0
275
    -2
285
     1
 65
     0
276
    -2
286
     1
 66
     0
277
    -2
287
     1
 67
     0
278
    -2
288
     1
 68
     0
279
    -2
289
     1
 69
     0
  0
VISUALSTYLE
  5
2F
102
{ACAD_XDICTIONARY
360
DFF
102
}
102
{ACAD_REACTORS
330
29
102
}
330
29
100
AcDbVisualStyle
  2
2dWireframe
 70
     4
 71
     0
 72
     2
 73
     0
 90
        0
 40
-0.6
 41
-30.0
 62
     5
 63
     7
 74
     1
 91
        4
 64
     7
 65
   257
 75
     1
175
     1
 42
1.0
 92
        0
 66
   257
 43
1.0
 76
     1
 77
     6
 78
     2
 67
     7
 79
     5
170
     0
171
     0
290
     0
174
     0
 93
        1
 44
0.0
173
     0
291
     0
 45
0.0
1001
ACAD
1000
AcDbSavedByObjectVersion
1070
     0
  0
VISUALSTYLE
  5
2E
102
{ACAD_XDICTIONARY
360
DFD
102
}
102
{ACAD_REACTORS
330
29
102
}
330
29
100
AcDbVisualStyle
  2
Basic
 70
     7
 71
     1
 72
     0
 73
     1
 90
        0
 40
-0.6
 41
-30.0
 62
     5
 63
     7
 74
     0
 91
        4
 64
     7
 65
   257
 75
     1
175
     1
 42
1.0
 92
        8
 66
     7
 43
1.0
 76
     1
 77
     6
 78
     2
 67
     7
 79
     5
170
     0
171
     0
290
     0
174
     0
 93
        1
 44
0.0
173
     0
291
     1
 45
0.0
1001
ACAD
1000
AcDbSavedByObjectVersion
1070
     0
  0
VISUALSTYLE
  5
35
102
{ACAD_XDICTIONARY
360
E0B
102
}
102
{ACAD_REACTORS
330
29
102
}
330
29
100
AcDbVisualStyle
  2
Brighten
 70
    12
 71
     2
 72
     2
 73
     0
 90
        0
 40
-0.6
 41
-30.0
 62
     5
 63
     7
 74
     1
 91
        4
 64
     7
 65
   257
 75
     1
175
     1
 42
1.0
 92
        8
 66
     7
 43
1.0
 76
     1
 77
     6
 78
     2
 67
     7
 79
     5
170
     0
171
     0
290
     0
174
     0
 93
        1
 44
50.0
173
     0
291
     1
 45
0.0
1001
ACAD
1000
AcDbSavedByObjectVersion
1070
     0
  0
VISUALSTYLE
  5
39
102
{ACAD_XDICTIONARY
360
E13
102
}
102
{ACAD_REACTORS
330
29
102
}
330
29
100
AcDbVisualStyle
  2
ColorChange
 70
    16
 71
     2
 72
     2
 73
     3
 90
        0
 40
-0.6
 41
-30.0
 62
     5
 63
     8
 74
     1
 91
        4
 64
     7
 65
   257
 75
     1
175
     1
 42
1.0
 92
        8
 66
     8
 43
1.0
 76
     1
 77
     6
 78
     2
 67
     7
 79
     5
170
     0
171
     0
290
     0
174
     0
 93
        1
 44
0.0
173
     0
291
     1
 45
0.0
1001
ACAD
1000
AcDbSavedByObjectVersion
1070
     0
  0
VISUALSTYLE
  5
32
102
{ACAD_XDICTIONARY
360
E05
102
}
102
{ACAD_REACTORS
330
29
102
}
330
29
100
AcDbVisualStyle
  2
Conceptual
 70
     9
 71
     3
 72
     2
 73
     0
 90
        0
 40
-0.6
 41
-30.0
 62
     5
 63
     7
 74
     2
 91
        2
 64
     7
 65
   257
 75
     1
175
     1
 42
179.0
 92
        8
 66
     7
 43
1.0
 76
     1
 77
     6
 78
     2
 67
     7
 79
     3
170
     0
171
     0
290
     0
174
     0
 93
        1
 44
0.0
173
     0
291
     0
 45
0.0
1001
ACAD
1000
AcDbSavedByObjectVersion
1070
     0
  0
VISUALSTYLE
  5
34
102
{ACAD_XDICTIONARY
360
E09
102
}
102
{ACAD_REACTORS
330
29
102
}
330
29
100
AcDbVisualStyle
  2
Dim
 70
    11
 71
     2
 72
     2
 73
     0
 90
        0
 40
-0.6
 41
-30.0
 62
     5
 63
     7
 74
     1
 91
        4
 64
     7
 65
   257
 75
     1
175
     1
 42
1.0
 92
        8
 66
     7
 43
1.0
 76
     1
 77
     6
 78
     2
 67
     7
 79
     5
170
     0
171
     0
290
     0
174
     0
 93
        1
 44
-50.0
173
     0
291
     1
 45
0.0
1001
ACAD
1000
AcDbSavedByObjectVersion
1070
     0
  0
VISUALSTYLE
  5
41
102
{ACAD_XDICTIONARY
360
E23
102
}
102
{ACAD_REACTORS
330
29
102
}
330
29
100
AcDbVisualStyle
  2
EdgeColorOff
 70
    22
 71
     2
 72
     2
 73
     0
 90
        0
 40
-0.6
 41
-30.0
 62
     5
 63
     7
 74
     1
 91
        4
 64
     7
 65
   257
 75
     1
175
     1
 42
1.0
 92
        8
 66
     7
 43
1.0
 76
     1
 77
     6
 78
     2
 67
     7
 79
     5
170
     0
171
     0
290
     0
174
     0
 93
        1
 44
0.0
173
     0
291
     1
 45
0.0
1001
ACAD
1000
AcDbSavedByObjectVersion
1070
     0
  0
VISUALSTYLE
  5
38
102
{ACAD_XDICTIONARY
360
E11
102
}
102
{ACAD_REACTORS
330
29
102
}
330
29
100
AcDbVisualStyle
  2
Facepattern
 70
    15
 71
     2
 72
     2
 73
     0
 90
        0
 40
-0.6
 41
-30.0
 62
     5
 63
     7
 74
     1
 91
        4
 64
     7
 65
   257
 75
     1
175
     1
 42
1.0
 92
        8
 66
     7
 43
1.0
 76
     1
 77
     6
 78
     2
 67
     7
 79
     5
170
     0
171
     0
290
     0
174
     0
 93
        1
 44
0.0
173
     0
291
     1
 45
0.0
1001
ACAD
1000
AcDbSavedByObjectVersion
1070
     0
  0
VISUALSTYLE
  5
2A
102
{ACAD_XDICTIONARY
360
DF5
102
}
102
{ACAD_REACTORS
330
29
102
}
330
29
100
AcDbVisualStyle
  2
Flat
 70
     0
 71
     2
 72
     1
 73
     1
 90
        2
 40
-0.6
 41
30.0
 62
     5
 63
     7
 74
     0
 91
        0
 64
     7
 65
   257
 75
     1
175
     1
 42
1.0
 92
        8
 66
     7
 43
1.0
 76
     1
 77
     6
 78
     2
 67
     7
 79
     5
170
     0
171
     0
290
     0
174
     0
 93
       13
 44
0.0
173
     0
291
     1
 45
0.0
1001
ACAD
1000
AcDbSavedByObjectVersion
1070
     0
  0
VISUALSTYLE
  5
2B
102
{ACAD_XDICTIONARY
360
DF7
102
}
102
{ACAD_REACTORS
330
29
102
}
330
29
100
AcDbVisualStyle
  2
FlatWithEdges
 70
     1
 71
     2
 72
     1
 73
     1
 90
        2
 40
-0.6
 41
30.0
 62
     5
 63
     7
 74
     1
 91
        0
 64
     7
 65
   257
 75
     1
175
     1
 42
1.0
 92
        0
 66
   257
 43
1.0
 76
     1
 77
     6
 78
     2
 67
     7
 79
     5
170
     0
171
     0
290
     0
174
     0
 93
       13
 44
0.0
173
     0
291
     1
 45
0.0
1001
ACAD
1000
AcDbSavedByObjectVersion
1070
     0
  0
VISUALSTYLE
  5
2C
102
{ACAD_XDICTIONARY
360
DF9
102
}
102
{ACAD_REACTORS
330
29
102
}
330
29
100
AcDbVisualStyle
  2
Gouraud
 70
     2
 71
     2
 72
     2
 73
     1
 90
        2
 40
-0.6
 41
30.0
 62
     5
 63
     7
 74
     0
 91
        0
 64
     7
 65
   257
 75
     1
175
     1
 42
1.0
 92
        0
 66
     7
 43
1.0
 76
     1
 77
     6
 78
     2
 67
     7
 79
     5
170
     0
171
     0
290
     0
174
     0
 93
       13
 44
0.0
173
     0
291
     1
 45
0.0
1001
ACAD
1000
AcDbSavedByObjectVersion
1070
     0
  0
VISUALSTYLE
  5
2D
102
{ACAD_XDICTIONARY
360
DFB
102
}
102
{ACAD_REACTORS
330
29
102
}
330
29
100
AcDbVisualStyle
  2
GouraudWithEdges
 70
     3
 71
     2
 72
     2
 73
     1
 90
        2
 40
-0.6
 41
30.0
 62
     5
 63
     7
 74
     1
 91
        0
 64
     7
 65
   257
 75
     1
175
     1
 42
1.0
 92
        0
 66
   257
 43
1.0
 76
     1
 77
     6
 78
     2
 67
     7
 79
     5
170
     0
171
     0
290
     0
174
     0
 93
       13
 44
0.0
173
     0
291
     1
 45
0.0
1001
ACAD
1000
AcDbSavedByObjectVersion
1070
     0
  0
VISUALSTYLE
  5
31
102
{ACAD_XDICTIONARY
360
E03
102
}
102
{ACAD_REACTORS
330
29
102
}
330
29
100
AcDbVisualStyle
  2
Hidden
 70
     6
 71
     1
 72
     2
 73
     2
 90
        0
 40
-0.6
 41
-30.0
 62
     5
 63
     7
 74
     2
 91
        2
 64
     7
 65
   257
 75
     2
175
     1
 42
40.0
 92
        0
 66
   257
 43
1.0
 76
     1
 77
     6
 78
     2
 67
     7
 79
     3
170
     0
171
     0
290
     0
174
     0
 93
        1
 44
0.0
173
     0
291
     0
 45
0.0
1001
ACAD
1000
AcDbSavedByObjectVersion
1070
     0
  0
VISUALSTYLE
  5
3F
102
{ACAD_XDICTIONARY
360
E1F
102
}
102
{ACAD_REACTORS
330
29
102
}
330
29
100
AcDbVisualStyle
  2
JitterOff
 70
    20
 71
     2
 72
     2
 73
     0
 90
        0
 40
-0.6
 41
-30.0
 62
     5
 63
     7
 74
     1
 91
        4
 64
     7
 65
   257
 75
     1
175
     1
 42
1.0
 92
       10
 66
     7
 43
1.0
 76
     1
 77
     6
 78
     2
 67
     7
 79
     5
170
     0
171
     0
290
     0
174
     0
 93
        1
 44
0.0
173
     0
291
     1
 45
0.0
1001
ACAD
1000
AcDbSavedByObjectVersion
1070
     0
  0
VISUALSTYLE
  5
37
102
{ACAD_XDICTIONARY
360
E0F
102
}
102
{ACAD_REACTORS
330
29
102
}
330
29
100
AcDbVisualStyle
  2
Linepattern
 70
    14
 71
     2
 72
     2
 73
     0
 90
        0
 40
-0.6
 41
-30.0
 62
     5
 63
     7
 74
     1
 91
        4
 64
     7
 65
   257
 75
     7
175
     7
 42
1.0
 92
        8
 66
     7
 43
1.0
 76
     1
 77
     6
 78
     2
 67
     7
 79
     5
170
     0
171
     0
290
     0
174
     0
 93
        1
 44
0.0
173
     0
291
     1
 45
0.0
1001
ACAD
1000
AcDbSavedByObjectVersion
1070
     0
  0
VISUALSTYLE
  5
40
102
{ACAD_XDICTIONARY
360
E21
102
}
102
{ACAD_REACTORS
330
29
102
}
330
29
100
AcDbVisualStyle
  2
OverhangOff
 70
    21
 71
     2
 72
     2
 73
     0
 90
        0
 40
-0.6
 41
-30.0
 62
     5
 63
     7
 74
     1
 91
        4
 64
     7
 65
   257
 75
     1
175
     1
 42
1.0
 92
        9
 66
     7
 43
1.0
 76
     1
 77
     6
 78
     2
 67
     7
 79
     5
170
     0
171
     0
290
     0
174
     0
 93
        1
 44
0.0
173
     0
291
     1
 45
0.0
1001
ACAD
1000
AcDbSavedByObjectVersion
1070
     0
  0
VISUALSTYLE
  5
33
102
{ACAD_XDICTIONARY
360
E07
102
}
102
{ACAD_REACTORS
330
29
102
}
330
29
100
AcDbVisualStyle
  2
Realistic
 70
     8
 71
     2
 72
     3
 73
     0
 90
        2
 40
-0.6
 41
30.0
 62
     5
 63
     7
 74
     0
 91
        0
 64
     7
 65
   257
 75
     1
175
     1
 42
1.0
 92
        8
 66
   257
 43
1.0
 76
     1
 77
     6
 78
     2
 67
     7
 79
     3
170
     0
171
     0
290
     0
174
     0
 93
       13
 44
0.0
173
     0
291
     0
 45
0.0
1001
ACAD
1000
AcDbSavedByObjectVersion
1070
     0
  0
VISUALSTYLE
  5
3E
102
{ACAD_XDICTIONARY
360
E1D
102
}
102
{ACAD_REACTORS
330
29
102
}
330
29
100
AcDbVisualStyle
  2
Shaded
 70
    27
 71
     2
 72
     2
 73
     1
 90
        2
 40
-0.6
 41
30.0
 62
     5
 63
     7
 74
     0
 91
        4
 64
     7
 65
   257
 75
     1
175
     1
 42
1.0
 92
        8
 66
   257
 43
1.0
 76
     1
 77
     6
 78
     2
 67
     8
 79
     3
170
     0
171
     0
290
     0
174
     0
 93
        5
 44
0.0
173
     0
291
     0
 45
0.0
1001
ACAD
1000
AcDbSavedByObjectVersion
1070
     0
  0
VISUALSTYLE
  5
3D
102
{ACAD_XDICTIONARY
360
E1B
102
}
102
{ACAD_REACTORS
330
29
102
}
330
29
100
AcDbVisualStyle
  2
Shaded with edges
 70
    26
 71
     2
 72
     2
 73
     1
 90
        2
 40
-0.6
 41
30.0
 62
     5
 63
     7
 74
     1
 91
       10
 64
     7
 65
   257
 75
     2
175
     1
 42
1.0
 92
        8
 66
   257
 43
1.0
 76
     1
 77
     6
 78
     2
 67
     7
 79
     3
170
     0
171
     0
290
     0
174
     0
 93
        5
 44
0.0
173
     0
291
     0
 45
0.0
1001
ACAD
1000
AcDbSavedByObjectVersion
1070
     0
  0
VISUALSTYLE
  5
3A
102
{ACAD_XDICTIONARY
360
E15
102
}
102
{ACAD_REACTORS
330
29
102
}
330
29
100
AcDbVisualStyle
  2
Shades of Gray
 70
    23
 71
     2
 72
     2
 73
     3
 90
        0
 40
-0.6
 41
-30.0
 62
     5
 63
     7
 74
     2
 91
        2
 64
     7
 65
     7
 75
     1
175
     1
 42
40.0
 92
        8
 66
     7
 43
1.0
 76
     1
 77
     6
 78
     2
 67
     7
 79
     3
170
     0
171
     0
290
     0
174
     0
 93
        1
 44
0.0
173
     0
291
     0
 45
0.0
1001
ACAD
1000
AcDbSavedByObjectVersion
1070
     0
  0
VISUALSTYLE
  5
3B
102
{ACAD_XDICTIONARY
360
E17
102
}
102
{ACAD_REACTORS
330
29
102
}
330
29
100
AcDbVisualStyle
  2
Sketchy
 70
    24
 71
     1
 72
     2
 73
     2
 90
        0
 40
-0.6
 41
-30.0
 62
     5
 63
     7
 74
     2
 91
        2
 64
     7
 65
     7
 75
     1
175
     1
 42
40.0
 92
       11
 66
     7
 43
1.0
 76
     1
 77
     6
 78
     2
 67
     7
 79
     6
170
     0
171
     0
290
     0
174
     0
 93
        1
 44
0.0
173
     0
291
     0
 45
0.0
1001
ACAD
1000
AcDbSavedByObjectVersion
1070
     0
  0
VISUALSTYLE
  5
36
102
{ACAD_XDICTIONARY
360
E0D
102
}
102
{ACAD_REACTORS
330
29
102
}
330
29
100
AcDbVisualStyle
  2
Thicken
 70
    13
 71
     2
 72
     2
 73
     0
 90
        0
 40
-0.6
 41
-30.0
 62
     5
 63
     7
 74
     1
 91
        4
 64
     7
 65
   257
 75
     1
175
     1
 42
1.0
 92
       12
 66
     7
 43
1.0
 76
     1
 77
     6
 78
     2
 67
     7
 79
     5
170
     0
171
     0
290
     0
174
     0
 93
        1
 44
0.0
173
     0
291
     1
 45
0.0
1001
ACAD
1000
AcDbSavedByObjectVersion
1070
     0
  0
VISUALSTYLE
  5
30
102
{ACAD_XDICTIONARY
360
E01
102
}
102
{ACAD_REACTORS
330
29
102
}
330
29
100
AcDbVisualStyle
  2
Wireframe
 70
     5
 71
     0
 72
     2
 73
     0
 90
        0
 40
-0.6
 41
-30.0
 62
     5
 63
     7
 74
     1
 91
        4
 64
     7
 65
   257
 75
     1
175
     1
 42
1.0
 92
        0
 66
   257
 43
1.0
 76
     1
 77
     6
 78
     2
 67
     7
 79
     3
170
     0
171
     0
290
     0
174
     0
 93
        1
 44
0.0
173
     0
291
     0
 45
0.0
1001
ACAD
1000
AcDbSavedByObjectVersion
1070
     0
  0
VISUALSTYLE
  5
3C
102
{ACAD_XDICTIONARY
360
E19
102
}
102
{ACAD_REACTORS
330
29
102
}
330
29
100
AcDbVisualStyle
  2
X-Ray
 70
    25
 71
     2
 72
     2
 73
     1
 90
        1
 40
0.5
 41
-30.0
 62
     5
 63
     7
 74
     1
 91
        0
 64
     7
 65
   257
 75
     1
175
     1
 42
1.0
 92
        8
 66
     7
 43
1.0
 76
     1
 77
     6
 78
     2
 67
     7
 79
     3
170
     0
171
     0
290
     0
174
     0
 93
       13
 44
0.0
173
     0
291
     0
 45
0.0
1001
ACAD
1000
AcDbSavedByObjectVersion
1070
     0
  0
DICTIONARYVAR
  5
79
102
{ACAD_REACTORS
330
76
102
}
330
76
100
DictionaryVariables
280
     0
  1
1:1
  0
DICTIONARYVAR
  5
78
102
{ACAD_REACTORS
330
76
102
}
330
76
100
DictionaryVariables
280
     0
  1
STANDARD
  0
DICTIONARYVAR
  5
77
102
{ACAD_REACTORS
330
76
102
}
330
76
100
DictionaryVariables
280
     0
  1
STANDARD
  0
DICTIONARYVAR
  5
DE8
102
{ACAD_REACTORS
330
76
102
}
330
76
100
DictionaryVariables
280
     0
  1
1
  0
DICTIONARYVAR
  5
DE7
102
{ACAD_REACTORS
330
76
102
}
330
76
100
DictionaryVariables
280
     0
  1
1
  0
DICTIONARYVAR
  5
DE6
102
{ACAD_REACTORS
330
76
102
}
330
76
100
DictionaryVariables
280
     0
  1
0
  0
DICTIONARYVAR
  5
DE3
102
{ACAD_REACTORS
330
76
102
}
330
76
100
DictionaryVariables
280
     0
  1
0
  0
DICTIONARYVAR
  5
DE4
102
{ACAD_REACTORS
330
76
102
}
330
76
100
DictionaryVariables
280
     0
  1
0
  0
DICTIONARYVAR
  5
DE2
102
{ACAD_REACTORS
330
76
102
}
330
76
100
DictionaryVariables
280
     0
  1
2
  0
DICTIONARYVAR
  5
DE1
102
{ACAD_REACTORS
330
76
102
}
330
76
100
DictionaryVariables
280
     0
  1
1
  0
DICTIONARYVAR
  5
DE5
102
{ACAD_REACTORS
330
76
102
}
330
76
100
DictionaryVariables
280
     0
  1
127
  0
DICTIONARYVAR
  5
DE9
102
{ACAD_REACTORS
330
76
102
}
330
76
100
DictionaryVariables
280
     0
  1
2
  0
DICTIONARY
  5
E27
330
6B
100
AcDbDictionary
280
     1
281
     1
  3
ACAD_XREC_ROUNDTRIP
360
E28
  0
DICTIONARY
  5
E2B
330
73
100
AcDbDictionary
280
     1
281
     1
  3
ACAD_XREC_ROUNDTRIP
360
E2C
  0
DICTIONARY
  5
E29
330
6F
100
AcDbDictionary
280
     1
281
     1
  3
ACAD_XREC_ROUNDTRIP
360
E2A
  0
DICTIONARY
  5
1A
330
19
100
AcDbDictionary
280
     1
281
     1
  3
ACAD_XREC_ROUNDTRIP
360
DF3
  3
BUMPTILE
360
1C
  3
DIFFUSETILE
360
1B
  3
OPACITYTILE
360
1F
  3
REFLECTIONTILE
360
1E
  3
REFRACTIONTILE
360
20
  3
SPECULARTILE
360
1D
  0
DICTIONARY
  5
12
330
11
100
AcDbDictionary
280
     1
281
     1
  3
ACAD_XREC_ROUNDTRIP
360
DF2
  3
BUMPTILE
360
14
  3
DIFFUSETILE
360
13
  3
FBXASSET
360
F5
  3
OPACITYTILE
360
17
  3
REFLECTIONTILE
360
16
  3
REFRACTIONTILE
360
18
  3
SPECULARTILE
360
15
  0
DICTIONARY
  5
22
330
21
100
AcDbDictionary
280
     1
281
     1
  3
ACAD_XREC_ROUNDTRIP
360
DF4
  3
BUMPTILE
360
24
  3
DIFFUSETILE
360
23
  3
FBXASSET
360
BA
  3
OPACITYTILE
360
27
  3
REFLECTIONTILE
360
26
  3
REFRACTIONTILE
360
28
  3
SPECULARTILE
360
25
  0
DICTIONARY
  5
DEC
330
67
100
AcDbDictionary
280
     1
281
     1
  3
ACAD_XREC_ROUNDTRIP
360
DED
  0
DICTIONARY
  5
DEA
330
65
100
AcDbDictionary
280
     1
281
     1
  3
ACAD_ROUNDTRIP_2008_TABLESTYLE_CELLSTYLEMAP
360
DEB
  3
ACAD_XREC_ROUNDTRIP
360
E25
  0
DICTIONARY
  5
DFF
330
2F
100
AcDbDictionary
280
     1
281
     1
  3
ACAD_XREC_ROUNDTRIP
360
E00
  0
DICTIONARY
  5
DFD
330
2E
100
AcDbDictionary
280
     1
281
     1
  3
ACAD_XREC_ROUNDTRIP
360
DFE
  0
DICTIONARY
  5
E0B
330
35
100
AcDbDictionary
280
     1
281
     1
  3
ACAD_XREC_ROUNDTRIP
360
E0C
  0
DICTIONARY
  5
E13
330
39
100
AcDbDictionary
280
     1
281
     1
  3
ACAD_XREC_ROUNDTRIP
360
E14
  0
DICTIONARY
  5
E05
330
32
100
AcDbDictionary
280
     1
281
     1
  3
ACAD_XREC_ROUNDTRIP
360
E06
  0
DICTIONARY
  5
E09
330
34
100
AcDbDictionary
280
     1
281
     1
  3
ACAD_XREC_ROUNDTRIP
360
E0A
  0
DICTIONARY
  5
E23
330
41
100
AcDbDictionary
280
     1
281
     1
  3
ACAD_XREC_ROUNDTRIP
360
E24
  0
DICTIONARY
  5
E11
330
38
100
AcDbDictionary
280
     1
281
     1
  3
ACAD_XREC_ROUNDTRIP
360
E12
  0
DICTIONARY
  5
DF5
330
2A
100
AcDbDictionary
280
     1
281
     1
  3
ACAD_XREC_ROUNDTRIP
360
DF6
  0
DICTIONARY
  5
DF7
330
2B
100
AcDbDictionary
280
     1
281
     1
  3
ACAD_XREC_ROUNDTRIP
360
DF8
  0
DICTIONARY
  5
DF9
330
2C
100
AcDbDictionary
280
     1
281
     1
  3
ACAD_XREC_ROUNDTRIP
360
DFA
  0
DICTIONARY
  5
DFB
330
2D
100
AcDbDictionary
280
     1
281
     1
  3
ACAD_XREC_ROUNDTRIP
360
DFC
  0
DICTIONARY
  5
E03
330
31
100
AcDbDictionary
280
     1
281
     1
  3
ACAD_XREC_ROUNDTRIP
360
E04
  0
DICTIONARY
  5
E1F
330
3F
100
AcDbDictionary
280
     1
281
     1
  3
ACAD_XREC_ROUNDTRIP
360
E20
  0
DICTIONARY
  5
E0F
330
37
100
AcDbDictionary
280
     1
281
     1
  3
ACAD_XREC_ROUNDTRIP
360
E10
  0
DICTIONARY
  5
E21
330
40
100
AcDbDictionary
280
     1
281
     1
  3
ACAD_XREC_ROUNDTRIP
360
E22
  0
DICTIONARY
  5
E07
330
33
100
AcDbDictionary
280
     1
281
     1
  3
ACAD_XREC_ROUNDTRIP
360
E08
  0
DICTIONARY
  5
E1D
330
3E
100
AcDbDictionary
280
     1
281
     1
  3
ACAD_XREC_ROUNDTRIP
360
E1E
  0
DICTIONARY
  5
E1B
330
3D
100
AcDbDictionary
280
     1
281
     1
  3
ACAD_XREC_ROUNDTRIP
360
E1C
  0
DICTIONARY
  5
E15
330
3A
100
AcDbDictionary
280
     1
281
     1
  3
ACAD_XREC_ROUNDTRIP
360
E16
  0
DICTIONARY
  5
E17
330
3B
100
AcDbDictionary
280
     1
281
     1
  3
ACAD_XREC_ROUNDTRIP
360
E18
  0
DICTIONARY
  5
E0D
330
36
100
AcDbDictionary
280
     1
281
     1
  3
ACAD_XREC_ROUNDTRIP
360
E0E
  0
DICTIONARY
  5
E01
330
30
100
AcDbDictionary
280
     1
281
     1
  3
ACAD_XREC_ROUNDTRIP
360
E02
  0
DICTIONARY
  5
E19
330
3C
100
AcDbDictionary
280
     1
281
     1
  3
ACAD_XREC_ROUNDTRIP
360
E1A
  0
XRECORD
  5
E28
102
{ACAD_REACTORS
330
E27
102
}
330
E27
100
AcDbXrecord
280
     1
102
SHADEPLOT
 70
     0
102
SHADEPLOTRESLEVEL
 70
     2
102
SHADEPLOTCUSTOMDPI
 70
   300
  0
XRECORD
  5
E2C
102
{ACAD_REACTORS
330
E2B
102
}
330
E2B
100
AcDbXrecord
280
     1
102
SHADEPLOT
 70
     0
102
SHADEPLOTRESLEVEL
 70
     2
102
SHADEPLOTCUSTOMDPI
 70
   300
  0
XRECORD
  5
E2A
102
{ACAD_REACTORS
330
E29
102
}
330
E29
100
AcDbXrecord
280
     1
102
SHADEPLOT
 70
     0
102
SHADEPLOTRESLEVEL
 70
     2
102
SHADEPLOTCUSTOMDPI
 70
   300
  0
XRECORD
  5
DF3
102
{ACAD_REACTORS
330
1A
102
}
330
1A
100
AcDbXrecord
280
     1
102
MATERIAL
148
0.0
149
0.0
149
0.0
 93
        0
 94
      127
282
     0
 72
     0
 77
     0
171
     0
175
     0
179
     0
273
     0
  0
XRECORD
  5
1C
102
{ACAD_REACTORS
330
1A
102
}
330
1A
100
AcDbXrecord
280
     1
270
     1
271
     1
  0
XRECORD
  5
1B
102
{ACAD_REACTORS
330
1A
102
}
330
1A
100
AcDbXrecord
280
     1
270
     1
271
     1
  0
XRECORD
  5
1F
102
{ACAD_REACTORS
330
1A
102
}
330
1A
100
AcDbXrecord
280
     1
270
     1
271
     1
  0
XRECORD
  5
1E
102
{ACAD_REACTORS
330
1A
102
}
330
1A
100
AcDbXrecord
280
     1
270
     1
271
     1
  0
XRECORD
  5
20
102
{ACAD_REACTORS
330
1A
102
}
330
1A
100
AcDbXrecord
280
     1
270
     1
271
     1
  0
XRECORD
  5
1D
102
{ACAD_REACTORS
330
1A
102
}
330
1A
100
AcDbXrecord
280
     1
270
     1
271
     1
  0
XRECORD
  5
DF2
102
{ACAD_REACTORS
330
12
102
}
330
12
100
AcDbXrecord
280
     1
102
MATERIAL
148
0.0
149
0.0
149
0.0
 93
        0
 94
      127
282
     0
 72
     0
 77
     0
171
     0
175
     0
179
     0
273
     0
  0
XRECORD
  5
14
102
{ACAD_REACTORS
330
12
102
}
330
12
100
AcDbXrecord
280
     1
270
     1
271
     1
  0
XRECORD
  5
13
102
{ACAD_REACTORS
330
12
102
}
330
12
100
AcDbXrecord
280
     1
270
     1
271
     1
  0
XRECORD
  5
F5
102
{ACAD_REACTORS
330
12
102
}
330
12
100
AcDbXrecord
280
     1
 70
     1
 90
1959938040
 71
     1
  1
C09A90BF-9CBF-49AB-BAA0-DD723870CDBC
311
504B03040A0000080000837632403DEE336E79000000790000001B0000006175746F6465736B2D64657369676E2D7061636B6167652E786D6C3C3F786D6C2076657273696F6E3D22312E302220656E636F64696E673D227574662D3822203F3E3C666F726D6174733E3C666F726D61743E687474703A2F2F736368656D612E
311
6175746F6465736B2E636F6D2F64657369676E2D7061636B6167652F323030393C2F666F726D61743E3C2F666F726D6174733E504B030414000608080083763240D486FD9CA0000000F4000000130000005B436F6E74656E745F54797065735D2E786D6C7D8EC10E82300C865F65E91D8A1E8C310C0EEA1BF002731658846E
311
D98AC1B77784ABF1D8FE5FBFBF75BBCE937A534CCEB38643598122B6FEE978D0B0485F9C41B54DDD7D022595594E1A469170414C76A4D9A4D207E29CF43ECE46F218070CC6BECC4078ACAA135ACF422C856C0E68EA1BF5669944DDD7BCDE7B1F8E415D77AECB980613C2E4AC91FC167A2B244592486606FC29C8FD7F045B9A
311
EF7053A7E60B504B030414000608080083763240E8E5A3EDEA0000007C01000008000000636F72652E786D6C8D90D18E832010457F85CC3B0A6A5B6B904657FF607F8000B5A4158CC0663F7FB1B5C9EEDB3ECDE4CE3D3393CB2EDFF3037DE9D51B675BA01901A4AD74CAD8A98518AEB80674E16C752EFCB201B262D62D6C32
311
7036AD2E2EBB249D0DDA86A45AA7F42E0AEF7500241FA969C1CB9B9E452662480E7FCF1621EF62D2197D77098ED128F43A6254DA67AE46AFC04FF4DC1F86F10317E7AEC455458EB8AFBB01777D3F0EE75359F57464F9067316CCFCBE2F572D8256C00B420B4C28A6F527AD9A43D1A405E4D810C2F2CDFE078A8BFA27148D0D
311
65B1BFFBC23C709A1E790E38CBB72C52790695EA961BFF01504B03041400060808008376324055019EA25F0000007C00000007000000636E782E786D6C4DCB3B0E80201045D1AD90E915ED2CF8AC45050C11660C8261F98AB1B07AC9C97D42D718D865D3E909258CFD00CCE24AC6E326A164D74DC0B4128928FF326038472B
311
A13128B1252AC747C6BAB984FC68F0B87FE8960A5C09FE86CFB69FBA01504B030414000608080083763240F951AAA965010000020300000C0000006662782F636F72652E786D6C8D52ED8E8230107C95A6FFA12DE2674A8D9CBEC1BD4085CA11A125FD203EFE2D1FC6F3628C2129CDCECECEEC00DFDFDA06F5CABADAE80CB3
311
9862A47461CA5A57190EFE126D30DA0B6E8DF17FDA30D2B255191ECA58F0CA9AD0CDA5C268AFB487AA36A59A8BD239E5312A1AB864D8153FAA95B10C1E3ADC35EE647195958A590C30F409EEBC05036812194E2C2EE71B27535DF010EA7246EB12D4EA4BAD2C166BB6CD97C7D357946C0F8B284DE92ACA37876374C8F3D371
311
BB5EA4393B71329005F7757B77575825BD2AB148284B22CA22B6F966E96E99EC60005DED28E564687F2285AEFC90146AED17C96C77A2392C181819817FDB42441E39D9831F2238194284D798F073D0100884ECE5B9B9EF718552AF0A6F6C0A4869C203EA651314A852343E9C4C284C1E07C0662FE7246FE6BC9F011F50EA0A
311
AC490FD773F0833A9F54E7283A65A3DEDF9036B695CDC3DC64F1713E845ED20BD318FB099BCCAB92394C32FCBDE217504B030414000608080083763240E105CB0B7D0000009D0000000B0000006662782F636E782E786D6C4DCCD10A83201805E05791FFDE65F4B725A8E1587B8F581632D3703AF6F8B3D1C56ECE818FC311
311
FD6775E46DE2CB062FA13E3120C63FC264FD2221A79976407A256208E96F06C48FAB91B03328B1C490B78326338FD9A5A2CEFAE781580F4C0F77A40D2B811A19ED909F29C7FAAADB1B6F2FBC814A89EAF7547A3F565F504B030414000608080083763240C60C5F4D2901000014020000310000006662782F34314530414546
311
342D333046342D344134302D383439362D3934314241354439353739332F636F72652E786D6C8D51CB6EC32010FC15C4293DD8061BBB7184895235FD82FE00C1244589C1E251E5F3BBD48ED4DE7261D1ECCCEC6897EFEFD30D7D6B1F8CB303A625C1485BE546632F034EF15C6C31DA0BEE9D8B7F68185939E90167180B7EF1
311
2ECD2BA49C8DDA4640AD1BF50ACA1074C448DDE033E0A0BEF4244B992230C2B59CA5BACA8B2E69096DE0091EA287006819925F2C183D92C3F183150D81871D1829B6ACEF8A9ED1B743FBDEB7AF7DC3AB4528784A665CE5668438E66CB47FD6248B058F667AC4575ECBA8472C6A42EB82D0826E3F29DBB5F58E7405E97684F0
311
2AD3FF89D23C3E294AC6C6A65EE32EB28005E5D5D2107C74E9747B84D1F7D9F988F2BC4DD0EA050B52929A34A4A52059A8B000F0ECD8EA19A2F3B0E0CDF5046CDA2EC61D13BCCA3782F27B40A8F99EE207504B030414000608080083763240436847E04D01000033030000300000006662782F34314530414546342D333046
311
342D344134302D383439362D3934314241354439353739332F636E782E786D6CD593BD6E032110845F05D1DF0FCEC5B22C0E4B29F20429D272B0B6893938F113C56F9FC5268E1B1729D3A0D3EC30B3FAC4F1DDD76CC9278468BC1B296B7B4AC029AF8D3B8C34A77DB3A1642778F03EDDD9287172869116990A7E083E2F55D2
311
B097D92654AD71A72A06883E070511E5729358AFA4C500704D4611E609B4064D6E46FCDA43C055509CCE241D81BCBEBC133F7D804A91772545F0AE74085ECEDA7467A2445919E348A33AC22C5B9993D7104FAD9649B6ACFDE97AB0D36F1229177E2A7330A4948FB49C54D48D5AE4C83B1C0A1E53407AD594CE0B502197C51A
311
251342EE2EC6AB47F06C5C5A0FD56B107C40375B3F0D03865D668227334375A8003281A662D5B355D3B3866DDED8B07D5E6DFB75D3AFB77DCFBB62177CF2DED64B1803C12F447997C0252A18EFCAF811BEEA23DA0464EDC3F90F2011406DBDD2B965FC673EDDE57D23AE807F81F806504B030414000608080083763240F059
311
E1FA9A0500007B100000340000006662782F34314530414546342D333046342D344134302D383439362D3934314241354439353739332F6F626A656374732E786D6CAD575B8F9B3814FE2B887D0E8424D34E560C552E9D2AEA4E5B356AB50F2345060CE31D73916DA699FEFAFD0C86409ACC64577D016CECE373BEF39D8BFD
311
77FB8C5B4F544856E437B6E78C6D8BE65111B33CBDB12B958CAE6DEB5DE08BA250BD65B695938CDED87ADA0EFC54145569A6629A908AABA3D9DBE5DF968C684E6D2BE244CA1B5B460F34230EA9541153F9E8C44411274DF68EE7340B87625341CA8723A125113457D014F339A4588D52DE7038B6DDC077F5FFC0D74FB36A7A
311
7E955BDB333C9FE552913CFAE5B02331536FB67E3FB99A8FAE66B3E968F666E28D96B7CBF5C87B3B1DAFDEAC56F3C5FB390E964A4092D144D0C40E3E001BC122DF6D7E057EC572359D9825C641AEA04F4C7BCA0E2696E7BBCD9ACE3A63E429F5A322CF69546305346AFB8CE89896348FE173462534EB21341E0E3D8D63EFF7
311
548FCD91FDE9CB10E8EFE8096A756FDF7D4D8BF01F98202F6190905433B0C1D218DA70757C40382C0A6EFE3169654451C108B7380B0511CF7680A57A49E00FC468260B1D0DDA023B80179ADF43BA208C5EE7F9292D938A734D633BA8A3608758A14AD69AB19F541CB4EF23039DE02BCD866B63907A2EA91DCC1B8A5C1FB1A9
311
01D24A3849E17298A9774E274786AE749C6ED676F0F136DC6F75EC9E3EBC14454985D2F401B55AC7B56F8D92D1C9BBC8737A837DA4CA0194AF40FE1342FDA00AFC26D87EB69F99539420B94C0A91C137D6D81A8DF1185B5EFDD4DFBD2FDFED360FBD770E4F385B43F51BF01CDAD0F7650FCEC07F02E10B3135A66D23C29136
311
EE580E8034492C5E600A793809F776B041964356C62EC2030F2643DD277CFAAE118344519FD47BE7C0F2282D5E90A0015BCD48A8D190DF2878F0D32FE9AC3ED82C3B07EFD56FA1EB62BDFDB8AD4442227A67627A4D139633851277E04D5FA101E6038B1EE9F38F42C430F457BCB77DBC33739404DA1A730D7CDAE6743D389C
311
3C3820C2BEB4D0E9C67FE50418A10B6B4FFE1D9311E59CE4B4A8DA735FAC1F281B0DC43AD83593BB0273282C204DF3E7280651A423C14A0D6257ADBAA4E99CB1EEDBE613186907CBE7BFC8733F7B8587DC1B15BC10BBF079D7A4A593507F1F72DB60E06A29A07B1D246DFC1BD077314B924A22099EC0F5FB66D5F79D4E0B48
311
11ADD4265A66B01FC14584216D2B17D55A1054D222DF31D44DC4DDC903FAF201A961402DF09CC692F264C738AFB25DC238AAD12E23E51938FEBFFE6195953B921555AECEC81EA88EEA30D47DC05EF983A8E8C10EB6F57BB444EE8D697C860CBA969CC06AE0DAD578BE988F97B7A3F90A8FD97CB11C2D178BF168BD7E3B995E
311
BF1DAFD64B986E34AA9BA8C06F4B4D3FA2E1259436BF12CCB8EFDB06F16392801DDC1125EF3F34E1D9BEBF6D1CF4C2BE8B3DA897DDC645FC84BE8FC6AF0B38AC3C296893959C66345744C7D09DFEE05F09FA8C8132CDFC262329BD40CAE70FDB23633073C1BE2F3ADEE98FA3BD6676A503F2A410F55065614E183FDA983648
311
3A659E1AFC5A9F74EFA6D0B4433D328E41672A0BCE62E4C1D84A699151856C784111121995A05EBFA78FCDDDE382DD4F4D87A848C869ABC9034193CC25C20224AF22359CB7FE4053A7FBAA1B1BE5D679C4C3640ADB02676E6C34E98A45543A210AB46E856AE1E052BF930767499E72F4DACDA66EDCEDD2D80C4A72B7E492FE
311
C9D8D5A4706300D24889BE010D11BC532B13F8B56EE67FF49F0C6FD5B188C26758A9CE96C344674C7D0C42B431CADC16D0C43C9AA3F708D497CDF29C7ACD00918B6E592F92A0913A5244A4F54D41EB67545AACBFB8E850ACCD67ABE4550A5F5E2E692428C85CE900078BC00A23B3240A545DFD79FF4514B8C966D62D0305EE
311
57459615B9192CCC4DD8DA3EE05E1BDF232D507D2191F793B137B9AF2F02E66EB20B89A40E89E52326E053C13A88078E07239BDB222A50F3A35BE76A271C7173B3B64C499B41A8214A3FAB6A58D072E4D442F4E8CBA48E95FE82F2C5BB805B2F850A025D7CF02F504B03041400060800008376324000000000000000000000
311
0000350000006662782F34314530414546342D333046342D344134302D383439362D3934314241354439353739332F76657274696365732E62696E504B030414000608080083763240F270F1330600000004000000360000006662782F34314530414546342D333046342D344134302D383439362D39343142413544393537
311
39332F747269616E676C65732E62696E636660600000504B030414000608000083763240000000000000000000000000370000006662782F34314530414546342D333046342D344134302D383439362D3934314241354439353739332F617474726962757465732E62696E504B030414000608080083763240D5987DFC8F00
311
000041010000360000006662782F34314530414546342D333046342D344134302D383439362D3934314241354439353739332F6469726563746F72792E786D6C858F410EC2201045AF4266AF15DDB800BA74E7C21B903225242D6328188F2FA5C4183471359997F9FF81E89FF3C41E1816475E02DF1F80A11FC8386F25A438
311
EECEC07A250251FC3803E6F58C12560C4AD840E95E91C151A72936F496F35732D860FE635F62C8F2DA16B505C545B74125BAA2FA9E05D7CC053D063734D5C7665FD55B6B8D15D5E9BFEAFD8490FFA45E504B030414000608080083763240FB4E8D75FB000000A00100003B0000006662782F34314530414546342D33304634
311
2D344134302D383439362D3934314241354439353739332F7265736F75726365732F636F72652E786D6C8D50596E833010BD0A9A7F830D6443C611086ED00B586692580936F252F5F835814AED5F7F3CD65B669E1EBF7ECDAFEC139DD7D6B4C0720A191A65276DEE2DC4702367C8AE823B6BC32F196446CED8C20A83E07767
311
E3B243CA9A802624D4D80977507A8F0132F54A9F16BC7AE02C73194352F867BE48F59477CC599EE8A413DC07970264DB91F505E1D0DBE8147A5E6CACE031EA69D7E829DDD4378D0EC4895DFAC330F6A4BC7415A96B7A24FDB91B48D7F7E370395575CF465EAC66C1839E7F322A8732E004A2A4AC24941176FE607573289BB4
311
801E1B4A79B1CAFF98E232FDD314B50955B9C7DD6C1E044B41DE84E0C5DA571AEF32D35CBB15DF504B010214000A0000080000837632403DEE336E79000000790000001B00000000000000000000000000000000006175746F6465736B2D64657369676E2D7061636B6167652E786D6C504B01021400140006080800837632
311
40D486FD9CA0000000F40000001300000000000000000000000000B20000005B436F6E74656E745F54797065735D2E786D6C504B0102140014000608080083763240E8E5A3EDEA0000007C010000080000000000000000000000000083010000636F72652E786D6C504B010214001400060808008376324055019EA25F0000
311
007C000000070000000000000000000000000093020000636E782E786D6C504B0102140014000608080083763240F951AAA965010000020300000C00000000000000000000000000170300006662782F636F72652E786D6C504B0102140014000608080083763240E105CB0B7D0000009D0000000B00000000000000000000
311
000000A60400006662782F636E782E786D6C504B0102140014000608080083763240C60C5F4D290100001402000031000000000000000000000000004C0500006662782F34314530414546342D333046342D344134302D383439362D3934314241354439353739332F636F72652E786D6C504B010214001400060808008376
311
3240436847E04D010000330300003000000000000000000000000000C40600006662782F34314530414546342D333046342D344134302D383439362D3934314241354439353739332F636E782E786D6C504B0102140014000608080083763240F059E1FA9A0500007B10000034000000000000000000000000005F08000066
311
62782F34314530414546342D333046342D344134302D383439362D3934314241354439353739332F6F626A656374732E786D6C504B010214001400060800008376324000000000000000000000000035000000000000000000000000004B0E00006662782F34314530414546342D333046342D344134302D383439362D3934
311
314241354439353739332F76657274696365732E62696E504B0102140014000608080083763240F270F133060000000400000036000000000000000000000000009E0E00006662782F34314530414546342D333046342D344134302D383439362D3934314241354439353739332F747269616E676C65732E62696E504B0102
311
1400140006080000837632400000000000000000000000003700000000000000000000000000F80E00006662782F34314530414546342D333046342D344134302D383439362D3934314241354439353739332F617474726962757465732E62696E504B0102140014000608080083763240D5987DFC8F000000410100003600
311
0000000000000000000000004D0F00006662782F34314530414546342D333046342D344134302D383439362D3934314241354439353739332F6469726563746F72792E786D6C504B0102140014000608080083763240FB4E8D75FB000000A00100003B00000000000000000000000000301000006662782F34314530414546
311
342D333046342D344134302D383439362D3934314241354439353739332F7265736F75726365732F636F72652E786D6C504B0506000000000E000E0080040000841100000000
310
504B03040A0000080000837632403DEE336E79000000790000001B0000006175746F6465736B2D64657369676E2D7061636B6167652E786D6C3C3F786D6C2076657273696F6E3D22312E302220656E636F64696E673D227574662D3822203F3E3C666F726D6174733E3C666F726D61743E687474703A2F2F736368656D612E
310
6175746F6465736B2E636F6D2F64657369676E2D7061636B6167652F323030393C2F666F726D61743E3C2F666F726D6174733E504B030414000608080083763240D486FD9CA0000000F4000000130000005B436F6E74656E745F54797065735D2E786D6C7D8EC10E82300C865F65E91D8A1E8C310C0EEA1BF002731658846E
310
D98AC1B77784ABF1D8FE5FBFBF75BBCE937A534CCEB38643598122B6FEE978D0B0485F9C41B54DDD7D022595594E1A469170414C76A4D9A4D207E29CF43ECE46F218070CC6BECC4078ACAA135ACF422C856C0E68EA1BF5669944DDD7BCDE7B1F8E415D77AECB980613C2E4AC91FC167A2B244592486606FC29C8FD7F045B9A
310
EF7053A7E60B504B030414000608080083763240B18B660EEA0000007C01000008000000636F72652E786D6C8D90516EC3201044AF82F61F1BB06339162672EAE604BD0002E2A2C46019A87AFCE2C491DABF7EED6A98C78E869FBEE73BFA326BB0DEF5400B02C838E5B575530F295E710BE824F8EA7DFC6503E4E46C7AD864
310
107C5A7D5A764979178D8B59755E9B5D9421980848DDF3D243509F6696854C313BC2AD58A4BAC9C914F4B5653825ABD1F388D5F93F7BB566054187F1BD6555859BBA66B8A6C3051F5933E2E3850DE3F9D0B66FE791971B2C78B4F3EBBE5A8D8C46836084324C28A6ED07ADBB03EB488349D311C2CBCDFE074A8BFE2794AC8B
310
15DBE33EB190B3E6208F07C1CBAD8B3C1E45E5B9F5267E00504B03041400060808008376324055019EA25F0000007C00000007000000636E782E786D6C4DCB3B0E80201045D1AD90E915ED2CF8AC45050C11660C8261F98AB1B07AC9C97D42D718D865D3E909258CFD00CCE24AC6E326A164D74DC0B4128928FF326038472B
310
A13128B1252AC747C6BAB984FC68F0B87FE8960A5C09FE86CFB69FBA01504B030414000608080083763240A592F2BB66010000020300000C0000006662782F636F72652E786D6C8D52ED8E8320107C15C27F44A935B6419AF6BC3EC1BD0055EA992A1804D3C7BFF5A3F17A699A8B0992999DDDD9517EB8B70D1A94ED6BA333
310
1C0521464A17A6AC759561EFAE24C5E820B835C6FD2AC348CB56657884B1E09535BE5BA0C268A7B403549B522DA0EC7BE5302A1AB864B82FBE552B03E91D54F4B7A093C54D562A8802A0A14EF0DE593080E621E389C5F572E774C605F7BE2E17B62E615A7DAD95C5223AE69F29DB6C4812C78CC4D1F14C762CC9C9EECC8EF9
310
699BA61FA79CD3512CB8ABDB87BBC22AE95489050B2346C28844E95714EFB76C1F26244CF661C8E958FE24F25DF94F91AFB5DBB0C5EE2CEBC12B1899883FDB42440EF572003F54703A8608AF29E1E7A0211008D9C94BF3D8E306D0A00A676C0C4C69FC4A0DB2F10AA686687A389D59E83C3580CD5EF6616FFABCEF011F50EA
310
0AAC4907D78B77E3743E4F5DA2E8942583BB236D6C2B9BD5DC6C713DD7412FE585698CFD8F9A2EABD2254C3AFEBDE207504B030414000608080083763240BA4494D37C0000009D0000000B0000006662782F636E782E786D6C4DCCD10A83201886E15B91FFDC520875A08615DD472C0B9969381D5DFE6A74B0A30F1E3E5ED9
310
1E9B471F9BDE2E0605B422806C78C6D9855541C90B16805A2D538CF9EF06284C9B55703168B9A658F69B66BB4CC5E753BD0BAF1B05639D68CC03136E386E466EB0A16387E94088A094897EE8A1D6B2FE95CEBDC2FA0B504B03041400060808008376324095CEC4962A01000014020000310000006662782F38363642383441
310
392D303741372D344637412D413146422D3144303038313136384344432F636F72652E786D6C8D51CB6E833010FC15E4537A30AC09051A19472451BEA03FE060875A0936F2A3CAE7D72E446A6FB978ADD999D9D12EDD3FA67BF62DAD53467788E48032A90723941E3B14FC15B728DB336A8DF17F6828D37C921D4A306274B4
310
26CC2B3418EDA5F611D546C815E4CE498FB2E11E3F1D72C3979C78CE838F0C77CB673EDCF8287392C776E431EABC8D01B265487A116BEBFAD056FD0786A66F70756E7ADC93F3019313404B48DD1E4F475A2C4246435062952B11E3A8AB92F655932466D4ABE9197FB0927B29102B8194180826ED27A976EFE50E6A0CF50E80
310
1689FE4F1466F1A22828EDB7E51A779139C4082D9606A3C284CBFD19463E66637D96E66D9C1CDE10831C4A022540438B851A17103DEB6AF574DED8B8E0CDED12D9DBD5B8AE182DD28D62F93D60ACE99EEC07504B03041400060808008376324025CF88F75401000033030000300000006662782F38363642383441392D3037
310
41372D344637412D413146422D3144303038313136384344432F636E782E786D6CBD93CD6EC32010845F0571F76F5CCB8A30917AE813F4D02B864D4A83C1025C356FDF2521692E3954AA7A41D6EC30B3FA84D9EE6B36E4137CD0CE8EB4296B4AC04AA7B43D8C748DFB62A064C799772EDED928B162869126997276F06E5DB2
310
A4602F56135135DA1EB3E821B8D54B0828A79BC438290C06802D5614619E402950E466C4AF3D785C05C5E944E23B9097E737E2A60F9031B02AA57056A50ECED2999BEE4C94482342186990EF308B52ACD12908C7528928CAA6BC763DD8E92789A40BD7CAD56B92CA479A4ECAF346257264150E390BD123BD6C8AA7052817CB
310
62B41411215767E3C5C3D9AA6DECBBECD508DEA37BD3F6C38061E7196751CF901DD28388A0286FEBA62DEAA66886D7A6DB3EB5DBBA2FEA7E5BD7AC4A76CE26E74CBE8431E0DD42A4B3116CA4BC61551A3FC2977D44698FAC9D3FFD022402C8AD173AB78CBFE4D3F49BAEFB473ED5F97D232E8F7F01FF06504B030414000608
310
0800837632402A28D23759070000941B0000340000006662782F38363642383441392D303741372D344637412D413146422D3144303038313136384344432F6F626A656374732E786D6CED595D73A33617FE2B0CEFB531C4CEEEBA43E8F8A3D9F1F44DBB53773BBDC80C23834CD408C148221BF7D7F7E8030CC424B84DEF7A
310
6130423A3AE7399F3A84DF3FE7D479C25C9082DDB881E7BB0E6649911296DDB8953C4C3EB9CEF751C88B42B6A6B90E4339BE71D5B01B85192FAAD20EA5F8802A2A7BA3B7ABDF1D9160865D27A148881B57240F38471EAA649162F1E8A548222F3B3C7B81672676C9661C950F3DA225E29849E014C61950710C5341F7D177A7
310
513855EFA3505DEDACD9A859F3E159532D75974BC284442C79C1528FCC6C144BB360BEF9E1EA7A31B99ECF6793F987AB60B2BA5D6D26C1C799BFFEB05E2F963F2C80BD7D51502B538A4BCC52D0DFD18D8270AADE34A25B04CE719D148CE14403095069B1FA040916B0550B3EBFFB1828895AAFB584ADE7B97A6F59680DCFBA
310
5486668D03A2431704B1DBD512D7F7B67CC5FE0F105C8C314A2EB0046E85E4A05D0B0F07AF70233F9C9AD128DC9F7441849323893941D4A164CF1107A5C05435250ACD024B46390707528E92406BCEBCEEDA1678E6DBAE738ECB4345A9F20C37D28E1583FB61293467E44FCC4FDCB791019E40DA8A30F9C972298F2576A345
310
38D58351A86EB32BFBD200E91C28CA8446C4BCED09BA56AEBFDDB8D18FB7FBE79D0A07E7372F7951622E95D1293D6ABEC090ED5DA164B70D46694E2D00610CA876E509945F00F99F207A9C5801BD71F23C7F9EDBB99223260E05CF41378EEF4C7CB8F84EA0AFEA7FEB5F386D1677B5378427B8A982EAD33FC7B32B83C6CAF2
310
DF82330A9FC0E00B3EB3AF7609A260CF77840140CA481C5AC01084F6C3FED98DB6103821D0C32A44A3004406769FE06F38B5644E5AA9DDCB7A1D0344ED1EB3314A02D8B445021B037AFA0CD98393E4A4A6B68843F05EBF8BB92E37BB1F77153FA004DF599FDEE003614442D63CCF5007F38E448FF8F8ADE02908FA12EF5D1B
310
EFDC6E25006D85B9023EAB41500FA79D3B1B24B02E2B54B809DFD8018450B9BA45FF8E8804538A182EAA7ADF26BA29436D3CDED60C6E7465209E5DF54C98E327A2AA0A709AD38C0EA390F7134E4A05A21B7D36923541D31B90EEEBF627B0C866FEC0AC2D83D0CB10FD5507AD3338742CBB46DA02D108BC3F85F3A4A0058FF7
310
C7D8443A176A0960A3EB2DBF758842AC374A5254C083B4DFD5212533D2C629391C2A0171F50C8BBF6DD76D73F0BD5970EDB4AF3D679C43B405DF45DCFA5D6F8F98E428C3F101A543DBB5776B680B4D728034C7070A729127228F3192B19FE2EC12682E22BE7857EA192D84200C0BC85767C16FA3E17B10488C366B9695567B
310
401311E758227A09028ACC00B83AEDE81A3781D2E16D1E1BEB7D4D636DA2FF92457004B564C16202A528E49037190FBC6B88215D740DCA3D7CC1DA6ADA5A0C5A4109911CE36F98640FF212D40DF901DC13389254322E4A9480598F20FBC25794527BBCEF51F2A8F2479C54F4BD0C44607A8809A5551EC38F3038798C71ED26
310
30BD8A428BB8897D12E750942159F1319B7CB8F65FEC636A867E086C6D742014C2769CA37200F54E40D4F588D3806FA90F28755FE5658CF2A262A30CC59BF5BDC992EFAB55911DC9AF2A15A16CAC095B825148986CB26A1DB3C1D475600537D281EA180B9497D49CC2DE483C41E34D9AF2E006DCFAE9FB6E9043E137A0BD76
310
449DD730581E3B8581F88664F2E0463B7D9FACA0FE4E717A4AF575ADD9AE00013115C92B4EAC8ABE6EA1BCB1359A1BDD2129EE3F9BAC5BDFBF6E3DE87E84535803B54BB370AB80CE319348552677EA0FFD054108EED030E35B95532FA1B24C535D35227A4B86D4D929233A9BE6C42B1F302B72F8B17BC2125AA5F81EA5E231
310
BE9334DE11C5BA95D2CB498DF1AB02FEFC79D78307464688F4451578F85B6FAD1D5DAB72E92C11F950E57B860804C18E6899D18D57B2CC6AA4D6727357670AA8BBC0C0AC8AE7FF9D2CDAED88FF4E1699358C7F74B2581DFF8F8EEDBE482B9D27CAAE2F3A0634F94951798F63806E3B34549B2C6292B995DF3A530C41B18EF2
310
A3ABB13A681882431CFFEDAC3D9405CD763DFE2FCBDAC18B8AE3A2ACD299ACBA54672AD76D3B87ADFDC572E1AF6E278B355CE68BE56AB25A2EFDC966F3F16AF6E9A3BFDEACD60D9ADA51A3B009663A77C1B3096AF5B07AB2184057561494A4709A4F9D0C43CC9770A61FD13EE73916903CDBCDEED436E547AC7E327D4E89F6
310
14D79C3C2068105301691D30AA12D91D77FE07AD490907ED1B179A46DE235CAC55BA0E649E1B175A05922458787B6833A9869E260E2957E77E4B0CF0412C5329D12C6A9E9B550A9B4EF86FA68C490356AE4E0F030AB712BA5F9D0E85E6CDF2945C2478CD8E8324FCDD5712AA3523CB69A011466F7352BF918D12F668B77E06
310
D77D5DACC0D3733A888CFA64F0AA1118AA138978A6FBDD8A31CBD272F3650A7D3667FBB353D22A035D8EA734E1188CB952051558115885A5592209A6BAFEEEFE0B2FE0134FEEE8AAE87E5DE479C1ECC312CE63297C2272760FF0C127BD87B201ABB6BAB8BFF283AB7BDDCEB61DF6788F04F6543D04037519A144E8191B58E4
310
8BD6946D5C4E95127AD3B71BC7864F6803180B7AD1DD359FB71CF01EF52145F98AF6F05ACE573BDA533D15AC81432F3AFA0B504B030414000608000083763240000000000000000000000000350000006662782F38363642383441392D303741372D344637412D413146422D3144303038313136384344432F766572746963
310
65732E62696E504B030414000608080083763240F270F1330600000004000000360000006662782F38363642383441392D303741372D344637412D413146422D3144303038313136384344432F747269616E676C65732E62696E636660600000504B0304140006080000837632400000000000000000000000003700000066
310
62782F38363642383441392D303741372D344637412D413146422D3144303038313136384344432F617474726962757465732E62696E504B030414000608080083763240D5987DFC8F00000041010000360000006662782F38363642383441392D303741372D344637412D413146422D3144303038313136384344432F6469
310
726563746F72792E786D6C858F410EC2201045AF4266AF15DDB800BA74E7C21B903225242D6328188F2FA5C4183471359997F9FF81E89FF3C41E1816475E02DF1F80A11FC8386F25A438EECEC07A250251FC3803E6F58C12560C4AD840E95E91C151A72936F496F35732D860FE635F62C8F2DA16B505C545B74125BAA2FA9E
310
05D7CC053D063734D5C7665FD55B6B8D15D5E9BFEAFD8490FFA45E504B030414000608080083763240A2204896FC000000A00100003B0000006662782F38363642383441392D303741372D344637412D413146422D3144303038313136384344432F7265736F75726365732F636F72652E786D6C8D504B6E833010BD8AE5BD
310
C1760822C83822A539412F609909B1126CE44FD5E3D7042AB5BB6E6646EFA3797AE2FC353FD127F8609CED302B284660B51B8D9D3A9CE28D34189DA5F0CEC55F328CAC9AA1C32B8CA598BC4BCB0E696723D89851EB46D8411502448CF4331F1D0EFA0EB32A548A59111EC5A2F4434D50B022D3592745883E0740DB937562E9
310
21B8E43504516EAC14299971D79831FF3437031E4BD60FEF0D3F705257152715EBAFE4C4EB819CAEBC1F2EC7A679BB0CA25CCD524433FF64D41E5484114B4E19279411D67CB0AA3DF296D684D62DA5A25CE57F4C6919FF694AC6C603DFE36EB690B3E6202F428A72ED2BAF579979AFDDCA6F504B010214000A000008000083
310
7632403DEE336E79000000790000001B00000000000000000000000000000000006175746F6465736B2D64657369676E2D7061636B6167652E786D6C504B0102140014000608080083763240D486FD9CA0000000F40000001300000000000000000000000000B20000005B436F6E74656E745F54797065735D2E786D6C504B
310
0102140014000608080083763240B18B660EEA0000007C010000080000000000000000000000000083010000636F72652E786D6C504B010214001400060808008376324055019EA25F0000007C000000070000000000000000000000000093020000636E782E786D6C504B0102140014000608080083763240A592F2BB6601
310
0000020300000C00000000000000000000000000170300006662782F636F72652E786D6C504B0102140014000608080083763240BA4494D37C0000009D0000000B00000000000000000000000000A70400006662782F636E782E786D6C504B010214001400060808008376324095CEC4962A01000014020000310000000000
310
00000000000000004C0500006662782F38363642383441392D303741372D344637412D413146422D3144303038313136384344432F636F72652E786D6C504B010214001400060808008376324025CF88F754010000330300003000000000000000000000000000C50600006662782F38363642383441392D303741372D3446
310
37412D413146422D3144303038313136384344432F636E782E786D6C504B01021400140006080800837632402A28D23759070000941B00003400000000000000000000000000670800006662782F38363642383441392D303741372D344637412D413146422D3144303038313136384344432F6F626A656374732E786D6C50
310
4B01021400140006080000837632400000000000000000000000003500000000000000000000000000121000006662782F38363642383441392D303741372D344637412D413146422D3144303038313136384344432F76657274696365732E62696E504B0102140014000608080083763240F270F133060000000400000036
310
00000000000000000000000000651000006662782F38363642383441392D303741372D344637412D413146422D3144303038313136384344432F747269616E676C65732E62696E504B01021400140006080000837632400000000000000000000000003700000000000000000000000000BF1000006662782F383636423834
310
41392D303741372D344637412D413146422D3144303038313136384344432F617474726962757465732E62696E504B0102140014000608080083763240D5987DFC8F000000410100003600000000000000000000000000141100006662782F38363642383441392D303741372D344637412D413146422D3144303038313136
310
384344432F6469726563746F72792E786D6C504B0102140014000608080083763240A2204896FC000000A00100003B00000000000000000000000000F71100006662782F38363642383441392D303741372D344637412D413146422D3144303038313136384344432F7265736F75726365732F636F72652E786D6C504B0506
310
000000000E000E00800400004C1300000000
  0
XRECORD
  5
17
102
{ACAD_REACTORS
330
12
102
}
330
12
100
AcDbXrecord
280
     1
270
     1
271
     1
  0
XRECORD
  5
16
102
{ACAD_REACTORS
330
12
102
}
330
12
100
AcDbXrecord
280
     1
270
     1
271
     1
  0
XRECORD
  5
18
102
{ACAD_REACTORS
330
12
102
}
330
12
100
AcDbXrecord
280
     1
270
     1
271
     1
  0
XRECORD
  5
15
102
{ACAD_REACTORS
330
12
102
}
330
12
100
AcDbXrecord
280
     1
270
     1
271
     1
  0
XRECORD
  5
DF4
102
{ACAD_REACTORS
330
22
102
}
330
22
100
AcDbXrecord
280
     1
102
MATERIAL
148
0.0
149
0.0
149
0.0
 93
        0
 94
      127
282
     0
 72
     0
 77
     0
171
     0
175
     0
179
     0
273
     0
  0
XRECORD
  5
24
102
{ACAD_REACTORS
330
22
102
}
330
22
100
AcDbXrecord
280
     1
270
     1
271
     1
  0
XRECORD
  5
23
102
{ACAD_REACTORS
330
22
102
}
330
22
100
AcDbXrecord
280
     1
270
     1
271
     1
  0
XRECORD
  5
BA
102
{ACAD_REACTORS
330
22
102
}
330
22
100
AcDbXrecord
280
     1
 70
     1
 90
1959938040
 71
     1
  1
673C3FD1-B01F-434B-9931-D482355BA921
311
504B03040A0000080000837632403DEE336E79000000790000001B0000006175746F6465736B2D64657369676E2D7061636B6167652E786D6C3C3F786D6C2076657273696F6E3D22312E302220656E636F64696E673D227574662D3822203F3E3C666F726D6174733E3C666F726D61743E687474703A2F2F736368656D612E
311
6175746F6465736B2E636F6D2F64657369676E2D7061636B6167652F323030393C2F666F726D61743E3C2F666F726D6174733E504B030414000608080083763240D486FD9CA0000000F4000000130000005B436F6E74656E745F54797065735D2E786D6C7D8EC10E82300C865F65E91D8A1E8C310C0EEA1BF002731658846E
311
D98AC1B77784ABF1D8FE5FBFBF75BBCE937A534CCEB38643598122B6FEE978D0B0485F9C41B54DDD7D022595594E1A469170414C76A4D9A4D207E29CF43ECE46F218070CC6BECC4078ACAA135ACF422C856C0E68EA1BF5669944DDD7BCDE7B1F8E415D77AECB980613C2E4AC91FC167A2B244592486606FC29C8FD7F045B9A
311
EF7053A7E60B504B030414000608080083763240B2A21927E90000007C01000008000000636F72652E786D6C8D505B6EC32010BC0AE21F1B70ECA41626CAA339412F8060E3A2C460F1A87AFCE2C491DABF7EED6A7666673462FF3DDDD1178468BD1B30AB2846E0B437D68D03CEE94A7618EDA508DEA75F348C9C9A60C00B8C
311
A51883CFF30A69EF12B85450E70DACA08A111246FA5E960147FD0993AA544E85116FD5ACF44D8D50B1D756C4395B839E26D6947FF66A2160C9DE9A66DBB667423B76249B033D93036B4E64CB3B7EE1EF97136F8FA25EC452243BBDFC750095C060C929E38432C2761F6CD3B7BCA75D79D5532AEA85FE479467F34F51B62E35
311
7C8DFB94C592B504791CA4A8972ECA781455E6D29BFC01504B03041400060808008376324055019EA25F0000007C00000007000000636E782E786D6C4DCB3B0E80201045D1AD90E915ED2CF8AC45050C11660C8261F98AB1B07AC9C97D42D718D865D3E909258CFD00CCE24AC6E326A164D74DC0B4128928FF326038472BA1
311
3128B1252AC747C6BAB984FC68F0B87FE8960A5C09FE86CFB69FBA01504B0304140006080800837632407F8F9B4266010000020300000C0000006662782F636F72652E786D6C8D52ED8E8230107C95A6FFA11F887AA6D4F8713EC1BD4085CA11A125A5253EFE2D1FC6F362CC85A4343B3B3BB303627B6B6AD46BD755D66498
311
C514236D725B54A6CC70F097688DD1560A67ADFFD58691518DCEF050C65294CE86762EE5D6786D3C548D2DF45C545DA73D46790D970C77F9B76E54AC82878EEE1AB72ABFAA52C72C0618FAA4E8BC03036812194E2C2FE79B20535D8A10AA6246AB02D4AA4BA51D96EC234956697A8CE892EDA3C58E1EA31D4B0ED18A2FF989
311
7F9E0E3CDD0B3290A5F0557377973BADBC2EB0E494F188B288ADBFD86293F20D5DC2A80DA5820CED4FA4D016FF2485CAF884CF76275A075EC1C808FCD91622F2A8533DF82152902144788D093F070D8140C85E9DEBFB1E5728F53AF7D62D00296C7840BDAA8306558AC647900985C9E300D8ECE51CFE66CEFB19F0019529C1
311
9AF2703D073FA88B49758EA2D52EEAFD0D19EB1A553FCC4D161FE743E8253DB7B575FF6193795532874986BF57FE00504B030414000608080083763240AC0895497E0000009D0000000B0000006662782F636E782E786D6C4DCCD10A83201886E15B91FFDC955BB5066A28EA7DC4B290990EA76397BF1A1DECE883878F970E
311
9FD5A3B74D2F17030372AA01D9708F930B0B839267DC031A384D31E6BF1BA030AE96C1CEC0E99262791E34D9792C3E6FEA5D781C286FAA35E46C70DF69811B296A2C75DB60A52F2D114A5D3B62A0E2B4FA95B6DDC3FC0B504B030414000608080083763240431DBFD22C01000014020000310000006662782F423944354631
311
32462D383645412D344241302D424535342D4445333531414444373631462F636F72652E786D6C8D51CB6EC23010FC95C8277A70629B24A5C8310205BEA03F6062432D881DF951F1F95D37416A6F5CBCD6ECCCEC6897EF1EE3BDF8D63E18673B444B820A6D07A78CBD7628C50BDEA06227B8772EFEA1A1C2CA517728C348F0
311
AB77695AA0C1D9A86D04D43AA5175086A0232A863B7C3A14862F3DCA52A6088C702B2739DCE45597B48436F0040FD14380621E925F240E1F7D73A2EC8437ED718FEBC39EE0C3B1A9717F5C3774DFF7EF2D3DF16A160A9E92518BDC2888632E46FB574DB258F068C667FCC16B19B5428211CA30A1986E3E69BD6DD896B498B4
311
5B427895E9FF4469522F8A92B171CD96B8B32C204179353704572E9DEFCF30FA31391F8B3C6F15F4F086042909236DC39A8657331516009E6DBD7886E83C2C78753B039B022B1BB7B5E055BE1194DF0342CDF7143F504B030414000608080083763240436847E04D01000033030000300000006662782F4239443546313246
311
2D383645412D344241302D424535342D4445333531414444373631462F636E782E786D6CD593BD6E032110845F05D1DF0FCEC5B22C0E4B29F20429D272B0B6893938F113C56F9FC5268E1B1729D3A0D3EC30B3FAC4F1DDD76CC9278468BC1B296B7B4AC029AF8D3B8C34A77DB3A1642778F03EDDD9287172869116990A7E08
311
3E2F55D2B097D92654AD71A72A06883E070511E5729358AFA4C500704D4611E609B4064D6E46FCDA43C055509CCE241D81BCBEBC133F7D804A91772545F0AE74085ECEDA7467A2445919E348A33AC22C5B9993D7104FAD9649B6ACFDE97AB0D36F1229177E2A7330A4948FB49C54D48D5AE4C83B1C0A1E53407AD594CE0B50
311
2197C51A251342EE2EC6AB47F06C5C5A0FD56B107C40375B3F0D03865D668227334375A8003281A662D5B355D3B3866DDED8B07D5E6DFB75D3AFB77DCFBB62177CF2DED64B1803C12F447997C0252A18EFCAF811BEEA23DA0464EDC3F90F2011406DBDD2B965FC673EDDE57D23AE807F81F806504B03041400060808008376
311
324014F5C83E990500007A100000340000006662782F42394435463132462D383645412D344241302D424535342D4445333531414444373631462F6F626A656374732E786D6CAD57DB6EDB3810FD1541FBEC8B6CA78D178A8AC46E0AA3485BD468B10F010C4AA2146E285120A9D4D9AFDF4389BA3976E25DF4C5B2A8E170E6
311
CC990BFD0FFB8C3B4F542A26F22BD71B4F5D87E69188599E5EB9A54E4697AEF321F0A510BA27E63A39C9E8956B96DDC04FA5280BBB14D384945C1FACDEDEFCE5A888E6D475224E94BA7255F440333226A51631558FE39868324E93FDD81BD78243B5A924C5C381D282489A6B588AF51C5A9CDA286FF83A7527813F31DF03DF
311
FC5AA9F969A949E5CFF07C962B4DF2E8C561076AE6DE62FD7176B11C5D2C16F3D1E2DDCC1BDDDCDEAC47DEFBF974F56EB55A5E7F5CE260A52534594B244DDCE013B0912CF227F5A7C02F59AEE7332B62033491F4899948B9C1CCF1FC492DD37A679D3C667E24F29C46155640A3F2CFAA8E6941F318316754C1B21E42D3E1AB
311
6770EC7D9E9B777B647FF93C04FA3B7A8A1ADB9B67DF5211FE0D17D4390C928A1A06D6585A476BAE4E3B844321B8FDC69493114D2523DCE12C94443EBB01448D48E00FD418264B930DC603374014EACF43BA208DDEE6F9312B939273436337A8B260875CA15A5596B17FA8ECACEF23039B102BC3864BEB907E2EA81B2C6B8A
311
5C1EB0A906D24938491172B86976CE67078EAE4C9E6ED66EF0F936DC6F4DEE1E3FBC90A2A0521BFA805A4DE09AA741C9DAE49D1539B3C13D30A503E53B90FF8254EF4C41DC24DB2FF60B7B8A96245789901962E34C9DD1143F53C7AB7ECDFFDE3F7FD26E1E46EF149E08B681EA37E039F4A11FCB1E9C81FF04C20B39B7AE6D
311
23C25136EE580E800C491C2EB0843A9C847B37D8A0CAA12A6317E181079761EE13FEFA13AB0685A23AA9F7CC81E541593CA34003B68A9130A326BF35B08BD38B72561D6CC54EC17BF15BE87ABDDE7EDE96322111BDB339BDA609CB99468BEB78D3376880F9C0A347FAFC4BC8188EBEC47BDBC73BB34729A06D3037C0A74D4D
311
372FDDC9830322EC4B852937FE1B27C009D3587BFAEF988A28E724A7A26CCE7DB57FA06DD4109B64374C6E1B4CD758409AFACB410EA24947921506C4B65BB545737CC2BB1F9B2F6024E4B90809EF84C2AEF446820BB90B9F7775553A8AF4CF21B52D0413A3056CAF72A4497F8BF92E6649522AD4C023B0FEDCACFAA1335501
311
15A2D15A27CB02EE23B788B49C6DF4A2594B82462AF21D43DB44DA1D3DA0AF1F885A02540A4F59AC284F768CF332DB258CA319ED32529C80E3FFDB1F9659B1239928737D42F7C0743487A1ED03F2AA5F44470F6EB0AD9EA31B94DE98C65D9807C2A6951CC16A10DA77EFE7ABF9ED1A43D3D4BB1D2DE68B9BD17239F746EBC5
311
E56C7E717173BD9C7568563354E0379DA69FD088123A9B5F4A66C3F76383F4B135C00DEE8856F79FEAEC6C9E3F36638CC2FE047BD02EDB8DD7F113C63E1ABFADA0933CAA6893159C6634D7C4A4D09DF9C3BF138C190363EAF54D46527A8696AF9FB607CE60E58C7DDF4CBAD35F077BEDEACA24E45125FAA1CCC29C307EB031
311
AD911C17796AF16B62D23EEB3ED3BC9A371B180CA64A7016A30CC64E4A4546358AE1193D486654817AFD913EB6578F33763FD503A22621A78D250F04333257480BF0B68CF470DDF903339D19ABAE5C74DBF1237E6CA5701D70E6CAC58CAE5944D538447F369350A51C5CEA0FF2E02CC9538E51BBDED4BEB7BB0C36838EDC8A
311
9C333E59BFEA0A6E1D4019293036601E42742A6302BFB2CD7E8FFE93E38D390ED1F81B96BAF5A55B689DA98E418AD64ED9CB026698477BF41E89FABA5BDEB892192072D625EB5512D45A479AC8B4BA2818FBAC49D7EB6F130C28CEE6AB53F032452CCFD7349214642E4D8283456085D559100DAAAEFEBCFF26052EB29973CB
311
4081FB95C83291DB976B7B1176B60FB8D6C6F7280BD4DC47D4FD6CEACDEEAB7B80BD9AEC42A2E898C4EA110B88A9642DC483C08391F5651135B3FED0CA4D4C100EB8B9593BB6A52DA0D412A55F550D2C983872EA207BCC5DD2E44A5FA078F52A30A9446182C4101FFC0B504B03041400060800008376324000000000000000
311
0000000000350000006662782F42394435463132462D383645412D344241302D424535342D4445333531414444373631462F76657274696365732E62696E504B030414000608080083763240F270F1330600000004000000360000006662782F42394435463132462D383645412D344241302D424535342D44453335314144
311
44373631462F747269616E676C65732E62696E636660600000504B030414000608000083763240000000000000000000000000370000006662782F42394435463132462D383645412D344241302D424535342D4445333531414444373631462F617474726962757465732E62696E504B030414000608080083763240D5987D
311
FC8F00000041010000360000006662782F42394435463132462D383645412D344241302D424535342D4445333531414444373631462F6469726563746F72792E786D6C858F410EC2201045AF4266AF15DDB800BA74E7C21B903225242D6328188F2FA5C4183471359997F9FF81E89FF3C41E1816475E02DF1F80A11FC8386F
311
25A438EECEC07A250251FC3803E6F58C12560C4AD840E95E91C151A72936F496F35732D860FE635F62C8F2DA16B505C545B74125BAA2FA9E05D7CC053D063734D5C7665FD55B6B8D15D5E9BFEAFD8490FFA45E504B0304140006080800837632406DCCD39FFC000000A00100003B0000006662782F42394435463132462D38
311
3645412D344241302D424535342D4445333531414444373631462F7265736F75726365732F636F72652E786D6C8D504B6EC32010BD0A628F0D3876520B13256E73825E00C1C44589C1E253F5F8C5892BB5BB6E18F43E334F4F1CBFE63BFA8410AD77036615C5089CF6C6BA69C0395DC901A3A314C1FBF44B869153330C7885
311
B11453F079D920ED5D02970AEABC810D543142C248DFCB67C0517FC0AC2A955351C45BB5287D531354AC2A74D14911532801D0F3C8FA621920FA1C3444513F592972B666D358536EDAAB8580257B699A7DDB8E8476EC4C7627FA4A4EAC19C99E77FCC2DF2E236FCFA25ECD52243BFF64D40154028325A78C13CA083BBCB35D
311
DFF29E7665554FA9A857F91F535ECC3F4DD9BAD4F02DEED3164BD612E4414851AF7D95F128B3CCB55BF90D504B010214000A0000080000837632403DEE336E79000000790000001B00000000000000000000000000000000006175746F6465736B2D64657369676E2D7061636B6167652E786D6C504B010214001400060808
311
0083763240D486FD9CA0000000F40000001300000000000000000000000000B20000005B436F6E74656E745F54797065735D2E786D6C504B0102140014000608080083763240B2A21927E90000007C010000080000000000000000000000000083010000636F72652E786D6C504B010214001400060808008376324055019E
311
A25F0000007C000000070000000000000000000000000092020000636E782E786D6C504B01021400140006080800837632407F8F9B4266010000020300000C00000000000000000000000000160300006662782F636F72652E786D6C504B0102140014000608080083763240AC0895497E0000009D0000000B000000000000
311
00000000000000A60400006662782F636E782E786D6C504B0102140014000608080083763240431DBFD22C0100001402000031000000000000000000000000004D0500006662782F42394435463132462D383645412D344241302D424535342D4445333531414444373631462F636F72652E786D6C504B0102140014000608
311
080083763240436847E04D010000330300003000000000000000000000000000C80600006662782F42394435463132462D383645412D344241302D424535342D4445333531414444373631462F636E782E786D6C504B010214001400060808008376324014F5C83E990500007A100000340000000000000000000000000063
311
0800006662782F42394435463132462D383645412D344241302D424535342D4445333531414444373631462F6F626A656374732E786D6C504B010214001400060800008376324000000000000000000000000035000000000000000000000000004E0E00006662782F42394435463132462D383645412D344241302D424535
311
342D4445333531414444373631462F76657274696365732E62696E504B0102140014000608080083763240F270F13306000000040000003600000000000000000000000000A10E00006662782F42394435463132462D383645412D344241302D424535342D4445333531414444373631462F747269616E676C65732E62696E
311
504B01021400140006080000837632400000000000000000000000003700000000000000000000000000FB0E00006662782F42394435463132462D383645412D344241302D424535342D4445333531414444373631462F617474726962757465732E62696E504B0102140014000608080083763240D5987DFC8F0000004101
311
00003600000000000000000000000000500F00006662782F42394435463132462D383645412D344241302D424535342D4445333531414444373631462F6469726563746F72792E786D6C504B01021400140006080800837632406DCCD39FFC000000A00100003B00000000000000000000000000331000006662782F423944
311
35463132462D383645412D344241302D424535342D4445333531414444373631462F7265736F75726365732F636F72652E786D6C504B0506000000000E000E0080040000881100000000
310
504B03040A0000080000837632403DEE336E79000000790000001B0000006175746F6465736B2D64657369676E2D7061636B6167652E786D6C3C3F786D6C2076657273696F6E3D22312E302220656E636F64696E673D227574662D3822203F3E3C666F726D6174733E3C666F726D61743E687474703A2F2F736368656D612E
310
6175746F6465736B2E636F6D2F64657369676E2D7061636B6167652F323030393C2F666F726D61743E3C2F666F726D6174733E504B030414000608080083763240D486FD9CA0000000F4000000130000005B436F6E74656E745F54797065735D2E786D6C7D8EC10E82300C865F65E91D8A1E8C310C0EEA1BF002731658846E
310
D98AC1B77784ABF1D8FE5FBFBF75BBCE937A534CCEB38643598122B6FEE978D0B0485F9C41B54DDD7D022595594E1A469170414C76A4D9A4D207E29CF43ECE46F218070CC6BECC4078ACAA135ACF422C856C0E68EA1BF5669944DDD7BCDE7B1F8E415D77AECB980613C2E4AC91FC167A2B244592486606FC29C8FD7F045B9A
310
EF7053A7E60B504B030414000608080083763240320601DDEA0000007C01000008000000636F72652E786D6C8D904D8EC3200C85AF82BC27012669D3885029FD39C15C00014D511B88028C7AFC9236956676B3B2F5FC3EDB7A7CFF18EFE8C7CCC17AD7012D0820E394D7D60D1DA478C10DA0BDE0B3F7F1970D9093A3E96091
310
41F061F6695A25E55D342E66D5796D56518660222075CF4D07415DCD280B996276845B314975938329E8A7CB704A56A3F711ABF33E7BB1660671A0FDE9DCB333A65B4671459A136E7615C1BBBA3EF6EC506DE9B1E1E5020B1EEDF8B9AF6623A3D12018A10C138A69F34DABB6662DD960B26909E1E562FF03A549FF134AD6C5
310
2FB6BEFBC602089A1F790D042F972C72790595EB929B7802504B03041400060808008376324055019EA25F0000007C00000007000000636E782E786D6C4DCB3B0E80201045D1AD90E915ED2CF8AC45050C11660C8261F98AB1B07AC9C97D42D718D865D3E909258CFD00CCE24AC6E326A164D74DC0B4128928FF326038472B
310
A13128B1252AC747C6BAB984FC68F0B87FE8960A5C09FE86CFB69FBA01504B030414000608080083763240FAFE4A8D65010000020300000C0000006662782F636F72652E786D6C8D52ED8E8320107C15C27F043CDBDA0669D2AF27B817A04A3D53058360FAF8B77E34BD5E9AA6314132B3B33B3B2AB6B7A646BD765D654D86
310
79C430D226B74565CA0C077F2129465B299CB5FE4F194646353AC3038CA5289D0DED0CE5D6786D3CA0C6167A0655D7698F515EC325C35DFEA31B15A9E0A1A2BB46ADCAAFAAD4118F80863A293AEFC0009A860C279697F34DD009972284AA98D9AA8069D5A5D20ECB3DDF1D4FBBF844F82AE62461E991A4EB8491F56271D8C5
310
FB64C50FA9A083580A5F357777B9D3CAEB02CB98F198304E78FACD93CD22DEB02561CB0D63820EE54FA2D0161F8A4265FC573CDB9D641D961C8C8CC4BF6D21228F3AD5831F2A051D4284D798F073D0100884ECD5B9BEEF7105A8D7B9B72E01A6B0E141F5AA0E1AA632343E824E2C741E1BC0662FFBC46FFABCEF011F509912
310
AC290FD773F0C374314D9DA368B523BDBF21635DA3EA87B9C9E2E37C0C7A29CF6D6DDD276A3AAF4AE730E9F0F7CA5F504B0304140006080800837632405D7136417D0000009D0000000B0000006662782F636E782E786D6C4DCCD10A83201886E15B91FFDC55CE2D053502F33E6259C84C87D3D8E5AF46073BFAE0E1E315DD
310
67F568B3E9ED6290D05C6A40363CE2E4C222A1E41933409D1229C6FC770314C6D54A38189458522CAF93263B8FC5E75DBD0BCF131BDD0EDAE83BD6B4E59812C330EF8DC686D70325FC4A6F8441A544F52BED7B84D517504B03041400060808008376324040DA44CE2B01000014020000310000006662782F31443745444644
310
362D443437392D343246382D394146442D4639304534323933343532382F636F72652E786D6C8D51CB6EC32010FC15C4293D6003C1AE1D61A24A8EBFA03F400C495162B07854F9FCE2DA91DA5B2E2C9A9D991DEDF2E363BA836FED8371B683A4C010683B3A65ECB583295E5003C15170EF5CFC4383C0CA49777081A1E057EF
310
D2BC41A3B351DB9851EB94DE4019828E108CF7FCE96018BFF4240B996266845B31CBF126AFBA20456E679EE021FA1C00AC4396170AD2BF9FFAA1AF51CFDE5BC4E8D0A0F663E8D1D0E213A3ED9E55B4E1E52A143C25A336B951398EB918ED5F3559C48247333DE38F5ECBA8151414138A3041A4F924EC50D103AE11AE0F18F3
310
72A1FF13A559BD284AC6C63DDDE2AEB290B3F2726D08AE5C3ADF9F61F463763E8265DE2EE8F10D0A5C604A59452ACACB959A17903D6BB67986E87C5EF0EE76CEEC3D598D6B2678B9DC2897DF03E6BADC53FC00504B03041400060808008376324025CF88F75401000033030000300000006662782F31443745444644362D44
310
3437392D343246382D394146442D4639304534323933343532382F636E782E786D6CBD93CD6EC32010845F0571F76F5CCB8A30917AE813F4D02B864D4A83C1025C356FDF2521692E3954AA7A41D6EC30B3FA84D9EE6B36E4137CD0CE8EB4296B4AC04AA7B43D8C748DFB62A064C799772EDED928B162869126997276F06E5D
310
B2A4602F56135135DA1EB3E821B8D54B0828A79BC438290C06802D5614619E402950E466C4AF3D785C05C5E944E23B9097E737E2A60F9031B02AA57056A50ECED2999BEE4C94482342186990EF308B52ACD12908C7528928CAA6BC763DD8E92789A40BD7CAD56B92CA479A4ECAF346257264150E390BD123BD6C8AA7052817
310
CB62B41411215767E3C5C3D9AA6DECBBECD508DEA37BD3F6C38061E7196751CF901DD28388A0286FEBA62DEAA66886D7A6DB3EB5DBBA2FEA7E5BD7AC4A76CE26E74CBE8431E0DD42A4B3116CA4BC61551A3FC2977D44698FAC9D3FFD022402C8AD173AB78CBFE4D3F49BAEFB473ED5F97D232E8F7F01FF06504B0304140006
310
08080083763240F696410D57070000931B0000340000006662782F31443745444644362D443437392D343246382D394146442D4639304534323933343532382F6F626A656374732E786D6CED595B739B3814FE2B0CFB6C6C8C93363B844E62371DCF4EDA4EBDEDEC4366181964A28D108C2472D95FBF4717301093E06DF6AD
310
0F3620A4A373BE73D521FCF09853E71E73410A76EEFADECC75304B8A94B0ECDCADE46EF2DE753E44212F0AD99AE63A0CE5F8DC55C36E1466BCA84A3B94E21DAAA8EC8D5E5DFEE5880433EC3A0945429CBB22B9C539F250258B148B3B2F451279D9EED1F33D33B14B36E3A8BCED112D11C74C02A730CE808A6398F2BB8F3377
310
1A8553F53E0AD5BF9D158C9AB5189E35D55277B9244C48C492672CF5C804A3580AFCC5EAE3FCE46C72B2580493C5E9DC9F5C5E5DAE26FEBB60B63C5D2ECF2E3E9E017BDBA2A056A6149798A5A0BF2737F2C3A97AD3886E1138C475523086130D2440A5C5EA132458C0562DF866DD475F49D47AAD256C3D2FD47BCB426B38E8
310
52199A350E880E5D10C46E574B5C5FDBF215DBBF417031C628B9C012B8159283762D3C1CBCC28D66E1D48C46E176AF0B229C1C49CC09A20E255B8E382805A6AA295168165832CA3938907294045A73E675D7B6C0335F779D435CEE2A4A9567B89176AC18DC0F4BA13923FF60BEE7BE8D0CF004D25684C9F7964BF95462373A
310
0BA77A300AD52598DB970648674751263422E66D4FD0A572FDF5CA8DFEB8DA3E6E543838BC79C98B1273A98C4EE951F305866CAF0A25BBAD3F4A736A01086340B52BF7A07C03E43F43F4D8B3027AE3E471F1B8B07325474CEC0A9E836E9C993399C1DFCCF1F5BFBA6FDD85D36671577B4378829B2AA8DEFF3C9E5D19345696
310
FF169C51780F065FF0C0BEDA2488823D5F13060029237168014310DA77DB47375A43E084400FAB108D7C1019D8BD87DB706AC9ECB552BB97F53A0688DA3D82314A02D8B445021B037AFA04D9839364AFA6B68843F09EBC89B95EAC367F6C2ABE4309BEB63EBDC23BC28884AC7998A10EE61D89EEF0D343C15310F439DE9B36
310
DEB9DD4A00DA0A73057C5683A01EF63B773648605D56A87013BEB20308A172758BFE351109A614315C54F5BE4D745386DA78BCAD19DC686E200EE63D13E6F89EA8AA029C663FA3C328E4FD84935281E8469F8C644DD0F406A4FBBEFE0C16D9CC1F98B566107A19A27FEAA07500878E65D7485B201A81B7FB709E14B4E0F1F6
310
293691CE855A02D8E87ACB8F0E5188F546498A0A7890F6BB3AA46446DA3825BB5D2520AE1E60F1C77AD936879917F8274EFBBFE78C0B88B6E0BB885BBFEBED11931C6538DEA17468BBF66E0D6DA1490E90E67847412E724FE4538C643C4B71760C3447113F7B53EA192D84200C0BC85707C16FA331F32090186DD62C2BADF6
310
802622CEB144F418041499017075DAD1356E02A5C3EB3C36D6FB92C6DA44FF278BE0086AC982C5044A51C821AF32EE7B271043BAE81A947BF882B5D5B4B518B4821222798A1F30C96EE531A81BF203B8277024A9645C942801B31E41F699AF28A5F678DFA2E44EE58F38A9E85B1988C07417134AAB3C861F6170F218E3DA4D
310
607A1185167113FB24CEA12843B2E26336393D993DDBC7D40CFD10D8DA68472884ED3847E500EA9D80A8EB11A701DF521F50EAB6CACB18E545C546198A17F4BDC992EFAB55911DC9AF2A15A16CAC095B825148986CB26A1DB3C1D475600537D281EA2916282FA93985BD9278FCC69B34E5C10DB8F5D3B7DD2087C26F407BED
310
88BAA861B03C760A03F1806472EB461B7D9D5C42FD9DE2749FEAEB5AB35D0102622A92579C58157D5F4379636B3437BA4652DC7C3259B7BE7E5F7BD0FD08A7B0066A9766E15A019D632691AA4CAED50DFD862004776898F1B5CAA9C750B948535D35227A4586D4D929233A9BE6C42B6F312B72F8B11BC2125AA5F806A5E22E
310
BE9634DE10C5BA95D2CB498DF18B027EF9B4E9C103232344FAAA0A3CFCD05B6B4797AA5C3A4844DE56F996210241B0235A6674E3952CB31AA9B5DC5CD59902EA2E3030ABE2C5AF9345BB1DF1EB649159C3F8B993052DB688EEA34D2B9B27CAAC8F3A0534E94951798B5380EE3A34549B246272B915DFFA520C31B10EF2A38B
310
B13A661882431CFFE7A43D9404CD763DFE8F4BDAFEB382E3A8A4D299AC9A54070AD7753B859DBE0B96C1D50ABAB233FF6AB208169793B3B3C09FAC16EFE7C1C9C9E5C5D9BCD193211E854D2CD3A90B9E4D4CAB87D593C5009AB2A2A02485C37CEA641842BE8423FD88EE39CFB180DCD9EE75A7B6273F62F5BD69734AB4A5B8
310
E6E416417F980AC8EA204695C8EEB8F31B7426259CB3CF5DE8197977F067ADD27520F19CBBD0299024C1C2DB429749F5F33471C8B83AF55B6210C710CB5446348B9AE76695C2A613FD9B2963B28095ABD3C280BAAD84E657A741A179B33C2547095EB3E32009B7DB4A42B16664D90F34C2E86DF6EA37B251C2EEECD68FE0BA
310
2F8BE57B7A4E0791515F0C5E340243752211CF74BB5B316659BA587D9D429BCD597F714A5A65A0CBF194261C833157AA9E022B02ABB0344B24C15497BFDF7CE5057CE1C91D5D14DD2C8B3C2F987DB880E3580A5F889CCD2D7CEF496FA06AC0AAAB2E6EE6337F7EA3BBD9B6C11E6F91C09E2A8760A0AE2294083D63038B7CD6
310
99B27DCBA952426FFA7AE5D8F0095D006341CF9ABBE6EB9603DEA3BEA3285FD11E5ECBF962437BAAA7823570684547FF02504B030414000608000083763240000000000000000000000000350000006662782F31443745444644362D443437392D343246382D394146442D4639304534323933343532382F76657274696365
310
732E62696E504B030414000608080083763240F270F1330600000004000000360000006662782F31443745444644362D443437392D343246382D394146442D4639304534323933343532382F747269616E676C65732E62696E636660600000504B030414000608000083763240000000000000000000000000370000006662
310
782F31443745444644362D443437392D343246382D394146442D4639304534323933343532382F617474726962757465732E62696E504B030414000608080083763240D5987DFC8F00000041010000360000006662782F31443745444644362D443437392D343246382D394146442D4639304534323933343532382F646972
310
6563746F72792E786D6C858F410EC2201045AF4266AF15DDB800BA74E7C21B903225242D6328188F2FA5C4183471359997F9FF81E89FF3C41E1816475E02DF1F80A11FC8386F25A438EECEC07A250251FC3803E6F58C12560C4AD840E95E91C151A72936F496F35732D860FE635F62C8F2DA16B505C545B74125BAA2FA9E05
310
D7CC053D063734D5C7665FD55B6B8D15D5E9BFEAFD8490FFA45E504B0304140006080800837632405AEC5CECFC000000A00100003B0000006662782F31443745444644362D443437392D343246382D394146442D4639304534323933343532382F7265736F75726365732F636F72652E786D6C8D50596EC32010BD0A9A7F6C
310
A04EE2589848597A825E00E189831283C552F5F8C5892BB57FFD9919BD45F3F4E4E16B7A904F0CD17AD703AF181074C60FD68D3DE474A52D908392C1FBF44B06C4E9097B586050720C3ECF2B64BC4BE852419D1F7005758C98809847397A88E68693AE744E4511EFD5ACCD5D8F58F1AAD045A7644CA10420AF27CB041530FA
310
1C0C4659BF582573B6C3AAB143F969AF1603A8133F5EDE8FE242F94E70DAB0F642DB7DC3E87EB3391FC5A9D9F1732BEBC5AC64B2D34F461350271C4009C605659CF2F68337DD46746C4BD9B6634CD68BFC8F29CFC33F4DD9BAF426D6B82F5B04C54B9027A164BDF455D6B3CCB2976ED537504B010214000A00000800008376
310
32403DEE336E79000000790000001B00000000000000000000000000000000006175746F6465736B2D64657369676E2D7061636B6167652E786D6C504B0102140014000608080083763240D486FD9CA0000000F40000001300000000000000000000000000B20000005B436F6E74656E745F54797065735D2E786D6C504B01
310
02140014000608080083763240320601DDEA0000007C010000080000000000000000000000000083010000636F72652E786D6C504B010214001400060808008376324055019EA25F0000007C000000070000000000000000000000000093020000636E782E786D6C504B0102140014000608080083763240FAFE4A8D650100
310
00020300000C00000000000000000000000000170300006662782F636F72652E786D6C504B01021400140006080800837632405D7136417D0000009D0000000B00000000000000000000000000A60400006662782F636E782E786D6C504B010214001400060808008376324040DA44CE2B0100001402000031000000000000
310
000000000000004C0500006662782F31443745444644362D443437392D343246382D394146442D4639304534323933343532382F636F72652E786D6C504B010214001400060808008376324025CF88F754010000330300003000000000000000000000000000C60600006662782F31443745444644362D443437392D343246
310
382D394146442D4639304534323933343532382F636E782E786D6C504B0102140014000608080083763240F696410D57070000931B00003400000000000000000000000000680800006662782F31443745444644362D443437392D343246382D394146442D4639304534323933343532382F6F626A656374732E786D6C504B
310
01021400140006080000837632400000000000000000000000003500000000000000000000000000111000006662782F31443745444644362D443437392D343246382D394146442D4639304534323933343532382F76657274696365732E62696E504B0102140014000608080083763240F270F13306000000040000003600
310
000000000000000000000000641000006662782F31443745444644362D443437392D343246382D394146442D4639304534323933343532382F747269616E676C65732E62696E504B01021400140006080000837632400000000000000000000000003700000000000000000000000000BE1000006662782F31443745444644
310
362D443437392D343246382D394146442D4639304534323933343532382F617474726962757465732E62696E504B0102140014000608080083763240D5987DFC8F000000410100003600000000000000000000000000131100006662782F31443745444644362D443437392D343246382D394146442D463930453432393334
310
3532382F6469726563746F72792E786D6C504B01021400140006080800837632405AEC5CECFC000000A00100003B00000000000000000000000000F61100006662782F31443745444644362D443437392D343246382D394146442D4639304534323933343532382F7265736F75726365732F636F72652E786D6C504B050600
310
0000000E000E00800400004B1300000000
  0
XRECORD
  5
27
102
{ACAD_REACTORS
330
22
102
}
330
22
100
AcDbXrecord
280
     1
270
     1
271
     1
  0
XRECORD
  5
26
102
{ACAD_REACTORS
330
22
102
}
330
22
100
AcDbXrecord
280
     1
270
     1
271
     1
  0
XRECORD
  5
28
102
{ACAD_REACTORS
330
22
102
}
330
22
100
AcDbXrecord
280
     1
270
     1
271
     1
  0
XRECORD
  5
25
102
{ACAD_REACTORS
330
22
102
}
330
22
100
AcDbXrecord
280
     1
270
     1
271
     1
  0
XRECORD
  5
DED
102
{ACAD_REACTORS
330
DEC
102
}
330
DEC
100
AcDbXrecord
280
     1
102
ACAD_ROUNDTRIP_2012_MLEADER_STYLE
298
     1
  0
CELLSTYLEMAP
  5
DEB
102
{ACAD_REACTORS
330
DEA
102
}
330
DEA
100
AcDbCellStyleMap
 90
        3
300
CELLSTYLE
  1
TABLEFORMAT_BEGIN
 90
        5
170
     1
 91
        0
 92
    32768
 62
   257
 93
        1
300
CONTENTFORMAT
  1
CONTENTFORMAT_BEGIN
 90
        0
 91
        0
 92
      512
 93
        0
300

 40
0.0
140
1.0
 94
        5
 62
     0
340
55
144
0.25
309
CONTENTFORMAT_END
171
     0
 94
        0
309
TABLEFORMAT_END
  1
CELLSTYLE_BEGIN
 90
        1
 91
        1
300
_TITLE
309
CELLSTYLE_END
300
CELLSTYLE
  1
TABLEFORMAT_BEGIN
 90
        5
170
     1
 91
        0
 92
        0
 62
   257
 93
        1
300
CONTENTFORMAT
  1
CONTENTFORMAT_BEGIN
 90
        0
 91
        0
 92
      512
 93
        0
300

 40
0.0
140
1.0
 94
        5
 62
     0
340
55
144
0.18
309
CONTENTFORMAT_END
171
     0
 94
        0
309
TABLEFORMAT_END
  1
CELLSTYLE_BEGIN
 90
        2
 91
        1
300
_HEADER
309
CELLSTYLE_END
300
CELLSTYLE
  1
TABLEFORMAT_BEGIN
 90
        5
170
     1
 91
        0
 92
        0
 62
   257
 93
        1
300
CONTENTFORMAT
  1
CONTENTFORMAT_BEGIN
 90
        0
 91
        0
 92
      512
 93
        0
300

 40
0.0
140
1.0
 94
        2
 62
     0
340
55
144
0.18
309
CONTENTFORMAT_END
171
     0
 94
        0
309
TABLEFORMAT_END
  1
CELLSTYLE_BEGIN
 90
        3
 91
        2
300
_DATA
309
CELLSTYLE_END
  0
XRECORD
  5
E25
102
{ACAD_REACTORS
330
DEA
102
}
330
DEA
100
AcDbXrecord
280
     1
102
ACAD_ROUNDTRIP_PRE2007_TABLESTYLE
 90
      512
 91
        0
  1

 92
      512
 93
        0
  2

 94
      512
 95
        0
  3

  0
XRECORD
  5
E00
102
{ACAD_REACTORS
330
DFF
102
}
330
DFF
100
AcDbXrecord
280
     1
102
RTVSPropertyOp0
 70
     1
102
RTVSPropertyOp1
 70
     1
102
RTVSPropertyOp2
 70
     1
102
RTVSPropertyOp3
 70
     1
102
RTVSPropertyOp4
 70
     1
102
RTVSPropertyOp5
 70
     1
102
RTVSPropertyOp6
 70
     1
102
RTVSPropertyOp7
 70
     1
102
RTVSPropertyOp8
 70
     1
102
RTVSPropertyOp9
 70
     1
102
RTVSPropertyOp10
 70
     1
102
RTVSPropertyOp11
 70
     1
102
RTVSPropertyOp12
 70
     1
102
RTVSPropertyOp13
 70
     1
102
RTVSPropertyOp14
 70
     1
102
RTVSPropertyOp15
 70
     1
102
RTVSPropertyOp16
 70
     1
102
RTVSPropertyOp17
 70
     1
102
RTVSPropertyOp18
 70
     1
102
RTVSPropertyOp19
 70
     1
102
RTVSPropertyOp20
 70
     1
102
RTVSPropertyOp21
 70
     1
102
RTVSPropertyOp22
 70
     1
102
RTVSPropertyOp23
 70
     1
102
RTVSPropertyOp24
 70
     1
102
RTVSPropertyOp25
 70
     1
102
RTVSPropertyOp26
 70
     1
102
RTVSPropertyOp27
 70
     1
102
RTVSPropertyOp28
 70
     1
102
RTVSPropertyOp29
 70
     1
102
RTVSPropertyOp30
 70
     1
102
RTVSPropertyOp31
 70
     1
102
RTVSPropertyOp32
 70
     1
  0
XRECORD
  5
DFE
102
{ACAD_REACTORS
330
DFD
102
}
330
DFD
100
AcDbXrecord
280
     1
102
RTVSPropertyOp0
 70
     1
102
RTVSPropertyOp1
 70
     1
102
RTVSPropertyOp2
 70
     1
102
RTVSPropertyOp3
 70
     1
102
RTVSPropertyOp4
 70
     1
102
RTVSPropertyOp5
 70
     1
102
RTVSPropertyOp6
 70
     1
102
RTVSPropertyOp7
 70
     1
102
RTVSPropertyOp8
 70
     1
102
RTVSPropertyOp9
 70
     1
102
RTVSPropertyOp10
 70
     1
102
RTVSPropertyOp11
 70
     1
102
RTVSPropertyOp12
 70
     1
102
RTVSPropertyOp13
 70
     1
102
RTVSPropertyOp14
 70
     1
102
RTVSPropertyOp15
 70
     1
102
RTVSPropertyOp16
 70
     1
102
RTVSPropertyOp17
 70
     1
102
RTVSPropertyOp18
 70
     1
102
RTVSPropertyOp19
 70
     1
102
RTVSPropertyOp20
 70
     1
102
RTVSPropertyOp21
 70
     1
102
RTVSPropertyOp22
 70
     1
102
RTVSPropertyOp23
 70
     1
102
RTVSPropertyOp24
 70
     1
102
RTVSPropertyOp25
 70
     1
102
RTVSPropertyOp26
 70
     1
102
RTVSPropertyOp27
 70
     1
102
RTVSPropertyOp28
 70
     1
102
RTVSPropertyOp29
 70
     1
102
RTVSPropertyOp30
 70
     1
102
RTVSPropertyOp31
 70
     1
102
RTVSPropertyOp32
 70
     1
  0
XRECORD
  5
E0C
102
{ACAD_REACTORS
330
E0B
102
}
330
E0B
100
AcDbXrecord
280
     1
102
RTVSPropertyOp0
 70
     1
102
RTVSPropertyOp1
 70
     1
102
RTVSPropertyOp2
 70
     1
102
RTVSPropertyOp3
 70
     1
102
RTVSPropertyOp4
 70
     1
102
RTVSPropertyOp5
 70
     1
102
RTVSPropertyOp6
 70
     1
102
RTVSPropertyOp7
 70
     1
102
RTVSPropertyOp8
 70
     1
102
RTVSPropertyOp9
 70
     1
102
RTVSPropertyOp10
 70
     1
102
RTVSPropertyOp11
 70
     1
102
RTVSPropertyOp12
 70
     1
102
RTVSPropertyOp13
 70
     1
102
RTVSPropertyOp14
 70
     1
102
RTVSPropertyOp15
 70
     1
102
RTVSPropertyOp16
 70
     1
102
RTVSPropertyOp17
 70
     1
102
RTVSPropertyOp18
 70
     1
102
RTVSPropertyOp19
 70
     1
102
RTVSPropertyOp20
 70
     1
102
RTVSPropertyOp21
 70
     1
102
RTVSPropertyOp22
 70
     1
102
RTVSPropertyOp23
 70
     1
102
RTVSPropertyOp24
 70
     1
102
RTVSPropertyOp25
 70
     1
102
RTVSPropertyOp26
 70
     1
102
RTVSPropertyOp27
 70
     1
102
RTVSPropertyOp28
 70
     1
102
RTVSPropertyOp29
 70
     1
102
RTVSPropertyOp30
 70
     1
102
RTVSPropertyOp31
 70
     1
102
RTVSPropertyOp32
 70
     1
  0
XRECORD
  5
E14
102
{ACAD_REACTORS
330
E13
102
}
330
E13
100
AcDbXrecord
280
     1
102
RTVSPropertyOp0
 70
     1
102
RTVSPropertyOp1
 70
     1
102
RTVSPropertyOp2
 70
     1
102
RTVSPropertyOp3
 70
     1
102
RTVSPropertyOp4
 70
     1
102
RTVSPropertyOp5
 70
     1
102
RTVSPropertyOp6
 70
     1
102
RTVSPropertyOp7
 70
     1
102
RTVSPropertyOp8
 70
     1
102
RTVSPropertyOp9
 70
     1
102
RTVSPropertyOp10
 70
     1
102
RTVSPropertyOp11
 70
     1
102
RTVSPropertyOp12
 70
     1
102
RTVSPropertyOp13
 70
     1
102
RTVSPropertyOp14
 70
     1
102
RTVSPropertyOp15
 70
     1
102
RTVSPropertyOp16
 70
     1
102
RTVSPropertyOp17
 70
     1
102
RTVSPropertyOp18
 70
     1
102
RTVSPropertyOp19
 70
     1
102
RTVSPropertyOp20
 70
     1
102
RTVSPropertyOp21
 70
     1
102
RTVSPropertyOp22
 70
     1
102
RTVSPropertyOp23
 70
     1
102
RTVSPropertyOp24
 70
     1
102
RTVSPropertyOp25
 70
     1
102
RTVSPropertyOp26
 70
     1
102
RTVSPropertyOp27
 70
     1
102
RTVSPropertyOp28
 70
     1
102
RTVSPropertyOp29
 70
     1
102
RTVSPropertyOp30
 70
     1
102
RTVSPropertyOp31
 70
     1
102
RTVSPropertyOp32
 70
     1
  0
XRECORD
  5
E06
102
{ACAD_REACTORS
330
E05
102
}
330
E05
100
AcDbXrecord
280
     1
102
RTVSPropertyOp0
 70
     1
102
RTVSPropertyOp1
 70
     1
102
RTVSPropertyOp2
 70
     1
102
RTVSPropertyOp3
 70
     1
102
RTVSPropertyOp4
 70
     1
102
RTVSPropertyOp5
 70
     1
102
RTVSPropertyOp6
 70
     1
102
RTVSPropertyOp7
 70
     1
102
RTVSPropertyOp8
 70
     1
102
RTVSPropertyOp9
 70
     1
102
RTVSPropertyOp10
 70
     1
102
RTVSPropertyOp11
 70
     1
102
RTVSPropertyOp12
 70
     1
102
RTVSPropertyOp13
 70
     1
102
RTVSPropertyOp14
 70
     1
102
RTVSPropertyOp15
 70
     1
102
RTVSPropertyOp16
 70
     1
102
RTVSPropertyOp17
 70
     1
102
RTVSPropertyOp18
 70
     1
102
RTVSPropertyOp19
 70
     1
102
RTVSPropertyOp20
 70
     1
102
RTVSPropertyOp21
 70
     1
102
RTVSPropertyOp22
 70
     1
102
RTVSPropertyOp23
 70
     1
102
RTVSPropertyOp24
 70
     1
102
RTVSPropertyOp25
 70
     1
102
RTVSPropertyOp26
 70
     1
102
RTVSPropertyOp27
 70
     1
102
RTVSPropertyOp28
 70
     1
102
RTVSPropertyOp29
 70
     1
102
RTVSPropertyOp30
 70
     1
102
RTVSPropertyOp31
 70
     1
102
RTVSPropertyOp32
 70
     1
  0
XRECORD
  5
E0A
102
{ACAD_REACTORS
330
E09
102
}
330
E09
100
AcDbXrecord
280
     1
102
RTVSPropertyOp0
 70
     1
102
RTVSPropertyOp1
 70
     1
102
RTVSPropertyOp2
 70
     1
102
RTVSPropertyOp3
 70
     1
102
RTVSPropertyOp4
 70
     1
102
RTVSPropertyOp5
 70
     1
102
RTVSPropertyOp6
 70
     1
102
RTVSPropertyOp7
 70
     1
102
RTVSPropertyOp8
 70
     1
102
RTVSPropertyOp9
 70
     1
102
RTVSPropertyOp10
 70
     1
102
RTVSPropertyOp11
 70
     1
102
RTVSPropertyOp12
 70
     1
102
RTVSPropertyOp13
 70
     1
102
RTVSPropertyOp14
 70
     1
102
RTVSPropertyOp15
 70
     1
102
RTVSPropertyOp16
 70
     1
102
RTVSPropertyOp17
 70
     1
102
RTVSPropertyOp18
 70
     1
102
RTVSPropertyOp19
 70
     1
102
RTVSPropertyOp20
 70
     1
102
RTVSPropertyOp21
 70
     1
102
RTVSPropertyOp22
 70
     1
102
RTVSPropertyOp23
 70
     1
102
RTVSPropertyOp24
 70
     1
102
RTVSPropertyOp25
 70
     1
102
RTVSPropertyOp26
 70
     1
102
RTVSPropertyOp27
 70
     1
102
RTVSPropertyOp28
 70
     1
102
RTVSPropertyOp29
 70
     1
102
RTVSPropertyOp30
 70
     1
102
RTVSPropertyOp31
 70
     1
102
RTVSPropertyOp32
 70
     1
  0
XRECORD
  5
E24
102
{ACAD_REACTORS
330
E23
102
}
330
E23
100
AcDbXrecord
280
     1
102
RTVSPropertyOp0
 70
     0
102
RTVSPropertyOp1
 70
     0
102
RTVSPropertyOp2
 70
     0
102
RTVSPropertyOp3
 70
     0
102
RTVSPropertyOp4
 70
     0
102
RTVSPropertyOp5
 70
     0
102
RTVSPropertyOp6
 70
     0
102
RTVSPropertyOp7
 70
     0
102
RTVSPropertyOp8
 70
     0
102
RTVSPropertyOp9
 70
     0
102
RTVSPropertyOp10
 70
     0
102
RTVSPropertyOp11
 70
     0
102
RTVSPropertyOp12
 70
     0
102
RTVSPropertyOp13
 70
     0
102
RTVSPropertyOp14
 70
     2
102
RTVSPropertyOp15
 70
     0
102
RTVSPropertyOp16
 70
     0
102
RTVSPropertyOp17
 70
     0
102
RTVSPropertyOp18
 70
     0
102
RTVSPropertyOp19
 70
     0
102
RTVSPropertyOp20
 70
     0
102
RTVSPropertyOp21
 70
     0
102
RTVSPropertyOp22
 70
     0
102
RTVSPropertyOp23
 70
     0
102
RTVSPropertyOp24
 70
     0
102
RTVSPropertyOp25
 70
     0
102
RTVSPropertyOp26
 70
     0
102
RTVSPropertyOp27
 70
     0
102
RTVSPropertyOp28
 70
     1
102
RTVSPropertyOp29
 70
     1
102
RTVSPropertyOp30
 70
     1
102
RTVSPropertyOp31
 70
     1
102
RTVSPropertyOp32
 70
     1
  0
XRECORD
  5
E12
102
{ACAD_REACTORS
330
E11
102
}
330
E11
100
AcDbXrecord
280
     1
102
RTVSPropertyOp0
 70
     1
102
RTVSPropertyOp1
 70
     1
102
RTVSPropertyOp2
 70
     1
102
RTVSPropertyOp3
 70
     1
102
RTVSPropertyOp4
 70
     1
102
RTVSPropertyOp5
 70
     1
102
RTVSPropertyOp6
 70
     1
102
RTVSPropertyOp7
 70
     1
102
RTVSPropertyOp8
 70
     1
102
RTVSPropertyOp9
 70
     1
102
RTVSPropertyOp10
 70
     1
102
RTVSPropertyOp11
 70
     1
102
RTVSPropertyOp12
 70
     1
102
RTVSPropertyOp13
 70
     1
102
RTVSPropertyOp14
 70
     1
102
RTVSPropertyOp15
 70
     1
102
RTVSPropertyOp16
 70
     1
102
RTVSPropertyOp17
 70
     1
102
RTVSPropertyOp18
 70
     1
102
RTVSPropertyOp19
 70
     1
102
RTVSPropertyOp20
 70
     1
102
RTVSPropertyOp21
 70
     1
102
RTVSPropertyOp22
 70
     1
102
RTVSPropertyOp23
 70
     1
102
RTVSPropertyOp24
 70
     1
102
RTVSPropertyOp25
 70
     1
102
RTVSPropertyOp26
 70
     1
102
RTVSPropertyOp27
 70
     1
102
RTVSPropertyOp28
 70
     1
102
RTVSPropertyOp29
 70
     1
102
RTVSPropertyOp30
 70
     1
102
RTVSPropertyOp31
 70
     1
102
RTVSPropertyOp32
 70
     1
  0
XRECORD
  5
DF6
102
{ACAD_REACTORS
330
DF5
102
}
330
DF5
100
AcDbXrecord
280
     1
102
RTVSPropertyOp0
 70
     1
102
RTVSPropertyOp1
 70
     1
102
RTVSPropertyOp2
 70
     1
102
RTVSPropertyOp3
 70
     1
102
RTVSPropertyOp4
 70
     1
102
RTVSPropertyOp5
 70
     1
102
RTVSPropertyOp6
 70
     1
102
RTVSPropertyOp7
 70
     1
102
RTVSPropertyOp8
 70
     1
102
RTVSPropertyOp9
 70
     1
102
RTVSPropertyOp10
 70
     1
102
RTVSPropertyOp11
 70
     1
102
RTVSPropertyOp12
 70
     1
102
RTVSPropertyOp13
 70
     1
102
RTVSPropertyOp14
 70
     1
102
RTVSPropertyOp15
 70
     1
102
RTVSPropertyOp16
 70
     1
102
RTVSPropertyOp17
 70
     1
102
RTVSPropertyOp18
 70
     1
102
RTVSPropertyOp19
 70
     1
102
RTVSPropertyOp20
 70
     1
102
RTVSPropertyOp21
 70
     1
102
RTVSPropertyOp22
 70
     1
102
RTVSPropertyOp23
 70
     1
102
RTVSPropertyOp24
 70
     1
102
RTVSPropertyOp25
 70
     1
102
RTVSPropertyOp26
 70
     1
102
RTVSPropertyOp27
 70
     1
102
RTVSPropertyOp28
 70
     1
102
RTVSPropertyOp29
 70
     1
102
RTVSPropertyOp30
 70
     1
102
RTVSPropertyOp31
 70
     1
102
RTVSPropertyOp32
 70
     1
  0
XRECORD
  5
DF8
102
{ACAD_REACTORS
330
DF7
102
}
330
DF7
100
AcDbXrecord
280
     1
102
RTVSPropertyOp0
 70
     1
102
RTVSPropertyOp1
 70
     1
102
RTVSPropertyOp2
 70
     1
102
RTVSPropertyOp3
 70
     1
102
RTVSPropertyOp4
 70
     1
102
RTVSPropertyOp5
 70
     1
102
RTVSPropertyOp6
 70
     1
102
RTVSPropertyOp7
 70
     1
102
RTVSPropertyOp8
 70
     1
102
RTVSPropertyOp9
 70
     1
102
RTVSPropertyOp10
 70
     1
102
RTVSPropertyOp11
 70
     1
102
RTVSPropertyOp12
 70
     1
102
RTVSPropertyOp13
 70
     1
102
RTVSPropertyOp14
 70
     1
102
RTVSPropertyOp15
 70
     1
102
RTVSPropertyOp16
 70
     1
102
RTVSPropertyOp17
 70
     1
102
RTVSPropertyOp18
 70
     1
102
RTVSPropertyOp19
 70
     1
102
RTVSPropertyOp20
 70
     1
102
RTVSPropertyOp21
 70
     1
102
RTVSPropertyOp22
 70
     1
102
RTVSPropertyOp23
 70
     1
102
RTVSPropertyOp24
 70
     1
102
RTVSPropertyOp25
 70
     1
102
RTVSPropertyOp26
 70
     1
102
RTVSPropertyOp27
 70
     1
102
RTVSPropertyOp28
 70
     1
102
RTVSPropertyOp29
 70
     1
102
RTVSPropertyOp30
 70
     1
102
RTVSPropertyOp31
 70
     1
102
RTVSPropertyOp32
 70
     1
  0
XRECORD
  5
DFA
102
{ACAD_REACTORS
330
DF9
102
}
330
DF9
100
AcDbXrecord
280
     1
102
RTVSPropertyOp0
 70
     1
102
RTVSPropertyOp1
 70
     1
102
RTVSPropertyOp2
 70
     1
102
RTVSPropertyOp3
 70
     1
102
RTVSPropertyOp4
 70
     1
102
RTVSPropertyOp5
 70
     1
102
RTVSPropertyOp6
 70
     1
102
RTVSPropertyOp7
 70
     1
102
RTVSPropertyOp8
 70
     1
102
RTVSPropertyOp9
 70
     1
102
RTVSPropertyOp10
 70
     1
102
RTVSPropertyOp11
 70
     1
102
RTVSPropertyOp12
 70
     1
102
RTVSPropertyOp13
 70
     1
102
RTVSPropertyOp14
 70
     1
102
RTVSPropertyOp15
 70
     1
102
RTVSPropertyOp16
 70
     1
102
RTVSPropertyOp17
 70
     1
102
RTVSPropertyOp18
 70
     1
102
RTVSPropertyOp19
 70
     1
102
RTVSPropertyOp20
 70
     1
102
RTVSPropertyOp21
 70
     1
102
RTVSPropertyOp22
 70
     1
102
RTVSPropertyOp23
 70
     1
102
RTVSPropertyOp24
 70
     1
102
RTVSPropertyOp25
 70
     1
102
RTVSPropertyOp26
 70
     1
102
RTVSPropertyOp27
 70
     1
102
RTVSPropertyOp28
 70
     1
102
RTVSPropertyOp29
 70
     1
102
RTVSPropertyOp30
 70
     1
102
RTVSPropertyOp31
 70
     1
102
RTVSPropertyOp32
 70
     1
  0
XRECORD
  5
DFC
102
{ACAD_REACTORS
330
DFB
102
}
330
DFB
100
AcDbXrecord
280
     1
102
RTVSPropertyOp0
 70
     1
102
RTVSPropertyOp1
 70
     1
102
RTVSPropertyOp2
 70
     1
102
RTVSPropertyOp3
 70
     1
102
RTVSPropertyOp4
 70
     1
102
RTVSPropertyOp5
 70
     1
102
RTVSPropertyOp6
 70
     1
102
RTVSPropertyOp7
 70
     1
102
RTVSPropertyOp8
 70
     1
102
RTVSPropertyOp9
 70
     1
102
RTVSPropertyOp10
 70
     1
102
RTVSPropertyOp11
 70
     1
102
RTVSPropertyOp12
 70
     1
102
RTVSPropertyOp13
 70
     1
102
RTVSPropertyOp14
 70
     1
102
RTVSPropertyOp15
 70
     1
102
RTVSPropertyOp16
 70
     1
102
RTVSPropertyOp17
 70
     1
102
RTVSPropertyOp18
 70
     1
102
RTVSPropertyOp19
 70
     1
102
RTVSPropertyOp20
 70
     1
102
RTVSPropertyOp21
 70
     1
102
RTVSPropertyOp22
 70
     1
102
RTVSPropertyOp23
 70
     1
102
RTVSPropertyOp24
 70
     1
102
RTVSPropertyOp25
 70
     1
102
RTVSPropertyOp26
 70
     1
102
RTVSPropertyOp27
 70
     1
102
RTVSPropertyOp28
 70
     1
102
RTVSPropertyOp29
 70
     1
102
RTVSPropertyOp30
 70
     1
102
RTVSPropertyOp31
 70
     1
102
RTVSPropertyOp32
 70
     1
  0
XRECORD
  5
E04
102
{ACAD_REACTORS
330
E03
102
}
330
E03
100
AcDbXrecord
280
     1
102
RTVSPropertyOp0
 70
     1
102
RTVSPropertyOp1
 70
     1
102
RTVSPropertyOp2
 70
     1
102
RTVSPropertyOp3
 70
     1
102
RTVSPropertyOp4
 70
     1
102
RTVSPropertyOp5
 70
     1
102
RTVSPropertyOp6
 70
     1
102
RTVSPropertyOp7
 70
     1
102
RTVSPropertyOp8
 70
     1
102
RTVSPropertyOp9
 70
     1
102
RTVSPropertyOp10
 70
     1
102
RTVSPropertyOp11
 70
     1
102
RTVSPropertyOp12
 70
     1
102
RTVSPropertyOp13
 70
     1
102
RTVSPropertyOp14
 70
     1
102
RTVSPropertyOp15
 70
     1
102
RTVSPropertyOp16
 70
     1
102
RTVSPropertyOp17
 70
     1
102
RTVSPropertyOp18
 70
     1
102
RTVSPropertyOp19
 70
     1
102
RTVSPropertyOp20
 70
     1
102
RTVSPropertyOp21
 70
     1
102
RTVSPropertyOp22
 70
     1
102
RTVSPropertyOp23
 70
     1
102
RTVSPropertyOp24
 70
     1
102
RTVSPropertyOp25
 70
     1
102
RTVSPropertyOp26
 70
     1
102
RTVSPropertyOp27
 70
     1
102
RTVSPropertyOp28
 70
     1
102
RTVSPropertyOp29
 70
     1
102
RTVSPropertyOp30
 70
     1
102
RTVSPropertyOp31
 70
     1
102
RTVSPropertyOp32
 70
     1
  0
XRECORD
  5
E20
102
{ACAD_REACTORS
330
E1F
102
}
330
E1F
100
AcDbXrecord
280
     1
102
RTVSPropertyOp0
 70
     0
102
RTVSPropertyOp1
 70
     0
102
RTVSPropertyOp2
 70
     0
102
RTVSPropertyOp3
 70
     0
102
RTVSPropertyOp4
 70
     0
102
RTVSPropertyOp5
 70
     0
102
RTVSPropertyOp6
 70
     0
102
RTVSPropertyOp7
 70
     0
102
RTVSPropertyOp8
 70
     0
102
RTVSPropertyOp9
 70
     0
102
RTVSPropertyOp10
 70
     0
102
RTVSPropertyOp11
 70
     0
102
RTVSPropertyOp12
 70
     0
102
RTVSPropertyOp13
 70
     0
102
RTVSPropertyOp14
 70
     2
102
RTVSPropertyOp15
 70
     0
102
RTVSPropertyOp16
 70
     0
102
RTVSPropertyOp17
 70
     0
102
RTVSPropertyOp18
 70
     0
102
RTVSPropertyOp19
 70
     0
102
RTVSPropertyOp20
 70
     0
102
RTVSPropertyOp21
 70
     0
102
RTVSPropertyOp22
 70
     0
102
RTVSPropertyOp23
 70
     0
102
RTVSPropertyOp24
 70
     0
102
RTVSPropertyOp25
 70
     0
102
RTVSPropertyOp26
 70
     0
102
RTVSPropertyOp27
 70
     0
102
RTVSPropertyOp28
 70
     1
102
RTVSPropertyOp29
 70
     1
102
RTVSPropertyOp30
 70
     1
102
RTVSPropertyOp31
 70
     1
102
RTVSPropertyOp32
 70
     1
  0
XRECORD
  5
E10
102
{ACAD_REACTORS
330
E0F
102
}
330
E0F
100
AcDbXrecord
280
     1
102
RTVSPropertyOp0
 70
     1
102
RTVSPropertyOp1
 70
     1
102
RTVSPropertyOp2
 70
     1
102
RTVSPropertyOp3
 70
     1
102
RTVSPropertyOp4
 70
     1
102
RTVSPropertyOp5
 70
     1
102
RTVSPropertyOp6
 70
     1
102
RTVSPropertyOp7
 70
     1
102
RTVSPropertyOp8
 70
     1
102
RTVSPropertyOp9
 70
     1
102
RTVSPropertyOp10
 70
     1
102
RTVSPropertyOp11
 70
     1
102
RTVSPropertyOp12
 70
     1
102
RTVSPropertyOp13
 70
     1
102
RTVSPropertyOp14
 70
     1
102
RTVSPropertyOp15
 70
     1
102
RTVSPropertyOp16
 70
     1
102
RTVSPropertyOp17
 70
     1
102
RTVSPropertyOp18
 70
     1
102
RTVSPropertyOp19
 70
     1
102
RTVSPropertyOp20
 70
     1
102
RTVSPropertyOp21
 70
     1
102
RTVSPropertyOp22
 70
     1
102
RTVSPropertyOp23
 70
     1
102
RTVSPropertyOp24
 70
     1
102
RTVSPropertyOp25
 70
     1
102
RTVSPropertyOp26
 70
     1
102
RTVSPropertyOp27
 70
     1
102
RTVSPropertyOp28
 70
     1
102
RTVSPropertyOp29
 70
     1
102
RTVSPropertyOp30
 70
     1
102
RTVSPropertyOp31
 70
     1
102
RTVSPropertyOp32
 70
     1
  0
XRECORD
  5
E22
102
{ACAD_REACTORS
330
E21
102
}
330
E21
100
AcDbXrecord
280
     1
102
RTVSPropertyOp0
 70
     0
102
RTVSPropertyOp1
 70
     0
102
RTVSPropertyOp2
 70
     0
102
RTVSPropertyOp3
 70
     0
102
RTVSPropertyOp4
 70
     0
102
RTVSPropertyOp5
 70
     0
102
RTVSPropertyOp6
 70
     0
102
RTVSPropertyOp7
 70
     0
102
RTVSPropertyOp8
 70
     0
102
RTVSPropertyOp9
 70
     0
102
RTVSPropertyOp10
 70
     0
102
RTVSPropertyOp11
 70
     0
102
RTVSPropertyOp12
 70
     0
102
RTVSPropertyOp13
 70
     0
102
RTVSPropertyOp14
 70
     2
102
RTVSPropertyOp15
 70
     0
102
RTVSPropertyOp16
 70
     0
102
RTVSPropertyOp17
 70
     0
102
RTVSPropertyOp18
 70
     0
102
RTVSPropertyOp19
 70
     0
102
RTVSPropertyOp20
 70
     0
102
RTVSPropertyOp21
 70
     0
102
RTVSPropertyOp22
 70
     0
102
RTVSPropertyOp23
 70
     0
102
RTVSPropertyOp24
 70
     0
102
RTVSPropertyOp25
 70
     0
102
RTVSPropertyOp26
 70
     0
102
RTVSPropertyOp27
 70
     0
102
RTVSPropertyOp28
 70
     1
102
RTVSPropertyOp29
 70
     1
102
RTVSPropertyOp30
 70
     1
102
RTVSPropertyOp31
 70
     1
102
RTVSPropertyOp32
 70
     1
  0
XRECORD
  5
E08
102
{ACAD_REACTORS
330
E07
102
}
330
E07
100
AcDbXrecord
280
     1
102
RTVSPropertyOp0
 70
     1
102
RTVSPropertyOp1
 70
     1
102
RTVSPropertyOp2
 70
     1
102
RTVSPropertyOp3
 70
     1
102
RTVSPropertyOp4
 70
     1
102
RTVSPropertyOp5
 70
     1
102
RTVSPropertyOp6
 70
     1
102
RTVSPropertyOp7
 70
     1
102
RTVSPropertyOp8
 70
     1
102
RTVSPropertyOp9
 70
     1
102
RTVSPropertyOp10
 70
     1
102
RTVSPropertyOp11
 70
     1
102
RTVSPropertyOp12
 70
     1
102
RTVSPropertyOp13
 70
     1
102
RTVSPropertyOp14
 70
     1
102
RTVSPropertyOp15
 70
     1
102
RTVSPropertyOp16
 70
     1
102
RTVSPropertyOp17
 70
     1
102
RTVSPropertyOp18
 70
     1
102
RTVSPropertyOp19
 70
     1
102
RTVSPropertyOp20
 70
     1
102
RTVSPropertyOp21
 70
     1
102
RTVSPropertyOp22
 70
     1
102
RTVSPropertyOp23
 70
     1
102
RTVSPropertyOp24
 70
     1
102
RTVSPropertyOp25
 70
     1
102
RTVSPropertyOp26
 70
     1
102
RTVSPropertyOp27
 70
     1
102
RTVSPropertyOp28
 70
     1
102
RTVSPropertyOp29
 70
     1
102
RTVSPropertyOp30
 70
     1
102
RTVSPropertyOp31
 70
     1
102
RTVSPropertyOp32
 70
     1
  0
XRECORD
  5
E1E
102
{ACAD_REACTORS
330
E1D
102
}
330
E1D
100
AcDbXrecord
280
     1
102
RTVSPropertyOp0
 70
     1
102
RTVSPropertyOp1
 70
     1
102
RTVSPropertyOp2
 70
     1
102
RTVSPropertyOp3
 70
     1
102
RTVSPropertyOp4
 70
     1
102
RTVSPropertyOp5
 70
     1
102
RTVSPropertyOp6
 70
     1
102
RTVSPropertyOp7
 70
     1
102
RTVSPropertyOp8
 70
     1
102
RTVSPropertyOp9
 70
     1
102
RTVSPropertyOp10
 70
     1
102
RTVSPropertyOp11
 70
     1
102
RTVSPropertyOp12
 70
     1
102
RTVSPropertyOp13
 70
     1
102
RTVSPropertyOp14
 70
     1
102
RTVSPropertyOp15
 70
     1
102
RTVSPropertyOp16
 70
     1
102
RTVSPropertyOp17
 70
     1
102
RTVSPropertyOp18
 70
     1
102
RTVSPropertyOp19
 70
     1
102
RTVSPropertyOp20
 70
     1
102
RTVSPropertyOp21
 70
     1
102
RTVSPropertyOp22
 70
     1
102
RTVSPropertyOp23
 70
     1
102
RTVSPropertyOp24
 70
     1
102
RTVSPropertyOp25
 70
     1
102
RTVSPropertyOp26
 70
     1
102
RTVSPropertyOp27
 70
     1
102
RTVSPropertyOp28
 70
     1
102
RTVSPropertyOp29
 70
     1
102
RTVSPropertyOp30
 70
     1
102
RTVSPropertyOp31
 70
     1
102
RTVSPropertyOp32
 70
     1
  0
XRECORD
  5
E1C
102
{ACAD_REACTORS
330
E1B
102
}
330
E1B
100
AcDbXrecord
280
     1
102
RTVSPropertyOp0
 70
     1
102
RTVSPropertyOp1
 70
     1
102
RTVSPropertyOp2
 70
     1
102
RTVSPropertyOp3
 70
     1
102
RTVSPropertyOp4
 70
     1
102
RTVSPropertyOp5
 70
     1
102
RTVSPropertyOp6
 70
     1
102
RTVSPropertyOp7
 70
     1
102
RTVSPropertyOp8
 70
     1
102
RTVSPropertyOp9
 70
     1
102
RTVSPropertyOp10
 70
     1
102
RTVSPropertyOp11
 70
     1
102
RTVSPropertyOp12
 70
     1
102
RTVSPropertyOp13
 70
     1
102
RTVSPropertyOp14
 70
     1
102
RTVSPropertyOp15
 70
     1
102
RTVSPropertyOp16
 70
     1
102
RTVSPropertyOp17
 70
     1
102
RTVSPropertyOp18
 70
     1
102
RTVSPropertyOp19
 70
     1
102
RTVSPropertyOp20
 70
     1
102
RTVSPropertyOp21
 70
     1
102
RTVSPropertyOp22
 70
     1
102
RTVSPropertyOp23
 70
     1
102
RTVSPropertyOp24
 70
     1
102
RTVSPropertyOp25
 70
     1
102
RTVSPropertyOp26
 70
     1
102
RTVSPropertyOp27
 70
     1
102
RTVSPropertyOp28
 70
     1
102
RTVSPropertyOp29
 70
     1
102
RTVSPropertyOp30
 70
     1
102
RTVSPropertyOp31
 70
     1
102
RTVSPropertyOp32
 70
     1
  0
XRECORD
  5
E16
102
{ACAD_REACTORS
330
E15
102
}
330
E15
100
AcDbXrecord
280
     1
102
RTVSPropertyOp0
 70
     1
102
RTVSPropertyOp1
 70
     1
102
RTVSPropertyOp2
 70
     1
102
RTVSPropertyOp3
 70
     1
102
RTVSPropertyOp4
 70
     1
102
RTVSPropertyOp5
 70
     1
102
RTVSPropertyOp6
 70
     1
102
RTVSPropertyOp7
 70
     1
102
RTVSPropertyOp8
 70
     1
102
RTVSPropertyOp9
 70
     1
102
RTVSPropertyOp10
 70
     1
102
RTVSPropertyOp11
 70
     1
102
RTVSPropertyOp12
 70
     1
102
RTVSPropertyOp13
 70
     1
102
RTVSPropertyOp14
 70
     1
102
RTVSPropertyOp15
 70
     1
102
RTVSPropertyOp16
 70
     1
102
RTVSPropertyOp17
 70
     1
102
RTVSPropertyOp18
 70
     1
102
RTVSPropertyOp19
 70
     1
102
RTVSPropertyOp20
 70
     1
102
RTVSPropertyOp21
 70
     1
102
RTVSPropertyOp22
 70
     1
102
RTVSPropertyOp23
 70
     1
102
RTVSPropertyOp24
 70
     1
102
RTVSPropertyOp25
 70
     1
102
RTVSPropertyOp26
 70
     1
102
RTVSPropertyOp27
 70
     1
102
RTVSPropertyOp28
 70
     1
102
RTVSPropertyOp29
 70
     1
102
RTVSPropertyOp30
 70
     1
102
RTVSPropertyOp31
 70
     1
102
RTVSPropertyOp32
 70
     1
  0
XRECORD
  5
E18
102
{ACAD_REACTORS
330
E17
102
}
330
E17
100
AcDbXrecord
280
     1
102
RTVSPropertyOp0
 70
     1
102
RTVSPropertyOp1
 70
     1
102
RTVSPropertyOp2
 70
     1
102
RTVSPropertyOp3
 70
     1
102
RTVSPropertyOp4
 70
     1
102
RTVSPropertyOp5
 70
     1
102
RTVSPropertyOp6
 70
     1
102
RTVSPropertyOp7
 70
     1
102
RTVSPropertyOp8
 70
     1
102
RTVSPropertyOp9
 70
     1
102
RTVSPropertyOp10
 70
     1
102
RTVSPropertyOp11
 70
     1
102
RTVSPropertyOp12
 70
     1
102
RTVSPropertyOp13
 70
     1
102
RTVSPropertyOp14
 70
     1
102
RTVSPropertyOp15
 70
     1
102
RTVSPropertyOp16
 70
     1
102
RTVSPropertyOp17
 70
     1
102
RTVSPropertyOp18
 70
     1
102
RTVSPropertyOp19
 70
     1
102
RTVSPropertyOp20
 70
     1
102
RTVSPropertyOp21
 70
     1
102
RTVSPropertyOp22
 70
     1
102
RTVSPropertyOp23
 70
     1
102
RTVSPropertyOp24
 70
     1
102
RTVSPropertyOp25
 70
     1
102
RTVSPropertyOp26
 70
     1
102
RTVSPropertyOp27
 70
     1
102
RTVSPropertyOp28
 70
     1
102
RTVSPropertyOp29
 70
     1
102
RTVSPropertyOp30
 70
     1
102
RTVSPropertyOp31
 70
     1
102
RTVSPropertyOp32
 70
     1
  0
XRECORD
  5
E0E
102
{ACAD_REACTORS
330
E0D
102
}
330
E0D
100
AcDbXrecord
280
     1
102
RTVSPropertyOp0
 70
     1
102
RTVSPropertyOp1
 70
     1
102
RTVSPropertyOp2
 70
     1
102
RTVSPropertyOp3
 70
     1
102
RTVSPropertyOp4
 70
     1
102
RTVSPropertyOp5
 70
     1
102
RTVSPropertyOp6
 70
     1
102
RTVSPropertyOp7
 70
     1
102
RTVSPropertyOp8
 70
     1
102
RTVSPropertyOp9
 70
     1
102
RTVSPropertyOp10
 70
     1
102
RTVSPropertyOp11
 70
     1
102
RTVSPropertyOp12
 70
     1
102
RTVSPropertyOp13
 70
     1
102
RTVSPropertyOp14
 70
     1
102
RTVSPropertyOp15
 70
     1
102
RTVSPropertyOp16
 70
     1
102
RTVSPropertyOp17
 70
     1
102
RTVSPropertyOp18
 70
     1
102
RTVSPropertyOp19
 70
     1
102
RTVSPropertyOp20
 70
     1
102
RTVSPropertyOp21
 70
     1
102
RTVSPropertyOp22
 70
     1
102
RTVSPropertyOp23
 70
     1
102
RTVSPropertyOp24
 70
     1
102
RTVSPropertyOp25
 70
     1
102
RTVSPropertyOp26
 70
     1
102
RTVSPropertyOp27
 70
     1
102
RTVSPropertyOp28
 70
     1
102
RTVSPropertyOp29
 70
     1
102
RTVSPropertyOp30
 70
     1
102
RTVSPropertyOp31
 70
     1
102
RTVSPropertyOp32
 70
     1
  0
XRECORD
  5
E02
102
{ACAD_REACTORS
330
E01
102
}
330
E01
100
AcDbXrecord
280
     1
102
RTVSPropertyOp0
 70
     1
102
RTVSPropertyOp1
 70
     1
102
RTVSPropertyOp2
 70
     1
102
RTVSPropertyOp3
 70
     1
102
RTVSPropertyOp4
 70
     1
102
RTVSPropertyOp5
 70
     1
102
RTVSPropertyOp6
 70
     1
102
RTVSPropertyOp7
 70
     1
102
RTVSPropertyOp8
 70
     1
102
RTVSPropertyOp9
 70
     1
102
RTVSPropertyOp10
 70
     1
102
RTVSPropertyOp11
 70
     1
102
RTVSPropertyOp12
 70
     1
102
RTVSPropertyOp13
 70
     1
102
RTVSPropertyOp14
 70
     1
102
RTVSPropertyOp15
 70
     1
102
RTVSPropertyOp16
 70
     1
102
RTVSPropertyOp17
 70
     1
102
RTVSPropertyOp18
 70
     1
102
RTVSPropertyOp19
 70
     1
102
RTVSPropertyOp20
 70
     1
102
RTVSPropertyOp21
 70
     1
102
RTVSPropertyOp22
 70
     1
102
RTVSPropertyOp23
 70
     1
102
RTVSPropertyOp24
 70
     1
102
RTVSPropertyOp25
 70
     1
102
RTVSPropertyOp26
 70
     1
102
RTVSPropertyOp27
 70
     1
102
RTVSPropertyOp28
 70
     1
102
RTVSPropertyOp29
 70
     1
102
RTVSPropertyOp30
 70
     1
102
RTVSPropertyOp31
 70
     1
102
RTVSPropertyOp32
 70
     1
  0
XRECORD
  5
E1A
102
{ACAD_REACTORS
330
E19
102
}
330
E19
100
AcDbXrecord
280
     1
102
RTVSPropertyOp0
 70
     1
102
RTVSPropertyOp1
 70
     1
102
RTVSPropertyOp2
 70
     1
102
RTVSPropertyOp3
 70
     1
102
RTVSPropertyOp4
 70
     1
102
RTVSPropertyOp5
 70
     1
102
RTVSPropertyOp6
 70
     1
102
RTVSPropertyOp7
 70
     1
102
RTVSPropertyOp8
 70
     1
102
RTVSPropertyOp9
 70
     1
102
RTVSPropertyOp10
 70
     1
102
RTVSPropertyOp11
 70
     1
102
RTVSPropertyOp12
 70
     1
102
RTVSPropertyOp13
 70
     1
102
RTVSPropertyOp14
 70
     1
102
RTVSPropertyOp15
 70
     1
102
RTVSPropertyOp16
 70
     1
102
RTVSPropertyOp17
 70
     1
102
RTVSPropertyOp18
 70
     1
102
RTVSPropertyOp19
 70
     1
102
RTVSPropertyOp20
 70
     1
102
RTVSPropertyOp21
 70
     1
102
RTVSPropertyOp22
 70
     1
102
RTVSPropertyOp23
 70
     1
102
RTVSPropertyOp24
 70
     1
102
RTVSPropertyOp25
 70
     1
102
RTVSPropertyOp26
 70
     1
102
RTVSPropertyOp27
 70
     1
102
RTVSPropertyOp28
 70
     1
102
RTVSPropertyOp29
 70
     1
102
RTVSPropertyOp30
 70
     1
102
RTVSPropertyOp31
 70
     1
102
RTVSPropertyOp32
 70
     1
  0
ENDSEC
  0
EOF
