  0
SECTION
  2
HEADER
  9
$ACADVER
  1
AC1015
  9
$ACADMAINTVER
 70
    18
  9
$DWGCODEPAGE
  3
ANSI_1252
  9
$INSBASE
 10
0.0
 20
0.0
 30
0.0
  9
$EXTMIN
 10
0.0
 20
0.0
 30
0.0
  9
$EXTMAX
 10
68.0
 20
44.0
 30
0.0
  9
$LIMMIN
 10
0.0
 20
0.0
  9
$LIMMAX
 10
68.0
 20
44.0
  9
$ORTHOMODE
 70
     0
  9
$REGENMODE
 70
     1
  9
$FILLMODE
 70
     1
  9
$QTEXTMODE
 70
     0
  9
$MIRRTEXT
 70
     0
  9
$LTSCALE
 40
4.0
  9
$ATTMODE
 70
     1
  9
$TEXTSIZE
 40
0.2
  9
$TRACEWID
 40
0.05
  9
$TEXTSTYLE
  7
Standard
  9
$CLAYER
  8
0
  9
$CELTYPE
  6
ByLayer
  9
$CECOLOR
 62
   256
  9
$CELTSCALE
 40
1.0
  9
$DISPSILH
 70
     0
  9
$DIMSCALE
 40
1.0
  9
$DIMASZ
 40
0.0708661417322835
  9
$DIMEXO
 40
0.0625
  9
$DIMDLI
 40
0.38
  9
$DIMRND
 40
0.0
  9
$DIMDLE
 40
0.0
  9
$DIMEXE
 40
0.18
  9
$DIMTP
 40
0.0
  9
$DIMTM
 40
0.0
  9
$DIMTXT
 40
0.0708661417322835
  9
$DIMCEN
 40
0.09
  9
$DIMTSZ
 40
0.0
  9
$DIMTOL
 70
     0
  9
$DIMLIM
 70
     0
  9
$DIMTIH
 70
     1
  9
$DIMTOH
 70
     1
  9
$DIMSE1
 70
     0
  9
$DIMSE2
 70
     0
  9
$DIMTAD
 70
     0
  9
$DIMZIN
 70
     0
  9
$DIMBLK
  1

  9
$DIMASO
 70
     1
  9
$DIMSHO
 70
     1
  9
$DIMPOST
  1

  9
$DIMAPOST
  1

  9
$DIMALT
 70
     0
  9
$DIMALTD
 70
     2
  9
$DIMALTF
 40
25.4
  9
$DIMLFAC
 40
1.0
  9
$DIMTOFL
 70
     0
  9
$DIMTVP
 40
0.0
  9
$DIMTIX
 70
     0
  9
$DIMSOXD
 70
     0
  9
$DIMSAH
 70
     0
  9
$DIMBLK1
  1

  9
$DIMBLK2
  1

  9
$DIMSTYLE
  2
STANDARD
  9
$DIMCLRD
 70
     0
  9
$DIMCLRE
 70
     0
  9
$DIMCLRT
 70
     0
  9
$DIMTFAC
 40
1.0
  9
$DIMGAP
 40
0.09
  9
$DIMJUST
 70
     0
  9
$DIMSD1
 70
     0
  9
$DIMSD2
 70
     0
  9
$DIMTOLJ
 70
     1
  9
$DIMTZIN
 70
     0
  9
$DIMALTZ
 70
     0
  9
$DIMALTTZ
 70
     0
  9
$DIMUPT
 70
     0
  9
$DIMDEC
 70
     4
  9
$DIMTDEC
 70
     4
  9
$DIMALTU
 70
     2
  9
$DIMALTTD
 70
     2
  9
$DIMTXSTY
  7
Standard
  9
$DIMAUNIT
 70
     0
  9
$DIMADEC
 70
     0
  9
$DIMALTRND
 40
0.0
  9
$DIMAZIN
 70
     0
  9
$DIMDSEP
 70
    46
  9
$DIMATFIT
 70
     3
  9
$DIMFRAC
 70
     0
  9
$DIMLDRBLK
  1

  9
$DIMLUNIT
 70
     2
  9
$DIMLWD
 70
    -2
  9
$DIMLWE
 70
    -2
  9
$DIMTMOVE
 70
     0
  9
$LUNITS
 70
     2
  9
$LUPREC
 70
     4
  9
$SKETCHINC
 40
0.1
  9
$FILLETRAD
 40
0.0
  9
$AUNITS
 70
     0
  9
$AUPREC
 70
     0
  9
$MENU
  1
.
  9
$ELEVATION
 40
0.0
  9
$PELEVATION
 40
0.0
  9
$THICKNESS
 40
0.0
  9
$LIMCHECK
 70
     0
  9
$CHAMFERA
 40
0.0
  9
$CHAMFERB
 40
0.0
  9
$CHAMFERC
 40
0.0
  9
$CHAMFERD
 40
0.0
  9
$SKPOLY
 70
     0
  9
$TDCREATE
 40
2455944.611763507
  9
$TDUCREATE
 40
2455944.861763507
  9
$TDUPDATE
 40
2455944.611763507
  9
$TDUUPDATE
 40
2455944.861763507
  9
$TDINDWG
 40
0.0000361690
  9
$TDUSRTIMER
 40
0.0000361690
  9
$USRTIMER
 70
     1
  9
$ANGBASE
 50
0.0
  9
$ANGDIR
 70
     0
  9
$PDMODE
 70
     0
  9
$PDSIZE
 40
0.0
  9
$PLINEWID
 40
0.0
  9
$SPLFRAME
 70
     0
  9
$SPLINETYPE
 70
     6
  9
$SPLINESEGS
 70
     8
  9
$HANDSEED
  5
DD2
  9
$SURFTAB1
 70
     6
  9
$SURFTAB2
 70
     6
  9
$SURFTYPE
 70
     6
  9
$SURFU
 70
     6
  9
$SURFV
 70
     6
  9
$UCSBASE
  2

  9
$UCSNAME
  2

  9
$UCSORG
 10
0.0
 20
0.0
 30
0.0
  9
$UCSXDIR
 10
1.0
 20
0.0
 30
0.0
  9
$UCSYDIR
 10
0.0
 20
1.0
 30
0.0
  9
$UCSORTHOREF
  2

  9
$UCSORTHOVIEW
 70
     0
  9
$UCSORGTOP
 10
0.0
 20
0.0
 30
0.0
  9
$UCSORGBOTTOM
 10
0.0
 20
0.0
 30
0.0
  9
$UCSORGLEFT
 10
0.0
 20
0.0
 30
0.0
  9
$UCSORGRIGHT
 10
0.0
 20
0.0
 30
0.0
  9
$UCSORGFRONT
 10
0.0
 20
0.0
 30
0.0
  9
$UCSORGBACK
 10
0.0
 20
0.0
 30
0.0
  9
$PUCSBASE
  2

  9
$PUCSNAME
  2

  9
$PUCSORG
 10
0.0
 20
0.0
 30
0.0
  9
$PUCSXDIR
 10
1.0
 20
0.0
 30
0.0
  9
$PUCSYDIR
 10
0.0
 20
1.0
 30
0.0
  9
$PUCSORTHOREF
  2

  9
$PUCSORTHOVIEW
 70
     0
  9
$PUCSORGTOP
 10
0.0
 20
0.0
 30
0.0
  9
$PUCSORGBOTTOM
 10
0.0
 20
0.0
 30
0.0
  9
$PUCSORGLEFT
 10
0.0
 20
0.0
 30
0.0
  9
$PUCSORGRIGHT
 10
0.0
 20
0.0
 30
0.0
  9
$PUCSORGFRONT
 10
0.0
 20
0.0
 30
0.0
  9
$PUCSORGBACK
 10
0.0
 20
0.0
 30
0.0
  9
$USERI1
 70
     0
  9
$USERI2
 70
     0
  9
$USERI3
 70
     0
  9
$USERI4
 70
     0
  9
$USERI5
 70
     0
  9
$USERR1
 40
0.0
  9
$USERR2
 40
0.0
  9
$USERR3
 40
0.0
  9
$USERR4
 40
0.0
  9
$USERR5
 40
0.0
  9
$WORLDVIEW
 70
     1
  9
$SHADEDGE
 70
     3
  9
$SHADEDIF
 70
    70
  9
$TILEMODE
 70
     1
  9
$MAXACTVP
 70
    64
  9
$PINSBASE
 10
0.0
 20
0.0
 30
0.0
  9
$PLIMCHECK
 70
     0
  9
$PEXTMIN
 10
0.0
 20
0.0
 30
0.0
  9
$PEXTMAX
 10
68.0
 20
44.0
 30
0.0
  9
$PLIMMIN
 10
0.0
 20
0.0
  9
$PLIMMAX
 10
68.0
 20
44.0
  9
$UNITMODE
 70
     0
  9
$VISRETAIN
 70
     1
  9
$PLINEGEN
 70
     0
  9
$PSLTSCALE
 70
     1
  9
$TREEDEPTH
 70
  3020
  9
$CMLSTYLE
  2
Standard
  9
$CMLJUST
 70
     0
  9
$CMLSCALE
 40
1.0
  9
$PROXYGRAPHICS
 70
     1
  9
$MEASUREMENT
 70
     0
  9
$CELWEIGHT
370
    -1
  9
$ENDCAPS
280
     0
  9
$JOINSTYLE
280
     0
  9
$LWDISPLAY
290
     0
  9
$INSUNITS
 70
     1
  9
$HYPERLINKBASE
  1

  9
$STYLESHEET
  1

  9
$XEDIT
290
     1
  9
$CEPSNTYPE
380
     0
  9
$PSTYLEMODE
290
     1
  9
$FINGERPRINTGUID
  2
{F92168C5-FB6F-4400-BDA0-DBF4FEA085A6}
  9
$VERSIONGUID
  2
{8F865574-BAEC-42F1-8679-246B8CE91650}
  9
$EXTNAMES
290
     1
  9
$PSVPSCALE
 40
0.0
  9
$OLESTARTUP
290
     0
  0
ENDSEC
  0
SECTION
  2
CLASSES
  0
CLASS
  1
ACDBDICTIONARYWDFLT
  2
AcDbDictionaryWithDefault
  3
ObjectDBX Classes
 90
        0
280
     0
281
     0
  0
CLASS
  1
MATERIAL
  2
AcDbMaterial
  3
ObjectDBX Classes
 90
     1153
280
     0
281
     0
  0
CLASS
  1
VISUALSTYLE
  2
AcDbVisualStyle
  3
ObjectDBX Classes
 90
     4095
280
     0
281
     0
  0
CLASS
  1
SCALE
  2
AcDbScale
  3
ObjectDBX Classes
 90
     1153
280
     0
281
     0
  0
CLASS
  1
TABLESTYLE
  2
AcDbTableStyle
  3
ObjectDBX Classes
 90
     4095
280
     0
281
     0
  0
CLASS
  1
MLEADERSTYLE
  2
AcDbMLeaderStyle
  3
ACDB_MLEADERSTYLE_CLASS
 90
     4095
280
     0
281
     0
  0
CLASS
  1
DICTIONARYVAR
  2
AcDbDictionaryVar
  3
ObjectDBX Classes
 90
        0
280
     0
281
     0
  0
CLASS
  1
CELLSTYLEMAP
  2
AcDbCellStyleMap
  3
ObjectDBX Classes
 90
     1152
280
     0
281
     0
  0
CLASS
  1
ACDBPLACEHOLDER
  2
AcDbPlaceHolder
  3
ObjectDBX Classes
 90
        0
280
     0
281
     0
  0
CLASS
  1
LAYOUT
  2
AcDbLayout
  3
ObjectDBX Classes
 90
        0
280
     0
281
     0
  0
ENDSEC
  0
SECTION
  2
TABLES
  0
TABLE
  2
VPORT
  5
8
330
0
100
AcDbSymbolTable
 70
     1
  0
VPORT
  5
57
330
8
100
AcDbSymbolTableRecord
100
AcDbViewportTableRecord
  2
*Active
 70
     0
 10
0.0
 20
0.0
 11
1.0
 21
1.0
 12
34.0
 22
22.0
 13
0.0
 23
0.0
 14
1.0
 24
1.0
 15
0.0
 25
0.0
 16
0.0
 26
0.0
 36
1.0
 17
0.0
 27
0.0
 37
0.0
 40
44.0
 41
1.545454545454545
 42
50.0
 43
0.0
 44
0.0
 50
0.0
 51
0.0
 71
     0
 72
   100
 73
     1
 74
     1
 75
     0
 76
     0
 77
     0
 78
     0
281
     0
 65
     1
110
0.0
120
0.0
130
0.0
111
1.0
121
0.0
131
0.0
112
0.0
122
1.0
132
0.0
 79
     0
146
0.0
  0
ENDTAB
  0
TABLE
  2
LTYPE
  5
5
330
0
100
AcDbSymbolTable
 70
    59
  0
LTYPE
  5
5B
330
5
100
AcDbSymbolTableRecord
100
AcDbLinetypeTableRecord
  2
ByBlock
 70
     0
  3

 72
    65
 73
     0
 40
0.0
  0
LTYPE
  5
5C
330
5
100
AcDbSymbolTableRecord
100
AcDbLinetypeTableRecord
  2
ByLayer
 70
     0
  3

 72
    65
 73
     0
 40
0.0
  0
LTYPE
  5
5D
330
5
100
AcDbSymbolTableRecord
100
AcDbLinetypeTableRecord
  2
Continuous
 70
     0
  3
Solid line
 72
    65
 73
     0
 40
0.0
  0
LTYPE
  5
7C
330
5
100
AcDbSymbolTableRecord
100
AcDbLinetypeTableRecord
  2
BY_STANDARD
 70
     0
  3
By Standard ____________    ____    ____   _
 72
    65
 73
     6
 40
1.240299999999999
 49
0.6614
 74
     0
 49
-0.0827
 74
     0
 49
0.1654
 74
     0
 49
-0.0827
 74
     0
 49
0.1654
 74
     0
 49
-0.0827
 74
     0
  0
LTYPE
  5
7D
330
5
100
AcDbSymbolTableRecord
100
AcDbLinetypeTableRecord
  2
CHAIN
 70
     0
  3
Chain ____ _ ____ _ ____ _ ____ _ ____ _ ____
 72
    65
 73
     4
 40
0.7087
 49
0.4724000000000001
 74
     0
 49
-0.0591
 74
     0
 49
0.1181
 74
     0
 49
-0.0591
 74
     0
  0
LTYPE
  5
7E
330
5
100
AcDbSymbolTableRecord
100
AcDbLinetypeTableRecord
  2
DASH_DOT
 70
     0
  3
Dash dot __ . __ . __ . __ . __ . __ . __ . __
 72
    65
 73
     4
 40
0.37
 49
0.24
 74
     0
 49
-0.06
 74
     0
 49
0.01
 74
     0
 49
-0.06
 74
     0
  0
LTYPE
  5
7F
330
5
100
AcDbSymbolTableRecord
100
AcDbLinetypeTableRecord
  2
DOUBLE_DASH_DOT
 70
     0
  3
Double-Dash Dot __ __ . __ __ . __ __ . __ _
 72
    65
 73
     6
 40
0.4398
 49
0.24
 74
     0
 49
-0.06
 74
     0
 49
0.0098
 74
     0
 49
-0.06
 74
     0
 49
0.01
 74
     0
 49
-0.06
 74
     0
  0
LTYPE
  5
80
330
5
100
AcDbSymbolTableRecord
100
AcDbLinetypeTableRecord
  2
DASH_TRIPLE_DOT
 70
     0
  3
Dash Triple-Dot _ . . . _ . . . _ . . . _
 72
    65
 73
     8
 40
0.51
 49
0.24
 74
     0
 49
-0.06
 74
     0
 49
0.01
 74
     0
 49
-0.06
 74
     0
 49
0.01
 74
     0
 49
-0.06
 74
     0
 49
0.01
 74
     0
 49
-0.06
 74
     0
  0
LTYPE
  5
81
330
5
100
AcDbSymbolTableRecord
100
AcDbLinetypeTableRecord
  2
DASHED
 70
     0
  3
Dashed __ __ __ __ __ __ __ __ __ __ __ __ __ _
 72
    65
 73
     2
 40
0.2067
 49
0.1654
 74
     0
 49
-0.0413
 74
     0
  0
LTYPE
  5
82
330
5
100
AcDbSymbolTableRecord
100
AcDbLinetypeTableRecord
  2
DASH_DOUBLE_DOT
 70
     0
  3
Dash Double-Dot __ . . __ . . __ . . __ . .
 72
    65
 73
     6
 40
0.4398
 49
0.24
 74
     0
 49
-0.06
 74
     0
 49
0.0098
 74
     0
 49
-0.06
 74
     0
 49
0.01
 74
     0
 49
-0.06
 74
     0
  0
LTYPE
  5
83
330
5
100
AcDbSymbolTableRecord
100
AcDbLinetypeTableRecord
  2
DASHED_SPACE
 70
     0
  3
Dashed Space __ __ __ __ __ __ __ __ __ __ __ _
 72
    65
 73
     2
 40
0.2067
 49
0.1654
 74
     0
 49
-0.0413
 74
     0
  0
LTYPE
  5
84
330
5
100
AcDbSymbolTableRecord
100
AcDbLinetypeTableRecord
  2
DOTTED
 70
     0
  3
Dotted . . . . . . . . . . . . . . . . . . . . 
 72
    65
 73
     2
 40
0.0482
 49
0.0069
 74
     0
 49
-0.0413
 74
     0
  0
LTYPE
  5
85
330
5
100
AcDbSymbolTableRecord
100
AcDbLinetypeTableRecord
  2
DOUBLE_DASH_CHAIN
 70
     0
  3
Double-Dash Chain ______  __  __  ______  __  _
 72
    65
 73
     6
 40
1.240299999999999
 49
0.6614
 74
     0
 49
-0.0827
 74
     0
 49
0.1654
 74
     0
 49
-0.0827
 74
     0
 49
0.1654
 74
     0
 49
-0.0827
 74
     0
  0
LTYPE
  5
87
330
5
100
AcDbSymbolTableRecord
100
AcDbLinetypeTableRecord
  2
DOUBLE_DASH_DOUBLE_DOT
 70
     0
  3
Double-Dash Double-dot _ _ . . _ _ . . _
 72
    65
 73
     8
 40
0.7400000000000001
 49
0.24
 74
     0
 49
-0.06
 74
     0
 49
0.24
 74
     0
 49
-0.06
 74
     0
 49
0.01
 74
     0
 49
-0.06
 74
     0
 49
0.01
 74
     0
 49
-0.06
 74
     0
  0
LTYPE
  5
88
330
5
100
AcDbSymbolTableRecord
100
AcDbLinetypeTableRecord
  2
DOUBLE_DASH_TRIPLE_DOT
 70
     0
  3
Double Dash Triple Dot __ __ . . . __ __ . .
 72
    65
 73
    10
 40
0.8100000000000001
 49
0.24
 74
     0
 49
-0.06
 74
     0
 49
0.24
 74
     0
 49
-0.06
 74
     0
 49
0.01
 74
     0
 49
-0.06
 74
     0
 49
0.01
 74
     0
 49
-0.06
 74
     0
 49
0.01
 74
     0
 49
-0.06
 74
     0
  0
LTYPE
  5
89
330
5
100
AcDbSymbolTableRecord
100
AcDbLinetypeTableRecord
  2
LONG_DASH_DOTTED
 70
     0
  3
Long Dash Dotted ____ . ____ . ____ . ____ . _
 72
    65
 73
     4
 40
0.3543
 49
0.2362
 74
     0
 49
-0.0295
 74
     0
 49
0.0591
 74
     0
 49
-0.0295
 74
     0
  0
LTYPE
  5
8A
330
5
100
AcDbSymbolTableRecord
100
AcDbLinetypeTableRecord
  2
LONG_DASH_DOUBLE_DOT
 70
     0
  3
Long Dash Double Dot ________  .  .  ________  
 72
    65
 73
     6
 40
0.6799999999999999
 49
0.48
 74
     0
 49
-0.06
 74
     0
 49
0.01
 74
     0
 49
-0.06
 74
     0
 49
0.01
 74
     0
 49
-0.06
 74
     0
  0
LTYPE
  5
8B
330
5
100
AcDbSymbolTableRecord
100
AcDbLinetypeTableRecord
  2
LONG_DASH_TRIPLE_DOT
 70
     0
  3
Long Dash Triple Dot ____ ... ____ ... ____
 72
    65
 73
     8
 40
0.3689
 49
0.2362
 74
     0
 49
-0.0295
 74
     0
 49
0.0049
 74
     0
 49
-0.0295
 74
     0
 49
0.0049
 74
     0
 49
-0.0295
 74
     0
 49
0.0049
 74
     0
 49
-0.0295
 74
     0
  0
LTYPE
  5
8C
330
5
100
AcDbSymbolTableRecord
100
AcDbLinetypeTableRecord
  2
BORDER
 70
     0
  3
Border __ __ . __ __ . __ __ . __ __ . __ __ .
 72
    65
 73
     6
 40
1.75
 49
0.5
 74
     0
 49
-0.25
 74
     0
 49
0.5
 74
     0
 49
-0.25
 74
     0
 49
0.0
 74
     0
 49
-0.25
 74
     0
  0
LTYPE
  5
8D
330
5
100
AcDbSymbolTableRecord
100
AcDbLinetypeTableRecord
  2
BORDER2
 70
     0
  3
Border (.5x) __.__.__.__.__.__.__.__.__.__.__.
 72
    65
 73
     6
 40
0.875
 49
0.25
 74
     0
 49
-0.125
 74
     0
 49
0.25
 74
     0
 49
-0.125
 74
     0
 49
0.0
 74
     0
 49
-0.125
 74
     0
  0
LTYPE
  5
8E
330
5
100
AcDbSymbolTableRecord
100
AcDbLinetypeTableRecord
  2
BORDERX2
 70
     0
  3
Border (2x) ____  ____  .  ____  ____  .  ___
 72
    65
 73
     6
 40
3.5
 49
1.0
 74
     0
 49
-0.5
 74
     0
 49
1.0
 74
     0
 49
-0.5
 74
     0
 49
0.0
 74
     0
 49
-0.5
 74
     0
  0
LTYPE
  5
8F
330
5
100
AcDbSymbolTableRecord
100
AcDbLinetypeTableRecord
  2
CENTER
 70
     0
  3
Center ____ _ ____ _ ____ _ ____ _ ____ _ ____
 72
    65
 73
     4
 40
2.0
 49
1.25
 74
     0
 49
-0.25
 74
     0
 49
0.25
 74
     0
 49
-0.25
 74
     0
  0
LTYPE
  5
90
330
5
100
AcDbSymbolTableRecord
100
AcDbLinetypeTableRecord
  2
CENTER2
 70
     0
  3
Center (.5x) ___ _ ___ _ ___ _ ___ _ ___ _ ___
 72
    65
 73
     4
 40
1.125
 49
0.75
 74
     0
 49
-0.125
 74
     0
 49
0.125
 74
     0
 49
-0.125
 74
     0
  0
LTYPE
  5
91
330
5
100
AcDbSymbolTableRecord
100
AcDbLinetypeTableRecord
  2
CENTERX2
 70
     0
  3
Center (2x) ________  __  ________  __  _____
 72
    65
 73
     4
 40
4.0
 49
2.5
 74
     0
 49
-0.5
 74
     0
 49
0.5
 74
     0
 49
-0.5
 74
     0
  0
LTYPE
  5
92
330
5
100
AcDbSymbolTableRecord
100
AcDbLinetypeTableRecord
  2
DASHDOT2
 70
     0
  3
Dash dot (.5x) _._._._._._._._._._._._._._._.
 72
    65
 73
     4
 40
0.5
 49
0.25
 74
     0
 49
-0.125
 74
     0
 49
0.0
 74
     0
 49
-0.125
 74
     0
  0
LTYPE
  5
93
330
5
100
AcDbSymbolTableRecord
100
AcDbLinetypeTableRecord
  2
DASHDOTX2
 70
     0
  3
Dash dot (2x) ____  .  ____  .  ____  .  ___
 72
    65
 73
     4
 40
2.0
 49
1.0
 74
     0
 49
-0.5
 74
     0
 49
0.0
 74
     0
 49
-0.5
 74
     0
  0
LTYPE
  5
95
330
5
100
AcDbSymbolTableRecord
100
AcDbLinetypeTableRecord
  2
DASHED2
 70
     0
  3
Dashed (.5x) _ _ _ _ _ _ _ _ _ _ _ _ _ _ _ _ _
 72
    65
 73
     2
 40
0.375
 49
0.25
 74
     0
 49
-0.125
 74
     0
  0
LTYPE
  5
96
330
5
100
AcDbSymbolTableRecord
100
AcDbLinetypeTableRecord
  2
DASHEDX2
 70
     0
  3
Dashed (2x) ____  ____  ____  ____  ____  ___
 72
    65
 73
     2
 40
1.5
 49
1.0
 74
     0
 49
-0.5
 74
     0
  0
LTYPE
  5
97
330
5
100
AcDbSymbolTableRecord
100
AcDbLinetypeTableRecord
  2
DIVIDE
 70
     0
  3
Divide ____ . . ____ . . ____ . . ____ . . ____
 72
    65
 73
     6
 40
1.25
 49
0.5
 74
     0
 49
-0.25
 74
     0
 49
0.0
 74
     0
 49
-0.25
 74
     0
 49
0.0
 74
     0
 49
-0.25
 74
     0
  0
LTYPE
  5
98
330
5
100
AcDbSymbolTableRecord
100
AcDbLinetypeTableRecord
  2
DIVIDE2
 70
     0
  3
Divide (.5x) __..__..__..__..__..__..__..__.._
 72
    65
 73
     6
 40
0.625
 49
0.25
 74
     0
 49
-0.125
 74
     0
 49
0.0
 74
     0
 49
-0.125
 74
     0
 49
0.0
 74
     0
 49
-0.125
 74
     0
  0
LTYPE
  5
99
330
5
100
AcDbSymbolTableRecord
100
AcDbLinetypeTableRecord
  2
DIVIDEX2
 70
     0
  3
Divide (2x) ________  .  .  ________  .  .  _
 72
    65
 73
     6
 40
2.5
 49
1.0
 74
     0
 49
-0.5
 74
     0
 49
0.0
 74
     0
 49
-0.5
 74
     0
 49
0.0
 74
     0
 49
-0.5
 74
     0
  0
LTYPE
  5
9A
330
5
100
AcDbSymbolTableRecord
100
AcDbLinetypeTableRecord
  2
DOT
 70
     0
  3
Dot . . . . . . . . . . . . . . . . . . . . . .
 72
    65
 73
     2
 40
0.25
 49
0.0
 74
     0
 49
-0.25
 74
     0
  0
LTYPE
  5
9B
330
5
100
AcDbSymbolTableRecord
100
AcDbLinetypeTableRecord
  2
DOT2
 70
     0
  3
Dot (.5x) .....................................
 72
    65
 73
     2
 40
0.125
 49
0.0
 74
     0
 49
-0.125
 74
     0
  0
LTYPE
  5
9C
330
5
100
AcDbSymbolTableRecord
100
AcDbLinetypeTableRecord
  2
DOTX2
 70
     0
  3
Dot (2x) .  .  .  .  .  .  .  .  .  .  .  .  . 
 72
    65
 73
     2
 40
0.5
 49
0.0
 74
     0
 49
-0.5
 74
     0
  0
LTYPE
  5
9D
330
5
100
AcDbSymbolTableRecord
100
AcDbLinetypeTableRecord
  2
HIDDEN
 70
     0
  3
Hidden __ __ __ __ __ __ __ __ __ __ __ __ __ _
 72
    65
 73
     2
 40
0.375
 49
0.25
 74
     0
 49
-0.125
 74
     0
  0
LTYPE
  5
9E
330
5
100
AcDbSymbolTableRecord
100
AcDbLinetypeTableRecord
  2
HIDDEN2
 70
     0
  3
Hidden (.5x) _ _ _ _ _ _ _ _ _ _ _ _ _ _ _ _ _
 72
    65
 73
     2
 40
0.1875
 49
0.125
 74
     0
 49
-0.0625
 74
     0
  0
LTYPE
  5
9F
330
5
100
AcDbSymbolTableRecord
100
AcDbLinetypeTableRecord
  2
HIDDENX2
 70
     0
  3
Hidden (2x) ____ ____ ____ ____ ____ ____ ____
 72
    65
 73
     2
 40
0.75
 49
0.5
 74
     0
 49
-0.25
 74
     0
  0
LTYPE
  5
A0
330
5
100
AcDbSymbolTableRecord
100
AcDbLinetypeTableRecord
  2
PHANTOM
 70
     0
  3
Phantom ______  __  __  ______  __  __  ______
 72
    65
 73
     6
 40
2.5
 49
1.25
 74
     0
 49
-0.25
 74
     0
 49
0.25
 74
     0
 49
-0.25
 74
     0
 49
0.25
 74
     0
 49
-0.25
 74
     0
  0
LTYPE
  5
A1
330
5
100
AcDbSymbolTableRecord
100
AcDbLinetypeTableRecord
  2
PHANTOM2
 70
     0
  3
Phantom (.5x) ___ _ _ ___ _ _ ___ _ _ ___ _ _
 72
    65
 73
     6
 40
1.25
 49
0.625
 74
     0
 49
-0.125
 74
     0
 49
0.125
 74
     0
 49
-0.125
 74
     0
 49
0.125
 74
     0
 49
-0.125
 74
     0
  0
LTYPE
  5
A2
330
5
100
AcDbSymbolTableRecord
100
AcDbLinetypeTableRecord
  2
PHANTOMX2
 70
     0
  3
Phantom (2x) ____________    ____    ____   _
 72
    65
 73
     6
 40
5.0
 49
2.5
 74
     0
 49
-0.5
 74
     0
 49
0.5
 74
     0
 49
-0.5
 74
     0
 49
0.5
 74
     0
 49
-0.5
 74
     0
  0
LTYPE
  5
A3
330
5
100
AcDbSymbolTableRecord
100
AcDbLinetypeTableRecord
  2
ACAD_ISO02W100
 70
     0
  3
ISO dash __ __ __ __ __ __ __ __ __ __ __ __ __
 72
    65
 73
     2
 40
0.59
 49
0.47
 74
     0
 49
-0.12
 74
     0
  0
LTYPE
  5
A4
330
5
100
AcDbSymbolTableRecord
100
AcDbLinetypeTableRecord
  2
ACAD_ISO03W100
 70
     0
  3
ISO dash space __    __    __    __    __    __
 72
    65
 73
     2
 40
1.179999999999999
 49
0.47
 74
     0
 49
-0.71
 74
     0
  0
LTYPE
  5
A5
330
5
100
AcDbSymbolTableRecord
100
AcDbLinetypeTableRecord
  2
ACAD_ISO04W100
 70
     0
  3
ISO long-dash dot ____ . ____ . ____ . ____ . _
 72
    65
 73
     4
 40
1.179999999999999
 49
0.9399999999999998
 74
     0
 49
-0.12
 74
     0
 49
0.0
 74
     0
 49
-0.12
 74
     0
  0
LTYPE
  5
A6
330
5
100
AcDbSymbolTableRecord
100
AcDbLinetypeTableRecord
  2
ACAD_ISO05W100
 70
     0
  3
ISO long-dash double-dot ____ .. ____ .. ____ .
 72
    65
 73
     6
 40
1.299999999999999
 49
0.9399999999999998
 74
     0
 49
-0.12
 74
     0
 49
0.0
 74
     0
 49
-0.12
 74
     0
 49
0.0
 74
     0
 49
-0.12
 74
     0
  0
LTYPE
  5
A7
330
5
100
AcDbSymbolTableRecord
100
AcDbLinetypeTableRecord
  2
ACAD_ISO06W100
 70
     0
  3
ISO long-dash triple-dot ____ ... ____ ... ____
 72
    65
 73
     8
 40
1.419999999999999
 49
0.9399999999999998
 74
     0
 49
-0.12
 74
     0
 49
0.0
 74
     0
 49
-0.12
 74
     0
 49
0.0
 74
     0
 49
-0.12
 74
     0
 49
0.0
 74
     0
 49
-0.12
 74
     0
  0
LTYPE
  5
A8
330
5
100
AcDbSymbolTableRecord
100
AcDbLinetypeTableRecord
  2
ACAD_ISO07W100
 70
     0
  3
ISO dot . . . . . . . . . . . . . . . . . . . .
 72
    65
 73
     2
 40
0.12
 49
0.0
 74
     0
 49
-0.12
 74
     0
  0
LTYPE
  5
A9
330
5
100
AcDbSymbolTableRecord
100
AcDbLinetypeTableRecord
  2
ACAD_ISO08W100
 70
     0
  3
ISO long-dash short-dash ____ __ ____ __ ____ _
 72
    65
 73
     4
 40
0.95
 49
0.47
 74
     0
 49
-0.12
 74
     0
 49
0.24
 74
     0
 49
-0.12
 74
     0
  0
LTYPE
  5
AA
330
5
100
AcDbSymbolTableRecord
100
AcDbLinetypeTableRecord
  2
ACAD_ISO09W100
 70
     0
  3
ISO long-dash double-short-dash ____ __ __ ____
 72
    65
 73
     6
 40
1.31
 49
0.47
 74
     0
 49
-0.12
 74
     0
 49
0.24
 74
     0
 49
-0.12
 74
     0
 49
0.24
 74
     0
 49
-0.12
 74
     0
  0
LTYPE
  5
AB
330
5
100
AcDbSymbolTableRecord
100
AcDbLinetypeTableRecord
  2
ACAD_ISO10W100
 70
     0
  3
ISO dash dot __ . __ . __ . __ . __ . __ . __ .
 72
    65
 73
     4
 40
0.71
 49
0.47
 74
     0
 49
-0.12
 74
     0
 49
0.0
 74
     0
 49
-0.12
 74
     0
  0
LTYPE
  5
AC
330
5
100
AcDbSymbolTableRecord
100
AcDbLinetypeTableRecord
  2
ACAD_ISO11W100
 70
     0
  3
ISO double-dash dot __ __ . __ __ . __ __ . __ 
 72
    65
 73
     6
 40
1.299999999999999
 49
0.47
 74
     0
 49
-0.12
 74
     0
 49
0.47
 74
     0
 49
-0.12
 74
     0
 49
0.0
 74
     0
 49
-0.12
 74
     0
  0
LTYPE
  5
AD
330
5
100
AcDbSymbolTableRecord
100
AcDbLinetypeTableRecord
  2
ACAD_ISO12W100
 70
     0
  3
ISO dash double-dot __ . . __ . . __ . . __ . .
 72
    65
 73
     6
 40
0.8299999999999998
 49
0.47
 74
     0
 49
-0.12
 74
     0
 49
0.0
 74
     0
 49
-0.12
 74
     0
 49
0.0
 74
     0
 49
-0.12
 74
     0
  0
LTYPE
  5
AE
330
5
100
AcDbSymbolTableRecord
100
AcDbLinetypeTableRecord
  2
ACAD_ISO13W100
 70
     0
  3
ISO double-dash double-dot __ __ . . __ __ . . 
 72
    65
 73
     8
 40
1.419999999999999
 49
0.47
 74
     0
 49
-0.12
 74
     0
 49
0.47
 74
     0
 49
-0.12
 74
     0
 49
0.0
 74
     0
 49
-0.12
 74
     0
 49
0.0
 74
     0
 49
-0.12
 74
     0
  0
LTYPE
  5
AF
330
5
100
AcDbSymbolTableRecord
100
AcDbLinetypeTableRecord
  2
ACAD_ISO14W100
 70
     0
  3
ISO dash triple-dot __ . . . __ . . . __ . . . 
 72
    65
 73
     8
 40
0.95
 49
0.47
 74
     0
 49
-0.12
 74
     0
 49
0.0
 74
     0
 49
-0.12
 74
     0
 49
0.0
 74
     0
 49
-0.12
 74
     0
 49
0.0
 74
     0
 49
-0.12
 74
     0
  0
LTYPE
  5
B0
330
5
100
AcDbSymbolTableRecord
100
AcDbLinetypeTableRecord
  2
ACAD_ISO15W100
 70
     0
  3
ISO double-dash triple-dot __ __ . . . __ __ . 
 72
    65
 73
    10
 40
1.539999999999999
 49
0.47
 74
     0
 49
-0.12
 74
     0
 49
0.47
 74
     0
 49
-0.12
 74
     0
 49
0.0
 74
     0
 49
-0.12
 74
     0
 49
0.0
 74
     0
 49
-0.12
 74
     0
 49
0.0
 74
     0
 49
-0.12
 74
     0
  0
LTYPE
  5
B3
330
5
100
AcDbSymbolTableRecord
100
AcDbLinetypeTableRecord
  2
FENCELINE1
 70
     0
  3
Fenceline circle ----0-----0----0-----0----0---
 72
    65
 73
     4
 40
1.45
 49
0.25
 74
     0
 49
-0.1
 74
     4
 75
   133
340
B2
 46
0.1
 50
0.0
 44
-0.1
 45
0.0
 49
-0.1
 74
     0
 49
1.0
 74
     0
  0
LTYPE
  5
B4
330
5
100
AcDbSymbolTableRecord
100
AcDbLinetypeTableRecord
  2
FENCELINE2
 70
     0
  3
Fenceline square ----[]-----[]----[]-----[]----
 72
    65
 73
     4
 40
1.45
 49
0.25
 74
     0
 49
-0.1
 74
     4
 75
   132
340
B2
 46
0.1
 50
0.0
 44
-0.1
 45
0.0
 49
-0.1
 74
     0
 49
1.0
 74
     0
  0
LTYPE
  5
B5
330
5
100
AcDbSymbolTableRecord
100
AcDbLinetypeTableRecord
  2
TRACKS
 70
     0
  3
Tracks -|-|-|-|-|-|-|-|-|-|-|-|-|-|-|-|-|-|-|-|
 72
    65
 73
     2
 40
0.3
 49
0.15
 74
     4
 75
   130
340
B2
 46
0.25
 50
0.0
 44
0.0
 45
0.0
 49
0.15
 74
     0
  0
LTYPE
  5
B6
330
5
100
AcDbSymbolTableRecord
100
AcDbLinetypeTableRecord
  2
BATTING
 70
     0
  3
Batting SSSSSSSSSSSSSSSSSSSSSSSSSSSSSSSSSSSSSSS
 72
    65
 73
     4
 40
0.4001000000000001
 49
0.0001
 74
     0
 49
-0.1
 74
     4
 75
   134
340
B2
 46
0.1
 50
0.0
 44
-0.1
 45
0.0
 49
-0.2
 74
     4
 75
   134
340
B2
 46
0.1
 50
180.0
 44
0.1
 45
0.0
 49
-0.1
 74
     0
  0
LTYPE
  5
B7
330
5
100
AcDbSymbolTableRecord
100
AcDbLinetypeTableRecord
  2
HOT_WATER_SUPPLY
 70
     0
  3
Hot water supply ---- HW ---- HW ---- HW ----
 72
    65
 73
     3
 40
0.9
 49
0.5
 74
     0
 49
-0.2
 74
     2
 75
     0
340
55
 46
0.1
 50
0.0
 44
-0.1
 45
-0.05
  9
HW
 49
-0.2
 74
     0
  0
LTYPE
  5
B8
330
5
100
AcDbSymbolTableRecord
100
AcDbLinetypeTableRecord
  2
GAS_LINE
 70
     0
  3
Gas line ----GAS----GAS----GAS----GAS----GAS---
 72
    65
 73
     3
 40
0.95
 49
0.5
 74
     0
 49
-0.2
 74
     2
 75
     0
340
55
 46
0.1
 50
0.0
 44
-0.1
 45
-0.05
  9
GAS
 49
-0.25
 74
     0
  0
LTYPE
  5
B9
330
5
100
AcDbSymbolTableRecord
100
AcDbLinetypeTableRecord
  2
ZIGZAG
 70
     0
  3
Zig zag /\/\/\/\/\/\/\/\/\/\/\/\/\/\/\/\/\/\/\/
 72
    65
 73
     4
 40
0.8001000000000001
 49
0.0001
 74
     0
 49
-0.2
 74
     4
 75
   131
340
B2
 46
0.2
 50
0.0
 44
-0.2
 45
0.0
 49
-0.4
 74
     4
 75
   131
340
B2
 46
0.2
 50
180.0
 44
0.2
 45
0.0
 49
-0.2
 74
     0
  0
ENDTAB
  0
TABLE
  2
LAYER
  5
2
330
0
100
AcDbSymbolTable
 70
    27
  0
LAYER
  5
54
330
2
100
AcDbSymbolTableRecord
100
AcDbLayerTableRecord
  2
0
 70
     0
 62
     7
  6
Continuous
370
    18
390
F
  0
LAYER
  5
C3
330
2
100
AcDbSymbolTableRecord
100
AcDbLayerTableRecord
  2
Dimension (ANSI)
 70
     0
 62
     7
  6
Continuous
370
    13
390
F
  0
LAYER
  5
C5
330
2
100
AcDbSymbolTableRecord
100
AcDbLayerTableRecord
  2
Hidden (ANSI)
 70
     0
 62
     7
  6
DASHED
370
    15
390
F
  0
LAYER
  5
CC
330
2
100
AcDbSymbolTableRecord
100
AcDbLayerTableRecord
  2
Symbol (ANSI)
 70
     0
 62
     7
  6
Continuous
370
    18
390
F
  0
LAYER
  5
CF
330
2
100
AcDbSymbolTableRecord
100
AcDbLayerTableRecord
  2
Visible (ANSI)
 70
     0
 62
     7
  6
Continuous
370
    13
390
F
  0
LAYER
  5
D0
330
2
100
AcDbSymbolTableRecord
100
AcDbLayerTableRecord
  2
Visible Narrow (ANSI)
 70
     0
 62
     7
  6
Continuous
370
    18
390
F
  0
LAYER
  5
1AA
330
2
100
AcDbSymbolTableRecord
100
AcDbLayerTableRecord
  2
Defpoints
 70
     0
 62
     7
  6
Continuous
290
     0
370
    -3
390
F
  0
ENDTAB
  0
TABLE
  2
STYLE
  5
3
330
0
100
AcDbSymbolTable
 70
    17
  0
STYLE
  5
55
330
3
100
AcDbSymbolTableRecord
100
AcDbTextStyleTableRecord
  2
Standard
 70
     0
 40
0.0
 41
1.0
 50
0.0
 71
     0
 42
0.2
  3
txt
  4

  0
STYLE
  5
5A
330
3
100
AcDbSymbolTableRecord
100
AcDbTextStyleTableRecord
  2
Annotative
 70
     0
 40
0.0
 41
1.0
 50
0.0
 71
     0
 42
0.2
  3
txt
  4

1001
AcadAnnotative
1000
AnnotativeData
1002
{
1070
     1
1070
     1
1002
}
  0
STYLE
  5
B2
330
3
100
AcDbSymbolTableRecord
100
AcDbTextStyleTableRecord
  2

 70
     1
 40
0.0
 41
1.0
 50
0.0
 71
     0
 42
0.2
  3
ltypeshp.shx
  4

  0
STYLE
  5
D4
330
3
100
AcDbSymbolTableRecord
100
AcDbTextStyleTableRecord
  2
ITALICC_120
 70
     0
 40
0.0
 41
1.0
 50
0.0
 71
     0
 42
0.2
  3
italicc.shx
  4

  0
STYLE
  5
D5
330
3
100
AcDbSymbolTableRecord
100
AcDbTextStyleTableRecord
  2
Label Text (ANSI)
 70
     0
 40
0.0
 41
1.0
 50
0.0
 71
     0
 42
0.2
  3
RomanS.shx
  4

  0
STYLE
  5
D6
330
3
100
AcDbSymbolTableRecord
100
AcDbTextStyleTableRecord
  2
Note Text (ANSI)
 70
     0
 40
0.0
 41
1.0
 50
0.0
 71
     0
 42
0.2
  3
RomanS.shx
  4

  0
STYLE
  5
D7
330
3
100
AcDbSymbolTableRecord
100
AcDbTextStyleTableRecord
  2
ROMANS
 70
     0
 40
0.0
 41
1.0
 50
0.0
 71
     0
 42
0.2
  3
romans.shx
  4

  0
STYLE
  5
D8
330
3
100
AcDbSymbolTableRecord
100
AcDbTextStyleTableRecord
  2
SANSSERIF_114
 70
     0
 40
0.0
 41
1.0
 50
0.0
 71
     0
 42
0.2
  3
TAHOMA.TTF
  4

1001
ACAD
1000
Tahoma
1071
      256
  0
STYLE
  5
D9
330
3
100
AcDbSymbolTableRecord
100
AcDbTextStyleTableRecord
  2
SANSSERIF_117
 70
     0
 40
0.0
 41
1.0
 50
0.0
 71
     0
 42
0.2
  3
TAHOMA.TTF
  4

1001
ACAD
1000
Tahoma
1071
      256
  0
STYLE
  5
DA
330
3
100
AcDbSymbolTableRecord
100
AcDbTextStyleTableRecord
  2
STANDARDAM_ANSI
 70
     0
 40
0.0
 41
1.0
 50
0.0
 71
     0
 42
0.2
  3
txt.shx
  4

  0
STYLE
  5
DB
330
3
100
AcDbSymbolTableRecord
100
AcDbTextStyleTableRecord
  2
StandardAM_ANSI$0
 70
     0
 40
0.0
 41
1.0
 50
0.0
 71
     0
 42
0.2
  3
txt.shx
  4

  0
STYLE
  5
DC
330
3
100
AcDbSymbolTableRecord
100
AcDbTextStyleTableRecord
  2
STANDARDAM_ANSI$3
 70
     0
 40
0.0
 41
1.0
 50
0.0
 71
     0
 42
0.2
  3
txt.shx
  4

  0
STYLE
  5
DD
330
3
100
AcDbSymbolTableRecord
100
AcDbTextStyleTableRecord
  2
STANDARDAM_ANSI$4
 70
     0
 40
0.0
 41
1.0
 50
0.0
 71
     0
 42
0.2
  3
txt.shx
  4

  0
STYLE
  5
DE
330
3
100
AcDbSymbolTableRecord
100
AcDbTextStyleTableRecord
  2
STANDARDAM_ANSI$7
 70
     0
 40
0.0
 41
1.0
 50
0.0
 71
     0
 42
0.2
  3
txt.shx
  4

  0
STYLE
  5
DF
330
3
100
AcDbSymbolTableRecord
100
AcDbTextStyleTableRecord
  2
STANDARDAM_ANSI$SF
 70
     0
 40
0.0
 41
1.0
 50
0.0
 71
     0
 42
0.2
  3
txt.shx
  4

  0
STYLE
  5
E0
330
3
100
AcDbSymbolTableRecord
100
AcDbTextStyleTableRecord
  2
STANDARDAM_ANSI$SH
 70
     0
 40
0.0
 41
1.0
 50
0.0
 71
     0
 42
0.2
  3
txt.shx
  4

  0
STYLE
  5
E1
330
3
100
AcDbSymbolTableRecord
100
AcDbTextStyleTableRecord
  2
STANDARDSTANDARD
 70
     0
 40
0.0
 41
1.0
 50
0.0
 71
     0
 42
0.2
  3
txt.shx
  4

  0
ENDTAB
  0
TABLE
  2
VIEW
  5
6
330
0
100
AcDbSymbolTable
 70
     0
  0
ENDTAB
  0
TABLE
  2
UCS
  5
7
330
0
100
AcDbSymbolTable
 70
     0
  0
ENDTAB
  0
TABLE
  2
APPID
  5
9
330
0
100
AcDbSymbolTable
 70
     4
  0
APPID
  5
56
330
9
100
AcDbSymbolTableRecord
100
AcDbRegAppTableRecord
  2
ACAD
 70
     0
  0
APPID
  5
5E
330
9
100
AcDbSymbolTableRecord
100
AcDbRegAppTableRecord
  2
AcadAnnotative
 70
     0
  0
APPID
  5
418
330
9
100
AcDbSymbolTableRecord
100
AcDbRegAppTableRecord
  2
ACAD_DSTYLE_DIMRADIAL_EXTENSION
 70
     0
  0
APPID
  5
DC7
330
9
100
AcDbSymbolTableRecord
100
AcDbRegAppTableRecord
  2
ACAD_MLEADERVER
 70
     0
  0
ENDTAB
  0
TABLE
  2
DIMSTYLE
  5
A
330
0
100
AcDbSymbolTable
 70
    27
100
AcDbDimStyleTable
 71
     2
340
F6
340
58
  0
DIMSTYLE
105
58
330
A
100
AcDbSymbolTableRecord
100
AcDbDimStyleTableRecord
  2
STANDARD
 70
     0
 41
0.1800000071525573
 42
0.0625
140
0.1800000071525574
144
1.0
147
0.0900000035762787
176
   256
177
   256
178
   256
274
     3
340
55
371
    -1
372
    -1
  0
DIMSTYLE
105
59
330
A
100
AcDbSymbolTableRecord
100
AcDbDimStyleTableRecord
  2
Annotative
 70
     0
340
55
1001
AcadAnnotative
1000
AnnotativeData
1002
{
1070
     1
1070
     1
1002
}
  0
DIMSTYLE
105
E2
330
A
100
AcDbSymbolTableRecord
100
AcDbDimStyleTableRecord
  2
AM_ANSI
 70
     0
  4
 mm
 40
4.0
 41
0.119999997317791
 42
0.05
 43
0.5
 44
0.1
 45
0.00000001
 78
     4
 79
     2
140
0.1200000047683716
146
0.7099999453624112
147
0.0599999986588955
176
   256
177
   256
178
     2
284
     4
340
DA
371
    -1
372
    -1
  0
DIMSTYLE
105
E3
330
A
100
AcDbSymbolTableRecord
100
AcDbDimStyleTableRecord
  2
AM_ANSI$7
 70
     0
  4
 mm
 40
4.0
 41
0.119999997317791
 42
0.05
 43
0.5
 44
0.1
 45
0.00000001
 78
     4
 79
     2
140
0.1200000047683716
146
0.7099999453624112
147
0.0599999986588955
176
   256
177
   256
178
     2
284
     4
340
DA
371
    -1
372
    -1
  0
DIMSTYLE
105
E4
330
A
100
AcDbSymbolTableRecord
100
AcDbDimStyleTableRecord
  2
AM_ANSI$0
 70
     0
  4
 mm
 40
4.0
 41
0.119999997317791
 42
0.05
 43
0.5
 44
0.1
 45
0.00000001
 78
     4
 79
     2
140
0.1200000047683716
146
0.7099999453624112
147
0.0599999986588955
176
   256
177
   256
178
     2
284
     4
340
DB
371
    -1
372
    -1
  0
DIMSTYLE
105
E5
330
A
100
AcDbSymbolTableRecord
100
AcDbDimStyleTableRecord
  2
AM_ANSI$0$7
 70
     0
  4
 mm
 40
4.0
 41
0.119999997317791
 42
0.05
 43
0.5
 44
0.1
 45
0.00000001
 78
     4
 79
     2
140
0.1200000047683716
146
0.7099999453624112
147
0.0599999986588955
176
   256
177
   256
178
     2
284
     4
340
DB
371
    -1
372
    -1
  0
DIMSTYLE
105
E6
330
A
100
AcDbSymbolTableRecord
100
AcDbDimStyleTableRecord
  2
AM_ANSI$3
 70
     0
  4
 mm
 40
4.0
 41
0.119999997317791
 42
0.05
 43
0.5
 44
0.1
 45
0.00000001
 78
     4
 79
     2
140
0.1200000047683716
146
0.7099999453624112
147
0.0599999986588955
176
   256
177
   256
178
     2
284
     4
340
DC
371
    -1
372
    -1
  0
DIMSTYLE
105
E7
330
A
100
AcDbSymbolTableRecord
100
AcDbDimStyleTableRecord
  2
AM_ANSI$3$7
 70
     0
  4
 mm
 40
4.0
 41
0.119999997317791
 42
0.05
 43
0.5
 44
0.1
 45
0.00000001
 78
     4
 79
     2
140
0.1200000047683716
146
0.7099999453624112
147
0.0599999986588955
176
   256
177
   256
178
     2
284
     4
340
DC
371
    -1
372
    -1
  0
DIMSTYLE
105
E8
330
A
100
AcDbSymbolTableRecord
100
AcDbDimStyleTableRecord
  2
AM_ANSI$4
 70
     0
  4
 mm
 40
4.0
 41
0.119999997317791
 42
0.05
 43
0.5
 44
0.1
 45
0.00000001
 78
     4
 79
     2
140
0.1200000047683716
146
0.7099999453624112
147
0.0599999986588955
176
   256
177
   256
178
     2
284
     4
340
DD
371
    -1
372
    -1
  0
DIMSTYLE
105
E9
330
A
100
AcDbSymbolTableRecord
100
AcDbDimStyleTableRecord
  2
AM_ANSI$4$7
 70
     0
  4
 mm
 40
4.0
 41
0.119999997317791
 42
0.05
 43
0.5
 44
0.1
 45
0.00000001
 78
     4
 79
     2
140
0.1200000047683716
146
0.7099999453624112
147
0.0599999986588955
176
   256
177
   256
178
     2
284
     4
340
DD
371
    -1
372
    -1
  0
DIMSTYLE
105
EA
330
A
100
AcDbSymbolTableRecord
100
AcDbDimStyleTableRecord
  2
AM_ANSI$SF
 70
     0
  4
 mm
 40
4.0
 41
0.119999997317791
 42
0.05
 43
0.5
 44
0.1
 45
0.00000001
 75
     1
 76
     1
 78
     4
 79
     2
140
0.1200000047683716
146
0.7099999453624112
147
0.0599999986588955
176
   256
177
   256
178
     2
284
     4
340
DF
371
    -1
372
    -1
  0
DIMSTYLE
105
EB
330
A
100
AcDbSymbolTableRecord
100
AcDbDimStyleTableRecord
  2
AM_ANSI$SF$7
 70
     0
  4
 mm
 40
4.0
 41
0.119999997317791
 42
0.05
 43
0.5
 44
0.1
 45
0.00000001
 75
     1
 76
     1
 78
     4
 79
     2
140
0.1200000047683716
146
0.7099999453624112
147
0.0599999986588955
176
   256
177
   256
178
     2
284
     4
340
DF
371
    -1
372
    -1
  0
DIMSTYLE
105
EC
330
A
100
AcDbSymbolTableRecord
100
AcDbDimStyleTableRecord
  2
AM_ANSI$SH
 70
     0
  4
 mm
 40
4.0
 41
0.119999997317791
 42
0.05
 43
0.5
 44
0.1
 45
0.00000001
 75
     1
 76
     1
 78
     4
 79
     2
140
0.1200000047683716
146
0.7099999453624112
147
0.0599999986588955
176
   256
177
   256
178
     2
284
     4
340
E0
371
    -1
372
    -1
  0
DIMSTYLE
105
ED
330
A
100
AcDbSymbolTableRecord
100
AcDbDimStyleTableRecord
  2
AM_ANSI$SH$7
 70
     0
  4
 mm
 40
4.0
 41
0.119999997317791
 42
0.05
 43
0.5
 44
0.1
 45
0.00000001
 75
     1
 76
     1
 78
     4
 79
     2
140
0.1200000047683716
146
0.7099999453624112
147
0.0599999986588955
176
   256
177
   256
178
     2
284
     4
340
E0
371
    -1
372
    -1
  0
DIMSTYLE
105
EE
330
A
100
AcDbSymbolTableRecord
100
AcDbDimStyleTableRecord
  2
Architectural (ANSI)
 70
     0
 40
4.0
 41
0.0984251946210861
 43
0.2362204724409449
 44
0.125
 45
0.00000001
 46
0.3937007874015748
 78
     3
 79
     3
140
0.1200000047683716
147
0.031496062992126
171
     1
176
   256
177
   256
178
   256
272
     2
274
     1
276
     2
277
     4
284
    12
285
     4
286
    12
340
D6
371
    -1
372
    -1
  0
DIMSTYLE
105
EF
330
A
100
AcDbSymbolTableRecord
100
AcDbDimStyleTableRecord
  2
Architectural (ANSI)$7
 70
     0
 40
4.0
 41
0.0984251946210861
 43
0.2362204724409449
 44
0.125
 45
0.00000001
 46
0.3937007874015748
 78
     3
 79
     3
140
0.1200000047683716
147
0.031496062992126
171
     1
176
   256
177
   256
178
   256
272
     2
274
     1
276
     2
277
     4
284
    12
285
     4
286
    12
340
D6
371
    -1
372
    -1
  0
DIMSTYLE
105
F0
330
A
100
AcDbSymbolTableRecord
100
AcDbDimStyleTableRecord
  2
Default - Fraction (ANSI)
 70
     0
 40
4.0
 41
0.0984251946210861
 43
0.2362204724409449
 44
0.125
 45
0.00000001
 46
0.3937007874015748
 79
     3
140
0.1200000047683716
147
0.031496062992126
171
     1
176
   256
177
   256
178
   256
272
     2
274
     1
276
     2
277
     5
284
    12
285
     4
286
    12
340
D6
371
    -1
372
    -1
  0
DIMSTYLE
105
F1
330
A
100
AcDbSymbolTableRecord
100
AcDbDimStyleTableRecord
  2
Default - Fraction (ANSI)$7
 70
     0
 40
4.0
 41
0.0984251946210861
 43
0.2362204724409449
 44
0.125
 45
0.00000001
 46
0.3937007874015748
 79
     3
140
0.1200000047683716
147
0.031496062992126
171
     1
176
   256
177
   256
178
   256
272
     2
274
     1
276
     2
277
     5
284
    12
285
     4
286
    12
340
D6
371
    -1
372
    -1
  0
DIMSTYLE
105
F2
330
A
100
AcDbSymbolTableRecord
100
AcDbDimStyleTableRecord
  2
Default - mm (ANSI)
 70
     0
 40
4.0
 41
0.0984251946210861
 42
0.063
 43
0.2362204724409449
 44
0.125
 45
0.00000001
 46
0.3937007874015748
 73
     0
 78
     4
 79
     1
140
0.1200000047683716
143
1.0
144
25.4
147
0.031496062992126
171
     1
176
   256
177
   256
178
   256
179
     1
271
     2
272
     2
274
     1
284
     4
285
     4
340
D6
371
    -1
372
    -1
  0
DIMSTYLE
105
F3
330
A
100
AcDbSymbolTableRecord
100
AcDbDimStyleTableRecord
  2
Default - mm (ANSI)$7
 70
     0
 40
4.0
 41
0.0984251946210861
 42
0.063
 43
0.2362204724409449
 44
0.125
 45
0.00000001
 46
0.3937007874015748
 73
     0
 78
     4
 79
     1
140
0.1200000047683716
143
1.0
144
25.4
147
0.031496062992126
171
     1
176
   256
177
   256
178
   256
179
     1
271
     2
272
     2
274
     1
284
     4
285
     4
340
D6
371
    -1
372
    -1
  0
DIMSTYLE
105
F4
330
A
100
AcDbSymbolTableRecord
100
AcDbDimStyleTableRecord
  2
Default - mm [in] (ANSI)
 70
     0
  4
 in
 40
4.0
 41
0.0984251946210861
 42
0.063
 43
0.25
 44
0.125
 45
0.00000001
 46
0.3937007874015748
 73
     0
 78
     4
 79
     1
140
0.1200000047683716
143
0.03937
144
25.4
147
0.031496062992126
170
     1
171
     3
176
   256
177
   256
178
   256
179
     1
271
     2
272
     2
274
     3
284
     4
285
     4
286
     4
340
D6
371
    -1
372
    -1
  0
DIMSTYLE
105
F5
330
A
100
AcDbSymbolTableRecord
100
AcDbDimStyleTableRecord
  2
Default - mm [in] (ANSI)$7
 70
     0
  4
 in
 40
4.0
 41
0.0984251946210861
 42
0.063
 43
0.25
 44
0.125
 45
0.00000001
 46
0.3937007874015748
 73
     0
 78
     4
 79
     1
140
0.1200000047683716
143
0.03937
144
25.4
147
0.031496062992126
170
     1
171
     3
176
   256
177
   256
178
   256
179
     1
271
     2
272
     2
274
     3
284
     4
285
     4
286
     4
340
D6
371
    -1
372
    -1
  0
DIMSTYLE
105
F6
102
{ACAD_REACTORS
330
1A8
330
295
330
37F
330
439
330
4F2
330
5F0
330
6DA
330
7D7
330
8C1
330
9C1
330
AAB
330
B95
330
C97
102
}
330
A
100
AcDbSymbolTableRecord
100
AcDbDimStyleTableRecord
  2
Default (ANSI)
 70
     0
 40
4.0
 41
0.0984251946210861
 43
0.2362204724409449
 44
0.125
 45
0.00000001
 46
0.3937007874015748
 79
     1
140
0.1200000047683716
147
0.031496062992126
171
     1
176
   256
177
   256
178
   256
271
     3
272
     2
274
     1
284
     4
285
     4
340
D6
371
    -1
372
    -1
  0
DIMSTYLE
105
F7
330
A
100
AcDbSymbolTableRecord
100
AcDbDimStyleTableRecord
  2
Default (ANSI)$7
 70
     0
 40
4.0
 41
0.0984251946210861
 43
0.2362204724409449
 44
0.125
 45
0.00000001
 46
0.3937007874015748
 79
     1
140
0.1200000047683716
147
0.031496062992126
171
     1
176
   256
177
   256
178
   256
271
     3
272
     2
274
     1
284
     4
285
     4
340
D6
371
    -1
372
    -1
  0
DIMSTYLE
105
F8
330
A
100
AcDbSymbolTableRecord
100
AcDbDimStyleTableRecord
  2
Alternate (ANSI)
 70
     0
 40
4.0
 41
0.0979999974370003
340
55
342
F9
  0
DIMSTYLE
105
10B
330
A
100
AcDbSymbolTableRecord
100
AcDbDimStyleTableRecord
  2
Datum (ANSI)
 70
     0
 40
4.0
 41
0.0979999974370003
340
55
342
F9
  0
DIMSTYLE
105
11A
330
A
100
AcDbSymbolTableRecord
100
AcDbDimStyleTableRecord
  2
Large (ANSI)
 70
     0
 40
4.0
 41
0.1959999948740005
340
55
342
F9
  0
ENDTAB
  0
TABLE
  2
BLOCK_RECORD
  5
1
330
0
100
AcDbSymbolTable
 70
    17
  0
BLOCK_RECORD
  5
6C
330
1
100
AcDbSymbolTableRecord
100
AcDbBlockTableRecord
  2
*Model_Space
340
6F
  0
BLOCK_RECORD
  5
68
330
1
100
AcDbSymbolTableRecord
100
AcDbBlockTableRecord
  2
*Paper_Space
340
6B
  0
BLOCK_RECORD
  5
70
330
1
100
AcDbSymbolTableRecord
100
AcDbBlockTableRecord
  2
*Paper_Space0
340
73
  0
BLOCK_RECORD
  5
F9
330
1
100
AcDbSymbolTableRecord
100
AcDbBlockTableRecord
  2
_Closed
340
0
  0
BLOCK_RECORD
  5
100
330
1
100
AcDbSymbolTableRecord
100
AcDbBlockTableRecord
  2
DatumFilled45
340
0
  0
BLOCK_RECORD
  5
10C
330
1
100
AcDbSymbolTableRecord
100
AcDbBlockTableRecord
  2
Filled-1
340
0
  0
BLOCK_RECORD
  5
1AB
330
1
100
AcDbSymbolTableRecord
100
AcDbBlockTableRecord
  2
*D4
340
0
  0
BLOCK_RECORD
  5
296
330
1
100
AcDbSymbolTableRecord
100
AcDbBlockTableRecord
  2
*D5
340
0
  0
BLOCK_RECORD
  5
380
330
1
100
AcDbSymbolTableRecord
100
AcDbBlockTableRecord
  2
*D6
340
0
  0
BLOCK_RECORD
  5
43A
330
1
100
AcDbSymbolTableRecord
100
AcDbBlockTableRecord
  2
*D7
340
0
  0
BLOCK_RECORD
  5
4F3
330
1
100
AcDbSymbolTableRecord
100
AcDbBlockTableRecord
  2
*D8
340
0
  0
BLOCK_RECORD
  5
5F1
330
1
100
AcDbSymbolTableRecord
100
AcDbBlockTableRecord
  2
*D9
340
0
  0
BLOCK_RECORD
  5
6DB
330
1
100
AcDbSymbolTableRecord
100
AcDbBlockTableRecord
  2
*D10
340
0
  0
BLOCK_RECORD
  5
7D8
330
1
100
AcDbSymbolTableRecord
100
AcDbBlockTableRecord
  2
*D11
340
0
  0
BLOCK_RECORD
  5
8C2
330
1
100
AcDbSymbolTableRecord
100
AcDbBlockTableRecord
  2
*D12
340
0
  0
BLOCK_RECORD
  5
9C2
330
1
100
AcDbSymbolTableRecord
100
AcDbBlockTableRecord
  2
*D13
340
0
  0
BLOCK_RECORD
  5
AAC
330
1
100
AcDbSymbolTableRecord
100
AcDbBlockTableRecord
  2
*D14
340
0
  0
BLOCK_RECORD
  5
B96
330
1
100
AcDbSymbolTableRecord
100
AcDbBlockTableRecord
  2
*D15
340
0
  0
BLOCK_RECORD
  5
C98
330
1
100
AcDbSymbolTableRecord
100
AcDbBlockTableRecord
  2
*D16
340
0
  0
ENDTAB
  0
ENDSEC
  0
SECTION
  2
BLOCKS
  0
BLOCK
  5
6D
330
6C
100
AcDbEntity
  8
0
100
AcDbBlockBegin
  2
*Model_Space
 70
     0
 10
0.0
 20
0.0
 30
0.0
  3
*Model_Space
  1

  0
ENDBLK
  5
6E
330
6C
100
AcDbEntity
  8
0
100
AcDbBlockEnd
  0
BLOCK
  5
69
330
68
100
AcDbEntity
 67
     1
  8
0
100
AcDbBlockBegin
  2
*Paper_Space
 70
     0
 10
0.0
 20
0.0
 30
0.0
  3
*Paper_Space
  1

  0
ENDBLK
  5
6A
330
68
100
AcDbEntity
 67
     1
  8
0
100
AcDbBlockEnd
  0
BLOCK
  5
71
330
70
100
AcDbEntity
 67
     1
  8
0
100
AcDbBlockBegin
  2
*Paper_Space0
 70
     0
 10
0.0
 20
0.0
 30
0.0
  3
*Paper_Space0
  1

  0
ENDBLK
  5
72
330
70
100
AcDbEntity
 67
     1
  8
0
100
AcDbBlockEnd
  0
BLOCK
  5
FE
330
F9
100
AcDbEntity
  8
0
100
AcDbBlockBegin
  2
_Closed
 70
     0
 10
0.0
 20
0.0
 30
0.0
  3
_Closed
  1

  0
LINE
  5
FA
330
F9
100
AcDbEntity
  8
0
  6
ByBlock
 62
     0
370
    -2
100
AcDbLine
 10
-1.0
 20
0.1666666666666666
 30
0.0
 11
0.0
 21
0.0
 31
0.0
  0
LINE
  5
FB
330
F9
100
AcDbEntity
  8
0
  6
ByBlock
 62
     0
370
    -2
100
AcDbLine
 10
0.0
 20
0.0
 30
0.0
 11
-1.0
 21
-0.1666666666666666
 31
0.0
  0
LINE
  5
FC
330
F9
100
AcDbEntity
  8
0
  6
ByBlock
 62
     0
370
    -2
100
AcDbLine
 10
-1.0
 20
0.1666666666666666
 30
0.0
 11
-1.0
 21
-0.1666666666666666
 31
0.0
  0
LINE
  5
FD
330
F9
100
AcDbEntity
  8
0
  6
ByBlock
 62
     0
370
    -2
100
AcDbLine
 10
0.0
 20
0.0
 30
0.0
 11
-1.0
 21
0.0
 31
0.0
  0
ENDBLK
  5
FF
330
F9
100
AcDbEntity
  8
0
100
AcDbBlockEnd
  0
BLOCK
  5
101
330
100
100
AcDbEntity
  8
0
100
AcDbBlockBegin
  2
DatumFilled45
 70
     0
 10
0.0
 20
0.0
 30
0.0
  3
DatumFilled45
  1

  0
POLYLINE
  5
103
330
100
100
AcDbEntity
  8
0
 62
     0
100
AcDb2dPolyline
 66
     1
 10
0.0
 20
0.0
 30
0.0
 70
   128
  0
VERTEX
  5
104
330
103
100
AcDbEntity
  8
0
 62
     0
100
AcDbVertex
100
AcDb2dVertex
 10
0.0
 20
0.9999999999999998
 30
0.0
  0
VERTEX
  5
105
330
103
100
AcDbEntity
  8
0
 62
     0
100
AcDbVertex
100
AcDb2dVertex
 10
0.0
 20
-0.9999999999999998
 30
0.0
  0
VERTEX
  5
107
330
103
100
AcDbEntity
  8
0
 62
     0
100
AcDbVertex
100
AcDb2dVertex
 10
-0.9999999999999998
 20
0.0
 30
0.0
  0
VERTEX
  5
108
330
103
100
AcDbEntity
  8
0
 62
     0
100
AcDbVertex
100
AcDb2dVertex
 10
0.0
 20
0.9999999999999998
 30
0.0
  0
SEQEND
  5
106
330
103
100
AcDbEntity
  8
0
 62
     0
  0
SOLID
  5
10A
330
100
100
AcDbEntity
  8
0
 62
     0
100
AcDbTrace
 10
0.0
 20
0.9999999999999998
 30
0.0
 11
0.0
 21
-0.9999999999999998
 31
0.0
 12
-0.9999999999999998
 22
0.0
 32
0.0
 13
0.0
 23
0.9999999999999998
 33
0.0
  0
ENDBLK
  5
102
330
100
100
AcDbEntity
  8
0
100
AcDbBlockEnd
  0
BLOCK
  5
10D
330
10C
100
AcDbEntity
  8
0
100
AcDbBlockBegin
  2
Filled-1
 70
     0
 10
0.0
 20
0.0
 30
0.0
  3
Filled-1
  1

  0
LINE
  5
10F
330
10C
100
AcDbEntity
  8
0
 62
     0
100
AcDbLine
 10
-0.9999999999999998
 20
0.0
 30
0.0
 11
0.0
 21
0.0
 31
0.0
  0
POLYLINE
  5
110
330
10C
100
AcDbEntity
  8
0
 62
     0
100
AcDb2dPolyline
 66
     1
 10
0.0
 20
0.0
 30
0.0
 70
   128
  0
VERTEX
  5
111
330
110
100
AcDbEntity
  8
0
 62
     0
100
AcDbVertex
100
AcDb2dVertex
 10
-0.9999999999999998
 20
-0.0994897959183674
 30
0.0
  0
VERTEX
  5
112
330
110
100
AcDbEntity
  8
0
 62
     0
100
AcDbVertex
100
AcDb2dVertex
 10
0.0
 20
0.0
 30
0.0
  0
VERTEX
  5
114
330
110
100
AcDbEntity
  8
0
 62
     0
100
AcDbVertex
100
AcDb2dVertex
 10
-0.9999999999999998
 20
0.0994897959183674
 30
0.0
  0
VERTEX
  5
115
330
110
100
AcDbEntity
  8
0
 62
     0
100
AcDbVertex
100
AcDb2dVertex
 10
-0.9999999999999998
 20
-0.0994897959183674
 30
0.0
  0
SEQEND
  5
113
330
110
100
AcDbEntity
  8
0
 62
     0
  0
SOLID
  5
116
330
10C
100
AcDbEntity
  8
0
 62
     0
100
AcDbTrace
 10
-0.9999999999999998
 20
-0.0994897959183674
 30
0.0
 11
0.0
 21
0.0
 31
0.0
 12
-0.9999999999999998
 22
0.0994897959183674
 32
0.0
 13
-0.9999999999999998
 23
-0.0994897959183674
 33
0.0
  0
LINE
  5
117
330
10C
100
AcDbEntity
  8
0
 62
     0
100
AcDbLine
 10
-0.9999999999999998
 20
-0.0994897959183674
 30
0.0
 11
0.0
 21
0.0
 31
0.0
  0
LINE
  5
118
330
10C
100
AcDbEntity
  8
0
 62
     0
100
AcDbLine
 10
0.0
 20
0.0
 30
0.0
 11
-0.9999999999999998
 21
0.0994897959183674
 31
0.0
  0
LINE
  5
119
330
10C
100
AcDbEntity
  8
0
 62
     0
100
AcDbLine
 10
-0.9999999999999998
 20
0.0994897959183674
 30
0.0
 11
-0.9999999999999998
 21
-0.0994897959183674
 31
0.0
  0
ENDBLK
  5
10E
330
10C
100
AcDbEntity
  8
0
100
AcDbBlockEnd
  0
BLOCK
  5
1AC
330
1AB
100
AcDbEntity
  8
0
100
AcDbBlockBegin
  2
*D4
 70
     1
 10
0.0
 20
0.0
 30
0.0
  3
*D4
  1

  0
LINE
  5
28B
330
1AB
100
AcDbEntity
  8
Dimension (ANSI)
100
AcDbLine
 10
29.77533083250963
 20
35.31225862267275
 30
0.0
 11
29.77533083250963
 21
39.97170744157039
 31
0.0
  0
LINE
  5
28C
330
1AB
100
AcDbEntity
  8
Dimension (ANSI)
100
AcDbLine
 10
11.57533083250962
 20
35.31225862267275
 30
0.0
 11
11.57533083250962
 21
39.97170744157039
 31
0.0
  0
LINE
  5
28D
330
1AB
100
AcDbEntity
  8
Dimension (ANSI)
100
AcDbLine
 10
29.38163005402528
 20
39.47170744157039
 30
0.0
 11
21.95560084463104
 21
39.47170744157039
 31
0.0
  0
LINE
  5
28E
330
1AB
100
AcDbEntity
  8
Dimension (ANSI)
100
AcDbLine
 10
11.96903161099397
 20
39.47170744157039
 30
0.0
 11
19.39506082038821
 21
39.47170744157039
 31
0.0
  0
SOLID
  5
28F
330
1AB
100
AcDbEntity
  8
Dimension (ANSI)
100
AcDbTrace
 10
29.38163005402528
 20
39.53732423798444
 30
0.0
 11
29.38163005402528
 21
39.40609064515633
 31
0.0
 12
29.77533083250963
 22
39.47170744157039
 32
0.0
 13
29.77533083250963
 23
39.47170744157039
 33
0.0
  0
SOLID
  5
290
330
1AB
100
AcDbEntity
  8
Dimension (ANSI)
100
AcDbTrace
 10
11.96903161099397
 20
39.53732423798444
 30
0.0
 11
11.96903161099397
 21
39.40609064515633
 31
0.0
 12
11.57533083250962
 22
39.47170744157039
 32
0.0
 13
11.57533083250962
 23
39.47170744157039
 33
0.0
  0
MTEXT
  5
291
330
1AB
100
AcDbEntity
  8
Dimension (ANSI)
100
AcDbMText
 10
19.52104507235672
 20
39.71170745110713
 30
0.0
 40
0.4800000190734864
 41
0.0
 71
     1
 72
     1
  1
\A1;18.200
  7
Note Text (ANSI)
 73
     1
 44
1.0
1001
ACAD
1000
MTEXTBEGIN
1070
    73
1070
     1
1070
    44
1040
1.0
1070
    74
1070
     0
1000
MTEXTEND
  0
POINT
  5
292
330
1AB
100
AcDbEntity
  8
Defpoints
 62
     0
100
AcDbPoint
 10
29.77533083250963
 20
35.06225862267275
 30
0.0
  0
POINT
  5
293
330
1AB
100
AcDbEntity
  8
Defpoints
 62
     0
100
AcDbPoint
 10
11.57533083250962
 20
35.06225862267275
 30
0.0
  0
POINT
  5
294
330
1AB
100
AcDbEntity
  8
Defpoints
 62
     0
100
AcDbPoint
 10
11.57533083250962
 20
39.47170744157039
 30
0.0
  0
ENDBLK
  5
1AD
330
1AB
100
AcDbEntity
  8
0
100
AcDbBlockEnd
  0
BLOCK
  5
297
330
296
100
AcDbEntity
  8
0
100
AcDbBlockBegin
  2
*D5
 70
     1
 10
0.0
 20
0.0
 30
0.0
  3
*D5
  1

  0
LINE
  5
375
330
296
100
AcDbEntity
  8
Dimension (ANSI)
100
AcDbLine
 10
11.82533083250962
 20
35.56225862267275
 30
0.0
 11
5.276118234084434
 21
35.56225862267275
 31
0.0
  0
LINE
  5
376
330
296
100
AcDbEntity
  8
Dimension (ANSI)
100
AcDbLine
 10
11.82533083250963
 20
13.36225862267276
 30
0.0
 11
5.276118234084429
 21
13.36225862267276
 31
0.0
  0
LINE
  5
377
330
296
100
AcDbEntity
  8
Dimension (ANSI)
100
AcDbLine
 10
5.776118234084434
 20
35.16855784418841
 30
0.0
 11
5.776118234084432
 21
25.75194446423919
 31
0.0
  0
LINE
  5
378
330
296
100
AcDbEntity
  8
Dimension (ANSI)
100
AcDbLine
 10
5.776118234084429
 20
13.7559594011571
 30
0.0
 11
5.776118234084432
 21
25.01997594122869
 31
0.0
  0
SOLID
  5
379
330
296
100
AcDbEntity
  8
Dimension (ANSI)
100
AcDbTrace
 10
5.710501437670377
 20
35.16855784418841
 30
0.0
 11
5.841735030498492
 21
35.16855784418841
 31
0.0
 12
5.776118234084434
 22
35.56225862267275
 32
0.0
 13
5.776118234084434
 23
35.56225862267275
 33
0.0
  0
SOLID
  5
37A
330
296
100
AcDbEntity
  8
Dimension (ANSI)
100
AcDbTrace
 10
5.710501437670371
 20
13.7559594011571
 30
0.0
 11
5.841735030498487
 21
13.7559594011571
 31
0.0
 12
5.776118234084429
 22
13.36225862267276
 32
0.0
 13
5.776118234084429
 23
13.36225862267276
 33
0.0
  0
MTEXT
  5
37B
330
296
100
AcDbEntity
  8
Dimension (ANSI)
100
AcDbMText
 10
4.587546758283415
 20
25.62596021227069
 30
0.0
 40
0.4800000190734864
 41
0.0
 71
     1
 72
     1
  1
\A1;22.200
  7
Note Text (ANSI)
 73
     1
 44
1.0
1001
ACAD
1000
MTEXTBEGIN
1070
    73
1070
     1
1070
    44
1040
1.0
1070
    74
1070
     0
1000
MTEXTEND
  0
POINT
  5
37C
330
296
100
AcDbEntity
  8
Defpoints
 62
     0
100
AcDbPoint
 10
12.07533083250962
 20
35.56225862267275
 30
0.0
  0
POINT
  5
37D
330
296
100
AcDbEntity
  8
Defpoints
 62
     0
100
AcDbPoint
 10
12.07533083250963
 20
13.36225862267275
 30
0.0
  0
POINT
  5
37E
330
296
100
AcDbEntity
  8
Defpoints
 62
     0
100
AcDbPoint
 10
5.776118234084429
 20
13.36225862267276
 30
0.0
  0
ENDBLK
  5
298
330
296
100
AcDbEntity
  8
0
100
AcDbBlockEnd
  0
BLOCK
  5
381
330
380
100
AcDbEntity
  8
0
100
AcDbBlockBegin
  2
*D6
 70
     1
 10
0.0
 20
0.0
 30
0.0
  3
*D6
  1

  0
LINE
  5
431
330
380
100
AcDbEntity
  8
Dimension (ANSI)
100
AcDbLine
 10
14.98919828072573
 20
9.855042551181398
 30
0.0
 11
14.42044511547105
 21
9.855042551181398
 31
0.0
  0
LINE
  5
432
330
380
100
AcDbEntity
  8
Dimension (ANSI)
100
AcDbLine
 10
14.42044511547105
 20
9.855042551181398
 30
0.0
 11
12.41718122175191
 21
13.32479739606955
 31
0.0
  0
MTEXT
  5
433
102
{ACAD_XDICTIONARY
360
DCE
102
}
330
380
100
AcDbEntity
  8
Dimension (ANSI)
100
AcDbMText
 10
15.11518253269423
 20
10.23789970925192
 30
0.0
 40
0.4800000190734864
 41
0.0
 71
     1
 72
     1
  1
\A1;\U+22050.500{\PTYP.(4PL.)}
  7
Note Text (ANSI)
 73
     1
 44
1.0
1001
ACAD
1000
MTEXTBEGIN
1070
    73
1070
     1
1070
    44
1040
1.0
1070
    74
1070
     0
1000
MTEXTEND
  0
SOLID
  5
434
330
380
100
AcDbEntity
  8
Dimension (ANSI)
100
AcDbTrace
 10
12.47400703436143
 20
13.35760579427659
 30
0.0
 11
12.36035540914239
 21
13.29198899786251
 31
0.0
 12
12.22033083250967
 22
13.66575227172666
 32
0.0
 13
12.22033083250967
 23
13.66575227172666
 33
0.0
  0
LINE
  5
435
330
380
100
AcDbEntity
  8
Dimension (ANSI)
100
AcDbLine
 10
11.73533083250962
 20
13.88225862267275
 30
0.0
 11
12.45533083250963
 21
13.88225862267275
 31
0.0
  0
LINE
  5
436
330
380
100
AcDbEntity
  8
Dimension (ANSI)
100
AcDbLine
 10
12.09533083250962
 20
13.52225862267275
 30
0.0
 11
12.09533083250963
 21
14.24225862267275
 31
0.0
  0
POINT
  5
437
330
380
100
AcDbEntity
  8
Defpoints
 62
     0
100
AcDbPoint
 10
12.22033083250967
 20
13.66575227172666
 30
0.0
  0
POINT
  5
438
330
380
100
AcDbEntity
  8
Defpoints
 62
     0
100
AcDbPoint
 10
11.97033083250958
 20
14.09876497361883
 30
0.0
  0
ENDBLK
  5
382
330
380
100
AcDbEntity
  8
0
100
AcDbBlockEnd
  0
BLOCK
  5
43B
330
43A
100
AcDbEntity
  8
0
100
AcDbBlockBegin
  2
*D7
 70
     1
 10
0.0
 20
0.0
 30
0.0
  3
*D7
  1

  0
LINE
  5
4EA
330
43A
100
AcDbEntity
  8
Dimension (ANSI)
100
AcDbLine
 10
14.99145622066065
 20
12.30488639977708
 30
0.0
 11
14.42270305540596
 21
12.30488639977708
 31
0.0
  0
LINE
  5
4EB
330
43A
100
AcDbEntity
  8
Dimension (ANSI)
100
AcDbLine
 10
14.42270305540596
 20
12.30488639977708
 30
0.0
 11
12.48420475729479
 21
14.24338469788771
 31
0.0
  0
MTEXT
  5
4EC
102
{ACAD_XDICTIONARY
360
DD0
102
}
330
43A
100
AcDbEntity
  8
Dimension (ANSI)
100
AcDbMText
 10
15.11744047262916
 20
12.6877435578476
 30
0.0
 40
0.4800000190734864
 41
0.0
 71
     1
 72
     1
  1
\A1;\U+22050.313{\PTYP.(4PL.)}
  7
Note Text (ANSI)
 73
     1
 44
1.0
1001
ACAD
1000
MTEXTBEGIN
1070
    73
1070
     1
1070
    44
1040
1.0
1070
    74
1070
     0
1000
MTEXTEND
  0
SOLID
  5
4ED
330
43A
100
AcDbEntity
  8
Dimension (ANSI)
100
AcDbTrace
 10
12.5306028389989
 20
14.28978277959183
 30
0.0
 11
12.43780667559067
 21
14.19698661618358
 31
0.0
 12
12.20581626707004
 22
14.52177318811237
 32
0.0
 13
12.20581626707004
 23
14.52177318811237
 33
0.0
  0
LINE
  5
4EE
330
43A
100
AcDbEntity
  8
Dimension (ANSI)
100
AcDbLine
 10
11.73533083250963
 20
14.63225862267275
 30
0.0
 11
12.45533083250963
 21
14.63225862267275
 31
0.0
  0
LINE
  5
4EF
330
43A
100
AcDbEntity
  8
Dimension (ANSI)
100
AcDbLine
 10
12.09533083250963
 20
14.27225862267275
 30
0.0
 11
12.09533083250963
 21
14.99225862267275
 31
0.0
  0
POINT
  5
4F0
330
43A
100
AcDbEntity
  8
Defpoints
 62
     0
100
AcDbPoint
 10
12.20581626707004
 20
14.52177318811237
 30
0.0
  0
POINT
  5
4F1
330
43A
100
AcDbEntity
  8
Defpoints
 62
     0
100
AcDbPoint
 10
11.98484539794922
 20
14.74274405723313
 30
0.0
  0
ENDBLK
  5
43C
330
43A
100
AcDbEntity
  8
0
100
AcDbBlockEnd
  0
BLOCK
  5
4F4
330
4F3
100
AcDbEntity
  8
0
100
AcDbBlockBegin
  2
*D8
 70
     1
 10
0.0
 20
0.0
 30
0.0
  3
*D8
  1

  0
LINE
  5
5E6
330
4F3
100
AcDbEntity
  8
Dimension (ANSI)
100
AcDbLine
 10
42.78193291565905
 20
27.13809222226408
 30
0.0
 11
42.78193291565905
 21
13.74757462949248
 31
0.0
  0
LINE
  5
5E7
330
4F3
100
AcDbEntity
  8
Dimension (ANSI)
100
AcDbLine
 10
42.87568291565905
 20
27.13809222226408
 30
0.0
 11
42.87568291565905
 21
13.74757462949248
 31
0.0
  0
LINE
  5
5E8
330
4F3
100
AcDbEntity
  8
Dimension (ANSI)
100
AcDbLine
 10
42.38823213717471
 20
14.24757462949248
 30
0.0
 11
41.99453135869037
 21
14.24757462949248
 31
0.0
  0
LINE
  5
5E9
330
4F3
100
AcDbEntity
  8
Dimension (ANSI)
100
AcDbLine
 10
43.2693836941434
 20
14.24757462949248
 30
0.0
 11
43.66308447262774
 21
14.24757462949248
 31
0.0
  0
SOLID
  5
5EA
330
4F3
100
AcDbEntity
  8
Dimension (ANSI)
100
AcDbTrace
 10
42.38823213717471
 20
14.31319142590654
 30
0.0
 11
42.38823213717471
 21
14.18195783307842
 31
0.0
 12
42.78193291565905
 22
14.24757462949248
 32
0.0
 13
42.78193291565905
 23
14.24757462949248
 33
0.0
  0
SOLID
  5
5EB
330
4F3
100
AcDbEntity
  8
Dimension (ANSI)
100
AcDbTrace
 10
43.2693836941434
 20
14.31319142590654
 30
0.0
 11
43.2693836941434
 21
14.18195783307842
 31
0.0
 12
42.87568291565905
 22
14.24757462949248
 32
0.0
 13
42.87568291565905
 23
14.24757462949248
 33
0.0
  0
MTEXT
  5
5EC
330
4F3
100
AcDbEntity
  8
Dimension (ANSI)
100
AcDbMText
 10
43.78906872459625
 20
14.56757464220813
 30
0.0
 40
0.4800000190734864
 41
0.0
 71
     1
 72
     1
  1
\A1; 12 GA.\P304 SS
  7
Note Text (ANSI)
 73
     1
 44
1.0
1001
ACAD
1000
MTEXTBEGIN
1070
    73
1070
     1
1070
    44
1040
1.0
1070
    74
1070
     0
1000
MTEXTEND
  0
POINT
  5
5ED
330
4F3
100
AcDbEntity
  8
Defpoints
 62
     0
100
AcDbPoint
 10
42.78193291565905
 20
27.38809222226408
 30
0.0
  0
POINT
  5
5EE
330
4F3
100
AcDbEntity
  8
Defpoints
 62
     0
100
AcDbPoint
 10
42.87568291565905
 20
27.38809222226408
 30
0.0
  0
POINT
  5
5EF
330
4F3
100
AcDbEntity
  8
Defpoints
 62
     0
100
AcDbPoint
 10
42.87568291565905
 20
14.24757462949248
 30
0.0
  0
ENDBLK
  5
4F5
330
4F3
100
AcDbEntity
  8
0
100
AcDbBlockEnd
  0
BLOCK
  5
5F2
330
5F1
100
AcDbEntity
  8
0
100
AcDbBlockBegin
  2
*D9
 70
     1
 10
0.0
 20
0.0
 30
0.0
  3
*D9
  1

  0
LINE
  5
6D0
330
5F1
100
AcDbEntity
  8
Dimension (ANSI)
100
AcDbLine
 10
11.84533083250963
 20
35.04225862267276
 30
0.0
 11
8.130763903375777
 21
35.04225862267276
 31
0.0
  0
LINE
  5
6D1
330
5F1
100
AcDbEntity
  8
Dimension (ANSI)
100
AcDbLine
 10
11.84533083250963
 20
13.88225862267275
 30
0.0
 11
8.130763903375774
 21
13.88225862267275
 31
0.0
  0
LINE
  5
6D2
330
5F1
100
AcDbEntity
  8
Dimension (ANSI)
100
AcDbLine
 10
8.630763903375777
 20
34.64855784418841
 30
0.0
 11
8.630763903375775
 21
23.65000875634722
 31
0.0
  0
LINE
  5
6D3
330
5F1
100
AcDbEntity
  8
Dimension (ANSI)
100
AcDbLine
 10
8.630763903375774
 20
14.2759594011571
 30
0.0
 11
8.630763903375775
 21
22.91804023333673
 31
0.0
  0
SOLID
  5
6D4
330
5F1
100
AcDbEntity
  8
Dimension (ANSI)
100
AcDbTrace
 10
8.56514710696172
 20
34.64855784418841
 30
0.0
 11
8.696380699789834
 21
34.64855784418841
 31
0.0
 12
8.630763903375777
 22
35.04225862267276
 32
0.0
 13
8.630763903375777
 23
35.04225862267276
 33
0.0
  0
SOLID
  5
6D5
330
5F1
100
AcDbEntity
  8
Dimension (ANSI)
100
AcDbTrace
 10
8.565147106961717
 20
14.2759594011571
 30
0.0
 11
8.69638069978983
 21
14.2759594011571
 31
0.0
 12
8.630763903375774
 22
13.88225862267275
 32
0.0
 13
8.630763903375774
 23
13.88225862267275
 33
0.0
  0
MTEXT
  5
6D6
330
5F1
100
AcDbEntity
  8
Dimension (ANSI)
100
AcDbMText
 10
7.442192427574759
 20
23.52402450437872
 30
0.0
 40
0.4800000190734864
 41
0.0
 71
     1
 72
     1
  1
\A1;21.160
  7
Note Text (ANSI)
 73
     1
 44
1.0
1001
ACAD
1000
MTEXTBEGIN
1070
    73
1070
     1
1070
    44
1040
1.0
1070
    74
1070
     0
1000
MTEXTEND
  0
POINT
  5
6D7
330
5F1
100
AcDbEntity
  8
Defpoints
 62
     0
100
AcDbPoint
 10
12.09533083250963
 20
35.04225862267276
 30
0.0
  0
POINT
  5
6D8
330
5F1
100
AcDbEntity
  8
Defpoints
 62
     0
100
AcDbPoint
 10
12.09533083250963
 20
13.88225862267275
 30
0.0
  0
POINT
  5
6D9
330
5F1
100
AcDbEntity
  8
Defpoints
 62
     0
100
AcDbPoint
 10
8.630763903375774
 20
13.88225862267275
 30
0.0
  0
ENDBLK
  5
5F3
330
5F1
100
AcDbEntity
  8
0
100
AcDbBlockEnd
  0
BLOCK
  5
6DC
330
6DB
100
AcDbEntity
  8
0
100
AcDbBlockBegin
  2
*D10
 70
     1
 10
0.0
 20
0.0
 30
0.0
  3
*D10
  1

  0
LINE
  5
7CC
330
6DB
100
AcDbEntity
  8
Dimension (ANSI)
100
AcDbLine
 10
11.84533083250963
 20
14.63225862267275
 30
0.0
 11
7.984735648209447
 21
14.63225862267275
 31
0.0
  0
LINE
  5
7CD
330
6DB
100
AcDbEntity
  8
Dimension (ANSI)
100
AcDbLine
 10
11.84533083250963
 20
13.88225862267275
 30
0.0
 11
7.984735648209446
 21
13.88225862267275
 31
0.0
  0
LINE
  5
7CE
330
6DB
100
AcDbEntity
  8
Dimension (ANSI)
100
AcDbLine
 10
8.484735648209447
 20
13.48855784418841
 30
0.0
 11
8.484735648209447
 21
13.09485706570406
 31
0.0
  0
LINE
  5
7CF
330
6DB
100
AcDbEntity
  8
Dimension (ANSI)
100
AcDbLine
 10
8.484735648209447
 20
15.0259594011571
 30
0.0
 11
8.484735648209447
 21
15.77253837032847
 31
0.0
  0
LINE
  5
7D0
330
6DB
100
AcDbEntity
  8
Dimension (ANSI)
100
AcDbLine
 10
8.484735648209447
 20
15.77253837032847
 30
0.0
 11
8.878436426693792
 21
15.77253837032847
 31
0.0
  0
SOLID
  5
7D1
330
6DB
100
AcDbEntity
  8
Dimension (ANSI)
100
AcDbTrace
 10
8.41911885179539
 20
13.48855784418841
 30
0.0
 11
8.550352444623504
 21
13.48855784418841
 31
0.0
 12
8.484735648209447
 22
13.88225862267275
 32
0.0
 13
8.484735648209447
 23
13.88225862267275
 33
0.0
  0
SOLID
  5
7D2
330
6DB
100
AcDbEntity
  8
Dimension (ANSI)
100
AcDbTrace
 10
8.41911885179539
 20
15.0259594011571
 30
0.0
 11
8.550352444623504
 21
15.0259594011571
 31
0.0
 12
8.484735648209447
 22
14.63225862267275
 32
0.0
 13
8.484735648209447
 23
14.63225862267275
 33
0.0
  0
MTEXT
  5
7D3
330
6DB
100
AcDbEntity
  8
Dimension (ANSI)
100
AcDbMText
 10
9.004420678662294
 20
16.01253837986521
 30
0.0
 40
0.4800000190734864
 41
0.0
 71
     1
 72
     1
  1
\A1;0.750
  7
Note Text (ANSI)
 73
     1
 44
1.0
1001
ACAD
1000
MTEXTBEGIN
1070
    73
1070
     1
1070
    44
1040
1.0
1070
    74
1070
     0
1000
MTEXTEND
  0
POINT
  5
7D4
330
6DB
100
AcDbEntity
  8
Defpoints
 62
     0
100
AcDbPoint
 10
12.09533083250963
 20
14.63225862267275
 30
0.0
  0
POINT
  5
7D5
330
6DB
100
AcDbEntity
  8
Defpoints
 62
     0
100
AcDbPoint
 10
12.09533083250963
 20
13.88225862267275
 30
0.0
  0
POINT
  5
7D6
330
6DB
100
AcDbEntity
  8
Defpoints
 62
     0
100
AcDbPoint
 10
8.484735648209447
 20
13.88225862267275
 30
0.0
  0
ENDBLK
  5
6DD
330
6DB
100
AcDbEntity
  8
0
100
AcDbBlockEnd
  0
BLOCK
  5
7D9
330
7D8
100
AcDbEntity
  8
0
100
AcDbBlockBegin
  2
*D11
 70
     1
 10
0.0
 20
0.0
 30
0.0
  3
*D11
  1

  0
LINE
  5
8B7
330
7D8
100
AcDbEntity
  8
Dimension (ANSI)
100
AcDbLine
 10
29.25533083250963
 20
35.29225862267276
 30
0.0
 11
29.25533083250963
 21
38.40961596704646
 31
0.0
  0
LINE
  5
8B8
330
7D8
100
AcDbEntity
  8
Dimension (ANSI)
100
AcDbLine
 10
12.09533083250963
 20
35.29225862267276
 30
0.0
 11
12.09533083250963
 21
38.40961596704646
 31
0.0
  0
LINE
  5
8B9
330
7D8
100
AcDbEntity
  8
Dimension (ANSI)
100
AcDbLine
 10
28.86163005402529
 20
37.90961596704646
 30
0.0
 11
21.95560084463105
 21
37.90961596704646
 31
0.0
  0
LINE
  5
8BA
330
7D8
100
AcDbEntity
  8
Dimension (ANSI)
100
AcDbLine
 10
12.48903161099397
 20
37.90961596704646
 30
0.0
 11
19.39506082038822
 21
37.90961596704646
 31
0.0
  0
SOLID
  5
8BB
330
7D8
100
AcDbEntity
  8
Dimension (ANSI)
100
AcDbTrace
 10
28.86163005402529
 20
37.97523276346051
 30
0.0
 11
28.86163005402529
 21
37.8439991706324
 31
0.0
 12
29.25533083250963
 22
37.90961596704646
 32
0.0
 13
29.25533083250963
 23
37.90961596704646
 33
0.0
  0
SOLID
  5
8BC
330
7D8
100
AcDbEntity
  8
Dimension (ANSI)
100
AcDbTrace
 10
12.48903161099397
 20
37.97523276346051
 30
0.0
 11
12.48903161099397
 21
37.8439991706324
 31
0.0
 12
12.09533083250963
 22
37.90961596704646
 32
0.0
 13
12.09533083250963
 23
37.90961596704646
 33
0.0
  0
MTEXT
  5
8BD
330
7D8
100
AcDbEntity
  8
Dimension (ANSI)
100
AcDbMText
 10
19.52104507235673
 20
38.1496159765832
 30
0.0
 40
0.4800000190734864
 41
0.0
 71
     1
 72
     1
  1
\A1;17.160
  7
Note Text (ANSI)
 73
     1
 44
1.0
1001
ACAD
1000
MTEXTBEGIN
1070
    73
1070
     1
1070
    44
1040
1.0
1070
    74
1070
     0
1000
MTEXTEND
  0
POINT
  5
8BE
330
7D8
100
AcDbEntity
  8
Defpoints
 62
     0
100
AcDbPoint
 10
29.25533083250963
 20
35.04225862267276
 30
0.0
  0
POINT
  5
8BF
330
7D8
100
AcDbEntity
  8
Defpoints
 62
     0
100
AcDbPoint
 10
12.09533083250963
 20
35.04225862267276
 30
0.0
  0
POINT
  5
8C0
330
7D8
100
AcDbEntity
  8
Defpoints
 62
     0
100
AcDbPoint
 10
12.09533083250963
 20
37.90961596704646
 30
0.0
  0
ENDBLK
  5
7DA
330
7D8
100
AcDbEntity
  8
0
100
AcDbBlockEnd
  0
BLOCK
  5
8C3
330
8C2
100
AcDbEntity
  8
0
100
AcDbBlockBegin
  2
*D12
 70
     1
 10
0.0
 20
0.0
 30
0.0
  3
*D12
  1

  0
LINE
  5
9B6
330
8C2
100
AcDbEntity
  8
Dimension (ANSI)
100
AcDbLine
 10
30.02533083250963
 20
13.86225862267275
 30
0.0
 11
30.88442017987656
 21
13.86225862267275
 31
0.0
  0
LINE
  5
9B7
330
8C2
100
AcDbEntity
  8
Dimension (ANSI)
100
AcDbLine
 10
29.52533083250963
 20
13.36225862267275
 30
0.0
 11
30.88442017987656
 21
13.36225862267275
 31
0.0
  0
LINE
  5
9B8
330
8C2
100
AcDbEntity
  8
Dimension (ANSI)
100
AcDbLine
 10
30.38442017987656
 20
12.96855784418841
 30
0.0
 11
30.38442017987656
 21
12.57485706570406
 31
0.0
  0
LINE
  5
9B9
330
8C2
100
AcDbEntity
  8
Dimension (ANSI)
100
AcDbLine
 10
30.38442017987656
 20
14.2559594011571
 30
0.0
 11
30.38442017987656
 21
15.00253837032846
 31
0.0
  0
LINE
  5
9BA
330
8C2
100
AcDbEntity
  8
Dimension (ANSI)
100
AcDbLine
 10
30.38442017987656
 20
15.00253837032846
 30
0.0
 11
30.77812095836091
 21
15.00253837032846
 31
0.0
  0
SOLID
  5
9BB
330
8C2
100
AcDbEntity
  8
Dimension (ANSI)
100
AcDbTrace
 10
30.3188033834625
 20
12.96855784418841
 30
0.0
 11
30.45003697629062
 21
12.96855784418841
 31
0.0
 12
30.38442017987656
 22
13.36225862267275
 32
0.0
 13
30.38442017987656
 23
13.36225862267275
 33
0.0
  0
SOLID
  5
9BC
330
8C2
100
AcDbEntity
  8
Dimension (ANSI)
100
AcDbTrace
 10
30.3188033834625
 20
14.2559594011571
 30
0.0
 11
30.45003697629062
 21
14.2559594011571
 31
0.0
 12
30.38442017987656
 22
13.86225862267275
 32
0.0
 13
30.38442017987656
 23
13.86225862267275
 33
0.0
  0
MTEXT
  5
9BD
330
8C2
100
AcDbEntity
  8
Dimension (ANSI)
100
AcDbMText
 10
30.90410521032941
 20
15.24253837986521
 30
0.0
 40
0.4800000190734864
 41
0.0
 71
     1
 72
     1
  1
\A1;0.500
  7
Note Text (ANSI)
 73
     1
 44
1.0
1001
ACAD
1000
MTEXTBEGIN
1070
    73
1070
     1
1070
    44
1040
1.0
1070
    74
1070
     0
1000
MTEXTEND
  0
POINT
  5
9BE
330
8C2
100
AcDbEntity
  8
Defpoints
 62
     0
100
AcDbPoint
 10
29.77533083250963
 20
13.86225862267275
 30
0.0
  0
POINT
  5
9BF
330
8C2
100
AcDbEntity
  8
Defpoints
 62
     0
100
AcDbPoint
 10
29.27533083250963
 20
13.36225862267275
 30
0.0
  0
POINT
  5
9C0
330
8C2
100
AcDbEntity
  8
Defpoints
 62
     0
100
AcDbPoint
 10
30.38442017987656
 20
13.36225862267275
 30
0.0
  0
ENDBLK
  5
8C4
330
8C2
100
AcDbEntity
  8
0
100
AcDbBlockEnd
  0
BLOCK
  5
9C3
330
9C2
100
AcDbEntity
  8
0
100
AcDbBlockBegin
  2
*D13
 70
     1
 10
0.0
 20
0.0
 30
0.0
  3
*D13
  1

  0
LINE
  5
AA1
330
9C2
100
AcDbEntity
  8
Dimension (ANSI)
100
AcDbLine
 10
29.77533083250963
 20
13.61225862267275
 30
0.0
 11
29.77533083250963
 21
11.00841837087561
 31
0.0
  0
LINE
  5
AA2
330
9C2
100
AcDbEntity
  8
Dimension (ANSI)
100
AcDbLine
 10
29.27533083250963
 20
13.11225862267275
 30
0.0
 11
29.27533083250963
 21
11.00841837087561
 31
0.0
  0
LINE
  5
AA3
330
9C2
100
AcDbEntity
  8
Dimension (ANSI)
100
AcDbLine
 10
30.16903161099397
 20
11.50841837087561
 30
0.0
 11
30.56273238947832
 21
11.50841837087561
 31
0.0
  0
LINE
  5
AA4
330
9C2
100
AcDbEntity
  8
Dimension (ANSI)
100
AcDbLine
 10
28.88163005402529
 20
11.50841837087561
 30
0.0
 11
28.00962955358281
 21
11.50841837087561
 31
0.0
  0
SOLID
  5
AA5
330
9C2
100
AcDbEntity
  8
Dimension (ANSI)
100
AcDbTrace
 10
30.16903161099397
 20
11.57403516728966
 30
0.0
 11
30.16903161099397
 21
11.44280157446155
 31
0.0
 12
29.77533083250963
 22
11.50841837087561
 32
0.0
 13
29.77533083250963
 23
11.50841837087561
 33
0.0
  0
SOLID
  5
AA6
330
9C2
100
AcDbEntity
  8
Dimension (ANSI)
100
AcDbTrace
 10
28.88163005402529
 20
11.57403516728966
 30
0.0
 11
28.88163005402529
 21
11.44280157446155
 31
0.0
 12
29.27533083250963
 22
11.50841837087561
 32
0.0
 13
29.27533083250963
 23
11.50841837087561
 33
0.0
  0
MTEXT
  5
AA7
330
9C2
100
AcDbEntity
  8
Dimension (ANSI)
100
AcDbMText
 10
25.96364522532037
 20
11.74841838041235
 30
0.0
 40
0.4800000190734864
 41
0.0
 71
     1
 72
     1
  1
\A1;0.500
  7
Note Text (ANSI)
 73
     1
 44
1.0
1001
ACAD
1000
MTEXTBEGIN
1070
    73
1070
     1
1070
    44
1040
1.0
1070
    74
1070
     0
1000
MTEXTEND
  0
POINT
  5
AA8
330
9C2
100
AcDbEntity
  8
Defpoints
 62
     0
100
AcDbPoint
 10
29.77533083250963
 20
13.86225862267275
 30
0.0
  0
POINT
  5
AA9
330
9C2
100
AcDbEntity
  8
Defpoints
 62
     0
100
AcDbPoint
 10
29.27533083250963
 20
13.36225862267275
 30
0.0
  0
POINT
  5
AAA
330
9C2
100
AcDbEntity
  8
Defpoints
 62
     0
100
AcDbPoint
 10
29.27533083250963
 20
11.50841837087561
 30
0.0
  0
ENDBLK
  5
9C4
330
9C2
100
AcDbEntity
  8
0
100
AcDbBlockEnd
  0
BLOCK
  5
AAD
330
AAC
100
AcDbEntity
  8
0
100
AcDbBlockBegin
  2
*D14
 70
     1
 10
0.0
 20
0.0
 30
0.0
  3
*D14
  1

  0
LINE
  5
B8B
330
AAC
100
AcDbEntity
  8
Dimension (ANSI)
100
AcDbLine
 10
29.25533083250963
 20
35.29225862267276
 30
0.0
 11
29.25533083250963
 21
37.11706177227906
 31
0.0
  0
LINE
  5
B8C
330
AAC
100
AcDbEntity
  8
Dimension (ANSI)
100
AcDbLine
 10
29.77533083250963
 20
35.31225862267275
 30
0.0
 11
29.77533083250963
 21
37.11706177227906
 31
0.0
  0
LINE
  5
B8D
330
AAC
100
AcDbEntity
  8
Dimension (ANSI)
100
AcDbLine
 10
30.16903161099397
 20
36.61706177227906
 30
0.0
 11
30.56273238947831
 21
36.61706177227906
 31
0.0
  0
LINE
  5
B8E
330
AAC
100
AcDbEntity
  8
Dimension (ANSI)
100
AcDbLine
 10
28.86163005402529
 20
36.61706177227906
 30
0.0
 11
28.39053691860271
 21
36.61706177227906
 31
0.0
  0
SOLID
  5
B8F
330
AAC
100
AcDbEntity
  8
Dimension (ANSI)
100
AcDbTrace
 10
30.16903161099397
 20
36.68267856869312
 30
0.0
 11
30.16903161099397
 21
36.551444975865
 31
0.0
 12
29.77533083250963
 22
36.61706177227906
 32
0.0
 13
29.77533083250963
 23
36.61706177227906
 33
0.0
  0
SOLID
  5
B90
330
AAC
100
AcDbEntity
  8
Dimension (ANSI)
100
AcDbTrace
 10
28.86163005402529
 20
36.68267856869312
 30
0.0
 11
28.86163005402529
 21
36.551444975865
 31
0.0
 12
29.25533083250963
 22
36.61706177227906
 32
0.0
 13
29.25533083250963
 23
36.61706177227906
 33
0.0
  0
MTEXT
  5
B91
330
AAC
100
AcDbEntity
  8
Dimension (ANSI)
100
AcDbMText
 10
26.34455259034026
 20
36.8570617818158
 30
0.0
 40
0.4800000190734864
 41
0.0
 71
     1
 72
     1
  1
\A1;0.520
  7
Note Text (ANSI)
 73
     1
 44
1.0
1001
ACAD
1000
MTEXTBEGIN
1070
    73
1070
     1
1070
    44
1040
1.0
1070
    74
1070
     0
1000
MTEXTEND
  0
POINT
  5
B92
330
AAC
100
AcDbEntity
  8
Defpoints
 62
     0
100
AcDbPoint
 10
29.25533083250963
 20
35.04225862267276
 30
0.0
  0
POINT
  5
B93
330
AAC
100
AcDbEntity
  8
Defpoints
 62
     0
100
AcDbPoint
 10
29.77533083250963
 20
35.06225862267275
 30
0.0
  0
POINT
  5
B94
330
AAC
100
AcDbEntity
  8
Defpoints
 62
     0
100
AcDbPoint
 10
29.77533083250963
 20
36.61706177227906
 30
0.0
  0
ENDBLK
  5
AAE
330
AAC
100
AcDbEntity
  8
0
100
AcDbBlockEnd
  0
BLOCK
  5
B97
330
B96
100
AcDbEntity
  8
0
100
AcDbBlockBegin
  2
*D15
 70
     1
 10
0.0
 20
0.0
 30
0.0
  3
*D15
  1

  0
LINE
  5
C8A
330
B96
100
AcDbEntity
  8
Dimension (ANSI)
100
AcDbLine
 10
29.50533083250963
 20
35.04225862267276
 30
0.0
 11
33.21474456247271
 21
35.04225862267276
 31
0.0
  0
LINE
  5
C8B
330
B96
100
AcDbEntity
  8
Dimension (ANSI)
100
AcDbLine
 10
29.52533083250962
 20
35.56225862267276
 30
0.0
 11
33.21474456247271
 21
35.56225862267276
 31
0.0
  0
LINE
  5
C8C
330
B96
100
AcDbEntity
  8
Dimension (ANSI)
100
AcDbLine
 10
32.71474456247271
 20
35.9559594011571
 30
0.0
 11
32.71474456247271
 21
36.34966017964145
 31
0.0
  0
LINE
  5
C8D
330
B96
100
AcDbEntity
  8
Dimension (ANSI)
100
AcDbLine
 10
32.71474456247271
 20
34.64855784418842
 30
0.0
 11
32.71474456247271
 21
33.99047201887549
 31
0.0
  0
LINE
  5
C8E
330
B96
100
AcDbEntity
  8
Dimension (ANSI)
100
AcDbLine
 10
32.71474456247271
 20
33.99047201887549
 30
0.0
 11
32.32104378398837
 21
33.99047201887549
 31
0.0
  0
SOLID
  5
C8F
330
B96
100
AcDbEntity
  8
Dimension (ANSI)
100
AcDbTrace
 10
32.64912776605866
 20
35.9559594011571
 30
0.0
 11
32.78036135888676
 21
35.9559594011571
 31
0.0
 12
32.71474456247271
 22
35.56225862267276
 32
0.0
 13
32.71474456247271
 23
35.56225862267276
 33
0.0
  0
SOLID
  5
C90
330
B96
100
AcDbEntity
  8
Dimension (ANSI)
100
AcDbTrace
 10
32.64912776605866
 20
34.64855784418842
 30
0.0
 11
32.78036135888676
 21
34.64855784418842
 31
0.0
 12
32.71474456247271
 22
35.04225862267276
 32
0.0
 13
32.71474456247271
 23
35.04225862267276
 33
0.0
  0
MTEXT
  5
C91
330
B96
100
AcDbEntity
  8
Dimension (ANSI)
100
AcDbMText
 10
30.27505945572592
 20
34.23047202841224
 30
0.0
 40
0.4800000190734864
 41
0.0
 71
     1
 72
     1
  1
\A1;0.520
  7
Note Text (ANSI)
 73
     1
 44
1.0
1001
ACAD
1000
MTEXTBEGIN
1070
    73
1070
     1
1070
    44
1040
1.0
1070
    74
1070
     0
1000
MTEXTEND
  0
POINT
  5
C92
330
B96
100
AcDbEntity
  8
Defpoints
 62
     0
100
AcDbPoint
 10
29.25533083250963
 20
35.04225862267276
 30
0.0
  0
POINT
  5
C93
330
B96
100
AcDbEntity
  8
Defpoints
 62
     0
100
AcDbPoint
 10
29.27533083250962
 20
35.56225862267276
 30
0.0
  0
POINT
  5
C94
330
B96
100
AcDbEntity
  8
Defpoints
 62
     0
100
AcDbPoint
 10
32.71474456247271
 20
35.56225862267276
 30
0.0
  0
ENDBLK
  5
B98
330
B96
100
AcDbEntity
  8
0
100
AcDbBlockEnd
  0
BLOCK
  5
C99
330
C98
100
AcDbEntity
  8
0
100
AcDbBlockBegin
  2
*D16
 70
     1
 10
0.0
 20
0.0
 30
0.0
  3
*D16
  1

  0
LINE
  5
D77
330
C98
100
AcDbEntity
  8
Dimension (ANSI)
100
AcDbLine
 10
42.78193291565905
 20
35.31225862267275
 30
0.0
 11
42.78193291565905
 21
38.08194366204283
 31
0.0
  0
LINE
  5
D78
330
C98
100
AcDbEntity
  8
Dimension (ANSI)
100
AcDbLine
 10
43.55593291565905
 20
34.09425862267275
 30
0.0
 11
43.55593291565905
 21
38.08194366204283
 31
0.0
  0
LINE
  5
D79
330
C98
100
AcDbEntity
  8
Dimension (ANSI)
100
AcDbLine
 10
43.9496336941434
 20
37.58194366204283
 30
0.0
 11
44.34333447262774
 21
37.58194366204283
 31
0.0
  0
LINE
  5
D7A
330
C98
100
AcDbEntity
  8
Dimension (ANSI)
100
AcDbLine
 10
42.38823213717471
 20
37.58194366204283
 30
0.0
 11
41.52766020861494
 21
37.58194366204283
 31
0.0
  0
SOLID
  5
D7B
330
C98
100
AcDbEntity
  8
Dimension (ANSI)
100
AcDbTrace
 10
43.9496336941434
 20
37.64756045845689
 30
0.0
 11
43.9496336941434
 21
37.51632686562878
 31
0.0
 12
43.55593291565905
 22
37.58194366204283
 32
0.0
 13
43.55593291565905
 23
37.58194366204283
 33
0.0
  0
SOLID
  5
D7C
330
C98
100
AcDbEntity
  8
Dimension (ANSI)
100
AcDbTrace
 10
42.38823213717471
 20
37.64756045845689
 30
0.0
 11
42.38823213717471
 21
37.51632686562878
 31
0.0
 12
42.78193291565905
 22
37.58194366204283
 32
0.0
 13
42.78193291565905
 23
37.58194366204283
 33
0.0
  0
MTEXT
  5
D7D
330
C98
100
AcDbEntity
  8
Dimension (ANSI)
100
AcDbMText
 10
39.45881873658708
 20
37.82194367157958
 30
0.0
 40
0.4800000190734864
 41
0.0
 71
     1
 72
     1
  1
\A1;0.774
  7
Note Text (ANSI)
 73
     1
 44
1.0
1001
ACAD
1000
MTEXTBEGIN
1070
    73
1070
     1
1070
    44
1040
1.0
1070
    74
1070
     0
1000
MTEXTEND
  0
POINT
  5
D7E
330
C98
100
AcDbEntity
  8
Defpoints
 62
     0
100
AcDbPoint
 10
42.78193291565905
 20
35.06225862267275
 30
0.0
  0
POINT
  5
D7F
330
C98
100
AcDbEntity
  8
Defpoints
 62
     0
100
AcDbPoint
 10
43.55593291565905
 20
33.84425862267276
 30
0.0
  0
POINT
  5
D80
330
C98
100
AcDbEntity
  8
Defpoints
 62
     0
100
AcDbPoint
 10
43.55593291565905
 20
37.58194366204283
 30
0.0
  0
ENDBLK
  5
C9A
330
C98
100
AcDbEntity
  8
0
100
AcDbBlockEnd
  0
ENDSEC
  0
SECTION
  2
ENTITIES
  0
LINE
  5
11B
330
6C
100
AcDbEntity
  8
Visible (ANSI)
100
AcDbLine
 10
29.77533083250963
 20
15.08025862267274
 30
0.0
 11
29.77533083250963
 21
33.84425862267276
 31
0.0
  0
LINE
  5
11C
330
6C
100
AcDbEntity
  8
Visible (ANSI)
100
AcDbLine
 10
29.77533083250963
 20
15.08025862267274
 30
0.0
 11
29.65033083250963
 21
15.08025862267274
 31
0.0
  0
LINE
  5
11D
330
6C
100
AcDbEntity
  8
Visible (ANSI)
100
AcDbLine
 10
29.77533083250963
 20
33.84425862267276
 30
0.0
 11
29.65033083250963
 21
33.84425862267276
 31
0.0
  0
LINE
  5
11E
330
6C
100
AcDbEntity
  8
Visible (ANSI)
100
AcDbLine
 10
29.65013083250962
 20
33.84445862267276
 30
0.0
 11
29.77533083250963
 21
33.84445862267276
 31
0.0
  0
LINE
  5
11F
330
6C
100
AcDbEntity
  8
Visible (ANSI)
100
AcDbLine
 10
29.65013083250962
 20
33.84425862267276
 30
0.0
 11
29.65013083250962
 21
33.84445862267276
 31
0.0
  0
LINE
  5
120
330
6C
100
AcDbEntity
  8
Visible (ANSI)
100
AcDbLine
 10
29.65013083250963
 20
15.08005862267274
 30
0.0
 11
29.65013083250963
 21
15.08025862267274
 31
0.0
  0
LINE
  5
121
330
6C
100
AcDbEntity
  8
Visible (ANSI)
100
AcDbLine
 10
29.77533083250963
 20
15.08005862267274
 30
0.0
 11
29.65013083250963
 21
15.08005862267274
 31
0.0
  0
LINE
  5
122
330
6C
100
AcDbEntity
  8
Hidden (ANSI)
 48
1.080701231956481
100
AcDbLine
 10
29.68158083250962
 20
33.84425862267276
 30
0.0
 11
29.68158083250962
 21
15.08025862267274
 31
0.0
  0
LINE
  5
123
330
6C
100
AcDbEntity
  8
Visible (ANSI)
100
AcDbLine
 10
29.65013083250963
 20
15.08025862267274
 30
0.0
 11
29.65033083250963
 21
15.08025862267274
 31
0.0
  0
LINE
  5
124
330
6C
100
AcDbEntity
  8
Visible (ANSI)
100
AcDbLine
 10
29.65033083250963
 20
33.84425862267276
 30
0.0
 11
29.65013083250962
 21
33.84425862267276
 31
0.0
  0
LINE
  5
125
330
6C
100
AcDbEntity
  8
Visible (ANSI)
100
AcDbLine
 10
29.77533083250963
 20
35.06225862267275
 30
0.0
 11
29.77533083250963
 21
33.84445862267276
 31
0.0
  0
LINE
  5
126
330
6C
100
AcDbEntity
  8
Visible (ANSI)
100
AcDbLine
 10
12.07533083250962
 20
35.56225862267276
 30
0.0
 11
29.27533083250962
 21
35.56225862267276
 31
0.0
  0
LINE
  5
127
330
6C
100
AcDbEntity
  8
Visible (ANSI)
100
AcDbLine
 10
11.57533083250962
 20
33.84445862267276
 30
0.0
 11
11.57533083250962
 21
35.06225862267275
 31
0.0
  0
LINE
  5
128
330
6C
100
AcDbEntity
  8
Visible (ANSI)
100
AcDbLine
 10
11.57533083250963
 20
13.86225862267276
 30
0.0
 11
11.57533083250963
 21
15.08005862267276
 31
0.0
  0
LINE
  5
129
330
6C
100
AcDbEntity
  8
Visible (ANSI)
100
AcDbLine
 10
29.27533083250963
 20
13.36225862267275
 30
0.0
 11
12.07533083250963
 21
13.36225862267275
 31
0.0
  0
LINE
  5
12A
330
6C
100
AcDbEntity
  8
Visible (ANSI)
100
AcDbLine
 10
29.77533083250963
 20
15.08005862267274
 30
0.0
 11
29.77533083250963
 21
13.86225862267276
 31
0.0
  0
LINE
  5
12B
330
6C
100
AcDbEntity
  8
Visible (ANSI)
100
AcDbLine
 10
29.27533083250962
 20
35.56225862267276
 30
0.0
 11
29.77533083250963
 21
35.06225862267275
 31
0.0
  0
LINE
  5
12C
330
6C
100
AcDbEntity
  8
Visible (ANSI)
100
AcDbLine
 10
11.57533083250962
 20
35.06225862267275
 30
0.0
 11
12.07533083250962
 21
35.56225862267276
 31
0.0
  0
LINE
  5
12D
330
6C
100
AcDbEntity
  8
Visible (ANSI)
100
AcDbLine
 10
11.57533083250962
 20
33.84445862267276
 30
0.0
 11
11.70053083250962
 21
33.84445862267276
 31
0.0
  0
LINE
  5
12E
330
6C
100
AcDbEntity
  8
Visible (ANSI)
100
AcDbLine
 10
11.70053083250962
 20
33.84445862267276
 30
0.0
 11
11.70053083250962
 21
33.84425862267275
 31
0.0
  0
LINE
  5
12F
330
6C
100
AcDbEntity
  8
Visible (ANSI)
100
AcDbLine
 10
11.70053083250962
 20
15.08025862267275
 30
0.0
 11
11.70053083250962
 21
15.08005862267276
 31
0.0
  0
LINE
  5
130
330
6C
100
AcDbEntity
  8
Visible (ANSI)
100
AcDbLine
 10
11.70053083250962
 20
15.08005862267276
 30
0.0
 11
11.57533083250963
 21
15.08005862267276
 31
0.0
  0
LINE
  5
131
330
6C
100
AcDbEntity
  8
Visible (ANSI)
100
AcDbLine
 10
11.57533083250963
 20
33.84425862267275
 30
0.0
 11
11.57533083250964
 21
15.08025862267275
 31
0.0
  0
LINE
  5
132
330
6C
100
AcDbEntity
  8
Visible (ANSI)
100
AcDbLine
 10
11.57533083250963
 20
33.84425862267275
 30
0.0
 11
11.70033083250962
 21
33.84425862267275
 31
0.0
  0
LINE
  5
133
330
6C
100
AcDbEntity
  8
Visible (ANSI)
100
AcDbLine
 10
11.57533083250964
 20
15.08025862267275
 30
0.0
 11
11.70033083250962
 21
15.08025862267276
 31
0.0
  0
LINE
  5
134
330
6C
100
AcDbEntity
  8
Hidden (ANSI)
 48
1.080701231956481
100
AcDbLine
 10
11.66908083250963
 20
15.08025862267275
 30
0.0
 11
11.66908083250963
 21
33.84425862267275
 31
0.0
  0
LINE
  5
135
330
6C
100
AcDbEntity
  8
Visible (ANSI)
100
AcDbLine
 10
11.70053083250962
 20
33.84425862267275
 30
0.0
 11
11.70033083250962
 21
33.84425862267275
 31
0.0
  0
LINE
  5
136
330
6C
100
AcDbEntity
  8
Visible (ANSI)
100
AcDbLine
 10
11.70033083250962
 20
15.08025862267275
 30
0.0
 11
11.70053083250962
 21
15.08025862267275
 31
0.0
  0
LINE
  5
137
330
6C
100
AcDbEntity
  8
Visible (ANSI)
100
AcDbLine
 10
12.07533083250963
 20
13.36225862267275
 30
0.0
 11
11.57533083250963
 21
13.86225862267276
 31
0.0
  0
LINE
  5
138
330
6C
100
AcDbEntity
  8
Visible (ANSI)
100
AcDbLine
 10
29.77533083250963
 20
13.86225862267276
 30
0.0
 11
29.27533083250963
 21
13.36225862267275
 31
0.0
  0
CIRCLE
  5
139
330
6C
100
AcDbEntity
  8
Visible (ANSI)
100
AcDbCircle
 10
29.25533083250963
 20
35.04225862267276
 30
0.0
 40
0.25
  0
CIRCLE
  5
13A
330
6C
100
AcDbEntity
  8
Visible (ANSI)
100
AcDbCircle
 10
12.09533083250963
 20
35.04225862267276
 30
0.0
 40
0.25
  0
CIRCLE
  5
13B
330
6C
100
AcDbEntity
  8
Visible (ANSI)
100
AcDbCircle
 10
12.09533083250963
 20
13.88225862267275
 30
0.0
 40
0.25
  0
CIRCLE
  5
13C
330
6C
100
AcDbEntity
  8
Visible (ANSI)
100
AcDbCircle
 10
29.25533083250963
 20
13.88225862267275
 30
0.0
 40
0.25
  0
CIRCLE
  5
13D
330
6C
100
AcDbEntity
  8
Visible (ANSI)
100
AcDbCircle
 10
29.25533083250963
 20
34.29225862267276
 30
0.0
 40
0.15625
  0
CIRCLE
  5
13E
330
6C
100
AcDbEntity
  8
Visible (ANSI)
100
AcDbCircle
 10
12.09533083250963
 20
34.29225862267275
 30
0.0
 40
0.15625
  0
CIRCLE
  5
13F
330
6C
100
AcDbEntity
  8
Visible (ANSI)
100
AcDbCircle
 10
12.09533083250963
 20
14.63225862267275
 30
0.0
 40
0.15625
  0
CIRCLE
  5
140
330
6C
100
AcDbEntity
  8
Visible (ANSI)
100
AcDbCircle
 10
29.25533083250963
 20
14.63225862267275
 30
0.0
 40
0.15625
  0
LINE
  5
141
330
6C
100
AcDbEntity
  8
Visible (ANSI)
100
AcDbLine
 10
42.90693291565906
 20
15.08025862267274
 30
0.0
 11
43.55593291565905
 21
15.08025862267274
 31
0.0
  0
LINE
  5
142
330
6C
100
AcDbEntity
  8
Visible (ANSI)
100
AcDbLine
 10
43.55593291565905
 20
33.84425862267276
 30
0.0
 11
43.55593291565905
 21
15.08025862267274
 31
0.0
  0
LINE
  5
143
330
6C
100
AcDbEntity
  8
Visible (ANSI)
100
AcDbLine
 10
43.55593291565905
 20
33.84425862267276
 30
0.0
 11
42.90693291565906
 21
33.84425862267276
 31
0.0
  0
LINE
  5
144
330
6C
100
AcDbEntity
  8
Visible (ANSI)
100
AcDbLine
 10
42.90693291565907
 20
15.08025862267274
 30
0.0
 11
42.78193291565902
 21
15.08025862267274
 31
0.0
  0
LINE
  5
145
330
6C
100
AcDbEntity
  8
Visible (ANSI)
100
AcDbLine
 10
42.90693291565906
 20
33.84425862267276
 30
0.0
 11
42.78193291565902
 21
33.84425862267276
 31
0.0
  0
LINE
  5
146
330
6C
100
AcDbEntity
  8
Visible (ANSI)
100
AcDbLine
 10
42.78193291565902
 20
15.08025862267274
 30
0.0
 11
42.78193291565902
 21
33.84425862267276
 31
0.0
  0
LINE
  5
147
330
6C
100
AcDbEntity
  8
Visible (ANSI)
100
AcDbLine
 10
42.78193291565904
 20
33.84445862267276
 30
0.0
 11
42.87568291565905
 21
33.84445862267276
 31
0.0
  0
LINE
  5
148
330
6C
100
AcDbEntity
  8
Visible (ANSI)
100
AcDbLine
 10
42.87568291565901
 20
33.84445862267276
 30
0.0
 11
42.87568291565901
 21
33.84425862267276
 31
0.0
  0
LINE
  5
149
330
6C
100
AcDbEntity
  8
Visible (ANSI)
100
AcDbLine
 10
42.78193291565902
 20
33.84425862267276
 30
0.0
 11
42.78193291565902
 21
33.84445862267276
 31
0.0
  0
LINE
  5
14A
330
6C
100
AcDbEntity
  8
Visible (ANSI)
100
AcDbLine
 10
42.87568291565901
 20
15.08025862267274
 30
0.0
 11
42.87568291565901
 21
15.08005862267274
 31
0.0
  0
LINE
  5
14B
330
6C
100
AcDbEntity
  8
Visible (ANSI)
100
AcDbLine
 10
42.78193291565902
 20
15.08005862267274
 30
0.0
 11
42.78193291565902
 21
15.08025862267274
 31
0.0
  0
LINE
  5
14C
330
6C
100
AcDbEntity
  8
Visible (ANSI)
100
AcDbLine
 10
42.87568291565905
 20
15.08005862267274
 30
0.0
 11
42.78193291565904
 21
15.08005862267274
 31
0.0
  0
LINE
  5
14D
330
6C
100
AcDbEntity
  8
Hidden (ANSI)
 48
1.080701231956481
100
AcDbLine
 10
42.87568291565901
 20
33.84425862267276
 30
0.0
 11
42.87568291565901
 21
15.08025862267274
 31
0.0
  0
LINE
  5
14E
330
6C
100
AcDbEntity
  8
Visible (ANSI)
100
AcDbLine
 10
42.87568291565905
 20
13.86225862267276
 30
0.0
 11
42.87568291565905
 21
15.08005862267274
 31
0.0
  0
LINE
  5
14F
330
6C
100
AcDbEntity
  8
Visible (ANSI)
100
AcDbLine
 10
42.87568291565905
 20
33.84445862267276
 30
0.0
 11
42.87568291565905
 21
35.06225862267275
 31
0.0
  0
LINE
  5
150
330
6C
100
AcDbEntity
  8
Visible (ANSI)
100
AcDbLine
 10
42.78193291565904
 20
35.06225862267275
 30
0.0
 11
42.78193291565904
 21
33.84445862267276
 31
0.0
  0
LINE
  5
151
330
6C
100
AcDbEntity
  8
Visible (ANSI)
100
AcDbLine
 10
42.78193291565904
 20
15.08005862267274
 30
0.0
 11
42.78193291565904
 21
13.86225862267276
 31
0.0
  0
LINE
  5
152
330
6C
100
AcDbEntity
  8
Visible (ANSI)
100
AcDbLine
 10
42.8756829156589
 20
13.36225862267275
 30
0.0
 11
42.87568291565905
 21
13.86225862267276
 31
0.0
  0
LINE
  5
153
330
6C
100
AcDbEntity
  8
Visible (ANSI)
100
AcDbLine
 10
42.78193291565904
 20
13.86225862267276
 30
0.0
 11
42.7819329156589
 21
13.36225862267275
 31
0.0
  0
LINE
  5
154
330
6C
100
AcDbEntity
  8
Visible (ANSI)
100
AcDbLine
 10
42.7819329156589
 20
13.36225862267275
 30
0.0
 11
42.8756829156589
 21
13.36225862267275
 31
0.0
  0
LINE
  5
155
330
6C
100
AcDbEntity
  8
Visible (ANSI)
100
AcDbLine
 10
42.87568291565905
 20
13.86225862267276
 30
0.0
 11
42.78193291565904
 21
13.86225862267276
 31
0.0
  0
LINE
  5
156
330
6C
100
AcDbEntity
  8
Visible (ANSI)
100
AcDbLine
 10
42.87568291565905
 20
35.06225862267275
 30
0.0
 11
42.8756829156589
 21
35.56225862267276
 31
0.0
  0
LINE
  5
157
330
6C
100
AcDbEntity
  8
Visible (ANSI)
100
AcDbLine
 10
42.7819329156589
 20
35.56225862267276
 30
0.0
 11
42.78193291565904
 21
35.06225862267275
 31
0.0
  0
LINE
  5
158
330
6C
100
AcDbEntity
  8
Visible (ANSI)
100
AcDbLine
 10
42.78193291565904
 20
35.06225862267275
 30
0.0
 11
42.87568291565905
 21
35.06225862267275
 31
0.0
  0
LINE
  5
159
330
6C
100
AcDbEntity
  8
Visible (ANSI)
100
AcDbLine
 10
42.8756829156589
 20
35.56225862267276
 30
0.0
 11
42.7819329156589
 21
35.56225862267276
 31
0.0
  0
LINE
  5
15A
330
6C
100
AcDbEntity
  8
Hidden (ANSI)
 48
0.0445413254201412
100
AcDbLine
 10
42.7819329156589
 20
35.29225862267276
 30
0.0
 11
42.87568291565889
 21
35.29225862267276
 31
0.0
  0
LINE
  5
15B
330
6C
100
AcDbEntity
  8
Hidden (ANSI)
 48
0.0445413254201412
100
AcDbLine
 10
42.7819329156589
 20
34.79225862267276
 30
0.0
 11
42.87568291565889
 21
34.79225862267276
 31
0.0
  0
LINE
  5
15C
330
6C
100
AcDbEntity
  8
Hidden (ANSI)
 48
0.0445413254201412
100
AcDbLine
 10
42.7819329156589
 20
14.13225862267275
 30
0.0
 11
42.87568291565889
 21
14.13225862267275
 31
0.0
  0
LINE
  5
15D
330
6C
100
AcDbEntity
  8
Hidden (ANSI)
 48
0.0445413254201412
100
AcDbLine
 10
42.7819329156589
 20
13.63225862267275
 30
0.0
 11
42.87568291565889
 21
13.63225862267275
 31
0.0
  0
LINE
  5
15E
330
6C
100
AcDbEntity
  8
Hidden (ANSI)
 48
0.0445413254201412
100
AcDbLine
 10
42.7819329156589
 20
34.44850862267275
 30
0.0
 11
42.87568291565889
 21
34.44850862267275
 31
0.0
  0
LINE
  5
15F
330
6C
100
AcDbEntity
  8
Hidden (ANSI)
 48
0.0445413254201412
100
AcDbLine
 10
42.7819329156589
 20
34.13600862267276
 30
0.0
 11
42.87568291565889
 21
34.13600862267276
 31
0.0
  0
LINE
  5
160
330
6C
100
AcDbEntity
  8
Hidden (ANSI)
 48
0.0445413254201412
100
AcDbLine
 10
42.7819329156589
 20
14.78850862267275
 30
0.0
 11
42.87568291565889
 21
14.78850862267275
 31
0.0
  0
LINE
  5
161
330
6C
100
AcDbEntity
  8
Hidden (ANSI)
 48
0.0445413254201412
100
AcDbLine
 10
42.7819329156589
 20
14.47600862267275
 30
0.0
 11
42.87568291565889
 21
14.47600862267275
 31
0.0
  0
LINE
  5
162
330
6C
100
AcDbEntity
  8
Visible Narrow (ANSI)
100
AcDbLine
 10
64.97839888718504
 20
23.40089978916327
 30
0.0
 11
64.97839888718506
 21
33.62786928952687
 31
0.0
  0
ELLIPSE
  5
163
330
6C
100
AcDbEntity
  8
Visible (ANSI)
100
AcDbEllipse
 10
64.91947332208614
 20
23.43483276531262
 30
0.0
 11
0.0833333333333359
 21
0.0000000000000048
 31
0.0
210
0.0
220
0.0
230
1.0
 40
0.5758617009853142
 41
3.926990816987326
 42
5.497787143782161
  0
LINE
  5
164
330
6C
100
AcDbEntity
  8
Visible (ANSI)
100
AcDbLine
 10
64.86045347608314
 20
33.62792358228869
 30
0.0
 11
64.86054812231775
 21
33.62797808543035
 31
0.0
  0
ELLIPSE
  5
165
330
6C
100
AcDbEntity
  8
Visible (ANSI)
100
AcDbEllipse
 10
64.91947332208621
 20
33.66180226567625
 30
0.0
 11
0.0833333333333855
 21
0.0000000000000048
 31
0.0
210
0.0
220
0.0
230
1.0
 40
0.5758617009853144
 41
3.926990816987276
 42
3.983676441750017
  0
ELLIPSE
  5
166
330
6C
100
AcDbEntity
  8
Visible (ANSI)
100
AcDbEllipse
 10
64.91947332208614
 20
33.66180226567625
 30
0.0
 11
0.0833333333333844
 21
-0.0000000000000002
 31
0.0
210
0.0
220
0.0
230
1.0
 40
0.5758617009853142
 41
5.271378846409916
 42
5.497787143782277
  0
LINE
  5
167
330
6C
100
AcDbEntity
  8
Visible Narrow (ANSI)
100
AcDbLine
 10
64.86054775698727
 20
23.40089978916326
 30
0.0
 11
64.8605477569873
 21
33.62786928952686
 31
0.0
  0
LINE
  5
168
330
6C
100
AcDbEntity
  8
Visible (ANSI)
100
AcDbLine
 10
64.91947332208619
 20
33.59404531966081
 30
0.0
 11
64.96366749591034
 21
33.61949505177284
 31
0.0
  0
LINE
  5
169
330
6C
100
AcDbEntity
  8
Visible (ANSI)
100
AcDbLine
 10
64.86045347608314
 20
33.628032588572
 30
0.0
 11
64.91947332208619
 21
33.59404531966081
 31
0.0
  0
LINE
  5
16A
330
6C
100
AcDbEntity
  8
Visible (ANSI)
100
AcDbLine
 10
64.86045347608314
 20
33.62792358228869
 30
0.0
 11
64.86045347608314
 21
33.628032588572
 31
0.0
  0
LINE
  5
16B
330
6C
100
AcDbEntity
  8
Visible (ANSI)
100
AcDbLine
 10
64.8604534760831
 20
23.40084507564178
 30
0.0
 11
64.8604534760831
 21
23.40095408192509
 31
0.0
  0
LINE
  5
16C
330
6C
100
AcDbEntity
  8
Visible (ANSI)
100
AcDbLine
 10
64.8604534760831
 20
23.40084507564178
 30
0.0
 11
64.86054812231886
 21
23.40089957878409
 31
0.0
  0
LINE
  5
16D
330
6C
100
AcDbEntity
  8
Visible (ANSI)
100
AcDbLine
 10
64.9616771963249
 20
23.39345367614734
 30
0.0
 11
64.96366749591031
 21
23.39230753884261
 31
0.0
  0
LINE
  5
16E
330
6C
100
AcDbEntity
  8
Visible (ANSI)
100
AcDbLine
 10
64.91947332208616
 20
23.36685780673059
 30
0.0
 11
64.8604534760831
 21
23.40084507564178
 31
0.0
  0
LINE
  5
16F
330
6C
100
AcDbEntity
  8
Visible (ANSI)
100
AcDbLine
 10
64.96366749591031
 20
23.39230753884261
 30
0.0
 11
64.91947332208616
 21
23.36685780673059
 31
0.0
  0
LINE
  5
170
330
6C
100
AcDbEntity
  8
Visible (ANSI)
100
AcDbLine
 10
64.97839888718504
 20
23.40089978916327
 30
0.0
 11
65.28434042117837
 21
23.57707980133078
 31
0.0
  0
LINE
  5
171
330
6C
100
AcDbEntity
  8
Visible (ANSI)
100
AcDbLine
 10
65.28434042117838
 20
33.80404930169438
 30
0.0
 11
65.28434042117837
 21
23.57707980133078
 31
0.0
  0
LINE
  5
172
330
6C
100
AcDbEntity
  8
Visible (ANSI)
100
AcDbLine
 10
65.28434042117838
 20
33.80404930169438
 30
0.0
 11
64.97839888718506
 21
33.62786928952687
 31
0.0
  0
LINE
  5
173
330
6C
100
AcDbEntity
  8
Visible (ANSI)
100
AcDbLine
 10
64.8604534760831
 20
23.40095408192509
 30
0.0
 11
64.86054775698727
 21
23.40089978916326
 31
0.0
  0
LINE
  5
174
330
6C
100
AcDbEntity
  8
Visible (ANSI)
100
AcDbLine
 10
65.24014624735423
 20
33.8294990338064
 30
0.0
 11
65.28434042117838
 21
33.80404930169438
 31
0.0
  0
LINE
  5
175
330
6C
100
AcDbEntity
  8
Visible (ANSI)
100
AcDbLine
 10
64.96366749591034
 20
33.67028550971357
 30
0.0
 11
65.24014624735423
 21
33.8294990338064
 31
0.0
  0
LINE
  5
176
330
6C
100
AcDbEntity
  8
Visible (ANSI)
100
AcDbLine
 10
64.8605477569873
 20
33.62786928952686
 30
0.0
 11
64.86045347608314
 21
33.62792358228869
 31
0.0
  0
ELLIPSE
  5
177
330
6C
100
AcDbEntity
  8
Visible (ANSI)
100
AcDbEllipse
 10
64.71853714509897
 20
34.41349486331175
 30
0.0
 11
-0.0831720352640677
 21
0.144430572690862
 31
0.0
210
0.0
220
0.0
230
1.0
 40
0.5780931159158117
 41
0.2678448778125579
 42
2.87374777577728
  0
ELLIPSE
  5
178
330
6C
100
AcDbEntity
  8
Visible (ANSI)
100
AcDbEllipse
 10
56.62923556832364
 20
39.07181382909538
 30
0.0
 11
-0.0831720352640677
 21
0.144430572690862
 31
0.0
210
0.0
220
0.0
230
1.0
 40
0.5780931159158117
 41
0.2678448778125579
 42
2.87374777577728
  0
ELLIPSE
  5
179
330
6C
100
AcDbEntity
  8
Visible (ANSI)
100
AcDbEllipse
 10
56.62923556832362
 20
27.53894905464997
 30
0.0
 11
-0.0831720352640679
 21
0.1444305726908622
 31
0.0
210
0.0
220
0.0
230
1.0
 40
0.5780931159158119
 41
0.2678448778125577
 42
2.87374777577728
  0
ELLIPSE
  5
17A
330
6C
100
AcDbEntity
  8
Visible (ANSI)
100
AcDbEllipse
 10
64.71853714509894
 20
22.88063008886634
 30
0.0
 11
-0.0831720352640678
 21
0.1444305726908621
 31
0.0
210
0.0
220
0.0
230
0.9999999999999998
 40
0.5780931159158116
 41
0.2678448778125758
 42
2.87374777577728
  0
ELLIPSE
  5
17B
330
6C
100
AcDbEntity
  8
Visible (ANSI)
100
AcDbEllipse
 10
64.71853714509897
 20
34.00472130089048
 30
0.0
 11
0.0519825220400475
 21
-0.0902691079317851
 31
0.0
210
0.0
220
0.0
230
1.0
 40
0.5780931159158116
 41
3.578838513251596
 42
5.845939447516872
  0
ELLIPSE
  5
17C
330
6C
100
AcDbEntity
  8
Visible (ANSI)
100
AcDbEllipse
 10
56.62923556832364
 20
38.66304026667411
 30
0.0
 11
0.0519825220400481
 21
-0.0902691079317863
 31
0.0
210
0.0
220
0.0
230
0.9999999999999998
 40
0.5780931159158116
 41
3.578838513251596
 42
5.84593944751704
  0
ELLIPSE
  5
17D
330
6C
100
AcDbEntity
  8
Visible (ANSI)
100
AcDbEllipse
 10
56.62923556832362
 20
27.94772261707124
 30
0.0
 11
0.0519825220400479
 21
-0.0902691079317858
 31
0.0
210
0.0
220
0.0
230
1.0
 40
0.5780931159158115
 41
3.578838513251595
 42
5.845939447517039
  0
ELLIPSE
  5
17E
330
6C
100
AcDbEntity
  8
Visible (ANSI)
100
AcDbEllipse
 10
64.71853714509895
 20
23.28940365128761
 30
0.0
 11
0.0519825220400476
 21
-0.0902691079317855
 31
0.0
210
0.0
220
0.0
230
1.0
 40
0.5780931159158117
 41
3.578838513251564
 42
5.845939447516872
  0
ELLIPSE
  5
17F
330
6C
100
AcDbEntity
  8
Visible (ANSI)
100
AcDbEllipse
 10
64.67434297127481
 20
34.38804513119972
 30
0.0
 11
-0.0831720352640679
 21
0.1444305726908622
 31
0.0
210
0.0
220
0.0
230
1.0
 40
0.5780931159158116
 41
0.0
 42
6.283185307179586
  0
ELLIPSE
  5
180
330
6C
100
AcDbEntity
  8
Visible (ANSI)
100
AcDbEllipse
 10
56.58504139449949
 20
39.04636409698336
 30
0.0
 11
-0.0831720352640679
 21
0.1444305726908622
 31
0.0
210
0.0
220
0.0
230
1.0
 40
0.5780931159158116
 41
0.0
 42
6.283185307179586
  0
ELLIPSE
  5
181
330
6C
100
AcDbEntity
  8
Visible (ANSI)
100
AcDbEllipse
 10
56.58504139449947
 20
27.51349932253795
 30
0.0
 11
-0.0831720352640679
 21
0.1444305726908622
 31
0.0
210
0.0
220
0.0
230
1.0
 40
0.5780931159158116
 41
0.0
 42
6.283185307179586
  0
ELLIPSE
  5
182
330
6C
100
AcDbEntity
  8
Visible (ANSI)
100
AcDbEllipse
 10
64.67434297127478
 20
22.85518035675432
 30
0.0
 11
-0.0831720352640679
 21
0.1444305726908622
 31
0.0
210
0.0
220
0.0
230
1.0
 40
0.5780931159158116
 41
0.0
 42
6.283185307179586
  0
ELLIPSE
  5
183
330
6C
100
AcDbEntity
  8
Visible (ANSI)
100
AcDbEllipse
 10
64.67434297127481
 20
33.97927156877846
 30
0.0
 11
-0.0519825220400424
 21
0.0902691079317889
 31
0.0
210
0.0
220
0.0
230
1.0
 40
0.5780931159158115
 41
0.0
 42
6.283185307179586
  0
ELLIPSE
  5
184
330
6C
100
AcDbEntity
  8
Visible (ANSI)
100
AcDbEllipse
 10
56.58504139449949
 20
38.63759053456209
 30
0.0
 11
-0.0519825220400424
 21
0.0902691079317889
 31
0.0
210
0.0
220
0.0
230
1.0
 40
0.5780931159158115
 41
0.0
 42
6.283185307179586
  0
ELLIPSE
  5
185
330
6C
100
AcDbEntity
  8
Visible (ANSI)
100
AcDbEllipse
 10
56.58504139449947
 20
27.92227288495922
 30
0.0
 11
-0.0519825220400424
 21
0.0902691079317889
 31
0.0
210
0.0
220
0.0
230
1.0
 40
0.5780931159158115
 41
0.0
 42
6.283185307179586
  0
ELLIPSE
  5
186
330
6C
100
AcDbEntity
  8
Visible (ANSI)
100
AcDbEllipse
 10
64.67434297127478
 20
23.26395391917559
 30
0.0
 11
-0.0519825220400424
 21
0.0902691079317889
 31
0.0
210
0.0
220
0.0
230
1.0
 40
0.5780931159158115
 41
0.0
 42
6.283185307179586
  0
LINE
  5
187
330
6C
100
AcDbEntity
  8
Visible (ANSI)
100
AcDbLine
 10
64.96366749591031
 20
22.72856827975379
 30
0.0
 11
64.96366749591031
 21
23.39230753884261
 31
0.0
  0
LINE
  5
188
330
6C
100
AcDbEntity
  8
Visible (ANSI)
100
AcDbLine
 10
64.72796523551479
 20
34.69148192373994
 30
0.0
 11
56.61980747790781
 21
39.36065944189135
 31
0.0
  0
LINE
  5
189
330
6C
100
AcDbEntity
  8
Visible (ANSI)
100
AcDbLine
 10
64.96366749591034
 20
33.61949505177284
 30
0.0
 11
64.96366749591034
 21
34.28323431086166
 31
0.0
  0
LINE
  5
18A
330
6C
100
AcDbEntity
  8
Visible (ANSI)
100
AcDbLine
 10
64.91947332208619
 20
34.25778457874964
 30
0.0
 11
64.91947332208619
 21
33.59404531966081
 31
0.0
  0
LINE
  5
18B
330
6C
100
AcDbEntity
  8
Visible (ANSI)
100
AcDbLine
 10
56.57561330408366
 20
39.33520970977933
 30
0.0
 11
64.68377106169064
 21
34.66603219162792
 31
0.0
  0
LINE
  5
18C
330
6C
100
AcDbEntity
  8
Visible (ANSI)
100
AcDbLine
 10
56.33991104368812
 20
38.53468664700709
 30
0.0
 11
56.33991104368812
 21
39.1984259060959
 31
0.0
  0
LINE
  5
18D
330
6C
100
AcDbEntity
  8
Visible (ANSI)
100
AcDbLine
 10
56.3399110436881
 20
27.64375987498804
 30
0.0
 11
56.3399110436881
 21
28.30749913407687
 31
0.0
  0
LINE
  5
18E
330
6C
100
AcDbEntity
  8
Visible (ANSI)
100
AcDbLine
 10
64.68377106169062
 20
22.56633474395834
 30
0.0
 11
56.57561330408364
 21
27.23551226210977
 31
0.0
  0
LINE
  5
18F
330
6C
100
AcDbEntity
  8
Visible (ANSI)
100
AcDbLine
 10
64.91947332208616
 20
23.36685780673059
 30
0.0
 11
64.91947332208616
 21
22.70311854764177
 31
0.0
  0
LINE
  5
190
330
6C
100
AcDbEntity
  8
Visible (ANSI)
100
AcDbLine
 10
64.72796523551476
 20
22.59178447607037
 30
0.0
 11
64.96366749591031
 21
22.72856827975379
 31
0.0
  0
LINE
  5
191
330
6C
100
AcDbEntity
  8
Visible (ANSI)
100
AcDbLine
 10
64.91947332208616
 20
22.70311854764177
 30
0.0
 11
64.68377106169062
 21
22.56633474395834
 31
0.0
  0
LINE
  5
192
330
6C
100
AcDbEntity
  8
Visible (ANSI)
100
AcDbLine
 10
64.68377106169062
 20
22.56633474395834
 30
0.0
 11
64.72796523551476
 21
22.59178447607037
 31
0.0
  0
LINE
  5
193
330
6C
100
AcDbEntity
  8
Visible (ANSI)
100
AcDbLine
 10
64.96366749591031
 20
22.72856827975379
 30
0.0
 11
64.91947332208616
 21
22.70311854764177
 31
0.0
  0
LINE
  5
194
330
6C
100
AcDbEntity
  8
Visible (ANSI)
100
AcDbLine
 10
64.96366749591034
 20
34.28323431086166
 30
0.0
 11
64.72796523551479
 21
34.69148192373994
 31
0.0
  0
LINE
  5
195
330
6C
100
AcDbEntity
  8
Visible (ANSI)
100
AcDbLine
 10
64.68377106169064
 20
34.66603219162792
 30
0.0
 11
64.91947332208619
 21
34.25778457874964
 31
0.0
  0
LINE
  5
196
330
6C
100
AcDbEntity
  8
Visible (ANSI)
100
AcDbLine
 10
64.91947332208619
 20
34.25778457874964
 30
0.0
 11
64.96366749591034
 21
34.28323431086166
 31
0.0
  0
LINE
  5
197
330
6C
100
AcDbEntity
  8
Visible (ANSI)
100
AcDbLine
 10
64.72796523551479
 20
34.69148192373994
 30
0.0
 11
64.68377106169064
 21
34.66603219162792
 31
0.0
  0
LINE
  5
198
330
6C
100
AcDbEntity
  8
Visible (ANSI)
100
AcDbLine
 10
56.33991104368812
 20
39.1984259060959
 30
0.0
 11
56.57561330408366
 21
39.33520970977933
 31
0.0
  0
LINE
  5
199
330
6C
100
AcDbEntity
  8
Visible (ANSI)
100
AcDbLine
 10
56.57561330408366
 20
39.33520970977933
 30
0.0
 11
56.61980747790781
 21
39.36065944189135
 31
0.0
  0
LINE
  5
19A
330
6C
100
AcDbEntity
  8
Visible (ANSI)
100
AcDbLine
 10
56.33991104368812
 20
38.53468664700709
 30
0.0
 11
56.39893088969116
 21
38.50069937809589
 31
0.0
  0
LINE
  5
19B
330
6C
100
AcDbEntity
  8
Visible (ANSI)
100
AcDbLine
 10
56.39893088969116
 20
38.50069937809589
 30
0.0
 11
56.39893088969116
 21
38.50059037181258
 31
0.0
  0
LINE
  5
19C
330
6C
100
AcDbEntity
  8
Visible Narrow (ANSI)
100
AcDbLine
 10
56.398836608787
 20
38.50064466457442
 30
0.0
 11
56.39883660878698
 21
28.27367516421082
 31
0.0
  0
LINE
  5
19D
330
6C
100
AcDbEntity
  8
Visible (ANSI)
100
AcDbLine
 10
56.39893088969113
 20
28.27362087144898
 30
0.0
 11
56.39893088969113
 21
28.27351186516567
 31
0.0
  0
LINE
  5
19E
330
6C
100
AcDbEntity
  8
Visible (ANSI)
100
AcDbLine
 10
56.39893088969113
 20
28.27351186516567
 30
0.0
 11
56.3399110436881
 21
28.30749913407687
 31
0.0
  0
ELLIPSE
  5
19F
330
6C
100
AcDbEntity
  8
Visible (ANSI)
100
AcDbEllipse
 10
56.45776217388586
 20
38.53457764072377
 30
0.0
 11
-0.0833333333333177
 21
0.0000000000000002
 31
0.0
210
0.0
220
0.0
230
1.0
 40
0.5758617009853141
 41
0.7287125386356559
 42
0.7853981633975416
  0
ELLIPSE
  5
1A0
330
6C
100
AcDbEntity
  8
Visible (ANSI)
100
AcDbEllipse
 10
56.45776217388585
 20
28.30760814036019
 30
0.0
 11
-0.0833333333333333
 21
0.0000000000000018
 31
0.0
210
0.0
220
0.0
230
1.0
 40
0.575861700985305
 41
0.0
 42
0.7853981633975602
  0
LINE
  5
1A1
330
6C
100
AcDbEntity
  8
Visible (ANSI)
100
AcDbLine
 10
56.3399110436881
 20
28.30749913407687
 30
0.0
 11
56.37442884055252
 21
28.32737661129348
 31
0.0
  0
LINE
  5
1A2
330
6C
100
AcDbEntity
  8
Visible (ANSI)
100
AcDbLine
 10
56.37442884055253
 20
38.51480916979047
 30
0.0
 11
56.37442884055252
 21
28.30760814036019
 31
0.0
  0
LINE
  5
1A3
330
6C
100
AcDbEntity
  8
Visible (ANSI)
100
AcDbLine
 10
56.39893088969116
 20
38.50059037181258
 30
0.0
 11
56.398836608787
 21
38.50064466457442
 31
0.0
  0
LINE
  5
1A4
330
6C
100
AcDbEntity
  8
Visible (ANSI)
100
AcDbLine
 10
56.39883660878698
 20
28.27367516421082
 30
0.0
 11
56.39893088969113
 21
28.27362087144898
 31
0.0
  0
LINE
  5
1A5
330
6C
100
AcDbEntity
  8
Visible (ANSI)
100
AcDbLine
 10
56.56325197471013
 20
38.66319112916179
 30
0.0
 11
56.61803030213346
 21
38.69473586996893
 31
0.0
  0
LINE
  5
1A6
330
6C
100
AcDbEntity
  8
Visible (ANSI)
100
AcDbLine
 10
56.64244518925432
 20
38.65789600417168
 30
0.0
 11
56.58286034454715
 21
38.62358337414565
 31
0.0
  0
LINE
  5
1A7
330
6C
100
AcDbEntity
  8
Visible (ANSI)
100
AcDbLine
 10
56.57561330408364
 20
27.23551226210977
 30
0.0
 11
56.3399110436881
 21
27.64375987498804
 31
0.0
  0
DIMENSION
  5
1A8
330
6C
100
AcDbEntity
  8
Dimension (ANSI)
100
AcDbDimension
  2
*D4
 10
11.57533083250962
 20
39.47170744157039
 30
0.0
 11
20.67533083250963
 21
39.47170744157039
 31
0.0
 70
   160
  1
<>
 42
18.2
  3
Default (ANSI)
100
AcDbAlignedDimension
 13
29.77533083250963
 23
35.06225862267275
 33
0.0
 14
11.57533083250962
 24
35.06225862267275
 34
0.0
 50
180.0
100
AcDbRotatedDimension
1001
ACAD
1000
DSTYLE
1002
{
1070
   289
1070
     1
1070
    73
1070
     0
1070
    74
1070
     0
1070
   271
1070
     3
1070
   272
1070
     2
1070
    48
1040
0.0
1070
    47
1040
0.0
1002
}
  0
DIMENSION
  5
295
330
6C
100
AcDbEntity
  8
Dimension (ANSI)
100
AcDbDimension
  2
*D5
 10
5.776118234084429
 20
13.36225862267276
 30
0.0
 11
5.776118234084428
 21
25.38596020273394
 31
0.0
 70
   160
  1
<>
 42
22.19999999999999
  3
Default (ANSI)
100
AcDbAlignedDimension
 13
12.07533083250962
 23
35.56225862267275
 33
0.0
 14
12.07533083250963
 24
13.36225862267275
 34
0.0
 50
270.0
100
AcDbRotatedDimension
1001
ACAD
1000
DSTYLE
1002
{
1070
   289
1070
     1
1070
   271
1070
     3
1070
   272
1070
     2
1070
    48
1040
0.0
1070
    47
1040
0.0
1002
}
  0
DIMENSION
  5
37F
330
6C
100
AcDbEntity
  8
Dimension (ANSI)
100
AcDbDimension
  2
*D6
 10
11.97033083250958
 20
14.09876497361883
 30
0.0
 11
16.89803974639575
 21
9.855042551181398
 31
0.0
 70
   163
  1
<>{\PTYP.(4PL.)}
 42
0.5
  3
Default (ANSI)
100
AcDbDiametricDimension
 15
12.22033083250967
 25
13.66575227172666
 35
0.0
 40
0.0
1001
ACAD_DSTYLE_DIMRADIAL_EXTENSION
1070
   387
1070
     1
1070
   388
1040
0.0
1070
   390
1040
0.0
1001
ACAD
1000
DSTYLE
1002
{
1070
   145
1040
-0.25
1070
   144
1040
1.0
1070
   271
1070
     3
1070
   272
1070
     2
1070
    48
1040
0.0
1070
    47
1040
0.0
1002
}
  0
DIMENSION
  5
439
330
6C
100
AcDbEntity
  8
Dimension (ANSI)
100
AcDbDimension
  2
*D7
 10
11.98484539794922
 20
14.74274405723313
 30
0.0
 11
16.90029768633068
 21
12.30488639977708
 31
0.0
 70
   163
  1
<>{\PTYP.(4PL.)}
 42
0.3125
  3
Default (ANSI)
100
AcDbDiametricDimension
 15
12.20581626707004
 25
14.52177318811237
 35
0.0
 40
0.0
1001
ACAD_DSTYLE_DIMRADIAL_EXTENSION
1070
   387
1070
     1
1070
   388
1040
0.0
1070
   390
1040
0.0
1001
ACAD
1000
DSTYLE
1002
{
1070
   145
1040
-0.25
1070
   144
1040
1.000000000000011
1070
   271
1070
     3
1070
   272
1070
     2
1070
    48
1040
0.0
1070
    47
1040
0.0
1002
}
  0
DIMENSION
  5
4F2
330
6C
100
AcDbEntity
  8
Dimension (ANSI)
100
AcDbDimension
  2
*D8
 10
42.87568291565905
 20
14.24757462949248
 30
0.0
 11
45.24049735369941
 21
14.24757462949248
 31
0.0
 70
   160
  1
 12 GA.\P304 SS
 42
0.09375
  3
Default (ANSI)
100
AcDbAlignedDimension
 13
42.78193291565905
 23
27.38809222226408
 33
0.0
 14
42.87568291565905
 24
27.38809222226408
 34
0.0
 50
180.0
100
AcDbRotatedDimension
1001
ACAD
1000
DSTYLE
1002
{
1070
   289
1070
     1
1070
    73
1070
     0
1070
    74
1070
     0
1070
   145
1040
-0.25
1070
   271
1070
     3
1070
   272
1070
     2
1070
    48
1040
0.0
1070
    47
1040
0.0
1002
}
  0
DIMENSION
  5
5F0
330
6C
100
AcDbEntity
  8
Dimension (ANSI)
100
AcDbDimension
  2
*D9
 10
8.630763903375774
 20
13.88225862267275
 30
0.0
 11
8.630763903375772
 21
23.28402449484198
 31
0.0
 70
   160
  1
<>
 42
21.16
  3
Default (ANSI)
100
AcDbAlignedDimension
 13
12.09533083250963
 23
35.04225862267276
 33
0.0
 14
12.09533083250963
 24
13.88225862267275
 34
0.0
 50
90.0
100
AcDbRotatedDimension
1001
ACAD
1000
DSTYLE
1002
{
1070
   289
1070
     1
1070
   271
1070
     3
1070
   272
1070
     2
1070
    48
1040
0.0
1070
    47
1040
0.0
1002
}
  0
DIMENSION
  5
6DA
330
6C
100
AcDbEntity
  8
Dimension (ANSI)
100
AcDbDimension
  2
*D10
 10
8.484735648209447
 20
13.88225862267275
 30
0.0
 11
9.964420716809266
 21
15.77253837032847
 31
0.0
 70
   160
  1
<>
 42
0.7500000000000018
  3
Default (ANSI)
100
AcDbAlignedDimension
 13
12.09533083250963
 23
14.63225862267275
 33
0.0
 14
12.09533083250963
 24
13.88225862267275
 34
0.0
 50
90.0
100
AcDbRotatedDimension
1001
ACAD
1000
DSTYLE
1002
{
1070
   289
1070
     1
1070
   271
1070
     3
1070
   272
1070
     2
1070
    48
1040
0.0
1070
    47
1040
0.0
1002
}
  0
DIMENSION
  5
7D7
330
6C
100
AcDbEntity
  8
Dimension (ANSI)
100
AcDbDimension
  2
*D11
 10
12.09533083250963
 20
37.90961596704646
 30
0.0
 11
20.67533083250963
 21
37.90961596704646
 31
0.0
 70
   160
  1
<>
 42
17.16
  3
Default (ANSI)
100
AcDbAlignedDimension
 13
29.25533083250963
 23
35.04225862267276
 33
0.0
 14
12.09533083250963
 24
35.04225862267276
 34
0.0
 50
180.0
100
AcDbRotatedDimension
1001
ACAD
1000
DSTYLE
1002
{
1070
   289
1070
     1
1070
    73
1070
     0
1070
    74
1070
     0
1070
   271
1070
     3
1070
   272
1070
     2
1070
    48
1040
0.0
1070
    47
1040
0.0
1002
}
  0
DIMENSION
  5
8C1
330
6C
100
AcDbEntity
  8
Dimension (ANSI)
100
AcDbDimension
  2
*D12
 10
30.38442017987656
 20
13.36225862267275
 30
0.0
 11
31.86410524847638
 21
15.00253837032847
 31
0.0
 70
   160
  1
<>
 42
0.4999999999999983
  3
Default (ANSI)
100
AcDbAlignedDimension
 13
29.77533083250963
 23
13.86225862267275
 33
0.0
 14
29.27533083250963
 24
13.36225862267275
 34
0.0
 50
90.0
100
AcDbRotatedDimension
1001
ACAD
1000
DSTYLE
1002
{
1070
   289
1070
     1
1070
   271
1070
     3
1070
   272
1070
     2
1070
    48
1040
0.0
1070
    47
1040
0.0
1002
}
  0
DIMENSION
  5
9C1
330
6C
100
AcDbEntity
  8
Dimension (ANSI)
100
AcDbDimension
  2
*D13
 10
29.27533083250963
 20
11.50841837087561
 30
0.0
 11
26.92364526346734
 21
11.50841837087561
 31
0.0
 70
   160
  1
<>
 42
0.4999999999999965
  3
Default (ANSI)
100
AcDbAlignedDimension
 13
29.77533083250963
 23
13.86225862267275
 33
0.0
 14
29.27533083250963
 24
13.36225862267275
 34
0.0
 50
180.0
100
AcDbRotatedDimension
1001
ACAD
1000
DSTYLE
1002
{
1070
   289
1070
     1
1070
    73
1070
     0
1070
    74
1070
     0
1070
   271
1070
     3
1070
   272
1070
     2
1070
    48
1040
0.0
1070
    47
1040
0.0
1002
}
  0
DIMENSION
  5
AAB
330
6C
100
AcDbEntity
  8
Dimension (ANSI)
100
AcDbDimension
  2
*D14
 10
29.77533083250963
 20
36.61706177227906
 30
0.0
 11
27.30455262848723
 21
36.61706177227906
 31
0.0
 70
   160
  1
<>
 42
0.5199999999999925
  3
Default (ANSI)
100
AcDbAlignedDimension
 13
29.25533083250963
 23
35.04225862267276
 33
0.0
 14
29.77533083250963
 24
35.06225862267275
 34
0.0
 50
180.0
100
AcDbRotatedDimension
1001
ACAD
1000
DSTYLE
1002
{
1070
   289
1070
     1
1070
    73
1070
     0
1070
    74
1070
     0
1070
   271
1070
     3
1070
   272
1070
     2
1070
    48
1040
0.0
1070
    47
1040
0.0
1002
}
  0
DIMENSION
  5
B95
330
6C
100
AcDbEntity
  8
Dimension (ANSI)
100
AcDbDimension
  2
*D15
 10
32.71474456247271
 20
35.56225862267276
 30
0.0
 11
31.23505949387289
 21
33.9904720188755
 31
0.0
 70
   160
  1
<>
 42
0.5199999999999961
  3
Default (ANSI)
100
AcDbAlignedDimension
 13
29.25533083250963
 23
35.04225862267276
 33
0.0
 14
29.27533083250962
 24
35.56225862267276
 34
0.0
 50
270.0
100
AcDbRotatedDimension
1001
ACAD
1000
DSTYLE
1002
{
1070
   289
1070
     1
1070
   271
1070
     3
1070
   272
1070
     2
1070
    48
1040
0.0
1070
    47
1040
0.0
1002
}
  0
MTEXT
  5
C95
102
{ACAD_XDICTIONARY
360
D8F
102
}
330
6C
100
AcDbEntity
  8
Symbol (ANSI)
100
AcDbMText
 10
31.82674138153428
 20
9.729135314136231
 30
0.0
 40
0.4800000059323048
 41
33.75647514687673
 71
     1
 72
     1
  3
{\fRomanS|b0|i0|c0|p2;\H2x;PART#: NP2420SSC\P(DATA SUBJECT TO CHANGE WITHOUT \H1.4011x; \H0.71374x;NOTICE) \H1.2931x; \H0.77332x;\P\H0.6x;THIS DRAWING IS PROPERTY OF HUBBELL INC. WIEGMANN\H1.2219x; \H0.81839x;\PALL INFORMATION IS PROPRIETARY AND NOT 
  1
TO BE DUPLICATED\H1.0144x; \H0.82154x;\P\H1.0771x; }
  7
Note Text (ANSI)
 73
     1
 44
0.9303776025772094
1001
ACAD
1000
MTEXTBEGIN
1070
    73
1070
     1
1070
    44
1040
0.9303776025772094
1070
    74
1070
     0
1000
MTEXTEND
  0
DIMENSION
  5
C97
330
6C
100
AcDbEntity
  8
Dimension (ANSI)
100
AcDbDimension
  2
*D16
 10
43.55593291565905
 20
37.58194366204283
 30
0.0
 11
40.43024734661676
 21
37.58194366204283
 31
0.0
 70
   160
  1
<>
 42
0.7740000000000009
  3
Default (ANSI)
100
AcDbAlignedDimension
 13
42.78193291565905
 23
35.06225862267275
 33
0.0
 14
43.55593291565905
 24
33.84425862267276
 34
0.0
 50
180.0
100
AcDbRotatedDimension
1001
ACAD
1000
DSTYLE
1002
{
1070
   289
1070
     1
1070
    73
1070
     0
1070
    74
1070
     0
1070
   271
1070
     3
1070
   272
1070
     2
1070
    48
1040
0.0
1070
    47
1040
0.0
1002
}
  0
ENDSEC
  0
SECTION
  2
OBJECTS
  0
DICTIONARY
  5
C
330
0
100
AcDbDictionary
281
     1
  3
ACAD_CIP_PREVIOUS_PRODUCT_INFO
350
D81
  3
ACAD_COLOR
350
63
  3
ACAD_GROUP
350
D
  3
ACAD_LAYOUT
350
62
  3
ACAD_MATERIAL
350
10
  3
ACAD_MLEADERSTYLE
350
66
  3
ACAD_MLINESTYLE
350
5F
  3
ACAD_PLOTSETTINGS
350
61
  3
ACAD_PLOTSTYLENAME
350
E
  3
ACAD_SCALELIST
350
42
  3
ACAD_TABLESTYLE
350
64
  3
ACAD_VISUALSTYLE
350
29
  3
ACDB_RECOMPOSE_DATA
350
D91
  3
AcDbVariableDictionary
350
76
  3
DWGPROPS
350
D92
  0
DICTIONARY
  5
DCE
330
433
100
AcDbDictionary
280
     1
281
     1
  3
ACAD_MTEXT_RT
360
DCF
  0
DICTIONARY
  5
DD0
330
4EC
100
AcDbDictionary
280
     1
281
     1
  3
ACAD_MTEXT_RT
360
DD1
  0
DICTIONARY
  5
D8F
330
C95
100
AcDbDictionary
280
     1
281
     1
  3
ACAD_MTEXT_2008_RT
360
D90
  0
XRECORD
  5
D81
102
{ACAD_REACTORS
330
C
102
}
330
C
100
AcDbXrecord
280
     1
300
INVNTOR
300
2012
300
85795PDSP_2012_0F
  0
DICTIONARY
  5
63
102
{ACAD_REACTORS
330
C
102
}
330
C
100
AcDbDictionary
281
     1
  0
DICTIONARY
  5
D
102
{ACAD_REACTORS
330
C
102
}
330
C
100
AcDbDictionary
281
     1
  0
DICTIONARY
  5
62
102
{ACAD_REACTORS
330
C
102
}
330
C
100
AcDbDictionary
281
     1
  3
Layout1
350
6B
  3
Layout2
350
73
  3
Model
350
6F
  0
DICTIONARY
  5
10
102
{ACAD_REACTORS
330
C
102
}
330
C
100
AcDbDictionary
281
     1
  3
ByBlock
350
19
  3
ByLayer
350
11
  3
Global
350
21
  0
DICTIONARY
  5
66
102
{ACAD_REACTORS
330
C
102
}
330
C
100
AcDbDictionary
281
     1
  3
Standard
350
67
  0
DICTIONARY
  5
5F
102
{ACAD_REACTORS
330
C
102
}
330
C
100
AcDbDictionary
281
     1
  3
Standard
350
60
  0
DICTIONARY
  5
61
102
{ACAD_REACTORS
330
C
102
}
330
C
100
AcDbDictionary
281
     1
  0
ACDBDICTIONARYWDFLT
  5
E
102
{ACAD_REACTORS
330
C
102
}
330
C
100
AcDbDictionary
281
     1
  3
Normal
350
F
100
AcDbDictionaryWithDefault
340
F
  0
DICTIONARY
  5
42
102
{ACAD_REACTORS
330
C
102
}
330
C
100
AcDbDictionary
281
     1
  3
A0
350
43
  3
A1
350
44
  3
A2
350
45
  3
A3
350
46
  3
A4
350
47
  3
A5
350
48
  3
A6
350
49
  3
A7
350
4A
  3
A8
350
4B
  3
A9
350
4C
  3
B0
350
4D
  3
B1
350
4E
  3
B2
350
4F
  3
B3
350
50
  3
B4
350
51
  3
B5
350
52
  3
B6
350
53
  0
DICTIONARY
  5
64
102
{ACAD_REACTORS
330
C
102
}
330
C
100
AcDbDictionary
281
     1
  3
Standard
350
65
  0
DICTIONARY
  5
29
102
{ACAD_REACTORS
330
C
102
}
330
C
100
AcDbDictionary
281
     1
  3
2dWireframe
350
2F
  3
Basic
350
2E
  3
Brighten
350
35
  3
ColorChange
350
39
  3
Conceptual
350
32
  3
Dim
350
34
  3
EdgeColorOff
350
41
  3
Facepattern
350
38
  3
Flat
350
2A
  3
FlatWithEdges
350
2B
  3
Gouraud
350
2C
  3
GouraudWithEdges
350
2D
  3
Hidden
350
31
  3
JitterOff
350
3F
  3
Linepattern
350
37
  3
OverhangOff
350
40
  3
Realistic
350
33
  3
Shaded
350
3E
  3
Shaded with edges
350
3D
  3
Shades of Gray
350
3A
  3
Sketchy
350
3B
  3
Thicken
350
36
  3
Wireframe
350
30
  3
X-Ray
350
3C
  0
XRECORD
  5
D91
102
{ACAD_REACTORS
330
C
102
}
330
C
100
AcDbXrecord
280
     1
 90
        1
330
65
330
C95
  0
DICTIONARY
  5
76
102
{ACAD_REACTORS
330
C
102
}
330
C
100
AcDbDictionary
281
     1
  3
CANNOSCALE
350
79
  3
CMLEADERSTYLE
350
78
  3
CTABLESTYLE
350
77
  3
DIMASSOC
350
D89
  3
HIDETEXT
350
D88
  3
INDEXCTL
350
D87
  3
LAYEREVAL
350
D84
  3
LAYERNOTIFY
350
D85
  3
LIGHTINGUNITS
350
D83
  3
MSLTSCALE
350
D82
  3
SORTENTS
350
D86
  3
XCLIPFRAME
350
D8A
  0
XRECORD
  5
D92
102
{ACAD_REACTORS
330
C
102
}
330
C
100
AcDbXrecord
280
     1
  1
DWGPROPS COOKIE
  2

  3

  4
dnichola
  6

  7

  8

  9
-
300
Manager=
301
Company=
302
Category=
303
Part Number=NP2420SSC-S
304
Description=
305
Project=
306
Designer=dnichola
307
Engineer=
308
Authority=
309
Cost Center=
 40
0.0000358101851852
 41
2455944.611763507
 42
2455944.611763507
  1

 90
       19
300
Vendor=
300
User Status=
300
Design Status=WorkInProgress
300
Checked by=
300
Engr Approved by=
300
Mfg Approved by=
300
DWG. NO=
300
NUMBER OF SHEETS=1
300
DRAWING #=
  0
XRECORD
  5
DCF
102
{ACAD_REACTORS
330
DCE
102
}
330
DCE
100
AcDbXrecord
280
     1
 40
31446.0
  1
\A1;\U+22050.500{\PTYP.(4PL.)}
  0
XRECORD
  5
DD1
102
{ACAD_REACTORS
330
DD0
102
}
330
DD0
100
AcDbXrecord
280
     1
 40
31481.0
  1
\A1;\U+22050.313{\PTYP.(4PL.)}
  0
XRECORD
  5
D90
102
{ACAD_REACTORS
330
D8F
102
}
330
D8F
100
AcDbXrecord
280
     1
 40
3076691.0
  1
\pxsm0.94;{\fRomanS|b0|i0;\H0.9600;PART#: NP2420SSC\P(DATA SUBJECT TO CHANGE WITHOUT NOTICE) \P\fRomanS|b0|i0;\H0.5760;THIS DRAWING IS PROPERTY OF HUBBELL INC. WIEGMANN\PALL INFORMATION IS PROPRIETARY AND NOT TO BE DUPLICATED\fRomanS|b0|i0;\H0.4800;\
  1
P}
  0
LAYOUT
  5
6B
102
{ACAD_XDICTIONARY
360
DC8
102
}
102
{ACAD_REACTORS
330
62
102
}
330
62
100
AcDbPlotSettings
  1

  2

  4

  6

 40
0.0
 41
0.0
 42
0.0
 43
0.0
 44
0.0
 45
0.0
 46
0.0
 47
0.0
 48
0.0
 49
0.0
140
0.0
141
0.0
142
1.0
143
1.0
 70
   688
 72
     0
 73
     0
 74
     5
  7

 75
    16
147
1.0
148
0.0
149
0.0
100
AcDbLayout
  1
Layout1
 70
     1
 71
     1
 10
0.0
 20
0.0
 11
12.0
 21
9.0
 12
0.0
 22
0.0
 32
0.0
 14
0.0
 24
0.0
 34
0.0
 15
0.0
 25
0.0
 35
0.0
146
0.0
 13
0.0
 23
0.0
 33
0.0
 16
1.0
 26
0.0
 36
0.0
 17
0.0
 27
1.0
 37
0.0
 76
     0
330
68
  0
LAYOUT
  5
73
102
{ACAD_XDICTIONARY
360
DCC
102
}
102
{ACAD_REACTORS
330
62
102
}
330
62
100
AcDbPlotSettings
  1

  2

  4

  6

 40
0.0
 41
0.0
 42
0.0
 43
0.0
 44
0.0
 45
0.0
 46
0.0
 47
0.0
 48
0.0
 49
0.0
140
0.0
141
0.0
142
1.0
143
1.0
 70
   688
 72
     0
 73
     0
 74
     5
  7

 75
    16
147
1.0
148
0.0
149
0.0
100
AcDbLayout
  1
Layout2
 70
     1
 71
     2
 10
0.0
 20
0.0
 11
12.0
 21
9.0
 12
0.0
 22
0.0
 32
0.0
 14
0.0
 24
0.0
 34
0.0
 15
0.0
 25
0.0
 35
0.0
146
0.0
 13
0.0
 23
0.0
 33
0.0
 16
1.0
 26
0.0
 36
0.0
 17
0.0
 27
1.0
 37
0.0
 76
     0
330
70
  0
LAYOUT
  5
6F
102
{ACAD_XDICTIONARY
360
DCA
102
}
102
{ACAD_REACTORS
330
62
102
}
330
62
100
AcDbPlotSettings
  1

  2

  4

  6

 40
0.0
 41
0.0
 42
0.0
 43
0.0
 44
0.0
 45
0.0
 46
0.0
 47
0.0
 48
0.0
 49
0.0
140
0.0
141
0.0
142
1.0
143
1.0
 70
  1712
 72
     0
 73
     0
 74
     0
  7

 75
     0
147
1.0
148
0.0
149
0.0
100
AcDbLayout
  1
Model
 70
     1
 71
     0
 10
0.0
 20
0.0
 11
12.0
 21
9.0
 12
0.0
 22
0.0
 32
0.0
 14
0.0
 24
0.0
 34
0.0
 15
0.0
 25
0.0
 35
0.0
146
0.0
 13
0.0
 23
0.0
 33
0.0
 16
1.0
 26
0.0
 36
0.0
 17
0.0
 27
1.0
 37
0.0
 76
     0
330
6C
  0
MATERIAL
  5
19
102
{ACAD_XDICTIONARY
360
1A
102
}
102
{ACAD_REACTORS
330
10
102
}
330
10
100
AcDbMaterial
  1
ByBlock
 72
     0
 43
0.0208333333333333
 43
0.0
 43
0.0
 43
0.0
 43
0.0
 43
0.0208333333333333
 43
0.0
 43
0.0
 43
0.0
 43
0.0
 43
1.0
 43
0.0
 43
0.0
 43
0.0
 43
0.0
 43
1.0
 77
     0
 47
0.0208333333333333
 47
0.0
 47
0.0
 47
0.0
 47
0.0
 47
0.0208333333333333
 47
0.0
 47
0.0
 47
0.0
 47
0.0
 47
1.0
 47
0.0
 47
0.0
 47
0.0
 47
0.0
 47
1.0
171
     0
 49
0.0208333333333333
 49
0.0
 49
0.0
 49
0.0
 49
0.0
 49
0.0208333333333333
 49
0.0
 49
0.0
 49
0.0
 49
0.0
 49
1.0
 49
0.0
 49
0.0
 49
0.0
 49
0.0
 49
1.0
175
     0
142
0.0208333333333333
142
0.0
142
0.0
142
0.0
142
0.0
142
0.0208333333333333
142
0.0
142
0.0
142
0.0
142
0.0
142
1.0
142
0.0
142
0.0
142
0.0
142
0.0
142
1.0
179
     0
144
0.0208333333333333
144
0.0
144
0.0
144
0.0
144
0.0
144
0.0208333333333333
144
0.0
144
0.0
144
0.0
144
0.0
144
1.0
144
0.0
144
0.0
144
0.0
144
0.0
144
1.0
147
0.0208333333333333
147
0.0
147
0.0
147
0.0
147
0.0
147
0.0208333333333333
147
0.0
147
0.0
147
0.0
147
0.0
147
1.0
147
0.0
147
0.0
147
0.0
147
0.0
147
1.0
  0
MATERIAL
  5
11
102
{ACAD_XDICTIONARY
360
12
102
}
102
{ACAD_REACTORS
330
10
102
}
330
10
100
AcDbMaterial
  1
ByLayer
 72
     0
 43
0.0208333333333333
 43
0.0
 43
0.0
 43
0.0
 43
0.0
 43
0.0208333333333333
 43
0.0
 43
0.0
 43
0.0
 43
0.0
 43
1.0
 43
0.0
 43
0.0
 43
0.0
 43
0.0
 43
1.0
 77
     0
 47
0.0208333333333333
 47
0.0
 47
0.0
 47
0.0
 47
0.0
 47
0.0208333333333333
 47
0.0
 47
0.0
 47
0.0
 47
0.0
 47
1.0
 47
0.0
 47
0.0
 47
0.0
 47
0.0
 47
1.0
171
     0
 49
0.0208333333333333
 49
0.0
 49
0.0
 49
0.0
 49
0.0
 49
0.0208333333333333
 49
0.0
 49
0.0
 49
0.0
 49
0.0
 49
1.0
 49
0.0
 49
0.0
 49
0.0
 49
0.0
 49
1.0
175
     0
142
0.0208333333333333
142
0.0
142
0.0
142
0.0
142
0.0
142
0.0208333333333333
142
0.0
142
0.0
142
0.0
142
0.0
142
1.0
142
0.0
142
0.0
142
0.0
142
0.0
142
1.0
179
     0
144
0.0208333333333333
144
0.0
144
0.0
144
0.0
144
0.0
144
0.0208333333333333
144
0.0
144
0.0
144
0.0
144
0.0
144
1.0
144
0.0
144
0.0
144
0.0
144
0.0
144
1.0
147
0.0208333333333333
147
0.0
147
0.0
147
0.0
147
0.0
147
0.0208333333333333
147
0.0
147
0.0
147
0.0
147
0.0
147
1.0
147
0.0
147
0.0
147
0.0
147
0.0
147
1.0
  0
MATERIAL
  5
21
102
{ACAD_XDICTIONARY
360
22
102
}
102
{ACAD_REACTORS
330
10
102
}
330
10
100
AcDbMaterial
  1
Global
 72
     0
 43
0.0208333333333333
 43
0.0
 43
0.0
 43
0.0
 43
0.0
 43
0.0208333333333333
 43
0.0
 43
0.0
 43
0.0
 43
0.0
 43
1.0
 43
0.0
 43
0.0
 43
0.0
 43
0.0
 43
1.0
 77
     0
 47
0.0208333333333333
 47
0.0
 47
0.0
 47
0.0
 47
0.0
 47
0.0208333333333333
 47
0.0
 47
0.0
 47
0.0
 47
0.0
 47
1.0
 47
0.0
 47
0.0
 47
0.0
 47
0.0
 47
1.0
171
     0
 49
0.0208333333333333
 49
0.0
 49
0.0
 49
0.0
 49
0.0
 49
0.0208333333333333
 49
0.0
 49
0.0
 49
0.0
 49
0.0
 49
1.0
 49
0.0
 49
0.0
 49
0.0
 49
0.0
 49
1.0
175
     0
142
0.0208333333333333
142
0.0
142
0.0
142
0.0
142
0.0
142
0.0208333333333333
142
0.0
142
0.0
142
0.0
142
0.0
142
1.0
142
0.0
142
0.0
142
0.0
142
0.0
142
1.0
179
     0
144
0.0208333333333333
144
0.0
144
0.0
144
0.0
144
0.0
144
0.0208333333333333
144
0.0
144
0.0
144
0.0
144
0.0
144
1.0
144
0.0
144
0.0
144
0.0
144
0.0
144
1.0
147
0.0208333333333333
147
0.0
147
0.0
147
0.0
147
0.0
147
0.0208333333333333
147
0.0
147
0.0
147
0.0
147
0.0
147
1.0
147
0.0
147
0.0
147
0.0
147
0.0
147
1.0
  0
MLEADERSTYLE
  5
67
102
{ACAD_XDICTIONARY
360
D8D
102
}
102
{ACAD_REACTORS
330
66
102
}
330
66
100
AcDbMLeaderStyle
170
     2
171
     1
172
     0
 90
        2
 40
0.0
 41
0.0
173
     1
 91
-1056964608
340
5B
 92
       -2
290
     1
 42
0.09
291
     1
 43
0.36
  3
Standard
 44
0.18
300

342
55
174
     1
178
     6
175
     1
176
     0
 93
-1056964608
 45
0.18
292
     0
297
     0
 46
0.18
 94
-1056964608
 47
1.0
 49
1.0
140
1.0
293
     1
141
0.0
294
     1
177
     0
142
1.0
295
     0
296
     0
143
0.125
1001
ACAD_MLEADERVER
1070
     2
  0
MLINESTYLE
  5
60
102
{ACAD_REACTORS
330
5F
102
}
330
5F
100
AcDbMlineStyle
  2
STANDARD
 70
     0
  3

 62
   256
 51
90.0
 52
90.0
 71
     2
 49
0.5
 62
   256
  6
BYLAYER
 49
-0.5
 62
   256
  6
BYLAYER
  0
ACDBPLACEHOLDER
  5
F
102
{ACAD_REACTORS
330
E
102
}
330
E
  0
SCALE
  5
43
102
{ACAD_REACTORS
330
42
102
}
330
42
100
AcDbScale
 70
     0
300
1:1
140
1.0
141
1.0
290
     1
  0
SCALE
  5
44
102
{ACAD_REACTORS
330
42
102
}
330
42
100
AcDbScale
 70
     0
300
1/128" = 1'-0"
140
0.0078125
141
12.0
290
     0
  0
SCALE
  5
45
102
{ACAD_REACTORS
330
42
102
}
330
42
100
AcDbScale
 70
     0
300
1/64" = 1'-0"
140
0.015625
141
12.0
290
     0
  0
SCALE
  5
46
102
{ACAD_REACTORS
330
42
102
}
330
42
100
AcDbScale
 70
     0
300
1/32" = 1'-0"
140
0.03125
141
12.0
290
     0
  0
SCALE
  5
47
102
{ACAD_REACTORS
330
42
102
}
330
42
100
AcDbScale
 70
     0
300
1/16" = 1'-0"
140
0.0625
141
12.0
290
     0
  0
SCALE
  5
48
102
{ACAD_REACTORS
330
42
102
}
330
42
100
AcDbScale
 70
     0
300
3/32" = 1'-0"
140
0.09375
141
12.0
290
     0
  0
SCALE
  5
49
102
{ACAD_REACTORS
330
42
102
}
330
42
100
AcDbScale
 70
     0
300
1/8" = 1'-0"
140
0.125
141
12.0
290
     0
  0
SCALE
  5
4A
102
{ACAD_REACTORS
330
42
102
}
330
42
100
AcDbScale
 70
     0
300
3/16" = 1'-0"
140
0.1875
141
12.0
290
     0
  0
SCALE
  5
4B
102
{ACAD_REACTORS
330
42
102
}
330
42
100
AcDbScale
 70
     0
300
1/4" = 1'-0"
140
0.25
141
12.0
290
     0
  0
SCALE
  5
4C
102
{ACAD_REACTORS
330
42
102
}
330
42
100
AcDbScale
 70
     0
300
3/8" = 1'-0"
140
0.375
141
12.0
290
     0
  0
SCALE
  5
4D
102
{ACAD_REACTORS
330
42
102
}
330
42
100
AcDbScale
 70
     0
300
1/2" = 1'-0"
140
0.5
141
12.0
290
     0
  0
SCALE
  5
4E
102
{ACAD_REACTORS
330
42
102
}
330
42
100
AcDbScale
 70
     0
300
3/4" = 1'-0"
140
0.75
141
12.0
290
     0
  0
SCALE
  5
4F
102
{ACAD_REACTORS
330
42
102
}
330
42
100
AcDbScale
 70
     0
300
1" = 1'-0"
140
1.0
141
12.0
290
     0
  0
SCALE
  5
50
102
{ACAD_REACTORS
330
42
102
}
330
42
100
AcDbScale
 70
     0
300
1-1/2" = 1'-0"
140
1.5
141
12.0
290
     0
  0
SCALE
  5
51
102
{ACAD_REACTORS
330
42
102
}
330
42
100
AcDbScale
 70
     0
300
3" = 1'-0"
140
3.0
141
12.0
290
     0
  0
SCALE
  5
52
102
{ACAD_REACTORS
330
42
102
}
330
42
100
AcDbScale
 70
     0
300
6" = 1'-0"
140
6.0
141
12.0
290
     0
  0
SCALE
  5
53
102
{ACAD_REACTORS
330
42
102
}
330
42
100
AcDbScale
 70
     0
300
1'-0" = 1'-0"
140
12.0
141
12.0
290
     0
  0
TABLESTYLE
  5
65
102
{ACAD_XDICTIONARY
360
D8B
102
}
102
{ACAD_REACTORS
330
64
102
}
330
64
100
AcDbTableStyle
  3
Standard
 70
     0
 71
     0
 40
0.06
 41
0.06
280
     0
281
     0
  7
Standard
140
0.18
170
     2
 62
     0
 63
     7
283
     0
274
    -2
284
     1
 64
     0
275
    -2
285
     1
 65
     0
276
    -2
286
     1
 66
     0
277
    -2
287
     1
 67
     0
278
    -2
288
     1
 68
     0
279
    -2
289
     1
 69
     0
  7
Standard
140
0.25
170
     5
 62
     0
 63
     7
283
     0
274
    -2
284
     1
 64
     0
275
    -2
285
     1
 65
     0
276
    -2
286
     1
 66
     0
277
    -2
287
     1
 67
     0
278
    -2
288
     1
 68
     0
279
    -2
289
     1
 69
     0
  7
Standard
140
0.18
170
     5
 62
     0
 63
     7
283
     0
274
    -2
284
     1
 64
     0
275
    -2
285
     1
 65
     0
276
    -2
286
     1
 66
     0
277
    -2
287
     1
 67
     0
278
    -2
288
     1
 68
     0
279
    -2
289
     1
 69
     0
  0
VISUALSTYLE
  5
2F
102
{ACAD_XDICTIONARY
360
DA0
102
}
102
{ACAD_REACTORS
330
29
102
}
330
29
100
AcDbVisualStyle
  2
2dWireframe
 70
     4
 71
     0
 72
     2
 73
     0
 90
        0
 40
-0.6
 41
-30.0
 62
     5
 63
     7
 74
     1
 91
        4
 64
     7
 65
   257
 75
     1
175
     1
 42
1.0
 92
        0
 66
   257
 43
1.0
 76
     1
 77
     6
 78
     2
 67
     7
 79
     5
170
     0
171
     0
290
     0
174
     0
 93
        1
 44
0.0
173
     0
291
     0
 45
0.0
1001
ACAD
1000
AcDbSavedByObjectVersion
1070
     0
  0
VISUALSTYLE
  5
2E
102
{ACAD_XDICTIONARY
360
D9E
102
}
102
{ACAD_REACTORS
330
29
102
}
330
29
100
AcDbVisualStyle
  2
Basic
 70
     7
 71
     1
 72
     0
 73
     1
 90
        0
 40
-0.6
 41
-30.0
 62
     5
 63
     7
 74
     0
 91
        4
 64
     7
 65
   257
 75
     1
175
     1
 42
1.0
 92
        8
 66
     7
 43
1.0
 76
     1
 77
     6
 78
     2
 67
     7
 79
     5
170
     0
171
     0
290
     0
174
     0
 93
        1
 44
0.0
173
     0
291
     1
 45
0.0
1001
ACAD
1000
AcDbSavedByObjectVersion
1070
     0
  0
VISUALSTYLE
  5
35
102
{ACAD_XDICTIONARY
360
DAC
102
}
102
{ACAD_REACTORS
330
29
102
}
330
29
100
AcDbVisualStyle
  2
Brighten
 70
    12
 71
     2
 72
     2
 73
     0
 90
        0
 40
-0.6
 41
-30.0
 62
     5
 63
     7
 74
     1
 91
        4
 64
     7
 65
   257
 75
     1
175
     1
 42
1.0
 92
        8
 66
     7
 43
1.0
 76
     1
 77
     6
 78
     2
 67
     7
 79
     5
170
     0
171
     0
290
     0
174
     0
 93
        1
 44
50.0
173
     0
291
     1
 45
0.0
1001
ACAD
1000
AcDbSavedByObjectVersion
1070
     0
  0
VISUALSTYLE
  5
39
102
{ACAD_XDICTIONARY
360
DB4
102
}
102
{ACAD_REACTORS
330
29
102
}
330
29
100
AcDbVisualStyle
  2
ColorChange
 70
    16
 71
     2
 72
     2
 73
     3
 90
        0
 40
-0.6
 41
-30.0
 62
     5
 63
     8
 74
     1
 91
        4
 64
     7
 65
   257
 75
     1
175
     1
 42
1.0
 92
        8
 66
     8
 43
1.0
 76
     1
 77
     6
 78
     2
 67
     7
 79
     5
170
     0
171
     0
290
     0
174
     0
 93
        1
 44
0.0
173
     0
291
     1
 45
0.0
1001
ACAD
1000
AcDbSavedByObjectVersion
1070
     0
  0
VISUALSTYLE
  5
32
102
{ACAD_XDICTIONARY
360
DA6
102
}
102
{ACAD_REACTORS
330
29
102
}
330
29
100
AcDbVisualStyle
  2
Conceptual
 70
     9
 71
     3
 72
     2
 73
     0
 90
        0
 40
-0.6
 41
-30.0
 62
     5
 63
     7
 74
     2
 91
        2
 64
     7
 65
   257
 75
     1
175
     1
 42
179.0
 92
        8
 66
     7
 43
1.0
 76
     1
 77
     6
 78
     2
 67
     7
 79
     3
170
     0
171
     0
290
     0
174
     0
 93
        1
 44
0.0
173
     0
291
     0
 45
0.0
1001
ACAD
1000
AcDbSavedByObjectVersion
1070
     0
  0
VISUALSTYLE
  5
34
102
{ACAD_XDICTIONARY
360
DAA
102
}
102
{ACAD_REACTORS
330
29
102
}
330
29
100
AcDbVisualStyle
  2
Dim
 70
    11
 71
     2
 72
     2
 73
     0
 90
        0
 40
-0.6
 41
-30.0
 62
     5
 63
     7
 74
     1
 91
        4
 64
     7
 65
   257
 75
     1
175
     1
 42
1.0
 92
        8
 66
     7
 43
1.0
 76
     1
 77
     6
 78
     2
 67
     7
 79
     5
170
     0
171
     0
290
     0
174
     0
 93
        1
 44
-50.0
173
     0
291
     1
 45
0.0
1001
ACAD
1000
AcDbSavedByObjectVersion
1070
     0
  0
VISUALSTYLE
  5
41
102
{ACAD_XDICTIONARY
360
DC4
102
}
102
{ACAD_REACTORS
330
29
102
}
330
29
100
AcDbVisualStyle
  2
EdgeColorOff
 70
    22
 71
     2
 72
     2
 73
     0
 90
        0
 40
-0.6
 41
-30.0
 62
     5
 63
     7
 74
     1
 91
        4
 64
     7
 65
   257
 75
     1
175
     1
 42
1.0
 92
        8
 66
     7
 43
1.0
 76
     1
 77
     6
 78
     2
 67
     7
 79
     5
170
     0
171
     0
290
     0
174
     0
 93
        1
 44
0.0
173
     0
291
     1
 45
0.0
1001
ACAD
1000
AcDbSavedByObjectVersion
1070
     0
  0
VISUALSTYLE
  5
38
102
{ACAD_XDICTIONARY
360
DB2
102
}
102
{ACAD_REACTORS
330
29
102
}
330
29
100
AcDbVisualStyle
  2
Facepattern
 70
    15
 71
     2
 72
     2
 73
     0
 90
        0
 40
-0.6
 41
-30.0
 62
     5
 63
     7
 74
     1
 91
        4
 64
     7
 65
   257
 75
     1
175
     1
 42
1.0
 92
        8
 66
     7
 43
1.0
 76
     1
 77
     6
 78
     2
 67
     7
 79
     5
170
     0
171
     0
290
     0
174
     0
 93
        1
 44
0.0
173
     0
291
     1
 45
0.0
1001
ACAD
1000
AcDbSavedByObjectVersion
1070
     0
  0
VISUALSTYLE
  5
2A
102
{ACAD_XDICTIONARY
360
D96
102
}
102
{ACAD_REACTORS
330
29
102
}
330
29
100
AcDbVisualStyle
  2
Flat
 70
     0
 71
     2
 72
     1
 73
     1
 90
        2
 40
-0.6
 41
30.0
 62
     5
 63
     7
 74
     0
 91
        0
 64
     7
 65
   257
 75
     1
175
     1
 42
1.0
 92
        8
 66
     7
 43
1.0
 76
     1
 77
     6
 78
     2
 67
     7
 79
     5
170
     0
171
     0
290
     0
174
     0
 93
       13
 44
0.0
173
     0
291
     1
 45
0.0
1001
ACAD
1000
AcDbSavedByObjectVersion
1070
     0
  0
VISUALSTYLE
  5
2B
102
{ACAD_XDICTIONARY
360
D98
102
}
102
{ACAD_REACTORS
330
29
102
}
330
29
100
AcDbVisualStyle
  2
FlatWithEdges
 70
     1
 71
     2
 72
     1
 73
     1
 90
        2
 40
-0.6
 41
30.0
 62
     5
 63
     7
 74
     1
 91
        0
 64
     7
 65
   257
 75
     1
175
     1
 42
1.0
 92
        0
 66
   257
 43
1.0
 76
     1
 77
     6
 78
     2
 67
     7
 79
     5
170
     0
171
     0
290
     0
174
     0
 93
       13
 44
0.0
173
     0
291
     1
 45
0.0
1001
ACAD
1000
AcDbSavedByObjectVersion
1070
     0
  0
VISUALSTYLE
  5
2C
102
{ACAD_XDICTIONARY
360
D9A
102
}
102
{ACAD_REACTORS
330
29
102
}
330
29
100
AcDbVisualStyle
  2
Gouraud
 70
     2
 71
     2
 72
     2
 73
     1
 90
        2
 40
-0.6
 41
30.0
 62
     5
 63
     7
 74
     0
 91
        0
 64
     7
 65
   257
 75
     1
175
     1
 42
1.0
 92
        0
 66
     7
 43
1.0
 76
     1
 77
     6
 78
     2
 67
     7
 79
     5
170
     0
171
     0
290
     0
174
     0
 93
       13
 44
0.0
173
     0
291
     1
 45
0.0
1001
ACAD
1000
AcDbSavedByObjectVersion
1070
     0
  0
VISUALSTYLE
  5
2D
102
{ACAD_XDICTIONARY
360
D9C
102
}
102
{ACAD_REACTORS
330
29
102
}
330
29
100
AcDbVisualStyle
  2
GouraudWithEdges
 70
     3
 71
     2
 72
     2
 73
     1
 90
        2
 40
-0.6
 41
30.0
 62
     5
 63
     7
 74
     1
 91
        0
 64
     7
 65
   257
 75
     1
175
     1
 42
1.0
 92
        0
 66
   257
 43
1.0
 76
     1
 77
     6
 78
     2
 67
     7
 79
     5
170
     0
171
     0
290
     0
174
     0
 93
       13
 44
0.0
173
     0
291
     1
 45
0.0
1001
ACAD
1000
AcDbSavedByObjectVersion
1070
     0
  0
VISUALSTYLE
  5
31
102
{ACAD_XDICTIONARY
360
DA4
102
}
102
{ACAD_REACTORS
330
29
102
}
330
29
100
AcDbVisualStyle
  2
Hidden
 70
     6
 71
     1
 72
     2
 73
     2
 90
        0
 40
-0.6
 41
-30.0
 62
     5
 63
     7
 74
     2
 91
        2
 64
     7
 65
   257
 75
     2
175
     1
 42
40.0
 92
        0
 66
   257
 43
1.0
 76
     1
 77
     6
 78
     2
 67
     7
 79
     3
170
     0
171
     0
290
     0
174
     0
 93
        1
 44
0.0
173
     0
291
     0
 45
0.0
1001
ACAD
1000
AcDbSavedByObjectVersion
1070
     0
  0
VISUALSTYLE
  5
3F
102
{ACAD_XDICTIONARY
360
DC0
102
}
102
{ACAD_REACTORS
330
29
102
}
330
29
100
AcDbVisualStyle
  2
JitterOff
 70
    20
 71
     2
 72
     2
 73
     0
 90
        0
 40
-0.6
 41
-30.0
 62
     5
 63
     7
 74
     1
 91
        4
 64
     7
 65
   257
 75
     1
175
     1
 42
1.0
 92
       10
 66
     7
 43
1.0
 76
     1
 77
     6
 78
     2
 67
     7
 79
     5
170
     0
171
     0
290
     0
174
     0
 93
        1
 44
0.0
173
     0
291
     1
 45
0.0
1001
ACAD
1000
AcDbSavedByObjectVersion
1070
     0
  0
VISUALSTYLE
  5
37
102
{ACAD_XDICTIONARY
360
DB0
102
}
102
{ACAD_REACTORS
330
29
102
}
330
29
100
AcDbVisualStyle
  2
Linepattern
 70
    14
 71
     2
 72
     2
 73
     0
 90
        0
 40
-0.6
 41
-30.0
 62
     5
 63
     7
 74
     1
 91
        4
 64
     7
 65
   257
 75
     7
175
     7
 42
1.0
 92
        8
 66
     7
 43
1.0
 76
     1
 77
     6
 78
     2
 67
     7
 79
     5
170
     0
171
     0
290
     0
174
     0
 93
        1
 44
0.0
173
     0
291
     1
 45
0.0
1001
ACAD
1000
AcDbSavedByObjectVersion
1070
     0
  0
VISUALSTYLE
  5
40
102
{ACAD_XDICTIONARY
360
DC2
102
}
102
{ACAD_REACTORS
330
29
102
}
330
29
100
AcDbVisualStyle
  2
OverhangOff
 70
    21
 71
     2
 72
     2
 73
     0
 90
        0
 40
-0.6
 41
-30.0
 62
     5
 63
     7
 74
     1
 91
        4
 64
     7
 65
   257
 75
     1
175
     1
 42
1.0
 92
        9
 66
     7
 43
1.0
 76
     1
 77
     6
 78
     2
 67
     7
 79
     5
170
     0
171
     0
290
     0
174
     0
 93
        1
 44
0.0
173
     0
291
     1
 45
0.0
1001
ACAD
1000
AcDbSavedByObjectVersion
1070
     0
  0
VISUALSTYLE
  5
33
102
{ACAD_XDICTIONARY
360
DA8
102
}
102
{ACAD_REACTORS
330
29
102
}
330
29
100
AcDbVisualStyle
  2
Realistic
 70
     8
 71
     2
 72
     3
 73
     0
 90
        2
 40
-0.6
 41
30.0
 62
     5
 63
     7
 74
     0
 91
        0
 64
     7
 65
   257
 75
     1
175
     1
 42
1.0
 92
        8
 66
   257
 43
1.0
 76
     1
 77
     6
 78
     2
 67
     7
 79
     3
170
     0
171
     0
290
     0
174
     0
 93
       13
 44
0.0
173
     0
291
     0
 45
0.0
1001
ACAD
1000
AcDbSavedByObjectVersion
1070
     0
  0
VISUALSTYLE
  5
3E
102
{ACAD_XDICTIONARY
360
DBE
102
}
102
{ACAD_REACTORS
330
29
102
}
330
29
100
AcDbVisualStyle
  2
Shaded
 70
    27
 71
     2
 72
     2
 73
     1
 90
        2
 40
-0.6
 41
30.0
 62
     5
 63
     7
 74
     0
 91
        4
 64
     7
 65
   257
 75
     1
175
     1
 42
1.0
 92
        8
 66
   257
 43
1.0
 76
     1
 77
     6
 78
     2
 67
     8
 79
     3
170
     0
171
     0
290
     0
174
     0
 93
        5
 44
0.0
173
     0
291
     0
 45
0.0
1001
ACAD
1000
AcDbSavedByObjectVersion
1070
     0
  0
VISUALSTYLE
  5
3D
102
{ACAD_XDICTIONARY
360
DBC
102
}
102
{ACAD_REACTORS
330
29
102
}
330
29
100
AcDbVisualStyle
  2
Shaded with edges
 70
    26
 71
     2
 72
     2
 73
     1
 90
        2
 40
-0.6
 41
30.0
 62
     5
 63
     7
 74
     1
 91
       10
 64
     7
 65
   257
 75
     2
175
     1
 42
1.0
 92
        8
 66
   257
 43
1.0
 76
     1
 77
     6
 78
     2
 67
     7
 79
     3
170
     0
171
     0
290
     0
174
     0
 93
        5
 44
0.0
173
     0
291
     0
 45
0.0
1001
ACAD
1000
AcDbSavedByObjectVersion
1070
     0
  0
VISUALSTYLE
  5
3A
102
{ACAD_XDICTIONARY
360
DB6
102
}
102
{ACAD_REACTORS
330
29
102
}
330
29
100
AcDbVisualStyle
  2
Shades of Gray
 70
    23
 71
     2
 72
     2
 73
     3
 90
        0
 40
-0.6
 41
-30.0
 62
     5
 63
     7
 74
     2
 91
        2
 64
     7
 65
     7
 75
     1
175
     1
 42
40.0
 92
        8
 66
     7
 43
1.0
 76
     1
 77
     6
 78
     2
 67
     7
 79
     3
170
     0
171
     0
290
     0
174
     0
 93
        1
 44
0.0
173
     0
291
     0
 45
0.0
1001
ACAD
1000
AcDbSavedByObjectVersion
1070
     0
  0
VISUALSTYLE
  5
3B
102
{ACAD_XDICTIONARY
360
DB8
102
}
102
{ACAD_REACTORS
330
29
102
}
330
29
100
AcDbVisualStyle
  2
Sketchy
 70
    24
 71
     1
 72
     2
 73
     2
 90
        0
 40
-0.6
 41
-30.0
 62
     5
 63
     7
 74
     2
 91
        2
 64
     7
 65
     7
 75
     1
175
     1
 42
40.0
 92
       11
 66
     7
 43
1.0
 76
     1
 77
     6
 78
     2
 67
     7
 79
     6
170
     0
171
     0
290
     0
174
     0
 93
        1
 44
0.0
173
     0
291
     0
 45
0.0
1001
ACAD
1000
AcDbSavedByObjectVersion
1070
     0
  0
VISUALSTYLE
  5
36
102
{ACAD_XDICTIONARY
360
DAE
102
}
102
{ACAD_REACTORS
330
29
102
}
330
29
100
AcDbVisualStyle
  2
Thicken
 70
    13
 71
     2
 72
     2
 73
     0
 90
        0
 40
-0.6
 41
-30.0
 62
     5
 63
     7
 74
     1
 91
        4
 64
     7
 65
   257
 75
     1
175
     1
 42
1.0
 92
       12
 66
     7
 43
1.0
 76
     1
 77
     6
 78
     2
 67
     7
 79
     5
170
     0
171
     0
290
     0
174
     0
 93
        1
 44
0.0
173
     0
291
     1
 45
0.0
1001
ACAD
1000
AcDbSavedByObjectVersion
1070
     0
  0
VISUALSTYLE
  5
30
102
{ACAD_XDICTIONARY
360
DA2
102
}
102
{ACAD_REACTORS
330
29
102
}
330
29
100
AcDbVisualStyle
  2
Wireframe
 70
     5
 71
     0
 72
     2
 73
     0
 90
        0
 40
-0.6
 41
-30.0
 62
     5
 63
     7
 74
     1
 91
        4
 64
     7
 65
   257
 75
     1
175
     1
 42
1.0
 92
        0
 66
   257
 43
1.0
 76
     1
 77
     6
 78
     2
 67
     7
 79
     3
170
     0
171
     0
290
     0
174
     0
 93
        1
 44
0.0
173
     0
291
     0
 45
0.0
1001
ACAD
1000
AcDbSavedByObjectVersion
1070
     0
  0
VISUALSTYLE
  5
3C
102
{ACAD_XDICTIONARY
360
DBA
102
}
102
{ACAD_REACTORS
330
29
102
}
330
29
100
AcDbVisualStyle
  2
X-Ray
 70
    25
 71
     2
 72
     2
 73
     1
 90
        1
 40
0.5
 41
-30.0
 62
     5
 63
     7
 74
     1
 91
        0
 64
     7
 65
   257
 75
     1
175
     1
 42
1.0
 92
        8
 66
     7
 43
1.0
 76
     1
 77
     6
 78
     2
 67
     7
 79
     3
170
     0
171
     0
290
     0
174
     0
 93
       13
 44
0.0
173
     0
291
     0
 45
0.0
1001
ACAD
1000
AcDbSavedByObjectVersion
1070
     0
  0
DICTIONARYVAR
  5
79
102
{ACAD_REACTORS
330
76
102
}
330
76
100
DictionaryVariables
280
     0
  1
1:1
  0
DICTIONARYVAR
  5
78
102
{ACAD_REACTORS
330
76
102
}
330
76
100
DictionaryVariables
280
     0
  1
STANDARD
  0
DICTIONARYVAR
  5
77
102
{ACAD_REACTORS
330
76
102
}
330
76
100
DictionaryVariables
280
     0
  1
STANDARD
  0
DICTIONARYVAR
  5
D89
102
{ACAD_REACTORS
330
76
102
}
330
76
100
DictionaryVariables
280
     0
  1
1
  0
DICTIONARYVAR
  5
D88
102
{ACAD_REACTORS
330
76
102
}
330
76
100
DictionaryVariables
280
     0
  1
1
  0
DICTIONARYVAR
  5
D87
102
{ACAD_REACTORS
330
76
102
}
330
76
100
DictionaryVariables
280
     0
  1
0
  0
DICTIONARYVAR
  5
D84
102
{ACAD_REACTORS
330
76
102
}
330
76
100
DictionaryVariables
280
     0
  1
0
  0
DICTIONARYVAR
  5
D85
102
{ACAD_REACTORS
330
76
102
}
330
76
100
DictionaryVariables
280
     0
  1
0
  0
DICTIONARYVAR
  5
D83
102
{ACAD_REACTORS
330
76
102
}
330
76
100
DictionaryVariables
280
     0
  1
2
  0
DICTIONARYVAR
  5
D82
102
{ACAD_REACTORS
330
76
102
}
330
76
100
DictionaryVariables
280
     0
  1
1
  0
DICTIONARYVAR
  5
D86
102
{ACAD_REACTORS
330
76
102
}
330
76
100
DictionaryVariables
280
     0
  1
127
  0
DICTIONARYVAR
  5
D8A
102
{ACAD_REACTORS
330
76
102
}
330
76
100
DictionaryVariables
280
     0
  1
2
  0
DICTIONARY
  5
DC8
330
6B
100
AcDbDictionary
280
     1
281
     1
  3
ACAD_XREC_ROUNDTRIP
360
DC9
  0
DICTIONARY
  5
DCC
330
73
100
AcDbDictionary
280
     1
281
     1
  3
ACAD_XREC_ROUNDTRIP
360
DCD
  0
DICTIONARY
  5
DCA
330
6F
100
AcDbDictionary
280
     1
281
     1
  3
ACAD_XREC_ROUNDTRIP
360
DCB
  0
DICTIONARY
  5
1A
330
19
100
AcDbDictionary
280
     1
281
     1
  3
ACAD_XREC_ROUNDTRIP
360
D94
  3
BUMPTILE
360
1C
  3
DIFFUSETILE
360
1B
  3
OPACITYTILE
360
1F
  3
REFLECTIONTILE
360
1E
  3
REFRACTIONTILE
360
20
  3
SPECULARTILE
360
1D
  0
DICTIONARY
  5
12
330
11
100
AcDbDictionary
280
     1
281
     1
  3
ACAD_XREC_ROUNDTRIP
360
D93
  3
BUMPTILE
360
14
  3
DIFFUSETILE
360
13
  3
FBXASSET
360
109
  3
OPACITYTILE
360
17
  3
REFLECTIONTILE
360
16
  3
REFRACTIONTILE
360
18
  3
SPECULARTILE
360
15
  0
DICTIONARY
  5
22
330
21
100
AcDbDictionary
280
     1
281
     1
  3
ACAD_XREC_ROUNDTRIP
360
D95
  3
BUMPTILE
360
24
  3
DIFFUSETILE
360
23
  3
FBXASSET
360
BA
  3
OPACITYTILE
360
27
  3
REFLECTIONTILE
360
26
  3
REFRACTIONTILE
360
28
  3
SPECULARTILE
360
25
  0
DICTIONARY
  5
D8D
330
67
100
AcDbDictionary
280
     1
281
     1
  3
ACAD_XREC_ROUNDTRIP
360
D8E
  0
DICTIONARY
  5
D8B
330
65
100
AcDbDictionary
280
     1
281
     1
  3
ACAD_ROUNDTRIP_2008_TABLESTYLE_CELLSTYLEMAP
360
D8C
  3
ACAD_XREC_ROUNDTRIP
360
DC6
  0
DICTIONARY
  5
DA0
330
2F
100
AcDbDictionary
280
     1
281
     1
  3
ACAD_XREC_ROUNDTRIP
360
DA1
  0
DICTIONARY
  5
D9E
330
2E
100
AcDbDictionary
280
     1
281
     1
  3
ACAD_XREC_ROUNDTRIP
360
D9F
  0
DICTIONARY
  5
DAC
330
35
100
AcDbDictionary
280
     1
281
     1
  3
ACAD_XREC_ROUNDTRIP
360
DAD
  0
DICTIONARY
  5
DB4
330
39
100
AcDbDictionary
280
     1
281
     1
  3
ACAD_XREC_ROUNDTRIP
360
DB5
  0
DICTIONARY
  5
DA6
330
32
100
AcDbDictionary
280
     1
281
     1
  3
ACAD_XREC_ROUNDTRIP
360
DA7
  0
DICTIONARY
  5
DAA
330
34
100
AcDbDictionary
280
     1
281
     1
  3
ACAD_XREC_ROUNDTRIP
360
DAB
  0
DICTIONARY
  5
DC4
330
41
100
AcDbDictionary
280
     1
281
     1
  3
ACAD_XREC_ROUNDTRIP
360
DC5
  0
DICTIONARY
  5
DB2
330
38
100
AcDbDictionary
280
     1
281
     1
  3
ACAD_XREC_ROUNDTRIP
360
DB3
  0
DICTIONARY
  5
D96
330
2A
100
AcDbDictionary
280
     1
281
     1
  3
ACAD_XREC_ROUNDTRIP
360
D97
  0
DICTIONARY
  5
D98
330
2B
100
AcDbDictionary
280
     1
281
     1
  3
ACAD_XREC_ROUNDTRIP
360
D99
  0
DICTIONARY
  5
D9A
330
2C
100
AcDbDictionary
280
     1
281
     1
  3
ACAD_XREC_ROUNDTRIP
360
D9B
  0
DICTIONARY
  5
D9C
330
2D
100
AcDbDictionary
280
     1
281
     1
  3
ACAD_XREC_ROUNDTRIP
360
D9D
  0
DICTIONARY
  5
DA4
330
31
100
AcDbDictionary
280
     1
281
     1
  3
ACAD_XREC_ROUNDTRIP
360
DA5
  0
DICTIONARY
  5
DC0
330
3F
100
AcDbDictionary
280
     1
281
     1
  3
ACAD_XREC_ROUNDTRIP
360
DC1
  0
DICTIONARY
  5
DB0
330
37
100
AcDbDictionary
280
     1
281
     1
  3
ACAD_XREC_ROUNDTRIP
360
DB1
  0
DICTIONARY
  5
DC2
330
40
100
AcDbDictionary
280
     1
281
     1
  3
ACAD_XREC_ROUNDTRIP
360
DC3
  0
DICTIONARY
  5
DA8
330
33
100
AcDbDictionary
280
     1
281
     1
  3
ACAD_XREC_ROUNDTRIP
360
DA9
  0
DICTIONARY
  5
DBE
330
3E
100
AcDbDictionary
280
     1
281
     1
  3
ACAD_XREC_ROUNDTRIP
360
DBF
  0
DICTIONARY
  5
DBC
330
3D
100
AcDbDictionary
280
     1
281
     1
  3
ACAD_XREC_ROUNDTRIP
360
DBD
  0
DICTIONARY
  5
DB6
330
3A
100
AcDbDictionary
280
     1
281
     1
  3
ACAD_XREC_ROUNDTRIP
360
DB7
  0
DICTIONARY
  5
DB8
330
3B
100
AcDbDictionary
280
     1
281
     1
  3
ACAD_XREC_ROUNDTRIP
360
DB9
  0
DICTIONARY
  5
DAE
330
36
100
AcDbDictionary
280
     1
281
     1
  3
ACAD_XREC_ROUNDTRIP
360
DAF
  0
DICTIONARY
  5
DA2
330
30
100
AcDbDictionary
280
     1
281
     1
  3
ACAD_XREC_ROUNDTRIP
360
DA3
  0
DICTIONARY
  5
DBA
330
3C
100
AcDbDictionary
280
     1
281
     1
  3
ACAD_XREC_ROUNDTRIP
360
DBB
  0
XRECORD
  5
DC9
102
{ACAD_REACTORS
330
DC8
102
}
330
DC8
100
AcDbXrecord
280
     1
102
SHADEPLOT
 70
     0
102
SHADEPLOTRESLEVEL
 70
     2
102
SHADEPLOTCUSTOMDPI
 70
   300
  0
XRECORD
  5
DCD
102
{ACAD_REACTORS
330
DCC
102
}
330
DCC
100
AcDbXrecord
280
     1
102
SHADEPLOT
 70
     0
102
SHADEPLOTRESLEVEL
 70
     2
102
SHADEPLOTCUSTOMDPI
 70
   300
  0
XRECORD
  5
DCB
102
{ACAD_REACTORS
330
DCA
102
}
330
DCA
100
AcDbXrecord
280
     1
102
SHADEPLOT
 70
     0
102
SHADEPLOTRESLEVEL
 70
     2
102
SHADEPLOTCUSTOMDPI
 70
   300
  0
XRECORD
  5
D94
102
{ACAD_REACTORS
330
1A
102
}
330
1A
100
AcDbXrecord
280
     1
102
MATERIAL
148
0.0
149
0.0
149
0.0
 93
        0
 94
      127
282
     0
 72
     0
 77
     0
171
     0
175
     0
179
     0
273
     0
  0
XRECORD
  5
1C
102
{ACAD_REACTORS
330
1A
102
}
330
1A
100
AcDbXrecord
280
     1
270
     1
271
     1
  0
XRECORD
  5
1B
102
{ACAD_REACTORS
330
1A
102
}
330
1A
100
AcDbXrecord
280
     1
270
     1
271
     1
  0
XRECORD
  5
1F
102
{ACAD_REACTORS
330
1A
102
}
330
1A
100
AcDbXrecord
280
     1
270
     1
271
     1
  0
XRECORD
  5
1E
102
{ACAD_REACTORS
330
1A
102
}
330
1A
100
AcDbXrecord
280
     1
270
     1
271
     1
  0
XRECORD
  5
20
102
{ACAD_REACTORS
330
1A
102
}
330
1A
100
AcDbXrecord
280
     1
270
     1
271
     1
  0
XRECORD
  5
1D
102
{ACAD_REACTORS
330
1A
102
}
330
1A
100
AcDbXrecord
280
     1
270
     1
271
     1
  0
XRECORD
  5
D93
102
{ACAD_REACTORS
330
12
102
}
330
12
100
AcDbXrecord
280
     1
102
MATERIAL
148
0.0
149
0.0
149
0.0
 93
        0
 94
      127
282
     0
 72
     0
 77
     0
171
     0
175
     0
179
     0
273
     0
  0
XRECORD
  5
14
102
{ACAD_REACTORS
330
12
102
}
330
12
100
AcDbXrecord
280
     1
270
     1
271
     1
  0
XRECORD
  5
13
102
{ACAD_REACTORS
330
12
102
}
330
12
100
AcDbXrecord
280
     1
270
     1
271
     1
  0
XRECORD
  5
109
102
{ACAD_REACTORS
330
12
102
}
330
12
100
AcDbXrecord
280
     1
 70
     1
 90
1959938040
 71
     1
  1
2425F614-B7B7-48EE-8970-1E11E5DAB8BC
311
504B03040A00000800001D7531403DEE336E79000000790000001B0000006175746F6465736B2D64657369676E2D7061636B6167652E786D6C3C3F786D6C2076657273696F6E3D22312E302220656E636F64696E673D227574662D3822203F3E3C666F726D6174733E3C666F726D61743E687474703A2F2F736368656D612E
311
6175746F6465736B2E636F6D2F64657369676E2D7061636B6167652F323030393C2F666F726D61743E3C2F666F726D6174733E504B03041400060808001D753140D486FD9CA0000000F4000000130000005B436F6E74656E745F54797065735D2E786D6C7D8EC10E82300C865F65E91D8A1E8C310C0EEA1BF002731658846E
311
D98AC1B77784ABF1D8FE5FBFBF75BBCE937A534CCEB38643598122B6FEE978D0B0485F9C41B54DDD7D022595594E1A469170414C76A4D9A4D207E29CF43ECE46F218070CC6BECC4078ACAA135ACF422C856C0E68EA1BF5669944DDD7BCDE7B1F8E415D77AECB980613C2E4AC91FC167A2B244592486606FC29C8FD7F045B9A
311
EF7053A7E60B504B03041400060808001D75314076D8662EEA0000007C01000008000000636F72652E786D6C8D90D16E842010457F85CC3B0A6A5935C826B4F50BFA0304594B760523D0F4F38BBB6ED2BEF5692677EE99995C7EFE5E6EE8CB6CC17A37002D0820E3B49FAC9B0748F1825B4067C137EFE32F1B20A71633C02E
311
83E0F3E6D37A48DABB685CCCAAF393394415828980F42D370304FD691655A814B3235C8B55E9AB9A4D419F5D8653B2137A1CB153DE672FD66C204EAC612DAB25EE3A4A7033BED6B8956F23AEA56C187BEF46D9495EEEB0E0D12ECFFB7A332A9A094445688509C5F4F4419BBE21FD4B8B09EB09E1E56EFF03A575FA2794AC8B
311
7575BCFBC002089A1FB90F042FF72C72B90795EB9E9BF801504B03041400060808001D75314055019EA25F0000007C00000007000000636E782E786D6C4DCB3B0E80201045D1AD90E915ED2CF8AC45050C11660C8261F98AB1B07AC9C97D42D718D865D3E909258CFD00CCE24AC6E326A164D74DC0B4128928FF326038472B
311
A13128B1252AC747C6BAB984FC68F0B87FE8960A5C09FE86CFB69FBA01504B03041400060808001D75314082A41AAE67010000020300000C0000006662782F636F72652E786D6C8D525B6E833010BC8AE57F63F32821917124DAE604BD80030E45011B191BE5F85D1E114D15451592B16676766707F8F1D6B5685476688CCE
311
7118308C942E4DD5E83AC7DE5D4886D151706B8CFB558691969DCAF10463C16B6B7CBF42A5D14E6907A836955A41390CCA6154B670C9F1507EAB4E06D23BA818AE412FCBABAC55100640439DE083B360002D43A6138BCBF9C6E9820BEE7D53AD6C53C1B4E6D2288BC52E4DD22C8D0BB2DF878C24A7F79864C5C789C44591A4
311
E9E7FE54EC0B4E27B1E0AEE9EEEE4AABA4531516110B23C24212EEBEC2E490B0C35B46587A608CD3A9FC41E4FBEA9F22DF681747ABDD45366011829199F8B32D44E4D02047F04305A75388F09A137E0C1A0281909D3CB7F73DAE008DAA74C626C054C66FD4285BAF602A43F3C3E9C242E7B9016CF6B44FF4A2CFEB1EF001A5
311
AEC19A74703D7B374DE7CBD4358A5E5932BA1BD2C676B2DDCC2D16B7731BF4545E9AD6D8FFA8E9BA2A5DC3A4D3DF2B7E00504B03041400060808001D75314012EDDC6F7E0000009D0000000B0000006662782F636E782E786D6C4DCCD10A83201886E15B91FFDCB54A468119E99FF711CB42663A9C8E5DFE6A74B0A30F1E3E
311
5EDE7F3647DE26BE6CF01D94972B10E3EF61B67EED20A78536407AC16308E9EF06C44F9BE9E060107C8D213F4F9ACD3265977675D63F4E441C5A398C3565522BCAD48854B2A6A54AD6BA44BC31D415148217BFD2BE47587C01504B03041400060808001D75314065B8979B2D01000014020000310000006662782F44444139
311
424145332D344246432D344345442D423438392D4342334631444436344446322F636F72652E786D6C8D51DB8EC22014FC15C293FB400B156B6B28C65AFD82FD810AE8122D345C367EFED26D4D76DF7CE19039337326E7B0FD7378806FE5BCB6A68124C3102823ACD4E6D6C018AEA88260CF99B336FCA14160FA4135708221
311
673767E3B840C29AA04C48A8B1522D60EFBD0A108847FA34D08B2F35F4591F4362F87B36F6E2DEDF5446B2D44E3CCE7C70290098874C2FE45D77A8DBC3698D687B3E227A3C75A8A5558D8EEDFA4CBAAEA4DDB960F92CE42C462D17B996298EBE6AE5DE3599C49C053DBCE20BA7FAA024E4052605C20491ED27A13B8A779B0A
311
E1728731CB27FA3F511CE59BA2A84D58174BDC59E621272C9F1B9C491B2F8F5718F51CAD0B609AB7F24A7C408E334CEA6D45ABB480999A16903C4BBA78FA605D5AF0EA7E496CB2998D4BCA593EDD2895DF03A63ADD93FF00504B03041400060808001D7531403F3951A54D01000033030000300000006662782F4444413942
311
4145332D344246432D344345442D423438392D4342334631444436344446322F636E782E786D6CD593CD6E022114855F85B09F1FECD41AC360D2459FA08B6E11AE4A6560C24F53DFBE1745EBC64597DD90C9B987736EBE307CF33D59F205211AEF46CADA9E1270CA6BE3F623CD69D7AC28D9081EBC4F77364A9C9C60A445A6
311
82EF83CF739534EC64B609556BDCB18A01A2CF414144B9DC24D62B6931005C935184690B5A832637237EED20E02A286E4F241D80BCBD7E10BFFD049522EF4A8AE05DE910BC9CB5E9CE4489B232C69146758049B63227AF211E5B2D936C597BED7AB0D36F122917AE95391852CA475A4E2AEA462D72E41D0E058F2920BD6A4A
311
A719A890F36C8D9209217767E3C52378362E2D87EA35083EA09B2D9F8601C3CE33C19399A03A5400994053B1E8D9A2E959C35EDED9B01EFAF5F3AAE997EBBEE75DB10BBEF5DED64B1803C1CF447997C0252A18EFCAF811BEEA23DA0464EDC3E90F2011406DBDD0B965FC673EDDF97D23AE807F81F801504B03041400060808
311
001D75314061EB0A159D0500007B100000340000006662782F44444139424145332D344246432D344345442D423438392D4342334631444436344446322F6F626A656374732E786D6CAD575D739B3814FD2B0CFB0C18DB69921D4227B6938E67376DA79E76F621331E018268233E4612A9B3BF7E8F406070EDD4BBD3174042
311
BABAF7DC733F14BCDFE5DC7AA142B2B2B8B17D77625BB488CB8415D98D5DABD4B9B2ADF76120CA520D96D95641727A63EB693B0C3251D695994A684A6AAE0E66EF177F5932A605B5AD9813296F6C193FD19CB8A4566542E5B39B1045DC2CDDB9BEDB2E1C8BCD04A99E0E845644D0424153CC179062B54AF9E3E1C4F6C2C0D3
311
FFC3403FCDAAD9E9555E63CFF87C5648458AF887C30EC4CCFCF9EA6E7A71ED5CCCE73367FE6EEA3B8BFBC5CAF12F6793E5BBE5F2FAF6EE1A074B2520C96822686A871F808D6071E0B5BFC2A066859A4DCD12E3204FD017A63D658753CB0FBC764D6F9D31F298FA715914346EB0021A8D7D4674422B5A24F039A3129A0D109A
311
8C87BEC671F07BA6C7E6C8E1F479080C770C0475BA77EFA1A665F4374C90E7304848AA19D862690C6DB93AD9231C952537FF98B472A2A860845B9C458288573BC452BD240C46623493858E066D811DC20BEDEF315D10463FE7F9312DD39A734D633B6CA2608B58A14A369AB17FA8D86B3F44063AC1579A0D57C620F55A513B
311
BC6E297275C0A616482BE52483CB61A6DE399B1E18BAD471BA5ED9E11FF7D16EA363F7F8E195282B2A94A60FA8D539AE7B6B948C4EFE599ED31BEC0355F6A07C01F21F11EA7B55E037C176F3DDDC9CA20429645A8A1CBEB1269633C16362F9CD537F0FBE02AFDF3CF6DE293CE16C0DD52FC0736CC3D0970338C3E005842FC5
311
CC98B6890947DA78600500D224B1788929E4E134DAD9E11A590E5919BB080F7D980C755FF01978460C124573D2E05D00CB83B4784682066C0D23A1464B7EA3E0DE4F3FA4B3E660B3EC14BC17BF84AEB7ABCD1F9B5AA424A60F26A6573465055328717BDE0C151A613EB2E899BE7E2F4502437FC47B33C43B374749A0AD31D7
311
C0675D4ED783FDC9A30362ECCB4A9D6E829F9C002374611DC87F6032A69C9382967577EE9BF50365A3855807BB66725F60F68505A469FF1CC4208A742C58A541ECAB559F34DD13D67D5D7F0423ED70F1FA27791D66AF689F7BE39297621BBD6EDBB47414EA6F636E1B0C3C2D05746F82A48B7F03FA3661695A4B24C123B87E
311
5B2F87BED3690129A293DA46CB1CF623B88830A4EDE4A25A0B824A5A165B86BA89B83B7AC0503E20350C68049ED258529E6E19E775BE4D194735DAE6A43A01C7FFD73FAAF36A4BF2B22ED409D923D5511DC6BA8FD82BBF13153FD9E1A6793B0BE4DE842627C8A06BC911AC46AE9DCEA717F7EFFCB9B3B85C5C3AF3ABBB3BE7
311
EAFA72E2F877BE7F77B1BA5D5C2D60BAD1A869A2C2A02B35C388869750DA825A30E3BEAF6BC48F490276F840947CFCD08667F7FEBA76D10B071EF6A05EF61B6F9317F47D34F9B980FDCAA382D679C5694E0B45740C3DE80FFE85A0CF1829D3CEAF7392D133A47CFAB03930063367ECFBACE39D7E3FD86B66973A208F0A514F
311
751E1584F1838D598BA45B1599C1AFF349FF6E0B4D37D423E31874A6B2E42C411E4CAC8C963955C886671421915309EA0D7BFAC4DC3DCED8FDD276888A449C769A3C1134C95C222C40F23A56E379EB373475BAAFBAB1516EDD673C4CA6B02D70E6C64693AE584CA51BA140EB56A8110E2E0D3B797096141947AFDD6EEAC7FD
311
2E8DCDA824F74BCEE99F8C5D6D0A3706208D54E81BD010C13B8D3261D0E866FEC7FFC9F04E1D8B287C46B5EA6DD94FF4C634C720445BA3CC6D014DCCB3397A87407DDB2CDF6DD68C1039EB96F526095AA98E22226B6E0A5A3FA3D2EDEAB3870EC55A7FB22A5E67F0E5F9921C4141E65A073858045618991551A0EAF2F7C7CF
311
A2C44D36B7EE1928F0B82CF3BC2CCCE0D6DC84ADCD13EEB5C923D202D51712F9389DF8D3C7E62260EE26DB8848EA92443E63023E15AC8778E47830B2BD2DA202B53FFA759E76C20137D72BCB94B439841AA20CB3AA86052D47412D448FBE4CEA58192EA8DEBC0B78CD52A820D0C587FF02504B03041400060800001D753140
311
000000000000000000000000350000006662782F44444139424145332D344246432D344345442D423438392D4342334631444436344446322F76657274696365732E62696E504B03041400060808001D753140F270F1330600000004000000360000006662782F44444139424145332D344246432D344345442D423438392D
311
4342334631444436344446322F747269616E676C65732E62696E636660600000504B03041400060800001D753140000000000000000000000000370000006662782F44444139424145332D344246432D344345442D423438392D4342334631444436344446322F617474726962757465732E62696E504B0304140006080800
311
1D753140D5987DFC8F00000041010000360000006662782F44444139424145332D344246432D344345442D423438392D4342334631444436344446322F6469726563746F72792E786D6C858F410EC2201045AF4266AF15DDB800BA74E7C21B903225242D6328188F2FA5C4183471359997F9FF81E89FF3C41E1816475E02DF
311
1F80A11FC8386F25A438EECEC07A250251FC3803E6F58C12560C4AD840E95E91C151A72936F496F35732D860FE635F62C8F2DA16B505C545B74125BAA2FA9E05D7CC053D063734D5C7665FD55B6B8D15D5E9BFEAFD8490FFA45E504B03041400060808001D7531401E323B1FFD000000A00100003B0000006662782F444441
311
39424145332D344246432D344345442D423438392D4342334631444436344446322F7265736F75726365732F636F72652E786D6C8D504B6E833010BD0A9ABDC1064A001947A56D4ED00B586642AD041BF953F5F835814AEDAE9B99D1FB689E1E3F7F2DF7EC139DD7D60CC0720A191A65276DE60162B89216B2B3E0CEDAF04B
311
0699910B0EB0C120F8EC6C5C0F485913D084841A3BE1014AEF3140A6EEE918C0AB0F5C642E63480A7FCB57A96E72C69CE5894E3AC17D702940B63FD9260887DE46A7D0F36267058F514F87464FE9A7BE6A74204E4DDDB44DF54CBA8E51525F5E2AD28EAF17528D63DD346FDD65EC465E6C66C1835E7E322A8732E004A2A4AC
311
249411767A67755FD3FEA925B4E929E5C526FF638AEBF44F53D42654E51177B779102C05791082175B5F693DCA4C7BEB567C03504B010214000A00000800001D7531403DEE336E79000000790000001B00000000000000000000000000000000006175746F6465736B2D64657369676E2D7061636B6167652E786D6C504B01
311
0214001400060808001D753140D486FD9CA0000000F40000001300000000000000000000000000B20000005B436F6E74656E745F54797065735D2E786D6C504B010214001400060808001D75314076D8662EEA0000007C010000080000000000000000000000000083010000636F72652E786D6C504B010214001400060808
311
001D75314055019EA25F0000007C000000070000000000000000000000000093020000636E782E786D6C504B010214001400060808001D75314082A41AAE67010000020300000C00000000000000000000000000170300006662782F636F72652E786D6C504B010214001400060808001D75314012EDDC6F7E0000009D0000
311
000B00000000000000000000000000A80400006662782F636E782E786D6C504B010214001400060808001D75314065B8979B2D0100001402000031000000000000000000000000004F0500006662782F44444139424145332D344246432D344345442D423438392D4342334631444436344446322F636F72652E786D6C504B
311
010214001400060808001D7531403F3951A54D010000330300003000000000000000000000000000CB0600006662782F44444139424145332D344246432D344345442D423438392D4342334631444436344446322F636E782E786D6C504B010214001400060808001D75314061EB0A159D0500007B10000034000000000000
311
00000000000000660800006662782F44444139424145332D344246432D344345442D423438392D4342334631444436344446322F6F626A656374732E786D6C504B010214001400060800001D7531400000000000000000000000003500000000000000000000000000550E00006662782F44444139424145332D344246432D
311
344345442D423438392D4342334631444436344446322F76657274696365732E62696E504B010214001400060808001D753140F270F13306000000040000003600000000000000000000000000A80E00006662782F44444139424145332D344246432D344345442D423438392D4342334631444436344446322F747269616E
311
676C65732E62696E504B010214001400060800001D7531400000000000000000000000003700000000000000000000000000020F00006662782F44444139424145332D344246432D344345442D423438392D4342334631444436344446322F617474726962757465732E62696E504B010214001400060808001D753140D598
311
7DFC8F000000410100003600000000000000000000000000570F00006662782F44444139424145332D344246432D344345442D423438392D4342334631444436344446322F6469726563746F72792E786D6C504B010214001400060808001D7531401E323B1FFD000000A00100003B000000000000000000000000003A1000
311
006662782F44444139424145332D344246432D344345442D423438392D4342334631444436344446322F7265736F75726365732F636F72652E786D6C504B0506000000000E000E0080040000901100000000
310
504B03040A00000800001D7531403DEE336E79000000790000001B0000006175746F6465736B2D64657369676E2D7061636B6167652E786D6C3C3F786D6C2076657273696F6E3D22312E302220656E636F64696E673D227574662D3822203F3E3C666F726D6174733E3C666F726D61743E687474703A2F2F736368656D612E
310
6175746F6465736B2E636F6D2F64657369676E2D7061636B6167652F323030393C2F666F726D61743E3C2F666F726D6174733E504B03041400060808001D753140D486FD9CA0000000F4000000130000005B436F6E74656E745F54797065735D2E786D6C7D8EC10E82300C865F65E91D8A1E8C310C0EEA1BF002731658846E
310
D98AC1B77784ABF1D8FE5FBFBF75BBCE937A534CCEB38643598122B6FEE978D0B0485F9C41B54DDD7D022595594E1A469170414C76A4D9A4D207E29CF43ECE46F218070CC6BECC4078ACAA135ACF422C856C0E68EA1BF5669944DDD7BCDE7B1F8E415D77AECB980613C2E4AC91FC167A2B244592486606FC29C8FD7F045B9A
310
EF7053A7E60B504B03041400060808001D75314054559598E90000007C01000008000000636F72652E786D6C8D90D18E832010457F85CC3B0A2A681AA44937FA05FB0304A94B5AC10834FBF98BAD4D76DFF6692677EE99995C71FE5EEEE861B660BDEB8116049071DA4FD6CD3DA478C51DA0B3149BF7F1970D90538BE96197
310
418A79F3693D24ED5D342E66D5F9C91CA20AC14440FA9E9B1E82FE328B2A548AD9116EC5AAF44DCDA6A0EF2EC329D909BD8ED829EFB3576B3690F530D697868F98B18AE1A6E21C7794B5781C3E3869EB0B67E320CA1D9622DAE57D5F6F46453381AC08AD30A198B69FB43935E4C43A4CF8891051EEF63F505AA77F42C9BA58
310
57C7BB2F2C80A4F991E7408A72CF22976750B9EEB9C91F504B03041400060808001D75314055019EA25F0000007C00000007000000636E782E786D6C4DCB3B0E80201045D1AD90E915ED2CF8AC45050C11660C8261F98AB1B07AC9C97D42D718D865D3E909258CFD00CCE24AC6E326A164D74DC0B4128928FF326038472BA1
310
3128B1252AC747C6BAB984FC68F0B87FE8960A5C09FE86CFB69FBA01504B03041400060808001D7531401006E8F065010000020300000C0000006662782F636F72652E786D6C8D52ED8A8330107C9590FF31F1B3A5C4147AD427B8174835F5A49A484CA48F7FEB47F17A945284186676766747F9F1DEB5685476688CCE7118
310
308C942E4DD5E83AC7DE5DC91EA3A3E0D618F7A70C232D3B95E309C682D7D6F87E854AA39DD20E506D2AB582721894C3A86CE192E3A1FC519D0CA4775031DC825E963759AB200C80863AC10767C1005A864C2716D7CB9DD30517DCFBA65AD9A68269CDB551168BF85CC4A7242B489A462949A22C23FB30DD91E2FC95B15D7C
310
CAD2E2CCE92416DC35DDC35D699574AAC2226261445848C2DD77981C127648F7846507C6389DCA9F44BEAF3E14F946BB385AED2EB2018B108CCCC4BF6D2122870639821F2A389D4284D79CF073D0100884ECE4A57DEC71036854A5333601A6327EA346D97A0553199A1F4E17163ACF0D60B3977DA2377DDEF7800F28750DD6
310
A483EBC5BB693A5FA6AE51F4CA92D1DD9136B693ED666EB1B89DDBA097F2D2B4C67EA2A6EBAA740D934E7FAFF805504B03041400060808001D753140ED40530B7E0000009D0000000B0000006662782F636E782E786D6C4DCCD10AC2201886E15B91FFDCE6CADA2FA8A364DEC7686E484EC35C74F96DB1838E3E78F87865FB
310
990379BBFCF2292AA80F0C888BF734F8382958CA481148AB654EA9FCDD80C47E760A36062DA79C96E74E831BFB259455838F8F1DCF965DF8A93BD2CE20A79CD7825E9135543468D01ABC592BA0D2B2FA95D6DDC2FA0B504B03041400060808001D753140C4BAC4D62B01000014020000310000006662782F35463036343345
310
322D454338342D343431392D413830372D3937384338464338424646392F636F72652E786D6C8D51CB6EC32010FC158B537AC0069B3838C2446D147F417F8000495162B07854F9FCE2DA91DA5B2E2C9A9D991DEDB2C363BC17DFDA07E36C0F708940A1AD74CAD86B0F52BC400A8A0367DEB9F887060A2B46DD8319069C5DBD
310
4BD30A4967A3B631A3D629BD8222041D4121EFF9D38320BFF4284A916266845B39097913575DE232B7338FB3107D0E502C43E617F0ED805AD29C6A783A520209C11D7CA76807BB1D3DD2E1483F86A163D522E42C25A356B951398EB918ED5F3599C59C45333EE34BAF45D40AF01AE11A220CF1EE13933D41FB2D85A8DD23C4
310
AA99FE4F9426F5A228191B9B7A8DBBC802E098554B8333E5D2F9FE0CA31F93F3B198E76D82966F80A312D588760D6959B550F302B2674B56CF109DCF0BDEDCCE99DDACC62DE1AC9A6F94CBEF01739DEFC97F00504B03041400060808001D753140599E9EB25501000033030000300000006662782F35463036343345322D45
310
4338342D343431392D413830372D3937384338464338424646392F636E782E786D6CBD93CD6EC32010845F0571F75FE2BA568489D4439FA0875E316C121A0C16E0AA79FB2E094973C9A152D50BB2668799D527CCB65F93219FE0837676A04D595302563AA5ED7EA04BDC153D255BCEBC73F1CE468915130C34C994B3BD77CB
310
9C25053BB19888AAD1F698450FC12D5E424039DD24C6496130006CB1A008D3084A812237237EEDC0E32A288E27120F405E5FDE891B3F40C6C0AA94C259953A384B676EBA3351228D0861A0411E6012A558A253108EA51251944D79ED7AB0D34F124917AE958BD724950F349D94E78D4AE4C82A1C7216A2477AD9144F33502E
310
E6D968292242AECEC68B87B345DBD8B5D9AB11BC47F77AD5F53D869D679C453D4176480F2282A27C5537ABA26E8AE6F9AD69376DBD79EA8BBADBD435AB929DB3D139932F610C783713E96C041B296F5895C68FF0651F51DA236BE74FBF00890072EB85CE2DE32FF934DDBA6DFF914F757EDF88CBE35FC0BF01504B03041400
310
060808001D7531405F72C99B5B070000941B0000340000006662782F35463036343345322D454338342D343431392D413830372D3937384338464338424646392F6F626A656374732E786D6CED59DD739B3810FF5718EED9D8D84E9BDC103AB193743CBDB49DFADAB987CC3032C8441721184924F1FDF5B7FA00033109BEE6
310
DEFA6003425AEDFEF6534BF0E129A3CE03E682E4ECDCF5BD89EB6016E70961E9B95BCAEDE8D4753E8401CF73D998E63A0C65F8DC55C36E18A43C2F0B3B94E02D2AA9EC8C5E2FFE72448C19769D982221CE5D11DFE10C79A8947982C5BD972089BC74FBE4F99E99D8269B7254DC7588168863268153186740C5314CF9EDC789
310
3B0E83B17A1F06EADFCE9A0D9A35EF9F35D652B7B9244C48C4E2672C75C8CC06B134F3E79757D393B3D1C97C3E1BCDDF4DFDD1E27A7139F2DFCF26CB77CBE5D9C5D519B0B7C9736A654A70815902FADBB9A11F8CD59B5A748BC021AEE39C311C6B20012A2D569720C102B66AC037693FFA4AA2C66B2D61E379AEDE5B161AC3
310
B33695BE59C38068D10541EC7695C4D5B5295FBEF91B0417438C920B2C815B213968D7C2C3C12BDC70128CCD68186CF6BA20C2C990C49C20EA50B2E188835260AA9A1206668125A39C8303294749A035675EB76D0B3CF375D739C4E5B6A45479861B6AC78AC0FDB0149A33F20FE67BEE9BC8004F206D49983CB55CCA5D81DD
310
F02C18EBC1305097D9D4BE34403A5B8A52A111316F3B822E95EBAF2EDDF0D3F5E669ADC2C1E1CD0B9E17984B65744A8F9A2F30647B5528D96DFD419A530B401803AA5DB907E51B20FF19A2C79E15D01B274FF3A7B99D2B3962629BF30C74E34C9CD104FE268EAFFFD57DE32E18D78BDBDAEBC313DC544175FAF378B665D058
310
59FE1B7086C103187CCE67F6D53A4614ECF986300048198943731882D0BEDD3CB9E10A0227047A588568E883C8C0EE03DC06634B66AF95CABDACD73140D4EE311BA224804D5B24B0D1A3A78F903D3889F76A6A8AD807EFC99B98EBC5E5FAD3BAE45B14E31BEBD397784B189190350F33D4C2BC25D13DDE3DE63C01419FE3BD
310
6EE29DD9AD04A0AD3057C0A71508EA61BF736B8318D6A5B90A37C12B3B80102A5737E8DF1011634A11C37959ED5B473765A8B5C7DB9AC10DA706E2D9B463C21C3F10555580D3EC67B41885BC1F73522810DDF0A391AC0E9A5E8F74DF579FC122EBF93DB3560C422F43F44F1DB40EE0D0B2EC0A690B442DF0661FCEE39CE63C
310
DAEC2213E95CA825808DB6B7FC681185586F94A4A8800769BFAB424A6AA48D12B2DD9602E2EA01167FAC964D73987833FFC469FE779C710ED1167C1771EB779D3D2292A114475B94F46DD7DCADA62D34C91ED21C6F29C8451E88DC4548469304A7C7407314F1B337A59ED25C08C2B0807C7510FC261A130F0289D166C5B2D2
310
6A076822A20C4B448F414091E90157A71D5DE3C6503ABCCE636DBD2F69AC49F47FB2088EA096CC5944A014851CF22AE3BE770231A48DAE41B9832F585B455B8B414B2821E25DF488497A278F41DD90EFC13D86234929A3BC403198F500B2CF7C4529B5C3FB06C5F72A7F447149DFCA4004A6DB88505A6611FC088393C710D7
310
AE03D38B2834889BD8277106451992251FB2C9BB93C9B37D4CCDD00D818D8DB68442D88E3254F4A0DE0A88BA1E716AF02DF51EA56ECAAC885096976C90A178B3AE3759F25DB52AB203F955A522948D15614B300C08937556AD623698BA0EACE0463A50ED2281B2829A53D82B89C7AFBD4953EEDD805B3F7DDB0D3228FC7AB4
310
D78CA8F30A06CB63AB30108F48C6776EB8D6D7D102EAEF0427FB545FD59ACD0A10105391BCE4C4AAE8FB0ACA1B5BA3B9E10D92E2F6A3C9BAD5F5FBCA83EE4730863550BBD40B570AE80C3389546572A36EE8370421B845C38CAF544E3D86CA4592E8AA11D16BD2A7CE5619D1DA34235E7187599EC18FDD1216D332C1B72811
310
F7D18DA4D19A28D6AD945E462A8C5F14F0CBC775071E181920D25755E0E1C7CE5A3BBA54E5D24122F2AECC360C1108822DD152A31BAF60A9D548A5E5FAAACE14507781815915CF7F9D2C9AED885F278BD41AC64F9D2C16BB3FD0AED91769A4F358D9F551C7803A3F292A6F710CD06D879A6A9D454C32B7F25B678A20285651
310
7E703556050D43B08FE3FF9CB5FBB2A0D9AEC3FF7159DB7F56711C95555A935597EA40E5BA6AE6B0E97C7A72FDCE9F8F16EF17EF47F3D3ABABD1E9D9FBC9C8BFF2FDAB93CB8BC5E96259A3A91D350CEA60A673173C9BA0560DAB278B017465454E4902A7F9C44931C47C0967FA01ED739E6101C9B3D9EC4E6C537EC0EA07D3
310
E794684371C5C91D8206311590D601A33296ED71E737684D4A38689FBBD034F2EEE1CF5AA5EB40E63977A15520498C85B78136936AE869E2907275EEB7C4001FC4529512CDA2FAB95EA5B06985FF7ACA903460E56AF530A0702BA0FBD5EA5068DE2C4FF1518257EC3848C2EDA69450AD1959F603B5307A9BBDFA8D6C94B07B
310
BBF513B8EECB62F99E9ED34264D02783178DC0501D49C453DDEF568C59962E2EBF8EA1CFE6ACBE38052D53D0E5704A238EC1984B555081158155589A059260AACBDF6FBFF21C3EF1648EAE8A6E977996E5CC3E5CC0792C814F44CEFA0E3EF824B7503660D55617B7D3893FBDD5ED6CDB618F3648604FD543305095114A848E
310
B181453E6B4DD9C6E55829A1337D75E9D8F0096D006341CFBABBE6F39603DEA33EA4285FD11E5EC9F962477BACA7823570E84587FF02504B03041400060800001D753140000000000000000000000000350000006662782F35463036343345322D454338342D343431392D413830372D3937384338464338424646392F7665
310
7274696365732E62696E504B03041400060808001D753140F270F1330600000004000000360000006662782F35463036343345322D454338342D343431392D413830372D3937384338464338424646392F747269616E676C65732E62696E636660600000504B03041400060800001D75314000000000000000000000000037
310
0000006662782F35463036343345322D454338342D343431392D413830372D3937384338464338424646392F617474726962757465732E62696E504B03041400060808001D753140D5987DFC8F00000041010000360000006662782F35463036343345322D454338342D343431392D413830372D3937384338464338424646
310
392F6469726563746F72792E786D6C858F410EC2201045AF4266AF15DDB800BA74E7C21B903225242D6328188F2FA5C4183471359997F9FF81E89FF3C41E1816475E02DF1F80A11FC8386F25A438EECEC07A250251FC3803E6F58C12560C4AD840E95E91C151A72936F496F35732D860FE635F62C8F2DA16B505C545B74125
310
BAA2FA9E05D7CC053D063734D5C7665FD55B6B8D15D5E9BFEAFD8490FFA45E504B03041400060808001D7531403CBFC8A9FB000000A00100003B0000006662782F35463036343345322D454338342D343431392D413830372D3937384338464338424646392F7265736F75726365732F636F72652E786D6C8D50596AC33010
310
BD8A997FD9927782AC408A7D825E40C8135724968C96D2E3578E5D68FFFA3333BC85793C7EFD5A9FD9273AAFAD1980E5143234CACEDA2C03C470273D6457C19DB5E1970C3223571C608741F0C5D9B89D90B226A009093576C61394DE63804C3DD33180571FB8CA5CC69014FE916F523DE48239CB139D7482FBE05280EC78B2
310
4F100EBD8D4EA1E7C5C10A1EA39E4F8D9ED34F7DD7E84054E354DDEA76244D5336A42EDB96F4ACE9C834BEB5B4AB6E6D338DBCD8CD8207BDFE64540E65C019444959492823AC7B67F5A5A697A627B4BD50CA8B5DFEC714B7F99FA6A84DA8CA33EE61F320580AF222042FF6BED27A9599F6DEADF806504B010214000A000008
310
00001D7531403DEE336E79000000790000001B00000000000000000000000000000000006175746F6465736B2D64657369676E2D7061636B6167652E786D6C504B010214001400060808001D753140D486FD9CA0000000F40000001300000000000000000000000000B20000005B436F6E74656E745F54797065735D2E786D
310
6C504B010214001400060808001D75314054559598E90000007C010000080000000000000000000000000083010000636F72652E786D6C504B010214001400060808001D75314055019EA25F0000007C000000070000000000000000000000000092020000636E782E786D6C504B010214001400060808001D7531401006E8
310
F065010000020300000C00000000000000000000000000160300006662782F636F72652E786D6C504B010214001400060808001D753140ED40530B7E0000009D0000000B00000000000000000000000000A50400006662782F636E782E786D6C504B010214001400060808001D753140C4BAC4D62B01000014020000310000
310
00000000000000000000004C0500006662782F35463036343345322D454338342D343431392D413830372D3937384338464338424646392F636F72652E786D6C504B010214001400060808001D753140599E9EB255010000330300003000000000000000000000000000C60600006662782F35463036343345322D45433834
310
2D343431392D413830372D3937384338464338424646392F636E782E786D6C504B010214001400060808001D7531405F72C99B5B070000941B00003400000000000000000000000000690800006662782F35463036343345322D454338342D343431392D413830372D3937384338464338424646392F6F626A656374732E78
310
6D6C504B010214001400060800001D7531400000000000000000000000003500000000000000000000000000161000006662782F35463036343345322D454338342D343431392D413830372D3937384338464338424646392F76657274696365732E62696E504B010214001400060808001D753140F270F133060000000400
310
00003600000000000000000000000000691000006662782F35463036343345322D454338342D343431392D413830372D3937384338464338424646392F747269616E676C65732E62696E504B010214001400060800001D7531400000000000000000000000003700000000000000000000000000C31000006662782F354630
310
36343345322D454338342D343431392D413830372D3937384338464338424646392F617474726962757465732E62696E504B010214001400060808001D753140D5987DFC8F000000410100003600000000000000000000000000181100006662782F35463036343345322D454338342D343431392D413830372D3937384338
310
464338424646392F6469726563746F72792E786D6C504B010214001400060808001D7531403CBFC8A9FB000000A00100003B00000000000000000000000000FB1100006662782F35463036343345322D454338342D343431392D413830372D3937384338464338424646392F7265736F75726365732F636F72652E786D6C50
310
4B0506000000000E000E00800400004F1300000000
  0
XRECORD
  5
17
102
{ACAD_REACTORS
330
12
102
}
330
12
100
AcDbXrecord
280
     1
270
     1
271
     1
  0
XRECORD
  5
16
102
{ACAD_REACTORS
330
12
102
}
330
12
100
AcDbXrecord
280
     1
270
     1
271
     1
  0
XRECORD
  5
18
102
{ACAD_REACTORS
330
12
102
}
330
12
100
AcDbXrecord
280
     1
270
     1
271
     1
  0
XRECORD
  5
15
102
{ACAD_REACTORS
330
12
102
}
330
12
100
AcDbXrecord
280
     1
270
     1
271
     1
  0
XRECORD
  5
D95
102
{ACAD_REACTORS
330
22
102
}
330
22
100
AcDbXrecord
280
     1
102
MATERIAL
148
0.0
149
0.0
149
0.0
 93
        0
 94
      127
282
     0
 72
     0
 77
     0
171
     0
175
     0
179
     0
273
     0
  0
XRECORD
  5
24
102
{ACAD_REACTORS
330
22
102
}
330
22
100
AcDbXrecord
280
     1
270
     1
271
     1
  0
XRECORD
  5
23
102
{ACAD_REACTORS
330
22
102
}
330
22
100
AcDbXrecord
280
     1
270
     1
271
     1
  0
XRECORD
  5
BA
102
{ACAD_REACTORS
330
22
102
}
330
22
100
AcDbXrecord
280
     1
 70
     1
 90
1959938040
 71
     1
  1
1EC96EC8-B1EB-41EC-AF7D-F3D1A012096C
311
504B03040A00000800001D7531403DEE336E79000000790000001B0000006175746F6465736B2D64657369676E2D7061636B6167652E786D6C3C3F786D6C2076657273696F6E3D22312E302220656E636F64696E673D227574662D3822203F3E3C666F726D6174733E3C666F726D61743E687474703A2F2F736368656D612E
311
6175746F6465736B2E636F6D2F64657369676E2D7061636B6167652F323030393C2F666F726D61743E3C2F666F726D6174733E504B03041400060808001D753140D486FD9CA0000000F4000000130000005B436F6E74656E745F54797065735D2E786D6C7D8EC10E82300C865F65E91D8A1E8C310C0EEA1BF002731658846E
311
D98AC1B77784ABF1D8FE5FBFBF75BBCE937A534CCEB38643598122B6FEE978D0B0485F9C41B54DDD7D022595594E1A469170414C76A4D9A4D207E29CF43ECE46F218070CC6BECC4078ACAA135ACF422C856C0E68EA1BF5669944DDD7BCDE7B1F8E415D77AECB980613C2E4AC91FC167A2B244592486606FC29C8FD7F045B9A
311
EF7053A7E60B504B03041400060808001D753140E8035F6DEA0000007C01000008000000636F72652E786D6C8D90D18E832010457F85CC3B0AD6AA3548E3C6FA05FB0304A825AD600436FBF98BAD4D76DFF6692677EE99995C76FE9E1FE84BAFDE38DB01CD08206DA553C64E1DC470C50DA03367AB73E1970D9015B3EE6093
311
81B3697571D925E96CD03624D53AA5775178AF0320F9484D075EDEF42C32114372F87BB608791793CEE8BB4B708C46A1D711A3D23E73357A057E3C5DAA433D0CB869C60F5C9663859B82D4B8EF2F27528C6420FD89E51BCC5930F3FBBE5CB5085A012F082D30A198D69FB46C4BD21E1B4CAA9610966FF63F505CD43FA1686C
311
3814FBBB2FCC03A7E991E780B37CCB22956750A96EB9F11F504B03041400060808001D75314055019EA25F0000007C00000007000000636E782E786D6C4DCB3B0E80201045D1AD90E915ED2CF8AC45050C11660C8261F98AB1B07AC9C97D42D718D865D3E909258CFD00CCE24AC6E326A164D74DC0B4128928FF326038472B
311
A13128B1252AC747C6BAB984FC68F0B87FE8960A5C09FE86CFB69FBA01504B03041400060808001D75314038E4EDF566010000020300000C0000006662782F636F72652E786D6C8D52ED8E8230107C95A6FF4B0BA2A229355ED427B817A850B946684969898F7FCB87F1BC1863484A33B3B33B3BC077B7A646BD729DB626C7
311
71C43052A6B0A536558E83BF900CA39DE0CE5AFFA70C23231B95E301C68257CE8676860A6BBC321E50634B3583B2EB94C7A8A8E192E3AEF8518D8C64F050D15DA356165759A9288E80863AC13BEFC0009A860C271697F38DD309173C045DCEAC2E619ABE68E5B0586E8EABC5FA70205976FA22697A5A912C616BB2DF1F372C
311
39B103DB6F381DC4827BDDDCDD154E49AF4A2C12162784C5245E7FC7E93665DB6546D86ACB18A743F99328B4E587A2A08D5F24B3DD49D66111839191F8B72D44E451277BF04305A74388F01A137E0E1A028190BD3CD7F73DAE00F5AAF0D6A5C094363CA85ED641C15486C687D38985CE6303D8EC659FE44D9FF73DE0034A53
311
8135E9E17A0E7E98CEA7A97314AD72A4F73764AC6B64FD3037597C9C8F412FE585ADADFB444DE755E91C261DFE5EF10B504B03041400060808001D753140C148DED67D0000009D0000000B0000006662782F636E782E786D6C4DCCD10AC2201805E05791FFDEA6B144411DD5F23D467343721AA6D1E3E7C62E76730E7C1C8E
311
EC7E8B475F9B3E2E0605F44400D9F08CA30BB3829227CC01755AA618F36106280C8B55B0326839A758DE3B8D761A8ACF55BD0BAF1D09632D173DC1C4188E5B420DBEDD6B889EB28761E22A2E6768B46CB6A7DAEBB1FE03504B03041400060808001D75314023300EE32B01000014020000310000006662782F303636343839
311
44302D304646382D343031462D424331462D3944313645463639413935322F636F72652E786D6C8D51CB6E833010FC15CBA7F460B081B81019476D53BEA03FE08093580936F2A3CAE77729446A6FB9EC5ABB33B3E35DB1BF8F37F4AD7D30CEB6986514236D7B37187B6E718A275263B497C23B17FFC030B26AD42D9ECB588A
311
B377695A4BBDB351DB0855EB06BD1655083A62D4DFE0D1E2D05FF4A832952220C2359B547F55679DB10CDA809322440F06D032648E5852CEABBA395042BBAE2615651D79FF80D01C18FFEC78F3D66C0B912F44295232C34A3703D83127A3FDB32233598A68C687FDDE6B15F580654159412823ECF58B55BB8AEEB635A17C47
311
A9C867F83F529A862749C9D85816ABDD8516B064225F1A520C2E1D6F0F33FA3E391FD13C6F1374FF02BFCA68414B5694A5C817282C003479B56A86E83C2C78733D029A6D17615E4991CF3782F47B40C8F33DE50F504B03041400060808001D7531403F3951A54D01000033030000300000006662782F30363634383944302D
311
304646382D343031462D424331462D3944313645463639413935322F636E782E786D6CD593CD6E022114855F85B09F1FECD41AC360D2459FA08B6E11AE4A6560C24F53DFBE1745EBC64597DD90C9B987736EBE307CF33D59F205211AEF46CADA9E1270CA6BE3F623CD69D7AC28D9081EBC4F77364A9C9C60A445A682EF83CF
311
739534EC64B609556BDCB18A01A2CF414144B9DC24D62B6931005C935184690B5A832637237EED20E02A286E4F241D80BCBD7E10BFFD049522EF4A8AE05DE910BC9CB5E9CE4489B232C69146758049B63227AF211E5B2D936C597BED7AB0D36F122917AE95391852CA475A4E2AEA462D72E41D0E058F2920BD6A4AA719A890
311
F36C8D9209217767E3C52378362E2D87EA35083EA09B2D9F8601C3CE33C19399A03A5400994053B1E8D9A2E959C35EDED9B01EFAF5F3AAE997EBBEE75DB10BBEF5DED64B1803C1CF447997C0252A18EFCAF811BEEA23DA0464EDC3E90F2011406DBDD0B965FC673EDDF97D23AE807F81F801504B03041400060808001D7531
311
40E9599BB79B0500007A100000340000006662782F30363634383944302D304646382D343031462D424331462D3944313645463639413935322F6F626A656374732E786D6CAD575D6FA33814FD2B887D260949A6D3AE28A3346947D1A833D54433DA874A910143BD3518D9A693EEAFDF633004324927BB9A9710CCF5F5BDE7
311
9EFBE1E0C32EE7CE0B958A89E2DAF54713D7A1452C125664D76EA553EFD2753E84811442F7C45CA72039BD76CDB21B069914556997129A928AEB83D5BB9BBF1C15D382BA4ECC8952D7AE8A9F684E46A4D222A1EA7994104D4659BA1BF9A34670A83693A47C3A505A12490B0D4BB15E408BD318E50F5F27EE380CC6E67B1898
311
5F2B353B2D35AEFD199ECF0AA54911FF74D8819A993F5FDD4EDF5D79EFE6F39937BF98FADECDDDCDCAF3DFCF26CB8BE5F26A717B85839596D0642D913475C38FC046B23818379FC2A062859E4DAD880DD058D2176622E58653C70FC68D4CE79D75F298F9B1280A1AD758018DDA3FAB3AA1252D12C49C5105CB7A084D86AFBE
311
C1B1F77966DEED91FDE5F310E8EFE8296A6D6F9F7D4B45F4375C50E730482A6A18D860691D6DB83AD9231C09C1ED37A69C9C682A19E10E679124F2D50D216A44C260A0C630599A6C301EB821A2D07C1ED20569F46B9E1FB332AD38373476C33A0BB6C815AA556D19FB87CABDF57D6460136265D870691DD2AF2575C3AB8622
311
97076C6A8074524E32841C6E9A9DB3E981A34B93A7EB951B7EBA8B761B93BBC70F2FA528A9D4863EA0561BB8F66950B236F96745CE6C700F4CD983F215C87F46AAEF4D41DC24DBCD77737B8A96A450A9903962E34C1C6F829F89E3D7BFE67FEF5F30EE360FA3770A4F04DB40F51BF01CFAD08F650FCE307801E1859C59D736
311
31E1281BF7AC004086240E1758421D4EA39D1BAE51E55095B18BF0D087CB30F7057F83B1558342519FD47B16C0F2A02C9E51A0015BCD4898D190DF1AB88FD34FE5AC3ED88A9D82F7DD6FA1EB62B5F9B4A9644A627A6F737A455356308D16B7E74DDFA001E6038F9EE9EB0F211338FA33DE9B3EDEB93D4A016D83B9013E6B6B
311
BA79D99F3C3820C6BE4C987213FCE20438611A6B4FFF3D5331E59C145454EDB96FF60FB48D066293EC86C95D83D9371690A6F972908368D2B164A501B1EB565DD11C9DF0EEDBFA331809792E22C2F742D1BEF4C6820BB98D5EB74D553A8AF4F721B52D0463A3056CAF73A44D7F8BF93661695A29D4C023B07E5F2FFBA13355
311
0115A2D5DA24CB1CEE23B788B49C6DF5A2594B82462A8A2D43DB44DA1D3DA0AF1F885A02D40A4F59AC284FB78CF32ADFA68CA3196D73529E80E3FFDB1F5579B925B9A80A7D42F7C0743487A1ED03F2AA1F44C74F6EB8A99FDE0D4A6F42937D9807C2A6951CC16A18DADBE5D5C5EDF2D2BBF16F6FBCB97FBBF41677EF57DEDD
311
6CE52F26FE74727501D7AD45F50C15066DA7E92734A284CE165492D9F07D5B237D6C0D70C37BA2D5E3C7263BDBE7B7F508A37030C61EB4CB6EE32279C1D847935F2BD84B1E55B4CE4B4E735A686252E8DEFCE15F09C68C8131CDFA3A27193D43CB978F9B0367B072C6BE0793EEF4C7C15EBBBA34097954897EAAF2A8208C1F
311
6CCC1A2447659159FCDA9874CFA6CFB4AFE6CD060683A9129C25288389935191538D6278460F923955A05E7FA44FECD5E38CDD2FCD80A849C4696BC913C18CCC15D202BCAD623D5C77FEC04C67C6AA6B17DD76F48C1F5B295C079CB97631A36B1653358AD09FCD24542B0797FA833C384B8A8C63D46E3675EFDD2E83CDA023
311
7722E78C4FD6AFA6825B0750464A8C0D9887109DDA9830A86DB3DFE3FFE4786B8E4334FE4695EE7CD92F74CED4C720451BA7EC650133CCB33D7A87447DDB2D7F54CB0C1039EB92F526091AAD9E2632AB2F0AC63E6BD262F530C680E2ACBF3825AF32C4F27C4D9EA4207365121C2C022BACCE92685075F9E7E38314B8C8E6CE
311
1D03051E9722CF45615F16F622EC6C9E70AD4D1E5116A8B98FA8C7290ADF637D0FB057936D44141D91443D63013195AC8378107830B2B92CA203351F3AB9B109C20137D72BC7B6B439945AA2F4ABAA81051347411D648FB94B9A5CE90B946F5E05C6B5284C9018E2C37F01504B03041400060800001D753140000000000000
311
000000000000350000006662782F30363634383944302D304646382D343031462D424331462D3944313645463639413935322F76657274696365732E62696E504B03041400060808001D753140F270F1330600000004000000360000006662782F30363634383944302D304646382D343031462D424331462D394431364546
311
3639413935322F747269616E676C65732E62696E636660600000504B03041400060800001D753140000000000000000000000000370000006662782F30363634383944302D304646382D343031462D424331462D3944313645463639413935322F617474726962757465732E62696E504B03041400060808001D753140D598
311
7DFC8F00000041010000360000006662782F30363634383944302D304646382D343031462D424331462D3944313645463639413935322F6469726563746F72792E786D6C858F410EC2201045AF4266AF15DDB800BA74E7C21B903225242D6328188F2FA5C4183471359997F9FF81E89FF3C41E1816475E02DF1F80A11FC838
311
6F25A438EECEC07A250251FC3803E6F58C12560C4AD840E95E91C151A72936F496F35732D860FE635F62C8F2DA16B505C545B74125BAA2FA9E05D7CC053D063734D5C7665FD55B6B8D15D5E9BFEAFD8490FFA45E504B03041400060808001D753140376D95D5FD000000A00100003B0000006662782F30363634383944302D
311
304646382D343031462D424331462D3944313645463639413935322F7265736F75726365732F636F72652E786D6C8D504B6E833010BD0A9ABDC1268410641CD12639412F609909B1126CE44FD5E3D7042AB5BB6E6646EFA3797AFCF4353DB34F745E5BD301CB296468941DB4193B88E1461AC84E823B6BC32F1964464ED8C1
311
0283E0A3B371DE20654D4013126AEC801B28BDC700997AA6A303AFEE38C95CC69014FE91CF523DE48839CB139D7482FBE052806C7DB24C100EBD8D4EA1E7C5CA0A1EA31E368D1ED24F7DD3E840EC8F977A7738BF93A6B9BE91AABAD6A429E981F4FDE548CB2B3DD3FEC88BC52C78D0D34F46E550061C409494958432C20E1F
311
AC6A2BDAEE1B42EB96525E2CF23FA6380FFF34456DC2AEDCE2AE360F82A5202F42F062E92BAD5799692FDD8A6F504B010214000A00000800001D7531403DEE336E79000000790000001B00000000000000000000000000000000006175746F6465736B2D64657369676E2D7061636B6167652E786D6C504B01021400140006
311
0808001D753140D486FD9CA0000000F40000001300000000000000000000000000B20000005B436F6E74656E745F54797065735D2E786D6C504B010214001400060808001D753140E8035F6DEA0000007C010000080000000000000000000000000083010000636F72652E786D6C504B010214001400060808001D75314055
311
019EA25F0000007C000000070000000000000000000000000093020000636E782E786D6C504B010214001400060808001D75314038E4EDF566010000020300000C00000000000000000000000000170300006662782F636F72652E786D6C504B010214001400060808001D753140C148DED67D0000009D0000000B00000000
311
000000000000000000A70400006662782F636E782E786D6C504B010214001400060808001D75314023300EE32B0100001402000031000000000000000000000000004D0500006662782F30363634383944302D304646382D343031462D424331462D3944313645463639413935322F636F72652E786D6C504B010214001400
311
060808001D7531403F3951A54D010000330300003000000000000000000000000000C70600006662782F30363634383944302D304646382D343031462D424331462D3944313645463639413935322F636E782E786D6C504B010214001400060808001D753140E9599BB79B0500007A10000034000000000000000000000000
311
00620800006662782F30363634383944302D304646382D343031462D424331462D3944313645463639413935322F6F626A656374732E786D6C504B010214001400060800001D75314000000000000000000000000035000000000000000000000000004F0E00006662782F30363634383944302D304646382D343031462D42
311
4331462D3944313645463639413935322F76657274696365732E62696E504B010214001400060808001D753140F270F13306000000040000003600000000000000000000000000A20E00006662782F30363634383944302D304646382D343031462D424331462D3944313645463639413935322F747269616E676C65732E62
311
696E504B010214001400060800001D7531400000000000000000000000003700000000000000000000000000FC0E00006662782F30363634383944302D304646382D343031462D424331462D3944313645463639413935322F617474726962757465732E62696E504B010214001400060808001D753140D5987DFC8F000000
311
410100003600000000000000000000000000510F00006662782F30363634383944302D304646382D343031462D424331462D3944313645463639413935322F6469726563746F72792E786D6C504B010214001400060808001D753140376D95D5FD000000A00100003B00000000000000000000000000341000006662782F30
311
363634383944302D304646382D343031462D424331462D3944313645463639413935322F7265736F75726365732F636F72652E786D6C504B0506000000000E000E00800400008A1100000000
310
504B03040A00000800001D7531403DEE336E79000000790000001B0000006175746F6465736B2D64657369676E2D7061636B6167652E786D6C3C3F786D6C2076657273696F6E3D22312E302220656E636F64696E673D227574662D3822203F3E3C666F726D6174733E3C666F726D61743E687474703A2F2F736368656D612E
310
6175746F6465736B2E636F6D2F64657369676E2D7061636B6167652F323030393C2F666F726D61743E3C2F666F726D6174733E504B03041400060808001D753140D486FD9CA0000000F4000000130000005B436F6E74656E745F54797065735D2E786D6C7D8EC10E82300C865F65E91D8A1E8C310C0EEA1BF002731658846E
310
D98AC1B77784ABF1D8FE5FBFBF75BBCE937A534CCEB38643598122B6FEE978D0B0485F9C41B54DDD7D022595594E1A469170414C76A4D9A4D207E29CF43ECE46F218070CC6BECC4078ACAA135ACF422C856C0E68EA1BF5669944DDD7BCDE7B1F8E415D77AECB980613C2E4AC91FC167A2B244592486606FC29C8FD7F045B9A
310
EF7053A7E60B504B03041400060808001D75314017C55226EA0000007C01000008000000636F72652E786D6C8D90416EC3201045AF82668F0DD8895D0B13B9AD7B825E0001715062B00C543D7E71E248EDAE0B34A3CF7F33A3CF4FDFF30D7D993558EF7AA00501649CF2DABAA98714CFB80574127CF53EFEB2017272363D6C
310
32083EAD3E2DBBA4BC8BC6C5AC3AAFCD2ECA104C04A46EB9E921A88B99652153CC8E702D16A9AE7232057D76194EC96AF45862759E67CFD6AC20DEDBC3DB4068859B6A6C70CD2A86DBE158E3D7173A56637EEDC7C0CB0D163CDAF9B95FAD4646A3413042192614D3E693D65D4DBA438BC9B12384979BFD0F9416FD4F285917
310
2BB69FFBC002089A0FB97F085E6E59E4720F2AD72D37F103504B03041400060808001D75314055019EA25F0000007C00000007000000636E782E786D6C4DCB3B0E80201045D1AD90E915ED2CF8AC45050C11660C8261F98AB1B07AC9C97D42D718D865D3E909258CFD00CCE24AC6E326A164D74DC0B4128928FF326038472B
310
A13128B1252AC747C6BAB984FC68F0B87FE8960A5C09FE86CFB69FBA01504B03041400060808001D75314059F0710E66010000020300000C0000006662782F636F72652E786D6C8D52ED8E8230107C95A6FF4B5B40E54CA9F1EEBC27B817A8503922B4A4B4C4C7BFE5C3785E8C3104686676766707C4EED23668D0AEAFADC9
310
318F1846DA14B6AC4D95E3E04F24C3682785B3D6FF29C3C8A856E77884B11495B3A15BA0C21AAF8D07D4D8522FA0EA7BED312A1A38E4B82F7E74AB22153C54F4E7A853C559553AE211D0502745EF1D1840F390F189E5E9781174C6A508A12E17B62E615A7DAAB5C3F2335B7DEC194FC826396C481A2731C9F6EB94BCBFF143
310
72803BFBDA0B3A8AA5F0757B755738ADBC2EB18C198F09E3846FBE79BA4DD9769511B6DE3226E8587E270A5DF9A228D4C627F1627796F55872303211FFB685883CEAD5007EA814740C115E53C2F741432010B257C7E6BAC719A04117DEBA1498D2861B35A8266898CAD074093AB3D0796A009B3DEC133FE9F3BC077C40652A
310
B0A63C1C8FC18FD3C53C7589A2D38E0CFE828C75AD6A6EE6668BB7E76DD04379611BEB5E51D36555BA8449C7BF57FE02504B03041400060808001D75314073B18DD07C0000009D0000000B0000006662782F636E782E786D6C4DCCD10A83201886E15B91FFDC95226AA0068DBC8F581632D3703A76F9ABD1C18E3E78F87855
310
FFD9027ABBFCF2296A20B716908B8F34FBB86AA865C112506F544EA9FCDD00C569731A4E06A3D69CEA7ED1EC96A9867268F0F17921B79C0ED2DEB12476C48C7181073272CC59473B2A8564AD80C6A8E6573AF60C9B2F504B03041400060808001D753140B1B3E76F2901000014020000310000006662782F36463632423846
310
432D383146452D343436372D423145362D3634393239323837383430372F636F72652E786D6C8D51CB6EC32010FC15C4293D6003A198449848A9922FE80F3836715162B07854F9FC42ED48ED2D1716CDCECC8E76E5E131DDC1B7F6C138DB42526108B4EDDD60ECD8C214AF48407050D23B17FFD020B0DDA45B5860A8E4E85D
310
9A57A877366A1B336ADDA057B00B414708FA7BFEB430F45F7AEAAA2EC5CC08B76AEEFA5B37EA8A54B99D794A86E87300B00C292F54FCCCE9519C3F9020E713628C37E8484E1C71B6A33B2A1AC17023EB45A8644A6658E566C871CCD568FFAA49112B19CDF48CDF7BDD453D404531A10813449A4FC2F60CEFDF05C27C8FB1AC
310
0BFD9F28CDC38BA2646CDCD235EE220B5011592F0D2507972EF76718FD989D8FA0CCDB04DDBF41852B4C8920629B250B352F207B72B67A86E87C5EF0E676C9ECC22AC69C2959971BE5F27BC05CCB3DD50F504B03041400060808001D753140599E9EB25501000033030000300000006662782F36463632423846432D383146
310
452D343436372D423145362D3634393239323837383430372F636E782E786D6CBD93CD6EC32010845F0571F75FE2BA568489D4439FA0875E316C121A0C16E0AA79FB2E094973C9A152D50BB2668799D527CCB65F93219FE0837676A04D595302563AA5ED7EA04BDC153D255BCEBC73F1CE468915130C34C994B3BD77CB9C25
310
053BB19888AAD1F698450FC12D5E424039DD24C6496130006CB1A008D3084A812237237EEDC0E32A288E27120F405E5FDE891B3F40C6C0AA94C259953A384B676EBA3351228D0861A0411E6012A558A253108EA51251944D79ED7AB0D34F124917AE958BD724950F349D94E78D4AE4C82A1C7216A2477AD9144F33502EE6D9
310
68292242AECEC68B87B345DBD8B5D9AB11BC47F77AD5F53D869D679C453D4176480F2282A27C5537ABA26E8AE6F9AD69376DBD79EA8BBADBD435AB929DB3D139932F610C783713E96C041B296F5895C68FF0651F51DA236BE74FBF00890072EB85CE2DE32FF934DDBA6DFF914F757EDF88CBE35FC0BF01504B030414000608
310
08001D753140B99DB4DB58070000931B0000340000006662782F36463632423846432D383146452D343436372D423145362D3634393239323837383430372F6F626A656374732E786D6CED59DF6FAB3816FE5710FB1C129AB473BBA28CDAA4BD8A469DB99AEC1DED4325E48043BD352632A6B79DBF7E3F1B43808696EC74DF
310
E621018C7D7CCE777EFA10FCFC9271E799CA82E5E2CAF5BD99EB5011E70913E9955BAADDE48BEBFC1C0632CF556B9AEB0892D12B570FBB6190CABCDCDBA184EE48C9556FF4EEE6DF4E1153415D27E6A428AEDC227EA419F148A9F284164F5E4214F1D2DD8BE77BD5C42ED95492FD638FE89E482A1438C5B80015A762CAEF3E
310
CEDC69184CF5FB30D0FF76D67CD4ACC5F0ACA991BACB25138522227EC3528FCC7C144B737FB1BA3D3BBF9C9C2F16F3C9E2E2CC9FDCDCDDAC26FE4FF3D9F262B9BCBCBEBD047BDB3CE756A684EEA948A0BF5737F483A97ED3886E1138C6759C0B41630324A03262F509325A60AB167CB3EEA3AF256ABD3612B69E17FABD65A1
310
353CEF52199A350E880E5D0862B7AB25AEAF6DF9F2ED7F207831C628654115B82D9484762D3C125EE186B3605A8D86C1F6A00B563819515432C21DCEB69248280553F59430A8165832DA392448395A02A3B9EA75D7B6E0991FBBCE312E7725E7DA33DCD0385604F7A3AA309CB13FA93C70DF46063C41DA9209F5C572A95EF7
310
D40D2F83A9190C037D999FD9971590CE8E93B43088546F7B822EB5EBAF576EF8CBDDF665A3C3C1F1CDF732DF53A9B4D1693D1ABE60C8F6AA51B2DBFAA334A71740980A54BBF200CAEF40FE57448F032BD09B642F8B97859DAB2411C52E971974E3CC9CC90C7F33C737FFFABE75174C9BC55DED0DE10937D5507DF9EB787665
310
305859FE5B7086C1330C3E9773FB6A13130E7BBE670200692371788E2184F6DDF6C50DD7089C08F4584578E84364B0FB8CDB606AC91CB452BB97F53A0144ED1EF3314A026CC622C1C6809EBE227B48161FD4D4167108DEF34F31D7EBD5E6974D297724A6F7D6A75774C70453C89AC719EA60DE91E889BEFEC8650241DFE2BD
310
69E39DD9AD0AA0AD31D7C0A73508FAE1B073678318EBD25C879BE0831D2084CED52DFAF7AC8829E744D0BCACF76DA29B36D4C6E36DCDE0866715C4F3B39E094BFACC745501A739CCE8308ABC1F4BB6D720BAE1D74AB226687A03D27D5FFF0A8B6CE60FCC5A0B845E41F8BF4CD03A8243C7B26BA42D108DC0DB43388F739ECB
310
68FB1A5591CE452D0136BADEF2478728627DA5244D051E64FCAE0E2969256D94B0DDAE2C10578FB0F8C77AD936879937F7CF9DF67FCF191788B6F05D22ADDFF5F6885846521AED4832B45D7BB7867661480E909674C721177B66EA35222A9A25343D059A93885F7E2AF594E745C1042D90AF8E82DF4663E6219054DAAC59D6
310
5AED01CD8A28A38AF05310D06406C03569C7D4B8314A878F796CACF73D8DB589FE9F2C4212D492B988184A51E4900F19F7BD73C4902EBA15CA3D7C616D356D23062F5142C4AFD10FCAD247750AEA15F901DC631C494A15E57B12C3AC47907DE32B5AA93DDEB7247ED2F9238A4BFE59065250BE8B18E76516E1C7044E1E635C
310
BB094CEFA2D0225EC53E45331465449572CC2617E7B337FB5435433F04B636DA318EB01D65643F807A27209A7AC469C0B7D40794BA2DB37D44B2BC14A30CC59BF7BDC992EFAB55931DC9AF2E155136D6842DC13060423559B58ED930751358E1462650BD4605C9F6BC3A857D9078FCC69B0CE5C10DA4F5D3CFDD2043E137A0
310
BD76445DD430581E3B8541F183A8F8D10D37E63AB941FD9DD0E490EAEB5AB35D0102311DC94BC9AC8ABEAF51DED81ACD0DEF892A1EBE5659B7BE7E5F7BE87E0453AC41EDD22C5C6BA0332A14D195C9BDBEE1BF1384E00E8D6A7CAD73EA2954AE93C4548D84DFB1217576CA88CEA619F3F68F54E4197EE281899897097D2049
310
F114DD2B1E6D9866DD4AE965ACC6F85D017FFBBAE9C1839111227DD3051EFDD15B6B4797BA5C3A4A443D96D956108620D8112DAD74E3ED456A35526BB9B9EA3305EA2E189855F1E2EF9345BB1DF1F7C922B586F1D74E163CDF127E8836AD6C1E6BB33EE914D0A4274DE5334E01A6EBD0506D924895CBADF8D69722C4C43AC8
310
8F2EC6EA9851111CE2F87F4EDA4349B0DAAEC7FF6949DB7F53709C94543A937593EA48E1BA6EA730FF76797971BBFC32B9F16F6F260B3C4EAEEF7E5A4DEEE62BFF7AE69FCD2E2F960D9AC64FC3A089652675E1B98A69F5B07EB218A0295BE49C2538CC274E4A11F2158EF423BAE732A3057267BBD79DD89EFC88D5CF559B53
310
912DA735278F04FD615E20AB03A33256DD71E71FE84C2A9CB3AF5CF48CBC27FC59AB741D249E2B179D02C5625A785B7499743FCF1047C635A9DF12033E44A43A23568B9AE76695C6A613FD9B2963B28095ABD3C240DDB647F3ABD3A030BC599EE29304AFD97188C2EDB65428D62A590E038D30669B83FA2BD938134F76EB17
310
B8EEFB62F99E99D34164D41783778DA0A23A5144A6A6DDAD19B32C5DAFBE4DD16673D6BF397B5EA6D0E5784A134961CCA5AEA76045B00A4B734F144C75F9CF876F32C7179ECC3145D1C332CFB25CD8876B1CC7127C2172368FF8DE933CA06AA0BAAB5E3C9CC1C91E4C37DB36D8A32D29A8A7CB210CD4558416A1676CB0C837
310
9D29DBB79C6A25F4A6AF578E0D9FE8025416F4A6B95B7DDD72E03DFA3B8AF615E3E1B59CEF36B4A7662AAC41A2151DFE17504B03041400060800001D753140000000000000000000000000350000006662782F36463632423846432D383146452D343436372D423145362D3634393239323837383430372F76657274696365
310
732E62696E504B03041400060808001D753140F270F1330600000004000000360000006662782F36463632423846432D383146452D343436372D423145362D3634393239323837383430372F747269616E676C65732E62696E636660600000504B03041400060800001D753140000000000000000000000000370000006662
310
782F36463632423846432D383146452D343436372D423145362D3634393239323837383430372F617474726962757465732E62696E504B03041400060808001D753140D5987DFC8F00000041010000360000006662782F36463632423846432D383146452D343436372D423145362D3634393239323837383430372F646972
310
6563746F72792E786D6C858F410EC2201045AF4266AF15DDB800BA74E7C21B903225242D6328188F2FA5C4183471359997F9FF81E89FF3C41E1816475E02DF1F80A11FC8386F25A438EECEC07A250251FC3803E6F58C12560C4AD840E95E91C151A72936F496F35732D860FE635F62C8F2DA16B505C545B74125BAA2FA9E05
310
D7CC053D063734D5C7665FD55B6B8D15D5E9BFEAFD8490FFA45E504B03041400060808001D753140046E7CBEFB000000A00100003B0000006662782F36463632423846432D383146452D343436372D423145362D3634393239323837383430372F7265736F75726365732F636F72652E786D6C8D504B6EC32010BD0A9A3D36
310
D84EE25A98286DD313F402084F5C94182C3E558F5F485CA9DD7501337A1FCDD313C7AFE5463ED107E3EC08BC6240D06A37193B8F90E285F6408E5278E7E22F1910AB161CA1C020C5EC5D5A37483B1BD1C68C5A37E106AA103002D1B7BC8C10F4072EAA52296645B856ABD2573563C5AB4C679D1421FA1C803C8E941FA4C7E0
310
92D71844FD60A548C94C9BC64CF9A6B918F4205FFBDDCB89F1861EDAF381764DDBD0FEB4EFE8F3133FB7E7FCFAB793A88B598A68969F8CDAA38A38816C8A9771CA0FEFBC1B3A36EC7ACAF60363A22EF23FA6B44EFF34256363DB6C711FB60092E72077428ABAF495C7BDCC3C4BB7F21B504B010214000A00000800001D7531
310
403DEE336E79000000790000001B00000000000000000000000000000000006175746F6465736B2D64657369676E2D7061636B6167652E786D6C504B010214001400060808001D753140D486FD9CA0000000F40000001300000000000000000000000000B20000005B436F6E74656E745F54797065735D2E786D6C504B0102
310
14001400060808001D75314017C55226EA0000007C010000080000000000000000000000000083010000636F72652E786D6C504B010214001400060808001D75314055019EA25F0000007C000000070000000000000000000000000093020000636E782E786D6C504B010214001400060808001D75314059F0710E66010000
310
020300000C00000000000000000000000000170300006662782F636F72652E786D6C504B010214001400060808001D75314073B18DD07C0000009D0000000B00000000000000000000000000A70400006662782F636E782E786D6C504B010214001400060808001D753140B1B3E76F29010000140200003100000000000000
310
0000000000004C0500006662782F36463632423846432D383146452D343436372D423145362D3634393239323837383430372F636F72652E786D6C504B010214001400060808001D753140599E9EB255010000330300003000000000000000000000000000C40600006662782F36463632423846432D383146452D34343637
310
2D423145362D3634393239323837383430372F636E782E786D6C504B010214001400060808001D753140B99DB4DB58070000931B00003400000000000000000000000000670800006662782F36463632423846432D383146452D343436372D423145362D3634393239323837383430372F6F626A656374732E786D6C504B01
310
0214001400060800001D7531400000000000000000000000003500000000000000000000000000111000006662782F36463632423846432D383146452D343436372D423145362D3634393239323837383430372F76657274696365732E62696E504B010214001400060808001D753140F270F1330600000004000000360000
310
0000000000000000000000641000006662782F36463632423846432D383146452D343436372D423145362D3634393239323837383430372F747269616E676C65732E62696E504B010214001400060800001D7531400000000000000000000000003700000000000000000000000000BE1000006662782F3646363242384643
310
2D383146452D343436372D423145362D3634393239323837383430372F617474726962757465732E62696E504B010214001400060808001D753140D5987DFC8F000000410100003600000000000000000000000000131100006662782F36463632423846432D383146452D343436372D423145362D36343932393238373834
310
30372F6469726563746F72792E786D6C504B010214001400060808001D753140046E7CBEFB000000A00100003B00000000000000000000000000F61100006662782F36463632423846432D383146452D343436372D423145362D3634393239323837383430372F7265736F75726365732F636F72652E786D6C504B05060000
310
00000E000E00800400004A1300000000
  0
XRECORD
  5
27
102
{ACAD_REACTORS
330
22
102
}
330
22
100
AcDbXrecord
280
     1
270
     1
271
     1
  0
XRECORD
  5
26
102
{ACAD_REACTORS
330
22
102
}
330
22
100
AcDbXrecord
280
     1
270
     1
271
     1
  0
XRECORD
  5
28
102
{ACAD_REACTORS
330
22
102
}
330
22
100
AcDbXrecord
280
     1
270
     1
271
     1
  0
XRECORD
  5
25
102
{ACAD_REACTORS
330
22
102
}
330
22
100
AcDbXrecord
280
     1
270
     1
271
     1
  0
XRECORD
  5
D8E
102
{ACAD_REACTORS
330
D8D
102
}
330
D8D
100
AcDbXrecord
280
     1
102
ACAD_ROUNDTRIP_2012_MLEADER_STYLE
298
     1
  0
CELLSTYLEMAP
  5
D8C
102
{ACAD_REACTORS
330
D8B
102
}
330
D8B
100
AcDbCellStyleMap
 90
        3
300
CELLSTYLE
  1
TABLEFORMAT_BEGIN
 90
        5
170
     1
 91
        0
 92
    32768
 62
   257
 93
        1
300
CONTENTFORMAT
  1
CONTENTFORMAT_BEGIN
 90
        0
 91
        0
 92
      512
 93
        0
300

 40
0.0
140
1.0
 94
        5
 62
     0
340
55
144
0.25
309
CONTENTFORMAT_END
171
     0
 94
        0
309
TABLEFORMAT_END
  1
CELLSTYLE_BEGIN
 90
        1
 91
        1
300
_TITLE
309
CELLSTYLE_END
300
CELLSTYLE
  1
TABLEFORMAT_BEGIN
 90
        5
170
     1
 91
        0
 92
        0
 62
   257
 93
        1
300
CONTENTFORMAT
  1
CONTENTFORMAT_BEGIN
 90
        0
 91
        0
 92
      512
 93
        0
300

 40
0.0
140
1.0
 94
        5
 62
     0
340
55
144
0.18
309
CONTENTFORMAT_END
171
     0
 94
        0
309
TABLEFORMAT_END
  1
CELLSTYLE_BEGIN
 90
        2
 91
        1
300
_HEADER
309
CELLSTYLE_END
300
CELLSTYLE
  1
TABLEFORMAT_BEGIN
 90
        5
170
     1
 91
        0
 92
        0
 62
   257
 93
        1
300
CONTENTFORMAT
  1
CONTENTFORMAT_BEGIN
 90
        0
 91
        0
 92
      512
 93
        0
300

 40
0.0
140
1.0
 94
        2
 62
     0
340
55
144
0.18
309
CONTENTFORMAT_END
171
     0
 94
        0
309
TABLEFORMAT_END
  1
CELLSTYLE_BEGIN
 90
        3
 91
        2
300
_DATA
309
CELLSTYLE_END
  0
XRECORD
  5
DC6
102
{ACAD_REACTORS
330
D8B
102
}
330
D8B
100
AcDbXrecord
280
     1
102
ACAD_ROUNDTRIP_PRE2007_TABLESTYLE
 90
      512
 91
        0
  1

 92
      512
 93
        0
  2

 94
      512
 95
        0
  3

  0
XRECORD
  5
DA1
102
{ACAD_REACTORS
330
DA0
102
}
330
DA0
100
AcDbXrecord
280
     1
102
RTVSPropertyOp0
 70
     1
102
RTVSPropertyOp1
 70
     1
102
RTVSPropertyOp2
 70
     1
102
RTVSPropertyOp3
 70
     1
102
RTVSPropertyOp4
 70
     1
102
RTVSPropertyOp5
 70
     1
102
RTVSPropertyOp6
 70
     1
102
RTVSPropertyOp7
 70
     1
102
RTVSPropertyOp8
 70
     1
102
RTVSPropertyOp9
 70
     1
102
RTVSPropertyOp10
 70
     1
102
RTVSPropertyOp11
 70
     1
102
RTVSPropertyOp12
 70
     1
102
RTVSPropertyOp13
 70
     1
102
RTVSPropertyOp14
 70
     1
102
RTVSPropertyOp15
 70
     1
102
RTVSPropertyOp16
 70
     1
102
RTVSPropertyOp17
 70
     1
102
RTVSPropertyOp18
 70
     1
102
RTVSPropertyOp19
 70
     1
102
RTVSPropertyOp20
 70
     1
102
RTVSPropertyOp21
 70
     1
102
RTVSPropertyOp22
 70
     1
102
RTVSPropertyOp23
 70
     1
102
RTVSPropertyOp24
 70
     1
102
RTVSPropertyOp25
 70
     1
102
RTVSPropertyOp26
 70
     1
102
RTVSPropertyOp27
 70
     1
102
RTVSPropertyOp28
 70
     1
102
RTVSPropertyOp29
 70
     1
102
RTVSPropertyOp30
 70
     1
102
RTVSPropertyOp31
 70
     1
102
RTVSPropertyOp32
 70
     1
  0
XRECORD
  5
D9F
102
{ACAD_REACTORS
330
D9E
102
}
330
D9E
100
AcDbXrecord
280
     1
102
RTVSPropertyOp0
 70
     1
102
RTVSPropertyOp1
 70
     1
102
RTVSPropertyOp2
 70
     1
102
RTVSPropertyOp3
 70
     1
102
RTVSPropertyOp4
 70
     1
102
RTVSPropertyOp5
 70
     1
102
RTVSPropertyOp6
 70
     1
102
RTVSPropertyOp7
 70
     1
102
RTVSPropertyOp8
 70
     1
102
RTVSPropertyOp9
 70
     1
102
RTVSPropertyOp10
 70
     1
102
RTVSPropertyOp11
 70
     1
102
RTVSPropertyOp12
 70
     1
102
RTVSPropertyOp13
 70
     1
102
RTVSPropertyOp14
 70
     1
102
RTVSPropertyOp15
 70
     1
102
RTVSPropertyOp16
 70
     1
102
RTVSPropertyOp17
 70
     1
102
RTVSPropertyOp18
 70
     1
102
RTVSPropertyOp19
 70
     1
102
RTVSPropertyOp20
 70
     1
102
RTVSPropertyOp21
 70
     1
102
RTVSPropertyOp22
 70
     1
102
RTVSPropertyOp23
 70
     1
102
RTVSPropertyOp24
 70
     1
102
RTVSPropertyOp25
 70
     1
102
RTVSPropertyOp26
 70
     1
102
RTVSPropertyOp27
 70
     1
102
RTVSPropertyOp28
 70
     1
102
RTVSPropertyOp29
 70
     1
102
RTVSPropertyOp30
 70
     1
102
RTVSPropertyOp31
 70
     1
102
RTVSPropertyOp32
 70
     1
  0
XRECORD
  5
DAD
102
{ACAD_REACTORS
330
DAC
102
}
330
DAC
100
AcDbXrecord
280
     1
102
RTVSPropertyOp0
 70
     1
102
RTVSPropertyOp1
 70
     1
102
RTVSPropertyOp2
 70
     1
102
RTVSPropertyOp3
 70
     1
102
RTVSPropertyOp4
 70
     1
102
RTVSPropertyOp5
 70
     1
102
RTVSPropertyOp6
 70
     1
102
RTVSPropertyOp7
 70
     1
102
RTVSPropertyOp8
 70
     1
102
RTVSPropertyOp9
 70
     1
102
RTVSPropertyOp10
 70
     1
102
RTVSPropertyOp11
 70
     1
102
RTVSPropertyOp12
 70
     1
102
RTVSPropertyOp13
 70
     1
102
RTVSPropertyOp14
 70
     1
102
RTVSPropertyOp15
 70
     1
102
RTVSPropertyOp16
 70
     1
102
RTVSPropertyOp17
 70
     1
102
RTVSPropertyOp18
 70
     1
102
RTVSPropertyOp19
 70
     1
102
RTVSPropertyOp20
 70
     1
102
RTVSPropertyOp21
 70
     1
102
RTVSPropertyOp22
 70
     1
102
RTVSPropertyOp23
 70
     1
102
RTVSPropertyOp24
 70
     1
102
RTVSPropertyOp25
 70
     1
102
RTVSPropertyOp26
 70
     1
102
RTVSPropertyOp27
 70
     1
102
RTVSPropertyOp28
 70
     1
102
RTVSPropertyOp29
 70
     1
102
RTVSPropertyOp30
 70
     1
102
RTVSPropertyOp31
 70
     1
102
RTVSPropertyOp32
 70
     1
  0
XRECORD
  5
DB5
102
{ACAD_REACTORS
330
DB4
102
}
330
DB4
100
AcDbXrecord
280
     1
102
RTVSPropertyOp0
 70
     1
102
RTVSPropertyOp1
 70
     1
102
RTVSPropertyOp2
 70
     1
102
RTVSPropertyOp3
 70
     1
102
RTVSPropertyOp4
 70
     1
102
RTVSPropertyOp5
 70
     1
102
RTVSPropertyOp6
 70
     1
102
RTVSPropertyOp7
 70
     1
102
RTVSPropertyOp8
 70
     1
102
RTVSPropertyOp9
 70
     1
102
RTVSPropertyOp10
 70
     1
102
RTVSPropertyOp11
 70
     1
102
RTVSPropertyOp12
 70
     1
102
RTVSPropertyOp13
 70
     1
102
RTVSPropertyOp14
 70
     1
102
RTVSPropertyOp15
 70
     1
102
RTVSPropertyOp16
 70
     1
102
RTVSPropertyOp17
 70
     1
102
RTVSPropertyOp18
 70
     1
102
RTVSPropertyOp19
 70
     1
102
RTVSPropertyOp20
 70
     1
102
RTVSPropertyOp21
 70
     1
102
RTVSPropertyOp22
 70
     1
102
RTVSPropertyOp23
 70
     1
102
RTVSPropertyOp24
 70
     1
102
RTVSPropertyOp25
 70
     1
102
RTVSPropertyOp26
 70
     1
102
RTVSPropertyOp27
 70
     1
102
RTVSPropertyOp28
 70
     1
102
RTVSPropertyOp29
 70
     1
102
RTVSPropertyOp30
 70
     1
102
RTVSPropertyOp31
 70
     1
102
RTVSPropertyOp32
 70
     1
  0
XRECORD
  5
DA7
102
{ACAD_REACTORS
330
DA6
102
}
330
DA6
100
AcDbXrecord
280
     1
102
RTVSPropertyOp0
 70
     1
102
RTVSPropertyOp1
 70
     1
102
RTVSPropertyOp2
 70
     1
102
RTVSPropertyOp3
 70
     1
102
RTVSPropertyOp4
 70
     1
102
RTVSPropertyOp5
 70
     1
102
RTVSPropertyOp6
 70
     1
102
RTVSPropertyOp7
 70
     1
102
RTVSPropertyOp8
 70
     1
102
RTVSPropertyOp9
 70
     1
102
RTVSPropertyOp10
 70
     1
102
RTVSPropertyOp11
 70
     1
102
RTVSPropertyOp12
 70
     1
102
RTVSPropertyOp13
 70
     1
102
RTVSPropertyOp14
 70
     1
102
RTVSPropertyOp15
 70
     1
102
RTVSPropertyOp16
 70
     1
102
RTVSPropertyOp17
 70
     1
102
RTVSPropertyOp18
 70
     1
102
RTVSPropertyOp19
 70
     1
102
RTVSPropertyOp20
 70
     1
102
RTVSPropertyOp21
 70
     1
102
RTVSPropertyOp22
 70
     1
102
RTVSPropertyOp23
 70
     1
102
RTVSPropertyOp24
 70
     1
102
RTVSPropertyOp25
 70
     1
102
RTVSPropertyOp26
 70
     1
102
RTVSPropertyOp27
 70
     1
102
RTVSPropertyOp28
 70
     1
102
RTVSPropertyOp29
 70
     1
102
RTVSPropertyOp30
 70
     1
102
RTVSPropertyOp31
 70
     1
102
RTVSPropertyOp32
 70
     1
  0
XRECORD
  5
DAB
102
{ACAD_REACTORS
330
DAA
102
}
330
DAA
100
AcDbXrecord
280
     1
102
RTVSPropertyOp0
 70
     1
102
RTVSPropertyOp1
 70
     1
102
RTVSPropertyOp2
 70
     1
102
RTVSPropertyOp3
 70
     1
102
RTVSPropertyOp4
 70
     1
102
RTVSPropertyOp5
 70
     1
102
RTVSPropertyOp6
 70
     1
102
RTVSPropertyOp7
 70
     1
102
RTVSPropertyOp8
 70
     1
102
RTVSPropertyOp9
 70
     1
102
RTVSPropertyOp10
 70
     1
102
RTVSPropertyOp11
 70
     1
102
RTVSPropertyOp12
 70
     1
102
RTVSPropertyOp13
 70
     1
102
RTVSPropertyOp14
 70
     1
102
RTVSPropertyOp15
 70
     1
102
RTVSPropertyOp16
 70
     1
102
RTVSPropertyOp17
 70
     1
102
RTVSPropertyOp18
 70
     1
102
RTVSPropertyOp19
 70
     1
102
RTVSPropertyOp20
 70
     1
102
RTVSPropertyOp21
 70
     1
102
RTVSPropertyOp22
 70
     1
102
RTVSPropertyOp23
 70
     1
102
RTVSPropertyOp24
 70
     1
102
RTVSPropertyOp25
 70
     1
102
RTVSPropertyOp26
 70
     1
102
RTVSPropertyOp27
 70
     1
102
RTVSPropertyOp28
 70
     1
102
RTVSPropertyOp29
 70
     1
102
RTVSPropertyOp30
 70
     1
102
RTVSPropertyOp31
 70
     1
102
RTVSPropertyOp32
 70
     1
  0
XRECORD
  5
DC5
102
{ACAD_REACTORS
330
DC4
102
}
330
DC4
100
AcDbXrecord
280
     1
102
RTVSPropertyOp0
 70
     0
102
RTVSPropertyOp1
 70
     0
102
RTVSPropertyOp2
 70
     0
102
RTVSPropertyOp3
 70
     0
102
RTVSPropertyOp4
 70
     0
102
RTVSPropertyOp5
 70
     0
102
RTVSPropertyOp6
 70
     0
102
RTVSPropertyOp7
 70
     0
102
RTVSPropertyOp8
 70
     0
102
RTVSPropertyOp9
 70
     0
102
RTVSPropertyOp10
 70
     0
102
RTVSPropertyOp11
 70
     0
102
RTVSPropertyOp12
 70
     0
102
RTVSPropertyOp13
 70
     0
102
RTVSPropertyOp14
 70
     2
102
RTVSPropertyOp15
 70
     0
102
RTVSPropertyOp16
 70
     0
102
RTVSPropertyOp17
 70
     0
102
RTVSPropertyOp18
 70
     0
102
RTVSPropertyOp19
 70
     0
102
RTVSPropertyOp20
 70
     0
102
RTVSPropertyOp21
 70
     0
102
RTVSPropertyOp22
 70
     0
102
RTVSPropertyOp23
 70
     0
102
RTVSPropertyOp24
 70
     0
102
RTVSPropertyOp25
 70
     0
102
RTVSPropertyOp26
 70
     0
102
RTVSPropertyOp27
 70
     0
102
RTVSPropertyOp28
 70
     1
102
RTVSPropertyOp29
 70
     1
102
RTVSPropertyOp30
 70
     1
102
RTVSPropertyOp31
 70
     1
102
RTVSPropertyOp32
 70
     1
  0
XRECORD
  5
DB3
102
{ACAD_REACTORS
330
DB2
102
}
330
DB2
100
AcDbXrecord
280
     1
102
RTVSPropertyOp0
 70
     1
102
RTVSPropertyOp1
 70
     1
102
RTVSPropertyOp2
 70
     1
102
RTVSPropertyOp3
 70
     1
102
RTVSPropertyOp4
 70
     1
102
RTVSPropertyOp5
 70
     1
102
RTVSPropertyOp6
 70
     1
102
RTVSPropertyOp7
 70
     1
102
RTVSPropertyOp8
 70
     1
102
RTVSPropertyOp9
 70
     1
102
RTVSPropertyOp10
 70
     1
102
RTVSPropertyOp11
 70
     1
102
RTVSPropertyOp12
 70
     1
102
RTVSPropertyOp13
 70
     1
102
RTVSPropertyOp14
 70
     1
102
RTVSPropertyOp15
 70
     1
102
RTVSPropertyOp16
 70
     1
102
RTVSPropertyOp17
 70
     1
102
RTVSPropertyOp18
 70
     1
102
RTVSPropertyOp19
 70
     1
102
RTVSPropertyOp20
 70
     1
102
RTVSPropertyOp21
 70
     1
102
RTVSPropertyOp22
 70
     1
102
RTVSPropertyOp23
 70
     1
102
RTVSPropertyOp24
 70
     1
102
RTVSPropertyOp25
 70
     1
102
RTVSPropertyOp26
 70
     1
102
RTVSPropertyOp27
 70
     1
102
RTVSPropertyOp28
 70
     1
102
RTVSPropertyOp29
 70
     1
102
RTVSPropertyOp30
 70
     1
102
RTVSPropertyOp31
 70
     1
102
RTVSPropertyOp32
 70
     1
  0
XRECORD
  5
D97
102
{ACAD_REACTORS
330
D96
102
}
330
D96
100
AcDbXrecord
280
     1
102
RTVSPropertyOp0
 70
     1
102
RTVSPropertyOp1
 70
     1
102
RTVSPropertyOp2
 70
     1
102
RTVSPropertyOp3
 70
     1
102
RTVSPropertyOp4
 70
     1
102
RTVSPropertyOp5
 70
     1
102
RTVSPropertyOp6
 70
     1
102
RTVSPropertyOp7
 70
     1
102
RTVSPropertyOp8
 70
     1
102
RTVSPropertyOp9
 70
     1
102
RTVSPropertyOp10
 70
     1
102
RTVSPropertyOp11
 70
     1
102
RTVSPropertyOp12
 70
     1
102
RTVSPropertyOp13
 70
     1
102
RTVSPropertyOp14
 70
     1
102
RTVSPropertyOp15
 70
     1
102
RTVSPropertyOp16
 70
     1
102
RTVSPropertyOp17
 70
     1
102
RTVSPropertyOp18
 70
     1
102
RTVSPropertyOp19
 70
     1
102
RTVSPropertyOp20
 70
     1
102
RTVSPropertyOp21
 70
     1
102
RTVSPropertyOp22
 70
     1
102
RTVSPropertyOp23
 70
     1
102
RTVSPropertyOp24
 70
     1
102
RTVSPropertyOp25
 70
     1
102
RTVSPropertyOp26
 70
     1
102
RTVSPropertyOp27
 70
     1
102
RTVSPropertyOp28
 70
     1
102
RTVSPropertyOp29
 70
     1
102
RTVSPropertyOp30
 70
     1
102
RTVSPropertyOp31
 70
     1
102
RTVSPropertyOp32
 70
     1
  0
XRECORD
  5
D99
102
{ACAD_REACTORS
330
D98
102
}
330
D98
100
AcDbXrecord
280
     1
102
RTVSPropertyOp0
 70
     1
102
RTVSPropertyOp1
 70
     1
102
RTVSPropertyOp2
 70
     1
102
RTVSPropertyOp3
 70
     1
102
RTVSPropertyOp4
 70
     1
102
RTVSPropertyOp5
 70
     1
102
RTVSPropertyOp6
 70
     1
102
RTVSPropertyOp7
 70
     1
102
RTVSPropertyOp8
 70
     1
102
RTVSPropertyOp9
 70
     1
102
RTVSPropertyOp10
 70
     1
102
RTVSPropertyOp11
 70
     1
102
RTVSPropertyOp12
 70
     1
102
RTVSPropertyOp13
 70
     1
102
RTVSPropertyOp14
 70
     1
102
RTVSPropertyOp15
 70
     1
102
RTVSPropertyOp16
 70
     1
102
RTVSPropertyOp17
 70
     1
102
RTVSPropertyOp18
 70
     1
102
RTVSPropertyOp19
 70
     1
102
RTVSPropertyOp20
 70
     1
102
RTVSPropertyOp21
 70
     1
102
RTVSPropertyOp22
 70
     1
102
RTVSPropertyOp23
 70
     1
102
RTVSPropertyOp24
 70
     1
102
RTVSPropertyOp25
 70
     1
102
RTVSPropertyOp26
 70
     1
102
RTVSPropertyOp27
 70
     1
102
RTVSPropertyOp28
 70
     1
102
RTVSPropertyOp29
 70
     1
102
RTVSPropertyOp30
 70
     1
102
RTVSPropertyOp31
 70
     1
102
RTVSPropertyOp32
 70
     1
  0
XRECORD
  5
D9B
102
{ACAD_REACTORS
330
D9A
102
}
330
D9A
100
AcDbXrecord
280
     1
102
RTVSPropertyOp0
 70
     1
102
RTVSPropertyOp1
 70
     1
102
RTVSPropertyOp2
 70
     1
102
RTVSPropertyOp3
 70
     1
102
RTVSPropertyOp4
 70
     1
102
RTVSPropertyOp5
 70
     1
102
RTVSPropertyOp6
 70
     1
102
RTVSPropertyOp7
 70
     1
102
RTVSPropertyOp8
 70
     1
102
RTVSPropertyOp9
 70
     1
102
RTVSPropertyOp10
 70
     1
102
RTVSPropertyOp11
 70
     1
102
RTVSPropertyOp12
 70
     1
102
RTVSPropertyOp13
 70
     1
102
RTVSPropertyOp14
 70
     1
102
RTVSPropertyOp15
 70
     1
102
RTVSPropertyOp16
 70
     1
102
RTVSPropertyOp17
 70
     1
102
RTVSPropertyOp18
 70
     1
102
RTVSPropertyOp19
 70
     1
102
RTVSPropertyOp20
 70
     1
102
RTVSPropertyOp21
 70
     1
102
RTVSPropertyOp22
 70
     1
102
RTVSPropertyOp23
 70
     1
102
RTVSPropertyOp24
 70
     1
102
RTVSPropertyOp25
 70
     1
102
RTVSPropertyOp26
 70
     1
102
RTVSPropertyOp27
 70
     1
102
RTVSPropertyOp28
 70
     1
102
RTVSPropertyOp29
 70
     1
102
RTVSPropertyOp30
 70
     1
102
RTVSPropertyOp31
 70
     1
102
RTVSPropertyOp32
 70
     1
  0
XRECORD
  5
D9D
102
{ACAD_REACTORS
330
D9C
102
}
330
D9C
100
AcDbXrecord
280
     1
102
RTVSPropertyOp0
 70
     1
102
RTVSPropertyOp1
 70
     1
102
RTVSPropertyOp2
 70
     1
102
RTVSPropertyOp3
 70
     1
102
RTVSPropertyOp4
 70
     1
102
RTVSPropertyOp5
 70
     1
102
RTVSPropertyOp6
 70
     1
102
RTVSPropertyOp7
 70
     1
102
RTVSPropertyOp8
 70
     1
102
RTVSPropertyOp9
 70
     1
102
RTVSPropertyOp10
 70
     1
102
RTVSPropertyOp11
 70
     1
102
RTVSPropertyOp12
 70
     1
102
RTVSPropertyOp13
 70
     1
102
RTVSPropertyOp14
 70
     1
102
RTVSPropertyOp15
 70
     1
102
RTVSPropertyOp16
 70
     1
102
RTVSPropertyOp17
 70
     1
102
RTVSPropertyOp18
 70
     1
102
RTVSPropertyOp19
 70
     1
102
RTVSPropertyOp20
 70
     1
102
RTVSPropertyOp21
 70
     1
102
RTVSPropertyOp22
 70
     1
102
RTVSPropertyOp23
 70
     1
102
RTVSPropertyOp24
 70
     1
102
RTVSPropertyOp25
 70
     1
102
RTVSPropertyOp26
 70
     1
102
RTVSPropertyOp27
 70
     1
102
RTVSPropertyOp28
 70
     1
102
RTVSPropertyOp29
 70
     1
102
RTVSPropertyOp30
 70
     1
102
RTVSPropertyOp31
 70
     1
102
RTVSPropertyOp32
 70
     1
  0
XRECORD
  5
DA5
102
{ACAD_REACTORS
330
DA4
102
}
330
DA4
100
AcDbXrecord
280
     1
102
RTVSPropertyOp0
 70
     1
102
RTVSPropertyOp1
 70
     1
102
RTVSPropertyOp2
 70
     1
102
RTVSPropertyOp3
 70
     1
102
RTVSPropertyOp4
 70
     1
102
RTVSPropertyOp5
 70
     1
102
RTVSPropertyOp6
 70
     1
102
RTVSPropertyOp7
 70
     1
102
RTVSPropertyOp8
 70
     1
102
RTVSPropertyOp9
 70
     1
102
RTVSPropertyOp10
 70
     1
102
RTVSPropertyOp11
 70
     1
102
RTVSPropertyOp12
 70
     1
102
RTVSPropertyOp13
 70
     1
102
RTVSPropertyOp14
 70
     1
102
RTVSPropertyOp15
 70
     1
102
RTVSPropertyOp16
 70
     1
102
RTVSPropertyOp17
 70
     1
102
RTVSPropertyOp18
 70
     1
102
RTVSPropertyOp19
 70
     1
102
RTVSPropertyOp20
 70
     1
102
RTVSPropertyOp21
 70
     1
102
RTVSPropertyOp22
 70
     1
102
RTVSPropertyOp23
 70
     1
102
RTVSPropertyOp24
 70
     1
102
RTVSPropertyOp25
 70
     1
102
RTVSPropertyOp26
 70
     1
102
RTVSPropertyOp27
 70
     1
102
RTVSPropertyOp28
 70
     1
102
RTVSPropertyOp29
 70
     1
102
RTVSPropertyOp30
 70
     1
102
RTVSPropertyOp31
 70
     1
102
RTVSPropertyOp32
 70
     1
  0
XRECORD
  5
DC1
102
{ACAD_REACTORS
330
DC0
102
}
330
DC0
100
AcDbXrecord
280
     1
102
RTVSPropertyOp0
 70
     0
102
RTVSPropertyOp1
 70
     0
102
RTVSPropertyOp2
 70
     0
102
RTVSPropertyOp3
 70
     0
102
RTVSPropertyOp4
 70
     0
102
RTVSPropertyOp5
 70
     0
102
RTVSPropertyOp6
 70
     0
102
RTVSPropertyOp7
 70
     0
102
RTVSPropertyOp8
 70
     0
102
RTVSPropertyOp9
 70
     0
102
RTVSPropertyOp10
 70
     0
102
RTVSPropertyOp11
 70
     0
102
RTVSPropertyOp12
 70
     0
102
RTVSPropertyOp13
 70
     0
102
RTVSPropertyOp14
 70
     2
102
RTVSPropertyOp15
 70
     0
102
RTVSPropertyOp16
 70
     0
102
RTVSPropertyOp17
 70
     0
102
RTVSPropertyOp18
 70
     0
102
RTVSPropertyOp19
 70
     0
102
RTVSPropertyOp20
 70
     0
102
RTVSPropertyOp21
 70
     0
102
RTVSPropertyOp22
 70
     0
102
RTVSPropertyOp23
 70
     0
102
RTVSPropertyOp24
 70
     0
102
RTVSPropertyOp25
 70
     0
102
RTVSPropertyOp26
 70
     0
102
RTVSPropertyOp27
 70
     0
102
RTVSPropertyOp28
 70
     1
102
RTVSPropertyOp29
 70
     1
102
RTVSPropertyOp30
 70
     1
102
RTVSPropertyOp31
 70
     1
102
RTVSPropertyOp32
 70
     1
  0
XRECORD
  5
DB1
102
{ACAD_REACTORS
330
DB0
102
}
330
DB0
100
AcDbXrecord
280
     1
102
RTVSPropertyOp0
 70
     1
102
RTVSPropertyOp1
 70
     1
102
RTVSPropertyOp2
 70
     1
102
RTVSPropertyOp3
 70
     1
102
RTVSPropertyOp4
 70
     1
102
RTVSPropertyOp5
 70
     1
102
RTVSPropertyOp6
 70
     1
102
RTVSPropertyOp7
 70
     1
102
RTVSPropertyOp8
 70
     1
102
RTVSPropertyOp9
 70
     1
102
RTVSPropertyOp10
 70
     1
102
RTVSPropertyOp11
 70
     1
102
RTVSPropertyOp12
 70
     1
102
RTVSPropertyOp13
 70
     1
102
RTVSPropertyOp14
 70
     1
102
RTVSPropertyOp15
 70
     1
102
RTVSPropertyOp16
 70
     1
102
RTVSPropertyOp17
 70
     1
102
RTVSPropertyOp18
 70
     1
102
RTVSPropertyOp19
 70
     1
102
RTVSPropertyOp20
 70
     1
102
RTVSPropertyOp21
 70
     1
102
RTVSPropertyOp22
 70
     1
102
RTVSPropertyOp23
 70
     1
102
RTVSPropertyOp24
 70
     1
102
RTVSPropertyOp25
 70
     1
102
RTVSPropertyOp26
 70
     1
102
RTVSPropertyOp27
 70
     1
102
RTVSPropertyOp28
 70
     1
102
RTVSPropertyOp29
 70
     1
102
RTVSPropertyOp30
 70
     1
102
RTVSPropertyOp31
 70
     1
102
RTVSPropertyOp32
 70
     1
  0
XRECORD
  5
DC3
102
{ACAD_REACTORS
330
DC2
102
}
330
DC2
100
AcDbXrecord
280
     1
102
RTVSPropertyOp0
 70
     0
102
RTVSPropertyOp1
 70
     0
102
RTVSPropertyOp2
 70
     0
102
RTVSPropertyOp3
 70
     0
102
RTVSPropertyOp4
 70
     0
102
RTVSPropertyOp5
 70
     0
102
RTVSPropertyOp6
 70
     0
102
RTVSPropertyOp7
 70
     0
102
RTVSPropertyOp8
 70
     0
102
RTVSPropertyOp9
 70
     0
102
RTVSPropertyOp10
 70
     0
102
RTVSPropertyOp11
 70
     0
102
RTVSPropertyOp12
 70
     0
102
RTVSPropertyOp13
 70
     0
102
RTVSPropertyOp14
 70
     2
102
RTVSPropertyOp15
 70
     0
102
RTVSPropertyOp16
 70
     0
102
RTVSPropertyOp17
 70
     0
102
RTVSPropertyOp18
 70
     0
102
RTVSPropertyOp19
 70
     0
102
RTVSPropertyOp20
 70
     0
102
RTVSPropertyOp21
 70
     0
102
RTVSPropertyOp22
 70
     0
102
RTVSPropertyOp23
 70
     0
102
RTVSPropertyOp24
 70
     0
102
RTVSPropertyOp25
 70
     0
102
RTVSPropertyOp26
 70
     0
102
RTVSPropertyOp27
 70
     0
102
RTVSPropertyOp28
 70
     1
102
RTVSPropertyOp29
 70
     1
102
RTVSPropertyOp30
 70
     1
102
RTVSPropertyOp31
 70
     1
102
RTVSPropertyOp32
 70
     1
  0
XRECORD
  5
DA9
102
{ACAD_REACTORS
330
DA8
102
}
330
DA8
100
AcDbXrecord
280
     1
102
RTVSPropertyOp0
 70
     1
102
RTVSPropertyOp1
 70
     1
102
RTVSPropertyOp2
 70
     1
102
RTVSPropertyOp3
 70
     1
102
RTVSPropertyOp4
 70
     1
102
RTVSPropertyOp5
 70
     1
102
RTVSPropertyOp6
 70
     1
102
RTVSPropertyOp7
 70
     1
102
RTVSPropertyOp8
 70
     1
102
RTVSPropertyOp9
 70
     1
102
RTVSPropertyOp10
 70
     1
102
RTVSPropertyOp11
 70
     1
102
RTVSPropertyOp12
 70
     1
102
RTVSPropertyOp13
 70
     1
102
RTVSPropertyOp14
 70
     1
102
RTVSPropertyOp15
 70
     1
102
RTVSPropertyOp16
 70
     1
102
RTVSPropertyOp17
 70
     1
102
RTVSPropertyOp18
 70
     1
102
RTVSPropertyOp19
 70
     1
102
RTVSPropertyOp20
 70
     1
102
RTVSPropertyOp21
 70
     1
102
RTVSPropertyOp22
 70
     1
102
RTVSPropertyOp23
 70
     1
102
RTVSPropertyOp24
 70
     1
102
RTVSPropertyOp25
 70
     1
102
RTVSPropertyOp26
 70
     1
102
RTVSPropertyOp27
 70
     1
102
RTVSPropertyOp28
 70
     1
102
RTVSPropertyOp29
 70
     1
102
RTVSPropertyOp30
 70
     1
102
RTVSPropertyOp31
 70
     1
102
RTVSPropertyOp32
 70
     1
  0
XRECORD
  5
DBF
102
{ACAD_REACTORS
330
DBE
102
}
330
DBE
100
AcDbXrecord
280
     1
102
RTVSPropertyOp0
 70
     1
102
RTVSPropertyOp1
 70
     1
102
RTVSPropertyOp2
 70
     1
102
RTVSPropertyOp3
 70
     1
102
RTVSPropertyOp4
 70
     1
102
RTVSPropertyOp5
 70
     1
102
RTVSPropertyOp6
 70
     1
102
RTVSPropertyOp7
 70
     1
102
RTVSPropertyOp8
 70
     1
102
RTVSPropertyOp9
 70
     1
102
RTVSPropertyOp10
 70
     1
102
RTVSPropertyOp11
 70
     1
102
RTVSPropertyOp12
 70
     1
102
RTVSPropertyOp13
 70
     1
102
RTVSPropertyOp14
 70
     1
102
RTVSPropertyOp15
 70
     1
102
RTVSPropertyOp16
 70
     1
102
RTVSPropertyOp17
 70
     1
102
RTVSPropertyOp18
 70
     1
102
RTVSPropertyOp19
 70
     1
102
RTVSPropertyOp20
 70
     1
102
RTVSPropertyOp21
 70
     1
102
RTVSPropertyOp22
 70
     1
102
RTVSPropertyOp23
 70
     1
102
RTVSPropertyOp24
 70
     1
102
RTVSPropertyOp25
 70
     1
102
RTVSPropertyOp26
 70
     1
102
RTVSPropertyOp27
 70
     1
102
RTVSPropertyOp28
 70
     1
102
RTVSPropertyOp29
 70
     1
102
RTVSPropertyOp30
 70
     1
102
RTVSPropertyOp31
 70
     1
102
RTVSPropertyOp32
 70
     1
  0
XRECORD
  5
DBD
102
{ACAD_REACTORS
330
DBC
102
}
330
DBC
100
AcDbXrecord
280
     1
102
RTVSPropertyOp0
 70
     1
102
RTVSPropertyOp1
 70
     1
102
RTVSPropertyOp2
 70
     1
102
RTVSPropertyOp3
 70
     1
102
RTVSPropertyOp4
 70
     1
102
RTVSPropertyOp5
 70
     1
102
RTVSPropertyOp6
 70
     1
102
RTVSPropertyOp7
 70
     1
102
RTVSPropertyOp8
 70
     1
102
RTVSPropertyOp9
 70
     1
102
RTVSPropertyOp10
 70
     1
102
RTVSPropertyOp11
 70
     1
102
RTVSPropertyOp12
 70
     1
102
RTVSPropertyOp13
 70
     1
102
RTVSPropertyOp14
 70
     1
102
RTVSPropertyOp15
 70
     1
102
RTVSPropertyOp16
 70
     1
102
RTVSPropertyOp17
 70
     1
102
RTVSPropertyOp18
 70
     1
102
RTVSPropertyOp19
 70
     1
102
RTVSPropertyOp20
 70
     1
102
RTVSPropertyOp21
 70
     1
102
RTVSPropertyOp22
 70
     1
102
RTVSPropertyOp23
 70
     1
102
RTVSPropertyOp24
 70
     1
102
RTVSPropertyOp25
 70
     1
102
RTVSPropertyOp26
 70
     1
102
RTVSPropertyOp27
 70
     1
102
RTVSPropertyOp28
 70
     1
102
RTVSPropertyOp29
 70
     1
102
RTVSPropertyOp30
 70
     1
102
RTVSPropertyOp31
 70
     1
102
RTVSPropertyOp32
 70
     1
  0
XRECORD
  5
DB7
102
{ACAD_REACTORS
330
DB6
102
}
330
DB6
100
AcDbXrecord
280
     1
102
RTVSPropertyOp0
 70
     1
102
RTVSPropertyOp1
 70
     1
102
RTVSPropertyOp2
 70
     1
102
RTVSPropertyOp3
 70
     1
102
RTVSPropertyOp4
 70
     1
102
RTVSPropertyOp5
 70
     1
102
RTVSPropertyOp6
 70
     1
102
RTVSPropertyOp7
 70
     1
102
RTVSPropertyOp8
 70
     1
102
RTVSPropertyOp9
 70
     1
102
RTVSPropertyOp10
 70
     1
102
RTVSPropertyOp11
 70
     1
102
RTVSPropertyOp12
 70
     1
102
RTVSPropertyOp13
 70
     1
102
RTVSPropertyOp14
 70
     1
102
RTVSPropertyOp15
 70
     1
102
RTVSPropertyOp16
 70
     1
102
RTVSPropertyOp17
 70
     1
102
RTVSPropertyOp18
 70
     1
102
RTVSPropertyOp19
 70
     1
102
RTVSPropertyOp20
 70
     1
102
RTVSPropertyOp21
 70
     1
102
RTVSPropertyOp22
 70
     1
102
RTVSPropertyOp23
 70
     1
102
RTVSPropertyOp24
 70
     1
102
RTVSPropertyOp25
 70
     1
102
RTVSPropertyOp26
 70
     1
102
RTVSPropertyOp27
 70
     1
102
RTVSPropertyOp28
 70
     1
102
RTVSPropertyOp29
 70
     1
102
RTVSPropertyOp30
 70
     1
102
RTVSPropertyOp31
 70
     1
102
RTVSPropertyOp32
 70
     1
  0
XRECORD
  5
DB9
102
{ACAD_REACTORS
330
DB8
102
}
330
DB8
100
AcDbXrecord
280
     1
102
RTVSPropertyOp0
 70
     1
102
RTVSPropertyOp1
 70
     1
102
RTVSPropertyOp2
 70
     1
102
RTVSPropertyOp3
 70
     1
102
RTVSPropertyOp4
 70
     1
102
RTVSPropertyOp5
 70
     1
102
RTVSPropertyOp6
 70
     1
102
RTVSPropertyOp7
 70
     1
102
RTVSPropertyOp8
 70
     1
102
RTVSPropertyOp9
 70
     1
102
RTVSPropertyOp10
 70
     1
102
RTVSPropertyOp11
 70
     1
102
RTVSPropertyOp12
 70
     1
102
RTVSPropertyOp13
 70
     1
102
RTVSPropertyOp14
 70
     1
102
RTVSPropertyOp15
 70
     1
102
RTVSPropertyOp16
 70
     1
102
RTVSPropertyOp17
 70
     1
102
RTVSPropertyOp18
 70
     1
102
RTVSPropertyOp19
 70
     1
102
RTVSPropertyOp20
 70
     1
102
RTVSPropertyOp21
 70
     1
102
RTVSPropertyOp22
 70
     1
102
RTVSPropertyOp23
 70
     1
102
RTVSPropertyOp24
 70
     1
102
RTVSPropertyOp25
 70
     1
102
RTVSPropertyOp26
 70
     1
102
RTVSPropertyOp27
 70
     1
102
RTVSPropertyOp28
 70
     1
102
RTVSPropertyOp29
 70
     1
102
RTVSPropertyOp30
 70
     1
102
RTVSPropertyOp31
 70
     1
102
RTVSPropertyOp32
 70
     1
  0
XRECORD
  5
DAF
102
{ACAD_REACTORS
330
DAE
102
}
330
DAE
100
AcDbXrecord
280
     1
102
RTVSPropertyOp0
 70
     1
102
RTVSPropertyOp1
 70
     1
102
RTVSPropertyOp2
 70
     1
102
RTVSPropertyOp3
 70
     1
102
RTVSPropertyOp4
 70
     1
102
RTVSPropertyOp5
 70
     1
102
RTVSPropertyOp6
 70
     1
102
RTVSPropertyOp7
 70
     1
102
RTVSPropertyOp8
 70
     1
102
RTVSPropertyOp9
 70
     1
102
RTVSPropertyOp10
 70
     1
102
RTVSPropertyOp11
 70
     1
102
RTVSPropertyOp12
 70
     1
102
RTVSPropertyOp13
 70
     1
102
RTVSPropertyOp14
 70
     1
102
RTVSPropertyOp15
 70
     1
102
RTVSPropertyOp16
 70
     1
102
RTVSPropertyOp17
 70
     1
102
RTVSPropertyOp18
 70
     1
102
RTVSPropertyOp19
 70
     1
102
RTVSPropertyOp20
 70
     1
102
RTVSPropertyOp21
 70
     1
102
RTVSPropertyOp22
 70
     1
102
RTVSPropertyOp23
 70
     1
102
RTVSPropertyOp24
 70
     1
102
RTVSPropertyOp25
 70
     1
102
RTVSPropertyOp26
 70
     1
102
RTVSPropertyOp27
 70
     1
102
RTVSPropertyOp28
 70
     1
102
RTVSPropertyOp29
 70
     1
102
RTVSPropertyOp30
 70
     1
102
RTVSPropertyOp31
 70
     1
102
RTVSPropertyOp32
 70
     1
  0
XRECORD
  5
DA3
102
{ACAD_REACTORS
330
DA2
102
}
330
DA2
100
AcDbXrecord
280
     1
102
RTVSPropertyOp0
 70
     1
102
RTVSPropertyOp1
 70
     1
102
RTVSPropertyOp2
 70
     1
102
RTVSPropertyOp3
 70
     1
102
RTVSPropertyOp4
 70
     1
102
RTVSPropertyOp5
 70
     1
102
RTVSPropertyOp6
 70
     1
102
RTVSPropertyOp7
 70
     1
102
RTVSPropertyOp8
 70
     1
102
RTVSPropertyOp9
 70
     1
102
RTVSPropertyOp10
 70
     1
102
RTVSPropertyOp11
 70
     1
102
RTVSPropertyOp12
 70
     1
102
RTVSPropertyOp13
 70
     1
102
RTVSPropertyOp14
 70
     1
102
RTVSPropertyOp15
 70
     1
102
RTVSPropertyOp16
 70
     1
102
RTVSPropertyOp17
 70
     1
102
RTVSPropertyOp18
 70
     1
102
RTVSPropertyOp19
 70
     1
102
RTVSPropertyOp20
 70
     1
102
RTVSPropertyOp21
 70
     1
102
RTVSPropertyOp22
 70
     1
102
RTVSPropertyOp23
 70
     1
102
RTVSPropertyOp24
 70
     1
102
RTVSPropertyOp25
 70
     1
102
RTVSPropertyOp26
 70
     1
102
RTVSPropertyOp27
 70
     1
102
RTVSPropertyOp28
 70
     1
102
RTVSPropertyOp29
 70
     1
102
RTVSPropertyOp30
 70
     1
102
RTVSPropertyOp31
 70
     1
102
RTVSPropertyOp32
 70
     1
  0
XRECORD
  5
DBB
102
{ACAD_REACTORS
330
DBA
102
}
330
DBA
100
AcDbXrecord
280
     1
102
RTVSPropertyOp0
 70
     1
102
RTVSPropertyOp1
 70
     1
102
RTVSPropertyOp2
 70
     1
102
RTVSPropertyOp3
 70
     1
102
RTVSPropertyOp4
 70
     1
102
RTVSPropertyOp5
 70
     1
102
RTVSPropertyOp6
 70
     1
102
RTVSPropertyOp7
 70
     1
102
RTVSPropertyOp8
 70
     1
102
RTVSPropertyOp9
 70
     1
102
RTVSPropertyOp10
 70
     1
102
RTVSPropertyOp11
 70
     1
102
RTVSPropertyOp12
 70
     1
102
RTVSPropertyOp13
 70
     1
102
RTVSPropertyOp14
 70
     1
102
RTVSPropertyOp15
 70
     1
102
RTVSPropertyOp16
 70
     1
102
RTVSPropertyOp17
 70
     1
102
RTVSPropertyOp18
 70
     1
102
RTVSPropertyOp19
 70
     1
102
RTVSPropertyOp20
 70
     1
102
RTVSPropertyOp21
 70
     1
102
RTVSPropertyOp22
 70
     1
102
RTVSPropertyOp23
 70
     1
102
RTVSPropertyOp24
 70
     1
102
RTVSPropertyOp25
 70
     1
102
RTVSPropertyOp26
 70
     1
102
RTVSPropertyOp27
 70
     1
102
RTVSPropertyOp28
 70
     1
102
RTVSPropertyOp29
 70
     1
102
RTVSPropertyOp30
 70
     1
102
RTVSPropertyOp31
 70
     1
102
RTVSPropertyOp32
 70
     1
  0
ENDSEC
  0
EOF
