  0
SECTION
  2
HEADER
  9
$ACADVER
  1
AC1015
  9
$ACADMAINTVER
 70
    18
  9
$DWGCODEPAGE
  3
ANSI_1252
  9
$INSBASE
 10
0.0
 20
0.0
 30
0.0
  9
$EXTMIN
 10
0.0
 20
0.0
 30
0.0
  9
$EXTMAX
 10
68.0
 20
44.0
 30
0.0
  9
$LIMMIN
 10
0.0
 20
0.0
  9
$LIMMAX
 10
68.0
 20
44.0
  9
$ORTHOMODE
 70
     0
  9
$REGENMODE
 70
     1
  9
$FILLMODE
 70
     1
  9
$QTEXTMODE
 70
     0
  9
$MIRRTEXT
 70
     0
  9
$LTSCALE
 40
4.0
  9
$ATTMODE
 70
     1
  9
$TEXTSIZE
 40
0.2
  9
$TRACEWID
 40
0.05
  9
$TEXTSTYLE
  7
Standard
  9
$CLAYER
  8
0
  9
$CELTYPE
  6
ByLayer
  9
$CECOLOR
 62
   256
  9
$CELTSCALE
 40
1.0
  9
$DISPSILH
 70
     0
  9
$DIMSCALE
 40
1.0
  9
$DIMASZ
 40
0.0708661417322835
  9
$DIMEXO
 40
0.0625
  9
$DIMDLI
 40
0.38
  9
$DIMRND
 40
0.0
  9
$DIMDLE
 40
0.0
  9
$DIMEXE
 40
0.18
  9
$DIMTP
 40
0.0
  9
$DIMTM
 40
0.0
  9
$DIMTXT
 40
0.0708661417322835
  9
$DIMCEN
 40
0.09
  9
$DIMTSZ
 40
0.0
  9
$DIMTOL
 70
     0
  9
$DIMLIM
 70
     0
  9
$DIMTIH
 70
     1
  9
$DIMTOH
 70
     1
  9
$DIMSE1
 70
     0
  9
$DIMSE2
 70
     0
  9
$DIMTAD
 70
     0
  9
$DIMZIN
 70
     0
  9
$DIMBLK
  1

  9
$DIMASO
 70
     1
  9
$DIMSHO
 70
     1
  9
$DIMPOST
  1

  9
$DIMAPOST
  1

  9
$DIMALT
 70
     0
  9
$DIMALTD
 70
     2
  9
$DIMALTF
 40
25.4
  9
$DIMLFAC
 40
1.0
  9
$DIMTOFL
 70
     0
  9
$DIMTVP
 40
0.0
  9
$DIMTIX
 70
     0
  9
$DIMSOXD
 70
     0
  9
$DIMSAH
 70
     0
  9
$DIMBLK1
  1

  9
$DIMBLK2
  1

  9
$DIMSTYLE
  2
STANDARD
  9
$DIMCLRD
 70
     0
  9
$DIMCLRE
 70
     0
  9
$DIMCLRT
 70
     0
  9
$DIMTFAC
 40
1.0
  9
$DIMGAP
 40
0.09
  9
$DIMJUST
 70
     0
  9
$DIMSD1
 70
     0
  9
$DIMSD2
 70
     0
  9
$DIMTOLJ
 70
     1
  9
$DIMTZIN
 70
     0
  9
$DIMALTZ
 70
     0
  9
$DIMALTTZ
 70
     0
  9
$DIMUPT
 70
     0
  9
$DIMDEC
 70
     4
  9
$DIMTDEC
 70
     4
  9
$DIMALTU
 70
     2
  9
$DIMALTTD
 70
     2
  9
$DIMTXSTY
  7
Standard
  9
$DIMAUNIT
 70
     0
  9
$DIMADEC
 70
     0
  9
$DIMALTRND
 40
0.0
  9
$DIMAZIN
 70
     0
  9
$DIMDSEP
 70
    46
  9
$DIMATFIT
 70
     3
  9
$DIMFRAC
 70
     0
  9
$DIMLDRBLK
  1

  9
$DIMLUNIT
 70
     2
  9
$DIMLWD
 70
    -2
  9
$DIMLWE
 70
    -2
  9
$DIMTMOVE
 70
     0
  9
$LUNITS
 70
     2
  9
$LUPREC
 70
     4
  9
$SKETCHINC
 40
0.1
  9
$FILLETRAD
 40
0.0
  9
$AUNITS
 70
     0
  9
$AUPREC
 70
     0
  9
$MENU
  1
.
  9
$ELEVATION
 40
0.0
  9
$PELEVATION
 40
0.0
  9
$THICKNESS
 40
0.0
  9
$LIMCHECK
 70
     0
  9
$CHAMFERA
 40
0.0
  9
$CHAMFERB
 40
0.0
  9
$CHAMFERC
 40
0.0
  9
$CHAMFERD
 40
0.0
  9
$SKPOLY
 70
     0
  9
$TDCREATE
 40
2455944.482691482
  9
$TDUCREATE
 40
2455944.732691482
  9
$TDUPDATE
 40
2455944.482691482
  9
$TDUUPDATE
 40
2455944.732691482
  9
$TDINDWG
 40
0.0000363542
  9
$TDUSRTIMER
 40
0.0000363542
  9
$USRTIMER
 70
     1
  9
$ANGBASE
 50
0.0
  9
$ANGDIR
 70
     0
  9
$PDMODE
 70
     0
  9
$PDSIZE
 40
0.0
  9
$PLINEWID
 40
0.0
  9
$SPLFRAME
 70
     0
  9
$SPLINETYPE
 70
     6
  9
$SPLINESEGS
 70
     8
  9
$HANDSEED
  5
D2E
  9
$SURFTAB1
 70
     6
  9
$SURFTAB2
 70
     6
  9
$SURFTYPE
 70
     6
  9
$SURFU
 70
     6
  9
$SURFV
 70
     6
  9
$UCSBASE
  2

  9
$UCSNAME
  2

  9
$UCSORG
 10
0.0
 20
0.0
 30
0.0
  9
$UCSXDIR
 10
1.0
 20
0.0
 30
0.0
  9
$UCSYDIR
 10
0.0
 20
1.0
 30
0.0
  9
$UCSORTHOREF
  2

  9
$UCSORTHOVIEW
 70
     0
  9
$UCSORGTOP
 10
0.0
 20
0.0
 30
0.0
  9
$UCSORGBOTTOM
 10
0.0
 20
0.0
 30
0.0
  9
$UCSORGLEFT
 10
0.0
 20
0.0
 30
0.0
  9
$UCSORGRIGHT
 10
0.0
 20
0.0
 30
0.0
  9
$UCSORGFRONT
 10
0.0
 20
0.0
 30
0.0
  9
$UCSORGBACK
 10
0.0
 20
0.0
 30
0.0
  9
$PUCSBASE
  2

  9
$PUCSNAME
  2

  9
$PUCSORG
 10
0.0
 20
0.0
 30
0.0
  9
$PUCSXDIR
 10
1.0
 20
0.0
 30
0.0
  9
$PUCSYDIR
 10
0.0
 20
1.0
 30
0.0
  9
$PUCSORTHOREF
  2

  9
$PUCSORTHOVIEW
 70
     0
  9
$PUCSORGTOP
 10
0.0
 20
0.0
 30
0.0
  9
$PUCSORGBOTTOM
 10
0.0
 20
0.0
 30
0.0
  9
$PUCSORGLEFT
 10
0.0
 20
0.0
 30
0.0
  9
$PUCSORGRIGHT
 10
0.0
 20
0.0
 30
0.0
  9
$PUCSORGFRONT
 10
0.0
 20
0.0
 30
0.0
  9
$PUCSORGBACK
 10
0.0
 20
0.0
 30
0.0
  9
$USERI1
 70
     0
  9
$USERI2
 70
     0
  9
$USERI3
 70
     0
  9
$USERI4
 70
     0
  9
$USERI5
 70
     0
  9
$USERR1
 40
0.0
  9
$USERR2
 40
0.0
  9
$USERR3
 40
0.0
  9
$USERR4
 40
0.0
  9
$USERR5
 40
0.0
  9
$WORLDVIEW
 70
     1
  9
$SHADEDGE
 70
     3
  9
$SHADEDIF
 70
    70
  9
$TILEMODE
 70
     1
  9
$MAXACTVP
 70
    64
  9
$PINSBASE
 10
0.0
 20
0.0
 30
0.0
  9
$PLIMCHECK
 70
     0
  9
$PEXTMIN
 10
0.0
 20
0.0
 30
0.0
  9
$PEXTMAX
 10
68.0
 20
44.0
 30
0.0
  9
$PLIMMIN
 10
0.0
 20
0.0
  9
$PLIMMAX
 10
68.0
 20
44.0
  9
$UNITMODE
 70
     0
  9
$VISRETAIN
 70
     1
  9
$PLINEGEN
 70
     0
  9
$PSLTSCALE
 70
     1
  9
$TREEDEPTH
 70
  3020
  9
$CMLSTYLE
  2
Standard
  9
$CMLJUST
 70
     0
  9
$CMLSCALE
 40
1.0
  9
$PROXYGRAPHICS
 70
     1
  9
$MEASUREMENT
 70
     0
  9
$CELWEIGHT
370
    -1
  9
$ENDCAPS
280
     0
  9
$JOINSTYLE
280
     0
  9
$LWDISPLAY
290
     0
  9
$INSUNITS
 70
     1
  9
$HYPERLINKBASE
  1

  9
$STYLESHEET
  1

  9
$XEDIT
290
     1
  9
$CEPSNTYPE
380
     0
  9
$PSTYLEMODE
290
     1
  9
$FINGERPRINTGUID
  2
{1347F18D-060F-4CC7-952A-34C178B3DF6F}
  9
$VERSIONGUID
  2
{53AC74AE-B373-434E-9591-66233300B2AF}
  9
$EXTNAMES
290
     1
  9
$PSVPSCALE
 40
0.0
  9
$OLESTARTUP
290
     0
  0
ENDSEC
  0
SECTION
  2
CLASSES
  0
CLASS
  1
ACDBDICTIONARYWDFLT
  2
AcDbDictionaryWithDefault
  3
ObjectDBX Classes
 90
        0
280
     0
281
     0
  0
CLASS
  1
MATERIAL
  2
AcDbMaterial
  3
ObjectDBX Classes
 90
     1153
280
     0
281
     0
  0
CLASS
  1
VISUALSTYLE
  2
AcDbVisualStyle
  3
ObjectDBX Classes
 90
     4095
280
     0
281
     0
  0
CLASS
  1
SCALE
  2
AcDbScale
  3
ObjectDBX Classes
 90
     1153
280
     0
281
     0
  0
CLASS
  1
TABLESTYLE
  2
AcDbTableStyle
  3
ObjectDBX Classes
 90
     4095
280
     0
281
     0
  0
CLASS
  1
MLEADERSTYLE
  2
AcDbMLeaderStyle
  3
ACDB_MLEADERSTYLE_CLASS
 90
     4095
280
     0
281
     0
  0
CLASS
  1
DICTIONARYVAR
  2
AcDbDictionaryVar
  3
ObjectDBX Classes
 90
        0
280
     0
281
     0
  0
CLASS
  1
CELLSTYLEMAP
  2
AcDbCellStyleMap
  3
ObjectDBX Classes
 90
     1152
280
     0
281
     0
  0
CLASS
  1
ACDBPLACEHOLDER
  2
AcDbPlaceHolder
  3
ObjectDBX Classes
 90
        0
280
     0
281
     0
  0
CLASS
  1
LAYOUT
  2
AcDbLayout
  3
ObjectDBX Classes
 90
        0
280
     0
281
     0
  0
ENDSEC
  0
SECTION
  2
TABLES
  0
TABLE
  2
VPORT
  5
8
330
0
100
AcDbSymbolTable
 70
     1
  0
VPORT
  5
57
330
8
100
AcDbSymbolTableRecord
100
AcDbViewportTableRecord
  2
*Active
 70
     0
 10
0.0
 20
0.0
 11
1.0
 21
1.0
 12
34.0
 22
22.0
 13
0.0
 23
0.0
 14
1.0
 24
1.0
 15
0.0
 25
0.0
 16
0.0
 26
0.0
 36
1.0
 17
0.0
 27
0.0
 37
0.0
 40
44.0
 41
1.545454545454545
 42
50.0
 43
0.0
 44
0.0
 50
0.0
 51
0.0
 71
     0
 72
   100
 73
     1
 74
     1
 75
     0
 76
     0
 77
     0
 78
     0
281
     0
 65
     1
110
0.0
120
0.0
130
0.0
111
1.0
121
0.0
131
0.0
112
0.0
122
1.0
132
0.0
 79
     0
146
0.0
  0
ENDTAB
  0
TABLE
  2
LTYPE
  5
5
330
0
100
AcDbSymbolTable
 70
    59
  0
LTYPE
  5
5B
330
5
100
AcDbSymbolTableRecord
100
AcDbLinetypeTableRecord
  2
ByBlock
 70
     0
  3

 72
    65
 73
     0
 40
0.0
  0
LTYPE
  5
5C
330
5
100
AcDbSymbolTableRecord
100
AcDbLinetypeTableRecord
  2
ByLayer
 70
     0
  3

 72
    65
 73
     0
 40
0.0
  0
LTYPE
  5
5D
330
5
100
AcDbSymbolTableRecord
100
AcDbLinetypeTableRecord
  2
Continuous
 70
     0
  3
Solid line
 72
    65
 73
     0
 40
0.0
  0
LTYPE
  5
DD
330
5
100
AcDbSymbolTableRecord
100
AcDbLinetypeTableRecord
  2
BY_STANDARD
 70
     0
  3
By Standard ____________    ____    ____   _
 72
    65
 73
     6
 40
1.240299999999999
 49
0.6614
 74
     0
 49
-0.0827
 74
     0
 49
0.1654
 74
     0
 49
-0.0827
 74
     0
 49
0.1654
 74
     0
 49
-0.0827
 74
     0
  0
LTYPE
  5
DE
330
5
100
AcDbSymbolTableRecord
100
AcDbLinetypeTableRecord
  2
CHAIN
 70
     0
  3
Chain ____ _ ____ _ ____ _ ____ _ ____ _ ____
 72
    65
 73
     4
 40
0.7087
 49
0.4724000000000001
 74
     0
 49
-0.0591
 74
     0
 49
0.1181
 74
     0
 49
-0.0591
 74
     0
  0
LTYPE
  5
DF
330
5
100
AcDbSymbolTableRecord
100
AcDbLinetypeTableRecord
  2
DASH_DOT
 70
     0
  3
Dash dot __ . __ . __ . __ . __ . __ . __ . __
 72
    65
 73
     4
 40
0.37
 49
0.24
 74
     0
 49
-0.06
 74
     0
 49
0.01
 74
     0
 49
-0.06
 74
     0
  0
LTYPE
  5
E0
330
5
100
AcDbSymbolTableRecord
100
AcDbLinetypeTableRecord
  2
DOUBLE_DASH_DOT
 70
     0
  3
Double-Dash Dot __ __ . __ __ . __ __ . __ _
 72
    65
 73
     6
 40
0.4398
 49
0.24
 74
     0
 49
-0.06
 74
     0
 49
0.0098
 74
     0
 49
-0.06
 74
     0
 49
0.01
 74
     0
 49
-0.06
 74
     0
  0
LTYPE
  5
E1
330
5
100
AcDbSymbolTableRecord
100
AcDbLinetypeTableRecord
  2
DASH_TRIPLE_DOT
 70
     0
  3
Dash Triple-Dot _ . . . _ . . . _ . . . _
 72
    65
 73
     8
 40
0.51
 49
0.24
 74
     0
 49
-0.06
 74
     0
 49
0.01
 74
     0
 49
-0.06
 74
     0
 49
0.01
 74
     0
 49
-0.06
 74
     0
 49
0.01
 74
     0
 49
-0.06
 74
     0
  0
LTYPE
  5
E2
330
5
100
AcDbSymbolTableRecord
100
AcDbLinetypeTableRecord
  2
DASHED
 70
     0
  3
Dashed __ __ __ __ __ __ __ __ __ __ __ __ __ _
 72
    65
 73
     2
 40
0.2067
 49
0.1654
 74
     0
 49
-0.0413
 74
     0
  0
LTYPE
  5
E3
330
5
100
AcDbSymbolTableRecord
100
AcDbLinetypeTableRecord
  2
DASH_DOUBLE_DOT
 70
     0
  3
Dash Double-Dot __ . . __ . . __ . . __ . .
 72
    65
 73
     6
 40
0.4398
 49
0.24
 74
     0
 49
-0.06
 74
     0
 49
0.0098
 74
     0
 49
-0.06
 74
     0
 49
0.01
 74
     0
 49
-0.06
 74
     0
  0
LTYPE
  5
E4
330
5
100
AcDbSymbolTableRecord
100
AcDbLinetypeTableRecord
  2
DASHED_SPACE
 70
     0
  3
Dashed Space __ __ __ __ __ __ __ __ __ __ __ _
 72
    65
 73
     2
 40
0.2067
 49
0.1654
 74
     0
 49
-0.0413
 74
     0
  0
LTYPE
  5
E5
330
5
100
AcDbSymbolTableRecord
100
AcDbLinetypeTableRecord
  2
DOTTED
 70
     0
  3
Dotted . . . . . . . . . . . . . . . . . . . . 
 72
    65
 73
     2
 40
0.0482
 49
0.0069
 74
     0
 49
-0.0413
 74
     0
  0
LTYPE
  5
E6
330
5
100
AcDbSymbolTableRecord
100
AcDbLinetypeTableRecord
  2
DOUBLE_DASH_CHAIN
 70
     0
  3
Double-Dash Chain ______  __  __  ______  __  _
 72
    65
 73
     6
 40
1.240299999999999
 49
0.6614
 74
     0
 49
-0.0827
 74
     0
 49
0.1654
 74
     0
 49
-0.0827
 74
     0
 49
0.1654
 74
     0
 49
-0.0827
 74
     0
  0
LTYPE
  5
E8
330
5
100
AcDbSymbolTableRecord
100
AcDbLinetypeTableRecord
  2
DOUBLE_DASH_DOUBLE_DOT
 70
     0
  3
Double-Dash Double-dot _ _ . . _ _ . . _
 72
    65
 73
     8
 40
0.7400000000000001
 49
0.24
 74
     0
 49
-0.06
 74
     0
 49
0.24
 74
     0
 49
-0.06
 74
     0
 49
0.01
 74
     0
 49
-0.06
 74
     0
 49
0.01
 74
     0
 49
-0.06
 74
     0
  0
LTYPE
  5
E9
330
5
100
AcDbSymbolTableRecord
100
AcDbLinetypeTableRecord
  2
DOUBLE_DASH_TRIPLE_DOT
 70
     0
  3
Double Dash Triple Dot __ __ . . . __ __ . .
 72
    65
 73
    10
 40
0.8100000000000001
 49
0.24
 74
     0
 49
-0.06
 74
     0
 49
0.24
 74
     0
 49
-0.06
 74
     0
 49
0.01
 74
     0
 49
-0.06
 74
     0
 49
0.01
 74
     0
 49
-0.06
 74
     0
 49
0.01
 74
     0
 49
-0.06
 74
     0
  0
LTYPE
  5
EA
330
5
100
AcDbSymbolTableRecord
100
AcDbLinetypeTableRecord
  2
LONG_DASH_DOTTED
 70
     0
  3
Long Dash Dotted ____ . ____ . ____ . ____ . _
 72
    65
 73
     4
 40
0.3543
 49
0.2362
 74
     0
 49
-0.0295
 74
     0
 49
0.0591
 74
     0
 49
-0.0295
 74
     0
  0
LTYPE
  5
EB
330
5
100
AcDbSymbolTableRecord
100
AcDbLinetypeTableRecord
  2
LONG_DASH_DOUBLE_DOT
 70
     0
  3
Long Dash Double Dot ________  .  .  ________  
 72
    65
 73
     6
 40
0.6799999999999999
 49
0.48
 74
     0
 49
-0.06
 74
     0
 49
0.01
 74
     0
 49
-0.06
 74
     0
 49
0.01
 74
     0
 49
-0.06
 74
     0
  0
LTYPE
  5
EC
330
5
100
AcDbSymbolTableRecord
100
AcDbLinetypeTableRecord
  2
LONG_DASH_TRIPLE_DOT
 70
     0
  3
Long Dash Triple Dot ____ ... ____ ... ____
 72
    65
 73
     8
 40
0.3689
 49
0.2362
 74
     0
 49
-0.0295
 74
     0
 49
0.0049
 74
     0
 49
-0.0295
 74
     0
 49
0.0049
 74
     0
 49
-0.0295
 74
     0
 49
0.0049
 74
     0
 49
-0.0295
 74
     0
  0
LTYPE
  5
ED
330
5
100
AcDbSymbolTableRecord
100
AcDbLinetypeTableRecord
  2
BORDER
 70
     0
  3
Border __ __ . __ __ . __ __ . __ __ . __ __ .
 72
    65
 73
     6
 40
1.75
 49
0.5
 74
     0
 49
-0.25
 74
     0
 49
0.5
 74
     0
 49
-0.25
 74
     0
 49
0.0
 74
     0
 49
-0.25
 74
     0
  0
LTYPE
  5
EE
330
5
100
AcDbSymbolTableRecord
100
AcDbLinetypeTableRecord
  2
BORDER2
 70
     0
  3
Border (.5x) __.__.__.__.__.__.__.__.__.__.__.
 72
    65
 73
     6
 40
0.875
 49
0.25
 74
     0
 49
-0.125
 74
     0
 49
0.25
 74
     0
 49
-0.125
 74
     0
 49
0.0
 74
     0
 49
-0.125
 74
     0
  0
LTYPE
  5
EF
330
5
100
AcDbSymbolTableRecord
100
AcDbLinetypeTableRecord
  2
BORDERX2
 70
     0
  3
Border (2x) ____  ____  .  ____  ____  .  ___
 72
    65
 73
     6
 40
3.5
 49
1.0
 74
     0
 49
-0.5
 74
     0
 49
1.0
 74
     0
 49
-0.5
 74
     0
 49
0.0
 74
     0
 49
-0.5
 74
     0
  0
LTYPE
  5
F0
330
5
100
AcDbSymbolTableRecord
100
AcDbLinetypeTableRecord
  2
CENTER
 70
     0
  3
Center ____ _ ____ _ ____ _ ____ _ ____ _ ____
 72
    65
 73
     4
 40
2.0
 49
1.25
 74
     0
 49
-0.25
 74
     0
 49
0.25
 74
     0
 49
-0.25
 74
     0
  0
LTYPE
  5
F1
330
5
100
AcDbSymbolTableRecord
100
AcDbLinetypeTableRecord
  2
CENTER2
 70
     0
  3
Center (.5x) ___ _ ___ _ ___ _ ___ _ ___ _ ___
 72
    65
 73
     4
 40
1.125
 49
0.75
 74
     0
 49
-0.125
 74
     0
 49
0.125
 74
     0
 49
-0.125
 74
     0
  0
LTYPE
  5
F2
330
5
100
AcDbSymbolTableRecord
100
AcDbLinetypeTableRecord
  2
CENTERX2
 70
     0
  3
Center (2x) ________  __  ________  __  _____
 72
    65
 73
     4
 40
4.0
 49
2.5
 74
     0
 49
-0.5
 74
     0
 49
0.5
 74
     0
 49
-0.5
 74
     0
  0
LTYPE
  5
F3
330
5
100
AcDbSymbolTableRecord
100
AcDbLinetypeTableRecord
  2
DASHDOT2
 70
     0
  3
Dash dot (.5x) _._._._._._._._._._._._._._._.
 72
    65
 73
     4
 40
0.5
 49
0.25
 74
     0
 49
-0.125
 74
     0
 49
0.0
 74
     0
 49
-0.125
 74
     0
  0
LTYPE
  5
F4
330
5
100
AcDbSymbolTableRecord
100
AcDbLinetypeTableRecord
  2
DASHDOTX2
 70
     0
  3
Dash dot (2x) ____  .  ____  .  ____  .  ___
 72
    65
 73
     4
 40
2.0
 49
1.0
 74
     0
 49
-0.5
 74
     0
 49
0.0
 74
     0
 49
-0.5
 74
     0
  0
LTYPE
  5
F6
330
5
100
AcDbSymbolTableRecord
100
AcDbLinetypeTableRecord
  2
DASHED2
 70
     0
  3
Dashed (.5x) _ _ _ _ _ _ _ _ _ _ _ _ _ _ _ _ _
 72
    65
 73
     2
 40
0.375
 49
0.25
 74
     0
 49
-0.125
 74
     0
  0
LTYPE
  5
F7
330
5
100
AcDbSymbolTableRecord
100
AcDbLinetypeTableRecord
  2
DASHEDX2
 70
     0
  3
Dashed (2x) ____  ____  ____  ____  ____  ___
 72
    65
 73
     2
 40
1.5
 49
1.0
 74
     0
 49
-0.5
 74
     0
  0
LTYPE
  5
F8
330
5
100
AcDbSymbolTableRecord
100
AcDbLinetypeTableRecord
  2
DIVIDE
 70
     0
  3
Divide ____ . . ____ . . ____ . . ____ . . ____
 72
    65
 73
     6
 40
1.25
 49
0.5
 74
     0
 49
-0.25
 74
     0
 49
0.0
 74
     0
 49
-0.25
 74
     0
 49
0.0
 74
     0
 49
-0.25
 74
     0
  0
LTYPE
  5
F9
330
5
100
AcDbSymbolTableRecord
100
AcDbLinetypeTableRecord
  2
DIVIDE2
 70
     0
  3
Divide (.5x) __..__..__..__..__..__..__..__.._
 72
    65
 73
     6
 40
0.625
 49
0.25
 74
     0
 49
-0.125
 74
     0
 49
0.0
 74
     0
 49
-0.125
 74
     0
 49
0.0
 74
     0
 49
-0.125
 74
     0
  0
LTYPE
  5
FA
330
5
100
AcDbSymbolTableRecord
100
AcDbLinetypeTableRecord
  2
DIVIDEX2
 70
     0
  3
Divide (2x) ________  .  .  ________  .  .  _
 72
    65
 73
     6
 40
2.5
 49
1.0
 74
     0
 49
-0.5
 74
     0
 49
0.0
 74
     0
 49
-0.5
 74
     0
 49
0.0
 74
     0
 49
-0.5
 74
     0
  0
LTYPE
  5
FB
330
5
100
AcDbSymbolTableRecord
100
AcDbLinetypeTableRecord
  2
DOT
 70
     0
  3
Dot . . . . . . . . . . . . . . . . . . . . . .
 72
    65
 73
     2
 40
0.25
 49
0.0
 74
     0
 49
-0.25
 74
     0
  0
LTYPE
  5
FC
330
5
100
AcDbSymbolTableRecord
100
AcDbLinetypeTableRecord
  2
DOT2
 70
     0
  3
Dot (.5x) .....................................
 72
    65
 73
     2
 40
0.125
 49
0.0
 74
     0
 49
-0.125
 74
     0
  0
LTYPE
  5
FD
330
5
100
AcDbSymbolTableRecord
100
AcDbLinetypeTableRecord
  2
DOTX2
 70
     0
  3
Dot (2x) .  .  .  .  .  .  .  .  .  .  .  .  . 
 72
    65
 73
     2
 40
0.5
 49
0.0
 74
     0
 49
-0.5
 74
     0
  0
LTYPE
  5
FE
330
5
100
AcDbSymbolTableRecord
100
AcDbLinetypeTableRecord
  2
HIDDEN
 70
     0
  3
Hidden __ __ __ __ __ __ __ __ __ __ __ __ __ _
 72
    65
 73
     2
 40
0.375
 49
0.25
 74
     0
 49
-0.125
 74
     0
  0
LTYPE
  5
FF
330
5
100
AcDbSymbolTableRecord
100
AcDbLinetypeTableRecord
  2
HIDDEN2
 70
     0
  3
Hidden (.5x) _ _ _ _ _ _ _ _ _ _ _ _ _ _ _ _ _
 72
    65
 73
     2
 40
0.1875
 49
0.125
 74
     0
 49
-0.0625
 74
     0
  0
LTYPE
  5
100
330
5
100
AcDbSymbolTableRecord
100
AcDbLinetypeTableRecord
  2
HIDDENX2
 70
     0
  3
Hidden (2x) ____ ____ ____ ____ ____ ____ ____
 72
    65
 73
     2
 40
0.75
 49
0.5
 74
     0
 49
-0.25
 74
     0
  0
LTYPE
  5
101
330
5
100
AcDbSymbolTableRecord
100
AcDbLinetypeTableRecord
  2
PHANTOM
 70
     0
  3
Phantom ______  __  __  ______  __  __  ______
 72
    65
 73
     6
 40
2.5
 49
1.25
 74
     0
 49
-0.25
 74
     0
 49
0.25
 74
     0
 49
-0.25
 74
     0
 49
0.25
 74
     0
 49
-0.25
 74
     0
  0
LTYPE
  5
102
330
5
100
AcDbSymbolTableRecord
100
AcDbLinetypeTableRecord
  2
PHANTOM2
 70
     0
  3
Phantom (.5x) ___ _ _ ___ _ _ ___ _ _ ___ _ _
 72
    65
 73
     6
 40
1.25
 49
0.625
 74
     0
 49
-0.125
 74
     0
 49
0.125
 74
     0
 49
-0.125
 74
     0
 49
0.125
 74
     0
 49
-0.125
 74
     0
  0
LTYPE
  5
103
330
5
100
AcDbSymbolTableRecord
100
AcDbLinetypeTableRecord
  2
PHANTOMX2
 70
     0
  3
Phantom (2x) ____________    ____    ____   _
 72
    65
 73
     6
 40
5.0
 49
2.5
 74
     0
 49
-0.5
 74
     0
 49
0.5
 74
     0
 49
-0.5
 74
     0
 49
0.5
 74
     0
 49
-0.5
 74
     0
  0
LTYPE
  5
104
330
5
100
AcDbSymbolTableRecord
100
AcDbLinetypeTableRecord
  2
ACAD_ISO02W100
 70
     0
  3
ISO dash __ __ __ __ __ __ __ __ __ __ __ __ __
 72
    65
 73
     2
 40
0.59
 49
0.47
 74
     0
 49
-0.12
 74
     0
  0
LTYPE
  5
105
330
5
100
AcDbSymbolTableRecord
100
AcDbLinetypeTableRecord
  2
ACAD_ISO03W100
 70
     0
  3
ISO dash space __    __    __    __    __    __
 72
    65
 73
     2
 40
1.179999999999999
 49
0.47
 74
     0
 49
-0.71
 74
     0
  0
LTYPE
  5
106
330
5
100
AcDbSymbolTableRecord
100
AcDbLinetypeTableRecord
  2
ACAD_ISO04W100
 70
     0
  3
ISO long-dash dot ____ . ____ . ____ . ____ . _
 72
    65
 73
     4
 40
1.179999999999999
 49
0.9399999999999998
 74
     0
 49
-0.12
 74
     0
 49
0.0
 74
     0
 49
-0.12
 74
     0
  0
LTYPE
  5
107
330
5
100
AcDbSymbolTableRecord
100
AcDbLinetypeTableRecord
  2
ACAD_ISO05W100
 70
     0
  3
ISO long-dash double-dot ____ .. ____ .. ____ .
 72
    65
 73
     6
 40
1.299999999999999
 49
0.9399999999999998
 74
     0
 49
-0.12
 74
     0
 49
0.0
 74
     0
 49
-0.12
 74
     0
 49
0.0
 74
     0
 49
-0.12
 74
     0
  0
LTYPE
  5
108
330
5
100
AcDbSymbolTableRecord
100
AcDbLinetypeTableRecord
  2
ACAD_ISO06W100
 70
     0
  3
ISO long-dash triple-dot ____ ... ____ ... ____
 72
    65
 73
     8
 40
1.419999999999999
 49
0.9399999999999998
 74
     0
 49
-0.12
 74
     0
 49
0.0
 74
     0
 49
-0.12
 74
     0
 49
0.0
 74
     0
 49
-0.12
 74
     0
 49
0.0
 74
     0
 49
-0.12
 74
     0
  0
LTYPE
  5
109
330
5
100
AcDbSymbolTableRecord
100
AcDbLinetypeTableRecord
  2
ACAD_ISO07W100
 70
     0
  3
ISO dot . . . . . . . . . . . . . . . . . . . .
 72
    65
 73
     2
 40
0.12
 49
0.0
 74
     0
 49
-0.12
 74
     0
  0
LTYPE
  5
10A
330
5
100
AcDbSymbolTableRecord
100
AcDbLinetypeTableRecord
  2
ACAD_ISO08W100
 70
     0
  3
ISO long-dash short-dash ____ __ ____ __ ____ _
 72
    65
 73
     4
 40
0.95
 49
0.47
 74
     0
 49
-0.12
 74
     0
 49
0.24
 74
     0
 49
-0.12
 74
     0
  0
LTYPE
  5
10B
330
5
100
AcDbSymbolTableRecord
100
AcDbLinetypeTableRecord
  2
ACAD_ISO09W100
 70
     0
  3
ISO long-dash double-short-dash ____ __ __ ____
 72
    65
 73
     6
 40
1.31
 49
0.47
 74
     0
 49
-0.12
 74
     0
 49
0.24
 74
     0
 49
-0.12
 74
     0
 49
0.24
 74
     0
 49
-0.12
 74
     0
  0
LTYPE
  5
10C
330
5
100
AcDbSymbolTableRecord
100
AcDbLinetypeTableRecord
  2
ACAD_ISO10W100
 70
     0
  3
ISO dash dot __ . __ . __ . __ . __ . __ . __ .
 72
    65
 73
     4
 40
0.71
 49
0.47
 74
     0
 49
-0.12
 74
     0
 49
0.0
 74
     0
 49
-0.12
 74
     0
  0
LTYPE
  5
10D
330
5
100
AcDbSymbolTableRecord
100
AcDbLinetypeTableRecord
  2
ACAD_ISO11W100
 70
     0
  3
ISO double-dash dot __ __ . __ __ . __ __ . __ 
 72
    65
 73
     6
 40
1.299999999999999
 49
0.47
 74
     0
 49
-0.12
 74
     0
 49
0.47
 74
     0
 49
-0.12
 74
     0
 49
0.0
 74
     0
 49
-0.12
 74
     0
  0
LTYPE
  5
10E
330
5
100
AcDbSymbolTableRecord
100
AcDbLinetypeTableRecord
  2
ACAD_ISO12W100
 70
     0
  3
ISO dash double-dot __ . . __ . . __ . . __ . .
 72
    65
 73
     6
 40
0.8299999999999998
 49
0.47
 74
     0
 49
-0.12
 74
     0
 49
0.0
 74
     0
 49
-0.12
 74
     0
 49
0.0
 74
     0
 49
-0.12
 74
     0
  0
LTYPE
  5
10F
330
5
100
AcDbSymbolTableRecord
100
AcDbLinetypeTableRecord
  2
ACAD_ISO13W100
 70
     0
  3
ISO double-dash double-dot __ __ . . __ __ . . 
 72
    65
 73
     8
 40
1.419999999999999
 49
0.47
 74
     0
 49
-0.12
 74
     0
 49
0.47
 74
     0
 49
-0.12
 74
     0
 49
0.0
 74
     0
 49
-0.12
 74
     0
 49
0.0
 74
     0
 49
-0.12
 74
     0
  0
LTYPE
  5
110
330
5
100
AcDbSymbolTableRecord
100
AcDbLinetypeTableRecord
  2
ACAD_ISO14W100
 70
     0
  3
ISO dash triple-dot __ . . . __ . . . __ . . . 
 72
    65
 73
     8
 40
0.95
 49
0.47
 74
     0
 49
-0.12
 74
     0
 49
0.0
 74
     0
 49
-0.12
 74
     0
 49
0.0
 74
     0
 49
-0.12
 74
     0
 49
0.0
 74
     0
 49
-0.12
 74
     0
  0
LTYPE
  5
111
330
5
100
AcDbSymbolTableRecord
100
AcDbLinetypeTableRecord
  2
ACAD_ISO15W100
 70
     0
  3
ISO double-dash triple-dot __ __ . . . __ __ . 
 72
    65
 73
    10
 40
1.539999999999999
 49
0.47
 74
     0
 49
-0.12
 74
     0
 49
0.47
 74
     0
 49
-0.12
 74
     0
 49
0.0
 74
     0
 49
-0.12
 74
     0
 49
0.0
 74
     0
 49
-0.12
 74
     0
 49
0.0
 74
     0
 49
-0.12
 74
     0
  0
LTYPE
  5
114
330
5
100
AcDbSymbolTableRecord
100
AcDbLinetypeTableRecord
  2
FENCELINE1
 70
     0
  3
Fenceline circle ----0-----0----0-----0----0---
 72
    65
 73
     4
 40
1.45
 49
0.25
 74
     0
 49
-0.1
 74
     4
 75
   133
340
113
 46
0.1
 50
0.0
 44
-0.1
 45
0.0
 49
-0.1
 74
     0
 49
1.0
 74
     0
  0
LTYPE
  5
115
330
5
100
AcDbSymbolTableRecord
100
AcDbLinetypeTableRecord
  2
FENCELINE2
 70
     0
  3
Fenceline square ----[]-----[]----[]-----[]----
 72
    65
 73
     4
 40
1.45
 49
0.25
 74
     0
 49
-0.1
 74
     4
 75
   132
340
113
 46
0.1
 50
0.0
 44
-0.1
 45
0.0
 49
-0.1
 74
     0
 49
1.0
 74
     0
  0
LTYPE
  5
116
330
5
100
AcDbSymbolTableRecord
100
AcDbLinetypeTableRecord
  2
TRACKS
 70
     0
  3
Tracks -|-|-|-|-|-|-|-|-|-|-|-|-|-|-|-|-|-|-|-|
 72
    65
 73
     2
 40
0.3
 49
0.15
 74
     4
 75
   130
340
113
 46
0.25
 50
0.0
 44
0.0
 45
0.0
 49
0.15
 74
     0
  0
LTYPE
  5
117
330
5
100
AcDbSymbolTableRecord
100
AcDbLinetypeTableRecord
  2
BATTING
 70
     0
  3
Batting SSSSSSSSSSSSSSSSSSSSSSSSSSSSSSSSSSSSSSS
 72
    65
 73
     4
 40
0.4001000000000001
 49
0.0001
 74
     0
 49
-0.1
 74
     4
 75
   134
340
113
 46
0.1
 50
0.0
 44
-0.1
 45
0.0
 49
-0.2
 74
     4
 75
   134
340
113
 46
0.1
 50
180.0
 44
0.1
 45
0.0
 49
-0.1
 74
     0
  0
LTYPE
  5
118
330
5
100
AcDbSymbolTableRecord
100
AcDbLinetypeTableRecord
  2
HOT_WATER_SUPPLY
 70
     0
  3
Hot water supply ---- HW ---- HW ---- HW ----
 72
    65
 73
     3
 40
0.9
 49
0.5
 74
     0
 49
-0.2
 74
     2
 75
     0
340
55
 46
0.1
 50
0.0
 44
-0.1
 45
-0.05
  9
HW
 49
-0.2
 74
     0
  0
LTYPE
  5
119
330
5
100
AcDbSymbolTableRecord
100
AcDbLinetypeTableRecord
  2
GAS_LINE
 70
     0
  3
Gas line ----GAS----GAS----GAS----GAS----GAS---
 72
    65
 73
     3
 40
0.95
 49
0.5
 74
     0
 49
-0.2
 74
     2
 75
     0
340
55
 46
0.1
 50
0.0
 44
-0.1
 45
-0.05
  9
GAS
 49
-0.25
 74
     0
  0
LTYPE
  5
11A
330
5
100
AcDbSymbolTableRecord
100
AcDbLinetypeTableRecord
  2
ZIGZAG
 70
     0
  3
Zig zag /\/\/\/\/\/\/\/\/\/\/\/\/\/\/\/\/\/\/\/
 72
    65
 73
     4
 40
0.8001000000000001
 49
0.0001
 74
     0
 49
-0.2
 74
     4
 75
   131
340
113
 46
0.2
 50
0.0
 44
-0.2
 45
0.0
 49
-0.4
 74
     4
 75
   131
340
113
 46
0.2
 50
180.0
 44
0.2
 45
0.0
 49
-0.2
 74
     0
  0
ENDTAB
  0
TABLE
  2
LAYER
  5
2
330
0
100
AcDbSymbolTable
 70
    27
  0
LAYER
  5
54
330
2
100
AcDbSymbolTableRecord
100
AcDbLayerTableRecord
  2
0
 70
     0
 62
     7
  6
Continuous
370
    18
390
F
  0
LAYER
  5
75
330
2
100
AcDbSymbolTableRecord
100
AcDbLayerTableRecord
  2
Symbol (ANSI)
 70
     0
 62
     7
  6
Continuous
370
    18
390
F
  0
LAYER
  5
124
330
2
100
AcDbSymbolTableRecord
100
AcDbLayerTableRecord
  2
Dimension (ANSI)
 70
     0
 62
     7
  6
Continuous
370
    13
390
F
  0
LAYER
  5
126
330
2
100
AcDbSymbolTableRecord
100
AcDbLayerTableRecord
  2
Hidden (ANSI)
 70
     0
 62
     7
  6
DASHED
370
    15
390
F
  0
LAYER
  5
12F
330
2
100
AcDbSymbolTableRecord
100
AcDbLayerTableRecord
  2
Visible (ANSI)
 70
     0
 62
     7
  6
Continuous
370
    13
390
F
  0
LAYER
  5
130
330
2
100
AcDbSymbolTableRecord
100
AcDbLayerTableRecord
  2
Visible Narrow (ANSI)
 70
     0
 62
     7
  6
Continuous
370
    18
390
F
  0
LAYER
  5
209
330
2
100
AcDbSymbolTableRecord
100
AcDbLayerTableRecord
  2
Defpoints
 70
     0
 62
     7
  6
Continuous
290
     0
370
    -3
390
F
  0
ENDTAB
  0
TABLE
  2
STYLE
  5
3
330
0
100
AcDbSymbolTable
 70
    18
  0
STYLE
  5
55
330
3
100
AcDbSymbolTableRecord
100
AcDbTextStyleTableRecord
  2
Standard
 70
     0
 40
0.0
 41
1.0
 50
0.0
 71
     0
 42
0.2
  3
txt
  4

  0
STYLE
  5
5A
330
3
100
AcDbSymbolTableRecord
100
AcDbTextStyleTableRecord
  2
Annotative
 70
     0
 40
0.0
 41
1.0
 50
0.0
 71
     0
 42
0.2
  3
txt
  4

1001
AcadAnnotative
1000
AnnotativeData
1002
{
1070
     1
1070
     1
1002
}
  0
STYLE
  5
76
330
3
100
AcDbSymbolTableRecord
100
AcDbTextStyleTableRecord
  2
Note Text (ANSI)
 70
     0
 40
0.0
 41
1.0
 50
0.0
 71
     0
 42
0.2
  3
TAHOMA.TTF
  4

1001
ACAD
1000
Tahoma
1071
      256
  0
STYLE
  5
78
330
3
100
AcDbSymbolTableRecord
100
AcDbTextStyleTableRecord
  2
SANSSERIF
 70
     0
 40
0.125
 41
1.0
 50
0.0
 71
     0
 42
0.125
  3
sas_____.pfb
  4

  0
STYLE
  5
113
330
3
100
AcDbSymbolTableRecord
100
AcDbTextStyleTableRecord
  2

 70
     1
 40
0.0
 41
1.0
 50
0.0
 71
     0
 42
0.2
  3
ltypeshp.shx
  4

  0
STYLE
  5
134
330
3
100
AcDbSymbolTableRecord
100
AcDbTextStyleTableRecord
  2
ITALICC_120
 70
     0
 40
0.0
 41
1.0
 50
0.0
 71
     0
 42
0.2
  3
italicc.shx
  4

  0
STYLE
  5
135
330
3
100
AcDbSymbolTableRecord
100
AcDbTextStyleTableRecord
  2
Label Text (ANSI)
 70
     0
 40
0.0
 41
1.0
 50
0.0
 71
     0
 42
0.2
  3
TAHOMA.TTF
  4

1001
ACAD
1000
Tahoma
1071
      256
  0
STYLE
  5
136
330
3
100
AcDbSymbolTableRecord
100
AcDbTextStyleTableRecord
  2
ROMANS
 70
     0
 40
0.0
 41
1.0
 50
0.0
 71
     0
 42
0.2
  3
romans.shx
  4

  0
STYLE
  5
137
330
3
100
AcDbSymbolTableRecord
100
AcDbTextStyleTableRecord
  2
SANSSERIF_114
 70
     0
 40
0.0
 41
1.0
 50
0.0
 71
     0
 42
0.2
  3
TAHOMA.TTF
  4

1001
ACAD
1000
Tahoma
1071
      256
  0
STYLE
  5
138
330
3
100
AcDbSymbolTableRecord
100
AcDbTextStyleTableRecord
  2
SANSSERIF_117
 70
     0
 40
0.0
 41
1.0
 50
0.0
 71
     0
 42
0.2
  3
TAHOMA.TTF
  4

1001
ACAD
1000
Tahoma
1071
      256
  0
STYLE
  5
139
330
3
100
AcDbSymbolTableRecord
100
AcDbTextStyleTableRecord
  2
STANDARDAM_ANSI
 70
     0
 40
0.0
 41
1.0
 50
0.0
 71
     0
 42
0.2
  3
txt.shx
  4

  0
STYLE
  5
13A
330
3
100
AcDbSymbolTableRecord
100
AcDbTextStyleTableRecord
  2
StandardAM_ANSI$0
 70
     0
 40
0.0
 41
1.0
 50
0.0
 71
     0
 42
0.2
  3
txt.shx
  4

  0
STYLE
  5
13B
330
3
100
AcDbSymbolTableRecord
100
AcDbTextStyleTableRecord
  2
STANDARDAM_ANSI$3
 70
     0
 40
0.0
 41
1.0
 50
0.0
 71
     0
 42
0.2
  3
txt.shx
  4

  0
STYLE
  5
13C
330
3
100
AcDbSymbolTableRecord
100
AcDbTextStyleTableRecord
  2
STANDARDAM_ANSI$4
 70
     0
 40
0.0
 41
1.0
 50
0.0
 71
     0
 42
0.2
  3
txt.shx
  4

  0
STYLE
  5
13D
330
3
100
AcDbSymbolTableRecord
100
AcDbTextStyleTableRecord
  2
STANDARDAM_ANSI$7
 70
     0
 40
0.0
 41
1.0
 50
0.0
 71
     0
 42
0.2
  3
txt.shx
  4

  0
STYLE
  5
13E
330
3
100
AcDbSymbolTableRecord
100
AcDbTextStyleTableRecord
  2
STANDARDAM_ANSI$SF
 70
     0
 40
0.0
 41
1.0
 50
0.0
 71
     0
 42
0.2
  3
txt.shx
  4

  0
STYLE
  5
13F
330
3
100
AcDbSymbolTableRecord
100
AcDbTextStyleTableRecord
  2
STANDARDAM_ANSI$SH
 70
     0
 40
0.0
 41
1.0
 50
0.0
 71
     0
 42
0.2
  3
txt.shx
  4

  0
STYLE
  5
140
330
3
100
AcDbSymbolTableRecord
100
AcDbTextStyleTableRecord
  2
STANDARDSTANDARD
 70
     0
 40
0.0
 41
1.0
 50
0.0
 71
     0
 42
0.2
  3
txt.shx
  4

  0
ENDTAB
  0
TABLE
  2
VIEW
  5
6
330
0
100
AcDbSymbolTable
 70
     0
  0
ENDTAB
  0
TABLE
  2
UCS
  5
7
330
0
100
AcDbSymbolTable
 70
     0
  0
ENDTAB
  0
TABLE
  2
APPID
  5
9
330
0
100
AcDbSymbolTable
 70
     4
  0
APPID
  5
56
330
9
100
AcDbSymbolTableRecord
100
AcDbRegAppTableRecord
  2
ACAD
 70
     0
  0
APPID
  5
5E
330
9
100
AcDbSymbolTableRecord
100
AcDbRegAppTableRecord
  2
AcadAnnotative
 70
     0
  0
APPID
  5
B1B
330
9
100
AcDbSymbolTableRecord
100
AcDbRegAppTableRecord
  2
ACAD_DSTYLE_DIMRADIAL_EXTENSION
 70
     0
  0
APPID
  5
D23
330
9
100
AcDbSymbolTableRecord
100
AcDbRegAppTableRecord
  2
ACAD_MLEADERVER
 70
     0
  0
ENDTAB
  0
TABLE
  2
DIMSTYLE
  5
A
330
0
100
AcDbSymbolTable
 70
    27
100
AcDbDimStyleTable
 71
     2
340
155
340
58
  0
DIMSTYLE
105
58
330
A
100
AcDbSymbolTableRecord
100
AcDbDimStyleTableRecord
  2
STANDARD
 70
     0
 41
0.1800000071525573
 42
0.0625
140
0.1800000071525574
144
1.0
147
0.0900000035762787
176
   256
177
   256
178
   256
274
     3
340
55
371
    -1
372
    -1
  0
DIMSTYLE
105
59
330
A
100
AcDbSymbolTableRecord
100
AcDbDimStyleTableRecord
  2
Annotative
 70
     0
340
55
1001
AcadAnnotative
1000
AnnotativeData
1002
{
1070
     1
1070
     1
1002
}
  0
DIMSTYLE
105
141
330
A
100
AcDbSymbolTableRecord
100
AcDbDimStyleTableRecord
  2
AM_ANSI
 70
     0
  4
 mm
 40
4.0
 41
0.119999997317791
 42
0.05
 43
0.5
 44
0.1
 45
0.00000001
 78
     4
 79
     2
140
0.1200000047683716
146
0.7099999453624112
147
0.0599999986588955
176
   256
177
   256
178
     2
284
     4
340
139
371
    -1
372
    -1
  0
DIMSTYLE
105
142
330
A
100
AcDbSymbolTableRecord
100
AcDbDimStyleTableRecord
  2
AM_ANSI$7
 70
     0
  4
 mm
 40
4.0
 41
0.119999997317791
 42
0.05
 43
0.5
 44
0.1
 45
0.00000001
 78
     4
 79
     2
140
0.1200000047683716
146
0.7099999453624112
147
0.0599999986588955
176
   256
177
   256
178
     2
284
     4
340
139
371
    -1
372
    -1
  0
DIMSTYLE
105
143
330
A
100
AcDbSymbolTableRecord
100
AcDbDimStyleTableRecord
  2
AM_ANSI$0
 70
     0
  4
 mm
 40
4.0
 41
0.119999997317791
 42
0.05
 43
0.5
 44
0.1
 45
0.00000001
 78
     4
 79
     2
140
0.1200000047683716
146
0.7099999453624112
147
0.0599999986588955
176
   256
177
   256
178
     2
284
     4
340
13A
371
    -1
372
    -1
  0
DIMSTYLE
105
144
330
A
100
AcDbSymbolTableRecord
100
AcDbDimStyleTableRecord
  2
AM_ANSI$0$7
 70
     0
  4
 mm
 40
4.0
 41
0.119999997317791
 42
0.05
 43
0.5
 44
0.1
 45
0.00000001
 78
     4
 79
     2
140
0.1200000047683716
146
0.7099999453624112
147
0.0599999986588955
176
   256
177
   256
178
     2
284
     4
340
13A
371
    -1
372
    -1
  0
DIMSTYLE
105
145
330
A
100
AcDbSymbolTableRecord
100
AcDbDimStyleTableRecord
  2
AM_ANSI$3
 70
     0
  4
 mm
 40
4.0
 41
0.119999997317791
 42
0.05
 43
0.5
 44
0.1
 45
0.00000001
 78
     4
 79
     2
140
0.1200000047683716
146
0.7099999453624112
147
0.0599999986588955
176
   256
177
   256
178
     2
284
     4
340
13B
371
    -1
372
    -1
  0
DIMSTYLE
105
146
330
A
100
AcDbSymbolTableRecord
100
AcDbDimStyleTableRecord
  2
AM_ANSI$3$7
 70
     0
  4
 mm
 40
4.0
 41
0.119999997317791
 42
0.05
 43
0.5
 44
0.1
 45
0.00000001
 78
     4
 79
     2
140
0.1200000047683716
146
0.7099999453624112
147
0.0599999986588955
176
   256
177
   256
178
     2
284
     4
340
13B
371
    -1
372
    -1
  0
DIMSTYLE
105
147
330
A
100
AcDbSymbolTableRecord
100
AcDbDimStyleTableRecord
  2
AM_ANSI$4
 70
     0
  4
 mm
 40
4.0
 41
0.119999997317791
 42
0.05
 43
0.5
 44
0.1
 45
0.00000001
 78
     4
 79
     2
140
0.1200000047683716
146
0.7099999453624112
147
0.0599999986588955
176
   256
177
   256
178
     2
284
     4
340
13C
371
    -1
372
    -1
  0
DIMSTYLE
105
148
330
A
100
AcDbSymbolTableRecord
100
AcDbDimStyleTableRecord
  2
AM_ANSI$4$7
 70
     0
  4
 mm
 40
4.0
 41
0.119999997317791
 42
0.05
 43
0.5
 44
0.1
 45
0.00000001
 78
     4
 79
     2
140
0.1200000047683716
146
0.7099999453624112
147
0.0599999986588955
176
   256
177
   256
178
     2
284
     4
340
13C
371
    -1
372
    -1
  0
DIMSTYLE
105
149
330
A
100
AcDbSymbolTableRecord
100
AcDbDimStyleTableRecord
  2
AM_ANSI$SF
 70
     0
  4
 mm
 40
4.0
 41
0.119999997317791
 42
0.05
 43
0.5
 44
0.1
 45
0.00000001
 75
     1
 76
     1
 78
     4
 79
     2
140
0.1200000047683716
146
0.7099999453624112
147
0.0599999986588955
176
   256
177
   256
178
     2
284
     4
340
13E
371
    -1
372
    -1
  0
DIMSTYLE
105
14A
330
A
100
AcDbSymbolTableRecord
100
AcDbDimStyleTableRecord
  2
AM_ANSI$SF$7
 70
     0
  4
 mm
 40
4.0
 41
0.119999997317791
 42
0.05
 43
0.5
 44
0.1
 45
0.00000001
 75
     1
 76
     1
 78
     4
 79
     2
140
0.1200000047683716
146
0.7099999453624112
147
0.0599999986588955
176
   256
177
   256
178
     2
284
     4
340
13E
371
    -1
372
    -1
  0
DIMSTYLE
105
14B
330
A
100
AcDbSymbolTableRecord
100
AcDbDimStyleTableRecord
  2
AM_ANSI$SH
 70
     0
  4
 mm
 40
4.0
 41
0.119999997317791
 42
0.05
 43
0.5
 44
0.1
 45
0.00000001
 75
     1
 76
     1
 78
     4
 79
     2
140
0.1200000047683716
146
0.7099999453624112
147
0.0599999986588955
176
   256
177
   256
178
     2
284
     4
340
13F
371
    -1
372
    -1
  0
DIMSTYLE
105
14C
330
A
100
AcDbSymbolTableRecord
100
AcDbDimStyleTableRecord
  2
AM_ANSI$SH$7
 70
     0
  4
 mm
 40
4.0
 41
0.119999997317791
 42
0.05
 43
0.5
 44
0.1
 45
0.00000001
 75
     1
 76
     1
 78
     4
 79
     2
140
0.1200000047683716
146
0.7099999453624112
147
0.0599999986588955
176
   256
177
   256
178
     2
284
     4
340
13F
371
    -1
372
    -1
  0
DIMSTYLE
105
14D
330
A
100
AcDbSymbolTableRecord
100
AcDbDimStyleTableRecord
  2
Architectural (ANSI)
 70
     0
 40
4.0
 41
0.0984251946210861
 43
0.2362204724409449
 44
0.125
 45
0.00000001
 46
0.3937007874015748
 78
     3
 79
     3
140
0.1200000047683716
147
0.031496062992126
171
     1
176
   256
177
   256
178
   256
272
     2
274
     1
276
     2
277
     4
284
    12
285
     4
286
    12
340
76
371
    -1
372
    -1
  0
DIMSTYLE
105
14E
330
A
100
AcDbSymbolTableRecord
100
AcDbDimStyleTableRecord
  2
Architectural (ANSI)$7
 70
     0
 40
4.0
 41
0.0984251946210861
 43
0.2362204724409449
 44
0.125
 45
0.00000001
 46
0.3937007874015748
 78
     3
 79
     3
140
0.1200000047683716
147
0.031496062992126
171
     1
176
   256
177
   256
178
   256
272
     2
274
     1
276
     2
277
     4
284
    12
285
     4
286
    12
340
76
371
    -1
372
    -1
  0
DIMSTYLE
105
14F
330
A
100
AcDbSymbolTableRecord
100
AcDbDimStyleTableRecord
  2
Default - Fraction (ANSI)
 70
     0
 40
4.0
 41
0.0984251946210861
 43
0.2362204724409449
 44
0.125
 45
0.00000001
 46
0.3937007874015748
 79
     3
140
0.1200000047683716
147
0.031496062992126
171
     1
176
   256
177
   256
178
   256
272
     2
274
     1
276
     2
277
     5
284
    12
285
     4
286
    12
340
76
371
    -1
372
    -1
  0
DIMSTYLE
105
150
330
A
100
AcDbSymbolTableRecord
100
AcDbDimStyleTableRecord
  2
Default - Fraction (ANSI)$7
 70
     0
 40
4.0
 41
0.0984251946210861
 43
0.2362204724409449
 44
0.125
 45
0.00000001
 46
0.3937007874015748
 79
     3
140
0.1200000047683716
147
0.031496062992126
171
     1
176
   256
177
   256
178
   256
272
     2
274
     1
276
     2
277
     5
284
    12
285
     4
286
    12
340
76
371
    -1
372
    -1
  0
DIMSTYLE
105
151
330
A
100
AcDbSymbolTableRecord
100
AcDbDimStyleTableRecord
  2
Default - mm (ANSI)
 70
     0
 40
4.0
 41
0.0984251946210861
 42
0.063
 43
0.2362204724409449
 44
0.125
 45
0.00000001
 46
0.3937007874015748
 73
     0
 78
     4
 79
     1
140
0.1200000047683716
143
1.0
144
25.4
147
0.031496062992126
171
     1
176
   256
177
   256
178
   256
179
     1
271
     2
272
     2
274
     1
284
     4
285
     4
340
76
371
    -1
372
    -1
  0
DIMSTYLE
105
152
330
A
100
AcDbSymbolTableRecord
100
AcDbDimStyleTableRecord
  2
Default - mm (ANSI)$7
 70
     0
 40
4.0
 41
0.0984251946210861
 42
0.063
 43
0.2362204724409449
 44
0.125
 45
0.00000001
 46
0.3937007874015748
 73
     0
 78
     4
 79
     1
140
0.1200000047683716
143
1.0
144
25.4
147
0.031496062992126
171
     1
176
   256
177
   256
178
   256
179
     1
271
     2
272
     2
274
     1
284
     4
285
     4
340
76
371
    -1
372
    -1
  0
DIMSTYLE
105
153
330
A
100
AcDbSymbolTableRecord
100
AcDbDimStyleTableRecord
  2
Default - mm [in] (ANSI)
 70
     0
  4
 in
 40
4.0
 41
0.0984251946210861
 42
0.063
 43
0.25
 44
0.125
 45
0.00000001
 46
0.3937007874015748
 73
     0
 78
     4
 79
     1
140
0.1200000047683716
143
0.03937
144
25.4
147
0.031496062992126
170
     1
171
     3
176
   256
177
   256
178
   256
179
     1
271
     2
272
     2
274
     3
284
     4
285
     4
286
     4
340
76
371
    -1
372
    -1
  0
DIMSTYLE
105
154
330
A
100
AcDbSymbolTableRecord
100
AcDbDimStyleTableRecord
  2
Default - mm [in] (ANSI)$7
 70
     0
  4
 in
 40
4.0
 41
0.0984251946210861
 42
0.063
 43
0.25
 44
0.125
 45
0.00000001
 46
0.3937007874015748
 73
     0
 78
     4
 79
     1
140
0.1200000047683716
143
0.03937
144
25.4
147
0.031496062992126
170
     1
171
     3
176
   256
177
   256
178
   256
179
     1
271
     2
272
     2
274
     3
284
     4
285
     4
286
     4
340
76
371
    -1
372
    -1
  0
DIMSTYLE
105
155
102
{ACAD_REACTORS
330
207
330
2F4
330
3DE
330
4DC
330
5D8
330
6C2
330
7AC
330
898
330
998
330
A82
330
B3C
330
BF5
102
}
330
A
100
AcDbSymbolTableRecord
100
AcDbDimStyleTableRecord
  2
Default (ANSI)
 70
     0
 40
4.0
 41
0.0984251946210861
 43
0.2362204724409449
 44
0.125
 45
0.00000001
 46
0.3937007874015748
 79
     1
140
0.1200000047683716
147
0.031496062992126
171
     1
176
   256
177
   256
178
   256
271
     2
272
     2
274
     1
284
     4
285
     4
340
76
371
    -1
372
    -1
  0
DIMSTYLE
105
156
330
A
100
AcDbSymbolTableRecord
100
AcDbDimStyleTableRecord
  2
Default (ANSI)$7
 70
     0
 40
4.0
 41
0.0984251946210861
 43
0.2362204724409449
 44
0.125
 45
0.00000001
 46
0.3937007874015748
 79
     1
140
0.1200000047683716
147
0.031496062992126
171
     1
176
   256
177
   256
178
   256
271
     2
272
     2
274
     1
284
     4
285
     4
340
76
371
    -1
372
    -1
  0
DIMSTYLE
105
157
330
A
100
AcDbSymbolTableRecord
100
AcDbDimStyleTableRecord
  2
Alternate (ANSI)
 70
     0
 40
4.0
 41
0.0979999974370003
340
55
342
158
  0
DIMSTYLE
105
16A
330
A
100
AcDbSymbolTableRecord
100
AcDbDimStyleTableRecord
  2
Datum (ANSI)
 70
     0
 40
4.0
 41
0.0979999974370003
340
55
342
158
  0
DIMSTYLE
105
179
330
A
100
AcDbSymbolTableRecord
100
AcDbDimStyleTableRecord
  2
Large (ANSI)
 70
     0
 40
4.0
 41
0.1959999948740005
340
55
342
158
  0
ENDTAB
  0
TABLE
  2
BLOCK_RECORD
  5
1
330
0
100
AcDbSymbolTable
 70
    16
  0
BLOCK_RECORD
  5
6C
330
1
100
AcDbSymbolTableRecord
100
AcDbBlockTableRecord
  2
*Model_Space
340
6F
  0
BLOCK_RECORD
  5
68
330
1
100
AcDbSymbolTableRecord
100
AcDbBlockTableRecord
  2
*Paper_Space
340
6B
  0
BLOCK_RECORD
  5
70
330
1
100
AcDbSymbolTableRecord
100
AcDbBlockTableRecord
  2
*Paper_Space0
340
73
  0
BLOCK_RECORD
  5
158
330
1
100
AcDbSymbolTableRecord
100
AcDbBlockTableRecord
  2
_Closed
340
0
  0
BLOCK_RECORD
  5
15F
330
1
100
AcDbSymbolTableRecord
100
AcDbBlockTableRecord
  2
DatumFilled45
340
0
  0
BLOCK_RECORD
  5
16B
330
1
100
AcDbSymbolTableRecord
100
AcDbBlockTableRecord
  2
Filled-1
340
0
  0
BLOCK_RECORD
  5
20A
330
1
100
AcDbSymbolTableRecord
100
AcDbBlockTableRecord
  2
*D4
340
0
  0
BLOCK_RECORD
  5
2F5
330
1
100
AcDbSymbolTableRecord
100
AcDbBlockTableRecord
  2
*D5
340
0
  0
BLOCK_RECORD
  5
3DF
330
1
100
AcDbSymbolTableRecord
100
AcDbBlockTableRecord
  2
*D6
340
0
  0
BLOCK_RECORD
  5
4DD
330
1
100
AcDbSymbolTableRecord
100
AcDbBlockTableRecord
  2
*D7
340
0
  0
BLOCK_RECORD
  5
5D9
330
1
100
AcDbSymbolTableRecord
100
AcDbBlockTableRecord
  2
*D8
340
0
  0
BLOCK_RECORD
  5
6C3
330
1
100
AcDbSymbolTableRecord
100
AcDbBlockTableRecord
  2
*D9
340
0
  0
BLOCK_RECORD
  5
7AD
330
1
100
AcDbSymbolTableRecord
100
AcDbBlockTableRecord
  2
*D10
340
0
  0
BLOCK_RECORD
  5
899
330
1
100
AcDbSymbolTableRecord
100
AcDbBlockTableRecord
  2
*D11
340
0
  0
BLOCK_RECORD
  5
999
330
1
100
AcDbSymbolTableRecord
100
AcDbBlockTableRecord
  2
*D12
340
0
  0
BLOCK_RECORD
  5
A83
330
1
100
AcDbSymbolTableRecord
100
AcDbBlockTableRecord
  2
*D13
340
0
  0
BLOCK_RECORD
  5
B3D
330
1
100
AcDbSymbolTableRecord
100
AcDbBlockTableRecord
  2
*D14
340
0
  0
BLOCK_RECORD
  5
BF6
330
1
100
AcDbSymbolTableRecord
100
AcDbBlockTableRecord
  2
*D15
340
0
  0
ENDTAB
  0
ENDSEC
  0
SECTION
  2
BLOCKS
  0
BLOCK
  5
6D
330
6C
100
AcDbEntity
  8
0
100
AcDbBlockBegin
  2
*Model_Space
 70
     0
 10
0.0
 20
0.0
 30
0.0
  3
*Model_Space
  1

  0
ENDBLK
  5
6E
330
6C
100
AcDbEntity
  8
0
100
AcDbBlockEnd
  0
BLOCK
  5
69
330
68
100
AcDbEntity
 67
     1
  8
0
100
AcDbBlockBegin
  2
*Paper_Space
 70
     0
 10
0.0
 20
0.0
 30
0.0
  3
*Paper_Space
  1

  0
ENDBLK
  5
6A
330
68
100
AcDbEntity
 67
     1
  8
0
100
AcDbBlockEnd
  0
BLOCK
  5
71
330
70
100
AcDbEntity
 67
     1
  8
0
100
AcDbBlockBegin
  2
*Paper_Space0
 70
     0
 10
0.0
 20
0.0
 30
0.0
  3
*Paper_Space0
  1

  0
ENDBLK
  5
72
330
70
100
AcDbEntity
 67
     1
  8
0
100
AcDbBlockEnd
  0
BLOCK
  5
15D
330
158
100
AcDbEntity
  8
0
100
AcDbBlockBegin
  2
_Closed
 70
     0
 10
0.0
 20
0.0
 30
0.0
  3
_Closed
  1

  0
LINE
  5
159
330
158
100
AcDbEntity
  8
0
  6
ByBlock
 62
     0
370
    -2
100
AcDbLine
 10
-1.0
 20
0.1666666666666666
 30
0.0
 11
0.0
 21
0.0
 31
0.0
  0
LINE
  5
15A
330
158
100
AcDbEntity
  8
0
  6
ByBlock
 62
     0
370
    -2
100
AcDbLine
 10
0.0
 20
0.0
 30
0.0
 11
-1.0
 21
-0.1666666666666666
 31
0.0
  0
LINE
  5
15B
330
158
100
AcDbEntity
  8
0
  6
ByBlock
 62
     0
370
    -2
100
AcDbLine
 10
-1.0
 20
0.1666666666666666
 30
0.0
 11
-1.0
 21
-0.1666666666666666
 31
0.0
  0
LINE
  5
15C
330
158
100
AcDbEntity
  8
0
  6
ByBlock
 62
     0
370
    -2
100
AcDbLine
 10
0.0
 20
0.0
 30
0.0
 11
-1.0
 21
0.0
 31
0.0
  0
ENDBLK
  5
15E
330
158
100
AcDbEntity
  8
0
100
AcDbBlockEnd
  0
BLOCK
  5
160
330
15F
100
AcDbEntity
  8
0
100
AcDbBlockBegin
  2
DatumFilled45
 70
     0
 10
0.0
 20
0.0
 30
0.0
  3
DatumFilled45
  1

  0
POLYLINE
  5
162
330
15F
100
AcDbEntity
  8
0
 62
     0
100
AcDb2dPolyline
 66
     1
 10
0.0
 20
0.0
 30
0.0
 70
   128
  0
VERTEX
  5
163
330
162
100
AcDbEntity
  8
0
 62
     0
100
AcDbVertex
100
AcDb2dVertex
 10
0.0
 20
0.9999999999999998
 30
0.0
  0
VERTEX
  5
164
330
162
100
AcDbEntity
  8
0
 62
     0
100
AcDbVertex
100
AcDb2dVertex
 10
0.0
 20
-0.9999999999999998
 30
0.0
  0
VERTEX
  5
166
330
162
100
AcDbEntity
  8
0
 62
     0
100
AcDbVertex
100
AcDb2dVertex
 10
-0.9999999999999998
 20
0.0
 30
0.0
  0
VERTEX
  5
167
330
162
100
AcDbEntity
  8
0
 62
     0
100
AcDbVertex
100
AcDb2dVertex
 10
0.0
 20
0.9999999999999998
 30
0.0
  0
SEQEND
  5
165
330
162
100
AcDbEntity
  8
0
 62
     0
  0
SOLID
  5
169
330
15F
100
AcDbEntity
  8
0
 62
     0
100
AcDbTrace
 10
0.0
 20
0.9999999999999998
 30
0.0
 11
0.0
 21
-0.9999999999999998
 31
0.0
 12
-0.9999999999999998
 22
0.0
 32
0.0
 13
0.0
 23
0.9999999999999998
 33
0.0
  0
ENDBLK
  5
161
330
15F
100
AcDbEntity
  8
0
100
AcDbBlockEnd
  0
BLOCK
  5
16C
330
16B
100
AcDbEntity
  8
0
100
AcDbBlockBegin
  2
Filled-1
 70
     0
 10
0.0
 20
0.0
 30
0.0
  3
Filled-1
  1

  0
LINE
  5
16E
330
16B
100
AcDbEntity
  8
0
 62
     0
100
AcDbLine
 10
-0.9999999999999998
 20
0.0
 30
0.0
 11
0.0
 21
0.0
 31
0.0
  0
POLYLINE
  5
16F
330
16B
100
AcDbEntity
  8
0
 62
     0
100
AcDb2dPolyline
 66
     1
 10
0.0
 20
0.0
 30
0.0
 70
   128
  0
VERTEX
  5
170
330
16F
100
AcDbEntity
  8
0
 62
     0
100
AcDbVertex
100
AcDb2dVertex
 10
-0.9999999999999998
 20
-0.0994897959183674
 30
0.0
  0
VERTEX
  5
171
330
16F
100
AcDbEntity
  8
0
 62
     0
100
AcDbVertex
100
AcDb2dVertex
 10
0.0
 20
0.0
 30
0.0
  0
VERTEX
  5
173
330
16F
100
AcDbEntity
  8
0
 62
     0
100
AcDbVertex
100
AcDb2dVertex
 10
-0.9999999999999998
 20
0.0994897959183674
 30
0.0
  0
VERTEX
  5
174
330
16F
100
AcDbEntity
  8
0
 62
     0
100
AcDbVertex
100
AcDb2dVertex
 10
-0.9999999999999998
 20
-0.0994897959183674
 30
0.0
  0
SEQEND
  5
172
330
16F
100
AcDbEntity
  8
0
 62
     0
  0
SOLID
  5
175
330
16B
100
AcDbEntity
  8
0
 62
     0
100
AcDbTrace
 10
-0.9999999999999998
 20
-0.0994897959183674
 30
0.0
 11
0.0
 21
0.0
 31
0.0
 12
-0.9999999999999998
 22
0.0994897959183674
 32
0.0
 13
-0.9999999999999998
 23
-0.0994897959183674
 33
0.0
  0
LINE
  5
176
330
16B
100
AcDbEntity
  8
0
 62
     0
100
AcDbLine
 10
-0.9999999999999998
 20
-0.0994897959183674
 30
0.0
 11
0.0
 21
0.0
 31
0.0
  0
LINE
  5
177
330
16B
100
AcDbEntity
  8
0
 62
     0
100
AcDbLine
 10
0.0
 20
0.0
 30
0.0
 11
-0.9999999999999998
 21
0.0994897959183674
 31
0.0
  0
LINE
  5
178
330
16B
100
AcDbEntity
  8
0
 62
     0
100
AcDbLine
 10
-0.9999999999999998
 20
0.0994897959183674
 30
0.0
 11
-0.9999999999999998
 21
-0.0994897959183674
 31
0.0
  0
ENDBLK
  5
16D
330
16B
100
AcDbEntity
  8
0
100
AcDbBlockEnd
  0
BLOCK
  5
20B
330
20A
100
AcDbEntity
  8
0
100
AcDbBlockBegin
  2
*D4
 70
     1
 10
0.0
 20
0.0
 30
0.0
  3
*D4
  1

  0
LINE
  5
2EA
330
20A
100
AcDbEntity
  8
Dimension (ANSI)
100
AcDbLine
 10
9.410073928099611
 20
12.21981838319146
 30
0.0
 11
3.647461906720364
 21
12.21981838319146
 31
0.0
  0
LINE
  5
2EB
330
20A
100
AcDbEntity
  8
Dimension (ANSI)
100
AcDbLine
 10
9.410073928099601
 20
34.41981838319146
 30
0.0
 11
3.647461906720369
 21
34.41981838319146
 31
0.0
  0
LINE
  5
2EC
330
20A
100
AcDbEntity
  8
Dimension (ANSI)
100
AcDbLine
 10
4.147461906720364
 20
12.6135191616758
 30
0.0
 11
4.147461906720367
 21
22.94384083720584
 31
0.0
  0
LINE
  5
2ED
330
20A
100
AcDbEntity
  8
Dimension (ANSI)
100
AcDbLine
 10
4.147461906720369
 20
34.02611760470712
 30
0.0
 11
4.147461906720367
 21
23.69579592917709
 31
0.0
  0
SOLID
  5
2EE
330
20A
100
AcDbEntity
  8
Dimension (ANSI)
100
AcDbTrace
 10
4.081845110306306
 20
12.6135191616758
 30
0.0
 11
4.213078703134422
 21
12.6135191616758
 31
0.0
 12
4.147461906720364
 22
12.21981838319146
 32
0.0
 13
4.147461906720364
 23
12.21981838319146
 33
0.0
  0
SOLID
  5
2EF
330
20A
100
AcDbEntity
  8
Dimension (ANSI)
100
AcDbTrace
 10
4.081845110306312
 20
34.02611760470712
 30
0.0
 11
4.213078703134427
 21
34.02611760470712
 31
0.0
 12
4.147461906720369
 22
34.41981838319146
 32
0.0
 13
4.147461906720369
 23
34.41981838319146
 33
0.0
  0
MTEXT
  5
2F0
330
20A
100
AcDbEntity
  8
Dimension (ANSI)
100
AcDbMText
 10
3.357670068755258
 20
23.56981167720858
 30
0.0
 40
0.4800000190734864
 41
0.0
 71
     1
 72
     1
  1
\A1;22.20
  7
Note Text (ANSI)
 73
     1
 44
1.0
1001
ACAD
1000
MTEXTBEGIN
1070
    73
1070
     1
1070
    44
1040
1.0
1070
    74
1070
     0
1000
MTEXTEND
  0
POINT
  5
2F1
330
20A
100
AcDbEntity
  8
Defpoints
 62
     0
100
AcDbPoint
 10
9.660073928099611
 20
12.21981838319146
 30
0.0
  0
POINT
  5
2F2
330
20A
100
AcDbEntity
  8
Defpoints
 62
     0
100
AcDbPoint
 10
9.660073928099601
 20
34.41981838319146
 30
0.0
  0
POINT
  5
2F3
330
20A
100
AcDbEntity
  8
Defpoints
 62
     0
100
AcDbPoint
 10
4.147461906720369
 20
34.41981838319146
 30
0.0
  0
ENDBLK
  5
20C
330
20A
100
AcDbEntity
  8
0
100
AcDbBlockEnd
  0
BLOCK
  5
2F6
330
2F5
100
AcDbEntity
  8
0
100
AcDbBlockBegin
  2
*D5
 70
     1
 10
0.0
 20
0.0
 30
0.0
  3
*D5
  1

  0
LINE
  5
3D4
330
2F5
100
AcDbEntity
  8
Dimension (ANSI)
100
AcDbLine
 10
9.160073928099601
 20
34.16981838319145
 30
0.0
 11
9.160073928099601
 21
39.61666877689225
 31
0.0
  0
LINE
  5
3D5
330
2F5
100
AcDbEntity
  8
Dimension (ANSI)
100
AcDbLine
 10
31.3600739280996
 20
34.16981838319145
 30
0.0
 11
31.3600739280996
 21
39.61666877689225
 31
0.0
  0
LINE
  5
3D6
330
2F5
100
AcDbEntity
  8
Dimension (ANSI)
100
AcDbLine
 10
9.553774706583945
 20
39.11666877689225
 30
0.0
 11
19.34429783816599
 21
39.11666877689225
 31
0.0
  0
LINE
  5
3D7
330
2F5
100
AcDbEntity
  8
Dimension (ANSI)
100
AcDbLine
 10
30.96637314961526
 20
39.11666877689225
 30
0.0
 11
21.17585001803321
 21
39.11666877689225
 31
0.0
  0
SOLID
  5
3D8
330
2F5
100
AcDbEntity
  8
Dimension (ANSI)
100
AcDbTrace
 10
9.553774706583945
 20
39.1822855733063
 30
0.0
 11
9.553774706583945
 21
39.05105198047819
 31
0.0
 12
9.160073928099601
 22
39.11666877689225
 32
0.0
 13
9.160073928099601
 23
39.11666877689225
 33
0.0
  0
SOLID
  5
3D9
330
2F5
100
AcDbEntity
  8
Dimension (ANSI)
100
AcDbTrace
 10
30.96637314961526
 20
39.1822855733063
 30
0.0
 11
30.96637314961526
 21
39.05105198047819
 31
0.0
 12
31.3600739280996
 22
39.11666877689225
 32
0.0
 13
31.3600739280996
 23
39.11666877689225
 33
0.0
  0
MTEXT
  5
3DA
330
2F5
100
AcDbEntity
  8
Dimension (ANSI)
100
AcDbMText
 10
19.47028209013449
 20
39.36666207090937
 30
0.0
 40
0.4800000190734864
 41
0.0
 71
     1
 72
     1
  1
\A1;22.20
  7
Note Text (ANSI)
 73
     1
 44
1.0
1001
ACAD
1000
MTEXTBEGIN
1070
    73
1070
     1
1070
    44
1040
1.0
1070
    74
1070
     0
1000
MTEXTEND
  0
POINT
  5
3DB
330
2F5
100
AcDbEntity
  8
Defpoints
 62
     0
100
AcDbPoint
 10
9.160073928099601
 20
33.91981838319146
 30
0.0
  0
POINT
  5
3DC
330
2F5
100
AcDbEntity
  8
Defpoints
 62
     0
100
AcDbPoint
 10
31.3600739280996
 20
33.91981838319146
 30
0.0
  0
POINT
  5
3DD
330
2F5
100
AcDbEntity
  8
Defpoints
 62
     0
100
AcDbPoint
 10
31.3600739280996
 20
39.11666877689225
 30
0.0
  0
ENDBLK
  5
2F7
330
2F5
100
AcDbEntity
  8
0
100
AcDbBlockEnd
  0
BLOCK
  5
3E0
330
3DF
100
AcDbEntity
  8
0
100
AcDbBlockBegin
  2
*D6
 70
     1
 10
0.0
 20
0.0
 30
0.0
  3
*D6
  1

  0
LINE
  5
4D1
330
3DF
100
AcDbEntity
  8
Dimension (ANSI)
100
AcDbLine
 10
9.430073928099607
 20
12.73981838319146
 30
0.0
 11
7.947466951461367
 21
12.73981838319146
 31
0.0
  0
LINE
  5
4D2
330
3DF
100
AcDbEntity
  8
Dimension (ANSI)
100
AcDbLine
 10
9.430073928099607
 20
13.48981838319146
 30
0.0
 11
7.947466951461367
 21
13.48981838319146
 31
0.0
  0
LINE
  5
4D3
330
3DF
100
AcDbEntity
  8
Dimension (ANSI)
100
AcDbLine
 10
8.447466951461368
 20
13.8835191616758
 30
0.0
 11
8.447466951461368
 21
14.27721994016015
 31
0.0
  0
LINE
  5
4D4
330
3DF
100
AcDbEntity
  8
Dimension (ANSI)
100
AcDbLine
 10
8.447466951461368
 20
12.34611760470711
 30
0.0
 11
8.447466951461366
 21
11.5932863908122
 31
0.0
  0
LINE
  5
4D5
330
3DF
100
AcDbEntity
  8
Dimension (ANSI)
100
AcDbLine
 10
8.447466951461366
 20
11.5932863908122
 30
0.0
 11
8.053766172977022
 21
11.5932863908122
 31
0.0
  0
SOLID
  5
4D6
330
3DF
100
AcDbEntity
  8
Dimension (ANSI)
100
AcDbTrace
 10
8.381850155047311
 20
13.8835191616758
 30
0.0
 11
8.513083747875425
 21
13.8835191616758
 31
0.0
 12
8.447466951461368
 22
13.48981838319146
 32
0.0
 13
8.447466951461368
 23
13.48981838319146
 33
0.0
  0
SOLID
  5
4D7
330
3DF
100
AcDbEntity
  8
Dimension (ANSI)
100
AcDbTrace
 10
8.381850155047311
 20
12.34611760470711
 30
0.0
 11
8.513083747875425
 21
12.34611760470711
 31
0.0
 12
8.447466951461368
 22
12.73981838319146
 32
0.0
 13
8.447466951461368
 23
12.73981838319146
 33
0.0
  0
MTEXT
  5
4D8
330
3DF
100
AcDbEntity
  8
Dimension (ANSI)
100
AcDbMText
 10
6.7079564863718
 20
11.84311850282157
 30
0.0
 40
0.4800000190734864
 41
0.0
 71
     1
 72
     1
  1
\A1;0.75
  7
Note Text (ANSI)
 73
     1
 44
1.0
1001
ACAD
1000
MTEXTBEGIN
1070
    73
1070
     1
1070
    44
1040
1.0
1070
    74
1070
     0
1000
MTEXTEND
  0
POINT
  5
4D9
330
3DF
100
AcDbEntity
  8
Defpoints
 62
     0
100
AcDbPoint
 10
9.680073928099607
 20
12.73981838319146
 30
0.0
  0
POINT
  5
4DA
330
3DF
100
AcDbEntity
  8
Defpoints
 62
     0
100
AcDbPoint
 10
9.680073928099607
 20
13.48981838319146
 30
0.0
  0
POINT
  5
4DB
330
3DF
100
AcDbEntity
  8
Defpoints
 62
     0
100
AcDbPoint
 10
8.447466951461368
 20
13.48981838319146
 30
0.0
  0
ENDBLK
  5
3E1
330
3DF
100
AcDbEntity
  8
0
100
AcDbBlockEnd
  0
BLOCK
  5
4DE
330
4DD
100
AcDbEntity
  8
0
100
AcDbBlockBegin
  2
*D7
 70
     1
 10
0.0
 20
0.0
 30
0.0
  3
*D7
  1

  0
LINE
  5
5CE
330
4DD
100
AcDbEntity
  8
Dimension (ANSI)
100
AcDbLine
 10
30.59007392809961
 20
33.89981838319147
 30
0.0
 11
13.85241649441198
 21
33.89981838319148
 31
0.0
  0
LINE
  5
5CF
330
4DD
100
AcDbEntity
  8
Dimension (ANSI)
100
AcDbLine
 10
14.35241649441198
 20
34.81351916167581
 30
0.0
 11
14.35241649441198
 21
35.20721994016015
 31
0.0
  0
LINE
  5
5D0
330
4DD
100
AcDbEntity
  8
Dimension (ANSI)
100
AcDbLine
 10
14.35241649441198
 20
33.50611760470713
 30
0.0
 11
14.35241649441198
 21
32.75299465658235
 31
0.0
  0
LINE
  5
5D1
330
4DD
100
AcDbEntity
  8
Dimension (ANSI)
100
AcDbLine
 10
14.35241649441198
 20
32.75299465658235
 30
0.0
 11
13.95871571592764
 21
32.75299465658235
 31
0.0
  0
SOLID
  5
5D2
330
4DD
100
AcDbEntity
  8
Dimension (ANSI)
100
AcDbTrace
 10
14.28679969799792
 20
34.81351916167581
 30
0.0
 11
14.41803329082604
 21
34.81351916167581
 31
0.0
 12
14.35241649441198
 22
34.41981838319146
 32
0.0
 13
14.35241649441198
 23
34.41981838319146
 33
0.0
  0
SOLID
  5
5D3
330
4DD
100
AcDbEntity
  8
Dimension (ANSI)
100
AcDbTrace
 10
14.28679969799792
 20
33.50611760470713
 30
0.0
 11
14.41803329082604
 21
33.50611760470713
 31
0.0
 12
14.35241649441198
 22
33.89981838319148
 32
0.0
 13
14.35241649441198
 23
33.89981838319148
 33
0.0
  0
MTEXT
  5
5D4
330
4DD
100
AcDbEntity
  8
Dimension (ANSI)
100
AcDbMText
 10
12.60742584105898
 20
33.00298795059947
 30
0.0
 40
0.4800000190734864
 41
0.0
 71
     1
 72
     1
  1
\A1;0.52
  7
Note Text (ANSI)
 73
     1
 44
1.0
1001
ACAD
1000
MTEXTBEGIN
1070
    73
1070
     1
1070
    44
1040
1.0
1070
    74
1070
     0
1000
MTEXTEND
  0
POINT
  5
5D5
330
4DD
100
AcDbEntity
  8
Defpoints
 62
     0
100
AcDbPoint
 10
9.660073928099601
 20
34.41981838319146
 30
0.0
  0
POINT
  5
5D6
330
4DD
100
AcDbEntity
  8
Defpoints
 62
     0
100
AcDbPoint
 10
30.84007392809961
 20
33.89981838319147
 30
0.0
  0
POINT
  5
5D7
330
4DD
100
AcDbEntity
  8
Defpoints
 62
     0
100
AcDbPoint
 10
14.35241649441198
 20
33.89981838319148
 30
0.0
  0
ENDBLK
  5
4DF
330
4DD
100
AcDbEntity
  8
0
100
AcDbBlockEnd
  0
BLOCK
  5
5DA
330
5D9
100
AcDbEntity
  8
0
100
AcDbBlockBegin
  2
*D8
 70
     1
 10
0.0
 20
0.0
 30
0.0
  3
*D8
  1

  0
LINE
  5
6B8
330
5D9
100
AcDbEntity
  8
Dimension (ANSI)
100
AcDbLine
 10
31.3600739280996
 20
34.16981838319145
 30
0.0
 11
31.3600739280996
 21
37.56942468240406
 31
0.0
  0
LINE
  5
6B9
330
5D9
100
AcDbEntity
  8
Dimension (ANSI)
100
AcDbLine
 10
30.84007392809961
 20
34.14981838319147
 30
0.0
 11
30.84007392809961
 21
37.56942468240406
 31
0.0
  0
LINE
  5
6BA
330
5D9
100
AcDbEntity
  8
Dimension (ANSI)
100
AcDbLine
 10
30.44637314961526
 20
37.06942468240406
 30
0.0
 11
30.05267237113092
 21
37.06942468240406
 31
0.0
  0
LINE
  5
6BB
330
5D9
100
AcDbEntity
  8
Dimension (ANSI)
100
AcDbLine
 10
31.75377470658395
 20
37.06942468240406
 30
0.0
 11
32.35347935189307
 21
37.06942468240406
 31
0.0
  0
SOLID
  5
6BC
330
5D9
100
AcDbEntity
  8
Dimension (ANSI)
100
AcDbTrace
 10
30.44637314961526
 20
37.13504147881811
 30
0.0
 11
30.44637314961526
 21
37.00380788599
 31
0.0
 12
30.84007392809961
 22
37.06942468240406
 32
0.0
 13
30.84007392809961
 23
37.06942468240406
 33
0.0
  0
SOLID
  5
6BD
330
5D9
100
AcDbEntity
  8
Dimension (ANSI)
100
AcDbTrace
 10
31.75377470658395
 20
37.13504147881811
 30
0.0
 11
31.75377470658395
 21
37.00380788599
 31
0.0
 12
31.3600739280996
 22
37.06942468240406
 32
0.0
 13
31.3600739280996
 23
37.06942468240406
 33
0.0
  0
MTEXT
  5
6BE
330
5D9
100
AcDbEntity
  8
Dimension (ANSI)
100
AcDbMText
 10
32.47946360386158
 20
37.31941797642117
 30
0.0
 40
0.4800000190734864
 41
0.0
 71
     1
 72
     1
  1
\A1;0.52
  7
Note Text (ANSI)
 73
     1
 44
1.0
1001
ACAD
1000
MTEXTBEGIN
1070
    73
1070
     1
1070
    44
1040
1.0
1070
    74
1070
     0
1000
MTEXTEND
  0
POINT
  5
6BF
330
5D9
100
AcDbEntity
  8
Defpoints
 62
     0
100
AcDbPoint
 10
31.3600739280996
 20
33.91981838319146
 30
0.0
  0
POINT
  5
6C0
330
5D9
100
AcDbEntity
  8
Defpoints
 62
     0
100
AcDbPoint
 10
30.84007392809961
 20
33.89981838319147
 30
0.0
  0
POINT
  5
6C1
330
5D9
100
AcDbEntity
  8
Defpoints
 62
     0
100
AcDbPoint
 10
30.84007392809961
 20
37.06942468240406
 30
0.0
  0
ENDBLK
  5
5DB
330
5D9
100
AcDbEntity
  8
0
100
AcDbBlockEnd
  0
BLOCK
  5
6C4
330
6C3
100
AcDbEntity
  8
0
100
AcDbBlockBegin
  2
*D9
 70
     1
 10
0.0
 20
0.0
 30
0.0
  3
*D9
  1

  0
LINE
  5
7A2
330
6C3
100
AcDbEntity
  8
Dimension (ANSI)
100
AcDbLine
 10
9.430073928099607
 20
12.73981838319146
 30
0.0
 11
5.400546369044492
 21
12.73981838319146
 31
0.0
  0
LINE
  5
7A3
330
6C3
100
AcDbEntity
  8
Dimension (ANSI)
100
AcDbLine
 10
9.430073928099607
 20
33.89981838319146
 30
0.0
 11
5.400546369044496
 21
33.89981838319146
 31
0.0
  0
LINE
  5
7A4
330
6C3
100
AcDbEntity
  8
Dimension (ANSI)
100
AcDbLine
 10
5.900546369044492
 20
13.1335191616758
 30
0.0
 11
5.900546369044495
 21
28.95693070359485
 31
0.0
  0
LINE
  5
7A5
330
6C3
100
AcDbEntity
  8
Dimension (ANSI)
100
AcDbLine
 10
5.900546369044496
 20
33.50611760470711
 30
0.0
 11
5.900546369044495
 21
29.7088857955661
 31
0.0
  0
SOLID
  5
7A6
330
6C3
100
AcDbEntity
  8
Dimension (ANSI)
100
AcDbTrace
 10
5.834929572630434
 20
13.1335191616758
 30
0.0
 11
5.966163165458549
 21
13.1335191616758
 31
0.0
 12
5.900546369044492
 22
12.73981838319146
 32
0.0
 13
5.900546369044492
 23
12.73981838319146
 33
0.0
  0
SOLID
  5
7A7
330
6C3
100
AcDbEntity
  8
Dimension (ANSI)
100
AcDbTrace
 10
5.834929572630438
 20
33.50611760470711
 30
0.0
 11
5.966163165458554
 21
33.50611760470711
 31
0.0
 12
5.900546369044496
 22
33.89981838319146
 32
0.0
 13
5.900546369044496
 23
33.89981838319146
 33
0.0
  0
MTEXT
  5
7A8
330
6C3
100
AcDbEntity
  8
Dimension (ANSI)
100
AcDbMText
 10
4.930553046417143
 20
29.58290154359759
 30
0.0
 40
0.4800000190734864
 41
0.0
 71
     1
 72
     1
  1
\A1;21.160
  7
Note Text (ANSI)
 73
     1
 44
1.0
1001
ACAD
1000
MTEXTBEGIN
1070
    73
1070
     1
1070
    44
1040
1.0
1070
    74
1070
     0
1000
MTEXTEND
  0
POINT
  5
7A9
330
6C3
100
AcDbEntity
  8
Defpoints
 62
     0
100
AcDbPoint
 10
9.680073928099607
 20
12.73981838319146
 30
0.0
  0
POINT
  5
7AA
330
6C3
100
AcDbEntity
  8
Defpoints
 62
     0
100
AcDbPoint
 10
9.680073928099607
 20
33.89981838319146
 30
0.0
  0
POINT
  5
7AB
330
6C3
100
AcDbEntity
  8
Defpoints
 62
     0
100
AcDbPoint
 10
5.900546369044496
 20
33.89981838319146
 30
0.0
  0
ENDBLK
  5
6C5
330
6C3
100
AcDbEntity
  8
0
100
AcDbBlockEnd
  0
BLOCK
  5
7AE
330
7AD
100
AcDbEntity
  8
0
100
AcDbBlockBegin
  2
*D10
 70
     1
 10
0.0
 20
0.0
 30
0.0
  3
*D10
  1

  0
LINE
  5
88C
330
7AD
100
AcDbEntity
  8
Dimension (ANSI)
100
AcDbLine
 10
42.67605812948742
 20
34.66981838319146
 30
0.0
 11
42.67605812948742
 21
37.28202310760091
 31
0.0
  0
LINE
  5
88D
330
7AD
100
AcDbEntity
  8
Dimension (ANSI)
100
AcDbLine
 10
43.45005812948757
 20
32.95181838319146
 30
0.0
 11
43.45005812948757
 21
37.28202310760091
 31
0.0
  0
LINE
  5
88E
330
7AD
100
AcDbEntity
  8
Dimension (ANSI)
100
AcDbLine
 10
43.84375890797191
 20
36.78202310760092
 30
0.0
 11
44.23745968645626
 21
36.78202310760092
 31
0.0
  0
LINE
  5
88F
330
7AD
100
AcDbEntity
  8
Dimension (ANSI)
100
AcDbLine
 10
42.28235735100308
 20
36.78202310760092
 30
0.0
 11
41.68523161781792
 21
36.78202310760092
 31
0.0
  0
SOLID
  5
890
330
7AD
100
AcDbEntity
  8
Dimension (ANSI)
100
AcDbTrace
 10
43.84375890797191
 20
36.84763990401497
 30
0.0
 11
43.84375890797191
 21
36.71640631118686
 31
0.0
 12
43.45005812948757
 22
36.78202310760092
 32
0.0
 13
43.45005812948757
 23
36.78202310760092
 33
0.0
  0
SOLID
  5
891
330
7AD
100
AcDbEntity
  8
Dimension (ANSI)
100
AcDbTrace
 10
42.28235735100308
 20
36.84763990401497
 30
0.0
 11
42.28235735100308
 21
36.71640631118686
 31
0.0
 12
42.67605812948742
 22
36.78202310760092
 32
0.0
 13
42.67605812948742
 23
36.78202310760092
 33
0.0
  0
MTEXT
  5
892
330
7AD
100
AcDbEntity
  8
Dimension (ANSI)
100
AcDbMText
 10
40.32878391870133
 20
37.03185521961029
 30
0.0
 40
0.4800000190734864
 41
0.0
 71
     1
 72
     1
  1
\A1;0.77
  7
Note Text (ANSI)
 73
     1
 44
1.0
1001
ACAD
1000
MTEXTBEGIN
1070
    73
1070
     1
1070
    44
1040
1.0
1070
    74
1070
     0
1000
MTEXTEND
  0
POINT
  5
893
330
7AD
100
AcDbEntity
  8
Defpoints
 62
     0
100
AcDbPoint
 10
42.67605812948742
 20
34.41981838319146
 30
0.0
  0
POINT
  5
894
330
7AD
100
AcDbEntity
  8
Defpoints
 62
     0
100
AcDbPoint
 10
43.45005812948757
 20
32.70181838319146
 30
0.0
  0
POINT
  5
895
330
7AD
100
AcDbEntity
  8
Defpoints
 62
     0
100
AcDbPoint
 10
43.45005812948757
 20
36.78202310760092
 30
0.0
  0
ENDBLK
  5
7AF
330
7AD
100
AcDbEntity
  8
0
100
AcDbBlockEnd
  0
BLOCK
  5
89A
330
899
100
AcDbEntity
  8
0
100
AcDbBlockBegin
  2
*D11
 70
     1
 10
0.0
 20
0.0
 30
0.0
  3
*D11
  1

  0
LINE
  5
98D
330
899
100
AcDbEntity
  8
Dimension (ANSI)
100
AcDbLine
 10
31.1100739280996
 20
12.21981838319146
 30
0.0
 11
33.08881253655189
 21
12.21981838319146
 31
0.0
  0
LINE
  5
98E
330
899
100
AcDbEntity
  8
Dimension (ANSI)
100
AcDbLine
 10
31.61007392809961
 20
12.71981838319146
 30
0.0
 11
33.08881253655189
 21
12.71981838319146
 31
0.0
  0
LINE
  5
98F
330
899
100
AcDbEntity
  8
Dimension (ANSI)
100
AcDbLine
 10
32.58881253655188
 20
11.82611760470711
 30
0.0
 11
32.58881253655188
 21
11.43241682622277
 31
0.0
  0
LINE
  5
990
330
899
100
AcDbEntity
  8
Dimension (ANSI)
100
AcDbLine
 10
32.58881253655188
 20
13.11351916167581
 30
0.0
 11
32.58881253655188
 21
13.86635037557071
 31
0.0
  0
LINE
  5
991
330
899
100
AcDbEntity
  8
Dimension (ANSI)
100
AcDbLine
 10
32.58881253655188
 20
13.86635037557071
 30
0.0
 11
32.98251331503623
 21
13.86635037557071
 31
0.0
  0
SOLID
  5
992
330
899
100
AcDbEntity
  8
Dimension (ANSI)
100
AcDbTrace
 10
32.52319574013783
 20
11.82611760470711
 30
0.0
 11
32.65442933296594
 21
11.82611760470711
 31
0.0
 12
32.58881253655188
 22
12.21981838319146
 32
0.0
 13
32.58881253655188
 23
12.21981838319146
 33
0.0
  0
SOLID
  5
993
330
899
100
AcDbEntity
  8
Dimension (ANSI)
100
AcDbTrace
 10
32.52319574013783
 20
13.11351916167581
 30
0.0
 11
32.65442933296594
 21
13.11351916167581
 31
0.0
 12
32.58881253655188
 22
12.71981838319146
 32
0.0
 13
32.58881253655188
 23
12.71981838319146
 33
0.0
  0
MTEXT
  5
994
330
899
100
AcDbEntity
  8
Dimension (ANSI)
100
AcDbMText
 10
33.10849756700474
 20
14.11618248758008
 30
0.0
 40
0.4800000190734864
 41
0.0
 71
     1
 72
     1
  1
\A1;0.50
  7
Note Text (ANSI)
 73
     1
 44
1.0
1001
ACAD
1000
MTEXTBEGIN
1070
    73
1070
     1
1070
    44
1040
1.0
1070
    74
1070
     0
1000
MTEXTEND
  0
POINT
  5
995
330
899
100
AcDbEntity
  8
Defpoints
 62
     0
100
AcDbPoint
 10
30.8600739280996
 20
12.21981838319146
 30
0.0
  0
POINT
  5
996
330
899
100
AcDbEntity
  8
Defpoints
 62
     0
100
AcDbPoint
 10
31.36007392809961
 20
12.71981838319146
 30
0.0
  0
POINT
  5
997
330
899
100
AcDbEntity
  8
Defpoints
 62
     0
100
AcDbPoint
 10
32.58881253655188
 20
12.71981838319146
 30
0.0
  0
ENDBLK
  5
89B
330
899
100
AcDbEntity
  8
0
100
AcDbBlockEnd
  0
BLOCK
  5
99A
330
999
100
AcDbEntity
  8
0
100
AcDbBlockBegin
  2
*D12
 70
     1
 10
0.0
 20
0.0
 30
0.0
  3
*D12
  1

  0
LINE
  5
A78
330
999
100
AcDbEntity
  8
Dimension (ANSI)
100
AcDbLine
 10
31.36007392809961
 20
12.46981838319146
 30
0.0
 11
31.36007392809961
 21
9.357613658782016
 31
0.0
  0
LINE
  5
A79
330
999
100
AcDbEntity
  8
Dimension (ANSI)
100
AcDbLine
 10
30.8600739280996
 20
11.96981838319146
 30
0.0
 11
30.8600739280996
 21
9.357613658782016
 31
0.0
  0
LINE
  5
A7A
330
999
100
AcDbEntity
  8
Dimension (ANSI)
100
AcDbLine
 10
31.75377470658395
 20
9.857613658782016
 30
0.0
 11
32.1474754850683
 21
9.857613658782016
 31
0.0
  0
LINE
  5
A7B
330
999
100
AcDbEntity
  8
Dimension (ANSI)
100
AcDbLine
 10
30.46637314961526
 20
9.857613658782016
 30
0.0
 11
29.86779677836037
 21
9.857613658782016
 31
0.0
  0
SOLID
  5
A7C
330
999
100
AcDbEntity
  8
Dimension (ANSI)
100
AcDbTrace
 10
31.75377470658395
 20
9.923230455196073
 30
0.0
 11
31.75377470658395
 21
9.791996862367959
 31
0.0
 12
31.36007392809961
 22
9.857613658782016
 32
0.0
 13
31.36007392809961
 23
9.857613658782016
 33
0.0
  0
SOLID
  5
A7D
330
999
100
AcDbEntity
  8
Dimension (ANSI)
100
AcDbTrace
 10
30.46637314961526
 20
9.923230455196073
 30
0.0
 11
30.46637314961526
 21
9.791996862367959
 31
0.0
 12
30.8600739280996
 22
9.857613658782016
 32
0.0
 13
30.8600739280996
 23
9.857613658782016
 33
0.0
  0
MTEXT
  5
A7E
330
999
100
AcDbEntity
  8
Dimension (ANSI)
100
AcDbMText
 10
28.51425035538325
 20
10.10744577079139
 30
0.0
 40
0.4800000190734864
 41
0.0
 71
     1
 72
     1
  1
\A1;0.50
  7
Note Text (ANSI)
 73
     1
 44
1.0
1001
ACAD
1000
MTEXTBEGIN
1070
    73
1070
     1
1070
    44
1040
1.0
1070
    74
1070
     0
1000
MTEXTEND
  0
POINT
  5
A7F
330
999
100
AcDbEntity
  8
Defpoints
 62
     0
100
AcDbPoint
 10
31.36007392809961
 20
12.71981838319146
 30
0.0
  0
POINT
  5
A80
330
999
100
AcDbEntity
  8
Defpoints
 62
     0
100
AcDbPoint
 10
30.8600739280996
 20
12.21981838319146
 30
0.0
  0
POINT
  5
A81
330
999
100
AcDbEntity
  8
Defpoints
 62
     0
100
AcDbPoint
 10
30.8600739280996
 20
9.857613658782016
 30
0.0
  0
ENDBLK
  5
99B
330
999
100
AcDbEntity
  8
0
100
AcDbBlockEnd
  0
BLOCK
  5
A84
330
A83
100
AcDbEntity
  8
0
100
AcDbBlockBegin
  2
*D13
 70
     1
 10
0.0
 20
0.0
 30
0.0
  3
*D13
  1

  0
LINE
  5
B34
330
A83
100
AcDbEntity
  8
Dimension (ANSI)
100
AcDbLine
 10
5.995326089888788
 20
38.10485287300151
 30
0.0
 11
6.485264085570831
 21
38.10485287300151
 31
0.0
  0
LINE
  5
B35
330
A83
100
AcDbEntity
  8
Dimension (ANSI)
100
AcDbLine
 10
6.485264085570831
 20
38.10485287300151
 30
0.0
 11
9.290659889747999
 21
34.41236828218281
 31
0.0
  0
MTEXT
  5
B36
102
{ACAD_XDICTIONARY
360
D2A
102
}
330
A83
100
AcDbEntity
  8
Dimension (ANSI)
100
AcDbMText
 10
5.869341837920285
 20
38.47087034892921
 30
0.0
 40
0.4800000190734864
 41
0.0
 71
     3
 72
     1
  1
\A1;\U+22050.50{\PTYP.(4PL.)}
  7
Note Text (ANSI)
 73
     1
 44
1.0
1001
ACAD
1000
MTEXTBEGIN
1070
    73
1070
     1
1070
    44
1040
1.0
1070
    74
1070
     0
1000
MTEXTEND
  0
SOLID
  5
B37
330
A83
100
AcDbEntity
  8
Dimension (ANSI)
100
AcDbTrace
 10
9.342907585413914
 20
34.45206390246069
 30
0.0
 11
9.238412194082084
 21
34.37267266190493
 31
0.0
 12
9.528833611415304
 22
34.09888210818734
 32
0.0
 13
9.528833611415304
 23
34.09888210818734
 33
0.0
  0
LINE
  5
B38
330
A83
100
AcDbEntity
  8
Dimension (ANSI)
100
AcDbLine
 10
9.320073928099608
 20
33.89981838319146
 30
0.0
 11
10.04007392809961
 21
33.89981838319146
 31
0.0
  0
LINE
  5
B39
330
A83
100
AcDbEntity
  8
Dimension (ANSI)
100
AcDbLine
 10
9.680073928099606
 20
33.53981838319146
 30
0.0
 11
9.680073928099606
 21
34.25981838319146
 31
0.0
  0
POINT
  5
B3A
330
A83
100
AcDbEntity
  8
Defpoints
 62
     0
100
AcDbPoint
 10
9.528833611415304
 20
34.09888210818734
 30
0.0
  0
POINT
  5
B3B
330
A83
100
AcDbEntity
  8
Defpoints
 62
     0
100
AcDbPoint
 10
9.831314244783907
 20
33.70075465819558
 30
0.0
  0
ENDBLK
  5
A85
330
A83
100
AcDbEntity
  8
0
100
AcDbBlockEnd
  0
BLOCK
  5
B3E
330
B3D
100
AcDbEntity
  8
0
100
AcDbBlockBegin
  2
*D14
 70
     1
 10
0.0
 20
0.0
 30
0.0
  3
*D14
  1

  0
LINE
  5
BED
330
B3D
100
AcDbEntity
  8
Dimension (ANSI)
100
AcDbLine
 10
11.46457676140529
 20
10.50257020916083
 30
0.0
 11
10.97471582279759
 21
10.50257020916083
 31
0.0
  0
LINE
  5
BEE
330
B3D
100
AcDbEntity
  8
Dimension (ANSI)
100
AcDbLine
 10
10.97471582279759
 20
10.50257020916083
 30
0.0
 11
9.89876229491983
 21
12.98521828710245
 31
0.0
  0
MTEXT
  5
BEF
102
{ACAD_XDICTIONARY
360
D2C
102
}
330
B3D
100
AcDbEntity
  8
Dimension (ANSI)
100
AcDbMText
 10
11.59056101337379
 20
10.86858768508854
 30
0.0
 40
0.4800000190734864
 41
0.0
 71
     1
 72
     1
  1
\A1;\U+22050.31{\PTYP. (4PL.)}
  7
Note Text (ANSI)
 73
     1
 44
1.0
1001
ACAD
1000
MTEXTBEGIN
1070
    73
1070
     1
1070
    44
1040
1.0
1070
    74
1070
     0
1000
MTEXTEND
  0
SOLID
  5
BF0
330
B3D
100
AcDbEntity
  8
Dimension (ANSI)
100
AcDbTrace
 10
9.958968122551963
 20
13.01131085866551
 30
0.0
 11
9.838556467287697
 21
12.95912571553938
 31
0.0
 12
9.742206865541445
 22
13.34645325289525
 32
0.0
 13
9.742206865541445
 23
13.34645325289525
 33
0.0
  0
LINE
  5
BF1
330
B3D
100
AcDbEntity
  8
Dimension (ANSI)
100
AcDbLine
 10
9.320073928099603
 20
13.48981838319145
 30
0.0
 11
10.0400739280996
 21
13.48981838319146
 31
0.0
  0
LINE
  5
BF2
330
B3D
100
AcDbEntity
  8
Dimension (ANSI)
100
AcDbLine
 10
9.680073928099604
 20
13.12981838319145
 30
0.0
 11
9.680073928099604
 21
13.84981838319145
 31
0.0
  0
POINT
  5
BF3
330
B3D
100
AcDbEntity
  8
Defpoints
 62
     0
100
AcDbPoint
 10
9.742206865541445
 20
13.34645325289525
 30
0.0
  0
POINT
  5
BF4
330
B3D
100
AcDbEntity
  8
Defpoints
 62
     0
100
AcDbPoint
 10
9.617940990657761
 20
13.63318351348766
 30
0.0
  0
ENDBLK
  5
B3F
330
B3D
100
AcDbEntity
  8
0
100
AcDbBlockEnd
  0
BLOCK
  5
BF7
330
BF6
100
AcDbEntity
  8
0
100
AcDbBlockBegin
  2
*D15
 70
     1
 10
0.0
 20
0.0
 30
0.0
  3
*D15
  1

  0
LINE
  5
CD5
330
BF6
100
AcDbEntity
  8
Dimension (ANSI)
100
AcDbLine
 10
30.84007392809961
 20
34.14981838319147
 30
0.0
 11
30.84007392809961
 21
37.56942468240408
 31
0.0
  0
LINE
  5
CD6
330
BF6
100
AcDbEntity
  8
Dimension (ANSI)
100
AcDbLine
 10
9.680073928099607
 20
34.14981838319146
 30
0.0
 11
9.680073928099607
 21
37.56942468240408
 31
0.0
  0
LINE
  5
CD7
330
BF6
100
AcDbEntity
  8
Dimension (ANSI)
100
AcDbLine
 10
30.44637314961526
 20
37.06942468240408
 30
0.0
 11
21.17842893015719
 21
37.06942468240408
 31
0.0
  0
LINE
  5
CD8
330
BF6
100
AcDbEntity
  8
Dimension (ANSI)
100
AcDbLine
 10
10.07377470658395
 20
37.06942468240408
 30
0.0
 11
19.34171892604203
 21
37.06942468240408
 31
0.0
  0
SOLID
  5
CD9
330
BF6
100
AcDbEntity
  8
Dimension (ANSI)
100
AcDbTrace
 10
30.44637314961526
 20
37.13504147881813
 30
0.0
 11
30.44637314961526
 21
37.00380788599002
 31
0.0
 12
30.84007392809961
 22
37.06942468240408
 32
0.0
 13
30.84007392809961
 23
37.06942468240408
 33
0.0
  0
SOLID
  5
CDA
330
BF6
100
AcDbEntity
  8
Dimension (ANSI)
100
AcDbTrace
 10
10.07377470658395
 20
37.13504147881813
 30
0.0
 11
10.07377470658395
 21
37.00380788599002
 31
0.0
 12
9.680073928099607
 22
37.06942468240408
 32
0.0
 13
9.680073928099607
 23
37.06942468240408
 33
0.0
  0
MTEXT
  5
CDB
330
BF6
100
AcDbEntity
  8
Dimension (ANSI)
100
AcDbMText
 10
19.46770317801053
 20
37.31941797642119
 30
0.0
 40
0.4800000190734864
 41
0.0
 71
     1
 72
     1
  1
\A1;21.16
  7
Note Text (ANSI)
 73
     1
 44
1.0
1001
ACAD
1000
MTEXTBEGIN
1070
    73
1070
     1
1070
    44
1040
1.0
1070
    74
1070
     0
1000
MTEXTEND
  0
POINT
  5
CDC
330
BF6
100
AcDbEntity
  8
Defpoints
 62
     0
100
AcDbPoint
 10
30.84007392809961
 20
33.89981838319147
 30
0.0
  0
POINT
  5
CDD
330
BF6
100
AcDbEntity
  8
Defpoints
 62
     0
100
AcDbPoint
 10
9.680073928099607
 20
33.89981838319146
 30
0.0
  0
POINT
  5
CDE
330
BF6
100
AcDbEntity
  8
Defpoints
 62
     0
100
AcDbPoint
 10
9.680073928099607
 20
37.06942468240408
 30
0.0
  0
ENDBLK
  5
BF8
330
BF6
100
AcDbEntity
  8
0
100
AcDbBlockEnd
  0
ENDSEC
  0
SECTION
  2
ENTITIES
  0
MTEXT
  5
74
330
6C
100
AcDbEntity
  8
Symbol (ANSI)
100
AcDbMText
 10
37.15409009006128
 20
10.98439010117425
 30
0.0
 40
0.5600000178720068
 41
20.6734839011365
 71
     1
 72
     1
  1
PART#: NP2424C\P(DATA SUBJECT TO CHANGE WITHOUT NOTICE)\PTHIS DRAWING AND COMPONENTS OF ARE\PPROPERTY OF HUBBELL INC. WIEGMANN\P 
  7
Note Text (ANSI)
 73
     2
 44
1.093904256820678
1001
ACAD
1000
MTEXTBEGIN
1070
    73
1070
     2
1070
    44
1040
1.093904256820678
1070
    74
1070
     0
1000
MTEXTEND
  0
TEXT
  5
77
330
6C
100
AcDbEntity
  8
0
100
AcDbText
 10
56.33166648715396
 20
7.777057378824025
 30
0.0
 40
0.389347742874474
  1
HUBBELL
  7
SANSSERIF
100
AcDbText
  0
POLYLINE
  5
79
330
6C
100
AcDbEntity
  8
0
100
AcDb2dPolyline
 66
     1
 10
0.0
 20
0.0
 30
0.0
  0
VERTEX
  5
7A
330
79
100
AcDbEntity
  8
0
100
AcDbVertex
100
AcDb2dVertex
 10
56.53338486355949
 20
7.584697796834944
 30
0.0
 42
0.0538548888021971
  0
VERTEX
  5
7B
330
79
100
AcDbEntity
  8
0
100
AcDbVertex
100
AcDb2dVertex
 10
56.67359527106743
 20
7.474881281172365
 30
0.0
 42
0.0762621633615686
 70
     2
 50
328.0963691854962
  0
VERTEX
  5
7C
330
79
100
AcDbEntity
  8
0
100
AcDbVertex
100
AcDb2dVertex
 10
57.01626172784209
 20
7.328145103409532
 30
0.0
 42
0.0631748622128167
 50
328.0963691854962
  0
VERTEX
  5
7D
330
79
100
AcDbEntity
  8
0
100
AcDbVertex
100
AcDb2dVertex
 10
57.46185810076271
 20
7.271618523331497
 30
0.0
 42
0.0631748622128144
  0
VERTEX
  5
7E
330
79
100
AcDbEntity
  8
0
100
AcDbVertex
100
AcDb2dVertex
 10
57.90745447368333
 20
7.328145103409532
 30
0.0
 42
0.0762621633615716
  0
VERTEX
  5
7F
330
79
100
AcDbEntity
  8
0
100
AcDbVertex
100
AcDb2dVertex
 10
58.25012093045796
 20
7.474881281172365
 30
0.0
 42
0.0538548888021992
 70
     2
 50
31.90363081450366
  0
VERTEX
  5
80
330
79
100
AcDbEntity
  8
0
100
AcDbVertex
100
AcDb2dVertex
 10
58.39033133796594
 20
7.584697796834944
 30
0.0
 42
0.1478388992712208
 50
31.90363081450366
  0
SEQEND
  5
81
330
79
100
AcDbEntity
  8
0
  0
POLYLINE
  5
82
330
6C
100
AcDbEntity
  8
0
100
AcDb2dPolyline
 66
     1
 10
0.0
 20
0.0
 30
0.0
  0
VERTEX
  5
83
330
82
100
AcDbEntity
  8
0
100
AcDbVertex
100
AcDb2dVertex
 10
56.79045207327139
 20
7.627123312733857
 30
0.0
 42
0.0708473647366734
  0
VERTEX
  5
84
330
82
100
AcDbEntity
  8
0
100
AcDbVertex
100
AcDb2dVertex
 10
56.91755855097756
 20
7.474881281172365
 30
0.0
 42
0.0943474025114784
 70
     2
 50
317.9633854595613
  0
VERTEX
  5
85
330
82
100
AcDbEntity
  8
0
100
AcDbVertex
100
AcDb2dVertex
 10
57.16370726893102
 20
7.325472791839032
 30
0.0
 42
0.0895889244631754
 50
317.9633854595613
  0
VERTEX
  5
86
330
82
100
AcDbEntity
  8
0
100
AcDbVertex
100
AcDb2dVertex
 10
57.46185810076271
 20
7.271618523331497
 30
0.0
 42
0.0895889244631755
  0
VERTEX
  5
87
330
82
100
AcDbEntity
  8
0
100
AcDbVertex
100
AcDb2dVertex
 10
57.7600089325944
 20
7.325472791839032
 30
0.0
 42
0.0943474025114826
  0
VERTEX
  5
88
330
82
100
AcDbEntity
  8
0
100
AcDbVertex
100
AcDb2dVertex
 10
58.00615765054786
 20
7.474881281172365
 30
0.0
 42
0.0708473647366705
 70
     2
 50
42.03661454043863
  0
VERTEX
  5
89
330
82
100
AcDbEntity
  8
0
100
AcDbVertex
100
AcDb2dVertex
 10
58.133264128254
 20
7.627123312733857
 30
0.0
 42
0.1080871028423927
 50
42.03661454043863
  0
SEQEND
  5
8A
330
82
100
AcDbEntity
  8
0
  0
POLYLINE
  5
8B
330
6C
100
AcDbEntity
  8
0
100
AcDb2dPolyline
 66
     1
 10
0.0
 20
0.0
 30
0.0
  0
VERTEX
  5
8C
330
8B
100
AcDbEntity
  8
0
100
AcDbVertex
100
AcDb2dVertex
 10
58.38403894816464
 20
8.352566350290047
 30
0.0
 42
0.0512131062417871
  0
VERTEX
  5
8D
330
8B
100
AcDbEntity
  8
0
100
AcDbVertex
100
AcDb2dVertex
 10
58.25012093045796
 20
8.456320694581975
 30
0.0
 42
0.0762621633615678
 70
     2
 50
148.0963691854963
  0
VERTEX
  5
8E
330
8B
100
AcDbEntity
  8
0
100
AcDbVertex
100
AcDb2dVertex
 10
57.90745447368333
 20
8.603056872344815
 30
0.0
 42
0.0631748622128132
 50
148.0963691854963
  0
VERTEX
  5
8F
330
8B
100
AcDbEntity
  8
0
100
AcDbVertex
100
AcDb2dVertex
 10
57.46185810076271
 20
8.65958345242285
 30
0.0
 42
0.0631748622128155
  0
SEQEND
  5
90
330
8B
100
AcDbEntity
  8
0
  0
POLYLINE
  5
91
330
6C
100
AcDbEntity
  8
0
100
AcDb2dPolyline
 66
     1
 10
0.0
 20
0.0
 30
0.0
  0
VERTEX
  5
92
330
91
100
AcDbEntity
  8
0
100
AcDbVertex
100
AcDb2dVertex
 10
58.13013853941196
 20
8.309081868781902
 30
0.0
 42
0.0687403046083495
  0
VERTEX
  5
93
330
91
100
AcDbEntity
  8
0
100
AcDbVertex
100
AcDb2dVertex
 10
58.00615765054786
 20
8.456320694581975
 30
0.0
 42
0.0943474025114827
 70
     2
 50
137.9633854595613
  0
VERTEX
  5
94
330
91
100
AcDbEntity
  8
0
100
AcDbVertex
100
AcDb2dVertex
 10
57.7600089325944
 20
8.605729183915308
 30
0.0
 42
0.0895889244631755
 50
137.9633854595613
  0
VERTEX
  5
95
330
91
100
AcDbEntity
  8
0
100
AcDbVertex
100
AcDb2dVertex
 10
57.46185810076271
 20
8.65958345242285
 30
0.0
 42
0.0895889244631779
  0
SEQEND
  5
96
330
91
100
AcDbEntity
  8
0
  0
LINE
  5
97
330
6C
100
AcDbEntity
  8
0
100
AcDbLine
 10
58.94114283812779
 20
8.853171830296183
 30
0.0
 11
55.98257336339769
 21
8.853171830296183
 31
0.0
  0
POLYLINE
  5
98
330
6C
100
AcDbEntity
  8
0
100
AcDb2dPolyline
 66
     1
 10
0.0
 20
0.0
 30
0.0
 70
     1
  0
VERTEX
  5
99
330
98
100
AcDbEntity
  8
0
100
AcDbVertex
100
AcDb2dVertex
 10
55.98257336339769
 20
7.965600987877166
 30
0.0
 42
0.1828233251715505
  0
VERTEX
  5
9A
330
98
100
AcDbEntity
  8
0
100
AcDbVertex
100
AcDb2dVertex
 10
56.07024179482088
 20
7.733852195949339
 30
0.0
 42
0.1025674015815553
  0
VERTEX
  5
9B
330
98
100
AcDbEntity
  8
0
100
AcDbVertex
100
AcDb2dVertex
 10
56.41584583166613
 20
7.474881281172429
 30
0.0
 42
0.0617587255956112
 70
     2
 50
334.8671392208401
  0
VERTEX
  5
9C
330
98
100
AcDbEntity
  8
0
100
AcDbVertex
100
AcDb2dVertex
 10
56.86199000539643
 20
7.329362120502302
 30
0.0
 42
0.0480192641995976
 50
334.8671392208401
  0
VERTEX
  5
9D
330
98
100
AcDbEntity
  8
0
100
AcDbVertex
100
AcDb2dVertex
 10
57.46185810076271
 20
7.271618523331497
 30
0.0
 42
0.0480192641995965
  0
VERTEX
  5
9E
330
98
100
AcDbEntity
  8
0
100
AcDbVertex
100
AcDb2dVertex
 10
58.06172619612902
 20
7.329362120502302
 30
0.0
 42
0.0617587255956115
  0
VERTEX
  5
9F
330
98
100
AcDbEntity
  8
0
100
AcDbVertex
100
AcDb2dVertex
 10
58.50787036985932
 20
7.474881281172429
 30
0.0
 42
0.1025674015815654
 70
     2
 50
25.13286077915987
  0
VERTEX
  5
A0
330
98
100
AcDbEntity
  8
0
100
AcDbVertex
100
AcDb2dVertex
 10
58.85347440670446
 20
7.733852195949339
 30
0.0
 42
0.18282332517157
 50
25.13286077915987
  0
VERTEX
  5
A1
330
98
100
AcDbEntity
  8
0
100
AcDbVertex
100
AcDb2dVertex
 10
58.94114283812779
 20
7.965600987877166
 30
0.0
 42
0.1828233251715568
  0
VERTEX
  5
A2
330
98
100
AcDbEntity
  8
0
100
AcDbVertex
100
AcDb2dVertex
 10
58.85347440670446
 20
8.197349779805009
 30
0.0
 42
0.102567401581563
  0
VERTEX
  5
A3
330
98
100
AcDbEntity
  8
0
100
AcDbVertex
100
AcDb2dVertex
 10
58.50787036985932
 20
8.456320694581897
 30
0.0
 42
0.0617587255956141
 70
     2
 50
154.86713922084
  0
VERTEX
  5
A4
330
98
100
AcDbEntity
  8
0
100
AcDbVertex
100
AcDb2dVertex
 10
58.06172619612902
 20
8.601839855252045
 30
0.0
 42
0.0480192641995983
 50
154.86713922084
  0
VERTEX
  5
A5
330
98
100
AcDbEntity
  8
0
100
AcDbVertex
100
AcDb2dVertex
 10
57.46185810076271
 20
8.65958345242285
 30
0.0
 42
0.0480192641995976
  0
VERTEX
  5
A6
330
98
100
AcDbEntity
  8
0
100
AcDbVertex
100
AcDb2dVertex
 10
56.86199000539643
 20
8.601839855252045
 30
0.0
 42
0.0617587255956112
  0
VERTEX
  5
A7
330
98
100
AcDbEntity
  8
0
100
AcDbVertex
100
AcDb2dVertex
 10
56.41584583166613
 20
8.456320694581897
 30
0.0
 42
0.1025674015815593
 70
     2
 50
205.1328607791599
  0
VERTEX
  5
A8
330
98
100
AcDbEntity
  8
0
100
AcDbVertex
100
AcDb2dVertex
 10
56.07024179482088
 20
8.197349779805009
 30
0.0
 42
0.1828233251715536
 50
205.1328607791599
  0
SEQEND
  5
A9
330
98
100
AcDbEntity
  8
0
  0
ARC
  5
AA
330
6C
100
AcDbEntity
  8
0
100
AcDbCircle
 10
55.98257336339769
 20
8.557314882823177
 30
0.0
 40
0.2958569474730044
100
AcDbArc
 50
90.0
 51
180.0
  0
LINE
  5
AB
330
6C
100
AcDbEntity
  8
0
100
AcDbLine
 10
55.68671641592469
 20
8.557314882823177
 30
0.0
 11
55.68671641592469
 21
7.373887092931148
 31
0.0
  0
ARC
  5
AC
330
6C
100
AcDbEntity
  8
0
100
AcDbCircle
 10
55.98257336339769
 20
7.373887092931148
 30
0.0
 40
0.2958569474730044
100
AcDbArc
 50
180.0
 51
270.0
  0
POLYLINE
  5
AD
330
6C
100
AcDbEntity
  8
0
100
AcDb2dPolyline
 66
     1
 10
0.0
 20
0.0
 30
0.0
  0
VERTEX
  5
AE
330
AD
100
AcDbEntity
  8
0
100
AcDbVertex
100
AcDb2dVertex
 10
57.15398137597048
 20
7.660810511311865
 30
0.0
 42
0.0570538596573184
  0
VERTEX
  5
AF
330
AD
100
AcDbEntity
  8
0
100
AcDbVertex
100
AcDb2dVertex
 10
57.22042891300168
 20
7.474881281172329
 30
0.0
 42
0.1038195938885091
 70
     2
 50
296.1967246921072
  0
VERTEX
  5
B0
330
AD
100
AcDbEntity
  8
0
100
AcDbVertex
100
AcDb2dVertex
 10
57.34661039345875
 20
7.313672939734679
 30
0.0
 42
0.1767522344444316
 50
296.1967246921072
  0
VERTEX
  5
B1
330
AD
100
AcDbEntity
  8
0
100
AcDbVertex
100
AcDb2dVertex
 10
57.46185810076271
 20
7.271618523331497
 30
0.0
 42
0.1767522344444399
  0
VERTEX
  5
B2
330
AD
100
AcDbEntity
  8
0
100
AcDbVertex
100
AcDb2dVertex
 10
57.57710580806674
 20
7.313672939734679
 30
0.0
 42
0.1038195938885123
  0
VERTEX
  5
B3
330
AD
100
AcDbEntity
  8
0
100
AcDbVertex
100
AcDb2dVertex
 10
57.70328728852371
 20
7.474881281172329
 30
0.0
 42
0.0570538596573163
 70
     2
 50
63.8032753078928
  0
VERTEX
  5
B4
330
AD
100
AcDbEntity
  8
0
100
AcDbVertex
100
AcDb2dVertex
 10
57.7697348255549
 20
7.660810511311865
 30
0.0
 42
0.0503013836282066
 50
63.8032753078928
  0
SEQEND
  5
B5
330
AD
100
AcDbEntity
  8
0
  0
POLYLINE
  5
B6
330
6C
100
AcDbEntity
  8
0
100
AcDb2dPolyline
 66
     1
 10
0.0
 20
0.0
 30
0.0
  0
VERTEX
  5
B7
330
B6
100
AcDbEntity
  8
0
100
AcDbVertex
100
AcDb2dVertex
 10
57.46185810076271
 20
8.65958345242285
 30
0.0
 42
0.1767522344444361
  0
VERTEX
  5
B8
330
B6
100
AcDbEntity
  8
0
100
AcDbVertex
100
AcDb2dVertex
 10
57.34661039345875
 20
8.617529036019632
 30
0.0
 42
0.1038195938884991
  0
VERTEX
  5
B9
330
B6
100
AcDbEntity
  8
0
100
AcDbVertex
100
AcDb2dVertex
 10
57.22042891300168
 20
8.456320694581997
 30
0.0
 42
0.0567223889277798
 70
     2
 50
243.8032753078928
  0
VERTEX
  5
BA
330
B6
100
AcDbEntity
  8
0
100
AcDbVertex
100
AcDb2dVertex
 10
57.15424279960533
 20
8.271508420206743
 30
0.0
 42
0.0503013836282199
 50
243.8032753078928
  0
SEQEND
  5
BB
330
B6
100
AcDbEntity
  8
0
  0
POLYLINE
  5
BC
330
6C
100
AcDbEntity
  8
0
100
AcDb2dPolyline
 66
     1
 10
0.0
 20
0.0
 30
0.0
  0
VERTEX
  5
BD
330
BC
100
AcDbEntity
  8
0
100
AcDbVertex
100
AcDb2dVertex
 10
57.46185810076271
 20
8.65958345242285
 30
0.0
 42
0.0895889244631779
  0
VERTEX
  5
BE
330
BC
100
AcDbEntity
  8
0
100
AcDbVertex
100
AcDb2dVertex
 10
57.16370726893102
 20
8.605729183915308
 30
0.0
 42
0.094347402511486
  0
VERTEX
  5
BF
330
BC
100
AcDbEntity
  8
0
100
AcDbVertex
100
AcDb2dVertex
 10
56.91755855097756
 20
8.456320694581975
 30
0.0
 42
0.0687403046083514
 70
     2
 50
222.0366145404387
  0
VERTEX
  5
C0
330
BC
100
AcDbEntity
  8
0
100
AcDbVertex
100
AcDb2dVertex
 10
56.79357766211348
 20
8.309081868781902
 30
0.0
 42
0.1080871028423927
 50
222.0366145404387
  0
SEQEND
  5
C1
330
BC
100
AcDbEntity
  8
0
  0
POLYLINE
  5
C2
330
6C
100
AcDbEntity
  8
0
100
AcDb2dPolyline
 66
     1
 10
0.0
 20
0.0
 30
0.0
  0
VERTEX
  5
C3
330
C2
100
AcDbEntity
  8
0
100
AcDbVertex
100
AcDb2dVertex
 10
57.46185810076271
 20
8.65958345242285
 30
0.0
 42
0.0631748622128155
  0
VERTEX
  5
C4
330
C2
100
AcDbEntity
  8
0
100
AcDbVertex
100
AcDb2dVertex
 10
57.01626172784209
 20
8.603056872344815
 30
0.0
 42
0.0762621633615699
  0
VERTEX
  5
C5
330
C2
100
AcDbEntity
  8
0
100
AcDbVertex
100
AcDb2dVertex
 10
56.67359527106743
 20
8.456320694581975
 30
0.0
 42
0.0512131062417906
 70
     2
 50
211.9036308145036
  0
VERTEX
  5
C6
330
C2
100
AcDbEntity
  8
0
100
AcDbVertex
100
AcDb2dVertex
 10
56.53967725336078
 20
8.352566350290047
 30
0.0
 42
0.1478388992712295
 50
211.9036308145036
  0
SEQEND
  5
C7
330
C2
100
AcDbEntity
  8
0
  0
POLYLINE
  5
C8
330
6C
100
AcDbEntity
  8
0
100
AcDb2dPolyline
 66
     1
 10
0.0
 20
0.0
 30
0.0
  0
VERTEX
  5
C9
330
C8
100
AcDbEntity
  8
0
100
AcDbVertex
100
AcDb2dVertex
 10
57.76947340192013
 20
8.271508420206743
 30
0.0
 42
0.0567223889277601
  0
VERTEX
  5
CA
330
C8
100
AcDbEntity
  8
0
100
AcDbVertex
100
AcDb2dVertex
 10
57.70328728852371
 20
8.456320694581997
 30
0.0
 42
0.1038195938884991
 70
     2
 50
116.1967246921072
  0
VERTEX
  5
CB
330
C8
100
AcDbEntity
  8
0
100
AcDbVertex
100
AcDb2dVertex
 10
57.57710580806674
 20
8.617529036019632
 30
0.0
 42
0.1767522344444361
 50
116.1967246921072
  0
VERTEX
  5
CC
330
C8
100
AcDbEntity
  8
0
100
AcDbVertex
100
AcDb2dVertex
 10
57.46185810076271
 20
8.65958345242285
 30
0.0
 42
0.1767522344444361
  0
SEQEND
  5
CD
330
C8
100
AcDbEntity
  8
0
  0
ARC
  5
CE
330
6C
100
AcDbEntity
  8
0
100
AcDbCircle
 10
58.94114283812779
 20
8.557314882823177
 30
0.0
 40
0.2958569474730044
100
AcDbArc
 50
0.0
 51
90.0
  0
CIRCLE
  5
CF
330
6C
100
AcDbEntity
  8
0
100
AcDbCircle
 10
59.5160534017012
 20
8.700705580877169
 30
0.0
 40
0.1539693820188075
  0
TEXT
  5
D0
330
6C
100
AcDbEntity
  8
0
100
AcDbText
 10
59.41676360607266
 20
8.59778273153762
 30
0.0
 40
0.1807272542209781
  1
R
  7
SANSSERIF
100
AcDbText
  0
LINE
  5
D1
330
6C
100
AcDbEntity
  8
0
100
AcDbLine
 10
59.23699978560072
 20
7.373887092931148
 30
0.0
 11
59.23699978560072
 21
8.557314882823177
 31
0.0
  0
ARC
  5
D2
330
6C
100
AcDbEntity
  8
0
100
AcDbCircle
 10
58.94114283812779
 20
7.373887092931148
 30
0.0
 40
0.2958569474730044
100
AcDbArc
 50
270.0
 51
0.0
  0
LINE
  5
D3
330
6C
100
AcDbEntity
  8
0
100
AcDbLine
 10
55.98257336339769
 20
7.078030145458143
 30
0.0
 11
58.94114283812779
 21
7.078030145458143
 31
0.0
  0
LINE
  5
17A
330
6C
100
AcDbEntity
  8
Visible (ANSI)
100
AcDbLine
 10
31.3600739280996
 20
13.93781838319145
 30
0.0
 11
31.3600739280996
 21
32.70181838319146
 31
0.0
  0
LINE
  5
17B
330
6C
100
AcDbEntity
  8
Visible (ANSI)
100
AcDbLine
 10
31.3600739280996
 20
13.93781838319145
 30
0.0
 11
31.25072392809961
 21
13.93781838319145
 31
0.0
  0
LINE
  5
17C
330
6C
100
AcDbEntity
  8
Visible (ANSI)
100
AcDbLine
 10
31.3600739280996
 20
32.70181838319146
 30
0.0
 11
31.25072392809961
 21
32.70181838319146
 31
0.0
  0
LINE
  5
17D
330
6C
100
AcDbEntity
  8
Visible (ANSI)
100
AcDbLine
 10
31.25052392809961
 20
32.70201838319146
 30
0.0
 11
31.3600739280996
 21
32.70201838319146
 31
0.0
  0
LINE
  5
17E
330
6C
100
AcDbEntity
  8
Visible (ANSI)
100
AcDbLine
 10
31.25052392809961
 20
32.70181838319146
 30
0.0
 11
31.25052392809961
 21
32.70201838319146
 31
0.0
  0
LINE
  5
17F
330
6C
100
AcDbEntity
  8
Visible (ANSI)
100
AcDbLine
 10
31.25052392809961
 20
13.93761838319145
 30
0.0
 11
31.25052392809961
 21
13.93781838319145
 31
0.0
  0
LINE
  5
180
330
6C
100
AcDbEntity
  8
Visible (ANSI)
100
AcDbLine
 10
31.36007392809961
 20
13.93761838319145
 30
0.0
 11
31.25052392809961
 21
13.93761838319145
 31
0.0
  0
LINE
  5
181
330
6C
100
AcDbEntity
  8
Hidden (ANSI)
 48
1.080701231956481
100
AcDbLine
 10
31.2663239280996
 20
32.70181838319146
 30
0.0
 11
31.2663239280996
 21
13.93781838319145
 31
0.0
  0
LINE
  5
182
330
6C
100
AcDbEntity
  8
Visible (ANSI)
100
AcDbLine
 10
31.25052392809961
 20
13.93781838319145
 30
0.0
 11
31.25072392809961
 21
13.93781838319145
 31
0.0
  0
LINE
  5
183
330
6C
100
AcDbEntity
  8
Visible (ANSI)
100
AcDbLine
 10
31.25072392809961
 20
32.70181838319146
 30
0.0
 11
31.25052392809961
 21
32.70181838319146
 31
0.0
  0
LINE
  5
184
330
6C
100
AcDbEntity
  8
Visible (ANSI)
100
AcDbLine
 10
31.3600739280996
 20
33.91981838319146
 30
0.0
 11
31.3600739280996
 21
32.70201838319146
 31
0.0
  0
LINE
  5
185
330
6C
100
AcDbEntity
  8
Visible (ANSI)
100
AcDbLine
 10
9.660073928099601
 20
34.41981838319146
 30
0.0
 11
30.8600739280996
 21
34.41981838319146
 31
0.0
  0
LINE
  5
186
330
6C
100
AcDbEntity
  8
Visible (ANSI)
100
AcDbLine
 10
9.160073928099603
 20
32.70201838319146
 30
0.0
 11
9.160073928099601
 21
33.91981838319146
 31
0.0
  0
LINE
  5
187
330
6C
100
AcDbEntity
  8
Visible (ANSI)
100
AcDbLine
 10
9.160073928099608
 20
12.71981838319146
 30
0.0
 11
9.160073928099608
 21
13.93761838319146
 31
0.0
  0
LINE
  5
188
330
6C
100
AcDbEntity
  8
Visible (ANSI)
100
AcDbLine
 10
30.8600739280996
 20
12.21981838319146
 30
0.0
 11
9.660073928099611
 21
12.21981838319146
 31
0.0
  0
LINE
  5
189
330
6C
100
AcDbEntity
  8
Visible (ANSI)
100
AcDbLine
 10
31.36007392809961
 20
13.93761838319145
 30
0.0
 11
31.36007392809961
 21
12.71981838319146
 31
0.0
  0
LINE
  5
18A
330
6C
100
AcDbEntity
  8
Visible (ANSI)
100
AcDbLine
 10
30.8600739280996
 20
34.41981838319146
 30
0.0
 11
31.3600739280996
 21
33.91981838319146
 31
0.0
  0
LINE
  5
18B
330
6C
100
AcDbEntity
  8
Visible (ANSI)
100
AcDbLine
 10
9.160073928099601
 20
33.91981838319146
 30
0.0
 11
9.660073928099601
 21
34.41981838319146
 31
0.0
  0
LINE
  5
18C
330
6C
100
AcDbEntity
  8
Visible (ANSI)
100
AcDbLine
 10
9.160073928099603
 20
32.70201838319146
 30
0.0
 11
9.269623928099596
 21
32.70201838319146
 31
0.0
  0
LINE
  5
18D
330
6C
100
AcDbEntity
  8
Visible (ANSI)
100
AcDbLine
 10
9.269623928099596
 20
32.70201838319146
 30
0.0
 11
9.269623928099596
 21
32.70181838319146
 31
0.0
  0
LINE
  5
18E
330
6C
100
AcDbEntity
  8
Visible (ANSI)
100
AcDbLine
 10
9.269623928099601
 20
13.93781838319146
 30
0.0
 11
9.269623928099601
 21
13.93761838319146
 31
0.0
  0
LINE
  5
18F
330
6C
100
AcDbEntity
  8
Visible (ANSI)
100
AcDbLine
 10
9.269623928099601
 20
13.93761838319146
 30
0.0
 11
9.160073928099608
 21
13.93761838319146
 31
0.0
  0
LINE
  5
190
330
6C
100
AcDbEntity
  8
Visible (ANSI)
100
AcDbLine
 10
9.160073928099608
 20
32.70181838319146
 30
0.0
 11
9.160073928099613
 21
13.93781838319146
 31
0.0
  0
LINE
  5
191
330
6C
100
AcDbEntity
  8
Visible (ANSI)
100
AcDbLine
 10
9.160073928099608
 20
32.70181838319146
 30
0.0
 11
9.269423928099596
 21
32.70181838319146
 31
0.0
  0
LINE
  5
192
330
6C
100
AcDbEntity
  8
Visible (ANSI)
100
AcDbLine
 10
9.160073928099613
 20
13.93781838319146
 30
0.0
 11
9.269423928099602
 21
13.93781838319146
 31
0.0
  0
LINE
  5
193
330
6C
100
AcDbEntity
  8
Hidden (ANSI)
 48
1.080701231956481
100
AcDbLine
 10
9.253823928099613
 20
13.93781838319146
 30
0.0
 11
9.253823928099608
 21
32.70181838319146
 31
0.0
  0
LINE
  5
194
330
6C
100
AcDbEntity
  8
Visible (ANSI)
100
AcDbLine
 10
9.269623928099596
 20
32.70181838319146
 30
0.0
 11
9.269423928099596
 21
32.70181838319146
 31
0.0
  0
LINE
  5
195
330
6C
100
AcDbEntity
  8
Visible (ANSI)
100
AcDbLine
 10
9.269423928099602
 20
13.93781838319146
 30
0.0
 11
9.269623928099601
 21
13.93781838319146
 31
0.0
  0
LINE
  5
196
330
6C
100
AcDbEntity
  8
Visible (ANSI)
100
AcDbLine
 10
9.66007392809961
 20
12.21981838319146
 30
0.0
 11
9.160073928099608
 21
12.71981838319146
 31
0.0
  0
LINE
  5
197
330
6C
100
AcDbEntity
  8
Visible (ANSI)
100
AcDbLine
 10
31.36007392809961
 20
12.71981838319146
 30
0.0
 11
30.8600739280996
 21
12.21981838319146
 31
0.0
  0
CIRCLE
  5
198
330
6C
100
AcDbEntity
  8
Visible (ANSI)
100
AcDbCircle
 10
30.84007392809961
 20
33.89981838319147
 30
0.0
 40
0.25
  0
CIRCLE
  5
199
330
6C
100
AcDbEntity
  8
Visible (ANSI)
100
AcDbCircle
 10
9.680073928099607
 20
33.89981838319146
 30
0.0
 40
0.25
  0
CIRCLE
  5
19A
330
6C
100
AcDbEntity
  8
Visible (ANSI)
100
AcDbCircle
 10
9.680073928099607
 20
12.73981838319146
 30
0.0
 40
0.25
  0
CIRCLE
  5
19B
330
6C
100
AcDbEntity
  8
Visible (ANSI)
100
AcDbCircle
 10
30.84007392809961
 20
12.73981838319146
 30
0.0
 40
0.25
  0
CIRCLE
  5
19C
330
6C
100
AcDbEntity
  8
Visible (ANSI)
100
AcDbCircle
 10
30.84007392809961
 20
33.14981838319147
 30
0.0
 40
0.15625
  0
CIRCLE
  5
19D
330
6C
100
AcDbEntity
  8
Visible (ANSI)
100
AcDbCircle
 10
9.680073928099607
 20
33.14981838319146
 30
0.0
 40
0.15625
  0
CIRCLE
  5
19E
330
6C
100
AcDbEntity
  8
Visible (ANSI)
100
AcDbCircle
 10
9.680073928099607
 20
13.48981838319146
 30
0.0
 40
0.15625
  0
CIRCLE
  5
19F
330
6C
100
AcDbEntity
  8
Visible (ANSI)
100
AcDbCircle
 10
30.84007392809961
 20
13.48981838319146
 30
0.0
 40
0.15625
  0
LINE
  5
1A0
330
6C
100
AcDbEntity
  8
Visible (ANSI)
100
AcDbLine
 10
42.78540812948758
 20
13.93781838319145
 30
0.0
 11
43.45005812948757
 21
13.93781838319145
 31
0.0
  0
LINE
  5
1A1
330
6C
100
AcDbEntity
  8
Visible (ANSI)
100
AcDbLine
 10
43.45005812948757
 20
32.70181838319146
 30
0.0
 11
43.45005812948757
 21
13.93781838319145
 31
0.0
  0
LINE
  5
1A2
330
6C
100
AcDbEntity
  8
Visible (ANSI)
100
AcDbLine
 10
43.45005812948757
 20
32.70181838319146
 30
0.0
 11
42.78540812948757
 21
32.70181838319146
 31
0.0
  0
LINE
  5
1A3
330
6C
100
AcDbEntity
  8
Visible (ANSI)
100
AcDbLine
 10
42.78540812948758
 20
13.93781838319145
 30
0.0
 11
42.67605812948754
 21
13.93781838319145
 31
0.0
  0
LINE
  5
1A4
330
6C
100
AcDbEntity
  8
Visible (ANSI)
100
AcDbLine
 10
42.78540812948757
 20
32.70181838319146
 30
0.0
 11
42.67605812948754
 21
32.70181838319146
 31
0.0
  0
LINE
  5
1A5
330
6C
100
AcDbEntity
  8
Visible (ANSI)
100
AcDbLine
 10
42.67605812948754
 20
13.93781838319145
 30
0.0
 11
42.67605812948754
 21
32.70181838319146
 31
0.0
  0
LINE
  5
1A6
330
6C
100
AcDbEntity
  8
Visible (ANSI)
100
AcDbLine
 10
42.67605812948757
 20
32.70201838319146
 30
0.0
 11
42.76980812948757
 21
32.70201838319146
 31
0.0
  0
LINE
  5
1A7
330
6C
100
AcDbEntity
  8
Visible (ANSI)
100
AcDbLine
 10
42.76980812948754
 20
32.70201838319146
 30
0.0
 11
42.76980812948754
 21
32.70181838319146
 31
0.0
  0
LINE
  5
1A8
330
6C
100
AcDbEntity
  8
Visible (ANSI)
100
AcDbLine
 10
42.67605812948754
 20
32.70181838319146
 30
0.0
 11
42.67605812948754
 21
32.70201838319146
 31
0.0
  0
LINE
  5
1A9
330
6C
100
AcDbEntity
  8
Visible (ANSI)
100
AcDbLine
 10
42.76980812948754
 20
13.93781838319145
 30
0.0
 11
42.76980812948754
 21
13.93761838319145
 31
0.0
  0
LINE
  5
1AA
330
6C
100
AcDbEntity
  8
Visible (ANSI)
100
AcDbLine
 10
42.67605812948754
 20
13.93761838319145
 30
0.0
 11
42.67605812948754
 21
13.93781838319145
 31
0.0
  0
LINE
  5
1AB
330
6C
100
AcDbEntity
  8
Visible (ANSI)
100
AcDbLine
 10
42.76980812948757
 20
13.93761838319145
 30
0.0
 11
42.67605812948757
 21
13.93761838319145
 31
0.0
  0
LINE
  5
1AC
330
6C
100
AcDbEntity
  8
Hidden (ANSI)
 48
1.080701231956481
100
AcDbLine
 10
42.76980812948754
 20
32.70181838319146
 30
0.0
 11
42.76980812948754
 21
13.93781838319145
 31
0.0
  0
LINE
  5
1AD
330
6C
100
AcDbEntity
  8
Visible (ANSI)
100
AcDbLine
 10
42.76980812948757
 20
12.71981838319146
 30
0.0
 11
42.76980812948757
 21
13.93761838319145
 31
0.0
  0
LINE
  5
1AE
330
6C
100
AcDbEntity
  8
Visible (ANSI)
100
AcDbLine
 10
42.76980812948757
 20
32.70201838319146
 30
0.0
 11
42.76980812948757
 21
33.91981838319146
 31
0.0
  0
LINE
  5
1AF
330
6C
100
AcDbEntity
  8
Visible (ANSI)
100
AcDbLine
 10
42.67605812948757
 20
33.91981838319146
 30
0.0
 11
42.67605812948757
 21
32.70201838319146
 31
0.0
  0
LINE
  5
1B0
330
6C
100
AcDbEntity
  8
Visible (ANSI)
100
AcDbLine
 10
42.67605812948757
 20
13.93761838319145
 30
0.0
 11
42.67605812948757
 21
12.71981838319146
 31
0.0
  0
LINE
  5
1B1
330
6C
100
AcDbEntity
  8
Visible (ANSI)
100
AcDbLine
 10
42.76980812948742
 20
12.21981838319146
 30
0.0
 11
42.76980812948757
 21
12.71981838319146
 31
0.0
  0
LINE
  5
1B2
330
6C
100
AcDbEntity
  8
Visible (ANSI)
100
AcDbLine
 10
42.67605812948757
 20
12.71981838319146
 30
0.0
 11
42.67605812948742
 21
12.21981838319146
 31
0.0
  0
LINE
  5
1B3
330
6C
100
AcDbEntity
  8
Visible (ANSI)
100
AcDbLine
 10
42.67605812948742
 20
12.21981838319146
 30
0.0
 11
42.76980812948742
 21
12.21981838319146
 31
0.0
  0
LINE
  5
1B4
330
6C
100
AcDbEntity
  8
Visible (ANSI)
100
AcDbLine
 10
42.76980812948757
 20
12.71981838319146
 30
0.0
 11
42.67605812948757
 21
12.71981838319146
 31
0.0
  0
LINE
  5
1B5
330
6C
100
AcDbEntity
  8
Visible (ANSI)
100
AcDbLine
 10
42.76980812948757
 20
33.91981838319146
 30
0.0
 11
42.76980812948742
 21
34.41981838319146
 31
0.0
  0
LINE
  5
1B6
330
6C
100
AcDbEntity
  8
Visible (ANSI)
100
AcDbLine
 10
42.67605812948742
 20
34.41981838319146
 30
0.0
 11
42.67605812948757
 21
33.91981838319146
 31
0.0
  0
LINE
  5
1B7
330
6C
100
AcDbEntity
  8
Visible (ANSI)
100
AcDbLine
 10
42.67605812948757
 20
33.91981838319146
 30
0.0
 11
42.76980812948757
 21
33.91981838319146
 31
0.0
  0
LINE
  5
1B8
330
6C
100
AcDbEntity
  8
Visible (ANSI)
100
AcDbLine
 10
42.76980812948742
 20
34.41981838319146
 30
0.0
 11
42.67605812948742
 21
34.41981838319146
 31
0.0
  0
LINE
  5
1B9
330
6C
100
AcDbEntity
  8
Hidden (ANSI)
 48
0.0445413254201412
100
AcDbLine
 10
42.67605812948742
 20
34.14981838319146
 30
0.0
 11
42.76980812948742
 21
34.14981838319146
 31
0.0
  0
LINE
  5
1BA
330
6C
100
AcDbEntity
  8
Hidden (ANSI)
 48
0.0445413254201412
100
AcDbLine
 10
42.67605812948742
 20
33.64981838319147
 30
0.0
 11
42.76980812948742
 21
33.64981838319147
 31
0.0
  0
LINE
  5
1BB
330
6C
100
AcDbEntity
  8
Hidden (ANSI)
 48
0.0445413254201412
100
AcDbLine
 10
42.67605812948742
 20
12.98981838319146
 30
0.0
 11
42.76980812948742
 21
12.98981838319146
 31
0.0
  0
LINE
  5
1BC
330
6C
100
AcDbEntity
  8
Hidden (ANSI)
 48
0.0445413254201412
100
AcDbLine
 10
42.67605812948742
 20
12.48981838319146
 30
0.0
 11
42.76980812948742
 21
12.48981838319146
 31
0.0
  0
LINE
  5
1BD
330
6C
100
AcDbEntity
  8
Hidden (ANSI)
 48
0.0445413254201412
100
AcDbLine
 10
42.67605812948742
 20
33.30606838319147
 30
0.0
 11
42.76980812948742
 21
33.30606838319147
 31
0.0
  0
LINE
  5
1BE
330
6C
100
AcDbEntity
  8
Hidden (ANSI)
 48
0.0445413254201412
100
AcDbLine
 10
42.67605812948742
 20
32.99356838319147
 30
0.0
 11
42.76980812948742
 21
32.99356838319147
 31
0.0
  0
LINE
  5
1BF
330
6C
100
AcDbEntity
  8
Hidden (ANSI)
 48
0.0445413254201412
100
AcDbLine
 10
42.67605812948742
 20
13.64606838319146
 30
0.0
 11
42.76980812948742
 21
13.64606838319146
 31
0.0
  0
LINE
  5
1C0
330
6C
100
AcDbEntity
  8
Hidden (ANSI)
 48
0.0445413254201412
100
AcDbLine
 10
42.67605812948742
 20
13.33356838319146
 30
0.0
 11
42.76980812948742
 21
13.33356838319146
 31
0.0
  0
LINE
  5
1C1
330
6C
100
AcDbEntity
  8
Visible Narrow (ANSI)
100
AcDbLine
 10
65.72987467963058
 20
21.69530025634143
 30
0.0
 11
65.72987467963058
 21
33.20064094425055
 31
0.0
  0
ELLIPSE
  5
1C2
330
6C
100
AcDbEntity
  8
Visible (ANSI)
100
AcDbEllipse
 10
65.67188308473849
 20
21.72869539481882
 30
0.0
 11
0.0820125000000039
 21
0.0000000000000048
 31
0.0
210
0.0
220
0.0
230
1.0
 40
0.575861700985307
 41
3.926990816987284
 42
5.497787143782208
  0
LINE
  5
1C3
330
6C
100
AcDbEntity
  8
Visible (ANSI)
100
AcDbLine
 10
65.61378542382929
 20
33.2007020236076
 30
0.0
 11
65.61389190084323
 21
33.20076333964197
 31
0.0
  0
ELLIPSE
  5
1C4
330
6C
100
AcDbEntity
  8
Visible (ANSI)
100
AcDbEllipse
 10
65.67188308473856
 20
33.23403608272796
 30
0.0
 11
0.0820125000000627
 21
0.0000000000000048
 31
0.0
210
0.0
220
0.0
230
1.0
 40
0.5758617009853071
 41
3.926990816987275
 42
3.987598387465405
  0
ELLIPSE
  5
1C5
330
6C
100
AcDbEntity
  8
Visible (ANSI)
100
AcDbEllipse
 10
65.67188308473841
 20
33.234036082728
 30
0.0
 11
0.0820125000001595
 21
-0.0000000000000001
 31
0.0
210
0.0
220
0.0
230
1.0
 40
0.5758617009853069
 41
5.363700662383251
 42
5.497787143782105
  0
LINE
  5
1C6
330
6C
100
AcDbEntity
  8
Visible Narrow (ANSI)
100
AcDbLine
 10
65.61389148984645
 20
21.69530025634142
 30
0.0
 11
65.61389148984646
 21
33.20064094425053
 31
0.0
  0
LINE
  5
1C7
330
6C
100
AcDbEntity
  8
Visible (ANSI)
100
AcDbLine
 10
65.67188308473854
 20
33.16736843784187
 30
0.0
 11
65.7216015302907
 21
33.1959993864679
 31
0.0
  0
LINE
  5
1C8
330
6C
100
AcDbEntity
  8
Visible (ANSI)
100
AcDbLine
 10
65.61378542382929
 20
33.20082465567632
 30
0.0
 11
65.67188308473854
 21
33.16736843784187
 31
0.0
  0
LINE
  5
1C9
330
6C
100
AcDbEntity
  8
Visible (ANSI)
100
AcDbLine
 10
65.61378542382929
 20
33.2007020236076
 30
0.0
 11
65.61378542382929
 21
33.20082465567632
 31
0.0
  0
LINE
  5
1CA
330
6C
100
AcDbEntity
  8
Visible (ANSI)
100
AcDbLine
 10
65.61378542382929
 20
21.69523870362976
 30
0.0
 11
65.61378542382929
 21
21.69536133569849
 31
0.0
  0
LINE
  5
1CB
330
6C
100
AcDbEntity
  8
Visible (ANSI)
100
AcDbLine
 10
65.61378542382929
 20
21.69523870362976
 30
0.0
 11
65.61389190084466
 21
21.69530001966496
 31
0.0
  0
LINE
  5
1CC
330
6C
100
AcDbEntity
  8
Visible (ANSI)
100
AcDbLine
 10
65.72088644314755
 20
21.69082522571993
 30
0.0
 11
65.72160153029068
 21
21.69041343442133
 31
0.0
  0
LINE
  5
1CD
330
6C
100
AcDbEntity
  8
Visible (ANSI)
100
AcDbLine
 10
65.67188308473852
 20
21.6617824857953
 30
0.0
 11
65.61378542382929
 21
21.69523870362976
 31
0.0
  0
LINE
  5
1CE
330
6C
100
AcDbEntity
  8
Visible (ANSI)
100
AcDbLine
 10
65.72160153029068
 20
21.69041343442133
 30
0.0
 11
65.67188308473852
 21
21.6617824857953
 31
0.0
  0
LINE
  5
1CF
330
6C
100
AcDbEntity
  8
Visible (ANSI)
100
AcDbLine
 10
65.72987467963058
 20
21.69530025634143
 30
0.0
 11
66.08235857121724
 21
21.89828222972051
 31
0.0
  0
LINE
  5
1D0
330
6C
100
AcDbEntity
  8
Visible (ANSI)
100
AcDbLine
 10
66.08235857121726
 20
33.40362291762963
 30
0.0
 11
66.08235857121724
 21
21.89828222972051
 31
0.0
  0
LINE
  5
1D1
330
6C
100
AcDbEntity
  8
Visible (ANSI)
100
AcDbLine
 10
66.08235857121726
 20
33.40362291762963
 30
0.0
 11
65.72987467963058
 21
33.20064094425055
 31
0.0
  0
LINE
  5
1D2
330
6C
100
AcDbEntity
  8
Visible (ANSI)
100
AcDbLine
 10
65.61378542382929
 20
21.69536133569849
 30
0.0
 11
65.61389148984645
 21
21.69530025634142
 31
0.0
  0
LINE
  5
1D3
330
6C
100
AcDbEntity
  8
Visible (ANSI)
100
AcDbLine
 10
66.03264012566508
 20
33.43225386625564
 30
0.0
 11
66.08235857121726
 21
33.40362291762963
 31
0.0
  0
LINE
  5
1D4
330
6C
100
AcDbEntity
  8
Visible (ANSI)
100
AcDbLine
 10
65.7216015302907
 20
33.25313865165123
 30
0.0
 11
66.03264012566508
 21
33.43225386625564
 31
0.0
  0
LINE
  5
1D5
330
6C
100
AcDbEntity
  8
Visible (ANSI)
100
AcDbLine
 10
65.61389148984646
 20
33.20064094425053
 30
0.0
 11
65.61378542382929
 21
33.2007020236076
 31
0.0
  0
ELLIPSE
  5
1D6
330
6C
100
AcDbEntity
  8
Visible (ANSI)
100
AcDbEllipse
 10
65.4458298856279
 20
34.08924917444918
 30
0.0
 11
-0.0935685396720749
 21
0.1624843942772208
 31
0.0
210
0.0
220
0.0
230
1.0
 40
0.5780931159158121
 41
0.2678448778125038
 42
2.873747775777225
  0
ELLIPSE
  5
1D7
330
6C
100
AcDbEntity
  8
Visible (ANSI)
100
AcDbEllipse
 10
54.22404526819576
 20
40.55144515233252
 30
0.0
 11
-0.0935685396720754
 21
0.1624843942772216
 31
0.0
210
0.0
220
0.0
230
1.0
 40
0.5780931159158121
 41
0.2678448778125031
 42
2.873747775777225
  0
ELLIPSE
  5
1D8
330
6C
100
AcDbEntity
  8
Visible (ANSI)
100
AcDbEllipse
 10
54.22404526819575
 20
27.57697228108137
 30
0.0
 11
-0.0935685396720749
 21
0.1624843942772208
 31
0.0
210
0.0
220
0.0
230
1.0
 40
0.578093115915812
 41
0.2678448778125038
 42
2.873747775777225
  0
ELLIPSE
  5
1D9
330
6C
100
AcDbEntity
  8
Visible (ANSI)
100
AcDbEllipse
 10
65.4458298856279
 20
21.11477630319802
 30
0.0
 11
-0.0935685396720752
 21
0.1624843942772213
 31
0.0
210
0.0
220
0.0
230
1.0
 40
0.5780931159158122
 41
0.2678448778125029
 42
2.873747775777233
  0
ELLIPSE
  5
1DA
330
6C
100
AcDbEntity
  8
Visible (ANSI)
100
AcDbEllipse
 10
65.4458298856279
 20
33.62937891672525
 30
0.0
 11
0.0584803372950525
 21
-0.1015527464232587
 31
0.0
210
0.0
220
0.0
230
1.0
 40
0.5780931159158121
 41
3.578838513251685
 42
5.845939447517012
  0
ELLIPSE
  5
1DB
330
6C
100
AcDbEntity
  8
Visible (ANSI)
100
AcDbEllipse
 10
54.22404526819576
 20
40.0915748946086
 30
0.0
 11
0.058480337295053
 21
-0.1015527464232596
 31
0.0
210
0.0
220
0.0
230
1.0
 40
0.578093115915812
 41
3.578838513251628
 42
5.845939447517012
  0
ELLIPSE
  5
1DC
330
6C
100
AcDbEntity
  8
Visible (ANSI)
100
AcDbEllipse
 10
54.22404526819575
 20
28.0368425388053
 30
0.0
 11
0.0584803372950529
 21
-0.1015527464232595
 31
0.0
210
0.0
220
0.0
230
0.9999999999999998
 40
0.5780931159158121
 41
3.578838513251628
 42
5.845939447517012
  0
ELLIPSE
  5
1DD
330
6C
100
AcDbEntity
  8
Visible (ANSI)
100
AcDbEllipse
 10
65.4458298856279
 20
21.57464656092195
 30
0.0
 11
0.0584803372950538
 21
-0.1015527464232611
 31
0.0
210
0.0
220
0.0
230
1.0
 40
0.5780931159158121
 41
3.578838513251657
 42
5.845939447517012
  0
ELLIPSE
  5
1DE
330
6C
100
AcDbEntity
  8
Visible (ANSI)
100
AcDbEllipse
 10
65.39611144007574
 20
34.06061822582316
 30
0.0
 11
-0.0935685396720749
 21
0.1624843942772208
 31
0.0
210
0.0
220
0.0
230
1.0
 40
0.5780931159158122
 41
0.0
 42
6.283185307179586
  0
ELLIPSE
  5
1DF
330
6C
100
AcDbEntity
  8
Visible (ANSI)
100
AcDbEllipse
 10
54.17432682264359
 20
40.5228142037065
 30
0.0
 11
-0.0935685396720749
 21
0.1624843942772208
 31
0.0
210
0.0
220
0.0
230
1.0
 40
0.5780931159158122
 41
0.0
 42
6.283185307179586
  0
ELLIPSE
  5
1E0
330
6C
100
AcDbEntity
  8
Visible (ANSI)
100
AcDbEllipse
 10
54.17432682264358
 20
27.54834133245534
 30
0.0
 11
-0.0935685396720749
 21
0.1624843942772208
 31
0.0
210
0.0
220
0.0
230
1.0
 40
0.5780931159158122
 41
0.0
 42
6.283185307179586
  0
ELLIPSE
  5
1E1
330
6C
100
AcDbEntity
  8
Visible (ANSI)
100
AcDbEllipse
 10
65.39611144007572
 20
21.08614535457199
 30
0.0
 11
-0.0935685396720749
 21
0.1624843942772208
 31
0.0
210
0.0
220
0.0
230
1.0
 40
0.5780931159158122
 41
0.0
 42
6.283185307179586
  0
ELLIPSE
  5
1E2
330
6C
100
AcDbEntity
  8
Visible (ANSI)
100
AcDbEllipse
 10
65.39611144007574
 20
33.60074796809922
 30
0.0
 11
-0.0584803372950468
 21
0.101552746423263
 31
0.0
210
0.0
220
0.0
230
1.0
 40
0.5780931159158122
 41
0.0
 42
6.283185307179586
  0
ELLIPSE
  5
1E3
330
6C
100
AcDbEntity
  8
Visible (ANSI)
100
AcDbEllipse
 10
54.17432682264359
 20
40.06294394598257
 30
0.0
 11
-0.0584803372950468
 21
0.101552746423263
 31
0.0
210
0.0
220
0.0
230
1.0
 40
0.5780931159158122
 41
0.0
 42
6.283185307179586
  0
ELLIPSE
  5
1E4
330
6C
100
AcDbEntity
  8
Visible (ANSI)
100
AcDbEllipse
 10
54.17432682264358
 20
28.00821159017928
 30
0.0
 11
-0.0584803372950468
 21
0.101552746423263
 31
0.0
210
0.0
220
0.0
230
1.0
 40
0.5780931159158122
 41
0.0
 42
6.283185307179586
  0
ELLIPSE
  5
1E5
330
6C
100
AcDbEntity
  8
Visible (ANSI)
100
AcDbEllipse
 10
65.39611144007572
 20
21.54601561229593
 30
0.0
 11
-0.0584803372950468
 21
0.101552746423263
 31
0.0
210
0.0
220
0.0
230
1.0
 40
0.5780931159158122
 41
0.0
 42
6.283185307179586
  0
LINE
  5
1E6
330
6C
100
AcDbEntity
  8
Visible (ANSI)
100
AcDbLine
 10
65.72160153029068
 20
20.9437067679464
 30
0.0
 11
65.72160153029068
 21
21.69041343442133
 31
0.0
  0
LINE
  5
1E7
330
6C
100
AcDbEntity
  8
Visible (ANSI)
100
AcDbLine
 10
65.45643648734571
 20
34.40198461743089
 30
0.0
 11
54.21343866647797
 21
40.876396466728
 31
0.0
  0
LINE
  5
1E8
330
6C
100
AcDbEntity
  8
Visible (ANSI)
100
AcDbLine
 10
65.7216015302907
 20
33.1959993864679
 30
0.0
 11
65.7216015302907
 21
33.94270605294283
 31
0.0
  0
LINE
  5
1E9
330
6C
100
AcDbEntity
  8
Visible (ANSI)
100
AcDbLine
 10
65.67188308473854
 20
33.91407510431681
 30
0.0
 11
65.67188308473854
 21
33.16736843784187
 31
0.0
  0
LINE
  5
1EA
330
6C
100
AcDbEntity
  8
Visible (ANSI)
100
AcDbLine
 10
54.16372022092579
 20
40.84776551810198
 30
0.0
 11
65.40671804179353
 21
34.37335366880486
 31
0.0
  0
LINE
  5
1EB
330
6C
100
AcDbEntity
  8
Visible (ANSI)
100
AcDbLine
 10
53.8985551779808
 20
39.94717707248319
 30
0.0
 11
53.8985551779808
 21
40.69388373895812
 31
0.0
  0
LINE
  5
1EC
330
6C
100
AcDbEntity
  8
Visible (ANSI)
100
AcDbLine
 10
53.89855517798078
 20
27.69488445396169
 30
0.0
 11
53.89855517798078
 21
28.44159112043663
 31
0.0
  0
LINE
  5
1ED
330
6C
100
AcDbEntity
  8
Visible (ANSI)
100
AcDbLine
 10
65.40671804179353
 20
20.76119404017652
 30
0.0
 11
54.16372022092577
 21
27.23560588947363
 31
0.0
  0
LINE
  5
1EE
330
6C
100
AcDbEntity
  8
Visible (ANSI)
100
AcDbLine
 10
65.67188308473852
 20
21.6617824857953
 30
0.0
 11
65.67188308473852
 21
20.91507581932037
 31
0.0
  0
LINE
  5
1EF
330
6C
100
AcDbEntity
  8
Visible (ANSI)
100
AcDbLine
 10
65.4564364873457
 20
20.78982498880255
 30
0.0
 11
65.72160153029068
 21
20.9437067679464
 31
0.0
  0
LINE
  5
1F0
330
6C
100
AcDbEntity
  8
Visible (ANSI)
100
AcDbLine
 10
65.67188308473852
 20
20.91507581932037
 30
0.0
 11
65.40671804179353
 21
20.76119404017652
 31
0.0
  0
LINE
  5
1F1
330
6C
100
AcDbEntity
  8
Visible (ANSI)
100
AcDbLine
 10
65.40671804179353
 20
20.76119404017652
 30
0.0
 11
65.4564364873457
 21
20.78982498880255
 31
0.0
  0
LINE
  5
1F2
330
6C
100
AcDbEntity
  8
Visible (ANSI)
100
AcDbLine
 10
65.72160153029068
 20
20.9437067679464
 30
0.0
 11
65.67188308473852
 21
20.91507581932037
 31
0.0
  0
LINE
  5
1F3
330
6C
100
AcDbEntity
  8
Visible (ANSI)
100
AcDbLine
 10
65.7216015302907
 20
33.94270605294283
 30
0.0
 11
65.45643648734571
 21
34.40198461743089
 31
0.0
  0
LINE
  5
1F4
330
6C
100
AcDbEntity
  8
Visible (ANSI)
100
AcDbLine
 10
65.40671804179353
 20
34.37335366880486
 30
0.0
 11
65.67188308473854
 21
33.91407510431681
 31
0.0
  0
LINE
  5
1F5
330
6C
100
AcDbEntity
  8
Visible (ANSI)
100
AcDbLine
 10
65.67188308473854
 20
33.91407510431681
 30
0.0
 11
65.7216015302907
 21
33.94270605294283
 31
0.0
  0
LINE
  5
1F6
330
6C
100
AcDbEntity
  8
Visible (ANSI)
100
AcDbLine
 10
65.45643648734571
 20
34.40198461743089
 30
0.0
 11
65.40671804179353
 21
34.37335366880486
 31
0.0
  0
LINE
  5
1F7
330
6C
100
AcDbEntity
  8
Visible (ANSI)
100
AcDbLine
 10
53.8985551779808
 20
40.69388373895812
 30
0.0
 11
54.16372022092579
 21
40.84776551810198
 31
0.0
  0
LINE
  5
1F8
330
6C
100
AcDbEntity
  8
Visible (ANSI)
100
AcDbLine
 10
54.16372022092579
 20
40.84776551810198
 30
0.0
 11
54.21343866647797
 21
40.876396466728
 31
0.0
  0
LINE
  5
1F9
330
6C
100
AcDbEntity
  8
Visible (ANSI)
100
AcDbLine
 10
53.8985551779808
 20
39.94717707248319
 30
0.0
 11
53.95665283889004
 21
39.91372085464873
 31
0.0
  0
LINE
  5
1FA
330
6C
100
AcDbEntity
  8
Visible (ANSI)
100
AcDbLine
 10
53.95665283889004
 20
39.91372085464873
 30
0.0
 11
53.95665283889004
 21
39.91359822258001
 31
0.0
  0
LINE
  5
1FB
330
6C
100
AcDbEntity
  8
Visible Narrow (ANSI)
100
AcDbLine
 10
53.95654677287286
 20
39.91365930193708
 30
0.0
 11
53.95654677287285
 21
28.40831861402797
 31
0.0
  0
LINE
  5
1FC
330
6C
100
AcDbEntity
  8
Visible (ANSI)
100
AcDbLine
 10
53.95665283889004
 20
28.4082575346709
 30
0.0
 11
53.95665283889004
 21
28.40813490260218
 31
0.0
  0
LINE
  5
1FD
330
6C
100
AcDbEntity
  8
Visible (ANSI)
100
AcDbLine
 10
53.95665283889004
 20
28.40813490260218
 30
0.0
 11
53.89855517798078
 21
28.44159112043663
 31
0.0
  0
ELLIPSE
  5
1FE
330
6C
100
AcDbEntity
  8
Visible (ANSI)
100
AcDbEllipse
 10
54.01453836776493
 20
39.94705444041448
 30
0.0
 11
-0.0820125000000117
 21
0.0000000000000001
 31
0.0
210
0.0
220
0.0
230
1.0
 40
0.5758617009853071
 41
0.7247905929202068
 42
0.7853981633974297
  0
ELLIPSE
  5
1FF
330
6C
100
AcDbEntity
  8
Visible (ANSI)
100
AcDbEllipse
 10
54.01453836776491
 20
28.44171375250536
 30
0.0
 11
-0.0820124999999999
 21
0.000000000000002
 31
0.0
210
0.0
220
0.0
230
1.0
 40
0.5758617009852966
 41
0.0
 42
0.7853981633974776
  0
LINE
  5
200
330
6C
100
AcDbEntity
  8
Visible (ANSI)
100
AcDbLine
 10
53.89855517798078
 20
28.44159112043663
 30
0.0
 11
53.9325258677649
 21
28.46115353963936
 31
0.0
  0
LINE
  5
201
330
6C
100
AcDbEntity
  8
Visible (ANSI)
100
AcDbLine
 10
53.93252586776491
 20
39.92761465328046
 30
0.0
 11
53.9325258677649
 21
28.44171375250536
 31
0.0
  0
LINE
  5
202
330
6C
100
AcDbEntity
  8
Visible (ANSI)
100
AcDbLine
 10
53.95665283889004
 20
39.91359822258001
 30
0.0
 11
53.95654677287286
 21
39.91365930193708
 31
0.0
  0
LINE
  5
203
330
6C
100
AcDbEntity
  8
Visible (ANSI)
100
AcDbLine
 10
53.95654677287285
 20
28.40831861402797
 30
0.0
 11
53.95665283889004
 21
28.4082575346709
 31
0.0
  0
LINE
  5
204
330
6C
100
AcDbEntity
  8
Visible (ANSI)
100
AcDbLine
 10
54.14981372538057
 20
40.09174461490723
 30
0.0
 11
54.21143934373181
 21
40.12723244831525
 31
0.0
  0
LINE
  5
205
330
6C
100
AcDbEntity
  8
Visible (ANSI)
100
AcDbLine
 10
54.23890609174279
 20
40.08578759929335
 30
0.0
 11
54.17187314144722
 21
40.04718589051407
 31
0.0
  0
LINE
  5
206
330
6C
100
AcDbEntity
  8
Visible (ANSI)
100
AcDbLine
 10
54.16372022092577
 20
27.23560588947363
 30
0.0
 11
53.89855517798078
 21
27.69488445396169
 31
0.0
  0
DIMENSION
  5
207
330
6C
100
AcDbEntity
  8
Dimension (ANSI)
100
AcDbDimension
  2
*D4
 10
4.147461906720369
 20
34.41981838319146
 30
0.0
 11
4.147461906720363
 21
23.31981838319146
 31
0.0
 70
   160
  1
<>
 42
22.2
  3
Default (ANSI)
100
AcDbAlignedDimension
 13
9.660073928099611
 23
12.21981838319146
 33
0.0
 14
9.660073928099601
 24
34.41981838319146
 34
0.0
 50
90.0
100
AcDbRotatedDimension
1001
ACAD
1000
DSTYLE
1002
{
1070
   289
1070
     1
1070
   271
1070
     2
1070
   272
1070
     2
1070
    48
1040
0.0
1070
    47
1040
0.0
1002
}
  0
DIMENSION
  5
2F4
330
6C
100
AcDbEntity
  8
Dimension (ANSI)
100
AcDbDimension
  2
*D5
 10
31.3600739280996
 20
39.11666877689225
 30
0.0
 11
20.2600739280996
 21
39.11666877689225
 31
0.0
 70
   160
  1
<>
 42
22.2
  3
Default (ANSI)
100
AcDbAlignedDimension
 13
9.160073928099601
 23
33.91981838319146
 33
0.0
 14
31.3600739280996
 24
33.91981838319146
 34
0.0
100
AcDbRotatedDimension
1001
ACAD
1000
DSTYLE
1002
{
1070
   289
1070
     1
1070
    73
1070
     0
1070
    74
1070
     0
1070
   271
1070
     2
1070
   272
1070
     2
1070
    48
1040
0.0
1070
    47
1040
0.0
1002
}
  0
DIMENSION
  5
3DE
330
6C
100
AcDbEntity
  8
Dimension (ANSI)
100
AcDbDimension
  2
*D6
 10
8.447466951461368
 20
13.48981838319146
 30
0.0
 11
7.317869203690159
 21
11.5932863908122
 31
0.0
 70
   160
  1
<>
 42
0.75
  3
Default (ANSI)
100
AcDbAlignedDimension
 13
9.680073928099607
 23
12.73981838319146
 33
0.0
 14
9.680073928099607
 24
13.48981838319146
 34
0.0
 50
90.0
100
AcDbRotatedDimension
1001
ACAD
1000
DSTYLE
1002
{
1070
   289
1070
     1
1070
   271
1070
     2
1070
   272
1070
     2
1070
    48
1040
0.0
1070
    47
1040
0.0
1002
}
  0
DIMENSION
  5
4DC
330
6C
100
AcDbEntity
  8
Dimension (ANSI)
100
AcDbDimension
  2
*D7
 10
14.35241649441198
 20
33.89981838319148
 30
0.0
 11
13.22007865250905
 21
32.75299465658235
 31
0.0
 70
   160
  1
<>
 42
0.519999999999989
  3
Default (ANSI)
100
AcDbAlignedDimension
 13
9.660073928099601
 23
34.41981838319146
 33
0.0
 14
30.84007392809961
 24
33.89981838319147
 34
0.0
 50
270.0
100
AcDbRotatedDimension
1001
ACAD
1000
DSTYLE
1002
{
1070
   289
1070
     1
1070
   271
1070
     2
1070
    75
1070
     1
1070
   272
1070
     2
1070
    48
1040
0.0
1070
    47
1040
0.0
1002
}
  0
DIMENSION
  5
5D8
330
6C
100
AcDbEntity
  8
Dimension (ANSI)
100
AcDbDimension
  2
*D8
 10
30.84007392809961
 20
37.06942468240406
 30
0.0
 11
33.09211641531165
 21
37.06942468240406
 31
0.0
 70
   160
  1
<>
 42
0.5199999999999961
  3
Default (ANSI)
100
AcDbAlignedDimension
 13
31.3600739280996
 23
33.91981838319146
 33
0.0
 14
30.84007392809961
 24
33.89981838319147
 34
0.0
 50
180.0
100
AcDbRotatedDimension
1001
ACAD
1000
DSTYLE
1002
{
1070
   289
1070
     1
1070
    73
1070
     0
1070
    74
1070
     0
1070
   271
1070
     2
1070
   272
1070
     2
1070
    48
1040
0.0
1070
    47
1040
0.0
1002
}
  0
DIMENSION
  5
6C2
330
6C
100
AcDbEntity
  8
Dimension (ANSI)
100
AcDbDimension
  2
*D9
 10
5.900546369044496
 20
33.89981838319146
 30
0.0
 11
5.900546369044491
 21
29.33290824958048
 31
0.0
 70
   160
  1
<>
 42
21.16
  3
Default (ANSI)
100
AcDbAlignedDimension
 13
9.680073928099607
 23
12.73981838319146
 33
0.0
 14
9.680073928099607
 24
33.89981838319146
 34
0.0
 50
90.0
100
AcDbRotatedDimension
1001
ACAD
1000
DSTYLE
1002
{
1070
   289
1070
     1
1070
   271
1070
     3
1070
   272
1070
     3
1070
    48
1040
0.0
1070
    47
1040
0.0
1002
}
  0
DIMENSION
  5
7AC
330
6C
100
AcDbEntity
  8
Dimension (ANSI)
100
AcDbDimension
  2
*D10
 10
43.45005812948757
 20
36.78202310760092
 30
0.0
 11
40.94401564227537
 21
36.78202310760092
 31
0.0
 70
   160
  1
<>
 42
0.7740000000001502
  3
Default (ANSI)
100
AcDbAlignedDimension
 13
42.67605812948742
 23
34.41981838319146
 33
0.0
 14
43.45005812948757
 24
32.70181838319146
 34
0.0
 50
180.0
100
AcDbRotatedDimension
1001
ACAD
1000
DSTYLE
1002
{
1070
   289
1070
     1
1070
    73
1070
     0
1070
    74
1070
     0
1070
   271
1070
     2
1070
   272
1070
     2
1070
    48
1040
0.0
1070
    47
1040
0.0
1002
}
  0
MTEXT
  5
896
102
{ACAD_REACTORS
330
897
102
}
330
6C
100
AcDbEntity
  8
Symbol (ANSI)
100
AcDbMText
 10
45.1101579405574
 20
26.75574210585929
 30
0.0
 40
0.4800000059323048
 41
1.963176689748688
 71
     1
 72
     1
  1
{12 GA.}
  7
Note Text (ANSI)
 73
     1
 44
1.0
1001
ACAD
1000
MTEXTBEGIN
1070
    73
1070
     1
1070
    44
1040
1.0
1070
    74
1070
     0
1000
MTEXTEND
  0
LEADER
  5
897
330
6C
100
AcDbEntity
  8
Symbol (ANSI)
100
AcDbLeader
  3
Default (ANSI)$7
 73
     0
 74
     0
 75
     1
 40
0.499341846332532
 41
1.829093373848151
 76
     3
 10
43.45005812948757
 20
24.4478966938633
 30
0.0
 10
44.59047291010455
 20
26.51574210289314
 30
0.0
 10
44.9841736885889
 20
26.51574210289314
 30
0.0
340
896
213
0.0
223
-0.2400000029661524
233
0.0
1001
ACAD
1000
DSTYLE
1002
{
1070
    77
1070
     0
1002
}
  0
DIMENSION
  5
898
330
6C
100
AcDbEntity
  8
Dimension (ANSI)
100
AcDbDimension
  2
*D11
 10
32.58881253655188
 20
12.71981838319146
 30
0.0
 11
33.72227865250905
 21
13.86635037557071
 31
0.0
 70
   160
  1
<>
 42
0.5000000000000018
  3
Default (ANSI)
100
AcDbAlignedDimension
 13
30.8600739280996
 23
12.21981838319146
 33
0.0
 14
31.36007392809961
 24
12.71981838319146
 34
0.0
 50
90.0
100
AcDbRotatedDimension
1001
ACAD
1000
DSTYLE
1002
{
1070
   289
1070
     1
1070
   271
1070
     2
1070
   272
1070
     2
1070
    48
1040
0.0
1070
    47
1040
0.0
1002
}
  0
DIMENSION
  5
998
330
6C
100
AcDbEntity
  8
Dimension (ANSI)
100
AcDbDimension
  2
*D12
 10
30.8600739280996
 20
9.857613658782016
 30
0.0
 11
29.12803144088755
 21
9.857613658782016
 31
0.0
 70
   160
  1
<>
 42
0.5000000000000036
  3
Default (ANSI)
100
AcDbAlignedDimension
 13
31.36007392809961
 23
12.71981838319146
 33
0.0
 14
30.8600739280996
 24
12.21981838319146
 34
0.0
 50
180.0
100
AcDbRotatedDimension
1001
ACAD
1000
DSTYLE
1002
{
1070
   289
1070
     1
1070
    73
1070
     0
1070
    74
1070
     0
1070
   271
1070
     2
1070
   272
1070
     2
1070
    48
1040
0.0
1070
    47
1040
0.0
1002
}
  0
DIMENSION
  5
A82
330
6C
100
AcDbEntity
  8
Dimension (ANSI)
100
AcDbDimension
  2
*D13
 10
9.831314244783907
 20
33.70075465819558
 30
0.0
 11
4.342787042539161
 21
38.10485287300151
 31
0.0
 70
   163
  1
<>{\PTYP.(4PL.)}
 71
     3
 42
0.5
  3
Default (ANSI)
100
AcDbDiametricDimension
 15
9.528833611415304
 25
34.09888210818734
 35
0.0
 40
0.0
1001
ACAD_DSTYLE_DIMRADIAL_EXTENSION
1070
   387
1070
     1
1070
   388
1040
0.0
1070
   390
1040
0.0
1001
ACAD
1000
DSTYLE
1002
{
1070
   145
1040
-0.25
1070
   144
1040
0.9999999999999715
1070
   271
1070
     2
1070
   272
1070
     2
1070
    48
1040
0.0
1070
    47
1040
0.0
1002
}
  0
DIMENSION
  5
B3C
330
6C
100
AcDbEntity
  8
Dimension (ANSI)
100
AcDbDimension
  2
*D14
 10
9.617940990657761
 20
13.63318351348766
 30
0.0
 11
13.22027229371363
 21
10.50257020916083
 31
0.0
 70
   163
  1
<>{\PTYP. (4PL.)}
 42
0.3125
  3
Default (ANSI)
100
AcDbDiametricDimension
 15
9.742206865541445
 25
13.34645325289525
 35
0.0
 40
0.0
1001
ACAD_DSTYLE_DIMRADIAL_EXTENSION
1070
   387
1070
     1
1070
   388
1040
0.0
1070
   390
1040
0.0
1001
ACAD
1000
DSTYLE
1002
{
1070
   145
1040
-0.25
1070
   144
1040
1.000000000000005
1070
   271
1070
     2
1070
   272
1070
     2
1070
    48
1040
0.0
1070
    47
1040
0.0
1002
}
  0
DIMENSION
  5
BF5
330
6C
100
AcDbEntity
  8
Dimension (ANSI)
100
AcDbDimension
  2
*D15
 10
9.680073928099607
 20
37.06942468240408
 30
0.0
 11
20.26007392809961
 21
37.06942468240408
 31
0.0
 70
   160
  1
<>
 42
21.16
  3
Default (ANSI)
100
AcDbAlignedDimension
 13
30.84007392809961
 23
33.89981838319147
 33
0.0
 14
9.680073928099607
 24
33.89981838319146
 34
0.0
 50
180.0
100
AcDbRotatedDimension
1001
ACAD
1000
DSTYLE
1002
{
1070
   289
1070
     1
1070
    73
1070
     0
1070
    74
1070
     0
1070
   271
1070
     2
1070
   272
1070
     2
1070
    48
1040
0.0
1070
    47
1040
0.0
1002
}
  0
ENDSEC
  0
SECTION
  2
OBJECTS
  0
DICTIONARY
  5
C
330
0
100
AcDbDictionary
281
     1
  3
ACAD_CIP_PREVIOUS_PRODUCT_INFO
350
CDF
  3
ACAD_COLOR
350
63
  3
ACAD_GROUP
350
D
  3
ACAD_LAYOUT
350
62
  3
ACAD_MATERIAL
350
10
  3
ACAD_MLEADERSTYLE
350
66
  3
ACAD_MLINESTYLE
350
5F
  3
ACAD_PLOTSETTINGS
350
61
  3
ACAD_PLOTSTYLENAME
350
E
  3
ACAD_SCALELIST
350
42
  3
ACAD_TABLESTYLE
350
64
  3
ACAD_VISUALSTYLE
350
29
  3
ACDB_RECOMPOSE_DATA
350
CED
  3
AcDbVariableDictionary
350
D7
  3
DWGPROPS
350
CEE
  0
DICTIONARY
  5
D2A
330
B36
100
AcDbDictionary
280
     1
281
     1
  3
ACAD_MTEXT_RT
360
D2B
  0
DICTIONARY
  5
D2C
330
BEF
100
AcDbDictionary
280
     1
281
     1
  3
ACAD_MTEXT_RT
360
D2D
  0
XRECORD
  5
CDF
102
{ACAD_REACTORS
330
C
102
}
330
C
100
AcDbXrecord
280
     1
300
INVNTOR
300
2012
300
85795PDSP_2012_0F
  0
DICTIONARY
  5
63
102
{ACAD_REACTORS
330
C
102
}
330
C
100
AcDbDictionary
281
     1
  0
DICTIONARY
  5
D
102
{ACAD_REACTORS
330
C
102
}
330
C
100
AcDbDictionary
281
     1
  0
DICTIONARY
  5
62
102
{ACAD_REACTORS
330
C
102
}
330
C
100
AcDbDictionary
281
     1
  3
Layout1
350
6B
  3
Layout2
350
73
  3
Model
350
6F
  0
DICTIONARY
  5
10
102
{ACAD_REACTORS
330
C
102
}
330
C
100
AcDbDictionary
281
     1
  3
ByBlock
350
19
  3
ByLayer
350
11
  3
Global
350
21
  0
DICTIONARY
  5
66
102
{ACAD_REACTORS
330
C
102
}
330
C
100
AcDbDictionary
281
     1
  3
Standard
350
67
  0
DICTIONARY
  5
5F
102
{ACAD_REACTORS
330
C
102
}
330
C
100
AcDbDictionary
281
     1
  3
Standard
350
60
  0
DICTIONARY
  5
61
102
{ACAD_REACTORS
330
C
102
}
330
C
100
AcDbDictionary
281
     1
  0
ACDBDICTIONARYWDFLT
  5
E
102
{ACAD_REACTORS
330
C
102
}
330
C
100
AcDbDictionary
281
     1
  3
Normal
350
F
100
AcDbDictionaryWithDefault
340
F
  0
DICTIONARY
  5
42
102
{ACAD_REACTORS
330
C
102
}
330
C
100
AcDbDictionary
281
     1
  3
A0
350
43
  3
A1
350
44
  3
A2
350
45
  3
A3
350
46
  3
A4
350
47
  3
A5
350
48
  3
A6
350
49
  3
A7
350
4A
  3
A8
350
4B
  3
A9
350
4C
  3
B0
350
4D
  3
B1
350
4E
  3
B2
350
4F
  3
B3
350
50
  3
B4
350
51
  3
B5
350
52
  3
B6
350
53
  0
DICTIONARY
  5
64
102
{ACAD_REACTORS
330
C
102
}
330
C
100
AcDbDictionary
281
     1
  3
Standard
350
65
  0
DICTIONARY
  5
29
102
{ACAD_REACTORS
330
C
102
}
330
C
100
AcDbDictionary
281
     1
  3
2dWireframe
350
2F
  3
Basic
350
2E
  3
Brighten
350
35
  3
ColorChange
350
39
  3
Conceptual
350
32
  3
Dim
350
34
  3
EdgeColorOff
350
41
  3
Facepattern
350
38
  3
Flat
350
2A
  3
FlatWithEdges
350
2B
  3
Gouraud
350
2C
  3
GouraudWithEdges
350
2D
  3
Hidden
350
31
  3
JitterOff
350
3F
  3
Linepattern
350
37
  3
OverhangOff
350
40
  3
Realistic
350
33
  3
Shaded
350
3E
  3
Shaded with edges
350
3D
  3
Shades of Gray
350
3A
  3
Sketchy
350
3B
  3
Thicken
350
36
  3
Wireframe
350
30
  3
X-Ray
350
3C
  0
XRECORD
  5
CED
102
{ACAD_REACTORS
330
C
102
}
330
C
100
AcDbXrecord
280
     1
 90
        1
330
65
  0
DICTIONARY
  5
D7
102
{ACAD_REACTORS
330
C
102
}
330
C
100
AcDbDictionary
281
     1
  3
CANNOSCALE
350
DA
  3
CMLEADERSTYLE
350
D9
  3
CTABLESTYLE
350
D8
  3
DIMASSOC
350
CE7
  3
HIDETEXT
350
CE6
  3
INDEXCTL
350
CE5
  3
LAYEREVAL
350
CE2
  3
LAYERNOTIFY
350
CE3
  3
LIGHTINGUNITS
350
CE1
  3
MSLTSCALE
350
CE0
  3
SORTENTS
350
CE4
  3
XCLIPFRAME
350
CE8
  0
XRECORD
  5
CEE
102
{ACAD_REACTORS
330
C
102
}
330
C
100
AcDbXrecord
280
     1
  1
DWGPROPS COOKIE
  2

  3

  4
EC
  6

  7

  8

  9
-
300
Manager=
301
Company=
302
Category=
303
Part Number=NP2424C
304
Description=NPC PANEL MASTER VIEW
305
Project=
306
Designer=EC
307
Engineer=
308
Authority=
309
Cost Center=
 40
0.0000359953703704
 41
2455944.482691482
 42
2455944.482691482
  1

 90
       20
300
Vendor=
300
User Status=
300
Design Status=WorkInProgress
300
Checked by=JG
300
Date Checked=02/19/2009
300
Engr Approved by=
300
Mfg Approved by=
300
DWG. NO=
300
NUMBER OF SHEETS=1
300
DRAWING #=1
  0
XRECORD
  5
D2B
102
{ACAD_REACTORS
330
D2A
102
}
330
D2A
100
AcDbXrecord
280
     1
 40
29624.0
  1
\A1;\U+22050.50{\PTYP.(4PL.)}
  0
XRECORD
  5
D2D
102
{ACAD_REACTORS
330
D2C
102
}
330
D2C
100
AcDbXrecord
280
     1
 40
30807.0
  1
\A1;\U+22050.31{\PTYP. (4PL.)}
  0
LAYOUT
  5
6B
102
{ACAD_XDICTIONARY
360
D24
102
}
102
{ACAD_REACTORS
330
62
102
}
330
62
100
AcDbPlotSettings
  1

  2

  4

  6

 40
0.0
 41
0.0
 42
0.0
 43
0.0
 44
0.0
 45
0.0
 46
0.0
 47
0.0
 48
0.0
 49
0.0
140
0.0
141
0.0
142
1.0
143
1.0
 70
   688
 72
     0
 73
     0
 74
     5
  7

 75
    16
147
1.0
148
0.0
149
0.0
100
AcDbLayout
  1
Layout1
 70
     1
 71
     1
 10
0.0
 20
0.0
 11
12.0
 21
9.0
 12
0.0
 22
0.0
 32
0.0
 14
0.0
 24
0.0
 34
0.0
 15
0.0
 25
0.0
 35
0.0
146
0.0
 13
0.0
 23
0.0
 33
0.0
 16
1.0
 26
0.0
 36
0.0
 17
0.0
 27
1.0
 37
0.0
 76
     0
330
68
  0
LAYOUT
  5
73
102
{ACAD_XDICTIONARY
360
D28
102
}
102
{ACAD_REACTORS
330
62
102
}
330
62
100
AcDbPlotSettings
  1

  2

  4

  6

 40
0.0
 41
0.0
 42
0.0
 43
0.0
 44
0.0
 45
0.0
 46
0.0
 47
0.0
 48
0.0
 49
0.0
140
0.0
141
0.0
142
1.0
143
1.0
 70
   688
 72
     0
 73
     0
 74
     5
  7

 75
    16
147
1.0
148
0.0
149
0.0
100
AcDbLayout
  1
Layout2
 70
     1
 71
     2
 10
0.0
 20
0.0
 11
12.0
 21
9.0
 12
0.0
 22
0.0
 32
0.0
 14
0.0
 24
0.0
 34
0.0
 15
0.0
 25
0.0
 35
0.0
146
0.0
 13
0.0
 23
0.0
 33
0.0
 16
1.0
 26
0.0
 36
0.0
 17
0.0
 27
1.0
 37
0.0
 76
     0
330
70
  0
LAYOUT
  5
6F
102
{ACAD_XDICTIONARY
360
D26
102
}
102
{ACAD_REACTORS
330
62
102
}
330
62
100
AcDbPlotSettings
  1

  2

  4

  6

 40
0.0
 41
0.0
 42
0.0
 43
0.0
 44
0.0
 45
0.0
 46
0.0
 47
0.0
 48
0.0
 49
0.0
140
0.0
141
0.0
142
1.0
143
1.0
 70
  1712
 72
     0
 73
     0
 74
     0
  7

 75
     0
147
1.0
148
0.0
149
0.0
100
AcDbLayout
  1
Model
 70
     1
 71
     0
 10
0.0
 20
0.0
 11
12.0
 21
9.0
 12
0.0
 22
0.0
 32
0.0
 14
0.0
 24
0.0
 34
0.0
 15
0.0
 25
0.0
 35
0.0
146
0.0
 13
0.0
 23
0.0
 33
0.0
 16
1.0
 26
0.0
 36
0.0
 17
0.0
 27
1.0
 37
0.0
 76
     0
330
6C
  0
MATERIAL
  5
19
102
{ACAD_XDICTIONARY
360
1A
102
}
102
{ACAD_REACTORS
330
10
102
}
330
10
100
AcDbMaterial
  1
ByBlock
 72
     0
 43
0.0208333333333333
 43
0.0
 43
0.0
 43
0.0
 43
0.0
 43
0.0208333333333333
 43
0.0
 43
0.0
 43
0.0
 43
0.0
 43
1.0
 43
0.0
 43
0.0
 43
0.0
 43
0.0
 43
1.0
 77
     0
 47
0.0208333333333333
 47
0.0
 47
0.0
 47
0.0
 47
0.0
 47
0.0208333333333333
 47
0.0
 47
0.0
 47
0.0
 47
0.0
 47
1.0
 47
0.0
 47
0.0
 47
0.0
 47
0.0
 47
1.0
171
     0
 49
0.0208333333333333
 49
0.0
 49
0.0
 49
0.0
 49
0.0
 49
0.0208333333333333
 49
0.0
 49
0.0
 49
0.0
 49
0.0
 49
1.0
 49
0.0
 49
0.0
 49
0.0
 49
0.0
 49
1.0
175
     0
142
0.0208333333333333
142
0.0
142
0.0
142
0.0
142
0.0
142
0.0208333333333333
142
0.0
142
0.0
142
0.0
142
0.0
142
1.0
142
0.0
142
0.0
142
0.0
142
0.0
142
1.0
179
     0
144
0.0208333333333333
144
0.0
144
0.0
144
0.0
144
0.0
144
0.0208333333333333
144
0.0
144
0.0
144
0.0
144
0.0
144
1.0
144
0.0
144
0.0
144
0.0
144
0.0
144
1.0
147
0.0208333333333333
147
0.0
147
0.0
147
0.0
147
0.0
147
0.0208333333333333
147
0.0
147
0.0
147
0.0
147
0.0
147
1.0
147
0.0
147
0.0
147
0.0
147
0.0
147
1.0
  0
MATERIAL
  5
11
102
{ACAD_XDICTIONARY
360
12
102
}
102
{ACAD_REACTORS
330
10
102
}
330
10
100
AcDbMaterial
  1
ByLayer
 72
     0
 43
0.0208333333333333
 43
0.0
 43
0.0
 43
0.0
 43
0.0
 43
0.0208333333333333
 43
0.0
 43
0.0
 43
0.0
 43
0.0
 43
1.0
 43
0.0
 43
0.0
 43
0.0
 43
0.0
 43
1.0
 77
     0
 47
0.0208333333333333
 47
0.0
 47
0.0
 47
0.0
 47
0.0
 47
0.0208333333333333
 47
0.0
 47
0.0
 47
0.0
 47
0.0
 47
1.0
 47
0.0
 47
0.0
 47
0.0
 47
0.0
 47
1.0
171
     0
 49
0.0208333333333333
 49
0.0
 49
0.0
 49
0.0
 49
0.0
 49
0.0208333333333333
 49
0.0
 49
0.0
 49
0.0
 49
0.0
 49
1.0
 49
0.0
 49
0.0
 49
0.0
 49
0.0
 49
1.0
175
     0
142
0.0208333333333333
142
0.0
142
0.0
142
0.0
142
0.0
142
0.0208333333333333
142
0.0
142
0.0
142
0.0
142
0.0
142
1.0
142
0.0
142
0.0
142
0.0
142
0.0
142
1.0
179
     0
144
0.0208333333333333
144
0.0
144
0.0
144
0.0
144
0.0
144
0.0208333333333333
144
0.0
144
0.0
144
0.0
144
0.0
144
1.0
144
0.0
144
0.0
144
0.0
144
0.0
144
1.0
147
0.0208333333333333
147
0.0
147
0.0
147
0.0
147
0.0
147
0.0208333333333333
147
0.0
147
0.0
147
0.0
147
0.0
147
1.0
147
0.0
147
0.0
147
0.0
147
0.0
147
1.0
  0
MATERIAL
  5
21
102
{ACAD_XDICTIONARY
360
22
102
}
102
{ACAD_REACTORS
330
10
102
}
330
10
100
AcDbMaterial
  1
Global
 72
     0
 43
0.0208333333333333
 43
0.0
 43
0.0
 43
0.0
 43
0.0
 43
0.0208333333333333
 43
0.0
 43
0.0
 43
0.0
 43
0.0
 43
1.0
 43
0.0
 43
0.0
 43
0.0
 43
0.0
 43
1.0
 77
     0
 47
0.0208333333333333
 47
0.0
 47
0.0
 47
0.0
 47
0.0
 47
0.0208333333333333
 47
0.0
 47
0.0
 47
0.0
 47
0.0
 47
1.0
 47
0.0
 47
0.0
 47
0.0
 47
0.0
 47
1.0
171
     0
 49
0.0208333333333333
 49
0.0
 49
0.0
 49
0.0
 49
0.0
 49
0.0208333333333333
 49
0.0
 49
0.0
 49
0.0
 49
0.0
 49
1.0
 49
0.0
 49
0.0
 49
0.0
 49
0.0
 49
1.0
175
     0
142
0.0208333333333333
142
0.0
142
0.0
142
0.0
142
0.0
142
0.0208333333333333
142
0.0
142
0.0
142
0.0
142
0.0
142
1.0
142
0.0
142
0.0
142
0.0
142
0.0
142
1.0
179
     0
144
0.0208333333333333
144
0.0
144
0.0
144
0.0
144
0.0
144
0.0208333333333333
144
0.0
144
0.0
144
0.0
144
0.0
144
1.0
144
0.0
144
0.0
144
0.0
144
0.0
144
1.0
147
0.0208333333333333
147
0.0
147
0.0
147
0.0
147
0.0
147
0.0208333333333333
147
0.0
147
0.0
147
0.0
147
0.0
147
1.0
147
0.0
147
0.0
147
0.0
147
0.0
147
1.0
  0
MLEADERSTYLE
  5
67
102
{ACAD_XDICTIONARY
360
CEB
102
}
102
{ACAD_REACTORS
330
66
102
}
330
66
100
AcDbMLeaderStyle
170
     2
171
     1
172
     0
 90
        2
 40
0.0
 41
0.0
173
     1
 91
-1056964608
340
5B
 92
       -2
290
     1
 42
0.09
291
     1
 43
0.36
  3
Standard
 44
0.18
300

342
55
174
     1
178
     6
175
     1
176
     0
 93
-1056964608
 45
0.18
292
     0
297
     0
 46
0.18
 94
-1056964608
 47
1.0
 49
1.0
140
1.0
293
     1
141
0.0
294
     1
177
     0
142
1.0
295
     0
296
     0
143
0.125
1001
ACAD_MLEADERVER
1070
     2
  0
MLINESTYLE
  5
60
102
{ACAD_REACTORS
330
5F
102
}
330
5F
100
AcDbMlineStyle
  2
STANDARD
 70
     0
  3

 62
   256
 51
90.0
 52
90.0
 71
     2
 49
0.5
 62
   256
  6
BYLAYER
 49
-0.5
 62
   256
  6
BYLAYER
  0
ACDBPLACEHOLDER
  5
F
102
{ACAD_REACTORS
330
E
102
}
330
E
  0
SCALE
  5
43
102
{ACAD_REACTORS
330
42
102
}
330
42
100
AcDbScale
 70
     0
300
1:1
140
1.0
141
1.0
290
     1
  0
SCALE
  5
44
102
{ACAD_REACTORS
330
42
102
}
330
42
100
AcDbScale
 70
     0
300
1/128" = 1'-0"
140
0.0078125
141
12.0
290
     0
  0
SCALE
  5
45
102
{ACAD_REACTORS
330
42
102
}
330
42
100
AcDbScale
 70
     0
300
1/64" = 1'-0"
140
0.015625
141
12.0
290
     0
  0
SCALE
  5
46
102
{ACAD_REACTORS
330
42
102
}
330
42
100
AcDbScale
 70
     0
300
1/32" = 1'-0"
140
0.03125
141
12.0
290
     0
  0
SCALE
  5
47
102
{ACAD_REACTORS
330
42
102
}
330
42
100
AcDbScale
 70
     0
300
1/16" = 1'-0"
140
0.0625
141
12.0
290
     0
  0
SCALE
  5
48
102
{ACAD_REACTORS
330
42
102
}
330
42
100
AcDbScale
 70
     0
300
3/32" = 1'-0"
140
0.09375
141
12.0
290
     0
  0
SCALE
  5
49
102
{ACAD_REACTORS
330
42
102
}
330
42
100
AcDbScale
 70
     0
300
1/8" = 1'-0"
140
0.125
141
12.0
290
     0
  0
SCALE
  5
4A
102
{ACAD_REACTORS
330
42
102
}
330
42
100
AcDbScale
 70
     0
300
3/16" = 1'-0"
140
0.1875
141
12.0
290
     0
  0
SCALE
  5
4B
102
{ACAD_REACTORS
330
42
102
}
330
42
100
AcDbScale
 70
     0
300
1/4" = 1'-0"
140
0.25
141
12.0
290
     0
  0
SCALE
  5
4C
102
{ACAD_REACTORS
330
42
102
}
330
42
100
AcDbScale
 70
     0
300
3/8" = 1'-0"
140
0.375
141
12.0
290
     0
  0
SCALE
  5
4D
102
{ACAD_REACTORS
330
42
102
}
330
42
100
AcDbScale
 70
     0
300
1/2" = 1'-0"
140
0.5
141
12.0
290
     0
  0
SCALE
  5
4E
102
{ACAD_REACTORS
330
42
102
}
330
42
100
AcDbScale
 70
     0
300
3/4" = 1'-0"
140
0.75
141
12.0
290
     0
  0
SCALE
  5
4F
102
{ACAD_REACTORS
330
42
102
}
330
42
100
AcDbScale
 70
     0
300
1" = 1'-0"
140
1.0
141
12.0
290
     0
  0
SCALE
  5
50
102
{ACAD_REACTORS
330
42
102
}
330
42
100
AcDbScale
 70
     0
300
1-1/2" = 1'-0"
140
1.5
141
12.0
290
     0
  0
SCALE
  5
51
102
{ACAD_REACTORS
330
42
102
}
330
42
100
AcDbScale
 70
     0
300
3" = 1'-0"
140
3.0
141
12.0
290
     0
  0
SCALE
  5
52
102
{ACAD_REACTORS
330
42
102
}
330
42
100
AcDbScale
 70
     0
300
6" = 1'-0"
140
6.0
141
12.0
290
     0
  0
SCALE
  5
53
102
{ACAD_REACTORS
330
42
102
}
330
42
100
AcDbScale
 70
     0
300
1'-0" = 1'-0"
140
12.0
141
12.0
290
     0
  0
TABLESTYLE
  5
65
102
{ACAD_XDICTIONARY
360
CE9
102
}
102
{ACAD_REACTORS
330
64
102
}
330
64
100
AcDbTableStyle
  3
Standard
 70
     0
 71
     0
 40
0.06
 41
0.06
280
     0
281
     0
  7
Standard
140
0.18
170
     2
 62
     0
 63
     7
283
     0
274
    -2
284
     1
 64
     0
275
    -2
285
     1
 65
     0
276
    -2
286
     1
 66
     0
277
    -2
287
     1
 67
     0
278
    -2
288
     1
 68
     0
279
    -2
289
     1
 69
     0
  7
Standard
140
0.25
170
     5
 62
     0
 63
     7
283
     0
274
    -2
284
     1
 64
     0
275
    -2
285
     1
 65
     0
276
    -2
286
     1
 66
     0
277
    -2
287
     1
 67
     0
278
    -2
288
     1
 68
     0
279
    -2
289
     1
 69
     0
  7
Standard
140
0.18
170
     5
 62
     0
 63
     7
283
     0
274
    -2
284
     1
 64
     0
275
    -2
285
     1
 65
     0
276
    -2
286
     1
 66
     0
277
    -2
287
     1
 67
     0
278
    -2
288
     1
 68
     0
279
    -2
289
     1
 69
     0
  0
VISUALSTYLE
  5
2F
102
{ACAD_XDICTIONARY
360
CFC
102
}
102
{ACAD_REACTORS
330
29
102
}
330
29
100
AcDbVisualStyle
  2
2dWireframe
 70
     4
 71
     0
 72
     2
 73
     0
 90
        0
 40
-0.6
 41
-30.0
 62
     5
 63
     7
 74
     1
 91
        4
 64
     7
 65
   257
 75
     1
175
     1
 42
1.0
 92
        0
 66
   257
 43
1.0
 76
     1
 77
     6
 78
     2
 67
     7
 79
     5
170
     0
171
     0
290
     0
174
     0
 93
        1
 44
0.0
173
     0
291
     0
 45
0.0
1001
ACAD
1000
AcDbSavedByObjectVersion
1070
     0
  0
VISUALSTYLE
  5
2E
102
{ACAD_XDICTIONARY
360
CFA
102
}
102
{ACAD_REACTORS
330
29
102
}
330
29
100
AcDbVisualStyle
  2
Basic
 70
     7
 71
     1
 72
     0
 73
     1
 90
        0
 40
-0.6
 41
-30.0
 62
     5
 63
     7
 74
     0
 91
        4
 64
     7
 65
   257
 75
     1
175
     1
 42
1.0
 92
        8
 66
     7
 43
1.0
 76
     1
 77
     6
 78
     2
 67
     7
 79
     5
170
     0
171
     0
290
     0
174
     0
 93
        1
 44
0.0
173
     0
291
     1
 45
0.0
1001
ACAD
1000
AcDbSavedByObjectVersion
1070
     0
  0
VISUALSTYLE
  5
35
102
{ACAD_XDICTIONARY
360
D08
102
}
102
{ACAD_REACTORS
330
29
102
}
330
29
100
AcDbVisualStyle
  2
Brighten
 70
    12
 71
     2
 72
     2
 73
     0
 90
        0
 40
-0.6
 41
-30.0
 62
     5
 63
     7
 74
     1
 91
        4
 64
     7
 65
   257
 75
     1
175
     1
 42
1.0
 92
        8
 66
     7
 43
1.0
 76
     1
 77
     6
 78
     2
 67
     7
 79
     5
170
     0
171
     0
290
     0
174
     0
 93
        1
 44
50.0
173
     0
291
     1
 45
0.0
1001
ACAD
1000
AcDbSavedByObjectVersion
1070
     0
  0
VISUALSTYLE
  5
39
102
{ACAD_XDICTIONARY
360
D10
102
}
102
{ACAD_REACTORS
330
29
102
}
330
29
100
AcDbVisualStyle
  2
ColorChange
 70
    16
 71
     2
 72
     2
 73
     3
 90
        0
 40
-0.6
 41
-30.0
 62
     5
 63
     8
 74
     1
 91
        4
 64
     7
 65
   257
 75
     1
175
     1
 42
1.0
 92
        8
 66
     8
 43
1.0
 76
     1
 77
     6
 78
     2
 67
     7
 79
     5
170
     0
171
     0
290
     0
174
     0
 93
        1
 44
0.0
173
     0
291
     1
 45
0.0
1001
ACAD
1000
AcDbSavedByObjectVersion
1070
     0
  0
VISUALSTYLE
  5
32
102
{ACAD_XDICTIONARY
360
D02
102
}
102
{ACAD_REACTORS
330
29
102
}
330
29
100
AcDbVisualStyle
  2
Conceptual
 70
     9
 71
     3
 72
     2
 73
     0
 90
        0
 40
-0.6
 41
-30.0
 62
     5
 63
     7
 74
     2
 91
        2
 64
     7
 65
   257
 75
     1
175
     1
 42
179.0
 92
        8
 66
     7
 43
1.0
 76
     1
 77
     6
 78
     2
 67
     7
 79
     3
170
     0
171
     0
290
     0
174
     0
 93
        1
 44
0.0
173
     0
291
     0
 45
0.0
1001
ACAD
1000
AcDbSavedByObjectVersion
1070
     0
  0
VISUALSTYLE
  5
34
102
{ACAD_XDICTIONARY
360
D06
102
}
102
{ACAD_REACTORS
330
29
102
}
330
29
100
AcDbVisualStyle
  2
Dim
 70
    11
 71
     2
 72
     2
 73
     0
 90
        0
 40
-0.6
 41
-30.0
 62
     5
 63
     7
 74
     1
 91
        4
 64
     7
 65
   257
 75
     1
175
     1
 42
1.0
 92
        8
 66
     7
 43
1.0
 76
     1
 77
     6
 78
     2
 67
     7
 79
     5
170
     0
171
     0
290
     0
174
     0
 93
        1
 44
-50.0
173
     0
291
     1
 45
0.0
1001
ACAD
1000
AcDbSavedByObjectVersion
1070
     0
  0
VISUALSTYLE
  5
41
102
{ACAD_XDICTIONARY
360
D20
102
}
102
{ACAD_REACTORS
330
29
102
}
330
29
100
AcDbVisualStyle
  2
EdgeColorOff
 70
    22
 71
     2
 72
     2
 73
     0
 90
        0
 40
-0.6
 41
-30.0
 62
     5
 63
     7
 74
     1
 91
        4
 64
     7
 65
   257
 75
     1
175
     1
 42
1.0
 92
        8
 66
     7
 43
1.0
 76
     1
 77
     6
 78
     2
 67
     7
 79
     5
170
     0
171
     0
290
     0
174
     0
 93
        1
 44
0.0
173
     0
291
     1
 45
0.0
1001
ACAD
1000
AcDbSavedByObjectVersion
1070
     0
  0
VISUALSTYLE
  5
38
102
{ACAD_XDICTIONARY
360
D0E
102
}
102
{ACAD_REACTORS
330
29
102
}
330
29
100
AcDbVisualStyle
  2
Facepattern
 70
    15
 71
     2
 72
     2
 73
     0
 90
        0
 40
-0.6
 41
-30.0
 62
     5
 63
     7
 74
     1
 91
        4
 64
     7
 65
   257
 75
     1
175
     1
 42
1.0
 92
        8
 66
     7
 43
1.0
 76
     1
 77
     6
 78
     2
 67
     7
 79
     5
170
     0
171
     0
290
     0
174
     0
 93
        1
 44
0.0
173
     0
291
     1
 45
0.0
1001
ACAD
1000
AcDbSavedByObjectVersion
1070
     0
  0
VISUALSTYLE
  5
2A
102
{ACAD_XDICTIONARY
360
CF2
102
}
102
{ACAD_REACTORS
330
29
102
}
330
29
100
AcDbVisualStyle
  2
Flat
 70
     0
 71
     2
 72
     1
 73
     1
 90
        2
 40
-0.6
 41
30.0
 62
     5
 63
     7
 74
     0
 91
        0
 64
     7
 65
   257
 75
     1
175
     1
 42
1.0
 92
        8
 66
     7
 43
1.0
 76
     1
 77
     6
 78
     2
 67
     7
 79
     5
170
     0
171
     0
290
     0
174
     0
 93
       13
 44
0.0
173
     0
291
     1
 45
0.0
1001
ACAD
1000
AcDbSavedByObjectVersion
1070
     0
  0
VISUALSTYLE
  5
2B
102
{ACAD_XDICTIONARY
360
CF4
102
}
102
{ACAD_REACTORS
330
29
102
}
330
29
100
AcDbVisualStyle
  2
FlatWithEdges
 70
     1
 71
     2
 72
     1
 73
     1
 90
        2
 40
-0.6
 41
30.0
 62
     5
 63
     7
 74
     1
 91
        0
 64
     7
 65
   257
 75
     1
175
     1
 42
1.0
 92
        0
 66
   257
 43
1.0
 76
     1
 77
     6
 78
     2
 67
     7
 79
     5
170
     0
171
     0
290
     0
174
     0
 93
       13
 44
0.0
173
     0
291
     1
 45
0.0
1001
ACAD
1000
AcDbSavedByObjectVersion
1070
     0
  0
VISUALSTYLE
  5
2C
102
{ACAD_XDICTIONARY
360
CF6
102
}
102
{ACAD_REACTORS
330
29
102
}
330
29
100
AcDbVisualStyle
  2
Gouraud
 70
     2
 71
     2
 72
     2
 73
     1
 90
        2
 40
-0.6
 41
30.0
 62
     5
 63
     7
 74
     0
 91
        0
 64
     7
 65
   257
 75
     1
175
     1
 42
1.0
 92
        0
 66
     7
 43
1.0
 76
     1
 77
     6
 78
     2
 67
     7
 79
     5
170
     0
171
     0
290
     0
174
     0
 93
       13
 44
0.0
173
     0
291
     1
 45
0.0
1001
ACAD
1000
AcDbSavedByObjectVersion
1070
     0
  0
VISUALSTYLE
  5
2D
102
{ACAD_XDICTIONARY
360
CF8
102
}
102
{ACAD_REACTORS
330
29
102
}
330
29
100
AcDbVisualStyle
  2
GouraudWithEdges
 70
     3
 71
     2
 72
     2
 73
     1
 90
        2
 40
-0.6
 41
30.0
 62
     5
 63
     7
 74
     1
 91
        0
 64
     7
 65
   257
 75
     1
175
     1
 42
1.0
 92
        0
 66
   257
 43
1.0
 76
     1
 77
     6
 78
     2
 67
     7
 79
     5
170
     0
171
     0
290
     0
174
     0
 93
       13
 44
0.0
173
     0
291
     1
 45
0.0
1001
ACAD
1000
AcDbSavedByObjectVersion
1070
     0
  0
VISUALSTYLE
  5
31
102
{ACAD_XDICTIONARY
360
D00
102
}
102
{ACAD_REACTORS
330
29
102
}
330
29
100
AcDbVisualStyle
  2
Hidden
 70
     6
 71
     1
 72
     2
 73
     2
 90
        0
 40
-0.6
 41
-30.0
 62
     5
 63
     7
 74
     2
 91
        2
 64
     7
 65
   257
 75
     2
175
     1
 42
40.0
 92
        0
 66
   257
 43
1.0
 76
     1
 77
     6
 78
     2
 67
     7
 79
     3
170
     0
171
     0
290
     0
174
     0
 93
        1
 44
0.0
173
     0
291
     0
 45
0.0
1001
ACAD
1000
AcDbSavedByObjectVersion
1070
     0
  0
VISUALSTYLE
  5
3F
102
{ACAD_XDICTIONARY
360
D1C
102
}
102
{ACAD_REACTORS
330
29
102
}
330
29
100
AcDbVisualStyle
  2
JitterOff
 70
    20
 71
     2
 72
     2
 73
     0
 90
        0
 40
-0.6
 41
-30.0
 62
     5
 63
     7
 74
     1
 91
        4
 64
     7
 65
   257
 75
     1
175
     1
 42
1.0
 92
       10
 66
     7
 43
1.0
 76
     1
 77
     6
 78
     2
 67
     7
 79
     5
170
     0
171
     0
290
     0
174
     0
 93
        1
 44
0.0
173
     0
291
     1
 45
0.0
1001
ACAD
1000
AcDbSavedByObjectVersion
1070
     0
  0
VISUALSTYLE
  5
37
102
{ACAD_XDICTIONARY
360
D0C
102
}
102
{ACAD_REACTORS
330
29
102
}
330
29
100
AcDbVisualStyle
  2
Linepattern
 70
    14
 71
     2
 72
     2
 73
     0
 90
        0
 40
-0.6
 41
-30.0
 62
     5
 63
     7
 74
     1
 91
        4
 64
     7
 65
   257
 75
     7
175
     7
 42
1.0
 92
        8
 66
     7
 43
1.0
 76
     1
 77
     6
 78
     2
 67
     7
 79
     5
170
     0
171
     0
290
     0
174
     0
 93
        1
 44
0.0
173
     0
291
     1
 45
0.0
1001
ACAD
1000
AcDbSavedByObjectVersion
1070
     0
  0
VISUALSTYLE
  5
40
102
{ACAD_XDICTIONARY
360
D1E
102
}
102
{ACAD_REACTORS
330
29
102
}
330
29
100
AcDbVisualStyle
  2
OverhangOff
 70
    21
 71
     2
 72
     2
 73
     0
 90
        0
 40
-0.6
 41
-30.0
 62
     5
 63
     7
 74
     1
 91
        4
 64
     7
 65
   257
 75
     1
175
     1
 42
1.0
 92
        9
 66
     7
 43
1.0
 76
     1
 77
     6
 78
     2
 67
     7
 79
     5
170
     0
171
     0
290
     0
174
     0
 93
        1
 44
0.0
173
     0
291
     1
 45
0.0
1001
ACAD
1000
AcDbSavedByObjectVersion
1070
     0
  0
VISUALSTYLE
  5
33
102
{ACAD_XDICTIONARY
360
D04
102
}
102
{ACAD_REACTORS
330
29
102
}
330
29
100
AcDbVisualStyle
  2
Realistic
 70
     8
 71
     2
 72
     3
 73
     0
 90
        2
 40
-0.6
 41
30.0
 62
     5
 63
     7
 74
     0
 91
        0
 64
     7
 65
   257
 75
     1
175
     1
 42
1.0
 92
        8
 66
   257
 43
1.0
 76
     1
 77
     6
 78
     2
 67
     7
 79
     3
170
     0
171
     0
290
     0
174
     0
 93
       13
 44
0.0
173
     0
291
     0
 45
0.0
1001
ACAD
1000
AcDbSavedByObjectVersion
1070
     0
  0
VISUALSTYLE
  5
3E
102
{ACAD_XDICTIONARY
360
D1A
102
}
102
{ACAD_REACTORS
330
29
102
}
330
29
100
AcDbVisualStyle
  2
Shaded
 70
    27
 71
     2
 72
     2
 73
     1
 90
        2
 40
-0.6
 41
30.0
 62
     5
 63
     7
 74
     0
 91
        4
 64
     7
 65
   257
 75
     1
175
     1
 42
1.0
 92
        8
 66
   257
 43
1.0
 76
     1
 77
     6
 78
     2
 67
     8
 79
     3
170
     0
171
     0
290
     0
174
     0
 93
        5
 44
0.0
173
     0
291
     0
 45
0.0
1001
ACAD
1000
AcDbSavedByObjectVersion
1070
     0
  0
VISUALSTYLE
  5
3D
102
{ACAD_XDICTIONARY
360
D18
102
}
102
{ACAD_REACTORS
330
29
102
}
330
29
100
AcDbVisualStyle
  2
Shaded with edges
 70
    26
 71
     2
 72
     2
 73
     1
 90
        2
 40
-0.6
 41
30.0
 62
     5
 63
     7
 74
     1
 91
       10
 64
     7
 65
   257
 75
     2
175
     1
 42
1.0
 92
        8
 66
   257
 43
1.0
 76
     1
 77
     6
 78
     2
 67
     7
 79
     3
170
     0
171
     0
290
     0
174
     0
 93
        5
 44
0.0
173
     0
291
     0
 45
0.0
1001
ACAD
1000
AcDbSavedByObjectVersion
1070
     0
  0
VISUALSTYLE
  5
3A
102
{ACAD_XDICTIONARY
360
D12
102
}
102
{ACAD_REACTORS
330
29
102
}
330
29
100
AcDbVisualStyle
  2
Shades of Gray
 70
    23
 71
     2
 72
     2
 73
     3
 90
        0
 40
-0.6
 41
-30.0
 62
     5
 63
     7
 74
     2
 91
        2
 64
     7
 65
     7
 75
     1
175
     1
 42
40.0
 92
        8
 66
     7
 43
1.0
 76
     1
 77
     6
 78
     2
 67
     7
 79
     3
170
     0
171
     0
290
     0
174
     0
 93
        1
 44
0.0
173
     0
291
     0
 45
0.0
1001
ACAD
1000
AcDbSavedByObjectVersion
1070
     0
  0
VISUALSTYLE
  5
3B
102
{ACAD_XDICTIONARY
360
D14
102
}
102
{ACAD_REACTORS
330
29
102
}
330
29
100
AcDbVisualStyle
  2
Sketchy
 70
    24
 71
     1
 72
     2
 73
     2
 90
        0
 40
-0.6
 41
-30.0
 62
     5
 63
     7
 74
     2
 91
        2
 64
     7
 65
     7
 75
     1
175
     1
 42
40.0
 92
       11
 66
     7
 43
1.0
 76
     1
 77
     6
 78
     2
 67
     7
 79
     6
170
     0
171
     0
290
     0
174
     0
 93
        1
 44
0.0
173
     0
291
     0
 45
0.0
1001
ACAD
1000
AcDbSavedByObjectVersion
1070
     0
  0
VISUALSTYLE
  5
36
102
{ACAD_XDICTIONARY
360
D0A
102
}
102
{ACAD_REACTORS
330
29
102
}
330
29
100
AcDbVisualStyle
  2
Thicken
 70
    13
 71
     2
 72
     2
 73
     0
 90
        0
 40
-0.6
 41
-30.0
 62
     5
 63
     7
 74
     1
 91
        4
 64
     7
 65
   257
 75
     1
175
     1
 42
1.0
 92
       12
 66
     7
 43
1.0
 76
     1
 77
     6
 78
     2
 67
     7
 79
     5
170
     0
171
     0
290
     0
174
     0
 93
        1
 44
0.0
173
     0
291
     1
 45
0.0
1001
ACAD
1000
AcDbSavedByObjectVersion
1070
     0
  0
VISUALSTYLE
  5
30
102
{ACAD_XDICTIONARY
360
CFE
102
}
102
{ACAD_REACTORS
330
29
102
}
330
29
100
AcDbVisualStyle
  2
Wireframe
 70
     5
 71
     0
 72
     2
 73
     0
 90
        0
 40
-0.6
 41
-30.0
 62
     5
 63
     7
 74
     1
 91
        4
 64
     7
 65
   257
 75
     1
175
     1
 42
1.0
 92
        0
 66
   257
 43
1.0
 76
     1
 77
     6
 78
     2
 67
     7
 79
     3
170
     0
171
     0
290
     0
174
     0
 93
        1
 44
0.0
173
     0
291
     0
 45
0.0
1001
ACAD
1000
AcDbSavedByObjectVersion
1070
     0
  0
VISUALSTYLE
  5
3C
102
{ACAD_XDICTIONARY
360
D16
102
}
102
{ACAD_REACTORS
330
29
102
}
330
29
100
AcDbVisualStyle
  2
X-Ray
 70
    25
 71
     2
 72
     2
 73
     1
 90
        1
 40
0.5
 41
-30.0
 62
     5
 63
     7
 74
     1
 91
        0
 64
     7
 65
   257
 75
     1
175
     1
 42
1.0
 92
        8
 66
     7
 43
1.0
 76
     1
 77
     6
 78
     2
 67
     7
 79
     3
170
     0
171
     0
290
     0
174
     0
 93
       13
 44
0.0
173
     0
291
     0
 45
0.0
1001
ACAD
1000
AcDbSavedByObjectVersion
1070
     0
  0
DICTIONARYVAR
  5
DA
102
{ACAD_REACTORS
330
D7
102
}
330
D7
100
DictionaryVariables
280
     0
  1
1:1
  0
DICTIONARYVAR
  5
D9
102
{ACAD_REACTORS
330
D7
102
}
330
D7
100
DictionaryVariables
280
     0
  1
STANDARD
  0
DICTIONARYVAR
  5
D8
102
{ACAD_REACTORS
330
D7
102
}
330
D7
100
DictionaryVariables
280
     0
  1
STANDARD
  0
DICTIONARYVAR
  5
CE7
102
{ACAD_REACTORS
330
D7
102
}
330
D7
100
DictionaryVariables
280
     0
  1
1
  0
DICTIONARYVAR
  5
CE6
102
{ACAD_REACTORS
330
D7
102
}
330
D7
100
DictionaryVariables
280
     0
  1
1
  0
DICTIONARYVAR
  5
CE5
102
{ACAD_REACTORS
330
D7
102
}
330
D7
100
DictionaryVariables
280
     0
  1
0
  0
DICTIONARYVAR
  5
CE2
102
{ACAD_REACTORS
330
D7
102
}
330
D7
100
DictionaryVariables
280
     0
  1
0
  0
DICTIONARYVAR
  5
CE3
102
{ACAD_REACTORS
330
D7
102
}
330
D7
100
DictionaryVariables
280
     0
  1
0
  0
DICTIONARYVAR
  5
CE1
102
{ACAD_REACTORS
330
D7
102
}
330
D7
100
DictionaryVariables
280
     0
  1
2
  0
DICTIONARYVAR
  5
CE0
102
{ACAD_REACTORS
330
D7
102
}
330
D7
100
DictionaryVariables
280
     0
  1
1
  0
DICTIONARYVAR
  5
CE4
102
{ACAD_REACTORS
330
D7
102
}
330
D7
100
DictionaryVariables
280
     0
  1
127
  0
DICTIONARYVAR
  5
CE8
102
{ACAD_REACTORS
330
D7
102
}
330
D7
100
DictionaryVariables
280
     0
  1
2
  0
DICTIONARY
  5
D24
330
6B
100
AcDbDictionary
280
     1
281
     1
  3
ACAD_XREC_ROUNDTRIP
360
D25
  0
DICTIONARY
  5
D28
330
73
100
AcDbDictionary
280
     1
281
     1
  3
ACAD_XREC_ROUNDTRIP
360
D29
  0
DICTIONARY
  5
D26
330
6F
100
AcDbDictionary
280
     1
281
     1
  3
ACAD_XREC_ROUNDTRIP
360
D27
  0
DICTIONARY
  5
1A
330
19
100
AcDbDictionary
280
     1
281
     1
  3
ACAD_XREC_ROUNDTRIP
360
CF0
  3
BUMPTILE
360
1C
  3
DIFFUSETILE
360
1B
  3
OPACITYTILE
360
1F
  3
REFLECTIONTILE
360
1E
  3
REFRACTIONTILE
360
20
  3
SPECULARTILE
360
1D
  0
DICTIONARY
  5
12
330
11
100
AcDbDictionary
280
     1
281
     1
  3
ACAD_XREC_ROUNDTRIP
360
CEF
  3
BUMPTILE
360
14
  3
DIFFUSETILE
360
13
  3
FBXASSET
360
168
  3
OPACITYTILE
360
17
  3
REFLECTIONTILE
360
16
  3
REFRACTIONTILE
360
18
  3
SPECULARTILE
360
15
  0
DICTIONARY
  5
22
330
21
100
AcDbDictionary
280
     1
281
     1
  3
ACAD_XREC_ROUNDTRIP
360
CF1
  3
BUMPTILE
360
24
  3
DIFFUSETILE
360
23
  3
FBXASSET
360
11B
  3
OPACITYTILE
360
27
  3
REFLECTIONTILE
360
26
  3
REFRACTIONTILE
360
28
  3
SPECULARTILE
360
25
  0
DICTIONARY
  5
CEB
330
67
100
AcDbDictionary
280
     1
281
     1
  3
ACAD_XREC_ROUNDTRIP
360
CEC
  0
DICTIONARY
  5
CE9
330
65
100
AcDbDictionary
280
     1
281
     1
  3
ACAD_ROUNDTRIP_2008_TABLESTYLE_CELLSTYLEMAP
360
CEA
  3
ACAD_XREC_ROUNDTRIP
360
D22
  0
DICTIONARY
  5
CFC
330
2F
100
AcDbDictionary
280
     1
281
     1
  3
ACAD_XREC_ROUNDTRIP
360
CFD
  0
DICTIONARY
  5
CFA
330
2E
100
AcDbDictionary
280
     1
281
     1
  3
ACAD_XREC_ROUNDTRIP
360
CFB
  0
DICTIONARY
  5
D08
330
35
100
AcDbDictionary
280
     1
281
     1
  3
ACAD_XREC_ROUNDTRIP
360
D09
  0
DICTIONARY
  5
D10
330
39
100
AcDbDictionary
280
     1
281
     1
  3
ACAD_XREC_ROUNDTRIP
360
D11
  0
DICTIONARY
  5
D02
330
32
100
AcDbDictionary
280
     1
281
     1
  3
ACAD_XREC_ROUNDTRIP
360
D03
  0
DICTIONARY
  5
D06
330
34
100
AcDbDictionary
280
     1
281
     1
  3
ACAD_XREC_ROUNDTRIP
360
D07
  0
DICTIONARY
  5
D20
330
41
100
AcDbDictionary
280
     1
281
     1
  3
ACAD_XREC_ROUNDTRIP
360
D21
  0
DICTIONARY
  5
D0E
330
38
100
AcDbDictionary
280
     1
281
     1
  3
ACAD_XREC_ROUNDTRIP
360
D0F
  0
DICTIONARY
  5
CF2
330
2A
100
AcDbDictionary
280
     1
281
     1
  3
ACAD_XREC_ROUNDTRIP
360
CF3
  0
DICTIONARY
  5
CF4
330
2B
100
AcDbDictionary
280
     1
281
     1
  3
ACAD_XREC_ROUNDTRIP
360
CF5
  0
DICTIONARY
  5
CF6
330
2C
100
AcDbDictionary
280
     1
281
     1
  3
ACAD_XREC_ROUNDTRIP
360
CF7
  0
DICTIONARY
  5
CF8
330
2D
100
AcDbDictionary
280
     1
281
     1
  3
ACAD_XREC_ROUNDTRIP
360
CF9
  0
DICTIONARY
  5
D00
330
31
100
AcDbDictionary
280
     1
281
     1
  3
ACAD_XREC_ROUNDTRIP
360
D01
  0
DICTIONARY
  5
D1C
330
3F
100
AcDbDictionary
280
     1
281
     1
  3
ACAD_XREC_ROUNDTRIP
360
D1D
  0
DICTIONARY
  5
D0C
330
37
100
AcDbDictionary
280
     1
281
     1
  3
ACAD_XREC_ROUNDTRIP
360
D0D
  0
DICTIONARY
  5
D1E
330
40
100
AcDbDictionary
280
     1
281
     1
  3
ACAD_XREC_ROUNDTRIP
360
D1F
  0
DICTIONARY
  5
D04
330
33
100
AcDbDictionary
280
     1
281
     1
  3
ACAD_XREC_ROUNDTRIP
360
D05
  0
DICTIONARY
  5
D1A
330
3E
100
AcDbDictionary
280
     1
281
     1
  3
ACAD_XREC_ROUNDTRIP
360
D1B
  0
DICTIONARY
  5
D18
330
3D
100
AcDbDictionary
280
     1
281
     1
  3
ACAD_XREC_ROUNDTRIP
360
D19
  0
DICTIONARY
  5
D12
330
3A
100
AcDbDictionary
280
     1
281
     1
  3
ACAD_XREC_ROUNDTRIP
360
D13
  0
DICTIONARY
  5
D14
330
3B
100
AcDbDictionary
280
     1
281
     1
  3
ACAD_XREC_ROUNDTRIP
360
D15
  0
DICTIONARY
  5
D0A
330
36
100
AcDbDictionary
280
     1
281
     1
  3
ACAD_XREC_ROUNDTRIP
360
D0B
  0
DICTIONARY
  5
CFE
330
30
100
AcDbDictionary
280
     1
281
     1
  3
ACAD_XREC_ROUNDTRIP
360
CFF
  0
DICTIONARY
  5
D16
330
3C
100
AcDbDictionary
280
     1
281
     1
  3
ACAD_XREC_ROUNDTRIP
360
D17
  0
XRECORD
  5
D25
102
{ACAD_REACTORS
330
D24
102
}
330
D24
100
AcDbXrecord
280
     1
102
SHADEPLOT
 70
     0
102
SHADEPLOTRESLEVEL
 70
     2
102
SHADEPLOTCUSTOMDPI
 70
   300
  0
XRECORD
  5
D29
102
{ACAD_REACTORS
330
D28
102
}
330
D28
100
AcDbXrecord
280
     1
102
SHADEPLOT
 70
     0
102
SHADEPLOTRESLEVEL
 70
     2
102
SHADEPLOTCUSTOMDPI
 70
   300
  0
XRECORD
  5
D27
102
{ACAD_REACTORS
330
D26
102
}
330
D26
100
AcDbXrecord
280
     1
102
SHADEPLOT
 70
     0
102
SHADEPLOTRESLEVEL
 70
     2
102
SHADEPLOTCUSTOMDPI
 70
   300
  0
XRECORD
  5
CF0
102
{ACAD_REACTORS
330
1A
102
}
330
1A
100
AcDbXrecord
280
     1
102
MATERIAL
148
0.0
149
0.0
149
0.0
 93
        0
 94
      127
282
     0
 72
     0
 77
     0
171
     0
175
     0
179
     0
273
     0
  0
XRECORD
  5
1C
102
{ACAD_REACTORS
330
1A
102
}
330
1A
100
AcDbXrecord
280
     1
270
     1
271
     1
  0
XRECORD
  5
1B
102
{ACAD_REACTORS
330
1A
102
}
330
1A
100
AcDbXrecord
280
     1
270
     1
271
     1
  0
XRECORD
  5
1F
102
{ACAD_REACTORS
330
1A
102
}
330
1A
100
AcDbXrecord
280
     1
270
     1
271
     1
  0
XRECORD
  5
1E
102
{ACAD_REACTORS
330
1A
102
}
330
1A
100
AcDbXrecord
280
     1
270
     1
271
     1
  0
XRECORD
  5
20
102
{ACAD_REACTORS
330
1A
102
}
330
1A
100
AcDbXrecord
280
     1
270
     1
271
     1
  0
XRECORD
  5
1D
102
{ACAD_REACTORS
330
1A
102
}
330
1A
100
AcDbXrecord
280
     1
270
     1
271
     1
  0
XRECORD
  5
CEF
102
{ACAD_REACTORS
330
12
102
}
330
12
100
AcDbXrecord
280
     1
102
MATERIAL
148
0.0
149
0.0
149
0.0
 93
        0
 94
      127
282
     0
 72
     0
 77
     0
171
     0
175
     0
179
     0
273
     0
  0
XRECORD
  5
14
102
{ACAD_REACTORS
330
12
102
}
330
12
100
AcDbXrecord
280
     1
270
     1
271
     1
  0
XRECORD
  5
13
102
{ACAD_REACTORS
330
12
102
}
330
12
100
AcDbXrecord
280
     1
270
     1
271
     1
  0
XRECORD
  5
168
102
{ACAD_REACTORS
330
12
102
}
330
12
100
AcDbXrecord
280
     1
 70
     1
 90
1959938040
 71
     1
  1
5331492F-1356-4EF4-A3A3-8AF410BF77E9
311
504B03040A0000080000635C31403DEE336E79000000790000001B0000006175746F6465736B2D64657369676E2D7061636B6167652E786D6C3C3F786D6C2076657273696F6E3D22312E302220656E636F64696E673D227574662D3822203F3E3C666F726D6174733E3C666F726D61743E687474703A2F2F736368656D612E
311
6175746F6465736B2E636F6D2F64657369676E2D7061636B6167652F323030393C2F666F726D61743E3C2F666F726D6174733E504B0304140006080800635C3140D486FD9CA0000000F4000000130000005B436F6E74656E745F54797065735D2E786D6C7D8EC10E82300C865F65E91D8A1E8C310C0EEA1BF002731658846E
311
D98AC1B77784ABF1D8FE5FBFBF75BBCE937A534CCEB38643598122B6FEE978D0B0485F9C41B54DDD7D022595594E1A469170414C76A4D9A4D207E29CF43ECE46F218070CC6BECC4078ACAA135ACF422C856C0E68EA1BF5669944DDD7BCDE7B1F8E415D77AECB980613C2E4AC91FC167A2B244592486606FC29C8FD7F045B9A
311
EF7053A7E60B504B0304140006080800635C3140A63B8135EA0000007C01000008000000636F72652E786D6C8D90D18E832010457F85CC3B0A5AB56B90C6D8FA05FB0304A825AD600436FBF98BAD4D76DFF6692677EE99995C76FA9E1FE84BAFDE38DB01CD08206DA553C64E1DC470C5474027CE56E7C22F1B202B66DDC126
311
0367D3EAE2B24BD2D9A06D48AA754AEFA2F05E0740F2919A0EBCBCE959642286E4F0F76C11F22E269DD17797E0188D42AF2346A57DE66AF40A7C188E633F5E283ED743890FE538E2BEAA8EF85C1D3E9A9A9497BEAF58BEC19C0533BFEFCB558BA015F082D002138A69F349695B562D6930A95B4258BED9FF407151FF84A2B1
311
A12CF6775F98074ED323CF0167F996452ACFA052DD72E33F504B0304140006080800635C314055019EA25F0000007C00000007000000636E782E786D6C4DCB3B0E80201045D1AD90E915ED2CF8AC45050C11660C8261F98AB1B07AC9C97D42D718D865D3E909258CFD00CCE24AC6E326A164D74DC0B4128928FF326038472B
311
A13128B1252AC747C6BAB984FC68F0B87FE8960A5C09FE86CFB69FBA01504B0304140006080800635C31406CCBE9FB67010000020300000C0000006662782F636F72652E786D6C8D52ED8E8230107C95A6FF4B5B10F54CA9317E3CC1BD4085CA35426B4A4B7CFC5B04E37931C69094666667777640ACAF6D837AED3BE36C81
311
79C230D2B67495B1758163389125466B29BC73E14F194656B5BAC0038CA5A8BD8B97092A9D0DDA0640ADABF404AAAED301A3B2814B81BBF247B72A51314045774E2EAA3CAB5A273C011AEAA4E8820703681C329C589E8E5741475C8A184D35B1A68269E664B4C772BB5D1E36873D27BBF93623B3EC70209B3C5F925D3EFB5A
311
CC59B6DF6C724107B114C1B47777A5D72AE80ACB94F194304EF8E29BF35596AFD882B0F98A314187F22751BC541F8AA2B1214B27BBA3ACC39283911BF16F5B8828A04EF5E0874A418710E1754BF839680804420EEAD8DCF73803D4EB32383F03A672F141F5AA891AA632747B041D59E87C6B009BBDEC93BEE9F3BE077C4065
311
6BB0A6025C8F310CD3C538758AE2A23DE9C31559E75BD53CCC8D161FE763D04B79E91AE73F51D369553A854987BF57FE02504B0304140006080800635C3140518376BB7D0000009D0000000B0000006662782F636E782E786D6C4DCCD10A83201886E15B91FFDCD59CD30435727421B12C64A6C36974F9ABD1C18E3E78F878
311
65BB2D1EAD367D5C0C0AAE971A900DCF38BA302B2879C20DA056CB1463FEBB010AC362151C0C5ACE2996F749A39D86E2F3AEDE85D789BCA1C4DC05C35C3C04A6BD21D8507EC3B5E83ACE0C2382F6506959FD4AFB1E61FD05504B0304140006080800635C31402F9A8A752A01000014020000310000006662782F3738343242
311
3539362D373943392D344542322D423437332D3039414137364236323934452F636F72652E786D6C8D51CB6EC32010FC15C4A93D6083E3678489E22A7FD01F20405294182C1E553EBF503B527BCB8545B333B3A35D7A78CC77F0AD9CD7D68C90141802658495DA5C4718C305F5101C1875D6863F34080C9FD508330C19BD3A
311
1B970D12D6046542428D956A03B9F72A4020EEE933422FBED4CC0B1E4362F85BB17071E357559022B5138F511F5C0A00D621F985ACEBEB6A6A861675C3C780EAD354A1A9EE76080FC763D74E6D35D4275AAE424663D472936B99E2E88B56EE55932C6634E8F9195F38C5839290559854081344BA4F42F6BB668F3B84DB3DC6
311
B4CCF47FA2B8C81745519BB0ABB6B8ABCC434668B9361895369EEFCF30EAB15817409EF7E69578870C1798F44343FA9E962B352D2079B6F5E6E9837569C16FB773629366356E6B46CB7CA3547E0F986ABE27FB01504B0304140006080800635C31409779B9CF4D01000033030000300000006662782F37383432423539362D
311
373943392D344542322D423437332D3039414137364236323934452F636E782E786D6CD593CD6E022114855F85B09F1FD46A63184CBAE81374D12D03574B6560C24F53DFBE1745EBC64597DD90C9B987736EBE307CF73D59F205211AEF06CADA9E1270CA6BE30E03CD69DF3C53B2133C789FEE6C943839C1408B4C053F049F
311
E72A69D8CB6C13AAD6B8631503449F83828872B949AC57D26200B826A308D3085A832637237EED21E02A288E27923E80BCBEBC133F7E824A91772545F0AE74085ECEDA7467A2445919E340A3FA8049B63227AF211E5B2D936C597BED7AB0D36F122917AE95391852CA075A4E2AEA462D72E41D0E058F2920BD6A4AA719A890
311
F36C8D9209217767E3C52378362EAD57D56B107C40375B2F572B0C3BCF044F6682EA500164024DC5A2678BA6670DDBBC31B65D3E6DFB4DD3AFB77DCFBB62177CF4DED64B1803C1CF447997C0252A18EFCAF811BEEA23DA0464EDC3E90F2011406DBDD0B965FC673EDDF97D23AE807F81F801504B0304140006080800635C31
311
408CE82F969D0500007B100000340000006662782F37383432423539362D373943392D344542322D423437332D3039414137364236323934452F6F626A656374732E786D6CAD575D739B3814FD2B0CFB0C18DB69931D42C7B1E38EA79BB6534F3BFB90198F0C8268233E461289D35FBF472030B876E2DDE90B20215DDD7BEE
311
B91F0A3EEC326E3D512159915FDBBE3BB22D9A4745CCF2F4DAAE54E25CDAD687301045A17ACB6C2B2719BDB6F5B41D06A928AAD24CC53421155707B3CB9BBF2D19D19CDA56C48994D7B68C1E68465C52A922A6F2D18D89226E9AEC5CDF6D160EC5A682940F07424B2268AEA029E67348B11AA5FCE170647B61E0E9FF61A09F
311
66D5E4F42AAFB667783ECBA52279F4CB61076226FE74713BBEB8722EA6D389337D37F69D9BE5CDC2F1DF4F46F377F3F9D5ECF60A074B2520C968226862871F818D6051E035BFC2A062B99A8CCD12E3204FD027A63D658763CB0FBC664D679D31F298FA5191E734AAB1021AB57D46744C4B9AC7F039A3129AF5101A0D87BEC6
311
B1F77BA2C7E6C8FEF47908F477F404B5BAB7EFBEA6C5F61F9820CF6190905433B0C1D218DA7075B447785B14DCFC63D2CA88A282116E71B61544BCD82196EA25613010A3992C7434680BEC105E687E0FE982307A9BE7C7B44C2ACE358DEDB08E820D62852A596BC67E52B1D7BE8F0C7482AF341B2E8D41EAA5A47678D550E4
311
F2804D0D9056C2490A97C34CBD73323E3074AEE374B5B0C34FCBED6EAD63F7F8E1A5284A2A94A60FA8D53AAE7D6B948C4EFE599ED31BEC0355F6A07C03F29F11EA7B55E037C176D3DDD49CA204C96552880CBEB1469633C26364F9F5537FF7BE02AFDB3CF4DE293CE16C0DD56FC0736843DF973D38C3E009842FC4C498B68E
311
0847DAB8633900D224B1788129E4E164BBB3C315B21CB23276111EFA3019EA3EE133F08C18248AFAA4DE3B07960769F18C040DD86A46428D86FC46C1BD9F7E4967F5C166D929782F7E0B5D678BF5A775251212D13B13D30B9AB09C2994B83D6FFA0A0D301F58F4485F9E0B11C3D05FF15EF7F1CECC5112686BCC35F0699BD3
311
F5607FF2E08008FBD242A79BE08D1360842EAC3DF9774C46947392D3A26ACF7DB57EA06C3410EB60D74CEE0ACCBEB08034CD9F831844918E042B35885DB5EA92A67BC2BAEFABCF60A41DDEBCFC455EFAD96BBBCFBD51C10BB1D9BE6C9AB47414EA1F436E1B0C3C2D0574AF83A48D7F03FA266649524924C123B8FE58CDFBBE
311
D3690129A295DA44CB14F623B88830A46DE5A25A0B824A5AE41B86BA89B83B7A405F3E20350CA8059ED258529E6C18E755B649184735DA64A43C01C7FFD77F5B65E586644595AB13B207AAA33A0C751FB0573E13153DD8E1BA7E3B37C8BD318D4F9041D79223580D5C7B31410775355E3AFEE4E29D33BD5D4E9DD96436712E
311
67CBA93FBA59BE7F7F7BD5FAA9D1240CDA52D38F687809A52DA80433EEFBBE42FC982460877744C9FB8F4D78B6EFEF2B17BD70E0610FEA65B771163FA1EFA3F1DB02F62B8F0A5A6525A719CD15D13174A73FF837823E63A04C33BFCA484ACF90F2E5E3FAC018CC9CB1EFAB8E77FA7CB0D7CCCE75401E15A21EAA6C9B13C60F
311
36A60D926E99A706BFD627DDBB2934ED508F8C63D099CA82B3187930B6525A6454211B9E5184444625A8D7EFE96373F73863F753D3212AB2E5B4D5E481A049E61261016A55911ACE5B7FA0A9D37DD5B58D72EB3EE26132856D8133D7369A74C5222ADD2D0AB46E856AE1E052BF9347E34FF294A3D76E3675E36E97C6665092
311
BB25E7F44FC6AE26851B0390464AF40D6888E09D5A9930A87533FFA3FF6478AB8E45143EB795EA6CD94F74C6D4C720441BA3CC6D014DCCA3397A87407DDD2CDFADD70C10418E78FB96F52A091AA98E2222AD6F0A5A3FA3D26CF1D5438762ADBE5825AF52F8F27C498EA02073A5031C2C022B8CCC92285075FEE7FD5751E026
311
9B594B060ADCCF8B2C2B723398999BB0B57EC0BD36BE475AA0FA4222EFC7237F7C5F5F04CCDD64B32592BA24968F98804F05EB201E381E8C6C6E8BA840CD8F6E9DA79D70C0CDD5C232256D0AA18628FDACAA6141CB91530BD1A32F933A56FA0BCA57EF025EBD142A0874F1E1BF504B0304140006080000635C314000000000
311
0000000000000000350000006662782F37383432423539362D373943392D344542322D423437332D3039414137364236323934452F76657274696365732E62696E504B0304140006080800635C3140F270F1330600000004000000360000006662782F37383432423539362D373943392D344542322D423437332D30394141
311
37364236323934452F747269616E676C65732E62696E636660600000504B0304140006080000635C3140000000000000000000000000370000006662782F37383432423539362D373943392D344542322D423437332D3039414137364236323934452F617474726962757465732E62696E504B0304140006080800635C3140
311
D5987DFC8F00000041010000360000006662782F37383432423539362D373943392D344542322D423437332D3039414137364236323934452F6469726563746F72792E786D6C858F410EC2201045AF4266AF15DDB800BA74E7C21B903225242D6328188F2FA5C4183471359997F9FF81E89FF3C41E1816475E02DF1F80A11F
311
C8386F25A438EECEC07A250251FC3803E6F58C12560C4AD840E95E91C151A72936F496F35732D860FE635F62C8F2DA16B505C545B74125BAA2FA9E05D7CC053D063734D5C7665FD55B6B8D15D5E9BFEAFD8490FFA45E504B0304140006080800635C3140B590AFADFD000000A00100003B0000006662782F37383432423539
311
362D373943392D344542322D423437332D3039414137364236323934452F7265736F75726365732F636F72652E786D6C8D504B6E833010BD0A9ABDC1860069641C21124ED00B5866925A0936F2A7EAF16B0295DA5D3733A3F7D13C3D7EFE9A9FD9273AAFADE980E5143234CA4EDADC3B88E1468E909D0577D6865F32C88C9C
311
B1831506C1EFCEC665879435014D48A8B113EEA0F41E0364EA998E0EBCFAC059E63286A4F08F7C91EA21EF98B33CD14927B80F2E05C8B627EB04E1D0DBE8147A5E6CACE031EA69D7E829FDD4378D0EC4301CC77EBC527269868A1CAA71247D5D1FC9A53EBCB50DADAE7D5FF362350B1EF4FC93513994012710256525A18CB0
311
F69DB153559F684B6873A29417ABFC8F292ED33F4D519B50957BDCCDE641B014E445085EAC7DA5F52A33EDB55BF10D504B010214000A0000080000635C31403DEE336E79000000790000001B00000000000000000000000000000000006175746F6465736B2D64657369676E2D7061636B6167652E786D6C504B0102140014
311
0006080800635C3140D486FD9CA0000000F40000001300000000000000000000000000B20000005B436F6E74656E745F54797065735D2E786D6C504B01021400140006080800635C3140A63B8135EA0000007C010000080000000000000000000000000083010000636F72652E786D6C504B01021400140006080800635C31
311
4055019EA25F0000007C000000070000000000000000000000000093020000636E782E786D6C504B01021400140006080800635C31406CCBE9FB67010000020300000C00000000000000000000000000170300006662782F636F72652E786D6C504B01021400140006080800635C3140518376BB7D0000009D0000000B0000
311
0000000000000000000000A80400006662782F636E782E786D6C504B01021400140006080800635C31402F9A8A752A0100001402000031000000000000000000000000004E0500006662782F37383432423539362D373943392D344542322D423437332D3039414137364236323934452F636F72652E786D6C504B01021400
311
140006080800635C31409779B9CF4D010000330300003000000000000000000000000000C70600006662782F37383432423539362D373943392D344542322D423437332D3039414137364236323934452F636E782E786D6C504B01021400140006080800635C31408CE82F969D0500007B1000003400000000000000000000
311
000000620800006662782F37383432423539362D373943392D344542322D423437332D3039414137364236323934452F6F626A656374732E786D6C504B01021400140006080000635C31400000000000000000000000003500000000000000000000000000510E00006662782F37383432423539362D373943392D34454232
311
2D423437332D3039414137364236323934452F76657274696365732E62696E504B01021400140006080800635C3140F270F13306000000040000003600000000000000000000000000A40E00006662782F37383432423539362D373943392D344542322D423437332D3039414137364236323934452F747269616E676C6573
311
2E62696E504B01021400140006080000635C31400000000000000000000000003700000000000000000000000000FE0E00006662782F37383432423539362D373943392D344542322D423437332D3039414137364236323934452F617474726962757465732E62696E504B01021400140006080800635C3140D5987DFC8F00
311
0000410100003600000000000000000000000000530F00006662782F37383432423539362D373943392D344542322D423437332D3039414137364236323934452F6469726563746F72792E786D6C504B01021400140006080800635C3140B590AFADFD000000A00100003B0000000000000000000000000036100000666278
311
2F37383432423539362D373943392D344542322D423437332D3039414137364236323934452F7265736F75726365732F636F72652E786D6C504B0506000000000E000E00800400008C1100000000
310
504B03040A0000080000635C31403DEE336E79000000790000001B0000006175746F6465736B2D64657369676E2D7061636B6167652E786D6C3C3F786D6C2076657273696F6E3D22312E302220656E636F64696E673D227574662D3822203F3E3C666F726D6174733E3C666F726D61743E687474703A2F2F736368656D612E
310
6175746F6465736B2E636F6D2F64657369676E2D7061636B6167652F323030393C2F666F726D61743E3C2F666F726D6174733E504B0304140006080800635C3140D486FD9CA0000000F4000000130000005B436F6E74656E745F54797065735D2E786D6C7D8EC10E82300C865F65E91D8A1E8C310C0EEA1BF002731658846E
310
D98AC1B77784ABF1D8FE5FBFBF75BBCE937A534CCEB38643598122B6FEE978D0B0485F9C41B54DDD7D022595594E1A469170414C76A4D9A4D207E29CF43ECE46F218070CC6BECC4078ACAA135ACF422C856C0E68EA1BF5669944DDD7BCDE7B1F8E415D77AECB980613C2E4AC91FC167A2B244592486606FC29C8FD7F045B9A
310
EF7053A7E60B504B0304140006080800635C3140BB5266EDEB0000007C01000008000000636F72652E786D6C8D90416E83301045AF62CDDE60934203328E808413F40296ED502BC146D8AE7AFC9A8448EDAEAB19FDF96F66F4D9E97BBEA32FBD7AE36C0B342380B4954E193BB510C3151F019D385B9D0BBF6C80AC98750B9B
310
0C9C4DAB8BCB2E496783B621A9D629BD8BC27B1D00C97B6A5AF0F253CF2213312487BF658B903731E98CBEBA04C768147A1E312AED3357A357E07D515FEAF3D8613AF6157EEB8601774379C697E378ACFBB2A21DAD59BEC19C0533BFEECB558BA015F082D002138AE9FB07A5CDA16C488549D510C2F2CDFE078A8BFA27148D
310
0D87627FF78979E0343DF21870966F59A4F2082AD52D37FE03504B0304140006080800635C314055019EA25F0000007C00000007000000636E782E786D6C4DCB3B0E80201045D1AD90E915ED2CF8AC45050C11660C8261F98AB1B07AC9C97D42D718D865D3E909258CFD00CCE24AC6E326A164D74DC0B4128928FF32603847
310
2BA13128B1252AC747C6BAB984FC68F0B87FE8960A5C09FE86CFB69FBA01504B0304140006080800635C3140D453BC4267010000020300000C0000006662782F636F72652E786D6C8D52ED8E8230107C95A6FF4B292AA7A6D4E0D713DC0B54A81C115A525AE2E3DFF261382FC61892D2CCECECCE0EF0DDBDAE50A76C5B1A9D
310
60168418299D99BCD44582BDBB9235463BC1AD31EE4F19465AD62AC13D8C052FACF1CD0465463BA51DA0DAE46A0265DB2A875156C125C16DF6A36A1948EFA0A2BD058DCC6EB250010B80863AC15B67C1001A87F42716D7CB9DD31117DCFB329FD8328769E5B554168B7DB4396D8EE794B0F33E26CBF47020E9617524A7F579
310
BDD9AF6296B20DA7BD587057D60F779955D2A91C8B2864110919615FDF8C6D17AB6D189330DE8621A77DF993C837F987225F6AB78826BBA3ACC582819181F8B72D44E4502B3BF04305A77D88F01A127E0E1A0281909DBC548F3D6E00752A73C62E81C98D9FA94E565EC1D4100D0FA7230B9D8706B0D9CB3ED19B3EEF7BC007
310
94BA006BD2C1F5E25D3F9D8F53A7281A6549E7EE481B5BCB6A36375A9CCF79D04B79662A633F51D369553A8549FBBF57FC02504B0304140006080800635C3140D77060D27D0000009D0000000B0000006662782F636E782E786D6C4DCCD10A83201886E15B91FFDC6A2B48410D6BFBEF239685CC74988E5DFE6A74B0A30F1E
310
3E5ED17D5647DE266E36780997A20262FC234CD62F12729A2903D2291143487F37207E5C8D848341892586FC3A6932F3985DDAD559FF3C11EFBD1EB01A688DBCA58D464E75CB356DF895B31BEABA4706A512E5AFB4EF11565F504B0304140006080800635C3140D8AF9A532C01000014020000310000006662782F46454241
310
434630432D334639372D344146392D413739412D3439323938444641334246382F636F72652E786D6C8D51CB6EC32010FC15C4293D6083ED3A7684899CB4FE82FE8003244189C1E251E5F30BB523B5B75C58343B333BDAA5FBC77407DFD23A657407498621909A1BA1F4A583C19F5103C19E516B8CFF4383408F93EC608221
310
A3176BC2BC42DC682FB58FA83642AEE0E89CF410F07BFC74D0F1AB9CC66C0C3E32DC2D9B477E1B2F3223596C471EA3CEDB18002C43D20BD9F079E88F033EA27268B7A8EA8716F5DBB647555BB4CDC7D09787A1A1F9226434042556B912318E3A2B695F35496246BD9A9EF1B995A39702B20293026182C8F68B905DF9BEC335
310
C2F50E639A27FA3F5198C58BA2A0B42F8B35EE227390119A2F0D468509A7FB338C7CCCC67A90E66D9CE46F90E10C1704574D5BD17CA1C60544CFBA5A3D9D37362E78733B4576B91AD715A379BA512CBF078C35DD93FD00504B0304140006080800635C3140F0CBF2A95501000033030000300000006662782F464542414346
310
30432D334639372D344146392D413739412D3439323938444641334246382F636E782E786D6CBD93CD6EC32010845F0571F70F49EA461126520F7D821E7AC5B04968305880ABE6EDBB2424CD25874A552FC89A1D66569F30DF7E8D967C4288C6BB9EB2BAA5049CF2DAB87D4FE7B4ABD6946C050FDEA73B1B254E8ED0D32C53
310
C1F7C1CF539134ECE46C13AAD6B8631103443F070511E57C9358AFA4C50070D58C228C03680D9ADC8CF8B58380ABA0389C483A00797D79277EF80095226F728AE04DEE103C9FA5E9CE4489B232C69E46758051D6724E5E433CD65A2659B3FADAF560A79F24922F5C2BE760482EEF693EA9281BD5C8913738143CA680F48A29
310
9D26A0424E93354A2684DC9C8D178FE0B371A95B15AF41F001DDCB45B75E63D8792678322314870A2013682A162D5B542DABD8F31B639BE5D3A6EDAAB6DBB42D6FB25DF0C17B5B2E610C043F11E55D0297A860BCC9E347F88A8F681390B50FA75F804400A5F542E796F1977C58B75CADFE914F737EDF882BE05F20BE01504B
310
0304140006080800635C3140B05D7F445C070000941B0000340000006662782F46454241434630432D334639372D344146392D413739412D3439323938444641334246382F6F626A656374732E786D6CED595B73A33614FE2B0C7D3636B1B3BBE9107672D9EC78DAB43B75B7D387CC3032C8448D101E21B2717F7D3F098181
310
980477D3B73ED880908ECEF9CE5587E0E353C69D472A0B968B73D7F766AE43459C274CA4E76EA936930FAEF3310C649EABD634D71124A3E7AE1E76C3209579B9B54309DD9092ABDEE8CDE59F4E1153415D27E6A428CEDD22BEA719F148A9F284160F5E4214F1D2CD93E77BD5C42ED95492ED7D8FE896482A1438C5B80015A7
310
62CAEF3ECEDC69184CF5FB30D0FF76D67CD4ACC5F0ACA991BACB25138522227EC6528FCC7C144B737F71FDE9E4F46C72BA58CC278B7727FEE4F2E6F27AE2BF9FCFAEDE5D5D9D5D7C3A037BEB3CE756A6846EA948A0BF9D1BFAC154BF6944B7081CE23ACE85A0B101125019B1FA04192DB0550BBE59F7D1D712B55E1B095BCF
310
0BFDDEB2D01A9E77A90CCD1A0744872E04B1DBD512D7D7B67CF9FA2F085E8C314A5950056E0B25A15D0B8F8457B8E12C9856A361B0DEEB82154E4614958C7087B3B524124AC1543D250CAA05968C760E09528E96C068AE7ADDB52D78E6EBAE7388CB4DC9B9F60C37348E15C1FDA82A0C67EC6F2AF7DCB791014F90B664427D
310
B05CAADD96BAE15930358361A02FF313FBB202D2D97092160691EA6D4FD02BEDFACB6B37FCE966FDB4D2E1E0F0E65B996FA954DAE8B41E0D5F30647BD528D96DFD519AD30B204C05AA5DB907E53720FF0BA2C79E15E84DB2A7C5D3C2CE5592886293CB0CBA7166CE6486BF99E39B7F7DDFBA0BA6CDE2AEF686F0849B6AA83E
310
7C3F9E5D190C5696FF169C61F00883CFE5DCBE5AC584C39E6F990040DA481C9E6308A17DB37E72C3250227023D56111EFA1019EC3EE236985A327BADD4EE65BD4E0051BBC77C8C92009BB148B031A0A7CFC81E92C57B35B5451C82F7F44DCCF5E27AF5D3AA941B12D35BEBD3D774C30453C89A8719EA60DE91E881EEBEE532
310
81A0CFF15EB5F1CEEC5605D0D6986BE0D31A04FDB0DFB9B3418C7569AEC34DF0CA0E1042E7EA16FD5B56C4947322685ED6FB36D14D1B6AE3F1B66670C3930AE2F949CF84257D64BAAA80D3EC67741845DE8F25DB6A10DDF07325591334BD01E9BE2E7F814536F307662D0542AF20FC7713B40EE0D0B1EC1A690B4423F07A1F
310
CEE39CE7325AEFA22AD2B9A825C046D75BFEE81045ACAF94A4A9C0838CDFD52125ADA48D12B6D99405E2EA0116FF585EB5CD61E6CDFD53A7FDDF73C605A22D7C9748EB77BD3D22969194461B920C6DD7DEADA15D189203A425DD70C8C51E99DA454445B384A6C7407314F1B337A59EF2BC2898A005F2D541F0DB68CC3C0492
310
4A9B35CB5AAB3DA059116554117E0C029ACC00B826ED981A3746E9F03A8F8DF5BEA4B136D1FFC82224412D998B88A114450E799571DF3B450CE9A25BA1DCC317D656D33662F0122544BC8BBE5196DEAB6350AFC80FE01EE34852AA28DF9218663D82EC335FD14AEDF1BE26F183CE1F515CF2B7329082F24DC4382FB3083F26
310
70F218E3DA4D607A118516F12AF6299AA12823AA94633679773A7BB64F5533F443606BA30DE308DB5146B603A87702A2A9479C067C4B7D40A9EB32DB4624CB4B31CA50BC79DF9B2CF9BE5A35D991FCEA521165634DD8120C0326549355EB980D533781156E6402D52E2A48B6E5D529EC95C4E337DE64280F6E20AD9FBEED06
310
190ABF01EDB523EAA286C1F2D8290C8A6F44C5F76EB832D7C925EAEF8426FB545FD79AED0A1088E9485E4A6655F47589F2C6D6686E784B5471F7B9CABAF5F5EBD243F72398620D6A9766E152039D51A188AE4C6EF50DFF8D2004776854E34B9D538FA1729124A66A24FC860DA9B353467436CD98B7BDA722CFF013774CC4BC
310
4CE81D498A87E856F168C534EB564A2F6335C62F0AF8EBE7550F1E8C8C10E98B2EF0E8B7DE5A3B7AA5CBA58344D47D99AD056108821DD1D24A37DE56A45623B5969BAB3E53A0EE828159152FFE3F59B4DB11FF9F2C526B18DF75B2B8DCFD4C76EDBE482B9DC7DAAE8F3A0634F94953798B6380693B34549B2C5225732BBF75
310
A60841B18EF2A3ABB13A6854048738FED7597B280B56DBF5F83F2E6BFBCF2A8EA3B24A67B2EE521DA85C97ED1C763A478BF6ECE466E2CF4FDF4D169F6E16938BF9C57CF2E1E266E1CF2E6FDEBFFF74D6A0691C350C9A606672179EABA0560FEB278B01BAB245CE5982D37CE2A414315FE14C3FA27D2E335A2079B69BDD896D
310
CA8F58FD58F5391559735A73724FD020E605D23A302A63D51D777E406B52E1A07DEEA269E43DE0CF5AA5EB20F39CBB68152816D3C25BA3CDA41B7A863852AEC9FD9618F02122D529B15AD43C37AB34369DF0DF4C199306AC5C9D1E060AB72DBA5F9D0E85E1CDF2141F2578CD8E43146ED7A542B556C9B21F688431DBECD55F
310
C9C69978B05B3FC1755F16CBF7CC9C0E22B0C7D73F19BC680415D589223235FD6ECD9865E9E2FACB147D3667F9ABB3E5650A5D8EA7349114C65CEA820A5604ABB034B744C154AF7EBCFB22737CE2C91C5315DD5DE559960BFB7081F358824F44CEEA1E1F7C923B940D54B7D58BBB93997F7267DAD9B6C31EAD49413D5D0F61
310
A02E23B4083D6383453E6B4DD9C6E5542BA1377D79EDD8F08936406541CFBABBD5E72D07DEA33FA4685F311E5ECBF962477B6AA6C21A247AD1E13F504B0304140006080000635C3140000000000000000000000000350000006662782F46454241434630432D334639372D344146392D413739412D34393239384446413342
310
46382F76657274696365732E62696E504B0304140006080800635C3140F270F1330600000004000000360000006662782F46454241434630432D334639372D344146392D413739412D3439323938444641334246382F747269616E676C65732E62696E636660600000504B0304140006080000635C31400000000000000000
310
00000000370000006662782F46454241434630432D334639372D344146392D413739412D3439323938444641334246382F617474726962757465732E62696E504B0304140006080800635C3140D5987DFC8F00000041010000360000006662782F46454241434630432D334639372D344146392D413739412D343932393844
310
4641334246382F6469726563746F72792E786D6C858F410EC2201045AF4266AF15DDB800BA74E7C21B903225242D6328188F2FA5C4183471359997F9FF81E89FF3C41E1816475E02DF1F80A11FC8386F25A438EECEC07A250251FC3803E6F58C12560C4AD840E95E91C151A72936F496F35732D860FE635F62C8F2DA16B505
310
C545B74125BAA2FA9E05D7CC053D063734D5C7665FD55B6B8D15D5E9BFEAFD8490FFA45E504B0304140006080800635C3140069B052CFD000000A00100003B0000006662782F46454241434630432D334639372D344146392D413739412D3439323938444641334246382F7265736F75726365732F636F72652E786D6C8D50
310
4B6E833010BD0A9ABDC1268586C83802929CA017B0CC24B1126CE44FD5E3D7042AB5BB6E6646EFA3797AFCF8353DB34F745E5BD302CB296468941DB5B9B510C395EC213B0AEEAC0DBF64901939610B0B0C82DF9C8DF306296B029A90506347DC40E93D06C8D4331D2D7875C749E63286A4F08F7C96EA216F98B33CD14927B8
310
0F2E05C8D627CB04E1D0DBE8147A5EACACE031EA71D3E831FDD4578D0E445F36E7E6746908BBF43579EB868174437522E7FD65DFF455CD3AD6F062310B1EF4F493513994014710256525A18CB0F70FC60EBBEA406B42EB03A5BC58E47F4C711EFF698ADA845DB9C55D6D1E044B415E84E0C5D2575AAF32D35EBA15DF504B01
310
0214000A0000080000635C31403DEE336E79000000790000001B00000000000000000000000000000000006175746F6465736B2D64657369676E2D7061636B6167652E786D6C504B01021400140006080800635C3140D486FD9CA0000000F40000001300000000000000000000000000B20000005B436F6E74656E745F5479
310
7065735D2E786D6C504B01021400140006080800635C3140BB5266EDEB0000007C010000080000000000000000000000000083010000636F72652E786D6C504B01021400140006080800635C314055019EA25F0000007C000000070000000000000000000000000094020000636E782E786D6C504B01021400140006080800
310
635C3140D453BC4267010000020300000C00000000000000000000000000180300006662782F636F72652E786D6C504B01021400140006080800635C3140D77060D27D0000009D0000000B00000000000000000000000000A90400006662782F636E782E786D6C504B01021400140006080800635C3140D8AF9A532C010000
310
1402000031000000000000000000000000004F0500006662782F46454241434630432D334639372D344146392D413739412D3439323938444641334246382F636F72652E786D6C504B01021400140006080800635C3140F0CBF2A955010000330300003000000000000000000000000000CA0600006662782F464542414346
310
30432D334639372D344146392D413739412D3439323938444641334246382F636E782E786D6C504B01021400140006080800635C3140B05D7F445C070000941B000034000000000000000000000000006D0800006662782F46454241434630432D334639372D344146392D413739412D3439323938444641334246382F6F62
310
6A656374732E786D6C504B01021400140006080000635C314000000000000000000000000035000000000000000000000000001B1000006662782F46454241434630432D334639372D344146392D413739412D3439323938444641334246382F76657274696365732E62696E504B01021400140006080800635C3140F270F1
310
33060000000400000036000000000000000000000000006E1000006662782F46454241434630432D334639372D344146392D413739412D3439323938444641334246382F747269616E676C65732E62696E504B01021400140006080000635C31400000000000000000000000003700000000000000000000000000C8100000
310
6662782F46454241434630432D334639372D344146392D413739412D3439323938444641334246382F617474726962757465732E62696E504B01021400140006080800635C3140D5987DFC8F0000004101000036000000000000000000000000001D1100006662782F46454241434630432D334639372D344146392D413739
310
412D3439323938444641334246382F6469726563746F72792E786D6C504B01021400140006080800635C3140069B052CFD000000A00100003B00000000000000000000000000001200006662782F46454241434630432D334639372D344146392D413739412D3439323938444641334246382F7265736F75726365732F636F
310
72652E786D6C504B0506000000000E000E0080040000561300000000
  0
XRECORD
  5
17
102
{ACAD_REACTORS
330
12
102
}
330
12
100
AcDbXrecord
280
     1
270
     1
271
     1
  0
XRECORD
  5
16
102
{ACAD_REACTORS
330
12
102
}
330
12
100
AcDbXrecord
280
     1
270
     1
271
     1
  0
XRECORD
  5
18
102
{ACAD_REACTORS
330
12
102
}
330
12
100
AcDbXrecord
280
     1
270
     1
271
     1
  0
XRECORD
  5
15
102
{ACAD_REACTORS
330
12
102
}
330
12
100
AcDbXrecord
280
     1
270
     1
271
     1
  0
XRECORD
  5
CF1
102
{ACAD_REACTORS
330
22
102
}
330
22
100
AcDbXrecord
280
     1
102
MATERIAL
148
0.0
149
0.0
149
0.0
 93
        0
 94
      127
282
     0
 72
     0
 77
     0
171
     0
175
     0
179
     0
273
     0
  0
XRECORD
  5
24
102
{ACAD_REACTORS
330
22
102
}
330
22
100
AcDbXrecord
280
     1
270
     1
271
     1
  0
XRECORD
  5
23
102
{ACAD_REACTORS
330
22
102
}
330
22
100
AcDbXrecord
280
     1
270
     1
271
     1
  0
XRECORD
  5
11B
102
{ACAD_REACTORS
330
22
102
}
330
22
100
AcDbXrecord
280
     1
 70
     1
 90
1959938040
 71
     1
  1
DE55FFB4-C2CA-49A8-B9B7-E8B8A564115E
311
504B03040A0000080000635C31403DEE336E79000000790000001B0000006175746F6465736B2D64657369676E2D7061636B6167652E786D6C3C3F786D6C2076657273696F6E3D22312E302220656E636F64696E673D227574662D3822203F3E3C666F726D6174733E3C666F726D61743E687474703A2F2F736368656D612E
311
6175746F6465736B2E636F6D2F64657369676E2D7061636B6167652F323030393C2F666F726D61743E3C2F666F726D6174733E504B0304140006080800635C3140D486FD9CA0000000F4000000130000005B436F6E74656E745F54797065735D2E786D6C7D8EC10E82300C865F65E91D8A1E8C310C0EEA1BF002731658846E
311
D98AC1B77784ABF1D8FE5FBFBF75BBCE937A534CCEB38643598122B6FEE978D0B0485F9C41B54DDD7D022595594E1A469170414C76A4D9A4D207E29CF43ECE46F218070CC6BECC4078ACAA135ACF422C856C0E68EA1BF5669944DDD7BCDE7B1F8E415D77AECB980613C2E4AC91FC167A2B244592486606FC29C8FD7F045B9A
311
EF7053A7E60B504B0304140006080800635C31405B6A3350E90000007C01000008000000636F72652E786D6C8D90416EC3201045AF82668F0D063BAE858912C93D412F8080A428315806AA1EBF3871A476D7D58CFEFC3733FAE2F83DDFD1975DA30B7E045A1140D6EB609CBF8E90D305F7808E52AC21A45F36405ECD76844D
311
0629AE6BC8CB2EE9E093F5A9A83E18BB8B2A469B00E97B694688FAD3CEAA52391547BC558BD23775B5157D7505CED919F43CE24CD9E72ECEAE20F9F4C65BCA7BCCCECD1973DE1DF0E99D4CB867537BE28C4FA467A2DE6029929B5FF7F56A55B2066443688309C5F4F041E9C0DA817498740321A2DEEC7FA0BC987F42D9F9C4
311
9AFDDD271641D2F2C8632045BD6551CA23A852B7DCE40F504B0304140006080800635C314055019EA25F0000007C00000007000000636E782E786D6C4DCB3B0E80201045D1AD90E915ED2CF8AC45050C11660C8261F98AB1B07AC9C97D42D718D865D3E909258CFD00CCE24AC6E326A164D74DC0B4128928FF326038472BA1
311
3128B1252AC747C6BAB984FC68F0B87FE8960A5C09FE86CFB69FBA01504B0304140006080800635C31400263420265010000020300000C0000006662782F636F72652E786D6C8D52ED8E8320107C15C27F04D47E5C83346DE23DC1BD0055EA992A1804D3C7BFF5A3F17A699A8B0992999DDDD95171BCB70D1AB4EB6B6B32CC
311
23869136852D6B536538F82BD9637494C259EB7F95616454AB333CC2588ACAD9D02D50618DD7C6036A6CA91750F5BDF618150D5C32DC17DFBA55910A1E2AFA5BD4A9E2A62A1DF10868A893A2F70E0CA079C8786279BDDC059D712942A8CB85AD4B98565F6BEDB04CF38F74C3D33D49CEF199A4E976474E9F2C27FB24DF9CD2
311
24CDD93E1174144BE1EBF6E1AE705A795D6219331E13C609DF7D717E483607B6256C7B604CD0B1FC4914BAF29FA2501B9FC48BDD59D663C9C1C844FCD91622F2A85703F8A152D03144784D093F070D8140C85E5D9AC71E3780065D78EB52604A1B566A504DD03095A1E9117466A1F3D400367BD9277ED3E77D0FF880CA5460
311
4D79B85E821FA78B79EA1245A71D19FC1D19EB5AD5ACE6668BEBB90E7A292F6C63DD7FD47459952E61D2F1EF953F504B0304140006080800635C3140C90736877E0000009D0000000B0000006662782F636E782E786D6C4DCCD10E82201886E15B61FF391941621BE0C0E83E5CA2632134C2D6E5A7CD838EBEEDD9B757B49F
311
39A0B7CB2F9FA20472380272F19E061F27094B197103A85522A754FE6E80623F3B091B8312534ECB73A7C18DFD12CAAAC1C7C78E566BDBDCA8C1A4361C334E29D6E4C470DD916B67D9D95CB8854A89EA575A770BAB2F504B0304140006080800635C31400F9ED5152B01000014020000310000006662782F45414145384633
311
422D313642372D343733332D413132342D3643314443453435423937452F636F72652E786D6C8D51CB6EC32010FC158B537AC0063F93081325A9FB05FD0107888B1283C5A3CAE7775D3B527BCB8545B333B3A35D76788CF7E45B39AFAD69114D094A9411566A33B428862BDEA2E4C099B336FCA1A1C4F4A36AD10C23CE0667
311
E3B442C29AA04C00D458A956B0F75E0594883B7C5AE4C5971AFBB48F0118FE964EBDB8F5834A690A6DE071E6838300C932647E11EF8EC76EFB519C30AD4F0D2E9BA2C0479A97B83ED3F7735756A75DD3B16C117216A396AB5C4B88A3AF5AB9574D663167418FCFF8C2A93E2889784E688E09C5B4F9A4745F547B526352EF09
311
61D94CFF278A937C5114B50945BEC65D641E71CAB2A5C199B4F1727F86518FC9BA90CCF3365E8937C4494A72D254F50E240B1516009E75B97AFA601D2C7873BB009B568B715D7296CD3782F27B40A8F33DF90F504B0304140006080800635C3140966C3DBE4D01000033030000300000006662782F45414145384633422D31
311
3642372D343733332D413132342D3643314443453435423937452F636E782E786D6CD593CD6E022114855F85B09F1FD44E1BC360D2459FA08B6E11AE4A6560C24F53DFBE1745EBC64597DD90C9B987736EBE307CF33D59F205211AEF46CADA9E1270CA6BE3F623CD69D7BC50B2113C789FEE6C943839C1488B4C05DF079FE7
311
2A69D8C96C13AAD6B8631503449F83828872B949AC57D26200B826A308D316B4064D6E46FCDA41C05550DC9E483A00797BFD207EFB092A45DE9514C1BBD22178396BD39D891265658C238DEA00936C654E5E433CB65A26D9B2F6DAF560A7DF24522E5C2B7330A4948FB49C54D48D5AE4C83B1C0A1E53407AD5944E335021E7
311
D91A251342EECEC68B47F06C5C1A56D56B107C40371B96AB15869D678227334175A8003281A662D1B345D3B3863DBF33B65E3EADFBA1E98775DFF3AED805DF7A6FEB258C81E067A2BC4BE012158C7765FC085FF5116D02B2F6E1F4079008A0B65EE8DC32FE339FEEFCBE1157C0BF40FC00504B0304140006080800635C3140
311
A648EBDD9B0500007A100000340000006662782F45414145384633422D313642372D343733332D413132342D3643314443453435423937452F6F626A656374732E786D6CAD57DB6EDB3810FD1541FBEC8B7C699385A2C297A4308AB4418D16FB10C0A0244AE1861205924A9DFDFA3D94285972EDD4BBE88B6551C3E1CC9933
311
17FA1FF619775EA8544CE437AE371CBB0ECD2311B33CBD714B9D0CAE5CE743E04B217447CC757292D11BD72CBB819F4A51167629A60929B93E5ABD5BFEE5A888E6D475224E94BA7155F444333224A5163155CFC39868324C93FDD01BD6827DB5A924C5D391D282489A6B588AF51C5A9CDA28AFFF3A7647813F32DF03DFFC5A
311
A9E979A951E54FFF7C962B4DF2E8A7C38ED44CBDD9FA7632BF1ECC67B3E960F66EE20D9677CBF5C07B3F1DAFDEAD56D78BDB6B1CACB484266B89A4891B7C04369245FEA8FE14F825CBF57462456C804692BE3013293798389E3FAA655AEFAC93A7CC8F449ED3A8C20A6854FE59D5312D681E23E68C2A58D64168DC7FF50C8E
311
9DCF53F36E8FEC2E5F864077474751637BF3EC5A2AC2BFE182BA84415251C3C01A4BEB68CDD5F101E150086EBF31E5644453C90877380B2591AF6E00512312F83D3586C9D26483F1C00D1085FA739F2E48A35FF3FC949549C9B9A1B11B5459B043AE50AD2ACBD83F541EACEF22039B102BC3862BEB907E2DA81B5CD714B93A
311
62530DA493709222E470D3EC9C4E8E1C5D993CDDACDDE0D35DB8DF9ADC3D7D78214541A536F401B59AC0354F8392B5C9BB287266837B64CA0194AF40FE3352FD600AE226D97EB69FD953B424B94A84CC101B67EC0CC6F8193B5EF56BFE77FEF9A376733F7AE7F044B00D54BF01CFBE0FDD5876E00CFC17105EC8A9756D1B11
311
8EB271CF72006448E2708125D4E124DCBBC106550E5519BB080F3CB80C735FF0D71F59352814D5499D670E2C8FCAE205051AB0558C841935F9AD818738FD54CEAA83ADD83978E7BF85AE8BF5F6D3B6940989E8BDCDE9354D58CE345ADC81375D837A98F73C7AA6AF3F848CE1E8CF786FBB7867F62805B40DE606F8B4A9E9E6
311
E57072EF8008FB5261CA8DFF8B13E08469AC1DFDF74C45947392535136E7BED93FD0366A884DB21B26B70DE6D058409AFACB510EA24947921506C4B65BB5457378C6BB6F9BCF6024E4B908093F088587D21B092EE42E7CDDD555E924D2DFFBD4B6108C8C16B0BDCA9126FD2DE6BB982549A950034FC0FA7DB3EA86CE540554
311
88466B9D2C33B88FDC22D272B6D18B662D091AA9C8770C6D136977F280AE7E206A0950293C67B1A23CD931CECB6C97308E66B4CB4871068EFF6F7F5866C58E64A2CCF519DD3DD3D11CFAB6F7C8AB7E101D3DB9C1B67A0E9628BD318D0F61EE099B567202AB5E68D7B7F3F9DDDD7236584D568BC1EC7A7135585E2FDF0F6EAF
311
96578BF9BB99E7CD6F9B38D5CA03BFE934DD844694D0D9FC52321BBE6F1BA48FAD016E704FB47AFC586767F3FCB6196214F647D88376D96E5CC42F18FB68FC6B0507C9938A3659C16946734D4C0ADD9B3FFC2BC198D133A65EDF6424A51768F9F2717BE40C562ED8F760D29DFE38DA6B575726214F2AD14F6516E684F1A38D
311
698DE4B0C8538B5F1393F659F799E6D5BCD9C060305582B318653076522A32AA510C2FE84132A30AD4EB8EF4B1BD7A5CB0FBA51E103509396D2C79229891B9425A805A65A4FBEBCE1F98E9CC5875E3A2DB0E9FF1632B85EB8033372E6674CD22AA8621FAB399842AE5E0527790C7DC4FF29463D4AE37B5EFED2E834DAF23B7
311
22978C4FD6AFBA825B0750460A8C0D9887109DCA98C0AF6CB3DFA3FFE478638E4334FE86A56E7D392CB4CE54C720456BA7EC650133CCB33D7A8F447DDB2D6F58C9F410B9E892F526096AAD034D645A5D148C7DD6A4C5FA618401C5D97C710A5EA688E5E59A069282CCA54970B008ACB03A0BA241D5D59F8F0F52E0229B3977
311
0C14785C892C13B97D59D88BB0B37DC2B5367E4459A0E63EA21E27636FF258DD03ECD564171245872456CF58404C256B21EE051E8CAC2F8BE840F587566E648270C4CDCDDAB12D6D06A59628DDAA6A60C1C4915307D963EE922657BA02C59B578151250A132486F8E05F504B0304140006080000635C314000000000000000
311
0000000000350000006662782F45414145384633422D313642372D343733332D413132342D3643314443453435423937452F76657274696365732E62696E504B0304140006080800635C3140F270F1330600000004000000360000006662782F45414145384633422D313642372D343733332D413132342D36433144434534
311
35423937452F747269616E676C65732E62696E636660600000504B0304140006080000635C3140000000000000000000000000370000006662782F45414145384633422D313642372D343733332D413132342D3643314443453435423937452F617474726962757465732E62696E504B0304140006080800635C3140D5987D
311
FC8F00000041010000360000006662782F45414145384633422D313642372D343733332D413132342D3643314443453435423937452F6469726563746F72792E786D6C858F410EC2201045AF4266AF15DDB800BA74E7C21B903225242D6328188F2FA5C4183471359997F9FF81E89FF3C41E1816475E02DF1F80A11FC8386F
311
25A438EECEC07A250251FC3803E6F58C12560C4AD840E95E91C151A72936F496F35732D860FE635F62C8F2DA16B505C545B74125BAA2FA9E05D7CC053D063734D5C7665FD55B6B8D15D5E9BFEAFD8490FFA45E504B0304140006080800635C3140AB0BA720FC000000A00100003B0000006662782F45414145384633422D31
311
3642372D343733332D413132342D3643314443453435423937452F7265736F75726365732F636F72652E786D6C8D504B6AC33010BD8A99BD6CC95212D7C80A09B827E805843C49446229E8537AFCCAB10BEDAE9B99E17D98C793C7AFF9517D6288D6BB01584DA14267FC64DD75809C2EA483EAA864F03EFD9241E5F48C032C
311
3028790D3E3F37C87897D0A5823A3FE106EA183141651EE518209A1BCEBAD6391545BCD74F6DEEFA8A35AB0B5D744AC6144A806A7DB24C5001A3CFC16094CDCA2A99B39D368D9DCA4F7BB1184089F14DEC9838107E6ECF4488FD819CDEE9483A3EEE4E828B91765C368B59C964E79F8C26A04E38816A296B0965841D3E18EB
311
F9AEA77B42F73DA5B259E47F4CF939FDD394AD4BBCDDE2AEB6088A95202F42C966E9ABAC5799652FDDAA6F504B010214000A0000080000635C31403DEE336E79000000790000001B00000000000000000000000000000000006175746F6465736B2D64657369676E2D7061636B6167652E786D6C504B010214001400060808
311
00635C3140D486FD9CA0000000F40000001300000000000000000000000000B20000005B436F6E74656E745F54797065735D2E786D6C504B01021400140006080800635C31405B6A3350E90000007C010000080000000000000000000000000083010000636F72652E786D6C504B01021400140006080800635C314055019E
311
A25F0000007C000000070000000000000000000000000092020000636E782E786D6C504B01021400140006080800635C31400263420265010000020300000C00000000000000000000000000160300006662782F636F72652E786D6C504B01021400140006080800635C3140C90736877E0000009D0000000B000000000000
311
00000000000000A50400006662782F636E782E786D6C504B01021400140006080800635C31400F9ED5152B0100001402000031000000000000000000000000004C0500006662782F45414145384633422D313642372D343733332D413132342D3643314443453435423937452F636F72652E786D6C504B0102140014000608
311
0800635C3140966C3DBE4D010000330300003000000000000000000000000000C60600006662782F45414145384633422D313642372D343733332D413132342D3643314443453435423937452F636E782E786D6C504B01021400140006080800635C3140A648EBDD9B0500007A100000340000000000000000000000000061
311
0800006662782F45414145384633422D313642372D343733332D413132342D3643314443453435423937452F6F626A656374732E786D6C504B01021400140006080000635C314000000000000000000000000035000000000000000000000000004E0E00006662782F45414145384633422D313642372D343733332D413132
311
342D3643314443453435423937452F76657274696365732E62696E504B01021400140006080800635C3140F270F13306000000040000003600000000000000000000000000A10E00006662782F45414145384633422D313642372D343733332D413132342D3643314443453435423937452F747269616E676C65732E62696E
311
504B01021400140006080000635C31400000000000000000000000003700000000000000000000000000FB0E00006662782F45414145384633422D313642372D343733332D413132342D3643314443453435423937452F617474726962757465732E62696E504B01021400140006080800635C3140D5987DFC8F0000004101
311
00003600000000000000000000000000500F00006662782F45414145384633422D313642372D343733332D413132342D3643314443453435423937452F6469726563746F72792E786D6C504B01021400140006080800635C3140AB0BA720FC000000A00100003B00000000000000000000000000331000006662782F454141
311
45384633422D313642372D343733332D413132342D3643314443453435423937452F7265736F75726365732F636F72652E786D6C504B0506000000000E000E0080040000881100000000
310
504B03040A0000080000635C31403DEE336E79000000790000001B0000006175746F6465736B2D64657369676E2D7061636B6167652E786D6C3C3F786D6C2076657273696F6E3D22312E302220656E636F64696E673D227574662D3822203F3E3C666F726D6174733E3C666F726D61743E687474703A2F2F736368656D612E
310
6175746F6465736B2E636F6D2F64657369676E2D7061636B6167652F323030393C2F666F726D61743E3C2F666F726D6174733E504B0304140006080800635C3140D486FD9CA0000000F4000000130000005B436F6E74656E745F54797065735D2E786D6C7D8EC10E82300C865F65E91D8A1E8C310C0EEA1BF002731658846E
310
D98AC1B77784ABF1D8FE5FBFBF75BBCE937A534CCEB38643598122B6FEE978D0B0485F9C41B54DDD7D022595594E1A469170414C76A4D9A4D207E29CF43ECE46F218070CC6BECC4078ACAA135ACF422C856C0E68EA1BF5669944DDD7BCDE7B1F8E415D77AECB980613C2E4AC91FC167A2B244592486606FC29C8FD7F045B9A
310
EF7053A7E60B504B0304140006080800635C31401F7C40C1E90000007C01000008000000636F72652E786D6C8D904D6EC3201085AF82D863F363E3C8C244B29B1BF40208888B12836520EAF18B13476A775DCDE8CDFB66464F9CBF973B78D82DBAE007482A0C81F53A18E7E701E674452708CE526C21A45F3608BC5AEC0077
310
194A316F21AF87A4834FD6A7A2FA60EC21AA186D8240DF4B33C0A8BFECA22A955371C45BB52A7D53B3ADC8BB2B70CECE80D71167CA3E777576839277BC6B26CAD0C4E9881ADCB668BC7C8C08E3899E186F18631751EFB014C92DEFFB7AB32A590325C584224C10E93E09E959DB638E30EF3116F56EFF03E5D5FC13CACE2746
310
8F775F58849294479E0329EA3D8B529E4195BAE7267F00504B0304140006080800635C314055019EA25F0000007C00000007000000636E782E786D6C4DCB3B0E80201045D1AD90E915ED2CF8AC45050C11660C8261F98AB1B07AC9C97D42D718D865D3E909258CFD00CCE24AC6E326A164D74DC0B4128928FF326038472BA1
310
3128B1252AC747C6BAB984FC68F0B87FE8960A5C09FE86CFB69FBA01504B0304140006080800635C3140E204C88465010000020300000C0000006662782F636F72652E786D6C8D52ED8E8320107C15C27F043F6A9B0669D25EDFE05E802AF548150C82E9E3DFFAD178BD344D63826466677776941FEE6D8306E57A6D4D81E3
310
8861A44C692B6DEA02077F253B8C0E823B6BFD9F328C8C6C558147180B5E3B1BBA052AADF1CA78408DADD402CABE571EA3B2814B81FBF247B53292C143457F8B3A59DE64ADA238021AEA04EFBD0303681E329E585C2F774E675CF01074B5B0BA8269FAAA95C322DFE6DBEC94A4E494274792B1CD861CCF5F47C2D829D9A579
310
96A6E999D3512CB8D7EDC35DE994F4AAC222617142584CE2ED771CEFD3CD9EE584E57BC6381DCB9F44A1AB3E14056D7C9A2C7667598F450C4626E2DFB6109147BD1CC00F159C8E21C26B4AF83968080442F6F2D23CF6B80134A8D25B970153D9B052836C8282A90C4D0FA7330B9DA706B0D9CB3EC99B3EEF7BC00794A6066B
310
D2C3F512FC389DCF5397283AE5C8E0EFC858D7CA6635375B5CCF75D04B79691BEB3E51D36555BA8449C7BF57FC02504B0304140006080800635C314036E4E5E97E0000009D0000000B0000006662782F636E782E786D6C4DCCD10E82201886E15B61FF392964191BE024EC3E5CA263213404D7E5A7CD838EBEEDD9B797379F
310
D9A1D5C4C5062F809C4A40C63FC360FD2420A711DF003592C710D2DF0D90EF67236067907C8A21BF0F1ACCD867973675D6BF0EBC9F755BB26B85356335AE087BE0B6630A2BD251ADE845D15A432179F12B6DBB87E517504B0304140006080800635C3140CD3B7C2F2B01000014020000310000006662782F43334441303936
310
342D443939372D343139462D414539422D4231453244423235423237442F636F72652E786D6C8D51CB6EC32010FC158B537AC006FC8A234C14D7E917F407884D5C94182C1E553EBF503B527BCB8545B333B3A35D7A7CCCF7E45B182BB56A014E1148841AF428D5D402EFAE700F9223A3466BF7870612C567D18208034627A3
310
FDB24183564E281750A547B181DC5AE14032DCC3A70576F812334FB97781616FE9C2871B9F448AD3D00E3C46AD332140B20E892F60EF797F424D55C0BE696A58E0E6039ECE4D073B7C267D47CA8ED43DCD5621A3DECB7193CB31C4915729CCAB2651CCA893F333FE60047762048C204C20C210D79F181FF2F2802A88AA0342
310
348BF47F22BF8C2F8ABC542E275BDC556601C3345B1B8C8EDA5FEECF30E2B168E392386F67C5F006184A1121655DEF4B9AADD4B080E059159BA775DA8405EF6E97C0CE37E3AA60348B370AE5F780A1C67BB21F504B0304140006080800635C3140F0CBF2A95501000033030000300000006662782F43334441303936342D44
310
3939372D343139462D414539422D4231453244423235423237442F636E782E786D6CBD93CD6EC32010845F0571F70F49EA461126520F7D821E7AC5B04968305880ABE6EDBB2424CD25874A552FC89A1D66569F30DF7E8D967C4288C6BB9EB2BAA5049CF2DAB87D4FE7B4ABD6946C050FDEA73B1B254E8ED0D32C53C1F7C1CF
310
539134ECE46C13AAD6B8631103443F070511E57C9358AFA4C50070D58C228C03680D9ADC8CF8B58380ABA0389C483A00797D79277EF80095226F728AE04DEE103C9FA5E9CE4489B232C69E46758051D6724E5E433CD65A2659B3FADAF560A79F24922F5C2BE760482EEF693EA9281BD5C8913738143CA680F48A299D26A042
310
4E93354A2684DC9C8D178FE0B371A95B15AF41F001DDCB45B75E63D8792678322314870A2013682A162D5B542DABD8F31B639BE5D3A6EDAAB6DBB42D6FB25DF0C17B5B2E610C043F11E55D0297A860BCC9E347F88A8F681390B50FA75F804400A5F542E796F1977C58B75CADFE914F737EDF882BE05F20BE01504B03041400
310
06080800635C3140B390D7CD59070000931B0000340000006662782F43334441303936342D443939372D343139462D414539422D4231453244423235423237442F6F626A656374732E786D6CED595B6FA33814FE2B887D0E09B974DA1565944B3B8A569D194D7646FB100939E0106F8D41B6E9657FFD1E1B43808696EC74DF
310
E621018C7D7CCE77AE3E781F9F126A3D602E48CAAE6DD719D91666611A11165FDBB9DC0F2E6DEBA3EFF13495B569B6C55082AF6D356CFB5ECCD33C334311DEA39CCAD6E8EDE22F4B849861DB0A2912E2DA16E10127C841B94C232CEE9D0849E4C4FB27C7758A894DB23147D9A14534431C33099CC238032A56C194DB7C1CD9
310
43DF1BAAF7BEA7FECDAC49AF59D3EE59432D75934BC284442C7CC1528BCCA4174B1377BABA19CFAE06B3E97432985E8CDDC1E276B11AB81F26A3E5C5727935BFB902F676694A8D4C11CE308B407FCFB6EF7A43F5A612DD20708AEB30650C871A48804A8BD52648B080AD6AF08D9A8FAE92A8F65A4B587B9EAAF78685DAF0A4
310
49A56B563F201A744110B35D297179ADCB97EEFE06C1451FA3E4024BE056480EDA35F070F00ADB1F79C362D4F776475D10612548624E10B528D971C4412930554DF1BD628121A39C8303294B49A03557BC6EDA1678E6DBAE738ACB7D4EA9F20CDBD78E1580FB61293467E41FCC8FDCD791019E40DA9C307969B894CF19B6FD
310
2B6FA8077D4F5D2663F3B200D2DA53140B8D48F1B625E852B9FE7A65FB7FDCEE9E362A1C9CDE3CE36986B95446A7F4A8F9024336578592D9D6EDA539B500842940352B8FA07C03E43F43F438B2027AE3E469FA34357325474CEC539E806EAC913518C1DFC872F5BFBAAFDD79C36A71537B5D78829B2AA82E7F1ECFA60C1A2B
310
C37F0D4EDF7B00834FF9C4BCDA8488823DDF1106002923B1680A4310DAF7BB27DB5F43E084400FAB10F55D1019D87D805B6F68C81CB552BA97F13A06889A3D267D9404B0698B04363AF4F409B20727E1514D7511BBE09DBD8BB9CE579B3F3639DFA310DF199F5EE13D614442D63CCD5003F38644F7F8F931E51108FA12EF4D
310
1DEFC46C25006D85B9023E2E41500FC79D1B1B84B02E4E55B8F1DED8018450B9BA46FF8E8810538A184EF372DF2ABA2943AD3CDED40CB63F2E209E8C5B26CCF10351550538CD71468351C8FB21279902D1F63F15925541D3E990EEFBFA33586435BF63D69A41E86588FEA983D6091C1A965D226D80A804DE1DC37998D29407
310
BBE7A0887436D412C046D35B7E348842AC2F94A4A8800769BF2B434A5C481B4464BFCF05C4D5132CFE582FEBE6307226EECCAAFFB79C710AD1167C1771E377AD3D0292A018077B14756D57DFADA22D34C90ED21CEF29C8451E887C0E900C46118ECF81E62CE257EF4A3DA6A910846101F9EA24F87534460E0492429B25CB4A
310
AB2DA08908122C113D070145A6035C9D76748D1B42E9F0368F95F5BEA6B13AD1FFC92238825A32650181521472C89B8CBBCE0C624813DD02E516BE606D256D2D06CDA184089F83474CE2833C07F5827C07EE211C497219A4190AC1AC7B907DE12B4AA92DDE7728BC57F9230873FA5E062230DD0784D23C09E047189C3CFAB8
310
7615985E45A146BC887D122750942199F33E9B5CCC462FF6296A867608AC6DB42714C27690A0AC03F54640D4F58855816FA877287597275980923467BD0CC599B4BDC9906FAB5591EDC9AF2A15A16C2C091B82BE4798ACB26A19B3C1D475600537D281EA391028C968710A7B23F1B8953769CA9D1B70E3A7EFBB4102855F87
310
F6EA11755AC260786C1406E211C9F060FB1B7D1D2CA0FE8E70744CF565AD59AF00013115C9734E8C8ABEAFA1BC31359AEDDF2129B69F8AAC5B5EBFAF1DE87E78435803B54BB570AD804E309348552677EA867E4310821B348AF1B5CAA9E750994791AE1A11BD255DEA6C94118D4D13E26407CCD2047E6C4B5848F3086F5124
310
EE833B49830D51AC1B299D849418BF2AE0974F9B163C30D243A4AFAAC0C38FADB56674A9CAA59344E4214F760C1108820DD1E242374EC662A39152CBD5559D29A0EE0203332A9EFE3A59D4DB11BF4E16B1318C9F3B59D07487E831DAD4B279A8CCFAAC5340959E1495F73805E8AE4345B54A22452E37E21B5F0A20269641BE
310
773156C68C826017C7FF39697725C162BB16FFE7256DF745C1715652694C564DAA1385EBBA9EC25637B3D9EDED623A588E97F3C1F46A7E39585C2D3E0C6E2E1797F3D9C5D4756737159ADA4F7DAF8A653A75C17311D3CA61F5643080A6AC482989E0301F593186902FE148DFA37BCE132C2077D67BDD91E9C9F758FD50B439
310
25DA515C727240D01FA602B23A609487B2396EFD069D4909E7EC6B1B7A46CE3DFC19ABB42D483CD736740A2409B17076D06552FD3C4D1C32AE4EFD8618E08358AC3262B1A87AAE56296C1AD1BF9AD2270B18B91A2D0CA8DB32687E351A149A37C3537896E0253B169270BBCB25146B852CC7814A18BDCD51FD856C94B07BB3
310
F513B8EEEB62B98E9ED340A4D71783578DA0A03A9088C7BADDAD18332CCD575F87D066B3D65FAC8CE631E8B23FA501C760CCB9AAA7C08AC02A0CCD0C4930D5E5EFDBAF3C852F3C89A58BA2ED324D92949987391CC722F842646D0EF0BD27DA42D58055575D6CC72377BCD5DD6CD3600F764860479543305056114A8496B181
310
45BEE84C99BEE55029A1357DBDB24CF89C01516DB52F9ABBC5D72D0BBC477D4751BEA23DBC94F3D586F6504F056BE0D08AF6FF05504B0304140006080000635C3140000000000000000000000000350000006662782F43334441303936342D443939372D343139462D414539422D4231453244423235423237442F76657274
310
696365732E62696E504B0304140006080800635C3140F270F1330600000004000000360000006662782F43334441303936342D443939372D343139462D414539422D4231453244423235423237442F747269616E676C65732E62696E636660600000504B0304140006080000635C3140000000000000000000000000370000
310
006662782F43334441303936342D443939372D343139462D414539422D4231453244423235423237442F617474726962757465732E62696E504B0304140006080800635C3140D5987DFC8F00000041010000360000006662782F43334441303936342D443939372D343139462D414539422D4231453244423235423237442F
310
6469726563746F72792E786D6C858F410EC2201045AF4266AF15DDB800BA74E7C21B903225242D6328188F2FA5C4183471359997F9FF81E89FF3C41E1816475E02DF1F80A11FC8386F25A438EECEC07A250251FC3803E6F58C12560C4AD840E95E91C151A72936F496F35732D860FE635F62C8F2DA16B505C545B74125BAA2
310
FA9E05D7CC053D063734D5C7665FD55B6B8D15D5E9BFEAFD8490FFA45E504B0304140006080800635C31400CD76E59FB000000A00100003B0000006662782F43334441303936342D443939372D343139462D414539422D4231453244423235423237442F7265736F75726365732F636F72652E786D6C8D50596AC33010BD8A
310
997FD992BC85202B603737E805843C494562C968293D7EE5D885F6AF3F33C35B98C71397AFE5597CA20FC6D9015849A140ABDD6CEC7D80146FE404C5450AEF5CFC2583C2AA0507D86090E2EE5D5A0F483B1BD1C68C5A37E301AA103042A19FF91820E80F5C54A952CC8AF02857A51FEA8E252B339D755284E87380627FB24D
310
901E834B5E6310D5CE4A9192990F8D99F34F7333E841767DD73713E764EAF8481ADAB664BCBE8D84D2899FEAAEA9EBFA2AAACD2C4534CB4F46ED51459C4172CA38A18CB0FE9DB173DD9E69476877A654549BFC8F29ADF33F4DC9D858F323EE6E0B20590EF222A4A8B6BEF27A9599F7D6ADFC06504B010214000A0000080000
310
635C31403DEE336E79000000790000001B00000000000000000000000000000000006175746F6465736B2D64657369676E2D7061636B6167652E786D6C504B01021400140006080800635C3140D486FD9CA0000000F40000001300000000000000000000000000B20000005B436F6E74656E745F54797065735D2E786D6C50
310
4B01021400140006080800635C31401F7C40C1E90000007C010000080000000000000000000000000083010000636F72652E786D6C504B01021400140006080800635C314055019EA25F0000007C000000070000000000000000000000000092020000636E782E786D6C504B01021400140006080800635C3140E204C88465
310
010000020300000C00000000000000000000000000160300006662782F636F72652E786D6C504B01021400140006080800635C314036E4E5E97E0000009D0000000B00000000000000000000000000A50400006662782F636E782E786D6C504B01021400140006080800635C3140CD3B7C2F2B010000140200003100000000
310
0000000000000000004C0500006662782F43334441303936342D443939372D343139462D414539422D4231453244423235423237442F636F72652E786D6C504B01021400140006080800635C3140F0CBF2A955010000330300003000000000000000000000000000C60600006662782F43334441303936342D443939372D34
310
3139462D414539422D4231453244423235423237442F636E782E786D6C504B01021400140006080800635C3140B390D7CD59070000931B00003400000000000000000000000000690800006662782F43334441303936342D443939372D343139462D414539422D4231453244423235423237442F6F626A656374732E786D6C
310
504B01021400140006080000635C31400000000000000000000000003500000000000000000000000000141000006662782F43334441303936342D443939372D343139462D414539422D4231453244423235423237442F76657274696365732E62696E504B01021400140006080800635C3140F270F1330600000004000000
310
3600000000000000000000000000671000006662782F43334441303936342D443939372D343139462D414539422D4231453244423235423237442F747269616E676C65732E62696E504B01021400140006080000635C31400000000000000000000000003700000000000000000000000000C11000006662782F4333444130
310
3936342D443939372D343139462D414539422D4231453244423235423237442F617474726962757465732E62696E504B01021400140006080800635C3140D5987DFC8F000000410100003600000000000000000000000000161100006662782F43334441303936342D443939372D343139462D414539422D42314532444232
310
35423237442F6469726563746F72792E786D6C504B01021400140006080800635C31400CD76E59FB000000A00100003B00000000000000000000000000F91100006662782F43334441303936342D443939372D343139462D414539422D4231453244423235423237442F7265736F75726365732F636F72652E786D6C504B05
310
06000000000E000E00800400004D1300000000
  0
XRECORD
  5
27
102
{ACAD_REACTORS
330
22
102
}
330
22
100
AcDbXrecord
280
     1
270
     1
271
     1
  0
XRECORD
  5
26
102
{ACAD_REACTORS
330
22
102
}
330
22
100
AcDbXrecord
280
     1
270
     1
271
     1
  0
XRECORD
  5
28
102
{ACAD_REACTORS
330
22
102
}
330
22
100
AcDbXrecord
280
     1
270
     1
271
     1
  0
XRECORD
  5
25
102
{ACAD_REACTORS
330
22
102
}
330
22
100
AcDbXrecord
280
     1
270
     1
271
     1
  0
XRECORD
  5
CEC
102
{ACAD_REACTORS
330
CEB
102
}
330
CEB
100
AcDbXrecord
280
     1
102
ACAD_ROUNDTRIP_2012_MLEADER_STYLE
298
     1
  0
CELLSTYLEMAP
  5
CEA
102
{ACAD_REACTORS
330
CE9
102
}
330
CE9
100
AcDbCellStyleMap
 90
        3
300
CELLSTYLE
  1
TABLEFORMAT_BEGIN
 90
        5
170
     1
 91
        0
 92
    32768
 62
   257
 93
        1
300
CONTENTFORMAT
  1
CONTENTFORMAT_BEGIN
 90
        0
 91
        0
 92
      512
 93
        0
300

 40
0.0
140
1.0
 94
        5
 62
     0
340
55
144
0.25
309
CONTENTFORMAT_END
171
     0
 94
        0
309
TABLEFORMAT_END
  1
CELLSTYLE_BEGIN
 90
        1
 91
        1
300
_TITLE
309
CELLSTYLE_END
300
CELLSTYLE
  1
TABLEFORMAT_BEGIN
 90
        5
170
     1
 91
        0
 92
        0
 62
   257
 93
        1
300
CONTENTFORMAT
  1
CONTENTFORMAT_BEGIN
 90
        0
 91
        0
 92
      512
 93
        0
300

 40
0.0
140
1.0
 94
        5
 62
     0
340
55
144
0.18
309
CONTENTFORMAT_END
171
     0
 94
        0
309
TABLEFORMAT_END
  1
CELLSTYLE_BEGIN
 90
        2
 91
        1
300
_HEADER
309
CELLSTYLE_END
300
CELLSTYLE
  1
TABLEFORMAT_BEGIN
 90
        5
170
     1
 91
        0
 92
        0
 62
   257
 93
        1
300
CONTENTFORMAT
  1
CONTENTFORMAT_BEGIN
 90
        0
 91
        0
 92
      512
 93
        0
300

 40
0.0
140
1.0
 94
        2
 62
     0
340
55
144
0.18
309
CONTENTFORMAT_END
171
     0
 94
        0
309
TABLEFORMAT_END
  1
CELLSTYLE_BEGIN
 90
        3
 91
        2
300
_DATA
309
CELLSTYLE_END
  0
XRECORD
  5
D22
102
{ACAD_REACTORS
330
CE9
102
}
330
CE9
100
AcDbXrecord
280
     1
102
ACAD_ROUNDTRIP_PRE2007_TABLESTYLE
 90
      512
 91
        0
  1

 92
      512
 93
        0
  2

 94
      512
 95
        0
  3

  0
XRECORD
  5
CFD
102
{ACAD_REACTORS
330
CFC
102
}
330
CFC
100
AcDbXrecord
280
     1
102
RTVSPropertyOp0
 70
     1
102
RTVSPropertyOp1
 70
     1
102
RTVSPropertyOp2
 70
     1
102
RTVSPropertyOp3
 70
     1
102
RTVSPropertyOp4
 70
     1
102
RTVSPropertyOp5
 70
     1
102
RTVSPropertyOp6
 70
     1
102
RTVSPropertyOp7
 70
     1
102
RTVSPropertyOp8
 70
     1
102
RTVSPropertyOp9
 70
     1
102
RTVSPropertyOp10
 70
     1
102
RTVSPropertyOp11
 70
     1
102
RTVSPropertyOp12
 70
     1
102
RTVSPropertyOp13
 70
     1
102
RTVSPropertyOp14
 70
     1
102
RTVSPropertyOp15
 70
     1
102
RTVSPropertyOp16
 70
     1
102
RTVSPropertyOp17
 70
     1
102
RTVSPropertyOp18
 70
     1
102
RTVSPropertyOp19
 70
     1
102
RTVSPropertyOp20
 70
     1
102
RTVSPropertyOp21
 70
     1
102
RTVSPropertyOp22
 70
     1
102
RTVSPropertyOp23
 70
     1
102
RTVSPropertyOp24
 70
     1
102
RTVSPropertyOp25
 70
     1
102
RTVSPropertyOp26
 70
     1
102
RTVSPropertyOp27
 70
     1
102
RTVSPropertyOp28
 70
     1
102
RTVSPropertyOp29
 70
     1
102
RTVSPropertyOp30
 70
     1
102
RTVSPropertyOp31
 70
     1
102
RTVSPropertyOp32
 70
     1
  0
XRECORD
  5
CFB
102
{ACAD_REACTORS
330
CFA
102
}
330
CFA
100
AcDbXrecord
280
     1
102
RTVSPropertyOp0
 70
     1
102
RTVSPropertyOp1
 70
     1
102
RTVSPropertyOp2
 70
     1
102
RTVSPropertyOp3
 70
     1
102
RTVSPropertyOp4
 70
     1
102
RTVSPropertyOp5
 70
     1
102
RTVSPropertyOp6
 70
     1
102
RTVSPropertyOp7
 70
     1
102
RTVSPropertyOp8
 70
     1
102
RTVSPropertyOp9
 70
     1
102
RTVSPropertyOp10
 70
     1
102
RTVSPropertyOp11
 70
     1
102
RTVSPropertyOp12
 70
     1
102
RTVSPropertyOp13
 70
     1
102
RTVSPropertyOp14
 70
     1
102
RTVSPropertyOp15
 70
     1
102
RTVSPropertyOp16
 70
     1
102
RTVSPropertyOp17
 70
     1
102
RTVSPropertyOp18
 70
     1
102
RTVSPropertyOp19
 70
     1
102
RTVSPropertyOp20
 70
     1
102
RTVSPropertyOp21
 70
     1
102
RTVSPropertyOp22
 70
     1
102
RTVSPropertyOp23
 70
     1
102
RTVSPropertyOp24
 70
     1
102
RTVSPropertyOp25
 70
     1
102
RTVSPropertyOp26
 70
     1
102
RTVSPropertyOp27
 70
     1
102
RTVSPropertyOp28
 70
     1
102
RTVSPropertyOp29
 70
     1
102
RTVSPropertyOp30
 70
     1
102
RTVSPropertyOp31
 70
     1
102
RTVSPropertyOp32
 70
     1
  0
XRECORD
  5
D09
102
{ACAD_REACTORS
330
D08
102
}
330
D08
100
AcDbXrecord
280
     1
102
RTVSPropertyOp0
 70
     1
102
RTVSPropertyOp1
 70
     1
102
RTVSPropertyOp2
 70
     1
102
RTVSPropertyOp3
 70
     1
102
RTVSPropertyOp4
 70
     1
102
RTVSPropertyOp5
 70
     1
102
RTVSPropertyOp6
 70
     1
102
RTVSPropertyOp7
 70
     1
102
RTVSPropertyOp8
 70
     1
102
RTVSPropertyOp9
 70
     1
102
RTVSPropertyOp10
 70
     1
102
RTVSPropertyOp11
 70
     1
102
RTVSPropertyOp12
 70
     1
102
RTVSPropertyOp13
 70
     1
102
RTVSPropertyOp14
 70
     1
102
RTVSPropertyOp15
 70
     1
102
RTVSPropertyOp16
 70
     1
102
RTVSPropertyOp17
 70
     1
102
RTVSPropertyOp18
 70
     1
102
RTVSPropertyOp19
 70
     1
102
RTVSPropertyOp20
 70
     1
102
RTVSPropertyOp21
 70
     1
102
RTVSPropertyOp22
 70
     1
102
RTVSPropertyOp23
 70
     1
102
RTVSPropertyOp24
 70
     1
102
RTVSPropertyOp25
 70
     1
102
RTVSPropertyOp26
 70
     1
102
RTVSPropertyOp27
 70
     1
102
RTVSPropertyOp28
 70
     1
102
RTVSPropertyOp29
 70
     1
102
RTVSPropertyOp30
 70
     1
102
RTVSPropertyOp31
 70
     1
102
RTVSPropertyOp32
 70
     1
  0
XRECORD
  5
D11
102
{ACAD_REACTORS
330
D10
102
}
330
D10
100
AcDbXrecord
280
     1
102
RTVSPropertyOp0
 70
     1
102
RTVSPropertyOp1
 70
     1
102
RTVSPropertyOp2
 70
     1
102
RTVSPropertyOp3
 70
     1
102
RTVSPropertyOp4
 70
     1
102
RTVSPropertyOp5
 70
     1
102
RTVSPropertyOp6
 70
     1
102
RTVSPropertyOp7
 70
     1
102
RTVSPropertyOp8
 70
     1
102
RTVSPropertyOp9
 70
     1
102
RTVSPropertyOp10
 70
     1
102
RTVSPropertyOp11
 70
     1
102
RTVSPropertyOp12
 70
     1
102
RTVSPropertyOp13
 70
     1
102
RTVSPropertyOp14
 70
     1
102
RTVSPropertyOp15
 70
     1
102
RTVSPropertyOp16
 70
     1
102
RTVSPropertyOp17
 70
     1
102
RTVSPropertyOp18
 70
     1
102
RTVSPropertyOp19
 70
     1
102
RTVSPropertyOp20
 70
     1
102
RTVSPropertyOp21
 70
     1
102
RTVSPropertyOp22
 70
     1
102
RTVSPropertyOp23
 70
     1
102
RTVSPropertyOp24
 70
     1
102
RTVSPropertyOp25
 70
     1
102
RTVSPropertyOp26
 70
     1
102
RTVSPropertyOp27
 70
     1
102
RTVSPropertyOp28
 70
     1
102
RTVSPropertyOp29
 70
     1
102
RTVSPropertyOp30
 70
     1
102
RTVSPropertyOp31
 70
     1
102
RTVSPropertyOp32
 70
     1
  0
XRECORD
  5
D03
102
{ACAD_REACTORS
330
D02
102
}
330
D02
100
AcDbXrecord
280
     1
102
RTVSPropertyOp0
 70
     1
102
RTVSPropertyOp1
 70
     1
102
RTVSPropertyOp2
 70
     1
102
RTVSPropertyOp3
 70
     1
102
RTVSPropertyOp4
 70
     1
102
RTVSPropertyOp5
 70
     1
102
RTVSPropertyOp6
 70
     1
102
RTVSPropertyOp7
 70
     1
102
RTVSPropertyOp8
 70
     1
102
RTVSPropertyOp9
 70
     1
102
RTVSPropertyOp10
 70
     1
102
RTVSPropertyOp11
 70
     1
102
RTVSPropertyOp12
 70
     1
102
RTVSPropertyOp13
 70
     1
102
RTVSPropertyOp14
 70
     1
102
RTVSPropertyOp15
 70
     1
102
RTVSPropertyOp16
 70
     1
102
RTVSPropertyOp17
 70
     1
102
RTVSPropertyOp18
 70
     1
102
RTVSPropertyOp19
 70
     1
102
RTVSPropertyOp20
 70
     1
102
RTVSPropertyOp21
 70
     1
102
RTVSPropertyOp22
 70
     1
102
RTVSPropertyOp23
 70
     1
102
RTVSPropertyOp24
 70
     1
102
RTVSPropertyOp25
 70
     1
102
RTVSPropertyOp26
 70
     1
102
RTVSPropertyOp27
 70
     1
102
RTVSPropertyOp28
 70
     1
102
RTVSPropertyOp29
 70
     1
102
RTVSPropertyOp30
 70
     1
102
RTVSPropertyOp31
 70
     1
102
RTVSPropertyOp32
 70
     1
  0
XRECORD
  5
D07
102
{ACAD_REACTORS
330
D06
102
}
330
D06
100
AcDbXrecord
280
     1
102
RTVSPropertyOp0
 70
     1
102
RTVSPropertyOp1
 70
     1
102
RTVSPropertyOp2
 70
     1
102
RTVSPropertyOp3
 70
     1
102
RTVSPropertyOp4
 70
     1
102
RTVSPropertyOp5
 70
     1
102
RTVSPropertyOp6
 70
     1
102
RTVSPropertyOp7
 70
     1
102
RTVSPropertyOp8
 70
     1
102
RTVSPropertyOp9
 70
     1
102
RTVSPropertyOp10
 70
     1
102
RTVSPropertyOp11
 70
     1
102
RTVSPropertyOp12
 70
     1
102
RTVSPropertyOp13
 70
     1
102
RTVSPropertyOp14
 70
     1
102
RTVSPropertyOp15
 70
     1
102
RTVSPropertyOp16
 70
     1
102
RTVSPropertyOp17
 70
     1
102
RTVSPropertyOp18
 70
     1
102
RTVSPropertyOp19
 70
     1
102
RTVSPropertyOp20
 70
     1
102
RTVSPropertyOp21
 70
     1
102
RTVSPropertyOp22
 70
     1
102
RTVSPropertyOp23
 70
     1
102
RTVSPropertyOp24
 70
     1
102
RTVSPropertyOp25
 70
     1
102
RTVSPropertyOp26
 70
     1
102
RTVSPropertyOp27
 70
     1
102
RTVSPropertyOp28
 70
     1
102
RTVSPropertyOp29
 70
     1
102
RTVSPropertyOp30
 70
     1
102
RTVSPropertyOp31
 70
     1
102
RTVSPropertyOp32
 70
     1
  0
XRECORD
  5
D21
102
{ACAD_REACTORS
330
D20
102
}
330
D20
100
AcDbXrecord
280
     1
102
RTVSPropertyOp0
 70
     0
102
RTVSPropertyOp1
 70
     0
102
RTVSPropertyOp2
 70
     0
102
RTVSPropertyOp3
 70
     0
102
RTVSPropertyOp4
 70
     0
102
RTVSPropertyOp5
 70
     0
102
RTVSPropertyOp6
 70
     0
102
RTVSPropertyOp7
 70
     0
102
RTVSPropertyOp8
 70
     0
102
RTVSPropertyOp9
 70
     0
102
RTVSPropertyOp10
 70
     0
102
RTVSPropertyOp11
 70
     0
102
RTVSPropertyOp12
 70
     0
102
RTVSPropertyOp13
 70
     0
102
RTVSPropertyOp14
 70
     2
102
RTVSPropertyOp15
 70
     0
102
RTVSPropertyOp16
 70
     0
102
RTVSPropertyOp17
 70
     0
102
RTVSPropertyOp18
 70
     0
102
RTVSPropertyOp19
 70
     0
102
RTVSPropertyOp20
 70
     0
102
RTVSPropertyOp21
 70
     0
102
RTVSPropertyOp22
 70
     0
102
RTVSPropertyOp23
 70
     0
102
RTVSPropertyOp24
 70
     0
102
RTVSPropertyOp25
 70
     0
102
RTVSPropertyOp26
 70
     0
102
RTVSPropertyOp27
 70
     0
102
RTVSPropertyOp28
 70
     1
102
RTVSPropertyOp29
 70
     1
102
RTVSPropertyOp30
 70
     1
102
RTVSPropertyOp31
 70
     1
102
RTVSPropertyOp32
 70
     1
  0
XRECORD
  5
D0F
102
{ACAD_REACTORS
330
D0E
102
}
330
D0E
100
AcDbXrecord
280
     1
102
RTVSPropertyOp0
 70
     1
102
RTVSPropertyOp1
 70
     1
102
RTVSPropertyOp2
 70
     1
102
RTVSPropertyOp3
 70
     1
102
RTVSPropertyOp4
 70
     1
102
RTVSPropertyOp5
 70
     1
102
RTVSPropertyOp6
 70
     1
102
RTVSPropertyOp7
 70
     1
102
RTVSPropertyOp8
 70
     1
102
RTVSPropertyOp9
 70
     1
102
RTVSPropertyOp10
 70
     1
102
RTVSPropertyOp11
 70
     1
102
RTVSPropertyOp12
 70
     1
102
RTVSPropertyOp13
 70
     1
102
RTVSPropertyOp14
 70
     1
102
RTVSPropertyOp15
 70
     1
102
RTVSPropertyOp16
 70
     1
102
RTVSPropertyOp17
 70
     1
102
RTVSPropertyOp18
 70
     1
102
RTVSPropertyOp19
 70
     1
102
RTVSPropertyOp20
 70
     1
102
RTVSPropertyOp21
 70
     1
102
RTVSPropertyOp22
 70
     1
102
RTVSPropertyOp23
 70
     1
102
RTVSPropertyOp24
 70
     1
102
RTVSPropertyOp25
 70
     1
102
RTVSPropertyOp26
 70
     1
102
RTVSPropertyOp27
 70
     1
102
RTVSPropertyOp28
 70
     1
102
RTVSPropertyOp29
 70
     1
102
RTVSPropertyOp30
 70
     1
102
RTVSPropertyOp31
 70
     1
102
RTVSPropertyOp32
 70
     1
  0
XRECORD
  5
CF3
102
{ACAD_REACTORS
330
CF2
102
}
330
CF2
100
AcDbXrecord
280
     1
102
RTVSPropertyOp0
 70
     1
102
RTVSPropertyOp1
 70
     1
102
RTVSPropertyOp2
 70
     1
102
RTVSPropertyOp3
 70
     1
102
RTVSPropertyOp4
 70
     1
102
RTVSPropertyOp5
 70
     1
102
RTVSPropertyOp6
 70
     1
102
RTVSPropertyOp7
 70
     1
102
RTVSPropertyOp8
 70
     1
102
RTVSPropertyOp9
 70
     1
102
RTVSPropertyOp10
 70
     1
102
RTVSPropertyOp11
 70
     1
102
RTVSPropertyOp12
 70
     1
102
RTVSPropertyOp13
 70
     1
102
RTVSPropertyOp14
 70
     1
102
RTVSPropertyOp15
 70
     1
102
RTVSPropertyOp16
 70
     1
102
RTVSPropertyOp17
 70
     1
102
RTVSPropertyOp18
 70
     1
102
RTVSPropertyOp19
 70
     1
102
RTVSPropertyOp20
 70
     1
102
RTVSPropertyOp21
 70
     1
102
RTVSPropertyOp22
 70
     1
102
RTVSPropertyOp23
 70
     1
102
RTVSPropertyOp24
 70
     1
102
RTVSPropertyOp25
 70
     1
102
RTVSPropertyOp26
 70
     1
102
RTVSPropertyOp27
 70
     1
102
RTVSPropertyOp28
 70
     1
102
RTVSPropertyOp29
 70
     1
102
RTVSPropertyOp30
 70
     1
102
RTVSPropertyOp31
 70
     1
102
RTVSPropertyOp32
 70
     1
  0
XRECORD
  5
CF5
102
{ACAD_REACTORS
330
CF4
102
}
330
CF4
100
AcDbXrecord
280
     1
102
RTVSPropertyOp0
 70
     1
102
RTVSPropertyOp1
 70
     1
102
RTVSPropertyOp2
 70
     1
102
RTVSPropertyOp3
 70
     1
102
RTVSPropertyOp4
 70
     1
102
RTVSPropertyOp5
 70
     1
102
RTVSPropertyOp6
 70
     1
102
RTVSPropertyOp7
 70
     1
102
RTVSPropertyOp8
 70
     1
102
RTVSPropertyOp9
 70
     1
102
RTVSPropertyOp10
 70
     1
102
RTVSPropertyOp11
 70
     1
102
RTVSPropertyOp12
 70
     1
102
RTVSPropertyOp13
 70
     1
102
RTVSPropertyOp14
 70
     1
102
RTVSPropertyOp15
 70
     1
102
RTVSPropertyOp16
 70
     1
102
RTVSPropertyOp17
 70
     1
102
RTVSPropertyOp18
 70
     1
102
RTVSPropertyOp19
 70
     1
102
RTVSPropertyOp20
 70
     1
102
RTVSPropertyOp21
 70
     1
102
RTVSPropertyOp22
 70
     1
102
RTVSPropertyOp23
 70
     1
102
RTVSPropertyOp24
 70
     1
102
RTVSPropertyOp25
 70
     1
102
RTVSPropertyOp26
 70
     1
102
RTVSPropertyOp27
 70
     1
102
RTVSPropertyOp28
 70
     1
102
RTVSPropertyOp29
 70
     1
102
RTVSPropertyOp30
 70
     1
102
RTVSPropertyOp31
 70
     1
102
RTVSPropertyOp32
 70
     1
  0
XRECORD
  5
CF7
102
{ACAD_REACTORS
330
CF6
102
}
330
CF6
100
AcDbXrecord
280
     1
102
RTVSPropertyOp0
 70
     1
102
RTVSPropertyOp1
 70
     1
102
RTVSPropertyOp2
 70
     1
102
RTVSPropertyOp3
 70
     1
102
RTVSPropertyOp4
 70
     1
102
RTVSPropertyOp5
 70
     1
102
RTVSPropertyOp6
 70
     1
102
RTVSPropertyOp7
 70
     1
102
RTVSPropertyOp8
 70
     1
102
RTVSPropertyOp9
 70
     1
102
RTVSPropertyOp10
 70
     1
102
RTVSPropertyOp11
 70
     1
102
RTVSPropertyOp12
 70
     1
102
RTVSPropertyOp13
 70
     1
102
RTVSPropertyOp14
 70
     1
102
RTVSPropertyOp15
 70
     1
102
RTVSPropertyOp16
 70
     1
102
RTVSPropertyOp17
 70
     1
102
RTVSPropertyOp18
 70
     1
102
RTVSPropertyOp19
 70
     1
102
RTVSPropertyOp20
 70
     1
102
RTVSPropertyOp21
 70
     1
102
RTVSPropertyOp22
 70
     1
102
RTVSPropertyOp23
 70
     1
102
RTVSPropertyOp24
 70
     1
102
RTVSPropertyOp25
 70
     1
102
RTVSPropertyOp26
 70
     1
102
RTVSPropertyOp27
 70
     1
102
RTVSPropertyOp28
 70
     1
102
RTVSPropertyOp29
 70
     1
102
RTVSPropertyOp30
 70
     1
102
RTVSPropertyOp31
 70
     1
102
RTVSPropertyOp32
 70
     1
  0
XRECORD
  5
CF9
102
{ACAD_REACTORS
330
CF8
102
}
330
CF8
100
AcDbXrecord
280
     1
102
RTVSPropertyOp0
 70
     1
102
RTVSPropertyOp1
 70
     1
102
RTVSPropertyOp2
 70
     1
102
RTVSPropertyOp3
 70
     1
102
RTVSPropertyOp4
 70
     1
102
RTVSPropertyOp5
 70
     1
102
RTVSPropertyOp6
 70
     1
102
RTVSPropertyOp7
 70
     1
102
RTVSPropertyOp8
 70
     1
102
RTVSPropertyOp9
 70
     1
102
RTVSPropertyOp10
 70
     1
102
RTVSPropertyOp11
 70
     1
102
RTVSPropertyOp12
 70
     1
102
RTVSPropertyOp13
 70
     1
102
RTVSPropertyOp14
 70
     1
102
RTVSPropertyOp15
 70
     1
102
RTVSPropertyOp16
 70
     1
102
RTVSPropertyOp17
 70
     1
102
RTVSPropertyOp18
 70
     1
102
RTVSPropertyOp19
 70
     1
102
RTVSPropertyOp20
 70
     1
102
RTVSPropertyOp21
 70
     1
102
RTVSPropertyOp22
 70
     1
102
RTVSPropertyOp23
 70
     1
102
RTVSPropertyOp24
 70
     1
102
RTVSPropertyOp25
 70
     1
102
RTVSPropertyOp26
 70
     1
102
RTVSPropertyOp27
 70
     1
102
RTVSPropertyOp28
 70
     1
102
RTVSPropertyOp29
 70
     1
102
RTVSPropertyOp30
 70
     1
102
RTVSPropertyOp31
 70
     1
102
RTVSPropertyOp32
 70
     1
  0
XRECORD
  5
D01
102
{ACAD_REACTORS
330
D00
102
}
330
D00
100
AcDbXrecord
280
     1
102
RTVSPropertyOp0
 70
     1
102
RTVSPropertyOp1
 70
     1
102
RTVSPropertyOp2
 70
     1
102
RTVSPropertyOp3
 70
     1
102
RTVSPropertyOp4
 70
     1
102
RTVSPropertyOp5
 70
     1
102
RTVSPropertyOp6
 70
     1
102
RTVSPropertyOp7
 70
     1
102
RTVSPropertyOp8
 70
     1
102
RTVSPropertyOp9
 70
     1
102
RTVSPropertyOp10
 70
     1
102
RTVSPropertyOp11
 70
     1
102
RTVSPropertyOp12
 70
     1
102
RTVSPropertyOp13
 70
     1
102
RTVSPropertyOp14
 70
     1
102
RTVSPropertyOp15
 70
     1
102
RTVSPropertyOp16
 70
     1
102
RTVSPropertyOp17
 70
     1
102
RTVSPropertyOp18
 70
     1
102
RTVSPropertyOp19
 70
     1
102
RTVSPropertyOp20
 70
     1
102
RTVSPropertyOp21
 70
     1
102
RTVSPropertyOp22
 70
     1
102
RTVSPropertyOp23
 70
     1
102
RTVSPropertyOp24
 70
     1
102
RTVSPropertyOp25
 70
     1
102
RTVSPropertyOp26
 70
     1
102
RTVSPropertyOp27
 70
     1
102
RTVSPropertyOp28
 70
     1
102
RTVSPropertyOp29
 70
     1
102
RTVSPropertyOp30
 70
     1
102
RTVSPropertyOp31
 70
     1
102
RTVSPropertyOp32
 70
     1
  0
XRECORD
  5
D1D
102
{ACAD_REACTORS
330
D1C
102
}
330
D1C
100
AcDbXrecord
280
     1
102
RTVSPropertyOp0
 70
     0
102
RTVSPropertyOp1
 70
     0
102
RTVSPropertyOp2
 70
     0
102
RTVSPropertyOp3
 70
     0
102
RTVSPropertyOp4
 70
     0
102
RTVSPropertyOp5
 70
     0
102
RTVSPropertyOp6
 70
     0
102
RTVSPropertyOp7
 70
     0
102
RTVSPropertyOp8
 70
     0
102
RTVSPropertyOp9
 70
     0
102
RTVSPropertyOp10
 70
     0
102
RTVSPropertyOp11
 70
     0
102
RTVSPropertyOp12
 70
     0
102
RTVSPropertyOp13
 70
     0
102
RTVSPropertyOp14
 70
     2
102
RTVSPropertyOp15
 70
     0
102
RTVSPropertyOp16
 70
     0
102
RTVSPropertyOp17
 70
     0
102
RTVSPropertyOp18
 70
     0
102
RTVSPropertyOp19
 70
     0
102
RTVSPropertyOp20
 70
     0
102
RTVSPropertyOp21
 70
     0
102
RTVSPropertyOp22
 70
     0
102
RTVSPropertyOp23
 70
     0
102
RTVSPropertyOp24
 70
     0
102
RTVSPropertyOp25
 70
     0
102
RTVSPropertyOp26
 70
     0
102
RTVSPropertyOp27
 70
     0
102
RTVSPropertyOp28
 70
     1
102
RTVSPropertyOp29
 70
     1
102
RTVSPropertyOp30
 70
     1
102
RTVSPropertyOp31
 70
     1
102
RTVSPropertyOp32
 70
     1
  0
XRECORD
  5
D0D
102
{ACAD_REACTORS
330
D0C
102
}
330
D0C
100
AcDbXrecord
280
     1
102
RTVSPropertyOp0
 70
     1
102
RTVSPropertyOp1
 70
     1
102
RTVSPropertyOp2
 70
     1
102
RTVSPropertyOp3
 70
     1
102
RTVSPropertyOp4
 70
     1
102
RTVSPropertyOp5
 70
     1
102
RTVSPropertyOp6
 70
     1
102
RTVSPropertyOp7
 70
     1
102
RTVSPropertyOp8
 70
     1
102
RTVSPropertyOp9
 70
     1
102
RTVSPropertyOp10
 70
     1
102
RTVSPropertyOp11
 70
     1
102
RTVSPropertyOp12
 70
     1
102
RTVSPropertyOp13
 70
     1
102
RTVSPropertyOp14
 70
     1
102
RTVSPropertyOp15
 70
     1
102
RTVSPropertyOp16
 70
     1
102
RTVSPropertyOp17
 70
     1
102
RTVSPropertyOp18
 70
     1
102
RTVSPropertyOp19
 70
     1
102
RTVSPropertyOp20
 70
     1
102
RTVSPropertyOp21
 70
     1
102
RTVSPropertyOp22
 70
     1
102
RTVSPropertyOp23
 70
     1
102
RTVSPropertyOp24
 70
     1
102
RTVSPropertyOp25
 70
     1
102
RTVSPropertyOp26
 70
     1
102
RTVSPropertyOp27
 70
     1
102
RTVSPropertyOp28
 70
     1
102
RTVSPropertyOp29
 70
     1
102
RTVSPropertyOp30
 70
     1
102
RTVSPropertyOp31
 70
     1
102
RTVSPropertyOp32
 70
     1
  0
XRECORD
  5
D1F
102
{ACAD_REACTORS
330
D1E
102
}
330
D1E
100
AcDbXrecord
280
     1
102
RTVSPropertyOp0
 70
     0
102
RTVSPropertyOp1
 70
     0
102
RTVSPropertyOp2
 70
     0
102
RTVSPropertyOp3
 70
     0
102
RTVSPropertyOp4
 70
     0
102
RTVSPropertyOp5
 70
     0
102
RTVSPropertyOp6
 70
     0
102
RTVSPropertyOp7
 70
     0
102
RTVSPropertyOp8
 70
     0
102
RTVSPropertyOp9
 70
     0
102
RTVSPropertyOp10
 70
     0
102
RTVSPropertyOp11
 70
     0
102
RTVSPropertyOp12
 70
     0
102
RTVSPropertyOp13
 70
     0
102
RTVSPropertyOp14
 70
     2
102
RTVSPropertyOp15
 70
     0
102
RTVSPropertyOp16
 70
     0
102
RTVSPropertyOp17
 70
     0
102
RTVSPropertyOp18
 70
     0
102
RTVSPropertyOp19
 70
     0
102
RTVSPropertyOp20
 70
     0
102
RTVSPropertyOp21
 70
     0
102
RTVSPropertyOp22
 70
     0
102
RTVSPropertyOp23
 70
     0
102
RTVSPropertyOp24
 70
     0
102
RTVSPropertyOp25
 70
     0
102
RTVSPropertyOp26
 70
     0
102
RTVSPropertyOp27
 70
     0
102
RTVSPropertyOp28
 70
     1
102
RTVSPropertyOp29
 70
     1
102
RTVSPropertyOp30
 70
     1
102
RTVSPropertyOp31
 70
     1
102
RTVSPropertyOp32
 70
     1
  0
XRECORD
  5
D05
102
{ACAD_REACTORS
330
D04
102
}
330
D04
100
AcDbXrecord
280
     1
102
RTVSPropertyOp0
 70
     1
102
RTVSPropertyOp1
 70
     1
102
RTVSPropertyOp2
 70
     1
102
RTVSPropertyOp3
 70
     1
102
RTVSPropertyOp4
 70
     1
102
RTVSPropertyOp5
 70
     1
102
RTVSPropertyOp6
 70
     1
102
RTVSPropertyOp7
 70
     1
102
RTVSPropertyOp8
 70
     1
102
RTVSPropertyOp9
 70
     1
102
RTVSPropertyOp10
 70
     1
102
RTVSPropertyOp11
 70
     1
102
RTVSPropertyOp12
 70
     1
102
RTVSPropertyOp13
 70
     1
102
RTVSPropertyOp14
 70
     1
102
RTVSPropertyOp15
 70
     1
102
RTVSPropertyOp16
 70
     1
102
RTVSPropertyOp17
 70
     1
102
RTVSPropertyOp18
 70
     1
102
RTVSPropertyOp19
 70
     1
102
RTVSPropertyOp20
 70
     1
102
RTVSPropertyOp21
 70
     1
102
RTVSPropertyOp22
 70
     1
102
RTVSPropertyOp23
 70
     1
102
RTVSPropertyOp24
 70
     1
102
RTVSPropertyOp25
 70
     1
102
RTVSPropertyOp26
 70
     1
102
RTVSPropertyOp27
 70
     1
102
RTVSPropertyOp28
 70
     1
102
RTVSPropertyOp29
 70
     1
102
RTVSPropertyOp30
 70
     1
102
RTVSPropertyOp31
 70
     1
102
RTVSPropertyOp32
 70
     1
  0
XRECORD
  5
D1B
102
{ACAD_REACTORS
330
D1A
102
}
330
D1A
100
AcDbXrecord
280
     1
102
RTVSPropertyOp0
 70
     1
102
RTVSPropertyOp1
 70
     1
102
RTVSPropertyOp2
 70
     1
102
RTVSPropertyOp3
 70
     1
102
RTVSPropertyOp4
 70
     1
102
RTVSPropertyOp5
 70
     1
102
RTVSPropertyOp6
 70
     1
102
RTVSPropertyOp7
 70
     1
102
RTVSPropertyOp8
 70
     1
102
RTVSPropertyOp9
 70
     1
102
RTVSPropertyOp10
 70
     1
102
RTVSPropertyOp11
 70
     1
102
RTVSPropertyOp12
 70
     1
102
RTVSPropertyOp13
 70
     1
102
RTVSPropertyOp14
 70
     1
102
RTVSPropertyOp15
 70
     1
102
RTVSPropertyOp16
 70
     1
102
RTVSPropertyOp17
 70
     1
102
RTVSPropertyOp18
 70
     1
102
RTVSPropertyOp19
 70
     1
102
RTVSPropertyOp20
 70
     1
102
RTVSPropertyOp21
 70
     1
102
RTVSPropertyOp22
 70
     1
102
RTVSPropertyOp23
 70
     1
102
RTVSPropertyOp24
 70
     1
102
RTVSPropertyOp25
 70
     1
102
RTVSPropertyOp26
 70
     1
102
RTVSPropertyOp27
 70
     1
102
RTVSPropertyOp28
 70
     1
102
RTVSPropertyOp29
 70
     1
102
RTVSPropertyOp30
 70
     1
102
RTVSPropertyOp31
 70
     1
102
RTVSPropertyOp32
 70
     1
  0
XRECORD
  5
D19
102
{ACAD_REACTORS
330
D18
102
}
330
D18
100
AcDbXrecord
280
     1
102
RTVSPropertyOp0
 70
     1
102
RTVSPropertyOp1
 70
     1
102
RTVSPropertyOp2
 70
     1
102
RTVSPropertyOp3
 70
     1
102
RTVSPropertyOp4
 70
     1
102
RTVSPropertyOp5
 70
     1
102
RTVSPropertyOp6
 70
     1
102
RTVSPropertyOp7
 70
     1
102
RTVSPropertyOp8
 70
     1
102
RTVSPropertyOp9
 70
     1
102
RTVSPropertyOp10
 70
     1
102
RTVSPropertyOp11
 70
     1
102
RTVSPropertyOp12
 70
     1
102
RTVSPropertyOp13
 70
     1
102
RTVSPropertyOp14
 70
     1
102
RTVSPropertyOp15
 70
     1
102
RTVSPropertyOp16
 70
     1
102
RTVSPropertyOp17
 70
     1
102
RTVSPropertyOp18
 70
     1
102
RTVSPropertyOp19
 70
     1
102
RTVSPropertyOp20
 70
     1
102
RTVSPropertyOp21
 70
     1
102
RTVSPropertyOp22
 70
     1
102
RTVSPropertyOp23
 70
     1
102
RTVSPropertyOp24
 70
     1
102
RTVSPropertyOp25
 70
     1
102
RTVSPropertyOp26
 70
     1
102
RTVSPropertyOp27
 70
     1
102
RTVSPropertyOp28
 70
     1
102
RTVSPropertyOp29
 70
     1
102
RTVSPropertyOp30
 70
     1
102
RTVSPropertyOp31
 70
     1
102
RTVSPropertyOp32
 70
     1
  0
XRECORD
  5
D13
102
{ACAD_REACTORS
330
D12
102
}
330
D12
100
AcDbXrecord
280
     1
102
RTVSPropertyOp0
 70
     1
102
RTVSPropertyOp1
 70
     1
102
RTVSPropertyOp2
 70
     1
102
RTVSPropertyOp3
 70
     1
102
RTVSPropertyOp4
 70
     1
102
RTVSPropertyOp5
 70
     1
102
RTVSPropertyOp6
 70
     1
102
RTVSPropertyOp7
 70
     1
102
RTVSPropertyOp8
 70
     1
102
RTVSPropertyOp9
 70
     1
102
RTVSPropertyOp10
 70
     1
102
RTVSPropertyOp11
 70
     1
102
RTVSPropertyOp12
 70
     1
102
RTVSPropertyOp13
 70
     1
102
RTVSPropertyOp14
 70
     1
102
RTVSPropertyOp15
 70
     1
102
RTVSPropertyOp16
 70
     1
102
RTVSPropertyOp17
 70
     1
102
RTVSPropertyOp18
 70
     1
102
RTVSPropertyOp19
 70
     1
102
RTVSPropertyOp20
 70
     1
102
RTVSPropertyOp21
 70
     1
102
RTVSPropertyOp22
 70
     1
102
RTVSPropertyOp23
 70
     1
102
RTVSPropertyOp24
 70
     1
102
RTVSPropertyOp25
 70
     1
102
RTVSPropertyOp26
 70
     1
102
RTVSPropertyOp27
 70
     1
102
RTVSPropertyOp28
 70
     1
102
RTVSPropertyOp29
 70
     1
102
RTVSPropertyOp30
 70
     1
102
RTVSPropertyOp31
 70
     1
102
RTVSPropertyOp32
 70
     1
  0
XRECORD
  5
D15
102
{ACAD_REACTORS
330
D14
102
}
330
D14
100
AcDbXrecord
280
     1
102
RTVSPropertyOp0
 70
     1
102
RTVSPropertyOp1
 70
     1
102
RTVSPropertyOp2
 70
     1
102
RTVSPropertyOp3
 70
     1
102
RTVSPropertyOp4
 70
     1
102
RTVSPropertyOp5
 70
     1
102
RTVSPropertyOp6
 70
     1
102
RTVSPropertyOp7
 70
     1
102
RTVSPropertyOp8
 70
     1
102
RTVSPropertyOp9
 70
     1
102
RTVSPropertyOp10
 70
     1
102
RTVSPropertyOp11
 70
     1
102
RTVSPropertyOp12
 70
     1
102
RTVSPropertyOp13
 70
     1
102
RTVSPropertyOp14
 70
     1
102
RTVSPropertyOp15
 70
     1
102
RTVSPropertyOp16
 70
     1
102
RTVSPropertyOp17
 70
     1
102
RTVSPropertyOp18
 70
     1
102
RTVSPropertyOp19
 70
     1
102
RTVSPropertyOp20
 70
     1
102
RTVSPropertyOp21
 70
     1
102
RTVSPropertyOp22
 70
     1
102
RTVSPropertyOp23
 70
     1
102
RTVSPropertyOp24
 70
     1
102
RTVSPropertyOp25
 70
     1
102
RTVSPropertyOp26
 70
     1
102
RTVSPropertyOp27
 70
     1
102
RTVSPropertyOp28
 70
     1
102
RTVSPropertyOp29
 70
     1
102
RTVSPropertyOp30
 70
     1
102
RTVSPropertyOp31
 70
     1
102
RTVSPropertyOp32
 70
     1
  0
XRECORD
  5
D0B
102
{ACAD_REACTORS
330
D0A
102
}
330
D0A
100
AcDbXrecord
280
     1
102
RTVSPropertyOp0
 70
     1
102
RTVSPropertyOp1
 70
     1
102
RTVSPropertyOp2
 70
     1
102
RTVSPropertyOp3
 70
     1
102
RTVSPropertyOp4
 70
     1
102
RTVSPropertyOp5
 70
     1
102
RTVSPropertyOp6
 70
     1
102
RTVSPropertyOp7
 70
     1
102
RTVSPropertyOp8
 70
     1
102
RTVSPropertyOp9
 70
     1
102
RTVSPropertyOp10
 70
     1
102
RTVSPropertyOp11
 70
     1
102
RTVSPropertyOp12
 70
     1
102
RTVSPropertyOp13
 70
     1
102
RTVSPropertyOp14
 70
     1
102
RTVSPropertyOp15
 70
     1
102
RTVSPropertyOp16
 70
     1
102
RTVSPropertyOp17
 70
     1
102
RTVSPropertyOp18
 70
     1
102
RTVSPropertyOp19
 70
     1
102
RTVSPropertyOp20
 70
     1
102
RTVSPropertyOp21
 70
     1
102
RTVSPropertyOp22
 70
     1
102
RTVSPropertyOp23
 70
     1
102
RTVSPropertyOp24
 70
     1
102
RTVSPropertyOp25
 70
     1
102
RTVSPropertyOp26
 70
     1
102
RTVSPropertyOp27
 70
     1
102
RTVSPropertyOp28
 70
     1
102
RTVSPropertyOp29
 70
     1
102
RTVSPropertyOp30
 70
     1
102
RTVSPropertyOp31
 70
     1
102
RTVSPropertyOp32
 70
     1
  0
XRECORD
  5
CFF
102
{ACAD_REACTORS
330
CFE
102
}
330
CFE
100
AcDbXrecord
280
     1
102
RTVSPropertyOp0
 70
     1
102
RTVSPropertyOp1
 70
     1
102
RTVSPropertyOp2
 70
     1
102
RTVSPropertyOp3
 70
     1
102
RTVSPropertyOp4
 70
     1
102
RTVSPropertyOp5
 70
     1
102
RTVSPropertyOp6
 70
     1
102
RTVSPropertyOp7
 70
     1
102
RTVSPropertyOp8
 70
     1
102
RTVSPropertyOp9
 70
     1
102
RTVSPropertyOp10
 70
     1
102
RTVSPropertyOp11
 70
     1
102
RTVSPropertyOp12
 70
     1
102
RTVSPropertyOp13
 70
     1
102
RTVSPropertyOp14
 70
     1
102
RTVSPropertyOp15
 70
     1
102
RTVSPropertyOp16
 70
     1
102
RTVSPropertyOp17
 70
     1
102
RTVSPropertyOp18
 70
     1
102
RTVSPropertyOp19
 70
     1
102
RTVSPropertyOp20
 70
     1
102
RTVSPropertyOp21
 70
     1
102
RTVSPropertyOp22
 70
     1
102
RTVSPropertyOp23
 70
     1
102
RTVSPropertyOp24
 70
     1
102
RTVSPropertyOp25
 70
     1
102
RTVSPropertyOp26
 70
     1
102
RTVSPropertyOp27
 70
     1
102
RTVSPropertyOp28
 70
     1
102
RTVSPropertyOp29
 70
     1
102
RTVSPropertyOp30
 70
     1
102
RTVSPropertyOp31
 70
     1
102
RTVSPropertyOp32
 70
     1
  0
XRECORD
  5
D17
102
{ACAD_REACTORS
330
D16
102
}
330
D16
100
AcDbXrecord
280
     1
102
RTVSPropertyOp0
 70
     1
102
RTVSPropertyOp1
 70
     1
102
RTVSPropertyOp2
 70
     1
102
RTVSPropertyOp3
 70
     1
102
RTVSPropertyOp4
 70
     1
102
RTVSPropertyOp5
 70
     1
102
RTVSPropertyOp6
 70
     1
102
RTVSPropertyOp7
 70
     1
102
RTVSPropertyOp8
 70
     1
102
RTVSPropertyOp9
 70
     1
102
RTVSPropertyOp10
 70
     1
102
RTVSPropertyOp11
 70
     1
102
RTVSPropertyOp12
 70
     1
102
RTVSPropertyOp13
 70
     1
102
RTVSPropertyOp14
 70
     1
102
RTVSPropertyOp15
 70
     1
102
RTVSPropertyOp16
 70
     1
102
RTVSPropertyOp17
 70
     1
102
RTVSPropertyOp18
 70
     1
102
RTVSPropertyOp19
 70
     1
102
RTVSPropertyOp20
 70
     1
102
RTVSPropertyOp21
 70
     1
102
RTVSPropertyOp22
 70
     1
102
RTVSPropertyOp23
 70
     1
102
RTVSPropertyOp24
 70
     1
102
RTVSPropertyOp25
 70
     1
102
RTVSPropertyOp26
 70
     1
102
RTVSPropertyOp27
 70
     1
102
RTVSPropertyOp28
 70
     1
102
RTVSPropertyOp29
 70
     1
102
RTVSPropertyOp30
 70
     1
102
RTVSPropertyOp31
 70
     1
102
RTVSPropertyOp32
 70
     1
  0
ENDSEC
  0
EOF
