  0
SECTION
  2
HEADER
  9
$ACADVER
  1
AC1015
  9
$ACADMAINTVER
 70
    18
  9
$DWGCODEPAGE
  3
ANSI_1252
  9
$INSBASE
 10
0.0
 20
0.0
 30
0.0
  9
$EXTMIN
 10
0.0
 20
0.0
 30
0.0
  9
$EXTMAX
 10
61.81818181818181
 20
40.0
 30
0.0
  9
$LIMMIN
 10
0.0
 20
0.0
  9
$LIMMAX
 10
61.81818181818181
 20
40.0
  9
$ORTHOMODE
 70
     0
  9
$REGENMODE
 70
     1
  9
$FILLMODE
 70
     1
  9
$QTEXTMODE
 70
     0
  9
$MIRRTEXT
 70
     0
  9
$LTSCALE
 40
3.636363636363636
  9
$ATTMODE
 70
     1
  9
$TEXTSIZE
 40
0.2
  9
$TRACEWID
 40
0.05
  9
$TEXTSTYLE
  7
Standard
  9
$CLAYER
  8
0
  9
$CELTYPE
  6
ByLayer
  9
$CECOLOR
 62
   256
  9
$CELTSCALE
 40
1.0
  9
$DISPSILH
 70
     0
  9
$DIMSCALE
 40
1.0
  9
$DIMASZ
 40
0.0708661417322835
  9
$DIMEXO
 40
0.0625
  9
$DIMDLI
 40
0.38
  9
$DIMRND
 40
0.0
  9
$DIMDLE
 40
0.0
  9
$DIMEXE
 40
0.18
  9
$DIMTP
 40
0.0
  9
$DIMTM
 40
0.0
  9
$DIMTXT
 40
0.0708661417322835
  9
$DIMCEN
 40
0.09
  9
$DIMTSZ
 40
0.0
  9
$DIMTOL
 70
     0
  9
$DIMLIM
 70
     0
  9
$DIMTIH
 70
     1
  9
$DIMTOH
 70
     1
  9
$DIMSE1
 70
     0
  9
$DIMSE2
 70
     0
  9
$DIMTAD
 70
     0
  9
$DIMZIN
 70
     0
  9
$DIMBLK
  1

  9
$DIMASO
 70
     1
  9
$DIMSHO
 70
     1
  9
$DIMPOST
  1

  9
$DIMAPOST
  1

  9
$DIMALT
 70
     0
  9
$DIMALTD
 70
     2
  9
$DIMALTF
 40
25.4
  9
$DIMLFAC
 40
1.0
  9
$DIMTOFL
 70
     0
  9
$DIMTVP
 40
0.0
  9
$DIMTIX
 70
     0
  9
$DIMSOXD
 70
     0
  9
$DIMSAH
 70
     0
  9
$DIMBLK1
  1

  9
$DIMBLK2
  1

  9
$DIMSTYLE
  2
Standard
  9
$DIMCLRD
 70
     0
  9
$DIMCLRE
 70
     0
  9
$DIMCLRT
 70
     0
  9
$DIMTFAC
 40
1.0
  9
$DIMGAP
 40
0.09
  9
$DIMJUST
 70
     0
  9
$DIMSD1
 70
     0
  9
$DIMSD2
 70
     0
  9
$DIMTOLJ
 70
     1
  9
$DIMTZIN
 70
     0
  9
$DIMALTZ
 70
     0
  9
$DIMALTTZ
 70
     0
  9
$DIMUPT
 70
     0
  9
$DIMDEC
 70
     4
  9
$DIMTDEC
 70
     4
  9
$DIMALTU
 70
     2
  9
$DIMALTTD
 70
     2
  9
$DIMTXSTY
  7
Standard
  9
$DIMAUNIT
 70
     0
  9
$DIMADEC
 70
     0
  9
$DIMALTRND
 40
0.0
  9
$DIMAZIN
 70
     0
  9
$DIMDSEP
 70
    46
  9
$DIMATFIT
 70
     3
  9
$DIMFRAC
 70
     0
  9
$DIMLDRBLK
  1

  9
$DIMLUNIT
 70
     2
  9
$DIMLWD
 70
    -2
  9
$DIMLWE
 70
    -2
  9
$DIMTMOVE
 70
     0
  9
$LUNITS
 70
     2
  9
$LUPREC
 70
     4
  9
$SKETCHINC
 40
0.1
  9
$FILLETRAD
 40
0.0
  9
$AUNITS
 70
     0
  9
$AUPREC
 70
     0
  9
$MENU
  1
.
  9
$ELEVATION
 40
0.0
  9
$PELEVATION
 40
0.0
  9
$THICKNESS
 40
0.0
  9
$LIMCHECK
 70
     0
  9
$CHAMFERA
 40
0.0
  9
$CHAMFERB
 40
0.0
  9
$CHAMFERC
 40
0.0
  9
$CHAMFERD
 40
0.0
  9
$SKPOLY
 70
     0
  9
$TDCREATE
 40
2455946.334020856
  9
$TDUCREATE
 40
2455946.584020856
  9
$TDUPDATE
 40
2455946.334020856
  9
$TDUUPDATE
 40
2455946.584020856
  9
$TDINDWG
 40
0.0000632986
  9
$TDUSRTIMER
 40
0.0000632986
  9
$USRTIMER
 70
     1
  9
$ANGBASE
 50
0.0
  9
$ANGDIR
 70
     0
  9
$PDMODE
 70
     0
  9
$PDSIZE
 40
0.0
  9
$PLINEWID
 40
0.0
  9
$SPLFRAME
 70
     0
  9
$SPLINETYPE
 70
     6
  9
$SPLINESEGS
 70
     8
  9
$HANDSEED
  5
E31
  9
$SURFTAB1
 70
     6
  9
$SURFTAB2
 70
     6
  9
$SURFTYPE
 70
     6
  9
$SURFU
 70
     6
  9
$SURFV
 70
     6
  9
$UCSBASE
  2

  9
$UCSNAME
  2

  9
$UCSORG
 10
0.0
 20
0.0
 30
0.0
  9
$UCSXDIR
 10
1.0
 20
0.0
 30
0.0
  9
$UCSYDIR
 10
0.0
 20
1.0
 30
0.0
  9
$UCSORTHOREF
  2

  9
$UCSORTHOVIEW
 70
     0
  9
$UCSORGTOP
 10
0.0
 20
0.0
 30
0.0
  9
$UCSORGBOTTOM
 10
0.0
 20
0.0
 30
0.0
  9
$UCSORGLEFT
 10
0.0
 20
0.0
 30
0.0
  9
$UCSORGRIGHT
 10
0.0
 20
0.0
 30
0.0
  9
$UCSORGFRONT
 10
0.0
 20
0.0
 30
0.0
  9
$UCSORGBACK
 10
0.0
 20
0.0
 30
0.0
  9
$PUCSBASE
  2

  9
$PUCSNAME
  2

  9
$PUCSORG
 10
0.0
 20
0.0
 30
0.0
  9
$PUCSXDIR
 10
1.0
 20
0.0
 30
0.0
  9
$PUCSYDIR
 10
0.0
 20
1.0
 30
0.0
  9
$PUCSORTHOREF
  2

  9
$PUCSORTHOVIEW
 70
     0
  9
$PUCSORGTOP
 10
0.0
 20
0.0
 30
0.0
  9
$PUCSORGBOTTOM
 10
0.0
 20
0.0
 30
0.0
  9
$PUCSORGLEFT
 10
0.0
 20
0.0
 30
0.0
  9
$PUCSORGRIGHT
 10
0.0
 20
0.0
 30
0.0
  9
$PUCSORGFRONT
 10
0.0
 20
0.0
 30
0.0
  9
$PUCSORGBACK
 10
0.0
 20
0.0
 30
0.0
  9
$USERI1
 70
     0
  9
$USERI2
 70
     0
  9
$USERI3
 70
     0
  9
$USERI4
 70
     0
  9
$USERI5
 70
     0
  9
$USERR1
 40
0.0
  9
$USERR2
 40
0.0
  9
$USERR3
 40
0.0
  9
$USERR4
 40
0.0
  9
$USERR5
 40
0.0
  9
$WORLDVIEW
 70
     1
  9
$SHADEDGE
 70
     3
  9
$SHADEDIF
 70
    70
  9
$TILEMODE
 70
     1
  9
$MAXACTVP
 70
    64
  9
$PINSBASE
 10
0.0
 20
0.0
 30
0.0
  9
$PLIMCHECK
 70
     0
  9
$PEXTMIN
 10
0.0
 20
0.0
 30
0.0
  9
$PEXTMAX
 10
61.81818181818181
 20
40.0
 30
0.0
  9
$PLIMMIN
 10
0.0
 20
0.0
  9
$PLIMMAX
 10
61.81818181818181
 20
40.0
  9
$UNITMODE
 70
     0
  9
$VISRETAIN
 70
     1
  9
$PLINEGEN
 70
     0
  9
$PSLTSCALE
 70
     1
  9
$TREEDEPTH
 70
  3020
  9
$CMLSTYLE
  2
Standard
  9
$CMLJUST
 70
     0
  9
$CMLSCALE
 40
1.0
  9
$PROXYGRAPHICS
 70
     1
  9
$MEASUREMENT
 70
     0
  9
$CELWEIGHT
370
    -1
  9
$ENDCAPS
280
     0
  9
$JOINSTYLE
280
     0
  9
$LWDISPLAY
290
     0
  9
$INSUNITS
 70
     1
  9
$HYPERLINKBASE
  1

  9
$STYLESHEET
  1

  9
$XEDIT
290
     1
  9
$CEPSNTYPE
380
     0
  9
$PSTYLEMODE
290
     1
  9
$FINGERPRINTGUID
  2
{306FD1AE-00CA-4B14-85E4-A6B1278E4DE8}
  9
$VERSIONGUID
  2
{21DADDDD-C408-4AD1-B9FE-FDFDDA6037A9}
  9
$EXTNAMES
290
     1
  9
$PSVPSCALE
 40
0.0
  9
$OLESTARTUP
290
     0
  0
ENDSEC
  0
SECTION
  2
CLASSES
  0
CLASS
  1
ACDBDICTIONARYWDFLT
  2
AcDbDictionaryWithDefault
  3
ObjectDBX Classes
 90
        0
280
     0
281
     0
  0
CLASS
  1
MATERIAL
  2
AcDbMaterial
  3
ObjectDBX Classes
 90
     1153
280
     0
281
     0
  0
CLASS
  1
VISUALSTYLE
  2
AcDbVisualStyle
  3
ObjectDBX Classes
 90
     4095
280
     0
281
     0
  0
CLASS
  1
SCALE
  2
AcDbScale
  3
ObjectDBX Classes
 90
     1153
280
     0
281
     0
  0
CLASS
  1
TABLESTYLE
  2
AcDbTableStyle
  3
ObjectDBX Classes
 90
     4095
280
     0
281
     0
  0
CLASS
  1
MLEADERSTYLE
  2
AcDbMLeaderStyle
  3
ACDB_MLEADERSTYLE_CLASS
 90
     4095
280
     0
281
     0
  0
CLASS
  1
DICTIONARYVAR
  2
AcDbDictionaryVar
  3
ObjectDBX Classes
 90
        0
280
     0
281
     0
  0
CLASS
  1
CELLSTYLEMAP
  2
AcDbCellStyleMap
  3
ObjectDBX Classes
 90
     1152
280
     0
281
     0
  0
CLASS
  1
ACDBPLACEHOLDER
  2
AcDbPlaceHolder
  3
ObjectDBX Classes
 90
        0
280
     0
281
     0
  0
CLASS
  1
LAYOUT
  2
AcDbLayout
  3
ObjectDBX Classes
 90
        0
280
     0
281
     0
  0
ENDSEC
  0
SECTION
  2
TABLES
  0
TABLE
  2
VPORT
  5
8
330
0
100
AcDbSymbolTable
 70
     1
  0
VPORT
  5
57
330
8
100
AcDbSymbolTableRecord
100
AcDbViewportTableRecord
  2
*Active
 70
     0
 10
0.0
 20
0.0
 11
1.0
 21
1.0
 12
30.90909090909091
 22
20.0
 13
0.0
 23
0.0
 14
1.0
 24
1.0
 15
0.0
 25
0.0
 16
0.0
 26
0.0
 36
1.0
 17
0.0
 27
0.0
 37
0.0
 40
40.0
 41
1.545454545454545
 42
50.0
 43
0.0
 44
0.0
 50
0.0
 51
0.0
 71
     0
 72
   100
 73
     1
 74
     1
 75
     0
 76
     0
 77
     0
 78
     0
281
     0
 65
     1
110
0.0
120
0.0
130
0.0
111
1.0
121
0.0
131
0.0
112
0.0
122
1.0
132
0.0
 79
     0
146
0.0
  0
ENDTAB
  0
TABLE
  2
LTYPE
  5
5
330
0
100
AcDbSymbolTable
 70
    59
  0
LTYPE
  5
5B
330
5
100
AcDbSymbolTableRecord
100
AcDbLinetypeTableRecord
  2
ByBlock
 70
     0
  3

 72
    65
 73
     0
 40
0.0
  0
LTYPE
  5
5C
330
5
100
AcDbSymbolTableRecord
100
AcDbLinetypeTableRecord
  2
ByLayer
 70
     0
  3

 72
    65
 73
     0
 40
0.0
  0
LTYPE
  5
5D
330
5
100
AcDbSymbolTableRecord
100
AcDbLinetypeTableRecord
  2
Continuous
 70
     0
  3
Solid line
 72
    65
 73
     0
 40
0.0
  0
LTYPE
  5
7C
330
5
100
AcDbSymbolTableRecord
100
AcDbLinetypeTableRecord
  2
BY_STANDARD
 70
     0
  3
By Standard ____________    ____    ____   _
 72
    65
 73
     6
 40
1.240299999999999
 49
0.6614
 74
     0
 49
-0.0827
 74
     0
 49
0.1654
 74
     0
 49
-0.0827
 74
     0
 49
0.1654
 74
     0
 49
-0.0827
 74
     0
  0
LTYPE
  5
7D
330
5
100
AcDbSymbolTableRecord
100
AcDbLinetypeTableRecord
  2
CHAIN
 70
     0
  3
Chain ____ _ ____ _ ____ _ ____ _ ____ _ ____
 72
    65
 73
     4
 40
0.7087
 49
0.4724000000000001
 74
     0
 49
-0.0591
 74
     0
 49
0.1181
 74
     0
 49
-0.0591
 74
     0
  0
LTYPE
  5
7E
330
5
100
AcDbSymbolTableRecord
100
AcDbLinetypeTableRecord
  2
DASH_DOT
 70
     0
  3
Dash dot __ . __ . __ . __ . __ . __ . __ . __
 72
    65
 73
     4
 40
0.37
 49
0.24
 74
     0
 49
-0.06
 74
     0
 49
0.01
 74
     0
 49
-0.06
 74
     0
  0
LTYPE
  5
7F
330
5
100
AcDbSymbolTableRecord
100
AcDbLinetypeTableRecord
  2
DOUBLE_DASH_DOT
 70
     0
  3
Double-Dash Dot __ __ . __ __ . __ __ . __ _
 72
    65
 73
     6
 40
0.4398
 49
0.24
 74
     0
 49
-0.06
 74
     0
 49
0.0098
 74
     0
 49
-0.06
 74
     0
 49
0.01
 74
     0
 49
-0.06
 74
     0
  0
LTYPE
  5
80
330
5
100
AcDbSymbolTableRecord
100
AcDbLinetypeTableRecord
  2
DASH_TRIPLE_DOT
 70
     0
  3
Dash Triple-Dot _ . . . _ . . . _ . . . _
 72
    65
 73
     8
 40
0.51
 49
0.24
 74
     0
 49
-0.06
 74
     0
 49
0.01
 74
     0
 49
-0.06
 74
     0
 49
0.01
 74
     0
 49
-0.06
 74
     0
 49
0.01
 74
     0
 49
-0.06
 74
     0
  0
LTYPE
  5
81
330
5
100
AcDbSymbolTableRecord
100
AcDbLinetypeTableRecord
  2
DASHED
 70
     0
  3
Dashed __ __ __ __ __ __ __ __ __ __ __ __ __ _
 72
    65
 73
     2
 40
0.2067
 49
0.1654
 74
     0
 49
-0.0413
 74
     0
  0
LTYPE
  5
82
330
5
100
AcDbSymbolTableRecord
100
AcDbLinetypeTableRecord
  2
DASH_DOUBLE_DOT
 70
     0
  3
Dash Double-Dot __ . . __ . . __ . . __ . .
 72
    65
 73
     6
 40
0.4398
 49
0.24
 74
     0
 49
-0.06
 74
     0
 49
0.0098
 74
     0
 49
-0.06
 74
     0
 49
0.01
 74
     0
 49
-0.06
 74
     0
  0
LTYPE
  5
83
330
5
100
AcDbSymbolTableRecord
100
AcDbLinetypeTableRecord
  2
DASHED_SPACE
 70
     0
  3
Dashed Space __ __ __ __ __ __ __ __ __ __ __ _
 72
    65
 73
     2
 40
0.2067
 49
0.1654
 74
     0
 49
-0.0413
 74
     0
  0
LTYPE
  5
84
330
5
100
AcDbSymbolTableRecord
100
AcDbLinetypeTableRecord
  2
DOTTED
 70
     0
  3
Dotted . . . . . . . . . . . . . . . . . . . . 
 72
    65
 73
     2
 40
0.0482
 49
0.0069
 74
     0
 49
-0.0413
 74
     0
  0
LTYPE
  5
85
330
5
100
AcDbSymbolTableRecord
100
AcDbLinetypeTableRecord
  2
DOUBLE_DASH_CHAIN
 70
     0
  3
Double-Dash Chain ______  __  __  ______  __  _
 72
    65
 73
     6
 40
1.240299999999999
 49
0.6614
 74
     0
 49
-0.0827
 74
     0
 49
0.1654
 74
     0
 49
-0.0827
 74
     0
 49
0.1654
 74
     0
 49
-0.0827
 74
     0
  0
LTYPE
  5
87
330
5
100
AcDbSymbolTableRecord
100
AcDbLinetypeTableRecord
  2
DOUBLE_DASH_DOUBLE_DOT
 70
     0
  3
Double-Dash Double-dot _ _ . . _ _ . . _
 72
    65
 73
     8
 40
0.7400000000000001
 49
0.24
 74
     0
 49
-0.06
 74
     0
 49
0.24
 74
     0
 49
-0.06
 74
     0
 49
0.01
 74
     0
 49
-0.06
 74
     0
 49
0.01
 74
     0
 49
-0.06
 74
     0
  0
LTYPE
  5
88
330
5
100
AcDbSymbolTableRecord
100
AcDbLinetypeTableRecord
  2
DOUBLE_DASH_TRIPLE_DOT
 70
     0
  3
Double Dash Triple Dot __ __ . . . __ __ . .
 72
    65
 73
    10
 40
0.8100000000000001
 49
0.24
 74
     0
 49
-0.06
 74
     0
 49
0.24
 74
     0
 49
-0.06
 74
     0
 49
0.01
 74
     0
 49
-0.06
 74
     0
 49
0.01
 74
     0
 49
-0.06
 74
     0
 49
0.01
 74
     0
 49
-0.06
 74
     0
  0
LTYPE
  5
89
330
5
100
AcDbSymbolTableRecord
100
AcDbLinetypeTableRecord
  2
LONG_DASH_DOTTED
 70
     0
  3
Long Dash Dotted ____ . ____ . ____ . ____ . _
 72
    65
 73
     4
 40
0.3543
 49
0.2362
 74
     0
 49
-0.0295
 74
     0
 49
0.0591
 74
     0
 49
-0.0295
 74
     0
  0
LTYPE
  5
8A
330
5
100
AcDbSymbolTableRecord
100
AcDbLinetypeTableRecord
  2
LONG_DASH_DOUBLE_DOT
 70
     0
  3
Long Dash Double Dot ________  .  .  ________  
 72
    65
 73
     6
 40
0.6799999999999999
 49
0.48
 74
     0
 49
-0.06
 74
     0
 49
0.01
 74
     0
 49
-0.06
 74
     0
 49
0.01
 74
     0
 49
-0.06
 74
     0
  0
LTYPE
  5
8B
330
5
100
AcDbSymbolTableRecord
100
AcDbLinetypeTableRecord
  2
LONG_DASH_TRIPLE_DOT
 70
     0
  3
Long Dash Triple Dot ____ ... ____ ... ____
 72
    65
 73
     8
 40
0.3689
 49
0.2362
 74
     0
 49
-0.0295
 74
     0
 49
0.0049
 74
     0
 49
-0.0295
 74
     0
 49
0.0049
 74
     0
 49
-0.0295
 74
     0
 49
0.0049
 74
     0
 49
-0.0295
 74
     0
  0
LTYPE
  5
8C
330
5
100
AcDbSymbolTableRecord
100
AcDbLinetypeTableRecord
  2
BORDER
 70
     0
  3
Border __ __ . __ __ . __ __ . __ __ . __ __ .
 72
    65
 73
     6
 40
1.75
 49
0.5
 74
     0
 49
-0.25
 74
     0
 49
0.5
 74
     0
 49
-0.25
 74
     0
 49
0.0
 74
     0
 49
-0.25
 74
     0
  0
LTYPE
  5
8D
330
5
100
AcDbSymbolTableRecord
100
AcDbLinetypeTableRecord
  2
BORDER2
 70
     0
  3
Border (.5x) __.__.__.__.__.__.__.__.__.__.__.
 72
    65
 73
     6
 40
0.875
 49
0.25
 74
     0
 49
-0.125
 74
     0
 49
0.25
 74
     0
 49
-0.125
 74
     0
 49
0.0
 74
     0
 49
-0.125
 74
     0
  0
LTYPE
  5
8E
330
5
100
AcDbSymbolTableRecord
100
AcDbLinetypeTableRecord
  2
BORDERX2
 70
     0
  3
Border (2x) ____  ____  .  ____  ____  .  ___
 72
    65
 73
     6
 40
3.5
 49
1.0
 74
     0
 49
-0.5
 74
     0
 49
1.0
 74
     0
 49
-0.5
 74
     0
 49
0.0
 74
     0
 49
-0.5
 74
     0
  0
LTYPE
  5
8F
330
5
100
AcDbSymbolTableRecord
100
AcDbLinetypeTableRecord
  2
CENTER
 70
     0
  3
Center ____ _ ____ _ ____ _ ____ _ ____ _ ____
 72
    65
 73
     4
 40
2.0
 49
1.25
 74
     0
 49
-0.25
 74
     0
 49
0.25
 74
     0
 49
-0.25
 74
     0
  0
LTYPE
  5
90
330
5
100
AcDbSymbolTableRecord
100
AcDbLinetypeTableRecord
  2
CENTER2
 70
     0
  3
Center (.5x) ___ _ ___ _ ___ _ ___ _ ___ _ ___
 72
    65
 73
     4
 40
1.125
 49
0.75
 74
     0
 49
-0.125
 74
     0
 49
0.125
 74
     0
 49
-0.125
 74
     0
  0
LTYPE
  5
91
330
5
100
AcDbSymbolTableRecord
100
AcDbLinetypeTableRecord
  2
CENTERX2
 70
     0
  3
Center (2x) ________  __  ________  __  _____
 72
    65
 73
     4
 40
4.0
 49
2.5
 74
     0
 49
-0.5
 74
     0
 49
0.5
 74
     0
 49
-0.5
 74
     0
  0
LTYPE
  5
92
330
5
100
AcDbSymbolTableRecord
100
AcDbLinetypeTableRecord
  2
DASHDOT2
 70
     0
  3
Dash dot (.5x) _._._._._._._._._._._._._._._.
 72
    65
 73
     4
 40
0.5
 49
0.25
 74
     0
 49
-0.125
 74
     0
 49
0.0
 74
     0
 49
-0.125
 74
     0
  0
LTYPE
  5
93
330
5
100
AcDbSymbolTableRecord
100
AcDbLinetypeTableRecord
  2
DASHDOTX2
 70
     0
  3
Dash dot (2x) ____  .  ____  .  ____  .  ___
 72
    65
 73
     4
 40
2.0
 49
1.0
 74
     0
 49
-0.5
 74
     0
 49
0.0
 74
     0
 49
-0.5
 74
     0
  0
LTYPE
  5
95
330
5
100
AcDbSymbolTableRecord
100
AcDbLinetypeTableRecord
  2
DASHED2
 70
     0
  3
Dashed (.5x) _ _ _ _ _ _ _ _ _ _ _ _ _ _ _ _ _
 72
    65
 73
     2
 40
0.375
 49
0.25
 74
     0
 49
-0.125
 74
     0
  0
LTYPE
  5
96
330
5
100
AcDbSymbolTableRecord
100
AcDbLinetypeTableRecord
  2
DASHEDX2
 70
     0
  3
Dashed (2x) ____  ____  ____  ____  ____  ___
 72
    65
 73
     2
 40
1.5
 49
1.0
 74
     0
 49
-0.5
 74
     0
  0
LTYPE
  5
97
330
5
100
AcDbSymbolTableRecord
100
AcDbLinetypeTableRecord
  2
DIVIDE
 70
     0
  3
Divide ____ . . ____ . . ____ . . ____ . . ____
 72
    65
 73
     6
 40
1.25
 49
0.5
 74
     0
 49
-0.25
 74
     0
 49
0.0
 74
     0
 49
-0.25
 74
     0
 49
0.0
 74
     0
 49
-0.25
 74
     0
  0
LTYPE
  5
98
330
5
100
AcDbSymbolTableRecord
100
AcDbLinetypeTableRecord
  2
DIVIDE2
 70
     0
  3
Divide (.5x) __..__..__..__..__..__..__..__.._
 72
    65
 73
     6
 40
0.625
 49
0.25
 74
     0
 49
-0.125
 74
     0
 49
0.0
 74
     0
 49
-0.125
 74
     0
 49
0.0
 74
     0
 49
-0.125
 74
     0
  0
LTYPE
  5
99
330
5
100
AcDbSymbolTableRecord
100
AcDbLinetypeTableRecord
  2
DIVIDEX2
 70
     0
  3
Divide (2x) ________  .  .  ________  .  .  _
 72
    65
 73
     6
 40
2.5
 49
1.0
 74
     0
 49
-0.5
 74
     0
 49
0.0
 74
     0
 49
-0.5
 74
     0
 49
0.0
 74
     0
 49
-0.5
 74
     0
  0
LTYPE
  5
9A
330
5
100
AcDbSymbolTableRecord
100
AcDbLinetypeTableRecord
  2
DOT
 70
     0
  3
Dot . . . . . . . . . . . . . . . . . . . . . .
 72
    65
 73
     2
 40
0.25
 49
0.0
 74
     0
 49
-0.25
 74
     0
  0
LTYPE
  5
9B
330
5
100
AcDbSymbolTableRecord
100
AcDbLinetypeTableRecord
  2
DOT2
 70
     0
  3
Dot (.5x) .....................................
 72
    65
 73
     2
 40
0.125
 49
0.0
 74
     0
 49
-0.125
 74
     0
  0
LTYPE
  5
9C
330
5
100
AcDbSymbolTableRecord
100
AcDbLinetypeTableRecord
  2
DOTX2
 70
     0
  3
Dot (2x) .  .  .  .  .  .  .  .  .  .  .  .  . 
 72
    65
 73
     2
 40
0.5
 49
0.0
 74
     0
 49
-0.5
 74
     0
  0
LTYPE
  5
9D
330
5
100
AcDbSymbolTableRecord
100
AcDbLinetypeTableRecord
  2
HIDDEN
 70
     0
  3
Hidden __ __ __ __ __ __ __ __ __ __ __ __ __ _
 72
    65
 73
     2
 40
0.375
 49
0.25
 74
     0
 49
-0.125
 74
     0
  0
LTYPE
  5
9E
330
5
100
AcDbSymbolTableRecord
100
AcDbLinetypeTableRecord
  2
HIDDEN2
 70
     0
  3
Hidden (.5x) _ _ _ _ _ _ _ _ _ _ _ _ _ _ _ _ _
 72
    65
 73
     2
 40
0.1875
 49
0.125
 74
     0
 49
-0.0625
 74
     0
  0
LTYPE
  5
9F
330
5
100
AcDbSymbolTableRecord
100
AcDbLinetypeTableRecord
  2
HIDDENX2
 70
     0
  3
Hidden (2x) ____ ____ ____ ____ ____ ____ ____
 72
    65
 73
     2
 40
0.75
 49
0.5
 74
     0
 49
-0.25
 74
     0
  0
LTYPE
  5
A0
330
5
100
AcDbSymbolTableRecord
100
AcDbLinetypeTableRecord
  2
PHANTOM
 70
     0
  3
Phantom ______  __  __  ______  __  __  ______
 72
    65
 73
     6
 40
2.5
 49
1.25
 74
     0
 49
-0.25
 74
     0
 49
0.25
 74
     0
 49
-0.25
 74
     0
 49
0.25
 74
     0
 49
-0.25
 74
     0
  0
LTYPE
  5
A1
330
5
100
AcDbSymbolTableRecord
100
AcDbLinetypeTableRecord
  2
PHANTOM2
 70
     0
  3
Phantom (.5x) ___ _ _ ___ _ _ ___ _ _ ___ _ _
 72
    65
 73
     6
 40
1.25
 49
0.625
 74
     0
 49
-0.125
 74
     0
 49
0.125
 74
     0
 49
-0.125
 74
     0
 49
0.125
 74
     0
 49
-0.125
 74
     0
  0
LTYPE
  5
A2
330
5
100
AcDbSymbolTableRecord
100
AcDbLinetypeTableRecord
  2
PHANTOMX2
 70
     0
  3
Phantom (2x) ____________    ____    ____   _
 72
    65
 73
     6
 40
5.0
 49
2.5
 74
     0
 49
-0.5
 74
     0
 49
0.5
 74
     0
 49
-0.5
 74
     0
 49
0.5
 74
     0
 49
-0.5
 74
     0
  0
LTYPE
  5
A3
330
5
100
AcDbSymbolTableRecord
100
AcDbLinetypeTableRecord
  2
ACAD_ISO02W100
 70
     0
  3
ISO dash __ __ __ __ __ __ __ __ __ __ __ __ __
 72
    65
 73
     2
 40
0.59
 49
0.47
 74
     0
 49
-0.12
 74
     0
  0
LTYPE
  5
A4
330
5
100
AcDbSymbolTableRecord
100
AcDbLinetypeTableRecord
  2
ACAD_ISO03W100
 70
     0
  3
ISO dash space __    __    __    __    __    __
 72
    65
 73
     2
 40
1.179999999999999
 49
0.47
 74
     0
 49
-0.71
 74
     0
  0
LTYPE
  5
A5
330
5
100
AcDbSymbolTableRecord
100
AcDbLinetypeTableRecord
  2
ACAD_ISO04W100
 70
     0
  3
ISO long-dash dot ____ . ____ . ____ . ____ . _
 72
    65
 73
     4
 40
1.179999999999999
 49
0.9399999999999998
 74
     0
 49
-0.12
 74
     0
 49
0.0
 74
     0
 49
-0.12
 74
     0
  0
LTYPE
  5
A6
330
5
100
AcDbSymbolTableRecord
100
AcDbLinetypeTableRecord
  2
ACAD_ISO05W100
 70
     0
  3
ISO long-dash double-dot ____ .. ____ .. ____ .
 72
    65
 73
     6
 40
1.299999999999999
 49
0.9399999999999998
 74
     0
 49
-0.12
 74
     0
 49
0.0
 74
     0
 49
-0.12
 74
     0
 49
0.0
 74
     0
 49
-0.12
 74
     0
  0
LTYPE
  5
A7
330
5
100
AcDbSymbolTableRecord
100
AcDbLinetypeTableRecord
  2
ACAD_ISO06W100
 70
     0
  3
ISO long-dash triple-dot ____ ... ____ ... ____
 72
    65
 73
     8
 40
1.419999999999999
 49
0.9399999999999998
 74
     0
 49
-0.12
 74
     0
 49
0.0
 74
     0
 49
-0.12
 74
     0
 49
0.0
 74
     0
 49
-0.12
 74
     0
 49
0.0
 74
     0
 49
-0.12
 74
     0
  0
LTYPE
  5
A8
330
5
100
AcDbSymbolTableRecord
100
AcDbLinetypeTableRecord
  2
ACAD_ISO07W100
 70
     0
  3
ISO dot . . . . . . . . . . . . . . . . . . . .
 72
    65
 73
     2
 40
0.12
 49
0.0
 74
     0
 49
-0.12
 74
     0
  0
LTYPE
  5
A9
330
5
100
AcDbSymbolTableRecord
100
AcDbLinetypeTableRecord
  2
ACAD_ISO08W100
 70
     0
  3
ISO long-dash short-dash ____ __ ____ __ ____ _
 72
    65
 73
     4
 40
0.95
 49
0.47
 74
     0
 49
-0.12
 74
     0
 49
0.24
 74
     0
 49
-0.12
 74
     0
  0
LTYPE
  5
AA
330
5
100
AcDbSymbolTableRecord
100
AcDbLinetypeTableRecord
  2
ACAD_ISO09W100
 70
     0
  3
ISO long-dash double-short-dash ____ __ __ ____
 72
    65
 73
     6
 40
1.31
 49
0.47
 74
     0
 49
-0.12
 74
     0
 49
0.24
 74
     0
 49
-0.12
 74
     0
 49
0.24
 74
     0
 49
-0.12
 74
     0
  0
LTYPE
  5
AB
330
5
100
AcDbSymbolTableRecord
100
AcDbLinetypeTableRecord
  2
ACAD_ISO10W100
 70
     0
  3
ISO dash dot __ . __ . __ . __ . __ . __ . __ .
 72
    65
 73
     4
 40
0.71
 49
0.47
 74
     0
 49
-0.12
 74
     0
 49
0.0
 74
     0
 49
-0.12
 74
     0
  0
LTYPE
  5
AC
330
5
100
AcDbSymbolTableRecord
100
AcDbLinetypeTableRecord
  2
ACAD_ISO11W100
 70
     0
  3
ISO double-dash dot __ __ . __ __ . __ __ . __ 
 72
    65
 73
     6
 40
1.299999999999999
 49
0.47
 74
     0
 49
-0.12
 74
     0
 49
0.47
 74
     0
 49
-0.12
 74
     0
 49
0.0
 74
     0
 49
-0.12
 74
     0
  0
LTYPE
  5
AD
330
5
100
AcDbSymbolTableRecord
100
AcDbLinetypeTableRecord
  2
ACAD_ISO12W100
 70
     0
  3
ISO dash double-dot __ . . __ . . __ . . __ . .
 72
    65
 73
     6
 40
0.8299999999999998
 49
0.47
 74
     0
 49
-0.12
 74
     0
 49
0.0
 74
     0
 49
-0.12
 74
     0
 49
0.0
 74
     0
 49
-0.12
 74
     0
  0
LTYPE
  5
AE
330
5
100
AcDbSymbolTableRecord
100
AcDbLinetypeTableRecord
  2
ACAD_ISO13W100
 70
     0
  3
ISO double-dash double-dot __ __ . . __ __ . . 
 72
    65
 73
     8
 40
1.419999999999999
 49
0.47
 74
     0
 49
-0.12
 74
     0
 49
0.47
 74
     0
 49
-0.12
 74
     0
 49
0.0
 74
     0
 49
-0.12
 74
     0
 49
0.0
 74
     0
 49
-0.12
 74
     0
  0
LTYPE
  5
AF
330
5
100
AcDbSymbolTableRecord
100
AcDbLinetypeTableRecord
  2
ACAD_ISO14W100
 70
     0
  3
ISO dash triple-dot __ . . . __ . . . __ . . . 
 72
    65
 73
     8
 40
0.95
 49
0.47
 74
     0
 49
-0.12
 74
     0
 49
0.0
 74
     0
 49
-0.12
 74
     0
 49
0.0
 74
     0
 49
-0.12
 74
     0
 49
0.0
 74
     0
 49
-0.12
 74
     0
  0
LTYPE
  5
B0
330
5
100
AcDbSymbolTableRecord
100
AcDbLinetypeTableRecord
  2
ACAD_ISO15W100
 70
     0
  3
ISO double-dash triple-dot __ __ . . . __ __ . 
 72
    65
 73
    10
 40
1.539999999999999
 49
0.47
 74
     0
 49
-0.12
 74
     0
 49
0.47
 74
     0
 49
-0.12
 74
     0
 49
0.0
 74
     0
 49
-0.12
 74
     0
 49
0.0
 74
     0
 49
-0.12
 74
     0
 49
0.0
 74
     0
 49
-0.12
 74
     0
  0
LTYPE
  5
B3
330
5
100
AcDbSymbolTableRecord
100
AcDbLinetypeTableRecord
  2
FENCELINE1
 70
     0
  3
Fenceline circle ----0-----0----0-----0----0---
 72
    65
 73
     4
 40
1.45
 49
0.25
 74
     0
 49
-0.1
 74
     4
 75
   133
340
B2
 46
0.1
 50
0.0
 44
-0.1
 45
0.0
 49
-0.1
 74
     0
 49
1.0
 74
     0
  0
LTYPE
  5
B4
330
5
100
AcDbSymbolTableRecord
100
AcDbLinetypeTableRecord
  2
FENCELINE2
 70
     0
  3
Fenceline square ----[]-----[]----[]-----[]----
 72
    65
 73
     4
 40
1.45
 49
0.25
 74
     0
 49
-0.1
 74
     4
 75
   132
340
B2
 46
0.1
 50
0.0
 44
-0.1
 45
0.0
 49
-0.1
 74
     0
 49
1.0
 74
     0
  0
LTYPE
  5
B5
330
5
100
AcDbSymbolTableRecord
100
AcDbLinetypeTableRecord
  2
TRACKS
 70
     0
  3
Tracks -|-|-|-|-|-|-|-|-|-|-|-|-|-|-|-|-|-|-|-|
 72
    65
 73
     2
 40
0.3
 49
0.15
 74
     4
 75
   130
340
B2
 46
0.25
 50
0.0
 44
0.0
 45
0.0
 49
0.15
 74
     0
  0
LTYPE
  5
B6
330
5
100
AcDbSymbolTableRecord
100
AcDbLinetypeTableRecord
  2
BATTING
 70
     0
  3
Batting SSSSSSSSSSSSSSSSSSSSSSSSSSSSSSSSSSSSSSS
 72
    65
 73
     4
 40
0.4001000000000001
 49
0.0001
 74
     0
 49
-0.1
 74
     4
 75
   134
340
B2
 46
0.1
 50
0.0
 44
-0.1
 45
0.0
 49
-0.2
 74
     4
 75
   134
340
B2
 46
0.1
 50
180.0
 44
0.1
 45
0.0
 49
-0.1
 74
     0
  0
LTYPE
  5
B7
330
5
100
AcDbSymbolTableRecord
100
AcDbLinetypeTableRecord
  2
HOT_WATER_SUPPLY
 70
     0
  3
Hot water supply ---- HW ---- HW ---- HW ----
 72
    65
 73
     3
 40
0.9
 49
0.5
 74
     0
 49
-0.2
 74
     2
 75
     0
340
55
 46
0.1
 50
0.0
 44
-0.1
 45
-0.05
  9
HW
 49
-0.2
 74
     0
  0
LTYPE
  5
B8
330
5
100
AcDbSymbolTableRecord
100
AcDbLinetypeTableRecord
  2
GAS_LINE
 70
     0
  3
Gas line ----GAS----GAS----GAS----GAS----GAS---
 72
    65
 73
     3
 40
0.95
 49
0.5
 74
     0
 49
-0.2
 74
     2
 75
     0
340
55
 46
0.1
 50
0.0
 44
-0.1
 45
-0.05
  9
GAS
 49
-0.25
 74
     0
  0
LTYPE
  5
B9
330
5
100
AcDbSymbolTableRecord
100
AcDbLinetypeTableRecord
  2
ZIGZAG
 70
     0
  3
Zig zag /\/\/\/\/\/\/\/\/\/\/\/\/\/\/\/\/\/\/\/
 72
    65
 73
     4
 40
0.8001000000000001
 49
0.0001
 74
     0
 49
-0.2
 74
     4
 75
   131
340
B2
 46
0.2
 50
0.0
 44
-0.2
 45
0.0
 49
-0.4
 74
     4
 75
   131
340
B2
 46
0.2
 50
180.0
 44
0.2
 45
0.0
 49
-0.2
 74
     0
  0
ENDTAB
  0
TABLE
  2
LAYER
  5
2
330
0
100
AcDbSymbolTable
 70
    27
  0
LAYER
  5
54
330
2
100
AcDbSymbolTableRecord
100
AcDbLayerTableRecord
  2
0
 70
     0
 62
     7
  6
Continuous
370
     0
390
F
  0
LAYER
  5
C0
330
2
100
AcDbSymbolTableRecord
100
AcDbLayerTableRecord
  2
Center Mark (ANSI)
 70
     0
 62
     7
  6
Continuous
370
     5
390
F
  0
LAYER
  5
C1
330
2
100
AcDbSymbolTableRecord
100
AcDbLayerTableRecord
  2
Centerline (ANSI)
 70
     0
 62
     7
  6
Continuous
370
     5
390
F
  0
LAYER
  5
C3
330
2
100
AcDbSymbolTableRecord
100
AcDbLayerTableRecord
  2
Dimension (ANSI)
 70
     0
 62
     7
  6
Continuous
370
     5
390
F
  0
LAYER
  5
C5
330
2
100
AcDbSymbolTableRecord
100
AcDbLayerTableRecord
  2
Hidden (ANSI)
 70
     0
 62
     7
  6
DASHED
370
     5
390
F
  0
LAYER
  5
CC
330
2
100
AcDbSymbolTableRecord
100
AcDbLayerTableRecord
  2
Symbol (ANSI)
 70
     0
 62
     7
  6
Continuous
370
     5
390
F
  0
LAYER
  5
CF
330
2
100
AcDbSymbolTableRecord
100
AcDbLayerTableRecord
  2
Visible (ANSI)
 70
     0
 62
     7
  6
Continuous
370
     5
390
F
  0
LAYER
  5
D0
330
2
100
AcDbSymbolTableRecord
100
AcDbLayerTableRecord
  2
Visible Narrow (ANSI)
 70
     0
 62
     7
  6
Continuous
370
     5
390
F
  0
LAYER
  5
19C
330
2
100
AcDbSymbolTableRecord
100
AcDbLayerTableRecord
  2
Defpoints
 70
     0
 62
     7
  6
Continuous
290
     0
370
    -3
390
F
  0
ENDTAB
  0
TABLE
  2
STYLE
  5
3
330
0
100
AcDbSymbolTable
 70
    10
  0
STYLE
  5
55
330
3
100
AcDbSymbolTableRecord
100
AcDbTextStyleTableRecord
  2
Standard
 70
     0
 40
0.0
 41
1.0
 50
0.0
 71
     0
 42
0.2
  3
txt
  4

  0
STYLE
  5
5A
330
3
100
AcDbSymbolTableRecord
100
AcDbTextStyleTableRecord
  2
Annotative
 70
     0
 40
0.0
 41
1.0
 50
0.0
 71
     0
 42
0.2
  3
txt
  4

1001
AcadAnnotative
1000
AnnotativeData
1002
{
1070
     1
1070
     1
1002
}
  0
STYLE
  5
B2
330
3
100
AcDbSymbolTableRecord
100
AcDbTextStyleTableRecord
  2

 70
     1
 40
0.0
 41
1.0
 50
0.0
 71
     0
 42
0.2
  3
ltypeshp.shx
  4

  0
STYLE
  5
D4
330
3
100
AcDbSymbolTableRecord
100
AcDbTextStyleTableRecord
  2
ITALICC_120
 70
     0
 40
0.0
 41
1.0
 50
0.0
 71
     0
 42
0.2
  3
italicc.shx
  4

  0
STYLE
  5
D5
330
3
100
AcDbSymbolTableRecord
100
AcDbTextStyleTableRecord
  2
Label Text (ANSI)
 70
     0
 40
0.0
 41
1.0
 50
0.0
 71
     0
 42
0.2
  3
TAHOMA.TTF
  4

1001
ACAD
1000
Tahoma
1071
      256
  0
STYLE
  5
D6
330
3
100
AcDbSymbolTableRecord
100
AcDbTextStyleTableRecord
  2
Note Text (ANSI)
 70
     0
 40
0.0
 41
1.0
 50
0.0
 71
     0
 42
0.2
  3
RomanS.shx
  4

  0
STYLE
  5
D7
330
3
100
AcDbSymbolTableRecord
100
AcDbTextStyleTableRecord
  2
ROMANS
 70
     0
 40
0.0
 41
1.0
 50
0.0
 71
     0
 42
0.2
  3
romans.shx
  4

  0
STYLE
  5
D8
330
3
100
AcDbSymbolTableRecord
100
AcDbTextStyleTableRecord
  2
SANSSERIF_114
 70
     0
 40
0.0
 41
1.0
 50
0.0
 71
     0
 42
0.2
  3
TAHOMA.TTF
  4

1001
ACAD
1000
Tahoma
1071
      256
  0
STYLE
  5
D9
330
3
100
AcDbSymbolTableRecord
100
AcDbTextStyleTableRecord
  2
SANSSERIF_117
 70
     0
 40
0.0
 41
1.0
 50
0.0
 71
     0
 42
0.2
  3
TAHOMA.TTF
  4

1001
ACAD
1000
Tahoma
1071
      256
  0
STYLE
  5
12D
330
3
100
AcDbSymbolTableRecord
100
AcDbTextStyleTableRecord
  2
Text Style168
 70
     0
 40
0.0
 41
1.0
 50
0.0
 71
     0
 42
0.2
  3
TAHOMA.TTF
  4

1001
ACAD
1000
Tahoma
1071
      256
  0
ENDTAB
  0
TABLE
  2
VIEW
  5
6
330
0
100
AcDbSymbolTable
 70
     0
  0
ENDTAB
  0
TABLE
  2
UCS
  5
7
330
0
100
AcDbSymbolTable
 70
     0
  0
ENDTAB
  0
TABLE
  2
APPID
  5
9
330
0
100
AcDbSymbolTable
 70
     4
  0
APPID
  5
56
330
9
100
AcDbSymbolTableRecord
100
AcDbRegAppTableRecord
  2
ACAD
 70
     0
  0
APPID
  5
5E
330
9
100
AcDbSymbolTableRecord
100
AcDbRegAppTableRecord
  2
AcadAnnotative
 70
     0
  0
APPID
  5
806
330
9
100
AcDbSymbolTableRecord
100
AcDbRegAppTableRecord
  2
ACAD_DSTYLE_DIMRADIAL_EXTENSION
 70
     0
  0
APPID
  5
E26
330
9
100
AcDbSymbolTableRecord
100
AcDbRegAppTableRecord
  2
ACAD_MLEADERVER
 70
     0
  0
ENDTAB
  0
TABLE
  2
DIMSTYLE
  5
A
330
0
100
AcDbSymbolTable
 70
    15
100
AcDbDimStyleTable
 71
     2
340
E2
340
58
  0
DIMSTYLE
105
58
330
A
100
AcDbSymbolTableRecord
100
AcDbDimStyleTableRecord
  2
Standard
 70
     0
340
55
  0
DIMSTYLE
105
59
330
A
100
AcDbSymbolTableRecord
100
AcDbDimStyleTableRecord
  2
Annotative
 70
     0
340
55
1001
AcadAnnotative
1000
AnnotativeData
1002
{
1070
     1
1070
     1
1002
}
  0
DIMSTYLE
105
DA
330
A
100
AcDbSymbolTableRecord
100
AcDbDimStyleTableRecord
  2
Architectural (ANSI)
 70
     0
 40
3.636363636363636
 41
0.0984251946210861
 43
0.2362204724409449
 44
0.125
 45
0.00000001
 46
0.3937007874015748
 78
     3
 79
     3
140
0.1000000014901161
146
1.200000029802321
147
0.031496062992126
171
     1
176
   256
177
   256
178
   256
272
     2
274
     1
276
     2
277
     4
284
    12
285
     4
286
    12
340
D6
371
    -1
372
    -1
  0
DIMSTYLE
105
DB
330
A
100
AcDbSymbolTableRecord
100
AcDbDimStyleTableRecord
  2
Architectural (ANSI)$7
 70
     0
 40
3.636363636363636
 41
0.0984251946210861
 43
0.2362204724409449
 44
0.125
 45
0.00000001
 46
0.3937007874015748
 78
     3
 79
     3
140
0.1000000014901161
146
1.200000029802321
147
0.031496062992126
171
     1
176
   256
177
   256
178
   256
272
     2
274
     1
276
     2
277
     4
284
    12
285
     4
286
    12
340
D6
371
    -1
372
    -1
  0
DIMSTYLE
105
DC
330
A
100
AcDbSymbolTableRecord
100
AcDbDimStyleTableRecord
  2
Default - Fraction (ANSI)
 70
     0
 40
3.636363636363636
 41
0.0984251946210861
 43
0.2362204724409449
 44
0.125
 45
0.00000001
 46
0.3937007874015748
 79
     3
140
0.1000000014901161
146
1.200000029802321
147
0.031496062992126
171
     1
176
   256
177
   256
178
   256
272
     2
274
     1
276
     2
277
     5
284
    12
285
     4
286
    12
340
D6
371
    -1
372
    -1
  0
DIMSTYLE
105
DD
330
A
100
AcDbSymbolTableRecord
100
AcDbDimStyleTableRecord
  2
Default - Fraction (ANSI)$7
 70
     0
 40
3.636363636363636
 41
0.0984251946210861
 43
0.2362204724409449
 44
0.125
 45
0.00000001
 46
0.3937007874015748
 79
     3
140
0.1000000014901161
146
1.200000029802321
147
0.031496062992126
171
     1
176
   256
177
   256
178
   256
272
     2
274
     1
276
     2
277
     5
284
    12
285
     4
286
    12
340
D6
371
    -1
372
    -1
  0
DIMSTYLE
105
DE
330
A
100
AcDbSymbolTableRecord
100
AcDbDimStyleTableRecord
  2
Default - mm (ANSI)
 70
     0
 40
3.636363636363636
 41
0.0984251946210861
 42
0.063
 43
0.2362204724409449
 44
0.125
 45
0.00000001
 46
0.3937007874015748
 73
     0
 78
     4
 79
     1
140
0.1000000014901161
143
1.0
144
25.4
146
1.200000029802321
147
0.031496062992126
171
     1
176
   256
177
   256
178
   256
179
     1
271
     2
272
     2
274
     1
284
     4
285
     4
340
D6
371
    -1
372
    -1
  0
DIMSTYLE
105
DF
330
A
100
AcDbSymbolTableRecord
100
AcDbDimStyleTableRecord
  2
Default - mm (ANSI)$7
 70
     0
 40
3.636363636363636
 41
0.0984251946210861
 42
0.063
 43
0.2362204724409449
 44
0.125
 45
0.00000001
 46
0.3937007874015748
 73
     0
 78
     4
 79
     1
140
0.1000000014901161
143
1.0
144
25.4
146
1.200000029802321
147
0.031496062992126
171
     1
176
   256
177
   256
178
   256
179
     1
271
     2
272
     2
274
     1
284
     4
285
     4
340
D6
371
    -1
372
    -1
  0
DIMSTYLE
105
E0
330
A
100
AcDbSymbolTableRecord
100
AcDbDimStyleTableRecord
  2
Default - mm [in] (ANSI)
 70
     0
  4
 in
 40
3.636363636363636
 41
0.0984251946210861
 42
0.063
 43
0.25
 44
0.125
 45
0.00000001
 46
0.3937007874015748
 73
     0
 78
     4
 79
     1
140
0.1000000014901161
143
0.03937
144
25.4
146
1.200000029802321
147
0.031496062992126
170
     1
171
     3
176
   256
177
   256
178
   256
179
     1
271
     2
272
     2
274
     3
284
     4
285
     4
286
     4
340
D6
371
    -1
372
    -1
  0
DIMSTYLE
105
E1
330
A
100
AcDbSymbolTableRecord
100
AcDbDimStyleTableRecord
  2
Default - mm [in] (ANSI)$7
 70
     0
  4
 in
 40
3.636363636363636
 41
0.0984251946210861
 42
0.063
 43
0.25
 44
0.125
 45
0.00000001
 46
0.3937007874015748
 73
     0
 78
     4
 79
     1
140
0.1000000014901161
143
0.03937
144
25.4
146
1.200000029802321
147
0.031496062992126
170
     1
171
     3
176
   256
177
   256
178
   256
179
     1
271
     2
272
     2
274
     3
284
     4
285
     4
286
     4
340
D6
371
    -1
372
    -1
  0
DIMSTYLE
105
E2
102
{ACAD_REACTORS
330
19A
330
287
330
371
330
46F
330
559
330
657
330
76D
330
817
330
8C0
330
9D4
330
AE5
330
BE3
330
CFB
102
}
330
A
100
AcDbSymbolTableRecord
100
AcDbDimStyleTableRecord
  2
Default (ANSI)
 70
     0
 40
3.636363636363636
 41
0.0984251946210861
 43
0.2362204724409449
 44
0.125
 45
0.00000001
 46
0.3937007874015748
140
0.1000000014901161
147
0.031496062992126
176
   256
177
   256
178
   256
271
     2
272
     2
340
D7
371
    -1
372
    -1
  0
DIMSTYLE
105
E3
330
A
100
AcDbSymbolTableRecord
100
AcDbDimStyleTableRecord
  2
Default (ANSI)$7
 70
     0
 40
3.636363636363636
 41
0.0984251946210861
 43
0.2362204724409449
 44
0.125
 45
0.00000001
 46
0.3937007874015748
140
0.1000000014901161
147
0.031496062992126
176
   256
177
   256
178
   256
271
     2
272
     2
340
D7
371
    -1
372
    -1
  0
DIMSTYLE
105
E4
330
A
100
AcDbSymbolTableRecord
100
AcDbDimStyleTableRecord
  2
Alternate (ANSI)
 70
     0
 40
3.636363636363636
 41
0.0979999974370003
340
55
342
E5
  0
DIMSTYLE
105
F7
330
A
100
AcDbSymbolTableRecord
100
AcDbDimStyleTableRecord
  2
Datum (ANSI)
 70
     0
 40
3.636363636363636
 41
0.0979999974370003
340
55
342
E5
  0
DIMSTYLE
105
106
330
A
100
AcDbSymbolTableRecord
100
AcDbDimStyleTableRecord
  2
Large (ANSI)
 70
     0
 40
3.636363636363636
 41
0.1959999948740005
340
55
342
E5
  0
ENDTAB
  0
TABLE
  2
BLOCK_RECORD
  5
1
330
0
100
AcDbSymbolTable
 70
    17
  0
BLOCK_RECORD
  5
6C
330
1
100
AcDbSymbolTableRecord
100
AcDbBlockTableRecord
  2
*Model_Space
340
6F
  0
BLOCK_RECORD
  5
68
330
1
100
AcDbSymbolTableRecord
100
AcDbBlockTableRecord
  2
*Paper_Space
340
6B
  0
BLOCK_RECORD
  5
70
330
1
100
AcDbSymbolTableRecord
100
AcDbBlockTableRecord
  2
*Paper_Space0
340
73
  0
BLOCK_RECORD
  5
E5
330
1
100
AcDbSymbolTableRecord
100
AcDbBlockTableRecord
  2
_Closed
340
0
  0
BLOCK_RECORD
  5
EC
330
1
100
AcDbSymbolTableRecord
100
AcDbBlockTableRecord
  2
DatumFilled45
340
0
  0
BLOCK_RECORD
  5
F8
330
1
100
AcDbSymbolTableRecord
100
AcDbBlockTableRecord
  2
Filled-1
340
0
  0
BLOCK_RECORD
  5
19D
330
1
100
AcDbSymbolTableRecord
100
AcDbBlockTableRecord
  2
*D4
340
0
  0
BLOCK_RECORD
  5
288
330
1
100
AcDbSymbolTableRecord
100
AcDbBlockTableRecord
  2
*D5
340
0
  0
BLOCK_RECORD
  5
372
330
1
100
AcDbSymbolTableRecord
100
AcDbBlockTableRecord
  2
*D6
340
0
  0
BLOCK_RECORD
  5
470
330
1
100
AcDbSymbolTableRecord
100
AcDbBlockTableRecord
  2
*D7
340
0
  0
BLOCK_RECORD
  5
55A
330
1
100
AcDbSymbolTableRecord
100
AcDbBlockTableRecord
  2
*D8
340
0
  0
BLOCK_RECORD
  5
658
330
1
100
AcDbSymbolTableRecord
100
AcDbBlockTableRecord
  2
*D9
340
0
  0
BLOCK_RECORD
  5
76E
330
1
100
AcDbSymbolTableRecord
100
AcDbBlockTableRecord
  2
*D10
340
0
  0
BLOCK_RECORD
  5
818
330
1
100
AcDbSymbolTableRecord
100
AcDbBlockTableRecord
  2
*D11
340
0
  0
BLOCK_RECORD
  5
8C1
330
1
100
AcDbSymbolTableRecord
100
AcDbBlockTableRecord
  2
*D12
340
0
  0
BLOCK_RECORD
  5
9D5
330
1
100
AcDbSymbolTableRecord
100
AcDbBlockTableRecord
  2
*D13
340
0
  0
BLOCK_RECORD
  5
AE6
330
1
100
AcDbSymbolTableRecord
100
AcDbBlockTableRecord
  2
*D14
340
0
  0
BLOCK_RECORD
  5
BE4
330
1
100
AcDbSymbolTableRecord
100
AcDbBlockTableRecord
  2
*D15
340
0
  0
BLOCK_RECORD
  5
CFC
330
1
100
AcDbSymbolTableRecord
100
AcDbBlockTableRecord
  2
*D16
340
0
  0
ENDTAB
  0
ENDSEC
  0
SECTION
  2
BLOCKS
  0
BLOCK
  5
6D
330
6C
100
AcDbEntity
  8
0
100
AcDbBlockBegin
  2
*Model_Space
 70
     0
 10
0.0
 20
0.0
 30
0.0
  3
*Model_Space
  1

  0
ENDBLK
  5
6E
330
6C
100
AcDbEntity
  8
0
100
AcDbBlockEnd
  0
BLOCK
  5
69
330
68
100
AcDbEntity
 67
     1
  8
0
100
AcDbBlockBegin
  2
*Paper_Space
 70
     0
 10
0.0
 20
0.0
 30
0.0
  3
*Paper_Space
  1

  0
ENDBLK
  5
6A
330
68
100
AcDbEntity
 67
     1
  8
0
100
AcDbBlockEnd
  0
BLOCK
  5
71
330
70
100
AcDbEntity
 67
     1
  8
0
100
AcDbBlockBegin
  2
*Paper_Space0
 70
     0
 10
0.0
 20
0.0
 30
0.0
  3
*Paper_Space0
  1

  0
ENDBLK
  5
72
330
70
100
AcDbEntity
 67
     1
  8
0
100
AcDbBlockEnd
  0
BLOCK
  5
EA
330
E5
100
AcDbEntity
  8
0
100
AcDbBlockBegin
  2
_Closed
 70
     0
 10
0.0
 20
0.0
 30
0.0
  3
_Closed
  1

  0
LINE
  5
E6
330
E5
100
AcDbEntity
  8
0
  6
ByBlock
 62
     0
370
    -2
100
AcDbLine
 10
-1.0
 20
0.1666666666666666
 30
0.0
 11
0.0
 21
0.0
 31
0.0
  0
LINE
  5
E7
330
E5
100
AcDbEntity
  8
0
  6
ByBlock
 62
     0
370
    -2
100
AcDbLine
 10
0.0
 20
0.0
 30
0.0
 11
-1.0
 21
-0.1666666666666666
 31
0.0
  0
LINE
  5
E8
330
E5
100
AcDbEntity
  8
0
  6
ByBlock
 62
     0
370
    -2
100
AcDbLine
 10
-1.0
 20
0.1666666666666666
 30
0.0
 11
-1.0
 21
-0.1666666666666666
 31
0.0
  0
LINE
  5
E9
330
E5
100
AcDbEntity
  8
0
  6
ByBlock
 62
     0
370
    -2
100
AcDbLine
 10
0.0
 20
0.0
 30
0.0
 11
-1.0
 21
0.0
 31
0.0
  0
ENDBLK
  5
EB
330
E5
100
AcDbEntity
  8
0
100
AcDbBlockEnd
  0
BLOCK
  5
ED
330
EC
100
AcDbEntity
  8
0
100
AcDbBlockBegin
  2
DatumFilled45
 70
     0
 10
0.0
 20
0.0
 30
0.0
  3
DatumFilled45
  1

  0
POLYLINE
  5
EF
330
EC
100
AcDbEntity
  8
0
 62
     0
100
AcDb2dPolyline
 66
     1
 10
0.0
 20
0.0
 30
0.0
 70
   128
  0
VERTEX
  5
F0
330
EF
100
AcDbEntity
  8
0
 62
     0
100
AcDbVertex
100
AcDb2dVertex
 10
0.0
 20
0.9999999999999998
 30
0.0
  0
VERTEX
  5
F1
330
EF
100
AcDbEntity
  8
0
 62
     0
100
AcDbVertex
100
AcDb2dVertex
 10
0.0
 20
-0.9999999999999998
 30
0.0
  0
VERTEX
  5
F3
330
EF
100
AcDbEntity
  8
0
 62
     0
100
AcDbVertex
100
AcDb2dVertex
 10
-0.9999999999999998
 20
0.0
 30
0.0
  0
VERTEX
  5
F4
330
EF
100
AcDbEntity
  8
0
 62
     0
100
AcDbVertex
100
AcDb2dVertex
 10
0.0
 20
0.9999999999999998
 30
0.0
  0
SEQEND
  5
F2
330
EF
100
AcDbEntity
  8
0
 62
     0
  0
SOLID
  5
F6
330
EC
100
AcDbEntity
  8
0
 62
     0
100
AcDbTrace
 10
0.0
 20
0.9999999999999998
 30
0.0
 11
0.0
 21
-0.9999999999999998
 31
0.0
 12
-0.9999999999999998
 22
0.0
 32
0.0
 13
0.0
 23
0.9999999999999998
 33
0.0
  0
ENDBLK
  5
EE
330
EC
100
AcDbEntity
  8
0
100
AcDbBlockEnd
  0
BLOCK
  5
F9
330
F8
100
AcDbEntity
  8
0
100
AcDbBlockBegin
  2
Filled-1
 70
     0
 10
0.0
 20
0.0
 30
0.0
  3
Filled-1
  1

  0
LINE
  5
FB
330
F8
100
AcDbEntity
  8
0
 62
     0
100
AcDbLine
 10
-0.9999999999999998
 20
0.0
 30
0.0
 11
0.0
 21
0.0
 31
0.0
  0
POLYLINE
  5
FC
330
F8
100
AcDbEntity
  8
0
 62
     0
100
AcDb2dPolyline
 66
     1
 10
0.0
 20
0.0
 30
0.0
 70
   128
  0
VERTEX
  5
FD
330
FC
100
AcDbEntity
  8
0
 62
     0
100
AcDbVertex
100
AcDb2dVertex
 10
-0.9999999999999998
 20
-0.0994897959183674
 30
0.0
  0
VERTEX
  5
FE
330
FC
100
AcDbEntity
  8
0
 62
     0
100
AcDbVertex
100
AcDb2dVertex
 10
0.0
 20
0.0
 30
0.0
  0
VERTEX
  5
100
330
FC
100
AcDbEntity
  8
0
 62
     0
100
AcDbVertex
100
AcDb2dVertex
 10
-0.9999999999999998
 20
0.0994897959183674
 30
0.0
  0
VERTEX
  5
101
330
FC
100
AcDbEntity
  8
0
 62
     0
100
AcDbVertex
100
AcDb2dVertex
 10
-0.9999999999999998
 20
-0.0994897959183674
 30
0.0
  0
SEQEND
  5
FF
330
FC
100
AcDbEntity
  8
0
 62
     0
  0
SOLID
  5
102
330
F8
100
AcDbEntity
  8
0
 62
     0
100
AcDbTrace
 10
-0.9999999999999998
 20
-0.0994897959183674
 30
0.0
 11
0.0
 21
0.0
 31
0.0
 12
-0.9999999999999998
 22
0.0994897959183674
 32
0.0
 13
-0.9999999999999998
 23
-0.0994897959183674
 33
0.0
  0
LINE
  5
103
330
F8
100
AcDbEntity
  8
0
 62
     0
100
AcDbLine
 10
-0.9999999999999998
 20
-0.0994897959183674
 30
0.0
 11
0.0
 21
0.0
 31
0.0
  0
LINE
  5
104
330
F8
100
AcDbEntity
  8
0
 62
     0
100
AcDbLine
 10
0.0
 20
0.0
 30
0.0
 11
-0.9999999999999998
 21
0.0994897959183674
 31
0.0
  0
LINE
  5
105
330
F8
100
AcDbEntity
  8
0
 62
     0
100
AcDbLine
 10
-0.9999999999999998
 20
0.0994897959183674
 30
0.0
 11
-0.9999999999999998
 21
-0.0994897959183674
 31
0.0
  0
ENDBLK
  5
FA
330
F8
100
AcDbEntity
  8
0
100
AcDbBlockEnd
  0
BLOCK
  5
19E
330
19D
100
AcDbEntity
  8
0
100
AcDbBlockBegin
  2
*D4
 70
     1
 10
0.0
 20
0.0
 30
0.0
  3
*D4
  1

  0
LINE
  5
27D
330
19D
100
AcDbEntity
  8
Dimension (ANSI)
100
AcDbLine
 10
8.071000607321405
 20
31.16683445884329
 30
0.0
 11
8.071000607321405
 21
36.64243946734862
 31
0.0
  0
LINE
  5
27E
330
19D
100
AcDbEntity
  8
Dimension (ANSI)
100
AcDbLine
 10
30.2710006073214
 20
31.16683445884329
 30
0.0
 11
30.2710006073214
 21
36.64243946734862
 31
0.0
  0
LINE
  5
27F
330
19D
100
AcDbEntity
  8
Dimension (ANSI)
100
AcDbLine
 10
8.428910405943536
 20
36.18789401280317
 30
0.0
 11
18.32919673105828
 21
36.18789401280317
 31
0.0
  0
LINE
  5
280
330
19D
100
AcDbEntity
  8
Dimension (ANSI)
100
AcDbLine
 10
29.91309080869927
 20
36.18789401280317
 30
0.0
 11
20.01280448358452
 21
36.18789401280317
 31
0.0
  0
SOLID
  5
281
330
19D
100
AcDbEntity
  8
Dimension (ANSI)
100
AcDbTrace
 10
8.428910405943536
 20
36.24754564590686
 30
0.0
 11
8.428910405943536
 21
36.12824237969948
 31
0.0
 12
8.071000607321405
 22
36.18789401280317
 32
0.0
 13
8.071000607321405
 23
36.18789401280317
 33
0.0
  0
SOLID
  5
282
330
19D
100
AcDbEntity
  8
Dimension (ANSI)
100
AcDbTrace
 10
29.91309080869927
 20
36.24754564590686
 30
0.0
 11
29.91309080869927
 21
36.12824237969948
 31
0.0
 12
30.2710006073214
 22
36.18789401280317
 32
0.0
 13
30.2710006073214
 23
36.18789401280317
 33
0.0
  0
MTEXT
  5
283
330
19D
100
AcDbEntity
  8
Dimension (ANSI)
100
AcDbMText
 10
18.44372786921146
 20
36.36971219733065
 30
0.0
 40
0.3636363690549677
 41
0.0
 71
     1
 72
     1
  1
\A1;22.20
  7
ROMANS
 73
     1
 44
1.0
1001
ACAD
1000
MTEXTBEGIN
1070
    73
1070
     1
1070
    44
1040
1.0
1070
    74
1070
     0
1000
MTEXTEND
  0
POINT
  5
284
330
19D
100
AcDbEntity
  8
Defpoints
 62
     0
100
AcDbPoint
 10
8.071000607321405
 20
30.93956173157056
 30
0.0
  0
POINT
  5
285
330
19D
100
AcDbEntity
  8
Defpoints
 62
     0
100
AcDbPoint
 10
30.2710006073214
 20
30.93956173157056
 30
0.0
  0
POINT
  5
286
330
19D
100
AcDbEntity
  8
Defpoints
 62
     0
100
AcDbPoint
 10
30.2710006073214
 20
36.18789401280317
 30
0.0
  0
ENDBLK
  5
19F
330
19D
100
AcDbEntity
  8
0
100
AcDbBlockEnd
  0
BLOCK
  5
289
330
288
100
AcDbEntity
  8
0
100
AcDbBlockBegin
  2
*D5
 70
     1
 10
0.0
 20
0.0
 30
0.0
  3
*D5
  1

  0
LINE
  5
367
330
288
100
AcDbEntity
  8
Dimension (ANSI)
100
AcDbLine
 10
8.571000607321403
 20
31.66683445884328
 30
0.0
 11
8.571000607321403
 21
35.04371348532861
 31
0.0
  0
LINE
  5
368
330
288
100
AcDbEntity
  8
Dimension (ANSI)
100
AcDbLine
 10
29.77100060732141
 20
31.66683445884329
 30
0.0
 11
29.77100060732141
 21
35.04371348532861
 31
0.0
  0
LINE
  5
369
330
288
100
AcDbEntity
  8
Dimension (ANSI)
100
AcDbLine
 10
8.928910405943534
 20
34.58916803078316
 30
0.0
 11
17.59326598416132
 21
34.58916803078316
 31
0.0
  0
LINE
  5
36A
330
288
100
AcDbEntity
  8
Dimension (ANSI)
100
AcDbLine
 10
29.41309080869928
 20
34.58916803078316
 30
0.0
 11
20.74873523048148
 21
34.58916803078316
 31
0.0
  0
SOLID
  5
36B
330
288
100
AcDbEntity
  8
Dimension (ANSI)
100
AcDbTrace
 10
8.928910405943534
 20
34.64881966388685
 30
0.0
 11
8.928910405943534
 21
34.52951639767947
 31
0.0
 12
8.571000607321403
 22
34.58916803078316
 32
0.0
 13
8.571000607321403
 23
34.58916803078316
 33
0.0
  0
SOLID
  5
36C
330
288
100
AcDbEntity
  8
Dimension (ANSI)
100
AcDbTrace
 10
29.41309080869928
 20
34.64881966388685
 30
0.0
 11
29.41309080869928
 21
34.52951639767947
 31
0.0
 12
29.77100060732141
 22
34.58916803078316
 32
0.0
 13
29.77100060732141
 23
34.58916803078316
 33
0.0
  0
MTEXT
  5
36D
330
288
100
AcDbEntity
  8
Dimension (ANSI)
100
AcDbMText
 10
19.1710006073214
 20
34.58916803078316
 30
0.0
 40
0.3636363690549677
 41
0.0
 71
     5
 72
     1
  1
\A1;21.20{ TYP.}
  7
ROMANS
 73
     1
 44
1.0
1001
ACAD
1000
MTEXTBEGIN
1070
    73
1070
     1
1070
    44
1040
1.0
1070
    74
1070
     0
1000
MTEXTEND
  0
POINT
  5
36E
330
288
100
AcDbEntity
  8
Defpoints
 62
     0
100
AcDbPoint
 10
8.571000607321403
 20
31.43956173157056
 30
0.0
  0
POINT
  5
36F
330
288
100
AcDbEntity
  8
Defpoints
 62
     0
100
AcDbPoint
 10
29.77100060732141
 20
31.43956173157056
 30
0.0
  0
POINT
  5
370
330
288
100
AcDbEntity
  8
Defpoints
 62
     0
100
AcDbPoint
 10
29.77100060732141
 20
34.58916803078316
 30
0.0
  0
ENDBLK
  5
28A
330
288
100
AcDbEntity
  8
0
100
AcDbBlockEnd
  0
BLOCK
  5
373
330
372
100
AcDbEntity
  8
0
100
AcDbBlockBegin
  2
*D6
 70
     1
 10
0.0
 20
0.0
 30
0.0
  3
*D6
  1

  0
LINE
  5
465
330
372
100
AcDbEntity
  8
Dimension (ANSI)
100
AcDbLine
 10
8.071000607321405
 20
31.16683445884329
 30
0.0
 11
8.071000607321405
 21
35.04371348532862
 31
0.0
  0
LINE
  5
466
330
372
100
AcDbEntity
  8
Dimension (ANSI)
100
AcDbLine
 10
8.571000607321403
 20
31.66683445884328
 30
0.0
 11
8.571000607321403
 21
35.04371348532862
 31
0.0
  0
LINE
  5
467
330
372
100
AcDbEntity
  8
Dimension (ANSI)
100
AcDbLine
 10
8.928910405943534
 20
34.58916803078317
 30
0.0
 11
9.286820204565666
 21
34.58916803078317
 31
0.0
  0
LINE
  5
468
330
372
100
AcDbEntity
  8
Dimension (ANSI)
100
AcDbLine
 10
7.713090808699273
 20
34.58916803078317
 30
0.0
 11
7.208605011306636
 21
34.58916803078317
 31
0.0
  0
SOLID
  5
469
330
372
100
AcDbEntity
  8
Dimension (ANSI)
100
AcDbTrace
 10
8.928910405943534
 20
34.64881966388686
 30
0.0
 11
8.928910405943534
 21
34.52951639767948
 31
0.0
 12
8.571000607321403
 22
34.58916803078317
 32
0.0
 13
8.571000607321403
 23
34.58916803078317
 33
0.0
  0
SOLID
  5
46A
330
372
100
AcDbEntity
  8
Dimension (ANSI)
100
AcDbTrace
 10
7.713090808699273
 20
34.64881966388686
 30
0.0
 11
7.713090808699273
 21
34.52951639767948
 31
0.0
 12
8.071000607321405
 22
34.58916803078317
 32
0.0
 13
8.071000607321405
 23
34.58916803078317
 33
0.0
  0
MTEXT
  5
46B
330
372
100
AcDbEntity
  8
Dimension (ANSI)
100
AcDbMText
 10
6.539961310783977
 20
34.58916803078317
 30
0.0
 40
0.3636363690549677
 41
0.0
 71
     5
 72
     1
  1
\A1;0.50{\PTYP.}
  7
ROMANS
 73
     1
 44
1.0
1001
ACAD
1000
MTEXTBEGIN
1070
    73
1070
     1
1070
    44
1040
1.0
1070
    74
1070
     0
1000
MTEXTEND
  0
POINT
  5
46C
330
372
100
AcDbEntity
  8
Defpoints
 62
     0
100
AcDbPoint
 10
8.071000607321405
 20
30.93956173157056
 30
0.0
  0
POINT
  5
46D
330
372
100
AcDbEntity
  8
Defpoints
 62
     0
100
AcDbPoint
 10
8.571000607321403
 20
31.43956173157056
 30
0.0
  0
POINT
  5
46E
330
372
100
AcDbEntity
  8
Defpoints
 62
     0
100
AcDbPoint
 10
8.571000607321403
 20
34.58916803078317
 30
0.0
  0
ENDBLK
  5
374
330
372
100
AcDbEntity
  8
0
100
AcDbBlockEnd
  0
BLOCK
  5
471
330
470
100
AcDbEntity
  8
0
100
AcDbBlockBegin
  2
*D7
 70
     1
 10
0.0
 20
0.0
 30
0.0
  3
*D7
  1

  0
LINE
  5
54F
330
470
100
AcDbEntity
  8
Dimension (ANSI)
100
AcDbLine
 10
8.343727880048676
 20
31.43956173157056
 30
0.0
 11
3.248881781265587
 21
31.43956173157056
 31
0.0
  0
LINE
  5
550
330
470
100
AcDbEntity
  8
Dimension (ANSI)
100
AcDbLine
 10
8.343727880048685
 20
9.23956173157056
 30
0.0
 11
3.248881781265582
 21
9.239561731570562
 31
0.0
  0
LINE
  5
551
330
470
100
AcDbEntity
  8
Dimension (ANSI)
100
AcDbLine
 10
3.703427235811041
 20
31.08165193294843
 30
0.0
 11
3.703427235811038
 21
20.63591105425123
 31
0.0
  0
LINE
  5
552
330
470
100
AcDbEntity
  8
Dimension (ANSI)
100
AcDbLine
 10
3.703427235811036
 20
9.597471530192693
 30
0.0
 11
3.703427235811038
 21
20.04321240888989
 31
0.0
  0
SOLID
  5
553
330
470
100
AcDbEntity
  8
Dimension (ANSI)
100
AcDbTrace
 10
3.643775602707352
 20
31.08165193294843
 30
0.0
 11
3.76307886891473
 21
31.08165193294843
 31
0.0
 12
3.703427235811041
 22
31.43956173157056
 32
0.0
 13
3.703427235811041
 23
31.43956173157056
 33
0.0
  0
SOLID
  5
554
330
470
100
AcDbEntity
  8
Dimension (ANSI)
100
AcDbTrace
 10
3.643775602707347
 20
9.597471530192693
 30
0.0
 11
3.763078868914725
 21
9.597471530192693
 31
0.0
 12
3.703427235811036
 22
9.239561731570562
 32
0.0
 13
3.703427235811036
 23
9.239561731570562
 33
0.0
  0
MTEXT
  5
555
330
470
100
AcDbEntity
  8
Dimension (ANSI)
100
AcDbMText
 10
2.9761544977011
 20
20.52137991609804
 30
0.0
 40
0.3636363690549677
 41
0.0
 71
     1
 72
     1
  1
\A1;22.20
  7
ROMANS
 73
     1
 44
1.0
1001
ACAD
1000
MTEXTBEGIN
1070
    73
1070
     1
1070
    44
1040
1.0
1070
    74
1070
     0
1000
MTEXTEND
  0
POINT
  5
556
330
470
100
AcDbEntity
  8
Defpoints
 62
     0
100
AcDbPoint
 10
8.571000607321403
 20
31.43956173157056
 30
0.0
  0
POINT
  5
557
330
470
100
AcDbEntity
  8
Defpoints
 62
     0
100
AcDbPoint
 10
8.571000607321412
 20
9.23956173157056
 30
0.0
  0
POINT
  5
558
330
470
100
AcDbEntity
  8
Defpoints
 62
     0
100
AcDbPoint
 10
3.703427235811036
 20
9.239561731570562
 30
0.0
  0
ENDBLK
  5
472
330
470
100
AcDbEntity
  8
0
100
AcDbBlockEnd
  0
BLOCK
  5
55B
330
55A
100
AcDbEntity
  8
0
100
AcDbBlockBegin
  2
*D8
 70
     1
 10
0.0
 20
0.0
 30
0.0
  3
*D8
  1

  0
LINE
  5
64D
330
55A
100
AcDbEntity
  8
Dimension (ANSI)
100
AcDbLine
 10
7.843727880048683
 20
9.739561731570562
 30
0.0
 11
6.024368915857078
 21
9.739561731570562
 31
0.0
  0
LINE
  5
64E
330
55A
100
AcDbEntity
  8
Dimension (ANSI)
100
AcDbLine
 10
7.843727880048677
 20
30.93956173157057
 30
0.0
 11
6.024368915857083
 21
30.93956173157057
 31
0.0
  0
LINE
  5
64F
330
55A
100
AcDbEntity
  8
Dimension (ANSI)
100
AcDbLine
 10
6.478914370402534
 20
10.09747153019269
 30
0.0
 11
6.478914370402535
 21
19.74018210134408
 31
0.0
  0
LINE
  5
650
330
55A
100
AcDbEntity
  8
Dimension (ANSI)
100
AcDbLine
 10
6.478914370402538
 20
30.58165193294843
 30
0.0
 11
6.478914370402535
 21
20.93894136179703
 31
0.0
  0
SOLID
  5
651
330
55A
100
AcDbEntity
  8
Dimension (ANSI)
100
AcDbTrace
 10
6.419262737298845
 20
10.09747153019269
 30
0.0
 11
6.538566003506222
 21
10.09747153019269
 31
0.0
 12
6.478914370402533
 22
9.739561731570562
 32
0.0
 13
6.478914370402533
 23
9.739561731570562
 33
0.0
  0
SOLID
  5
652
330
55A
100
AcDbEntity
  8
Dimension (ANSI)
100
AcDbTrace
 10
6.41926273729885
 20
30.58165193294843
 30
0.0
 11
6.538566003506226
 21
30.58165193294843
 31
0.0
 12
6.478914370402538
 22
30.93956173157057
 32
0.0
 13
6.478914370402538
 23
30.93956173157057
 33
0.0
  0
MTEXT
  5
653
330
55A
100
AcDbEntity
  8
Dimension (ANSI)
100
AcDbMText
 10
6.478914370402532
 20
20.33956173157056
 30
0.0
 40
0.3636363690549677
 41
0.0
 71
     5
 72
     1
  1
\A1;21.20{\PTYP.}
  7
ROMANS
 73
     1
 44
1.0
1001
ACAD
1000
MTEXTBEGIN
1070
    73
1070
     1
1070
    44
1040
1.0
1070
    74
1070
     0
1000
MTEXTEND
  0
POINT
  5
654
330
55A
100
AcDbEntity
  8
Defpoints
 62
     0
100
AcDbPoint
 10
8.07100060732141
 20
9.739561731570562
 30
0.0
  0
POINT
  5
655
330
55A
100
AcDbEntity
  8
Defpoints
 62
     0
100
AcDbPoint
 10
8.071000607321405
 20
30.93956173157056
 30
0.0
  0
POINT
  5
656
330
55A
100
AcDbEntity
  8
Defpoints
 62
     0
100
AcDbPoint
 10
6.478914370402538
 20
30.93956173157057
 30
0.0
  0
ENDBLK
  5
55C
330
55A
100
AcDbEntity
  8
0
100
AcDbBlockEnd
  0
BLOCK
  5
659
330
658
100
AcDbEntity
  8
0
100
AcDbBlockBegin
  2
*D9
 70
     1
 10
0.0
 20
0.0
 30
0.0
  3
*D9
  1

  0
LINE
  5
762
330
658
100
AcDbEntity
  8
Dimension (ANSI)
100
AcDbLine
 10
8.343727880048676
 20
31.43956173157056
 30
0.0
 11
5.015098504024868
 21
31.43956173157056
 31
0.0
  0
LINE
  5
763
330
658
100
AcDbEntity
  8
Dimension (ANSI)
100
AcDbLine
 10
7.843727880048677
 20
30.93956173157057
 30
0.0
 11
5.015098504024868
 21
30.93956173157057
 31
0.0
  0
LINE
  5
764
330
658
100
AcDbEntity
  8
Dimension (ANSI)
100
AcDbLine
 10
5.469643958570322
 20
30.58165193294843
 30
0.0
 11
5.469643958570322
 21
30.2237421343263
 31
0.0
  0
LINE
  5
765
330
658
100
AcDbEntity
  8
Dimension (ANSI)
100
AcDbLine
 10
5.469643958570322
 20
31.79747153019269
 30
0.0
 11
5.469643958570322
 21
32.8392206694794
 31
0.0
  0
LINE
  5
766
330
658
100
AcDbEntity
  8
Dimension (ANSI)
100
AcDbLine
 10
5.469643958570322
 20
32.8392206694794
 30
0.0
 11
5.827553757192453
 21
32.8392206694794
 31
0.0
  0
SOLID
  5
767
330
658
100
AcDbEntity
  8
Dimension (ANSI)
100
AcDbTrace
 10
5.409992325466634
 20
30.58165193294843
 30
0.0
 11
5.52929559167401
 21
30.58165193294843
 31
0.0
 12
5.469643958570322
 22
30.93956173157057
 32
0.0
 13
5.469643958570322
 23
30.93956173157057
 33
0.0
  0
SOLID
  5
768
330
658
100
AcDbEntity
  8
Dimension (ANSI)
100
AcDbTrace
 10
5.409992325466634
 20
31.79747153019269
 30
0.0
 11
5.52929559167401
 21
31.79747153019269
 31
0.0
 12
5.469643958570322
 22
31.43956173157056
 32
0.0
 13
5.469643958570322
 23
31.43956173157056
 33
0.0
  0
MTEXT
  5
769
330
658
100
AcDbEntity
  8
Dimension (ANSI)
100
AcDbMText
 10
6.496197457715108
 20
32.8392206694794
 30
0.0
 40
0.3636363690549677
 41
0.0
 71
     5
 72
     1
  1
\A1;0.50{\PTYP.}
  7
ROMANS
 73
     1
 44
1.0
1001
ACAD
1000
MTEXTBEGIN
1070
    73
1070
     1
1070
    44
1040
1.0
1070
    74
1070
     0
1000
MTEXTEND
  0
POINT
  5
76A
330
658
100
AcDbEntity
  8
Defpoints
 62
     0
100
AcDbPoint
 10
8.571000607321403
 20
31.43956173157056
 30
0.0
  0
POINT
  5
76B
330
658
100
AcDbEntity
  8
Defpoints
 62
     0
100
AcDbPoint
 10
8.071000607321405
 20
30.93956173157056
 30
0.0
  0
POINT
  5
76C
330
658
100
AcDbEntity
  8
Defpoints
 62
     0
100
AcDbPoint
 10
5.469643958570322
 20
30.93956173157057
 30
0.0
  0
ENDBLK
  5
65A
330
658
100
AcDbEntity
  8
0
100
AcDbBlockEnd
  0
BLOCK
  5
76F
330
76E
100
AcDbEntity
  8
0
100
AcDbBlockBegin
  2
*D10
 70
     1
 10
0.0
 20
0.0
 30
0.0
  3
*D10
  1

  0
LINE
  5
80F
330
76E
100
AcDbEntity
  8
Dimension (ANSI)
100
AcDbLine
 10
11.79028771213469
 20
7.145681923328726
 30
0.0
 11
11.20488041556401
 21
7.145681923328725
 31
0.0
  0
LINE
  5
810
330
76E
100
AcDbEntity
  8
Dimension (ANSI)
100
AcDbLine
 10
11.20488041556401
 20
7.145681923328725
 30
0.0
 11
9.020857748276933
 21
9.329704590615166
 31
0.0
  0
MTEXT
  5
811
102
{ACAD_XDICTIONARY
360
E2D
102
}
330
76E
100
AcDbEntity
  8
Dimension (ANSI)
100
AcDbMText
 10
11.90481885028788
 20
7.422738204513461
 30
0.0
 40
0.3636363690549677
 41
0.0
 71
     1
 72
     1
  1
\A1;\U+22050.50{ TYP. (4 PL.)}
  7
ROMANS
 73
     1
 44
1.0
1001
ACAD
1000
MTEXTBEGIN
1070
    73
1070
     1
1070
    44
1040
1.0
1070
    74
1070
     0
1000
MTEXTEND
  0
SOLID
  5
812
330
76E
100
AcDbEntity
  8
Dimension (ANSI)
100
AcDbTrace
 10
9.063037822553399
 20
9.371884664891643
 30
0.0
 11
8.978677674000469
 21
9.28752451633869
 31
0.0
 12
8.767777302618076
 22
9.582785036273952
 32
0.0
 13
8.767777302618076
 23
9.582785036273952
 33
0.0
  0
LINE
  5
813
330
76E
100
AcDbEntity
  8
Dimension (ANSI)
100
AcDbLine
 10
8.263727880048685
 20
9.759561731570562
 30
0.0
 11
8.918273334594143
 21
9.759561731570563
 31
0.0
  0
LINE
  5
814
330
76E
100
AcDbEntity
  8
Dimension (ANSI)
100
AcDbLine
 10
8.591000607321413
 20
9.432289004297834
 30
0.0
 11
8.591000607321415
 21
10.08683445884329
 31
0.0
  0
POINT
  5
815
330
76E
100
AcDbEntity
  8
Defpoints
 62
     0
100
AcDbPoint
 10
8.767777302618076
 20
9.582785036273952
 30
0.0
  0
POINT
  5
816
330
76E
100
AcDbEntity
  8
Defpoints
 62
     0
100
AcDbPoint
 10
8.414223912024752
 20
9.936338426867173
 30
0.0
  0
ENDBLK
  5
770
330
76E
100
AcDbEntity
  8
0
100
AcDbBlockEnd
  0
BLOCK
  5
819
330
818
100
AcDbEntity
  8
0
100
AcDbBlockBegin
  2
*D11
 70
     1
 10
0.0
 20
0.0
 30
0.0
  3
*D11
  1

  0
LINE
  5
8B8
330
818
100
AcDbEntity
  8
Dimension (ANSI)
100
AcDbLine
 10
11.72722819681647
 20
7.958741438646929
 30
0.0
 11
11.14182090024582
 21
7.95874143864693
 31
0.0
  0
LINE
  5
8B9
330
818
100
AcDbEntity
  8
Dimension (ANSI)
100
AcDbLine
 10
11.14182090024582
 20
7.95874143864693
 30
0.0
 11
8.954566487540684
 21
10.1459958513514
 31
0.0
  0
MTEXT
  5
8BA
102
{ACAD_XDICTIONARY
360
E2F
102
}
330
818
100
AcDbEntity
  8
Dimension (ANSI)
100
AcDbMText
 10
11.84175933496966
 20
8.235797719831666
 30
0.0
 40
0.3636363690549677
 41
0.0
 71
     1
 72
     1
  1
\A1;\U+22050.31{ TYP. (4 PL.)}
  7
ROMANS
 73
     1
 44
1.0
1001
ACAD
1000
MTEXTBEGIN
1070
    73
1070
     1
1070
    44
1040
1.0
1070
    74
1070
     0
1000
MTEXTEND
  0
SOLID
  5
8BB
330
818
100
AcDbEntity
  8
Dimension (ANSI)
100
AcDbTrace
 10
8.996746561817149
 20
10.18817592562787
 30
0.0
 11
8.91238641326422
 21
10.10381577707492
 31
0.0
 12
8.701486041881826
 22
10.39907629701018
 32
0.0
 13
8.701486041881826
 23
10.39907629701018
 33
0.0
  0
LINE
  5
8BC
330
818
100
AcDbEntity
  8
Dimension (ANSI)
100
AcDbLine
 10
8.263727880048682
 20
10.50956173157056
 30
0.0
 11
8.91827333459414
 21
10.50956173157056
 31
0.0
  0
LINE
  5
8BD
330
818
100
AcDbEntity
  8
Dimension (ANSI)
100
AcDbLine
 10
8.591000607321412
 20
10.18228900429783
 30
0.0
 11
8.591000607321412
 21
10.83683445884329
 31
0.0
  0
POINT
  5
8BE
330
818
100
AcDbEntity
  8
Defpoints
 62
     0
100
AcDbPoint
 10
8.701486041881826
 20
10.39907629701018
 30
0.0
  0
POINT
  5
8BF
330
818
100
AcDbEntity
  8
Defpoints
 62
     0
100
AcDbPoint
 10
8.480515172760997
 20
10.62004716613094
 30
0.0
  0
ENDBLK
  5
81A
330
818
100
AcDbEntity
  8
0
100
AcDbBlockEnd
  0
BLOCK
  5
8C2
330
8C1
100
AcDbEntity
  8
0
100
AcDbBlockBegin
  2
*D12
 70
     1
 10
0.0
 20
0.0
 30
0.0
  3
*D12
  1

  0
LINE
  5
9C9
330
8C1
100
AcDbEntity
  8
Dimension (ANSI)
100
AcDbLine
 10
29.99827333459414
 20
9.23956173157056
 30
0.0
 11
33.89659392027411
 21
9.23956173157056
 31
0.0
  0
LINE
  5
9CA
330
8C1
100
AcDbEntity
  8
Dimension (ANSI)
100
AcDbLine
 10
29.97827333459414
 20
9.75956173157056
 30
0.0
 11
33.89659392027411
 21
9.75956173157056
 31
0.0
  0
LINE
  5
9CB
330
8C1
100
AcDbEntity
  8
Dimension (ANSI)
100
AcDbLine
 10
33.44204846572865
 20
10.11747153019269
 30
0.0
 11
33.44204846572865
 21
10.47538132881482
 31
0.0
  0
LINE
  5
9CC
330
8C1
100
AcDbEntity
  8
Dimension (ANSI)
100
AcDbLine
 10
33.44204846572865
 20
8.881651932948429
 30
0.0
 11
33.44204846572865
 21
8.171333838763709
 31
0.0
  0
LINE
  5
9CD
330
8C1
100
AcDbEntity
  8
Dimension (ANSI)
100
AcDbLine
 10
33.44204846572865
 20
8.171333838763709
 30
0.0
 11
33.08413866710652
 21
8.171333838763709
 31
0.0
  0
SOLID
  5
9CE
330
8C1
100
AcDbEntity
  8
Dimension (ANSI)
100
AcDbTrace
 10
33.38239683262496
 20
10.11747153019269
 30
0.0
 11
33.50170009883234
 21
10.11747153019269
 31
0.0
 12
33.44204846572865
 22
9.75956173157056
 32
0.0
 13
33.44204846572865
 23
9.75956173157056
 33
0.0
  0
SOLID
  5
9CF
330
8C1
100
AcDbEntity
  8
Dimension (ANSI)
100
AcDbTrace
 10
33.38239683262496
 20
8.881651932948429
 30
0.0
 11
33.50170009883234
 21
8.881651932948429
 31
0.0
 12
33.44204846572865
 22
9.23956173157056
 32
0.0
 13
33.44204846572865
 23
9.23956173157056
 33
0.0
  0
MTEXT
  5
9D0
330
8C1
100
AcDbEntity
  8
Dimension (ANSI)
100
AcDbMText
 10
32.41549496658386
 20
8.171333838763715
 30
0.0
 40
0.3636363690549677
 41
0.0
 71
     5
 72
     1
  1
\A1;0.52{ \PTYP.}
  7
ROMANS
 73
     1
 44
1.0
1001
ACAD
1000
MTEXTBEGIN
1070
    73
1070
     1
1070
    44
1040
1.0
1070
    74
1070
     0
1000
MTEXTEND
  0
POINT
  5
9D1
330
8C1
100
AcDbEntity
  8
Defpoints
 62
     0
100
AcDbPoint
 10
29.77100060732141
 20
9.23956173157056
 30
0.0
  0
POINT
  5
9D2
330
8C1
100
AcDbEntity
  8
Defpoints
 62
     0
100
AcDbPoint
 10
29.75100060732141
 20
9.75956173157056
 30
0.0
  0
POINT
  5
9D3
330
8C1
100
AcDbEntity
  8
Defpoints
 62
     0
100
AcDbPoint
 10
33.44204846572865
 20
9.75956173157056
 30
0.0
  0
ENDBLK
  5
8C3
330
8C1
100
AcDbEntity
  8
0
100
AcDbBlockEnd
  0
BLOCK
  5
9D6
330
9D5
100
AcDbEntity
  8
0
100
AcDbBlockBegin
  2
*D13
 70
     1
 10
0.0
 20
0.0
 30
0.0
  3
*D13
  1

  0
LINE
  5
ADA
330
9D5
100
AcDbEntity
  8
Dimension (ANSI)
100
AcDbLine
 10
29.99827333459414
 20
9.23956173157056
 30
0.0
 11
35.68806779186843
 21
9.23956173157056
 31
0.0
  0
LINE
  5
ADB
330
9D5
100
AcDbEntity
  8
Dimension (ANSI)
100
AcDbLine
 10
29.97827333459414
 20
10.50956173157056
 30
0.0
 11
35.68806779186843
 21
10.50956173157056
 31
0.0
  0
LINE
  5
ADC
330
9D5
100
AcDbEntity
  8
Dimension (ANSI)
100
AcDbLine
 10
35.23352233732298
 20
10.15165193294843
 30
0.0
 11
35.23352233732298
 21
9.597471530192692
 31
0.0
  0
LINE
  5
ADD
330
9D5
100
AcDbEntity
  8
Dimension (ANSI)
100
AcDbLine
 10
35.23352233732298
 20
9.23956173157056
 30
0.0
 11
35.23352233732298
 21
8.170256896310691
 31
0.0
  0
LINE
  5
ADE
330
9D5
100
AcDbEntity
  8
Dimension (ANSI)
100
AcDbLine
 10
35.23352233732298
 20
8.170256896310691
 30
0.0
 11
34.87561253870084
 21
8.170256896310691
 31
0.0
  0
SOLID
  5
ADF
330
9D5
100
AcDbEntity
  8
Dimension (ANSI)
100
AcDbTrace
 10
35.17387070421928
 20
10.15165193294843
 30
0.0
 11
35.29317397042667
 21
10.15165193294843
 31
0.0
 12
35.23352233732298
 22
10.50956173157056
 32
0.0
 13
35.23352233732298
 23
10.50956173157056
 33
0.0
  0
SOLID
  5
AE0
330
9D5
100
AcDbEntity
  8
Dimension (ANSI)
100
AcDbTrace
 10
35.17387070421928
 20
9.597471530192692
 30
0.0
 11
35.29317397042667
 21
9.597471530192692
 31
0.0
 12
35.23352233732298
 22
9.23956173157056
 32
0.0
 13
35.23352233732298
 23
9.23956173157056
 33
0.0
  0
MTEXT
  5
AE1
330
9D5
100
AcDbEntity
  8
Dimension (ANSI)
100
AcDbMText
 10
34.23294286453926
 20
8.170256896310696
 30
0.0
 40
0.3636363690549677
 41
0.0
 71
     5
 72
     1
  1
\A1;1.27{\PTYP.}
  7
ROMANS
 73
     1
 44
1.0
1001
ACAD
1000
MTEXTBEGIN
1070
    73
1070
     1
1070
    44
1040
1.0
1070
    74
1070
     0
1000
MTEXTEND
  0
POINT
  5
AE2
330
9D5
100
AcDbEntity
  8
Defpoints
 62
     0
100
AcDbPoint
 10
29.77100060732141
 20
9.23956173157056
 30
0.0
  0
POINT
  5
AE3
330
9D5
100
AcDbEntity
  8
Defpoints
 62
     0
100
AcDbPoint
 10
29.75100060732141
 20
10.50956173157056
 30
0.0
  0
POINT
  5
AE4
330
9D5
100
AcDbEntity
  8
Defpoints
 62
     0
100
AcDbPoint
 10
35.23352233732298
 20
10.50956173157056
 30
0.0
  0
ENDBLK
  5
9D7
330
9D5
100
AcDbEntity
  8
0
100
AcDbBlockEnd
  0
BLOCK
  5
AE7
330
AE6
100
AcDbEntity
  8
0
100
AcDbBlockBegin
  2
*D14
 70
     1
 10
0.0
 20
0.0
 30
0.0
  3
*D14
  1

  0
LINE
  5
BD9
330
AE6
100
AcDbEntity
  8
Dimension (ANSI)
100
AcDbLine
 10
29.75100060732141
 20
10.28228900429783
 30
0.0
 11
29.75100060732141
 21
7.731932599091166
 31
0.0
  0
LINE
  5
BDA
330
AE6
100
AcDbEntity
  8
Dimension (ANSI)
100
AcDbLine
 10
30.27100060732141
 20
9.512289004297835
 30
0.0
 11
30.27100060732141
 21
7.731932599091166
 31
0.0
  0
LINE
  5
BDB
330
AE6
100
AcDbEntity
  8
Dimension (ANSI)
100
AcDbLine
 10
30.62891040594354
 20
8.186478053636621
 30
0.0
 11
30.98682020456567
 21
8.186478053636621
 31
0.0
  0
LINE
  5
BDC
330
AE6
100
AcDbEntity
  8
Dimension (ANSI)
100
AcDbLine
 10
29.39309080869928
 20
8.186478053636621
 30
0.0
 11
28.96396484481758
 21
8.186478053636621
 31
0.0
  0
SOLID
  5
BDD
330
AE6
100
AcDbEntity
  8
Dimension (ANSI)
100
AcDbTrace
 10
30.62891040594354
 20
8.24612968674031
 30
0.0
 11
30.62891040594354
 21
8.126826420532932
 31
0.0
 12
30.27100060732141
 22
8.186478053636621
 32
0.0
 13
30.27100060732141
 23
8.186478053636621
 33
0.0
  0
SOLID
  5
BDE
330
AE6
100
AcDbEntity
  8
Dimension (ANSI)
100
AcDbTrace
 10
29.39309080869928
 20
8.24612968674031
 30
0.0
 11
29.39309080869928
 21
8.126826420532932
 31
0.0
 12
29.75100060732141
 22
8.186478053636621
 32
0.0
 13
29.75100060732141
 23
8.186478053636621
 33
0.0
  0
MTEXT
  5
BDF
330
AE6
100
AcDbEntity
  8
Dimension (ANSI)
100
AcDbMText
 10
28.29532114429492
 20
8.186478053636621
 30
0.0
 40
0.3636363690549677
 41
0.0
 71
     5
 72
     1
  1
\A1;0.52{\PTYP.}
  7
ROMANS
 73
     1
 44
1.0
1001
ACAD
1000
MTEXTBEGIN
1070
    73
1070
     1
1070
    44
1040
1.0
1070
    74
1070
     0
1000
MTEXTEND
  0
POINT
  5
BE0
330
AE6
100
AcDbEntity
  8
Defpoints
 62
     0
100
AcDbPoint
 10
29.75100060732141
 20
10.50956173157056
 30
0.0
  0
POINT
  5
BE1
330
AE6
100
AcDbEntity
  8
Defpoints
 62
     0
100
AcDbPoint
 10
30.27100060732141
 20
9.739561731570562
 30
0.0
  0
POINT
  5
BE2
330
AE6
100
AcDbEntity
  8
Defpoints
 62
     0
100
AcDbPoint
 10
30.27100060732141
 20
8.186478053636621
 30
0.0
  0
ENDBLK
  5
AE8
330
AE6
100
AcDbEntity
  8
0
100
AcDbBlockEnd
  0
BLOCK
  5
BE5
330
BE4
100
AcDbEntity
  8
0
100
AcDbBlockBegin
  2
*D15
 70
     1
 10
0.0
 20
0.0
 30
0.0
  3
*D15
  1

  0
LINE
  5
CE1
330
BE4
100
AcDbEntity
  8
Dimension (ANSI)
100
AcDbLine
 10
38.67680377279664
 20
22.02623020232183
 30
0.0
 11
38.67680377279664
 21
31.28298603954021
 31
0.0
  0
LINE
  5
CE2
330
BE4
100
AcDbEntity
  8
Dimension (ANSI)
100
AcDbLine
 10
38.58305377279664
 20
22.02623020232183
 30
0.0
 11
38.58305377279664
 21
31.28298603954021
 31
0.0
  0
LINE
  5
CE3
330
BE4
100
AcDbEntity
  8
Dimension (ANSI)
100
AcDbLine
 10
38.22514397417451
 20
30.82844058499475
 30
0.0
 11
37.86723417555238
 21
30.82844058499475
 31
0.0
  0
LINE
  5
CE4
330
BE4
100
AcDbEntity
  8
Dimension (ANSI)
100
AcDbLine
 10
39.03471357141877
 20
30.82844058499475
 30
0.0
 11
39.77400362933256
 21
30.82844058499475
 31
0.0
  0
SOLID
  5
CE5
330
BE4
100
AcDbEntity
  8
Dimension (ANSI)
100
AcDbTrace
 10
38.22514397417451
 20
30.88809221809844
 30
0.0
 11
38.22514397417451
 21
30.76878895189106
 31
0.0
 12
38.58305377279664
 22
30.82844058499475
 32
0.0
 13
38.58305377279664
 23
30.82844058499475
 33
0.0
  0
SOLID
  5
CE6
330
BE4
100
AcDbEntity
  8
Dimension (ANSI)
100
AcDbTrace
 10
39.03471357141877
 20
30.88809221809844
 30
0.0
 11
39.03471357141877
 21
30.76878895189106
 31
0.0
 12
38.67680377279664
 22
30.82844058499475
 32
0.0
 13
38.67680377279664
 23
30.82844058499475
 33
0.0
  0
MTEXT
  5
CE7
330
BE4
100
AcDbEntity
  8
Dimension (ANSI)
100
AcDbMText
 10
40.84091573405827
 20
30.82844058499475
 30
0.0
 40
0.3636363690549677
 41
0.0
 71
     5
 72
     1
  1
\A1;(0.094){\P12 GA.\PGALV.}
  7
ROMANS
 73
     1
 44
1.0
1001
ACAD
1000
MTEXTBEGIN
1070
    73
1070
     1
1070
    44
1040
1.0
1070
    74
1070
     0
1000
MTEXTEND
  0
POINT
  5
CE8
330
BE4
100
AcDbEntity
  8
Defpoints
 62
     0
100
AcDbPoint
 10
38.67680377279664
 20
21.7989574750491
 30
0.0
  0
POINT
  5
CE9
330
BE4
100
AcDbEntity
  8
Defpoints
 62
     0
100
AcDbPoint
 10
38.58305377279664
 20
21.7989574750491
 30
0.0
  0
POINT
  5
CEA
330
BE4
100
AcDbEntity
  8
Defpoints
 62
     0
100
AcDbPoint
 10
38.58305377279664
 20
30.82844058499475
 30
0.0
  0
ENDBLK
  5
BE6
330
BE4
100
AcDbEntity
  8
0
100
AcDbBlockEnd
  0
BLOCK
  5
CFD
330
CFC
100
AcDbEntity
  8
0
100
AcDbBlockBegin
  2
*D16
 70
     1
 10
0.0
 20
0.0
 30
0.0
  3
*D16
  1

  0
LINE
  5
DD7
330
CFC
100
AcDbEntity
  8
Dimension (ANSI)
100
AcDbLine
 10
38.58305377279664
 20
29.49448900429784
 30
0.0
 11
38.58305377279664
 21
27.74810836822462
 31
0.0
  0
LINE
  5
DD8
330
CFC
100
AcDbEntity
  8
Dimension (ANSI)
100
AcDbLine
 10
38.22514397417451
 20
28.20265382277007
 30
0.0
 11
37.86723417555238
 21
28.20265382277007
 31
0.0
  0
LINE
  5
DD9
330
CFC
100
AcDbEntity
  8
Dimension (ANSI)
100
AcDbLine
 10
39.71496357141878
 20
28.20265382277007
 30
0.0
 11
40.08690751077589
 21
28.20265382277007
 31
0.0
  0
SOLID
  5
DDA
330
CFC
100
AcDbEntity
  8
Dimension (ANSI)
100
AcDbTrace
 10
38.22514397417451
 20
28.26230545587376
 30
0.0
 11
38.22514397417451
 21
28.14300218966638
 31
0.0
 12
38.58305377279664
 22
28.20265382277007
 32
0.0
 13
38.58305377279664
 23
28.20265382277007
 33
0.0
  0
SOLID
  5
DDB
330
CFC
100
AcDbEntity
  8
Dimension (ANSI)
100
AcDbTrace
 10
39.71496357141878
 20
28.26230545587376
 30
0.0
 11
39.71496357141878
 21
28.14300218966638
 31
0.0
 12
39.35705377279665
 22
28.20265382277007
 32
0.0
 13
39.35705377279665
 23
28.20265382277007
 33
0.0
  0
MTEXT
  5
DDC
330
CFC
100
AcDbEntity
  8
Dimension (ANSI)
100
AcDbMText
 10
40.20143864892907
 20
28.38447200729755
 30
0.0
 40
0.3636363690549677
 41
0.0
 71
     1
 72
     1
  1
\A1;0.77
  7
ROMANS
 73
     1
 44
1.0
1001
ACAD
1000
MTEXTBEGIN
1070
    73
1070
     1
1070
    44
1040
1.0
1070
    74
1070
     0
1000
MTEXTEND
  0
POINT
  5
DDD
330
CFC
100
AcDbEntity
  8
Defpoints
 62
     0
100
AcDbPoint
 10
38.58305377279664
 20
29.72176173157056
 30
0.0
  0
POINT
  5
DDE
330
CFC
100
AcDbEntity
  8
Defpoints
 62
     0
100
AcDbPoint
 10
39.35705377279665
 20
20.33956173157005
 30
0.0
  0
POINT
  5
DDF
330
CFC
100
AcDbEntity
  8
Defpoints
 62
     0
100
AcDbPoint
 10
39.35705377279665
 20
28.20265382277007
 30
0.0
  0
ENDBLK
  5
CFE
330
CFC
100
AcDbEntity
  8
0
100
AcDbBlockEnd
  0
ENDSEC
  0
SECTION
  2
ENTITIES
  0
LINE
  5
107
330
6C
100
AcDbEntity
  8
Visible (ANSI)
100
AcDbLine
 10
30.2710006073214
 20
10.95756173157055
 30
0.0
 11
30.2710006073214
 21
29.72156173157057
 31
0.0
  0
LINE
  5
108
330
6C
100
AcDbEntity
  8
Visible (ANSI)
100
AcDbLine
 10
30.2710006073214
 20
10.95756173157055
 30
0.0
 11
30.16165060732141
 21
10.95756173157055
 31
0.0
  0
LINE
  5
109
330
6C
100
AcDbEntity
  8
Visible (ANSI)
100
AcDbLine
 10
30.2710006073214
 20
29.72156173157057
 30
0.0
 11
30.16165060732141
 21
29.72156173157057
 31
0.0
  0
LINE
  5
10A
330
6C
100
AcDbEntity
  8
Visible (ANSI)
100
AcDbLine
 10
30.16145060732141
 20
29.72176173157056
 30
0.0
 11
30.2710006073214
 21
29.72176173157056
 31
0.0
  0
LINE
  5
10B
330
6C
100
AcDbEntity
  8
Visible (ANSI)
100
AcDbLine
 10
30.16145060732141
 20
29.72156173157057
 30
0.0
 11
30.16145060732141
 21
29.72176173157056
 31
0.0
  0
LINE
  5
10C
330
6C
100
AcDbEntity
  8
Visible (ANSI)
100
AcDbLine
 10
30.16145060732141
 20
10.95736173157055
 30
0.0
 11
30.16145060732141
 21
10.95756173157055
 31
0.0
  0
LINE
  5
10D
330
6C
100
AcDbEntity
  8
Visible (ANSI)
100
AcDbLine
 10
30.27100060732141
 20
10.95736173157055
 30
0.0
 11
30.16145060732141
 21
10.95736173157055
 31
0.0
  0
LINE
  5
10E
330
6C
100
AcDbEntity
  8
Hidden (ANSI)
 48
1.085399985313415
100
AcDbLine
 10
30.17725060732141
 20
29.72156173157057
 30
0.0
 11
30.17725060732141
 21
10.95756173157055
 31
0.0
  0
LINE
  5
10F
330
6C
100
AcDbEntity
  8
Visible (ANSI)
100
AcDbLine
 10
30.16145060732141
 20
10.95756173157055
 30
0.0
 11
30.16165060732141
 21
10.95756173157055
 31
0.0
  0
LINE
  5
110
330
6C
100
AcDbEntity
  8
Visible (ANSI)
100
AcDbLine
 10
30.16165060732141
 20
29.72156173157057
 30
0.0
 11
30.16145060732141
 21
29.72156173157057
 31
0.0
  0
LINE
  5
111
330
6C
100
AcDbEntity
  8
Visible (ANSI)
100
AcDbLine
 10
30.2710006073214
 20
30.93956173157056
 30
0.0
 11
30.2710006073214
 21
29.72176173157056
 31
0.0
  0
LINE
  5
112
330
6C
100
AcDbEntity
  8
Visible (ANSI)
100
AcDbLine
 10
8.571000607321403
 20
31.43956173157056
 30
0.0
 11
29.77100060732141
 21
31.43956173157056
 31
0.0
  0
LINE
  5
113
330
6C
100
AcDbEntity
  8
Visible (ANSI)
100
AcDbLine
 10
8.071000607321405
 20
29.72176173157056
 30
0.0
 11
8.071000607321405
 21
30.93956173157056
 31
0.0
  0
LINE
  5
114
330
6C
100
AcDbEntity
  8
Visible (ANSI)
100
AcDbLine
 10
8.07100060732141
 20
9.739561731570562
 30
0.0
 11
8.07100060732141
 21
10.95736173157056
 31
0.0
  0
LINE
  5
115
330
6C
100
AcDbEntity
  8
Visible (ANSI)
100
AcDbLine
 10
29.77100060732141
 20
9.23956173157056
 30
0.0
 11
8.571000607321412
 21
9.23956173157056
 31
0.0
  0
LINE
  5
116
330
6C
100
AcDbEntity
  8
Visible (ANSI)
100
AcDbLine
 10
30.27100060732141
 20
10.95736173157055
 30
0.0
 11
30.27100060732141
 21
9.739561731570562
 31
0.0
  0
LINE
  5
117
330
6C
100
AcDbEntity
  8
Visible (ANSI)
100
AcDbLine
 10
29.77100060732141
 20
31.43956173157056
 30
0.0
 11
30.2710006073214
 21
30.93956173157056
 31
0.0
  0
LINE
  5
118
330
6C
100
AcDbEntity
  8
Visible (ANSI)
100
AcDbLine
 10
8.071000607321405
 20
30.93956173157056
 30
0.0
 11
8.571000607321403
 21
31.43956173157056
 31
0.0
  0
LINE
  5
119
330
6C
100
AcDbEntity
  8
Visible (ANSI)
100
AcDbLine
 10
8.071000607321405
 20
29.72176173157056
 30
0.0
 11
8.180550607321398
 21
29.72176173157056
 31
0.0
  0
LINE
  5
11A
330
6C
100
AcDbEntity
  8
Visible (ANSI)
100
AcDbLine
 10
8.180550607321398
 20
29.72176173157056
 30
0.0
 11
8.180550607321398
 21
29.72156173157055
 31
0.0
  0
LINE
  5
11B
330
6C
100
AcDbEntity
  8
Visible (ANSI)
100
AcDbLine
 10
8.180550607321404
 20
10.95756173157056
 30
0.0
 11
8.180550607321404
 21
10.95736173157056
 31
0.0
  0
LINE
  5
11C
330
6C
100
AcDbEntity
  8
Visible (ANSI)
100
AcDbLine
 10
8.180550607321404
 20
10.95736173157056
 30
0.0
 11
8.07100060732141
 21
10.95736173157056
 31
0.0
  0
LINE
  5
11D
330
6C
100
AcDbEntity
  8
Visible (ANSI)
100
AcDbLine
 10
8.07100060732141
 20
29.72156173157055
 30
0.0
 11
8.071000607321415
 21
10.95756173157056
 31
0.0
  0
LINE
  5
11E
330
6C
100
AcDbEntity
  8
Visible (ANSI)
100
AcDbLine
 10
8.07100060732141
 20
29.72156173157055
 30
0.0
 11
8.180350607321399
 21
29.72156173157055
 31
0.0
  0
LINE
  5
11F
330
6C
100
AcDbEntity
  8
Visible (ANSI)
100
AcDbLine
 10
8.071000607321415
 20
10.95756173157056
 30
0.0
 11
8.180350607321404
 21
10.95756173157056
 31
0.0
  0
LINE
  5
120
330
6C
100
AcDbEntity
  8
Hidden (ANSI)
 48
1.085399985313415
100
AcDbLine
 10
8.164750607321417
 20
10.95756173157056
 30
0.0
 11
8.16475060732141
 21
29.72156173157055
 31
0.0
  0
LINE
  5
121
330
6C
100
AcDbEntity
  8
Visible (ANSI)
100
AcDbLine
 10
8.180550607321398
 20
29.72156173157055
 30
0.0
 11
8.180350607321399
 21
29.72156173157055
 31
0.0
  0
LINE
  5
122
330
6C
100
AcDbEntity
  8
Visible (ANSI)
100
AcDbLine
 10
8.180350607321404
 20
10.95756173157056
 30
0.0
 11
8.180550607321404
 21
10.95756173157056
 31
0.0
  0
LINE
  5
123
330
6C
100
AcDbEntity
  8
Visible (ANSI)
100
AcDbLine
 10
8.571000607321412
 20
9.23956173157056
 30
0.0
 11
8.07100060732141
 21
9.739561731570562
 31
0.0
  0
LINE
  5
124
330
6C
100
AcDbEntity
  8
Visible (ANSI)
100
AcDbLine
 10
30.27100060732141
 20
9.739561731570562
 30
0.0
 11
29.77100060732141
 21
9.23956173157056
 31
0.0
  0
CIRCLE
  5
125
330
6C
100
AcDbEntity
  8
Visible (ANSI)
100
AcDbCircle
 10
29.75100060732141
 20
30.91956173157056
 30
0.0
 40
0.25
  0
CIRCLE
  5
126
330
6C
100
AcDbEntity
  8
Visible (ANSI)
100
AcDbCircle
 10
8.591000607321412
 20
30.91956173157056
 30
0.0
 40
0.25
  0
CIRCLE
  5
127
330
6C
100
AcDbEntity
  8
Visible (ANSI)
100
AcDbCircle
 10
8.591000607321412
 20
9.759561731570562
 30
0.0
 40
0.25
  0
CIRCLE
  5
128
330
6C
100
AcDbEntity
  8
Visible (ANSI)
100
AcDbCircle
 10
29.75100060732141
 20
9.759561731570562
 30
0.0
 40
0.25
  0
CIRCLE
  5
129
330
6C
100
AcDbEntity
  8
Visible (ANSI)
100
AcDbCircle
 10
29.75100060732141
 20
30.16956173157057
 30
0.0
 40
0.15625
  0
CIRCLE
  5
12A
330
6C
100
AcDbEntity
  8
Visible (ANSI)
100
AcDbCircle
 10
8.591000607321412
 20
30.16956173157056
 30
0.0
 40
0.15625
  0
CIRCLE
  5
12B
330
6C
100
AcDbEntity
  8
Visible (ANSI)
100
AcDbCircle
 10
8.59100060732141
 20
10.50956173157056
 30
0.0
 40
0.15625
  0
CIRCLE
  5
12C
330
6C
100
AcDbEntity
  8
Visible (ANSI)
100
AcDbCircle
 10
29.75100060732141
 20
10.50956173157056
 30
0.0
 40
0.15625
  0
MTEXT
  5
12E
330
6C
100
AcDbEntity
  8
Symbol (ANSI)
100
AcDbMText
 10
17.02135066994754
 20
5.25431835246585
 30
0.0
 40
0.4363636417566407
 41
0.0
 71
     7
 72
     1
  1
FRONT VIEW
  7
Text Style168
 73
     1
 44
1.0
1001
ACAD
1000
MTEXTBEGIN
1070
    73
1070
     1
1070
    44
1040
1.0
1070
    74
1070
     0
1000
MTEXTEND
  0
LINE
  5
130
330
6C
100
AcDbEntity
  8
Symbol (ANSI)
370
    30
100
AcDbLine
 10
16.9777141940625
 20
5.165330580193523
 30
0.0
 11
20.48595057328315
 21
5.165330580193523
 31
0.0
  0
LINE
  5
131
330
6C
100
AcDbEntity
  8
Visible (ANSI)
100
AcDbLine
 10
38.69240377279665
 20
10.95756173157055
 30
0.0
 11
39.35705377279665
 21
10.95756173157055
 31
0.0
  0
LINE
  5
132
330
6C
100
AcDbEntity
  8
Visible (ANSI)
100
AcDbLine
 10
39.35705377279665
 20
29.72156173157056
 30
0.0
 11
39.35705377279665
 21
10.95756173157055
 31
0.0
  0
LINE
  5
133
330
6C
100
AcDbEntity
  8
Visible (ANSI)
100
AcDbLine
 10
39.35705377279665
 20
29.72156173157056
 30
0.0
 11
38.69240377279665
 21
29.72156173157056
 31
0.0
  0
LINE
  5
134
330
6C
100
AcDbEntity
  8
Visible (ANSI)
100
AcDbLine
 10
38.69240377279665
 20
10.95756173157055
 30
0.0
 11
38.58305377279661
 21
10.95756173157055
 31
0.0
  0
LINE
  5
135
330
6C
100
AcDbEntity
  8
Visible (ANSI)
100
AcDbLine
 10
38.69240377279665
 20
29.72156173157056
 30
0.0
 11
38.58305377279661
 21
29.72156173157056
 31
0.0
  0
LINE
  5
136
330
6C
100
AcDbEntity
  8
Visible (ANSI)
100
AcDbLine
 10
38.58305377279661
 20
10.95756173157055
 30
0.0
 11
38.58305377279661
 21
29.72156173157056
 31
0.0
  0
LINE
  5
137
330
6C
100
AcDbEntity
  8
Visible (ANSI)
100
AcDbLine
 10
38.58305377279664
 20
29.72176173157056
 30
0.0
 11
38.67680377279664
 21
29.72176173157056
 31
0.0
  0
LINE
  5
138
330
6C
100
AcDbEntity
  8
Visible (ANSI)
100
AcDbLine
 10
38.67680377279661
 20
29.72176173157056
 30
0.0
 11
38.67680377279661
 21
29.72156173157056
 31
0.0
  0
LINE
  5
139
330
6C
100
AcDbEntity
  8
Visible (ANSI)
100
AcDbLine
 10
38.58305377279661
 20
29.72156173157056
 30
0.0
 11
38.58305377279661
 21
29.72176173157056
 31
0.0
  0
LINE
  5
13A
330
6C
100
AcDbEntity
  8
Visible (ANSI)
100
AcDbLine
 10
38.67680377279661
 20
10.95756173157055
 30
0.0
 11
38.67680377279661
 21
10.95736173157055
 31
0.0
  0
LINE
  5
13B
330
6C
100
AcDbEntity
  8
Visible (ANSI)
100
AcDbLine
 10
38.58305377279661
 20
10.95736173157055
 30
0.0
 11
38.58305377279661
 21
10.95756173157055
 31
0.0
  0
LINE
  5
13C
330
6C
100
AcDbEntity
  8
Visible (ANSI)
100
AcDbLine
 10
38.67680377279664
 20
10.95736173157055
 30
0.0
 11
38.58305377279664
 21
10.95736173157055
 31
0.0
  0
LINE
  5
13D
330
6C
100
AcDbEntity
  8
Hidden (ANSI)
 48
1.085399985313415
100
AcDbLine
 10
38.67680377279661
 20
29.72156173157056
 30
0.0
 11
38.67680377279661
 21
10.95756173157055
 31
0.0
  0
LINE
  5
13E
330
6C
100
AcDbEntity
  8
Visible (ANSI)
100
AcDbLine
 10
38.67680377279664
 20
9.73956173157056
 30
0.0
 11
38.67680377279664
 21
10.95736173157055
 31
0.0
  0
LINE
  5
13F
330
6C
100
AcDbEntity
  8
Visible (ANSI)
100
AcDbLine
 10
38.67680377279664
 20
29.72176173157056
 30
0.0
 11
38.67680377279664
 21
30.93956173157056
 31
0.0
  0
LINE
  5
140
330
6C
100
AcDbEntity
  8
Visible (ANSI)
100
AcDbLine
 10
38.58305377279664
 20
30.93956173157056
 30
0.0
 11
38.58305377279664
 21
29.72176173157056
 31
0.0
  0
LINE
  5
141
330
6C
100
AcDbEntity
  8
Visible (ANSI)
100
AcDbLine
 10
38.58305377279664
 20
10.95736173157055
 30
0.0
 11
38.58305377279664
 21
9.739561731570558
 31
0.0
  0
LINE
  5
142
330
6C
100
AcDbEntity
  8
Visible (ANSI)
100
AcDbLine
 10
38.6768037727965
 20
9.239561731570558
 30
0.0
 11
38.67680377279664
 21
9.73956173157056
 31
0.0
  0
LINE
  5
143
330
6C
100
AcDbEntity
  8
Visible (ANSI)
100
AcDbLine
 10
38.58305377279664
 20
9.73956173157056
 30
0.0
 11
38.5830537727965
 21
9.239561731570558
 31
0.0
  0
LINE
  5
144
330
6C
100
AcDbEntity
  8
Visible (ANSI)
100
AcDbLine
 10
38.5830537727965
 20
9.239561731570558
 30
0.0
 11
38.6768037727965
 21
9.239561731570558
 31
0.0
  0
LINE
  5
145
330
6C
100
AcDbEntity
  8
Visible (ANSI)
100
AcDbLine
 10
38.67680377279664
 20
9.73956173157056
 30
0.0
 11
38.58305377279664
 21
9.73956173157056
 31
0.0
  0
LINE
  5
146
330
6C
100
AcDbEntity
  8
Visible (ANSI)
100
AcDbLine
 10
38.67680377279664
 20
30.93956173157056
 30
0.0
 11
38.6768037727965
 21
31.43956173157056
 31
0.0
  0
LINE
  5
147
330
6C
100
AcDbEntity
  8
Visible (ANSI)
100
AcDbLine
 10
38.5830537727965
 20
31.43956173157056
 30
0.0
 11
38.58305377279664
 21
30.93956173157056
 31
0.0
  0
LINE
  5
148
330
6C
100
AcDbEntity
  8
Visible (ANSI)
100
AcDbLine
 10
38.58305377279664
 20
30.93956173157056
 30
0.0
 11
38.67680377279664
 21
30.93956173157056
 31
0.0
  0
LINE
  5
149
330
6C
100
AcDbEntity
  8
Visible (ANSI)
100
AcDbLine
 10
38.6768037727965
 20
31.43956173157056
 30
0.0
 11
38.5830537727965
 21
31.43956173157056
 31
0.0
  0
LINE
  5
14A
330
6C
100
AcDbEntity
  8
Hidden (ANSI)
 48
0.0490054599940777
100
AcDbLine
 10
38.58305377279649
 20
31.16956173157056
 30
0.0
 11
38.67680377279649
 21
31.16956173157056
 31
0.0
  0
LINE
  5
14B
330
6C
100
AcDbEntity
  8
Hidden (ANSI)
 48
0.0490054599940777
100
AcDbLine
 10
38.58305377279649
 20
30.66956173157056
 30
0.0
 11
38.67680377279649
 21
30.66956173157056
 31
0.0
  0
LINE
  5
14C
330
6C
100
AcDbEntity
  8
Hidden (ANSI)
 48
0.0490054599940777
100
AcDbLine
 10
38.58305377279649
 20
10.00956173157056
 30
0.0
 11
38.67680377279649
 21
10.00956173157056
 31
0.0
  0
LINE
  5
14D
330
6C
100
AcDbEntity
  8
Hidden (ANSI)
 48
0.0490054599940777
100
AcDbLine
 10
38.58305377279649
 20
9.509561731570558
 30
0.0
 11
38.67680377279649
 21
9.509561731570558
 31
0.0
  0
LINE
  5
14E
330
6C
100
AcDbEntity
  8
Hidden (ANSI)
 48
0.0490054599940777
100
AcDbLine
 10
38.58305377279649
 20
30.32581173157057
 30
0.0
 11
38.67680377279649
 21
30.32581173157057
 31
0.0
  0
LINE
  5
14F
330
6C
100
AcDbEntity
  8
Hidden (ANSI)
 48
0.0490054599940777
100
AcDbLine
 10
38.58305377279649
 20
30.01331173157056
 30
0.0
 11
38.67680377279649
 21
30.01331173157056
 31
0.0
  0
LINE
  5
150
330
6C
100
AcDbEntity
  8
Hidden (ANSI)
 48
0.0490054599940777
100
AcDbLine
 10
38.58305377279649
 20
10.66581173157056
 30
0.0
 11
38.67680377279649
 21
10.66581173157056
 31
0.0
  0
LINE
  5
151
330
6C
100
AcDbEntity
  8
Hidden (ANSI)
 48
0.0490054599940777
100
AcDbLine
 10
38.58305377279649
 20
10.35331173157056
 30
0.0
 11
38.67680377279649
 21
10.35331173157056
 31
0.0
  0
MTEXT
  5
152
330
6C
100
AcDbEntity
  8
Symbol (ANSI)
100
AcDbMText
 10
37.38622777785173
 20
7.76032119507395
 30
0.0
 40
0.4363636417566407
 41
0.0
 71
     7
 72
     1
  1
SIDE VIEW
  7
Text Style168
 73
     1
 44
1.0
1001
ACAD
1000
MTEXTBEGIN
1070
    73
1070
     1
1070
    44
1040
1.0
1070
    74
1070
     0
1000
MTEXTEND
  0
LINE
  5
153
330
6C
100
AcDbEntity
  8
Symbol (ANSI)
370
    30
100
AcDbLine
 10
37.36388590219859
 20
7.669918954475015
 30
0.0
 11
40.3126997945822
 21
7.669918954475015
 31
0.0
  0
LINE
  5
154
330
6C
100
AcDbEntity
  8
Visible Narrow (ANSI)
100
AcDbLine
 10
58.58990637583692
 20
14.72563152900721
 30
0.0
 11
58.58990637583693
 21
25.88232552940391
 31
0.0
  0
ELLIPSE
  5
155
330
6C
100
AcDbEntity
  8
Visible (ANSI)
100
AcDbEllipse
 10
58.53367210200219
 20
14.75801469359134
 30
0.0
 11
0.0795272727272764
 21
0.0000000000000046
 31
0.0
210
0.0
220
0.0
230
1.0
 40
0.5758617009853092
 41
3.926990816987261
 42
5.497787143782073
  0
LINE
  5
156
330
6C
100
AcDbEntity
  8
Visible (ANSI)
100
AcDbLine
 10
58.47733497627203
 20
25.88238475787136
 30
0.0
 11
58.47743822670979
 21
25.88244421584408
 31
0.0
  0
ELLIPSE
  5
157
330
6C
100
AcDbEntity
  8
Visible (ANSI)
100
AcDbEllipse
 10
58.53367210200224
 20
25.91470869398807
 30
0.0
 11
0.0795272727273335
 21
0.0000000000000046
 31
0.0
210
0.0
220
0.0
230
1.0
 40
0.5758617009853091
 41
3.926990816987292
 42
3.987598387465414
  0
ELLIPSE
  5
158
330
6C
100
AcDbEntity
  8
Visible (ANSI)
100
AcDbEllipse
 10
58.5336721020021
 20
25.91470869398811
 30
0.0
 11
0.0795272727274273
 21
-0.0000000000000001
 31
0.0
210
0.0
220
0.0
230
1.0
 40
0.5758617009853095
 41
5.363700662383197
 42
5.497787143782169
  0
LINE
  5
159
330
6C
100
AcDbEntity
  8
Visible Narrow (ANSI)
100
AcDbLine
 10
58.47743782816747
 20
14.72563152900719
 30
0.0
 11
58.47743782816748
 21
25.8823255294039
 31
0.0
  0
LINE
  5
15A
330
6C
100
AcDbEntity
  8
Visible (ANSI)
100
AcDbLine
 10
58.53367210200221
 20
25.85006128076519
 30
0.0
 11
58.58188392799219
 21
25.8778246248874
 31
0.0
  0
LINE
  5
15B
330
6C
100
AcDbEntity
  8
Visible (ANSI)
100
AcDbLine
 10
58.47733497627203
 20
25.88250367381679
 30
0.0
 11
58.53367210200221
 21
25.85006128076519
 31
0.0
  0
LINE
  5
15C
330
6C
100
AcDbEntity
  8
Visible (ANSI)
100
AcDbLine
 10
58.47733497627203
 20
25.88238475787136
 30
0.0
 11
58.47733497627203
 21
25.88250367381679
 31
0.0
  0
LINE
  5
15D
330
6C
100
AcDbEntity
  8
Visible (ANSI)
100
AcDbLine
 10
58.47733497627203
 20
14.72557184152922
 30
0.0
 11
58.47733497627203
 21
14.72569075747465
 31
0.0
  0
LINE
  5
15E
330
6C
100
AcDbEntity
  8
Visible (ANSI)
100
AcDbLine
 10
58.47733497627203
 20
14.72557184152922
 30
0.0
 11
58.4774382267112
 21
14.72563129950275
 31
0.0
  0
LINE
  5
15F
330
6C
100
AcDbEntity
  8
Visible (ANSI)
100
AcDbLine
 10
58.58119051015641
 20
14.72129210537423
 30
0.0
 11
58.58188392799219
 21
14.72089279259984
 31
0.0
  0
LINE
  5
160
330
6C
100
AcDbEntity
  8
Visible (ANSI)
100
AcDbLine
 10
58.53367210200221
 20
14.69312944847763
 30
0.0
 11
58.47733497627203
 21
14.72557184152922
 31
0.0
  0
LINE
  5
161
330
6C
100
AcDbEntity
  8
Visible (ANSI)
100
AcDbLine
 10
58.58188392799219
 20
14.72089279259984
 30
0.0
 11
58.53367210200221
 21
14.69312944847763
 31
0.0
  0
LINE
  5
162
330
6C
100
AcDbEntity
  8
Visible (ANSI)
100
AcDbLine
 10
58.58990637583692
 20
14.72563152900721
 30
0.0
 11
58.93170893737551
 21
14.92246253349601
 31
0.0
  0
LINE
  5
163
330
6C
100
AcDbEntity
  8
Visible (ANSI)
100
AcDbLine
 10
58.93170893737553
 20
26.07915653389272
 30
0.0
 11
58.93170893737551
 21
14.92246253349601
 31
0.0
  0
LINE
  5
164
330
6C
100
AcDbEntity
  8
Visible (ANSI)
100
AcDbLine
 10
58.93170893737553
 20
26.07915653389272
 30
0.0
 11
58.58990637583693
 21
25.88232552940391
 31
0.0
  0
LINE
  5
165
330
6C
100
AcDbEntity
  8
Visible (ANSI)
100
AcDbLine
 10
58.47733497627203
 20
14.72569075747465
 30
0.0
 11
58.47743782816747
 21
14.72563152900719
 31
0.0
  0
LINE
  5
166
330
6C
100
AcDbEntity
  8
Visible (ANSI)
100
AcDbLine
 10
58.88349711138552
 20
26.10691987801491
 30
0.0
 11
58.93170893737553
 21
26.07915653389272
 31
0.0
  0
LINE
  5
167
330
6C
100
AcDbEntity
  8
Visible (ANSI)
100
AcDbLine
 10
58.58188392799219
 20
25.93323239718639
 30
0.0
 11
58.88349711138552
 21
26.10691987801491
 31
0.0
  0
LINE
  5
168
330
6C
100
AcDbEntity
  8
Visible (ANSI)
100
AcDbLine
 10
58.47743782816748
 20
25.8823255294039
 30
0.0
 11
58.47733497627203
 21
25.88238475787136
 31
0.0
  0
ELLIPSE
  5
169
330
6C
100
AcDbEntity
  8
Visible (ANSI)
100
AcDbEllipse
 10
58.31446899983435
 20
26.74400623747532
 30
0.0
 11
-0.0907331293789827
 21
0.1575606247536689
 31
0.0
210
0.0
220
0.0
230
1.0
 40
0.578093115915813
 41
0.267844877812565
 42
2.873747775777246
  0
ELLIPSE
  5
16A
330
6C
100
AcDbEntity
  8
Visible (ANSI)
100
AcDbEllipse
 10
47.43273846171828
 20
33.01037809481675
 30
0.0
 11
-0.0907331293789824
 21
0.1575606247536685
 31
0.0
210
0.0
220
0.0
230
0.9999999999999998
 40
0.578093115915813
 41
0.2678448778125653
 42
2.873747775777247
  0
ELLIPSE
  5
16B
330
6C
100
AcDbEntity
  8
Visible (ANSI)
100
AcDbEllipse
 10
47.43273846171827
 20
20.42907106814897
 30
0.0
 11
-0.0907331293789824
 21
0.1575606247536683
 31
0.0
210
0.0
220
0.0
230
1.0
 40
0.5780931159158129
 41
0.2678448778125802
 42
2.873747775777264
  0
ELLIPSE
  5
16C
330
6C
100
AcDbEntity
  8
Visible (ANSI)
100
AcDbEllipse
 10
58.31446899983433
 20
14.16269921080754
 30
0.0
 11
-0.0907331293789823
 21
0.1575606247536683
 31
0.0
210
0.0
220
0.0
230
1.0
 40
0.5780931159158129
 41
0.2678448778125804
 42
2.873747775777255
  0
ELLIPSE
  5
16D
330
6C
100
AcDbEntity
  8
Visible (ANSI)
100
AcDbEllipse
 10
58.31446899983435
 20
26.29807144210666
 30
0.0
 11
0.0567082058618704
 21
-0.0984753904710403
 31
0.0
210
0.0
220
0.0
230
1.0
 40
0.578093115915813
 41
3.578838513251572
 42
5.845939447516908
  0
ELLIPSE
  5
16E
330
6C
100
AcDbEntity
  8
Visible (ANSI)
100
AcDbEllipse
 10
47.43273846171828
 20
32.56444329944808
 30
0.0
 11
0.05670820586187
 21
-0.0984753904710396
 31
0.0
210
0.0
220
0.0
230
1.0
 40
0.578093115915813
 41
3.578838513251572
 42
5.845939447516927
  0
ELLIPSE
  5
16F
330
6C
100
AcDbEntity
  8
Visible (ANSI)
100
AcDbEllipse
 10
47.43273846171827
 20
20.87500586351763
 30
0.0
 11
0.0567082058618699
 21
-0.0984753904710394
 31
0.0
210
0.0
220
0.0
230
1.0
 40
0.578093115915813
 41
3.578838513251572
 42
5.845939447516917
  0
ELLIPSE
  5
170
330
6C
100
AcDbEntity
  8
Visible (ANSI)
100
AcDbEllipse
 10
58.31446899983433
 20
14.60863400617619
 30
0.0
 11
0.0567082058618707
 21
-0.0984753904710408
 31
0.0
210
0.0
220
0.0
230
1.0
 40
0.578093115915813
 41
3.578838513251547
 42
5.845939447516918
  0
ELLIPSE
  5
171
330
6C
100
AcDbEntity
  8
Visible (ANSI)
100
AcDbEllipse
 10
58.26625717384436
 20
26.71624289335311
 30
0.0
 11
-0.0907331293789824
 21
0.1575606247536683
 31
0.0
210
0.0
220
0.0
230
1.0
 40
0.5780931159158129
 41
0.0
 42
6.283185307179586
  0
ELLIPSE
  5
172
330
6C
100
AcDbEntity
  8
Visible (ANSI)
100
AcDbEllipse
 10
47.38452663572829
 20
32.98261475069454
 30
0.0
 11
-0.0907331293789824
 21
0.1575606247536683
 31
0.0
210
0.0
220
0.0
230
1.0
 40
0.5780931159158129
 41
0.0
 42
6.283185307179586
  0
ELLIPSE
  5
173
330
6C
100
AcDbEntity
  8
Visible (ANSI)
100
AcDbEllipse
 10
47.38452663572828
 20
20.40130772402676
 30
0.0
 11
-0.0907331293789824
 21
0.1575606247536683
 31
0.0
210
0.0
220
0.0
230
1.0
 40
0.5780931159158129
 41
0.0
 42
6.283185307179586
  0
ELLIPSE
  5
174
330
6C
100
AcDbEntity
  8
Visible (ANSI)
100
AcDbEllipse
 10
58.26625717384435
 20
14.13493586668533
 30
0.0
 11
-0.0907331293789824
 21
0.1575606247536683
 31
0.0
210
0.0
220
0.0
230
1.0
 40
0.5780931159158129
 41
0.0
 42
6.283185307179586
  0
ELLIPSE
  5
175
330
6C
100
AcDbEntity
  8
Visible (ANSI)
100
AcDbEllipse
 10
58.26625717384436
 20
26.27030809798445
 30
0.0
 11
-0.056708205861864
 21
0.0984753904710427
 31
0.0
210
0.0
220
0.0
230
1.0
 40
0.5780931159158129
 41
0.0
 42
6.283185307179586
  0
ELLIPSE
  5
176
330
6C
100
AcDbEntity
  8
Visible (ANSI)
100
AcDbEllipse
 10
47.38452663572829
 20
32.53667995532588
 30
0.0
 11
-0.056708205861864
 21
0.0984753904710427
 31
0.0
210
0.0
220
0.0
230
1.0
 40
0.5780931159158129
 41
0.0
 42
6.283185307179586
  0
ELLIPSE
  5
177
330
6C
100
AcDbEntity
  8
Visible (ANSI)
100
AcDbEllipse
 10
47.38452663572828
 20
20.84724251939542
 30
0.0
 11
-0.056708205861864
 21
0.0984753904710427
 31
0.0
210
0.0
220
0.0
230
1.0
 40
0.5780931159158129
 41
0.0
 42
6.283185307179586
  0
ELLIPSE
  5
178
330
6C
100
AcDbEntity
  8
Visible (ANSI)
100
AcDbEllipse
 10
58.26625717384435
 20
14.58087066205399
 30
0.0
 11
-0.056708205861864
 21
0.0984753904710427
 31
0.0
210
0.0
220
0.0
230
1.0
 40
0.5780931159158129
 41
0.0
 42
6.283185307179586
  0
LINE
  5
179
330
6C
100
AcDbEntity
  8
Visible (ANSI)
100
AcDbLine
 10
58.58188392799219
 20
13.99681360086657
 30
0.0
 11
58.58188392799219
 21
14.72089279259984
 31
0.0
  0
LINE
  5
17A
330
6C
100
AcDbEntity
  8
Visible (ANSI)
100
AcDbLine
 10
58.32475418937887
 20
27.04726484885151
 30
0.0
 11
47.42245327217374
 21
33.32548239968509
 31
0.0
  0
LINE
  5
17B
330
6C
100
AcDbEntity
  8
Visible (ANSI)
100
AcDbLine
 10
58.58188392799219
 20
25.8778246248874
 30
0.0
 11
58.58188392799219
 21
26.60190381662068
 31
0.0
  0
LINE
  5
17C
330
6C
100
AcDbEntity
  8
Visible (ANSI)
100
AcDbLine
 10
58.53367210200222
 20
26.57414047249847
 30
0.0
 11
58.53367210200221
 21
25.85006128076519
 31
0.0
  0
LINE
  5
17D
330
6C
100
AcDbEntity
  8
Visible (ANSI)
100
AcDbLine
 10
47.37424144618376
 20
33.29771905556287
 30
0.0
 11
58.27654236338888
 21
27.01950150472931
 31
0.0
  0
LINE
  5
17E
330
6C
100
AcDbEntity
  8
Visible (ANSI)
100
AcDbLine
 10
47.11711170757043
 20
32.42442116890224
 30
0.0
 11
47.11711170757043
 21
33.1485003606355
 31
0.0
  0
LINE
  5
17F
330
6C
100
AcDbEntity
  8
Visible (ANSI)
100
AcDbLine
 10
47.11711170757042
 20
20.5434101448814
 30
0.0
 11
47.11711170757042
 21
21.26748933661467
 31
0.0
  0
LINE
  5
180
330
6C
100
AcDbEntity
  8
Visible (ANSI)
100
AcDbLine
 10
58.27654236338887
 20
13.81983156181699
 30
0.0
 11
47.37424144618375
 21
20.09804911265056
 31
0.0
  0
LINE
  5
181
330
6C
100
AcDbEntity
  8
Visible (ANSI)
100
AcDbLine
 10
58.53367210200221
 20
14.69312944847763
 30
0.0
 11
58.5336721020022
 21
13.96905025674436
 31
0.0
  0
LINE
  5
182
330
6C
100
AcDbEntity
  8
Visible (ANSI)
100
AcDbLine
 10
58.32475418937885
 20
13.8475949059392
 30
0.0
 11
58.58188392799219
 21
13.99681360086657
 31
0.0
  0
LINE
  5
183
330
6C
100
AcDbEntity
  8
Visible (ANSI)
100
AcDbLine
 10
58.5336721020022
 20
13.96905025674436
 30
0.0
 11
58.27654236338887
 21
13.81983156181699
 31
0.0
  0
LINE
  5
184
330
6C
100
AcDbEntity
  8
Visible (ANSI)
100
AcDbLine
 10
58.27654236338887
 20
13.81983156181699
 30
0.0
 11
58.32475418937885
 21
13.8475949059392
 31
0.0
  0
LINE
  5
185
330
6C
100
AcDbEntity
  8
Visible (ANSI)
100
AcDbLine
 10
58.58188392799219
 20
13.99681360086657
 30
0.0
 11
58.5336721020022
 21
13.96905025674436
 31
0.0
  0
LINE
  5
186
330
6C
100
AcDbEntity
  8
Visible (ANSI)
100
AcDbLine
 10
58.58188392799219
 20
26.60190381662068
 30
0.0
 11
58.32475418937887
 21
27.04726484885151
 31
0.0
  0
LINE
  5
187
330
6C
100
AcDbEntity
  8
Visible (ANSI)
100
AcDbLine
 10
58.27654236338888
 20
27.01950150472931
 30
0.0
 11
58.53367210200222
 21
26.57414047249847
 31
0.0
  0
LINE
  5
188
330
6C
100
AcDbEntity
  8
Visible (ANSI)
100
AcDbLine
 10
58.53367210200222
 20
26.57414047249847
 30
0.0
 11
58.58188392799219
 21
26.60190381662068
 31
0.0
  0
LINE
  5
189
330
6C
100
AcDbEntity
  8
Visible (ANSI)
100
AcDbLine
 10
58.32475418937887
 20
27.04726484885151
 30
0.0
 11
58.27654236338888
 21
27.01950150472931
 31
0.0
  0
LINE
  5
18A
330
6C
100
AcDbEntity
  8
Visible (ANSI)
100
AcDbLine
 10
47.11711170757043
 20
33.1485003606355
 30
0.0
 11
47.37424144618376
 21
33.29771905556287
 31
0.0
  0
LINE
  5
18B
330
6C
100
AcDbEntity
  8
Visible (ANSI)
100
AcDbLine
 10
47.37424144618376
 20
33.29771905556287
 30
0.0
 11
47.42245327217374
 21
33.32548239968509
 31
0.0
  0
LINE
  5
18C
330
6C
100
AcDbEntity
  8
Visible (ANSI)
100
AcDbLine
 10
47.11711170757043
 20
32.42442116890224
 30
0.0
 11
47.17344883330061
 21
32.39197877585064
 31
0.0
  0
LINE
  5
18D
330
6C
100
AcDbEntity
  8
Visible (ANSI)
100
AcDbLine
 10
47.17344883330061
 20
32.39197877585064
 30
0.0
 11
47.17344883330061
 21
32.3918598599052
 31
0.0
  0
LINE
  5
18E
330
6C
100
AcDbEntity
  8
Visible Narrow (ANSI)
100
AcDbLine
 10
47.17334598140516
 20
32.39191908837267
 30
0.0
 11
47.17334598140515
 21
21.23522508797597
 31
0.0
  0
LINE
  5
18F
330
6C
100
AcDbEntity
  8
Visible (ANSI)
100
AcDbLine
 10
47.1734488333006
 20
21.23516585950851
 30
0.0
 11
47.1734488333006
 21
21.23504694356308
 31
0.0
  0
LINE
  5
190
330
6C
100
AcDbEntity
  8
Visible (ANSI)
100
AcDbLine
 10
47.1734488333006
 20
21.23504694356308
 30
0.0
 11
47.11711170757042
 21
21.26748933661467
 31
0.0
  0
ELLIPSE
  5
191
330
6C
100
AcDbEntity
  8
Visible (ANSI)
100
AcDbEllipse
 10
47.22958025523987
 20
32.4243022529568
 30
0.0
 11
-0.0795272727272481
 21
0.0000000000000001
 31
0.0
210
0.0
220
0.0
230
1.0
 40
0.5758617009853092
 41
0.7247905929201988
 42
0.7853981633974963
  0
ELLIPSE
  5
192
330
6C
100
AcDbEntity
  8
Visible (ANSI)
100
AcDbEllipse
 10
47.22958025523988
 20
21.26760825256011
 30
0.0
 11
-0.0795272727272726
 21
0.0000000000000019
 31
0.0
210
0.0
220
0.0
230
1.0
 40
0.5758617009852987
 41
0.0
 42
0.7853981633974687
  0
LINE
  5
193
330
6C
100
AcDbEntity
  8
Visible (ANSI)
100
AcDbLine
 10
47.11711170757042
 20
21.26748933661467
 30
0.0
 11
47.1500529825126
 21
21.28645895523551
 31
0.0
  0
LINE
  5
194
330
6C
100
AcDbEntity
  8
Visible (ANSI)
100
AcDbLine
 10
47.15005298251262
 20
32.40545155028141
 30
0.0
 11
47.1500529825126
 21
21.26760825256011
 31
0.0
  0
LINE
  5
195
330
6C
100
AcDbEntity
  8
Visible (ANSI)
100
AcDbLine
 10
47.17344883330061
 20
32.3918598599052
 30
0.0
 11
47.17334598140516
 21
32.39191908837267
 31
0.0
  0
LINE
  5
196
330
6C
100
AcDbEntity
  8
Visible (ANSI)
100
AcDbLine
 10
47.17334598140515
 20
21.23522508797597
 30
0.0
 11
47.1734488333006
 21
21.23516585950851
 31
0.0
  0
LINE
  5
197
330
6C
100
AcDbEntity
  8
Visible (ANSI)
100
AcDbLine
 10
47.36075635959446
 20
32.56460787670737
 30
0.0
 11
47.42051453496535
 21
32.59902032122424
 31
0.0
  0
LINE
  5
198
330
6C
100
AcDbEntity
  8
Visible (ANSI)
100
AcDbLine
 10
47.44714895727904
 20
32.55883137671816
 30
0.0
 11
47.38214730850757
 21
32.52139941668975
 31
0.0
  0
LINE
  5
199
330
6C
100
AcDbEntity
  8
Visible (ANSI)
100
AcDbLine
 10
47.37424144618375
 20
20.09804911265056
 30
0.0
 11
47.11711170757042
 21
20.5434101448814
 31
0.0
  0
DIMENSION
  5
19A
330
6C
100
AcDbEntity
  8
Dimension (ANSI)
100
AcDbDimension
  2
*D4
 10
30.2710006073214
 20
36.18789401280317
 30
0.0
 11
19.1710006073214
 21
36.18789401280317
 31
0.0
 70
   160
  1
<>
 42
22.2
  3
Default (ANSI)
100
AcDbAlignedDimension
 13
8.071000607321405
 23
30.93956173157056
 33
0.0
 14
30.2710006073214
 24
30.93956173157056
 34
0.0
100
AcDbRotatedDimension
1001
ACAD
1000
DSTYLE
1002
{
1070
   289
1070
     1
1070
    73
1070
     0
1070
    74
1070
     0
1070
   271
1070
     2
1070
   272
1070
     2
1070
    48
1040
0.0
1070
    47
1040
0.0
1002
}
  0
DIMENSION
  5
287
330
6C
100
AcDbEntity
  8
Dimension (ANSI)
100
AcDbDimension
  2
*D5
 10
29.77100060732141
 20
34.58916803078316
 30
0.0
 11
19.1710006073214
 21
34.58916803078316
 31
0.0
 70
   160
  1
<>{ TYP.}
 71
     5
 42
21.2
  3
Default (ANSI)
100
AcDbAlignedDimension
 13
8.571000607321403
 23
31.43956173157056
 33
0.0
 14
29.77100060732141
 24
31.43956173157056
 34
0.0
 50
180.0
100
AcDbRotatedDimension
1001
ACAD
1000
DSTYLE
1002
{
1070
   289
1070
     1
1070
    73
1070
     0
1070
    74
1070
     0
1070
   271
1070
     2
1070
   272
1070
     2
1070
    48
1040
0.0
1070
    47
1040
0.0
1002
}
  0
DIMENSION
  5
371
330
6C
100
AcDbEntity
  8
Dimension (ANSI)
100
AcDbDimension
  2
*D6
 10
8.571000607321403
 20
34.58916803078317
 30
0.0
 11
6.539961310783977
 21
34.58916803078317
 31
0.0
 70
   160
  1
<>{\PTYP.}
 71
     5
 42
0.4999999999999983
  3
Default (ANSI)
100
AcDbAlignedDimension
 13
8.071000607321405
 23
30.93956173157056
 33
0.0
 14
8.571000607321403
 24
31.43956173157056
 34
0.0
 50
180.0
100
AcDbRotatedDimension
1001
ACAD
1000
DSTYLE
1002
{
1070
   289
1070
     1
1070
    73
1070
     0
1070
    74
1070
     0
1070
   271
1070
     2
1070
   272
1070
     2
1070
    48
1040
0.0
1070
    47
1040
0.0
1002
}
  0
DIMENSION
  5
46F
330
6C
100
AcDbEntity
  8
Dimension (ANSI)
100
AcDbDimension
  2
*D7
 10
3.703427235811036
 20
9.239561731570562
 30
0.0
 11
3.703427235811035
 21
20.33956173157056
 31
0.0
 70
   160
  1
<>
 42
22.2
  3
Default (ANSI)
100
AcDbAlignedDimension
 13
8.571000607321403
 23
31.43956173157056
 33
0.0
 14
8.571000607321412
 24
9.23956173157056
 34
0.0
 50
270.0
100
AcDbRotatedDimension
1001
ACAD
1000
DSTYLE
1002
{
1070
   289
1070
     1
1070
   271
1070
     2
1070
   272
1070
     2
1070
    48
1040
0.0
1070
    47
1040
0.0
1002
}
  0
DIMENSION
  5
559
330
6C
100
AcDbEntity
  8
Dimension (ANSI)
100
AcDbDimension
  2
*D8
 10
6.478914370402538
 20
30.93956173157057
 30
0.0
 11
6.478914370402532
 21
20.33956173157056
 31
0.0
 70
   160
  1
<>{\PTYP.}
 71
     5
 42
21.2
  3
Default (ANSI)
100
AcDbAlignedDimension
 13
8.07100060732141
 23
9.739561731570562
 33
0.0
 14
8.071000607321405
 24
30.93956173157056
 34
0.0
 50
90.0
100
AcDbRotatedDimension
1001
ACAD
1000
DSTYLE
1002
{
1070
   289
1070
     1
1070
   271
1070
     2
1070
   272
1070
     2
1070
    48
1040
0.0
1070
    47
1040
0.0
1002
}
  0
DIMENSION
  5
657
330
6C
100
AcDbEntity
  8
Dimension (ANSI)
100
AcDbDimension
  2
*D9
 10
5.469643958570322
 20
30.93956173157057
 30
0.0
 11
6.496197457715108
 21
32.8392206694794
 31
0.0
 70
   160
  1
<>{\PTYP.}
 71
     5
 42
0.4999999999999965
  3
Default (ANSI)
100
AcDbAlignedDimension
 13
8.571000607321403
 23
31.43956173157056
 33
0.0
 14
8.071000607321405
 24
30.93956173157056
 34
0.0
 50
90.0
100
AcDbRotatedDimension
1001
ACAD
1000
DSTYLE
1002
{
1070
   289
1070
     1
1070
   271
1070
     2
1070
   272
1070
     2
1070
    48
1040
0.0
1070
    47
1040
0.0
1002
}
  0
DIMENSION
  5
76D
330
6C
100
AcDbEntity
  8
Dimension (ANSI)
100
AcDbDimension
  2
*D10
 10
8.414223912024752
 20
9.936338426867173
 30
0.0
 11
14.55416953911693
 21
7.145681923328723
 31
0.0
 70
   163
  1
<>{ TYP. (4 PL.)}
 42
0.5
  3
Default (ANSI)
100
AcDbDiametricDimension
 15
8.767777302618076
 25
9.582785036273952
 35
0.0
 40
0.0
1001
ACAD
1000
DSTYLE
1002
{
1070
   144
1040
1.000000000000001
1070
   271
1070
     2
1070
   272
1070
     2
1070
    48
1040
0.0
1070
    47
1040
0.0
1002
}
1001
ACAD_DSTYLE_DIMRADIAL_EXTENSION
1070
   387
1070
     1
1070
   388
1040
0.0
1070
   390
1040
0.0
  0
DIMENSION
  5
817
330
6C
100
AcDbEntity
  8
Dimension (ANSI)
100
AcDbDimension
  2
*D11
 10
8.480515172760997
 20
10.62004716613094
 30
0.0
 11
14.49111002379871
 21
7.958741438646929
 31
0.0
 70
   163
  1
<>{ TYP. (4 PL.)}
 42
0.3125
  3
Default (ANSI)
100
AcDbDiametricDimension
 15
8.701486041881826
 25
10.39907629701018
 35
0.0
 40
0.0
1001
ACAD
1000
DSTYLE
1002
{
1070
   144
1040
1.0
1070
   271
1070
     2
1070
   272
1070
     2
1070
    48
1040
0.0
1070
    47
1040
0.0
1002
}
1001
ACAD_DSTYLE_DIMRADIAL_EXTENSION
1070
   387
1070
     1
1070
   388
1040
0.0
1070
   390
1040
0.0
  0
DIMENSION
  5
8C0
330
6C
100
AcDbEntity
  8
Dimension (ANSI)
100
AcDbDimension
  2
*D12
 10
33.44204846572865
 20
9.75956173157056
 30
0.0
 11
32.41549496658386
 21
8.171333838763715
 31
0.0
 70
   160
  1
<>{ \PTYP.}
 71
     5
 42
0.5199999999999996
  3
Default (ANSI)
100
AcDbAlignedDimension
 13
29.77100060732141
 23
9.23956173157056
 33
0.0
 14
29.75100060732141
 24
9.75956173157056
 34
0.0
 50
90.0
100
AcDbRotatedDimension
1001
ACAD
1000
DSTYLE
1002
{
1070
   289
1070
     1
1070
   271
1070
     2
1070
   272
1070
     2
1070
    48
1040
0.0
1070
    47
1040
0.0
1002
}
  0
DIMENSION
  5
9D4
330
6C
100
AcDbEntity
  8
Dimension (ANSI)
100
AcDbDimension
  2
*D13
 10
35.23352233732298
 20
10.50956173157056
 30
0.0
 11
34.23294286453926
 21
8.170256896310696
 31
0.0
 70
   160
  1
<>{\PTYP.}
 71
     5
 42
1.269999999999999
  3
Default (ANSI)
100
AcDbAlignedDimension
 13
29.77100060732141
 23
9.23956173157056
 33
0.0
 14
29.75100060732141
 24
10.50956173157056
 34
0.0
 50
90.0
100
AcDbRotatedDimension
1001
ACAD
1000
DSTYLE
1002
{
1070
   289
1070
     2
1070
   271
1070
     2
1070
   272
1070
     2
1070
    48
1040
0.0
1070
    47
1040
0.0
1002
}
  0
DIMENSION
  5
AE5
330
6C
100
AcDbEntity
  8
Dimension (ANSI)
100
AcDbDimension
  2
*D14
 10
30.27100060732141
 20
8.186478053636621
 30
0.0
 11
28.29532114429492
 21
8.186478053636621
 31
0.0
 70
   160
  1
<>{\PTYP.}
 71
     5
 42
0.5199999999999961
  3
Default (ANSI)
100
AcDbAlignedDimension
 13
29.75100060732141
 23
10.50956173157056
 33
0.0
 14
30.27100060732141
 24
9.739561731570562
 34
0.0
 50
180.0
100
AcDbRotatedDimension
1001
ACAD
1000
DSTYLE
1002
{
1070
   289
1070
     1
1070
    73
1070
     0
1070
    74
1070
     0
1070
   271
1070
     2
1070
   272
1070
     2
1070
    48
1040
0.0
1070
    47
1040
0.0
1002
}
  0
DIMENSION
  5
BE3
330
6C
100
AcDbEntity
  8
Dimension (ANSI)
100
AcDbDimension
  2
*D15
 10
38.58305377279664
 20
30.82844058499475
 30
0.0
 11
40.84091573405827
 21
30.82844058499475
 31
0.0
 70
   160
  1
(<>){\P12 GA.\PGALV.}
 71
     5
 42
0.09375
  3
Default (ANSI)
100
AcDbAlignedDimension
 13
38.67680377279664
 23
21.7989574750491
 33
0.0
 14
38.58305377279664
 24
21.7989574750491
 34
0.0
100
AcDbRotatedDimension
1001
ACAD
1000
DSTYLE
1002
{
1070
   289
1070
     1
1070
    73
1070
     0
1070
    74
1070
     0
1070
   271
1070
     3
1070
   147
1040
0.031496062992126
1070
    72
1070
     0
1070
    71
1070
     0
1070
   272
1070
     3
1070
    48
1040
0.0
1070
    47
1040
0.0
1002
}
  0
MTEXT
  5
CEB
102
{ACAD_XDICTIONARY
360
DEE
102
}
330
6C
100
AcDbEntity
  8
Symbol (ANSI)
100
AcDbMText
 10
42.80078748734555
 20
6.410012232285791
 30
0.0
 40
0.3636363752415628
 41
17.01043464634831
 71
     4
 72
     1
  3
{\fRomanS|b0|i0|c0|p2;\H2.0001x;PART#: NP2424CG\P(DATA SUBJECT TO CHANGE \H1.5533x; \H0.64379x;\PWITHOUT NOTICE) \H1.4593x; \H0.68527x;\P\H0.60003x;THIS DRAWING IS PROPERTY OF HUBBELL INC. \H1.4743x; \H0.67829x;\PWIEGMANN\H1.157x; \H0.86434x;\PALL IN
  1
FORMATION IS PROPRIETARY AND NOT TO \H1.1949x; \H0.83686x;\PBE DUPLICATED\H1.1904x; \H0.84006x;\P\H0.83318x; \H1.2292x; \H0.81356x;\P \H1.1396x; }
  7
Note Text (ANSI)
 73
     1
 44
0.8397688865661621
1001
ACAD
1000
MTEXTBEGIN
1070
    73
1070
     1
1070
    44
1040
0.8397688865661621
1070
    74
1070
     0
1000
MTEXTEND
  0
LINE
  5
CED
330
6C
100
AcDbEntity
  8
Center Mark (ANSI)
  6
CHAIN
 48
0.2151660621166229
100
AcDbLine
 10
7.886455152775956
 20
30.91956173157056
 30
0.0
 11
9.295546061866865
 21
30.91956173157056
 31
0.0
  0
LINE
  5
CEE
330
6C
100
AcDbEntity
  8
Center Mark (ANSI)
  6
CHAIN
 48
0.2151660621166229
100
AcDbLine
 10
30.45554606186687
 20
30.91956173157056
 30
0.0
 11
29.04645515277596
 21
30.91956173157056
 31
0.0
  0
LINE
  5
CEF
330
6C
100
AcDbEntity
  8
Centerline (ANSI)
  6
CHAIN
 48
0.9524481296539306
100
AcDbLine
 10
7.886455152775956
 20
30.91956173157056
 30
0.0
 11
30.45554606186687
 21
30.91956173157056
 31
0.0
  0
LINE
  5
CF0
330
6C
100
AcDbEntity
  8
Center Mark (ANSI)
  6
CHAIN
 48
0.2151660621166229
100
AcDbLine
 10
29.75100060732141
 20
9.055016277025105
 30
0.0
 11
29.75100060732141
 21
10.46410718611601
 31
0.0
  0
LINE
  5
CF1
330
6C
100
AcDbEntity
  8
Centerline (ANSI)
  6
CHAIN
 48
0.9524481296539306
100
AcDbLine
 10
29.75100060732141
 20
31.62410718611602
 30
0.0
 11
29.75100060732141
 21
9.055016277025107
 31
0.0
  0
LINE
  5
CF2
330
6C
100
AcDbEntity
  8
Center Mark (ANSI)
  6
CHAIN
 48
0.2151660621166229
100
AcDbLine
 10
7.886455152775956
 20
9.75956173157056
 30
0.0
 11
9.295546061866865
 21
9.75956173157056
 31
0.0
  0
LINE
  5
CF3
330
6C
100
AcDbEntity
  8
Centerline (ANSI)
  6
CHAIN
 48
0.9524481296539306
100
AcDbLine
 10
30.45554606186687
 20
9.75956173157056
 30
0.0
 11
7.886455152775956
 21
9.75956173157056
 31
0.0
  0
LINE
  5
CF4
330
6C
100
AcDbEntity
  8
Centerline (ANSI)
  6
CHAIN
 48
0.9524481296539306
100
AcDbLine
 10
8.591000607321412
 20
9.055016277025105
 30
0.0
 11
8.591000607321412
 21
31.62410718611602
 31
0.0
  0
LINE
  5
CF5
330
6C
100
AcDbEntity
  8
Center Mark (ANSI)
  6
CHAIN
 48
0.1865217834711075
100
AcDbLine
 10
8.591000607321412
 20
30.78035718611602
 30
0.0
 11
8.591000607321412
 21
29.5587662770251
 31
0.0
  0
LINE
  5
CF6
330
6C
100
AcDbEntity
  8
Center Mark (ANSI)
  6
CHAIN
 48
0.1865217834711075
100
AcDbLine
 10
29.75100060732141
 20
30.78035718611602
 30
0.0
 11
29.75100060732141
 21
29.55876627702511
 31
0.0
  0
LINE
  5
CF7
330
6C
100
AcDbEntity
  8
Centerline (ANSI)
  6
CHAIN
 48
0.9524481296539306
100
AcDbLine
 10
7.980205152775956
 20
30.16956173157056
 30
0.0
 11
30.36179606186687
 21
30.16956173157057
 31
0.0
  0
LINE
  5
CF8
330
6C
100
AcDbEntity
  8
Center Mark (ANSI)
  6
CHAIN
 48
0.1865217834711075
100
AcDbLine
 10
8.591000607321412
 20
11.12035718611601
 30
0.0
 11
8.591000607321412
 21
9.898766277025105
 31
0.0
  0
LINE
  5
CF9
330
6C
100
AcDbEntity
  8
Center Mark (ANSI)
  6
CHAIN
 48
0.1865217834711075
100
AcDbLine
 10
29.75100060732141
 20
11.12035718611601
 30
0.0
 11
29.75100060732141
 21
9.898766277025105
 31
0.0
  0
LINE
  5
CFA
330
6C
100
AcDbEntity
  8
Centerline (ANSI)
  6
CHAIN
 48
0.9524481296539306
100
AcDbLine
 10
7.980205152775956
 20
10.50956173157056
 30
0.0
 11
30.36179606186687
 21
10.50956173157056
 31
0.0
  0
DIMENSION
  5
CFB
330
6C
100
AcDbEntity
  8
Dimension (ANSI)
100
AcDbDimension
  2
*D16
 10
39.35705377279665
 20
28.20265382277007
 30
0.0
 11
40.75555121129855
 21
28.20265382277007
 31
0.0
 70
   160
  1
<>
 42
0.7740000000000081
  3
Default (ANSI)
100
AcDbAlignedDimension
 13
38.58305377279664
 23
29.72176173157056
 33
0.0
 14
39.35705377279665
 24
20.33956173157005
 34
0.0
 50
180.0
100
AcDbRotatedDimension
1001
ACAD
1000
DSTYLE
1002
{
1070
   289
1070
     1
1070
    73
1070
     0
1070
    74
1070
     0
1070
   271
1070
     2
1070
    76
1070
     1
1070
   272
1070
     2
1070
    48
1040
0.0
1070
    47
1040
0.0
1002
}
  0
ENDSEC
  0
SECTION
  2
OBJECTS
  0
DICTIONARY
  5
C
330
0
100
AcDbDictionary
281
     1
  3
ACAD_CIP_PREVIOUS_PRODUCT_INFO
350
DE0
  3
ACAD_COLOR
350
63
  3
ACAD_GROUP
350
D
  3
ACAD_LAYOUT
350
62
  3
ACAD_MATERIAL
350
10
  3
ACAD_MLEADERSTYLE
350
66
  3
ACAD_MLINESTYLE
350
5F
  3
ACAD_PLOTSETTINGS
350
61
  3
ACAD_PLOTSTYLENAME
350
E
  3
ACAD_SCALELIST
350
42
  3
ACAD_TABLESTYLE
350
64
  3
ACAD_VISUALSTYLE
350
29
  3
ACDB_RECOMPOSE_DATA
350
DF0
  3
AcDbVariableDictionary
350
76
  3
DWGPROPS
350
DF1
  0
DICTIONARY
  5
E2D
330
811
100
AcDbDictionary
280
     1
281
     1
  3
ACAD_MTEXT_RT
360
E2E
  0
DICTIONARY
  5
E2F
330
8BA
100
AcDbDictionary
280
     1
281
     1
  3
ACAD_MTEXT_RT
360
E30
  0
DICTIONARY
  5
DEE
330
CEB
100
AcDbDictionary
280
     1
281
     1
  3
ACAD_MTEXT_2008_RT
360
DEF
  0
XRECORD
  5
DE0
102
{ACAD_REACTORS
330
C
102
}
330
C
100
AcDbXrecord
280
     1
300
INVNTOR
300
2012
300
85795PDSP_2012_0F
  0
DICTIONARY
  5
63
102
{ACAD_REACTORS
330
C
102
}
330
C
100
AcDbDictionary
281
     1
  0
DICTIONARY
  5
D
102
{ACAD_REACTORS
330
C
102
}
330
C
100
AcDbDictionary
281
     1
  0
DICTIONARY
  5
62
102
{ACAD_REACTORS
330
C
102
}
330
C
100
AcDbDictionary
281
     1
  3
Layout1
350
6B
  3
Layout2
350
73
  3
Model
350
6F
  0
DICTIONARY
  5
10
102
{ACAD_REACTORS
330
C
102
}
330
C
100
AcDbDictionary
281
     1
  3
ByBlock
350
19
  3
ByLayer
350
11
  3
Global
350
21
  0
DICTIONARY
  5
66
102
{ACAD_REACTORS
330
C
102
}
330
C
100
AcDbDictionary
281
     1
  3
Standard
350
67
  0
DICTIONARY
  5
5F
102
{ACAD_REACTORS
330
C
102
}
330
C
100
AcDbDictionary
281
     1
  3
Standard
350
60
  0
DICTIONARY
  5
61
102
{ACAD_REACTORS
330
C
102
}
330
C
100
AcDbDictionary
281
     1
  0
ACDBDICTIONARYWDFLT
  5
E
102
{ACAD_REACTORS
330
C
102
}
330
C
100
AcDbDictionary
281
     1
  3
Normal
350
F
100
AcDbDictionaryWithDefault
340
F
  0
DICTIONARY
  5
42
102
{ACAD_REACTORS
330
C
102
}
330
C
100
AcDbDictionary
281
     1
  3
A0
350
43
  3
A1
350
44
  3
A2
350
45
  3
A3
350
46
  3
A4
350
47
  3
A5
350
48
  3
A6
350
49
  3
A7
350
4A
  3
A8
350
4B
  3
A9
350
4C
  3
B0
350
4D
  3
B1
350
4E
  3
B2
350
4F
  3
B3
350
50
  3
B4
350
51
  3
B5
350
52
  3
B6
350
53
  0
DICTIONARY
  5
64
102
{ACAD_REACTORS
330
C
102
}
330
C
100
AcDbDictionary
281
     1
  3
Standard
350
65
  0
DICTIONARY
  5
29
102
{ACAD_REACTORS
330
C
102
}
330
C
100
AcDbDictionary
281
     1
  3
2dWireframe
350
2F
  3
Basic
350
2E
  3
Brighten
350
35
  3
ColorChange
350
39
  3
Conceptual
350
32
  3
Dim
350
34
  3
EdgeColorOff
350
41
  3
Facepattern
350
38
  3
Flat
350
2A
  3
FlatWithEdges
350
2B
  3
Gouraud
350
2C
  3
GouraudWithEdges
350
2D
  3
Hidden
350
31
  3
JitterOff
350
3F
  3
Linepattern
350
37
  3
OverhangOff
350
40
  3
Realistic
350
33
  3
Shaded
350
3E
  3
Shaded with edges
350
3D
  3
Shades of Gray
350
3A
  3
Sketchy
350
3B
  3
Thicken
350
36
  3
Wireframe
350
30
  3
X-Ray
350
3C
  0
XRECORD
  5
DF0
102
{ACAD_REACTORS
330
C
102
}
330
C
100
AcDbXrecord
280
     1
 90
        1
330
65
330
9D4
330
CEB
  0
DICTIONARY
  5
76
102
{ACAD_REACTORS
330
C
102
}
330
C
100
AcDbDictionary
281
     1
  3
CANNOSCALE
350
79
  3
CMLEADERSTYLE
350
78
  3
CTABLESTYLE
350
77
  3
DIMASSOC
350
DE8
  3
HIDETEXT
350
DE7
  3
INDEXCTL
350
DE6
  3
LAYEREVAL
350
DE3
  3
LAYERNOTIFY
350
DE4
  3
LIGHTINGUNITS
350
DE2
  3
MSLTSCALE
350
DE1
  3
SORTENTS
350
DE5
  3
XCLIPFRAME
350
DE9
  0
XRECORD
  5
DF1
102
{ACAD_REACTORS
330
C
102
}
330
C
100
AcDbXrecord
280
     1
  1
DWGPROPS COOKIE
  2

  3

  4
JF
  6

  7

  8

  9
-
300
Manager=
301
Company=
302
Category=
303
Part Number=NP2424CG-S
304
Description=
305
Project=
306
Designer=JF
307
Engineer=
308
Authority=
309
Cost Center=
 40
0.0000629398148148
 41
2455946.334020856
 42
2455946.334020856
  1

 90
       22
300
Vendor=
300
User Status=
300
Design Status=WorkInProgress
300
Checked by=DN
300
Date Checked=01/18/2012
300
Engr Approved by=
300
Date Eng Approved=01/18/2012
300
Mfg Approved by=
300
Date Mfg Approved=01/18/2012
300
DWG. NO=
300
NUMBER OF SHEETS=1
300
DRAWING #=
  0
XRECORD
  5
E2E
102
{ACAD_REACTORS
330
E2D
102
}
330
E2D
100
AcDbXrecord
280
     1
 40
28737.0
  1
\A1;\U+22050.50{ TYP. (4 PL.)}
  0
XRECORD
  5
E30
102
{ACAD_REACTORS
330
E2F
102
}
330
E2F
100
AcDbXrecord
280
     1
 40
28724.0
  1
\A1;\U+22050.31{ TYP. (4 PL.)}
  0
XRECORD
  5
DEF
102
{ACAD_REACTORS
330
DEE
102
}
330
DEE
100
AcDbXrecord
280
     1
 40
5197890.0
  1
\pxsm0.94;{\fRomanS|b0|i0;\H0.7273;PART#: NP2424CG\P(DATA SUBJECT TO CHANGE \PWITHOUT NOTICE) \P\fRomanS|b0|i0;\H0.4364;THIS DRAWING IS PROPERTY OF HUBBELL INC. \PWIEGMANN\PALL INFORMATION IS PROPRIETARY AND NOT TO \PBE DUPLICATED\P\fRomanS|b0|i0;\H0
  1
.3636; \P }
  0
LAYOUT
  5
6B
102
{ACAD_XDICTIONARY
360
E27
102
}
102
{ACAD_REACTORS
330
62
102
}
330
62
100
AcDbPlotSettings
  1

  2

  4

  6

 40
0.0
 41
0.0
 42
0.0
 43
0.0
 44
0.0
 45
0.0
 46
0.0
 47
0.0
 48
0.0
 49
0.0
140
0.0
141
0.0
142
1.0
143
1.0
 70
   688
 72
     0
 73
     0
 74
     5
  7

 75
    16
147
1.0
148
0.0
149
0.0
100
AcDbLayout
  1
Layout1
 70
     1
 71
     1
 10
0.0
 20
0.0
 11
12.0
 21
9.0
 12
0.0
 22
0.0
 32
0.0
 14
0.0
 24
0.0
 34
0.0
 15
0.0
 25
0.0
 35
0.0
146
0.0
 13
0.0
 23
0.0
 33
0.0
 16
1.0
 26
0.0
 36
0.0
 17
0.0
 27
1.0
 37
0.0
 76
     0
330
68
  0
LAYOUT
  5
73
102
{ACAD_XDICTIONARY
360
E2B
102
}
102
{ACAD_REACTORS
330
62
102
}
330
62
100
AcDbPlotSettings
  1

  2

  4

  6

 40
0.0
 41
0.0
 42
0.0
 43
0.0
 44
0.0
 45
0.0
 46
0.0
 47
0.0
 48
0.0
 49
0.0
140
0.0
141
0.0
142
1.0
143
1.0
 70
   688
 72
     0
 73
     0
 74
     5
  7

 75
    16
147
1.0
148
0.0
149
0.0
100
AcDbLayout
  1
Layout2
 70
     1
 71
     2
 10
0.0
 20
0.0
 11
12.0
 21
9.0
 12
0.0
 22
0.0
 32
0.0
 14
0.0
 24
0.0
 34
0.0
 15
0.0
 25
0.0
 35
0.0
146
0.0
 13
0.0
 23
0.0
 33
0.0
 16
1.0
 26
0.0
 36
0.0
 17
0.0
 27
1.0
 37
0.0
 76
     0
330
70
  0
LAYOUT
  5
6F
102
{ACAD_XDICTIONARY
360
E29
102
}
102
{ACAD_REACTORS
330
62
102
}
330
62
100
AcDbPlotSettings
  1

  2

  4

  6

 40
0.0
 41
0.0
 42
0.0
 43
0.0
 44
0.0
 45
0.0
 46
0.0
 47
0.0
 48
0.0
 49
0.0
140
0.0
141
0.0
142
1.0
143
1.0
 70
  1712
 72
     0
 73
     0
 74
     0
  7

 75
     0
147
1.0
148
0.0
149
0.0
100
AcDbLayout
  1
Model
 70
     1
 71
     0
 10
0.0
 20
0.0
 11
12.0
 21
9.0
 12
0.0
 22
0.0
 32
0.0
 14
0.0
 24
0.0
 34
0.0
 15
0.0
 25
0.0
 35
0.0
146
0.0
 13
0.0
 23
0.0
 33
0.0
 16
1.0
 26
0.0
 36
0.0
 17
0.0
 27
1.0
 37
0.0
 76
     0
330
6C
  0
MATERIAL
  5
19
102
{ACAD_XDICTIONARY
360
1A
102
}
102
{ACAD_REACTORS
330
10
102
}
330
10
100
AcDbMaterial
  1
ByBlock
 72
     0
 43
0.0208333333333333
 43
0.0
 43
0.0
 43
0.0
 43
0.0
 43
0.0208333333333333
 43
0.0
 43
0.0
 43
0.0
 43
0.0
 43
1.0
 43
0.0
 43
0.0
 43
0.0
 43
0.0
 43
1.0
 77
     0
 47
0.0208333333333333
 47
0.0
 47
0.0
 47
0.0
 47
0.0
 47
0.0208333333333333
 47
0.0
 47
0.0
 47
0.0
 47
0.0
 47
1.0
 47
0.0
 47
0.0
 47
0.0
 47
0.0
 47
1.0
171
     0
 49
0.0208333333333333
 49
0.0
 49
0.0
 49
0.0
 49
0.0
 49
0.0208333333333333
 49
0.0
 49
0.0
 49
0.0
 49
0.0
 49
1.0
 49
0.0
 49
0.0
 49
0.0
 49
0.0
 49
1.0
175
     0
142
0.0208333333333333
142
0.0
142
0.0
142
0.0
142
0.0
142
0.0208333333333333
142
0.0
142
0.0
142
0.0
142
0.0
142
1.0
142
0.0
142
0.0
142
0.0
142
0.0
142
1.0
179
     0
144
0.0208333333333333
144
0.0
144
0.0
144
0.0
144
0.0
144
0.0208333333333333
144
0.0
144
0.0
144
0.0
144
0.0
144
1.0
144
0.0
144
0.0
144
0.0
144
0.0
144
1.0
147
0.0208333333333333
147
0.0
147
0.0
147
0.0
147
0.0
147
0.0208333333333333
147
0.0
147
0.0
147
0.0
147
0.0
147
1.0
147
0.0
147
0.0
147
0.0
147
0.0
147
1.0
  0
MATERIAL
  5
11
102
{ACAD_XDICTIONARY
360
12
102
}
102
{ACAD_REACTORS
330
10
102
}
330
10
100
AcDbMaterial
  1
ByLayer
 72
     0
 43
0.0208333333333333
 43
0.0
 43
0.0
 43
0.0
 43
0.0
 43
0.0208333333333333
 43
0.0
 43
0.0
 43
0.0
 43
0.0
 43
1.0
 43
0.0
 43
0.0
 43
0.0
 43
0.0
 43
1.0
 77
     0
 47
0.0208333333333333
 47
0.0
 47
0.0
 47
0.0
 47
0.0
 47
0.0208333333333333
 47
0.0
 47
0.0
 47
0.0
 47
0.0
 47
1.0
 47
0.0
 47
0.0
 47
0.0
 47
0.0
 47
1.0
171
     0
 49
0.0208333333333333
 49
0.0
 49
0.0
 49
0.0
 49
0.0
 49
0.0208333333333333
 49
0.0
 49
0.0
 49
0.0
 49
0.0
 49
1.0
 49
0.0
 49
0.0
 49
0.0
 49
0.0
 49
1.0
175
     0
142
0.0208333333333333
142
0.0
142
0.0
142
0.0
142
0.0
142
0.0208333333333333
142
0.0
142
0.0
142
0.0
142
0.0
142
1.0
142
0.0
142
0.0
142
0.0
142
0.0
142
1.0
179
     0
144
0.0208333333333333
144
0.0
144
0.0
144
0.0
144
0.0
144
0.0208333333333333
144
0.0
144
0.0
144
0.0
144
0.0
144
1.0
144
0.0
144
0.0
144
0.0
144
0.0
144
1.0
147
0.0208333333333333
147
0.0
147
0.0
147
0.0
147
0.0
147
0.0208333333333333
147
0.0
147
0.0
147
0.0
147
0.0
147
1.0
147
0.0
147
0.0
147
0.0
147
0.0
147
1.0
  0
MATERIAL
  5
21
102
{ACAD_XDICTIONARY
360
22
102
}
102
{ACAD_REACTORS
330
10
102
}
330
10
100
AcDbMaterial
  1
Global
 72
     0
 43
0.0208333333333333
 43
0.0
 43
0.0
 43
0.0
 43
0.0
 43
0.0208333333333333
 43
0.0
 43
0.0
 43
0.0
 43
0.0
 43
1.0
 43
0.0
 43
0.0
 43
0.0
 43
0.0
 43
1.0
 77
     0
 47
0.0208333333333333
 47
0.0
 47
0.0
 47
0.0
 47
0.0
 47
0.0208333333333333
 47
0.0
 47
0.0
 47
0.0
 47
0.0
 47
1.0
 47
0.0
 47
0.0
 47
0.0
 47
0.0
 47
1.0
171
     0
 49
0.0208333333333333
 49
0.0
 49
0.0
 49
0.0
 49
0.0
 49
0.0208333333333333
 49
0.0
 49
0.0
 49
0.0
 49
0.0
 49
1.0
 49
0.0
 49
0.0
 49
0.0
 49
0.0
 49
1.0
175
     0
142
0.0208333333333333
142
0.0
142
0.0
142
0.0
142
0.0
142
0.0208333333333333
142
0.0
142
0.0
142
0.0
142
0.0
142
1.0
142
0.0
142
0.0
142
0.0
142
0.0
142
1.0
179
     0
144
0.0208333333333333
144
0.0
144
0.0
144
0.0
144
0.0
144
0.0208333333333333
144
0.0
144
0.0
144
0.0
144
0.0
144
1.0
144
0.0
144
0.0
144
0.0
144
0.0
144
1.0
147
0.0208333333333333
147
0.0
147
0.0
147
0.0
147
0.0
147
0.0208333333333333
147
0.0
147
0.0
147
0.0
147
0.0
147
1.0
147
0.0
147
0.0
147
0.0
147
0.0
147
1.0
  0
MLEADERSTYLE
  5
67
102
{ACAD_XDICTIONARY
360
DEC
102
}
102
{ACAD_REACTORS
330
66
102
}
330
66
100
AcDbMLeaderStyle
170
     2
171
     1
172
     0
 90
        2
 40
0.0
 41
0.0
173
     1
 91
-1056964608
340
5B
 92
       -2
290
     1
 42
0.09
291
     1
 43
0.36
  3
Standard
 44
0.18
300

342
55
174
     1
178
     6
175
     1
176
     0
 93
-1056964608
 45
0.18
292
     0
297
     0
 46
0.18
 94
-1056964608
 47
1.0
 49
1.0
140
1.0
293
     1
141
0.0
294
     1
177
     0
142
1.0
295
     0
296
     0
143
0.125
1001
ACAD_MLEADERVER
1070
     2
  0
MLINESTYLE
  5
60
102
{ACAD_REACTORS
330
5F
102
}
330
5F
100
AcDbMlineStyle
  2
STANDARD
 70
     0
  3

 62
   256
 51
90.0
 52
90.0
 71
     2
 49
0.5
 62
   256
  6
BYLAYER
 49
-0.5
 62
   256
  6
BYLAYER
  0
ACDBPLACEHOLDER
  5
F
102
{ACAD_REACTORS
330
E
102
}
330
E
  0
SCALE
  5
43
102
{ACAD_REACTORS
330
42
102
}
330
42
100
AcDbScale
 70
     0
300
1:1
140
1.0
141
1.0
290
     1
  0
SCALE
  5
44
102
{ACAD_REACTORS
330
42
102
}
330
42
100
AcDbScale
 70
     0
300
1/128" = 1'-0"
140
0.0078125
141
12.0
290
     0
  0
SCALE
  5
45
102
{ACAD_REACTORS
330
42
102
}
330
42
100
AcDbScale
 70
     0
300
1/64" = 1'-0"
140
0.015625
141
12.0
290
     0
  0
SCALE
  5
46
102
{ACAD_REACTORS
330
42
102
}
330
42
100
AcDbScale
 70
     0
300
1/32" = 1'-0"
140
0.03125
141
12.0
290
     0
  0
SCALE
  5
47
102
{ACAD_REACTORS
330
42
102
}
330
42
100
AcDbScale
 70
     0
300
1/16" = 1'-0"
140
0.0625
141
12.0
290
     0
  0
SCALE
  5
48
102
{ACAD_REACTORS
330
42
102
}
330
42
100
AcDbScale
 70
     0
300
3/32" = 1'-0"
140
0.09375
141
12.0
290
     0
  0
SCALE
  5
49
102
{ACAD_REACTORS
330
42
102
}
330
42
100
AcDbScale
 70
     0
300
1/8" = 1'-0"
140
0.125
141
12.0
290
     0
  0
SCALE
  5
4A
102
{ACAD_REACTORS
330
42
102
}
330
42
100
AcDbScale
 70
     0
300
3/16" = 1'-0"
140
0.1875
141
12.0
290
     0
  0
SCALE
  5
4B
102
{ACAD_REACTORS
330
42
102
}
330
42
100
AcDbScale
 70
     0
300
1/4" = 1'-0"
140
0.25
141
12.0
290
     0
  0
SCALE
  5
4C
102
{ACAD_REACTORS
330
42
102
}
330
42
100
AcDbScale
 70
     0
300
3/8" = 1'-0"
140
0.375
141
12.0
290
     0
  0
SCALE
  5
4D
102
{ACAD_REACTORS
330
42
102
}
330
42
100
AcDbScale
 70
     0
300
1/2" = 1'-0"
140
0.5
141
12.0
290
     0
  0
SCALE
  5
4E
102
{ACAD_REACTORS
330
42
102
}
330
42
100
AcDbScale
 70
     0
300
3/4" = 1'-0"
140
0.75
141
12.0
290
     0
  0
SCALE
  5
4F
102
{ACAD_REACTORS
330
42
102
}
330
42
100
AcDbScale
 70
     0
300
1" = 1'-0"
140
1.0
141
12.0
290
     0
  0
SCALE
  5
50
102
{ACAD_REACTORS
330
42
102
}
330
42
100
AcDbScale
 70
     0
300
1-1/2" = 1'-0"
140
1.5
141
12.0
290
     0
  0
SCALE
  5
51
102
{ACAD_REACTORS
330
42
102
}
330
42
100
AcDbScale
 70
     0
300
3" = 1'-0"
140
3.0
141
12.0
290
     0
  0
SCALE
  5
52
102
{ACAD_REACTORS
330
42
102
}
330
42
100
AcDbScale
 70
     0
300
6" = 1'-0"
140
6.0
141
12.0
290
     0
  0
SCALE
  5
53
102
{ACAD_REACTORS
330
42
102
}
330
42
100
AcDbScale
 70
     0
300
1'-0" = 1'-0"
140
12.0
141
12.0
290
     0
  0
TABLESTYLE
  5
65
102
{ACAD_XDICTIONARY
360
DEA
102
}
102
{ACAD_REACTORS
330
64
102
}
330
64
100
AcDbTableStyle
  3
Standard
 70
     0
 71
     0
 40
0.06
 41
0.06
280
     0
281
     0
  7
Standard
140
0.18
170
     2
 62
     0
 63
     7
283
     0
274
    -2
284
     1
 64
     0
275
    -2
285
     1
 65
     0
276
    -2
286
     1
 66
     0
277
    -2
287
     1
 67
     0
278
    -2
288
     1
 68
     0
279
    -2
289
     1
 69
     0
  7
Standard
140
0.25
170
     5
 62
     0
 63
     7
283
     0
274
    -2
284
     1
 64
     0
275
    -2
285
     1
 65
     0
276
    -2
286
     1
 66
     0
277
    -2
287
     1
 67
     0
278
    -2
288
     1
 68
     0
279
    -2
289
     1
 69
     0
  7
Standard
140
0.18
170
     5
 62
     0
 63
     7
283
     0
274
    -2
284
     1
 64
     0
275
    -2
285
     1
 65
     0
276
    -2
286
     1
 66
     0
277
    -2
287
     1
 67
     0
278
    -2
288
     1
 68
     0
279
    -2
289
     1
 69
     0
  0
VISUALSTYLE
  5
2F
102
{ACAD_XDICTIONARY
360
DFF
102
}
102
{ACAD_REACTORS
330
29
102
}
330
29
100
AcDbVisualStyle
  2
2dWireframe
 70
     4
 71
     0
 72
     2
 73
     0
 90
        0
 40
-0.6
 41
-30.0
 62
     5
 63
     7
 74
     1
 91
        4
 64
     7
 65
   257
 75
     1
175
     1
 42
1.0
 92
        0
 66
   257
 43
1.0
 76
     1
 77
     6
 78
     2
 67
     7
 79
     5
170
     0
171
     0
290
     0
174
     0
 93
        1
 44
0.0
173
     0
291
     0
 45
0.0
1001
ACAD
1000
AcDbSavedByObjectVersion
1070
     0
  0
VISUALSTYLE
  5
2E
102
{ACAD_XDICTIONARY
360
DFD
102
}
102
{ACAD_REACTORS
330
29
102
}
330
29
100
AcDbVisualStyle
  2
Basic
 70
     7
 71
     1
 72
     0
 73
     1
 90
        0
 40
-0.6
 41
-30.0
 62
     5
 63
     7
 74
     0
 91
        4
 64
     7
 65
   257
 75
     1
175
     1
 42
1.0
 92
        8
 66
     7
 43
1.0
 76
     1
 77
     6
 78
     2
 67
     7
 79
     5
170
     0
171
     0
290
     0
174
     0
 93
        1
 44
0.0
173
     0
291
     1
 45
0.0
1001
ACAD
1000
AcDbSavedByObjectVersion
1070
     0
  0
VISUALSTYLE
  5
35
102
{ACAD_XDICTIONARY
360
E0B
102
}
102
{ACAD_REACTORS
330
29
102
}
330
29
100
AcDbVisualStyle
  2
Brighten
 70
    12
 71
     2
 72
     2
 73
     0
 90
        0
 40
-0.6
 41
-30.0
 62
     5
 63
     7
 74
     1
 91
        4
 64
     7
 65
   257
 75
     1
175
     1
 42
1.0
 92
        8
 66
     7
 43
1.0
 76
     1
 77
     6
 78
     2
 67
     7
 79
     5
170
     0
171
     0
290
     0
174
     0
 93
        1
 44
50.0
173
     0
291
     1
 45
0.0
1001
ACAD
1000
AcDbSavedByObjectVersion
1070
     0
  0
VISUALSTYLE
  5
39
102
{ACAD_XDICTIONARY
360
E13
102
}
102
{ACAD_REACTORS
330
29
102
}
330
29
100
AcDbVisualStyle
  2
ColorChange
 70
    16
 71
     2
 72
     2
 73
     3
 90
        0
 40
-0.6
 41
-30.0
 62
     5
 63
     8
 74
     1
 91
        4
 64
     7
 65
   257
 75
     1
175
     1
 42
1.0
 92
        8
 66
     8
 43
1.0
 76
     1
 77
     6
 78
     2
 67
     7
 79
     5
170
     0
171
     0
290
     0
174
     0
 93
        1
 44
0.0
173
     0
291
     1
 45
0.0
1001
ACAD
1000
AcDbSavedByObjectVersion
1070
     0
  0
VISUALSTYLE
  5
32
102
{ACAD_XDICTIONARY
360
E05
102
}
102
{ACAD_REACTORS
330
29
102
}
330
29
100
AcDbVisualStyle
  2
Conceptual
 70
     9
 71
     3
 72
     2
 73
     0
 90
        0
 40
-0.6
 41
-30.0
 62
     5
 63
     7
 74
     2
 91
        2
 64
     7
 65
   257
 75
     1
175
     1
 42
179.0
 92
        8
 66
     7
 43
1.0
 76
     1
 77
     6
 78
     2
 67
     7
 79
     3
170
     0
171
     0
290
     0
174
     0
 93
        1
 44
0.0
173
     0
291
     0
 45
0.0
1001
ACAD
1000
AcDbSavedByObjectVersion
1070
     0
  0
VISUALSTYLE
  5
34
102
{ACAD_XDICTIONARY
360
E09
102
}
102
{ACAD_REACTORS
330
29
102
}
330
29
100
AcDbVisualStyle
  2
Dim
 70
    11
 71
     2
 72
     2
 73
     0
 90
        0
 40
-0.6
 41
-30.0
 62
     5
 63
     7
 74
     1
 91
        4
 64
     7
 65
   257
 75
     1
175
     1
 42
1.0
 92
        8
 66
     7
 43
1.0
 76
     1
 77
     6
 78
     2
 67
     7
 79
     5
170
     0
171
     0
290
     0
174
     0
 93
        1
 44
-50.0
173
     0
291
     1
 45
0.0
1001
ACAD
1000
AcDbSavedByObjectVersion
1070
     0
  0
VISUALSTYLE
  5
41
102
{ACAD_XDICTIONARY
360
E23
102
}
102
{ACAD_REACTORS
330
29
102
}
330
29
100
AcDbVisualStyle
  2
EdgeColorOff
 70
    22
 71
     2
 72
     2
 73
     0
 90
        0
 40
-0.6
 41
-30.0
 62
     5
 63
     7
 74
     1
 91
        4
 64
     7
 65
   257
 75
     1
175
     1
 42
1.0
 92
        8
 66
     7
 43
1.0
 76
     1
 77
     6
 78
     2
 67
     7
 79
     5
170
     0
171
     0
290
     0
174
     0
 93
        1
 44
0.0
173
     0
291
     1
 45
0.0
1001
ACAD
1000
AcDbSavedByObjectVersion
1070
     0
  0
VISUALSTYLE
  5
38
102
{ACAD_XDICTIONARY
360
E11
102
}
102
{ACAD_REACTORS
330
29
102
}
330
29
100
AcDbVisualStyle
  2
Facepattern
 70
    15
 71
     2
 72
     2
 73
     0
 90
        0
 40
-0.6
 41
-30.0
 62
     5
 63
     7
 74
     1
 91
        4
 64
     7
 65
   257
 75
     1
175
     1
 42
1.0
 92
        8
 66
     7
 43
1.0
 76
     1
 77
     6
 78
     2
 67
     7
 79
     5
170
     0
171
     0
290
     0
174
     0
 93
        1
 44
0.0
173
     0
291
     1
 45
0.0
1001
ACAD
1000
AcDbSavedByObjectVersion
1070
     0
  0
VISUALSTYLE
  5
2A
102
{ACAD_XDICTIONARY
360
DF5
102
}
102
{ACAD_REACTORS
330
29
102
}
330
29
100
AcDbVisualStyle
  2
Flat
 70
     0
 71
     2
 72
     1
 73
     1
 90
        2
 40
-0.6
 41
30.0
 62
     5
 63
     7
 74
     0
 91
        0
 64
     7
 65
   257
 75
     1
175
     1
 42
1.0
 92
        8
 66
     7
 43
1.0
 76
     1
 77
     6
 78
     2
 67
     7
 79
     5
170
     0
171
     0
290
     0
174
     0
 93
       13
 44
0.0
173
     0
291
     1
 45
0.0
1001
ACAD
1000
AcDbSavedByObjectVersion
1070
     0
  0
VISUALSTYLE
  5
2B
102
{ACAD_XDICTIONARY
360
DF7
102
}
102
{ACAD_REACTORS
330
29
102
}
330
29
100
AcDbVisualStyle
  2
FlatWithEdges
 70
     1
 71
     2
 72
     1
 73
     1
 90
        2
 40
-0.6
 41
30.0
 62
     5
 63
     7
 74
     1
 91
        0
 64
     7
 65
   257
 75
     1
175
     1
 42
1.0
 92
        0
 66
   257
 43
1.0
 76
     1
 77
     6
 78
     2
 67
     7
 79
     5
170
     0
171
     0
290
     0
174
     0
 93
       13
 44
0.0
173
     0
291
     1
 45
0.0
1001
ACAD
1000
AcDbSavedByObjectVersion
1070
     0
  0
VISUALSTYLE
  5
2C
102
{ACAD_XDICTIONARY
360
DF9
102
}
102
{ACAD_REACTORS
330
29
102
}
330
29
100
AcDbVisualStyle
  2
Gouraud
 70
     2
 71
     2
 72
     2
 73
     1
 90
        2
 40
-0.6
 41
30.0
 62
     5
 63
     7
 74
     0
 91
        0
 64
     7
 65
   257
 75
     1
175
     1
 42
1.0
 92
        0
 66
     7
 43
1.0
 76
     1
 77
     6
 78
     2
 67
     7
 79
     5
170
     0
171
     0
290
     0
174
     0
 93
       13
 44
0.0
173
     0
291
     1
 45
0.0
1001
ACAD
1000
AcDbSavedByObjectVersion
1070
     0
  0
VISUALSTYLE
  5
2D
102
{ACAD_XDICTIONARY
360
DFB
102
}
102
{ACAD_REACTORS
330
29
102
}
330
29
100
AcDbVisualStyle
  2
GouraudWithEdges
 70
     3
 71
     2
 72
     2
 73
     1
 90
        2
 40
-0.6
 41
30.0
 62
     5
 63
     7
 74
     1
 91
        0
 64
     7
 65
   257
 75
     1
175
     1
 42
1.0
 92
        0
 66
   257
 43
1.0
 76
     1
 77
     6
 78
     2
 67
     7
 79
     5
170
     0
171
     0
290
     0
174
     0
 93
       13
 44
0.0
173
     0
291
     1
 45
0.0
1001
ACAD
1000
AcDbSavedByObjectVersion
1070
     0
  0
VISUALSTYLE
  5
31
102
{ACAD_XDICTIONARY
360
E03
102
}
102
{ACAD_REACTORS
330
29
102
}
330
29
100
AcDbVisualStyle
  2
Hidden
 70
     6
 71
     1
 72
     2
 73
     2
 90
        0
 40
-0.6
 41
-30.0
 62
     5
 63
     7
 74
     2
 91
        2
 64
     7
 65
   257
 75
     2
175
     1
 42
40.0
 92
        0
 66
   257
 43
1.0
 76
     1
 77
     6
 78
     2
 67
     7
 79
     3
170
     0
171
     0
290
     0
174
     0
 93
        1
 44
0.0
173
     0
291
     0
 45
0.0
1001
ACAD
1000
AcDbSavedByObjectVersion
1070
     0
  0
VISUALSTYLE
  5
3F
102
{ACAD_XDICTIONARY
360
E1F
102
}
102
{ACAD_REACTORS
330
29
102
}
330
29
100
AcDbVisualStyle
  2
JitterOff
 70
    20
 71
     2
 72
     2
 73
     0
 90
        0
 40
-0.6
 41
-30.0
 62
     5
 63
     7
 74
     1
 91
        4
 64
     7
 65
   257
 75
     1
175
     1
 42
1.0
 92
       10
 66
     7
 43
1.0
 76
     1
 77
     6
 78
     2
 67
     7
 79
     5
170
     0
171
     0
290
     0
174
     0
 93
        1
 44
0.0
173
     0
291
     1
 45
0.0
1001
ACAD
1000
AcDbSavedByObjectVersion
1070
     0
  0
VISUALSTYLE
  5
37
102
{ACAD_XDICTIONARY
360
E0F
102
}
102
{ACAD_REACTORS
330
29
102
}
330
29
100
AcDbVisualStyle
  2
Linepattern
 70
    14
 71
     2
 72
     2
 73
     0
 90
        0
 40
-0.6
 41
-30.0
 62
     5
 63
     7
 74
     1
 91
        4
 64
     7
 65
   257
 75
     7
175
     7
 42
1.0
 92
        8
 66
     7
 43
1.0
 76
     1
 77
     6
 78
     2
 67
     7
 79
     5
170
     0
171
     0
290
     0
174
     0
 93
        1
 44
0.0
173
     0
291
     1
 45
0.0
1001
ACAD
1000
AcDbSavedByObjectVersion
1070
     0
  0
VISUALSTYLE
  5
40
102
{ACAD_XDICTIONARY
360
E21
102
}
102
{ACAD_REACTORS
330
29
102
}
330
29
100
AcDbVisualStyle
  2
OverhangOff
 70
    21
 71
     2
 72
     2
 73
     0
 90
        0
 40
-0.6
 41
-30.0
 62
     5
 63
     7
 74
     1
 91
        4
 64
     7
 65
   257
 75
     1
175
     1
 42
1.0
 92
        9
 66
     7
 43
1.0
 76
     1
 77
     6
 78
     2
 67
     7
 79
     5
170
     0
171
     0
290
     0
174
     0
 93
        1
 44
0.0
173
     0
291
     1
 45
0.0
1001
ACAD
1000
AcDbSavedByObjectVersion
1070
     0
  0
VISUALSTYLE
  5
33
102
{ACAD_XDICTIONARY
360
E07
102
}
102
{ACAD_REACTORS
330
29
102
}
330
29
100
AcDbVisualStyle
  2
Realistic
 70
     8
 71
     2
 72
     3
 73
     0
 90
        2
 40
-0.6
 41
30.0
 62
     5
 63
     7
 74
     0
 91
        0
 64
     7
 65
   257
 75
     1
175
     1
 42
1.0
 92
        8
 66
   257
 43
1.0
 76
     1
 77
     6
 78
     2
 67
     7
 79
     3
170
     0
171
     0
290
     0
174
     0
 93
       13
 44
0.0
173
     0
291
     0
 45
0.0
1001
ACAD
1000
AcDbSavedByObjectVersion
1070
     0
  0
VISUALSTYLE
  5
3E
102
{ACAD_XDICTIONARY
360
E1D
102
}
102
{ACAD_REACTORS
330
29
102
}
330
29
100
AcDbVisualStyle
  2
Shaded
 70
    27
 71
     2
 72
     2
 73
     1
 90
        2
 40
-0.6
 41
30.0
 62
     5
 63
     7
 74
     0
 91
        4
 64
     7
 65
   257
 75
     1
175
     1
 42
1.0
 92
        8
 66
   257
 43
1.0
 76
     1
 77
     6
 78
     2
 67
     8
 79
     3
170
     0
171
     0
290
     0
174
     0
 93
        5
 44
0.0
173
     0
291
     0
 45
0.0
1001
ACAD
1000
AcDbSavedByObjectVersion
1070
     0
  0
VISUALSTYLE
  5
3D
102
{ACAD_XDICTIONARY
360
E1B
102
}
102
{ACAD_REACTORS
330
29
102
}
330
29
100
AcDbVisualStyle
  2
Shaded with edges
 70
    26
 71
     2
 72
     2
 73
     1
 90
        2
 40
-0.6
 41
30.0
 62
     5
 63
     7
 74
     1
 91
       10
 64
     7
 65
   257
 75
     2
175
     1
 42
1.0
 92
        8
 66
   257
 43
1.0
 76
     1
 77
     6
 78
     2
 67
     7
 79
     3
170
     0
171
     0
290
     0
174
     0
 93
        5
 44
0.0
173
     0
291
     0
 45
0.0
1001
ACAD
1000
AcDbSavedByObjectVersion
1070
     0
  0
VISUALSTYLE
  5
3A
102
{ACAD_XDICTIONARY
360
E15
102
}
102
{ACAD_REACTORS
330
29
102
}
330
29
100
AcDbVisualStyle
  2
Shades of Gray
 70
    23
 71
     2
 72
     2
 73
     3
 90
        0
 40
-0.6
 41
-30.0
 62
     5
 63
     7
 74
     2
 91
        2
 64
     7
 65
     7
 75
     1
175
     1
 42
40.0
 92
        8
 66
     7
 43
1.0
 76
     1
 77
     6
 78
     2
 67
     7
 79
     3
170
     0
171
     0
290
     0
174
     0
 93
        1
 44
0.0
173
     0
291
     0
 45
0.0
1001
ACAD
1000
AcDbSavedByObjectVersion
1070
     0
  0
VISUALSTYLE
  5
3B
102
{ACAD_XDICTIONARY
360
E17
102
}
102
{ACAD_REACTORS
330
29
102
}
330
29
100
AcDbVisualStyle
  2
Sketchy
 70
    24
 71
     1
 72
     2
 73
     2
 90
        0
 40
-0.6
 41
-30.0
 62
     5
 63
     7
 74
     2
 91
        2
 64
     7
 65
     7
 75
     1
175
     1
 42
40.0
 92
       11
 66
     7
 43
1.0
 76
     1
 77
     6
 78
     2
 67
     7
 79
     6
170
     0
171
     0
290
     0
174
     0
 93
        1
 44
0.0
173
     0
291
     0
 45
0.0
1001
ACAD
1000
AcDbSavedByObjectVersion
1070
     0
  0
VISUALSTYLE
  5
36
102
{ACAD_XDICTIONARY
360
E0D
102
}
102
{ACAD_REACTORS
330
29
102
}
330
29
100
AcDbVisualStyle
  2
Thicken
 70
    13
 71
     2
 72
     2
 73
     0
 90
        0
 40
-0.6
 41
-30.0
 62
     5
 63
     7
 74
     1
 91
        4
 64
     7
 65
   257
 75
     1
175
     1
 42
1.0
 92
       12
 66
     7
 43
1.0
 76
     1
 77
     6
 78
     2
 67
     7
 79
     5
170
     0
171
     0
290
     0
174
     0
 93
        1
 44
0.0
173
     0
291
     1
 45
0.0
1001
ACAD
1000
AcDbSavedByObjectVersion
1070
     0
  0
VISUALSTYLE
  5
30
102
{ACAD_XDICTIONARY
360
E01
102
}
102
{ACAD_REACTORS
330
29
102
}
330
29
100
AcDbVisualStyle
  2
Wireframe
 70
     5
 71
     0
 72
     2
 73
     0
 90
        0
 40
-0.6
 41
-30.0
 62
     5
 63
     7
 74
     1
 91
        4
 64
     7
 65
   257
 75
     1
175
     1
 42
1.0
 92
        0
 66
   257
 43
1.0
 76
     1
 77
     6
 78
     2
 67
     7
 79
     3
170
     0
171
     0
290
     0
174
     0
 93
        1
 44
0.0
173
     0
291
     0
 45
0.0
1001
ACAD
1000
AcDbSavedByObjectVersion
1070
     0
  0
VISUALSTYLE
  5
3C
102
{ACAD_XDICTIONARY
360
E19
102
}
102
{ACAD_REACTORS
330
29
102
}
330
29
100
AcDbVisualStyle
  2
X-Ray
 70
    25
 71
     2
 72
     2
 73
     1
 90
        1
 40
0.5
 41
-30.0
 62
     5
 63
     7
 74
     1
 91
        0
 64
     7
 65
   257
 75
     1
175
     1
 42
1.0
 92
        8
 66
     7
 43
1.0
 76
     1
 77
     6
 78
     2
 67
     7
 79
     3
170
     0
171
     0
290
     0
174
     0
 93
       13
 44
0.0
173
     0
291
     0
 45
0.0
1001
ACAD
1000
AcDbSavedByObjectVersion
1070
     0
  0
DICTIONARYVAR
  5
79
102
{ACAD_REACTORS
330
76
102
}
330
76
100
DictionaryVariables
280
     0
  1
1:1
  0
DICTIONARYVAR
  5
78
102
{ACAD_REACTORS
330
76
102
}
330
76
100
DictionaryVariables
280
     0
  1
STANDARD
  0
DICTIONARYVAR
  5
77
102
{ACAD_REACTORS
330
76
102
}
330
76
100
DictionaryVariables
280
     0
  1
STANDARD
  0
DICTIONARYVAR
  5
DE8
102
{ACAD_REACTORS
330
76
102
}
330
76
100
DictionaryVariables
280
     0
  1
1
  0
DICTIONARYVAR
  5
DE7
102
{ACAD_REACTORS
330
76
102
}
330
76
100
DictionaryVariables
280
     0
  1
1
  0
DICTIONARYVAR
  5
DE6
102
{ACAD_REACTORS
330
76
102
}
330
76
100
DictionaryVariables
280
     0
  1
0
  0
DICTIONARYVAR
  5
DE3
102
{ACAD_REACTORS
330
76
102
}
330
76
100
DictionaryVariables
280
     0
  1
0
  0
DICTIONARYVAR
  5
DE4
102
{ACAD_REACTORS
330
76
102
}
330
76
100
DictionaryVariables
280
     0
  1
0
  0
DICTIONARYVAR
  5
DE2
102
{ACAD_REACTORS
330
76
102
}
330
76
100
DictionaryVariables
280
     0
  1
2
  0
DICTIONARYVAR
  5
DE1
102
{ACAD_REACTORS
330
76
102
}
330
76
100
DictionaryVariables
280
     0
  1
1
  0
DICTIONARYVAR
  5
DE5
102
{ACAD_REACTORS
330
76
102
}
330
76
100
DictionaryVariables
280
     0
  1
127
  0
DICTIONARYVAR
  5
DE9
102
{ACAD_REACTORS
330
76
102
}
330
76
100
DictionaryVariables
280
     0
  1
2
  0
DICTIONARY
  5
E27
330
6B
100
AcDbDictionary
280
     1
281
     1
  3
ACAD_XREC_ROUNDTRIP
360
E28
  0
DICTIONARY
  5
E2B
330
73
100
AcDbDictionary
280
     1
281
     1
  3
ACAD_XREC_ROUNDTRIP
360
E2C
  0
DICTIONARY
  5
E29
330
6F
100
AcDbDictionary
280
     1
281
     1
  3
ACAD_XREC_ROUNDTRIP
360
E2A
  0
DICTIONARY
  5
1A
330
19
100
AcDbDictionary
280
     1
281
     1
  3
ACAD_XREC_ROUNDTRIP
360
DF3
  3
BUMPTILE
360
1C
  3
DIFFUSETILE
360
1B
  3
OPACITYTILE
360
1F
  3
REFLECTIONTILE
360
1E
  3
REFRACTIONTILE
360
20
  3
SPECULARTILE
360
1D
  0
DICTIONARY
  5
12
330
11
100
AcDbDictionary
280
     1
281
     1
  3
ACAD_XREC_ROUNDTRIP
360
DF2
  3
BUMPTILE
360
14
  3
DIFFUSETILE
360
13
  3
FBXASSET
360
F5
  3
OPACITYTILE
360
17
  3
REFLECTIONTILE
360
16
  3
REFRACTIONTILE
360
18
  3
SPECULARTILE
360
15
  0
DICTIONARY
  5
22
330
21
100
AcDbDictionary
280
     1
281
     1
  3
ACAD_XREC_ROUNDTRIP
360
DF4
  3
BUMPTILE
360
24
  3
DIFFUSETILE
360
23
  3
FBXASSET
360
BA
  3
OPACITYTILE
360
27
  3
REFLECTIONTILE
360
26
  3
REFRACTIONTILE
360
28
  3
SPECULARTILE
360
25
  0
DICTIONARY
  5
DEC
330
67
100
AcDbDictionary
280
     1
281
     1
  3
ACAD_XREC_ROUNDTRIP
360
DED
  0
DICTIONARY
  5
DEA
330
65
100
AcDbDictionary
280
     1
281
     1
  3
ACAD_ROUNDTRIP_2008_TABLESTYLE_CELLSTYLEMAP
360
DEB
  3
ACAD_XREC_ROUNDTRIP
360
E25
  0
DICTIONARY
  5
DFF
330
2F
100
AcDbDictionary
280
     1
281
     1
  3
ACAD_XREC_ROUNDTRIP
360
E00
  0
DICTIONARY
  5
DFD
330
2E
100
AcDbDictionary
280
     1
281
     1
  3
ACAD_XREC_ROUNDTRIP
360
DFE
  0
DICTIONARY
  5
E0B
330
35
100
AcDbDictionary
280
     1
281
     1
  3
ACAD_XREC_ROUNDTRIP
360
E0C
  0
DICTIONARY
  5
E13
330
39
100
AcDbDictionary
280
     1
281
     1
  3
ACAD_XREC_ROUNDTRIP
360
E14
  0
DICTIONARY
  5
E05
330
32
100
AcDbDictionary
280
     1
281
     1
  3
ACAD_XREC_ROUNDTRIP
360
E06
  0
DICTIONARY
  5
E09
330
34
100
AcDbDictionary
280
     1
281
     1
  3
ACAD_XREC_ROUNDTRIP
360
E0A
  0
DICTIONARY
  5
E23
330
41
100
AcDbDictionary
280
     1
281
     1
  3
ACAD_XREC_ROUNDTRIP
360
E24
  0
DICTIONARY
  5
E11
330
38
100
AcDbDictionary
280
     1
281
     1
  3
ACAD_XREC_ROUNDTRIP
360
E12
  0
DICTIONARY
  5
DF5
330
2A
100
AcDbDictionary
280
     1
281
     1
  3
ACAD_XREC_ROUNDTRIP
360
DF6
  0
DICTIONARY
  5
DF7
330
2B
100
AcDbDictionary
280
     1
281
     1
  3
ACAD_XREC_ROUNDTRIP
360
DF8
  0
DICTIONARY
  5
DF9
330
2C
100
AcDbDictionary
280
     1
281
     1
  3
ACAD_XREC_ROUNDTRIP
360
DFA
  0
DICTIONARY
  5
DFB
330
2D
100
AcDbDictionary
280
     1
281
     1
  3
ACAD_XREC_ROUNDTRIP
360
DFC
  0
DICTIONARY
  5
E03
330
31
100
AcDbDictionary
280
     1
281
     1
  3
ACAD_XREC_ROUNDTRIP
360
E04
  0
DICTIONARY
  5
E1F
330
3F
100
AcDbDictionary
280
     1
281
     1
  3
ACAD_XREC_ROUNDTRIP
360
E20
  0
DICTIONARY
  5
E0F
330
37
100
AcDbDictionary
280
     1
281
     1
  3
ACAD_XREC_ROUNDTRIP
360
E10
  0
DICTIONARY
  5
E21
330
40
100
AcDbDictionary
280
     1
281
     1
  3
ACAD_XREC_ROUNDTRIP
360
E22
  0
DICTIONARY
  5
E07
330
33
100
AcDbDictionary
280
     1
281
     1
  3
ACAD_XREC_ROUNDTRIP
360
E08
  0
DICTIONARY
  5
E1D
330
3E
100
AcDbDictionary
280
     1
281
     1
  3
ACAD_XREC_ROUNDTRIP
360
E1E
  0
DICTIONARY
  5
E1B
330
3D
100
AcDbDictionary
280
     1
281
     1
  3
ACAD_XREC_ROUNDTRIP
360
E1C
  0
DICTIONARY
  5
E15
330
3A
100
AcDbDictionary
280
     1
281
     1
  3
ACAD_XREC_ROUNDTRIP
360
E16
  0
DICTIONARY
  5
E17
330
3B
100
AcDbDictionary
280
     1
281
     1
  3
ACAD_XREC_ROUNDTRIP
360
E18
  0
DICTIONARY
  5
E0D
330
36
100
AcDbDictionary
280
     1
281
     1
  3
ACAD_XREC_ROUNDTRIP
360
E0E
  0
DICTIONARY
  5
E01
330
30
100
AcDbDictionary
280
     1
281
     1
  3
ACAD_XREC_ROUNDTRIP
360
E02
  0
DICTIONARY
  5
E19
330
3C
100
AcDbDictionary
280
     1
281
     1
  3
ACAD_XREC_ROUNDTRIP
360
E1A
  0
XRECORD
  5
E28
102
{ACAD_REACTORS
330
E27
102
}
330
E27
100
AcDbXrecord
280
     1
102
SHADEPLOT
 70
     0
102
SHADEPLOTRESLEVEL
 70
     2
102
SHADEPLOTCUSTOMDPI
 70
   300
  0
XRECORD
  5
E2C
102
{ACAD_REACTORS
330
E2B
102
}
330
E2B
100
AcDbXrecord
280
     1
102
SHADEPLOT
 70
     0
102
SHADEPLOTRESLEVEL
 70
     2
102
SHADEPLOTCUSTOMDPI
 70
   300
  0
XRECORD
  5
E2A
102
{ACAD_REACTORS
330
E29
102
}
330
E29
100
AcDbXrecord
280
     1
102
SHADEPLOT
 70
     0
102
SHADEPLOTRESLEVEL
 70
     2
102
SHADEPLOTCUSTOMDPI
 70
   300
  0
XRECORD
  5
DF3
102
{ACAD_REACTORS
330
1A
102
}
330
1A
100
AcDbXrecord
280
     1
102
MATERIAL
148
0.0
149
0.0
149
0.0
 93
        0
 94
      127
282
     0
 72
     0
 77
     0
171
     0
175
     0
179
     0
273
     0
  0
XRECORD
  5
1C
102
{ACAD_REACTORS
330
1A
102
}
330
1A
100
AcDbXrecord
280
     1
270
     1
271
     1
  0
XRECORD
  5
1B
102
{ACAD_REACTORS
330
1A
102
}
330
1A
100
AcDbXrecord
280
     1
270
     1
271
     1
  0
XRECORD
  5
1F
102
{ACAD_REACTORS
330
1A
102
}
330
1A
100
AcDbXrecord
280
     1
270
     1
271
     1
  0
XRECORD
  5
1E
102
{ACAD_REACTORS
330
1A
102
}
330
1A
100
AcDbXrecord
280
     1
270
     1
271
     1
  0
XRECORD
  5
20
102
{ACAD_REACTORS
330
1A
102
}
330
1A
100
AcDbXrecord
280
     1
270
     1
271
     1
  0
XRECORD
  5
1D
102
{ACAD_REACTORS
330
1A
102
}
330
1A
100
AcDbXrecord
280
     1
270
     1
271
     1
  0
XRECORD
  5
DF2
102
{ACAD_REACTORS
330
12
102
}
330
12
100
AcDbXrecord
280
     1
102
MATERIAL
148
0.0
149
0.0
149
0.0
 93
        0
 94
      127
282
     0
 72
     0
 77
     0
171
     0
175
     0
179
     0
273
     0
  0
XRECORD
  5
14
102
{ACAD_REACTORS
330
12
102
}
330
12
100
AcDbXrecord
280
     1
270
     1
271
     1
  0
XRECORD
  5
13
102
{ACAD_REACTORS
330
12
102
}
330
12
100
AcDbXrecord
280
     1
270
     1
271
     1
  0
XRECORD
  5
F5
102
{ACAD_REACTORS
330
12
102
}
330
12
100
AcDbXrecord
280
     1
 70
     1
 90
1959938040
 71
     1
  1
879D7F38-5B70-423B-ACD0-0D8B3277D031
311
504B03040A0000080000214033403DEE336E79000000790000001B0000006175746F6465736B2D64657369676E2D7061636B6167652E786D6C3C3F786D6C2076657273696F6E3D22312E302220656E636F64696E673D227574662D3822203F3E3C666F726D6174733E3C666F726D61743E687474703A2F2F736368656D612E
311
6175746F6465736B2E636F6D2F64657369676E2D7061636B6167652F323030393C2F666F726D61743E3C2F666F726D6174733E504B030414000608080021403340D486FD9CA0000000F4000000130000005B436F6E74656E745F54797065735D2E786D6C7D8EC10E82300C865F65E91D8A1E8C310C0EEA1BF002731658846E
311
D98AC1B77784ABF1D8FE5FBFBF75BBCE937A534CCEB38643598122B6FEE978D0B0485F9C41B54DDD7D022595594E1A469170414C76A4D9A4D207E29CF43ECE46F218070CC6BECC4078ACAA135ACF422C856C0E68EA1BF5669944DDD7BCDE7B1F8E415D77AECB980613C2E4AC91FC167A2B244592486606FC29C8FD7F045B9A
311
EF7053A7E60B504B030414000608080021403340B23C1C80EA0000007C01000008000000636F72652E786D6C8D904D6EC3201085AF82668F0DFE0BB1305115C727E80510260E4A0C9681AAC72F4E1CA9DD7535A337EF9B193D7EFA9E1FE84BAFDE38DB01CD08206D951B8D9D3A88E18A19A093E0AB73E1970D9095B3EE6093
311
41F0697571D925E56CD03624D5BA51EFA2F45E0740EA919A0EBCBAE959663286E4F0F76C91EA2E279DD17797E018CD885E47CC98F699ABD12B8881357D3F5C18AE0F4786ABFE5C6346871AD3F24C0F1F156D2E55C5F30D163C98F97D5FAD5A063D8228082D30A1981E3F096B096D498949D312C2F3CDFE078ACBF84F281A1B
311
CA627FF7857910343DF21C089E6F59A4F20C2AD52D37F103504B03041400060808002140334055019EA25F0000007C00000007000000636E782E786D6C4DCB3B0E80201045D1AD90E915ED2CF8AC45050C11660C8261F98AB1B07AC9C97D42D718D865D3E909258CFD00CCE24AC6E326A164D74DC0B4128928FF326038472B
311
A13128B1252AC747C6BAB984FC68F0B87FE8960A5C09FE86CFB69FBA01504B0304140006080800214033401AB1964C66010000020300000C0000006662782F636F72652E786D6C8D52ED8E8230107C95A6FF4B5B4445536A2E7E3CC1BD4085CA11A125A5253EFE2D1FC6F3628C2129CDCCCEEEEC80D8DD9A1AF5DA75953519
311
E611C3489BDC169529331CFC85A418EDA470D6FA3F651819D5E80C0F3096A27436B433945BE3B5F1801A5BE819545DA73D46790D970C77F98F6E54A482878AEE1AB52ABFAA52473C021AEAA4E8BC0303681A329C585ECE3741275C8A10AA6266AB02A655974A3B2C4FE9EA70381D53B25C6F52921CF64B92F2D392F0C59EAF
311
BF12BE3A2689A083580A5F357777B9D3CAEB02CB98F198304EF8E69BA55BC6B76C41D86ACB98A043F99328B4C587A25019BF8867BB93ACC392839191F8B72D44E451A77AF043A5A04388F01A137E0E1A028190BD3AD7F73DAE00F53AF7D625C014363CA85ED541C35486C647D08985CE6303D8EC659FF84D9FF73DE0032A53
311
8235E5E17A0E7E982EA6A97314AD76A4F73764AC6B54FD3037597C9C8F412FE5B9ADADFB444DE755E91C261DFE5EF90B504B030414000608080021403340935806C07D0000009D0000000B0000006662782F636E782E786D6C4DCCD10A83201886E15B91FFDC65E5A6811A84761FB12C64A6C3E9D8E5AF46073BFAE0E1E315
311
FD67F3E86DD3CBC520A1BE104036DCE3ECC22AA1E4057340BD1229C6FC770314A6CD4A38189458532CCF9366BB4CC5E75DBD0B8F133537E4C6BB165F69C730A59DC6BC3123AEC96046DDF28151069512D5AFB4EF11565F504B030414000608080021403340C24BB2302B01000014020000310000006662782F443845303638
311
39332D353439372D343439442D383245462D3130424546443338423734372F636F72652E786D6C8D51CB6EC23010FC95C8277A70B2CE0B07394642C017F4078C63A805B1233F2A3EBF4E13A4F6C6C56BCDCECC8E76D9FE393EB26FE5BCB6A6472407942923EDA0CDAD47315C3145D99E33676DF843439911A3EAD10C23CE6E
311
CEC66985A435419990506307B582C27B1550261FE9D3232FBFD42872114362F87B3E0979173795933CB5138F331F5C0A902D43E617F1233D414BBB0A3775B7C575DD1D312D4F674CE0703A1F2B7AD8D65B562C42CE62D4C32AD7438AA3AF5AB9774D663167418FAFF8D22911D4807809A4C44030E93E81EE80ECA0C2D0EE00
311
5831D3FF89E234BC298ADA84AA5CE32E328F3861C5D2E06CB0F1F2788551CFC9BA90CDF3365EC90FC42187129A0680B262A1A60524CFB65E3D7DB02E2D7873BF24366916E3B6E6AC986F94CAEF01539DEFC97F00504B030414000608080021403340A297028C4D01000033030000300000006662782F44384530363839332D
311
353439372D343439442D383245462D3130424546443338423734372F636E782E786D6CD593CD6EC23010845FC5F23D89030851E418A9873E410FBD3AF6022E8E1DF9A72A6FDF3518CA85438FBD58D1EC7866F5C9E1BBEFC9922F08D17837D0BE659480535E1B7718684EFB6643C94EF0E07D7AB051E2E404032D3215FC107C
311
9EABA4612FB34DA85AE34E550C107D0E0A22CAE526B15E498B01E09A8C224C23680D9ADC8DF8B58780ABA0389E493A02797BFD207EFC049522EF4A8AE05DE910BC9CB5E9C14489B232C68146758449B63227AF219E5A2D936CFBF6D6F564A7DF24522EDC2A7330A4940FB49C54D48D5AE4C83B1C0A1E53407AD594CE335021
311
E7D91A251342EE2EC6AB47F06C5C5AAFAAD720F880EE7EBD5CAD30EC32133C9909AA4305900934150BD62F1AD637FDCB3BDB6C59BF65CB86ADB78CF1AED8051FBDB7F512C640F03351DE2570898A9E7765FC0C5FF5116D02B2F6E1FC079008A0B65EE9DC33FE339FEEF2BE1157C0BF40FC00504B0304140006080800214033
311
40D698364F9B0500007B100000340000006662782F44384530363839332D353439372D343439442D383245462D3130424546443338423734372F6F626A656374732E786D6CAD575D739B3814FD2B0CFB8C01DB69921D4227B69B8EA79BB6534F3BFB90198F0041B4111F2389D4E9AFDF2310185C3BF5EEF4059090AEEE3DF7
311
DC0F056F7739B79EA990AC2C6E6C7FE2D9162DE23261457663D72A75AE6CEB6D1888B2548365B655909CDED87ADA0E834C947565A6129A929AAB83D9BBC5DF968C69416D2BE644CA1B5BC68F34271352AB32A1F2699210452659BA9BF89376E1586C2648F57820B42282160A9A62BE8014AB55CA1F0F3DDB0D0357FF0F03FD
311
34AB66A757B98D3DE3F359211529E29F0E3B1033F3E7AB77D38B6BE7623E9F39F33753DF59DC2D568E7F39F3966F96CBEBDB77D738582A0149461341533B7C0F6C048B03B7FD1506352BD46C6A961807B9823E33ED293B9C5A7EE0B66B7AEB8C91C7D48FCBA2A0718315D068EC33A2135AD12281CF1995D06C8090371EFA1A
311
C7C1EF991E9B2387D3E72130DC3110D4E9DEBD879A96D13F30419EC32021A966608BA531B4E5AAB747382A4B6EFE3169E54451C108B7388B04112F7688A57A49188CC468260B1D0DDA023B8417DADF63BA208C7ECDF3635AA635E79AC676D844C116B142956C34633FA8D86B3F44063AC1579A0D57C620F552513BBC6E2972
311
75C0A616482BE52483CB61A6DE399B1E18BAD471BA5ED9E187BB68B7D1B17BFCF04A9415154AD307D4EA1CD7BD354A4627FF2CCFE90DF6812A7B50BE00F98F08F5BD2AF09B60BBF96E6E4E518214322D450EDF589EE578787896DF3CF5F7E02B70FBCD63EF9DC213CED650FD063CC7360C7D3980330C9E41F852CC8C699B98
311
70A48D7B5600204D128B9798421E4EA39D1DAE91E59095B18BF0D087C950F7199F816BC4205134270DDE05B03C488B672468C0D630126AB4E4370AEEFDF4533A6B0E36CB4EC17BF15BE87ABBDA7CD8D4222531BD3731BDA2292B984289DBF366A8D008F391454FF4E57B291218FA33DE9B21DEB9394A026D8DB9063EEB72BA
311
1EEC4F1E1D10635F56EA7413FCE20418A10BEB40FE3D9331E59C14B4ACBB735FAD1F281B2DC43AD83593FB02B32F2C204DFBE7200651A463C12A0D625FADFAA4393961DDD7F54730D20E172F7F919761F68AF6B9372E7929B6D1CBB64D4B47A1FE36E6B6C1C0D55240F72648BAF837A06F1396A6B544123C82EBB7F572E83B
311
9D1690223AA96DB4CC613F828B0843DA4E2EAAB520A8A465B165A89B88BBA3070CE50352C38046E0298D25E5E996715EE7DB947154A36D4EAA1370FC7FFDA33AAFB6242FEB429D903D521DD561ACFB88BDF23B51F1A31D6E9AB7B340EE4D6872820CBA961CC16AE4DAABCBEBD5E5DDECCAB9585C7ACE7C3A5B38B7CB95E778
311
ABABC56C7A79B9F2667B349B262A0CBA52338C687809A52DA80533EEFBBA46FC98246087F744C987F76D7876EFAFEB097AE1C0C51ED4CB7EE36DF28CBE8F26BF16B05F7954D03AAF38CD69A1888EA17BFDC1BF10F4192365DAF9754E327A86944FEF3707C660E68C7D9F75BCD3EF077BCDEC5207E45121EAB1CEA382307EB0
311
316B919C544566F0EB7CD2BFDB42D30DF5C838069DA92C394B9007132BA3654E15B2E1194548E454827AC39E3E31778F33763FB71DA22211A79D268F044D3297080B90BC8ED578DEFA034D9DEEAB6E6C94DBC9131E2653D816387363A349572CA67212A140EB56A8110E2E0D3B797096141947AFDD6EEAC7FD2E8DCDA824F7
311
4BCEE99F8C5D6D0A3706208D54E81BD010C13B8D3261D0E866FEC7FFC9F04E1D8B287C46B5EA6DD94FF4C634C720445BA3CC6D014DCC93397A87407DDD2C7FD2AC192172D62DEB5512B4521D4544D6DC14B47E46A5DBD567171D8AB5FE6455BCCEE0CBF325398282CCB50E70B008AC30322BA240D5E59F0F9F45899B6C6EDD
311
3150E06159E6795998C1ADB9095B9B47DC6B9307A405AA2F24F261EAF9D387E62260EE26DB88483A21897CC2047C2A580FF1C8F160647B5B44CE6C7FF4EB5CED84036EAE57962969730835441966550D0B5A8E825A881E7D99D4B1325C50BD7A17709BA55041A08B0FFF05504B030414000608000021403340000000000000
311
000000000000350000006662782F44384530363839332D353439372D343439442D383245462D3130424546443338423734372F76657274696365732E62696E504B030414000608080021403340F270F1330600000004000000360000006662782F44384530363839332D353439372D343439442D383245462D313042454644
311
3338423734372F747269616E676C65732E62696E636660600000504B030414000608000021403340000000000000000000000000370000006662782F44384530363839332D353439372D343439442D383245462D3130424546443338423734372F617474726962757465732E62696E504B030414000608080021403340D598
311
7DFC8F00000041010000360000006662782F44384530363839332D353439372D343439442D383245462D3130424546443338423734372F6469726563746F72792E786D6C858F410EC2201045AF4266AF15DDB800BA74E7C21B903225242D6328188F2FA5C4183471359997F9FF81E89FF3C41E1816475E02DF1F80A11FC838
311
6F25A438EECEC07A250251FC3803E6F58C12560C4AD840E95E91C151A72936F496F35732D860FE635F62C8F2DA16B505C545B74125BAA2FA9E05D7CC053D063734D5C7665FD55B6B8D15D5E9BFEAFD8490FFA45E504B030414000608080021403340425D88F0FD000000A00100003B0000006662782F44384530363839332D
311
353439372D343439442D383245462D3130424546443338423734372F7265736F75726365732F636F72652E786D6C8D504B6E833010BD8A357B839D1020C838AA4272825EC032136A25D8913F558F5F13A8D4EEBA9919BD8FE6E989D3D7FC209FE88371B6075E302068B51B8D9D7A48F1465B202729BC73F1970C885533F6B0
311
C020C5E45D7A6E907636A28D19B56EC40D54216004A21FF9E821E80F9C55A152CC8A702F9E4ADFD584052F329D755284E87300B23E5926488FC125AF31887265A548C98C9BC68CF9A7B919F420AF6D3D0CD74B430FCDB1A5D5703ED0965F0F94EFCFBC79AB787DA92A512E6629A2997F326A8F2AE20872C7F88E324EF9F19D
311
B51DE31DDB5356778C897291FF31A5E7F84F533236EE775BDCD51640F21CE44548512E7DE5F52A33EFA55BF90D504B010214000A0000080000214033403DEE336E79000000790000001B00000000000000000000000000000000006175746F6465736B2D64657369676E2D7061636B6167652E786D6C504B01021400140006
311
08080021403340D486FD9CA0000000F40000001300000000000000000000000000B20000005B436F6E74656E745F54797065735D2E786D6C504B0102140014000608080021403340B23C1C80EA0000007C010000080000000000000000000000000083010000636F72652E786D6C504B010214001400060808002140334055
311
019EA25F0000007C000000070000000000000000000000000093020000636E782E786D6C504B01021400140006080800214033401AB1964C66010000020300000C00000000000000000000000000170300006662782F636F72652E786D6C504B0102140014000608080021403340935806C07D0000009D0000000B00000000
311
000000000000000000A70400006662782F636E782E786D6C504B0102140014000608080021403340C24BB2302B0100001402000031000000000000000000000000004D0500006662782F44384530363839332D353439372D343439442D383245462D3130424546443338423734372F636F72652E786D6C504B010214001400
311
0608080021403340A297028C4D010000330300003000000000000000000000000000C70600006662782F44384530363839332D353439372D343439442D383245462D3130424546443338423734372F636E782E786D6C504B0102140014000608080021403340D698364F9B0500007B10000034000000000000000000000000
311
00620800006662782F44384530363839332D353439372D343439442D383245462D3130424546443338423734372F6F626A656374732E786D6C504B010214001400060800002140334000000000000000000000000035000000000000000000000000004F0E00006662782F44384530363839332D353439372D343439442D38
311
3245462D3130424546443338423734372F76657274696365732E62696E504B0102140014000608080021403340F270F13306000000040000003600000000000000000000000000A20E00006662782F44384530363839332D353439372D343439442D383245462D3130424546443338423734372F747269616E676C65732E62
311
696E504B01021400140006080000214033400000000000000000000000003700000000000000000000000000FC0E00006662782F44384530363839332D353439372D343439442D383245462D3130424546443338423734372F617474726962757465732E62696E504B0102140014000608080021403340D5987DFC8F000000
311
410100003600000000000000000000000000510F00006662782F44384530363839332D353439372D343439442D383245462D3130424546443338423734372F6469726563746F72792E786D6C504B0102140014000608080021403340425D88F0FD000000A00100003B00000000000000000000000000341000006662782F44
311
384530363839332D353439372D343439442D383245462D3130424546443338423734372F7265736F75726365732F636F72652E786D6C504B0506000000000E000E00800400008A1100000000
310
504B03040A0000080000214033403DEE336E79000000790000001B0000006175746F6465736B2D64657369676E2D7061636B6167652E786D6C3C3F786D6C2076657273696F6E3D22312E302220656E636F64696E673D227574662D3822203F3E3C666F726D6174733E3C666F726D61743E687474703A2F2F736368656D612E
310
6175746F6465736B2E636F6D2F64657369676E2D7061636B6167652F323030393C2F666F726D61743E3C2F666F726D6174733E504B030414000608080021403340D486FD9CA0000000F4000000130000005B436F6E74656E745F54797065735D2E786D6C7D8EC10E82300C865F65E91D8A1E8C310C0EEA1BF002731658846E
310
D98AC1B77784ABF1D8FE5FBFBF75BBCE937A534CCEB38643598122B6FEE978D0B0485F9C41B54DDD7D022595594E1A469170414C76A4D9A4D207E29CF43ECE46F218070CC6BECC4078ACAA135ACF422C856C0E68EA1BF5669944DDD7BCDE7B1F8E415D77AECB980613C2E4AC91FC167A2B244592486606FC29C8FD7F045B9A
310
EF7053A7E60B504B030414000608080021403340CCBE9BA4EA0000007C01000008000000636F72652E786D6C8D90D16E83300C457F25F27BC001CA0085545BCBBE603F1025298B5A1204C9B4CF5F68A9B4BDEDC9D6F53DB675F9F17BBA912FB3ACD6BB1E5886408C535E5B37F610C38536408E822FDE875F36204E4EA6874D
310
06C1C7C5C779979477C1B89054E7B5D945B9AE260051B7D4F4B0AA4F33C94CC6901CEB359BA5BACAD164ECD9253846ABC9E388D5699FBD58B380A8D9A93E95878AB6D550D0EAF5E59D36C379A06FCD014BD6226279E6F9060B1EECF4BCAF162383D1200A6405454659FB814D87ACC39262DD21F27CB3FF81E2ACFF0945EB42
310
59ECEF3EB015044B8FDC0782E75B16A9DC834A75CB4DFC00504B03041400060808002140334055019EA25F0000007C00000007000000636E782E786D6C4DCB3B0E80201045D1AD90E915ED2CF8AC45050C11660C8261F98AB1B07AC9C97D42D718D865D3E909258CFD00CCE24AC6E326A164D74DC0B4128928FF326038472B
310
A13128B1252AC747C6BAB984FC68F0B87FE8960A5C09FE86CFB69FBA01504B03041400060808002140334081D92BCF66010000020300000C0000006662782F636F72652E786D6C8D52ED8E8320107C15C27F04D4F6DA0669EEDADE13DC0B50A59EA98241307DFC5B3F1AAF97A6B9982099D9D99D1D15FB5B53A35EBBAEB226
310
C33C62186993DBA232658683BF900D467B299CB5FE57194646353AC3038CA5289D0DED0CE5D6786D3CA0C6167A0655D7698F515EC325C35DFEAD1B15A9E0A1A2BB46ADCAAFAAD4118F80863A293AEFC0009A860C279697F34DD009972284AA98D9AA8069D5A5D20ECB353FAC0FC92A25DBF41493F4FDED936C4EC713F9D8AC
310
58C2B78CB1E428E82096C257CDDD5DEEB4F2BAC032663C268C13BEFD629B1DE33B9610B6DE3126E850FE200A6DF14F51A88C4FE2D9EE24EBB0E4606424FE6C0B1179D4A91EFC5029E81022BCC6841F8386402064AFCEF57D8F2B40BDCEBD752930850D0BD5AB3A6898CAD0F8083AB1D0796C009B3DED13BFE8F3BA077C4065
310
4AB0A63C5CCFC10FD3C534758EA2D58EF4FE868C758DAA177393C5E55C063D95E7B6B6EE3F6A3AAF4AE730E9F0F7CA1F504B030414000608080021403340D3DA4E477E0000009D0000000B0000006662782F636E782E786D6C4DCCD10A83201886E15B91FFDC724D36076AA8B5FB886521331D4E6397BF1A1DECE883878F97
310
B79FC5A3D5A6B78B41C0A922806C78C4D1855940C91366805AC9538CF9EF06280C8B15B033483EA7585E078D761A8ACF9B7A179E077694F5865E3556A421983263B0D6EA86EFDD99F64C51D3900BD492D7BFD2B67B587E01504B0304140006080800214033409FC6242D2B01000014020000310000006662782F4434384543
310
3437422D413032302D343843432D424241392D4644333445384134433230362F636F72652E786D6C8D51CB6EC32010FC15C4293D60834D5C27C24489937E417FC00192A2C460F1A8F2F985DA91DA5B2E2C9A9D991DEDB2DD63BC836FE5BCB6A683A4C0102823ACD4E6DAC1182EA88560C799B336FCA1416086517530C390B3
310
ABB3715A20614D502624D458A91670F05E0508C43D7D3AE8C5971A8762882131FCAD9806711BAEAA20456A271E673EB81400CC43F20BF991B6A79EBE1FD01E5718D1B6EFD1E1B0DFA08F634D4FED9EF6156E58390B398B51CB45AE658AA32F5AB9574DB298B3A0C7677CE1D4109484BCC2A4429820B2F9C4ED16932DAE116E
310
B618B332D3FF89E2245F14456D425D2D716799879CB0726E70266D3CDF9F61D463B22E803C6FE59578831C17B82264BD6E282B676A5A40F26CE8E2E9837569C1ABDB39B1EBC5B8A19C95F946A9FC1E30D57C4FFE03504B030414000608080021403340C430CD9B5401000033030000300000006662782F4434384543343742
310
2D413032302D343843432D424241392D4644333445384134433230362F636E782E786D6CBD93C16EC32010447F0571B78D93C872234CA41EFA053DF48A6193D260B00057CDDF7749489A4B0E95AA5E90353BCCAC9E30DF7D4D967C4288C6BB81B635A3049CF2DAB8C34097B4AF7A4A768207EFD39D8D122727186896A9E087
310
E097B9481AF672B109556BDCB18801A25F82828872BE49AC57D26200B86A4111A611B4064D6E46FCDA43C055501C4F24BD0379797E237EFC0095226F728AE04DEE103C9FA5E9CE4489B232C68146F50E93ACE592BC8678ACB54CB26EEB6BD7839D7E9248BE70AD5C8221B97CA0F9A4A26C542347DEE050F09802D22BA6749A
310
810A39CFD62899107273365E3C822FC6A56E53BC06C10774AF575DDF63D8792678321314870A2013682A56AC5D55ACADDAA757D66F59BB65EB8A755BC67893ED828FDEDB72096320F89928EF12B84445CB9B3C7E84AFF888360159FB70FA054804505A2F746E197FC9A7EDD69BCD3FF269CEEF1B7105FC0BC437504B030414
310
0006080800214033404921EA1159070000941B0000340000006662782F44343845433437422D413032302D343843432D424241392D4644333445384134433230362F6F626A656374732E786D6CED59DD73A33610FF5718FA6C0CB673493A849BC46E6E3C6DAE3775EFA60F99616490891A211849E4E2FEF55D7D80819804B7
310
E95B1F6C4048ABDDDF7E6A093F3EE7D479C25C90825DB981E7BB0E66499112965DB995DC4D2E5CE76314F2A290AD69AEC3508EAF5C35EC4661C68BAAB44329DEA18ACADEE8EDCD1F8E4830C3AE935024C4952B92079C230F55B248B178F452249197ED9EBDC03313BB64338ECA871ED11271CC24700AE30CA83886A9A0FBE8
310
BBD3289CAAF751A8FEEDACF9A8598BE159532D75974BC284442C79C1528FCC7C144BF360B1FA69767639395B2CE693C5875930B9B9BD594D82F3B9BFFCB05C5E5EFF7409EC6D8B825A99525C629682FEF66E148453F5A611DD22708CEBA4600C271A48804A8BD52748B080AD5AF0F9DDC74049D47AAD256C3D2FD47BCB426B
310
78DEA532346B1C101DBA2088DDAE96B8BEB6E52BB67F82E0628C51728125702B2407ED5A783878851BF9E1D48C46E1F6A00B229C1C49CC09A20E255B8E382805A6AA295168165832CA3938907294045A73E675D7B6C033DF769D635CEE2A4A9567B89176AC18DC0F4BA139237F617EE0BE8D0CF004D25684C90BCBA5DC97D8
310
8D2EC3A91E8C427599CFEC4B03A4B3A328131A11F3B627E852B9FE7AE5463FDF6E9F372A1C1CDFBCE44589B95446A7F4A8F90243B6578592DD3618A539B5008431A0DA9507507E03E43F43F438B0027AE3E479F1BCB07325474CEC0A9E836E1CDF99F8F0E73B81FE57F7ADBB70DA2CEE6A6F084F705305D5C5BFC7B32B83C6
310
CAF2DF82330A9FC0E00B3EB7AF3609A260CF77840140CA481C5AC01084F6DDF6D98DD6103821D0C32A44A3004406769FE0369C5A3207ADD4EE65BD8E01A2768FF91825016CDA22818D013D7D82ECC1497250535BC42178CFDEC55CAF579B9F3715DFA104DF599F5EE11D614442D63CCE5007F38E448F78FFBDE02908FA12EF
310
4D1BEFDC6E25006D85B9023EAB41500F879D3B1B24B02E2B54B809DFD8018450B9BA45FF8E8804538A182EAA7ADF26BA29436D3CDED60C6E343310CF673D13E6F889A8AA029CE630A3C328E4FD84935281E8469F8C644DD0F406A4FBBAFE0C16D9CC1F98B566107A19A2BFEBA07504878E65D7485B201A81B787709E14B4E0
310
F1761F9B48E7422D016C74BDE55B8728C47AA32445053C48FB5D1D5232236D9C92DDAE1210578FB0F86DBD6C9B83EFCD8333A7FDDF73C605445BF05DC4ADDFF5F688498E321CEF503AB45D7BB786B6D024074873BCA320177922721F2319FB29CE4E81E624E297EF4A3DA38510846101F9EA28F86D347C0F0289D166CDB2D2
310
6A0F6822E21C4B444F414091190057A71D5DE326503ABCCD6363BDAF69AC4DF43FB2088EA0962C584CA014851CF226E381770631A48BAE41B9872F585B4D5B8B412B2821927DFC1D93EC419E82BA213F807B0247924AC645891230EB11645FF88A526A8FF72D4A1E55FE88938ABE9781084C7731A1B4CA63F81106278F31AE
310
DD04A65751681137B14FE21C8A32242B3E66930F67FE8B7D4CCDD00F81AD8D768442D88E73540EA0DE0988BA1E711AF02DF501A56EABBC8C515E546C94A178F3BE3759F27DB52AB223F955A522948D35614B300A09934D56AD633698BA0EACE0463A50ED6381F2929A53D81B892768BC49531EDC805B3F7DDF0D7228FC06B4
310
D78EA88B1A06CB63A73010DF914C1EDC68A3AF931BA8BF539C1E527D5D6BB62B40404C45F28A13ABA2AF6B286F6C8DE64677488AFB4F26EBD6D7AF6B0FBA1FE114D640EDD22C5C2BA073CC245295C99DBAA1BF2108C11D1A667CAD72EA2954AED354578D88DE92217576CA88CEA639F1CA07CC8A1C7EEC9EB0845629BE47A9
310
788CEF248D3744B16EA5F4725263FCAA80BF7EDAF4E0819111227D51051EFEDE5B6B4797AA5C3A4A443E54F996210241B0235A6674E3952CB31AA9B5DC5CD59902EA2E3030ABE2C5FF278B763BE2FF9345660DE35F9D2C6EF6BFA07DBB2FD24AE789B2EB938E014D7E5254DEE318A0DB0E0DD5268B98646EE5B7CE144350AC
310
A3FCE86AAC0E1A86E010C7FF386B0F6541B35D8FFFD3B276F0A2E23829AB7426AB2ED591CA75DDCE6117E797ABF3DBF9C5E4ECE6DC9F2C66F39BC9F572E54FFCD5C5CD7C767EBEF2E78D9E0CF1286C8299CE5DF06C825A3DAC9E2C06D095150525299CE65327C310F3259CE947B4CF798E0524CF76B33BB54DF911AB9F4C9F
310
53A22DC535270F081AC454405A0731AA4476C79D1FA03529E1A07DE542D3C87B843F6B95AE0399E7CA855681240916DE16DA4CAAA1A78943CAD5B9DF1283408658A652A259D43C37AB14369DF0DF4C199306AC5C9D1E06146E2574BF3A1D0ACD9BE5293949F09A1D0749B8DD5612AA3523CB61A011466F7350BF918D12F668
310
B77E06D77D5DACC0D3733A888CFA64F0AA1118AA138978A6FBDD8A31CBD2F5EACB14FA6CCEFA57A7A45506BA1C4F69C2311873A50A2AB022B00A4BB344124C75F9E3FD175EC0279EDCD155D1FDB2C8F382D9876B388FA5F089C8D93CC0079FF41ECA06ACDAEAE27EE607B37BDDCEB61DF6788B04F6543D04037519A144E819
310
1B58E48BD6946D5C4E95127AD3D72BC7864F6803180B7AD1DD359FB71CF01EF52145F98AF6F05ACE573BDA533D15AC81432F3AFA1B504B030414000608000021403340000000000000000000000000350000006662782F44343845433437422D413032302D343843432D424241392D4644333445384134433230362F766572
310
74696365732E62696E504B030414000608080021403340F270F1330600000004000000360000006662782F44343845433437422D413032302D343843432D424241392D4644333445384134433230362F747269616E676C65732E62696E636660600000504B0304140006080000214033400000000000000000000000003700
310
00006662782F44343845433437422D413032302D343843432D424241392D4644333445384134433230362F617474726962757465732E62696E504B030414000608080021403340D5987DFC8F00000041010000360000006662782F44343845433437422D413032302D343843432D424241392D464433344538413443323036
310
2F6469726563746F72792E786D6C858F410EC2201045AF4266AF15DDB800BA74E7C21B903225242D6328188F2FA5C4183471359997F9FF81E89FF3C41E1816475E02DF1F80A11FC8386F25A438EECEC07A250251FC3803E6F58C12560C4AD840E95E91C151A72936F496F35732D860FE635F62C8F2DA16B505C545B74125BA
310
A2FA9E05D7CC053D063734D5C7665FD55B6B8D15D5E9BFEAFD8490FFA45E504B03041400060808002140334013D0511CFD000000A00100003B0000006662782F44343845433437422D413032302D343843432D424241392D4644333445384134433230362F7265736F75726365732F636F72652E786D6C8D504B6E833010BD
310
0A9ABD610C0925C8386A137A825EC03293C44AB0237FAA1EBF26A152BBEB6666F43E9AA727F65FF3ADF8241F8CB303F012A120ABDD64EC7980144FAC83622F85772EFE924161D54C032C304871F62EDD57483B1BC9C68C5A37D10AAA102842A16FF91820E80BCDAA54296645B89677A5AFEA4C252F339D755284E87380E2F9
310
6499203D0597BCA620AA272B454A665A3566CA3FCDC99007D9F2437B68B60DDB6DC69A6D5E5FDE59371E47F6D66DB1E13B446C8EA25ACC524433FF64D49E54A409648DBC66C819DF7D60D723EFB161D8F688A25AE47F4CE93EFDD3948C8D4DBDC67DDA02489E833C0829AAA5AFBC1E65E6BD742BBF01504B010214000A0000
310
080000214033403DEE336E79000000790000001B00000000000000000000000000000000006175746F6465736B2D64657369676E2D7061636B6167652E786D6C504B0102140014000608080021403340D486FD9CA0000000F40000001300000000000000000000000000B20000005B436F6E74656E745F54797065735D2E78
310
6D6C504B0102140014000608080021403340CCBE9BA4EA0000007C010000080000000000000000000000000083010000636F72652E786D6C504B010214001400060808002140334055019EA25F0000007C000000070000000000000000000000000093020000636E782E786D6C504B010214001400060808002140334081D9
310
2BCF66010000020300000C00000000000000000000000000170300006662782F636F72652E786D6C504B0102140014000608080021403340D3DA4E477E0000009D0000000B00000000000000000000000000A70400006662782F636E782E786D6C504B01021400140006080800214033409FC6242D2B010000140200003100
310
0000000000000000000000004E0500006662782F44343845433437422D413032302D343843432D424241392D4644333445384134433230362F636F72652E786D6C504B0102140014000608080021403340C430CD9B54010000330300003000000000000000000000000000C80600006662782F44343845433437422D413032
310
302D343843432D424241392D4644333445384134433230362F636E782E786D6C504B01021400140006080800214033404921EA1159070000941B000034000000000000000000000000006A0800006662782F44343845433437422D413032302D343843432D424241392D4644333445384134433230362F6F626A656374732E
310
786D6C504B01021400140006080000214033400000000000000000000000003500000000000000000000000000151000006662782F44343845433437422D413032302D343843432D424241392D4644333445384134433230362F76657274696365732E62696E504B0102140014000608080021403340F270F1330600000004
310
0000003600000000000000000000000000681000006662782F44343845433437422D413032302D343843432D424241392D4644333445384134433230362F747269616E676C65732E62696E504B01021400140006080000214033400000000000000000000000003700000000000000000000000000C21000006662782F4434
310
3845433437422D413032302D343843432D424241392D4644333445384134433230362F617474726962757465732E62696E504B0102140014000608080021403340D5987DFC8F000000410100003600000000000000000000000000171100006662782F44343845433437422D413032302D343843432D424241392D46443334
310
45384134433230362F6469726563746F72792E786D6C504B010214001400060808002140334013D0511CFD000000A00100003B00000000000000000000000000FA1100006662782F44343845433437422D413032302D343843432D424241392D4644333445384134433230362F7265736F75726365732F636F72652E786D6C
310
504B0506000000000E000E0080040000501300000000
  0
XRECORD
  5
17
102
{ACAD_REACTORS
330
12
102
}
330
12
100
AcDbXrecord
280
     1
270
     1
271
     1
  0
XRECORD
  5
16
102
{ACAD_REACTORS
330
12
102
}
330
12
100
AcDbXrecord
280
     1
270
     1
271
     1
  0
XRECORD
  5
18
102
{ACAD_REACTORS
330
12
102
}
330
12
100
AcDbXrecord
280
     1
270
     1
271
     1
  0
XRECORD
  5
15
102
{ACAD_REACTORS
330
12
102
}
330
12
100
AcDbXrecord
280
     1
270
     1
271
     1
  0
XRECORD
  5
DF4
102
{ACAD_REACTORS
330
22
102
}
330
22
100
AcDbXrecord
280
     1
102
MATERIAL
148
0.0
149
0.0
149
0.0
 93
        0
 94
      127
282
     0
 72
     0
 77
     0
171
     0
175
     0
179
     0
273
     0
  0
XRECORD
  5
24
102
{ACAD_REACTORS
330
22
102
}
330
22
100
AcDbXrecord
280
     1
270
     1
271
     1
  0
XRECORD
  5
23
102
{ACAD_REACTORS
330
22
102
}
330
22
100
AcDbXrecord
280
     1
270
     1
271
     1
  0
XRECORD
  5
BA
102
{ACAD_REACTORS
330
22
102
}
330
22
100
AcDbXrecord
280
     1
 70
     1
 90
1959938040
 71
     1
  1
204A579A-DC71-4DAE-B6E6-2DD567EBA280
311
504B03040A0000080000214033403DEE336E79000000790000001B0000006175746F6465736B2D64657369676E2D7061636B6167652E786D6C3C3F786D6C2076657273696F6E3D22312E302220656E636F64696E673D227574662D3822203F3E3C666F726D6174733E3C666F726D61743E687474703A2F2F736368656D612E
311
6175746F6465736B2E636F6D2F64657369676E2D7061636B6167652F323030393C2F666F726D61743E3C2F666F726D6174733E504B030414000608080021403340D486FD9CA0000000F4000000130000005B436F6E74656E745F54797065735D2E786D6C7D8EC10E82300C865F65E91D8A1E8C310C0EEA1BF002731658846E
311
D98AC1B77784ABF1D8FE5FBFBF75BBCE937A534CCEB38643598122B6FEE978D0B0485F9C41B54DDD7D022595594E1A469170414C76A4D9A4D207E29CF43ECE46F218070CC6BECC4078ACAA135ACF422C856C0E68EA1BF5669944DDD7BCDE7B1F8E415D77AECB980613C2E4AC91FC167A2B244592486606FC29C8FD7F045B9A
311
EF7053A7E60B504B0304140006080800214033401E4FCA05EA0000007C01000008000000636F72652E786D6C8D904D6EC3201085AF82668F0DB8491D0B13A9897D825E0001715062B0F8A97AFCE2C491DA5D57337AF3BE99D1E3C7EFF98EBE4C88D6BB1E68450019A7BCB66EEA21A70B6E011D050FDEA75F36404ECEA68755
311
06C1A7E0F3B249CABB645C2AAAF3DA6CA28CD12440EA5E9A1EA2BA9A595632A7E288B76A91EA262753D15757E09CAD46CF2356977DF6624D00D18E74180E9462369ECFF88D3427FCD18EEFB81D766343D87E77628CD72B2C78B2F3EBBE0A4626A3413042192614D3C327693B423BD260B2EF08E1F56AFF03E545FF13CAD6A5
311
866DEF3EB1088296471E03C1EB358B521E4195BAE6267E00504B03041400060808002140334055019EA25F0000007C00000007000000636E782E786D6C4DCB3B0E80201045D1AD90E915ED2CF8AC45050C11660C8261F98AB1B07AC9C97D42D718D865D3E909258CFD00CCE24AC6E326A164D74DC0B4128928FF326038472B
311
A13128B1252AC747C6BAB984FC68F0B87FE8960A5C09FE86CFB69FBA01504B0304140006080800214033401A2583C266010000020300000C0000006662782F636F72652E786D6C8D52ED8E8230107C95A6FF4B5B508F33A526A7F204F702152A4784969496F8F8B77C18CF8B3186A434333BBBB30362776D1B3468D7D7D664
311
98470C236D0A5BD6A6CA70F0679262B493C259EBFF94616454AB333CC2588ACAD9D02D50618DD7C6036A6CA91750F5BDF618150D5C32DC173FBA55910A1E2AFA4BD4A9E2A22A1DF10868A893A2F70E0CA079C87862793E5D059D712942A8CB85AD4B98569F6BEDB04C737E3C7E724EE2FC70202B96ECC9579A7F90F4B8CE13
311
166FD6FB381674144BE1EBF6E6AE705A795D6219331E13C609FFFC66E996F12D4B08DB6C1913742C7F1085AE7C53146AE39378B13BCB7A2C391899887FDB42441EF56A003F540A3A8608AF29E1C7A0211008D9AB5373DBE302D0A00B6FDD0A98D2863B35A8266898CAD0F4083AB3D0796A009B3DED13BFE8F3BA077C40652A
311
B0A63C5C4FC18FD3C53C7589A2D38E0CFE8A8C75AD6AEEE6668BF7F33EE8A9BCB08D75EFA8E9B22A5DC2A4E3DF2B7F01504B0304140006080800214033400E6C082B7D0000009D0000000B0000006662782F636E782E786D6C4DCCD10A83201886E15B91FFDCA5A4CB408D6A5E482C0B99E9703A76F9ABD1C18E3E78F87865
311
F7D93C7ADBF4723128A01702C8867B9C5D581594BC6001A8D332C598FF6E80C2B459050783966B8AE579D26C97A9F8BCAB77E171221F5BC64473C5828F14B3860DB827A4C584DD86DA18CA786FA0D2B2FA95F63DC2FA0B504B030414000608080021403340259566BC2A01000014020000310000006662782F354339343438
311
37362D383543312D343734422D413030392D3034444233454531343541452F636F72652E786D6C8D51CB6EC23010FC15CB277A70B20E4E1A906304943FE80F04DB500B62477E547C7E9D2648ED8D8BD79A9D991DEDF2DD63B8A36FED8371B6C3B4008CB4954E197BED708A17D262B413DC3B17FFD030B2FDA03B3CC158F0AB
311
77695C20E96CD43666D43AA517B00F41478CE43D7F3A1CE4971EFAA24F3133C2AD187B79EBAFBAA0456E679EE021FA1C00CD43A6178BFAB861AC7D6F485B1F2961EFEC40F6001B02ECE3B03E9D28ABF7275ECE42C153326A911B95E3988BD1FE5593492C7834C333BEF4BA8F5A615101AD085042379FD06E816E614DA0D902
311
F072A2FF13A551BD284AC6C675B5C49D65010BCACBB921B872E97C7F86D18FD1F988A679ABA0E51B16504005358596F172A6E60564CF862D9E213A9F17BCBA9D339BD6B371C3042FA71BE5F27BC05CA77B8A1F504B030414000608080021403340A297028C4D01000033030000300000006662782F35433934343837362D38
311
3543312D343734422D413030392D3034444233454531343541452F636E782E786D6CD593CD6EC23010845FC5F23D89030851E418A9873E410FBD3AF6022E8E1DF9A72A6FDF3518CA85438FBD58D1EC7866F5C9E1BBEFC9922F08D17837D0BE659480535E1B7718684EFB6643C94EF0E07D7AB051E2E404032D3215FC107C9E
311
ABA4612FB34DA85AE34E550C107D0E0A22CAE526B15E498B01E09A8C224C23680D9ADC8DF8B58780ABA0389E493A02797BFD207EFC049522EF4A8AE05DE910BC9CB5E9C14489B232C68146758449B63227AF219E5A2D936CFBF6D6F564A7DF24522EDC2A7330A4940FB49C54D48D5AE4C83B1C0A1E53407AD594CE335021E7
311
D91A251342EE2EC6AB47F06C5C5AAFAAD720F880EE7EBD5CAD30EC32133C9909AA4305900934150BD62F1AD637FDCB3BDB6C59BF65CB86ADB78CF1AED8051FBDB7F512C640F03351DE2570898A9E7765FC0C5FF5116D02B2F6E1FC079008A0B65EE9DC33FE339FEEF2BE1157C0BF40FC00504B030414000608080021403340
311
B0F1D7129A0500007A100000340000006662782F35433934343837362D383543312D343734422D413030392D3034444233454531343541452F6F626A656374732E786D6CAD57DB6EDB3810FD1541FBEC8B6CE7B650543876521845DAA0468B7D08605012A57043890249A5CE7EFD1E4AD4CD7552EFA22F96450D873367CE5C
311
E87FD867DC79A15231915FBBDE78EA3A348F44CCF2F4DA2D7532BA749D0F812F85D03D31D7C94946AF5DB3EC067E2A4559D8A59826A4E4FA60F5EEE62F474534A7AE1371A2D4B5ABA2279A913129B588A97A1EC74493719AECC7DEB8161CAA4D25299E0E941644D25CC352ACE7D0E2D44679C3D7A93B09FC89F91EF8E6D74A
311
CDDF969A54FE0CCF67B9D2248F7E3AEC40CDDC5BAC6F676757A3B3C5623E5A9CCFBCD1CDDDCD7AE45DCCA7ABF3D5EA6A797B85839596D0642D913471838FC046B2C89FD49F02BF64B99ECFAC880DD044D2176622E50633C7F327B54CEB9D75F298F991C8731A5558018DCA3FAB3AA605CD63C49C5105CB7A084D87AF9EC1B1
311
F7796EDEED91FDE5D310E8EFE8296A6C6F9E7D4B45F8375C50A730482A6A185863691DADB93AED100E85E0F61B534E4634958C7087B35012F9EA06103522813F5063982C4D36180FDC0051A83F0FE98234FA35CF8F5999949C1B1ABB4195053BE40AD5AAB28CFD4365677D1F19D8845819365C5A87F46B41DDE0AAA6C8E501
311
9B6A209D84931421879B66E77C76E0E8CAE4E966ED069FEEC2FDD6E4EEF1C30B290A2AB5A10FA8D504AE791A94AC4DDE4991331BDC03533A50BE02F9CF48F5CE14C44DB2FD62BFB0A76849729508992136CED4194DF13375BCEAD7FCEFFDF327EDE661F4DEC213C13650FD063C873EF463D98333F05F407821E7D6B56D4438
311
CAC63DCB01902189C3059650879370EF061B54395465EC223CF0E032CC7DC15F7F62D5A0505427F59E39B03C288B271468C056311266D4E4B7067671FAA99C55075BB1B7E03DFB2D745DAEB79FB6A54C4844EF6D4EAF69C272A6D1E23ADEF40D1A603EF0E899BEFE103286A33FE3BDEDE39DD9A314D036981BE0D3A6A69B97
311
EEE4C10111F6A5C2941BFF1727C009D3587BFAEF998A28E724A7A26CCE7DB77FA06DD4109B64374C6E1B4CD758409AFACB410EA24947921506C4B65BB54573FC8677DF369FC148C8731112DE09855DE98D04177217BEEEEAAA7414E9EF436A5B0826460BD85EE54893FE16F35DCC92A454A8814760FDBE59F54367AA022A44
311
A3B54E9605DC476E116939DBE845B396048D54E43B86B689B43B7A405F3F10B504A814BE65B1A23CD931CECB6C97308E66B4CB48F1061CFFDFFEB0CC8A1DC94499EB37740F4C477318DA3E20AFFA4174F4E406DBEA39BA41E98D69DC8579206C5AC911AC06A19D4D17CBB38BABE568BDBAF0468BF5F27674737E7B3E9AADD7
311
67E717B737CBD96567513543057ED369FA098D28A1B3F9A564367CDF36481F5B03DCE09E68F5F8B1CECEE6F96D33C628EC4FB007EDB2DDB88C5F30F6D1F8D70A3AC9A38A3659C16946734D4C0ADD9B3FFC2BC1983130A65EDF6424A52768F9F2717BE00C564ED8F760D29DFE38D86B575726218F2AD14F6516E684F1838D69
311
8DE4B8C8538B5F1393F659F799E6D5BCD9C060305582B318653076522A32AA510C4FE84132A30AD4EB8FF4B1BD7A9CB0FBA51E103509396D2C79229891B9425A80B765A487EBCE1F98E9CC5875EDA2DB8E9FF1632B85EB8033D72E6674CD22AAC621FAB399842AE5E0527F900767499E728CDAF5A6F6BDDD65B01974E456E4
311
94F1C9FA555770EB00CA4881B101F310A2531913F8956DF67BF49F1C6FCC7188C6DFB0D4AD2FDD42EB4C750C52B476CA5E1630C33CDBA3F748D4F7DDF2C695CC0091932E59EF92A0D63AD244A6D545C1D8674D5AAE1F2618509CCD17A7E0658A589EAE692429C85C9A04078BC00AABB3201A545DFDF9F820052EB29973C740
311
81C795C83291DB97A5BD083BDB275C6BE34794056AEE23EA7136F5668FD53DC05E4D762151744C62F58C05C454B216E241E0C1C8FAB2880E547F68E526260807DCDCAC1DDBD216506A89D2AFAA06164C1C3975903DE62E6972A52F50BC7B159854A2304162880FFE05504B0304140006080000214033400000000000000000
311
00000000350000006662782F35433934343837362D383543312D343734422D413030392D3034444233454531343541452F76657274696365732E62696E504B030414000608080021403340F270F1330600000004000000360000006662782F35433934343837362D383543312D343734422D413030392D3034444233454531
311
343541452F747269616E676C65732E62696E636660600000504B030414000608000021403340000000000000000000000000370000006662782F35433934343837362D383543312D343734422D413030392D3034444233454531343541452F617474726962757465732E62696E504B030414000608080021403340D5987DFC
311
8F00000041010000360000006662782F35433934343837362D383543312D343734422D413030392D3034444233454531343541452F6469726563746F72792E786D6C858F410EC2201045AF4266AF15DDB800BA74E7C21B903225242D6328188F2FA5C4183471359997F9FF81E89FF3C41E1816475E02DF1F80A11FC8386F25
311
A438EECEC07A250251FC3803E6F58C12560C4AD840E95E91C151A72936F496F35732D860FE635F62C8F2DA16B505C545B74125BAA2FA9E05D7CC053D063734D5C7665FD55B6B8D15D5E9BFEAFD8490FFA45E504B0304140006080800214033400DE4E49DFC000000A00100003B0000006662782F35433934343837362D3835
311
43312D343734422D413030392D3034444233454531343541452F7265736F75726365732F636F72652E786D6C8D504B6E833010BD0A9ABDC1364D4A9071A42670825EC032136A25D8C89FAAC7AF09546A77DDCC8CDE47F3F4C4F96B7E149FE88371B603565228D06A371A3B7590E28D34509CA5F0CEC55F3228AC9AB1831506
311
2926EFD2B243DAD9883666D4BA1177508580110AFDC84707417FE0AC4A956256847BB9287D571396ACCC74D64911A2CF018AEDC93A417A0C2E798D41541B2B454A66DC3566CC3FCDCDA007D90CACEF4F8C123E5CAFE485D617F2D60CAFA4E90F434DF9F170E15C54AB598A68E69F8CDAA38A3882E49471421961A777DAB494
311
B5B426F4D8522AAA55FEC79496F19FA6646CACF91E77B305902C07791252546B5F793DCBCC7BED567E03504B010214000A0000080000214033403DEE336E79000000790000001B00000000000000000000000000000000006175746F6465736B2D64657369676E2D7061636B6167652E786D6C504B01021400140006080800
311
21403340D486FD9CA0000000F40000001300000000000000000000000000B20000005B436F6E74656E745F54797065735D2E786D6C504B01021400140006080800214033401E4FCA05EA0000007C010000080000000000000000000000000083010000636F72652E786D6C504B010214001400060808002140334055019EA2
311
5F0000007C000000070000000000000000000000000093020000636E782E786D6C504B01021400140006080800214033401A2583C266010000020300000C00000000000000000000000000170300006662782F636F72652E786D6C504B01021400140006080800214033400E6C082B7D0000009D0000000B00000000000000
311
000000000000A70400006662782F636E782E786D6C504B0102140014000608080021403340259566BC2A0100001402000031000000000000000000000000004D0500006662782F35433934343837362D383543312D343734422D413030392D3034444233454531343541452F636F72652E786D6C504B010214001400060808
311
0021403340A297028C4D010000330300003000000000000000000000000000C60600006662782F35433934343837362D383543312D343734422D413030392D3034444233454531343541452F636E782E786D6C504B0102140014000608080021403340B0F1D7129A0500007A10000034000000000000000000000000006108
311
00006662782F35433934343837362D383543312D343734422D413030392D3034444233454531343541452F6F626A656374732E786D6C504B010214001400060800002140334000000000000000000000000035000000000000000000000000004D0E00006662782F35433934343837362D383543312D343734422D41303039
311
2D3034444233454531343541452F76657274696365732E62696E504B0102140014000608080021403340F270F13306000000040000003600000000000000000000000000A00E00006662782F35433934343837362D383543312D343734422D413030392D3034444233454531343541452F747269616E676C65732E62696E50
311
4B01021400140006080000214033400000000000000000000000003700000000000000000000000000FA0E00006662782F35433934343837362D383543312D343734422D413030392D3034444233454531343541452F617474726962757465732E62696E504B0102140014000608080021403340D5987DFC8F000000410100
311
0036000000000000000000000000004F0F00006662782F35433934343837362D383543312D343734422D413030392D3034444233454531343541452F6469726563746F72792E786D6C504B01021400140006080800214033400DE4E49DFC000000A00100003B00000000000000000000000000321000006662782F35433934
311
343837362D383543312D343734422D413030392D3034444233454531343541452F7265736F75726365732F636F72652E786D6C504B0506000000000E000E0080040000871100000000
310
504B03040A0000080000214033403DEE336E79000000790000001B0000006175746F6465736B2D64657369676E2D7061636B6167652E786D6C3C3F786D6C2076657273696F6E3D22312E302220656E636F64696E673D227574662D3822203F3E3C666F726D6174733E3C666F726D61743E687474703A2F2F736368656D612E
310
6175746F6465736B2E636F6D2F64657369676E2D7061636B6167652F323030393C2F666F726D61743E3C2F666F726D6174733E504B030414000608080021403340D486FD9CA0000000F4000000130000005B436F6E74656E745F54797065735D2E786D6C7D8EC10E82300C865F65E91D8A1E8C310C0EEA1BF002731658846E
310
D98AC1B77784ABF1D8FE5FBFBF75BBCE937A534CCEB38643598122B6FEE978D0B0485F9C41B54DDD7D022595594E1A469170414C76A4D9A4D207E29CF43ECE46F218070CC6BECC4078ACAA135ACF422C856C0E68EA1BF5669944DDD7BCDE7B1F8E415D77AECB980613C2E4AC91FC167A2B244592486606FC29C8FD7F045B9A
310
EF7053A7E60B504B030414000608080021403340C0466EE3ED0000007C01000008000000636F72652E786D6C75904D6EC3201085AF82668F0D76E5E00813393F3E412F8080B828315806AA1EBF3871A474D1D50C8FF7CD8C1E3FFC4C77F46D9660BDEB8016049071CA6BEBC60E52BC6206E820F8E27D7CB3017272321DAC32
310
083E2E3ECD9BA4BC8BC6C5AC3AAFCD26CA104C04A4EEB9E920A82F33C942A6981DE156CC52DDE4680AFAEA329C92D5E8B9C4EA3CCF5EAD5940F4C71363437FC69761D7E28FBE39E1BE610C1F87AAA1E7B6AE77979A972B2C78B4D36BBF5A8C8C4683A808AD30A198B69F84ED09DD93FC6CF684F072B5FF81D2ACFF836A4CDE
310
A1645DACABEDDC271640D07CC8E343F072CD22974750B9AEB9895F504B03041400060808002140334055019EA25F0000007C00000007000000636E782E786D6C4DCB3B0E80201045D1AD90E915ED2CF8AC45050C11660C8261F98AB1B07AC9C97D42D718D865D3E909258CFD00CCE24AC6E326A164D74DC0B4128928FF3260
310
38472BA13128B1252AC747C6BAB984FC68F0B87FE8960A5C09FE86CFB69FBA01504B0304140006080800214033403D879E1D69010000020300000C0000006662782F636F72652E786D6C8D52ED8E8230107C95A6FF4B0B1845536AFC7C827B810A956B84969496F8F8B70846BD78E64202656767677680AFAF4D8D7AE53A6D
310
4D8EE38861A44C614B6DAA1C077F2619466BC19DB5FEA90D23231B95E3A18C05AF9C0DED542AACF1CA78A81A5BAAA928BB4E798C8A1A0E39EE8A6FD5C848060F1DDD256A657191958AE20860E813BCF30E0CA05164B863713E5D391DEB8287A0CB09D525A8E9B3560E8BCD769765C7CD9E1C8E8B25996DE63BB2996719D91E
310
9379BC5FA6E9E290723A9005F7BAB9BB2B9C925E9558242C4E088B49BCFC62D98AC52B06AFF315639C0EED2FA4D0967F9152C29E49411B9F2693DD91D6611183911BF06B5B88C8A34EF6E0870A4E8710E1714BF83568080442F6F254DFF7B840A95785B76E064869C303EA651D14A83274BB381D51987C1B009BBD9D937C98
310
F379067C40692AB0263D1C4FC10FEA7C549DA2689523BDBF22635D23EB87B9D1E2E3FE107A4B2F6C6DDD7FD8745A954E61D2E1EF153F504B030414000608080021403340711DA91F7D0000009D0000000B0000006662782F636E782E786D6C4DCC410E83201404D0AB90BFA7528B84056050EA3D4C45638A6028343D7EB171
310
D1D54C5E2623DACFE6D0DBC6D71ABC84EB8500B2FE11A6D52F12729A3107D42A1143487F33407EDCAC848341892586BC9F34D979CC2E1575AB7F9E380CB5B9778CE08E318AA9D6A5E99BC18C34BD69EA86F39E42A544F57B2A791CAB2F504B030414000608080021403340F4319AAC2901000013020000310000006662782F
310
46463244454236302D423636342D344141302D424133442D3630354344353235383843342F636F72652E786D6C8D51CB6EC32010FC15C4293DD806EC2037C24479345FD01F2086A42831583CAA7C7ED7B523B5B75CD8D5EECCEC2C2BB68FE18EBE4D88D6BB0ED39260645CEFB575D70EE774295A8CB65204EFD31F18464E0D
310
A6C353194B710D3E8F4BA9F72E1997A0EABC364B51C5681246FD1D920EC7FECB0CAA54390122DECA51F5377535252DA10D3829620A6000CD43A617CBD3891D3FF69C147BCE9BA2D9ED20DBD5C78293F5E1B866EBB63D34A29A8952E46CF542B71AECD88B35E15591892C45B2C3D37E1F8C4A4663C9086505A1057DFF24ED86
310
D00DA90BC23784886A82FF23E551BF48CAD6A59A2D76675AC4928A6A6E48A17D3EDF9F66CC63F421A169DE2A9AFE0D4B523256D7B481FD6724EC0F92BC592463F201FE77753B03B85E74792345359D08C2EFFD204EE7943F504B030414000608080021403340C430CD9B5401000033030000300000006662782F4646324445
310
4236302D423636342D344141302D424133442D3630354344353235383843342F636E782E786D6CBD93C16EC32010447F0571B78D93C872234CA41EFA053DF48A6193D260B00057CDDF7749489A4B0E95AA5E90353BCCAC9E30DF7D4D967C4288C6BB81B635A3049CF2DAB8C34097B4AF7A4A768207EFD39D8D122727186896
310
A9E087E097B9481AF672B109556BDCB18801A25F82828872BE49AC57D26200B86A4111A611B4064D6E46FCDA43C055501C4F24BD0379797E237EFC0095226F728AE04DEE103C9FA5E9CE4489B232C68146F50E93ACE592BC8678ACB54CB26EEB6BD7839D7E9248BE70AD5C8221B97CA0F9A4A26C542347DEE050F09802D22B
310
A6749A810A39CFD62899107273365E3C822FC6A56E53BC06C10774AF575DDF63D8792678321314870A2013682A56AC5D55ACADDAA757D66F59BB65EB8A755BC67893ED828FDEDB72096320F89928EF12B84445CB9B3C7E84AFF888360159FB70FA054804505A2F746E197FC9A7EDD69BCD3FF269CEEF1B7105FC0BC437504B
310
030414000608080021403340463AF89C58070000931B0000340000006662782F46463244454236302D423636342D344141302D424133442D3630354344353235383843342F6F626A656374732E786D6CED595B6FA33814FE2B887D0E0949DA99AE28A33469AB68D599D16467B40F9590030EF5D618649B5EF6D7EFF1050234
310
B464A7FB360F0960ECE373BE73F521F8F49451E70173417276EEFADEC475308BF384B0F4DC2DE56EF4D1753E8501CF73D998E63A0C65F8DC55C36E18A43C2F0B3B94E01D2AA9EC8C5E5DFCE5881833EC3A3145429CBB22BEC319F25029F3048B7B2F411279E9EEC9F33D33B14D36E5A8B8EB102D10C74C02A730CE808A6398
310
F2DB8F13771C0663F53E0CD4BF9D351B346BDE3F6BACA56E7349989088C52F58EA90990D6269E6CF5797D393B3D1C97C3E1BCD4FA7FEE8E2EA6235F23FCC26CBD3E5F26C717906EC6DF39C5A99125C609680FE9EDDD00FC6EA4D2DBA45E010D771CE188E3590009516AB4B9060015B35E09BB41F7D2551E3B596B0F13C57EF
310
2D0B8DE1599B4ADFAC6140B4E8822076BB4AE2EADA942FDFFE0D828B2146C90596C0AD901CB46BE1E1E0156E3809C666340CB67B5D10E16448624E107528D972C4412930554D0903B3C09251CEC18194A324D09A33AFDBB6059EF9B6EB1CE2725752AA3CC30DB56345E07E580ACD19F907F33DF74D64802790B6244C7EB45C
310
CAE702BBE15930D68361A02EB3A97D6980747614A5422362DE76045D2AD75FAFDCF08FABEDD3468583C39B173C2F3097CAE8941E355F60C8F6AA50B2DBFA8334A71680300654BB720FCA3740FE33448F3D2BA0374E9EE64F733B5772C4C42EE719E8C69938A309FC4D1C5FFFABFBC65D30AE17B7B5D78727B8A982EAE3CFE3
310
D996416365F96FC019060F60F0399FD9579B1851B0E71BC2002065240ECD610842FB6EFBE4866B089C10E86115A2A10F2203BB0F701B8C2D99BD562AF7B25EC70051BBC76C889200366D91C0468F9EAE217B7012EFD5D414B10FDE937731D7C56AF3C7A6E43B14E31BEBD32BBC238C48C89A87196A61DE92E81E3F3FE63C01
310
415FE2BD69E29DD9AD04A0AD3057C0A71508EA61BF736B8318D6A5B90A37C11B3B80102A5737E8DF1011634A11C37959ED5B473765A8B5C7DB9AC10DA706E2D9B463C21C3F10555580D3EC67B41885BC1F73522810DDF0DA4856074DAF47BAEFEBCF6091F5FC9E596B06A19721FAA70E5A077068597685B405A21678BB0FE7
310
714E731E6D9F2313E95CA825808DB6B7FC681185586F94A4A8800769BFAB424A6AA48D12B2DB9502E2EA01167FAC974D73987833FFC469FE779C710ED1167C1771EB779D3D2292A114473B94F46DD7DCADA62D34C91ED21CEF28C8451E887C8E908C26094E8F81E628E267EF4A3DA5B910846101F9EA20F84D34261E0412A3
310
CD8A65A5D50ED044441996881E838022D303AE4E3BBAC68DA174789BC7DA7A5FD35893E8FF64111C412D99B38840290A39E44DC67DEF0462481B5D8372075FB0B68AB61683965042C4CFD12326E99D3C067543BE07F7188E24A58CF202C560D603C8BEF015A5D40EEF5B14DFABFC11C5257D2F031198EE2242699945F0230C
310
4E1E435CBB0E4CAFA2D0206E629FC419146548967CC826A7279317FB989AA11B021B1BED0885B01D65A8E841BD1510753DE2D4E05BEA3D4ADD965911A12C2FD92043F1665D6FB2E4BB6A556407F2AB4A45281B2BC29660181026EBAC5AC56C30751D58C18D74A07A8E04CA0A6A4E616F241EBFF6264DB977036EFDF47D37C8
310
A0F0EBD15E33A2CE2B182C8FADC2403C2219DFB9E1465F4717507F2738D9A7FAAAD66C568080988AE425275645DFD750DED81ACD0D6F9014B7D726EB56D7EF6B0FBA1FC118D640ED522F5C2BA033CC245295C98DBAA1DF1084E0160D33BE5639F5182A8B24D15523A257A44F9DAD32A2B56946BCE20EB33C831FBB252CA665
310
826F5122EEA31B49A30D51AC5B29BD8C5418BF2AE097EB4D071E181920D25755E0E1C7CE5A3BBA54E5D24122F2AECCB60C1108822DD152A31BAF60A9D548A5E5FAAACE14507781815915CF7F9D2C9AED885F278BD41AC6CF9D2C68BE45741F6D1AD93C56667DD429A04E4F8ACA7B9C0274D7A1A65A271193CBADF8D6972288
310
8955901F5C8C5531C310ECE3F83F27EDBE2468B6EBF07F5CD2F65F141C472595D664D5A43A50B8AE9B296C3A992F4E3E9C2D46ABE5077F345F2D2E4717A797A7A3E96A7572FAE1F26231FDB8E748FB6918D4B14CA72E783631AD1A564F160368CA8A9C92040EF389936208F9128EF403BAE73CC3027267B3D79DD89EFC80D5
310
0FA6CD29D196E28A933B04FD612A20AB0346652CDBE3CE6FD0999470CE3E77A167E4DDC39FB54AD781C473EE42A74092180B6F0B5D26D5CFD3C421E3EAD46F89013E88A52A239A45F573BD4A61D38AFEF5942159C0CAD56A6140DD5640F3ABD5A0D0BC599EE2A304AFD8719084DB6D29A15833B2EC076A61F4367BF51BD928
310
61F776EB2770DDD7C5F23D3DA785C8A02F06AF1A81A13A9288A7BADDAD18B32C2D565FC7D06673D65F9C829629E87238A511C760CCA5AAA7C08AC02A2CCD024930D5E5EFB75F790E5F7832471745B7CB3CCB72661F16701C4BE00B91B3B983EF3DC92D540D5875D5C5ED74E24F6F7537DB36D8A32D12D853E5100C54558412
310
A1636C60912F3A53B66F39564AE84C5FAF1C1B3EA10B602CE84573D77CDD72C07BD47714E52BDAC32B395F6D688FF554B0060EADE8F05F504B030414000608000021403340000000000000000000000000350000006662782F46463244454236302D423636342D344141302D424133442D3630354344353235383843342F76
310
657274696365732E62696E504B030414000608080021403340F270F1330600000004000000360000006662782F46463244454236302D423636342D344141302D424133442D3630354344353235383843342F747269616E676C65732E62696E636660600000504B030414000608000021403340000000000000000000000000
310
370000006662782F46463244454236302D423636342D344141302D424133442D3630354344353235383843342F617474726962757465732E62696E504B030414000608080021403340D5987DFC8F00000041010000360000006662782F46463244454236302D423636342D344141302D424133442D36303543443532353838
310
43342F6469726563746F72792E786D6C858F410EC2201045AF4266AF15DDB800BA74E7C21B903225242D6328188F2FA5C4183471359997F9FF81E89FF3C41E1816475E02DF1F80A11FC8386F25A438EECEC07A250251FC3803E6F58C12560C4AD840E95E91C151A72936F496F35732D860FE635F62C8F2DA16B505C545B741
310
25BAA2FA9E05D7CC053D063734D5C7665FD55B6B8D15D5E9BFEAFD8490FFA45E504B0304140006080800214033406190F7CEFD000000A00100003B0000006662782F46463244454236302D423636342D344141302D424133442D3630354344353235383843342F7265736F75726365732F636F72652E786D6C8D504B6E8330
310
10BD8A357B830D1501641C913439412F609909B112ECC89FAAC7AF49A8D4EEBA9919BD8FE6E989FDD772279FE8837176005E302068B59B8C9D0748F1425B207B29BC73F1970C88550B0EB0C220C5EC5D7A6C907636A28D19B56EC20D54216004A2EFF91820E82B2EAA50296645B8150FA56F6AC6821799CE3A2942F4390079
310
3D5927488FC125AF3188F2C54A919299368D99F24F7331E8418E8763DB9EC7233D9D771D7D1B9B231D9BB6A58773D5F0F7AEAE77A75A94AB598A68969F8CDAA38A3881AC18AF28E394771FACED19EF594D59D33326CA55FEC7941ED33F4DC9D858575BDC972D80E439C89390A25CFBCAEB5966DE6BB7F21B504B010214000A
310
0000080000214033403DEE336E79000000790000001B00000000000000000000000000000000006175746F6465736B2D64657369676E2D7061636B6167652E786D6C504B0102140014000608080021403340D486FD9CA0000000F40000001300000000000000000000000000B20000005B436F6E74656E745F54797065735D
310
2E786D6C504B0102140014000608080021403340C0466EE3ED0000007C010000080000000000000000000000000083010000636F72652E786D6C504B010214001400060808002140334055019EA25F0000007C000000070000000000000000000000000096020000636E782E786D6C504B0102140014000608080021403340
310
3D879E1D69010000020300000C000000000000000000000000001A0300006662782F636F72652E786D6C504B0102140014000608080021403340711DA91F7D0000009D0000000B00000000000000000000000000AD0400006662782F636E782E786D6C504B0102140014000608080021403340F4319AAC2901000013020000
310
3100000000000000000000000000530500006662782F46463244454236302D423636342D344141302D424133442D3630354344353235383843342F636F72652E786D6C504B0102140014000608080021403340C430CD9B54010000330300003000000000000000000000000000CB0600006662782F46463244454236302D42
310
3636342D344141302D424133442D3630354344353235383843342F636E782E786D6C504B0102140014000608080021403340463AF89C58070000931B000034000000000000000000000000006D0800006662782F46463244454236302D423636342D344141302D424133442D3630354344353235383843342F6F626A656374
310
732E786D6C504B01021400140006080000214033400000000000000000000000003500000000000000000000000000171000006662782F46463244454236302D423636342D344141302D424133442D3630354344353235383843342F76657274696365732E62696E504B0102140014000608080021403340F270F133060000
310
000400000036000000000000000000000000006A1000006662782F46463244454236302D423636342D344141302D424133442D3630354344353235383843342F747269616E676C65732E62696E504B01021400140006080000214033400000000000000000000000003700000000000000000000000000C41000006662782F
310
46463244454236302D423636342D344141302D424133442D3630354344353235383843342F617474726962757465732E62696E504B0102140014000608080021403340D5987DFC8F000000410100003600000000000000000000000000191100006662782F46463244454236302D423636342D344141302D424133442D3630
310
354344353235383843342F6469726563746F72792E786D6C504B01021400140006080800214033406190F7CEFD000000A00100003B00000000000000000000000000FC1100006662782F46463244454236302D423636342D344141302D424133442D3630354344353235383843342F7265736F75726365732F636F72652E78
310
6D6C504B0506000000000E000E0080040000521300000000
  0
XRECORD
  5
27
102
{ACAD_REACTORS
330
22
102
}
330
22
100
AcDbXrecord
280
     1
270
     1
271
     1
  0
XRECORD
  5
26
102
{ACAD_REACTORS
330
22
102
}
330
22
100
AcDbXrecord
280
     1
270
     1
271
     1
  0
XRECORD
  5
28
102
{ACAD_REACTORS
330
22
102
}
330
22
100
AcDbXrecord
280
     1
270
     1
271
     1
  0
XRECORD
  5
25
102
{ACAD_REACTORS
330
22
102
}
330
22
100
AcDbXrecord
280
     1
270
     1
271
     1
  0
XRECORD
  5
DED
102
{ACAD_REACTORS
330
DEC
102
}
330
DEC
100
AcDbXrecord
280
     1
102
ACAD_ROUNDTRIP_2012_MLEADER_STYLE
298
     1
  0
CELLSTYLEMAP
  5
DEB
102
{ACAD_REACTORS
330
DEA
102
}
330
DEA
100
AcDbCellStyleMap
 90
        3
300
CELLSTYLE
  1
TABLEFORMAT_BEGIN
 90
        5
170
     1
 91
        0
 92
    32768
 62
   257
 93
        1
300
CONTENTFORMAT
  1
CONTENTFORMAT_BEGIN
 90
        0
 91
        0
 92
      512
 93
        0
300

 40
0.0
140
1.0
 94
        5
 62
     0
340
55
144
0.25
309
CONTENTFORMAT_END
171
     0
 94
        0
309
TABLEFORMAT_END
  1
CELLSTYLE_BEGIN
 90
        1
 91
        1
300
_TITLE
309
CELLSTYLE_END
300
CELLSTYLE
  1
TABLEFORMAT_BEGIN
 90
        5
170
     1
 91
        0
 92
        0
 62
   257
 93
        1
300
CONTENTFORMAT
  1
CONTENTFORMAT_BEGIN
 90
        0
 91
        0
 92
      512
 93
        0
300

 40
0.0
140
1.0
 94
        5
 62
     0
340
55
144
0.18
309
CONTENTFORMAT_END
171
     0
 94
        0
309
TABLEFORMAT_END
  1
CELLSTYLE_BEGIN
 90
        2
 91
        1
300
_HEADER
309
CELLSTYLE_END
300
CELLSTYLE
  1
TABLEFORMAT_BEGIN
 90
        5
170
     1
 91
        0
 92
        0
 62
   257
 93
        1
300
CONTENTFORMAT
  1
CONTENTFORMAT_BEGIN
 90
        0
 91
        0
 92
      512
 93
        0
300

 40
0.0
140
1.0
 94
        2
 62
     0
340
55
144
0.18
309
CONTENTFORMAT_END
171
     0
 94
        0
309
TABLEFORMAT_END
  1
CELLSTYLE_BEGIN
 90
        3
 91
        2
300
_DATA
309
CELLSTYLE_END
  0
XRECORD
  5
E25
102
{ACAD_REACTORS
330
DEA
102
}
330
DEA
100
AcDbXrecord
280
     1
102
ACAD_ROUNDTRIP_PRE2007_TABLESTYLE
 90
      512
 91
        0
  1

 92
      512
 93
        0
  2

 94
      512
 95
        0
  3

  0
XRECORD
  5
E00
102
{ACAD_REACTORS
330
DFF
102
}
330
DFF
100
AcDbXrecord
280
     1
102
RTVSPropertyOp0
 70
     1
102
RTVSPropertyOp1
 70
     1
102
RTVSPropertyOp2
 70
     1
102
RTVSPropertyOp3
 70
     1
102
RTVSPropertyOp4
 70
     1
102
RTVSPropertyOp5
 70
     1
102
RTVSPropertyOp6
 70
     1
102
RTVSPropertyOp7
 70
     1
102
RTVSPropertyOp8
 70
     1
102
RTVSPropertyOp9
 70
     1
102
RTVSPropertyOp10
 70
     1
102
RTVSPropertyOp11
 70
     1
102
RTVSPropertyOp12
 70
     1
102
RTVSPropertyOp13
 70
     1
102
RTVSPropertyOp14
 70
     1
102
RTVSPropertyOp15
 70
     1
102
RTVSPropertyOp16
 70
     1
102
RTVSPropertyOp17
 70
     1
102
RTVSPropertyOp18
 70
     1
102
RTVSPropertyOp19
 70
     1
102
RTVSPropertyOp20
 70
     1
102
RTVSPropertyOp21
 70
     1
102
RTVSPropertyOp22
 70
     1
102
RTVSPropertyOp23
 70
     1
102
RTVSPropertyOp24
 70
     1
102
RTVSPropertyOp25
 70
     1
102
RTVSPropertyOp26
 70
     1
102
RTVSPropertyOp27
 70
     1
102
RTVSPropertyOp28
 70
     1
102
RTVSPropertyOp29
 70
     1
102
RTVSPropertyOp30
 70
     1
102
RTVSPropertyOp31
 70
     1
102
RTVSPropertyOp32
 70
     1
  0
XRECORD
  5
DFE
102
{ACAD_REACTORS
330
DFD
102
}
330
DFD
100
AcDbXrecord
280
     1
102
RTVSPropertyOp0
 70
     1
102
RTVSPropertyOp1
 70
     1
102
RTVSPropertyOp2
 70
     1
102
RTVSPropertyOp3
 70
     1
102
RTVSPropertyOp4
 70
     1
102
RTVSPropertyOp5
 70
     1
102
RTVSPropertyOp6
 70
     1
102
RTVSPropertyOp7
 70
     1
102
RTVSPropertyOp8
 70
     1
102
RTVSPropertyOp9
 70
     1
102
RTVSPropertyOp10
 70
     1
102
RTVSPropertyOp11
 70
     1
102
RTVSPropertyOp12
 70
     1
102
RTVSPropertyOp13
 70
     1
102
RTVSPropertyOp14
 70
     1
102
RTVSPropertyOp15
 70
     1
102
RTVSPropertyOp16
 70
     1
102
RTVSPropertyOp17
 70
     1
102
RTVSPropertyOp18
 70
     1
102
RTVSPropertyOp19
 70
     1
102
RTVSPropertyOp20
 70
     1
102
RTVSPropertyOp21
 70
     1
102
RTVSPropertyOp22
 70
     1
102
RTVSPropertyOp23
 70
     1
102
RTVSPropertyOp24
 70
     1
102
RTVSPropertyOp25
 70
     1
102
RTVSPropertyOp26
 70
     1
102
RTVSPropertyOp27
 70
     1
102
RTVSPropertyOp28
 70
     1
102
RTVSPropertyOp29
 70
     1
102
RTVSPropertyOp30
 70
     1
102
RTVSPropertyOp31
 70
     1
102
RTVSPropertyOp32
 70
     1
  0
XRECORD
  5
E0C
102
{ACAD_REACTORS
330
E0B
102
}
330
E0B
100
AcDbXrecord
280
     1
102
RTVSPropertyOp0
 70
     1
102
RTVSPropertyOp1
 70
     1
102
RTVSPropertyOp2
 70
     1
102
RTVSPropertyOp3
 70
     1
102
RTVSPropertyOp4
 70
     1
102
RTVSPropertyOp5
 70
     1
102
RTVSPropertyOp6
 70
     1
102
RTVSPropertyOp7
 70
     1
102
RTVSPropertyOp8
 70
     1
102
RTVSPropertyOp9
 70
     1
102
RTVSPropertyOp10
 70
     1
102
RTVSPropertyOp11
 70
     1
102
RTVSPropertyOp12
 70
     1
102
RTVSPropertyOp13
 70
     1
102
RTVSPropertyOp14
 70
     1
102
RTVSPropertyOp15
 70
     1
102
RTVSPropertyOp16
 70
     1
102
RTVSPropertyOp17
 70
     1
102
RTVSPropertyOp18
 70
     1
102
RTVSPropertyOp19
 70
     1
102
RTVSPropertyOp20
 70
     1
102
RTVSPropertyOp21
 70
     1
102
RTVSPropertyOp22
 70
     1
102
RTVSPropertyOp23
 70
     1
102
RTVSPropertyOp24
 70
     1
102
RTVSPropertyOp25
 70
     1
102
RTVSPropertyOp26
 70
     1
102
RTVSPropertyOp27
 70
     1
102
RTVSPropertyOp28
 70
     1
102
RTVSPropertyOp29
 70
     1
102
RTVSPropertyOp30
 70
     1
102
RTVSPropertyOp31
 70
     1
102
RTVSPropertyOp32
 70
     1
  0
XRECORD
  5
E14
102
{ACAD_REACTORS
330
E13
102
}
330
E13
100
AcDbXrecord
280
     1
102
RTVSPropertyOp0
 70
     1
102
RTVSPropertyOp1
 70
     1
102
RTVSPropertyOp2
 70
     1
102
RTVSPropertyOp3
 70
     1
102
RTVSPropertyOp4
 70
     1
102
RTVSPropertyOp5
 70
     1
102
RTVSPropertyOp6
 70
     1
102
RTVSPropertyOp7
 70
     1
102
RTVSPropertyOp8
 70
     1
102
RTVSPropertyOp9
 70
     1
102
RTVSPropertyOp10
 70
     1
102
RTVSPropertyOp11
 70
     1
102
RTVSPropertyOp12
 70
     1
102
RTVSPropertyOp13
 70
     1
102
RTVSPropertyOp14
 70
     1
102
RTVSPropertyOp15
 70
     1
102
RTVSPropertyOp16
 70
     1
102
RTVSPropertyOp17
 70
     1
102
RTVSPropertyOp18
 70
     1
102
RTVSPropertyOp19
 70
     1
102
RTVSPropertyOp20
 70
     1
102
RTVSPropertyOp21
 70
     1
102
RTVSPropertyOp22
 70
     1
102
RTVSPropertyOp23
 70
     1
102
RTVSPropertyOp24
 70
     1
102
RTVSPropertyOp25
 70
     1
102
RTVSPropertyOp26
 70
     1
102
RTVSPropertyOp27
 70
     1
102
RTVSPropertyOp28
 70
     1
102
RTVSPropertyOp29
 70
     1
102
RTVSPropertyOp30
 70
     1
102
RTVSPropertyOp31
 70
     1
102
RTVSPropertyOp32
 70
     1
  0
XRECORD
  5
E06
102
{ACAD_REACTORS
330
E05
102
}
330
E05
100
AcDbXrecord
280
     1
102
RTVSPropertyOp0
 70
     1
102
RTVSPropertyOp1
 70
     1
102
RTVSPropertyOp2
 70
     1
102
RTVSPropertyOp3
 70
     1
102
RTVSPropertyOp4
 70
     1
102
RTVSPropertyOp5
 70
     1
102
RTVSPropertyOp6
 70
     1
102
RTVSPropertyOp7
 70
     1
102
RTVSPropertyOp8
 70
     1
102
RTVSPropertyOp9
 70
     1
102
RTVSPropertyOp10
 70
     1
102
RTVSPropertyOp11
 70
     1
102
RTVSPropertyOp12
 70
     1
102
RTVSPropertyOp13
 70
     1
102
RTVSPropertyOp14
 70
     1
102
RTVSPropertyOp15
 70
     1
102
RTVSPropertyOp16
 70
     1
102
RTVSPropertyOp17
 70
     1
102
RTVSPropertyOp18
 70
     1
102
RTVSPropertyOp19
 70
     1
102
RTVSPropertyOp20
 70
     1
102
RTVSPropertyOp21
 70
     1
102
RTVSPropertyOp22
 70
     1
102
RTVSPropertyOp23
 70
     1
102
RTVSPropertyOp24
 70
     1
102
RTVSPropertyOp25
 70
     1
102
RTVSPropertyOp26
 70
     1
102
RTVSPropertyOp27
 70
     1
102
RTVSPropertyOp28
 70
     1
102
RTVSPropertyOp29
 70
     1
102
RTVSPropertyOp30
 70
     1
102
RTVSPropertyOp31
 70
     1
102
RTVSPropertyOp32
 70
     1
  0
XRECORD
  5
E0A
102
{ACAD_REACTORS
330
E09
102
}
330
E09
100
AcDbXrecord
280
     1
102
RTVSPropertyOp0
 70
     1
102
RTVSPropertyOp1
 70
     1
102
RTVSPropertyOp2
 70
     1
102
RTVSPropertyOp3
 70
     1
102
RTVSPropertyOp4
 70
     1
102
RTVSPropertyOp5
 70
     1
102
RTVSPropertyOp6
 70
     1
102
RTVSPropertyOp7
 70
     1
102
RTVSPropertyOp8
 70
     1
102
RTVSPropertyOp9
 70
     1
102
RTVSPropertyOp10
 70
     1
102
RTVSPropertyOp11
 70
     1
102
RTVSPropertyOp12
 70
     1
102
RTVSPropertyOp13
 70
     1
102
RTVSPropertyOp14
 70
     1
102
RTVSPropertyOp15
 70
     1
102
RTVSPropertyOp16
 70
     1
102
RTVSPropertyOp17
 70
     1
102
RTVSPropertyOp18
 70
     1
102
RTVSPropertyOp19
 70
     1
102
RTVSPropertyOp20
 70
     1
102
RTVSPropertyOp21
 70
     1
102
RTVSPropertyOp22
 70
     1
102
RTVSPropertyOp23
 70
     1
102
RTVSPropertyOp24
 70
     1
102
RTVSPropertyOp25
 70
     1
102
RTVSPropertyOp26
 70
     1
102
RTVSPropertyOp27
 70
     1
102
RTVSPropertyOp28
 70
     1
102
RTVSPropertyOp29
 70
     1
102
RTVSPropertyOp30
 70
     1
102
RTVSPropertyOp31
 70
     1
102
RTVSPropertyOp32
 70
     1
  0
XRECORD
  5
E24
102
{ACAD_REACTORS
330
E23
102
}
330
E23
100
AcDbXrecord
280
     1
102
RTVSPropertyOp0
 70
     0
102
RTVSPropertyOp1
 70
     0
102
RTVSPropertyOp2
 70
     0
102
RTVSPropertyOp3
 70
     0
102
RTVSPropertyOp4
 70
     0
102
RTVSPropertyOp5
 70
     0
102
RTVSPropertyOp6
 70
     0
102
RTVSPropertyOp7
 70
     0
102
RTVSPropertyOp8
 70
     0
102
RTVSPropertyOp9
 70
     0
102
RTVSPropertyOp10
 70
     0
102
RTVSPropertyOp11
 70
     0
102
RTVSPropertyOp12
 70
     0
102
RTVSPropertyOp13
 70
     0
102
RTVSPropertyOp14
 70
     2
102
RTVSPropertyOp15
 70
     0
102
RTVSPropertyOp16
 70
     0
102
RTVSPropertyOp17
 70
     0
102
RTVSPropertyOp18
 70
     0
102
RTVSPropertyOp19
 70
     0
102
RTVSPropertyOp20
 70
     0
102
RTVSPropertyOp21
 70
     0
102
RTVSPropertyOp22
 70
     0
102
RTVSPropertyOp23
 70
     0
102
RTVSPropertyOp24
 70
     0
102
RTVSPropertyOp25
 70
     0
102
RTVSPropertyOp26
 70
     0
102
RTVSPropertyOp27
 70
     0
102
RTVSPropertyOp28
 70
     1
102
RTVSPropertyOp29
 70
     1
102
RTVSPropertyOp30
 70
     1
102
RTVSPropertyOp31
 70
     1
102
RTVSPropertyOp32
 70
     1
  0
XRECORD
  5
E12
102
{ACAD_REACTORS
330
E11
102
}
330
E11
100
AcDbXrecord
280
     1
102
RTVSPropertyOp0
 70
     1
102
RTVSPropertyOp1
 70
     1
102
RTVSPropertyOp2
 70
     1
102
RTVSPropertyOp3
 70
     1
102
RTVSPropertyOp4
 70
     1
102
RTVSPropertyOp5
 70
     1
102
RTVSPropertyOp6
 70
     1
102
RTVSPropertyOp7
 70
     1
102
RTVSPropertyOp8
 70
     1
102
RTVSPropertyOp9
 70
     1
102
RTVSPropertyOp10
 70
     1
102
RTVSPropertyOp11
 70
     1
102
RTVSPropertyOp12
 70
     1
102
RTVSPropertyOp13
 70
     1
102
RTVSPropertyOp14
 70
     1
102
RTVSPropertyOp15
 70
     1
102
RTVSPropertyOp16
 70
     1
102
RTVSPropertyOp17
 70
     1
102
RTVSPropertyOp18
 70
     1
102
RTVSPropertyOp19
 70
     1
102
RTVSPropertyOp20
 70
     1
102
RTVSPropertyOp21
 70
     1
102
RTVSPropertyOp22
 70
     1
102
RTVSPropertyOp23
 70
     1
102
RTVSPropertyOp24
 70
     1
102
RTVSPropertyOp25
 70
     1
102
RTVSPropertyOp26
 70
     1
102
RTVSPropertyOp27
 70
     1
102
RTVSPropertyOp28
 70
     1
102
RTVSPropertyOp29
 70
     1
102
RTVSPropertyOp30
 70
     1
102
RTVSPropertyOp31
 70
     1
102
RTVSPropertyOp32
 70
     1
  0
XRECORD
  5
DF6
102
{ACAD_REACTORS
330
DF5
102
}
330
DF5
100
AcDbXrecord
280
     1
102
RTVSPropertyOp0
 70
     1
102
RTVSPropertyOp1
 70
     1
102
RTVSPropertyOp2
 70
     1
102
RTVSPropertyOp3
 70
     1
102
RTVSPropertyOp4
 70
     1
102
RTVSPropertyOp5
 70
     1
102
RTVSPropertyOp6
 70
     1
102
RTVSPropertyOp7
 70
     1
102
RTVSPropertyOp8
 70
     1
102
RTVSPropertyOp9
 70
     1
102
RTVSPropertyOp10
 70
     1
102
RTVSPropertyOp11
 70
     1
102
RTVSPropertyOp12
 70
     1
102
RTVSPropertyOp13
 70
     1
102
RTVSPropertyOp14
 70
     1
102
RTVSPropertyOp15
 70
     1
102
RTVSPropertyOp16
 70
     1
102
RTVSPropertyOp17
 70
     1
102
RTVSPropertyOp18
 70
     1
102
RTVSPropertyOp19
 70
     1
102
RTVSPropertyOp20
 70
     1
102
RTVSPropertyOp21
 70
     1
102
RTVSPropertyOp22
 70
     1
102
RTVSPropertyOp23
 70
     1
102
RTVSPropertyOp24
 70
     1
102
RTVSPropertyOp25
 70
     1
102
RTVSPropertyOp26
 70
     1
102
RTVSPropertyOp27
 70
     1
102
RTVSPropertyOp28
 70
     1
102
RTVSPropertyOp29
 70
     1
102
RTVSPropertyOp30
 70
     1
102
RTVSPropertyOp31
 70
     1
102
RTVSPropertyOp32
 70
     1
  0
XRECORD
  5
DF8
102
{ACAD_REACTORS
330
DF7
102
}
330
DF7
100
AcDbXrecord
280
     1
102
RTVSPropertyOp0
 70
     1
102
RTVSPropertyOp1
 70
     1
102
RTVSPropertyOp2
 70
     1
102
RTVSPropertyOp3
 70
     1
102
RTVSPropertyOp4
 70
     1
102
RTVSPropertyOp5
 70
     1
102
RTVSPropertyOp6
 70
     1
102
RTVSPropertyOp7
 70
     1
102
RTVSPropertyOp8
 70
     1
102
RTVSPropertyOp9
 70
     1
102
RTVSPropertyOp10
 70
     1
102
RTVSPropertyOp11
 70
     1
102
RTVSPropertyOp12
 70
     1
102
RTVSPropertyOp13
 70
     1
102
RTVSPropertyOp14
 70
     1
102
RTVSPropertyOp15
 70
     1
102
RTVSPropertyOp16
 70
     1
102
RTVSPropertyOp17
 70
     1
102
RTVSPropertyOp18
 70
     1
102
RTVSPropertyOp19
 70
     1
102
RTVSPropertyOp20
 70
     1
102
RTVSPropertyOp21
 70
     1
102
RTVSPropertyOp22
 70
     1
102
RTVSPropertyOp23
 70
     1
102
RTVSPropertyOp24
 70
     1
102
RTVSPropertyOp25
 70
     1
102
RTVSPropertyOp26
 70
     1
102
RTVSPropertyOp27
 70
     1
102
RTVSPropertyOp28
 70
     1
102
RTVSPropertyOp29
 70
     1
102
RTVSPropertyOp30
 70
     1
102
RTVSPropertyOp31
 70
     1
102
RTVSPropertyOp32
 70
     1
  0
XRECORD
  5
DFA
102
{ACAD_REACTORS
330
DF9
102
}
330
DF9
100
AcDbXrecord
280
     1
102
RTVSPropertyOp0
 70
     1
102
RTVSPropertyOp1
 70
     1
102
RTVSPropertyOp2
 70
     1
102
RTVSPropertyOp3
 70
     1
102
RTVSPropertyOp4
 70
     1
102
RTVSPropertyOp5
 70
     1
102
RTVSPropertyOp6
 70
     1
102
RTVSPropertyOp7
 70
     1
102
RTVSPropertyOp8
 70
     1
102
RTVSPropertyOp9
 70
     1
102
RTVSPropertyOp10
 70
     1
102
RTVSPropertyOp11
 70
     1
102
RTVSPropertyOp12
 70
     1
102
RTVSPropertyOp13
 70
     1
102
RTVSPropertyOp14
 70
     1
102
RTVSPropertyOp15
 70
     1
102
RTVSPropertyOp16
 70
     1
102
RTVSPropertyOp17
 70
     1
102
RTVSPropertyOp18
 70
     1
102
RTVSPropertyOp19
 70
     1
102
RTVSPropertyOp20
 70
     1
102
RTVSPropertyOp21
 70
     1
102
RTVSPropertyOp22
 70
     1
102
RTVSPropertyOp23
 70
     1
102
RTVSPropertyOp24
 70
     1
102
RTVSPropertyOp25
 70
     1
102
RTVSPropertyOp26
 70
     1
102
RTVSPropertyOp27
 70
     1
102
RTVSPropertyOp28
 70
     1
102
RTVSPropertyOp29
 70
     1
102
RTVSPropertyOp30
 70
     1
102
RTVSPropertyOp31
 70
     1
102
RTVSPropertyOp32
 70
     1
  0
XRECORD
  5
DFC
102
{ACAD_REACTORS
330
DFB
102
}
330
DFB
100
AcDbXrecord
280
     1
102
RTVSPropertyOp0
 70
     1
102
RTVSPropertyOp1
 70
     1
102
RTVSPropertyOp2
 70
     1
102
RTVSPropertyOp3
 70
     1
102
RTVSPropertyOp4
 70
     1
102
RTVSPropertyOp5
 70
     1
102
RTVSPropertyOp6
 70
     1
102
RTVSPropertyOp7
 70
     1
102
RTVSPropertyOp8
 70
     1
102
RTVSPropertyOp9
 70
     1
102
RTVSPropertyOp10
 70
     1
102
RTVSPropertyOp11
 70
     1
102
RTVSPropertyOp12
 70
     1
102
RTVSPropertyOp13
 70
     1
102
RTVSPropertyOp14
 70
     1
102
RTVSPropertyOp15
 70
     1
102
RTVSPropertyOp16
 70
     1
102
RTVSPropertyOp17
 70
     1
102
RTVSPropertyOp18
 70
     1
102
RTVSPropertyOp19
 70
     1
102
RTVSPropertyOp20
 70
     1
102
RTVSPropertyOp21
 70
     1
102
RTVSPropertyOp22
 70
     1
102
RTVSPropertyOp23
 70
     1
102
RTVSPropertyOp24
 70
     1
102
RTVSPropertyOp25
 70
     1
102
RTVSPropertyOp26
 70
     1
102
RTVSPropertyOp27
 70
     1
102
RTVSPropertyOp28
 70
     1
102
RTVSPropertyOp29
 70
     1
102
RTVSPropertyOp30
 70
     1
102
RTVSPropertyOp31
 70
     1
102
RTVSPropertyOp32
 70
     1
  0
XRECORD
  5
E04
102
{ACAD_REACTORS
330
E03
102
}
330
E03
100
AcDbXrecord
280
     1
102
RTVSPropertyOp0
 70
     1
102
RTVSPropertyOp1
 70
     1
102
RTVSPropertyOp2
 70
     1
102
RTVSPropertyOp3
 70
     1
102
RTVSPropertyOp4
 70
     1
102
RTVSPropertyOp5
 70
     1
102
RTVSPropertyOp6
 70
     1
102
RTVSPropertyOp7
 70
     1
102
RTVSPropertyOp8
 70
     1
102
RTVSPropertyOp9
 70
     1
102
RTVSPropertyOp10
 70
     1
102
RTVSPropertyOp11
 70
     1
102
RTVSPropertyOp12
 70
     1
102
RTVSPropertyOp13
 70
     1
102
RTVSPropertyOp14
 70
     1
102
RTVSPropertyOp15
 70
     1
102
RTVSPropertyOp16
 70
     1
102
RTVSPropertyOp17
 70
     1
102
RTVSPropertyOp18
 70
     1
102
RTVSPropertyOp19
 70
     1
102
RTVSPropertyOp20
 70
     1
102
RTVSPropertyOp21
 70
     1
102
RTVSPropertyOp22
 70
     1
102
RTVSPropertyOp23
 70
     1
102
RTVSPropertyOp24
 70
     1
102
RTVSPropertyOp25
 70
     1
102
RTVSPropertyOp26
 70
     1
102
RTVSPropertyOp27
 70
     1
102
RTVSPropertyOp28
 70
     1
102
RTVSPropertyOp29
 70
     1
102
RTVSPropertyOp30
 70
     1
102
RTVSPropertyOp31
 70
     1
102
RTVSPropertyOp32
 70
     1
  0
XRECORD
  5
E20
102
{ACAD_REACTORS
330
E1F
102
}
330
E1F
100
AcDbXrecord
280
     1
102
RTVSPropertyOp0
 70
     0
102
RTVSPropertyOp1
 70
     0
102
RTVSPropertyOp2
 70
     0
102
RTVSPropertyOp3
 70
     0
102
RTVSPropertyOp4
 70
     0
102
RTVSPropertyOp5
 70
     0
102
RTVSPropertyOp6
 70
     0
102
RTVSPropertyOp7
 70
     0
102
RTVSPropertyOp8
 70
     0
102
RTVSPropertyOp9
 70
     0
102
RTVSPropertyOp10
 70
     0
102
RTVSPropertyOp11
 70
     0
102
RTVSPropertyOp12
 70
     0
102
RTVSPropertyOp13
 70
     0
102
RTVSPropertyOp14
 70
     2
102
RTVSPropertyOp15
 70
     0
102
RTVSPropertyOp16
 70
     0
102
RTVSPropertyOp17
 70
     0
102
RTVSPropertyOp18
 70
     0
102
RTVSPropertyOp19
 70
     0
102
RTVSPropertyOp20
 70
     0
102
RTVSPropertyOp21
 70
     0
102
RTVSPropertyOp22
 70
     0
102
RTVSPropertyOp23
 70
     0
102
RTVSPropertyOp24
 70
     0
102
RTVSPropertyOp25
 70
     0
102
RTVSPropertyOp26
 70
     0
102
RTVSPropertyOp27
 70
     0
102
RTVSPropertyOp28
 70
     1
102
RTVSPropertyOp29
 70
     1
102
RTVSPropertyOp30
 70
     1
102
RTVSPropertyOp31
 70
     1
102
RTVSPropertyOp32
 70
     1
  0
XRECORD
  5
E10
102
{ACAD_REACTORS
330
E0F
102
}
330
E0F
100
AcDbXrecord
280
     1
102
RTVSPropertyOp0
 70
     1
102
RTVSPropertyOp1
 70
     1
102
RTVSPropertyOp2
 70
     1
102
RTVSPropertyOp3
 70
     1
102
RTVSPropertyOp4
 70
     1
102
RTVSPropertyOp5
 70
     1
102
RTVSPropertyOp6
 70
     1
102
RTVSPropertyOp7
 70
     1
102
RTVSPropertyOp8
 70
     1
102
RTVSPropertyOp9
 70
     1
102
RTVSPropertyOp10
 70
     1
102
RTVSPropertyOp11
 70
     1
102
RTVSPropertyOp12
 70
     1
102
RTVSPropertyOp13
 70
     1
102
RTVSPropertyOp14
 70
     1
102
RTVSPropertyOp15
 70
     1
102
RTVSPropertyOp16
 70
     1
102
RTVSPropertyOp17
 70
     1
102
RTVSPropertyOp18
 70
     1
102
RTVSPropertyOp19
 70
     1
102
RTVSPropertyOp20
 70
     1
102
RTVSPropertyOp21
 70
     1
102
RTVSPropertyOp22
 70
     1
102
RTVSPropertyOp23
 70
     1
102
RTVSPropertyOp24
 70
     1
102
RTVSPropertyOp25
 70
     1
102
RTVSPropertyOp26
 70
     1
102
RTVSPropertyOp27
 70
     1
102
RTVSPropertyOp28
 70
     1
102
RTVSPropertyOp29
 70
     1
102
RTVSPropertyOp30
 70
     1
102
RTVSPropertyOp31
 70
     1
102
RTVSPropertyOp32
 70
     1
  0
XRECORD
  5
E22
102
{ACAD_REACTORS
330
E21
102
}
330
E21
100
AcDbXrecord
280
     1
102
RTVSPropertyOp0
 70
     0
102
RTVSPropertyOp1
 70
     0
102
RTVSPropertyOp2
 70
     0
102
RTVSPropertyOp3
 70
     0
102
RTVSPropertyOp4
 70
     0
102
RTVSPropertyOp5
 70
     0
102
RTVSPropertyOp6
 70
     0
102
RTVSPropertyOp7
 70
     0
102
RTVSPropertyOp8
 70
     0
102
RTVSPropertyOp9
 70
     0
102
RTVSPropertyOp10
 70
     0
102
RTVSPropertyOp11
 70
     0
102
RTVSPropertyOp12
 70
     0
102
RTVSPropertyOp13
 70
     0
102
RTVSPropertyOp14
 70
     2
102
RTVSPropertyOp15
 70
     0
102
RTVSPropertyOp16
 70
     0
102
RTVSPropertyOp17
 70
     0
102
RTVSPropertyOp18
 70
     0
102
RTVSPropertyOp19
 70
     0
102
RTVSPropertyOp20
 70
     0
102
RTVSPropertyOp21
 70
     0
102
RTVSPropertyOp22
 70
     0
102
RTVSPropertyOp23
 70
     0
102
RTVSPropertyOp24
 70
     0
102
RTVSPropertyOp25
 70
     0
102
RTVSPropertyOp26
 70
     0
102
RTVSPropertyOp27
 70
     0
102
RTVSPropertyOp28
 70
     1
102
RTVSPropertyOp29
 70
     1
102
RTVSPropertyOp30
 70
     1
102
RTVSPropertyOp31
 70
     1
102
RTVSPropertyOp32
 70
     1
  0
XRECORD
  5
E08
102
{ACAD_REACTORS
330
E07
102
}
330
E07
100
AcDbXrecord
280
     1
102
RTVSPropertyOp0
 70
     1
102
RTVSPropertyOp1
 70
     1
102
RTVSPropertyOp2
 70
     1
102
RTVSPropertyOp3
 70
     1
102
RTVSPropertyOp4
 70
     1
102
RTVSPropertyOp5
 70
     1
102
RTVSPropertyOp6
 70
     1
102
RTVSPropertyOp7
 70
     1
102
RTVSPropertyOp8
 70
     1
102
RTVSPropertyOp9
 70
     1
102
RTVSPropertyOp10
 70
     1
102
RTVSPropertyOp11
 70
     1
102
RTVSPropertyOp12
 70
     1
102
RTVSPropertyOp13
 70
     1
102
RTVSPropertyOp14
 70
     1
102
RTVSPropertyOp15
 70
     1
102
RTVSPropertyOp16
 70
     1
102
RTVSPropertyOp17
 70
     1
102
RTVSPropertyOp18
 70
     1
102
RTVSPropertyOp19
 70
     1
102
RTVSPropertyOp20
 70
     1
102
RTVSPropertyOp21
 70
     1
102
RTVSPropertyOp22
 70
     1
102
RTVSPropertyOp23
 70
     1
102
RTVSPropertyOp24
 70
     1
102
RTVSPropertyOp25
 70
     1
102
RTVSPropertyOp26
 70
     1
102
RTVSPropertyOp27
 70
     1
102
RTVSPropertyOp28
 70
     1
102
RTVSPropertyOp29
 70
     1
102
RTVSPropertyOp30
 70
     1
102
RTVSPropertyOp31
 70
     1
102
RTVSPropertyOp32
 70
     1
  0
XRECORD
  5
E1E
102
{ACAD_REACTORS
330
E1D
102
}
330
E1D
100
AcDbXrecord
280
     1
102
RTVSPropertyOp0
 70
     1
102
RTVSPropertyOp1
 70
     1
102
RTVSPropertyOp2
 70
     1
102
RTVSPropertyOp3
 70
     1
102
RTVSPropertyOp4
 70
     1
102
RTVSPropertyOp5
 70
     1
102
RTVSPropertyOp6
 70
     1
102
RTVSPropertyOp7
 70
     1
102
RTVSPropertyOp8
 70
     1
102
RTVSPropertyOp9
 70
     1
102
RTVSPropertyOp10
 70
     1
102
RTVSPropertyOp11
 70
     1
102
RTVSPropertyOp12
 70
     1
102
RTVSPropertyOp13
 70
     1
102
RTVSPropertyOp14
 70
     1
102
RTVSPropertyOp15
 70
     1
102
RTVSPropertyOp16
 70
     1
102
RTVSPropertyOp17
 70
     1
102
RTVSPropertyOp18
 70
     1
102
RTVSPropertyOp19
 70
     1
102
RTVSPropertyOp20
 70
     1
102
RTVSPropertyOp21
 70
     1
102
RTVSPropertyOp22
 70
     1
102
RTVSPropertyOp23
 70
     1
102
RTVSPropertyOp24
 70
     1
102
RTVSPropertyOp25
 70
     1
102
RTVSPropertyOp26
 70
     1
102
RTVSPropertyOp27
 70
     1
102
RTVSPropertyOp28
 70
     1
102
RTVSPropertyOp29
 70
     1
102
RTVSPropertyOp30
 70
     1
102
RTVSPropertyOp31
 70
     1
102
RTVSPropertyOp32
 70
     1
  0
XRECORD
  5
E1C
102
{ACAD_REACTORS
330
E1B
102
}
330
E1B
100
AcDbXrecord
280
     1
102
RTVSPropertyOp0
 70
     1
102
RTVSPropertyOp1
 70
     1
102
RTVSPropertyOp2
 70
     1
102
RTVSPropertyOp3
 70
     1
102
RTVSPropertyOp4
 70
     1
102
RTVSPropertyOp5
 70
     1
102
RTVSPropertyOp6
 70
     1
102
RTVSPropertyOp7
 70
     1
102
RTVSPropertyOp8
 70
     1
102
RTVSPropertyOp9
 70
     1
102
RTVSPropertyOp10
 70
     1
102
RTVSPropertyOp11
 70
     1
102
RTVSPropertyOp12
 70
     1
102
RTVSPropertyOp13
 70
     1
102
RTVSPropertyOp14
 70
     1
102
RTVSPropertyOp15
 70
     1
102
RTVSPropertyOp16
 70
     1
102
RTVSPropertyOp17
 70
     1
102
RTVSPropertyOp18
 70
     1
102
RTVSPropertyOp19
 70
     1
102
RTVSPropertyOp20
 70
     1
102
RTVSPropertyOp21
 70
     1
102
RTVSPropertyOp22
 70
     1
102
RTVSPropertyOp23
 70
     1
102
RTVSPropertyOp24
 70
     1
102
RTVSPropertyOp25
 70
     1
102
RTVSPropertyOp26
 70
     1
102
RTVSPropertyOp27
 70
     1
102
RTVSPropertyOp28
 70
     1
102
RTVSPropertyOp29
 70
     1
102
RTVSPropertyOp30
 70
     1
102
RTVSPropertyOp31
 70
     1
102
RTVSPropertyOp32
 70
     1
  0
XRECORD
  5
E16
102
{ACAD_REACTORS
330
E15
102
}
330
E15
100
AcDbXrecord
280
     1
102
RTVSPropertyOp0
 70
     1
102
RTVSPropertyOp1
 70
     1
102
RTVSPropertyOp2
 70
     1
102
RTVSPropertyOp3
 70
     1
102
RTVSPropertyOp4
 70
     1
102
RTVSPropertyOp5
 70
     1
102
RTVSPropertyOp6
 70
     1
102
RTVSPropertyOp7
 70
     1
102
RTVSPropertyOp8
 70
     1
102
RTVSPropertyOp9
 70
     1
102
RTVSPropertyOp10
 70
     1
102
RTVSPropertyOp11
 70
     1
102
RTVSPropertyOp12
 70
     1
102
RTVSPropertyOp13
 70
     1
102
RTVSPropertyOp14
 70
     1
102
RTVSPropertyOp15
 70
     1
102
RTVSPropertyOp16
 70
     1
102
RTVSPropertyOp17
 70
     1
102
RTVSPropertyOp18
 70
     1
102
RTVSPropertyOp19
 70
     1
102
RTVSPropertyOp20
 70
     1
102
RTVSPropertyOp21
 70
     1
102
RTVSPropertyOp22
 70
     1
102
RTVSPropertyOp23
 70
     1
102
RTVSPropertyOp24
 70
     1
102
RTVSPropertyOp25
 70
     1
102
RTVSPropertyOp26
 70
     1
102
RTVSPropertyOp27
 70
     1
102
RTVSPropertyOp28
 70
     1
102
RTVSPropertyOp29
 70
     1
102
RTVSPropertyOp30
 70
     1
102
RTVSPropertyOp31
 70
     1
102
RTVSPropertyOp32
 70
     1
  0
XRECORD
  5
E18
102
{ACAD_REACTORS
330
E17
102
}
330
E17
100
AcDbXrecord
280
     1
102
RTVSPropertyOp0
 70
     1
102
RTVSPropertyOp1
 70
     1
102
RTVSPropertyOp2
 70
     1
102
RTVSPropertyOp3
 70
     1
102
RTVSPropertyOp4
 70
     1
102
RTVSPropertyOp5
 70
     1
102
RTVSPropertyOp6
 70
     1
102
RTVSPropertyOp7
 70
     1
102
RTVSPropertyOp8
 70
     1
102
RTVSPropertyOp9
 70
     1
102
RTVSPropertyOp10
 70
     1
102
RTVSPropertyOp11
 70
     1
102
RTVSPropertyOp12
 70
     1
102
RTVSPropertyOp13
 70
     1
102
RTVSPropertyOp14
 70
     1
102
RTVSPropertyOp15
 70
     1
102
RTVSPropertyOp16
 70
     1
102
RTVSPropertyOp17
 70
     1
102
RTVSPropertyOp18
 70
     1
102
RTVSPropertyOp19
 70
     1
102
RTVSPropertyOp20
 70
     1
102
RTVSPropertyOp21
 70
     1
102
RTVSPropertyOp22
 70
     1
102
RTVSPropertyOp23
 70
     1
102
RTVSPropertyOp24
 70
     1
102
RTVSPropertyOp25
 70
     1
102
RTVSPropertyOp26
 70
     1
102
RTVSPropertyOp27
 70
     1
102
RTVSPropertyOp28
 70
     1
102
RTVSPropertyOp29
 70
     1
102
RTVSPropertyOp30
 70
     1
102
RTVSPropertyOp31
 70
     1
102
RTVSPropertyOp32
 70
     1
  0
XRECORD
  5
E0E
102
{ACAD_REACTORS
330
E0D
102
}
330
E0D
100
AcDbXrecord
280
     1
102
RTVSPropertyOp0
 70
     1
102
RTVSPropertyOp1
 70
     1
102
RTVSPropertyOp2
 70
     1
102
RTVSPropertyOp3
 70
     1
102
RTVSPropertyOp4
 70
     1
102
RTVSPropertyOp5
 70
     1
102
RTVSPropertyOp6
 70
     1
102
RTVSPropertyOp7
 70
     1
102
RTVSPropertyOp8
 70
     1
102
RTVSPropertyOp9
 70
     1
102
RTVSPropertyOp10
 70
     1
102
RTVSPropertyOp11
 70
     1
102
RTVSPropertyOp12
 70
     1
102
RTVSPropertyOp13
 70
     1
102
RTVSPropertyOp14
 70
     1
102
RTVSPropertyOp15
 70
     1
102
RTVSPropertyOp16
 70
     1
102
RTVSPropertyOp17
 70
     1
102
RTVSPropertyOp18
 70
     1
102
RTVSPropertyOp19
 70
     1
102
RTVSPropertyOp20
 70
     1
102
RTVSPropertyOp21
 70
     1
102
RTVSPropertyOp22
 70
     1
102
RTVSPropertyOp23
 70
     1
102
RTVSPropertyOp24
 70
     1
102
RTVSPropertyOp25
 70
     1
102
RTVSPropertyOp26
 70
     1
102
RTVSPropertyOp27
 70
     1
102
RTVSPropertyOp28
 70
     1
102
RTVSPropertyOp29
 70
     1
102
RTVSPropertyOp30
 70
     1
102
RTVSPropertyOp31
 70
     1
102
RTVSPropertyOp32
 70
     1
  0
XRECORD
  5
E02
102
{ACAD_REACTORS
330
E01
102
}
330
E01
100
AcDbXrecord
280
     1
102
RTVSPropertyOp0
 70
     1
102
RTVSPropertyOp1
 70
     1
102
RTVSPropertyOp2
 70
     1
102
RTVSPropertyOp3
 70
     1
102
RTVSPropertyOp4
 70
     1
102
RTVSPropertyOp5
 70
     1
102
RTVSPropertyOp6
 70
     1
102
RTVSPropertyOp7
 70
     1
102
RTVSPropertyOp8
 70
     1
102
RTVSPropertyOp9
 70
     1
102
RTVSPropertyOp10
 70
     1
102
RTVSPropertyOp11
 70
     1
102
RTVSPropertyOp12
 70
     1
102
RTVSPropertyOp13
 70
     1
102
RTVSPropertyOp14
 70
     1
102
RTVSPropertyOp15
 70
     1
102
RTVSPropertyOp16
 70
     1
102
RTVSPropertyOp17
 70
     1
102
RTVSPropertyOp18
 70
     1
102
RTVSPropertyOp19
 70
     1
102
RTVSPropertyOp20
 70
     1
102
RTVSPropertyOp21
 70
     1
102
RTVSPropertyOp22
 70
     1
102
RTVSPropertyOp23
 70
     1
102
RTVSPropertyOp24
 70
     1
102
RTVSPropertyOp25
 70
     1
102
RTVSPropertyOp26
 70
     1
102
RTVSPropertyOp27
 70
     1
102
RTVSPropertyOp28
 70
     1
102
RTVSPropertyOp29
 70
     1
102
RTVSPropertyOp30
 70
     1
102
RTVSPropertyOp31
 70
     1
102
RTVSPropertyOp32
 70
     1
  0
XRECORD
  5
E1A
102
{ACAD_REACTORS
330
E19
102
}
330
E19
100
AcDbXrecord
280
     1
102
RTVSPropertyOp0
 70
     1
102
RTVSPropertyOp1
 70
     1
102
RTVSPropertyOp2
 70
     1
102
RTVSPropertyOp3
 70
     1
102
RTVSPropertyOp4
 70
     1
102
RTVSPropertyOp5
 70
     1
102
RTVSPropertyOp6
 70
     1
102
RTVSPropertyOp7
 70
     1
102
RTVSPropertyOp8
 70
     1
102
RTVSPropertyOp9
 70
     1
102
RTVSPropertyOp10
 70
     1
102
RTVSPropertyOp11
 70
     1
102
RTVSPropertyOp12
 70
     1
102
RTVSPropertyOp13
 70
     1
102
RTVSPropertyOp14
 70
     1
102
RTVSPropertyOp15
 70
     1
102
RTVSPropertyOp16
 70
     1
102
RTVSPropertyOp17
 70
     1
102
RTVSPropertyOp18
 70
     1
102
RTVSPropertyOp19
 70
     1
102
RTVSPropertyOp20
 70
     1
102
RTVSPropertyOp21
 70
     1
102
RTVSPropertyOp22
 70
     1
102
RTVSPropertyOp23
 70
     1
102
RTVSPropertyOp24
 70
     1
102
RTVSPropertyOp25
 70
     1
102
RTVSPropertyOp26
 70
     1
102
RTVSPropertyOp27
 70
     1
102
RTVSPropertyOp28
 70
     1
102
RTVSPropertyOp29
 70
     1
102
RTVSPropertyOp30
 70
     1
102
RTVSPropertyOp31
 70
     1
102
RTVSPropertyOp32
 70
     1
  0
ENDSEC
  0
EOF
