  0
SECTION
  2
HEADER
  9
$ACADVER
  1
AC1015
  9
$ACADMAINTVER
 70
    18
  9
$DWGCODEPAGE
  3
ANSI_1252
  9
$INSBASE
 10
0.0
 20
0.0
 30
0.0
  9
$EXTMIN
 10
0.0
 20
0.0
 30
0.0
  9
$EXTMAX
 10
68.0
 20
44.0
 30
0.0
  9
$LIMMIN
 10
0.0
 20
0.0
  9
$LIMMAX
 10
68.0
 20
44.0
  9
$ORTHOMODE
 70
     0
  9
$REGENMODE
 70
     1
  9
$FILLMODE
 70
     1
  9
$QTEXTMODE
 70
     0
  9
$MIRRTEXT
 70
     0
  9
$LTSCALE
 40
4.0
  9
$ATTMODE
 70
     1
  9
$TEXTSIZE
 40
0.2
  9
$TRACEWID
 40
0.05
  9
$TEXTSTYLE
  7
Standard
  9
$CLAYER
  8
0
  9
$CELTYPE
  6
ByLayer
  9
$CECOLOR
 62
   256
  9
$CELTSCALE
 40
1.0
  9
$DISPSILH
 70
     0
  9
$DIMSCALE
 40
1.0
  9
$DIMASZ
 40
0.0708661417322835
  9
$DIMEXO
 40
0.0625
  9
$DIMDLI
 40
0.38
  9
$DIMRND
 40
0.0
  9
$DIMDLE
 40
0.0
  9
$DIMEXE
 40
0.18
  9
$DIMTP
 40
0.0
  9
$DIMTM
 40
0.0
  9
$DIMTXT
 40
0.0708661417322835
  9
$DIMCEN
 40
0.09
  9
$DIMTSZ
 40
0.0
  9
$DIMTOL
 70
     0
  9
$DIMLIM
 70
     0
  9
$DIMTIH
 70
     1
  9
$DIMTOH
 70
     1
  9
$DIMSE1
 70
     0
  9
$DIMSE2
 70
     0
  9
$DIMTAD
 70
     0
  9
$DIMZIN
 70
     0
  9
$DIMBLK
  1

  9
$DIMASO
 70
     1
  9
$DIMSHO
 70
     1
  9
$DIMPOST
  1

  9
$DIMAPOST
  1

  9
$DIMALT
 70
     0
  9
$DIMALTD
 70
     2
  9
$DIMALTF
 40
25.4
  9
$DIMLFAC
 40
1.0
  9
$DIMTOFL
 70
     0
  9
$DIMTVP
 40
0.0
  9
$DIMTIX
 70
     0
  9
$DIMSOXD
 70
     0
  9
$DIMSAH
 70
     0
  9
$DIMBLK1
  1

  9
$DIMBLK2
  1

  9
$DIMSTYLE
  2
STANDARD
  9
$DIMCLRD
 70
     0
  9
$DIMCLRE
 70
     0
  9
$DIMCLRT
 70
     0
  9
$DIMTFAC
 40
1.0
  9
$DIMGAP
 40
0.09
  9
$DIMJUST
 70
     0
  9
$DIMSD1
 70
     0
  9
$DIMSD2
 70
     0
  9
$DIMTOLJ
 70
     1
  9
$DIMTZIN
 70
     0
  9
$DIMALTZ
 70
     0
  9
$DIMALTTZ
 70
     0
  9
$DIMUPT
 70
     0
  9
$DIMDEC
 70
     4
  9
$DIMTDEC
 70
     4
  9
$DIMALTU
 70
     2
  9
$DIMALTTD
 70
     2
  9
$DIMTXSTY
  7
Standard
  9
$DIMAUNIT
 70
     0
  9
$DIMADEC
 70
     0
  9
$DIMALTRND
 40
0.0
  9
$DIMAZIN
 70
     0
  9
$DIMDSEP
 70
    46
  9
$DIMATFIT
 70
     3
  9
$DIMFRAC
 70
     0
  9
$DIMLDRBLK
  1

  9
$DIMLUNIT
 70
     2
  9
$DIMLWD
 70
    -2
  9
$DIMLWE
 70
    -2
  9
$DIMTMOVE
 70
     0
  9
$LUNITS
 70
     2
  9
$LUPREC
 70
     4
  9
$SKETCHINC
 40
0.1
  9
$FILLETRAD
 40
0.0
  9
$AUNITS
 70
     0
  9
$AUPREC
 70
     0
  9
$MENU
  1
.
  9
$ELEVATION
 40
0.0
  9
$PELEVATION
 40
0.0
  9
$THICKNESS
 40
0.0
  9
$LIMCHECK
 70
     0
  9
$CHAMFERA
 40
0.0
  9
$CHAMFERB
 40
0.0
  9
$CHAMFERC
 40
0.0
  9
$CHAMFERD
 40
0.0
  9
$SKPOLY
 70
     0
  9
$TDCREATE
 40
2455944.613489456
  9
$TDUCREATE
 40
2455944.863489456
  9
$TDUPDATE
 40
2455944.613489456
  9
$TDUUPDATE
 40
2455944.863489456
  9
$TDINDWG
 40
0.0000370718
  9
$TDUSRTIMER
 40
0.0000370718
  9
$USRTIMER
 70
     1
  9
$ANGBASE
 50
0.0
  9
$ANGDIR
 70
     0
  9
$PDMODE
 70
     0
  9
$PDSIZE
 40
0.0
  9
$PLINEWID
 40
0.0
  9
$SPLFRAME
 70
     0
  9
$SPLINETYPE
 70
     6
  9
$SPLINESEGS
 70
     8
  9
$HANDSEED
  5
DD2
  9
$SURFTAB1
 70
     6
  9
$SURFTAB2
 70
     6
  9
$SURFTYPE
 70
     6
  9
$SURFU
 70
     6
  9
$SURFV
 70
     6
  9
$UCSBASE
  2

  9
$UCSNAME
  2

  9
$UCSORG
 10
0.0
 20
0.0
 30
0.0
  9
$UCSXDIR
 10
1.0
 20
0.0
 30
0.0
  9
$UCSYDIR
 10
0.0
 20
1.0
 30
0.0
  9
$UCSORTHOREF
  2

  9
$UCSORTHOVIEW
 70
     0
  9
$UCSORGTOP
 10
0.0
 20
0.0
 30
0.0
  9
$UCSORGBOTTOM
 10
0.0
 20
0.0
 30
0.0
  9
$UCSORGLEFT
 10
0.0
 20
0.0
 30
0.0
  9
$UCSORGRIGHT
 10
0.0
 20
0.0
 30
0.0
  9
$UCSORGFRONT
 10
0.0
 20
0.0
 30
0.0
  9
$UCSORGBACK
 10
0.0
 20
0.0
 30
0.0
  9
$PUCSBASE
  2

  9
$PUCSNAME
  2

  9
$PUCSORG
 10
0.0
 20
0.0
 30
0.0
  9
$PUCSXDIR
 10
1.0
 20
0.0
 30
0.0
  9
$PUCSYDIR
 10
0.0
 20
1.0
 30
0.0
  9
$PUCSORTHOREF
  2

  9
$PUCSORTHOVIEW
 70
     0
  9
$PUCSORGTOP
 10
0.0
 20
0.0
 30
0.0
  9
$PUCSORGBOTTOM
 10
0.0
 20
0.0
 30
0.0
  9
$PUCSORGLEFT
 10
0.0
 20
0.0
 30
0.0
  9
$PUCSORGRIGHT
 10
0.0
 20
0.0
 30
0.0
  9
$PUCSORGFRONT
 10
0.0
 20
0.0
 30
0.0
  9
$PUCSORGBACK
 10
0.0
 20
0.0
 30
0.0
  9
$USERI1
 70
     0
  9
$USERI2
 70
     0
  9
$USERI3
 70
     0
  9
$USERI4
 70
     0
  9
$USERI5
 70
     0
  9
$USERR1
 40
0.0
  9
$USERR2
 40
0.0
  9
$USERR3
 40
0.0
  9
$USERR4
 40
0.0
  9
$USERR5
 40
0.0
  9
$WORLDVIEW
 70
     1
  9
$SHADEDGE
 70
     3
  9
$SHADEDIF
 70
    70
  9
$TILEMODE
 70
     1
  9
$MAXACTVP
 70
    64
  9
$PINSBASE
 10
0.0
 20
0.0
 30
0.0
  9
$PLIMCHECK
 70
     0
  9
$PEXTMIN
 10
0.0
 20
0.0
 30
0.0
  9
$PEXTMAX
 10
68.0
 20
44.0
 30
0.0
  9
$PLIMMIN
 10
0.0
 20
0.0
  9
$PLIMMAX
 10
68.0
 20
44.0
  9
$UNITMODE
 70
     0
  9
$VISRETAIN
 70
     1
  9
$PLINEGEN
 70
     0
  9
$PSLTSCALE
 70
     1
  9
$TREEDEPTH
 70
  3020
  9
$CMLSTYLE
  2
Standard
  9
$CMLJUST
 70
     0
  9
$CMLSCALE
 40
1.0
  9
$PROXYGRAPHICS
 70
     1
  9
$MEASUREMENT
 70
     0
  9
$CELWEIGHT
370
    -1
  9
$ENDCAPS
280
     0
  9
$JOINSTYLE
280
     0
  9
$LWDISPLAY
290
     0
  9
$INSUNITS
 70
     1
  9
$HYPERLINKBASE
  1

  9
$STYLESHEET
  1

  9
$XEDIT
290
     1
  9
$CEPSNTYPE
380
     0
  9
$PSTYLEMODE
290
     1
  9
$FINGERPRINTGUID
  2
{51DC426D-329E-4C0A-85A2-79C57D78248B}
  9
$VERSIONGUID
  2
{3FA3B4D0-695F-4B99-A837-61FC1EFEA1FC}
  9
$EXTNAMES
290
     1
  9
$PSVPSCALE
 40
0.0
  9
$OLESTARTUP
290
     0
  0
ENDSEC
  0
SECTION
  2
CLASSES
  0
CLASS
  1
ACDBDICTIONARYWDFLT
  2
AcDbDictionaryWithDefault
  3
ObjectDBX Classes
 90
        0
280
     0
281
     0
  0
CLASS
  1
MATERIAL
  2
AcDbMaterial
  3
ObjectDBX Classes
 90
     1153
280
     0
281
     0
  0
CLASS
  1
VISUALSTYLE
  2
AcDbVisualStyle
  3
ObjectDBX Classes
 90
     4095
280
     0
281
     0
  0
CLASS
  1
SCALE
  2
AcDbScale
  3
ObjectDBX Classes
 90
     1153
280
     0
281
     0
  0
CLASS
  1
TABLESTYLE
  2
AcDbTableStyle
  3
ObjectDBX Classes
 90
     4095
280
     0
281
     0
  0
CLASS
  1
MLEADERSTYLE
  2
AcDbMLeaderStyle
  3
ACDB_MLEADERSTYLE_CLASS
 90
     4095
280
     0
281
     0
  0
CLASS
  1
DICTIONARYVAR
  2
AcDbDictionaryVar
  3
ObjectDBX Classes
 90
        0
280
     0
281
     0
  0
CLASS
  1
CELLSTYLEMAP
  2
AcDbCellStyleMap
  3
ObjectDBX Classes
 90
     1152
280
     0
281
     0
  0
CLASS
  1
ACDBPLACEHOLDER
  2
AcDbPlaceHolder
  3
ObjectDBX Classes
 90
        0
280
     0
281
     0
  0
CLASS
  1
LAYOUT
  2
AcDbLayout
  3
ObjectDBX Classes
 90
        0
280
     0
281
     0
  0
ENDSEC
  0
SECTION
  2
TABLES
  0
TABLE
  2
VPORT
  5
8
330
0
100
AcDbSymbolTable
 70
     1
  0
VPORT
  5
57
330
8
100
AcDbSymbolTableRecord
100
AcDbViewportTableRecord
  2
*Active
 70
     0
 10
0.0
 20
0.0
 11
1.0
 21
1.0
 12
34.0
 22
22.0
 13
0.0
 23
0.0
 14
1.0
 24
1.0
 15
0.0
 25
0.0
 16
0.0
 26
0.0
 36
1.0
 17
0.0
 27
0.0
 37
0.0
 40
44.0
 41
1.545454545454545
 42
50.0
 43
0.0
 44
0.0
 50
0.0
 51
0.0
 71
     0
 72
   100
 73
     1
 74
     1
 75
     0
 76
     0
 77
     0
 78
     0
281
     0
 65
     1
110
0.0
120
0.0
130
0.0
111
1.0
121
0.0
131
0.0
112
0.0
122
1.0
132
0.0
 79
     0
146
0.0
  0
ENDTAB
  0
TABLE
  2
LTYPE
  5
5
330
0
100
AcDbSymbolTable
 70
    59
  0
LTYPE
  5
5B
330
5
100
AcDbSymbolTableRecord
100
AcDbLinetypeTableRecord
  2
ByBlock
 70
     0
  3

 72
    65
 73
     0
 40
0.0
  0
LTYPE
  5
5C
330
5
100
AcDbSymbolTableRecord
100
AcDbLinetypeTableRecord
  2
ByLayer
 70
     0
  3

 72
    65
 73
     0
 40
0.0
  0
LTYPE
  5
5D
330
5
100
AcDbSymbolTableRecord
100
AcDbLinetypeTableRecord
  2
Continuous
 70
     0
  3
Solid line
 72
    65
 73
     0
 40
0.0
  0
LTYPE
  5
7C
330
5
100
AcDbSymbolTableRecord
100
AcDbLinetypeTableRecord
  2
BY_STANDARD
 70
     0
  3
By Standard ____________    ____    ____   _
 72
    65
 73
     6
 40
1.240299999999999
 49
0.6614
 74
     0
 49
-0.0827
 74
     0
 49
0.1654
 74
     0
 49
-0.0827
 74
     0
 49
0.1654
 74
     0
 49
-0.0827
 74
     0
  0
LTYPE
  5
7D
330
5
100
AcDbSymbolTableRecord
100
AcDbLinetypeTableRecord
  2
CHAIN
 70
     0
  3
Chain ____ _ ____ _ ____ _ ____ _ ____ _ ____
 72
    65
 73
     4
 40
0.7087
 49
0.4724000000000001
 74
     0
 49
-0.0591
 74
     0
 49
0.1181
 74
     0
 49
-0.0591
 74
     0
  0
LTYPE
  5
7E
330
5
100
AcDbSymbolTableRecord
100
AcDbLinetypeTableRecord
  2
DASH_DOT
 70
     0
  3
Dash dot __ . __ . __ . __ . __ . __ . __ . __
 72
    65
 73
     4
 40
0.37
 49
0.24
 74
     0
 49
-0.06
 74
     0
 49
0.01
 74
     0
 49
-0.06
 74
     0
  0
LTYPE
  5
7F
330
5
100
AcDbSymbolTableRecord
100
AcDbLinetypeTableRecord
  2
DOUBLE_DASH_DOT
 70
     0
  3
Double-Dash Dot __ __ . __ __ . __ __ . __ _
 72
    65
 73
     6
 40
0.4398
 49
0.24
 74
     0
 49
-0.06
 74
     0
 49
0.0098
 74
     0
 49
-0.06
 74
     0
 49
0.01
 74
     0
 49
-0.06
 74
     0
  0
LTYPE
  5
80
330
5
100
AcDbSymbolTableRecord
100
AcDbLinetypeTableRecord
  2
DASH_TRIPLE_DOT
 70
     0
  3
Dash Triple-Dot _ . . . _ . . . _ . . . _
 72
    65
 73
     8
 40
0.51
 49
0.24
 74
     0
 49
-0.06
 74
     0
 49
0.01
 74
     0
 49
-0.06
 74
     0
 49
0.01
 74
     0
 49
-0.06
 74
     0
 49
0.01
 74
     0
 49
-0.06
 74
     0
  0
LTYPE
  5
81
330
5
100
AcDbSymbolTableRecord
100
AcDbLinetypeTableRecord
  2
DASHED
 70
     0
  3
Dashed __ __ __ __ __ __ __ __ __ __ __ __ __ _
 72
    65
 73
     2
 40
0.2067
 49
0.1654
 74
     0
 49
-0.0413
 74
     0
  0
LTYPE
  5
82
330
5
100
AcDbSymbolTableRecord
100
AcDbLinetypeTableRecord
  2
DASH_DOUBLE_DOT
 70
     0
  3
Dash Double-Dot __ . . __ . . __ . . __ . .
 72
    65
 73
     6
 40
0.4398
 49
0.24
 74
     0
 49
-0.06
 74
     0
 49
0.0098
 74
     0
 49
-0.06
 74
     0
 49
0.01
 74
     0
 49
-0.06
 74
     0
  0
LTYPE
  5
83
330
5
100
AcDbSymbolTableRecord
100
AcDbLinetypeTableRecord
  2
DASHED_SPACE
 70
     0
  3
Dashed Space __ __ __ __ __ __ __ __ __ __ __ _
 72
    65
 73
     2
 40
0.2067
 49
0.1654
 74
     0
 49
-0.0413
 74
     0
  0
LTYPE
  5
84
330
5
100
AcDbSymbolTableRecord
100
AcDbLinetypeTableRecord
  2
DOTTED
 70
     0
  3
Dotted . . . . . . . . . . . . . . . . . . . . 
 72
    65
 73
     2
 40
0.0482
 49
0.0069
 74
     0
 49
-0.0413
 74
     0
  0
LTYPE
  5
85
330
5
100
AcDbSymbolTableRecord
100
AcDbLinetypeTableRecord
  2
DOUBLE_DASH_CHAIN
 70
     0
  3
Double-Dash Chain ______  __  __  ______  __  _
 72
    65
 73
     6
 40
1.240299999999999
 49
0.6614
 74
     0
 49
-0.0827
 74
     0
 49
0.1654
 74
     0
 49
-0.0827
 74
     0
 49
0.1654
 74
     0
 49
-0.0827
 74
     0
  0
LTYPE
  5
87
330
5
100
AcDbSymbolTableRecord
100
AcDbLinetypeTableRecord
  2
DOUBLE_DASH_DOUBLE_DOT
 70
     0
  3
Double-Dash Double-dot _ _ . . _ _ . . _
 72
    65
 73
     8
 40
0.7400000000000001
 49
0.24
 74
     0
 49
-0.06
 74
     0
 49
0.24
 74
     0
 49
-0.06
 74
     0
 49
0.01
 74
     0
 49
-0.06
 74
     0
 49
0.01
 74
     0
 49
-0.06
 74
     0
  0
LTYPE
  5
88
330
5
100
AcDbSymbolTableRecord
100
AcDbLinetypeTableRecord
  2
DOUBLE_DASH_TRIPLE_DOT
 70
     0
  3
Double Dash Triple Dot __ __ . . . __ __ . .
 72
    65
 73
    10
 40
0.8100000000000001
 49
0.24
 74
     0
 49
-0.06
 74
     0
 49
0.24
 74
     0
 49
-0.06
 74
     0
 49
0.01
 74
     0
 49
-0.06
 74
     0
 49
0.01
 74
     0
 49
-0.06
 74
     0
 49
0.01
 74
     0
 49
-0.06
 74
     0
  0
LTYPE
  5
89
330
5
100
AcDbSymbolTableRecord
100
AcDbLinetypeTableRecord
  2
LONG_DASH_DOTTED
 70
     0
  3
Long Dash Dotted ____ . ____ . ____ . ____ . _
 72
    65
 73
     4
 40
0.3543
 49
0.2362
 74
     0
 49
-0.0295
 74
     0
 49
0.0591
 74
     0
 49
-0.0295
 74
     0
  0
LTYPE
  5
8A
330
5
100
AcDbSymbolTableRecord
100
AcDbLinetypeTableRecord
  2
LONG_DASH_DOUBLE_DOT
 70
     0
  3
Long Dash Double Dot ________  .  .  ________  
 72
    65
 73
     6
 40
0.6799999999999999
 49
0.48
 74
     0
 49
-0.06
 74
     0
 49
0.01
 74
     0
 49
-0.06
 74
     0
 49
0.01
 74
     0
 49
-0.06
 74
     0
  0
LTYPE
  5
8B
330
5
100
AcDbSymbolTableRecord
100
AcDbLinetypeTableRecord
  2
LONG_DASH_TRIPLE_DOT
 70
     0
  3
Long Dash Triple Dot ____ ... ____ ... ____
 72
    65
 73
     8
 40
0.3689
 49
0.2362
 74
     0
 49
-0.0295
 74
     0
 49
0.0049
 74
     0
 49
-0.0295
 74
     0
 49
0.0049
 74
     0
 49
-0.0295
 74
     0
 49
0.0049
 74
     0
 49
-0.0295
 74
     0
  0
LTYPE
  5
8C
330
5
100
AcDbSymbolTableRecord
100
AcDbLinetypeTableRecord
  2
BORDER
 70
     0
  3
Border __ __ . __ __ . __ __ . __ __ . __ __ .
 72
    65
 73
     6
 40
1.75
 49
0.5
 74
     0
 49
-0.25
 74
     0
 49
0.5
 74
     0
 49
-0.25
 74
     0
 49
0.0
 74
     0
 49
-0.25
 74
     0
  0
LTYPE
  5
8D
330
5
100
AcDbSymbolTableRecord
100
AcDbLinetypeTableRecord
  2
BORDER2
 70
     0
  3
Border (.5x) __.__.__.__.__.__.__.__.__.__.__.
 72
    65
 73
     6
 40
0.875
 49
0.25
 74
     0
 49
-0.125
 74
     0
 49
0.25
 74
     0
 49
-0.125
 74
     0
 49
0.0
 74
     0
 49
-0.125
 74
     0
  0
LTYPE
  5
8E
330
5
100
AcDbSymbolTableRecord
100
AcDbLinetypeTableRecord
  2
BORDERX2
 70
     0
  3
Border (2x) ____  ____  .  ____  ____  .  ___
 72
    65
 73
     6
 40
3.5
 49
1.0
 74
     0
 49
-0.5
 74
     0
 49
1.0
 74
     0
 49
-0.5
 74
     0
 49
0.0
 74
     0
 49
-0.5
 74
     0
  0
LTYPE
  5
8F
330
5
100
AcDbSymbolTableRecord
100
AcDbLinetypeTableRecord
  2
CENTER
 70
     0
  3
Center ____ _ ____ _ ____ _ ____ _ ____ _ ____
 72
    65
 73
     4
 40
2.0
 49
1.25
 74
     0
 49
-0.25
 74
     0
 49
0.25
 74
     0
 49
-0.25
 74
     0
  0
LTYPE
  5
90
330
5
100
AcDbSymbolTableRecord
100
AcDbLinetypeTableRecord
  2
CENTER2
 70
     0
  3
Center (.5x) ___ _ ___ _ ___ _ ___ _ ___ _ ___
 72
    65
 73
     4
 40
1.125
 49
0.75
 74
     0
 49
-0.125
 74
     0
 49
0.125
 74
     0
 49
-0.125
 74
     0
  0
LTYPE
  5
91
330
5
100
AcDbSymbolTableRecord
100
AcDbLinetypeTableRecord
  2
CENTERX2
 70
     0
  3
Center (2x) ________  __  ________  __  _____
 72
    65
 73
     4
 40
4.0
 49
2.5
 74
     0
 49
-0.5
 74
     0
 49
0.5
 74
     0
 49
-0.5
 74
     0
  0
LTYPE
  5
92
330
5
100
AcDbSymbolTableRecord
100
AcDbLinetypeTableRecord
  2
DASHDOT2
 70
     0
  3
Dash dot (.5x) _._._._._._._._._._._._._._._.
 72
    65
 73
     4
 40
0.5
 49
0.25
 74
     0
 49
-0.125
 74
     0
 49
0.0
 74
     0
 49
-0.125
 74
     0
  0
LTYPE
  5
93
330
5
100
AcDbSymbolTableRecord
100
AcDbLinetypeTableRecord
  2
DASHDOTX2
 70
     0
  3
Dash dot (2x) ____  .  ____  .  ____  .  ___
 72
    65
 73
     4
 40
2.0
 49
1.0
 74
     0
 49
-0.5
 74
     0
 49
0.0
 74
     0
 49
-0.5
 74
     0
  0
LTYPE
  5
95
330
5
100
AcDbSymbolTableRecord
100
AcDbLinetypeTableRecord
  2
DASHED2
 70
     0
  3
Dashed (.5x) _ _ _ _ _ _ _ _ _ _ _ _ _ _ _ _ _
 72
    65
 73
     2
 40
0.375
 49
0.25
 74
     0
 49
-0.125
 74
     0
  0
LTYPE
  5
96
330
5
100
AcDbSymbolTableRecord
100
AcDbLinetypeTableRecord
  2
DASHEDX2
 70
     0
  3
Dashed (2x) ____  ____  ____  ____  ____  ___
 72
    65
 73
     2
 40
1.5
 49
1.0
 74
     0
 49
-0.5
 74
     0
  0
LTYPE
  5
97
330
5
100
AcDbSymbolTableRecord
100
AcDbLinetypeTableRecord
  2
DIVIDE
 70
     0
  3
Divide ____ . . ____ . . ____ . . ____ . . ____
 72
    65
 73
     6
 40
1.25
 49
0.5
 74
     0
 49
-0.25
 74
     0
 49
0.0
 74
     0
 49
-0.25
 74
     0
 49
0.0
 74
     0
 49
-0.25
 74
     0
  0
LTYPE
  5
98
330
5
100
AcDbSymbolTableRecord
100
AcDbLinetypeTableRecord
  2
DIVIDE2
 70
     0
  3
Divide (.5x) __..__..__..__..__..__..__..__.._
 72
    65
 73
     6
 40
0.625
 49
0.25
 74
     0
 49
-0.125
 74
     0
 49
0.0
 74
     0
 49
-0.125
 74
     0
 49
0.0
 74
     0
 49
-0.125
 74
     0
  0
LTYPE
  5
99
330
5
100
AcDbSymbolTableRecord
100
AcDbLinetypeTableRecord
  2
DIVIDEX2
 70
     0
  3
Divide (2x) ________  .  .  ________  .  .  _
 72
    65
 73
     6
 40
2.5
 49
1.0
 74
     0
 49
-0.5
 74
     0
 49
0.0
 74
     0
 49
-0.5
 74
     0
 49
0.0
 74
     0
 49
-0.5
 74
     0
  0
LTYPE
  5
9A
330
5
100
AcDbSymbolTableRecord
100
AcDbLinetypeTableRecord
  2
DOT
 70
     0
  3
Dot . . . . . . . . . . . . . . . . . . . . . .
 72
    65
 73
     2
 40
0.25
 49
0.0
 74
     0
 49
-0.25
 74
     0
  0
LTYPE
  5
9B
330
5
100
AcDbSymbolTableRecord
100
AcDbLinetypeTableRecord
  2
DOT2
 70
     0
  3
Dot (.5x) .....................................
 72
    65
 73
     2
 40
0.125
 49
0.0
 74
     0
 49
-0.125
 74
     0
  0
LTYPE
  5
9C
330
5
100
AcDbSymbolTableRecord
100
AcDbLinetypeTableRecord
  2
DOTX2
 70
     0
  3
Dot (2x) .  .  .  .  .  .  .  .  .  .  .  .  . 
 72
    65
 73
     2
 40
0.5
 49
0.0
 74
     0
 49
-0.5
 74
     0
  0
LTYPE
  5
9D
330
5
100
AcDbSymbolTableRecord
100
AcDbLinetypeTableRecord
  2
HIDDEN
 70
     0
  3
Hidden __ __ __ __ __ __ __ __ __ __ __ __ __ _
 72
    65
 73
     2
 40
0.375
 49
0.25
 74
     0
 49
-0.125
 74
     0
  0
LTYPE
  5
9E
330
5
100
AcDbSymbolTableRecord
100
AcDbLinetypeTableRecord
  2
HIDDEN2
 70
     0
  3
Hidden (.5x) _ _ _ _ _ _ _ _ _ _ _ _ _ _ _ _ _
 72
    65
 73
     2
 40
0.1875
 49
0.125
 74
     0
 49
-0.0625
 74
     0
  0
LTYPE
  5
9F
330
5
100
AcDbSymbolTableRecord
100
AcDbLinetypeTableRecord
  2
HIDDENX2
 70
     0
  3
Hidden (2x) ____ ____ ____ ____ ____ ____ ____
 72
    65
 73
     2
 40
0.75
 49
0.5
 74
     0
 49
-0.25
 74
     0
  0
LTYPE
  5
A0
330
5
100
AcDbSymbolTableRecord
100
AcDbLinetypeTableRecord
  2
PHANTOM
 70
     0
  3
Phantom ______  __  __  ______  __  __  ______
 72
    65
 73
     6
 40
2.5
 49
1.25
 74
     0
 49
-0.25
 74
     0
 49
0.25
 74
     0
 49
-0.25
 74
     0
 49
0.25
 74
     0
 49
-0.25
 74
     0
  0
LTYPE
  5
A1
330
5
100
AcDbSymbolTableRecord
100
AcDbLinetypeTableRecord
  2
PHANTOM2
 70
     0
  3
Phantom (.5x) ___ _ _ ___ _ _ ___ _ _ ___ _ _
 72
    65
 73
     6
 40
1.25
 49
0.625
 74
     0
 49
-0.125
 74
     0
 49
0.125
 74
     0
 49
-0.125
 74
     0
 49
0.125
 74
     0
 49
-0.125
 74
     0
  0
LTYPE
  5
A2
330
5
100
AcDbSymbolTableRecord
100
AcDbLinetypeTableRecord
  2
PHANTOMX2
 70
     0
  3
Phantom (2x) ____________    ____    ____   _
 72
    65
 73
     6
 40
5.0
 49
2.5
 74
     0
 49
-0.5
 74
     0
 49
0.5
 74
     0
 49
-0.5
 74
     0
 49
0.5
 74
     0
 49
-0.5
 74
     0
  0
LTYPE
  5
A3
330
5
100
AcDbSymbolTableRecord
100
AcDbLinetypeTableRecord
  2
ACAD_ISO02W100
 70
     0
  3
ISO dash __ __ __ __ __ __ __ __ __ __ __ __ __
 72
    65
 73
     2
 40
0.59
 49
0.47
 74
     0
 49
-0.12
 74
     0
  0
LTYPE
  5
A4
330
5
100
AcDbSymbolTableRecord
100
AcDbLinetypeTableRecord
  2
ACAD_ISO03W100
 70
     0
  3
ISO dash space __    __    __    __    __    __
 72
    65
 73
     2
 40
1.179999999999999
 49
0.47
 74
     0
 49
-0.71
 74
     0
  0
LTYPE
  5
A5
330
5
100
AcDbSymbolTableRecord
100
AcDbLinetypeTableRecord
  2
ACAD_ISO04W100
 70
     0
  3
ISO long-dash dot ____ . ____ . ____ . ____ . _
 72
    65
 73
     4
 40
1.179999999999999
 49
0.9399999999999998
 74
     0
 49
-0.12
 74
     0
 49
0.0
 74
     0
 49
-0.12
 74
     0
  0
LTYPE
  5
A6
330
5
100
AcDbSymbolTableRecord
100
AcDbLinetypeTableRecord
  2
ACAD_ISO05W100
 70
     0
  3
ISO long-dash double-dot ____ .. ____ .. ____ .
 72
    65
 73
     6
 40
1.299999999999999
 49
0.9399999999999998
 74
     0
 49
-0.12
 74
     0
 49
0.0
 74
     0
 49
-0.12
 74
     0
 49
0.0
 74
     0
 49
-0.12
 74
     0
  0
LTYPE
  5
A7
330
5
100
AcDbSymbolTableRecord
100
AcDbLinetypeTableRecord
  2
ACAD_ISO06W100
 70
     0
  3
ISO long-dash triple-dot ____ ... ____ ... ____
 72
    65
 73
     8
 40
1.419999999999999
 49
0.9399999999999998
 74
     0
 49
-0.12
 74
     0
 49
0.0
 74
     0
 49
-0.12
 74
     0
 49
0.0
 74
     0
 49
-0.12
 74
     0
 49
0.0
 74
     0
 49
-0.12
 74
     0
  0
LTYPE
  5
A8
330
5
100
AcDbSymbolTableRecord
100
AcDbLinetypeTableRecord
  2
ACAD_ISO07W100
 70
     0
  3
ISO dot . . . . . . . . . . . . . . . . . . . .
 72
    65
 73
     2
 40
0.12
 49
0.0
 74
     0
 49
-0.12
 74
     0
  0
LTYPE
  5
A9
330
5
100
AcDbSymbolTableRecord
100
AcDbLinetypeTableRecord
  2
ACAD_ISO08W100
 70
     0
  3
ISO long-dash short-dash ____ __ ____ __ ____ _
 72
    65
 73
     4
 40
0.95
 49
0.47
 74
     0
 49
-0.12
 74
     0
 49
0.24
 74
     0
 49
-0.12
 74
     0
  0
LTYPE
  5
AA
330
5
100
AcDbSymbolTableRecord
100
AcDbLinetypeTableRecord
  2
ACAD_ISO09W100
 70
     0
  3
ISO long-dash double-short-dash ____ __ __ ____
 72
    65
 73
     6
 40
1.31
 49
0.47
 74
     0
 49
-0.12
 74
     0
 49
0.24
 74
     0
 49
-0.12
 74
     0
 49
0.24
 74
     0
 49
-0.12
 74
     0
  0
LTYPE
  5
AB
330
5
100
AcDbSymbolTableRecord
100
AcDbLinetypeTableRecord
  2
ACAD_ISO10W100
 70
     0
  3
ISO dash dot __ . __ . __ . __ . __ . __ . __ .
 72
    65
 73
     4
 40
0.71
 49
0.47
 74
     0
 49
-0.12
 74
     0
 49
0.0
 74
     0
 49
-0.12
 74
     0
  0
LTYPE
  5
AC
330
5
100
AcDbSymbolTableRecord
100
AcDbLinetypeTableRecord
  2
ACAD_ISO11W100
 70
     0
  3
ISO double-dash dot __ __ . __ __ . __ __ . __ 
 72
    65
 73
     6
 40
1.299999999999999
 49
0.47
 74
     0
 49
-0.12
 74
     0
 49
0.47
 74
     0
 49
-0.12
 74
     0
 49
0.0
 74
     0
 49
-0.12
 74
     0
  0
LTYPE
  5
AD
330
5
100
AcDbSymbolTableRecord
100
AcDbLinetypeTableRecord
  2
ACAD_ISO12W100
 70
     0
  3
ISO dash double-dot __ . . __ . . __ . . __ . .
 72
    65
 73
     6
 40
0.8299999999999998
 49
0.47
 74
     0
 49
-0.12
 74
     0
 49
0.0
 74
     0
 49
-0.12
 74
     0
 49
0.0
 74
     0
 49
-0.12
 74
     0
  0
LTYPE
  5
AE
330
5
100
AcDbSymbolTableRecord
100
AcDbLinetypeTableRecord
  2
ACAD_ISO13W100
 70
     0
  3
ISO double-dash double-dot __ __ . . __ __ . . 
 72
    65
 73
     8
 40
1.419999999999999
 49
0.47
 74
     0
 49
-0.12
 74
     0
 49
0.47
 74
     0
 49
-0.12
 74
     0
 49
0.0
 74
     0
 49
-0.12
 74
     0
 49
0.0
 74
     0
 49
-0.12
 74
     0
  0
LTYPE
  5
AF
330
5
100
AcDbSymbolTableRecord
100
AcDbLinetypeTableRecord
  2
ACAD_ISO14W100
 70
     0
  3
ISO dash triple-dot __ . . . __ . . . __ . . . 
 72
    65
 73
     8
 40
0.95
 49
0.47
 74
     0
 49
-0.12
 74
     0
 49
0.0
 74
     0
 49
-0.12
 74
     0
 49
0.0
 74
     0
 49
-0.12
 74
     0
 49
0.0
 74
     0
 49
-0.12
 74
     0
  0
LTYPE
  5
B0
330
5
100
AcDbSymbolTableRecord
100
AcDbLinetypeTableRecord
  2
ACAD_ISO15W100
 70
     0
  3
ISO double-dash triple-dot __ __ . . . __ __ . 
 72
    65
 73
    10
 40
1.539999999999999
 49
0.47
 74
     0
 49
-0.12
 74
     0
 49
0.47
 74
     0
 49
-0.12
 74
     0
 49
0.0
 74
     0
 49
-0.12
 74
     0
 49
0.0
 74
     0
 49
-0.12
 74
     0
 49
0.0
 74
     0
 49
-0.12
 74
     0
  0
LTYPE
  5
B3
330
5
100
AcDbSymbolTableRecord
100
AcDbLinetypeTableRecord
  2
FENCELINE1
 70
     0
  3
Fenceline circle ----0-----0----0-----0----0---
 72
    65
 73
     4
 40
1.45
 49
0.25
 74
     0
 49
-0.1
 74
     4
 75
   133
340
B2
 46
0.1
 50
0.0
 44
-0.1
 45
0.0
 49
-0.1
 74
     0
 49
1.0
 74
     0
  0
LTYPE
  5
B4
330
5
100
AcDbSymbolTableRecord
100
AcDbLinetypeTableRecord
  2
FENCELINE2
 70
     0
  3
Fenceline square ----[]-----[]----[]-----[]----
 72
    65
 73
     4
 40
1.45
 49
0.25
 74
     0
 49
-0.1
 74
     4
 75
   132
340
B2
 46
0.1
 50
0.0
 44
-0.1
 45
0.0
 49
-0.1
 74
     0
 49
1.0
 74
     0
  0
LTYPE
  5
B5
330
5
100
AcDbSymbolTableRecord
100
AcDbLinetypeTableRecord
  2
TRACKS
 70
     0
  3
Tracks -|-|-|-|-|-|-|-|-|-|-|-|-|-|-|-|-|-|-|-|
 72
    65
 73
     2
 40
0.3
 49
0.15
 74
     4
 75
   130
340
B2
 46
0.25
 50
0.0
 44
0.0
 45
0.0
 49
0.15
 74
     0
  0
LTYPE
  5
B6
330
5
100
AcDbSymbolTableRecord
100
AcDbLinetypeTableRecord
  2
BATTING
 70
     0
  3
Batting SSSSSSSSSSSSSSSSSSSSSSSSSSSSSSSSSSSSSSS
 72
    65
 73
     4
 40
0.4001000000000001
 49
0.0001
 74
     0
 49
-0.1
 74
     4
 75
   134
340
B2
 46
0.1
 50
0.0
 44
-0.1
 45
0.0
 49
-0.2
 74
     4
 75
   134
340
B2
 46
0.1
 50
180.0
 44
0.1
 45
0.0
 49
-0.1
 74
     0
  0
LTYPE
  5
B7
330
5
100
AcDbSymbolTableRecord
100
AcDbLinetypeTableRecord
  2
HOT_WATER_SUPPLY
 70
     0
  3
Hot water supply ---- HW ---- HW ---- HW ----
 72
    65
 73
     3
 40
0.9
 49
0.5
 74
     0
 49
-0.2
 74
     2
 75
     0
340
55
 46
0.1
 50
0.0
 44
-0.1
 45
-0.05
  9
HW
 49
-0.2
 74
     0
  0
LTYPE
  5
B8
330
5
100
AcDbSymbolTableRecord
100
AcDbLinetypeTableRecord
  2
GAS_LINE
 70
     0
  3
Gas line ----GAS----GAS----GAS----GAS----GAS---
 72
    65
 73
     3
 40
0.95
 49
0.5
 74
     0
 49
-0.2
 74
     2
 75
     0
340
55
 46
0.1
 50
0.0
 44
-0.1
 45
-0.05
  9
GAS
 49
-0.25
 74
     0
  0
LTYPE
  5
B9
330
5
100
AcDbSymbolTableRecord
100
AcDbLinetypeTableRecord
  2
ZIGZAG
 70
     0
  3
Zig zag /\/\/\/\/\/\/\/\/\/\/\/\/\/\/\/\/\/\/\/
 72
    65
 73
     4
 40
0.8001000000000001
 49
0.0001
 74
     0
 49
-0.2
 74
     4
 75
   131
340
B2
 46
0.2
 50
0.0
 44
-0.2
 45
0.0
 49
-0.4
 74
     4
 75
   131
340
B2
 46
0.2
 50
180.0
 44
0.2
 45
0.0
 49
-0.2
 74
     0
  0
ENDTAB
  0
TABLE
  2
LAYER
  5
2
330
0
100
AcDbSymbolTable
 70
    27
  0
LAYER
  5
54
330
2
100
AcDbSymbolTableRecord
100
AcDbLayerTableRecord
  2
0
 70
     0
 62
     7
  6
Continuous
370
    18
390
F
  0
LAYER
  5
C3
330
2
100
AcDbSymbolTableRecord
100
AcDbLayerTableRecord
  2
Dimension (ANSI)
 70
     0
 62
     7
  6
Continuous
370
    13
390
F
  0
LAYER
  5
C5
330
2
100
AcDbSymbolTableRecord
100
AcDbLayerTableRecord
  2
Hidden (ANSI)
 70
     0
 62
     7
  6
DASHED
370
    15
390
F
  0
LAYER
  5
CC
330
2
100
AcDbSymbolTableRecord
100
AcDbLayerTableRecord
  2
Symbol (ANSI)
 70
     0
 62
     7
  6
Continuous
370
    18
390
F
  0
LAYER
  5
CF
330
2
100
AcDbSymbolTableRecord
100
AcDbLayerTableRecord
  2
Visible (ANSI)
 70
     0
 62
     7
  6
Continuous
370
    13
390
F
  0
LAYER
  5
D0
330
2
100
AcDbSymbolTableRecord
100
AcDbLayerTableRecord
  2
Visible Narrow (ANSI)
 70
     0
 62
     7
  6
Continuous
370
    18
390
F
  0
LAYER
  5
1AA
330
2
100
AcDbSymbolTableRecord
100
AcDbLayerTableRecord
  2
Defpoints
 70
     0
 62
     7
  6
Continuous
290
     0
370
    -3
390
F
  0
ENDTAB
  0
TABLE
  2
STYLE
  5
3
330
0
100
AcDbSymbolTable
 70
    17
  0
STYLE
  5
55
330
3
100
AcDbSymbolTableRecord
100
AcDbTextStyleTableRecord
  2
Standard
 70
     0
 40
0.0
 41
1.0
 50
0.0
 71
     0
 42
0.2
  3
txt
  4

  0
STYLE
  5
5A
330
3
100
AcDbSymbolTableRecord
100
AcDbTextStyleTableRecord
  2
Annotative
 70
     0
 40
0.0
 41
1.0
 50
0.0
 71
     0
 42
0.2
  3
txt
  4

1001
AcadAnnotative
1000
AnnotativeData
1002
{
1070
     1
1070
     1
1002
}
  0
STYLE
  5
B2
330
3
100
AcDbSymbolTableRecord
100
AcDbTextStyleTableRecord
  2

 70
     1
 40
0.0
 41
1.0
 50
0.0
 71
     0
 42
0.2
  3
ltypeshp.shx
  4

  0
STYLE
  5
D4
330
3
100
AcDbSymbolTableRecord
100
AcDbTextStyleTableRecord
  2
ITALICC_120
 70
     0
 40
0.0
 41
1.0
 50
0.0
 71
     0
 42
0.2
  3
italicc.shx
  4

  0
STYLE
  5
D5
330
3
100
AcDbSymbolTableRecord
100
AcDbTextStyleTableRecord
  2
Label Text (ANSI)
 70
     0
 40
0.0
 41
1.0
 50
0.0
 71
     0
 42
0.2
  3
RomanS.shx
  4

  0
STYLE
  5
D6
330
3
100
AcDbSymbolTableRecord
100
AcDbTextStyleTableRecord
  2
Note Text (ANSI)
 70
     0
 40
0.0
 41
1.0
 50
0.0
 71
     0
 42
0.2
  3
RomanS.shx
  4

  0
STYLE
  5
D7
330
3
100
AcDbSymbolTableRecord
100
AcDbTextStyleTableRecord
  2
ROMANS
 70
     0
 40
0.0
 41
1.0
 50
0.0
 71
     0
 42
0.2
  3
romans.shx
  4

  0
STYLE
  5
D8
330
3
100
AcDbSymbolTableRecord
100
AcDbTextStyleTableRecord
  2
SANSSERIF_114
 70
     0
 40
0.0
 41
1.0
 50
0.0
 71
     0
 42
0.2
  3
TAHOMA.TTF
  4

1001
ACAD
1000
Tahoma
1071
      256
  0
STYLE
  5
D9
330
3
100
AcDbSymbolTableRecord
100
AcDbTextStyleTableRecord
  2
SANSSERIF_117
 70
     0
 40
0.0
 41
1.0
 50
0.0
 71
     0
 42
0.2
  3
TAHOMA.TTF
  4

1001
ACAD
1000
Tahoma
1071
      256
  0
STYLE
  5
DA
330
3
100
AcDbSymbolTableRecord
100
AcDbTextStyleTableRecord
  2
STANDARDAM_ANSI
 70
     0
 40
0.0
 41
1.0
 50
0.0
 71
     0
 42
0.2
  3
txt.shx
  4

  0
STYLE
  5
DB
330
3
100
AcDbSymbolTableRecord
100
AcDbTextStyleTableRecord
  2
StandardAM_ANSI$0
 70
     0
 40
0.0
 41
1.0
 50
0.0
 71
     0
 42
0.2
  3
txt.shx
  4

  0
STYLE
  5
DC
330
3
100
AcDbSymbolTableRecord
100
AcDbTextStyleTableRecord
  2
STANDARDAM_ANSI$3
 70
     0
 40
0.0
 41
1.0
 50
0.0
 71
     0
 42
0.2
  3
txt.shx
  4

  0
STYLE
  5
DD
330
3
100
AcDbSymbolTableRecord
100
AcDbTextStyleTableRecord
  2
STANDARDAM_ANSI$4
 70
     0
 40
0.0
 41
1.0
 50
0.0
 71
     0
 42
0.2
  3
txt.shx
  4

  0
STYLE
  5
DE
330
3
100
AcDbSymbolTableRecord
100
AcDbTextStyleTableRecord
  2
STANDARDAM_ANSI$7
 70
     0
 40
0.0
 41
1.0
 50
0.0
 71
     0
 42
0.2
  3
txt.shx
  4

  0
STYLE
  5
DF
330
3
100
AcDbSymbolTableRecord
100
AcDbTextStyleTableRecord
  2
STANDARDAM_ANSI$SF
 70
     0
 40
0.0
 41
1.0
 50
0.0
 71
     0
 42
0.2
  3
txt.shx
  4

  0
STYLE
  5
E0
330
3
100
AcDbSymbolTableRecord
100
AcDbTextStyleTableRecord
  2
STANDARDAM_ANSI$SH
 70
     0
 40
0.0
 41
1.0
 50
0.0
 71
     0
 42
0.2
  3
txt.shx
  4

  0
STYLE
  5
E1
330
3
100
AcDbSymbolTableRecord
100
AcDbTextStyleTableRecord
  2
STANDARDSTANDARD
 70
     0
 40
0.0
 41
1.0
 50
0.0
 71
     0
 42
0.2
  3
txt.shx
  4

  0
ENDTAB
  0
TABLE
  2
VIEW
  5
6
330
0
100
AcDbSymbolTable
 70
     0
  0
ENDTAB
  0
TABLE
  2
UCS
  5
7
330
0
100
AcDbSymbolTable
 70
     0
  0
ENDTAB
  0
TABLE
  2
APPID
  5
9
330
0
100
AcDbSymbolTable
 70
     4
  0
APPID
  5
56
330
9
100
AcDbSymbolTableRecord
100
AcDbRegAppTableRecord
  2
ACAD
 70
     0
  0
APPID
  5
5E
330
9
100
AcDbSymbolTableRecord
100
AcDbRegAppTableRecord
  2
AcadAnnotative
 70
     0
  0
APPID
  5
418
330
9
100
AcDbSymbolTableRecord
100
AcDbRegAppTableRecord
  2
ACAD_DSTYLE_DIMRADIAL_EXTENSION
 70
     0
  0
APPID
  5
DC7
330
9
100
AcDbSymbolTableRecord
100
AcDbRegAppTableRecord
  2
ACAD_MLEADERVER
 70
     0
  0
ENDTAB
  0
TABLE
  2
DIMSTYLE
  5
A
330
0
100
AcDbSymbolTable
 70
    27
100
AcDbDimStyleTable
 71
     2
340
F6
340
58
  0
DIMSTYLE
105
58
330
A
100
AcDbSymbolTableRecord
100
AcDbDimStyleTableRecord
  2
STANDARD
 70
     0
 41
0.1800000071525573
 42
0.0625
140
0.1800000071525574
144
1.0
147
0.0900000035762787
176
   256
177
   256
178
   256
274
     3
340
55
371
    -1
372
    -1
  0
DIMSTYLE
105
59
330
A
100
AcDbSymbolTableRecord
100
AcDbDimStyleTableRecord
  2
Annotative
 70
     0
340
55
1001
AcadAnnotative
1000
AnnotativeData
1002
{
1070
     1
1070
     1
1002
}
  0
DIMSTYLE
105
E2
330
A
100
AcDbSymbolTableRecord
100
AcDbDimStyleTableRecord
  2
AM_ANSI
 70
     0
  4
 mm
 40
4.0
 41
0.119999997317791
 42
0.05
 43
0.5
 44
0.1
 45
0.00000001
 78
     4
 79
     2
140
0.1200000047683716
146
0.7099999453624112
147
0.0599999986588955
176
   256
177
   256
178
     2
284
     4
340
DA
371
    -1
372
    -1
  0
DIMSTYLE
105
E3
330
A
100
AcDbSymbolTableRecord
100
AcDbDimStyleTableRecord
  2
AM_ANSI$7
 70
     0
  4
 mm
 40
4.0
 41
0.119999997317791
 42
0.05
 43
0.5
 44
0.1
 45
0.00000001
 78
     4
 79
     2
140
0.1200000047683716
146
0.7099999453624112
147
0.0599999986588955
176
   256
177
   256
178
     2
284
     4
340
DA
371
    -1
372
    -1
  0
DIMSTYLE
105
E4
330
A
100
AcDbSymbolTableRecord
100
AcDbDimStyleTableRecord
  2
AM_ANSI$0
 70
     0
  4
 mm
 40
4.0
 41
0.119999997317791
 42
0.05
 43
0.5
 44
0.1
 45
0.00000001
 78
     4
 79
     2
140
0.1200000047683716
146
0.7099999453624112
147
0.0599999986588955
176
   256
177
   256
178
     2
284
     4
340
DB
371
    -1
372
    -1
  0
DIMSTYLE
105
E5
330
A
100
AcDbSymbolTableRecord
100
AcDbDimStyleTableRecord
  2
AM_ANSI$0$7
 70
     0
  4
 mm
 40
4.0
 41
0.119999997317791
 42
0.05
 43
0.5
 44
0.1
 45
0.00000001
 78
     4
 79
     2
140
0.1200000047683716
146
0.7099999453624112
147
0.0599999986588955
176
   256
177
   256
178
     2
284
     4
340
DB
371
    -1
372
    -1
  0
DIMSTYLE
105
E6
330
A
100
AcDbSymbolTableRecord
100
AcDbDimStyleTableRecord
  2
AM_ANSI$3
 70
     0
  4
 mm
 40
4.0
 41
0.119999997317791
 42
0.05
 43
0.5
 44
0.1
 45
0.00000001
 78
     4
 79
     2
140
0.1200000047683716
146
0.7099999453624112
147
0.0599999986588955
176
   256
177
   256
178
     2
284
     4
340
DC
371
    -1
372
    -1
  0
DIMSTYLE
105
E7
330
A
100
AcDbSymbolTableRecord
100
AcDbDimStyleTableRecord
  2
AM_ANSI$3$7
 70
     0
  4
 mm
 40
4.0
 41
0.119999997317791
 42
0.05
 43
0.5
 44
0.1
 45
0.00000001
 78
     4
 79
     2
140
0.1200000047683716
146
0.7099999453624112
147
0.0599999986588955
176
   256
177
   256
178
     2
284
     4
340
DC
371
    -1
372
    -1
  0
DIMSTYLE
105
E8
330
A
100
AcDbSymbolTableRecord
100
AcDbDimStyleTableRecord
  2
AM_ANSI$4
 70
     0
  4
 mm
 40
4.0
 41
0.119999997317791
 42
0.05
 43
0.5
 44
0.1
 45
0.00000001
 78
     4
 79
     2
140
0.1200000047683716
146
0.7099999453624112
147
0.0599999986588955
176
   256
177
   256
178
     2
284
     4
340
DD
371
    -1
372
    -1
  0
DIMSTYLE
105
E9
330
A
100
AcDbSymbolTableRecord
100
AcDbDimStyleTableRecord
  2
AM_ANSI$4$7
 70
     0
  4
 mm
 40
4.0
 41
0.119999997317791
 42
0.05
 43
0.5
 44
0.1
 45
0.00000001
 78
     4
 79
     2
140
0.1200000047683716
146
0.7099999453624112
147
0.0599999986588955
176
   256
177
   256
178
     2
284
     4
340
DD
371
    -1
372
    -1
  0
DIMSTYLE
105
EA
330
A
100
AcDbSymbolTableRecord
100
AcDbDimStyleTableRecord
  2
AM_ANSI$SF
 70
     0
  4
 mm
 40
4.0
 41
0.119999997317791
 42
0.05
 43
0.5
 44
0.1
 45
0.00000001
 75
     1
 76
     1
 78
     4
 79
     2
140
0.1200000047683716
146
0.7099999453624112
147
0.0599999986588955
176
   256
177
   256
178
     2
284
     4
340
DF
371
    -1
372
    -1
  0
DIMSTYLE
105
EB
330
A
100
AcDbSymbolTableRecord
100
AcDbDimStyleTableRecord
  2
AM_ANSI$SF$7
 70
     0
  4
 mm
 40
4.0
 41
0.119999997317791
 42
0.05
 43
0.5
 44
0.1
 45
0.00000001
 75
     1
 76
     1
 78
     4
 79
     2
140
0.1200000047683716
146
0.7099999453624112
147
0.0599999986588955
176
   256
177
   256
178
     2
284
     4
340
DF
371
    -1
372
    -1
  0
DIMSTYLE
105
EC
330
A
100
AcDbSymbolTableRecord
100
AcDbDimStyleTableRecord
  2
AM_ANSI$SH
 70
     0
  4
 mm
 40
4.0
 41
0.119999997317791
 42
0.05
 43
0.5
 44
0.1
 45
0.00000001
 75
     1
 76
     1
 78
     4
 79
     2
140
0.1200000047683716
146
0.7099999453624112
147
0.0599999986588955
176
   256
177
   256
178
     2
284
     4
340
E0
371
    -1
372
    -1
  0
DIMSTYLE
105
ED
330
A
100
AcDbSymbolTableRecord
100
AcDbDimStyleTableRecord
  2
AM_ANSI$SH$7
 70
     0
  4
 mm
 40
4.0
 41
0.119999997317791
 42
0.05
 43
0.5
 44
0.1
 45
0.00000001
 75
     1
 76
     1
 78
     4
 79
     2
140
0.1200000047683716
146
0.7099999453624112
147
0.0599999986588955
176
   256
177
   256
178
     2
284
     4
340
E0
371
    -1
372
    -1
  0
DIMSTYLE
105
EE
330
A
100
AcDbSymbolTableRecord
100
AcDbDimStyleTableRecord
  2
Architectural (ANSI)
 70
     0
 40
4.0
 41
0.0984251946210861
 43
0.2362204724409449
 44
0.125
 45
0.00000001
 46
0.3937007874015748
 78
     3
 79
     3
140
0.1200000047683716
147
0.031496062992126
171
     1
176
   256
177
   256
178
   256
272
     2
274
     1
276
     2
277
     4
284
    12
285
     4
286
    12
340
D6
371
    -1
372
    -1
  0
DIMSTYLE
105
EF
330
A
100
AcDbSymbolTableRecord
100
AcDbDimStyleTableRecord
  2
Architectural (ANSI)$7
 70
     0
 40
4.0
 41
0.0984251946210861
 43
0.2362204724409449
 44
0.125
 45
0.00000001
 46
0.3937007874015748
 78
     3
 79
     3
140
0.1200000047683716
147
0.031496062992126
171
     1
176
   256
177
   256
178
   256
272
     2
274
     1
276
     2
277
     4
284
    12
285
     4
286
    12
340
D6
371
    -1
372
    -1
  0
DIMSTYLE
105
F0
330
A
100
AcDbSymbolTableRecord
100
AcDbDimStyleTableRecord
  2
Default - Fraction (ANSI)
 70
     0
 40
4.0
 41
0.0984251946210861
 43
0.2362204724409449
 44
0.125
 45
0.00000001
 46
0.3937007874015748
 79
     3
140
0.1200000047683716
147
0.031496062992126
171
     1
176
   256
177
   256
178
   256
272
     2
274
     1
276
     2
277
     5
284
    12
285
     4
286
    12
340
D6
371
    -1
372
    -1
  0
DIMSTYLE
105
F1
330
A
100
AcDbSymbolTableRecord
100
AcDbDimStyleTableRecord
  2
Default - Fraction (ANSI)$7
 70
     0
 40
4.0
 41
0.0984251946210861
 43
0.2362204724409449
 44
0.125
 45
0.00000001
 46
0.3937007874015748
 79
     3
140
0.1200000047683716
147
0.031496062992126
171
     1
176
   256
177
   256
178
   256
272
     2
274
     1
276
     2
277
     5
284
    12
285
     4
286
    12
340
D6
371
    -1
372
    -1
  0
DIMSTYLE
105
F2
330
A
100
AcDbSymbolTableRecord
100
AcDbDimStyleTableRecord
  2
Default - mm (ANSI)
 70
     0
 40
4.0
 41
0.0984251946210861
 42
0.063
 43
0.2362204724409449
 44
0.125
 45
0.00000001
 46
0.3937007874015748
 73
     0
 78
     4
 79
     1
140
0.1200000047683716
143
1.0
144
25.4
147
0.031496062992126
171
     1
176
   256
177
   256
178
   256
179
     1
271
     2
272
     2
274
     1
284
     4
285
     4
340
D6
371
    -1
372
    -1
  0
DIMSTYLE
105
F3
330
A
100
AcDbSymbolTableRecord
100
AcDbDimStyleTableRecord
  2
Default - mm (ANSI)$7
 70
     0
 40
4.0
 41
0.0984251946210861
 42
0.063
 43
0.2362204724409449
 44
0.125
 45
0.00000001
 46
0.3937007874015748
 73
     0
 78
     4
 79
     1
140
0.1200000047683716
143
1.0
144
25.4
147
0.031496062992126
171
     1
176
   256
177
   256
178
   256
179
     1
271
     2
272
     2
274
     1
284
     4
285
     4
340
D6
371
    -1
372
    -1
  0
DIMSTYLE
105
F4
330
A
100
AcDbSymbolTableRecord
100
AcDbDimStyleTableRecord
  2
Default - mm [in] (ANSI)
 70
     0
  4
 in
 40
4.0
 41
0.0984251946210861
 42
0.063
 43
0.25
 44
0.125
 45
0.00000001
 46
0.3937007874015748
 73
     0
 78
     4
 79
     1
140
0.1200000047683716
143
0.03937
144
25.4
147
0.031496062992126
170
     1
171
     3
176
   256
177
   256
178
   256
179
     1
271
     2
272
     2
274
     3
284
     4
285
     4
286
     4
340
D6
371
    -1
372
    -1
  0
DIMSTYLE
105
F5
330
A
100
AcDbSymbolTableRecord
100
AcDbDimStyleTableRecord
  2
Default - mm [in] (ANSI)$7
 70
     0
  4
 in
 40
4.0
 41
0.0984251946210861
 42
0.063
 43
0.25
 44
0.125
 45
0.00000001
 46
0.3937007874015748
 73
     0
 78
     4
 79
     1
140
0.1200000047683716
143
0.03937
144
25.4
147
0.031496062992126
170
     1
171
     3
176
   256
177
   256
178
   256
179
     1
271
     2
272
     2
274
     3
284
     4
285
     4
286
     4
340
D6
371
    -1
372
    -1
  0
DIMSTYLE
105
F6
102
{ACAD_REACTORS
330
1A8
330
295
330
37F
330
439
330
4F2
330
5F0
330
6DA
330
7D7
330
8C1
330
9C1
330
AAB
330
B95
330
C97
102
}
330
A
100
AcDbSymbolTableRecord
100
AcDbDimStyleTableRecord
  2
Default (ANSI)
 70
     0
 40
4.0
 41
0.0984251946210861
 43
0.2362204724409449
 44
0.125
 45
0.00000001
 46
0.3937007874015748
 79
     1
140
0.1200000047683716
147
0.031496062992126
171
     1
176
   256
177
   256
178
   256
271
     3
272
     2
274
     1
284
     4
285
     4
340
D6
371
    -1
372
    -1
  0
DIMSTYLE
105
F7
330
A
100
AcDbSymbolTableRecord
100
AcDbDimStyleTableRecord
  2
Default (ANSI)$7
 70
     0
 40
4.0
 41
0.0984251946210861
 43
0.2362204724409449
 44
0.125
 45
0.00000001
 46
0.3937007874015748
 79
     1
140
0.1200000047683716
147
0.031496062992126
171
     1
176
   256
177
   256
178
   256
271
     3
272
     2
274
     1
284
     4
285
     4
340
D6
371
    -1
372
    -1
  0
DIMSTYLE
105
F8
330
A
100
AcDbSymbolTableRecord
100
AcDbDimStyleTableRecord
  2
Alternate (ANSI)
 70
     0
 40
4.0
 41
0.0979999974370003
340
55
342
F9
  0
DIMSTYLE
105
10B
330
A
100
AcDbSymbolTableRecord
100
AcDbDimStyleTableRecord
  2
Datum (ANSI)
 70
     0
 40
4.0
 41
0.0979999974370003
340
55
342
F9
  0
DIMSTYLE
105
11A
330
A
100
AcDbSymbolTableRecord
100
AcDbDimStyleTableRecord
  2
Large (ANSI)
 70
     0
 40
4.0
 41
0.1959999948740005
340
55
342
F9
  0
ENDTAB
  0
TABLE
  2
BLOCK_RECORD
  5
1
330
0
100
AcDbSymbolTable
 70
    17
  0
BLOCK_RECORD
  5
6C
330
1
100
AcDbSymbolTableRecord
100
AcDbBlockTableRecord
  2
*Model_Space
340
6F
  0
BLOCK_RECORD
  5
68
330
1
100
AcDbSymbolTableRecord
100
AcDbBlockTableRecord
  2
*Paper_Space
340
6B
  0
BLOCK_RECORD
  5
70
330
1
100
AcDbSymbolTableRecord
100
AcDbBlockTableRecord
  2
*Paper_Space0
340
73
  0
BLOCK_RECORD
  5
F9
330
1
100
AcDbSymbolTableRecord
100
AcDbBlockTableRecord
  2
_Closed
340
0
  0
BLOCK_RECORD
  5
100
330
1
100
AcDbSymbolTableRecord
100
AcDbBlockTableRecord
  2
DatumFilled45
340
0
  0
BLOCK_RECORD
  5
10C
330
1
100
AcDbSymbolTableRecord
100
AcDbBlockTableRecord
  2
Filled-1
340
0
  0
BLOCK_RECORD
  5
1AB
330
1
100
AcDbSymbolTableRecord
100
AcDbBlockTableRecord
  2
*D4
340
0
  0
BLOCK_RECORD
  5
296
330
1
100
AcDbSymbolTableRecord
100
AcDbBlockTableRecord
  2
*D5
340
0
  0
BLOCK_RECORD
  5
380
330
1
100
AcDbSymbolTableRecord
100
AcDbBlockTableRecord
  2
*D6
340
0
  0
BLOCK_RECORD
  5
43A
330
1
100
AcDbSymbolTableRecord
100
AcDbBlockTableRecord
  2
*D7
340
0
  0
BLOCK_RECORD
  5
4F3
330
1
100
AcDbSymbolTableRecord
100
AcDbBlockTableRecord
  2
*D8
340
0
  0
BLOCK_RECORD
  5
5F1
330
1
100
AcDbSymbolTableRecord
100
AcDbBlockTableRecord
  2
*D9
340
0
  0
BLOCK_RECORD
  5
6DB
330
1
100
AcDbSymbolTableRecord
100
AcDbBlockTableRecord
  2
*D10
340
0
  0
BLOCK_RECORD
  5
7D8
330
1
100
AcDbSymbolTableRecord
100
AcDbBlockTableRecord
  2
*D11
340
0
  0
BLOCK_RECORD
  5
8C2
330
1
100
AcDbSymbolTableRecord
100
AcDbBlockTableRecord
  2
*D12
340
0
  0
BLOCK_RECORD
  5
9C2
330
1
100
AcDbSymbolTableRecord
100
AcDbBlockTableRecord
  2
*D13
340
0
  0
BLOCK_RECORD
  5
AAC
330
1
100
AcDbSymbolTableRecord
100
AcDbBlockTableRecord
  2
*D14
340
0
  0
BLOCK_RECORD
  5
B96
330
1
100
AcDbSymbolTableRecord
100
AcDbBlockTableRecord
  2
*D15
340
0
  0
BLOCK_RECORD
  5
C98
330
1
100
AcDbSymbolTableRecord
100
AcDbBlockTableRecord
  2
*D16
340
0
  0
ENDTAB
  0
ENDSEC
  0
SECTION
  2
BLOCKS
  0
BLOCK
  5
6D
330
6C
100
AcDbEntity
  8
0
100
AcDbBlockBegin
  2
*Model_Space
 70
     0
 10
0.0
 20
0.0
 30
0.0
  3
*Model_Space
  1

  0
ENDBLK
  5
6E
330
6C
100
AcDbEntity
  8
0
100
AcDbBlockEnd
  0
BLOCK
  5
69
330
68
100
AcDbEntity
 67
     1
  8
0
100
AcDbBlockBegin
  2
*Paper_Space
 70
     0
 10
0.0
 20
0.0
 30
0.0
  3
*Paper_Space
  1

  0
ENDBLK
  5
6A
330
68
100
AcDbEntity
 67
     1
  8
0
100
AcDbBlockEnd
  0
BLOCK
  5
71
330
70
100
AcDbEntity
 67
     1
  8
0
100
AcDbBlockBegin
  2
*Paper_Space0
 70
     0
 10
0.0
 20
0.0
 30
0.0
  3
*Paper_Space0
  1

  0
ENDBLK
  5
72
330
70
100
AcDbEntity
 67
     1
  8
0
100
AcDbBlockEnd
  0
BLOCK
  5
FE
330
F9
100
AcDbEntity
  8
0
100
AcDbBlockBegin
  2
_Closed
 70
     0
 10
0.0
 20
0.0
 30
0.0
  3
_Closed
  1

  0
LINE
  5
FA
330
F9
100
AcDbEntity
  8
0
  6
ByBlock
 62
     0
370
    -2
100
AcDbLine
 10
-1.0
 20
0.1666666666666666
 30
0.0
 11
0.0
 21
0.0
 31
0.0
  0
LINE
  5
FB
330
F9
100
AcDbEntity
  8
0
  6
ByBlock
 62
     0
370
    -2
100
AcDbLine
 10
0.0
 20
0.0
 30
0.0
 11
-1.0
 21
-0.1666666666666666
 31
0.0
  0
LINE
  5
FC
330
F9
100
AcDbEntity
  8
0
  6
ByBlock
 62
     0
370
    -2
100
AcDbLine
 10
-1.0
 20
0.1666666666666666
 30
0.0
 11
-1.0
 21
-0.1666666666666666
 31
0.0
  0
LINE
  5
FD
330
F9
100
AcDbEntity
  8
0
  6
ByBlock
 62
     0
370
    -2
100
AcDbLine
 10
0.0
 20
0.0
 30
0.0
 11
-1.0
 21
0.0
 31
0.0
  0
ENDBLK
  5
FF
330
F9
100
AcDbEntity
  8
0
100
AcDbBlockEnd
  0
BLOCK
  5
101
330
100
100
AcDbEntity
  8
0
100
AcDbBlockBegin
  2
DatumFilled45
 70
     0
 10
0.0
 20
0.0
 30
0.0
  3
DatumFilled45
  1

  0
POLYLINE
  5
103
330
100
100
AcDbEntity
  8
0
 62
     0
100
AcDb2dPolyline
 66
     1
 10
0.0
 20
0.0
 30
0.0
 70
   128
  0
VERTEX
  5
104
330
103
100
AcDbEntity
  8
0
 62
     0
100
AcDbVertex
100
AcDb2dVertex
 10
0.0
 20
0.9999999999999998
 30
0.0
  0
VERTEX
  5
105
330
103
100
AcDbEntity
  8
0
 62
     0
100
AcDbVertex
100
AcDb2dVertex
 10
0.0
 20
-0.9999999999999998
 30
0.0
  0
VERTEX
  5
107
330
103
100
AcDbEntity
  8
0
 62
     0
100
AcDbVertex
100
AcDb2dVertex
 10
-0.9999999999999998
 20
0.0
 30
0.0
  0
VERTEX
  5
108
330
103
100
AcDbEntity
  8
0
 62
     0
100
AcDbVertex
100
AcDb2dVertex
 10
0.0
 20
0.9999999999999998
 30
0.0
  0
SEQEND
  5
106
330
103
100
AcDbEntity
  8
0
 62
     0
  0
SOLID
  5
10A
330
100
100
AcDbEntity
  8
0
 62
     0
100
AcDbTrace
 10
0.0
 20
0.9999999999999998
 30
0.0
 11
0.0
 21
-0.9999999999999998
 31
0.0
 12
-0.9999999999999998
 22
0.0
 32
0.0
 13
0.0
 23
0.9999999999999998
 33
0.0
  0
ENDBLK
  5
102
330
100
100
AcDbEntity
  8
0
100
AcDbBlockEnd
  0
BLOCK
  5
10D
330
10C
100
AcDbEntity
  8
0
100
AcDbBlockBegin
  2
Filled-1
 70
     0
 10
0.0
 20
0.0
 30
0.0
  3
Filled-1
  1

  0
LINE
  5
10F
330
10C
100
AcDbEntity
  8
0
 62
     0
100
AcDbLine
 10
-0.9999999999999998
 20
0.0
 30
0.0
 11
0.0
 21
0.0
 31
0.0
  0
POLYLINE
  5
110
330
10C
100
AcDbEntity
  8
0
 62
     0
100
AcDb2dPolyline
 66
     1
 10
0.0
 20
0.0
 30
0.0
 70
   128
  0
VERTEX
  5
111
330
110
100
AcDbEntity
  8
0
 62
     0
100
AcDbVertex
100
AcDb2dVertex
 10
-0.9999999999999998
 20
-0.0994897959183674
 30
0.0
  0
VERTEX
  5
112
330
110
100
AcDbEntity
  8
0
 62
     0
100
AcDbVertex
100
AcDb2dVertex
 10
0.0
 20
0.0
 30
0.0
  0
VERTEX
  5
114
330
110
100
AcDbEntity
  8
0
 62
     0
100
AcDbVertex
100
AcDb2dVertex
 10
-0.9999999999999998
 20
0.0994897959183674
 30
0.0
  0
VERTEX
  5
115
330
110
100
AcDbEntity
  8
0
 62
     0
100
AcDbVertex
100
AcDb2dVertex
 10
-0.9999999999999998
 20
-0.0994897959183674
 30
0.0
  0
SEQEND
  5
113
330
110
100
AcDbEntity
  8
0
 62
     0
  0
SOLID
  5
116
330
10C
100
AcDbEntity
  8
0
 62
     0
100
AcDbTrace
 10
-0.9999999999999998
 20
-0.0994897959183674
 30
0.0
 11
0.0
 21
0.0
 31
0.0
 12
-0.9999999999999998
 22
0.0994897959183674
 32
0.0
 13
-0.9999999999999998
 23
-0.0994897959183674
 33
0.0
  0
LINE
  5
117
330
10C
100
AcDbEntity
  8
0
 62
     0
100
AcDbLine
 10
-0.9999999999999998
 20
-0.0994897959183674
 30
0.0
 11
0.0
 21
0.0
 31
0.0
  0
LINE
  5
118
330
10C
100
AcDbEntity
  8
0
 62
     0
100
AcDbLine
 10
0.0
 20
0.0
 30
0.0
 11
-0.9999999999999998
 21
0.0994897959183674
 31
0.0
  0
LINE
  5
119
330
10C
100
AcDbEntity
  8
0
 62
     0
100
AcDbLine
 10
-0.9999999999999998
 20
0.0994897959183674
 30
0.0
 11
-0.9999999999999998
 21
-0.0994897959183674
 31
0.0
  0
ENDBLK
  5
10E
330
10C
100
AcDbEntity
  8
0
100
AcDbBlockEnd
  0
BLOCK
  5
1AC
330
1AB
100
AcDbEntity
  8
0
100
AcDbBlockBegin
  2
*D4
 70
     1
 10
0.0
 20
0.0
 30
0.0
  3
*D4
  1

  0
LINE
  5
28B
330
1AB
100
AcDbEntity
  8
Dimension (ANSI)
100
AcDbLine
 10
32.69259859679279
 20
34.88273709572106
 30
0.0
 11
32.69259859679279
 21
39.5421859146187
 31
0.0
  0
LINE
  5
28C
330
1AB
100
AcDbEntity
  8
Dimension (ANSI)
100
AcDbLine
 10
10.49259859679278
 20
34.88273709572105
 30
0.0
 11
10.49259859679278
 21
39.5421859146187
 31
0.0
  0
LINE
  5
28D
330
1AB
100
AcDbEntity
  8
Dimension (ANSI)
100
AcDbLine
 10
32.29889781830844
 20
39.0421859146187
 30
0.0
 11
22.9071543245623
 21
39.0421859146187
 31
0.0
  0
LINE
  5
28E
330
1AB
100
AcDbEntity
  8
Dimension (ANSI)
100
AcDbLine
 10
10.88629937527712
 20
39.0421859146187
 30
0.0
 11
20.27804286902327
 21
39.0421859146187
 31
0.0
  0
SOLID
  5
28F
330
1AB
100
AcDbEntity
  8
Dimension (ANSI)
100
AcDbTrace
 10
32.29889781830844
 20
39.10780271103276
 30
0.0
 11
32.29889781830844
 21
38.97656911820464
 31
0.0
 12
32.69259859679279
 22
39.0421859146187
 32
0.0
 13
32.69259859679279
 23
39.0421859146187
 33
0.0
  0
SOLID
  5
290
330
1AB
100
AcDbEntity
  8
Dimension (ANSI)
100
AcDbTrace
 10
10.88629937527712
 20
39.10780271103276
 30
0.0
 11
10.88629937527712
 21
38.97656911820464
 31
0.0
 12
10.49259859679278
 22
39.0421859146187
 32
0.0
 13
10.49259859679278
 23
39.0421859146187
 33
0.0
  0
MTEXT
  5
291
330
1AB
100
AcDbEntity
  8
Dimension (ANSI)
100
AcDbMText
 10
20.40402712099177
 20
39.28218592415544
 30
0.0
 40
0.4800000190734864
 41
0.0
 71
     1
 72
     1
  1
\A1;22.200
  7
Note Text (ANSI)
 73
     1
 44
1.0
1001
ACAD
1000
MTEXTBEGIN
1070
    73
1070
     1
1070
    44
1040
1.0
1070
    74
1070
     0
1000
MTEXTEND
  0
POINT
  5
292
330
1AB
100
AcDbEntity
  8
Defpoints
 62
     0
100
AcDbPoint
 10
32.69259859679279
 20
34.63273709572106
 30
0.0
  0
POINT
  5
293
330
1AB
100
AcDbEntity
  8
Defpoints
 62
     0
100
AcDbPoint
 10
10.49259859679278
 20
34.63273709572106
 30
0.0
  0
POINT
  5
294
330
1AB
100
AcDbEntity
  8
Defpoints
 62
     0
100
AcDbPoint
 10
10.49259859679278
 20
39.0421859146187
 30
0.0
  0
ENDBLK
  5
1AD
330
1AB
100
AcDbEntity
  8
0
100
AcDbBlockEnd
  0
BLOCK
  5
297
330
296
100
AcDbEntity
  8
0
100
AcDbBlockBegin
  2
*D5
 70
     1
 10
0.0
 20
0.0
 30
0.0
  3
*D5
  1

  0
LINE
  5
375
330
296
100
AcDbEntity
  8
Dimension (ANSI)
100
AcDbLine
 10
10.74259859679278
 20
35.13273709572106
 30
0.0
 11
4.598928058201946
 21
35.13273709572106
 31
0.0
  0
LINE
  5
376
330
296
100
AcDbEntity
  8
Dimension (ANSI)
100
AcDbLine
 10
10.74259859679279
 20
12.93273709572106
 30
0.0
 11
4.59892805820194
 21
12.93273709572106
 31
0.0
  0
LINE
  5
377
330
296
100
AcDbEntity
  8
Dimension (ANSI)
100
AcDbLine
 10
5.098928058201946
 20
34.73903631723671
 30
0.0
 11
5.098928058201943
 21
25.72323701195414
 31
0.0
  0
LINE
  5
378
330
296
100
AcDbEntity
  8
Dimension (ANSI)
100
AcDbLine
 10
5.09892805820194
 20
13.3264378742054
 30
0.0
 11
5.098928058201943
 21
24.99126848894364
 31
0.0
  0
SOLID
  5
379
330
296
100
AcDbEntity
  8
Dimension (ANSI)
100
AcDbTrace
 10
5.033311261787888
 20
34.73903631723671
 30
0.0
 11
5.164544854616003
 21
34.73903631723671
 31
0.0
 12
5.098928058201946
 22
35.13273709572106
 32
0.0
 13
5.098928058201946
 23
35.13273709572106
 33
0.0
  0
SOLID
  5
37A
330
296
100
AcDbEntity
  8
Dimension (ANSI)
100
AcDbTrace
 10
5.033311261787883
 20
13.3264378742054
 30
0.0
 11
5.164544854615998
 21
13.3264378742054
 31
0.0
 12
5.09892805820194
 22
12.93273709572106
 32
0.0
 13
5.09892805820194
 23
12.93273709572106
 33
0.0
  0
MTEXT
  5
37B
330
296
100
AcDbEntity
  8
Dimension (ANSI)
100
AcDbMText
 10
3.910356582400926
 20
25.59725275998563
 30
0.0
 40
0.4800000190734864
 41
0.0
 71
     1
 72
     1
  1
\A1;22.200
  7
Note Text (ANSI)
 73
     1
 44
1.0
1001
ACAD
1000
MTEXTBEGIN
1070
    73
1070
     1
1070
    44
1040
1.0
1070
    74
1070
     0
1000
MTEXTEND
  0
POINT
  5
37C
330
296
100
AcDbEntity
  8
Defpoints
 62
     0
100
AcDbPoint
 10
10.99259859679278
 20
35.13273709572106
 30
0.0
  0
POINT
  5
37D
330
296
100
AcDbEntity
  8
Defpoints
 62
     0
100
AcDbPoint
 10
10.99259859679279
 20
12.93273709572106
 30
0.0
  0
POINT
  5
37E
330
296
100
AcDbEntity
  8
Defpoints
 62
     0
100
AcDbPoint
 10
5.09892805820194
 20
12.93273709572106
 30
0.0
  0
ENDBLK
  5
298
330
296
100
AcDbEntity
  8
0
100
AcDbBlockEnd
  0
BLOCK
  5
381
330
380
100
AcDbEntity
  8
0
100
AcDbBlockBegin
  2
*D6
 70
     1
 10
0.0
 20
0.0
 30
0.0
  3
*D6
  1

  0
LINE
  5
431
330
380
100
AcDbEntity
  8
Dimension (ANSI)
100
AcDbLine
 10
13.90646604500889
 20
9.425521024229704
 30
0.0
 11
13.33771287975418
 21
9.425521024229702
 31
0.0
  0
LINE
  5
432
330
380
100
AcDbEntity
  8
Dimension (ANSI)
100
AcDbLine
 10
13.33771287975418
 20
9.425521024229702
 30
0.0
 11
11.33444898603507
 21
12.89527586911786
 31
0.0
  0
MTEXT
  5
433
102
{ACAD_XDICTIONARY
360
DCE
102
}
330
380
100
AcDbEntity
  8
Dimension (ANSI)
100
AcDbMText
 10
14.03245029697739
 20
9.808378182300222
 30
0.0
 40
0.4800000190734864
 41
0.0
 71
     1
 72
     1
  1
\A1;\U+22050.500{\PTYP.(4PL.)}
  7
Note Text (ANSI)
 73
     1
 44
1.0
1001
ACAD
1000
MTEXTBEGIN
1070
    73
1070
     1
1070
    44
1040
1.0
1070
    74
1070
     0
1000
MTEXTEND
  0
SOLID
  5
434
330
380
100
AcDbEntity
  8
Dimension (ANSI)
100
AcDbTrace
 10
11.39127479864459
 20
12.9280842673249
 30
0.0
 11
11.27762317342555
 21
12.86246747091082
 31
0.0
 12
11.13759859679283
 22
13.23623074477497
 32
0.0
 13
11.13759859679283
 23
13.23623074477497
 33
0.0
  0
LINE
  5
435
330
380
100
AcDbEntity
  8
Dimension (ANSI)
100
AcDbLine
 10
10.65259859679279
 20
13.45273709572105
 30
0.0
 11
11.37259859679279
 21
13.45273709572105
 31
0.0
  0
LINE
  5
436
330
380
100
AcDbEntity
  8
Dimension (ANSI)
100
AcDbLine
 10
11.01259859679279
 20
13.09273709572105
 30
0.0
 11
11.01259859679279
 21
13.81273709572105
 31
0.0
  0
POINT
  5
437
330
380
100
AcDbEntity
  8
Defpoints
 62
     0
100
AcDbPoint
 10
11.13759859679283
 20
13.23623074477497
 30
0.0
  0
POINT
  5
438
330
380
100
AcDbEntity
  8
Defpoints
 62
     0
100
AcDbPoint
 10
10.88759859679274
 20
13.66924344666714
 30
0.0
  0
ENDBLK
  5
382
330
380
100
AcDbEntity
  8
0
100
AcDbBlockEnd
  0
BLOCK
  5
43B
330
43A
100
AcDbEntity
  8
0
100
AcDbBlockBegin
  2
*D7
 70
     1
 10
0.0
 20
0.0
 30
0.0
  3
*D7
  1

  0
LINE
  5
4EA
330
43A
100
AcDbEntity
  8
Dimension (ANSI)
100
AcDbLine
 10
13.9087239849438
 20
11.8753648728254
 30
0.0
 11
13.33997081968908
 21
11.8753648728254
 31
0.0
  0
LINE
  5
4EB
330
43A
100
AcDbEntity
  8
Dimension (ANSI)
100
AcDbLine
 10
13.33997081968908
 20
11.8753648728254
 30
0.0
 11
11.40147252157794
 21
13.81386317093601
 31
0.0
  0
MTEXT
  5
4EC
102
{ACAD_XDICTIONARY
360
DD0
102
}
330
43A
100
AcDbEntity
  8
Dimension (ANSI)
100
AcDbMText
 10
14.03470823691231
 20
12.25822203089592
 30
0.0
 40
0.4800000190734864
 41
0.0
 71
     1
 72
     1
  1
\A1;\U+22050.313{\PTYP.(4PL.)}
  7
Note Text (ANSI)
 73
     1
 44
1.0
1001
ACAD
1000
MTEXTBEGIN
1070
    73
1070
     1
1070
    44
1040
1.0
1070
    74
1070
     0
1000
MTEXTEND
  0
SOLID
  5
4ED
330
43A
100
AcDbEntity
  8
Dimension (ANSI)
100
AcDbTrace
 10
11.44787060328205
 20
13.86026125264013
 30
0.0
 11
11.35507443987383
 21
13.76746508923188
 31
0.0
 12
11.1230840313532
 22
14.09225166116067
 32
0.0
 13
11.1230840313532
 23
14.09225166116067
 33
0.0
  0
LINE
  5
4EE
330
43A
100
AcDbEntity
  8
Dimension (ANSI)
100
AcDbLine
 10
10.65259859679279
 20
14.20273709572106
 30
0.0
 11
11.37259859679278
 21
14.20273709572106
 31
0.0
  0
LINE
  5
4EF
330
43A
100
AcDbEntity
  8
Dimension (ANSI)
100
AcDbLine
 10
11.01259859679279
 20
13.84273709572106
 30
0.0
 11
11.01259859679279
 21
14.56273709572106
 31
0.0
  0
POINT
  5
4F0
330
43A
100
AcDbEntity
  8
Defpoints
 62
     0
100
AcDbPoint
 10
11.1230840313532
 20
14.09225166116067
 30
0.0
  0
POINT
  5
4F1
330
43A
100
AcDbEntity
  8
Defpoints
 62
     0
100
AcDbPoint
 10
10.90211316223237
 20
14.31322253028144
 30
0.0
  0
ENDBLK
  5
43C
330
43A
100
AcDbEntity
  8
0
100
AcDbBlockEnd
  0
BLOCK
  5
4F4
330
4F3
100
AcDbEntity
  8
0
100
AcDbBlockBegin
  2
*D8
 70
     1
 10
0.0
 20
0.0
 30
0.0
  3
*D8
  1

  0
LINE
  5
5E6
330
4F3
100
AcDbEntity
  8
Dimension (ANSI)
100
AcDbLine
 10
42.78193291565964
 20
26.70857069531238
 30
0.0
 11
42.78193291565964
 21
13.31805310254078
 31
0.0
  0
LINE
  5
5E7
330
4F3
100
AcDbEntity
  8
Dimension (ANSI)
100
AcDbLine
 10
42.87568291565964
 20
26.70857069531238
 30
0.0
 11
42.87568291565964
 21
13.31805310254078
 31
0.0
  0
LINE
  5
5E8
330
4F3
100
AcDbEntity
  8
Dimension (ANSI)
100
AcDbLine
 10
42.38823213717529
 20
13.81805310254078
 30
0.0
 11
41.99453135869094
 21
13.81805310254078
 31
0.0
  0
LINE
  5
5E9
330
4F3
100
AcDbEntity
  8
Dimension (ANSI)
100
AcDbLine
 10
43.26938369414398
 20
13.81805310254078
 30
0.0
 11
43.66308447262833
 21
13.81805310254078
 31
0.0
  0
SOLID
  5
5EA
330
4F3
100
AcDbEntity
  8
Dimension (ANSI)
100
AcDbTrace
 10
42.38823213717529
 20
13.88366989895484
 30
0.0
 11
42.38823213717529
 21
13.75243630612673
 31
0.0
 12
42.78193291565964
 22
13.81805310254078
 32
0.0
 13
42.78193291565964
 23
13.81805310254078
 33
0.0
  0
SOLID
  5
5EB
330
4F3
100
AcDbEntity
  8
Dimension (ANSI)
100
AcDbTrace
 10
43.26938369414398
 20
13.88366989895484
 30
0.0
 11
43.26938369414398
 21
13.75243630612673
 31
0.0
 12
42.87568291565964
 22
13.81805310254078
 32
0.0
 13
42.87568291565964
 23
13.81805310254078
 33
0.0
  0
MTEXT
  5
5EC
330
4F3
100
AcDbEntity
  8
Dimension (ANSI)
100
AcDbMText
 10
43.78906872459683
 20
14.13805311525644
 30
0.0
 40
0.4800000190734864
 41
0.0
 71
     1
 72
     1
  1
\A1; 12 GA.\P304 SS
  7
Note Text (ANSI)
 73
     1
 44
1.0
1001
ACAD
1000
MTEXTBEGIN
1070
    73
1070
     1
1070
    44
1040
1.0
1070
    74
1070
     0
1000
MTEXTEND
  0
POINT
  5
5ED
330
4F3
100
AcDbEntity
  8
Defpoints
 62
     0
100
AcDbPoint
 10
42.78193291565964
 20
26.95857069531238
 30
0.0
  0
POINT
  5
5EE
330
4F3
100
AcDbEntity
  8
Defpoints
 62
     0
100
AcDbPoint
 10
42.87568291565964
 20
26.95857069531238
 30
0.0
  0
POINT
  5
5EF
330
4F3
100
AcDbEntity
  8
Defpoints
 62
     0
100
AcDbPoint
 10
42.87568291565964
 20
13.81805310254078
 30
0.0
  0
ENDBLK
  5
4F5
330
4F3
100
AcDbEntity
  8
0
100
AcDbBlockEnd
  0
BLOCK
  5
5F2
330
5F1
100
AcDbEntity
  8
0
100
AcDbBlockBegin
  2
*D9
 70
     1
 10
0.0
 20
0.0
 30
0.0
  3
*D9
  1

  0
LINE
  5
6D0
330
5F1
100
AcDbEntity
  8
Dimension (ANSI)
100
AcDbLine
 10
10.76259859679279
 20
34.61273709572106
 30
0.0
 11
7.048031667658934
 21
34.61273709572106
 31
0.0
  0
LINE
  5
6D1
330
5F1
100
AcDbEntity
  8
Dimension (ANSI)
100
AcDbLine
 10
10.76259859679279
 20
13.45273709572106
 30
0.0
 11
7.048031667658928
 21
13.45273709572106
 31
0.0
  0
LINE
  5
6D2
330
5F1
100
AcDbEntity
  8
Dimension (ANSI)
100
AcDbLine
 10
7.548031667658934
 20
34.21903631723671
 30
0.0
 11
7.548031667658931
 21
23.22048722939553
 31
0.0
  0
LINE
  5
6D3
330
5F1
100
AcDbEntity
  8
Dimension (ANSI)
100
AcDbLine
 10
7.548031667658928
 20
13.8464378742054
 30
0.0
 11
7.548031667658931
 21
22.48851870638504
 31
0.0
  0
SOLID
  5
6D4
330
5F1
100
AcDbEntity
  8
Dimension (ANSI)
100
AcDbTrace
 10
7.482414871244876
 20
34.21903631723671
 30
0.0
 11
7.613648464072992
 21
34.21903631723671
 31
0.0
 12
7.548031667658934
 22
34.61273709572106
 32
0.0
 13
7.548031667658934
 23
34.61273709572106
 33
0.0
  0
SOLID
  5
6D5
330
5F1
100
AcDbEntity
  8
Dimension (ANSI)
100
AcDbTrace
 10
7.482414871244871
 20
13.8464378742054
 30
0.0
 11
7.613648464072986
 21
13.8464378742054
 31
0.0
 12
7.548031667658928
 22
13.45273709572106
 32
0.0
 13
7.548031667658928
 23
13.45273709572106
 33
0.0
  0
MTEXT
  5
6D6
330
5F1
100
AcDbEntity
  8
Dimension (ANSI)
100
AcDbMText
 10
6.359460191857914
 20
23.09450297742703
 30
0.0
 40
0.4800000190734864
 41
0.0
 71
     1
 72
     1
  1
\A1;21.160
  7
Note Text (ANSI)
 73
     1
 44
1.0
1001
ACAD
1000
MTEXTBEGIN
1070
    73
1070
     1
1070
    44
1040
1.0
1070
    74
1070
     0
1000
MTEXTEND
  0
POINT
  5
6D7
330
5F1
100
AcDbEntity
  8
Defpoints
 62
     0
100
AcDbPoint
 10
11.01259859679279
 20
34.61273709572106
 30
0.0
  0
POINT
  5
6D8
330
5F1
100
AcDbEntity
  8
Defpoints
 62
     0
100
AcDbPoint
 10
11.01259859679279
 20
13.45273709572106
 30
0.0
  0
POINT
  5
6D9
330
5F1
100
AcDbEntity
  8
Defpoints
 62
     0
100
AcDbPoint
 10
7.548031667658928
 20
13.45273709572106
 30
0.0
  0
ENDBLK
  5
5F3
330
5F1
100
AcDbEntity
  8
0
100
AcDbBlockEnd
  0
BLOCK
  5
6DC
330
6DB
100
AcDbEntity
  8
0
100
AcDbBlockBegin
  2
*D10
 70
     1
 10
0.0
 20
0.0
 30
0.0
  3
*D10
  1

  0
LINE
  5
7CC
330
6DB
100
AcDbEntity
  8
Dimension (ANSI)
100
AcDbLine
 10
10.76259859679279
 20
14.20273709572106
 30
0.0
 11
6.902003412492604
 21
14.20273709572106
 31
0.0
  0
LINE
  5
7CD
330
6DB
100
AcDbEntity
  8
Dimension (ANSI)
100
AcDbLine
 10
10.76259859679279
 20
13.45273709572106
 30
0.0
 11
6.902003412492603
 21
13.45273709572106
 31
0.0
  0
LINE
  5
7CE
330
6DB
100
AcDbEntity
  8
Dimension (ANSI)
100
AcDbLine
 10
7.402003412492603
 20
13.05903631723671
 30
0.0
 11
7.402003412492603
 21
12.66533553875237
 31
0.0
  0
LINE
  5
7CF
330
6DB
100
AcDbEntity
  8
Dimension (ANSI)
100
AcDbLine
 10
7.402003412492604
 20
14.5964378742054
 30
0.0
 11
7.402003412492604
 21
15.34301684337678
 31
0.0
  0
LINE
  5
7D0
330
6DB
100
AcDbEntity
  8
Dimension (ANSI)
100
AcDbLine
 10
7.402003412492604
 20
15.34301684337678
 30
0.0
 11
7.795704190976948
 21
15.34301684337678
 31
0.0
  0
SOLID
  5
7D1
330
6DB
100
AcDbEntity
  8
Dimension (ANSI)
100
AcDbTrace
 10
7.336386616078545
 20
13.05903631723671
 30
0.0
 11
7.467620208906661
 21
13.05903631723671
 31
0.0
 12
7.402003412492603
 22
13.45273709572106
 32
0.0
 13
7.402003412492603
 23
13.45273709572106
 33
0.0
  0
SOLID
  5
7D2
330
6DB
100
AcDbEntity
  8
Dimension (ANSI)
100
AcDbTrace
 10
7.336386616078546
 20
14.5964378742054
 30
0.0
 11
7.467620208906661
 21
14.5964378742054
 31
0.0
 12
7.402003412492604
 22
14.20273709572106
 32
0.0
 13
7.402003412492604
 23
14.20273709572106
 33
0.0
  0
MTEXT
  5
7D3
330
6DB
100
AcDbEntity
  8
Dimension (ANSI)
100
AcDbMText
 10
7.92168844294545
 20
15.58301685291352
 30
0.0
 40
0.4800000190734864
 41
0.0
 71
     1
 72
     1
  1
\A1;0.750
  7
Note Text (ANSI)
 73
     1
 44
1.0
1001
ACAD
1000
MTEXTBEGIN
1070
    73
1070
     1
1070
    44
1040
1.0
1070
    74
1070
     0
1000
MTEXTEND
  0
POINT
  5
7D4
330
6DB
100
AcDbEntity
  8
Defpoints
 62
     0
100
AcDbPoint
 10
11.01259859679279
 20
14.20273709572106
 30
0.0
  0
POINT
  5
7D5
330
6DB
100
AcDbEntity
  8
Defpoints
 62
     0
100
AcDbPoint
 10
11.01259859679279
 20
13.45273709572106
 30
0.0
  0
POINT
  5
7D6
330
6DB
100
AcDbEntity
  8
Defpoints
 62
     0
100
AcDbPoint
 10
7.402003412492603
 20
13.45273709572106
 30
0.0
  0
ENDBLK
  5
6DD
330
6DB
100
AcDbEntity
  8
0
100
AcDbBlockEnd
  0
BLOCK
  5
7D9
330
7D8
100
AcDbEntity
  8
0
100
AcDbBlockBegin
  2
*D11
 70
     1
 10
0.0
 20
0.0
 30
0.0
  3
*D11
  1

  0
LINE
  5
8B7
330
7D8
100
AcDbEntity
  8
Dimension (ANSI)
100
AcDbLine
 10
32.17259859679279
 20
34.86273709572107
 30
0.0
 11
32.17259859679279
 21
37.98009444009476
 31
0.0
  0
LINE
  5
8B8
330
7D8
100
AcDbEntity
  8
Dimension (ANSI)
100
AcDbLine
 10
11.01259859679279
 20
34.86273709572106
 30
0.0
 11
11.01259859679279
 21
37.98009444009476
 31
0.0
  0
LINE
  5
8B9
330
7D8
100
AcDbEntity
  8
Dimension (ANSI)
100
AcDbLine
 10
31.77889781830844
 20
37.48009444009476
 30
0.0
 11
22.9071543245623
 21
37.48009444009476
 31
0.0
  0
LINE
  5
8BA
330
7D8
100
AcDbEntity
  8
Dimension (ANSI)
100
AcDbLine
 10
11.40629937527713
 20
37.48009444009476
 30
0.0
 11
20.27804286902327
 21
37.48009444009476
 31
0.0
  0
SOLID
  5
8BB
330
7D8
100
AcDbEntity
  8
Dimension (ANSI)
100
AcDbTrace
 10
31.77889781830844
 20
37.54571123650882
 30
0.0
 11
31.77889781830844
 21
37.41447764368071
 31
0.0
 12
32.17259859679279
 22
37.48009444009476
 32
0.0
 13
32.17259859679279
 23
37.48009444009476
 33
0.0
  0
SOLID
  5
8BC
330
7D8
100
AcDbEntity
  8
Dimension (ANSI)
100
AcDbTrace
 10
11.40629937527713
 20
37.54571123650882
 30
0.0
 11
11.40629937527713
 21
37.41447764368071
 31
0.0
 12
11.01259859679279
 22
37.48009444009476
 32
0.0
 13
11.01259859679279
 23
37.48009444009476
 33
0.0
  0
MTEXT
  5
8BD
330
7D8
100
AcDbEntity
  8
Dimension (ANSI)
100
AcDbMText
 10
20.40402712099178
 20
37.7200944496315
 30
0.0
 40
0.4800000190734864
 41
0.0
 71
     1
 72
     1
  1
\A1;21.160
  7
Note Text (ANSI)
 73
     1
 44
1.0
1001
ACAD
1000
MTEXTBEGIN
1070
    73
1070
     1
1070
    44
1040
1.0
1070
    74
1070
     0
1000
MTEXTEND
  0
POINT
  5
8BE
330
7D8
100
AcDbEntity
  8
Defpoints
 62
     0
100
AcDbPoint
 10
32.17259859679279
 20
34.61273709572107
 30
0.0
  0
POINT
  5
8BF
330
7D8
100
AcDbEntity
  8
Defpoints
 62
     0
100
AcDbPoint
 10
11.01259859679279
 20
34.61273709572106
 30
0.0
  0
POINT
  5
8C0
330
7D8
100
AcDbEntity
  8
Defpoints
 62
     0
100
AcDbPoint
 10
11.01259859679279
 20
37.48009444009476
 30
0.0
  0
ENDBLK
  5
7DA
330
7D8
100
AcDbEntity
  8
0
100
AcDbBlockEnd
  0
BLOCK
  5
8C3
330
8C2
100
AcDbEntity
  8
0
100
AcDbBlockBegin
  2
*D12
 70
     1
 10
0.0
 20
0.0
 30
0.0
  3
*D12
  1

  0
LINE
  5
9B6
330
8C2
100
AcDbEntity
  8
Dimension (ANSI)
100
AcDbLine
 10
32.94259859679279
 20
13.43273709572106
 30
0.0
 11
33.80168794415972
 21
13.43273709572106
 31
0.0
  0
LINE
  5
9B7
330
8C2
100
AcDbEntity
  8
Dimension (ANSI)
100
AcDbLine
 10
32.44259859679278
 20
12.93273709572106
 30
0.0
 11
33.80168794415972
 21
12.93273709572106
 31
0.0
  0
LINE
  5
9B8
330
8C2
100
AcDbEntity
  8
Dimension (ANSI)
100
AcDbLine
 10
33.30168794415972
 20
12.53903631723672
 30
0.0
 11
33.30168794415972
 21
12.14533553875237
 31
0.0
  0
LINE
  5
9B9
330
8C2
100
AcDbEntity
  8
Dimension (ANSI)
100
AcDbLine
 10
33.30168794415972
 20
13.82643787420541
 30
0.0
 11
33.30168794415972
 21
14.57301684337677
 31
0.0
  0
LINE
  5
9BA
330
8C2
100
AcDbEntity
  8
Dimension (ANSI)
100
AcDbLine
 10
33.30168794415972
 20
14.57301684337677
 30
0.0
 11
33.69538872264406
 21
14.57301684337677
 31
0.0
  0
SOLID
  5
9BB
330
8C2
100
AcDbEntity
  8
Dimension (ANSI)
100
AcDbTrace
 10
33.23607114774566
 20
12.53903631723672
 30
0.0
 11
33.36730474057377
 21
12.53903631723672
 31
0.0
 12
33.30168794415972
 22
12.93273709572106
 32
0.0
 13
33.30168794415972
 23
12.93273709572106
 33
0.0
  0
SOLID
  5
9BC
330
8C2
100
AcDbEntity
  8
Dimension (ANSI)
100
AcDbTrace
 10
33.23607114774566
 20
13.82643787420541
 30
0.0
 11
33.36730474057377
 21
13.82643787420541
 31
0.0
 12
33.30168794415972
 22
13.43273709572106
 32
0.0
 13
33.30168794415972
 23
13.43273709572106
 33
0.0
  0
MTEXT
  5
9BD
330
8C2
100
AcDbEntity
  8
Dimension (ANSI)
100
AcDbMText
 10
33.82137297461257
 20
14.81301685291352
 30
0.0
 40
0.4800000190734864
 41
0.0
 71
     1
 72
     1
  1
\A1;0.500
  7
Note Text (ANSI)
 73
     1
 44
1.0
1001
ACAD
1000
MTEXTBEGIN
1070
    73
1070
     1
1070
    44
1040
1.0
1070
    74
1070
     0
1000
MTEXTEND
  0
POINT
  5
9BE
330
8C2
100
AcDbEntity
  8
Defpoints
 62
     0
100
AcDbPoint
 10
32.69259859679279
 20
13.43273709572106
 30
0.0
  0
POINT
  5
9BF
330
8C2
100
AcDbEntity
  8
Defpoints
 62
     0
100
AcDbPoint
 10
32.19259859679278
 20
12.93273709572106
 30
0.0
  0
POINT
  5
9C0
330
8C2
100
AcDbEntity
  8
Defpoints
 62
     0
100
AcDbPoint
 10
33.30168794415972
 20
12.93273709572106
 30
0.0
  0
ENDBLK
  5
8C4
330
8C2
100
AcDbEntity
  8
0
100
AcDbBlockEnd
  0
BLOCK
  5
9C3
330
9C2
100
AcDbEntity
  8
0
100
AcDbBlockBegin
  2
*D13
 70
     1
 10
0.0
 20
0.0
 30
0.0
  3
*D13
  1

  0
LINE
  5
AA1
330
9C2
100
AcDbEntity
  8
Dimension (ANSI)
100
AcDbLine
 10
32.69259859679279
 20
13.18273709572106
 30
0.0
 11
32.69259859679279
 21
10.57889684392391
 31
0.0
  0
LINE
  5
AA2
330
9C2
100
AcDbEntity
  8
Dimension (ANSI)
100
AcDbLine
 10
32.19259859679278
 20
12.68273709572106
 30
0.0
 11
32.19259859679278
 21
10.57889684392391
 31
0.0
  0
LINE
  5
AA3
330
9C2
100
AcDbEntity
  8
Dimension (ANSI)
100
AcDbLine
 10
33.08629937527713
 20
11.07889684392391
 30
0.0
 11
33.48000015376147
 21
11.07889684392391
 31
0.0
  0
LINE
  5
AA4
330
9C2
100
AcDbEntity
  8
Dimension (ANSI)
100
AcDbLine
 10
31.79889781830844
 20
11.07889684392391
 30
0.0
 11
30.92689731786597
 21
11.07889684392391
 31
0.0
  0
SOLID
  5
AA5
330
9C2
100
AcDbEntity
  8
Dimension (ANSI)
100
AcDbTrace
 10
33.08629937527713
 20
11.14451364033797
 30
0.0
 11
33.08629937527713
 21
11.01328004750986
 31
0.0
 12
32.69259859679279
 22
11.07889684392391
 32
0.0
 13
32.69259859679279
 23
11.07889684392391
 33
0.0
  0
SOLID
  5
AA6
330
9C2
100
AcDbEntity
  8
Dimension (ANSI)
100
AcDbTrace
 10
31.79889781830844
 20
11.14451364033797
 30
0.0
 11
31.79889781830844
 21
11.01328004750986
 31
0.0
 12
32.19259859679278
 22
11.07889684392391
 32
0.0
 13
32.19259859679278
 23
11.07889684392391
 33
0.0
  0
MTEXT
  5
AA7
330
9C2
100
AcDbEntity
  8
Dimension (ANSI)
100
AcDbMText
 10
28.88091298960352
 20
11.31889685346066
 30
0.0
 40
0.4800000190734864
 41
0.0
 71
     1
 72
     1
  1
\A1;0.500
  7
Note Text (ANSI)
 73
     1
 44
1.0
1001
ACAD
1000
MTEXTBEGIN
1070
    73
1070
     1
1070
    44
1040
1.0
1070
    74
1070
     0
1000
MTEXTEND
  0
POINT
  5
AA8
330
9C2
100
AcDbEntity
  8
Defpoints
 62
     0
100
AcDbPoint
 10
32.69259859679279
 20
13.43273709572106
 30
0.0
  0
POINT
  5
AA9
330
9C2
100
AcDbEntity
  8
Defpoints
 62
     0
100
AcDbPoint
 10
32.19259859679278
 20
12.93273709572106
 30
0.0
  0
POINT
  5
AAA
330
9C2
100
AcDbEntity
  8
Defpoints
 62
     0
100
AcDbPoint
 10
32.19259859679278
 20
11.07889684392391
 30
0.0
  0
ENDBLK
  5
9C4
330
9C2
100
AcDbEntity
  8
0
100
AcDbBlockEnd
  0
BLOCK
  5
AAD
330
AAC
100
AcDbEntity
  8
0
100
AcDbBlockBegin
  2
*D14
 70
     1
 10
0.0
 20
0.0
 30
0.0
  3
*D14
  1

  0
LINE
  5
B8B
330
AAC
100
AcDbEntity
  8
Dimension (ANSI)
100
AcDbLine
 10
32.17259859679279
 20
34.86273709572107
 30
0.0
 11
32.17259859679279
 21
36.68754024532737
 31
0.0
  0
LINE
  5
B8C
330
AAC
100
AcDbEntity
  8
Dimension (ANSI)
100
AcDbLine
 10
32.69259859679279
 20
34.88273709572106
 30
0.0
 11
32.69259859679279
 21
36.68754024532737
 31
0.0
  0
LINE
  5
B8D
330
AAC
100
AcDbEntity
  8
Dimension (ANSI)
100
AcDbLine
 10
33.08629937527713
 20
36.18754024532736
 30
0.0
 11
33.48000015376147
 21
36.18754024532736
 31
0.0
  0
LINE
  5
B8E
330
AAC
100
AcDbEntity
  8
Dimension (ANSI)
100
AcDbLine
 10
31.77889781830844
 20
36.18754024532736
 30
0.0
 11
31.30780468288586
 21
36.18754024532736
 31
0.0
  0
SOLID
  5
B8F
330
AAC
100
AcDbEntity
  8
Dimension (ANSI)
100
AcDbTrace
 10
33.08629937527713
 20
36.25315704174142
 30
0.0
 11
33.08629937527713
 21
36.12192344891331
 31
0.0
 12
32.69259859679279
 22
36.18754024532736
 32
0.0
 13
32.69259859679279
 23
36.18754024532736
 33
0.0
  0
SOLID
  5
B90
330
AAC
100
AcDbEntity
  8
Dimension (ANSI)
100
AcDbTrace
 10
31.77889781830844
 20
36.25315704174142
 30
0.0
 11
31.77889781830844
 21
36.12192344891331
 31
0.0
 12
32.17259859679279
 22
36.18754024532736
 32
0.0
 13
32.17259859679279
 23
36.18754024532736
 33
0.0
  0
MTEXT
  5
B91
330
AAC
100
AcDbEntity
  8
Dimension (ANSI)
100
AcDbMText
 10
29.26182035462341
 20
36.42754025486411
 30
0.0
 40
0.4800000190734864
 41
0.0
 71
     1
 72
     1
  1
\A1;0.520
  7
Note Text (ANSI)
 73
     1
 44
1.0
1001
ACAD
1000
MTEXTBEGIN
1070
    73
1070
     1
1070
    44
1040
1.0
1070
    74
1070
     0
1000
MTEXTEND
  0
POINT
  5
B92
330
AAC
100
AcDbEntity
  8
Defpoints
 62
     0
100
AcDbPoint
 10
32.17259859679279
 20
34.61273709572107
 30
0.0
  0
POINT
  5
B93
330
AAC
100
AcDbEntity
  8
Defpoints
 62
     0
100
AcDbPoint
 10
32.69259859679279
 20
34.63273709572106
 30
0.0
  0
POINT
  5
B94
330
AAC
100
AcDbEntity
  8
Defpoints
 62
     0
100
AcDbPoint
 10
32.69259859679279
 20
36.18754024532736
 30
0.0
  0
ENDBLK
  5
AAE
330
AAC
100
AcDbEntity
  8
0
100
AcDbBlockEnd
  0
BLOCK
  5
B97
330
B96
100
AcDbEntity
  8
0
100
AcDbBlockBegin
  2
*D15
 70
     1
 10
0.0
 20
0.0
 30
0.0
  3
*D15
  1

  0
LINE
  5
C8A
330
B96
100
AcDbEntity
  8
Dimension (ANSI)
100
AcDbLine
 10
32.42259859679279
 20
34.61273709572107
 30
0.0
 11
36.13201232675588
 21
34.61273709572107
 31
0.0
  0
LINE
  5
C8B
330
B96
100
AcDbEntity
  8
Dimension (ANSI)
100
AcDbLine
 10
32.44259859679278
 20
35.13273709572106
 30
0.0
 11
36.13201232675588
 21
35.13273709572106
 31
0.0
  0
LINE
  5
C8C
330
B96
100
AcDbEntity
  8
Dimension (ANSI)
100
AcDbLine
 10
35.63201232675588
 20
35.52643787420541
 30
0.0
 11
35.63201232675588
 21
35.92013865268975
 31
0.0
  0
LINE
  5
C8D
330
B96
100
AcDbEntity
  8
Dimension (ANSI)
100
AcDbLine
 10
35.63201232675588
 20
34.21903631723672
 30
0.0
 11
35.63201232675588
 21
33.56095049192379
 31
0.0
  0
LINE
  5
C8E
330
B96
100
AcDbEntity
  8
Dimension (ANSI)
100
AcDbLine
 10
35.63201232675588
 20
33.56095049192379
 30
0.0
 11
35.23831154827153
 21
33.56095049192379
 31
0.0
  0
SOLID
  5
C8F
330
B96
100
AcDbEntity
  8
Dimension (ANSI)
100
AcDbTrace
 10
35.56639553034182
 20
35.52643787420541
 30
0.0
 11
35.69762912316993
 21
35.52643787420541
 31
0.0
 12
35.63201232675588
 22
35.13273709572106
 32
0.0
 13
35.63201232675588
 23
35.13273709572106
 33
0.0
  0
SOLID
  5
C90
330
B96
100
AcDbEntity
  8
Dimension (ANSI)
100
AcDbTrace
 10
35.56639553034182
 20
34.21903631723672
 30
0.0
 11
35.69762912316993
 21
34.21903631723672
 31
0.0
 12
35.63201232675588
 22
34.61273709572107
 32
0.0
 13
35.63201232675588
 23
34.61273709572107
 33
0.0
  0
MTEXT
  5
C91
330
B96
100
AcDbEntity
  8
Dimension (ANSI)
100
AcDbMText
 10
33.19232722000908
 20
33.80095050146054
 30
0.0
 40
0.4800000190734864
 41
0.0
 71
     1
 72
     1
  1
\A1;0.520
  7
Note Text (ANSI)
 73
     1
 44
1.0
1001
ACAD
1000
MTEXTBEGIN
1070
    73
1070
     1
1070
    44
1040
1.0
1070
    74
1070
     0
1000
MTEXTEND
  0
POINT
  5
C92
330
B96
100
AcDbEntity
  8
Defpoints
 62
     0
100
AcDbPoint
 10
32.17259859679279
 20
34.61273709572107
 30
0.0
  0
POINT
  5
C93
330
B96
100
AcDbEntity
  8
Defpoints
 62
     0
100
AcDbPoint
 10
32.19259859679278
 20
35.13273709572106
 30
0.0
  0
POINT
  5
C94
330
B96
100
AcDbEntity
  8
Defpoints
 62
     0
100
AcDbPoint
 10
35.63201232675588
 20
35.13273709572106
 30
0.0
  0
ENDBLK
  5
B98
330
B96
100
AcDbEntity
  8
0
100
AcDbBlockEnd
  0
BLOCK
  5
C99
330
C98
100
AcDbEntity
  8
0
100
AcDbBlockBegin
  2
*D16
 70
     1
 10
0.0
 20
0.0
 30
0.0
  3
*D16
  1

  0
LINE
  5
D77
330
C98
100
AcDbEntity
  8
Dimension (ANSI)
100
AcDbLine
 10
42.78193291565964
 20
34.88273709572106
 30
0.0
 11
42.78193291565964
 21
37.65242213509115
 31
0.0
  0
LINE
  5
D78
330
C98
100
AcDbEntity
  8
Dimension (ANSI)
100
AcDbLine
 10
43.55593291565964
 20
33.66473709572106
 30
0.0
 11
43.55593291565964
 21
37.65242213509115
 31
0.0
  0
LINE
  5
D79
330
C98
100
AcDbEntity
  8
Dimension (ANSI)
100
AcDbLine
 10
43.94963369414398
 20
37.15242213509114
 30
0.0
 11
44.34333447262832
 21
37.15242213509114
 31
0.0
  0
LINE
  5
D7A
330
C98
100
AcDbEntity
  8
Dimension (ANSI)
100
AcDbLine
 10
42.38823213717529
 20
37.15242213509114
 30
0.0
 11
41.52766020861552
 21
37.15242213509114
 31
0.0
  0
SOLID
  5
D7B
330
C98
100
AcDbEntity
  8
Dimension (ANSI)
100
AcDbTrace
 10
43.94963369414398
 20
37.2180389315052
 30
0.0
 11
43.94963369414398
 21
37.08680533867709
 31
0.0
 12
43.55593291565964
 22
37.15242213509114
 32
0.0
 13
43.55593291565964
 23
37.15242213509114
 33
0.0
  0
SOLID
  5
D7C
330
C98
100
AcDbEntity
  8
Dimension (ANSI)
100
AcDbTrace
 10
42.38823213717529
 20
37.2180389315052
 30
0.0
 11
42.38823213717529
 21
37.08680533867709
 31
0.0
 12
42.78193291565964
 22
37.15242213509114
 32
0.0
 13
42.78193291565964
 23
37.15242213509114
 33
0.0
  0
MTEXT
  5
D7D
330
C98
100
AcDbEntity
  8
Dimension (ANSI)
100
AcDbMText
 10
39.45881873658766
 20
37.39242214462789
 30
0.0
 40
0.4800000190734864
 41
0.0
 71
     1
 72
     1
  1
\A1;0.774
  7
Note Text (ANSI)
 73
     1
 44
1.0
1001
ACAD
1000
MTEXTBEGIN
1070
    73
1070
     1
1070
    44
1040
1.0
1070
    74
1070
     0
1000
MTEXTEND
  0
POINT
  5
D7E
330
C98
100
AcDbEntity
  8
Defpoints
 62
     0
100
AcDbPoint
 10
42.78193291565964
 20
34.63273709572106
 30
0.0
  0
POINT
  5
D7F
330
C98
100
AcDbEntity
  8
Defpoints
 62
     0
100
AcDbPoint
 10
43.55593291565964
 20
33.41473709572106
 30
0.0
  0
POINT
  5
D80
330
C98
100
AcDbEntity
  8
Defpoints
 62
     0
100
AcDbPoint
 10
43.55593291565964
 20
37.15242213509114
 30
0.0
  0
ENDBLK
  5
C9A
330
C98
100
AcDbEntity
  8
0
100
AcDbBlockEnd
  0
ENDSEC
  0
SECTION
  2
ENTITIES
  0
LINE
  5
11B
330
6C
100
AcDbEntity
  8
Visible (ANSI)
100
AcDbLine
 10
32.69259859679279
 20
14.65073709572105
 30
0.0
 11
32.69259859679279
 21
33.41473709572106
 31
0.0
  0
LINE
  5
11C
330
6C
100
AcDbEntity
  8
Visible (ANSI)
100
AcDbLine
 10
32.69259859679279
 20
14.65073709572105
 30
0.0
 11
32.56759859679279
 21
14.65073709572105
 31
0.0
  0
LINE
  5
11D
330
6C
100
AcDbEntity
  8
Visible (ANSI)
100
AcDbLine
 10
32.69259859679279
 20
33.41473709572106
 30
0.0
 11
32.56759859679279
 21
33.41473709572106
 31
0.0
  0
LINE
  5
11E
330
6C
100
AcDbEntity
  8
Visible (ANSI)
100
AcDbLine
 10
32.56739859679278
 20
33.41493709572107
 30
0.0
 11
32.69259859679279
 21
33.41493709572107
 31
0.0
  0
LINE
  5
11F
330
6C
100
AcDbEntity
  8
Visible (ANSI)
100
AcDbLine
 10
32.56739859679278
 20
33.41473709572106
 30
0.0
 11
32.56739859679278
 21
33.41493709572107
 31
0.0
  0
LINE
  5
120
330
6C
100
AcDbEntity
  8
Visible (ANSI)
100
AcDbLine
 10
32.56739859679278
 20
14.65053709572105
 30
0.0
 11
32.56739859679278
 21
14.65073709572105
 31
0.0
  0
LINE
  5
121
330
6C
100
AcDbEntity
  8
Visible (ANSI)
100
AcDbLine
 10
32.69259859679279
 20
14.65053709572105
 30
0.0
 11
32.56739859679278
 21
14.65053709572105
 31
0.0
  0
LINE
  5
122
330
6C
100
AcDbEntity
  8
Hidden (ANSI)
 48
1.080701231956481
100
AcDbLine
 10
32.59884859679278
 20
33.41473709572106
 30
0.0
 11
32.59884859679278
 21
14.65073709572105
 31
0.0
  0
LINE
  5
123
330
6C
100
AcDbEntity
  8
Visible (ANSI)
100
AcDbLine
 10
32.56739859679278
 20
14.65073709572105
 30
0.0
 11
32.56759859679279
 21
14.65073709572105
 31
0.0
  0
LINE
  5
124
330
6C
100
AcDbEntity
  8
Visible (ANSI)
100
AcDbLine
 10
32.56759859679279
 20
33.41473709572106
 30
0.0
 11
32.56739859679278
 21
33.41473709572106
 31
0.0
  0
LINE
  5
125
330
6C
100
AcDbEntity
  8
Visible (ANSI)
100
AcDbLine
 10
32.69259859679279
 20
34.63273709572106
 30
0.0
 11
32.69259859679279
 21
33.41493709572107
 31
0.0
  0
LINE
  5
126
330
6C
100
AcDbEntity
  8
Visible (ANSI)
100
AcDbLine
 10
10.99259859679278
 20
35.13273709572106
 30
0.0
 11
32.19259859679278
 21
35.13273709572106
 31
0.0
  0
LINE
  5
127
330
6C
100
AcDbEntity
  8
Visible (ANSI)
100
AcDbLine
 10
10.49259859679278
 20
33.41493709572105
 30
0.0
 11
10.49259859679278
 21
34.63273709572106
 31
0.0
  0
LINE
  5
128
330
6C
100
AcDbEntity
  8
Visible (ANSI)
100
AcDbLine
 10
10.49259859679279
 20
13.43273709572106
 30
0.0
 11
10.49259859679279
 21
14.65053709572106
 31
0.0
  0
LINE
  5
129
330
6C
100
AcDbEntity
  8
Visible (ANSI)
100
AcDbLine
 10
32.19259859679278
 20
12.93273709572106
 30
0.0
 11
10.99259859679279
 21
12.93273709572106
 31
0.0
  0
LINE
  5
12A
330
6C
100
AcDbEntity
  8
Visible (ANSI)
100
AcDbLine
 10
32.69259859679279
 20
14.65053709572105
 30
0.0
 11
32.69259859679279
 21
13.43273709572106
 31
0.0
  0
LINE
  5
12B
330
6C
100
AcDbEntity
  8
Visible (ANSI)
100
AcDbLine
 10
32.19259859679278
 20
35.13273709572106
 30
0.0
 11
32.69259859679279
 21
34.63273709572106
 31
0.0
  0
LINE
  5
12C
330
6C
100
AcDbEntity
  8
Visible (ANSI)
100
AcDbLine
 10
10.49259859679278
 20
34.63273709572106
 30
0.0
 11
10.99259859679278
 21
35.13273709572106
 31
0.0
  0
LINE
  5
12D
330
6C
100
AcDbEntity
  8
Visible (ANSI)
100
AcDbLine
 10
10.49259859679278
 20
33.41493709572105
 30
0.0
 11
10.61779859679277
 21
33.41493709572105
 31
0.0
  0
LINE
  5
12E
330
6C
100
AcDbEntity
  8
Visible (ANSI)
100
AcDbLine
 10
10.61779859679277
 20
33.41493709572105
 30
0.0
 11
10.61779859679277
 21
33.41473709572106
 31
0.0
  0
LINE
  5
12F
330
6C
100
AcDbEntity
  8
Visible (ANSI)
100
AcDbLine
 10
10.61779859679278
 20
14.65073709572106
 30
0.0
 11
10.61779859679278
 21
14.65053709572106
 31
0.0
  0
LINE
  5
130
330
6C
100
AcDbEntity
  8
Visible (ANSI)
100
AcDbLine
 10
10.61779859679278
 20
14.65053709572106
 30
0.0
 11
10.49259859679279
 21
14.65053709572106
 31
0.0
  0
LINE
  5
131
330
6C
100
AcDbEntity
  8
Visible (ANSI)
100
AcDbLine
 10
10.49259859679279
 20
33.41473709572106
 30
0.0
 11
10.49259859679279
 21
14.65073709572106
 31
0.0
  0
LINE
  5
132
330
6C
100
AcDbEntity
  8
Visible (ANSI)
100
AcDbLine
 10
10.49259859679279
 20
33.41473709572106
 30
0.0
 11
10.61759859679277
 21
33.41473709572106
 31
0.0
  0
LINE
  5
133
330
6C
100
AcDbEntity
  8
Visible (ANSI)
100
AcDbLine
 10
10.49259859679279
 20
14.65073709572106
 30
0.0
 11
10.61759859679278
 21
14.65073709572106
 31
0.0
  0
LINE
  5
134
330
6C
100
AcDbEntity
  8
Hidden (ANSI)
 48
1.080701231956481
100
AcDbLine
 10
10.58634859679279
 20
14.65073709572106
 30
0.0
 11
10.58634859679279
 21
33.41473709572106
 31
0.0
  0
LINE
  5
135
330
6C
100
AcDbEntity
  8
Visible (ANSI)
100
AcDbLine
 10
10.61779859679277
 20
33.41473709572106
 30
0.0
 11
10.61759859679277
 21
33.41473709572106
 31
0.0
  0
LINE
  5
136
330
6C
100
AcDbEntity
  8
Visible (ANSI)
100
AcDbLine
 10
10.61759859679278
 20
14.65073709572106
 30
0.0
 11
10.61779859679278
 21
14.65073709572106
 31
0.0
  0
LINE
  5
137
330
6C
100
AcDbEntity
  8
Visible (ANSI)
100
AcDbLine
 10
10.99259859679279
 20
12.93273709572106
 30
0.0
 11
10.49259859679279
 21
13.43273709572106
 31
0.0
  0
LINE
  5
138
330
6C
100
AcDbEntity
  8
Visible (ANSI)
100
AcDbLine
 10
32.69259859679279
 20
13.43273709572106
 30
0.0
 11
32.19259859679278
 21
12.93273709572106
 31
0.0
  0
CIRCLE
  5
139
330
6C
100
AcDbEntity
  8
Visible (ANSI)
100
AcDbCircle
 10
32.17259859679279
 20
34.61273709572107
 30
0.0
 40
0.25
  0
CIRCLE
  5
13A
330
6C
100
AcDbEntity
  8
Visible (ANSI)
100
AcDbCircle
 10
11.01259859679279
 20
34.61273709572106
 30
0.0
 40
0.25
  0
CIRCLE
  5
13B
330
6C
100
AcDbEntity
  8
Visible (ANSI)
100
AcDbCircle
 10
11.01259859679279
 20
13.45273709572106
 30
0.0
 40
0.25
  0
CIRCLE
  5
13C
330
6C
100
AcDbEntity
  8
Visible (ANSI)
100
AcDbCircle
 10
32.17259859679279
 20
13.45273709572106
 30
0.0
 40
0.25
  0
CIRCLE
  5
13D
330
6C
100
AcDbEntity
  8
Visible (ANSI)
100
AcDbCircle
 10
32.17259859679279
 20
33.86273709572107
 30
0.0
 40
0.15625
  0
CIRCLE
  5
13E
330
6C
100
AcDbEntity
  8
Visible (ANSI)
100
AcDbCircle
 10
11.01259859679279
 20
33.86273709572106
 30
0.0
 40
0.15625
  0
CIRCLE
  5
13F
330
6C
100
AcDbEntity
  8
Visible (ANSI)
100
AcDbCircle
 10
11.01259859679279
 20
14.20273709572106
 30
0.0
 40
0.15625
  0
CIRCLE
  5
140
330
6C
100
AcDbEntity
  8
Visible (ANSI)
100
AcDbCircle
 10
32.17259859679279
 20
14.20273709572106
 30
0.0
 40
0.15625
  0
LINE
  5
141
330
6C
100
AcDbEntity
  8
Visible (ANSI)
100
AcDbLine
 10
42.90693291565964
 20
14.65073709572105
 30
0.0
 11
43.55593291565964
 21
14.65073709572105
 31
0.0
  0
LINE
  5
142
330
6C
100
AcDbEntity
  8
Visible (ANSI)
100
AcDbLine
 10
43.55593291565964
 20
33.41473709572106
 30
0.0
 11
43.55593291565964
 21
14.65073709572105
 31
0.0
  0
LINE
  5
143
330
6C
100
AcDbEntity
  8
Visible (ANSI)
100
AcDbLine
 10
43.55593291565964
 20
33.41473709572106
 30
0.0
 11
42.90693291565964
 21
33.41473709572106
 31
0.0
  0
LINE
  5
144
330
6C
100
AcDbEntity
  8
Visible (ANSI)
100
AcDbLine
 10
42.90693291565964
 20
14.65073709572105
 30
0.0
 11
42.78193291565959
 21
14.65073709572105
 31
0.0
  0
LINE
  5
145
330
6C
100
AcDbEntity
  8
Visible (ANSI)
100
AcDbLine
 10
42.90693291565964
 20
33.41473709572106
 30
0.0
 11
42.78193291565959
 21
33.41473709572106
 31
0.0
  0
LINE
  5
146
330
6C
100
AcDbEntity
  8
Visible (ANSI)
100
AcDbLine
 10
42.78193291565959
 20
14.65073709572105
 30
0.0
 11
42.78193291565959
 21
33.41473709572106
 31
0.0
  0
LINE
  5
147
330
6C
100
AcDbEntity
  8
Visible (ANSI)
100
AcDbLine
 10
42.78193291565964
 20
33.41493709572107
 30
0.0
 11
42.87568291565963
 21
33.41493709572107
 31
0.0
  0
LINE
  5
148
330
6C
100
AcDbEntity
  8
Visible (ANSI)
100
AcDbLine
 10
42.8756829156596
 20
33.41493709572107
 30
0.0
 11
42.8756829156596
 21
33.41473709572106
 31
0.0
  0
LINE
  5
149
330
6C
100
AcDbEntity
  8
Visible (ANSI)
100
AcDbLine
 10
42.78193291565959
 20
33.41473709572106
 30
0.0
 11
42.78193291565959
 21
33.41493709572107
 31
0.0
  0
LINE
  5
14A
330
6C
100
AcDbEntity
  8
Visible (ANSI)
100
AcDbLine
 10
42.8756829156596
 20
14.65073709572105
 30
0.0
 11
42.8756829156596
 21
14.65053709572105
 31
0.0
  0
LINE
  5
14B
330
6C
100
AcDbEntity
  8
Visible (ANSI)
100
AcDbLine
 10
42.78193291565959
 20
14.65053709572105
 30
0.0
 11
42.78193291565959
 21
14.65073709572105
 31
0.0
  0
LINE
  5
14C
330
6C
100
AcDbEntity
  8
Visible (ANSI)
100
AcDbLine
 10
42.87568291565963
 20
14.65053709572105
 30
0.0
 11
42.78193291565964
 21
14.65053709572105
 31
0.0
  0
LINE
  5
14D
330
6C
100
AcDbEntity
  8
Hidden (ANSI)
 48
1.080701231956481
100
AcDbLine
 10
42.8756829156596
 20
33.41473709572106
 30
0.0
 11
42.8756829156596
 21
14.65073709572105
 31
0.0
  0
LINE
  5
14E
330
6C
100
AcDbEntity
  8
Visible (ANSI)
100
AcDbLine
 10
42.87568291565963
 20
13.43273709572106
 30
0.0
 11
42.87568291565963
 21
14.65053709572105
 31
0.0
  0
LINE
  5
14F
330
6C
100
AcDbEntity
  8
Visible (ANSI)
100
AcDbLine
 10
42.87568291565963
 20
33.41493709572107
 30
0.0
 11
42.87568291565963
 21
34.63273709572106
 31
0.0
  0
LINE
  5
150
330
6C
100
AcDbEntity
  8
Visible (ANSI)
100
AcDbLine
 10
42.78193291565964
 20
34.63273709572106
 30
0.0
 11
42.78193291565964
 21
33.41493709572107
 31
0.0
  0
LINE
  5
151
330
6C
100
AcDbEntity
  8
Visible (ANSI)
100
AcDbLine
 10
42.78193291565964
 20
14.65053709572105
 30
0.0
 11
42.78193291565964
 21
13.43273709572106
 31
0.0
  0
LINE
  5
152
330
6C
100
AcDbEntity
  8
Visible (ANSI)
100
AcDbLine
 10
42.87568291565949
 20
12.93273709572106
 30
0.0
 11
42.87568291565963
 21
13.43273709572106
 31
0.0
  0
LINE
  5
153
330
6C
100
AcDbEntity
  8
Visible (ANSI)
100
AcDbLine
 10
42.78193291565964
 20
13.43273709572106
 30
0.0
 11
42.78193291565949
 21
12.93273709572106
 31
0.0
  0
LINE
  5
154
330
6C
100
AcDbEntity
  8
Visible (ANSI)
100
AcDbLine
 10
42.78193291565949
 20
12.93273709572106
 30
0.0
 11
42.87568291565949
 21
12.93273709572106
 31
0.0
  0
LINE
  5
155
330
6C
100
AcDbEntity
  8
Visible (ANSI)
100
AcDbLine
 10
42.87568291565963
 20
13.43273709572106
 30
0.0
 11
42.78193291565964
 21
13.43273709572106
 31
0.0
  0
LINE
  5
156
330
6C
100
AcDbEntity
  8
Visible (ANSI)
100
AcDbLine
 10
42.87568291565963
 20
34.63273709572106
 30
0.0
 11
42.87568291565949
 21
35.13273709572106
 31
0.0
  0
LINE
  5
157
330
6C
100
AcDbEntity
  8
Visible (ANSI)
100
AcDbLine
 10
42.78193291565949
 20
35.13273709572106
 30
0.0
 11
42.78193291565964
 21
34.63273709572106
 31
0.0
  0
LINE
  5
158
330
6C
100
AcDbEntity
  8
Visible (ANSI)
100
AcDbLine
 10
42.78193291565964
 20
34.63273709572106
 30
0.0
 11
42.87568291565963
 21
34.63273709572106
 31
0.0
  0
LINE
  5
159
330
6C
100
AcDbEntity
  8
Visible (ANSI)
100
AcDbLine
 10
42.87568291565949
 20
35.13273709572106
 30
0.0
 11
42.78193291565949
 21
35.13273709572106
 31
0.0
  0
LINE
  5
15A
330
6C
100
AcDbEntity
  8
Hidden (ANSI)
 48
0.0445413254201412
100
AcDbLine
 10
42.78193291565949
 20
34.86273709572107
 30
0.0
 11
42.87568291565948
 21
34.86273709572107
 31
0.0
  0
LINE
  5
15B
330
6C
100
AcDbEntity
  8
Hidden (ANSI)
 48
0.0445413254201412
100
AcDbLine
 10
42.78193291565949
 20
34.36273709572107
 30
0.0
 11
42.87568291565948
 21
34.36273709572107
 31
0.0
  0
LINE
  5
15C
330
6C
100
AcDbEntity
  8
Hidden (ANSI)
 48
0.0445413254201412
100
AcDbLine
 10
42.78193291565949
 20
13.70273709572106
 30
0.0
 11
42.87568291565948
 21
13.70273709572106
 31
0.0
  0
LINE
  5
15D
330
6C
100
AcDbEntity
  8
Hidden (ANSI)
 48
0.0445413254201412
100
AcDbLine
 10
42.78193291565949
 20
13.20273709572106
 30
0.0
 11
42.87568291565948
 21
13.20273709572106
 31
0.0
  0
LINE
  5
15E
330
6C
100
AcDbEntity
  8
Hidden (ANSI)
 48
0.0445413254201412
100
AcDbLine
 10
42.78193291565949
 20
34.01898709572107
 30
0.0
 11
42.87568291565948
 21
34.01898709572107
 31
0.0
  0
LINE
  5
15F
330
6C
100
AcDbEntity
  8
Hidden (ANSI)
 48
0.0445413254201412
100
AcDbLine
 10
42.78193291565949
 20
33.70648709572106
 30
0.0
 11
42.87568291565948
 21
33.70648709572106
 31
0.0
  0
LINE
  5
160
330
6C
100
AcDbEntity
  8
Hidden (ANSI)
 48
0.0445413254201412
100
AcDbLine
 10
42.78193291565949
 20
14.35898709572106
 30
0.0
 11
42.87568291565948
 21
14.35898709572106
 31
0.0
  0
LINE
  5
161
330
6C
100
AcDbEntity
  8
Hidden (ANSI)
 48
0.0445413254201412
100
AcDbLine
 10
42.78193291565949
 20
14.04648709572106
 30
0.0
 11
42.87568291565948
 21
14.04648709572106
 31
0.0
  0
LINE
  5
162
330
6C
100
AcDbEntity
  8
Visible Narrow (ANSI)
100
AcDbLine
 10
64.76097886456935
 20
22.78545785136917
 30
0.0
 11
64.76097886456938
 21
33.01242735173275
 31
0.0
  0
ELLIPSE
  5
163
330
6C
100
AcDbEntity
  8
Visible (ANSI)
100
AcDbEllipse
 10
64.70205329947048
 20
22.81939082751852
 30
0.0
 11
0.0833333333333349
 21
0.0000000000000048
 31
0.0
210
0.0
220
0.0
230
1.0
 40
0.5758617009853141
 41
3.926990816987149
 42
5.497787143781984
  0
LINE
  5
164
330
6C
100
AcDbEntity
  8
Visible (ANSI)
100
AcDbLine
 10
64.64303345346745
 20
33.0124816444946
 30
0.0
 11
64.64312809970208
 21
33.01253614763624
 31
0.0
  0
ELLIPSE
  5
165
330
6C
100
AcDbEntity
  8
Visible (ANSI)
100
AcDbEllipse
 10
64.70205329947053
 20
33.04636032788214
 30
0.0
 11
0.083333333333403
 21
0.0000000000000048
 31
0.0
210
0.0
220
0.0
230
1.0
 40
0.575861700985314
 41
3.926990816987263
 42
3.98367644174964
  0
ELLIPSE
  5
166
330
6C
100
AcDbEntity
  8
Visible (ANSI)
100
AcDbEllipse
 10
64.70205329947039
 20
33.04636032788219
 30
0.0
 11
0.0833333333334944
 21
-0.0000000000000002
 31
0.0
210
0.0
220
0.0
230
1.0
 40
0.5758617009853142
 41
5.271378846409929
 42
5.497787143781939
  0
LINE
  5
167
330
6C
100
AcDbEntity
  8
Visible Narrow (ANSI)
100
AcDbLine
 10
64.64312773437161
 20
22.78545785136915
 30
0.0
 11
64.64312773437161
 21
33.01242735173275
 31
0.0
  0
LINE
  5
168
330
6C
100
AcDbEntity
  8
Visible (ANSI)
100
AcDbLine
 10
64.7020532994705
 20
32.97860338186671
 30
0.0
 11
64.74624747329466
 21
33.00405311397873
 31
0.0
  0
LINE
  5
169
330
6C
100
AcDbEntity
  8
Visible (ANSI)
100
AcDbLine
 10
64.64303345346745
 20
33.0125906507779
 30
0.0
 11
64.7020532994705
 21
32.97860338186671
 31
0.0
  0
LINE
  5
16A
330
6C
100
AcDbEntity
  8
Visible (ANSI)
100
AcDbLine
 10
64.64303345346745
 20
33.0124816444946
 30
0.0
 11
64.64303345346745
 21
33.0125906507779
 31
0.0
  0
LINE
  5
16B
330
6C
100
AcDbEntity
  8
Visible (ANSI)
100
AcDbLine
 10
64.64303345346744
 20
22.78540313784768
 30
0.0
 11
64.64303345346744
 21
22.78551214413099
 31
0.0
  0
LINE
  5
16C
330
6C
100
AcDbEntity
  8
Visible (ANSI)
100
AcDbLine
 10
64.64303345346744
 20
22.78540313784768
 30
0.0
 11
64.64312809970319
 21
22.78545764098999
 31
0.0
  0
LINE
  5
16D
330
6C
100
AcDbEntity
  8
Visible (ANSI)
100
AcDbLine
 10
64.74425717370923
 20
22.77801173835323
 30
0.0
 11
64.74624747329464
 21
22.77686560104851
 31
0.0
  0
LINE
  5
16E
330
6C
100
AcDbEntity
  8
Visible (ANSI)
100
AcDbLine
 10
64.70205329947048
 20
22.75141586893649
 30
0.0
 11
64.64303345346744
 21
22.78540313784768
 31
0.0
  0
LINE
  5
16F
330
6C
100
AcDbEntity
  8
Visible (ANSI)
100
AcDbLine
 10
64.74624747329464
 20
22.77686560104851
 30
0.0
 11
64.70205329947048
 21
22.75141586893649
 31
0.0
  0
LINE
  5
170
330
6C
100
AcDbEntity
  8
Visible (ANSI)
100
AcDbLine
 10
64.76097886456935
 20
22.78545785136917
 30
0.0
 11
65.06692039856268
 21
22.96163786353667
 31
0.0
  0
LINE
  5
171
330
6C
100
AcDbEntity
  8
Visible (ANSI)
100
AcDbLine
 10
65.0669203985627
 20
33.18860736390027
 30
0.0
 11
65.06692039856268
 21
22.96163786353667
 31
0.0
  0
LINE
  5
172
330
6C
100
AcDbEntity
  8
Visible (ANSI)
100
AcDbLine
 10
65.0669203985627
 20
33.18860736390027
 30
0.0
 11
64.76097886456938
 21
33.01242735173275
 31
0.0
  0
LINE
  5
173
330
6C
100
AcDbEntity
  8
Visible (ANSI)
100
AcDbLine
 10
64.64303345346744
 20
22.78551214413099
 30
0.0
 11
64.64312773437161
 21
22.78545785136915
 31
0.0
  0
LINE
  5
174
330
6C
100
AcDbEntity
  8
Visible (ANSI)
100
AcDbLine
 10
65.02272622473855
 20
33.21405709601228
 30
0.0
 11
65.0669203985627
 21
33.18860736390027
 31
0.0
  0
LINE
  5
175
330
6C
100
AcDbEntity
  8
Visible (ANSI)
100
AcDbLine
 10
64.74624747329466
 20
33.05484357191946
 30
0.0
 11
65.02272622473855
 21
33.21405709601228
 31
0.0
  0
LINE
  5
176
330
6C
100
AcDbEntity
  8
Visible (ANSI)
100
AcDbLine
 10
64.64312773437161
 20
33.01242735173275
 30
0.0
 11
64.64303345346745
 21
33.0124816444946
 31
0.0
  0
ELLIPSE
  5
177
330
6C
100
AcDbEntity
  8
Visible (ANSI)
100
AcDbEllipse
 10
64.50111712248329
 20
33.79805292551765
 30
0.0
 11
-0.0831720352640677
 21
0.144430572690862
 31
0.0
210
0.0
220
0.0
230
1.0
 40
0.5780931159158114
 41
0.267844877812558
 42
2.87374777577728
  0
ELLIPSE
  5
178
330
6C
100
AcDbEntity
  8
Visible (ANSI)
100
AcDbEllipse
 10
54.52619746254356
 20
39.54222712808068
 30
0.0
 11
-0.0831720352640677
 21
0.1444305726908619
 31
0.0
210
0.0
220
0.0
230
0.9999999999999998
 40
0.5780931159158115
 41
0.2678448778125577
 42
2.87374777577728
  0
ELLIPSE
  5
179
330
6C
100
AcDbEntity
  8
Visible (ANSI)
100
AcDbEllipse
 10
54.52619746254353
 20
28.00936235363527
 30
0.0
 11
-0.0831720352640679
 21
0.1444305726908622
 31
0.0
210
0.0
220
0.0
230
1.0
 40
0.5780931159158116
 41
0.2678448778125573
 42
2.87374777577728
  0
ELLIPSE
  5
17A
330
6C
100
AcDbEntity
  8
Visible (ANSI)
100
AcDbEllipse
 10
64.50111712248326
 20
22.26518815107224
 30
0.0
 11
-0.0831720352640678
 21
0.144430572690862
 31
0.0
210
0.0
220
0.0
230
0.9999999999999998
 40
0.5780931159158116
 41
0.2678448778125761
 42
2.87374777577728
  0
ELLIPSE
  5
17B
330
6C
100
AcDbEntity
  8
Visible (ANSI)
100
AcDbEllipse
 10
64.50111712248329
 20
33.38927936309638
 30
0.0
 11
0.0519825220400475
 21
-0.0902691079317851
 31
0.0
210
0.0
220
0.0
230
0.9999999999999998
 40
0.5780931159158116
 41
3.578838513251595
 42
5.845939447516871
  0
ELLIPSE
  5
17C
330
6C
100
AcDbEntity
  8
Visible (ANSI)
100
AcDbEllipse
 10
54.52619746254356
 20
39.1334535656594
 30
0.0
 11
0.0519825220400481
 21
-0.0902691079317863
 31
0.0
210
0.0
220
0.0
230
0.9999999999999998
 40
0.5780931159158115
 41
3.578838513251595
 42
5.845939447517039
  0
ELLIPSE
  5
17D
330
6C
100
AcDbEntity
  8
Visible (ANSI)
100
AcDbEllipse
 10
54.52619746254353
 20
28.41813591605653
 30
0.0
 11
0.0519825220400478
 21
-0.0902691079317858
 31
0.0
210
0.0
220
0.0
230
1.0
 40
0.5780931159158117
 41
3.578838513251596
 42
5.84593944751704
  0
ELLIPSE
  5
17E
330
6C
100
AcDbEntity
  8
Visible (ANSI)
100
AcDbEllipse
 10
64.50111712248326
 20
22.67396171349351
 30
0.0
 11
0.0519825220400477
 21
-0.0902691079317855
 31
0.0
210
0.0
220
0.0
230
1.0
 40
0.5780931159158115
 41
3.578838513251564
 42
5.84593944751704
  0
ELLIPSE
  5
17F
330
6C
100
AcDbEntity
  8
Visible (ANSI)
100
AcDbEllipse
 10
64.45692294865914
 20
33.77260319340563
 30
0.0
 11
-0.0831720352640679
 21
0.1444305726908622
 31
0.0
210
0.0
220
0.0
230
1.0
 40
0.5780931159158115
 41
0.0
 42
6.283185307179586
  0
ELLIPSE
  5
180
330
6C
100
AcDbEntity
  8
Visible (ANSI)
100
AcDbEllipse
 10
54.48200328871941
 20
39.51677739596865
 30
0.0
 11
-0.0831720352640679
 21
0.1444305726908622
 31
0.0
210
0.0
220
0.0
230
1.0
 40
0.5780931159158115
 41
0.0
 42
6.283185307179586
  0
ELLIPSE
  5
181
330
6C
100
AcDbEntity
  8
Visible (ANSI)
100
AcDbEllipse
 10
54.48200328871938
 20
27.98391262152325
 30
0.0
 11
-0.0831720352640679
 21
0.1444305726908622
 31
0.0
210
0.0
220
0.0
230
1.0
 40
0.5780931159158115
 41
0.0
 42
6.283185307179586
  0
ELLIPSE
  5
182
330
6C
100
AcDbEntity
  8
Visible (ANSI)
100
AcDbEllipse
 10
64.45692294865911
 20
22.23973841896022
 30
0.0
 11
-0.0831720352640679
 21
0.1444305726908622
 31
0.0
210
0.0
220
0.0
230
1.0
 40
0.5780931159158115
 41
0.0
 42
6.283185307179586
  0
ELLIPSE
  5
183
330
6C
100
AcDbEntity
  8
Visible (ANSI)
100
AcDbEllipse
 10
64.45692294865914
 20
33.36382963098435
 30
0.0
 11
-0.0519825220400424
 21
0.0902691079317889
 31
0.0
210
0.0
220
0.0
230
0.9999999999999998
 40
0.5780931159158116
 41
0.0
 42
6.283185307179586
  0
ELLIPSE
  5
184
330
6C
100
AcDbEntity
  8
Visible (ANSI)
100
AcDbEllipse
 10
54.48200328871941
 20
39.10800383354738
 30
0.0
 11
-0.0519825220400424
 21
0.0902691079317889
 31
0.0
210
0.0
220
0.0
230
0.9999999999999998
 40
0.5780931159158116
 41
0.0
 42
6.283185307179586
  0
ELLIPSE
  5
185
330
6C
100
AcDbEntity
  8
Visible (ANSI)
100
AcDbEllipse
 10
54.48200328871938
 20
28.39268618394451
 30
0.0
 11
-0.0519825220400424
 21
0.0902691079317889
 31
0.0
210
0.0
220
0.0
230
0.9999999999999998
 40
0.5780931159158116
 41
0.0
 42
6.283185307179586
  0
ELLIPSE
  5
186
330
6C
100
AcDbEntity
  8
Visible (ANSI)
100
AcDbEllipse
 10
64.45692294865911
 20
22.64851198138148
 30
0.0
 11
-0.0519825220400424
 21
0.0902691079317889
 31
0.0
210
0.0
220
0.0
230
0.9999999999999998
 40
0.5780931159158116
 41
0.0
 42
6.283185307179586
  0
LINE
  5
187
330
6C
100
AcDbEntity
  8
Visible (ANSI)
100
AcDbLine
 10
64.74624747329463
 20
22.11312634195969
 30
0.0
 11
64.74624747329464
 21
22.77686560104851
 31
0.0
  0
LINE
  5
188
330
6C
100
AcDbEntity
  8
Visible (ANSI)
100
AcDbLine
 10
64.5105452128991
 20
34.07603998594583
 30
0.0
 11
54.51676937212773
 21
39.83107274087665
 31
0.0
  0
LINE
  5
189
330
6C
100
AcDbEntity
  8
Visible (ANSI)
100
AcDbLine
 10
64.74624747329466
 20
33.00405311397873
 30
0.0
 11
64.74624747329466
 21
33.66779237306756
 31
0.0
  0
LINE
  5
18A
330
6C
100
AcDbEntity
  8
Visible (ANSI)
100
AcDbLine
 10
64.7020532994705
 20
33.64234264095554
 30
0.0
 11
64.7020532994705
 21
32.97860338186671
 31
0.0
  0
LINE
  5
18B
330
6C
100
AcDbEntity
  8
Visible (ANSI)
100
AcDbLine
 10
54.47257519830358
 20
39.80562300876463
 30
0.0
 11
64.46635103907495
 21
34.0505902538338
 31
0.0
  0
LINE
  5
18C
330
6C
100
AcDbEntity
  8
Visible (ANSI)
100
AcDbLine
 10
54.23687293790803
 20
39.00509994599238
 30
0.0
 11
54.23687293790803
 21
39.6688392050812
 31
0.0
  0
LINE
  5
18D
330
6C
100
AcDbEntity
  8
Visible (ANSI)
100
AcDbLine
 10
54.236872937908
 20
28.11417317397334
 30
0.0
 11
54.236872937908
 21
28.77791243306216
 31
0.0
  0
LINE
  5
18E
330
6C
100
AcDbEntity
  8
Visible (ANSI)
100
AcDbLine
 10
64.46635103907493
 20
21.95089280616424
 30
0.0
 11
54.47257519830356
 21
27.70592556109506
 31
0.0
  0
LINE
  5
18F
330
6C
100
AcDbEntity
  8
Visible (ANSI)
100
AcDbLine
 10
64.70205329947048
 20
22.75141586893649
 30
0.0
 11
64.70205329947048
 21
22.08767660984766
 31
0.0
  0
LINE
  5
190
330
6C
100
AcDbEntity
  8
Visible (ANSI)
100
AcDbLine
 10
64.51054521289908
 20
21.97634253827627
 30
0.0
 11
64.74624747329463
 21
22.11312634195969
 31
0.0
  0
LINE
  5
191
330
6C
100
AcDbEntity
  8
Visible (ANSI)
100
AcDbLine
 10
64.70205329947048
 20
22.08767660984766
 30
0.0
 11
64.46635103907493
 21
21.95089280616424
 31
0.0
  0
LINE
  5
192
330
6C
100
AcDbEntity
  8
Visible (ANSI)
100
AcDbLine
 10
64.46635103907493
 20
21.95089280616424
 30
0.0
 11
64.51054521289908
 21
21.97634253827627
 31
0.0
  0
LINE
  5
193
330
6C
100
AcDbEntity
  8
Visible (ANSI)
100
AcDbLine
 10
64.74624747329463
 20
22.11312634195969
 30
0.0
 11
64.70205329947048
 21
22.08767660984766
 31
0.0
  0
LINE
  5
194
330
6C
100
AcDbEntity
  8
Visible (ANSI)
100
AcDbLine
 10
64.74624747329466
 20
33.66779237306756
 30
0.0
 11
64.5105452128991
 21
34.07603998594583
 31
0.0
  0
LINE
  5
195
330
6C
100
AcDbEntity
  8
Visible (ANSI)
100
AcDbLine
 10
64.46635103907495
 20
34.0505902538338
 30
0.0
 11
64.7020532994705
 21
33.64234264095554
 31
0.0
  0
LINE
  5
196
330
6C
100
AcDbEntity
  8
Visible (ANSI)
100
AcDbLine
 10
64.7020532994705
 20
33.64234264095554
 30
0.0
 11
64.74624747329466
 21
33.66779237306756
 31
0.0
  0
LINE
  5
197
330
6C
100
AcDbEntity
  8
Visible (ANSI)
100
AcDbLine
 10
64.5105452128991
 20
34.07603998594583
 30
0.0
 11
64.46635103907495
 21
34.0505902538338
 31
0.0
  0
LINE
  5
198
330
6C
100
AcDbEntity
  8
Visible (ANSI)
100
AcDbLine
 10
54.23687293790803
 20
39.6688392050812
 30
0.0
 11
54.47257519830358
 21
39.80562300876463
 31
0.0
  0
LINE
  5
199
330
6C
100
AcDbEntity
  8
Visible (ANSI)
100
AcDbLine
 10
54.47257519830358
 20
39.80562300876463
 30
0.0
 11
54.51676937212773
 21
39.83107274087665
 31
0.0
  0
LINE
  5
19A
330
6C
100
AcDbEntity
  8
Visible (ANSI)
100
AcDbLine
 10
54.23687293790803
 20
39.00509994599238
 30
0.0
 11
54.29589278391106
 21
38.97111267708118
 31
0.0
  0
LINE
  5
19B
330
6C
100
AcDbEntity
  8
Visible (ANSI)
100
AcDbLine
 10
54.29589278391106
 20
38.97111267708118
 30
0.0
 11
54.29589278391106
 21
38.97100367079787
 31
0.0
  0
LINE
  5
19C
330
6C
100
AcDbEntity
  8
Visible Narrow (ANSI)
100
AcDbLine
 10
54.29579850300691
 20
38.97105796355971
 30
0.0
 11
54.29579850300689
 21
28.74408846319612
 31
0.0
  0
LINE
  5
19D
330
6C
100
AcDbEntity
  8
Visible (ANSI)
100
AcDbLine
 10
54.29589278391104
 20
28.74403417043428
 30
0.0
 11
54.29589278391104
 21
28.74392516415097
 31
0.0
  0
LINE
  5
19E
330
6C
100
AcDbEntity
  8
Visible (ANSI)
100
AcDbLine
 10
54.29589278391104
 20
28.74392516415097
 30
0.0
 11
54.236872937908
 21
28.77791243306216
 31
0.0
  0
ELLIPSE
  5
19F
330
6C
100
AcDbEntity
  8
Visible (ANSI)
100
AcDbEllipse
 10
54.35472406810579
 20
39.00499093970907
 30
0.0
 11
-0.083333333333346
 21
0.0000000000000002
 31
0.0
210
0.0
220
0.0
230
1.0
 40
0.5758617009853141
 41
0.7287125386352109
 42
0.7853981633975167
  0
ELLIPSE
  5
1A0
330
6C
100
AcDbEntity
  8
Visible (ANSI)
100
AcDbEllipse
 10
54.35472406810577
 20
28.77802143934548
 30
0.0
 11
-0.0833333333333333
 21
0.0000000000000019
 31
0.0
210
0.0
220
0.0
230
1.0
 40
0.575861700985305
 41
0.0
 42
0.7853981633975602
  0
LINE
  5
1A1
330
6C
100
AcDbEntity
  8
Visible (ANSI)
100
AcDbLine
 10
54.236872937908
 20
28.77791243306216
 30
0.0
 11
54.27139073477243
 21
28.79778991027878
 31
0.0
  0
LINE
  5
1A2
330
6C
100
AcDbEntity
  8
Visible (ANSI)
100
AcDbLine
 10
54.27139073477246
 20
38.98522246877576
 30
0.0
 11
54.27139073477243
 21
28.77802143934548
 31
0.0
  0
LINE
  5
1A3
330
6C
100
AcDbEntity
  8
Visible (ANSI)
100
AcDbLine
 10
54.29589278391106
 20
38.97100367079787
 30
0.0
 11
54.29579850300691
 21
38.97105796355971
 31
0.0
  0
LINE
  5
1A4
330
6C
100
AcDbEntity
  8
Visible (ANSI)
100
AcDbLine
 10
54.29579850300689
 20
28.74408846319612
 30
0.0
 11
54.29589278391104
 21
28.74403417043428
 31
0.0
  0
LINE
  5
1A5
330
6C
100
AcDbEntity
  8
Visible (ANSI)
100
AcDbLine
 10
54.46021386893004
 20
39.13360442814709
 30
0.0
 11
54.51499219635336
 21
39.16514916895422
 31
0.0
  0
LINE
  5
1A6
330
6C
100
AcDbEntity
  8
Visible (ANSI)
100
AcDbLine
 10
54.53940708347424
 20
39.12830930315697
 30
0.0
 11
54.47982223876707
 21
39.09399667313094
 31
0.0
  0
LINE
  5
1A7
330
6C
100
AcDbEntity
  8
Visible (ANSI)
100
AcDbLine
 10
54.47257519830356
 20
27.70592556109506
 30
0.0
 11
54.236872937908
 21
28.11417317397334
 31
0.0
  0
DIMENSION
  5
1A8
330
6C
100
AcDbEntity
  8
Dimension (ANSI)
100
AcDbDimension
  2
*D4
 10
10.49259859679278
 20
39.0421859146187
 30
0.0
 11
21.59259859679278
 21
39.0421859146187
 31
0.0
 70
   160
  1
<>
 42
22.2
  3
Default (ANSI)
100
AcDbAlignedDimension
 13
32.69259859679279
 23
34.63273709572106
 33
0.0
 14
10.49259859679278
 24
34.63273709572106
 34
0.0
 50
180.0
100
AcDbRotatedDimension
1001
ACAD
1000
DSTYLE
1002
{
1070
   289
1070
     1
1070
    73
1070
     0
1070
    74
1070
     0
1070
   271
1070
     3
1070
   272
1070
     2
1070
    48
1040
0.0
1070
    47
1040
0.0
1002
}
  0
DIMENSION
  5
295
330
6C
100
AcDbEntity
  8
Dimension (ANSI)
100
AcDbDimension
  2
*D5
 10
5.09892805820194
 20
12.93273709572106
 30
0.0
 11
5.09892805820194
 21
25.35725275044889
 31
0.0
 70
   160
  1
<>
 42
22.19999999999999
  3
Default (ANSI)
100
AcDbAlignedDimension
 13
10.99259859679278
 23
35.13273709572106
 33
0.0
 14
10.99259859679279
 24
12.93273709572106
 34
0.0
 50
270.0
100
AcDbRotatedDimension
1001
ACAD
1000
DSTYLE
1002
{
1070
   289
1070
     1
1070
   271
1070
     3
1070
   272
1070
     2
1070
    48
1040
0.0
1070
    47
1040
0.0
1002
}
  0
DIMENSION
  5
37F
330
6C
100
AcDbEntity
  8
Dimension (ANSI)
100
AcDbDimension
  2
*D6
 10
10.88759859679274
 20
13.66924344666714
 30
0.0
 11
15.81530751067891
 21
9.425521024229702
 31
0.0
 70
   163
  1
<>{\PTYP.(4PL.)}
 42
0.5
  3
Default (ANSI)
100
AcDbDiametricDimension
 15
11.13759859679283
 25
13.23623074477497
 35
0.0
 40
0.0
1001
ACAD_DSTYLE_DIMRADIAL_EXTENSION
1070
   387
1070
     1
1070
   388
1040
0.0
1070
   390
1040
0.0
1001
ACAD
1000
DSTYLE
1002
{
1070
   145
1040
-0.25
1070
   144
1040
1.000000000000005
1070
   271
1070
     3
1070
   272
1070
     2
1070
    48
1040
0.0
1070
    47
1040
0.0
1002
}
  0
DIMENSION
  5
439
330
6C
100
AcDbEntity
  8
Dimension (ANSI)
100
AcDbDimension
  2
*D7
 10
10.90211316223237
 20
14.31322253028144
 30
0.0
 11
15.81756545061383
 21
11.8753648728254
 31
0.0
 70
   163
  1
<>{\PTYP.(4PL.)}
 42
0.3125
  3
Default (ANSI)
100
AcDbDiametricDimension
 15
11.1230840313532
 25
14.09225166116067
 35
0.0
 40
0.0
1001
ACAD_DSTYLE_DIMRADIAL_EXTENSION
1070
   387
1070
     1
1070
   388
1040
0.0
1070
   390
1040
0.0
1001
ACAD
1000
DSTYLE
1002
{
1070
   145
1040
-0.25
1070
   144
1040
1.0
1070
   271
1070
     3
1070
   272
1070
     2
1070
    48
1040
0.0
1070
    47
1040
0.0
1002
}
  0
DIMENSION
  5
4F2
330
6C
100
AcDbEntity
  8
Dimension (ANSI)
100
AcDbDimension
  2
*D8
 10
42.87568291565964
 20
13.81805310254078
 30
0.0
 11
45.2404973537
 21
13.81805310254078
 31
0.0
 70
   160
  1
 12 GA.\P304 SS
 42
0.0937500000000071
  3
Default (ANSI)
100
AcDbAlignedDimension
 13
42.78193291565964
 23
26.95857069531238
 33
0.0
 14
42.87568291565964
 24
26.95857069531238
 34
0.0
 50
180.0
100
AcDbRotatedDimension
1001
ACAD
1000
DSTYLE
1002
{
1070
   289
1070
     1
1070
    73
1070
     0
1070
    74
1070
     0
1070
   145
1040
-0.25
1070
   271
1070
     3
1070
   272
1070
     2
1070
    48
1040
0.0
1070
    47
1040
0.0
1002
}
  0
DIMENSION
  5
5F0
330
6C
100
AcDbEntity
  8
Dimension (ANSI)
100
AcDbDimension
  2
*D9
 10
7.548031667658928
 20
13.45273709572106
 30
0.0
 11
7.548031667658928
 21
22.85450296789028
 31
0.0
 70
   160
  1
<>
 42
21.16
  3
Default (ANSI)
100
AcDbAlignedDimension
 13
11.01259859679279
 23
34.61273709572106
 33
0.0
 14
11.01259859679279
 24
13.45273709572106
 34
0.0
 50
90.0
100
AcDbRotatedDimension
1001
ACAD
1000
DSTYLE
1002
{
1070
   289
1070
     1
1070
   271
1070
     3
1070
   272
1070
     2
1070
    48
1040
0.0
1070
    47
1040
0.0
1002
}
  0
DIMENSION
  5
6DA
330
6C
100
AcDbEntity
  8
Dimension (ANSI)
100
AcDbDimension
  2
*D10
 10
7.402003412492603
 20
13.45273709572106
 30
0.0
 11
8.881688481092423
 21
15.34301684337678
 31
0.0
 70
   160
  1
<>
 42
0.75
  3
Default (ANSI)
100
AcDbAlignedDimension
 13
11.01259859679279
 23
14.20273709572106
 33
0.0
 14
11.01259859679279
 24
13.45273709572106
 34
0.0
 50
90.0
100
AcDbRotatedDimension
1001
ACAD
1000
DSTYLE
1002
{
1070
   289
1070
     1
1070
   271
1070
     3
1070
   272
1070
     2
1070
    48
1040
0.0
1070
    47
1040
0.0
1002
}
  0
DIMENSION
  5
7D7
330
6C
100
AcDbEntity
  8
Dimension (ANSI)
100
AcDbDimension
  2
*D11
 10
11.01259859679279
 20
37.48009444009476
 30
0.0
 11
21.59259859679279
 21
37.48009444009476
 31
0.0
 70
   160
  1
<>
 42
21.16
  3
Default (ANSI)
100
AcDbAlignedDimension
 13
32.17259859679279
 23
34.61273709572107
 33
0.0
 14
11.01259859679279
 24
34.61273709572106
 34
0.0
 50
180.0
100
AcDbRotatedDimension
1001
ACAD
1000
DSTYLE
1002
{
1070
   289
1070
     1
1070
    73
1070
     0
1070
    74
1070
     0
1070
   271
1070
     3
1070
   272
1070
     2
1070
    48
1040
0.0
1070
    47
1040
0.0
1002
}
  0
DIMENSION
  5
8C1
330
6C
100
AcDbEntity
  8
Dimension (ANSI)
100
AcDbDimension
  2
*D12
 10
33.30168794415972
 20
12.93273709572106
 30
0.0
 11
34.78137301275954
 21
14.57301684337678
 31
0.0
 70
   160
  1
<>
 42
0.5000000000000018
  3
Default (ANSI)
100
AcDbAlignedDimension
 13
32.69259859679279
 23
13.43273709572106
 33
0.0
 14
32.19259859679278
 24
12.93273709572106
 34
0.0
 50
90.0
100
AcDbRotatedDimension
1001
ACAD
1000
DSTYLE
1002
{
1070
   289
1070
     1
1070
   271
1070
     3
1070
   272
1070
     2
1070
    48
1040
0.0
1070
    47
1040
0.0
1002
}
  0
DIMENSION
  5
9C1
330
6C
100
AcDbEntity
  8
Dimension (ANSI)
100
AcDbDimension
  2
*D13
 10
32.19259859679278
 20
11.07889684392391
 30
0.0
 11
29.84091302775049
 21
11.07889684392391
 31
0.0
 70
   160
  1
<>
 42
0.5
  3
Default (ANSI)
100
AcDbAlignedDimension
 13
32.69259859679279
 23
13.43273709572106
 33
0.0
 14
32.19259859679278
 24
12.93273709572106
 34
0.0
 50
180.0
100
AcDbRotatedDimension
1001
ACAD
1000
DSTYLE
1002
{
1070
   289
1070
     1
1070
    73
1070
     0
1070
    74
1070
     0
1070
   271
1070
     3
1070
   272
1070
     2
1070
    48
1040
0.0
1070
    47
1040
0.0
1002
}
  0
DIMENSION
  5
AAB
330
6C
100
AcDbEntity
  8
Dimension (ANSI)
100
AcDbDimension
  2
*D14
 10
32.69259859679279
 20
36.18754024532736
 30
0.0
 11
30.22182039277039
 21
36.18754024532736
 31
0.0
 70
   160
  1
<>
 42
0.5199999999999961
  3
Default (ANSI)
100
AcDbAlignedDimension
 13
32.17259859679279
 23
34.61273709572107
 33
0.0
 14
32.69259859679279
 24
34.63273709572106
 34
0.0
 50
180.0
100
AcDbRotatedDimension
1001
ACAD
1000
DSTYLE
1002
{
1070
   289
1070
     1
1070
    73
1070
     0
1070
    74
1070
     0
1070
   271
1070
     3
1070
   272
1070
     2
1070
    48
1040
0.0
1070
    47
1040
0.0
1002
}
  0
DIMENSION
  5
B95
330
6C
100
AcDbEntity
  8
Dimension (ANSI)
100
AcDbDimension
  2
*D15
 10
35.63201232675588
 20
35.13273709572106
 30
0.0
 11
34.15232725815605
 21
33.5609504919238
 31
0.0
 70
   160
  1
<>
 42
0.5199999999999961
  3
Default (ANSI)
100
AcDbAlignedDimension
 13
32.17259859679279
 23
34.61273709572107
 33
0.0
 14
32.19259859679278
 24
35.13273709572106
 34
0.0
 50
270.0
100
AcDbRotatedDimension
1001
ACAD
1000
DSTYLE
1002
{
1070
   289
1070
     1
1070
   271
1070
     3
1070
   272
1070
     2
1070
    48
1040
0.0
1070
    47
1040
0.0
1002
}
  0
MTEXT
  5
C95
102
{ACAD_XDICTIONARY
360
D8F
102
}
330
6C
100
AcDbEntity
  8
Symbol (ANSI)
100
AcDbMText
 10
36.52436594795132
 20
9.608367391572237
 30
0.0
 40
0.4800000059323048
 41
30.07287254921866
 71
     1
 72
     1
  3
{\fRomanS|b0|i0|c0|p2;\H2x;PART#: NP2424SSC\P(DATA SUBJECT TO CHANGE WITHOUT \H1.4011x; \H0.71374x;NOTICE) \H1.2931x; \H0.77332x;\P\H0.6x;THIS DRAWING IS PROPERTY OF HUBBELL INC. WIEGMANN\H1.2219x; \H0.81839x;\PALL INFORMATION IS PROPRIETARY AND NOT 
  1
TO BE DUPLICATED\H1.0144x; \H0.82154x;\P\H1.0771x; }
  7
Note Text (ANSI)
 73
     1
 44
0.9303776025772094
1001
ACAD
1000
MTEXTBEGIN
1070
    73
1070
     1
1070
    44
1040
0.9303776025772094
1070
    74
1070
     0
1000
MTEXTEND
  0
DIMENSION
  5
C97
330
6C
100
AcDbEntity
  8
Dimension (ANSI)
100
AcDbDimension
  2
*D16
 10
43.55593291565964
 20
37.15242213509114
 30
0.0
 11
40.43024734661734
 21
37.15242213509114
 31
0.0
 70
   160
  1
<>
 42
0.7740000000000009
  3
Default (ANSI)
100
AcDbAlignedDimension
 13
42.78193291565964
 23
34.63273709572106
 33
0.0
 14
43.55593291565964
 24
33.41473709572106
 34
0.0
 50
180.0
100
AcDbRotatedDimension
1001
ACAD
1000
DSTYLE
1002
{
1070
   289
1070
     1
1070
    73
1070
     0
1070
    74
1070
     0
1070
   271
1070
     3
1070
   272
1070
     2
1070
    48
1040
0.0
1070
    47
1040
0.0
1002
}
  0
ENDSEC
  0
SECTION
  2
OBJECTS
  0
DICTIONARY
  5
C
330
0
100
AcDbDictionary
281
     1
  3
ACAD_CIP_PREVIOUS_PRODUCT_INFO
350
D81
  3
ACAD_COLOR
350
63
  3
ACAD_GROUP
350
D
  3
ACAD_LAYOUT
350
62
  3
ACAD_MATERIAL
350
10
  3
ACAD_MLEADERSTYLE
350
66
  3
ACAD_MLINESTYLE
350
5F
  3
ACAD_PLOTSETTINGS
350
61
  3
ACAD_PLOTSTYLENAME
350
E
  3
ACAD_SCALELIST
350
42
  3
ACAD_TABLESTYLE
350
64
  3
ACAD_VISUALSTYLE
350
29
  3
ACDB_RECOMPOSE_DATA
350
D91
  3
AcDbVariableDictionary
350
76
  3
DWGPROPS
350
D92
  0
DICTIONARY
  5
DCE
330
433
100
AcDbDictionary
280
     1
281
     1
  3
ACAD_MTEXT_RT
360
DCF
  0
DICTIONARY
  5
DD0
330
4EC
100
AcDbDictionary
280
     1
281
     1
  3
ACAD_MTEXT_RT
360
DD1
  0
DICTIONARY
  5
D8F
330
C95
100
AcDbDictionary
280
     1
281
     1
  3
ACAD_MTEXT_2008_RT
360
D90
  0
XRECORD
  5
D81
102
{ACAD_REACTORS
330
C
102
}
330
C
100
AcDbXrecord
280
     1
300
INVNTOR
300
2012
300
85795PDSP_2012_0F
  0
DICTIONARY
  5
63
102
{ACAD_REACTORS
330
C
102
}
330
C
100
AcDbDictionary
281
     1
  0
DICTIONARY
  5
D
102
{ACAD_REACTORS
330
C
102
}
330
C
100
AcDbDictionary
281
     1
  0
DICTIONARY
  5
62
102
{ACAD_REACTORS
330
C
102
}
330
C
100
AcDbDictionary
281
     1
  3
Layout1
350
6B
  3
Layout2
350
73
  3
Model
350
6F
  0
DICTIONARY
  5
10
102
{ACAD_REACTORS
330
C
102
}
330
C
100
AcDbDictionary
281
     1
  3
ByBlock
350
19
  3
ByLayer
350
11
  3
Global
350
21
  0
DICTIONARY
  5
66
102
{ACAD_REACTORS
330
C
102
}
330
C
100
AcDbDictionary
281
     1
  3
Standard
350
67
  0
DICTIONARY
  5
5F
102
{ACAD_REACTORS
330
C
102
}
330
C
100
AcDbDictionary
281
     1
  3
Standard
350
60
  0
DICTIONARY
  5
61
102
{ACAD_REACTORS
330
C
102
}
330
C
100
AcDbDictionary
281
     1
  0
ACDBDICTIONARYWDFLT
  5
E
102
{ACAD_REACTORS
330
C
102
}
330
C
100
AcDbDictionary
281
     1
  3
Normal
350
F
100
AcDbDictionaryWithDefault
340
F
  0
DICTIONARY
  5
42
102
{ACAD_REACTORS
330
C
102
}
330
C
100
AcDbDictionary
281
     1
  3
A0
350
43
  3
A1
350
44
  3
A2
350
45
  3
A3
350
46
  3
A4
350
47
  3
A5
350
48
  3
A6
350
49
  3
A7
350
4A
  3
A8
350
4B
  3
A9
350
4C
  3
B0
350
4D
  3
B1
350
4E
  3
B2
350
4F
  3
B3
350
50
  3
B4
350
51
  3
B5
350
52
  3
B6
350
53
  0
DICTIONARY
  5
64
102
{ACAD_REACTORS
330
C
102
}
330
C
100
AcDbDictionary
281
     1
  3
Standard
350
65
  0
DICTIONARY
  5
29
102
{ACAD_REACTORS
330
C
102
}
330
C
100
AcDbDictionary
281
     1
  3
2dWireframe
350
2F
  3
Basic
350
2E
  3
Brighten
350
35
  3
ColorChange
350
39
  3
Conceptual
350
32
  3
Dim
350
34
  3
EdgeColorOff
350
41
  3
Facepattern
350
38
  3
Flat
350
2A
  3
FlatWithEdges
350
2B
  3
Gouraud
350
2C
  3
GouraudWithEdges
350
2D
  3
Hidden
350
31
  3
JitterOff
350
3F
  3
Linepattern
350
37
  3
OverhangOff
350
40
  3
Realistic
350
33
  3
Shaded
350
3E
  3
Shaded with edges
350
3D
  3
Shades of Gray
350
3A
  3
Sketchy
350
3B
  3
Thicken
350
36
  3
Wireframe
350
30
  3
X-Ray
350
3C
  0
XRECORD
  5
D91
102
{ACAD_REACTORS
330
C
102
}
330
C
100
AcDbXrecord
280
     1
 90
        1
330
65
330
C95
  0
DICTIONARY
  5
76
102
{ACAD_REACTORS
330
C
102
}
330
C
100
AcDbDictionary
281
     1
  3
CANNOSCALE
350
79
  3
CMLEADERSTYLE
350
78
  3
CTABLESTYLE
350
77
  3
DIMASSOC
350
D89
  3
HIDETEXT
350
D88
  3
INDEXCTL
350
D87
  3
LAYEREVAL
350
D84
  3
LAYERNOTIFY
350
D85
  3
LIGHTINGUNITS
350
D83
  3
MSLTSCALE
350
D82
  3
SORTENTS
350
D86
  3
XCLIPFRAME
350
D8A
  0
XRECORD
  5
D92
102
{ACAD_REACTORS
330
C
102
}
330
C
100
AcDbXrecord
280
     1
  1
DWGPROPS COOKIE
  2

  3

  4
dnichola
  6

  7

  8

  9
-
300
Manager=
301
Company=
302
Category=
303
Part Number=NP2424SSC-S
304
Description=
305
Project=
306
Designer=dnichola
307
Engineer=
308
Authority=
309
Cost Center=
 40
0.0000368865740741
 41
2455944.613489456
 42
2455944.613489456
  1

 90
       19
300
Vendor=
300
User Status=
300
Design Status=WorkInProgress
300
Checked by=
300
Engr Approved by=
300
Mfg Approved by=
300
DWG. NO=
300
NUMBER OF SHEETS=1
300
DRAWING #=
  0
XRECORD
  5
DCF
102
{ACAD_REACTORS
330
DCE
102
}
330
DCE
100
AcDbXrecord
280
     1
 40
31446.0
  1
\A1;\U+22050.500{\PTYP.(4PL.)}
  0
XRECORD
  5
DD1
102
{ACAD_REACTORS
330
DD0
102
}
330
DD0
100
AcDbXrecord
280
     1
 40
31481.0
  1
\A1;\U+22050.313{\PTYP.(4PL.)}
  0
XRECORD
  5
D90
102
{ACAD_REACTORS
330
D8F
102
}
330
D8F
100
AcDbXrecord
280
     1
 40
3076851.0
  1
\pxsm0.94;{\fRomanS|b0|i0;\H0.9600;PART#: NP2424SSC\P(DATA SUBJECT TO CHANGE WITHOUT NOTICE) \P\fRomanS|b0|i0;\H0.5760;THIS DRAWING IS PROPERTY OF HUBBELL INC. WIEGMANN\PALL INFORMATION IS PROPRIETARY AND NOT TO BE DUPLICATED\fRomanS|b0|i0;\H0.4800;\
  1
P}
  0
LAYOUT
  5
6B
102
{ACAD_XDICTIONARY
360
DC8
102
}
102
{ACAD_REACTORS
330
62
102
}
330
62
100
AcDbPlotSettings
  1

  2

  4

  6

 40
0.0
 41
0.0
 42
0.0
 43
0.0
 44
0.0
 45
0.0
 46
0.0
 47
0.0
 48
0.0
 49
0.0
140
0.0
141
0.0
142
1.0
143
1.0
 70
   688
 72
     0
 73
     0
 74
     5
  7

 75
    16
147
1.0
148
0.0
149
0.0
100
AcDbLayout
  1
Layout1
 70
     1
 71
     1
 10
0.0
 20
0.0
 11
12.0
 21
9.0
 12
0.0
 22
0.0
 32
0.0
 14
0.0
 24
0.0
 34
0.0
 15
0.0
 25
0.0
 35
0.0
146
0.0
 13
0.0
 23
0.0
 33
0.0
 16
1.0
 26
0.0
 36
0.0
 17
0.0
 27
1.0
 37
0.0
 76
     0
330
68
  0
LAYOUT
  5
73
102
{ACAD_XDICTIONARY
360
DCC
102
}
102
{ACAD_REACTORS
330
62
102
}
330
62
100
AcDbPlotSettings
  1

  2

  4

  6

 40
0.0
 41
0.0
 42
0.0
 43
0.0
 44
0.0
 45
0.0
 46
0.0
 47
0.0
 48
0.0
 49
0.0
140
0.0
141
0.0
142
1.0
143
1.0
 70
   688
 72
     0
 73
     0
 74
     5
  7

 75
    16
147
1.0
148
0.0
149
0.0
100
AcDbLayout
  1
Layout2
 70
     1
 71
     2
 10
0.0
 20
0.0
 11
12.0
 21
9.0
 12
0.0
 22
0.0
 32
0.0
 14
0.0
 24
0.0
 34
0.0
 15
0.0
 25
0.0
 35
0.0
146
0.0
 13
0.0
 23
0.0
 33
0.0
 16
1.0
 26
0.0
 36
0.0
 17
0.0
 27
1.0
 37
0.0
 76
     0
330
70
  0
LAYOUT
  5
6F
102
{ACAD_XDICTIONARY
360
DCA
102
}
102
{ACAD_REACTORS
330
62
102
}
330
62
100
AcDbPlotSettings
  1

  2

  4

  6

 40
0.0
 41
0.0
 42
0.0
 43
0.0
 44
0.0
 45
0.0
 46
0.0
 47
0.0
 48
0.0
 49
0.0
140
0.0
141
0.0
142
1.0
143
1.0
 70
  1712
 72
     0
 73
     0
 74
     0
  7

 75
     0
147
1.0
148
0.0
149
0.0
100
AcDbLayout
  1
Model
 70
     1
 71
     0
 10
0.0
 20
0.0
 11
12.0
 21
9.0
 12
0.0
 22
0.0
 32
0.0
 14
0.0
 24
0.0
 34
0.0
 15
0.0
 25
0.0
 35
0.0
146
0.0
 13
0.0
 23
0.0
 33
0.0
 16
1.0
 26
0.0
 36
0.0
 17
0.0
 27
1.0
 37
0.0
 76
     0
330
6C
  0
MATERIAL
  5
19
102
{ACAD_XDICTIONARY
360
1A
102
}
102
{ACAD_REACTORS
330
10
102
}
330
10
100
AcDbMaterial
  1
ByBlock
 72
     0
 43
0.0208333333333333
 43
0.0
 43
0.0
 43
0.0
 43
0.0
 43
0.0208333333333333
 43
0.0
 43
0.0
 43
0.0
 43
0.0
 43
1.0
 43
0.0
 43
0.0
 43
0.0
 43
0.0
 43
1.0
 77
     0
 47
0.0208333333333333
 47
0.0
 47
0.0
 47
0.0
 47
0.0
 47
0.0208333333333333
 47
0.0
 47
0.0
 47
0.0
 47
0.0
 47
1.0
 47
0.0
 47
0.0
 47
0.0
 47
0.0
 47
1.0
171
     0
 49
0.0208333333333333
 49
0.0
 49
0.0
 49
0.0
 49
0.0
 49
0.0208333333333333
 49
0.0
 49
0.0
 49
0.0
 49
0.0
 49
1.0
 49
0.0
 49
0.0
 49
0.0
 49
0.0
 49
1.0
175
     0
142
0.0208333333333333
142
0.0
142
0.0
142
0.0
142
0.0
142
0.0208333333333333
142
0.0
142
0.0
142
0.0
142
0.0
142
1.0
142
0.0
142
0.0
142
0.0
142
0.0
142
1.0
179
     0
144
0.0208333333333333
144
0.0
144
0.0
144
0.0
144
0.0
144
0.0208333333333333
144
0.0
144
0.0
144
0.0
144
0.0
144
1.0
144
0.0
144
0.0
144
0.0
144
0.0
144
1.0
147
0.0208333333333333
147
0.0
147
0.0
147
0.0
147
0.0
147
0.0208333333333333
147
0.0
147
0.0
147
0.0
147
0.0
147
1.0
147
0.0
147
0.0
147
0.0
147
0.0
147
1.0
  0
MATERIAL
  5
11
102
{ACAD_XDICTIONARY
360
12
102
}
102
{ACAD_REACTORS
330
10
102
}
330
10
100
AcDbMaterial
  1
ByLayer
 72
     0
 43
0.0208333333333333
 43
0.0
 43
0.0
 43
0.0
 43
0.0
 43
0.0208333333333333
 43
0.0
 43
0.0
 43
0.0
 43
0.0
 43
1.0
 43
0.0
 43
0.0
 43
0.0
 43
0.0
 43
1.0
 77
     0
 47
0.0208333333333333
 47
0.0
 47
0.0
 47
0.0
 47
0.0
 47
0.0208333333333333
 47
0.0
 47
0.0
 47
0.0
 47
0.0
 47
1.0
 47
0.0
 47
0.0
 47
0.0
 47
0.0
 47
1.0
171
     0
 49
0.0208333333333333
 49
0.0
 49
0.0
 49
0.0
 49
0.0
 49
0.0208333333333333
 49
0.0
 49
0.0
 49
0.0
 49
0.0
 49
1.0
 49
0.0
 49
0.0
 49
0.0
 49
0.0
 49
1.0
175
     0
142
0.0208333333333333
142
0.0
142
0.0
142
0.0
142
0.0
142
0.0208333333333333
142
0.0
142
0.0
142
0.0
142
0.0
142
1.0
142
0.0
142
0.0
142
0.0
142
0.0
142
1.0
179
     0
144
0.0208333333333333
144
0.0
144
0.0
144
0.0
144
0.0
144
0.0208333333333333
144
0.0
144
0.0
144
0.0
144
0.0
144
1.0
144
0.0
144
0.0
144
0.0
144
0.0
144
1.0
147
0.0208333333333333
147
0.0
147
0.0
147
0.0
147
0.0
147
0.0208333333333333
147
0.0
147
0.0
147
0.0
147
0.0
147
1.0
147
0.0
147
0.0
147
0.0
147
0.0
147
1.0
  0
MATERIAL
  5
21
102
{ACAD_XDICTIONARY
360
22
102
}
102
{ACAD_REACTORS
330
10
102
}
330
10
100
AcDbMaterial
  1
Global
 72
     0
 43
0.0208333333333333
 43
0.0
 43
0.0
 43
0.0
 43
0.0
 43
0.0208333333333333
 43
0.0
 43
0.0
 43
0.0
 43
0.0
 43
1.0
 43
0.0
 43
0.0
 43
0.0
 43
0.0
 43
1.0
 77
     0
 47
0.0208333333333333
 47
0.0
 47
0.0
 47
0.0
 47
0.0
 47
0.0208333333333333
 47
0.0
 47
0.0
 47
0.0
 47
0.0
 47
1.0
 47
0.0
 47
0.0
 47
0.0
 47
0.0
 47
1.0
171
     0
 49
0.0208333333333333
 49
0.0
 49
0.0
 49
0.0
 49
0.0
 49
0.0208333333333333
 49
0.0
 49
0.0
 49
0.0
 49
0.0
 49
1.0
 49
0.0
 49
0.0
 49
0.0
 49
0.0
 49
1.0
175
     0
142
0.0208333333333333
142
0.0
142
0.0
142
0.0
142
0.0
142
0.0208333333333333
142
0.0
142
0.0
142
0.0
142
0.0
142
1.0
142
0.0
142
0.0
142
0.0
142
0.0
142
1.0
179
     0
144
0.0208333333333333
144
0.0
144
0.0
144
0.0
144
0.0
144
0.0208333333333333
144
0.0
144
0.0
144
0.0
144
0.0
144
1.0
144
0.0
144
0.0
144
0.0
144
0.0
144
1.0
147
0.0208333333333333
147
0.0
147
0.0
147
0.0
147
0.0
147
0.0208333333333333
147
0.0
147
0.0
147
0.0
147
0.0
147
1.0
147
0.0
147
0.0
147
0.0
147
0.0
147
1.0
  0
MLEADERSTYLE
  5
67
102
{ACAD_XDICTIONARY
360
D8D
102
}
102
{ACAD_REACTORS
330
66
102
}
330
66
100
AcDbMLeaderStyle
170
     2
171
     1
172
     0
 90
        2
 40
0.0
 41
0.0
173
     1
 91
-1056964608
340
5B
 92
       -2
290
     1
 42
0.09
291
     1
 43
0.36
  3
Standard
 44
0.18
300

342
55
174
     1
178
     6
175
     1
176
     0
 93
-1056964608
 45
0.18
292
     0
297
     0
 46
0.18
 94
-1056964608
 47
1.0
 49
1.0
140
1.0
293
     1
141
0.0
294
     1
177
     0
142
1.0
295
     0
296
     0
143
0.125
1001
ACAD_MLEADERVER
1070
     2
  0
MLINESTYLE
  5
60
102
{ACAD_REACTORS
330
5F
102
}
330
5F
100
AcDbMlineStyle
  2
STANDARD
 70
     0
  3

 62
   256
 51
90.0
 52
90.0
 71
     2
 49
0.5
 62
   256
  6
BYLAYER
 49
-0.5
 62
   256
  6
BYLAYER
  0
ACDBPLACEHOLDER
  5
F
102
{ACAD_REACTORS
330
E
102
}
330
E
  0
SCALE
  5
43
102
{ACAD_REACTORS
330
42
102
}
330
42
100
AcDbScale
 70
     0
300
1:1
140
1.0
141
1.0
290
     1
  0
SCALE
  5
44
102
{ACAD_REACTORS
330
42
102
}
330
42
100
AcDbScale
 70
     0
300
1/128" = 1'-0"
140
0.0078125
141
12.0
290
     0
  0
SCALE
  5
45
102
{ACAD_REACTORS
330
42
102
}
330
42
100
AcDbScale
 70
     0
300
1/64" = 1'-0"
140
0.015625
141
12.0
290
     0
  0
SCALE
  5
46
102
{ACAD_REACTORS
330
42
102
}
330
42
100
AcDbScale
 70
     0
300
1/32" = 1'-0"
140
0.03125
141
12.0
290
     0
  0
SCALE
  5
47
102
{ACAD_REACTORS
330
42
102
}
330
42
100
AcDbScale
 70
     0
300
1/16" = 1'-0"
140
0.0625
141
12.0
290
     0
  0
SCALE
  5
48
102
{ACAD_REACTORS
330
42
102
}
330
42
100
AcDbScale
 70
     0
300
3/32" = 1'-0"
140
0.09375
141
12.0
290
     0
  0
SCALE
  5
49
102
{ACAD_REACTORS
330
42
102
}
330
42
100
AcDbScale
 70
     0
300
1/8" = 1'-0"
140
0.125
141
12.0
290
     0
  0
SCALE
  5
4A
102
{ACAD_REACTORS
330
42
102
}
330
42
100
AcDbScale
 70
     0
300
3/16" = 1'-0"
140
0.1875
141
12.0
290
     0
  0
SCALE
  5
4B
102
{ACAD_REACTORS
330
42
102
}
330
42
100
AcDbScale
 70
     0
300
1/4" = 1'-0"
140
0.25
141
12.0
290
     0
  0
SCALE
  5
4C
102
{ACAD_REACTORS
330
42
102
}
330
42
100
AcDbScale
 70
     0
300
3/8" = 1'-0"
140
0.375
141
12.0
290
     0
  0
SCALE
  5
4D
102
{ACAD_REACTORS
330
42
102
}
330
42
100
AcDbScale
 70
     0
300
1/2" = 1'-0"
140
0.5
141
12.0
290
     0
  0
SCALE
  5
4E
102
{ACAD_REACTORS
330
42
102
}
330
42
100
AcDbScale
 70
     0
300
3/4" = 1'-0"
140
0.75
141
12.0
290
     0
  0
SCALE
  5
4F
102
{ACAD_REACTORS
330
42
102
}
330
42
100
AcDbScale
 70
     0
300
1" = 1'-0"
140
1.0
141
12.0
290
     0
  0
SCALE
  5
50
102
{ACAD_REACTORS
330
42
102
}
330
42
100
AcDbScale
 70
     0
300
1-1/2" = 1'-0"
140
1.5
141
12.0
290
     0
  0
SCALE
  5
51
102
{ACAD_REACTORS
330
42
102
}
330
42
100
AcDbScale
 70
     0
300
3" = 1'-0"
140
3.0
141
12.0
290
     0
  0
SCALE
  5
52
102
{ACAD_REACTORS
330
42
102
}
330
42
100
AcDbScale
 70
     0
300
6" = 1'-0"
140
6.0
141
12.0
290
     0
  0
SCALE
  5
53
102
{ACAD_REACTORS
330
42
102
}
330
42
100
AcDbScale
 70
     0
300
1'-0" = 1'-0"
140
12.0
141
12.0
290
     0
  0
TABLESTYLE
  5
65
102
{ACAD_XDICTIONARY
360
D8B
102
}
102
{ACAD_REACTORS
330
64
102
}
330
64
100
AcDbTableStyle
  3
Standard
 70
     0
 71
     0
 40
0.06
 41
0.06
280
     0
281
     0
  7
Standard
140
0.18
170
     2
 62
     0
 63
     7
283
     0
274
    -2
284
     1
 64
     0
275
    -2
285
     1
 65
     0
276
    -2
286
     1
 66
     0
277
    -2
287
     1
 67
     0
278
    -2
288
     1
 68
     0
279
    -2
289
     1
 69
     0
  7
Standard
140
0.25
170
     5
 62
     0
 63
     7
283
     0
274
    -2
284
     1
 64
     0
275
    -2
285
     1
 65
     0
276
    -2
286
     1
 66
     0
277
    -2
287
     1
 67
     0
278
    -2
288
     1
 68
     0
279
    -2
289
     1
 69
     0
  7
Standard
140
0.18
170
     5
 62
     0
 63
     7
283
     0
274
    -2
284
     1
 64
     0
275
    -2
285
     1
 65
     0
276
    -2
286
     1
 66
     0
277
    -2
287
     1
 67
     0
278
    -2
288
     1
 68
     0
279
    -2
289
     1
 69
     0
  0
VISUALSTYLE
  5
2F
102
{ACAD_XDICTIONARY
360
DA0
102
}
102
{ACAD_REACTORS
330
29
102
}
330
29
100
AcDbVisualStyle
  2
2dWireframe
 70
     4
 71
     0
 72
     2
 73
     0
 90
        0
 40
-0.6
 41
-30.0
 62
     5
 63
     7
 74
     1
 91
        4
 64
     7
 65
   257
 75
     1
175
     1
 42
1.0
 92
        0
 66
   257
 43
1.0
 76
     1
 77
     6
 78
     2
 67
     7
 79
     5
170
     0
171
     0
290
     0
174
     0
 93
        1
 44
0.0
173
     0
291
     0
 45
0.0
1001
ACAD
1000
AcDbSavedByObjectVersion
1070
     0
  0
VISUALSTYLE
  5
2E
102
{ACAD_XDICTIONARY
360
D9E
102
}
102
{ACAD_REACTORS
330
29
102
}
330
29
100
AcDbVisualStyle
  2
Basic
 70
     7
 71
     1
 72
     0
 73
     1
 90
        0
 40
-0.6
 41
-30.0
 62
     5
 63
     7
 74
     0
 91
        4
 64
     7
 65
   257
 75
     1
175
     1
 42
1.0
 92
        8
 66
     7
 43
1.0
 76
     1
 77
     6
 78
     2
 67
     7
 79
     5
170
     0
171
     0
290
     0
174
     0
 93
        1
 44
0.0
173
     0
291
     1
 45
0.0
1001
ACAD
1000
AcDbSavedByObjectVersion
1070
     0
  0
VISUALSTYLE
  5
35
102
{ACAD_XDICTIONARY
360
DAC
102
}
102
{ACAD_REACTORS
330
29
102
}
330
29
100
AcDbVisualStyle
  2
Brighten
 70
    12
 71
     2
 72
     2
 73
     0
 90
        0
 40
-0.6
 41
-30.0
 62
     5
 63
     7
 74
     1
 91
        4
 64
     7
 65
   257
 75
     1
175
     1
 42
1.0
 92
        8
 66
     7
 43
1.0
 76
     1
 77
     6
 78
     2
 67
     7
 79
     5
170
     0
171
     0
290
     0
174
     0
 93
        1
 44
50.0
173
     0
291
     1
 45
0.0
1001
ACAD
1000
AcDbSavedByObjectVersion
1070
     0
  0
VISUALSTYLE
  5
39
102
{ACAD_XDICTIONARY
360
DB4
102
}
102
{ACAD_REACTORS
330
29
102
}
330
29
100
AcDbVisualStyle
  2
ColorChange
 70
    16
 71
     2
 72
     2
 73
     3
 90
        0
 40
-0.6
 41
-30.0
 62
     5
 63
     8
 74
     1
 91
        4
 64
     7
 65
   257
 75
     1
175
     1
 42
1.0
 92
        8
 66
     8
 43
1.0
 76
     1
 77
     6
 78
     2
 67
     7
 79
     5
170
     0
171
     0
290
     0
174
     0
 93
        1
 44
0.0
173
     0
291
     1
 45
0.0
1001
ACAD
1000
AcDbSavedByObjectVersion
1070
     0
  0
VISUALSTYLE
  5
32
102
{ACAD_XDICTIONARY
360
DA6
102
}
102
{ACAD_REACTORS
330
29
102
}
330
29
100
AcDbVisualStyle
  2
Conceptual
 70
     9
 71
     3
 72
     2
 73
     0
 90
        0
 40
-0.6
 41
-30.0
 62
     5
 63
     7
 74
     2
 91
        2
 64
     7
 65
   257
 75
     1
175
     1
 42
179.0
 92
        8
 66
     7
 43
1.0
 76
     1
 77
     6
 78
     2
 67
     7
 79
     3
170
     0
171
     0
290
     0
174
     0
 93
        1
 44
0.0
173
     0
291
     0
 45
0.0
1001
ACAD
1000
AcDbSavedByObjectVersion
1070
     0
  0
VISUALSTYLE
  5
34
102
{ACAD_XDICTIONARY
360
DAA
102
}
102
{ACAD_REACTORS
330
29
102
}
330
29
100
AcDbVisualStyle
  2
Dim
 70
    11
 71
     2
 72
     2
 73
     0
 90
        0
 40
-0.6
 41
-30.0
 62
     5
 63
     7
 74
     1
 91
        4
 64
     7
 65
   257
 75
     1
175
     1
 42
1.0
 92
        8
 66
     7
 43
1.0
 76
     1
 77
     6
 78
     2
 67
     7
 79
     5
170
     0
171
     0
290
     0
174
     0
 93
        1
 44
-50.0
173
     0
291
     1
 45
0.0
1001
ACAD
1000
AcDbSavedByObjectVersion
1070
     0
  0
VISUALSTYLE
  5
41
102
{ACAD_XDICTIONARY
360
DC4
102
}
102
{ACAD_REACTORS
330
29
102
}
330
29
100
AcDbVisualStyle
  2
EdgeColorOff
 70
    22
 71
     2
 72
     2
 73
     0
 90
        0
 40
-0.6
 41
-30.0
 62
     5
 63
     7
 74
     1
 91
        4
 64
     7
 65
   257
 75
     1
175
     1
 42
1.0
 92
        8
 66
     7
 43
1.0
 76
     1
 77
     6
 78
     2
 67
     7
 79
     5
170
     0
171
     0
290
     0
174
     0
 93
        1
 44
0.0
173
     0
291
     1
 45
0.0
1001
ACAD
1000
AcDbSavedByObjectVersion
1070
     0
  0
VISUALSTYLE
  5
38
102
{ACAD_XDICTIONARY
360
DB2
102
}
102
{ACAD_REACTORS
330
29
102
}
330
29
100
AcDbVisualStyle
  2
Facepattern
 70
    15
 71
     2
 72
     2
 73
     0
 90
        0
 40
-0.6
 41
-30.0
 62
     5
 63
     7
 74
     1
 91
        4
 64
     7
 65
   257
 75
     1
175
     1
 42
1.0
 92
        8
 66
     7
 43
1.0
 76
     1
 77
     6
 78
     2
 67
     7
 79
     5
170
     0
171
     0
290
     0
174
     0
 93
        1
 44
0.0
173
     0
291
     1
 45
0.0
1001
ACAD
1000
AcDbSavedByObjectVersion
1070
     0
  0
VISUALSTYLE
  5
2A
102
{ACAD_XDICTIONARY
360
D96
102
}
102
{ACAD_REACTORS
330
29
102
}
330
29
100
AcDbVisualStyle
  2
Flat
 70
     0
 71
     2
 72
     1
 73
     1
 90
        2
 40
-0.6
 41
30.0
 62
     5
 63
     7
 74
     0
 91
        0
 64
     7
 65
   257
 75
     1
175
     1
 42
1.0
 92
        8
 66
     7
 43
1.0
 76
     1
 77
     6
 78
     2
 67
     7
 79
     5
170
     0
171
     0
290
     0
174
     0
 93
       13
 44
0.0
173
     0
291
     1
 45
0.0
1001
ACAD
1000
AcDbSavedByObjectVersion
1070
     0
  0
VISUALSTYLE
  5
2B
102
{ACAD_XDICTIONARY
360
D98
102
}
102
{ACAD_REACTORS
330
29
102
}
330
29
100
AcDbVisualStyle
  2
FlatWithEdges
 70
     1
 71
     2
 72
     1
 73
     1
 90
        2
 40
-0.6
 41
30.0
 62
     5
 63
     7
 74
     1
 91
        0
 64
     7
 65
   257
 75
     1
175
     1
 42
1.0
 92
        0
 66
   257
 43
1.0
 76
     1
 77
     6
 78
     2
 67
     7
 79
     5
170
     0
171
     0
290
     0
174
     0
 93
       13
 44
0.0
173
     0
291
     1
 45
0.0
1001
ACAD
1000
AcDbSavedByObjectVersion
1070
     0
  0
VISUALSTYLE
  5
2C
102
{ACAD_XDICTIONARY
360
D9A
102
}
102
{ACAD_REACTORS
330
29
102
}
330
29
100
AcDbVisualStyle
  2
Gouraud
 70
     2
 71
     2
 72
     2
 73
     1
 90
        2
 40
-0.6
 41
30.0
 62
     5
 63
     7
 74
     0
 91
        0
 64
     7
 65
   257
 75
     1
175
     1
 42
1.0
 92
        0
 66
     7
 43
1.0
 76
     1
 77
     6
 78
     2
 67
     7
 79
     5
170
     0
171
     0
290
     0
174
     0
 93
       13
 44
0.0
173
     0
291
     1
 45
0.0
1001
ACAD
1000
AcDbSavedByObjectVersion
1070
     0
  0
VISUALSTYLE
  5
2D
102
{ACAD_XDICTIONARY
360
D9C
102
}
102
{ACAD_REACTORS
330
29
102
}
330
29
100
AcDbVisualStyle
  2
GouraudWithEdges
 70
     3
 71
     2
 72
     2
 73
     1
 90
        2
 40
-0.6
 41
30.0
 62
     5
 63
     7
 74
     1
 91
        0
 64
     7
 65
   257
 75
     1
175
     1
 42
1.0
 92
        0
 66
   257
 43
1.0
 76
     1
 77
     6
 78
     2
 67
     7
 79
     5
170
     0
171
     0
290
     0
174
     0
 93
       13
 44
0.0
173
     0
291
     1
 45
0.0
1001
ACAD
1000
AcDbSavedByObjectVersion
1070
     0
  0
VISUALSTYLE
  5
31
102
{ACAD_XDICTIONARY
360
DA4
102
}
102
{ACAD_REACTORS
330
29
102
}
330
29
100
AcDbVisualStyle
  2
Hidden
 70
     6
 71
     1
 72
     2
 73
     2
 90
        0
 40
-0.6
 41
-30.0
 62
     5
 63
     7
 74
     2
 91
        2
 64
     7
 65
   257
 75
     2
175
     1
 42
40.0
 92
        0
 66
   257
 43
1.0
 76
     1
 77
     6
 78
     2
 67
     7
 79
     3
170
     0
171
     0
290
     0
174
     0
 93
        1
 44
0.0
173
     0
291
     0
 45
0.0
1001
ACAD
1000
AcDbSavedByObjectVersion
1070
     0
  0
VISUALSTYLE
  5
3F
102
{ACAD_XDICTIONARY
360
DC0
102
}
102
{ACAD_REACTORS
330
29
102
}
330
29
100
AcDbVisualStyle
  2
JitterOff
 70
    20
 71
     2
 72
     2
 73
     0
 90
        0
 40
-0.6
 41
-30.0
 62
     5
 63
     7
 74
     1
 91
        4
 64
     7
 65
   257
 75
     1
175
     1
 42
1.0
 92
       10
 66
     7
 43
1.0
 76
     1
 77
     6
 78
     2
 67
     7
 79
     5
170
     0
171
     0
290
     0
174
     0
 93
        1
 44
0.0
173
     0
291
     1
 45
0.0
1001
ACAD
1000
AcDbSavedByObjectVersion
1070
     0
  0
VISUALSTYLE
  5
37
102
{ACAD_XDICTIONARY
360
DB0
102
}
102
{ACAD_REACTORS
330
29
102
}
330
29
100
AcDbVisualStyle
  2
Linepattern
 70
    14
 71
     2
 72
     2
 73
     0
 90
        0
 40
-0.6
 41
-30.0
 62
     5
 63
     7
 74
     1
 91
        4
 64
     7
 65
   257
 75
     7
175
     7
 42
1.0
 92
        8
 66
     7
 43
1.0
 76
     1
 77
     6
 78
     2
 67
     7
 79
     5
170
     0
171
     0
290
     0
174
     0
 93
        1
 44
0.0
173
     0
291
     1
 45
0.0
1001
ACAD
1000
AcDbSavedByObjectVersion
1070
     0
  0
VISUALSTYLE
  5
40
102
{ACAD_XDICTIONARY
360
DC2
102
}
102
{ACAD_REACTORS
330
29
102
}
330
29
100
AcDbVisualStyle
  2
OverhangOff
 70
    21
 71
     2
 72
     2
 73
     0
 90
        0
 40
-0.6
 41
-30.0
 62
     5
 63
     7
 74
     1
 91
        4
 64
     7
 65
   257
 75
     1
175
     1
 42
1.0
 92
        9
 66
     7
 43
1.0
 76
     1
 77
     6
 78
     2
 67
     7
 79
     5
170
     0
171
     0
290
     0
174
     0
 93
        1
 44
0.0
173
     0
291
     1
 45
0.0
1001
ACAD
1000
AcDbSavedByObjectVersion
1070
     0
  0
VISUALSTYLE
  5
33
102
{ACAD_XDICTIONARY
360
DA8
102
}
102
{ACAD_REACTORS
330
29
102
}
330
29
100
AcDbVisualStyle
  2
Realistic
 70
     8
 71
     2
 72
     3
 73
     0
 90
        2
 40
-0.6
 41
30.0
 62
     5
 63
     7
 74
     0
 91
        0
 64
     7
 65
   257
 75
     1
175
     1
 42
1.0
 92
        8
 66
   257
 43
1.0
 76
     1
 77
     6
 78
     2
 67
     7
 79
     3
170
     0
171
     0
290
     0
174
     0
 93
       13
 44
0.0
173
     0
291
     0
 45
0.0
1001
ACAD
1000
AcDbSavedByObjectVersion
1070
     0
  0
VISUALSTYLE
  5
3E
102
{ACAD_XDICTIONARY
360
DBE
102
}
102
{ACAD_REACTORS
330
29
102
}
330
29
100
AcDbVisualStyle
  2
Shaded
 70
    27
 71
     2
 72
     2
 73
     1
 90
        2
 40
-0.6
 41
30.0
 62
     5
 63
     7
 74
     0
 91
        4
 64
     7
 65
   257
 75
     1
175
     1
 42
1.0
 92
        8
 66
   257
 43
1.0
 76
     1
 77
     6
 78
     2
 67
     8
 79
     3
170
     0
171
     0
290
     0
174
     0
 93
        5
 44
0.0
173
     0
291
     0
 45
0.0
1001
ACAD
1000
AcDbSavedByObjectVersion
1070
     0
  0
VISUALSTYLE
  5
3D
102
{ACAD_XDICTIONARY
360
DBC
102
}
102
{ACAD_REACTORS
330
29
102
}
330
29
100
AcDbVisualStyle
  2
Shaded with edges
 70
    26
 71
     2
 72
     2
 73
     1
 90
        2
 40
-0.6
 41
30.0
 62
     5
 63
     7
 74
     1
 91
       10
 64
     7
 65
   257
 75
     2
175
     1
 42
1.0
 92
        8
 66
   257
 43
1.0
 76
     1
 77
     6
 78
     2
 67
     7
 79
     3
170
     0
171
     0
290
     0
174
     0
 93
        5
 44
0.0
173
     0
291
     0
 45
0.0
1001
ACAD
1000
AcDbSavedByObjectVersion
1070
     0
  0
VISUALSTYLE
  5
3A
102
{ACAD_XDICTIONARY
360
DB6
102
}
102
{ACAD_REACTORS
330
29
102
}
330
29
100
AcDbVisualStyle
  2
Shades of Gray
 70
    23
 71
     2
 72
     2
 73
     3
 90
        0
 40
-0.6
 41
-30.0
 62
     5
 63
     7
 74
     2
 91
        2
 64
     7
 65
     7
 75
     1
175
     1
 42
40.0
 92
        8
 66
     7
 43
1.0
 76
     1
 77
     6
 78
     2
 67
     7
 79
     3
170
     0
171
     0
290
     0
174
     0
 93
        1
 44
0.0
173
     0
291
     0
 45
0.0
1001
ACAD
1000
AcDbSavedByObjectVersion
1070
     0
  0
VISUALSTYLE
  5
3B
102
{ACAD_XDICTIONARY
360
DB8
102
}
102
{ACAD_REACTORS
330
29
102
}
330
29
100
AcDbVisualStyle
  2
Sketchy
 70
    24
 71
     1
 72
     2
 73
     2
 90
        0
 40
-0.6
 41
-30.0
 62
     5
 63
     7
 74
     2
 91
        2
 64
     7
 65
     7
 75
     1
175
     1
 42
40.0
 92
       11
 66
     7
 43
1.0
 76
     1
 77
     6
 78
     2
 67
     7
 79
     6
170
     0
171
     0
290
     0
174
     0
 93
        1
 44
0.0
173
     0
291
     0
 45
0.0
1001
ACAD
1000
AcDbSavedByObjectVersion
1070
     0
  0
VISUALSTYLE
  5
36
102
{ACAD_XDICTIONARY
360
DAE
102
}
102
{ACAD_REACTORS
330
29
102
}
330
29
100
AcDbVisualStyle
  2
Thicken
 70
    13
 71
     2
 72
     2
 73
     0
 90
        0
 40
-0.6
 41
-30.0
 62
     5
 63
     7
 74
     1
 91
        4
 64
     7
 65
   257
 75
     1
175
     1
 42
1.0
 92
       12
 66
     7
 43
1.0
 76
     1
 77
     6
 78
     2
 67
     7
 79
     5
170
     0
171
     0
290
     0
174
     0
 93
        1
 44
0.0
173
     0
291
     1
 45
0.0
1001
ACAD
1000
AcDbSavedByObjectVersion
1070
     0
  0
VISUALSTYLE
  5
30
102
{ACAD_XDICTIONARY
360
DA2
102
}
102
{ACAD_REACTORS
330
29
102
}
330
29
100
AcDbVisualStyle
  2
Wireframe
 70
     5
 71
     0
 72
     2
 73
     0
 90
        0
 40
-0.6
 41
-30.0
 62
     5
 63
     7
 74
     1
 91
        4
 64
     7
 65
   257
 75
     1
175
     1
 42
1.0
 92
        0
 66
   257
 43
1.0
 76
     1
 77
     6
 78
     2
 67
     7
 79
     3
170
     0
171
     0
290
     0
174
     0
 93
        1
 44
0.0
173
     0
291
     0
 45
0.0
1001
ACAD
1000
AcDbSavedByObjectVersion
1070
     0
  0
VISUALSTYLE
  5
3C
102
{ACAD_XDICTIONARY
360
DBA
102
}
102
{ACAD_REACTORS
330
29
102
}
330
29
100
AcDbVisualStyle
  2
X-Ray
 70
    25
 71
     2
 72
     2
 73
     1
 90
        1
 40
0.5
 41
-30.0
 62
     5
 63
     7
 74
     1
 91
        0
 64
     7
 65
   257
 75
     1
175
     1
 42
1.0
 92
        8
 66
     7
 43
1.0
 76
     1
 77
     6
 78
     2
 67
     7
 79
     3
170
     0
171
     0
290
     0
174
     0
 93
       13
 44
0.0
173
     0
291
     0
 45
0.0
1001
ACAD
1000
AcDbSavedByObjectVersion
1070
     0
  0
DICTIONARYVAR
  5
79
102
{ACAD_REACTORS
330
76
102
}
330
76
100
DictionaryVariables
280
     0
  1
1:1
  0
DICTIONARYVAR
  5
78
102
{ACAD_REACTORS
330
76
102
}
330
76
100
DictionaryVariables
280
     0
  1
STANDARD
  0
DICTIONARYVAR
  5
77
102
{ACAD_REACTORS
330
76
102
}
330
76
100
DictionaryVariables
280
     0
  1
STANDARD
  0
DICTIONARYVAR
  5
D89
102
{ACAD_REACTORS
330
76
102
}
330
76
100
DictionaryVariables
280
     0
  1
1
  0
DICTIONARYVAR
  5
D88
102
{ACAD_REACTORS
330
76
102
}
330
76
100
DictionaryVariables
280
     0
  1
1
  0
DICTIONARYVAR
  5
D87
102
{ACAD_REACTORS
330
76
102
}
330
76
100
DictionaryVariables
280
     0
  1
0
  0
DICTIONARYVAR
  5
D84
102
{ACAD_REACTORS
330
76
102
}
330
76
100
DictionaryVariables
280
     0
  1
0
  0
DICTIONARYVAR
  5
D85
102
{ACAD_REACTORS
330
76
102
}
330
76
100
DictionaryVariables
280
     0
  1
0
  0
DICTIONARYVAR
  5
D83
102
{ACAD_REACTORS
330
76
102
}
330
76
100
DictionaryVariables
280
     0
  1
2
  0
DICTIONARYVAR
  5
D82
102
{ACAD_REACTORS
330
76
102
}
330
76
100
DictionaryVariables
280
     0
  1
1
  0
DICTIONARYVAR
  5
D86
102
{ACAD_REACTORS
330
76
102
}
330
76
100
DictionaryVariables
280
     0
  1
127
  0
DICTIONARYVAR
  5
D8A
102
{ACAD_REACTORS
330
76
102
}
330
76
100
DictionaryVariables
280
     0
  1
2
  0
DICTIONARY
  5
DC8
330
6B
100
AcDbDictionary
280
     1
281
     1
  3
ACAD_XREC_ROUNDTRIP
360
DC9
  0
DICTIONARY
  5
DCC
330
73
100
AcDbDictionary
280
     1
281
     1
  3
ACAD_XREC_ROUNDTRIP
360
DCD
  0
DICTIONARY
  5
DCA
330
6F
100
AcDbDictionary
280
     1
281
     1
  3
ACAD_XREC_ROUNDTRIP
360
DCB
  0
DICTIONARY
  5
1A
330
19
100
AcDbDictionary
280
     1
281
     1
  3
ACAD_XREC_ROUNDTRIP
360
D94
  3
BUMPTILE
360
1C
  3
DIFFUSETILE
360
1B
  3
OPACITYTILE
360
1F
  3
REFLECTIONTILE
360
1E
  3
REFRACTIONTILE
360
20
  3
SPECULARTILE
360
1D
  0
DICTIONARY
  5
12
330
11
100
AcDbDictionary
280
     1
281
     1
  3
ACAD_XREC_ROUNDTRIP
360
D93
  3
BUMPTILE
360
14
  3
DIFFUSETILE
360
13
  3
FBXASSET
360
109
  3
OPACITYTILE
360
17
  3
REFLECTIONTILE
360
16
  3
REFRACTIONTILE
360
18
  3
SPECULARTILE
360
15
  0
DICTIONARY
  5
22
330
21
100
AcDbDictionary
280
     1
281
     1
  3
ACAD_XREC_ROUNDTRIP
360
D95
  3
BUMPTILE
360
24
  3
DIFFUSETILE
360
23
  3
FBXASSET
360
BA
  3
OPACITYTILE
360
27
  3
REFLECTIONTILE
360
26
  3
REFRACTIONTILE
360
28
  3
SPECULARTILE
360
25
  0
DICTIONARY
  5
D8D
330
67
100
AcDbDictionary
280
     1
281
     1
  3
ACAD_XREC_ROUNDTRIP
360
D8E
  0
DICTIONARY
  5
D8B
330
65
100
AcDbDictionary
280
     1
281
     1
  3
ACAD_ROUNDTRIP_2008_TABLESTYLE_CELLSTYLEMAP
360
D8C
  3
ACAD_XREC_ROUNDTRIP
360
DC6
  0
DICTIONARY
  5
DA0
330
2F
100
AcDbDictionary
280
     1
281
     1
  3
ACAD_XREC_ROUNDTRIP
360
DA1
  0
DICTIONARY
  5
D9E
330
2E
100
AcDbDictionary
280
     1
281
     1
  3
ACAD_XREC_ROUNDTRIP
360
D9F
  0
DICTIONARY
  5
DAC
330
35
100
AcDbDictionary
280
     1
281
     1
  3
ACAD_XREC_ROUNDTRIP
360
DAD
  0
DICTIONARY
  5
DB4
330
39
100
AcDbDictionary
280
     1
281
     1
  3
ACAD_XREC_ROUNDTRIP
360
DB5
  0
DICTIONARY
  5
DA6
330
32
100
AcDbDictionary
280
     1
281
     1
  3
ACAD_XREC_ROUNDTRIP
360
DA7
  0
DICTIONARY
  5
DAA
330
34
100
AcDbDictionary
280
     1
281
     1
  3
ACAD_XREC_ROUNDTRIP
360
DAB
  0
DICTIONARY
  5
DC4
330
41
100
AcDbDictionary
280
     1
281
     1
  3
ACAD_XREC_ROUNDTRIP
360
DC5
  0
DICTIONARY
  5
DB2
330
38
100
AcDbDictionary
280
     1
281
     1
  3
ACAD_XREC_ROUNDTRIP
360
DB3
  0
DICTIONARY
  5
D96
330
2A
100
AcDbDictionary
280
     1
281
     1
  3
ACAD_XREC_ROUNDTRIP
360
D97
  0
DICTIONARY
  5
D98
330
2B
100
AcDbDictionary
280
     1
281
     1
  3
ACAD_XREC_ROUNDTRIP
360
D99
  0
DICTIONARY
  5
D9A
330
2C
100
AcDbDictionary
280
     1
281
     1
  3
ACAD_XREC_ROUNDTRIP
360
D9B
  0
DICTIONARY
  5
D9C
330
2D
100
AcDbDictionary
280
     1
281
     1
  3
ACAD_XREC_ROUNDTRIP
360
D9D
  0
DICTIONARY
  5
DA4
330
31
100
AcDbDictionary
280
     1
281
     1
  3
ACAD_XREC_ROUNDTRIP
360
DA5
  0
DICTIONARY
  5
DC0
330
3F
100
AcDbDictionary
280
     1
281
     1
  3
ACAD_XREC_ROUNDTRIP
360
DC1
  0
DICTIONARY
  5
DB0
330
37
100
AcDbDictionary
280
     1
281
     1
  3
ACAD_XREC_ROUNDTRIP
360
DB1
  0
DICTIONARY
  5
DC2
330
40
100
AcDbDictionary
280
     1
281
     1
  3
ACAD_XREC_ROUNDTRIP
360
DC3
  0
DICTIONARY
  5
DA8
330
33
100
AcDbDictionary
280
     1
281
     1
  3
ACAD_XREC_ROUNDTRIP
360
DA9
  0
DICTIONARY
  5
DBE
330
3E
100
AcDbDictionary
280
     1
281
     1
  3
ACAD_XREC_ROUNDTRIP
360
DBF
  0
DICTIONARY
  5
DBC
330
3D
100
AcDbDictionary
280
     1
281
     1
  3
ACAD_XREC_ROUNDTRIP
360
DBD
  0
DICTIONARY
  5
DB6
330
3A
100
AcDbDictionary
280
     1
281
     1
  3
ACAD_XREC_ROUNDTRIP
360
DB7
  0
DICTIONARY
  5
DB8
330
3B
100
AcDbDictionary
280
     1
281
     1
  3
ACAD_XREC_ROUNDTRIP
360
DB9
  0
DICTIONARY
  5
DAE
330
36
100
AcDbDictionary
280
     1
281
     1
  3
ACAD_XREC_ROUNDTRIP
360
DAF
  0
DICTIONARY
  5
DA2
330
30
100
AcDbDictionary
280
     1
281
     1
  3
ACAD_XREC_ROUNDTRIP
360
DA3
  0
DICTIONARY
  5
DBA
330
3C
100
AcDbDictionary
280
     1
281
     1
  3
ACAD_XREC_ROUNDTRIP
360
DBB
  0
XRECORD
  5
DC9
102
{ACAD_REACTORS
330
DC8
102
}
330
DC8
100
AcDbXrecord
280
     1
102
SHADEPLOT
 70
     0
102
SHADEPLOTRESLEVEL
 70
     2
102
SHADEPLOTCUSTOMDPI
 70
   300
  0
XRECORD
  5
DCD
102
{ACAD_REACTORS
330
DCC
102
}
330
DCC
100
AcDbXrecord
280
     1
102
SHADEPLOT
 70
     0
102
SHADEPLOTRESLEVEL
 70
     2
102
SHADEPLOTCUSTOMDPI
 70
   300
  0
XRECORD
  5
DCB
102
{ACAD_REACTORS
330
DCA
102
}
330
DCA
100
AcDbXrecord
280
     1
102
SHADEPLOT
 70
     0
102
SHADEPLOTRESLEVEL
 70
     2
102
SHADEPLOTCUSTOMDPI
 70
   300
  0
XRECORD
  5
D94
102
{ACAD_REACTORS
330
1A
102
}
330
1A
100
AcDbXrecord
280
     1
102
MATERIAL
148
0.0
149
0.0
149
0.0
 93
        0
 94
      127
282
     0
 72
     0
 77
     0
171
     0
175
     0
179
     0
273
     0
  0
XRECORD
  5
1C
102
{ACAD_REACTORS
330
1A
102
}
330
1A
100
AcDbXrecord
280
     1
270
     1
271
     1
  0
XRECORD
  5
1B
102
{ACAD_REACTORS
330
1A
102
}
330
1A
100
AcDbXrecord
280
     1
270
     1
271
     1
  0
XRECORD
  5
1F
102
{ACAD_REACTORS
330
1A
102
}
330
1A
100
AcDbXrecord
280
     1
270
     1
271
     1
  0
XRECORD
  5
1E
102
{ACAD_REACTORS
330
1A
102
}
330
1A
100
AcDbXrecord
280
     1
270
     1
271
     1
  0
XRECORD
  5
20
102
{ACAD_REACTORS
330
1A
102
}
330
1A
100
AcDbXrecord
280
     1
270
     1
271
     1
  0
XRECORD
  5
1D
102
{ACAD_REACTORS
330
1A
102
}
330
1A
100
AcDbXrecord
280
     1
270
     1
271
     1
  0
XRECORD
  5
D93
102
{ACAD_REACTORS
330
12
102
}
330
12
100
AcDbXrecord
280
     1
102
MATERIAL
148
0.0
149
0.0
149
0.0
 93
        0
 94
      127
282
     0
 72
     0
 77
     0
171
     0
175
     0
179
     0
273
     0
  0
XRECORD
  5
14
102
{ACAD_REACTORS
330
12
102
}
330
12
100
AcDbXrecord
280
     1
270
     1
271
     1
  0
XRECORD
  5
13
102
{ACAD_REACTORS
330
12
102
}
330
12
100
AcDbXrecord
280
     1
270
     1
271
     1
  0
XRECORD
  5
109
102
{ACAD_REACTORS
330
12
102
}
330
12
100
AcDbXrecord
280
     1
 70
     1
 90
1959938040
 71
     1
  1
165906B4-73E2-4463-B2C6-1C190892F787
311
504B03040A00000800006E7531403DEE336E79000000790000001B0000006175746F6465736B2D64657369676E2D7061636B6167652E786D6C3C3F786D6C2076657273696F6E3D22312E302220656E636F64696E673D227574662D3822203F3E3C666F726D6174733E3C666F726D61743E687474703A2F2F736368656D612E
311
6175746F6465736B2E636F6D2F64657369676E2D7061636B6167652F323030393C2F666F726D61743E3C2F666F726D6174733E504B03041400060808006E753140D486FD9CA0000000F4000000130000005B436F6E74656E745F54797065735D2E786D6C7D8EC10E82300C865F65E91D8A1E8C310C0EEA1BF002731658846E
311
D98AC1B77784ABF1D8FE5FBFBF75BBCE937A534CCEB38643598122B6FEE978D0B0485F9C41B54DDD7D022595594E1A469170414C76A4D9A4D207E29CF43ECE46F218070CC6BECC4078ACAA135ACF422C856C0E68EA1BF5669944DDD7BCDE7B1F8E415D77AECB980613C2E4AC91FC167A2B244592486606FC29C8FD7F045B9A
311
EF7053A7E60B504B03041400060808006E7531407C899051EA0000007C01000008000000636F72652E786D6C8D90D18E832010457F85CC3B0AE8AA3548D346FB05FB0304A925AD600436FBF98BAD4D76DFF6692677EE99995C7EFC9E1FE84BAFDE38DB01CD08206D951B8D9D3A88E18A1B4047C157E7C22F1B202B67DDC126
311
83E0D3EAE2B24BCAD9A06D48AA75A3DE45E9BD0E80D423351D7875D3B3CC640CC9E1EFD922D55D4E3AA3EF2EC1319A11BD8E9831ED3357A35710C5810D15FDE8F17039F4B82403C3E79A14B8AECBCBF9444E4D7FA878BEC1820733BFEFAB55CBA047108C508609C5B4FEA4655B162D6B30A95A4278BED9FF407119FF094563
311
43C1F6775F980741D323CF81E0F996452ACFA052DD72133F504B03041400060808006E75314055019EA25F0000007C00000007000000636E782E786D6C4DCB3B0E80201045D1AD90E915ED2CF8AC45050C11660C8261F98AB1B07AC9C97D42D718D865D3E909258CFD00CCE24AC6E326A164D74DC0B4128928FF326038472B
311
A13128B1252AC747C6BAB984FC68F0B87FE8960A5C09FE86CFB69FBA01504B03041400060808006E75314088B6B43166010000020300000C0000006662782F636F72652E786D6C8D52ED8E8230107C95A6FF4BCBC7899A52A3519FE05EA042E588D092D2121FFF960FC37931C69094666667777680EFEE4D8D7A65BBCAE80C
311
8701C348E9DC14952E33ECDD95AC31DA096E8D717FCA30D2B251191E602C78698D6F672837DA29ED00D5A6503328BB4E398CF21A2E19EEF21FD5C8407A0715DD2D68657E93A50AC20068A813BC73160CA069C8706271BDDC399D70C1BDAF8A99AD0A98565D2B65B18837D169157E1DC9E9BC3992849D227248594CD234391F
311
F66CBF3E6E569C0E62C15DD53CDCE55649A70A2C2216468485244CBFC3649BC4DB684DD86ACB18A743F993C8B7C587225F691747B3DD49D66111829191F8B72D44E450277BF04305A74388F01A137E0E1A0281909DBCD48F3D6E00F52A77C626C014C62F542F6BAF602A43E3C3E9C442E7B1016CF6B24FF4A6CFFB1EF001A5
311
2EC19A7470BD78374CE7D3D4398A5659D2BB3BD2C636B25ECC4D16977319F4529E9BDAD84FD4745E95CE61D2E1EF15BF504B03041400060808006E75314019D6D1DC7F0000009D0000000B0000006662782F636E782E786D6C4DCCDF0E82201C86E15B61BF73128AFCB3012E0CEEC3253A264233685D7EDA3CE8E8DB9E7D7B
311
79FB593C7ADBF5E56210404F04900D8F38B83009C869C435A056F235C6F4770314FAC50AD819249FD6989F070D76ECB34F9B7A17E603EF5429DA94153E97B4C24C7737AC0CBB62D2186DD8A526547750485EFC4ADBEE61F905504B03041400060808006E753140CC4E9CE82B01000014020000310000006662782F44314242
311
313936372D323631372D344543412D424634352D3039464546343338303145432F636F72652E786D6C8D51CB6EC32010FC15C4293D6083E357224CD4A4C917F40708901425068B4795CF2FD48ED4DE7261D1ECCCEC6897EE1EE31D7C2BE7B53503240586401961A536D701C670413D043B469DB5E10F0D02C34735C00C4346
311
AFCEC6698184354199905063A55A40EEBD0A10887BFA0CD08B2F35F282C79018FE564C5CDCF85515A448EDC463D40797028079487E21FB20FB3DD9B41DAA5AD2A1FA787847FB53DD20BC391D4FF5BAC7E478A0E52C6434462D17B996298EBE68E55E35C96246831E9FF185533C2809598549853041A4FB24F5B65E6FAB1EE1
311
768B312D33FD9F284EF24551D426ACAB25EE2CF390115ACE0D46A58DE7FB338C7A4CD60590E7ADBC126F90E10257B869BAAEA7E54C4D0B489E6DBD78FA605D5AF0EA764E6CD2CCC66DCD68996F94CAEF0153CDF7643F504B03041400060808006E7531400B6BF7844D01000033030000300000006662782F44314242313936
311
372D323631372D344543412D424634352D3039464546343338303145432F636E782E786D6CD593CD6E022114855F85B09F1F74628D6130E9A24FD045B70857A53230E1A7A96FDF8BA275E3A2CB6EC8E4DCC339375F18BEFD9E2CF982108D7723656D4F0938E5B5718791E6B46FD6946C050FDEA7071B254E4E30D22253C10F
311
C1E7B94A1AF632DB84AA35EE54C500D1E7A020A25C6E12EB95B41800AEC928C2B403AD4193BB11BFF6107015147767928E40DE5E3F88DF7D824A91772545F0AE74085ECEDAF460A2445919E348A33AC2245B9993D7104FAD9649B6ACBD753DD9E93789940BB7CA1C0C29E5232D271575A31639F20E8782C714905E35A5F30C
311
54C879B646C98490BB8BF1EA113C1B975643F51A041FD0CD56CB61C0B0CB4CF06426A80E154026D0542C7AB6687AD6B09777366C86E566B16EFAD5A6EF7957EC82EFBCB7F512C640F03351DE2570890AC6BB327E86AFFA88360159FB70FE034804505BAF74EE19FF994F7779DF882BE05F207E00504B03041400060808006E
311
753140228082CA9B0500007B100000340000006662782F44314242313936372D323631372D344543412D424634352D3039464546343338303145432F6F626A656374732E786D6CAD575B8F9B3814FE2B887D064292B964C5504D924E1575A7AD1AB5DA879122070CE31D73916D6632FDF5FB190C81349966577D016CECE373
311
BEF39D8B8377BB8C5BCF544856E437B6EF8E6C8BE65111B33CBDB12B9538D7B6F52E0C4451A8DE32DBCA49466F6C3D6D87412A8AAA3453314D48C5D5C1ECDDFC6F4B4634A7B6157122E58D2DA3479A119754AA88A97C7263A2889B263BD7779B8543B1A920E5E381D092089A2B688AF91C52AC46297F381CD95E1878FA7F18
311
E8A7593539BDCAABED199ECF72A9481EFD74D88198893F5DBE1F5FCC9C8BE974E24C2FC7BE33BF9B2F1DFF6A325A5C2E16B3DBF7331C2C958024A389A0891D7E0036824581D7FC0A838AE56A32364B8C833C419F99F6941D8E2D3FF09A359D75C6C863EA47459ED3A8C60A68D4F619D1312D691EC3E78C4A68D64368341CFA
311
1AC7DEEF891E9B23FBD3E721D0DFD113D4EADEBEFB9A16DB7F60823C87414252CDC0064B6368C3D5D11EE16D5170F38F492B238A0A46B8C5D95610F16A8758AA9784C1408C66B2D0D1A02DB04378A1F93DA40BC2E8D73C3FA6655271AE696C8775146C102B54C95A33F6838ABDF67D64A0137CA5D9706D0C52AF25B5C35943
311
91EB033635405A0927295C0E33F5CEC9F8C0D0858ED3D5D20E3FDE6D776B1DBBC70F2F455152A1347D40ADD671ED5BA36474F2CFF29CDE601FA8B207E52B90FF8450DFAB02BF09B69BEEA6E61425482E934264F08D35B29C111E23CBAF9FFABBF71578DDE6A1F74EE109676BA87E039E431BFABEECC11906CF207C2126C6B4
311
754438D2C63DCB01902689C50B4C210F27DB9D1DAE90E59095B18BF0D087C950F7199F8167C42051D427F5DE39B03C488B672468C05633126A34E4370AEEFDF4533AAB0F36CB4EC17BF15BE87ABB5C7F5C57222111BD3731BDA409CB994289DBF3A6AFD000F381454FF4F5A510310CFD19EF751FEFCC1C2581B6C65C039FB6
311
395D0FF6270F0E88B02F2D74BA097E71028CD085B527FF9EC988724E725A54EDB96FD60F948D06621DEC9AC95D81D9171690A6F973108328D29160A506B1AB565DD2744F58F76DF5098CB4C3F9EB5FE4B59FBDB6FBDC1B15BC109BEDEBA6494B47A1FE3EE4B6C1C0D35240F73A48DAF837A06F6296249544123C82EBF7D5A2
311
EF3B9D1690225AA94DB44C613F828B0843DA562EAAB520A8A445BE61A89B88BBA307F4E50352C3805AE0298D25E5C986715E659B847154A34D46CA1370FC7FFDB755566E485654B93A217BA03AAAC350F7017BE50B51D1A31DAEEBB73347EE8D697C820CBA961CC16AE8DACB8BD9E8723E75AE26EFC7CE747A3971E6E3C5A5
311
E32FFCD9E87A36BEBBBABE6AFDD46812066DA9E94734BC84D216548219F77D5B217E4C12B0C37BA2E4C387263CDBF7B7958B5E38F0B007F5B2DB781B3FA3EFA3F1AF05EC571E15B4CA4A4E339A2BA263E85E7FF0AF047DC64099667E9591949E21E5F387F58131983963DF171DEFF4E560AF995DE8803C2A443D56D936278C
311
1F6C4C1B24DD324F0D7EAD4FBA775368DAA11E19C7A03395056731F2606CA5B4C8A842363CA308898C4A50AFDFD3C7E6EE71C6EEE7A6435464CB69ABC9234193CC25C202D4AA22359CB7FE4053A7FBAA1B1BE5D67DC2C3640ADB02676E6C34E98A4554BA5B1468DD0AD5C2C1A57E278FC69FE42947AFDD6CEAC6DD2E8DCDA0
311
24774BCEE99F8C5D4D0A3706208D94E81BD010C13BB5326150EB66FE47FFC9F0561D8B287C6E2BD5D9B29FE88CA98F4188364699DB029A982773F40E81FAB659BE5BAF192072D62DEB4D1234521D45445ADF14B47E46A5DBE5170F1D8AB5FA6C95BC4AE1CBF325398282CC950E70B008AC30324BA240D5C59F0F5F44819B6C
311
66DD3150E061516459919BC1ADB9095BEB47DC6BE307A405AA2F24F2613CF2C70FF545C0DC4D365B22A94B62F98409F854B00EE281E3C1C8E6B6880AD4FCE8D679DA0907DC5C2D2D53D2A6106A88D2CFAA1A16B41C39B5103DFA32A963A5BFA07CF32EE0D54BA18240171FFE0B504B03041400060800006E75314000000000
311
0000000000000000350000006662782F44314242313936372D323631372D344543412D424634352D3039464546343338303145432F76657274696365732E62696E504B03041400060808006E753140F270F1330600000004000000360000006662782F44314242313936372D323631372D344543412D424634352D30394645
311
46343338303145432F747269616E676C65732E62696E636660600000504B03041400060800006E753140000000000000000000000000370000006662782F44314242313936372D323631372D344543412D424634352D3039464546343338303145432F617474726962757465732E62696E504B03041400060808006E753140
311
D5987DFC8F00000041010000360000006662782F44314242313936372D323631372D344543412D424634352D3039464546343338303145432F6469726563746F72792E786D6C858F410EC2201045AF4266AF15DDB800BA74E7C21B903225242D6328188F2FA5C4183471359997F9FF81E89FF3C41E1816475E02DF1F80A11F
311
C8386F25A438EECEC07A250251FC3803E6F58C12560C4AD840E95E91C151A72936F496F35732D860FE635F62C8F2DA16B505C545B74125BAA2FA9E05D7CC053D063734D5C7665FD55B6B8D15D5E9BFEAFD8490FFA45E504B03041400060808006E753140A3E75AE9FE000000A00100003B0000006662782F44314242313936
311
372D323631372D344543412D424634352D3039464546343338303145432F7265736F75726365732F636F72652E786D6C8D504B6EC23010BD4A347B27B6939210394650E004BD80E50C60416CE44FD5E3D721A9D4EEBA9919BD8FE6E989DDD7F4283ED107E3EC00ACA450A0D56E34F63A408A17D241B193C23B177FC9A0B06A
311
C2016618A4B87A979E2BA49D8D686346AD1B7105550818A1D08F7C0C10F40D2755AA14B322DCCBA7D27775C5929599CE3A2942F43940B13C9927488FC125AF31886A61A548C98CABC68CF9A7B918F420EB2D3F6DD8DB3B399DB747D2D013278796D6A46D9BF3614FF7DD71BB11D56C96229AE927A3F6A8228E2039659C5046
311
58FBC19ABEA97BDE11BAE92915D52CFF634ACFF19FA6646CACF91A77B105902C0779115254735F79BDCACC7BEE567E03504B010214000A00000800006E7531403DEE336E79000000790000001B00000000000000000000000000000000006175746F6465736B2D64657369676E2D7061636B6167652E786D6C504B01021400
311
1400060808006E753140D486FD9CA0000000F40000001300000000000000000000000000B20000005B436F6E74656E745F54797065735D2E786D6C504B010214001400060808006E7531407C899051EA0000007C010000080000000000000000000000000083010000636F72652E786D6C504B010214001400060808006E75
311
314055019EA25F0000007C000000070000000000000000000000000093020000636E782E786D6C504B010214001400060808006E75314088B6B43166010000020300000C00000000000000000000000000170300006662782F636F72652E786D6C504B010214001400060808006E75314019D6D1DC7F0000009D0000000B00
311
000000000000000000000000A70400006662782F636E782E786D6C504B010214001400060808006E753140CC4E9CE82B0100001402000031000000000000000000000000004F0500006662782F44314242313936372D323631372D344543412D424634352D3039464546343338303145432F636F72652E786D6C504B010214
311
001400060808006E7531400B6BF7844D010000330300003000000000000000000000000000C90600006662782F44314242313936372D323631372D344543412D424634352D3039464546343338303145432F636E782E786D6C504B010214001400060808006E753140228082CA9B0500007B10000034000000000000000000
311
00000000640800006662782F44314242313936372D323631372D344543412D424634352D3039464546343338303145432F6F626A656374732E786D6C504B010214001400060800006E7531400000000000000000000000003500000000000000000000000000510E00006662782F44314242313936372D323631372D344543
311
412D424634352D3039464546343338303145432F76657274696365732E62696E504B010214001400060808006E753140F270F13306000000040000003600000000000000000000000000A40E00006662782F44314242313936372D323631372D344543412D424634352D3039464546343338303145432F747269616E676C65
311
732E62696E504B010214001400060800006E7531400000000000000000000000003700000000000000000000000000FE0E00006662782F44314242313936372D323631372D344543412D424634352D3039464546343338303145432F617474726962757465732E62696E504B010214001400060808006E753140D5987DFC8F
311
000000410100003600000000000000000000000000530F00006662782F44314242313936372D323631372D344543412D424634352D3039464546343338303145432F6469726563746F72792E786D6C504B010214001400060808006E753140A3E75AE9FE000000A00100003B00000000000000000000000000361000006662
311
782F44314242313936372D323631372D344543412D424634352D3039464546343338303145432F7265736F75726365732F636F72652E786D6C504B0506000000000E000E00800400008D1100000000
310
504B03040A00000800006E7531403DEE336E79000000790000001B0000006175746F6465736B2D64657369676E2D7061636B6167652E786D6C3C3F786D6C2076657273696F6E3D22312E302220656E636F64696E673D227574662D3822203F3E3C666F726D6174733E3C666F726D61743E687474703A2F2F736368656D612E
310
6175746F6465736B2E636F6D2F64657369676E2D7061636B6167652F323030393C2F666F726D61743E3C2F666F726D6174733E504B03041400060808006E753140D486FD9CA0000000F4000000130000005B436F6E74656E745F54797065735D2E786D6C7D8EC10E82300C865F65E91D8A1E8C310C0EEA1BF002731658846E
310
D98AC1B77784ABF1D8FE5FBFBF75BBCE937A534CCEB38643598122B6FEE978D0B0485F9C41B54DDD7D022595594E1A469170414C76A4D9A4D207E29CF43ECE46F218070CC6BECC4078ACAA135ACF422C856C0E68EA1BF5669944DDD7BCDE7B1F8E415D77AECB980613C2E4AC91FC167A2B244592486606FC29C8FD7F045B9A
310
EF7053A7E60B504B03041400060808006E753140B97638EAEA0000007C01000008000000636F72652E786D6C8D904D6EC3201085AF82668F0DF827968589125B3D412F80802428315806AA1EBF3871A476D7D58CDEBC6F66F4F8F17B7EA02FB306EBDD00B420808C535E5B771D20C50BEE001D055FBD8FBF6C809C9CCD009B
310
0C825F579F965D52DE45E362569DD7661765082602528FDC0C10D4CDCCB290296647B8178B54777935057D77194EC96AF43A6275DE672FD6AC201AC63EDA693CE1A61D1B5C8F1DC31DA3673C55E7914D0D6BAA53CBCB0D163CDAF97D5FAD4646A3413042192614D3C327ADFBBAEAD90193B62784979BFD0F9416FD4F285917
310
2BB6BFFBC202089A1F790E042FB72C72790695EB969BF801504B03041400060808006E75314055019EA25F0000007C00000007000000636E782E786D6C4DCB3B0E80201045D1AD90E915ED2CF8AC45050C11660C8261F98AB1B07AC9C97D42D718D865D3E909258CFD00CCE24AC6E326A164D74DC0B4128928FF326038472B
310
A13128B1252AC747C6BAB984FC68F0B87FE8960A5C09FE86CFB69FBA01504B03041400060808006E75314070C196C866010000020300000C0000006662782F636F72652E786D6C8D52ED8E8230107C95A6FF4BA17C684CA951CC3DC1BD4085CA11A125A5253EFE2D1FC6F3628C2129CDCCCEEEEC00DFDFBA168DCA0E8DD139
310
8E821023A54B5335BACEB17717B2C5682FB835C6FD29C348CB4EE57882B1E0B535BE5FA1D268A7B403549B4AADA01C06E5302A5BB8E478287F542703E91D540CD7A097E555D62A8802A0A14EF0C15930809621D389C5E57CE374C105F7BEA956B6A9605A736994C52265EC2B3B15079266454A9262CBC8964547728A8F053B
310
A52C8D0F19A7935870D7747777A555D2A90A0B16468C84118936DF51B24BE21DDB9030DB8521A753F993C8F7D58722DF6817B3D5EE221BB088C0C84CFCDB162272689023F8A182D3294478CD093F070D8140C84E9EDBFB1E578046553A6313602AE31FD4285BAF606A88E687D38585CE7303D8EC651FF6A6CFFB1EF001A5AE
310
C19A74703D7B374DE7CBD4358A5E5932BA1BD2C676B27D985B2C3ECEC7A097F2D2B4C67EA2A6EBAA740D934E7FAFF805504B03041400060808006E75314021071C1F7E0000009D0000000B0000006662782F636E782E786D6C4DCCD10A83201886E15B91FFDC9AB5B17FA0866D791FB12C24D3E13476F9ABD1C18E3E78F878
310
79F3591C594D7CDBE005B0E204C4F86718AC9F04E4345204D2481E43487F3720BE5F8C809D41F22986FC3A6830639F5DDAD4593F1FC85077A834D26B8B153D6BFDA0C8DA1B55FAAEEABAC2EEA218949297BFD2B67B587E01504B03041400060808006E753140EA3C20902D01000014020000310000006662782F3138464538
310
4146382D374238322D344646442D383142392D4146434133333238453541312F636F72652E786D6C8D51CB6EC23010FC95C8277A70623B2904E41885967C417F2038062C881DF951F1F95D37416A6F5CBCD6ECCCEC6897EF1FE33DFB56CE6B6B1A4473823265A41DB4B934288633AE51B617DC591BFED05066FA513528C148
310
F08BB3715A20694D5026006AECA016B0F75E0594C93B7C1AE4E5558D7DDEC7000C7FCBA75EDEFA8BCA690E6DE009EE838300D93C24BD48D0BA3BD66D57E3CDA166B8EABA4F5CD3C316B7DD475B96AC3EBEB79417B350F018F5B0C8F50071F4592BF7AA49120B1EF4F88C2F9DEA831A906084324C28A69B2F5AEDAA72C73698
310
AC7784F022D1FF89E234BC288ADA84922D71679987ACBC981B820F369EEECF30EA315917B2346FE5957C4382E4845152B26DC98B990A0B00CF75B578FA601D2C78753B01BB843525E3752578916E04E5F78050D33DC50F504B03041400060808006E753140A10517265401000033030000300000006662782F313846453841
310
46382D374238322D344646442D383142392D4146434133333238453541312F636E782E786D6CBD93CD6EC32010845F0571F76F2C278A30917AE813F4D02B864D4283C1025C356FDF2521692E3954AA7A41D6EC30B3FA84D9EE6B32E4137CD0CE0EB4296B4AC04AA7B43D0C7489FB6243C98E33EF5C7CB05162C504034D32E5
310
ECE0DD326749C15E2C26A26AB43D65D143708B9710504E37897152180C005B2C28C2348252A0C8DD885F7BF0B80A8AE399C42390D79777E2C60F9031B02AA57056A50ECED2999B1E4C944823421868904798442996E8148453A944146553DEBA9EECF49344D2855BE5E23549E5034D27E579A31239B20A879C85E8915E36C5
310
F30C948B79365A8A8890AB8BF1EAE16CD136F65DF66A04EFD1BD6AFBCD06C32E33CEA29E203BA407114151DED64D5BD44DD1ACDF9A6EDBADB6EDBAA8FB6D5DB32AD9391B9D33F912C680773391CE46B091F2865569FC0C5FF611A53DB276FEFC0B900820B75EE9DC33FE924FD3AFBAEE1FF95497F78DB83CFE05FC1B504B03
310
041400060808006E753140FEEA67525A070000941B0000340000006662782F31384645384146382D374238322D344646442D383142392D4146434133333238453541312F6F626A656374732E786D6CED595B739B3814FE2B0CFB6C6C6CE7B643E8244E93F174D376EA6D671F32C3C820136D84602491C4FBEBF7E802066212
310
BCCDBEF5C106847474CE77AE3A041F9E33EA3C622E48CECE5DDF9BB80E66719E10969EBBA5DC8C4E5DE74318F03C978D69AEC35086CF5D35EC8641CAF3B2B04309DEA092CACEE8F5E55F8E8831C3AE135324C4B92BE27B9C210F95324FB078F0122491976E9E3DDF3313DB64538E8AFB0ED10271CC24700AE30CA8388629BF
310
FD3871C7613056EFC340FDDB59B341B3E6FDB3C65AEA369784098958FC82A50E99D9209666FEFCEAE3F4E86C74349FCF46F3E3A93FBABCBEBC1AF927B3C9E278B138BBF87806ECADF39C5A99125C609680FEB66EE80763F5A616DD22B08FEB38670CC71A48804A8BD52548B080AD1AF04DDA8FBE92A8F15A4BD8789EABF796
310
85C6F0AC4DA56FD630205A744110BB5D2571756DCA97AFFF06C1C510A3E4024BE056480EDAB5F070F00A379C0463331A06EB9D2E887032243127883A94AC39E2A01498AAA684815960C928E7E040CA511268CD99D76DDB02CF7CDB75F671B92929559EE186DAB122703F2C85E68CFC83F98EFB2632C013485B12264F2D9772
310
5B60373C0BC67A300CD46536B52F0D90CE86A2546844CCDB8EA00BE5FACB2B37FC74BD7E5EA970B07FF382E705E652199DD2A3E60B0CD95E154A765B7F90E6D40210C6806A57EE40F906C87F86E8B16305F4C6C9F3FC796EE74A8E98D8E43C03DD3813673481BF89E3EB7F75DFB80BC6F5E2B6F6FAF0043755509DFE3C9E6D
310
19345696FF069C61F008069FF3997DB58A11057BBE250C005246E2D01C8620B46FD6CF6EB884C009811E56211AFA2032B0FB08B7C1D892D969A5722FEB750C10B57BCC86280960D316096CF4E8E906B20727F14E4D4D11FBE03D7A1773BDB85A7D5A957C83627C6B7DFA0A6F082312B2E67E865A98B7247AC0DBA79C2720E8
310
4BBC574DBC33BB9500B415E60AF8B402413DEC766E6D10C3BA3457E1267863071042E5EA06FD5B22624C2962382FAB7DEBE8A60CB5F6785B33B8E1D4403C9B764C98E347A2AA0A709ADD8C16A390F7634E0A05A21BDE18C9EAA0E9F548F77DF9192CB29EDF336BC920F43244FFD4416B0F0E2DCBAE90B640D402AF77E13CCE
310
69CEA3F5363291CE855A02D8687BCB8F165188F546498A0A7890F6BB2AA4A446DA28219B4D2920AEEE61F1C772D134878937F38F9CE67FC719E7106DC17711B77ED7D92322194A71B44149DF76CDDD6ADA4293EC21CDF186825CE491C86D84643449707A083407113F7B57EA29CD85200C0BC8577BC16FA231F12090186D56
310
2C2BAD76802622CAB044F4100414991E7075DAD1356E0CA5C3DB3CD6D6FB9AC69A44FF278BE0086AC99C45044A51C8216F32EE7B471043DAE81A943BF882B555B4B518B4841222DE464F98A4F7F210D40DF91EDC6338929432CA0B1483590F20FBC25794523BBCAF51FCA0F2471497F4BD0C4460BA8908A56516C18F303879
310
0C71ED3A30BD8A4283B8897D126750942159F2219B1C1F4D5EEC636A866E086C6CB42114C27694A1A207F55640D4F58853836FA9F728755D664584B2BC64830CC59B75BDC992EFAA55911DC8AF2A15A16CAC085B82614098ACB36A15B3C1D475600537D2816A1B099415D49CC2DE483C7EED4D9A72EF06DCFAE9FB6E9041E1
310
D7A3BD66449D5730581E5B8581784232BE77C395BE8E2EA1FE4E70B24BF555ADD9AC00013115C94B4EAC8ABE2FA1BCB1359A1BDE2229EE6E4CD6ADAEDF971E743F8231AC81DAA55EB85440679849A42A935B7543BF2108C12D1A667CA972EA21542E9244578D885E933E75B6CA88D6A619F18A7BCCF20C7EEC8EB0989609BE
310
438978886E258D5644B16EA5F4325261FCAA805F6E561D78606480485F5581879F3A6BEDE842954B7B89C8FB325B33442008B6444B8D6EBC82A556239596EBAB3A5340DD050666553CFF75B268B6237E9D2C526B183F75B2B8DCFE81B6CDBE48239DC7CAAE0F3A06D4F94951798F63806E3BD454EB2C6292B995DF3A530441
310
B18AF283ABB12A6818827D1CFFE7ACDD9705CD761DFE0FCBDAFE8B8AE3A0ACD29AACBA547B2AD7653387F9C7476793E3CBF9E864F6713A9ACF8F67A3CBE9E278E42FFCB3C9E9D9F4FAE4F4A446533B6A18D4C14CE72E783641AD1A564F1603E8CA8A9C92044EF389936288F912CEF403DAE73CC3029267B3D99DD8A6FC80D5
310
8FA6CF29D19AE28A937B040D622A20AD0346652CDBE3CE6FD09A9470D03E77A169E43DC09FB54AD781CC73EE42AB4092180B6F0D6D26D5D0D3C421E5EADC6F89013E88A52A259A45F573BD4A61D30AFFF5942169C0CAD5EA6140E15640F7ABD5A1D0BC599EE28304AFD8719084DB7529A15A33B2EC066A61F4363BF51BD928
310
610F76EB6770DDD7C5F23D3DA785C8A04F06AF1A81A13A9288A7BADFAD18B32C5D5C7D1D439FCD597E710A5AA6A0CBE194461C833197AAA0022B02ABB0340B24C15417BFDF7DE5397CE2C91C5D15DD2DF22CCB997DB880F358029F889CD53D7CF049EEA06CC0AAAD2EEEA6137F7AA7DBD9B6C31EAD91C09EAA8760A02A2394
310
081D63038B7CD19AB28DCBB1524267FAF2CAB1E113DA00C6825E7477CDE72D07BC477D4851BEA23DBC92F3D58EF6584F056BE0D08B0EFF05504B03041400060800006E753140000000000000000000000000350000006662782F31384645384146382D374238322D344646442D383142392D4146434133333238453541312F
310
76657274696365732E62696E504B03041400060808006E753140F270F1330600000004000000360000006662782F31384645384146382D374238322D344646442D383142392D4146434133333238453541312F747269616E676C65732E62696E636660600000504B03041400060800006E7531400000000000000000000000
310
00370000006662782F31384645384146382D374238322D344646442D383142392D4146434133333238453541312F617474726962757465732E62696E504B03041400060808006E753140D5987DFC8F00000041010000360000006662782F31384645384146382D374238322D344646442D383142392D414643413333323845
310
3541312F6469726563746F72792E786D6C858F410EC2201045AF4266AF15DDB800BA74E7C21B903225242D6328188F2FA5C4183471359997F9FF81E89FF3C41E1816475E02DF1F80A11FC8386F25A438EECEC07A250251FC3803E6F58C12560C4AD840E95E91C151A72936F496F35732D860FE635F62C8F2DA16B505C545B7
310
4125BAA2FA9E05D7CC053D063734D5C7665FD55B6B8D15D5E9BFEAFD8490FFA45E504B03041400060808006E75314004BF5B2BFC000000A00100003B0000006662782F31384645384146382D374238322D344646442D383142392D4146434133333238453541312F7265736F75726365732F636F72652E786D6C8D50596E83
310
3010BD0A9A7F03364B52641C35A09EA017B0CC845A0936F252F5F835814AED5F7F66466FD13C3D7EF95A1ED9273AAFADE981E6256468949DB4997B88E146CE905D0477D6865F32C88C5CB0870D06C16767E37A40CA9A802624D4D8090F507A8F0132F548470F5E7DE02273194352F87BBE4A759733E6344F74D209EE834B01
310
B2FDC9364138F4363A859E173B2B788C7A3A347A4A3FF54DA303D130F6D68EC30B69DAA121F57066E4CCE8958CD5756063C39AEAB5E5C566163CE8E527A37228034E205849192929A1A7775A7775D5B11329DBAE2C79B1C9FF98E23AFDD314B509153BE2EE360F82A6204F42F062EB2BAD6799696FDD8A6F504B010214000A
310
00000800006E7531403DEE336E79000000790000001B00000000000000000000000000000000006175746F6465736B2D64657369676E2D7061636B6167652E786D6C504B010214001400060808006E753140D486FD9CA0000000F40000001300000000000000000000000000B20000005B436F6E74656E745F54797065735D
310
2E786D6C504B010214001400060808006E753140B97638EAEA0000007C010000080000000000000000000000000083010000636F72652E786D6C504B010214001400060808006E75314055019EA25F0000007C000000070000000000000000000000000093020000636E782E786D6C504B010214001400060808006E753140
310
70C196C866010000020300000C00000000000000000000000000170300006662782F636F72652E786D6C504B010214001400060808006E75314021071C1F7E0000009D0000000B00000000000000000000000000A70400006662782F636E782E786D6C504B010214001400060808006E753140EA3C20902D01000014020000
310
31000000000000000000000000004E0500006662782F31384645384146382D374238322D344646442D383142392D4146434133333238453541312F636F72652E786D6C504B010214001400060808006E753140A105172654010000330300003000000000000000000000000000CA0600006662782F31384645384146382D37
310
4238322D344646442D383142392D4146434133333238453541312F636E782E786D6C504B010214001400060808006E753140FEEA67525A070000941B000034000000000000000000000000006C0800006662782F31384645384146382D374238322D344646442D383142392D4146434133333238453541312F6F626A656374
310
732E786D6C504B010214001400060800006E7531400000000000000000000000003500000000000000000000000000181000006662782F31384645384146382D374238322D344646442D383142392D4146434133333238453541312F76657274696365732E62696E504B010214001400060808006E753140F270F133060000
310
000400000036000000000000000000000000006B1000006662782F31384645384146382D374238322D344646442D383142392D4146434133333238453541312F747269616E676C65732E62696E504B010214001400060800006E7531400000000000000000000000003700000000000000000000000000C51000006662782F
310
31384645384146382D374238322D344646442D383142392D4146434133333238453541312F617474726962757465732E62696E504B010214001400060808006E753140D5987DFC8F0000004101000036000000000000000000000000001A1100006662782F31384645384146382D374238322D344646442D383142392D4146
310
434133333238453541312F6469726563746F72792E786D6C504B010214001400060808006E75314004BF5B2BFC000000A00100003B00000000000000000000000000FD1100006662782F31384645384146382D374238322D344646442D383142392D4146434133333238453541312F7265736F75726365732F636F72652E78
310
6D6C504B0506000000000E000E0080040000521300000000
  0
XRECORD
  5
17
102
{ACAD_REACTORS
330
12
102
}
330
12
100
AcDbXrecord
280
     1
270
     1
271
     1
  0
XRECORD
  5
16
102
{ACAD_REACTORS
330
12
102
}
330
12
100
AcDbXrecord
280
     1
270
     1
271
     1
  0
XRECORD
  5
18
102
{ACAD_REACTORS
330
12
102
}
330
12
100
AcDbXrecord
280
     1
270
     1
271
     1
  0
XRECORD
  5
15
102
{ACAD_REACTORS
330
12
102
}
330
12
100
AcDbXrecord
280
     1
270
     1
271
     1
  0
XRECORD
  5
D95
102
{ACAD_REACTORS
330
22
102
}
330
22
100
AcDbXrecord
280
     1
102
MATERIAL
148
0.0
149
0.0
149
0.0
 93
        0
 94
      127
282
     0
 72
     0
 77
     0
171
     0
175
     0
179
     0
273
     0
  0
XRECORD
  5
24
102
{ACAD_REACTORS
330
22
102
}
330
22
100
AcDbXrecord
280
     1
270
     1
271
     1
  0
XRECORD
  5
23
102
{ACAD_REACTORS
330
22
102
}
330
22
100
AcDbXrecord
280
     1
270
     1
271
     1
  0
XRECORD
  5
BA
102
{ACAD_REACTORS
330
22
102
}
330
22
100
AcDbXrecord
280
     1
 70
     1
 90
1959938040
 71
     1
  1
CF054862-1E69-433C-AEBF-1E7CE3679841
311
504B03040A00000800006D7531403DEE336E79000000790000001B0000006175746F6465736B2D64657369676E2D7061636B6167652E786D6C3C3F786D6C2076657273696F6E3D22312E302220656E636F64696E673D227574662D3822203F3E3C666F726D6174733E3C666F726D61743E687474703A2F2F736368656D612E
311
6175746F6465736B2E636F6D2F64657369676E2D7061636B6167652F323030393C2F666F726D61743E3C2F666F726D6174733E504B03041400060808006D753140D486FD9CA0000000F4000000130000005B436F6E74656E745F54797065735D2E786D6C7D8EC10E82300C865F65E91D8A1E8C310C0EEA1BF002731658846E
311
D98AC1B77784ABF1D8FE5FBFBF75BBCE937A534CCEB38643598122B6FEE978D0B0485F9C41B54DDD7D022595594E1A469170414C76A4D9A4D207E29CF43ECE46F218070CC6BECC4078ACAA135ACF422C856C0E68EA1BF5669944DDD7BCDE7B1F8E415D77AECB980613C2E4AC91FC167A2B244592486606FC29C8FD7F045B9A
311
EF7053A7E60B504B03041400060808006D7531407D5B9910E90000007C01000008000000636F72652E786D6C8D90416EC3201045AF62CD1E1B30B15B0B1359A537E8051010172506CB40D5E317278ED4EEBA9AD19FFF66469F9FBF975BF565B7E8821F81D4182AEB7530CECF23E474412F509D05DF4248BF6C5079B5D81176
311
19049FB790D743D2C127EB53517D30F610558C3641A56FA51921EA4FBBA85AE5541CF15AAF4A5FD56C6BF2EC0A9CB333D5E38833659FBB38BB81786B7BCCDE278218A6AF8849DAA1696A2992ED49B28EC89394136F7658F0E496E77DBD5995AC014131A1081344FA0FC206D60EB447B81B30E6CD6EFF03E5D5FC13CACEA796
311
1EEF3EB008829447EE03C19B3D8B52EE4195BAE7267E00504B03041400060808006D75314055019EA25F0000007C00000007000000636E782E786D6C4DCB3B0E80201045D1AD90E915ED2CF8AC45050C11660C8261F98AB1B07AC9C97D42D718D865D3E909258CFD00CCE24AC6E326A164D74DC0B4128928FF326038472BA1
311
3128B1252AC747C6BAB984FC68F0B87FE8960A5C09FE86CFB69FBA01504B03041400060808006D753140A24811D865010000020300000C0000006662782F636F72652E786D6C8D52ED8E8320107C15C27F04D4B6770DD298F3DEE05E802AF54C150C82E9E3DFFAD178BD34CDC504C9CCCEEEECA838DDBA168DDA0D8D3519E6
311
11C3489BD2568DA9331CFC85BC617492C259EB7F95616454A7333CC1588ADAD9D0AF50698DD7C6036A6CA557500D83F618952D5C323C94DFBA53910A1E2A866BD4ABF2AA6A1DF10868A89362F00E0CA065C874627939DF045D70294268AA956D2A98D65C1AEDB0FC480E2CFDCC394959FC4ED222DE933C4F625224BB22DDF3
311
625714B9A093580ADF747777A5D3CAEB0ACB98F198304EF8E18BA7C73439C607C2F647C6049DCA1F44A1AFFE290A8DF149BCDA5D6403961C8CCCC49F6D21228F0635821F2A059D4284D79CF063D0100884ECD5B9BDEF710568D4A5B72E05A6B261A346D5060D53199A1F4117163ACF0D60B3A77DE2177D5EF7800FA84C0DD6
311
9487EB39F869BA58A6AE51F4DA91D1DF90B1AE53ED666EB1B89DDBA0A7F2D2B6D6FD474DD755E91A269DFE5EF903504B03041400060808006D753140F8207C0F7E0000009D0000000B0000006662782F636E782E786D6C4DCCDF0A83201C86E15B91DFB9CBCD3F335063D1BC8F581691E9703A76F9ABD1C18E3E78F87855F3
311
593D7ABBF49A63D0703E11402E3CE230874943C92396801AA3528CF9EF0628F4ABD3B0331835A5589E070D6EEC8BCF9BFA392C07724B88ECACC0B4AD296657C1B014A2C62D979CDD2E1DB95B0A9551D5AFB4ED1E365F504B03041400060808006D753140790351DD2B01000014020000310000006662782F35463030384446
311
362D334239332D343736342D383636392D4235383534413244304546332F636F72652E786D6C8D51CB6EC32010FC15C4293D60838D891D61A24669BEA03FE06092A2C460F1A8F2F985DA91DA5B2E2C9A9D991DEDF2FD63BA836FE5BCB6A687A4C0102823EDA8CDB587315C500BC15E70676DF84383C00C93EA6186A1E05767
311
E3BC42D29AA04C48A8B1A35AC1C17B152090F7F4E9A1975F6A1A8A2186C4F0B7621EE46DB8AA8214A99D7882FBE05200B00CC92F14CD09E3F67862A83E7435A25B4651CB58870E4DDBD0F7EA883F4E352F17A1E031EA7195EB31C5D117ADDCAB26592C78D0D333BE746A086A84A2C2A4429820B2FD247447EB5DB54598ED30
311
E665A6FF13C5797C5114B50975B5C65D641E0AC2CBA521F868E3F9FE0CA31EB37501E4791BAFE41B14B8C015AE58473A5E2ED4B480E4C9E8EAE9837569C19BDB39B149B318332A78996F94CAEF0153CDF7143F504B03041400060808006D753140C7A2D8314D01000033030000300000006662782F35463030384446362D33
311
4239332D343736342D383636392D4235383534413244304546332F636E782E786D6CD593CD6E022114855F85B09F1F74A28D6130E9A24FD045B70857A53230E1A7A96FDF8BA275E3A2CB6EC8E4DCC339375F18BEFD9E2CF982108D7723656D4F0938E5B5718791E6B46F5E28D90A1EBC4F0F364A9C9C60A445A6821F82CF73
311
9534EC65B609556BDCA98A01A2CF414144B9DC24D62B6931005C93518469075A832677237EED21E02A28EECE241D81BCBD7E10BFFB049522EF4A8AE05DE910BC9CB5E9C14489B232C69146758449B63227AF219E5A2D936C597BEB7AB2D36F1229176E95391852CA475A4E2AEA462D72E41D0E058F2920BD6A4AE719A890F3
311
6C8D9209217717E3D52378362EAD86EA35083EA09BAD96C380619799E0C94C501D2A804CA0A958F46CD1F4AC61EB77366C86E566B16EFAD5A6EF7957EC82EFBCB7F512C640F03351DE2570890AC6BB327E86AFFA88360159FB70FE034804505BAF74EE19FF994F7779DF882BE05F207E00504B03041400060808006D753140
311
5ABB2C5B990500007A100000340000006662782F35463030384446362D334239332D343736342D383636392D4235383534413244304546332F6F626A656374732E786D6CAD57DB6EDB3810FD1541FBEC8B6C274D168A8AC44E0AA3485BD468B10F010C4AA2146E285120A9D4D9AFDF4389BA3976E25DF4451229723873E6CC
311
85FEC75DC69D672A1513F995EB8DA7AE43F348C42C4FAFDC5227A30BD7F918F85208DD5BE63A39C9E8956BA6DDC04FA5280B3B15D384945CEFCDDEDDFCE5A888E6D475224E94BA7255F448333226A51631554FE39868324E93DDD81BD70B876253498AC73DA1059134D7D014F339A438B552DE70387527813F31FF03DF3CED
311
AAF9F15593CA9EE1F92C579AE4D1ABC3F6C4CCBDC5EA767676393A5B2CE6A3C5F9CC1BDDDCDDAC46DE87F97479BE5C5E5EDF5EE260A52524594D244DDCE013B0912CF227F5AFC02F59AEE733BBC43A6822E933339E728399E3F9937A4D6B9D35F290FA91C8731A5558018DCA3E2B3AA605CD63F89C5105CD7A084D8743CFE0
311
D8FB3D37637B647FFA3404FA3B7A821ADD9B775F5311FE0D13D4290C928A1A06D6585A436BAE4E3B844321B8FDC79493114D2523DCE12C9444BEB801969A25813F1063982C4D34180BDC005EA87F0FE982307A9FE787B44C4ACE0D8DDDA08A822D62856A5569C6FEA1B2D3BE8F0C7482AF0C1B2EAC41FAA5A06E705953E462
311
8F4D35904EC2490A97C34CB3733EDB337469E274BD7283CF77E16E6362F7F0E185140595DAD007D46A1CD7BC0D4A5627EF24CF990DEE9E2A1D28DF81FC17847AA70AFC26D96EB15BD853B424B94A84CCE01B67EA8CA6784C1DAF7A9AEFDE973F69370FBD770C4F38DB40F51BF01CDAD0F7650FCEC07F06E1859C5BD33611E1
311
481BF72C074086240E1798421E4EC29D1BAC91E59095B18BF0C083C950F7199FFEC48A41A2A84EEABD7360B997164F48D080AD6224D4A8C96F15ECFCF42A9D5507DB65C7E03DFB2D74BD5E6D3E6F4A999088DEDB985ED184E54CA3C475BCE92B34C07C60D1137DF925640C435FE3BDE9E39DD9A314D036981BE0D326A79B41
311
77F2E08008FB5261D28DFFCE0930C214D69EFC7BA622CA39C9A9289B73DFAC1F281B35C426D80D93DB02D3151690A6FEB3178328D291648501B1AD566DD21C1FB1EEC7FA0B1889F55C8484778BC22EF546820BB90D5FB675563A88F4CF21B52D041323056CAF62A4097F8BF9366649522AE4C003B0FE5C2FFBAE33590119A2
311
915A07CB02E623B688B49C6DE4A2584B82422AF22D43D944D81D3CA02F1F885A0254028F69AC284FB68CF332DB268CA3186D33521C81E3FFEB1F9659B1259928737D44F640751487A1EE03F2AA5F44478F6EB0A9DEA31BA4DE98C69D9B078B4D293980D5C0B5CBBBE9D9E2E27C36F26ECF2F478BF97C39BABEBDB9C3F0C3F2
311
767EFEE1F262D1A159F55081DF549A7E40C34BA86C7E299975DF8F35C2C7E60037B8275A3D7CAAA3B379FF588FD10AFB13EC41B96C375EC7CF68FB68FCBE806EE54141EBACE034A3B9262684EECD07FF4ED0660C94A9E7D71949E90952BE7EDAEC19839913F67D33E14E7FEDEDB5B34B13900785E8C7320B73C2F8DEC6B446
311
725CE4A9C5AFF149FBAEEB4C333423EB1834A64A7016230DC64E4A45463592E10935486654817AFD963EB6578F13763FD70DA22621A78D268F043D3257080BF0B68CF470DEF9033D9D69ABAE5C54DBF1131E3653B80E3873E5A247D72CA26A1CA23E9B4EA8120E2EF51B797096E42947AB5D6F6AC7ED2E83CDA022B74B4E69
311
9FAC5D7506B706208D14681BD00FC13B9532815FE966FF47FFC9F0461D87687C86A56E6DE9265A63AA6310A2B551F6B2801EE6C91EBD43A0BE6D9637AED60C1039E992F526096AA9234D645A5D148C7E56A5EBD5B7091A1467FDD5297899C297A74B1A490A329726C0C122B0C2CA2C880655977F3E7C930217D9CCB963A0C0
311
C3526499C8EDE0DA5E849DCD23AEB5F103D20235F711F5309B7AB387EA1E60AF26DB90283A26B17AC2047C2A590BF1C0F160647D5944CEAC7FB4EB26C6097BDC5CAF1C5BD216106A89D2CFAA0616741C3975103DE62E6962A5BFA078F32A30A996420589263EF817504B03041400060800006D753140000000000000000000
311
000000350000006662782F35463030384446362D334239332D343736342D383636392D4235383534413244304546332F76657274696365732E62696E504B03041400060808006D753140F270F1330600000004000000360000006662782F35463030384446362D334239332D343736342D383636392D423538353441324430
311
4546332F747269616E676C65732E62696E636660600000504B03041400060800006D753140000000000000000000000000370000006662782F35463030384446362D334239332D343736342D383636392D4235383534413244304546332F617474726962757465732E62696E504B03041400060808006D753140D5987DFC8F
311
00000041010000360000006662782F35463030384446362D334239332D343736342D383636392D4235383534413244304546332F6469726563746F72792E786D6C858F410EC2201045AF4266AF15DDB800BA74E7C21B903225242D6328188F2FA5C4183471359997F9FF81E89FF3C41E1816475E02DF1F80A11FC8386F25A4
311
38EECEC07A250251FC3803E6F58C12560C4AD840E95E91C151A72936F496F35732D860FE635F62C8F2DA16B505C545B74125BAA2FA9E05D7CC053D063734D5C7665FD55B6B8D15D5E9BFEAFD8490FFA45E504B03041400060808006D7531406EF0B788FB000000A00100003B0000006662782F35463030384446362D334239
311
332D343736342D383636392D4235383534413244304546332F7265736F75726365732F636F72652E786D6C8D504B6E833010BD0A9ABDC136045A641CA1D21BF40296992456828DFCA97AFC9A40A576D7CDCCE87D344F4F9CBF9647F1893E18670760258502AD76B3B1D70152BC901728CE5278E7E22F1914562D38C0068314
311
57EFD27A40DAD9883666D4BA190F508580110AFDC8C70041DF7051A54A312BC2BD5C95BEAB2B96ACCC74D64911A2CF018AFDC936417A0C2E798D41543B2B454A663E3466CE3FCDC5A007F95677B4791F2969287F25CDC45B328E3527537D9A9A964DA7691A45B599A58866F9C9A83DAA8833484E19279411D67DB0A66FEA9E
311
7784B63DA5A2DAE47F4C699DFF694AC6C69A1F71775B00C97290272145B5F595D7B3CCBCB76EE537504B010214000A00000800006D7531403DEE336E79000000790000001B00000000000000000000000000000000006175746F6465736B2D64657369676E2D7061636B6167652E786D6C504B010214001400060808006D75
311
3140D486FD9CA0000000F40000001300000000000000000000000000B20000005B436F6E74656E745F54797065735D2E786D6C504B010214001400060808006D7531407D5B9910E90000007C010000080000000000000000000000000083010000636F72652E786D6C504B010214001400060808006D75314055019EA25F00
311
00007C000000070000000000000000000000000092020000636E782E786D6C504B010214001400060808006D753140A24811D865010000020300000C00000000000000000000000000160300006662782F636F72652E786D6C504B010214001400060808006D753140F8207C0F7E0000009D0000000B000000000000000000
311
00000000A50400006662782F636E782E786D6C504B010214001400060808006D753140790351DD2B0100001402000031000000000000000000000000004C0500006662782F35463030384446362D334239332D343736342D383636392D4235383534413244304546332F636F72652E786D6C504B010214001400060808006D
311
753140C7A2D8314D010000330300003000000000000000000000000000C60600006662782F35463030384446362D334239332D343736342D383636392D4235383534413244304546332F636E782E786D6C504B010214001400060808006D7531405ABB2C5B990500007A100000340000000000000000000000000061080000
311
6662782F35463030384446362D334239332D343736342D383636392D4235383534413244304546332F6F626A656374732E786D6C504B010214001400060800006D75314000000000000000000000000035000000000000000000000000004C0E00006662782F35463030384446362D334239332D343736342D383636392D42
311
35383534413244304546332F76657274696365732E62696E504B010214001400060808006D753140F270F133060000000400000036000000000000000000000000009F0E00006662782F35463030384446362D334239332D343736342D383636392D4235383534413244304546332F747269616E676C65732E62696E504B01
311
0214001400060800006D7531400000000000000000000000003700000000000000000000000000F90E00006662782F35463030384446362D334239332D343736342D383636392D4235383534413244304546332F617474726962757465732E62696E504B010214001400060808006D753140D5987DFC8F0000004101000036
311
000000000000000000000000004E0F00006662782F35463030384446362D334239332D343736342D383636392D4235383534413244304546332F6469726563746F72792E786D6C504B010214001400060808006D7531406EF0B788FB000000A00100003B00000000000000000000000000311000006662782F354630303844
311
46362D334239332D343736342D383636392D4235383534413244304546332F7265736F75726365732F636F72652E786D6C504B0506000000000E000E0080040000851100000000
310
504B03040A00000800006D7531403DEE336E79000000790000001B0000006175746F6465736B2D64657369676E2D7061636B6167652E786D6C3C3F786D6C2076657273696F6E3D22312E302220656E636F64696E673D227574662D3822203F3E3C666F726D6174733E3C666F726D61743E687474703A2F2F736368656D612E
310
6175746F6465736B2E636F6D2F64657369676E2D7061636B6167652F323030393C2F666F726D61743E3C2F666F726D6174733E504B03041400060808006D753140D486FD9CA0000000F4000000130000005B436F6E74656E745F54797065735D2E786D6C7D8EC10E82300C865F65E91D8A1E8C310C0EEA1BF002731658846E
310
D98AC1B77784ABF1D8FE5FBFBF75BBCE937A534CCEB38643598122B6FEE978D0B0485F9C41B54DDD7D022595594E1A469170414C76A4D9A4D207E29CF43ECE46F218070CC6BECC4078ACAA135ACF422C856C0E68EA1BF5669944DDD7BCDE7B1F8E415D77AECB980613C2E4AC91FC167A2B244592486606FC29C8FD7F045B9A
310
EF7053A7E60B504B03041400060808006D75314047A313E4EA0000007C01000008000000636F72652E786D6C8D90416EC3201045AF82668F0DD8891D0B13B9497A825E0001715162B00C543D7E71E248EDAEAB19FDF96F66F4F9F17BBAA32FB304EB5D0FB420808C535E5B37F690E215B7808E822FDEC75F36404E4EA68755
310
06C1C7C5A779939477D1B89855E7B5D94419828980D43D373D04F5692659C814B323DC8A59AA9B1C4D415F5D8653B21A3D8F589DF7D9AB350B8813395C064A06FC76660CD74D35E076BF3BE1DDFB70661732542D3BF07285058F767ADD578B91D168108C508609C5B4F9A07557571D6B30D97784F072B5FF81D2ACFF0925EB
310
62C5B6779F580041F3238F81E0E59A452E8FA0725D73133F504B03041400060808006D75314055019EA25F0000007C00000007000000636E782E786D6C4DCB3B0E80201045D1AD90E915ED2CF8AC45050C11660C8261F98AB1B07AC9C97D42D718D865D3E909258CFD00CCE24AC6E326A164D74DC0B4128928FF326038472B
310
A13128B1252AC747C6BAB984FC68F0B87FE8960A5C09FE86CFB69FBA01504B03041400060808006D753140088D7F8C66010000020300000C0000006662782F636F72652E786D6C8D52ED8EC220107C15C27F0AC5CF3388E9A9F704F702D8628FD882A1D0F8F8B7FD303D2FC6982694CCECECCE4E2B76B7BA42ADF68D71768B
310
D38461A46DEE0A63CB2D8EE14CD618EDA4F0CE853F65185955EB2DEE602C45E95DBC8E50EE6CD036006A5DA14750358D0E18E5155CB6B8C97F74AD121503543497E4AAF28B2A75922640439D144DF060000D43BA13CBF3E926E8804B11A32946D61430CD9C8DF658EED9C7314B59463E0F9C93F96A9691F572B1278BAFECC0
310
8F2C9BADF987A09D588A60EABBBBDC6B157481256729272C25E9EA3B9D6FE6B30D5F11B6DC30266857FE208AD7E24D513436CCF86877903558A660A427FE6D0B1105D4A816FC5029681722BCFA841F83864020E4A04ED57D8F0B40ADCE83F373600A1727AA5555D43095A1FE117460A173DF00367BDA87BFE8F3BA077C4065
310
4BB0A6025C4F3174D3C530758CE2AA3D69C30D59E76B554DE6068BD3390D7A2ACF5DE5FC3B6A3AAE4AC73069F7F7CA5F504B03041400060808006D753140418A39677D0000009D0000000B0000006662782F636E782E786D6C4DCCD10A83201886E15B91FFDC65CDE51FA8E1681712CB42663A9C8E5DFE6A74B0A30F1E3E5E
310
D97F564FDE36BD5C0C0AEA130362C33D4E2E2C0A4A9E2902E9B54C31E6BF1B9030AE56C1CEA0E59262791E34D9792C3E6FEA5D781CC8F9C5B4686A2A3A64940F57463B216E146B3C236F0686A6854ACBEA57DA760FEB2F504B03041400060808006D753140B52F2AF72901000014020000310000006662782F343435413638
310
41312D373938302D344442302D393737452D3831383338343244303841362F636F72652E786D6C8D51CB6EC32010FC15C4A93D60834D6D1C61A254E91FF4070826294A0C168F2A9F5FA81DA9BDE5C2A2D999D9D12EDFDFE71BF8D63E186747482A0C81B6CA4DC65E4698E2193108F6827BE7E21F1A0456CE7A840586825FBC
310
4BCB062967A3B631A3D64D7A0365083A42A06EF933C2A0BEF42C2B996266846BB5487595175D912AB7334FF0107D0E00D621E58582D2B743C70E04F503C3881EDF311AFAFE0331C25A469B2366878ED7AB50F094CCB4C9CD94E398B3D1FE599322163C9AF9115F792DA39EA0683069102688F49F84EE68BB6B7A84BB1DC6BC
310
2EF47FA2B44C4F8A92B1B16DB6B8AB2C404178BD36049F5C3ADD1E61F47D713E8232EF2568F50A05AE7093930DEDC0EB959A17903D3BBA7986E87C5EF0CBF594D9ED66DC51C1EB72A35C7E0F986BB9A7F801504B03041400060808006D753140A10517265401000033030000300000006662782F34343541363841312D3739
310
38302D344442302D393737452D3831383338343244303841362F636E782E786D6CBD93CD6EC32010845F0571F76F2C278A30917AE813F4D02B864D4283C1025C356FDF2521692E3954AA7A41D6EC30B3FA84D9EE6B32E4137CD0CE0EB4296B4AC04AA7B43D0C7489FB6243C98E33EF5C7CB05162C504034D32E5ECE0DD3267
310
49C15E2C26A26AB43D65D143708B9710504E37897152180C005B2C28C2348252A0C8DD885F7BF0B80A8AE399C42390D79777E2C60F9031B02AA57056A50ECED2999B1E4C944823421868904798442996E8148453A944146553DEBA9EECF49344D2855BE5E23549E5034D27E579A31239B20A879C85E8915E36C5F30C948B79
310
365A8A8890AB8BF1EAE16CD136F65DF66A04EFD1BD6AFBCD06C32E33CEA29E203BA407114151DED64D5BD44DD1ACDF9A6EDBADB6EDBAA8FB6D5DB32AD9391B9D33F912C680773391CE46B091F2865569FC0C5FF611A53DB276FEFC0B900820B75EE9DC33FE924FD3AFBAEE1FF95497F78DB83CFE05FC1B504B030414000608
310
08006D7531407B46414657070000931B0000340000006662782F34343541363841312D373938302D344442302D393737452D3831383338343244303841362F6F626A656374732E786D6CED595B6FA33814FE2B887D0E0949DA695794519BB6A368D599D16467B40F9190030EF1D618649B5EF6D7EFF1050234B464A7FB360F
310
0960ECE373BE73F521F8F89451E70173417276E1FADEC475308BF384B0F4C22DE57674E63A1FC380E7B96C4C731D86327CE1AA61370C529E97851D4AF016955476466FAFFE72448C19769D9822212E5C11EF70863C54CA3CC1E2DE4B90445EBA7DF27CCF4C6C934D392A761DA205E29849E014C61950710C537EFB71E28EC3
310
60ACDE8781FAB7B3668366CDFB678DB5D46D2E091312B1F8054B1D32B3412CCDFCF9F5CDF4E47C74329FCF46F3D3A93FBABABDBA1EF91F6693C5E962717E79730EEC6DF29C5A99125C609680FE9EDDD00FC6EA4D2DBA45E010D771CE188E3590009516AB4B9060015B35E09BB41F7D2551E3B596B0F13C57EF2D0B8DE1599B
310
4ADFAC6140B4E8822076BB4AE2EADA942FDFFC0D828B2146C90596C0AD901CB46BE1E1E0156E3809C666340C367B5D10E16448624E107528D970C4412930554D0903B3C09251CEC18194A324D09A33AFDBB6059EF9B6EB1CE2725B52AA3CC30DB56345E07E580ACD19F907F33DF74D64802790B6244C9E592EE57381DDF03C
310
18EBC1305097D9D4BE34403A5B8A52A111316F3B822E94EB2FAFDDF08FDBCDD34A8583C39B173C2F3097CAE8941E355F60C8F6AA50B2DBFA8334A71680300654BB720FCA3740FE33448F3D2BA0374E9EE64F733B5772C4C436E719E8C69938A309FC4D1C5FFFABFBC65D30AE17B7B5D78727B8A982EAECE7F16CCBA0B1B2FC
310
37E00C830730F89CCFECAB558C28D8F31D610090321287E63004A17DBB7972C325044E08F4B00AD1D0079181DD07B80DC696CC5E2B957B59AF6380A8DD63364449009BB64860A3474F9F207B7012EFD5D414B10FDE937731D7CBEBD51FAB926F518CEFAC4F5FE32D614442D63CCC500BF39644F7F8F931E70908FA12EF5513
310
EFCC6E25006D85B9023EAD40500FFB9D5B1BC4B02ECD55B809DED8018450B9BA41FF8E8818538A18CECB6ADF3ABA2943AD3DDED60C6E383510CFA61D13E6F881A8AA029C663FA3C528E4FD98934281E8869F8C6475D0F47AA4FBBEFC0C1659CFEF99B564107A19A27FEAA0750087966557485B206A8137FB701EE734E7D1E6
310
393291CE855A02D8687BCB8F165188F546498A0A7890F6BB2AA4A446DA2821DB6D2920AE1E60F1C772D134878937F34F9CE67FC719E7106DC17711B77ED7D92322194A71B44549DF76CDDD6ADA4293EC21CDF196825CE481C8E708C96892E0F418688E227EFEAED4539A0B41181690AF0E82DF4463E2412031DAAC58565AED
310
004D44946189E8310828323DE0EAB4A36BDC184A87B779ACADF7358D3589FE4F16C111D492398B0894A29043DE64DCF74E2086B4D1352877F0056BAB686B3168092544FC1C3D6292EEE431A81BF23DB8C77024296594172806B31E40F685AF28A57678DFA0F85EE58F282EE97B1988C0741B114ACB2C821F6170F218E2DA75
310
607A1585067113FB24CEA02843B2E44336393D99BCD8C7D40CDD10D8D8684B2884ED2843450FEAAD80A8EB11A706DF52EF51EAA6CC8A086579C906198A37EB7A9325DF55AB223B905F552A42D95811B604C380305967D52A6683A9EBC00A6EA403D57324505650730A7B23F1F8B53769CABD1B70EBA7EFBB4106855F8FF69A
310
11755EC160796C1506E211C978E7862B7D1D5D41FD9DE0649FEAAB5AB3590102622A92979C58157D5F4279636B3437BC4352AC3F99AC5B5DBF2F3DE87E04635803B54BBD70A980CE309348552677EA867E4310825B34CCF852E5D463A85C2689AE1A11BD257DEA6C9511AD4D33E2153BCCF20C7E6C4D584CCB04AF5122EEA3
310
3B49A31551AC5B29BD8C5418BF2AE0974FAB0E3C303240A4AFAAC0C38F9DB57674A1CAA58344E4AECC360C1108822DD152A31BAF60A9D548A5E5FAAACE14507781815915CF7F9D2C9AED885F278BD41AC6CF9D2C68BE41741F6D1AD93C56667DD429A04E4F8ACA7B9C0274D7A1A65A271193CBADF8D69722888955901F5C8C
310
5531C310ECE3F83F27EDBE2468B6EBF07F5CD2F65F141C472595D664D5A43A50B82E9B296C713B39999F9D4E47FECDE9F9683E9B2D46973757B7F0F86171333BFD707E36AFF5648887411DCB74EA826713D3AA61F5643180A6ACC82949E0309F382986902FE1483FA07BCE332C2077367BDD89EDC90F58FD60DA9C126D28AE
310
38D921E80F5301591DC42863D91E777E83CEA48473F6850B3D23EF1EFEAC55BA0E249E0B173A0592C458781BE832A97E9E260E1957A77E4B0CE21862A9CA886651FD5CAF52D8B4A27F3D654816B072B55A1850B715D0FC6A3528346F96A7F828C12B761C24E176534A28D68C2CFB815A18BDCD5EFD46364AD8BDDDFA095CF7
310
75B17C4FCF692132E88BC1AB4660A88E24E2A96E772BC62C4B97D75FC7D06673965F9C829629E87238A511C760CCA5AAA7C08AC02A2CCD024930D5C5EFEBAF3C872F3C99A38BA2F522CFB29CD9874B388E25F085C859EDE07B4FB286AA01ABAEBA584F27FE74ADBBD9B6C11E6D90C09E2A8760A0AA2294081D63038B7CD199
310
B27DCBB1524267FAF2DAB1E113BA00C6825E3477CDD72D07BC477D4751BEA23DBC92F3D586F6584F056BE0D08A0EFF05504B03041400060800006D753140000000000000000000000000350000006662782F34343541363841312D373938302D344442302D393737452D3831383338343244303841362F7665727469636573
310
2E62696E504B03041400060808006D753140F270F1330600000004000000360000006662782F34343541363841312D373938302D344442302D393737452D3831383338343244303841362F747269616E676C65732E62696E636660600000504B03041400060800006D75314000000000000000000000000037000000666278
310
2F34343541363841312D373938302D344442302D393737452D3831383338343244303841362F617474726962757465732E62696E504B03041400060808006D753140D5987DFC8F00000041010000360000006662782F34343541363841312D373938302D344442302D393737452D3831383338343244303841362F64697265
310
63746F72792E786D6C858F410EC2201045AF4266AF15DDB800BA74E7C21B903225242D6328188F2FA5C4183471359997F9FF81E89FF3C41E1816475E02DF1F80A11FC8386F25A438EECEC07A250251FC3803E6F58C12560C4AD840E95E91C151A72936F496F35732D860FE635F62C8F2DA16B505C545B74125BAA2FA9E05D7
310
CC053D063734D5C7665FD55B6B8D15D5E9BFEAFD8490FFA45E504B03041400060808006D753140FA6A7025FD000000A00100003B0000006662782F34343541363841312D373938302D344442302D393737452D3831383338343244303841362F7265736F75726365732F636F72652E786D6C8D50596E833010BD0A9A7F836D
310
B200328E68929EA017B0CC84580976E4A5EAF16B122AB57FFD9919BD45F3F4C4E16BBE179FE88371B607565228D06A371A3BF590E28534501CA4F0CEC55F3228AC9AB18705062926EFD26385B4B3116DCCA87523AEA00A012314FA9E8F1E82BEE2AC4A956256845BF950FAA6262C5999E9AC9322449F0314AF27CB04E931B8
310
E4350651BD58295232E3AA3163FE692E063DC8236DCF03A32D793B714E36FB7A20CD6E7B24DBF7E1C4CF74A81BDE8A6A314B11CDFC93517B541147909C324E28236CFFC136DDA6EEF89ED05D47A9A816F91F537A8CFF34256363CDD7B82F5B00C97290272145B5F495D7B3CCBC976EE537504B010214000A00000800006D75
310
31403DEE336E79000000790000001B00000000000000000000000000000000006175746F6465736B2D64657369676E2D7061636B6167652E786D6C504B010214001400060808006D753140D486FD9CA0000000F40000001300000000000000000000000000B20000005B436F6E74656E745F54797065735D2E786D6C504B01
310
0214001400060808006D75314047A313E4EA0000007C010000080000000000000000000000000083010000636F72652E786D6C504B010214001400060808006D75314055019EA25F0000007C000000070000000000000000000000000093020000636E782E786D6C504B010214001400060808006D753140088D7F8C660100
310
00020300000C00000000000000000000000000170300006662782F636F72652E786D6C504B010214001400060808006D753140418A39677D0000009D0000000B00000000000000000000000000A70400006662782F636E782E786D6C504B010214001400060808006D753140B52F2AF7290100001402000031000000000000
310
000000000000004D0500006662782F34343541363841312D373938302D344442302D393737452D3831383338343244303841362F636F72652E786D6C504B010214001400060808006D753140A105172654010000330300003000000000000000000000000000C50600006662782F34343541363841312D373938302D344442
310
302D393737452D3831383338343244303841362F636E782E786D6C504B010214001400060808006D7531407B46414657070000931B00003400000000000000000000000000670800006662782F34343541363841312D373938302D344442302D393737452D3831383338343244303841362F6F626A656374732E786D6C504B
310
010214001400060800006D7531400000000000000000000000003500000000000000000000000000101000006662782F34343541363841312D373938302D344442302D393737452D3831383338343244303841362F76657274696365732E62696E504B010214001400060808006D753140F270F13306000000040000003600
310
000000000000000000000000631000006662782F34343541363841312D373938302D344442302D393737452D3831383338343244303841362F747269616E676C65732E62696E504B010214001400060800006D7531400000000000000000000000003700000000000000000000000000BD1000006662782F34343541363841
310
312D373938302D344442302D393737452D3831383338343244303841362F617474726962757465732E62696E504B010214001400060808006D753140D5987DFC8F000000410100003600000000000000000000000000121100006662782F34343541363841312D373938302D344442302D393737452D383138333834324430
310
3841362F6469726563746F72792E786D6C504B010214001400060808006D753140FA6A7025FD000000A00100003B00000000000000000000000000F51100006662782F34343541363841312D373938302D344442302D393737452D3831383338343244303841362F7265736F75726365732F636F72652E786D6C504B050600
310
0000000E000E00800400004B1300000000
  0
XRECORD
  5
27
102
{ACAD_REACTORS
330
22
102
}
330
22
100
AcDbXrecord
280
     1
270
     1
271
     1
  0
XRECORD
  5
26
102
{ACAD_REACTORS
330
22
102
}
330
22
100
AcDbXrecord
280
     1
270
     1
271
     1
  0
XRECORD
  5
28
102
{ACAD_REACTORS
330
22
102
}
330
22
100
AcDbXrecord
280
     1
270
     1
271
     1
  0
XRECORD
  5
25
102
{ACAD_REACTORS
330
22
102
}
330
22
100
AcDbXrecord
280
     1
270
     1
271
     1
  0
XRECORD
  5
D8E
102
{ACAD_REACTORS
330
D8D
102
}
330
D8D
100
AcDbXrecord
280
     1
102
ACAD_ROUNDTRIP_2012_MLEADER_STYLE
298
     1
  0
CELLSTYLEMAP
  5
D8C
102
{ACAD_REACTORS
330
D8B
102
}
330
D8B
100
AcDbCellStyleMap
 90
        3
300
CELLSTYLE
  1
TABLEFORMAT_BEGIN
 90
        5
170
     1
 91
        0
 92
    32768
 62
   257
 93
        1
300
CONTENTFORMAT
  1
CONTENTFORMAT_BEGIN
 90
        0
 91
        0
 92
      512
 93
        0
300

 40
0.0
140
1.0
 94
        5
 62
     0
340
55
144
0.25
309
CONTENTFORMAT_END
171
     0
 94
        0
309
TABLEFORMAT_END
  1
CELLSTYLE_BEGIN
 90
        1
 91
        1
300
_TITLE
309
CELLSTYLE_END
300
CELLSTYLE
  1
TABLEFORMAT_BEGIN
 90
        5
170
     1
 91
        0
 92
        0
 62
   257
 93
        1
300
CONTENTFORMAT
  1
CONTENTFORMAT_BEGIN
 90
        0
 91
        0
 92
      512
 93
        0
300

 40
0.0
140
1.0
 94
        5
 62
     0
340
55
144
0.18
309
CONTENTFORMAT_END
171
     0
 94
        0
309
TABLEFORMAT_END
  1
CELLSTYLE_BEGIN
 90
        2
 91
        1
300
_HEADER
309
CELLSTYLE_END
300
CELLSTYLE
  1
TABLEFORMAT_BEGIN
 90
        5
170
     1
 91
        0
 92
        0
 62
   257
 93
        1
300
CONTENTFORMAT
  1
CONTENTFORMAT_BEGIN
 90
        0
 91
        0
 92
      512
 93
        0
300

 40
0.0
140
1.0
 94
        2
 62
     0
340
55
144
0.18
309
CONTENTFORMAT_END
171
     0
 94
        0
309
TABLEFORMAT_END
  1
CELLSTYLE_BEGIN
 90
        3
 91
        2
300
_DATA
309
CELLSTYLE_END
  0
XRECORD
  5
DC6
102
{ACAD_REACTORS
330
D8B
102
}
330
D8B
100
AcDbXrecord
280
     1
102
ACAD_ROUNDTRIP_PRE2007_TABLESTYLE
 90
      512
 91
        0
  1

 92
      512
 93
        0
  2

 94
      512
 95
        0
  3

  0
XRECORD
  5
DA1
102
{ACAD_REACTORS
330
DA0
102
}
330
DA0
100
AcDbXrecord
280
     1
102
RTVSPropertyOp0
 70
     1
102
RTVSPropertyOp1
 70
     1
102
RTVSPropertyOp2
 70
     1
102
RTVSPropertyOp3
 70
     1
102
RTVSPropertyOp4
 70
     1
102
RTVSPropertyOp5
 70
     1
102
RTVSPropertyOp6
 70
     1
102
RTVSPropertyOp7
 70
     1
102
RTVSPropertyOp8
 70
     1
102
RTVSPropertyOp9
 70
     1
102
RTVSPropertyOp10
 70
     1
102
RTVSPropertyOp11
 70
     1
102
RTVSPropertyOp12
 70
     1
102
RTVSPropertyOp13
 70
     1
102
RTVSPropertyOp14
 70
     1
102
RTVSPropertyOp15
 70
     1
102
RTVSPropertyOp16
 70
     1
102
RTVSPropertyOp17
 70
     1
102
RTVSPropertyOp18
 70
     1
102
RTVSPropertyOp19
 70
     1
102
RTVSPropertyOp20
 70
     1
102
RTVSPropertyOp21
 70
     1
102
RTVSPropertyOp22
 70
     1
102
RTVSPropertyOp23
 70
     1
102
RTVSPropertyOp24
 70
     1
102
RTVSPropertyOp25
 70
     1
102
RTVSPropertyOp26
 70
     1
102
RTVSPropertyOp27
 70
     1
102
RTVSPropertyOp28
 70
     1
102
RTVSPropertyOp29
 70
     1
102
RTVSPropertyOp30
 70
     1
102
RTVSPropertyOp31
 70
     1
102
RTVSPropertyOp32
 70
     1
  0
XRECORD
  5
D9F
102
{ACAD_REACTORS
330
D9E
102
}
330
D9E
100
AcDbXrecord
280
     1
102
RTVSPropertyOp0
 70
     1
102
RTVSPropertyOp1
 70
     1
102
RTVSPropertyOp2
 70
     1
102
RTVSPropertyOp3
 70
     1
102
RTVSPropertyOp4
 70
     1
102
RTVSPropertyOp5
 70
     1
102
RTVSPropertyOp6
 70
     1
102
RTVSPropertyOp7
 70
     1
102
RTVSPropertyOp8
 70
     1
102
RTVSPropertyOp9
 70
     1
102
RTVSPropertyOp10
 70
     1
102
RTVSPropertyOp11
 70
     1
102
RTVSPropertyOp12
 70
     1
102
RTVSPropertyOp13
 70
     1
102
RTVSPropertyOp14
 70
     1
102
RTVSPropertyOp15
 70
     1
102
RTVSPropertyOp16
 70
     1
102
RTVSPropertyOp17
 70
     1
102
RTVSPropertyOp18
 70
     1
102
RTVSPropertyOp19
 70
     1
102
RTVSPropertyOp20
 70
     1
102
RTVSPropertyOp21
 70
     1
102
RTVSPropertyOp22
 70
     1
102
RTVSPropertyOp23
 70
     1
102
RTVSPropertyOp24
 70
     1
102
RTVSPropertyOp25
 70
     1
102
RTVSPropertyOp26
 70
     1
102
RTVSPropertyOp27
 70
     1
102
RTVSPropertyOp28
 70
     1
102
RTVSPropertyOp29
 70
     1
102
RTVSPropertyOp30
 70
     1
102
RTVSPropertyOp31
 70
     1
102
RTVSPropertyOp32
 70
     1
  0
XRECORD
  5
DAD
102
{ACAD_REACTORS
330
DAC
102
}
330
DAC
100
AcDbXrecord
280
     1
102
RTVSPropertyOp0
 70
     1
102
RTVSPropertyOp1
 70
     1
102
RTVSPropertyOp2
 70
     1
102
RTVSPropertyOp3
 70
     1
102
RTVSPropertyOp4
 70
     1
102
RTVSPropertyOp5
 70
     1
102
RTVSPropertyOp6
 70
     1
102
RTVSPropertyOp7
 70
     1
102
RTVSPropertyOp8
 70
     1
102
RTVSPropertyOp9
 70
     1
102
RTVSPropertyOp10
 70
     1
102
RTVSPropertyOp11
 70
     1
102
RTVSPropertyOp12
 70
     1
102
RTVSPropertyOp13
 70
     1
102
RTVSPropertyOp14
 70
     1
102
RTVSPropertyOp15
 70
     1
102
RTVSPropertyOp16
 70
     1
102
RTVSPropertyOp17
 70
     1
102
RTVSPropertyOp18
 70
     1
102
RTVSPropertyOp19
 70
     1
102
RTVSPropertyOp20
 70
     1
102
RTVSPropertyOp21
 70
     1
102
RTVSPropertyOp22
 70
     1
102
RTVSPropertyOp23
 70
     1
102
RTVSPropertyOp24
 70
     1
102
RTVSPropertyOp25
 70
     1
102
RTVSPropertyOp26
 70
     1
102
RTVSPropertyOp27
 70
     1
102
RTVSPropertyOp28
 70
     1
102
RTVSPropertyOp29
 70
     1
102
RTVSPropertyOp30
 70
     1
102
RTVSPropertyOp31
 70
     1
102
RTVSPropertyOp32
 70
     1
  0
XRECORD
  5
DB5
102
{ACAD_REACTORS
330
DB4
102
}
330
DB4
100
AcDbXrecord
280
     1
102
RTVSPropertyOp0
 70
     1
102
RTVSPropertyOp1
 70
     1
102
RTVSPropertyOp2
 70
     1
102
RTVSPropertyOp3
 70
     1
102
RTVSPropertyOp4
 70
     1
102
RTVSPropertyOp5
 70
     1
102
RTVSPropertyOp6
 70
     1
102
RTVSPropertyOp7
 70
     1
102
RTVSPropertyOp8
 70
     1
102
RTVSPropertyOp9
 70
     1
102
RTVSPropertyOp10
 70
     1
102
RTVSPropertyOp11
 70
     1
102
RTVSPropertyOp12
 70
     1
102
RTVSPropertyOp13
 70
     1
102
RTVSPropertyOp14
 70
     1
102
RTVSPropertyOp15
 70
     1
102
RTVSPropertyOp16
 70
     1
102
RTVSPropertyOp17
 70
     1
102
RTVSPropertyOp18
 70
     1
102
RTVSPropertyOp19
 70
     1
102
RTVSPropertyOp20
 70
     1
102
RTVSPropertyOp21
 70
     1
102
RTVSPropertyOp22
 70
     1
102
RTVSPropertyOp23
 70
     1
102
RTVSPropertyOp24
 70
     1
102
RTVSPropertyOp25
 70
     1
102
RTVSPropertyOp26
 70
     1
102
RTVSPropertyOp27
 70
     1
102
RTVSPropertyOp28
 70
     1
102
RTVSPropertyOp29
 70
     1
102
RTVSPropertyOp30
 70
     1
102
RTVSPropertyOp31
 70
     1
102
RTVSPropertyOp32
 70
     1
  0
XRECORD
  5
DA7
102
{ACAD_REACTORS
330
DA6
102
}
330
DA6
100
AcDbXrecord
280
     1
102
RTVSPropertyOp0
 70
     1
102
RTVSPropertyOp1
 70
     1
102
RTVSPropertyOp2
 70
     1
102
RTVSPropertyOp3
 70
     1
102
RTVSPropertyOp4
 70
     1
102
RTVSPropertyOp5
 70
     1
102
RTVSPropertyOp6
 70
     1
102
RTVSPropertyOp7
 70
     1
102
RTVSPropertyOp8
 70
     1
102
RTVSPropertyOp9
 70
     1
102
RTVSPropertyOp10
 70
     1
102
RTVSPropertyOp11
 70
     1
102
RTVSPropertyOp12
 70
     1
102
RTVSPropertyOp13
 70
     1
102
RTVSPropertyOp14
 70
     1
102
RTVSPropertyOp15
 70
     1
102
RTVSPropertyOp16
 70
     1
102
RTVSPropertyOp17
 70
     1
102
RTVSPropertyOp18
 70
     1
102
RTVSPropertyOp19
 70
     1
102
RTVSPropertyOp20
 70
     1
102
RTVSPropertyOp21
 70
     1
102
RTVSPropertyOp22
 70
     1
102
RTVSPropertyOp23
 70
     1
102
RTVSPropertyOp24
 70
     1
102
RTVSPropertyOp25
 70
     1
102
RTVSPropertyOp26
 70
     1
102
RTVSPropertyOp27
 70
     1
102
RTVSPropertyOp28
 70
     1
102
RTVSPropertyOp29
 70
     1
102
RTVSPropertyOp30
 70
     1
102
RTVSPropertyOp31
 70
     1
102
RTVSPropertyOp32
 70
     1
  0
XRECORD
  5
DAB
102
{ACAD_REACTORS
330
DAA
102
}
330
DAA
100
AcDbXrecord
280
     1
102
RTVSPropertyOp0
 70
     1
102
RTVSPropertyOp1
 70
     1
102
RTVSPropertyOp2
 70
     1
102
RTVSPropertyOp3
 70
     1
102
RTVSPropertyOp4
 70
     1
102
RTVSPropertyOp5
 70
     1
102
RTVSPropertyOp6
 70
     1
102
RTVSPropertyOp7
 70
     1
102
RTVSPropertyOp8
 70
     1
102
RTVSPropertyOp9
 70
     1
102
RTVSPropertyOp10
 70
     1
102
RTVSPropertyOp11
 70
     1
102
RTVSPropertyOp12
 70
     1
102
RTVSPropertyOp13
 70
     1
102
RTVSPropertyOp14
 70
     1
102
RTVSPropertyOp15
 70
     1
102
RTVSPropertyOp16
 70
     1
102
RTVSPropertyOp17
 70
     1
102
RTVSPropertyOp18
 70
     1
102
RTVSPropertyOp19
 70
     1
102
RTVSPropertyOp20
 70
     1
102
RTVSPropertyOp21
 70
     1
102
RTVSPropertyOp22
 70
     1
102
RTVSPropertyOp23
 70
     1
102
RTVSPropertyOp24
 70
     1
102
RTVSPropertyOp25
 70
     1
102
RTVSPropertyOp26
 70
     1
102
RTVSPropertyOp27
 70
     1
102
RTVSPropertyOp28
 70
     1
102
RTVSPropertyOp29
 70
     1
102
RTVSPropertyOp30
 70
     1
102
RTVSPropertyOp31
 70
     1
102
RTVSPropertyOp32
 70
     1
  0
XRECORD
  5
DC5
102
{ACAD_REACTORS
330
DC4
102
}
330
DC4
100
AcDbXrecord
280
     1
102
RTVSPropertyOp0
 70
     0
102
RTVSPropertyOp1
 70
     0
102
RTVSPropertyOp2
 70
     0
102
RTVSPropertyOp3
 70
     0
102
RTVSPropertyOp4
 70
     0
102
RTVSPropertyOp5
 70
     0
102
RTVSPropertyOp6
 70
     0
102
RTVSPropertyOp7
 70
     0
102
RTVSPropertyOp8
 70
     0
102
RTVSPropertyOp9
 70
     0
102
RTVSPropertyOp10
 70
     0
102
RTVSPropertyOp11
 70
     0
102
RTVSPropertyOp12
 70
     0
102
RTVSPropertyOp13
 70
     0
102
RTVSPropertyOp14
 70
     2
102
RTVSPropertyOp15
 70
     0
102
RTVSPropertyOp16
 70
     0
102
RTVSPropertyOp17
 70
     0
102
RTVSPropertyOp18
 70
     0
102
RTVSPropertyOp19
 70
     0
102
RTVSPropertyOp20
 70
     0
102
RTVSPropertyOp21
 70
     0
102
RTVSPropertyOp22
 70
     0
102
RTVSPropertyOp23
 70
     0
102
RTVSPropertyOp24
 70
     0
102
RTVSPropertyOp25
 70
     0
102
RTVSPropertyOp26
 70
     0
102
RTVSPropertyOp27
 70
     0
102
RTVSPropertyOp28
 70
     1
102
RTVSPropertyOp29
 70
     1
102
RTVSPropertyOp30
 70
     1
102
RTVSPropertyOp31
 70
     1
102
RTVSPropertyOp32
 70
     1
  0
XRECORD
  5
DB3
102
{ACAD_REACTORS
330
DB2
102
}
330
DB2
100
AcDbXrecord
280
     1
102
RTVSPropertyOp0
 70
     1
102
RTVSPropertyOp1
 70
     1
102
RTVSPropertyOp2
 70
     1
102
RTVSPropertyOp3
 70
     1
102
RTVSPropertyOp4
 70
     1
102
RTVSPropertyOp5
 70
     1
102
RTVSPropertyOp6
 70
     1
102
RTVSPropertyOp7
 70
     1
102
RTVSPropertyOp8
 70
     1
102
RTVSPropertyOp9
 70
     1
102
RTVSPropertyOp10
 70
     1
102
RTVSPropertyOp11
 70
     1
102
RTVSPropertyOp12
 70
     1
102
RTVSPropertyOp13
 70
     1
102
RTVSPropertyOp14
 70
     1
102
RTVSPropertyOp15
 70
     1
102
RTVSPropertyOp16
 70
     1
102
RTVSPropertyOp17
 70
     1
102
RTVSPropertyOp18
 70
     1
102
RTVSPropertyOp19
 70
     1
102
RTVSPropertyOp20
 70
     1
102
RTVSPropertyOp21
 70
     1
102
RTVSPropertyOp22
 70
     1
102
RTVSPropertyOp23
 70
     1
102
RTVSPropertyOp24
 70
     1
102
RTVSPropertyOp25
 70
     1
102
RTVSPropertyOp26
 70
     1
102
RTVSPropertyOp27
 70
     1
102
RTVSPropertyOp28
 70
     1
102
RTVSPropertyOp29
 70
     1
102
RTVSPropertyOp30
 70
     1
102
RTVSPropertyOp31
 70
     1
102
RTVSPropertyOp32
 70
     1
  0
XRECORD
  5
D97
102
{ACAD_REACTORS
330
D96
102
}
330
D96
100
AcDbXrecord
280
     1
102
RTVSPropertyOp0
 70
     1
102
RTVSPropertyOp1
 70
     1
102
RTVSPropertyOp2
 70
     1
102
RTVSPropertyOp3
 70
     1
102
RTVSPropertyOp4
 70
     1
102
RTVSPropertyOp5
 70
     1
102
RTVSPropertyOp6
 70
     1
102
RTVSPropertyOp7
 70
     1
102
RTVSPropertyOp8
 70
     1
102
RTVSPropertyOp9
 70
     1
102
RTVSPropertyOp10
 70
     1
102
RTVSPropertyOp11
 70
     1
102
RTVSPropertyOp12
 70
     1
102
RTVSPropertyOp13
 70
     1
102
RTVSPropertyOp14
 70
     1
102
RTVSPropertyOp15
 70
     1
102
RTVSPropertyOp16
 70
     1
102
RTVSPropertyOp17
 70
     1
102
RTVSPropertyOp18
 70
     1
102
RTVSPropertyOp19
 70
     1
102
RTVSPropertyOp20
 70
     1
102
RTVSPropertyOp21
 70
     1
102
RTVSPropertyOp22
 70
     1
102
RTVSPropertyOp23
 70
     1
102
RTVSPropertyOp24
 70
     1
102
RTVSPropertyOp25
 70
     1
102
RTVSPropertyOp26
 70
     1
102
RTVSPropertyOp27
 70
     1
102
RTVSPropertyOp28
 70
     1
102
RTVSPropertyOp29
 70
     1
102
RTVSPropertyOp30
 70
     1
102
RTVSPropertyOp31
 70
     1
102
RTVSPropertyOp32
 70
     1
  0
XRECORD
  5
D99
102
{ACAD_REACTORS
330
D98
102
}
330
D98
100
AcDbXrecord
280
     1
102
RTVSPropertyOp0
 70
     1
102
RTVSPropertyOp1
 70
     1
102
RTVSPropertyOp2
 70
     1
102
RTVSPropertyOp3
 70
     1
102
RTVSPropertyOp4
 70
     1
102
RTVSPropertyOp5
 70
     1
102
RTVSPropertyOp6
 70
     1
102
RTVSPropertyOp7
 70
     1
102
RTVSPropertyOp8
 70
     1
102
RTVSPropertyOp9
 70
     1
102
RTVSPropertyOp10
 70
     1
102
RTVSPropertyOp11
 70
     1
102
RTVSPropertyOp12
 70
     1
102
RTVSPropertyOp13
 70
     1
102
RTVSPropertyOp14
 70
     1
102
RTVSPropertyOp15
 70
     1
102
RTVSPropertyOp16
 70
     1
102
RTVSPropertyOp17
 70
     1
102
RTVSPropertyOp18
 70
     1
102
RTVSPropertyOp19
 70
     1
102
RTVSPropertyOp20
 70
     1
102
RTVSPropertyOp21
 70
     1
102
RTVSPropertyOp22
 70
     1
102
RTVSPropertyOp23
 70
     1
102
RTVSPropertyOp24
 70
     1
102
RTVSPropertyOp25
 70
     1
102
RTVSPropertyOp26
 70
     1
102
RTVSPropertyOp27
 70
     1
102
RTVSPropertyOp28
 70
     1
102
RTVSPropertyOp29
 70
     1
102
RTVSPropertyOp30
 70
     1
102
RTVSPropertyOp31
 70
     1
102
RTVSPropertyOp32
 70
     1
  0
XRECORD
  5
D9B
102
{ACAD_REACTORS
330
D9A
102
}
330
D9A
100
AcDbXrecord
280
     1
102
RTVSPropertyOp0
 70
     1
102
RTVSPropertyOp1
 70
     1
102
RTVSPropertyOp2
 70
     1
102
RTVSPropertyOp3
 70
     1
102
RTVSPropertyOp4
 70
     1
102
RTVSPropertyOp5
 70
     1
102
RTVSPropertyOp6
 70
     1
102
RTVSPropertyOp7
 70
     1
102
RTVSPropertyOp8
 70
     1
102
RTVSPropertyOp9
 70
     1
102
RTVSPropertyOp10
 70
     1
102
RTVSPropertyOp11
 70
     1
102
RTVSPropertyOp12
 70
     1
102
RTVSPropertyOp13
 70
     1
102
RTVSPropertyOp14
 70
     1
102
RTVSPropertyOp15
 70
     1
102
RTVSPropertyOp16
 70
     1
102
RTVSPropertyOp17
 70
     1
102
RTVSPropertyOp18
 70
     1
102
RTVSPropertyOp19
 70
     1
102
RTVSPropertyOp20
 70
     1
102
RTVSPropertyOp21
 70
     1
102
RTVSPropertyOp22
 70
     1
102
RTVSPropertyOp23
 70
     1
102
RTVSPropertyOp24
 70
     1
102
RTVSPropertyOp25
 70
     1
102
RTVSPropertyOp26
 70
     1
102
RTVSPropertyOp27
 70
     1
102
RTVSPropertyOp28
 70
     1
102
RTVSPropertyOp29
 70
     1
102
RTVSPropertyOp30
 70
     1
102
RTVSPropertyOp31
 70
     1
102
RTVSPropertyOp32
 70
     1
  0
XRECORD
  5
D9D
102
{ACAD_REACTORS
330
D9C
102
}
330
D9C
100
AcDbXrecord
280
     1
102
RTVSPropertyOp0
 70
     1
102
RTVSPropertyOp1
 70
     1
102
RTVSPropertyOp2
 70
     1
102
RTVSPropertyOp3
 70
     1
102
RTVSPropertyOp4
 70
     1
102
RTVSPropertyOp5
 70
     1
102
RTVSPropertyOp6
 70
     1
102
RTVSPropertyOp7
 70
     1
102
RTVSPropertyOp8
 70
     1
102
RTVSPropertyOp9
 70
     1
102
RTVSPropertyOp10
 70
     1
102
RTVSPropertyOp11
 70
     1
102
RTVSPropertyOp12
 70
     1
102
RTVSPropertyOp13
 70
     1
102
RTVSPropertyOp14
 70
     1
102
RTVSPropertyOp15
 70
     1
102
RTVSPropertyOp16
 70
     1
102
RTVSPropertyOp17
 70
     1
102
RTVSPropertyOp18
 70
     1
102
RTVSPropertyOp19
 70
     1
102
RTVSPropertyOp20
 70
     1
102
RTVSPropertyOp21
 70
     1
102
RTVSPropertyOp22
 70
     1
102
RTVSPropertyOp23
 70
     1
102
RTVSPropertyOp24
 70
     1
102
RTVSPropertyOp25
 70
     1
102
RTVSPropertyOp26
 70
     1
102
RTVSPropertyOp27
 70
     1
102
RTVSPropertyOp28
 70
     1
102
RTVSPropertyOp29
 70
     1
102
RTVSPropertyOp30
 70
     1
102
RTVSPropertyOp31
 70
     1
102
RTVSPropertyOp32
 70
     1
  0
XRECORD
  5
DA5
102
{ACAD_REACTORS
330
DA4
102
}
330
DA4
100
AcDbXrecord
280
     1
102
RTVSPropertyOp0
 70
     1
102
RTVSPropertyOp1
 70
     1
102
RTVSPropertyOp2
 70
     1
102
RTVSPropertyOp3
 70
     1
102
RTVSPropertyOp4
 70
     1
102
RTVSPropertyOp5
 70
     1
102
RTVSPropertyOp6
 70
     1
102
RTVSPropertyOp7
 70
     1
102
RTVSPropertyOp8
 70
     1
102
RTVSPropertyOp9
 70
     1
102
RTVSPropertyOp10
 70
     1
102
RTVSPropertyOp11
 70
     1
102
RTVSPropertyOp12
 70
     1
102
RTVSPropertyOp13
 70
     1
102
RTVSPropertyOp14
 70
     1
102
RTVSPropertyOp15
 70
     1
102
RTVSPropertyOp16
 70
     1
102
RTVSPropertyOp17
 70
     1
102
RTVSPropertyOp18
 70
     1
102
RTVSPropertyOp19
 70
     1
102
RTVSPropertyOp20
 70
     1
102
RTVSPropertyOp21
 70
     1
102
RTVSPropertyOp22
 70
     1
102
RTVSPropertyOp23
 70
     1
102
RTVSPropertyOp24
 70
     1
102
RTVSPropertyOp25
 70
     1
102
RTVSPropertyOp26
 70
     1
102
RTVSPropertyOp27
 70
     1
102
RTVSPropertyOp28
 70
     1
102
RTVSPropertyOp29
 70
     1
102
RTVSPropertyOp30
 70
     1
102
RTVSPropertyOp31
 70
     1
102
RTVSPropertyOp32
 70
     1
  0
XRECORD
  5
DC1
102
{ACAD_REACTORS
330
DC0
102
}
330
DC0
100
AcDbXrecord
280
     1
102
RTVSPropertyOp0
 70
     0
102
RTVSPropertyOp1
 70
     0
102
RTVSPropertyOp2
 70
     0
102
RTVSPropertyOp3
 70
     0
102
RTVSPropertyOp4
 70
     0
102
RTVSPropertyOp5
 70
     0
102
RTVSPropertyOp6
 70
     0
102
RTVSPropertyOp7
 70
     0
102
RTVSPropertyOp8
 70
     0
102
RTVSPropertyOp9
 70
     0
102
RTVSPropertyOp10
 70
     0
102
RTVSPropertyOp11
 70
     0
102
RTVSPropertyOp12
 70
     0
102
RTVSPropertyOp13
 70
     0
102
RTVSPropertyOp14
 70
     2
102
RTVSPropertyOp15
 70
     0
102
RTVSPropertyOp16
 70
     0
102
RTVSPropertyOp17
 70
     0
102
RTVSPropertyOp18
 70
     0
102
RTVSPropertyOp19
 70
     0
102
RTVSPropertyOp20
 70
     0
102
RTVSPropertyOp21
 70
     0
102
RTVSPropertyOp22
 70
     0
102
RTVSPropertyOp23
 70
     0
102
RTVSPropertyOp24
 70
     0
102
RTVSPropertyOp25
 70
     0
102
RTVSPropertyOp26
 70
     0
102
RTVSPropertyOp27
 70
     0
102
RTVSPropertyOp28
 70
     1
102
RTVSPropertyOp29
 70
     1
102
RTVSPropertyOp30
 70
     1
102
RTVSPropertyOp31
 70
     1
102
RTVSPropertyOp32
 70
     1
  0
XRECORD
  5
DB1
102
{ACAD_REACTORS
330
DB0
102
}
330
DB0
100
AcDbXrecord
280
     1
102
RTVSPropertyOp0
 70
     1
102
RTVSPropertyOp1
 70
     1
102
RTVSPropertyOp2
 70
     1
102
RTVSPropertyOp3
 70
     1
102
RTVSPropertyOp4
 70
     1
102
RTVSPropertyOp5
 70
     1
102
RTVSPropertyOp6
 70
     1
102
RTVSPropertyOp7
 70
     1
102
RTVSPropertyOp8
 70
     1
102
RTVSPropertyOp9
 70
     1
102
RTVSPropertyOp10
 70
     1
102
RTVSPropertyOp11
 70
     1
102
RTVSPropertyOp12
 70
     1
102
RTVSPropertyOp13
 70
     1
102
RTVSPropertyOp14
 70
     1
102
RTVSPropertyOp15
 70
     1
102
RTVSPropertyOp16
 70
     1
102
RTVSPropertyOp17
 70
     1
102
RTVSPropertyOp18
 70
     1
102
RTVSPropertyOp19
 70
     1
102
RTVSPropertyOp20
 70
     1
102
RTVSPropertyOp21
 70
     1
102
RTVSPropertyOp22
 70
     1
102
RTVSPropertyOp23
 70
     1
102
RTVSPropertyOp24
 70
     1
102
RTVSPropertyOp25
 70
     1
102
RTVSPropertyOp26
 70
     1
102
RTVSPropertyOp27
 70
     1
102
RTVSPropertyOp28
 70
     1
102
RTVSPropertyOp29
 70
     1
102
RTVSPropertyOp30
 70
     1
102
RTVSPropertyOp31
 70
     1
102
RTVSPropertyOp32
 70
     1
  0
XRECORD
  5
DC3
102
{ACAD_REACTORS
330
DC2
102
}
330
DC2
100
AcDbXrecord
280
     1
102
RTVSPropertyOp0
 70
     0
102
RTVSPropertyOp1
 70
     0
102
RTVSPropertyOp2
 70
     0
102
RTVSPropertyOp3
 70
     0
102
RTVSPropertyOp4
 70
     0
102
RTVSPropertyOp5
 70
     0
102
RTVSPropertyOp6
 70
     0
102
RTVSPropertyOp7
 70
     0
102
RTVSPropertyOp8
 70
     0
102
RTVSPropertyOp9
 70
     0
102
RTVSPropertyOp10
 70
     0
102
RTVSPropertyOp11
 70
     0
102
RTVSPropertyOp12
 70
     0
102
RTVSPropertyOp13
 70
     0
102
RTVSPropertyOp14
 70
     2
102
RTVSPropertyOp15
 70
     0
102
RTVSPropertyOp16
 70
     0
102
RTVSPropertyOp17
 70
     0
102
RTVSPropertyOp18
 70
     0
102
RTVSPropertyOp19
 70
     0
102
RTVSPropertyOp20
 70
     0
102
RTVSPropertyOp21
 70
     0
102
RTVSPropertyOp22
 70
     0
102
RTVSPropertyOp23
 70
     0
102
RTVSPropertyOp24
 70
     0
102
RTVSPropertyOp25
 70
     0
102
RTVSPropertyOp26
 70
     0
102
RTVSPropertyOp27
 70
     0
102
RTVSPropertyOp28
 70
     1
102
RTVSPropertyOp29
 70
     1
102
RTVSPropertyOp30
 70
     1
102
RTVSPropertyOp31
 70
     1
102
RTVSPropertyOp32
 70
     1
  0
XRECORD
  5
DA9
102
{ACAD_REACTORS
330
DA8
102
}
330
DA8
100
AcDbXrecord
280
     1
102
RTVSPropertyOp0
 70
     1
102
RTVSPropertyOp1
 70
     1
102
RTVSPropertyOp2
 70
     1
102
RTVSPropertyOp3
 70
     1
102
RTVSPropertyOp4
 70
     1
102
RTVSPropertyOp5
 70
     1
102
RTVSPropertyOp6
 70
     1
102
RTVSPropertyOp7
 70
     1
102
RTVSPropertyOp8
 70
     1
102
RTVSPropertyOp9
 70
     1
102
RTVSPropertyOp10
 70
     1
102
RTVSPropertyOp11
 70
     1
102
RTVSPropertyOp12
 70
     1
102
RTVSPropertyOp13
 70
     1
102
RTVSPropertyOp14
 70
     1
102
RTVSPropertyOp15
 70
     1
102
RTVSPropertyOp16
 70
     1
102
RTVSPropertyOp17
 70
     1
102
RTVSPropertyOp18
 70
     1
102
RTVSPropertyOp19
 70
     1
102
RTVSPropertyOp20
 70
     1
102
RTVSPropertyOp21
 70
     1
102
RTVSPropertyOp22
 70
     1
102
RTVSPropertyOp23
 70
     1
102
RTVSPropertyOp24
 70
     1
102
RTVSPropertyOp25
 70
     1
102
RTVSPropertyOp26
 70
     1
102
RTVSPropertyOp27
 70
     1
102
RTVSPropertyOp28
 70
     1
102
RTVSPropertyOp29
 70
     1
102
RTVSPropertyOp30
 70
     1
102
RTVSPropertyOp31
 70
     1
102
RTVSPropertyOp32
 70
     1
  0
XRECORD
  5
DBF
102
{ACAD_REACTORS
330
DBE
102
}
330
DBE
100
AcDbXrecord
280
     1
102
RTVSPropertyOp0
 70
     1
102
RTVSPropertyOp1
 70
     1
102
RTVSPropertyOp2
 70
     1
102
RTVSPropertyOp3
 70
     1
102
RTVSPropertyOp4
 70
     1
102
RTVSPropertyOp5
 70
     1
102
RTVSPropertyOp6
 70
     1
102
RTVSPropertyOp7
 70
     1
102
RTVSPropertyOp8
 70
     1
102
RTVSPropertyOp9
 70
     1
102
RTVSPropertyOp10
 70
     1
102
RTVSPropertyOp11
 70
     1
102
RTVSPropertyOp12
 70
     1
102
RTVSPropertyOp13
 70
     1
102
RTVSPropertyOp14
 70
     1
102
RTVSPropertyOp15
 70
     1
102
RTVSPropertyOp16
 70
     1
102
RTVSPropertyOp17
 70
     1
102
RTVSPropertyOp18
 70
     1
102
RTVSPropertyOp19
 70
     1
102
RTVSPropertyOp20
 70
     1
102
RTVSPropertyOp21
 70
     1
102
RTVSPropertyOp22
 70
     1
102
RTVSPropertyOp23
 70
     1
102
RTVSPropertyOp24
 70
     1
102
RTVSPropertyOp25
 70
     1
102
RTVSPropertyOp26
 70
     1
102
RTVSPropertyOp27
 70
     1
102
RTVSPropertyOp28
 70
     1
102
RTVSPropertyOp29
 70
     1
102
RTVSPropertyOp30
 70
     1
102
RTVSPropertyOp31
 70
     1
102
RTVSPropertyOp32
 70
     1
  0
XRECORD
  5
DBD
102
{ACAD_REACTORS
330
DBC
102
}
330
DBC
100
AcDbXrecord
280
     1
102
RTVSPropertyOp0
 70
     1
102
RTVSPropertyOp1
 70
     1
102
RTVSPropertyOp2
 70
     1
102
RTVSPropertyOp3
 70
     1
102
RTVSPropertyOp4
 70
     1
102
RTVSPropertyOp5
 70
     1
102
RTVSPropertyOp6
 70
     1
102
RTVSPropertyOp7
 70
     1
102
RTVSPropertyOp8
 70
     1
102
RTVSPropertyOp9
 70
     1
102
RTVSPropertyOp10
 70
     1
102
RTVSPropertyOp11
 70
     1
102
RTVSPropertyOp12
 70
     1
102
RTVSPropertyOp13
 70
     1
102
RTVSPropertyOp14
 70
     1
102
RTVSPropertyOp15
 70
     1
102
RTVSPropertyOp16
 70
     1
102
RTVSPropertyOp17
 70
     1
102
RTVSPropertyOp18
 70
     1
102
RTVSPropertyOp19
 70
     1
102
RTVSPropertyOp20
 70
     1
102
RTVSPropertyOp21
 70
     1
102
RTVSPropertyOp22
 70
     1
102
RTVSPropertyOp23
 70
     1
102
RTVSPropertyOp24
 70
     1
102
RTVSPropertyOp25
 70
     1
102
RTVSPropertyOp26
 70
     1
102
RTVSPropertyOp27
 70
     1
102
RTVSPropertyOp28
 70
     1
102
RTVSPropertyOp29
 70
     1
102
RTVSPropertyOp30
 70
     1
102
RTVSPropertyOp31
 70
     1
102
RTVSPropertyOp32
 70
     1
  0
XRECORD
  5
DB7
102
{ACAD_REACTORS
330
DB6
102
}
330
DB6
100
AcDbXrecord
280
     1
102
RTVSPropertyOp0
 70
     1
102
RTVSPropertyOp1
 70
     1
102
RTVSPropertyOp2
 70
     1
102
RTVSPropertyOp3
 70
     1
102
RTVSPropertyOp4
 70
     1
102
RTVSPropertyOp5
 70
     1
102
RTVSPropertyOp6
 70
     1
102
RTVSPropertyOp7
 70
     1
102
RTVSPropertyOp8
 70
     1
102
RTVSPropertyOp9
 70
     1
102
RTVSPropertyOp10
 70
     1
102
RTVSPropertyOp11
 70
     1
102
RTVSPropertyOp12
 70
     1
102
RTVSPropertyOp13
 70
     1
102
RTVSPropertyOp14
 70
     1
102
RTVSPropertyOp15
 70
     1
102
RTVSPropertyOp16
 70
     1
102
RTVSPropertyOp17
 70
     1
102
RTVSPropertyOp18
 70
     1
102
RTVSPropertyOp19
 70
     1
102
RTVSPropertyOp20
 70
     1
102
RTVSPropertyOp21
 70
     1
102
RTVSPropertyOp22
 70
     1
102
RTVSPropertyOp23
 70
     1
102
RTVSPropertyOp24
 70
     1
102
RTVSPropertyOp25
 70
     1
102
RTVSPropertyOp26
 70
     1
102
RTVSPropertyOp27
 70
     1
102
RTVSPropertyOp28
 70
     1
102
RTVSPropertyOp29
 70
     1
102
RTVSPropertyOp30
 70
     1
102
RTVSPropertyOp31
 70
     1
102
RTVSPropertyOp32
 70
     1
  0
XRECORD
  5
DB9
102
{ACAD_REACTORS
330
DB8
102
}
330
DB8
100
AcDbXrecord
280
     1
102
RTVSPropertyOp0
 70
     1
102
RTVSPropertyOp1
 70
     1
102
RTVSPropertyOp2
 70
     1
102
RTVSPropertyOp3
 70
     1
102
RTVSPropertyOp4
 70
     1
102
RTVSPropertyOp5
 70
     1
102
RTVSPropertyOp6
 70
     1
102
RTVSPropertyOp7
 70
     1
102
RTVSPropertyOp8
 70
     1
102
RTVSPropertyOp9
 70
     1
102
RTVSPropertyOp10
 70
     1
102
RTVSPropertyOp11
 70
     1
102
RTVSPropertyOp12
 70
     1
102
RTVSPropertyOp13
 70
     1
102
RTVSPropertyOp14
 70
     1
102
RTVSPropertyOp15
 70
     1
102
RTVSPropertyOp16
 70
     1
102
RTVSPropertyOp17
 70
     1
102
RTVSPropertyOp18
 70
     1
102
RTVSPropertyOp19
 70
     1
102
RTVSPropertyOp20
 70
     1
102
RTVSPropertyOp21
 70
     1
102
RTVSPropertyOp22
 70
     1
102
RTVSPropertyOp23
 70
     1
102
RTVSPropertyOp24
 70
     1
102
RTVSPropertyOp25
 70
     1
102
RTVSPropertyOp26
 70
     1
102
RTVSPropertyOp27
 70
     1
102
RTVSPropertyOp28
 70
     1
102
RTVSPropertyOp29
 70
     1
102
RTVSPropertyOp30
 70
     1
102
RTVSPropertyOp31
 70
     1
102
RTVSPropertyOp32
 70
     1
  0
XRECORD
  5
DAF
102
{ACAD_REACTORS
330
DAE
102
}
330
DAE
100
AcDbXrecord
280
     1
102
RTVSPropertyOp0
 70
     1
102
RTVSPropertyOp1
 70
     1
102
RTVSPropertyOp2
 70
     1
102
RTVSPropertyOp3
 70
     1
102
RTVSPropertyOp4
 70
     1
102
RTVSPropertyOp5
 70
     1
102
RTVSPropertyOp6
 70
     1
102
RTVSPropertyOp7
 70
     1
102
RTVSPropertyOp8
 70
     1
102
RTVSPropertyOp9
 70
     1
102
RTVSPropertyOp10
 70
     1
102
RTVSPropertyOp11
 70
     1
102
RTVSPropertyOp12
 70
     1
102
RTVSPropertyOp13
 70
     1
102
RTVSPropertyOp14
 70
     1
102
RTVSPropertyOp15
 70
     1
102
RTVSPropertyOp16
 70
     1
102
RTVSPropertyOp17
 70
     1
102
RTVSPropertyOp18
 70
     1
102
RTVSPropertyOp19
 70
     1
102
RTVSPropertyOp20
 70
     1
102
RTVSPropertyOp21
 70
     1
102
RTVSPropertyOp22
 70
     1
102
RTVSPropertyOp23
 70
     1
102
RTVSPropertyOp24
 70
     1
102
RTVSPropertyOp25
 70
     1
102
RTVSPropertyOp26
 70
     1
102
RTVSPropertyOp27
 70
     1
102
RTVSPropertyOp28
 70
     1
102
RTVSPropertyOp29
 70
     1
102
RTVSPropertyOp30
 70
     1
102
RTVSPropertyOp31
 70
     1
102
RTVSPropertyOp32
 70
     1
  0
XRECORD
  5
DA3
102
{ACAD_REACTORS
330
DA2
102
}
330
DA2
100
AcDbXrecord
280
     1
102
RTVSPropertyOp0
 70
     1
102
RTVSPropertyOp1
 70
     1
102
RTVSPropertyOp2
 70
     1
102
RTVSPropertyOp3
 70
     1
102
RTVSPropertyOp4
 70
     1
102
RTVSPropertyOp5
 70
     1
102
RTVSPropertyOp6
 70
     1
102
RTVSPropertyOp7
 70
     1
102
RTVSPropertyOp8
 70
     1
102
RTVSPropertyOp9
 70
     1
102
RTVSPropertyOp10
 70
     1
102
RTVSPropertyOp11
 70
     1
102
RTVSPropertyOp12
 70
     1
102
RTVSPropertyOp13
 70
     1
102
RTVSPropertyOp14
 70
     1
102
RTVSPropertyOp15
 70
     1
102
RTVSPropertyOp16
 70
     1
102
RTVSPropertyOp17
 70
     1
102
RTVSPropertyOp18
 70
     1
102
RTVSPropertyOp19
 70
     1
102
RTVSPropertyOp20
 70
     1
102
RTVSPropertyOp21
 70
     1
102
RTVSPropertyOp22
 70
     1
102
RTVSPropertyOp23
 70
     1
102
RTVSPropertyOp24
 70
     1
102
RTVSPropertyOp25
 70
     1
102
RTVSPropertyOp26
 70
     1
102
RTVSPropertyOp27
 70
     1
102
RTVSPropertyOp28
 70
     1
102
RTVSPropertyOp29
 70
     1
102
RTVSPropertyOp30
 70
     1
102
RTVSPropertyOp31
 70
     1
102
RTVSPropertyOp32
 70
     1
  0
XRECORD
  5
DBB
102
{ACAD_REACTORS
330
DBA
102
}
330
DBA
100
AcDbXrecord
280
     1
102
RTVSPropertyOp0
 70
     1
102
RTVSPropertyOp1
 70
     1
102
RTVSPropertyOp2
 70
     1
102
RTVSPropertyOp3
 70
     1
102
RTVSPropertyOp4
 70
     1
102
RTVSPropertyOp5
 70
     1
102
RTVSPropertyOp6
 70
     1
102
RTVSPropertyOp7
 70
     1
102
RTVSPropertyOp8
 70
     1
102
RTVSPropertyOp9
 70
     1
102
RTVSPropertyOp10
 70
     1
102
RTVSPropertyOp11
 70
     1
102
RTVSPropertyOp12
 70
     1
102
RTVSPropertyOp13
 70
     1
102
RTVSPropertyOp14
 70
     1
102
RTVSPropertyOp15
 70
     1
102
RTVSPropertyOp16
 70
     1
102
RTVSPropertyOp17
 70
     1
102
RTVSPropertyOp18
 70
     1
102
RTVSPropertyOp19
 70
     1
102
RTVSPropertyOp20
 70
     1
102
RTVSPropertyOp21
 70
     1
102
RTVSPropertyOp22
 70
     1
102
RTVSPropertyOp23
 70
     1
102
RTVSPropertyOp24
 70
     1
102
RTVSPropertyOp25
 70
     1
102
RTVSPropertyOp26
 70
     1
102
RTVSPropertyOp27
 70
     1
102
RTVSPropertyOp28
 70
     1
102
RTVSPropertyOp29
 70
     1
102
RTVSPropertyOp30
 70
     1
102
RTVSPropertyOp31
 70
     1
102
RTVSPropertyOp32
 70
     1
  0
ENDSEC
  0
EOF
