  0
SECTION
  2
HEADER
  9
$ACADVER
  1
AC1015
  9
$ACADMAINTVER
 70
    18
  9
$DWGCODEPAGE
  3
ANSI_1252
  9
$INSBASE
 10
0.0
 20
0.0
 30
0.0
  9
$EXTMIN
 10
0.0
 20
0.0
 30
0.0
  9
$EXTMAX
 10
85.0
 20
55.0
 30
0.0
  9
$LIMMIN
 10
0.0
 20
0.0
  9
$LIMMAX
 10
85.0
 20
55.0
  9
$ORTHOMODE
 70
     0
  9
$REGENMODE
 70
     1
  9
$FILLMODE
 70
     1
  9
$QTEXTMODE
 70
     0
  9
$MIRRTEXT
 70
     0
  9
$LTSCALE
 40
5.0
  9
$ATTMODE
 70
     1
  9
$TEXTSIZE
 40
0.2
  9
$TRACEWID
 40
0.05
  9
$TEXTSTYLE
  7
Standard
  9
$CLAYER
  8
0
  9
$CELTYPE
  6
ByLayer
  9
$CECOLOR
 62
   256
  9
$CELTSCALE
 40
1.0
  9
$DISPSILH
 70
     0
  9
$DIMSCALE
 40
1.0
  9
$DIMASZ
 40
0.0708661417322835
  9
$DIMEXO
 40
0.0625
  9
$DIMDLI
 40
0.38
  9
$DIMRND
 40
0.0
  9
$DIMDLE
 40
0.0
  9
$DIMEXE
 40
0.18
  9
$DIMTP
 40
0.0
  9
$DIMTM
 40
0.0
  9
$DIMTXT
 40
0.0708661417322835
  9
$DIMCEN
 40
0.09
  9
$DIMTSZ
 40
0.0
  9
$DIMTOL
 70
     0
  9
$DIMLIM
 70
     0
  9
$DIMTIH
 70
     1
  9
$DIMTOH
 70
     1
  9
$DIMSE1
 70
     0
  9
$DIMSE2
 70
     0
  9
$DIMTAD
 70
     0
  9
$DIMZIN
 70
     0
  9
$DIMBLK
  1

  9
$DIMASO
 70
     1
  9
$DIMSHO
 70
     1
  9
$DIMPOST
  1

  9
$DIMAPOST
  1

  9
$DIMALT
 70
     0
  9
$DIMALTD
 70
     2
  9
$DIMALTF
 40
25.4
  9
$DIMLFAC
 40
1.0
  9
$DIMTOFL
 70
     0
  9
$DIMTVP
 40
0.0
  9
$DIMTIX
 70
     0
  9
$DIMSOXD
 70
     0
  9
$DIMSAH
 70
     0
  9
$DIMBLK1
  1

  9
$DIMBLK2
  1

  9
$DIMSTYLE
  2
STANDARD
  9
$DIMCLRD
 70
     0
  9
$DIMCLRE
 70
     0
  9
$DIMCLRT
 70
     0
  9
$DIMTFAC
 40
1.0
  9
$DIMGAP
 40
0.09
  9
$DIMJUST
 70
     0
  9
$DIMSD1
 70
     0
  9
$DIMSD2
 70
     0
  9
$DIMTOLJ
 70
     1
  9
$DIMTZIN
 70
     0
  9
$DIMALTZ
 70
     0
  9
$DIMALTTZ
 70
     0
  9
$DIMUPT
 70
     0
  9
$DIMDEC
 70
     4
  9
$DIMTDEC
 70
     4
  9
$DIMALTU
 70
     2
  9
$DIMALTTD
 70
     2
  9
$DIMTXSTY
  7
Standard
  9
$DIMAUNIT
 70
     0
  9
$DIMADEC
 70
     0
  9
$DIMALTRND
 40
0.0
  9
$DIMAZIN
 70
     0
  9
$DIMDSEP
 70
    46
  9
$DIMATFIT
 70
     3
  9
$DIMFRAC
 70
     0
  9
$DIMLDRBLK
  1

  9
$DIMLUNIT
 70
     2
  9
$DIMLWD
 70
    -2
  9
$DIMLWE
 70
    -2
  9
$DIMTMOVE
 70
     0
  9
$LUNITS
 70
     2
  9
$LUPREC
 70
     4
  9
$SKETCHINC
 40
0.1
  9
$FILLETRAD
 40
0.0
  9
$AUNITS
 70
     0
  9
$AUPREC
 70
     0
  9
$MENU
  1
.
  9
$ELEVATION
 40
0.0
  9
$PELEVATION
 40
0.0
  9
$THICKNESS
 40
0.0
  9
$LIMCHECK
 70
     0
  9
$CHAMFERA
 40
0.0
  9
$CHAMFERB
 40
0.0
  9
$CHAMFERC
 40
0.0
  9
$CHAMFERD
 40
0.0
  9
$SKPOLY
 70
     0
  9
$TDCREATE
 40
2455944.484439433
  9
$TDUCREATE
 40
2455944.734439433
  9
$TDUPDATE
 40
2455944.484439433
  9
$TDUUPDATE
 40
2455944.734439433
  9
$TDINDWG
 40
0.0000367130
  9
$TDUSRTIMER
 40
0.0000367130
  9
$USRTIMER
 70
     1
  9
$ANGBASE
 50
0.0
  9
$ANGDIR
 70
     0
  9
$PDMODE
 70
     0
  9
$PDSIZE
 40
0.0
  9
$PLINEWID
 40
0.0
  9
$SPLFRAME
 70
     0
  9
$SPLINETYPE
 70
     6
  9
$SPLINESEGS
 70
     8
  9
$HANDSEED
  5
D2E
  9
$SURFTAB1
 70
     6
  9
$SURFTAB2
 70
     6
  9
$SURFTYPE
 70
     6
  9
$SURFU
 70
     6
  9
$SURFV
 70
     6
  9
$UCSBASE
  2

  9
$UCSNAME
  2

  9
$UCSORG
 10
0.0
 20
0.0
 30
0.0
  9
$UCSXDIR
 10
1.0
 20
0.0
 30
0.0
  9
$UCSYDIR
 10
0.0
 20
1.0
 30
0.0
  9
$UCSORTHOREF
  2

  9
$UCSORTHOVIEW
 70
     0
  9
$UCSORGTOP
 10
0.0
 20
0.0
 30
0.0
  9
$UCSORGBOTTOM
 10
0.0
 20
0.0
 30
0.0
  9
$UCSORGLEFT
 10
0.0
 20
0.0
 30
0.0
  9
$UCSORGRIGHT
 10
0.0
 20
0.0
 30
0.0
  9
$UCSORGFRONT
 10
0.0
 20
0.0
 30
0.0
  9
$UCSORGBACK
 10
0.0
 20
0.0
 30
0.0
  9
$PUCSBASE
  2

  9
$PUCSNAME
  2

  9
$PUCSORG
 10
0.0
 20
0.0
 30
0.0
  9
$PUCSXDIR
 10
1.0
 20
0.0
 30
0.0
  9
$PUCSYDIR
 10
0.0
 20
1.0
 30
0.0
  9
$PUCSORTHOREF
  2

  9
$PUCSORTHOVIEW
 70
     0
  9
$PUCSORGTOP
 10
0.0
 20
0.0
 30
0.0
  9
$PUCSORGBOTTOM
 10
0.0
 20
0.0
 30
0.0
  9
$PUCSORGLEFT
 10
0.0
 20
0.0
 30
0.0
  9
$PUCSORGRIGHT
 10
0.0
 20
0.0
 30
0.0
  9
$PUCSORGFRONT
 10
0.0
 20
0.0
 30
0.0
  9
$PUCSORGBACK
 10
0.0
 20
0.0
 30
0.0
  9
$USERI1
 70
     0
  9
$USERI2
 70
     0
  9
$USERI3
 70
     0
  9
$USERI4
 70
     0
  9
$USERI5
 70
     0
  9
$USERR1
 40
0.0
  9
$USERR2
 40
0.0
  9
$USERR3
 40
0.0
  9
$USERR4
 40
0.0
  9
$USERR5
 40
0.0
  9
$WORLDVIEW
 70
     1
  9
$SHADEDGE
 70
     3
  9
$SHADEDIF
 70
    70
  9
$TILEMODE
 70
     1
  9
$MAXACTVP
 70
    64
  9
$PINSBASE
 10
0.0
 20
0.0
 30
0.0
  9
$PLIMCHECK
 70
     0
  9
$PEXTMIN
 10
0.0
 20
0.0
 30
0.0
  9
$PEXTMAX
 10
85.0
 20
55.0
 30
0.0
  9
$PLIMMIN
 10
0.0
 20
0.0
  9
$PLIMMAX
 10
85.0
 20
55.0
  9
$UNITMODE
 70
     0
  9
$VISRETAIN
 70
     1
  9
$PLINEGEN
 70
     0
  9
$PSLTSCALE
 70
     1
  9
$TREEDEPTH
 70
  3020
  9
$CMLSTYLE
  2
Standard
  9
$CMLJUST
 70
     0
  9
$CMLSCALE
 40
1.0
  9
$PROXYGRAPHICS
 70
     1
  9
$MEASUREMENT
 70
     0
  9
$CELWEIGHT
370
    -1
  9
$ENDCAPS
280
     0
  9
$JOINSTYLE
280
     0
  9
$LWDISPLAY
290
     0
  9
$INSUNITS
 70
     1
  9
$HYPERLINKBASE
  1

  9
$STYLESHEET
  1

  9
$XEDIT
290
     1
  9
$CEPSNTYPE
380
     0
  9
$PSTYLEMODE
290
     1
  9
$FINGERPRINTGUID
  2
{19DAEE51-F3AD-4D88-9A92-ED58B78CF818}
  9
$VERSIONGUID
  2
{937B5D82-4B24-4874-89BF-5FA5A3E40A8D}
  9
$EXTNAMES
290
     1
  9
$PSVPSCALE
 40
0.0
  9
$OLESTARTUP
290
     0
  0
ENDSEC
  0
SECTION
  2
CLASSES
  0
CLASS
  1
ACDBDICTIONARYWDFLT
  2
AcDbDictionaryWithDefault
  3
ObjectDBX Classes
 90
        0
280
     0
281
     0
  0
CLASS
  1
MATERIAL
  2
AcDbMaterial
  3
ObjectDBX Classes
 90
     1153
280
     0
281
     0
  0
CLASS
  1
VISUALSTYLE
  2
AcDbVisualStyle
  3
ObjectDBX Classes
 90
     4095
280
     0
281
     0
  0
CLASS
  1
SCALE
  2
AcDbScale
  3
ObjectDBX Classes
 90
     1153
280
     0
281
     0
  0
CLASS
  1
TABLESTYLE
  2
AcDbTableStyle
  3
ObjectDBX Classes
 90
     4095
280
     0
281
     0
  0
CLASS
  1
MLEADERSTYLE
  2
AcDbMLeaderStyle
  3
ACDB_MLEADERSTYLE_CLASS
 90
     4095
280
     0
281
     0
  0
CLASS
  1
DICTIONARYVAR
  2
AcDbDictionaryVar
  3
ObjectDBX Classes
 90
        0
280
     0
281
     0
  0
CLASS
  1
CELLSTYLEMAP
  2
AcDbCellStyleMap
  3
ObjectDBX Classes
 90
     1152
280
     0
281
     0
  0
CLASS
  1
ACDBPLACEHOLDER
  2
AcDbPlaceHolder
  3
ObjectDBX Classes
 90
        0
280
     0
281
     0
  0
CLASS
  1
LAYOUT
  2
AcDbLayout
  3
ObjectDBX Classes
 90
        0
280
     0
281
     0
  0
ENDSEC
  0
SECTION
  2
TABLES
  0
TABLE
  2
VPORT
  5
8
330
0
100
AcDbSymbolTable
 70
     1
  0
VPORT
  5
57
330
8
100
AcDbSymbolTableRecord
100
AcDbViewportTableRecord
  2
*Active
 70
     0
 10
0.0
 20
0.0
 11
1.0
 21
1.0
 12
42.5
 22
27.5
 13
0.0
 23
0.0
 14
1.0
 24
1.0
 15
0.0
 25
0.0
 16
0.0
 26
0.0
 36
1.0
 17
0.0
 27
0.0
 37
0.0
 40
55.0
 41
1.545454545454545
 42
50.0
 43
0.0
 44
0.0
 50
0.0
 51
0.0
 71
     0
 72
   100
 73
     1
 74
     1
 75
     0
 76
     0
 77
     0
 78
     0
281
     0
 65
     1
110
0.0
120
0.0
130
0.0
111
1.0
121
0.0
131
0.0
112
0.0
122
1.0
132
0.0
 79
     0
146
0.0
  0
ENDTAB
  0
TABLE
  2
LTYPE
  5
5
330
0
100
AcDbSymbolTable
 70
    59
  0
LTYPE
  5
5B
330
5
100
AcDbSymbolTableRecord
100
AcDbLinetypeTableRecord
  2
ByBlock
 70
     0
  3

 72
    65
 73
     0
 40
0.0
  0
LTYPE
  5
5C
330
5
100
AcDbSymbolTableRecord
100
AcDbLinetypeTableRecord
  2
ByLayer
 70
     0
  3

 72
    65
 73
     0
 40
0.0
  0
LTYPE
  5
5D
330
5
100
AcDbSymbolTableRecord
100
AcDbLinetypeTableRecord
  2
Continuous
 70
     0
  3
Solid line
 72
    65
 73
     0
 40
0.0
  0
LTYPE
  5
DD
330
5
100
AcDbSymbolTableRecord
100
AcDbLinetypeTableRecord
  2
BY_STANDARD
 70
     0
  3
By Standard ____________    ____    ____   _
 72
    65
 73
     6
 40
1.240299999999999
 49
0.6614
 74
     0
 49
-0.0827
 74
     0
 49
0.1654
 74
     0
 49
-0.0827
 74
     0
 49
0.1654
 74
     0
 49
-0.0827
 74
     0
  0
LTYPE
  5
DE
330
5
100
AcDbSymbolTableRecord
100
AcDbLinetypeTableRecord
  2
CHAIN
 70
     0
  3
Chain ____ _ ____ _ ____ _ ____ _ ____ _ ____
 72
    65
 73
     4
 40
0.7087
 49
0.4724000000000001
 74
     0
 49
-0.0591
 74
     0
 49
0.1181
 74
     0
 49
-0.0591
 74
     0
  0
LTYPE
  5
DF
330
5
100
AcDbSymbolTableRecord
100
AcDbLinetypeTableRecord
  2
DASH_DOT
 70
     0
  3
Dash dot __ . __ . __ . __ . __ . __ . __ . __
 72
    65
 73
     4
 40
0.37
 49
0.24
 74
     0
 49
-0.06
 74
     0
 49
0.01
 74
     0
 49
-0.06
 74
     0
  0
LTYPE
  5
E0
330
5
100
AcDbSymbolTableRecord
100
AcDbLinetypeTableRecord
  2
DOUBLE_DASH_DOT
 70
     0
  3
Double-Dash Dot __ __ . __ __ . __ __ . __ _
 72
    65
 73
     6
 40
0.4398
 49
0.24
 74
     0
 49
-0.06
 74
     0
 49
0.0098
 74
     0
 49
-0.06
 74
     0
 49
0.01
 74
     0
 49
-0.06
 74
     0
  0
LTYPE
  5
E1
330
5
100
AcDbSymbolTableRecord
100
AcDbLinetypeTableRecord
  2
DASH_TRIPLE_DOT
 70
     0
  3
Dash Triple-Dot _ . . . _ . . . _ . . . _
 72
    65
 73
     8
 40
0.51
 49
0.24
 74
     0
 49
-0.06
 74
     0
 49
0.01
 74
     0
 49
-0.06
 74
     0
 49
0.01
 74
     0
 49
-0.06
 74
     0
 49
0.01
 74
     0
 49
-0.06
 74
     0
  0
LTYPE
  5
E2
330
5
100
AcDbSymbolTableRecord
100
AcDbLinetypeTableRecord
  2
DASHED
 70
     0
  3
Dashed __ __ __ __ __ __ __ __ __ __ __ __ __ _
 72
    65
 73
     2
 40
0.2067
 49
0.1654
 74
     0
 49
-0.0413
 74
     0
  0
LTYPE
  5
E3
330
5
100
AcDbSymbolTableRecord
100
AcDbLinetypeTableRecord
  2
DASH_DOUBLE_DOT
 70
     0
  3
Dash Double-Dot __ . . __ . . __ . . __ . .
 72
    65
 73
     6
 40
0.4398
 49
0.24
 74
     0
 49
-0.06
 74
     0
 49
0.0098
 74
     0
 49
-0.06
 74
     0
 49
0.01
 74
     0
 49
-0.06
 74
     0
  0
LTYPE
  5
E4
330
5
100
AcDbSymbolTableRecord
100
AcDbLinetypeTableRecord
  2
DASHED_SPACE
 70
     0
  3
Dashed Space __ __ __ __ __ __ __ __ __ __ __ _
 72
    65
 73
     2
 40
0.2067
 49
0.1654
 74
     0
 49
-0.0413
 74
     0
  0
LTYPE
  5
E5
330
5
100
AcDbSymbolTableRecord
100
AcDbLinetypeTableRecord
  2
DOTTED
 70
     0
  3
Dotted . . . . . . . . . . . . . . . . . . . . 
 72
    65
 73
     2
 40
0.0482
 49
0.0069
 74
     0
 49
-0.0413
 74
     0
  0
LTYPE
  5
E6
330
5
100
AcDbSymbolTableRecord
100
AcDbLinetypeTableRecord
  2
DOUBLE_DASH_CHAIN
 70
     0
  3
Double-Dash Chain ______  __  __  ______  __  _
 72
    65
 73
     6
 40
1.240299999999999
 49
0.6614
 74
     0
 49
-0.0827
 74
     0
 49
0.1654
 74
     0
 49
-0.0827
 74
     0
 49
0.1654
 74
     0
 49
-0.0827
 74
     0
  0
LTYPE
  5
E8
330
5
100
AcDbSymbolTableRecord
100
AcDbLinetypeTableRecord
  2
DOUBLE_DASH_DOUBLE_DOT
 70
     0
  3
Double-Dash Double-dot _ _ . . _ _ . . _
 72
    65
 73
     8
 40
0.7400000000000001
 49
0.24
 74
     0
 49
-0.06
 74
     0
 49
0.24
 74
     0
 49
-0.06
 74
     0
 49
0.01
 74
     0
 49
-0.06
 74
     0
 49
0.01
 74
     0
 49
-0.06
 74
     0
  0
LTYPE
  5
E9
330
5
100
AcDbSymbolTableRecord
100
AcDbLinetypeTableRecord
  2
DOUBLE_DASH_TRIPLE_DOT
 70
     0
  3
Double Dash Triple Dot __ __ . . . __ __ . .
 72
    65
 73
    10
 40
0.8100000000000001
 49
0.24
 74
     0
 49
-0.06
 74
     0
 49
0.24
 74
     0
 49
-0.06
 74
     0
 49
0.01
 74
     0
 49
-0.06
 74
     0
 49
0.01
 74
     0
 49
-0.06
 74
     0
 49
0.01
 74
     0
 49
-0.06
 74
     0
  0
LTYPE
  5
EA
330
5
100
AcDbSymbolTableRecord
100
AcDbLinetypeTableRecord
  2
LONG_DASH_DOTTED
 70
     0
  3
Long Dash Dotted ____ . ____ . ____ . ____ . _
 72
    65
 73
     4
 40
0.3543
 49
0.2362
 74
     0
 49
-0.0295
 74
     0
 49
0.0591
 74
     0
 49
-0.0295
 74
     0
  0
LTYPE
  5
EB
330
5
100
AcDbSymbolTableRecord
100
AcDbLinetypeTableRecord
  2
LONG_DASH_DOUBLE_DOT
 70
     0
  3
Long Dash Double Dot ________  .  .  ________  
 72
    65
 73
     6
 40
0.6799999999999999
 49
0.48
 74
     0
 49
-0.06
 74
     0
 49
0.01
 74
     0
 49
-0.06
 74
     0
 49
0.01
 74
     0
 49
-0.06
 74
     0
  0
LTYPE
  5
EC
330
5
100
AcDbSymbolTableRecord
100
AcDbLinetypeTableRecord
  2
LONG_DASH_TRIPLE_DOT
 70
     0
  3
Long Dash Triple Dot ____ ... ____ ... ____
 72
    65
 73
     8
 40
0.3689
 49
0.2362
 74
     0
 49
-0.0295
 74
     0
 49
0.0049
 74
     0
 49
-0.0295
 74
     0
 49
0.0049
 74
     0
 49
-0.0295
 74
     0
 49
0.0049
 74
     0
 49
-0.0295
 74
     0
  0
LTYPE
  5
ED
330
5
100
AcDbSymbolTableRecord
100
AcDbLinetypeTableRecord
  2
BORDER
 70
     0
  3
Border __ __ . __ __ . __ __ . __ __ . __ __ .
 72
    65
 73
     6
 40
1.75
 49
0.5
 74
     0
 49
-0.25
 74
     0
 49
0.5
 74
     0
 49
-0.25
 74
     0
 49
0.0
 74
     0
 49
-0.25
 74
     0
  0
LTYPE
  5
EE
330
5
100
AcDbSymbolTableRecord
100
AcDbLinetypeTableRecord
  2
BORDER2
 70
     0
  3
Border (.5x) __.__.__.__.__.__.__.__.__.__.__.
 72
    65
 73
     6
 40
0.875
 49
0.25
 74
     0
 49
-0.125
 74
     0
 49
0.25
 74
     0
 49
-0.125
 74
     0
 49
0.0
 74
     0
 49
-0.125
 74
     0
  0
LTYPE
  5
EF
330
5
100
AcDbSymbolTableRecord
100
AcDbLinetypeTableRecord
  2
BORDERX2
 70
     0
  3
Border (2x) ____  ____  .  ____  ____  .  ___
 72
    65
 73
     6
 40
3.5
 49
1.0
 74
     0
 49
-0.5
 74
     0
 49
1.0
 74
     0
 49
-0.5
 74
     0
 49
0.0
 74
     0
 49
-0.5
 74
     0
  0
LTYPE
  5
F0
330
5
100
AcDbSymbolTableRecord
100
AcDbLinetypeTableRecord
  2
CENTER
 70
     0
  3
Center ____ _ ____ _ ____ _ ____ _ ____ _ ____
 72
    65
 73
     4
 40
2.0
 49
1.25
 74
     0
 49
-0.25
 74
     0
 49
0.25
 74
     0
 49
-0.25
 74
     0
  0
LTYPE
  5
F1
330
5
100
AcDbSymbolTableRecord
100
AcDbLinetypeTableRecord
  2
CENTER2
 70
     0
  3
Center (.5x) ___ _ ___ _ ___ _ ___ _ ___ _ ___
 72
    65
 73
     4
 40
1.125
 49
0.75
 74
     0
 49
-0.125
 74
     0
 49
0.125
 74
     0
 49
-0.125
 74
     0
  0
LTYPE
  5
F2
330
5
100
AcDbSymbolTableRecord
100
AcDbLinetypeTableRecord
  2
CENTERX2
 70
     0
  3
Center (2x) ________  __  ________  __  _____
 72
    65
 73
     4
 40
4.0
 49
2.5
 74
     0
 49
-0.5
 74
     0
 49
0.5
 74
     0
 49
-0.5
 74
     0
  0
LTYPE
  5
F3
330
5
100
AcDbSymbolTableRecord
100
AcDbLinetypeTableRecord
  2
DASHDOT2
 70
     0
  3
Dash dot (.5x) _._._._._._._._._._._._._._._.
 72
    65
 73
     4
 40
0.5
 49
0.25
 74
     0
 49
-0.125
 74
     0
 49
0.0
 74
     0
 49
-0.125
 74
     0
  0
LTYPE
  5
F4
330
5
100
AcDbSymbolTableRecord
100
AcDbLinetypeTableRecord
  2
DASHDOTX2
 70
     0
  3
Dash dot (2x) ____  .  ____  .  ____  .  ___
 72
    65
 73
     4
 40
2.0
 49
1.0
 74
     0
 49
-0.5
 74
     0
 49
0.0
 74
     0
 49
-0.5
 74
     0
  0
LTYPE
  5
F6
330
5
100
AcDbSymbolTableRecord
100
AcDbLinetypeTableRecord
  2
DASHED2
 70
     0
  3
Dashed (.5x) _ _ _ _ _ _ _ _ _ _ _ _ _ _ _ _ _
 72
    65
 73
     2
 40
0.375
 49
0.25
 74
     0
 49
-0.125
 74
     0
  0
LTYPE
  5
F7
330
5
100
AcDbSymbolTableRecord
100
AcDbLinetypeTableRecord
  2
DASHEDX2
 70
     0
  3
Dashed (2x) ____  ____  ____  ____  ____  ___
 72
    65
 73
     2
 40
1.5
 49
1.0
 74
     0
 49
-0.5
 74
     0
  0
LTYPE
  5
F8
330
5
100
AcDbSymbolTableRecord
100
AcDbLinetypeTableRecord
  2
DIVIDE
 70
     0
  3
Divide ____ . . ____ . . ____ . . ____ . . ____
 72
    65
 73
     6
 40
1.25
 49
0.5
 74
     0
 49
-0.25
 74
     0
 49
0.0
 74
     0
 49
-0.25
 74
     0
 49
0.0
 74
     0
 49
-0.25
 74
     0
  0
LTYPE
  5
F9
330
5
100
AcDbSymbolTableRecord
100
AcDbLinetypeTableRecord
  2
DIVIDE2
 70
     0
  3
Divide (.5x) __..__..__..__..__..__..__..__.._
 72
    65
 73
     6
 40
0.625
 49
0.25
 74
     0
 49
-0.125
 74
     0
 49
0.0
 74
     0
 49
-0.125
 74
     0
 49
0.0
 74
     0
 49
-0.125
 74
     0
  0
LTYPE
  5
FA
330
5
100
AcDbSymbolTableRecord
100
AcDbLinetypeTableRecord
  2
DIVIDEX2
 70
     0
  3
Divide (2x) ________  .  .  ________  .  .  _
 72
    65
 73
     6
 40
2.5
 49
1.0
 74
     0
 49
-0.5
 74
     0
 49
0.0
 74
     0
 49
-0.5
 74
     0
 49
0.0
 74
     0
 49
-0.5
 74
     0
  0
LTYPE
  5
FB
330
5
100
AcDbSymbolTableRecord
100
AcDbLinetypeTableRecord
  2
DOT
 70
     0
  3
Dot . . . . . . . . . . . . . . . . . . . . . .
 72
    65
 73
     2
 40
0.25
 49
0.0
 74
     0
 49
-0.25
 74
     0
  0
LTYPE
  5
FC
330
5
100
AcDbSymbolTableRecord
100
AcDbLinetypeTableRecord
  2
DOT2
 70
     0
  3
Dot (.5x) .....................................
 72
    65
 73
     2
 40
0.125
 49
0.0
 74
     0
 49
-0.125
 74
     0
  0
LTYPE
  5
FD
330
5
100
AcDbSymbolTableRecord
100
AcDbLinetypeTableRecord
  2
DOTX2
 70
     0
  3
Dot (2x) .  .  .  .  .  .  .  .  .  .  .  .  . 
 72
    65
 73
     2
 40
0.5
 49
0.0
 74
     0
 49
-0.5
 74
     0
  0
LTYPE
  5
FE
330
5
100
AcDbSymbolTableRecord
100
AcDbLinetypeTableRecord
  2
HIDDEN
 70
     0
  3
Hidden __ __ __ __ __ __ __ __ __ __ __ __ __ _
 72
    65
 73
     2
 40
0.375
 49
0.25
 74
     0
 49
-0.125
 74
     0
  0
LTYPE
  5
FF
330
5
100
AcDbSymbolTableRecord
100
AcDbLinetypeTableRecord
  2
HIDDEN2
 70
     0
  3
Hidden (.5x) _ _ _ _ _ _ _ _ _ _ _ _ _ _ _ _ _
 72
    65
 73
     2
 40
0.1875
 49
0.125
 74
     0
 49
-0.0625
 74
     0
  0
LTYPE
  5
100
330
5
100
AcDbSymbolTableRecord
100
AcDbLinetypeTableRecord
  2
HIDDENX2
 70
     0
  3
Hidden (2x) ____ ____ ____ ____ ____ ____ ____
 72
    65
 73
     2
 40
0.75
 49
0.5
 74
     0
 49
-0.25
 74
     0
  0
LTYPE
  5
101
330
5
100
AcDbSymbolTableRecord
100
AcDbLinetypeTableRecord
  2
PHANTOM
 70
     0
  3
Phantom ______  __  __  ______  __  __  ______
 72
    65
 73
     6
 40
2.5
 49
1.25
 74
     0
 49
-0.25
 74
     0
 49
0.25
 74
     0
 49
-0.25
 74
     0
 49
0.25
 74
     0
 49
-0.25
 74
     0
  0
LTYPE
  5
102
330
5
100
AcDbSymbolTableRecord
100
AcDbLinetypeTableRecord
  2
PHANTOM2
 70
     0
  3
Phantom (.5x) ___ _ _ ___ _ _ ___ _ _ ___ _ _
 72
    65
 73
     6
 40
1.25
 49
0.625
 74
     0
 49
-0.125
 74
     0
 49
0.125
 74
     0
 49
-0.125
 74
     0
 49
0.125
 74
     0
 49
-0.125
 74
     0
  0
LTYPE
  5
103
330
5
100
AcDbSymbolTableRecord
100
AcDbLinetypeTableRecord
  2
PHANTOMX2
 70
     0
  3
Phantom (2x) ____________    ____    ____   _
 72
    65
 73
     6
 40
5.0
 49
2.5
 74
     0
 49
-0.5
 74
     0
 49
0.5
 74
     0
 49
-0.5
 74
     0
 49
0.5
 74
     0
 49
-0.5
 74
     0
  0
LTYPE
  5
104
330
5
100
AcDbSymbolTableRecord
100
AcDbLinetypeTableRecord
  2
ACAD_ISO02W100
 70
     0
  3
ISO dash __ __ __ __ __ __ __ __ __ __ __ __ __
 72
    65
 73
     2
 40
0.59
 49
0.47
 74
     0
 49
-0.12
 74
     0
  0
LTYPE
  5
105
330
5
100
AcDbSymbolTableRecord
100
AcDbLinetypeTableRecord
  2
ACAD_ISO03W100
 70
     0
  3
ISO dash space __    __    __    __    __    __
 72
    65
 73
     2
 40
1.179999999999999
 49
0.47
 74
     0
 49
-0.71
 74
     0
  0
LTYPE
  5
106
330
5
100
AcDbSymbolTableRecord
100
AcDbLinetypeTableRecord
  2
ACAD_ISO04W100
 70
     0
  3
ISO long-dash dot ____ . ____ . ____ . ____ . _
 72
    65
 73
     4
 40
1.179999999999999
 49
0.9399999999999998
 74
     0
 49
-0.12
 74
     0
 49
0.0
 74
     0
 49
-0.12
 74
     0
  0
LTYPE
  5
107
330
5
100
AcDbSymbolTableRecord
100
AcDbLinetypeTableRecord
  2
ACAD_ISO05W100
 70
     0
  3
ISO long-dash double-dot ____ .. ____ .. ____ .
 72
    65
 73
     6
 40
1.299999999999999
 49
0.9399999999999998
 74
     0
 49
-0.12
 74
     0
 49
0.0
 74
     0
 49
-0.12
 74
     0
 49
0.0
 74
     0
 49
-0.12
 74
     0
  0
LTYPE
  5
108
330
5
100
AcDbSymbolTableRecord
100
AcDbLinetypeTableRecord
  2
ACAD_ISO06W100
 70
     0
  3
ISO long-dash triple-dot ____ ... ____ ... ____
 72
    65
 73
     8
 40
1.419999999999999
 49
0.9399999999999998
 74
     0
 49
-0.12
 74
     0
 49
0.0
 74
     0
 49
-0.12
 74
     0
 49
0.0
 74
     0
 49
-0.12
 74
     0
 49
0.0
 74
     0
 49
-0.12
 74
     0
  0
LTYPE
  5
109
330
5
100
AcDbSymbolTableRecord
100
AcDbLinetypeTableRecord
  2
ACAD_ISO07W100
 70
     0
  3
ISO dot . . . . . . . . . . . . . . . . . . . .
 72
    65
 73
     2
 40
0.12
 49
0.0
 74
     0
 49
-0.12
 74
     0
  0
LTYPE
  5
10A
330
5
100
AcDbSymbolTableRecord
100
AcDbLinetypeTableRecord
  2
ACAD_ISO08W100
 70
     0
  3
ISO long-dash short-dash ____ __ ____ __ ____ _
 72
    65
 73
     4
 40
0.95
 49
0.47
 74
     0
 49
-0.12
 74
     0
 49
0.24
 74
     0
 49
-0.12
 74
     0
  0
LTYPE
  5
10B
330
5
100
AcDbSymbolTableRecord
100
AcDbLinetypeTableRecord
  2
ACAD_ISO09W100
 70
     0
  3
ISO long-dash double-short-dash ____ __ __ ____
 72
    65
 73
     6
 40
1.31
 49
0.47
 74
     0
 49
-0.12
 74
     0
 49
0.24
 74
     0
 49
-0.12
 74
     0
 49
0.24
 74
     0
 49
-0.12
 74
     0
  0
LTYPE
  5
10C
330
5
100
AcDbSymbolTableRecord
100
AcDbLinetypeTableRecord
  2
ACAD_ISO10W100
 70
     0
  3
ISO dash dot __ . __ . __ . __ . __ . __ . __ .
 72
    65
 73
     4
 40
0.71
 49
0.47
 74
     0
 49
-0.12
 74
     0
 49
0.0
 74
     0
 49
-0.12
 74
     0
  0
LTYPE
  5
10D
330
5
100
AcDbSymbolTableRecord
100
AcDbLinetypeTableRecord
  2
ACAD_ISO11W100
 70
     0
  3
ISO double-dash dot __ __ . __ __ . __ __ . __ 
 72
    65
 73
     6
 40
1.299999999999999
 49
0.47
 74
     0
 49
-0.12
 74
     0
 49
0.47
 74
     0
 49
-0.12
 74
     0
 49
0.0
 74
     0
 49
-0.12
 74
     0
  0
LTYPE
  5
10E
330
5
100
AcDbSymbolTableRecord
100
AcDbLinetypeTableRecord
  2
ACAD_ISO12W100
 70
     0
  3
ISO dash double-dot __ . . __ . . __ . . __ . .
 72
    65
 73
     6
 40
0.8299999999999998
 49
0.47
 74
     0
 49
-0.12
 74
     0
 49
0.0
 74
     0
 49
-0.12
 74
     0
 49
0.0
 74
     0
 49
-0.12
 74
     0
  0
LTYPE
  5
10F
330
5
100
AcDbSymbolTableRecord
100
AcDbLinetypeTableRecord
  2
ACAD_ISO13W100
 70
     0
  3
ISO double-dash double-dot __ __ . . __ __ . . 
 72
    65
 73
     8
 40
1.419999999999999
 49
0.47
 74
     0
 49
-0.12
 74
     0
 49
0.47
 74
     0
 49
-0.12
 74
     0
 49
0.0
 74
     0
 49
-0.12
 74
     0
 49
0.0
 74
     0
 49
-0.12
 74
     0
  0
LTYPE
  5
110
330
5
100
AcDbSymbolTableRecord
100
AcDbLinetypeTableRecord
  2
ACAD_ISO14W100
 70
     0
  3
ISO dash triple-dot __ . . . __ . . . __ . . . 
 72
    65
 73
     8
 40
0.95
 49
0.47
 74
     0
 49
-0.12
 74
     0
 49
0.0
 74
     0
 49
-0.12
 74
     0
 49
0.0
 74
     0
 49
-0.12
 74
     0
 49
0.0
 74
     0
 49
-0.12
 74
     0
  0
LTYPE
  5
111
330
5
100
AcDbSymbolTableRecord
100
AcDbLinetypeTableRecord
  2
ACAD_ISO15W100
 70
     0
  3
ISO double-dash triple-dot __ __ . . . __ __ . 
 72
    65
 73
    10
 40
1.539999999999999
 49
0.47
 74
     0
 49
-0.12
 74
     0
 49
0.47
 74
     0
 49
-0.12
 74
     0
 49
0.0
 74
     0
 49
-0.12
 74
     0
 49
0.0
 74
     0
 49
-0.12
 74
     0
 49
0.0
 74
     0
 49
-0.12
 74
     0
  0
LTYPE
  5
114
330
5
100
AcDbSymbolTableRecord
100
AcDbLinetypeTableRecord
  2
FENCELINE1
 70
     0
  3
Fenceline circle ----0-----0----0-----0----0---
 72
    65
 73
     4
 40
1.45
 49
0.25
 74
     0
 49
-0.1
 74
     4
 75
   133
340
113
 46
0.1
 50
0.0
 44
-0.1
 45
0.0
 49
-0.1
 74
     0
 49
1.0
 74
     0
  0
LTYPE
  5
115
330
5
100
AcDbSymbolTableRecord
100
AcDbLinetypeTableRecord
  2
FENCELINE2
 70
     0
  3
Fenceline square ----[]-----[]----[]-----[]----
 72
    65
 73
     4
 40
1.45
 49
0.25
 74
     0
 49
-0.1
 74
     4
 75
   132
340
113
 46
0.1
 50
0.0
 44
-0.1
 45
0.0
 49
-0.1
 74
     0
 49
1.0
 74
     0
  0
LTYPE
  5
116
330
5
100
AcDbSymbolTableRecord
100
AcDbLinetypeTableRecord
  2
TRACKS
 70
     0
  3
Tracks -|-|-|-|-|-|-|-|-|-|-|-|-|-|-|-|-|-|-|-|
 72
    65
 73
     2
 40
0.3
 49
0.15
 74
     4
 75
   130
340
113
 46
0.25
 50
0.0
 44
0.0
 45
0.0
 49
0.15
 74
     0
  0
LTYPE
  5
117
330
5
100
AcDbSymbolTableRecord
100
AcDbLinetypeTableRecord
  2
BATTING
 70
     0
  3
Batting SSSSSSSSSSSSSSSSSSSSSSSSSSSSSSSSSSSSSSS
 72
    65
 73
     4
 40
0.4001000000000001
 49
0.0001
 74
     0
 49
-0.1
 74
     4
 75
   134
340
113
 46
0.1
 50
0.0
 44
-0.1
 45
0.0
 49
-0.2
 74
     4
 75
   134
340
113
 46
0.1
 50
180.0
 44
0.1
 45
0.0
 49
-0.1
 74
     0
  0
LTYPE
  5
118
330
5
100
AcDbSymbolTableRecord
100
AcDbLinetypeTableRecord
  2
HOT_WATER_SUPPLY
 70
     0
  3
Hot water supply ---- HW ---- HW ---- HW ----
 72
    65
 73
     3
 40
0.9
 49
0.5
 74
     0
 49
-0.2
 74
     2
 75
     0
340
55
 46
0.1
 50
0.0
 44
-0.1
 45
-0.05
  9
HW
 49
-0.2
 74
     0
  0
LTYPE
  5
119
330
5
100
AcDbSymbolTableRecord
100
AcDbLinetypeTableRecord
  2
GAS_LINE
 70
     0
  3
Gas line ----GAS----GAS----GAS----GAS----GAS---
 72
    65
 73
     3
 40
0.95
 49
0.5
 74
     0
 49
-0.2
 74
     2
 75
     0
340
55
 46
0.1
 50
0.0
 44
-0.1
 45
-0.05
  9
GAS
 49
-0.25
 74
     0
  0
LTYPE
  5
11A
330
5
100
AcDbSymbolTableRecord
100
AcDbLinetypeTableRecord
  2
ZIGZAG
 70
     0
  3
Zig zag /\/\/\/\/\/\/\/\/\/\/\/\/\/\/\/\/\/\/\/
 72
    65
 73
     4
 40
0.8001000000000001
 49
0.0001
 74
     0
 49
-0.2
 74
     4
 75
   131
340
113
 46
0.2
 50
0.0
 44
-0.2
 45
0.0
 49
-0.4
 74
     4
 75
   131
340
113
 46
0.2
 50
180.0
 44
0.2
 45
0.0
 49
-0.2
 74
     0
  0
ENDTAB
  0
TABLE
  2
LAYER
  5
2
330
0
100
AcDbSymbolTable
 70
    27
  0
LAYER
  5
54
330
2
100
AcDbSymbolTableRecord
100
AcDbLayerTableRecord
  2
0
 70
     0
 62
     7
  6
Continuous
370
    18
390
F
  0
LAYER
  5
75
330
2
100
AcDbSymbolTableRecord
100
AcDbLayerTableRecord
  2
Symbol (ANSI)
 70
     0
 62
     7
  6
Continuous
370
    18
390
F
  0
LAYER
  5
124
330
2
100
AcDbSymbolTableRecord
100
AcDbLayerTableRecord
  2
Dimension (ANSI)
 70
     0
 62
     7
  6
Continuous
370
    13
390
F
  0
LAYER
  5
126
330
2
100
AcDbSymbolTableRecord
100
AcDbLayerTableRecord
  2
Hidden (ANSI)
 70
     0
 62
     7
  6
DASHED
370
    15
390
F
  0
LAYER
  5
12F
330
2
100
AcDbSymbolTableRecord
100
AcDbLayerTableRecord
  2
Visible (ANSI)
 70
     0
 62
     7
  6
Continuous
370
    13
390
F
  0
LAYER
  5
130
330
2
100
AcDbSymbolTableRecord
100
AcDbLayerTableRecord
  2
Visible Narrow (ANSI)
 70
     0
 62
     7
  6
Continuous
370
    18
390
F
  0
LAYER
  5
209
330
2
100
AcDbSymbolTableRecord
100
AcDbLayerTableRecord
  2
Defpoints
 70
     0
 62
     7
  6
Continuous
290
     0
370
    -3
390
F
  0
ENDTAB
  0
TABLE
  2
STYLE
  5
3
330
0
100
AcDbSymbolTable
 70
    18
  0
STYLE
  5
55
330
3
100
AcDbSymbolTableRecord
100
AcDbTextStyleTableRecord
  2
Standard
 70
     0
 40
0.0
 41
1.0
 50
0.0
 71
     0
 42
0.2
  3
txt
  4

  0
STYLE
  5
5A
330
3
100
AcDbSymbolTableRecord
100
AcDbTextStyleTableRecord
  2
Annotative
 70
     0
 40
0.0
 41
1.0
 50
0.0
 71
     0
 42
0.2
  3
txt
  4

1001
AcadAnnotative
1000
AnnotativeData
1002
{
1070
     1
1070
     1
1002
}
  0
STYLE
  5
76
330
3
100
AcDbSymbolTableRecord
100
AcDbTextStyleTableRecord
  2
Note Text (ANSI)
 70
     0
 40
0.0
 41
1.0
 50
0.0
 71
     0
 42
0.2
  3
TAHOMA.TTF
  4

1001
ACAD
1000
Tahoma
1071
      256
  0
STYLE
  5
78
330
3
100
AcDbSymbolTableRecord
100
AcDbTextStyleTableRecord
  2
SANSSERIF
 70
     0
 40
0.125
 41
1.0
 50
0.0
 71
     0
 42
0.125
  3
sas_____.pfb
  4

  0
STYLE
  5
113
330
3
100
AcDbSymbolTableRecord
100
AcDbTextStyleTableRecord
  2

 70
     1
 40
0.0
 41
1.0
 50
0.0
 71
     0
 42
0.2
  3
ltypeshp.shx
  4

  0
STYLE
  5
134
330
3
100
AcDbSymbolTableRecord
100
AcDbTextStyleTableRecord
  2
ITALICC_120
 70
     0
 40
0.0
 41
1.0
 50
0.0
 71
     0
 42
0.2
  3
italicc.shx
  4

  0
STYLE
  5
135
330
3
100
AcDbSymbolTableRecord
100
AcDbTextStyleTableRecord
  2
Label Text (ANSI)
 70
     0
 40
0.0
 41
1.0
 50
0.0
 71
     0
 42
0.2
  3
TAHOMA.TTF
  4

1001
ACAD
1000
Tahoma
1071
      256
  0
STYLE
  5
136
330
3
100
AcDbSymbolTableRecord
100
AcDbTextStyleTableRecord
  2
ROMANS
 70
     0
 40
0.0
 41
1.0
 50
0.0
 71
     0
 42
0.2
  3
romans.shx
  4

  0
STYLE
  5
137
330
3
100
AcDbSymbolTableRecord
100
AcDbTextStyleTableRecord
  2
SANSSERIF_114
 70
     0
 40
0.0
 41
1.0
 50
0.0
 71
     0
 42
0.2
  3
TAHOMA.TTF
  4

1001
ACAD
1000
Tahoma
1071
      256
  0
STYLE
  5
138
330
3
100
AcDbSymbolTableRecord
100
AcDbTextStyleTableRecord
  2
SANSSERIF_117
 70
     0
 40
0.0
 41
1.0
 50
0.0
 71
     0
 42
0.2
  3
TAHOMA.TTF
  4

1001
ACAD
1000
Tahoma
1071
      256
  0
STYLE
  5
139
330
3
100
AcDbSymbolTableRecord
100
AcDbTextStyleTableRecord
  2
STANDARDAM_ANSI
 70
     0
 40
0.0
 41
1.0
 50
0.0
 71
     0
 42
0.2
  3
txt.shx
  4

  0
STYLE
  5
13A
330
3
100
AcDbSymbolTableRecord
100
AcDbTextStyleTableRecord
  2
StandardAM_ANSI$0
 70
     0
 40
0.0
 41
1.0
 50
0.0
 71
     0
 42
0.2
  3
txt.shx
  4

  0
STYLE
  5
13B
330
3
100
AcDbSymbolTableRecord
100
AcDbTextStyleTableRecord
  2
STANDARDAM_ANSI$3
 70
     0
 40
0.0
 41
1.0
 50
0.0
 71
     0
 42
0.2
  3
txt.shx
  4

  0
STYLE
  5
13C
330
3
100
AcDbSymbolTableRecord
100
AcDbTextStyleTableRecord
  2
STANDARDAM_ANSI$4
 70
     0
 40
0.0
 41
1.0
 50
0.0
 71
     0
 42
0.2
  3
txt.shx
  4

  0
STYLE
  5
13D
330
3
100
AcDbSymbolTableRecord
100
AcDbTextStyleTableRecord
  2
STANDARDAM_ANSI$7
 70
     0
 40
0.0
 41
1.0
 50
0.0
 71
     0
 42
0.2
  3
txt.shx
  4

  0
STYLE
  5
13E
330
3
100
AcDbSymbolTableRecord
100
AcDbTextStyleTableRecord
  2
STANDARDAM_ANSI$SF
 70
     0
 40
0.0
 41
1.0
 50
0.0
 71
     0
 42
0.2
  3
txt.shx
  4

  0
STYLE
  5
13F
330
3
100
AcDbSymbolTableRecord
100
AcDbTextStyleTableRecord
  2
STANDARDAM_ANSI$SH
 70
     0
 40
0.0
 41
1.0
 50
0.0
 71
     0
 42
0.2
  3
txt.shx
  4

  0
STYLE
  5
140
330
3
100
AcDbSymbolTableRecord
100
AcDbTextStyleTableRecord
  2
STANDARDSTANDARD
 70
     0
 40
0.0
 41
1.0
 50
0.0
 71
     0
 42
0.2
  3
txt.shx
  4

  0
ENDTAB
  0
TABLE
  2
VIEW
  5
6
330
0
100
AcDbSymbolTable
 70
     0
  0
ENDTAB
  0
TABLE
  2
UCS
  5
7
330
0
100
AcDbSymbolTable
 70
     0
  0
ENDTAB
  0
TABLE
  2
APPID
  5
9
330
0
100
AcDbSymbolTable
 70
     4
  0
APPID
  5
56
330
9
100
AcDbSymbolTableRecord
100
AcDbRegAppTableRecord
  2
ACAD
 70
     0
  0
APPID
  5
5E
330
9
100
AcDbSymbolTableRecord
100
AcDbRegAppTableRecord
  2
AcadAnnotative
 70
     0
  0
APPID
  5
B1B
330
9
100
AcDbSymbolTableRecord
100
AcDbRegAppTableRecord
  2
ACAD_DSTYLE_DIMRADIAL_EXTENSION
 70
     0
  0
APPID
  5
D23
330
9
100
AcDbSymbolTableRecord
100
AcDbRegAppTableRecord
  2
ACAD_MLEADERVER
 70
     0
  0
ENDTAB
  0
TABLE
  2
DIMSTYLE
  5
A
330
0
100
AcDbSymbolTable
 70
    27
100
AcDbDimStyleTable
 71
     2
340
155
340
58
  0
DIMSTYLE
105
58
330
A
100
AcDbSymbolTableRecord
100
AcDbDimStyleTableRecord
  2
STANDARD
 70
     0
 41
0.1800000071525573
 42
0.0625
140
0.1800000071525574
144
1.0
147
0.0900000035762787
176
   256
177
   256
178
   256
274
     3
340
55
371
    -1
372
    -1
  0
DIMSTYLE
105
59
330
A
100
AcDbSymbolTableRecord
100
AcDbDimStyleTableRecord
  2
Annotative
 70
     0
340
55
1001
AcadAnnotative
1000
AnnotativeData
1002
{
1070
     1
1070
     1
1002
}
  0
DIMSTYLE
105
141
330
A
100
AcDbSymbolTableRecord
100
AcDbDimStyleTableRecord
  2
AM_ANSI
 70
     0
  4
 mm
 40
5.0
 41
0.119999997317791
 42
0.05
 43
0.5
 44
0.1
 45
0.00000001
 78
     4
 79
     2
140
0.1200000047683716
146
0.7099999453624112
147
0.0599999986588955
176
   256
177
   256
178
     2
284
     4
340
139
371
    -1
372
    -1
  0
DIMSTYLE
105
142
330
A
100
AcDbSymbolTableRecord
100
AcDbDimStyleTableRecord
  2
AM_ANSI$7
 70
     0
  4
 mm
 40
5.0
 41
0.119999997317791
 42
0.05
 43
0.5
 44
0.1
 45
0.00000001
 78
     4
 79
     2
140
0.1200000047683716
146
0.7099999453624112
147
0.0599999986588955
176
   256
177
   256
178
     2
284
     4
340
139
371
    -1
372
    -1
  0
DIMSTYLE
105
143
330
A
100
AcDbSymbolTableRecord
100
AcDbDimStyleTableRecord
  2
AM_ANSI$0
 70
     0
  4
 mm
 40
5.0
 41
0.119999997317791
 42
0.05
 43
0.5
 44
0.1
 45
0.00000001
 78
     4
 79
     2
140
0.1200000047683716
146
0.7099999453624112
147
0.0599999986588955
176
   256
177
   256
178
     2
284
     4
340
13A
371
    -1
372
    -1
  0
DIMSTYLE
105
144
330
A
100
AcDbSymbolTableRecord
100
AcDbDimStyleTableRecord
  2
AM_ANSI$0$7
 70
     0
  4
 mm
 40
5.0
 41
0.119999997317791
 42
0.05
 43
0.5
 44
0.1
 45
0.00000001
 78
     4
 79
     2
140
0.1200000047683716
146
0.7099999453624112
147
0.0599999986588955
176
   256
177
   256
178
     2
284
     4
340
13A
371
    -1
372
    -1
  0
DIMSTYLE
105
145
330
A
100
AcDbSymbolTableRecord
100
AcDbDimStyleTableRecord
  2
AM_ANSI$3
 70
     0
  4
 mm
 40
5.0
 41
0.119999997317791
 42
0.05
 43
0.5
 44
0.1
 45
0.00000001
 78
     4
 79
     2
140
0.1200000047683716
146
0.7099999453624112
147
0.0599999986588955
176
   256
177
   256
178
     2
284
     4
340
13B
371
    -1
372
    -1
  0
DIMSTYLE
105
146
330
A
100
AcDbSymbolTableRecord
100
AcDbDimStyleTableRecord
  2
AM_ANSI$3$7
 70
     0
  4
 mm
 40
5.0
 41
0.119999997317791
 42
0.05
 43
0.5
 44
0.1
 45
0.00000001
 78
     4
 79
     2
140
0.1200000047683716
146
0.7099999453624112
147
0.0599999986588955
176
   256
177
   256
178
     2
284
     4
340
13B
371
    -1
372
    -1
  0
DIMSTYLE
105
147
330
A
100
AcDbSymbolTableRecord
100
AcDbDimStyleTableRecord
  2
AM_ANSI$4
 70
     0
  4
 mm
 40
5.0
 41
0.119999997317791
 42
0.05
 43
0.5
 44
0.1
 45
0.00000001
 78
     4
 79
     2
140
0.1200000047683716
146
0.7099999453624112
147
0.0599999986588955
176
   256
177
   256
178
     2
284
     4
340
13C
371
    -1
372
    -1
  0
DIMSTYLE
105
148
330
A
100
AcDbSymbolTableRecord
100
AcDbDimStyleTableRecord
  2
AM_ANSI$4$7
 70
     0
  4
 mm
 40
5.0
 41
0.119999997317791
 42
0.05
 43
0.5
 44
0.1
 45
0.00000001
 78
     4
 79
     2
140
0.1200000047683716
146
0.7099999453624112
147
0.0599999986588955
176
   256
177
   256
178
     2
284
     4
340
13C
371
    -1
372
    -1
  0
DIMSTYLE
105
149
330
A
100
AcDbSymbolTableRecord
100
AcDbDimStyleTableRecord
  2
AM_ANSI$SF
 70
     0
  4
 mm
 40
5.0
 41
0.119999997317791
 42
0.05
 43
0.5
 44
0.1
 45
0.00000001
 75
     1
 76
     1
 78
     4
 79
     2
140
0.1200000047683716
146
0.7099999453624112
147
0.0599999986588955
176
   256
177
   256
178
     2
284
     4
340
13E
371
    -1
372
    -1
  0
DIMSTYLE
105
14A
330
A
100
AcDbSymbolTableRecord
100
AcDbDimStyleTableRecord
  2
AM_ANSI$SF$7
 70
     0
  4
 mm
 40
5.0
 41
0.119999997317791
 42
0.05
 43
0.5
 44
0.1
 45
0.00000001
 75
     1
 76
     1
 78
     4
 79
     2
140
0.1200000047683716
146
0.7099999453624112
147
0.0599999986588955
176
   256
177
   256
178
     2
284
     4
340
13E
371
    -1
372
    -1
  0
DIMSTYLE
105
14B
330
A
100
AcDbSymbolTableRecord
100
AcDbDimStyleTableRecord
  2
AM_ANSI$SH
 70
     0
  4
 mm
 40
5.0
 41
0.119999997317791
 42
0.05
 43
0.5
 44
0.1
 45
0.00000001
 75
     1
 76
     1
 78
     4
 79
     2
140
0.1200000047683716
146
0.7099999453624112
147
0.0599999986588955
176
   256
177
   256
178
     2
284
     4
340
13F
371
    -1
372
    -1
  0
DIMSTYLE
105
14C
330
A
100
AcDbSymbolTableRecord
100
AcDbDimStyleTableRecord
  2
AM_ANSI$SH$7
 70
     0
  4
 mm
 40
5.0
 41
0.119999997317791
 42
0.05
 43
0.5
 44
0.1
 45
0.00000001
 75
     1
 76
     1
 78
     4
 79
     2
140
0.1200000047683716
146
0.7099999453624112
147
0.0599999986588955
176
   256
177
   256
178
     2
284
     4
340
13F
371
    -1
372
    -1
  0
DIMSTYLE
105
14D
330
A
100
AcDbSymbolTableRecord
100
AcDbDimStyleTableRecord
  2
Architectural (ANSI)
 70
     0
 40
5.0
 41
0.0984251946210861
 43
0.2362204724409449
 44
0.125
 45
0.00000001
 46
0.3937007874015748
 78
     3
 79
     3
140
0.1200000047683716
147
0.031496062992126
171
     1
176
   256
177
   256
178
   256
272
     2
274
     1
276
     2
277
     4
284
    12
285
     4
286
    12
340
76
371
    -1
372
    -1
  0
DIMSTYLE
105
14E
330
A
100
AcDbSymbolTableRecord
100
AcDbDimStyleTableRecord
  2
Architectural (ANSI)$7
 70
     0
 40
5.0
 41
0.0984251946210861
 43
0.2362204724409449
 44
0.125
 45
0.00000001
 46
0.3937007874015748
 78
     3
 79
     3
140
0.1200000047683716
147
0.031496062992126
171
     1
176
   256
177
   256
178
   256
272
     2
274
     1
276
     2
277
     4
284
    12
285
     4
286
    12
340
76
371
    -1
372
    -1
  0
DIMSTYLE
105
14F
330
A
100
AcDbSymbolTableRecord
100
AcDbDimStyleTableRecord
  2
Default - Fraction (ANSI)
 70
     0
 40
5.0
 41
0.0984251946210861
 43
0.2362204724409449
 44
0.125
 45
0.00000001
 46
0.3937007874015748
 79
     3
140
0.1200000047683716
147
0.031496062992126
171
     1
176
   256
177
   256
178
   256
272
     2
274
     1
276
     2
277
     5
284
    12
285
     4
286
    12
340
76
371
    -1
372
    -1
  0
DIMSTYLE
105
150
330
A
100
AcDbSymbolTableRecord
100
AcDbDimStyleTableRecord
  2
Default - Fraction (ANSI)$7
 70
     0
 40
5.0
 41
0.0984251946210861
 43
0.2362204724409449
 44
0.125
 45
0.00000001
 46
0.3937007874015748
 79
     3
140
0.1200000047683716
147
0.031496062992126
171
     1
176
   256
177
   256
178
   256
272
     2
274
     1
276
     2
277
     5
284
    12
285
     4
286
    12
340
76
371
    -1
372
    -1
  0
DIMSTYLE
105
151
330
A
100
AcDbSymbolTableRecord
100
AcDbDimStyleTableRecord
  2
Default - mm (ANSI)
 70
     0
 40
5.0
 41
0.0984251946210861
 42
0.063
 43
0.2362204724409449
 44
0.125
 45
0.00000001
 46
0.3937007874015748
 73
     0
 78
     4
 79
     1
140
0.1200000047683716
143
1.0
144
25.4
147
0.031496062992126
171
     1
176
   256
177
   256
178
   256
179
     1
271
     2
272
     2
274
     1
284
     4
285
     4
340
76
371
    -1
372
    -1
  0
DIMSTYLE
105
152
330
A
100
AcDbSymbolTableRecord
100
AcDbDimStyleTableRecord
  2
Default - mm (ANSI)$7
 70
     0
 40
5.0
 41
0.0984251946210861
 42
0.063
 43
0.2362204724409449
 44
0.125
 45
0.00000001
 46
0.3937007874015748
 73
     0
 78
     4
 79
     1
140
0.1200000047683716
143
1.0
144
25.4
147
0.031496062992126
171
     1
176
   256
177
   256
178
   256
179
     1
271
     2
272
     2
274
     1
284
     4
285
     4
340
76
371
    -1
372
    -1
  0
DIMSTYLE
105
153
330
A
100
AcDbSymbolTableRecord
100
AcDbDimStyleTableRecord
  2
Default - mm [in] (ANSI)
 70
     0
  4
 in
 40
5.0
 41
0.0984251946210861
 42
0.063
 43
0.25
 44
0.125
 45
0.00000001
 46
0.3937007874015748
 73
     0
 78
     4
 79
     1
140
0.1200000047683716
143
0.03937
144
25.4
147
0.031496062992126
170
     1
171
     3
176
   256
177
   256
178
   256
179
     1
271
     2
272
     2
274
     3
284
     4
285
     4
286
     4
340
76
371
    -1
372
    -1
  0
DIMSTYLE
105
154
330
A
100
AcDbSymbolTableRecord
100
AcDbDimStyleTableRecord
  2
Default - mm [in] (ANSI)$7
 70
     0
  4
 in
 40
5.0
 41
0.0984251946210861
 42
0.063
 43
0.25
 44
0.125
 45
0.00000001
 46
0.3937007874015748
 73
     0
 78
     4
 79
     1
140
0.1200000047683716
143
0.03937
144
25.4
147
0.031496062992126
170
     1
171
     3
176
   256
177
   256
178
   256
179
     1
271
     2
272
     2
274
     3
284
     4
285
     4
286
     4
340
76
371
    -1
372
    -1
  0
DIMSTYLE
105
155
102
{ACAD_REACTORS
330
207
330
2F4
330
3DE
330
4DC
330
5D8
330
6C2
330
7AC
330
898
330
998
330
A82
330
B3C
330
BF5
102
}
330
A
100
AcDbSymbolTableRecord
100
AcDbDimStyleTableRecord
  2
Default (ANSI)
 70
     0
 40
5.0
 41
0.0984251946210861
 43
0.2362204724409449
 44
0.125
 45
0.00000001
 46
0.3937007874015748
 79
     1
140
0.1200000047683716
147
0.031496062992126
171
     1
176
   256
177
   256
178
   256
271
     2
272
     2
274
     1
284
     4
285
     4
340
76
371
    -1
372
    -1
  0
DIMSTYLE
105
156
330
A
100
AcDbSymbolTableRecord
100
AcDbDimStyleTableRecord
  2
Default (ANSI)$7
 70
     0
 40
5.0
 41
0.0984251946210861
 43
0.2362204724409449
 44
0.125
 45
0.00000001
 46
0.3937007874015748
 79
     1
140
0.1200000047683716
147
0.031496062992126
171
     1
176
   256
177
   256
178
   256
271
     2
272
     2
274
     1
284
     4
285
     4
340
76
371
    -1
372
    -1
  0
DIMSTYLE
105
157
330
A
100
AcDbSymbolTableRecord
100
AcDbDimStyleTableRecord
  2
Alternate (ANSI)
 70
     0
 40
5.0
 41
0.0979999974370003
340
55
342
158
  0
DIMSTYLE
105
16A
330
A
100
AcDbSymbolTableRecord
100
AcDbDimStyleTableRecord
  2
Datum (ANSI)
 70
     0
 40
5.0
 41
0.0979999974370003
340
55
342
158
  0
DIMSTYLE
105
179
330
A
100
AcDbSymbolTableRecord
100
AcDbDimStyleTableRecord
  2
Large (ANSI)
 70
     0
 40
5.0
 41
0.1959999948740005
340
55
342
158
  0
ENDTAB
  0
TABLE
  2
BLOCK_RECORD
  5
1
330
0
100
AcDbSymbolTable
 70
    16
  0
BLOCK_RECORD
  5
6C
330
1
100
AcDbSymbolTableRecord
100
AcDbBlockTableRecord
  2
*Model_Space
340
6F
  0
BLOCK_RECORD
  5
68
330
1
100
AcDbSymbolTableRecord
100
AcDbBlockTableRecord
  2
*Paper_Space
340
6B
  0
BLOCK_RECORD
  5
70
330
1
100
AcDbSymbolTableRecord
100
AcDbBlockTableRecord
  2
*Paper_Space0
340
73
  0
BLOCK_RECORD
  5
158
330
1
100
AcDbSymbolTableRecord
100
AcDbBlockTableRecord
  2
_Closed
340
0
  0
BLOCK_RECORD
  5
15F
330
1
100
AcDbSymbolTableRecord
100
AcDbBlockTableRecord
  2
DatumFilled45
340
0
  0
BLOCK_RECORD
  5
16B
330
1
100
AcDbSymbolTableRecord
100
AcDbBlockTableRecord
  2
Filled-1
340
0
  0
BLOCK_RECORD
  5
20A
330
1
100
AcDbSymbolTableRecord
100
AcDbBlockTableRecord
  2
*D4
340
0
  0
BLOCK_RECORD
  5
2F5
330
1
100
AcDbSymbolTableRecord
100
AcDbBlockTableRecord
  2
*D5
340
0
  0
BLOCK_RECORD
  5
3DF
330
1
100
AcDbSymbolTableRecord
100
AcDbBlockTableRecord
  2
*D6
340
0
  0
BLOCK_RECORD
  5
4DD
330
1
100
AcDbSymbolTableRecord
100
AcDbBlockTableRecord
  2
*D7
340
0
  0
BLOCK_RECORD
  5
5D9
330
1
100
AcDbSymbolTableRecord
100
AcDbBlockTableRecord
  2
*D8
340
0
  0
BLOCK_RECORD
  5
6C3
330
1
100
AcDbSymbolTableRecord
100
AcDbBlockTableRecord
  2
*D9
340
0
  0
BLOCK_RECORD
  5
7AD
330
1
100
AcDbSymbolTableRecord
100
AcDbBlockTableRecord
  2
*D10
340
0
  0
BLOCK_RECORD
  5
899
330
1
100
AcDbSymbolTableRecord
100
AcDbBlockTableRecord
  2
*D11
340
0
  0
BLOCK_RECORD
  5
999
330
1
100
AcDbSymbolTableRecord
100
AcDbBlockTableRecord
  2
*D12
340
0
  0
BLOCK_RECORD
  5
A83
330
1
100
AcDbSymbolTableRecord
100
AcDbBlockTableRecord
  2
*D13
340
0
  0
BLOCK_RECORD
  5
B3D
330
1
100
AcDbSymbolTableRecord
100
AcDbBlockTableRecord
  2
*D14
340
0
  0
BLOCK_RECORD
  5
BF6
330
1
100
AcDbSymbolTableRecord
100
AcDbBlockTableRecord
  2
*D15
340
0
  0
ENDTAB
  0
ENDSEC
  0
SECTION
  2
BLOCKS
  0
BLOCK
  5
6D
330
6C
100
AcDbEntity
  8
0
100
AcDbBlockBegin
  2
*Model_Space
 70
     0
 10
0.0
 20
0.0
 30
0.0
  3
*Model_Space
  1

  0
ENDBLK
  5
6E
330
6C
100
AcDbEntity
  8
0
100
AcDbBlockEnd
  0
BLOCK
  5
69
330
68
100
AcDbEntity
 67
     1
  8
0
100
AcDbBlockBegin
  2
*Paper_Space
 70
     0
 10
0.0
 20
0.0
 30
0.0
  3
*Paper_Space
  1

  0
ENDBLK
  5
6A
330
68
100
AcDbEntity
 67
     1
  8
0
100
AcDbBlockEnd
  0
BLOCK
  5
71
330
70
100
AcDbEntity
 67
     1
  8
0
100
AcDbBlockBegin
  2
*Paper_Space0
 70
     0
 10
0.0
 20
0.0
 30
0.0
  3
*Paper_Space0
  1

  0
ENDBLK
  5
72
330
70
100
AcDbEntity
 67
     1
  8
0
100
AcDbBlockEnd
  0
BLOCK
  5
15D
330
158
100
AcDbEntity
  8
0
100
AcDbBlockBegin
  2
_Closed
 70
     0
 10
0.0
 20
0.0
 30
0.0
  3
_Closed
  1

  0
LINE
  5
159
330
158
100
AcDbEntity
  8
0
  6
ByBlock
 62
     0
370
    -2
100
AcDbLine
 10
-1.0
 20
0.1666666666666666
 30
0.0
 11
0.0
 21
0.0
 31
0.0
  0
LINE
  5
15A
330
158
100
AcDbEntity
  8
0
  6
ByBlock
 62
     0
370
    -2
100
AcDbLine
 10
0.0
 20
0.0
 30
0.0
 11
-1.0
 21
-0.1666666666666666
 31
0.0
  0
LINE
  5
15B
330
158
100
AcDbEntity
  8
0
  6
ByBlock
 62
     0
370
    -2
100
AcDbLine
 10
-1.0
 20
0.1666666666666666
 30
0.0
 11
-1.0
 21
-0.1666666666666666
 31
0.0
  0
LINE
  5
15C
330
158
100
AcDbEntity
  8
0
  6
ByBlock
 62
     0
370
    -2
100
AcDbLine
 10
0.0
 20
0.0
 30
0.0
 11
-1.0
 21
0.0
 31
0.0
  0
ENDBLK
  5
15E
330
158
100
AcDbEntity
  8
0
100
AcDbBlockEnd
  0
BLOCK
  5
160
330
15F
100
AcDbEntity
  8
0
100
AcDbBlockBegin
  2
DatumFilled45
 70
     0
 10
0.0
 20
0.0
 30
0.0
  3
DatumFilled45
  1

  0
POLYLINE
  5
162
330
15F
100
AcDbEntity
  8
0
 62
     0
100
AcDb2dPolyline
 66
     1
 10
0.0
 20
0.0
 30
0.0
 70
   128
  0
VERTEX
  5
163
330
162
100
AcDbEntity
  8
0
 62
     0
100
AcDbVertex
100
AcDb2dVertex
 10
0.0
 20
0.9999999999999998
 30
0.0
  0
VERTEX
  5
164
330
162
100
AcDbEntity
  8
0
 62
     0
100
AcDbVertex
100
AcDb2dVertex
 10
0.0
 20
-0.9999999999999998
 30
0.0
  0
VERTEX
  5
166
330
162
100
AcDbEntity
  8
0
 62
     0
100
AcDbVertex
100
AcDb2dVertex
 10
-0.9999999999999998
 20
0.0
 30
0.0
  0
VERTEX
  5
167
330
162
100
AcDbEntity
  8
0
 62
     0
100
AcDbVertex
100
AcDb2dVertex
 10
0.0
 20
0.9999999999999998
 30
0.0
  0
SEQEND
  5
165
330
162
100
AcDbEntity
  8
0
 62
     0
  0
SOLID
  5
169
330
15F
100
AcDbEntity
  8
0
 62
     0
100
AcDbTrace
 10
0.0
 20
0.9999999999999998
 30
0.0
 11
0.0
 21
-0.9999999999999998
 31
0.0
 12
-0.9999999999999998
 22
0.0
 32
0.0
 13
0.0
 23
0.9999999999999998
 33
0.0
  0
ENDBLK
  5
161
330
15F
100
AcDbEntity
  8
0
100
AcDbBlockEnd
  0
BLOCK
  5
16C
330
16B
100
AcDbEntity
  8
0
100
AcDbBlockBegin
  2
Filled-1
 70
     0
 10
0.0
 20
0.0
 30
0.0
  3
Filled-1
  1

  0
LINE
  5
16E
330
16B
100
AcDbEntity
  8
0
 62
     0
100
AcDbLine
 10
-0.9999999999999998
 20
0.0
 30
0.0
 11
0.0
 21
0.0
 31
0.0
  0
POLYLINE
  5
16F
330
16B
100
AcDbEntity
  8
0
 62
     0
100
AcDb2dPolyline
 66
     1
 10
0.0
 20
0.0
 30
0.0
 70
   128
  0
VERTEX
  5
170
330
16F
100
AcDbEntity
  8
0
 62
     0
100
AcDbVertex
100
AcDb2dVertex
 10
-0.9999999999999998
 20
-0.0994897959183674
 30
0.0
  0
VERTEX
  5
171
330
16F
100
AcDbEntity
  8
0
 62
     0
100
AcDbVertex
100
AcDb2dVertex
 10
0.0
 20
0.0
 30
0.0
  0
VERTEX
  5
173
330
16F
100
AcDbEntity
  8
0
 62
     0
100
AcDbVertex
100
AcDb2dVertex
 10
-0.9999999999999998
 20
0.0994897959183674
 30
0.0
  0
VERTEX
  5
174
330
16F
100
AcDbEntity
  8
0
 62
     0
100
AcDbVertex
100
AcDb2dVertex
 10
-0.9999999999999998
 20
-0.0994897959183674
 30
0.0
  0
SEQEND
  5
172
330
16F
100
AcDbEntity
  8
0
 62
     0
  0
SOLID
  5
175
330
16B
100
AcDbEntity
  8
0
 62
     0
100
AcDbTrace
 10
-0.9999999999999998
 20
-0.0994897959183674
 30
0.0
 11
0.0
 21
0.0
 31
0.0
 12
-0.9999999999999998
 22
0.0994897959183674
 32
0.0
 13
-0.9999999999999998
 23
-0.0994897959183674
 33
0.0
  0
LINE
  5
176
330
16B
100
AcDbEntity
  8
0
 62
     0
100
AcDbLine
 10
-0.9999999999999998
 20
-0.0994897959183674
 30
0.0
 11
0.0
 21
0.0
 31
0.0
  0
LINE
  5
177
330
16B
100
AcDbEntity
  8
0
 62
     0
100
AcDbLine
 10
0.0
 20
0.0
 30
0.0
 11
-0.9999999999999998
 21
0.0994897959183674
 31
0.0
  0
LINE
  5
178
330
16B
100
AcDbEntity
  8
0
 62
     0
100
AcDbLine
 10
-0.9999999999999998
 20
0.0994897959183674
 30
0.0
 11
-0.9999999999999998
 21
-0.0994897959183674
 31
0.0
  0
ENDBLK
  5
16D
330
16B
100
AcDbEntity
  8
0
100
AcDbBlockEnd
  0
BLOCK
  5
20B
330
20A
100
AcDbEntity
  8
0
100
AcDbBlockBegin
  2
*D4
 70
     1
 10
0.0
 20
0.0
 30
0.0
  3
*D4
  1

  0
LINE
  5
2EA
330
20A
100
AcDbEntity
  8
Dimension (ANSI)
100
AcDbLine
 10
16.41259241012437
 20
13.97424550502983
 30
0.0
 11
10.04816469380074
 21
13.97424550502983
 31
0.0
  0
LINE
  5
2EB
330
20A
100
AcDbEntity
  8
Dimension (ANSI)
100
AcDbLine
 10
16.41259241012435
 20
42.17424550502983
 30
0.0
 11
10.04816469380074
 21
42.17424550502983
 31
0.0
  0
LINE
  5
2EC
330
20A
100
AcDbEntity
  8
Dimension (ANSI)
100
AcDbLine
 10
10.67316469380074
 20
14.46637147813526
 30
0.0
 11
10.67316469380074
 21
27.60306470748969
 31
0.0
  0
LINE
  5
2ED
330
20A
100
AcDbEntity
  8
Dimension (ANSI)
100
AcDbLine
 10
10.67316469380074
 20
41.6821195319244
 30
0.0
 11
10.67316469380074
 21
28.54542630256997
 31
0.0
  0
SOLID
  5
2EE
330
20A
100
AcDbEntity
  8
Dimension (ANSI)
100
AcDbTrace
 10
10.59114369828316
 20
14.46637147813526
 30
0.0
 11
10.75518568931831
 21
14.46637147813526
 31
0.0
 12
10.67316469380074
 22
13.97424550502983
 32
0.0
 13
10.67316469380074
 23
13.97424550502983
 33
0.0
  0
SOLID
  5
2EF
330
20A
100
AcDbEntity
  8
Dimension (ANSI)
100
AcDbTrace
 10
10.59114369828317
 20
41.6821195319244
 30
0.0
 11
10.75518568931831
 21
41.6821195319244
 31
0.0
 12
10.67316469380074
 22
42.17424550502983
 32
0.0
 13
10.67316469380074
 23
42.17424550502983
 33
0.0
  0
MTEXT
  5
2F0
330
20A
100
AcDbEntity
  8
Dimension (ANSI)
100
AcDbMText
 10
9.685924896344353
 20
28.38794598760934
 30
0.0
 40
0.6000000238418579
 41
0.0
 71
     1
 72
     1
  1
\A1;28.20
  7
Note Text (ANSI)
 73
     1
 44
1.0
1001
ACAD
1000
MTEXTBEGIN
1070
    73
1070
     1
1070
    44
1040
1.0
1070
    74
1070
     0
1000
MTEXTEND
  0
POINT
  5
2F1
330
20A
100
AcDbEntity
  8
Defpoints
 62
     0
100
AcDbPoint
 10
16.72509241012437
 20
13.97424550502983
 30
0.0
  0
POINT
  5
2F2
330
20A
100
AcDbEntity
  8
Defpoints
 62
     0
100
AcDbPoint
 10
16.72509241012435
 20
42.17424550502983
 30
0.0
  0
POINT
  5
2F3
330
20A
100
AcDbEntity
  8
Defpoints
 62
     0
100
AcDbPoint
 10
10.67316469380074
 20
42.17424550502983
 30
0.0
  0
ENDBLK
  5
20C
330
20A
100
AcDbEntity
  8
0
100
AcDbBlockEnd
  0
BLOCK
  5
2F6
330
2F5
100
AcDbEntity
  8
0
100
AcDbBlockBegin
  2
*D5
 70
     1
 10
0.0
 20
0.0
 30
0.0
  3
*D5
  1

  0
LINE
  5
3D4
330
2F5
100
AcDbEntity
  8
Dimension (ANSI)
100
AcDbLine
 10
16.22509241012436
 20
41.98674550502983
 30
0.0
 11
16.22509241012436
 21
46.91513642180051
 31
0.0
  0
LINE
  5
3D5
330
2F5
100
AcDbEntity
  8
Dimension (ANSI)
100
AcDbLine
 10
34.42509241012436
 20
41.98674550502983
 30
0.0
 11
34.42509241012436
 21
46.91513642180051
 31
0.0
  0
LINE
  5
3D6
330
2F5
100
AcDbEntity
  8
Dimension (ANSI)
100
AcDbLine
 10
16.71721838322979
 20
46.29013642180051
 30
0.0
 11
24.20394516634049
 21
46.29013642180051
 31
0.0
  0
LINE
  5
3D7
330
2F5
100
AcDbEntity
  8
Dimension (ANSI)
100
AcDbLine
 10
33.93296643701893
 20
46.29013642180051
 30
0.0
 11
26.44623965390823
 21
46.29013642180051
 31
0.0
  0
SOLID
  5
3D8
330
2F5
100
AcDbEntity
  8
Dimension (ANSI)
100
AcDbTrace
 10
16.71721838322979
 20
46.37215741731809
 30
0.0
 11
16.71721838322979
 21
46.20811542628294
 31
0.0
 12
16.22509241012436
 22
46.29013642180051
 32
0.0
 13
16.22509241012436
 23
46.29013642180051
 33
0.0
  0
SOLID
  5
3D9
330
2F5
100
AcDbEntity
  8
Dimension (ANSI)
100
AcDbTrace
 10
33.93296643701893
 20
46.37215741731809
 30
0.0
 11
33.93296643701893
 21
46.20811542628294
 31
0.0
 12
34.42509241012436
 22
46.29013642180051
 32
0.0
 13
34.42509241012436
 23
46.29013642180051
 33
0.0
  0
MTEXT
  5
3DA
330
2F5
100
AcDbEntity
  8
Dimension (ANSI)
100
AcDbMText
 10
24.36142548130112
 20
46.60383690438002
 30
0.0
 40
0.6000000238418579
 41
0.0
 71
     1
 72
     1
  1
\A1;18.20
  7
Note Text (ANSI)
 73
     1
 44
1.0
1001
ACAD
1000
MTEXTBEGIN
1070
    73
1070
     1
1070
    44
1040
1.0
1070
    74
1070
     0
1000
MTEXTEND
  0
POINT
  5
3DB
330
2F5
100
AcDbEntity
  8
Defpoints
 62
     0
100
AcDbPoint
 10
16.22509241012436
 20
41.67424550502983
 30
0.0
  0
POINT
  5
3DC
330
2F5
100
AcDbEntity
  8
Defpoints
 62
     0
100
AcDbPoint
 10
34.42509241012436
 20
41.67424550502983
 30
0.0
  0
POINT
  5
3DD
330
2F5
100
AcDbEntity
  8
Defpoints
 62
     0
100
AcDbPoint
 10
34.42509241012436
 20
46.29013642180051
 30
0.0
  0
ENDBLK
  5
2F7
330
2F5
100
AcDbEntity
  8
0
100
AcDbBlockEnd
  0
BLOCK
  5
3E0
330
3DF
100
AcDbEntity
  8
0
100
AcDbBlockBegin
  2
*D6
 70
     1
 10
0.0
 20
0.0
 30
0.0
  3
*D6
  1

  0
LINE
  5
4D1
330
3DF
100
AcDbEntity
  8
Dimension (ANSI)
100
AcDbLine
 10
16.43259241012437
 20
14.49424550502983
 30
0.0
 11
14.51089682006634
 21
14.49424550502983
 31
0.0
  0
LINE
  5
4D2
330
3DF
100
AcDbEntity
  8
Dimension (ANSI)
100
AcDbLine
 10
16.43259241012437
 20
15.24424550502983
 30
0.0
 11
14.51089682006634
 21
15.24424550502983
 31
0.0
  0
LINE
  5
4D3
330
3DF
100
AcDbEntity
  8
Dimension (ANSI)
100
AcDbLine
 10
15.13589682006634
 20
15.73637147813526
 30
0.0
 11
15.13589682006634
 21
16.22849745124069
 31
0.0
  0
LINE
  5
4D4
330
3DF
100
AcDbEntity
  8
Dimension (ANSI)
100
AcDbLine
 10
15.13589682006634
 20
14.0021195319244
 30
0.0
 11
15.13589682006634
 21
13.06108051455576
 31
0.0
  0
LINE
  5
4D5
330
3DF
100
AcDbEntity
  8
Dimension (ANSI)
100
AcDbLine
 10
15.13589682006634
 20
13.06108051455576
 30
0.0
 11
14.64377084696091
 21
13.06108051455576
 31
0.0
  0
SOLID
  5
4D6
330
3DF
100
AcDbEntity
  8
Dimension (ANSI)
100
AcDbTrace
 10
15.05387582454877
 20
15.73637147813526
 30
0.0
 11
15.21791781558392
 21
15.73637147813526
 31
0.0
 12
15.13589682006634
 22
15.24424550502983
 32
0.0
 13
15.13589682006634
 23
15.24424550502983
 33
0.0
  0
SOLID
  5
4D7
330
3DF
100
AcDbEntity
  8
Dimension (ANSI)
100
AcDbTrace
 10
15.05387582454877
 20
14.0021195319244
 30
0.0
 11
15.21791781558392
 21
14.0021195319244
 31
0.0
 12
15.13589682006634
 22
14.49424550502983
 32
0.0
 13
15.13589682006634
 23
14.49424550502983
 33
0.0
  0
MTEXT
  5
4D8
330
3DF
100
AcDbEntity
  8
Dimension (ANSI)
100
AcDbMText
 10
12.96150873870439
 20
13.37337065456748
 30
0.0
 40
0.6000000238418579
 41
0.0
 71
     1
 72
     1
  1
\A1;0.75
  7
Note Text (ANSI)
 73
     1
 44
1.0
1001
ACAD
1000
MTEXTBEGIN
1070
    73
1070
     1
1070
    44
1040
1.0
1070
    74
1070
     0
1000
MTEXTEND
  0
POINT
  5
4D9
330
3DF
100
AcDbEntity
  8
Defpoints
 62
     0
100
AcDbPoint
 10
16.74509241012437
 20
14.49424550502983
 30
0.0
  0
POINT
  5
4DA
330
3DF
100
AcDbEntity
  8
Defpoints
 62
     0
100
AcDbPoint
 10
16.74509241012437
 20
15.24424550502983
 30
0.0
  0
POINT
  5
4DB
330
3DF
100
AcDbEntity
  8
Defpoints
 62
     0
100
AcDbPoint
 10
15.13589682006634
 20
15.24424550502983
 30
0.0
  0
ENDBLK
  5
3E1
330
3DF
100
AcDbEntity
  8
0
100
AcDbBlockEnd
  0
BLOCK
  5
4DE
330
4DD
100
AcDbEntity
  8
0
100
AcDbBlockBegin
  2
*D7
 70
     1
 10
0.0
 20
0.0
 30
0.0
  3
*D7
  1

  0
LINE
  5
5CE
330
4DD
100
AcDbEntity
  8
Dimension (ANSI)
100
AcDbLine
 10
33.59259241012436
 20
41.65424550502983
 30
0.0
 11
21.07551943691247
 21
41.65424550502983
 31
0.0
  0
LINE
  5
5CF
330
4DD
100
AcDbEntity
  8
Dimension (ANSI)
100
AcDbLine
 10
21.70051943691247
 20
42.66637147813526
 30
0.0
 11
21.70051943691247
 21
43.15849745124069
 31
0.0
  0
LINE
  5
5D0
330
4DD
100
AcDbEntity
  8
Dimension (ANSI)
100
AcDbLine
 10
21.70051943691247
 20
41.1621195319244
 30
0.0
 11
21.70051943691247
 21
40.22071584676844
 31
0.0
  0
LINE
  5
5D1
330
4DD
100
AcDbEntity
  8
Dimension (ANSI)
100
AcDbLine
 10
21.70051943691247
 20
40.22071584676844
 30
0.0
 11
21.20839346380704
 21
40.22071584676844
 31
0.0
  0
SOLID
  5
5D2
330
4DD
100
AcDbEntity
  8
Dimension (ANSI)
100
AcDbTrace
 10
21.6184984413949
 20
42.66637147813526
 30
0.0
 11
21.78254043243004
 21
42.66637147813526
 31
0.0
 12
21.70051943691247
 22
42.17424550502983
 32
0.0
 13
21.70051943691247
 23
42.17424550502983
 33
0.0
  0
SOLID
  5
5D3
330
4DD
100
AcDbEntity
  8
Dimension (ANSI)
100
AcDbTrace
 10
21.6184984413949
 20
41.1621195319244
 30
0.0
 11
21.78254043243004
 21
41.1621195319244
 31
0.0
 12
21.70051943691247
 22
41.65424550502983
 32
0.0
 13
21.70051943691247
 23
41.65424550502983
 33
0.0
  0
MTEXT
  5
5D4
330
4DD
100
AcDbEntity
  8
Dimension (ANSI)
100
AcDbMText
 10
19.51928112022121
 20
40.53320746428984
 30
0.0
 40
0.6000000238418579
 41
0.0
 71
     1
 72
     1
  1
\A1;0.52
  7
Note Text (ANSI)
 73
     1
 44
1.0
1001
ACAD
1000
MTEXTBEGIN
1070
    73
1070
     1
1070
    44
1040
1.0
1070
    74
1070
     0
1000
MTEXTEND
  0
POINT
  5
5D5
330
4DD
100
AcDbEntity
  8
Defpoints
 62
     0
100
AcDbPoint
 10
16.72509241012435
 20
42.17424550502983
 30
0.0
  0
POINT
  5
5D6
330
4DD
100
AcDbEntity
  8
Defpoints
 62
     0
100
AcDbPoint
 10
33.90509241012436
 20
41.65424550502983
 30
0.0
  0
POINT
  5
5D7
330
4DD
100
AcDbEntity
  8
Defpoints
 62
     0
100
AcDbPoint
 10
21.70051943691247
 20
41.65424550502983
 30
0.0
  0
ENDBLK
  5
4DF
330
4DD
100
AcDbEntity
  8
0
100
AcDbBlockEnd
  0
BLOCK
  5
5DA
330
5D9
100
AcDbEntity
  8
0
100
AcDbBlockBegin
  2
*D8
 70
     1
 10
0.0
 20
0.0
 30
0.0
  3
*D8
  1

  0
LINE
  5
6B8
330
5D9
100
AcDbEntity
  8
Dimension (ANSI)
100
AcDbLine
 10
34.42509241012436
 20
41.98674550502983
 30
0.0
 11
34.42509241012436
 21
45.44885180424242
 31
0.0
  0
LINE
  5
6B9
330
5D9
100
AcDbEntity
  8
Dimension (ANSI)
100
AcDbLine
 10
33.90509241012436
 20
41.96674550502983
 30
0.0
 11
33.90509241012436
 21
45.44885180424242
 31
0.0
  0
LINE
  5
6BA
330
5D9
100
AcDbEntity
  8
Dimension (ANSI)
100
AcDbLine
 10
33.41296643701893
 20
44.82385180424242
 30
0.0
 11
32.9208404639135
 21
44.82385180424242
 31
0.0
  0
LINE
  5
6BB
330
5D9
100
AcDbEntity
  8
Dimension (ANSI)
100
AcDbLine
 10
34.91721838322979
 20
44.82385180424242
 30
0.0
 11
35.6668491898662
 21
44.82385180424242
 31
0.0
  0
SOLID
  5
6BC
330
5D9
100
AcDbEntity
  8
Dimension (ANSI)
100
AcDbTrace
 10
33.41296643701893
 20
44.90587279976
 30
0.0
 11
33.41296643701893
 21
44.74183080872484
 31
0.0
 12
33.90509241012436
 22
44.82385180424242
 32
0.0
 13
33.90509241012436
 23
44.82385180424242
 33
0.0
  0
SOLID
  5
6BD
330
5D9
100
AcDbEntity
  8
Dimension (ANSI)
100
AcDbTrace
 10
34.91721838322979
 20
44.90587279976
 30
0.0
 11
34.91721838322979
 21
44.74183080872484
 31
0.0
 12
34.42509241012436
 22
44.82385180424242
 32
0.0
 13
34.42509241012436
 23
44.82385180424242
 33
0.0
  0
MTEXT
  5
6BE
330
5D9
100
AcDbEntity
  8
Dimension (ANSI)
100
AcDbMText
 10
35.82432950482683
 20
45.13634342176382
 30
0.0
 40
0.6000000238418579
 41
0.0
 71
     1
 72
     1
  1
\A1;0.52
  7
Note Text (ANSI)
 73
     1
 44
1.0
1001
ACAD
1000
MTEXTBEGIN
1070
    73
1070
     1
1070
    44
1040
1.0
1070
    74
1070
     0
1000
MTEXTEND
  0
POINT
  5
6BF
330
5D9
100
AcDbEntity
  8
Defpoints
 62
     0
100
AcDbPoint
 10
34.42509241012436
 20
41.67424550502983
 30
0.0
  0
POINT
  5
6C0
330
5D9
100
AcDbEntity
  8
Defpoints
 62
     0
100
AcDbPoint
 10
33.90509241012436
 20
41.65424550502983
 30
0.0
  0
POINT
  5
6C1
330
5D9
100
AcDbEntity
  8
Defpoints
 62
     0
100
AcDbPoint
 10
33.90509241012436
 20
44.82385180424242
 30
0.0
  0
ENDBLK
  5
5DB
330
5D9
100
AcDbEntity
  8
0
100
AcDbBlockEnd
  0
BLOCK
  5
6C4
330
6C3
100
AcDbEntity
  8
0
100
AcDbBlockBegin
  2
*D9
 70
     1
 10
0.0
 20
0.0
 30
0.0
  3
*D9
  1

  0
LINE
  5
7A2
330
6C3
100
AcDbEntity
  8
Dimension (ANSI)
100
AcDbLine
 10
16.43259241012437
 20
14.49424550502983
 30
0.0
 11
11.99667364379483
 21
14.49424550502983
 31
0.0
  0
LINE
  5
7A3
330
6C3
100
AcDbEntity
  8
Dimension (ANSI)
100
AcDbLine
 10
16.43259241012437
 20
41.65424550502983
 30
0.0
 11
11.99667364379484
 21
41.65424550502984
 31
0.0
  0
LINE
  5
7A4
330
6C3
100
AcDbEntity
  8
Dimension (ANSI)
100
AcDbLine
 10
12.62167364379483
 20
14.98637147813526
 30
0.0
 11
12.62167364379484
 21
33.45980755889962
 31
0.0
  0
LINE
  5
7A5
330
6C3
100
AcDbEntity
  8
Dimension (ANSI)
100
AcDbLine
 10
12.62167364379484
 20
41.16211953192441
 30
0.0
 11
12.62167364379484
 21
34.39975142386367
 31
0.0
  0
SOLID
  5
7A6
330
6C3
100
AcDbEntity
  8
Dimension (ANSI)
100
AcDbTrace
 10
12.53965264827726
 20
14.98637147813526
 30
0.0
 11
12.70369463931241
 21
14.98637147813526
 31
0.0
 12
12.62167364379483
 22
14.49424550502983
 32
0.0
 13
12.62167364379483
 23
14.49424550502983
 33
0.0
  0
SOLID
  5
7A7
330
6C3
100
AcDbEntity
  8
Dimension (ANSI)
100
AcDbTrace
 10
12.53965264827727
 20
41.16211953192441
 30
0.0
 11
12.70369463931241
 21
41.16211953192441
 31
0.0
 12
12.62167364379484
 22
41.65424550502984
 32
0.0
 13
12.62167364379484
 23
41.65424550502984
 33
0.0
  0
MTEXT
  5
7A8
330
6C3
100
AcDbEntity
  8
Dimension (ANSI)
100
AcDbMText
 10
11.40918199051065
 20
34.24227110890304
 30
0.0
 40
0.6000000238418579
 41
0.0
 71
     1
 72
     1
  1
\A1;27.160
  7
Note Text (ANSI)
 73
     1
 44
1.0
1001
ACAD
1000
MTEXTBEGIN
1070
    73
1070
     1
1070
    44
1040
1.0
1070
    74
1070
     0
1000
MTEXTEND
  0
POINT
  5
7A9
330
6C3
100
AcDbEntity
  8
Defpoints
 62
     0
100
AcDbPoint
 10
16.74509241012437
 20
14.49424550502983
 30
0.0
  0
POINT
  5
7AA
330
6C3
100
AcDbEntity
  8
Defpoints
 62
     0
100
AcDbPoint
 10
16.74509241012437
 20
41.65424550502983
 30
0.0
  0
POINT
  5
7AB
330
6C3
100
AcDbEntity
  8
Defpoints
 62
     0
100
AcDbPoint
 10
12.62167364379484
 20
41.65424550502984
 30
0.0
  0
ENDBLK
  5
6C5
330
6C3
100
AcDbEntity
  8
0
100
AcDbBlockEnd
  0
BLOCK
  5
7AE
330
7AD
100
AcDbEntity
  8
0
100
AcDbBlockBegin
  2
*D10
 70
     1
 10
0.0
 20
0.0
 30
0.0
  3
*D10
  1

  0
LINE
  5
88C
330
7AD
100
AcDbEntity
  8
Dimension (ANSI)
100
AcDbLine
 10
53.44182266185789
 20
42.48674550502983
 30
0.0
 11
53.44182266185789
 21
45.80565495384872
 31
0.0
  0
LINE
  5
88D
330
7AD
100
AcDbEntity
  8
Dimension (ANSI)
100
AcDbLine
 10
54.21582266185804
 20
40.76874550502983
 30
0.0
 11
54.21582266185804
 21
45.80565495384872
 31
0.0
  0
LINE
  5
88E
330
7AD
100
AcDbEntity
  8
Dimension (ANSI)
100
AcDbLine
 10
54.70794863496347
 20
45.18065495384872
 30
0.0
 11
55.2000746080689
 21
45.18065495384872
 31
0.0
  0
LINE
  5
88F
330
7AD
100
AcDbEntity
  8
Dimension (ANSI)
100
AcDbLine
 10
52.94969668875246
 20
45.18065495384872
 30
0.0
 11
52.20328952227101
 21
45.18065495384872
 31
0.0
  0
SOLID
  5
890
330
7AD
100
AcDbEntity
  8
Dimension (ANSI)
100
AcDbTrace
 10
54.70794863496347
 20
45.26267594936629
 30
0.0
 11
54.70794863496347
 21
45.09863395833114
 31
0.0
 12
54.21582266185804
 22
45.18065495384872
 32
0.0
 13
54.21582266185804
 23
45.18065495384872
 33
0.0
  0
SOLID
  5
891
330
7AD
100
AcDbEntity
  8
Dimension (ANSI)
100
AcDbTrace
 10
52.94969668875246
 20
45.26267594936629
 30
0.0
 11
52.94969668875246
 21
45.09863395833114
 31
0.0
 12
53.44182266185789
 22
45.18065495384872
 32
0.0
 13
53.44182266185789
 23
45.18065495384872
 33
0.0
  0
MTEXT
  5
892
330
7AD
100
AcDbEntity
  8
Dimension (ANSI)
100
AcDbMText
 10
50.50772989837527
 20
45.49294509386043
 30
0.0
 40
0.6000000238418579
 41
0.0
 71
     1
 72
     1
  1
\A1;0.77
  7
Note Text (ANSI)
 73
     1
 44
1.0
1001
ACAD
1000
MTEXTBEGIN
1070
    73
1070
     1
1070
    44
1040
1.0
1070
    74
1070
     0
1000
MTEXTEND
  0
POINT
  5
893
330
7AD
100
AcDbEntity
  8
Defpoints
 62
     0
100
AcDbPoint
 10
53.44182266185789
 20
42.17424550502983
 30
0.0
  0
POINT
  5
894
330
7AD
100
AcDbEntity
  8
Defpoints
 62
     0
100
AcDbPoint
 10
54.21582266185804
 20
40.45624550502983
 30
0.0
  0
POINT
  5
895
330
7AD
100
AcDbEntity
  8
Defpoints
 62
     0
100
AcDbPoint
 10
54.21582266185804
 20
45.18065495384872
 30
0.0
  0
ENDBLK
  5
7AF
330
7AD
100
AcDbEntity
  8
0
100
AcDbBlockEnd
  0
BLOCK
  5
89A
330
899
100
AcDbEntity
  8
0
100
AcDbBlockBegin
  2
*D11
 70
     1
 10
0.0
 20
0.0
 30
0.0
  3
*D11
  1

  0
LINE
  5
98D
330
899
100
AcDbEntity
  8
Dimension (ANSI)
100
AcDbLine
 10
34.23759241012437
 20
13.97424550502983
 30
0.0
 11
35.99546448958736
 21
13.97424550502983
 31
0.0
  0
LINE
  5
98E
330
899
100
AcDbEntity
  8
Dimension (ANSI)
100
AcDbLine
 10
34.73759241012436
 20
14.47424550502983
 30
0.0
 11
35.99546448958736
 21
14.47424550502983
 31
0.0
  0
LINE
  5
98F
330
899
100
AcDbEntity
  8
Dimension (ANSI)
100
AcDbLine
 10
35.37046448958736
 20
13.4821195319244
 30
0.0
 11
35.37046448958736
 21
12.98999355881897
 31
0.0
  0
LINE
  5
990
330
899
100
AcDbEntity
  8
Dimension (ANSI)
100
AcDbLine
 10
35.37046448958736
 20
14.96637147813526
 30
0.0
 11
35.37046448958736
 21
15.90741049550389
 31
0.0
  0
LINE
  5
991
330
899
100
AcDbEntity
  8
Dimension (ANSI)
100
AcDbLine
 10
35.37046448958736
 20
15.90741049550389
 30
0.0
 11
35.8625904626928
 21
15.90741049550389
 31
0.0
  0
SOLID
  5
992
330
899
100
AcDbEntity
  8
Dimension (ANSI)
100
AcDbTrace
 10
35.28844349406979
 20
13.4821195319244
 30
0.0
 11
35.45248548510494
 21
13.4821195319244
 31
0.0
 12
35.37046448958736
 22
13.97424550502983
 32
0.0
 13
35.37046448958736
 23
13.97424550502983
 33
0.0
  0
SOLID
  5
993
330
899
100
AcDbEntity
  8
Dimension (ANSI)
100
AcDbTrace
 10
35.28844349406979
 20
14.96637147813526
 30
0.0
 11
35.45248548510494
 21
14.96637147813526
 31
0.0
 12
35.37046448958736
 22
14.47424550502983
 32
0.0
 13
35.37046448958736
 23
14.47424550502983
 33
0.0
  0
MTEXT
  5
994
330
899
100
AcDbEntity
  8
Dimension (ANSI)
100
AcDbMText
 10
36.02007077765343
 20
16.21970063551561
 30
0.0
 40
0.6000000238418579
 41
0.0
 71
     1
 72
     1
  1
\A1;0.50
  7
Note Text (ANSI)
 73
     1
 44
1.0
1001
ACAD
1000
MTEXTBEGIN
1070
    73
1070
     1
1070
    44
1040
1.0
1070
    74
1070
     0
1000
MTEXTEND
  0
POINT
  5
995
330
899
100
AcDbEntity
  8
Defpoints
 62
     0
100
AcDbPoint
 10
33.92509241012437
 20
13.97424550502983
 30
0.0
  0
POINT
  5
996
330
899
100
AcDbEntity
  8
Defpoints
 62
     0
100
AcDbPoint
 10
34.42509241012436
 20
14.47424550502983
 30
0.0
  0
POINT
  5
997
330
899
100
AcDbEntity
  8
Defpoints
 62
     0
100
AcDbPoint
 10
35.37046448958736
 20
14.47424550502983
 30
0.0
  0
ENDBLK
  5
89B
330
899
100
AcDbEntity
  8
0
100
AcDbBlockEnd
  0
BLOCK
  5
99A
330
999
100
AcDbEntity
  8
0
100
AcDbBlockBegin
  2
*D12
 70
     1
 10
0.0
 20
0.0
 30
0.0
  3
*D12
  1

  0
LINE
  5
A78
330
999
100
AcDbEntity
  8
Dimension (ANSI)
100
AcDbLine
 10
34.42509241012436
 20
14.16174550502983
 30
0.0
 11
34.42509241012436
 21
10.98704078062038
 31
0.0
  0
LINE
  5
A79
330
999
100
AcDbEntity
  8
Dimension (ANSI)
100
AcDbLine
 10
33.92509241012437
 20
13.66174550502983
 30
0.0
 11
33.92509241012437
 21
10.98704078062038
 31
0.0
  0
LINE
  5
A7A
330
999
100
AcDbEntity
  8
Dimension (ANSI)
100
AcDbLine
 10
34.91721838322979
 20
11.61204078062038
 30
0.0
 11
35.40934435633523
 21
11.61204078062038
 31
0.0
  0
LINE
  5
A7B
330
999
100
AcDbEntity
  8
Dimension (ANSI)
100
AcDbLine
 10
33.43296643701894
 20
11.61204078062038
 30
0.0
 11
32.68474597295031
 21
11.61204078062038
 31
0.0
  0
SOLID
  5
A7C
330
999
100
AcDbEntity
  8
Dimension (ANSI)
100
AcDbTrace
 10
34.91721838322979
 20
11.69406177613796
 30
0.0
 11
34.91721838322979
 21
11.53001978510281
 31
0.0
 12
34.42509241012436
 22
11.61204078062038
 32
0.0
 13
34.42509241012436
 23
11.61204078062038
 33
0.0
  0
SOLID
  5
A7D
330
999
100
AcDbEntity
  8
Dimension (ANSI)
100
AcDbTrace
 10
33.43296643701894
 20
11.69406177613796
 30
0.0
 11
33.43296643701894
 21
11.53001978510281
 31
0.0
 12
33.92509241012437
 22
11.61204078062038
 32
0.0
 13
33.92509241012437
 23
11.61204078062038
 33
0.0
  0
MTEXT
  5
A7E
330
999
100
AcDbEntity
  8
Dimension (ANSI)
100
AcDbMText
 10
30.9928129442289
 20
11.9243309206321
 30
0.0
 40
0.6000000238418579
 41
0.0
 71
     1
 72
     1
  1
\A1;0.50
  7
Note Text (ANSI)
 73
     1
 44
1.0
1001
ACAD
1000
MTEXTBEGIN
1070
    73
1070
     1
1070
    44
1040
1.0
1070
    74
1070
     0
1000
MTEXTEND
  0
POINT
  5
A7F
330
999
100
AcDbEntity
  8
Defpoints
 62
     0
100
AcDbPoint
 10
34.42509241012436
 20
14.47424550502983
 30
0.0
  0
POINT
  5
A80
330
999
100
AcDbEntity
  8
Defpoints
 62
     0
100
AcDbPoint
 10
33.92509241012437
 20
13.97424550502983
 30
0.0
  0
POINT
  5
A81
330
999
100
AcDbEntity
  8
Defpoints
 62
     0
100
AcDbPoint
 10
33.92509241012437
 20
11.61204078062038
 30
0.0
  0
ENDBLK
  5
99B
330
999
100
AcDbEntity
  8
0
100
AcDbBlockEnd
  0
BLOCK
  5
A84
330
A83
100
AcDbEntity
  8
0
100
AcDbBlockBegin
  2
*D13
 70
     1
 10
0.0
 20
0.0
 30
0.0
  3
*D13
  1

  0
LINE
  5
B34
330
A83
100
AcDbEntity
  8
Dimension (ANSI)
100
AcDbLine
 10
12.93786007299296
 20
45.85927999483983
 30
0.0
 11
13.55028256759582
 21
45.85927999483983
 31
0.0
  0
LINE
  5
B35
330
A83
100
AcDbEntity
  8
Dimension (ANSI)
100
AcDbLine
 10
13.55028256759582
 20
45.85927999483983
 30
0.0
 11
16.29613494135595
 21
42.24516694752009
 31
0.0
  0
MTEXT
  5
B36
102
{ACAD_XDICTIONARY
360
D2A
102
}
330
A83
100
AcDbEntity
  8
Dimension (ANSI)
100
AcDbMText
 10
12.78037975803233
 20
46.31680183974945
 30
0.0
 40
0.6000000238418579
 41
0.0
 71
     3
 72
     1
  1
\A1;\U+22050.50{\PTYP.(4PL.)}
  7
Note Text (ANSI)
 73
     1
 44
1.0
1001
ACAD
1000
MTEXTBEGIN
1070
    73
1070
     1
1070
    44
1040
1.0
1070
    74
1070
     0
1000
MTEXTEND
  0
SOLID
  5
B37
330
A83
100
AcDbEntity
  8
Dimension (ANSI)
100
AcDbTrace
 10
16.36144456093834
 20
42.29478647286744
 30
0.0
 11
16.23082532177355
 21
42.19554742217273
 31
0.0
 12
16.59385209344007
 22
41.85330923002573
 32
0.0
 13
16.59385209344007
 23
41.85330923002573
 33
0.0
  0
LINE
  5
B38
330
A83
100
AcDbEntity
  8
Dimension (ANSI)
100
AcDbLine
 10
16.29509241012437
 20
41.65424550502983
 30
0.0
 11
17.19509241012437
 21
41.65424550502983
 31
0.0
  0
LINE
  5
B39
330
A83
100
AcDbEntity
  8
Dimension (ANSI)
100
AcDbLine
 10
16.74509241012437
 20
41.20424550502983
 30
0.0
 11
16.74509241012437
 21
42.10424550502985
 31
0.0
  0
POINT
  5
B3A
330
A83
100
AcDbEntity
  8
Defpoints
 62
     0
100
AcDbPoint
 10
16.59385209344007
 20
41.85330923002573
 30
0.0
  0
POINT
  5
B3B
330
A83
100
AcDbEntity
  8
Defpoints
 62
     0
100
AcDbPoint
 10
16.89633272680866
 20
41.45518178003395
 30
0.0
  0
ENDBLK
  5
A85
330
A83
100
AcDbEntity
  8
0
100
AcDbBlockEnd
  0
BLOCK
  5
B3E
330
B3D
100
AcDbEntity
  8
0
100
AcDbBlockBegin
  2
*D14
 70
     1
 10
0.0
 20
0.0
 30
0.0
  3
*D14
  1

  0
LINE
  5
BED
330
B3D
100
AcDbEntity
  8
Dimension (ANSI)
100
AcDbLine
 10
18.65206047808198
 20
12.25699733099921
 30
0.0
 11
18.03973430482254
 21
12.25699733099921
 31
0.0
  0
LINE
  5
BEE
330
B3D
100
AcDbEntity
  8
Dimension (ANSI)
100
AcDbLine
 10
18.03973430482254
 20
12.25699733099921
 30
0.0
 11
17.00291963428922
 21
14.64933666749263
 31
0.0
  0
MTEXT
  5
BEF
102
{ACAD_XDICTIONARY
360
D2C
102
}
330
B3D
100
AcDbEntity
  8
Dimension (ANSI)
100
AcDbMText
 10
18.80954079304261
 20
12.71451917590884
 30
0.0
 40
0.6000000238418579
 41
0.0
 71
     1
 72
     1
  1
\A1;\U+22050.31{\PTYP. (4PL.)}
  7
Note Text (ANSI)
 73
     1
 44
1.0
1001
ACAD
1000
MTEXTBEGIN
1070
    73
1070
     1
1070
    44
1040
1.0
1070
    74
1070
     0
1000
MTEXTEND
  0
SOLID
  5
BF0
330
B3D
100
AcDbEntity
  8
Dimension (ANSI)
100
AcDbTrace
 10
17.07817691882938
 20
14.68195238194646
 30
0.0
 11
16.92766234974905
 21
14.61672095303879
 31
0.0
 12
16.80722534756621
 22
15.10088037473362
 32
0.0
 13
16.80722534756621
 23
15.10088037473362
 33
0.0
  0
LINE
  5
BF1
330
B3D
100
AcDbEntity
  8
Dimension (ANSI)
100
AcDbLine
 10
16.29509241012436
 20
15.24424550502982
 30
0.0
 11
17.19509241012436
 21
15.24424550502982
 31
0.0
  0
LINE
  5
BF2
330
B3D
100
AcDbEntity
  8
Dimension (ANSI)
100
AcDbLine
 10
16.74509241012436
 20
14.79424550502983
 30
0.0
 11
16.74509241012436
 21
15.69424550502982
 31
0.0
  0
POINT
  5
BF3
330
B3D
100
AcDbEntity
  8
Defpoints
 62
     0
100
AcDbPoint
 10
16.80722534756621
 20
15.10088037473362
 30
0.0
  0
POINT
  5
BF4
330
B3D
100
AcDbEntity
  8
Defpoints
 62
     0
100
AcDbPoint
 10
16.68295947268251
 20
15.38761063532603
 30
0.0
  0
ENDBLK
  5
B3F
330
B3D
100
AcDbEntity
  8
0
100
AcDbBlockEnd
  0
BLOCK
  5
BF7
330
BF6
100
AcDbEntity
  8
0
100
AcDbBlockBegin
  2
*D15
 70
     1
 10
0.0
 20
0.0
 30
0.0
  3
*D15
  1

  0
LINE
  5
CD5
330
BF6
100
AcDbEntity
  8
Dimension (ANSI)
100
AcDbLine
 10
33.90509241012436
 20
41.96674550502983
 30
0.0
 11
33.90509241012436
 21
45.44885180424244
 31
0.0
  0
LINE
  5
CD6
330
BF6
100
AcDbEntity
  8
Dimension (ANSI)
100
AcDbLine
 10
16.74509241012437
 20
41.96674550502983
 30
0.0
 11
16.74509241012437
 21
45.44885180424244
 31
0.0
  0
LINE
  5
CD7
330
BF6
100
AcDbEntity
  8
Dimension (ANSI)
100
AcDbLine
 10
33.41296643701893
 20
44.82385180424244
 30
0.0
 11
26.4494632940632
 21
44.82385180424244
 31
0.0
  0
LINE
  5
CD8
330
BF6
100
AcDbEntity
  8
Dimension (ANSI)
100
AcDbLine
 10
17.2372183832298
 20
44.82385180424244
 30
0.0
 11
24.20072152618554
 21
44.82385180424244
 31
0.0
  0
SOLID
  5
CD9
330
BF6
100
AcDbEntity
  8
Dimension (ANSI)
100
AcDbTrace
 10
33.41296643701893
 20
44.90587279976001
 30
0.0
 11
33.41296643701893
 21
44.74183080872486
 31
0.0
 12
33.90509241012436
 22
44.82385180424244
 32
0.0
 13
33.90509241012436
 23
44.82385180424244
 33
0.0
  0
SOLID
  5
CDA
330
BF6
100
AcDbEntity
  8
Dimension (ANSI)
100
AcDbTrace
 10
17.2372183832298
 20
44.90587279976001
 30
0.0
 11
17.2372183832298
 21
44.74183080872486
 31
0.0
 12
16.74509241012437
 22
44.82385180424244
 32
0.0
 13
16.74509241012437
 23
44.82385180424244
 33
0.0
  0
MTEXT
  5
CDB
330
BF6
100
AcDbEntity
  8
Dimension (ANSI)
100
AcDbMText
 10
24.35820184114617
 20
45.13573898923477
 30
0.0
 40
0.6000000238418579
 41
0.0
 71
     1
 72
     1
  1
\A1;17.16
  7
Note Text (ANSI)
 73
     1
 44
1.0
1001
ACAD
1000
MTEXTBEGIN
1070
    73
1070
     1
1070
    44
1040
1.0
1070
    74
1070
     0
1000
MTEXTEND
  0
POINT
  5
CDC
330
BF6
100
AcDbEntity
  8
Defpoints
 62
     0
100
AcDbPoint
 10
33.90509241012436
 20
41.65424550502983
 30
0.0
  0
POINT
  5
CDD
330
BF6
100
AcDbEntity
  8
Defpoints
 62
     0
100
AcDbPoint
 10
16.74509241012437
 20
41.65424550502983
 30
0.0
  0
POINT
  5
CDE
330
BF6
100
AcDbEntity
  8
Defpoints
 62
     0
100
AcDbPoint
 10
16.74509241012437
 20
44.82385180424244
 30
0.0
  0
ENDBLK
  5
BF8
330
BF6
100
AcDbEntity
  8
0
100
AcDbBlockEnd
  0
ENDSEC
  0
SECTION
  2
ENTITIES
  0
MTEXT
  5
74
330
6C
100
AcDbEntity
  8
Symbol (ANSI)
100
AcDbMText
 10
50.96745202478202
 20
11.99195652537782
 30
0.0
 40
0.7000000223400085
 41
25.84185487642063
 71
     1
 72
     1
  1
PART#: NP3020C\P(DATA SUBJECT TO CHANGE WITHOUT NOTICE)\PTHIS DRAWING AND COMPONENTS OF ARE\PPROPERTY OF HUBBELL INC. WIEGMANN\P 
  7
Note Text (ANSI)
 73
     2
 44
1.093904256820678
1001
ACAD
1000
MTEXTBEGIN
1070
    73
1070
     2
1070
    44
1040
1.093904256820678
1070
    74
1070
     0
1000
MTEXTEND
  0
TEXT
  5
77
330
6C
100
AcDbEntity
  8
0
100
AcDbText
 10
74.93942252114788
 20
7.982790622440045
 30
0.0
 40
0.4866846785930925
  1
HUBBELL
  7
SANSSERIF
100
AcDbText
  0
POLYLINE
  5
79
330
6C
100
AcDbEntity
  8
0
100
AcDb2dPolyline
 66
     1
 10
0.0
 20
0.0
 30
0.0
  0
VERTEX
  5
7A
330
79
100
AcDbEntity
  8
0
100
AcDbVertex
100
AcDb2dVertex
 10
75.19157049165477
 20
7.742341144953694
 30
0.0
 42
0.0538548888021971
  0
VERTEX
  5
7B
330
79
100
AcDbEntity
  8
0
100
AcDbVertex
100
AcDb2dVertex
 10
75.36683350103972
 20
7.60507050037547
 30
0.0
 42
0.0762621633615686
 70
     2
 50
328.0963691854962
  0
VERTEX
  5
7C
330
79
100
AcDbEntity
  8
0
100
AcDbVertex
100
AcDb2dVertex
 10
75.79516657200804
 20
7.421650278171929
 30
0.0
 42
0.0631748622128167
 50
328.0963691854962
  0
VERTEX
  5
7D
330
79
100
AcDbEntity
  8
0
100
AcDbVertex
100
AcDb2dVertex
 10
76.35216203815881
 20
7.350992053074385
 30
0.0
 42
0.0631748622128144
  0
VERTEX
  5
7E
330
79
100
AcDbEntity
  8
0
100
AcDbVertex
100
AcDb2dVertex
 10
76.90915750430959
 20
7.421650278171929
 30
0.0
 42
0.0762621633615716
  0
VERTEX
  5
7F
330
79
100
AcDbEntity
  8
0
100
AcDbVertex
100
AcDb2dVertex
 10
77.33749057527787
 20
7.60507050037547
 30
0.0
 42
0.0538548888021992
 70
     2
 50
31.90363081450366
  0
VERTEX
  5
80
330
79
100
AcDbEntity
  8
0
100
AcDbVertex
100
AcDb2dVertex
 10
77.51275358466286
 20
7.742341144953694
 30
0.0
 42
0.1478388992712208
 50
31.90363081450366
  0
SEQEND
  5
81
330
79
100
AcDbEntity
  8
0
  0
POLYLINE
  5
82
330
6C
100
AcDbEntity
  8
0
100
AcDb2dPolyline
 66
     1
 10
0.0
 20
0.0
 30
0.0
  0
VERTEX
  5
83
330
82
100
AcDbEntity
  8
0
100
AcDbVertex
100
AcDb2dVertex
 10
75.51290450379467
 20
7.795373039827335
 30
0.0
 42
0.0708473647366734
  0
VERTEX
  5
84
330
82
100
AcDbEntity
  8
0
100
AcDbVertex
100
AcDb2dVertex
 10
75.67178760092737
 20
7.60507050037547
 30
0.0
 42
0.0943474025114784
 70
     2
 50
317.9633854595613
  0
VERTEX
  5
85
330
82
100
AcDbEntity
  8
0
100
AcDbVertex
100
AcDb2dVertex
 10
75.9794734983692
 20
7.418309888708805
 30
0.0
 42
0.0895889244631754
 50
317.9633854595613
  0
VERTEX
  5
86
330
82
100
AcDbEntity
  8
0
100
AcDbVertex
100
AcDb2dVertex
 10
76.35216203815881
 20
7.350992053074385
 30
0.0
 42
0.0895889244631755
  0
VERTEX
  5
87
330
82
100
AcDbEntity
  8
0
100
AcDbVertex
100
AcDb2dVertex
 10
76.72485057794843
 20
7.418309888708805
 30
0.0
 42
0.0943474025114826
  0
VERTEX
  5
88
330
82
100
AcDbEntity
  8
0
100
AcDbVertex
100
AcDb2dVertex
 10
77.03253647539026
 20
7.60507050037547
 30
0.0
 42
0.0708473647366705
 70
     2
 50
42.03661454043863
  0
VERTEX
  5
89
330
82
100
AcDbEntity
  8
0
100
AcDbVertex
100
AcDb2dVertex
 10
77.19141957252292
 20
7.795373039827335
 30
0.0
 42
0.1080871028423927
 50
42.03661454043863
  0
SEQEND
  5
8A
330
82
100
AcDbEntity
  8
0
  0
POLYLINE
  5
8B
330
6C
100
AcDbEntity
  8
0
100
AcDb2dPolyline
 66
     1
 10
0.0
 20
0.0
 30
0.0
  0
VERTEX
  5
8C
330
8B
100
AcDbEntity
  8
0
100
AcDbVertex
100
AcDb2dVertex
 10
77.50488809741122
 20
8.702176836772572
 30
0.0
 42
0.0512131062417871
  0
VERTEX
  5
8D
330
8B
100
AcDbEntity
  8
0
100
AcDbVertex
100
AcDb2dVertex
 10
77.33749057527787
 20
8.831869767137483
 30
0.0
 42
0.0762621633615678
 70
     2
 50
148.0963691854963
  0
VERTEX
  5
8E
330
8B
100
AcDbEntity
  8
0
100
AcDbVertex
100
AcDb2dVertex
 10
76.90915750430959
 20
9.015289989341033
 30
0.0
 42
0.0631748622128132
 50
148.0963691854963
  0
VERTEX
  5
8F
330
8B
100
AcDbEntity
  8
0
100
AcDbVertex
100
AcDb2dVertex
 10
76.35216203815881
 20
9.085948214438577
 30
0.0
 42
0.0631748622128155
  0
SEQEND
  5
90
330
8B
100
AcDbEntity
  8
0
  0
POLYLINE
  5
91
330
6C
100
AcDbEntity
  8
0
100
AcDb2dPolyline
 66
     1
 10
0.0
 20
0.0
 30
0.0
  0
VERTEX
  5
92
330
91
100
AcDbEntity
  8
0
100
AcDbVertex
100
AcDb2dVertex
 10
77.18751258647038
 20
8.647821234887391
 30
0.0
 42
0.0687403046083495
  0
VERTEX
  5
93
330
91
100
AcDbEntity
  8
0
100
AcDbVertex
100
AcDb2dVertex
 10
77.03253647539026
 20
8.831869767137483
 30
0.0
 42
0.0943474025114827
 70
     2
 50
137.9633854595613
  0
VERTEX
  5
94
330
91
100
AcDbEntity
  8
0
100
AcDbVertex
100
AcDb2dVertex
 10
76.72485057794843
 20
9.018630378804148
 30
0.0
 42
0.0895889244631755
 50
137.9633854595613
  0
VERTEX
  5
95
330
91
100
AcDbEntity
  8
0
100
AcDbVertex
100
AcDb2dVertex
 10
76.35216203815881
 20
9.085948214438577
 30
0.0
 42
0.0895889244631779
  0
SEQEND
  5
96
330
91
100
AcDbEntity
  8
0
  0
LINE
  5
97
330
6C
100
AcDbEntity
  8
0
100
AcDbLine
 10
78.20126795986516
 20
9.327933686780243
 30
0.0
 11
74.50305611645254
 21
9.327933686780243
 31
0.0
  0
POLYLINE
  5
98
330
6C
100
AcDbEntity
  8
0
100
AcDb2dPolyline
 66
     1
 10
0.0
 20
0.0
 30
0.0
 70
     1
  0
VERTEX
  5
99
330
98
100
AcDbEntity
  8
0
100
AcDbVertex
100
AcDb2dVertex
 10
74.50305611645254
 20
8.218470133756472
 30
0.0
 42
0.1828233251715505
  0
VERTEX
  5
9A
330
98
100
AcDbEntity
  8
0
100
AcDbVertex
100
AcDb2dVertex
 10
74.61264165573154
 20
7.928784143846687
 30
0.0
 42
0.1025674015815553
  0
VERTEX
  5
9B
330
98
100
AcDbEntity
  8
0
100
AcDbVertex
100
AcDb2dVertex
 10
75.04464670178808
 20
7.60507050037555
 30
0.0
 42
0.0617587255956112
 70
     2
 50
334.8671392208401
  0
VERTEX
  5
9C
330
98
100
AcDbEntity
  8
0
100
AcDbVertex
100
AcDb2dVertex
 10
75.60232691895096
 20
7.423171549537892
 30
0.0
 42
0.0480192641995976
 50
334.8671392208401
  0
VERTEX
  5
9D
330
98
100
AcDbEntity
  8
0
100
AcDbVertex
100
AcDb2dVertex
 10
76.35216203815881
 20
7.350992053074385
 30
0.0
 42
0.0480192641995965
  0
VERTEX
  5
9E
330
98
100
AcDbEntity
  8
0
100
AcDbVertex
100
AcDb2dVertex
 10
77.1019971573667
 20
7.423171549537892
 30
0.0
 42
0.0617587255956115
  0
VERTEX
  5
9F
330
98
100
AcDbEntity
  8
0
100
AcDbVertex
100
AcDb2dVertex
 10
77.65967737452957
 20
7.60507050037555
 30
0.0
 42
0.1025674015815654
 70
     2
 50
25.13286077915987
  0
VERTEX
  5
A0
330
98
100
AcDbEntity
  8
0
100
AcDbVertex
100
AcDb2dVertex
 10
78.091682420586
 20
7.928784143846687
 30
0.0
 42
0.18282332517157
 50
25.13286077915987
  0
VERTEX
  5
A1
330
98
100
AcDbEntity
  8
0
100
AcDbVertex
100
AcDb2dVertex
 10
78.20126795986516
 20
8.218470133756472
 30
0.0
 42
0.1828233251715568
  0
VERTEX
  5
A2
330
98
100
AcDbEntity
  8
0
100
AcDbVertex
100
AcDb2dVertex
 10
78.091682420586
 20
8.508156123666275
 30
0.0
 42
0.102567401581563
  0
VERTEX
  5
A3
330
98
100
AcDbEntity
  8
0
100
AcDbVertex
100
AcDb2dVertex
 10
77.65967737452957
 20
8.831869767137385
 30
0.0
 42
0.0617587255956141
 70
     2
 50
154.86713922084
  0
VERTEX
  5
A4
330
98
100
AcDbEntity
  8
0
100
AcDbVertex
100
AcDb2dVertex
 10
77.1019971573667
 20
9.01376871797507
 30
0.0
 42
0.0480192641995983
 50
154.86713922084
  0
VERTEX
  5
A5
330
98
100
AcDbEntity
  8
0
100
AcDbVertex
100
AcDb2dVertex
 10
76.35216203815881
 20
9.085948214438577
 30
0.0
 42
0.0480192641995976
  0
VERTEX
  5
A6
330
98
100
AcDbEntity
  8
0
100
AcDbVertex
100
AcDb2dVertex
 10
75.60232691895096
 20
9.01376871797507
 30
0.0
 42
0.0617587255956112
  0
VERTEX
  5
A7
330
98
100
AcDbEntity
  8
0
100
AcDbVertex
100
AcDb2dVertex
 10
75.04464670178808
 20
8.831869767137385
 30
0.0
 42
0.1025674015815593
 70
     2
 50
205.1328607791599
  0
VERTEX
  5
A8
330
98
100
AcDbEntity
  8
0
100
AcDbVertex
100
AcDb2dVertex
 10
74.61264165573154
 20
8.508156123666275
 30
0.0
 42
0.1828233251715536
 50
205.1328607791599
  0
SEQEND
  5
A9
330
98
100
AcDbEntity
  8
0
  0
ARC
  5
AA
330
6C
100
AcDbEntity
  8
0
100
AcDbCircle
 10
74.50305611645254
 20
8.958112502438986
 30
0.0
 40
0.3698211843412555
100
AcDbArc
 50
90.0
 51
180.0
  0
LINE
  5
AB
330
6C
100
AcDbEntity
  8
0
100
AcDbLine
 10
74.13323493211128
 20
8.958112502438986
 30
0.0
 11
74.13323493211128
 21
7.478827765073949
 31
0.0
  0
ARC
  5
AC
330
6C
100
AcDbEntity
  8
0
100
AcDbCircle
 10
74.50305611645254
 20
7.478827765073949
 30
0.0
 40
0.3698211843412555
100
AcDbArc
 50
180.0
 51
270.0
  0
POLYLINE
  5
AD
330
6C
100
AcDbEntity
  8
0
100
AcDb2dPolyline
 66
     1
 10
0.0
 20
0.0
 30
0.0
  0
VERTEX
  5
AE
330
AD
100
AcDbEntity
  8
0
100
AcDbVertex
100
AcDb2dVertex
 10
75.96731613216852
 20
7.837482038049845
 30
0.0
 42
0.0570538596573184
  0
VERTEX
  5
AF
330
AD
100
AcDbEntity
  8
0
100
AcDbVertex
100
AcDb2dVertex
 10
76.05037555345752
 20
7.605070500375425
 30
0.0
 42
0.1038195938885091
 70
     2
 50
296.1967246921072
  0
VERTEX
  5
B0
330
AD
100
AcDbEntity
  8
0
100
AcDbVertex
100
AcDb2dVertex
 10
76.20810240402886
 20
7.403560073578363
 30
0.0
 42
0.1767522344444316
 50
296.1967246921072
  0
VERTEX
  5
B1
330
AD
100
AcDbEntity
  8
0
100
AcDbVertex
100
AcDb2dVertex
 10
76.35216203815881
 20
7.350992053074385
 30
0.0
 42
0.1767522344444399
  0
VERTEX
  5
B2
330
AD
100
AcDbEntity
  8
0
100
AcDbVertex
100
AcDb2dVertex
 10
76.49622167228885
 20
7.403560073578363
 30
0.0
 42
0.1038195938885123
  0
VERTEX
  5
B3
330
AD
100
AcDbEntity
  8
0
100
AcDbVertex
100
AcDb2dVertex
 10
76.65394852286006
 20
7.605070500375425
 30
0.0
 42
0.0570538596573163
 70
     2
 50
63.8032753078928
  0
VERTEX
  5
B4
330
AD
100
AcDbEntity
  8
0
100
AcDbVertex
100
AcDb2dVertex
 10
76.73700794414905
 20
7.837482038049845
 30
0.0
 42
0.0503013836282066
 50
63.8032753078928
  0
SEQEND
  5
B5
330
AD
100
AcDbEntity
  8
0
  0
POLYLINE
  5
B6
330
6C
100
AcDbEntity
  8
0
100
AcDb2dPolyline
 66
     1
 10
0.0
 20
0.0
 30
0.0
  0
VERTEX
  5
B7
330
B6
100
AcDbEntity
  8
0
100
AcDbVertex
100
AcDb2dVertex
 10
76.35216203815881
 20
9.085948214438577
 30
0.0
 42
0.1767522344444361
  0
VERTEX
  5
B8
330
B6
100
AcDbEntity
  8
0
100
AcDbVertex
100
AcDb2dVertex
 10
76.20810240402886
 20
9.033380193934554
 30
0.0
 42
0.1038195938884991
  0
VERTEX
  5
B9
330
B6
100
AcDbEntity
  8
0
100
AcDbVertex
100
AcDb2dVertex
 10
76.05037555345752
 20
8.83186976713751
 30
0.0
 42
0.0567223889277798
 70
     2
 50
243.8032753078928
  0
VERTEX
  5
BA
330
B6
100
AcDbEntity
  8
0
100
AcDbVertex
100
AcDb2dVertex
 10
75.96764291171209
 20
8.600854424168442
 30
0.0
 42
0.0503013836282199
 50
243.8032753078928
  0
SEQEND
  5
BB
330
B6
100
AcDbEntity
  8
0
  0
POLYLINE
  5
BC
330
6C
100
AcDbEntity
  8
0
100
AcDb2dPolyline
 66
     1
 10
0.0
 20
0.0
 30
0.0
  0
VERTEX
  5
BD
330
BC
100
AcDbEntity
  8
0
100
AcDbVertex
100
AcDb2dVertex
 10
76.35216203815881
 20
9.085948214438577
 30
0.0
 42
0.0895889244631779
  0
VERTEX
  5
BE
330
BC
100
AcDbEntity
  8
0
100
AcDbVertex
100
AcDb2dVertex
 10
75.9794734983692
 20
9.018630378804148
 30
0.0
 42
0.094347402511486
  0
VERTEX
  5
BF
330
BC
100
AcDbEntity
  8
0
100
AcDbVertex
100
AcDb2dVertex
 10
75.67178760092737
 20
8.831869767137483
 30
0.0
 42
0.0687403046083514
 70
     2
 50
222.0366145404387
  0
VERTEX
  5
C0
330
BC
100
AcDbEntity
  8
0
100
AcDbVertex
100
AcDb2dVertex
 10
75.51681148984727
 20
8.647821234887391
 30
0.0
 42
0.1080871028423927
 50
222.0366145404387
  0
SEQEND
  5
C1
330
BC
100
AcDbEntity
  8
0
  0
POLYLINE
  5
C2
330
6C
100
AcDbEntity
  8
0
100
AcDb2dPolyline
 66
     1
 10
0.0
 20
0.0
 30
0.0
  0
VERTEX
  5
C3
330
C2
100
AcDbEntity
  8
0
100
AcDbVertex
100
AcDb2dVertex
 10
76.35216203815881
 20
9.085948214438577
 30
0.0
 42
0.0631748622128155
  0
VERTEX
  5
C4
330
C2
100
AcDbEntity
  8
0
100
AcDbVertex
100
AcDb2dVertex
 10
75.79516657200804
 20
9.015289989341033
 30
0.0
 42
0.0762621633615699
  0
VERTEX
  5
C5
330
C2
100
AcDbEntity
  8
0
100
AcDbVertex
100
AcDb2dVertex
 10
75.36683350103972
 20
8.831869767137483
 30
0.0
 42
0.0512131062417906
 70
     2
 50
211.9036308145036
  0
VERTEX
  5
C6
330
C2
100
AcDbEntity
  8
0
100
AcDbVertex
100
AcDb2dVertex
 10
75.19943597890641
 20
8.702176836772572
 30
0.0
 42
0.1478388992712295
 50
211.9036308145036
  0
SEQEND
  5
C7
330
C2
100
AcDbEntity
  8
0
  0
POLYLINE
  5
C8
330
6C
100
AcDbEntity
  8
0
100
AcDb2dPolyline
 66
     1
 10
0.0
 20
0.0
 30
0.0
  0
VERTEX
  5
C9
330
C8
100
AcDbEntity
  8
0
100
AcDbVertex
100
AcDb2dVertex
 10
76.7366811646056
 20
8.600854424168442
 30
0.0
 42
0.0567223889277601
  0
VERTEX
  5
CA
330
C8
100
AcDbEntity
  8
0
100
AcDbVertex
100
AcDb2dVertex
 10
76.65394852286006
 20
8.83186976713751
 30
0.0
 42
0.1038195938884991
 70
     2
 50
116.1967246921072
  0
VERTEX
  5
CB
330
C8
100
AcDbEntity
  8
0
100
AcDbVertex
100
AcDb2dVertex
 10
76.49622167228885
 20
9.033380193934554
 30
0.0
 42
0.1767522344444361
 50
116.1967246921072
  0
VERTEX
  5
CC
330
C8
100
AcDbEntity
  8
0
100
AcDbVertex
100
AcDb2dVertex
 10
76.35216203815881
 20
9.085948214438577
 30
0.0
 42
0.1767522344444361
  0
SEQEND
  5
CD
330
C8
100
AcDbEntity
  8
0
  0
ARC
  5
CE
330
6C
100
AcDbEntity
  8
0
100
AcDbCircle
 10
78.20126795986516
 20
8.958112502438986
 30
0.0
 40
0.3698211843412555
100
AcDbArc
 50
0.0
 51
90.0
  0
CIRCLE
  5
CF
330
6C
100
AcDbEntity
  8
0
100
AcDbCircle
 10
78.91990616433192
 20
9.137350875006475
 30
0.0
 40
0.1924617275235094
  0
TEXT
  5
D0
330
6C
100
AcDbEntity
  8
0
100
AcDbText
 10
78.79579391979625
 20
9.008697313332039
 30
0.0
 40
0.2259090677762226
  1
R
  7
SANSSERIF
100
AcDbText
  0
LINE
  5
D1
330
6C
100
AcDbEntity
  8
0
100
AcDbLine
 10
78.57108914420632
 20
7.478827765073949
 30
0.0
 11
78.57108914420632
 21
8.958112502438986
 31
0.0
  0
ARC
  5
D2
330
6C
100
AcDbEntity
  8
0
100
AcDbCircle
 10
78.20126795986516
 20
7.478827765073949
 30
0.0
 40
0.3698211843412555
100
AcDbArc
 50
270.0
 51
0.0
  0
LINE
  5
D3
330
6C
100
AcDbEntity
  8
0
100
AcDbLine
 10
74.50305611645254
 20
7.109006580732692
 30
0.0
 11
78.20126795986516
 21
7.109006580732692
 31
0.0
  0
LINE
  5
17A
330
6C
100
AcDbEntity
  8
Visible (ANSI)
100
AcDbLine
 10
34.42509241012436
 20
15.69224550502983
 30
0.0
 11
34.42509241012435
 21
40.45624550502983
 31
0.0
  0
LINE
  5
17B
330
6C
100
AcDbEntity
  8
Visible (ANSI)
100
AcDbLine
 10
34.42509241012436
 20
15.69224550502983
 30
0.0
 11
34.31574241012437
 21
15.69224550502983
 31
0.0
  0
LINE
  5
17C
330
6C
100
AcDbEntity
  8
Visible (ANSI)
100
AcDbLine
 10
34.42509241012434
 20
40.45624550502983
 30
0.0
 11
34.31574241012437
 21
40.45624550502983
 31
0.0
  0
LINE
  5
17D
330
6C
100
AcDbEntity
  8
Visible (ANSI)
100
AcDbLine
 10
34.31554241012436
 20
40.45644550502983
 30
0.0
 11
34.42509241012436
 21
40.45644550502983
 31
0.0
  0
LINE
  5
17E
330
6C
100
AcDbEntity
  8
Visible (ANSI)
100
AcDbLine
 10
34.31554241012436
 20
40.45624550502983
 30
0.0
 11
34.31554241012436
 21
40.45644550502983
 31
0.0
  0
LINE
  5
17F
330
6C
100
AcDbEntity
  8
Visible (ANSI)
100
AcDbLine
 10
34.31554241012437
 20
15.69204550502983
 30
0.0
 11
34.31554241012437
 21
15.69224550502983
 31
0.0
  0
LINE
  5
180
330
6C
100
AcDbEntity
  8
Visible (ANSI)
100
AcDbLine
 10
34.42509241012436
 20
15.69204550502983
 30
0.0
 11
34.31554241012437
 21
15.69204550502983
 31
0.0
  0
LINE
  5
181
330
6C
100
AcDbEntity
  8
Hidden (ANSI)
 48
1.089149832725524
100
AcDbLine
 10
34.33134241012436
 20
40.45624550502983
 30
0.0
 11
34.33134241012436
 21
15.69224550502983
 31
0.0
  0
LINE
  5
182
330
6C
100
AcDbEntity
  8
Visible (ANSI)
100
AcDbLine
 10
34.31554241012437
 20
15.69224550502983
 30
0.0
 11
34.31574241012437
 21
15.69224550502983
 31
0.0
  0
LINE
  5
183
330
6C
100
AcDbEntity
  8
Visible (ANSI)
100
AcDbLine
 10
34.31574241012437
 20
40.45624550502983
 30
0.0
 11
34.31554241012436
 21
40.45624550502983
 31
0.0
  0
LINE
  5
184
330
6C
100
AcDbEntity
  8
Visible (ANSI)
100
AcDbLine
 10
34.42509241012436
 20
41.67424550502983
 30
0.0
 11
34.42509241012436
 21
40.45644550502983
 31
0.0
  0
LINE
  5
185
330
6C
100
AcDbEntity
  8
Visible (ANSI)
100
AcDbLine
 10
16.72509241012435
 20
42.17424550502983
 30
0.0
 11
33.92509241012436
 21
42.17424550502983
 31
0.0
  0
LINE
  5
186
330
6C
100
AcDbEntity
  8
Visible (ANSI)
100
AcDbLine
 10
16.22509241012436
 20
40.45644550502983
 30
0.0
 11
16.22509241012436
 21
41.67424550502983
 31
0.0
  0
LINE
  5
187
330
6C
100
AcDbEntity
  8
Visible (ANSI)
100
AcDbLine
 10
16.22509241012437
 20
14.47424550502983
 30
0.0
 11
16.22509241012437
 21
15.69204550502983
 31
0.0
  0
LINE
  5
188
330
6C
100
AcDbEntity
  8
Visible (ANSI)
100
AcDbLine
 10
33.92509241012437
 20
13.97424550502983
 30
0.0
 11
16.72509241012437
 21
13.97424550502983
 31
0.0
  0
LINE
  5
189
330
6C
100
AcDbEntity
  8
Visible (ANSI)
100
AcDbLine
 10
34.42509241012436
 20
15.69204550502983
 30
0.0
 11
34.42509241012436
 21
14.47424550502983
 31
0.0
  0
LINE
  5
18A
330
6C
100
AcDbEntity
  8
Visible (ANSI)
100
AcDbLine
 10
33.92509241012436
 20
42.17424550502983
 30
0.0
 11
34.42509241012436
 21
41.67424550502983
 31
0.0
  0
LINE
  5
18B
330
6C
100
AcDbEntity
  8
Visible (ANSI)
100
AcDbLine
 10
16.22509241012436
 20
41.67424550502983
 30
0.0
 11
16.72509241012435
 21
42.17424550502983
 31
0.0
  0
LINE
  5
18C
330
6C
100
AcDbEntity
  8
Visible (ANSI)
100
AcDbLine
 10
16.22509241012436
 20
40.45644550502983
 30
0.0
 11
16.33464241012435
 21
40.45644550502983
 31
0.0
  0
LINE
  5
18D
330
6C
100
AcDbEntity
  8
Visible (ANSI)
100
AcDbLine
 10
16.33464241012435
 20
40.45644550502983
 30
0.0
 11
16.33464241012435
 21
40.45624550502983
 31
0.0
  0
LINE
  5
18E
330
6C
100
AcDbEntity
  8
Visible (ANSI)
100
AcDbLine
 10
16.33464241012435
 20
15.69224550502983
 30
0.0
 11
16.33464241012435
 21
15.69204550502983
 31
0.0
  0
LINE
  5
18F
330
6C
100
AcDbEntity
  8
Visible (ANSI)
100
AcDbLine
 10
16.33464241012435
 20
15.69204550502983
 30
0.0
 11
16.22509241012437
 21
15.69204550502983
 31
0.0
  0
LINE
  5
190
330
6C
100
AcDbEntity
  8
Visible (ANSI)
100
AcDbLine
 10
16.22509241012437
 20
40.45624550502983
 30
0.0
 11
16.22509241012437
 21
15.69224550502983
 31
0.0
  0
LINE
  5
191
330
6C
100
AcDbEntity
  8
Visible (ANSI)
100
AcDbLine
 10
16.22509241012437
 20
40.45624550502983
 30
0.0
 11
16.33444241012435
 21
40.45624550502983
 31
0.0
  0
LINE
  5
192
330
6C
100
AcDbEntity
  8
Visible (ANSI)
100
AcDbLine
 10
16.22509241012437
 20
15.69224550502983
 30
0.0
 11
16.33444241012436
 21
15.69224550502983
 31
0.0
  0
LINE
  5
193
330
6C
100
AcDbEntity
  8
Hidden (ANSI)
 48
1.089149832725524
100
AcDbLine
 10
16.31884241012437
 20
15.69224550502983
 30
0.0
 11
16.31884241012437
 21
40.45624550502983
 31
0.0
  0
LINE
  5
194
330
6C
100
AcDbEntity
  8
Visible (ANSI)
100
AcDbLine
 10
16.33464241012435
 20
40.45624550502983
 30
0.0
 11
16.33444241012435
 21
40.45624550502983
 31
0.0
  0
LINE
  5
195
330
6C
100
AcDbEntity
  8
Visible (ANSI)
100
AcDbLine
 10
16.33444241012436
 20
15.69224550502983
 30
0.0
 11
16.33464241012435
 21
15.69224550502983
 31
0.0
  0
LINE
  5
196
330
6C
100
AcDbEntity
  8
Visible (ANSI)
100
AcDbLine
 10
16.72509241012437
 20
13.97424550502983
 30
0.0
 11
16.22509241012437
 21
14.47424550502983
 31
0.0
  0
LINE
  5
197
330
6C
100
AcDbEntity
  8
Visible (ANSI)
100
AcDbLine
 10
34.42509241012436
 20
14.47424550502983
 30
0.0
 11
33.92509241012437
 21
13.97424550502983
 31
0.0
  0
CIRCLE
  5
198
330
6C
100
AcDbEntity
  8
Visible (ANSI)
100
AcDbCircle
 10
33.90509241012436
 20
41.65424550502983
 30
0.0
 40
0.25
  0
CIRCLE
  5
199
330
6C
100
AcDbEntity
  8
Visible (ANSI)
100
AcDbCircle
 10
16.74509241012437
 20
41.65424550502983
 30
0.0
 40
0.25
  0
CIRCLE
  5
19A
330
6C
100
AcDbEntity
  8
Visible (ANSI)
100
AcDbCircle
 10
16.74509241012437
 20
14.49424550502983
 30
0.0
 40
0.25
  0
CIRCLE
  5
19B
330
6C
100
AcDbEntity
  8
Visible (ANSI)
100
AcDbCircle
 10
33.90509241012436
 20
14.49424550502983
 30
0.0
 40
0.25
  0
CIRCLE
  5
19C
330
6C
100
AcDbEntity
  8
Visible (ANSI)
100
AcDbCircle
 10
33.90509241012436
 20
40.90424550502983
 30
0.0
 40
0.15625
  0
CIRCLE
  5
19D
330
6C
100
AcDbEntity
  8
Visible (ANSI)
100
AcDbCircle
 10
16.74509241012437
 20
40.90424550502983
 30
0.0
 40
0.15625
  0
CIRCLE
  5
19E
330
6C
100
AcDbEntity
  8
Visible (ANSI)
100
AcDbCircle
 10
16.74509241012437
 20
15.24424550502983
 30
0.0
 40
0.15625
  0
CIRCLE
  5
19F
330
6C
100
AcDbEntity
  8
Visible (ANSI)
100
AcDbCircle
 10
33.90509241012436
 20
15.24424550502983
 30
0.0
 40
0.15625
  0
LINE
  5
1A0
330
6C
100
AcDbEntity
  8
Visible (ANSI)
100
AcDbLine
 10
53.55117266185807
 20
15.69224550502983
 30
0.0
 11
54.21582266185804
 21
15.69224550502983
 31
0.0
  0
LINE
  5
1A1
330
6C
100
AcDbEntity
  8
Visible (ANSI)
100
AcDbLine
 10
54.21582266185804
 20
40.45624550502983
 30
0.0
 11
54.21582266185804
 21
15.69224550502983
 31
0.0
  0
LINE
  5
1A2
330
6C
100
AcDbEntity
  8
Visible (ANSI)
100
AcDbLine
 10
54.21582266185804
 20
40.45624550502983
 30
0.0
 11
53.55117266185806
 21
40.45624550502983
 31
0.0
  0
LINE
  5
1A3
330
6C
100
AcDbEntity
  8
Visible (ANSI)
100
AcDbLine
 10
53.55117266185807
 20
15.69224550502983
 30
0.0
 11
53.44182266185801
 21
15.69224550502983
 31
0.0
  0
LINE
  5
1A4
330
6C
100
AcDbEntity
  8
Visible (ANSI)
100
AcDbLine
 10
53.55117266185805
 20
40.45624550502983
 30
0.0
 11
53.44182266185801
 21
40.45624550502983
 31
0.0
  0
LINE
  5
1A5
330
6C
100
AcDbEntity
  8
Visible (ANSI)
100
AcDbLine
 10
53.44182266185801
 20
15.69224550502983
 30
0.0
 11
53.44182266185801
 21
40.45624550502983
 31
0.0
  0
LINE
  5
1A6
330
6C
100
AcDbEntity
  8
Visible (ANSI)
100
AcDbLine
 10
53.44182266185804
 20
40.45644550502983
 30
0.0
 11
53.53557266185805
 21
40.45644550502983
 31
0.0
  0
LINE
  5
1A7
330
6C
100
AcDbEntity
  8
Visible (ANSI)
100
AcDbLine
 10
53.53557266185801
 20
40.45644550502983
 30
0.0
 11
53.53557266185801
 21
40.45624550502983
 31
0.0
  0
LINE
  5
1A8
330
6C
100
AcDbEntity
  8
Visible (ANSI)
100
AcDbLine
 10
53.44182266185801
 20
40.45624550502983
 30
0.0
 11
53.44182266185801
 21
40.45644550502983
 31
0.0
  0
LINE
  5
1A9
330
6C
100
AcDbEntity
  8
Visible (ANSI)
100
AcDbLine
 10
53.53557266185801
 20
15.69224550502983
 30
0.0
 11
53.53557266185801
 21
15.69204550502983
 31
0.0
  0
LINE
  5
1AA
330
6C
100
AcDbEntity
  8
Visible (ANSI)
100
AcDbLine
 10
53.44182266185801
 20
15.69204550502983
 30
0.0
 11
53.44182266185801
 21
15.69224550502983
 31
0.0
  0
LINE
  5
1AB
330
6C
100
AcDbEntity
  8
Visible (ANSI)
100
AcDbLine
 10
53.53557266185805
 20
15.69204550502983
 30
0.0
 11
53.44182266185804
 21
15.69204550502983
 31
0.0
  0
LINE
  5
1AC
330
6C
100
AcDbEntity
  8
Hidden (ANSI)
 48
1.089149832725524
100
AcDbLine
 10
53.53557266185801
 20
40.45624550502983
 30
0.0
 11
53.53557266185801
 21
15.69224550502983
 31
0.0
  0
LINE
  5
1AD
330
6C
100
AcDbEntity
  8
Visible (ANSI)
100
AcDbLine
 10
53.53557266185805
 20
14.47424550502983
 30
0.0
 11
53.53557266185805
 21
15.69204550502983
 31
0.0
  0
LINE
  5
1AE
330
6C
100
AcDbEntity
  8
Visible (ANSI)
100
AcDbLine
 10
53.53557266185805
 20
40.45644550502983
 30
0.0
 11
53.53557266185805
 21
41.67424550502983
 31
0.0
  0
LINE
  5
1AF
330
6C
100
AcDbEntity
  8
Visible (ANSI)
100
AcDbLine
 10
53.44182266185804
 20
41.67424550502983
 30
0.0
 11
53.44182266185804
 21
40.45644550502983
 31
0.0
  0
LINE
  5
1B0
330
6C
100
AcDbEntity
  8
Visible (ANSI)
100
AcDbLine
 10
53.44182266185804
 20
15.69204550502983
 30
0.0
 11
53.44182266185804
 21
14.47424550502983
 31
0.0
  0
LINE
  5
1B1
330
6C
100
AcDbEntity
  8
Visible (ANSI)
100
AcDbLine
 10
53.5355726618579
 20
13.97424550502983
 30
0.0
 11
53.53557266185805
 21
14.47424550502983
 31
0.0
  0
LINE
  5
1B2
330
6C
100
AcDbEntity
  8
Visible (ANSI)
100
AcDbLine
 10
53.44182266185804
 20
14.47424550502983
 30
0.0
 11
53.44182266185789
 21
13.97424550502983
 31
0.0
  0
LINE
  5
1B3
330
6C
100
AcDbEntity
  8
Visible (ANSI)
100
AcDbLine
 10
53.44182266185789
 20
13.97424550502983
 30
0.0
 11
53.5355726618579
 21
13.97424550502983
 31
0.0
  0
LINE
  5
1B4
330
6C
100
AcDbEntity
  8
Visible (ANSI)
100
AcDbLine
 10
53.53557266185805
 20
14.47424550502983
 30
0.0
 11
53.44182266185804
 21
14.47424550502983
 31
0.0
  0
LINE
  5
1B5
330
6C
100
AcDbEntity
  8
Visible (ANSI)
100
AcDbLine
 10
53.53557266185805
 20
41.67424550502983
 30
0.0
 11
53.5355726618579
 21
42.17424550502983
 31
0.0
  0
LINE
  5
1B6
330
6C
100
AcDbEntity
  8
Visible (ANSI)
100
AcDbLine
 10
53.44182266185789
 20
42.17424550502983
 30
0.0
 11
53.44182266185804
 21
41.67424550502983
 31
0.0
  0
LINE
  5
1B7
330
6C
100
AcDbEntity
  8
Visible (ANSI)
100
AcDbLine
 10
53.44182266185804
 20
41.67424550502983
 30
0.0
 11
53.53557266185805
 21
41.67424550502983
 31
0.0
  0
LINE
  5
1B8
330
6C
100
AcDbEntity
  8
Visible (ANSI)
100
AcDbLine
 10
53.5355726618579
 20
42.17424550502983
 30
0.0
 11
53.44182266185789
 21
42.17424550502983
 31
0.0
  0
LINE
  5
1B9
330
6C
100
AcDbEntity
  8
Hidden (ANSI)
 48
0.0356130599975586
100
AcDbLine
 10
53.44182266185789
 20
41.90424550502983
 30
0.0
 11
53.5355726618579
 21
41.90424550502983
 31
0.0
  0
LINE
  5
1BA
330
6C
100
AcDbEntity
  8
Hidden (ANSI)
 48
0.0356130599975586
100
AcDbLine
 10
53.44182266185789
 20
41.40424550502983
 30
0.0
 11
53.5355726618579
 21
41.40424550502983
 31
0.0
  0
LINE
  5
1BB
330
6C
100
AcDbEntity
  8
Hidden (ANSI)
 48
0.0356130599975586
100
AcDbLine
 10
53.44182266185789
 20
14.74424550502983
 30
0.0
 11
53.5355726618579
 21
14.74424550502983
 31
0.0
  0
LINE
  5
1BC
330
6C
100
AcDbEntity
  8
Hidden (ANSI)
 48
0.0356130599975586
100
AcDbLine
 10
53.44182266185789
 20
14.24424550502983
 30
0.0
 11
53.5355726618579
 21
14.24424550502983
 31
0.0
  0
LINE
  5
1BD
330
6C
100
AcDbEntity
  8
Hidden (ANSI)
 48
0.0356130599975586
100
AcDbLine
 10
53.44182266185789
 20
41.06049550502983
 30
0.0
 11
53.5355726618579
 21
41.06049550502983
 31
0.0
  0
LINE
  5
1BE
330
6C
100
AcDbEntity
  8
Hidden (ANSI)
 48
0.0356130599975586
100
AcDbLine
 10
53.44182266185789
 20
40.74799550502983
 30
0.0
 11
53.5355726618579
 21
40.74799550502983
 31
0.0
  0
LINE
  5
1BF
330
6C
100
AcDbEntity
  8
Hidden (ANSI)
 48
0.0356130599975586
100
AcDbLine
 10
53.44182266185789
 20
15.40049550502983
 30
0.0
 11
53.5355726618579
 21
15.40049550502983
 31
0.0
  0
LINE
  5
1C0
330
6C
100
AcDbEntity
  8
Hidden (ANSI)
 48
0.0356130599975586
100
AcDbLine
 10
53.44182266185789
 20
15.08799550502983
 30
0.0
 11
53.5355726618579
 21
15.08799550502983
 31
0.0
  0
LINE
  5
1C1
330
6C
100
AcDbEntity
  8
Visible Narrow (ANSI)
100
AcDbLine
 10
79.66682872650029
 20
28.19727987990104
 30
0.0
 11
79.6668287265003
 21
43.38158262960159
 31
0.0
  0
ELLIPSE
  5
1C2
330
6C
100
AcDbEntity
  8
Visible (ANSI)
100
AcDbEllipse
 10
79.6088371316082
 20
28.23067501837842
 30
0.0
 11
0.0820124999999977
 21
0.0000000000000048
 31
0.0
210
0.0
220
0.0
230
1.0
 40
0.5758617009853074
 41
3.926990816987089
 42
5.497787143782102
  0
LINE
  5
1C3
330
6C
100
AcDbEntity
  8
Visible (ANSI)
100
AcDbLine
 10
79.55073947069898
 20
43.38164370895865
 30
0.0
 11
79.55084594771292
 21
43.38170502499301
 31
0.0
  0
ELLIPSE
  5
1C4
330
6C
100
AcDbEntity
  8
Visible (ANSI)
100
AcDbEllipse
 10
79.60883713160828
 20
43.41497776807902
 30
0.0
 11
0.0820125000001033
 21
0.0000000000000048
 31
0.0
210
0.0
220
0.0
230
1.0
 40
0.5758617009853074
 41
3.926990816987288
 42
3.987598387464429
  0
ELLIPSE
  5
1C5
330
6C
100
AcDbEntity
  8
Visible (ANSI)
100
AcDbEllipse
 10
79.60883713160779
 20
43.41497776807925
 30
0.0
 11
0.082012500000642
 21
-0.0000000000000001
 31
0.0
210
0.0
220
0.0
230
1.0
 40
0.5758617009853071
 41
5.363700662383767
 42
5.497787143781825
  0
LINE
  5
1C6
330
6C
100
AcDbEntity
  8
Visible Narrow (ANSI)
100
AcDbLine
 10
79.55084553671615
 20
28.19727987990102
 30
0.0
 11
79.55084553671617
 21
43.38158262960157
 31
0.0
  0
LINE
  5
1C7
330
6C
100
AcDbEntity
  8
Visible (ANSI)
100
AcDbLine
 10
79.60883713160822
 20
43.34831012319291
 30
0.0
 11
79.65855557716041
 21
43.37694107181895
 31
0.0
  0
LINE
  5
1C8
330
6C
100
AcDbEntity
  8
Visible (ANSI)
100
AcDbLine
 10
79.55073947069898
 20
43.38176634102737
 30
0.0
 11
79.60883713160822
 21
43.34831012319291
 31
0.0
  0
LINE
  5
1C9
330
6C
100
AcDbEntity
  8
Visible (ANSI)
100
AcDbLine
 10
79.55073947069898
 20
43.38164370895865
 30
0.0
 11
79.55073947069898
 21
43.38176634102737
 31
0.0
  0
LINE
  5
1CA
330
6C
100
AcDbEntity
  8
Visible (ANSI)
100
AcDbLine
 10
79.55073947069897
 20
28.19721832718937
 30
0.0
 11
79.55073947069897
 21
28.19734095925809
 31
0.0
  0
LINE
  5
1CB
330
6C
100
AcDbEntity
  8
Visible (ANSI)
100
AcDbLine
 10
79.55073947069897
 20
28.19721832718937
 30
0.0
 11
79.55084594771436
 21
28.19727964322457
 31
0.0
  0
LINE
  5
1CC
330
6C
100
AcDbEntity
  8
Visible (ANSI)
100
AcDbLine
 10
79.65784049001725
 20
28.19280484927954
 30
0.0
 11
79.65855557716039
 21
28.19239305798094
 31
0.0
  0
LINE
  5
1CD
330
6C
100
AcDbEntity
  8
Visible (ANSI)
100
AcDbLine
 10
79.60883713160821
 20
28.16376210935491
 30
0.0
 11
79.55073947069897
 21
28.19721832718937
 31
0.0
  0
LINE
  5
1CE
330
6C
100
AcDbEntity
  8
Visible (ANSI)
100
AcDbLine
 10
79.65855557716039
 20
28.19239305798094
 30
0.0
 11
79.60883713160821
 21
28.16376210935491
 31
0.0
  0
LINE
  5
1CF
330
6C
100
AcDbEntity
  8
Visible (ANSI)
100
AcDbLine
 10
79.66682872650029
 20
28.19727987990104
 30
0.0
 11
80.01931261808696
 21
28.40026185328012
 31
0.0
  0
LINE
  5
1D0
330
6C
100
AcDbEntity
  8
Visible (ANSI)
100
AcDbLine
 10
80.01931261808698
 20
43.58456460298067
 30
0.0
 11
80.01931261808696
 21
28.40026185328012
 31
0.0
  0
LINE
  5
1D1
330
6C
100
AcDbEntity
  8
Visible (ANSI)
100
AcDbLine
 10
80.01931261808698
 20
43.58456460298067
 30
0.0
 11
79.6668287265003
 21
43.38158262960159
 31
0.0
  0
LINE
  5
1D2
330
6C
100
AcDbEntity
  8
Visible (ANSI)
100
AcDbLine
 10
79.55073947069897
 20
28.19734095925809
 30
0.0
 11
79.55084553671615
 21
28.19727987990102
 31
0.0
  0
LINE
  5
1D3
330
6C
100
AcDbEntity
  8
Visible (ANSI)
100
AcDbLine
 10
79.96959417253477
 20
43.61319555160668
 30
0.0
 11
80.01931261808698
 21
43.58456460298067
 31
0.0
  0
LINE
  5
1D4
330
6C
100
AcDbEntity
  8
Visible (ANSI)
100
AcDbLine
 10
79.65855557716039
 20
43.43408033700227
 30
0.0
 11
79.96959417253477
 21
43.61319555160668
 31
0.0
  0
LINE
  5
1D5
330
6C
100
AcDbEntity
  8
Visible (ANSI)
100
AcDbLine
 10
79.55084553671617
 20
43.38158262960157
 30
0.0
 11
79.55073947069898
 21
43.38164370895865
 31
0.0
  0
ELLIPSE
  5
1D6
330
6C
100
AcDbEntity
  8
Visible (ANSI)
100
AcDbEllipse
 10
79.38278393249762
 20
44.27019085980023
 30
0.0
 11
-0.0935685396720757
 21
0.1624843942772221
 31
0.0
210
0.0
220
0.0
230
1.0
 40
0.5780931159158121
 41
0.2678448778126409
 42
2.873747775777252
  0
ELLIPSE
  5
1D7
330
6C
100
AcDbEntity
  8
Visible (ANSI)
100
AcDbEllipse
 10
70.28231965862542
 20
49.51079969630676
 30
0.0
 11
-0.093568539672075
 21
0.1624843942772209
 31
0.0
210
0.0
220
0.0
230
1.0
 40
0.5780931159158119
 41
0.2678448778126413
 42
2.873747775777252
  0
ELLIPSE
  5
1D8
330
6C
100
AcDbEntity
  8
Visible (ANSI)
100
AcDbEllipse
 10
70.2823196586254
 20
32.85736476326416
 30
0.0
 11
-0.0935685396720749
 21
0.1624843942772208
 31
0.0
210
0.0
220
0.0
230
1.0
 40
0.5780931159158121
 41
0.2678448778126405
 42
2.873747775777252
  0
ELLIPSE
  5
1D9
330
6C
100
AcDbEntity
  8
Visible (ANSI)
100
AcDbEllipse
 10
79.38278393249759
 20
27.61675592675763
 30
0.0
 11
-0.0935685396720753
 21
0.1624843942772213
 31
0.0
210
0.0
220
0.0
230
0.9999999999999998
 40
0.5780931159158121
 41
0.2678448778126206
 42
2.873747775777252
  0
ELLIPSE
  5
1DA
330
6C
100
AcDbEntity
  8
Visible (ANSI)
100
AcDbEllipse
 10
79.38278393249762
 20
43.81032060207629
 30
0.0
 11
0.0584803372950538
 21
-0.1015527464232611
 31
0.0
210
0.0
220
0.0
230
1.0
 40
0.578093115915812
 41
3.578838513251628
 42
5.845939447516891
  0
ELLIPSE
  5
1DB
330
6C
100
AcDbEntity
  8
Visible (ANSI)
100
AcDbEllipse
 10
70.28231965862542
 20
49.05092943858282
 30
0.0
 11
0.058480337295053
 21
-0.1015527464232597
 31
0.0
210
0.0
220
0.0
230
0.9999999999999998
 40
0.578093115915812
 41
3.578838513251698
 42
5.845939447517078
  0
ELLIPSE
  5
1DC
330
6C
100
AcDbEntity
  8
Visible (ANSI)
100
AcDbEllipse
 10
70.28231965862541
 20
33.31723502098809
 30
0.0
 11
0.0584803372950529
 21
-0.1015527464232595
 31
0.0
210
0.0
220
0.0
230
1.0
 40
0.5780931159158122
 41
3.578838513251698
 42
5.845939447517078
  0
ELLIPSE
  5
1DD
330
6C
100
AcDbEntity
  8
Visible (ANSI)
100
AcDbEllipse
 10
79.38278393249759
 20
28.07662618448155
 30
0.0
 11
0.0584803372950538
 21
-0.1015527464232611
 31
0.0
210
0.0
220
0.0
230
1.0
 40
0.578093115915812
 41
3.578838513251664
 42
5.845939447516866
  0
ELLIPSE
  5
1DE
330
6C
100
AcDbEntity
  8
Visible (ANSI)
100
AcDbEllipse
 10
79.33306548694544
 20
44.2415599111742
 30
0.0
 11
-0.093568539672075
 21
0.1624843942772208
 31
0.0
210
0.0
220
0.0
230
1.0
 40
0.578093115915812
 41
0.0
 42
6.283185307179586
  0
ELLIPSE
  5
1DF
330
6C
100
AcDbEntity
  8
Visible (ANSI)
100
AcDbEllipse
 10
70.23260121307323
 20
49.48216874768073
 30
0.0
 11
-0.093568539672075
 21
0.1624843942772208
 31
0.0
210
0.0
220
0.0
230
1.0
 40
0.578093115915812
 41
0.0
 42
6.283185307179586
  0
ELLIPSE
  5
1E0
330
6C
100
AcDbEntity
  8
Visible (ANSI)
100
AcDbEllipse
 10
70.23260121307322
 20
32.82873381463814
 30
0.0
 11
-0.093568539672075
 21
0.1624843942772208
 31
0.0
210
0.0
220
0.0
230
1.0
 40
0.578093115915812
 41
0.0
 42
6.283185307179586
  0
ELLIPSE
  5
1E1
330
6C
100
AcDbEntity
  8
Visible (ANSI)
100
AcDbEllipse
 10
79.33306548694543
 20
27.5881249781316
 30
0.0
 11
-0.093568539672075
 21
0.1624843942772208
 31
0.0
210
0.0
220
0.0
230
1.0
 40
0.578093115915812
 41
0.0
 42
6.283185307179586
  0
ELLIPSE
  5
1E2
330
6C
100
AcDbEntity
  8
Visible (ANSI)
100
AcDbEllipse
 10
79.33306548694544
 20
43.78168965345027
 30
0.0
 11
-0.0584803372950468
 21
0.101552746423263
 31
0.0
210
0.0
220
0.0
230
1.0
 40
0.5780931159158121
 41
0.0
 42
6.283185307179586
  0
ELLIPSE
  5
1E3
330
6C
100
AcDbEntity
  8
Visible (ANSI)
100
AcDbEllipse
 10
70.23260121307323
 20
49.02229848995681
 30
0.0
 11
-0.0584803372950468
 21
0.101552746423263
 31
0.0
210
0.0
220
0.0
230
1.0
 40
0.5780931159158121
 41
0.0
 42
6.283185307179586
  0
ELLIPSE
  5
1E4
330
6C
100
AcDbEntity
  8
Visible (ANSI)
100
AcDbEllipse
 10
70.23260121307322
 20
33.28860407236206
 30
0.0
 11
-0.0584803372950468
 21
0.101552746423263
 31
0.0
210
0.0
220
0.0
230
1.0
 40
0.5780931159158121
 41
0.0
 42
6.283185307179586
  0
ELLIPSE
  5
1E5
330
6C
100
AcDbEntity
  8
Visible (ANSI)
100
AcDbEllipse
 10
79.33306548694543
 20
28.04799523585553
 30
0.0
 11
-0.0584803372950468
 21
0.101552746423263
 31
0.0
210
0.0
220
0.0
230
1.0
 40
0.5780931159158121
 41
0.0
 42
6.283185307179586
  0
LINE
  5
1E6
330
6C
100
AcDbEntity
  8
Visible (ANSI)
100
AcDbLine
 10
79.65855557716039
 20
27.445686391506
 30
0.0
 11
79.65855557716039
 21
28.19239305798094
 31
0.0
  0
LINE
  5
1E7
330
6C
100
AcDbEntity
  8
Visible (ANSI)
100
AcDbLine
 10
79.3933905342154
 20
44.58292630278193
 30
0.0
 11
70.27171305690761
 21
49.83575101070224
 31
0.0
  0
LINE
  5
1E8
330
6C
100
AcDbEntity
  8
Visible (ANSI)
100
AcDbLine
 10
79.65855557716041
 20
43.37694107181895
 30
0.0
 11
79.65855557716041
 21
44.12364773829388
 31
0.0
  0
LINE
  5
1E9
330
6C
100
AcDbEntity
  8
Visible (ANSI)
100
AcDbLine
 10
79.60883713160822
 20
44.09501678966786
 30
0.0
 11
79.60883713160822
 21
43.34831012319291
 31
0.0
  0
LINE
  5
1EA
330
6C
100
AcDbEntity
  8
Visible (ANSI)
100
AcDbLine
 10
70.22199461135544
 20
49.80712006207621
 30
0.0
 11
79.34367208866324
 21
44.55429535415591
 31
0.0
  0
LINE
  5
1EB
330
6C
100
AcDbEntity
  8
Visible (ANSI)
100
AcDbLine
 10
69.95682956841044
 20
48.90653161645743
 30
0.0
 11
69.95682956841044
 21
49.65323828293237
 31
0.0
  0
LINE
  5
1EC
330
6C
100
AcDbEntity
  8
Visible (ANSI)
100
AcDbLine
 10
69.95682956841044
 20
32.97527693614448
 30
0.0
 11
69.95682956841044
 21
33.72198360261942
 31
0.0
  0
LINE
  5
1ED
330
6C
100
AcDbEntity
  8
Visible (ANSI)
100
AcDbLine
 10
79.34367208866323
 20
27.26317366373612
 30
0.0
 11
70.22199461135542
 21
32.51599837165642
 31
0.0
  0
LINE
  5
1EE
330
6C
100
AcDbEntity
  8
Visible (ANSI)
100
AcDbLine
 10
79.60883713160821
 20
28.16376210935491
 30
0.0
 11
79.60883713160821
 21
27.41705544287997
 31
0.0
  0
LINE
  5
1EF
330
6C
100
AcDbEntity
  8
Visible (ANSI)
100
AcDbLine
 10
79.39339053421538
 20
27.29180461236215
 30
0.0
 11
79.65855557716039
 21
27.445686391506
 31
0.0
  0
LINE
  5
1F0
330
6C
100
AcDbEntity
  8
Visible (ANSI)
100
AcDbLine
 10
79.60883713160821
 20
27.41705544287997
 30
0.0
 11
79.34367208866323
 21
27.26317366373612
 31
0.0
  0
LINE
  5
1F1
330
6C
100
AcDbEntity
  8
Visible (ANSI)
100
AcDbLine
 10
79.34367208866323
 20
27.26317366373612
 30
0.0
 11
79.39339053421538
 21
27.29180461236215
 31
0.0
  0
LINE
  5
1F2
330
6C
100
AcDbEntity
  8
Visible (ANSI)
100
AcDbLine
 10
79.65855557716039
 20
27.445686391506
 30
0.0
 11
79.60883713160821
 21
27.41705544287997
 31
0.0
  0
LINE
  5
1F3
330
6C
100
AcDbEntity
  8
Visible (ANSI)
100
AcDbLine
 10
79.65855557716041
 20
44.12364773829388
 30
0.0
 11
79.3933905342154
 21
44.58292630278193
 31
0.0
  0
LINE
  5
1F4
330
6C
100
AcDbEntity
  8
Visible (ANSI)
100
AcDbLine
 10
79.34367208866324
 20
44.55429535415591
 30
0.0
 11
79.60883713160822
 21
44.09501678966786
 31
0.0
  0
LINE
  5
1F5
330
6C
100
AcDbEntity
  8
Visible (ANSI)
100
AcDbLine
 10
79.60883713160822
 20
44.09501678966786
 30
0.0
 11
79.65855557716041
 21
44.12364773829388
 31
0.0
  0
LINE
  5
1F6
330
6C
100
AcDbEntity
  8
Visible (ANSI)
100
AcDbLine
 10
79.3933905342154
 20
44.58292630278193
 30
0.0
 11
79.34367208866324
 21
44.55429535415591
 31
0.0
  0
LINE
  5
1F7
330
6C
100
AcDbEntity
  8
Visible (ANSI)
100
AcDbLine
 10
69.95682956841044
 20
49.65323828293237
 30
0.0
 11
70.22199461135544
 21
49.80712006207621
 31
0.0
  0
LINE
  5
1F8
330
6C
100
AcDbEntity
  8
Visible (ANSI)
100
AcDbLine
 10
70.22199461135544
 20
49.80712006207621
 30
0.0
 11
70.27171305690761
 21
49.83575101070224
 31
0.0
  0
LINE
  5
1F9
330
6C
100
AcDbEntity
  8
Visible (ANSI)
100
AcDbLine
 10
69.95682956841044
 20
48.90653161645743
 30
0.0
 11
70.01492722931968
 21
48.87307539862296
 31
0.0
  0
LINE
  5
1FA
330
6C
100
AcDbEntity
  8
Visible (ANSI)
100
AcDbLine
 10
70.01492722931968
 20
48.87307539862296
 30
0.0
 11
70.01492722931968
 21
48.87295276655424
 31
0.0
  0
LINE
  5
1FB
330
6C
100
AcDbEntity
  8
Visible Narrow (ANSI)
100
AcDbLine
 10
70.01482116330251
 20
48.87301384591132
 30
0.0
 11
70.0148211633025
 21
33.68871109621075
 31
0.0
  0
LINE
  5
1FC
330
6C
100
AcDbEntity
  8
Visible (ANSI)
100
AcDbLine
 10
70.01492722931967
 20
33.68865001685369
 30
0.0
 11
70.01492722931967
 21
33.68852738478496
 31
0.0
  0
LINE
  5
1FD
330
6C
100
AcDbEntity
  8
Visible (ANSI)
100
AcDbLine
 10
70.01492722931967
 20
33.68852738478496
 30
0.0
 11
69.95682956841044
 21
33.72198360261942
 31
0.0
  0
ELLIPSE
  5
1FE
330
6C
100
AcDbEntity
  8
Visible (ANSI)
100
AcDbEllipse
 10
70.07281275819457
 20
48.9064089843887
 30
0.0
 11
-0.0820124999999941
 21
0.0000000000000001
 31
0.0
210
0.0
220
0.0
230
1.0
 40
0.5758617009853073
 41
0.724790592920142
 42
0.7853981633974181
  0
ELLIPSE
  5
1FF
330
6C
100
AcDbEntity
  8
Visible (ANSI)
100
AcDbEllipse
 10
70.07281275819457
 20
33.72210623468815
 30
0.0
 11
-0.0820124999999999
 21
0.0000000000000001
 31
0.0
210
0.0
220
0.0
230
1.0
 40
0.5758617009853073
 41
0.0
 42
0.7853981633974181
  0
LINE
  5
200
330
6C
100
AcDbEntity
  8
Visible (ANSI)
100
AcDbLine
 10
69.95682956841044
 20
33.72198360261942
 30
0.0
 11
69.99080025819456
 21
33.74154602182215
 31
0.0
  0
LINE
  5
201
330
6C
100
AcDbEntity
  8
Visible (ANSI)
100
AcDbLine
 10
69.99080025819458
 20
48.88696919725469
 30
0.0
 11
69.99080025819456
 21
33.72210623468815
 31
0.0
  0
LINE
  5
202
330
6C
100
AcDbEntity
  8
Visible (ANSI)
100
AcDbLine
 10
70.01492722931968
 20
48.87295276655424
 30
0.0
 11
70.01482116330251
 21
48.87301384591132
 31
0.0
  0
LINE
  5
203
330
6C
100
AcDbEntity
  8
Visible (ANSI)
100
AcDbLine
 10
70.0148211633025
 20
33.68871109621075
 30
0.0
 11
70.01492722931967
 21
33.68865001685369
 31
0.0
  0
LINE
  5
204
330
6C
100
AcDbEntity
  8
Visible (ANSI)
100
AcDbLine
 10
70.20808811581023
 20
49.05109915888147
 30
0.0
 11
70.26971373416145
 21
49.08658699228949
 31
0.0
  0
LINE
  5
205
330
6C
100
AcDbEntity
  8
Visible (ANSI)
100
AcDbLine
 10
70.29718048217244
 20
49.04514214326759
 30
0.0
 11
70.23014753187688
 21
49.00654043448831
 31
0.0
  0
LINE
  5
206
330
6C
100
AcDbEntity
  8
Visible (ANSI)
100
AcDbLine
 10
70.22199461135542
 20
32.51599837165642
 30
0.0
 11
69.95682956841044
 21
32.97527693614448
 31
0.0
  0
DIMENSION
  5
207
330
6C
100
AcDbEntity
  8
Dimension (ANSI)
100
AcDbDimension
  2
*D4
 10
10.67316469380074
 20
42.17424550502983
 30
0.0
 11
10.67316469380073
 21
28.07424550502983
 31
0.0
 70
   160
  1
<>
 42
28.2
  3
Default (ANSI)
100
AcDbAlignedDimension
 13
16.72509241012437
 23
13.97424550502983
 33
0.0
 14
16.72509241012435
 24
42.17424550502983
 34
0.0
 50
90.0
100
AcDbRotatedDimension
1001
ACAD
1000
DSTYLE
1002
{
1070
   289
1070
     1
1070
   271
1070
     2
1070
   272
1070
     2
1070
    48
1040
0.0
1070
    47
1040
0.0
1002
}
  0
DIMENSION
  5
2F4
330
6C
100
AcDbEntity
  8
Dimension (ANSI)
100
AcDbDimension
  2
*D5
 10
34.42509241012436
 20
46.29013642180051
 30
0.0
 11
25.32509241012436
 21
46.29013642180051
 31
0.0
 70
   160
  1
<>
 42
18.19999999999999
  3
Default (ANSI)
100
AcDbAlignedDimension
 13
16.22509241012436
 23
41.67424550502983
 33
0.0
 14
34.42509241012436
 24
41.67424550502983
 34
0.0
100
AcDbRotatedDimension
1001
ACAD
1000
DSTYLE
1002
{
1070
   289
1070
     1
1070
    73
1070
     0
1070
    74
1070
     0
1070
   271
1070
     2
1070
   272
1070
     2
1070
    48
1040
0.0
1070
    47
1040
0.0
1002
}
  0
DIMENSION
  5
3DE
330
6C
100
AcDbEntity
  8
Dimension (ANSI)
100
AcDbDimension
  2
*D6
 10
15.13589682006634
 20
15.24424550502983
 30
0.0
 11
13.72389963535233
 21
13.06108051455576
 31
0.0
 70
   160
  1
<>
 42
0.75
  3
Default (ANSI)
100
AcDbAlignedDimension
 13
16.74509241012437
 23
14.49424550502983
 33
0.0
 14
16.74509241012437
 24
15.24424550502983
 34
0.0
 50
90.0
100
AcDbRotatedDimension
1001
ACAD
1000
DSTYLE
1002
{
1070
   289
1070
     1
1070
   271
1070
     2
1070
   272
1070
     2
1070
    48
1040
0.0
1070
    47
1040
0.0
1002
}
  0
DIMENSION
  5
4DC
330
6C
100
AcDbEntity
  8
Dimension (ANSI)
100
AcDbDimension
  2
*D7
 10
21.70051943691247
 20
41.65424550502983
 30
0.0
 11
20.28509713453381
 21
40.22071584676845
 31
0.0
 70
   160
  1
<>
 42
0.5199999999999961
  3
Default (ANSI)
100
AcDbAlignedDimension
 13
16.72509241012435
 23
42.17424550502983
 33
0.0
 14
33.90509241012436
 24
41.65424550502983
 34
0.0
 50
270.0
100
AcDbRotatedDimension
1001
ACAD
1000
DSTYLE
1002
{
1070
   289
1070
     1
1070
   271
1070
     2
1070
    75
1070
     1
1070
   272
1070
     2
1070
    48
1040
0.0
1070
    47
1040
0.0
1002
}
  0
DIMENSION
  5
5D8
330
6C
100
AcDbEntity
  8
Dimension (ANSI)
100
AcDbDimension
  2
*D8
 10
33.90509241012436
 20
44.82385180424242
 30
0.0
 11
36.59014551913942
 21
44.82385180424242
 31
0.0
 70
   160
  1
<>
 42
0.5199999999999961
  3
Default (ANSI)
100
AcDbAlignedDimension
 13
34.42509241012436
 23
41.67424550502983
 33
0.0
 14
33.90509241012436
 24
41.65424550502983
 34
0.0
 50
180.0
100
AcDbRotatedDimension
1001
ACAD
1000
DSTYLE
1002
{
1070
   289
1070
     1
1070
    73
1070
     0
1070
    74
1070
     0
1070
   271
1070
     2
1070
   272
1070
     2
1070
    48
1040
0.0
1070
    47
1040
0.0
1002
}
  0
DIMENSION
  5
6C2
330
6C
100
AcDbEntity
  8
Dimension (ANSI)
100
AcDbDimension
  2
*D9
 10
12.62167364379484
 20
41.65424550502984
 30
0.0
 11
12.62167364379483
 21
33.92977949138165
 31
0.0
 70
   160
  1
<>
 42
27.16000000000001
  3
Default (ANSI)
100
AcDbAlignedDimension
 13
16.74509241012437
 23
14.49424550502983
 33
0.0
 14
16.74509241012437
 24
41.65424550502983
 34
0.0
 50
90.0
100
AcDbRotatedDimension
1001
ACAD
1000
DSTYLE
1002
{
1070
   289
1070
     1
1070
   271
1070
     3
1070
   272
1070
     3
1070
    48
1040
0.0
1070
    47
1040
0.0
1002
}
  0
DIMENSION
  5
7AC
330
6C
100
AcDbEntity
  8
Dimension (ANSI)
100
AcDbDimension
  2
*D10
 10
54.21582266185804
 20
45.18065495384872
 30
0.0
 11
51.27676955284282
 21
45.18065495384872
 31
0.0
 70
   160
  1
<>
 42
0.7740000000001502
  3
Default (ANSI)
100
AcDbAlignedDimension
 13
53.44182266185789
 23
42.17424550502983
 33
0.0
 14
54.21582266185804
 24
40.45624550502983
 34
0.0
 50
180.0
100
AcDbRotatedDimension
1001
ACAD
1000
DSTYLE
1002
{
1070
   289
1070
     1
1070
    73
1070
     0
1070
    74
1070
     0
1070
   271
1070
     2
1070
   272
1070
     2
1070
    48
1040
0.0
1070
    47
1040
0.0
1002
}
  0
MTEXT
  5
896
102
{ACAD_REACTORS
330
897
102
}
330
6C
100
AcDbEntity
  8
Symbol (ANSI)
100
AcDbMText
 10
57.05950604972493
 20
31.81131553626775
 30
0.0
 40
0.600000007415381
 41
2.45397086218586
 71
     1
 72
     1
  1
{12 GA.}
  7
Note Text (ANSI)
 73
     1
 44
1.0
1001
ACAD
1000
MTEXTBEGIN
1070
    73
1070
     1
1070
    44
1040
1.0
1070
    74
1070
     0
1000
MTEXTEND
  0
LEADER
  5
897
330
6C
100
AcDbEntity
  8
Symbol (ANSI)
100
AcDbLeader
  3
Default (ANSI)$7
 73
     0
 74
     0
 75
     1
 40
0.624177307915665
 41
2.286366717310189
 76
     3
 10
54.21582266185804
 20
28.07424550502983
 30
0.0
 10
56.40989976165887
 20
31.51131553256006
 30
0.0
 10
56.9020257347643
 20
31.51131553256006
 30
0.0
340
896
210
0.0
220
0.0
230
0.9999999999999998
213
0.0
223
-0.3000000037076905
233
0.0
1001
ACAD
1000
DSTYLE
1002
{
1070
    77
1070
     0
1002
}
  0
DIMENSION
  5
898
330
6C
100
AcDbEntity
  8
Dimension (ANSI)
100
AcDbDimension
  2
*D11
 10
35.37046448958736
 20
14.47424550502983
 30
0.0
 11
36.78729713453381
 21
15.9074104955039
 31
0.0
 70
   160
  1
<>
 42
0.4999999999999983
  3
Default (ANSI)
100
AcDbAlignedDimension
 13
33.92509241012437
 23
13.97424550502983
 33
0.0
 14
34.42509241012436
 24
14.47424550502983
 34
0.0
 50
90.0
100
AcDbRotatedDimension
1001
ACAD
1000
DSTYLE
1002
{
1070
   289
1070
     1
1070
   271
1070
     2
1070
   272
1070
     2
1070
    48
1040
0.0
1070
    47
1040
0.0
1002
}
  0
DIMENSION
  5
998
330
6C
100
AcDbEntity
  8
Dimension (ANSI)
100
AcDbDimension
  2
*D12
 10
33.92509241012437
 20
11.61204078062038
 30
0.0
 11
31.76003930110929
 21
11.61204078062038
 31
0.0
 70
   160
  1
<>
 42
0.5
  3
Default (ANSI)
100
AcDbAlignedDimension
 13
34.42509241012436
 23
14.47424550502983
 33
0.0
 14
33.92509241012437
 24
13.97424550502983
 34
0.0
 50
180.0
100
AcDbRotatedDimension
1001
ACAD
1000
DSTYLE
1002
{
1070
   289
1070
     1
1070
    73
1070
     0
1070
    74
1070
     0
1070
   271
1070
     2
1070
   272
1070
     2
1070
    48
1040
0.0
1070
    47
1040
0.0
1002
}
  0
DIMENSION
  5
A82
330
6C
100
AcDbEntity
  8
Dimension (ANSI)
100
AcDbDimension
  2
*D13
 10
16.89633272680866
 20
41.45518178003395
 30
0.0
 11
10.87218626380592
 21
45.85927999483983
 31
0.0
 70
   163
  1
<>{\PTYP.(4PL.)}
 71
     3
 42
0.5
  3
Default (ANSI)
100
AcDbDiametricDimension
 15
16.59385209344007
 25
41.85330923002573
 35
0.0
 40
0.0
1001
ACAD_DSTYLE_DIMRADIAL_EXTENSION
1070
   387
1070
     1
1070
   388
1040
0.0
1070
   390
1040
0.0
1001
ACAD
1000
DSTYLE
1002
{
1070
   145
1040
-0.25
1070
   144
1040
0.9999999999999644
1070
   271
1070
     2
1070
   272
1070
     2
1070
    48
1040
0.0
1070
    47
1040
0.0
1002
}
  0
DIMENSION
  5
B3C
330
6C
100
AcDbEntity
  8
Dimension (ANSI)
100
AcDbDimension
  2
*D14
 10
16.68295947268251
 20
15.38761063532603
 30
0.0
 11
20.84667989346741
 21
12.25699733099921
 31
0.0
 70
   163
  1
<>{\PTYP. (4PL.)}
 42
0.3125
  3
Default (ANSI)
100
AcDbDiametricDimension
 15
16.80722534756621
 25
15.10088037473362
 35
0.0
 40
0.0
1001
ACAD_DSTYLE_DIMRADIAL_EXTENSION
1070
   387
1070
     1
1070
   388
1040
0.0
1070
   390
1040
0.0
1001
ACAD
1000
DSTYLE
1002
{
1070
   145
1040
-0.25
1070
   144
1040
1.000000000000008
1070
   271
1070
     2
1070
   272
1070
     2
1070
    48
1040
0.0
1070
    47
1040
0.0
1002
}
  0
DIMENSION
  5
BF5
330
6C
100
AcDbEntity
  8
Dimension (ANSI)
100
AcDbDimension
  2
*D15
 10
16.74509241012437
 20
44.82385180424244
 30
0.0
 11
25.32509241012437
 21
44.82385180424244
 31
0.0
 70
   160
  1
<>
 42
17.15999999999999
  3
Default (ANSI)
100
AcDbAlignedDimension
 13
33.90509241012436
 23
41.65424550502983
 33
0.0
 14
16.74509241012437
 24
41.65424550502983
 34
0.0
 50
180.0
100
AcDbRotatedDimension
1001
ACAD
1000
DSTYLE
1002
{
1070
   289
1070
     1
1070
    73
1070
     0
1070
    74
1070
     0
1070
   271
1070
     2
1070
   272
1070
     2
1070
    48
1040
0.0
1070
    47
1040
0.0
1002
}
  0
ENDSEC
  0
SECTION
  2
OBJECTS
  0
DICTIONARY
  5
C
330
0
100
AcDbDictionary
281
     1
  3
ACAD_CIP_PREVIOUS_PRODUCT_INFO
350
CDF
  3
ACAD_COLOR
350
63
  3
ACAD_GROUP
350
D
  3
ACAD_LAYOUT
350
62
  3
ACAD_MATERIAL
350
10
  3
ACAD_MLEADERSTYLE
350
66
  3
ACAD_MLINESTYLE
350
5F
  3
ACAD_PLOTSETTINGS
350
61
  3
ACAD_PLOTSTYLENAME
350
E
  3
ACAD_SCALELIST
350
42
  3
ACAD_TABLESTYLE
350
64
  3
ACAD_VISUALSTYLE
350
29
  3
ACDB_RECOMPOSE_DATA
350
CED
  3
AcDbVariableDictionary
350
D7
  3
DWGPROPS
350
CEE
  0
DICTIONARY
  5
D2A
330
B36
100
AcDbDictionary
280
     1
281
     1
  3
ACAD_MTEXT_RT
360
D2B
  0
DICTIONARY
  5
D2C
330
BEF
100
AcDbDictionary
280
     1
281
     1
  3
ACAD_MTEXT_RT
360
D2D
  0
XRECORD
  5
CDF
102
{ACAD_REACTORS
330
C
102
}
330
C
100
AcDbXrecord
280
     1
300
INVNTOR
300
2012
300
85795PDSP_2012_0F
  0
DICTIONARY
  5
63
102
{ACAD_REACTORS
330
C
102
}
330
C
100
AcDbDictionary
281
     1
  0
DICTIONARY
  5
D
102
{ACAD_REACTORS
330
C
102
}
330
C
100
AcDbDictionary
281
     1
  0
DICTIONARY
  5
62
102
{ACAD_REACTORS
330
C
102
}
330
C
100
AcDbDictionary
281
     1
  3
Layout1
350
6B
  3
Layout2
350
73
  3
Model
350
6F
  0
DICTIONARY
  5
10
102
{ACAD_REACTORS
330
C
102
}
330
C
100
AcDbDictionary
281
     1
  3
ByBlock
350
19
  3
ByLayer
350
11
  3
Global
350
21
  0
DICTIONARY
  5
66
102
{ACAD_REACTORS
330
C
102
}
330
C
100
AcDbDictionary
281
     1
  3
Standard
350
67
  0
DICTIONARY
  5
5F
102
{ACAD_REACTORS
330
C
102
}
330
C
100
AcDbDictionary
281
     1
  3
Standard
350
60
  0
DICTIONARY
  5
61
102
{ACAD_REACTORS
330
C
102
}
330
C
100
AcDbDictionary
281
     1
  0
ACDBDICTIONARYWDFLT
  5
E
102
{ACAD_REACTORS
330
C
102
}
330
C
100
AcDbDictionary
281
     1
  3
Normal
350
F
100
AcDbDictionaryWithDefault
340
F
  0
DICTIONARY
  5
42
102
{ACAD_REACTORS
330
C
102
}
330
C
100
AcDbDictionary
281
     1
  3
A0
350
43
  3
A1
350
44
  3
A2
350
45
  3
A3
350
46
  3
A4
350
47
  3
A5
350
48
  3
A6
350
49
  3
A7
350
4A
  3
A8
350
4B
  3
A9
350
4C
  3
B0
350
4D
  3
B1
350
4E
  3
B2
350
4F
  3
B3
350
50
  3
B4
350
51
  3
B5
350
52
  3
B6
350
53
  0
DICTIONARY
  5
64
102
{ACAD_REACTORS
330
C
102
}
330
C
100
AcDbDictionary
281
     1
  3
Standard
350
65
  0
DICTIONARY
  5
29
102
{ACAD_REACTORS
330
C
102
}
330
C
100
AcDbDictionary
281
     1
  3
2dWireframe
350
2F
  3
Basic
350
2E
  3
Brighten
350
35
  3
ColorChange
350
39
  3
Conceptual
350
32
  3
Dim
350
34
  3
EdgeColorOff
350
41
  3
Facepattern
350
38
  3
Flat
350
2A
  3
FlatWithEdges
350
2B
  3
Gouraud
350
2C
  3
GouraudWithEdges
350
2D
  3
Hidden
350
31
  3
JitterOff
350
3F
  3
Linepattern
350
37
  3
OverhangOff
350
40
  3
Realistic
350
33
  3
Shaded
350
3E
  3
Shaded with edges
350
3D
  3
Shades of Gray
350
3A
  3
Sketchy
350
3B
  3
Thicken
350
36
  3
Wireframe
350
30
  3
X-Ray
350
3C
  0
XRECORD
  5
CED
102
{ACAD_REACTORS
330
C
102
}
330
C
100
AcDbXrecord
280
     1
 90
        1
330
65
  0
DICTIONARY
  5
D7
102
{ACAD_REACTORS
330
C
102
}
330
C
100
AcDbDictionary
281
     1
  3
CANNOSCALE
350
DA
  3
CMLEADERSTYLE
350
D9
  3
CTABLESTYLE
350
D8
  3
DIMASSOC
350
CE7
  3
HIDETEXT
350
CE6
  3
INDEXCTL
350
CE5
  3
LAYEREVAL
350
CE2
  3
LAYERNOTIFY
350
CE3
  3
LIGHTINGUNITS
350
CE1
  3
MSLTSCALE
350
CE0
  3
SORTENTS
350
CE4
  3
XCLIPFRAME
350
CE8
  0
XRECORD
  5
CEE
102
{ACAD_REACTORS
330
C
102
}
330
C
100
AcDbXrecord
280
     1
  1
DWGPROPS COOKIE
  2

  3

  4
EC
  6

  7

  8

  9
-
300
Manager=
301
Company=
302
Category=
303
Part Number=NP3020C
304
Description=NPC PANEL MASTER VIEW
305
Project=
306
Designer=EC
307
Engineer=
308
Authority=
309
Cost Center=
 40
0.0000363425925926
 41
2455944.484439433
 42
2455944.484439433
  1

 90
       20
300
Vendor=
300
User Status=
300
Design Status=WorkInProgress
300
Checked by=JG
300
Date Checked=02/19/2009
300
Engr Approved by=
300
Mfg Approved by=
300
DWG. NO=
300
NUMBER OF SHEETS=1
300
DRAWING #=1
  0
XRECORD
  5
D2B
102
{ACAD_REACTORS
330
D2A
102
}
330
D2A
100
AcDbXrecord
280
     1
 40
29624.0
  1
\A1;\U+22050.50{\PTYP.(4PL.)}
  0
XRECORD
  5
D2D
102
{ACAD_REACTORS
330
D2C
102
}
330
D2C
100
AcDbXrecord
280
     1
 40
30807.0
  1
\A1;\U+22050.31{\PTYP. (4PL.)}
  0
LAYOUT
  5
6B
102
{ACAD_XDICTIONARY
360
D24
102
}
102
{ACAD_REACTORS
330
62
102
}
330
62
100
AcDbPlotSettings
  1

  2

  4

  6

 40
0.0
 41
0.0
 42
0.0
 43
0.0
 44
0.0
 45
0.0
 46
0.0
 47
0.0
 48
0.0
 49
0.0
140
0.0
141
0.0
142
1.0
143
1.0
 70
   688
 72
     0
 73
     0
 74
     5
  7

 75
    16
147
1.0
148
0.0
149
0.0
100
AcDbLayout
  1
Layout1
 70
     1
 71
     1
 10
0.0
 20
0.0
 11
12.0
 21
9.0
 12
0.0
 22
0.0
 32
0.0
 14
0.0
 24
0.0
 34
0.0
 15
0.0
 25
0.0
 35
0.0
146
0.0
 13
0.0
 23
0.0
 33
0.0
 16
1.0
 26
0.0
 36
0.0
 17
0.0
 27
1.0
 37
0.0
 76
     0
330
68
  0
LAYOUT
  5
73
102
{ACAD_XDICTIONARY
360
D28
102
}
102
{ACAD_REACTORS
330
62
102
}
330
62
100
AcDbPlotSettings
  1

  2

  4

  6

 40
0.0
 41
0.0
 42
0.0
 43
0.0
 44
0.0
 45
0.0
 46
0.0
 47
0.0
 48
0.0
 49
0.0
140
0.0
141
0.0
142
1.0
143
1.0
 70
   688
 72
     0
 73
     0
 74
     5
  7

 75
    16
147
1.0
148
0.0
149
0.0
100
AcDbLayout
  1
Layout2
 70
     1
 71
     2
 10
0.0
 20
0.0
 11
12.0
 21
9.0
 12
0.0
 22
0.0
 32
0.0
 14
0.0
 24
0.0
 34
0.0
 15
0.0
 25
0.0
 35
0.0
146
0.0
 13
0.0
 23
0.0
 33
0.0
 16
1.0
 26
0.0
 36
0.0
 17
0.0
 27
1.0
 37
0.0
 76
     0
330
70
  0
LAYOUT
  5
6F
102
{ACAD_XDICTIONARY
360
D26
102
}
102
{ACAD_REACTORS
330
62
102
}
330
62
100
AcDbPlotSettings
  1

  2

  4

  6

 40
0.0
 41
0.0
 42
0.0
 43
0.0
 44
0.0
 45
0.0
 46
0.0
 47
0.0
 48
0.0
 49
0.0
140
0.0
141
0.0
142
1.0
143
1.0
 70
  1712
 72
     0
 73
     0
 74
     0
  7

 75
     0
147
1.0
148
0.0
149
0.0
100
AcDbLayout
  1
Model
 70
     1
 71
     0
 10
0.0
 20
0.0
 11
12.0
 21
9.0
 12
0.0
 22
0.0
 32
0.0
 14
0.0
 24
0.0
 34
0.0
 15
0.0
 25
0.0
 35
0.0
146
0.0
 13
0.0
 23
0.0
 33
0.0
 16
1.0
 26
0.0
 36
0.0
 17
0.0
 27
1.0
 37
0.0
 76
     0
330
6C
  0
MATERIAL
  5
19
102
{ACAD_XDICTIONARY
360
1A
102
}
102
{ACAD_REACTORS
330
10
102
}
330
10
100
AcDbMaterial
  1
ByBlock
 72
     0
 43
0.0208333333333333
 43
0.0
 43
0.0
 43
0.0
 43
0.0
 43
0.0208333333333333
 43
0.0
 43
0.0
 43
0.0
 43
0.0
 43
1.0
 43
0.0
 43
0.0
 43
0.0
 43
0.0
 43
1.0
 77
     0
 47
0.0208333333333333
 47
0.0
 47
0.0
 47
0.0
 47
0.0
 47
0.0208333333333333
 47
0.0
 47
0.0
 47
0.0
 47
0.0
 47
1.0
 47
0.0
 47
0.0
 47
0.0
 47
0.0
 47
1.0
171
     0
 49
0.0208333333333333
 49
0.0
 49
0.0
 49
0.0
 49
0.0
 49
0.0208333333333333
 49
0.0
 49
0.0
 49
0.0
 49
0.0
 49
1.0
 49
0.0
 49
0.0
 49
0.0
 49
0.0
 49
1.0
175
     0
142
0.0208333333333333
142
0.0
142
0.0
142
0.0
142
0.0
142
0.0208333333333333
142
0.0
142
0.0
142
0.0
142
0.0
142
1.0
142
0.0
142
0.0
142
0.0
142
0.0
142
1.0
179
     0
144
0.0208333333333333
144
0.0
144
0.0
144
0.0
144
0.0
144
0.0208333333333333
144
0.0
144
0.0
144
0.0
144
0.0
144
1.0
144
0.0
144
0.0
144
0.0
144
0.0
144
1.0
147
0.0208333333333333
147
0.0
147
0.0
147
0.0
147
0.0
147
0.0208333333333333
147
0.0
147
0.0
147
0.0
147
0.0
147
1.0
147
0.0
147
0.0
147
0.0
147
0.0
147
1.0
  0
MATERIAL
  5
11
102
{ACAD_XDICTIONARY
360
12
102
}
102
{ACAD_REACTORS
330
10
102
}
330
10
100
AcDbMaterial
  1
ByLayer
 72
     0
 43
0.0208333333333333
 43
0.0
 43
0.0
 43
0.0
 43
0.0
 43
0.0208333333333333
 43
0.0
 43
0.0
 43
0.0
 43
0.0
 43
1.0
 43
0.0
 43
0.0
 43
0.0
 43
0.0
 43
1.0
 77
     0
 47
0.0208333333333333
 47
0.0
 47
0.0
 47
0.0
 47
0.0
 47
0.0208333333333333
 47
0.0
 47
0.0
 47
0.0
 47
0.0
 47
1.0
 47
0.0
 47
0.0
 47
0.0
 47
0.0
 47
1.0
171
     0
 49
0.0208333333333333
 49
0.0
 49
0.0
 49
0.0
 49
0.0
 49
0.0208333333333333
 49
0.0
 49
0.0
 49
0.0
 49
0.0
 49
1.0
 49
0.0
 49
0.0
 49
0.0
 49
0.0
 49
1.0
175
     0
142
0.0208333333333333
142
0.0
142
0.0
142
0.0
142
0.0
142
0.0208333333333333
142
0.0
142
0.0
142
0.0
142
0.0
142
1.0
142
0.0
142
0.0
142
0.0
142
0.0
142
1.0
179
     0
144
0.0208333333333333
144
0.0
144
0.0
144
0.0
144
0.0
144
0.0208333333333333
144
0.0
144
0.0
144
0.0
144
0.0
144
1.0
144
0.0
144
0.0
144
0.0
144
0.0
144
1.0
147
0.0208333333333333
147
0.0
147
0.0
147
0.0
147
0.0
147
0.0208333333333333
147
0.0
147
0.0
147
0.0
147
0.0
147
1.0
147
0.0
147
0.0
147
0.0
147
0.0
147
1.0
  0
MATERIAL
  5
21
102
{ACAD_XDICTIONARY
360
22
102
}
102
{ACAD_REACTORS
330
10
102
}
330
10
100
AcDbMaterial
  1
Global
 72
     0
 43
0.0208333333333333
 43
0.0
 43
0.0
 43
0.0
 43
0.0
 43
0.0208333333333333
 43
0.0
 43
0.0
 43
0.0
 43
0.0
 43
1.0
 43
0.0
 43
0.0
 43
0.0
 43
0.0
 43
1.0
 77
     0
 47
0.0208333333333333
 47
0.0
 47
0.0
 47
0.0
 47
0.0
 47
0.0208333333333333
 47
0.0
 47
0.0
 47
0.0
 47
0.0
 47
1.0
 47
0.0
 47
0.0
 47
0.0
 47
0.0
 47
1.0
171
     0
 49
0.0208333333333333
 49
0.0
 49
0.0
 49
0.0
 49
0.0
 49
0.0208333333333333
 49
0.0
 49
0.0
 49
0.0
 49
0.0
 49
1.0
 49
0.0
 49
0.0
 49
0.0
 49
0.0
 49
1.0
175
     0
142
0.0208333333333333
142
0.0
142
0.0
142
0.0
142
0.0
142
0.0208333333333333
142
0.0
142
0.0
142
0.0
142
0.0
142
1.0
142
0.0
142
0.0
142
0.0
142
0.0
142
1.0
179
     0
144
0.0208333333333333
144
0.0
144
0.0
144
0.0
144
0.0
144
0.0208333333333333
144
0.0
144
0.0
144
0.0
144
0.0
144
1.0
144
0.0
144
0.0
144
0.0
144
0.0
144
1.0
147
0.0208333333333333
147
0.0
147
0.0
147
0.0
147
0.0
147
0.0208333333333333
147
0.0
147
0.0
147
0.0
147
0.0
147
1.0
147
0.0
147
0.0
147
0.0
147
0.0
147
1.0
  0
MLEADERSTYLE
  5
67
102
{ACAD_XDICTIONARY
360
CEB
102
}
102
{ACAD_REACTORS
330
66
102
}
330
66
100
AcDbMLeaderStyle
170
     2
171
     1
172
     0
 90
        2
 40
0.0
 41
0.0
173
     1
 91
-1056964608
340
5B
 92
       -2
290
     1
 42
0.09
291
     1
 43
0.36
  3
Standard
 44
0.18
300

342
55
174
     1
178
     6
175
     1
176
     0
 93
-1056964608
 45
0.18
292
     0
297
     0
 46
0.18
 94
-1056964608
 47
1.0
 49
1.0
140
1.0
293
     1
141
0.0
294
     1
177
     0
142
1.0
295
     0
296
     0
143
0.125
1001
ACAD_MLEADERVER
1070
     2
  0
MLINESTYLE
  5
60
102
{ACAD_REACTORS
330
5F
102
}
330
5F
100
AcDbMlineStyle
  2
STANDARD
 70
     0
  3

 62
   256
 51
90.0
 52
90.0
 71
     2
 49
0.5
 62
   256
  6
BYLAYER
 49
-0.5
 62
   256
  6
BYLAYER
  0
ACDBPLACEHOLDER
  5
F
102
{ACAD_REACTORS
330
E
102
}
330
E
  0
SCALE
  5
43
102
{ACAD_REACTORS
330
42
102
}
330
42
100
AcDbScale
 70
     0
300
1:1
140
1.0
141
1.0
290
     1
  0
SCALE
  5
44
102
{ACAD_REACTORS
330
42
102
}
330
42
100
AcDbScale
 70
     0
300
1/128" = 1'-0"
140
0.0078125
141
12.0
290
     0
  0
SCALE
  5
45
102
{ACAD_REACTORS
330
42
102
}
330
42
100
AcDbScale
 70
     0
300
1/64" = 1'-0"
140
0.015625
141
12.0
290
     0
  0
SCALE
  5
46
102
{ACAD_REACTORS
330
42
102
}
330
42
100
AcDbScale
 70
     0
300
1/32" = 1'-0"
140
0.03125
141
12.0
290
     0
  0
SCALE
  5
47
102
{ACAD_REACTORS
330
42
102
}
330
42
100
AcDbScale
 70
     0
300
1/16" = 1'-0"
140
0.0625
141
12.0
290
     0
  0
SCALE
  5
48
102
{ACAD_REACTORS
330
42
102
}
330
42
100
AcDbScale
 70
     0
300
3/32" = 1'-0"
140
0.09375
141
12.0
290
     0
  0
SCALE
  5
49
102
{ACAD_REACTORS
330
42
102
}
330
42
100
AcDbScale
 70
     0
300
1/8" = 1'-0"
140
0.125
141
12.0
290
     0
  0
SCALE
  5
4A
102
{ACAD_REACTORS
330
42
102
}
330
42
100
AcDbScale
 70
     0
300
3/16" = 1'-0"
140
0.1875
141
12.0
290
     0
  0
SCALE
  5
4B
102
{ACAD_REACTORS
330
42
102
}
330
42
100
AcDbScale
 70
     0
300
1/4" = 1'-0"
140
0.25
141
12.0
290
     0
  0
SCALE
  5
4C
102
{ACAD_REACTORS
330
42
102
}
330
42
100
AcDbScale
 70
     0
300
3/8" = 1'-0"
140
0.375
141
12.0
290
     0
  0
SCALE
  5
4D
102
{ACAD_REACTORS
330
42
102
}
330
42
100
AcDbScale
 70
     0
300
1/2" = 1'-0"
140
0.5
141
12.0
290
     0
  0
SCALE
  5
4E
102
{ACAD_REACTORS
330
42
102
}
330
42
100
AcDbScale
 70
     0
300
3/4" = 1'-0"
140
0.75
141
12.0
290
     0
  0
SCALE
  5
4F
102
{ACAD_REACTORS
330
42
102
}
330
42
100
AcDbScale
 70
     0
300
1" = 1'-0"
140
1.0
141
12.0
290
     0
  0
SCALE
  5
50
102
{ACAD_REACTORS
330
42
102
}
330
42
100
AcDbScale
 70
     0
300
1-1/2" = 1'-0"
140
1.5
141
12.0
290
     0
  0
SCALE
  5
51
102
{ACAD_REACTORS
330
42
102
}
330
42
100
AcDbScale
 70
     0
300
3" = 1'-0"
140
3.0
141
12.0
290
     0
  0
SCALE
  5
52
102
{ACAD_REACTORS
330
42
102
}
330
42
100
AcDbScale
 70
     0
300
6" = 1'-0"
140
6.0
141
12.0
290
     0
  0
SCALE
  5
53
102
{ACAD_REACTORS
330
42
102
}
330
42
100
AcDbScale
 70
     0
300
1'-0" = 1'-0"
140
12.0
141
12.0
290
     0
  0
TABLESTYLE
  5
65
102
{ACAD_XDICTIONARY
360
CE9
102
}
102
{ACAD_REACTORS
330
64
102
}
330
64
100
AcDbTableStyle
  3
Standard
 70
     0
 71
     0
 40
0.06
 41
0.06
280
     0
281
     0
  7
Standard
140
0.18
170
     2
 62
     0
 63
     7
283
     0
274
    -2
284
     1
 64
     0
275
    -2
285
     1
 65
     0
276
    -2
286
     1
 66
     0
277
    -2
287
     1
 67
     0
278
    -2
288
     1
 68
     0
279
    -2
289
     1
 69
     0
  7
Standard
140
0.25
170
     5
 62
     0
 63
     7
283
     0
274
    -2
284
     1
 64
     0
275
    -2
285
     1
 65
     0
276
    -2
286
     1
 66
     0
277
    -2
287
     1
 67
     0
278
    -2
288
     1
 68
     0
279
    -2
289
     1
 69
     0
  7
Standard
140
0.18
170
     5
 62
     0
 63
     7
283
     0
274
    -2
284
     1
 64
     0
275
    -2
285
     1
 65
     0
276
    -2
286
     1
 66
     0
277
    -2
287
     1
 67
     0
278
    -2
288
     1
 68
     0
279
    -2
289
     1
 69
     0
  0
VISUALSTYLE
  5
2F
102
{ACAD_XDICTIONARY
360
CFC
102
}
102
{ACAD_REACTORS
330
29
102
}
330
29
100
AcDbVisualStyle
  2
2dWireframe
 70
     4
 71
     0
 72
     2
 73
     0
 90
        0
 40
-0.6
 41
-30.0
 62
     5
 63
     7
 74
     1
 91
        4
 64
     7
 65
   257
 75
     1
175
     1
 42
1.0
 92
        0
 66
   257
 43
1.0
 76
     1
 77
     6
 78
     2
 67
     7
 79
     5
170
     0
171
     0
290
     0
174
     0
 93
        1
 44
0.0
173
     0
291
     0
 45
0.0
1001
ACAD
1000
AcDbSavedByObjectVersion
1070
     0
  0
VISUALSTYLE
  5
2E
102
{ACAD_XDICTIONARY
360
CFA
102
}
102
{ACAD_REACTORS
330
29
102
}
330
29
100
AcDbVisualStyle
  2
Basic
 70
     7
 71
     1
 72
     0
 73
     1
 90
        0
 40
-0.6
 41
-30.0
 62
     5
 63
     7
 74
     0
 91
        4
 64
     7
 65
   257
 75
     1
175
     1
 42
1.0
 92
        8
 66
     7
 43
1.0
 76
     1
 77
     6
 78
     2
 67
     7
 79
     5
170
     0
171
     0
290
     0
174
     0
 93
        1
 44
0.0
173
     0
291
     1
 45
0.0
1001
ACAD
1000
AcDbSavedByObjectVersion
1070
     0
  0
VISUALSTYLE
  5
35
102
{ACAD_XDICTIONARY
360
D08
102
}
102
{ACAD_REACTORS
330
29
102
}
330
29
100
AcDbVisualStyle
  2
Brighten
 70
    12
 71
     2
 72
     2
 73
     0
 90
        0
 40
-0.6
 41
-30.0
 62
     5
 63
     7
 74
     1
 91
        4
 64
     7
 65
   257
 75
     1
175
     1
 42
1.0
 92
        8
 66
     7
 43
1.0
 76
     1
 77
     6
 78
     2
 67
     7
 79
     5
170
     0
171
     0
290
     0
174
     0
 93
        1
 44
50.0
173
     0
291
     1
 45
0.0
1001
ACAD
1000
AcDbSavedByObjectVersion
1070
     0
  0
VISUALSTYLE
  5
39
102
{ACAD_XDICTIONARY
360
D10
102
}
102
{ACAD_REACTORS
330
29
102
}
330
29
100
AcDbVisualStyle
  2
ColorChange
 70
    16
 71
     2
 72
     2
 73
     3
 90
        0
 40
-0.6
 41
-30.0
 62
     5
 63
     8
 74
     1
 91
        4
 64
     7
 65
   257
 75
     1
175
     1
 42
1.0
 92
        8
 66
     8
 43
1.0
 76
     1
 77
     6
 78
     2
 67
     7
 79
     5
170
     0
171
     0
290
     0
174
     0
 93
        1
 44
0.0
173
     0
291
     1
 45
0.0
1001
ACAD
1000
AcDbSavedByObjectVersion
1070
     0
  0
VISUALSTYLE
  5
32
102
{ACAD_XDICTIONARY
360
D02
102
}
102
{ACAD_REACTORS
330
29
102
}
330
29
100
AcDbVisualStyle
  2
Conceptual
 70
     9
 71
     3
 72
     2
 73
     0
 90
        0
 40
-0.6
 41
-30.0
 62
     5
 63
     7
 74
     2
 91
        2
 64
     7
 65
   257
 75
     1
175
     1
 42
179.0
 92
        8
 66
     7
 43
1.0
 76
     1
 77
     6
 78
     2
 67
     7
 79
     3
170
     0
171
     0
290
     0
174
     0
 93
        1
 44
0.0
173
     0
291
     0
 45
0.0
1001
ACAD
1000
AcDbSavedByObjectVersion
1070
     0
  0
VISUALSTYLE
  5
34
102
{ACAD_XDICTIONARY
360
D06
102
}
102
{ACAD_REACTORS
330
29
102
}
330
29
100
AcDbVisualStyle
  2
Dim
 70
    11
 71
     2
 72
     2
 73
     0
 90
        0
 40
-0.6
 41
-30.0
 62
     5
 63
     7
 74
     1
 91
        4
 64
     7
 65
   257
 75
     1
175
     1
 42
1.0
 92
        8
 66
     7
 43
1.0
 76
     1
 77
     6
 78
     2
 67
     7
 79
     5
170
     0
171
     0
290
     0
174
     0
 93
        1
 44
-50.0
173
     0
291
     1
 45
0.0
1001
ACAD
1000
AcDbSavedByObjectVersion
1070
     0
  0
VISUALSTYLE
  5
41
102
{ACAD_XDICTIONARY
360
D20
102
}
102
{ACAD_REACTORS
330
29
102
}
330
29
100
AcDbVisualStyle
  2
EdgeColorOff
 70
    22
 71
     2
 72
     2
 73
     0
 90
        0
 40
-0.6
 41
-30.0
 62
     5
 63
     7
 74
     1
 91
        4
 64
     7
 65
   257
 75
     1
175
     1
 42
1.0
 92
        8
 66
     7
 43
1.0
 76
     1
 77
     6
 78
     2
 67
     7
 79
     5
170
     0
171
     0
290
     0
174
     0
 93
        1
 44
0.0
173
     0
291
     1
 45
0.0
1001
ACAD
1000
AcDbSavedByObjectVersion
1070
     0
  0
VISUALSTYLE
  5
38
102
{ACAD_XDICTIONARY
360
D0E
102
}
102
{ACAD_REACTORS
330
29
102
}
330
29
100
AcDbVisualStyle
  2
Facepattern
 70
    15
 71
     2
 72
     2
 73
     0
 90
        0
 40
-0.6
 41
-30.0
 62
     5
 63
     7
 74
     1
 91
        4
 64
     7
 65
   257
 75
     1
175
     1
 42
1.0
 92
        8
 66
     7
 43
1.0
 76
     1
 77
     6
 78
     2
 67
     7
 79
     5
170
     0
171
     0
290
     0
174
     0
 93
        1
 44
0.0
173
     0
291
     1
 45
0.0
1001
ACAD
1000
AcDbSavedByObjectVersion
1070
     0
  0
VISUALSTYLE
  5
2A
102
{ACAD_XDICTIONARY
360
CF2
102
}
102
{ACAD_REACTORS
330
29
102
}
330
29
100
AcDbVisualStyle
  2
Flat
 70
     0
 71
     2
 72
     1
 73
     1
 90
        2
 40
-0.6
 41
30.0
 62
     5
 63
     7
 74
     0
 91
        0
 64
     7
 65
   257
 75
     1
175
     1
 42
1.0
 92
        8
 66
     7
 43
1.0
 76
     1
 77
     6
 78
     2
 67
     7
 79
     5
170
     0
171
     0
290
     0
174
     0
 93
       13
 44
0.0
173
     0
291
     1
 45
0.0
1001
ACAD
1000
AcDbSavedByObjectVersion
1070
     0
  0
VISUALSTYLE
  5
2B
102
{ACAD_XDICTIONARY
360
CF4
102
}
102
{ACAD_REACTORS
330
29
102
}
330
29
100
AcDbVisualStyle
  2
FlatWithEdges
 70
     1
 71
     2
 72
     1
 73
     1
 90
        2
 40
-0.6
 41
30.0
 62
     5
 63
     7
 74
     1
 91
        0
 64
     7
 65
   257
 75
     1
175
     1
 42
1.0
 92
        0
 66
   257
 43
1.0
 76
     1
 77
     6
 78
     2
 67
     7
 79
     5
170
     0
171
     0
290
     0
174
     0
 93
       13
 44
0.0
173
     0
291
     1
 45
0.0
1001
ACAD
1000
AcDbSavedByObjectVersion
1070
     0
  0
VISUALSTYLE
  5
2C
102
{ACAD_XDICTIONARY
360
CF6
102
}
102
{ACAD_REACTORS
330
29
102
}
330
29
100
AcDbVisualStyle
  2
Gouraud
 70
     2
 71
     2
 72
     2
 73
     1
 90
        2
 40
-0.6
 41
30.0
 62
     5
 63
     7
 74
     0
 91
        0
 64
     7
 65
   257
 75
     1
175
     1
 42
1.0
 92
        0
 66
     7
 43
1.0
 76
     1
 77
     6
 78
     2
 67
     7
 79
     5
170
     0
171
     0
290
     0
174
     0
 93
       13
 44
0.0
173
     0
291
     1
 45
0.0
1001
ACAD
1000
AcDbSavedByObjectVersion
1070
     0
  0
VISUALSTYLE
  5
2D
102
{ACAD_XDICTIONARY
360
CF8
102
}
102
{ACAD_REACTORS
330
29
102
}
330
29
100
AcDbVisualStyle
  2
GouraudWithEdges
 70
     3
 71
     2
 72
     2
 73
     1
 90
        2
 40
-0.6
 41
30.0
 62
     5
 63
     7
 74
     1
 91
        0
 64
     7
 65
   257
 75
     1
175
     1
 42
1.0
 92
        0
 66
   257
 43
1.0
 76
     1
 77
     6
 78
     2
 67
     7
 79
     5
170
     0
171
     0
290
     0
174
     0
 93
       13
 44
0.0
173
     0
291
     1
 45
0.0
1001
ACAD
1000
AcDbSavedByObjectVersion
1070
     0
  0
VISUALSTYLE
  5
31
102
{ACAD_XDICTIONARY
360
D00
102
}
102
{ACAD_REACTORS
330
29
102
}
330
29
100
AcDbVisualStyle
  2
Hidden
 70
     6
 71
     1
 72
     2
 73
     2
 90
        0
 40
-0.6
 41
-30.0
 62
     5
 63
     7
 74
     2
 91
        2
 64
     7
 65
   257
 75
     2
175
     1
 42
40.0
 92
        0
 66
   257
 43
1.0
 76
     1
 77
     6
 78
     2
 67
     7
 79
     3
170
     0
171
     0
290
     0
174
     0
 93
        1
 44
0.0
173
     0
291
     0
 45
0.0
1001
ACAD
1000
AcDbSavedByObjectVersion
1070
     0
  0
VISUALSTYLE
  5
3F
102
{ACAD_XDICTIONARY
360
D1C
102
}
102
{ACAD_REACTORS
330
29
102
}
330
29
100
AcDbVisualStyle
  2
JitterOff
 70
    20
 71
     2
 72
     2
 73
     0
 90
        0
 40
-0.6
 41
-30.0
 62
     5
 63
     7
 74
     1
 91
        4
 64
     7
 65
   257
 75
     1
175
     1
 42
1.0
 92
       10
 66
     7
 43
1.0
 76
     1
 77
     6
 78
     2
 67
     7
 79
     5
170
     0
171
     0
290
     0
174
     0
 93
        1
 44
0.0
173
     0
291
     1
 45
0.0
1001
ACAD
1000
AcDbSavedByObjectVersion
1070
     0
  0
VISUALSTYLE
  5
37
102
{ACAD_XDICTIONARY
360
D0C
102
}
102
{ACAD_REACTORS
330
29
102
}
330
29
100
AcDbVisualStyle
  2
Linepattern
 70
    14
 71
     2
 72
     2
 73
     0
 90
        0
 40
-0.6
 41
-30.0
 62
     5
 63
     7
 74
     1
 91
        4
 64
     7
 65
   257
 75
     7
175
     7
 42
1.0
 92
        8
 66
     7
 43
1.0
 76
     1
 77
     6
 78
     2
 67
     7
 79
     5
170
     0
171
     0
290
     0
174
     0
 93
        1
 44
0.0
173
     0
291
     1
 45
0.0
1001
ACAD
1000
AcDbSavedByObjectVersion
1070
     0
  0
VISUALSTYLE
  5
40
102
{ACAD_XDICTIONARY
360
D1E
102
}
102
{ACAD_REACTORS
330
29
102
}
330
29
100
AcDbVisualStyle
  2
OverhangOff
 70
    21
 71
     2
 72
     2
 73
     0
 90
        0
 40
-0.6
 41
-30.0
 62
     5
 63
     7
 74
     1
 91
        4
 64
     7
 65
   257
 75
     1
175
     1
 42
1.0
 92
        9
 66
     7
 43
1.0
 76
     1
 77
     6
 78
     2
 67
     7
 79
     5
170
     0
171
     0
290
     0
174
     0
 93
        1
 44
0.0
173
     0
291
     1
 45
0.0
1001
ACAD
1000
AcDbSavedByObjectVersion
1070
     0
  0
VISUALSTYLE
  5
33
102
{ACAD_XDICTIONARY
360
D04
102
}
102
{ACAD_REACTORS
330
29
102
}
330
29
100
AcDbVisualStyle
  2
Realistic
 70
     8
 71
     2
 72
     3
 73
     0
 90
        2
 40
-0.6
 41
30.0
 62
     5
 63
     7
 74
     0
 91
        0
 64
     7
 65
   257
 75
     1
175
     1
 42
1.0
 92
        8
 66
   257
 43
1.0
 76
     1
 77
     6
 78
     2
 67
     7
 79
     3
170
     0
171
     0
290
     0
174
     0
 93
       13
 44
0.0
173
     0
291
     0
 45
0.0
1001
ACAD
1000
AcDbSavedByObjectVersion
1070
     0
  0
VISUALSTYLE
  5
3E
102
{ACAD_XDICTIONARY
360
D1A
102
}
102
{ACAD_REACTORS
330
29
102
}
330
29
100
AcDbVisualStyle
  2
Shaded
 70
    27
 71
     2
 72
     2
 73
     1
 90
        2
 40
-0.6
 41
30.0
 62
     5
 63
     7
 74
     0
 91
        4
 64
     7
 65
   257
 75
     1
175
     1
 42
1.0
 92
        8
 66
   257
 43
1.0
 76
     1
 77
     6
 78
     2
 67
     8
 79
     3
170
     0
171
     0
290
     0
174
     0
 93
        5
 44
0.0
173
     0
291
     0
 45
0.0
1001
ACAD
1000
AcDbSavedByObjectVersion
1070
     0
  0
VISUALSTYLE
  5
3D
102
{ACAD_XDICTIONARY
360
D18
102
}
102
{ACAD_REACTORS
330
29
102
}
330
29
100
AcDbVisualStyle
  2
Shaded with edges
 70
    26
 71
     2
 72
     2
 73
     1
 90
        2
 40
-0.6
 41
30.0
 62
     5
 63
     7
 74
     1
 91
       10
 64
     7
 65
   257
 75
     2
175
     1
 42
1.0
 92
        8
 66
   257
 43
1.0
 76
     1
 77
     6
 78
     2
 67
     7
 79
     3
170
     0
171
     0
290
     0
174
     0
 93
        5
 44
0.0
173
     0
291
     0
 45
0.0
1001
ACAD
1000
AcDbSavedByObjectVersion
1070
     0
  0
VISUALSTYLE
  5
3A
102
{ACAD_XDICTIONARY
360
D12
102
}
102
{ACAD_REACTORS
330
29
102
}
330
29
100
AcDbVisualStyle
  2
Shades of Gray
 70
    23
 71
     2
 72
     2
 73
     3
 90
        0
 40
-0.6
 41
-30.0
 62
     5
 63
     7
 74
     2
 91
        2
 64
     7
 65
     7
 75
     1
175
     1
 42
40.0
 92
        8
 66
     7
 43
1.0
 76
     1
 77
     6
 78
     2
 67
     7
 79
     3
170
     0
171
     0
290
     0
174
     0
 93
        1
 44
0.0
173
     0
291
     0
 45
0.0
1001
ACAD
1000
AcDbSavedByObjectVersion
1070
     0
  0
VISUALSTYLE
  5
3B
102
{ACAD_XDICTIONARY
360
D14
102
}
102
{ACAD_REACTORS
330
29
102
}
330
29
100
AcDbVisualStyle
  2
Sketchy
 70
    24
 71
     1
 72
     2
 73
     2
 90
        0
 40
-0.6
 41
-30.0
 62
     5
 63
     7
 74
     2
 91
        2
 64
     7
 65
     7
 75
     1
175
     1
 42
40.0
 92
       11
 66
     7
 43
1.0
 76
     1
 77
     6
 78
     2
 67
     7
 79
     6
170
     0
171
     0
290
     0
174
     0
 93
        1
 44
0.0
173
     0
291
     0
 45
0.0
1001
ACAD
1000
AcDbSavedByObjectVersion
1070
     0
  0
VISUALSTYLE
  5
36
102
{ACAD_XDICTIONARY
360
D0A
102
}
102
{ACAD_REACTORS
330
29
102
}
330
29
100
AcDbVisualStyle
  2
Thicken
 70
    13
 71
     2
 72
     2
 73
     0
 90
        0
 40
-0.6
 41
-30.0
 62
     5
 63
     7
 74
     1
 91
        4
 64
     7
 65
   257
 75
     1
175
     1
 42
1.0
 92
       12
 66
     7
 43
1.0
 76
     1
 77
     6
 78
     2
 67
     7
 79
     5
170
     0
171
     0
290
     0
174
     0
 93
        1
 44
0.0
173
     0
291
     1
 45
0.0
1001
ACAD
1000
AcDbSavedByObjectVersion
1070
     0
  0
VISUALSTYLE
  5
30
102
{ACAD_XDICTIONARY
360
CFE
102
}
102
{ACAD_REACTORS
330
29
102
}
330
29
100
AcDbVisualStyle
  2
Wireframe
 70
     5
 71
     0
 72
     2
 73
     0
 90
        0
 40
-0.6
 41
-30.0
 62
     5
 63
     7
 74
     1
 91
        4
 64
     7
 65
   257
 75
     1
175
     1
 42
1.0
 92
        0
 66
   257
 43
1.0
 76
     1
 77
     6
 78
     2
 67
     7
 79
     3
170
     0
171
     0
290
     0
174
     0
 93
        1
 44
0.0
173
     0
291
     0
 45
0.0
1001
ACAD
1000
AcDbSavedByObjectVersion
1070
     0
  0
VISUALSTYLE
  5
3C
102
{ACAD_XDICTIONARY
360
D16
102
}
102
{ACAD_REACTORS
330
29
102
}
330
29
100
AcDbVisualStyle
  2
X-Ray
 70
    25
 71
     2
 72
     2
 73
     1
 90
        1
 40
0.5
 41
-30.0
 62
     5
 63
     7
 74
     1
 91
        0
 64
     7
 65
   257
 75
     1
175
     1
 42
1.0
 92
        8
 66
     7
 43
1.0
 76
     1
 77
     6
 78
     2
 67
     7
 79
     3
170
     0
171
     0
290
     0
174
     0
 93
       13
 44
0.0
173
     0
291
     0
 45
0.0
1001
ACAD
1000
AcDbSavedByObjectVersion
1070
     0
  0
DICTIONARYVAR
  5
DA
102
{ACAD_REACTORS
330
D7
102
}
330
D7
100
DictionaryVariables
280
     0
  1
1:1
  0
DICTIONARYVAR
  5
D9
102
{ACAD_REACTORS
330
D7
102
}
330
D7
100
DictionaryVariables
280
     0
  1
STANDARD
  0
DICTIONARYVAR
  5
D8
102
{ACAD_REACTORS
330
D7
102
}
330
D7
100
DictionaryVariables
280
     0
  1
STANDARD
  0
DICTIONARYVAR
  5
CE7
102
{ACAD_REACTORS
330
D7
102
}
330
D7
100
DictionaryVariables
280
     0
  1
1
  0
DICTIONARYVAR
  5
CE6
102
{ACAD_REACTORS
330
D7
102
}
330
D7
100
DictionaryVariables
280
     0
  1
1
  0
DICTIONARYVAR
  5
CE5
102
{ACAD_REACTORS
330
D7
102
}
330
D7
100
DictionaryVariables
280
     0
  1
0
  0
DICTIONARYVAR
  5
CE2
102
{ACAD_REACTORS
330
D7
102
}
330
D7
100
DictionaryVariables
280
     0
  1
0
  0
DICTIONARYVAR
  5
CE3
102
{ACAD_REACTORS
330
D7
102
}
330
D7
100
DictionaryVariables
280
     0
  1
0
  0
DICTIONARYVAR
  5
CE1
102
{ACAD_REACTORS
330
D7
102
}
330
D7
100
DictionaryVariables
280
     0
  1
2
  0
DICTIONARYVAR
  5
CE0
102
{ACAD_REACTORS
330
D7
102
}
330
D7
100
DictionaryVariables
280
     0
  1
1
  0
DICTIONARYVAR
  5
CE4
102
{ACAD_REACTORS
330
D7
102
}
330
D7
100
DictionaryVariables
280
     0
  1
127
  0
DICTIONARYVAR
  5
CE8
102
{ACAD_REACTORS
330
D7
102
}
330
D7
100
DictionaryVariables
280
     0
  1
2
  0
DICTIONARY
  5
D24
330
6B
100
AcDbDictionary
280
     1
281
     1
  3
ACAD_XREC_ROUNDTRIP
360
D25
  0
DICTIONARY
  5
D28
330
73
100
AcDbDictionary
280
     1
281
     1
  3
ACAD_XREC_ROUNDTRIP
360
D29
  0
DICTIONARY
  5
D26
330
6F
100
AcDbDictionary
280
     1
281
     1
  3
ACAD_XREC_ROUNDTRIP
360
D27
  0
DICTIONARY
  5
1A
330
19
100
AcDbDictionary
280
     1
281
     1
  3
ACAD_XREC_ROUNDTRIP
360
CF0
  3
BUMPTILE
360
1C
  3
DIFFUSETILE
360
1B
  3
OPACITYTILE
360
1F
  3
REFLECTIONTILE
360
1E
  3
REFRACTIONTILE
360
20
  3
SPECULARTILE
360
1D
  0
DICTIONARY
  5
12
330
11
100
AcDbDictionary
280
     1
281
     1
  3
ACAD_XREC_ROUNDTRIP
360
CEF
  3
BUMPTILE
360
14
  3
DIFFUSETILE
360
13
  3
FBXASSET
360
168
  3
OPACITYTILE
360
17
  3
REFLECTIONTILE
360
16
  3
REFRACTIONTILE
360
18
  3
SPECULARTILE
360
15
  0
DICTIONARY
  5
22
330
21
100
AcDbDictionary
280
     1
281
     1
  3
ACAD_XREC_ROUNDTRIP
360
CF1
  3
BUMPTILE
360
24
  3
DIFFUSETILE
360
23
  3
FBXASSET
360
11B
  3
OPACITYTILE
360
27
  3
REFLECTIONTILE
360
26
  3
REFRACTIONTILE
360
28
  3
SPECULARTILE
360
25
  0
DICTIONARY
  5
CEB
330
67
100
AcDbDictionary
280
     1
281
     1
  3
ACAD_XREC_ROUNDTRIP
360
CEC
  0
DICTIONARY
  5
CE9
330
65
100
AcDbDictionary
280
     1
281
     1
  3
ACAD_ROUNDTRIP_2008_TABLESTYLE_CELLSTYLEMAP
360
CEA
  3
ACAD_XREC_ROUNDTRIP
360
D22
  0
DICTIONARY
  5
CFC
330
2F
100
AcDbDictionary
280
     1
281
     1
  3
ACAD_XREC_ROUNDTRIP
360
CFD
  0
DICTIONARY
  5
CFA
330
2E
100
AcDbDictionary
280
     1
281
     1
  3
ACAD_XREC_ROUNDTRIP
360
CFB
  0
DICTIONARY
  5
D08
330
35
100
AcDbDictionary
280
     1
281
     1
  3
ACAD_XREC_ROUNDTRIP
360
D09
  0
DICTIONARY
  5
D10
330
39
100
AcDbDictionary
280
     1
281
     1
  3
ACAD_XREC_ROUNDTRIP
360
D11
  0
DICTIONARY
  5
D02
330
32
100
AcDbDictionary
280
     1
281
     1
  3
ACAD_XREC_ROUNDTRIP
360
D03
  0
DICTIONARY
  5
D06
330
34
100
AcDbDictionary
280
     1
281
     1
  3
ACAD_XREC_ROUNDTRIP
360
D07
  0
DICTIONARY
  5
D20
330
41
100
AcDbDictionary
280
     1
281
     1
  3
ACAD_XREC_ROUNDTRIP
360
D21
  0
DICTIONARY
  5
D0E
330
38
100
AcDbDictionary
280
     1
281
     1
  3
ACAD_XREC_ROUNDTRIP
360
D0F
  0
DICTIONARY
  5
CF2
330
2A
100
AcDbDictionary
280
     1
281
     1
  3
ACAD_XREC_ROUNDTRIP
360
CF3
  0
DICTIONARY
  5
CF4
330
2B
100
AcDbDictionary
280
     1
281
     1
  3
ACAD_XREC_ROUNDTRIP
360
CF5
  0
DICTIONARY
  5
CF6
330
2C
100
AcDbDictionary
280
     1
281
     1
  3
ACAD_XREC_ROUNDTRIP
360
CF7
  0
DICTIONARY
  5
CF8
330
2D
100
AcDbDictionary
280
     1
281
     1
  3
ACAD_XREC_ROUNDTRIP
360
CF9
  0
DICTIONARY
  5
D00
330
31
100
AcDbDictionary
280
     1
281
     1
  3
ACAD_XREC_ROUNDTRIP
360
D01
  0
DICTIONARY
  5
D1C
330
3F
100
AcDbDictionary
280
     1
281
     1
  3
ACAD_XREC_ROUNDTRIP
360
D1D
  0
DICTIONARY
  5
D0C
330
37
100
AcDbDictionary
280
     1
281
     1
  3
ACAD_XREC_ROUNDTRIP
360
D0D
  0
DICTIONARY
  5
D1E
330
40
100
AcDbDictionary
280
     1
281
     1
  3
ACAD_XREC_ROUNDTRIP
360
D1F
  0
DICTIONARY
  5
D04
330
33
100
AcDbDictionary
280
     1
281
     1
  3
ACAD_XREC_ROUNDTRIP
360
D05
  0
DICTIONARY
  5
D1A
330
3E
100
AcDbDictionary
280
     1
281
     1
  3
ACAD_XREC_ROUNDTRIP
360
D1B
  0
DICTIONARY
  5
D18
330
3D
100
AcDbDictionary
280
     1
281
     1
  3
ACAD_XREC_ROUNDTRIP
360
D19
  0
DICTIONARY
  5
D12
330
3A
100
AcDbDictionary
280
     1
281
     1
  3
ACAD_XREC_ROUNDTRIP
360
D13
  0
DICTIONARY
  5
D14
330
3B
100
AcDbDictionary
280
     1
281
     1
  3
ACAD_XREC_ROUNDTRIP
360
D15
  0
DICTIONARY
  5
D0A
330
36
100
AcDbDictionary
280
     1
281
     1
  3
ACAD_XREC_ROUNDTRIP
360
D0B
  0
DICTIONARY
  5
CFE
330
30
100
AcDbDictionary
280
     1
281
     1
  3
ACAD_XREC_ROUNDTRIP
360
CFF
  0
DICTIONARY
  5
D16
330
3C
100
AcDbDictionary
280
     1
281
     1
  3
ACAD_XREC_ROUNDTRIP
360
D17
  0
XRECORD
  5
D25
102
{ACAD_REACTORS
330
D24
102
}
330
D24
100
AcDbXrecord
280
     1
102
SHADEPLOT
 70
     0
102
SHADEPLOTRESLEVEL
 70
     2
102
SHADEPLOTCUSTOMDPI
 70
   300
  0
XRECORD
  5
D29
102
{ACAD_REACTORS
330
D28
102
}
330
D28
100
AcDbXrecord
280
     1
102
SHADEPLOT
 70
     0
102
SHADEPLOTRESLEVEL
 70
     2
102
SHADEPLOTCUSTOMDPI
 70
   300
  0
XRECORD
  5
D27
102
{ACAD_REACTORS
330
D26
102
}
330
D26
100
AcDbXrecord
280
     1
102
SHADEPLOT
 70
     0
102
SHADEPLOTRESLEVEL
 70
     2
102
SHADEPLOTCUSTOMDPI
 70
   300
  0
XRECORD
  5
CF0
102
{ACAD_REACTORS
330
1A
102
}
330
1A
100
AcDbXrecord
280
     1
102
MATERIAL
148
0.0
149
0.0
149
0.0
 93
        0
 94
      127
282
     0
 72
     0
 77
     0
171
     0
175
     0
179
     0
273
     0
  0
XRECORD
  5
1C
102
{ACAD_REACTORS
330
1A
102
}
330
1A
100
AcDbXrecord
280
     1
270
     1
271
     1
  0
XRECORD
  5
1B
102
{ACAD_REACTORS
330
1A
102
}
330
1A
100
AcDbXrecord
280
     1
270
     1
271
     1
  0
XRECORD
  5
1F
102
{ACAD_REACTORS
330
1A
102
}
330
1A
100
AcDbXrecord
280
     1
270
     1
271
     1
  0
XRECORD
  5
1E
102
{ACAD_REACTORS
330
1A
102
}
330
1A
100
AcDbXrecord
280
     1
270
     1
271
     1
  0
XRECORD
  5
20
102
{ACAD_REACTORS
330
1A
102
}
330
1A
100
AcDbXrecord
280
     1
270
     1
271
     1
  0
XRECORD
  5
1D
102
{ACAD_REACTORS
330
1A
102
}
330
1A
100
AcDbXrecord
280
     1
270
     1
271
     1
  0
XRECORD
  5
CEF
102
{ACAD_REACTORS
330
12
102
}
330
12
100
AcDbXrecord
280
     1
102
MATERIAL
148
0.0
149
0.0
149
0.0
 93
        0
 94
      127
282
     0
 72
     0
 77
     0
171
     0
175
     0
179
     0
273
     0
  0
XRECORD
  5
14
102
{ACAD_REACTORS
330
12
102
}
330
12
100
AcDbXrecord
280
     1
270
     1
271
     1
  0
XRECORD
  5
13
102
{ACAD_REACTORS
330
12
102
}
330
12
100
AcDbXrecord
280
     1
270
     1
271
     1
  0
XRECORD
  5
168
102
{ACAD_REACTORS
330
12
102
}
330
12
100
AcDbXrecord
280
     1
 70
     1
 90
1959938040
 71
     1
  1
748FD914-7492-4091-9086-C0A4525AA4E7
311
504B03040A0000080000B35C31403DEE336E79000000790000001B0000006175746F6465736B2D64657369676E2D7061636B6167652E786D6C3C3F786D6C2076657273696F6E3D22312E302220656E636F64696E673D227574662D3822203F3E3C666F726D6174733E3C666F726D61743E687474703A2F2F736368656D612E
311
6175746F6465736B2E636F6D2F64657369676E2D7061636B6167652F323030393C2F666F726D61743E3C2F666F726D6174733E504B0304140006080800B35C3140D486FD9CA0000000F4000000130000005B436F6E74656E745F54797065735D2E786D6C7D8EC10E82300C865F65E91D8A1E8C310C0EEA1BF002731658846E
311
D98AC1B77784ABF1D8FE5FBFBF75BBCE937A534CCEB38643598122B6FEE978D0B0485F9C41B54DDD7D022595594E1A469170414C76A4D9A4D207E29CF43ECE46F218070CC6BECC4078ACAA135ACF422C856C0E68EA1BF5669944DDD7BCDE7B1F8E415D77AECB980613C2E4AC91FC167A2B244592486606FC29C8FD7F045B9A
311
EF7053A7E60B504B0304140006080800B35C3140A8C5684EEA0000007C01000008000000636F72652E786D6C8D904D6EC3201085AF82668F0DB613FF081325B27B825E0001715162B00C54397E71E248EDAEAB19BD79DFCCE8B1D363BEA36FBD7AE36C0F342380B4954E193BF510C31537804E9CADCE855F364056CCBA874D
311
06CEA6D5C56597A4B341DB9054EB94DE45E1BD0E80E43D353D78F9A56791891892C3DFB245C89B987446DF5D8263340ABD8E1895F699ABD12BF0233934C3480E98B6E716574359E04B3D5678A4D5508CCDB9A51F35CB3798B360E6F77DB96A11B4025E105A604231AD3F29EDCABA2B1B4C8E1D212CDFEC7FA0B8A87F42D1D8
311
5016FBBB2FCC03A7E991E780B37CCB22956750A96EB9F11F504B0304140006080800B35C314055019EA25F0000007C00000007000000636E782E786D6C4DCB3B0E80201045D1AD90E915ED2CF8AC45050C11660C8261F98AB1B07AC9C97D42D718D865D3E909258CFD00CCE24AC6E326A164D74DC0B4128928FF326038472B
311
A13128B1252AC747C6BAB984FC68F0B87FE8960A5C09FE86CFB69FBA01504B0304140006080800B35C3140D6CC4E9666010000020300000C0000006662782F636F72652E786D6C8D52D18E823010FC95A6EFA52DA2A8A9355EF4BEE07EA042E51AA125A5257EFE2D82E1BC18732129CDCCCEEEEC80D8DF9A1AF5DA77C6D91D
311
E609C348DBC295C6563B1CC385AC31DA4BE19D0BBFCA30B2AAD13B3CC0588ACABBD84E50E16CD036006A5DA92750759D0E1815355C76B82BBE75A31215035474D7A455C555553AE109D0502745173C1840E390E1C4F272BE093AE252C468CA8935254C3317A33D962BB65C1F4F6C49F8E6B021D97191928FFC949113CF8EE9
311
697DD8F0CF5CD0412C4530CDC35DE1B50ABAC432653C258C139E7F71BE5DE4DBC59AB0D596314187F227516CCB7F8AA2B161914E7647598725072377E2CFB61051409DEAC10F95820E21C2EB9EF073D01008841CD4B97EEC7105A8D745703E03A67471A67A55470D5319BA3F828E2C74BE3780CD5EF649DFF479DF033EA0B2
311
15585301AEE71886E9629C3A45D16A4FFA7043D6F946D5B3B9D1E27CCE835ECA0B573BFF1F359D56A5539874F87BE50F504B0304140006080800B35C3140D1419DAD7E0000009D0000000B0000006662782F636E782E786D6C4DCCD10A83201886E15B91FFDCE5CC0D076AB4B4FB886521990EA76397BF1A1DECE883878F57
311
349FD5A3B74D2F178384F38900B2E11147176609254F98036A944831E6BF1BA030AC56C2CEA0C49C62791E34DA69283E6FEA5D580E6494DFAE9A18DCD6BAC3ACD606F39619CCEEDAF4F4D253423AA894A87EA56DF7B0FA02504B0304140006080800B35C31403CF6716E2C01000014020000310000006662782F3432383936
311
4430452D413344432D343344452D384134452D3442444546323546323030432F636F72652E786D6C8D51CB6EC32010FC15C4293D6003268E1B61A23476BEA03FE0D8C44589C1E251E5F30BB523B5B75C58343B333BDAE587C77407DFD23A65740D49862190BA3783D2630D83BFA20A8283E0D618FF870681EE2659C30443C1
311
476BC2BC42BDD15E6A1F516D06B9829D73D243D0DFE3A786AEFF92539775C14786BB6573D7DFBA5166248BEDC813DC791B038065487AA160B47A2F1BDCA263D19C102B9A165547D622F6D1B467BA3D538C4F3C5F848287A08655AE8618475D95B4AF9A24B1E05E4DCFF8BD959D97031414138A304164F749C8BED8ED8B0AE1
311
728F31CF13FD9F28CCC38BA2A0B42FE81A7791392808CF9786E0830997FB338C7CCCC67A90E66D9CECDFA0C019A6B8C255C178BE50E302A267C9564FE78D8D0BDEDC2E914DB68B71C904CFD38D62F93D60ACE99EE207504B0304140006080800B35C314049FD39814D01000033030000300000006662782F34323839364430
311
452D413344432D343344452D384134452D3442444546323546323030432F636E782E786D6CD593CD6E022114855F85B09F1FD4A8310C265DF409BAE89681ABA53230E1A7A96FDF8BA275E3A2CB6EC8E4DCC339375F18BEFF9E2CF982108D7703656D4F0938E5B571C781E67468B694EC050FDEA7071B254E4E30D02253C18F
311
C1E7B94A1A0E32DB84AA35EE54C500D1E7A020A25C6E12EB95B41800AEC928C23482D6A0C9DD885F0708B80A8AE399A40F20AF2FEFC48F9FA052E45D4911BC2B1D8297B3363D98285156C638D0A83E6092ADCCC96B88A756CB245BD6DEBA9EECF49B44CA855B650E8694F28196938ABA518B1C798743C1630A48AF9AD27906
311
2AE43C5BA36442C8DDC578F5089E8D4BEB55F51A041FD0CDD6CBD50AC32E33C19399A03A5400994053B1E8D9A2E959C3366F8CED969BDD72DBF4EB5DDFF3AED8051FBDB7F512C640F03351DE2570890AC6BB327E86AFFA88360159FB70FE034804505BAF74EE19FF994F7779DF882BE05F207E00504B0304140006080800B3
311
5C314015D7AE799C0500007B100000340000006662782F34323839364430452D413344432D343344452D384134452D3442444546323546323030432F6F626A656374732E786D6CAD575D739B3814FD2B0CFB6C303669E21D42C7B1938EA79BB6534F3BFB90198F0C8268233E4612A9D35FBF472030B876E2DDE90B20215DDD
311
7BEEB91F0ADEEF326E3D532159915FDB9E33B62D9A4745CCF2F4DAAE5432BAB2ADF761208A42F596D9564E327A6DEB693B0C525154A5998A69422AAE0E66EF6EFEB66444736A5B1127525EDB327AA4197148A58A98CA2727268A3869B2733CA75938149B0A523E1E082D89A0B982A698CF21C56A94F286C3B1ED8681ABFF87
311
817E9A55D3D3ABDCDA9EE1F92C978AE4D12F871D88997AFEF27672311B5DF8FE74E4BF9B78A39BBB9BE5C8BB9C8E17EF168BD9FC768683A5129064341134B1C30FC046B028709B5F6150B15C4D27668971902BE833D39EB2C389E5056EB3A6B3CE18794CFDA8C8731AD558018DDA3E233AA625CD63F89C5109CD7A088D8743
311
4FE3D8FB3DD56373647FFA3C04FA3B7A825ADDDB775FD362FB0F4C90E7304848AA19D860690C6DB83ADE23BC2D0A6EFE3169654451C108B738DB0A225EEC104BF592301888D14C163A1AB40576082F34BF87744118BDCDF3635A2615E79AC6765847C106B14295AC35633FA9D86BDF47063AC1579A0D57C620F552523B9C35
311
14B93A605303A4957092C2E53053EF9C4E0E0C5DE8385D2DEDF0E3DD76B7D6B17BFCF0521425154AD307D46A1DD7BE354A4627EF2CCFE90DF6812A7B50BE02F94F08F5BD2AF09B603B7FE79B539420B94C0A91C137D6D81A8DF1185B5EFDD4DFBDAFC0ED360FBD770A4F385B43F51BF01CDAD0F7650FCE307806E10B3135A6
311
AD23C29136EE590E8034492C5E600A7938D9EEEC70852C87AC8C5D84871E4C86BACFF80C5C230689A23EA9F7CE81E5415A3C234103B69A9150A321BF5170EFA75FD2597DB059760ADE8BDF42D7F972FD715D898444F4DEC4F492262C670A256ECF9BBE4203CC07163DD1971F858861E8AF78AFFB7867E62809B435E61AF8B4
311
CDE97AB03F797040847D69A1D34DF0C609304217D69EFC7B2623CA39C96951B5E7BE5A3F50361A8875B06B267705665F58409AE6CF410CA2484782951AC4AE5A7549D33961DDB7D52730D20E6F5EFE222FFDECB5DDE7DEA8E085D86C5F364D5A3A0AF5F721B70D06AE9602BAD741D2C6BF017D13B324A92492E0115CBFAF16
311
7DDFE9B48014D14A6DA2C587FD082E220C695BB9A8D682A09216F986A16E22EE8E1ED0970F480D036A81A7349694271BC679956D12C6518D3619294FC0F1FFF5DF5659B9215951E5EA84EC81EAA80E43DD07EC953F888A1EED705DBF4737C8BD318D4F9041D79223580D5C7BE95FDD2D679E3FBAF46793913F9E79A3D9F8EA
311
DD68319EFB17938BF9DCBFBD6CFDD46812066DA9E94734BC84D216548219F77D5B217E4C12B0C37BA2E4C387263CDBF7B795835E3870B107F5B2DB388F9FD1F7D1F86D01FB954705ADB292D38CE68AE818BAD71FFC2B419F3150A6995F6524A56748F9FC617D600C66CED8F745C73BFD71B0D7CC2E74401E15A21EAB6C9B13
311
C60F36A60D924E99A706BFD627DDBB2934ED508F8C63D099CA82B3187930B6525A6454211B9E5184444625A8D7EFE96373F73863F773D3212AB2E5B4D5E491A049E61261016A55911ACE5B7FA0A9D37DD5B58D72EB3CE16132856D8133D7369A74C5222A9D2D0AB46E856AE1E052BF9347E34FF294A3D76E3675E36E97C666
311
5092BB25E7F44FC6AE26851B0390464AF40D6888E09D5A9930A87533FFA3FF6478AB8E45143EB795EA6CD94F74C6D4C720441BA3CC6D014DCC93397A87407DDD2CCFA9D70C1039EB96F52A091AA92345445ADF14B47E46A5F9F28B8B0EC55A7DB64A5EA5F0E5F992468282CC950E70B008AC30324BA240D5C59F0F5F44819B
311
6C66DD3150E061516459919BC1DCDC84ADF523EEB5F103D202D51712F930197B9387FA2260EE269B2D91D421B17CC2047C2A5807F1C0F16064735B44056A7E74EB5CED84036EAE969629693E841AA2F4B3AA86052D474E2D448FBE4CEA58E92F285FBD0BB8F552A820D0C587FF02504B0304140006080000B35C3140000000
311
000000000000000000350000006662782F34323839364430452D413344432D343344452D384134452D3442444546323546323030432F76657274696365732E62696E504B0304140006080800B35C3140F270F1330600000004000000360000006662782F34323839364430452D413344432D343344452D384134452D344244
311
4546323546323030432F747269616E676C65732E62696E636660600000504B0304140006080000B35C3140000000000000000000000000370000006662782F34323839364430452D413344432D343344452D384134452D3442444546323546323030432F617474726962757465732E62696E504B0304140006080800B35C31
311
40D5987DFC8F00000041010000360000006662782F34323839364430452D413344432D343344452D384134452D3442444546323546323030432F6469726563746F72792E786D6C858F410EC2201045AF4266AF15DDB800BA74E7C21B903225242D6328188F2FA5C4183471359997F9FF81E89FF3C41E1816475E02DF1F80A1
311
1FC8386F25A438EECEC07A250251FC3803E6F58C12560C4AD840E95E91C151A72936F496F35732D860FE635F62C8F2DA16B505C545B74125BAA2FA9E05D7CC053D063734D5C7665FD55B6B8D15D5E9BFEAFD8490FFA45E504B0304140006080800B35C3140BB6E46D6FC000000A00100003B0000006662782F343238393644
311
30452D413344432D343344452D384134452D3442444546323546323030432F7265736F75726365732F636F72652E786D6C8D504B6E833010BD0A9ABDC1061A08328E52414FD00B586642AD041BF953F5F835814AEDAE9B99D1FB689E1EBF7C2D8FEC139DD7D6F4C0720A191A65276DE61E62B89116B28BE0CEDAF04B069991
311
0BF6B0C120F8EC6C5C0F485913D084841A3BE1014AEF3140A61EE9E8C1AB0F5C642E63480A7FCF57A9EE72C69CE5894E3AC17D702940B63FD9260887DE46A7D0F36267058F514F87464FE9A7BE6974204EF4A51D465A1376BE9E493D5425796DC69A8CAC1ECAB1BD9ED95BC38BCD2C78D0CB4F46E550069C409494958432C2
311
9A77C6BAAAE9AA96D05347292F36F91F535CA77F9AA236A12A8FB8BBCD836029C89310BCD8FA4AEB5966DA5BB7E21B504B010214000A0000080000B35C31403DEE336E79000000790000001B00000000000000000000000000000000006175746F6465736B2D64657369676E2D7061636B6167652E786D6C504B0102140014
311
0006080800B35C3140D486FD9CA0000000F40000001300000000000000000000000000B20000005B436F6E74656E745F54797065735D2E786D6C504B01021400140006080800B35C3140A8C5684EEA0000007C010000080000000000000000000000000083010000636F72652E786D6C504B01021400140006080800B35C31
311
4055019EA25F0000007C000000070000000000000000000000000093020000636E782E786D6C504B01021400140006080800B35C3140D6CC4E9666010000020300000C00000000000000000000000000170300006662782F636F72652E786D6C504B01021400140006080800B35C3140D1419DAD7E0000009D0000000B0000
311
0000000000000000000000A70400006662782F636E782E786D6C504B01021400140006080800B35C31403CF6716E2C0100001402000031000000000000000000000000004E0500006662782F34323839364430452D413344432D343344452D384134452D3442444546323546323030432F636F72652E786D6C504B01021400
311
140006080800B35C314049FD39814D010000330300003000000000000000000000000000C90600006662782F34323839364430452D413344432D343344452D384134452D3442444546323546323030432F636E782E786D6C504B01021400140006080800B35C314015D7AE799C0500007B1000003400000000000000000000
311
000000640800006662782F34323839364430452D413344432D343344452D384134452D3442444546323546323030432F6F626A656374732E786D6C504B01021400140006080000B35C31400000000000000000000000003500000000000000000000000000520E00006662782F34323839364430452D413344432D34334445
311
2D384134452D3442444546323546323030432F76657274696365732E62696E504B01021400140006080800B35C3140F270F13306000000040000003600000000000000000000000000A50E00006662782F34323839364430452D413344432D343344452D384134452D3442444546323546323030432F747269616E676C6573
311
2E62696E504B01021400140006080000B35C31400000000000000000000000003700000000000000000000000000FF0E00006662782F34323839364430452D413344432D343344452D384134452D3442444546323546323030432F617474726962757465732E62696E504B01021400140006080800B35C3140D5987DFC8F00
311
0000410100003600000000000000000000000000540F00006662782F34323839364430452D413344432D343344452D384134452D3442444546323546323030432F6469726563746F72792E786D6C504B01021400140006080800B35C3140BB6E46D6FC000000A00100003B0000000000000000000000000037100000666278
311
2F34323839364430452D413344432D343344452D384134452D3442444546323546323030432F7265736F75726365732F636F72652E786D6C504B0506000000000E000E00800400008C1100000000
310
504B03040A0000080000B35C31403DEE336E79000000790000001B0000006175746F6465736B2D64657369676E2D7061636B6167652E786D6C3C3F786D6C2076657273696F6E3D22312E302220656E636F64696E673D227574662D3822203F3E3C666F726D6174733E3C666F726D61743E687474703A2F2F736368656D612E
310
6175746F6465736B2E636F6D2F64657369676E2D7061636B6167652F323030393C2F666F726D61743E3C2F666F726D6174733E504B0304140006080800B35C3140D486FD9CA0000000F4000000130000005B436F6E74656E745F54797065735D2E786D6C7D8EC10E82300C865F65E91D8A1E8C310C0EEA1BF002731658846E
310
D98AC1B77784ABF1D8FE5FBFBF75BBCE937A534CCEB38643598122B6FEE978D0B0485F9C41B54DDD7D022595594E1A469170414C76A4D9A4D207E29CF43ECE46F218070CC6BECC4078ACAA135ACF422C856C0E68EA1BF5669944DDD7BCDE7B1F8E415D77AECB980613C2E4AC91FC167A2B244592486606FC29C8FD7F045B9A
310
EF7053A7E60B504B0304140006080800B35C3140D92A3763E90000007C01000008000000636F72652E786D6C8D904D6EC3201085AF82668F0D76E3B816267213DFA0174030715062B00C543D7E717EA476D7D50C8FF7CD8C9E387CCF37F2856BB0DEF5C00B06049DF6C6BAA98714CFB405729062F53EFEB201716AC61E3619
310
A498569F96A7A4BD8BE862569D37F81455081881E85B6E7A08FA82B32A548AD911AEC5A2F4554D58F05797E194AC218F25D6E479F66C7105D9F0D3B86B8F8C0E633DD2B7E350D3F7F163A04333E447D5B05D7B12E5064B11EDFCDAAF5754110DC88AF18A324EF9FE93F3AEDE77754B59D33126CACDFE074A8BF92794AC8B75
310
F53CF78105903C1F72FF90A2DCB2C8E51E54AE5B6EF207504B0304140006080800B35C314055019EA25F0000007C00000007000000636E782E786D6C4DCB3B0E80201045D1AD90E915ED2CF8AC45050C11660C8261F98AB1B07AC9C97D42D718D865D3E909258CFD00CCE24AC6E326A164D74DC0B4128928FF326038472BA1
310
3128B1252AC747C6BAB984FC68F0B87FE8960A5C09FE86CFB69FBA01504B0304140006080800B35C3140BE98D8B865010000020300000C0000006662782F636F72652E786D6C8D52ED8E8320107C15C27F04B45FD7501AAFF50DEE05A8528F54A141307DFC5BAB8DD74BD35C4C147776766647C5FED636A8D7BE33CEEE304F
310
1846DA96AE32B6DEE118CE6483D15E0AEF5CF8D5869155ADDEE1A18CA5A8BD8BD7A9543A1BB40D50B5AED25351759D0E18950D1C76B82BBF75AB121503747497E4AACA8BAA75C21380A14F8A2E7830804691E18EE5F9741374AC4B11A3A926D454A066CE467B2C57FC582C370746F2222BC8E29067E4A3F8CC49BECAE1255D
310
B1E5E628E840962298F6E1AEF45A055D6199329E12C6095F7F71BECDD6DB6C43D86ACB98A043FB13295EAB7F92A2B1214B27BB23ADC39283913BF0675B8828A04EF5E0874A418710E1714FF839680804420EEAD43CF6B840A9D765707E0148E5E20CF5AA891A5419BA5F828E284CBE0F80CD5ECE49DFCC793F033EA0B23558
310
53018EA718067531AA4E515CB5277DB821EB7CAB9AD9DC6871BECF422FE9A56B9CFF0F9B4EABD2294C3AFCBDF207504B0304140006080800B35C31406D27EA387F0000009D0000000B0000006662782F636E782E786D6C4DCCDF0E82201C86E15B61BF7332A0C036C0F927EFC3253A264223685D7EDA3CE8E8DB9E7D7B65F5
310
591D7A9BF8B2C12B20A73320E31F61B47E5690D3844B4095963184F47703E487D528D819B49C63C8CF8346330DD9A54D9DF5CB816D776F5A5113DC304AF085F01ADF4457E2BE67D79A53CA0565506859FC4ADBEE61FD05504B0304140006080800B35C3140EFE2A3382A01000014020000310000006662782F434445424337
310
41312D423332312D343136412D393744382D4646333541363232363732332F636F72652E786D6C8D51CB6EC32010FC15C4293D60F348701A61A23C9A2FE80F109BA42831583CAA7C7EA176A4F6960B8B66676647BB62FB18EEE05BFB609C6D21A93004DA76AE37F6DAC2142F680DC1560AEF5CFC4383C0AA41B7B0C0508AAB
310
77699CA1CED9A86DCCA875BD9E4115828E1074F7FC6961E8BEF4A02A956266845B35AAEEA6AEBA22556E679E1421FA1C004C43CA0BE5E1F8B13F343B82F68C12B4247C87DE9BE31A9D4E6CB5E394F28632514F42295232FD2C377D8E632E46FB574D8A588A688667FCCE6B15750F25C584224C10693E09D9B066C3D608F30D
310
C6A22EF47FA234F62F8A92B191D139EE240B5012514F0D297A97CEF76718FD189D8FA0CC5B04DDBD41892B4C315B314E453D51F302B2275FCE9E213A9F17BCB89D339BCDC67C29455D6E94CBEF01732DF7943F504B0304140006080800B35C31402F5AF6965501000033030000300000006662782F43444542433741312D42
310
3332312D343136412D393744382D4646333541363232363732332F636E782E786D6CBD93CD6EC32010845F0571F70F71E4581126520F7D821E7AC5B049686CB00057CDDB7749489A4B0E95AA5E90353BCCAC3E61BEFB9A46F2093E18677BCACA9A12B0CA69630F3D5DE2BEE828D909EE9D8B0F364AAC9CA0A749A6821FBC5B
310
E62C69D8CB658CA88EC69EB2E821B8C52B0828A79B64744A8E1800B65850846900AD4193BB11BFF6E07115148733894720AF2FEFC40D1FA062E0554A11BC4A1D82A733373D982851A30CA1A7411D6192A55CA2D3104EA5965196ACBC753DD9E92789A40BB7CAC51B92CA7B9A4E2AF2462572E4150E050FD123BD6C8AE719A8
310
90F33C1A252342AE2EC6AB47F0C5D8D8AEB3D720788FEE66D5761D865D668247334176280F3282A66255B35551B3826DDE18DB369B6DD31575BBAD6B5E25BBE0837363BE8431E0DD4C94B3116CA482F12A8D9FE1CB3EA28D47D6CE9F7F011201E4D62B9D7BC65FF2616DB35EFF239FEAF2BE1197C7BF407C03504B03041400
310
06080800B35C31401D8D76305A070000941B0000340000006662782F43444542433741312D423332312D343136412D393744382D4646333541363232363732332F6F626A656374732E786D6CED59DD73A33610FF5718FA6C6C6C721777089DC4B9DC78AEB9BBA97B9D3E64869141266A846024918BFBD777F501066212DCA6
310
6FF76003425AEDFEF6534BF8CB534E9D47CC0529D885EB7B33D7C12C2952C2B20BB792BBC9B9EBFC1285BC28646B9AEB3094E30B570DBB5198F1A22AED508A77A8A2B2377A73F5A72312CCB0EB24140971E18AE41EE7C843952C522C1EBC1449E465BB27CFF7CCC42ED98CA3F2BE47B4441C33099CC238032A8E61CAEF3ECE
310
DC69144ED5FB2854FF76D662D4AC6078D6544BDDE5923021114B9EB1D423B318C5D2C20FAE3FCCCF9693B320584C8277737F727573753DF1DF2F66AB77ABD5F2F2C312D8DB1605B532A5B8C42C05FDEDDDC80FA7EA4D23BA45E018D749C1184E3490009516AB4F9060015BB5E09B751F7D2551EBB596B0F51CA8F79685D6F0
310
A24B6568D638203A744110BB5D2D717D6DCB576CFF02C1C518A3E4024BE056480EDAB5F070F00A379A8553331A85DB832E887072243127883A946C39E2A01498AAA644A15960C928E7E040CA511268CD99D75DDB02CF7CDD758E71B9AB28559EE146DAB162703F2C85E68CFC8DF981FB3632C013485B1126CF2D97725F6237
310
5A86533D1885EAB298DB970648674751263422E66D4FD09572FDF5B51B7DBAD93E6D543838BE79C98B1273A98C4EE951F305866CAF0A25BBAD3F4A736A01086340B52B0FA0FC06C87F86E8716005F4C6C953F014D8B99223267605CF4137CECC99CCE06FE6F8FA5FDDB7EEC269B3B8ABBD213CC14D1554E7FF1DCFAE0C1A2B
310
CB7F0BCE287C04832FF8C2BEDA2488823DDF12060029237168014310DA77DB27375A43E084400FAB108D7C1019D87D84DB706AC91CB452BB97F53A0688DA3D16639404B0698B043606F4F411B20727C9414D6D1187E03D7B1373BDBCDE7CDA547C87127C6B7DFA1AEF082312B2E671863A9877247AC0FBEF054F41D0E7786F
310
DA78E7762B01682BCC15F0590D827A38ECDCD920817559A1C24DF8CA0E2084CAD52DFAB744249852C47051D5FB36D14D196AE3F1B66670A3B9817831EF9930C78F445515E03487191D4621EF279C940A4437FA68246B82A63720DDB7F567B0C866FEC0AC3583D0CB10FD5D07AD2338742CBB46DA02D108BC3D84F3A4A0058F
310
B7FBD8443A176A0960A3EB2D7F748842AC374A5254C083B4DFD5212533D2C629D9ED2A0171F5088B7FAC576D7398790BFFCC69FFF79C3180680BBE8BB8F5BBDE1E31C95186E31D4A87B66BEFD6D0169AE400698E7714E4228F44EE6324E3598AB353A03989F8F24DA967B41082302C205F1D05BF8DC6CC834062B459B3ACB4
310
DA039A8838C712D15310506406C0D56947D7B809940EAFF3D858EF4B1A6B13FD9F2C8223A8250B161328452187BCCAB8EF9D410CE9A26B50EEE10BD656D3D662D00A4A88641F7FC724BB97A7A06EC80FE09EC091A4927151A204CC7A04D967BEA294DAE37D8B9207953FE2A4A26F652002D35D4C28ADF2187E84C1C9638C6B
310
3781E945145AC44DEC933887A20CC98A8FD9E4DDD9ECD93EA666E887C0D6463B42216CC7392A0750EF04445D8F380DF896FA8052B7555EC6282F2A36CA50BC45DF9B2CF9BE5A15D991FCAA5211CAC69AB025188584C926ABD6311B4C5D075670231DA8F6B1407949CD29EC95C4E337DEA4290F6EC0AD9FBEED0639147E03DA
310
6B47D4A086C1F2D8290CC47724937B37DAE8EBE40AEAEF14A787545FD79AED0A10105391BCE2C4AAE8DB1ACA1B5BA3B9D12D92E2EEA3C9BAF5F5DBDA83EE4738853550BB340BD70AE81C3389546572AB6EE86F0842708786195FAB9C7A0A95CB34D55523A23764489D9D32A2B3694EBCF21EB322871FBB232CA1558AEF502A
310
1EE25B49E30D51AC5B29BD9CD418BF28E0978F9B1E3C303242A4AFAAC0C3DF7B6BEDE84A954B4789C8FB2ADF324420087644CB8C6EBC92655623B5969BAB3A5340DD050666551CFC3859B4DB113F4E1699358CFF74B2B8DAFF8AF6EDBE482B9D27CAAE4F3A0634F94951798B63806E3B34549B2C6292B995DF3A530C41B18E
310
F2A3ABB13A681882431CFFEBAC3D9405CD763DFE4FCBDAFEB38AE3A4ACD299ACBA54472AD7753B87BD0FCE6FAE977E30791F2CE79360B6F427CBD9F9BBC96A76199CCDCF2E2F830FEF1B34B5A3466113CC74EE826713D4EA61F5643180AEAC282849E1349F3A1986982FE14C3FA27DCE732C2079B69BDDA96DCA8F58FD68FA
310
9C126D29AE39B947D020A602D23A605425B23BEEFC04AD490907ED0B179A46DE03FC59AB741DC83C172EB40A2449B0F0B6D066520D3D4D1C52AECEFD9618E08358A652A259D43C37AB14369DF0DF4C199306AC5C9D1E06146E2574BF3A1D0ACD9BE5293949F09A1D0749B8DD5612AA3523CB61A011466F7350BF918D12F660
310
B77E02D77D592CDFD3733A888CFA64F0A21118AA138978A6FBDD8A31CBD2E5F5D729F4D99CF517A7A45506BA1C4F69C2311873A50A2AB022B00A4BB344124C75F5F3DD575EC0279EDCD155D1DDAAC8F382D9874B388FA5F089C8D9DCC3079FF40ECA06ACDAEAE26E3EF3E777BA9D6D3BECF11609ECA97A0806EA324289D033
310
36B0C867AD29DBB89C2A25F4A6AFAF1D1B3EA10D602CE85977D77CDE72C07BD48714E52BDAC36B395FEC684FF554B0060EBDE8E81F504B0304140006080000B35C3140000000000000000000000000350000006662782F43444542433741312D423332312D343136412D393744382D4646333541363232363732332F766572
310
74696365732E62696E504B0304140006080800B35C3140F270F1330600000004000000360000006662782F43444542433741312D423332312D343136412D393744382D4646333541363232363732332F747269616E676C65732E62696E636660600000504B0304140006080000B35C31400000000000000000000000003700
310
00006662782F43444542433741312D423332312D343136412D393744382D4646333541363232363732332F617474726962757465732E62696E504B0304140006080800B35C3140D5987DFC8F00000041010000360000006662782F43444542433741312D423332312D343136412D393744382D464633354136323236373233
310
2F6469726563746F72792E786D6C858F410EC2201045AF4266AF15DDB800BA74E7C21B903225242D6328188F2FA5C4183471359997F9FF81E89FF3C41E1816475E02DF1F80A11FC8386F25A438EECEC07A250251FC3803E6F58C12560C4AD840E95E91C151A72936F496F35732D860FE635F62C8F2DA16B505C545B74125BA
310
A2FA9E05D7CC053D063734D5C7665FD55B6B8D15D5E9BFEAFD8490FFA45E504B0304140006080800B35C31405DC7E9C4FC000000A00100003B0000006662782F43444542433741312D423332312D343136412D393744382D4646333541363232363732332F7265736F75726365732F636F72652E786D6C8D504B6E833010BD
310
0A9ABDC1868650641C91869EA017B0CC84580936F2A7EAF16B0295DA5D371ECFFB689E1E3F7DCD8FEC139DD7D674C0720A191A65476DA60E62B89206B293E0CEDAF04B0699913376B0C220F8E46C5C76485913D084841A3BE20E4AEF3140A61EE9D38157379C652E63480A7FCF17A9EE72C29CE5894E3AC17D702940B61D59
310
5F100EBD8D4EA1E7C5C60A1EA31E778D1ED34D7DD5E840D4EC321C9AF33BE9876A202F6F7D455E87734FFABA4F4B59D34373E1C56A163CE8F927A37228038E204ACA4A421961C70FC6DAEAD8560DA1754B292F56F91F535CC67F9AA236A12AF7B89BCD836029C89310BC58FB4AE359669A6BB7E21B504B010214000A000008
310
0000B35C31403DEE336E79000000790000001B00000000000000000000000000000000006175746F6465736B2D64657369676E2D7061636B6167652E786D6C504B01021400140006080800B35C3140D486FD9CA0000000F40000001300000000000000000000000000B20000005B436F6E74656E745F54797065735D2E786D
310
6C504B01021400140006080800B35C3140D92A3763E90000007C010000080000000000000000000000000083010000636F72652E786D6C504B01021400140006080800B35C314055019EA25F0000007C000000070000000000000000000000000092020000636E782E786D6C504B01021400140006080800B35C3140BE98D8
310
B865010000020300000C00000000000000000000000000160300006662782F636F72652E786D6C504B01021400140006080800B35C31406D27EA387F0000009D0000000B00000000000000000000000000A50400006662782F636E782E786D6C504B01021400140006080800B35C3140EFE2A3382A01000014020000310000
310
00000000000000000000004D0500006662782F43444542433741312D423332312D343136412D393744382D4646333541363232363732332F636F72652E786D6C504B01021400140006080800B35C31402F5AF69655010000330300003000000000000000000000000000C60600006662782F43444542433741312D42333231
310
2D343136412D393744382D4646333541363232363732332F636E782E786D6C504B01021400140006080800B35C31401D8D76305A070000941B00003400000000000000000000000000690800006662782F43444542433741312D423332312D343136412D393744382D4646333541363232363732332F6F626A656374732E78
310
6D6C504B01021400140006080000B35C31400000000000000000000000003500000000000000000000000000151000006662782F43444542433741312D423332312D343136412D393744382D4646333541363232363732332F76657274696365732E62696E504B01021400140006080800B35C3140F270F133060000000400
310
00003600000000000000000000000000681000006662782F43444542433741312D423332312D343136412D393744382D4646333541363232363732332F747269616E676C65732E62696E504B01021400140006080000B35C31400000000000000000000000003700000000000000000000000000C21000006662782F434445
310
42433741312D423332312D343136412D393744382D4646333541363232363732332F617474726962757465732E62696E504B01021400140006080800B35C3140D5987DFC8F000000410100003600000000000000000000000000171100006662782F43444542433741312D423332312D343136412D393744382D4646333541
310
363232363732332F6469726563746F72792E786D6C504B01021400140006080800B35C31405DC7E9C4FC000000A00100003B00000000000000000000000000FA1100006662782F43444542433741312D423332312D343136412D393744382D4646333541363232363732332F7265736F75726365732F636F72652E786D6C50
310
4B0506000000000E000E00800400004F1300000000
  0
XRECORD
  5
17
102
{ACAD_REACTORS
330
12
102
}
330
12
100
AcDbXrecord
280
     1
270
     1
271
     1
  0
XRECORD
  5
16
102
{ACAD_REACTORS
330
12
102
}
330
12
100
AcDbXrecord
280
     1
270
     1
271
     1
  0
XRECORD
  5
18
102
{ACAD_REACTORS
330
12
102
}
330
12
100
AcDbXrecord
280
     1
270
     1
271
     1
  0
XRECORD
  5
15
102
{ACAD_REACTORS
330
12
102
}
330
12
100
AcDbXrecord
280
     1
270
     1
271
     1
  0
XRECORD
  5
CF1
102
{ACAD_REACTORS
330
22
102
}
330
22
100
AcDbXrecord
280
     1
102
MATERIAL
148
0.0
149
0.0
149
0.0
 93
        0
 94
      127
282
     0
 72
     0
 77
     0
171
     0
175
     0
179
     0
273
     0
  0
XRECORD
  5
24
102
{ACAD_REACTORS
330
22
102
}
330
22
100
AcDbXrecord
280
     1
270
     1
271
     1
  0
XRECORD
  5
23
102
{ACAD_REACTORS
330
22
102
}
330
22
100
AcDbXrecord
280
     1
270
     1
271
     1
  0
XRECORD
  5
11B
102
{ACAD_REACTORS
330
22
102
}
330
22
100
AcDbXrecord
280
     1
 70
     1
 90
1959938040
 71
     1
  1
9EAD7ADC-D686-4F50-8D4C-1898F7BBD08A
311
504B03040A0000080000B25C31403DEE336E79000000790000001B0000006175746F6465736B2D64657369676E2D7061636B6167652E786D6C3C3F786D6C2076657273696F6E3D22312E302220656E636F64696E673D227574662D3822203F3E3C666F726D6174733E3C666F726D61743E687474703A2F2F736368656D612E
311
6175746F6465736B2E636F6D2F64657369676E2D7061636B6167652F323030393C2F666F726D61743E3C2F666F726D6174733E504B0304140006080800B25C3140D486FD9CA0000000F4000000130000005B436F6E74656E745F54797065735D2E786D6C7D8EC10E82300C865F65E91D8A1E8C310C0EEA1BF002731658846E
311
D98AC1B77784ABF1D8FE5FBFBF75BBCE937A534CCEB38643598122B6FEE978D0B0485F9C41B54DDD7D022595594E1A469170414C76A4D9A4D207E29CF43ECE46F218070CC6BECC4078ACAA135ACF422C856C0E68EA1BF5669944DDD7BCDE7B1F8E415D77AECB980613C2E4AC91FC167A2B244592486606FC29C8FD7F045B9A
311
EF7053A7E60B504B0304140006080800B25C31404952DE44EA0000007C01000008000000636F72652E786D6C8D905D6EC3201084AF82F61D1BFC13DB11264AECDEA01740405C94182C03558E5F9C3852FB56096957C37CBBAB61A7C77C47DF7AF5C6D91E684600692B9D3276EA21862B6E019D385B9D0BBF6C80AC98750F9B
311
0C9C4DAB8BCB2E496783B621A9D629BD8BC27B1D00C97B6A7AF0F24BCF2213312487BF658B903731E98CBEBB04C768147A2D312ACD3357A357E0A4A4C3D09D1B5CD74587ABB16AF1997C147818BBB122F470A9C796E51BCC5930F37BBF5CB5085A012F082D30A198369F941ECB263D4C0E474258BED9FF407151FF84A2B1A1
311
2CF6735F98074ED321CF0FCEF22D8B549E41A5BAE5C67F00504B0304140006080800B25C314055019EA25F0000007C00000007000000636E782E786D6C4DCB3B0E80201045D1AD90E915ED2CF8AC45050C11660C8261F98AB1B07AC9C97D42D718D865D3E909258CFD00CCE24AC6E326A164D74DC0B4128928FF326038472B
311
A13128B1252AC747C6BAB984FC68F0B87FE8960A5C09FE86CFB69FBA01504B0304140006080800B25C3140A73E352164010000020300000C0000006662782F636F72652E786D6C8D52ED8E8320107C15C27F04ACFD0CD2F4EABDC1BD0055EA992A1804D3C7BFF5A3F17A699A8B46C9CCCEEEECA838DE9B1AF5DA75953529E6
311
11C3489BDC169529531CFC95EC303A4AE1ACF5BFCA3032AAD1291E602C45E96C686728B7C66BE30135B6D033A8BA4E7B8CF21A0E29EEF26FDDA848050F15DD2D6A557E53A58E780434D449D1790706D03464786279BDDC059D702942A88A99AD0A98565D2BEDB0642B7E3EEF4F5BB25EC77B9264C98E9CD8674CCED93E4B18
311
DF7CACB39DA083580A5F350F77B9D3CAEB02CB98F198304EF8F68BF3C36A0B37619B0363820EE54FA2D016FF1485CAF8553CDB9D641D961C8C8CC49F6D21228F3AD5831F2A051D4284D798F073D0100884ECD5A57EEC7103A8D7B9B72E01A6B061A17A55070D53191A2F4127163A8F0D60B3977DE2377DDEF7800FA84C09D6
311
9487E325F861BA98A6CE51B4DA91DEDF91B1AE51F5626EB2B83C97412FE5B9ADADFB8F9ACEABD2394C3AFCBDF207504B0304140006080800B25C3140FBEFAE377C0000009D0000000B0000006662782F636E782E786D6C4DCCD10A83201805E05791FFDE6565EA408DF2496259C84AC3E9D8E3CF4617BB3AF09DC391FD67DF
311
D0DBC6970B5E417D2380AC7F84D9F955414E0B16807A2D6308E96F06C84FBB55703268B9C6908F8B66BB4C794B4537E79F179AAEA5BC2504D37BC730E583C1828D23E6B4A9991143291BA8B4AC7E4F25CF63FD05504B0304140006080800B25C314044559B9C2701000013020000310000006662782F43353334373330302D
311
343935362D343741432D383642422D3734323136433841343733322F636F72652E786D6C8D515B6EC32010BC0AE22BFDC006DBB19D081325B9422F4030495162B07854397E97DA91DABF4808D0ECCCECC0F2C3737AA06FED837176C0ACA01869ABDC68EC6DC0295E498FD14170EF5CFC43C3C8CA490F38C358F09B77695E21
311
E56CD436026ADDA8575086A02346EA01970107F5A52759C8148111EEC52CD55DDE74C10A28034FF0103D04404B93BC6371DED64D57534A9ADDB6254D773C93BE3D9D48D754AC3DF7472856BC5C8482A764C6556E468863AE46FB774DB258F068A6577CE5B58C7AC4A2A2AC229411D67D32B6AF3B5884B67B4A7999E9FF4469
311
1EDF142563635DAD711759C082F17229083EBA7479BCC2E8E7EC7C44B9DF2668F581052D6845E9AEEF78B930E1FD60D936AB6588CEC3FF6EEE1720B3EDE2DB368297794470FCCE0FCE3C4EF103504B0304140006080800B25C3140853416344C01000033030000300000006662782F43353334373330302D343935362D3437
311
41432D383642422D3734323136433841343733322F636E782E786D6CD593CD6EC23010845FC5F23D3F060415728CD4439FA0875E1D7B0117C78EFC5395B7EF1A0CE5C2A1C74A9115CD8E67569F12BEFB9E2CF982108D7703656D4F0938E5B5718781E6B46F5E28D9091EBC4F0F364A9C9C60A045A6821F82CF739534EC65B6
311
09556BDCA98A01A2CF414144B9DC24D62B6931005C9351846904AD4193BB11DFF610701514C7334947206FAF1FC48F9FA052E45D4911BC2B1D8297B3363D98285156C638D0A88E30C956E6E435C453AB65922D6B6F5D4F76FA4D22E5C2AD3207434AF940CB4945DDA8458EBCC3A1E03105A4574DE93C0315729EAD513221E4
311
EE62BC7A04CFC6A5F5AA7A0D820FE866EBE56A85619799E0C94C501D2A804CA0A958F46CD1F4AC619B77C6B6CB0D3E4DBFDEF63DEF8A5DF0D17B5B2F610C043F13E55D0297A860BC2BE367F8AA8F681390B50FE73F804400B5F54AE79EF19FF97497EF1B7105FC0BC40F504B0304140006080800B25C31405FB3F4429A0500
311
007A100000340000006662782F43353334373330302D343935362D343741432D383642422D3734323136433841343733322F6F626A656374732E786D6CAD575D6FA33814FD2B887DCE0749DA495794519AB4A368D4996AA219ED43A5C880A1DE1A8C6CD349F7D7EF31980099A4CDAEE62504737D7DEFB9E77ED8FFB8CBB8F3
311
42A56222BF76BDE1D875681E8998E5E9B55BEA6430779D8F812F85D01D31D7C94946AF5DB3EC067E2A4559D8A59826A4E4FA60F5EEE62F474534A7AE1371A2D4B5ABA2279A912129B588A97A1EC64493619AEC86DEB016ECAB4D25299E0E941644D25CC352ACE7D0E2D44679FDD7B13B0AFC91F91EF8E6D74A4D4F4B8D2A7F
311
FAE7B35C699247BF1C76A066EACD56B7938BABC1C56C361DCC2E27DEE0E6EE6635F03E4CC7CBCBE5F26A717B85839596D0642D913471834FC046B2C81FD59F02BF64B99E4EAC880DD048D2176622E50613C7F347B5CCDE3BEBE431F32391E734AAB0021A957F56754C0B9AC78839A30A9675101AF75F3D8363E7F3D4BCDB23
311
BBCBE721D0DDD151D4D8DE3CBB968AF06FB8A0CE619054D430B0C6D23A5A7375DC221C0AC1ED37A69C8C682A19E10E67A124F2D50D206A4402BFA7C630599A6C301EB801A2507FEED30569F43ECF8F5999949C1B1ABB4195055BE40AD5AAB28CFD43656B7D1719D884581936CCAD43FAB5A06E705553647EC0A61A4827E124
311
45C8E1A6D9399D1C38BA3479BA5EB9C1E7BB70B731B97BFCF0428A824A6DE8036A35816B9E06256B937756E4CC06F7C09416946F40FE0B52BD350571936C37DBCDEC295A925C254266888D33760663FC8C1DAFFA35FF3BFFFCD17E733F7AA7F044B00D54BF01CFBE0FDD5876E00CFC17105EC8A9756D13118EB271CF720064
311
48E2708125D4E124DCB9C11A550E5519BB080F3CB80C735FF0D71F59352814D5499D670E2C0FCAE219051AB0558C841935F9AD816D9C7E2967D5C156EC14BC17BF85AE8BD5E6F3A6940989E8BDCDE9154D58CE345A5CCB9BAE413DCC7B1E3DD3D79F42C670F457BC375DBC337B9402DA0673037CDAD474F3D29EDC3B20C2BE
311
549872E3BF73029C308DB5A3FF9EA988724E722ACAE6DC37FB07DA460DB14976C3E47D83691B0B48537F39C84134E948B2C280B8EF56FBA2393CE1DDF7F5173012F25C8484B742615B7A23C185DC86AFDBBA2A1D45FA479FDA168291D102B65739D2A4BFC57C1BB32429156AE011587FAC97DDD099AA800AD168AD936506F7
311
915B445ACE367AD1AC25412315F996A16D22ED8E1ED0D50F442D012A85A72C5694275BC679996D13C6D18CB619294EC0F1FFED0FCBACD8924C94B93EA1BB673A9A43DFF61E79D54FA2A32737D854CFC10D4A6F4CE336CC3D61D34A8E60D50BEDD5ED62F561B15A0E5697F3CBC1ECEE623C98AF66CB8137BF9ADF7DB8B9598D
311
E78B264EB5F2C06F3A4D37A111257436BF94CC86EFFB1AE9636B801BDC13AD1E3FD5D9D93CBFAF871885FD11F6A05DEE372EE2178C7D347E5F412B7954D13A2B38CD68AE8949A17BF3877F2318337AC6D4EBEB8CA4F40C2D5F3F6D0E9CC1CA19FB1E4CBAD39F077BEDEAD224E45125FAA9CCC29C307EB031AD911C16796AF1
311
6B62B27FD67DA679356F3630184C95E02C46198C9D948A8C6A14C3337A90CCA802F5BA237D6CAF1E67EC7EA907444D424E1B4B9E086664AE9016A05619E9FEBAF307663A33565DBBE8B6C367FCD84AE13AE0CCB58B195DB388AA6188FE6C26A14A39B8D41DE431F7933CE518B5EB4DFBF7FD2E834DAF23EF45CE199FAC5F75
311
05B70EA08C14181B300F213A9531815FD966BF47FFC9F1C61C8768FC0D4BBDF7A55DD83B531D8314AD9DB29705CC30CFF6E81D12F56DB7BC6125D343E4AC4BD69B24A8B50E349169755130F6599316AB8711061467FDD52978992296E76B1A480A329726C1C122B0C2EA2C880655977F3E3E48818B6CE6DC3150E07129B24C
311
E4F665612FC2CEE609D7DAF81165819AFB887A9C8CBDC963750FB057936D48141D92583D630131956C0F712FF060647D59F42064036F6330324138E0E67AE5D896366BE5BB55D5C0828923A70EB2C7DC254DAE74058A37AF02A34A14A64A0CF1C1BF504B0304140006080000B25C3140000000000000000000000000350000
311
006662782F43353334373330302D343935362D343741432D383642422D3734323136433841343733322F76657274696365732E62696E504B0304140006080800B25C3140F270F1330600000004000000360000006662782F43353334373330302D343935362D343741432D383642422D3734323136433841343733322F7472
311
69616E676C65732E62696E636660600000504B0304140006080000B25C3140000000000000000000000000370000006662782F43353334373330302D343935362D343741432D383642422D3734323136433841343733322F617474726962757465732E62696E504B0304140006080800B25C3140D5987DFC8F000000410100
311
00360000006662782F43353334373330302D343935362D343741432D383642422D3734323136433841343733322F6469726563746F72792E786D6C858F410EC2201045AF4266AF15DDB800BA74E7C21B903225242D6328188F2FA5C4183471359997F9FF81E89FF3C41E1816475E02DF1F80A11FC8386F25A438EECEC07A25
311
0251FC3803E6F58C12560C4AD840E95E91C151A72936F496F35732D860FE635F62C8F2DA16B505C545B74125BAA2FA9E05D7CC053D063734D5C7665FD55B6B8D15D5E9BFEAFD8490FFA45E504B0304140006080800B25C31405AF9F0DCFC000000A00100003B0000006662782F43353334373330302D343935362D34374143
311
2D383642422D3734323136433841343733322F7265736F75726365732F636F72652E786D6C8D505B6E833010BC0ADA7F830D2181C8384AA137E8052CB32156821DF951F5F8B5132AB57F952CEF6A1EDAD1F0D3D77A2F3ED1796DCD00ACA450A05176D6661920860BE9A03809EEAC0DBF645018B9E2001906C11767E3638394
311
35014D48A8B1336EA0F41E0314EA9E9601BCBAE22A4B194352F85BF990EA26172C5999E8A413DC07970214AF23F907E1D0DBE8147A5EBD58C163D4F3A6D173BAA92F1A1D08DAB071ECCF7BD2B6754F76D3AE2367FA5E9371EAA71D65FBB776EA7895CD8207BDFE64540E65C019444D594D2823ECF0C1D8B139A447E8FE4829
311
AFB2FC8F293EE67F9AA236A1A9B7B82F9B07C1529027217895FB4AE359669AB95BF10D504B010214000A0000080000B25C31403DEE336E79000000790000001B00000000000000000000000000000000006175746F6465736B2D64657369676E2D7061636B6167652E786D6C504B01021400140006080800B25C3140D486FD
311
9CA0000000F40000001300000000000000000000000000B20000005B436F6E74656E745F54797065735D2E786D6C504B01021400140006080800B25C31404952DE44EA0000007C010000080000000000000000000000000083010000636F72652E786D6C504B01021400140006080800B25C314055019EA25F0000007C0000
311
00070000000000000000000000000093020000636E782E786D6C504B01021400140006080800B25C3140A73E352164010000020300000C00000000000000000000000000170300006662782F636F72652E786D6C504B01021400140006080800B25C3140FBEFAE377C0000009D0000000B00000000000000000000000000A5
311
0400006662782F636E782E786D6C504B01021400140006080800B25C314044559B9C270100001302000031000000000000000000000000004A0500006662782F43353334373330302D343935362D343741432D383642422D3734323136433841343733322F636F72652E786D6C504B01021400140006080800B25C31408534
311
16344C010000330300003000000000000000000000000000C00600006662782F43353334373330302D343935362D343741432D383642422D3734323136433841343733322F636E782E786D6C504B01021400140006080800B25C31405FB3F4429A0500007A10000034000000000000000000000000005A0800006662782F43
311
353334373330302D343935362D343741432D383642422D3734323136433841343733322F6F626A656374732E786D6C504B01021400140006080000B25C31400000000000000000000000003500000000000000000000000000460E00006662782F43353334373330302D343935362D343741432D383642422D373432313643
311
3841343733322F76657274696365732E62696E504B01021400140006080800B25C3140F270F13306000000040000003600000000000000000000000000990E00006662782F43353334373330302D343935362D343741432D383642422D3734323136433841343733322F747269616E676C65732E62696E504B010214001400
311
06080000B25C31400000000000000000000000003700000000000000000000000000F30E00006662782F43353334373330302D343935362D343741432D383642422D3734323136433841343733322F617474726962757465732E62696E504B01021400140006080800B25C3140D5987DFC8F00000041010000360000000000
311
0000000000000000480F00006662782F43353334373330302D343935362D343741432D383642422D3734323136433841343733322F6469726563746F72792E786D6C504B01021400140006080800B25C31405AF9F0DCFC000000A00100003B000000000000000000000000002B1000006662782F43353334373330302D3439
311
35362D343741432D383642422D3734323136433841343733322F7265736F75726365732F636F72652E786D6C504B0506000000000E000E0080040000801100000000
310
504B03040A0000080000B25C31403DEE336E79000000790000001B0000006175746F6465736B2D64657369676E2D7061636B6167652E786D6C3C3F786D6C2076657273696F6E3D22312E302220656E636F64696E673D227574662D3822203F3E3C666F726D6174733E3C666F726D61743E687474703A2F2F736368656D612E
310
6175746F6465736B2E636F6D2F64657369676E2D7061636B6167652F323030393C2F666F726D61743E3C2F666F726D6174733E504B0304140006080800B25C3140D486FD9CA0000000F4000000130000005B436F6E74656E745F54797065735D2E786D6C7D8EC10E82300C865F65E91D8A1E8C310C0EEA1BF002731658846E
310
D98AC1B77784ABF1D8FE5FBFBF75BBCE937A534CCEB38643598122B6FEE978D0B0485F9C41B54DDD7D022595594E1A469170414C76A4D9A4D207E29CF43ECE46F218070CC6BECC4078ACAA135ACF422C856C0E68EA1BF5669944DDD7BCDE7B1F8E415D77AECB980613C2E4AC91FC167A2B244592486606FC29C8FD7F045B9A
310
EF7053A7E60B504B0304140006080800B25C3140038633ECEA0000007C01000008000000636F72652E786D6C8D90DD8AC32010855F45E6DE4463D9B4C558922679827D01519B4A1B0D51977DFC35FD81DDBB056186E3F96686C34FDFF31D7D993558EF1AA00501649CF2DABAA981142F780FE824F8EA7DFC6503E4E46C1AD8
310
64107C5A7D5A5E92F22E1A17B3EABC362F518660222075CF4D03415DCD2C0B996276845BB14875939329E8BBCB704A56A3E712ABF33C7BB16605C186FD48DBA1C3873369F18E1DCEB81B770CF77DDFD6AC1EE8D8F5BCDC60C1A39DDFFBD56A64341A4445688509C5B4FEA4F4C8EAFC30F93812C2CBCDFE074A8BFE2794AC8B
310
AC7A9DFBC402089A0F797C085E6E59E4F2082AD72D37F103504B0304140006080800B25C314055019EA25F0000007C00000007000000636E782E786D6C4DCB3B0E80201045D1AD90E915ED2CF8AC45050C11660C8261F98AB1B07AC9C97D42D718D865D3E909258CFD00CCE24AC6E326A164D74DC0B4128928FF326038472B
310
A13128B1252AC747C6BAB984FC68F0B87FE8960A5C09FE86CFB69FBA01504B0304140006080800B25C3140B3D2AF1565010000020300000C0000006662782F636F72652E786D6C8D52ED8E8230107C95A6FF4B2998434DA951D127B817A8503922B4A4B4C4C7BFE5C3705E8C3110686676766707F8EEDED4A857B6AB8C4E31
310
0B428C94CE4D51E932C5DE5DC91AA39DE0D618F7A70C232D1B95E201C68297D6F8768672A39DD20E506D0A3583B2EB94C328AFE190E22EFF518D0CA47750D1DD8256E63759AA800540439DE09DB360004D43862716D7CB9DD30917DCFBAA98D9AA8069D5B552168BF8B43EB3FDE94036C7704F56F1E6480EE7554CB22CDB27
310
717262E743C6E92016DC55CDC35D6E9574AAC0220A5944424658F2CDD8364EE026E1D7360C391DCA9F44BE2D3E14F94ABB389AED4EB20E0B064646E2DFB61091439DECC10F159C0E21C26B4CF8396808044276F2523FF6B801D4ABDC19BB02A6307EA17A597B055343345E9C4E2C741E1BC0662FFB446FFABCEF011F50EA12
310
AC4907C78B77C3743E4D9DA3689525BDBB236D6C23EBC5DC6471792E835ECA73531BFB899ACEABD2394C3AFCBDE217504B0304140006080800B25C314066B443317E0000009D0000000B0000006662782F636E782E786D6C4DCCD10AC2201805E05791FFDE36372B0375D858EF319A1B92F30FD3E8F173B18B6ECE818FC391
310
DD67F5E46DE3CB6150C00E35101BEE38B9B028C869A60248A765444C7F3320615CAD828D41CB25627EEE34D979CC3E15F52E3C7634E6763262E0B4694A7036187AE182D1FA783DB7BC67A2353D545A56BFA7D2DBB1FE02504B0304140006080800B25C31408E8711E52A01000014020000310000006662782F414146364138
310
45342D323245342D343145412D393438312D3035423733344331383341432F636F72652E786D6C8D515B6EC32010BC0AE22BFDB00D36719C0813B9517A825E8018E2A2C460F1A872FCAE6B476AFF22A15DB43B333BDAE5C7C77847DFDA07E36C8B694E30D2B677CAD8A1C5295EB306A3A3E0DEB9F807869195A36EF15CC682
310
0FDEA5692DF5CE466D2354AD537A2DCA1074C4A8BFC3A7C5A1FFD2A3CC658A8008B77C92FD4D0E3AA739B4012778881E0CA065C81CB1E8BA8FBA6BCE2C2B4B088C9EBB6CCF1A9A91EDFBAE6227DA54DD89170B51F0948C5AE946811D7335DABF2A3293058F667CDAEFBD96512B2C4A42CB8CD08CEE3E293D543B7819A90F84
310
F06286FF23A549BD484AC6C6AA5CED2EB48005E5C5D2105CB974B93FCDE8C7E47C44F3BC4DD0FD1B16242725A3DB9AED79B1406101A059B3553344E761C19BDB05D0D52A5C33C18BF946907E0F0879BEA7F801504B0304140006080800B25C3140E393D9235401000033030000300000006662782F41414636413845342D32
310
3245342D343145412D393438312D3035423733344331383341432F636E782E786D6CBD93CD6EC32010845F0571F70F49E4441126520F7D821E7AC5B04968305880ABE6EDBB2424CD25874A55250B59B3C3CCEA93CD775FA3259F10A2F1AEA7AC6E2901A7BC36EED0D339EDAB0D253BC183F7E9C146899323F434CB54F043F0
310
F354240D7B39DB84AA35EE54C400D1CF41414439DF24D62B6931005C35A308E3005A83267723BEED21E02A280E67928E405E5FDE891F3E40A5C89B9C2278933B04CF67697A3051A2AC8CB1A7511D6194B59C93D7104FB59649D6ACBE753DD9E92789E40BB7CA391892CB7B9A4F2ACA463572E40D0E058F2920BD624AE709A8
310
90D3648D9209213717E3D523F86C5CEA56C56B107C40F772D16D36187699099ECC08C5A102C8049A8A45CB1655CB2AB67E636CBB5CE353B5DDB66D7993ED820FDEDB72096320F88928EF12B84405E34D1E3FC3577C449B80AC7D38FF02240228AD573AF78CBFE4C3BAE56AF58F7C9ACBF78DB802FE05E21B504B0304140006
310
080800B25C31403A5B8DE159070000931B0000340000006662782F41414636413845342D323245342D343145412D393438312D3035423733344331383341432F6F626A656374732E786D6CED595B6FA33814FE2B887D0E094DDA695794519A4CAB68D599D16467B40F9190030EF5D618649B5EF6D7EFF1050234B464A7FB36
310
0F0960ECE373BE73F521F8F89451E70173417276E9FADEC475308BF384B0F4D22DE56E74EE3A1FC380E7B96C4C731D86327CE9AA61370C529E97851D4AF00E95547646AFAFFE72448C19769D9822212E5D11DFE10C79A8947982C5BD972089BC74F7E4F99E99D8269B7254DC7588168863268153186740C5314CF9EDC7893B
310
0E83B17A1F06EADFCE9A0E9A35EB9F35D652B7B9244C48C4E2172C75C84C07B134F567CB4F27A717A3D3D96C3A9A9D9DF8A3ABEBABE5C8FF309D2CCE168B8BF9A70B606F9BE7D4CA94E002B304F4F7EC867E30566F6AD12D0287B88E73C670AC8104A8B4585D82040BD8AA01DFA4FDE82B891AAFB5848DE7997A6F59680C4F
310
DB54FA660D03A2451704B1DB551257D7A67CF9F66F105C0C314A2EB0046E85E4A05D0B0F07AF70C3493036A361B0DDEB82082743127382A843C996230E4A81A96A4A189805968C720E0EA41C2581D69C79DDB62DF0CCB75DE71097BB9252E5196EA81D2B02F7C35268CEC83F98EFB96F22033C81B42561F2DC72299F0BEC86
310
17C1580F8681BA4C4FEC4B03A4B3A328151A11F3B623E842B9FE6AE9867F5C6F9FD62A1C1CDEBCE07981B95446A7F4A8F90243B6578592DDD61FA439B5008431A0DA957B50BE01F29F217AEC5901BD71F2347B9AD9B99223267639CF4037CEC4194DE06FE2F8FA5FDD37EE8271BDB8ADBD3E3CC14D1554E73F8F675B068D95
310
E5BF0167183C80C1E77C6A5FAD6344C19E6F09038094913834872108EDBBED931BAE207042A0875588863E880CEC3EC06D30B664F65AA9DCCB7A1D0344ED1ED3214A02D8B445021B3D7ABA81ECC149BC575353C43E784FDFC55CE7CBF51FEB92EF508C6FAD4F2FF18E3022216B1E66A885794BA27BFCFC98F304047D89F7BA
310
897766B71280B6C25C019F5620A887FDCEAD0D625897E62ADC046FEC0042A85CDDA07F4B448C29450CE765B56F1DDD94A1D61E6F6B06373C31104F4F3A26CCF10351550538CD7E468B51C8FB31278502D10D6F8C6475D0F47AA4FBBEFA0C1659CFEF99B562107A19A27FEAA0750087966557485B206A81B7FB701EE734E7D1
310
F6393291CE855A02D8687BCB8F165188F546498A0A7890F6BB2AA4A446DA2821BB5D2920AE1E60F1C76AD134878937F54F9DE67FC71967106DC17711B77ED7D92322194A71B44349DF76CDDD6ADA4293EC21CDF18E825CE481C8E708C96892E0F418688E227EF1AED4539A0B41181690AF0E82DF4463E2412031DAAC58565A
310
ED004D44946189E8310828323DE0EAB4A36BDC184A87B779ACADF7358D3589FE4F16C111D492398B0894A29043DE64DCF74E2186B4D1352877F0056BAB686B3168092544FC1C3D6292DEC9635037E47B708FE14852CA282F500C663D80EC0B5F514AEDF0BE45F1BDCA1F515CD2F7321081E92E22949659043FC2E0E431C4B5
310
EBC0F42A0A0DE226F6499C41518664C9876C72763A79B18FA919BA21B0B1D18E5008DB51868A1ED45B0151D7234E0DBEA5DEA3D46D991511CAF2920D32146FDAF5264BBEAB56457620BFAA5484B2B1226C09860161B2CEAA55CC0653D78115DC4807AAE748A0ACA0E614F646E2F16B6FD2947B37E0D64FDF77830C0ABF1EED
310
3523EAAC82C1F2D82A0CC42392F19D1BAEF5757405F57782937DAAAF6ACD66050888A9485E726255F47D05E58DADD1DCF01649B1B93159B7BA7E5F79D0FD08C6B0066A977AE14A019D612691AA4C6ED50DFD862004B76898F195CAA9C750992789AE1A11BD267DEA6C9511AD4D33E2157798E519FCD886B0989609DEA044DC
310
47B792466BA258B7527A19A9307E55C02F37EB0E3C303240A4AFAAC0C38F9DB57674A1CAA58344E45D996D192210045BA2A546375EC152AB914ACBF5559D29A0EE0203B32A9EFD3A5934DB11BF4E16A9358C9F3B59D07C8BE83EDA34B279ACCCFAA853409D9E1495F73805E8AE434DB54E2226975BF1AD2F451013AB203FB8
310
18AB628621D8C7F17F4EDA7D49D06CD7E1FFB8A4EDBF28388E4A2AADC9AA4975A0705D3553D8C5A7F9F2C37CB9182DCFCECF46B3EBD3C9E87C395B8CFCF38BF3EB0F5757CBC9F9BC4653FB6918D4B14CA72E783631AD1A564F160368CA8A9C92040EF389936208F9128EF403BAE73CC3027267B3D79DD89EFC80D50FA6CD29
310
D196E28A933B04FD612A20AB0346652CDBE3CE6FD0999470CEBE74A167E4DDC39FB54AD781C473E942A74092180B6F0B5D26D5CFD3C421E3EAD46F89013E88A52A239A45F573BD4A61D38AFEF5942159C0CAD56A6140DD5640F3ABD5A0D0BC599EE2A304AFD8719084DB6D29A15833B2EC076A61F4367BF51BD92861F776EB
310
2770DDD7C5F23D3DA785C8A02F06AF1A81A13A9288A7BADDAD18B32CCD975FC7D06673565F9C829629E87238A511C760CCA5AAA7C08AC02A2CCD024930D5C5EF9BAF3C872F3C99A38BA2CD22CFB29CD987391CC712F842E4ACEFE07B4FB281AA01ABAEBAD89C4CFC938DEE66DB067BB445027BAA1C8281AA8A5022748C0D2C
310
F24567CAF62DC74A099DE9ABA563C32774018C05BD68EE9AAF5B0E788FFA8EA27C457B7825E7AB0DEDB19E0AD6C0A1151DFE0B504B0304140006080000B25C3140000000000000000000000000350000006662782F41414636413845342D323245342D343145412D393438312D3035423733344331383341432F7665727469
310
6365732E62696E504B0304140006080800B25C3140F270F1330600000004000000360000006662782F41414636413845342D323245342D343145412D393438312D3035423733344331383341432F747269616E676C65732E62696E636660600000504B0304140006080000B25C314000000000000000000000000037000000
310
6662782F41414636413845342D323245342D343145412D393438312D3035423733344331383341432F617474726962757465732E62696E504B0304140006080800B25C3140D5987DFC8F00000041010000360000006662782F41414636413845342D323245342D343145412D393438312D3035423733344331383341432F64
310
69726563746F72792E786D6C858F410EC2201045AF4266AF15DDB800BA74E7C21B903225242D6328188F2FA5C4183471359997F9FF81E89FF3C41E1816475E02DF1F80A11FC8386F25A438EECEC07A250251FC3803E6F58C12560C4AD840E95E91C151A72936F496F35732D860FE635F62C8F2DA16B505C545B74125BAA2FA
310
9E05D7CC053D063734D5C7665FD55B6B8D15D5E9BFEAFD8490FFA45E504B0304140006080800B25C31406B6C6EDDFC000000A00100003B0000006662782F41414636413845342D323245342D343145412D393438312D3035423733344331383341432F7265736F75726365732F636F72652E786D6C8D505B6E833010BC0ADA
310
7F830D514922E3880438412F60990DB5126CE447D5E3D7042AB57F952CEF6A1EDAD1F0CBD7FCCC3ED1796D4D032CA790A15176D4666A20863B39427611DC591B7EC9203372C6065618049F9C8DCB0E296B029A90506347DC41E93D06C8D4332D0D78F581B3CC650C49E11FF922D5434E98B33CD14927B80F2E05C8B623EB0F
310
C2A1B7D129F4BCD858C163D4E3AED163BAA9EF1A1D88AA3F0EACED5B72BAD1961CAAD38D5C874345BAAE6BEBAAEED970ED78B19A050F7AFEC9A81CCA80238892B292504658FDCED8B9AAD323F4ED4C292F56F91F535CC67F9AA236A12AF7B89BCD836029C88B10BC58FB4AE355669A6BB7E21B504B010214000A0000080000
310
B25C31403DEE336E79000000790000001B00000000000000000000000000000000006175746F6465736B2D64657369676E2D7061636B6167652E786D6C504B01021400140006080800B25C3140D486FD9CA0000000F40000001300000000000000000000000000B20000005B436F6E74656E745F54797065735D2E786D6C50
310
4B01021400140006080800B25C3140038633ECEA0000007C010000080000000000000000000000000083010000636F72652E786D6C504B01021400140006080800B25C314055019EA25F0000007C000000070000000000000000000000000093020000636E782E786D6C504B01021400140006080800B25C3140B3D2AF1565
310
010000020300000C00000000000000000000000000170300006662782F636F72652E786D6C504B01021400140006080800B25C314066B443317E0000009D0000000B00000000000000000000000000A60400006662782F636E782E786D6C504B01021400140006080800B25C31408E8711E52A010000140200003100000000
310
0000000000000000004D0500006662782F41414636413845342D323245342D343145412D393438312D3035423733344331383341432F636F72652E786D6C504B01021400140006080800B25C3140E393D92354010000330300003000000000000000000000000000C60600006662782F41414636413845342D323245342D34
310
3145412D393438312D3035423733344331383341432F636E782E786D6C504B01021400140006080800B25C31403A5B8DE159070000931B00003400000000000000000000000000680800006662782F41414636413845342D323245342D343145412D393438312D3035423733344331383341432F6F626A656374732E786D6C
310
504B01021400140006080000B25C31400000000000000000000000003500000000000000000000000000131000006662782F41414636413845342D323245342D343145412D393438312D3035423733344331383341432F76657274696365732E62696E504B01021400140006080800B25C3140F270F1330600000004000000
310
3600000000000000000000000000661000006662782F41414636413845342D323245342D343145412D393438312D3035423733344331383341432F747269616E676C65732E62696E504B01021400140006080000B25C31400000000000000000000000003700000000000000000000000000C01000006662782F4141463641
310
3845342D323245342D343145412D393438312D3035423733344331383341432F617474726962757465732E62696E504B01021400140006080800B25C3140D5987DFC8F000000410100003600000000000000000000000000151100006662782F41414636413845342D323245342D343145412D393438312D30354237333443
310
31383341432F6469726563746F72792E786D6C504B01021400140006080800B25C31406B6C6EDDFC000000A00100003B00000000000000000000000000F81100006662782F41414636413845342D323245342D343145412D393438312D3035423733344331383341432F7265736F75726365732F636F72652E786D6C504B05
310
06000000000E000E00800400004D1300000000
  0
XRECORD
  5
27
102
{ACAD_REACTORS
330
22
102
}
330
22
100
AcDbXrecord
280
     1
270
     1
271
     1
  0
XRECORD
  5
26
102
{ACAD_REACTORS
330
22
102
}
330
22
100
AcDbXrecord
280
     1
270
     1
271
     1
  0
XRECORD
  5
28
102
{ACAD_REACTORS
330
22
102
}
330
22
100
AcDbXrecord
280
     1
270
     1
271
     1
  0
XRECORD
  5
25
102
{ACAD_REACTORS
330
22
102
}
330
22
100
AcDbXrecord
280
     1
270
     1
271
     1
  0
XRECORD
  5
CEC
102
{ACAD_REACTORS
330
CEB
102
}
330
CEB
100
AcDbXrecord
280
     1
102
ACAD_ROUNDTRIP_2012_MLEADER_STYLE
298
     1
  0
CELLSTYLEMAP
  5
CEA
102
{ACAD_REACTORS
330
CE9
102
}
330
CE9
100
AcDbCellStyleMap
 90
        3
300
CELLSTYLE
  1
TABLEFORMAT_BEGIN
 90
        5
170
     1
 91
        0
 92
    32768
 62
   257
 93
        1
300
CONTENTFORMAT
  1
CONTENTFORMAT_BEGIN
 90
        0
 91
        0
 92
      512
 93
        0
300

 40
0.0
140
1.0
 94
        5
 62
     0
340
55
144
0.25
309
CONTENTFORMAT_END
171
     0
 94
        0
309
TABLEFORMAT_END
  1
CELLSTYLE_BEGIN
 90
        1
 91
        1
300
_TITLE
309
CELLSTYLE_END
300
CELLSTYLE
  1
TABLEFORMAT_BEGIN
 90
        5
170
     1
 91
        0
 92
        0
 62
   257
 93
        1
300
CONTENTFORMAT
  1
CONTENTFORMAT_BEGIN
 90
        0
 91
        0
 92
      512
 93
        0
300

 40
0.0
140
1.0
 94
        5
 62
     0
340
55
144
0.18
309
CONTENTFORMAT_END
171
     0
 94
        0
309
TABLEFORMAT_END
  1
CELLSTYLE_BEGIN
 90
        2
 91
        1
300
_HEADER
309
CELLSTYLE_END
300
CELLSTYLE
  1
TABLEFORMAT_BEGIN
 90
        5
170
     1
 91
        0
 92
        0
 62
   257
 93
        1
300
CONTENTFORMAT
  1
CONTENTFORMAT_BEGIN
 90
        0
 91
        0
 92
      512
 93
        0
300

 40
0.0
140
1.0
 94
        2
 62
     0
340
55
144
0.18
309
CONTENTFORMAT_END
171
     0
 94
        0
309
TABLEFORMAT_END
  1
CELLSTYLE_BEGIN
 90
        3
 91
        2
300
_DATA
309
CELLSTYLE_END
  0
XRECORD
  5
D22
102
{ACAD_REACTORS
330
CE9
102
}
330
CE9
100
AcDbXrecord
280
     1
102
ACAD_ROUNDTRIP_PRE2007_TABLESTYLE
 90
      512
 91
        0
  1

 92
      512
 93
        0
  2

 94
      512
 95
        0
  3

  0
XRECORD
  5
CFD
102
{ACAD_REACTORS
330
CFC
102
}
330
CFC
100
AcDbXrecord
280
     1
102
RTVSPropertyOp0
 70
     1
102
RTVSPropertyOp1
 70
     1
102
RTVSPropertyOp2
 70
     1
102
RTVSPropertyOp3
 70
     1
102
RTVSPropertyOp4
 70
     1
102
RTVSPropertyOp5
 70
     1
102
RTVSPropertyOp6
 70
     1
102
RTVSPropertyOp7
 70
     1
102
RTVSPropertyOp8
 70
     1
102
RTVSPropertyOp9
 70
     1
102
RTVSPropertyOp10
 70
     1
102
RTVSPropertyOp11
 70
     1
102
RTVSPropertyOp12
 70
     1
102
RTVSPropertyOp13
 70
     1
102
RTVSPropertyOp14
 70
     1
102
RTVSPropertyOp15
 70
     1
102
RTVSPropertyOp16
 70
     1
102
RTVSPropertyOp17
 70
     1
102
RTVSPropertyOp18
 70
     1
102
RTVSPropertyOp19
 70
     1
102
RTVSPropertyOp20
 70
     1
102
RTVSPropertyOp21
 70
     1
102
RTVSPropertyOp22
 70
     1
102
RTVSPropertyOp23
 70
     1
102
RTVSPropertyOp24
 70
     1
102
RTVSPropertyOp25
 70
     1
102
RTVSPropertyOp26
 70
     1
102
RTVSPropertyOp27
 70
     1
102
RTVSPropertyOp28
 70
     1
102
RTVSPropertyOp29
 70
     1
102
RTVSPropertyOp30
 70
     1
102
RTVSPropertyOp31
 70
     1
102
RTVSPropertyOp32
 70
     1
  0
XRECORD
  5
CFB
102
{ACAD_REACTORS
330
CFA
102
}
330
CFA
100
AcDbXrecord
280
     1
102
RTVSPropertyOp0
 70
     1
102
RTVSPropertyOp1
 70
     1
102
RTVSPropertyOp2
 70
     1
102
RTVSPropertyOp3
 70
     1
102
RTVSPropertyOp4
 70
     1
102
RTVSPropertyOp5
 70
     1
102
RTVSPropertyOp6
 70
     1
102
RTVSPropertyOp7
 70
     1
102
RTVSPropertyOp8
 70
     1
102
RTVSPropertyOp9
 70
     1
102
RTVSPropertyOp10
 70
     1
102
RTVSPropertyOp11
 70
     1
102
RTVSPropertyOp12
 70
     1
102
RTVSPropertyOp13
 70
     1
102
RTVSPropertyOp14
 70
     1
102
RTVSPropertyOp15
 70
     1
102
RTVSPropertyOp16
 70
     1
102
RTVSPropertyOp17
 70
     1
102
RTVSPropertyOp18
 70
     1
102
RTVSPropertyOp19
 70
     1
102
RTVSPropertyOp20
 70
     1
102
RTVSPropertyOp21
 70
     1
102
RTVSPropertyOp22
 70
     1
102
RTVSPropertyOp23
 70
     1
102
RTVSPropertyOp24
 70
     1
102
RTVSPropertyOp25
 70
     1
102
RTVSPropertyOp26
 70
     1
102
RTVSPropertyOp27
 70
     1
102
RTVSPropertyOp28
 70
     1
102
RTVSPropertyOp29
 70
     1
102
RTVSPropertyOp30
 70
     1
102
RTVSPropertyOp31
 70
     1
102
RTVSPropertyOp32
 70
     1
  0
XRECORD
  5
D09
102
{ACAD_REACTORS
330
D08
102
}
330
D08
100
AcDbXrecord
280
     1
102
RTVSPropertyOp0
 70
     1
102
RTVSPropertyOp1
 70
     1
102
RTVSPropertyOp2
 70
     1
102
RTVSPropertyOp3
 70
     1
102
RTVSPropertyOp4
 70
     1
102
RTVSPropertyOp5
 70
     1
102
RTVSPropertyOp6
 70
     1
102
RTVSPropertyOp7
 70
     1
102
RTVSPropertyOp8
 70
     1
102
RTVSPropertyOp9
 70
     1
102
RTVSPropertyOp10
 70
     1
102
RTVSPropertyOp11
 70
     1
102
RTVSPropertyOp12
 70
     1
102
RTVSPropertyOp13
 70
     1
102
RTVSPropertyOp14
 70
     1
102
RTVSPropertyOp15
 70
     1
102
RTVSPropertyOp16
 70
     1
102
RTVSPropertyOp17
 70
     1
102
RTVSPropertyOp18
 70
     1
102
RTVSPropertyOp19
 70
     1
102
RTVSPropertyOp20
 70
     1
102
RTVSPropertyOp21
 70
     1
102
RTVSPropertyOp22
 70
     1
102
RTVSPropertyOp23
 70
     1
102
RTVSPropertyOp24
 70
     1
102
RTVSPropertyOp25
 70
     1
102
RTVSPropertyOp26
 70
     1
102
RTVSPropertyOp27
 70
     1
102
RTVSPropertyOp28
 70
     1
102
RTVSPropertyOp29
 70
     1
102
RTVSPropertyOp30
 70
     1
102
RTVSPropertyOp31
 70
     1
102
RTVSPropertyOp32
 70
     1
  0
XRECORD
  5
D11
102
{ACAD_REACTORS
330
D10
102
}
330
D10
100
AcDbXrecord
280
     1
102
RTVSPropertyOp0
 70
     1
102
RTVSPropertyOp1
 70
     1
102
RTVSPropertyOp2
 70
     1
102
RTVSPropertyOp3
 70
     1
102
RTVSPropertyOp4
 70
     1
102
RTVSPropertyOp5
 70
     1
102
RTVSPropertyOp6
 70
     1
102
RTVSPropertyOp7
 70
     1
102
RTVSPropertyOp8
 70
     1
102
RTVSPropertyOp9
 70
     1
102
RTVSPropertyOp10
 70
     1
102
RTVSPropertyOp11
 70
     1
102
RTVSPropertyOp12
 70
     1
102
RTVSPropertyOp13
 70
     1
102
RTVSPropertyOp14
 70
     1
102
RTVSPropertyOp15
 70
     1
102
RTVSPropertyOp16
 70
     1
102
RTVSPropertyOp17
 70
     1
102
RTVSPropertyOp18
 70
     1
102
RTVSPropertyOp19
 70
     1
102
RTVSPropertyOp20
 70
     1
102
RTVSPropertyOp21
 70
     1
102
RTVSPropertyOp22
 70
     1
102
RTVSPropertyOp23
 70
     1
102
RTVSPropertyOp24
 70
     1
102
RTVSPropertyOp25
 70
     1
102
RTVSPropertyOp26
 70
     1
102
RTVSPropertyOp27
 70
     1
102
RTVSPropertyOp28
 70
     1
102
RTVSPropertyOp29
 70
     1
102
RTVSPropertyOp30
 70
     1
102
RTVSPropertyOp31
 70
     1
102
RTVSPropertyOp32
 70
     1
  0
XRECORD
  5
D03
102
{ACAD_REACTORS
330
D02
102
}
330
D02
100
AcDbXrecord
280
     1
102
RTVSPropertyOp0
 70
     1
102
RTVSPropertyOp1
 70
     1
102
RTVSPropertyOp2
 70
     1
102
RTVSPropertyOp3
 70
     1
102
RTVSPropertyOp4
 70
     1
102
RTVSPropertyOp5
 70
     1
102
RTVSPropertyOp6
 70
     1
102
RTVSPropertyOp7
 70
     1
102
RTVSPropertyOp8
 70
     1
102
RTVSPropertyOp9
 70
     1
102
RTVSPropertyOp10
 70
     1
102
RTVSPropertyOp11
 70
     1
102
RTVSPropertyOp12
 70
     1
102
RTVSPropertyOp13
 70
     1
102
RTVSPropertyOp14
 70
     1
102
RTVSPropertyOp15
 70
     1
102
RTVSPropertyOp16
 70
     1
102
RTVSPropertyOp17
 70
     1
102
RTVSPropertyOp18
 70
     1
102
RTVSPropertyOp19
 70
     1
102
RTVSPropertyOp20
 70
     1
102
RTVSPropertyOp21
 70
     1
102
RTVSPropertyOp22
 70
     1
102
RTVSPropertyOp23
 70
     1
102
RTVSPropertyOp24
 70
     1
102
RTVSPropertyOp25
 70
     1
102
RTVSPropertyOp26
 70
     1
102
RTVSPropertyOp27
 70
     1
102
RTVSPropertyOp28
 70
     1
102
RTVSPropertyOp29
 70
     1
102
RTVSPropertyOp30
 70
     1
102
RTVSPropertyOp31
 70
     1
102
RTVSPropertyOp32
 70
     1
  0
XRECORD
  5
D07
102
{ACAD_REACTORS
330
D06
102
}
330
D06
100
AcDbXrecord
280
     1
102
RTVSPropertyOp0
 70
     1
102
RTVSPropertyOp1
 70
     1
102
RTVSPropertyOp2
 70
     1
102
RTVSPropertyOp3
 70
     1
102
RTVSPropertyOp4
 70
     1
102
RTVSPropertyOp5
 70
     1
102
RTVSPropertyOp6
 70
     1
102
RTVSPropertyOp7
 70
     1
102
RTVSPropertyOp8
 70
     1
102
RTVSPropertyOp9
 70
     1
102
RTVSPropertyOp10
 70
     1
102
RTVSPropertyOp11
 70
     1
102
RTVSPropertyOp12
 70
     1
102
RTVSPropertyOp13
 70
     1
102
RTVSPropertyOp14
 70
     1
102
RTVSPropertyOp15
 70
     1
102
RTVSPropertyOp16
 70
     1
102
RTVSPropertyOp17
 70
     1
102
RTVSPropertyOp18
 70
     1
102
RTVSPropertyOp19
 70
     1
102
RTVSPropertyOp20
 70
     1
102
RTVSPropertyOp21
 70
     1
102
RTVSPropertyOp22
 70
     1
102
RTVSPropertyOp23
 70
     1
102
RTVSPropertyOp24
 70
     1
102
RTVSPropertyOp25
 70
     1
102
RTVSPropertyOp26
 70
     1
102
RTVSPropertyOp27
 70
     1
102
RTVSPropertyOp28
 70
     1
102
RTVSPropertyOp29
 70
     1
102
RTVSPropertyOp30
 70
     1
102
RTVSPropertyOp31
 70
     1
102
RTVSPropertyOp32
 70
     1
  0
XRECORD
  5
D21
102
{ACAD_REACTORS
330
D20
102
}
330
D20
100
AcDbXrecord
280
     1
102
RTVSPropertyOp0
 70
     0
102
RTVSPropertyOp1
 70
     0
102
RTVSPropertyOp2
 70
     0
102
RTVSPropertyOp3
 70
     0
102
RTVSPropertyOp4
 70
     0
102
RTVSPropertyOp5
 70
     0
102
RTVSPropertyOp6
 70
     0
102
RTVSPropertyOp7
 70
     0
102
RTVSPropertyOp8
 70
     0
102
RTVSPropertyOp9
 70
     0
102
RTVSPropertyOp10
 70
     0
102
RTVSPropertyOp11
 70
     0
102
RTVSPropertyOp12
 70
     0
102
RTVSPropertyOp13
 70
     0
102
RTVSPropertyOp14
 70
     2
102
RTVSPropertyOp15
 70
     0
102
RTVSPropertyOp16
 70
     0
102
RTVSPropertyOp17
 70
     0
102
RTVSPropertyOp18
 70
     0
102
RTVSPropertyOp19
 70
     0
102
RTVSPropertyOp20
 70
     0
102
RTVSPropertyOp21
 70
     0
102
RTVSPropertyOp22
 70
     0
102
RTVSPropertyOp23
 70
     0
102
RTVSPropertyOp24
 70
     0
102
RTVSPropertyOp25
 70
     0
102
RTVSPropertyOp26
 70
     0
102
RTVSPropertyOp27
 70
     0
102
RTVSPropertyOp28
 70
     1
102
RTVSPropertyOp29
 70
     1
102
RTVSPropertyOp30
 70
     1
102
RTVSPropertyOp31
 70
     1
102
RTVSPropertyOp32
 70
     1
  0
XRECORD
  5
D0F
102
{ACAD_REACTORS
330
D0E
102
}
330
D0E
100
AcDbXrecord
280
     1
102
RTVSPropertyOp0
 70
     1
102
RTVSPropertyOp1
 70
     1
102
RTVSPropertyOp2
 70
     1
102
RTVSPropertyOp3
 70
     1
102
RTVSPropertyOp4
 70
     1
102
RTVSPropertyOp5
 70
     1
102
RTVSPropertyOp6
 70
     1
102
RTVSPropertyOp7
 70
     1
102
RTVSPropertyOp8
 70
     1
102
RTVSPropertyOp9
 70
     1
102
RTVSPropertyOp10
 70
     1
102
RTVSPropertyOp11
 70
     1
102
RTVSPropertyOp12
 70
     1
102
RTVSPropertyOp13
 70
     1
102
RTVSPropertyOp14
 70
     1
102
RTVSPropertyOp15
 70
     1
102
RTVSPropertyOp16
 70
     1
102
RTVSPropertyOp17
 70
     1
102
RTVSPropertyOp18
 70
     1
102
RTVSPropertyOp19
 70
     1
102
RTVSPropertyOp20
 70
     1
102
RTVSPropertyOp21
 70
     1
102
RTVSPropertyOp22
 70
     1
102
RTVSPropertyOp23
 70
     1
102
RTVSPropertyOp24
 70
     1
102
RTVSPropertyOp25
 70
     1
102
RTVSPropertyOp26
 70
     1
102
RTVSPropertyOp27
 70
     1
102
RTVSPropertyOp28
 70
     1
102
RTVSPropertyOp29
 70
     1
102
RTVSPropertyOp30
 70
     1
102
RTVSPropertyOp31
 70
     1
102
RTVSPropertyOp32
 70
     1
  0
XRECORD
  5
CF3
102
{ACAD_REACTORS
330
CF2
102
}
330
CF2
100
AcDbXrecord
280
     1
102
RTVSPropertyOp0
 70
     1
102
RTVSPropertyOp1
 70
     1
102
RTVSPropertyOp2
 70
     1
102
RTVSPropertyOp3
 70
     1
102
RTVSPropertyOp4
 70
     1
102
RTVSPropertyOp5
 70
     1
102
RTVSPropertyOp6
 70
     1
102
RTVSPropertyOp7
 70
     1
102
RTVSPropertyOp8
 70
     1
102
RTVSPropertyOp9
 70
     1
102
RTVSPropertyOp10
 70
     1
102
RTVSPropertyOp11
 70
     1
102
RTVSPropertyOp12
 70
     1
102
RTVSPropertyOp13
 70
     1
102
RTVSPropertyOp14
 70
     1
102
RTVSPropertyOp15
 70
     1
102
RTVSPropertyOp16
 70
     1
102
RTVSPropertyOp17
 70
     1
102
RTVSPropertyOp18
 70
     1
102
RTVSPropertyOp19
 70
     1
102
RTVSPropertyOp20
 70
     1
102
RTVSPropertyOp21
 70
     1
102
RTVSPropertyOp22
 70
     1
102
RTVSPropertyOp23
 70
     1
102
RTVSPropertyOp24
 70
     1
102
RTVSPropertyOp25
 70
     1
102
RTVSPropertyOp26
 70
     1
102
RTVSPropertyOp27
 70
     1
102
RTVSPropertyOp28
 70
     1
102
RTVSPropertyOp29
 70
     1
102
RTVSPropertyOp30
 70
     1
102
RTVSPropertyOp31
 70
     1
102
RTVSPropertyOp32
 70
     1
  0
XRECORD
  5
CF5
102
{ACAD_REACTORS
330
CF4
102
}
330
CF4
100
AcDbXrecord
280
     1
102
RTVSPropertyOp0
 70
     1
102
RTVSPropertyOp1
 70
     1
102
RTVSPropertyOp2
 70
     1
102
RTVSPropertyOp3
 70
     1
102
RTVSPropertyOp4
 70
     1
102
RTVSPropertyOp5
 70
     1
102
RTVSPropertyOp6
 70
     1
102
RTVSPropertyOp7
 70
     1
102
RTVSPropertyOp8
 70
     1
102
RTVSPropertyOp9
 70
     1
102
RTVSPropertyOp10
 70
     1
102
RTVSPropertyOp11
 70
     1
102
RTVSPropertyOp12
 70
     1
102
RTVSPropertyOp13
 70
     1
102
RTVSPropertyOp14
 70
     1
102
RTVSPropertyOp15
 70
     1
102
RTVSPropertyOp16
 70
     1
102
RTVSPropertyOp17
 70
     1
102
RTVSPropertyOp18
 70
     1
102
RTVSPropertyOp19
 70
     1
102
RTVSPropertyOp20
 70
     1
102
RTVSPropertyOp21
 70
     1
102
RTVSPropertyOp22
 70
     1
102
RTVSPropertyOp23
 70
     1
102
RTVSPropertyOp24
 70
     1
102
RTVSPropertyOp25
 70
     1
102
RTVSPropertyOp26
 70
     1
102
RTVSPropertyOp27
 70
     1
102
RTVSPropertyOp28
 70
     1
102
RTVSPropertyOp29
 70
     1
102
RTVSPropertyOp30
 70
     1
102
RTVSPropertyOp31
 70
     1
102
RTVSPropertyOp32
 70
     1
  0
XRECORD
  5
CF7
102
{ACAD_REACTORS
330
CF6
102
}
330
CF6
100
AcDbXrecord
280
     1
102
RTVSPropertyOp0
 70
     1
102
RTVSPropertyOp1
 70
     1
102
RTVSPropertyOp2
 70
     1
102
RTVSPropertyOp3
 70
     1
102
RTVSPropertyOp4
 70
     1
102
RTVSPropertyOp5
 70
     1
102
RTVSPropertyOp6
 70
     1
102
RTVSPropertyOp7
 70
     1
102
RTVSPropertyOp8
 70
     1
102
RTVSPropertyOp9
 70
     1
102
RTVSPropertyOp10
 70
     1
102
RTVSPropertyOp11
 70
     1
102
RTVSPropertyOp12
 70
     1
102
RTVSPropertyOp13
 70
     1
102
RTVSPropertyOp14
 70
     1
102
RTVSPropertyOp15
 70
     1
102
RTVSPropertyOp16
 70
     1
102
RTVSPropertyOp17
 70
     1
102
RTVSPropertyOp18
 70
     1
102
RTVSPropertyOp19
 70
     1
102
RTVSPropertyOp20
 70
     1
102
RTVSPropertyOp21
 70
     1
102
RTVSPropertyOp22
 70
     1
102
RTVSPropertyOp23
 70
     1
102
RTVSPropertyOp24
 70
     1
102
RTVSPropertyOp25
 70
     1
102
RTVSPropertyOp26
 70
     1
102
RTVSPropertyOp27
 70
     1
102
RTVSPropertyOp28
 70
     1
102
RTVSPropertyOp29
 70
     1
102
RTVSPropertyOp30
 70
     1
102
RTVSPropertyOp31
 70
     1
102
RTVSPropertyOp32
 70
     1
  0
XRECORD
  5
CF9
102
{ACAD_REACTORS
330
CF8
102
}
330
CF8
100
AcDbXrecord
280
     1
102
RTVSPropertyOp0
 70
     1
102
RTVSPropertyOp1
 70
     1
102
RTVSPropertyOp2
 70
     1
102
RTVSPropertyOp3
 70
     1
102
RTVSPropertyOp4
 70
     1
102
RTVSPropertyOp5
 70
     1
102
RTVSPropertyOp6
 70
     1
102
RTVSPropertyOp7
 70
     1
102
RTVSPropertyOp8
 70
     1
102
RTVSPropertyOp9
 70
     1
102
RTVSPropertyOp10
 70
     1
102
RTVSPropertyOp11
 70
     1
102
RTVSPropertyOp12
 70
     1
102
RTVSPropertyOp13
 70
     1
102
RTVSPropertyOp14
 70
     1
102
RTVSPropertyOp15
 70
     1
102
RTVSPropertyOp16
 70
     1
102
RTVSPropertyOp17
 70
     1
102
RTVSPropertyOp18
 70
     1
102
RTVSPropertyOp19
 70
     1
102
RTVSPropertyOp20
 70
     1
102
RTVSPropertyOp21
 70
     1
102
RTVSPropertyOp22
 70
     1
102
RTVSPropertyOp23
 70
     1
102
RTVSPropertyOp24
 70
     1
102
RTVSPropertyOp25
 70
     1
102
RTVSPropertyOp26
 70
     1
102
RTVSPropertyOp27
 70
     1
102
RTVSPropertyOp28
 70
     1
102
RTVSPropertyOp29
 70
     1
102
RTVSPropertyOp30
 70
     1
102
RTVSPropertyOp31
 70
     1
102
RTVSPropertyOp32
 70
     1
  0
XRECORD
  5
D01
102
{ACAD_REACTORS
330
D00
102
}
330
D00
100
AcDbXrecord
280
     1
102
RTVSPropertyOp0
 70
     1
102
RTVSPropertyOp1
 70
     1
102
RTVSPropertyOp2
 70
     1
102
RTVSPropertyOp3
 70
     1
102
RTVSPropertyOp4
 70
     1
102
RTVSPropertyOp5
 70
     1
102
RTVSPropertyOp6
 70
     1
102
RTVSPropertyOp7
 70
     1
102
RTVSPropertyOp8
 70
     1
102
RTVSPropertyOp9
 70
     1
102
RTVSPropertyOp10
 70
     1
102
RTVSPropertyOp11
 70
     1
102
RTVSPropertyOp12
 70
     1
102
RTVSPropertyOp13
 70
     1
102
RTVSPropertyOp14
 70
     1
102
RTVSPropertyOp15
 70
     1
102
RTVSPropertyOp16
 70
     1
102
RTVSPropertyOp17
 70
     1
102
RTVSPropertyOp18
 70
     1
102
RTVSPropertyOp19
 70
     1
102
RTVSPropertyOp20
 70
     1
102
RTVSPropertyOp21
 70
     1
102
RTVSPropertyOp22
 70
     1
102
RTVSPropertyOp23
 70
     1
102
RTVSPropertyOp24
 70
     1
102
RTVSPropertyOp25
 70
     1
102
RTVSPropertyOp26
 70
     1
102
RTVSPropertyOp27
 70
     1
102
RTVSPropertyOp28
 70
     1
102
RTVSPropertyOp29
 70
     1
102
RTVSPropertyOp30
 70
     1
102
RTVSPropertyOp31
 70
     1
102
RTVSPropertyOp32
 70
     1
  0
XRECORD
  5
D1D
102
{ACAD_REACTORS
330
D1C
102
}
330
D1C
100
AcDbXrecord
280
     1
102
RTVSPropertyOp0
 70
     0
102
RTVSPropertyOp1
 70
     0
102
RTVSPropertyOp2
 70
     0
102
RTVSPropertyOp3
 70
     0
102
RTVSPropertyOp4
 70
     0
102
RTVSPropertyOp5
 70
     0
102
RTVSPropertyOp6
 70
     0
102
RTVSPropertyOp7
 70
     0
102
RTVSPropertyOp8
 70
     0
102
RTVSPropertyOp9
 70
     0
102
RTVSPropertyOp10
 70
     0
102
RTVSPropertyOp11
 70
     0
102
RTVSPropertyOp12
 70
     0
102
RTVSPropertyOp13
 70
     0
102
RTVSPropertyOp14
 70
     2
102
RTVSPropertyOp15
 70
     0
102
RTVSPropertyOp16
 70
     0
102
RTVSPropertyOp17
 70
     0
102
RTVSPropertyOp18
 70
     0
102
RTVSPropertyOp19
 70
     0
102
RTVSPropertyOp20
 70
     0
102
RTVSPropertyOp21
 70
     0
102
RTVSPropertyOp22
 70
     0
102
RTVSPropertyOp23
 70
     0
102
RTVSPropertyOp24
 70
     0
102
RTVSPropertyOp25
 70
     0
102
RTVSPropertyOp26
 70
     0
102
RTVSPropertyOp27
 70
     0
102
RTVSPropertyOp28
 70
     1
102
RTVSPropertyOp29
 70
     1
102
RTVSPropertyOp30
 70
     1
102
RTVSPropertyOp31
 70
     1
102
RTVSPropertyOp32
 70
     1
  0
XRECORD
  5
D0D
102
{ACAD_REACTORS
330
D0C
102
}
330
D0C
100
AcDbXrecord
280
     1
102
RTVSPropertyOp0
 70
     1
102
RTVSPropertyOp1
 70
     1
102
RTVSPropertyOp2
 70
     1
102
RTVSPropertyOp3
 70
     1
102
RTVSPropertyOp4
 70
     1
102
RTVSPropertyOp5
 70
     1
102
RTVSPropertyOp6
 70
     1
102
RTVSPropertyOp7
 70
     1
102
RTVSPropertyOp8
 70
     1
102
RTVSPropertyOp9
 70
     1
102
RTVSPropertyOp10
 70
     1
102
RTVSPropertyOp11
 70
     1
102
RTVSPropertyOp12
 70
     1
102
RTVSPropertyOp13
 70
     1
102
RTVSPropertyOp14
 70
     1
102
RTVSPropertyOp15
 70
     1
102
RTVSPropertyOp16
 70
     1
102
RTVSPropertyOp17
 70
     1
102
RTVSPropertyOp18
 70
     1
102
RTVSPropertyOp19
 70
     1
102
RTVSPropertyOp20
 70
     1
102
RTVSPropertyOp21
 70
     1
102
RTVSPropertyOp22
 70
     1
102
RTVSPropertyOp23
 70
     1
102
RTVSPropertyOp24
 70
     1
102
RTVSPropertyOp25
 70
     1
102
RTVSPropertyOp26
 70
     1
102
RTVSPropertyOp27
 70
     1
102
RTVSPropertyOp28
 70
     1
102
RTVSPropertyOp29
 70
     1
102
RTVSPropertyOp30
 70
     1
102
RTVSPropertyOp31
 70
     1
102
RTVSPropertyOp32
 70
     1
  0
XRECORD
  5
D1F
102
{ACAD_REACTORS
330
D1E
102
}
330
D1E
100
AcDbXrecord
280
     1
102
RTVSPropertyOp0
 70
     0
102
RTVSPropertyOp1
 70
     0
102
RTVSPropertyOp2
 70
     0
102
RTVSPropertyOp3
 70
     0
102
RTVSPropertyOp4
 70
     0
102
RTVSPropertyOp5
 70
     0
102
RTVSPropertyOp6
 70
     0
102
RTVSPropertyOp7
 70
     0
102
RTVSPropertyOp8
 70
     0
102
RTVSPropertyOp9
 70
     0
102
RTVSPropertyOp10
 70
     0
102
RTVSPropertyOp11
 70
     0
102
RTVSPropertyOp12
 70
     0
102
RTVSPropertyOp13
 70
     0
102
RTVSPropertyOp14
 70
     2
102
RTVSPropertyOp15
 70
     0
102
RTVSPropertyOp16
 70
     0
102
RTVSPropertyOp17
 70
     0
102
RTVSPropertyOp18
 70
     0
102
RTVSPropertyOp19
 70
     0
102
RTVSPropertyOp20
 70
     0
102
RTVSPropertyOp21
 70
     0
102
RTVSPropertyOp22
 70
     0
102
RTVSPropertyOp23
 70
     0
102
RTVSPropertyOp24
 70
     0
102
RTVSPropertyOp25
 70
     0
102
RTVSPropertyOp26
 70
     0
102
RTVSPropertyOp27
 70
     0
102
RTVSPropertyOp28
 70
     1
102
RTVSPropertyOp29
 70
     1
102
RTVSPropertyOp30
 70
     1
102
RTVSPropertyOp31
 70
     1
102
RTVSPropertyOp32
 70
     1
  0
XRECORD
  5
D05
102
{ACAD_REACTORS
330
D04
102
}
330
D04
100
AcDbXrecord
280
     1
102
RTVSPropertyOp0
 70
     1
102
RTVSPropertyOp1
 70
     1
102
RTVSPropertyOp2
 70
     1
102
RTVSPropertyOp3
 70
     1
102
RTVSPropertyOp4
 70
     1
102
RTVSPropertyOp5
 70
     1
102
RTVSPropertyOp6
 70
     1
102
RTVSPropertyOp7
 70
     1
102
RTVSPropertyOp8
 70
     1
102
RTVSPropertyOp9
 70
     1
102
RTVSPropertyOp10
 70
     1
102
RTVSPropertyOp11
 70
     1
102
RTVSPropertyOp12
 70
     1
102
RTVSPropertyOp13
 70
     1
102
RTVSPropertyOp14
 70
     1
102
RTVSPropertyOp15
 70
     1
102
RTVSPropertyOp16
 70
     1
102
RTVSPropertyOp17
 70
     1
102
RTVSPropertyOp18
 70
     1
102
RTVSPropertyOp19
 70
     1
102
RTVSPropertyOp20
 70
     1
102
RTVSPropertyOp21
 70
     1
102
RTVSPropertyOp22
 70
     1
102
RTVSPropertyOp23
 70
     1
102
RTVSPropertyOp24
 70
     1
102
RTVSPropertyOp25
 70
     1
102
RTVSPropertyOp26
 70
     1
102
RTVSPropertyOp27
 70
     1
102
RTVSPropertyOp28
 70
     1
102
RTVSPropertyOp29
 70
     1
102
RTVSPropertyOp30
 70
     1
102
RTVSPropertyOp31
 70
     1
102
RTVSPropertyOp32
 70
     1
  0
XRECORD
  5
D1B
102
{ACAD_REACTORS
330
D1A
102
}
330
D1A
100
AcDbXrecord
280
     1
102
RTVSPropertyOp0
 70
     1
102
RTVSPropertyOp1
 70
     1
102
RTVSPropertyOp2
 70
     1
102
RTVSPropertyOp3
 70
     1
102
RTVSPropertyOp4
 70
     1
102
RTVSPropertyOp5
 70
     1
102
RTVSPropertyOp6
 70
     1
102
RTVSPropertyOp7
 70
     1
102
RTVSPropertyOp8
 70
     1
102
RTVSPropertyOp9
 70
     1
102
RTVSPropertyOp10
 70
     1
102
RTVSPropertyOp11
 70
     1
102
RTVSPropertyOp12
 70
     1
102
RTVSPropertyOp13
 70
     1
102
RTVSPropertyOp14
 70
     1
102
RTVSPropertyOp15
 70
     1
102
RTVSPropertyOp16
 70
     1
102
RTVSPropertyOp17
 70
     1
102
RTVSPropertyOp18
 70
     1
102
RTVSPropertyOp19
 70
     1
102
RTVSPropertyOp20
 70
     1
102
RTVSPropertyOp21
 70
     1
102
RTVSPropertyOp22
 70
     1
102
RTVSPropertyOp23
 70
     1
102
RTVSPropertyOp24
 70
     1
102
RTVSPropertyOp25
 70
     1
102
RTVSPropertyOp26
 70
     1
102
RTVSPropertyOp27
 70
     1
102
RTVSPropertyOp28
 70
     1
102
RTVSPropertyOp29
 70
     1
102
RTVSPropertyOp30
 70
     1
102
RTVSPropertyOp31
 70
     1
102
RTVSPropertyOp32
 70
     1
  0
XRECORD
  5
D19
102
{ACAD_REACTORS
330
D18
102
}
330
D18
100
AcDbXrecord
280
     1
102
RTVSPropertyOp0
 70
     1
102
RTVSPropertyOp1
 70
     1
102
RTVSPropertyOp2
 70
     1
102
RTVSPropertyOp3
 70
     1
102
RTVSPropertyOp4
 70
     1
102
RTVSPropertyOp5
 70
     1
102
RTVSPropertyOp6
 70
     1
102
RTVSPropertyOp7
 70
     1
102
RTVSPropertyOp8
 70
     1
102
RTVSPropertyOp9
 70
     1
102
RTVSPropertyOp10
 70
     1
102
RTVSPropertyOp11
 70
     1
102
RTVSPropertyOp12
 70
     1
102
RTVSPropertyOp13
 70
     1
102
RTVSPropertyOp14
 70
     1
102
RTVSPropertyOp15
 70
     1
102
RTVSPropertyOp16
 70
     1
102
RTVSPropertyOp17
 70
     1
102
RTVSPropertyOp18
 70
     1
102
RTVSPropertyOp19
 70
     1
102
RTVSPropertyOp20
 70
     1
102
RTVSPropertyOp21
 70
     1
102
RTVSPropertyOp22
 70
     1
102
RTVSPropertyOp23
 70
     1
102
RTVSPropertyOp24
 70
     1
102
RTVSPropertyOp25
 70
     1
102
RTVSPropertyOp26
 70
     1
102
RTVSPropertyOp27
 70
     1
102
RTVSPropertyOp28
 70
     1
102
RTVSPropertyOp29
 70
     1
102
RTVSPropertyOp30
 70
     1
102
RTVSPropertyOp31
 70
     1
102
RTVSPropertyOp32
 70
     1
  0
XRECORD
  5
D13
102
{ACAD_REACTORS
330
D12
102
}
330
D12
100
AcDbXrecord
280
     1
102
RTVSPropertyOp0
 70
     1
102
RTVSPropertyOp1
 70
     1
102
RTVSPropertyOp2
 70
     1
102
RTVSPropertyOp3
 70
     1
102
RTVSPropertyOp4
 70
     1
102
RTVSPropertyOp5
 70
     1
102
RTVSPropertyOp6
 70
     1
102
RTVSPropertyOp7
 70
     1
102
RTVSPropertyOp8
 70
     1
102
RTVSPropertyOp9
 70
     1
102
RTVSPropertyOp10
 70
     1
102
RTVSPropertyOp11
 70
     1
102
RTVSPropertyOp12
 70
     1
102
RTVSPropertyOp13
 70
     1
102
RTVSPropertyOp14
 70
     1
102
RTVSPropertyOp15
 70
     1
102
RTVSPropertyOp16
 70
     1
102
RTVSPropertyOp17
 70
     1
102
RTVSPropertyOp18
 70
     1
102
RTVSPropertyOp19
 70
     1
102
RTVSPropertyOp20
 70
     1
102
RTVSPropertyOp21
 70
     1
102
RTVSPropertyOp22
 70
     1
102
RTVSPropertyOp23
 70
     1
102
RTVSPropertyOp24
 70
     1
102
RTVSPropertyOp25
 70
     1
102
RTVSPropertyOp26
 70
     1
102
RTVSPropertyOp27
 70
     1
102
RTVSPropertyOp28
 70
     1
102
RTVSPropertyOp29
 70
     1
102
RTVSPropertyOp30
 70
     1
102
RTVSPropertyOp31
 70
     1
102
RTVSPropertyOp32
 70
     1
  0
XRECORD
  5
D15
102
{ACAD_REACTORS
330
D14
102
}
330
D14
100
AcDbXrecord
280
     1
102
RTVSPropertyOp0
 70
     1
102
RTVSPropertyOp1
 70
     1
102
RTVSPropertyOp2
 70
     1
102
RTVSPropertyOp3
 70
     1
102
RTVSPropertyOp4
 70
     1
102
RTVSPropertyOp5
 70
     1
102
RTVSPropertyOp6
 70
     1
102
RTVSPropertyOp7
 70
     1
102
RTVSPropertyOp8
 70
     1
102
RTVSPropertyOp9
 70
     1
102
RTVSPropertyOp10
 70
     1
102
RTVSPropertyOp11
 70
     1
102
RTVSPropertyOp12
 70
     1
102
RTVSPropertyOp13
 70
     1
102
RTVSPropertyOp14
 70
     1
102
RTVSPropertyOp15
 70
     1
102
RTVSPropertyOp16
 70
     1
102
RTVSPropertyOp17
 70
     1
102
RTVSPropertyOp18
 70
     1
102
RTVSPropertyOp19
 70
     1
102
RTVSPropertyOp20
 70
     1
102
RTVSPropertyOp21
 70
     1
102
RTVSPropertyOp22
 70
     1
102
RTVSPropertyOp23
 70
     1
102
RTVSPropertyOp24
 70
     1
102
RTVSPropertyOp25
 70
     1
102
RTVSPropertyOp26
 70
     1
102
RTVSPropertyOp27
 70
     1
102
RTVSPropertyOp28
 70
     1
102
RTVSPropertyOp29
 70
     1
102
RTVSPropertyOp30
 70
     1
102
RTVSPropertyOp31
 70
     1
102
RTVSPropertyOp32
 70
     1
  0
XRECORD
  5
D0B
102
{ACAD_REACTORS
330
D0A
102
}
330
D0A
100
AcDbXrecord
280
     1
102
RTVSPropertyOp0
 70
     1
102
RTVSPropertyOp1
 70
     1
102
RTVSPropertyOp2
 70
     1
102
RTVSPropertyOp3
 70
     1
102
RTVSPropertyOp4
 70
     1
102
RTVSPropertyOp5
 70
     1
102
RTVSPropertyOp6
 70
     1
102
RTVSPropertyOp7
 70
     1
102
RTVSPropertyOp8
 70
     1
102
RTVSPropertyOp9
 70
     1
102
RTVSPropertyOp10
 70
     1
102
RTVSPropertyOp11
 70
     1
102
RTVSPropertyOp12
 70
     1
102
RTVSPropertyOp13
 70
     1
102
RTVSPropertyOp14
 70
     1
102
RTVSPropertyOp15
 70
     1
102
RTVSPropertyOp16
 70
     1
102
RTVSPropertyOp17
 70
     1
102
RTVSPropertyOp18
 70
     1
102
RTVSPropertyOp19
 70
     1
102
RTVSPropertyOp20
 70
     1
102
RTVSPropertyOp21
 70
     1
102
RTVSPropertyOp22
 70
     1
102
RTVSPropertyOp23
 70
     1
102
RTVSPropertyOp24
 70
     1
102
RTVSPropertyOp25
 70
     1
102
RTVSPropertyOp26
 70
     1
102
RTVSPropertyOp27
 70
     1
102
RTVSPropertyOp28
 70
     1
102
RTVSPropertyOp29
 70
     1
102
RTVSPropertyOp30
 70
     1
102
RTVSPropertyOp31
 70
     1
102
RTVSPropertyOp32
 70
     1
  0
XRECORD
  5
CFF
102
{ACAD_REACTORS
330
CFE
102
}
330
CFE
100
AcDbXrecord
280
     1
102
RTVSPropertyOp0
 70
     1
102
RTVSPropertyOp1
 70
     1
102
RTVSPropertyOp2
 70
     1
102
RTVSPropertyOp3
 70
     1
102
RTVSPropertyOp4
 70
     1
102
RTVSPropertyOp5
 70
     1
102
RTVSPropertyOp6
 70
     1
102
RTVSPropertyOp7
 70
     1
102
RTVSPropertyOp8
 70
     1
102
RTVSPropertyOp9
 70
     1
102
RTVSPropertyOp10
 70
     1
102
RTVSPropertyOp11
 70
     1
102
RTVSPropertyOp12
 70
     1
102
RTVSPropertyOp13
 70
     1
102
RTVSPropertyOp14
 70
     1
102
RTVSPropertyOp15
 70
     1
102
RTVSPropertyOp16
 70
     1
102
RTVSPropertyOp17
 70
     1
102
RTVSPropertyOp18
 70
     1
102
RTVSPropertyOp19
 70
     1
102
RTVSPropertyOp20
 70
     1
102
RTVSPropertyOp21
 70
     1
102
RTVSPropertyOp22
 70
     1
102
RTVSPropertyOp23
 70
     1
102
RTVSPropertyOp24
 70
     1
102
RTVSPropertyOp25
 70
     1
102
RTVSPropertyOp26
 70
     1
102
RTVSPropertyOp27
 70
     1
102
RTVSPropertyOp28
 70
     1
102
RTVSPropertyOp29
 70
     1
102
RTVSPropertyOp30
 70
     1
102
RTVSPropertyOp31
 70
     1
102
RTVSPropertyOp32
 70
     1
  0
XRECORD
  5
D17
102
{ACAD_REACTORS
330
D16
102
}
330
D16
100
AcDbXrecord
280
     1
102
RTVSPropertyOp0
 70
     1
102
RTVSPropertyOp1
 70
     1
102
RTVSPropertyOp2
 70
     1
102
RTVSPropertyOp3
 70
     1
102
RTVSPropertyOp4
 70
     1
102
RTVSPropertyOp5
 70
     1
102
RTVSPropertyOp6
 70
     1
102
RTVSPropertyOp7
 70
     1
102
RTVSPropertyOp8
 70
     1
102
RTVSPropertyOp9
 70
     1
102
RTVSPropertyOp10
 70
     1
102
RTVSPropertyOp11
 70
     1
102
RTVSPropertyOp12
 70
     1
102
RTVSPropertyOp13
 70
     1
102
RTVSPropertyOp14
 70
     1
102
RTVSPropertyOp15
 70
     1
102
RTVSPropertyOp16
 70
     1
102
RTVSPropertyOp17
 70
     1
102
RTVSPropertyOp18
 70
     1
102
RTVSPropertyOp19
 70
     1
102
RTVSPropertyOp20
 70
     1
102
RTVSPropertyOp21
 70
     1
102
RTVSPropertyOp22
 70
     1
102
RTVSPropertyOp23
 70
     1
102
RTVSPropertyOp24
 70
     1
102
RTVSPropertyOp25
 70
     1
102
RTVSPropertyOp26
 70
     1
102
RTVSPropertyOp27
 70
     1
102
RTVSPropertyOp28
 70
     1
102
RTVSPropertyOp29
 70
     1
102
RTVSPropertyOp30
 70
     1
102
RTVSPropertyOp31
 70
     1
102
RTVSPropertyOp32
 70
     1
  0
ENDSEC
  0
EOF
