  0
SECTION
  2
HEADER
  9
$ACADVER
  1
AC1015
  9
$ACADMAINTVER
 70
    18
  9
$DWGCODEPAGE
  3
ANSI_1252
  9
$INSBASE
 10
0.0
 20
0.0
 30
0.0
  9
$EXTMIN
 10
0.0
 20
0.0
 30
0.0
  9
$EXTMAX
 10
71.57894736842106
 20
46.3157894736842
 30
0.0
  9
$LIMMIN
 10
0.0
 20
0.0
  9
$LIMMAX
 10
71.57894736842106
 20
46.3157894736842
  9
$ORTHOMODE
 70
     0
  9
$REGENMODE
 70
     1
  9
$FILLMODE
 70
     1
  9
$QTEXTMODE
 70
     0
  9
$MIRRTEXT
 70
     0
  9
$LTSCALE
 40
4.210526315789473
  9
$ATTMODE
 70
     1
  9
$TEXTSIZE
 40
0.2
  9
$TRACEWID
 40
0.05
  9
$TEXTSTYLE
  7
Standard
  9
$CLAYER
  8
0
  9
$CELTYPE
  6
ByLayer
  9
$CECOLOR
 62
   256
  9
$CELTSCALE
 40
1.0
  9
$DISPSILH
 70
     0
  9
$DIMSCALE
 40
1.0
  9
$DIMASZ
 40
0.0708661417322835
  9
$DIMEXO
 40
0.0625
  9
$DIMDLI
 40
0.38
  9
$DIMRND
 40
0.0
  9
$DIMDLE
 40
0.0
  9
$DIMEXE
 40
0.18
  9
$DIMTP
 40
0.0
  9
$DIMTM
 40
0.0
  9
$DIMTXT
 40
0.0708661417322835
  9
$DIMCEN
 40
0.09
  9
$DIMTSZ
 40
0.0
  9
$DIMTOL
 70
     0
  9
$DIMLIM
 70
     0
  9
$DIMTIH
 70
     1
  9
$DIMTOH
 70
     1
  9
$DIMSE1
 70
     0
  9
$DIMSE2
 70
     0
  9
$DIMTAD
 70
     0
  9
$DIMZIN
 70
     0
  9
$DIMBLK
  1

  9
$DIMASO
 70
     1
  9
$DIMSHO
 70
     1
  9
$DIMPOST
  1

  9
$DIMAPOST
  1

  9
$DIMALT
 70
     0
  9
$DIMALTD
 70
     2
  9
$DIMALTF
 40
25.4
  9
$DIMLFAC
 40
1.0
  9
$DIMTOFL
 70
     0
  9
$DIMTVP
 40
0.0
  9
$DIMTIX
 70
     0
  9
$DIMSOXD
 70
     0
  9
$DIMSAH
 70
     0
  9
$DIMBLK1
  1

  9
$DIMBLK2
  1

  9
$DIMSTYLE
  2
Standard
  9
$DIMCLRD
 70
     0
  9
$DIMCLRE
 70
     0
  9
$DIMCLRT
 70
     0
  9
$DIMTFAC
 40
1.0
  9
$DIMGAP
 40
0.09
  9
$DIMJUST
 70
     0
  9
$DIMSD1
 70
     0
  9
$DIMSD2
 70
     0
  9
$DIMTOLJ
 70
     1
  9
$DIMTZIN
 70
     0
  9
$DIMALTZ
 70
     0
  9
$DIMALTTZ
 70
     0
  9
$DIMUPT
 70
     0
  9
$DIMDEC
 70
     4
  9
$DIMTDEC
 70
     4
  9
$DIMALTU
 70
     2
  9
$DIMALTTD
 70
     2
  9
$DIMTXSTY
  7
Standard
  9
$DIMAUNIT
 70
     0
  9
$DIMADEC
 70
     0
  9
$DIMALTRND
 40
0.0
  9
$DIMAZIN
 70
     0
  9
$DIMDSEP
 70
    46
  9
$DIMATFIT
 70
     3
  9
$DIMFRAC
 70
     0
  9
$DIMLDRBLK
  1

  9
$DIMLUNIT
 70
     2
  9
$DIMLWD
 70
    -2
  9
$DIMLWE
 70
    -2
  9
$DIMTMOVE
 70
     0
  9
$LUNITS
 70
     2
  9
$LUPREC
 70
     4
  9
$SKETCHINC
 40
0.1
  9
$FILLETRAD
 40
0.0
  9
$AUNITS
 70
     0
  9
$AUPREC
 70
     0
  9
$MENU
  1
.
  9
$ELEVATION
 40
0.0
  9
$PELEVATION
 40
0.0
  9
$THICKNESS
 40
0.0
  9
$LIMCHECK
 70
     0
  9
$CHAMFERA
 40
0.0
  9
$CHAMFERB
 40
0.0
  9
$CHAMFERC
 40
0.0
  9
$CHAMFERD
 40
0.0
  9
$SKPOLY
 70
     0
  9
$TDCREATE
 40
2455946.353363287
  9
$TDUCREATE
 40
2455946.603363287
  9
$TDUPDATE
 40
2455946.353363287
  9
$TDUUPDATE
 40
2455946.603363287
  9
$TDINDWG
 40
0.0000349074
  9
$TDUSRTIMER
 40
0.0000349074
  9
$USRTIMER
 70
     1
  9
$ANGBASE
 50
0.0
  9
$ANGDIR
 70
     0
  9
$PDMODE
 70
     0
  9
$PDSIZE
 40
0.0
  9
$PLINEWID
 40
0.0
  9
$SPLFRAME
 70
     0
  9
$SPLINETYPE
 70
     6
  9
$SPLINESEGS
 70
     8
  9
$HANDSEED
  5
E34
  9
$SURFTAB1
 70
     6
  9
$SURFTAB2
 70
     6
  9
$SURFTYPE
 70
     6
  9
$SURFU
 70
     6
  9
$SURFV
 70
     6
  9
$UCSBASE
  2

  9
$UCSNAME
  2

  9
$UCSORG
 10
0.0
 20
0.0
 30
0.0
  9
$UCSXDIR
 10
1.0
 20
0.0
 30
0.0
  9
$UCSYDIR
 10
0.0
 20
1.0
 30
0.0
  9
$UCSORTHOREF
  2

  9
$UCSORTHOVIEW
 70
     0
  9
$UCSORGTOP
 10
0.0
 20
0.0
 30
0.0
  9
$UCSORGBOTTOM
 10
0.0
 20
0.0
 30
0.0
  9
$UCSORGLEFT
 10
0.0
 20
0.0
 30
0.0
  9
$UCSORGRIGHT
 10
0.0
 20
0.0
 30
0.0
  9
$UCSORGFRONT
 10
0.0
 20
0.0
 30
0.0
  9
$UCSORGBACK
 10
0.0
 20
0.0
 30
0.0
  9
$PUCSBASE
  2

  9
$PUCSNAME
  2

  9
$PUCSORG
 10
0.0
 20
0.0
 30
0.0
  9
$PUCSXDIR
 10
1.0
 20
0.0
 30
0.0
  9
$PUCSYDIR
 10
0.0
 20
1.0
 30
0.0
  9
$PUCSORTHOREF
  2

  9
$PUCSORTHOVIEW
 70
     0
  9
$PUCSORGTOP
 10
0.0
 20
0.0
 30
0.0
  9
$PUCSORGBOTTOM
 10
0.0
 20
0.0
 30
0.0
  9
$PUCSORGLEFT
 10
0.0
 20
0.0
 30
0.0
  9
$PUCSORGRIGHT
 10
0.0
 20
0.0
 30
0.0
  9
$PUCSORGFRONT
 10
0.0
 20
0.0
 30
0.0
  9
$PUCSORGBACK
 10
0.0
 20
0.0
 30
0.0
  9
$USERI1
 70
     0
  9
$USERI2
 70
     0
  9
$USERI3
 70
     0
  9
$USERI4
 70
     0
  9
$USERI5
 70
     0
  9
$USERR1
 40
0.0
  9
$USERR2
 40
0.0
  9
$USERR3
 40
0.0
  9
$USERR4
 40
0.0
  9
$USERR5
 40
0.0
  9
$WORLDVIEW
 70
     1
  9
$SHADEDGE
 70
     3
  9
$SHADEDIF
 70
    70
  9
$TILEMODE
 70
     1
  9
$MAXACTVP
 70
    64
  9
$PINSBASE
 10
0.0
 20
0.0
 30
0.0
  9
$PLIMCHECK
 70
     0
  9
$PEXTMIN
 10
0.0
 20
0.0
 30
0.0
  9
$PEXTMAX
 10
71.57894736842106
 20
46.3157894736842
 30
0.0
  9
$PLIMMIN
 10
0.0
 20
0.0
  9
$PLIMMAX
 10
71.57894736842106
 20
46.3157894736842
  9
$UNITMODE
 70
     0
  9
$VISRETAIN
 70
     1
  9
$PLINEGEN
 70
     0
  9
$PSLTSCALE
 70
     1
  9
$TREEDEPTH
 70
  3020
  9
$CMLSTYLE
  2
Standard
  9
$CMLJUST
 70
     0
  9
$CMLSCALE
 40
1.0
  9
$PROXYGRAPHICS
 70
     1
  9
$MEASUREMENT
 70
     0
  9
$CELWEIGHT
370
    -1
  9
$ENDCAPS
280
     0
  9
$JOINSTYLE
280
     0
  9
$LWDISPLAY
290
     0
  9
$INSUNITS
 70
     1
  9
$HYPERLINKBASE
  1

  9
$STYLESHEET
  1

  9
$XEDIT
290
     1
  9
$CEPSNTYPE
380
     0
  9
$PSTYLEMODE
290
     1
  9
$FINGERPRINTGUID
  2
{4CE00BB9-4FA0-43C8-8DD0-1E386652AE5B}
  9
$VERSIONGUID
  2
{EC3CC634-CE06-41FC-8DAB-76C21ADB71D7}
  9
$EXTNAMES
290
     1
  9
$PSVPSCALE
 40
0.0
  9
$OLESTARTUP
290
     0
  0
ENDSEC
  0
SECTION
  2
CLASSES
  0
CLASS
  1
ACDBDICTIONARYWDFLT
  2
AcDbDictionaryWithDefault
  3
ObjectDBX Classes
 90
        0
280
     0
281
     0
  0
CLASS
  1
MATERIAL
  2
AcDbMaterial
  3
ObjectDBX Classes
 90
     1153
280
     0
281
     0
  0
CLASS
  1
VISUALSTYLE
  2
AcDbVisualStyle
  3
ObjectDBX Classes
 90
     4095
280
     0
281
     0
  0
CLASS
  1
SCALE
  2
AcDbScale
  3
ObjectDBX Classes
 90
     1153
280
     0
281
     0
  0
CLASS
  1
TABLESTYLE
  2
AcDbTableStyle
  3
ObjectDBX Classes
 90
     4095
280
     0
281
     0
  0
CLASS
  1
MLEADERSTYLE
  2
AcDbMLeaderStyle
  3
ACDB_MLEADERSTYLE_CLASS
 90
     4095
280
     0
281
     0
  0
CLASS
  1
DICTIONARYVAR
  2
AcDbDictionaryVar
  3
ObjectDBX Classes
 90
        0
280
     0
281
     0
  0
CLASS
  1
CELLSTYLEMAP
  2
AcDbCellStyleMap
  3
ObjectDBX Classes
 90
     1152
280
     0
281
     0
  0
CLASS
  1
ACDBPLACEHOLDER
  2
AcDbPlaceHolder
  3
ObjectDBX Classes
 90
        0
280
     0
281
     0
  0
CLASS
  1
LAYOUT
  2
AcDbLayout
  3
ObjectDBX Classes
 90
        0
280
     0
281
     0
  0
ENDSEC
  0
SECTION
  2
TABLES
  0
TABLE
  2
VPORT
  5
8
330
0
100
AcDbSymbolTable
 70
     1
  0
VPORT
  5
57
330
8
100
AcDbSymbolTableRecord
100
AcDbViewportTableRecord
  2
*Active
 70
     0
 10
0.0
 20
0.0
 11
1.0
 21
1.0
 12
35.78947368421053
 22
23.1578947368421
 13
0.0
 23
0.0
 14
1.0
 24
1.0
 15
0.0
 25
0.0
 16
0.0
 26
0.0
 36
1.0
 17
0.0
 27
0.0
 37
0.0
 40
46.3157894736842
 41
1.545454545454545
 42
50.0
 43
0.0
 44
0.0
 50
0.0
 51
0.0
 71
     0
 72
   100
 73
     1
 74
     1
 75
     0
 76
     0
 77
     0
 78
     0
281
     0
 65
     1
110
0.0
120
0.0
130
0.0
111
1.0
121
0.0
131
0.0
112
0.0
122
1.0
132
0.0
 79
     0
146
0.0
  0
ENDTAB
  0
TABLE
  2
LTYPE
  5
5
330
0
100
AcDbSymbolTable
 70
    59
  0
LTYPE
  5
5B
330
5
100
AcDbSymbolTableRecord
100
AcDbLinetypeTableRecord
  2
ByBlock
 70
     0
  3

 72
    65
 73
     0
 40
0.0
  0
LTYPE
  5
5C
330
5
100
AcDbSymbolTableRecord
100
AcDbLinetypeTableRecord
  2
ByLayer
 70
     0
  3

 72
    65
 73
     0
 40
0.0
  0
LTYPE
  5
5D
330
5
100
AcDbSymbolTableRecord
100
AcDbLinetypeTableRecord
  2
Continuous
 70
     0
  3
Solid line
 72
    65
 73
     0
 40
0.0
  0
LTYPE
  5
7C
330
5
100
AcDbSymbolTableRecord
100
AcDbLinetypeTableRecord
  2
BY_STANDARD
 70
     0
  3
By Standard ____________    ____    ____   _
 72
    65
 73
     6
 40
1.240299999999999
 49
0.6614
 74
     0
 49
-0.0827
 74
     0
 49
0.1654
 74
     0
 49
-0.0827
 74
     0
 49
0.1654
 74
     0
 49
-0.0827
 74
     0
  0
LTYPE
  5
7D
330
5
100
AcDbSymbolTableRecord
100
AcDbLinetypeTableRecord
  2
CHAIN
 70
     0
  3
Chain ____ _ ____ _ ____ _ ____ _ ____ _ ____
 72
    65
 73
     4
 40
0.7087
 49
0.4724000000000001
 74
     0
 49
-0.0591
 74
     0
 49
0.1181
 74
     0
 49
-0.0591
 74
     0
  0
LTYPE
  5
7E
330
5
100
AcDbSymbolTableRecord
100
AcDbLinetypeTableRecord
  2
DASH_DOT
 70
     0
  3
Dash dot __ . __ . __ . __ . __ . __ . __ . __
 72
    65
 73
     4
 40
0.37
 49
0.24
 74
     0
 49
-0.06
 74
     0
 49
0.01
 74
     0
 49
-0.06
 74
     0
  0
LTYPE
  5
7F
330
5
100
AcDbSymbolTableRecord
100
AcDbLinetypeTableRecord
  2
DOUBLE_DASH_DOT
 70
     0
  3
Double-Dash Dot __ __ . __ __ . __ __ . __ _
 72
    65
 73
     6
 40
0.4398
 49
0.24
 74
     0
 49
-0.06
 74
     0
 49
0.0098
 74
     0
 49
-0.06
 74
     0
 49
0.01
 74
     0
 49
-0.06
 74
     0
  0
LTYPE
  5
80
330
5
100
AcDbSymbolTableRecord
100
AcDbLinetypeTableRecord
  2
DASH_TRIPLE_DOT
 70
     0
  3
Dash Triple-Dot _ . . . _ . . . _ . . . _
 72
    65
 73
     8
 40
0.51
 49
0.24
 74
     0
 49
-0.06
 74
     0
 49
0.01
 74
     0
 49
-0.06
 74
     0
 49
0.01
 74
     0
 49
-0.06
 74
     0
 49
0.01
 74
     0
 49
-0.06
 74
     0
  0
LTYPE
  5
81
330
5
100
AcDbSymbolTableRecord
100
AcDbLinetypeTableRecord
  2
DASHED
 70
     0
  3
Dashed __ __ __ __ __ __ __ __ __ __ __ __ __ _
 72
    65
 73
     2
 40
0.2067
 49
0.1654
 74
     0
 49
-0.0413
 74
     0
  0
LTYPE
  5
82
330
5
100
AcDbSymbolTableRecord
100
AcDbLinetypeTableRecord
  2
DASH_DOUBLE_DOT
 70
     0
  3
Dash Double-Dot __ . . __ . . __ . . __ . .
 72
    65
 73
     6
 40
0.4398
 49
0.24
 74
     0
 49
-0.06
 74
     0
 49
0.0098
 74
     0
 49
-0.06
 74
     0
 49
0.01
 74
     0
 49
-0.06
 74
     0
  0
LTYPE
  5
83
330
5
100
AcDbSymbolTableRecord
100
AcDbLinetypeTableRecord
  2
DASHED_SPACE
 70
     0
  3
Dashed Space __ __ __ __ __ __ __ __ __ __ __ _
 72
    65
 73
     2
 40
0.2067
 49
0.1654
 74
     0
 49
-0.0413
 74
     0
  0
LTYPE
  5
84
330
5
100
AcDbSymbolTableRecord
100
AcDbLinetypeTableRecord
  2
DOTTED
 70
     0
  3
Dotted . . . . . . . . . . . . . . . . . . . . 
 72
    65
 73
     2
 40
0.0482
 49
0.0069
 74
     0
 49
-0.0413
 74
     0
  0
LTYPE
  5
85
330
5
100
AcDbSymbolTableRecord
100
AcDbLinetypeTableRecord
  2
DOUBLE_DASH_CHAIN
 70
     0
  3
Double-Dash Chain ______  __  __  ______  __  _
 72
    65
 73
     6
 40
1.240299999999999
 49
0.6614
 74
     0
 49
-0.0827
 74
     0
 49
0.1654
 74
     0
 49
-0.0827
 74
     0
 49
0.1654
 74
     0
 49
-0.0827
 74
     0
  0
LTYPE
  5
87
330
5
100
AcDbSymbolTableRecord
100
AcDbLinetypeTableRecord
  2
DOUBLE_DASH_DOUBLE_DOT
 70
     0
  3
Double-Dash Double-dot _ _ . . _ _ . . _
 72
    65
 73
     8
 40
0.7400000000000001
 49
0.24
 74
     0
 49
-0.06
 74
     0
 49
0.24
 74
     0
 49
-0.06
 74
     0
 49
0.01
 74
     0
 49
-0.06
 74
     0
 49
0.01
 74
     0
 49
-0.06
 74
     0
  0
LTYPE
  5
88
330
5
100
AcDbSymbolTableRecord
100
AcDbLinetypeTableRecord
  2
DOUBLE_DASH_TRIPLE_DOT
 70
     0
  3
Double Dash Triple Dot __ __ . . . __ __ . .
 72
    65
 73
    10
 40
0.8100000000000001
 49
0.24
 74
     0
 49
-0.06
 74
     0
 49
0.24
 74
     0
 49
-0.06
 74
     0
 49
0.01
 74
     0
 49
-0.06
 74
     0
 49
0.01
 74
     0
 49
-0.06
 74
     0
 49
0.01
 74
     0
 49
-0.06
 74
     0
  0
LTYPE
  5
89
330
5
100
AcDbSymbolTableRecord
100
AcDbLinetypeTableRecord
  2
LONG_DASH_DOTTED
 70
     0
  3
Long Dash Dotted ____ . ____ . ____ . ____ . _
 72
    65
 73
     4
 40
0.3543
 49
0.2362
 74
     0
 49
-0.0295
 74
     0
 49
0.0591
 74
     0
 49
-0.0295
 74
     0
  0
LTYPE
  5
8A
330
5
100
AcDbSymbolTableRecord
100
AcDbLinetypeTableRecord
  2
LONG_DASH_DOUBLE_DOT
 70
     0
  3
Long Dash Double Dot ________  .  .  ________  
 72
    65
 73
     6
 40
0.6799999999999999
 49
0.48
 74
     0
 49
-0.06
 74
     0
 49
0.01
 74
     0
 49
-0.06
 74
     0
 49
0.01
 74
     0
 49
-0.06
 74
     0
  0
LTYPE
  5
8B
330
5
100
AcDbSymbolTableRecord
100
AcDbLinetypeTableRecord
  2
LONG_DASH_TRIPLE_DOT
 70
     0
  3
Long Dash Triple Dot ____ ... ____ ... ____
 72
    65
 73
     8
 40
0.3689
 49
0.2362
 74
     0
 49
-0.0295
 74
     0
 49
0.0049
 74
     0
 49
-0.0295
 74
     0
 49
0.0049
 74
     0
 49
-0.0295
 74
     0
 49
0.0049
 74
     0
 49
-0.0295
 74
     0
  0
LTYPE
  5
8C
330
5
100
AcDbSymbolTableRecord
100
AcDbLinetypeTableRecord
  2
BORDER
 70
     0
  3
Border __ __ . __ __ . __ __ . __ __ . __ __ .
 72
    65
 73
     6
 40
1.75
 49
0.5
 74
     0
 49
-0.25
 74
     0
 49
0.5
 74
     0
 49
-0.25
 74
     0
 49
0.0
 74
     0
 49
-0.25
 74
     0
  0
LTYPE
  5
8D
330
5
100
AcDbSymbolTableRecord
100
AcDbLinetypeTableRecord
  2
BORDER2
 70
     0
  3
Border (.5x) __.__.__.__.__.__.__.__.__.__.__.
 72
    65
 73
     6
 40
0.875
 49
0.25
 74
     0
 49
-0.125
 74
     0
 49
0.25
 74
     0
 49
-0.125
 74
     0
 49
0.0
 74
     0
 49
-0.125
 74
     0
  0
LTYPE
  5
8E
330
5
100
AcDbSymbolTableRecord
100
AcDbLinetypeTableRecord
  2
BORDERX2
 70
     0
  3
Border (2x) ____  ____  .  ____  ____  .  ___
 72
    65
 73
     6
 40
3.5
 49
1.0
 74
     0
 49
-0.5
 74
     0
 49
1.0
 74
     0
 49
-0.5
 74
     0
 49
0.0
 74
     0
 49
-0.5
 74
     0
  0
LTYPE
  5
8F
330
5
100
AcDbSymbolTableRecord
100
AcDbLinetypeTableRecord
  2
CENTER
 70
     0
  3
Center ____ _ ____ _ ____ _ ____ _ ____ _ ____
 72
    65
 73
     4
 40
2.0
 49
1.25
 74
     0
 49
-0.25
 74
     0
 49
0.25
 74
     0
 49
-0.25
 74
     0
  0
LTYPE
  5
90
330
5
100
AcDbSymbolTableRecord
100
AcDbLinetypeTableRecord
  2
CENTER2
 70
     0
  3
Center (.5x) ___ _ ___ _ ___ _ ___ _ ___ _ ___
 72
    65
 73
     4
 40
1.125
 49
0.75
 74
     0
 49
-0.125
 74
     0
 49
0.125
 74
     0
 49
-0.125
 74
     0
  0
LTYPE
  5
91
330
5
100
AcDbSymbolTableRecord
100
AcDbLinetypeTableRecord
  2
CENTERX2
 70
     0
  3
Center (2x) ________  __  ________  __  _____
 72
    65
 73
     4
 40
4.0
 49
2.5
 74
     0
 49
-0.5
 74
     0
 49
0.5
 74
     0
 49
-0.5
 74
     0
  0
LTYPE
  5
92
330
5
100
AcDbSymbolTableRecord
100
AcDbLinetypeTableRecord
  2
DASHDOT2
 70
     0
  3
Dash dot (.5x) _._._._._._._._._._._._._._._.
 72
    65
 73
     4
 40
0.5
 49
0.25
 74
     0
 49
-0.125
 74
     0
 49
0.0
 74
     0
 49
-0.125
 74
     0
  0
LTYPE
  5
93
330
5
100
AcDbSymbolTableRecord
100
AcDbLinetypeTableRecord
  2
DASHDOTX2
 70
     0
  3
Dash dot (2x) ____  .  ____  .  ____  .  ___
 72
    65
 73
     4
 40
2.0
 49
1.0
 74
     0
 49
-0.5
 74
     0
 49
0.0
 74
     0
 49
-0.5
 74
     0
  0
LTYPE
  5
95
330
5
100
AcDbSymbolTableRecord
100
AcDbLinetypeTableRecord
  2
DASHED2
 70
     0
  3
Dashed (.5x) _ _ _ _ _ _ _ _ _ _ _ _ _ _ _ _ _
 72
    65
 73
     2
 40
0.375
 49
0.25
 74
     0
 49
-0.125
 74
     0
  0
LTYPE
  5
96
330
5
100
AcDbSymbolTableRecord
100
AcDbLinetypeTableRecord
  2
DASHEDX2
 70
     0
  3
Dashed (2x) ____  ____  ____  ____  ____  ___
 72
    65
 73
     2
 40
1.5
 49
1.0
 74
     0
 49
-0.5
 74
     0
  0
LTYPE
  5
97
330
5
100
AcDbSymbolTableRecord
100
AcDbLinetypeTableRecord
  2
DIVIDE
 70
     0
  3
Divide ____ . . ____ . . ____ . . ____ . . ____
 72
    65
 73
     6
 40
1.25
 49
0.5
 74
     0
 49
-0.25
 74
     0
 49
0.0
 74
     0
 49
-0.25
 74
     0
 49
0.0
 74
     0
 49
-0.25
 74
     0
  0
LTYPE
  5
98
330
5
100
AcDbSymbolTableRecord
100
AcDbLinetypeTableRecord
  2
DIVIDE2
 70
     0
  3
Divide (.5x) __..__..__..__..__..__..__..__.._
 72
    65
 73
     6
 40
0.625
 49
0.25
 74
     0
 49
-0.125
 74
     0
 49
0.0
 74
     0
 49
-0.125
 74
     0
 49
0.0
 74
     0
 49
-0.125
 74
     0
  0
LTYPE
  5
99
330
5
100
AcDbSymbolTableRecord
100
AcDbLinetypeTableRecord
  2
DIVIDEX2
 70
     0
  3
Divide (2x) ________  .  .  ________  .  .  _
 72
    65
 73
     6
 40
2.5
 49
1.0
 74
     0
 49
-0.5
 74
     0
 49
0.0
 74
     0
 49
-0.5
 74
     0
 49
0.0
 74
     0
 49
-0.5
 74
     0
  0
LTYPE
  5
9A
330
5
100
AcDbSymbolTableRecord
100
AcDbLinetypeTableRecord
  2
DOT
 70
     0
  3
Dot . . . . . . . . . . . . . . . . . . . . . .
 72
    65
 73
     2
 40
0.25
 49
0.0
 74
     0
 49
-0.25
 74
     0
  0
LTYPE
  5
9B
330
5
100
AcDbSymbolTableRecord
100
AcDbLinetypeTableRecord
  2
DOT2
 70
     0
  3
Dot (.5x) .....................................
 72
    65
 73
     2
 40
0.125
 49
0.0
 74
     0
 49
-0.125
 74
     0
  0
LTYPE
  5
9C
330
5
100
AcDbSymbolTableRecord
100
AcDbLinetypeTableRecord
  2
DOTX2
 70
     0
  3
Dot (2x) .  .  .  .  .  .  .  .  .  .  .  .  . 
 72
    65
 73
     2
 40
0.5
 49
0.0
 74
     0
 49
-0.5
 74
     0
  0
LTYPE
  5
9D
330
5
100
AcDbSymbolTableRecord
100
AcDbLinetypeTableRecord
  2
HIDDEN
 70
     0
  3
Hidden __ __ __ __ __ __ __ __ __ __ __ __ __ _
 72
    65
 73
     2
 40
0.375
 49
0.25
 74
     0
 49
-0.125
 74
     0
  0
LTYPE
  5
9E
330
5
100
AcDbSymbolTableRecord
100
AcDbLinetypeTableRecord
  2
HIDDEN2
 70
     0
  3
Hidden (.5x) _ _ _ _ _ _ _ _ _ _ _ _ _ _ _ _ _
 72
    65
 73
     2
 40
0.1875
 49
0.125
 74
     0
 49
-0.0625
 74
     0
  0
LTYPE
  5
9F
330
5
100
AcDbSymbolTableRecord
100
AcDbLinetypeTableRecord
  2
HIDDENX2
 70
     0
  3
Hidden (2x) ____ ____ ____ ____ ____ ____ ____
 72
    65
 73
     2
 40
0.75
 49
0.5
 74
     0
 49
-0.25
 74
     0
  0
LTYPE
  5
A0
330
5
100
AcDbSymbolTableRecord
100
AcDbLinetypeTableRecord
  2
PHANTOM
 70
     0
  3
Phantom ______  __  __  ______  __  __  ______
 72
    65
 73
     6
 40
2.5
 49
1.25
 74
     0
 49
-0.25
 74
     0
 49
0.25
 74
     0
 49
-0.25
 74
     0
 49
0.25
 74
     0
 49
-0.25
 74
     0
  0
LTYPE
  5
A1
330
5
100
AcDbSymbolTableRecord
100
AcDbLinetypeTableRecord
  2
PHANTOM2
 70
     0
  3
Phantom (.5x) ___ _ _ ___ _ _ ___ _ _ ___ _ _
 72
    65
 73
     6
 40
1.25
 49
0.625
 74
     0
 49
-0.125
 74
     0
 49
0.125
 74
     0
 49
-0.125
 74
     0
 49
0.125
 74
     0
 49
-0.125
 74
     0
  0
LTYPE
  5
A2
330
5
100
AcDbSymbolTableRecord
100
AcDbLinetypeTableRecord
  2
PHANTOMX2
 70
     0
  3
Phantom (2x) ____________    ____    ____   _
 72
    65
 73
     6
 40
5.0
 49
2.5
 74
     0
 49
-0.5
 74
     0
 49
0.5
 74
     0
 49
-0.5
 74
     0
 49
0.5
 74
     0
 49
-0.5
 74
     0
  0
LTYPE
  5
A3
330
5
100
AcDbSymbolTableRecord
100
AcDbLinetypeTableRecord
  2
ACAD_ISO02W100
 70
     0
  3
ISO dash __ __ __ __ __ __ __ __ __ __ __ __ __
 72
    65
 73
     2
 40
0.59
 49
0.47
 74
     0
 49
-0.12
 74
     0
  0
LTYPE
  5
A4
330
5
100
AcDbSymbolTableRecord
100
AcDbLinetypeTableRecord
  2
ACAD_ISO03W100
 70
     0
  3
ISO dash space __    __    __    __    __    __
 72
    65
 73
     2
 40
1.179999999999999
 49
0.47
 74
     0
 49
-0.71
 74
     0
  0
LTYPE
  5
A5
330
5
100
AcDbSymbolTableRecord
100
AcDbLinetypeTableRecord
  2
ACAD_ISO04W100
 70
     0
  3
ISO long-dash dot ____ . ____ . ____ . ____ . _
 72
    65
 73
     4
 40
1.179999999999999
 49
0.9399999999999998
 74
     0
 49
-0.12
 74
     0
 49
0.0
 74
     0
 49
-0.12
 74
     0
  0
LTYPE
  5
A6
330
5
100
AcDbSymbolTableRecord
100
AcDbLinetypeTableRecord
  2
ACAD_ISO05W100
 70
     0
  3
ISO long-dash double-dot ____ .. ____ .. ____ .
 72
    65
 73
     6
 40
1.299999999999999
 49
0.9399999999999998
 74
     0
 49
-0.12
 74
     0
 49
0.0
 74
     0
 49
-0.12
 74
     0
 49
0.0
 74
     0
 49
-0.12
 74
     0
  0
LTYPE
  5
A7
330
5
100
AcDbSymbolTableRecord
100
AcDbLinetypeTableRecord
  2
ACAD_ISO06W100
 70
     0
  3
ISO long-dash triple-dot ____ ... ____ ... ____
 72
    65
 73
     8
 40
1.419999999999999
 49
0.9399999999999998
 74
     0
 49
-0.12
 74
     0
 49
0.0
 74
     0
 49
-0.12
 74
     0
 49
0.0
 74
     0
 49
-0.12
 74
     0
 49
0.0
 74
     0
 49
-0.12
 74
     0
  0
LTYPE
  5
A8
330
5
100
AcDbSymbolTableRecord
100
AcDbLinetypeTableRecord
  2
ACAD_ISO07W100
 70
     0
  3
ISO dot . . . . . . . . . . . . . . . . . . . .
 72
    65
 73
     2
 40
0.12
 49
0.0
 74
     0
 49
-0.12
 74
     0
  0
LTYPE
  5
A9
330
5
100
AcDbSymbolTableRecord
100
AcDbLinetypeTableRecord
  2
ACAD_ISO08W100
 70
     0
  3
ISO long-dash short-dash ____ __ ____ __ ____ _
 72
    65
 73
     4
 40
0.95
 49
0.47
 74
     0
 49
-0.12
 74
     0
 49
0.24
 74
     0
 49
-0.12
 74
     0
  0
LTYPE
  5
AA
330
5
100
AcDbSymbolTableRecord
100
AcDbLinetypeTableRecord
  2
ACAD_ISO09W100
 70
     0
  3
ISO long-dash double-short-dash ____ __ __ ____
 72
    65
 73
     6
 40
1.31
 49
0.47
 74
     0
 49
-0.12
 74
     0
 49
0.24
 74
     0
 49
-0.12
 74
     0
 49
0.24
 74
     0
 49
-0.12
 74
     0
  0
LTYPE
  5
AB
330
5
100
AcDbSymbolTableRecord
100
AcDbLinetypeTableRecord
  2
ACAD_ISO10W100
 70
     0
  3
ISO dash dot __ . __ . __ . __ . __ . __ . __ .
 72
    65
 73
     4
 40
0.71
 49
0.47
 74
     0
 49
-0.12
 74
     0
 49
0.0
 74
     0
 49
-0.12
 74
     0
  0
LTYPE
  5
AC
330
5
100
AcDbSymbolTableRecord
100
AcDbLinetypeTableRecord
  2
ACAD_ISO11W100
 70
     0
  3
ISO double-dash dot __ __ . __ __ . __ __ . __ 
 72
    65
 73
     6
 40
1.299999999999999
 49
0.47
 74
     0
 49
-0.12
 74
     0
 49
0.47
 74
     0
 49
-0.12
 74
     0
 49
0.0
 74
     0
 49
-0.12
 74
     0
  0
LTYPE
  5
AD
330
5
100
AcDbSymbolTableRecord
100
AcDbLinetypeTableRecord
  2
ACAD_ISO12W100
 70
     0
  3
ISO dash double-dot __ . . __ . . __ . . __ . .
 72
    65
 73
     6
 40
0.8299999999999998
 49
0.47
 74
     0
 49
-0.12
 74
     0
 49
0.0
 74
     0
 49
-0.12
 74
     0
 49
0.0
 74
     0
 49
-0.12
 74
     0
  0
LTYPE
  5
AE
330
5
100
AcDbSymbolTableRecord
100
AcDbLinetypeTableRecord
  2
ACAD_ISO13W100
 70
     0
  3
ISO double-dash double-dot __ __ . . __ __ . . 
 72
    65
 73
     8
 40
1.419999999999999
 49
0.47
 74
     0
 49
-0.12
 74
     0
 49
0.47
 74
     0
 49
-0.12
 74
     0
 49
0.0
 74
     0
 49
-0.12
 74
     0
 49
0.0
 74
     0
 49
-0.12
 74
     0
  0
LTYPE
  5
AF
330
5
100
AcDbSymbolTableRecord
100
AcDbLinetypeTableRecord
  2
ACAD_ISO14W100
 70
     0
  3
ISO dash triple-dot __ . . . __ . . . __ . . . 
 72
    65
 73
     8
 40
0.95
 49
0.47
 74
     0
 49
-0.12
 74
     0
 49
0.0
 74
     0
 49
-0.12
 74
     0
 49
0.0
 74
     0
 49
-0.12
 74
     0
 49
0.0
 74
     0
 49
-0.12
 74
     0
  0
LTYPE
  5
B0
330
5
100
AcDbSymbolTableRecord
100
AcDbLinetypeTableRecord
  2
ACAD_ISO15W100
 70
     0
  3
ISO double-dash triple-dot __ __ . . . __ __ . 
 72
    65
 73
    10
 40
1.539999999999999
 49
0.47
 74
     0
 49
-0.12
 74
     0
 49
0.47
 74
     0
 49
-0.12
 74
     0
 49
0.0
 74
     0
 49
-0.12
 74
     0
 49
0.0
 74
     0
 49
-0.12
 74
     0
 49
0.0
 74
     0
 49
-0.12
 74
     0
  0
LTYPE
  5
B3
330
5
100
AcDbSymbolTableRecord
100
AcDbLinetypeTableRecord
  2
FENCELINE1
 70
     0
  3
Fenceline circle ----0-----0----0-----0----0---
 72
    65
 73
     4
 40
1.45
 49
0.25
 74
     0
 49
-0.1
 74
     4
 75
   133
340
B2
 46
0.1
 50
0.0
 44
-0.1
 45
0.0
 49
-0.1
 74
     0
 49
1.0
 74
     0
  0
LTYPE
  5
B4
330
5
100
AcDbSymbolTableRecord
100
AcDbLinetypeTableRecord
  2
FENCELINE2
 70
     0
  3
Fenceline square ----[]-----[]----[]-----[]----
 72
    65
 73
     4
 40
1.45
 49
0.25
 74
     0
 49
-0.1
 74
     4
 75
   132
340
B2
 46
0.1
 50
0.0
 44
-0.1
 45
0.0
 49
-0.1
 74
     0
 49
1.0
 74
     0
  0
LTYPE
  5
B5
330
5
100
AcDbSymbolTableRecord
100
AcDbLinetypeTableRecord
  2
TRACKS
 70
     0
  3
Tracks -|-|-|-|-|-|-|-|-|-|-|-|-|-|-|-|-|-|-|-|
 72
    65
 73
     2
 40
0.3
 49
0.15
 74
     4
 75
   130
340
B2
 46
0.25
 50
0.0
 44
0.0
 45
0.0
 49
0.15
 74
     0
  0
LTYPE
  5
B6
330
5
100
AcDbSymbolTableRecord
100
AcDbLinetypeTableRecord
  2
BATTING
 70
     0
  3
Batting SSSSSSSSSSSSSSSSSSSSSSSSSSSSSSSSSSSSSSS
 72
    65
 73
     4
 40
0.4001000000000001
 49
0.0001
 74
     0
 49
-0.1
 74
     4
 75
   134
340
B2
 46
0.1
 50
0.0
 44
-0.1
 45
0.0
 49
-0.2
 74
     4
 75
   134
340
B2
 46
0.1
 50
180.0
 44
0.1
 45
0.0
 49
-0.1
 74
     0
  0
LTYPE
  5
B7
330
5
100
AcDbSymbolTableRecord
100
AcDbLinetypeTableRecord
  2
HOT_WATER_SUPPLY
 70
     0
  3
Hot water supply ---- HW ---- HW ---- HW ----
 72
    65
 73
     3
 40
0.9
 49
0.5
 74
     0
 49
-0.2
 74
     2
 75
     0
340
55
 46
0.1
 50
0.0
 44
-0.1
 45
-0.05
  9
HW
 49
-0.2
 74
     0
  0
LTYPE
  5
B8
330
5
100
AcDbSymbolTableRecord
100
AcDbLinetypeTableRecord
  2
GAS_LINE
 70
     0
  3
Gas line ----GAS----GAS----GAS----GAS----GAS---
 72
    65
 73
     3
 40
0.95
 49
0.5
 74
     0
 49
-0.2
 74
     2
 75
     0
340
55
 46
0.1
 50
0.0
 44
-0.1
 45
-0.05
  9
GAS
 49
-0.25
 74
     0
  0
LTYPE
  5
B9
330
5
100
AcDbSymbolTableRecord
100
AcDbLinetypeTableRecord
  2
ZIGZAG
 70
     0
  3
Zig zag /\/\/\/\/\/\/\/\/\/\/\/\/\/\/\/\/\/\/\/
 72
    65
 73
     4
 40
0.8001000000000001
 49
0.0001
 74
     0
 49
-0.2
 74
     4
 75
   131
340
B2
 46
0.2
 50
0.0
 44
-0.2
 45
0.0
 49
-0.4
 74
     4
 75
   131
340
B2
 46
0.2
 50
180.0
 44
0.2
 45
0.0
 49
-0.2
 74
     0
  0
ENDTAB
  0
TABLE
  2
LAYER
  5
2
330
0
100
AcDbSymbolTable
 70
    27
  0
LAYER
  5
54
330
2
100
AcDbSymbolTableRecord
100
AcDbLayerTableRecord
  2
0
 70
     0
 62
     7
  6
Continuous
370
     0
390
F
  0
LAYER
  5
C0
330
2
100
AcDbSymbolTableRecord
100
AcDbLayerTableRecord
  2
Center Mark (ANSI)
 70
     0
 62
     7
  6
Continuous
370
     5
390
F
  0
LAYER
  5
C1
330
2
100
AcDbSymbolTableRecord
100
AcDbLayerTableRecord
  2
Centerline (ANSI)
 70
     0
 62
     7
  6
Continuous
370
     5
390
F
  0
LAYER
  5
C3
330
2
100
AcDbSymbolTableRecord
100
AcDbLayerTableRecord
  2
Dimension (ANSI)
 70
     0
 62
     7
  6
Continuous
370
     5
390
F
  0
LAYER
  5
C5
330
2
100
AcDbSymbolTableRecord
100
AcDbLayerTableRecord
  2
Hidden (ANSI)
 70
     0
 62
     7
  6
DASHED
370
     5
390
F
  0
LAYER
  5
CC
330
2
100
AcDbSymbolTableRecord
100
AcDbLayerTableRecord
  2
Symbol (ANSI)
 70
     0
 62
     7
  6
Continuous
370
     5
390
F
  0
LAYER
  5
CF
330
2
100
AcDbSymbolTableRecord
100
AcDbLayerTableRecord
  2
Visible (ANSI)
 70
     0
 62
     7
  6
Continuous
370
     5
390
F
  0
LAYER
  5
D0
330
2
100
AcDbSymbolTableRecord
100
AcDbLayerTableRecord
  2
Visible Narrow (ANSI)
 70
     0
 62
     7
  6
Continuous
370
     5
390
F
  0
LAYER
  5
19C
330
2
100
AcDbSymbolTableRecord
100
AcDbLayerTableRecord
  2
Defpoints
 70
     0
 62
     7
  6
Continuous
290
     0
370
    -3
390
F
  0
ENDTAB
  0
TABLE
  2
STYLE
  5
3
330
0
100
AcDbSymbolTable
 70
    10
  0
STYLE
  5
55
330
3
100
AcDbSymbolTableRecord
100
AcDbTextStyleTableRecord
  2
Standard
 70
     0
 40
0.0
 41
1.0
 50
0.0
 71
     0
 42
0.2
  3
txt
  4

  0
STYLE
  5
5A
330
3
100
AcDbSymbolTableRecord
100
AcDbTextStyleTableRecord
  2
Annotative
 70
     0
 40
0.0
 41
1.0
 50
0.0
 71
     0
 42
0.2
  3
txt
  4

1001
AcadAnnotative
1000
AnnotativeData
1002
{
1070
     1
1070
     1
1002
}
  0
STYLE
  5
B2
330
3
100
AcDbSymbolTableRecord
100
AcDbTextStyleTableRecord
  2

 70
     1
 40
0.0
 41
1.0
 50
0.0
 71
     0
 42
0.2
  3
ltypeshp.shx
  4

  0
STYLE
  5
D4
330
3
100
AcDbSymbolTableRecord
100
AcDbTextStyleTableRecord
  2
ITALICC_120
 70
     0
 40
0.0
 41
1.0
 50
0.0
 71
     0
 42
0.2
  3
italicc.shx
  4

  0
STYLE
  5
D5
330
3
100
AcDbSymbolTableRecord
100
AcDbTextStyleTableRecord
  2
Label Text (ANSI)
 70
     0
 40
0.0
 41
1.0
 50
0.0
 71
     0
 42
0.2
  3
TAHOMA.TTF
  4

1001
ACAD
1000
Tahoma
1071
      256
  0
STYLE
  5
D6
330
3
100
AcDbSymbolTableRecord
100
AcDbTextStyleTableRecord
  2
Note Text (ANSI)
 70
     0
 40
0.0
 41
1.0
 50
0.0
 71
     0
 42
0.2
  3
RomanS.shx
  4

  0
STYLE
  5
D7
330
3
100
AcDbSymbolTableRecord
100
AcDbTextStyleTableRecord
  2
ROMANS
 70
     0
 40
0.0
 41
1.0
 50
0.0
 71
     0
 42
0.2
  3
romans.shx
  4

  0
STYLE
  5
D8
330
3
100
AcDbSymbolTableRecord
100
AcDbTextStyleTableRecord
  2
SANSSERIF_114
 70
     0
 40
0.0
 41
1.0
 50
0.0
 71
     0
 42
0.2
  3
TAHOMA.TTF
  4

1001
ACAD
1000
Tahoma
1071
      256
  0
STYLE
  5
D9
330
3
100
AcDbSymbolTableRecord
100
AcDbTextStyleTableRecord
  2
SANSSERIF_117
 70
     0
 40
0.0
 41
1.0
 50
0.0
 71
     0
 42
0.2
  3
TAHOMA.TTF
  4

1001
ACAD
1000
Tahoma
1071
      256
  0
STYLE
  5
12D
330
3
100
AcDbSymbolTableRecord
100
AcDbTextStyleTableRecord
  2
Text Style168
 70
     0
 40
0.0
 41
1.0
 50
0.0
 71
     0
 42
0.2
  3
TAHOMA.TTF
  4

1001
ACAD
1000
Tahoma
1071
      256
  0
ENDTAB
  0
TABLE
  2
VIEW
  5
6
330
0
100
AcDbSymbolTable
 70
     0
  0
ENDTAB
  0
TABLE
  2
UCS
  5
7
330
0
100
AcDbSymbolTable
 70
     0
  0
ENDTAB
  0
TABLE
  2
APPID
  5
9
330
0
100
AcDbSymbolTable
 70
     4
  0
APPID
  5
56
330
9
100
AcDbSymbolTableRecord
100
AcDbRegAppTableRecord
  2
ACAD
 70
     0
  0
APPID
  5
5E
330
9
100
AcDbSymbolTableRecord
100
AcDbRegAppTableRecord
  2
AcadAnnotative
 70
     0
  0
APPID
  5
806
330
9
100
AcDbSymbolTableRecord
100
AcDbRegAppTableRecord
  2
ACAD_DSTYLE_DIMRADIAL_EXTENSION
 70
     0
  0
APPID
  5
E29
330
9
100
AcDbSymbolTableRecord
100
AcDbRegAppTableRecord
  2
ACAD_MLEADERVER
 70
     0
  0
ENDTAB
  0
TABLE
  2
DIMSTYLE
  5
A
330
0
100
AcDbSymbolTable
 70
    15
100
AcDbDimStyleTable
 71
     2
340
E2
340
58
  0
DIMSTYLE
105
58
330
A
100
AcDbSymbolTableRecord
100
AcDbDimStyleTableRecord
  2
Standard
 70
     0
340
55
  0
DIMSTYLE
105
59
330
A
100
AcDbSymbolTableRecord
100
AcDbDimStyleTableRecord
  2
Annotative
 70
     0
340
55
1001
AcadAnnotative
1000
AnnotativeData
1002
{
1070
     1
1070
     1
1002
}
  0
DIMSTYLE
105
DA
330
A
100
AcDbSymbolTableRecord
100
AcDbDimStyleTableRecord
  2
Architectural (ANSI)
 70
     0
 40
4.210526315789473
 41
0.0984251946210861
 43
0.2362204724409449
 44
0.125
 45
0.00000001
 46
0.3937007874015748
 78
     3
 79
     3
140
0.1000000014901161
146
1.200000029802321
147
0.031496062992126
171
     1
176
   256
177
   256
178
   256
272
     2
274
     1
276
     2
277
     4
284
    12
285
     4
286
    12
340
D6
371
    -1
372
    -1
  0
DIMSTYLE
105
DB
330
A
100
AcDbSymbolTableRecord
100
AcDbDimStyleTableRecord
  2
Architectural (ANSI)$7
 70
     0
 40
4.210526315789473
 41
0.0984251946210861
 43
0.2362204724409449
 44
0.125
 45
0.00000001
 46
0.3937007874015748
 78
     3
 79
     3
140
0.1000000014901161
146
1.200000029802321
147
0.031496062992126
171
     1
176
   256
177
   256
178
   256
272
     2
274
     1
276
     2
277
     4
284
    12
285
     4
286
    12
340
D6
371
    -1
372
    -1
  0
DIMSTYLE
105
DC
330
A
100
AcDbSymbolTableRecord
100
AcDbDimStyleTableRecord
  2
Default - Fraction (ANSI)
 70
     0
 40
4.210526315789473
 41
0.0984251946210861
 43
0.2362204724409449
 44
0.125
 45
0.00000001
 46
0.3937007874015748
 79
     3
140
0.1000000014901161
146
1.200000029802321
147
0.031496062992126
171
     1
176
   256
177
   256
178
   256
272
     2
274
     1
276
     2
277
     5
284
    12
285
     4
286
    12
340
D6
371
    -1
372
    -1
  0
DIMSTYLE
105
DD
330
A
100
AcDbSymbolTableRecord
100
AcDbDimStyleTableRecord
  2
Default - Fraction (ANSI)$7
 70
     0
 40
4.210526315789473
 41
0.0984251946210861
 43
0.2362204724409449
 44
0.125
 45
0.00000001
 46
0.3937007874015748
 79
     3
140
0.1000000014901161
146
1.200000029802321
147
0.031496062992126
171
     1
176
   256
177
   256
178
   256
272
     2
274
     1
276
     2
277
     5
284
    12
285
     4
286
    12
340
D6
371
    -1
372
    -1
  0
DIMSTYLE
105
DE
330
A
100
AcDbSymbolTableRecord
100
AcDbDimStyleTableRecord
  2
Default - mm (ANSI)
 70
     0
 40
4.210526315789473
 41
0.0984251946210861
 42
0.063
 43
0.2362204724409449
 44
0.125
 45
0.00000001
 46
0.3937007874015748
 73
     0
 78
     4
 79
     1
140
0.1000000014901161
143
1.0
144
25.4
146
1.200000029802321
147
0.031496062992126
171
     1
176
   256
177
   256
178
   256
179
     1
271
     2
272
     2
274
     1
284
     4
285
     4
340
D6
371
    -1
372
    -1
  0
DIMSTYLE
105
DF
330
A
100
AcDbSymbolTableRecord
100
AcDbDimStyleTableRecord
  2
Default - mm (ANSI)$7
 70
     0
 40
4.210526315789473
 41
0.0984251946210861
 42
0.063
 43
0.2362204724409449
 44
0.125
 45
0.00000001
 46
0.3937007874015748
 73
     0
 78
     4
 79
     1
140
0.1000000014901161
143
1.0
144
25.4
146
1.200000029802321
147
0.031496062992126
171
     1
176
   256
177
   256
178
   256
179
     1
271
     2
272
     2
274
     1
284
     4
285
     4
340
D6
371
    -1
372
    -1
  0
DIMSTYLE
105
E0
330
A
100
AcDbSymbolTableRecord
100
AcDbDimStyleTableRecord
  2
Default - mm [in] (ANSI)
 70
     0
  4
 in
 40
4.210526315789473
 41
0.0984251946210861
 42
0.063
 43
0.25
 44
0.125
 45
0.00000001
 46
0.3937007874015748
 73
     0
 78
     4
 79
     1
140
0.1000000014901161
143
0.03937
144
25.4
146
1.200000029802321
147
0.031496062992126
170
     1
171
     3
176
   256
177
   256
178
   256
179
     1
271
     2
272
     2
274
     3
284
     4
285
     4
286
     4
340
D6
371
    -1
372
    -1
  0
DIMSTYLE
105
E1
330
A
100
AcDbSymbolTableRecord
100
AcDbDimStyleTableRecord
  2
Default - mm [in] (ANSI)$7
 70
     0
  4
 in
 40
4.210526315789473
 41
0.0984251946210861
 42
0.063
 43
0.25
 44
0.125
 45
0.00000001
 46
0.3937007874015748
 73
     0
 78
     4
 79
     1
140
0.1000000014901161
143
0.03937
144
25.4
146
1.200000029802321
147
0.031496062992126
170
     1
171
     3
176
   256
177
   256
178
   256
179
     1
271
     2
272
     2
274
     3
284
     4
285
     4
286
     4
340
D6
371
    -1
372
    -1
  0
DIMSTYLE
105
E2
102
{ACAD_REACTORS
330
19A
330
287
330
371
330
46F
330
559
330
657
330
76D
330
817
330
8C0
330
9D6
330
AE8
330
BE6
330
CFE
102
}
330
A
100
AcDbSymbolTableRecord
100
AcDbDimStyleTableRecord
  2
Default (ANSI)
 70
     0
 40
4.210526315789473
 41
0.0984251946210861
 43
0.2362204724409449
 44
0.125
 45
0.00000001
 46
0.3937007874015748
140
0.1000000014901161
147
0.031496062992126
176
   256
177
   256
178
   256
271
     2
272
     2
340
D7
371
    -1
372
    -1
  0
DIMSTYLE
105
E3
330
A
100
AcDbSymbolTableRecord
100
AcDbDimStyleTableRecord
  2
Default (ANSI)$7
 70
     0
 40
4.210526315789473
 41
0.0984251946210861
 43
0.2362204724409449
 44
0.125
 45
0.00000001
 46
0.3937007874015748
140
0.1000000014901161
147
0.031496062992126
176
   256
177
   256
178
   256
271
     2
272
     2
340
D7
371
    -1
372
    -1
  0
DIMSTYLE
105
E4
330
A
100
AcDbSymbolTableRecord
100
AcDbDimStyleTableRecord
  2
Alternate (ANSI)
 70
     0
 40
4.210526315789473
 41
0.0979999974370003
340
55
342
E5
  0
DIMSTYLE
105
F7
330
A
100
AcDbSymbolTableRecord
100
AcDbDimStyleTableRecord
  2
Datum (ANSI)
 70
     0
 40
4.210526315789473
 41
0.0979999974370003
340
55
342
E5
  0
DIMSTYLE
105
106
330
A
100
AcDbSymbolTableRecord
100
AcDbDimStyleTableRecord
  2
Large (ANSI)
 70
     0
 40
4.210526315789473
 41
0.1959999948740005
340
55
342
E5
  0
ENDTAB
  0
TABLE
  2
BLOCK_RECORD
  5
1
330
0
100
AcDbSymbolTable
 70
    17
  0
BLOCK_RECORD
  5
6C
330
1
100
AcDbSymbolTableRecord
100
AcDbBlockTableRecord
  2
*Model_Space
340
6F
  0
BLOCK_RECORD
  5
68
330
1
100
AcDbSymbolTableRecord
100
AcDbBlockTableRecord
  2
*Paper_Space
340
6B
  0
BLOCK_RECORD
  5
70
330
1
100
AcDbSymbolTableRecord
100
AcDbBlockTableRecord
  2
*Paper_Space0
340
73
  0
BLOCK_RECORD
  5
E5
330
1
100
AcDbSymbolTableRecord
100
AcDbBlockTableRecord
  2
_Closed
340
0
  0
BLOCK_RECORD
  5
EC
330
1
100
AcDbSymbolTableRecord
100
AcDbBlockTableRecord
  2
DatumFilled45
340
0
  0
BLOCK_RECORD
  5
F8
330
1
100
AcDbSymbolTableRecord
100
AcDbBlockTableRecord
  2
Filled-1
340
0
  0
BLOCK_RECORD
  5
19D
330
1
100
AcDbSymbolTableRecord
100
AcDbBlockTableRecord
  2
*D4
340
0
  0
BLOCK_RECORD
  5
288
330
1
100
AcDbSymbolTableRecord
100
AcDbBlockTableRecord
  2
*D5
340
0
  0
BLOCK_RECORD
  5
372
330
1
100
AcDbSymbolTableRecord
100
AcDbBlockTableRecord
  2
*D6
340
0
  0
BLOCK_RECORD
  5
470
330
1
100
AcDbSymbolTableRecord
100
AcDbBlockTableRecord
  2
*D7
340
0
  0
BLOCK_RECORD
  5
55A
330
1
100
AcDbSymbolTableRecord
100
AcDbBlockTableRecord
  2
*D8
340
0
  0
BLOCK_RECORD
  5
658
330
1
100
AcDbSymbolTableRecord
100
AcDbBlockTableRecord
  2
*D9
340
0
  0
BLOCK_RECORD
  5
76E
330
1
100
AcDbSymbolTableRecord
100
AcDbBlockTableRecord
  2
*D10
340
0
  0
BLOCK_RECORD
  5
818
330
1
100
AcDbSymbolTableRecord
100
AcDbBlockTableRecord
  2
*D11
340
0
  0
BLOCK_RECORD
  5
8C1
330
1
100
AcDbSymbolTableRecord
100
AcDbBlockTableRecord
  2
*D12
340
0
  0
BLOCK_RECORD
  5
9D7
330
1
100
AcDbSymbolTableRecord
100
AcDbBlockTableRecord
  2
*D13
340
0
  0
BLOCK_RECORD
  5
AE9
330
1
100
AcDbSymbolTableRecord
100
AcDbBlockTableRecord
  2
*D14
340
0
  0
BLOCK_RECORD
  5
BE7
330
1
100
AcDbSymbolTableRecord
100
AcDbBlockTableRecord
  2
*D15
340
0
  0
BLOCK_RECORD
  5
CFF
330
1
100
AcDbSymbolTableRecord
100
AcDbBlockTableRecord
  2
*D16
340
0
  0
ENDTAB
  0
ENDSEC
  0
SECTION
  2
BLOCKS
  0
BLOCK
  5
6D
330
6C
100
AcDbEntity
  8
0
100
AcDbBlockBegin
  2
*Model_Space
 70
     0
 10
0.0
 20
0.0
 30
0.0
  3
*Model_Space
  1

  0
ENDBLK
  5
6E
330
6C
100
AcDbEntity
  8
0
100
AcDbBlockEnd
  0
BLOCK
  5
69
330
68
100
AcDbEntity
 67
     1
  8
0
100
AcDbBlockBegin
  2
*Paper_Space
 70
     0
 10
0.0
 20
0.0
 30
0.0
  3
*Paper_Space
  1

  0
ENDBLK
  5
6A
330
68
100
AcDbEntity
 67
     1
  8
0
100
AcDbBlockEnd
  0
BLOCK
  5
71
330
70
100
AcDbEntity
 67
     1
  8
0
100
AcDbBlockBegin
  2
*Paper_Space0
 70
     0
 10
0.0
 20
0.0
 30
0.0
  3
*Paper_Space0
  1

  0
ENDBLK
  5
72
330
70
100
AcDbEntity
 67
     1
  8
0
100
AcDbBlockEnd
  0
BLOCK
  5
EA
330
E5
100
AcDbEntity
  8
0
100
AcDbBlockBegin
  2
_Closed
 70
     0
 10
0.0
 20
0.0
 30
0.0
  3
_Closed
  1

  0
LINE
  5
E6
330
E5
100
AcDbEntity
  8
0
  6
ByBlock
 62
     0
370
    -2
100
AcDbLine
 10
-1.0
 20
0.1666666666666666
 30
0.0
 11
0.0
 21
0.0
 31
0.0
  0
LINE
  5
E7
330
E5
100
AcDbEntity
  8
0
  6
ByBlock
 62
     0
370
    -2
100
AcDbLine
 10
0.0
 20
0.0
 30
0.0
 11
-1.0
 21
-0.1666666666666666
 31
0.0
  0
LINE
  5
E8
330
E5
100
AcDbEntity
  8
0
  6
ByBlock
 62
     0
370
    -2
100
AcDbLine
 10
-1.0
 20
0.1666666666666666
 30
0.0
 11
-1.0
 21
-0.1666666666666666
 31
0.0
  0
LINE
  5
E9
330
E5
100
AcDbEntity
  8
0
  6
ByBlock
 62
     0
370
    -2
100
AcDbLine
 10
0.0
 20
0.0
 30
0.0
 11
-1.0
 21
0.0
 31
0.0
  0
ENDBLK
  5
EB
330
E5
100
AcDbEntity
  8
0
100
AcDbBlockEnd
  0
BLOCK
  5
ED
330
EC
100
AcDbEntity
  8
0
100
AcDbBlockBegin
  2
DatumFilled45
 70
     0
 10
0.0
 20
0.0
 30
0.0
  3
DatumFilled45
  1

  0
POLYLINE
  5
EF
330
EC
100
AcDbEntity
  8
0
 62
     0
100
AcDb2dPolyline
 66
     1
 10
0.0
 20
0.0
 30
0.0
 70
   128
  0
VERTEX
  5
F0
330
EF
100
AcDbEntity
  8
0
 62
     0
100
AcDbVertex
100
AcDb2dVertex
 10
0.0
 20
0.9999999999999998
 30
0.0
  0
VERTEX
  5
F1
330
EF
100
AcDbEntity
  8
0
 62
     0
100
AcDbVertex
100
AcDb2dVertex
 10
0.0
 20
-0.9999999999999998
 30
0.0
  0
VERTEX
  5
F3
330
EF
100
AcDbEntity
  8
0
 62
     0
100
AcDbVertex
100
AcDb2dVertex
 10
-0.9999999999999998
 20
0.0
 30
0.0
  0
VERTEX
  5
F4
330
EF
100
AcDbEntity
  8
0
 62
     0
100
AcDbVertex
100
AcDb2dVertex
 10
0.0
 20
0.9999999999999998
 30
0.0
  0
SEQEND
  5
F2
330
EF
100
AcDbEntity
  8
0
 62
     0
  0
SOLID
  5
F6
330
EC
100
AcDbEntity
  8
0
 62
     0
100
AcDbTrace
 10
0.0
 20
0.9999999999999998
 30
0.0
 11
0.0
 21
-0.9999999999999998
 31
0.0
 12
-0.9999999999999998
 22
0.0
 32
0.0
 13
0.0
 23
0.9999999999999998
 33
0.0
  0
ENDBLK
  5
EE
330
EC
100
AcDbEntity
  8
0
100
AcDbBlockEnd
  0
BLOCK
  5
F9
330
F8
100
AcDbEntity
  8
0
100
AcDbBlockBegin
  2
Filled-1
 70
     0
 10
0.0
 20
0.0
 30
0.0
  3
Filled-1
  1

  0
LINE
  5
FB
330
F8
100
AcDbEntity
  8
0
 62
     0
100
AcDbLine
 10
-0.9999999999999998
 20
0.0
 30
0.0
 11
0.0
 21
0.0
 31
0.0
  0
POLYLINE
  5
FC
330
F8
100
AcDbEntity
  8
0
 62
     0
100
AcDb2dPolyline
 66
     1
 10
0.0
 20
0.0
 30
0.0
 70
   128
  0
VERTEX
  5
FD
330
FC
100
AcDbEntity
  8
0
 62
     0
100
AcDbVertex
100
AcDb2dVertex
 10
-0.9999999999999998
 20
-0.0994897959183674
 30
0.0
  0
VERTEX
  5
FE
330
FC
100
AcDbEntity
  8
0
 62
     0
100
AcDbVertex
100
AcDb2dVertex
 10
0.0
 20
0.0
 30
0.0
  0
VERTEX
  5
100
330
FC
100
AcDbEntity
  8
0
 62
     0
100
AcDbVertex
100
AcDb2dVertex
 10
-0.9999999999999998
 20
0.0994897959183674
 30
0.0
  0
VERTEX
  5
101
330
FC
100
AcDbEntity
  8
0
 62
     0
100
AcDbVertex
100
AcDb2dVertex
 10
-0.9999999999999998
 20
-0.0994897959183674
 30
0.0
  0
SEQEND
  5
FF
330
FC
100
AcDbEntity
  8
0
 62
     0
  0
SOLID
  5
102
330
F8
100
AcDbEntity
  8
0
 62
     0
100
AcDbTrace
 10
-0.9999999999999998
 20
-0.0994897959183674
 30
0.0
 11
0.0
 21
0.0
 31
0.0
 12
-0.9999999999999998
 22
0.0994897959183674
 32
0.0
 13
-0.9999999999999998
 23
-0.0994897959183674
 33
0.0
  0
LINE
  5
103
330
F8
100
AcDbEntity
  8
0
 62
     0
100
AcDbLine
 10
-0.9999999999999998
 20
-0.0994897959183674
 30
0.0
 11
0.0
 21
0.0
 31
0.0
  0
LINE
  5
104
330
F8
100
AcDbEntity
  8
0
 62
     0
100
AcDbLine
 10
0.0
 20
0.0
 30
0.0
 11
-0.9999999999999998
 21
0.0994897959183674
 31
0.0
  0
LINE
  5
105
330
F8
100
AcDbEntity
  8
0
 62
     0
100
AcDbLine
 10
-0.9999999999999998
 20
0.0994897959183674
 30
0.0
 11
-0.9999999999999998
 21
-0.0994897959183674
 31
0.0
  0
ENDBLK
  5
FA
330
F8
100
AcDbEntity
  8
0
100
AcDbBlockEnd
  0
BLOCK
  5
19E
330
19D
100
AcDbEntity
  8
0
100
AcDbBlockBegin
  2
*D4
 70
     1
 10
0.0
 20
0.0
 30
0.0
  3
*D4
  1

  0
LINE
  5
27D
330
19D
100
AcDbEntity
  8
Dimension (ANSI)
100
AcDbLine
 10
13.09800070321412
 20
37.41422937339749
 30
0.0
 11
13.09800070321412
 21
42.64294523697907
 31
0.0
  0
LINE
  5
27E
330
19D
100
AcDbEntity
  8
Dimension (ANSI)
100
AcDbLine
 10
31.29800070321412
 20
37.41422937339749
 30
0.0
 11
31.29800070321412
 21
42.64294523697907
 31
0.0
  0
LINE
  5
27F
330
19D
100
AcDbEntity
  8
Dimension (ANSI)
100
AcDbLine
 10
13.51242257530291
 20
42.11662944750538
 30
0.0
 11
21.25335561385385
 21
42.11662944750538
 31
0.0
  0
LINE
  5
280
330
19D
100
AcDbEntity
  8
Dimension (ANSI)
100
AcDbLine
 10
30.88357883112534
 20
42.11662944750538
 30
0.0
 11
23.1426457925744
 21
42.11662944750538
 31
0.0
  0
SOLID
  5
281
330
19D
100
AcDbEntity
  8
Dimension (ANSI)
100
AcDbTrace
 10
13.51242257530291
 20
42.18569975952018
 30
0.0
 11
13.51242257530291
 21
42.04755913549059
 31
0.0
 12
13.09800070321412
 22
42.11662944750538
 32
0.0
 13
13.09800070321412
 23
42.11662944750538
 33
0.0
  0
SOLID
  5
282
330
19D
100
AcDbEntity
  8
Dimension (ANSI)
100
AcDbTrace
 10
30.88357883112534
 20
42.18569975952018
 30
0.0
 11
30.88357883112534
 21
42.04755913549059
 31
0.0
 12
31.29800070321412
 22
42.11662944750538
 32
0.0
 13
31.29800070321412
 23
42.11662944750538
 33
0.0
  0
MTEXT
  5
283
330
19D
100
AcDbEntity
  8
Dimension (ANSI)
100
AcDbMText
 10
21.38597061592597
 20
42.32715576643195
 30
0.0
 40
0.4210526378531205
 41
0.0
 71
     1
 72
     1
  1
\A1;18.20
  7
ROMANS
 73
     1
 44
1.0
1001
ACAD
1000
MTEXTBEGIN
1070
    73
1070
     1
1070
    44
1040
1.0
1070
    74
1070
     0
1000
MTEXTEND
  0
POINT
  5
284
330
19D
100
AcDbEntity
  8
Defpoints
 62
     0
100
AcDbPoint
 10
13.09800070321412
 20
37.15107147866065
 30
0.0
  0
POINT
  5
285
330
19D
100
AcDbEntity
  8
Defpoints
 62
     0
100
AcDbPoint
 10
31.29800070321412
 20
37.15107147866065
 30
0.0
  0
POINT
  5
286
330
19D
100
AcDbEntity
  8
Defpoints
 62
     0
100
AcDbPoint
 10
31.29800070321412
 20
42.11662944750538
 30
0.0
  0
ENDBLK
  5
19F
330
19D
100
AcDbEntity
  8
0
100
AcDbBlockEnd
  0
BLOCK
  5
289
330
288
100
AcDbEntity
  8
0
100
AcDbBlockBegin
  2
*D5
 70
     1
 10
0.0
 20
0.0
 30
0.0
  3
*D5
  1

  0
LINE
  5
367
330
288
100
AcDbEntity
  8
Dimension (ANSI)
100
AcDbLine
 10
13.59800070321412
 20
37.91422937339749
 30
0.0
 11
13.59800070321412
 21
41.32699356734693
 31
0.0
  0
LINE
  5
368
330
288
100
AcDbEntity
  8
Dimension (ANSI)
100
AcDbLine
 10
30.79800070321412
 20
37.91422937339749
 30
0.0
 11
30.79800070321412
 21
41.32699356734693
 31
0.0
  0
LINE
  5
369
330
288
100
AcDbEntity
  8
Dimension (ANSI)
100
AcDbLine
 10
14.01242257530291
 20
40.80067777787324
 30
0.0
 11
20.40122527534158
 21
40.80067777787324
 31
0.0
  0
LINE
  5
36A
330
288
100
AcDbEntity
  8
Dimension (ANSI)
100
AcDbLine
 10
30.38357883112534
 20
40.80067777787324
 30
0.0
 11
23.99477613108666
 21
40.80067777787324
 31
0.0
  0
SOLID
  5
36B
330
288
100
AcDbEntity
  8
Dimension (ANSI)
100
AcDbTrace
 10
14.01242257530291
 20
40.86974808988804
 30
0.0
 11
14.01242257530291
 21
40.73160746585845
 31
0.0
 12
13.59800070321412
 22
40.80067777787324
 32
0.0
 13
13.59800070321412
 23
40.80067777787324
 33
0.0
  0
SOLID
  5
36C
330
288
100
AcDbEntity
  8
Dimension (ANSI)
100
AcDbTrace
 10
30.38357883112534
 20
40.86974808988804
 30
0.0
 11
30.38357883112534
 21
40.73160746585845
 31
0.0
 12
30.79800070321412
 22
40.80067777787324
 32
0.0
 13
30.79800070321412
 23
40.80067777787324
 33
0.0
  0
MTEXT
  5
36D
330
288
100
AcDbEntity
  8
Dimension (ANSI)
100
AcDbMText
 10
22.19800070321412
 20
40.80067777787324
 30
0.0
 40
0.4210526378531205
 41
0.0
 71
     5
 72
     1
  1
\A1;17.20{ TYP.}
  7
ROMANS
 73
     1
 44
1.0
1001
ACAD
1000
MTEXTBEGIN
1070
    73
1070
     1
1070
    44
1040
1.0
1070
    74
1070
     0
1000
MTEXTEND
  0
POINT
  5
36E
330
288
100
AcDbEntity
  8
Defpoints
 62
     0
100
AcDbPoint
 10
13.59800070321412
 20
37.65107147866065
 30
0.0
  0
POINT
  5
36F
330
288
100
AcDbEntity
  8
Defpoints
 62
     0
100
AcDbPoint
 10
30.79800070321412
 20
37.65107147866065
 30
0.0
  0
POINT
  5
370
330
288
100
AcDbEntity
  8
Defpoints
 62
     0
100
AcDbPoint
 10
30.79800070321412
 20
40.80067777787324
 30
0.0
  0
ENDBLK
  5
28A
330
288
100
AcDbEntity
  8
0
100
AcDbBlockEnd
  0
BLOCK
  5
373
330
372
100
AcDbEntity
  8
0
100
AcDbBlockBegin
  2
*D6
 70
     1
 10
0.0
 20
0.0
 30
0.0
  3
*D6
  1

  0
LINE
  5
465
330
372
100
AcDbEntity
  8
Dimension (ANSI)
100
AcDbLine
 10
13.09800070321412
 20
37.41422937339749
 30
0.0
 11
13.09800070321412
 21
41.32699356734693
 31
0.0
  0
LINE
  5
466
330
372
100
AcDbEntity
  8
Dimension (ANSI)
100
AcDbLine
 10
13.59800070321412
 20
37.91422937339749
 30
0.0
 11
13.59800070321412
 21
41.32699356734693
 31
0.0
  0
LINE
  5
467
330
372
100
AcDbEntity
  8
Dimension (ANSI)
100
AcDbLine
 10
14.01242257530291
 20
40.80067777787324
 30
0.0
 11
14.42684444739169
 21
40.80067777787324
 31
0.0
  0
LINE
  5
468
330
372
100
AcDbEntity
  8
Dimension (ANSI)
100
AcDbLine
 10
12.68357883112534
 20
40.80067777787324
 30
0.0
 11
12.26915695903656
 21
40.80067777787324
 31
0.0
  0
SOLID
  5
469
330
372
100
AcDbEntity
  8
Dimension (ANSI)
100
AcDbTrace
 10
14.01242257530291
 20
40.86974808988804
 30
0.0
 11
14.01242257530291
 21
40.73160746585845
 31
0.0
 12
13.59800070321412
 22
40.80067777787324
 32
0.0
 13
13.59800070321412
 23
40.80067777787324
 33
0.0
  0
SOLID
  5
46A
330
372
100
AcDbEntity
  8
Dimension (ANSI)
100
AcDbTrace
 10
12.68357883112534
 20
40.86974808988804
 30
0.0
 11
12.68357883112534
 21
40.73160746585845
 31
0.0
 12
13.09800070321412
 22
40.80067777787324
 32
0.0
 13
13.09800070321412
 23
40.80067777787324
 33
0.0
  0
MTEXT
  5
46B
330
372
100
AcDbEntity
  8
Dimension (ANSI)
100
AcDbMText
 10
11.49493793737874
 20
40.80067777787324
 30
0.0
 40
0.4210526378531205
 41
0.0
 71
     5
 72
     1
  1
\A1;0.50{\PTYP.}
  7
ROMANS
 73
     1
 44
1.0
1001
ACAD
1000
MTEXTBEGIN
1070
    73
1070
     1
1070
    44
1040
1.0
1070
    74
1070
     0
1000
MTEXTEND
  0
POINT
  5
46C
330
372
100
AcDbEntity
  8
Defpoints
 62
     0
100
AcDbPoint
 10
13.09800070321412
 20
37.15107147866065
 30
0.0
  0
POINT
  5
46D
330
372
100
AcDbEntity
  8
Defpoints
 62
     0
100
AcDbPoint
 10
13.59800070321412
 20
37.65107147866065
 30
0.0
  0
POINT
  5
46E
330
372
100
AcDbEntity
  8
Defpoints
 62
     0
100
AcDbPoint
 10
13.59800070321412
 20
40.80067777787324
 30
0.0
  0
ENDBLK
  5
374
330
372
100
AcDbEntity
  8
0
100
AcDbBlockEnd
  0
BLOCK
  5
471
330
470
100
AcDbEntity
  8
0
100
AcDbBlockBegin
  2
*D7
 70
     1
 10
0.0
 20
0.0
 30
0.0
  3
*D7
  1

  0
LINE
  5
54F
330
470
100
AcDbEntity
  8
Dimension (ANSI)
100
AcDbLine
 10
13.33484280847728
 20
37.65107147866065
 30
0.0
 11
6.440934810134989
 21
37.65107147866065
 31
0.0
  0
LINE
  5
550
330
470
100
AcDbEntity
  8
Dimension (ANSI)
100
AcDbLine
 10
13.33484280847729
 20
9.451071478660651
 30
0.0
 11
6.440934810134983
 21
9.451071478660653
 31
0.0
  0
LINE
  5
551
330
470
100
AcDbEntity
  8
Dimension (ANSI)
100
AcDbLine
 10
6.967250599608673
 20
37.23664960657187
 30
0.0
 11
6.967250599608671
 21
23.89421279965932
 31
0.0
  0
LINE
  5
552
330
470
100
AcDbEntity
  8
Dimension (ANSI)
100
AcDbLine
 10
6.967250599608667
 20
9.865493350749437
 30
0.0
 11
6.967250599608671
 21
23.20793015766198
 31
0.0
  0
SOLID
  5
553
330
470
100
AcDbEntity
  8
Dimension (ANSI)
100
AcDbTrace
 10
6.898180287593876
 20
37.23664960657187
 30
0.0
 11
7.03632091162347
 21
37.23664960657187
 31
0.0
 12
6.967250599608673
 22
37.65107147866065
 32
0.0
 13
6.967250599608673
 23
37.65107147866065
 33
0.0
  0
SOLID
  5
554
330
470
100
AcDbEntity
  8
Dimension (ANSI)
100
AcDbTrace
 10
6.89818028759387
 20
9.865493350749437
 30
0.0
 11
7.036320911623464
 21
9.865493350749437
 31
0.0
 12
6.967250599608667
 22
9.451071478660653
 32
0.0
 13
6.967250599608667
 23
9.451071478660653
 33
0.0
  0
MTEXT
  5
555
330
470
100
AcDbEntity
  8
Dimension (ANSI)
100
AcDbMText
 10
6.125145323902426
 20
23.76159779758721
 30
0.0
 40
0.4210526378531205
 41
0.0
 71
     1
 72
     1
  1
\A1;28.20
  7
ROMANS
 73
     1
 44
1.0
1001
ACAD
1000
MTEXTBEGIN
1070
    73
1070
     1
1070
    44
1040
1.0
1070
    74
1070
     0
1000
MTEXTEND
  0
POINT
  5
556
330
470
100
AcDbEntity
  8
Defpoints
 62
     0
100
AcDbPoint
 10
13.59800070321412
 20
37.65107147866065
 30
0.0
  0
POINT
  5
557
330
470
100
AcDbEntity
  8
Defpoints
 62
     0
100
AcDbPoint
 10
13.59800070321413
 20
9.451071478660651
 30
0.0
  0
POINT
  5
558
330
470
100
AcDbEntity
  8
Defpoints
 62
     0
100
AcDbPoint
 10
6.967250599608667
 20
9.451071478660653
 30
0.0
  0
ENDBLK
  5
472
330
470
100
AcDbEntity
  8
0
100
AcDbBlockEnd
  0
BLOCK
  5
55B
330
55A
100
AcDbEntity
  8
0
100
AcDbBlockBegin
  2
*D8
 70
     1
 10
0.0
 20
0.0
 30
0.0
  3
*D8
  1

  0
LINE
  5
64D
330
55A
100
AcDbEntity
  8
Dimension (ANSI)
100
AcDbLine
 10
12.83484280847729
 20
9.951071478660651
 30
0.0
 11
10.97959867682157
 21
9.951071478660653
 31
0.0
  0
LINE
  5
64E
330
55A
100
AcDbEntity
  8
Dimension (ANSI)
100
AcDbLine
 10
12.83484280847728
 20
37.15107147866065
 30
0.0
 11
10.97959867682158
 21
37.15107147866065
 31
0.0
  0
LINE
  5
64F
330
55A
100
AcDbEntity
  8
Dimension (ANSI)
100
AcDbLine
 10
11.50591446629525
 20
10.36549335074943
 30
0.0
 11
11.50591446629526
 21
22.85705295945104
 31
0.0
  0
LINE
  5
650
330
55A
100
AcDbEntity
  8
Dimension (ANSI)
100
AcDbLine
 10
11.50591446629526
 20
36.73664960657187
 30
0.0
 11
11.50591446629526
 21
24.24508999787025
 31
0.0
  0
SOLID
  5
651
330
55A
100
AcDbEntity
  8
Dimension (ANSI)
100
AcDbTrace
 10
11.43684415428046
 20
10.36549335074943
 30
0.0
 11
11.57498477831005
 21
10.36549335074943
 31
0.0
 12
11.50591446629525
 22
9.951071478660653
 32
0.0
 13
11.50591446629525
 23
9.951071478660653
 33
0.0
  0
SOLID
  5
652
330
55A
100
AcDbEntity
  8
Dimension (ANSI)
100
AcDbTrace
 10
11.43684415428046
 20
36.73664960657187
 30
0.0
 11
11.57498477831006
 21
36.73664960657187
 31
0.0
 12
11.50591446629526
 22
37.15107147866065
 32
0.0
 13
11.50591446629526
 23
37.15107147866065
 33
0.0
  0
MTEXT
  5
653
330
55A
100
AcDbEntity
  8
Dimension (ANSI)
100
AcDbMText
 10
11.50591446629525
 20
23.55107147866065
 30
0.0
 40
0.4210526378531205
 41
0.0
 71
     5
 72
     1
  1
\A1;27.20{\PTYP.}
  7
ROMANS
 73
     1
 44
1.0
1001
ACAD
1000
MTEXTBEGIN
1070
    73
1070
     1
1070
    44
1040
1.0
1070
    74
1070
     0
1000
MTEXTEND
  0
POINT
  5
654
330
55A
100
AcDbEntity
  8
Defpoints
 62
     0
100
AcDbPoint
 10
13.09800070321413
 20
9.951071478660651
 30
0.0
  0
POINT
  5
655
330
55A
100
AcDbEntity
  8
Defpoints
 62
     0
100
AcDbPoint
 10
13.09800070321412
 20
37.15107147866065
 30
0.0
  0
POINT
  5
656
330
55A
100
AcDbEntity
  8
Defpoints
 62
     0
100
AcDbPoint
 10
11.50591446629526
 20
37.15107147866065
 30
0.0
  0
ENDBLK
  5
55C
330
55A
100
AcDbEntity
  8
0
100
AcDbBlockEnd
  0
BLOCK
  5
659
330
658
100
AcDbEntity
  8
0
100
AcDbBlockBegin
  2
*D9
 70
     1
 10
0.0
 20
0.0
 30
0.0
  3
*D9
  1

  0
LINE
  5
762
330
658
100
AcDbEntity
  8
Dimension (ANSI)
100
AcDbLine
 10
13.33484280847728
 20
37.65107147866065
 30
0.0
 11
9.808240870387551
 21
37.65107147866065
 31
0.0
  0
LINE
  5
763
330
658
100
AcDbEntity
  8
Dimension (ANSI)
100
AcDbLine
 10
12.83484280847728
 20
37.15107147866065
 30
0.0
 11
9.808240870387551
 21
37.15107147866065
 31
0.0
  0
LINE
  5
764
330
658
100
AcDbEntity
  8
Dimension (ANSI)
100
AcDbLine
 10
10.33455665986124
 20
36.73664960657187
 30
0.0
 11
10.33455665986124
 21
36.32222773448308
 31
0.0
  0
LINE
  5
765
330
658
100
AcDbEntity
  8
Dimension (ANSI)
100
AcDbLine
 10
10.33455665986124
 20
38.06549335074943
 30
0.0
 11
10.33455665986124
 21
39.27172919623931
 31
0.0
  0
LINE
  5
766
330
658
100
AcDbEntity
  8
Dimension (ANSI)
100
AcDbLine
 10
10.33455665986124
 20
39.27172919623931
 30
0.0
 11
10.74897853195002
 21
39.27172919623931
 31
0.0
  0
SOLID
  5
767
330
658
100
AcDbEntity
  8
Dimension (ANSI)
100
AcDbTrace
 10
10.26548634784644
 20
36.73664960657187
 30
0.0
 11
10.40362697187603
 21
36.73664960657187
 31
0.0
 12
10.33455665986124
 22
37.15107147866065
 32
0.0
 13
10.33455665986124
 23
37.15107147866065
 33
0.0
  0
SOLID
  5
768
330
658
100
AcDbEntity
  8
Dimension (ANSI)
100
AcDbTrace
 10
10.26548634784644
 20
38.06549335074943
 30
0.0
 11
10.40362697187603
 21
38.06549335074943
 31
0.0
 12
10.33455665986124
 22
37.65107147866065
 32
0.0
 13
10.33455665986124
 23
37.65107147866065
 33
0.0
  0
MTEXT
  5
769
330
658
100
AcDbEntity
  8
Dimension (ANSI)
100
AcDbMText
 10
11.52319755360783
 20
39.27172919623931
 30
0.0
 40
0.4210526378531205
 41
0.0
 71
     5
 72
     1
  1
\A1;0.50{\PTYP.}
  7
ROMANS
 73
     1
 44
1.0
1001
ACAD
1000
MTEXTBEGIN
1070
    73
1070
     1
1070
    44
1040
1.0
1070
    74
1070
     0
1000
MTEXTEND
  0
POINT
  5
76A
330
658
100
AcDbEntity
  8
Defpoints
 62
     0
100
AcDbPoint
 10
13.59800070321412
 20
37.65107147866065
 30
0.0
  0
POINT
  5
76B
330
658
100
AcDbEntity
  8
Defpoints
 62
     0
100
AcDbPoint
 10
13.09800070321412
 20
37.15107147866065
 30
0.0
  0
POINT
  5
76C
330
658
100
AcDbEntity
  8
Defpoints
 62
     0
100
AcDbPoint
 10
10.33455665986124
 20
37.15107147866065
 30
0.0
  0
ENDBLK
  5
65A
330
658
100
AcDbEntity
  8
0
100
AcDbBlockEnd
  0
BLOCK
  5
76F
330
76E
100
AcDbEntity
  8
0
100
AcDbBlockBegin
  2
*D10
 70
     1
 10
0.0
 20
0.0
 30
0.0
  3
*D10
  1

  0
LINE
  5
80F
330
76E
100
AcDbEntity
  8
Dimension (ANSI)
100
AcDbLine
 10
16.90972053906488
 20
7.357191670418812
 30
0.0
 11
16.23188051145672
 21
7.357191670418813
 31
0.0
  0
LINE
  5
810
330
76E
100
AcDbEntity
  8
Dimension (ANSI)
100
AcDbLine
 10
16.23188051145672
 20
7.357191670418813
 30
0.0
 11
14.08781791453684
 21
9.501254267338083
 31
0.0
  0
MTEXT
  5
811
102
{ACAD_XDICTIONARY
360
E30
102
}
330
76E
100
AcDbEntity
  8
Dimension (ANSI)
100
AcDbMText
 10
17.042335541137
 20
7.677993680211667
 30
0.0
 40
0.4210526378531205
 41
0.0
 71
     1
 72
     1
  1
\A1;\U+22050.50{ TYP. (4 PL.)}
  7
ROMANS
 73
     1
 44
1.0
1001
ACAD
1000
MTEXTBEGIN
1070
    73
1070
     1
1070
    44
1040
1.0
1070
    74
1070
     0
1000
MTEXTEND
  0
SOLID
  5
812
330
76E
100
AcDbEntity
  8
Dimension (ANSI)
100
AcDbTrace
 10
14.13665800054116
 20
9.550094353342423
 30
0.0
 11
14.03897782853251
 21
9.452414181333741
 31
0.0
 12
13.79477739851079
 22
9.794294783364044
 32
0.0
 13
13.79477739851079
 23
9.794294783364044
 33
0.0
  0
LINE
  5
813
330
76E
100
AcDbEntity
  8
Dimension (ANSI)
100
AcDbLine
 10
13.23905333479308
 20
9.971071478660658
 30
0.0
 11
13.99694807163518
 21
9.971071478660658
 31
0.0
  0
LINE
  5
814
330
76E
100
AcDbEntity
  8
Dimension (ANSI)
100
AcDbLine
 10
13.61800070321413
 20
9.592124110239604
 30
0.0
 11
13.61800070321413
 21
10.35001884708171
 31
0.0
  0
POINT
  5
815
330
76E
100
AcDbEntity
  8
Defpoints
 62
     0
100
AcDbPoint
 10
13.79477739851079
 20
9.794294783364044
 30
0.0
  0
POINT
  5
816
330
76E
100
AcDbEntity
  8
Defpoints
 62
     0
100
AcDbPoint
 10
13.44122400791747
 20
10.14784817395727
 30
0.0
  0
ENDBLK
  5
770
330
76E
100
AcDbEntity
  8
0
100
AcDbBlockEnd
  0
BLOCK
  5
819
330
818
100
AcDbEntity
  8
0
100
AcDbBlockBegin
  2
*D11
 70
     1
 10
0.0
 20
0.0
 30
0.0
  3
*D11
  1

  0
LINE
  5
8B8
330
818
100
AcDbEntity
  8
Dimension (ANSI)
100
AcDbLine
 10
16.84666102374668
 20
8.170251185737029
 30
0.0
 11
16.16882099613864
 21
8.170251185737029
 31
0.0
  0
LINE
  5
8B9
330
818
100
AcDbEntity
  8
Dimension (ANSI)
100
AcDbLine
 10
16.16882099613864
 20
8.170251185737029
 30
0.0
 11
14.0215266538006
 21
10.31754552807432
 31
0.0
  0
MTEXT
  5
8BA
102
{ACAD_XDICTIONARY
360
E32
102
}
330
818
100
AcDbEntity
  8
Dimension (ANSI)
100
AcDbMText
 10
16.97927602581879
 20
8.491053195529882
 30
0.0
 40
0.4210526378531205
 41
0.0
 71
     1
 72
     1
  1
\A1;\U+22050.31{ TYP. (4 PL.)}
  7
ROMANS
 73
     1
 44
1.0
1001
ACAD
1000
MTEXTBEGIN
1070
    73
1070
     1
1070
    44
1040
1.0
1070
    74
1070
     0
1000
MTEXTEND
  0
SOLID
  5
8BB
330
818
100
AcDbEntity
  8
Dimension (ANSI)
100
AcDbTrace
 10
14.07036673980493
 20
10.36638561407866
 30
0.0
 11
13.97268656779628
 21
10.26870544206997
 31
0.0
 12
13.72848613777455
 22
10.61058604410027
 32
0.0
 13
13.72848613777455
 23
10.61058604410027
 33
0.0
  0
LINE
  5
8BC
330
818
100
AcDbEntity
  8
Dimension (ANSI)
100
AcDbLine
 10
13.23905333479308
 20
10.72107147866065
 30
0.0
 11
13.99694807163518
 21
10.72107147866065
 31
0.0
  0
LINE
  5
8BD
330
818
100
AcDbEntity
  8
Dimension (ANSI)
100
AcDbLine
 10
13.61800070321413
 20
10.3421241102396
 30
0.0
 11
13.61800070321413
 21
11.1000188470817
 31
0.0
  0
POINT
  5
8BE
330
818
100
AcDbEntity
  8
Defpoints
 62
     0
100
AcDbPoint
 10
13.72848613777455
 20
10.61058604410027
 30
0.0
  0
POINT
  5
8BF
330
818
100
AcDbEntity
  8
Defpoints
 62
     0
100
AcDbPoint
 10
13.50751526865371
 20
10.83155691322103
 30
0.0
  0
ENDBLK
  5
81A
330
818
100
AcDbEntity
  8
0
100
AcDbBlockEnd
  0
BLOCK
  5
8C2
330
8C1
100
AcDbEntity
  8
0
100
AcDbBlockBegin
  2
*D12
 70
     1
 10
0.0
 20
0.0
 30
0.0
  3
*D12
  1

  0
LINE
  5
9CB
330
8C1
100
AcDbEntity
  8
Dimension (ANSI)
100
AcDbLine
 10
31.06115859795097
 20
9.451071478660651
 30
0.0
 11
35.15745174569687
 21
9.451071478660651
 31
0.0
  0
LINE
  5
9CC
330
8C1
100
AcDbEntity
  8
Dimension (ANSI)
100
AcDbLine
 10
31.04115859795097
 20
9.97107147866065
 30
0.0
 11
35.15745174569687
 21
9.97107147866065
 31
0.0
  0
LINE
  5
9CD
330
8C1
100
AcDbEntity
  8
Dimension (ANSI)
100
AcDbLine
 10
34.63113595622319
 20
10.38549335074943
 30
0.0
 11
34.63113595622319
 21
10.79991522283822
 31
0.0
  0
LINE
  5
9CE
330
8C1
100
AcDbEntity
  8
Dimension (ANSI)
100
AcDbLine
 10
34.63113595622319
 20
9.036649606571867
 30
0.0
 11
34.63113595622319
 21
8.3828435858538
 31
0.0
  0
LINE
  5
9CF
330
8C1
100
AcDbEntity
  8
Dimension (ANSI)
100
AcDbLine
 10
34.63113595622319
 20
8.3828435858538
 30
0.0
 11
34.21671408413441
 21
8.3828435858538
 31
0.0
  0
SOLID
  5
9D0
330
8C1
100
AcDbEntity
  8
Dimension (ANSI)
100
AcDbTrace
 10
34.5620656442084
 20
10.38549335074943
 30
0.0
 11
34.70020626823798
 21
10.38549335074943
 31
0.0
 12
34.63113595622319
 22
9.97107147866065
 32
0.0
 13
34.63113595622319
 23
9.97107147866065
 33
0.0
  0
SOLID
  5
9D1
330
8C1
100
AcDbEntity
  8
Dimension (ANSI)
100
AcDbTrace
 10
34.5620656442084
 20
9.036649606571867
 30
0.0
 11
34.70020626823798
 21
9.036649606571867
 31
0.0
 12
34.63113595622319
 22
9.451071478660651
 32
0.0
 13
34.63113595622319
 23
9.451071478660651
 33
0.0
  0
MTEXT
  5
9D2
330
8C1
100
AcDbEntity
  8
Dimension (ANSI)
100
AcDbMText
 10
33.44249506247659
 20
8.382843585853805
 30
0.0
 40
0.4210526378531205
 41
0.0
 71
     5
 72
     1
  1
\A1;0.52{ \PTYP.}
  7
ROMANS
 73
     1
 44
1.0
1001
ACAD
1000
MTEXTBEGIN
1070
    73
1070
     1
1070
    44
1040
1.0
1070
    74
1070
     0
1000
MTEXTEND
  0
POINT
  5
9D3
330
8C1
100
AcDbEntity
  8
Defpoints
 62
     0
100
AcDbPoint
 10
30.79800070321413
 20
9.451071478660651
 30
0.0
  0
POINT
  5
9D4
330
8C1
100
AcDbEntity
  8
Defpoints
 62
     0
100
AcDbPoint
 10
30.77800070321413
 20
9.97107147866065
 30
0.0
  0
POINT
  5
9D5
330
8C1
100
AcDbEntity
  8
Defpoints
 62
     0
100
AcDbPoint
 10
34.63113595622319
 20
9.97107147866065
 30
0.0
  0
ENDBLK
  5
8C3
330
8C1
100
AcDbEntity
  8
0
100
AcDbBlockEnd
  0
BLOCK
  5
9D8
330
9D7
100
AcDbEntity
  8
0
100
AcDbBlockBegin
  2
*D13
 70
     1
 10
0.0
 20
0.0
 30
0.0
  3
*D13
  1

  0
LINE
  5
ADD
330
9D7
100
AcDbEntity
  8
Dimension (ANSI)
100
AcDbLine
 10
31.06115859795097
 20
9.451071478660651
 30
0.0
 11
36.94482445523417
 21
9.451071478660649
 31
0.0
  0
LINE
  5
ADE
330
9D7
100
AcDbEntity
  8
Dimension (ANSI)
100
AcDbLine
 10
31.04115859795097
 20
10.72107147866065
 30
0.0
 11
36.94482445523417
 21
10.72107147866065
 31
0.0
  0
LINE
  5
ADF
330
9D7
100
AcDbEntity
  8
Dimension (ANSI)
100
AcDbLine
 10
36.41850866576048
 20
10.30664960657186
 30
0.0
 11
36.41850866576048
 21
9.865493350749433
 31
0.0
  0
LINE
  5
AE0
330
9D7
100
AcDbEntity
  8
Dimension (ANSI)
100
AcDbLine
 10
36.41850866576048
 20
9.451071478660649
 30
0.0
 11
36.41850866576048
 21
8.38176664340078
 31
0.0
  0
LINE
  5
AE1
330
9D7
100
AcDbEntity
  8
Dimension (ANSI)
100
AcDbLine
 10
36.41850866576048
 20
8.38176664340078
 30
0.0
 11
36.0040867936717
 21
8.38176664340078
 31
0.0
  0
SOLID
  5
AE2
330
9D7
100
AcDbEntity
  8
Dimension (ANSI)
100
AcDbTrace
 10
36.34943835374569
 20
10.30664960657186
 30
0.0
 11
36.48757897777528
 21
10.30664960657186
 31
0.0
 12
36.41850866576048
 22
10.72107147866065
 32
0.0
 13
36.41850866576048
 23
10.72107147866065
 33
0.0
  0
SOLID
  5
AE3
330
9D7
100
AcDbEntity
  8
Dimension (ANSI)
100
AcDbTrace
 10
36.34943835374569
 20
9.865493350749433
 30
0.0
 11
36.48757897777528
 21
9.865493350749433
 31
0.0
 12
36.41850866576048
 22
9.451071478660649
 32
0.0
 13
36.41850866576048
 23
9.451071478660649
 33
0.0
  0
MTEXT
  5
AE4
330
9D7
100
AcDbEntity
  8
Dimension (ANSI)
100
AcDbMText
 10
35.25994296043196
 20
8.381766643400787
 30
0.0
 40
0.4210526378531205
 41
0.0
 71
     5
 72
     1
  1
\A1;1.27{\PTYP.}
  7
ROMANS
 73
     1
 44
1.0
1001
ACAD
1000
MTEXTBEGIN
1070
    73
1070
     1
1070
    44
1040
1.0
1070
    74
1070
     0
1000
MTEXTEND
  0
POINT
  5
AE5
330
9D7
100
AcDbEntity
  8
Defpoints
 62
     0
100
AcDbPoint
 10
30.79800070321413
 20
9.451071478660651
 30
0.0
  0
POINT
  5
AE6
330
9D7
100
AcDbEntity
  8
Defpoints
 62
     0
100
AcDbPoint
 10
30.77800070321413
 20
10.72107147866065
 30
0.0
  0
POINT
  5
AE7
330
9D7
100
AcDbEntity
  8
Defpoints
 62
     0
100
AcDbPoint
 10
36.41850866576048
 20
10.72107147866065
 30
0.0
  0
ENDBLK
  5
9D9
330
9D7
100
AcDbEntity
  8
0
100
AcDbBlockEnd
  0
BLOCK
  5
AEA
330
AE9
100
AcDbEntity
  8
0
100
AcDbBlockBegin
  2
*D14
 70
     1
 10
0.0
 20
0.0
 30
0.0
  3
*D14
  1

  0
LINE
  5
BDC
330
AE9
100
AcDbEntity
  8
Dimension (ANSI)
100
AcDbLine
 10
30.77800070321413
 20
10.45791358392381
 30
0.0
 11
30.77800070321413
 21
7.871672011253028
 31
0.0
  0
LINE
  5
BDD
330
AE9
100
AcDbEntity
  8
Dimension (ANSI)
100
AcDbLine
 10
31.29800070321413
 20
9.687913583923808
 30
0.0
 11
31.29800070321413
 21
7.871672011253028
 31
0.0
  0
LINE
  5
BDE
330
AE9
100
AcDbEntity
  8
Dimension (ANSI)
100
AcDbLine
 10
31.71242257530292
 20
8.397987800726712
 30
0.0
 11
32.1268444473917
 21
8.397987800726712
 31
0.0
  0
LINE
  5
BDF
330
AE9
100
AcDbEntity
  8
Dimension (ANSI)
100
AcDbLine
 10
30.36357883112534
 20
8.397987800726712
 30
0.0
 11
29.94915695903656
 21
8.397987800726712
 31
0.0
  0
SOLID
  5
BE0
330
AE9
100
AcDbEntity
  8
Dimension (ANSI)
100
AcDbTrace
 10
31.71242257530292
 20
8.46705811274151
 30
0.0
 11
31.71242257530292
 21
8.328917488711914
 31
0.0
 12
31.29800070321413
 22
8.397987800726712
 32
0.0
 13
31.29800070321413
 23
8.397987800726712
 33
0.0
  0
SOLID
  5
BE1
330
AE9
100
AcDbEntity
  8
Dimension (ANSI)
100
AcDbTrace
 10
30.36357883112534
 20
8.46705811274151
 30
0.0
 11
30.36357883112534
 21
8.328917488711914
 31
0.0
 12
30.77800070321413
 22
8.397987800726712
 32
0.0
 13
30.77800070321413
 23
8.397987800726712
 33
0.0
  0
MTEXT
  5
BE2
330
AE9
100
AcDbEntity
  8
Dimension (ANSI)
100
AcDbMText
 10
29.17493793737874
 20
8.397987800726712
 30
0.0
 40
0.4210526378531205
 41
0.0
 71
     5
 72
     1
  1
\A1;0.52{\PTYP.}
  7
ROMANS
 73
     1
 44
1.0
1001
ACAD
1000
MTEXTBEGIN
1070
    73
1070
     1
1070
    44
1040
1.0
1070
    74
1070
     0
1000
MTEXTEND
  0
POINT
  5
BE3
330
AE9
100
AcDbEntity
  8
Defpoints
 62
     0
100
AcDbPoint
 10
30.77800070321413
 20
10.72107147866065
 30
0.0
  0
POINT
  5
BE4
330
AE9
100
AcDbEntity
  8
Defpoints
 62
     0
100
AcDbPoint
 10
31.29800070321413
 20
9.951071478660651
 30
0.0
  0
POINT
  5
BE5
330
AE9
100
AcDbEntity
  8
Defpoints
 62
     0
100
AcDbPoint
 10
31.29800070321413
 20
8.397987800726712
 30
0.0
  0
ENDBLK
  5
AEB
330
AE9
100
AcDbEntity
  8
0
100
AcDbBlockEnd
  0
BLOCK
  5
BE8
330
BE7
100
AcDbEntity
  8
0
100
AcDbBlockBegin
  2
*D15
 70
     1
 10
0.0
 20
0.0
 30
0.0
  3
*D15
  1

  0
LINE
  5
CE4
330
BE7
100
AcDbEntity
  8
Dimension (ANSI)
100
AcDbLine
 10
44.82997015797393
 20
25.6866616480492
 30
0.0
 11
44.82997015797393
 21
37.55363222409562
 31
0.0
  0
LINE
  5
CE5
330
BE7
100
AcDbEntity
  8
Dimension (ANSI)
100
AcDbLine
 10
44.73622015797394
 20
25.6866616480492
 30
0.0
 11
44.73622015797394
 21
37.55363222409562
 31
0.0
  0
LINE
  5
CE6
330
BE7
100
AcDbEntity
  8
Dimension (ANSI)
100
AcDbLine
 10
45.24439203006272
 20
37.02731643462193
 30
0.0
 11
45.6588139021515
 21
37.02731643462193
 31
0.0
  0
LINE
  5
CE7
330
BE7
100
AcDbEntity
  8
Dimension (ANSI)
100
AcDbLine
 10
44.32179828588515
 20
37.02731643462193
 30
0.0
 11
42.91351432409372
 21
37.02731643462193
 31
0.0
  0
SOLID
  5
CE8
330
BE7
100
AcDbEntity
  8
Dimension (ANSI)
100
AcDbTrace
 10
45.24439203006272
 20
37.09638674663672
 30
0.0
 11
45.24439203006272
 21
36.95824612260714
 31
0.0
 12
44.82997015797393
 22
37.02731643462193
 32
0.0
 13
44.82997015797393
 23
37.02731643462193
 33
0.0
  0
SOLID
  5
CE9
330
BE7
100
AcDbEntity
  8
Dimension (ANSI)
100
AcDbTrace
 10
44.32179828588515
 20
37.09638674663672
 30
0.0
 11
44.32179828588515
 21
36.95824612260714
 31
0.0
 12
44.73622015797394
 22
37.02731643462193
 32
0.0
 13
44.73622015797394
 23
37.02731643462193
 33
0.0
  0
MTEXT
  5
CEA
330
BE7
100
AcDbEntity
  8
Dimension (ANSI)
100
AcDbMText
 10
41.67814241335868
 20
37.02731643462193
 30
0.0
 40
0.4210526378531205
 41
0.0
 71
     5
 72
     1
  1
\A1;(0.094){\P12 GA.\PGALV.}
  7
ROMANS
 73
     1
 44
1.0
1001
ACAD
1000
MTEXTBEGIN
1070
    73
1070
     1
1070
    44
1040
1.0
1070
    74
1070
     0
1000
MTEXTEND
  0
POINT
  5
CEB
330
BE7
100
AcDbEntity
  8
Defpoints
 62
     0
100
AcDbPoint
 10
44.82997015797393
 20
25.42350375331236
 30
0.0
  0
POINT
  5
CEC
330
BE7
100
AcDbEntity
  8
Defpoints
 62
     0
100
AcDbPoint
 10
44.73622015797394
 20
25.42350375331236
 30
0.0
  0
POINT
  5
CED
330
BE7
100
AcDbEntity
  8
Defpoints
 62
     0
100
AcDbPoint
 10
44.73622015797394
 20
37.02731643462193
 30
0.0
  0
ENDBLK
  5
BE9
330
BE7
100
AcDbEntity
  8
0
100
AcDbBlockEnd
  0
BLOCK
  5
D00
330
CFF
100
AcDbEntity
  8
0
100
AcDbBlockBegin
  2
*D16
 70
     1
 10
0.0
 20
0.0
 30
0.0
  3
*D16
  1

  0
LINE
  5
DDA
330
CFF
100
AcDbEntity
  8
Dimension (ANSI)
100
AcDbLine
 10
44.73622015797394
 20
35.6701135839238
 30
0.0
 11
44.73622015797394
 21
33.7490681632856
 31
0.0
  0
LINE
  5
DDB
330
CFF
100
AcDbEntity
  8
Dimension (ANSI)
100
AcDbLine
 10
44.32179828588515
 20
34.27538395275928
 30
0.0
 11
43.90737641379637
 21
34.27538395275928
 31
0.0
  0
LINE
  5
DDC
330
CFF
100
AcDbEntity
  8
Dimension (ANSI)
100
AcDbLine
 10
45.92464203006272
 20
34.27538395275928
 30
0.0
 11
46.57490481442075
 21
34.27538395275928
 31
0.0
  0
SOLID
  5
DDD
330
CFF
100
AcDbEntity
  8
Dimension (ANSI)
100
AcDbTrace
 10
44.32179828588515
 20
34.34445426477407
 30
0.0
 11
44.32179828588515
 21
34.20631364074449
 31
0.0
 12
44.73622015797394
 22
34.27538395275928
 32
0.0
 13
44.73622015797394
 23
34.27538395275928
 33
0.0
  0
SOLID
  5
DDE
330
CFF
100
AcDbEntity
  8
Dimension (ANSI)
100
AcDbTrace
 10
45.92464203006272
 20
34.34445426477407
 30
0.0
 11
45.92464203006272
 21
34.20631364074449
 31
0.0
 12
45.51022015797395
 22
34.27538395275928
 32
0.0
 13
45.51022015797395
 23
34.27538395275928
 33
0.0
  0
MTEXT
  5
DDF
330
CFF
100
AcDbEntity
  8
Dimension (ANSI)
100
AcDbMText
 10
46.70751981649286
 20
34.48591027168584
 30
0.0
 40
0.4210526378531205
 41
0.0
 71
     1
 72
     1
  1
\A1;0.77
  7
ROMANS
 73
     1
 44
1.0
1001
ACAD
1000
MTEXTBEGIN
1070
    73
1070
     1
1070
    44
1040
1.0
1070
    74
1070
     0
1000
MTEXTEND
  0
POINT
  5
DE0
330
CFF
100
AcDbEntity
  8
Defpoints
 62
     0
100
AcDbPoint
 10
44.73622015797394
 20
35.93327147866064
 30
0.0
  0
POINT
  5
DE1
330
CFF
100
AcDbEntity
  8
Defpoints
 62
     0
100
AcDbPoint
 10
45.51022015797395
 20
35.93307147866064
 30
0.0
  0
POINT
  5
DE2
330
CFF
100
AcDbEntity
  8
Defpoints
 62
     0
100
AcDbPoint
 10
45.51022015797395
 20
34.27538395275928
 30
0.0
  0
ENDBLK
  5
D01
330
CFF
100
AcDbEntity
  8
0
100
AcDbBlockEnd
  0
ENDSEC
  0
SECTION
  2
ENTITIES
  0
LINE
  5
107
330
6C
100
AcDbEntity
  8
Visible (ANSI)
100
AcDbLine
 10
31.29800070321412
 20
11.16907147866065
 30
0.0
 11
31.29800070321412
 21
35.93307147866064
 31
0.0
  0
LINE
  5
108
330
6C
100
AcDbEntity
  8
Visible (ANSI)
100
AcDbLine
 10
31.29800070321412
 20
11.16907147866065
 30
0.0
 11
31.18865070321413
 21
11.16907147866065
 31
0.0
  0
LINE
  5
109
330
6C
100
AcDbEntity
  8
Visible (ANSI)
100
AcDbLine
 10
31.29800070321412
 20
35.93307147866064
 30
0.0
 11
31.18865070321413
 21
35.93307147866064
 31
0.0
  0
LINE
  5
10A
330
6C
100
AcDbEntity
  8
Visible (ANSI)
100
AcDbLine
 10
31.18845070321413
 20
35.93327147866065
 30
0.0
 11
31.29800070321412
 21
35.93327147866065
 31
0.0
  0
LINE
  5
10B
330
6C
100
AcDbEntity
  8
Visible (ANSI)
100
AcDbLine
 10
31.18845070321413
 20
35.93307147866064
 30
0.0
 11
31.18845070321413
 21
35.93327147866065
 31
0.0
  0
LINE
  5
10C
330
6C
100
AcDbEntity
  8
Visible (ANSI)
100
AcDbLine
 10
31.18845070321413
 20
11.16887147866065
 30
0.0
 11
31.18845070321413
 21
11.16907147866065
 31
0.0
  0
LINE
  5
10D
330
6C
100
AcDbEntity
  8
Visible (ANSI)
100
AcDbLine
 10
31.29800070321413
 20
11.16887147866065
 30
0.0
 11
31.18845070321413
 21
11.16887147866065
 31
0.0
  0
LINE
  5
10E
330
6C
100
AcDbEntity
  8
Hidden (ANSI)
 48
1.094386100769042
100
AcDbLine
 10
31.20425070321412
 20
35.93307147866064
 30
0.0
 11
31.20425070321412
 21
11.16907147866065
 31
0.0
  0
LINE
  5
10F
330
6C
100
AcDbEntity
  8
Visible (ANSI)
100
AcDbLine
 10
31.18845070321413
 20
11.16907147866065
 30
0.0
 11
31.18865070321414
 21
11.16907147866065
 31
0.0
  0
LINE
  5
110
330
6C
100
AcDbEntity
  8
Visible (ANSI)
100
AcDbLine
 10
31.18865070321413
 20
35.93307147866064
 30
0.0
 11
31.18845070321413
 21
35.93307147866064
 31
0.0
  0
LINE
  5
111
330
6C
100
AcDbEntity
  8
Visible (ANSI)
100
AcDbLine
 10
31.29800070321412
 20
37.15107147866065
 30
0.0
 11
31.29800070321412
 21
35.93327147866065
 31
0.0
  0
LINE
  5
112
330
6C
100
AcDbEntity
  8
Visible (ANSI)
100
AcDbLine
 10
13.59800070321412
 20
37.65107147866065
 30
0.0
 11
30.79800070321412
 21
37.65107147866065
 31
0.0
  0
LINE
  5
113
330
6C
100
AcDbEntity
  8
Visible (ANSI)
100
AcDbLine
 10
13.09800070321412
 20
35.93327147866065
 30
0.0
 11
13.09800070321412
 21
37.15107147866065
 31
0.0
  0
LINE
  5
114
330
6C
100
AcDbEntity
  8
Visible (ANSI)
100
AcDbLine
 10
13.09800070321413
 20
9.951071478660649
 30
0.0
 11
13.09800070321413
 21
11.16887147866065
 31
0.0
  0
LINE
  5
115
330
6C
100
AcDbEntity
  8
Visible (ANSI)
100
AcDbLine
 10
30.79800070321413
 20
9.451071478660651
 30
0.0
 11
13.59800070321413
 21
9.451071478660651
 31
0.0
  0
LINE
  5
116
330
6C
100
AcDbEntity
  8
Visible (ANSI)
100
AcDbLine
 10
31.29800070321413
 20
11.16887147866065
 30
0.0
 11
31.29800070321413
 21
9.951071478660649
 31
0.0
  0
LINE
  5
117
330
6C
100
AcDbEntity
  8
Visible (ANSI)
100
AcDbLine
 10
30.79800070321412
 20
37.65107147866065
 30
0.0
 11
31.29800070321412
 21
37.15107147866065
 31
0.0
  0
LINE
  5
118
330
6C
100
AcDbEntity
  8
Visible (ANSI)
100
AcDbLine
 10
13.09800070321412
 20
37.15107147866065
 30
0.0
 11
13.59800070321412
 21
37.65107147866065
 31
0.0
  0
LINE
  5
119
330
6C
100
AcDbEntity
  8
Visible (ANSI)
100
AcDbLine
 10
13.09800070321412
 20
35.93327147866065
 30
0.0
 11
13.20755070321412
 21
35.93327147866065
 31
0.0
  0
LINE
  5
11A
330
6C
100
AcDbEntity
  8
Visible (ANSI)
100
AcDbLine
 10
13.20755070321412
 20
35.93327147866065
 30
0.0
 11
13.20755070321412
 21
35.93307147866064
 31
0.0
  0
LINE
  5
11B
330
6C
100
AcDbEntity
  8
Visible (ANSI)
100
AcDbLine
 10
13.20755070321412
 20
11.16907147866065
 30
0.0
 11
13.20755070321412
 21
11.16887147866065
 31
0.0
  0
LINE
  5
11C
330
6C
100
AcDbEntity
  8
Visible (ANSI)
100
AcDbLine
 10
13.20755070321412
 20
11.16887147866065
 30
0.0
 11
13.09800070321413
 21
11.16887147866065
 31
0.0
  0
LINE
  5
11D
330
6C
100
AcDbEntity
  8
Visible (ANSI)
100
AcDbLine
 10
13.09800070321413
 20
35.93307147866064
 30
0.0
 11
13.09800070321414
 21
11.16907147866065
 31
0.0
  0
LINE
  5
11E
330
6C
100
AcDbEntity
  8
Visible (ANSI)
100
AcDbLine
 10
13.09800070321413
 20
35.93307147866064
 30
0.0
 11
13.20735070321412
 21
35.93307147866064
 31
0.0
  0
LINE
  5
11F
330
6C
100
AcDbEntity
  8
Visible (ANSI)
100
AcDbLine
 10
13.09800070321414
 20
11.16907147866065
 30
0.0
 11
13.20735070321412
 21
11.16907147866065
 31
0.0
  0
LINE
  5
120
330
6C
100
AcDbEntity
  8
Hidden (ANSI)
 48
1.094386100769042
100
AcDbLine
 10
13.19175070321414
 20
11.16907147866065
 30
0.0
 11
13.19175070321413
 21
35.93307147866064
 31
0.0
  0
LINE
  5
121
330
6C
100
AcDbEntity
  8
Visible (ANSI)
100
AcDbLine
 10
13.20755070321412
 20
35.93307147866064
 30
0.0
 11
13.20735070321412
 21
35.93307147866064
 31
0.0
  0
LINE
  5
122
330
6C
100
AcDbEntity
  8
Visible (ANSI)
100
AcDbLine
 10
13.20735070321412
 20
11.16907147866065
 30
0.0
 11
13.20755070321412
 21
11.16907147866065
 31
0.0
  0
LINE
  5
123
330
6C
100
AcDbEntity
  8
Visible (ANSI)
100
AcDbLine
 10
13.59800070321413
 20
9.451071478660651
 30
0.0
 11
13.09800070321413
 21
9.951071478660649
 31
0.0
  0
LINE
  5
124
330
6C
100
AcDbEntity
  8
Visible (ANSI)
100
AcDbLine
 10
31.29800070321413
 20
9.951071478660649
 30
0.0
 11
30.79800070321413
 21
9.451071478660651
 31
0.0
  0
CIRCLE
  5
125
330
6C
100
AcDbEntity
  8
Visible (ANSI)
100
AcDbCircle
 10
30.77800070321413
 20
37.13107147866065
 30
0.0
 40
0.2499999999999999
  0
CIRCLE
  5
126
330
6C
100
AcDbEntity
  8
Visible (ANSI)
100
AcDbCircle
 10
13.61800070321413
 20
37.13107147866065
 30
0.0
 40
0.2499999999999999
  0
CIRCLE
  5
127
330
6C
100
AcDbEntity
  8
Visible (ANSI)
100
AcDbCircle
 10
13.61800070321413
 20
9.971071478660652
 30
0.0
 40
0.2499999999999999
  0
CIRCLE
  5
128
330
6C
100
AcDbEntity
  8
Visible (ANSI)
100
AcDbCircle
 10
30.77800070321413
 20
9.971071478660652
 30
0.0
 40
0.2499999999999999
  0
CIRCLE
  5
129
330
6C
100
AcDbEntity
  8
Visible (ANSI)
100
AcDbCircle
 10
30.77800070321413
 20
36.38107147866064
 30
0.0
 40
0.15625
  0
CIRCLE
  5
12A
330
6C
100
AcDbEntity
  8
Visible (ANSI)
100
AcDbCircle
 10
13.61800070321413
 20
36.38107147866064
 30
0.0
 40
0.15625
  0
CIRCLE
  5
12B
330
6C
100
AcDbEntity
  8
Visible (ANSI)
100
AcDbCircle
 10
13.61800070321413
 20
10.72107147866065
 30
0.0
 40
0.15625
  0
CIRCLE
  5
12C
330
6C
100
AcDbEntity
  8
Visible (ANSI)
100
AcDbCircle
 10
30.77800070321413
 20
10.72107147866065
 30
0.0
 40
0.15625
  0
MTEXT
  5
12E
330
6C
100
AcDbEntity
  8
Symbol (ANSI)
100
AcDbMText
 10
19.26284514219566
 20
5.595978986955502
 30
0.0
 40
0.5052631641392681
 41
0.0
 71
     7
 72
     1
  1
FRONT VIEW
  7
Text Style168
 73
     1
 44
1.0
1001
ACAD
1000
MTEXTBEGIN
1070
    73
1070
     1
1070
    44
1040
1.0
1070
    74
1070
     0
1000
MTEXTEND
  0
LINE
  5
130
330
6C
100
AcDbEntity
  8
Symbol (ANSI)
370
    30
100
AcDbLine
 10
19.21231869643403
 20
5.49294051379807
 30
0.0
 11
23.27448713553162
 21
5.49294051379807
 31
0.0
  0
LINE
  5
131
330
6C
100
AcDbEntity
  8
Visible (ANSI)
100
AcDbLine
 10
44.84557015797395
 20
11.16907147866064
 30
0.0
 11
45.51022015797394
 21
11.16907147866064
 31
0.0
  0
LINE
  5
132
330
6C
100
AcDbEntity
  8
Visible (ANSI)
100
AcDbLine
 10
45.51022015797394
 20
35.93307147866064
 30
0.0
 11
45.51022015797394
 21
11.16907147866065
 31
0.0
  0
LINE
  5
133
330
6C
100
AcDbEntity
  8
Visible (ANSI)
100
AcDbLine
 10
45.51022015797394
 20
35.93307147866064
 30
0.0
 11
44.84557015797395
 21
35.93307147866064
 31
0.0
  0
LINE
  5
134
330
6C
100
AcDbEntity
  8
Visible (ANSI)
100
AcDbLine
 10
44.84557015797395
 20
11.16907147866064
 30
0.0
 11
44.73622015797391
 21
11.16907147866064
 31
0.0
  0
LINE
  5
135
330
6C
100
AcDbEntity
  8
Visible (ANSI)
100
AcDbLine
 10
44.84557015797395
 20
35.93307147866064
 30
0.0
 11
44.7362201579739
 21
35.93307147866064
 31
0.0
  0
LINE
  5
136
330
6C
100
AcDbEntity
  8
Visible (ANSI)
100
AcDbLine
 10
44.73622015797391
 20
11.16907147866064
 30
0.0
 11
44.73622015797391
 21
35.93307147866064
 31
0.0
  0
LINE
  5
137
330
6C
100
AcDbEntity
  8
Visible (ANSI)
100
AcDbLine
 10
44.73622015797394
 20
35.93327147866064
 30
0.0
 11
44.82997015797393
 21
35.93327147866064
 31
0.0
  0
LINE
  5
138
330
6C
100
AcDbEntity
  8
Visible (ANSI)
100
AcDbLine
 10
44.8299701579739
 20
35.93327147866064
 30
0.0
 11
44.8299701579739
 21
35.93307147866064
 31
0.0
  0
LINE
  5
139
330
6C
100
AcDbEntity
  8
Visible (ANSI)
100
AcDbLine
 10
44.73622015797391
 20
35.93307147866064
 30
0.0
 11
44.73622015797391
 21
35.93327147866064
 31
0.0
  0
LINE
  5
13A
330
6C
100
AcDbEntity
  8
Visible (ANSI)
100
AcDbLine
 10
44.8299701579739
 20
11.16907147866064
 30
0.0
 11
44.8299701579739
 21
11.16887147866064
 31
0.0
  0
LINE
  5
13B
330
6C
100
AcDbEntity
  8
Visible (ANSI)
100
AcDbLine
 10
44.73622015797391
 20
11.16887147866064
 30
0.0
 11
44.73622015797391
 21
11.16907147866064
 31
0.0
  0
LINE
  5
13C
330
6C
100
AcDbEntity
  8
Visible (ANSI)
100
AcDbLine
 10
44.82997015797393
 20
11.16887147866064
 30
0.0
 11
44.73622015797394
 21
11.16887147866064
 31
0.0
  0
LINE
  5
13D
330
6C
100
AcDbEntity
  8
Hidden (ANSI)
 48
1.094386100769042
100
AcDbLine
 10
44.8299701579739
 20
35.93307147866064
 30
0.0
 11
44.8299701579739
 21
11.16907147866065
 31
0.0
  0
LINE
  5
13E
330
6C
100
AcDbEntity
  8
Visible (ANSI)
100
AcDbLine
 10
44.82997015797393
 20
9.951071478660646
 30
0.0
 11
44.82997015797393
 21
11.16887147866064
 31
0.0
  0
LINE
  5
13F
330
6C
100
AcDbEntity
  8
Visible (ANSI)
100
AcDbLine
 10
44.82997015797393
 20
35.93327147866064
 30
0.0
 11
44.82997015797393
 21
37.15107147866065
 31
0.0
  0
LINE
  5
140
330
6C
100
AcDbEntity
  8
Visible (ANSI)
100
AcDbLine
 10
44.73622015797394
 20
37.15107147866065
 30
0.0
 11
44.73622015797394
 21
35.93327147866064
 31
0.0
  0
LINE
  5
141
330
6C
100
AcDbEntity
  8
Visible (ANSI)
100
AcDbLine
 10
44.73622015797394
 20
11.16887147866064
 30
0.0
 11
44.73622015797394
 21
9.951071478660646
 31
0.0
  0
LINE
  5
142
330
6C
100
AcDbEntity
  8
Visible (ANSI)
100
AcDbLine
 10
44.82997015797379
 20
9.451071478660647
 30
0.0
 11
44.82997015797393
 21
9.951071478660646
 31
0.0
  0
LINE
  5
143
330
6C
100
AcDbEntity
  8
Visible (ANSI)
100
AcDbLine
 10
44.73622015797394
 20
9.951071478660646
 30
0.0
 11
44.7362201579738
 21
9.451071478660647
 31
0.0
  0
LINE
  5
144
330
6C
100
AcDbEntity
  8
Visible (ANSI)
100
AcDbLine
 10
44.7362201579738
 20
9.451071478660647
 30
0.0
 11
44.82997015797379
 21
9.451071478660647
 31
0.0
  0
LINE
  5
145
330
6C
100
AcDbEntity
  8
Visible (ANSI)
100
AcDbLine
 10
44.82997015797393
 20
9.951071478660646
 30
0.0
 11
44.73622015797394
 21
9.951071478660646
 31
0.0
  0
LINE
  5
146
330
6C
100
AcDbEntity
  8
Visible (ANSI)
100
AcDbLine
 10
44.82997015797393
 20
37.15107147866065
 30
0.0
 11
44.82997015797379
 21
37.65107147866064
 31
0.0
  0
LINE
  5
147
330
6C
100
AcDbEntity
  8
Visible (ANSI)
100
AcDbLine
 10
44.7362201579738
 20
37.65107147866064
 30
0.0
 11
44.73622015797394
 21
37.15107147866065
 31
0.0
  0
LINE
  5
148
330
6C
100
AcDbEntity
  8
Visible (ANSI)
100
AcDbLine
 10
44.73622015797394
 20
37.15107147866065
 30
0.0
 11
44.82997015797393
 21
37.15107147866065
 31
0.0
  0
LINE
  5
149
330
6C
100
AcDbEntity
  8
Visible (ANSI)
100
AcDbLine
 10
44.82997015797379
 20
37.65107147866064
 30
0.0
 11
44.7362201579738
 21
37.65107147866064
 31
0.0
  0
LINE
  5
14A
330
6C
100
AcDbEntity
  8
Hidden (ANSI)
 48
0.0423092618584633
100
AcDbLine
 10
44.73622015797379
 20
37.38107147866065
 30
0.0
 11
44.82997015797379
 21
37.38107147866065
 31
0.0
  0
LINE
  5
14B
330
6C
100
AcDbEntity
  8
Hidden (ANSI)
 48
0.0423092618584633
100
AcDbLine
 10
44.73622015797379
 20
36.88107147866064
 30
0.0
 11
44.82997015797379
 21
36.88107147866064
 31
0.0
  0
LINE
  5
14C
330
6C
100
AcDbEntity
  8
Hidden (ANSI)
 48
0.0423092618584633
100
AcDbLine
 10
44.73622015797379
 20
10.22107147866065
 30
0.0
 11
44.82997015797379
 21
10.22107147866065
 31
0.0
  0
LINE
  5
14D
330
6C
100
AcDbEntity
  8
Hidden (ANSI)
 48
0.0423092618584633
100
AcDbLine
 10
44.73622015797379
 20
9.721071478660647
 30
0.0
 11
44.82997015797379
 21
9.721071478660647
 31
0.0
  0
LINE
  5
14E
330
6C
100
AcDbEntity
  8
Hidden (ANSI)
 48
0.0423092618584633
100
AcDbLine
 10
44.73622015797379
 20
36.53732147866064
 30
0.0
 11
44.82997015797379
 21
36.53732147866064
 31
0.0
  0
LINE
  5
14F
330
6C
100
AcDbEntity
  8
Hidden (ANSI)
 48
0.0423092618584633
100
AcDbLine
 10
44.73622015797379
 20
36.22482147866064
 30
0.0
 11
44.82997015797379
 21
36.22482147866064
 31
0.0
  0
LINE
  5
150
330
6C
100
AcDbEntity
  8
Hidden (ANSI)
 48
0.0423092618584633
100
AcDbLine
 10
44.73622015797379
 20
10.87732147866065
 30
0.0
 11
44.82997015797379
 21
10.87732147866065
 31
0.0
  0
LINE
  5
151
330
6C
100
AcDbEntity
  8
Hidden (ANSI)
 48
0.0423092618584633
100
AcDbLine
 10
44.73622015797379
 20
10.56482147866065
 30
0.0
 11
44.82997015797379
 21
10.56482147866065
 31
0.0
  0
MTEXT
  5
152
330
6C
100
AcDbEntity
  8
Symbol (ANSI)
100
AcDbMText
 10
43.23648793604175
 20
8.323326888617158
 30
0.0
 40
0.5052631641392681
 41
0.0
 71
     7
 72
     1
  1
SIDE VIEW
  7
Text Style168
 73
     1
 44
1.0
1001
ACAD
1000
MTEXTBEGIN
1070
    73
1070
     1
1070
    44
1040
1.0
1070
    74
1070
     0
1000
MTEXTEND
  0
LINE
  5
153
330
6C
100
AcDbEntity
  8
Symbol (ANSI)
370
    30
100
AcDbLine
 10
43.21061839581179
 20
8.218650610028918
 30
0.0
 11
46.62503448172967
 21
8.218650610028918
 31
0.0
  0
LINE
  5
154
330
6C
100
AcDbEntity
  8
Visible Narrow (ANSI)
100
AcDbLine
 10
65.99335980254915
 20
17.13866890829258
 30
0.0
 11
65.99335980254917
 21
32.05658038168258
 31
0.0
  0
ELLIPSE
  5
155
330
6C
100
AcDbEntity
  8
Visible (ANSI)
100
AcDbEllipse
 10
65.93638560405868
 20
17.17147816714755
 30
0.0
 11
0.0805736842105241
 21
0.0000000000000047
 31
0.0
210
0.0
220
0.0
230
1.0
 40
0.5758617009853092
 41
3.926990816987112
 42
5.497787143782205
  0
LINE
  5
156
330
6C
100
AcDbEntity
  8
Visible (ANSI)
100
AcDbLine
 10
65.87930720035841
 20
32.05664038947197
 30
0.0
 11
65.87941180935455
 21
32.05670062978642
 31
0.0
  0
ELLIPSE
  5
157
330
6C
100
AcDbEntity
  8
Visible (ANSI)
100
AcDbEllipse
 10
65.93638560405875
 20
32.0893896405376
 30
0.0
 11
0.0805736842106278
 21
0.0000000000000047
 31
0.0
210
0.0
220
0.0
230
1.0
 40
0.5758617009853094
 41
3.92699081698721
 42
3.987598387464566
  0
ELLIPSE
  5
158
330
6C
100
AcDbEntity
  8
Visible (ANSI)
100
AcDbEllipse
 10
65.93638560405827
 20
32.08938964053782
 30
0.0
 11
0.0805736842111571
 21
-0.0000000000000001
 31
0.0
210
0.0
220
0.0
230
1.0
 40
0.5758617009853092
 41
5.363700662383763
 42
5.49778714378197
  0
LINE
  5
159
330
6C
100
AcDbEntity
  8
Visible Narrow (ANSI)
100
AcDbLine
 10
65.87941140556826
 20
17.13866890829256
 30
0.0
 11
65.87941140556826
 21
32.05658038168256
 31
0.0
  0
LINE
  5
15A
330
6C
100
AcDbEntity
  8
Visible (ANSI)
100
AcDbLine
 10
65.93638560405871
 20
32.02389160345651
 30
0.0
 11
65.98523179618014
 21
32.05202025473822
 31
0.0
  0
LINE
  5
15B
330
6C
100
AcDbEntity
  8
Visible (ANSI)
100
AcDbLine
 10
65.87930720035841
 20
32.05676087010089
 30
0.0
 11
65.93638560405871
 21
32.02389160345651
 31
0.0
  0
LINE
  5
15C
330
6C
100
AcDbEntity
  8
Visible (ANSI)
100
AcDbLine
 10
65.87930720035841
 20
32.05664038947197
 30
0.0
 11
65.87930720035841
 21
32.05676087010089
 31
0.0
  0
LINE
  5
15D
330
6C
100
AcDbEntity
  8
Visible (ANSI)
100
AcDbLine
 10
65.87930720035839
 20
17.13860843545304
 30
0.0
 11
65.87930720035839
 21
17.13872891608196
 31
0.0
  0
LINE
  5
15E
330
6C
100
AcDbEntity
  8
Visible (ANSI)
100
AcDbLine
 10
65.87930720035839
 20
17.13860843545304
 30
0.0
 11
65.87941180935597
 21
17.13866867576833
 31
0.0
  0
LINE
  5
15F
330
6C
100
AcDbEntity
  8
Visible (ANSI)
100
AcDbLine
 10
65.98452925442548
 20
17.13427238698023
 30
0.0
 11
65.98523179618014
 21
17.13386782009038
 31
0.0
  0
LINE
  5
160
330
6C
100
AcDbEntity
  8
Visible (ANSI)
100
AcDbLine
 10
65.9363856040587
 20
17.10573916880866
 30
0.0
 11
65.87930720035839
 21
17.13860843545304
 31
0.0
  0
LINE
  5
161
330
6C
100
AcDbEntity
  8
Visible (ANSI)
100
AcDbLine
 10
65.98523179618014
 20
17.13386782009038
 30
0.0
 11
65.9363856040587
 21
17.10573916880866
 31
0.0
  0
LINE
  5
162
330
6C
100
AcDbEntity
  8
Visible (ANSI)
100
AcDbLine
 10
65.99335980254915
 20
17.13866890829258
 30
0.0
 11
66.33965976621325
 21
17.3380897944194
 31
0.0
  0
LINE
  5
163
330
6C
100
AcDbEntity
  8
Visible (ANSI)
100
AcDbLine
 10
66.33965976621325
 20
32.25600126780939
 30
0.0
 11
66.33965976621325
 21
17.3380897944194
 31
0.0
  0
LINE
  5
164
330
6C
100
AcDbEntity
  8
Visible (ANSI)
100
AcDbLine
 10
66.33965976621325
 20
32.25600126780939
 30
0.0
 11
65.99335980254917
 21
32.05658038168258
 31
0.0
  0
LINE
  5
165
330
6C
100
AcDbEntity
  8
Visible (ANSI)
100
AcDbLine
 10
65.87930720035839
 20
17.13872891608196
 30
0.0
 11
65.87941140556826
 21
17.13866890829256
 31
0.0
  0
LINE
  5
166
330
6C
100
AcDbEntity
  8
Visible (ANSI)
100
AcDbLine
 10
66.29081357409181
 20
32.2841299190911
 30
0.0
 11
66.33965976621325
 21
32.25600126780939
 31
0.0
  0
LINE
  5
167
330
6C
100
AcDbEntity
  8
Visible (ANSI)
100
AcDbLine
 10
65.98523179618014
 20
32.10815707667272
 30
0.0
 11
66.29081357409181
 21
32.2841299190911
 31
0.0
  0
LINE
  5
168
330
6C
100
AcDbEntity
  8
Visible (ANSI)
100
AcDbLine
 10
65.87941140556826
 20
32.05658038168256
 30
0.0
 11
65.87930720035841
 21
32.05664038947197
 31
0.0
  0
ELLIPSE
  5
169
330
6C
100
AcDbEntity
  8
Visible (ANSI)
100
AcDbEllipse
 10
65.71429825054654
 20
32.92959899380754
 30
0.0
 11
-0.0919269863444952
 21
0.1596337908688478
 31
0.0
210
0.0
220
0.0
230
1.0
 40
0.5780931159158129
 41
0.2678448778125357
 42
2.873747775777306
  0
ELLIPSE
  5
16A
330
6C
100
AcDbEntity
  8
Visible (ANSI)
100
AcDbEllipse
 10
56.77349124463697
 20
38.07826732441045
 30
0.0
 11
-0.0919269863444955
 21
0.1596337908688485
 31
0.0
210
0.0
220
0.0
230
1.0
 40
0.578093115915813
 41
0.2678448778125357
 42
2.873747775777306
  0
ELLIPSE
  5
16B
330
6C
100
AcDbEntity
  8
Visible (ANSI)
100
AcDbEllipse
 10
56.77349124463696
 20
21.71699791650898
 30
0.0
 11
-0.0919269863444953
 21
0.1596337908688481
 31
0.0
210
0.0
220
0.0
230
0.9999999999999998
 40
0.5780931159158129
 41
0.2678448778125357
 42
2.873747775777306
  0
ELLIPSE
  5
16C
330
6C
100
AcDbEntity
  8
Visible (ANSI)
100
AcDbEllipse
 10
65.71429825054652
 20
16.56832958590607
 30
0.0
 11
-0.0919269863444953
 21
0.159633790868848
 31
0.0
210
0.0
220
0.0
230
1.0
 40
0.578093115915813
 41
0.2678448778125357
 42
2.873747775777306
  0
ELLIPSE
  5
16D
330
6C
100
AcDbEntity
  8
Visible (ANSI)
100
AcDbEllipse
 10
65.71429825054654
 20
32.47779663534193
 30
0.0
 11
0.0574543664653164
 21
-0.0997711192930282
 31
0.0
210
0.0
220
0.0
230
1.0
 40
0.5780931159158128
 41
3.578838513251623
 42
5.845939447516979
  0
ELLIPSE
  5
16E
330
6C
100
AcDbEntity
  8
Visible (ANSI)
100
AcDbEllipse
 10
56.77349124463697
 20
37.62646496594484
 30
0.0
 11
0.0574543664653157
 21
-0.099771119293027
 31
0.0
210
0.0
220
0.0
230
1.0
 40
0.578093115915813
 41
3.578838513251621
 42
5.845939447516978
  0
ELLIPSE
  5
16F
330
6C
100
AcDbEntity
  8
Visible (ANSI)
100
AcDbEllipse
 10
56.77349124463696
 20
22.1688002749746
 30
0.0
 11
0.0574543664653155
 21
-0.0997711192930267
 31
0.0
210
0.0
220
0.0
230
1.0
 40
0.5780931159158129
 41
3.578838513251623
 42
5.845939447516979
  0
ELLIPSE
  5
170
330
6C
100
AcDbEntity
  8
Visible (ANSI)
100
AcDbEllipse
 10
65.71429825054652
 20
17.02013194437169
 30
0.0
 11
0.0574543664653164
 21
-0.0997711192930281
 31
0.0
210
0.0
220
0.0
230
1.0
 40
0.5780931159158129
 41
3.578838513251593
 42
5.845939447516978
  0
ELLIPSE
  5
171
330
6C
100
AcDbEntity
  8
Visible (ANSI)
100
AcDbEllipse
 10
65.6654520584251
 20
32.90147034252584
 30
0.0
 11
-0.0919269863444953
 21
0.1596337908688481
 31
0.0
210
0.0
220
0.0
230
0.9999999999999998
 40
0.578093115915813
 41
0.0
 42
6.283185307179586
  0
ELLIPSE
  5
172
330
6C
100
AcDbEntity
  8
Visible (ANSI)
100
AcDbEllipse
 10
56.72464505251554
 20
38.05013867312875
 30
0.0
 11
-0.0919269863444953
 21
0.1596337908688481
 31
0.0
210
0.0
220
0.0
230
0.9999999999999998
 40
0.578093115915813
 41
0.0
 42
6.283185307179586
  0
ELLIPSE
  5
173
330
6C
100
AcDbEntity
  8
Visible (ANSI)
100
AcDbEllipse
 10
56.72464505251553
 20
21.68886926522727
 30
0.0
 11
-0.0919269863444953
 21
0.1596337908688481
 31
0.0
210
0.0
220
0.0
230
0.9999999999999998
 40
0.578093115915813
 41
0.0
 42
6.283185307179586
  0
ELLIPSE
  5
174
330
6C
100
AcDbEntity
  8
Visible (ANSI)
100
AcDbEllipse
 10
65.66545205842508
 20
16.54020093462436
 30
0.0
 11
-0.0919269863444953
 21
0.1596337908688481
 31
0.0
210
0.0
220
0.0
230
0.9999999999999998
 40
0.578093115915813
 41
0.0
 42
6.283185307179586
  0
ELLIPSE
  5
175
330
6C
100
AcDbEntity
  8
Visible (ANSI)
100
AcDbEllipse
 10
65.6654520584251
 20
32.44966798406022
 30
0.0
 11
-0.0574543664653096
 21
0.0997711192930301
 31
0.0
210
0.0
220
0.0
230
1.0
 40
0.5780931159158129
 41
0.0
 42
6.283185307179586
  0
ELLIPSE
  5
176
330
6C
100
AcDbEntity
  8
Visible (ANSI)
100
AcDbEllipse
 10
56.72464505251554
 20
37.59833631466314
 30
0.0
 11
-0.0574543664653096
 21
0.0997711192930301
 31
0.0
210
0.0
220
0.0
230
1.0
 40
0.5780931159158129
 41
0.0
 42
6.283185307179586
  0
ELLIPSE
  5
177
330
6C
100
AcDbEntity
  8
Visible (ANSI)
100
AcDbEllipse
 10
56.72464505251553
 20
22.14067162369289
 30
0.0
 11
-0.0574543664653096
 21
0.0997711192930301
 31
0.0
210
0.0
220
0.0
230
1.0
 40
0.5780931159158129
 41
0.0
 42
6.283185307179586
  0
ELLIPSE
  5
178
330
6C
100
AcDbEntity
  8
Visible (ANSI)
100
AcDbEllipse
 10
65.66545205842508
 20
16.99200329308997
 30
0.0
 11
-0.0574543664653096
 21
0.0997711192930301
 31
0.0
210
0.0
220
0.0
230
1.0
 40
0.5780931159158129
 41
0.0
 42
6.283185307179586
  0
LINE
  5
179
330
6C
100
AcDbEntity
  8
Visible (ANSI)
100
AcDbLine
 10
65.98523179618014
 20
16.40026127057114
 30
0.0
 11
65.98523179618014
 21
17.13386782009038
 31
0.0
  0
LINE
  5
17A
330
6C
100
AcDbEntity
  8
Visible (ANSI)
100
AcDbLine
 10
65.72471877153244
 20
33.23684785007028
 30
0.0
 11
56.76307072365106
 21
38.39751773855339
 31
0.0
  0
LINE
  5
17B
330
6C
100
AcDbEntity
  8
Visible (ANSI)
100
AcDbLine
 10
65.98523179618014
 20
32.05202025473822
 30
0.0
 11
65.98523179618014
 21
32.78562680425745
 31
0.0
  0
LINE
  5
17C
330
6C
100
AcDbEntity
  8
Visible (ANSI)
100
AcDbLine
 10
65.93638560405871
 20
32.75749815297575
 30
0.0
 11
65.93638560405871
 21
32.02389160345651
 31
0.0
  0
LINE
  5
17D
330
6C
100
AcDbEntity
  8
Visible (ANSI)
100
AcDbLine
 10
56.71422453152963
 20
38.36938908727167
 30
0.0
 11
65.67587257941099
 21
33.20871919878857
 31
0.0
  0
LINE
  5
17E
330
6C
100
AcDbEntity
  8
Visible (ANSI)
100
AcDbLine
 10
56.45371150688191
 20
37.48460043894445
 30
0.0
 11
56.45371150688191
 21
38.21820698846368
 31
0.0
  0
LINE
  5
17F
330
6C
100
AcDbEntity
  8
Visible (ANSI)
100
AcDbLine
 10
56.4537115068819
 20
21.83284145477737
 30
0.0
 11
56.4537115068819
 21
22.5664480042966
 31
0.0
  0
LINE
  5
180
330
6C
100
AcDbEntity
  8
Visible (ANSI)
100
AcDbLine
 10
65.67587257941099
 20
16.22095052048144
 30
0.0
 11
56.71422453152962
 21
21.38162040896454
 31
0.0
  0
LINE
  5
181
330
6C
100
AcDbEntity
  8
Visible (ANSI)
100
AcDbLine
 10
65.9363856040587
 20
17.10573916880866
 30
0.0
 11
65.9363856040587
 21
16.37213261928943
 31
0.0
  0
LINE
  5
182
330
6C
100
AcDbEntity
  8
Visible (ANSI)
100
AcDbLine
 10
65.72471877153242
 20
16.24907917176315
 30
0.0
 11
65.98523179618014
 21
16.40026127057114
 31
0.0
  0
LINE
  5
183
330
6C
100
AcDbEntity
  8
Visible (ANSI)
100
AcDbLine
 10
65.9363856040587
 20
16.37213261928943
 30
0.0
 11
65.67587257941099
 21
16.22095052048144
 31
0.0
  0
LINE
  5
184
330
6C
100
AcDbEntity
  8
Visible (ANSI)
100
AcDbLine
 10
65.67587257941099
 20
16.22095052048144
 30
0.0
 11
65.72471877153242
 21
16.24907917176315
 31
0.0
  0
LINE
  5
185
330
6C
100
AcDbEntity
  8
Visible (ANSI)
100
AcDbLine
 10
65.98523179618014
 20
16.40026127057114
 30
0.0
 11
65.9363856040587
 21
16.37213261928943
 31
0.0
  0
LINE
  5
186
330
6C
100
AcDbEntity
  8
Visible (ANSI)
100
AcDbLine
 10
65.98523179618014
 20
32.78562680425745
 30
0.0
 11
65.72471877153244
 21
33.23684785007028
 31
0.0
  0
LINE
  5
187
330
6C
100
AcDbEntity
  8
Visible (ANSI)
100
AcDbLine
 10
65.67587257941099
 20
33.20871919878857
 30
0.0
 11
65.93638560405871
 21
32.75749815297575
 31
0.0
  0
LINE
  5
188
330
6C
100
AcDbEntity
  8
Visible (ANSI)
100
AcDbLine
 10
65.93638560405871
 20
32.75749815297575
 30
0.0
 11
65.98523179618014
 21
32.78562680425745
 31
0.0
  0
LINE
  5
189
330
6C
100
AcDbEntity
  8
Visible (ANSI)
100
AcDbLine
 10
65.72471877153244
 20
33.23684785007028
 30
0.0
 11
65.67587257941099
 21
33.20871919878857
 31
0.0
  0
LINE
  5
18A
330
6C
100
AcDbEntity
  8
Visible (ANSI)
100
AcDbLine
 10
56.45371150688191
 20
38.21820698846368
 30
0.0
 11
56.71422453152963
 21
38.36938908727167
 31
0.0
  0
LINE
  5
18B
330
6C
100
AcDbEntity
  8
Visible (ANSI)
100
AcDbLine
 10
56.71422453152963
 20
38.36938908727167
 30
0.0
 11
56.76307072365106
 21
38.39751773855339
 31
0.0
  0
LINE
  5
18C
330
6C
100
AcDbEntity
  8
Visible (ANSI)
100
AcDbLine
 10
56.45371150688191
 20
37.48460043894445
 30
0.0
 11
56.51078991058223
 21
37.45173117230006
 31
0.0
  0
LINE
  5
18D
330
6C
100
AcDbEntity
  8
Visible (ANSI)
100
AcDbLine
 10
56.51078991058223
 20
37.45173117230006
 30
0.0
 11
56.51078991058223
 21
37.45161069167114
 31
0.0
  0
LINE
  5
18E
330
6C
100
AcDbEntity
  8
Visible Narrow (ANSI)
100
AcDbLine
 10
56.51068570537237
 20
37.45167069946055
 30
0.0
 11
56.51068570537236
 21
22.53375922607055
 31
0.0
  0
LINE
  5
18F
330
6C
100
AcDbEntity
  8
Visible (ANSI)
100
AcDbLine
 10
56.51078991058222
 20
22.53369921828115
 30
0.0
 11
56.51078991058222
 21
22.53357873765223
 31
0.0
  0
LINE
  5
190
330
6C
100
AcDbEntity
  8
Visible (ANSI)
100
AcDbLine
 10
56.51078991058222
 20
22.53357873765223
 30
0.0
 11
56.4537115068819
 21
22.5664480042966
 31
0.0
  0
ELLIPSE
  5
191
330
6C
100
AcDbEntity
  8
Visible (ANSI)
100
AcDbEllipse
 10
56.5676599038628
 20
37.48447995831552
 30
0.0
 11
-0.0805736842105173
 21
0.0000000000000001
 31
0.0
210
0.0
220
0.0
230
1.0
 40
0.5758617009853092
 41
0.7247905929202183
 42
0.7853981633975069
  0
ELLIPSE
  5
192
330
6C
100
AcDbEntity
  8
Visible (ANSI)
100
AcDbEllipse
 10
56.5676599038628
 20
22.56656848492553
 30
0.0
 11
-0.0805736842105262
 21
0.0000000000000001
 31
0.0
210
0.0
220
0.0
230
1.0
 40
0.5758617009853092
 41
0.0
 42
0.7853981633974483
  0
LINE
  5
193
330
6C
100
AcDbEntity
  8
Visible (ANSI)
100
AcDbLine
 10
56.4537115068819
 20
22.5664480042966
 30
0.0
 11
56.48708621965227
 21
22.58566722316245
 31
0.0
  0
LINE
  5
194
330
6C
100
AcDbEntity
  8
Visible (ANSI)
100
AcDbLine
 10
56.48708621965229
 20
37.46538122007861
 30
0.0
 11
56.48708621965227
 21
22.56656848492553
 31
0.0
  0
LINE
  5
195
330
6C
100
AcDbEntity
  8
Visible (ANSI)
100
AcDbLine
 10
56.51078991058223
 20
37.45161069167114
 30
0.0
 11
56.51068570537237
 21
37.45167069946055
 31
0.0
  0
LINE
  5
196
330
6C
100
AcDbEntity
  8
Visible (ANSI)
100
AcDbLine
 10
56.51068570537236
 20
22.53375922607055
 30
0.0
 11
56.51078991058222
 21
22.53369921828115
 31
0.0
  0
LINE
  5
197
330
6C
100
AcDbEntity
  8
Visible (ANSI)
100
AcDbLine
 10
56.70056200959048
 20
37.62663170869438
 30
0.0
 11
56.76110647674256
 21
37.66149694853385
 31
0.0
  0
LINE
  5
198
330
6C
100
AcDbEntity
  8
Visible (ANSI)
100
AcDbLine
 10
56.78809135198142
 20
37.62077920212636
 30
0.0
 11
56.7222344183577
 21
37.58285471630812
 31
0.0
  0
LINE
  5
199
330
6C
100
AcDbEntity
  8
Visible (ANSI)
100
AcDbLine
 10
56.71422453152962
 20
21.38162040896455
 30
0.0
 11
56.4537115068819
 21
21.83284145477737
 31
0.0
  0
DIMENSION
  5
19A
330
6C
100
AcDbEntity
  8
Dimension (ANSI)
100
AcDbDimension
  2
*D4
 10
31.29800070321412
 20
42.11662944750538
 30
0.0
 11
22.19800070321413
 21
42.11662944750538
 31
0.0
 70
   160
  1
<>
 42
18.19999999999999
  3
Default (ANSI)
100
AcDbAlignedDimension
 13
13.09800070321412
 23
37.15107147866065
 33
0.0
 14
31.29800070321412
 24
37.15107147866065
 34
0.0
100
AcDbRotatedDimension
1001
ACAD
1000
DSTYLE
1002
{
1070
   289
1070
     1
1070
    73
1070
     0
1070
    74
1070
     0
1070
   271
1070
     2
1070
   272
1070
     2
1070
    48
1040
0.0
1070
    47
1040
0.0
1002
}
  0
DIMENSION
  5
287
330
6C
100
AcDbEntity
  8
Dimension (ANSI)
100
AcDbDimension
  2
*D5
 10
30.79800070321412
 20
40.80067777787324
 30
0.0
 11
22.19800070321412
 21
40.80067777787324
 31
0.0
 70
   160
  1
<>{ TYP.}
 71
     5
 42
17.19999999999999
  3
Default (ANSI)
100
AcDbAlignedDimension
 13
13.59800070321412
 23
37.65107147866065
 33
0.0
 14
30.79800070321412
 24
37.65107147866065
 34
0.0
 50
180.0
100
AcDbRotatedDimension
1001
ACAD
1000
DSTYLE
1002
{
1070
   289
1070
     1
1070
    73
1070
     0
1070
    74
1070
     0
1070
   271
1070
     2
1070
   272
1070
     2
1070
    48
1040
0.0
1070
    47
1040
0.0
1002
}
  0
DIMENSION
  5
371
330
6C
100
AcDbEntity
  8
Dimension (ANSI)
100
AcDbDimension
  2
*D6
 10
13.59800070321412
 20
40.80067777787324
 30
0.0
 11
11.49493793737874
 21
40.80067777787324
 31
0.0
 70
   160
  1
<>{\PTYP.}
 71
     5
 42
0.4999999999999965
  3
Default (ANSI)
100
AcDbAlignedDimension
 13
13.09800070321412
 23
37.15107147866065
 33
0.0
 14
13.59800070321412
 24
37.65107147866065
 34
0.0
 50
180.0
100
AcDbRotatedDimension
1001
ACAD
1000
DSTYLE
1002
{
1070
   289
1070
     1
1070
    73
1070
     0
1070
    74
1070
     0
1070
   271
1070
     2
1070
   272
1070
     2
1070
    48
1040
0.0
1070
    47
1040
0.0
1002
}
  0
DIMENSION
  5
46F
330
6C
100
AcDbEntity
  8
Dimension (ANSI)
100
AcDbDimension
  2
*D7
 10
6.967250599608667
 20
9.451071478660653
 30
0.0
 11
6.967250599608667
 21
23.55107147866065
 31
0.0
 70
   160
  1
<>
 42
28.19999999999999
  3
Default (ANSI)
100
AcDbAlignedDimension
 13
13.59800070321412
 23
37.65107147866065
 33
0.0
 14
13.59800070321413
 24
9.451071478660651
 34
0.0
 50
270.0
100
AcDbRotatedDimension
1001
ACAD
1000
DSTYLE
1002
{
1070
   289
1070
     1
1070
   271
1070
     2
1070
   272
1070
     2
1070
    48
1040
0.0
1070
    47
1040
0.0
1002
}
  0
DIMENSION
  5
559
330
6C
100
AcDbEntity
  8
Dimension (ANSI)
100
AcDbDimension
  2
*D8
 10
11.50591446629526
 20
37.15107147866065
 30
0.0
 11
11.50591446629525
 21
23.55107147866065
 31
0.0
 70
   160
  1
<>{\PTYP.}
 71
     5
 42
27.19999999999999
  3
Default (ANSI)
100
AcDbAlignedDimension
 13
13.09800070321413
 23
9.951071478660651
 33
0.0
 14
13.09800070321412
 24
37.15107147866065
 34
0.0
 50
90.0
100
AcDbRotatedDimension
1001
ACAD
1000
DSTYLE
1002
{
1070
   289
1070
     1
1070
   271
1070
     2
1070
   272
1070
     2
1070
    48
1040
0.0
1070
    47
1040
0.0
1002
}
  0
DIMENSION
  5
657
330
6C
100
AcDbEntity
  8
Dimension (ANSI)
100
AcDbDimension
  2
*D9
 10
10.33455665986124
 20
37.15107147866065
 30
0.0
 11
11.52319755360783
 21
39.27172919623931
 31
0.0
 70
   160
  1
<>{\PTYP.}
 71
     5
 42
0.5
  3
Default (ANSI)
100
AcDbAlignedDimension
 13
13.59800070321412
 23
37.65107147866065
 33
0.0
 14
13.09800070321412
 24
37.15107147866065
 34
0.0
 50
90.0
100
AcDbRotatedDimension
1001
ACAD
1000
DSTYLE
1002
{
1070
   289
1070
     1
1070
   271
1070
     2
1070
   272
1070
     2
1070
    48
1040
0.0
1070
    47
1040
0.0
1002
}
  0
DIMENSION
  5
76D
330
6C
100
AcDbEntity
  8
Dimension (ANSI)
100
AcDbDimension
  2
*D10
 10
13.44122400791747
 20
10.14784817395727
 30
0.0
 11
20.11000475978116
 21
7.357191670418814
 31
0.0
 70
   163
  1
<>{ TYP. (4 PL.)}
 42
0.5
  3
Default (ANSI)
100
AcDbDiametricDimension
 15
13.79477739851079
 25
9.794294783364044
 35
0.0
 40
0.0
1001
ACAD
1000
DSTYLE
1002
{
1070
   144
1040
0.9999999999999964
1070
   271
1070
     2
1070
   272
1070
     2
1070
    48
1040
0.0
1070
    47
1040
0.0
1002
}
1001
ACAD_DSTYLE_DIMRADIAL_EXTENSION
1070
   387
1070
     1
1070
   388
1040
0.0
1070
   390
1040
0.0
  0
DIMENSION
  5
817
330
6C
100
AcDbEntity
  8
Dimension (ANSI)
100
AcDbDimension
  2
*D11
 10
13.50751526865371
 20
10.83155691322103
 30
0.0
 11
20.04694524446296
 21
8.170251185737029
 31
0.0
 70
   163
  1
<>{ TYP. (4 PL.)}
 42
0.3125
  3
Default (ANSI)
100
AcDbDiametricDimension
 15
13.72848613777455
 25
10.61058604410027
 35
0.0
 40
0.0
1001
ACAD
1000
DSTYLE
1002
{
1070
   144
1040
0.9999999999999801
1070
   271
1070
     2
1070
   272
1070
     2
1070
    48
1040
0.0
1070
    47
1040
0.0
1002
}
1001
ACAD_DSTYLE_DIMRADIAL_EXTENSION
1070
   387
1070
     1
1070
   388
1040
0.0
1070
   390
1040
0.0
  0
DIMENSION
  5
8C0
330
6C
100
AcDbEntity
  8
Dimension (ANSI)
100
AcDbDimension
  2
*D12
 10
34.63113595622319
 20
9.97107147866065
 30
0.0
 11
33.44249506247659
 21
8.382843585853805
 31
0.0
 70
   160
  1
<>{ \PTYP.}
 71
     5
 42
0.5199999999999996
  3
Default (ANSI)
100
AcDbAlignedDimension
 13
30.79800070321413
 23
9.451071478660651
 33
0.0
 14
30.77800070321413
 24
9.97107147866065
 34
0.0
 50
90.0
100
AcDbRotatedDimension
1001
ACAD
1000
DSTYLE
1002
{
1070
   289
1070
     1
1070
   271
1070
     2
1070
   272
1070
     2
1070
    48
1040
0.0
1070
    47
1040
0.0
1002
}
  0
DIMENSION
  5
9D6
330
6C
100
AcDbEntity
  8
Dimension (ANSI)
100
AcDbDimension
  2
*D13
 10
36.41850866576048
 20
10.72107147866065
 30
0.0
 11
35.25994296043196
 21
8.381766643400787
 31
0.0
 70
   160
  1
<>{\PTYP.}
 71
     5
 42
1.269999999999999
  3
Default (ANSI)
100
AcDbAlignedDimension
 13
30.79800070321413
 23
9.451071478660651
 33
0.0
 14
30.77800070321413
 24
10.72107147866065
 34
0.0
 50
90.0
100
AcDbRotatedDimension
1001
ACAD
1000
DSTYLE
1002
{
1070
   289
1070
     2
1070
   271
1070
     2
1070
   272
1070
     2
1070
    48
1040
0.0
1070
    47
1040
0.0
1002
}
  0
DIMENSION
  5
AE8
330
6C
100
AcDbEntity
  8
Dimension (ANSI)
100
AcDbDimension
  2
*D14
 10
31.29800070321413
 20
8.397987800726712
 30
0.0
 11
29.17493793737874
 21
8.397987800726712
 31
0.0
 70
   160
  1
<>{\PTYP.}
 71
     5
 42
0.5200000000000032
  3
Default (ANSI)
100
AcDbAlignedDimension
 13
30.77800070321413
 23
10.72107147866065
 33
0.0
 14
31.29800070321413
 24
9.951071478660651
 34
0.0
 50
180.0
100
AcDbRotatedDimension
1001
ACAD
1000
DSTYLE
1002
{
1070
   289
1070
     1
1070
    73
1070
     0
1070
    74
1070
     0
1070
   271
1070
     2
1070
   272
1070
     2
1070
    48
1040
0.0
1070
    47
1040
0.0
1002
}
  0
DIMENSION
  5
BE6
330
6C
100
AcDbEntity
  8
Dimension (ANSI)
100
AcDbDimension
  2
*D15
 10
44.73622015797394
 20
37.02731643462193
 30
0.0
 11
41.67814241335868
 21
37.02731643462193
 31
0.0
 70
   160
  1
(<>){\P12 GA.\PGALV.}
 71
     5
 42
0.09375
  3
Default (ANSI)
100
AcDbAlignedDimension
 13
44.82997015797393
 23
25.42350375331236
 33
0.0
 14
44.73622015797394
 24
25.42350375331236
 34
0.0
100
AcDbRotatedDimension
1001
ACAD
1000
DSTYLE
1002
{
1070
   289
1070
     1
1070
    73
1070
     0
1070
    74
1070
     0
1070
   271
1070
     3
1070
   147
1040
0.031496062992126
1070
    72
1070
     0
1070
    71
1070
     0
1070
   272
1070
     3
1070
    48
1040
0.0
1070
    47
1040
0.0
1002
}
  0
MTEXT
  5
CEE
102
{ACAD_XDICTIONARY
360
DF1
102
}
330
6C
100
AcDbEntity
  8
Symbol (ANSI)
100
AcDbMText
 10
50.22150171747279
 20
7.127588247204041
 30
0.0
 40
0.4210526450165465
 41
19.8435583379984
 71
     4
 72
     1
  3
{\fRomanS|b0|i0|c0|p2;\H2x;PART#: NP3020CG\P(DATA SUBJECT TO CHANGE \H1.5533x; \H0.64379x;WITHOUT NOTICE) \H1.4593x; \H0.68528x;\P\H0.60005x;THIS DRAWING IS PROPERTY OF HUBBELL INC. \H1.4743x; \H0.6783x;WIEGMANN\H1.157x; \H0.86434x;\PALL INFORMATION 
  1
IS PROPRIETARY AND NOT TO \H1.1949x; \H0.83686x;BE DUPLICATED\H1.1904x; \H0.84006x;\P\H0.83337x; \H1.2291x; \H0.8136x;\P \H1.1397x; }
  7
Note Text (ANSI)
 73
     1
 44
0.8397688865661621
1001
ACAD
1000
MTEXTBEGIN
1070
    73
1070
     1
1070
    44
1040
0.8397688865661621
1070
    74
1070
     0
1000
MTEXTEND
  0
LINE
  5
CF0
330
6C
100
AcDbEntity
  8
Center Mark (ANSI)
  6
CHAIN
 48
0.2047499567270279
100
AcDbLine
 10
12.84168491374045
 20
37.13107147866065
 30
0.0
 11
14.39431649268781
 21
37.13107147866065
 31
0.0
  0
LINE
  5
CF1
330
6C
100
AcDbEntity
  8
Center Mark (ANSI)
  6
CHAIN
 48
0.2047499567270279
100
AcDbLine
 10
31.55431649268782
 20
37.13107147866065
 30
0.0
 11
30.00168491374045
 21
37.13107147866065
 31
0.0
  0
LINE
  5
CF2
330
6C
100
AcDbEntity
  8
Centerline (ANSI)
  6
CHAIN
 48
0.9524481296539306
100
AcDbLine
 10
12.84168491374045
 20
37.13107147866065
 30
0.0
 11
31.55431649268782
 21
37.13107147866065
 31
0.0
  0
LINE
  5
CF3
330
6C
100
AcDbEntity
  8
Center Mark (ANSI)
  6
CHAIN
 48
0.2047499567270279
100
AcDbLine
 10
30.77800070321413
 20
9.194755689186965
 30
0.0
 11
30.77800070321413
 21
10.74738726813433
 31
0.0
  0
LINE
  5
CF4
330
6C
100
AcDbEntity
  8
Centerline (ANSI)
  6
CHAIN
 48
0.9524481296539306
100
AcDbLine
 10
30.77800070321413
 20
37.90738726813433
 30
0.0
 11
30.77800070321413
 21
9.194755689186965
 31
0.0
  0
LINE
  5
CF5
330
6C
100
AcDbEntity
  8
Center Mark (ANSI)
  6
CHAIN
 48
0.2047499567270279
100
AcDbLine
 10
12.84168491374045
 20
9.97107147866065
 30
0.0
 11
14.39431649268781
 21
9.97107147866065
 31
0.0
  0
LINE
  5
CF6
330
6C
100
AcDbEntity
  8
Centerline (ANSI)
  6
CHAIN
 48
0.9524481296539306
100
AcDbLine
 10
31.55431649268781
 20
9.97107147866065
 30
0.0
 11
12.84168491374045
 21
9.97107147866065
 31
0.0
  0
LINE
  5
CF7
330
6C
100
AcDbEntity
  8
Centerline (ANSI)
  6
CHAIN
 48
0.9524481296539306
100
AcDbLine
 10
13.61800070321413
 20
9.194755689186965
 30
0.0
 11
13.61800070321413
 21
37.90738726813433
 31
0.0
  0
LINE
  5
CF8
330
6C
100
AcDbEntity
  8
Center Mark (ANSI)
  6
CHAIN
 48
0.1800117194652557
100
AcDbLine
 10
13.61800070321413
 20
37.06363726813433
 30
0.0
 11
13.61800070321413
 21
35.69850568918696
 31
0.0
  0
LINE
  5
CF9
330
6C
100
AcDbEntity
  8
Center Mark (ANSI)
  6
CHAIN
 48
0.1800117194652557
100
AcDbLine
 10
30.77800070321413
 20
37.06363726813433
 30
0.0
 11
30.77800070321413
 21
35.69850568918696
 31
0.0
  0
LINE
  5
CFA
330
6C
100
AcDbEntity
  8
Centerline (ANSI)
  6
CHAIN
 48
0.9524481296539306
100
AcDbLine
 10
12.93543491374045
 20
36.38107147866064
 30
0.0
 11
31.46056649268781
 21
36.38107147866064
 31
0.0
  0
LINE
  5
CFB
330
6C
100
AcDbEntity
  8
Center Mark (ANSI)
  6
CHAIN
 48
0.1800117194652557
100
AcDbLine
 10
13.61800070321413
 20
11.40363726813433
 30
0.0
 11
13.61800070321413
 21
10.03850568918696
 31
0.0
  0
LINE
  5
CFC
330
6C
100
AcDbEntity
  8
Center Mark (ANSI)
  6
CHAIN
 48
0.1800117194652557
100
AcDbLine
 10
30.77800070321413
 20
11.40363726813433
 30
0.0
 11
30.77800070321413
 21
10.03850568918696
 31
0.0
  0
LINE
  5
CFD
330
6C
100
AcDbEntity
  8
Centerline (ANSI)
  6
CHAIN
 48
0.9524481296539306
100
AcDbLine
 10
12.93543491374045
 20
10.72107147866065
 30
0.0
 11
31.46056649268781
 21
10.72107147866065
 31
0.0
  0
DIMENSION
  5
CFE
330
6C
100
AcDbEntity
  8
Dimension (ANSI)
100
AcDbDimension
  2
*D16
 10
45.51022015797395
 20
34.27538395275928
 30
0.0
 11
47.34912383607857
 21
34.27538395275928
 31
0.0
 70
   160
  1
<>
 42
0.7740000000000081
  3
Default (ANSI)
100
AcDbAlignedDimension
 13
44.73622015797394
 23
35.93327147866064
 33
0.0
 14
45.51022015797395
 24
35.93307147866064
 34
0.0
 50
180.0
100
AcDbRotatedDimension
1001
ACAD
1000
DSTYLE
1002
{
1070
   289
1070
     1
1070
    73
1070
     0
1070
    74
1070
     0
1070
   271
1070
     2
1070
    76
1070
     1
1070
   272
1070
     2
1070
    48
1040
0.0
1070
    47
1040
0.0
1002
}
  0
ENDSEC
  0
SECTION
  2
OBJECTS
  0
DICTIONARY
  5
C
330
0
100
AcDbDictionary
281
     1
  3
ACAD_CIP_PREVIOUS_PRODUCT_INFO
350
DE3
  3
ACAD_COLOR
350
63
  3
ACAD_GROUP
350
D
  3
ACAD_LAYOUT
350
62
  3
ACAD_MATERIAL
350
10
  3
ACAD_MLEADERSTYLE
350
66
  3
ACAD_MLINESTYLE
350
5F
  3
ACAD_PLOTSETTINGS
350
61
  3
ACAD_PLOTSTYLENAME
350
E
  3
ACAD_SCALELIST
350
42
  3
ACAD_TABLESTYLE
350
64
  3
ACAD_VISUALSTYLE
350
29
  3
ACDB_RECOMPOSE_DATA
350
DF3
  3
AcDbVariableDictionary
350
76
  3
DWGPROPS
350
DF4
  0
DICTIONARY
  5
E30
330
811
100
AcDbDictionary
280
     1
281
     1
  3
ACAD_MTEXT_RT
360
E31
  0
DICTIONARY
  5
E32
330
8BA
100
AcDbDictionary
280
     1
281
     1
  3
ACAD_MTEXT_RT
360
E33
  0
DICTIONARY
  5
DF1
330
CEE
100
AcDbDictionary
280
     1
281
     1
  3
ACAD_MTEXT_2008_RT
360
DF2
  0
XRECORD
  5
DE3
102
{ACAD_REACTORS
330
C
102
}
330
C
100
AcDbXrecord
280
     1
300
INVNTOR
300
2012
300
85795PDSP_2012_0F
  0
DICTIONARY
  5
63
102
{ACAD_REACTORS
330
C
102
}
330
C
100
AcDbDictionary
281
     1
  0
DICTIONARY
  5
D
102
{ACAD_REACTORS
330
C
102
}
330
C
100
AcDbDictionary
281
     1
  0
DICTIONARY
  5
62
102
{ACAD_REACTORS
330
C
102
}
330
C
100
AcDbDictionary
281
     1
  3
Layout1
350
6B
  3
Layout2
350
73
  3
Model
350
6F
  0
DICTIONARY
  5
10
102
{ACAD_REACTORS
330
C
102
}
330
C
100
AcDbDictionary
281
     1
  3
ByBlock
350
19
  3
ByLayer
350
11
  3
Global
350
21
  0
DICTIONARY
  5
66
102
{ACAD_REACTORS
330
C
102
}
330
C
100
AcDbDictionary
281
     1
  3
Standard
350
67
  0
DICTIONARY
  5
5F
102
{ACAD_REACTORS
330
C
102
}
330
C
100
AcDbDictionary
281
     1
  3
Standard
350
60
  0
DICTIONARY
  5
61
102
{ACAD_REACTORS
330
C
102
}
330
C
100
AcDbDictionary
281
     1
  0
ACDBDICTIONARYWDFLT
  5
E
102
{ACAD_REACTORS
330
C
102
}
330
C
100
AcDbDictionary
281
     1
  3
Normal
350
F
100
AcDbDictionaryWithDefault
340
F
  0
DICTIONARY
  5
42
102
{ACAD_REACTORS
330
C
102
}
330
C
100
AcDbDictionary
281
     1
  3
A0
350
43
  3
A1
350
44
  3
A2
350
45
  3
A3
350
46
  3
A4
350
47
  3
A5
350
48
  3
A6
350
49
  3
A7
350
4A
  3
A8
350
4B
  3
A9
350
4C
  3
B0
350
4D
  3
B1
350
4E
  3
B2
350
4F
  3
B3
350
50
  3
B4
350
51
  3
B5
350
52
  3
B6
350
53
  0
DICTIONARY
  5
64
102
{ACAD_REACTORS
330
C
102
}
330
C
100
AcDbDictionary
281
     1
  3
Standard
350
65
  0
DICTIONARY
  5
29
102
{ACAD_REACTORS
330
C
102
}
330
C
100
AcDbDictionary
281
     1
  3
2dWireframe
350
2F
  3
Basic
350
2E
  3
Brighten
350
35
  3
ColorChange
350
39
  3
Conceptual
350
32
  3
Dim
350
34
  3
EdgeColorOff
350
41
  3
Facepattern
350
38
  3
Flat
350
2A
  3
FlatWithEdges
350
2B
  3
Gouraud
350
2C
  3
GouraudWithEdges
350
2D
  3
Hidden
350
31
  3
JitterOff
350
3F
  3
Linepattern
350
37
  3
OverhangOff
350
40
  3
Realistic
350
33
  3
Shaded
350
3E
  3
Shaded with edges
350
3D
  3
Shades of Gray
350
3A
  3
Sketchy
350
3B
  3
Thicken
350
36
  3
Wireframe
350
30
  3
X-Ray
350
3C
  0
XRECORD
  5
DF3
102
{ACAD_REACTORS
330
C
102
}
330
C
100
AcDbXrecord
280
     1
 90
        1
330
65
330
9D6
330
CEE
  0
DICTIONARY
  5
76
102
{ACAD_REACTORS
330
C
102
}
330
C
100
AcDbDictionary
281
     1
  3
CANNOSCALE
350
79
  3
CMLEADERSTYLE
350
78
  3
CTABLESTYLE
350
77
  3
DIMASSOC
350
DEB
  3
HIDETEXT
350
DEA
  3
INDEXCTL
350
DE9
  3
LAYEREVAL
350
DE6
  3
LAYERNOTIFY
350
DE7
  3
LIGHTINGUNITS
350
DE5
  3
MSLTSCALE
350
DE4
  3
SORTENTS
350
DE8
  3
XCLIPFRAME
350
DEC
  0
XRECORD
  5
DF4
102
{ACAD_REACTORS
330
C
102
}
330
C
100
AcDbXrecord
280
     1
  1
DWGPROPS COOKIE
  2

  3

  4
JF
  6

  7

  8

  9
-
300
Manager=
301
Company=
302
Category=
303
Part Number=NP3020CG-S
304
Description=
305
Project=
306
Designer=JF
307
Engineer=
308
Authority=
309
Cost Center=
 40
0.0000347222222222
 41
2455946.353363287
 42
2455946.353363287
  1

 90
       22
300
Vendor=
300
User Status=
300
Design Status=WorkInProgress
300
Checked by=DN
300
Date Checked=01/18/2012
300
Engr Approved by=
300
Date Eng Approved=01/18/2012
300
Mfg Approved by=
300
Date Mfg Approved=01/18/2012
300
DWG. NO=
300
NUMBER OF SHEETS=1
300
DRAWING #=
  0
XRECORD
  5
E31
102
{ACAD_REACTORS
330
E30
102
}
330
E30
100
AcDbXrecord
280
     1
 40
28737.0
  1
\A1;\U+22050.50{ TYP. (4 PL.)}
  0
XRECORD
  5
E33
102
{ACAD_REACTORS
330
E32
102
}
330
E32
100
AcDbXrecord
280
     1
 40
28724.0
  1
\A1;\U+22050.31{ TYP. (4 PL.)}
  0
XRECORD
  5
DF2
102
{ACAD_REACTORS
330
DF1
102
}
330
DF1
100
AcDbXrecord
280
     1
 40
4848416.0
  1
\pxsm0.94;{\fRomanS|b0|i0;\H0.8421;PART#: NP3020CG\P(DATA SUBJECT TO CHANGE WITHOUT NOTICE) \P\fRomanS|b0|i0;\H0.5053;THIS DRAWING IS PROPERTY OF HUBBELL INC. WIEGMANN\PALL INFORMATION IS PROPRIETARY AND NOT TO BE DUPLICATED\P\fRomanS|b0|i0;\H0.4211;
  1
 \P }
  0
LAYOUT
  5
6B
102
{ACAD_XDICTIONARY
360
E2A
102
}
102
{ACAD_REACTORS
330
62
102
}
330
62
100
AcDbPlotSettings
  1

  2

  4

  6

 40
0.0
 41
0.0
 42
0.0
 43
0.0
 44
0.0
 45
0.0
 46
0.0
 47
0.0
 48
0.0
 49
0.0
140
0.0
141
0.0
142
1.0
143
1.0
 70
   688
 72
     0
 73
     0
 74
     5
  7

 75
    16
147
1.0
148
0.0
149
0.0
100
AcDbLayout
  1
Layout1
 70
     1
 71
     1
 10
0.0
 20
0.0
 11
12.0
 21
9.0
 12
0.0
 22
0.0
 32
0.0
 14
0.0
 24
0.0
 34
0.0
 15
0.0
 25
0.0
 35
0.0
146
0.0
 13
0.0
 23
0.0
 33
0.0
 16
1.0
 26
0.0
 36
0.0
 17
0.0
 27
1.0
 37
0.0
 76
     0
330
68
  0
LAYOUT
  5
73
102
{ACAD_XDICTIONARY
360
E2E
102
}
102
{ACAD_REACTORS
330
62
102
}
330
62
100
AcDbPlotSettings
  1

  2

  4

  6

 40
0.0
 41
0.0
 42
0.0
 43
0.0
 44
0.0
 45
0.0
 46
0.0
 47
0.0
 48
0.0
 49
0.0
140
0.0
141
0.0
142
1.0
143
1.0
 70
   688
 72
     0
 73
     0
 74
     5
  7

 75
    16
147
1.0
148
0.0
149
0.0
100
AcDbLayout
  1
Layout2
 70
     1
 71
     2
 10
0.0
 20
0.0
 11
12.0
 21
9.0
 12
0.0
 22
0.0
 32
0.0
 14
0.0
 24
0.0
 34
0.0
 15
0.0
 25
0.0
 35
0.0
146
0.0
 13
0.0
 23
0.0
 33
0.0
 16
1.0
 26
0.0
 36
0.0
 17
0.0
 27
1.0
 37
0.0
 76
     0
330
70
  0
LAYOUT
  5
6F
102
{ACAD_XDICTIONARY
360
E2C
102
}
102
{ACAD_REACTORS
330
62
102
}
330
62
100
AcDbPlotSettings
  1

  2

  4

  6

 40
0.0
 41
0.0
 42
0.0
 43
0.0
 44
0.0
 45
0.0
 46
0.0
 47
0.0
 48
0.0
 49
0.0
140
0.0
141
0.0
142
1.0
143
1.0
 70
  1712
 72
     0
 73
     0
 74
     0
  7

 75
     0
147
1.0
148
0.0
149
0.0
100
AcDbLayout
  1
Model
 70
     1
 71
     0
 10
0.0
 20
0.0
 11
12.0
 21
9.0
 12
0.0
 22
0.0
 32
0.0
 14
0.0
 24
0.0
 34
0.0
 15
0.0
 25
0.0
 35
0.0
146
0.0
 13
0.0
 23
0.0
 33
0.0
 16
1.0
 26
0.0
 36
0.0
 17
0.0
 27
1.0
 37
0.0
 76
     0
330
6C
  0
MATERIAL
  5
19
102
{ACAD_XDICTIONARY
360
1A
102
}
102
{ACAD_REACTORS
330
10
102
}
330
10
100
AcDbMaterial
  1
ByBlock
 72
     0
 43
0.0208333333333333
 43
0.0
 43
0.0
 43
0.0
 43
0.0
 43
0.0208333333333333
 43
0.0
 43
0.0
 43
0.0
 43
0.0
 43
1.0
 43
0.0
 43
0.0
 43
0.0
 43
0.0
 43
1.0
 77
     0
 47
0.0208333333333333
 47
0.0
 47
0.0
 47
0.0
 47
0.0
 47
0.0208333333333333
 47
0.0
 47
0.0
 47
0.0
 47
0.0
 47
1.0
 47
0.0
 47
0.0
 47
0.0
 47
0.0
 47
1.0
171
     0
 49
0.0208333333333333
 49
0.0
 49
0.0
 49
0.0
 49
0.0
 49
0.0208333333333333
 49
0.0
 49
0.0
 49
0.0
 49
0.0
 49
1.0
 49
0.0
 49
0.0
 49
0.0
 49
0.0
 49
1.0
175
     0
142
0.0208333333333333
142
0.0
142
0.0
142
0.0
142
0.0
142
0.0208333333333333
142
0.0
142
0.0
142
0.0
142
0.0
142
1.0
142
0.0
142
0.0
142
0.0
142
0.0
142
1.0
179
     0
144
0.0208333333333333
144
0.0
144
0.0
144
0.0
144
0.0
144
0.0208333333333333
144
0.0
144
0.0
144
0.0
144
0.0
144
1.0
144
0.0
144
0.0
144
0.0
144
0.0
144
1.0
147
0.0208333333333333
147
0.0
147
0.0
147
0.0
147
0.0
147
0.0208333333333333
147
0.0
147
0.0
147
0.0
147
0.0
147
1.0
147
0.0
147
0.0
147
0.0
147
0.0
147
1.0
  0
MATERIAL
  5
11
102
{ACAD_XDICTIONARY
360
12
102
}
102
{ACAD_REACTORS
330
10
102
}
330
10
100
AcDbMaterial
  1
ByLayer
 72
     0
 43
0.0208333333333333
 43
0.0
 43
0.0
 43
0.0
 43
0.0
 43
0.0208333333333333
 43
0.0
 43
0.0
 43
0.0
 43
0.0
 43
1.0
 43
0.0
 43
0.0
 43
0.0
 43
0.0
 43
1.0
 77
     0
 47
0.0208333333333333
 47
0.0
 47
0.0
 47
0.0
 47
0.0
 47
0.0208333333333333
 47
0.0
 47
0.0
 47
0.0
 47
0.0
 47
1.0
 47
0.0
 47
0.0
 47
0.0
 47
0.0
 47
1.0
171
     0
 49
0.0208333333333333
 49
0.0
 49
0.0
 49
0.0
 49
0.0
 49
0.0208333333333333
 49
0.0
 49
0.0
 49
0.0
 49
0.0
 49
1.0
 49
0.0
 49
0.0
 49
0.0
 49
0.0
 49
1.0
175
     0
142
0.0208333333333333
142
0.0
142
0.0
142
0.0
142
0.0
142
0.0208333333333333
142
0.0
142
0.0
142
0.0
142
0.0
142
1.0
142
0.0
142
0.0
142
0.0
142
0.0
142
1.0
179
     0
144
0.0208333333333333
144
0.0
144
0.0
144
0.0
144
0.0
144
0.0208333333333333
144
0.0
144
0.0
144
0.0
144
0.0
144
1.0
144
0.0
144
0.0
144
0.0
144
0.0
144
1.0
147
0.0208333333333333
147
0.0
147
0.0
147
0.0
147
0.0
147
0.0208333333333333
147
0.0
147
0.0
147
0.0
147
0.0
147
1.0
147
0.0
147
0.0
147
0.0
147
0.0
147
1.0
  0
MATERIAL
  5
21
102
{ACAD_XDICTIONARY
360
22
102
}
102
{ACAD_REACTORS
330
10
102
}
330
10
100
AcDbMaterial
  1
Global
 72
     0
 43
0.0208333333333333
 43
0.0
 43
0.0
 43
0.0
 43
0.0
 43
0.0208333333333333
 43
0.0
 43
0.0
 43
0.0
 43
0.0
 43
1.0
 43
0.0
 43
0.0
 43
0.0
 43
0.0
 43
1.0
 77
     0
 47
0.0208333333333333
 47
0.0
 47
0.0
 47
0.0
 47
0.0
 47
0.0208333333333333
 47
0.0
 47
0.0
 47
0.0
 47
0.0
 47
1.0
 47
0.0
 47
0.0
 47
0.0
 47
0.0
 47
1.0
171
     0
 49
0.0208333333333333
 49
0.0
 49
0.0
 49
0.0
 49
0.0
 49
0.0208333333333333
 49
0.0
 49
0.0
 49
0.0
 49
0.0
 49
1.0
 49
0.0
 49
0.0
 49
0.0
 49
0.0
 49
1.0
175
     0
142
0.0208333333333333
142
0.0
142
0.0
142
0.0
142
0.0
142
0.0208333333333333
142
0.0
142
0.0
142
0.0
142
0.0
142
1.0
142
0.0
142
0.0
142
0.0
142
0.0
142
1.0
179
     0
144
0.0208333333333333
144
0.0
144
0.0
144
0.0
144
0.0
144
0.0208333333333333
144
0.0
144
0.0
144
0.0
144
0.0
144
1.0
144
0.0
144
0.0
144
0.0
144
0.0
144
1.0
147
0.0208333333333333
147
0.0
147
0.0
147
0.0
147
0.0
147
0.0208333333333333
147
0.0
147
0.0
147
0.0
147
0.0
147
1.0
147
0.0
147
0.0
147
0.0
147
0.0
147
1.0
  0
MLEADERSTYLE
  5
67
102
{ACAD_XDICTIONARY
360
DEF
102
}
102
{ACAD_REACTORS
330
66
102
}
330
66
100
AcDbMLeaderStyle
170
     2
171
     1
172
     0
 90
        2
 40
0.0
 41
0.0
173
     1
 91
-1056964608
340
5B
 92
       -2
290
     1
 42
0.09
291
     1
 43
0.36
  3
Standard
 44
0.18
300

342
55
174
     1
178
     6
175
     1
176
     0
 93
-1056964608
 45
0.18
292
     0
297
     0
 46
0.18
 94
-1056964608
 47
1.0
 49
1.0
140
1.0
293
     1
141
0.0
294
     1
177
     0
142
1.0
295
     0
296
     0
143
0.125
1001
ACAD_MLEADERVER
1070
     2
  0
MLINESTYLE
  5
60
102
{ACAD_REACTORS
330
5F
102
}
330
5F
100
AcDbMlineStyle
  2
STANDARD
 70
     0
  3

 62
   256
 51
90.0
 52
90.0
 71
     2
 49
0.5
 62
   256
  6
BYLAYER
 49
-0.5
 62
   256
  6
BYLAYER
  0
ACDBPLACEHOLDER
  5
F
102
{ACAD_REACTORS
330
E
102
}
330
E
  0
SCALE
  5
43
102
{ACAD_REACTORS
330
42
102
}
330
42
100
AcDbScale
 70
     0
300
1:1
140
1.0
141
1.0
290
     1
  0
SCALE
  5
44
102
{ACAD_REACTORS
330
42
102
}
330
42
100
AcDbScale
 70
     0
300
1/128" = 1'-0"
140
0.0078125
141
12.0
290
     0
  0
SCALE
  5
45
102
{ACAD_REACTORS
330
42
102
}
330
42
100
AcDbScale
 70
     0
300
1/64" = 1'-0"
140
0.015625
141
12.0
290
     0
  0
SCALE
  5
46
102
{ACAD_REACTORS
330
42
102
}
330
42
100
AcDbScale
 70
     0
300
1/32" = 1'-0"
140
0.03125
141
12.0
290
     0
  0
SCALE
  5
47
102
{ACAD_REACTORS
330
42
102
}
330
42
100
AcDbScale
 70
     0
300
1/16" = 1'-0"
140
0.0625
141
12.0
290
     0
  0
SCALE
  5
48
102
{ACAD_REACTORS
330
42
102
}
330
42
100
AcDbScale
 70
     0
300
3/32" = 1'-0"
140
0.09375
141
12.0
290
     0
  0
SCALE
  5
49
102
{ACAD_REACTORS
330
42
102
}
330
42
100
AcDbScale
 70
     0
300
1/8" = 1'-0"
140
0.125
141
12.0
290
     0
  0
SCALE
  5
4A
102
{ACAD_REACTORS
330
42
102
}
330
42
100
AcDbScale
 70
     0
300
3/16" = 1'-0"
140
0.1875
141
12.0
290
     0
  0
SCALE
  5
4B
102
{ACAD_REACTORS
330
42
102
}
330
42
100
AcDbScale
 70
     0
300
1/4" = 1'-0"
140
0.25
141
12.0
290
     0
  0
SCALE
  5
4C
102
{ACAD_REACTORS
330
42
102
}
330
42
100
AcDbScale
 70
     0
300
3/8" = 1'-0"
140
0.375
141
12.0
290
     0
  0
SCALE
  5
4D
102
{ACAD_REACTORS
330
42
102
}
330
42
100
AcDbScale
 70
     0
300
1/2" = 1'-0"
140
0.5
141
12.0
290
     0
  0
SCALE
  5
4E
102
{ACAD_REACTORS
330
42
102
}
330
42
100
AcDbScale
 70
     0
300
3/4" = 1'-0"
140
0.75
141
12.0
290
     0
  0
SCALE
  5
4F
102
{ACAD_REACTORS
330
42
102
}
330
42
100
AcDbScale
 70
     0
300
1" = 1'-0"
140
1.0
141
12.0
290
     0
  0
SCALE
  5
50
102
{ACAD_REACTORS
330
42
102
}
330
42
100
AcDbScale
 70
     0
300
1-1/2" = 1'-0"
140
1.5
141
12.0
290
     0
  0
SCALE
  5
51
102
{ACAD_REACTORS
330
42
102
}
330
42
100
AcDbScale
 70
     0
300
3" = 1'-0"
140
3.0
141
12.0
290
     0
  0
SCALE
  5
52
102
{ACAD_REACTORS
330
42
102
}
330
42
100
AcDbScale
 70
     0
300
6" = 1'-0"
140
6.0
141
12.0
290
     0
  0
SCALE
  5
53
102
{ACAD_REACTORS
330
42
102
}
330
42
100
AcDbScale
 70
     0
300
1'-0" = 1'-0"
140
12.0
141
12.0
290
     0
  0
TABLESTYLE
  5
65
102
{ACAD_XDICTIONARY
360
DED
102
}
102
{ACAD_REACTORS
330
64
102
}
330
64
100
AcDbTableStyle
  3
Standard
 70
     0
 71
     0
 40
0.06
 41
0.06
280
     0
281
     0
  7
Standard
140
0.18
170
     2
 62
     0
 63
     7
283
     0
274
    -2
284
     1
 64
     0
275
    -2
285
     1
 65
     0
276
    -2
286
     1
 66
     0
277
    -2
287
     1
 67
     0
278
    -2
288
     1
 68
     0
279
    -2
289
     1
 69
     0
  7
Standard
140
0.25
170
     5
 62
     0
 63
     7
283
     0
274
    -2
284
     1
 64
     0
275
    -2
285
     1
 65
     0
276
    -2
286
     1
 66
     0
277
    -2
287
     1
 67
     0
278
    -2
288
     1
 68
     0
279
    -2
289
     1
 69
     0
  7
Standard
140
0.18
170
     5
 62
     0
 63
     7
283
     0
274
    -2
284
     1
 64
     0
275
    -2
285
     1
 65
     0
276
    -2
286
     1
 66
     0
277
    -2
287
     1
 67
     0
278
    -2
288
     1
 68
     0
279
    -2
289
     1
 69
     0
  0
VISUALSTYLE
  5
2F
102
{ACAD_XDICTIONARY
360
E02
102
}
102
{ACAD_REACTORS
330
29
102
}
330
29
100
AcDbVisualStyle
  2
2dWireframe
 70
     4
 71
     0
 72
     2
 73
     0
 90
        0
 40
-0.6
 41
-30.0
 62
     5
 63
     7
 74
     1
 91
        4
 64
     7
 65
   257
 75
     1
175
     1
 42
1.0
 92
        0
 66
   257
 43
1.0
 76
     1
 77
     6
 78
     2
 67
     7
 79
     5
170
     0
171
     0
290
     0
174
     0
 93
        1
 44
0.0
173
     0
291
     0
 45
0.0
1001
ACAD
1000
AcDbSavedByObjectVersion
1070
     0
  0
VISUALSTYLE
  5
2E
102
{ACAD_XDICTIONARY
360
E00
102
}
102
{ACAD_REACTORS
330
29
102
}
330
29
100
AcDbVisualStyle
  2
Basic
 70
     7
 71
     1
 72
     0
 73
     1
 90
        0
 40
-0.6
 41
-30.0
 62
     5
 63
     7
 74
     0
 91
        4
 64
     7
 65
   257
 75
     1
175
     1
 42
1.0
 92
        8
 66
     7
 43
1.0
 76
     1
 77
     6
 78
     2
 67
     7
 79
     5
170
     0
171
     0
290
     0
174
     0
 93
        1
 44
0.0
173
     0
291
     1
 45
0.0
1001
ACAD
1000
AcDbSavedByObjectVersion
1070
     0
  0
VISUALSTYLE
  5
35
102
{ACAD_XDICTIONARY
360
E0E
102
}
102
{ACAD_REACTORS
330
29
102
}
330
29
100
AcDbVisualStyle
  2
Brighten
 70
    12
 71
     2
 72
     2
 73
     0
 90
        0
 40
-0.6
 41
-30.0
 62
     5
 63
     7
 74
     1
 91
        4
 64
     7
 65
   257
 75
     1
175
     1
 42
1.0
 92
        8
 66
     7
 43
1.0
 76
     1
 77
     6
 78
     2
 67
     7
 79
     5
170
     0
171
     0
290
     0
174
     0
 93
        1
 44
50.0
173
     0
291
     1
 45
0.0
1001
ACAD
1000
AcDbSavedByObjectVersion
1070
     0
  0
VISUALSTYLE
  5
39
102
{ACAD_XDICTIONARY
360
E16
102
}
102
{ACAD_REACTORS
330
29
102
}
330
29
100
AcDbVisualStyle
  2
ColorChange
 70
    16
 71
     2
 72
     2
 73
     3
 90
        0
 40
-0.6
 41
-30.0
 62
     5
 63
     8
 74
     1
 91
        4
 64
     7
 65
   257
 75
     1
175
     1
 42
1.0
 92
        8
 66
     8
 43
1.0
 76
     1
 77
     6
 78
     2
 67
     7
 79
     5
170
     0
171
     0
290
     0
174
     0
 93
        1
 44
0.0
173
     0
291
     1
 45
0.0
1001
ACAD
1000
AcDbSavedByObjectVersion
1070
     0
  0
VISUALSTYLE
  5
32
102
{ACAD_XDICTIONARY
360
E08
102
}
102
{ACAD_REACTORS
330
29
102
}
330
29
100
AcDbVisualStyle
  2
Conceptual
 70
     9
 71
     3
 72
     2
 73
     0
 90
        0
 40
-0.6
 41
-30.0
 62
     5
 63
     7
 74
     2
 91
        2
 64
     7
 65
   257
 75
     1
175
     1
 42
179.0
 92
        8
 66
     7
 43
1.0
 76
     1
 77
     6
 78
     2
 67
     7
 79
     3
170
     0
171
     0
290
     0
174
     0
 93
        1
 44
0.0
173
     0
291
     0
 45
0.0
1001
ACAD
1000
AcDbSavedByObjectVersion
1070
     0
  0
VISUALSTYLE
  5
34
102
{ACAD_XDICTIONARY
360
E0C
102
}
102
{ACAD_REACTORS
330
29
102
}
330
29
100
AcDbVisualStyle
  2
Dim
 70
    11
 71
     2
 72
     2
 73
     0
 90
        0
 40
-0.6
 41
-30.0
 62
     5
 63
     7
 74
     1
 91
        4
 64
     7
 65
   257
 75
     1
175
     1
 42
1.0
 92
        8
 66
     7
 43
1.0
 76
     1
 77
     6
 78
     2
 67
     7
 79
     5
170
     0
171
     0
290
     0
174
     0
 93
        1
 44
-50.0
173
     0
291
     1
 45
0.0
1001
ACAD
1000
AcDbSavedByObjectVersion
1070
     0
  0
VISUALSTYLE
  5
41
102
{ACAD_XDICTIONARY
360
E26
102
}
102
{ACAD_REACTORS
330
29
102
}
330
29
100
AcDbVisualStyle
  2
EdgeColorOff
 70
    22
 71
     2
 72
     2
 73
     0
 90
        0
 40
-0.6
 41
-30.0
 62
     5
 63
     7
 74
     1
 91
        4
 64
     7
 65
   257
 75
     1
175
     1
 42
1.0
 92
        8
 66
     7
 43
1.0
 76
     1
 77
     6
 78
     2
 67
     7
 79
     5
170
     0
171
     0
290
     0
174
     0
 93
        1
 44
0.0
173
     0
291
     1
 45
0.0
1001
ACAD
1000
AcDbSavedByObjectVersion
1070
     0
  0
VISUALSTYLE
  5
38
102
{ACAD_XDICTIONARY
360
E14
102
}
102
{ACAD_REACTORS
330
29
102
}
330
29
100
AcDbVisualStyle
  2
Facepattern
 70
    15
 71
     2
 72
     2
 73
     0
 90
        0
 40
-0.6
 41
-30.0
 62
     5
 63
     7
 74
     1
 91
        4
 64
     7
 65
   257
 75
     1
175
     1
 42
1.0
 92
        8
 66
     7
 43
1.0
 76
     1
 77
     6
 78
     2
 67
     7
 79
     5
170
     0
171
     0
290
     0
174
     0
 93
        1
 44
0.0
173
     0
291
     1
 45
0.0
1001
ACAD
1000
AcDbSavedByObjectVersion
1070
     0
  0
VISUALSTYLE
  5
2A
102
{ACAD_XDICTIONARY
360
DF8
102
}
102
{ACAD_REACTORS
330
29
102
}
330
29
100
AcDbVisualStyle
  2
Flat
 70
     0
 71
     2
 72
     1
 73
     1
 90
        2
 40
-0.6
 41
30.0
 62
     5
 63
     7
 74
     0
 91
        0
 64
     7
 65
   257
 75
     1
175
     1
 42
1.0
 92
        8
 66
     7
 43
1.0
 76
     1
 77
     6
 78
     2
 67
     7
 79
     5
170
     0
171
     0
290
     0
174
     0
 93
       13
 44
0.0
173
     0
291
     1
 45
0.0
1001
ACAD
1000
AcDbSavedByObjectVersion
1070
     0
  0
VISUALSTYLE
  5
2B
102
{ACAD_XDICTIONARY
360
DFA
102
}
102
{ACAD_REACTORS
330
29
102
}
330
29
100
AcDbVisualStyle
  2
FlatWithEdges
 70
     1
 71
     2
 72
     1
 73
     1
 90
        2
 40
-0.6
 41
30.0
 62
     5
 63
     7
 74
     1
 91
        0
 64
     7
 65
   257
 75
     1
175
     1
 42
1.0
 92
        0
 66
   257
 43
1.0
 76
     1
 77
     6
 78
     2
 67
     7
 79
     5
170
     0
171
     0
290
     0
174
     0
 93
       13
 44
0.0
173
     0
291
     1
 45
0.0
1001
ACAD
1000
AcDbSavedByObjectVersion
1070
     0
  0
VISUALSTYLE
  5
2C
102
{ACAD_XDICTIONARY
360
DFC
102
}
102
{ACAD_REACTORS
330
29
102
}
330
29
100
AcDbVisualStyle
  2
Gouraud
 70
     2
 71
     2
 72
     2
 73
     1
 90
        2
 40
-0.6
 41
30.0
 62
     5
 63
     7
 74
     0
 91
        0
 64
     7
 65
   257
 75
     1
175
     1
 42
1.0
 92
        0
 66
     7
 43
1.0
 76
     1
 77
     6
 78
     2
 67
     7
 79
     5
170
     0
171
     0
290
     0
174
     0
 93
       13
 44
0.0
173
     0
291
     1
 45
0.0
1001
ACAD
1000
AcDbSavedByObjectVersion
1070
     0
  0
VISUALSTYLE
  5
2D
102
{ACAD_XDICTIONARY
360
DFE
102
}
102
{ACAD_REACTORS
330
29
102
}
330
29
100
AcDbVisualStyle
  2
GouraudWithEdges
 70
     3
 71
     2
 72
     2
 73
     1
 90
        2
 40
-0.6
 41
30.0
 62
     5
 63
     7
 74
     1
 91
        0
 64
     7
 65
   257
 75
     1
175
     1
 42
1.0
 92
        0
 66
   257
 43
1.0
 76
     1
 77
     6
 78
     2
 67
     7
 79
     5
170
     0
171
     0
290
     0
174
     0
 93
       13
 44
0.0
173
     0
291
     1
 45
0.0
1001
ACAD
1000
AcDbSavedByObjectVersion
1070
     0
  0
VISUALSTYLE
  5
31
102
{ACAD_XDICTIONARY
360
E06
102
}
102
{ACAD_REACTORS
330
29
102
}
330
29
100
AcDbVisualStyle
  2
Hidden
 70
     6
 71
     1
 72
     2
 73
     2
 90
        0
 40
-0.6
 41
-30.0
 62
     5
 63
     7
 74
     2
 91
        2
 64
     7
 65
   257
 75
     2
175
     1
 42
40.0
 92
        0
 66
   257
 43
1.0
 76
     1
 77
     6
 78
     2
 67
     7
 79
     3
170
     0
171
     0
290
     0
174
     0
 93
        1
 44
0.0
173
     0
291
     0
 45
0.0
1001
ACAD
1000
AcDbSavedByObjectVersion
1070
     0
  0
VISUALSTYLE
  5
3F
102
{ACAD_XDICTIONARY
360
E22
102
}
102
{ACAD_REACTORS
330
29
102
}
330
29
100
AcDbVisualStyle
  2
JitterOff
 70
    20
 71
     2
 72
     2
 73
     0
 90
        0
 40
-0.6
 41
-30.0
 62
     5
 63
     7
 74
     1
 91
        4
 64
     7
 65
   257
 75
     1
175
     1
 42
1.0
 92
       10
 66
     7
 43
1.0
 76
     1
 77
     6
 78
     2
 67
     7
 79
     5
170
     0
171
     0
290
     0
174
     0
 93
        1
 44
0.0
173
     0
291
     1
 45
0.0
1001
ACAD
1000
AcDbSavedByObjectVersion
1070
     0
  0
VISUALSTYLE
  5
37
102
{ACAD_XDICTIONARY
360
E12
102
}
102
{ACAD_REACTORS
330
29
102
}
330
29
100
AcDbVisualStyle
  2
Linepattern
 70
    14
 71
     2
 72
     2
 73
     0
 90
        0
 40
-0.6
 41
-30.0
 62
     5
 63
     7
 74
     1
 91
        4
 64
     7
 65
   257
 75
     7
175
     7
 42
1.0
 92
        8
 66
     7
 43
1.0
 76
     1
 77
     6
 78
     2
 67
     7
 79
     5
170
     0
171
     0
290
     0
174
     0
 93
        1
 44
0.0
173
     0
291
     1
 45
0.0
1001
ACAD
1000
AcDbSavedByObjectVersion
1070
     0
  0
VISUALSTYLE
  5
40
102
{ACAD_XDICTIONARY
360
E24
102
}
102
{ACAD_REACTORS
330
29
102
}
330
29
100
AcDbVisualStyle
  2
OverhangOff
 70
    21
 71
     2
 72
     2
 73
     0
 90
        0
 40
-0.6
 41
-30.0
 62
     5
 63
     7
 74
     1
 91
        4
 64
     7
 65
   257
 75
     1
175
     1
 42
1.0
 92
        9
 66
     7
 43
1.0
 76
     1
 77
     6
 78
     2
 67
     7
 79
     5
170
     0
171
     0
290
     0
174
     0
 93
        1
 44
0.0
173
     0
291
     1
 45
0.0
1001
ACAD
1000
AcDbSavedByObjectVersion
1070
     0
  0
VISUALSTYLE
  5
33
102
{ACAD_XDICTIONARY
360
E0A
102
}
102
{ACAD_REACTORS
330
29
102
}
330
29
100
AcDbVisualStyle
  2
Realistic
 70
     8
 71
     2
 72
     3
 73
     0
 90
        2
 40
-0.6
 41
30.0
 62
     5
 63
     7
 74
     0
 91
        0
 64
     7
 65
   257
 75
     1
175
     1
 42
1.0
 92
        8
 66
   257
 43
1.0
 76
     1
 77
     6
 78
     2
 67
     7
 79
     3
170
     0
171
     0
290
     0
174
     0
 93
       13
 44
0.0
173
     0
291
     0
 45
0.0
1001
ACAD
1000
AcDbSavedByObjectVersion
1070
     0
  0
VISUALSTYLE
  5
3E
102
{ACAD_XDICTIONARY
360
E20
102
}
102
{ACAD_REACTORS
330
29
102
}
330
29
100
AcDbVisualStyle
  2
Shaded
 70
    27
 71
     2
 72
     2
 73
     1
 90
        2
 40
-0.6
 41
30.0
 62
     5
 63
     7
 74
     0
 91
        4
 64
     7
 65
   257
 75
     1
175
     1
 42
1.0
 92
        8
 66
   257
 43
1.0
 76
     1
 77
     6
 78
     2
 67
     8
 79
     3
170
     0
171
     0
290
     0
174
     0
 93
        5
 44
0.0
173
     0
291
     0
 45
0.0
1001
ACAD
1000
AcDbSavedByObjectVersion
1070
     0
  0
VISUALSTYLE
  5
3D
102
{ACAD_XDICTIONARY
360
E1E
102
}
102
{ACAD_REACTORS
330
29
102
}
330
29
100
AcDbVisualStyle
  2
Shaded with edges
 70
    26
 71
     2
 72
     2
 73
     1
 90
        2
 40
-0.6
 41
30.0
 62
     5
 63
     7
 74
     1
 91
       10
 64
     7
 65
   257
 75
     2
175
     1
 42
1.0
 92
        8
 66
   257
 43
1.0
 76
     1
 77
     6
 78
     2
 67
     7
 79
     3
170
     0
171
     0
290
     0
174
     0
 93
        5
 44
0.0
173
     0
291
     0
 45
0.0
1001
ACAD
1000
AcDbSavedByObjectVersion
1070
     0
  0
VISUALSTYLE
  5
3A
102
{ACAD_XDICTIONARY
360
E18
102
}
102
{ACAD_REACTORS
330
29
102
}
330
29
100
AcDbVisualStyle
  2
Shades of Gray
 70
    23
 71
     2
 72
     2
 73
     3
 90
        0
 40
-0.6
 41
-30.0
 62
     5
 63
     7
 74
     2
 91
        2
 64
     7
 65
     7
 75
     1
175
     1
 42
40.0
 92
        8
 66
     7
 43
1.0
 76
     1
 77
     6
 78
     2
 67
     7
 79
     3
170
     0
171
     0
290
     0
174
     0
 93
        1
 44
0.0
173
     0
291
     0
 45
0.0
1001
ACAD
1000
AcDbSavedByObjectVersion
1070
     0
  0
VISUALSTYLE
  5
3B
102
{ACAD_XDICTIONARY
360
E1A
102
}
102
{ACAD_REACTORS
330
29
102
}
330
29
100
AcDbVisualStyle
  2
Sketchy
 70
    24
 71
     1
 72
     2
 73
     2
 90
        0
 40
-0.6
 41
-30.0
 62
     5
 63
     7
 74
     2
 91
        2
 64
     7
 65
     7
 75
     1
175
     1
 42
40.0
 92
       11
 66
     7
 43
1.0
 76
     1
 77
     6
 78
     2
 67
     7
 79
     6
170
     0
171
     0
290
     0
174
     0
 93
        1
 44
0.0
173
     0
291
     0
 45
0.0
1001
ACAD
1000
AcDbSavedByObjectVersion
1070
     0
  0
VISUALSTYLE
  5
36
102
{ACAD_XDICTIONARY
360
E10
102
}
102
{ACAD_REACTORS
330
29
102
}
330
29
100
AcDbVisualStyle
  2
Thicken
 70
    13
 71
     2
 72
     2
 73
     0
 90
        0
 40
-0.6
 41
-30.0
 62
     5
 63
     7
 74
     1
 91
        4
 64
     7
 65
   257
 75
     1
175
     1
 42
1.0
 92
       12
 66
     7
 43
1.0
 76
     1
 77
     6
 78
     2
 67
     7
 79
     5
170
     0
171
     0
290
     0
174
     0
 93
        1
 44
0.0
173
     0
291
     1
 45
0.0
1001
ACAD
1000
AcDbSavedByObjectVersion
1070
     0
  0
VISUALSTYLE
  5
30
102
{ACAD_XDICTIONARY
360
E04
102
}
102
{ACAD_REACTORS
330
29
102
}
330
29
100
AcDbVisualStyle
  2
Wireframe
 70
     5
 71
     0
 72
     2
 73
     0
 90
        0
 40
-0.6
 41
-30.0
 62
     5
 63
     7
 74
     1
 91
        4
 64
     7
 65
   257
 75
     1
175
     1
 42
1.0
 92
        0
 66
   257
 43
1.0
 76
     1
 77
     6
 78
     2
 67
     7
 79
     3
170
     0
171
     0
290
     0
174
     0
 93
        1
 44
0.0
173
     0
291
     0
 45
0.0
1001
ACAD
1000
AcDbSavedByObjectVersion
1070
     0
  0
VISUALSTYLE
  5
3C
102
{ACAD_XDICTIONARY
360
E1C
102
}
102
{ACAD_REACTORS
330
29
102
}
330
29
100
AcDbVisualStyle
  2
X-Ray
 70
    25
 71
     2
 72
     2
 73
     1
 90
        1
 40
0.5
 41
-30.0
 62
     5
 63
     7
 74
     1
 91
        0
 64
     7
 65
   257
 75
     1
175
     1
 42
1.0
 92
        8
 66
     7
 43
1.0
 76
     1
 77
     6
 78
     2
 67
     7
 79
     3
170
     0
171
     0
290
     0
174
     0
 93
       13
 44
0.0
173
     0
291
     0
 45
0.0
1001
ACAD
1000
AcDbSavedByObjectVersion
1070
     0
  0
DICTIONARYVAR
  5
79
102
{ACAD_REACTORS
330
76
102
}
330
76
100
DictionaryVariables
280
     0
  1
1:1
  0
DICTIONARYVAR
  5
78
102
{ACAD_REACTORS
330
76
102
}
330
76
100
DictionaryVariables
280
     0
  1
STANDARD
  0
DICTIONARYVAR
  5
77
102
{ACAD_REACTORS
330
76
102
}
330
76
100
DictionaryVariables
280
     0
  1
STANDARD
  0
DICTIONARYVAR
  5
DEB
102
{ACAD_REACTORS
330
76
102
}
330
76
100
DictionaryVariables
280
     0
  1
1
  0
DICTIONARYVAR
  5
DEA
102
{ACAD_REACTORS
330
76
102
}
330
76
100
DictionaryVariables
280
     0
  1
1
  0
DICTIONARYVAR
  5
DE9
102
{ACAD_REACTORS
330
76
102
}
330
76
100
DictionaryVariables
280
     0
  1
0
  0
DICTIONARYVAR
  5
DE6
102
{ACAD_REACTORS
330
76
102
}
330
76
100
DictionaryVariables
280
     0
  1
0
  0
DICTIONARYVAR
  5
DE7
102
{ACAD_REACTORS
330
76
102
}
330
76
100
DictionaryVariables
280
     0
  1
0
  0
DICTIONARYVAR
  5
DE5
102
{ACAD_REACTORS
330
76
102
}
330
76
100
DictionaryVariables
280
     0
  1
2
  0
DICTIONARYVAR
  5
DE4
102
{ACAD_REACTORS
330
76
102
}
330
76
100
DictionaryVariables
280
     0
  1
1
  0
DICTIONARYVAR
  5
DE8
102
{ACAD_REACTORS
330
76
102
}
330
76
100
DictionaryVariables
280
     0
  1
127
  0
DICTIONARYVAR
  5
DEC
102
{ACAD_REACTORS
330
76
102
}
330
76
100
DictionaryVariables
280
     0
  1
2
  0
DICTIONARY
  5
E2A
330
6B
100
AcDbDictionary
280
     1
281
     1
  3
ACAD_XREC_ROUNDTRIP
360
E2B
  0
DICTIONARY
  5
E2E
330
73
100
AcDbDictionary
280
     1
281
     1
  3
ACAD_XREC_ROUNDTRIP
360
E2F
  0
DICTIONARY
  5
E2C
330
6F
100
AcDbDictionary
280
     1
281
     1
  3
ACAD_XREC_ROUNDTRIP
360
E2D
  0
DICTIONARY
  5
1A
330
19
100
AcDbDictionary
280
     1
281
     1
  3
ACAD_XREC_ROUNDTRIP
360
DF6
  3
BUMPTILE
360
1C
  3
DIFFUSETILE
360
1B
  3
OPACITYTILE
360
1F
  3
REFLECTIONTILE
360
1E
  3
REFRACTIONTILE
360
20
  3
SPECULARTILE
360
1D
  0
DICTIONARY
  5
12
330
11
100
AcDbDictionary
280
     1
281
     1
  3
ACAD_XREC_ROUNDTRIP
360
DF5
  3
BUMPTILE
360
14
  3
DIFFUSETILE
360
13
  3
FBXASSET
360
F5
  3
OPACITYTILE
360
17
  3
REFLECTIONTILE
360
16
  3
REFRACTIONTILE
360
18
  3
SPECULARTILE
360
15
  0
DICTIONARY
  5
22
330
21
100
AcDbDictionary
280
     1
281
     1
  3
ACAD_XREC_ROUNDTRIP
360
DF7
  3
BUMPTILE
360
24
  3
DIFFUSETILE
360
23
  3
FBXASSET
360
BA
  3
OPACITYTILE
360
27
  3
REFLECTIONTILE
360
26
  3
REFRACTIONTILE
360
28
  3
SPECULARTILE
360
25
  0
DICTIONARY
  5
DEF
330
67
100
AcDbDictionary
280
     1
281
     1
  3
ACAD_XREC_ROUNDTRIP
360
DF0
  0
DICTIONARY
  5
DED
330
65
100
AcDbDictionary
280
     1
281
     1
  3
ACAD_ROUNDTRIP_2008_TABLESTYLE_CELLSTYLEMAP
360
DEE
  3
ACAD_XREC_ROUNDTRIP
360
E28
  0
DICTIONARY
  5
E02
330
2F
100
AcDbDictionary
280
     1
281
     1
  3
ACAD_XREC_ROUNDTRIP
360
E03
  0
DICTIONARY
  5
E00
330
2E
100
AcDbDictionary
280
     1
281
     1
  3
ACAD_XREC_ROUNDTRIP
360
E01
  0
DICTIONARY
  5
E0E
330
35
100
AcDbDictionary
280
     1
281
     1
  3
ACAD_XREC_ROUNDTRIP
360
E0F
  0
DICTIONARY
  5
E16
330
39
100
AcDbDictionary
280
     1
281
     1
  3
ACAD_XREC_ROUNDTRIP
360
E17
  0
DICTIONARY
  5
E08
330
32
100
AcDbDictionary
280
     1
281
     1
  3
ACAD_XREC_ROUNDTRIP
360
E09
  0
DICTIONARY
  5
E0C
330
34
100
AcDbDictionary
280
     1
281
     1
  3
ACAD_XREC_ROUNDTRIP
360
E0D
  0
DICTIONARY
  5
E26
330
41
100
AcDbDictionary
280
     1
281
     1
  3
ACAD_XREC_ROUNDTRIP
360
E27
  0
DICTIONARY
  5
E14
330
38
100
AcDbDictionary
280
     1
281
     1
  3
ACAD_XREC_ROUNDTRIP
360
E15
  0
DICTIONARY
  5
DF8
330
2A
100
AcDbDictionary
280
     1
281
     1
  3
ACAD_XREC_ROUNDTRIP
360
DF9
  0
DICTIONARY
  5
DFA
330
2B
100
AcDbDictionary
280
     1
281
     1
  3
ACAD_XREC_ROUNDTRIP
360
DFB
  0
DICTIONARY
  5
DFC
330
2C
100
AcDbDictionary
280
     1
281
     1
  3
ACAD_XREC_ROUNDTRIP
360
DFD
  0
DICTIONARY
  5
DFE
330
2D
100
AcDbDictionary
280
     1
281
     1
  3
ACAD_XREC_ROUNDTRIP
360
DFF
  0
DICTIONARY
  5
E06
330
31
100
AcDbDictionary
280
     1
281
     1
  3
ACAD_XREC_ROUNDTRIP
360
E07
  0
DICTIONARY
  5
E22
330
3F
100
AcDbDictionary
280
     1
281
     1
  3
ACAD_XREC_ROUNDTRIP
360
E23
  0
DICTIONARY
  5
E12
330
37
100
AcDbDictionary
280
     1
281
     1
  3
ACAD_XREC_ROUNDTRIP
360
E13
  0
DICTIONARY
  5
E24
330
40
100
AcDbDictionary
280
     1
281
     1
  3
ACAD_XREC_ROUNDTRIP
360
E25
  0
DICTIONARY
  5
E0A
330
33
100
AcDbDictionary
280
     1
281
     1
  3
ACAD_XREC_ROUNDTRIP
360
E0B
  0
DICTIONARY
  5
E20
330
3E
100
AcDbDictionary
280
     1
281
     1
  3
ACAD_XREC_ROUNDTRIP
360
E21
  0
DICTIONARY
  5
E1E
330
3D
100
AcDbDictionary
280
     1
281
     1
  3
ACAD_XREC_ROUNDTRIP
360
E1F
  0
DICTIONARY
  5
E18
330
3A
100
AcDbDictionary
280
     1
281
     1
  3
ACAD_XREC_ROUNDTRIP
360
E19
  0
DICTIONARY
  5
E1A
330
3B
100
AcDbDictionary
280
     1
281
     1
  3
ACAD_XREC_ROUNDTRIP
360
E1B
  0
DICTIONARY
  5
E10
330
36
100
AcDbDictionary
280
     1
281
     1
  3
ACAD_XREC_ROUNDTRIP
360
E11
  0
DICTIONARY
  5
E04
330
30
100
AcDbDictionary
280
     1
281
     1
  3
ACAD_XREC_ROUNDTRIP
360
E05
  0
DICTIONARY
  5
E1C
330
3C
100
AcDbDictionary
280
     1
281
     1
  3
ACAD_XREC_ROUNDTRIP
360
E1D
  0
XRECORD
  5
E2B
102
{ACAD_REACTORS
330
E2A
102
}
330
E2A
100
AcDbXrecord
280
     1
102
SHADEPLOT
 70
     0
102
SHADEPLOTRESLEVEL
 70
     2
102
SHADEPLOTCUSTOMDPI
 70
   300
  0
XRECORD
  5
E2F
102
{ACAD_REACTORS
330
E2E
102
}
330
E2E
100
AcDbXrecord
280
     1
102
SHADEPLOT
 70
     0
102
SHADEPLOTRESLEVEL
 70
     2
102
SHADEPLOTCUSTOMDPI
 70
   300
  0
XRECORD
  5
E2D
102
{ACAD_REACTORS
330
E2C
102
}
330
E2C
100
AcDbXrecord
280
     1
102
SHADEPLOT
 70
     0
102
SHADEPLOTRESLEVEL
 70
     2
102
SHADEPLOTCUSTOMDPI
 70
   300
  0
XRECORD
  5
DF6
102
{ACAD_REACTORS
330
1A
102
}
330
1A
100
AcDbXrecord
280
     1
102
MATERIAL
148
0.0
149
0.0
149
0.0
 93
        0
 94
      127
282
     0
 72
     0
 77
     0
171
     0
175
     0
179
     0
273
     0
  0
XRECORD
  5
1C
102
{ACAD_REACTORS
330
1A
102
}
330
1A
100
AcDbXrecord
280
     1
270
     1
271
     1
  0
XRECORD
  5
1B
102
{ACAD_REACTORS
330
1A
102
}
330
1A
100
AcDbXrecord
280
     1
270
     1
271
     1
  0
XRECORD
  5
1F
102
{ACAD_REACTORS
330
1A
102
}
330
1A
100
AcDbXrecord
280
     1
270
     1
271
     1
  0
XRECORD
  5
1E
102
{ACAD_REACTORS
330
1A
102
}
330
1A
100
AcDbXrecord
280
     1
270
     1
271
     1
  0
XRECORD
  5
20
102
{ACAD_REACTORS
330
1A
102
}
330
1A
100
AcDbXrecord
280
     1
270
     1
271
     1
  0
XRECORD
  5
1D
102
{ACAD_REACTORS
330
1A
102
}
330
1A
100
AcDbXrecord
280
     1
270
     1
271
     1
  0
XRECORD
  5
DF5
102
{ACAD_REACTORS
330
12
102
}
330
12
100
AcDbXrecord
280
     1
102
MATERIAL
148
0.0
149
0.0
149
0.0
 93
        0
 94
      127
282
     0
 72
     0
 77
     0
171
     0
175
     0
179
     0
273
     0
  0
XRECORD
  5
14
102
{ACAD_REACTORS
330
12
102
}
330
12
100
AcDbXrecord
280
     1
270
     1
271
     1
  0
XRECORD
  5
13
102
{ACAD_REACTORS
330
12
102
}
330
12
100
AcDbXrecord
280
     1
270
     1
271
     1
  0
XRECORD
  5
F5
102
{ACAD_REACTORS
330
12
102
}
330
12
100
AcDbXrecord
280
     1
 70
     1
 90
1959938040
 71
     1
  1
E6C2C120-CBCF-405A-B990-BA45F68B731D
311
504B03040A00000800009A4333403DEE336E79000000790000001B0000006175746F6465736B2D64657369676E2D7061636B6167652E786D6C3C3F786D6C2076657273696F6E3D22312E302220656E636F64696E673D227574662D3822203F3E3C666F726D6174733E3C666F726D61743E687474703A2F2F736368656D612E
311
6175746F6465736B2E636F6D2F64657369676E2D7061636B6167652F323030393C2F666F726D61743E3C2F666F726D6174733E504B03041400060808009A433340D486FD9CA0000000F4000000130000005B436F6E74656E745F54797065735D2E786D6C7D8EC10E82300C865F65E91D8A1E8C310C0EEA1BF002731658846E
311
D98AC1B77784ABF1D8FE5FBFBF75BBCE937A534CCEB38643598122B6FEE978D0B0485F9C41B54DDD7D022595594E1A469170414C76A4D9A4D207E29CF43ECE46F218070CC6BECC4078ACAA135ACF422C856C0E68EA1BF5669944DDD7BCDE7B1F8E415D77AECB980613C2E4AC91FC167A2B244592486606FC29C8FD7F045B9A
311
EF7053A7E60B504B03041400060808009A4333402CBE4204EC0000007C01000008000000636F72652E786D6C7590416E83301045AF62CDDE6003A1041947A52D27E8052CDBA156828DB01DE5F8358448E9A2AB19FDF96F66F4D9E93E5DD14D2FDE38DB01CD08206DA553C68E1DC470C60DA013678B73E1C506C88A4977B0CA
311
C0D9B8B838EF927436681B926A9DD2BB28BCD70190BCA6A6032F7FF42432114372F84B360B7911A3CEE8B34B708C46A1C711A3D23E73367A01DE1FBFEA81D00293FEF303570752E2BE1FDE705536F550D1EABD2C2A96AF3067C14CCFFB72D1226805BCD8588AE9F19B346DD1B487B4AA6E0961F96AFF03C559FD079598BC42
311
D1D85016FBBB0FCC03A7E9916DC059BE6691CA1654AA6B6EFC17504B03041400060808009A43334055019EA25F0000007C00000007000000636E782E786D6C4DCB3B0E80201045D1AD90E915ED2CF8AC45050C11660C8261F98AB1B07AC9C97D42D718D865D3E909258CFD00CCE24AC6E326A164D74DC0B4128928FF326038
311
472BA13128B1252AC747C6BAB984FC68F0B87FE8960A5C09FE86CFB69FBA01504B03041400060808009A4333400761409469010000020300000C0000006662782F636F72652E786D6C8D525B6E833010BC8AE57FB07924A5917154DAE604BD80030EB502363236CAF1BB3C22922A8D2A2463EDECECCC0EB0FDA56DD0206DAF
311
8CCE7114528CA42E4DA5749D63EF4E4186D19E336B8CBB69C3488B56E6782C63CE6A6B7CB7944AA39DD40EAADA5472298ABE970EA3B2814B8EFBF25BB62214DE41477F0E3B519E452DC3280418FA38EB9D05036816194FCC4FC70B23739D33EF55B5A0AA02357552D2625EBC7E6E0F348A035A7CBC07E9862641511C5E8234
311
C9B687344ADF923865642473E6547B75575A299CAC308F276E1444AF5F34DBC5D96E03A3B63B4A1919DBEF48BEABFE222501BD2579A55D122F76675A8F79044626E0D7B6109143BD18C00FE18C8C21C26B4AF83E6808044276E2D85CF738436990A5333605A4327E8506D17809AA144D0F23330A93A701B0D9C339F19339CF
311
67C00714BA066BC2C1F5E8DDA8CE66D5258A4EDA607017A48D6D45B39A9B2DAEE72AF4905E9AC6D8FFB0C9B22A59C224E3DFCB7F00504B03041400060808009A433340E49EAC337C0000009D0000000B0000006662782F636E782E786D6C4DCCD10A83201886E15B91FFDCF5BB940AD410E9426259C84CC3D9D8E5AF46073B
311
FAE0E1E395FD670DE4EDF2CBA7A880DD10888B8F34F9B828D8CB4C5B20BD9639A5F2770312C7D5293819B45C72DAB78B26378F7B2887061F9F1776354761B9A5025B41798D0335776CA83596598343C759039596D5AF74EC19D65F504B03041400060808009A43334021DA7A012D01000013020000310000006662782F3933
311
3430354334432D353038352D343330452D413230372D4341433143413045393431372F636F72652E786D6C8D514B6EC32014BC0A62952EB0C1BFDA11268AACDCA01720405294182C3E558E5FA81D295D54EA8607C3CCBC81470F8FF90EBE94F3DA9A11920243A08CB0529BEB0863B8A01E8203A3CEDAF04283C0F0598D30C3
311
90D1ABB371D920614D502624D458A936907BAF0204E29E3623F4E253CDBCE0312486BF150B17377E550529D275E231EA834B01C0DA24AF900D7583DBA999508BFB1635353EA16385DFD1749CC874C4A7A121EFB45C858CC6A8E526D732C5D117ADDC7F4DB298D1A0E7677CE1140F4A42566152214C10193E70BFAFFA7D9B8E
311
DD1E635A66FA2F515CE45FA21AE15751D426D4D516779579C8082DD70B46A58DE7FB338C7A2CD60590FBEDBC126F90E10293A11BDA81962B33BD3F5976CD66E98375E97F77B773229376F5ED1A46CB3CA2547EE6976A1E27FB06504B03041400060808009A43334062039F9A5201000033030000300000006662782F393334
311
30354334432D353038352D343330452D413230372D4341433143413045393431372F636E782E786D6CC593CD6EC23010845FC5F23DBF50449163A41EFA043DF4EAD80BB83876E49FAABC7DD76028170EEDA5172B991DCFAC3E256CFB3519F2093E686707DAD52D2560A553DAEE079AE2AE5A53B2E5CC3B17EF6C945831C140
311
B34C39DB7B97E62229D8896422AA46DB63113D0497BC848072BE498C93C26000D82AA108D3084A812237233EEDC0E32A288E27120F405E5FDE891B3F40C6C09A9CC259933B38CB6769BA3351228D0861A0411E6012B548D12908C75A8928EAAEBE763DD8E92789E40BD7CAE435C9E503CD27E565A31A39B206879C85E8915E
311
31C5D30C948B79365A8A88909BB3F1E2E12C691B57CBE2D508DEA3BB5B2D964B0C3BCF388B7A82E2901E44044579DF767DD57655F7FCD6AE37FD7AF384AFAB4DDBB226DB391B9D33E512C680773391CE46B091F28E3579FC085FF111A53DB276FEF40B9008A0B45EE8DC32FE9DCFA26AFFCAA7397FDF88CBE35FC0BF01504B
311
03041400060808009A433340C01692B79C0500007B100000340000006662782F39333430354334432D353038352D343330452D413230372D4341433143413045393431372F6F626A656374732E786D6CAD575B739B3814FE2B0CFB8C31B693263B848E2F49C7D34DDBA9A79D7DC88C478020DA88CB482275FAEBF713080CAE
311
9D7877FA02484847E77CE73B17F9EF7719B79EA990ACC86F6C6F34B62D9A4745CCF2F4C6AE54E25CD9D6FBC01745A17ACB6C2B2719BDB1F5B41DF8A928AAD24CC53421155707B3778BBF2D19D19CDA56C4899437B68C1E694646A452454CE5D328268A8CD26437F246CDC2A1D85490F2F140684904CD1534C57C0E2956A394
311
371C8E6D37F05DFD3FF0F5D3AC9A9E5EE5D6F60CCF67B954248F7E39EC40CCD49BAD6E2717D7CEC56C3675669713CF59DC2D568EF76E3A5E5E2E97D7F3DB6B1C2C958024A389A0891D7C00368245BEDBFC0AFC8AE56A3A314B8C835C419F99F6941D4C2CCF779B359D75C6C863EA47459ED3A8C60A68D4F619D1312D691EC3
311
E78C4A68D643683C1C7A1AC7DEEFA91E9B23FBD3E721D0DFD113D4EADEBEFB9A16E13F30419EC32021A9666083A531B4E1EA788F705814DCFC63D2CA88A282116E71160A225EEC004BF592C01F88D14C163A1AB40576002F34BF87744118BDCDF3635A2615E79AC6765047C116B14295AC35633FA9D86BDF47063AC1579A0D
311
57C620F552523BB86E287275C0A606482BE12485CB61A6DE399D1C18BAD471BA5ED9C1C7BB70B7D1B17BFCF0521425154AD307D46A1DD7BE354A4627EF2CCFE90DF6812A7B50BE02F94F08F5BD2AF09B60BBD96E664E5182E432294406DF5863CB19E331B6BCFAA9BF7B5FBEDB6D1E7AEF149E70B686EA37E039B4A1EFCB1E
311
9C81FF0CC217626A4CDB4484236DDCB31C00699258BCC014F27012EEEC608D2C87AC8C5D84071E4C86BACFF8F45D230689A23EA9F7CE81E5415A3C234103B69A9150A321BF5170EFA75FD2597DB059760ADE8BDF42D7F96AF37153898444F4DEC4F48A262C670A256ECF9BBE4203CC07163DD1971F858861E8AF786FFA7867
311
E62809B435E61AF8B4CDE97AB03F797040847D69A1D38DFFC609304217D69EFC7B2623CA39C96951B5E7BE5A3F50361A8875B06B267705665F58409AE6CF410CA2484782951AC4AE5A75497374C2BA6FEB4F60A41D2C5EFE222FFDEC15EE736F54F0426CC3976D93968E42FD7DC86D8381ABA580EE7590B4F16F40DFC62C49
311
2A89247804D7EFEB65DF773A2D2045B4529B6899C17E04171186B4AD5C546B4150498B7CCB50371177470FE8CB07A48601B5C0531A4BCA932DE3BCCAB609E3A846DB8C9427E0F8FFFA8755566E495654B93A217BA03AAAC350F7017BE50FA2A2473BD8D46F6781DC1BD3F80419742D3982D5C0B5B797CBC9D29B8C9DE56279
311
E7CCC6177367717D3D7616F3D9C5DDE5D5E2DDD45BB57E6A3409FCB6D4F4231A5E4269F32BC18CFBBEAD113F2609D8C13D51F2E143139EEDFBDB7A845ED877B107F5B2DB388F9FD1F7D1F86D01FB954705ADB392D38CE68AE818BAD71FFC2B419F3150A6995F6724A56748F9FC6173600C66CED8F745C73BFD71B0D7CC2E75
311
401E15A21EAB2CCC09E3071BD306C95199A706BFD627DDBB2934ED508F8C63D099CA82B3187930B6525A6454211B9E5184444625A8D7EFE96373F73863F773D3212A1272DA6AF248D0247389B000B5AA480DE7AD3FD0D4E9BEEAC646B91D3DE16132856D813337369A74C5222A47210AB46E856AE1E052BF9347E34FF294A3
311
D76E3675E36E97C6665092BB25E7F44FC6AE26851B0390464AF40D6888E09D5A99C0AF7533FFA3FF6478AB8E45143EC34A75B6EC273A63EA6310A28D51E6B68026E6C91CBD43A0BE6E9637AAD70C1039EB96F52A091AA98E2222AD6F0A5A3FA3D27CF5C5458762AD3F5B25AF52F8F27C498EA02073A5031C2C022B8CCC9228
311
5075F9E7C31751E0269B59770C147858165956E466303737616BF3887B6DFC80B440F585443E4CC6DEE4A1BE0898BBC93624928E482C9F30019F0AD6413C703C18D9DC1651819A1FDD3A573BE1809BEB95654ADA0C420D51FA5955C3829623A716A2475F2675ACF41794AFDE05DC7A295410E8E2837F01504B030414000608
311
00009A433340000000000000000000000000350000006662782F39333430354334432D353038352D343330452D413230372D4341433143413045393431372F76657274696365732E62696E504B03041400060808009A433340F270F1330600000004000000360000006662782F39333430354334432D353038352D34333045
311
2D413230372D4341433143413045393431372F747269616E676C65732E62696E636660600000504B03041400060800009A433340000000000000000000000000370000006662782F39333430354334432D353038352D343330452D413230372D4341433143413045393431372F617474726962757465732E62696E504B0304
311
1400060808009A433340D5987DFC8F00000041010000360000006662782F39333430354334432D353038352D343330452D413230372D4341433143413045393431372F6469726563746F72792E786D6C858F410EC2201045AF4266AF15DDB800BA74E7C21B903225242D6328188F2FA5C4183471359997F9FF81E89FF3C41E
311
1816475E02DF1F80A11FC8386F25A438EECEC07A250251FC3803E6F58C12560C4AD840E95E91C151A72936F496F35732D860FE635F62C8F2DA16B505C545B74125BAA2FA9E05D7CC053D063734D5C7665FD55B6B8D15D5E9BFEAFD8490FFA45E504B03041400060808009A43334044541F3500010000A00100003B00000066
311
62782F39333430354334432D353038352D343330452D413230372D4341433143413045393431372F7265736F75726365732F636F72652E786D6C75504B6E833010BD0A9ABDC1064209328E4ADB9CA017B0CC84580936F2A7EAF16B0295D245371ECFFB689E1E3F7DCFF7EC0B9DD7D6F4C0720A191A65476DA61E62B89016B2
311
93E0CEDAF02483CCC8197B5861107C72362E3BA4AC096842428D1D7107A5F7182053F7F4E9C1AB2BCE3297312485BFE58B54373961CEF244279DE03EB81420DB8EAC2F0887DE46A7D0F36263058F518FBB468FE9A6BE68742086E34773A68C113ABCBF91FA402B320CE71752576D73AE59FD5A95352F56B3E041CFBF199543
311
19700451525612CA083B7ED2B62BDBEE90D6A6A39417ABFC8F292EE37FA68AD06753D42654E51E77B379102C05791082176B5F693CCA4C73ED56FC00504B010214000A00000800009A4333403DEE336E79000000790000001B00000000000000000000000000000000006175746F6465736B2D64657369676E2D7061636B61
311
67652E786D6C504B010214001400060808009A433340D486FD9CA0000000F40000001300000000000000000000000000B20000005B436F6E74656E745F54797065735D2E786D6C504B010214001400060808009A4333402CBE4204EC0000007C010000080000000000000000000000000083010000636F72652E786D6C504B
311
010214001400060808009A43334055019EA25F0000007C000000070000000000000000000000000095020000636E782E786D6C504B010214001400060808009A4333400761409469010000020300000C00000000000000000000000000190300006662782F636F72652E786D6C504B010214001400060808009A433340E49E
311
AC337C0000009D0000000B00000000000000000000000000AC0400006662782F636E782E786D6C504B010214001400060808009A43334021DA7A012D010000130200003100000000000000000000000000510500006662782F39333430354334432D353038352D343330452D413230372D4341433143413045393431372F63
311
6F72652E786D6C504B010214001400060808009A43334062039F9A52010000330300003000000000000000000000000000CD0600006662782F39333430354334432D353038352D343330452D413230372D4341433143413045393431372F636E782E786D6C504B010214001400060808009A433340C01692B79C0500007B10
311
000034000000000000000000000000006D0800006662782F39333430354334432D353038352D343330452D413230372D4341433143413045393431372F6F626A656374732E786D6C504B010214001400060800009A43334000000000000000000000000035000000000000000000000000005B0E00006662782F3933343035
311
4334432D353038352D343330452D413230372D4341433143413045393431372F76657274696365732E62696E504B010214001400060808009A433340F270F13306000000040000003600000000000000000000000000AE0E00006662782F39333430354334432D353038352D343330452D413230372D434143314341304539
311
3431372F747269616E676C65732E62696E504B010214001400060800009A4333400000000000000000000000003700000000000000000000000000080F00006662782F39333430354334432D353038352D343330452D413230372D4341433143413045393431372F617474726962757465732E62696E504B01021400140006
311
0808009A433340D5987DFC8F0000004101000036000000000000000000000000005D0F00006662782F39333430354334432D353038352D343330452D413230372D4341433143413045393431372F6469726563746F72792E786D6C504B010214001400060808009A43334044541F3500010000A00100003B00000000000000
311
000000000000401000006662782F39333430354334432D353038352D343330452D413230372D4341433143413045393431372F7265736F75726365732F636F72652E786D6C504B0506000000000E000E0080040000991100000000
310
504B03040A00000800009A4333403DEE336E79000000790000001B0000006175746F6465736B2D64657369676E2D7061636B6167652E786D6C3C3F786D6C2076657273696F6E3D22312E302220656E636F64696E673D227574662D3822203F3E3C666F726D6174733E3C666F726D61743E687474703A2F2F736368656D612E
310
6175746F6465736B2E636F6D2F64657369676E2D7061636B6167652F323030393C2F666F726D61743E3C2F666F726D6174733E504B03041400060808009A433340D486FD9CA0000000F4000000130000005B436F6E74656E745F54797065735D2E786D6C7D8EC10E82300C865F65E91D8A1E8C310C0EEA1BF002731658846E
310
D98AC1B77784ABF1D8FE5FBFBF75BBCE937A534CCEB38643598122B6FEE978D0B0485F9C41B54DDD7D022595594E1A469170414C76A4D9A4D207E29CF43ECE46F218070CC6BECC4078ACAA135ACF422C856C0E68EA1BF5669944DDD7BCDE7B1F8E415D77AECB980613C2E4AC91FC167A2B244592486606FC29C8FD7F045B9A
310
EF7053A7E60B504B03041400060808009A4333402B3EE5D5E90000007C01000008000000636F72652E786D6C8D90D18E832010457F85CC3B0A76ABD6208D21EB17EC0F10A02E690523D0F4F3175B9BECBEEDD30C977B6626979D1FF30DDDCD1AAC773DD08200324E796DDDD4438A17DC023A73B67A1F7FD90039399B1E3619
310
389B569F965D52DE45E362569DD766176508260252B7DCF410D4B799652153CC8E702D16A9AE7232057D77194EC96AF45A62759E672FD6ACC09B63D58851083C3623C11FA77AC4C3580B4C9B7A188468EAF6F3C0CA0DE62CDAF9BD5FAD4646A38157845698504C4F5FA4EDAAB63BE667DD11C2CACDFE074A8BFE2794AC8B87
310
6A3FF78505E0341FF2FCE0ACDCB2C8E51954AE5B6EFC07504B03041400060808009A43334055019EA25F0000007C00000007000000636E782E786D6C4DCB3B0E80201045D1AD90E915ED2CF8AC45050C11660C8261F98AB1B07AC9C97D42D718D865D3E909258CFD00CCE24AC6E326A164D74DC0B4128928FF326038472BA1
310
3128B1252AC747C6BAB984FC68F0B87FE8960A5C09FE86CFB69FBA01504B03041400060808009A4333408B799A6E65010000020300000C0000006662782F636F72652E786D6C8D52ED8E8230107C95A6FFA1800A6A4A8D21C713DC0B54A85C23B4A41FC4C7BFE5C3705E8C3124507676766607E8E9DEB56810C64AAD721C87
310
11464255BA96AAC9B177D7608FD18951A3B5FBD38691E29DC8F158C68C3646FB7E29555A39A11C5495AEC552E4D60A8751D5C221C7B6FA111D0FB977D0616F61CFAB1B6F44188700431FA3D61930806691F18ED9F572A764AE33EABDAC1754D6A026AF5218CCB25D9215655104655646C1F69096C1B94C8B20CED2F3B928B2
310
74FFB5A1642433EA64F7705719C19DA8314BA23809A238880FDFD1FE98EC8F3B784D8F5144C9D8FE44F27DFD21C94BE536C96277A659CC62303201FFB685881CB27C003F84513286088F29E1E7A0211008D9F14BFBD8E306A541544E9B2D20B5F62B34F0D60B508DD0745132A330791A009BBD9C93BC99F37E067C40AE1AB0
310
C61D1C2FDE8DEA74565DA2E885090677474A9B8EB7ABB9D9E27A5F855ED22BDD6AF3099B2CAB92254C32FEBDEC17504B03041400060808009A43334034DACFF97E0000009D0000000B0000006662782F636E782E786D6C4DCCD10A83201886E15B91FFDCD29ACB400D96EB3E6259C84C87E9D8E5AF46073BFAE0E1E315DD67
310
75E86DE2668397400B02C8F84798AC5F24E434630EA853228690FE6E80FCB81A090783124B0CF975D264E631BBB4ABB3FE7962DB6BCAEEBAC64DC5067C2115C39C138AF98DF4F54074DB5C29944A94BFD2BE47587D01504B03041400060808009A4333406F95A5682801000014020000310000006662782F39434431354544
310
332D373235462D343032352D383830312D3842304333463044393736312F636F72652E786D6C8D51CB6EC32010FC15C4293DD8011C3B768489D4A4F982FE0031244589C1E251E5F3BBD48ED4DEC28185656676D8E5FBC77847DFDA07E36C8F694930D27670CAD86B8F53BC142D467BC1BD73F10F0C232B47DDE39CC6825FBD
310
4BD3921A9C8DDA46C85AA7F4929421E888D17087438FC3F0A54759CA1401116EE524879BBCEA9296F00C38C143F46000CD45F28E457738D2FAE358155B569F8A0D6175D1B68416ED3B39542772ECB60DE5EB9928784A462D74A3C08EB918ED5F15C964C1A3199FF607AF65D40A0B46282BA028ED3E49BB63EDAE866BB32384
310
AF33FC1F294DEA45523236566CB13BD30216F09BF94170E5D2F9FE34A31F93F311E57AABA087372C48491881951B3043A101A0D96C16CD109D8706AF6E6740578B70B3117C9D6704E1778010F33CC50F504B03041400060808009A4333400AF89C7A5401000033030000300000006662782F39434431354544332D37323546
310
2D343032352D383830312D3842304333463044393736312F636E782E786D6CBD93CD6EC32010845F0571F76F52CB8D30917AE813F4D02B864D4283C1025C356FDF2521692E3954AA7A41F6EC30B3FA64B3EDD764C827F8A09D1D6853D69480954E69BB1FE81277454FC99633EF5CBCB35162C504034D32E56CEFDD326749C1
310
4E2C26A26AB43D66D143708B9710504E37897152180C005B2C28C2348252A0C8CD884F3BF0B80A8AE389C40390D79777E2C60F9031B02AA57056A50ECED2999BEE4C944823421868900798442996E8148463A9441465535EBB1EECF49344D2856BE5E23549E5034D27E579A31239B20A879C85E8915E36C5D30C948B79365A
310
8A8890ABB3F1E2E16CD13676EBECD508DEA37BD5767D8F61E71967514F901DD28388A0286FEBA62DEAA6689EDFEA7ED3F69B277CED3675CDAA64E76C74CEE44B1803DECD443A1BC146CA1B56A5F1237CD94794F6C8DAF9D32F402280DC7AA173CBF84B3E4DB75AAFFF914F75FEBE1197C7BF807F03504B0304140006080800
310
9A433340237565B75A070000941B0000340000006662782F39434431354544332D373235462D343032352D383830312D3842304333463044393736312F6F626A656374732E786D6CED59DD739B3810FF5718EED9D8D84EDADC103AB1D3643CBDB49DFADAB987CC3032C8441721184924F1FDF5B7FA00033109BEE6DEFA6003
310
425AEDFEF6534BF0E129A3CE03E682E4ECDCF5BD89EB6016E70961E9B95BCAEDE8BDEB7C08039EE7B231CD7518CAF0B9AB86DD3048795E167628C15B5452D919BD5AFCE5881833EC3A3145429CBB22BEC319F25029F3048B7B2F411279E9F6C9F33D33B14D36E5A8B8EB102D10C74C02A730CE808A6398F2DB8F13771C0663
310
F53E0CD4BF9D351B346BDE3F6BACA56E7349989088C5CF58EA90990D6269E6CF2F3F4E4FCE4627F3F96C343F9DFAA3C5D5E272E4BF9B4D96A7CBE5D9C5C733606F93E7D4CA94E002B304F4B773433F18AB37B5E81681435CC7396338D64002545AAC2E4182056CD5806FD27EF495448DD75AC2C6F35CBDB72C3486676D2A7D
310
B38601D1A20B82D8ED2A89AB6B53BE7CF337082E861825175802B74272D0AE85878357B8E124189BD130D8EC7541849321893941D4A164C31107A5C05435250CCC024B46390707528E92406BCEBC6EDB1678E6EBAE7388CB6D49A9F20C37D48E1581FB61293467E41FCCF7DC3791019E40DA9230F9DE7229770576C3B360AC
310
07C3405D6653FBD200E96C294A8546C4BCED08BA54AEBFBA74C34F579BA7B50A0787372F785E602E95D1293D6ABEC090ED55A164B7F507694E2D00610CA876E51E946F80FC67881E7B56406F9C3CCD9FE676AEE488896DCE33D08D33714613F89B38BEFE57F78DBB605C2F6E6BAF0F4F705305D5FB9FC7B32D83C6CAF2DF80
310
330C1EC0E0733EB3AFD631A260CF37840140CA481C9AC31084F6EDE6C90D57103821D0C32A44431F4406761FE036185B327BAD54EE65BD8E01A2768FD91025016CDA22818D1E3D5D43F6E024DEABA929621FBC276F62AE1797EB4FEB926F518C6FAC4F5FE22D614442D63CCC500BF39644F778F798F304047D8EF7BA897766
310
B71280B6C25C019F5620A887FDCEAD0D625897E62ADC04AFEC0042A85CDDA07F43448C29450CE765B56F1DDD94A1D61E6F6B06379C1A8867D38E0973FC405455014EB39FD16214F27ECC49A14074C36B23591D34BD1EE9BEAF3E8345D6F37B66AD18845E86E89F3A681DC0A165D915D216885AE0CD3E9CC739CD79B4D94526
310
D2B9504B001B6D6FF9D1220AB1DE284951010FD27E578594D4481B2564BB2D05C4D5032CFE582D9BE630F166FE89D3FCEF38E31CA22DF82EE2D6EF3A7B442443298EB628E9DBAEB95B4D5B68923DA439DE52908B3C10B98B908C26094E8F81E628E2676F4A3DA5B910846101F9EA20F84D34261E0412A3CD8A65A5D50ED044
310
441996881E838022D303AE4E3BBAC68DA174789DC7DA7A5FD25893E8FF64111C412D99B38840290A39E455C67DEF0462481B5D8372075FB0B68AB61683965042C4BBE81193F44E1E83BA21DF837B0C4792524679816230EB01649FF98A526A87F70D8AEF55FE88E292BE9581084CB711A1B4CC22F81106278F21AE5D07A617
310
51681037B14FE20C8A32244B3E6493D393C9B37D4CCDD00D818D8DB68442D88E3254F4A0DE0A88BA1E716AF02DF51EA56ECAAC885096976C90A178B3AE3759F25DB52AB203F955A522948D15614B300C08937556AD623698BA0EACE0463A50ED2281B2829A53D82B89C7AFBD4953EEDD805B3F7DDB0D3228FC7AB4D78CA8F3
310
0A06CB63AB30108F48C6776EB8D6D7D102EAEF0427FB545FD59ACD0A10105391BCE4C4AAE8FB0ACA1B5BA3B9E10D92E2F6DA64DDEAFA7DE541F72318C31AA85DEA852B0574869944AA32B95137F41B8210DCA261C6572AA71E43E5224974D588E815E95367AB8C686D9A11AFB8C32CCFE0C76E098B6999E05B9488FBE846D2
310
684D14EB564A2F2315C62F0AF8E57ADD8107460688F4551578F8B1B3D68E2E55B9749088BC2BB30D430482604BB4D4E8C62B586A355269B9BEAA3305D45D606056C5F35F278B663BE2D7C922B586F153278BC5EE0FB46BF6451AE93C56767DD431A0CE4F8ACA5B1C0374DBA1A65A671193CCADFCD69922088A55941F5C8D55
310
41C310ECE3F83F67EDBE2C68B6EBF07F5CD6F69F551C476595D664D5A53A50B9AE9A39ECE3E972BAF4A793D172B1BC1ACD272717A3C5D9D964B4B8989F5C9DBE5FBC9BF997359ADA51C3A00E663A77C1B3096AD5B07AB218405756E49424709A4F9C1443CC9770A61FD03EE71916903C9BCDEEC436E507AC7E307D4E893614
310
579CDC2168105301691D302A63D91E777E83D6A48483F6B90B4D23EF1EFEAC55BA0E649E73175A0592C458781B6833A9869E260E2957E77E4B0CF0412C5529D12CAA9FEB550A9B56F8AFA70C490356AE560F030AB702BA5FAD0E85E6CDF2141F2578C58E8324DC6E4A09D59A91653F500BA3B7D9ABDFC84609BBB75B3F81EB
310
BE2C96EFE9392D44067D3278D1080CD591443CD5FD6EC59865E9E2F2EB18FA6CCEEA8B53D032055D0EA734E2188CB954051558115885A5592009A6BAFCFDF62BCFE1134FE6E8AAE876996759CEECC3059CC712F844E4ACEFE0834F720B6503566D75713B9DF8D35BDDCEB61DF6688304F6543D04035519A144E8181B58E4B3
310
D6946D5C8E95123AD357978E0D9FD0063016F4ACBB6B3E6F39E03DEA438AF215EDE1959C2F76B4C77A2A5803875E74F82F504B03041400060800009A433340000000000000000000000000350000006662782F39434431354544332D373235462D343032352D383830312D3842304333463044393736312F76657274696365
310
732E62696E504B03041400060808009A433340F270F1330600000004000000360000006662782F39434431354544332D373235462D343032352D383830312D3842304333463044393736312F747269616E676C65732E62696E636660600000504B03041400060800009A433340000000000000000000000000370000006662
310
782F39434431354544332D373235462D343032352D383830312D3842304333463044393736312F617474726962757465732E62696E504B03041400060808009A433340D5987DFC8F00000041010000360000006662782F39434431354544332D373235462D343032352D383830312D3842304333463044393736312F646972
310
6563746F72792E786D6C858F410EC2201045AF4266AF15DDB800BA74E7C21B903225242D6328188F2FA5C4183471359997F9FF81E89FF3C41E1816475E02DF1F80A11FC8386F25A438EECEC07A250251FC3803E6F58C12560C4AD840E95E91C151A72936F496F35732D860FE635F62C8F2DA16B505C545B74125BAA2FA9E05
310
D7CC053D063734D5C7665FD55B6B8D15D5E9BFEAFD8490FFA45E504B03041400060808009A4333403895CB4DFC000000A00100003B0000006662782F39434431354544332D373235462D343032352D383830312D3842304333463044393736312F7265736F75726365732F636F72652E786D6C8D504B6E833010BD0A9ABDC1
310
260D10641C51544ED00B586642AD041BF953F5F835814AEDAE1B8FE77D344F8F5FBF9647F689CE6B6B3A6039850C8DB29336730731DC4803D95570676DF82583CCC8053BD860107C7636AE07A4AC096842428D9DF000A5F71820538FF4E9C0AB0F5C642E63480A7FCF57A9EE72C69CE5894E3AC17D702940B61FD95E100EBD
310
8D4EA1E7C5CE0A1EA39E0E8D9ED24D7DD3E840D4E7B21EC6E1958CF548C9CBA51A493F56036175D5F7C35057CDDB89179B59F0A0979F8CCAA10C388128292B0965845DDE69D3964D7B4E6BD552CA8B4DFEC714D7E99FA6A84D389547DCDDE641B014E449085E6C7DA5F12C33CDAD5BF10D504B010214000A00000800009A43
310
33403DEE336E79000000790000001B00000000000000000000000000000000006175746F6465736B2D64657369676E2D7061636B6167652E786D6C504B010214001400060808009A433340D486FD9CA0000000F40000001300000000000000000000000000B20000005B436F6E74656E745F54797065735D2E786D6C504B01
310
0214001400060808009A4333402B3EE5D5E90000007C010000080000000000000000000000000083010000636F72652E786D6C504B010214001400060808009A43334055019EA25F0000007C000000070000000000000000000000000092020000636E782E786D6C504B010214001400060808009A4333408B799A6E650100
310
00020300000C00000000000000000000000000160300006662782F636F72652E786D6C504B010214001400060808009A43334034DACFF97E0000009D0000000B00000000000000000000000000A50400006662782F636E782E786D6C504B010214001400060808009A4333406F95A568280100001402000031000000000000
310
000000000000004C0500006662782F39434431354544332D373235462D343032352D383830312D3842304333463044393736312F636F72652E786D6C504B010214001400060808009A4333400AF89C7A54010000330300003000000000000000000000000000C30600006662782F39434431354544332D373235462D343032
310
352D383830312D3842304333463044393736312F636E782E786D6C504B010214001400060808009A433340237565B75A070000941B00003400000000000000000000000000650800006662782F39434431354544332D373235462D343032352D383830312D3842304333463044393736312F6F626A656374732E786D6C504B
310
010214001400060800009A4333400000000000000000000000003500000000000000000000000000111000006662782F39434431354544332D373235462D343032352D383830312D3842304333463044393736312F76657274696365732E62696E504B010214001400060808009A433340F270F13306000000040000003600
310
000000000000000000000000641000006662782F39434431354544332D373235462D343032352D383830312D3842304333463044393736312F747269616E676C65732E62696E504B010214001400060800009A4333400000000000000000000000003700000000000000000000000000BE1000006662782F39434431354544
310
332D373235462D343032352D383830312D3842304333463044393736312F617474726962757465732E62696E504B010214001400060808009A433340D5987DFC8F000000410100003600000000000000000000000000131100006662782F39434431354544332D373235462D343032352D383830312D384230433346304439
310
3736312F6469726563746F72792E786D6C504B010214001400060808009A4333403895CB4DFC000000A00100003B00000000000000000000000000F61100006662782F39434431354544332D373235462D343032352D383830312D3842304333463044393736312F7265736F75726365732F636F72652E786D6C504B050600
310
0000000E000E00800400004B1300000000
  0
XRECORD
  5
17
102
{ACAD_REACTORS
330
12
102
}
330
12
100
AcDbXrecord
280
     1
270
     1
271
     1
  0
XRECORD
  5
16
102
{ACAD_REACTORS
330
12
102
}
330
12
100
AcDbXrecord
280
     1
270
     1
271
     1
  0
XRECORD
  5
18
102
{ACAD_REACTORS
330
12
102
}
330
12
100
AcDbXrecord
280
     1
270
     1
271
     1
  0
XRECORD
  5
15
102
{ACAD_REACTORS
330
12
102
}
330
12
100
AcDbXrecord
280
     1
270
     1
271
     1
  0
XRECORD
  5
DF7
102
{ACAD_REACTORS
330
22
102
}
330
22
100
AcDbXrecord
280
     1
102
MATERIAL
148
0.0
149
0.0
149
0.0
 93
        0
 94
      127
282
     0
 72
     0
 77
     0
171
     0
175
     0
179
     0
273
     0
  0
XRECORD
  5
24
102
{ACAD_REACTORS
330
22
102
}
330
22
100
AcDbXrecord
280
     1
270
     1
271
     1
  0
XRECORD
  5
23
102
{ACAD_REACTORS
330
22
102
}
330
22
100
AcDbXrecord
280
     1
270
     1
271
     1
  0
XRECORD
  5
BA
102
{ACAD_REACTORS
330
22
102
}
330
22
100
AcDbXrecord
280
     1
 70
     1
 90
1959938040
 71
     1
  1
8D8DF0D9-73F0-4A7D-9C00-E2EA3F46775B
311
504B03040A00000800009A4333403DEE336E79000000790000001B0000006175746F6465736B2D64657369676E2D7061636B6167652E786D6C3C3F786D6C2076657273696F6E3D22312E302220656E636F64696E673D227574662D3822203F3E3C666F726D6174733E3C666F726D61743E687474703A2F2F736368656D612E
311
6175746F6465736B2E636F6D2F64657369676E2D7061636B6167652F323030393C2F666F726D61743E3C2F666F726D6174733E504B03041400060808009A433340D486FD9CA0000000F4000000130000005B436F6E74656E745F54797065735D2E786D6C7D8EC10E82300C865F65E91D8A1E8C310C0EEA1BF002731658846E
311
D98AC1B77784ABF1D8FE5FBFBF75BBCE937A534CCEB38643598122B6FEE978D0B0485F9C41B54DDD7D022595594E1A469170414C76A4D9A4D207E29CF43ECE46F218070CC6BECC4078ACAA135ACF422C856C0E68EA1BF5669944DDD7BCDE7B1F8E415D77AECB980613C2E4AC91FC167A2B244592486606FC29C8FD7F045B9A
311
EF7053A7E60B504B03041400060808009A4333406756E65BE90000007C01000008000000636F72652E786D6C8D90416EC3201045AF82668F0DC4716D0B13B57673825E0001715162B00C543D7E71E248EDAEAB193EFFCD8C3E3F7DCF37F465D660BDEB8116049071CA6BEBA61E52BCE006D049F0D5FBF8CB06C8C9D9F4B0C9
311
20F8B4FAB4EC92F22E1A17B3EABC36BB2843301190BAE5A687A03ECD2C0B996276846BB14875959329E8B3CB704A56A3C712ABF33C7BB16605519FAB613CB323AE5B4271F576A8713B8E031E1AFA5E8F2F5533BE0EBCDC60C1A39D9FFBD56A64341A042394E14CD2F683341D6BBA637ED61D21BCDCEC7FA0B4E87F42C9BA78
311
60FBB90F2C80A0F990FB87E0E596452EF7A072DD72133F504B03041400060808009A43334055019EA25F0000007C00000007000000636E782E786D6C4DCB3B0E80201045D1AD90E915ED2CF8AC45050C11660C8261F98AB1B07AC9C97D42D718D865D3E909258CFD00CCE24AC6E326A164D74DC0B4128928FF326038472BA1
311
3128B1252AC747C6BAB984FC68F0B87FE8960A5C09FE86CFB69FBA01504B03041400060808009A43334030F6048765010000020300000C0000006662782F636F72652E786D6C8D525B6E833010BC8AE57F30104249641CB5D09CA01770C0A156C0467EA01CBFCB234A53455185046667676776801EAE7D874661ACD4AAC071
311
18612454AD1BA9DA027B770E728C0E8C1AADDDAF368C14EF4581A73266B435DA0F6BA9D6CA09E5A0AA7423D622B756388CEA0E0E05B6F5B7E879C8BD830E7B09075E5F782BC2380418FA18B5CE8001B4884C77CCCEA72B254B9D51EF65B3A2B201357996C260961DD3B23A26DB20DB4571907E6CB26057556550E6F16756BD
311
A579F55E5232911975B2BFB9AB8DE04E349825519C04C08C775F51BE4FF2FD165EB37D145132B53F90FCD0FC93E4A5729B64B5BBD02C66311899813FDB42440E593E821FC228994284C79CF063D0100884ECF8A9BBED7181D2286AA74D0A48A3FD1D1A79E705A84668BE285950983C0F80CD9ECE495ECC793D033E20572D58
311
E30E8E27EF2675BAA8AE510CC204A3BB22A54DCFBBBBB9C5E2FD7E177A4AAF75A7CD7FD8645D95AC6192E9EF653F504B03041400060808009A433340795D4DDB7E0000009D0000000B0000006662782F636E782E786D6C4DCCD10AC2201886E15B91FFDCA69BB63F500795DDC7686E8C9C866974F96DB1838E3E78F87855F7
311
593C79BBF49A63D0C00F0C880BF738CC61D250F248114867548A31FFDD80847E711A3606A3A614CB73A7C18D7DF179553F87C78EC79B68AC9596728E2D157891F4C424526C1B6919D6E7ABA8A132AAFA95D6DDC2E60B504B03041400060808009A433340DA488E002A01000014020000310000006662782F36463433454535
311
452D313138372D343843352D393035382D3837333545303832424434322F636F72652E786D6C8D51CB6EC32010FC158B537AB00D7E101C6122B575BFA03FE000495162B07854F9FCAE6B476A6FB9B030CCCC8E76F9F13EDDB26FED8371B647A4C028D3563A65ECA547299E7386B2A3E0DEB9F88786323B4EBA470B8C04BF78
311
97E60D92CE466D23A0D629BD8163083AA24CDEE0D2A320BFF43416638AC008D7621EE575BCE88214F00D3CC143F410205B9B2C2712F4A3A987A11D7242D83E6FD85B9B77B86539DBD7ED8059F5FADE54BC5C8582A764D426370AE298B3D1FE5993452C7834D323BEF47A8C5A21516152E598E4A4FBC4EC50B1430B4F7AC098
311
970BFD9F28CDEA49513236D6D51677950524082FD70FC1954BA7DB238CBECFCEC76CE9B70B5ABE20810B4C3A5A634A79B9526100E0499BCD3344E761C0BBEB09D8A45D8D692378B9EC08CAEF02A12EFB143F504B03041400060808009A4333406C5F536D4D01000033030000300000006662782F36463433454535452D3131
311
38372D343843352D393035382D3837333545303832424434322F636E782E786D6CD593CD6EC23010845FC5F23D714229A2C831520F7D821E7A75EC055C1C3BF24F55DEBE6B30940B871E7BB192D9CF33AB51C2B7DF93255F10A2F16EA07DDB51024E796DDC7EA039ED9A35255BC183F7E90EA3C4C909065A642AF83EF83C57
311
49C34E669B50B5C61DAB1820FA1C144494CB4D62BD92160DC03519459846D01A34B981F8B48380ABA0389E483A00797BFD207EFC04952267C545705632042F674DBA83285156C638D0A80E30C956E6E435C463AB65926DDF5EB31EECF4EB44CA856B640E8694F08196938ABA518B3D728643C1630AD85E85D269062AE43C5B
311
A364C292D919BC308267E3D26A595983C507A4FBD5D3728966E799E0C94C5009154026D0542CBA7ED1747DD3BFBC77EBCD62BD79C6D7D5A6EB382BB8E0A3F7B65E421B087E26CABB042E51D17356C68FEAAB1CD12660D73E9CFE50241650532FEDDC3CFE733FECFC7D635D01FF02F103504B03041400060808009A4333409F
311
2C3AD99C0500007A100000340000006662782F36463433454535452D313138372D343843352D393035382D3837333545303832424434322F6F626A656374732E786D6CAD575D6FA33814FD2B887DCE07493A6D5794519A34A368D499D14433DA874A910143BD3518D9A693EEAFDF633004D2A4CDAEE62504737D7DEFB9E77E
311
D8FFB8CBB8F34CA56222BF71BDE1D875681E8998E5E98D5BEA6470E53A1F035F0AA13B62AE93938CDEB866D90DFC548AB2B04B314D48C9F5C1EAEAF62F474534A7AE1371A2D48DABA2479A912129B588A97A1AC64493619AEC86DEB016ECAB4D25291E0F941644D25CC352ACE7D0E2D44679FDD7B13B0AFC91F91EF8E6D74A
311
4D4F4B8D2A7FFAE7B35C699247AF0E3B5033F566CBBBC9C5F5E062369B0E661F26DEE07675BB1C7897D3F1E2C362713DBFBBC6C14A4B68B296489AB8C127602359E48FEA4F815FB25C4F2756C4066824E9333391728389E3F9A35AA6F5CE3A79CCFC48E4398D2AAC8046E59F551DD382E63162CEA882651D84C6FD57CFE0D8
311
F93C35EFF6C8EEF279087477741435B637CFAEA522FC1B2EA873182415350CACB1B48ED65C1DEF110E85E0F61B534E4634958C7087B35012F9E20610352281DF5363982C4D36180FDC0051A83FF7E982347A9FE7C7AC4C4ACE0D8DDDA0CA822D72856A5559C6FEA1726F7D1719D8845819365C5987F44B41DDE0BAA6C8D501
311
9B6A209D84931421879B66E77472E0E8C2E4E97AE9069F57E16E6372F7F8E185140595DAD007D46A02D73C0D4AD626EFACC8990DEE81297B50BE03F92F48F5BD29889B64BBD96E664FD192E42A1132436C9CB13318E367EC78D5AFF9DFF9E78FDACDFDE89DC213C13650FD063CFB3E7463D98133F09F417821A7D6B54D4438
311
CAC63DCB01902189C3059650879370E7066B54395465EC223CF0E032CC7DC65F7F64D5A0505427759E39B03C288B671468C056311266D4E4B706EEE3F4AA9C55075BB153F05EFC16BACE979BCF9B522624A2F736A797346139D368717BDE740DEA61DEF3E889BEFC123286A3AFF1DE74F1CEEC510A681BCC0DF06953D3CDCB
311
FEE4DE0111F6A5C2941BFF9D13E08469AC1DFDF74C45947392535136E7BED93FD0366A884DB21B26B70D66DF58409AFACB410EA24947921506C4B65BB5457378C2BB1FEB2F6024E4B90809DF0B85FBD21B092EE4367CD9D655E928D23FFBD4B6108C8C16B0BDCA9126FD2DE6DB982549A950038FC0FA73BDE886CE54055488
311
466B9D2C33B88FDC22D272B6D18B662D091AA9C8B70C6D136977F480AE7E206A0950293C65B1A23CD932CECB6C9B308E66B4CD4871028EFF6F7F5866C59664A2CCF509DD3DD3D11CFAB6F7C8AB7E111D3DBAC1A67A0E6E517A631AEFC3DC1336ADE40856BDD05E2DAF96ABF1F27A70395D8D07B3F9E57270BD188F077793BB
311
F97435FB70797971DBC4A9561EF84DA7E92634A284CEE69792D9F0FD58237D6C0D70837BA2D5C3A73A3B9BE78FF510A3B03FC21EB4CB76E33C7EC6D847E3F715EC258F2A5A6705A719CD353129746FFEF0EF046346CF987A7D9D91949EA1E5EBA7CD8133583963DF3793EEF4D7C15EBBBA30097954897E2CB330278C1F6C4C
311
6B2487459E5AFC9A98B4CFBACF34AFE6CD060683A9129CC52883B1935291518D6278460F921955A05E77A48FEDD5E38CDDCFF580A849C86963C923C18CCC15D202D42A23DD5F77FEC04C67C6AA1B17DD76F8841F5B295C079CB97131A36B1651350CD19FCD2454290797BA833CE67E92A71CA376BDA97D6F77196C7A1DB915
311
39677CB27ED515DC3A803252606CC03C84E854C6047E659BFD1EFD27C71B731CA2F1372C75EBCB7EA175A63A06295A3B652F0B98619EECD13B24EADB6E79C34AA687C85997AC3749506B1D6822D3EAA260ECB326CD97DF4618509CF557A7E0658A589EAF692029C85C9A04078BC00AABB3201A545DFCF9F04D0A5C643367C5
311
40818785C83291DB97B9BD083B9B475C6BE30794056AEE23EA6132F6260FD53DC05E4DB62151744862F58405C454B216E25EE0C1C8FAB2880E547F68E546260807DC5C2F1DDBD266506A89D2ADAA06164C1C3975903DE62E6972A52B50BC79151855A2304162880FFE05504B03041400060800009A43334000000000000000
311
0000000000350000006662782F36463433454535452D313138372D343843352D393035382D3837333545303832424434322F76657274696365732E62696E504B03041400060808009A433340F270F1330600000004000000360000006662782F36463433454535452D313138372D343843352D393035382D38373335453038
311
32424434322F747269616E676C65732E62696E636660600000504B03041400060800009A433340000000000000000000000000370000006662782F36463433454535452D313138372D343843352D393035382D3837333545303832424434322F617474726962757465732E62696E504B03041400060808009A433340D5987D
311
FC8F00000041010000360000006662782F36463433454535452D313138372D343843352D393035382D3837333545303832424434322F6469726563746F72792E786D6C858F410EC2201045AF4266AF15DDB800BA74E7C21B903225242D6328188F2FA5C4183471359997F9FF81E89FF3C41E1816475E02DF1F80A11FC8386F
311
25A438EECEC07A250251FC3803E6F58C12560C4AD840E95E91C151A72936F496F35732D860FE635F62C8F2DA16B505C545B74125BAA2FA9E05D7CC053D063734D5C7665FD55B6B8D15D5E9BFEAFD8490FFA45E504B03041400060808009A43334074FDC8C3FC000000A00100003B0000006662782F36463433454535452D31
311
3138372D343843352D393035382D3837333545303832424434322F7265736F75726365732F636F72652E786D6C8D504B6E833010BD0A9ABD01134A0119472D3427E8052C7B42AD041BF953F5F835814AEDAE1B8FE77D344F8F9DBF967BF689CE6B6B06A07909191A699536F300315C490BD99933676DF82583CC880507D860
311
E06C7636AE0724AD096842428D557880C27B0C90C97BFA0CE0E5072E2217312485BFE5AB903731634EF344271D673EB81420DB8F6C2F7087DE4627D1B36267398B51AB43A355BAA9AF1A1DF0E6528FD3A5AA49D39594D4AFA78674D33492B1A56FCDF45CB7D3CBC88ACDCC59D0CB4F46E9500454C0AB9256243969F75EB67D
311
D5F64F696DFAB264C526FF638AABFAA7296A134ED51177B779E0340579109C155B5F693CCA4C73EB967F03504B010214000A00000800009A4333403DEE336E79000000790000001B00000000000000000000000000000000006175746F6465736B2D64657369676E2D7061636B6167652E786D6C504B010214001400060808
311
009A433340D486FD9CA0000000F40000001300000000000000000000000000B20000005B436F6E74656E745F54797065735D2E786D6C504B010214001400060808009A4333406756E65BE90000007C010000080000000000000000000000000083010000636F72652E786D6C504B010214001400060808009A43334055019E
311
A25F0000007C000000070000000000000000000000000092020000636E782E786D6C504B010214001400060808009A43334030F6048765010000020300000C00000000000000000000000000160300006662782F636F72652E786D6C504B010214001400060808009A433340795D4DDB7E0000009D0000000B000000000000
311
00000000000000A50400006662782F636E782E786D6C504B010214001400060808009A433340DA488E002A0100001402000031000000000000000000000000004C0500006662782F36463433454535452D313138372D343843352D393035382D3837333545303832424434322F636F72652E786D6C504B0102140014000608
311
08009A4333406C5F536D4D010000330300003000000000000000000000000000C50600006662782F36463433454535452D313138372D343843352D393035382D3837333545303832424434322F636E782E786D6C504B010214001400060808009A4333409F2C3AD99C0500007A100000340000000000000000000000000060
311
0800006662782F36463433454535452D313138372D343843352D393035382D3837333545303832424434322F6F626A656374732E786D6C504B010214001400060800009A43334000000000000000000000000035000000000000000000000000004E0E00006662782F36463433454535452D313138372D343843352D393035
311
382D3837333545303832424434322F76657274696365732E62696E504B010214001400060808009A433340F270F13306000000040000003600000000000000000000000000A10E00006662782F36463433454535452D313138372D343843352D393035382D3837333545303832424434322F747269616E676C65732E62696E
311
504B010214001400060800009A4333400000000000000000000000003700000000000000000000000000FB0E00006662782F36463433454535452D313138372D343843352D393035382D3837333545303832424434322F617474726962757465732E62696E504B010214001400060808009A433340D5987DFC8F0000004101
311
00003600000000000000000000000000500F00006662782F36463433454535452D313138372D343843352D393035382D3837333545303832424434322F6469726563746F72792E786D6C504B010214001400060808009A43334074FDC8C3FC000000A00100003B00000000000000000000000000331000006662782F364634
311
33454535452D313138372D343843352D393035382D3837333545303832424434322F7265736F75726365732F636F72652E786D6C504B0506000000000E000E0080040000881100000000
310
504B03040A00000800009A4333403DEE336E79000000790000001B0000006175746F6465736B2D64657369676E2D7061636B6167652E786D6C3C3F786D6C2076657273696F6E3D22312E302220656E636F64696E673D227574662D3822203F3E3C666F726D6174733E3C666F726D61743E687474703A2F2F736368656D612E
310
6175746F6465736B2E636F6D2F64657369676E2D7061636B6167652F323030393C2F666F726D61743E3C2F666F726D6174733E504B03041400060808009A433340D486FD9CA0000000F4000000130000005B436F6E74656E745F54797065735D2E786D6C7D8EC10E82300C865F65E91D8A1E8C310C0EEA1BF002731658846E
310
D98AC1B77784ABF1D8FE5FBFBF75BBCE937A534CCEB38643598122B6FEE978D0B0485F9C41B54DDD7D022595594E1A469170414C76A4D9A4D207E29CF43ECE46F218070CC6BECC4078ACAA135ACF422C856C0E68EA1BF5669944DDD7BCDE7B1F8E415D77AECB980613C2E4AC91FC167A2B244592486606FC29C8FD7F045B9A
310
EF7053A7E60B504B03041400060808009A43334021471D4EE90000007C01000008000000636F72652E786D6C8D90D16E842010457F85CC3B0AA88D1A64D3E8EE17F40708B096EC0A46A0E9E71777DDA47DEBD30C977B6626979FBE973BFA325BB0DE0D400B02C838E5B575F300295E710BE824F8E67DFC6503E4E46206D865
310
107CDE7C5A0F4979178D8B59755E9B439421980848DD733340509F6691854C313BC2AD58A5BAC9D914F4D5653825ABD17389D5799EBD5AB38138B3711ADF3B822B462FB8AEEB11B76D33623235E379AA3A76A9275EEEB0E0D12EAFFD6A33321A0D8211CA30A198761FA4ED59DB37F9F9D613C2CBDDFE074AABFE2794AC8B15
310
3BCE7D620104CD873C3E042FF72C72790495EB9E9BF801504B03041400060808009A43334055019EA25F0000007C00000007000000636E782E786D6C4DCB3B0E80201045D1AD90E915ED2CF8AC45050C11660C8261F98AB1B07AC9C97D42D718D865D3E909258CFD00CCE24AC6E326A164D74DC0B4128928FF326038472BA1
310
3128B1252AC747C6BAB984FC68F0B87FE8960A5C09FE86CFB69FBA01504B03041400060808009A433340E53C9B6D65010000020300000C0000006662782F636F72652E786D6C8D52ED8E8230107C95A6FFA105F182A6D45C409FE05EA096CA11A125FD203EFE2D1FC6F362CC8504CACECECEEC003BDCFA0E8DCABAD6E80227
310
31C5486969EA5637050EFE12E5181D38B3C6F85F6D1869D1AB024F65CC59634D18D69234DA2BEDA1AA4DADD6A2704E798C640787023BF9AD7A118BE0A1C35DE341C8AB68549CC400431F67CE5B30801691E98EF9E57C6364A97316425BAF685B835A7B6995C5FC989655F9B9A3D1264D4E5196656594E7DB32A2D5B63C569B
310
5D7ACA2A46263267BEEDEFEEA455C2AB1AF3942669449328D97DD17C9FE6FB2DBC7EEC2965646A7F2285A1FE2729B4DA6FD2D5EE42739827606406FE6C0B1179E4C4087E0867640A111E73C2CF41432010B217E7EEBEC7154AA392DED80C90DA8407348A2E2850A568BE185950983C0F80CD5ECE49DFCC793F033EA0D00D58
310
131E8EE7E02775B6A8AE510CCA46A3BF216D6C2FBA87B9C5E2E3FE107A4997A633F63F6CB2AE4AD630C9F4F7F21F504B03041400060808009A433340A86F40277F0000009D0000000B0000006662782F636E782E786D6C4DCCD10E82201886E15B61FF39898A851BE090E23E5CA263213492D6E5A7CD838EBEEDD9B797779F
310
C5A3B74D2F178380F24400D9708FA30BB380BC4E9801EA244F31AE7F37406158AC809D41F239C5FC3C68B4D390FDBAA977E17160733DD7BAA6046B73A3981A56E1963506938BEA4BD5F6AAD225149217BFD2B67B587E01504B03041400060808009A433340327BBFA42B01000014020000310000006662782F354436334333
310
34302D434645342D344638322D393835462D3037414231413942413243312F636F72652E786D6C8D51DB72C22010FD950C4FF68104C8A5D121386AEB17F40790A0321AC870E9F8F9DD3471A67DF38585DD73CE1E76F9F631DCB36FED8371B643342728D356B9DED84B87523CE316655BC1BD73F10F0C65560EBA43531A097E
310
F12E8D4B4A391BB58D90B5AED74B5286A023CAD41D2E1D0AEAAA0799CB1401116EF928D54D5E744E7328034EF0103D18C8E626D38944FDD19487B222F870FCAC70756C195EB7F51193F7DD9EEED6FB1D3B505ECC44C15332FD42373DD83167A3FDAB221359F06886A77DE5B58CBA478211CA30A198AEBF48BB61EDA68667B3
310
21841713FC1F298DFD8BA4646C2CD96277A60524E0377341F0DEA5D3FD69463F46E76336F55B05ADDE90203961B4A95B56F26286C20040B3A916CD109D8701AF6E2740978B7053095E4C3B82F0BB4088D33EC50F504B03041400060808009A4333400AF89C7A5401000033030000300000006662782F35443633433334302D
310
434645342D344638322D393835462D3037414231413942413243312F636E782E786D6CBD93CD6EC32010845F0571F76F52CB8D30917AE813F4D02B864D4283C1025C356FDF2521692E3954AA7A41F6EC30B3FA64B3EDD764C827F8A09D1D6853D69480954E69BB1FE81277454FC99633EF5CBCB35162C504034D32E56CEFDD
310
326749C14E2C26A26AB43D66D143708B9710504E37897152180C005B2C28C2348252A0C8CD884F3BF0B80A8AE389C40390D79777E2C60F9031B02AA57056A50ECED2999BEE4C944823421868900798442996E8148463A9441465535EBB1EECF49344D2856BE5E23549E5034D27E579A31239B20A879C85E8915E36C5D30C94
310
8B79365A8A8890ABB3F1E2E16CD13676EBECD508DEA37BD5767D8F61E71967514F901DD28388A0286FEBA62DEAA6689EDFEA7ED3F69B277CED3675CDAA64E76C74CEE44B1803DECD443A1BC146CA1B56A5F1237CD94794F6C8DAF9D32F402280DC7AA173CBF84B3E4DB75AAFFF914F75FEBE1197C7BF807F03504B03041400
310
060808009A433340C25D075859070000931B0000340000006662782F35443633433334302D434645342D344638322D393835462D3037414231413942413243312F6F626A656374732E786D6CED595B6FA33814FE2B887D0E81269DB62BCAA84DDA51B4EACC68B233DA874AC801877A6B0CB24D2FFBEBF7F802011A5AB2D37D
310
9B870430F6F139DFB9FA107E7CCAA9F380B920053B7703CF771DCC9222252C3B772BB99D9CBACEC728E445215BD35C87A11C9FBB6AD88DC28C1755698752BC451595BDD1EBCBBF1C9160865D27A148887357247738471EAA64916271EFA548222FDB3E7981672676C9661C95773DA225E29849E014C61950710C5341F7D177
310
A7513855EFA350FDDB59B351B3E6C3B3A65AEA2E9784098958F282A51E99D9289666C17C7975747C36399ECF6793F987A36072797DB99C0427337FF161B138BBB83A03F6364541AD4C292E314B417FCF6E148453F5A611DD22B08FEBA4600C271A48804A8BD52748B080AD5AF0F9DDC74049D47AAD256C3DCFD57BCB426B78
310
D6A532346B1C101DBA2088DDAE96B8BEB6E52B367F83E0628C51728125702B2407ED5A783878851BF9E1D48C46E166A70B229C1C49CC09A20E251B8E382805A6AA295168165832CA3938907294045A73E675D7B6C033DF769D7D5C6E2B4A9567B89176AC18DC0F4BA13923FF60BEE3BE8D0CF004D25684C953CBA57C2EB11B
310
9D85533D1885EA323BB22F0D90CE96A24C6844CCDB9EA00BE5FAABA51BFD71BD795AAB70B07FF3921725E652199DD2A3E60B0CD95E154A76DB6094E6D40210C6806A57EE40F906C87F86E8B16305F4C6C9D3FC696EE74A8E98D8163C07DD38BE33F1E1CF7702FDAFEE5B77E1B459DCD5DE109EE0A60AAAD39FC7B32B83C6CA
310
F2DF82330A1FC0E00B3EB3AFD609A260CF37840140CA481C5AC01084F6EDE6C98D56103821D0C32A44A3004406761FE0369C5A323BADD4EE65BD8E01A2768FD91825016CDA22818D013D7D82ECC149B253535BC421788FDFC55C2F96EB3FD615DFA204DF589F5EE22D614442D6DCCF5007F38E44F7F8F9B1E02908FA12EF75
310
1BEFDC6E25006D85B9023EAB41500FBB9D3B1B24B02E2B54B809DFD8018450B9BA45FF868804538A182EAA7ADF26BA29436D3CDED60C6E7464209E1DF54C98E307A2AA0A709ADD8C0EA390F7134E4A05A21B7D32923541D31B90EEFBEA335864337F60D68A41E86588FEA983D61E1C3A965D236D816804DEECC27952D082C7
310
9BE7D8443A176A0960A3EB2D3F3A4421D61B25292AE041DAEFEA90921969E3946CB79580B8BA87C51FAB45DB1C7C6F161C3BEDFF9E33CE21DA82EF226EFDAEB7474C7294E1788BD2A1EDDABB35B4852639409AE32D05B9C80391CF3192B19FE2EC10680E227EF6AED4335A0841181690AFF682DF46C3F72090186DD62C2BAD
310
F6802622CEB144F410041499017075DAD1356E02A5C3DB3C36D6FB9AC6DA44FF278BE0086AC982C5044A51C8216F321E78C71043BAE81A947BF882B5D5B4B518B4821222798E1F31C9EEE421A81BF203B8277024A9645C942801B31E41F685AF28A5F678DFA0E45EE58F38A9E87B1988C0741B134AAB3C861F6170F218E3DA
310
4D607A1585167113FB24CEA12843B2E26336F970ECBFD8C7D40CFD10D8DA684B2884ED3847E500EA9D80A8EB11A701DF521F50EAA6CACB18E545C546198A37EB7B9325DF57AB223B925F552A42D95813B604A39030D964D53A6683A9EBC00A6EA403D5732C505E52730A7B23F1048D3769CA831B70EBA7EFBB410E85DF80F6
310
DA11755EC36079EC1406E211C9E4CE8DD6FA3AB984FA3BC5E92ED5D7B566BB0204C45424AF38B12AFABE82F2C6D6686E7483A4B8FD64B26E7DFDBEF2A0FB114E610DD42ECDC295023AC74C225599DCA81BFA0D4108EED030E32B95530FA17291A6BA6A44F49A0CA9B353467436CD8957DE6156E4F063B78425B44AF12D4AC5
310
7D7C2369BC268A752BA597931AE35705FCF269DD8307464688F4551578F8B1B7D68E2E54B9B49788BCABF20D4304826047B4CCE8C62B596635526BB9B9AA3305D45D606056C5F35F278B763BE2D7C922B386F173270B5A6C10DD459B56364F94591F740A68D293A2F21EA700DD7568A83649C4E4722BBEF5A51862621DE447
310
176375CC30048738FECF497B28099AED7AFC1F96B4831705C74149A5335935A9F614AEAB760A3B5D9E2EAFFDE5D9E46476ED4FE61727CBC9D9C2F72757475717B3EBF9879393E3CB064DEDA751D8C4329DBAE0D9C4B47A583D590CA0292B0A4A5238CCA74E8621E44B38D28FE89EF31C0BC89DED5E776A7BF223563F9836A7
310
441B8A6B4EEE10F487A980AC0E185589EC8E3BBF416752C239FBDC859E91770F7FD62A5D0712CFB90B9D0249122CBC0D7499543F4F13878CAB53BF2506F82096A98C681635CFCD2A854D27FA3753C664012B57A78501755B09CDAF4E8342F366794A0E12BC66C741126E37958462CDC8B21B6884D1DBECD46F64A384DDDBAD
310
9FC0755F172BF0F49C0E22A3BE18BC6A0486EA44229EE976B762CCB274B1FC3A85369BB3FAE294B4CA4097E3294D380663AE543D055604566169964882A92E7EBFFDCA0BF8C2933BBA28BA5D14795E30FB7001C7B114BE1039EB3BF8DE93DE42D58055575DDC1EF9C1D1ADEE66DB067BBC41027BAA1C8281BA8A5022F48C0D
310
2CF24567CAF62DA74A09BDE9ABA563C32774018C05BD68EE9AAF5B0E788FFA8EA27C457B782DE7AB0DEDA99E0AD6C0A1151DFD0B504B03041400060800009A433340000000000000000000000000350000006662782F35443633433334302D434645342D344638322D393835462D3037414231413942413243312F76657274
310
696365732E62696E504B03041400060808009A433340F270F1330600000004000000360000006662782F35443633433334302D434645342D344638322D393835462D3037414231413942413243312F747269616E676C65732E62696E636660600000504B03041400060800009A433340000000000000000000000000370000
310
006662782F35443633433334302D434645342D344638322D393835462D3037414231413942413243312F617474726962757465732E62696E504B03041400060808009A433340D5987DFC8F00000041010000360000006662782F35443633433334302D434645342D344638322D393835462D3037414231413942413243312F
310
6469726563746F72792E786D6C858F410EC2201045AF4266AF15DDB800BA74E7C21B903225242D6328188F2FA5C4183471359997F9FF81E89FF3C41E1816475E02DF1F80A11FC8386F25A438EECEC07A250251FC3803E6F58C12560C4AD840E95E91C151A72936F496F35732D860FE635F62C8F2DA16B505C545B74125BAA2
310
FA9E05D7CC053D063734D5C7665FD55B6B8D15D5E9BFEAFD8490FFA45E504B03041400060808009A433340A5AAC3E9FC000000A00100003B0000006662782F35443633433334302D434645342D344638322D393835462D3037414231413942413243312F7265736F75726365732F636F72652E786D6C8D504B6EC32010BD8A
310
357B6CC04EE54498A8B29313F402084F1294182C3E558F5F485CA9DD75C330EFA3797AE2F8B53CAA4FF4C1383B00AB295468B59B8DBD0E90E285F4501DA5F0CEC55F32A8AC5A708002831457EFD2BA41DAD9883666D4BA1937508580112AFDC89F0182BEE1A26A956256847BBD2A7D5757AC599DE9AC9322449F0354AF23E5
310
05E931B8E43506D1BC58295232F3A63173BE692E063DC8131FA7F1BD3F9396B333E9BA6E247DBF1B099D76E3696AF7FCDC4DA2296629A2597E326A8F2AE20C9253C6096584ED3F687FE0FD6197D7B703A5A229F23FA6B4CEFF34256363CBB7B82F5B00C9729027214553FACAE359669EA55BF90D504B010214000A00000800
310
009A4333403DEE336E79000000790000001B00000000000000000000000000000000006175746F6465736B2D64657369676E2D7061636B6167652E786D6C504B010214001400060808009A433340D486FD9CA0000000F40000001300000000000000000000000000B20000005B436F6E74656E745F54797065735D2E786D6C
310
504B010214001400060808009A43334021471D4EE90000007C010000080000000000000000000000000083010000636F72652E786D6C504B010214001400060808009A43334055019EA25F0000007C000000070000000000000000000000000092020000636E782E786D6C504B010214001400060808009A433340E53C9B6D
310
65010000020300000C00000000000000000000000000160300006662782F636F72652E786D6C504B010214001400060808009A433340A86F40277F0000009D0000000B00000000000000000000000000A50400006662782F636E782E786D6C504B010214001400060808009A433340327BBFA42B0100001402000031000000
310
000000000000000000004D0500006662782F35443633433334302D434645342D344638322D393835462D3037414231413942413243312F636F72652E786D6C504B010214001400060808009A4333400AF89C7A54010000330300003000000000000000000000000000C70600006662782F35443633433334302D434645342D
310
344638322D393835462D3037414231413942413243312F636E782E786D6C504B010214001400060808009A433340C25D075859070000931B00003400000000000000000000000000690800006662782F35443633433334302D434645342D344638322D393835462D3037414231413942413243312F6F626A656374732E786D
310
6C504B010214001400060800009A4333400000000000000000000000003500000000000000000000000000141000006662782F35443633433334302D434645342D344638322D393835462D3037414231413942413243312F76657274696365732E62696E504B010214001400060808009A433340F270F13306000000040000
310
003600000000000000000000000000671000006662782F35443633433334302D434645342D344638322D393835462D3037414231413942413243312F747269616E676C65732E62696E504B010214001400060800009A4333400000000000000000000000003700000000000000000000000000C11000006662782F35443633
310
433334302D434645342D344638322D393835462D3037414231413942413243312F617474726962757465732E62696E504B010214001400060808009A433340D5987DFC8F000000410100003600000000000000000000000000161100006662782F35443633433334302D434645342D344638322D393835462D303741423141
310
3942413243312F6469726563746F72792E786D6C504B010214001400060808009A433340A5AAC3E9FC000000A00100003B00000000000000000000000000F91100006662782F35443633433334302D434645342D344638322D393835462D3037414231413942413243312F7265736F75726365732F636F72652E786D6C504B
310
0506000000000E000E00800400004E1300000000
  0
XRECORD
  5
27
102
{ACAD_REACTORS
330
22
102
}
330
22
100
AcDbXrecord
280
     1
270
     1
271
     1
  0
XRECORD
  5
26
102
{ACAD_REACTORS
330
22
102
}
330
22
100
AcDbXrecord
280
     1
270
     1
271
     1
  0
XRECORD
  5
28
102
{ACAD_REACTORS
330
22
102
}
330
22
100
AcDbXrecord
280
     1
270
     1
271
     1
  0
XRECORD
  5
25
102
{ACAD_REACTORS
330
22
102
}
330
22
100
AcDbXrecord
280
     1
270
     1
271
     1
  0
XRECORD
  5
DF0
102
{ACAD_REACTORS
330
DEF
102
}
330
DEF
100
AcDbXrecord
280
     1
102
ACAD_ROUNDTRIP_2012_MLEADER_STYLE
298
     1
  0
CELLSTYLEMAP
  5
DEE
102
{ACAD_REACTORS
330
DED
102
}
330
DED
100
AcDbCellStyleMap
 90
        3
300
CELLSTYLE
  1
TABLEFORMAT_BEGIN
 90
        5
170
     1
 91
        0
 92
    32768
 62
   257
 93
        1
300
CONTENTFORMAT
  1
CONTENTFORMAT_BEGIN
 90
        0
 91
        0
 92
      512
 93
        0
300

 40
0.0
140
1.0
 94
        5
 62
     0
340
55
144
0.25
309
CONTENTFORMAT_END
171
     0
 94
        0
309
TABLEFORMAT_END
  1
CELLSTYLE_BEGIN
 90
        1
 91
        1
300
_TITLE
309
CELLSTYLE_END
300
CELLSTYLE
  1
TABLEFORMAT_BEGIN
 90
        5
170
     1
 91
        0
 92
        0
 62
   257
 93
        1
300
CONTENTFORMAT
  1
CONTENTFORMAT_BEGIN
 90
        0
 91
        0
 92
      512
 93
        0
300

 40
0.0
140
1.0
 94
        5
 62
     0
340
55
144
0.18
309
CONTENTFORMAT_END
171
     0
 94
        0
309
TABLEFORMAT_END
  1
CELLSTYLE_BEGIN
 90
        2
 91
        1
300
_HEADER
309
CELLSTYLE_END
300
CELLSTYLE
  1
TABLEFORMAT_BEGIN
 90
        5
170
     1
 91
        0
 92
        0
 62
   257
 93
        1
300
CONTENTFORMAT
  1
CONTENTFORMAT_BEGIN
 90
        0
 91
        0
 92
      512
 93
        0
300

 40
0.0
140
1.0
 94
        2
 62
     0
340
55
144
0.18
309
CONTENTFORMAT_END
171
     0
 94
        0
309
TABLEFORMAT_END
  1
CELLSTYLE_BEGIN
 90
        3
 91
        2
300
_DATA
309
CELLSTYLE_END
  0
XRECORD
  5
E28
102
{ACAD_REACTORS
330
DED
102
}
330
DED
100
AcDbXrecord
280
     1
102
ACAD_ROUNDTRIP_PRE2007_TABLESTYLE
 90
      512
 91
        0
  1

 92
      512
 93
        0
  2

 94
      512
 95
        0
  3

  0
XRECORD
  5
E03
102
{ACAD_REACTORS
330
E02
102
}
330
E02
100
AcDbXrecord
280
     1
102
RTVSPropertyOp0
 70
     1
102
RTVSPropertyOp1
 70
     1
102
RTVSPropertyOp2
 70
     1
102
RTVSPropertyOp3
 70
     1
102
RTVSPropertyOp4
 70
     1
102
RTVSPropertyOp5
 70
     1
102
RTVSPropertyOp6
 70
     1
102
RTVSPropertyOp7
 70
     1
102
RTVSPropertyOp8
 70
     1
102
RTVSPropertyOp9
 70
     1
102
RTVSPropertyOp10
 70
     1
102
RTVSPropertyOp11
 70
     1
102
RTVSPropertyOp12
 70
     1
102
RTVSPropertyOp13
 70
     1
102
RTVSPropertyOp14
 70
     1
102
RTVSPropertyOp15
 70
     1
102
RTVSPropertyOp16
 70
     1
102
RTVSPropertyOp17
 70
     1
102
RTVSPropertyOp18
 70
     1
102
RTVSPropertyOp19
 70
     1
102
RTVSPropertyOp20
 70
     1
102
RTVSPropertyOp21
 70
     1
102
RTVSPropertyOp22
 70
     1
102
RTVSPropertyOp23
 70
     1
102
RTVSPropertyOp24
 70
     1
102
RTVSPropertyOp25
 70
     1
102
RTVSPropertyOp26
 70
     1
102
RTVSPropertyOp27
 70
     1
102
RTVSPropertyOp28
 70
     1
102
RTVSPropertyOp29
 70
     1
102
RTVSPropertyOp30
 70
     1
102
RTVSPropertyOp31
 70
     1
102
RTVSPropertyOp32
 70
     1
  0
XRECORD
  5
E01
102
{ACAD_REACTORS
330
E00
102
}
330
E00
100
AcDbXrecord
280
     1
102
RTVSPropertyOp0
 70
     1
102
RTVSPropertyOp1
 70
     1
102
RTVSPropertyOp2
 70
     1
102
RTVSPropertyOp3
 70
     1
102
RTVSPropertyOp4
 70
     1
102
RTVSPropertyOp5
 70
     1
102
RTVSPropertyOp6
 70
     1
102
RTVSPropertyOp7
 70
     1
102
RTVSPropertyOp8
 70
     1
102
RTVSPropertyOp9
 70
     1
102
RTVSPropertyOp10
 70
     1
102
RTVSPropertyOp11
 70
     1
102
RTVSPropertyOp12
 70
     1
102
RTVSPropertyOp13
 70
     1
102
RTVSPropertyOp14
 70
     1
102
RTVSPropertyOp15
 70
     1
102
RTVSPropertyOp16
 70
     1
102
RTVSPropertyOp17
 70
     1
102
RTVSPropertyOp18
 70
     1
102
RTVSPropertyOp19
 70
     1
102
RTVSPropertyOp20
 70
     1
102
RTVSPropertyOp21
 70
     1
102
RTVSPropertyOp22
 70
     1
102
RTVSPropertyOp23
 70
     1
102
RTVSPropertyOp24
 70
     1
102
RTVSPropertyOp25
 70
     1
102
RTVSPropertyOp26
 70
     1
102
RTVSPropertyOp27
 70
     1
102
RTVSPropertyOp28
 70
     1
102
RTVSPropertyOp29
 70
     1
102
RTVSPropertyOp30
 70
     1
102
RTVSPropertyOp31
 70
     1
102
RTVSPropertyOp32
 70
     1
  0
XRECORD
  5
E0F
102
{ACAD_REACTORS
330
E0E
102
}
330
E0E
100
AcDbXrecord
280
     1
102
RTVSPropertyOp0
 70
     1
102
RTVSPropertyOp1
 70
     1
102
RTVSPropertyOp2
 70
     1
102
RTVSPropertyOp3
 70
     1
102
RTVSPropertyOp4
 70
     1
102
RTVSPropertyOp5
 70
     1
102
RTVSPropertyOp6
 70
     1
102
RTVSPropertyOp7
 70
     1
102
RTVSPropertyOp8
 70
     1
102
RTVSPropertyOp9
 70
     1
102
RTVSPropertyOp10
 70
     1
102
RTVSPropertyOp11
 70
     1
102
RTVSPropertyOp12
 70
     1
102
RTVSPropertyOp13
 70
     1
102
RTVSPropertyOp14
 70
     1
102
RTVSPropertyOp15
 70
     1
102
RTVSPropertyOp16
 70
     1
102
RTVSPropertyOp17
 70
     1
102
RTVSPropertyOp18
 70
     1
102
RTVSPropertyOp19
 70
     1
102
RTVSPropertyOp20
 70
     1
102
RTVSPropertyOp21
 70
     1
102
RTVSPropertyOp22
 70
     1
102
RTVSPropertyOp23
 70
     1
102
RTVSPropertyOp24
 70
     1
102
RTVSPropertyOp25
 70
     1
102
RTVSPropertyOp26
 70
     1
102
RTVSPropertyOp27
 70
     1
102
RTVSPropertyOp28
 70
     1
102
RTVSPropertyOp29
 70
     1
102
RTVSPropertyOp30
 70
     1
102
RTVSPropertyOp31
 70
     1
102
RTVSPropertyOp32
 70
     1
  0
XRECORD
  5
E17
102
{ACAD_REACTORS
330
E16
102
}
330
E16
100
AcDbXrecord
280
     1
102
RTVSPropertyOp0
 70
     1
102
RTVSPropertyOp1
 70
     1
102
RTVSPropertyOp2
 70
     1
102
RTVSPropertyOp3
 70
     1
102
RTVSPropertyOp4
 70
     1
102
RTVSPropertyOp5
 70
     1
102
RTVSPropertyOp6
 70
     1
102
RTVSPropertyOp7
 70
     1
102
RTVSPropertyOp8
 70
     1
102
RTVSPropertyOp9
 70
     1
102
RTVSPropertyOp10
 70
     1
102
RTVSPropertyOp11
 70
     1
102
RTVSPropertyOp12
 70
     1
102
RTVSPropertyOp13
 70
     1
102
RTVSPropertyOp14
 70
     1
102
RTVSPropertyOp15
 70
     1
102
RTVSPropertyOp16
 70
     1
102
RTVSPropertyOp17
 70
     1
102
RTVSPropertyOp18
 70
     1
102
RTVSPropertyOp19
 70
     1
102
RTVSPropertyOp20
 70
     1
102
RTVSPropertyOp21
 70
     1
102
RTVSPropertyOp22
 70
     1
102
RTVSPropertyOp23
 70
     1
102
RTVSPropertyOp24
 70
     1
102
RTVSPropertyOp25
 70
     1
102
RTVSPropertyOp26
 70
     1
102
RTVSPropertyOp27
 70
     1
102
RTVSPropertyOp28
 70
     1
102
RTVSPropertyOp29
 70
     1
102
RTVSPropertyOp30
 70
     1
102
RTVSPropertyOp31
 70
     1
102
RTVSPropertyOp32
 70
     1
  0
XRECORD
  5
E09
102
{ACAD_REACTORS
330
E08
102
}
330
E08
100
AcDbXrecord
280
     1
102
RTVSPropertyOp0
 70
     1
102
RTVSPropertyOp1
 70
     1
102
RTVSPropertyOp2
 70
     1
102
RTVSPropertyOp3
 70
     1
102
RTVSPropertyOp4
 70
     1
102
RTVSPropertyOp5
 70
     1
102
RTVSPropertyOp6
 70
     1
102
RTVSPropertyOp7
 70
     1
102
RTVSPropertyOp8
 70
     1
102
RTVSPropertyOp9
 70
     1
102
RTVSPropertyOp10
 70
     1
102
RTVSPropertyOp11
 70
     1
102
RTVSPropertyOp12
 70
     1
102
RTVSPropertyOp13
 70
     1
102
RTVSPropertyOp14
 70
     1
102
RTVSPropertyOp15
 70
     1
102
RTVSPropertyOp16
 70
     1
102
RTVSPropertyOp17
 70
     1
102
RTVSPropertyOp18
 70
     1
102
RTVSPropertyOp19
 70
     1
102
RTVSPropertyOp20
 70
     1
102
RTVSPropertyOp21
 70
     1
102
RTVSPropertyOp22
 70
     1
102
RTVSPropertyOp23
 70
     1
102
RTVSPropertyOp24
 70
     1
102
RTVSPropertyOp25
 70
     1
102
RTVSPropertyOp26
 70
     1
102
RTVSPropertyOp27
 70
     1
102
RTVSPropertyOp28
 70
     1
102
RTVSPropertyOp29
 70
     1
102
RTVSPropertyOp30
 70
     1
102
RTVSPropertyOp31
 70
     1
102
RTVSPropertyOp32
 70
     1
  0
XRECORD
  5
E0D
102
{ACAD_REACTORS
330
E0C
102
}
330
E0C
100
AcDbXrecord
280
     1
102
RTVSPropertyOp0
 70
     1
102
RTVSPropertyOp1
 70
     1
102
RTVSPropertyOp2
 70
     1
102
RTVSPropertyOp3
 70
     1
102
RTVSPropertyOp4
 70
     1
102
RTVSPropertyOp5
 70
     1
102
RTVSPropertyOp6
 70
     1
102
RTVSPropertyOp7
 70
     1
102
RTVSPropertyOp8
 70
     1
102
RTVSPropertyOp9
 70
     1
102
RTVSPropertyOp10
 70
     1
102
RTVSPropertyOp11
 70
     1
102
RTVSPropertyOp12
 70
     1
102
RTVSPropertyOp13
 70
     1
102
RTVSPropertyOp14
 70
     1
102
RTVSPropertyOp15
 70
     1
102
RTVSPropertyOp16
 70
     1
102
RTVSPropertyOp17
 70
     1
102
RTVSPropertyOp18
 70
     1
102
RTVSPropertyOp19
 70
     1
102
RTVSPropertyOp20
 70
     1
102
RTVSPropertyOp21
 70
     1
102
RTVSPropertyOp22
 70
     1
102
RTVSPropertyOp23
 70
     1
102
RTVSPropertyOp24
 70
     1
102
RTVSPropertyOp25
 70
     1
102
RTVSPropertyOp26
 70
     1
102
RTVSPropertyOp27
 70
     1
102
RTVSPropertyOp28
 70
     1
102
RTVSPropertyOp29
 70
     1
102
RTVSPropertyOp30
 70
     1
102
RTVSPropertyOp31
 70
     1
102
RTVSPropertyOp32
 70
     1
  0
XRECORD
  5
E27
102
{ACAD_REACTORS
330
E26
102
}
330
E26
100
AcDbXrecord
280
     1
102
RTVSPropertyOp0
 70
     0
102
RTVSPropertyOp1
 70
     0
102
RTVSPropertyOp2
 70
     0
102
RTVSPropertyOp3
 70
     0
102
RTVSPropertyOp4
 70
     0
102
RTVSPropertyOp5
 70
     0
102
RTVSPropertyOp6
 70
     0
102
RTVSPropertyOp7
 70
     0
102
RTVSPropertyOp8
 70
     0
102
RTVSPropertyOp9
 70
     0
102
RTVSPropertyOp10
 70
     0
102
RTVSPropertyOp11
 70
     0
102
RTVSPropertyOp12
 70
     0
102
RTVSPropertyOp13
 70
     0
102
RTVSPropertyOp14
 70
     2
102
RTVSPropertyOp15
 70
     0
102
RTVSPropertyOp16
 70
     0
102
RTVSPropertyOp17
 70
     0
102
RTVSPropertyOp18
 70
     0
102
RTVSPropertyOp19
 70
     0
102
RTVSPropertyOp20
 70
     0
102
RTVSPropertyOp21
 70
     0
102
RTVSPropertyOp22
 70
     0
102
RTVSPropertyOp23
 70
     0
102
RTVSPropertyOp24
 70
     0
102
RTVSPropertyOp25
 70
     0
102
RTVSPropertyOp26
 70
     0
102
RTVSPropertyOp27
 70
     0
102
RTVSPropertyOp28
 70
     1
102
RTVSPropertyOp29
 70
     1
102
RTVSPropertyOp30
 70
     1
102
RTVSPropertyOp31
 70
     1
102
RTVSPropertyOp32
 70
     1
  0
XRECORD
  5
E15
102
{ACAD_REACTORS
330
E14
102
}
330
E14
100
AcDbXrecord
280
     1
102
RTVSPropertyOp0
 70
     1
102
RTVSPropertyOp1
 70
     1
102
RTVSPropertyOp2
 70
     1
102
RTVSPropertyOp3
 70
     1
102
RTVSPropertyOp4
 70
     1
102
RTVSPropertyOp5
 70
     1
102
RTVSPropertyOp6
 70
     1
102
RTVSPropertyOp7
 70
     1
102
RTVSPropertyOp8
 70
     1
102
RTVSPropertyOp9
 70
     1
102
RTVSPropertyOp10
 70
     1
102
RTVSPropertyOp11
 70
     1
102
RTVSPropertyOp12
 70
     1
102
RTVSPropertyOp13
 70
     1
102
RTVSPropertyOp14
 70
     1
102
RTVSPropertyOp15
 70
     1
102
RTVSPropertyOp16
 70
     1
102
RTVSPropertyOp17
 70
     1
102
RTVSPropertyOp18
 70
     1
102
RTVSPropertyOp19
 70
     1
102
RTVSPropertyOp20
 70
     1
102
RTVSPropertyOp21
 70
     1
102
RTVSPropertyOp22
 70
     1
102
RTVSPropertyOp23
 70
     1
102
RTVSPropertyOp24
 70
     1
102
RTVSPropertyOp25
 70
     1
102
RTVSPropertyOp26
 70
     1
102
RTVSPropertyOp27
 70
     1
102
RTVSPropertyOp28
 70
     1
102
RTVSPropertyOp29
 70
     1
102
RTVSPropertyOp30
 70
     1
102
RTVSPropertyOp31
 70
     1
102
RTVSPropertyOp32
 70
     1
  0
XRECORD
  5
DF9
102
{ACAD_REACTORS
330
DF8
102
}
330
DF8
100
AcDbXrecord
280
     1
102
RTVSPropertyOp0
 70
     1
102
RTVSPropertyOp1
 70
     1
102
RTVSPropertyOp2
 70
     1
102
RTVSPropertyOp3
 70
     1
102
RTVSPropertyOp4
 70
     1
102
RTVSPropertyOp5
 70
     1
102
RTVSPropertyOp6
 70
     1
102
RTVSPropertyOp7
 70
     1
102
RTVSPropertyOp8
 70
     1
102
RTVSPropertyOp9
 70
     1
102
RTVSPropertyOp10
 70
     1
102
RTVSPropertyOp11
 70
     1
102
RTVSPropertyOp12
 70
     1
102
RTVSPropertyOp13
 70
     1
102
RTVSPropertyOp14
 70
     1
102
RTVSPropertyOp15
 70
     1
102
RTVSPropertyOp16
 70
     1
102
RTVSPropertyOp17
 70
     1
102
RTVSPropertyOp18
 70
     1
102
RTVSPropertyOp19
 70
     1
102
RTVSPropertyOp20
 70
     1
102
RTVSPropertyOp21
 70
     1
102
RTVSPropertyOp22
 70
     1
102
RTVSPropertyOp23
 70
     1
102
RTVSPropertyOp24
 70
     1
102
RTVSPropertyOp25
 70
     1
102
RTVSPropertyOp26
 70
     1
102
RTVSPropertyOp27
 70
     1
102
RTVSPropertyOp28
 70
     1
102
RTVSPropertyOp29
 70
     1
102
RTVSPropertyOp30
 70
     1
102
RTVSPropertyOp31
 70
     1
102
RTVSPropertyOp32
 70
     1
  0
XRECORD
  5
DFB
102
{ACAD_REACTORS
330
DFA
102
}
330
DFA
100
AcDbXrecord
280
     1
102
RTVSPropertyOp0
 70
     1
102
RTVSPropertyOp1
 70
     1
102
RTVSPropertyOp2
 70
     1
102
RTVSPropertyOp3
 70
     1
102
RTVSPropertyOp4
 70
     1
102
RTVSPropertyOp5
 70
     1
102
RTVSPropertyOp6
 70
     1
102
RTVSPropertyOp7
 70
     1
102
RTVSPropertyOp8
 70
     1
102
RTVSPropertyOp9
 70
     1
102
RTVSPropertyOp10
 70
     1
102
RTVSPropertyOp11
 70
     1
102
RTVSPropertyOp12
 70
     1
102
RTVSPropertyOp13
 70
     1
102
RTVSPropertyOp14
 70
     1
102
RTVSPropertyOp15
 70
     1
102
RTVSPropertyOp16
 70
     1
102
RTVSPropertyOp17
 70
     1
102
RTVSPropertyOp18
 70
     1
102
RTVSPropertyOp19
 70
     1
102
RTVSPropertyOp20
 70
     1
102
RTVSPropertyOp21
 70
     1
102
RTVSPropertyOp22
 70
     1
102
RTVSPropertyOp23
 70
     1
102
RTVSPropertyOp24
 70
     1
102
RTVSPropertyOp25
 70
     1
102
RTVSPropertyOp26
 70
     1
102
RTVSPropertyOp27
 70
     1
102
RTVSPropertyOp28
 70
     1
102
RTVSPropertyOp29
 70
     1
102
RTVSPropertyOp30
 70
     1
102
RTVSPropertyOp31
 70
     1
102
RTVSPropertyOp32
 70
     1
  0
XRECORD
  5
DFD
102
{ACAD_REACTORS
330
DFC
102
}
330
DFC
100
AcDbXrecord
280
     1
102
RTVSPropertyOp0
 70
     1
102
RTVSPropertyOp1
 70
     1
102
RTVSPropertyOp2
 70
     1
102
RTVSPropertyOp3
 70
     1
102
RTVSPropertyOp4
 70
     1
102
RTVSPropertyOp5
 70
     1
102
RTVSPropertyOp6
 70
     1
102
RTVSPropertyOp7
 70
     1
102
RTVSPropertyOp8
 70
     1
102
RTVSPropertyOp9
 70
     1
102
RTVSPropertyOp10
 70
     1
102
RTVSPropertyOp11
 70
     1
102
RTVSPropertyOp12
 70
     1
102
RTVSPropertyOp13
 70
     1
102
RTVSPropertyOp14
 70
     1
102
RTVSPropertyOp15
 70
     1
102
RTVSPropertyOp16
 70
     1
102
RTVSPropertyOp17
 70
     1
102
RTVSPropertyOp18
 70
     1
102
RTVSPropertyOp19
 70
     1
102
RTVSPropertyOp20
 70
     1
102
RTVSPropertyOp21
 70
     1
102
RTVSPropertyOp22
 70
     1
102
RTVSPropertyOp23
 70
     1
102
RTVSPropertyOp24
 70
     1
102
RTVSPropertyOp25
 70
     1
102
RTVSPropertyOp26
 70
     1
102
RTVSPropertyOp27
 70
     1
102
RTVSPropertyOp28
 70
     1
102
RTVSPropertyOp29
 70
     1
102
RTVSPropertyOp30
 70
     1
102
RTVSPropertyOp31
 70
     1
102
RTVSPropertyOp32
 70
     1
  0
XRECORD
  5
DFF
102
{ACAD_REACTORS
330
DFE
102
}
330
DFE
100
AcDbXrecord
280
     1
102
RTVSPropertyOp0
 70
     1
102
RTVSPropertyOp1
 70
     1
102
RTVSPropertyOp2
 70
     1
102
RTVSPropertyOp3
 70
     1
102
RTVSPropertyOp4
 70
     1
102
RTVSPropertyOp5
 70
     1
102
RTVSPropertyOp6
 70
     1
102
RTVSPropertyOp7
 70
     1
102
RTVSPropertyOp8
 70
     1
102
RTVSPropertyOp9
 70
     1
102
RTVSPropertyOp10
 70
     1
102
RTVSPropertyOp11
 70
     1
102
RTVSPropertyOp12
 70
     1
102
RTVSPropertyOp13
 70
     1
102
RTVSPropertyOp14
 70
     1
102
RTVSPropertyOp15
 70
     1
102
RTVSPropertyOp16
 70
     1
102
RTVSPropertyOp17
 70
     1
102
RTVSPropertyOp18
 70
     1
102
RTVSPropertyOp19
 70
     1
102
RTVSPropertyOp20
 70
     1
102
RTVSPropertyOp21
 70
     1
102
RTVSPropertyOp22
 70
     1
102
RTVSPropertyOp23
 70
     1
102
RTVSPropertyOp24
 70
     1
102
RTVSPropertyOp25
 70
     1
102
RTVSPropertyOp26
 70
     1
102
RTVSPropertyOp27
 70
     1
102
RTVSPropertyOp28
 70
     1
102
RTVSPropertyOp29
 70
     1
102
RTVSPropertyOp30
 70
     1
102
RTVSPropertyOp31
 70
     1
102
RTVSPropertyOp32
 70
     1
  0
XRECORD
  5
E07
102
{ACAD_REACTORS
330
E06
102
}
330
E06
100
AcDbXrecord
280
     1
102
RTVSPropertyOp0
 70
     1
102
RTVSPropertyOp1
 70
     1
102
RTVSPropertyOp2
 70
     1
102
RTVSPropertyOp3
 70
     1
102
RTVSPropertyOp4
 70
     1
102
RTVSPropertyOp5
 70
     1
102
RTVSPropertyOp6
 70
     1
102
RTVSPropertyOp7
 70
     1
102
RTVSPropertyOp8
 70
     1
102
RTVSPropertyOp9
 70
     1
102
RTVSPropertyOp10
 70
     1
102
RTVSPropertyOp11
 70
     1
102
RTVSPropertyOp12
 70
     1
102
RTVSPropertyOp13
 70
     1
102
RTVSPropertyOp14
 70
     1
102
RTVSPropertyOp15
 70
     1
102
RTVSPropertyOp16
 70
     1
102
RTVSPropertyOp17
 70
     1
102
RTVSPropertyOp18
 70
     1
102
RTVSPropertyOp19
 70
     1
102
RTVSPropertyOp20
 70
     1
102
RTVSPropertyOp21
 70
     1
102
RTVSPropertyOp22
 70
     1
102
RTVSPropertyOp23
 70
     1
102
RTVSPropertyOp24
 70
     1
102
RTVSPropertyOp25
 70
     1
102
RTVSPropertyOp26
 70
     1
102
RTVSPropertyOp27
 70
     1
102
RTVSPropertyOp28
 70
     1
102
RTVSPropertyOp29
 70
     1
102
RTVSPropertyOp30
 70
     1
102
RTVSPropertyOp31
 70
     1
102
RTVSPropertyOp32
 70
     1
  0
XRECORD
  5
E23
102
{ACAD_REACTORS
330
E22
102
}
330
E22
100
AcDbXrecord
280
     1
102
RTVSPropertyOp0
 70
     0
102
RTVSPropertyOp1
 70
     0
102
RTVSPropertyOp2
 70
     0
102
RTVSPropertyOp3
 70
     0
102
RTVSPropertyOp4
 70
     0
102
RTVSPropertyOp5
 70
     0
102
RTVSPropertyOp6
 70
     0
102
RTVSPropertyOp7
 70
     0
102
RTVSPropertyOp8
 70
     0
102
RTVSPropertyOp9
 70
     0
102
RTVSPropertyOp10
 70
     0
102
RTVSPropertyOp11
 70
     0
102
RTVSPropertyOp12
 70
     0
102
RTVSPropertyOp13
 70
     0
102
RTVSPropertyOp14
 70
     2
102
RTVSPropertyOp15
 70
     0
102
RTVSPropertyOp16
 70
     0
102
RTVSPropertyOp17
 70
     0
102
RTVSPropertyOp18
 70
     0
102
RTVSPropertyOp19
 70
     0
102
RTVSPropertyOp20
 70
     0
102
RTVSPropertyOp21
 70
     0
102
RTVSPropertyOp22
 70
     0
102
RTVSPropertyOp23
 70
     0
102
RTVSPropertyOp24
 70
     0
102
RTVSPropertyOp25
 70
     0
102
RTVSPropertyOp26
 70
     0
102
RTVSPropertyOp27
 70
     0
102
RTVSPropertyOp28
 70
     1
102
RTVSPropertyOp29
 70
     1
102
RTVSPropertyOp30
 70
     1
102
RTVSPropertyOp31
 70
     1
102
RTVSPropertyOp32
 70
     1
  0
XRECORD
  5
E13
102
{ACAD_REACTORS
330
E12
102
}
330
E12
100
AcDbXrecord
280
     1
102
RTVSPropertyOp0
 70
     1
102
RTVSPropertyOp1
 70
     1
102
RTVSPropertyOp2
 70
     1
102
RTVSPropertyOp3
 70
     1
102
RTVSPropertyOp4
 70
     1
102
RTVSPropertyOp5
 70
     1
102
RTVSPropertyOp6
 70
     1
102
RTVSPropertyOp7
 70
     1
102
RTVSPropertyOp8
 70
     1
102
RTVSPropertyOp9
 70
     1
102
RTVSPropertyOp10
 70
     1
102
RTVSPropertyOp11
 70
     1
102
RTVSPropertyOp12
 70
     1
102
RTVSPropertyOp13
 70
     1
102
RTVSPropertyOp14
 70
     1
102
RTVSPropertyOp15
 70
     1
102
RTVSPropertyOp16
 70
     1
102
RTVSPropertyOp17
 70
     1
102
RTVSPropertyOp18
 70
     1
102
RTVSPropertyOp19
 70
     1
102
RTVSPropertyOp20
 70
     1
102
RTVSPropertyOp21
 70
     1
102
RTVSPropertyOp22
 70
     1
102
RTVSPropertyOp23
 70
     1
102
RTVSPropertyOp24
 70
     1
102
RTVSPropertyOp25
 70
     1
102
RTVSPropertyOp26
 70
     1
102
RTVSPropertyOp27
 70
     1
102
RTVSPropertyOp28
 70
     1
102
RTVSPropertyOp29
 70
     1
102
RTVSPropertyOp30
 70
     1
102
RTVSPropertyOp31
 70
     1
102
RTVSPropertyOp32
 70
     1
  0
XRECORD
  5
E25
102
{ACAD_REACTORS
330
E24
102
}
330
E24
100
AcDbXrecord
280
     1
102
RTVSPropertyOp0
 70
     0
102
RTVSPropertyOp1
 70
     0
102
RTVSPropertyOp2
 70
     0
102
RTVSPropertyOp3
 70
     0
102
RTVSPropertyOp4
 70
     0
102
RTVSPropertyOp5
 70
     0
102
RTVSPropertyOp6
 70
     0
102
RTVSPropertyOp7
 70
     0
102
RTVSPropertyOp8
 70
     0
102
RTVSPropertyOp9
 70
     0
102
RTVSPropertyOp10
 70
     0
102
RTVSPropertyOp11
 70
     0
102
RTVSPropertyOp12
 70
     0
102
RTVSPropertyOp13
 70
     0
102
RTVSPropertyOp14
 70
     2
102
RTVSPropertyOp15
 70
     0
102
RTVSPropertyOp16
 70
     0
102
RTVSPropertyOp17
 70
     0
102
RTVSPropertyOp18
 70
     0
102
RTVSPropertyOp19
 70
     0
102
RTVSPropertyOp20
 70
     0
102
RTVSPropertyOp21
 70
     0
102
RTVSPropertyOp22
 70
     0
102
RTVSPropertyOp23
 70
     0
102
RTVSPropertyOp24
 70
     0
102
RTVSPropertyOp25
 70
     0
102
RTVSPropertyOp26
 70
     0
102
RTVSPropertyOp27
 70
     0
102
RTVSPropertyOp28
 70
     1
102
RTVSPropertyOp29
 70
     1
102
RTVSPropertyOp30
 70
     1
102
RTVSPropertyOp31
 70
     1
102
RTVSPropertyOp32
 70
     1
  0
XRECORD
  5
E0B
102
{ACAD_REACTORS
330
E0A
102
}
330
E0A
100
AcDbXrecord
280
     1
102
RTVSPropertyOp0
 70
     1
102
RTVSPropertyOp1
 70
     1
102
RTVSPropertyOp2
 70
     1
102
RTVSPropertyOp3
 70
     1
102
RTVSPropertyOp4
 70
     1
102
RTVSPropertyOp5
 70
     1
102
RTVSPropertyOp6
 70
     1
102
RTVSPropertyOp7
 70
     1
102
RTVSPropertyOp8
 70
     1
102
RTVSPropertyOp9
 70
     1
102
RTVSPropertyOp10
 70
     1
102
RTVSPropertyOp11
 70
     1
102
RTVSPropertyOp12
 70
     1
102
RTVSPropertyOp13
 70
     1
102
RTVSPropertyOp14
 70
     1
102
RTVSPropertyOp15
 70
     1
102
RTVSPropertyOp16
 70
     1
102
RTVSPropertyOp17
 70
     1
102
RTVSPropertyOp18
 70
     1
102
RTVSPropertyOp19
 70
     1
102
RTVSPropertyOp20
 70
     1
102
RTVSPropertyOp21
 70
     1
102
RTVSPropertyOp22
 70
     1
102
RTVSPropertyOp23
 70
     1
102
RTVSPropertyOp24
 70
     1
102
RTVSPropertyOp25
 70
     1
102
RTVSPropertyOp26
 70
     1
102
RTVSPropertyOp27
 70
     1
102
RTVSPropertyOp28
 70
     1
102
RTVSPropertyOp29
 70
     1
102
RTVSPropertyOp30
 70
     1
102
RTVSPropertyOp31
 70
     1
102
RTVSPropertyOp32
 70
     1
  0
XRECORD
  5
E21
102
{ACAD_REACTORS
330
E20
102
}
330
E20
100
AcDbXrecord
280
     1
102
RTVSPropertyOp0
 70
     1
102
RTVSPropertyOp1
 70
     1
102
RTVSPropertyOp2
 70
     1
102
RTVSPropertyOp3
 70
     1
102
RTVSPropertyOp4
 70
     1
102
RTVSPropertyOp5
 70
     1
102
RTVSPropertyOp6
 70
     1
102
RTVSPropertyOp7
 70
     1
102
RTVSPropertyOp8
 70
     1
102
RTVSPropertyOp9
 70
     1
102
RTVSPropertyOp10
 70
     1
102
RTVSPropertyOp11
 70
     1
102
RTVSPropertyOp12
 70
     1
102
RTVSPropertyOp13
 70
     1
102
RTVSPropertyOp14
 70
     1
102
RTVSPropertyOp15
 70
     1
102
RTVSPropertyOp16
 70
     1
102
RTVSPropertyOp17
 70
     1
102
RTVSPropertyOp18
 70
     1
102
RTVSPropertyOp19
 70
     1
102
RTVSPropertyOp20
 70
     1
102
RTVSPropertyOp21
 70
     1
102
RTVSPropertyOp22
 70
     1
102
RTVSPropertyOp23
 70
     1
102
RTVSPropertyOp24
 70
     1
102
RTVSPropertyOp25
 70
     1
102
RTVSPropertyOp26
 70
     1
102
RTVSPropertyOp27
 70
     1
102
RTVSPropertyOp28
 70
     1
102
RTVSPropertyOp29
 70
     1
102
RTVSPropertyOp30
 70
     1
102
RTVSPropertyOp31
 70
     1
102
RTVSPropertyOp32
 70
     1
  0
XRECORD
  5
E1F
102
{ACAD_REACTORS
330
E1E
102
}
330
E1E
100
AcDbXrecord
280
     1
102
RTVSPropertyOp0
 70
     1
102
RTVSPropertyOp1
 70
     1
102
RTVSPropertyOp2
 70
     1
102
RTVSPropertyOp3
 70
     1
102
RTVSPropertyOp4
 70
     1
102
RTVSPropertyOp5
 70
     1
102
RTVSPropertyOp6
 70
     1
102
RTVSPropertyOp7
 70
     1
102
RTVSPropertyOp8
 70
     1
102
RTVSPropertyOp9
 70
     1
102
RTVSPropertyOp10
 70
     1
102
RTVSPropertyOp11
 70
     1
102
RTVSPropertyOp12
 70
     1
102
RTVSPropertyOp13
 70
     1
102
RTVSPropertyOp14
 70
     1
102
RTVSPropertyOp15
 70
     1
102
RTVSPropertyOp16
 70
     1
102
RTVSPropertyOp17
 70
     1
102
RTVSPropertyOp18
 70
     1
102
RTVSPropertyOp19
 70
     1
102
RTVSPropertyOp20
 70
     1
102
RTVSPropertyOp21
 70
     1
102
RTVSPropertyOp22
 70
     1
102
RTVSPropertyOp23
 70
     1
102
RTVSPropertyOp24
 70
     1
102
RTVSPropertyOp25
 70
     1
102
RTVSPropertyOp26
 70
     1
102
RTVSPropertyOp27
 70
     1
102
RTVSPropertyOp28
 70
     1
102
RTVSPropertyOp29
 70
     1
102
RTVSPropertyOp30
 70
     1
102
RTVSPropertyOp31
 70
     1
102
RTVSPropertyOp32
 70
     1
  0
XRECORD
  5
E19
102
{ACAD_REACTORS
330
E18
102
}
330
E18
100
AcDbXrecord
280
     1
102
RTVSPropertyOp0
 70
     1
102
RTVSPropertyOp1
 70
     1
102
RTVSPropertyOp2
 70
     1
102
RTVSPropertyOp3
 70
     1
102
RTVSPropertyOp4
 70
     1
102
RTVSPropertyOp5
 70
     1
102
RTVSPropertyOp6
 70
     1
102
RTVSPropertyOp7
 70
     1
102
RTVSPropertyOp8
 70
     1
102
RTVSPropertyOp9
 70
     1
102
RTVSPropertyOp10
 70
     1
102
RTVSPropertyOp11
 70
     1
102
RTVSPropertyOp12
 70
     1
102
RTVSPropertyOp13
 70
     1
102
RTVSPropertyOp14
 70
     1
102
RTVSPropertyOp15
 70
     1
102
RTVSPropertyOp16
 70
     1
102
RTVSPropertyOp17
 70
     1
102
RTVSPropertyOp18
 70
     1
102
RTVSPropertyOp19
 70
     1
102
RTVSPropertyOp20
 70
     1
102
RTVSPropertyOp21
 70
     1
102
RTVSPropertyOp22
 70
     1
102
RTVSPropertyOp23
 70
     1
102
RTVSPropertyOp24
 70
     1
102
RTVSPropertyOp25
 70
     1
102
RTVSPropertyOp26
 70
     1
102
RTVSPropertyOp27
 70
     1
102
RTVSPropertyOp28
 70
     1
102
RTVSPropertyOp29
 70
     1
102
RTVSPropertyOp30
 70
     1
102
RTVSPropertyOp31
 70
     1
102
RTVSPropertyOp32
 70
     1
  0
XRECORD
  5
E1B
102
{ACAD_REACTORS
330
E1A
102
}
330
E1A
100
AcDbXrecord
280
     1
102
RTVSPropertyOp0
 70
     1
102
RTVSPropertyOp1
 70
     1
102
RTVSPropertyOp2
 70
     1
102
RTVSPropertyOp3
 70
     1
102
RTVSPropertyOp4
 70
     1
102
RTVSPropertyOp5
 70
     1
102
RTVSPropertyOp6
 70
     1
102
RTVSPropertyOp7
 70
     1
102
RTVSPropertyOp8
 70
     1
102
RTVSPropertyOp9
 70
     1
102
RTVSPropertyOp10
 70
     1
102
RTVSPropertyOp11
 70
     1
102
RTVSPropertyOp12
 70
     1
102
RTVSPropertyOp13
 70
     1
102
RTVSPropertyOp14
 70
     1
102
RTVSPropertyOp15
 70
     1
102
RTVSPropertyOp16
 70
     1
102
RTVSPropertyOp17
 70
     1
102
RTVSPropertyOp18
 70
     1
102
RTVSPropertyOp19
 70
     1
102
RTVSPropertyOp20
 70
     1
102
RTVSPropertyOp21
 70
     1
102
RTVSPropertyOp22
 70
     1
102
RTVSPropertyOp23
 70
     1
102
RTVSPropertyOp24
 70
     1
102
RTVSPropertyOp25
 70
     1
102
RTVSPropertyOp26
 70
     1
102
RTVSPropertyOp27
 70
     1
102
RTVSPropertyOp28
 70
     1
102
RTVSPropertyOp29
 70
     1
102
RTVSPropertyOp30
 70
     1
102
RTVSPropertyOp31
 70
     1
102
RTVSPropertyOp32
 70
     1
  0
XRECORD
  5
E11
102
{ACAD_REACTORS
330
E10
102
}
330
E10
100
AcDbXrecord
280
     1
102
RTVSPropertyOp0
 70
     1
102
RTVSPropertyOp1
 70
     1
102
RTVSPropertyOp2
 70
     1
102
RTVSPropertyOp3
 70
     1
102
RTVSPropertyOp4
 70
     1
102
RTVSPropertyOp5
 70
     1
102
RTVSPropertyOp6
 70
     1
102
RTVSPropertyOp7
 70
     1
102
RTVSPropertyOp8
 70
     1
102
RTVSPropertyOp9
 70
     1
102
RTVSPropertyOp10
 70
     1
102
RTVSPropertyOp11
 70
     1
102
RTVSPropertyOp12
 70
     1
102
RTVSPropertyOp13
 70
     1
102
RTVSPropertyOp14
 70
     1
102
RTVSPropertyOp15
 70
     1
102
RTVSPropertyOp16
 70
     1
102
RTVSPropertyOp17
 70
     1
102
RTVSPropertyOp18
 70
     1
102
RTVSPropertyOp19
 70
     1
102
RTVSPropertyOp20
 70
     1
102
RTVSPropertyOp21
 70
     1
102
RTVSPropertyOp22
 70
     1
102
RTVSPropertyOp23
 70
     1
102
RTVSPropertyOp24
 70
     1
102
RTVSPropertyOp25
 70
     1
102
RTVSPropertyOp26
 70
     1
102
RTVSPropertyOp27
 70
     1
102
RTVSPropertyOp28
 70
     1
102
RTVSPropertyOp29
 70
     1
102
RTVSPropertyOp30
 70
     1
102
RTVSPropertyOp31
 70
     1
102
RTVSPropertyOp32
 70
     1
  0
XRECORD
  5
E05
102
{ACAD_REACTORS
330
E04
102
}
330
E04
100
AcDbXrecord
280
     1
102
RTVSPropertyOp0
 70
     1
102
RTVSPropertyOp1
 70
     1
102
RTVSPropertyOp2
 70
     1
102
RTVSPropertyOp3
 70
     1
102
RTVSPropertyOp4
 70
     1
102
RTVSPropertyOp5
 70
     1
102
RTVSPropertyOp6
 70
     1
102
RTVSPropertyOp7
 70
     1
102
RTVSPropertyOp8
 70
     1
102
RTVSPropertyOp9
 70
     1
102
RTVSPropertyOp10
 70
     1
102
RTVSPropertyOp11
 70
     1
102
RTVSPropertyOp12
 70
     1
102
RTVSPropertyOp13
 70
     1
102
RTVSPropertyOp14
 70
     1
102
RTVSPropertyOp15
 70
     1
102
RTVSPropertyOp16
 70
     1
102
RTVSPropertyOp17
 70
     1
102
RTVSPropertyOp18
 70
     1
102
RTVSPropertyOp19
 70
     1
102
RTVSPropertyOp20
 70
     1
102
RTVSPropertyOp21
 70
     1
102
RTVSPropertyOp22
 70
     1
102
RTVSPropertyOp23
 70
     1
102
RTVSPropertyOp24
 70
     1
102
RTVSPropertyOp25
 70
     1
102
RTVSPropertyOp26
 70
     1
102
RTVSPropertyOp27
 70
     1
102
RTVSPropertyOp28
 70
     1
102
RTVSPropertyOp29
 70
     1
102
RTVSPropertyOp30
 70
     1
102
RTVSPropertyOp31
 70
     1
102
RTVSPropertyOp32
 70
     1
  0
XRECORD
  5
E1D
102
{ACAD_REACTORS
330
E1C
102
}
330
E1C
100
AcDbXrecord
280
     1
102
RTVSPropertyOp0
 70
     1
102
RTVSPropertyOp1
 70
     1
102
RTVSPropertyOp2
 70
     1
102
RTVSPropertyOp3
 70
     1
102
RTVSPropertyOp4
 70
     1
102
RTVSPropertyOp5
 70
     1
102
RTVSPropertyOp6
 70
     1
102
RTVSPropertyOp7
 70
     1
102
RTVSPropertyOp8
 70
     1
102
RTVSPropertyOp9
 70
     1
102
RTVSPropertyOp10
 70
     1
102
RTVSPropertyOp11
 70
     1
102
RTVSPropertyOp12
 70
     1
102
RTVSPropertyOp13
 70
     1
102
RTVSPropertyOp14
 70
     1
102
RTVSPropertyOp15
 70
     1
102
RTVSPropertyOp16
 70
     1
102
RTVSPropertyOp17
 70
     1
102
RTVSPropertyOp18
 70
     1
102
RTVSPropertyOp19
 70
     1
102
RTVSPropertyOp20
 70
     1
102
RTVSPropertyOp21
 70
     1
102
RTVSPropertyOp22
 70
     1
102
RTVSPropertyOp23
 70
     1
102
RTVSPropertyOp24
 70
     1
102
RTVSPropertyOp25
 70
     1
102
RTVSPropertyOp26
 70
     1
102
RTVSPropertyOp27
 70
     1
102
RTVSPropertyOp28
 70
     1
102
RTVSPropertyOp29
 70
     1
102
RTVSPropertyOp30
 70
     1
102
RTVSPropertyOp31
 70
     1
102
RTVSPropertyOp32
 70
     1
  0
ENDSEC
  0
EOF
