  0
SECTION
  2
HEADER
  9
$ACADVER
  1
AC1015
  9
$ACADMAINTVER
 70
    18
  9
$DWGCODEPAGE
  3
ANSI_1252
  9
$INSBASE
 10
0.0
 20
0.0
 30
0.0
  9
$EXTMIN
 10
0.0
 20
0.0
 30
0.0
  9
$EXTMAX
 10
85.0
 20
55.0
 30
0.0
  9
$LIMMIN
 10
0.0
 20
0.0
  9
$LIMMAX
 10
85.0
 20
55.0
  9
$ORTHOMODE
 70
     0
  9
$REGENMODE
 70
     1
  9
$FILLMODE
 70
     1
  9
$QTEXTMODE
 70
     0
  9
$MIRRTEXT
 70
     0
  9
$LTSCALE
 40
5.0
  9
$ATTMODE
 70
     1
  9
$TEXTSIZE
 40
0.2
  9
$TRACEWID
 40
0.05
  9
$TEXTSTYLE
  7
Standard
  9
$CLAYER
  8
0
  9
$CELTYPE
  6
ByLayer
  9
$CECOLOR
 62
   256
  9
$CELTSCALE
 40
1.0
  9
$DISPSILH
 70
     0
  9
$DIMSCALE
 40
1.0
  9
$DIMASZ
 40
0.0708661417322835
  9
$DIMEXO
 40
0.0625
  9
$DIMDLI
 40
0.38
  9
$DIMRND
 40
0.0
  9
$DIMDLE
 40
0.0
  9
$DIMEXE
 40
0.18
  9
$DIMTP
 40
0.0
  9
$DIMTM
 40
0.0
  9
$DIMTXT
 40
0.0708661417322835
  9
$DIMCEN
 40
0.09
  9
$DIMTSZ
 40
0.0
  9
$DIMTOL
 70
     0
  9
$DIMLIM
 70
     0
  9
$DIMTIH
 70
     1
  9
$DIMTOH
 70
     1
  9
$DIMSE1
 70
     0
  9
$DIMSE2
 70
     0
  9
$DIMTAD
 70
     0
  9
$DIMZIN
 70
     0
  9
$DIMBLK
  1

  9
$DIMASO
 70
     1
  9
$DIMSHO
 70
     1
  9
$DIMPOST
  1

  9
$DIMAPOST
  1

  9
$DIMALT
 70
     0
  9
$DIMALTD
 70
     2
  9
$DIMALTF
 40
25.4
  9
$DIMLFAC
 40
1.0
  9
$DIMTOFL
 70
     0
  9
$DIMTVP
 40
0.0
  9
$DIMTIX
 70
     0
  9
$DIMSOXD
 70
     0
  9
$DIMSAH
 70
     0
  9
$DIMBLK1
  1

  9
$DIMBLK2
  1

  9
$DIMSTYLE
  2
STANDARD
  9
$DIMCLRD
 70
     0
  9
$DIMCLRE
 70
     0
  9
$DIMCLRT
 70
     0
  9
$DIMTFAC
 40
1.0
  9
$DIMGAP
 40
0.09
  9
$DIMJUST
 70
     0
  9
$DIMSD1
 70
     0
  9
$DIMSD2
 70
     0
  9
$DIMTOLJ
 70
     1
  9
$DIMTZIN
 70
     0
  9
$DIMALTZ
 70
     0
  9
$DIMALTTZ
 70
     0
  9
$DIMUPT
 70
     0
  9
$DIMDEC
 70
     4
  9
$DIMTDEC
 70
     4
  9
$DIMALTU
 70
     2
  9
$DIMALTTD
 70
     2
  9
$DIMTXSTY
  7
Standard
  9
$DIMAUNIT
 70
     0
  9
$DIMADEC
 70
     0
  9
$DIMALTRND
 40
0.0
  9
$DIMAZIN
 70
     0
  9
$DIMDSEP
 70
    46
  9
$DIMATFIT
 70
     3
  9
$DIMFRAC
 70
     0
  9
$DIMLDRBLK
  1

  9
$DIMLUNIT
 70
     2
  9
$DIMLWD
 70
    -2
  9
$DIMLWE
 70
    -2
  9
$DIMTMOVE
 70
     0
  9
$LUNITS
 70
     2
  9
$LUPREC
 70
     4
  9
$SKETCHINC
 40
0.1
  9
$FILLETRAD
 40
0.0
  9
$AUNITS
 70
     0
  9
$AUPREC
 70
     0
  9
$MENU
  1
.
  9
$ELEVATION
 40
0.0
  9
$PELEVATION
 40
0.0
  9
$THICKNESS
 40
0.0
  9
$LIMCHECK
 70
     0
  9
$CHAMFERA
 40
0.0
  9
$CHAMFERB
 40
0.0
  9
$CHAMFERC
 40
0.0
  9
$CHAMFERD
 40
0.0
  9
$SKPOLY
 70
     0
  9
$TDCREATE
 40
2455944.488818901
  9
$TDUCREATE
 40
2455944.738818901
  9
$TDUPDATE
 40
2455944.488819086
  9
$TDUUPDATE
 40
2455944.738819086
  9
$TDINDWG
 40
0.0000376157
  9
$TDUSRTIMER
 40
0.0000376157
  9
$USRTIMER
 70
     1
  9
$ANGBASE
 50
0.0
  9
$ANGDIR
 70
     0
  9
$PDMODE
 70
     0
  9
$PDSIZE
 40
0.0
  9
$PLINEWID
 40
0.0
  9
$SPLFRAME
 70
     0
  9
$SPLINETYPE
 70
     6
  9
$SPLINESEGS
 70
     8
  9
$HANDSEED
  5
D32
  9
$SURFTAB1
 70
     6
  9
$SURFTAB2
 70
     6
  9
$SURFTYPE
 70
     6
  9
$SURFU
 70
     6
  9
$SURFV
 70
     6
  9
$UCSBASE
  2

  9
$UCSNAME
  2

  9
$UCSORG
 10
0.0
 20
0.0
 30
0.0
  9
$UCSXDIR
 10
1.0
 20
0.0
 30
0.0
  9
$UCSYDIR
 10
0.0
 20
1.0
 30
0.0
  9
$UCSORTHOREF
  2

  9
$UCSORTHOVIEW
 70
     0
  9
$UCSORGTOP
 10
0.0
 20
0.0
 30
0.0
  9
$UCSORGBOTTOM
 10
0.0
 20
0.0
 30
0.0
  9
$UCSORGLEFT
 10
0.0
 20
0.0
 30
0.0
  9
$UCSORGRIGHT
 10
0.0
 20
0.0
 30
0.0
  9
$UCSORGFRONT
 10
0.0
 20
0.0
 30
0.0
  9
$UCSORGBACK
 10
0.0
 20
0.0
 30
0.0
  9
$PUCSBASE
  2

  9
$PUCSNAME
  2

  9
$PUCSORG
 10
0.0
 20
0.0
 30
0.0
  9
$PUCSXDIR
 10
1.0
 20
0.0
 30
0.0
  9
$PUCSYDIR
 10
0.0
 20
1.0
 30
0.0
  9
$PUCSORTHOREF
  2

  9
$PUCSORTHOVIEW
 70
     0
  9
$PUCSORGTOP
 10
0.0
 20
0.0
 30
0.0
  9
$PUCSORGBOTTOM
 10
0.0
 20
0.0
 30
0.0
  9
$PUCSORGLEFT
 10
0.0
 20
0.0
 30
0.0
  9
$PUCSORGRIGHT
 10
0.0
 20
0.0
 30
0.0
  9
$PUCSORGFRONT
 10
0.0
 20
0.0
 30
0.0
  9
$PUCSORGBACK
 10
0.0
 20
0.0
 30
0.0
  9
$USERI1
 70
     0
  9
$USERI2
 70
     0
  9
$USERI3
 70
     0
  9
$USERI4
 70
     0
  9
$USERI5
 70
     0
  9
$USERR1
 40
0.0
  9
$USERR2
 40
0.0
  9
$USERR3
 40
0.0
  9
$USERR4
 40
0.0
  9
$USERR5
 40
0.0
  9
$WORLDVIEW
 70
     1
  9
$SHADEDGE
 70
     3
  9
$SHADEDIF
 70
    70
  9
$TILEMODE
 70
     1
  9
$MAXACTVP
 70
    64
  9
$PINSBASE
 10
0.0
 20
0.0
 30
0.0
  9
$PLIMCHECK
 70
     0
  9
$PEXTMIN
 10
0.0
 20
0.0
 30
0.0
  9
$PEXTMAX
 10
85.0
 20
55.0
 30
0.0
  9
$PLIMMIN
 10
0.0
 20
0.0
  9
$PLIMMAX
 10
85.0
 20
55.0
  9
$UNITMODE
 70
     0
  9
$VISRETAIN
 70
     1
  9
$PLINEGEN
 70
     0
  9
$PSLTSCALE
 70
     1
  9
$TREEDEPTH
 70
  3020
  9
$CMLSTYLE
  2
Standard
  9
$CMLJUST
 70
     0
  9
$CMLSCALE
 40
1.0
  9
$PROXYGRAPHICS
 70
     1
  9
$MEASUREMENT
 70
     0
  9
$CELWEIGHT
370
    -1
  9
$ENDCAPS
280
     0
  9
$JOINSTYLE
280
     0
  9
$LWDISPLAY
290
     0
  9
$INSUNITS
 70
     1
  9
$HYPERLINKBASE
  1

  9
$STYLESHEET
  1

  9
$XEDIT
290
     1
  9
$CEPSNTYPE
380
     0
  9
$PSTYLEMODE
290
     1
  9
$FINGERPRINTGUID
  2
{F3E9BCA3-BBBB-40B1-B10A-104F509F197B}
  9
$VERSIONGUID
  2
{471DCD12-8B88-4BB3-9B0B-6C9914B8B13D}
  9
$EXTNAMES
290
     1
  9
$PSVPSCALE
 40
0.0
  9
$OLESTARTUP
290
     0
  0
ENDSEC
  0
SECTION
  2
CLASSES
  0
CLASS
  1
ACDBDICTIONARYWDFLT
  2
AcDbDictionaryWithDefault
  3
ObjectDBX Classes
 90
        0
280
     0
281
     0
  0
CLASS
  1
MATERIAL
  2
AcDbMaterial
  3
ObjectDBX Classes
 90
     1153
280
     0
281
     0
  0
CLASS
  1
VISUALSTYLE
  2
AcDbVisualStyle
  3
ObjectDBX Classes
 90
     4095
280
     0
281
     0
  0
CLASS
  1
SCALE
  2
AcDbScale
  3
ObjectDBX Classes
 90
     1153
280
     0
281
     0
  0
CLASS
  1
TABLESTYLE
  2
AcDbTableStyle
  3
ObjectDBX Classes
 90
     4095
280
     0
281
     0
  0
CLASS
  1
MLEADERSTYLE
  2
AcDbMLeaderStyle
  3
ACDB_MLEADERSTYLE_CLASS
 90
     4095
280
     0
281
     0
  0
CLASS
  1
DICTIONARYVAR
  2
AcDbDictionaryVar
  3
ObjectDBX Classes
 90
        0
280
     0
281
     0
  0
CLASS
  1
CELLSTYLEMAP
  2
AcDbCellStyleMap
  3
ObjectDBX Classes
 90
     1152
280
     0
281
     0
  0
CLASS
  1
ACDBPLACEHOLDER
  2
AcDbPlaceHolder
  3
ObjectDBX Classes
 90
        0
280
     0
281
     0
  0
CLASS
  1
LAYOUT
  2
AcDbLayout
  3
ObjectDBX Classes
 90
        0
280
     0
281
     0
  0
ENDSEC
  0
SECTION
  2
TABLES
  0
TABLE
  2
VPORT
  5
8
330
0
100
AcDbSymbolTable
 70
     1
  0
VPORT
  5
57
330
8
100
AcDbSymbolTableRecord
100
AcDbViewportTableRecord
  2
*Active
 70
     0
 10
0.0
 20
0.0
 11
1.0
 21
1.0
 12
42.5
 22
27.5
 13
0.0
 23
0.0
 14
1.0
 24
1.0
 15
0.0
 25
0.0
 16
0.0
 26
0.0
 36
1.0
 17
0.0
 27
0.0
 37
0.0
 40
55.0
 41
1.545454545454545
 42
50.0
 43
0.0
 44
0.0
 50
0.0
 51
0.0
 71
     0
 72
   100
 73
     1
 74
     1
 75
     0
 76
     0
 77
     0
 78
     0
281
     0
 65
     1
110
0.0
120
0.0
130
0.0
111
1.0
121
0.0
131
0.0
112
0.0
122
1.0
132
0.0
 79
     0
146
0.0
  0
ENDTAB
  0
TABLE
  2
LTYPE
  5
5
330
0
100
AcDbSymbolTable
 70
    59
  0
LTYPE
  5
5B
330
5
100
AcDbSymbolTableRecord
100
AcDbLinetypeTableRecord
  2
ByBlock
 70
     0
  3

 72
    65
 73
     0
 40
0.0
  0
LTYPE
  5
5C
330
5
100
AcDbSymbolTableRecord
100
AcDbLinetypeTableRecord
  2
ByLayer
 70
     0
  3

 72
    65
 73
     0
 40
0.0
  0
LTYPE
  5
5D
330
5
100
AcDbSymbolTableRecord
100
AcDbLinetypeTableRecord
  2
Continuous
 70
     0
  3
Solid line
 72
    65
 73
     0
 40
0.0
  0
LTYPE
  5
DD
330
5
100
AcDbSymbolTableRecord
100
AcDbLinetypeTableRecord
  2
BY_STANDARD
 70
     0
  3
By Standard ____________    ____    ____   _
 72
    65
 73
     6
 40
1.240299999999999
 49
0.6614
 74
     0
 49
-0.0827
 74
     0
 49
0.1654
 74
     0
 49
-0.0827
 74
     0
 49
0.1654
 74
     0
 49
-0.0827
 74
     0
  0
LTYPE
  5
DE
330
5
100
AcDbSymbolTableRecord
100
AcDbLinetypeTableRecord
  2
CHAIN
 70
     0
  3
Chain ____ _ ____ _ ____ _ ____ _ ____ _ ____
 72
    65
 73
     4
 40
0.7087
 49
0.4724000000000001
 74
     0
 49
-0.0591
 74
     0
 49
0.1181
 74
     0
 49
-0.0591
 74
     0
  0
LTYPE
  5
DF
330
5
100
AcDbSymbolTableRecord
100
AcDbLinetypeTableRecord
  2
DASH_DOT
 70
     0
  3
Dash dot __ . __ . __ . __ . __ . __ . __ . __
 72
    65
 73
     4
 40
0.37
 49
0.24
 74
     0
 49
-0.06
 74
     0
 49
0.01
 74
     0
 49
-0.06
 74
     0
  0
LTYPE
  5
E0
330
5
100
AcDbSymbolTableRecord
100
AcDbLinetypeTableRecord
  2
DOUBLE_DASH_DOT
 70
     0
  3
Double-Dash Dot __ __ . __ __ . __ __ . __ _
 72
    65
 73
     6
 40
0.4398
 49
0.24
 74
     0
 49
-0.06
 74
     0
 49
0.0098
 74
     0
 49
-0.06
 74
     0
 49
0.01
 74
     0
 49
-0.06
 74
     0
  0
LTYPE
  5
E1
330
5
100
AcDbSymbolTableRecord
100
AcDbLinetypeTableRecord
  2
DASH_TRIPLE_DOT
 70
     0
  3
Dash Triple-Dot _ . . . _ . . . _ . . . _
 72
    65
 73
     8
 40
0.51
 49
0.24
 74
     0
 49
-0.06
 74
     0
 49
0.01
 74
     0
 49
-0.06
 74
     0
 49
0.01
 74
     0
 49
-0.06
 74
     0
 49
0.01
 74
     0
 49
-0.06
 74
     0
  0
LTYPE
  5
E2
330
5
100
AcDbSymbolTableRecord
100
AcDbLinetypeTableRecord
  2
DASHED
 70
     0
  3
Dashed __ __ __ __ __ __ __ __ __ __ __ __ __ _
 72
    65
 73
     2
 40
0.2067
 49
0.1654
 74
     0
 49
-0.0413
 74
     0
  0
LTYPE
  5
E3
330
5
100
AcDbSymbolTableRecord
100
AcDbLinetypeTableRecord
  2
DASH_DOUBLE_DOT
 70
     0
  3
Dash Double-Dot __ . . __ . . __ . . __ . .
 72
    65
 73
     6
 40
0.4398
 49
0.24
 74
     0
 49
-0.06
 74
     0
 49
0.0098
 74
     0
 49
-0.06
 74
     0
 49
0.01
 74
     0
 49
-0.06
 74
     0
  0
LTYPE
  5
E4
330
5
100
AcDbSymbolTableRecord
100
AcDbLinetypeTableRecord
  2
DASHED_SPACE
 70
     0
  3
Dashed Space __ __ __ __ __ __ __ __ __ __ __ _
 72
    65
 73
     2
 40
0.2067
 49
0.1654
 74
     0
 49
-0.0413
 74
     0
  0
LTYPE
  5
E5
330
5
100
AcDbSymbolTableRecord
100
AcDbLinetypeTableRecord
  2
DOTTED
 70
     0
  3
Dotted . . . . . . . . . . . . . . . . . . . . 
 72
    65
 73
     2
 40
0.0482
 49
0.0069
 74
     0
 49
-0.0413
 74
     0
  0
LTYPE
  5
E6
330
5
100
AcDbSymbolTableRecord
100
AcDbLinetypeTableRecord
  2
DOUBLE_DASH_CHAIN
 70
     0
  3
Double-Dash Chain ______  __  __  ______  __  _
 72
    65
 73
     6
 40
1.240299999999999
 49
0.6614
 74
     0
 49
-0.0827
 74
     0
 49
0.1654
 74
     0
 49
-0.0827
 74
     0
 49
0.1654
 74
     0
 49
-0.0827
 74
     0
  0
LTYPE
  5
E8
330
5
100
AcDbSymbolTableRecord
100
AcDbLinetypeTableRecord
  2
DOUBLE_DASH_DOUBLE_DOT
 70
     0
  3
Double-Dash Double-dot _ _ . . _ _ . . _
 72
    65
 73
     8
 40
0.7400000000000001
 49
0.24
 74
     0
 49
-0.06
 74
     0
 49
0.24
 74
     0
 49
-0.06
 74
     0
 49
0.01
 74
     0
 49
-0.06
 74
     0
 49
0.01
 74
     0
 49
-0.06
 74
     0
  0
LTYPE
  5
E9
330
5
100
AcDbSymbolTableRecord
100
AcDbLinetypeTableRecord
  2
DOUBLE_DASH_TRIPLE_DOT
 70
     0
  3
Double Dash Triple Dot __ __ . . . __ __ . .
 72
    65
 73
    10
 40
0.8100000000000001
 49
0.24
 74
     0
 49
-0.06
 74
     0
 49
0.24
 74
     0
 49
-0.06
 74
     0
 49
0.01
 74
     0
 49
-0.06
 74
     0
 49
0.01
 74
     0
 49
-0.06
 74
     0
 49
0.01
 74
     0
 49
-0.06
 74
     0
  0
LTYPE
  5
EA
330
5
100
AcDbSymbolTableRecord
100
AcDbLinetypeTableRecord
  2
LONG_DASH_DOTTED
 70
     0
  3
Long Dash Dotted ____ . ____ . ____ . ____ . _
 72
    65
 73
     4
 40
0.3543
 49
0.2362
 74
     0
 49
-0.0295
 74
     0
 49
0.0591
 74
     0
 49
-0.0295
 74
     0
  0
LTYPE
  5
EB
330
5
100
AcDbSymbolTableRecord
100
AcDbLinetypeTableRecord
  2
LONG_DASH_DOUBLE_DOT
 70
     0
  3
Long Dash Double Dot ________  .  .  ________  
 72
    65
 73
     6
 40
0.6799999999999999
 49
0.48
 74
     0
 49
-0.06
 74
     0
 49
0.01
 74
     0
 49
-0.06
 74
     0
 49
0.01
 74
     0
 49
-0.06
 74
     0
  0
LTYPE
  5
EC
330
5
100
AcDbSymbolTableRecord
100
AcDbLinetypeTableRecord
  2
LONG_DASH_TRIPLE_DOT
 70
     0
  3
Long Dash Triple Dot ____ ... ____ ... ____
 72
    65
 73
     8
 40
0.3689
 49
0.2362
 74
     0
 49
-0.0295
 74
     0
 49
0.0049
 74
     0
 49
-0.0295
 74
     0
 49
0.0049
 74
     0
 49
-0.0295
 74
     0
 49
0.0049
 74
     0
 49
-0.0295
 74
     0
  0
LTYPE
  5
ED
330
5
100
AcDbSymbolTableRecord
100
AcDbLinetypeTableRecord
  2
BORDER
 70
     0
  3
Border __ __ . __ __ . __ __ . __ __ . __ __ .
 72
    65
 73
     6
 40
1.75
 49
0.5
 74
     0
 49
-0.25
 74
     0
 49
0.5
 74
     0
 49
-0.25
 74
     0
 49
0.0
 74
     0
 49
-0.25
 74
     0
  0
LTYPE
  5
EE
330
5
100
AcDbSymbolTableRecord
100
AcDbLinetypeTableRecord
  2
BORDER2
 70
     0
  3
Border (.5x) __.__.__.__.__.__.__.__.__.__.__.
 72
    65
 73
     6
 40
0.875
 49
0.25
 74
     0
 49
-0.125
 74
     0
 49
0.25
 74
     0
 49
-0.125
 74
     0
 49
0.0
 74
     0
 49
-0.125
 74
     0
  0
LTYPE
  5
EF
330
5
100
AcDbSymbolTableRecord
100
AcDbLinetypeTableRecord
  2
BORDERX2
 70
     0
  3
Border (2x) ____  ____  .  ____  ____  .  ___
 72
    65
 73
     6
 40
3.5
 49
1.0
 74
     0
 49
-0.5
 74
     0
 49
1.0
 74
     0
 49
-0.5
 74
     0
 49
0.0
 74
     0
 49
-0.5
 74
     0
  0
LTYPE
  5
F0
330
5
100
AcDbSymbolTableRecord
100
AcDbLinetypeTableRecord
  2
CENTER
 70
     0
  3
Center ____ _ ____ _ ____ _ ____ _ ____ _ ____
 72
    65
 73
     4
 40
2.0
 49
1.25
 74
     0
 49
-0.25
 74
     0
 49
0.25
 74
     0
 49
-0.25
 74
     0
  0
LTYPE
  5
F1
330
5
100
AcDbSymbolTableRecord
100
AcDbLinetypeTableRecord
  2
CENTER2
 70
     0
  3
Center (.5x) ___ _ ___ _ ___ _ ___ _ ___ _ ___
 72
    65
 73
     4
 40
1.125
 49
0.75
 74
     0
 49
-0.125
 74
     0
 49
0.125
 74
     0
 49
-0.125
 74
     0
  0
LTYPE
  5
F2
330
5
100
AcDbSymbolTableRecord
100
AcDbLinetypeTableRecord
  2
CENTERX2
 70
     0
  3
Center (2x) ________  __  ________  __  _____
 72
    65
 73
     4
 40
4.0
 49
2.5
 74
     0
 49
-0.5
 74
     0
 49
0.5
 74
     0
 49
-0.5
 74
     0
  0
LTYPE
  5
F3
330
5
100
AcDbSymbolTableRecord
100
AcDbLinetypeTableRecord
  2
DASHDOT2
 70
     0
  3
Dash dot (.5x) _._._._._._._._._._._._._._._.
 72
    65
 73
     4
 40
0.5
 49
0.25
 74
     0
 49
-0.125
 74
     0
 49
0.0
 74
     0
 49
-0.125
 74
     0
  0
LTYPE
  5
F4
330
5
100
AcDbSymbolTableRecord
100
AcDbLinetypeTableRecord
  2
DASHDOTX2
 70
     0
  3
Dash dot (2x) ____  .  ____  .  ____  .  ___
 72
    65
 73
     4
 40
2.0
 49
1.0
 74
     0
 49
-0.5
 74
     0
 49
0.0
 74
     0
 49
-0.5
 74
     0
  0
LTYPE
  5
F6
330
5
100
AcDbSymbolTableRecord
100
AcDbLinetypeTableRecord
  2
DASHED2
 70
     0
  3
Dashed (.5x) _ _ _ _ _ _ _ _ _ _ _ _ _ _ _ _ _
 72
    65
 73
     2
 40
0.375
 49
0.25
 74
     0
 49
-0.125
 74
     0
  0
LTYPE
  5
F7
330
5
100
AcDbSymbolTableRecord
100
AcDbLinetypeTableRecord
  2
DASHEDX2
 70
     0
  3
Dashed (2x) ____  ____  ____  ____  ____  ___
 72
    65
 73
     2
 40
1.5
 49
1.0
 74
     0
 49
-0.5
 74
     0
  0
LTYPE
  5
F8
330
5
100
AcDbSymbolTableRecord
100
AcDbLinetypeTableRecord
  2
DIVIDE
 70
     0
  3
Divide ____ . . ____ . . ____ . . ____ . . ____
 72
    65
 73
     6
 40
1.25
 49
0.5
 74
     0
 49
-0.25
 74
     0
 49
0.0
 74
     0
 49
-0.25
 74
     0
 49
0.0
 74
     0
 49
-0.25
 74
     0
  0
LTYPE
  5
F9
330
5
100
AcDbSymbolTableRecord
100
AcDbLinetypeTableRecord
  2
DIVIDE2
 70
     0
  3
Divide (.5x) __..__..__..__..__..__..__..__.._
 72
    65
 73
     6
 40
0.625
 49
0.25
 74
     0
 49
-0.125
 74
     0
 49
0.0
 74
     0
 49
-0.125
 74
     0
 49
0.0
 74
     0
 49
-0.125
 74
     0
  0
LTYPE
  5
FA
330
5
100
AcDbSymbolTableRecord
100
AcDbLinetypeTableRecord
  2
DIVIDEX2
 70
     0
  3
Divide (2x) ________  .  .  ________  .  .  _
 72
    65
 73
     6
 40
2.5
 49
1.0
 74
     0
 49
-0.5
 74
     0
 49
0.0
 74
     0
 49
-0.5
 74
     0
 49
0.0
 74
     0
 49
-0.5
 74
     0
  0
LTYPE
  5
FB
330
5
100
AcDbSymbolTableRecord
100
AcDbLinetypeTableRecord
  2
DOT
 70
     0
  3
Dot . . . . . . . . . . . . . . . . . . . . . .
 72
    65
 73
     2
 40
0.25
 49
0.0
 74
     0
 49
-0.25
 74
     0
  0
LTYPE
  5
FC
330
5
100
AcDbSymbolTableRecord
100
AcDbLinetypeTableRecord
  2
DOT2
 70
     0
  3
Dot (.5x) .....................................
 72
    65
 73
     2
 40
0.125
 49
0.0
 74
     0
 49
-0.125
 74
     0
  0
LTYPE
  5
FD
330
5
100
AcDbSymbolTableRecord
100
AcDbLinetypeTableRecord
  2
DOTX2
 70
     0
  3
Dot (2x) .  .  .  .  .  .  .  .  .  .  .  .  . 
 72
    65
 73
     2
 40
0.5
 49
0.0
 74
     0
 49
-0.5
 74
     0
  0
LTYPE
  5
FE
330
5
100
AcDbSymbolTableRecord
100
AcDbLinetypeTableRecord
  2
HIDDEN
 70
     0
  3
Hidden __ __ __ __ __ __ __ __ __ __ __ __ __ _
 72
    65
 73
     2
 40
0.375
 49
0.25
 74
     0
 49
-0.125
 74
     0
  0
LTYPE
  5
FF
330
5
100
AcDbSymbolTableRecord
100
AcDbLinetypeTableRecord
  2
HIDDEN2
 70
     0
  3
Hidden (.5x) _ _ _ _ _ _ _ _ _ _ _ _ _ _ _ _ _
 72
    65
 73
     2
 40
0.1875
 49
0.125
 74
     0
 49
-0.0625
 74
     0
  0
LTYPE
  5
100
330
5
100
AcDbSymbolTableRecord
100
AcDbLinetypeTableRecord
  2
HIDDENX2
 70
     0
  3
Hidden (2x) ____ ____ ____ ____ ____ ____ ____
 72
    65
 73
     2
 40
0.75
 49
0.5
 74
     0
 49
-0.25
 74
     0
  0
LTYPE
  5
101
330
5
100
AcDbSymbolTableRecord
100
AcDbLinetypeTableRecord
  2
PHANTOM
 70
     0
  3
Phantom ______  __  __  ______  __  __  ______
 72
    65
 73
     6
 40
2.5
 49
1.25
 74
     0
 49
-0.25
 74
     0
 49
0.25
 74
     0
 49
-0.25
 74
     0
 49
0.25
 74
     0
 49
-0.25
 74
     0
  0
LTYPE
  5
102
330
5
100
AcDbSymbolTableRecord
100
AcDbLinetypeTableRecord
  2
PHANTOM2
 70
     0
  3
Phantom (.5x) ___ _ _ ___ _ _ ___ _ _ ___ _ _
 72
    65
 73
     6
 40
1.25
 49
0.625
 74
     0
 49
-0.125
 74
     0
 49
0.125
 74
     0
 49
-0.125
 74
     0
 49
0.125
 74
     0
 49
-0.125
 74
     0
  0
LTYPE
  5
103
330
5
100
AcDbSymbolTableRecord
100
AcDbLinetypeTableRecord
  2
PHANTOMX2
 70
     0
  3
Phantom (2x) ____________    ____    ____   _
 72
    65
 73
     6
 40
5.0
 49
2.5
 74
     0
 49
-0.5
 74
     0
 49
0.5
 74
     0
 49
-0.5
 74
     0
 49
0.5
 74
     0
 49
-0.5
 74
     0
  0
LTYPE
  5
104
330
5
100
AcDbSymbolTableRecord
100
AcDbLinetypeTableRecord
  2
ACAD_ISO02W100
 70
     0
  3
ISO dash __ __ __ __ __ __ __ __ __ __ __ __ __
 72
    65
 73
     2
 40
0.59
 49
0.47
 74
     0
 49
-0.12
 74
     0
  0
LTYPE
  5
105
330
5
100
AcDbSymbolTableRecord
100
AcDbLinetypeTableRecord
  2
ACAD_ISO03W100
 70
     0
  3
ISO dash space __    __    __    __    __    __
 72
    65
 73
     2
 40
1.179999999999999
 49
0.47
 74
     0
 49
-0.71
 74
     0
  0
LTYPE
  5
106
330
5
100
AcDbSymbolTableRecord
100
AcDbLinetypeTableRecord
  2
ACAD_ISO04W100
 70
     0
  3
ISO long-dash dot ____ . ____ . ____ . ____ . _
 72
    65
 73
     4
 40
1.179999999999999
 49
0.9399999999999998
 74
     0
 49
-0.12
 74
     0
 49
0.0
 74
     0
 49
-0.12
 74
     0
  0
LTYPE
  5
107
330
5
100
AcDbSymbolTableRecord
100
AcDbLinetypeTableRecord
  2
ACAD_ISO05W100
 70
     0
  3
ISO long-dash double-dot ____ .. ____ .. ____ .
 72
    65
 73
     6
 40
1.299999999999999
 49
0.9399999999999998
 74
     0
 49
-0.12
 74
     0
 49
0.0
 74
     0
 49
-0.12
 74
     0
 49
0.0
 74
     0
 49
-0.12
 74
     0
  0
LTYPE
  5
108
330
5
100
AcDbSymbolTableRecord
100
AcDbLinetypeTableRecord
  2
ACAD_ISO06W100
 70
     0
  3
ISO long-dash triple-dot ____ ... ____ ... ____
 72
    65
 73
     8
 40
1.419999999999999
 49
0.9399999999999998
 74
     0
 49
-0.12
 74
     0
 49
0.0
 74
     0
 49
-0.12
 74
     0
 49
0.0
 74
     0
 49
-0.12
 74
     0
 49
0.0
 74
     0
 49
-0.12
 74
     0
  0
LTYPE
  5
109
330
5
100
AcDbSymbolTableRecord
100
AcDbLinetypeTableRecord
  2
ACAD_ISO07W100
 70
     0
  3
ISO dot . . . . . . . . . . . . . . . . . . . .
 72
    65
 73
     2
 40
0.12
 49
0.0
 74
     0
 49
-0.12
 74
     0
  0
LTYPE
  5
10A
330
5
100
AcDbSymbolTableRecord
100
AcDbLinetypeTableRecord
  2
ACAD_ISO08W100
 70
     0
  3
ISO long-dash short-dash ____ __ ____ __ ____ _
 72
    65
 73
     4
 40
0.95
 49
0.47
 74
     0
 49
-0.12
 74
     0
 49
0.24
 74
     0
 49
-0.12
 74
     0
  0
LTYPE
  5
10B
330
5
100
AcDbSymbolTableRecord
100
AcDbLinetypeTableRecord
  2
ACAD_ISO09W100
 70
     0
  3
ISO long-dash double-short-dash ____ __ __ ____
 72
    65
 73
     6
 40
1.31
 49
0.47
 74
     0
 49
-0.12
 74
     0
 49
0.24
 74
     0
 49
-0.12
 74
     0
 49
0.24
 74
     0
 49
-0.12
 74
     0
  0
LTYPE
  5
10C
330
5
100
AcDbSymbolTableRecord
100
AcDbLinetypeTableRecord
  2
ACAD_ISO10W100
 70
     0
  3
ISO dash dot __ . __ . __ . __ . __ . __ . __ .
 72
    65
 73
     4
 40
0.71
 49
0.47
 74
     0
 49
-0.12
 74
     0
 49
0.0
 74
     0
 49
-0.12
 74
     0
  0
LTYPE
  5
10D
330
5
100
AcDbSymbolTableRecord
100
AcDbLinetypeTableRecord
  2
ACAD_ISO11W100
 70
     0
  3
ISO double-dash dot __ __ . __ __ . __ __ . __ 
 72
    65
 73
     6
 40
1.299999999999999
 49
0.47
 74
     0
 49
-0.12
 74
     0
 49
0.47
 74
     0
 49
-0.12
 74
     0
 49
0.0
 74
     0
 49
-0.12
 74
     0
  0
LTYPE
  5
10E
330
5
100
AcDbSymbolTableRecord
100
AcDbLinetypeTableRecord
  2
ACAD_ISO12W100
 70
     0
  3
ISO dash double-dot __ . . __ . . __ . . __ . .
 72
    65
 73
     6
 40
0.8299999999999998
 49
0.47
 74
     0
 49
-0.12
 74
     0
 49
0.0
 74
     0
 49
-0.12
 74
     0
 49
0.0
 74
     0
 49
-0.12
 74
     0
  0
LTYPE
  5
10F
330
5
100
AcDbSymbolTableRecord
100
AcDbLinetypeTableRecord
  2
ACAD_ISO13W100
 70
     0
  3
ISO double-dash double-dot __ __ . . __ __ . . 
 72
    65
 73
     8
 40
1.419999999999999
 49
0.47
 74
     0
 49
-0.12
 74
     0
 49
0.47
 74
     0
 49
-0.12
 74
     0
 49
0.0
 74
     0
 49
-0.12
 74
     0
 49
0.0
 74
     0
 49
-0.12
 74
     0
  0
LTYPE
  5
110
330
5
100
AcDbSymbolTableRecord
100
AcDbLinetypeTableRecord
  2
ACAD_ISO14W100
 70
     0
  3
ISO dash triple-dot __ . . . __ . . . __ . . . 
 72
    65
 73
     8
 40
0.95
 49
0.47
 74
     0
 49
-0.12
 74
     0
 49
0.0
 74
     0
 49
-0.12
 74
     0
 49
0.0
 74
     0
 49
-0.12
 74
     0
 49
0.0
 74
     0
 49
-0.12
 74
     0
  0
LTYPE
  5
111
330
5
100
AcDbSymbolTableRecord
100
AcDbLinetypeTableRecord
  2
ACAD_ISO15W100
 70
     0
  3
ISO double-dash triple-dot __ __ . . . __ __ . 
 72
    65
 73
    10
 40
1.539999999999999
 49
0.47
 74
     0
 49
-0.12
 74
     0
 49
0.47
 74
     0
 49
-0.12
 74
     0
 49
0.0
 74
     0
 49
-0.12
 74
     0
 49
0.0
 74
     0
 49
-0.12
 74
     0
 49
0.0
 74
     0
 49
-0.12
 74
     0
  0
LTYPE
  5
114
330
5
100
AcDbSymbolTableRecord
100
AcDbLinetypeTableRecord
  2
FENCELINE1
 70
     0
  3
Fenceline circle ----0-----0----0-----0----0---
 72
    65
 73
     4
 40
1.45
 49
0.25
 74
     0
 49
-0.1
 74
     4
 75
   133
340
113
 46
0.1
 50
0.0
 44
-0.1
 45
0.0
 49
-0.1
 74
     0
 49
1.0
 74
     0
  0
LTYPE
  5
115
330
5
100
AcDbSymbolTableRecord
100
AcDbLinetypeTableRecord
  2
FENCELINE2
 70
     0
  3
Fenceline square ----[]-----[]----[]-----[]----
 72
    65
 73
     4
 40
1.45
 49
0.25
 74
     0
 49
-0.1
 74
     4
 75
   132
340
113
 46
0.1
 50
0.0
 44
-0.1
 45
0.0
 49
-0.1
 74
     0
 49
1.0
 74
     0
  0
LTYPE
  5
116
330
5
100
AcDbSymbolTableRecord
100
AcDbLinetypeTableRecord
  2
TRACKS
 70
     0
  3
Tracks -|-|-|-|-|-|-|-|-|-|-|-|-|-|-|-|-|-|-|-|
 72
    65
 73
     2
 40
0.3
 49
0.15
 74
     4
 75
   130
340
113
 46
0.25
 50
0.0
 44
0.0
 45
0.0
 49
0.15
 74
     0
  0
LTYPE
  5
117
330
5
100
AcDbSymbolTableRecord
100
AcDbLinetypeTableRecord
  2
BATTING
 70
     0
  3
Batting SSSSSSSSSSSSSSSSSSSSSSSSSSSSSSSSSSSSSSS
 72
    65
 73
     4
 40
0.4001000000000001
 49
0.0001
 74
     0
 49
-0.1
 74
     4
 75
   134
340
113
 46
0.1
 50
0.0
 44
-0.1
 45
0.0
 49
-0.2
 74
     4
 75
   134
340
113
 46
0.1
 50
180.0
 44
0.1
 45
0.0
 49
-0.1
 74
     0
  0
LTYPE
  5
118
330
5
100
AcDbSymbolTableRecord
100
AcDbLinetypeTableRecord
  2
HOT_WATER_SUPPLY
 70
     0
  3
Hot water supply ---- HW ---- HW ---- HW ----
 72
    65
 73
     3
 40
0.9
 49
0.5
 74
     0
 49
-0.2
 74
     2
 75
     0
340
55
 46
0.1
 50
0.0
 44
-0.1
 45
-0.05
  9
HW
 49
-0.2
 74
     0
  0
LTYPE
  5
119
330
5
100
AcDbSymbolTableRecord
100
AcDbLinetypeTableRecord
  2
GAS_LINE
 70
     0
  3
Gas line ----GAS----GAS----GAS----GAS----GAS---
 72
    65
 73
     3
 40
0.95
 49
0.5
 74
     0
 49
-0.2
 74
     2
 75
     0
340
55
 46
0.1
 50
0.0
 44
-0.1
 45
-0.05
  9
GAS
 49
-0.25
 74
     0
  0
LTYPE
  5
11A
330
5
100
AcDbSymbolTableRecord
100
AcDbLinetypeTableRecord
  2
ZIGZAG
 70
     0
  3
Zig zag /\/\/\/\/\/\/\/\/\/\/\/\/\/\/\/\/\/\/\/
 72
    65
 73
     4
 40
0.8001000000000001
 49
0.0001
 74
     0
 49
-0.2
 74
     4
 75
   131
340
113
 46
0.2
 50
0.0
 44
-0.2
 45
0.0
 49
-0.4
 74
     4
 75
   131
340
113
 46
0.2
 50
180.0
 44
0.2
 45
0.0
 49
-0.2
 74
     0
  0
ENDTAB
  0
TABLE
  2
LAYER
  5
2
330
0
100
AcDbSymbolTable
 70
    27
  0
LAYER
  5
54
330
2
100
AcDbSymbolTableRecord
100
AcDbLayerTableRecord
  2
0
 70
     0
 62
     7
  6
Continuous
370
    18
390
F
  0
LAYER
  5
75
330
2
100
AcDbSymbolTableRecord
100
AcDbLayerTableRecord
  2
Symbol (ANSI)
 70
     0
 62
     7
  6
Continuous
370
    18
390
F
  0
LAYER
  5
124
330
2
100
AcDbSymbolTableRecord
100
AcDbLayerTableRecord
  2
Dimension (ANSI)
 70
     0
 62
     7
  6
Continuous
370
    13
390
F
  0
LAYER
  5
126
330
2
100
AcDbSymbolTableRecord
100
AcDbLayerTableRecord
  2
Hidden (ANSI)
 70
     0
 62
     7
  6
DASHED
370
    15
390
F
  0
LAYER
  5
12F
330
2
100
AcDbSymbolTableRecord
100
AcDbLayerTableRecord
  2
Visible (ANSI)
 70
     0
 62
     7
  6
Continuous
370
    13
390
F
  0
LAYER
  5
130
330
2
100
AcDbSymbolTableRecord
100
AcDbLayerTableRecord
  2
Visible Narrow (ANSI)
 70
     0
 62
     7
  6
Continuous
370
    18
390
F
  0
LAYER
  5
209
330
2
100
AcDbSymbolTableRecord
100
AcDbLayerTableRecord
  2
Defpoints
 70
     0
 62
     7
  6
Continuous
290
     0
370
    -3
390
F
  0
ENDTAB
  0
TABLE
  2
STYLE
  5
3
330
0
100
AcDbSymbolTable
 70
    18
  0
STYLE
  5
55
330
3
100
AcDbSymbolTableRecord
100
AcDbTextStyleTableRecord
  2
Standard
 70
     0
 40
0.0
 41
1.0
 50
0.0
 71
     0
 42
0.2
  3
txt
  4

  0
STYLE
  5
5A
330
3
100
AcDbSymbolTableRecord
100
AcDbTextStyleTableRecord
  2
Annotative
 70
     0
 40
0.0
 41
1.0
 50
0.0
 71
     0
 42
0.2
  3
txt
  4

1001
AcadAnnotative
1000
AnnotativeData
1002
{
1070
     1
1070
     1
1002
}
  0
STYLE
  5
76
330
3
100
AcDbSymbolTableRecord
100
AcDbTextStyleTableRecord
  2
Note Text (ANSI)
 70
     0
 40
0.0
 41
1.0
 50
0.0
 71
     0
 42
0.2
  3
TAHOMA.TTF
  4

1001
ACAD
1000
Tahoma
1071
      256
  0
STYLE
  5
78
330
3
100
AcDbSymbolTableRecord
100
AcDbTextStyleTableRecord
  2
SANSSERIF
 70
     0
 40
0.125
 41
1.0
 50
0.0
 71
     0
 42
0.125
  3
sas_____.pfb
  4

  0
STYLE
  5
113
330
3
100
AcDbSymbolTableRecord
100
AcDbTextStyleTableRecord
  2

 70
     1
 40
0.0
 41
1.0
 50
0.0
 71
     0
 42
0.2
  3
ltypeshp.shx
  4

  0
STYLE
  5
134
330
3
100
AcDbSymbolTableRecord
100
AcDbTextStyleTableRecord
  2
ITALICC_120
 70
     0
 40
0.0
 41
1.0
 50
0.0
 71
     0
 42
0.2
  3
italicc.shx
  4

  0
STYLE
  5
135
330
3
100
AcDbSymbolTableRecord
100
AcDbTextStyleTableRecord
  2
Label Text (ANSI)
 70
     0
 40
0.0
 41
1.0
 50
0.0
 71
     0
 42
0.2
  3
TAHOMA.TTF
  4

1001
ACAD
1000
Tahoma
1071
      256
  0
STYLE
  5
136
330
3
100
AcDbSymbolTableRecord
100
AcDbTextStyleTableRecord
  2
ROMANS
 70
     0
 40
0.0
 41
1.0
 50
0.0
 71
     0
 42
0.2
  3
romans.shx
  4

  0
STYLE
  5
137
330
3
100
AcDbSymbolTableRecord
100
AcDbTextStyleTableRecord
  2
SANSSERIF_114
 70
     0
 40
0.0
 41
1.0
 50
0.0
 71
     0
 42
0.2
  3
TAHOMA.TTF
  4

1001
ACAD
1000
Tahoma
1071
      256
  0
STYLE
  5
138
330
3
100
AcDbSymbolTableRecord
100
AcDbTextStyleTableRecord
  2
SANSSERIF_117
 70
     0
 40
0.0
 41
1.0
 50
0.0
 71
     0
 42
0.2
  3
TAHOMA.TTF
  4

1001
ACAD
1000
Tahoma
1071
      256
  0
STYLE
  5
139
330
3
100
AcDbSymbolTableRecord
100
AcDbTextStyleTableRecord
  2
STANDARDAM_ANSI
 70
     0
 40
0.0
 41
1.0
 50
0.0
 71
     0
 42
0.2
  3
txt.shx
  4

  0
STYLE
  5
13A
330
3
100
AcDbSymbolTableRecord
100
AcDbTextStyleTableRecord
  2
StandardAM_ANSI$0
 70
     0
 40
0.0
 41
1.0
 50
0.0
 71
     0
 42
0.2
  3
txt.shx
  4

  0
STYLE
  5
13B
330
3
100
AcDbSymbolTableRecord
100
AcDbTextStyleTableRecord
  2
STANDARDAM_ANSI$3
 70
     0
 40
0.0
 41
1.0
 50
0.0
 71
     0
 42
0.2
  3
txt.shx
  4

  0
STYLE
  5
13C
330
3
100
AcDbSymbolTableRecord
100
AcDbTextStyleTableRecord
  2
STANDARDAM_ANSI$4
 70
     0
 40
0.0
 41
1.0
 50
0.0
 71
     0
 42
0.2
  3
txt.shx
  4

  0
STYLE
  5
13D
330
3
100
AcDbSymbolTableRecord
100
AcDbTextStyleTableRecord
  2
STANDARDAM_ANSI$7
 70
     0
 40
0.0
 41
1.0
 50
0.0
 71
     0
 42
0.2
  3
txt.shx
  4

  0
STYLE
  5
13E
330
3
100
AcDbSymbolTableRecord
100
AcDbTextStyleTableRecord
  2
STANDARDAM_ANSI$SF
 70
     0
 40
0.0
 41
1.0
 50
0.0
 71
     0
 42
0.2
  3
txt.shx
  4

  0
STYLE
  5
13F
330
3
100
AcDbSymbolTableRecord
100
AcDbTextStyleTableRecord
  2
STANDARDAM_ANSI$SH
 70
     0
 40
0.0
 41
1.0
 50
0.0
 71
     0
 42
0.2
  3
txt.shx
  4

  0
STYLE
  5
140
330
3
100
AcDbSymbolTableRecord
100
AcDbTextStyleTableRecord
  2
STANDARDSTANDARD
 70
     0
 40
0.0
 41
1.0
 50
0.0
 71
     0
 42
0.2
  3
txt.shx
  4

  0
ENDTAB
  0
TABLE
  2
VIEW
  5
6
330
0
100
AcDbSymbolTable
 70
     0
  0
ENDTAB
  0
TABLE
  2
UCS
  5
7
330
0
100
AcDbSymbolTable
 70
     0
  0
ENDTAB
  0
TABLE
  2
APPID
  5
9
330
0
100
AcDbSymbolTable
 70
     4
  0
APPID
  5
56
330
9
100
AcDbSymbolTableRecord
100
AcDbRegAppTableRecord
  2
ACAD
 70
     0
  0
APPID
  5
5E
330
9
100
AcDbSymbolTableRecord
100
AcDbRegAppTableRecord
  2
AcadAnnotative
 70
     0
  0
APPID
  5
B1F
330
9
100
AcDbSymbolTableRecord
100
AcDbRegAppTableRecord
  2
ACAD_DSTYLE_DIMRADIAL_EXTENSION
 70
     0
  0
APPID
  5
D27
330
9
100
AcDbSymbolTableRecord
100
AcDbRegAppTableRecord
  2
ACAD_MLEADERVER
 70
     0
  0
ENDTAB
  0
TABLE
  2
DIMSTYLE
  5
A
330
0
100
AcDbSymbolTable
 70
    27
100
AcDbDimStyleTable
 71
     2
340
155
340
58
  0
DIMSTYLE
105
58
330
A
100
AcDbSymbolTableRecord
100
AcDbDimStyleTableRecord
  2
STANDARD
 70
     0
 41
0.1800000071525573
 42
0.0625
140
0.1800000071525574
144
1.0
147
0.0900000035762787
176
   256
177
   256
178
   256
274
     3
340
55
371
    -1
372
    -1
  0
DIMSTYLE
105
59
330
A
100
AcDbSymbolTableRecord
100
AcDbDimStyleTableRecord
  2
Annotative
 70
     0
340
55
1001
AcadAnnotative
1000
AnnotativeData
1002
{
1070
     1
1070
     1
1002
}
  0
DIMSTYLE
105
141
330
A
100
AcDbSymbolTableRecord
100
AcDbDimStyleTableRecord
  2
AM_ANSI
 70
     0
  4
 mm
 40
5.0
 41
0.119999997317791
 42
0.05
 43
0.5
 44
0.1
 45
0.00000001
 78
     4
 79
     2
140
0.1200000047683716
146
0.7099999453624112
147
0.0599999986588955
176
   256
177
   256
178
     2
284
     4
340
139
371
    -1
372
    -1
  0
DIMSTYLE
105
142
330
A
100
AcDbSymbolTableRecord
100
AcDbDimStyleTableRecord
  2
AM_ANSI$7
 70
     0
  4
 mm
 40
5.0
 41
0.119999997317791
 42
0.05
 43
0.5
 44
0.1
 45
0.00000001
 78
     4
 79
     2
140
0.1200000047683716
146
0.7099999453624112
147
0.0599999986588955
176
   256
177
   256
178
     2
284
     4
340
139
371
    -1
372
    -1
  0
DIMSTYLE
105
143
330
A
100
AcDbSymbolTableRecord
100
AcDbDimStyleTableRecord
  2
AM_ANSI$0
 70
     0
  4
 mm
 40
5.0
 41
0.119999997317791
 42
0.05
 43
0.5
 44
0.1
 45
0.00000001
 78
     4
 79
     2
140
0.1200000047683716
146
0.7099999453624112
147
0.0599999986588955
176
   256
177
   256
178
     2
284
     4
340
13A
371
    -1
372
    -1
  0
DIMSTYLE
105
144
330
A
100
AcDbSymbolTableRecord
100
AcDbDimStyleTableRecord
  2
AM_ANSI$0$7
 70
     0
  4
 mm
 40
5.0
 41
0.119999997317791
 42
0.05
 43
0.5
 44
0.1
 45
0.00000001
 78
     4
 79
     2
140
0.1200000047683716
146
0.7099999453624112
147
0.0599999986588955
176
   256
177
   256
178
     2
284
     4
340
13A
371
    -1
372
    -1
  0
DIMSTYLE
105
145
330
A
100
AcDbSymbolTableRecord
100
AcDbDimStyleTableRecord
  2
AM_ANSI$3
 70
     0
  4
 mm
 40
5.0
 41
0.119999997317791
 42
0.05
 43
0.5
 44
0.1
 45
0.00000001
 78
     4
 79
     2
140
0.1200000047683716
146
0.7099999453624112
147
0.0599999986588955
176
   256
177
   256
178
     2
284
     4
340
13B
371
    -1
372
    -1
  0
DIMSTYLE
105
146
330
A
100
AcDbSymbolTableRecord
100
AcDbDimStyleTableRecord
  2
AM_ANSI$3$7
 70
     0
  4
 mm
 40
5.0
 41
0.119999997317791
 42
0.05
 43
0.5
 44
0.1
 45
0.00000001
 78
     4
 79
     2
140
0.1200000047683716
146
0.7099999453624112
147
0.0599999986588955
176
   256
177
   256
178
     2
284
     4
340
13B
371
    -1
372
    -1
  0
DIMSTYLE
105
147
330
A
100
AcDbSymbolTableRecord
100
AcDbDimStyleTableRecord
  2
AM_ANSI$4
 70
     0
  4
 mm
 40
5.0
 41
0.119999997317791
 42
0.05
 43
0.5
 44
0.1
 45
0.00000001
 78
     4
 79
     2
140
0.1200000047683716
146
0.7099999453624112
147
0.0599999986588955
176
   256
177
   256
178
     2
284
     4
340
13C
371
    -1
372
    -1
  0
DIMSTYLE
105
148
330
A
100
AcDbSymbolTableRecord
100
AcDbDimStyleTableRecord
  2
AM_ANSI$4$7
 70
     0
  4
 mm
 40
5.0
 41
0.119999997317791
 42
0.05
 43
0.5
 44
0.1
 45
0.00000001
 78
     4
 79
     2
140
0.1200000047683716
146
0.7099999453624112
147
0.0599999986588955
176
   256
177
   256
178
     2
284
     4
340
13C
371
    -1
372
    -1
  0
DIMSTYLE
105
149
330
A
100
AcDbSymbolTableRecord
100
AcDbDimStyleTableRecord
  2
AM_ANSI$SF
 70
     0
  4
 mm
 40
5.0
 41
0.119999997317791
 42
0.05
 43
0.5
 44
0.1
 45
0.00000001
 75
     1
 76
     1
 78
     4
 79
     2
140
0.1200000047683716
146
0.7099999453624112
147
0.0599999986588955
176
   256
177
   256
178
     2
284
     4
340
13E
371
    -1
372
    -1
  0
DIMSTYLE
105
14A
330
A
100
AcDbSymbolTableRecord
100
AcDbDimStyleTableRecord
  2
AM_ANSI$SF$7
 70
     0
  4
 mm
 40
5.0
 41
0.119999997317791
 42
0.05
 43
0.5
 44
0.1
 45
0.00000001
 75
     1
 76
     1
 78
     4
 79
     2
140
0.1200000047683716
146
0.7099999453624112
147
0.0599999986588955
176
   256
177
   256
178
     2
284
     4
340
13E
371
    -1
372
    -1
  0
DIMSTYLE
105
14B
330
A
100
AcDbSymbolTableRecord
100
AcDbDimStyleTableRecord
  2
AM_ANSI$SH
 70
     0
  4
 mm
 40
5.0
 41
0.119999997317791
 42
0.05
 43
0.5
 44
0.1
 45
0.00000001
 75
     1
 76
     1
 78
     4
 79
     2
140
0.1200000047683716
146
0.7099999453624112
147
0.0599999986588955
176
   256
177
   256
178
     2
284
     4
340
13F
371
    -1
372
    -1
  0
DIMSTYLE
105
14C
330
A
100
AcDbSymbolTableRecord
100
AcDbDimStyleTableRecord
  2
AM_ANSI$SH$7
 70
     0
  4
 mm
 40
5.0
 41
0.119999997317791
 42
0.05
 43
0.5
 44
0.1
 45
0.00000001
 75
     1
 76
     1
 78
     4
 79
     2
140
0.1200000047683716
146
0.7099999453624112
147
0.0599999986588955
176
   256
177
   256
178
     2
284
     4
340
13F
371
    -1
372
    -1
  0
DIMSTYLE
105
14D
330
A
100
AcDbSymbolTableRecord
100
AcDbDimStyleTableRecord
  2
Architectural (ANSI)
 70
     0
 40
5.0
 41
0.0984251946210861
 43
0.2362204724409449
 44
0.125
 45
0.00000001
 46
0.3937007874015748
 78
     3
 79
     3
140
0.1200000047683716
147
0.031496062992126
171
     1
176
   256
177
   256
178
   256
272
     2
274
     1
276
     2
277
     4
284
    12
285
     4
286
    12
340
76
371
    -1
372
    -1
  0
DIMSTYLE
105
14E
330
A
100
AcDbSymbolTableRecord
100
AcDbDimStyleTableRecord
  2
Architectural (ANSI)$7
 70
     0
 40
5.0
 41
0.0984251946210861
 43
0.2362204724409449
 44
0.125
 45
0.00000001
 46
0.3937007874015748
 78
     3
 79
     3
140
0.1200000047683716
147
0.031496062992126
171
     1
176
   256
177
   256
178
   256
272
     2
274
     1
276
     2
277
     4
284
    12
285
     4
286
    12
340
76
371
    -1
372
    -1
  0
DIMSTYLE
105
14F
330
A
100
AcDbSymbolTableRecord
100
AcDbDimStyleTableRecord
  2
Default - Fraction (ANSI)
 70
     0
 40
5.0
 41
0.0984251946210861
 43
0.2362204724409449
 44
0.125
 45
0.00000001
 46
0.3937007874015748
 79
     3
140
0.1200000047683716
147
0.031496062992126
171
     1
176
   256
177
   256
178
   256
272
     2
274
     1
276
     2
277
     5
284
    12
285
     4
286
    12
340
76
371
    -1
372
    -1
  0
DIMSTYLE
105
150
330
A
100
AcDbSymbolTableRecord
100
AcDbDimStyleTableRecord
  2
Default - Fraction (ANSI)$7
 70
     0
 40
5.0
 41
0.0984251946210861
 43
0.2362204724409449
 44
0.125
 45
0.00000001
 46
0.3937007874015748
 79
     3
140
0.1200000047683716
147
0.031496062992126
171
     1
176
   256
177
   256
178
   256
272
     2
274
     1
276
     2
277
     5
284
    12
285
     4
286
    12
340
76
371
    -1
372
    -1
  0
DIMSTYLE
105
151
330
A
100
AcDbSymbolTableRecord
100
AcDbDimStyleTableRecord
  2
Default - mm (ANSI)
 70
     0
 40
5.0
 41
0.0984251946210861
 42
0.063
 43
0.2362204724409449
 44
0.125
 45
0.00000001
 46
0.3937007874015748
 73
     0
 78
     4
 79
     1
140
0.1200000047683716
143
1.0
144
25.4
147
0.031496062992126
171
     1
176
   256
177
   256
178
   256
179
     1
271
     2
272
     2
274
     1
284
     4
285
     4
340
76
371
    -1
372
    -1
  0
DIMSTYLE
105
152
330
A
100
AcDbSymbolTableRecord
100
AcDbDimStyleTableRecord
  2
Default - mm (ANSI)$7
 70
     0
 40
5.0
 41
0.0984251946210861
 42
0.063
 43
0.2362204724409449
 44
0.125
 45
0.00000001
 46
0.3937007874015748
 73
     0
 78
     4
 79
     1
140
0.1200000047683716
143
1.0
144
25.4
147
0.031496062992126
171
     1
176
   256
177
   256
178
   256
179
     1
271
     2
272
     2
274
     1
284
     4
285
     4
340
76
371
    -1
372
    -1
  0
DIMSTYLE
105
153
330
A
100
AcDbSymbolTableRecord
100
AcDbDimStyleTableRecord
  2
Default - mm [in] (ANSI)
 70
     0
  4
 in
 40
5.0
 41
0.0984251946210861
 42
0.063
 43
0.25
 44
0.125
 45
0.00000001
 46
0.3937007874015748
 73
     0
 78
     4
 79
     1
140
0.1200000047683716
143
0.03937
144
25.4
147
0.031496062992126
170
     1
171
     3
176
   256
177
   256
178
   256
179
     1
271
     2
272
     2
274
     3
284
     4
285
     4
286
     4
340
76
371
    -1
372
    -1
  0
DIMSTYLE
105
154
330
A
100
AcDbSymbolTableRecord
100
AcDbDimStyleTableRecord
  2
Default - mm [in] (ANSI)$7
 70
     0
  4
 in
 40
5.0
 41
0.0984251946210861
 42
0.063
 43
0.25
 44
0.125
 45
0.00000001
 46
0.3937007874015748
 73
     0
 78
     4
 79
     1
140
0.1200000047683716
143
0.03937
144
25.4
147
0.031496062992126
170
     1
171
     3
176
   256
177
   256
178
   256
179
     1
271
     2
272
     2
274
     3
284
     4
285
     4
286
     4
340
76
371
    -1
372
    -1
  0
DIMSTYLE
105
155
102
{ACAD_REACTORS
330
207
330
2F4
330
3DE
330
4DC
330
5DC
330
6C6
330
7B0
330
89C
330
99C
330
A86
330
B40
330
BF9
102
}
330
A
100
AcDbSymbolTableRecord
100
AcDbDimStyleTableRecord
  2
Default (ANSI)
 70
     0
 40
5.0
 41
0.0984251946210861
 43
0.2362204724409449
 44
0.125
 45
0.00000001
 46
0.3937007874015748
 79
     1
140
0.1200000047683716
147
0.031496062992126
171
     1
176
   256
177
   256
178
   256
271
     2
272
     2
274
     1
284
     4
285
     4
340
76
371
    -1
372
    -1
  0
DIMSTYLE
105
156
330
A
100
AcDbSymbolTableRecord
100
AcDbDimStyleTableRecord
  2
Default (ANSI)$7
 70
     0
 40
5.0
 41
0.0984251946210861
 43
0.2362204724409449
 44
0.125
 45
0.00000001
 46
0.3937007874015748
 79
     1
140
0.1200000047683716
147
0.031496062992126
171
     1
176
   256
177
   256
178
   256
271
     2
272
     2
274
     1
284
     4
285
     4
340
76
371
    -1
372
    -1
  0
DIMSTYLE
105
157
330
A
100
AcDbSymbolTableRecord
100
AcDbDimStyleTableRecord
  2
Alternate (ANSI)
 70
     0
 40
5.0
 41
0.0979999974370003
340
55
342
158
  0
DIMSTYLE
105
16A
330
A
100
AcDbSymbolTableRecord
100
AcDbDimStyleTableRecord
  2
Datum (ANSI)
 70
     0
 40
5.0
 41
0.0979999974370003
340
55
342
158
  0
DIMSTYLE
105
179
330
A
100
AcDbSymbolTableRecord
100
AcDbDimStyleTableRecord
  2
Large (ANSI)
 70
     0
 40
5.0
 41
0.1959999948740005
340
55
342
158
  0
ENDTAB
  0
TABLE
  2
BLOCK_RECORD
  5
1
330
0
100
AcDbSymbolTable
 70
    16
  0
BLOCK_RECORD
  5
6C
330
1
100
AcDbSymbolTableRecord
100
AcDbBlockTableRecord
  2
*Model_Space
340
6F
  0
BLOCK_RECORD
  5
68
330
1
100
AcDbSymbolTableRecord
100
AcDbBlockTableRecord
  2
*Paper_Space
340
6B
  0
BLOCK_RECORD
  5
70
330
1
100
AcDbSymbolTableRecord
100
AcDbBlockTableRecord
  2
*Paper_Space0
340
73
  0
BLOCK_RECORD
  5
158
330
1
100
AcDbSymbolTableRecord
100
AcDbBlockTableRecord
  2
_Closed
340
0
  0
BLOCK_RECORD
  5
15F
330
1
100
AcDbSymbolTableRecord
100
AcDbBlockTableRecord
  2
DatumFilled45
340
0
  0
BLOCK_RECORD
  5
16B
330
1
100
AcDbSymbolTableRecord
100
AcDbBlockTableRecord
  2
Filled-1
340
0
  0
BLOCK_RECORD
  5
20A
330
1
100
AcDbSymbolTableRecord
100
AcDbBlockTableRecord
  2
*D4
340
0
  0
BLOCK_RECORD
  5
2F5
330
1
100
AcDbSymbolTableRecord
100
AcDbBlockTableRecord
  2
*D5
340
0
  0
BLOCK_RECORD
  5
3DF
330
1
100
AcDbSymbolTableRecord
100
AcDbBlockTableRecord
  2
*D6
340
0
  0
BLOCK_RECORD
  5
4DD
330
1
100
AcDbSymbolTableRecord
100
AcDbBlockTableRecord
  2
*D7
340
0
  0
BLOCK_RECORD
  5
5DD
330
1
100
AcDbSymbolTableRecord
100
AcDbBlockTableRecord
  2
*D8
340
0
  0
BLOCK_RECORD
  5
6C7
330
1
100
AcDbSymbolTableRecord
100
AcDbBlockTableRecord
  2
*D9
340
0
  0
BLOCK_RECORD
  5
7B1
330
1
100
AcDbSymbolTableRecord
100
AcDbBlockTableRecord
  2
*D10
340
0
  0
BLOCK_RECORD
  5
89D
330
1
100
AcDbSymbolTableRecord
100
AcDbBlockTableRecord
  2
*D11
340
0
  0
BLOCK_RECORD
  5
99D
330
1
100
AcDbSymbolTableRecord
100
AcDbBlockTableRecord
  2
*D12
340
0
  0
BLOCK_RECORD
  5
A87
330
1
100
AcDbSymbolTableRecord
100
AcDbBlockTableRecord
  2
*D13
340
0
  0
BLOCK_RECORD
  5
B41
330
1
100
AcDbSymbolTableRecord
100
AcDbBlockTableRecord
  2
*D14
340
0
  0
BLOCK_RECORD
  5
BFA
330
1
100
AcDbSymbolTableRecord
100
AcDbBlockTableRecord
  2
*D15
340
0
  0
ENDTAB
  0
ENDSEC
  0
SECTION
  2
BLOCKS
  0
BLOCK
  5
6D
330
6C
100
AcDbEntity
  8
0
100
AcDbBlockBegin
  2
*Model_Space
 70
     0
 10
0.0
 20
0.0
 30
0.0
  3
*Model_Space
  1

  0
ENDBLK
  5
6E
330
6C
100
AcDbEntity
  8
0
100
AcDbBlockEnd
  0
BLOCK
  5
69
330
68
100
AcDbEntity
 67
     1
  8
0
100
AcDbBlockBegin
  2
*Paper_Space
 70
     0
 10
0.0
 20
0.0
 30
0.0
  3
*Paper_Space
  1

  0
ENDBLK
  5
6A
330
68
100
AcDbEntity
 67
     1
  8
0
100
AcDbBlockEnd
  0
BLOCK
  5
71
330
70
100
AcDbEntity
 67
     1
  8
0
100
AcDbBlockBegin
  2
*Paper_Space0
 70
     0
 10
0.0
 20
0.0
 30
0.0
  3
*Paper_Space0
  1

  0
ENDBLK
  5
72
330
70
100
AcDbEntity
 67
     1
  8
0
100
AcDbBlockEnd
  0
BLOCK
  5
15D
330
158
100
AcDbEntity
  8
0
100
AcDbBlockBegin
  2
_Closed
 70
     0
 10
0.0
 20
0.0
 30
0.0
  3
_Closed
  1

  0
LINE
  5
159
330
158
100
AcDbEntity
  8
0
  6
ByBlock
 62
     0
370
    -2
100
AcDbLine
 10
-1.0
 20
0.1666666666666666
 30
0.0
 11
0.0
 21
0.0
 31
0.0
  0
LINE
  5
15A
330
158
100
AcDbEntity
  8
0
  6
ByBlock
 62
     0
370
    -2
100
AcDbLine
 10
0.0
 20
0.0
 30
0.0
 11
-1.0
 21
-0.1666666666666666
 31
0.0
  0
LINE
  5
15B
330
158
100
AcDbEntity
  8
0
  6
ByBlock
 62
     0
370
    -2
100
AcDbLine
 10
-1.0
 20
0.1666666666666666
 30
0.0
 11
-1.0
 21
-0.1666666666666666
 31
0.0
  0
LINE
  5
15C
330
158
100
AcDbEntity
  8
0
  6
ByBlock
 62
     0
370
    -2
100
AcDbLine
 10
0.0
 20
0.0
 30
0.0
 11
-1.0
 21
0.0
 31
0.0
  0
ENDBLK
  5
15E
330
158
100
AcDbEntity
  8
0
100
AcDbBlockEnd
  0
BLOCK
  5
160
330
15F
100
AcDbEntity
  8
0
100
AcDbBlockBegin
  2
DatumFilled45
 70
     0
 10
0.0
 20
0.0
 30
0.0
  3
DatumFilled45
  1

  0
POLYLINE
  5
162
330
15F
100
AcDbEntity
  8
0
 62
     0
100
AcDb2dPolyline
 66
     1
 10
0.0
 20
0.0
 30
0.0
 70
   128
  0
VERTEX
  5
163
330
162
100
AcDbEntity
  8
0
 62
     0
100
AcDbVertex
100
AcDb2dVertex
 10
0.0
 20
0.9999999999999998
 30
0.0
  0
VERTEX
  5
164
330
162
100
AcDbEntity
  8
0
 62
     0
100
AcDbVertex
100
AcDb2dVertex
 10
0.0
 20
-0.9999999999999998
 30
0.0
  0
VERTEX
  5
166
330
162
100
AcDbEntity
  8
0
 62
     0
100
AcDbVertex
100
AcDb2dVertex
 10
-0.9999999999999998
 20
0.0
 30
0.0
  0
VERTEX
  5
167
330
162
100
AcDbEntity
  8
0
 62
     0
100
AcDbVertex
100
AcDb2dVertex
 10
0.0
 20
0.9999999999999998
 30
0.0
  0
SEQEND
  5
165
330
162
100
AcDbEntity
  8
0
 62
     0
  0
SOLID
  5
169
330
15F
100
AcDbEntity
  8
0
 62
     0
100
AcDbTrace
 10
0.0
 20
0.9999999999999998
 30
0.0
 11
0.0
 21
-0.9999999999999998
 31
0.0
 12
-0.9999999999999998
 22
0.0
 32
0.0
 13
0.0
 23
0.9999999999999998
 33
0.0
  0
ENDBLK
  5
161
330
15F
100
AcDbEntity
  8
0
100
AcDbBlockEnd
  0
BLOCK
  5
16C
330
16B
100
AcDbEntity
  8
0
100
AcDbBlockBegin
  2
Filled-1
 70
     0
 10
0.0
 20
0.0
 30
0.0
  3
Filled-1
  1

  0
LINE
  5
16E
330
16B
100
AcDbEntity
  8
0
 62
     0
100
AcDbLine
 10
-0.9999999999999998
 20
0.0
 30
0.0
 11
0.0
 21
0.0
 31
0.0
  0
POLYLINE
  5
16F
330
16B
100
AcDbEntity
  8
0
 62
     0
100
AcDb2dPolyline
 66
     1
 10
0.0
 20
0.0
 30
0.0
 70
   128
  0
VERTEX
  5
170
330
16F
100
AcDbEntity
  8
0
 62
     0
100
AcDbVertex
100
AcDb2dVertex
 10
-0.9999999999999998
 20
-0.0994897959183674
 30
0.0
  0
VERTEX
  5
171
330
16F
100
AcDbEntity
  8
0
 62
     0
100
AcDbVertex
100
AcDb2dVertex
 10
0.0
 20
0.0
 30
0.0
  0
VERTEX
  5
173
330
16F
100
AcDbEntity
  8
0
 62
     0
100
AcDbVertex
100
AcDb2dVertex
 10
-0.9999999999999998
 20
0.0994897959183674
 30
0.0
  0
VERTEX
  5
174
330
16F
100
AcDbEntity
  8
0
 62
     0
100
AcDbVertex
100
AcDb2dVertex
 10
-0.9999999999999998
 20
-0.0994897959183674
 30
0.0
  0
SEQEND
  5
172
330
16F
100
AcDbEntity
  8
0
 62
     0
  0
SOLID
  5
175
330
16B
100
AcDbEntity
  8
0
 62
     0
100
AcDbTrace
 10
-0.9999999999999998
 20
-0.0994897959183674
 30
0.0
 11
0.0
 21
0.0
 31
0.0
 12
-0.9999999999999998
 22
0.0994897959183674
 32
0.0
 13
-0.9999999999999998
 23
-0.0994897959183674
 33
0.0
  0
LINE
  5
176
330
16B
100
AcDbEntity
  8
0
 62
     0
100
AcDbLine
 10
-0.9999999999999998
 20
-0.0994897959183674
 30
0.0
 11
0.0
 21
0.0
 31
0.0
  0
LINE
  5
177
330
16B
100
AcDbEntity
  8
0
 62
     0
100
AcDbLine
 10
0.0
 20
0.0
 30
0.0
 11
-0.9999999999999998
 21
0.0994897959183674
 31
0.0
  0
LINE
  5
178
330
16B
100
AcDbEntity
  8
0
 62
     0
100
AcDbLine
 10
-0.9999999999999998
 20
0.0994897959183674
 30
0.0
 11
-0.9999999999999998
 21
-0.0994897959183674
 31
0.0
  0
ENDBLK
  5
16D
330
16B
100
AcDbEntity
  8
0
100
AcDbBlockEnd
  0
BLOCK
  5
20B
330
20A
100
AcDbEntity
  8
0
100
AcDbBlockBegin
  2
*D4
 70
     1
 10
0.0
 20
0.0
 30
0.0
  3
*D4
  1

  0
LINE
  5
2EA
330
20A
100
AcDbEntity
  8
Dimension (ANSI)
100
AcDbLine
 10
14.41259241012437
 20
13.97424550502983
 30
0.0
 11
8.048164693800732
 21
13.97424550502983
 31
0.0
  0
LINE
  5
2EB
330
20A
100
AcDbEntity
  8
Dimension (ANSI)
100
AcDbLine
 10
14.41259241012436
 20
42.17424550502983
 30
0.0
 11
8.048164693800737
 21
42.17424550502983
 31
0.0
  0
LINE
  5
2EC
330
20A
100
AcDbEntity
  8
Dimension (ANSI)
100
AcDbLine
 10
8.673164693800732
 20
14.46637147813526
 30
0.0
 11
8.673164693800734
 21
27.60306470748969
 31
0.0
  0
LINE
  5
2ED
330
20A
100
AcDbEntity
  8
Dimension (ANSI)
100
AcDbLine
 10
8.673164693800737
 20
41.68211953192439
 30
0.0
 11
8.673164693800735
 21
28.54542630256996
 31
0.0
  0
SOLID
  5
2EE
330
20A
100
AcDbEntity
  8
Dimension (ANSI)
100
AcDbTrace
 10
8.591143698283159
 20
14.46637147813526
 30
0.0
 11
8.755185689318304
 21
14.46637147813526
 31
0.0
 12
8.673164693800732
 22
13.97424550502983
 32
0.0
 13
8.673164693800732
 23
13.97424550502983
 33
0.0
  0
SOLID
  5
2EF
330
20A
100
AcDbEntity
  8
Dimension (ANSI)
100
AcDbTrace
 10
8.591143698283165
 20
41.68211953192439
 30
0.0
 11
8.755185689318309
 21
41.68211953192439
 31
0.0
 12
8.673164693800737
 22
42.17424550502983
 32
0.0
 13
8.673164693800737
 23
42.17424550502983
 33
0.0
  0
MTEXT
  5
2F0
330
20A
100
AcDbEntity
  8
Dimension (ANSI)
100
AcDbMText
 10
7.685924896344348
 20
28.38794598760934
 30
0.0
 40
0.6000000238418579
 41
0.0
 71
     1
 72
     1
  1
\A1;28.20
  7
Note Text (ANSI)
 73
     1
 44
1.0
1001
ACAD
1000
MTEXTBEGIN
1070
    73
1070
     1
1070
    44
1040
1.0
1070
    74
1070
     0
1000
MTEXTEND
  0
POINT
  5
2F1
330
20A
100
AcDbEntity
  8
Defpoints
 62
     0
100
AcDbPoint
 10
14.72509241012437
 20
13.97424550502983
 30
0.0
  0
POINT
  5
2F2
330
20A
100
AcDbEntity
  8
Defpoints
 62
     0
100
AcDbPoint
 10
14.72509241012436
 20
42.17424550502983
 30
0.0
  0
POINT
  5
2F3
330
20A
100
AcDbEntity
  8
Defpoints
 62
     0
100
AcDbPoint
 10
8.673164693800737
 20
42.17424550502983
 30
0.0
  0
ENDBLK
  5
20C
330
20A
100
AcDbEntity
  8
0
100
AcDbBlockEnd
  0
BLOCK
  5
2F6
330
2F5
100
AcDbEntity
  8
0
100
AcDbBlockBegin
  2
*D5
 70
     1
 10
0.0
 20
0.0
 30
0.0
  3
*D5
  1

  0
LINE
  5
3D4
330
2F5
100
AcDbEntity
  8
Dimension (ANSI)
100
AcDbLine
 10
14.22509241012436
 20
41.98674550502983
 30
0.0
 11
14.22509241012436
 21
46.91513642180051
 31
0.0
  0
LINE
  5
3D5
330
2F5
100
AcDbEntity
  8
Dimension (ANSI)
100
AcDbLine
 10
36.42509241012437
 20
41.98674550502983
 30
0.0
 11
36.42509241012437
 21
46.91513642180051
 31
0.0
  0
LINE
  5
3D6
330
2F5
100
AcDbEntity
  8
Dimension (ANSI)
100
AcDbLine
 10
14.71721838322979
 20
46.29013642180051
 30
0.0
 11
24.18037229770734
 21
46.29013642180051
 31
0.0
  0
LINE
  5
3D7
330
2F5
100
AcDbEntity
  8
Dimension (ANSI)
100
AcDbLine
 10
35.93296643701894
 20
46.29013642180051
 30
0.0
 11
26.46981252254137
 21
46.29013642180051
 31
0.0
  0
SOLID
  5
3D8
330
2F5
100
AcDbEntity
  8
Dimension (ANSI)
100
AcDbTrace
 10
14.71721838322979
 20
46.37215741731809
 30
0.0
 11
14.71721838322979
 21
46.20811542628294
 31
0.0
 12
14.22509241012436
 22
46.29013642180051
 32
0.0
 13
14.22509241012436
 23
46.29013642180051
 33
0.0
  0
SOLID
  5
3D9
330
2F5
100
AcDbEntity
  8
Dimension (ANSI)
100
AcDbTrace
 10
35.93296643701894
 20
46.37215741731809
 30
0.0
 11
35.93296643701894
 21
46.20811542628294
 31
0.0
 12
36.42509241012437
 22
46.29013642180051
 32
0.0
 13
36.42509241012437
 23
46.29013642180051
 33
0.0
  0
MTEXT
  5
3DA
330
2F5
100
AcDbEntity
  8
Dimension (ANSI)
100
AcDbMText
 10
24.33785261266797
 20
46.60262803932191
 30
0.0
 40
0.6000000238418579
 41
0.0
 71
     1
 72
     1
  1
\A1;22.20
  7
Note Text (ANSI)
 73
     1
 44
1.0
1001
ACAD
1000
MTEXTBEGIN
1070
    73
1070
     1
1070
    44
1040
1.0
1070
    74
1070
     0
1000
MTEXTEND
  0
POINT
  5
3DB
330
2F5
100
AcDbEntity
  8
Defpoints
 62
     0
100
AcDbPoint
 10
14.22509241012436
 20
41.67424550502983
 30
0.0
  0
POINT
  5
3DC
330
2F5
100
AcDbEntity
  8
Defpoints
 62
     0
100
AcDbPoint
 10
36.42509241012437
 20
41.67424550502983
 30
0.0
  0
POINT
  5
3DD
330
2F5
100
AcDbEntity
  8
Defpoints
 62
     0
100
AcDbPoint
 10
36.42509241012437
 20
46.29013642180051
 30
0.0
  0
ENDBLK
  5
2F7
330
2F5
100
AcDbEntity
  8
0
100
AcDbBlockEnd
  0
BLOCK
  5
3E0
330
3DF
100
AcDbEntity
  8
0
100
AcDbBlockBegin
  2
*D6
 70
     1
 10
0.0
 20
0.0
 30
0.0
  3
*D6
  1

  0
LINE
  5
4D1
330
3DF
100
AcDbEntity
  8
Dimension (ANSI)
100
AcDbLine
 10
14.43259241012436
 20
14.49424550502983
 30
0.0
 11
12.51089682006634
 21
14.49424550502983
 31
0.0
  0
LINE
  5
4D2
330
3DF
100
AcDbEntity
  8
Dimension (ANSI)
100
AcDbLine
 10
14.43259241012436
 20
15.24424550502983
 30
0.0
 11
12.51089682006634
 21
15.24424550502983
 31
0.0
  0
LINE
  5
4D3
330
3DF
100
AcDbEntity
  8
Dimension (ANSI)
100
AcDbLine
 10
13.13589682006634
 20
15.73637147813526
 30
0.0
 11
13.13589682006634
 21
16.22849745124069
 31
0.0
  0
LINE
  5
4D4
330
3DF
100
AcDbEntity
  8
Dimension (ANSI)
100
AcDbLine
 10
13.13589682006634
 20
14.0021195319244
 30
0.0
 11
13.13589682006634
 21
13.06108051455576
 31
0.0
  0
LINE
  5
4D5
330
3DF
100
AcDbEntity
  8
Dimension (ANSI)
100
AcDbLine
 10
13.13589682006634
 20
13.06108051455576
 30
0.0
 11
12.64377084696091
 21
13.06108051455576
 31
0.0
  0
SOLID
  5
4D6
330
3DF
100
AcDbEntity
  8
Dimension (ANSI)
100
AcDbTrace
 10
13.05387582454877
 20
15.73637147813526
 30
0.0
 11
13.21791781558391
 21
15.73637147813526
 31
0.0
 12
13.13589682006634
 22
15.24424550502983
 32
0.0
 13
13.13589682006634
 23
15.24424550502983
 33
0.0
  0
SOLID
  5
4D7
330
3DF
100
AcDbEntity
  8
Dimension (ANSI)
100
AcDbTrace
 10
13.05387582454877
 20
14.0021195319244
 30
0.0
 11
13.21791781558391
 21
14.0021195319244
 31
0.0
 12
13.13589682006634
 22
14.49424550502983
 32
0.0
 13
13.13589682006634
 23
14.49424550502983
 33
0.0
  0
MTEXT
  5
4D8
330
3DF
100
AcDbEntity
  8
Dimension (ANSI)
100
AcDbMText
 10
10.96150873870438
 20
13.37337065456748
 30
0.0
 40
0.6000000238418579
 41
0.0
 71
     1
 72
     1
  1
\A1;0.75
  7
Note Text (ANSI)
 73
     1
 44
1.0
1001
ACAD
1000
MTEXTBEGIN
1070
    73
1070
     1
1070
    44
1040
1.0
1070
    74
1070
     0
1000
MTEXTEND
  0
POINT
  5
4D9
330
3DF
100
AcDbEntity
  8
Defpoints
 62
     0
100
AcDbPoint
 10
14.74509241012436
 20
14.49424550502983
 30
0.0
  0
POINT
  5
4DA
330
3DF
100
AcDbEntity
  8
Defpoints
 62
     0
100
AcDbPoint
 10
14.74509241012436
 20
15.24424550502983
 30
0.0
  0
POINT
  5
4DB
330
3DF
100
AcDbEntity
  8
Defpoints
 62
     0
100
AcDbPoint
 10
13.13589682006634
 20
15.24424550502983
 30
0.0
  0
ENDBLK
  5
3E1
330
3DF
100
AcDbEntity
  8
0
100
AcDbBlockEnd
  0
BLOCK
  5
4DE
330
4DD
100
AcDbEntity
  8
0
100
AcDbBlockBegin
  2
*D7
 70
     1
 10
0.0
 20
0.0
 30
0.0
  3
*D7
  1

  0
LINE
  5
5D1
330
4DD
100
AcDbEntity
  8
Dimension (ANSI)
100
AcDbLine
 10
36.23759241012435
 20
42.17424550502983
 30
0.0
 11
40.51823118693252
 21
42.17424550502983
 31
0.0
  0
LINE
  5
5D2
330
4DD
100
AcDbEntity
  8
Dimension (ANSI)
100
AcDbLine
 10
36.21759241012437
 20
41.65424550502983
 30
0.0
 11
40.51823118693252
 21
41.65424550502983
 31
0.0
  0
LINE
  5
5D3
330
4DD
100
AcDbEntity
  8
Dimension (ANSI)
100
AcDbLine
 10
39.89323118693252
 20
42.66637147813526
 30
0.0
 11
39.89323118693252
 21
43.15849745124069
 31
0.0
  0
LINE
  5
5D4
330
4DD
100
AcDbEntity
  8
Dimension (ANSI)
100
AcDbLine
 10
39.89323118693252
 20
41.1621195319244
 30
0.0
 11
39.89323118693252
 21
40.22071584676844
 31
0.0
  0
LINE
  5
5D5
330
4DD
100
AcDbEntity
  8
Dimension (ANSI)
100
AcDbLine
 10
39.89323118693252
 20
40.22071584676844
 30
0.0
 11
39.40110521382709
 21
40.22071584676844
 31
0.0
  0
SOLID
  5
5D6
330
4DD
100
AcDbEntity
  8
Dimension (ANSI)
100
AcDbTrace
 10
39.81121019141495
 20
42.66637147813526
 30
0.0
 11
39.97525218245009
 21
42.66637147813526
 31
0.0
 12
39.89323118693252
 22
42.17424550502983
 32
0.0
 13
39.89323118693252
 23
42.17424550502983
 33
0.0
  0
SOLID
  5
5D7
330
4DD
100
AcDbEntity
  8
Dimension (ANSI)
100
AcDbTrace
 10
39.81121019141495
 20
41.1621195319244
 30
0.0
 11
39.97525218245009
 21
41.1621195319244
 31
0.0
 12
39.89323118693252
 22
41.65424550502983
 32
0.0
 13
39.89323118693252
 23
41.65424550502983
 33
0.0
  0
MTEXT
  5
5D8
330
4DD
100
AcDbEntity
  8
Dimension (ANSI)
100
AcDbMText
 10
37.71199287024127
 20
40.53320746428984
 30
0.0
 40
0.6000000238418579
 41
0.0
 71
     1
 72
     1
  1
\A1;0.52
  7
Note Text (ANSI)
 73
     1
 44
1.0
1001
ACAD
1000
MTEXTBEGIN
1070
    73
1070
     1
1070
    44
1040
1.0
1070
    74
1070
     0
1000
MTEXTEND
  0
POINT
  5
5D9
330
4DD
100
AcDbEntity
  8
Defpoints
 62
     0
100
AcDbPoint
 10
35.92509241012435
 20
42.17424550502983
 30
0.0
  0
POINT
  5
5DA
330
4DD
100
AcDbEntity
  8
Defpoints
 62
     0
100
AcDbPoint
 10
35.90509241012437
 20
41.65424550502983
 30
0.0
  0
POINT
  5
5DB
330
4DD
100
AcDbEntity
  8
Defpoints
 62
     0
100
AcDbPoint
 10
39.89323118693252
 20
41.65424550502983
 30
0.0
  0
ENDBLK
  5
4DF
330
4DD
100
AcDbEntity
  8
0
100
AcDbBlockEnd
  0
BLOCK
  5
5DE
330
5DD
100
AcDbEntity
  8
0
100
AcDbBlockBegin
  2
*D8
 70
     1
 10
0.0
 20
0.0
 30
0.0
  3
*D8
  1

  0
LINE
  5
6BC
330
5DD
100
AcDbEntity
  8
Dimension (ANSI)
100
AcDbLine
 10
36.42509241012437
 20
41.98674550502983
 30
0.0
 11
36.42509241012437
 21
45.44885180424242
 31
0.0
  0
LINE
  5
6BD
330
5DD
100
AcDbEntity
  8
Dimension (ANSI)
100
AcDbLine
 10
35.90509241012437
 20
41.96674550502983
 30
0.0
 11
35.90509241012437
 21
45.44885180424242
 31
0.0
  0
LINE
  5
6BE
330
5DD
100
AcDbEntity
  8
Dimension (ANSI)
100
AcDbLine
 10
35.41296643701894
 20
44.82385180424242
 30
0.0
 11
34.92084046391351
 21
44.82385180424242
 31
0.0
  0
LINE
  5
6BF
330
5DD
100
AcDbEntity
  8
Dimension (ANSI)
100
AcDbLine
 10
36.9172183832298
 20
44.82385180424242
 30
0.0
 11
37.66684918986621
 21
44.82385180424242
 31
0.0
  0
SOLID
  5
6C0
330
5DD
100
AcDbEntity
  8
Dimension (ANSI)
100
AcDbTrace
 10
35.41296643701894
 20
44.90587279976
 30
0.0
 11
35.41296643701894
 21
44.74183080872484
 31
0.0
 12
35.90509241012437
 22
44.82385180424242
 32
0.0
 13
35.90509241012437
 23
44.82385180424242
 33
0.0
  0
SOLID
  5
6C1
330
5DD
100
AcDbEntity
  8
Dimension (ANSI)
100
AcDbTrace
 10
36.9172183832298
 20
44.90587279976
 30
0.0
 11
36.9172183832298
 21
44.74183080872484
 31
0.0
 12
36.42509241012437
 22
44.82385180424242
 32
0.0
 13
36.42509241012437
 23
44.82385180424242
 33
0.0
  0
MTEXT
  5
6C2
330
5DD
100
AcDbEntity
  8
Dimension (ANSI)
100
AcDbMText
 10
37.82432950482684
 20
45.13634342176382
 30
0.0
 40
0.6000000238418579
 41
0.0
 71
     1
 72
     1
  1
\A1;0.52
  7
Note Text (ANSI)
 73
     1
 44
1.0
1001
ACAD
1000
MTEXTBEGIN
1070
    73
1070
     1
1070
    44
1040
1.0
1070
    74
1070
     0
1000
MTEXTEND
  0
POINT
  5
6C3
330
5DD
100
AcDbEntity
  8
Defpoints
 62
     0
100
AcDbPoint
 10
36.42509241012437
 20
41.67424550502983
 30
0.0
  0
POINT
  5
6C4
330
5DD
100
AcDbEntity
  8
Defpoints
 62
     0
100
AcDbPoint
 10
35.90509241012437
 20
41.65424550502983
 30
0.0
  0
POINT
  5
6C5
330
5DD
100
AcDbEntity
  8
Defpoints
 62
     0
100
AcDbPoint
 10
35.90509241012437
 20
44.82385180424242
 30
0.0
  0
ENDBLK
  5
5DF
330
5DD
100
AcDbEntity
  8
0
100
AcDbBlockEnd
  0
BLOCK
  5
6C8
330
6C7
100
AcDbEntity
  8
0
100
AcDbBlockBegin
  2
*D9
 70
     1
 10
0.0
 20
0.0
 30
0.0
  3
*D9
  1

  0
LINE
  5
7A6
330
6C7
100
AcDbEntity
  8
Dimension (ANSI)
100
AcDbLine
 10
14.43259241012436
 20
14.49424550502983
 30
0.0
 11
9.996673643794835
 21
14.49424550502983
 31
0.0
  0
LINE
  5
7A7
330
6C7
100
AcDbEntity
  8
Dimension (ANSI)
100
AcDbLine
 10
14.43259241012436
 20
41.65424550502983
 30
0.0
 11
9.99667364379484
 21
41.65424550502983
 31
0.0
  0
LINE
  5
7A8
330
6C7
100
AcDbEntity
  8
Dimension (ANSI)
100
AcDbLine
 10
10.62167364379483
 20
14.98637147813527
 30
0.0
 11
10.62167364379484
 21
33.45980755889963
 31
0.0
  0
LINE
  5
7A9
330
6C7
100
AcDbEntity
  8
Dimension (ANSI)
100
AcDbLine
 10
10.62167364379484
 20
41.1621195319244
 30
0.0
 11
10.62167364379484
 21
34.39975142386368
 31
0.0
  0
SOLID
  5
7AA
330
6C7
100
AcDbEntity
  8
Dimension (ANSI)
100
AcDbTrace
 10
10.53965264827726
 20
14.98637147813527
 30
0.0
 11
10.70369463931241
 21
14.98637147813527
 31
0.0
 12
10.62167364379483
 22
14.49424550502983
 32
0.0
 13
10.62167364379483
 23
14.49424550502983
 33
0.0
  0
SOLID
  5
7AB
330
6C7
100
AcDbEntity
  8
Dimension (ANSI)
100
AcDbTrace
 10
10.53965264827727
 20
41.1621195319244
 30
0.0
 11
10.70369463931241
 21
41.1621195319244
 31
0.0
 12
10.62167364379484
 22
41.65424550502983
 32
0.0
 13
10.62167364379484
 23
41.65424550502983
 33
0.0
  0
MTEXT
  5
7AC
330
6C7
100
AcDbEntity
  8
Dimension (ANSI)
100
AcDbMText
 10
9.409181990510649
 20
34.24227110890305
 30
0.0
 40
0.6000000238418579
 41
0.0
 71
     1
 72
     1
  1
\A1;27.160
  7
Note Text (ANSI)
 73
     1
 44
1.0
1001
ACAD
1000
MTEXTBEGIN
1070
    73
1070
     1
1070
    44
1040
1.0
1070
    74
1070
     0
1000
MTEXTEND
  0
POINT
  5
7AD
330
6C7
100
AcDbEntity
  8
Defpoints
 62
     0
100
AcDbPoint
 10
14.74509241012436
 20
14.49424550502983
 30
0.0
  0
POINT
  5
7AE
330
6C7
100
AcDbEntity
  8
Defpoints
 62
     0
100
AcDbPoint
 10
14.74509241012436
 20
41.65424550502983
 30
0.0
  0
POINT
  5
7AF
330
6C7
100
AcDbEntity
  8
Defpoints
 62
     0
100
AcDbPoint
 10
10.62167364379484
 20
41.65424550502983
 30
0.0
  0
ENDBLK
  5
6C9
330
6C7
100
AcDbEntity
  8
0
100
AcDbBlockEnd
  0
BLOCK
  5
7B2
330
7B1
100
AcDbEntity
  8
0
100
AcDbBlockBegin
  2
*D10
 70
     1
 10
0.0
 20
0.0
 30
0.0
  3
*D10
  1

  0
LINE
  5
890
330
7B1
100
AcDbEntity
  8
Dimension (ANSI)
100
AcDbLine
 10
53.4418226618585
 20
42.48674550502983
 30
0.0
 11
53.4418226618585
 21
45.80565495384872
 31
0.0
  0
LINE
  5
891
330
7B1
100
AcDbEntity
  8
Dimension (ANSI)
100
AcDbLine
 10
54.21582266185865
 20
40.76874550502983
 30
0.0
 11
54.21582266185865
 21
45.80565495384872
 31
0.0
  0
LINE
  5
892
330
7B1
100
AcDbEntity
  8
Dimension (ANSI)
100
AcDbLine
 10
54.70794863496408
 20
45.18065495384872
 30
0.0
 11
55.20007460806951
 21
45.18065495384872
 31
0.0
  0
LINE
  5
893
330
7B1
100
AcDbEntity
  8
Dimension (ANSI)
100
AcDbLine
 10
52.94969668875307
 20
45.18065495384872
 30
0.0
 11
52.20328952227162
 21
45.18065495384872
 31
0.0
  0
SOLID
  5
894
330
7B1
100
AcDbEntity
  8
Dimension (ANSI)
100
AcDbTrace
 10
54.70794863496408
 20
45.26267594936629
 30
0.0
 11
54.70794863496408
 21
45.09863395833114
 31
0.0
 12
54.21582266185865
 22
45.18065495384872
 32
0.0
 13
54.21582266185865
 23
45.18065495384872
 33
0.0
  0
SOLID
  5
895
330
7B1
100
AcDbEntity
  8
Dimension (ANSI)
100
AcDbTrace
 10
52.94969668875307
 20
45.26267594936629
 30
0.0
 11
52.94969668875307
 21
45.09863395833114
 31
0.0
 12
53.4418226618585
 22
45.18065495384872
 32
0.0
 13
53.4418226618585
 23
45.18065495384872
 33
0.0
  0
MTEXT
  5
896
330
7B1
100
AcDbEntity
  8
Dimension (ANSI)
100
AcDbMText
 10
50.50772989837588
 20
45.49294509386043
 30
0.0
 40
0.6000000238418579
 41
0.0
 71
     1
 72
     1
  1
\A1;0.77
  7
Note Text (ANSI)
 73
     1
 44
1.0
1001
ACAD
1000
MTEXTBEGIN
1070
    73
1070
     1
1070
    44
1040
1.0
1070
    74
1070
     0
1000
MTEXTEND
  0
POINT
  5
897
330
7B1
100
AcDbEntity
  8
Defpoints
 62
     0
100
AcDbPoint
 10
53.4418226618585
 20
42.17424550502983
 30
0.0
  0
POINT
  5
898
330
7B1
100
AcDbEntity
  8
Defpoints
 62
     0
100
AcDbPoint
 10
54.21582266185865
 20
40.45624550502983
 30
0.0
  0
POINT
  5
899
330
7B1
100
AcDbEntity
  8
Defpoints
 62
     0
100
AcDbPoint
 10
54.21582266185865
 20
45.18065495384872
 30
0.0
  0
ENDBLK
  5
7B3
330
7B1
100
AcDbEntity
  8
0
100
AcDbBlockEnd
  0
BLOCK
  5
89E
330
89D
100
AcDbEntity
  8
0
100
AcDbBlockBegin
  2
*D11
 70
     1
 10
0.0
 20
0.0
 30
0.0
  3
*D11
  1

  0
LINE
  5
991
330
89D
100
AcDbEntity
  8
Dimension (ANSI)
100
AcDbLine
 10
36.23759241012436
 20
13.97424550502983
 30
0.0
 11
37.99546448958736
 21
13.97424550502983
 31
0.0
  0
LINE
  5
992
330
89D
100
AcDbEntity
  8
Dimension (ANSI)
100
AcDbLine
 10
36.73759241012437
 20
14.47424550502983
 30
0.0
 11
37.99546448958736
 21
14.47424550502983
 31
0.0
  0
LINE
  5
993
330
89D
100
AcDbEntity
  8
Dimension (ANSI)
100
AcDbLine
 10
37.37046448958736
 20
13.4821195319244
 30
0.0
 11
37.37046448958736
 21
12.98999355881897
 31
0.0
  0
LINE
  5
994
330
89D
100
AcDbEntity
  8
Dimension (ANSI)
100
AcDbLine
 10
37.37046448958736
 20
14.96637147813526
 30
0.0
 11
37.37046448958736
 21
15.90741049550389
 31
0.0
  0
LINE
  5
995
330
89D
100
AcDbEntity
  8
Dimension (ANSI)
100
AcDbLine
 10
37.37046448958736
 20
15.90741049550389
 30
0.0
 11
37.86259046269279
 21
15.90741049550389
 31
0.0
  0
SOLID
  5
996
330
89D
100
AcDbEntity
  8
Dimension (ANSI)
100
AcDbTrace
 10
37.28844349406979
 20
13.4821195319244
 30
0.0
 11
37.45248548510494
 21
13.4821195319244
 31
0.0
 12
37.37046448958736
 22
13.97424550502983
 32
0.0
 13
37.37046448958736
 23
13.97424550502983
 33
0.0
  0
SOLID
  5
997
330
89D
100
AcDbEntity
  8
Dimension (ANSI)
100
AcDbTrace
 10
37.28844349406979
 20
14.96637147813526
 30
0.0
 11
37.45248548510494
 21
14.96637147813526
 31
0.0
 12
37.37046448958736
 22
14.47424550502983
 32
0.0
 13
37.37046448958736
 23
14.47424550502983
 33
0.0
  0
MTEXT
  5
998
330
89D
100
AcDbEntity
  8
Dimension (ANSI)
100
AcDbMText
 10
38.02007077765342
 20
16.21970063551561
 30
0.0
 40
0.6000000238418579
 41
0.0
 71
     1
 72
     1
  1
\A1;0.50
  7
Note Text (ANSI)
 73
     1
 44
1.0
1001
ACAD
1000
MTEXTBEGIN
1070
    73
1070
     1
1070
    44
1040
1.0
1070
    74
1070
     0
1000
MTEXTEND
  0
POINT
  5
999
330
89D
100
AcDbEntity
  8
Defpoints
 62
     0
100
AcDbPoint
 10
35.92509241012436
 20
13.97424550502983
 30
0.0
  0
POINT
  5
99A
330
89D
100
AcDbEntity
  8
Defpoints
 62
     0
100
AcDbPoint
 10
36.42509241012437
 20
14.47424550502983
 30
0.0
  0
POINT
  5
99B
330
89D
100
AcDbEntity
  8
Defpoints
 62
     0
100
AcDbPoint
 10
37.37046448958736
 20
14.47424550502983
 30
0.0
  0
ENDBLK
  5
89F
330
89D
100
AcDbEntity
  8
0
100
AcDbBlockEnd
  0
BLOCK
  5
99E
330
99D
100
AcDbEntity
  8
0
100
AcDbBlockBegin
  2
*D12
 70
     1
 10
0.0
 20
0.0
 30
0.0
  3
*D12
  1

  0
LINE
  5
A7C
330
99D
100
AcDbEntity
  8
Dimension (ANSI)
100
AcDbLine
 10
36.42509241012437
 20
14.16174550502983
 30
0.0
 11
36.42509241012437
 21
10.98704078062038
 31
0.0
  0
LINE
  5
A7D
330
99D
100
AcDbEntity
  8
Dimension (ANSI)
100
AcDbLine
 10
35.92509241012436
 20
13.66174550502983
 30
0.0
 11
35.92509241012436
 21
10.98704078062038
 31
0.0
  0
LINE
  5
A7E
330
99D
100
AcDbEntity
  8
Dimension (ANSI)
100
AcDbLine
 10
36.9172183832298
 20
11.61204078062038
 30
0.0
 11
37.40934435633523
 21
11.61204078062038
 31
0.0
  0
LINE
  5
A7F
330
99D
100
AcDbEntity
  8
Dimension (ANSI)
100
AcDbLine
 10
35.43296643701893
 20
11.61204078062038
 30
0.0
 11
34.68474597295033
 21
11.61204078062038
 31
0.0
  0
SOLID
  5
A80
330
99D
100
AcDbEntity
  8
Dimension (ANSI)
100
AcDbTrace
 10
36.9172183832298
 20
11.69406177613796
 30
0.0
 11
36.9172183832298
 21
11.53001978510281
 31
0.0
 12
36.42509241012437
 22
11.61204078062038
 32
0.0
 13
36.42509241012437
 23
11.61204078062038
 33
0.0
  0
SOLID
  5
A81
330
99D
100
AcDbEntity
  8
Dimension (ANSI)
100
AcDbTrace
 10
35.43296643701893
 20
11.69406177613796
 30
0.0
 11
35.43296643701893
 21
11.53001978510281
 31
0.0
 12
35.92509241012436
 22
11.61204078062038
 32
0.0
 13
35.92509241012436
 23
11.61204078062038
 33
0.0
  0
MTEXT
  5
A82
330
99D
100
AcDbEntity
  8
Dimension (ANSI)
100
AcDbMText
 10
32.99281294422892
 20
11.9243309206321
 30
0.0
 40
0.6000000238418579
 41
0.0
 71
     1
 72
     1
  1
\A1;0.50
  7
Note Text (ANSI)
 73
     1
 44
1.0
1001
ACAD
1000
MTEXTBEGIN
1070
    73
1070
     1
1070
    44
1040
1.0
1070
    74
1070
     0
1000
MTEXTEND
  0
POINT
  5
A83
330
99D
100
AcDbEntity
  8
Defpoints
 62
     0
100
AcDbPoint
 10
36.42509241012437
 20
14.47424550502983
 30
0.0
  0
POINT
  5
A84
330
99D
100
AcDbEntity
  8
Defpoints
 62
     0
100
AcDbPoint
 10
35.92509241012436
 20
13.97424550502983
 30
0.0
  0
POINT
  5
A85
330
99D
100
AcDbEntity
  8
Defpoints
 62
     0
100
AcDbPoint
 10
35.92509241012436
 20
11.61204078062038
 30
0.0
  0
ENDBLK
  5
99F
330
99D
100
AcDbEntity
  8
0
100
AcDbBlockEnd
  0
BLOCK
  5
A88
330
A87
100
AcDbEntity
  8
0
100
AcDbBlockBegin
  2
*D13
 70
     1
 10
0.0
 20
0.0
 30
0.0
  3
*D13
  1

  0
LINE
  5
B38
330
A87
100
AcDbEntity
  8
Dimension (ANSI)
100
AcDbLine
 10
10.93786007299297
 20
45.85927999483985
 30
0.0
 11
11.55028256759569
 21
45.85927999483986
 31
0.0
  0
LINE
  5
B39
330
A87
100
AcDbEntity
  8
Dimension (ANSI)
100
AcDbLine
 10
11.55028256759569
 20
45.85927999483986
 30
0.0
 11
14.29613494135594
 21
42.24516694752005
 31
0.0
  0
MTEXT
  5
B3A
102
{ACAD_XDICTIONARY
360
D2E
102
}
330
A87
100
AcDbEntity
  8
Dimension (ANSI)
100
AcDbMText
 10
10.78037975803234
 20
46.31680183974948
 30
0.0
 40
0.6000000238418579
 41
0.0
 71
     3
 72
     1
  1
\A1;\U+22050.50{\PTYP.(4PL.)}
  7
Note Text (ANSI)
 73
     1
 44
1.0
1001
ACAD
1000
MTEXTBEGIN
1070
    73
1070
     1
1070
    44
1040
1.0
1070
    74
1070
     0
1000
MTEXTEND
  0
SOLID
  5
B3B
330
A87
100
AcDbEntity
  8
Dimension (ANSI)
100
AcDbTrace
 10
14.36144456093834
 20
42.2947864728674
 30
0.0
 11
14.23082532177355
 21
42.19554742217269
 31
0.0
 12
14.59385209344007
 22
41.85330923002569
 32
0.0
 13
14.59385209344007
 23
41.85330923002569
 33
0.0
  0
LINE
  5
B3C
330
A87
100
AcDbEntity
  8
Dimension (ANSI)
100
AcDbLine
 10
14.29509241012437
 20
41.65424550502982
 30
0.0
 11
15.19509241012437
 21
41.65424550502982
 31
0.0
  0
LINE
  5
B3D
330
A87
100
AcDbEntity
  8
Dimension (ANSI)
100
AcDbLine
 10
14.74509241012437
 20
41.20424550502981
 30
0.0
 11
14.74509241012437
 21
42.10424550502982
 31
0.0
  0
POINT
  5
B3E
330
A87
100
AcDbEntity
  8
Defpoints
 62
     0
100
AcDbPoint
 10
14.59385209344007
 20
41.85330923002569
 30
0.0
  0
POINT
  5
B3F
330
A87
100
AcDbEntity
  8
Defpoints
 62
     0
100
AcDbPoint
 10
14.89633272680866
 20
41.45518178003394
 30
0.0
  0
ENDBLK
  5
A89
330
A87
100
AcDbEntity
  8
0
100
AcDbBlockEnd
  0
BLOCK
  5
B42
330
B41
100
AcDbEntity
  8
0
100
AcDbBlockBegin
  2
*D14
 70
     1
 10
0.0
 20
0.0
 30
0.0
  3
*D14
  1

  0
LINE
  5
BF1
330
B41
100
AcDbEntity
  8
Dimension (ANSI)
100
AcDbLine
 10
16.65206047808198
 20
12.25699733099921
 30
0.0
 11
16.03973430482239
 21
12.25699733099921
 31
0.0
  0
LINE
  5
BF2
330
B41
100
AcDbEntity
  8
Dimension (ANSI)
100
AcDbLine
 10
16.03973430482239
 20
12.25699733099921
 30
0.0
 11
15.0029196342892
 21
14.64933666749262
 31
0.0
  0
MTEXT
  5
BF3
102
{ACAD_XDICTIONARY
360
D30
102
}
330
B41
100
AcDbEntity
  8
Dimension (ANSI)
100
AcDbMText
 10
16.80954079304261
 20
12.71451917590885
 30
0.0
 40
0.6000000238418579
 41
0.0
 71
     1
 72
     1
  1
\A1;\U+22050.31{\PTYP. (4PL.)}
  7
Note Text (ANSI)
 73
     1
 44
1.0
1001
ACAD
1000
MTEXTBEGIN
1070
    73
1070
     1
1070
    44
1040
1.0
1070
    74
1070
     0
1000
MTEXTEND
  0
SOLID
  5
BF4
330
B41
100
AcDbEntity
  8
Dimension (ANSI)
100
AcDbTrace
 10
15.07817691882936
 20
14.68195238194645
 30
0.0
 11
14.92766234974903
 21
14.61672095303879
 31
0.0
 12
14.80722534756621
 22
15.10088037473362
 32
0.0
 13
14.80722534756621
 23
15.10088037473362
 33
0.0
  0
LINE
  5
BF5
330
B41
100
AcDbEntity
  8
Dimension (ANSI)
100
AcDbLine
 10
14.29509241012436
 20
15.24424550502983
 30
0.0
 11
15.19509241012436
 21
15.24424550502983
 31
0.0
  0
LINE
  5
BF6
330
B41
100
AcDbEntity
  8
Dimension (ANSI)
100
AcDbLine
 10
14.74509241012437
 20
14.79424550502983
 30
0.0
 11
14.74509241012437
 21
15.69424550502983
 31
0.0
  0
POINT
  5
BF7
330
B41
100
AcDbEntity
  8
Defpoints
 62
     0
100
AcDbPoint
 10
14.80722534756621
 20
15.10088037473362
 30
0.0
  0
POINT
  5
BF8
330
B41
100
AcDbEntity
  8
Defpoints
 62
     0
100
AcDbPoint
 10
14.68295947268252
 20
15.38761063532604
 30
0.0
  0
ENDBLK
  5
B43
330
B41
100
AcDbEntity
  8
0
100
AcDbBlockEnd
  0
BLOCK
  5
BFB
330
BFA
100
AcDbEntity
  8
0
100
AcDbBlockBegin
  2
*D15
 70
     1
 10
0.0
 20
0.0
 30
0.0
  3
*D15
  1

  0
LINE
  5
CD9
330
BFA
100
AcDbEntity
  8
Dimension (ANSI)
100
AcDbLine
 10
35.90509241012437
 20
41.96674550502983
 30
0.0
 11
35.90509241012437
 21
45.44885180424244
 31
0.0
  0
LINE
  5
CDA
330
BFA
100
AcDbEntity
  8
Dimension (ANSI)
100
AcDbLine
 10
14.74509241012436
 20
41.96674550502983
 30
0.0
 11
14.74509241012436
 21
45.44885180424244
 31
0.0
  0
LINE
  5
CDB
330
BFA
100
AcDbEntity
  8
Dimension (ANSI)
100
AcDbLine
 10
35.41296643701894
 20
44.82385180424244
 30
0.0
 11
26.47303616269634
 21
44.82385180424244
 31
0.0
  0
LINE
  5
CDC
330
BFA
100
AcDbEntity
  8
Dimension (ANSI)
100
AcDbLine
 10
15.2372183832298
 20
44.82385180424244
 30
0.0
 11
24.1771486575524
 21
44.82385180424244
 31
0.0
  0
SOLID
  5
CDD
330
BFA
100
AcDbEntity
  8
Dimension (ANSI)
100
AcDbTrace
 10
35.41296643701894
 20
44.90587279976001
 30
0.0
 11
35.41296643701894
 21
44.74183080872486
 31
0.0
 12
35.90509241012437
 22
44.82385180424244
 32
0.0
 13
35.90509241012437
 23
44.82385180424244
 33
0.0
  0
SOLID
  5
CDE
330
BFA
100
AcDbEntity
  8
Dimension (ANSI)
100
AcDbTrace
 10
15.2372183832298
 20
44.90587279976001
 30
0.0
 11
15.2372183832298
 21
44.74183080872486
 31
0.0
 12
14.74509241012436
 22
44.82385180424244
 32
0.0
 13
14.74509241012436
 23
44.82385180424244
 33
0.0
  0
MTEXT
  5
CDF
330
BFA
100
AcDbEntity
  8
Dimension (ANSI)
100
AcDbMText
 10
24.33462897251303
 20
45.13634342176383
 30
0.0
 40
0.6000000238418579
 41
0.0
 71
     1
 72
     1
  1
\A1;21.16
  7
Note Text (ANSI)
 73
     1
 44
1.0
1001
ACAD
1000
MTEXTBEGIN
1070
    73
1070
     1
1070
    44
1040
1.0
1070
    74
1070
     0
1000
MTEXTEND
  0
POINT
  5
CE0
330
BFA
100
AcDbEntity
  8
Defpoints
 62
     0
100
AcDbPoint
 10
35.90509241012437
 20
41.65424550502983
 30
0.0
  0
POINT
  5
CE1
330
BFA
100
AcDbEntity
  8
Defpoints
 62
     0
100
AcDbPoint
 10
14.74509241012436
 20
41.65424550502983
 30
0.0
  0
POINT
  5
CE2
330
BFA
100
AcDbEntity
  8
Defpoints
 62
     0
100
AcDbPoint
 10
14.74509241012436
 20
44.82385180424244
 30
0.0
  0
ENDBLK
  5
BFC
330
BFA
100
AcDbEntity
  8
0
100
AcDbBlockEnd
  0
ENDSEC
  0
SECTION
  2
ENTITIES
  0
MTEXT
  5
74
330
6C
100
AcDbEntity
  8
Symbol (ANSI)
100
AcDbMText
 10
52.54547182732927
 20
12.19893401384712
 30
0.0
 40
0.7000000223400085
 41
25.84185487642063
 71
     1
 72
     1
  1
PART#: NP3024C\P(DATA SUBJECT TO CHANGE WITHOUT NOTICE)\PTHIS DRAWING AND COMPONENTS OF ARE\PPROPERTY OF HUBBELL INC. WIEGMANN\P 
  7
Note Text (ANSI)
 73
     2
 44
1.093904256820678
1001
ACAD
1000
MTEXTBEGIN
1070
    73
1070
     2
1070
    44
1040
1.093904256820678
1070
    74
1070
     0
1000
MTEXTEND
  0
TEXT
  5
77
330
6C
100
AcDbEntity
  8
0
100
AcDbText
 10
76.51744232369512
 20
8.189768110909341
 30
0.0
 40
0.4866846785930925
  1
HUBBELL
  7
SANSSERIF
100
AcDbText
  0
POLYLINE
  5
79
330
6C
100
AcDbEntity
  8
0
100
AcDb2dPolyline
 66
     1
 10
0.0
 20
0.0
 30
0.0
  0
VERTEX
  5
7A
330
79
100
AcDbEntity
  8
0
100
AcDbVertex
100
AcDb2dVertex
 10
76.76959029420202
 20
7.94931863342299
 30
0.0
 42
0.0538548888021971
  0
VERTEX
  5
7B
330
79
100
AcDbEntity
  8
0
100
AcDbVertex
100
AcDb2dVertex
 10
76.94485330358697
 20
7.812047988844765
 30
0.0
 42
0.0762621633615686
 70
     2
 50
328.0963691854962
  0
VERTEX
  5
7C
330
79
100
AcDbEntity
  8
0
100
AcDbVertex
100
AcDb2dVertex
 10
77.37318637455529
 20
7.628627766641224
 30
0.0
 42
0.0631748622128167
 50
328.0963691854962
  0
VERTEX
  5
7D
330
79
100
AcDbEntity
  8
0
100
AcDbVertex
100
AcDb2dVertex
 10
77.93018184070605
 20
7.55796954154368
 30
0.0
 42
0.0631748622128144
  0
VERTEX
  5
7E
330
79
100
AcDbEntity
  8
0
100
AcDbVertex
100
AcDb2dVertex
 10
78.48717730685684
 20
7.628627766641224
 30
0.0
 42
0.0762621633615716
  0
VERTEX
  5
7F
330
79
100
AcDbEntity
  8
0
100
AcDbVertex
100
AcDb2dVertex
 10
78.91551037782511
 20
7.812047988844765
 30
0.0
 42
0.0538548888021992
 70
     2
 50
31.90363081450366
  0
VERTEX
  5
80
330
79
100
AcDbEntity
  8
0
100
AcDbVertex
100
AcDb2dVertex
 10
79.09077338721011
 20
7.94931863342299
 30
0.0
 42
0.1478388992712208
 50
31.90363081450366
  0
SEQEND
  5
81
330
79
100
AcDbEntity
  8
0
  0
POLYLINE
  5
82
330
6C
100
AcDbEntity
  8
0
100
AcDb2dPolyline
 66
     1
 10
0.0
 20
0.0
 30
0.0
  0
VERTEX
  5
83
330
82
100
AcDbEntity
  8
0
100
AcDbVertex
100
AcDb2dVertex
 10
77.09092430634192
 20
8.002350528296631
 30
0.0
 42
0.0708473647366734
  0
VERTEX
  5
84
330
82
100
AcDbEntity
  8
0
100
AcDbVertex
100
AcDb2dVertex
 10
77.24980740347461
 20
7.812047988844765
 30
0.0
 42
0.0943474025114784
 70
     2
 50
317.9633854595613
  0
VERTEX
  5
85
330
82
100
AcDbEntity
  8
0
100
AcDbVertex
100
AcDb2dVertex
 10
77.55749330091645
 20
7.6252873771781
 30
0.0
 42
0.0895889244631754
 50
317.9633854595613
  0
VERTEX
  5
86
330
82
100
AcDbEntity
  8
0
100
AcDbVertex
100
AcDb2dVertex
 10
77.93018184070605
 20
7.55796954154368
 30
0.0
 42
0.0895889244631755
  0
VERTEX
  5
87
330
82
100
AcDbEntity
  8
0
100
AcDbVertex
100
AcDb2dVertex
 10
78.30287038049568
 20
7.6252873771781
 30
0.0
 42
0.0943474025114826
  0
VERTEX
  5
88
330
82
100
AcDbEntity
  8
0
100
AcDbVertex
100
AcDb2dVertex
 10
78.61055627793749
 20
7.812047988844765
 30
0.0
 42
0.0708473647366705
 70
     2
 50
42.03661454043863
  0
VERTEX
  5
89
330
82
100
AcDbEntity
  8
0
100
AcDbVertex
100
AcDb2dVertex
 10
78.76943937507016
 20
8.002350528296631
 30
0.0
 42
0.1080871028423927
 50
42.03661454043863
  0
SEQEND
  5
8A
330
82
100
AcDbEntity
  8
0
  0
POLYLINE
  5
8B
330
6C
100
AcDbEntity
  8
0
100
AcDb2dPolyline
 66
     1
 10
0.0
 20
0.0
 30
0.0
  0
VERTEX
  5
8C
330
8B
100
AcDbEntity
  8
0
100
AcDbVertex
100
AcDb2dVertex
 10
79.08290789995847
 20
8.909154325241868
 30
0.0
 42
0.0512131062417871
  0
VERTEX
  5
8D
330
8B
100
AcDbEntity
  8
0
100
AcDbVertex
100
AcDb2dVertex
 10
78.91551037782511
 20
9.038847255606778
 30
0.0
 42
0.0762621633615678
 70
     2
 50
148.0963691854963
  0
VERTEX
  5
8E
330
8B
100
AcDbEntity
  8
0
100
AcDbVertex
100
AcDb2dVertex
 10
78.48717730685684
 20
9.222267477810328
 30
0.0
 42
0.0631748622128132
 50
148.0963691854963
  0
VERTEX
  5
8F
330
8B
100
AcDbEntity
  8
0
100
AcDbVertex
100
AcDb2dVertex
 10
77.93018184070605
 20
9.292925702907872
 30
0.0
 42
0.0631748622128155
  0
SEQEND
  5
90
330
8B
100
AcDbEntity
  8
0
  0
POLYLINE
  5
91
330
6C
100
AcDbEntity
  8
0
100
AcDb2dPolyline
 66
     1
 10
0.0
 20
0.0
 30
0.0
  0
VERTEX
  5
92
330
91
100
AcDbEntity
  8
0
100
AcDbVertex
100
AcDb2dVertex
 10
78.76553238901762
 20
8.854798723356687
 30
0.0
 42
0.0687403046083495
  0
VERTEX
  5
93
330
91
100
AcDbEntity
  8
0
100
AcDbVertex
100
AcDb2dVertex
 10
78.61055627793749
 20
9.038847255606778
 30
0.0
 42
0.0943474025114827
 70
     2
 50
137.9633854595613
  0
VERTEX
  5
94
330
91
100
AcDbEntity
  8
0
100
AcDbVertex
100
AcDb2dVertex
 10
78.30287038049568
 20
9.225607867273444
 30
0.0
 42
0.0895889244631755
 50
137.9633854595613
  0
VERTEX
  5
95
330
91
100
AcDbEntity
  8
0
100
AcDbVertex
100
AcDb2dVertex
 10
77.93018184070605
 20
9.292925702907872
 30
0.0
 42
0.0895889244631779
  0
SEQEND
  5
96
330
91
100
AcDbEntity
  8
0
  0
LINE
  5
97
330
6C
100
AcDbEntity
  8
0
100
AcDbLine
 10
79.77928776241241
 20
9.534911175249538
 30
0.0
 11
76.08107591899979
 21
9.534911175249538
 31
0.0
  0
POLYLINE
  5
98
330
6C
100
AcDbEntity
  8
0
100
AcDb2dPolyline
 66
     1
 10
0.0
 20
0.0
 30
0.0
 70
     1
  0
VERTEX
  5
99
330
98
100
AcDbEntity
  8
0
100
AcDbVertex
100
AcDb2dVertex
 10
76.08107591899979
 20
8.425447622225767
 30
0.0
 42
0.1828233251715505
  0
VERTEX
  5
9A
330
98
100
AcDbEntity
  8
0
100
AcDbVertex
100
AcDb2dVertex
 10
76.19066145827878
 20
8.135761632315983
 30
0.0
 42
0.1025674015815553
  0
VERTEX
  5
9B
330
98
100
AcDbEntity
  8
0
100
AcDbVertex
100
AcDb2dVertex
 10
76.62266650433534
 20
7.812047988844845
 30
0.0
 42
0.0617587255956112
 70
     2
 50
334.8671392208401
  0
VERTEX
  5
9C
330
98
100
AcDbEntity
  8
0
100
AcDbVertex
100
AcDb2dVertex
 10
77.18034672149821
 20
7.630149038007187
 30
0.0
 42
0.0480192641995976
 50
334.8671392208401
  0
VERTEX
  5
9D
330
98
100
AcDbEntity
  8
0
100
AcDbVertex
100
AcDb2dVertex
 10
77.93018184070605
 20
7.55796954154368
 30
0.0
 42
0.0480192641995965
  0
VERTEX
  5
9E
330
98
100
AcDbEntity
  8
0
100
AcDbVertex
100
AcDb2dVertex
 10
78.68001695991394
 20
7.630149038007187
 30
0.0
 42
0.0617587255956115
  0
VERTEX
  5
9F
330
98
100
AcDbEntity
  8
0
100
AcDbVertex
100
AcDb2dVertex
 10
79.23769717707682
 20
7.812047988844845
 30
0.0
 42
0.1025674015815654
 70
     2
 50
25.13286077915987
  0
VERTEX
  5
A0
330
98
100
AcDbEntity
  8
0
100
AcDbVertex
100
AcDb2dVertex
 10
79.66970222313324
 20
8.135761632315983
 30
0.0
 42
0.18282332517157
 50
25.13286077915987
  0
VERTEX
  5
A1
330
98
100
AcDbEntity
  8
0
100
AcDbVertex
100
AcDb2dVertex
 10
79.77928776241241
 20
8.425447622225767
 30
0.0
 42
0.1828233251715568
  0
VERTEX
  5
A2
330
98
100
AcDbEntity
  8
0
100
AcDbVertex
100
AcDb2dVertex
 10
79.66970222313324
 20
8.71513361213557
 30
0.0
 42
0.102567401581563
  0
VERTEX
  5
A3
330
98
100
AcDbEntity
  8
0
100
AcDbVertex
100
AcDb2dVertex
 10
79.23769717707682
 20
9.038847255606681
 30
0.0
 42
0.0617587255956141
 70
     2
 50
154.86713922084
  0
VERTEX
  5
A4
330
98
100
AcDbEntity
  8
0
100
AcDbVertex
100
AcDb2dVertex
 10
78.68001695991394
 20
9.220746206444365
 30
0.0
 42
0.0480192641995983
 50
154.86713922084
  0
VERTEX
  5
A5
330
98
100
AcDbEntity
  8
0
100
AcDbVertex
100
AcDb2dVertex
 10
77.93018184070605
 20
9.292925702907872
 30
0.0
 42
0.0480192641995976
  0
VERTEX
  5
A6
330
98
100
AcDbEntity
  8
0
100
AcDbVertex
100
AcDb2dVertex
 10
77.18034672149821
 20
9.220746206444365
 30
0.0
 42
0.0617587255956112
  0
VERTEX
  5
A7
330
98
100
AcDbEntity
  8
0
100
AcDbVertex
100
AcDb2dVertex
 10
76.62266650433534
 20
9.038847255606681
 30
0.0
 42
0.1025674015815593
 70
     2
 50
205.1328607791599
  0
VERTEX
  5
A8
330
98
100
AcDbEntity
  8
0
100
AcDbVertex
100
AcDb2dVertex
 10
76.19066145827878
 20
8.71513361213557
 30
0.0
 42
0.1828233251715536
 50
205.1328607791599
  0
SEQEND
  5
A9
330
98
100
AcDbEntity
  8
0
  0
ARC
  5
AA
330
6C
100
AcDbEntity
  8
0
100
AcDbCircle
 10
76.08107591899979
 20
9.165089990908281
 30
0.0
 40
0.3698211843412555
100
AcDbArc
 50
90.0
 51
180.0
  0
LINE
  5
AB
330
6C
100
AcDbEntity
  8
0
100
AcDbLine
 10
75.71125473465852
 20
9.165089990908281
 30
0.0
 11
75.71125473465852
 21
7.685805253543245
 31
0.0
  0
ARC
  5
AC
330
6C
100
AcDbEntity
  8
0
100
AcDbCircle
 10
76.08107591899979
 20
7.685805253543245
 30
0.0
 40
0.3698211843412555
100
AcDbArc
 50
180.0
 51
270.0
  0
POLYLINE
  5
AD
330
6C
100
AcDbEntity
  8
0
100
AcDb2dPolyline
 66
     1
 10
0.0
 20
0.0
 30
0.0
  0
VERTEX
  5
AE
330
AD
100
AcDbEntity
  8
0
100
AcDbVertex
100
AcDb2dVertex
 10
77.54533593471577
 20
8.04445952651914
 30
0.0
 42
0.0570538596573184
  0
VERTEX
  5
AF
330
AD
100
AcDbEntity
  8
0
100
AcDbVertex
100
AcDb2dVertex
 10
77.62839535600477
 20
7.812047988844721
 30
0.0
 42
0.1038195938885091
 70
     2
 50
296.1967246921072
  0
VERTEX
  5
B0
330
AD
100
AcDbEntity
  8
0
100
AcDbVertex
100
AcDb2dVertex
 10
77.7861222065761
 20
7.610537562047658
 30
0.0
 42
0.1767522344444316
 50
296.1967246921072
  0
VERTEX
  5
B1
330
AD
100
AcDbEntity
  8
0
100
AcDbVertex
100
AcDb2dVertex
 10
77.93018184070605
 20
7.55796954154368
 30
0.0
 42
0.1767522344444399
  0
VERTEX
  5
B2
330
AD
100
AcDbEntity
  8
0
100
AcDbVertex
100
AcDb2dVertex
 10
78.0742414748361
 20
7.610537562047658
 30
0.0
 42
0.1038195938885123
  0
VERTEX
  5
B3
330
AD
100
AcDbEntity
  8
0
100
AcDbVertex
100
AcDb2dVertex
 10
78.2319683254073
 20
7.812047988844721
 30
0.0
 42
0.0570538596573163
 70
     2
 50
63.8032753078928
  0
VERTEX
  5
B4
330
AD
100
AcDbEntity
  8
0
100
AcDbVertex
100
AcDb2dVertex
 10
78.3150277466963
 20
8.04445952651914
 30
0.0
 42
0.0503013836282066
 50
63.8032753078928
  0
SEQEND
  5
B5
330
AD
100
AcDbEntity
  8
0
  0
POLYLINE
  5
B6
330
6C
100
AcDbEntity
  8
0
100
AcDb2dPolyline
 66
     1
 10
0.0
 20
0.0
 30
0.0
  0
VERTEX
  5
B7
330
B6
100
AcDbEntity
  8
0
100
AcDbVertex
100
AcDb2dVertex
 10
77.93018184070605
 20
9.292925702907872
 30
0.0
 42
0.1767522344444361
  0
VERTEX
  5
B8
330
B6
100
AcDbEntity
  8
0
100
AcDbVertex
100
AcDb2dVertex
 10
77.7861222065761
 20
9.24035768240385
 30
0.0
 42
0.1038195938884991
  0
VERTEX
  5
B9
330
B6
100
AcDbEntity
  8
0
100
AcDbVertex
100
AcDb2dVertex
 10
77.62839535600477
 20
9.038847255606805
 30
0.0
 42
0.0567223889277798
 70
     2
 50
243.8032753078928
  0
VERTEX
  5
BA
330
B6
100
AcDbEntity
  8
0
100
AcDbVertex
100
AcDb2dVertex
 10
77.54566271425932
 20
8.807831912637738
 30
0.0
 42
0.0503013836282199
 50
243.8032753078928
  0
SEQEND
  5
BB
330
B6
100
AcDbEntity
  8
0
  0
POLYLINE
  5
BC
330
6C
100
AcDbEntity
  8
0
100
AcDb2dPolyline
 66
     1
 10
0.0
 20
0.0
 30
0.0
  0
VERTEX
  5
BD
330
BC
100
AcDbEntity
  8
0
100
AcDbVertex
100
AcDb2dVertex
 10
77.93018184070605
 20
9.292925702907872
 30
0.0
 42
0.0895889244631779
  0
VERTEX
  5
BE
330
BC
100
AcDbEntity
  8
0
100
AcDbVertex
100
AcDb2dVertex
 10
77.55749330091645
 20
9.225607867273444
 30
0.0
 42
0.094347402511486
  0
VERTEX
  5
BF
330
BC
100
AcDbEntity
  8
0
100
AcDbVertex
100
AcDb2dVertex
 10
77.24980740347461
 20
9.038847255606778
 30
0.0
 42
0.0687403046083514
 70
     2
 50
222.0366145404387
  0
VERTEX
  5
C0
330
BC
100
AcDbEntity
  8
0
100
AcDbVertex
100
AcDb2dVertex
 10
77.09483129239451
 20
8.854798723356687
 30
0.0
 42
0.1080871028423927
 50
222.0366145404387
  0
SEQEND
  5
C1
330
BC
100
AcDbEntity
  8
0
  0
POLYLINE
  5
C2
330
6C
100
AcDbEntity
  8
0
100
AcDb2dPolyline
 66
     1
 10
0.0
 20
0.0
 30
0.0
  0
VERTEX
  5
C3
330
C2
100
AcDbEntity
  8
0
100
AcDbVertex
100
AcDb2dVertex
 10
77.93018184070605
 20
9.292925702907872
 30
0.0
 42
0.0631748622128155
  0
VERTEX
  5
C4
330
C2
100
AcDbEntity
  8
0
100
AcDbVertex
100
AcDb2dVertex
 10
77.37318637455529
 20
9.222267477810328
 30
0.0
 42
0.0762621633615699
  0
VERTEX
  5
C5
330
C2
100
AcDbEntity
  8
0
100
AcDbVertex
100
AcDb2dVertex
 10
76.94485330358697
 20
9.038847255606778
 30
0.0
 42
0.0512131062417906
 70
     2
 50
211.9036308145036
  0
VERTEX
  5
C6
330
C2
100
AcDbEntity
  8
0
100
AcDbVertex
100
AcDb2dVertex
 10
76.77745578145366
 20
8.909154325241868
 30
0.0
 42
0.1478388992712295
 50
211.9036308145036
  0
SEQEND
  5
C7
330
C2
100
AcDbEntity
  8
0
  0
POLYLINE
  5
C8
330
6C
100
AcDbEntity
  8
0
100
AcDb2dPolyline
 66
     1
 10
0.0
 20
0.0
 30
0.0
  0
VERTEX
  5
C9
330
C8
100
AcDbEntity
  8
0
100
AcDbVertex
100
AcDb2dVertex
 10
78.31470096715285
 20
8.807831912637738
 30
0.0
 42
0.0567223889277601
  0
VERTEX
  5
CA
330
C8
100
AcDbEntity
  8
0
100
AcDbVertex
100
AcDb2dVertex
 10
78.2319683254073
 20
9.038847255606805
 30
0.0
 42
0.1038195938884991
 70
     2
 50
116.1967246921072
  0
VERTEX
  5
CB
330
C8
100
AcDbEntity
  8
0
100
AcDbVertex
100
AcDb2dVertex
 10
78.0742414748361
 20
9.24035768240385
 30
0.0
 42
0.1767522344444361
 50
116.1967246921072
  0
VERTEX
  5
CC
330
C8
100
AcDbEntity
  8
0
100
AcDbVertex
100
AcDb2dVertex
 10
77.93018184070605
 20
9.292925702907872
 30
0.0
 42
0.1767522344444361
  0
SEQEND
  5
CD
330
C8
100
AcDbEntity
  8
0
  0
ARC
  5
CE
330
6C
100
AcDbEntity
  8
0
100
AcDbCircle
 10
79.77928776241241
 20
9.165089990908281
 30
0.0
 40
0.3698211843412555
100
AcDbArc
 50
0.0
 51
90.0
  0
CIRCLE
  5
CF
330
6C
100
AcDbEntity
  8
0
100
AcDbCircle
 10
80.49792596687916
 20
9.344328363475771
 30
0.0
 40
0.1924617275235094
  0
TEXT
  5
D0
330
6C
100
AcDbEntity
  8
0
100
AcDbText
 10
80.37381372234349
 20
9.215674801801334
 30
0.0
 40
0.2259090677762226
  1
R
  7
SANSSERIF
100
AcDbText
  0
LINE
  5
D1
330
6C
100
AcDbEntity
  8
0
100
AcDbLine
 10
80.14910894675356
 20
7.685805253543245
 30
0.0
 11
80.14910894675356
 21
9.165089990908281
 31
0.0
  0
ARC
  5
D2
330
6C
100
AcDbEntity
  8
0
100
AcDbCircle
 10
79.77928776241241
 20
7.685805253543245
 30
0.0
 40
0.3698211843412555
100
AcDbArc
 50
270.0
 51
0.0
  0
LINE
  5
D3
330
6C
100
AcDbEntity
  8
0
100
AcDbLine
 10
76.08107591899979
 20
7.315984069201988
 30
0.0
 11
79.77928776241241
 21
7.315984069201988
 31
0.0
  0
LINE
  5
17A
330
6C
100
AcDbEntity
  8
Visible (ANSI)
100
AcDbLine
 10
36.42509241012437
 20
15.69224550502983
 30
0.0
 11
36.42509241012436
 21
40.45624550502983
 31
0.0
  0
LINE
  5
17B
330
6C
100
AcDbEntity
  8
Visible (ANSI)
100
AcDbLine
 10
36.42509241012436
 20
15.69224550502983
 30
0.0
 11
36.31574241012437
 21
15.69224550502983
 31
0.0
  0
LINE
  5
17C
330
6C
100
AcDbEntity
  8
Visible (ANSI)
100
AcDbLine
 10
36.42509241012436
 20
40.45624550502983
 30
0.0
 11
36.31574241012437
 21
40.45624550502983
 31
0.0
  0
LINE
  5
17D
330
6C
100
AcDbEntity
  8
Visible (ANSI)
100
AcDbLine
 10
36.31554241012437
 20
40.45644550502983
 30
0.0
 11
36.42509241012437
 21
40.45644550502983
 31
0.0
  0
LINE
  5
17E
330
6C
100
AcDbEntity
  8
Visible (ANSI)
100
AcDbLine
 10
36.31554241012437
 20
40.45624550502983
 30
0.0
 11
36.31554241012437
 21
40.45644550502983
 31
0.0
  0
LINE
  5
17F
330
6C
100
AcDbEntity
  8
Visible (ANSI)
100
AcDbLine
 10
36.31554241012437
 20
15.69204550502983
 30
0.0
 11
36.31554241012437
 21
15.69224550502983
 31
0.0
  0
LINE
  5
180
330
6C
100
AcDbEntity
  8
Visible (ANSI)
100
AcDbLine
 10
36.42509241012437
 20
15.69204550502983
 30
0.0
 11
36.31554241012437
 21
15.69204550502983
 31
0.0
  0
LINE
  5
181
330
6C
100
AcDbEntity
  8
Hidden (ANSI)
 48
1.089149832725524
100
AcDbLine
 10
36.33134241012436
 20
40.45624550502983
 30
0.0
 11
36.33134241012437
 21
15.69224550502983
 31
0.0
  0
LINE
  5
182
330
6C
100
AcDbEntity
  8
Visible (ANSI)
100
AcDbLine
 10
36.31554241012437
 20
15.69224550502983
 30
0.0
 11
36.31574241012437
 21
15.69224550502983
 31
0.0
  0
LINE
  5
183
330
6C
100
AcDbEntity
  8
Visible (ANSI)
100
AcDbLine
 10
36.31574241012437
 20
40.45624550502983
 30
0.0
 11
36.31554241012437
 21
40.45624550502983
 31
0.0
  0
LINE
  5
184
330
6C
100
AcDbEntity
  8
Visible (ANSI)
100
AcDbLine
 10
36.42509241012437
 20
41.67424550502983
 30
0.0
 11
36.42509241012437
 21
40.45644550502983
 31
0.0
  0
LINE
  5
185
330
6C
100
AcDbEntity
  8
Visible (ANSI)
100
AcDbLine
 10
14.72509241012436
 20
42.17424550502983
 30
0.0
 11
35.92509241012436
 21
42.17424550502983
 31
0.0
  0
LINE
  5
186
330
6C
100
AcDbEntity
  8
Visible (ANSI)
100
AcDbLine
 10
14.22509241012436
 20
40.45644550502983
 30
0.0
 11
14.22509241012436
 21
41.67424550502983
 31
0.0
  0
LINE
  5
187
330
6C
100
AcDbEntity
  8
Visible (ANSI)
100
AcDbLine
 10
14.22509241012436
 20
14.47424550502983
 30
0.0
 11
14.22509241012436
 21
15.69204550502983
 31
0.0
  0
LINE
  5
188
330
6C
100
AcDbEntity
  8
Visible (ANSI)
100
AcDbLine
 10
35.92509241012436
 20
13.97424550502983
 30
0.0
 11
14.72509241012437
 21
13.97424550502983
 31
0.0
  0
LINE
  5
189
330
6C
100
AcDbEntity
  8
Visible (ANSI)
100
AcDbLine
 10
36.42509241012437
 20
15.69204550502983
 30
0.0
 11
36.42509241012437
 21
14.47424550502983
 31
0.0
  0
LINE
  5
18A
330
6C
100
AcDbEntity
  8
Visible (ANSI)
100
AcDbLine
 10
35.92509241012436
 20
42.17424550502983
 30
0.0
 11
36.42509241012437
 21
41.67424550502983
 31
0.0
  0
LINE
  5
18B
330
6C
100
AcDbEntity
  8
Visible (ANSI)
100
AcDbLine
 10
14.22509241012436
 20
41.67424550502983
 30
0.0
 11
14.72509241012436
 21
42.17424550502983
 31
0.0
  0
LINE
  5
18C
330
6C
100
AcDbEntity
  8
Visible (ANSI)
100
AcDbLine
 10
14.22509241012436
 20
40.45644550502983
 30
0.0
 11
14.33464241012435
 21
40.45644550502983
 31
0.0
  0
LINE
  5
18D
330
6C
100
AcDbEntity
  8
Visible (ANSI)
100
AcDbLine
 10
14.33464241012435
 20
40.45644550502983
 30
0.0
 11
14.33464241012435
 21
40.45624550502983
 31
0.0
  0
LINE
  5
18E
330
6C
100
AcDbEntity
  8
Visible (ANSI)
100
AcDbLine
 10
14.33464241012436
 20
15.69224550502983
 30
0.0
 11
14.33464241012436
 21
15.69204550502983
 31
0.0
  0
LINE
  5
18F
330
6C
100
AcDbEntity
  8
Visible (ANSI)
100
AcDbLine
 10
14.33464241012436
 20
15.69204550502983
 30
0.0
 11
14.22509241012436
 21
15.69204550502983
 31
0.0
  0
LINE
  5
190
330
6C
100
AcDbEntity
  8
Visible (ANSI)
100
AcDbLine
 10
14.22509241012436
 20
40.45624550502983
 30
0.0
 11
14.22509241012437
 21
15.69224550502983
 31
0.0
  0
LINE
  5
191
330
6C
100
AcDbEntity
  8
Visible (ANSI)
100
AcDbLine
 10
14.22509241012436
 20
40.45624550502983
 30
0.0
 11
14.33444241012435
 21
40.45624550502983
 31
0.0
  0
LINE
  5
192
330
6C
100
AcDbEntity
  8
Visible (ANSI)
100
AcDbLine
 10
14.22509241012437
 20
15.69224550502983
 30
0.0
 11
14.33444241012436
 21
15.69224550502983
 31
0.0
  0
LINE
  5
193
330
6C
100
AcDbEntity
  8
Hidden (ANSI)
 48
1.089149832725524
100
AcDbLine
 10
14.31884241012437
 20
15.69224550502983
 30
0.0
 11
14.31884241012437
 21
40.45624550502983
 31
0.0
  0
LINE
  5
194
330
6C
100
AcDbEntity
  8
Visible (ANSI)
100
AcDbLine
 10
14.33464241012435
 20
40.45624550502983
 30
0.0
 11
14.33444241012435
 21
40.45624550502983
 31
0.0
  0
LINE
  5
195
330
6C
100
AcDbEntity
  8
Visible (ANSI)
100
AcDbLine
 10
14.33444241012436
 20
15.69224550502983
 30
0.0
 11
14.33464241012436
 21
15.69224550502983
 31
0.0
  0
LINE
  5
196
330
6C
100
AcDbEntity
  8
Visible (ANSI)
100
AcDbLine
 10
14.72509241012437
 20
13.97424550502983
 30
0.0
 11
14.22509241012436
 21
14.47424550502983
 31
0.0
  0
LINE
  5
197
330
6C
100
AcDbEntity
  8
Visible (ANSI)
100
AcDbLine
 10
36.42509241012437
 20
14.47424550502983
 30
0.0
 11
35.92509241012436
 21
13.97424550502983
 31
0.0
  0
CIRCLE
  5
198
330
6C
100
AcDbEntity
  8
Visible (ANSI)
100
AcDbCircle
 10
35.90509241012437
 20
41.65424550502983
 30
0.0
 40
0.25
  0
CIRCLE
  5
199
330
6C
100
AcDbEntity
  8
Visible (ANSI)
100
AcDbCircle
 10
14.74509241012436
 20
41.65424550502983
 30
0.0
 40
0.25
  0
CIRCLE
  5
19A
330
6C
100
AcDbEntity
  8
Visible (ANSI)
100
AcDbCircle
 10
14.74509241012436
 20
14.49424550502983
 30
0.0
 40
0.25
  0
CIRCLE
  5
19B
330
6C
100
AcDbEntity
  8
Visible (ANSI)
100
AcDbCircle
 10
35.90509241012437
 20
14.49424550502983
 30
0.0
 40
0.25
  0
CIRCLE
  5
19C
330
6C
100
AcDbEntity
  8
Visible (ANSI)
100
AcDbCircle
 10
35.90509241012437
 20
40.90424550502983
 30
0.0
 40
0.15625
  0
CIRCLE
  5
19D
330
6C
100
AcDbEntity
  8
Visible (ANSI)
100
AcDbCircle
 10
14.74509241012436
 20
40.90424550502983
 30
0.0
 40
0.15625
  0
CIRCLE
  5
19E
330
6C
100
AcDbEntity
  8
Visible (ANSI)
100
AcDbCircle
 10
14.74509241012436
 20
15.24424550502983
 30
0.0
 40
0.15625
  0
CIRCLE
  5
19F
330
6C
100
AcDbEntity
  8
Visible (ANSI)
100
AcDbCircle
 10
35.90509241012437
 20
15.24424550502983
 30
0.0
 40
0.15625
  0
LINE
  5
1A0
330
6C
100
AcDbEntity
  8
Visible (ANSI)
100
AcDbLine
 10
53.55117266185866
 20
15.69224550502983
 30
0.0
 11
54.21582266185865
 21
15.69224550502983
 31
0.0
  0
LINE
  5
1A1
330
6C
100
AcDbEntity
  8
Visible (ANSI)
100
AcDbLine
 10
54.21582266185865
 20
40.45624550502983
 30
0.0
 11
54.21582266185865
 21
15.69224550502983
 31
0.0
  0
LINE
  5
1A2
330
6C
100
AcDbEntity
  8
Visible (ANSI)
100
AcDbLine
 10
54.21582266185865
 20
40.45624550502983
 30
0.0
 11
53.55117266185865
 21
40.45624550502983
 31
0.0
  0
LINE
  5
1A3
330
6C
100
AcDbEntity
  8
Visible (ANSI)
100
AcDbLine
 10
53.55117266185866
 20
15.69224550502983
 30
0.0
 11
53.4418226618586
 21
15.69224550502983
 31
0.0
  0
LINE
  5
1A4
330
6C
100
AcDbEntity
  8
Visible (ANSI)
100
AcDbLine
 10
53.55117266185866
 20
40.45624550502983
 30
0.0
 11
53.44182266185861
 21
40.45624550502983
 31
0.0
  0
LINE
  5
1A5
330
6C
100
AcDbEntity
  8
Visible (ANSI)
100
AcDbLine
 10
53.4418226618586
 20
15.69224550502983
 30
0.0
 11
53.4418226618586
 21
40.45624550502983
 31
0.0
  0
LINE
  5
1A6
330
6C
100
AcDbEntity
  8
Visible (ANSI)
100
AcDbLine
 10
53.44182266185864
 20
40.45644550502983
 30
0.0
 11
53.53557266185864
 21
40.45644550502983
 31
0.0
  0
LINE
  5
1A7
330
6C
100
AcDbEntity
  8
Visible (ANSI)
100
AcDbLine
 10
53.53557266185861
 20
40.45644550502983
 30
0.0
 11
53.53557266185861
 21
40.45624550502983
 31
0.0
  0
LINE
  5
1A8
330
6C
100
AcDbEntity
  8
Visible (ANSI)
100
AcDbLine
 10
53.4418226618586
 20
40.45624550502983
 30
0.0
 11
53.4418226618586
 21
40.45644550502983
 31
0.0
  0
LINE
  5
1A9
330
6C
100
AcDbEntity
  8
Visible (ANSI)
100
AcDbLine
 10
53.53557266185861
 20
15.69224550502983
 30
0.0
 11
53.53557266185861
 21
15.69204550502983
 31
0.0
  0
LINE
  5
1AA
330
6C
100
AcDbEntity
  8
Visible (ANSI)
100
AcDbLine
 10
53.4418226618586
 20
15.69204550502983
 30
0.0
 11
53.4418226618586
 21
15.69224550502983
 31
0.0
  0
LINE
  5
1AB
330
6C
100
AcDbEntity
  8
Visible (ANSI)
100
AcDbLine
 10
53.53557266185864
 20
15.69204550502983
 30
0.0
 11
53.44182266185864
 21
15.69204550502983
 31
0.0
  0
LINE
  5
1AC
330
6C
100
AcDbEntity
  8
Hidden (ANSI)
 48
1.089149832725524
100
AcDbLine
 10
53.53557266185861
 20
40.45624550502983
 30
0.0
 11
53.53557266185861
 21
15.69224550502983
 31
0.0
  0
LINE
  5
1AD
330
6C
100
AcDbEntity
  8
Visible (ANSI)
100
AcDbLine
 10
53.53557266185864
 20
14.47424550502983
 30
0.0
 11
53.53557266185864
 21
15.69204550502983
 31
0.0
  0
LINE
  5
1AE
330
6C
100
AcDbEntity
  8
Visible (ANSI)
100
AcDbLine
 10
53.53557266185864
 20
40.45644550502983
 30
0.0
 11
53.53557266185864
 21
41.67424550502983
 31
0.0
  0
LINE
  5
1AF
330
6C
100
AcDbEntity
  8
Visible (ANSI)
100
AcDbLine
 10
53.44182266185864
 20
41.67424550502983
 30
0.0
 11
53.44182266185864
 21
40.45644550502983
 31
0.0
  0
LINE
  5
1B0
330
6C
100
AcDbEntity
  8
Visible (ANSI)
100
AcDbLine
 10
53.44182266185864
 20
15.69204550502983
 30
0.0
 11
53.44182266185864
 21
14.47424550502983
 31
0.0
  0
LINE
  5
1B1
330
6C
100
AcDbEntity
  8
Visible (ANSI)
100
AcDbLine
 10
53.53557266185849
 20
13.97424550502983
 30
0.0
 11
53.53557266185864
 21
14.47424550502983
 31
0.0
  0
LINE
  5
1B2
330
6C
100
AcDbEntity
  8
Visible (ANSI)
100
AcDbLine
 10
53.44182266185864
 20
14.47424550502983
 30
0.0
 11
53.4418226618585
 21
13.97424550502983
 31
0.0
  0
LINE
  5
1B3
330
6C
100
AcDbEntity
  8
Visible (ANSI)
100
AcDbLine
 10
53.4418226618585
 20
13.97424550502983
 30
0.0
 11
53.53557266185849
 21
13.97424550502983
 31
0.0
  0
LINE
  5
1B4
330
6C
100
AcDbEntity
  8
Visible (ANSI)
100
AcDbLine
 10
53.53557266185864
 20
14.47424550502983
 30
0.0
 11
53.44182266185864
 21
14.47424550502983
 31
0.0
  0
LINE
  5
1B5
330
6C
100
AcDbEntity
  8
Visible (ANSI)
100
AcDbLine
 10
53.53557266185864
 20
41.67424550502983
 30
0.0
 11
53.53557266185849
 21
42.17424550502983
 31
0.0
  0
LINE
  5
1B6
330
6C
100
AcDbEntity
  8
Visible (ANSI)
100
AcDbLine
 10
53.4418226618585
 20
42.17424550502983
 30
0.0
 11
53.44182266185864
 21
41.67424550502983
 31
0.0
  0
LINE
  5
1B7
330
6C
100
AcDbEntity
  8
Visible (ANSI)
100
AcDbLine
 10
53.44182266185864
 20
41.67424550502983
 30
0.0
 11
53.53557266185864
 21
41.67424550502983
 31
0.0
  0
LINE
  5
1B8
330
6C
100
AcDbEntity
  8
Visible (ANSI)
100
AcDbLine
 10
53.53557266185849
 20
42.17424550502983
 30
0.0
 11
53.4418226618585
 21
42.17424550502983
 31
0.0
  0
LINE
  5
1B9
330
6C
100
AcDbEntity
  8
Hidden (ANSI)
 48
0.0356130599975586
100
AcDbLine
 10
53.44182266185849
 20
41.90424550502982
 30
0.0
 11
53.53557266185848
 21
41.90424550502982
 31
0.0
  0
LINE
  5
1BA
330
6C
100
AcDbEntity
  8
Hidden (ANSI)
 48
0.0356130599975586
100
AcDbLine
 10
53.44182266185849
 20
41.40424550502983
 30
0.0
 11
53.53557266185848
 21
41.40424550502983
 31
0.0
  0
LINE
  5
1BB
330
6C
100
AcDbEntity
  8
Hidden (ANSI)
 48
0.0356130599975586
100
AcDbLine
 10
53.44182266185849
 20
14.74424550502983
 30
0.0
 11
53.53557266185848
 21
14.74424550502983
 31
0.0
  0
LINE
  5
1BC
330
6C
100
AcDbEntity
  8
Hidden (ANSI)
 48
0.0356130599975586
100
AcDbLine
 10
53.44182266185849
 20
14.24424550502983
 30
0.0
 11
53.53557266185848
 21
14.24424550502983
 31
0.0
  0
LINE
  5
1BD
330
6C
100
AcDbEntity
  8
Hidden (ANSI)
 48
0.0356130599975586
100
AcDbLine
 10
53.44182266185849
 20
41.06049550502983
 30
0.0
 11
53.53557266185848
 21
41.06049550502983
 31
0.0
  0
LINE
  5
1BE
330
6C
100
AcDbEntity
  8
Hidden (ANSI)
 48
0.0356130599975586
100
AcDbLine
 10
53.44182266185849
 20
40.74799550502983
 30
0.0
 11
53.53557266185848
 21
40.74799550502983
 31
0.0
  0
LINE
  5
1BF
330
6C
100
AcDbEntity
  8
Hidden (ANSI)
 48
0.0356130599975586
100
AcDbLine
 10
53.44182266185849
 20
15.40049550502983
 30
0.0
 11
53.53557266185848
 21
15.40049550502983
 31
0.0
  0
LINE
  5
1C0
330
6C
100
AcDbEntity
  8
Hidden (ANSI)
 48
0.0356130599975586
100
AcDbLine
 10
53.44182266185849
 20
15.08799550502983
 30
0.0
 11
53.53557266185848
 21
15.08799550502983
 31
0.0
  0
LINE
  5
1C1
330
6C
100
AcDbEntity
  8
Visible Narrow (ANSI)
100
AcDbLine
 10
79.77091926410833
 20
29.43096116081627
 30
0.0
 11
79.77091926410834
 21
42.08454678556672
 31
0.0
  0
ELLIPSE
  5
1C2
330
6C
100
AcDbEntity
  8
Visible (ANSI)
100
AcDbEllipse
 10
79.72259293503161
 20
29.45879044288076
 30
0.0
 11
0.0683437499999981
 21
0.000000000000004
 31
0.0
210
0.0
220
0.0
230
1.0
 40
0.5758617009853068
 41
3.926990816987055
 42
5.497787143782168
  0
LINE
  5
1C3
330
6C
100
AcDbEntity
  8
Visible (ANSI)
100
AcDbLine
 10
79.67417821760726
 20
42.08459768503092
 30
0.0
 11
79.67426694845221
 21
42.08464878172623
 31
0.0
  0
ELLIPSE
  5
1C4
330
6C
100
AcDbEntity
  8
Visible (ANSI)
100
AcDbEllipse
 10
79.7225929350316
 20
42.11237606763119
 30
0.0
 11
0.0683437499999708
 21
0.000000000000004
 31
0.0
210
0.0
220
0.0
230
1.0
 40
0.5758617009853071
 41
3.92699081698722
 42
3.987598387464565
  0
ELLIPSE
  5
1C5
330
6C
100
AcDbEntity
  8
Visible (ANSI)
100
AcDbEllipse
 10
79.72259293503126
 20
42.11237606763144
 30
0.0
 11
0.0683437500005368
 21
-0.0000000000000001
 31
0.0
210
0.0
220
0.0
230
1.0
 40
0.5758617009853069
 41
5.363700662383831
 42
5.497787143781894
  0
LINE
  5
1C6
330
6C
100
AcDbEntity
  8
Visible Narrow (ANSI)
100
AcDbLine
 10
79.67426660595491
 20
29.43096116081625
 30
0.0
 11
79.67426660595491
 21
42.0845467855667
 31
0.0
  0
LINE
  5
1C7
330
6C
100
AcDbEntity
  8
Visible (ANSI)
100
AcDbLine
 10
79.72259293503163
 20
42.05681969689282
 30
0.0
 11
79.76402497299178
 21
42.08067882074785
 31
0.0
  0
LINE
  5
1C8
330
6C
100
AcDbEntity
  8
Visible (ANSI)
100
AcDbLine
 10
79.67417821760726
 20
42.08469987842153
 30
0.0
 11
79.72259293503163
 21
42.05681969689282
 31
0.0
  0
LINE
  5
1C9
330
6C
100
AcDbEntity
  8
Visible (ANSI)
100
AcDbLine
 10
79.67417821760726
 20
42.08459768503092
 30
0.0
 11
79.67417821760726
 21
42.08469987842153
 31
0.0
  0
LINE
  5
1CA
330
6C
100
AcDbEntity
  8
Visible (ANSI)
100
AcDbLine
 10
79.67417821760725
 20
29.43090986688987
 30
0.0
 11
79.67417821760725
 21
29.43101206028048
 31
0.0
  0
LINE
  5
1CB
330
6C
100
AcDbEntity
  8
Visible (ANSI)
100
AcDbLine
 10
79.67417821760725
 20
29.43090986688987
 30
0.0
 11
79.6742669484534
 21
29.43096096358587
 31
0.0
  0
LINE
  5
1CC
330
6C
100
AcDbEntity
  8
Visible (ANSI)
100
AcDbLine
 10
79.76342906703916
 20
29.42723196863168
 30
0.0
 11
79.76402497299176
 21
29.42688880921618
 31
0.0
  0
LINE
  5
1CD
330
6C
100
AcDbEntity
  8
Visible (ANSI)
100
AcDbLine
 10
79.72259293503163
 20
29.40302968536116
 30
0.0
 11
79.67417821760725
 21
29.43090986688987
 31
0.0
  0
LINE
  5
1CE
330
6C
100
AcDbEntity
  8
Visible (ANSI)
100
AcDbLine
 10
79.76402497299176
 20
29.42688880921618
 30
0.0
 11
79.72259293503163
 21
29.40302968536116
 31
0.0
  0
LINE
  5
1CF
330
6C
100
AcDbEntity
  8
Visible (ANSI)
100
AcDbLine
 10
79.77091926410833
 20
29.43096116081627
 30
0.0
 11
80.06465584043056
 21
29.60011280529883
 31
0.0
  0
LINE
  5
1D0
330
6C
100
AcDbEntity
  8
Visible (ANSI)
100
AcDbLine
 10
80.06465584043057
 20
42.25369843004929
 30
0.0
 11
80.06465584043056
 21
29.60011280529883
 31
0.0
  0
LINE
  5
1D1
330
6C
100
AcDbEntity
  8
Visible (ANSI)
100
AcDbLine
 10
80.06465584043057
 20
42.25369843004929
 30
0.0
 11
79.77091926410834
 21
42.08454678556672
 31
0.0
  0
LINE
  5
1D2
330
6C
100
AcDbEntity
  8
Visible (ANSI)
100
AcDbLine
 10
79.67417821760725
 20
29.43101206028048
 30
0.0
 11
79.67426660595491
 21
29.43096116081625
 31
0.0
  0
LINE
  5
1D3
330
6C
100
AcDbEntity
  8
Visible (ANSI)
100
AcDbLine
 10
80.02322380247042
 20
42.2775575539043
 30
0.0
 11
80.06465584043057
 21
42.25369843004929
 31
0.0
  0
LINE
  5
1D4
330
6C
100
AcDbEntity
  8
Visible (ANSI)
100
AcDbLine
 10
79.76402497299176
 20
42.12829487506729
 30
0.0
 11
80.02322380247042
 21
42.2775575539043
 31
0.0
  0
LINE
  5
1D5
330
6C
100
AcDbEntity
  8
Visible (ANSI)
100
AcDbLine
 10
79.67426660595491
 20
42.0845467855667
 30
0.0
 11
79.67417821760726
 21
42.08459768503092
 31
0.0
  0
ELLIPSE
  5
1D6
330
6C
100
AcDbEntity
  8
Visible (ANSI)
100
AcDbEllipse
 10
79.53421526910611
 20
42.82505364406558
 30
0.0
 11
-0.0779737830600623
 21
0.1354036618976837
 31
0.0
210
0.0
220
0.0
230
1.0
 40
0.578093115915812
 41
0.2678448778124949
 42
2.873747775777336
  0
ELLIPSE
  5
1D7
330
6C
100
AcDbEntity
  8
Visible (ANSI)
100
AcDbEllipse
 10
70.18272808791266
 20
48.21021695896837
 30
0.0
 11
-0.0779737830600625
 21
0.135403661897684
 31
0.0
210
0.0
220
0.0
230
0.9999999999999998
 40
0.5780931159158122
 41
0.2678448778124949
 42
2.873747775777336
  0
ELLIPSE
  5
1D8
330
6C
100
AcDbEntity
  8
Visible (ANSI)
100
AcDbEllipse
 10
70.18272808791265
 20
34.33235451476621
 30
0.0
 11
-0.0779737830600624
 21
0.135403661897684
 31
0.0
210
0.0
220
0.0
230
1.0
 40
0.578093115915812
 41
0.2678448778124949
 42
2.873747775777336
  0
ELLIPSE
  5
1D9
330
6C
100
AcDbEntity
  8
Visible (ANSI)
100
AcDbEllipse
 10
79.53421526910611
 20
28.94719119986342
 30
0.0
 11
-0.0779737830600626
 21
0.1354036618976842
 31
0.0
210
0.0
220
0.0
230
1.0
 40
0.5780931159158121
 41
0.2678448778125189
 42
2.873747775777336
  0
ELLIPSE
  5
1DA
330
6C
100
AcDbEntity
  8
Visible (ANSI)
100
AcDbEllipse
 10
79.53421526910611
 20
42.44182842929563
 30
0.0
 11
0.048733614412544
 21
-0.0846272886860495
 31
0.0
210
0.0
220
0.0
230
1.0
 40
0.5780931159158121
 41
3.578838513251547
 42
5.845939447516956
  0
ELLIPSE
  5
1DB
330
6C
100
AcDbEntity
  8
Visible (ANSI)
100
AcDbEllipse
 10
70.18272808791266
 20
47.82699174419843
 30
0.0
 11
0.0487336144125441
 21
-0.0846272886860497
 31
0.0
210
0.0
220
0.0
230
1.0
 40
0.5780931159158121
 41
3.578838513251547
 42
5.845939447516957
  0
ELLIPSE
  5
1DC
330
6C
100
AcDbEntity
  8
Visible (ANSI)
100
AcDbEllipse
 10
70.18272808791265
 20
34.71557972953615
 30
0.0
 11
0.0487336144125441
 21
-0.0846272886860496
 31
0.0
210
0.0
220
0.0
230
1.0
 40
0.5780931159158121
 41
3.578838513251547
 42
5.845939447516956
  0
ELLIPSE
  5
1DD
330
6C
100
AcDbEntity
  8
Visible (ANSI)
100
AcDbEllipse
 10
79.53421526910611
 20
29.33041641463337
 30
0.0
 11
0.048733614412544
 21
-0.0846272886860495
 31
0.0
210
0.0
220
0.0
230
1.0
 40
0.5780931159158121
 41
3.578838513251628
 42
5.845939447516941
  0
ELLIPSE
  5
1DE
330
6C
100
AcDbEntity
  8
Visible (ANSI)
100
AcDbEllipse
 10
79.49278323114596
 20
42.80119452021056
 30
0.0
 11
-0.0779737830600624
 21
0.135403661897684
 31
0.0
210
0.0
220
0.0
230
1.0
 40
0.578093115915812
 41
0.0
 42
6.283185307179586
  0
ELLIPSE
  5
1DF
330
6C
100
AcDbEntity
  8
Visible (ANSI)
100
AcDbEllipse
 10
70.14129604995251
 20
48.18635783511335
 30
0.0
 11
-0.0779737830600624
 21
0.135403661897684
 31
0.0
210
0.0
220
0.0
230
1.0
 40
0.578093115915812
 41
0.0
 42
6.283185307179586
  0
ELLIPSE
  5
1E0
330
6C
100
AcDbEntity
  8
Visible (ANSI)
100
AcDbEllipse
 10
70.1412960499525
 20
34.30849539091119
 30
0.0
 11
-0.0779737830600624
 21
0.135403661897684
 31
0.0
210
0.0
220
0.0
230
1.0
 40
0.578093115915812
 41
0.0
 42
6.283185307179586
  0
ELLIPSE
  5
1E1
330
6C
100
AcDbEntity
  8
Visible (ANSI)
100
AcDbEllipse
 10
79.49278323114595
 20
28.9233320760084
 30
0.0
 11
-0.0779737830600624
 21
0.135403661897684
 31
0.0
210
0.0
220
0.0
230
1.0
 40
0.578093115915812
 41
0.0
 42
6.283185307179586
  0
ELLIPSE
  5
1E2
330
6C
100
AcDbEntity
  8
Visible (ANSI)
100
AcDbEllipse
 10
79.49278323114596
 20
42.41796930544062
 30
0.0
 11
-0.048733614412539
 21
0.0846272886860525
 31
0.0
210
0.0
220
0.0
230
1.0
 40
0.5780931159158121
 41
0.0
 42
6.283185307179586
  0
ELLIPSE
  5
1E3
330
6C
100
AcDbEntity
  8
Visible (ANSI)
100
AcDbEllipse
 10
70.14129604995251
 20
47.80313262034341
 30
0.0
 11
-0.048733614412539
 21
0.0846272886860525
 31
0.0
210
0.0
220
0.0
230
1.0
 40
0.5780931159158121
 41
0.0
 42
6.283185307179586
  0
ELLIPSE
  5
1E4
330
6C
100
AcDbEntity
  8
Visible (ANSI)
100
AcDbEllipse
 10
70.1412960499525
 20
34.69172060568113
 30
0.0
 11
-0.048733614412539
 21
0.0846272886860525
 31
0.0
210
0.0
220
0.0
230
1.0
 40
0.5780931159158121
 41
0.0
 42
6.283185307179586
  0
ELLIPSE
  5
1E5
330
6C
100
AcDbEntity
  8
Visible (ANSI)
100
AcDbEllipse
 10
79.49278323114595
 20
29.30655729077834
 30
0.0
 11
-0.048733614412539
 21
0.0846272886860525
 31
0.0
210
0.0
220
0.0
230
1.0
 40
0.5780931159158121
 41
0.0
 42
6.283185307179586
  0
LINE
  5
1E6
330
6C
100
AcDbEntity
  8
Visible (ANSI)
100
AcDbLine
 10
79.76402497299176
 20
28.8046332538204
 30
0.0
 11
79.76402497299176
 21
29.42688880921618
 31
0.0
  0
LINE
  5
1E7
330
6C
100
AcDbEntity
  8
Visible (ANSI)
100
AcDbLine
 10
79.54305410387094
 20
43.08566651321701
 30
0.0
 11
70.17388925314782
 21
48.4810097209646
 31
0.0
  0
LINE
  5
1E8
330
6C
100
AcDbEntity
  8
Visible (ANSI)
100
AcDbLine
 10
79.76402497299178
 20
42.08067882074785
 30
0.0
 11
79.76402497299178
 21
42.70293437614363
 31
0.0
  0
LINE
  5
1E9
330
6C
100
AcDbEntity
  8
Visible (ANSI)
100
AcDbLine
 10
79.72259293503163
 20
42.6790752522886
 30
0.0
 11
79.72259293503163
 21
42.05681969689282
 31
0.0
  0
LINE
  5
1EA
330
6C
100
AcDbEntity
  8
Visible (ANSI)
100
AcDbLine
 10
70.13245721518767
 20
48.45715059710958
 30
0.0
 11
79.5016220659108
 21
43.06180738936198
 31
0.0
  0
LINE
  5
1EB
330
6C
100
AcDbEntity
  8
Visible (ANSI)
100
AcDbLine
 10
69.91148634606687
 20
47.70666022576058
 30
0.0
 11
69.91148634606687
 21
48.32891578115637
 31
0.0
  0
LINE
  5
1EC
330
6C
100
AcDbEntity
  8
Visible (ANSI)
100
AcDbLine
 10
69.91148634606685
 20
34.43061465883315
 30
0.0
 11
69.91148634606685
 21
35.05287021422893
 31
0.0
  0
LINE
  5
1ED
330
6C
100
AcDbEntity
  8
Visible (ANSI)
100
AcDbLine
 10
79.50162206591079
 20
28.65253931401217
 30
0.0
 11
70.13245721518767
 21
34.04788252175977
 31
0.0
  0
LINE
  5
1EE
330
6C
100
AcDbEntity
  8
Visible (ANSI)
100
AcDbLine
 10
79.72259293503163
 20
29.40302968536116
 30
0.0
 11
79.72259293503161
 21
28.78077412996538
 31
0.0
  0
LINE
  5
1EF
330
6C
100
AcDbEntity
  8
Visible (ANSI)
100
AcDbLine
 10
79.54305410387092
 20
28.67639843786719
 30
0.0
 11
79.76402497299176
 21
28.8046332538204
 31
0.0
  0
LINE
  5
1F0
330
6C
100
AcDbEntity
  8
Visible (ANSI)
100
AcDbLine
 10
79.72259293503161
 20
28.78077412996538
 30
0.0
 11
79.50162206591079
 21
28.65253931401217
 31
0.0
  0
LINE
  5
1F1
330
6C
100
AcDbEntity
  8
Visible (ANSI)
100
AcDbLine
 10
79.50162206591079
 20
28.65253931401217
 30
0.0
 11
79.54305410387092
 21
28.67639843786719
 31
0.0
  0
LINE
  5
1F2
330
6C
100
AcDbEntity
  8
Visible (ANSI)
100
AcDbLine
 10
79.76402497299176
 20
28.8046332538204
 30
0.0
 11
79.72259293503161
 21
28.78077412996538
 31
0.0
  0
LINE
  5
1F3
330
6C
100
AcDbEntity
  8
Visible (ANSI)
100
AcDbLine
 10
79.76402497299178
 20
42.70293437614363
 30
0.0
 11
79.54305410387094
 21
43.08566651321701
 31
0.0
  0
LINE
  5
1F4
330
6C
100
AcDbEntity
  8
Visible (ANSI)
100
AcDbLine
 10
79.5016220659108
 20
43.06180738936198
 30
0.0
 11
79.72259293503163
 21
42.6790752522886
 31
0.0
  0
LINE
  5
1F5
330
6C
100
AcDbEntity
  8
Visible (ANSI)
100
AcDbLine
 10
79.72259293503163
 20
42.6790752522886
 30
0.0
 11
79.76402497299178
 21
42.70293437614363
 31
0.0
  0
LINE
  5
1F6
330
6C
100
AcDbEntity
  8
Visible (ANSI)
100
AcDbLine
 10
79.54305410387094
 20
43.08566651321701
 30
0.0
 11
79.5016220659108
 21
43.06180738936198
 31
0.0
  0
LINE
  5
1F7
330
6C
100
AcDbEntity
  8
Visible (ANSI)
100
AcDbLine
 10
69.91148634606687
 20
48.32891578115637
 30
0.0
 11
70.13245721518767
 21
48.45715059710958
 31
0.0
  0
LINE
  5
1F8
330
6C
100
AcDbEntity
  8
Visible (ANSI)
100
AcDbLine
 10
70.13245721518767
 20
48.45715059710958
 30
0.0
 11
70.17388925314782
 21
48.4810097209646
 31
0.0
  0
LINE
  5
1F9
330
6C
100
AcDbEntity
  8
Visible (ANSI)
100
AcDbLine
 10
69.91148634606687
 20
47.70666022576058
 30
0.0
 11
69.95990106349123
 21
47.67878004423187
 31
0.0
  0
LINE
  5
1FA
330
6C
100
AcDbEntity
  8
Visible (ANSI)
100
AcDbLine
 10
69.95990106349123
 20
47.67878004423187
 30
0.0
 11
69.95990106349123
 21
47.67867785084127
 31
0.0
  0
LINE
  5
1FB
330
6C
100
AcDbEntity
  8
Visible Narrow (ANSI)
100
AcDbLine
 10
69.95981267514356
 20
47.67872875030549
 30
0.0
 11
69.95981267514356
 21
35.02514312555505
 31
0.0
  0
LINE
  5
1FC
330
6C
100
AcDbEntity
  8
Visible (ANSI)
100
AcDbLine
 10
69.95990106349122
 20
35.02509222609082
 30
0.0
 11
69.95990106349122
 21
35.02499003270022
 31
0.0
  0
LINE
  5
1FD
330
6C
100
AcDbEntity
  8
Visible (ANSI)
100
AcDbLine
 10
69.95990106349122
 20
35.02499003270022
 30
0.0
 11
69.91148634606685
 21
35.05287021422893
 31
0.0
  0
ELLIPSE
  5
1FE
330
6C
100
AcDbEntity
  8
Visible (ANSI)
100
AcDbEllipse
 10
70.00813900422028
 20
47.70655803236999
 30
0.0
 11
-0.0683437499999951
 21
0.0000000000000001
 31
0.0
210
0.0
220
0.0
230
1.0
 40
0.5758617009853069
 41
0.7247905929202983
 42
0.7853981633975807
  0
ELLIPSE
  5
1FF
330
6C
100
AcDbEntity
  8
Visible (ANSI)
100
AcDbEllipse
 10
70.00813900422027
 20
35.05297240761954
 30
0.0
 11
-0.0683437499999999
 21
0.0000000000000001
 31
0.0
210
0.0
220
0.0
230
1.0
 40
0.575861700985307
 41
0.0
 42
0.7853981633974359
  0
LINE
  5
200
330
6C
100
AcDbEntity
  8
Visible (ANSI)
100
AcDbLine
 10
69.91148634606685
 20
35.05287021422893
 30
0.0
 11
69.93979525422028
 21
35.0691722302312
 31
0.0
  0
LINE
  5
201
330
6C
100
AcDbEntity
  8
Visible (ANSI)
100
AcDbLine
 10
69.9397952542203
 20
47.69035820975831
 30
0.0
 11
69.93979525422028
 21
35.05297240761954
 31
0.0
  0
LINE
  5
202
330
6C
100
AcDbEntity
  8
Visible (ANSI)
100
AcDbLine
 10
69.95990106349123
 20
47.67867785084127
 30
0.0
 11
69.95981267514356
 21
47.67872875030549
 31
0.0
  0
LINE
  5
203
330
6C
100
AcDbEntity
  8
Visible (ANSI)
100
AcDbLine
 10
69.95981267514356
 20
35.02514312555505
 30
0.0
 11
69.95990106349122
 21
35.02509222609082
 31
0.0
  0
LINE
  5
204
330
6C
100
AcDbEntity
  8
Visible (ANSI)
100
AcDbLine
 10
70.12086846889999
 20
47.82713317778063
 30
0.0
 11
70.17222315085937
 21
47.85670637228731
 31
0.0
  0
LINE
  5
205
330
6C
100
AcDbEntity
  8
Visible (ANSI)
100
AcDbLine
 10
70.19511210753518
 20
47.82216899810239
 30
0.0
 11
70.13925131562221
 21
47.79000090745299
 31
0.0
  0
LINE
  5
206
330
6C
100
AcDbEntity
  8
Visible (ANSI)
100
AcDbLine
 10
70.13245721518767
 20
34.04788252175977
 30
0.0
 11
69.91148634606685
 21
34.43061465883315
 31
0.0
  0
DIMENSION
  5
207
330
6C
100
AcDbEntity
  8
Dimension (ANSI)
100
AcDbDimension
  2
*D4
 10
8.673164693800737
 20
42.17424550502983
 30
0.0
 11
8.67316469380073
 21
28.07424550502983
 31
0.0
 70
   160
  1
<>
 42
28.2
  3
Default (ANSI)
100
AcDbAlignedDimension
 13
14.72509241012437
 23
13.97424550502983
 33
0.0
 14
14.72509241012436
 24
42.17424550502983
 34
0.0
 50
90.0
100
AcDbRotatedDimension
1001
ACAD
1000
DSTYLE
1002
{
1070
   289
1070
     1
1070
   271
1070
     2
1070
   272
1070
     2
1070
    48
1040
0.0
1070
    47
1040
0.0
1002
}
  0
DIMENSION
  5
2F4
330
6C
100
AcDbEntity
  8
Dimension (ANSI)
100
AcDbDimension
  2
*D5
 10
36.42509241012437
 20
46.29013642180051
 30
0.0
 11
25.32509241012436
 21
46.29013642180051
 31
0.0
 70
   160
  1
<>
 42
22.20000000000001
  3
Default (ANSI)
100
AcDbAlignedDimension
 13
14.22509241012436
 23
41.67424550502983
 33
0.0
 14
36.42509241012437
 24
41.67424550502983
 34
0.0
100
AcDbRotatedDimension
1001
ACAD
1000
DSTYLE
1002
{
1070
   289
1070
     1
1070
    73
1070
     0
1070
    74
1070
     0
1070
   271
1070
     2
1070
   272
1070
     2
1070
    48
1040
0.0
1070
    47
1040
0.0
1002
}
  0
DIMENSION
  5
3DE
330
6C
100
AcDbEntity
  8
Dimension (ANSI)
100
AcDbDimension
  2
*D6
 10
13.13589682006634
 20
15.24424550502983
 30
0.0
 11
11.72389963535233
 21
13.06108051455576
 31
0.0
 70
   160
  1
<>
 42
0.75
  3
Default (ANSI)
100
AcDbAlignedDimension
 13
14.74509241012436
 23
14.49424550502983
 33
0.0
 14
14.74509241012436
 24
15.24424550502983
 34
0.0
 50
90.0
100
AcDbRotatedDimension
1001
ACAD
1000
DSTYLE
1002
{
1070
   289
1070
     1
1070
   271
1070
     2
1070
   272
1070
     2
1070
    48
1040
0.0
1070
    47
1040
0.0
1002
}
  0
DIMENSION
  5
4DC
330
6C
100
AcDbEntity
  8
Dimension (ANSI)
100
AcDbDimension
  2
*D7
 10
39.89323118693252
 20
41.65424550502983
 30
0.0
 11
38.47780888455386
 21
40.22071584676845
 31
0.0
 70
   160
  1
<>
 42
0.5199999999999961
  3
Default (ANSI)
100
AcDbAlignedDimension
 13
35.92509241012435
 23
42.17424550502983
 33
0.0
 14
35.90509241012437
 24
41.65424550502983
 34
0.0
 50
270.0
100
AcDbRotatedDimension
1001
ACAD
1000
DSTYLE
1002
{
1070
   289
1070
     1
1070
   271
1070
     2
1070
   272
1070
     2
1070
    48
1040
0.0
1070
    47
1040
0.0
1002
}
  0
DIMENSION
  5
5DC
330
6C
100
AcDbEntity
  8
Dimension (ANSI)
100
AcDbDimension
  2
*D8
 10
35.90509241012437
 20
44.82385180424242
 30
0.0
 11
38.59014551913943
 21
44.82385180424242
 31
0.0
 70
   160
  1
<>
 42
0.5199999999999961
  3
Default (ANSI)
100
AcDbAlignedDimension
 13
36.42509241012437
 23
41.67424550502983
 33
0.0
 14
35.90509241012437
 24
41.65424550502983
 34
0.0
 50
180.0
100
AcDbRotatedDimension
1001
ACAD
1000
DSTYLE
1002
{
1070
   289
1070
     1
1070
    73
1070
     0
1070
    74
1070
     0
1070
   271
1070
     2
1070
   272
1070
     2
1070
    48
1040
0.0
1070
    47
1040
0.0
1002
}
  0
DIMENSION
  5
6C6
330
6C
100
AcDbEntity
  8
Dimension (ANSI)
100
AcDbDimension
  2
*D9
 10
10.62167364379484
 20
41.65424550502983
 30
0.0
 11
10.62167364379483
 21
33.92977949138165
 31
0.0
 70
   160
  1
<>
 42
27.16
  3
Default (ANSI)
100
AcDbAlignedDimension
 13
14.74509241012436
 23
14.49424550502983
 33
0.0
 14
14.74509241012436
 24
41.65424550502983
 34
0.0
 50
90.0
100
AcDbRotatedDimension
1001
ACAD
1000
DSTYLE
1002
{
1070
   289
1070
     1
1070
   271
1070
     3
1070
   272
1070
     3
1070
    48
1040
0.0
1070
    47
1040
0.0
1002
}
  0
DIMENSION
  5
7B0
330
6C
100
AcDbEntity
  8
Dimension (ANSI)
100
AcDbDimension
  2
*D10
 10
54.21582266185865
 20
45.18065495384872
 30
0.0
 11
51.27676955284343
 21
45.18065495384872
 31
0.0
 70
   160
  1
<>
 42
0.7740000000001502
  3
Default (ANSI)
100
AcDbAlignedDimension
 13
53.4418226618585
 23
42.17424550502983
 33
0.0
 14
54.21582266185865
 24
40.45624550502983
 34
0.0
 50
180.0
100
AcDbRotatedDimension
1001
ACAD
1000
DSTYLE
1002
{
1070
   289
1070
     1
1070
    73
1070
     0
1070
    74
1070
     0
1070
   271
1070
     2
1070
   272
1070
     2
1070
    48
1040
0.0
1070
    47
1040
0.0
1002
}
  0
MTEXT
  5
89A
102
{ACAD_REACTORS
330
89B
102
}
330
6C
100
AcDbEntity
  8
Symbol (ANSI)
100
AcDbMText
 10
57.05950604972493
 20
31.81131553626774
 30
0.0
 40
0.600000007415381
 41
2.45397086218586
 71
     1
 72
     1
  1
{12 GA.}
  7
Note Text (ANSI)
 73
     1
 44
1.0
1001
ACAD
1000
MTEXTBEGIN
1070
    73
1070
     1
1070
    44
1040
1.0
1070
    74
1070
     0
1000
MTEXTEND
  0
LEADER
  5
89B
330
6C
100
AcDbEntity
  8
Symbol (ANSI)
100
AcDbLeader
  3
Default (ANSI)$7
 73
     0
 74
     0
 75
     1
 40
0.624177307915665
 41
2.286366717310189
 76
     3
 10
54.21582266185865
 20
28.07424550502983
 30
0.0
 10
56.40989976165887
 20
31.51131553256005
 30
0.0
 10
56.9020257347643
 20
31.51131553256005
 30
0.0
340
89A
210
0.0
220
0.0
230
0.9999999999999998
213
0.0
223
-0.3000000037076905
233
0.0
1001
ACAD
1000
DSTYLE
1002
{
1070
    77
1070
     0
1002
}
  0
DIMENSION
  5
89C
330
6C
100
AcDbEntity
  8
Dimension (ANSI)
100
AcDbDimension
  2
*D11
 10
37.37046448958736
 20
14.47424550502983
 30
0.0
 11
38.78729713453381
 21
15.9074104955039
 31
0.0
 70
   160
  1
<>
 42
0.5
  3
Default (ANSI)
100
AcDbAlignedDimension
 13
35.92509241012436
 23
13.97424550502983
 33
0.0
 14
36.42509241012437
 24
14.47424550502983
 34
0.0
 50
90.0
100
AcDbRotatedDimension
1001
ACAD
1000
DSTYLE
1002
{
1070
   289
1070
     1
1070
   271
1070
     2
1070
   272
1070
     2
1070
    48
1040
0.0
1070
    47
1040
0.0
1002
}
  0
DIMENSION
  5
99C
330
6C
100
AcDbEntity
  8
Dimension (ANSI)
100
AcDbDimension
  2
*D12
 10
35.92509241012436
 20
11.61204078062038
 30
0.0
 11
33.76003930110931
 21
11.61204078062038
 31
0.0
 70
   160
  1
<>
 42
0.5000000000000071
  3
Default (ANSI)
100
AcDbAlignedDimension
 13
36.42509241012437
 23
14.47424550502983
 33
0.0
 14
35.92509241012436
 24
13.97424550502983
 34
0.0
 50
180.0
100
AcDbRotatedDimension
1001
ACAD
1000
DSTYLE
1002
{
1070
   289
1070
     1
1070
    73
1070
     0
1070
    74
1070
     0
1070
   271
1070
     2
1070
   272
1070
     2
1070
    48
1040
0.0
1070
    47
1040
0.0
1002
}
  0
DIMENSION
  5
A86
330
6C
100
AcDbEntity
  8
Dimension (ANSI)
100
AcDbDimension
  2
*D13
 10
14.89633272680866
 20
41.45518178003394
 30
0.0
 11
8.872186263805939
 21
45.85927999483985
 31
0.0
 70
   163
  1
<>{\PTYP.(4PL.)}
 71
     3
 42
0.4999999999999965
  3
Default (ANSI)
100
AcDbDiametricDimension
 15
14.59385209344007
 25
41.85330923002569
 35
0.0
 40
0.0
1001
ACAD_DSTYLE_DIMRADIAL_EXTENSION
1070
   387
1070
     1
1070
   388
1040
0.0
1070
   390
1040
0.0
1001
ACAD
1000
DSTYLE
1002
{
1070
   145
1040
-0.25
1070
   144
1040
0.9999999999999786
1070
   271
1070
     2
1070
   272
1070
     2
1070
    48
1040
0.0
1070
    47
1040
0.0
1002
}
  0
DIMENSION
  5
B40
330
6C
100
AcDbEntity
  8
Dimension (ANSI)
100
AcDbDimension
  2
*D14
 10
14.68295947268252
 20
15.38761063532604
 30
0.0
 11
18.84667989346741
 21
12.25699733099921
 31
0.0
 70
   163
  1
<>{\PTYP. (4PL.)}
 42
0.3125
  3
Default (ANSI)
100
AcDbDiametricDimension
 15
14.80722534756621
 25
15.10088037473362
 35
0.0
 40
0.0
1001
ACAD_DSTYLE_DIMRADIAL_EXTENSION
1070
   387
1070
     1
1070
   388
1040
0.0
1070
   390
1040
0.0
1001
ACAD
1000
DSTYLE
1002
{
1070
   145
1040
-0.25
1070
   144
1040
0.9999999999999744
1070
   271
1070
     2
1070
   272
1070
     2
1070
    48
1040
0.0
1070
    47
1040
0.0
1002
}
  0
DIMENSION
  5
BF9
330
6C
100
AcDbEntity
  8
Dimension (ANSI)
100
AcDbDimension
  2
*D15
 10
14.74509241012436
 20
44.82385180424244
 30
0.0
 11
25.32509241012437
 21
44.82385180424244
 31
0.0
 70
   160
  1
<>
 42
21.16
  3
Default (ANSI)
100
AcDbAlignedDimension
 13
35.90509241012437
 23
41.65424550502983
 33
0.0
 14
14.74509241012436
 24
41.65424550502983
 34
0.0
 50
180.0
100
AcDbRotatedDimension
1001
ACAD
1000
DSTYLE
1002
{
1070
   289
1070
     1
1070
    73
1070
     0
1070
    74
1070
     0
1070
   271
1070
     2
1070
   272
1070
     2
1070
    48
1040
0.0
1070
    47
1040
0.0
1002
}
  0
ENDSEC
  0
SECTION
  2
OBJECTS
  0
DICTIONARY
  5
C
330
0
100
AcDbDictionary
281
     1
  3
ACAD_CIP_PREVIOUS_PRODUCT_INFO
350
CE3
  3
ACAD_COLOR
350
63
  3
ACAD_GROUP
350
D
  3
ACAD_LAYOUT
350
62
  3
ACAD_MATERIAL
350
10
  3
ACAD_MLEADERSTYLE
350
66
  3
ACAD_MLINESTYLE
350
5F
  3
ACAD_PLOTSETTINGS
350
61
  3
ACAD_PLOTSTYLENAME
350
E
  3
ACAD_SCALELIST
350
42
  3
ACAD_TABLESTYLE
350
64
  3
ACAD_VISUALSTYLE
350
29
  3
ACDB_RECOMPOSE_DATA
350
CF1
  3
AcDbVariableDictionary
350
D7
  3
DWGPROPS
350
CF2
  0
DICTIONARY
  5
D2E
330
B3A
100
AcDbDictionary
280
     1
281
     1
  3
ACAD_MTEXT_RT
360
D2F
  0
DICTIONARY
  5
D30
330
BF3
100
AcDbDictionary
280
     1
281
     1
  3
ACAD_MTEXT_RT
360
D31
  0
XRECORD
  5
CE3
102
{ACAD_REACTORS
330
C
102
}
330
C
100
AcDbXrecord
280
     1
300
INVNTOR
300
2012
300
85795PDSP_2012_0F
  0
DICTIONARY
  5
63
102
{ACAD_REACTORS
330
C
102
}
330
C
100
AcDbDictionary
281
     1
  0
DICTIONARY
  5
D
102
{ACAD_REACTORS
330
C
102
}
330
C
100
AcDbDictionary
281
     1
  0
DICTIONARY
  5
62
102
{ACAD_REACTORS
330
C
102
}
330
C
100
AcDbDictionary
281
     1
  3
Layout1
350
6B
  3
Layout2
350
73
  3
Model
350
6F
  0
DICTIONARY
  5
10
102
{ACAD_REACTORS
330
C
102
}
330
C
100
AcDbDictionary
281
     1
  3
ByBlock
350
19
  3
ByLayer
350
11
  3
Global
350
21
  0
DICTIONARY
  5
66
102
{ACAD_REACTORS
330
C
102
}
330
C
100
AcDbDictionary
281
     1
  3
Standard
350
67
  0
DICTIONARY
  5
5F
102
{ACAD_REACTORS
330
C
102
}
330
C
100
AcDbDictionary
281
     1
  3
Standard
350
60
  0
DICTIONARY
  5
61
102
{ACAD_REACTORS
330
C
102
}
330
C
100
AcDbDictionary
281
     1
  0
ACDBDICTIONARYWDFLT
  5
E
102
{ACAD_REACTORS
330
C
102
}
330
C
100
AcDbDictionary
281
     1
  3
Normal
350
F
100
AcDbDictionaryWithDefault
340
F
  0
DICTIONARY
  5
42
102
{ACAD_REACTORS
330
C
102
}
330
C
100
AcDbDictionary
281
     1
  3
A0
350
43
  3
A1
350
44
  3
A2
350
45
  3
A3
350
46
  3
A4
350
47
  3
A5
350
48
  3
A6
350
49
  3
A7
350
4A
  3
A8
350
4B
  3
A9
350
4C
  3
B0
350
4D
  3
B1
350
4E
  3
B2
350
4F
  3
B3
350
50
  3
B4
350
51
  3
B5
350
52
  3
B6
350
53
  0
DICTIONARY
  5
64
102
{ACAD_REACTORS
330
C
102
}
330
C
100
AcDbDictionary
281
     1
  3
Standard
350
65
  0
DICTIONARY
  5
29
102
{ACAD_REACTORS
330
C
102
}
330
C
100
AcDbDictionary
281
     1
  3
2dWireframe
350
2F
  3
Basic
350
2E
  3
Brighten
350
35
  3
ColorChange
350
39
  3
Conceptual
350
32
  3
Dim
350
34
  3
EdgeColorOff
350
41
  3
Facepattern
350
38
  3
Flat
350
2A
  3
FlatWithEdges
350
2B
  3
Gouraud
350
2C
  3
GouraudWithEdges
350
2D
  3
Hidden
350
31
  3
JitterOff
350
3F
  3
Linepattern
350
37
  3
OverhangOff
350
40
  3
Realistic
350
33
  3
Shaded
350
3E
  3
Shaded with edges
350
3D
  3
Shades of Gray
350
3A
  3
Sketchy
350
3B
  3
Thicken
350
36
  3
Wireframe
350
30
  3
X-Ray
350
3C
  0
XRECORD
  5
CF1
102
{ACAD_REACTORS
330
C
102
}
330
C
100
AcDbXrecord
280
     1
 90
        1
330
65
  0
DICTIONARY
  5
D7
102
{ACAD_REACTORS
330
C
102
}
330
C
100
AcDbDictionary
281
     1
  3
CANNOSCALE
350
DA
  3
CMLEADERSTYLE
350
D9
  3
CTABLESTYLE
350
D8
  3
DIMASSOC
350
CEB
  3
HIDETEXT
350
CEA
  3
INDEXCTL
350
CE9
  3
LAYEREVAL
350
CE6
  3
LAYERNOTIFY
350
CE7
  3
LIGHTINGUNITS
350
CE5
  3
MSLTSCALE
350
CE4
  3
SORTENTS
350
CE8
  3
XCLIPFRAME
350
CEC
  0
XRECORD
  5
CF2
102
{ACAD_REACTORS
330
C
102
}
330
C
100
AcDbXrecord
280
     1
  1
DWGPROPS COOKIE
  2

  3

  4
EC
  6

  7

  8

  9
-
300
Manager=
301
Company=
302
Category=
303
Part Number=NP3024C
304
Description=NPC PANEL MASTER VIEW
305
Project=
306
Designer=EC
307
Engineer=
308
Authority=
309
Cost Center=
 40
0.0000372569444444
 41
2455944.488818901
 42
2455944.488819086
  1

 90
       20
300
Vendor=
300
User Status=
300
Design Status=WorkInProgress
300
Checked by=JG
300
Date Checked=02/19/2009
300
Engr Approved by=
300
Mfg Approved by=
300
DWG. NO=
300
NUMBER OF SHEETS=1
300
DRAWING #=1
  0
XRECORD
  5
D2F
102
{ACAD_REACTORS
330
D2E
102
}
330
D2E
100
AcDbXrecord
280
     1
 40
29624.0
  1
\A1;\U+22050.50{\PTYP.(4PL.)}
  0
XRECORD
  5
D31
102
{ACAD_REACTORS
330
D30
102
}
330
D30
100
AcDbXrecord
280
     1
 40
30807.0
  1
\A1;\U+22050.31{\PTYP. (4PL.)}
  0
LAYOUT
  5
6B
102
{ACAD_XDICTIONARY
360
D28
102
}
102
{ACAD_REACTORS
330
62
102
}
330
62
100
AcDbPlotSettings
  1

  2

  4

  6

 40
0.0
 41
0.0
 42
0.0
 43
0.0
 44
0.0
 45
0.0
 46
0.0
 47
0.0
 48
0.0
 49
0.0
140
0.0
141
0.0
142
1.0
143
1.0
 70
   688
 72
     0
 73
     0
 74
     5
  7

 75
    16
147
1.0
148
0.0
149
0.0
100
AcDbLayout
  1
Layout1
 70
     1
 71
     1
 10
0.0
 20
0.0
 11
12.0
 21
9.0
 12
0.0
 22
0.0
 32
0.0
 14
0.0
 24
0.0
 34
0.0
 15
0.0
 25
0.0
 35
0.0
146
0.0
 13
0.0
 23
0.0
 33
0.0
 16
1.0
 26
0.0
 36
0.0
 17
0.0
 27
1.0
 37
0.0
 76
     0
330
68
  0
LAYOUT
  5
73
102
{ACAD_XDICTIONARY
360
D2C
102
}
102
{ACAD_REACTORS
330
62
102
}
330
62
100
AcDbPlotSettings
  1

  2

  4

  6

 40
0.0
 41
0.0
 42
0.0
 43
0.0
 44
0.0
 45
0.0
 46
0.0
 47
0.0
 48
0.0
 49
0.0
140
0.0
141
0.0
142
1.0
143
1.0
 70
   688
 72
     0
 73
     0
 74
     5
  7

 75
    16
147
1.0
148
0.0
149
0.0
100
AcDbLayout
  1
Layout2
 70
     1
 71
     2
 10
0.0
 20
0.0
 11
12.0
 21
9.0
 12
0.0
 22
0.0
 32
0.0
 14
0.0
 24
0.0
 34
0.0
 15
0.0
 25
0.0
 35
0.0
146
0.0
 13
0.0
 23
0.0
 33
0.0
 16
1.0
 26
0.0
 36
0.0
 17
0.0
 27
1.0
 37
0.0
 76
     0
330
70
  0
LAYOUT
  5
6F
102
{ACAD_XDICTIONARY
360
D2A
102
}
102
{ACAD_REACTORS
330
62
102
}
330
62
100
AcDbPlotSettings
  1

  2

  4

  6

 40
0.0
 41
0.0
 42
0.0
 43
0.0
 44
0.0
 45
0.0
 46
0.0
 47
0.0
 48
0.0
 49
0.0
140
0.0
141
0.0
142
1.0
143
1.0
 70
  1712
 72
     0
 73
     0
 74
     0
  7

 75
     0
147
1.0
148
0.0
149
0.0
100
AcDbLayout
  1
Model
 70
     1
 71
     0
 10
0.0
 20
0.0
 11
12.0
 21
9.0
 12
0.0
 22
0.0
 32
0.0
 14
0.0
 24
0.0
 34
0.0
 15
0.0
 25
0.0
 35
0.0
146
0.0
 13
0.0
 23
0.0
 33
0.0
 16
1.0
 26
0.0
 36
0.0
 17
0.0
 27
1.0
 37
0.0
 76
     0
330
6C
  0
MATERIAL
  5
19
102
{ACAD_XDICTIONARY
360
1A
102
}
102
{ACAD_REACTORS
330
10
102
}
330
10
100
AcDbMaterial
  1
ByBlock
 72
     0
 43
0.0208333333333333
 43
0.0
 43
0.0
 43
0.0
 43
0.0
 43
0.0208333333333333
 43
0.0
 43
0.0
 43
0.0
 43
0.0
 43
1.0
 43
0.0
 43
0.0
 43
0.0
 43
0.0
 43
1.0
 77
     0
 47
0.0208333333333333
 47
0.0
 47
0.0
 47
0.0
 47
0.0
 47
0.0208333333333333
 47
0.0
 47
0.0
 47
0.0
 47
0.0
 47
1.0
 47
0.0
 47
0.0
 47
0.0
 47
0.0
 47
1.0
171
     0
 49
0.0208333333333333
 49
0.0
 49
0.0
 49
0.0
 49
0.0
 49
0.0208333333333333
 49
0.0
 49
0.0
 49
0.0
 49
0.0
 49
1.0
 49
0.0
 49
0.0
 49
0.0
 49
0.0
 49
1.0
175
     0
142
0.0208333333333333
142
0.0
142
0.0
142
0.0
142
0.0
142
0.0208333333333333
142
0.0
142
0.0
142
0.0
142
0.0
142
1.0
142
0.0
142
0.0
142
0.0
142
0.0
142
1.0
179
     0
144
0.0208333333333333
144
0.0
144
0.0
144
0.0
144
0.0
144
0.0208333333333333
144
0.0
144
0.0
144
0.0
144
0.0
144
1.0
144
0.0
144
0.0
144
0.0
144
0.0
144
1.0
147
0.0208333333333333
147
0.0
147
0.0
147
0.0
147
0.0
147
0.0208333333333333
147
0.0
147
0.0
147
0.0
147
0.0
147
1.0
147
0.0
147
0.0
147
0.0
147
0.0
147
1.0
  0
MATERIAL
  5
11
102
{ACAD_XDICTIONARY
360
12
102
}
102
{ACAD_REACTORS
330
10
102
}
330
10
100
AcDbMaterial
  1
ByLayer
 72
     0
 43
0.0208333333333333
 43
0.0
 43
0.0
 43
0.0
 43
0.0
 43
0.0208333333333333
 43
0.0
 43
0.0
 43
0.0
 43
0.0
 43
1.0
 43
0.0
 43
0.0
 43
0.0
 43
0.0
 43
1.0
 77
     0
 47
0.0208333333333333
 47
0.0
 47
0.0
 47
0.0
 47
0.0
 47
0.0208333333333333
 47
0.0
 47
0.0
 47
0.0
 47
0.0
 47
1.0
 47
0.0
 47
0.0
 47
0.0
 47
0.0
 47
1.0
171
     0
 49
0.0208333333333333
 49
0.0
 49
0.0
 49
0.0
 49
0.0
 49
0.0208333333333333
 49
0.0
 49
0.0
 49
0.0
 49
0.0
 49
1.0
 49
0.0
 49
0.0
 49
0.0
 49
0.0
 49
1.0
175
     0
142
0.0208333333333333
142
0.0
142
0.0
142
0.0
142
0.0
142
0.0208333333333333
142
0.0
142
0.0
142
0.0
142
0.0
142
1.0
142
0.0
142
0.0
142
0.0
142
0.0
142
1.0
179
     0
144
0.0208333333333333
144
0.0
144
0.0
144
0.0
144
0.0
144
0.0208333333333333
144
0.0
144
0.0
144
0.0
144
0.0
144
1.0
144
0.0
144
0.0
144
0.0
144
0.0
144
1.0
147
0.0208333333333333
147
0.0
147
0.0
147
0.0
147
0.0
147
0.0208333333333333
147
0.0
147
0.0
147
0.0
147
0.0
147
1.0
147
0.0
147
0.0
147
0.0
147
0.0
147
1.0
  0
MATERIAL
  5
21
102
{ACAD_XDICTIONARY
360
22
102
}
102
{ACAD_REACTORS
330
10
102
}
330
10
100
AcDbMaterial
  1
Global
 72
     0
 43
0.0208333333333333
 43
0.0
 43
0.0
 43
0.0
 43
0.0
 43
0.0208333333333333
 43
0.0
 43
0.0
 43
0.0
 43
0.0
 43
1.0
 43
0.0
 43
0.0
 43
0.0
 43
0.0
 43
1.0
 77
     0
 47
0.0208333333333333
 47
0.0
 47
0.0
 47
0.0
 47
0.0
 47
0.0208333333333333
 47
0.0
 47
0.0
 47
0.0
 47
0.0
 47
1.0
 47
0.0
 47
0.0
 47
0.0
 47
0.0
 47
1.0
171
     0
 49
0.0208333333333333
 49
0.0
 49
0.0
 49
0.0
 49
0.0
 49
0.0208333333333333
 49
0.0
 49
0.0
 49
0.0
 49
0.0
 49
1.0
 49
0.0
 49
0.0
 49
0.0
 49
0.0
 49
1.0
175
     0
142
0.0208333333333333
142
0.0
142
0.0
142
0.0
142
0.0
142
0.0208333333333333
142
0.0
142
0.0
142
0.0
142
0.0
142
1.0
142
0.0
142
0.0
142
0.0
142
0.0
142
1.0
179
     0
144
0.0208333333333333
144
0.0
144
0.0
144
0.0
144
0.0
144
0.0208333333333333
144
0.0
144
0.0
144
0.0
144
0.0
144
1.0
144
0.0
144
0.0
144
0.0
144
0.0
144
1.0
147
0.0208333333333333
147
0.0
147
0.0
147
0.0
147
0.0
147
0.0208333333333333
147
0.0
147
0.0
147
0.0
147
0.0
147
1.0
147
0.0
147
0.0
147
0.0
147
0.0
147
1.0
  0
MLEADERSTYLE
  5
67
102
{ACAD_XDICTIONARY
360
CEF
102
}
102
{ACAD_REACTORS
330
66
102
}
330
66
100
AcDbMLeaderStyle
170
     2
171
     1
172
     0
 90
        2
 40
0.0
 41
0.0
173
     1
 91
-1056964608
340
5B
 92
       -2
290
     1
 42
0.09
291
     1
 43
0.36
  3
Standard
 44
0.18
300

342
55
174
     1
178
     6
175
     1
176
     0
 93
-1056964608
 45
0.18
292
     0
297
     0
 46
0.18
 94
-1056964608
 47
1.0
 49
1.0
140
1.0
293
     1
141
0.0
294
     1
177
     0
142
1.0
295
     0
296
     0
143
0.125
1001
ACAD_MLEADERVER
1070
     2
  0
MLINESTYLE
  5
60
102
{ACAD_REACTORS
330
5F
102
}
330
5F
100
AcDbMlineStyle
  2
STANDARD
 70
     0
  3

 62
   256
 51
90.0
 52
90.0
 71
     2
 49
0.5
 62
   256
  6
BYLAYER
 49
-0.5
 62
   256
  6
BYLAYER
  0
ACDBPLACEHOLDER
  5
F
102
{ACAD_REACTORS
330
E
102
}
330
E
  0
SCALE
  5
43
102
{ACAD_REACTORS
330
42
102
}
330
42
100
AcDbScale
 70
     0
300
1:1
140
1.0
141
1.0
290
     1
  0
SCALE
  5
44
102
{ACAD_REACTORS
330
42
102
}
330
42
100
AcDbScale
 70
     0
300
1/128" = 1'-0"
140
0.0078125
141
12.0
290
     0
  0
SCALE
  5
45
102
{ACAD_REACTORS
330
42
102
}
330
42
100
AcDbScale
 70
     0
300
1/64" = 1'-0"
140
0.015625
141
12.0
290
     0
  0
SCALE
  5
46
102
{ACAD_REACTORS
330
42
102
}
330
42
100
AcDbScale
 70
     0
300
1/32" = 1'-0"
140
0.03125
141
12.0
290
     0
  0
SCALE
  5
47
102
{ACAD_REACTORS
330
42
102
}
330
42
100
AcDbScale
 70
     0
300
1/16" = 1'-0"
140
0.0625
141
12.0
290
     0
  0
SCALE
  5
48
102
{ACAD_REACTORS
330
42
102
}
330
42
100
AcDbScale
 70
     0
300
3/32" = 1'-0"
140
0.09375
141
12.0
290
     0
  0
SCALE
  5
49
102
{ACAD_REACTORS
330
42
102
}
330
42
100
AcDbScale
 70
     0
300
1/8" = 1'-0"
140
0.125
141
12.0
290
     0
  0
SCALE
  5
4A
102
{ACAD_REACTORS
330
42
102
}
330
42
100
AcDbScale
 70
     0
300
3/16" = 1'-0"
140
0.1875
141
12.0
290
     0
  0
SCALE
  5
4B
102
{ACAD_REACTORS
330
42
102
}
330
42
100
AcDbScale
 70
     0
300
1/4" = 1'-0"
140
0.25
141
12.0
290
     0
  0
SCALE
  5
4C
102
{ACAD_REACTORS
330
42
102
}
330
42
100
AcDbScale
 70
     0
300
3/8" = 1'-0"
140
0.375
141
12.0
290
     0
  0
SCALE
  5
4D
102
{ACAD_REACTORS
330
42
102
}
330
42
100
AcDbScale
 70
     0
300
1/2" = 1'-0"
140
0.5
141
12.0
290
     0
  0
SCALE
  5
4E
102
{ACAD_REACTORS
330
42
102
}
330
42
100
AcDbScale
 70
     0
300
3/4" = 1'-0"
140
0.75
141
12.0
290
     0
  0
SCALE
  5
4F
102
{ACAD_REACTORS
330
42
102
}
330
42
100
AcDbScale
 70
     0
300
1" = 1'-0"
140
1.0
141
12.0
290
     0
  0
SCALE
  5
50
102
{ACAD_REACTORS
330
42
102
}
330
42
100
AcDbScale
 70
     0
300
1-1/2" = 1'-0"
140
1.5
141
12.0
290
     0
  0
SCALE
  5
51
102
{ACAD_REACTORS
330
42
102
}
330
42
100
AcDbScale
 70
     0
300
3" = 1'-0"
140
3.0
141
12.0
290
     0
  0
SCALE
  5
52
102
{ACAD_REACTORS
330
42
102
}
330
42
100
AcDbScale
 70
     0
300
6" = 1'-0"
140
6.0
141
12.0
290
     0
  0
SCALE
  5
53
102
{ACAD_REACTORS
330
42
102
}
330
42
100
AcDbScale
 70
     0
300
1'-0" = 1'-0"
140
12.0
141
12.0
290
     0
  0
TABLESTYLE
  5
65
102
{ACAD_XDICTIONARY
360
CED
102
}
102
{ACAD_REACTORS
330
64
102
}
330
64
100
AcDbTableStyle
  3
Standard
 70
     0
 71
     0
 40
0.06
 41
0.06
280
     0
281
     0
  7
Standard
140
0.18
170
     2
 62
     0
 63
     7
283
     0
274
    -2
284
     1
 64
     0
275
    -2
285
     1
 65
     0
276
    -2
286
     1
 66
     0
277
    -2
287
     1
 67
     0
278
    -2
288
     1
 68
     0
279
    -2
289
     1
 69
     0
  7
Standard
140
0.25
170
     5
 62
     0
 63
     7
283
     0
274
    -2
284
     1
 64
     0
275
    -2
285
     1
 65
     0
276
    -2
286
     1
 66
     0
277
    -2
287
     1
 67
     0
278
    -2
288
     1
 68
     0
279
    -2
289
     1
 69
     0
  7
Standard
140
0.18
170
     5
 62
     0
 63
     7
283
     0
274
    -2
284
     1
 64
     0
275
    -2
285
     1
 65
     0
276
    -2
286
     1
 66
     0
277
    -2
287
     1
 67
     0
278
    -2
288
     1
 68
     0
279
    -2
289
     1
 69
     0
  0
VISUALSTYLE
  5
2F
102
{ACAD_XDICTIONARY
360
D00
102
}
102
{ACAD_REACTORS
330
29
102
}
330
29
100
AcDbVisualStyle
  2
2dWireframe
 70
     4
 71
     0
 72
     2
 73
     0
 90
        0
 40
-0.6
 41
-30.0
 62
     5
 63
     7
 74
     1
 91
        4
 64
     7
 65
   257
 75
     1
175
     1
 42
1.0
 92
        0
 66
   257
 43
1.0
 76
     1
 77
     6
 78
     2
 67
     7
 79
     5
170
     0
171
     0
290
     0
174
     0
 93
        1
 44
0.0
173
     0
291
     0
 45
0.0
1001
ACAD
1000
AcDbSavedByObjectVersion
1070
     0
  0
VISUALSTYLE
  5
2E
102
{ACAD_XDICTIONARY
360
CFE
102
}
102
{ACAD_REACTORS
330
29
102
}
330
29
100
AcDbVisualStyle
  2
Basic
 70
     7
 71
     1
 72
     0
 73
     1
 90
        0
 40
-0.6
 41
-30.0
 62
     5
 63
     7
 74
     0
 91
        4
 64
     7
 65
   257
 75
     1
175
     1
 42
1.0
 92
        8
 66
     7
 43
1.0
 76
     1
 77
     6
 78
     2
 67
     7
 79
     5
170
     0
171
     0
290
     0
174
     0
 93
        1
 44
0.0
173
     0
291
     1
 45
0.0
1001
ACAD
1000
AcDbSavedByObjectVersion
1070
     0
  0
VISUALSTYLE
  5
35
102
{ACAD_XDICTIONARY
360
D0C
102
}
102
{ACAD_REACTORS
330
29
102
}
330
29
100
AcDbVisualStyle
  2
Brighten
 70
    12
 71
     2
 72
     2
 73
     0
 90
        0
 40
-0.6
 41
-30.0
 62
     5
 63
     7
 74
     1
 91
        4
 64
     7
 65
   257
 75
     1
175
     1
 42
1.0
 92
        8
 66
     7
 43
1.0
 76
     1
 77
     6
 78
     2
 67
     7
 79
     5
170
     0
171
     0
290
     0
174
     0
 93
        1
 44
50.0
173
     0
291
     1
 45
0.0
1001
ACAD
1000
AcDbSavedByObjectVersion
1070
     0
  0
VISUALSTYLE
  5
39
102
{ACAD_XDICTIONARY
360
D14
102
}
102
{ACAD_REACTORS
330
29
102
}
330
29
100
AcDbVisualStyle
  2
ColorChange
 70
    16
 71
     2
 72
     2
 73
     3
 90
        0
 40
-0.6
 41
-30.0
 62
     5
 63
     8
 74
     1
 91
        4
 64
     7
 65
   257
 75
     1
175
     1
 42
1.0
 92
        8
 66
     8
 43
1.0
 76
     1
 77
     6
 78
     2
 67
     7
 79
     5
170
     0
171
     0
290
     0
174
     0
 93
        1
 44
0.0
173
     0
291
     1
 45
0.0
1001
ACAD
1000
AcDbSavedByObjectVersion
1070
     0
  0
VISUALSTYLE
  5
32
102
{ACAD_XDICTIONARY
360
D06
102
}
102
{ACAD_REACTORS
330
29
102
}
330
29
100
AcDbVisualStyle
  2
Conceptual
 70
     9
 71
     3
 72
     2
 73
     0
 90
        0
 40
-0.6
 41
-30.0
 62
     5
 63
     7
 74
     2
 91
        2
 64
     7
 65
   257
 75
     1
175
     1
 42
179.0
 92
        8
 66
     7
 43
1.0
 76
     1
 77
     6
 78
     2
 67
     7
 79
     3
170
     0
171
     0
290
     0
174
     0
 93
        1
 44
0.0
173
     0
291
     0
 45
0.0
1001
ACAD
1000
AcDbSavedByObjectVersion
1070
     0
  0
VISUALSTYLE
  5
34
102
{ACAD_XDICTIONARY
360
D0A
102
}
102
{ACAD_REACTORS
330
29
102
}
330
29
100
AcDbVisualStyle
  2
Dim
 70
    11
 71
     2
 72
     2
 73
     0
 90
        0
 40
-0.6
 41
-30.0
 62
     5
 63
     7
 74
     1
 91
        4
 64
     7
 65
   257
 75
     1
175
     1
 42
1.0
 92
        8
 66
     7
 43
1.0
 76
     1
 77
     6
 78
     2
 67
     7
 79
     5
170
     0
171
     0
290
     0
174
     0
 93
        1
 44
-50.0
173
     0
291
     1
 45
0.0
1001
ACAD
1000
AcDbSavedByObjectVersion
1070
     0
  0
VISUALSTYLE
  5
41
102
{ACAD_XDICTIONARY
360
D24
102
}
102
{ACAD_REACTORS
330
29
102
}
330
29
100
AcDbVisualStyle
  2
EdgeColorOff
 70
    22
 71
     2
 72
     2
 73
     0
 90
        0
 40
-0.6
 41
-30.0
 62
     5
 63
     7
 74
     1
 91
        4
 64
     7
 65
   257
 75
     1
175
     1
 42
1.0
 92
        8
 66
     7
 43
1.0
 76
     1
 77
     6
 78
     2
 67
     7
 79
     5
170
     0
171
     0
290
     0
174
     0
 93
        1
 44
0.0
173
     0
291
     1
 45
0.0
1001
ACAD
1000
AcDbSavedByObjectVersion
1070
     0
  0
VISUALSTYLE
  5
38
102
{ACAD_XDICTIONARY
360
D12
102
}
102
{ACAD_REACTORS
330
29
102
}
330
29
100
AcDbVisualStyle
  2
Facepattern
 70
    15
 71
     2
 72
     2
 73
     0
 90
        0
 40
-0.6
 41
-30.0
 62
     5
 63
     7
 74
     1
 91
        4
 64
     7
 65
   257
 75
     1
175
     1
 42
1.0
 92
        8
 66
     7
 43
1.0
 76
     1
 77
     6
 78
     2
 67
     7
 79
     5
170
     0
171
     0
290
     0
174
     0
 93
        1
 44
0.0
173
     0
291
     1
 45
0.0
1001
ACAD
1000
AcDbSavedByObjectVersion
1070
     0
  0
VISUALSTYLE
  5
2A
102
{ACAD_XDICTIONARY
360
CF6
102
}
102
{ACAD_REACTORS
330
29
102
}
330
29
100
AcDbVisualStyle
  2
Flat
 70
     0
 71
     2
 72
     1
 73
     1
 90
        2
 40
-0.6
 41
30.0
 62
     5
 63
     7
 74
     0
 91
        0
 64
     7
 65
   257
 75
     1
175
     1
 42
1.0
 92
        8
 66
     7
 43
1.0
 76
     1
 77
     6
 78
     2
 67
     7
 79
     5
170
     0
171
     0
290
     0
174
     0
 93
       13
 44
0.0
173
     0
291
     1
 45
0.0
1001
ACAD
1000
AcDbSavedByObjectVersion
1070
     0
  0
VISUALSTYLE
  5
2B
102
{ACAD_XDICTIONARY
360
CF8
102
}
102
{ACAD_REACTORS
330
29
102
}
330
29
100
AcDbVisualStyle
  2
FlatWithEdges
 70
     1
 71
     2
 72
     1
 73
     1
 90
        2
 40
-0.6
 41
30.0
 62
     5
 63
     7
 74
     1
 91
        0
 64
     7
 65
   257
 75
     1
175
     1
 42
1.0
 92
        0
 66
   257
 43
1.0
 76
     1
 77
     6
 78
     2
 67
     7
 79
     5
170
     0
171
     0
290
     0
174
     0
 93
       13
 44
0.0
173
     0
291
     1
 45
0.0
1001
ACAD
1000
AcDbSavedByObjectVersion
1070
     0
  0
VISUALSTYLE
  5
2C
102
{ACAD_XDICTIONARY
360
CFA
102
}
102
{ACAD_REACTORS
330
29
102
}
330
29
100
AcDbVisualStyle
  2
Gouraud
 70
     2
 71
     2
 72
     2
 73
     1
 90
        2
 40
-0.6
 41
30.0
 62
     5
 63
     7
 74
     0
 91
        0
 64
     7
 65
   257
 75
     1
175
     1
 42
1.0
 92
        0
 66
     7
 43
1.0
 76
     1
 77
     6
 78
     2
 67
     7
 79
     5
170
     0
171
     0
290
     0
174
     0
 93
       13
 44
0.0
173
     0
291
     1
 45
0.0
1001
ACAD
1000
AcDbSavedByObjectVersion
1070
     0
  0
VISUALSTYLE
  5
2D
102
{ACAD_XDICTIONARY
360
CFC
102
}
102
{ACAD_REACTORS
330
29
102
}
330
29
100
AcDbVisualStyle
  2
GouraudWithEdges
 70
     3
 71
     2
 72
     2
 73
     1
 90
        2
 40
-0.6
 41
30.0
 62
     5
 63
     7
 74
     1
 91
        0
 64
     7
 65
   257
 75
     1
175
     1
 42
1.0
 92
        0
 66
   257
 43
1.0
 76
     1
 77
     6
 78
     2
 67
     7
 79
     5
170
     0
171
     0
290
     0
174
     0
 93
       13
 44
0.0
173
     0
291
     1
 45
0.0
1001
ACAD
1000
AcDbSavedByObjectVersion
1070
     0
  0
VISUALSTYLE
  5
31
102
{ACAD_XDICTIONARY
360
D04
102
}
102
{ACAD_REACTORS
330
29
102
}
330
29
100
AcDbVisualStyle
  2
Hidden
 70
     6
 71
     1
 72
     2
 73
     2
 90
        0
 40
-0.6
 41
-30.0
 62
     5
 63
     7
 74
     2
 91
        2
 64
     7
 65
   257
 75
     2
175
     1
 42
40.0
 92
        0
 66
   257
 43
1.0
 76
     1
 77
     6
 78
     2
 67
     7
 79
     3
170
     0
171
     0
290
     0
174
     0
 93
        1
 44
0.0
173
     0
291
     0
 45
0.0
1001
ACAD
1000
AcDbSavedByObjectVersion
1070
     0
  0
VISUALSTYLE
  5
3F
102
{ACAD_XDICTIONARY
360
D20
102
}
102
{ACAD_REACTORS
330
29
102
}
330
29
100
AcDbVisualStyle
  2
JitterOff
 70
    20
 71
     2
 72
     2
 73
     0
 90
        0
 40
-0.6
 41
-30.0
 62
     5
 63
     7
 74
     1
 91
        4
 64
     7
 65
   257
 75
     1
175
     1
 42
1.0
 92
       10
 66
     7
 43
1.0
 76
     1
 77
     6
 78
     2
 67
     7
 79
     5
170
     0
171
     0
290
     0
174
     0
 93
        1
 44
0.0
173
     0
291
     1
 45
0.0
1001
ACAD
1000
AcDbSavedByObjectVersion
1070
     0
  0
VISUALSTYLE
  5
37
102
{ACAD_XDICTIONARY
360
D10
102
}
102
{ACAD_REACTORS
330
29
102
}
330
29
100
AcDbVisualStyle
  2
Linepattern
 70
    14
 71
     2
 72
     2
 73
     0
 90
        0
 40
-0.6
 41
-30.0
 62
     5
 63
     7
 74
     1
 91
        4
 64
     7
 65
   257
 75
     7
175
     7
 42
1.0
 92
        8
 66
     7
 43
1.0
 76
     1
 77
     6
 78
     2
 67
     7
 79
     5
170
     0
171
     0
290
     0
174
     0
 93
        1
 44
0.0
173
     0
291
     1
 45
0.0
1001
ACAD
1000
AcDbSavedByObjectVersion
1070
     0
  0
VISUALSTYLE
  5
40
102
{ACAD_XDICTIONARY
360
D22
102
}
102
{ACAD_REACTORS
330
29
102
}
330
29
100
AcDbVisualStyle
  2
OverhangOff
 70
    21
 71
     2
 72
     2
 73
     0
 90
        0
 40
-0.6
 41
-30.0
 62
     5
 63
     7
 74
     1
 91
        4
 64
     7
 65
   257
 75
     1
175
     1
 42
1.0
 92
        9
 66
     7
 43
1.0
 76
     1
 77
     6
 78
     2
 67
     7
 79
     5
170
     0
171
     0
290
     0
174
     0
 93
        1
 44
0.0
173
     0
291
     1
 45
0.0
1001
ACAD
1000
AcDbSavedByObjectVersion
1070
     0
  0
VISUALSTYLE
  5
33
102
{ACAD_XDICTIONARY
360
D08
102
}
102
{ACAD_REACTORS
330
29
102
}
330
29
100
AcDbVisualStyle
  2
Realistic
 70
     8
 71
     2
 72
     3
 73
     0
 90
        2
 40
-0.6
 41
30.0
 62
     5
 63
     7
 74
     0
 91
        0
 64
     7
 65
   257
 75
     1
175
     1
 42
1.0
 92
        8
 66
   257
 43
1.0
 76
     1
 77
     6
 78
     2
 67
     7
 79
     3
170
     0
171
     0
290
     0
174
     0
 93
       13
 44
0.0
173
     0
291
     0
 45
0.0
1001
ACAD
1000
AcDbSavedByObjectVersion
1070
     0
  0
VISUALSTYLE
  5
3E
102
{ACAD_XDICTIONARY
360
D1E
102
}
102
{ACAD_REACTORS
330
29
102
}
330
29
100
AcDbVisualStyle
  2
Shaded
 70
    27
 71
     2
 72
     2
 73
     1
 90
        2
 40
-0.6
 41
30.0
 62
     5
 63
     7
 74
     0
 91
        4
 64
     7
 65
   257
 75
     1
175
     1
 42
1.0
 92
        8
 66
   257
 43
1.0
 76
     1
 77
     6
 78
     2
 67
     8
 79
     3
170
     0
171
     0
290
     0
174
     0
 93
        5
 44
0.0
173
     0
291
     0
 45
0.0
1001
ACAD
1000
AcDbSavedByObjectVersion
1070
     0
  0
VISUALSTYLE
  5
3D
102
{ACAD_XDICTIONARY
360
D1C
102
}
102
{ACAD_REACTORS
330
29
102
}
330
29
100
AcDbVisualStyle
  2
Shaded with edges
 70
    26
 71
     2
 72
     2
 73
     1
 90
        2
 40
-0.6
 41
30.0
 62
     5
 63
     7
 74
     1
 91
       10
 64
     7
 65
   257
 75
     2
175
     1
 42
1.0
 92
        8
 66
   257
 43
1.0
 76
     1
 77
     6
 78
     2
 67
     7
 79
     3
170
     0
171
     0
290
     0
174
     0
 93
        5
 44
0.0
173
     0
291
     0
 45
0.0
1001
ACAD
1000
AcDbSavedByObjectVersion
1070
     0
  0
VISUALSTYLE
  5
3A
102
{ACAD_XDICTIONARY
360
D16
102
}
102
{ACAD_REACTORS
330
29
102
}
330
29
100
AcDbVisualStyle
  2
Shades of Gray
 70
    23
 71
     2
 72
     2
 73
     3
 90
        0
 40
-0.6
 41
-30.0
 62
     5
 63
     7
 74
     2
 91
        2
 64
     7
 65
     7
 75
     1
175
     1
 42
40.0
 92
        8
 66
     7
 43
1.0
 76
     1
 77
     6
 78
     2
 67
     7
 79
     3
170
     0
171
     0
290
     0
174
     0
 93
        1
 44
0.0
173
     0
291
     0
 45
0.0
1001
ACAD
1000
AcDbSavedByObjectVersion
1070
     0
  0
VISUALSTYLE
  5
3B
102
{ACAD_XDICTIONARY
360
D18
102
}
102
{ACAD_REACTORS
330
29
102
}
330
29
100
AcDbVisualStyle
  2
Sketchy
 70
    24
 71
     1
 72
     2
 73
     2
 90
        0
 40
-0.6
 41
-30.0
 62
     5
 63
     7
 74
     2
 91
        2
 64
     7
 65
     7
 75
     1
175
     1
 42
40.0
 92
       11
 66
     7
 43
1.0
 76
     1
 77
     6
 78
     2
 67
     7
 79
     6
170
     0
171
     0
290
     0
174
     0
 93
        1
 44
0.0
173
     0
291
     0
 45
0.0
1001
ACAD
1000
AcDbSavedByObjectVersion
1070
     0
  0
VISUALSTYLE
  5
36
102
{ACAD_XDICTIONARY
360
D0E
102
}
102
{ACAD_REACTORS
330
29
102
}
330
29
100
AcDbVisualStyle
  2
Thicken
 70
    13
 71
     2
 72
     2
 73
     0
 90
        0
 40
-0.6
 41
-30.0
 62
     5
 63
     7
 74
     1
 91
        4
 64
     7
 65
   257
 75
     1
175
     1
 42
1.0
 92
       12
 66
     7
 43
1.0
 76
     1
 77
     6
 78
     2
 67
     7
 79
     5
170
     0
171
     0
290
     0
174
     0
 93
        1
 44
0.0
173
     0
291
     1
 45
0.0
1001
ACAD
1000
AcDbSavedByObjectVersion
1070
     0
  0
VISUALSTYLE
  5
30
102
{ACAD_XDICTIONARY
360
D02
102
}
102
{ACAD_REACTORS
330
29
102
}
330
29
100
AcDbVisualStyle
  2
Wireframe
 70
     5
 71
     0
 72
     2
 73
     0
 90
        0
 40
-0.6
 41
-30.0
 62
     5
 63
     7
 74
     1
 91
        4
 64
     7
 65
   257
 75
     1
175
     1
 42
1.0
 92
        0
 66
   257
 43
1.0
 76
     1
 77
     6
 78
     2
 67
     7
 79
     3
170
     0
171
     0
290
     0
174
     0
 93
        1
 44
0.0
173
     0
291
     0
 45
0.0
1001
ACAD
1000
AcDbSavedByObjectVersion
1070
     0
  0
VISUALSTYLE
  5
3C
102
{ACAD_XDICTIONARY
360
D1A
102
}
102
{ACAD_REACTORS
330
29
102
}
330
29
100
AcDbVisualStyle
  2
X-Ray
 70
    25
 71
     2
 72
     2
 73
     1
 90
        1
 40
0.5
 41
-30.0
 62
     5
 63
     7
 74
     1
 91
        0
 64
     7
 65
   257
 75
     1
175
     1
 42
1.0
 92
        8
 66
     7
 43
1.0
 76
     1
 77
     6
 78
     2
 67
     7
 79
     3
170
     0
171
     0
290
     0
174
     0
 93
       13
 44
0.0
173
     0
291
     0
 45
0.0
1001
ACAD
1000
AcDbSavedByObjectVersion
1070
     0
  0
DICTIONARYVAR
  5
DA
102
{ACAD_REACTORS
330
D7
102
}
330
D7
100
DictionaryVariables
280
     0
  1
1:1
  0
DICTIONARYVAR
  5
D9
102
{ACAD_REACTORS
330
D7
102
}
330
D7
100
DictionaryVariables
280
     0
  1
STANDARD
  0
DICTIONARYVAR
  5
D8
102
{ACAD_REACTORS
330
D7
102
}
330
D7
100
DictionaryVariables
280
     0
  1
STANDARD
  0
DICTIONARYVAR
  5
CEB
102
{ACAD_REACTORS
330
D7
102
}
330
D7
100
DictionaryVariables
280
     0
  1
1
  0
DICTIONARYVAR
  5
CEA
102
{ACAD_REACTORS
330
D7
102
}
330
D7
100
DictionaryVariables
280
     0
  1
1
  0
DICTIONARYVAR
  5
CE9
102
{ACAD_REACTORS
330
D7
102
}
330
D7
100
DictionaryVariables
280
     0
  1
0
  0
DICTIONARYVAR
  5
CE6
102
{ACAD_REACTORS
330
D7
102
}
330
D7
100
DictionaryVariables
280
     0
  1
0
  0
DICTIONARYVAR
  5
CE7
102
{ACAD_REACTORS
330
D7
102
}
330
D7
100
DictionaryVariables
280
     0
  1
0
  0
DICTIONARYVAR
  5
CE5
102
{ACAD_REACTORS
330
D7
102
}
330
D7
100
DictionaryVariables
280
     0
  1
2
  0
DICTIONARYVAR
  5
CE4
102
{ACAD_REACTORS
330
D7
102
}
330
D7
100
DictionaryVariables
280
     0
  1
1
  0
DICTIONARYVAR
  5
CE8
102
{ACAD_REACTORS
330
D7
102
}
330
D7
100
DictionaryVariables
280
     0
  1
127
  0
DICTIONARYVAR
  5
CEC
102
{ACAD_REACTORS
330
D7
102
}
330
D7
100
DictionaryVariables
280
     0
  1
2
  0
DICTIONARY
  5
D28
330
6B
100
AcDbDictionary
280
     1
281
     1
  3
ACAD_XREC_ROUNDTRIP
360
D29
  0
DICTIONARY
  5
D2C
330
73
100
AcDbDictionary
280
     1
281
     1
  3
ACAD_XREC_ROUNDTRIP
360
D2D
  0
DICTIONARY
  5
D2A
330
6F
100
AcDbDictionary
280
     1
281
     1
  3
ACAD_XREC_ROUNDTRIP
360
D2B
  0
DICTIONARY
  5
1A
330
19
100
AcDbDictionary
280
     1
281
     1
  3
ACAD_XREC_ROUNDTRIP
360
CF4
  3
BUMPTILE
360
1C
  3
DIFFUSETILE
360
1B
  3
OPACITYTILE
360
1F
  3
REFLECTIONTILE
360
1E
  3
REFRACTIONTILE
360
20
  3
SPECULARTILE
360
1D
  0
DICTIONARY
  5
12
330
11
100
AcDbDictionary
280
     1
281
     1
  3
ACAD_XREC_ROUNDTRIP
360
CF3
  3
BUMPTILE
360
14
  3
DIFFUSETILE
360
13
  3
FBXASSET
360
168
  3
OPACITYTILE
360
17
  3
REFLECTIONTILE
360
16
  3
REFRACTIONTILE
360
18
  3
SPECULARTILE
360
15
  0
DICTIONARY
  5
22
330
21
100
AcDbDictionary
280
     1
281
     1
  3
ACAD_XREC_ROUNDTRIP
360
CF5
  3
BUMPTILE
360
24
  3
DIFFUSETILE
360
23
  3
FBXASSET
360
11B
  3
OPACITYTILE
360
27
  3
REFLECTIONTILE
360
26
  3
REFRACTIONTILE
360
28
  3
SPECULARTILE
360
25
  0
DICTIONARY
  5
CEF
330
67
100
AcDbDictionary
280
     1
281
     1
  3
ACAD_XREC_ROUNDTRIP
360
CF0
  0
DICTIONARY
  5
CED
330
65
100
AcDbDictionary
280
     1
281
     1
  3
ACAD_ROUNDTRIP_2008_TABLESTYLE_CELLSTYLEMAP
360
CEE
  3
ACAD_XREC_ROUNDTRIP
360
D26
  0
DICTIONARY
  5
D00
330
2F
100
AcDbDictionary
280
     1
281
     1
  3
ACAD_XREC_ROUNDTRIP
360
D01
  0
DICTIONARY
  5
CFE
330
2E
100
AcDbDictionary
280
     1
281
     1
  3
ACAD_XREC_ROUNDTRIP
360
CFF
  0
DICTIONARY
  5
D0C
330
35
100
AcDbDictionary
280
     1
281
     1
  3
ACAD_XREC_ROUNDTRIP
360
D0D
  0
DICTIONARY
  5
D14
330
39
100
AcDbDictionary
280
     1
281
     1
  3
ACAD_XREC_ROUNDTRIP
360
D15
  0
DICTIONARY
  5
D06
330
32
100
AcDbDictionary
280
     1
281
     1
  3
ACAD_XREC_ROUNDTRIP
360
D07
  0
DICTIONARY
  5
D0A
330
34
100
AcDbDictionary
280
     1
281
     1
  3
ACAD_XREC_ROUNDTRIP
360
D0B
  0
DICTIONARY
  5
D24
330
41
100
AcDbDictionary
280
     1
281
     1
  3
ACAD_XREC_ROUNDTRIP
360
D25
  0
DICTIONARY
  5
D12
330
38
100
AcDbDictionary
280
     1
281
     1
  3
ACAD_XREC_ROUNDTRIP
360
D13
  0
DICTIONARY
  5
CF6
330
2A
100
AcDbDictionary
280
     1
281
     1
  3
ACAD_XREC_ROUNDTRIP
360
CF7
  0
DICTIONARY
  5
CF8
330
2B
100
AcDbDictionary
280
     1
281
     1
  3
ACAD_XREC_ROUNDTRIP
360
CF9
  0
DICTIONARY
  5
CFA
330
2C
100
AcDbDictionary
280
     1
281
     1
  3
ACAD_XREC_ROUNDTRIP
360
CFB
  0
DICTIONARY
  5
CFC
330
2D
100
AcDbDictionary
280
     1
281
     1
  3
ACAD_XREC_ROUNDTRIP
360
CFD
  0
DICTIONARY
  5
D04
330
31
100
AcDbDictionary
280
     1
281
     1
  3
ACAD_XREC_ROUNDTRIP
360
D05
  0
DICTIONARY
  5
D20
330
3F
100
AcDbDictionary
280
     1
281
     1
  3
ACAD_XREC_ROUNDTRIP
360
D21
  0
DICTIONARY
  5
D10
330
37
100
AcDbDictionary
280
     1
281
     1
  3
ACAD_XREC_ROUNDTRIP
360
D11
  0
DICTIONARY
  5
D22
330
40
100
AcDbDictionary
280
     1
281
     1
  3
ACAD_XREC_ROUNDTRIP
360
D23
  0
DICTIONARY
  5
D08
330
33
100
AcDbDictionary
280
     1
281
     1
  3
ACAD_XREC_ROUNDTRIP
360
D09
  0
DICTIONARY
  5
D1E
330
3E
100
AcDbDictionary
280
     1
281
     1
  3
ACAD_XREC_ROUNDTRIP
360
D1F
  0
DICTIONARY
  5
D1C
330
3D
100
AcDbDictionary
280
     1
281
     1
  3
ACAD_XREC_ROUNDTRIP
360
D1D
  0
DICTIONARY
  5
D16
330
3A
100
AcDbDictionary
280
     1
281
     1
  3
ACAD_XREC_ROUNDTRIP
360
D17
  0
DICTIONARY
  5
D18
330
3B
100
AcDbDictionary
280
     1
281
     1
  3
ACAD_XREC_ROUNDTRIP
360
D19
  0
DICTIONARY
  5
D0E
330
36
100
AcDbDictionary
280
     1
281
     1
  3
ACAD_XREC_ROUNDTRIP
360
D0F
  0
DICTIONARY
  5
D02
330
30
100
AcDbDictionary
280
     1
281
     1
  3
ACAD_XREC_ROUNDTRIP
360
D03
  0
DICTIONARY
  5
D1A
330
3C
100
AcDbDictionary
280
     1
281
     1
  3
ACAD_XREC_ROUNDTRIP
360
D1B
  0
XRECORD
  5
D29
102
{ACAD_REACTORS
330
D28
102
}
330
D28
100
AcDbXrecord
280
     1
102
SHADEPLOT
 70
     0
102
SHADEPLOTRESLEVEL
 70
     2
102
SHADEPLOTCUSTOMDPI
 70
   300
  0
XRECORD
  5
D2D
102
{ACAD_REACTORS
330
D2C
102
}
330
D2C
100
AcDbXrecord
280
     1
102
SHADEPLOT
 70
     0
102
SHADEPLOTRESLEVEL
 70
     2
102
SHADEPLOTCUSTOMDPI
 70
   300
  0
XRECORD
  5
D2B
102
{ACAD_REACTORS
330
D2A
102
}
330
D2A
100
AcDbXrecord
280
     1
102
SHADEPLOT
 70
     0
102
SHADEPLOTRESLEVEL
 70
     2
102
SHADEPLOTCUSTOMDPI
 70
   300
  0
XRECORD
  5
CF4
102
{ACAD_REACTORS
330
1A
102
}
330
1A
100
AcDbXrecord
280
     1
102
MATERIAL
148
0.0
149
0.0
149
0.0
 93
        0
 94
      127
282
     0
 72
     0
 77
     0
171
     0
175
     0
179
     0
273
     0
  0
XRECORD
  5
1C
102
{ACAD_REACTORS
330
1A
102
}
330
1A
100
AcDbXrecord
280
     1
270
     1
271
     1
  0
XRECORD
  5
1B
102
{ACAD_REACTORS
330
1A
102
}
330
1A
100
AcDbXrecord
280
     1
270
     1
271
     1
  0
XRECORD
  5
1F
102
{ACAD_REACTORS
330
1A
102
}
330
1A
100
AcDbXrecord
280
     1
270
     1
271
     1
  0
XRECORD
  5
1E
102
{ACAD_REACTORS
330
1A
102
}
330
1A
100
AcDbXrecord
280
     1
270
     1
271
     1
  0
XRECORD
  5
20
102
{ACAD_REACTORS
330
1A
102
}
330
1A
100
AcDbXrecord
280
     1
270
     1
271
     1
  0
XRECORD
  5
1D
102
{ACAD_REACTORS
330
1A
102
}
330
1A
100
AcDbXrecord
280
     1
270
     1
271
     1
  0
XRECORD
  5
CF3
102
{ACAD_REACTORS
330
12
102
}
330
12
100
AcDbXrecord
280
     1
102
MATERIAL
148
0.0
149
0.0
149
0.0
 93
        0
 94
      127
282
     0
 72
     0
 77
     0
171
     0
175
     0
179
     0
273
     0
  0
XRECORD
  5
14
102
{ACAD_REACTORS
330
12
102
}
330
12
100
AcDbXrecord
280
     1
270
     1
271
     1
  0
XRECORD
  5
13
102
{ACAD_REACTORS
330
12
102
}
330
12
100
AcDbXrecord
280
     1
270
     1
271
     1
  0
XRECORD
  5
168
102
{ACAD_REACTORS
330
12
102
}
330
12
100
AcDbXrecord
280
     1
 70
     1
 90
1959938040
 71
     1
  1
3D92D0C5-05AF-44C3-B065-11E9F7C67906
311
504B03040A00000800007C5D31403DEE336E79000000790000001B0000006175746F6465736B2D64657369676E2D7061636B6167652E786D6C3C3F786D6C2076657273696F6E3D22312E302220656E636F64696E673D227574662D3822203F3E3C666F726D6174733E3C666F726D61743E687474703A2F2F736368656D612E
311
6175746F6465736B2E636F6D2F64657369676E2D7061636B6167652F323030393C2F666F726D61743E3C2F666F726D6174733E504B03041400060808007C5D3140D486FD9CA0000000F4000000130000005B436F6E74656E745F54797065735D2E786D6C7D8EC10E82300C865F65E91D8A1E8C310C0EEA1BF002731658846E
311
D98AC1B77784ABF1D8FE5FBFBF75BBCE937A534CCEB38643598122B6FEE978D0B0485F9C41B54DDD7D022595594E1A469170414C76A4D9A4D207E29CF43ECE46F218070CC6BECC4078ACAA135ACF422C856C0E68EA1BF5669944DDD7BCDE7B1F8E415D77AECB980613C2E4AC91FC167A2B244592486606FC29C8FD7F045B9A
311
EF7053A7E60B504B03041400060808007C5D3140DCD994E0E90000007C01000008000000636F72652E786D6C8D90DD6EC3200C855F05F99E04E7B78D089592EE0DF60288D016B58128C0B4C71F695369BBDB95ADE3F3D9D6E1A7EFF941BEF4EA8DB33D60C68068ABDC64ECB587182EF400E424F8EA5CF8650362E5AC7BD864
311
10FCBABAB8EC927236681B926ADDA477517AAF0310F5484D0F5EDDF42C33194372F87BB6487597579DE1BB4B708C6622AF23664AFBCCC5E8154475AE9B0171A075DB36B41A3E8EF4308C0D3D8E259EEB7A18471C79BEC1820733BFEFAB55CBA0271005C38232A4D87E227655D9D50D654DC718CF37FB1F282ED33FA1686C28
311
8BFDDD17E641607AE439103CDFB248E51954AA5B6EE207504B03041400060808007C5D314055019EA25F0000007C00000007000000636E782E786D6C4DCB3B0E80201045D1AD90E915ED2CF8AC45050C11660C8261F98AB1B07AC9C97D42D718D865D3E909258CFD00CCE24AC6E326A164D74DC0B4128928FF326038472BA1
311
3128B1252AC747C6BAB984FC68F0B87FE8960A5C09FE86CFB69FBA01504B03041400060808007C5D3140D75BC87965010000020300000C0000006662782F636F72652E786D6C8D52ED8E8320107C15C27F44ACDA8F204DB4F706F70254A967AA60104C1FFFD66AE3F5D2348D0992999DDDD9517EBC752D1A951D1AA333CC82
311
1023A54B5335BACEB07717B2C3E828B835C6FD29C348CB4E657882B1E0B535BE5FA0D268A7B403549B4A2DA01C06E5302A5BB86478287F542703E91D540CD7A097E555D62A6001D05027F8E02C1840F390E9C4E272BE713AE3827BDF540BDB5430ADB934CA62119F9234672C27C9769B9238FFDA935D5EA4645F6CD82949F2
311
A26005A7935870D7740F77A555D2A90A8B286411091961DB6FC60EF1E690A4244C0F61C8E954FE24F27DF5A1C837DA6DA2C5EE2C1BB06060E44EFCDB162272689023F8A182D3294478DD137E0E1A0281909D3CB78F3DAE008DAA74C6C6C054C6AFD4285BAF606A88EE0FA7330B9DEF0D60B3977DA2377DDEF7800F28750DD6
311
A483EBD9BB693A9FA72E51F4CA92D1DD9036B693ED6A6EB6B89EEBA097F2D2B4C67EA2A6CBAA7409934E7FAFF805504B03041400060808007C5D314004B608D87D0000009D0000000B0000006662782F636E782E786D6C4DCCD10A83201886E15B91FFDC7225AD0335CCE97DC4B290990EA76397BF1A1DECE883878F970D9F
311
CDA3B74D2F1703874B4500D9708FB30B2B879217DC031A044B31E6BF1BA0306D96C3C120D89A62799E34DB652A3EEFEA5D789C688CBA76F4A6B1929A626A748B7B620856544ADDD2A653A3815AB0FA57DAF7088B2F504B03041400060808007C5D31409303A7EF2C01000014020000310000006662782F4646433736344445
311
2D434145342D344645332D383046302D4334414145333432364342462F636F72652E786D6C8D51CB6EC32010FC15C4293D60838D1D2BC244A96B7F417FC00192A2C460F1A8F2F9C5B523B5B75C58343B333BDA65C7C77407DFCA796D4D0B498621504658A9CDB585315C5003C19133676DF84383C08C936AE10243CEAECEC6
311
798384354199905063A5DAC0D17B152010F7F469A1175F6A1AB33186C4F0B76C1EC56DBCAA8C64A99D789CF9E05200B00E595EC887A1DBD7F4A347DDA9A7880E7D891A3C60D4D1D3A92F695177EF03CB572167316AB9C9B54C71F4452BF7AAC922E62CE8E9195F38350625212F3029102688EC3F0939D0F250D508D7078C59
311
BED0FF89E22C5F14456D42596C715799879CB07C6D70266D3CDF9F61D463B62E8065DECE2BF10639CE70812B5A3505CB576A5A40F2ACE9E6E9837569C1BBDB39B149B51AD794B37CB9512ABF074C75B927FF01504B03041400060808007C5D314063F11A014D01000033030000300000006662782F46464337363444452D43
311
4145342D344645332D383046302D4334414145333432364342462F636E782E786D6CD593CD6EC32010845F0571F70F89EB561126520F7D821E7AC5B04968305880ABE6EDBB2424CD25871E7B41D6EC30B3FA84F9F67BB2E40B4234DE0D94D52D25E094D7C6ED07BAA45DF542C956F0E07DBAB351E2E40403CD32157C1FFC32
311
1749C34E2E36A16A8D3B163140F44B501051CE3789F54A5A0C00572D28C23482D6A0C9CD885F3B08B80A8AE389A40390B7D70FE2C74F5029F226A708DEE40EC1F3599AEE4C94282B631C68540798642D97E435C463AD659235ABAF5D0F76FA4D22F9C2B5720986E4F281E6938AB2518D1C798343C1630A48AF98D269062AE4
311
3C5BA36442C8CDD978F108BE1897FAAE780D820FE866FDBAEB30EC3C133C99098A430590093415AB96ADAA9655ECF99DB14DB7DE3CF555DB6FDA9637D92EF8E8BD2D973006829F89F22E814B5430DEE4F1237CC547B409C8DA87D31F402280D27AA173CBF8CF7C9AF3FB465C01FF02F103504B03041400060808007C5D3140
311
7C4B44F69C0500007B100000340000006662782F46464337363444452D434145342D344645332D383046302D4334414145333432364342462F6F626A656374732E786D6CAD575D739B3814FD2B0CFB0C18DB49EB1D4227B19B8EA79BB6534F3BFB90198F0041B4111F2389C4E9AFDF2310185C3BF5EEF4059090AEEE3DF7DC
311
0F05EF7639B79EA890AC2CAE6CDF9DD8162DE23261457665D72A75DEDAD6BB301065A906CB6CAB2039BDB2F5B41D069928EBCA4C253425355707B3B7377F5B32A605B5AD981329AF6C193FD09CB8A4566542E5A39B1045DC2CDDB9BEDB2E1C8BCD04A91E0E845644D0424153CC179062B54AF9E3E1C4F6C2C0D3FFC3403FCD
311
AAD9E9555E63CFF87C5648458AF8A7C30EC4CCFCF9EAFDF462E15CCCE733677E39F59D9BDB9B95E3BF994D9697CBE5E2FAFD02074B2520C96822686A871F808D6071E0B5BFC2A066859A4DCD12E3204FD027A63D658753CB0FBC764D6F9D31F298FA715914346EB0021A8D7D4674422B5A24F039A3129A0D109A8C87BEC671
311
F07BA6C7E6C8E1F479080C770C0475BA77EFA1A665F40F4C90E7304848AA19D862690C6DB93AD9231C952537FF98B472A2A860845B9C458288173BC452BD240C46623493858E066D811DC20BEDEF315D1046BFE6F9312DD39A734D633B6CA2608B58A14A369AB11F54ECB51F22039DE02BCD86B7C620F552513B5CB414797B
311
C0A616482BE52483CB61A6DE399B1E18BAD471BA5ED9E1C7DB68B7D1B17BFCF04A9415154AD307D4EA1CD7BD354A4627FF2CCFE90DF6812A7B50BE02F94F08F5BD2AF09B60BBF96E6E4E518214322D450EDF5813CB99E031B1FCE6A9BF075F81D76F1E7BEF149E70B686EA37E039B661E8CB019C61F004C29762664CDBC484
311
236DDCB10200699258BCC414F2701AEDEC708D2C87AC8C5D84873E4C86BA4FF80C3C230689A23969F02E80E5415A3C234103B6869150A325BF5170EFA79FD25973B059760ADE8BDF42D7EBD5E6E3A6162989E99D89E9154D59C1144ADC9E37438546988F2C7AA42FCFA54860E8CF786F8678E7E62809B435E61AF8ACCBE97A
311
B03F7974408C7D59A9D34DF08B1360842EAC03F9774CC6947352D0B2EECE7DB57EA06CB410EB60D74CEE0BCCBEB08034ED9F831844918E05AB34887DB5EA93A67BC2BA6FEB4F60A41DDEBCFC455E86D92BDAE7DEB8E4A5D8462FDB362D1D85FAFB98DB06034F4B01DD9B20E9E2DF80BE4D589AD61249F008AEDFD7CBA1EF74
311
5A408AE8A4B6D13287FD082E220C693BB9A8D682A09296C596A16E22EE8E1E30940F480D031A81A7349694A75BC6799D6F53C6518DB639A94EC0F1FFF58FEABCDA92BCAC0B7542F648755487B1EE23F6CA67A2E2073BDC346FE706B937A1C90932E85A7204AB916B67ABC57435595E38938BEB5B673E5FCE9C9BC9E585E3FB
311
EF17B76F96976F1693CBCE4FAD2661D0959A6144C34B286D412D9871DFB735E2C724013BBC234ADE7F68C3B37B7F5BBBE885030F7B502FFB8DD7C913FA3E9AFC5AC07EE55141EBBCE234A785223A86EEF407FF4AD0678C9469E7D739C9E819523E7FD81C18839933F67DD1F14E9F0FF69AD9A50EC8A342D4439D470561FC60
311
63D622E9564566F0EB7CD2BFDB42D30DF5C838069DA92C394B9007132BA3654E15B2E1194548E454827AC39E3E31778F33763FB51DA22211A79D260F044D3297080B50AB8ED578DEFA034D9DEEABAE6C945BF7110F93296C0B9CB9B2D1A42B1653E94628D0BA156A84834BC34E1E8D3F29328E5EBBDDD48FFB5D1A9B5149EE
311
979CD33F19BBDA146E0C401AA9D037A02182771A65C2A0D1CDFC8FFF93E19D3A1651F88C6AD5DBB29FE88D698E4188B64699DB029A984773F40E81FABA59BEDBAC192172D62DEB5512B4521D4544D6DC14B47E46A5EBD5170F1D8AB5FE6C55BCCEE0CBF325398282CCB50E70B008AC30322BA240D5E59FF75F44899B6C6EDD
311
3250E07E59E6795998C1B5B9095B9B07DC6B937BA405AA2F24F27E3AF1A7F7CD45C0DC4DB61191D425897CC4047C2A580FF1C8F160647B5B44056A7FF4EB3CED84036EAE57962969730835441966550D0B5A8E825A881E7D99D4B1325C50BD7A17F09AA55041A08B0FFF05504B03041400060800007C5D3140000000000000
311
000000000000350000006662782F46464337363444452D434145342D344645332D383046302D4334414145333432364342462F76657274696365732E62696E504B03041400060808007C5D3140F270F1330600000004000000360000006662782F46464337363444452D434145342D344645332D383046302D433441414533
311
3432364342462F747269616E676C65732E62696E636660600000504B03041400060800007C5D3140000000000000000000000000370000006662782F46464337363444452D434145342D344645332D383046302D4334414145333432364342462F617474726962757465732E62696E504B03041400060808007C5D3140D598
311
7DFC8F00000041010000360000006662782F46464337363444452D434145342D344645332D383046302D4334414145333432364342462F6469726563746F72792E786D6C858F410EC2201045AF4266AF15DDB800BA74E7C21B903225242D6328188F2FA5C4183471359997F9FF81E89FF3C41E1816475E02DF1F80A11FC838
311
6F25A438EECEC07A250251FC3803E6F58C12560C4AD840E95E91C151A72936F496F35732D860FE635F62C8F2DA16B505C545B74125BAA2FA9E05D7CC053D063734D5C7665FD55B6B8D15D5E9BFEAFD8490FFA45E504B03041400060808007C5D3140B433C9D1FB000000A00100003B0000006662782F46464337363444452D
311
434145342D344645332D383046302D4334414145333432364342462F7265736F75726365732F636F72652E786D6C8D50596E833010BD0A9A7F03664D907154486FD00B586642AC041B79A97AFC9A40A5F6AF3F33A3B7689E1EBB7C2DCFE413AD5346F740D31C12D4D24C4ACF3D047F2327482E9C5963FC2F19245A2CD8C306
311
0367B335613D2069B447ED23AACD8407289C430F897CC6A30727EFB88854041F15EE91AE423EC48C294D231D759C396F6380647FB24DE0169D0956A263D9CE7216829A0E8D9AE24F7553688157D7BA19287D2375DB36A41ADECFE4348C0D398F25BDD6F5308E7464D966E6CCABE527A3B4283C4EC08B9C1624A784B61F9476
311
55D9D50DC99B2ECF59B6C9FF98C23AFDD31494F66571C4DD6D0E388D415E0467D9D6575CAF32E3DEBAE5DF504B010214000A00000800007C5D31403DEE336E79000000790000001B00000000000000000000000000000000006175746F6465736B2D64657369676E2D7061636B6167652E786D6C504B010214001400060808
311
007C5D3140D486FD9CA0000000F40000001300000000000000000000000000B20000005B436F6E74656E745F54797065735D2E786D6C504B010214001400060808007C5D3140DCD994E0E90000007C010000080000000000000000000000000083010000636F72652E786D6C504B010214001400060808007C5D314055019E
311
A25F0000007C000000070000000000000000000000000092020000636E782E786D6C504B010214001400060808007C5D3140D75BC87965010000020300000C00000000000000000000000000160300006662782F636F72652E786D6C504B010214001400060808007C5D314004B608D87D0000009D0000000B000000000000
311
00000000000000A50400006662782F636E782E786D6C504B010214001400060808007C5D31409303A7EF2C0100001402000031000000000000000000000000004B0500006662782F46464337363444452D434145342D344645332D383046302D4334414145333432364342462F636F72652E786D6C504B0102140014000608
311
08007C5D314063F11A014D010000330300003000000000000000000000000000C60600006662782F46464337363444452D434145342D344645332D383046302D4334414145333432364342462F636E782E786D6C504B010214001400060808007C5D31407C4B44F69C0500007B100000340000000000000000000000000061
311
0800006662782F46464337363444452D434145342D344645332D383046302D4334414145333432364342462F6F626A656374732E786D6C504B010214001400060800007C5D314000000000000000000000000035000000000000000000000000004F0E00006662782F46464337363444452D434145342D344645332D383046
311
302D4334414145333432364342462F76657274696365732E62696E504B010214001400060808007C5D3140F270F13306000000040000003600000000000000000000000000A20E00006662782F46464337363444452D434145342D344645332D383046302D4334414145333432364342462F747269616E676C65732E62696E
311
504B010214001400060800007C5D31400000000000000000000000003700000000000000000000000000FC0E00006662782F46464337363444452D434145342D344645332D383046302D4334414145333432364342462F617474726962757465732E62696E504B010214001400060808007C5D3140D5987DFC8F0000004101
311
00003600000000000000000000000000510F00006662782F46464337363444452D434145342D344645332D383046302D4334414145333432364342462F6469726563746F72792E786D6C504B010214001400060808007C5D3140B433C9D1FB000000A00100003B00000000000000000000000000341000006662782F464643
311
37363444452D434145342D344645332D383046302D4334414145333432364342462F7265736F75726365732F636F72652E786D6C504B0506000000000E000E0080040000881100000000
310
504B03040A00000800007C5D31403DEE336E79000000790000001B0000006175746F6465736B2D64657369676E2D7061636B6167652E786D6C3C3F786D6C2076657273696F6E3D22312E302220656E636F64696E673D227574662D3822203F3E3C666F726D6174733E3C666F726D61743E687474703A2F2F736368656D612E
310
6175746F6465736B2E636F6D2F64657369676E2D7061636B6167652F323030393C2F666F726D61743E3C2F666F726D6174733E504B03041400060808007C5D3140D486FD9CA0000000F4000000130000005B436F6E74656E745F54797065735D2E786D6C7D8EC10E82300C865F65E91D8A1E8C310C0EEA1BF002731658846E
310
D98AC1B77784ABF1D8FE5FBFBF75BBCE937A534CCEB38643598122B6FEE978D0B0485F9C41B54DDD7D022595594E1A469170414C76A4D9A4D207E29CF43ECE46F218070CC6BECC4078ACAA135ACF422C856C0E68EA1BF5669944DDD7BCDE7B1F8E415D77AECB980613C2E4AC91FC167A2B244592486606FC29C8FD7F045B9A
310
EF7053A7E60B504B03041400060808007C5D31408D77269CEB0000007C01000008000000636F72652E786D6C8D904D6EC3201085AF82668F0DFE491C0B13D5B273825E0001715062B00C543D7E71E248EDAEAB19BD79DFCCE8B1F3F7FC405F7AF5C6D90E684600692B9D3276EA20862B6E009D395B9D0BBF6C80AC9875079B
310
0C9C4DAB8BCB2E496783B621A9D629BD8BC27B1D00C9476A3AF0F2A66791891892C3DFB345C8BB987446DF5D8263340ABD8E1895F699ABD12BF06118081DC980697FBAE06A2427DC94438DC7BEEEEBAA3A7E34A70BCB3798B360E6F77DB96A11B4025E105A6042313D7E52DA56655B1F3039B484B07CB3FF81E2A2FE094563
310
4359ECEFBE300F9CA6479E03CEF22D8B549E41A5BAE5C67F00504B03041400060808007C5D314055019EA25F0000007C00000007000000636E782E786D6C4DCB3B0E80201045D1AD90E915ED2CF8AC45050C11660C8261F98AB1B07AC9C97D42D718D865D3E909258CFD00CCE24AC6E326A164D74DC0B4128928FF32603847
310
2BA13128B1252AC747C6BAB984FC68F0B87FE8960A5C09FE86CFB69FBA01504B03041400060808007C5D3140A32AD48E66010000020300000C0000006662782F636F72652E786D6C8D52ED8E8320107C15C27F04ACFD0CD25C63FB04F70254A947AAD020983EFEADD5A6D74BD33426486676766747C5F6DA36A8D7BE33CEE6
310
98270C236D4B57195BE73886135961B495C23B17FE94616455AB733CC0588ADABB7899A0D2D9A06D00D4BA4A4FA0EA3A1D302A1BB8E4B82B7F74AB1215035474E7E4A2CAB3AA75C213A0A14E8A2E783080C621C389E5E9781574C4A588D154136B2A98664E467B2C8BA2607CCF0AC277EB03C9F66C4D56B3624EF6BBF96E9E
310
65CBAFD5FA20E820962298F6EEAEF45A055D6199329E12C6095F7E73BEC9669BF982B0C586314187F22751BC541F8AA2B161964E7647598725072337E2DFB61051409DEAC10F95820E21C2EB96F073D01008841CD4B1B9EF7106A8D765703E03A672F141F5AA891AA632747B041D59E87C6B009BBDEC93BEE9F3BE077C4065
310
6BB0A6025C8F310CD3C538758AE2A23DE9C31559E75BD53CCC8D161FE763D04B79E91AE73F51D369553A854987BF57FE02504B03041400060808007C5D3140269DCBBA7D0000009D0000000B0000006662782F636E782E786D6C4DCCD10A83201805E05791FFDEE520CD400DD7B6F788B2909986D3B1C79F8D2EBA39073E0E
310
4774DFD5A18F896F1BBC84EB8500327E0C93F58B849C66CC01754AC410D26906C80FAB91B03328B1C490B78326330FD9A5A2CEFAD781F78630C61F1473427A5CB7B4C79AD6256E44B39652DE3C35544A54FFA7D2FBB1FA01504B03041400060808007C5D3140B5E17BEB2A01000014020000310000006662782F4437303636
310
3845352D383030432D343935432D413534432D4142304136393535383746412F636F72652E786D6C8D51CB6EC32010FC158B537AC0063F881361A2346DBFA03F406CE2A2C460F1A8F2F95D6A476A6FB9B068766676B4CB0FF7E9967D2BE7B5351DA239419932BD1DB4193B14C305B7283B08EEAC0D7F68283372521D4A3012
310
7C7436CE2BD45B139409801A3BA81594DEAB80B2FE069F0EF9FE4B4D32973100C35FF359F65739AA9CE6D0069EE03E3808902D43D28BC4DB9630D6BE37B825E484EB5D73C2C7A686E7951CD9AE69DAEDC791178B50F018F5B0CAF50071F4452BF7AC49120B1EF4F488DF3B25831A9028092D31A1986E3F29DDD7D5BE6198B0
310
3D21BC48F47FA2380F4F8AA236A12AD7B88BCC234179B134041F6C3CDF1E61D47DB62E6469DEC6ABFE0509929392D6B09E8A170B1516009EAC5E3D7DB00E16BCB99E815DADC6AC16BC483782F27B40A8E99EE207504B03041400060808007C5D31400556D5165501000033030000300000006662782F44373036363845352D
310
383030432D343935432D413534432D4142304136393535383746412F636E782E786D6CBD93CD6EC32010845F0571F70F89EB461126520F7D821E7A25B04968305880ABE6EDBB2424CD25874A552FC89A1D66569F30DF7C8D967C4288C6BB81B2BAA5049CF2DAB8FD40E7B4AB56946C040FDEA73B1B254E8E30D02C53C1F7C1
310
CF539134ECE46C13AAD6B8631103443F070511E57C9358AFA4C50070D58C228C5BD01A34B919F16B07015741717B22E900E4F5E59DF8ED07A814799353046F7287E0F92C4D77264A9495310E34AA038CB29673F21AE2B1D632C99AD5D7AE073BFD24917CE15A39074372F940F34945D9A8468EBCC1A1E03105A4574CE93401
310
15729AAC513221E4E66CBC78049F8D4B7D57BC06C107742F17FD6A8561E799E0C98C501C2A804CA0A958B46C51B5AC62CF6F8CADBBE5FAA9AFDA7EDDB6BCC976C1B7DEDB72096320F88928EF12B84405E34D1E3FC2577C449B80AC7D38FD02240228AD173AB78CBFE4C3FA65D7FD239FE6FCBE1157C0BF407C03504B030414
310
00060808007C5D31409A51DC085A070000941B0000340000006662782F44373036363845352D383030432D343935432D413534432D4142304136393535383746412F6F626A656374732E786D6CED59DD73A33610FF5718FA6C0CB19DBB74089DC4BEDC78AEB9BBA97B9D3E64869141266A846024918BFBD777F501066212DC
310
A66FF76003425AEDFEF6534BF8CB534E9D47CC0529D8A51B78BEEB6096142961D9A55BC9DDE4BDEBFC1285BC28646B9AEB3094E34B570DBB5198F1A22AED508A77A8A2B2377A73FDA72312CCB0EB24140971E98AE41EE7C843952C522C1EBC1449E465BB272FF0CCC42ED98CA3F2BE47B4441C33099CC238032A8E612AE83E
310
FAEE340AA7EA7D14AA7F3B6B366AD67C78D6544BDDE5923021114B9EB1D423331BC5D22C98AF3E9C2D2E268BF97C36999F9F0593EB9BEBD5247837F397E7CBE5C5D5870B606F5B14D4CA94E212B314F4B777A3209CAA378DE81681635C27056338D14002545AAC3E4182056CD582CFEF3E064AA2D66B2D61EB79AEDE5B165A
310
C3B32E95A159E380E8D00541EC76B5C4F5B52D5FB1FD0B0417638C920B2C815B213968D7C2C3C12BDCC80FA766340AB7075D10E1E448624E107528D972C4412930554D8942B3C09251CEC18194A324D09A33AFBBB6059EF9BAEB1CE3725751AA3CC38DB463C5E07E580ACD19F91BF303F76D64802790B6224CBEB75CCA7D89
310
DDE8229CEAC1285497D9997D698074761465422362DEF6045D2AD75FAFDCE8D3CDF669A3C2C1F1CD4B5E94984B65744A8F9A2F30647B5528D96D83519A530B401803AA5D7900E53740FE33448F032BA0374E9EE64F733B5772C4C4AEE039E8C6F19D890F7FBE13E87F75DFBA0BA7CDE2AEF686F004375550BDFFEF787665D0
310
5859FE5B7046E123187CC167F6D5264114ECF9963000481989430B1882D0BEDB3EB9D11A0227047A5885681480C8C0EE23DC86534BE6A095DABDACD73140D4EE311BA324804D5B24B031A0A78F903D38490E6A6A8B3804EFE24DCCF56AB5F9B4A9F80E25F8D6FAF40AEF082312B2E671863A9877247AC0FBEF054F41D0E778
310
6FDA78E7762B01682BCC15F0590D827A38ECDCD920817559A1C24DF8CA0E2084CAD52DFAB744249852C47051D5FB36D14D196AE3F1B66670A33303F1ECAC67C21C3F12555580D31C66741885BC9F70522A10DDE8A391AC099ADE8074DFD69FC1229BF903B3D60C422F43F4771DB48EE0D0B1EC1A690B4423F0F610CE938216
310
3CDEEE6313E95CA825808DAEB7FCD1210AB1DE284951010FD27E578794CC481BA764B7AB04C4D5232CFEB15EB6CDC1F766C1C269FFF79C710ED1167C1771EB77BD3D6292A30CC73B940E6DD7DEADA12D34C901D21CEF28C8451E89DCC748C67E8AB353A03989F8C59B52CF682104615840BE3A0A7E1B0DDF834062B459B3AC
310
B4DA039A8838C712D15310506406C0D56947D7B809940EAFF3D858EF4B1A6B13FD9F2C8223A8250B161328452187BCCA78E02D208674D13528F7F0056BAB696B3168052544B28FBF6392DDCB535037E407704FE04852C9B8285102663D82EC335F514AEDF1BE45C983CA1F7152D1B7321081E92E269456790C3FC2E0E431C6
310
B59BC0F4220A2DE226F6499C43518664C5C76C72BEF09FED636A867E086C6DB42314C2769CA37200F54E40D4F588D3806FA90F28755BE5658CF2A262A30CC59BF5BDC992EFAB55911DC9AF2A15A16CAC095B825148986CB26A1DB3C1D475600537D2816A1F0B9497D49CC25E493C41E34D9AF2E006DCFAE9DB6E9043E137A0
310
BD76449DD730581E3B8581F88E6472EF461B7D9D5C43FD9DE2F490EAEB5AB35D0102622A92579C58157D5B4379636B3437BA4552DC7D3459B7BE7E5B7BD0FD08A7B0066A9766E15A019D632691AA4C6ED50DFD0D4108EED030E36B95534FA17295A6BA6A44F4860CA9B353467436CD8957DE6356E4F063778425B44AF11D4A
310
C5437C2B69BC218A752BA597931AE31705FCF271D38307464688F4551578F87B6FAD1D5DAA72E92811795FE55B860804C18E6899D18D57B2CC6AA4D6727355670AA8BBC0C0AC8AE73F4E16ED76C48F9345660DE33F9D2CAEF7BFA27DBB2FD24AE789B2EB938E014D7E5254DEE218A0DB0E0DD5268B98646EE5B7CE144350AC
310
A3FCE86AAC0E1A86E010C7FF3A6B0F6541B35D8FFFD3B276F0ACE23829AB7426AB2ED591CA75DDCE61B3D5C5D9CA5F2E26FEE2EA66329F2F67936BFF7C3109820F1737EF96E7EF2EFCF3064DEDA851D804339DBBE0D904B57A583D590CA02B2B0A4A5238CDA74E8621E64B38D38F689FF31C0B489EED66776A9BF223563F9A
310
3EA7445B8A6B4EEE113488A980B40E185589EC8E3B3F416B52C241FBD285A691F7007FD62A5D0732CFA50BAD0249122CBC2DB49954434F138794AB73BF2506F82096A994681635CFCD2A854D27FC3753C6A4012B57A78701855B09DDAF4E8742F366794A4E12BC66C741126EB795846ACDC872186884D1DB1CD46F64A3843D
310
D8AD9FC0755F162BF0F49C0E22A33E19BC680486EA44229EE97EB762CCB274B5FA3A853E9BB3FEE294B4CA4097E3294D380663AE5441055604566169964882A92E7FBEFBCA0BF8C4933BBA2ABA5B16795E30FB7005E7B1143E11399B7BF8E093DE41D980555B5DDC9DF9C1D99D6E67DB0E7BBC45027BAA1E8281BA8C5022F4
310
8C0D2CF2596BCA362EA74A09BDE9EB9563C327B4018C053DEBEE9ACF5B0E788FFA90A27C457B782DE78B1DEDA99E0AD6C0A1171DFD03504B03041400060800007C5D3140000000000000000000000000350000006662782F44373036363845352D383030432D343935432D413534432D4142304136393535383746412F7665
310
7274696365732E62696E504B03041400060808007C5D3140F270F1330600000004000000360000006662782F44373036363845352D383030432D343935432D413534432D4142304136393535383746412F747269616E676C65732E62696E636660600000504B03041400060800007C5D314000000000000000000000000037
310
0000006662782F44373036363845352D383030432D343935432D413534432D4142304136393535383746412F617474726962757465732E62696E504B03041400060808007C5D3140D5987DFC8F00000041010000360000006662782F44373036363845352D383030432D343935432D413534432D4142304136393535383746
310
412F6469726563746F72792E786D6C858F410EC2201045AF4266AF15DDB800BA74E7C21B903225242D6328188F2FA5C4183471359997F9FF81E89FF3C41E1816475E02DF1F80A11FC8386F25A438EECEC07A250251FC3803E6F58C12560C4AD840E95E91C151A72936F496F35732D860FE635F62C8F2DA16B505C545B74125
310
BAA2FA9E05D7CC053D063734D5C7665FD55B6B8D15D5E9BFEAFD8490FFA45E504B03041400060808007C5D31405219EC24FD000000A00100003B0000006662782F44373036363845352D383030432D343935432D413534432D4142304136393535383746412F7265736F75726365732F636F72652E786D6C8D504B6E833010
310
BD0A9ABDC14E2001641C95929CA017B0CC84580936F2A7EAF16B122AB5BB6E6646EFA3797AFCF4353FB24F745E5BD301CB296468941DB5993A88E14A6AC84E823B6BC32F196446CED8C10A83E093B371D920654D4013126AEC881B28BDC700997AA4A303AF6E38CB5CC69014FE9E2F52DDE58439CB139D7482FBE05280ECF5
310
649D201C7A1B9D42CF8B172B788C7ADC347A4C3FF555A303310C036567FA4E58DF5C4879A60DA9F74345CE7DD55765797CAB9B0B2F56B3E041CF3F199543197004B1A36C472823ECF8C1585BEEDBEA40E8A1A59417ABFC8F292EE33F4D519BB0DF6D715F360F82A5204F42F062ED2BAD679969AFDD8A6F504B010214000A00
310
000800007C5D31403DEE336E79000000790000001B00000000000000000000000000000000006175746F6465736B2D64657369676E2D7061636B6167652E786D6C504B010214001400060808007C5D3140D486FD9CA0000000F40000001300000000000000000000000000B20000005B436F6E74656E745F54797065735D2E
310
786D6C504B010214001400060808007C5D31408D77269CEB0000007C010000080000000000000000000000000083010000636F72652E786D6C504B010214001400060808007C5D314055019EA25F0000007C000000070000000000000000000000000094020000636E782E786D6C504B010214001400060808007C5D3140A3
310
2AD48E66010000020300000C00000000000000000000000000180300006662782F636F72652E786D6C504B010214001400060808007C5D3140269DCBBA7D0000009D0000000B00000000000000000000000000A80400006662782F636E782E786D6C504B010214001400060808007C5D3140B5E17BEB2A0100001402000031
310
000000000000000000000000004E0500006662782F44373036363845352D383030432D343935432D413534432D4142304136393535383746412F636F72652E786D6C504B010214001400060808007C5D31400556D51655010000330300003000000000000000000000000000C70600006662782F44373036363845352D3830
310
30432D343935432D413534432D4142304136393535383746412F636E782E786D6C504B010214001400060808007C5D31409A51DC085A070000941B000034000000000000000000000000006A0800006662782F44373036363845352D383030432D343935432D413534432D4142304136393535383746412F6F626A65637473
310
2E786D6C504B010214001400060800007C5D31400000000000000000000000003500000000000000000000000000161000006662782F44373036363845352D383030432D343935432D413534432D4142304136393535383746412F76657274696365732E62696E504B010214001400060808007C5D3140F270F13306000000
310
040000003600000000000000000000000000691000006662782F44373036363845352D383030432D343935432D413534432D4142304136393535383746412F747269616E676C65732E62696E504B010214001400060800007C5D31400000000000000000000000003700000000000000000000000000C31000006662782F44
310
373036363845352D383030432D343935432D413534432D4142304136393535383746412F617474726962757465732E62696E504B010214001400060808007C5D3140D5987DFC8F000000410100003600000000000000000000000000181100006662782F44373036363845352D383030432D343935432D413534432D414230
310
4136393535383746412F6469726563746F72792E786D6C504B010214001400060808007C5D31405219EC24FD000000A00100003B00000000000000000000000000FB1100006662782F44373036363845352D383030432D343935432D413534432D4142304136393535383746412F7265736F75726365732F636F72652E786D
310
6C504B0506000000000E000E0080040000511300000000
  0
XRECORD
  5
17
102
{ACAD_REACTORS
330
12
102
}
330
12
100
AcDbXrecord
280
     1
270
     1
271
     1
  0
XRECORD
  5
16
102
{ACAD_REACTORS
330
12
102
}
330
12
100
AcDbXrecord
280
     1
270
     1
271
     1
  0
XRECORD
  5
18
102
{ACAD_REACTORS
330
12
102
}
330
12
100
AcDbXrecord
280
     1
270
     1
271
     1
  0
XRECORD
  5
15
102
{ACAD_REACTORS
330
12
102
}
330
12
100
AcDbXrecord
280
     1
270
     1
271
     1
  0
XRECORD
  5
CF5
102
{ACAD_REACTORS
330
22
102
}
330
22
100
AcDbXrecord
280
     1
102
MATERIAL
148
0.0
149
0.0
149
0.0
 93
        0
 94
      127
282
     0
 72
     0
 77
     0
171
     0
175
     0
179
     0
273
     0
  0
XRECORD
  5
24
102
{ACAD_REACTORS
330
22
102
}
330
22
100
AcDbXrecord
280
     1
270
     1
271
     1
  0
XRECORD
  5
23
102
{ACAD_REACTORS
330
22
102
}
330
22
100
AcDbXrecord
280
     1
270
     1
271
     1
  0
XRECORD
  5
11B
102
{ACAD_REACTORS
330
22
102
}
330
22
100
AcDbXrecord
280
     1
 70
     1
 90
1959938040
 71
     1
  1
A72EC821-E3BC-4FF6-8258-59BC485CBBF0
311
504B03040A00000800007B5D31403DEE336E79000000790000001B0000006175746F6465736B2D64657369676E2D7061636B6167652E786D6C3C3F786D6C2076657273696F6E3D22312E302220656E636F64696E673D227574662D3822203F3E3C666F726D6174733E3C666F726D61743E687474703A2F2F736368656D612E
311
6175746F6465736B2E636F6D2F64657369676E2D7061636B6167652F323030393C2F666F726D61743E3C2F666F726D6174733E504B03041400060808007B5D3140D486FD9CA0000000F4000000130000005B436F6E74656E745F54797065735D2E786D6C7D8EC10E82300C865F65E91D8A1E8C310C0EEA1BF002731658846E
311
D98AC1B77784ABF1D8FE5FBFBF75BBCE937A534CCEB38643598122B6FEE978D0B0485F9C41B54DDD7D022595594E1A469170414C76A4D9A4D207E29CF43ECE46F218070CC6BECC4078ACAA135ACF422C856C0E68EA1BF5669944DDD7BCDE7B1F8E415D77AECB980613C2E4AC91FC167A2B244592486606FC29C8FD7F045B9A
311
EF7053A7E60B504B03041400060808007B5D31408A84BB64E90000007C01000008000000636F72652E786D6C8D904D6EC3201085AF82668F0DFEAF8589ECB639412F8030715162B00C543D7E2171A476D7D58CDEBC6F66F4D8E97BBDA12FB53B6DCD00342380949176D6661920F80BEE009D38DBADF5BF6C808C58D5004906
311
CE96DD86ED90A4355E191F5563677588C239E501C95B6C0670F253AD2213C14787BB669B9057B1A88C3EBB0887A067F438A2E7B84F5FB4DA814FD558B6EFE388A7336D71D554151E5FDB0977E35BF372EE0AD2D694E509E6CCEBF5795FEE4A7835032F082D30A198B61F94F655D9D735264D4F08CB93FD0F14B6F99F50D0C6
311
97C5F1EE0373C0D323F7016779CA22967B50B1A6DCF80F504B03041400060808007B5D314055019EA25F0000007C00000007000000636E782E786D6C4DCB3B0E80201045D1AD90E915ED2CF8AC45050C11660C8261F98AB1B07AC9C97D42D718D865D3E909258CFD00CCE24AC6E326A164D74DC0B4128928FF326038472BA1
311
3128B1252AC747C6BAB984FC68F0B87FE8960A5C09FE86CFB69FBA01504B03041400060808007B5D3140D41E1C0467010000020300000C0000006662782F636F72652E786D6C8D52ED8E8320107C15C27F44ACADBD0669ECDDF509EE052852CF54C120983EFEAD1F4DAF97A6B9982099D9D99D1DE5FB6BDBA041BBBEB626C7
311
2C8A31D246D9B236558E833F932D467BC19DB5FE57194646B63AC7238C05AF9C0DDD02296BBC361E50634BBD80B2EFB5C7483570C971AFBE752B23193C54F497A893EA222B1DB10868A813BCF70E0CA079C87862713E5D399D71C143A8CB85AD4B98569F6BEDB038A4C52AFB2C0A7238B28CA49B3425C57B7620DBE263F376
311
DC2671B6669C8E62C17DDDDEDC29A7A5D7251649CC121233C2B22FC676E96AB75E9378B38B634EC7F20751E8CA7F8A426DFC2A59ECCEB21E8BD1C844FCD91622F2A89703F8A182D33144784D093F060D8140C85E9E9ADB1E178006ADBC752930A50D776A904DD0303546D3C3E9CC42E7A9016CF6B44FF2A2CFEB1EF001A5A9
311
C09AF4703D053F4EE7F3D4258A4E3B32F82B32D6B5B2B99B9B2DDECFFBA0A772651BEBFEA3A6CBAA7409938E7FAFF801504B03041400060808007B5D3140AD044C3D7D0000009D0000000B0000006662782F636E782E786D6C4DCCD10A83201886E15B91FFDC65A4E9408D92751FB12C64A6C3E9D8E5AF46073BFAE0E1E395
311
DD67F3E86DD3CBC5A0A0BE104036DCE3ECC2AAA0E4050B409D9629C6FC770314A6CD2A3818B45C532CCF9366BB4CC5E75DBD0B8F13EB96B351D01EF7754B31259CE261300CB386DE0C13DC8C57029596D5AFB4EF11D65F504B03041400060808007B5D314056408BF12B01000014020000310000006662782F313637354638
311
34412D413136342D343037342D424243352D3533344543353837434639302F636F72652E786D6C8D51CB6E833010FC15E4537A30D860038D8CA3246ABEA03F40B0935A0936F2A3CAE77729446A6FB978ADD999D9D1AED83DC67BF6AD7D30CE7688E60465DA0E4E197BED508A17DCA26C2785772EFEA1A1CCF6A3EED00C2329
311
AEDEA569850667A3B61150EB945EC13E041D5136DCE1D3A1307CE9B1CFFB1481116EF9D40FB7FEAA739A431B785284E82140B60C995F2469DDF053CBF6784F6B861969183E1C8E1CF38A7D1C79DB1C4FEF44148B508A948C5AE546411C7331DABF6A328BA588667CC61FBCEEA3564896849698504C9B4F4AB7ACDA728E49BD
311
253079A6FF13A549BD284AC6C6AA5CE32EB2005945B134A4502E9DEFCF30FA31391FB379DE26E8E10D4992939290B26A9928162A2C003C6BB67A86E83C2C78733B039BF2C5B8665214F38DA0FC1E10EA7C4FF903504B03041400060808007B5D314060CE96934D01000033030000300000006662782F31363735463834412D
311
413136342D343037342D424243352D3533344543353837434639302F636E782E786D6CD593CD6E022114855F85B09F1F74B48D6130E9A24FD045B708574B6560C24F53DFBE1745EBC64597DD90C9B987736EBE307CFB3D59F205211AEF46CADA9E1270CA6BE30E23CD69DF3C53B2153C789FEE6C943839C1488B4C053F049F
311
E72A69D8CB6C13AAD6B8631503449F83828872B949AC57D26200B826A308D30EB4064D6E46FCDA43C05550DC9D48FA00F2FAF24EFCEE13548ABC2B298277A543F072D6A63B1325CACA18471AD5074CB29539790DF1D86A9964CBDA6BD7839D7E9348B970ADCCC190523ED2725251376A9123EF7028784C01E955533ACD4085
311
9C676B944C08B93B1B2F1EC1B371693D54AF41F001DD6CBD1C060C3BCF044F6682EA500164024DC5A2678BA6670D7B7A636C332C37AB55D3AF377DCFBB62177CE7BDAD973006829F89F22E814B5430DE95F1237CD547B409C8DA87D31F402280DA7AA173CBF8CF7CBAF3FB465C01FF02F103504B03041400060808007B5D31
311
401872134E990500007A100000340000006662782F31363735463834412D413136342D343037342D424243352D3533344543353837434639302F6F626A656374732E786D6CAD57DB6EDB3810FD1541FBECBBD33A0B45456CC78551A40D6AB4D887000625510A3794289054EAECD7EFA144DD5C3BF52EFA6259D4703873E6CC
311
85DE8743CA9D172A1513D98D3B198E5D8766A1885896DCB8858E070BD7F9E07B5208DD11739D8CA4F4C635CBAEEF255214B95D8A684C0AAE8F5637CBBF1C15D28CBA4EC8895237AE0A9F684A86A4D022A2EA7918114D86497C184E8695605F6D2249FE74A4342792661A96623D8316A7326AD27F1DBB23DF1B99EFBE677EAD
311
D4ECBCD4A8F4A77F3ECB942659F8D361476A6693F9FA6E7A753DB89ACF6783F9BBE964B0DC2CD783C9FBD978F56EB5BABEBDBBC6C14A4B68B296481ABBFE47602359E88DAA4FBE57B04CCFA656C4066824E90B339172FDA933F146954CE39D75F294F9A1C8321A9658018DD23FAB3AA239CD22C49C5105CB3A088DFBAF1383
311
63E7F3CCBCDB23BBCB9721D0DDD15154DB5E3FBB968AE06FB8A02E619054D430B0C2D23A5A7175DC221C08C1ED37A69C94682A19E10E678124F2D5F5216A447CAFA7C630599A6C301EB83EA2507DEED30569F46B9E9FB2322E38373476FD320BF6C815AA556919FB87CAD6FA2E32B009B1326C585887F46B4E5DFFBAA2C8E2
311
884D15904ECC498290C34DB373363D727465F274BB76FD4F9BE0B033B97BFAF05C8A9C4A6DE8036AD581AB9F06256BD3E4A2C8990DEE91292D285F81FC67A47A6B0AE226D9617E98DB53B424998A854C111B67EC0CC6F8193B93F2D7FCEFFCF346CDE67EF4CEE189601BA87E039E7D1FBAB1ECC0E97B2F20BC9033EBDA2E24
311
1C65E39E6500C890C4E1024BA8C3717070FD2DAA1CAA327611EE4FE032CC7DC15F6F64D5A0509427759E19B03C2A8B171468C05632126654E4B706B671FAA99C95075BB173F05EFD16BADEAE779F76858C4948EF6D4EAF69CC32A6D1E25ADE740DEA61DEF3E899BEFE103282A33FE3BDEBE29DDAA314D036981BE093BAA69B
311
97F6E4DE0121F625C2941BEF1727C009D3583BFAEF990A29E724A3A2A8CF7DB37FA06D54109B64374C6E1A4CDB58409AEACB510EA2498792E506C4A65B35457378C6BB6FDBCF6024E4B908086F8582B6F486820BB90F5EF755553A89F4F73EB52D0423A3056C2F73A44E7F8BF93E62715C28D4C013B07EDFAEBAA133550115
311
A2D65A25CB1CEE23B788B49CADF5A2594B82462AB23D43DB44DA9D3CA0AB1F885A02940ACF59AC288FF78CF322DDC78CA319ED53929F81E3FFDB1F1469BE27A928327D4677CF743487BEED3DF2AA1F44874FAEBF2B9F83254A6F44A336CC3D61D34A4E60D50BEDEDFBE9DD6A81A1E96EB65C0DE69BCDBBC1627AB5185C5D2F
311
57F3C5D56AB9DCB416953394EFD59DA69BD088123A9B574866C3F76D8BF4B135C0F5EF89568F1FABECAC9FDFB6438CC2DE087BD02E9B8DB7D10BC63E1AFD5A412B7952D136CD394D69A68949A17BF3877F2518337AC654EBDB9424F4022D5F3EEE8E9CC1CA05FB1E4CBAD31F477BEDEACA24E44925FAA948838C307EB431A9
311
901CE65962F1AB63D23CAB3E53BF9A371B180CA64A7016A10C464E42454A358AE1053D48A654817ADD913EB2578F0B76BF5403A22601A7B5254F04333257480BF0B608757FDDF903339D19AB6E5C74DBE1337E6CA5701D70E6C6C58CAE5948D530407F369350A91C5CEA0EF2E02CC9128E51BBDAD4BC37BB0C36BD8EDC885C
311
323E59BFAA0A6E1D4019C93136601E42744A637CAFB4CD7E0FFF93E3B5390ED1F81B14BAF1A55D689C298F418A564ED9CB026698677BF40189FAB65B936129D343E4A24BD69B24A8B40E349149795130F659936ED70F230C28CEF68B93F322412C2FD7349014642E4C8283456085D599130DAAAEFE7C7C900217D9D4D93050
311
E07125D25464F6E5D65E849DDD13AEB5D123CA0235F711F5381D4FA68FE53DC05E4DF60151744822F58C05C454B206E25EE0C1C8EAB2880E547D68E446260847DCDCAE1DDBD2E6506A89D2ADAA06164C1C1975903DE62E6972A52B90BF79151895A230416288F7FF05504B03041400060800007B5D31400000000000000000
311
00000000350000006662782F31363735463834412D413136342D343037342D424243352D3533344543353837434639302F76657274696365732E62696E504B03041400060808007B5D3140F270F1330600000004000000360000006662782F31363735463834412D413136342D343037342D424243352D3533344543353837
311
434639302F747269616E676C65732E62696E636660600000504B03041400060800007B5D3140000000000000000000000000370000006662782F31363735463834412D413136342D343037342D424243352D3533344543353837434639302F617474726962757465732E62696E504B03041400060808007B5D3140D5987DFC
311
8F00000041010000360000006662782F31363735463834412D413136342D343037342D424243352D3533344543353837434639302F6469726563746F72792E786D6C858F410EC2201045AF4266AF15DDB800BA74E7C21B903225242D6328188F2FA5C4183471359997F9FF81E89FF3C41E1816475E02DF1F80A11FC8386F25
311
A438EECEC07A250251FC3803E6F58C12560C4AD840E95E91C151A72936F496F35732D860FE635F62C8F2DA16B505C545B74125BAA2FA9E05D7CC053D063734D5C7665FD55B6B8D15D5E9BFEAFD8490FFA45E504B03041400060808007B5D3140374DD8A5FD000000A00100003B0000006662782F31363735463834412D4131
311
36342D343037342D424243352D3533344543353837434639302F7265736F75726365732F636F72652E786D6C8D504B6E833010BD0A9ABDC1260412641C91B639412F609909B512ECC89FAAC7AF1DA8D4EEBA9919BD8FE6E9F1D3D7722F3ED1796DCD00ACA450A05176D2661E20862B39407112DC591B7EC9A03072C101320C
311
82CFCEC6C706296B029A90506327DC40E93D0628D43D1D0378F5818B2C650C49E16FE543AA9B9CB16465A2934E701F5C0A50AC4FF204E1D0DBE8147A5EADACE031EA69D3E829FDD4578D0EC4B91977DDDB7824E70BEB48D3360D195FBA33398CAFEDF172A869B767BCCA66C1835E7E322A8732E004A2A6AC269411D6BD33D6
311
37BB7EBF27B4ED29E55596FF31C5C7F44F53D426ECEA2DEE6AF320729027217895FB4AEB5966DAB95BF10D504B010214000A00000800007B5D31403DEE336E79000000790000001B00000000000000000000000000000000006175746F6465736B2D64657369676E2D7061636B6167652E786D6C504B010214001400060808
311
007B5D3140D486FD9CA0000000F40000001300000000000000000000000000B20000005B436F6E74656E745F54797065735D2E786D6C504B010214001400060808007B5D31408A84BB64E90000007C010000080000000000000000000000000083010000636F72652E786D6C504B010214001400060808007B5D314055019E
311
A25F0000007C000000070000000000000000000000000092020000636E782E786D6C504B010214001400060808007B5D3140D41E1C0467010000020300000C00000000000000000000000000160300006662782F636F72652E786D6C504B010214001400060808007B5D3140AD044C3D7D0000009D0000000B000000000000
311
00000000000000A70400006662782F636E782E786D6C504B010214001400060808007B5D314056408BF12B0100001402000031000000000000000000000000004D0500006662782F31363735463834412D413136342D343037342D424243352D3533344543353837434639302F636F72652E786D6C504B0102140014000608
311
08007B5D314060CE96934D010000330300003000000000000000000000000000C70600006662782F31363735463834412D413136342D343037342D424243352D3533344543353837434639302F636E782E786D6C504B010214001400060808007B5D31401872134E990500007A100000340000000000000000000000000062
311
0800006662782F31363735463834412D413136342D343037342D424243352D3533344543353837434639302F6F626A656374732E786D6C504B010214001400060800007B5D314000000000000000000000000035000000000000000000000000004D0E00006662782F31363735463834412D413136342D343037342D424243
311
352D3533344543353837434639302F76657274696365732E62696E504B010214001400060808007B5D3140F270F13306000000040000003600000000000000000000000000A00E00006662782F31363735463834412D413136342D343037342D424243352D3533344543353837434639302F747269616E676C65732E62696E
311
504B010214001400060800007B5D31400000000000000000000000003700000000000000000000000000FA0E00006662782F31363735463834412D413136342D343037342D424243352D3533344543353837434639302F617474726962757465732E62696E504B010214001400060808007B5D3140D5987DFC8F0000004101
311
000036000000000000000000000000004F0F00006662782F31363735463834412D413136342D343037342D424243352D3533344543353837434639302F6469726563746F72792E786D6C504B010214001400060808007B5D3140374DD8A5FD000000A00100003B00000000000000000000000000321000006662782F313637
311
35463834412D413136342D343037342D424243352D3533344543353837434639302F7265736F75726365732F636F72652E786D6C504B0506000000000E000E0080040000881100000000
310
504B03040A00000800007B5D31403DEE336E79000000790000001B0000006175746F6465736B2D64657369676E2D7061636B6167652E786D6C3C3F786D6C2076657273696F6E3D22312E302220656E636F64696E673D227574662D3822203F3E3C666F726D6174733E3C666F726D61743E687474703A2F2F736368656D612E
310
6175746F6465736B2E636F6D2F64657369676E2D7061636B6167652F323030393C2F666F726D61743E3C2F666F726D6174733E504B03041400060808007B5D3140D486FD9CA0000000F4000000130000005B436F6E74656E745F54797065735D2E786D6C7D8EC10E82300C865F65E91D8A1E8C310C0EEA1BF002731658846E
310
D98AC1B77784ABF1D8FE5FBFBF75BBCE937A534CCEB38643598122B6FEE978D0B0485F9C41B54DDD7D022595594E1A469170414C76A4D9A4D207E29CF43ECE46F218070CC6BECC4078ACAA135ACF422C856C0E68EA1BF5669944DDD7BCDE7B1F8E415D77AECB980613C2E4AC91FC167A2B244592486606FC29C8FD7F045B9A
310
EF7053A7E60B504B03041400060808007B5D3140E114F583E90000007C01000008000000636F72652E786D6C8D905B6EC3201045B782E61F9B871F898589D44756D00D20202E4A0C9681AACB2F4E1CA9FDEBD78C2EF73057579CBEE71BFAB26B74C18F402B02C87A1D8CF3D308395DF001D0498A3584F4CB06C8ABD98EB0C9
310
20C5B486BCEC920E3E599F8AEA83B1BBA862B40990BE956584A83FEDAC2A955371C46BB5287D5593ADE8732B70CECEA0C71167CA7FEEE2EC0A923647F27EA61DEE39A3B8E9F9111F3BFE8ADB03EB5F7A76E6EC8D897A83A5486E7EDED7AB55C91A908C508609C5B4FFA07468F8D0B698740321A2DEEC7FA0BC987F42D9F9C4
310
D91EF781C592B504B93F48516F5D94712FAACCAD37F903504B03041400060808007B5D314055019EA25F0000007C00000007000000636E782E786D6C4DCB3B0E80201045D1AD90E915ED2CF8AC45050C11660C8261F98AB1B07AC9C97D42D718D865D3E909258CFD00CCE24AC6E326A164D74DC0B4128928FF326038472BA1
310
3128B1252AC747C6BAB984FC68F0B87FE8960A5C09FE86CFB69FBA01504B03041400060808007B5D31409B96BA5B65010000020300000C0000006662782F636F72652E786D6C8D52ED8E8320107C15C27F44D0D6B6419ADC479FE05E802AF54C150C82E9E3DFFAD178BD34CDC504C9CCCEEEECA838DEDA060DDAF5B5353966
310
518C9136852D6B53E538F80BD9617494C259EB7F95616454AB733CC2588ACAD9D02D50618DD7C6036A6CA91750F5BDF618150D5C72DC17DFBA55910A1E2AFA6BD4A9E2AA2A1DB10868A893A2F70E0CA079C878627939DF049D712942A8CB85AD4B98565F6AEDB064E93EFE3CB12DC912CE489A257BB2DF26EF64B3E3D95BC6
310
4F09FFE0828E62297CDDDEDD154E2BAF4B2C79CC38891961D917638734396C3624DE1EE258D0B1FC4114BAF29FA2501B9FF0C5EE2CEBC12B1899883FDB42441EF56A003F540A3A8608AF29E1C7A0211008D9AB7373DFE30AD0A00B6F5D0A4C69C34A0DAA091AA6C6687A049D59E83C3580CD9EF6E12FFABCEE011F50990AAC
310
290FD773F0E374314F5DA2E8B42383BF21635DAB9AD5DC6C713DD7414FE5856DACFB8F9A2EABD2254C3AFEBDF207504B03041400060808007B5D3140FE0BF20D7D0000009D0000000B0000006662782F636E782E786D6C4DCCD10A83201805E05791FFDE656B96821A936DEF11CB42321DA6638F3F1B5DECEA1C3E0E47F49F
310
D5A1B7899B0D5E427D22808C7F86D1FA59424E1366807A256208E96F06C80FAB91B0332831C7905F078D661AB24B459DF5CB81F786EA9AE80EDF58ABF18595C63925B8659C76E44ACE943FA052A2FA3D95DC8FD517504B03041400060808007B5D3140448967E42901000014020000310000006662782F4533354231304237
310
2D443836422D343842372D393935302D3638393537304130323539462F636F72652E786D6C8D51CB6EC32010FC15C4293D60836DFC883051A3B65FD01F2086A42831583CAA7C7EA176A4F6960B8B66676647BBEC709F6FE05B39AFAD1921293004CA4C566A7319610C67D44370E0CC591BFED02030625623CC30E4ECE26C5C
310
3668B2262813126AAC541B28BC570182E9963E23F4D3979A452162480C7F2D16315DC54515A448EDC4E3CC0797028075487E217FAFE991E06387DEFAF6889A3EFD868162D4F603EDF02BAEE8F0C1CA55C8598C5A6E722D531C7DD6CA3D6B92C59C053D3FE24F4E89A024E4152615C20491EE93907D53EF2945B8DD63CCCA4C
310
FF278A8B7C5214B50975B5C55D651E72C2CAB5C199B4F1747B8451F7C5BA00F2BC9D57D30BE4B8C0554DBAB6A3AC5CA96901C9B36D364F1FAC4B0BDE5D4F895D6FC66DC359996F94CAEF0153CDF7E43F504B03041400060808007B5D3140066959845501000033030000300000006662782F45333542313042372D44383642
310
2D343842372D393935302D3638393537304130323539462F636E782E786D6CBD93CD6EC32010845F0571F70F89E3461126520F7D821E7A25B04969305880ABE6EDBB2424CD25874A552FC89A1D66569F30DF7E8D967C4288C6BB81B2BAA5049CF2DAB8C340E7B4AFD6946C050FDEA73B1B254E8E30D02C53C10FC1CF539134
310
ECE56C13AAD6B8631103443F070511E57C9358AFA4C50070D58C228C3BD01A34B919F16B0F015741717722E91DC8CBF31BF1BB0F5029F226A708DEE40EC1F3599AEE4C94282B631C6854EF30CA5ACEC96B88C75ACB246B565FBB1EECF49344F2856BE51C0CC9E503CD271565A31A39F2068782C714905E31A5D30454C869B2
310
46C984909BB3F1E2117C362EF55DF11A041FD0BD5CF4EB35869D678227334271A8003281A662D1B245D5B28A3DBD32B6E9969BD5AA6AFB4DDBF226DB05DF796FCB258C81E027A2BC4BE012158C3779FC085FF1116D02B2F6E1F40B9008A0B45EE8DC32FE920FEB975DF78F7C9AF3FB465C01FF02F10D504B03041400060808
310
007B5D3140EDE8BE6858070000931B0000340000006662782F45333542313042372D443836422D343842372D393935302D3638393537304130323539462F6F626A656374732E786D6CED595B6FA33814FE2B887D0E09B974DA1565D4A6ED285A756634D919ED4324E48043BD3506D9A697FDF57B7C81000D2DD9E9BECD4302
310
18FBF89CEF5C7D083E3E65D479C05C909C9DBBBE37711DCCE23C212C3D774BB91B9DBACEC730E0792E1BD35C87A10C9FBB6AD80D8394E765618712BC4325959DD19BCBBF1C1163865D27A648887357C47738431E2A659E6071EF2548222FDD3D79BE6726B6C9A61C15771DA205E29849E014C61950710C537EFB71E28EC360
310
ACDE8781FAB7B3668366CDFB678DB5D46D2E091312B1F8054B1D32B3412CCDFCF9D5F57471365ACCE7B3D1FC64EA8F2E6F2EAF46FE87D96479B25C9E5D5C9F017BDB3CA756A604179825A0BF6737F483B17A538B6E1138C4759C3386630D2440A5C5EA122458C0560DF826ED475F49D478AD256C3CCFD57BCB426378D6A6D2
310
376B18102DBA2088DDAE92B8BA36E5CBB77F83E0628851728125702B2407ED5A783878851B4E82B1190D83ED5E17443819929813441D4AB61C71500A4C5553C2C02CB06494737020E52809B4E6CCEBB66D8167BEED3A87B8DC95942ACF7043ED5811B81F96427346FEC17CCF7D1319E009A42D0993A7964BF95C60373C0BC6
310
7A300CD46536B52F0D90CE8EA2546844CCDB8EA04BE5FAAB2B37FCE366FBB456E1E0F0E605CF0BCCA5323AA547CD1718B2BD2A94ECB6FE20CDA905208C01D5AEDC83F20D90FF0CD163CF0AE88D93A7F9D3DCCE951C31B1CB7906BA7126CE68027F13C7D7FFEABE71178CEBC56DEDF5E1096EAAA03AFD793CDB3268AC2CFF0D
310
38C3E0010C3EE733FB6A1D230AF67C4B1800A48CC4A1390C4168DF6D9FDC70058113023DAC4234F4416460F7016E83B125B3D74AE55ED6EB18206AF7980D5112C0A62D12D8E8D1D327C81E9CC47B353545EC8377F12EE67A71B5FE635DF21D8AF1ADF5E92BBC238C48C89A87196A61DE92E81E3F3FE63C01415FE2BD6EE29D
310
D9AD04A0AD3057C0A71508EA61BF736B8318D6A5B90A37C11B3B80102A5737E8DF1211634A11C37959ED5B473765A8B5C7DB9AC10DA706E2D9B463C21C3F10555580D3EC67B41885BC1F73522810DDF09391AC0E9A5E8F74DF579FC122EBF93DB3560C422F43F44F1DB40EE0D0B2EC0A690B442DF0761FCEE39CE63CDA3E47
310
26D2B9504B001B6D6FF9D1220AB1DE284951010FD27E578594D4481B2564B72B05C4D5032CFE582D9BE630F166FEC269FE779C710ED1167C1771EB779D3D2292A114473B94F46DD7DCADA62D34C91ED21CEF28C8451E887C8E908C26094E8F81E628E267EF4A3DA5B910846101F9EA20F84D34261E0412A3CD8A65A5D50ED0
310
44441996881E838022D303AE4E3BBAC68DA174789BC7DA7A5FD35893E8FF64111C412D99B38840290A39E44DC67D6F0131A48DAE41B9832F585B455B8B414B2821E2E7E81193F44E1E83BA21DF837B0C4792524679816230EB01645FF88A526A87F72D8AEF55FE88E292BE9781084C7711A1B4CC22F81106278F21AE5D07A6
310
5751681037B14FE20C8A32244B3E649393C5E4C53EA666E886C0C6463B42216C47192A7A506F05445D8F3835F8967A8F52B765564428CB4B36C850BC59D79B2CF9AE5A15D981FCAA5211CAC68AB025180684C93AAB56311B4C5D075670231DA89E2381B2829A53D81B89C7AFBD4953EEDD805B3F7DDF0D3228FC7AB4D78CA8
310
F30A06CB63AB30108F48C6776EB8D6D7D125D4DF094EF6A9BEAA359B152020A62279C98955D1F7159437B64673C35B24C5E693C9BAD5F5FBCA83EE4730863550BBD40B570AE80C3389546572AB6EE8370421B845C38CAF544E3D86CA4592E8AA11D11BD2A7CE5619D1DA34235E7187599EC18F6D088B6999E00D4AC47D742B
310
69B4268A752BA597910AE35705FCF269DD8107460688F4551578F8B1B3D68E2E55B9749088BC2BB32D430482604BB4D4E8C62B586A355269B9BEAA3305D45D606056C5F35F278B663BE2D7C922B586F173270B9A6F11DD479B46368F95591F750AA8D393A2F21EA700DD75A8A9D649C4E4722BBEF5A508626215E407176355
310
CC3004FB38FECF49BB2F099AED3AFC1F97B4FD1705C75149A5355935A90E14AEAB660ABBF830BD5E9E4257F67A76B91CCD6F6E4E46A7D3C5E9687176B99C9F2E969797377B8EB49F86411DCB74EA826713D3AA61F5643180A6ACC82949E0309F382986902FE1483FA07BCE332C2077367BDD89EDC90F58FD60DA9C126D29AE
310
38B943D01FA602B23A6054C6B23DEEFC069D4909E7EC73177A46DE3DFC59AB741D483CE72E740A2489B1F0B6D06552FD3C4D1C32AE4EFD9618E08358AA32A259543FD7AB1436ADE85F4F199205AC5CAD1606D46D0534BF5A0D0ACD9BE5293E4AF08A1D0749B8DD96128A3523CB7EA016466FB357BF918D12766FB77E02D77D
310
5D2CDFD3735A880CFA62F0AA1118AA238978AADBDD8A31CBD2C5D5D731B4D99CD517A7A0650ABA1C4E69C4311873A9EA29B022B00A4BB340124C75F9FBE62BCFE10B4FE6E8A268B3CCB32C67F6E1028E63097C2172D677F0BD27D940D58055575D6CA6137FBAD1DD6CDB608FB648604F9543305055114A848EB18145BEE84C
310
D9BEE55829A1337D75E5D8F0095D0063412F9ABBE6EB9603DEA3BEA3285FD11E5EC9F96A437BACA7823570684587FF02504B03041400060800007B5D3140000000000000000000000000350000006662782F45333542313042372D443836422D343842372D393935302D3638393537304130323539462F7665727469636573
310
2E62696E504B03041400060808007B5D3140F270F1330600000004000000360000006662782F45333542313042372D443836422D343842372D393935302D3638393537304130323539462F747269616E676C65732E62696E636660600000504B03041400060800007B5D314000000000000000000000000037000000666278
310
2F45333542313042372D443836422D343842372D393935302D3638393537304130323539462F617474726962757465732E62696E504B03041400060808007B5D3140D5987DFC8F00000041010000360000006662782F45333542313042372D443836422D343842372D393935302D3638393537304130323539462F64697265
310
63746F72792E786D6C858F410EC2201045AF4266AF15DDB800BA74E7C21B903225242D6328188F2FA5C4183471359997F9FF81E89FF3C41E1816475E02DF1F80A11FC8386F25A438EECEC07A250251FC3803E6F58C12560C4AD840E95E91C151A72936F496F35732D860FE635F62C8F2DA16B505C545B74125BAA2FA9E05D7
310
CC053D063734D5C7665FD55B6B8D15D5E9BFEAFD8490FFA45E504B03041400060808007B5D314089FEA8B2FC000000A00100003B0000006662782F45333542313042372D443836422D343842372D393935302D3638393537304130323539462F7265736F75726365732F636F72652E786D6C8D50596EC32010BD8AC53F3660
310
3B4E2C4CA42E39412F8060E2A0C460B1543D7E2176A5F6AF3F33A3B7689E1E3F7F2D8FEA137C30CE4E88D604556095D3C6CE134AF18A8FA83A0BEE9D8BBF64A8B27281091518093E7B97D61D52CE46B031A3D669D84119024454A9473E2614D40D1659CB14B322DCEB55AABB9CA1A675A6B34EF0107D0E506D4FCA44C24370
310
C92B08BCD958C153327AD7189D7F9AAB018F04ED4EE4FD427B3CB48CE26E684FF874685F717F64C3CBC02E2D7B63BC2966C1A3597E322A0F3282468211CA30A1980E1F948E5D3BF63D26879110DE14F91F535AF53F4DC9D8D8B23DEE660B396B0EF224046F4A5F793DCBCCBB742BBE01504B010214000A00000800007B5D31
310
403DEE336E79000000790000001B00000000000000000000000000000000006175746F6465736B2D64657369676E2D7061636B6167652E786D6C504B010214001400060808007B5D3140D486FD9CA0000000F40000001300000000000000000000000000B20000005B436F6E74656E745F54797065735D2E786D6C504B0102
310
14001400060808007B5D3140E114F583E90000007C010000080000000000000000000000000083010000636F72652E786D6C504B010214001400060808007B5D314055019EA25F0000007C000000070000000000000000000000000092020000636E782E786D6C504B010214001400060808007B5D31409B96BA5B65010000
310
020300000C00000000000000000000000000160300006662782F636F72652E786D6C504B010214001400060808007B5D3140FE0BF20D7D0000009D0000000B00000000000000000000000000A50400006662782F636E782E786D6C504B010214001400060808007B5D3140448967E429010000140200003100000000000000
310
0000000000004B0500006662782F45333542313042372D443836422D343842372D393935302D3638393537304130323539462F636F72652E786D6C504B010214001400060808007B5D31400669598455010000330300003000000000000000000000000000C30600006662782F45333542313042372D443836422D34384237
310
2D393935302D3638393537304130323539462F636E782E786D6C504B010214001400060808007B5D3140EDE8BE6858070000931B00003400000000000000000000000000660800006662782F45333542313042372D443836422D343842372D393935302D3638393537304130323539462F6F626A656374732E786D6C504B01
310
0214001400060800007B5D31400000000000000000000000003500000000000000000000000000101000006662782F45333542313042372D443836422D343842372D393935302D3638393537304130323539462F76657274696365732E62696E504B010214001400060808007B5D3140F270F1330600000004000000360000
310
0000000000000000000000631000006662782F45333542313042372D443836422D343842372D393935302D3638393537304130323539462F747269616E676C65732E62696E504B010214001400060800007B5D31400000000000000000000000003700000000000000000000000000BD1000006662782F4533354231304237
310
2D443836422D343842372D393935302D3638393537304130323539462F617474726962757465732E62696E504B010214001400060808007B5D3140D5987DFC8F000000410100003600000000000000000000000000121100006662782F45333542313042372D443836422D343842372D393935302D36383935373041303235
310
39462F6469726563746F72792E786D6C504B010214001400060808007B5D314089FEA8B2FC000000A00100003B00000000000000000000000000F51100006662782F45333542313042372D443836422D343842372D393935302D3638393537304130323539462F7265736F75726365732F636F72652E786D6C504B05060000
310
00000E000E00800400004A1300000000
  0
XRECORD
  5
27
102
{ACAD_REACTORS
330
22
102
}
330
22
100
AcDbXrecord
280
     1
270
     1
271
     1
  0
XRECORD
  5
26
102
{ACAD_REACTORS
330
22
102
}
330
22
100
AcDbXrecord
280
     1
270
     1
271
     1
  0
XRECORD
  5
28
102
{ACAD_REACTORS
330
22
102
}
330
22
100
AcDbXrecord
280
     1
270
     1
271
     1
  0
XRECORD
  5
25
102
{ACAD_REACTORS
330
22
102
}
330
22
100
AcDbXrecord
280
     1
270
     1
271
     1
  0
XRECORD
  5
CF0
102
{ACAD_REACTORS
330
CEF
102
}
330
CEF
100
AcDbXrecord
280
     1
102
ACAD_ROUNDTRIP_2012_MLEADER_STYLE
298
     1
  0
CELLSTYLEMAP
  5
CEE
102
{ACAD_REACTORS
330
CED
102
}
330
CED
100
AcDbCellStyleMap
 90
        3
300
CELLSTYLE
  1
TABLEFORMAT_BEGIN
 90
        5
170
     1
 91
        0
 92
    32768
 62
   257
 93
        1
300
CONTENTFORMAT
  1
CONTENTFORMAT_BEGIN
 90
        0
 91
        0
 92
      512
 93
        0
300

 40
0.0
140
1.0
 94
        5
 62
     0
340
55
144
0.25
309
CONTENTFORMAT_END
171
     0
 94
        0
309
TABLEFORMAT_END
  1
CELLSTYLE_BEGIN
 90
        1
 91
        1
300
_TITLE
309
CELLSTYLE_END
300
CELLSTYLE
  1
TABLEFORMAT_BEGIN
 90
        5
170
     1
 91
        0
 92
        0
 62
   257
 93
        1
300
CONTENTFORMAT
  1
CONTENTFORMAT_BEGIN
 90
        0
 91
        0
 92
      512
 93
        0
300

 40
0.0
140
1.0
 94
        5
 62
     0
340
55
144
0.18
309
CONTENTFORMAT_END
171
     0
 94
        0
309
TABLEFORMAT_END
  1
CELLSTYLE_BEGIN
 90
        2
 91
        1
300
_HEADER
309
CELLSTYLE_END
300
CELLSTYLE
  1
TABLEFORMAT_BEGIN
 90
        5
170
     1
 91
        0
 92
        0
 62
   257
 93
        1
300
CONTENTFORMAT
  1
CONTENTFORMAT_BEGIN
 90
        0
 91
        0
 92
      512
 93
        0
300

 40
0.0
140
1.0
 94
        2
 62
     0
340
55
144
0.18
309
CONTENTFORMAT_END
171
     0
 94
        0
309
TABLEFORMAT_END
  1
CELLSTYLE_BEGIN
 90
        3
 91
        2
300
_DATA
309
CELLSTYLE_END
  0
XRECORD
  5
D26
102
{ACAD_REACTORS
330
CED
102
}
330
CED
100
AcDbXrecord
280
     1
102
ACAD_ROUNDTRIP_PRE2007_TABLESTYLE
 90
      512
 91
        0
  1

 92
      512
 93
        0
  2

 94
      512
 95
        0
  3

  0
XRECORD
  5
D01
102
{ACAD_REACTORS
330
D00
102
}
330
D00
100
AcDbXrecord
280
     1
102
RTVSPropertyOp0
 70
     1
102
RTVSPropertyOp1
 70
     1
102
RTVSPropertyOp2
 70
     1
102
RTVSPropertyOp3
 70
     1
102
RTVSPropertyOp4
 70
     1
102
RTVSPropertyOp5
 70
     1
102
RTVSPropertyOp6
 70
     1
102
RTVSPropertyOp7
 70
     1
102
RTVSPropertyOp8
 70
     1
102
RTVSPropertyOp9
 70
     1
102
RTVSPropertyOp10
 70
     1
102
RTVSPropertyOp11
 70
     1
102
RTVSPropertyOp12
 70
     1
102
RTVSPropertyOp13
 70
     1
102
RTVSPropertyOp14
 70
     1
102
RTVSPropertyOp15
 70
     1
102
RTVSPropertyOp16
 70
     1
102
RTVSPropertyOp17
 70
     1
102
RTVSPropertyOp18
 70
     1
102
RTVSPropertyOp19
 70
     1
102
RTVSPropertyOp20
 70
     1
102
RTVSPropertyOp21
 70
     1
102
RTVSPropertyOp22
 70
     1
102
RTVSPropertyOp23
 70
     1
102
RTVSPropertyOp24
 70
     1
102
RTVSPropertyOp25
 70
     1
102
RTVSPropertyOp26
 70
     1
102
RTVSPropertyOp27
 70
     1
102
RTVSPropertyOp28
 70
     1
102
RTVSPropertyOp29
 70
     1
102
RTVSPropertyOp30
 70
     1
102
RTVSPropertyOp31
 70
     1
102
RTVSPropertyOp32
 70
     1
  0
XRECORD
  5
CFF
102
{ACAD_REACTORS
330
CFE
102
}
330
CFE
100
AcDbXrecord
280
     1
102
RTVSPropertyOp0
 70
     1
102
RTVSPropertyOp1
 70
     1
102
RTVSPropertyOp2
 70
     1
102
RTVSPropertyOp3
 70
     1
102
RTVSPropertyOp4
 70
     1
102
RTVSPropertyOp5
 70
     1
102
RTVSPropertyOp6
 70
     1
102
RTVSPropertyOp7
 70
     1
102
RTVSPropertyOp8
 70
     1
102
RTVSPropertyOp9
 70
     1
102
RTVSPropertyOp10
 70
     1
102
RTVSPropertyOp11
 70
     1
102
RTVSPropertyOp12
 70
     1
102
RTVSPropertyOp13
 70
     1
102
RTVSPropertyOp14
 70
     1
102
RTVSPropertyOp15
 70
     1
102
RTVSPropertyOp16
 70
     1
102
RTVSPropertyOp17
 70
     1
102
RTVSPropertyOp18
 70
     1
102
RTVSPropertyOp19
 70
     1
102
RTVSPropertyOp20
 70
     1
102
RTVSPropertyOp21
 70
     1
102
RTVSPropertyOp22
 70
     1
102
RTVSPropertyOp23
 70
     1
102
RTVSPropertyOp24
 70
     1
102
RTVSPropertyOp25
 70
     1
102
RTVSPropertyOp26
 70
     1
102
RTVSPropertyOp27
 70
     1
102
RTVSPropertyOp28
 70
     1
102
RTVSPropertyOp29
 70
     1
102
RTVSPropertyOp30
 70
     1
102
RTVSPropertyOp31
 70
     1
102
RTVSPropertyOp32
 70
     1
  0
XRECORD
  5
D0D
102
{ACAD_REACTORS
330
D0C
102
}
330
D0C
100
AcDbXrecord
280
     1
102
RTVSPropertyOp0
 70
     1
102
RTVSPropertyOp1
 70
     1
102
RTVSPropertyOp2
 70
     1
102
RTVSPropertyOp3
 70
     1
102
RTVSPropertyOp4
 70
     1
102
RTVSPropertyOp5
 70
     1
102
RTVSPropertyOp6
 70
     1
102
RTVSPropertyOp7
 70
     1
102
RTVSPropertyOp8
 70
     1
102
RTVSPropertyOp9
 70
     1
102
RTVSPropertyOp10
 70
     1
102
RTVSPropertyOp11
 70
     1
102
RTVSPropertyOp12
 70
     1
102
RTVSPropertyOp13
 70
     1
102
RTVSPropertyOp14
 70
     1
102
RTVSPropertyOp15
 70
     1
102
RTVSPropertyOp16
 70
     1
102
RTVSPropertyOp17
 70
     1
102
RTVSPropertyOp18
 70
     1
102
RTVSPropertyOp19
 70
     1
102
RTVSPropertyOp20
 70
     1
102
RTVSPropertyOp21
 70
     1
102
RTVSPropertyOp22
 70
     1
102
RTVSPropertyOp23
 70
     1
102
RTVSPropertyOp24
 70
     1
102
RTVSPropertyOp25
 70
     1
102
RTVSPropertyOp26
 70
     1
102
RTVSPropertyOp27
 70
     1
102
RTVSPropertyOp28
 70
     1
102
RTVSPropertyOp29
 70
     1
102
RTVSPropertyOp30
 70
     1
102
RTVSPropertyOp31
 70
     1
102
RTVSPropertyOp32
 70
     1
  0
XRECORD
  5
D15
102
{ACAD_REACTORS
330
D14
102
}
330
D14
100
AcDbXrecord
280
     1
102
RTVSPropertyOp0
 70
     1
102
RTVSPropertyOp1
 70
     1
102
RTVSPropertyOp2
 70
     1
102
RTVSPropertyOp3
 70
     1
102
RTVSPropertyOp4
 70
     1
102
RTVSPropertyOp5
 70
     1
102
RTVSPropertyOp6
 70
     1
102
RTVSPropertyOp7
 70
     1
102
RTVSPropertyOp8
 70
     1
102
RTVSPropertyOp9
 70
     1
102
RTVSPropertyOp10
 70
     1
102
RTVSPropertyOp11
 70
     1
102
RTVSPropertyOp12
 70
     1
102
RTVSPropertyOp13
 70
     1
102
RTVSPropertyOp14
 70
     1
102
RTVSPropertyOp15
 70
     1
102
RTVSPropertyOp16
 70
     1
102
RTVSPropertyOp17
 70
     1
102
RTVSPropertyOp18
 70
     1
102
RTVSPropertyOp19
 70
     1
102
RTVSPropertyOp20
 70
     1
102
RTVSPropertyOp21
 70
     1
102
RTVSPropertyOp22
 70
     1
102
RTVSPropertyOp23
 70
     1
102
RTVSPropertyOp24
 70
     1
102
RTVSPropertyOp25
 70
     1
102
RTVSPropertyOp26
 70
     1
102
RTVSPropertyOp27
 70
     1
102
RTVSPropertyOp28
 70
     1
102
RTVSPropertyOp29
 70
     1
102
RTVSPropertyOp30
 70
     1
102
RTVSPropertyOp31
 70
     1
102
RTVSPropertyOp32
 70
     1
  0
XRECORD
  5
D07
102
{ACAD_REACTORS
330
D06
102
}
330
D06
100
AcDbXrecord
280
     1
102
RTVSPropertyOp0
 70
     1
102
RTVSPropertyOp1
 70
     1
102
RTVSPropertyOp2
 70
     1
102
RTVSPropertyOp3
 70
     1
102
RTVSPropertyOp4
 70
     1
102
RTVSPropertyOp5
 70
     1
102
RTVSPropertyOp6
 70
     1
102
RTVSPropertyOp7
 70
     1
102
RTVSPropertyOp8
 70
     1
102
RTVSPropertyOp9
 70
     1
102
RTVSPropertyOp10
 70
     1
102
RTVSPropertyOp11
 70
     1
102
RTVSPropertyOp12
 70
     1
102
RTVSPropertyOp13
 70
     1
102
RTVSPropertyOp14
 70
     1
102
RTVSPropertyOp15
 70
     1
102
RTVSPropertyOp16
 70
     1
102
RTVSPropertyOp17
 70
     1
102
RTVSPropertyOp18
 70
     1
102
RTVSPropertyOp19
 70
     1
102
RTVSPropertyOp20
 70
     1
102
RTVSPropertyOp21
 70
     1
102
RTVSPropertyOp22
 70
     1
102
RTVSPropertyOp23
 70
     1
102
RTVSPropertyOp24
 70
     1
102
RTVSPropertyOp25
 70
     1
102
RTVSPropertyOp26
 70
     1
102
RTVSPropertyOp27
 70
     1
102
RTVSPropertyOp28
 70
     1
102
RTVSPropertyOp29
 70
     1
102
RTVSPropertyOp30
 70
     1
102
RTVSPropertyOp31
 70
     1
102
RTVSPropertyOp32
 70
     1
  0
XRECORD
  5
D0B
102
{ACAD_REACTORS
330
D0A
102
}
330
D0A
100
AcDbXrecord
280
     1
102
RTVSPropertyOp0
 70
     1
102
RTVSPropertyOp1
 70
     1
102
RTVSPropertyOp2
 70
     1
102
RTVSPropertyOp3
 70
     1
102
RTVSPropertyOp4
 70
     1
102
RTVSPropertyOp5
 70
     1
102
RTVSPropertyOp6
 70
     1
102
RTVSPropertyOp7
 70
     1
102
RTVSPropertyOp8
 70
     1
102
RTVSPropertyOp9
 70
     1
102
RTVSPropertyOp10
 70
     1
102
RTVSPropertyOp11
 70
     1
102
RTVSPropertyOp12
 70
     1
102
RTVSPropertyOp13
 70
     1
102
RTVSPropertyOp14
 70
     1
102
RTVSPropertyOp15
 70
     1
102
RTVSPropertyOp16
 70
     1
102
RTVSPropertyOp17
 70
     1
102
RTVSPropertyOp18
 70
     1
102
RTVSPropertyOp19
 70
     1
102
RTVSPropertyOp20
 70
     1
102
RTVSPropertyOp21
 70
     1
102
RTVSPropertyOp22
 70
     1
102
RTVSPropertyOp23
 70
     1
102
RTVSPropertyOp24
 70
     1
102
RTVSPropertyOp25
 70
     1
102
RTVSPropertyOp26
 70
     1
102
RTVSPropertyOp27
 70
     1
102
RTVSPropertyOp28
 70
     1
102
RTVSPropertyOp29
 70
     1
102
RTVSPropertyOp30
 70
     1
102
RTVSPropertyOp31
 70
     1
102
RTVSPropertyOp32
 70
     1
  0
XRECORD
  5
D25
102
{ACAD_REACTORS
330
D24
102
}
330
D24
100
AcDbXrecord
280
     1
102
RTVSPropertyOp0
 70
     0
102
RTVSPropertyOp1
 70
     0
102
RTVSPropertyOp2
 70
     0
102
RTVSPropertyOp3
 70
     0
102
RTVSPropertyOp4
 70
     0
102
RTVSPropertyOp5
 70
     0
102
RTVSPropertyOp6
 70
     0
102
RTVSPropertyOp7
 70
     0
102
RTVSPropertyOp8
 70
     0
102
RTVSPropertyOp9
 70
     0
102
RTVSPropertyOp10
 70
     0
102
RTVSPropertyOp11
 70
     0
102
RTVSPropertyOp12
 70
     0
102
RTVSPropertyOp13
 70
     0
102
RTVSPropertyOp14
 70
     2
102
RTVSPropertyOp15
 70
     0
102
RTVSPropertyOp16
 70
     0
102
RTVSPropertyOp17
 70
     0
102
RTVSPropertyOp18
 70
     0
102
RTVSPropertyOp19
 70
     0
102
RTVSPropertyOp20
 70
     0
102
RTVSPropertyOp21
 70
     0
102
RTVSPropertyOp22
 70
     0
102
RTVSPropertyOp23
 70
     0
102
RTVSPropertyOp24
 70
     0
102
RTVSPropertyOp25
 70
     0
102
RTVSPropertyOp26
 70
     0
102
RTVSPropertyOp27
 70
     0
102
RTVSPropertyOp28
 70
     1
102
RTVSPropertyOp29
 70
     1
102
RTVSPropertyOp30
 70
     1
102
RTVSPropertyOp31
 70
     1
102
RTVSPropertyOp32
 70
     1
  0
XRECORD
  5
D13
102
{ACAD_REACTORS
330
D12
102
}
330
D12
100
AcDbXrecord
280
     1
102
RTVSPropertyOp0
 70
     1
102
RTVSPropertyOp1
 70
     1
102
RTVSPropertyOp2
 70
     1
102
RTVSPropertyOp3
 70
     1
102
RTVSPropertyOp4
 70
     1
102
RTVSPropertyOp5
 70
     1
102
RTVSPropertyOp6
 70
     1
102
RTVSPropertyOp7
 70
     1
102
RTVSPropertyOp8
 70
     1
102
RTVSPropertyOp9
 70
     1
102
RTVSPropertyOp10
 70
     1
102
RTVSPropertyOp11
 70
     1
102
RTVSPropertyOp12
 70
     1
102
RTVSPropertyOp13
 70
     1
102
RTVSPropertyOp14
 70
     1
102
RTVSPropertyOp15
 70
     1
102
RTVSPropertyOp16
 70
     1
102
RTVSPropertyOp17
 70
     1
102
RTVSPropertyOp18
 70
     1
102
RTVSPropertyOp19
 70
     1
102
RTVSPropertyOp20
 70
     1
102
RTVSPropertyOp21
 70
     1
102
RTVSPropertyOp22
 70
     1
102
RTVSPropertyOp23
 70
     1
102
RTVSPropertyOp24
 70
     1
102
RTVSPropertyOp25
 70
     1
102
RTVSPropertyOp26
 70
     1
102
RTVSPropertyOp27
 70
     1
102
RTVSPropertyOp28
 70
     1
102
RTVSPropertyOp29
 70
     1
102
RTVSPropertyOp30
 70
     1
102
RTVSPropertyOp31
 70
     1
102
RTVSPropertyOp32
 70
     1
  0
XRECORD
  5
CF7
102
{ACAD_REACTORS
330
CF6
102
}
330
CF6
100
AcDbXrecord
280
     1
102
RTVSPropertyOp0
 70
     1
102
RTVSPropertyOp1
 70
     1
102
RTVSPropertyOp2
 70
     1
102
RTVSPropertyOp3
 70
     1
102
RTVSPropertyOp4
 70
     1
102
RTVSPropertyOp5
 70
     1
102
RTVSPropertyOp6
 70
     1
102
RTVSPropertyOp7
 70
     1
102
RTVSPropertyOp8
 70
     1
102
RTVSPropertyOp9
 70
     1
102
RTVSPropertyOp10
 70
     1
102
RTVSPropertyOp11
 70
     1
102
RTVSPropertyOp12
 70
     1
102
RTVSPropertyOp13
 70
     1
102
RTVSPropertyOp14
 70
     1
102
RTVSPropertyOp15
 70
     1
102
RTVSPropertyOp16
 70
     1
102
RTVSPropertyOp17
 70
     1
102
RTVSPropertyOp18
 70
     1
102
RTVSPropertyOp19
 70
     1
102
RTVSPropertyOp20
 70
     1
102
RTVSPropertyOp21
 70
     1
102
RTVSPropertyOp22
 70
     1
102
RTVSPropertyOp23
 70
     1
102
RTVSPropertyOp24
 70
     1
102
RTVSPropertyOp25
 70
     1
102
RTVSPropertyOp26
 70
     1
102
RTVSPropertyOp27
 70
     1
102
RTVSPropertyOp28
 70
     1
102
RTVSPropertyOp29
 70
     1
102
RTVSPropertyOp30
 70
     1
102
RTVSPropertyOp31
 70
     1
102
RTVSPropertyOp32
 70
     1
  0
XRECORD
  5
CF9
102
{ACAD_REACTORS
330
CF8
102
}
330
CF8
100
AcDbXrecord
280
     1
102
RTVSPropertyOp0
 70
     1
102
RTVSPropertyOp1
 70
     1
102
RTVSPropertyOp2
 70
     1
102
RTVSPropertyOp3
 70
     1
102
RTVSPropertyOp4
 70
     1
102
RTVSPropertyOp5
 70
     1
102
RTVSPropertyOp6
 70
     1
102
RTVSPropertyOp7
 70
     1
102
RTVSPropertyOp8
 70
     1
102
RTVSPropertyOp9
 70
     1
102
RTVSPropertyOp10
 70
     1
102
RTVSPropertyOp11
 70
     1
102
RTVSPropertyOp12
 70
     1
102
RTVSPropertyOp13
 70
     1
102
RTVSPropertyOp14
 70
     1
102
RTVSPropertyOp15
 70
     1
102
RTVSPropertyOp16
 70
     1
102
RTVSPropertyOp17
 70
     1
102
RTVSPropertyOp18
 70
     1
102
RTVSPropertyOp19
 70
     1
102
RTVSPropertyOp20
 70
     1
102
RTVSPropertyOp21
 70
     1
102
RTVSPropertyOp22
 70
     1
102
RTVSPropertyOp23
 70
     1
102
RTVSPropertyOp24
 70
     1
102
RTVSPropertyOp25
 70
     1
102
RTVSPropertyOp26
 70
     1
102
RTVSPropertyOp27
 70
     1
102
RTVSPropertyOp28
 70
     1
102
RTVSPropertyOp29
 70
     1
102
RTVSPropertyOp30
 70
     1
102
RTVSPropertyOp31
 70
     1
102
RTVSPropertyOp32
 70
     1
  0
XRECORD
  5
CFB
102
{ACAD_REACTORS
330
CFA
102
}
330
CFA
100
AcDbXrecord
280
     1
102
RTVSPropertyOp0
 70
     1
102
RTVSPropertyOp1
 70
     1
102
RTVSPropertyOp2
 70
     1
102
RTVSPropertyOp3
 70
     1
102
RTVSPropertyOp4
 70
     1
102
RTVSPropertyOp5
 70
     1
102
RTVSPropertyOp6
 70
     1
102
RTVSPropertyOp7
 70
     1
102
RTVSPropertyOp8
 70
     1
102
RTVSPropertyOp9
 70
     1
102
RTVSPropertyOp10
 70
     1
102
RTVSPropertyOp11
 70
     1
102
RTVSPropertyOp12
 70
     1
102
RTVSPropertyOp13
 70
     1
102
RTVSPropertyOp14
 70
     1
102
RTVSPropertyOp15
 70
     1
102
RTVSPropertyOp16
 70
     1
102
RTVSPropertyOp17
 70
     1
102
RTVSPropertyOp18
 70
     1
102
RTVSPropertyOp19
 70
     1
102
RTVSPropertyOp20
 70
     1
102
RTVSPropertyOp21
 70
     1
102
RTVSPropertyOp22
 70
     1
102
RTVSPropertyOp23
 70
     1
102
RTVSPropertyOp24
 70
     1
102
RTVSPropertyOp25
 70
     1
102
RTVSPropertyOp26
 70
     1
102
RTVSPropertyOp27
 70
     1
102
RTVSPropertyOp28
 70
     1
102
RTVSPropertyOp29
 70
     1
102
RTVSPropertyOp30
 70
     1
102
RTVSPropertyOp31
 70
     1
102
RTVSPropertyOp32
 70
     1
  0
XRECORD
  5
CFD
102
{ACAD_REACTORS
330
CFC
102
}
330
CFC
100
AcDbXrecord
280
     1
102
RTVSPropertyOp0
 70
     1
102
RTVSPropertyOp1
 70
     1
102
RTVSPropertyOp2
 70
     1
102
RTVSPropertyOp3
 70
     1
102
RTVSPropertyOp4
 70
     1
102
RTVSPropertyOp5
 70
     1
102
RTVSPropertyOp6
 70
     1
102
RTVSPropertyOp7
 70
     1
102
RTVSPropertyOp8
 70
     1
102
RTVSPropertyOp9
 70
     1
102
RTVSPropertyOp10
 70
     1
102
RTVSPropertyOp11
 70
     1
102
RTVSPropertyOp12
 70
     1
102
RTVSPropertyOp13
 70
     1
102
RTVSPropertyOp14
 70
     1
102
RTVSPropertyOp15
 70
     1
102
RTVSPropertyOp16
 70
     1
102
RTVSPropertyOp17
 70
     1
102
RTVSPropertyOp18
 70
     1
102
RTVSPropertyOp19
 70
     1
102
RTVSPropertyOp20
 70
     1
102
RTVSPropertyOp21
 70
     1
102
RTVSPropertyOp22
 70
     1
102
RTVSPropertyOp23
 70
     1
102
RTVSPropertyOp24
 70
     1
102
RTVSPropertyOp25
 70
     1
102
RTVSPropertyOp26
 70
     1
102
RTVSPropertyOp27
 70
     1
102
RTVSPropertyOp28
 70
     1
102
RTVSPropertyOp29
 70
     1
102
RTVSPropertyOp30
 70
     1
102
RTVSPropertyOp31
 70
     1
102
RTVSPropertyOp32
 70
     1
  0
XRECORD
  5
D05
102
{ACAD_REACTORS
330
D04
102
}
330
D04
100
AcDbXrecord
280
     1
102
RTVSPropertyOp0
 70
     1
102
RTVSPropertyOp1
 70
     1
102
RTVSPropertyOp2
 70
     1
102
RTVSPropertyOp3
 70
     1
102
RTVSPropertyOp4
 70
     1
102
RTVSPropertyOp5
 70
     1
102
RTVSPropertyOp6
 70
     1
102
RTVSPropertyOp7
 70
     1
102
RTVSPropertyOp8
 70
     1
102
RTVSPropertyOp9
 70
     1
102
RTVSPropertyOp10
 70
     1
102
RTVSPropertyOp11
 70
     1
102
RTVSPropertyOp12
 70
     1
102
RTVSPropertyOp13
 70
     1
102
RTVSPropertyOp14
 70
     1
102
RTVSPropertyOp15
 70
     1
102
RTVSPropertyOp16
 70
     1
102
RTVSPropertyOp17
 70
     1
102
RTVSPropertyOp18
 70
     1
102
RTVSPropertyOp19
 70
     1
102
RTVSPropertyOp20
 70
     1
102
RTVSPropertyOp21
 70
     1
102
RTVSPropertyOp22
 70
     1
102
RTVSPropertyOp23
 70
     1
102
RTVSPropertyOp24
 70
     1
102
RTVSPropertyOp25
 70
     1
102
RTVSPropertyOp26
 70
     1
102
RTVSPropertyOp27
 70
     1
102
RTVSPropertyOp28
 70
     1
102
RTVSPropertyOp29
 70
     1
102
RTVSPropertyOp30
 70
     1
102
RTVSPropertyOp31
 70
     1
102
RTVSPropertyOp32
 70
     1
  0
XRECORD
  5
D21
102
{ACAD_REACTORS
330
D20
102
}
330
D20
100
AcDbXrecord
280
     1
102
RTVSPropertyOp0
 70
     0
102
RTVSPropertyOp1
 70
     0
102
RTVSPropertyOp2
 70
     0
102
RTVSPropertyOp3
 70
     0
102
RTVSPropertyOp4
 70
     0
102
RTVSPropertyOp5
 70
     0
102
RTVSPropertyOp6
 70
     0
102
RTVSPropertyOp7
 70
     0
102
RTVSPropertyOp8
 70
     0
102
RTVSPropertyOp9
 70
     0
102
RTVSPropertyOp10
 70
     0
102
RTVSPropertyOp11
 70
     0
102
RTVSPropertyOp12
 70
     0
102
RTVSPropertyOp13
 70
     0
102
RTVSPropertyOp14
 70
     2
102
RTVSPropertyOp15
 70
     0
102
RTVSPropertyOp16
 70
     0
102
RTVSPropertyOp17
 70
     0
102
RTVSPropertyOp18
 70
     0
102
RTVSPropertyOp19
 70
     0
102
RTVSPropertyOp20
 70
     0
102
RTVSPropertyOp21
 70
     0
102
RTVSPropertyOp22
 70
     0
102
RTVSPropertyOp23
 70
     0
102
RTVSPropertyOp24
 70
     0
102
RTVSPropertyOp25
 70
     0
102
RTVSPropertyOp26
 70
     0
102
RTVSPropertyOp27
 70
     0
102
RTVSPropertyOp28
 70
     1
102
RTVSPropertyOp29
 70
     1
102
RTVSPropertyOp30
 70
     1
102
RTVSPropertyOp31
 70
     1
102
RTVSPropertyOp32
 70
     1
  0
XRECORD
  5
D11
102
{ACAD_REACTORS
330
D10
102
}
330
D10
100
AcDbXrecord
280
     1
102
RTVSPropertyOp0
 70
     1
102
RTVSPropertyOp1
 70
     1
102
RTVSPropertyOp2
 70
     1
102
RTVSPropertyOp3
 70
     1
102
RTVSPropertyOp4
 70
     1
102
RTVSPropertyOp5
 70
     1
102
RTVSPropertyOp6
 70
     1
102
RTVSPropertyOp7
 70
     1
102
RTVSPropertyOp8
 70
     1
102
RTVSPropertyOp9
 70
     1
102
RTVSPropertyOp10
 70
     1
102
RTVSPropertyOp11
 70
     1
102
RTVSPropertyOp12
 70
     1
102
RTVSPropertyOp13
 70
     1
102
RTVSPropertyOp14
 70
     1
102
RTVSPropertyOp15
 70
     1
102
RTVSPropertyOp16
 70
     1
102
RTVSPropertyOp17
 70
     1
102
RTVSPropertyOp18
 70
     1
102
RTVSPropertyOp19
 70
     1
102
RTVSPropertyOp20
 70
     1
102
RTVSPropertyOp21
 70
     1
102
RTVSPropertyOp22
 70
     1
102
RTVSPropertyOp23
 70
     1
102
RTVSPropertyOp24
 70
     1
102
RTVSPropertyOp25
 70
     1
102
RTVSPropertyOp26
 70
     1
102
RTVSPropertyOp27
 70
     1
102
RTVSPropertyOp28
 70
     1
102
RTVSPropertyOp29
 70
     1
102
RTVSPropertyOp30
 70
     1
102
RTVSPropertyOp31
 70
     1
102
RTVSPropertyOp32
 70
     1
  0
XRECORD
  5
D23
102
{ACAD_REACTORS
330
D22
102
}
330
D22
100
AcDbXrecord
280
     1
102
RTVSPropertyOp0
 70
     0
102
RTVSPropertyOp1
 70
     0
102
RTVSPropertyOp2
 70
     0
102
RTVSPropertyOp3
 70
     0
102
RTVSPropertyOp4
 70
     0
102
RTVSPropertyOp5
 70
     0
102
RTVSPropertyOp6
 70
     0
102
RTVSPropertyOp7
 70
     0
102
RTVSPropertyOp8
 70
     0
102
RTVSPropertyOp9
 70
     0
102
RTVSPropertyOp10
 70
     0
102
RTVSPropertyOp11
 70
     0
102
RTVSPropertyOp12
 70
     0
102
RTVSPropertyOp13
 70
     0
102
RTVSPropertyOp14
 70
     2
102
RTVSPropertyOp15
 70
     0
102
RTVSPropertyOp16
 70
     0
102
RTVSPropertyOp17
 70
     0
102
RTVSPropertyOp18
 70
     0
102
RTVSPropertyOp19
 70
     0
102
RTVSPropertyOp20
 70
     0
102
RTVSPropertyOp21
 70
     0
102
RTVSPropertyOp22
 70
     0
102
RTVSPropertyOp23
 70
     0
102
RTVSPropertyOp24
 70
     0
102
RTVSPropertyOp25
 70
     0
102
RTVSPropertyOp26
 70
     0
102
RTVSPropertyOp27
 70
     0
102
RTVSPropertyOp28
 70
     1
102
RTVSPropertyOp29
 70
     1
102
RTVSPropertyOp30
 70
     1
102
RTVSPropertyOp31
 70
     1
102
RTVSPropertyOp32
 70
     1
  0
XRECORD
  5
D09
102
{ACAD_REACTORS
330
D08
102
}
330
D08
100
AcDbXrecord
280
     1
102
RTVSPropertyOp0
 70
     1
102
RTVSPropertyOp1
 70
     1
102
RTVSPropertyOp2
 70
     1
102
RTVSPropertyOp3
 70
     1
102
RTVSPropertyOp4
 70
     1
102
RTVSPropertyOp5
 70
     1
102
RTVSPropertyOp6
 70
     1
102
RTVSPropertyOp7
 70
     1
102
RTVSPropertyOp8
 70
     1
102
RTVSPropertyOp9
 70
     1
102
RTVSPropertyOp10
 70
     1
102
RTVSPropertyOp11
 70
     1
102
RTVSPropertyOp12
 70
     1
102
RTVSPropertyOp13
 70
     1
102
RTVSPropertyOp14
 70
     1
102
RTVSPropertyOp15
 70
     1
102
RTVSPropertyOp16
 70
     1
102
RTVSPropertyOp17
 70
     1
102
RTVSPropertyOp18
 70
     1
102
RTVSPropertyOp19
 70
     1
102
RTVSPropertyOp20
 70
     1
102
RTVSPropertyOp21
 70
     1
102
RTVSPropertyOp22
 70
     1
102
RTVSPropertyOp23
 70
     1
102
RTVSPropertyOp24
 70
     1
102
RTVSPropertyOp25
 70
     1
102
RTVSPropertyOp26
 70
     1
102
RTVSPropertyOp27
 70
     1
102
RTVSPropertyOp28
 70
     1
102
RTVSPropertyOp29
 70
     1
102
RTVSPropertyOp30
 70
     1
102
RTVSPropertyOp31
 70
     1
102
RTVSPropertyOp32
 70
     1
  0
XRECORD
  5
D1F
102
{ACAD_REACTORS
330
D1E
102
}
330
D1E
100
AcDbXrecord
280
     1
102
RTVSPropertyOp0
 70
     1
102
RTVSPropertyOp1
 70
     1
102
RTVSPropertyOp2
 70
     1
102
RTVSPropertyOp3
 70
     1
102
RTVSPropertyOp4
 70
     1
102
RTVSPropertyOp5
 70
     1
102
RTVSPropertyOp6
 70
     1
102
RTVSPropertyOp7
 70
     1
102
RTVSPropertyOp8
 70
     1
102
RTVSPropertyOp9
 70
     1
102
RTVSPropertyOp10
 70
     1
102
RTVSPropertyOp11
 70
     1
102
RTVSPropertyOp12
 70
     1
102
RTVSPropertyOp13
 70
     1
102
RTVSPropertyOp14
 70
     1
102
RTVSPropertyOp15
 70
     1
102
RTVSPropertyOp16
 70
     1
102
RTVSPropertyOp17
 70
     1
102
RTVSPropertyOp18
 70
     1
102
RTVSPropertyOp19
 70
     1
102
RTVSPropertyOp20
 70
     1
102
RTVSPropertyOp21
 70
     1
102
RTVSPropertyOp22
 70
     1
102
RTVSPropertyOp23
 70
     1
102
RTVSPropertyOp24
 70
     1
102
RTVSPropertyOp25
 70
     1
102
RTVSPropertyOp26
 70
     1
102
RTVSPropertyOp27
 70
     1
102
RTVSPropertyOp28
 70
     1
102
RTVSPropertyOp29
 70
     1
102
RTVSPropertyOp30
 70
     1
102
RTVSPropertyOp31
 70
     1
102
RTVSPropertyOp32
 70
     1
  0
XRECORD
  5
D1D
102
{ACAD_REACTORS
330
D1C
102
}
330
D1C
100
AcDbXrecord
280
     1
102
RTVSPropertyOp0
 70
     1
102
RTVSPropertyOp1
 70
     1
102
RTVSPropertyOp2
 70
     1
102
RTVSPropertyOp3
 70
     1
102
RTVSPropertyOp4
 70
     1
102
RTVSPropertyOp5
 70
     1
102
RTVSPropertyOp6
 70
     1
102
RTVSPropertyOp7
 70
     1
102
RTVSPropertyOp8
 70
     1
102
RTVSPropertyOp9
 70
     1
102
RTVSPropertyOp10
 70
     1
102
RTVSPropertyOp11
 70
     1
102
RTVSPropertyOp12
 70
     1
102
RTVSPropertyOp13
 70
     1
102
RTVSPropertyOp14
 70
     1
102
RTVSPropertyOp15
 70
     1
102
RTVSPropertyOp16
 70
     1
102
RTVSPropertyOp17
 70
     1
102
RTVSPropertyOp18
 70
     1
102
RTVSPropertyOp19
 70
     1
102
RTVSPropertyOp20
 70
     1
102
RTVSPropertyOp21
 70
     1
102
RTVSPropertyOp22
 70
     1
102
RTVSPropertyOp23
 70
     1
102
RTVSPropertyOp24
 70
     1
102
RTVSPropertyOp25
 70
     1
102
RTVSPropertyOp26
 70
     1
102
RTVSPropertyOp27
 70
     1
102
RTVSPropertyOp28
 70
     1
102
RTVSPropertyOp29
 70
     1
102
RTVSPropertyOp30
 70
     1
102
RTVSPropertyOp31
 70
     1
102
RTVSPropertyOp32
 70
     1
  0
XRECORD
  5
D17
102
{ACAD_REACTORS
330
D16
102
}
330
D16
100
AcDbXrecord
280
     1
102
RTVSPropertyOp0
 70
     1
102
RTVSPropertyOp1
 70
     1
102
RTVSPropertyOp2
 70
     1
102
RTVSPropertyOp3
 70
     1
102
RTVSPropertyOp4
 70
     1
102
RTVSPropertyOp5
 70
     1
102
RTVSPropertyOp6
 70
     1
102
RTVSPropertyOp7
 70
     1
102
RTVSPropertyOp8
 70
     1
102
RTVSPropertyOp9
 70
     1
102
RTVSPropertyOp10
 70
     1
102
RTVSPropertyOp11
 70
     1
102
RTVSPropertyOp12
 70
     1
102
RTVSPropertyOp13
 70
     1
102
RTVSPropertyOp14
 70
     1
102
RTVSPropertyOp15
 70
     1
102
RTVSPropertyOp16
 70
     1
102
RTVSPropertyOp17
 70
     1
102
RTVSPropertyOp18
 70
     1
102
RTVSPropertyOp19
 70
     1
102
RTVSPropertyOp20
 70
     1
102
RTVSPropertyOp21
 70
     1
102
RTVSPropertyOp22
 70
     1
102
RTVSPropertyOp23
 70
     1
102
RTVSPropertyOp24
 70
     1
102
RTVSPropertyOp25
 70
     1
102
RTVSPropertyOp26
 70
     1
102
RTVSPropertyOp27
 70
     1
102
RTVSPropertyOp28
 70
     1
102
RTVSPropertyOp29
 70
     1
102
RTVSPropertyOp30
 70
     1
102
RTVSPropertyOp31
 70
     1
102
RTVSPropertyOp32
 70
     1
  0
XRECORD
  5
D19
102
{ACAD_REACTORS
330
D18
102
}
330
D18
100
AcDbXrecord
280
     1
102
RTVSPropertyOp0
 70
     1
102
RTVSPropertyOp1
 70
     1
102
RTVSPropertyOp2
 70
     1
102
RTVSPropertyOp3
 70
     1
102
RTVSPropertyOp4
 70
     1
102
RTVSPropertyOp5
 70
     1
102
RTVSPropertyOp6
 70
     1
102
RTVSPropertyOp7
 70
     1
102
RTVSPropertyOp8
 70
     1
102
RTVSPropertyOp9
 70
     1
102
RTVSPropertyOp10
 70
     1
102
RTVSPropertyOp11
 70
     1
102
RTVSPropertyOp12
 70
     1
102
RTVSPropertyOp13
 70
     1
102
RTVSPropertyOp14
 70
     1
102
RTVSPropertyOp15
 70
     1
102
RTVSPropertyOp16
 70
     1
102
RTVSPropertyOp17
 70
     1
102
RTVSPropertyOp18
 70
     1
102
RTVSPropertyOp19
 70
     1
102
RTVSPropertyOp20
 70
     1
102
RTVSPropertyOp21
 70
     1
102
RTVSPropertyOp22
 70
     1
102
RTVSPropertyOp23
 70
     1
102
RTVSPropertyOp24
 70
     1
102
RTVSPropertyOp25
 70
     1
102
RTVSPropertyOp26
 70
     1
102
RTVSPropertyOp27
 70
     1
102
RTVSPropertyOp28
 70
     1
102
RTVSPropertyOp29
 70
     1
102
RTVSPropertyOp30
 70
     1
102
RTVSPropertyOp31
 70
     1
102
RTVSPropertyOp32
 70
     1
  0
XRECORD
  5
D0F
102
{ACAD_REACTORS
330
D0E
102
}
330
D0E
100
AcDbXrecord
280
     1
102
RTVSPropertyOp0
 70
     1
102
RTVSPropertyOp1
 70
     1
102
RTVSPropertyOp2
 70
     1
102
RTVSPropertyOp3
 70
     1
102
RTVSPropertyOp4
 70
     1
102
RTVSPropertyOp5
 70
     1
102
RTVSPropertyOp6
 70
     1
102
RTVSPropertyOp7
 70
     1
102
RTVSPropertyOp8
 70
     1
102
RTVSPropertyOp9
 70
     1
102
RTVSPropertyOp10
 70
     1
102
RTVSPropertyOp11
 70
     1
102
RTVSPropertyOp12
 70
     1
102
RTVSPropertyOp13
 70
     1
102
RTVSPropertyOp14
 70
     1
102
RTVSPropertyOp15
 70
     1
102
RTVSPropertyOp16
 70
     1
102
RTVSPropertyOp17
 70
     1
102
RTVSPropertyOp18
 70
     1
102
RTVSPropertyOp19
 70
     1
102
RTVSPropertyOp20
 70
     1
102
RTVSPropertyOp21
 70
     1
102
RTVSPropertyOp22
 70
     1
102
RTVSPropertyOp23
 70
     1
102
RTVSPropertyOp24
 70
     1
102
RTVSPropertyOp25
 70
     1
102
RTVSPropertyOp26
 70
     1
102
RTVSPropertyOp27
 70
     1
102
RTVSPropertyOp28
 70
     1
102
RTVSPropertyOp29
 70
     1
102
RTVSPropertyOp30
 70
     1
102
RTVSPropertyOp31
 70
     1
102
RTVSPropertyOp32
 70
     1
  0
XRECORD
  5
D03
102
{ACAD_REACTORS
330
D02
102
}
330
D02
100
AcDbXrecord
280
     1
102
RTVSPropertyOp0
 70
     1
102
RTVSPropertyOp1
 70
     1
102
RTVSPropertyOp2
 70
     1
102
RTVSPropertyOp3
 70
     1
102
RTVSPropertyOp4
 70
     1
102
RTVSPropertyOp5
 70
     1
102
RTVSPropertyOp6
 70
     1
102
RTVSPropertyOp7
 70
     1
102
RTVSPropertyOp8
 70
     1
102
RTVSPropertyOp9
 70
     1
102
RTVSPropertyOp10
 70
     1
102
RTVSPropertyOp11
 70
     1
102
RTVSPropertyOp12
 70
     1
102
RTVSPropertyOp13
 70
     1
102
RTVSPropertyOp14
 70
     1
102
RTVSPropertyOp15
 70
     1
102
RTVSPropertyOp16
 70
     1
102
RTVSPropertyOp17
 70
     1
102
RTVSPropertyOp18
 70
     1
102
RTVSPropertyOp19
 70
     1
102
RTVSPropertyOp20
 70
     1
102
RTVSPropertyOp21
 70
     1
102
RTVSPropertyOp22
 70
     1
102
RTVSPropertyOp23
 70
     1
102
RTVSPropertyOp24
 70
     1
102
RTVSPropertyOp25
 70
     1
102
RTVSPropertyOp26
 70
     1
102
RTVSPropertyOp27
 70
     1
102
RTVSPropertyOp28
 70
     1
102
RTVSPropertyOp29
 70
     1
102
RTVSPropertyOp30
 70
     1
102
RTVSPropertyOp31
 70
     1
102
RTVSPropertyOp32
 70
     1
  0
XRECORD
  5
D1B
102
{ACAD_REACTORS
330
D1A
102
}
330
D1A
100
AcDbXrecord
280
     1
102
RTVSPropertyOp0
 70
     1
102
RTVSPropertyOp1
 70
     1
102
RTVSPropertyOp2
 70
     1
102
RTVSPropertyOp3
 70
     1
102
RTVSPropertyOp4
 70
     1
102
RTVSPropertyOp5
 70
     1
102
RTVSPropertyOp6
 70
     1
102
RTVSPropertyOp7
 70
     1
102
RTVSPropertyOp8
 70
     1
102
RTVSPropertyOp9
 70
     1
102
RTVSPropertyOp10
 70
     1
102
RTVSPropertyOp11
 70
     1
102
RTVSPropertyOp12
 70
     1
102
RTVSPropertyOp13
 70
     1
102
RTVSPropertyOp14
 70
     1
102
RTVSPropertyOp15
 70
     1
102
RTVSPropertyOp16
 70
     1
102
RTVSPropertyOp17
 70
     1
102
RTVSPropertyOp18
 70
     1
102
RTVSPropertyOp19
 70
     1
102
RTVSPropertyOp20
 70
     1
102
RTVSPropertyOp21
 70
     1
102
RTVSPropertyOp22
 70
     1
102
RTVSPropertyOp23
 70
     1
102
RTVSPropertyOp24
 70
     1
102
RTVSPropertyOp25
 70
     1
102
RTVSPropertyOp26
 70
     1
102
RTVSPropertyOp27
 70
     1
102
RTVSPropertyOp28
 70
     1
102
RTVSPropertyOp29
 70
     1
102
RTVSPropertyOp30
 70
     1
102
RTVSPropertyOp31
 70
     1
102
RTVSPropertyOp32
 70
     1
  0
ENDSEC
  0
EOF
