  0
SECTION
  2
HEADER
  9
$ACADVER
  1
AC1015
  9
$ACADMAINTVER
 70
    18
  9
$DWGCODEPAGE
  3
ANSI_1252
  9
$INSBASE
 10
0.0
 20
0.0
 30
0.0
  9
$EXTMIN
 10
0.0
 20
0.0
 30
0.0
  9
$EXTMAX
 10
71.57894736842106
 20
46.3157894736842
 30
0.0
  9
$LIMMIN
 10
0.0
 20
0.0
  9
$LIMMAX
 10
71.57894736842106
 20
46.3157894736842
  9
$ORTHOMODE
 70
     0
  9
$REGENMODE
 70
     1
  9
$FILLMODE
 70
     1
  9
$QTEXTMODE
 70
     0
  9
$MIRRTEXT
 70
     0
  9
$LTSCALE
 40
4.210526315789473
  9
$ATTMODE
 70
     1
  9
$TEXTSIZE
 40
0.2
  9
$TRACEWID
 40
0.05
  9
$TEXTSTYLE
  7
Standard
  9
$CLAYER
  8
0
  9
$CELTYPE
  6
ByLayer
  9
$CECOLOR
 62
   256
  9
$CELTSCALE
 40
1.0
  9
$DISPSILH
 70
     0
  9
$DIMSCALE
 40
1.0
  9
$DIMASZ
 40
0.0708661417322835
  9
$DIMEXO
 40
0.0625
  9
$DIMDLI
 40
0.38
  9
$DIMRND
 40
0.0
  9
$DIMDLE
 40
0.0
  9
$DIMEXE
 40
0.18
  9
$DIMTP
 40
0.0
  9
$DIMTM
 40
0.0
  9
$DIMTXT
 40
0.0708661417322835
  9
$DIMCEN
 40
0.09
  9
$DIMTSZ
 40
0.0
  9
$DIMTOL
 70
     0
  9
$DIMLIM
 70
     0
  9
$DIMTIH
 70
     1
  9
$DIMTOH
 70
     1
  9
$DIMSE1
 70
     0
  9
$DIMSE2
 70
     0
  9
$DIMTAD
 70
     0
  9
$DIMZIN
 70
     0
  9
$DIMBLK
  1

  9
$DIMASO
 70
     1
  9
$DIMSHO
 70
     1
  9
$DIMPOST
  1

  9
$DIMAPOST
  1

  9
$DIMALT
 70
     0
  9
$DIMALTD
 70
     2
  9
$DIMALTF
 40
25.4
  9
$DIMLFAC
 40
1.0
  9
$DIMTOFL
 70
     0
  9
$DIMTVP
 40
0.0
  9
$DIMTIX
 70
     0
  9
$DIMSOXD
 70
     0
  9
$DIMSAH
 70
     0
  9
$DIMBLK1
  1

  9
$DIMBLK2
  1

  9
$DIMSTYLE
  2
Standard
  9
$DIMCLRD
 70
     0
  9
$DIMCLRE
 70
     0
  9
$DIMCLRT
 70
     0
  9
$DIMTFAC
 40
1.0
  9
$DIMGAP
 40
0.09
  9
$DIMJUST
 70
     0
  9
$DIMSD1
 70
     0
  9
$DIMSD2
 70
     0
  9
$DIMTOLJ
 70
     1
  9
$DIMTZIN
 70
     0
  9
$DIMALTZ
 70
     0
  9
$DIMALTTZ
 70
     0
  9
$DIMUPT
 70
     0
  9
$DIMDEC
 70
     4
  9
$DIMTDEC
 70
     4
  9
$DIMALTU
 70
     2
  9
$DIMALTTD
 70
     2
  9
$DIMTXSTY
  7
Standard
  9
$DIMAUNIT
 70
     0
  9
$DIMADEC
 70
     0
  9
$DIMALTRND
 40
0.0
  9
$DIMAZIN
 70
     0
  9
$DIMDSEP
 70
    46
  9
$DIMATFIT
 70
     3
  9
$DIMFRAC
 70
     0
  9
$DIMLDRBLK
  1

  9
$DIMLUNIT
 70
     2
  9
$DIMLWD
 70
    -2
  9
$DIMLWE
 70
    -2
  9
$DIMTMOVE
 70
     0
  9
$LUNITS
 70
     2
  9
$LUPREC
 70
     4
  9
$SKETCHINC
 40
0.1
  9
$FILLETRAD
 40
0.0
  9
$AUNITS
 70
     0
  9
$AUPREC
 70
     0
  9
$MENU
  1
.
  9
$ELEVATION
 40
0.0
  9
$PELEVATION
 40
0.0
  9
$THICKNESS
 40
0.0
  9
$LIMCHECK
 70
     0
  9
$CHAMFERA
 40
0.0
  9
$CHAMFERB
 40
0.0
  9
$CHAMFERC
 40
0.0
  9
$CHAMFERD
 40
0.0
  9
$SKPOLY
 70
     0
  9
$TDCREATE
 40
2455946.359226690
  9
$TDUCREATE
 40
2455946.609226690
  9
$TDUPDATE
 40
2455946.359226690
  9
$TDUUPDATE
 40
2455946.609226690
  9
$TDINDWG
 40
0.0000361806
  9
$TDUSRTIMER
 40
0.0000361806
  9
$USRTIMER
 70
     1
  9
$ANGBASE
 50
0.0
  9
$ANGDIR
 70
     0
  9
$PDMODE
 70
     0
  9
$PDSIZE
 40
0.0
  9
$PLINEWID
 40
0.0
  9
$SPLFRAME
 70
     0
  9
$SPLINETYPE
 70
     6
  9
$SPLINESEGS
 70
     8
  9
$HANDSEED
  5
E34
  9
$SURFTAB1
 70
     6
  9
$SURFTAB2
 70
     6
  9
$SURFTYPE
 70
     6
  9
$SURFU
 70
     6
  9
$SURFV
 70
     6
  9
$UCSBASE
  2

  9
$UCSNAME
  2

  9
$UCSORG
 10
0.0
 20
0.0
 30
0.0
  9
$UCSXDIR
 10
1.0
 20
0.0
 30
0.0
  9
$UCSYDIR
 10
0.0
 20
1.0
 30
0.0
  9
$UCSORTHOREF
  2

  9
$UCSORTHOVIEW
 70
     0
  9
$UCSORGTOP
 10
0.0
 20
0.0
 30
0.0
  9
$UCSORGBOTTOM
 10
0.0
 20
0.0
 30
0.0
  9
$UCSORGLEFT
 10
0.0
 20
0.0
 30
0.0
  9
$UCSORGRIGHT
 10
0.0
 20
0.0
 30
0.0
  9
$UCSORGFRONT
 10
0.0
 20
0.0
 30
0.0
  9
$UCSORGBACK
 10
0.0
 20
0.0
 30
0.0
  9
$PUCSBASE
  2

  9
$PUCSNAME
  2

  9
$PUCSORG
 10
0.0
 20
0.0
 30
0.0
  9
$PUCSXDIR
 10
1.0
 20
0.0
 30
0.0
  9
$PUCSYDIR
 10
0.0
 20
1.0
 30
0.0
  9
$PUCSORTHOREF
  2

  9
$PUCSORTHOVIEW
 70
     0
  9
$PUCSORGTOP
 10
0.0
 20
0.0
 30
0.0
  9
$PUCSORGBOTTOM
 10
0.0
 20
0.0
 30
0.0
  9
$PUCSORGLEFT
 10
0.0
 20
0.0
 30
0.0
  9
$PUCSORGRIGHT
 10
0.0
 20
0.0
 30
0.0
  9
$PUCSORGFRONT
 10
0.0
 20
0.0
 30
0.0
  9
$PUCSORGBACK
 10
0.0
 20
0.0
 30
0.0
  9
$USERI1
 70
     0
  9
$USERI2
 70
     0
  9
$USERI3
 70
     0
  9
$USERI4
 70
     0
  9
$USERI5
 70
     0
  9
$USERR1
 40
0.0
  9
$USERR2
 40
0.0
  9
$USERR3
 40
0.0
  9
$USERR4
 40
0.0
  9
$USERR5
 40
0.0
  9
$WORLDVIEW
 70
     1
  9
$SHADEDGE
 70
     3
  9
$SHADEDIF
 70
    70
  9
$TILEMODE
 70
     1
  9
$MAXACTVP
 70
    64
  9
$PINSBASE
 10
0.0
 20
0.0
 30
0.0
  9
$PLIMCHECK
 70
     0
  9
$PEXTMIN
 10
0.0
 20
0.0
 30
0.0
  9
$PEXTMAX
 10
71.57894736842106
 20
46.3157894736842
 30
0.0
  9
$PLIMMIN
 10
0.0
 20
0.0
  9
$PLIMMAX
 10
71.57894736842106
 20
46.3157894736842
  9
$UNITMODE
 70
     0
  9
$VISRETAIN
 70
     1
  9
$PLINEGEN
 70
     0
  9
$PSLTSCALE
 70
     1
  9
$TREEDEPTH
 70
  3020
  9
$CMLSTYLE
  2
Standard
  9
$CMLJUST
 70
     0
  9
$CMLSCALE
 40
1.0
  9
$PROXYGRAPHICS
 70
     1
  9
$MEASUREMENT
 70
     0
  9
$CELWEIGHT
370
    -1
  9
$ENDCAPS
280
     0
  9
$JOINSTYLE
280
     0
  9
$LWDISPLAY
290
     0
  9
$INSUNITS
 70
     1
  9
$HYPERLINKBASE
  1

  9
$STYLESHEET
  1

  9
$XEDIT
290
     1
  9
$CEPSNTYPE
380
     0
  9
$PSTYLEMODE
290
     1
  9
$FINGERPRINTGUID
  2
{7CF8809A-5458-4236-943E-A062F2AB6342}
  9
$VERSIONGUID
  2
{B41FD33F-A36E-4816-896F-ED394AC20A1D}
  9
$EXTNAMES
290
     1
  9
$PSVPSCALE
 40
0.0
  9
$OLESTARTUP
290
     0
  0
ENDSEC
  0
SECTION
  2
CLASSES
  0
CLASS
  1
ACDBDICTIONARYWDFLT
  2
AcDbDictionaryWithDefault
  3
ObjectDBX Classes
 90
        0
280
     0
281
     0
  0
CLASS
  1
MATERIAL
  2
AcDbMaterial
  3
ObjectDBX Classes
 90
     1153
280
     0
281
     0
  0
CLASS
  1
VISUALSTYLE
  2
AcDbVisualStyle
  3
ObjectDBX Classes
 90
     4095
280
     0
281
     0
  0
CLASS
  1
SCALE
  2
AcDbScale
  3
ObjectDBX Classes
 90
     1153
280
     0
281
     0
  0
CLASS
  1
TABLESTYLE
  2
AcDbTableStyle
  3
ObjectDBX Classes
 90
     4095
280
     0
281
     0
  0
CLASS
  1
MLEADERSTYLE
  2
AcDbMLeaderStyle
  3
ACDB_MLEADERSTYLE_CLASS
 90
     4095
280
     0
281
     0
  0
CLASS
  1
DICTIONARYVAR
  2
AcDbDictionaryVar
  3
ObjectDBX Classes
 90
        0
280
     0
281
     0
  0
CLASS
  1
CELLSTYLEMAP
  2
AcDbCellStyleMap
  3
ObjectDBX Classes
 90
     1152
280
     0
281
     0
  0
CLASS
  1
ACDBPLACEHOLDER
  2
AcDbPlaceHolder
  3
ObjectDBX Classes
 90
        0
280
     0
281
     0
  0
CLASS
  1
LAYOUT
  2
AcDbLayout
  3
ObjectDBX Classes
 90
        0
280
     0
281
     0
  0
ENDSEC
  0
SECTION
  2
TABLES
  0
TABLE
  2
VPORT
  5
8
330
0
100
AcDbSymbolTable
 70
     1
  0
VPORT
  5
57
330
8
100
AcDbSymbolTableRecord
100
AcDbViewportTableRecord
  2
*Active
 70
     0
 10
0.0
 20
0.0
 11
1.0
 21
1.0
 12
35.78947368421053
 22
23.1578947368421
 13
0.0
 23
0.0
 14
1.0
 24
1.0
 15
0.0
 25
0.0
 16
0.0
 26
0.0
 36
1.0
 17
0.0
 27
0.0
 37
0.0
 40
46.3157894736842
 41
1.545454545454545
 42
50.0
 43
0.0
 44
0.0
 50
0.0
 51
0.0
 71
     0
 72
   100
 73
     1
 74
     1
 75
     0
 76
     0
 77
     0
 78
     0
281
     0
 65
     1
110
0.0
120
0.0
130
0.0
111
1.0
121
0.0
131
0.0
112
0.0
122
1.0
132
0.0
 79
     0
146
0.0
  0
ENDTAB
  0
TABLE
  2
LTYPE
  5
5
330
0
100
AcDbSymbolTable
 70
    59
  0
LTYPE
  5
5B
330
5
100
AcDbSymbolTableRecord
100
AcDbLinetypeTableRecord
  2
ByBlock
 70
     0
  3

 72
    65
 73
     0
 40
0.0
  0
LTYPE
  5
5C
330
5
100
AcDbSymbolTableRecord
100
AcDbLinetypeTableRecord
  2
ByLayer
 70
     0
  3

 72
    65
 73
     0
 40
0.0
  0
LTYPE
  5
5D
330
5
100
AcDbSymbolTableRecord
100
AcDbLinetypeTableRecord
  2
Continuous
 70
     0
  3
Solid line
 72
    65
 73
     0
 40
0.0
  0
LTYPE
  5
7C
330
5
100
AcDbSymbolTableRecord
100
AcDbLinetypeTableRecord
  2
BY_STANDARD
 70
     0
  3
By Standard ____________    ____    ____   _
 72
    65
 73
     6
 40
1.240299999999999
 49
0.6614
 74
     0
 49
-0.0827
 74
     0
 49
0.1654
 74
     0
 49
-0.0827
 74
     0
 49
0.1654
 74
     0
 49
-0.0827
 74
     0
  0
LTYPE
  5
7D
330
5
100
AcDbSymbolTableRecord
100
AcDbLinetypeTableRecord
  2
CHAIN
 70
     0
  3
Chain ____ _ ____ _ ____ _ ____ _ ____ _ ____
 72
    65
 73
     4
 40
0.7087
 49
0.4724000000000001
 74
     0
 49
-0.0591
 74
     0
 49
0.1181
 74
     0
 49
-0.0591
 74
     0
  0
LTYPE
  5
7E
330
5
100
AcDbSymbolTableRecord
100
AcDbLinetypeTableRecord
  2
DASH_DOT
 70
     0
  3
Dash dot __ . __ . __ . __ . __ . __ . __ . __
 72
    65
 73
     4
 40
0.37
 49
0.24
 74
     0
 49
-0.06
 74
     0
 49
0.01
 74
     0
 49
-0.06
 74
     0
  0
LTYPE
  5
7F
330
5
100
AcDbSymbolTableRecord
100
AcDbLinetypeTableRecord
  2
DOUBLE_DASH_DOT
 70
     0
  3
Double-Dash Dot __ __ . __ __ . __ __ . __ _
 72
    65
 73
     6
 40
0.4398
 49
0.24
 74
     0
 49
-0.06
 74
     0
 49
0.0098
 74
     0
 49
-0.06
 74
     0
 49
0.01
 74
     0
 49
-0.06
 74
     0
  0
LTYPE
  5
80
330
5
100
AcDbSymbolTableRecord
100
AcDbLinetypeTableRecord
  2
DASH_TRIPLE_DOT
 70
     0
  3
Dash Triple-Dot _ . . . _ . . . _ . . . _
 72
    65
 73
     8
 40
0.51
 49
0.24
 74
     0
 49
-0.06
 74
     0
 49
0.01
 74
     0
 49
-0.06
 74
     0
 49
0.01
 74
     0
 49
-0.06
 74
     0
 49
0.01
 74
     0
 49
-0.06
 74
     0
  0
LTYPE
  5
81
330
5
100
AcDbSymbolTableRecord
100
AcDbLinetypeTableRecord
  2
DASHED
 70
     0
  3
Dashed __ __ __ __ __ __ __ __ __ __ __ __ __ _
 72
    65
 73
     2
 40
0.2067
 49
0.1654
 74
     0
 49
-0.0413
 74
     0
  0
LTYPE
  5
82
330
5
100
AcDbSymbolTableRecord
100
AcDbLinetypeTableRecord
  2
DASH_DOUBLE_DOT
 70
     0
  3
Dash Double-Dot __ . . __ . . __ . . __ . .
 72
    65
 73
     6
 40
0.4398
 49
0.24
 74
     0
 49
-0.06
 74
     0
 49
0.0098
 74
     0
 49
-0.06
 74
     0
 49
0.01
 74
     0
 49
-0.06
 74
     0
  0
LTYPE
  5
83
330
5
100
AcDbSymbolTableRecord
100
AcDbLinetypeTableRecord
  2
DASHED_SPACE
 70
     0
  3
Dashed Space __ __ __ __ __ __ __ __ __ __ __ _
 72
    65
 73
     2
 40
0.2067
 49
0.1654
 74
     0
 49
-0.0413
 74
     0
  0
LTYPE
  5
84
330
5
100
AcDbSymbolTableRecord
100
AcDbLinetypeTableRecord
  2
DOTTED
 70
     0
  3
Dotted . . . . . . . . . . . . . . . . . . . . 
 72
    65
 73
     2
 40
0.0482
 49
0.0069
 74
     0
 49
-0.0413
 74
     0
  0
LTYPE
  5
85
330
5
100
AcDbSymbolTableRecord
100
AcDbLinetypeTableRecord
  2
DOUBLE_DASH_CHAIN
 70
     0
  3
Double-Dash Chain ______  __  __  ______  __  _
 72
    65
 73
     6
 40
1.240299999999999
 49
0.6614
 74
     0
 49
-0.0827
 74
     0
 49
0.1654
 74
     0
 49
-0.0827
 74
     0
 49
0.1654
 74
     0
 49
-0.0827
 74
     0
  0
LTYPE
  5
87
330
5
100
AcDbSymbolTableRecord
100
AcDbLinetypeTableRecord
  2
DOUBLE_DASH_DOUBLE_DOT
 70
     0
  3
Double-Dash Double-dot _ _ . . _ _ . . _
 72
    65
 73
     8
 40
0.7400000000000001
 49
0.24
 74
     0
 49
-0.06
 74
     0
 49
0.24
 74
     0
 49
-0.06
 74
     0
 49
0.01
 74
     0
 49
-0.06
 74
     0
 49
0.01
 74
     0
 49
-0.06
 74
     0
  0
LTYPE
  5
88
330
5
100
AcDbSymbolTableRecord
100
AcDbLinetypeTableRecord
  2
DOUBLE_DASH_TRIPLE_DOT
 70
     0
  3
Double Dash Triple Dot __ __ . . . __ __ . .
 72
    65
 73
    10
 40
0.8100000000000001
 49
0.24
 74
     0
 49
-0.06
 74
     0
 49
0.24
 74
     0
 49
-0.06
 74
     0
 49
0.01
 74
     0
 49
-0.06
 74
     0
 49
0.01
 74
     0
 49
-0.06
 74
     0
 49
0.01
 74
     0
 49
-0.06
 74
     0
  0
LTYPE
  5
89
330
5
100
AcDbSymbolTableRecord
100
AcDbLinetypeTableRecord
  2
LONG_DASH_DOTTED
 70
     0
  3
Long Dash Dotted ____ . ____ . ____ . ____ . _
 72
    65
 73
     4
 40
0.3543
 49
0.2362
 74
     0
 49
-0.0295
 74
     0
 49
0.0591
 74
     0
 49
-0.0295
 74
     0
  0
LTYPE
  5
8A
330
5
100
AcDbSymbolTableRecord
100
AcDbLinetypeTableRecord
  2
LONG_DASH_DOUBLE_DOT
 70
     0
  3
Long Dash Double Dot ________  .  .  ________  
 72
    65
 73
     6
 40
0.6799999999999999
 49
0.48
 74
     0
 49
-0.06
 74
     0
 49
0.01
 74
     0
 49
-0.06
 74
     0
 49
0.01
 74
     0
 49
-0.06
 74
     0
  0
LTYPE
  5
8B
330
5
100
AcDbSymbolTableRecord
100
AcDbLinetypeTableRecord
  2
LONG_DASH_TRIPLE_DOT
 70
     0
  3
Long Dash Triple Dot ____ ... ____ ... ____
 72
    65
 73
     8
 40
0.3689
 49
0.2362
 74
     0
 49
-0.0295
 74
     0
 49
0.0049
 74
     0
 49
-0.0295
 74
     0
 49
0.0049
 74
     0
 49
-0.0295
 74
     0
 49
0.0049
 74
     0
 49
-0.0295
 74
     0
  0
LTYPE
  5
8C
330
5
100
AcDbSymbolTableRecord
100
AcDbLinetypeTableRecord
  2
BORDER
 70
     0
  3
Border __ __ . __ __ . __ __ . __ __ . __ __ .
 72
    65
 73
     6
 40
1.75
 49
0.5
 74
     0
 49
-0.25
 74
     0
 49
0.5
 74
     0
 49
-0.25
 74
     0
 49
0.0
 74
     0
 49
-0.25
 74
     0
  0
LTYPE
  5
8D
330
5
100
AcDbSymbolTableRecord
100
AcDbLinetypeTableRecord
  2
BORDER2
 70
     0
  3
Border (.5x) __.__.__.__.__.__.__.__.__.__.__.
 72
    65
 73
     6
 40
0.875
 49
0.25
 74
     0
 49
-0.125
 74
     0
 49
0.25
 74
     0
 49
-0.125
 74
     0
 49
0.0
 74
     0
 49
-0.125
 74
     0
  0
LTYPE
  5
8E
330
5
100
AcDbSymbolTableRecord
100
AcDbLinetypeTableRecord
  2
BORDERX2
 70
     0
  3
Border (2x) ____  ____  .  ____  ____  .  ___
 72
    65
 73
     6
 40
3.5
 49
1.0
 74
     0
 49
-0.5
 74
     0
 49
1.0
 74
     0
 49
-0.5
 74
     0
 49
0.0
 74
     0
 49
-0.5
 74
     0
  0
LTYPE
  5
8F
330
5
100
AcDbSymbolTableRecord
100
AcDbLinetypeTableRecord
  2
CENTER
 70
     0
  3
Center ____ _ ____ _ ____ _ ____ _ ____ _ ____
 72
    65
 73
     4
 40
2.0
 49
1.25
 74
     0
 49
-0.25
 74
     0
 49
0.25
 74
     0
 49
-0.25
 74
     0
  0
LTYPE
  5
90
330
5
100
AcDbSymbolTableRecord
100
AcDbLinetypeTableRecord
  2
CENTER2
 70
     0
  3
Center (.5x) ___ _ ___ _ ___ _ ___ _ ___ _ ___
 72
    65
 73
     4
 40
1.125
 49
0.75
 74
     0
 49
-0.125
 74
     0
 49
0.125
 74
     0
 49
-0.125
 74
     0
  0
LTYPE
  5
91
330
5
100
AcDbSymbolTableRecord
100
AcDbLinetypeTableRecord
  2
CENTERX2
 70
     0
  3
Center (2x) ________  __  ________  __  _____
 72
    65
 73
     4
 40
4.0
 49
2.5
 74
     0
 49
-0.5
 74
     0
 49
0.5
 74
     0
 49
-0.5
 74
     0
  0
LTYPE
  5
92
330
5
100
AcDbSymbolTableRecord
100
AcDbLinetypeTableRecord
  2
DASHDOT2
 70
     0
  3
Dash dot (.5x) _._._._._._._._._._._._._._._.
 72
    65
 73
     4
 40
0.5
 49
0.25
 74
     0
 49
-0.125
 74
     0
 49
0.0
 74
     0
 49
-0.125
 74
     0
  0
LTYPE
  5
93
330
5
100
AcDbSymbolTableRecord
100
AcDbLinetypeTableRecord
  2
DASHDOTX2
 70
     0
  3
Dash dot (2x) ____  .  ____  .  ____  .  ___
 72
    65
 73
     4
 40
2.0
 49
1.0
 74
     0
 49
-0.5
 74
     0
 49
0.0
 74
     0
 49
-0.5
 74
     0
  0
LTYPE
  5
95
330
5
100
AcDbSymbolTableRecord
100
AcDbLinetypeTableRecord
  2
DASHED2
 70
     0
  3
Dashed (.5x) _ _ _ _ _ _ _ _ _ _ _ _ _ _ _ _ _
 72
    65
 73
     2
 40
0.375
 49
0.25
 74
     0
 49
-0.125
 74
     0
  0
LTYPE
  5
96
330
5
100
AcDbSymbolTableRecord
100
AcDbLinetypeTableRecord
  2
DASHEDX2
 70
     0
  3
Dashed (2x) ____  ____  ____  ____  ____  ___
 72
    65
 73
     2
 40
1.5
 49
1.0
 74
     0
 49
-0.5
 74
     0
  0
LTYPE
  5
97
330
5
100
AcDbSymbolTableRecord
100
AcDbLinetypeTableRecord
  2
DIVIDE
 70
     0
  3
Divide ____ . . ____ . . ____ . . ____ . . ____
 72
    65
 73
     6
 40
1.25
 49
0.5
 74
     0
 49
-0.25
 74
     0
 49
0.0
 74
     0
 49
-0.25
 74
     0
 49
0.0
 74
     0
 49
-0.25
 74
     0
  0
LTYPE
  5
98
330
5
100
AcDbSymbolTableRecord
100
AcDbLinetypeTableRecord
  2
DIVIDE2
 70
     0
  3
Divide (.5x) __..__..__..__..__..__..__..__.._
 72
    65
 73
     6
 40
0.625
 49
0.25
 74
     0
 49
-0.125
 74
     0
 49
0.0
 74
     0
 49
-0.125
 74
     0
 49
0.0
 74
     0
 49
-0.125
 74
     0
  0
LTYPE
  5
99
330
5
100
AcDbSymbolTableRecord
100
AcDbLinetypeTableRecord
  2
DIVIDEX2
 70
     0
  3
Divide (2x) ________  .  .  ________  .  .  _
 72
    65
 73
     6
 40
2.5
 49
1.0
 74
     0
 49
-0.5
 74
     0
 49
0.0
 74
     0
 49
-0.5
 74
     0
 49
0.0
 74
     0
 49
-0.5
 74
     0
  0
LTYPE
  5
9A
330
5
100
AcDbSymbolTableRecord
100
AcDbLinetypeTableRecord
  2
DOT
 70
     0
  3
Dot . . . . . . . . . . . . . . . . . . . . . .
 72
    65
 73
     2
 40
0.25
 49
0.0
 74
     0
 49
-0.25
 74
     0
  0
LTYPE
  5
9B
330
5
100
AcDbSymbolTableRecord
100
AcDbLinetypeTableRecord
  2
DOT2
 70
     0
  3
Dot (.5x) .....................................
 72
    65
 73
     2
 40
0.125
 49
0.0
 74
     0
 49
-0.125
 74
     0
  0
LTYPE
  5
9C
330
5
100
AcDbSymbolTableRecord
100
AcDbLinetypeTableRecord
  2
DOTX2
 70
     0
  3
Dot (2x) .  .  .  .  .  .  .  .  .  .  .  .  . 
 72
    65
 73
     2
 40
0.5
 49
0.0
 74
     0
 49
-0.5
 74
     0
  0
LTYPE
  5
9D
330
5
100
AcDbSymbolTableRecord
100
AcDbLinetypeTableRecord
  2
HIDDEN
 70
     0
  3
Hidden __ __ __ __ __ __ __ __ __ __ __ __ __ _
 72
    65
 73
     2
 40
0.375
 49
0.25
 74
     0
 49
-0.125
 74
     0
  0
LTYPE
  5
9E
330
5
100
AcDbSymbolTableRecord
100
AcDbLinetypeTableRecord
  2
HIDDEN2
 70
     0
  3
Hidden (.5x) _ _ _ _ _ _ _ _ _ _ _ _ _ _ _ _ _
 72
    65
 73
     2
 40
0.1875
 49
0.125
 74
     0
 49
-0.0625
 74
     0
  0
LTYPE
  5
9F
330
5
100
AcDbSymbolTableRecord
100
AcDbLinetypeTableRecord
  2
HIDDENX2
 70
     0
  3
Hidden (2x) ____ ____ ____ ____ ____ ____ ____
 72
    65
 73
     2
 40
0.75
 49
0.5
 74
     0
 49
-0.25
 74
     0
  0
LTYPE
  5
A0
330
5
100
AcDbSymbolTableRecord
100
AcDbLinetypeTableRecord
  2
PHANTOM
 70
     0
  3
Phantom ______  __  __  ______  __  __  ______
 72
    65
 73
     6
 40
2.5
 49
1.25
 74
     0
 49
-0.25
 74
     0
 49
0.25
 74
     0
 49
-0.25
 74
     0
 49
0.25
 74
     0
 49
-0.25
 74
     0
  0
LTYPE
  5
A1
330
5
100
AcDbSymbolTableRecord
100
AcDbLinetypeTableRecord
  2
PHANTOM2
 70
     0
  3
Phantom (.5x) ___ _ _ ___ _ _ ___ _ _ ___ _ _
 72
    65
 73
     6
 40
1.25
 49
0.625
 74
     0
 49
-0.125
 74
     0
 49
0.125
 74
     0
 49
-0.125
 74
     0
 49
0.125
 74
     0
 49
-0.125
 74
     0
  0
LTYPE
  5
A2
330
5
100
AcDbSymbolTableRecord
100
AcDbLinetypeTableRecord
  2
PHANTOMX2
 70
     0
  3
Phantom (2x) ____________    ____    ____   _
 72
    65
 73
     6
 40
5.0
 49
2.5
 74
     0
 49
-0.5
 74
     0
 49
0.5
 74
     0
 49
-0.5
 74
     0
 49
0.5
 74
     0
 49
-0.5
 74
     0
  0
LTYPE
  5
A3
330
5
100
AcDbSymbolTableRecord
100
AcDbLinetypeTableRecord
  2
ACAD_ISO02W100
 70
     0
  3
ISO dash __ __ __ __ __ __ __ __ __ __ __ __ __
 72
    65
 73
     2
 40
0.59
 49
0.47
 74
     0
 49
-0.12
 74
     0
  0
LTYPE
  5
A4
330
5
100
AcDbSymbolTableRecord
100
AcDbLinetypeTableRecord
  2
ACAD_ISO03W100
 70
     0
  3
ISO dash space __    __    __    __    __    __
 72
    65
 73
     2
 40
1.179999999999999
 49
0.47
 74
     0
 49
-0.71
 74
     0
  0
LTYPE
  5
A5
330
5
100
AcDbSymbolTableRecord
100
AcDbLinetypeTableRecord
  2
ACAD_ISO04W100
 70
     0
  3
ISO long-dash dot ____ . ____ . ____ . ____ . _
 72
    65
 73
     4
 40
1.179999999999999
 49
0.9399999999999998
 74
     0
 49
-0.12
 74
     0
 49
0.0
 74
     0
 49
-0.12
 74
     0
  0
LTYPE
  5
A6
330
5
100
AcDbSymbolTableRecord
100
AcDbLinetypeTableRecord
  2
ACAD_ISO05W100
 70
     0
  3
ISO long-dash double-dot ____ .. ____ .. ____ .
 72
    65
 73
     6
 40
1.299999999999999
 49
0.9399999999999998
 74
     0
 49
-0.12
 74
     0
 49
0.0
 74
     0
 49
-0.12
 74
     0
 49
0.0
 74
     0
 49
-0.12
 74
     0
  0
LTYPE
  5
A7
330
5
100
AcDbSymbolTableRecord
100
AcDbLinetypeTableRecord
  2
ACAD_ISO06W100
 70
     0
  3
ISO long-dash triple-dot ____ ... ____ ... ____
 72
    65
 73
     8
 40
1.419999999999999
 49
0.9399999999999998
 74
     0
 49
-0.12
 74
     0
 49
0.0
 74
     0
 49
-0.12
 74
     0
 49
0.0
 74
     0
 49
-0.12
 74
     0
 49
0.0
 74
     0
 49
-0.12
 74
     0
  0
LTYPE
  5
A8
330
5
100
AcDbSymbolTableRecord
100
AcDbLinetypeTableRecord
  2
ACAD_ISO07W100
 70
     0
  3
ISO dot . . . . . . . . . . . . . . . . . . . .
 72
    65
 73
     2
 40
0.12
 49
0.0
 74
     0
 49
-0.12
 74
     0
  0
LTYPE
  5
A9
330
5
100
AcDbSymbolTableRecord
100
AcDbLinetypeTableRecord
  2
ACAD_ISO08W100
 70
     0
  3
ISO long-dash short-dash ____ __ ____ __ ____ _
 72
    65
 73
     4
 40
0.95
 49
0.47
 74
     0
 49
-0.12
 74
     0
 49
0.24
 74
     0
 49
-0.12
 74
     0
  0
LTYPE
  5
AA
330
5
100
AcDbSymbolTableRecord
100
AcDbLinetypeTableRecord
  2
ACAD_ISO09W100
 70
     0
  3
ISO long-dash double-short-dash ____ __ __ ____
 72
    65
 73
     6
 40
1.31
 49
0.47
 74
     0
 49
-0.12
 74
     0
 49
0.24
 74
     0
 49
-0.12
 74
     0
 49
0.24
 74
     0
 49
-0.12
 74
     0
  0
LTYPE
  5
AB
330
5
100
AcDbSymbolTableRecord
100
AcDbLinetypeTableRecord
  2
ACAD_ISO10W100
 70
     0
  3
ISO dash dot __ . __ . __ . __ . __ . __ . __ .
 72
    65
 73
     4
 40
0.71
 49
0.47
 74
     0
 49
-0.12
 74
     0
 49
0.0
 74
     0
 49
-0.12
 74
     0
  0
LTYPE
  5
AC
330
5
100
AcDbSymbolTableRecord
100
AcDbLinetypeTableRecord
  2
ACAD_ISO11W100
 70
     0
  3
ISO double-dash dot __ __ . __ __ . __ __ . __ 
 72
    65
 73
     6
 40
1.299999999999999
 49
0.47
 74
     0
 49
-0.12
 74
     0
 49
0.47
 74
     0
 49
-0.12
 74
     0
 49
0.0
 74
     0
 49
-0.12
 74
     0
  0
LTYPE
  5
AD
330
5
100
AcDbSymbolTableRecord
100
AcDbLinetypeTableRecord
  2
ACAD_ISO12W100
 70
     0
  3
ISO dash double-dot __ . . __ . . __ . . __ . .
 72
    65
 73
     6
 40
0.8299999999999998
 49
0.47
 74
     0
 49
-0.12
 74
     0
 49
0.0
 74
     0
 49
-0.12
 74
     0
 49
0.0
 74
     0
 49
-0.12
 74
     0
  0
LTYPE
  5
AE
330
5
100
AcDbSymbolTableRecord
100
AcDbLinetypeTableRecord
  2
ACAD_ISO13W100
 70
     0
  3
ISO double-dash double-dot __ __ . . __ __ . . 
 72
    65
 73
     8
 40
1.419999999999999
 49
0.47
 74
     0
 49
-0.12
 74
     0
 49
0.47
 74
     0
 49
-0.12
 74
     0
 49
0.0
 74
     0
 49
-0.12
 74
     0
 49
0.0
 74
     0
 49
-0.12
 74
     0
  0
LTYPE
  5
AF
330
5
100
AcDbSymbolTableRecord
100
AcDbLinetypeTableRecord
  2
ACAD_ISO14W100
 70
     0
  3
ISO dash triple-dot __ . . . __ . . . __ . . . 
 72
    65
 73
     8
 40
0.95
 49
0.47
 74
     0
 49
-0.12
 74
     0
 49
0.0
 74
     0
 49
-0.12
 74
     0
 49
0.0
 74
     0
 49
-0.12
 74
     0
 49
0.0
 74
     0
 49
-0.12
 74
     0
  0
LTYPE
  5
B0
330
5
100
AcDbSymbolTableRecord
100
AcDbLinetypeTableRecord
  2
ACAD_ISO15W100
 70
     0
  3
ISO double-dash triple-dot __ __ . . . __ __ . 
 72
    65
 73
    10
 40
1.539999999999999
 49
0.47
 74
     0
 49
-0.12
 74
     0
 49
0.47
 74
     0
 49
-0.12
 74
     0
 49
0.0
 74
     0
 49
-0.12
 74
     0
 49
0.0
 74
     0
 49
-0.12
 74
     0
 49
0.0
 74
     0
 49
-0.12
 74
     0
  0
LTYPE
  5
B3
330
5
100
AcDbSymbolTableRecord
100
AcDbLinetypeTableRecord
  2
FENCELINE1
 70
     0
  3
Fenceline circle ----0-----0----0-----0----0---
 72
    65
 73
     4
 40
1.45
 49
0.25
 74
     0
 49
-0.1
 74
     4
 75
   133
340
B2
 46
0.1
 50
0.0
 44
-0.1
 45
0.0
 49
-0.1
 74
     0
 49
1.0
 74
     0
  0
LTYPE
  5
B4
330
5
100
AcDbSymbolTableRecord
100
AcDbLinetypeTableRecord
  2
FENCELINE2
 70
     0
  3
Fenceline square ----[]-----[]----[]-----[]----
 72
    65
 73
     4
 40
1.45
 49
0.25
 74
     0
 49
-0.1
 74
     4
 75
   132
340
B2
 46
0.1
 50
0.0
 44
-0.1
 45
0.0
 49
-0.1
 74
     0
 49
1.0
 74
     0
  0
LTYPE
  5
B5
330
5
100
AcDbSymbolTableRecord
100
AcDbLinetypeTableRecord
  2
TRACKS
 70
     0
  3
Tracks -|-|-|-|-|-|-|-|-|-|-|-|-|-|-|-|-|-|-|-|
 72
    65
 73
     2
 40
0.3
 49
0.15
 74
     4
 75
   130
340
B2
 46
0.25
 50
0.0
 44
0.0
 45
0.0
 49
0.15
 74
     0
  0
LTYPE
  5
B6
330
5
100
AcDbSymbolTableRecord
100
AcDbLinetypeTableRecord
  2
BATTING
 70
     0
  3
Batting SSSSSSSSSSSSSSSSSSSSSSSSSSSSSSSSSSSSSSS
 72
    65
 73
     4
 40
0.4001000000000001
 49
0.0001
 74
     0
 49
-0.1
 74
     4
 75
   134
340
B2
 46
0.1
 50
0.0
 44
-0.1
 45
0.0
 49
-0.2
 74
     4
 75
   134
340
B2
 46
0.1
 50
180.0
 44
0.1
 45
0.0
 49
-0.1
 74
     0
  0
LTYPE
  5
B7
330
5
100
AcDbSymbolTableRecord
100
AcDbLinetypeTableRecord
  2
HOT_WATER_SUPPLY
 70
     0
  3
Hot water supply ---- HW ---- HW ---- HW ----
 72
    65
 73
     3
 40
0.9
 49
0.5
 74
     0
 49
-0.2
 74
     2
 75
     0
340
55
 46
0.1
 50
0.0
 44
-0.1
 45
-0.05
  9
HW
 49
-0.2
 74
     0
  0
LTYPE
  5
B8
330
5
100
AcDbSymbolTableRecord
100
AcDbLinetypeTableRecord
  2
GAS_LINE
 70
     0
  3
Gas line ----GAS----GAS----GAS----GAS----GAS---
 72
    65
 73
     3
 40
0.95
 49
0.5
 74
     0
 49
-0.2
 74
     2
 75
     0
340
55
 46
0.1
 50
0.0
 44
-0.1
 45
-0.05
  9
GAS
 49
-0.25
 74
     0
  0
LTYPE
  5
B9
330
5
100
AcDbSymbolTableRecord
100
AcDbLinetypeTableRecord
  2
ZIGZAG
 70
     0
  3
Zig zag /\/\/\/\/\/\/\/\/\/\/\/\/\/\/\/\/\/\/\/
 72
    65
 73
     4
 40
0.8001000000000001
 49
0.0001
 74
     0
 49
-0.2
 74
     4
 75
   131
340
B2
 46
0.2
 50
0.0
 44
-0.2
 45
0.0
 49
-0.4
 74
     4
 75
   131
340
B2
 46
0.2
 50
180.0
 44
0.2
 45
0.0
 49
-0.2
 74
     0
  0
ENDTAB
  0
TABLE
  2
LAYER
  5
2
330
0
100
AcDbSymbolTable
 70
    27
  0
LAYER
  5
54
330
2
100
AcDbSymbolTableRecord
100
AcDbLayerTableRecord
  2
0
 70
     0
 62
     7
  6
Continuous
370
     0
390
F
  0
LAYER
  5
C0
330
2
100
AcDbSymbolTableRecord
100
AcDbLayerTableRecord
  2
Center Mark (ANSI)
 70
     0
 62
     7
  6
Continuous
370
     5
390
F
  0
LAYER
  5
C1
330
2
100
AcDbSymbolTableRecord
100
AcDbLayerTableRecord
  2
Centerline (ANSI)
 70
     0
 62
     7
  6
Continuous
370
     5
390
F
  0
LAYER
  5
C3
330
2
100
AcDbSymbolTableRecord
100
AcDbLayerTableRecord
  2
Dimension (ANSI)
 70
     0
 62
     7
  6
Continuous
370
     5
390
F
  0
LAYER
  5
C5
330
2
100
AcDbSymbolTableRecord
100
AcDbLayerTableRecord
  2
Hidden (ANSI)
 70
     0
 62
     7
  6
DASHED
370
     5
390
F
  0
LAYER
  5
CC
330
2
100
AcDbSymbolTableRecord
100
AcDbLayerTableRecord
  2
Symbol (ANSI)
 70
     0
 62
     7
  6
Continuous
370
     5
390
F
  0
LAYER
  5
CF
330
2
100
AcDbSymbolTableRecord
100
AcDbLayerTableRecord
  2
Visible (ANSI)
 70
     0
 62
     7
  6
Continuous
370
     5
390
F
  0
LAYER
  5
D0
330
2
100
AcDbSymbolTableRecord
100
AcDbLayerTableRecord
  2
Visible Narrow (ANSI)
 70
     0
 62
     7
  6
Continuous
370
     5
390
F
  0
LAYER
  5
19C
330
2
100
AcDbSymbolTableRecord
100
AcDbLayerTableRecord
  2
Defpoints
 70
     0
 62
     7
  6
Continuous
290
     0
370
    -3
390
F
  0
ENDTAB
  0
TABLE
  2
STYLE
  5
3
330
0
100
AcDbSymbolTable
 70
    10
  0
STYLE
  5
55
330
3
100
AcDbSymbolTableRecord
100
AcDbTextStyleTableRecord
  2
Standard
 70
     0
 40
0.0
 41
1.0
 50
0.0
 71
     0
 42
0.2
  3
txt
  4

  0
STYLE
  5
5A
330
3
100
AcDbSymbolTableRecord
100
AcDbTextStyleTableRecord
  2
Annotative
 70
     0
 40
0.0
 41
1.0
 50
0.0
 71
     0
 42
0.2
  3
txt
  4

1001
AcadAnnotative
1000
AnnotativeData
1002
{
1070
     1
1070
     1
1002
}
  0
STYLE
  5
B2
330
3
100
AcDbSymbolTableRecord
100
AcDbTextStyleTableRecord
  2

 70
     1
 40
0.0
 41
1.0
 50
0.0
 71
     0
 42
0.2
  3
ltypeshp.shx
  4

  0
STYLE
  5
D4
330
3
100
AcDbSymbolTableRecord
100
AcDbTextStyleTableRecord
  2
ITALICC_120
 70
     0
 40
0.0
 41
1.0
 50
0.0
 71
     0
 42
0.2
  3
italicc.shx
  4

  0
STYLE
  5
D5
330
3
100
AcDbSymbolTableRecord
100
AcDbTextStyleTableRecord
  2
Label Text (ANSI)
 70
     0
 40
0.0
 41
1.0
 50
0.0
 71
     0
 42
0.2
  3
TAHOMA.TTF
  4

1001
ACAD
1000
Tahoma
1071
      256
  0
STYLE
  5
D6
330
3
100
AcDbSymbolTableRecord
100
AcDbTextStyleTableRecord
  2
Note Text (ANSI)
 70
     0
 40
0.0
 41
1.0
 50
0.0
 71
     0
 42
0.2
  3
RomanS.shx
  4

  0
STYLE
  5
D7
330
3
100
AcDbSymbolTableRecord
100
AcDbTextStyleTableRecord
  2
ROMANS
 70
     0
 40
0.0
 41
1.0
 50
0.0
 71
     0
 42
0.2
  3
romans.shx
  4

  0
STYLE
  5
D8
330
3
100
AcDbSymbolTableRecord
100
AcDbTextStyleTableRecord
  2
SANSSERIF_114
 70
     0
 40
0.0
 41
1.0
 50
0.0
 71
     0
 42
0.2
  3
TAHOMA.TTF
  4

1001
ACAD
1000
Tahoma
1071
      256
  0
STYLE
  5
D9
330
3
100
AcDbSymbolTableRecord
100
AcDbTextStyleTableRecord
  2
SANSSERIF_117
 70
     0
 40
0.0
 41
1.0
 50
0.0
 71
     0
 42
0.2
  3
TAHOMA.TTF
  4

1001
ACAD
1000
Tahoma
1071
      256
  0
STYLE
  5
12D
330
3
100
AcDbSymbolTableRecord
100
AcDbTextStyleTableRecord
  2
Text Style168
 70
     0
 40
0.0
 41
1.0
 50
0.0
 71
     0
 42
0.2
  3
TAHOMA.TTF
  4

1001
ACAD
1000
Tahoma
1071
      256
  0
ENDTAB
  0
TABLE
  2
VIEW
  5
6
330
0
100
AcDbSymbolTable
 70
     0
  0
ENDTAB
  0
TABLE
  2
UCS
  5
7
330
0
100
AcDbSymbolTable
 70
     0
  0
ENDTAB
  0
TABLE
  2
APPID
  5
9
330
0
100
AcDbSymbolTable
 70
     4
  0
APPID
  5
56
330
9
100
AcDbSymbolTableRecord
100
AcDbRegAppTableRecord
  2
ACAD
 70
     0
  0
APPID
  5
5E
330
9
100
AcDbSymbolTableRecord
100
AcDbRegAppTableRecord
  2
AcadAnnotative
 70
     0
  0
APPID
  5
806
330
9
100
AcDbSymbolTableRecord
100
AcDbRegAppTableRecord
  2
ACAD_DSTYLE_DIMRADIAL_EXTENSION
 70
     0
  0
APPID
  5
E29
330
9
100
AcDbSymbolTableRecord
100
AcDbRegAppTableRecord
  2
ACAD_MLEADERVER
 70
     0
  0
ENDTAB
  0
TABLE
  2
DIMSTYLE
  5
A
330
0
100
AcDbSymbolTable
 70
    15
100
AcDbDimStyleTable
 71
     2
340
E2
340
58
  0
DIMSTYLE
105
58
330
A
100
AcDbSymbolTableRecord
100
AcDbDimStyleTableRecord
  2
Standard
 70
     0
340
55
  0
DIMSTYLE
105
59
330
A
100
AcDbSymbolTableRecord
100
AcDbDimStyleTableRecord
  2
Annotative
 70
     0
340
55
1001
AcadAnnotative
1000
AnnotativeData
1002
{
1070
     1
1070
     1
1002
}
  0
DIMSTYLE
105
DA
330
A
100
AcDbSymbolTableRecord
100
AcDbDimStyleTableRecord
  2
Architectural (ANSI)
 70
     0
 40
4.210526315789473
 41
0.0984251946210861
 43
0.2362204724409449
 44
0.125
 45
0.00000001
 46
0.3937007874015748
 78
     3
 79
     3
140
0.1000000014901161
146
1.200000029802321
147
0.031496062992126
171
     1
176
   256
177
   256
178
   256
272
     2
274
     1
276
     2
277
     4
284
    12
285
     4
286
    12
340
D6
371
    -1
372
    -1
  0
DIMSTYLE
105
DB
330
A
100
AcDbSymbolTableRecord
100
AcDbDimStyleTableRecord
  2
Architectural (ANSI)$7
 70
     0
 40
4.210526315789473
 41
0.0984251946210861
 43
0.2362204724409449
 44
0.125
 45
0.00000001
 46
0.3937007874015748
 78
     3
 79
     3
140
0.1000000014901161
146
1.200000029802321
147
0.031496062992126
171
     1
176
   256
177
   256
178
   256
272
     2
274
     1
276
     2
277
     4
284
    12
285
     4
286
    12
340
D6
371
    -1
372
    -1
  0
DIMSTYLE
105
DC
330
A
100
AcDbSymbolTableRecord
100
AcDbDimStyleTableRecord
  2
Default - Fraction (ANSI)
 70
     0
 40
4.210526315789473
 41
0.0984251946210861
 43
0.2362204724409449
 44
0.125
 45
0.00000001
 46
0.3937007874015748
 79
     3
140
0.1000000014901161
146
1.200000029802321
147
0.031496062992126
171
     1
176
   256
177
   256
178
   256
272
     2
274
     1
276
     2
277
     5
284
    12
285
     4
286
    12
340
D6
371
    -1
372
    -1
  0
DIMSTYLE
105
DD
330
A
100
AcDbSymbolTableRecord
100
AcDbDimStyleTableRecord
  2
Default - Fraction (ANSI)$7
 70
     0
 40
4.210526315789473
 41
0.0984251946210861
 43
0.2362204724409449
 44
0.125
 45
0.00000001
 46
0.3937007874015748
 79
     3
140
0.1000000014901161
146
1.200000029802321
147
0.031496062992126
171
     1
176
   256
177
   256
178
   256
272
     2
274
     1
276
     2
277
     5
284
    12
285
     4
286
    12
340
D6
371
    -1
372
    -1
  0
DIMSTYLE
105
DE
330
A
100
AcDbSymbolTableRecord
100
AcDbDimStyleTableRecord
  2
Default - mm (ANSI)
 70
     0
 40
4.210526315789473
 41
0.0984251946210861
 42
0.063
 43
0.2362204724409449
 44
0.125
 45
0.00000001
 46
0.3937007874015748
 73
     0
 78
     4
 79
     1
140
0.1000000014901161
143
1.0
144
25.4
146
1.200000029802321
147
0.031496062992126
171
     1
176
   256
177
   256
178
   256
179
     1
271
     2
272
     2
274
     1
284
     4
285
     4
340
D6
371
    -1
372
    -1
  0
DIMSTYLE
105
DF
330
A
100
AcDbSymbolTableRecord
100
AcDbDimStyleTableRecord
  2
Default - mm (ANSI)$7
 70
     0
 40
4.210526315789473
 41
0.0984251946210861
 42
0.063
 43
0.2362204724409449
 44
0.125
 45
0.00000001
 46
0.3937007874015748
 73
     0
 78
     4
 79
     1
140
0.1000000014901161
143
1.0
144
25.4
146
1.200000029802321
147
0.031496062992126
171
     1
176
   256
177
   256
178
   256
179
     1
271
     2
272
     2
274
     1
284
     4
285
     4
340
D6
371
    -1
372
    -1
  0
DIMSTYLE
105
E0
330
A
100
AcDbSymbolTableRecord
100
AcDbDimStyleTableRecord
  2
Default - mm [in] (ANSI)
 70
     0
  4
 in
 40
4.210526315789473
 41
0.0984251946210861
 42
0.063
 43
0.25
 44
0.125
 45
0.00000001
 46
0.3937007874015748
 73
     0
 78
     4
 79
     1
140
0.1000000014901161
143
0.03937
144
25.4
146
1.200000029802321
147
0.031496062992126
170
     1
171
     3
176
   256
177
   256
178
   256
179
     1
271
     2
272
     2
274
     3
284
     4
285
     4
286
     4
340
D6
371
    -1
372
    -1
  0
DIMSTYLE
105
E1
330
A
100
AcDbSymbolTableRecord
100
AcDbDimStyleTableRecord
  2
Default - mm [in] (ANSI)$7
 70
     0
  4
 in
 40
4.210526315789473
 41
0.0984251946210861
 42
0.063
 43
0.25
 44
0.125
 45
0.00000001
 46
0.3937007874015748
 73
     0
 78
     4
 79
     1
140
0.1000000014901161
143
0.03937
144
25.4
146
1.200000029802321
147
0.031496062992126
170
     1
171
     3
176
   256
177
   256
178
   256
179
     1
271
     2
272
     2
274
     3
284
     4
285
     4
286
     4
340
D6
371
    -1
372
    -1
  0
DIMSTYLE
105
E2
102
{ACAD_REACTORS
330
19A
330
287
330
371
330
46F
330
559
330
657
330
76D
330
817
330
8C0
330
9D6
330
AE8
330
BE6
330
CFE
102
}
330
A
100
AcDbSymbolTableRecord
100
AcDbDimStyleTableRecord
  2
Default (ANSI)
 70
     0
 40
4.210526315789473
 41
0.0984251946210861
 43
0.2362204724409449
 44
0.125
 45
0.00000001
 46
0.3937007874015748
140
0.1000000014901161
147
0.031496062992126
176
   256
177
   256
178
   256
271
     2
272
     2
340
D7
371
    -1
372
    -1
  0
DIMSTYLE
105
E3
330
A
100
AcDbSymbolTableRecord
100
AcDbDimStyleTableRecord
  2
Default (ANSI)$7
 70
     0
 40
4.210526315789473
 41
0.0984251946210861
 43
0.2362204724409449
 44
0.125
 45
0.00000001
 46
0.3937007874015748
140
0.1000000014901161
147
0.031496062992126
176
   256
177
   256
178
   256
271
     2
272
     2
340
D7
371
    -1
372
    -1
  0
DIMSTYLE
105
E4
330
A
100
AcDbSymbolTableRecord
100
AcDbDimStyleTableRecord
  2
Alternate (ANSI)
 70
     0
 40
4.210526315789473
 41
0.0979999974370003
340
55
342
E5
  0
DIMSTYLE
105
F7
330
A
100
AcDbSymbolTableRecord
100
AcDbDimStyleTableRecord
  2
Datum (ANSI)
 70
     0
 40
4.210526315789473
 41
0.0979999974370003
340
55
342
E5
  0
DIMSTYLE
105
106
330
A
100
AcDbSymbolTableRecord
100
AcDbDimStyleTableRecord
  2
Large (ANSI)
 70
     0
 40
4.210526315789473
 41
0.1959999948740005
340
55
342
E5
  0
ENDTAB
  0
TABLE
  2
BLOCK_RECORD
  5
1
330
0
100
AcDbSymbolTable
 70
    17
  0
BLOCK_RECORD
  5
6C
330
1
100
AcDbSymbolTableRecord
100
AcDbBlockTableRecord
  2
*Model_Space
340
6F
  0
BLOCK_RECORD
  5
68
330
1
100
AcDbSymbolTableRecord
100
AcDbBlockTableRecord
  2
*Paper_Space
340
6B
  0
BLOCK_RECORD
  5
70
330
1
100
AcDbSymbolTableRecord
100
AcDbBlockTableRecord
  2
*Paper_Space0
340
73
  0
BLOCK_RECORD
  5
E5
330
1
100
AcDbSymbolTableRecord
100
AcDbBlockTableRecord
  2
_Closed
340
0
  0
BLOCK_RECORD
  5
EC
330
1
100
AcDbSymbolTableRecord
100
AcDbBlockTableRecord
  2
DatumFilled45
340
0
  0
BLOCK_RECORD
  5
F8
330
1
100
AcDbSymbolTableRecord
100
AcDbBlockTableRecord
  2
Filled-1
340
0
  0
BLOCK_RECORD
  5
19D
330
1
100
AcDbSymbolTableRecord
100
AcDbBlockTableRecord
  2
*D4
340
0
  0
BLOCK_RECORD
  5
288
330
1
100
AcDbSymbolTableRecord
100
AcDbBlockTableRecord
  2
*D5
340
0
  0
BLOCK_RECORD
  5
372
330
1
100
AcDbSymbolTableRecord
100
AcDbBlockTableRecord
  2
*D6
340
0
  0
BLOCK_RECORD
  5
470
330
1
100
AcDbSymbolTableRecord
100
AcDbBlockTableRecord
  2
*D7
340
0
  0
BLOCK_RECORD
  5
55A
330
1
100
AcDbSymbolTableRecord
100
AcDbBlockTableRecord
  2
*D8
340
0
  0
BLOCK_RECORD
  5
658
330
1
100
AcDbSymbolTableRecord
100
AcDbBlockTableRecord
  2
*D9
340
0
  0
BLOCK_RECORD
  5
76E
330
1
100
AcDbSymbolTableRecord
100
AcDbBlockTableRecord
  2
*D10
340
0
  0
BLOCK_RECORD
  5
818
330
1
100
AcDbSymbolTableRecord
100
AcDbBlockTableRecord
  2
*D11
340
0
  0
BLOCK_RECORD
  5
8C1
330
1
100
AcDbSymbolTableRecord
100
AcDbBlockTableRecord
  2
*D12
340
0
  0
BLOCK_RECORD
  5
9D7
330
1
100
AcDbSymbolTableRecord
100
AcDbBlockTableRecord
  2
*D13
340
0
  0
BLOCK_RECORD
  5
AE9
330
1
100
AcDbSymbolTableRecord
100
AcDbBlockTableRecord
  2
*D14
340
0
  0
BLOCK_RECORD
  5
BE7
330
1
100
AcDbSymbolTableRecord
100
AcDbBlockTableRecord
  2
*D15
340
0
  0
BLOCK_RECORD
  5
CFF
330
1
100
AcDbSymbolTableRecord
100
AcDbBlockTableRecord
  2
*D16
340
0
  0
ENDTAB
  0
ENDSEC
  0
SECTION
  2
BLOCKS
  0
BLOCK
  5
6D
330
6C
100
AcDbEntity
  8
0
100
AcDbBlockBegin
  2
*Model_Space
 70
     0
 10
0.0
 20
0.0
 30
0.0
  3
*Model_Space
  1

  0
ENDBLK
  5
6E
330
6C
100
AcDbEntity
  8
0
100
AcDbBlockEnd
  0
BLOCK
  5
69
330
68
100
AcDbEntity
 67
     1
  8
0
100
AcDbBlockBegin
  2
*Paper_Space
 70
     0
 10
0.0
 20
0.0
 30
0.0
  3
*Paper_Space
  1

  0
ENDBLK
  5
6A
330
68
100
AcDbEntity
 67
     1
  8
0
100
AcDbBlockEnd
  0
BLOCK
  5
71
330
70
100
AcDbEntity
 67
     1
  8
0
100
AcDbBlockBegin
  2
*Paper_Space0
 70
     0
 10
0.0
 20
0.0
 30
0.0
  3
*Paper_Space0
  1

  0
ENDBLK
  5
72
330
70
100
AcDbEntity
 67
     1
  8
0
100
AcDbBlockEnd
  0
BLOCK
  5
EA
330
E5
100
AcDbEntity
  8
0
100
AcDbBlockBegin
  2
_Closed
 70
     0
 10
0.0
 20
0.0
 30
0.0
  3
_Closed
  1

  0
LINE
  5
E6
330
E5
100
AcDbEntity
  8
0
  6
ByBlock
 62
     0
370
    -2
100
AcDbLine
 10
-1.0
 20
0.1666666666666666
 30
0.0
 11
0.0
 21
0.0
 31
0.0
  0
LINE
  5
E7
330
E5
100
AcDbEntity
  8
0
  6
ByBlock
 62
     0
370
    -2
100
AcDbLine
 10
0.0
 20
0.0
 30
0.0
 11
-1.0
 21
-0.1666666666666666
 31
0.0
  0
LINE
  5
E8
330
E5
100
AcDbEntity
  8
0
  6
ByBlock
 62
     0
370
    -2
100
AcDbLine
 10
-1.0
 20
0.1666666666666666
 30
0.0
 11
-1.0
 21
-0.1666666666666666
 31
0.0
  0
LINE
  5
E9
330
E5
100
AcDbEntity
  8
0
  6
ByBlock
 62
     0
370
    -2
100
AcDbLine
 10
0.0
 20
0.0
 30
0.0
 11
-1.0
 21
0.0
 31
0.0
  0
ENDBLK
  5
EB
330
E5
100
AcDbEntity
  8
0
100
AcDbBlockEnd
  0
BLOCK
  5
ED
330
EC
100
AcDbEntity
  8
0
100
AcDbBlockBegin
  2
DatumFilled45
 70
     0
 10
0.0
 20
0.0
 30
0.0
  3
DatumFilled45
  1

  0
POLYLINE
  5
EF
330
EC
100
AcDbEntity
  8
0
 62
     0
100
AcDb2dPolyline
 66
     1
 10
0.0
 20
0.0
 30
0.0
 70
   128
  0
VERTEX
  5
F0
330
EF
100
AcDbEntity
  8
0
 62
     0
100
AcDbVertex
100
AcDb2dVertex
 10
0.0
 20
0.9999999999999998
 30
0.0
  0
VERTEX
  5
F1
330
EF
100
AcDbEntity
  8
0
 62
     0
100
AcDbVertex
100
AcDb2dVertex
 10
0.0
 20
-0.9999999999999998
 30
0.0
  0
VERTEX
  5
F3
330
EF
100
AcDbEntity
  8
0
 62
     0
100
AcDbVertex
100
AcDb2dVertex
 10
-0.9999999999999998
 20
0.0
 30
0.0
  0
VERTEX
  5
F4
330
EF
100
AcDbEntity
  8
0
 62
     0
100
AcDbVertex
100
AcDb2dVertex
 10
0.0
 20
0.9999999999999998
 30
0.0
  0
SEQEND
  5
F2
330
EF
100
AcDbEntity
  8
0
 62
     0
  0
SOLID
  5
F6
330
EC
100
AcDbEntity
  8
0
 62
     0
100
AcDbTrace
 10
0.0
 20
0.9999999999999998
 30
0.0
 11
0.0
 21
-0.9999999999999998
 31
0.0
 12
-0.9999999999999998
 22
0.0
 32
0.0
 13
0.0
 23
0.9999999999999998
 33
0.0
  0
ENDBLK
  5
EE
330
EC
100
AcDbEntity
  8
0
100
AcDbBlockEnd
  0
BLOCK
  5
F9
330
F8
100
AcDbEntity
  8
0
100
AcDbBlockBegin
  2
Filled-1
 70
     0
 10
0.0
 20
0.0
 30
0.0
  3
Filled-1
  1

  0
LINE
  5
FB
330
F8
100
AcDbEntity
  8
0
 62
     0
100
AcDbLine
 10
-0.9999999999999998
 20
0.0
 30
0.0
 11
0.0
 21
0.0
 31
0.0
  0
POLYLINE
  5
FC
330
F8
100
AcDbEntity
  8
0
 62
     0
100
AcDb2dPolyline
 66
     1
 10
0.0
 20
0.0
 30
0.0
 70
   128
  0
VERTEX
  5
FD
330
FC
100
AcDbEntity
  8
0
 62
     0
100
AcDbVertex
100
AcDb2dVertex
 10
-0.9999999999999998
 20
-0.0994897959183674
 30
0.0
  0
VERTEX
  5
FE
330
FC
100
AcDbEntity
  8
0
 62
     0
100
AcDbVertex
100
AcDb2dVertex
 10
0.0
 20
0.0
 30
0.0
  0
VERTEX
  5
100
330
FC
100
AcDbEntity
  8
0
 62
     0
100
AcDbVertex
100
AcDb2dVertex
 10
-0.9999999999999998
 20
0.0994897959183674
 30
0.0
  0
VERTEX
  5
101
330
FC
100
AcDbEntity
  8
0
 62
     0
100
AcDbVertex
100
AcDb2dVertex
 10
-0.9999999999999998
 20
-0.0994897959183674
 30
0.0
  0
SEQEND
  5
FF
330
FC
100
AcDbEntity
  8
0
 62
     0
  0
SOLID
  5
102
330
F8
100
AcDbEntity
  8
0
 62
     0
100
AcDbTrace
 10
-0.9999999999999998
 20
-0.0994897959183674
 30
0.0
 11
0.0
 21
0.0
 31
0.0
 12
-0.9999999999999998
 22
0.0994897959183674
 32
0.0
 13
-0.9999999999999998
 23
-0.0994897959183674
 33
0.0
  0
LINE
  5
103
330
F8
100
AcDbEntity
  8
0
 62
     0
100
AcDbLine
 10
-0.9999999999999998
 20
-0.0994897959183674
 30
0.0
 11
0.0
 21
0.0
 31
0.0
  0
LINE
  5
104
330
F8
100
AcDbEntity
  8
0
 62
     0
100
AcDbLine
 10
0.0
 20
0.0
 30
0.0
 11
-0.9999999999999998
 21
0.0994897959183674
 31
0.0
  0
LINE
  5
105
330
F8
100
AcDbEntity
  8
0
 62
     0
100
AcDbLine
 10
-0.9999999999999998
 20
0.0994897959183674
 30
0.0
 11
-0.9999999999999998
 21
-0.0994897959183674
 31
0.0
  0
ENDBLK
  5
FA
330
F8
100
AcDbEntity
  8
0
100
AcDbBlockEnd
  0
BLOCK
  5
19E
330
19D
100
AcDbEntity
  8
0
100
AcDbBlockBegin
  2
*D4
 70
     1
 10
0.0
 20
0.0
 30
0.0
  3
*D4
  1

  0
LINE
  5
27D
330
19D
100
AcDbEntity
  8
Dimension (ANSI)
100
AcDbLine
 10
11.09800070321412
 20
37.41422937339749
 30
0.0
 11
11.09800070321412
 21
42.64294523697907
 31
0.0
  0
LINE
  5
27E
330
19D
100
AcDbEntity
  8
Dimension (ANSI)
100
AcDbLine
 10
33.29800070321413
 20
37.41422937339749
 30
0.0
 11
33.29800070321413
 21
42.64294523697907
 31
0.0
  0
LINE
  5
27F
330
19D
100
AcDbEntity
  8
Dimension (ANSI)
100
AcDbLine
 10
11.51242257530291
 20
42.11662944750538
 30
0.0
 11
21.22328042543578
 21
42.11662944750538
 31
0.0
  0
LINE
  5
280
330
19D
100
AcDbEntity
  8
Dimension (ANSI)
100
AcDbLine
 10
32.88357883112535
 20
42.11662944750538
 30
0.0
 11
23.17272098099248
 21
42.11662944750538
 31
0.0
  0
SOLID
  5
281
330
19D
100
AcDbEntity
  8
Dimension (ANSI)
100
AcDbTrace
 10
11.51242257530291
 20
42.18569975952018
 30
0.0
 11
11.51242257530291
 21
42.04755913549059
 31
0.0
 12
11.09800070321412
 22
42.11662944750538
 32
0.0
 13
11.09800070321412
 23
42.11662944750538
 33
0.0
  0
SOLID
  5
282
330
19D
100
AcDbEntity
  8
Dimension (ANSI)
100
AcDbTrace
 10
32.88357883112535
 20
42.18569975952018
 30
0.0
 11
32.88357883112535
 21
42.04755913549059
 31
0.0
 12
33.29800070321413
 22
42.11662944750538
 32
0.0
 13
33.29800070321413
 23
42.11662944750538
 33
0.0
  0
MTEXT
  5
283
330
19D
100
AcDbEntity
  8
Dimension (ANSI)
100
AcDbMText
 10
21.35589542750789
 20
42.32715576643195
 30
0.0
 40
0.4210526378531205
 41
0.0
 71
     1
 72
     1
  1
\A1;22.20
  7
ROMANS
 73
     1
 44
1.0
1001
ACAD
1000
MTEXTBEGIN
1070
    73
1070
     1
1070
    44
1040
1.0
1070
    74
1070
     0
1000
MTEXTEND
  0
POINT
  5
284
330
19D
100
AcDbEntity
  8
Defpoints
 62
     0
100
AcDbPoint
 10
11.09800070321412
 20
37.15107147866065
 30
0.0
  0
POINT
  5
285
330
19D
100
AcDbEntity
  8
Defpoints
 62
     0
100
AcDbPoint
 10
33.29800070321413
 20
37.15107147866065
 30
0.0
  0
POINT
  5
286
330
19D
100
AcDbEntity
  8
Defpoints
 62
     0
100
AcDbPoint
 10
33.29800070321413
 20
42.11662944750538
 30
0.0
  0
ENDBLK
  5
19F
330
19D
100
AcDbEntity
  8
0
100
AcDbBlockEnd
  0
BLOCK
  5
289
330
288
100
AcDbEntity
  8
0
100
AcDbBlockBegin
  2
*D5
 70
     1
 10
0.0
 20
0.0
 30
0.0
  3
*D5
  1

  0
LINE
  5
367
330
288
100
AcDbEntity
  8
Dimension (ANSI)
100
AcDbLine
 10
11.59800070321412
 20
37.91422937339749
 30
0.0
 11
11.59800070321412
 21
41.32699356734693
 31
0.0
  0
LINE
  5
368
330
288
100
AcDbEntity
  8
Dimension (ANSI)
100
AcDbLine
 10
32.79800070321412
 20
37.91422937339749
 30
0.0
 11
32.79800070321412
 21
41.32699356734693
 31
0.0
  0
LINE
  5
369
330
288
100
AcDbEntity
  8
Dimension (ANSI)
100
AcDbLine
 10
12.01242257530291
 20
40.80067777787324
 30
0.0
 11
20.37115008692351
 21
40.80067777787324
 31
0.0
  0
LINE
  5
36A
330
288
100
AcDbEntity
  8
Dimension (ANSI)
100
AcDbLine
 10
32.38357883112534
 20
40.80067777787324
 30
0.0
 11
24.02485131950474
 21
40.80067777787324
 31
0.0
  0
SOLID
  5
36B
330
288
100
AcDbEntity
  8
Dimension (ANSI)
100
AcDbTrace
 10
12.01242257530291
 20
40.86974808988804
 30
0.0
 11
12.01242257530291
 21
40.73160746585845
 31
0.0
 12
11.59800070321412
 22
40.80067777787324
 32
0.0
 13
11.59800070321412
 23
40.80067777787324
 33
0.0
  0
SOLID
  5
36C
330
288
100
AcDbEntity
  8
Dimension (ANSI)
100
AcDbTrace
 10
32.38357883112534
 20
40.86974808988804
 30
0.0
 11
32.38357883112534
 21
40.73160746585845
 31
0.0
 12
32.79800070321412
 22
40.80067777787324
 32
0.0
 13
32.79800070321412
 23
40.80067777787324
 33
0.0
  0
MTEXT
  5
36D
330
288
100
AcDbEntity
  8
Dimension (ANSI)
100
AcDbMText
 10
22.19800070321412
 20
40.80067777787324
 30
0.0
 40
0.4210526378531205
 41
0.0
 71
     5
 72
     1
  1
\A1;21.20{ TYP.}
  7
ROMANS
 73
     1
 44
1.0
1001
ACAD
1000
MTEXTBEGIN
1070
    73
1070
     1
1070
    44
1040
1.0
1070
    74
1070
     0
1000
MTEXTEND
  0
POINT
  5
36E
330
288
100
AcDbEntity
  8
Defpoints
 62
     0
100
AcDbPoint
 10
11.59800070321412
 20
37.65107147866065
 30
0.0
  0
POINT
  5
36F
330
288
100
AcDbEntity
  8
Defpoints
 62
     0
100
AcDbPoint
 10
32.79800070321412
 20
37.65107147866065
 30
0.0
  0
POINT
  5
370
330
288
100
AcDbEntity
  8
Defpoints
 62
     0
100
AcDbPoint
 10
32.79800070321412
 20
40.80067777787324
 30
0.0
  0
ENDBLK
  5
28A
330
288
100
AcDbEntity
  8
0
100
AcDbBlockEnd
  0
BLOCK
  5
373
330
372
100
AcDbEntity
  8
0
100
AcDbBlockBegin
  2
*D6
 70
     1
 10
0.0
 20
0.0
 30
0.0
  3
*D6
  1

  0
LINE
  5
465
330
372
100
AcDbEntity
  8
Dimension (ANSI)
100
AcDbLine
 10
11.09800070321412
 20
37.41422937339749
 30
0.0
 11
11.09800070321412
 21
41.32699356734693
 31
0.0
  0
LINE
  5
466
330
372
100
AcDbEntity
  8
Dimension (ANSI)
100
AcDbLine
 10
11.59800070321412
 20
37.91422937339749
 30
0.0
 11
11.59800070321412
 21
41.32699356734693
 31
0.0
  0
LINE
  5
467
330
372
100
AcDbEntity
  8
Dimension (ANSI)
100
AcDbLine
 10
12.01242257530291
 20
40.80067777787324
 30
0.0
 11
12.42684444739169
 21
40.80067777787324
 31
0.0
  0
LINE
  5
468
330
372
100
AcDbEntity
  8
Dimension (ANSI)
100
AcDbLine
 10
10.68357883112534
 20
40.80067777787324
 30
0.0
 11
10.26915695903656
 21
40.80067777787324
 31
0.0
  0
SOLID
  5
469
330
372
100
AcDbEntity
  8
Dimension (ANSI)
100
AcDbTrace
 10
12.01242257530291
 20
40.86974808988804
 30
0.0
 11
12.01242257530291
 21
40.73160746585845
 31
0.0
 12
11.59800070321412
 22
40.80067777787324
 32
0.0
 13
11.59800070321412
 23
40.80067777787324
 33
0.0
  0
SOLID
  5
46A
330
372
100
AcDbEntity
  8
Dimension (ANSI)
100
AcDbTrace
 10
10.68357883112534
 20
40.86974808988804
 30
0.0
 11
10.68357883112534
 21
40.73160746585845
 31
0.0
 12
11.09800070321412
 22
40.80067777787324
 32
0.0
 13
11.09800070321412
 23
40.80067777787324
 33
0.0
  0
MTEXT
  5
46B
330
372
100
AcDbEntity
  8
Dimension (ANSI)
100
AcDbMText
 10
9.494937937378741
 20
40.80067777787324
 30
0.0
 40
0.4210526378531205
 41
0.0
 71
     5
 72
     1
  1
\A1;0.50{\PTYP.}
  7
ROMANS
 73
     1
 44
1.0
1001
ACAD
1000
MTEXTBEGIN
1070
    73
1070
     1
1070
    44
1040
1.0
1070
    74
1070
     0
1000
MTEXTEND
  0
POINT
  5
46C
330
372
100
AcDbEntity
  8
Defpoints
 62
     0
100
AcDbPoint
 10
11.09800070321412
 20
37.15107147866065
 30
0.0
  0
POINT
  5
46D
330
372
100
AcDbEntity
  8
Defpoints
 62
     0
100
AcDbPoint
 10
11.59800070321412
 20
37.65107147866065
 30
0.0
  0
POINT
  5
46E
330
372
100
AcDbEntity
  8
Defpoints
 62
     0
100
AcDbPoint
 10
11.59800070321412
 20
40.80067777787324
 30
0.0
  0
ENDBLK
  5
374
330
372
100
AcDbEntity
  8
0
100
AcDbBlockEnd
  0
BLOCK
  5
471
330
470
100
AcDbEntity
  8
0
100
AcDbBlockBegin
  2
*D7
 70
     1
 10
0.0
 20
0.0
 30
0.0
  3
*D7
  1

  0
LINE
  5
54F
330
470
100
AcDbEntity
  8
Dimension (ANSI)
100
AcDbLine
 10
11.33484280847728
 20
37.65107147866065
 30
0.0
 11
5.43554732567581
 21
37.65107147866065
 31
0.0
  0
LINE
  5
550
330
470
100
AcDbEntity
  8
Dimension (ANSI)
100
AcDbLine
 10
11.33484280847729
 20
9.451071478660651
 30
0.0
 11
5.435547325675804
 21
9.451071478660651
 31
0.0
  0
LINE
  5
551
330
470
100
AcDbEntity
  8
Dimension (ANSI)
100
AcDbLine
 10
5.961863115149494
 20
37.23664960657187
 30
0.0
 11
5.961863115149491
 21
23.89421279965932
 31
0.0
  0
LINE
  5
552
330
470
100
AcDbEntity
  8
Dimension (ANSI)
100
AcDbLine
 10
5.961863115149488
 20
9.865493350749435
 30
0.0
 11
5.961863115149491
 21
23.20793015766198
 31
0.0
  0
SOLID
  5
553
330
470
100
AcDbEntity
  8
Dimension (ANSI)
100
AcDbTrace
 10
5.892792803134697
 20
37.23664960657187
 30
0.0
 11
6.030933427164291
 21
37.23664960657187
 31
0.0
 12
5.961863115149494
 22
37.65107147866065
 32
0.0
 13
5.961863115149494
 23
37.65107147866065
 33
0.0
  0
SOLID
  5
554
330
470
100
AcDbEntity
  8
Dimension (ANSI)
100
AcDbTrace
 10
5.892792803134691
 20
9.865493350749435
 30
0.0
 11
6.030933427164285
 21
9.865493350749435
 31
0.0
 12
5.961863115149488
 22
9.451071478660651
 32
0.0
 13
5.961863115149488
 23
9.451071478660651
 33
0.0
  0
MTEXT
  5
555
330
470
100
AcDbEntity
  8
Dimension (ANSI)
100
AcDbMText
 10
5.119757839443247
 20
23.76159779758721
 30
0.0
 40
0.4210526378531205
 41
0.0
 71
     1
 72
     1
  1
\A1;28.20
  7
ROMANS
 73
     1
 44
1.0
1001
ACAD
1000
MTEXTBEGIN
1070
    73
1070
     1
1070
    44
1040
1.0
1070
    74
1070
     0
1000
MTEXTEND
  0
POINT
  5
556
330
470
100
AcDbEntity
  8
Defpoints
 62
     0
100
AcDbPoint
 10
11.59800070321412
 20
37.65107147866065
 30
0.0
  0
POINT
  5
557
330
470
100
AcDbEntity
  8
Defpoints
 62
     0
100
AcDbPoint
 10
11.59800070321413
 20
9.451071478660651
 30
0.0
  0
POINT
  5
558
330
470
100
AcDbEntity
  8
Defpoints
 62
     0
100
AcDbPoint
 10
5.961863115149488
 20
9.451071478660651
 30
0.0
  0
ENDBLK
  5
472
330
470
100
AcDbEntity
  8
0
100
AcDbBlockEnd
  0
BLOCK
  5
55B
330
55A
100
AcDbEntity
  8
0
100
AcDbBlockBegin
  2
*D8
 70
     1
 10
0.0
 20
0.0
 30
0.0
  3
*D8
  1

  0
LINE
  5
64D
330
55A
100
AcDbEntity
  8
Dimension (ANSI)
100
AcDbLine
 10
10.83484280847729
 20
9.951071478660651
 30
0.0
 11
8.979598676821572
 21
9.951071478660651
 31
0.0
  0
LINE
  5
64E
330
55A
100
AcDbEntity
  8
Dimension (ANSI)
100
AcDbLine
 10
10.83484280847728
 20
37.15107147866065
 30
0.0
 11
8.979598676821579
 21
37.15107147866065
 31
0.0
  0
LINE
  5
64F
330
55A
100
AcDbEntity
  8
Dimension (ANSI)
100
AcDbLine
 10
9.505914466295255
 20
10.36549335074943
 30
0.0
 11
9.505914466295259
 21
22.85705295945104
 31
0.0
  0
LINE
  5
650
330
55A
100
AcDbEntity
  8
Dimension (ANSI)
100
AcDbLine
 10
9.505914466295262
 20
36.73664960657187
 30
0.0
 11
9.505914466295259
 21
24.24508999787025
 31
0.0
  0
SOLID
  5
651
330
55A
100
AcDbEntity
  8
Dimension (ANSI)
100
AcDbTrace
 10
9.436844154280457
 20
10.36549335074943
 30
0.0
 11
9.574984778310053
 21
10.36549335074943
 31
0.0
 12
9.505914466295255
 22
9.951071478660651
 32
0.0
 13
9.505914466295255
 23
9.951071478660651
 33
0.0
  0
SOLID
  5
652
330
55A
100
AcDbEntity
  8
Dimension (ANSI)
100
AcDbTrace
 10
9.436844154280464
 20
36.73664960657187
 30
0.0
 11
9.57498477831006
 21
36.73664960657187
 31
0.0
 12
9.505914466295262
 22
37.15107147866065
 32
0.0
 13
9.505914466295262
 23
37.15107147866065
 33
0.0
  0
MTEXT
  5
653
330
55A
100
AcDbEntity
  8
Dimension (ANSI)
100
AcDbMText
 10
9.505914466295255
 20
23.55107147866065
 30
0.0
 40
0.4210526378531205
 41
0.0
 71
     5
 72
     1
  1
\A1;27.20{\PTYP.}
  7
ROMANS
 73
     1
 44
1.0
1001
ACAD
1000
MTEXTBEGIN
1070
    73
1070
     1
1070
    44
1040
1.0
1070
    74
1070
     0
1000
MTEXTEND
  0
POINT
  5
654
330
55A
100
AcDbEntity
  8
Defpoints
 62
     0
100
AcDbPoint
 10
11.09800070321413
 20
9.951071478660651
 30
0.0
  0
POINT
  5
655
330
55A
100
AcDbEntity
  8
Defpoints
 62
     0
100
AcDbPoint
 10
11.09800070321412
 20
37.15107147866065
 30
0.0
  0
POINT
  5
656
330
55A
100
AcDbEntity
  8
Defpoints
 62
     0
100
AcDbPoint
 10
9.505914466295262
 20
37.15107147866065
 30
0.0
  0
ENDBLK
  5
55C
330
55A
100
AcDbEntity
  8
0
100
AcDbBlockEnd
  0
BLOCK
  5
659
330
658
100
AcDbEntity
  8
0
100
AcDbBlockBegin
  2
*D9
 70
     1
 10
0.0
 20
0.0
 30
0.0
  3
*D9
  1

  0
LINE
  5
762
330
658
100
AcDbEntity
  8
Dimension (ANSI)
100
AcDbLine
 10
11.33484280847728
 20
37.65107147866065
 30
0.0
 11
7.808240870387551
 21
37.65107147866065
 31
0.0
  0
LINE
  5
763
330
658
100
AcDbEntity
  8
Dimension (ANSI)
100
AcDbLine
 10
10.83484280847728
 20
37.15107147866065
 30
0.0
 11
7.808240870387551
 21
37.15107147866065
 31
0.0
  0
LINE
  5
764
330
658
100
AcDbEntity
  8
Dimension (ANSI)
100
AcDbLine
 10
8.334556659861236
 20
36.73664960657187
 30
0.0
 11
8.334556659861236
 21
36.32222773448308
 31
0.0
  0
LINE
  5
765
330
658
100
AcDbEntity
  8
Dimension (ANSI)
100
AcDbLine
 10
8.334556659861236
 20
38.06549335074943
 30
0.0
 11
8.334556659861236
 21
39.27172919623931
 31
0.0
  0
LINE
  5
766
330
658
100
AcDbEntity
  8
Dimension (ANSI)
100
AcDbLine
 10
8.334556659861236
 20
39.27172919623931
 30
0.0
 11
8.748978531950021
 21
39.27172919623931
 31
0.0
  0
SOLID
  5
767
330
658
100
AcDbEntity
  8
Dimension (ANSI)
100
AcDbTrace
 10
8.265486347846438
 20
36.73664960657187
 30
0.0
 11
8.403626971876034
 21
36.73664960657187
 31
0.0
 12
8.334556659861236
 22
37.15107147866065
 32
0.0
 13
8.334556659861236
 23
37.15107147866065
 33
0.0
  0
SOLID
  5
768
330
658
100
AcDbEntity
  8
Dimension (ANSI)
100
AcDbTrace
 10
8.265486347846438
 20
38.06549335074943
 30
0.0
 11
8.403626971876034
 21
38.06549335074943
 31
0.0
 12
8.334556659861236
 22
37.65107147866065
 32
0.0
 13
8.334556659861236
 23
37.65107147866065
 33
0.0
  0
MTEXT
  5
769
330
658
100
AcDbEntity
  8
Dimension (ANSI)
100
AcDbMText
 10
9.523197553607829
 20
39.27172919623931
 30
0.0
 40
0.4210526378531205
 41
0.0
 71
     5
 72
     1
  1
\A1;0.50{\PTYP.}
  7
ROMANS
 73
     1
 44
1.0
1001
ACAD
1000
MTEXTBEGIN
1070
    73
1070
     1
1070
    44
1040
1.0
1070
    74
1070
     0
1000
MTEXTEND
  0
POINT
  5
76A
330
658
100
AcDbEntity
  8
Defpoints
 62
     0
100
AcDbPoint
 10
11.59800070321412
 20
37.65107147866065
 30
0.0
  0
POINT
  5
76B
330
658
100
AcDbEntity
  8
Defpoints
 62
     0
100
AcDbPoint
 10
11.09800070321412
 20
37.15107147866065
 30
0.0
  0
POINT
  5
76C
330
658
100
AcDbEntity
  8
Defpoints
 62
     0
100
AcDbPoint
 10
8.334556659861236
 20
37.15107147866065
 30
0.0
  0
ENDBLK
  5
65A
330
658
100
AcDbEntity
  8
0
100
AcDbBlockEnd
  0
BLOCK
  5
76F
330
76E
100
AcDbEntity
  8
0
100
AcDbBlockBegin
  2
*D10
 70
     1
 10
0.0
 20
0.0
 30
0.0
  3
*D10
  1

  0
LINE
  5
80F
330
76E
100
AcDbEntity
  8
Dimension (ANSI)
100
AcDbLine
 10
14.90972053906489
 20
7.357191670418822
 30
0.0
 11
14.23188051145673
 21
7.357191670418822
 31
0.0
  0
LINE
  5
810
330
76E
100
AcDbEntity
  8
Dimension (ANSI)
100
AcDbLine
 10
14.23188051145673
 20
7.357191670418822
 30
0.0
 11
12.08781791453684
 21
9.501254267338083
 31
0.0
  0
MTEXT
  5
811
102
{ACAD_XDICTIONARY
360
E30
102
}
330
76E
100
AcDbEntity
  8
Dimension (ANSI)
100
AcDbMText
 10
15.042335541137
 20
7.677993680211674
 30
0.0
 40
0.4210526378531205
 41
0.0
 71
     1
 72
     1
  1
\A1;\U+22050.50{ TYP. (4 PL.)}
  7
ROMANS
 73
     1
 44
1.0
1001
ACAD
1000
MTEXTBEGIN
1070
    73
1070
     1
1070
    44
1040
1.0
1070
    74
1070
     0
1000
MTEXTEND
  0
SOLID
  5
812
330
76E
100
AcDbEntity
  8
Dimension (ANSI)
100
AcDbTrace
 10
12.13665800054117
 20
9.550094353342423
 30
0.0
 11
12.03897782853252
 21
9.452414181333741
 31
0.0
 12
11.7947773985108
 22
9.794294783364044
 32
0.0
 13
11.7947773985108
 23
9.794294783364044
 33
0.0
  0
LINE
  5
813
330
76E
100
AcDbEntity
  8
Dimension (ANSI)
100
AcDbLine
 10
11.23905333479308
 20
9.971071478660654
 30
0.0
 11
11.99694807163519
 21
9.971071478660654
 31
0.0
  0
LINE
  5
814
330
76E
100
AcDbEntity
  8
Dimension (ANSI)
100
AcDbLine
 10
11.61800070321414
 20
9.592124110239602
 30
0.0
 11
11.61800070321413
 21
10.35001884708171
 31
0.0
  0
POINT
  5
815
330
76E
100
AcDbEntity
  8
Defpoints
 62
     0
100
AcDbPoint
 10
11.7947773985108
 20
9.794294783364044
 30
0.0
  0
POINT
  5
816
330
76E
100
AcDbEntity
  8
Defpoints
 62
     0
100
AcDbPoint
 10
11.44122400791747
 20
10.14784817395726
 30
0.0
  0
ENDBLK
  5
770
330
76E
100
AcDbEntity
  8
0
100
AcDbBlockEnd
  0
BLOCK
  5
819
330
818
100
AcDbEntity
  8
0
100
AcDbBlockBegin
  2
*D11
 70
     1
 10
0.0
 20
0.0
 30
0.0
  3
*D11
  1

  0
LINE
  5
8B8
330
818
100
AcDbEntity
  8
Dimension (ANSI)
100
AcDbLine
 10
14.84666102374666
 20
8.170251185737008
 30
0.0
 11
14.16882099613851
 21
8.170251185737008
 31
0.0
  0
LINE
  5
8B9
330
818
100
AcDbEntity
  8
Dimension (ANSI)
100
AcDbLine
 10
14.16882099613851
 20
8.170251185737008
 30
0.0
 11
12.02152665380059
 21
10.31754552807431
 31
0.0
  0
MTEXT
  5
8BA
102
{ACAD_XDICTIONARY
360
E32
102
}
330
818
100
AcDbEntity
  8
Dimension (ANSI)
100
AcDbMText
 10
14.97927602581877
 20
8.491053195529865
 30
0.0
 40
0.4210526378531205
 41
0.0
 71
     1
 72
     1
  1
\A1;\U+22050.31{ TYP. (4 PL.)}
  7
ROMANS
 73
     1
 44
1.0
1001
ACAD
1000
MTEXTBEGIN
1070
    73
1070
     1
1070
    44
1040
1.0
1070
    74
1070
     0
1000
MTEXTEND
  0
SOLID
  5
8BB
330
818
100
AcDbEntity
  8
Dimension (ANSI)
100
AcDbTrace
 10
12.07036673980492
 20
10.36638561407865
 30
0.0
 11
11.97268656779627
 21
10.26870544206997
 31
0.0
 12
11.72848613777455
 22
10.61058604410027
 32
0.0
 13
11.72848613777455
 23
10.61058604410027
 33
0.0
  0
LINE
  5
8BC
330
818
100
AcDbEntity
  8
Dimension (ANSI)
100
AcDbLine
 10
11.23905333479308
 20
10.72107147866065
 30
0.0
 11
11.99694807163519
 21
10.72107147866065
 31
0.0
  0
LINE
  5
8BD
330
818
100
AcDbEntity
  8
Dimension (ANSI)
100
AcDbLine
 10
11.61800070321413
 20
10.3421241102396
 30
0.0
 11
11.61800070321413
 21
11.1000188470817
 31
0.0
  0
POINT
  5
8BE
330
818
100
AcDbEntity
  8
Defpoints
 62
     0
100
AcDbPoint
 10
11.72848613777455
 20
10.61058604410027
 30
0.0
  0
POINT
  5
8BF
330
818
100
AcDbEntity
  8
Defpoints
 62
     0
100
AcDbPoint
 10
11.50751526865372
 20
10.83155691322103
 30
0.0
  0
ENDBLK
  5
81A
330
818
100
AcDbEntity
  8
0
100
AcDbBlockEnd
  0
BLOCK
  5
8C2
330
8C1
100
AcDbEntity
  8
0
100
AcDbBlockBegin
  2
*D12
 70
     1
 10
0.0
 20
0.0
 30
0.0
  3
*D12
  1

  0
LINE
  5
9CB
330
8C1
100
AcDbEntity
  8
Dimension (ANSI)
100
AcDbLine
 10
33.06115859795097
 20
9.451071478660651
 30
0.0
 11
37.15745174569688
 21
9.451071478660649
 31
0.0
  0
LINE
  5
9CC
330
8C1
100
AcDbEntity
  8
Dimension (ANSI)
100
AcDbLine
 10
33.04115859795098
 20
9.97107147866065
 30
0.0
 11
37.15745174569688
 21
9.971071478660649
 31
0.0
  0
LINE
  5
9CD
330
8C1
100
AcDbEntity
  8
Dimension (ANSI)
100
AcDbLine
 10
36.63113595622319
 20
10.38549335074943
 30
0.0
 11
36.63113595622319
 21
10.79991522283821
 31
0.0
  0
LINE
  5
9CE
330
8C1
100
AcDbEntity
  8
Dimension (ANSI)
100
AcDbLine
 10
36.63113595622319
 20
9.036649606571865
 30
0.0
 11
36.63113595622319
 21
8.382843585853798
 31
0.0
  0
LINE
  5
9CF
330
8C1
100
AcDbEntity
  8
Dimension (ANSI)
100
AcDbLine
 10
36.63113595622319
 20
8.382843585853798
 30
0.0
 11
36.21671408413441
 21
8.382843585853798
 31
0.0
  0
SOLID
  5
9D0
330
8C1
100
AcDbEntity
  8
Dimension (ANSI)
100
AcDbTrace
 10
36.5620656442084
 20
10.38549335074943
 30
0.0
 11
36.70020626823799
 21
10.38549335074943
 31
0.0
 12
36.63113595622319
 22
9.971071478660649
 32
0.0
 13
36.63113595622319
 23
9.971071478660649
 33
0.0
  0
SOLID
  5
9D1
330
8C1
100
AcDbEntity
  8
Dimension (ANSI)
100
AcDbTrace
 10
36.5620656442084
 20
9.036649606571865
 30
0.0
 11
36.70020626823799
 21
9.036649606571865
 31
0.0
 12
36.63113595622319
 22
9.451071478660649
 32
0.0
 13
36.63113595622319
 23
9.451071478660649
 33
0.0
  0
MTEXT
  5
9D2
330
8C1
100
AcDbEntity
  8
Dimension (ANSI)
100
AcDbMText
 10
35.44249506247659
 20
8.382843585853805
 30
0.0
 40
0.4210526378531205
 41
0.0
 71
     5
 72
     1
  1
\A1;0.52{ \PTYP.}
  7
ROMANS
 73
     1
 44
1.0
1001
ACAD
1000
MTEXTBEGIN
1070
    73
1070
     1
1070
    44
1040
1.0
1070
    74
1070
     0
1000
MTEXTEND
  0
POINT
  5
9D3
330
8C1
100
AcDbEntity
  8
Defpoints
 62
     0
100
AcDbPoint
 10
32.79800070321413
 20
9.451071478660651
 30
0.0
  0
POINT
  5
9D4
330
8C1
100
AcDbEntity
  8
Defpoints
 62
     0
100
AcDbPoint
 10
32.77800070321414
 20
9.97107147866065
 30
0.0
  0
POINT
  5
9D5
330
8C1
100
AcDbEntity
  8
Defpoints
 62
     0
100
AcDbPoint
 10
36.63113595622319
 20
9.971071478660649
 30
0.0
  0
ENDBLK
  5
8C3
330
8C1
100
AcDbEntity
  8
0
100
AcDbBlockEnd
  0
BLOCK
  5
9D8
330
9D7
100
AcDbEntity
  8
0
100
AcDbBlockBegin
  2
*D13
 70
     1
 10
0.0
 20
0.0
 30
0.0
  3
*D13
  1

  0
LINE
  5
ADD
330
9D7
100
AcDbEntity
  8
Dimension (ANSI)
100
AcDbLine
 10
33.06115859795097
 20
9.451071478660651
 30
0.0
 11
38.94482445523418
 21
9.451071478660649
 31
0.0
  0
LINE
  5
ADE
330
9D7
100
AcDbEntity
  8
Dimension (ANSI)
100
AcDbLine
 10
33.04115859795098
 20
10.72107147866065
 30
0.0
 11
38.94482445523418
 21
10.72107147866065
 31
0.0
  0
LINE
  5
ADF
330
9D7
100
AcDbEntity
  8
Dimension (ANSI)
100
AcDbLine
 10
38.41850866576049
 20
10.30664960657186
 30
0.0
 11
38.41850866576049
 21
9.865493350749433
 31
0.0
  0
LINE
  5
AE0
330
9D7
100
AcDbEntity
  8
Dimension (ANSI)
100
AcDbLine
 10
38.41850866576049
 20
9.451071478660649
 30
0.0
 11
38.41850866576049
 21
8.38176664340078
 31
0.0
  0
LINE
  5
AE1
330
9D7
100
AcDbEntity
  8
Dimension (ANSI)
100
AcDbLine
 10
38.41850866576049
 20
8.38176664340078
 30
0.0
 11
38.00408679367171
 21
8.38176664340078
 31
0.0
  0
SOLID
  5
AE2
330
9D7
100
AcDbEntity
  8
Dimension (ANSI)
100
AcDbTrace
 10
38.3494383537457
 20
10.30664960657186
 30
0.0
 11
38.48757897777529
 21
10.30664960657186
 31
0.0
 12
38.41850866576049
 22
10.72107147866065
 32
0.0
 13
38.41850866576049
 23
10.72107147866065
 33
0.0
  0
SOLID
  5
AE3
330
9D7
100
AcDbEntity
  8
Dimension (ANSI)
100
AcDbTrace
 10
38.3494383537457
 20
9.865493350749433
 30
0.0
 11
38.48757897777529
 21
9.865493350749433
 31
0.0
 12
38.41850866576049
 22
9.451071478660649
 32
0.0
 13
38.41850866576049
 23
9.451071478660649
 33
0.0
  0
MTEXT
  5
AE4
330
9D7
100
AcDbEntity
  8
Dimension (ANSI)
100
AcDbMText
 10
37.25994296043197
 20
8.381766643400787
 30
0.0
 40
0.4210526378531205
 41
0.0
 71
     5
 72
     1
  1
\A1;1.27{\PTYP.}
  7
ROMANS
 73
     1
 44
1.0
1001
ACAD
1000
MTEXTBEGIN
1070
    73
1070
     1
1070
    44
1040
1.0
1070
    74
1070
     0
1000
MTEXTEND
  0
POINT
  5
AE5
330
9D7
100
AcDbEntity
  8
Defpoints
 62
     0
100
AcDbPoint
 10
32.79800070321413
 20
9.451071478660651
 30
0.0
  0
POINT
  5
AE6
330
9D7
100
AcDbEntity
  8
Defpoints
 62
     0
100
AcDbPoint
 10
32.77800070321414
 20
10.72107147866065
 30
0.0
  0
POINT
  5
AE7
330
9D7
100
AcDbEntity
  8
Defpoints
 62
     0
100
AcDbPoint
 10
38.41850866576049
 20
10.72107147866065
 30
0.0
  0
ENDBLK
  5
9D9
330
9D7
100
AcDbEntity
  8
0
100
AcDbBlockEnd
  0
BLOCK
  5
AEA
330
AE9
100
AcDbEntity
  8
0
100
AcDbBlockBegin
  2
*D14
 70
     1
 10
0.0
 20
0.0
 30
0.0
  3
*D14
  1

  0
LINE
  5
BDC
330
AE9
100
AcDbEntity
  8
Dimension (ANSI)
100
AcDbLine
 10
32.77800070321414
 20
10.45791358392381
 30
0.0
 11
32.77800070321414
 21
7.871672011253028
 31
0.0
  0
LINE
  5
BDD
330
AE9
100
AcDbEntity
  8
Dimension (ANSI)
100
AcDbLine
 10
33.29800070321413
 20
9.687913583923808
 30
0.0
 11
33.29800070321413
 21
7.871672011253028
 31
0.0
  0
LINE
  5
BDE
330
AE9
100
AcDbEntity
  8
Dimension (ANSI)
100
AcDbLine
 10
33.71242257530291
 20
8.397987800726712
 30
0.0
 11
34.1268444473917
 21
8.397987800726712
 31
0.0
  0
LINE
  5
BDF
330
AE9
100
AcDbEntity
  8
Dimension (ANSI)
100
AcDbLine
 10
32.36357883112535
 20
8.397987800726712
 30
0.0
 11
31.94915695903657
 21
8.397987800726712
 31
0.0
  0
SOLID
  5
BE0
330
AE9
100
AcDbEntity
  8
Dimension (ANSI)
100
AcDbTrace
 10
33.71242257530291
 20
8.46705811274151
 30
0.0
 11
33.71242257530291
 21
8.328917488711914
 31
0.0
 12
33.29800070321413
 22
8.397987800726712
 32
0.0
 13
33.29800070321413
 23
8.397987800726712
 33
0.0
  0
SOLID
  5
BE1
330
AE9
100
AcDbEntity
  8
Dimension (ANSI)
100
AcDbTrace
 10
32.36357883112535
 20
8.46705811274151
 30
0.0
 11
32.36357883112535
 21
8.328917488711914
 31
0.0
 12
32.77800070321414
 22
8.397987800726712
 32
0.0
 13
32.77800070321414
 23
8.397987800726712
 33
0.0
  0
MTEXT
  5
BE2
330
AE9
100
AcDbEntity
  8
Dimension (ANSI)
100
AcDbMText
 10
31.17493793737875
 20
8.397987800726712
 30
0.0
 40
0.4210526378531205
 41
0.0
 71
     5
 72
     1
  1
\A1;0.52{\PTYP.}
  7
ROMANS
 73
     1
 44
1.0
1001
ACAD
1000
MTEXTBEGIN
1070
    73
1070
     1
1070
    44
1040
1.0
1070
    74
1070
     0
1000
MTEXTEND
  0
POINT
  5
BE3
330
AE9
100
AcDbEntity
  8
Defpoints
 62
     0
100
AcDbPoint
 10
32.77800070321414
 20
10.72107147866065
 30
0.0
  0
POINT
  5
BE4
330
AE9
100
AcDbEntity
  8
Defpoints
 62
     0
100
AcDbPoint
 10
33.29800070321413
 20
9.951071478660651
 30
0.0
  0
POINT
  5
BE5
330
AE9
100
AcDbEntity
  8
Defpoints
 62
     0
100
AcDbPoint
 10
33.29800070321413
 20
8.397987800726712
 30
0.0
  0
ENDBLK
  5
AEB
330
AE9
100
AcDbEntity
  8
0
100
AcDbBlockEnd
  0
BLOCK
  5
BE8
330
BE7
100
AcDbEntity
  8
0
100
AcDbBlockBegin
  2
*D15
 70
     1
 10
0.0
 20
0.0
 30
0.0
  3
*D15
  1

  0
LINE
  5
CE4
330
BE7
100
AcDbEntity
  8
Dimension (ANSI)
100
AcDbLine
 10
44.02000941520151
 20
25.6866616480492
 30
0.0
 11
44.02000941520151
 21
37.55363222409562
 31
0.0
  0
LINE
  5
CE5
330
BE7
100
AcDbEntity
  8
Dimension (ANSI)
100
AcDbLine
 10
43.92625941520151
 20
25.6866616480492
 30
0.0
 11
43.92625941520151
 21
37.55363222409562
 31
0.0
  0
LINE
  5
CE6
330
BE7
100
AcDbEntity
  8
Dimension (ANSI)
100
AcDbLine
 10
44.43443128729029
 20
37.02731643462193
 30
0.0
 11
44.84885315937908
 21
37.02731643462193
 31
0.0
  0
LINE
  5
CE7
330
BE7
100
AcDbEntity
  8
Dimension (ANSI)
100
AcDbLine
 10
43.51183754311273
 20
37.02731643462193
 30
0.0
 11
42.1035535813213
 21
37.02731643462193
 31
0.0
  0
SOLID
  5
CE8
330
BE7
100
AcDbEntity
  8
Dimension (ANSI)
100
AcDbTrace
 10
44.43443128729029
 20
37.09638674663672
 30
0.0
 11
44.43443128729029
 21
36.95824612260714
 31
0.0
 12
44.02000941520151
 22
37.02731643462193
 32
0.0
 13
44.02000941520151
 23
37.02731643462193
 33
0.0
  0
SOLID
  5
CE9
330
BE7
100
AcDbEntity
  8
Dimension (ANSI)
100
AcDbTrace
 10
43.51183754311273
 20
37.09638674663672
 30
0.0
 11
43.51183754311273
 21
36.95824612260714
 31
0.0
 12
43.92625941520151
 22
37.02731643462193
 32
0.0
 13
43.92625941520151
 23
37.02731643462193
 33
0.0
  0
MTEXT
  5
CEA
330
BE7
100
AcDbEntity
  8
Dimension (ANSI)
100
AcDbMText
 10
40.86818167058626
 20
37.02731643462193
 30
0.0
 40
0.4210526378531205
 41
0.0
 71
     5
 72
     1
  1
\A1;(0.094){\P12 GA.\PGALV.}
  7
ROMANS
 73
     1
 44
1.0
1001
ACAD
1000
MTEXTBEGIN
1070
    73
1070
     1
1070
    44
1040
1.0
1070
    74
1070
     0
1000
MTEXTEND
  0
POINT
  5
CEB
330
BE7
100
AcDbEntity
  8
Defpoints
 62
     0
100
AcDbPoint
 10
44.02000941520151
 20
25.42350375331236
 30
0.0
  0
POINT
  5
CEC
330
BE7
100
AcDbEntity
  8
Defpoints
 62
     0
100
AcDbPoint
 10
43.92625941520151
 20
25.42350375331236
 30
0.0
  0
POINT
  5
CED
330
BE7
100
AcDbEntity
  8
Defpoints
 62
     0
100
AcDbPoint
 10
43.92625941520151
 20
37.02731643462193
 30
0.0
  0
ENDBLK
  5
BE9
330
BE7
100
AcDbEntity
  8
0
100
AcDbBlockEnd
  0
BLOCK
  5
D00
330
CFF
100
AcDbEntity
  8
0
100
AcDbBlockBegin
  2
*D16
 70
     1
 10
0.0
 20
0.0
 30
0.0
  3
*D16
  1

  0
LINE
  5
DDA
330
CFF
100
AcDbEntity
  8
Dimension (ANSI)
100
AcDbLine
 10
43.92625941520151
 20
35.6701135839238
 30
0.0
 11
43.92625941520151
 21
33.7490681632856
 31
0.0
  0
LINE
  5
DDB
330
CFF
100
AcDbEntity
  8
Dimension (ANSI)
100
AcDbLine
 10
43.51183754311273
 20
34.27538395275928
 30
0.0
 11
43.09741567102395
 21
34.27538395275928
 31
0.0
  0
LINE
  5
DDC
330
CFF
100
AcDbEntity
  8
Dimension (ANSI)
100
AcDbLine
 10
45.11468128729029
 20
34.27538395275928
 30
0.0
 11
45.76494407164832
 21
34.27538395275928
 31
0.0
  0
SOLID
  5
DDD
330
CFF
100
AcDbEntity
  8
Dimension (ANSI)
100
AcDbTrace
 10
43.51183754311273
 20
34.34445426477407
 30
0.0
 11
43.51183754311273
 21
34.20631364074449
 31
0.0
 12
43.92625941520151
 22
34.27538395275928
 32
0.0
 13
43.92625941520151
 23
34.27538395275928
 33
0.0
  0
SOLID
  5
DDE
330
CFF
100
AcDbEntity
  8
Dimension (ANSI)
100
AcDbTrace
 10
45.11468128729029
 20
34.34445426477407
 30
0.0
 11
45.11468128729029
 21
34.20631364074449
 31
0.0
 12
44.70025941520151
 22
34.27538395275928
 32
0.0
 13
44.70025941520151
 23
34.27538395275928
 33
0.0
  0
MTEXT
  5
DDF
330
CFF
100
AcDbEntity
  8
Dimension (ANSI)
100
AcDbMText
 10
45.89755907372043
 20
34.48591027168584
 30
0.0
 40
0.4210526378531205
 41
0.0
 71
     1
 72
     1
  1
\A1;0.77
  7
ROMANS
 73
     1
 44
1.0
1001
ACAD
1000
MTEXTBEGIN
1070
    73
1070
     1
1070
    44
1040
1.0
1070
    74
1070
     0
1000
MTEXTEND
  0
POINT
  5
DE0
330
CFF
100
AcDbEntity
  8
Defpoints
 62
     0
100
AcDbPoint
 10
43.92625941520151
 20
35.93327147866064
 30
0.0
  0
POINT
  5
DE1
330
CFF
100
AcDbEntity
  8
Defpoints
 62
     0
100
AcDbPoint
 10
44.70025941520151
 20
35.93307147866064
 30
0.0
  0
POINT
  5
DE2
330
CFF
100
AcDbEntity
  8
Defpoints
 62
     0
100
AcDbPoint
 10
44.70025941520151
 20
34.27538395275928
 30
0.0
  0
ENDBLK
  5
D01
330
CFF
100
AcDbEntity
  8
0
100
AcDbBlockEnd
  0
ENDSEC
  0
SECTION
  2
ENTITIES
  0
LINE
  5
107
330
6C
100
AcDbEntity
  8
Visible (ANSI)
100
AcDbLine
 10
33.29800070321413
 20
11.16907147866065
 30
0.0
 11
33.29800070321412
 21
35.93307147866064
 31
0.0
  0
LINE
  5
108
330
6C
100
AcDbEntity
  8
Visible (ANSI)
100
AcDbLine
 10
33.29800070321413
 20
11.16907147866065
 30
0.0
 11
33.18865070321413
 21
11.16907147866065
 31
0.0
  0
LINE
  5
109
330
6C
100
AcDbEntity
  8
Visible (ANSI)
100
AcDbLine
 10
33.29800070321412
 20
35.93307147866064
 30
0.0
 11
33.18865070321412
 21
35.93307147866064
 31
0.0
  0
LINE
  5
10A
330
6C
100
AcDbEntity
  8
Visible (ANSI)
100
AcDbLine
 10
33.18845070321412
 20
35.93327147866065
 30
0.0
 11
33.29800070321413
 21
35.93327147866065
 31
0.0
  0
LINE
  5
10B
330
6C
100
AcDbEntity
  8
Visible (ANSI)
100
AcDbLine
 10
33.18845070321412
 20
35.93307147866064
 30
0.0
 11
33.18845070321412
 21
35.93327147866065
 31
0.0
  0
LINE
  5
10C
330
6C
100
AcDbEntity
  8
Visible (ANSI)
100
AcDbLine
 10
33.18845070321413
 20
11.16887147866065
 30
0.0
 11
33.18845070321413
 21
11.16907147866065
 31
0.0
  0
LINE
  5
10D
330
6C
100
AcDbEntity
  8
Visible (ANSI)
100
AcDbLine
 10
33.29800070321413
 20
11.16887147866065
 30
0.0
 11
33.18845070321413
 21
11.16887147866065
 31
0.0
  0
LINE
  5
10E
330
6C
100
AcDbEntity
  8
Hidden (ANSI)
 48
1.094386100769042
100
AcDbLine
 10
33.20425070321413
 20
35.93307147866064
 30
0.0
 11
33.20425070321413
 21
11.16907147866065
 31
0.0
  0
LINE
  5
10F
330
6C
100
AcDbEntity
  8
Visible (ANSI)
100
AcDbLine
 10
33.18845070321413
 20
11.16907147866065
 30
0.0
 11
33.18865070321413
 21
11.16907147866065
 31
0.0
  0
LINE
  5
110
330
6C
100
AcDbEntity
  8
Visible (ANSI)
100
AcDbLine
 10
33.18865070321413
 20
35.93307147866064
 30
0.0
 11
33.18845070321412
 21
35.93307147866064
 31
0.0
  0
LINE
  5
111
330
6C
100
AcDbEntity
  8
Visible (ANSI)
100
AcDbLine
 10
33.29800070321413
 20
37.15107147866065
 30
0.0
 11
33.29800070321413
 21
35.93327147866065
 31
0.0
  0
LINE
  5
112
330
6C
100
AcDbEntity
  8
Visible (ANSI)
100
AcDbLine
 10
11.59800070321412
 20
37.65107147866065
 30
0.0
 11
32.79800070321412
 21
37.65107147866065
 31
0.0
  0
LINE
  5
113
330
6C
100
AcDbEntity
  8
Visible (ANSI)
100
AcDbLine
 10
11.09800070321412
 20
35.93327147866065
 30
0.0
 11
11.09800070321412
 21
37.15107147866065
 31
0.0
  0
LINE
  5
114
330
6C
100
AcDbEntity
  8
Visible (ANSI)
100
AcDbLine
 10
11.09800070321413
 20
9.951071478660649
 30
0.0
 11
11.09800070321413
 21
11.16887147866065
 31
0.0
  0
LINE
  5
115
330
6C
100
AcDbEntity
  8
Visible (ANSI)
100
AcDbLine
 10
32.79800070321413
 20
9.451071478660651
 30
0.0
 11
11.59800070321413
 21
9.451071478660651
 31
0.0
  0
LINE
  5
116
330
6C
100
AcDbEntity
  8
Visible (ANSI)
100
AcDbLine
 10
33.29800070321413
 20
11.16887147866065
 30
0.0
 11
33.29800070321413
 21
9.951071478660649
 31
0.0
  0
LINE
  5
117
330
6C
100
AcDbEntity
  8
Visible (ANSI)
100
AcDbLine
 10
32.79800070321412
 20
37.65107147866065
 30
0.0
 11
33.29800070321413
 21
37.15107147866065
 31
0.0
  0
LINE
  5
118
330
6C
100
AcDbEntity
  8
Visible (ANSI)
100
AcDbLine
 10
11.09800070321412
 20
37.15107147866065
 30
0.0
 11
11.59800070321412
 21
37.65107147866065
 31
0.0
  0
LINE
  5
119
330
6C
100
AcDbEntity
  8
Visible (ANSI)
100
AcDbLine
 10
11.09800070321412
 20
35.93327147866065
 30
0.0
 11
11.20755070321411
 21
35.93327147866065
 31
0.0
  0
LINE
  5
11A
330
6C
100
AcDbEntity
  8
Visible (ANSI)
100
AcDbLine
 10
11.20755070321411
 20
35.93327147866065
 30
0.0
 11
11.20755070321411
 21
35.93307147866064
 31
0.0
  0
LINE
  5
11B
330
6C
100
AcDbEntity
  8
Visible (ANSI)
100
AcDbLine
 10
11.20755070321412
 20
11.16907147866065
 30
0.0
 11
11.20755070321412
 21
11.16887147866065
 31
0.0
  0
LINE
  5
11C
330
6C
100
AcDbEntity
  8
Visible (ANSI)
100
AcDbLine
 10
11.20755070321412
 20
11.16887147866065
 30
0.0
 11
11.09800070321413
 21
11.16887147866065
 31
0.0
  0
LINE
  5
11D
330
6C
100
AcDbEntity
  8
Visible (ANSI)
100
AcDbLine
 10
11.09800070321413
 20
35.93307147866064
 30
0.0
 11
11.09800070321414
 21
11.16907147866065
 31
0.0
  0
LINE
  5
11E
330
6C
100
AcDbEntity
  8
Visible (ANSI)
100
AcDbLine
 10
11.09800070321413
 20
35.93307147866064
 30
0.0
 11
11.20735070321412
 21
35.93307147866064
 31
0.0
  0
LINE
  5
11F
330
6C
100
AcDbEntity
  8
Visible (ANSI)
100
AcDbLine
 10
11.09800070321414
 20
11.16907147866065
 30
0.0
 11
11.20735070321412
 21
11.16907147866065
 31
0.0
  0
LINE
  5
120
330
6C
100
AcDbEntity
  8
Hidden (ANSI)
 48
1.094386100769042
100
AcDbLine
 10
11.19175070321414
 20
11.16907147866065
 30
0.0
 11
11.19175070321413
 21
35.93307147866064
 31
0.0
  0
LINE
  5
121
330
6C
100
AcDbEntity
  8
Visible (ANSI)
100
AcDbLine
 10
11.20755070321411
 20
35.93307147866064
 30
0.0
 11
11.20735070321412
 21
35.93307147866064
 31
0.0
  0
LINE
  5
122
330
6C
100
AcDbEntity
  8
Visible (ANSI)
100
AcDbLine
 10
11.20735070321412
 20
11.16907147866065
 30
0.0
 11
11.20755070321412
 21
11.16907147866065
 31
0.0
  0
LINE
  5
123
330
6C
100
AcDbEntity
  8
Visible (ANSI)
100
AcDbLine
 10
11.59800070321413
 20
9.451071478660651
 30
0.0
 11
11.09800070321413
 21
9.951071478660649
 31
0.0
  0
LINE
  5
124
330
6C
100
AcDbEntity
  8
Visible (ANSI)
100
AcDbLine
 10
33.29800070321413
 20
9.951071478660649
 30
0.0
 11
32.79800070321413
 21
9.451071478660651
 31
0.0
  0
CIRCLE
  5
125
330
6C
100
AcDbEntity
  8
Visible (ANSI)
100
AcDbCircle
 10
32.77800070321414
 20
37.13107147866065
 30
0.0
 40
0.2499999999999999
  0
CIRCLE
  5
126
330
6C
100
AcDbEntity
  8
Visible (ANSI)
100
AcDbCircle
 10
11.61800070321413
 20
37.13107147866065
 30
0.0
 40
0.2499999999999999
  0
CIRCLE
  5
127
330
6C
100
AcDbEntity
  8
Visible (ANSI)
100
AcDbCircle
 10
11.61800070321413
 20
9.971071478660652
 30
0.0
 40
0.2499999999999999
  0
CIRCLE
  5
128
330
6C
100
AcDbEntity
  8
Visible (ANSI)
100
AcDbCircle
 10
32.77800070321414
 20
9.971071478660652
 30
0.0
 40
0.2499999999999999
  0
CIRCLE
  5
129
330
6C
100
AcDbEntity
  8
Visible (ANSI)
100
AcDbCircle
 10
32.77800070321414
 20
36.38107147866064
 30
0.0
 40
0.15625
  0
CIRCLE
  5
12A
330
6C
100
AcDbEntity
  8
Visible (ANSI)
100
AcDbCircle
 10
11.61800070321413
 20
36.38107147866064
 30
0.0
 40
0.15625
  0
CIRCLE
  5
12B
330
6C
100
AcDbEntity
  8
Visible (ANSI)
100
AcDbCircle
 10
11.61800070321413
 20
10.72107147866065
 30
0.0
 40
0.15625
  0
CIRCLE
  5
12C
330
6C
100
AcDbEntity
  8
Visible (ANSI)
100
AcDbCircle
 10
32.77800070321414
 20
10.72107147866065
 30
0.0
 40
0.15625
  0
MTEXT
  5
12E
330
6C
100
AcDbEntity
  8
Symbol (ANSI)
100
AcDbMText
 10
19.26284514219566
 20
5.595978986955502
 30
0.0
 40
0.5052631641392681
 41
0.0
 71
     7
 72
     1
  1
FRONT VIEW
  7
Text Style168
 73
     1
 44
1.0
1001
ACAD
1000
MTEXTBEGIN
1070
    73
1070
     1
1070
    44
1040
1.0
1070
    74
1070
     0
1000
MTEXTEND
  0
LINE
  5
130
330
6C
100
AcDbEntity
  8
Symbol (ANSI)
370
    30
100
AcDbLine
 10
19.21231869643403
 20
5.49294051379807
 30
0.0
 11
23.27448713553162
 21
5.49294051379807
 31
0.0
  0
LINE
  5
131
330
6C
100
AcDbEntity
  8
Visible (ANSI)
100
AcDbLine
 10
44.03560941520153
 20
11.16907147866064
 30
0.0
 11
44.70025941520152
 21
11.16907147866064
 31
0.0
  0
LINE
  5
132
330
6C
100
AcDbEntity
  8
Visible (ANSI)
100
AcDbLine
 10
44.70025941520152
 20
35.93307147866064
 30
0.0
 11
44.70025941520152
 21
11.16907147866065
 31
0.0
  0
LINE
  5
133
330
6C
100
AcDbEntity
  8
Visible (ANSI)
100
AcDbLine
 10
44.70025941520152
 20
35.93307147866064
 30
0.0
 11
44.03560941520153
 21
35.93307147866064
 31
0.0
  0
LINE
  5
134
330
6C
100
AcDbEntity
  8
Visible (ANSI)
100
AcDbLine
 10
44.03560941520153
 20
11.16907147866064
 30
0.0
 11
43.92625941520148
 21
11.16907147866064
 31
0.0
  0
LINE
  5
135
330
6C
100
AcDbEntity
  8
Visible (ANSI)
100
AcDbLine
 10
44.03560941520152
 20
35.93307147866064
 30
0.0
 11
43.92625941520148
 21
35.93307147866064
 31
0.0
  0
LINE
  5
136
330
6C
100
AcDbEntity
  8
Visible (ANSI)
100
AcDbLine
 10
43.92625941520148
 20
11.16907147866064
 30
0.0
 11
43.92625941520148
 21
35.93307147866064
 31
0.0
  0
LINE
  5
137
330
6C
100
AcDbEntity
  8
Visible (ANSI)
100
AcDbLine
 10
43.92625941520152
 20
35.93327147866064
 30
0.0
 11
44.02000941520152
 21
35.93327147866064
 31
0.0
  0
LINE
  5
138
330
6C
100
AcDbEntity
  8
Visible (ANSI)
100
AcDbLine
 10
44.02000941520149
 20
35.93327147866064
 30
0.0
 11
44.02000941520149
 21
35.93307147866064
 31
0.0
  0
LINE
  5
139
330
6C
100
AcDbEntity
  8
Visible (ANSI)
100
AcDbLine
 10
43.92625941520148
 20
35.93307147866064
 30
0.0
 11
43.92625941520148
 21
35.93327147866064
 31
0.0
  0
LINE
  5
13A
330
6C
100
AcDbEntity
  8
Visible (ANSI)
100
AcDbLine
 10
44.02000941520149
 20
11.16907147866064
 30
0.0
 11
44.02000941520149
 21
11.16887147866064
 31
0.0
  0
LINE
  5
13B
330
6C
100
AcDbEntity
  8
Visible (ANSI)
100
AcDbLine
 10
43.92625941520148
 20
11.16887147866064
 30
0.0
 11
43.92625941520148
 21
11.16907147866064
 31
0.0
  0
LINE
  5
13C
330
6C
100
AcDbEntity
  8
Visible (ANSI)
100
AcDbLine
 10
44.02000941520152
 20
11.16887147866064
 30
0.0
 11
43.92625941520152
 21
11.16887147866064
 31
0.0
  0
LINE
  5
13D
330
6C
100
AcDbEntity
  8
Hidden (ANSI)
 48
1.094386100769042
100
AcDbLine
 10
44.02000941520149
 20
35.93307147866064
 30
0.0
 11
44.02000941520149
 21
11.16907147866065
 31
0.0
  0
LINE
  5
13E
330
6C
100
AcDbEntity
  8
Visible (ANSI)
100
AcDbLine
 10
44.02000941520152
 20
9.951071478660646
 30
0.0
 11
44.02000941520152
 21
11.16887147866064
 31
0.0
  0
LINE
  5
13F
330
6C
100
AcDbEntity
  8
Visible (ANSI)
100
AcDbLine
 10
44.02000941520152
 20
35.93327147866064
 30
0.0
 11
44.02000941520152
 21
37.15107147866065
 31
0.0
  0
LINE
  5
140
330
6C
100
AcDbEntity
  8
Visible (ANSI)
100
AcDbLine
 10
43.92625941520152
 20
37.15107147866065
 30
0.0
 11
43.92625941520152
 21
35.93327147866064
 31
0.0
  0
LINE
  5
141
330
6C
100
AcDbEntity
  8
Visible (ANSI)
100
AcDbLine
 10
43.92625941520152
 20
11.16887147866064
 30
0.0
 11
43.92625941520152
 21
9.951071478660646
 31
0.0
  0
LINE
  5
142
330
6C
100
AcDbEntity
  8
Visible (ANSI)
100
AcDbLine
 10
44.02000941520137
 20
9.451071478660647
 30
0.0
 11
44.02000941520152
 21
9.951071478660646
 31
0.0
  0
LINE
  5
143
330
6C
100
AcDbEntity
  8
Visible (ANSI)
100
AcDbLine
 10
43.92625941520152
 20
9.951071478660646
 30
0.0
 11
43.92625941520136
 21
9.451071478660647
 31
0.0
  0
LINE
  5
144
330
6C
100
AcDbEntity
  8
Visible (ANSI)
100
AcDbLine
 10
43.92625941520136
 20
9.451071478660647
 30
0.0
 11
44.02000941520137
 21
9.451071478660647
 31
0.0
  0
LINE
  5
145
330
6C
100
AcDbEntity
  8
Visible (ANSI)
100
AcDbLine
 10
44.02000941520152
 20
9.951071478660646
 30
0.0
 11
43.92625941520152
 21
9.951071478660646
 31
0.0
  0
LINE
  5
146
330
6C
100
AcDbEntity
  8
Visible (ANSI)
100
AcDbLine
 10
44.02000941520152
 20
37.15107147866065
 30
0.0
 11
44.02000941520137
 21
37.65107147866064
 31
0.0
  0
LINE
  5
147
330
6C
100
AcDbEntity
  8
Visible (ANSI)
100
AcDbLine
 10
43.92625941520136
 20
37.65107147866064
 30
0.0
 11
43.92625941520152
 21
37.15107147866065
 31
0.0
  0
LINE
  5
148
330
6C
100
AcDbEntity
  8
Visible (ANSI)
100
AcDbLine
 10
43.92625941520152
 20
37.15107147866065
 30
0.0
 11
44.02000941520152
 21
37.15107147866065
 31
0.0
  0
LINE
  5
149
330
6C
100
AcDbEntity
  8
Visible (ANSI)
100
AcDbLine
 10
44.02000941520137
 20
37.65107147866064
 30
0.0
 11
43.92625941520136
 21
37.65107147866064
 31
0.0
  0
LINE
  5
14A
330
6C
100
AcDbEntity
  8
Hidden (ANSI)
 48
0.0423092618584633
100
AcDbLine
 10
43.92625941520136
 20
37.38107147866065
 30
0.0
 11
44.02000941520136
 21
37.38107147866065
 31
0.0
  0
LINE
  5
14B
330
6C
100
AcDbEntity
  8
Hidden (ANSI)
 48
0.0423092618584633
100
AcDbLine
 10
43.92625941520136
 20
36.88107147866064
 30
0.0
 11
44.02000941520136
 21
36.88107147866064
 31
0.0
  0
LINE
  5
14C
330
6C
100
AcDbEntity
  8
Hidden (ANSI)
 48
0.0423092618584633
100
AcDbLine
 10
43.92625941520136
 20
10.22107147866065
 30
0.0
 11
44.02000941520136
 21
10.22107147866065
 31
0.0
  0
LINE
  5
14D
330
6C
100
AcDbEntity
  8
Hidden (ANSI)
 48
0.0423092618584633
100
AcDbLine
 10
43.92625941520136
 20
9.721071478660647
 30
0.0
 11
44.02000941520136
 21
9.721071478660647
 31
0.0
  0
LINE
  5
14E
330
6C
100
AcDbEntity
  8
Hidden (ANSI)
 48
0.0423092618584633
100
AcDbLine
 10
43.92625941520136
 20
36.53732147866064
 30
0.0
 11
44.02000941520136
 21
36.53732147866064
 31
0.0
  0
LINE
  5
14F
330
6C
100
AcDbEntity
  8
Hidden (ANSI)
 48
0.0423092618584633
100
AcDbLine
 10
43.92625941520136
 20
36.22482147866064
 30
0.0
 11
44.02000941520136
 21
36.22482147866064
 31
0.0
  0
LINE
  5
150
330
6C
100
AcDbEntity
  8
Hidden (ANSI)
 48
0.0423092618584633
100
AcDbLine
 10
43.92625941520136
 20
10.87732147866065
 30
0.0
 11
44.02000941520136
 21
10.87732147866065
 31
0.0
  0
LINE
  5
151
330
6C
100
AcDbEntity
  8
Hidden (ANSI)
 48
0.0423092618584633
100
AcDbLine
 10
43.92625941520136
 20
10.56482147866065
 30
0.0
 11
44.02000941520136
 21
10.56482147866065
 31
0.0
  0
MTEXT
  5
152
330
6C
100
AcDbEntity
  8
Symbol (ANSI)
100
AcDbMText
 10
42.42652719326874
 20
8.323326888617158
 30
0.0
 40
0.5052631641392681
 41
0.0
 71
     7
 72
     1
  1
SIDE VIEW
  7
Text Style168
 73
     1
 44
1.0
1001
ACAD
1000
MTEXTBEGIN
1070
    73
1070
     1
1070
    44
1040
1.0
1070
    74
1070
     0
1000
MTEXTEND
  0
LINE
  5
153
330
6C
100
AcDbEntity
  8
Symbol (ANSI)
370
    30
100
AcDbLine
 10
42.40065765303877
 20
8.218650610028918
 30
0.0
 11
45.81507373895664
 21
8.218650610028918
 31
0.0
  0
LINE
  5
154
330
6C
100
AcDbEntity
  8
Visible Narrow (ANSI)
100
AcDbLine
 10
67.03541190113999
 20
16.53859101428292
 30
0.0
 11
67.03541190114001
 21
31.45650248767291
 31
0.0
  0
ELLIPSE
  5
155
330
6C
100
AcDbEntity
  8
Visible (ANSI)
100
AcDbEllipse
 10
66.97843770264954
 20
16.57140027313789
 30
0.0
 11
0.0805736842105301
 21
0.0000000000000047
 31
0.0
210
0.0
220
0.0
230
1.0
 40
0.5758617009853091
 41
3.926990816987158
 42
5.497787143782012
  0
LINE
  5
156
330
6C
100
AcDbEntity
  8
Visible (ANSI)
100
AcDbLine
 10
66.92135929894925
 20
31.4565624954623
 30
0.0
 11
66.9214639079454
 21
31.45662273577676
 31
0.0
  0
ELLIPSE
  5
157
330
6C
100
AcDbEntity
  8
Visible (ANSI)
100
AcDbEllipse
 10
66.97843770264959
 20
31.48931174652791
 30
0.0
 11
0.0805736842105819
 21
0.0000000000000047
 31
0.0
210
0.0
220
0.0
230
1.0
 40
0.5758617009853092
 41
3.926990816987252
 42
3.987598387464642
  0
ELLIPSE
  5
158
330
6C
100
AcDbEntity
  8
Visible (ANSI)
100
AcDbEllipse
 10
66.97843770264945
 20
31.48931174652796
 30
0.0
 11
0.080573684210685
 21
-0.0000000000000001
 31
0.0
210
0.0
220
0.0
230
1.0
 40
0.5758617009853094
 41
5.363700662383124
 42
5.497787143782038
  0
LINE
  5
159
330
6C
100
AcDbEntity
  8
Visible Narrow (ANSI)
100
AcDbLine
 10
66.9214635041591
 20
16.53859101428291
 30
0.0
 11
66.92146350415912
 21
31.4565024876729
 31
0.0
  0
LINE
  5
15A
330
6C
100
AcDbEntity
  8
Visible (ANSI)
100
AcDbLine
 10
66.97843770264957
 20
31.42381370944685
 30
0.0
 11
67.027283894771
 21
31.45194236072855
 31
0.0
  0
LINE
  5
15B
330
6C
100
AcDbEntity
  8
Visible (ANSI)
100
AcDbLine
 10
66.92135929894925
 20
31.45668297609122
 30
0.0
 11
66.97843770264957
 21
31.42381370944685
 31
0.0
  0
LINE
  5
15C
330
6C
100
AcDbEntity
  8
Visible (ANSI)
100
AcDbLine
 10
66.92135929894925
 20
31.4565624954623
 30
0.0
 11
66.92135929894925
 21
31.45668297609122
 31
0.0
  0
LINE
  5
15D
330
6C
100
AcDbEntity
  8
Visible (ANSI)
100
AcDbLine
 10
66.92135929894924
 20
16.53853054144338
 30
0.0
 11
66.92135929894924
 21
16.5386510220723
 31
0.0
  0
LINE
  5
15E
330
6C
100
AcDbEntity
  8
Visible (ANSI)
100
AcDbLine
 10
66.92135929894924
 20
16.53853054144338
 30
0.0
 11
66.92146390794682
 21
16.53859078175867
 31
0.0
  0
LINE
  5
15F
330
6C
100
AcDbEntity
  8
Visible (ANSI)
100
AcDbLine
 10
67.02658135301632
 20
16.53419449297057
 30
0.0
 11
67.02728389477099
 21
16.53378992608071
 31
0.0
  0
LINE
  5
160
330
6C
100
AcDbEntity
  8
Visible (ANSI)
100
AcDbLine
 10
66.97843770264956
 20
16.505661274799
 30
0.0
 11
66.92135929894924
 21
16.53853054144338
 31
0.0
  0
LINE
  5
161
330
6C
100
AcDbEntity
  8
Visible (ANSI)
100
AcDbLine
 10
67.02728389477099
 20
16.53378992608071
 30
0.0
 11
66.97843770264956
 21
16.505661274799
 31
0.0
  0
LINE
  5
162
330
6C
100
AcDbEntity
  8
Visible (ANSI)
100
AcDbLine
 10
67.03541190113999
 20
16.53859101428292
 30
0.0
 11
67.38171186480411
 21
16.73801190040974
 31
0.0
  0
LINE
  5
163
330
6C
100
AcDbEntity
  8
Visible (ANSI)
100
AcDbLine
 10
67.38171186480411
 20
31.65592337379973
 30
0.0
 11
67.38171186480411
 21
16.73801190040974
 31
0.0
  0
LINE
  5
164
330
6C
100
AcDbEntity
  8
Visible (ANSI)
100
AcDbLine
 10
67.38171186480411
 20
31.65592337379973
 30
0.0
 11
67.03541190114001
 21
31.45650248767291
 31
0.0
  0
LINE
  5
165
330
6C
100
AcDbEntity
  8
Visible (ANSI)
100
AcDbLine
 10
66.92135929894924
 20
16.5386510220723
 30
0.0
 11
66.9214635041591
 21
16.53859101428291
 31
0.0
  0
LINE
  5
166
330
6C
100
AcDbEntity
  8
Visible (ANSI)
100
AcDbLine
 10
67.33286567268267
 20
31.68405202508143
 30
0.0
 11
67.38171186480411
 21
31.65592337379973
 31
0.0
  0
LINE
  5
167
330
6C
100
AcDbEntity
  8
Visible (ANSI)
100
AcDbLine
 10
67.027283894771
 20
31.50807918266306
 30
0.0
 11
67.33286567268267
 21
31.68405202508143
 31
0.0
  0
LINE
  5
168
330
6C
100
AcDbEntity
  8
Visible (ANSI)
100
AcDbLine
 10
66.92146350415912
 20
31.4565024876729
 30
0.0
 11
66.92135929894925
 21
31.4565624954623
 31
0.0
  0
ELLIPSE
  5
169
330
6C
100
AcDbEntity
  8
Visible (ANSI)
100
AcDbEllipse
 10
66.75635034913739
 20
32.32952109979789
 30
0.0
 11
-0.0919269863444952
 21
0.1596337908688479
 31
0.0
210
0.0
220
0.0
230
0.9999999999999998
 40
0.578093115915813
 41
0.2678448778125348
 42
2.873747775777306
  0
ELLIPSE
  5
16A
330
6C
100
AcDbEntity
  8
Visible (ANSI)
100
AcDbEllipse
 10
55.73143914604611
 20
38.67834521842012
 30
0.0
 11
-0.0919269863444956
 21
0.1596337908688486
 31
0.0
210
0.0
220
0.0
230
1.0
 40
0.5780931159158129
 41
0.2678448778125357
 42
2.873747775777306
  0
ELLIPSE
  5
16B
330
6C
100
AcDbEntity
  8
Visible (ANSI)
100
AcDbEllipse
 10
55.7314391460461
 20
22.31707581051865
 30
0.0
 11
-0.0919269863444953
 21
0.1596337908688481
 31
0.0
210
0.0
220
0.0
230
1.0
 40
0.578093115915813
 41
0.2678448778125357
 42
2.873747775777306
  0
ELLIPSE
  5
16C
330
6C
100
AcDbEntity
  8
Visible (ANSI)
100
AcDbEllipse
 10
66.75635034913736
 20
15.96825169189641
 30
0.0
 11
-0.0919269863444953
 21
0.159633790868848
 31
0.0
210
0.0
220
0.0
230
0.9999999999999998
 40
0.578093115915813
 41
0.2678448778125348
 42
2.873747775777306
  0
ELLIPSE
  5
16D
330
6C
100
AcDbEntity
  8
Visible (ANSI)
100
AcDbEllipse
 10
66.75635034913739
 20
31.87771874133227
 30
0.0
 11
0.0574543664653164
 21
-0.0997711192930282
 31
0.0
210
0.0
220
0.0
230
1.0
 40
0.578093115915813
 41
3.578838513251623
 42
5.845939447516979
  0
ELLIPSE
  5
16E
330
6C
100
AcDbEntity
  8
Visible (ANSI)
100
AcDbEllipse
 10
55.73143914604611
 20
38.22654285995451
 30
0.0
 11
0.0574543664653157
 21
-0.099771119293027
 31
0.0
210
0.0
220
0.0
230
1.0
 40
0.5780931159158131
 41
3.578838513251623
 42
5.845939447516979
  0
ELLIPSE
  5
16F
330
6C
100
AcDbEntity
  8
Visible (ANSI)
100
AcDbEllipse
 10
55.7314391460461
 20
22.76887816898427
 30
0.0
 11
0.0574543664653156
 21
-0.0997711192930267
 31
0.0
210
0.0
220
0.0
230
0.9999999999999998
 40
0.578093115915813
 41
3.578838513251621
 42
5.845939447516978
  0
ELLIPSE
  5
170
330
6C
100
AcDbEntity
  8
Visible (ANSI)
100
AcDbEllipse
 10
66.75635034913738
 20
16.42005405036202
 30
0.0
 11
0.0574543664653164
 21
-0.0997711192930281
 31
0.0
210
0.0
220
0.0
230
1.0
 40
0.5780931159158129
 41
3.578838513251593
 42
5.845939447516978
  0
ELLIPSE
  5
171
330
6C
100
AcDbEntity
  8
Visible (ANSI)
100
AcDbEllipse
 10
66.70750415701594
 20
32.30139244851617
 30
0.0
 11
-0.0919269863444954
 21
0.1596337908688481
 31
0.0
210
0.0
220
0.0
230
0.9999999999999998
 40
0.578093115915813
 41
0.0
 42
6.283185307179586
  0
ELLIPSE
  5
172
330
6C
100
AcDbEntity
  8
Visible (ANSI)
100
AcDbEllipse
 10
55.68259295392468
 20
38.65021656713842
 30
0.0
 11
-0.0919269863444954
 21
0.1596337908688481
 31
0.0
210
0.0
220
0.0
230
0.9999999999999998
 40
0.578093115915813
 41
0.0
 42
6.283185307179586
  0
ELLIPSE
  5
173
330
6C
100
AcDbEntity
  8
Visible (ANSI)
100
AcDbEllipse
 10
55.68259295392466
 20
22.28894715923694
 30
0.0
 11
-0.0919269863444954
 21
0.1596337908688481
 31
0.0
210
0.0
220
0.0
230
0.9999999999999998
 40
0.578093115915813
 41
0.0
 42
6.283185307179586
  0
ELLIPSE
  5
174
330
6C
100
AcDbEntity
  8
Visible (ANSI)
100
AcDbEllipse
 10
66.70750415701594
 20
15.94012304061469
 30
0.0
 11
-0.0919269863444954
 21
0.1596337908688481
 31
0.0
210
0.0
220
0.0
230
0.9999999999999998
 40
0.578093115915813
 41
0.0
 42
6.283185307179586
  0
ELLIPSE
  5
175
330
6C
100
AcDbEntity
  8
Visible (ANSI)
100
AcDbEllipse
 10
66.70750415701594
 20
31.84959009005055
 30
0.0
 11
-0.0574543664653096
 21
0.09977111929303
 31
0.0
210
0.0
220
0.0
230
0.9999999999999998
 40
0.578093115915813
 41
0.0
 42
6.283185307179586
  0
ELLIPSE
  5
176
330
6C
100
AcDbEntity
  8
Visible (ANSI)
100
AcDbEllipse
 10
55.68259295392468
 20
38.19841420867279
 30
0.0
 11
-0.0574543664653096
 21
0.09977111929303
 31
0.0
210
0.0
220
0.0
230
0.9999999999999998
 40
0.578093115915813
 41
0.0
 42
6.283185307179586
  0
ELLIPSE
  5
177
330
6C
100
AcDbEntity
  8
Visible (ANSI)
100
AcDbEllipse
 10
55.68259295392466
 20
22.74074951770256
 30
0.0
 11
-0.0574543664653096
 21
0.09977111929303
 31
0.0
210
0.0
220
0.0
230
0.9999999999999998
 40
0.578093115915813
 41
0.0
 42
6.283185307179586
  0
ELLIPSE
  5
178
330
6C
100
AcDbEntity
  8
Visible (ANSI)
100
AcDbEllipse
 10
66.70750415701594
 20
16.39192539908031
 30
0.0
 11
-0.0574543664653096
 21
0.09977111929303
 31
0.0
210
0.0
220
0.0
230
0.9999999999999998
 40
0.578093115915813
 41
0.0
 42
6.283185307179586
  0
LINE
  5
179
330
6C
100
AcDbEntity
  8
Visible (ANSI)
100
AcDbLine
 10
67.02728389477099
 20
15.80018337656148
 30
0.0
 11
67.02728389477099
 21
16.53378992608071
 31
0.0
  0
LINE
  5
17A
330
6C
100
AcDbEntity
  8
Visible (ANSI)
100
AcDbLine
 10
66.76677087012328
 20
32.63676995606062
 30
0.0
 11
55.7210186250602
 21
38.99759563256306
 31
0.0
  0
LINE
  5
17B
330
6C
100
AcDbEntity
  8
Visible (ANSI)
100
AcDbLine
 10
67.027283894771
 20
31.45194236072855
 30
0.0
 11
67.027283894771
 21
32.18554891024779
 31
0.0
  0
LINE
  5
17C
330
6C
100
AcDbEntity
  8
Visible (ANSI)
100
AcDbLine
 10
66.97843770264957
 20
32.15742025896608
 30
0.0
 11
66.97843770264957
 21
31.42381370944685
 31
0.0
  0
LINE
  5
17D
330
6C
100
AcDbEntity
  8
Visible (ANSI)
100
AcDbLine
 10
55.67217243293876
 20
38.96946698128135
 30
0.0
 11
66.71792467800186
 21
32.60864130477891
 31
0.0
  0
LINE
  5
17E
330
6C
100
AcDbEntity
  8
Visible (ANSI)
100
AcDbLine
 10
55.41165940829105
 20
38.08467833295411
 30
0.0
 11
55.41165940829105
 21
38.81828488247334
 31
0.0
  0
LINE
  5
17F
330
6C
100
AcDbEntity
  8
Visible (ANSI)
100
AcDbLine
 10
55.41165940829103
 20
22.43291934878703
 30
0.0
 11
55.41165940829103
 21
23.16652589830627
 31
0.0
  0
LINE
  5
180
330
6C
100
AcDbEntity
  8
Visible (ANSI)
100
AcDbLine
 10
66.71792467800184
 20
15.62087262647177
 30
0.0
 11
55.67217243293876
 21
21.98169830297421
 31
0.0
  0
LINE
  5
181
330
6C
100
AcDbEntity
  8
Visible (ANSI)
100
AcDbLine
 10
66.97843770264956
 20
16.505661274799
 30
0.0
 11
66.97843770264956
 21
15.77205472527977
 31
0.0
  0
LINE
  5
182
330
6C
100
AcDbEntity
  8
Visible (ANSI)
100
AcDbLine
 10
66.76677087012326
 20
15.64900127775349
 30
0.0
 11
67.02728389477099
 21
15.80018337656148
 31
0.0
  0
LINE
  5
183
330
6C
100
AcDbEntity
  8
Visible (ANSI)
100
AcDbLine
 10
66.97843770264956
 20
15.77205472527977
 30
0.0
 11
66.71792467800184
 21
15.62087262647177
 31
0.0
  0
LINE
  5
184
330
6C
100
AcDbEntity
  8
Visible (ANSI)
100
AcDbLine
 10
66.71792467800184
 20
15.62087262647177
 30
0.0
 11
66.76677087012326
 21
15.64900127775349
 31
0.0
  0
LINE
  5
185
330
6C
100
AcDbEntity
  8
Visible (ANSI)
100
AcDbLine
 10
67.02728389477099
 20
15.80018337656148
 30
0.0
 11
66.97843770264956
 21
15.77205472527977
 31
0.0
  0
LINE
  5
186
330
6C
100
AcDbEntity
  8
Visible (ANSI)
100
AcDbLine
 10
67.027283894771
 20
32.18554891024779
 30
0.0
 11
66.76677087012328
 21
32.63676995606062
 31
0.0
  0
LINE
  5
187
330
6C
100
AcDbEntity
  8
Visible (ANSI)
100
AcDbLine
 10
66.71792467800186
 20
32.60864130477891
 30
0.0
 11
66.97843770264957
 21
32.15742025896608
 31
0.0
  0
LINE
  5
188
330
6C
100
AcDbEntity
  8
Visible (ANSI)
100
AcDbLine
 10
66.97843770264957
 20
32.15742025896608
 30
0.0
 11
67.027283894771
 21
32.18554891024779
 31
0.0
  0
LINE
  5
189
330
6C
100
AcDbEntity
  8
Visible (ANSI)
100
AcDbLine
 10
66.76677087012328
 20
32.63676995606062
 30
0.0
 11
66.71792467800186
 21
32.60864130477891
 31
0.0
  0
LINE
  5
18A
330
6C
100
AcDbEntity
  8
Visible (ANSI)
100
AcDbLine
 10
55.41165940829105
 20
38.81828488247334
 30
0.0
 11
55.67217243293876
 21
38.96946698128135
 31
0.0
  0
LINE
  5
18B
330
6C
100
AcDbEntity
  8
Visible (ANSI)
100
AcDbLine
 10
55.67217243293876
 20
38.96946698128135
 30
0.0
 11
55.7210186250602
 21
38.99759563256306
 31
0.0
  0
LINE
  5
18C
330
6C
100
AcDbEntity
  8
Visible (ANSI)
100
AcDbLine
 10
55.41165940829105
 20
38.08467833295411
 30
0.0
 11
55.46873781199137
 21
38.05180906630974
 31
0.0
  0
LINE
  5
18D
330
6C
100
AcDbEntity
  8
Visible (ANSI)
100
AcDbLine
 10
55.46873781199137
 20
38.05180906630974
 30
0.0
 11
55.46873781199137
 21
38.05168858568081
 31
0.0
  0
LINE
  5
18E
330
6C
100
AcDbEntity
  8
Visible Narrow (ANSI)
100
AcDbLine
 10
55.46863360678151
 20
38.0517485934702
 30
0.0
 11
55.46863360678149
 21
23.13383712008021
 31
0.0
  0
LINE
  5
18F
330
6C
100
AcDbEntity
  8
Visible (ANSI)
100
AcDbLine
 10
55.46873781199136
 20
23.13377711229081
 30
0.0
 11
55.46873781199136
 21
23.13365663166189
 31
0.0
  0
LINE
  5
190
330
6C
100
AcDbEntity
  8
Visible (ANSI)
100
AcDbLine
 10
55.46873781199136
 20
23.13365663166189
 30
0.0
 11
55.41165940829103
 21
23.16652589830627
 31
0.0
  0
ELLIPSE
  5
191
330
6C
100
AcDbEntity
  8
Visible (ANSI)
100
AcDbEllipse
 10
55.52560780527194
 20
38.08455785232519
 30
0.0
 11
-0.0805736842105173
 21
0.0000000000000001
 31
0.0
210
0.0
220
0.0
230
1.0
 40
0.575861700985309
 41
0.7247905929202201
 42
0.7853981633975069
  0
ELLIPSE
  5
192
330
6C
100
AcDbEntity
  8
Visible (ANSI)
100
AcDbEllipse
 10
55.52560780527194
 20
23.1666463789352
 30
0.0
 11
-0.0805736842105263
 21
0.0000000000000001
 31
0.0
210
0.0
220
0.0
230
1.0
 40
0.5758617009853092
 41
0.0
 42
0.7853981633974483
  0
LINE
  5
193
330
6C
100
AcDbEntity
  8
Visible (ANSI)
100
AcDbLine
 10
55.41165940829103
 20
23.16652589830627
 30
0.0
 11
55.44503412106141
 21
23.18574511717212
 31
0.0
  0
LINE
  5
194
330
6C
100
AcDbEntity
  8
Visible (ANSI)
100
AcDbLine
 10
55.44503412106142
 20
38.06545911408827
 30
0.0
 11
55.44503412106141
 21
23.1666463789352
 31
0.0
  0
LINE
  5
195
330
6C
100
AcDbEntity
  8
Visible (ANSI)
100
AcDbLine
 10
55.46873781199137
 20
38.05168858568081
 30
0.0
 11
55.46863360678151
 21
38.0517485934702
 31
0.0
  0
LINE
  5
196
330
6C
100
AcDbEntity
  8
Visible (ANSI)
100
AcDbLine
 10
55.46863360678149
 20
23.13383712008022
 30
0.0
 11
55.46873781199136
 21
23.13377711229081
 31
0.0
  0
LINE
  5
197
330
6C
100
AcDbEntity
  8
Visible (ANSI)
100
AcDbLine
 10
55.65850991099961
 20
38.22670960270405
 30
0.0
 11
55.7190543781517
 21
38.26157484254351
 31
0.0
  0
LINE
  5
198
330
6C
100
AcDbEntity
  8
Visible (ANSI)
100
AcDbLine
 10
55.74603925339056
 20
38.22085709613602
 30
0.0
 11
55.68018231976683
 21
38.18293261031779
 31
0.0
  0
LINE
  5
199
330
6C
100
AcDbEntity
  8
Visible (ANSI)
100
AcDbLine
 10
55.67217243293876
 20
21.98169830297421
 30
0.0
 11
55.41165940829103
 21
22.43291934878703
 31
0.0
  0
DIMENSION
  5
19A
330
6C
100
AcDbEntity
  8
Dimension (ANSI)
100
AcDbDimension
  2
*D4
 10
33.29800070321413
 20
42.11662944750538
 30
0.0
 11
22.19800070321413
 21
42.11662944750538
 31
0.0
 70
   160
  1
<>
 42
22.2
  3
Default (ANSI)
100
AcDbAlignedDimension
 13
11.09800070321412
 23
37.15107147866065
 33
0.0
 14
33.29800070321413
 24
37.15107147866065
 34
0.0
100
AcDbRotatedDimension
1001
ACAD
1000
DSTYLE
1002
{
1070
   289
1070
     1
1070
    73
1070
     0
1070
    74
1070
     0
1070
   271
1070
     2
1070
   272
1070
     2
1070
    48
1040
0.0
1070
    47
1040
0.0
1002
}
  0
DIMENSION
  5
287
330
6C
100
AcDbEntity
  8
Dimension (ANSI)
100
AcDbDimension
  2
*D5
 10
32.79800070321412
 20
40.80067777787324
 30
0.0
 11
22.19800070321412
 21
40.80067777787324
 31
0.0
 70
   160
  1
<>{ TYP.}
 71
     5
 42
21.2
  3
Default (ANSI)
100
AcDbAlignedDimension
 13
11.59800070321412
 23
37.65107147866065
 33
0.0
 14
32.79800070321412
 24
37.65107147866065
 34
0.0
 50
180.0
100
AcDbRotatedDimension
1001
ACAD
1000
DSTYLE
1002
{
1070
   289
1070
     1
1070
    73
1070
     0
1070
    74
1070
     0
1070
   271
1070
     2
1070
   272
1070
     2
1070
    48
1040
0.0
1070
    47
1040
0.0
1002
}
  0
DIMENSION
  5
371
330
6C
100
AcDbEntity
  8
Dimension (ANSI)
100
AcDbDimension
  2
*D6
 10
11.59800070321412
 20
40.80067777787324
 30
0.0
 11
9.494937937378741
 21
40.80067777787324
 31
0.0
 70
   160
  1
<>{\PTYP.}
 71
     5
 42
0.5
  3
Default (ANSI)
100
AcDbAlignedDimension
 13
11.09800070321412
 23
37.15107147866065
 33
0.0
 14
11.59800070321412
 24
37.65107147866065
 34
0.0
 50
180.0
100
AcDbRotatedDimension
1001
ACAD
1000
DSTYLE
1002
{
1070
   289
1070
     1
1070
    73
1070
     0
1070
    74
1070
     0
1070
   271
1070
     2
1070
   272
1070
     2
1070
    48
1040
0.0
1070
    47
1040
0.0
1002
}
  0
DIMENSION
  5
46F
330
6C
100
AcDbEntity
  8
Dimension (ANSI)
100
AcDbDimension
  2
*D7
 10
5.961863115149488
 20
9.451071478660651
 30
0.0
 11
5.961863115149488
 21
23.55107147866065
 31
0.0
 70
   160
  1
<>
 42
28.2
  3
Default (ANSI)
100
AcDbAlignedDimension
 13
11.59800070321412
 23
37.65107147866065
 33
0.0
 14
11.59800070321413
 24
9.451071478660651
 34
0.0
 50
270.0
100
AcDbRotatedDimension
1001
ACAD
1000
DSTYLE
1002
{
1070
   289
1070
     1
1070
   271
1070
     2
1070
   272
1070
     2
1070
    48
1040
0.0
1070
    47
1040
0.0
1002
}
  0
DIMENSION
  5
559
330
6C
100
AcDbEntity
  8
Dimension (ANSI)
100
AcDbDimension
  2
*D8
 10
9.505914466295262
 20
37.15107147866065
 30
0.0
 11
9.505914466295255
 21
23.55107147866065
 31
0.0
 70
   160
  1
<>{\PTYP.}
 71
     5
 42
27.2
  3
Default (ANSI)
100
AcDbAlignedDimension
 13
11.09800070321413
 23
9.951071478660651
 33
0.0
 14
11.09800070321412
 24
37.15107147866065
 34
0.0
 50
90.0
100
AcDbRotatedDimension
1001
ACAD
1000
DSTYLE
1002
{
1070
   289
1070
     1
1070
   271
1070
     2
1070
   272
1070
     2
1070
    48
1040
0.0
1070
    47
1040
0.0
1002
}
  0
DIMENSION
  5
657
330
6C
100
AcDbEntity
  8
Dimension (ANSI)
100
AcDbDimension
  2
*D9
 10
8.334556659861236
 20
37.15107147866065
 30
0.0
 11
9.523197553607829
 21
39.27172919623931
 31
0.0
 70
   160
  1
<>{\PTYP.}
 71
     5
 42
0.5
  3
Default (ANSI)
100
AcDbAlignedDimension
 13
11.59800070321412
 23
37.65107147866065
 33
0.0
 14
11.09800070321412
 24
37.15107147866065
 34
0.0
 50
90.0
100
AcDbRotatedDimension
1001
ACAD
1000
DSTYLE
1002
{
1070
   289
1070
     1
1070
   271
1070
     2
1070
   272
1070
     2
1070
    48
1040
0.0
1070
    47
1040
0.0
1002
}
  0
DIMENSION
  5
76D
330
6C
100
AcDbEntity
  8
Dimension (ANSI)
100
AcDbDimension
  2
*D10
 10
11.44122400791747
 20
10.14784817395726
 30
0.0
 11
18.11000475978116
 21
7.35719167041882
 31
0.0
 70
   163
  1
<>{ TYP. (4 PL.)}
 42
0.5
  3
Default (ANSI)
100
AcDbDiametricDimension
 15
11.7947773985108
 25
9.794294783364044
 35
0.0
 40
0.0
1001
ACAD
1000
DSTYLE
1002
{
1070
   144
1040
1.000000000000007
1070
   271
1070
     2
1070
   272
1070
     2
1070
    48
1040
0.0
1070
    47
1040
0.0
1002
}
1001
ACAD_DSTYLE_DIMRADIAL_EXTENSION
1070
   387
1070
     1
1070
   388
1040
0.0
1070
   390
1040
0.0
  0
DIMENSION
  5
817
330
6C
100
AcDbEntity
  8
Dimension (ANSI)
100
AcDbDimension
  2
*D11
 10
11.50751526865372
 20
10.83155691322103
 30
0.0
 11
18.04694524446294
 21
8.170251185737011
 31
0.0
 70
   163
  1
<>{ TYP. (4 PL.)}
 42
0.3125
  3
Default (ANSI)
100
AcDbDiametricDimension
 15
11.72848613777455
 25
10.61058604410027
 35
0.0
 40
0.0
1001
ACAD
1000
DSTYLE
1002
{
1070
   144
1040
1.000000000000005
1070
   271
1070
     2
1070
   272
1070
     2
1070
    48
1040
0.0
1070
    47
1040
0.0
1002
}
1001
ACAD_DSTYLE_DIMRADIAL_EXTENSION
1070
   387
1070
     1
1070
   388
1040
0.0
1070
   390
1040
0.0
  0
DIMENSION
  5
8C0
330
6C
100
AcDbEntity
  8
Dimension (ANSI)
100
AcDbDimension
  2
*D12
 10
36.63113595622319
 20
9.971071478660649
 30
0.0
 11
35.44249506247659
 21
8.382843585853805
 31
0.0
 70
   160
  1
<>{ \PTYP.}
 71
     5
 42
0.5199999999999996
  3
Default (ANSI)
100
AcDbAlignedDimension
 13
32.79800070321413
 23
9.451071478660651
 33
0.0
 14
32.77800070321414
 24
9.97107147866065
 34
0.0
 50
90.0
100
AcDbRotatedDimension
1001
ACAD
1000
DSTYLE
1002
{
1070
   289
1070
     1
1070
   271
1070
     2
1070
   272
1070
     2
1070
    48
1040
0.0
1070
    47
1040
0.0
1002
}
  0
DIMENSION
  5
9D6
330
6C
100
AcDbEntity
  8
Dimension (ANSI)
100
AcDbDimension
  2
*D13
 10
38.41850866576049
 20
10.72107147866065
 30
0.0
 11
37.25994296043197
 21
8.381766643400787
 31
0.0
 70
   160
  1
<>{\PTYP.}
 71
     5
 42
1.269999999999999
  3
Default (ANSI)
100
AcDbAlignedDimension
 13
32.79800070321413
 23
9.451071478660651
 33
0.0
 14
32.77800070321414
 24
10.72107147866065
 34
0.0
 50
90.0
100
AcDbRotatedDimension
1001
ACAD
1000
DSTYLE
1002
{
1070
   289
1070
     2
1070
   271
1070
     2
1070
   272
1070
     2
1070
    48
1040
0.0
1070
    47
1040
0.0
1002
}
  0
DIMENSION
  5
AE8
330
6C
100
AcDbEntity
  8
Dimension (ANSI)
100
AcDbDimension
  2
*D14
 10
33.29800070321413
 20
8.397987800726712
 30
0.0
 11
31.17493793737875
 21
8.397987800726712
 31
0.0
 70
   160
  1
<>{\PTYP.}
 71
     5
 42
0.5199999999999961
  3
Default (ANSI)
100
AcDbAlignedDimension
 13
32.77800070321414
 23
10.72107147866065
 33
0.0
 14
33.29800070321413
 24
9.951071478660651
 34
0.0
 50
180.0
100
AcDbRotatedDimension
1001
ACAD
1000
DSTYLE
1002
{
1070
   289
1070
     1
1070
    73
1070
     0
1070
    74
1070
     0
1070
   271
1070
     2
1070
   272
1070
     2
1070
    48
1040
0.0
1070
    47
1040
0.0
1002
}
  0
DIMENSION
  5
BE6
330
6C
100
AcDbEntity
  8
Dimension (ANSI)
100
AcDbDimension
  2
*D15
 10
43.92625941520151
 20
37.02731643462193
 30
0.0
 11
40.86818167058626
 21
37.02731643462193
 31
0.0
 70
   160
  1
(<>){\P12 GA.\PGALV.}
 71
     5
 42
0.09375
  3
Default (ANSI)
100
AcDbAlignedDimension
 13
44.02000941520151
 23
25.42350375331236
 33
0.0
 14
43.92625941520151
 24
25.42350375331236
 34
0.0
100
AcDbRotatedDimension
1001
ACAD
1000
DSTYLE
1002
{
1070
   289
1070
     1
1070
    73
1070
     0
1070
    74
1070
     0
1070
   271
1070
     3
1070
   147
1040
0.031496062992126
1070
    72
1070
     0
1070
    71
1070
     0
1070
   272
1070
     3
1070
    48
1040
0.0
1070
    47
1040
0.0
1002
}
  0
MTEXT
  5
CEE
102
{ACAD_XDICTIONARY
360
DF1
102
}
330
6C
100
AcDbEntity
  8
Symbol (ANSI)
100
AcDbMText
 10
49.70607215388995
 20
6.833057067550847
 30
0.0
 40
0.4210526450165465
 41
20.21172231198613
 71
     4
 72
     1
  3
{\fRomanS|b0|i0|c0|p2;\H2x;PART#: NP3024CG\P(DATA SUBJECT TO CHANGE \H1.5533x; \H0.64379x;WITHOUT NOTICE) \H1.4593x; \H0.68528x;\P\H0.60005x;THIS DRAWING IS PROPERTY OF HUBBELL INC. \H1.4743x; \H0.6783x;WIEGMANN\H1.157x; \H0.86434x;\PALL INFORMATION 
  1
IS PROPRIETARY AND NOT TO BE \H1.1949x; \H0.83686x;DUPLICATED\H1.1904x; \H0.84006x;\P\H0.83337x; \H1.2291x; \H0.8136x;\P \H1.1397x; }
  7
Note Text (ANSI)
 73
     1
 44
0.8397688865661621
1001
ACAD
1000
MTEXTBEGIN
1070
    73
1070
     1
1070
    44
1040
0.8397688865661621
1070
    74
1070
     0
1000
MTEXTEND
  0
LINE
  5
CF0
330
6C
100
AcDbEntity
  8
Center Mark (ANSI)
  6
CHAIN
 48
0.2047499567270279
100
AcDbLine
 10
10.84168491374045
 20
37.13107147866065
 30
0.0
 11
12.39431649268782
 21
37.13107147866065
 31
0.0
  0
LINE
  5
CF1
330
6C
100
AcDbEntity
  8
Center Mark (ANSI)
  6
CHAIN
 48
0.2047499567270279
100
AcDbLine
 10
33.55431649268781
 20
37.13107147866065
 30
0.0
 11
32.00168491374045
 21
37.13107147866065
 31
0.0
  0
LINE
  5
CF2
330
6C
100
AcDbEntity
  8
Centerline (ANSI)
  6
CHAIN
 48
0.9524481296539306
100
AcDbLine
 10
10.84168491374045
 20
37.13107147866065
 30
0.0
 11
33.55431649268781
 21
37.13107147866065
 31
0.0
  0
LINE
  5
CF3
330
6C
100
AcDbEntity
  8
Center Mark (ANSI)
  6
CHAIN
 48
0.2047499567270279
100
AcDbLine
 10
32.77800070321414
 20
9.194755689186965
 30
0.0
 11
32.77800070321414
 21
10.74738726813433
 31
0.0
  0
LINE
  5
CF4
330
6C
100
AcDbEntity
  8
Centerline (ANSI)
  6
CHAIN
 48
0.9524481296539306
100
AcDbLine
 10
32.77800070321414
 20
37.90738726813433
 30
0.0
 11
32.77800070321414
 21
9.194755689186965
 31
0.0
  0
LINE
  5
CF5
330
6C
100
AcDbEntity
  8
Center Mark (ANSI)
  6
CHAIN
 48
0.2047499567270279
100
AcDbLine
 10
10.84168491374045
 20
9.97107147866065
 30
0.0
 11
12.39431649268782
 21
9.97107147866065
 31
0.0
  0
LINE
  5
CF6
330
6C
100
AcDbEntity
  8
Centerline (ANSI)
  6
CHAIN
 48
0.9524481296539306
100
AcDbLine
 10
33.55431649268781
 20
9.97107147866065
 30
0.0
 11
10.84168491374045
 21
9.97107147866065
 31
0.0
  0
LINE
  5
CF7
330
6C
100
AcDbEntity
  8
Centerline (ANSI)
  6
CHAIN
 48
0.9524481296539306
100
AcDbLine
 10
11.61800070321413
 20
9.194755689186965
 30
0.0
 11
11.61800070321413
 21
37.90738726813433
 31
0.0
  0
LINE
  5
CF8
330
6C
100
AcDbEntity
  8
Center Mark (ANSI)
  6
CHAIN
 48
0.1800117194652557
100
AcDbLine
 10
11.61800070321413
 20
37.06363726813433
 30
0.0
 11
11.61800070321413
 21
35.69850568918696
 31
0.0
  0
LINE
  5
CF9
330
6C
100
AcDbEntity
  8
Center Mark (ANSI)
  6
CHAIN
 48
0.1800117194652557
100
AcDbLine
 10
32.77800070321414
 20
37.06363726813433
 30
0.0
 11
32.77800070321414
 21
35.69850568918696
 31
0.0
  0
LINE
  5
CFA
330
6C
100
AcDbEntity
  8
Centerline (ANSI)
  6
CHAIN
 48
0.9524481296539306
100
AcDbLine
 10
10.93543491374045
 20
36.38107147866064
 30
0.0
 11
33.46056649268781
 21
36.38107147866064
 31
0.0
  0
LINE
  5
CFB
330
6C
100
AcDbEntity
  8
Center Mark (ANSI)
  6
CHAIN
 48
0.1800117194652557
100
AcDbLine
 10
11.61800070321413
 20
11.40363726813433
 30
0.0
 11
11.61800070321413
 21
10.03850568918696
 31
0.0
  0
LINE
  5
CFC
330
6C
100
AcDbEntity
  8
Center Mark (ANSI)
  6
CHAIN
 48
0.1800117194652557
100
AcDbLine
 10
32.77800070321414
 20
11.40363726813433
 30
0.0
 11
32.77800070321414
 21
10.03850568918696
 31
0.0
  0
LINE
  5
CFD
330
6C
100
AcDbEntity
  8
Centerline (ANSI)
  6
CHAIN
 48
0.9524481296539306
100
AcDbLine
 10
10.93543491374045
 20
10.72107147866065
 30
0.0
 11
33.46056649268781
 21
10.72107147866065
 31
0.0
  0
DIMENSION
  5
CFE
330
6C
100
AcDbEntity
  8
Dimension (ANSI)
100
AcDbDimension
  2
*D16
 10
44.70025941520151
 20
34.27538395275928
 30
0.0
 11
46.53916309330614
 21
34.27538395275928
 31
0.0
 70
   160
  1
<>
 42
0.7740000000000009
  3
Default (ANSI)
100
AcDbAlignedDimension
 13
43.92625941520151
 23
35.93327147866064
 33
0.0
 14
44.70025941520151
 24
35.93307147866064
 34
0.0
 50
180.0
100
AcDbRotatedDimension
1001
ACAD
1000
DSTYLE
1002
{
1070
   289
1070
     1
1070
    73
1070
     0
1070
    74
1070
     0
1070
   271
1070
     2
1070
    76
1070
     1
1070
   272
1070
     2
1070
    48
1040
0.0
1070
    47
1040
0.0
1002
}
  0
ENDSEC
  0
SECTION
  2
OBJECTS
  0
DICTIONARY
  5
C
330
0
100
AcDbDictionary
281
     1
  3
ACAD_CIP_PREVIOUS_PRODUCT_INFO
350
DE3
  3
ACAD_COLOR
350
63
  3
ACAD_GROUP
350
D
  3
ACAD_LAYOUT
350
62
  3
ACAD_MATERIAL
350
10
  3
ACAD_MLEADERSTYLE
350
66
  3
ACAD_MLINESTYLE
350
5F
  3
ACAD_PLOTSETTINGS
350
61
  3
ACAD_PLOTSTYLENAME
350
E
  3
ACAD_SCALELIST
350
42
  3
ACAD_TABLESTYLE
350
64
  3
ACAD_VISUALSTYLE
350
29
  3
ACDB_RECOMPOSE_DATA
350
DF3
  3
AcDbVariableDictionary
350
76
  3
DWGPROPS
350
DF4
  0
DICTIONARY
  5
E30
330
811
100
AcDbDictionary
280
     1
281
     1
  3
ACAD_MTEXT_RT
360
E31
  0
DICTIONARY
  5
E32
330
8BA
100
AcDbDictionary
280
     1
281
     1
  3
ACAD_MTEXT_RT
360
E33
  0
DICTIONARY
  5
DF1
330
CEE
100
AcDbDictionary
280
     1
281
     1
  3
ACAD_MTEXT_2008_RT
360
DF2
  0
XRECORD
  5
DE3
102
{ACAD_REACTORS
330
C
102
}
330
C
100
AcDbXrecord
280
     1
300
INVNTOR
300
2012
300
85795PDSP_2012_0F
  0
DICTIONARY
  5
63
102
{ACAD_REACTORS
330
C
102
}
330
C
100
AcDbDictionary
281
     1
  0
DICTIONARY
  5
D
102
{ACAD_REACTORS
330
C
102
}
330
C
100
AcDbDictionary
281
     1
  0
DICTIONARY
  5
62
102
{ACAD_REACTORS
330
C
102
}
330
C
100
AcDbDictionary
281
     1
  3
Layout1
350
6B
  3
Layout2
350
73
  3
Model
350
6F
  0
DICTIONARY
  5
10
102
{ACAD_REACTORS
330
C
102
}
330
C
100
AcDbDictionary
281
     1
  3
ByBlock
350
19
  3
ByLayer
350
11
  3
Global
350
21
  0
DICTIONARY
  5
66
102
{ACAD_REACTORS
330
C
102
}
330
C
100
AcDbDictionary
281
     1
  3
Standard
350
67
  0
DICTIONARY
  5
5F
102
{ACAD_REACTORS
330
C
102
}
330
C
100
AcDbDictionary
281
     1
  3
Standard
350
60
  0
DICTIONARY
  5
61
102
{ACAD_REACTORS
330
C
102
}
330
C
100
AcDbDictionary
281
     1
  0
ACDBDICTIONARYWDFLT
  5
E
102
{ACAD_REACTORS
330
C
102
}
330
C
100
AcDbDictionary
281
     1
  3
Normal
350
F
100
AcDbDictionaryWithDefault
340
F
  0
DICTIONARY
  5
42
102
{ACAD_REACTORS
330
C
102
}
330
C
100
AcDbDictionary
281
     1
  3
A0
350
43
  3
A1
350
44
  3
A2
350
45
  3
A3
350
46
  3
A4
350
47
  3
A5
350
48
  3
A6
350
49
  3
A7
350
4A
  3
A8
350
4B
  3
A9
350
4C
  3
B0
350
4D
  3
B1
350
4E
  3
B2
350
4F
  3
B3
350
50
  3
B4
350
51
  3
B5
350
52
  3
B6
350
53
  0
DICTIONARY
  5
64
102
{ACAD_REACTORS
330
C
102
}
330
C
100
AcDbDictionary
281
     1
  3
Standard
350
65
  0
DICTIONARY
  5
29
102
{ACAD_REACTORS
330
C
102
}
330
C
100
AcDbDictionary
281
     1
  3
2dWireframe
350
2F
  3
Basic
350
2E
  3
Brighten
350
35
  3
ColorChange
350
39
  3
Conceptual
350
32
  3
Dim
350
34
  3
EdgeColorOff
350
41
  3
Facepattern
350
38
  3
Flat
350
2A
  3
FlatWithEdges
350
2B
  3
Gouraud
350
2C
  3
GouraudWithEdges
350
2D
  3
Hidden
350
31
  3
JitterOff
350
3F
  3
Linepattern
350
37
  3
OverhangOff
350
40
  3
Realistic
350
33
  3
Shaded
350
3E
  3
Shaded with edges
350
3D
  3
Shades of Gray
350
3A
  3
Sketchy
350
3B
  3
Thicken
350
36
  3
Wireframe
350
30
  3
X-Ray
350
3C
  0
XRECORD
  5
DF3
102
{ACAD_REACTORS
330
C
102
}
330
C
100
AcDbXrecord
280
     1
 90
        1
330
65
330
9D6
330
CEE
  0
DICTIONARY
  5
76
102
{ACAD_REACTORS
330
C
102
}
330
C
100
AcDbDictionary
281
     1
  3
CANNOSCALE
350
79
  3
CMLEADERSTYLE
350
78
  3
CTABLESTYLE
350
77
  3
DIMASSOC
350
DEB
  3
HIDETEXT
350
DEA
  3
INDEXCTL
350
DE9
  3
LAYEREVAL
350
DE6
  3
LAYERNOTIFY
350
DE7
  3
LIGHTINGUNITS
350
DE5
  3
MSLTSCALE
350
DE4
  3
SORTENTS
350
DE8
  3
XCLIPFRAME
350
DEC
  0
XRECORD
  5
DF4
102
{ACAD_REACTORS
330
C
102
}
330
C
100
AcDbXrecord
280
     1
  1
DWGPROPS COOKIE
  2

  3

  4
JF
  6

  7

  8

  9
-
300
Manager=
301
Company=
302
Category=
303
Part Number=NP3024CG-S
304
Description=
305
Project=
306
Designer=JF
307
Engineer=
308
Authority=
309
Cost Center=
 40
0.0000359953703704
 41
2455946.35922669
 42
2455946.35922669
  1

 90
       22
300
Vendor=
300
User Status=
300
Design Status=WorkInProgress
300
Checked by=DN
300
Date Checked=01/18/2012
300
Engr Approved by=
300
Date Eng Approved=01/18/2012
300
Mfg Approved by=
300
Date Mfg Approved=01/18/2012
300
DWG. NO=
300
NUMBER OF SHEETS=1
300
DRAWING #=
  0
XRECORD
  5
E31
102
{ACAD_REACTORS
330
E30
102
}
330
E30
100
AcDbXrecord
280
     1
 40
28737.0
  1
\A1;\U+22050.50{ TYP. (4 PL.)}
  0
XRECORD
  5
E33
102
{ACAD_REACTORS
330
E32
102
}
330
E32
100
AcDbXrecord
280
     1
 40
28724.0
  1
\A1;\U+22050.31{ TYP. (4 PL.)}
  0
XRECORD
  5
DF2
102
{ACAD_REACTORS
330
DF1
102
}
330
DF1
100
AcDbXrecord
280
     1
 40
4849081.0
  1
\pxsm0.94;{\fRomanS|b0|i0;\H0.8421;PART#: NP3024CG\P(DATA SUBJECT TO CHANGE WITHOUT NOTICE) \P\fRomanS|b0|i0;\H0.5053;THIS DRAWING IS PROPERTY OF HUBBELL INC. WIEGMANN\PALL INFORMATION IS PROPRIETARY AND NOT TO BE DUPLICATED\P\fRomanS|b0|i0;\H0.4211;
  1
 \P }
  0
LAYOUT
  5
6B
102
{ACAD_XDICTIONARY
360
E2A
102
}
102
{ACAD_REACTORS
330
62
102
}
330
62
100
AcDbPlotSettings
  1

  2

  4

  6

 40
0.0
 41
0.0
 42
0.0
 43
0.0
 44
0.0
 45
0.0
 46
0.0
 47
0.0
 48
0.0
 49
0.0
140
0.0
141
0.0
142
1.0
143
1.0
 70
   688
 72
     0
 73
     0
 74
     5
  7

 75
    16
147
1.0
148
0.0
149
0.0
100
AcDbLayout
  1
Layout1
 70
     1
 71
     1
 10
0.0
 20
0.0
 11
12.0
 21
9.0
 12
0.0
 22
0.0
 32
0.0
 14
0.0
 24
0.0
 34
0.0
 15
0.0
 25
0.0
 35
0.0
146
0.0
 13
0.0
 23
0.0
 33
0.0
 16
1.0
 26
0.0
 36
0.0
 17
0.0
 27
1.0
 37
0.0
 76
     0
330
68
  0
LAYOUT
  5
73
102
{ACAD_XDICTIONARY
360
E2E
102
}
102
{ACAD_REACTORS
330
62
102
}
330
62
100
AcDbPlotSettings
  1

  2

  4

  6

 40
0.0
 41
0.0
 42
0.0
 43
0.0
 44
0.0
 45
0.0
 46
0.0
 47
0.0
 48
0.0
 49
0.0
140
0.0
141
0.0
142
1.0
143
1.0
 70
   688
 72
     0
 73
     0
 74
     5
  7

 75
    16
147
1.0
148
0.0
149
0.0
100
AcDbLayout
  1
Layout2
 70
     1
 71
     2
 10
0.0
 20
0.0
 11
12.0
 21
9.0
 12
0.0
 22
0.0
 32
0.0
 14
0.0
 24
0.0
 34
0.0
 15
0.0
 25
0.0
 35
0.0
146
0.0
 13
0.0
 23
0.0
 33
0.0
 16
1.0
 26
0.0
 36
0.0
 17
0.0
 27
1.0
 37
0.0
 76
     0
330
70
  0
LAYOUT
  5
6F
102
{ACAD_XDICTIONARY
360
E2C
102
}
102
{ACAD_REACTORS
330
62
102
}
330
62
100
AcDbPlotSettings
  1

  2

  4

  6

 40
0.0
 41
0.0
 42
0.0
 43
0.0
 44
0.0
 45
0.0
 46
0.0
 47
0.0
 48
0.0
 49
0.0
140
0.0
141
0.0
142
1.0
143
1.0
 70
  1712
 72
     0
 73
     0
 74
     0
  7

 75
     0
147
1.0
148
0.0
149
0.0
100
AcDbLayout
  1
Model
 70
     1
 71
     0
 10
0.0
 20
0.0
 11
12.0
 21
9.0
 12
0.0
 22
0.0
 32
0.0
 14
0.0
 24
0.0
 34
0.0
 15
0.0
 25
0.0
 35
0.0
146
0.0
 13
0.0
 23
0.0
 33
0.0
 16
1.0
 26
0.0
 36
0.0
 17
0.0
 27
1.0
 37
0.0
 76
     0
330
6C
  0
MATERIAL
  5
19
102
{ACAD_XDICTIONARY
360
1A
102
}
102
{ACAD_REACTORS
330
10
102
}
330
10
100
AcDbMaterial
  1
ByBlock
 72
     0
 43
0.0208333333333333
 43
0.0
 43
0.0
 43
0.0
 43
0.0
 43
0.0208333333333333
 43
0.0
 43
0.0
 43
0.0
 43
0.0
 43
1.0
 43
0.0
 43
0.0
 43
0.0
 43
0.0
 43
1.0
 77
     0
 47
0.0208333333333333
 47
0.0
 47
0.0
 47
0.0
 47
0.0
 47
0.0208333333333333
 47
0.0
 47
0.0
 47
0.0
 47
0.0
 47
1.0
 47
0.0
 47
0.0
 47
0.0
 47
0.0
 47
1.0
171
     0
 49
0.0208333333333333
 49
0.0
 49
0.0
 49
0.0
 49
0.0
 49
0.0208333333333333
 49
0.0
 49
0.0
 49
0.0
 49
0.0
 49
1.0
 49
0.0
 49
0.0
 49
0.0
 49
0.0
 49
1.0
175
     0
142
0.0208333333333333
142
0.0
142
0.0
142
0.0
142
0.0
142
0.0208333333333333
142
0.0
142
0.0
142
0.0
142
0.0
142
1.0
142
0.0
142
0.0
142
0.0
142
0.0
142
1.0
179
     0
144
0.0208333333333333
144
0.0
144
0.0
144
0.0
144
0.0
144
0.0208333333333333
144
0.0
144
0.0
144
0.0
144
0.0
144
1.0
144
0.0
144
0.0
144
0.0
144
0.0
144
1.0
147
0.0208333333333333
147
0.0
147
0.0
147
0.0
147
0.0
147
0.0208333333333333
147
0.0
147
0.0
147
0.0
147
0.0
147
1.0
147
0.0
147
0.0
147
0.0
147
0.0
147
1.0
  0
MATERIAL
  5
11
102
{ACAD_XDICTIONARY
360
12
102
}
102
{ACAD_REACTORS
330
10
102
}
330
10
100
AcDbMaterial
  1
ByLayer
 72
     0
 43
0.0208333333333333
 43
0.0
 43
0.0
 43
0.0
 43
0.0
 43
0.0208333333333333
 43
0.0
 43
0.0
 43
0.0
 43
0.0
 43
1.0
 43
0.0
 43
0.0
 43
0.0
 43
0.0
 43
1.0
 77
     0
 47
0.0208333333333333
 47
0.0
 47
0.0
 47
0.0
 47
0.0
 47
0.0208333333333333
 47
0.0
 47
0.0
 47
0.0
 47
0.0
 47
1.0
 47
0.0
 47
0.0
 47
0.0
 47
0.0
 47
1.0
171
     0
 49
0.0208333333333333
 49
0.0
 49
0.0
 49
0.0
 49
0.0
 49
0.0208333333333333
 49
0.0
 49
0.0
 49
0.0
 49
0.0
 49
1.0
 49
0.0
 49
0.0
 49
0.0
 49
0.0
 49
1.0
175
     0
142
0.0208333333333333
142
0.0
142
0.0
142
0.0
142
0.0
142
0.0208333333333333
142
0.0
142
0.0
142
0.0
142
0.0
142
1.0
142
0.0
142
0.0
142
0.0
142
0.0
142
1.0
179
     0
144
0.0208333333333333
144
0.0
144
0.0
144
0.0
144
0.0
144
0.0208333333333333
144
0.0
144
0.0
144
0.0
144
0.0
144
1.0
144
0.0
144
0.0
144
0.0
144
0.0
144
1.0
147
0.0208333333333333
147
0.0
147
0.0
147
0.0
147
0.0
147
0.0208333333333333
147
0.0
147
0.0
147
0.0
147
0.0
147
1.0
147
0.0
147
0.0
147
0.0
147
0.0
147
1.0
  0
MATERIAL
  5
21
102
{ACAD_XDICTIONARY
360
22
102
}
102
{ACAD_REACTORS
330
10
102
}
330
10
100
AcDbMaterial
  1
Global
 72
     0
 43
0.0208333333333333
 43
0.0
 43
0.0
 43
0.0
 43
0.0
 43
0.0208333333333333
 43
0.0
 43
0.0
 43
0.0
 43
0.0
 43
1.0
 43
0.0
 43
0.0
 43
0.0
 43
0.0
 43
1.0
 77
     0
 47
0.0208333333333333
 47
0.0
 47
0.0
 47
0.0
 47
0.0
 47
0.0208333333333333
 47
0.0
 47
0.0
 47
0.0
 47
0.0
 47
1.0
 47
0.0
 47
0.0
 47
0.0
 47
0.0
 47
1.0
171
     0
 49
0.0208333333333333
 49
0.0
 49
0.0
 49
0.0
 49
0.0
 49
0.0208333333333333
 49
0.0
 49
0.0
 49
0.0
 49
0.0
 49
1.0
 49
0.0
 49
0.0
 49
0.0
 49
0.0
 49
1.0
175
     0
142
0.0208333333333333
142
0.0
142
0.0
142
0.0
142
0.0
142
0.0208333333333333
142
0.0
142
0.0
142
0.0
142
0.0
142
1.0
142
0.0
142
0.0
142
0.0
142
0.0
142
1.0
179
     0
144
0.0208333333333333
144
0.0
144
0.0
144
0.0
144
0.0
144
0.0208333333333333
144
0.0
144
0.0
144
0.0
144
0.0
144
1.0
144
0.0
144
0.0
144
0.0
144
0.0
144
1.0
147
0.0208333333333333
147
0.0
147
0.0
147
0.0
147
0.0
147
0.0208333333333333
147
0.0
147
0.0
147
0.0
147
0.0
147
1.0
147
0.0
147
0.0
147
0.0
147
0.0
147
1.0
  0
MLEADERSTYLE
  5
67
102
{ACAD_XDICTIONARY
360
DEF
102
}
102
{ACAD_REACTORS
330
66
102
}
330
66
100
AcDbMLeaderStyle
170
     2
171
     1
172
     0
 90
        2
 40
0.0
 41
0.0
173
     1
 91
-1056964608
340
5B
 92
       -2
290
     1
 42
0.09
291
     1
 43
0.36
  3
Standard
 44
0.18
300

342
55
174
     1
178
     6
175
     1
176
     0
 93
-1056964608
 45
0.18
292
     0
297
     0
 46
0.18
 94
-1056964608
 47
1.0
 49
1.0
140
1.0
293
     1
141
0.0
294
     1
177
     0
142
1.0
295
     0
296
     0
143
0.125
1001
ACAD_MLEADERVER
1070
     2
  0
MLINESTYLE
  5
60
102
{ACAD_REACTORS
330
5F
102
}
330
5F
100
AcDbMlineStyle
  2
STANDARD
 70
     0
  3

 62
   256
 51
90.0
 52
90.0
 71
     2
 49
0.5
 62
   256
  6
BYLAYER
 49
-0.5
 62
   256
  6
BYLAYER
  0
ACDBPLACEHOLDER
  5
F
102
{ACAD_REACTORS
330
E
102
}
330
E
  0
SCALE
  5
43
102
{ACAD_REACTORS
330
42
102
}
330
42
100
AcDbScale
 70
     0
300
1:1
140
1.0
141
1.0
290
     1
  0
SCALE
  5
44
102
{ACAD_REACTORS
330
42
102
}
330
42
100
AcDbScale
 70
     0
300
1/128" = 1'-0"
140
0.0078125
141
12.0
290
     0
  0
SCALE
  5
45
102
{ACAD_REACTORS
330
42
102
}
330
42
100
AcDbScale
 70
     0
300
1/64" = 1'-0"
140
0.015625
141
12.0
290
     0
  0
SCALE
  5
46
102
{ACAD_REACTORS
330
42
102
}
330
42
100
AcDbScale
 70
     0
300
1/32" = 1'-0"
140
0.03125
141
12.0
290
     0
  0
SCALE
  5
47
102
{ACAD_REACTORS
330
42
102
}
330
42
100
AcDbScale
 70
     0
300
1/16" = 1'-0"
140
0.0625
141
12.0
290
     0
  0
SCALE
  5
48
102
{ACAD_REACTORS
330
42
102
}
330
42
100
AcDbScale
 70
     0
300
3/32" = 1'-0"
140
0.09375
141
12.0
290
     0
  0
SCALE
  5
49
102
{ACAD_REACTORS
330
42
102
}
330
42
100
AcDbScale
 70
     0
300
1/8" = 1'-0"
140
0.125
141
12.0
290
     0
  0
SCALE
  5
4A
102
{ACAD_REACTORS
330
42
102
}
330
42
100
AcDbScale
 70
     0
300
3/16" = 1'-0"
140
0.1875
141
12.0
290
     0
  0
SCALE
  5
4B
102
{ACAD_REACTORS
330
42
102
}
330
42
100
AcDbScale
 70
     0
300
1/4" = 1'-0"
140
0.25
141
12.0
290
     0
  0
SCALE
  5
4C
102
{ACAD_REACTORS
330
42
102
}
330
42
100
AcDbScale
 70
     0
300
3/8" = 1'-0"
140
0.375
141
12.0
290
     0
  0
SCALE
  5
4D
102
{ACAD_REACTORS
330
42
102
}
330
42
100
AcDbScale
 70
     0
300
1/2" = 1'-0"
140
0.5
141
12.0
290
     0
  0
SCALE
  5
4E
102
{ACAD_REACTORS
330
42
102
}
330
42
100
AcDbScale
 70
     0
300
3/4" = 1'-0"
140
0.75
141
12.0
290
     0
  0
SCALE
  5
4F
102
{ACAD_REACTORS
330
42
102
}
330
42
100
AcDbScale
 70
     0
300
1" = 1'-0"
140
1.0
141
12.0
290
     0
  0
SCALE
  5
50
102
{ACAD_REACTORS
330
42
102
}
330
42
100
AcDbScale
 70
     0
300
1-1/2" = 1'-0"
140
1.5
141
12.0
290
     0
  0
SCALE
  5
51
102
{ACAD_REACTORS
330
42
102
}
330
42
100
AcDbScale
 70
     0
300
3" = 1'-0"
140
3.0
141
12.0
290
     0
  0
SCALE
  5
52
102
{ACAD_REACTORS
330
42
102
}
330
42
100
AcDbScale
 70
     0
300
6" = 1'-0"
140
6.0
141
12.0
290
     0
  0
SCALE
  5
53
102
{ACAD_REACTORS
330
42
102
}
330
42
100
AcDbScale
 70
     0
300
1'-0" = 1'-0"
140
12.0
141
12.0
290
     0
  0
TABLESTYLE
  5
65
102
{ACAD_XDICTIONARY
360
DED
102
}
102
{ACAD_REACTORS
330
64
102
}
330
64
100
AcDbTableStyle
  3
Standard
 70
     0
 71
     0
 40
0.06
 41
0.06
280
     0
281
     0
  7
Standard
140
0.18
170
     2
 62
     0
 63
     7
283
     0
274
    -2
284
     1
 64
     0
275
    -2
285
     1
 65
     0
276
    -2
286
     1
 66
     0
277
    -2
287
     1
 67
     0
278
    -2
288
     1
 68
     0
279
    -2
289
     1
 69
     0
  7
Standard
140
0.25
170
     5
 62
     0
 63
     7
283
     0
274
    -2
284
     1
 64
     0
275
    -2
285
     1
 65
     0
276
    -2
286
     1
 66
     0
277
    -2
287
     1
 67
     0
278
    -2
288
     1
 68
     0
279
    -2
289
     1
 69
     0
  7
Standard
140
0.18
170
     5
 62
     0
 63
     7
283
     0
274
    -2
284
     1
 64
     0
275
    -2
285
     1
 65
     0
276
    -2
286
     1
 66
     0
277
    -2
287
     1
 67
     0
278
    -2
288
     1
 68
     0
279
    -2
289
     1
 69
     0
  0
VISUALSTYLE
  5
2F
102
{ACAD_XDICTIONARY
360
E02
102
}
102
{ACAD_REACTORS
330
29
102
}
330
29
100
AcDbVisualStyle
  2
2dWireframe
 70
     4
 71
     0
 72
     2
 73
     0
 90
        0
 40
-0.6
 41
-30.0
 62
     5
 63
     7
 74
     1
 91
        4
 64
     7
 65
   257
 75
     1
175
     1
 42
1.0
 92
        0
 66
   257
 43
1.0
 76
     1
 77
     6
 78
     2
 67
     7
 79
     5
170
     0
171
     0
290
     0
174
     0
 93
        1
 44
0.0
173
     0
291
     0
 45
0.0
1001
ACAD
1000
AcDbSavedByObjectVersion
1070
     0
  0
VISUALSTYLE
  5
2E
102
{ACAD_XDICTIONARY
360
E00
102
}
102
{ACAD_REACTORS
330
29
102
}
330
29
100
AcDbVisualStyle
  2
Basic
 70
     7
 71
     1
 72
     0
 73
     1
 90
        0
 40
-0.6
 41
-30.0
 62
     5
 63
     7
 74
     0
 91
        4
 64
     7
 65
   257
 75
     1
175
     1
 42
1.0
 92
        8
 66
     7
 43
1.0
 76
     1
 77
     6
 78
     2
 67
     7
 79
     5
170
     0
171
     0
290
     0
174
     0
 93
        1
 44
0.0
173
     0
291
     1
 45
0.0
1001
ACAD
1000
AcDbSavedByObjectVersion
1070
     0
  0
VISUALSTYLE
  5
35
102
{ACAD_XDICTIONARY
360
E0E
102
}
102
{ACAD_REACTORS
330
29
102
}
330
29
100
AcDbVisualStyle
  2
Brighten
 70
    12
 71
     2
 72
     2
 73
     0
 90
        0
 40
-0.6
 41
-30.0
 62
     5
 63
     7
 74
     1
 91
        4
 64
     7
 65
   257
 75
     1
175
     1
 42
1.0
 92
        8
 66
     7
 43
1.0
 76
     1
 77
     6
 78
     2
 67
     7
 79
     5
170
     0
171
     0
290
     0
174
     0
 93
        1
 44
50.0
173
     0
291
     1
 45
0.0
1001
ACAD
1000
AcDbSavedByObjectVersion
1070
     0
  0
VISUALSTYLE
  5
39
102
{ACAD_XDICTIONARY
360
E16
102
}
102
{ACAD_REACTORS
330
29
102
}
330
29
100
AcDbVisualStyle
  2
ColorChange
 70
    16
 71
     2
 72
     2
 73
     3
 90
        0
 40
-0.6
 41
-30.0
 62
     5
 63
     8
 74
     1
 91
        4
 64
     7
 65
   257
 75
     1
175
     1
 42
1.0
 92
        8
 66
     8
 43
1.0
 76
     1
 77
     6
 78
     2
 67
     7
 79
     5
170
     0
171
     0
290
     0
174
     0
 93
        1
 44
0.0
173
     0
291
     1
 45
0.0
1001
ACAD
1000
AcDbSavedByObjectVersion
1070
     0
  0
VISUALSTYLE
  5
32
102
{ACAD_XDICTIONARY
360
E08
102
}
102
{ACAD_REACTORS
330
29
102
}
330
29
100
AcDbVisualStyle
  2
Conceptual
 70
     9
 71
     3
 72
     2
 73
     0
 90
        0
 40
-0.6
 41
-30.0
 62
     5
 63
     7
 74
     2
 91
        2
 64
     7
 65
   257
 75
     1
175
     1
 42
179.0
 92
        8
 66
     7
 43
1.0
 76
     1
 77
     6
 78
     2
 67
     7
 79
     3
170
     0
171
     0
290
     0
174
     0
 93
        1
 44
0.0
173
     0
291
     0
 45
0.0
1001
ACAD
1000
AcDbSavedByObjectVersion
1070
     0
  0
VISUALSTYLE
  5
34
102
{ACAD_XDICTIONARY
360
E0C
102
}
102
{ACAD_REACTORS
330
29
102
}
330
29
100
AcDbVisualStyle
  2
Dim
 70
    11
 71
     2
 72
     2
 73
     0
 90
        0
 40
-0.6
 41
-30.0
 62
     5
 63
     7
 74
     1
 91
        4
 64
     7
 65
   257
 75
     1
175
     1
 42
1.0
 92
        8
 66
     7
 43
1.0
 76
     1
 77
     6
 78
     2
 67
     7
 79
     5
170
     0
171
     0
290
     0
174
     0
 93
        1
 44
-50.0
173
     0
291
     1
 45
0.0
1001
ACAD
1000
AcDbSavedByObjectVersion
1070
     0
  0
VISUALSTYLE
  5
41
102
{ACAD_XDICTIONARY
360
E26
102
}
102
{ACAD_REACTORS
330
29
102
}
330
29
100
AcDbVisualStyle
  2
EdgeColorOff
 70
    22
 71
     2
 72
     2
 73
     0
 90
        0
 40
-0.6
 41
-30.0
 62
     5
 63
     7
 74
     1
 91
        4
 64
     7
 65
   257
 75
     1
175
     1
 42
1.0
 92
        8
 66
     7
 43
1.0
 76
     1
 77
     6
 78
     2
 67
     7
 79
     5
170
     0
171
     0
290
     0
174
     0
 93
        1
 44
0.0
173
     0
291
     1
 45
0.0
1001
ACAD
1000
AcDbSavedByObjectVersion
1070
     0
  0
VISUALSTYLE
  5
38
102
{ACAD_XDICTIONARY
360
E14
102
}
102
{ACAD_REACTORS
330
29
102
}
330
29
100
AcDbVisualStyle
  2
Facepattern
 70
    15
 71
     2
 72
     2
 73
     0
 90
        0
 40
-0.6
 41
-30.0
 62
     5
 63
     7
 74
     1
 91
        4
 64
     7
 65
   257
 75
     1
175
     1
 42
1.0
 92
        8
 66
     7
 43
1.0
 76
     1
 77
     6
 78
     2
 67
     7
 79
     5
170
     0
171
     0
290
     0
174
     0
 93
        1
 44
0.0
173
     0
291
     1
 45
0.0
1001
ACAD
1000
AcDbSavedByObjectVersion
1070
     0
  0
VISUALSTYLE
  5
2A
102
{ACAD_XDICTIONARY
360
DF8
102
}
102
{ACAD_REACTORS
330
29
102
}
330
29
100
AcDbVisualStyle
  2
Flat
 70
     0
 71
     2
 72
     1
 73
     1
 90
        2
 40
-0.6
 41
30.0
 62
     5
 63
     7
 74
     0
 91
        0
 64
     7
 65
   257
 75
     1
175
     1
 42
1.0
 92
        8
 66
     7
 43
1.0
 76
     1
 77
     6
 78
     2
 67
     7
 79
     5
170
     0
171
     0
290
     0
174
     0
 93
       13
 44
0.0
173
     0
291
     1
 45
0.0
1001
ACAD
1000
AcDbSavedByObjectVersion
1070
     0
  0
VISUALSTYLE
  5
2B
102
{ACAD_XDICTIONARY
360
DFA
102
}
102
{ACAD_REACTORS
330
29
102
}
330
29
100
AcDbVisualStyle
  2
FlatWithEdges
 70
     1
 71
     2
 72
     1
 73
     1
 90
        2
 40
-0.6
 41
30.0
 62
     5
 63
     7
 74
     1
 91
        0
 64
     7
 65
   257
 75
     1
175
     1
 42
1.0
 92
        0
 66
   257
 43
1.0
 76
     1
 77
     6
 78
     2
 67
     7
 79
     5
170
     0
171
     0
290
     0
174
     0
 93
       13
 44
0.0
173
     0
291
     1
 45
0.0
1001
ACAD
1000
AcDbSavedByObjectVersion
1070
     0
  0
VISUALSTYLE
  5
2C
102
{ACAD_XDICTIONARY
360
DFC
102
}
102
{ACAD_REACTORS
330
29
102
}
330
29
100
AcDbVisualStyle
  2
Gouraud
 70
     2
 71
     2
 72
     2
 73
     1
 90
        2
 40
-0.6
 41
30.0
 62
     5
 63
     7
 74
     0
 91
        0
 64
     7
 65
   257
 75
     1
175
     1
 42
1.0
 92
        0
 66
     7
 43
1.0
 76
     1
 77
     6
 78
     2
 67
     7
 79
     5
170
     0
171
     0
290
     0
174
     0
 93
       13
 44
0.0
173
     0
291
     1
 45
0.0
1001
ACAD
1000
AcDbSavedByObjectVersion
1070
     0
  0
VISUALSTYLE
  5
2D
102
{ACAD_XDICTIONARY
360
DFE
102
}
102
{ACAD_REACTORS
330
29
102
}
330
29
100
AcDbVisualStyle
  2
GouraudWithEdges
 70
     3
 71
     2
 72
     2
 73
     1
 90
        2
 40
-0.6
 41
30.0
 62
     5
 63
     7
 74
     1
 91
        0
 64
     7
 65
   257
 75
     1
175
     1
 42
1.0
 92
        0
 66
   257
 43
1.0
 76
     1
 77
     6
 78
     2
 67
     7
 79
     5
170
     0
171
     0
290
     0
174
     0
 93
       13
 44
0.0
173
     0
291
     1
 45
0.0
1001
ACAD
1000
AcDbSavedByObjectVersion
1070
     0
  0
VISUALSTYLE
  5
31
102
{ACAD_XDICTIONARY
360
E06
102
}
102
{ACAD_REACTORS
330
29
102
}
330
29
100
AcDbVisualStyle
  2
Hidden
 70
     6
 71
     1
 72
     2
 73
     2
 90
        0
 40
-0.6
 41
-30.0
 62
     5
 63
     7
 74
     2
 91
        2
 64
     7
 65
   257
 75
     2
175
     1
 42
40.0
 92
        0
 66
   257
 43
1.0
 76
     1
 77
     6
 78
     2
 67
     7
 79
     3
170
     0
171
     0
290
     0
174
     0
 93
        1
 44
0.0
173
     0
291
     0
 45
0.0
1001
ACAD
1000
AcDbSavedByObjectVersion
1070
     0
  0
VISUALSTYLE
  5
3F
102
{ACAD_XDICTIONARY
360
E22
102
}
102
{ACAD_REACTORS
330
29
102
}
330
29
100
AcDbVisualStyle
  2
JitterOff
 70
    20
 71
     2
 72
     2
 73
     0
 90
        0
 40
-0.6
 41
-30.0
 62
     5
 63
     7
 74
     1
 91
        4
 64
     7
 65
   257
 75
     1
175
     1
 42
1.0
 92
       10
 66
     7
 43
1.0
 76
     1
 77
     6
 78
     2
 67
     7
 79
     5
170
     0
171
     0
290
     0
174
     0
 93
        1
 44
0.0
173
     0
291
     1
 45
0.0
1001
ACAD
1000
AcDbSavedByObjectVersion
1070
     0
  0
VISUALSTYLE
  5
37
102
{ACAD_XDICTIONARY
360
E12
102
}
102
{ACAD_REACTORS
330
29
102
}
330
29
100
AcDbVisualStyle
  2
Linepattern
 70
    14
 71
     2
 72
     2
 73
     0
 90
        0
 40
-0.6
 41
-30.0
 62
     5
 63
     7
 74
     1
 91
        4
 64
     7
 65
   257
 75
     7
175
     7
 42
1.0
 92
        8
 66
     7
 43
1.0
 76
     1
 77
     6
 78
     2
 67
     7
 79
     5
170
     0
171
     0
290
     0
174
     0
 93
        1
 44
0.0
173
     0
291
     1
 45
0.0
1001
ACAD
1000
AcDbSavedByObjectVersion
1070
     0
  0
VISUALSTYLE
  5
40
102
{ACAD_XDICTIONARY
360
E24
102
}
102
{ACAD_REACTORS
330
29
102
}
330
29
100
AcDbVisualStyle
  2
OverhangOff
 70
    21
 71
     2
 72
     2
 73
     0
 90
        0
 40
-0.6
 41
-30.0
 62
     5
 63
     7
 74
     1
 91
        4
 64
     7
 65
   257
 75
     1
175
     1
 42
1.0
 92
        9
 66
     7
 43
1.0
 76
     1
 77
     6
 78
     2
 67
     7
 79
     5
170
     0
171
     0
290
     0
174
     0
 93
        1
 44
0.0
173
     0
291
     1
 45
0.0
1001
ACAD
1000
AcDbSavedByObjectVersion
1070
     0
  0
VISUALSTYLE
  5
33
102
{ACAD_XDICTIONARY
360
E0A
102
}
102
{ACAD_REACTORS
330
29
102
}
330
29
100
AcDbVisualStyle
  2
Realistic
 70
     8
 71
     2
 72
     3
 73
     0
 90
        2
 40
-0.6
 41
30.0
 62
     5
 63
     7
 74
     0
 91
        0
 64
     7
 65
   257
 75
     1
175
     1
 42
1.0
 92
        8
 66
   257
 43
1.0
 76
     1
 77
     6
 78
     2
 67
     7
 79
     3
170
     0
171
     0
290
     0
174
     0
 93
       13
 44
0.0
173
     0
291
     0
 45
0.0
1001
ACAD
1000
AcDbSavedByObjectVersion
1070
     0
  0
VISUALSTYLE
  5
3E
102
{ACAD_XDICTIONARY
360
E20
102
}
102
{ACAD_REACTORS
330
29
102
}
330
29
100
AcDbVisualStyle
  2
Shaded
 70
    27
 71
     2
 72
     2
 73
     1
 90
        2
 40
-0.6
 41
30.0
 62
     5
 63
     7
 74
     0
 91
        4
 64
     7
 65
   257
 75
     1
175
     1
 42
1.0
 92
        8
 66
   257
 43
1.0
 76
     1
 77
     6
 78
     2
 67
     8
 79
     3
170
     0
171
     0
290
     0
174
     0
 93
        5
 44
0.0
173
     0
291
     0
 45
0.0
1001
ACAD
1000
AcDbSavedByObjectVersion
1070
     0
  0
VISUALSTYLE
  5
3D
102
{ACAD_XDICTIONARY
360
E1E
102
}
102
{ACAD_REACTORS
330
29
102
}
330
29
100
AcDbVisualStyle
  2
Shaded with edges
 70
    26
 71
     2
 72
     2
 73
     1
 90
        2
 40
-0.6
 41
30.0
 62
     5
 63
     7
 74
     1
 91
       10
 64
     7
 65
   257
 75
     2
175
     1
 42
1.0
 92
        8
 66
   257
 43
1.0
 76
     1
 77
     6
 78
     2
 67
     7
 79
     3
170
     0
171
     0
290
     0
174
     0
 93
        5
 44
0.0
173
     0
291
     0
 45
0.0
1001
ACAD
1000
AcDbSavedByObjectVersion
1070
     0
  0
VISUALSTYLE
  5
3A
102
{ACAD_XDICTIONARY
360
E18
102
}
102
{ACAD_REACTORS
330
29
102
}
330
29
100
AcDbVisualStyle
  2
Shades of Gray
 70
    23
 71
     2
 72
     2
 73
     3
 90
        0
 40
-0.6
 41
-30.0
 62
     5
 63
     7
 74
     2
 91
        2
 64
     7
 65
     7
 75
     1
175
     1
 42
40.0
 92
        8
 66
     7
 43
1.0
 76
     1
 77
     6
 78
     2
 67
     7
 79
     3
170
     0
171
     0
290
     0
174
     0
 93
        1
 44
0.0
173
     0
291
     0
 45
0.0
1001
ACAD
1000
AcDbSavedByObjectVersion
1070
     0
  0
VISUALSTYLE
  5
3B
102
{ACAD_XDICTIONARY
360
E1A
102
}
102
{ACAD_REACTORS
330
29
102
}
330
29
100
AcDbVisualStyle
  2
Sketchy
 70
    24
 71
     1
 72
     2
 73
     2
 90
        0
 40
-0.6
 41
-30.0
 62
     5
 63
     7
 74
     2
 91
        2
 64
     7
 65
     7
 75
     1
175
     1
 42
40.0
 92
       11
 66
     7
 43
1.0
 76
     1
 77
     6
 78
     2
 67
     7
 79
     6
170
     0
171
     0
290
     0
174
     0
 93
        1
 44
0.0
173
     0
291
     0
 45
0.0
1001
ACAD
1000
AcDbSavedByObjectVersion
1070
     0
  0
VISUALSTYLE
  5
36
102
{ACAD_XDICTIONARY
360
E10
102
}
102
{ACAD_REACTORS
330
29
102
}
330
29
100
AcDbVisualStyle
  2
Thicken
 70
    13
 71
     2
 72
     2
 73
     0
 90
        0
 40
-0.6
 41
-30.0
 62
     5
 63
     7
 74
     1
 91
        4
 64
     7
 65
   257
 75
     1
175
     1
 42
1.0
 92
       12
 66
     7
 43
1.0
 76
     1
 77
     6
 78
     2
 67
     7
 79
     5
170
     0
171
     0
290
     0
174
     0
 93
        1
 44
0.0
173
     0
291
     1
 45
0.0
1001
ACAD
1000
AcDbSavedByObjectVersion
1070
     0
  0
VISUALSTYLE
  5
30
102
{ACAD_XDICTIONARY
360
E04
102
}
102
{ACAD_REACTORS
330
29
102
}
330
29
100
AcDbVisualStyle
  2
Wireframe
 70
     5
 71
     0
 72
     2
 73
     0
 90
        0
 40
-0.6
 41
-30.0
 62
     5
 63
     7
 74
     1
 91
        4
 64
     7
 65
   257
 75
     1
175
     1
 42
1.0
 92
        0
 66
   257
 43
1.0
 76
     1
 77
     6
 78
     2
 67
     7
 79
     3
170
     0
171
     0
290
     0
174
     0
 93
        1
 44
0.0
173
     0
291
     0
 45
0.0
1001
ACAD
1000
AcDbSavedByObjectVersion
1070
     0
  0
VISUALSTYLE
  5
3C
102
{ACAD_XDICTIONARY
360
E1C
102
}
102
{ACAD_REACTORS
330
29
102
}
330
29
100
AcDbVisualStyle
  2
X-Ray
 70
    25
 71
     2
 72
     2
 73
     1
 90
        1
 40
0.5
 41
-30.0
 62
     5
 63
     7
 74
     1
 91
        0
 64
     7
 65
   257
 75
     1
175
     1
 42
1.0
 92
        8
 66
     7
 43
1.0
 76
     1
 77
     6
 78
     2
 67
     7
 79
     3
170
     0
171
     0
290
     0
174
     0
 93
       13
 44
0.0
173
     0
291
     0
 45
0.0
1001
ACAD
1000
AcDbSavedByObjectVersion
1070
     0
  0
DICTIONARYVAR
  5
79
102
{ACAD_REACTORS
330
76
102
}
330
76
100
DictionaryVariables
280
     0
  1
1:1
  0
DICTIONARYVAR
  5
78
102
{ACAD_REACTORS
330
76
102
}
330
76
100
DictionaryVariables
280
     0
  1
STANDARD
  0
DICTIONARYVAR
  5
77
102
{ACAD_REACTORS
330
76
102
}
330
76
100
DictionaryVariables
280
     0
  1
STANDARD
  0
DICTIONARYVAR
  5
DEB
102
{ACAD_REACTORS
330
76
102
}
330
76
100
DictionaryVariables
280
     0
  1
1
  0
DICTIONARYVAR
  5
DEA
102
{ACAD_REACTORS
330
76
102
}
330
76
100
DictionaryVariables
280
     0
  1
1
  0
DICTIONARYVAR
  5
DE9
102
{ACAD_REACTORS
330
76
102
}
330
76
100
DictionaryVariables
280
     0
  1
0
  0
DICTIONARYVAR
  5
DE6
102
{ACAD_REACTORS
330
76
102
}
330
76
100
DictionaryVariables
280
     0
  1
0
  0
DICTIONARYVAR
  5
DE7
102
{ACAD_REACTORS
330
76
102
}
330
76
100
DictionaryVariables
280
     0
  1
0
  0
DICTIONARYVAR
  5
DE5
102
{ACAD_REACTORS
330
76
102
}
330
76
100
DictionaryVariables
280
     0
  1
2
  0
DICTIONARYVAR
  5
DE4
102
{ACAD_REACTORS
330
76
102
}
330
76
100
DictionaryVariables
280
     0
  1
1
  0
DICTIONARYVAR
  5
DE8
102
{ACAD_REACTORS
330
76
102
}
330
76
100
DictionaryVariables
280
     0
  1
127
  0
DICTIONARYVAR
  5
DEC
102
{ACAD_REACTORS
330
76
102
}
330
76
100
DictionaryVariables
280
     0
  1
2
  0
DICTIONARY
  5
E2A
330
6B
100
AcDbDictionary
280
     1
281
     1
  3
ACAD_XREC_ROUNDTRIP
360
E2B
  0
DICTIONARY
  5
E2E
330
73
100
AcDbDictionary
280
     1
281
     1
  3
ACAD_XREC_ROUNDTRIP
360
E2F
  0
DICTIONARY
  5
E2C
330
6F
100
AcDbDictionary
280
     1
281
     1
  3
ACAD_XREC_ROUNDTRIP
360
E2D
  0
DICTIONARY
  5
1A
330
19
100
AcDbDictionary
280
     1
281
     1
  3
ACAD_XREC_ROUNDTRIP
360
DF6
  3
BUMPTILE
360
1C
  3
DIFFUSETILE
360
1B
  3
OPACITYTILE
360
1F
  3
REFLECTIONTILE
360
1E
  3
REFRACTIONTILE
360
20
  3
SPECULARTILE
360
1D
  0
DICTIONARY
  5
12
330
11
100
AcDbDictionary
280
     1
281
     1
  3
ACAD_XREC_ROUNDTRIP
360
DF5
  3
BUMPTILE
360
14
  3
DIFFUSETILE
360
13
  3
FBXASSET
360
F5
  3
OPACITYTILE
360
17
  3
REFLECTIONTILE
360
16
  3
REFRACTIONTILE
360
18
  3
SPECULARTILE
360
15
  0
DICTIONARY
  5
22
330
21
100
AcDbDictionary
280
     1
281
     1
  3
ACAD_XREC_ROUNDTRIP
360
DF7
  3
BUMPTILE
360
24
  3
DIFFUSETILE
360
23
  3
FBXASSET
360
BA
  3
OPACITYTILE
360
27
  3
REFLECTIONTILE
360
26
  3
REFRACTIONTILE
360
28
  3
SPECULARTILE
360
25
  0
DICTIONARY
  5
DEF
330
67
100
AcDbDictionary
280
     1
281
     1
  3
ACAD_XREC_ROUNDTRIP
360
DF0
  0
DICTIONARY
  5
DED
330
65
100
AcDbDictionary
280
     1
281
     1
  3
ACAD_ROUNDTRIP_2008_TABLESTYLE_CELLSTYLEMAP
360
DEE
  3
ACAD_XREC_ROUNDTRIP
360
E28
  0
DICTIONARY
  5
E02
330
2F
100
AcDbDictionary
280
     1
281
     1
  3
ACAD_XREC_ROUNDTRIP
360
E03
  0
DICTIONARY
  5
E00
330
2E
100
AcDbDictionary
280
     1
281
     1
  3
ACAD_XREC_ROUNDTRIP
360
E01
  0
DICTIONARY
  5
E0E
330
35
100
AcDbDictionary
280
     1
281
     1
  3
ACAD_XREC_ROUNDTRIP
360
E0F
  0
DICTIONARY
  5
E16
330
39
100
AcDbDictionary
280
     1
281
     1
  3
ACAD_XREC_ROUNDTRIP
360
E17
  0
DICTIONARY
  5
E08
330
32
100
AcDbDictionary
280
     1
281
     1
  3
ACAD_XREC_ROUNDTRIP
360
E09
  0
DICTIONARY
  5
E0C
330
34
100
AcDbDictionary
280
     1
281
     1
  3
ACAD_XREC_ROUNDTRIP
360
E0D
  0
DICTIONARY
  5
E26
330
41
100
AcDbDictionary
280
     1
281
     1
  3
ACAD_XREC_ROUNDTRIP
360
E27
  0
DICTIONARY
  5
E14
330
38
100
AcDbDictionary
280
     1
281
     1
  3
ACAD_XREC_ROUNDTRIP
360
E15
  0
DICTIONARY
  5
DF8
330
2A
100
AcDbDictionary
280
     1
281
     1
  3
ACAD_XREC_ROUNDTRIP
360
DF9
  0
DICTIONARY
  5
DFA
330
2B
100
AcDbDictionary
280
     1
281
     1
  3
ACAD_XREC_ROUNDTRIP
360
DFB
  0
DICTIONARY
  5
DFC
330
2C
100
AcDbDictionary
280
     1
281
     1
  3
ACAD_XREC_ROUNDTRIP
360
DFD
  0
DICTIONARY
  5
DFE
330
2D
100
AcDbDictionary
280
     1
281
     1
  3
ACAD_XREC_ROUNDTRIP
360
DFF
  0
DICTIONARY
  5
E06
330
31
100
AcDbDictionary
280
     1
281
     1
  3
ACAD_XREC_ROUNDTRIP
360
E07
  0
DICTIONARY
  5
E22
330
3F
100
AcDbDictionary
280
     1
281
     1
  3
ACAD_XREC_ROUNDTRIP
360
E23
  0
DICTIONARY
  5
E12
330
37
100
AcDbDictionary
280
     1
281
     1
  3
ACAD_XREC_ROUNDTRIP
360
E13
  0
DICTIONARY
  5
E24
330
40
100
AcDbDictionary
280
     1
281
     1
  3
ACAD_XREC_ROUNDTRIP
360
E25
  0
DICTIONARY
  5
E0A
330
33
100
AcDbDictionary
280
     1
281
     1
  3
ACAD_XREC_ROUNDTRIP
360
E0B
  0
DICTIONARY
  5
E20
330
3E
100
AcDbDictionary
280
     1
281
     1
  3
ACAD_XREC_ROUNDTRIP
360
E21
  0
DICTIONARY
  5
E1E
330
3D
100
AcDbDictionary
280
     1
281
     1
  3
ACAD_XREC_ROUNDTRIP
360
E1F
  0
DICTIONARY
  5
E18
330
3A
100
AcDbDictionary
280
     1
281
     1
  3
ACAD_XREC_ROUNDTRIP
360
E19
  0
DICTIONARY
  5
E1A
330
3B
100
AcDbDictionary
280
     1
281
     1
  3
ACAD_XREC_ROUNDTRIP
360
E1B
  0
DICTIONARY
  5
E10
330
36
100
AcDbDictionary
280
     1
281
     1
  3
ACAD_XREC_ROUNDTRIP
360
E11
  0
DICTIONARY
  5
E04
330
30
100
AcDbDictionary
280
     1
281
     1
  3
ACAD_XREC_ROUNDTRIP
360
E05
  0
DICTIONARY
  5
E1C
330
3C
100
AcDbDictionary
280
     1
281
     1
  3
ACAD_XREC_ROUNDTRIP
360
E1D
  0
XRECORD
  5
E2B
102
{ACAD_REACTORS
330
E2A
102
}
330
E2A
100
AcDbXrecord
280
     1
102
SHADEPLOT
 70
     0
102
SHADEPLOTRESLEVEL
 70
     2
102
SHADEPLOTCUSTOMDPI
 70
   300
  0
XRECORD
  5
E2F
102
{ACAD_REACTORS
330
E2E
102
}
330
E2E
100
AcDbXrecord
280
     1
102
SHADEPLOT
 70
     0
102
SHADEPLOTRESLEVEL
 70
     2
102
SHADEPLOTCUSTOMDPI
 70
   300
  0
XRECORD
  5
E2D
102
{ACAD_REACTORS
330
E2C
102
}
330
E2C
100
AcDbXrecord
280
     1
102
SHADEPLOT
 70
     0
102
SHADEPLOTRESLEVEL
 70
     2
102
SHADEPLOTCUSTOMDPI
 70
   300
  0
XRECORD
  5
DF6
102
{ACAD_REACTORS
330
1A
102
}
330
1A
100
AcDbXrecord
280
     1
102
MATERIAL
148
0.0
149
0.0
149
0.0
 93
        0
 94
      127
282
     0
 72
     0
 77
     0
171
     0
175
     0
179
     0
273
     0
  0
XRECORD
  5
1C
102
{ACAD_REACTORS
330
1A
102
}
330
1A
100
AcDbXrecord
280
     1
270
     1
271
     1
  0
XRECORD
  5
1B
102
{ACAD_REACTORS
330
1A
102
}
330
1A
100
AcDbXrecord
280
     1
270
     1
271
     1
  0
XRECORD
  5
1F
102
{ACAD_REACTORS
330
1A
102
}
330
1A
100
AcDbXrecord
280
     1
270
     1
271
     1
  0
XRECORD
  5
1E
102
{ACAD_REACTORS
330
1A
102
}
330
1A
100
AcDbXrecord
280
     1
270
     1
271
     1
  0
XRECORD
  5
20
102
{ACAD_REACTORS
330
1A
102
}
330
1A
100
AcDbXrecord
280
     1
270
     1
271
     1
  0
XRECORD
  5
1D
102
{ACAD_REACTORS
330
1A
102
}
330
1A
100
AcDbXrecord
280
     1
270
     1
271
     1
  0
XRECORD
  5
DF5
102
{ACAD_REACTORS
330
12
102
}
330
12
100
AcDbXrecord
280
     1
102
MATERIAL
148
0.0
149
0.0
149
0.0
 93
        0
 94
      127
282
     0
 72
     0
 77
     0
171
     0
175
     0
179
     0
273
     0
  0
XRECORD
  5
14
102
{ACAD_REACTORS
330
12
102
}
330
12
100
AcDbXrecord
280
     1
270
     1
271
     1
  0
XRECORD
  5
13
102
{ACAD_REACTORS
330
12
102
}
330
12
100
AcDbXrecord
280
     1
270
     1
271
     1
  0
XRECORD
  5
F5
102
{ACAD_REACTORS
330
12
102
}
330
12
100
AcDbXrecord
280
     1
 70
     1
 90
1959938040
 71
     1
  1
CB1BF900-A6FD-4192-A5E4-57EAC8F8FA29
311
504B03040A0000080000A94433403DEE336E79000000790000001B0000006175746F6465736B2D64657369676E2D7061636B6167652E786D6C3C3F786D6C2076657273696F6E3D22312E302220656E636F64696E673D227574662D3822203F3E3C666F726D6174733E3C666F726D61743E687474703A2F2F736368656D612E
311
6175746F6465736B2E636F6D2F64657369676E2D7061636B6167652F323030393C2F666F726D61743E3C2F666F726D6174733E504B0304140006080800A9443340D486FD9CA0000000F4000000130000005B436F6E74656E745F54797065735D2E786D6C7D8EC10E82300C865F65E91D8A1E8C310C0EEA1BF002731658846E
311
D98AC1B77784ABF1D8FE5FBFBF75BBCE937A534CCEB38643598122B6FEE978D0B0485F9C41B54DDD7D022595594E1A469170414C76A4D9A4D207E29CF43ECE46F218070CC6BECC4078ACAA135ACF422C856C0E68EA1BF5669944DDD7BCDE7B1F8E415D77AECB980613C2E4AC91FC167A2B244592486606FC29C8FD7F045B9A
311
EF7053A7E60B504B0304140006080800A94433409F714788E80000007C01000008000000636F72652E786D6C8D90416EC3201045AF82668F03A66D888589B0929EA01740405C94182C03558F5F9C3852BBEB6A467FFE9B197D71FC9E6EE8CB2DC9C7D0036D0820174CB43E8C3D947CC11CD0518A25C6FCCB0628E8C9F5B0CA
311
20C5B8C4326F928921BB90AB1AA2759BA853721990B9D5A687643EDDA41B5D7275A46B336B73D5A36BE8B3AB7029DEA2C7116FEB3E7FF16E01C94F8C734615564A0DF885D3331E987AC5A7F63CB45CEDD93B2362B7C252643F3DEF9BC5E9EC2CC896D016138AE9E183F08EED3B7AC0E4AD23155AED7FA032DB7F42C587CCDA
311
EDDD079640D2FAC87D20C56ECDA2967B50B5AEB9C91F504B0304140006080800A944334055019EA25F0000007C00000007000000636E782E786D6C4DCB3B0E80201045D1AD90E915ED2CF8AC45050C11660C8261F98AB1B07AC9C97D42D718D865D3E909258CFD00CCE24AC6E326A164D74DC0B4128928FF326038472BA131
311
28B1252AC747C6BAB984FC68F0B87FE8960A5C09FE86CFB69FBA01504B0304140006080800A9443340386650A965010000020300000C0000006662782F636F72652E786D6C8D52ED8E8230107C95A6FF0B2D78279A5283D17B827B810A9523424BFA417CFC5B3E8CE7C51843529A999DDDD901BEBB762D1A94758DD1396611
311
C548E9D2548DAE731CFC996418ED04B7C6F83F651869D9A91C8F3016BCB626F40B541AED95F6806A53A90594CE298F51D9C225C7AEFC519D8C64F050E12E512FCB8BAC55C422A0A14E70E72D1840F390F1C4E27CBAF278C6050FA1A916B6A9605A736E94C5223BA45996B2821445B127AB8C1DC93E2D3EC82139EE93AC58A7
311
5F29E5F12816DC37DDCD5D6995F4AAC222A12C219411B6F9A6D9365D6FD986D0CF2D05D158FE200A7DF5A62834DAA7C9627796392C181899887FDB42441E3939809F58F0780C115E53C28F41432010B297A7F6B6C705A04195DED815309509776A906D503095A2E9E1F1CC42E7A9016CF6B44FF2A2CFEB1EF001A5AEC19AF4
311
703D053F4EE7F3D4258A5E5932F82BD2C676B2BD9B9B2DDECFFBA0A7F2D2B4C6BEA38E9755E325CC78FC7BC52F504B0304140006080800A9443340D30B69587E0000009D0000000B0000006662782F636E782E786D6C4DCCD10AC2201805E05791FFDE666D2B07EAD0ACF718CD0D99D3308D1E3F17BBE8E61CF8381CD67F56
311
87DE26BE6CF01C8E0702C8F84718AD9F39E434610AA8172C8690FE6680FCB01A0E1B8360730CF9B9D368A621BB54D459BFEC78AA6F2DD54AE18EDC2FB8E99A3356549790752BAF92684D28548255BFA7D2DBB1F802504B0304140006080800A94433408D800E792C01000014020000310000006662782F3233453538444242
311
2D393046372D343934362D423844362D4241333541434130444430382F636F72652E786D6C8D51CB6EC23010FC15CB277A4862931012E41841D37E417FC038062C881DF951F1F95D37416A6F5CBCD6ECCCEC6897ED1FE31D7D2BE7B5351DA639C1481969076D2E1D8EE19C3518ED3973D6863F348C8C185587138C39BB381B
311
A70592D6046502A0C60E6A0185F72A6024EFF0E9B09757358A5CC4000C7FCB27216FE2A2729A431B789CF9E020009A87A417F375F9B169FAE3316BC9E736ABDAAACE8E4D0FCFA1DC1CDE0FA4EF49C38A59C8598C7A58E47A8038FAAC957BD52489390B7A7CC6974E89A006D013BACE08CD68FB459A5DB9DDD13623F58E1056
311
24FA3F519C861745519B50AE97B8B3CC634E593137381B6C3CDD9F61D463B22EA0346FE5957CC39CE484B6745B571B56CC54580078D6D5E2E98375B0E0D5ED046C0AAC645C579C15E946507E0F0835DD93FF00504B0304140006080800A94433407C3456304D01000033030000300000006662782F32334535384442422D39
311
3046372D343934362D423844362D4241333541434130444430382F636E782E786D6CD593CD6E022114855F85B09F1FD458350C265DF409BAE816E1AA540626FC34F5ED7B51B46E5C74D90D999C7B38E7E60BC3B7DFA3255F10A2F16EA0ACED2901A7BC36EE30D09CF6CD8A92ADE0C1FBF460A3C4C911065A642AF821F83C55
311
49C35E669B50B5C69DAA1820FA1C144494CB4D62BD921603C03519451877A035687237E2D71E02AE82E2EE4CD211C8DBEB07F1BB4F5029F2AEA408DE950EC1CB599B1E4C94282B631C68544718652B73F21AE2A9D532C996B5B7AE273BFD269172E156998321A57CA0E5A4A26ED42247DEE150F09802D2ABA6749E800A394D
311
D62899107277315E3D8267E3D27251BD06C10774B3E57CB1C0B0CB4CF06446A80E154026D054CC7A366B7AD6B0F57BBFDACC5F366CDDF4CB4DDFF3AED805DF796FEB258C81E027A2BC4BE012158C7765FC0C5FF5116D02B2F6E1FC079008A0B65EE9DC33FE339FEEF2BE1157C0BF40FC00504B0304140006080800A9443340
311
155AEB199C0500007B100000340000006662782F32334535384442422D393046372D343934362D423844362D4241333541434130444430382F6F626A656374732E786D6CAD57DB6EDB3810FD1541FB6CCBB29D345E282A7C890BA39BB6A8D1621F0218944429DC50179054EAF4EBF750A264C9B513EFA22F924891C3993367
311
2EF4DEEF536E3D5321599EDDDAEE70645B340BF38865C9AD5DAA7870635BEF7D4FE4B9EA2CB3AD8CA4F4D6D6D3B6EF25222F0B3315D198945C1DCDAE177F5B32A419B5AD9013296F6D193ED2940C49A9F288CAA76144141926F17EE80EEB857DB18920C5E391D082089A29688AF90C52AC5A29B73F1CD98EEF39FABFEFE9A7
311
593539BFCAA9ECE99FCF32A94816FE72D89198893B5DDD8DAF6683ABE97432985E8FDDC162BD580DDC7793D1F27AB99CCDEF6638582A014946134163DBFF006C040B3DA7FEE57B25CBD4646C96180739823E33ED29DB1F5BAEE7D46B5AEB8C91A7D40FF32CA3618515D0A8EC33A2235AD02C82CF1995D0AC83D0A83F74358E
311
9DDF133D364776A72F43A0BBA323A8D1BD797735CD837F6082BC84414252CDC01A4B6368CDD5D101E120CFB9F9C7A49512450523DCE22C1044BCD83E96EA25BED713A3992C7434680B6C1F5EA87FF7E982307A9BE7A7B48C4BCE358D6DBF8A821D62852A5969C67E5271D0BE8B0C7482AF341B6E8C41EAA5A0B63FAB297273
311
C4A61A482BE62481CB61A6DE39191F19BAD471BA59D9FEC775B0DFEAD83D7D7821F2820AA5E9036A358E6BDE1A25A3937B91E7F406FB489503285F81FC2784FA4115F84DB0FD743F35A728413219E722856FAC913518E131B2DCEAA9BF3B5F9ED36EEE7BEF1C9E70B686EA37E0D9B7A1EBCB0E9CBEF70CC2E762624CDB8684
311
236DDCB30C006992583CC714F2701CEC6D7F832C87AC8C5D84FB2E4C86BACFF8F41C230689A23AA9F3CE80E5515ABC204103B68A9150A326BF51F0E0A75FD25975B059760EDEABDF42D7F96AFB715B8A9884F4DEC4F48AC62C630A25EEC09BAE423DCC7B163DD1971FB98860E8AF786FBB78A7E62809B435E61AF8A4C9E97A
311
7038B97740887D49AED38DF7C609304217D68EFC7B2643CA39C9685E36E7BE5A3F50366A8875B06B26B705E65058409AFACF510CA2488782151AC4B65AB5497378C6BA6F9B4F60A4ED2F5EFE222FDDEC151C726F98F35CEC82975D9D964E42FDBDCF6D8381A3A580EE559034F16F40DF452C8E4B89247802D7EF9B65D7773A
311
2D20453452EB6899C27E04171186B48D5C546B415049F36CC750371177270FE8CA07A4860195C0731A4BCAE31DE3BC4C7731E3A846BB941467E0F8FFFA07655AEC489A97993A23BBA73AAA435FF71E7BE50FA2C247DBDF56EFC102B937A2D11932E85A7202AB9E6B970B77B19E8D4683F9F57A3598BAB3F1607E75371D5CBD
311
BB9B2F6FD637EBF978D6F8A9D6C4F79A52D38D687809A5CD2B0533EEFBB641FC982460FBF744C9870F757836EF6F9B217A61CFC11ED4CB76E33C7A46DF47A3B7051C569E14B4490B4E539A29A263E85E7FF0AF047D464F997A7E9392845E20E5F387ED913198B960DF171DEFF4C7D15E33BBD4017952887A2CD320238C1F6D
311
4C6A2487459618FC1A9FB4EFBAD034433D328E41672A73CE22E4C1C84A689E52856C784111122995A05EB7A78FCCDDE382DDCF7587A848C069A3C9234193CC25C202D42A43D59FB7FE4053A7FBAA5B1BE576F88487C914B605CEDCDA68D2150BA91C0628D0BA15AA84834BDD4E1E8D3FC9128E5EBBDED48EDB5D1A9B5E496E
311
975CD23F19BBEA146E0C401A29D037A02182772A657CAFD2CDFC0FFF93E18D3A1651F80C4AD5DA7298688DA98E4188D64699DB029A982773F41E81FABA59EEB05AD343E4A25BD6AB24A8A50E1411497553D0FA1995E6AB2F0E3A146BF3D92A7899C097974B1A080A32973AC0C122B0C2C82C880255977F3E7C11396EB2A9B5
311
66A0C0C3324FD33C3383B9B9095BDB47DC6BA307A405AA2F24F2613C72C70FD545C0DC4D760191744822F98409F854B016E29EE3C1C8FAB6880A54FF68D739DA0947DCDCAC2C53D2A6106A88D2CDAA1A16B41C19B5103DFA32A963A5BBA078F52EE0544BA1824017EFFF0B504B0304140006080000A9443340000000000000
311
000000000000350000006662782F32334535384442422D393046372D343934362D423844362D4241333541434130444430382F76657274696365732E62696E504B0304140006080800A9443340F270F1330600000004000000360000006662782F32334535384442422D393046372D343934362D423844362D424133354143
311
4130444430382F747269616E676C65732E62696E636660600000504B0304140006080000A9443340000000000000000000000000370000006662782F32334535384442422D393046372D343934362D423844362D4241333541434130444430382F617474726962757465732E62696E504B0304140006080800A9443340D598
311
7DFC8F00000041010000360000006662782F32334535384442422D393046372D343934362D423844362D4241333541434130444430382F6469726563746F72792E786D6C858F410EC2201045AF4266AF15DDB800BA74E7C21B903225242D6328188F2FA5C4183471359997F9FF81E89FF3C41E1816475E02DF1F80A11FC838
311
6F25A438EECEC07A250251FC3803E6F58C12560C4AD840E95E91C151A72936F496F35732D860FE635F62C8F2DA16B505C545B74125BAA2FA9E05D7CC053D063734D5C7665FD55B6B8D15D5E9BFEAFD8490FFA45E504B0304140006080800A944334022B82449FB000000A00100003B0000006662782F32334535384442422D
311
393046372D343934362D423844362D4241333541434130444430382F7265736F75726365732F636F72652E786D6C8D504B6EC32010BD8A357B6C306D43224C642BE9097A018427094A0C169FAAC72F8E5DA9DD75C3A0F799797AF2F8353DAA4F0CD17AD701AB2954E88C1FADBB7690D38508A88E4A06EFD32F19544E4FD8C1
311
028392D7E0F3BC41C6BB842E15D4F9113750C788092AF3289F0EA2B9E1A46B9D5351C47B3D6B73D757AC595DE8A25332A6500254EB91E5051530FA1C0C46D9ACAC9239DB71D3D8B1DCB4178B019438712138DB93BEEF07F222D8990CBC7F25A7F63CB4A2DFF1774E65B398954C76FAC96802EA8423A896B2965046D8FE838A
311
03DF1DCA2AFA76A0C5B4C8FF98F23CFED394AD4BBCDDE2AEB6088A95204F42C966E9AB8C6799652EDDAA6F504B010214000A0000080000A94433403DEE336E79000000790000001B00000000000000000000000000000000006175746F6465736B2D64657369676E2D7061636B6167652E786D6C504B010214001400060808
311
00A9443340D486FD9CA0000000F40000001300000000000000000000000000B20000005B436F6E74656E745F54797065735D2E786D6C504B01021400140006080800A94433409F714788E80000007C010000080000000000000000000000000083010000636F72652E786D6C504B01021400140006080800A944334055019E
311
A25F0000007C000000070000000000000000000000000091020000636E782E786D6C504B01021400140006080800A9443340386650A965010000020300000C00000000000000000000000000150300006662782F636F72652E786D6C504B01021400140006080800A9443340D30B69587E0000009D0000000B000000000000
311
00000000000000A40400006662782F636E782E786D6C504B01021400140006080800A94433408D800E792C0100001402000031000000000000000000000000004B0500006662782F32334535384442422D393046372D343934362D423844362D4241333541434130444430382F636F72652E786D6C504B0102140014000608
311
0800A94433407C3456304D010000330300003000000000000000000000000000C60600006662782F32334535384442422D393046372D343934362D423844362D4241333541434130444430382F636E782E786D6C504B01021400140006080800A9443340155AEB199C0500007B100000340000000000000000000000000061
311
0800006662782F32334535384442422D393046372D343934362D423844362D4241333541434130444430382F6F626A656374732E786D6C504B01021400140006080000A944334000000000000000000000000035000000000000000000000000004F0E00006662782F32334535384442422D393046372D343934362D423844
311
362D4241333541434130444430382F76657274696365732E62696E504B01021400140006080800A9443340F270F13306000000040000003600000000000000000000000000A20E00006662782F32334535384442422D393046372D343934362D423844362D4241333541434130444430382F747269616E676C65732E62696E
311
504B01021400140006080000A94433400000000000000000000000003700000000000000000000000000FC0E00006662782F32334535384442422D393046372D343934362D423844362D4241333541434130444430382F617474726962757465732E62696E504B01021400140006080800A9443340D5987DFC8F0000004101
311
00003600000000000000000000000000510F00006662782F32334535384442422D393046372D343934362D423844362D4241333541434130444430382F6469726563746F72792E786D6C504B01021400140006080800A944334022B82449FB000000A00100003B00000000000000000000000000341000006662782F323345
311
35384442422D393046372D343934362D423844362D4241333541434130444430382F7265736F75726365732F636F72652E786D6C504B0506000000000E000E0080040000881100000000
310
504B03040A0000080000A94433403DEE336E79000000790000001B0000006175746F6465736B2D64657369676E2D7061636B6167652E786D6C3C3F786D6C2076657273696F6E3D22312E302220656E636F64696E673D227574662D3822203F3E3C666F726D6174733E3C666F726D61743E687474703A2F2F736368656D612E
310
6175746F6465736B2E636F6D2F64657369676E2D7061636B6167652F323030393C2F666F726D61743E3C2F666F726D6174733E504B0304140006080800A9443340D486FD9CA0000000F4000000130000005B436F6E74656E745F54797065735D2E786D6C7D8EC10E82300C865F65E91D8A1E8C310C0EEA1BF002731658846E
310
D98AC1B77784ABF1D8FE5FBFBF75BBCE937A534CCEB38643598122B6FEE978D0B0485F9C41B54DDD7D022595594E1A469170414C76A4D9A4D207E29CF43ECE46F218070CC6BECC4078ACAA135ACF422C856C0E68EA1BF5669944DDD7BCDE7B1F8E415D77AECB980613C2E4AC91FC167A2B244592486606FC29C8FD7F045B9A
310
EF7053A7E60B504B0304140006080800A9443340293F0AB1EA0000007C01000008000000636F72652E786D6C8D90416EC3201045AF82668F0DD8726C0B1339497B825E0001715162B00C543D7E71E248EDAEAB19FDF96F66F4F9F17BBEA32FB306EBDD00B420808C535E5B370D90E215B7808E82AFDEC75F36404ECE66804D
310
06C1A7D5A765979477D1B89855E7B5D94519828980D43D370304F5696659C814B323DC8A45AA9B9C4C415F5D8653B21A3D8F589DF7D9AB352B88E68D8CB469CEB83974275C8FEF351E091B3125A7F142595D5DCE2D2F3758F068E7D77DB51A198D06C1086598504CBB0FD2F6D5A1A71D264D4F082F37FB1F282DFA9F50B22E
310
566C7FF7890510343FF218085E6E59E4F2082AD72D37F103504B0304140006080800A944334055019EA25F0000007C00000007000000636E782E786D6C4DCB3B0E80201045D1AD90E915ED2CF8AC45050C11660C8261F98AB1B07AC9C97D42D718D865D3E909258CFD00CCE24AC6E326A164D74DC0B4128928FF326038472B
310
A13128B1252AC747C6BAB984FC68F0B87FE8960A5C09FE86CFB69FBA01504B0304140006080800A944334006D5AA9766010000020300000C0000006662782F636F72652E786D6C8D52ED8E8320107C15C27F04ACB11F411ADBDE3DC1BD0055EA992A1804D3C7BFF5A3E9F5D234171324333BBBB3A3627F6B1B3468D7D7D664
310
98470C236D0A5BD6A6CA70F017B2C1682F85B3D6FF2AC3C8A856677884B11495B3A15BA0C21AAF8D07D4D8522FA0EA7BED312A1AB864B82FBE75AB22153C54F4D7A853C555553AE211D0502745EF1D1840F390F1C4F272BE093AE3528450970B5B9730ADBED4DA61997EB09CA7E991A4EBED8124F967427216E784B3437EE2
310
71B23A1D37828E62297CDDDEDD154E2BAF4B2C63C663C238E1DB2FB6D9ADD63BBE252CDD3126E858FE240A5DF94F51A88D5FC58BDD59D663C9C1C844FCD91622F2A85703F8A152D03144784D093F070D8140C85E9D9BFB1E5780065D78EB12604A1B1ED4A09AA0612A43D323E8CC42E7A9016CF6B24FFCA6CFFB1EF00195A9
310
C09AF2703D073F4E17F3D4258A4E3B32F81B32D6B5AA79989B2D3ECEC7A097F2C236D6FD474D9755E912261DFF5EF903504B0304140006080800A9443340496556067D0000009D0000000B0000006662782F636E782E786D6C4DCC410EC2201404D0AB90BFC70245EC026844EB3D1A4B1B220583603CBED474E1662679998C
310
EC3FAB476F9B5E2E0605F44000D9708F930B8B829267DC01EAB54C31E6BF19A030AE56C1C6A0E5926279EE34D9792C3E57F52E3C76342726A8190CE6445C6AB4147747C2B1B872761E5ACEF8AD8546CBE6F7547B3BD65F504B0304140006080800A9443340929BE1D92A01000014020000310000006662782F423732363142
310
45422D343036432D343033312D383530342D3644343241453334323446332F636F72652E786D6C8D51CB6EC32010FC15C4293D6083A1B61361A2A64DBFA03F4081A42831583CAA7C7E71ED48ED2D1716CDCECC8E76F9FE365EC1B709D17A37405261088C535E5B771E604E27D443B0173C789FFED020707234039C6128F839
310
F83CAD90F22E19970AEABC362B2863340902752D9F0146F5654659C99C0A235EAA49AA8B3C9B8A54A55D7882C7144A00B00C995F280E5DD392C3F180186E5FCB4309EA9F3143ED1B6B5E8E9435EC9DF27A110A9EB3D5ABDCEA12C79EAC098F9ACC62C1931DEFF1553032190D45834983304164FB81FB1DED76648B70BBC398
310
D733FD9F284FFA4151B62ED1668DBBC8221484D74B4370EDF3E7F51EC6DC261F1298E76DA2514F50E00A936D4F71D7F17AA1960514CF96AD9E31F95016BCB97C16365D8D5B26783DDFA894DF03963ADF53FC00504B0304140006080800A94433401A9399275501000033030000300000006662782F42373236314245422D34
310
3036432D343033312D383530342D3644343241453334323446332F636E782E786D6CBD93CD6E022114855F85B09F3F3553350C265DF409BAE89681ABA53230E1A7A96FDF8BA275E3A249D30D999C7B38E7E60BC3765F93219FE0837676A05DDD5202563AA5ED61A029EEAB35253BCEBC73F1CE468915130C34CB94B3837769
310
2E9282BD4826A26AB43D16D14370C94B0828E79BC438290C0680AD128A308DA014287233E2D71E3CAE82E27822F11DC8CBF31B71E307C818589353386B720767F92C4D77264AA411210C34C87798442D52740AC2B156228ABAABAF5D0F76FA4922F9C2B532794D72F940F34979D9A8468EACC12167217AA4574CF13403E562
310
9E8D962222E4E66CBC78384BDAC67E55BC1AC17B742F17FD7A8D61E71967514F501CD28388A0285FB4DDA26ABBAADBBCB6EBEDF269DB6DAAB6DFB62D6BB29DB3D139532E610C783713E96C041B29EF5893C78FF0151F51DA236BE74FBF0089004AEB85CE2DE32FF974FD72B5FA473ECDF97D232E8F7F01FF06504B03041400
310
06080800A9443340580BE8B15B070000941B0000340000006662782F42373236314245422D343036432D343033312D383530342D3644343241453334323446332F6F626A656374732E786D6CED59DD739B3810FF5718EED9D8D84E9BDC103A8E93743CBDB49DFADAB987CC3032C8441721184924F1FDF5B7FA00033109BEE6
310
DEFA6003425AEDFEF6534BF0E129A3CE03E682E4ECDCF5BD89EB6016E70961E9B95BCAEDE8D4753E8401CF73D998E63A0C65F8DC55C36E18A43C2F0B3B94E02D2AA9EC8C5E5FFCE5881833EC3A3145429CBB22BEC319F25029F3048B7B2F411279E9F6C9F33D33B14D36E5A8B8EB102D10C74C02A730CE808A6398F2DB8F13
310
771C0663F53E0CD4BF9D351B346BDE3F6BACA56E7349989088C5CF58EA90990D6269E6CF2FAFA62767A393F97C369ABF9BFAA38BEB8BCB91FF7E3659BE5B2ECF165767C0DE26CFA99529C1056609E86FE7867E30566F6AD12D0287B88E73C670AC8104A8B4585D82040BD8AA01DFA4FDE82B891AAFB5848DE7B97A6F59680C
310
CFDA54FA660D03A2451704B1DB551257D7A67CF9E66F105C0C314A2EB0046E85E4A05D0B0F07AF70C3493036A361B0D9EB82082743127382A843C986230E4A81A96A4A189805968C720E0EA41C2581D69C79DDB62DF0CCD75DE71097DB9252E5196EA81D2B02F7C35268CEC83F98EFB96F22033C81B42561F2D47229770576
310
C3B360AC07C3405D6653FBD200E96C294A8546C4BCED08BA54AEBFBA74C34FD79BA7B50A0787372F785E602E95D1293D6ABEC090ED55A164B7F507694E2D00610CA876E51E946F80FC67881E7B56406F9C3CCD9FE676AEE488896DCE33D08D33714613F89B38BEFE57F78DBB605C2F6E6BAF0F4F705305D5E9CFE3D9964163
310
65F96FC019060F60F0399FD957EB1851B0E71BC2002065240ECD610842FB76F3E4862B089C10E86115A2A10F2203BB0F701B8C2D99BD562AF7B25EC70051BBC76C889200366D91C0468F9E3E42F6E024DEABA929621FBC276F62AE8BCBF5A775C9B728C637D6A72FF1963022216B1E66A885794BA27BBC7BCC7902823EC77B
310
DDC43BB35B09405B61AE804F2B10D4C37EE7D60631AC4B73156E825776002154AE6ED0BF2122C6942286F3B2DAB78E6ECA506B8FB735831B4E0DC4B369C784397E20AAAA00A7D9CF68310A793FE6A45020BAE14723591D34BD1EE9BEAF3E8345D6F37B66AD18845E86E89F3A681DC0A165D915D216885AE0CD3E9CC739CD79
310
B4D94526D2B9504B001B6D6FF9D1220AB1DE284951010FD27E578594D4481B2564BB2D05C4D5032CFE582D9BE630F166FE89D3FCEF38E31CA22DF82EE2D6EF3A7B442443298EB628E9DBAEB95B4D5B68923DA439DE52908B3C10B98B908C26094E8F81E628E2676F4A3DA5B910846101F9EA20F84D34261E0412A3CD8A65A5
310
D50ED044441996881E838022D303AE4E3BBAC68DA174789DC7DA7A5FD25893E8FF64111C412D99B38840290A39E455C67DEF0462481B5D8372075FB0B68AB61683965042C4BBE81193F44E1E83BA21DF837B0C4792524679816230EB01649FF98A526A87F70D8AEF55FE88E292BE9581084CB711A1B4CC22F81106278F21AE
310
5D07A61751681037B14FE20C8A32244B3E649377279367FB989AA11B021B1B6D0985B01D65A8E841BD1510753DE2D4E05BEA3D4ADD945911A12C2FD92043F1665D6FB2E4BB6A556407F2AB4A45281B2BC29660181026EBAC5AC56C30751D58C18D74A0DA4502650535A7B057128F5F7B93A6DCBB01B77EFAB61B6450F8F568
310
AF1951E7150C96C75661201E918CEFDC70ADAFA30BA8BF139CEC537D556B362B40404C45F29213ABA2EF2B286F6C8DE68637488ADB8F26EB56D7EF2B0FBA1FC118D640ED522F5C29A033CC245295C98DBAA1DF1084E0160D33BE5239F5182A8B24D15523A2D7A44F9DAD32A2B56946BCE20EB33C831FBB252CA665826F5122
310
EEA31B49A33551AC5B29BD8C5418BF28E0978FEB0E3C303240A4AFAAC0C38F9DB57674A9CAA58344E45D996D182210045BA2A546375EC152AB914ACBF5559D29A0EE0203B32A9EFF3A5934DB11BF4E16A9358C9F3A595CECFE40BB665FA491CE6365D7471D03EAFCA4A8BCC53140B71D6AAA751631C9DCCA6F9D2982A05845
310
F9C1D55815340CC13E8EFF73D6EECB8266BB0EFFC7656DFF59C5715456694D565DAA0395EBAA99C39617FEC5F5D964325ABCBBBE1CCDFDB3E9687172351F9DBCBF5A2C4FAF4FAF17D3B31A4DEDA8615007339DBBE0D904B56A583D590CA02B2B724A1238CD274E8A21E64B38D30F689FF30C0B489ECD6677629BF203563F98
310
3EA7441B8A2B4EEE103488A980B40E1895B16C8F3BBF416B52C241FBDC85A691770F7FD62A5D0732CFB90BAD0249622CBC0DB49954434F138794AB73BF2506F82096AA946816D5CFF52A854D2BFCD75386A4012B57AB8701855B01DDAF568742F366798A8F12BC62C741126E37A5846ACDC8B21FA885D1DBECD56F64A384DD
310
DBAD9FC0755F16CBF7F49C1622833E19BC680486EA48229EEA7EB762CCB2B4B8FC3A863E9BB3FAE214B44C4197C3298D3806632E5541055604566169164882A92E7FBFFDCA73F8C49339BA2ABA5DE6599633FBB080F358029F889CF51D7CF0496EA16CC0AAAD2E6EA7137F7AABDBD9B6C31E6D90C09EAA8760A02A2394081D
310
63038B7CD69AB28DCBB1524267FAEAD2B1E113DA00C6829E7577CDE72D07BC477D4851BEA23DBC92F3C58EF6584F056BE0D08B0EFF05504B0304140006080000A9443340000000000000000000000000350000006662782F42373236314245422D343036432D343033312D383530342D3644343241453334323446332F7665
310
7274696365732E62696E504B0304140006080800A9443340F270F1330600000004000000360000006662782F42373236314245422D343036432D343033312D383530342D3644343241453334323446332F747269616E676C65732E62696E636660600000504B0304140006080000A944334000000000000000000000000037
310
0000006662782F42373236314245422D343036432D343033312D383530342D3644343241453334323446332F617474726962757465732E62696E504B0304140006080800A9443340D5987DFC8F00000041010000360000006662782F42373236314245422D343036432D343033312D383530342D3644343241453334323446
310
332F6469726563746F72792E786D6C858F410EC2201045AF4266AF15DDB800BA74E7C21B903225242D6328188F2FA5C4183471359997F9FF81E89FF3C41E1816475E02DF1F80A11FC8386F25A438EECEC07A250251FC3803E6F58C12560C4AD840E95E91C151A72936F496F35732D860FE635F62C8F2DA16B505C545B74125
310
BAA2FA9E05D7CC053D063734D5C7665FD55B6B8D15D5E9BFEAFD8490FFA45E504B0304140006080800A94433403A942429FC000000A00100003B0000006662782F42373236314245422D343036432D343033312D383530342D3644343241453334323446332F7265736F75726365732F636F72652E786D6C8D504B6E833010
310
BD0A9ABDC1064420328EA0694FD00B586642AD041BF953F5F835814AEDAE9B99D1FB689E1EBF7C2D8FEC139DD7D6F4C0720A191A65276DE61E62B89116B28BE0CEDAF04B0699910BF6B0C120F8EC6C5C0F485913D084841A3BE1014AEF3140A61EE9E8C1AB0F5C642E63480A7FCF57A9EE72C69CE5894E3AC17D702940B63F
310
D9260887DE46A7D0F36267058F514F87464FE9A7BE6974209A573AB0A6194973EA46520F6F351968391046C7E1CACABABABEB4BCD8CC8207BDFC64540E65C009444959492823AC7BA7EDB93A9D59476873A694179BFC8F29AED33F4D519B509547DCDDE641B014E449085E6C7DA5F52C33EDAD5BF10D504B010214000A0000
310
080000A94433403DEE336E79000000790000001B00000000000000000000000000000000006175746F6465736B2D64657369676E2D7061636B6167652E786D6C504B01021400140006080800A9443340D486FD9CA0000000F40000001300000000000000000000000000B20000005B436F6E74656E745F54797065735D2E78
310
6D6C504B01021400140006080800A9443340293F0AB1EA0000007C010000080000000000000000000000000083010000636F72652E786D6C504B01021400140006080800A944334055019EA25F0000007C000000070000000000000000000000000093020000636E782E786D6C504B01021400140006080800A944334006D5
310
AA9766010000020300000C00000000000000000000000000170300006662782F636F72652E786D6C504B01021400140006080800A9443340496556067D0000009D0000000B00000000000000000000000000A70400006662782F636E782E786D6C504B01021400140006080800A9443340929BE1D92A010000140200003100
310
0000000000000000000000004D0500006662782F42373236314245422D343036432D343033312D383530342D3644343241453334323446332F636F72652E786D6C504B01021400140006080800A94433401A93992755010000330300003000000000000000000000000000C60600006662782F42373236314245422D343036
310
432D343033312D383530342D3644343241453334323446332F636E782E786D6C504B01021400140006080800A9443340580BE8B15B070000941B00003400000000000000000000000000690800006662782F42373236314245422D343036432D343033312D383530342D3644343241453334323446332F6F626A656374732E
310
786D6C504B01021400140006080000A94433400000000000000000000000003500000000000000000000000000161000006662782F42373236314245422D343036432D343033312D383530342D3644343241453334323446332F76657274696365732E62696E504B01021400140006080800A9443340F270F1330600000004
310
0000003600000000000000000000000000691000006662782F42373236314245422D343036432D343033312D383530342D3644343241453334323446332F747269616E676C65732E62696E504B01021400140006080000A94433400000000000000000000000003700000000000000000000000000C31000006662782F4237
310
3236314245422D343036432D343033312D383530342D3644343241453334323446332F617474726962757465732E62696E504B01021400140006080800A9443340D5987DFC8F000000410100003600000000000000000000000000181100006662782F42373236314245422D343036432D343033312D383530342D36443432
310
41453334323446332F6469726563746F72792E786D6C504B01021400140006080800A94433403A942429FC000000A00100003B00000000000000000000000000FB1100006662782F42373236314245422D343036432D343033312D383530342D3644343241453334323446332F7265736F75726365732F636F72652E786D6C
310
504B0506000000000E000E0080040000501300000000
  0
XRECORD
  5
17
102
{ACAD_REACTORS
330
12
102
}
330
12
100
AcDbXrecord
280
     1
270
     1
271
     1
  0
XRECORD
  5
16
102
{ACAD_REACTORS
330
12
102
}
330
12
100
AcDbXrecord
280
     1
270
     1
271
     1
  0
XRECORD
  5
18
102
{ACAD_REACTORS
330
12
102
}
330
12
100
AcDbXrecord
280
     1
270
     1
271
     1
  0
XRECORD
  5
15
102
{ACAD_REACTORS
330
12
102
}
330
12
100
AcDbXrecord
280
     1
270
     1
271
     1
  0
XRECORD
  5
DF7
102
{ACAD_REACTORS
330
22
102
}
330
22
100
AcDbXrecord
280
     1
102
MATERIAL
148
0.0
149
0.0
149
0.0
 93
        0
 94
      127
282
     0
 72
     0
 77
     0
171
     0
175
     0
179
     0
273
     0
  0
XRECORD
  5
24
102
{ACAD_REACTORS
330
22
102
}
330
22
100
AcDbXrecord
280
     1
270
     1
271
     1
  0
XRECORD
  5
23
102
{ACAD_REACTORS
330
22
102
}
330
22
100
AcDbXrecord
280
     1
270
     1
271
     1
  0
XRECORD
  5
BA
102
{ACAD_REACTORS
330
22
102
}
330
22
100
AcDbXrecord
280
     1
 70
     1
 90
1959938040
 71
     1
  1
386F51B2-9EA7-4541-9A3E-402BC22E2ADE
311
504B03040A0000080000A94433403DEE336E79000000790000001B0000006175746F6465736B2D64657369676E2D7061636B6167652E786D6C3C3F786D6C2076657273696F6E3D22312E302220656E636F64696E673D227574662D3822203F3E3C666F726D6174733E3C666F726D61743E687474703A2F2F736368656D612E
311
6175746F6465736B2E636F6D2F64657369676E2D7061636B6167652F323030393C2F666F726D61743E3C2F666F726D6174733E504B0304140006080800A9443340D486FD9CA0000000F4000000130000005B436F6E74656E745F54797065735D2E786D6C7D8EC10E82300C865F65E91D8A1E8C310C0EEA1BF002731658846E
311
D98AC1B77784ABF1D8FE5FBFBF75BBCE937A534CCEB38643598122B6FEE978D0B0485F9C41B54DDD7D022595594E1A469170414C76A4D9A4D207E29CF43ECE46F218070CC6BECC4078ACAA135ACF422C856C0E68EA1BF5669944DDD7BCDE7B1F8E415D77AECB980613C2E4AC91FC167A2B244592486606FC29C8FD7F045B9A
311
EF7053A7E60B504B0304140006080800A944334086DFAE03E90000007C01000008000000636F72652E786D6C8D90616AC4201085AF22F3DF4493B04916E342497A825E40743695DD68885A7AFC9ADD2CB4FF0AC20CCFF7CD0C4F5CBE973BF9C22D58EF06E00503824E7B63DD3C408A57DA01B948B1791F7FD98038B5E000BB
311
0C52CC9B4FEB2169EF22BA9855E70D1EA20A0123107DCFCD00417FE2A20A956276845BB12A7D533316FCD56538256BC8738935799EBD5ADC40B60DEBBB661AE938B5136DC691D1AE6F46FAD64DEF8CF3539D9F2877588A6897D77EBDA18A6840568C579471CAFB0FD69DEBF6CC7BCA4E67C644B9DBFF406935FF849275B1AE
311
8E739F5800C9F3218F0F29CA3D8B5C1E41E5BAE7267F00504B0304140006080800A944334055019EA25F0000007C00000007000000636E782E786D6C4DCB3B0E80201045D1AD90E915ED2CF8AC45050C11660C8261F98AB1B07AC9C97D42D718D865D3E909258CFD00CCE24AC6E326A164D74DC0B4128928FF326038472BA1
311
3128B1252AC747C6BAB984FC68F0B87FE8960A5C09FE86CFB69FBA01504B0304140006080800A9443340F690B05A64010000020300000C0000006662782F636F72652E786D6C8D52ED8E8320107C15C27F04AC69B5419A5CF49EE05E802AED992A1804D3C7BFF5A3F17A699A8B46C9CCCEEEECA838DDBB168DDA0D8D3539E6
311
11C3489BCAD68DB9E638F80B49313A49E1ACF5BFCA3032AAD3399E602CC5D5D9D0AF50658DD7C6036A6CAD57500D83F618552D1C723C54DFBA53910A1E2A865BD4ABEAA6AE3AE211D05027C5E01D1840CB90E989E5E57C1774C1A508A1A957B6A9615A7369B4C3F290B02C4DCA8214E5A124495130926649413ED2F29371BE
311
DFC12DE82496C237DDC35DE5B4F2BAC632663C268C139E7DB1F4B83B1C7946D8FEC898A053F99328F4F53F45A1317E17AF7617D98025072333F1675B88C8A3418DE0874A41A710E13527FC1C340402217B756E1F7BDC001A75E5AD4B80A96DD8A851B541C35486E64BD08585CE7303D8EC659FF84D9FF73DE0032A73056BCA
311
C3F11CFC345D2C53D7287AEDC8E8EFC858D7A97633B758DC9EDBA097F2CAB6D6FD474DD755E91A269DFE5EF903504B0304140006080800A94433402873901D7F0000009D0000000B0000006662782F636E782E786D6C4DCCDF0E82201C86E15B61BF7392FC13B8014E8AEEC3253A264223685D7EDA3CE8E8DB9E7D7B79F759
311
1D7A9BF8B2C10B389F0820E31F61B47E1690D38419A04EF21842FABB01F2C36A04EC0C92CF31E4E741A39986ECD2A6CEFAE540CD98D644115CDEA8C275D35E31D3B4C27D5F97ED5D5594361728242F7EA56DF7B0FC02504B0304140006080800A94433405B74133F2C01000014020000310000006662782F45383845453042
311
302D324437422D343539432D384537332D4141343239464233373735362F636F72652E786D6C8D51CB6EC32010FC15C4293D600376FC883051D2BA5FD01F7080242831583CAA7C7E71ED48ED2D1716CDCECC8E76D9FE31DEC1B7725E5BD3419261089411566A73E9600C67D440B0E7CC591BFED02030C3A83A38C390B38BB3
311
715A21614D502624D458A95670F05E0508C43D7D3AE8C5558D4336C49018FE964D83B80D1795912CB5138F331F5C0A009621F30B79DF347D8F8F18D18FFA88CA6DFB8E9ABE2ED0E150D2F6F358D4F5B662F922E42C462D57B996298E3E6BE55E3599C59C053D3EE30BA786A024E414138A3041A4FDC2CDAEA877A445B8DA61
311
CCF299FE4F1427F9A2286A130ABAC65D641E72C2F2A5C199B4F1747F86518FC9BA00E6791BAFC41BE438C31417B46C1B962FD4B480E45995ABA70FD6A5056F6EA7C426DBC5B82A39CBE71BA5F27BC054E77BF21F504B0304140006080800A94433407C3456304D01000033030000300000006662782F45383845453042302D
311
324437422D343539432D384537332D4141343239464233373735362F636E782E786D6CD593CD6E022114855F85B09F1FD458350C265DF409BAE816E1AA540626FC34F5ED7B51B46E5C74D90D999C7B38E7E60BC3B7DFA3255F10A2F16EA0ACED2901A7BC36EE30D09CF6CD8A92ADE0C1FBF460A3C4C911065A642AF821F83C
311
5549C35E669B50B5C69DAA1820FA1C144494CB4D62BD921603C03519451877A035687237E2D71E02AE82E2EE4CD211C8DBEB07F1BB4F5029F2AEA408DE950EC1CB599B1E4C94282B631C68544718652B73F21AE2A9D532C996B5B7AE273BFD269172E156998321A57CA0E5A4A26ED42247DEE150F09802D2ABA6749E800A39
311
4DD62899107277315E3D8267E3D27251BD06C10774B3E57CB1C0B0CB4CF06446A80E154026D054CC7A366B7AD6B0F57BBFDACC5F366CDDF4CB4DDFF3AED805DF796FEB258C81E027A2BC4BE012158C7765FC0C5FF5116D02B2F6E1FC079008A0B65EE9DC33FE339FEEF2BE1157C0BF40FC00504B0304140006080800A94433
311
408DE48F6D9B0500007A100000340000006662782F45383845453042302D324437422D343539432D384537332D4141343239464233373735362F6F626A656374732E786D6CAD575D6FA33814FD2B887D2609493AD3AE28A3346947D1A833D54433DA874A910143BD3518D9A693EEAFDF633004324927BB9A9710CCF5F5BDE7
311
9EFBE1E0C32EE7CE0B958A89E2DAF54713D7A1452C125664D76EA553EFD2753E84811442F7C45CA72039BD76CDB21B069914556997129A928AEB83D5BB9BBF1C15D382BA4ECC8952D7AE8A9F684E46A4D222A1EA7994104D4659BA1BF9A34670A83693A47C3A505A12490B0D4BB15E408BD318E50F5F27EE380CC6E67B1898
311
5F2B353B2D35AEFD199ECF0AA54911FF74D8819A993F5FDD4E2FAEBC8BF97CE6CDDF4D7DEFE6EE66E5F9EF6793E5BBE5F26A717B85839596D0642D913475C38FC046B23818379FC2A062859E4DAD880DD058D2176622E58653C70FC68D4CE79D75F298F9B1280A1AD758018DDA3FAB3AA1252D12C49C5105CB7A084D86AFBE
311
C1B1F77966DEED91FDE5F310E8EFE8296A6D6F9F7D4B45F4375C50E730482A6A18D860691D6DB83AD9231C09C1ED37A69C9C682A19E10E679124F2D50D216A44C260A0C630599A6C301EB821A2D07C1ED20569F46B9E1FB332AD38373476C33A0BB6C815AA556D19FB87CABDF57D6460136265D870691DD2AF2575C3AB8622
311
97076C6A8074524E32841C6E9A9DB3E981A34B93A7EB951B7EBA8B761B93BBC70F2FA528A9D4863EA0561BB8F66950B236F96745CE6C700F4CD983F215C87F46AAEF4D41DC24DBCD77737B8A96A450A9903962E34C1C6F829F89E3D7BFE67FEF5F30EE360FA3770A4F04DB40F51BF01CFAD08F650FCE307801E1859C59D736
311
31E1281BF7AC004086240E1758421D4EA39D1BAE51E55095B18BF0D087CB30F7057F83B1558342519FD47B16C0F2A02C9E51A0015BCD4898D190DF1AB88FD34FE5AC3ED88A9D82F7E2B7D075B1DA7CDA54322531BDB739BDA2292B98468BDBF3A66FD000F38147CFF4F58790091CFD19EF4D1FEFDC1EA580B6C1DC009FB535
311
DDBCEC4F1E1C10635F264CB9097E71029C308DB5A7FF9EA998724E0A2AAAF6DC37FB07DA4603B14976C3E4AEC1EC1B0B48D37C39C84134E958B2D280D875ABAE688E4E78F76DFD198C843C1711E17BA1685F7A63C185DC46AFDBA62A1D45FAFB90DA1682B1D102B6D739D2A6BFC57C9BB034AD146AE01158BFAF97FDD099AA
311
800AD16A6D92650EF7915B445ACEB67AD1AC25412315C596A16D22ED8E1ED0D70F442D016A85A72C5694A75BC679956F53C6D18CB639294FC0F1FFED8FAABCDC925C54853EA17B603A9AC3D0F60179D50FA2E32737DCD44FEF06A537A1C93ECC0361D34A8E603508EDECF2DDDD857F33F5AE6E17EFBDF9C5DCF7AE16B35B6F
311
3E99DE2CA7D3DBE96275DBC6A9511E066DA7E92734A284CE165492D9F07D5B237D6C0D70C37BA2D5E3C7263BDBE7B7F508A37030C61EB4CB6EE32279C1D847935F2BD84B1E55B4CE4B4E735A686252E8DEFCE15F09C68C8131CDFA3A27193D43CB978F9B0367B072C6BE0793EEF4C7C15EBBBA34097954897EAAF2A8208C1F
311
6CCC1A2447659159FCDA9874CFA6CFB4AFE6CD060683A9129C25288389935191538D6278460F923955A05E7FA44FECD5E38CDD2FCD80A849C4696BC913C18CCC15D202D4AA623D5C77FEC04C67C6AA6B17DD76F48C1F5B295C079CB97631A36B1653358AD09FCD24542B0797FA833CE67E52641CA376B3A97BEF76196C061D
311
B91339677CB27E3515DC3A803252626CC03C84E8D4C684416D9BFD1EFF27C75B731CA2F137AA74E7CB7EA173A63E0629DA38652F0B98619EEDD13B24EADB6EF9A35A6680C85997AC3749D068F53491597D5130F6599316AB8731061467FDC52979952196E76BF22405992B93E06011586175964483AACB3F1F1FA4C0453677
311
EE1828F0B814792E0AFBB2B0176167F3846B6DF288B240CD7D443D4E27FEF4B1BE07D8ABC936228A8E48A29EB180984AD6413C083C18D95C16D1819A0F9DDCD804E1809BEB95635BDA1C4A2D51FA55D5C08289A3A00EB2C7DC254DAEF405CA37AF02E35A1426480CF1E1BF504B0304140006080000A9443340000000000000
311
000000000000350000006662782F45383845453042302D324437422D343539432D384537332D4141343239464233373735362F76657274696365732E62696E504B0304140006080800A9443340F270F1330600000004000000360000006662782F45383845453042302D324437422D343539432D384537332D414134323946
311
4233373735362F747269616E676C65732E62696E636660600000504B0304140006080000A9443340000000000000000000000000370000006662782F45383845453042302D324437422D343539432D384537332D4141343239464233373735362F617474726962757465732E62696E504B0304140006080800A9443340D598
311
7DFC8F00000041010000360000006662782F45383845453042302D324437422D343539432D384537332D4141343239464233373735362F6469726563746F72792E786D6C858F410EC2201045AF4266AF15DDB800BA74E7C21B903225242D6328188F2FA5C4183471359997F9FF81E89FF3C41E1816475E02DF1F80A11FC838
311
6F25A438EECEC07A250251FC3803E6F58C12560C4AD840E95E91C151A72936F496F35732D860FE635F62C8F2DA16B505C545B74125BAA2FA9E05D7CC053D063734D5C7665FD55B6B8D15D5E9BFEAFD8490FFA45E504B0304140006080800A944334059B164BBFA000000A00100003B0000006662782F45383845453042302D
311
324437422D343539432D384537332D4141343239464233373735362F7265736F75726365732F636F72652E786D6C8D50DB6A843010FD1599F768A2B25E885968B55FD01F0871D6865D13C9A5F4F31B570BED5B21648673610E875FBFD647F689CE6B6B066039850C8DB2B336CB0031DC480BD95570676DF82583CCC81507D8
311
61107C71366E27A4AC096842428D9DF104A5F71820538FB40CE0D507AE3297312485BFE79B5477B960CEF244279DE03EB814203B8EEC3F0887DE46A7D0F3E260058F51CFA746CFE9A6BE6974209A9A766D3DBD92716A26528F23256D578FE4A59DDE2863972A3D5EEC66C1835E7F322A8732E00CA2A4AC249411D6BDD3B6AF
311
9A9E75845E7A4A79B1CBFF98E236FFD314B5095579C63D6C1E044B419E84E0C5DE571ACF32D3DCBB15DF504B010214000A0000080000A94433403DEE336E79000000790000001B00000000000000000000000000000000006175746F6465736B2D64657369676E2D7061636B6167652E786D6C504B01021400140006080800
311
A9443340D486FD9CA0000000F40000001300000000000000000000000000B20000005B436F6E74656E745F54797065735D2E786D6C504B01021400140006080800A944334086DFAE03E90000007C010000080000000000000000000000000083010000636F72652E786D6C504B01021400140006080800A944334055019EA2
311
5F0000007C000000070000000000000000000000000092020000636E782E786D6C504B01021400140006080800A9443340F690B05A64010000020300000C00000000000000000000000000160300006662782F636F72652E786D6C504B01021400140006080800A94433402873901D7F0000009D0000000B00000000000000
311
000000000000A40400006662782F636E782E786D6C504B01021400140006080800A94433405B74133F2C0100001402000031000000000000000000000000004C0500006662782F45383845453042302D324437422D343539432D384537332D4141343239464233373735362F636F72652E786D6C504B010214001400060808
311
00A94433407C3456304D010000330300003000000000000000000000000000C70600006662782F45383845453042302D324437422D343539432D384537332D4141343239464233373735362F636E782E786D6C504B01021400140006080800A94433408DE48F6D9B0500007A10000034000000000000000000000000006208
311
00006662782F45383845453042302D324437422D343539432D384537332D4141343239464233373735362F6F626A656374732E786D6C504B01021400140006080000A944334000000000000000000000000035000000000000000000000000004F0E00006662782F45383845453042302D324437422D343539432D38453733
311
2D4141343239464233373735362F76657274696365732E62696E504B01021400140006080800A9443340F270F13306000000040000003600000000000000000000000000A20E00006662782F45383845453042302D324437422D343539432D384537332D4141343239464233373735362F747269616E676C65732E62696E50
311
4B01021400140006080000A94433400000000000000000000000003700000000000000000000000000FC0E00006662782F45383845453042302D324437422D343539432D384537332D4141343239464233373735362F617474726962757465732E62696E504B01021400140006080800A9443340D5987DFC8F000000410100
311
003600000000000000000000000000510F00006662782F45383845453042302D324437422D343539432D384537332D4141343239464233373735362F6469726563746F72792E786D6C504B01021400140006080800A944334059B164BBFA000000A00100003B00000000000000000000000000341000006662782F45383845
311
453042302D324437422D343539432D384537332D4141343239464233373735362F7265736F75726365732F636F72652E786D6C504B0506000000000E000E0080040000871100000000
310
504B03040A0000080000A94433403DEE336E79000000790000001B0000006175746F6465736B2D64657369676E2D7061636B6167652E786D6C3C3F786D6C2076657273696F6E3D22312E302220656E636F64696E673D227574662D3822203F3E3C666F726D6174733E3C666F726D61743E687474703A2F2F736368656D612E
310
6175746F6465736B2E636F6D2F64657369676E2D7061636B6167652F323030393C2F666F726D61743E3C2F666F726D6174733E504B0304140006080800A9443340D486FD9CA0000000F4000000130000005B436F6E74656E745F54797065735D2E786D6C7D8EC10E82300C865F65E91D8A1E8C310C0EEA1BF002731658846E
310
D98AC1B77784ABF1D8FE5FBFBF75BBCE937A534CCEB38643598122B6FEE978D0B0485F9C41B54DDD7D022595594E1A469170414C76A4D9A4D207E29CF43ECE46F218070CC6BECC4078ACAA135ACF422C856C0E68EA1BF5669944DDD7BCDE7B1F8E415D77AECB980613C2E4AC91FC167A2B244592486606FC29C8FD7F045B9A
310
EF7053A7E60B504B0304140006080800A94433409DBBE9BCEB0000007C01000008000000636F72652E786D6C8D90416EC3201045AF82668F0D761B6C0B13C56972825E0001715062B00C543D7E71E248EDAEAB19FDF96F66F4F9FE7BBAA32FB304EB5D0FB420808C535E5B37F690E2053780F6822FDEC75F36404E4EA68755
310
06C1C7C5A779939477D1B89855E7B5D94419828980D43D373D047535932C648AD9116EC52CD54D8EA6A0AF2EC329598D9E47ACCEFBECC59A05C4B96DEBEA307CE0333B52FC469B0137EC78C2BB76381E4E8C0D037BE7E50A0B1EEDF4BAAF1623A3D1202A422B4C28A6ED2769BA9A75B4C564D711C2CBD5FE074AB3FE2794AC
310
8B75B5BDFBC402089A1F790C042FD72C72790495EB9A9BF801504B0304140006080800A944334055019EA25F0000007C00000007000000636E782E786D6C4DCB3B0E80201045D1AD90E915ED2CF8AC45050C11660C8261F98AB1B07AC9C97D42D718D865D3E909258CFD00CCE24AC6E326A164D74DC0B4128928FF32603847
310
2BA13128B1252AC747C6BAB984FC68F0B87FE8960A5C09FE86CFB69FBA01504B0304140006080800A9443340E745BA3C67010000020300000C0000006662782F636F72652E786D6C8D52ED8E8230107C95A6FF4B297A22A6D488A74F702F50A17244684969898F7FCB87E1BC18732129CDCCCEEEEC00DFDF9B1AF5CA7695D1
310
2966418891D2B9292A5DA6D8BB2BD962B417DC1AE37E9561A465A3523CC058F0D21ADFCE506EB453DA01AA4DA16650769D7218E5355C52DCE5DFAA9181F40E2ABA5BD0CAFC264B15B00068A813BC73160CA069C8706271BDDC399D70C1BDAF8A99AD0A98565D2B65B13827C92A3A649FE41C1F1959B36D46B6F1F144364976
310
3C9CE238CBE20F4E07B1E0AE6A1EEE72ABA453051651C8221232C292AF70BB5BC53B969070B30B434E87F227916F8B7F8A7CA5DD2A9AED4EB20E0B064646E2CFB61091439DECC10F159C0E21C26B4CF8396808044276F2523FF6B801D4ABDC19BB06A6307EA17A597B055343343E9C4E2C741E1BC0662FFB446FFABCEF011F
310
50EA12AC4907D78B77C3743E4D9DA3689525BDBB236D6C23EBC5DC64713997412FE5B9A98DFD8F9ACEABD2394C3AFCBDE207504B0304140006080800A9443340FDE4C8C77E0000009D0000000B0000006662782F636E782E786D6C4DCCDF0A83201C86E15B91DFB9FD61BA25A861E5EE239685CC74388D5DFE6A74B0A30F1E
310
3E5EDE7E56873613DF36780175510132FE1126EB170139CDB801D44A1E43487F37407E5C8D808341F22586FC3A6932F3985DDAD559FF3C51F56A60D79A60AD3B85C99D52CC0672C1FA4658432BD5F58C422979F92BED7B84E517504B0304140006080800A9443340D8897E982B01000013020000310000006662782F414341
310
44393631342D454542412D344635352D394434332D4537343938353041424339352F636F72652E786D6C8D514B6EC32014BC0A62952EB0C1C6AE1D6122E7D313F402C426294A0C169F2AC72FD48ED4EEB201346F66DE3C1EDB3DA63BF896D629A33B48320C81D4831995BE7630F80B6A20D871668DF17F68106831C90E2618
310
7276B526CC2B3418EDA5F611D566942B289C931E82E11E1F1D74C3979C4426828F0C77CB6631DCC45566248BE5C8E3CC791B0380A5493A21EF0FFDB1AD0945A7D3BE47F4A3AA507BA4253ABDD3B6A970BF3FB415CB17216721A87195AB31C6511725EDAB2649CC9957D333FE60A5F07284BCC0A4409820D27EE2665BBE6F49
310
8B70BDC598E589FE4F14E6F1455150DA97C51A779139C809CB970267A309E7FB338C7CCCC67A90FA6D9C1CDE20C7192E8A9A3671FE8519E78F96355D2D9D3736FEEFE6768EE472F5AD2967795A51BC7EF717EFB44EFE03504B0304140006080800A94433401A9399275501000033030000300000006662782F414341443936
310
31342D454542412D344635352D394434332D4537343938353041424339352F636E782E786D6CBD93CD6E022114855F85B09F3F3553350C265DF409BAE89681ABA53230E1A7A96FDF8BA275E3A249D30D999C7B38E7E60BC3765F93219FE0837676A05DDD5202563AA5ED61A029EEAB35253BCEBC73F1CE468915130C34CB94
310
B38377692E9282BD4826A26AB43D16D14370C94B0828E79BC438290C0680AD128A308DA014287233E2D71E3CAE82E27822F11DC8CBF31B71E307C818589353386B720767F92C4D77264AA411210C34C87798442D52740AC2B156228ABAABAF5D0F76FA4922F9C2B532794D72F940F34979D9A8468EACC12167217AA4574CF1
310
3403E5629E8D962222E4E66CBC78384BDAC67E55BC1AC17B742F17FD7A8D61E71967514F501CD28388A0285FB4DDA26ABBAADBBCB6EBEDF269DB6DAAB6DFB62D6BB29DB3D139532E610C783713E96C041B29EF5893C78FF0151F51DA236BE74FBF0089004AEB85CE2DE32FF974FD72B5FA473ECDF97D232E8F7F01FF06504B
310
0304140006080800A944334085761B9A58070000931B0000340000006662782F41434144393631342D454542412D344635352D394434332D4537343938353041424339352F6F626A656374732E786D6CED595B6FA33814FE2B887D0E09B974A62BCA284D2F8A569D194D7646FB1009197088B7C620DBF4B2BF7E8F8D214043
310
4B76BA6FF39000C63E3EE73B571FBC4F4F29B51E3017246317B6EB4C6C0BB3288B094B2EEC42EE461F6DEB93EFF12C938D69B6C5508A2F6C356CFB5EC2B322374331DEA182CACEE8CDE55F968830C3B6155124C4852DA23D4E91830A99C558DC3B3192C849764F8EEB9413DB64138EF27D87688E3866123885710654AC9229
310
B7FD38B1C7BE3756EF7D4FFD9B59B341B3E6FDB3C65AEA369784098958F482A50E99D9209666EEFCEA7ABA381F2DE6F3D9687E3675479737975723F7C36CB23A5BADCE97D7E7C05E9865D4C814E31CB318F4F76CFBAE37566F6AD10D02C7B88E32C670A48104A8B4585D82040BD8AA01DFA4FDE82A891AAFB5848DE7B97A6F
310
58680CCFDA54FA660D03A245170431DB551257D7A67C59F837082E861825175802B74272D0AE81878357D8FEC41B97A3BE171E7441849522893941D4A224E488835260AA9AE27BE5024346390707529692406BAE7CDDB62DF0CCB75DE71897BB8252E519B6AF1D2B00F7C35268CEC83F981FB86F22033C81B40561F2A3E152
310
3EE7D8F6CFBDB11EF43D75994DCDCB12486B4751223422E5DB8EA02BE5FAEB2BDBFFE3267CDAA870707CF39C6739E652199DD2A3E60B0CD95C154A665B7790E6D40210A604D5AC3C80F20D90FF0CD1E3C00AE88D93A7F9D3DCCC951C31B1CB780ABAB126D668027F13CBD5FFEABE71E78DEBC56DEDF5E1096EAAA0FAF8F378
310
B665D05819FE1B70FADE03187CC667E6D5264214ECF98E300048198945331882D0BE0B9F6C7F0D8113023DAC42D477416460F7016EBDB12173D04AE55EC6EB18206AF6980D5112C0A62D12D8E8D1D32D640F4EA2839A9A22F6C1BB7817735D5E6DFED8147C87227C677CFA0AEF082312B2E671865A98B724BAC7CF8F198F41
310
D097786F9A78A7662B01682BCC15F04905827A38ECDCDA20827549A6C28DF7C60E2084CAD50DFA7744449852C4705654FBD6D14D196AEDF1A666B0FD6909F16CDA31618E1F88AA2AC0690E335A8C42DE8F38C91588B67F5B4A56074DA747BAEFEBCF6091F5FC9E596B06A19721FAA70E5A477068597685B401A216383C84F3
310
28A3190FC2E7A08C7436D412C046DB5B7EB48842AC2F95A4A8800769BFAB424A524A1BC464B72B04C4D5232CFE58AF9AE6307166EEC26AFE779C710ED1167C1771E3779D3D0292A204073B14F76DD7DCADA62D34C91ED21CEF28C8451E887C0E900C26314E4E81E624E2E7EF4A3DA19910846101F9EA28F84D34260E049252
310
9B15CB4AAB1DA08908522C113D050145A6075C9D76748D1B41E9F0368FB5F5BEA6B126D1FFC92238825A32630181521472C89B8CBBCE0262481BDD12E50EBE606D156D2D062DA084889E83474C92BD3C05F5927C0FEE111C490A1964398AC0AC07907DE12B4AA91DDE4314DDABFC1144057D2F031198EE0242699106F0230C
310
4E1E435CBB0E4CAFA2D0205EC63E895328CA902CF8904DCE169317FB94354337043636DA110A613B4851DE837A2B20EA7AC4AAC137D47B941A16691EA0342BD8204371665D6F32E4BB6A556407F2AB4A45281B2BC286A0EF1126EBAC5AC56C30751D58C18D74A07A0E044A735A9EC2DE483C6EED4D9A72EF06DCF8E9FB6E90
310
42E1D7A3BD66449D5730181E5B8581784432DADBFE465F4797507FC7383EA4FAAAD66C568080988AE405274645DFD750DE981ACDF6EF9014DBDB32EB56D7EF6B07BA1FDE18D640ED522F5C2BA053CC245295C99DBAA1DF1084E0168D727CAD72EA29549671ACAB46446F489F3A5B65446BD39438F91EB32C851FDB1216D122
310
C65B148BFBE04ED2604314EB464A272515C6AF0AF8E576D38107460688F4551578F8B1B3D68CAE54B9749488DC1769C8108120D8122D2975E3E42C311AA9B45C5FD59902EA2E3030A3E2F9AF9345B31DF1EB649118C3F8B99305CD42440FD1A691CD2365D6279D02EAF4A4A8BCC72940771D6AAA75122973B911DFF8520031
310
B10AF2838BB12A669404FB38FECF49BB2F0996DB75F83F2D69BB2F0A8E93924A6BB26A521D295CD7CD1436FB7876B3702FA7A3F3EBE587D17C317747E7CBD9F5683E995EAEA6D3EBE9F2EABA4653FBA9EFD5B14CA72E782E635A35AC9E0C06D094151925311CE6632BC110F2251CE90774CF798A05E4CE66AF3B363DF901AB
310
1FCA36A74421C515277B04FD612A20AB03464524DBE3D66FD0999470CEBEB0A167E4DCC39FB14ADB82C4736143A74092080B27842E93EAE769E2907175EA37C4001FC4129511CB45F573BD4A61D38AFEF5942159C0C8D56A6140DD9643F3ABD5A0D0BC199EA29304AFD8B19084DBB09050AC95B21C066A61F43607F597B251
310
C2EECDD64FE0BAAF8BE53A7A4E0B91415F0C5E358292EA48229EE876B762CCB0B4BCFA3A86369BB5FE62E5B4484097C3298D3806632E543D055604566168E64882A9AE7EDF7EE5197CE1492D5D146D57599A66CC3C2CE13816C317226BB387EF3DF116AA06ACBAEA623B9DB8D3ADEE669B067B1022811D550EC14055452811
310
3AC60616F9A23365FA9663A584CEF4F59565C2E702886AAB7DD1DC2DBF6E59E03DEA3B8AF215EDE1959CAF36B4C77A2A58038756B4FF2F504B0304140006080000A9443340000000000000000000000000350000006662782F41434144393631342D454542412D344635352D394434332D4537343938353041424339352F76
310
657274696365732E62696E504B0304140006080800A9443340F270F1330600000004000000360000006662782F41434144393631342D454542412D344635352D394434332D4537343938353041424339352F747269616E676C65732E62696E636660600000504B0304140006080000A9443340000000000000000000000000
310
370000006662782F41434144393631342D454542412D344635352D394434332D4537343938353041424339352F617474726962757465732E62696E504B0304140006080800A9443340D5987DFC8F00000041010000360000006662782F41434144393631342D454542412D344635352D394434332D45373439383530414243
310
39352F6469726563746F72792E786D6C858F410EC2201045AF4266AF15DDB800BA74E7C21B903225242D6328188F2FA5C4183471359997F9FF81E89FF3C41E1816475E02DF1F80A11FC8386F25A438EECEC07A250251FC3803E6F58C12560C4AD840E95E91C151A72936F496F35732D860FE635F62C8F2DA16B505C545B741
310
25BAA2FA9E05D7CC053D063734D5C7665FD55B6B8D15D5E9BFEAFD8490FFA45E504B0304140006080800A944334042D52304FD000000A00100003B0000006662782F41434144393631342D454542412D344635352D394434332D4537343938353041424339352F7265736F75726365732F636F72652E786D6C8D50596E8330
310
10BD0A9A7F830D6D58641C05949CA017B0CC84580936F252F5F8350995DABFFECC8CDEA2797AFCF8B53CB24F745E5BD303CB296468949DB4997B88E14A1AC88E823B6BC32F1964462ED8C30683E0B3B371DD21654D4013126AEC843B28BDC700997AA4A307AF6EB8C85CC69014FE9EAF52DDE58C39CB139D7482FBE05280EC
310
F5649B201C7A1B9D42CF8B172B788C7ADA357A4A3FF555A3037169DBAA3C0D23B9D423236FAC1948538F67726887F174AEEB61A8DF79B199050F7AF9C9A81CCA80138892B292504658FB419BAEAA3BD6127AE828E5C526FF638AEBF44F53D42654E51EF765F320580AF224042FB6BED27A9699F6D6ADF806504B010214000A
310
0000080000A94433403DEE336E79000000790000001B00000000000000000000000000000000006175746F6465736B2D64657369676E2D7061636B6167652E786D6C504B01021400140006080800A9443340D486FD9CA0000000F40000001300000000000000000000000000B20000005B436F6E74656E745F54797065735D
310
2E786D6C504B01021400140006080800A94433409DBBE9BCEB0000007C010000080000000000000000000000000083010000636F72652E786D6C504B01021400140006080800A944334055019EA25F0000007C000000070000000000000000000000000094020000636E782E786D6C504B01021400140006080800A9443340
310
E745BA3C67010000020300000C00000000000000000000000000180300006662782F636F72652E786D6C504B01021400140006080800A9443340FDE4C8C77E0000009D0000000B00000000000000000000000000A90400006662782F636E782E786D6C504B01021400140006080800A9443340D8897E982B01000013020000
310
3100000000000000000000000000500500006662782F41434144393631342D454542412D344635352D394434332D4537343938353041424339352F636F72652E786D6C504B01021400140006080800A94433401A93992755010000330300003000000000000000000000000000CA0600006662782F41434144393631342D45
310
4542412D344635352D394434332D4537343938353041424339352F636E782E786D6C504B01021400140006080800A944334085761B9A58070000931B000034000000000000000000000000006D0800006662782F41434144393631342D454542412D344635352D394434332D4537343938353041424339352F6F626A656374
310
732E786D6C504B01021400140006080000A94433400000000000000000000000003500000000000000000000000000171000006662782F41434144393631342D454542412D344635352D394434332D4537343938353041424339352F76657274696365732E62696E504B01021400140006080800A9443340F270F133060000
310
000400000036000000000000000000000000006A1000006662782F41434144393631342D454542412D344635352D394434332D4537343938353041424339352F747269616E676C65732E62696E504B01021400140006080000A94433400000000000000000000000003700000000000000000000000000C41000006662782F
310
41434144393631342D454542412D344635352D394434332D4537343938353041424339352F617474726962757465732E62696E504B01021400140006080800A9443340D5987DFC8F000000410100003600000000000000000000000000191100006662782F41434144393631342D454542412D344635352D394434332D4537
310
343938353041424339352F6469726563746F72792E786D6C504B01021400140006080800A944334042D52304FD000000A00100003B00000000000000000000000000FC1100006662782F41434144393631342D454542412D344635352D394434332D4537343938353041424339352F7265736F75726365732F636F72652E78
310
6D6C504B0506000000000E000E0080040000521300000000
  0
XRECORD
  5
27
102
{ACAD_REACTORS
330
22
102
}
330
22
100
AcDbXrecord
280
     1
270
     1
271
     1
  0
XRECORD
  5
26
102
{ACAD_REACTORS
330
22
102
}
330
22
100
AcDbXrecord
280
     1
270
     1
271
     1
  0
XRECORD
  5
28
102
{ACAD_REACTORS
330
22
102
}
330
22
100
AcDbXrecord
280
     1
270
     1
271
     1
  0
XRECORD
  5
25
102
{ACAD_REACTORS
330
22
102
}
330
22
100
AcDbXrecord
280
     1
270
     1
271
     1
  0
XRECORD
  5
DF0
102
{ACAD_REACTORS
330
DEF
102
}
330
DEF
100
AcDbXrecord
280
     1
102
ACAD_ROUNDTRIP_2012_MLEADER_STYLE
298
     1
  0
CELLSTYLEMAP
  5
DEE
102
{ACAD_REACTORS
330
DED
102
}
330
DED
100
AcDbCellStyleMap
 90
        3
300
CELLSTYLE
  1
TABLEFORMAT_BEGIN
 90
        5
170
     1
 91
        0
 92
    32768
 62
   257
 93
        1
300
CONTENTFORMAT
  1
CONTENTFORMAT_BEGIN
 90
        0
 91
        0
 92
      512
 93
        0
300

 40
0.0
140
1.0
 94
        5
 62
     0
340
55
144
0.25
309
CONTENTFORMAT_END
171
     0
 94
        0
309
TABLEFORMAT_END
  1
CELLSTYLE_BEGIN
 90
        1
 91
        1
300
_TITLE
309
CELLSTYLE_END
300
CELLSTYLE
  1
TABLEFORMAT_BEGIN
 90
        5
170
     1
 91
        0
 92
        0
 62
   257
 93
        1
300
CONTENTFORMAT
  1
CONTENTFORMAT_BEGIN
 90
        0
 91
        0
 92
      512
 93
        0
300

 40
0.0
140
1.0
 94
        5
 62
     0
340
55
144
0.18
309
CONTENTFORMAT_END
171
     0
 94
        0
309
TABLEFORMAT_END
  1
CELLSTYLE_BEGIN
 90
        2
 91
        1
300
_HEADER
309
CELLSTYLE_END
300
CELLSTYLE
  1
TABLEFORMAT_BEGIN
 90
        5
170
     1
 91
        0
 92
        0
 62
   257
 93
        1
300
CONTENTFORMAT
  1
CONTENTFORMAT_BEGIN
 90
        0
 91
        0
 92
      512
 93
        0
300

 40
0.0
140
1.0
 94
        2
 62
     0
340
55
144
0.18
309
CONTENTFORMAT_END
171
     0
 94
        0
309
TABLEFORMAT_END
  1
CELLSTYLE_BEGIN
 90
        3
 91
        2
300
_DATA
309
CELLSTYLE_END
  0
XRECORD
  5
E28
102
{ACAD_REACTORS
330
DED
102
}
330
DED
100
AcDbXrecord
280
     1
102
ACAD_ROUNDTRIP_PRE2007_TABLESTYLE
 90
      512
 91
        0
  1

 92
      512
 93
        0
  2

 94
      512
 95
        0
  3

  0
XRECORD
  5
E03
102
{ACAD_REACTORS
330
E02
102
}
330
E02
100
AcDbXrecord
280
     1
102
RTVSPropertyOp0
 70
     1
102
RTVSPropertyOp1
 70
     1
102
RTVSPropertyOp2
 70
     1
102
RTVSPropertyOp3
 70
     1
102
RTVSPropertyOp4
 70
     1
102
RTVSPropertyOp5
 70
     1
102
RTVSPropertyOp6
 70
     1
102
RTVSPropertyOp7
 70
     1
102
RTVSPropertyOp8
 70
     1
102
RTVSPropertyOp9
 70
     1
102
RTVSPropertyOp10
 70
     1
102
RTVSPropertyOp11
 70
     1
102
RTVSPropertyOp12
 70
     1
102
RTVSPropertyOp13
 70
     1
102
RTVSPropertyOp14
 70
     1
102
RTVSPropertyOp15
 70
     1
102
RTVSPropertyOp16
 70
     1
102
RTVSPropertyOp17
 70
     1
102
RTVSPropertyOp18
 70
     1
102
RTVSPropertyOp19
 70
     1
102
RTVSPropertyOp20
 70
     1
102
RTVSPropertyOp21
 70
     1
102
RTVSPropertyOp22
 70
     1
102
RTVSPropertyOp23
 70
     1
102
RTVSPropertyOp24
 70
     1
102
RTVSPropertyOp25
 70
     1
102
RTVSPropertyOp26
 70
     1
102
RTVSPropertyOp27
 70
     1
102
RTVSPropertyOp28
 70
     1
102
RTVSPropertyOp29
 70
     1
102
RTVSPropertyOp30
 70
     1
102
RTVSPropertyOp31
 70
     1
102
RTVSPropertyOp32
 70
     1
  0
XRECORD
  5
E01
102
{ACAD_REACTORS
330
E00
102
}
330
E00
100
AcDbXrecord
280
     1
102
RTVSPropertyOp0
 70
     1
102
RTVSPropertyOp1
 70
     1
102
RTVSPropertyOp2
 70
     1
102
RTVSPropertyOp3
 70
     1
102
RTVSPropertyOp4
 70
     1
102
RTVSPropertyOp5
 70
     1
102
RTVSPropertyOp6
 70
     1
102
RTVSPropertyOp7
 70
     1
102
RTVSPropertyOp8
 70
     1
102
RTVSPropertyOp9
 70
     1
102
RTVSPropertyOp10
 70
     1
102
RTVSPropertyOp11
 70
     1
102
RTVSPropertyOp12
 70
     1
102
RTVSPropertyOp13
 70
     1
102
RTVSPropertyOp14
 70
     1
102
RTVSPropertyOp15
 70
     1
102
RTVSPropertyOp16
 70
     1
102
RTVSPropertyOp17
 70
     1
102
RTVSPropertyOp18
 70
     1
102
RTVSPropertyOp19
 70
     1
102
RTVSPropertyOp20
 70
     1
102
RTVSPropertyOp21
 70
     1
102
RTVSPropertyOp22
 70
     1
102
RTVSPropertyOp23
 70
     1
102
RTVSPropertyOp24
 70
     1
102
RTVSPropertyOp25
 70
     1
102
RTVSPropertyOp26
 70
     1
102
RTVSPropertyOp27
 70
     1
102
RTVSPropertyOp28
 70
     1
102
RTVSPropertyOp29
 70
     1
102
RTVSPropertyOp30
 70
     1
102
RTVSPropertyOp31
 70
     1
102
RTVSPropertyOp32
 70
     1
  0
XRECORD
  5
E0F
102
{ACAD_REACTORS
330
E0E
102
}
330
E0E
100
AcDbXrecord
280
     1
102
RTVSPropertyOp0
 70
     1
102
RTVSPropertyOp1
 70
     1
102
RTVSPropertyOp2
 70
     1
102
RTVSPropertyOp3
 70
     1
102
RTVSPropertyOp4
 70
     1
102
RTVSPropertyOp5
 70
     1
102
RTVSPropertyOp6
 70
     1
102
RTVSPropertyOp7
 70
     1
102
RTVSPropertyOp8
 70
     1
102
RTVSPropertyOp9
 70
     1
102
RTVSPropertyOp10
 70
     1
102
RTVSPropertyOp11
 70
     1
102
RTVSPropertyOp12
 70
     1
102
RTVSPropertyOp13
 70
     1
102
RTVSPropertyOp14
 70
     1
102
RTVSPropertyOp15
 70
     1
102
RTVSPropertyOp16
 70
     1
102
RTVSPropertyOp17
 70
     1
102
RTVSPropertyOp18
 70
     1
102
RTVSPropertyOp19
 70
     1
102
RTVSPropertyOp20
 70
     1
102
RTVSPropertyOp21
 70
     1
102
RTVSPropertyOp22
 70
     1
102
RTVSPropertyOp23
 70
     1
102
RTVSPropertyOp24
 70
     1
102
RTVSPropertyOp25
 70
     1
102
RTVSPropertyOp26
 70
     1
102
RTVSPropertyOp27
 70
     1
102
RTVSPropertyOp28
 70
     1
102
RTVSPropertyOp29
 70
     1
102
RTVSPropertyOp30
 70
     1
102
RTVSPropertyOp31
 70
     1
102
RTVSPropertyOp32
 70
     1
  0
XRECORD
  5
E17
102
{ACAD_REACTORS
330
E16
102
}
330
E16
100
AcDbXrecord
280
     1
102
RTVSPropertyOp0
 70
     1
102
RTVSPropertyOp1
 70
     1
102
RTVSPropertyOp2
 70
     1
102
RTVSPropertyOp3
 70
     1
102
RTVSPropertyOp4
 70
     1
102
RTVSPropertyOp5
 70
     1
102
RTVSPropertyOp6
 70
     1
102
RTVSPropertyOp7
 70
     1
102
RTVSPropertyOp8
 70
     1
102
RTVSPropertyOp9
 70
     1
102
RTVSPropertyOp10
 70
     1
102
RTVSPropertyOp11
 70
     1
102
RTVSPropertyOp12
 70
     1
102
RTVSPropertyOp13
 70
     1
102
RTVSPropertyOp14
 70
     1
102
RTVSPropertyOp15
 70
     1
102
RTVSPropertyOp16
 70
     1
102
RTVSPropertyOp17
 70
     1
102
RTVSPropertyOp18
 70
     1
102
RTVSPropertyOp19
 70
     1
102
RTVSPropertyOp20
 70
     1
102
RTVSPropertyOp21
 70
     1
102
RTVSPropertyOp22
 70
     1
102
RTVSPropertyOp23
 70
     1
102
RTVSPropertyOp24
 70
     1
102
RTVSPropertyOp25
 70
     1
102
RTVSPropertyOp26
 70
     1
102
RTVSPropertyOp27
 70
     1
102
RTVSPropertyOp28
 70
     1
102
RTVSPropertyOp29
 70
     1
102
RTVSPropertyOp30
 70
     1
102
RTVSPropertyOp31
 70
     1
102
RTVSPropertyOp32
 70
     1
  0
XRECORD
  5
E09
102
{ACAD_REACTORS
330
E08
102
}
330
E08
100
AcDbXrecord
280
     1
102
RTVSPropertyOp0
 70
     1
102
RTVSPropertyOp1
 70
     1
102
RTVSPropertyOp2
 70
     1
102
RTVSPropertyOp3
 70
     1
102
RTVSPropertyOp4
 70
     1
102
RTVSPropertyOp5
 70
     1
102
RTVSPropertyOp6
 70
     1
102
RTVSPropertyOp7
 70
     1
102
RTVSPropertyOp8
 70
     1
102
RTVSPropertyOp9
 70
     1
102
RTVSPropertyOp10
 70
     1
102
RTVSPropertyOp11
 70
     1
102
RTVSPropertyOp12
 70
     1
102
RTVSPropertyOp13
 70
     1
102
RTVSPropertyOp14
 70
     1
102
RTVSPropertyOp15
 70
     1
102
RTVSPropertyOp16
 70
     1
102
RTVSPropertyOp17
 70
     1
102
RTVSPropertyOp18
 70
     1
102
RTVSPropertyOp19
 70
     1
102
RTVSPropertyOp20
 70
     1
102
RTVSPropertyOp21
 70
     1
102
RTVSPropertyOp22
 70
     1
102
RTVSPropertyOp23
 70
     1
102
RTVSPropertyOp24
 70
     1
102
RTVSPropertyOp25
 70
     1
102
RTVSPropertyOp26
 70
     1
102
RTVSPropertyOp27
 70
     1
102
RTVSPropertyOp28
 70
     1
102
RTVSPropertyOp29
 70
     1
102
RTVSPropertyOp30
 70
     1
102
RTVSPropertyOp31
 70
     1
102
RTVSPropertyOp32
 70
     1
  0
XRECORD
  5
E0D
102
{ACAD_REACTORS
330
E0C
102
}
330
E0C
100
AcDbXrecord
280
     1
102
RTVSPropertyOp0
 70
     1
102
RTVSPropertyOp1
 70
     1
102
RTVSPropertyOp2
 70
     1
102
RTVSPropertyOp3
 70
     1
102
RTVSPropertyOp4
 70
     1
102
RTVSPropertyOp5
 70
     1
102
RTVSPropertyOp6
 70
     1
102
RTVSPropertyOp7
 70
     1
102
RTVSPropertyOp8
 70
     1
102
RTVSPropertyOp9
 70
     1
102
RTVSPropertyOp10
 70
     1
102
RTVSPropertyOp11
 70
     1
102
RTVSPropertyOp12
 70
     1
102
RTVSPropertyOp13
 70
     1
102
RTVSPropertyOp14
 70
     1
102
RTVSPropertyOp15
 70
     1
102
RTVSPropertyOp16
 70
     1
102
RTVSPropertyOp17
 70
     1
102
RTVSPropertyOp18
 70
     1
102
RTVSPropertyOp19
 70
     1
102
RTVSPropertyOp20
 70
     1
102
RTVSPropertyOp21
 70
     1
102
RTVSPropertyOp22
 70
     1
102
RTVSPropertyOp23
 70
     1
102
RTVSPropertyOp24
 70
     1
102
RTVSPropertyOp25
 70
     1
102
RTVSPropertyOp26
 70
     1
102
RTVSPropertyOp27
 70
     1
102
RTVSPropertyOp28
 70
     1
102
RTVSPropertyOp29
 70
     1
102
RTVSPropertyOp30
 70
     1
102
RTVSPropertyOp31
 70
     1
102
RTVSPropertyOp32
 70
     1
  0
XRECORD
  5
E27
102
{ACAD_REACTORS
330
E26
102
}
330
E26
100
AcDbXrecord
280
     1
102
RTVSPropertyOp0
 70
     0
102
RTVSPropertyOp1
 70
     0
102
RTVSPropertyOp2
 70
     0
102
RTVSPropertyOp3
 70
     0
102
RTVSPropertyOp4
 70
     0
102
RTVSPropertyOp5
 70
     0
102
RTVSPropertyOp6
 70
     0
102
RTVSPropertyOp7
 70
     0
102
RTVSPropertyOp8
 70
     0
102
RTVSPropertyOp9
 70
     0
102
RTVSPropertyOp10
 70
     0
102
RTVSPropertyOp11
 70
     0
102
RTVSPropertyOp12
 70
     0
102
RTVSPropertyOp13
 70
     0
102
RTVSPropertyOp14
 70
     2
102
RTVSPropertyOp15
 70
     0
102
RTVSPropertyOp16
 70
     0
102
RTVSPropertyOp17
 70
     0
102
RTVSPropertyOp18
 70
     0
102
RTVSPropertyOp19
 70
     0
102
RTVSPropertyOp20
 70
     0
102
RTVSPropertyOp21
 70
     0
102
RTVSPropertyOp22
 70
     0
102
RTVSPropertyOp23
 70
     0
102
RTVSPropertyOp24
 70
     0
102
RTVSPropertyOp25
 70
     0
102
RTVSPropertyOp26
 70
     0
102
RTVSPropertyOp27
 70
     0
102
RTVSPropertyOp28
 70
     1
102
RTVSPropertyOp29
 70
     1
102
RTVSPropertyOp30
 70
     1
102
RTVSPropertyOp31
 70
     1
102
RTVSPropertyOp32
 70
     1
  0
XRECORD
  5
E15
102
{ACAD_REACTORS
330
E14
102
}
330
E14
100
AcDbXrecord
280
     1
102
RTVSPropertyOp0
 70
     1
102
RTVSPropertyOp1
 70
     1
102
RTVSPropertyOp2
 70
     1
102
RTVSPropertyOp3
 70
     1
102
RTVSPropertyOp4
 70
     1
102
RTVSPropertyOp5
 70
     1
102
RTVSPropertyOp6
 70
     1
102
RTVSPropertyOp7
 70
     1
102
RTVSPropertyOp8
 70
     1
102
RTVSPropertyOp9
 70
     1
102
RTVSPropertyOp10
 70
     1
102
RTVSPropertyOp11
 70
     1
102
RTVSPropertyOp12
 70
     1
102
RTVSPropertyOp13
 70
     1
102
RTVSPropertyOp14
 70
     1
102
RTVSPropertyOp15
 70
     1
102
RTVSPropertyOp16
 70
     1
102
RTVSPropertyOp17
 70
     1
102
RTVSPropertyOp18
 70
     1
102
RTVSPropertyOp19
 70
     1
102
RTVSPropertyOp20
 70
     1
102
RTVSPropertyOp21
 70
     1
102
RTVSPropertyOp22
 70
     1
102
RTVSPropertyOp23
 70
     1
102
RTVSPropertyOp24
 70
     1
102
RTVSPropertyOp25
 70
     1
102
RTVSPropertyOp26
 70
     1
102
RTVSPropertyOp27
 70
     1
102
RTVSPropertyOp28
 70
     1
102
RTVSPropertyOp29
 70
     1
102
RTVSPropertyOp30
 70
     1
102
RTVSPropertyOp31
 70
     1
102
RTVSPropertyOp32
 70
     1
  0
XRECORD
  5
DF9
102
{ACAD_REACTORS
330
DF8
102
}
330
DF8
100
AcDbXrecord
280
     1
102
RTVSPropertyOp0
 70
     1
102
RTVSPropertyOp1
 70
     1
102
RTVSPropertyOp2
 70
     1
102
RTVSPropertyOp3
 70
     1
102
RTVSPropertyOp4
 70
     1
102
RTVSPropertyOp5
 70
     1
102
RTVSPropertyOp6
 70
     1
102
RTVSPropertyOp7
 70
     1
102
RTVSPropertyOp8
 70
     1
102
RTVSPropertyOp9
 70
     1
102
RTVSPropertyOp10
 70
     1
102
RTVSPropertyOp11
 70
     1
102
RTVSPropertyOp12
 70
     1
102
RTVSPropertyOp13
 70
     1
102
RTVSPropertyOp14
 70
     1
102
RTVSPropertyOp15
 70
     1
102
RTVSPropertyOp16
 70
     1
102
RTVSPropertyOp17
 70
     1
102
RTVSPropertyOp18
 70
     1
102
RTVSPropertyOp19
 70
     1
102
RTVSPropertyOp20
 70
     1
102
RTVSPropertyOp21
 70
     1
102
RTVSPropertyOp22
 70
     1
102
RTVSPropertyOp23
 70
     1
102
RTVSPropertyOp24
 70
     1
102
RTVSPropertyOp25
 70
     1
102
RTVSPropertyOp26
 70
     1
102
RTVSPropertyOp27
 70
     1
102
RTVSPropertyOp28
 70
     1
102
RTVSPropertyOp29
 70
     1
102
RTVSPropertyOp30
 70
     1
102
RTVSPropertyOp31
 70
     1
102
RTVSPropertyOp32
 70
     1
  0
XRECORD
  5
DFB
102
{ACAD_REACTORS
330
DFA
102
}
330
DFA
100
AcDbXrecord
280
     1
102
RTVSPropertyOp0
 70
     1
102
RTVSPropertyOp1
 70
     1
102
RTVSPropertyOp2
 70
     1
102
RTVSPropertyOp3
 70
     1
102
RTVSPropertyOp4
 70
     1
102
RTVSPropertyOp5
 70
     1
102
RTVSPropertyOp6
 70
     1
102
RTVSPropertyOp7
 70
     1
102
RTVSPropertyOp8
 70
     1
102
RTVSPropertyOp9
 70
     1
102
RTVSPropertyOp10
 70
     1
102
RTVSPropertyOp11
 70
     1
102
RTVSPropertyOp12
 70
     1
102
RTVSPropertyOp13
 70
     1
102
RTVSPropertyOp14
 70
     1
102
RTVSPropertyOp15
 70
     1
102
RTVSPropertyOp16
 70
     1
102
RTVSPropertyOp17
 70
     1
102
RTVSPropertyOp18
 70
     1
102
RTVSPropertyOp19
 70
     1
102
RTVSPropertyOp20
 70
     1
102
RTVSPropertyOp21
 70
     1
102
RTVSPropertyOp22
 70
     1
102
RTVSPropertyOp23
 70
     1
102
RTVSPropertyOp24
 70
     1
102
RTVSPropertyOp25
 70
     1
102
RTVSPropertyOp26
 70
     1
102
RTVSPropertyOp27
 70
     1
102
RTVSPropertyOp28
 70
     1
102
RTVSPropertyOp29
 70
     1
102
RTVSPropertyOp30
 70
     1
102
RTVSPropertyOp31
 70
     1
102
RTVSPropertyOp32
 70
     1
  0
XRECORD
  5
DFD
102
{ACAD_REACTORS
330
DFC
102
}
330
DFC
100
AcDbXrecord
280
     1
102
RTVSPropertyOp0
 70
     1
102
RTVSPropertyOp1
 70
     1
102
RTVSPropertyOp2
 70
     1
102
RTVSPropertyOp3
 70
     1
102
RTVSPropertyOp4
 70
     1
102
RTVSPropertyOp5
 70
     1
102
RTVSPropertyOp6
 70
     1
102
RTVSPropertyOp7
 70
     1
102
RTVSPropertyOp8
 70
     1
102
RTVSPropertyOp9
 70
     1
102
RTVSPropertyOp10
 70
     1
102
RTVSPropertyOp11
 70
     1
102
RTVSPropertyOp12
 70
     1
102
RTVSPropertyOp13
 70
     1
102
RTVSPropertyOp14
 70
     1
102
RTVSPropertyOp15
 70
     1
102
RTVSPropertyOp16
 70
     1
102
RTVSPropertyOp17
 70
     1
102
RTVSPropertyOp18
 70
     1
102
RTVSPropertyOp19
 70
     1
102
RTVSPropertyOp20
 70
     1
102
RTVSPropertyOp21
 70
     1
102
RTVSPropertyOp22
 70
     1
102
RTVSPropertyOp23
 70
     1
102
RTVSPropertyOp24
 70
     1
102
RTVSPropertyOp25
 70
     1
102
RTVSPropertyOp26
 70
     1
102
RTVSPropertyOp27
 70
     1
102
RTVSPropertyOp28
 70
     1
102
RTVSPropertyOp29
 70
     1
102
RTVSPropertyOp30
 70
     1
102
RTVSPropertyOp31
 70
     1
102
RTVSPropertyOp32
 70
     1
  0
XRECORD
  5
DFF
102
{ACAD_REACTORS
330
DFE
102
}
330
DFE
100
AcDbXrecord
280
     1
102
RTVSPropertyOp0
 70
     1
102
RTVSPropertyOp1
 70
     1
102
RTVSPropertyOp2
 70
     1
102
RTVSPropertyOp3
 70
     1
102
RTVSPropertyOp4
 70
     1
102
RTVSPropertyOp5
 70
     1
102
RTVSPropertyOp6
 70
     1
102
RTVSPropertyOp7
 70
     1
102
RTVSPropertyOp8
 70
     1
102
RTVSPropertyOp9
 70
     1
102
RTVSPropertyOp10
 70
     1
102
RTVSPropertyOp11
 70
     1
102
RTVSPropertyOp12
 70
     1
102
RTVSPropertyOp13
 70
     1
102
RTVSPropertyOp14
 70
     1
102
RTVSPropertyOp15
 70
     1
102
RTVSPropertyOp16
 70
     1
102
RTVSPropertyOp17
 70
     1
102
RTVSPropertyOp18
 70
     1
102
RTVSPropertyOp19
 70
     1
102
RTVSPropertyOp20
 70
     1
102
RTVSPropertyOp21
 70
     1
102
RTVSPropertyOp22
 70
     1
102
RTVSPropertyOp23
 70
     1
102
RTVSPropertyOp24
 70
     1
102
RTVSPropertyOp25
 70
     1
102
RTVSPropertyOp26
 70
     1
102
RTVSPropertyOp27
 70
     1
102
RTVSPropertyOp28
 70
     1
102
RTVSPropertyOp29
 70
     1
102
RTVSPropertyOp30
 70
     1
102
RTVSPropertyOp31
 70
     1
102
RTVSPropertyOp32
 70
     1
  0
XRECORD
  5
E07
102
{ACAD_REACTORS
330
E06
102
}
330
E06
100
AcDbXrecord
280
     1
102
RTVSPropertyOp0
 70
     1
102
RTVSPropertyOp1
 70
     1
102
RTVSPropertyOp2
 70
     1
102
RTVSPropertyOp3
 70
     1
102
RTVSPropertyOp4
 70
     1
102
RTVSPropertyOp5
 70
     1
102
RTVSPropertyOp6
 70
     1
102
RTVSPropertyOp7
 70
     1
102
RTVSPropertyOp8
 70
     1
102
RTVSPropertyOp9
 70
     1
102
RTVSPropertyOp10
 70
     1
102
RTVSPropertyOp11
 70
     1
102
RTVSPropertyOp12
 70
     1
102
RTVSPropertyOp13
 70
     1
102
RTVSPropertyOp14
 70
     1
102
RTVSPropertyOp15
 70
     1
102
RTVSPropertyOp16
 70
     1
102
RTVSPropertyOp17
 70
     1
102
RTVSPropertyOp18
 70
     1
102
RTVSPropertyOp19
 70
     1
102
RTVSPropertyOp20
 70
     1
102
RTVSPropertyOp21
 70
     1
102
RTVSPropertyOp22
 70
     1
102
RTVSPropertyOp23
 70
     1
102
RTVSPropertyOp24
 70
     1
102
RTVSPropertyOp25
 70
     1
102
RTVSPropertyOp26
 70
     1
102
RTVSPropertyOp27
 70
     1
102
RTVSPropertyOp28
 70
     1
102
RTVSPropertyOp29
 70
     1
102
RTVSPropertyOp30
 70
     1
102
RTVSPropertyOp31
 70
     1
102
RTVSPropertyOp32
 70
     1
  0
XRECORD
  5
E23
102
{ACAD_REACTORS
330
E22
102
}
330
E22
100
AcDbXrecord
280
     1
102
RTVSPropertyOp0
 70
     0
102
RTVSPropertyOp1
 70
     0
102
RTVSPropertyOp2
 70
     0
102
RTVSPropertyOp3
 70
     0
102
RTVSPropertyOp4
 70
     0
102
RTVSPropertyOp5
 70
     0
102
RTVSPropertyOp6
 70
     0
102
RTVSPropertyOp7
 70
     0
102
RTVSPropertyOp8
 70
     0
102
RTVSPropertyOp9
 70
     0
102
RTVSPropertyOp10
 70
     0
102
RTVSPropertyOp11
 70
     0
102
RTVSPropertyOp12
 70
     0
102
RTVSPropertyOp13
 70
     0
102
RTVSPropertyOp14
 70
     2
102
RTVSPropertyOp15
 70
     0
102
RTVSPropertyOp16
 70
     0
102
RTVSPropertyOp17
 70
     0
102
RTVSPropertyOp18
 70
     0
102
RTVSPropertyOp19
 70
     0
102
RTVSPropertyOp20
 70
     0
102
RTVSPropertyOp21
 70
     0
102
RTVSPropertyOp22
 70
     0
102
RTVSPropertyOp23
 70
     0
102
RTVSPropertyOp24
 70
     0
102
RTVSPropertyOp25
 70
     0
102
RTVSPropertyOp26
 70
     0
102
RTVSPropertyOp27
 70
     0
102
RTVSPropertyOp28
 70
     1
102
RTVSPropertyOp29
 70
     1
102
RTVSPropertyOp30
 70
     1
102
RTVSPropertyOp31
 70
     1
102
RTVSPropertyOp32
 70
     1
  0
XRECORD
  5
E13
102
{ACAD_REACTORS
330
E12
102
}
330
E12
100
AcDbXrecord
280
     1
102
RTVSPropertyOp0
 70
     1
102
RTVSPropertyOp1
 70
     1
102
RTVSPropertyOp2
 70
     1
102
RTVSPropertyOp3
 70
     1
102
RTVSPropertyOp4
 70
     1
102
RTVSPropertyOp5
 70
     1
102
RTVSPropertyOp6
 70
     1
102
RTVSPropertyOp7
 70
     1
102
RTVSPropertyOp8
 70
     1
102
RTVSPropertyOp9
 70
     1
102
RTVSPropertyOp10
 70
     1
102
RTVSPropertyOp11
 70
     1
102
RTVSPropertyOp12
 70
     1
102
RTVSPropertyOp13
 70
     1
102
RTVSPropertyOp14
 70
     1
102
RTVSPropertyOp15
 70
     1
102
RTVSPropertyOp16
 70
     1
102
RTVSPropertyOp17
 70
     1
102
RTVSPropertyOp18
 70
     1
102
RTVSPropertyOp19
 70
     1
102
RTVSPropertyOp20
 70
     1
102
RTVSPropertyOp21
 70
     1
102
RTVSPropertyOp22
 70
     1
102
RTVSPropertyOp23
 70
     1
102
RTVSPropertyOp24
 70
     1
102
RTVSPropertyOp25
 70
     1
102
RTVSPropertyOp26
 70
     1
102
RTVSPropertyOp27
 70
     1
102
RTVSPropertyOp28
 70
     1
102
RTVSPropertyOp29
 70
     1
102
RTVSPropertyOp30
 70
     1
102
RTVSPropertyOp31
 70
     1
102
RTVSPropertyOp32
 70
     1
  0
XRECORD
  5
E25
102
{ACAD_REACTORS
330
E24
102
}
330
E24
100
AcDbXrecord
280
     1
102
RTVSPropertyOp0
 70
     0
102
RTVSPropertyOp1
 70
     0
102
RTVSPropertyOp2
 70
     0
102
RTVSPropertyOp3
 70
     0
102
RTVSPropertyOp4
 70
     0
102
RTVSPropertyOp5
 70
     0
102
RTVSPropertyOp6
 70
     0
102
RTVSPropertyOp7
 70
     0
102
RTVSPropertyOp8
 70
     0
102
RTVSPropertyOp9
 70
     0
102
RTVSPropertyOp10
 70
     0
102
RTVSPropertyOp11
 70
     0
102
RTVSPropertyOp12
 70
     0
102
RTVSPropertyOp13
 70
     0
102
RTVSPropertyOp14
 70
     2
102
RTVSPropertyOp15
 70
     0
102
RTVSPropertyOp16
 70
     0
102
RTVSPropertyOp17
 70
     0
102
RTVSPropertyOp18
 70
     0
102
RTVSPropertyOp19
 70
     0
102
RTVSPropertyOp20
 70
     0
102
RTVSPropertyOp21
 70
     0
102
RTVSPropertyOp22
 70
     0
102
RTVSPropertyOp23
 70
     0
102
RTVSPropertyOp24
 70
     0
102
RTVSPropertyOp25
 70
     0
102
RTVSPropertyOp26
 70
     0
102
RTVSPropertyOp27
 70
     0
102
RTVSPropertyOp28
 70
     1
102
RTVSPropertyOp29
 70
     1
102
RTVSPropertyOp30
 70
     1
102
RTVSPropertyOp31
 70
     1
102
RTVSPropertyOp32
 70
     1
  0
XRECORD
  5
E0B
102
{ACAD_REACTORS
330
E0A
102
}
330
E0A
100
AcDbXrecord
280
     1
102
RTVSPropertyOp0
 70
     1
102
RTVSPropertyOp1
 70
     1
102
RTVSPropertyOp2
 70
     1
102
RTVSPropertyOp3
 70
     1
102
RTVSPropertyOp4
 70
     1
102
RTVSPropertyOp5
 70
     1
102
RTVSPropertyOp6
 70
     1
102
RTVSPropertyOp7
 70
     1
102
RTVSPropertyOp8
 70
     1
102
RTVSPropertyOp9
 70
     1
102
RTVSPropertyOp10
 70
     1
102
RTVSPropertyOp11
 70
     1
102
RTVSPropertyOp12
 70
     1
102
RTVSPropertyOp13
 70
     1
102
RTVSPropertyOp14
 70
     1
102
RTVSPropertyOp15
 70
     1
102
RTVSPropertyOp16
 70
     1
102
RTVSPropertyOp17
 70
     1
102
RTVSPropertyOp18
 70
     1
102
RTVSPropertyOp19
 70
     1
102
RTVSPropertyOp20
 70
     1
102
RTVSPropertyOp21
 70
     1
102
RTVSPropertyOp22
 70
     1
102
RTVSPropertyOp23
 70
     1
102
RTVSPropertyOp24
 70
     1
102
RTVSPropertyOp25
 70
     1
102
RTVSPropertyOp26
 70
     1
102
RTVSPropertyOp27
 70
     1
102
RTVSPropertyOp28
 70
     1
102
RTVSPropertyOp29
 70
     1
102
RTVSPropertyOp30
 70
     1
102
RTVSPropertyOp31
 70
     1
102
RTVSPropertyOp32
 70
     1
  0
XRECORD
  5
E21
102
{ACAD_REACTORS
330
E20
102
}
330
E20
100
AcDbXrecord
280
     1
102
RTVSPropertyOp0
 70
     1
102
RTVSPropertyOp1
 70
     1
102
RTVSPropertyOp2
 70
     1
102
RTVSPropertyOp3
 70
     1
102
RTVSPropertyOp4
 70
     1
102
RTVSPropertyOp5
 70
     1
102
RTVSPropertyOp6
 70
     1
102
RTVSPropertyOp7
 70
     1
102
RTVSPropertyOp8
 70
     1
102
RTVSPropertyOp9
 70
     1
102
RTVSPropertyOp10
 70
     1
102
RTVSPropertyOp11
 70
     1
102
RTVSPropertyOp12
 70
     1
102
RTVSPropertyOp13
 70
     1
102
RTVSPropertyOp14
 70
     1
102
RTVSPropertyOp15
 70
     1
102
RTVSPropertyOp16
 70
     1
102
RTVSPropertyOp17
 70
     1
102
RTVSPropertyOp18
 70
     1
102
RTVSPropertyOp19
 70
     1
102
RTVSPropertyOp20
 70
     1
102
RTVSPropertyOp21
 70
     1
102
RTVSPropertyOp22
 70
     1
102
RTVSPropertyOp23
 70
     1
102
RTVSPropertyOp24
 70
     1
102
RTVSPropertyOp25
 70
     1
102
RTVSPropertyOp26
 70
     1
102
RTVSPropertyOp27
 70
     1
102
RTVSPropertyOp28
 70
     1
102
RTVSPropertyOp29
 70
     1
102
RTVSPropertyOp30
 70
     1
102
RTVSPropertyOp31
 70
     1
102
RTVSPropertyOp32
 70
     1
  0
XRECORD
  5
E1F
102
{ACAD_REACTORS
330
E1E
102
}
330
E1E
100
AcDbXrecord
280
     1
102
RTVSPropertyOp0
 70
     1
102
RTVSPropertyOp1
 70
     1
102
RTVSPropertyOp2
 70
     1
102
RTVSPropertyOp3
 70
     1
102
RTVSPropertyOp4
 70
     1
102
RTVSPropertyOp5
 70
     1
102
RTVSPropertyOp6
 70
     1
102
RTVSPropertyOp7
 70
     1
102
RTVSPropertyOp8
 70
     1
102
RTVSPropertyOp9
 70
     1
102
RTVSPropertyOp10
 70
     1
102
RTVSPropertyOp11
 70
     1
102
RTVSPropertyOp12
 70
     1
102
RTVSPropertyOp13
 70
     1
102
RTVSPropertyOp14
 70
     1
102
RTVSPropertyOp15
 70
     1
102
RTVSPropertyOp16
 70
     1
102
RTVSPropertyOp17
 70
     1
102
RTVSPropertyOp18
 70
     1
102
RTVSPropertyOp19
 70
     1
102
RTVSPropertyOp20
 70
     1
102
RTVSPropertyOp21
 70
     1
102
RTVSPropertyOp22
 70
     1
102
RTVSPropertyOp23
 70
     1
102
RTVSPropertyOp24
 70
     1
102
RTVSPropertyOp25
 70
     1
102
RTVSPropertyOp26
 70
     1
102
RTVSPropertyOp27
 70
     1
102
RTVSPropertyOp28
 70
     1
102
RTVSPropertyOp29
 70
     1
102
RTVSPropertyOp30
 70
     1
102
RTVSPropertyOp31
 70
     1
102
RTVSPropertyOp32
 70
     1
  0
XRECORD
  5
E19
102
{ACAD_REACTORS
330
E18
102
}
330
E18
100
AcDbXrecord
280
     1
102
RTVSPropertyOp0
 70
     1
102
RTVSPropertyOp1
 70
     1
102
RTVSPropertyOp2
 70
     1
102
RTVSPropertyOp3
 70
     1
102
RTVSPropertyOp4
 70
     1
102
RTVSPropertyOp5
 70
     1
102
RTVSPropertyOp6
 70
     1
102
RTVSPropertyOp7
 70
     1
102
RTVSPropertyOp8
 70
     1
102
RTVSPropertyOp9
 70
     1
102
RTVSPropertyOp10
 70
     1
102
RTVSPropertyOp11
 70
     1
102
RTVSPropertyOp12
 70
     1
102
RTVSPropertyOp13
 70
     1
102
RTVSPropertyOp14
 70
     1
102
RTVSPropertyOp15
 70
     1
102
RTVSPropertyOp16
 70
     1
102
RTVSPropertyOp17
 70
     1
102
RTVSPropertyOp18
 70
     1
102
RTVSPropertyOp19
 70
     1
102
RTVSPropertyOp20
 70
     1
102
RTVSPropertyOp21
 70
     1
102
RTVSPropertyOp22
 70
     1
102
RTVSPropertyOp23
 70
     1
102
RTVSPropertyOp24
 70
     1
102
RTVSPropertyOp25
 70
     1
102
RTVSPropertyOp26
 70
     1
102
RTVSPropertyOp27
 70
     1
102
RTVSPropertyOp28
 70
     1
102
RTVSPropertyOp29
 70
     1
102
RTVSPropertyOp30
 70
     1
102
RTVSPropertyOp31
 70
     1
102
RTVSPropertyOp32
 70
     1
  0
XRECORD
  5
E1B
102
{ACAD_REACTORS
330
E1A
102
}
330
E1A
100
AcDbXrecord
280
     1
102
RTVSPropertyOp0
 70
     1
102
RTVSPropertyOp1
 70
     1
102
RTVSPropertyOp2
 70
     1
102
RTVSPropertyOp3
 70
     1
102
RTVSPropertyOp4
 70
     1
102
RTVSPropertyOp5
 70
     1
102
RTVSPropertyOp6
 70
     1
102
RTVSPropertyOp7
 70
     1
102
RTVSPropertyOp8
 70
     1
102
RTVSPropertyOp9
 70
     1
102
RTVSPropertyOp10
 70
     1
102
RTVSPropertyOp11
 70
     1
102
RTVSPropertyOp12
 70
     1
102
RTVSPropertyOp13
 70
     1
102
RTVSPropertyOp14
 70
     1
102
RTVSPropertyOp15
 70
     1
102
RTVSPropertyOp16
 70
     1
102
RTVSPropertyOp17
 70
     1
102
RTVSPropertyOp18
 70
     1
102
RTVSPropertyOp19
 70
     1
102
RTVSPropertyOp20
 70
     1
102
RTVSPropertyOp21
 70
     1
102
RTVSPropertyOp22
 70
     1
102
RTVSPropertyOp23
 70
     1
102
RTVSPropertyOp24
 70
     1
102
RTVSPropertyOp25
 70
     1
102
RTVSPropertyOp26
 70
     1
102
RTVSPropertyOp27
 70
     1
102
RTVSPropertyOp28
 70
     1
102
RTVSPropertyOp29
 70
     1
102
RTVSPropertyOp30
 70
     1
102
RTVSPropertyOp31
 70
     1
102
RTVSPropertyOp32
 70
     1
  0
XRECORD
  5
E11
102
{ACAD_REACTORS
330
E10
102
}
330
E10
100
AcDbXrecord
280
     1
102
RTVSPropertyOp0
 70
     1
102
RTVSPropertyOp1
 70
     1
102
RTVSPropertyOp2
 70
     1
102
RTVSPropertyOp3
 70
     1
102
RTVSPropertyOp4
 70
     1
102
RTVSPropertyOp5
 70
     1
102
RTVSPropertyOp6
 70
     1
102
RTVSPropertyOp7
 70
     1
102
RTVSPropertyOp8
 70
     1
102
RTVSPropertyOp9
 70
     1
102
RTVSPropertyOp10
 70
     1
102
RTVSPropertyOp11
 70
     1
102
RTVSPropertyOp12
 70
     1
102
RTVSPropertyOp13
 70
     1
102
RTVSPropertyOp14
 70
     1
102
RTVSPropertyOp15
 70
     1
102
RTVSPropertyOp16
 70
     1
102
RTVSPropertyOp17
 70
     1
102
RTVSPropertyOp18
 70
     1
102
RTVSPropertyOp19
 70
     1
102
RTVSPropertyOp20
 70
     1
102
RTVSPropertyOp21
 70
     1
102
RTVSPropertyOp22
 70
     1
102
RTVSPropertyOp23
 70
     1
102
RTVSPropertyOp24
 70
     1
102
RTVSPropertyOp25
 70
     1
102
RTVSPropertyOp26
 70
     1
102
RTVSPropertyOp27
 70
     1
102
RTVSPropertyOp28
 70
     1
102
RTVSPropertyOp29
 70
     1
102
RTVSPropertyOp30
 70
     1
102
RTVSPropertyOp31
 70
     1
102
RTVSPropertyOp32
 70
     1
  0
XRECORD
  5
E05
102
{ACAD_REACTORS
330
E04
102
}
330
E04
100
AcDbXrecord
280
     1
102
RTVSPropertyOp0
 70
     1
102
RTVSPropertyOp1
 70
     1
102
RTVSPropertyOp2
 70
     1
102
RTVSPropertyOp3
 70
     1
102
RTVSPropertyOp4
 70
     1
102
RTVSPropertyOp5
 70
     1
102
RTVSPropertyOp6
 70
     1
102
RTVSPropertyOp7
 70
     1
102
RTVSPropertyOp8
 70
     1
102
RTVSPropertyOp9
 70
     1
102
RTVSPropertyOp10
 70
     1
102
RTVSPropertyOp11
 70
     1
102
RTVSPropertyOp12
 70
     1
102
RTVSPropertyOp13
 70
     1
102
RTVSPropertyOp14
 70
     1
102
RTVSPropertyOp15
 70
     1
102
RTVSPropertyOp16
 70
     1
102
RTVSPropertyOp17
 70
     1
102
RTVSPropertyOp18
 70
     1
102
RTVSPropertyOp19
 70
     1
102
RTVSPropertyOp20
 70
     1
102
RTVSPropertyOp21
 70
     1
102
RTVSPropertyOp22
 70
     1
102
RTVSPropertyOp23
 70
     1
102
RTVSPropertyOp24
 70
     1
102
RTVSPropertyOp25
 70
     1
102
RTVSPropertyOp26
 70
     1
102
RTVSPropertyOp27
 70
     1
102
RTVSPropertyOp28
 70
     1
102
RTVSPropertyOp29
 70
     1
102
RTVSPropertyOp30
 70
     1
102
RTVSPropertyOp31
 70
     1
102
RTVSPropertyOp32
 70
     1
  0
XRECORD
  5
E1D
102
{ACAD_REACTORS
330
E1C
102
}
330
E1C
100
AcDbXrecord
280
     1
102
RTVSPropertyOp0
 70
     1
102
RTVSPropertyOp1
 70
     1
102
RTVSPropertyOp2
 70
     1
102
RTVSPropertyOp3
 70
     1
102
RTVSPropertyOp4
 70
     1
102
RTVSPropertyOp5
 70
     1
102
RTVSPropertyOp6
 70
     1
102
RTVSPropertyOp7
 70
     1
102
RTVSPropertyOp8
 70
     1
102
RTVSPropertyOp9
 70
     1
102
RTVSPropertyOp10
 70
     1
102
RTVSPropertyOp11
 70
     1
102
RTVSPropertyOp12
 70
     1
102
RTVSPropertyOp13
 70
     1
102
RTVSPropertyOp14
 70
     1
102
RTVSPropertyOp15
 70
     1
102
RTVSPropertyOp16
 70
     1
102
RTVSPropertyOp17
 70
     1
102
RTVSPropertyOp18
 70
     1
102
RTVSPropertyOp19
 70
     1
102
RTVSPropertyOp20
 70
     1
102
RTVSPropertyOp21
 70
     1
102
RTVSPropertyOp22
 70
     1
102
RTVSPropertyOp23
 70
     1
102
RTVSPropertyOp24
 70
     1
102
RTVSPropertyOp25
 70
     1
102
RTVSPropertyOp26
 70
     1
102
RTVSPropertyOp27
 70
     1
102
RTVSPropertyOp28
 70
     1
102
RTVSPropertyOp29
 70
     1
102
RTVSPropertyOp30
 70
     1
102
RTVSPropertyOp31
 70
     1
102
RTVSPropertyOp32
 70
     1
  0
ENDSEC
  0
EOF
