  0
SECTION
  2
HEADER
  9
$ACADVER
  1
AC1015
  9
$ACADMAINTVER
 70
    18
  9
$DWGCODEPAGE
  3
ANSI_1252
  9
$INSBASE
 10
0.0
 20
0.0
 30
0.0
  9
$EXTMIN
 10
0.0
 20
0.0
 30
0.0
  9
$EXTMAX
 10
77.27272727272728
 20
50.0
 30
0.0
  9
$LIMMIN
 10
0.0
 20
0.0
  9
$LIMMAX
 10
77.27272727272728
 20
50.0
  9
$ORTHOMODE
 70
     0
  9
$REGENMODE
 70
     1
  9
$FILLMODE
 70
     1
  9
$QTEXTMODE
 70
     0
  9
$MIRRTEXT
 70
     0
  9
$LTSCALE
 40
4.545454545454545
  9
$ATTMODE
 70
     1
  9
$TEXTSIZE
 40
0.2
  9
$TRACEWID
 40
0.05
  9
$TEXTSTYLE
  7
Standard
  9
$CLAYER
  8
0
  9
$CELTYPE
  6
ByLayer
  9
$CECOLOR
 62
   256
  9
$CELTSCALE
 40
1.0
  9
$DISPSILH
 70
     0
  9
$DIMSCALE
 40
1.0
  9
$DIMASZ
 40
0.0708661417322835
  9
$DIMEXO
 40
0.0625
  9
$DIMDLI
 40
0.38
  9
$DIMRND
 40
0.0
  9
$DIMDLE
 40
0.0
  9
$DIMEXE
 40
0.18
  9
$DIMTP
 40
0.0
  9
$DIMTM
 40
0.0
  9
$DIMTXT
 40
0.0708661417322835
  9
$DIMCEN
 40
0.09
  9
$DIMTSZ
 40
0.0
  9
$DIMTOL
 70
     0
  9
$DIMLIM
 70
     0
  9
$DIMTIH
 70
     1
  9
$DIMTOH
 70
     1
  9
$DIMSE1
 70
     0
  9
$DIMSE2
 70
     0
  9
$DIMTAD
 70
     0
  9
$DIMZIN
 70
     0
  9
$DIMBLK
  1

  9
$DIMASO
 70
     1
  9
$DIMSHO
 70
     1
  9
$DIMPOST
  1

  9
$DIMAPOST
  1

  9
$DIMALT
 70
     0
  9
$DIMALTD
 70
     2
  9
$DIMALTF
 40
25.4
  9
$DIMLFAC
 40
1.0
  9
$DIMTOFL
 70
     0
  9
$DIMTVP
 40
0.0
  9
$DIMTIX
 70
     0
  9
$DIMSOXD
 70
     0
  9
$DIMSAH
 70
     0
  9
$DIMBLK1
  1

  9
$DIMBLK2
  1

  9
$DIMSTYLE
  2
STANDARD
  9
$DIMCLRD
 70
     0
  9
$DIMCLRE
 70
     0
  9
$DIMCLRT
 70
     0
  9
$DIMTFAC
 40
1.0
  9
$DIMGAP
 40
0.09
  9
$DIMJUST
 70
     0
  9
$DIMSD1
 70
     0
  9
$DIMSD2
 70
     0
  9
$DIMTOLJ
 70
     1
  9
$DIMTZIN
 70
     0
  9
$DIMALTZ
 70
     0
  9
$DIMALTTZ
 70
     0
  9
$DIMUPT
 70
     0
  9
$DIMDEC
 70
     4
  9
$DIMTDEC
 70
     4
  9
$DIMALTU
 70
     2
  9
$DIMALTTD
 70
     2
  9
$DIMTXSTY
  7
Standard
  9
$DIMAUNIT
 70
     0
  9
$DIMADEC
 70
     0
  9
$DIMALTRND
 40
0.0
  9
$DIMAZIN
 70
     0
  9
$DIMDSEP
 70
    46
  9
$DIMATFIT
 70
     3
  9
$DIMFRAC
 70
     0
  9
$DIMLDRBLK
  1

  9
$DIMLUNIT
 70
     2
  9
$DIMLWD
 70
    -2
  9
$DIMLWE
 70
    -2
  9
$DIMTMOVE
 70
     0
  9
$LUNITS
 70
     2
  9
$LUPREC
 70
     4
  9
$SKETCHINC
 40
0.1
  9
$FILLETRAD
 40
0.0
  9
$AUNITS
 70
     0
  9
$AUPREC
 70
     0
  9
$MENU
  1
.
  9
$ELEVATION
 40
0.0
  9
$PELEVATION
 40
0.0
  9
$THICKNESS
 40
0.0
  9
$LIMCHECK
 70
     0
  9
$CHAMFERA
 40
0.0
  9
$CHAMFERB
 40
0.0
  9
$CHAMFERC
 40
0.0
  9
$CHAMFERD
 40
0.0
  9
$SKPOLY
 70
     0
  9
$TDCREATE
 40
2455944.618663310
  9
$TDUCREATE
 40
2455944.868663310
  9
$TDUPDATE
 40
2455944.618663310
  9
$TDUUPDATE
 40
2455944.868663310
  9
$TDINDWG
 40
0.0000354398
  9
$TDUSRTIMER
 40
0.0000354398
  9
$USRTIMER
 70
     1
  9
$ANGBASE
 50
0.0
  9
$ANGDIR
 70
     0
  9
$PDMODE
 70
     0
  9
$PDSIZE
 40
0.0
  9
$PLINEWID
 40
0.0
  9
$SPLFRAME
 70
     0
  9
$SPLINETYPE
 70
     6
  9
$SPLINESEGS
 70
     8
  9
$HANDSEED
  5
DD3
  9
$SURFTAB1
 70
     6
  9
$SURFTAB2
 70
     6
  9
$SURFTYPE
 70
     6
  9
$SURFU
 70
     6
  9
$SURFV
 70
     6
  9
$UCSBASE
  2

  9
$UCSNAME
  2

  9
$UCSORG
 10
0.0
 20
0.0
 30
0.0
  9
$UCSXDIR
 10
1.0
 20
0.0
 30
0.0
  9
$UCSYDIR
 10
0.0
 20
1.0
 30
0.0
  9
$UCSORTHOREF
  2

  9
$UCSORTHOVIEW
 70
     0
  9
$UCSORGTOP
 10
0.0
 20
0.0
 30
0.0
  9
$UCSORGBOTTOM
 10
0.0
 20
0.0
 30
0.0
  9
$UCSORGLEFT
 10
0.0
 20
0.0
 30
0.0
  9
$UCSORGRIGHT
 10
0.0
 20
0.0
 30
0.0
  9
$UCSORGFRONT
 10
0.0
 20
0.0
 30
0.0
  9
$UCSORGBACK
 10
0.0
 20
0.0
 30
0.0
  9
$PUCSBASE
  2

  9
$PUCSNAME
  2

  9
$PUCSORG
 10
0.0
 20
0.0
 30
0.0
  9
$PUCSXDIR
 10
1.0
 20
0.0
 30
0.0
  9
$PUCSYDIR
 10
0.0
 20
1.0
 30
0.0
  9
$PUCSORTHOREF
  2

  9
$PUCSORTHOVIEW
 70
     0
  9
$PUCSORGTOP
 10
0.0
 20
0.0
 30
0.0
  9
$PUCSORGBOTTOM
 10
0.0
 20
0.0
 30
0.0
  9
$PUCSORGLEFT
 10
0.0
 20
0.0
 30
0.0
  9
$PUCSORGRIGHT
 10
0.0
 20
0.0
 30
0.0
  9
$PUCSORGFRONT
 10
0.0
 20
0.0
 30
0.0
  9
$PUCSORGBACK
 10
0.0
 20
0.0
 30
0.0
  9
$USERI1
 70
     0
  9
$USERI2
 70
     0
  9
$USERI3
 70
     0
  9
$USERI4
 70
     0
  9
$USERI5
 70
     0
  9
$USERR1
 40
0.0
  9
$USERR2
 40
0.0
  9
$USERR3
 40
0.0
  9
$USERR4
 40
0.0
  9
$USERR5
 40
0.0
  9
$WORLDVIEW
 70
     1
  9
$SHADEDGE
 70
     3
  9
$SHADEDIF
 70
    70
  9
$TILEMODE
 70
     1
  9
$MAXACTVP
 70
    64
  9
$PINSBASE
 10
0.0
 20
0.0
 30
0.0
  9
$PLIMCHECK
 70
     0
  9
$PEXTMIN
 10
0.0
 20
0.0
 30
0.0
  9
$PEXTMAX
 10
77.27272727272728
 20
50.0
 30
0.0
  9
$PLIMMIN
 10
0.0
 20
0.0
  9
$PLIMMAX
 10
77.27272727272728
 20
50.0
  9
$UNITMODE
 70
     0
  9
$VISRETAIN
 70
     1
  9
$PLINEGEN
 70
     0
  9
$PSLTSCALE
 70
     1
  9
$TREEDEPTH
 70
  3020
  9
$CMLSTYLE
  2
Standard
  9
$CMLJUST
 70
     0
  9
$CMLSCALE
 40
1.0
  9
$PROXYGRAPHICS
 70
     1
  9
$MEASUREMENT
 70
     0
  9
$CELWEIGHT
370
    -1
  9
$ENDCAPS
280
     0
  9
$JOINSTYLE
280
     0
  9
$LWDISPLAY
290
     0
  9
$INSUNITS
 70
     1
  9
$HYPERLINKBASE
  1

  9
$STYLESHEET
  1

  9
$XEDIT
290
     1
  9
$CEPSNTYPE
380
     0
  9
$PSTYLEMODE
290
     1
  9
$FINGERPRINTGUID
  2
{0762C7D4-7071-4D86-8A9A-39F7C08F774C}
  9
$VERSIONGUID
  2
{A7E44443-5BE0-46A2-9CA2-2CE8BC454FDD}
  9
$EXTNAMES
290
     1
  9
$PSVPSCALE
 40
0.0
  9
$OLESTARTUP
290
     0
  0
ENDSEC
  0
SECTION
  2
CLASSES
  0
CLASS
  1
ACDBDICTIONARYWDFLT
  2
AcDbDictionaryWithDefault
  3
ObjectDBX Classes
 90
        0
280
     0
281
     0
  0
CLASS
  1
MATERIAL
  2
AcDbMaterial
  3
ObjectDBX Classes
 90
     1153
280
     0
281
     0
  0
CLASS
  1
VISUALSTYLE
  2
AcDbVisualStyle
  3
ObjectDBX Classes
 90
     4095
280
     0
281
     0
  0
CLASS
  1
SCALE
  2
AcDbScale
  3
ObjectDBX Classes
 90
     1153
280
     0
281
     0
  0
CLASS
  1
TABLESTYLE
  2
AcDbTableStyle
  3
ObjectDBX Classes
 90
     4095
280
     0
281
     0
  0
CLASS
  1
MLEADERSTYLE
  2
AcDbMLeaderStyle
  3
ACDB_MLEADERSTYLE_CLASS
 90
     4095
280
     0
281
     0
  0
CLASS
  1
DICTIONARYVAR
  2
AcDbDictionaryVar
  3
ObjectDBX Classes
 90
        0
280
     0
281
     0
  0
CLASS
  1
CELLSTYLEMAP
  2
AcDbCellStyleMap
  3
ObjectDBX Classes
 90
     1152
280
     0
281
     0
  0
CLASS
  1
ACDBPLACEHOLDER
  2
AcDbPlaceHolder
  3
ObjectDBX Classes
 90
        0
280
     0
281
     0
  0
CLASS
  1
LAYOUT
  2
AcDbLayout
  3
ObjectDBX Classes
 90
        0
280
     0
281
     0
  0
ENDSEC
  0
SECTION
  2
TABLES
  0
TABLE
  2
VPORT
  5
8
330
0
100
AcDbSymbolTable
 70
     1
  0
VPORT
  5
57
330
8
100
AcDbSymbolTableRecord
100
AcDbViewportTableRecord
  2
*Active
 70
     0
 10
0.0
 20
0.0
 11
1.0
 21
1.0
 12
38.63636363636364
 22
25.0
 13
0.0
 23
0.0
 14
1.0
 24
1.0
 15
0.0
 25
0.0
 16
0.0
 26
0.0
 36
1.0
 17
0.0
 27
0.0
 37
0.0
 40
50.0
 41
1.545454545454545
 42
50.0
 43
0.0
 44
0.0
 50
0.0
 51
0.0
 71
     0
 72
   100
 73
     1
 74
     1
 75
     0
 76
     0
 77
     0
 78
     0
281
     0
 65
     1
110
0.0
120
0.0
130
0.0
111
1.0
121
0.0
131
0.0
112
0.0
122
1.0
132
0.0
 79
     0
146
0.0
  0
ENDTAB
  0
TABLE
  2
LTYPE
  5
5
330
0
100
AcDbSymbolTable
 70
    59
  0
LTYPE
  5
5B
330
5
100
AcDbSymbolTableRecord
100
AcDbLinetypeTableRecord
  2
ByBlock
 70
     0
  3

 72
    65
 73
     0
 40
0.0
  0
LTYPE
  5
5C
330
5
100
AcDbSymbolTableRecord
100
AcDbLinetypeTableRecord
  2
ByLayer
 70
     0
  3

 72
    65
 73
     0
 40
0.0
  0
LTYPE
  5
5D
330
5
100
AcDbSymbolTableRecord
100
AcDbLinetypeTableRecord
  2
Continuous
 70
     0
  3
Solid line
 72
    65
 73
     0
 40
0.0
  0
LTYPE
  5
7C
330
5
100
AcDbSymbolTableRecord
100
AcDbLinetypeTableRecord
  2
BY_STANDARD
 70
     0
  3
By Standard ____________    ____    ____   _
 72
    65
 73
     6
 40
1.240299999999999
 49
0.6614
 74
     0
 49
-0.0827
 74
     0
 49
0.1654
 74
     0
 49
-0.0827
 74
     0
 49
0.1654
 74
     0
 49
-0.0827
 74
     0
  0
LTYPE
  5
7D
330
5
100
AcDbSymbolTableRecord
100
AcDbLinetypeTableRecord
  2
CHAIN
 70
     0
  3
Chain ____ _ ____ _ ____ _ ____ _ ____ _ ____
 72
    65
 73
     4
 40
0.7087
 49
0.4724000000000001
 74
     0
 49
-0.0591
 74
     0
 49
0.1181
 74
     0
 49
-0.0591
 74
     0
  0
LTYPE
  5
7E
330
5
100
AcDbSymbolTableRecord
100
AcDbLinetypeTableRecord
  2
DASH_DOT
 70
     0
  3
Dash dot __ . __ . __ . __ . __ . __ . __ . __
 72
    65
 73
     4
 40
0.37
 49
0.24
 74
     0
 49
-0.06
 74
     0
 49
0.01
 74
     0
 49
-0.06
 74
     0
  0
LTYPE
  5
7F
330
5
100
AcDbSymbolTableRecord
100
AcDbLinetypeTableRecord
  2
DOUBLE_DASH_DOT
 70
     0
  3
Double-Dash Dot __ __ . __ __ . __ __ . __ _
 72
    65
 73
     6
 40
0.4398
 49
0.24
 74
     0
 49
-0.06
 74
     0
 49
0.0098
 74
     0
 49
-0.06
 74
     0
 49
0.01
 74
     0
 49
-0.06
 74
     0
  0
LTYPE
  5
80
330
5
100
AcDbSymbolTableRecord
100
AcDbLinetypeTableRecord
  2
DASH_TRIPLE_DOT
 70
     0
  3
Dash Triple-Dot _ . . . _ . . . _ . . . _
 72
    65
 73
     8
 40
0.51
 49
0.24
 74
     0
 49
-0.06
 74
     0
 49
0.01
 74
     0
 49
-0.06
 74
     0
 49
0.01
 74
     0
 49
-0.06
 74
     0
 49
0.01
 74
     0
 49
-0.06
 74
     0
  0
LTYPE
  5
81
330
5
100
AcDbSymbolTableRecord
100
AcDbLinetypeTableRecord
  2
DASHED
 70
     0
  3
Dashed __ __ __ __ __ __ __ __ __ __ __ __ __ _
 72
    65
 73
     2
 40
0.2067
 49
0.1654
 74
     0
 49
-0.0413
 74
     0
  0
LTYPE
  5
82
330
5
100
AcDbSymbolTableRecord
100
AcDbLinetypeTableRecord
  2
DASH_DOUBLE_DOT
 70
     0
  3
Dash Double-Dot __ . . __ . . __ . . __ . .
 72
    65
 73
     6
 40
0.4398
 49
0.24
 74
     0
 49
-0.06
 74
     0
 49
0.0098
 74
     0
 49
-0.06
 74
     0
 49
0.01
 74
     0
 49
-0.06
 74
     0
  0
LTYPE
  5
83
330
5
100
AcDbSymbolTableRecord
100
AcDbLinetypeTableRecord
  2
DASHED_SPACE
 70
     0
  3
Dashed Space __ __ __ __ __ __ __ __ __ __ __ _
 72
    65
 73
     2
 40
0.2067
 49
0.1654
 74
     0
 49
-0.0413
 74
     0
  0
LTYPE
  5
84
330
5
100
AcDbSymbolTableRecord
100
AcDbLinetypeTableRecord
  2
DOTTED
 70
     0
  3
Dotted . . . . . . . . . . . . . . . . . . . . 
 72
    65
 73
     2
 40
0.0482
 49
0.0069
 74
     0
 49
-0.0413
 74
     0
  0
LTYPE
  5
85
330
5
100
AcDbSymbolTableRecord
100
AcDbLinetypeTableRecord
  2
DOUBLE_DASH_CHAIN
 70
     0
  3
Double-Dash Chain ______  __  __  ______  __  _
 72
    65
 73
     6
 40
1.240299999999999
 49
0.6614
 74
     0
 49
-0.0827
 74
     0
 49
0.1654
 74
     0
 49
-0.0827
 74
     0
 49
0.1654
 74
     0
 49
-0.0827
 74
     0
  0
LTYPE
  5
87
330
5
100
AcDbSymbolTableRecord
100
AcDbLinetypeTableRecord
  2
DOUBLE_DASH_DOUBLE_DOT
 70
     0
  3
Double-Dash Double-dot _ _ . . _ _ . . _
 72
    65
 73
     8
 40
0.7400000000000001
 49
0.24
 74
     0
 49
-0.06
 74
     0
 49
0.24
 74
     0
 49
-0.06
 74
     0
 49
0.01
 74
     0
 49
-0.06
 74
     0
 49
0.01
 74
     0
 49
-0.06
 74
     0
  0
LTYPE
  5
88
330
5
100
AcDbSymbolTableRecord
100
AcDbLinetypeTableRecord
  2
DOUBLE_DASH_TRIPLE_DOT
 70
     0
  3
Double Dash Triple Dot __ __ . . . __ __ . .
 72
    65
 73
    10
 40
0.8100000000000001
 49
0.24
 74
     0
 49
-0.06
 74
     0
 49
0.24
 74
     0
 49
-0.06
 74
     0
 49
0.01
 74
     0
 49
-0.06
 74
     0
 49
0.01
 74
     0
 49
-0.06
 74
     0
 49
0.01
 74
     0
 49
-0.06
 74
     0
  0
LTYPE
  5
89
330
5
100
AcDbSymbolTableRecord
100
AcDbLinetypeTableRecord
  2
LONG_DASH_DOTTED
 70
     0
  3
Long Dash Dotted ____ . ____ . ____ . ____ . _
 72
    65
 73
     4
 40
0.3543
 49
0.2362
 74
     0
 49
-0.0295
 74
     0
 49
0.0591
 74
     0
 49
-0.0295
 74
     0
  0
LTYPE
  5
8A
330
5
100
AcDbSymbolTableRecord
100
AcDbLinetypeTableRecord
  2
LONG_DASH_DOUBLE_DOT
 70
     0
  3
Long Dash Double Dot ________  .  .  ________  
 72
    65
 73
     6
 40
0.6799999999999999
 49
0.48
 74
     0
 49
-0.06
 74
     0
 49
0.01
 74
     0
 49
-0.06
 74
     0
 49
0.01
 74
     0
 49
-0.06
 74
     0
  0
LTYPE
  5
8B
330
5
100
AcDbSymbolTableRecord
100
AcDbLinetypeTableRecord
  2
LONG_DASH_TRIPLE_DOT
 70
     0
  3
Long Dash Triple Dot ____ ... ____ ... ____
 72
    65
 73
     8
 40
0.3689
 49
0.2362
 74
     0
 49
-0.0295
 74
     0
 49
0.0049
 74
     0
 49
-0.0295
 74
     0
 49
0.0049
 74
     0
 49
-0.0295
 74
     0
 49
0.0049
 74
     0
 49
-0.0295
 74
     0
  0
LTYPE
  5
8C
330
5
100
AcDbSymbolTableRecord
100
AcDbLinetypeTableRecord
  2
BORDER
 70
     0
  3
Border __ __ . __ __ . __ __ . __ __ . __ __ .
 72
    65
 73
     6
 40
1.75
 49
0.5
 74
     0
 49
-0.25
 74
     0
 49
0.5
 74
     0
 49
-0.25
 74
     0
 49
0.0
 74
     0
 49
-0.25
 74
     0
  0
LTYPE
  5
8D
330
5
100
AcDbSymbolTableRecord
100
AcDbLinetypeTableRecord
  2
BORDER2
 70
     0
  3
Border (.5x) __.__.__.__.__.__.__.__.__.__.__.
 72
    65
 73
     6
 40
0.875
 49
0.25
 74
     0
 49
-0.125
 74
     0
 49
0.25
 74
     0
 49
-0.125
 74
     0
 49
0.0
 74
     0
 49
-0.125
 74
     0
  0
LTYPE
  5
8E
330
5
100
AcDbSymbolTableRecord
100
AcDbLinetypeTableRecord
  2
BORDERX2
 70
     0
  3
Border (2x) ____  ____  .  ____  ____  .  ___
 72
    65
 73
     6
 40
3.5
 49
1.0
 74
     0
 49
-0.5
 74
     0
 49
1.0
 74
     0
 49
-0.5
 74
     0
 49
0.0
 74
     0
 49
-0.5
 74
     0
  0
LTYPE
  5
8F
330
5
100
AcDbSymbolTableRecord
100
AcDbLinetypeTableRecord
  2
CENTER
 70
     0
  3
Center ____ _ ____ _ ____ _ ____ _ ____ _ ____
 72
    65
 73
     4
 40
2.0
 49
1.25
 74
     0
 49
-0.25
 74
     0
 49
0.25
 74
     0
 49
-0.25
 74
     0
  0
LTYPE
  5
90
330
5
100
AcDbSymbolTableRecord
100
AcDbLinetypeTableRecord
  2
CENTER2
 70
     0
  3
Center (.5x) ___ _ ___ _ ___ _ ___ _ ___ _ ___
 72
    65
 73
     4
 40
1.125
 49
0.75
 74
     0
 49
-0.125
 74
     0
 49
0.125
 74
     0
 49
-0.125
 74
     0
  0
LTYPE
  5
91
330
5
100
AcDbSymbolTableRecord
100
AcDbLinetypeTableRecord
  2
CENTERX2
 70
     0
  3
Center (2x) ________  __  ________  __  _____
 72
    65
 73
     4
 40
4.0
 49
2.5
 74
     0
 49
-0.5
 74
     0
 49
0.5
 74
     0
 49
-0.5
 74
     0
  0
LTYPE
  5
92
330
5
100
AcDbSymbolTableRecord
100
AcDbLinetypeTableRecord
  2
DASHDOT2
 70
     0
  3
Dash dot (.5x) _._._._._._._._._._._._._._._.
 72
    65
 73
     4
 40
0.5
 49
0.25
 74
     0
 49
-0.125
 74
     0
 49
0.0
 74
     0
 49
-0.125
 74
     0
  0
LTYPE
  5
93
330
5
100
AcDbSymbolTableRecord
100
AcDbLinetypeTableRecord
  2
DASHDOTX2
 70
     0
  3
Dash dot (2x) ____  .  ____  .  ____  .  ___
 72
    65
 73
     4
 40
2.0
 49
1.0
 74
     0
 49
-0.5
 74
     0
 49
0.0
 74
     0
 49
-0.5
 74
     0
  0
LTYPE
  5
95
330
5
100
AcDbSymbolTableRecord
100
AcDbLinetypeTableRecord
  2
DASHED2
 70
     0
  3
Dashed (.5x) _ _ _ _ _ _ _ _ _ _ _ _ _ _ _ _ _
 72
    65
 73
     2
 40
0.375
 49
0.25
 74
     0
 49
-0.125
 74
     0
  0
LTYPE
  5
96
330
5
100
AcDbSymbolTableRecord
100
AcDbLinetypeTableRecord
  2
DASHEDX2
 70
     0
  3
Dashed (2x) ____  ____  ____  ____  ____  ___
 72
    65
 73
     2
 40
1.5
 49
1.0
 74
     0
 49
-0.5
 74
     0
  0
LTYPE
  5
97
330
5
100
AcDbSymbolTableRecord
100
AcDbLinetypeTableRecord
  2
DIVIDE
 70
     0
  3
Divide ____ . . ____ . . ____ . . ____ . . ____
 72
    65
 73
     6
 40
1.25
 49
0.5
 74
     0
 49
-0.25
 74
     0
 49
0.0
 74
     0
 49
-0.25
 74
     0
 49
0.0
 74
     0
 49
-0.25
 74
     0
  0
LTYPE
  5
98
330
5
100
AcDbSymbolTableRecord
100
AcDbLinetypeTableRecord
  2
DIVIDE2
 70
     0
  3
Divide (.5x) __..__..__..__..__..__..__..__.._
 72
    65
 73
     6
 40
0.625
 49
0.25
 74
     0
 49
-0.125
 74
     0
 49
0.0
 74
     0
 49
-0.125
 74
     0
 49
0.0
 74
     0
 49
-0.125
 74
     0
  0
LTYPE
  5
99
330
5
100
AcDbSymbolTableRecord
100
AcDbLinetypeTableRecord
  2
DIVIDEX2
 70
     0
  3
Divide (2x) ________  .  .  ________  .  .  _
 72
    65
 73
     6
 40
2.5
 49
1.0
 74
     0
 49
-0.5
 74
     0
 49
0.0
 74
     0
 49
-0.5
 74
     0
 49
0.0
 74
     0
 49
-0.5
 74
     0
  0
LTYPE
  5
9A
330
5
100
AcDbSymbolTableRecord
100
AcDbLinetypeTableRecord
  2
DOT
 70
     0
  3
Dot . . . . . . . . . . . . . . . . . . . . . .
 72
    65
 73
     2
 40
0.25
 49
0.0
 74
     0
 49
-0.25
 74
     0
  0
LTYPE
  5
9B
330
5
100
AcDbSymbolTableRecord
100
AcDbLinetypeTableRecord
  2
DOT2
 70
     0
  3
Dot (.5x) .....................................
 72
    65
 73
     2
 40
0.125
 49
0.0
 74
     0
 49
-0.125
 74
     0
  0
LTYPE
  5
9C
330
5
100
AcDbSymbolTableRecord
100
AcDbLinetypeTableRecord
  2
DOTX2
 70
     0
  3
Dot (2x) .  .  .  .  .  .  .  .  .  .  .  .  . 
 72
    65
 73
     2
 40
0.5
 49
0.0
 74
     0
 49
-0.5
 74
     0
  0
LTYPE
  5
9D
330
5
100
AcDbSymbolTableRecord
100
AcDbLinetypeTableRecord
  2
HIDDEN
 70
     0
  3
Hidden __ __ __ __ __ __ __ __ __ __ __ __ __ _
 72
    65
 73
     2
 40
0.375
 49
0.25
 74
     0
 49
-0.125
 74
     0
  0
LTYPE
  5
9E
330
5
100
AcDbSymbolTableRecord
100
AcDbLinetypeTableRecord
  2
HIDDEN2
 70
     0
  3
Hidden (.5x) _ _ _ _ _ _ _ _ _ _ _ _ _ _ _ _ _
 72
    65
 73
     2
 40
0.1875
 49
0.125
 74
     0
 49
-0.0625
 74
     0
  0
LTYPE
  5
9F
330
5
100
AcDbSymbolTableRecord
100
AcDbLinetypeTableRecord
  2
HIDDENX2
 70
     0
  3
Hidden (2x) ____ ____ ____ ____ ____ ____ ____
 72
    65
 73
     2
 40
0.75
 49
0.5
 74
     0
 49
-0.25
 74
     0
  0
LTYPE
  5
A0
330
5
100
AcDbSymbolTableRecord
100
AcDbLinetypeTableRecord
  2
PHANTOM
 70
     0
  3
Phantom ______  __  __  ______  __  __  ______
 72
    65
 73
     6
 40
2.5
 49
1.25
 74
     0
 49
-0.25
 74
     0
 49
0.25
 74
     0
 49
-0.25
 74
     0
 49
0.25
 74
     0
 49
-0.25
 74
     0
  0
LTYPE
  5
A1
330
5
100
AcDbSymbolTableRecord
100
AcDbLinetypeTableRecord
  2
PHANTOM2
 70
     0
  3
Phantom (.5x) ___ _ _ ___ _ _ ___ _ _ ___ _ _
 72
    65
 73
     6
 40
1.25
 49
0.625
 74
     0
 49
-0.125
 74
     0
 49
0.125
 74
     0
 49
-0.125
 74
     0
 49
0.125
 74
     0
 49
-0.125
 74
     0
  0
LTYPE
  5
A2
330
5
100
AcDbSymbolTableRecord
100
AcDbLinetypeTableRecord
  2
PHANTOMX2
 70
     0
  3
Phantom (2x) ____________    ____    ____   _
 72
    65
 73
     6
 40
5.0
 49
2.5
 74
     0
 49
-0.5
 74
     0
 49
0.5
 74
     0
 49
-0.5
 74
     0
 49
0.5
 74
     0
 49
-0.5
 74
     0
  0
LTYPE
  5
A3
330
5
100
AcDbSymbolTableRecord
100
AcDbLinetypeTableRecord
  2
ACAD_ISO02W100
 70
     0
  3
ISO dash __ __ __ __ __ __ __ __ __ __ __ __ __
 72
    65
 73
     2
 40
0.59
 49
0.47
 74
     0
 49
-0.12
 74
     0
  0
LTYPE
  5
A4
330
5
100
AcDbSymbolTableRecord
100
AcDbLinetypeTableRecord
  2
ACAD_ISO03W100
 70
     0
  3
ISO dash space __    __    __    __    __    __
 72
    65
 73
     2
 40
1.179999999999999
 49
0.47
 74
     0
 49
-0.71
 74
     0
  0
LTYPE
  5
A5
330
5
100
AcDbSymbolTableRecord
100
AcDbLinetypeTableRecord
  2
ACAD_ISO04W100
 70
     0
  3
ISO long-dash dot ____ . ____ . ____ . ____ . _
 72
    65
 73
     4
 40
1.179999999999999
 49
0.9399999999999998
 74
     0
 49
-0.12
 74
     0
 49
0.0
 74
     0
 49
-0.12
 74
     0
  0
LTYPE
  5
A6
330
5
100
AcDbSymbolTableRecord
100
AcDbLinetypeTableRecord
  2
ACAD_ISO05W100
 70
     0
  3
ISO long-dash double-dot ____ .. ____ .. ____ .
 72
    65
 73
     6
 40
1.299999999999999
 49
0.9399999999999998
 74
     0
 49
-0.12
 74
     0
 49
0.0
 74
     0
 49
-0.12
 74
     0
 49
0.0
 74
     0
 49
-0.12
 74
     0
  0
LTYPE
  5
A7
330
5
100
AcDbSymbolTableRecord
100
AcDbLinetypeTableRecord
  2
ACAD_ISO06W100
 70
     0
  3
ISO long-dash triple-dot ____ ... ____ ... ____
 72
    65
 73
     8
 40
1.419999999999999
 49
0.9399999999999998
 74
     0
 49
-0.12
 74
     0
 49
0.0
 74
     0
 49
-0.12
 74
     0
 49
0.0
 74
     0
 49
-0.12
 74
     0
 49
0.0
 74
     0
 49
-0.12
 74
     0
  0
LTYPE
  5
A8
330
5
100
AcDbSymbolTableRecord
100
AcDbLinetypeTableRecord
  2
ACAD_ISO07W100
 70
     0
  3
ISO dot . . . . . . . . . . . . . . . . . . . .
 72
    65
 73
     2
 40
0.12
 49
0.0
 74
     0
 49
-0.12
 74
     0
  0
LTYPE
  5
A9
330
5
100
AcDbSymbolTableRecord
100
AcDbLinetypeTableRecord
  2
ACAD_ISO08W100
 70
     0
  3
ISO long-dash short-dash ____ __ ____ __ ____ _
 72
    65
 73
     4
 40
0.95
 49
0.47
 74
     0
 49
-0.12
 74
     0
 49
0.24
 74
     0
 49
-0.12
 74
     0
  0
LTYPE
  5
AA
330
5
100
AcDbSymbolTableRecord
100
AcDbLinetypeTableRecord
  2
ACAD_ISO09W100
 70
     0
  3
ISO long-dash double-short-dash ____ __ __ ____
 72
    65
 73
     6
 40
1.31
 49
0.47
 74
     0
 49
-0.12
 74
     0
 49
0.24
 74
     0
 49
-0.12
 74
     0
 49
0.24
 74
     0
 49
-0.12
 74
     0
  0
LTYPE
  5
AB
330
5
100
AcDbSymbolTableRecord
100
AcDbLinetypeTableRecord
  2
ACAD_ISO10W100
 70
     0
  3
ISO dash dot __ . __ . __ . __ . __ . __ . __ .
 72
    65
 73
     4
 40
0.71
 49
0.47
 74
     0
 49
-0.12
 74
     0
 49
0.0
 74
     0
 49
-0.12
 74
     0
  0
LTYPE
  5
AC
330
5
100
AcDbSymbolTableRecord
100
AcDbLinetypeTableRecord
  2
ACAD_ISO11W100
 70
     0
  3
ISO double-dash dot __ __ . __ __ . __ __ . __ 
 72
    65
 73
     6
 40
1.299999999999999
 49
0.47
 74
     0
 49
-0.12
 74
     0
 49
0.47
 74
     0
 49
-0.12
 74
     0
 49
0.0
 74
     0
 49
-0.12
 74
     0
  0
LTYPE
  5
AD
330
5
100
AcDbSymbolTableRecord
100
AcDbLinetypeTableRecord
  2
ACAD_ISO12W100
 70
     0
  3
ISO dash double-dot __ . . __ . . __ . . __ . .
 72
    65
 73
     6
 40
0.8299999999999998
 49
0.47
 74
     0
 49
-0.12
 74
     0
 49
0.0
 74
     0
 49
-0.12
 74
     0
 49
0.0
 74
     0
 49
-0.12
 74
     0
  0
LTYPE
  5
AE
330
5
100
AcDbSymbolTableRecord
100
AcDbLinetypeTableRecord
  2
ACAD_ISO13W100
 70
     0
  3
ISO double-dash double-dot __ __ . . __ __ . . 
 72
    65
 73
     8
 40
1.419999999999999
 49
0.47
 74
     0
 49
-0.12
 74
     0
 49
0.47
 74
     0
 49
-0.12
 74
     0
 49
0.0
 74
     0
 49
-0.12
 74
     0
 49
0.0
 74
     0
 49
-0.12
 74
     0
  0
LTYPE
  5
AF
330
5
100
AcDbSymbolTableRecord
100
AcDbLinetypeTableRecord
  2
ACAD_ISO14W100
 70
     0
  3
ISO dash triple-dot __ . . . __ . . . __ . . . 
 72
    65
 73
     8
 40
0.95
 49
0.47
 74
     0
 49
-0.12
 74
     0
 49
0.0
 74
     0
 49
-0.12
 74
     0
 49
0.0
 74
     0
 49
-0.12
 74
     0
 49
0.0
 74
     0
 49
-0.12
 74
     0
  0
LTYPE
  5
B0
330
5
100
AcDbSymbolTableRecord
100
AcDbLinetypeTableRecord
  2
ACAD_ISO15W100
 70
     0
  3
ISO double-dash triple-dot __ __ . . . __ __ . 
 72
    65
 73
    10
 40
1.539999999999999
 49
0.47
 74
     0
 49
-0.12
 74
     0
 49
0.47
 74
     0
 49
-0.12
 74
     0
 49
0.0
 74
     0
 49
-0.12
 74
     0
 49
0.0
 74
     0
 49
-0.12
 74
     0
 49
0.0
 74
     0
 49
-0.12
 74
     0
  0
LTYPE
  5
B3
330
5
100
AcDbSymbolTableRecord
100
AcDbLinetypeTableRecord
  2
FENCELINE1
 70
     0
  3
Fenceline circle ----0-----0----0-----0----0---
 72
    65
 73
     4
 40
1.45
 49
0.25
 74
     0
 49
-0.1
 74
     4
 75
   133
340
B2
 46
0.1
 50
0.0
 44
-0.1
 45
0.0
 49
-0.1
 74
     0
 49
1.0
 74
     0
  0
LTYPE
  5
B4
330
5
100
AcDbSymbolTableRecord
100
AcDbLinetypeTableRecord
  2
FENCELINE2
 70
     0
  3
Fenceline square ----[]-----[]----[]-----[]----
 72
    65
 73
     4
 40
1.45
 49
0.25
 74
     0
 49
-0.1
 74
     4
 75
   132
340
B2
 46
0.1
 50
0.0
 44
-0.1
 45
0.0
 49
-0.1
 74
     0
 49
1.0
 74
     0
  0
LTYPE
  5
B5
330
5
100
AcDbSymbolTableRecord
100
AcDbLinetypeTableRecord
  2
TRACKS
 70
     0
  3
Tracks -|-|-|-|-|-|-|-|-|-|-|-|-|-|-|-|-|-|-|-|
 72
    65
 73
     2
 40
0.3
 49
0.15
 74
     4
 75
   130
340
B2
 46
0.25
 50
0.0
 44
0.0
 45
0.0
 49
0.15
 74
     0
  0
LTYPE
  5
B6
330
5
100
AcDbSymbolTableRecord
100
AcDbLinetypeTableRecord
  2
BATTING
 70
     0
  3
Batting SSSSSSSSSSSSSSSSSSSSSSSSSSSSSSSSSSSSSSS
 72
    65
 73
     4
 40
0.4001000000000001
 49
0.0001
 74
     0
 49
-0.1
 74
     4
 75
   134
340
B2
 46
0.1
 50
0.0
 44
-0.1
 45
0.0
 49
-0.2
 74
     4
 75
   134
340
B2
 46
0.1
 50
180.0
 44
0.1
 45
0.0
 49
-0.1
 74
     0
  0
LTYPE
  5
B7
330
5
100
AcDbSymbolTableRecord
100
AcDbLinetypeTableRecord
  2
HOT_WATER_SUPPLY
 70
     0
  3
Hot water supply ---- HW ---- HW ---- HW ----
 72
    65
 73
     3
 40
0.9
 49
0.5
 74
     0
 49
-0.2
 74
     2
 75
     0
340
55
 46
0.1
 50
0.0
 44
-0.1
 45
-0.05
  9
HW
 49
-0.2
 74
     0
  0
LTYPE
  5
B8
330
5
100
AcDbSymbolTableRecord
100
AcDbLinetypeTableRecord
  2
GAS_LINE
 70
     0
  3
Gas line ----GAS----GAS----GAS----GAS----GAS---
 72
    65
 73
     3
 40
0.95
 49
0.5
 74
     0
 49
-0.2
 74
     2
 75
     0
340
55
 46
0.1
 50
0.0
 44
-0.1
 45
-0.05
  9
GAS
 49
-0.25
 74
     0
  0
LTYPE
  5
B9
330
5
100
AcDbSymbolTableRecord
100
AcDbLinetypeTableRecord
  2
ZIGZAG
 70
     0
  3
Zig zag /\/\/\/\/\/\/\/\/\/\/\/\/\/\/\/\/\/\/\/
 72
    65
 73
     4
 40
0.8001000000000001
 49
0.0001
 74
     0
 49
-0.2
 74
     4
 75
   131
340
B2
 46
0.2
 50
0.0
 44
-0.2
 45
0.0
 49
-0.4
 74
     4
 75
   131
340
B2
 46
0.2
 50
180.0
 44
0.2
 45
0.0
 49
-0.2
 74
     0
  0
ENDTAB
  0
TABLE
  2
LAYER
  5
2
330
0
100
AcDbSymbolTable
 70
    27
  0
LAYER
  5
54
330
2
100
AcDbSymbolTableRecord
100
AcDbLayerTableRecord
  2
0
 70
     0
 62
     7
  6
Continuous
370
    18
390
F
  0
LAYER
  5
C3
330
2
100
AcDbSymbolTableRecord
100
AcDbLayerTableRecord
  2
Dimension (ANSI)
 70
     0
 62
     7
  6
Continuous
370
    13
390
F
  0
LAYER
  5
C5
330
2
100
AcDbSymbolTableRecord
100
AcDbLayerTableRecord
  2
Hidden (ANSI)
 70
     0
 62
     7
  6
DASHED
370
    15
390
F
  0
LAYER
  5
CC
330
2
100
AcDbSymbolTableRecord
100
AcDbLayerTableRecord
  2
Symbol (ANSI)
 70
     0
 62
     7
  6
Continuous
370
    18
390
F
  0
LAYER
  5
CF
330
2
100
AcDbSymbolTableRecord
100
AcDbLayerTableRecord
  2
Visible (ANSI)
 70
     0
 62
     7
  6
Continuous
370
    13
390
F
  0
LAYER
  5
D0
330
2
100
AcDbSymbolTableRecord
100
AcDbLayerTableRecord
  2
Visible Narrow (ANSI)
 70
     0
 62
     7
  6
Continuous
370
    18
390
F
  0
LAYER
  5
1AA
330
2
100
AcDbSymbolTableRecord
100
AcDbLayerTableRecord
  2
Defpoints
 70
     0
 62
     7
  6
Continuous
290
     0
370
    -3
390
F
  0
ENDTAB
  0
TABLE
  2
STYLE
  5
3
330
0
100
AcDbSymbolTable
 70
    17
  0
STYLE
  5
55
330
3
100
AcDbSymbolTableRecord
100
AcDbTextStyleTableRecord
  2
Standard
 70
     0
 40
0.0
 41
1.0
 50
0.0
 71
     0
 42
0.2
  3
txt
  4

  0
STYLE
  5
5A
330
3
100
AcDbSymbolTableRecord
100
AcDbTextStyleTableRecord
  2
Annotative
 70
     0
 40
0.0
 41
1.0
 50
0.0
 71
     0
 42
0.2
  3
txt
  4

1001
AcadAnnotative
1000
AnnotativeData
1002
{
1070
     1
1070
     1
1002
}
  0
STYLE
  5
B2
330
3
100
AcDbSymbolTableRecord
100
AcDbTextStyleTableRecord
  2

 70
     1
 40
0.0
 41
1.0
 50
0.0
 71
     0
 42
0.2
  3
ltypeshp.shx
  4

  0
STYLE
  5
D4
330
3
100
AcDbSymbolTableRecord
100
AcDbTextStyleTableRecord
  2
ITALICC_120
 70
     0
 40
0.0
 41
1.0
 50
0.0
 71
     0
 42
0.2
  3
italicc.shx
  4

  0
STYLE
  5
D5
330
3
100
AcDbSymbolTableRecord
100
AcDbTextStyleTableRecord
  2
Label Text (ANSI)
 70
     0
 40
0.0
 41
1.0
 50
0.0
 71
     0
 42
0.2
  3
RomanS.shx
  4

  0
STYLE
  5
D6
330
3
100
AcDbSymbolTableRecord
100
AcDbTextStyleTableRecord
  2
Note Text (ANSI)
 70
     0
 40
0.0
 41
1.0
 50
0.0
 71
     0
 42
0.2
  3
RomanS.shx
  4

  0
STYLE
  5
D7
330
3
100
AcDbSymbolTableRecord
100
AcDbTextStyleTableRecord
  2
ROMANS
 70
     0
 40
0.0
 41
1.0
 50
0.0
 71
     0
 42
0.2
  3
romans.shx
  4

  0
STYLE
  5
D8
330
3
100
AcDbSymbolTableRecord
100
AcDbTextStyleTableRecord
  2
SANSSERIF_114
 70
     0
 40
0.0
 41
1.0
 50
0.0
 71
     0
 42
0.2
  3
TAHOMA.TTF
  4

1001
ACAD
1000
Tahoma
1071
      256
  0
STYLE
  5
D9
330
3
100
AcDbSymbolTableRecord
100
AcDbTextStyleTableRecord
  2
SANSSERIF_117
 70
     0
 40
0.0
 41
1.0
 50
0.0
 71
     0
 42
0.2
  3
TAHOMA.TTF
  4

1001
ACAD
1000
Tahoma
1071
      256
  0
STYLE
  5
DA
330
3
100
AcDbSymbolTableRecord
100
AcDbTextStyleTableRecord
  2
STANDARDAM_ANSI
 70
     0
 40
0.0
 41
1.0
 50
0.0
 71
     0
 42
0.2
  3
txt.shx
  4

  0
STYLE
  5
DB
330
3
100
AcDbSymbolTableRecord
100
AcDbTextStyleTableRecord
  2
StandardAM_ANSI$0
 70
     0
 40
0.0
 41
1.0
 50
0.0
 71
     0
 42
0.2
  3
txt.shx
  4

  0
STYLE
  5
DC
330
3
100
AcDbSymbolTableRecord
100
AcDbTextStyleTableRecord
  2
STANDARDAM_ANSI$3
 70
     0
 40
0.0
 41
1.0
 50
0.0
 71
     0
 42
0.2
  3
txt.shx
  4

  0
STYLE
  5
DD
330
3
100
AcDbSymbolTableRecord
100
AcDbTextStyleTableRecord
  2
STANDARDAM_ANSI$4
 70
     0
 40
0.0
 41
1.0
 50
0.0
 71
     0
 42
0.2
  3
txt.shx
  4

  0
STYLE
  5
DE
330
3
100
AcDbSymbolTableRecord
100
AcDbTextStyleTableRecord
  2
STANDARDAM_ANSI$7
 70
     0
 40
0.0
 41
1.0
 50
0.0
 71
     0
 42
0.2
  3
txt.shx
  4

  0
STYLE
  5
DF
330
3
100
AcDbSymbolTableRecord
100
AcDbTextStyleTableRecord
  2
STANDARDAM_ANSI$SF
 70
     0
 40
0.0
 41
1.0
 50
0.0
 71
     0
 42
0.2
  3
txt.shx
  4

  0
STYLE
  5
E0
330
3
100
AcDbSymbolTableRecord
100
AcDbTextStyleTableRecord
  2
STANDARDAM_ANSI$SH
 70
     0
 40
0.0
 41
1.0
 50
0.0
 71
     0
 42
0.2
  3
txt.shx
  4

  0
STYLE
  5
E1
330
3
100
AcDbSymbolTableRecord
100
AcDbTextStyleTableRecord
  2
STANDARDSTANDARD
 70
     0
 40
0.0
 41
1.0
 50
0.0
 71
     0
 42
0.2
  3
txt.shx
  4

  0
ENDTAB
  0
TABLE
  2
VIEW
  5
6
330
0
100
AcDbSymbolTable
 70
     0
  0
ENDTAB
  0
TABLE
  2
UCS
  5
7
330
0
100
AcDbSymbolTable
 70
     0
  0
ENDTAB
  0
TABLE
  2
APPID
  5
9
330
0
100
AcDbSymbolTable
 70
     4
  0
APPID
  5
56
330
9
100
AcDbSymbolTableRecord
100
AcDbRegAppTableRecord
  2
ACAD
 70
     0
  0
APPID
  5
5E
330
9
100
AcDbSymbolTableRecord
100
AcDbRegAppTableRecord
  2
AcadAnnotative
 70
     0
  0
APPID
  5
418
330
9
100
AcDbSymbolTableRecord
100
AcDbRegAppTableRecord
  2
ACAD_DSTYLE_DIMRADIAL_EXTENSION
 70
     0
  0
APPID
  5
DC8
330
9
100
AcDbSymbolTableRecord
100
AcDbRegAppTableRecord
  2
ACAD_MLEADERVER
 70
     0
  0
ENDTAB
  0
TABLE
  2
DIMSTYLE
  5
A
330
0
100
AcDbSymbolTable
 70
    27
100
AcDbDimStyleTable
 71
     2
340
F6
340
58
  0
DIMSTYLE
105
58
330
A
100
AcDbSymbolTableRecord
100
AcDbDimStyleTableRecord
  2
STANDARD
 70
     0
 41
0.1800000071525573
 42
0.0625
140
0.1800000071525574
144
1.0
147
0.0900000035762787
176
   256
177
   256
178
   256
274
     3
340
55
371
    -1
372
    -1
  0
DIMSTYLE
105
59
330
A
100
AcDbSymbolTableRecord
100
AcDbDimStyleTableRecord
  2
Annotative
 70
     0
340
55
1001
AcadAnnotative
1000
AnnotativeData
1002
{
1070
     1
1070
     1
1002
}
  0
DIMSTYLE
105
E2
330
A
100
AcDbSymbolTableRecord
100
AcDbDimStyleTableRecord
  2
AM_ANSI
 70
     0
  4
 mm
 40
4.545454545454545
 41
0.119999997317791
 42
0.05
 43
0.5
 44
0.1
 45
0.00000001
 78
     4
 79
     2
140
0.1200000047683716
146
0.7099999453624112
147
0.0599999986588955
176
   256
177
   256
178
     2
284
     4
340
DA
371
    -1
372
    -1
  0
DIMSTYLE
105
E3
330
A
100
AcDbSymbolTableRecord
100
AcDbDimStyleTableRecord
  2
AM_ANSI$7
 70
     0
  4
 mm
 40
4.545454545454545
 41
0.119999997317791
 42
0.05
 43
0.5
 44
0.1
 45
0.00000001
 78
     4
 79
     2
140
0.1200000047683716
146
0.7099999453624112
147
0.0599999986588955
176
   256
177
   256
178
     2
284
     4
340
DA
371
    -1
372
    -1
  0
DIMSTYLE
105
E4
330
A
100
AcDbSymbolTableRecord
100
AcDbDimStyleTableRecord
  2
AM_ANSI$0
 70
     0
  4
 mm
 40
4.545454545454545
 41
0.119999997317791
 42
0.05
 43
0.5
 44
0.1
 45
0.00000001
 78
     4
 79
     2
140
0.1200000047683716
146
0.7099999453624112
147
0.0599999986588955
176
   256
177
   256
178
     2
284
     4
340
DB
371
    -1
372
    -1
  0
DIMSTYLE
105
E5
330
A
100
AcDbSymbolTableRecord
100
AcDbDimStyleTableRecord
  2
AM_ANSI$0$7
 70
     0
  4
 mm
 40
4.545454545454545
 41
0.119999997317791
 42
0.05
 43
0.5
 44
0.1
 45
0.00000001
 78
     4
 79
     2
140
0.1200000047683716
146
0.7099999453624112
147
0.0599999986588955
176
   256
177
   256
178
     2
284
     4
340
DB
371
    -1
372
    -1
  0
DIMSTYLE
105
E6
330
A
100
AcDbSymbolTableRecord
100
AcDbDimStyleTableRecord
  2
AM_ANSI$3
 70
     0
  4
 mm
 40
4.545454545454545
 41
0.119999997317791
 42
0.05
 43
0.5
 44
0.1
 45
0.00000001
 78
     4
 79
     2
140
0.1200000047683716
146
0.7099999453624112
147
0.0599999986588955
176
   256
177
   256
178
     2
284
     4
340
DC
371
    -1
372
    -1
  0
DIMSTYLE
105
E7
330
A
100
AcDbSymbolTableRecord
100
AcDbDimStyleTableRecord
  2
AM_ANSI$3$7
 70
     0
  4
 mm
 40
4.545454545454545
 41
0.119999997317791
 42
0.05
 43
0.5
 44
0.1
 45
0.00000001
 78
     4
 79
     2
140
0.1200000047683716
146
0.7099999453624112
147
0.0599999986588955
176
   256
177
   256
178
     2
284
     4
340
DC
371
    -1
372
    -1
  0
DIMSTYLE
105
E8
330
A
100
AcDbSymbolTableRecord
100
AcDbDimStyleTableRecord
  2
AM_ANSI$4
 70
     0
  4
 mm
 40
4.545454545454545
 41
0.119999997317791
 42
0.05
 43
0.5
 44
0.1
 45
0.00000001
 78
     4
 79
     2
140
0.1200000047683716
146
0.7099999453624112
147
0.0599999986588955
176
   256
177
   256
178
     2
284
     4
340
DD
371
    -1
372
    -1
  0
DIMSTYLE
105
E9
330
A
100
AcDbSymbolTableRecord
100
AcDbDimStyleTableRecord
  2
AM_ANSI$4$7
 70
     0
  4
 mm
 40
4.545454545454545
 41
0.119999997317791
 42
0.05
 43
0.5
 44
0.1
 45
0.00000001
 78
     4
 79
     2
140
0.1200000047683716
146
0.7099999453624112
147
0.0599999986588955
176
   256
177
   256
178
     2
284
     4
340
DD
371
    -1
372
    -1
  0
DIMSTYLE
105
EA
330
A
100
AcDbSymbolTableRecord
100
AcDbDimStyleTableRecord
  2
AM_ANSI$SF
 70
     0
  4
 mm
 40
4.545454545454545
 41
0.119999997317791
 42
0.05
 43
0.5
 44
0.1
 45
0.00000001
 75
     1
 76
     1
 78
     4
 79
     2
140
0.1200000047683716
146
0.7099999453624112
147
0.0599999986588955
176
   256
177
   256
178
     2
284
     4
340
DF
371
    -1
372
    -1
  0
DIMSTYLE
105
EB
330
A
100
AcDbSymbolTableRecord
100
AcDbDimStyleTableRecord
  2
AM_ANSI$SF$7
 70
     0
  4
 mm
 40
4.545454545454545
 41
0.119999997317791
 42
0.05
 43
0.5
 44
0.1
 45
0.00000001
 75
     1
 76
     1
 78
     4
 79
     2
140
0.1200000047683716
146
0.7099999453624112
147
0.0599999986588955
176
   256
177
   256
178
     2
284
     4
340
DF
371
    -1
372
    -1
  0
DIMSTYLE
105
EC
330
A
100
AcDbSymbolTableRecord
100
AcDbDimStyleTableRecord
  2
AM_ANSI$SH
 70
     0
  4
 mm
 40
4.545454545454545
 41
0.119999997317791
 42
0.05
 43
0.5
 44
0.1
 45
0.00000001
 75
     1
 76
     1
 78
     4
 79
     2
140
0.1200000047683716
146
0.7099999453624112
147
0.0599999986588955
176
   256
177
   256
178
     2
284
     4
340
E0
371
    -1
372
    -1
  0
DIMSTYLE
105
ED
330
A
100
AcDbSymbolTableRecord
100
AcDbDimStyleTableRecord
  2
AM_ANSI$SH$7
 70
     0
  4
 mm
 40
4.545454545454545
 41
0.119999997317791
 42
0.05
 43
0.5
 44
0.1
 45
0.00000001
 75
     1
 76
     1
 78
     4
 79
     2
140
0.1200000047683716
146
0.7099999453624112
147
0.0599999986588955
176
   256
177
   256
178
     2
284
     4
340
E0
371
    -1
372
    -1
  0
DIMSTYLE
105
EE
330
A
100
AcDbSymbolTableRecord
100
AcDbDimStyleTableRecord
  2
Architectural (ANSI)
 70
     0
 40
4.545454545454545
 41
0.0984251946210861
 43
0.2362204724409449
 44
0.125
 45
0.00000001
 46
0.3937007874015748
 78
     3
 79
     3
140
0.1200000047683716
147
0.031496062992126
171
     1
176
   256
177
   256
178
   256
272
     2
274
     1
276
     2
277
     4
284
    12
285
     4
286
    12
340
D6
371
    -1
372
    -1
  0
DIMSTYLE
105
EF
330
A
100
AcDbSymbolTableRecord
100
AcDbDimStyleTableRecord
  2
Architectural (ANSI)$7
 70
     0
 40
4.545454545454545
 41
0.0984251946210861
 43
0.2362204724409449
 44
0.125
 45
0.00000001
 46
0.3937007874015748
 78
     3
 79
     3
140
0.1200000047683716
147
0.031496062992126
171
     1
176
   256
177
   256
178
   256
272
     2
274
     1
276
     2
277
     4
284
    12
285
     4
286
    12
340
D6
371
    -1
372
    -1
  0
DIMSTYLE
105
F0
330
A
100
AcDbSymbolTableRecord
100
AcDbDimStyleTableRecord
  2
Default - Fraction (ANSI)
 70
     0
 40
4.545454545454545
 41
0.0984251946210861
 43
0.2362204724409449
 44
0.125
 45
0.00000001
 46
0.3937007874015748
 79
     3
140
0.1200000047683716
147
0.031496062992126
171
     1
176
   256
177
   256
178
   256
272
     2
274
     1
276
     2
277
     5
284
    12
285
     4
286
    12
340
D6
371
    -1
372
    -1
  0
DIMSTYLE
105
F1
330
A
100
AcDbSymbolTableRecord
100
AcDbDimStyleTableRecord
  2
Default - Fraction (ANSI)$7
 70
     0
 40
4.545454545454545
 41
0.0984251946210861
 43
0.2362204724409449
 44
0.125
 45
0.00000001
 46
0.3937007874015748
 79
     3
140
0.1200000047683716
147
0.031496062992126
171
     1
176
   256
177
   256
178
   256
272
     2
274
     1
276
     2
277
     5
284
    12
285
     4
286
    12
340
D6
371
    -1
372
    -1
  0
DIMSTYLE
105
F2
330
A
100
AcDbSymbolTableRecord
100
AcDbDimStyleTableRecord
  2
Default - mm (ANSI)
 70
     0
 40
4.545454545454545
 41
0.0984251946210861
 42
0.063
 43
0.2362204724409449
 44
0.125
 45
0.00000001
 46
0.3937007874015748
 73
     0
 78
     4
 79
     1
140
0.1200000047683716
143
1.0
144
25.4
147
0.031496062992126
171
     1
176
   256
177
   256
178
   256
179
     1
271
     2
272
     2
274
     1
284
     4
285
     4
340
D6
371
    -1
372
    -1
  0
DIMSTYLE
105
F3
330
A
100
AcDbSymbolTableRecord
100
AcDbDimStyleTableRecord
  2
Default - mm (ANSI)$7
 70
     0
 40
4.545454545454545
 41
0.0984251946210861
 42
0.063
 43
0.2362204724409449
 44
0.125
 45
0.00000001
 46
0.3937007874015748
 73
     0
 78
     4
 79
     1
140
0.1200000047683716
143
1.0
144
25.4
147
0.031496062992126
171
     1
176
   256
177
   256
178
   256
179
     1
271
     2
272
     2
274
     1
284
     4
285
     4
340
D6
371
    -1
372
    -1
  0
DIMSTYLE
105
F4
330
A
100
AcDbSymbolTableRecord
100
AcDbDimStyleTableRecord
  2
Default - mm [in] (ANSI)
 70
     0
  4
 in
 40
4.545454545454545
 41
0.0984251946210861
 42
0.063
 43
0.25
 44
0.125
 45
0.00000001
 46
0.3937007874015748
 73
     0
 78
     4
 79
     1
140
0.1200000047683716
143
0.03937
144
25.4
147
0.031496062992126
170
     1
171
     3
176
   256
177
   256
178
   256
179
     1
271
     2
272
     2
274
     3
284
     4
285
     4
286
     4
340
D6
371
    -1
372
    -1
  0
DIMSTYLE
105
F5
330
A
100
AcDbSymbolTableRecord
100
AcDbDimStyleTableRecord
  2
Default - mm [in] (ANSI)$7
 70
     0
  4
 in
 40
4.545454545454545
 41
0.0984251946210861
 42
0.063
 43
0.25
 44
0.125
 45
0.00000001
 46
0.3937007874015748
 73
     0
 78
     4
 79
     1
140
0.1200000047683716
143
0.03937
144
25.4
147
0.031496062992126
170
     1
171
     3
176
   256
177
   256
178
   256
179
     1
271
     2
272
     2
274
     3
284
     4
285
     4
286
     4
340
D6
371
    -1
372
    -1
  0
DIMSTYLE
105
F6
102
{ACAD_REACTORS
330
1A8
330
295
330
37F
330
439
330
4F2
330
5F0
330
6DA
330
7D8
330
8C2
330
9C2
330
AAC
330
B96
330
C98
102
}
330
A
100
AcDbSymbolTableRecord
100
AcDbDimStyleTableRecord
  2
Default (ANSI)
 70
     0
 40
4.545454545454545
 41
0.0984251946210861
 43
0.2362204724409449
 44
0.125
 45
0.00000001
 46
0.3937007874015748
 79
     1
140
0.1200000047683716
147
0.031496062992126
171
     1
176
   256
177
   256
178
   256
271
     3
272
     2
274
     1
284
     4
285
     4
340
D6
371
    -1
372
    -1
  0
DIMSTYLE
105
F7
330
A
100
AcDbSymbolTableRecord
100
AcDbDimStyleTableRecord
  2
Default (ANSI)$7
 70
     0
 40
4.545454545454545
 41
0.0984251946210861
 43
0.2362204724409449
 44
0.125
 45
0.00000001
 46
0.3937007874015748
 79
     1
140
0.1200000047683716
147
0.031496062992126
171
     1
176
   256
177
   256
178
   256
271
     3
272
     2
274
     1
284
     4
285
     4
340
D6
371
    -1
372
    -1
  0
DIMSTYLE
105
F8
330
A
100
AcDbSymbolTableRecord
100
AcDbDimStyleTableRecord
  2
Alternate (ANSI)
 70
     0
 40
4.545454545454545
 41
0.0979999974370003
340
55
342
F9
  0
DIMSTYLE
105
10B
330
A
100
AcDbSymbolTableRecord
100
AcDbDimStyleTableRecord
  2
Datum (ANSI)
 70
     0
 40
4.545454545454545
 41
0.0979999974370003
340
55
342
F9
  0
DIMSTYLE
105
11A
330
A
100
AcDbSymbolTableRecord
100
AcDbDimStyleTableRecord
  2
Large (ANSI)
 70
     0
 40
4.545454545454545
 41
0.1959999948740005
340
55
342
F9
  0
ENDTAB
  0
TABLE
  2
BLOCK_RECORD
  5
1
330
0
100
AcDbSymbolTable
 70
    17
  0
BLOCK_RECORD
  5
6C
330
1
100
AcDbSymbolTableRecord
100
AcDbBlockTableRecord
  2
*Model_Space
340
6F
  0
BLOCK_RECORD
  5
68
330
1
100
AcDbSymbolTableRecord
100
AcDbBlockTableRecord
  2
*Paper_Space
340
6B
  0
BLOCK_RECORD
  5
70
330
1
100
AcDbSymbolTableRecord
100
AcDbBlockTableRecord
  2
*Paper_Space0
340
73
  0
BLOCK_RECORD
  5
F9
330
1
100
AcDbSymbolTableRecord
100
AcDbBlockTableRecord
  2
_Closed
340
0
  0
BLOCK_RECORD
  5
100
330
1
100
AcDbSymbolTableRecord
100
AcDbBlockTableRecord
  2
DatumFilled45
340
0
  0
BLOCK_RECORD
  5
10C
330
1
100
AcDbSymbolTableRecord
100
AcDbBlockTableRecord
  2
Filled-1
340
0
  0
BLOCK_RECORD
  5
1AB
330
1
100
AcDbSymbolTableRecord
100
AcDbBlockTableRecord
  2
*D4
340
0
  0
BLOCK_RECORD
  5
296
330
1
100
AcDbSymbolTableRecord
100
AcDbBlockTableRecord
  2
*D5
340
0
  0
BLOCK_RECORD
  5
380
330
1
100
AcDbSymbolTableRecord
100
AcDbBlockTableRecord
  2
*D6
340
0
  0
BLOCK_RECORD
  5
43A
330
1
100
AcDbSymbolTableRecord
100
AcDbBlockTableRecord
  2
*D7
340
0
  0
BLOCK_RECORD
  5
4F3
330
1
100
AcDbSymbolTableRecord
100
AcDbBlockTableRecord
  2
*D8
340
0
  0
BLOCK_RECORD
  5
5F1
330
1
100
AcDbSymbolTableRecord
100
AcDbBlockTableRecord
  2
*D9
340
0
  0
BLOCK_RECORD
  5
6DB
330
1
100
AcDbSymbolTableRecord
100
AcDbBlockTableRecord
  2
*D10
340
0
  0
BLOCK_RECORD
  5
7D9
330
1
100
AcDbSymbolTableRecord
100
AcDbBlockTableRecord
  2
*D11
340
0
  0
BLOCK_RECORD
  5
8C3
330
1
100
AcDbSymbolTableRecord
100
AcDbBlockTableRecord
  2
*D12
340
0
  0
BLOCK_RECORD
  5
9C3
330
1
100
AcDbSymbolTableRecord
100
AcDbBlockTableRecord
  2
*D13
340
0
  0
BLOCK_RECORD
  5
AAD
330
1
100
AcDbSymbolTableRecord
100
AcDbBlockTableRecord
  2
*D14
340
0
  0
BLOCK_RECORD
  5
B97
330
1
100
AcDbSymbolTableRecord
100
AcDbBlockTableRecord
  2
*D15
340
0
  0
BLOCK_RECORD
  5
C99
330
1
100
AcDbSymbolTableRecord
100
AcDbBlockTableRecord
  2
*D16
340
0
  0
ENDTAB
  0
ENDSEC
  0
SECTION
  2
BLOCKS
  0
BLOCK
  5
6D
330
6C
100
AcDbEntity
  8
0
100
AcDbBlockBegin
  2
*Model_Space
 70
     0
 10
0.0
 20
0.0
 30
0.0
  3
*Model_Space
  1

  0
ENDBLK
  5
6E
330
6C
100
AcDbEntity
  8
0
100
AcDbBlockEnd
  0
BLOCK
  5
69
330
68
100
AcDbEntity
 67
     1
  8
0
100
AcDbBlockBegin
  2
*Paper_Space
 70
     0
 10
0.0
 20
0.0
 30
0.0
  3
*Paper_Space
  1

  0
ENDBLK
  5
6A
330
68
100
AcDbEntity
 67
     1
  8
0
100
AcDbBlockEnd
  0
BLOCK
  5
71
330
70
100
AcDbEntity
 67
     1
  8
0
100
AcDbBlockBegin
  2
*Paper_Space0
 70
     0
 10
0.0
 20
0.0
 30
0.0
  3
*Paper_Space0
  1

  0
ENDBLK
  5
72
330
70
100
AcDbEntity
 67
     1
  8
0
100
AcDbBlockEnd
  0
BLOCK
  5
FE
330
F9
100
AcDbEntity
  8
0
100
AcDbBlockBegin
  2
_Closed
 70
     0
 10
0.0
 20
0.0
 30
0.0
  3
_Closed
  1

  0
LINE
  5
FA
330
F9
100
AcDbEntity
  8
0
  6
ByBlock
 62
     0
370
    -2
100
AcDbLine
 10
-1.0
 20
0.1666666666666666
 30
0.0
 11
0.0
 21
0.0
 31
0.0
  0
LINE
  5
FB
330
F9
100
AcDbEntity
  8
0
  6
ByBlock
 62
     0
370
    -2
100
AcDbLine
 10
0.0
 20
0.0
 30
0.0
 11
-1.0
 21
-0.1666666666666666
 31
0.0
  0
LINE
  5
FC
330
F9
100
AcDbEntity
  8
0
  6
ByBlock
 62
     0
370
    -2
100
AcDbLine
 10
-1.0
 20
0.1666666666666666
 30
0.0
 11
-1.0
 21
-0.1666666666666666
 31
0.0
  0
LINE
  5
FD
330
F9
100
AcDbEntity
  8
0
  6
ByBlock
 62
     0
370
    -2
100
AcDbLine
 10
0.0
 20
0.0
 30
0.0
 11
-1.0
 21
0.0
 31
0.0
  0
ENDBLK
  5
FF
330
F9
100
AcDbEntity
  8
0
100
AcDbBlockEnd
  0
BLOCK
  5
101
330
100
100
AcDbEntity
  8
0
100
AcDbBlockBegin
  2
DatumFilled45
 70
     0
 10
0.0
 20
0.0
 30
0.0
  3
DatumFilled45
  1

  0
POLYLINE
  5
103
330
100
100
AcDbEntity
  8
0
 62
     0
100
AcDb2dPolyline
 66
     1
 10
0.0
 20
0.0
 30
0.0
 70
   128
  0
VERTEX
  5
104
330
103
100
AcDbEntity
  8
0
 62
     0
100
AcDbVertex
100
AcDb2dVertex
 10
0.0
 20
0.9999999999999998
 30
0.0
  0
VERTEX
  5
105
330
103
100
AcDbEntity
  8
0
 62
     0
100
AcDbVertex
100
AcDb2dVertex
 10
0.0
 20
-0.9999999999999998
 30
0.0
  0
VERTEX
  5
107
330
103
100
AcDbEntity
  8
0
 62
     0
100
AcDbVertex
100
AcDb2dVertex
 10
-0.9999999999999998
 20
0.0
 30
0.0
  0
VERTEX
  5
108
330
103
100
AcDbEntity
  8
0
 62
     0
100
AcDbVertex
100
AcDb2dVertex
 10
0.0
 20
0.9999999999999998
 30
0.0
  0
SEQEND
  5
106
330
103
100
AcDbEntity
  8
0
 62
     0
  0
SOLID
  5
10A
330
100
100
AcDbEntity
  8
0
 62
     0
100
AcDbTrace
 10
0.0
 20
0.9999999999999998
 30
0.0
 11
0.0
 21
-0.9999999999999998
 31
0.0
 12
-0.9999999999999998
 22
0.0
 32
0.0
 13
0.0
 23
0.9999999999999998
 33
0.0
  0
ENDBLK
  5
102
330
100
100
AcDbEntity
  8
0
100
AcDbBlockEnd
  0
BLOCK
  5
10D
330
10C
100
AcDbEntity
  8
0
100
AcDbBlockBegin
  2
Filled-1
 70
     0
 10
0.0
 20
0.0
 30
0.0
  3
Filled-1
  1

  0
LINE
  5
10F
330
10C
100
AcDbEntity
  8
0
 62
     0
100
AcDbLine
 10
-0.9999999999999998
 20
0.0
 30
0.0
 11
0.0
 21
0.0
 31
0.0
  0
POLYLINE
  5
110
330
10C
100
AcDbEntity
  8
0
 62
     0
100
AcDb2dPolyline
 66
     1
 10
0.0
 20
0.0
 30
0.0
 70
   128
  0
VERTEX
  5
111
330
110
100
AcDbEntity
  8
0
 62
     0
100
AcDbVertex
100
AcDb2dVertex
 10
-0.9999999999999998
 20
-0.0994897959183674
 30
0.0
  0
VERTEX
  5
112
330
110
100
AcDbEntity
  8
0
 62
     0
100
AcDbVertex
100
AcDb2dVertex
 10
0.0
 20
0.0
 30
0.0
  0
VERTEX
  5
114
330
110
100
AcDbEntity
  8
0
 62
     0
100
AcDbVertex
100
AcDb2dVertex
 10
-0.9999999999999998
 20
0.0994897959183674
 30
0.0
  0
VERTEX
  5
115
330
110
100
AcDbEntity
  8
0
 62
     0
100
AcDbVertex
100
AcDb2dVertex
 10
-0.9999999999999998
 20
-0.0994897959183674
 30
0.0
  0
SEQEND
  5
113
330
110
100
AcDbEntity
  8
0
 62
     0
  0
SOLID
  5
116
330
10C
100
AcDbEntity
  8
0
 62
     0
100
AcDbTrace
 10
-0.9999999999999998
 20
-0.0994897959183674
 30
0.0
 11
0.0
 21
0.0
 31
0.0
 12
-0.9999999999999998
 22
0.0994897959183674
 32
0.0
 13
-0.9999999999999998
 23
-0.0994897959183674
 33
0.0
  0
LINE
  5
117
330
10C
100
AcDbEntity
  8
0
 62
     0
100
AcDbLine
 10
-0.9999999999999998
 20
-0.0994897959183674
 30
0.0
 11
0.0
 21
0.0
 31
0.0
  0
LINE
  5
118
330
10C
100
AcDbEntity
  8
0
 62
     0
100
AcDbLine
 10
0.0
 20
0.0
 30
0.0
 11
-0.9999999999999998
 21
0.0994897959183674
 31
0.0
  0
LINE
  5
119
330
10C
100
AcDbEntity
  8
0
 62
     0
100
AcDbLine
 10
-0.9999999999999998
 20
0.0994897959183674
 30
0.0
 11
-0.9999999999999998
 21
-0.0994897959183674
 31
0.0
  0
ENDBLK
  5
10E
330
10C
100
AcDbEntity
  8
0
100
AcDbBlockEnd
  0
BLOCK
  5
1AC
330
1AB
100
AcDbEntity
  8
0
100
AcDbBlockBegin
  2
*D4
 70
     1
 10
0.0
 20
0.0
 30
0.0
  3
*D4
  1

  0
LINE
  5
28B
330
1AB
100
AcDbEntity
  8
Dimension (ANSI)
100
AcDbLine
 10
35.08005475527375
 20
41.72441866354332
 30
0.0
 11
35.08005475527375
 21
46.41795839153188
 31
0.0
  0
LINE
  5
28C
330
1AB
100
AcDbEntity
  8
Dimension (ANSI)
100
AcDbLine
 10
12.88005475527375
 20
41.72441866354332
 30
0.0
 11
12.88005475527375
 21
46.41795839153188
 31
0.0
  0
LINE
  5
28D
330
1AB
100
AcDbEntity
  8
Dimension (ANSI)
100
AcDbLine
 10
34.63266750699609
 20
45.84977657335006
 30
0.0
 11
25.47386808228456
 21
45.84977657335006
 31
0.0
  0
LINE
  5
28E
330
1AB
100
AcDbEntity
  8
Dimension (ANSI)
100
AcDbLine
 10
13.32744200355141
 20
45.84977657335006
 30
0.0
 11
22.48624142826292
 21
45.84977657335006
 31
0.0
  0
SOLID
  5
28F
330
1AB
100
AcDbEntity
  8
Dimension (ANSI)
100
AcDbTrace
 10
34.63266750699609
 20
45.92434111472967
 30
0.0
 11
34.63266750699609
 21
45.77521203197045
 31
0.0
 12
35.08005475527375
 22
45.84977657335006
 32
0.0
 13
35.08005475527375
 23
45.84977657335006
 33
0.0
  0
SOLID
  5
290
330
1AB
100
AcDbEntity
  8
Dimension (ANSI)
100
AcDbTrace
 10
13.32744200355141
 20
45.92434111472967
 30
0.0
 11
13.32744200355141
 21
45.77521203197045
 31
0.0
 12
12.88005475527375
 22
45.84977657335006
 32
0.0
 13
12.88005475527375
 23
45.84977657335006
 33
0.0
  0
MTEXT
  5
291
330
1AB
100
AcDbEntity
  8
Dimension (ANSI)
100
AcDbMText
 10
22.62940535095441
 20
46.12250385691454
 30
0.0
 40
0.5454545671289618
 41
0.0
 71
     1
 72
     1
  1
\A1;22.200
  7
Note Text (ANSI)
 73
     1
 44
1.0
1001
ACAD
1000
MTEXTBEGIN
1070
    73
1070
     1
1070
    44
1040
1.0
1070
    74
1070
     0
1000
MTEXTEND
  0
POINT
  5
292
330
1AB
100
AcDbEntity
  8
Defpoints
 62
     0
100
AcDbPoint
 10
35.08005475527375
 20
41.44032775445242
 30
0.0
  0
POINT
  5
293
330
1AB
100
AcDbEntity
  8
Defpoints
 62
     0
100
AcDbPoint
 10
12.88005475527375
 20
41.44032775445242
 30
0.0
  0
POINT
  5
294
330
1AB
100
AcDbEntity
  8
Defpoints
 62
     0
100
AcDbPoint
 10
12.88005475527375
 20
45.84977657335006
 30
0.0
  0
ENDBLK
  5
1AD
330
1AB
100
AcDbEntity
  8
0
100
AcDbBlockEnd
  0
BLOCK
  5
297
330
296
100
AcDbEntity
  8
0
100
AcDbBlockBegin
  2
*D5
 70
     1
 10
0.0
 20
0.0
 30
0.0
  3
*D5
  1

  0
LINE
  5
375
330
296
100
AcDbEntity
  8
Dimension (ANSI)
100
AcDbLine
 10
13.09596384618284
 20
41.94032775445243
 30
0.0
 11
3.506217962145639
 21
41.94032775445243
 31
0.0
  0
LINE
  5
376
330
296
100
AcDbEntity
  8
Dimension (ANSI)
100
AcDbLine
 10
13.09596384618285
 20
13.74032775445242
 30
0.0
 11
3.506217962145631
 21
13.74032775445242
 31
0.0
  0
LINE
  5
377
330
296
100
AcDbEntity
  8
Dimension (ANSI)
100
AcDbLine
 10
4.074399780327456
 20
41.49294050617476
 30
0.0
 11
4.074399780327453
 21
28.25621896070839
 31
0.0
  0
LINE
  5
378
330
296
100
AcDbEntity
  8
Dimension (ANSI)
100
AcDbLine
 10
4.074399780327451
 20
14.18771500273008
 30
0.0
 11
4.074399780327453
 21
27.42443654819646
 31
0.0
  0
SOLID
  5
379
330
296
100
AcDbEntity
  8
Dimension (ANSI)
100
AcDbTrace
 10
3.999835238947846
 20
41.49294050617476
 30
0.0
 11
4.148964321707067
 21
41.49294050617476
 31
0.0
 12
4.074399780327456
 22
41.94032775445243
 32
0.0
 13
4.074399780327456
 23
41.94032775445243
 33
0.0
  0
SOLID
  5
37A
330
296
100
AcDbEntity
  8
Dimension (ANSI)
100
AcDbTrace
 10
3.99983523894784
 20
14.18771500273009
 30
0.0
 11
4.148964321707062
 21
14.18771500273008
 31
0.0
 12
4.07439978032745
 22
13.74032775445242
 32
0.0
 13
4.07439978032745
 23
13.74032775445242
 33
0.0
  0
MTEXT
  5
37B
330
296
100
AcDbEntity
  8
Dimension (ANSI)
100
AcDbMText
 10
2.723750376008116
 20
28.1130550380169
 30
0.0
 40
0.5454545671289618
 41
0.0
 71
     1
 72
     1
  1
\A1;28.200
  7
Note Text (ANSI)
 73
     1
 44
1.0
1001
ACAD
1000
MTEXTBEGIN
1070
    73
1070
     1
1070
    44
1040
1.0
1070
    74
1070
     0
1000
MTEXTEND
  0
POINT
  5
37C
330
296
100
AcDbEntity
  8
Defpoints
 62
     0
100
AcDbPoint
 10
13.38005475527375
 20
41.94032775445243
 30
0.0
  0
POINT
  5
37D
330
296
100
AcDbEntity
  8
Defpoints
 62
     0
100
AcDbPoint
 10
13.38005475527376
 20
13.74032775445242
 30
0.0
  0
POINT
  5
37E
330
296
100
AcDbEntity
  8
Defpoints
 62
     0
100
AcDbPoint
 10
4.07439978032745
 20
13.74032775445242
 30
0.0
  0
ENDBLK
  5
298
330
296
100
AcDbEntity
  8
0
100
AcDbBlockEnd
  0
BLOCK
  5
381
330
380
100
AcDbEntity
  8
0
100
AcDbBlockBegin
  2
*D6
 70
     1
 10
0.0
 20
0.0
 30
0.0
  3
*D6
  1

  0
LINE
  5
431
330
380
100
AcDbEntity
  8
Dimension (ANSI)
100
AcDbLine
 10
16.25407034238015
 20
9.425076018289917
 30
0.0
 11
15.607759927318
 21
9.425076018289917
 31
0.0
  0
LINE
  5
432
330
380
100
AcDbEntity
  8
Dimension (ANSI)
100
AcDbLine
 10
15.607759927318
 20
9.425076018289917
 30
0.0
 11
13.68970774521859
 21
13.62593819000774
 31
0.0
  0
MTEXT
  5
433
102
{ACAD_XDICTIONARY
360
DCF
102
}
330
380
100
AcDbEntity
  8
Dimension (ANSI)
100
AcDbMText
 10
16.39723426507163
 20
9.860140970642781
 30
0.0
 40
0.5454545671289618
 41
0.0
 71
     1
 72
     1
  1
\A1;\U+22050.500{\PTYP.(4PL.)}
  7
Note Text (ANSI)
 73
     1
 44
1.0
1001
ACAD
1000
MTEXTBEGIN
1070
    73
1070
     1
1070
    44
1040
1.0
1070
    74
1070
     0
1000
MTEXTEND
  0
SOLID
  5
434
330
380
100
AcDbEntity
  8
Dimension (ANSI)
100
AcDbTrace
 10
13.7575365835658
 20
13.65690784482694
 30
0.0
 11
13.62187890687138
 21
13.59496853518854
 31
0.0
 12
13.5038898163034
 22
14.03291122009098
 32
0.0
 13
13.5038898163034
 23
14.03291122009098
 33
0.0
  0
LINE
  5
435
330
380
100
AcDbEntity
  8
Dimension (ANSI)
100
AcDbLine
 10
12.99096384618285
 20
14.26032775445242
 30
0.0
 11
13.80914566436467
 21
14.26032775445242
 31
0.0
  0
LINE
  5
436
330
380
100
AcDbEntity
  8
Dimension (ANSI)
100
AcDbLine
 10
13.40005475527376
 20
13.85123684536151
 30
0.0
 11
13.40005475527376
 21
14.66941866354333
 31
0.0
  0
POINT
  5
437
330
380
100
AcDbEntity
  8
Defpoints
 62
     0
100
AcDbPoint
 10
13.5038898163034
 20
14.03291122009098
 30
0.0
  0
POINT
  5
438
330
380
100
AcDbEntity
  8
Defpoints
 62
     0
100
AcDbPoint
 10
13.29621969424411
 20
14.48774428881386
 30
0.0
  0
ENDBLK
  5
382
330
380
100
AcDbEntity
  8
0
100
AcDbBlockEnd
  0
BLOCK
  5
43B
330
43A
100
AcDbEntity
  8
0
100
AcDbBlockBegin
  2
*D7
 70
     1
 10
0.0
 20
0.0
 30
0.0
  3
*D7
  1

  0
LINE
  5
4EA
330
43A
100
AcDbEntity
  8
Dimension (ANSI)
100
AcDbLine
 10
16.22782664169953
 20
12.36437057422701
 30
0.0
 11
15.58151622663731
 21
12.36437057422701
 31
0.0
  0
LINE
  5
4EB
330
43A
100
AcDbEntity
  8
Dimension (ANSI)
100
AcDbLine
 10
15.58151622663731
 20
12.36437057422701
 30
0.0
 11
13.78404698500189
 21
14.54457256659441
 31
0.0
  0
MTEXT
  5
4EC
102
{ACAD_XDICTIONARY
360
DD1
102
}
330
43A
100
AcDbEntity
  8
Dimension (ANSI)
100
AcDbMText
 10
16.37099056439101
 20
12.79943552657987
 30
0.0
 40
0.5454545671289618
 41
0.0
 71
     1
 72
     1
  1
\A1;\U+22050.313{\PTYP.(4PL.)}
  7
Note Text (ANSI)
 73
     1
 44
1.0
1001
ACAD
1000
MTEXTBEGIN
1070
    73
1070
     1
1070
    44
1040
1.0
1070
    74
1070
     0
1000
MTEXTEND
  0
SOLID
  5
4ED
330
43A
100
AcDbEntity
  8
Dimension (ANSI)
100
AcDbTrace
 10
13.84157958769813
 20
14.59200536598628
 30
0.0
 11
13.72651438230566
 21
14.49713976720255
 31
0.0
 12
13.4994501886507
 22
14.88976818277182
 32
0.0
 13
13.4994501886507
 23
14.88976818277182
 33
0.0
  0
LINE
  5
4EE
330
43A
100
AcDbEntity
  8
Dimension (ANSI)
100
AcDbLine
 10
12.99096384618285
 20
15.01032775445242
 30
0.0
 11
13.80914566436467
 21
15.01032775445242
 31
0.0
  0
LINE
  5
4EF
330
43A
100
AcDbEntity
  8
Dimension (ANSI)
100
AcDbLine
 10
13.40005475527376
 20
14.60123684536151
 30
0.0
 11
13.40005475527376
 21
15.41941866354333
 31
0.0
  0
POINT
  5
4F0
330
43A
100
AcDbEntity
  8
Defpoints
 62
     0
100
AcDbPoint
 10
13.4994501886507
 20
14.88976818277182
 30
0.0
  0
POINT
  5
4F1
330
43A
100
AcDbEntity
  8
Defpoints
 62
     0
100
AcDbPoint
 10
13.30065932189682
 20
15.13088732613302
 30
0.0
  0
ENDBLK
  5
43C
330
43A
100
AcDbEntity
  8
0
100
AcDbBlockEnd
  0
BLOCK
  5
4F4
330
4F3
100
AcDbEntity
  8
0
100
AcDbBlockBegin
  2
*D8
 70
     1
 10
0.0
 20
0.0
 30
0.0
  3
*D8
  1

  0
LINE
  5
5E6
330
4F3
100
AcDbEntity
  8
Dimension (ANSI)
100
AcDbLine
 10
48.66860558597642
 20
31.31013655804471
 30
0.0
 11
48.66860558597642
 21
14.1219629893413
 31
0.0
  0
LINE
  5
5E7
330
4F3
100
AcDbEntity
  8
Dimension (ANSI)
100
AcDbLine
 10
48.76235558597642
 20
31.31013655804471
 30
0.0
 11
48.76235558597642
 21
14.1219629893413
 31
0.0
  0
LINE
  5
5E8
330
4F3
100
AcDbEntity
  8
Dimension (ANSI)
100
AcDbLine
 10
48.22121833769876
 20
14.69014480752312
 30
0.0
 11
47.77383108942109
 21
14.69014480752312
 31
0.0
  0
LINE
  5
5E9
330
4F3
100
AcDbEntity
  8
Dimension (ANSI)
100
AcDbLine
 10
49.20974283425408
 20
14.69014480752312
 30
0.0
 11
50.09187408952384
 21
14.69014480752312
 31
0.0
  0
SOLID
  5
5EA
330
4F3
100
AcDbEntity
  8
Dimension (ANSI)
100
AcDbTrace
 10
48.22121833769876
 20
14.76470934890273
 30
0.0
 11
48.22121833769876
 21
14.61558026614351
 31
0.0
 12
48.66860558597642
 22
14.69014480752312
 32
0.0
 13
48.66860558597642
 23
14.69014480752312
 33
0.0
  0
SOLID
  5
5EB
330
4F3
100
AcDbEntity
  8
Dimension (ANSI)
100
AcDbTrace
 10
49.20974283425408
 20
14.76470934890273
 30
0.0
 11
49.20974283425408
 21
14.61558026614351
 31
0.0
 12
48.76235558597642
 22
14.69014480752312
 32
0.0
 13
48.76235558597642
 23
14.69014480752312
 33
0.0
  0
MTEXT
  5
5EC
330
4F3
100
AcDbEntity
  8
Dimension (ANSI)
100
AcDbMText
 10
50.23503801221533
 20
15.05378118560909
 30
0.0
 40
0.5454545671289618
 41
0.0
 71
     1
 72
     1
  1
\A1; 12 GA.\P304 SS
  7
Note Text (ANSI)
 73
     1
 44
1.0
1001
ACAD
1000
MTEXTBEGIN
1070
    73
1070
     1
1070
    44
1040
1.0
1070
    74
1070
     0
1000
MTEXTEND
  0
POINT
  5
5ED
330
4F3
100
AcDbEntity
  8
Defpoints
 62
     0
100
AcDbPoint
 10
48.66860558597642
 20
31.59422746713562
 30
0.0
  0
POINT
  5
5EE
330
4F3
100
AcDbEntity
  8
Defpoints
 62
     0
100
AcDbPoint
 10
48.76235558597642
 20
31.59422746713562
 30
0.0
  0
POINT
  5
5EF
330
4F3
100
AcDbEntity
  8
Defpoints
 62
     0
100
AcDbPoint
 10
48.76235558597642
 20
14.69014480752312
 30
0.0
  0
ENDBLK
  5
4F5
330
4F3
100
AcDbEntity
  8
0
100
AcDbBlockEnd
  0
BLOCK
  5
5F2
330
5F1
100
AcDbEntity
  8
0
100
AcDbBlockBegin
  2
*D9
 70
     1
 10
0.0
 20
0.0
 30
0.0
  3
*D9
  1

  0
LINE
  5
6D0
330
5F1
100
AcDbEntity
  8
Dimension (ANSI)
100
AcDbLine
 10
13.11596384618285
 20
41.42032775445242
 30
0.0
 11
8.501164275674625
 21
41.42032775445242
 31
0.0
  0
LINE
  5
6D1
330
5F1
100
AcDbEntity
  8
Dimension (ANSI)
100
AcDbLine
 10
13.11596384618285
 20
14.26032775445242
 30
0.0
 11
8.50116427567462
 21
14.26032775445242
 31
0.0
  0
LINE
  5
6D2
330
5F1
100
AcDbEntity
  8
Dimension (ANSI)
100
AcDbLine
 10
9.069346093856443
 20
40.97294050617476
 30
0.0
 11
9.069346093856442
 21
28.25621896070838
 31
0.0
  0
LINE
  5
6D3
330
5F1
100
AcDbEntity
  8
Dimension (ANSI)
100
AcDbLine
 10
9.069346093856438
 20
14.70771500273008
 30
0.0
 11
9.06934609385644
 21
27.42443654819645
 31
0.0
  0
SOLID
  5
6D4
330
5F1
100
AcDbEntity
  8
Dimension (ANSI)
100
AcDbTrace
 10
8.994781552476833
 20
40.97294050617476
 30
0.0
 11
9.143910635236053
 21
40.97294050617476
 31
0.0
 12
9.069346093856443
 22
41.42032775445242
 32
0.0
 13
9.069346093856443
 23
41.42032775445242
 33
0.0
  0
SOLID
  5
6D5
330
5F1
100
AcDbEntity
  8
Dimension (ANSI)
100
AcDbTrace
 10
8.994781552476828
 20
14.70771500273008
 30
0.0
 11
9.143910635236048
 21
14.70771500273008
 31
0.0
 12
9.069346093856438
 22
14.26032775445242
 32
0.0
 13
9.069346093856438
 23
14.26032775445242
 33
0.0
  0
MTEXT
  5
6D6
330
5F1
100
AcDbEntity
  8
Dimension (ANSI)
100
AcDbMText
 10
7.718696689537102
 20
28.1130550380169
 30
0.0
 40
0.5454545671289618
 41
0.0
 71
     1
 72
     1
  1
\A1;27.160
  7
Note Text (ANSI)
 73
     1
 44
1.0
1001
ACAD
1000
MTEXTBEGIN
1070
    73
1070
     1
1070
    44
1040
1.0
1070
    74
1070
     0
1000
MTEXTEND
  0
POINT
  5
6D7
330
5F1
100
AcDbEntity
  8
Defpoints
 62
     0
100
AcDbPoint
 10
13.40005475527376
 20
41.42032775445242
 30
0.0
  0
POINT
  5
6D8
330
5F1
100
AcDbEntity
  8
Defpoints
 62
     0
100
AcDbPoint
 10
13.40005475527376
 20
14.26032775445242
 30
0.0
  0
POINT
  5
6D9
330
5F1
100
AcDbEntity
  8
Defpoints
 62
     0
100
AcDbPoint
 10
9.069346093856438
 20
14.26032775445242
 30
0.0
  0
ENDBLK
  5
5F3
330
5F1
100
AcDbEntity
  8
0
100
AcDbBlockEnd
  0
BLOCK
  5
6DC
330
6DB
100
AcDbEntity
  8
0
100
AcDbBlockBegin
  2
*D10
 70
     1
 10
0.0
 20
0.0
 30
0.0
  3
*D10
  1

  0
LINE
  5
7CD
330
6DB
100
AcDbEntity
  8
Dimension (ANSI)
100
AcDbLine
 10
13.11596384618285
 20
15.01032775445242
 30
0.0
 11
9.019502516164507
 21
15.01032775445242
 31
0.0
  0
LINE
  5
7CE
330
6DB
100
AcDbEntity
  8
Dimension (ANSI)
100
AcDbLine
 10
13.11596384618285
 20
14.26032775445242
 30
0.0
 11
9.019502516164507
 21
14.26032775445242
 31
0.0
  0
LINE
  5
7CF
330
6DB
100
AcDbEntity
  8
Dimension (ANSI)
100
AcDbLine
 10
9.587684334346326
 20
13.81294050617476
 30
0.0
 11
9.587684334346326
 21
13.36555325789709
 31
0.0
  0
LINE
  5
7D0
330
6DB
100
AcDbEntity
  8
Dimension (ANSI)
100
AcDbLine
 10
9.587684334346326
 20
15.45771500273008
 30
0.0
 11
9.587684334346326
 21
16.30610019497028
 31
0.0
  0
LINE
  5
7D1
330
6DB
100
AcDbEntity
  8
Dimension (ANSI)
100
AcDbLine
 10
9.587684334346326
 20
16.30610019497028
 30
0.0
 11
10.03507158262399
 21
16.30610019497028
 31
0.0
  0
SOLID
  5
7D2
330
6DB
100
AcDbEntity
  8
Dimension (ANSI)
100
AcDbTrace
 10
9.513119792966715
 20
13.81294050617476
 30
0.0
 11
9.662248875725936
 21
13.81294050617476
 31
0.0
 12
9.587684334346326
 22
14.26032775445242
 32
0.0
 13
9.587684334346326
 23
14.26032775445242
 33
0.0
  0
SOLID
  5
7D3
330
6DB
100
AcDbEntity
  8
Dimension (ANSI)
100
AcDbTrace
 10
9.513119792966715
 20
15.45771500273008
 30
0.0
 11
9.662248875725936
 21
15.45771500273008
 31
0.0
 12
9.587684334346326
 22
15.01032775445242
 32
0.0
 13
9.587684334346326
 23
15.01032775445242
 33
0.0
  0
MTEXT
  5
7D4
330
6DB
100
AcDbEntity
  8
Dimension (ANSI)
100
AcDbMText
 10
10.17823550531547
 20
16.57882747853476
 30
0.0
 40
0.5454545671289618
 41
0.0
 71
     1
 72
     1
  1
\A1;0.750
  7
Note Text (ANSI)
 73
     1
 44
1.0
1001
ACAD
1000
MTEXTBEGIN
1070
    73
1070
     1
1070
    44
1040
1.0
1070
    74
1070
     0
1000
MTEXTEND
  0
POINT
  5
7D5
330
6DB
100
AcDbEntity
  8
Defpoints
 62
     0
100
AcDbPoint
 10
13.40005475527376
 20
15.01032775445242
 30
0.0
  0
POINT
  5
7D6
330
6DB
100
AcDbEntity
  8
Defpoints
 62
     0
100
AcDbPoint
 10
13.40005475527376
 20
14.26032775445242
 30
0.0
  0
POINT
  5
7D7
330
6DB
100
AcDbEntity
  8
Defpoints
 62
     0
100
AcDbPoint
 10
9.587684334346326
 20
14.26032775445242
 30
0.0
  0
ENDBLK
  5
6DD
330
6DB
100
AcDbEntity
  8
0
100
AcDbBlockEnd
  0
BLOCK
  5
7DA
330
7D9
100
AcDbEntity
  8
0
100
AcDbBlockBegin
  2
*D11
 70
     1
 10
0.0
 20
0.0
 30
0.0
  3
*D11
  1

  0
LINE
  5
8B8
330
7D9
100
AcDbEntity
  8
Dimension (ANSI)
100
AcDbLine
 10
34.56005475527376
 20
41.70441866354333
 30
0.0
 11
34.56005475527376
 21
44.85586691700794
 31
0.0
  0
LINE
  5
8B9
330
7D9
100
AcDbEntity
  8
Dimension (ANSI)
100
AcDbLine
 10
13.40005475527376
 20
41.70441866354333
 30
0.0
 11
13.40005475527376
 21
44.85586691700794
 31
0.0
  0
LINE
  5
8BA
330
7D9
100
AcDbEntity
  8
Dimension (ANSI)
100
AcDbLine
 10
34.1126675069961
 20
44.28768509882611
 30
0.0
 11
25.47386808228457
 21
44.28768509882611
 31
0.0
  0
LINE
  5
8BB
330
7D9
100
AcDbEntity
  8
Dimension (ANSI)
100
AcDbLine
 10
13.84744200355142
 20
44.28768509882611
 30
0.0
 11
22.48624142826294
 21
44.28768509882611
 31
0.0
  0
SOLID
  5
8BC
330
7D9
100
AcDbEntity
  8
Dimension (ANSI)
100
AcDbTrace
 10
34.1126675069961
 20
44.36224964020572
 30
0.0
 11
34.1126675069961
 21
44.21312055744651
 31
0.0
 12
34.56005475527376
 22
44.28768509882611
 32
0.0
 13
34.56005475527376
 23
44.28768509882611
 33
0.0
  0
SOLID
  5
8BD
330
7D9
100
AcDbEntity
  8
Dimension (ANSI)
100
AcDbTrace
 10
13.84744200355142
 20
44.36224964020572
 30
0.0
 11
13.84744200355142
 21
44.21312055744651
 31
0.0
 12
13.40005475527376
 22
44.28768509882611
 32
0.0
 13
13.40005475527376
 23
44.28768509882611
 33
0.0
  0
MTEXT
  5
8BE
330
7D9
100
AcDbEntity
  8
Dimension (ANSI)
100
AcDbMText
 10
22.62940535095442
 20
44.56041238239059
 30
0.0
 40
0.5454545671289618
 41
0.0
 71
     1
 72
     1
  1
\A1;21.160
  7
Note Text (ANSI)
 73
     1
 44
1.0
1001
ACAD
1000
MTEXTBEGIN
1070
    73
1070
     1
1070
    44
1040
1.0
1070
    74
1070
     0
1000
MTEXTEND
  0
POINT
  5
8BF
330
7D9
100
AcDbEntity
  8
Defpoints
 62
     0
100
AcDbPoint
 10
34.56005475527376
 20
41.42032775445242
 30
0.0
  0
POINT
  5
8C0
330
7D9
100
AcDbEntity
  8
Defpoints
 62
     0
100
AcDbPoint
 10
13.40005475527376
 20
41.42032775445242
 30
0.0
  0
POINT
  5
8C1
330
7D9
100
AcDbEntity
  8
Defpoints
 62
     0
100
AcDbPoint
 10
13.40005475527376
 20
44.28768509882611
 30
0.0
  0
ENDBLK
  5
7DB
330
7D9
100
AcDbEntity
  8
0
100
AcDbBlockEnd
  0
BLOCK
  5
8C4
330
8C3
100
AcDbEntity
  8
0
100
AcDbBlockBegin
  2
*D12
 70
     1
 10
0.0
 20
0.0
 30
0.0
  3
*D12
  1

  0
LINE
  5
9B7
330
8C3
100
AcDbEntity
  8
Dimension (ANSI)
100
AcDbLine
 10
35.36414566436466
 20
14.24032775445241
 30
0.0
 11
36.05555068419525
 21
14.24032775445241
 31
0.0
  0
LINE
  5
9B8
330
8C3
100
AcDbEntity
  8
Dimension (ANSI)
100
AcDbLine
 10
34.86414566436466
 20
13.74032775445242
 30
0.0
 11
36.05555068419525
 21
13.74032775445242
 31
0.0
  0
LINE
  5
9B9
330
8C3
100
AcDbEntity
  8
Dimension (ANSI)
100
AcDbLine
 10
35.48736886601343
 20
13.29294050617475
 30
0.0
 11
35.48736886601343
 21
12.84555325789709
 31
0.0
  0
LINE
  5
9BA
330
8C3
100
AcDbEntity
  8
Dimension (ANSI)
100
AcDbLine
 10
35.48736886601343
 20
14.68771500273008
 30
0.0
 11
35.48736886601343
 21
15.53610019497027
 31
0.0
  0
LINE
  5
9BB
330
8C3
100
AcDbEntity
  8
Dimension (ANSI)
100
AcDbLine
 10
35.48736886601343
 20
15.53610019497027
 30
0.0
 11
35.9347561142911
 21
15.53610019497027
 31
0.0
  0
SOLID
  5
9BC
330
8C3
100
AcDbEntity
  8
Dimension (ANSI)
100
AcDbTrace
 10
35.41280432463383
 20
13.29294050617475
 30
0.0
 11
35.56193340739304
 21
13.29294050617475
 31
0.0
 12
35.48736886601343
 22
13.74032775445242
 32
0.0
 13
35.48736886601343
 23
13.74032775445242
 33
0.0
  0
SOLID
  5
9BD
330
8C3
100
AcDbEntity
  8
Dimension (ANSI)
100
AcDbTrace
 10
35.41280432463383
 20
14.68771500273008
 30
0.0
 11
35.56193340739304
 21
14.68771500273008
 31
0.0
 12
35.48736886601343
 22
14.24032775445241
 32
0.0
 13
35.48736886601343
 23
14.24032775445241
 33
0.0
  0
MTEXT
  5
9BE
330
8C3
100
AcDbEntity
  8
Dimension (ANSI)
100
AcDbMText
 10
36.07792003698258
 20
15.80882747853476
 30
0.0
 40
0.5454545671289618
 41
0.0
 71
     1
 72
     1
  1
\A1;0.500
  7
Note Text (ANSI)
 73
     1
 44
1.0
1001
ACAD
1000
MTEXTBEGIN
1070
    73
1070
     1
1070
    44
1040
1.0
1070
    74
1070
     0
1000
MTEXTEND
  0
POINT
  5
9BF
330
8C3
100
AcDbEntity
  8
Defpoints
 62
     0
100
AcDbPoint
 10
35.08005475527376
 20
14.24032775445241
 30
0.0
  0
POINT
  5
9C0
330
8C3
100
AcDbEntity
  8
Defpoints
 62
     0
100
AcDbPoint
 10
34.58005475527376
 20
13.74032775445242
 30
0.0
  0
POINT
  5
9C1
330
8C3
100
AcDbEntity
  8
Defpoints
 62
     0
100
AcDbPoint
 10
35.48736886601343
 20
13.74032775445242
 30
0.0
  0
ENDBLK
  5
8C5
330
8C3
100
AcDbEntity
  8
0
100
AcDbBlockEnd
  0
BLOCK
  5
9C4
330
9C3
100
AcDbEntity
  8
0
100
AcDbBlockBegin
  2
*D13
 70
     1
 10
0.0
 20
0.0
 30
0.0
  3
*D13
  1

  0
LINE
  5
AA2
330
9C3
100
AcDbEntity
  8
Dimension (ANSI)
100
AcDbLine
 10
35.08005475527376
 20
13.95623684536151
 30
0.0
 11
35.08005475527376
 21
11.31830568447345
 31
0.0
  0
LINE
  5
AA3
330
9C3
100
AcDbEntity
  8
Dimension (ANSI)
100
AcDbLine
 10
34.58005475527376
 20
13.45623684536151
 30
0.0
 11
34.58005475527376
 21
11.31830568447345
 31
0.0
  0
LINE
  5
AA4
330
9C3
100
AcDbEntity
  8
Dimension (ANSI)
100
AcDbLine
 10
35.52744200355142
 20
11.88648750265527
 30
0.0
 11
35.97482925182909
 21
11.88648750265527
 31
0.0
  0
LINE
  5
AA5
330
9C3
100
AcDbEntity
  8
Dimension (ANSI)
100
AcDbLine
 10
34.13266750699609
 20
11.88648750265527
 30
0.0
 11
33.14175784740238
 21
11.88648750265527
 31
0.0
  0
SOLID
  5
AA6
330
9C3
100
AcDbEntity
  8
Dimension (ANSI)
100
AcDbTrace
 10
35.52744200355142
 20
11.96105204403488
 30
0.0
 11
35.52744200355142
 21
11.81192296127566
 31
0.0
 12
35.08005475527376
 22
11.88648750265527
 32
0.0
 13
35.08005475527376
 23
11.88648750265527
 33
0.0
  0
SOLID
  5
AA7
330
9C3
100
AcDbEntity
  8
Dimension (ANSI)
100
AcDbTrace
 10
34.13266750699609
 20
11.96105204403488
 30
0.0
 11
34.13266750699609
 21
11.81192296127566
 31
0.0
 12
34.58005475527376
 22
11.88648750265527
 32
0.0
 13
34.58005475527376
 23
11.88648750265527
 33
0.0
  0
MTEXT
  5
AA8
330
9C3
100
AcDbEntity
  8
Dimension (ANSI)
100
AcDbMText
 10
30.81677565619505
 20
12.15921478621975
 30
0.0
 40
0.5454545671289618
 41
0.0
 71
     1
 72
     1
  1
\A1;0.500
  7
Note Text (ANSI)
 73
     1
 44
1.0
1001
ACAD
1000
MTEXTBEGIN
1070
    73
1070
     1
1070
    44
1040
1.0
1070
    74
1070
     0
1000
MTEXTEND
  0
POINT
  5
AA9
330
9C3
100
AcDbEntity
  8
Defpoints
 62
     0
100
AcDbPoint
 10
35.08005475527376
 20
14.24032775445241
 30
0.0
  0
POINT
  5
AAA
330
9C3
100
AcDbEntity
  8
Defpoints
 62
     0
100
AcDbPoint
 10
34.58005475527376
 20
13.74032775445242
 30
0.0
  0
POINT
  5
AAB
330
9C3
100
AcDbEntity
  8
Defpoints
 62
     0
100
AcDbPoint
 10
34.58005475527376
 20
11.88648750265527
 30
0.0
  0
ENDBLK
  5
9C5
330
9C3
100
AcDbEntity
  8
0
100
AcDbBlockEnd
  0
BLOCK
  5
AAE
330
AAD
100
AcDbEntity
  8
0
100
AcDbBlockBegin
  2
*D14
 70
     1
 10
0.0
 20
0.0
 30
0.0
  3
*D14
  1

  0
LINE
  5
B8C
330
AAD
100
AcDbEntity
  8
Dimension (ANSI)
100
AcDbLine
 10
34.56005475527376
 20
41.70441866354333
 30
0.0
 11
34.56005475527376
 21
43.56331272224054
 31
0.0
  0
LINE
  5
B8D
330
AAD
100
AcDbEntity
  8
Dimension (ANSI)
100
AcDbLine
 10
35.08005475527375
 20
41.72441866354332
 30
0.0
 11
35.08005475527375
 21
43.56331272224054
 31
0.0
  0
LINE
  5
B8E
330
AAD
100
AcDbEntity
  8
Dimension (ANSI)
100
AcDbLine
 10
35.52744200355141
 20
42.99513090405873
 30
0.0
 11
35.97482925182908
 21
42.99513090405873
 31
0.0
  0
LINE
  5
B8F
330
AAD
100
AcDbEntity
  8
Dimension (ANSI)
100
AcDbLine
 10
34.1126675069961
 20
42.99513090405873
 30
0.0
 11
33.66528025871843
 21
42.99513090405873
 31
0.0
  0
SOLID
  5
B90
330
AAD
100
AcDbEntity
  8
Dimension (ANSI)
100
AcDbTrace
 10
35.52744200355141
 20
43.06969544543833
 30
0.0
 11
35.52744200355141
 21
42.92056636267911
 31
0.0
 12
35.08005475527375
 22
42.99513090405873
 32
0.0
 13
35.08005475527375
 23
42.99513090405873
 33
0.0
  0
SOLID
  5
B91
330
AAD
100
AcDbEntity
  8
Dimension (ANSI)
100
AcDbTrace
 10
34.1126675069961
 20
43.06969544543833
 30
0.0
 11
34.1126675069961
 21
42.92056636267911
 31
0.0
 12
34.56005475527376
 22
42.99513090405873
 32
0.0
 13
34.56005475527376
 23
42.99513090405873
 33
0.0
  0
MTEXT
  5
B92
330
AAD
100
AcDbEntity
  8
Dimension (ANSI)
100
AcDbMText
 10
31.3402980675111
 20
43.2678581876232
 30
0.0
 40
0.5454545671289618
 41
0.0
 71
     1
 72
     1
  1
\A1;0.520
  7
Note Text (ANSI)
 73
     1
 44
1.0
1001
ACAD
1000
MTEXTBEGIN
1070
    73
1070
     1
1070
    44
1040
1.0
1070
    74
1070
     0
1000
MTEXTEND
  0
POINT
  5
B93
330
AAD
100
AcDbEntity
  8
Defpoints
 62
     0
100
AcDbPoint
 10
34.56005475527376
 20
41.42032775445242
 30
0.0
  0
POINT
  5
B94
330
AAD
100
AcDbEntity
  8
Defpoints
 62
     0
100
AcDbPoint
 10
35.08005475527375
 20
41.44032775445242
 30
0.0
  0
POINT
  5
B95
330
AAD
100
AcDbEntity
  8
Defpoints
 62
     0
100
AcDbPoint
 10
35.08005475527375
 20
42.99513090405873
 30
0.0
  0
ENDBLK
  5
AAF
330
AAD
100
AcDbEntity
  8
0
100
AcDbBlockEnd
  0
BLOCK
  5
B98
330
B97
100
AcDbEntity
  8
0
100
AcDbBlockBegin
  2
*D15
 70
     1
 10
0.0
 20
0.0
 30
0.0
  3
*D15
  1

  0
LINE
  5
C8B
330
B97
100
AcDbEntity
  8
Dimension (ANSI)
100
AcDbLine
 10
34.84414566436467
 20
41.42032775445242
 30
0.0
 11
38.78942554004592
 21
41.42032775445242
 31
0.0
  0
LINE
  5
C8C
330
B97
100
AcDbEntity
  8
Dimension (ANSI)
100
AcDbLine
 10
34.86414566436466
 20
41.94032775445243
 30
0.0
 11
38.78942554004592
 21
41.94032775445243
 31
0.0
  0
LINE
  5
C8D
330
B97
100
AcDbEntity
  8
Dimension (ANSI)
100
AcDbLine
 10
38.2212437218641
 20
42.38771500273009
 30
0.0
 11
38.2212437218641
 21
42.83510225100775
 31
0.0
  0
LINE
  5
C8E
330
B97
100
AcDbEntity
  8
Dimension (ANSI)
100
AcDbLine
 10
38.2212437218641
 20
40.97294050617476
 30
0.0
 11
38.2212437218641
 21
40.36854115065515
 31
0.0
  0
LINE
  5
C8F
330
B97
100
AcDbEntity
  8
Dimension (ANSI)
100
AcDbLine
 10
38.2212437218641
 20
40.36854115065515
 30
0.0
 11
37.77385647358644
 21
40.36854115065515
 31
0.0
  0
SOLID
  5
C90
330
B97
100
AcDbEntity
  8
Dimension (ANSI)
100
AcDbTrace
 10
38.14667918048449
 20
42.38771500273009
 30
0.0
 11
38.29580826324371
 21
42.38771500273009
 31
0.0
 12
38.2212437218641
 22
41.94032775445243
 32
0.0
 13
38.2212437218641
 23
41.94032775445243
 33
0.0
  0
SOLID
  5
C91
330
B97
100
AcDbEntity
  8
Dimension (ANSI)
100
AcDbTrace
 10
38.14667918048449
 20
40.97294050617476
 30
0.0
 11
38.29580826324371
 21
40.97294050617476
 31
0.0
 12
38.2212437218641
 22
41.42032775445242
 32
0.0
 13
38.2212437218641
 23
41.42032775445242
 33
0.0
  0
MTEXT
  5
C92
330
B97
100
AcDbEntity
  8
Dimension (ANSI)
100
AcDbMText
 10
35.4488742823791
 20
40.64126843421963
 30
0.0
 40
0.5454545671289618
 41
0.0
 71
     1
 72
     1
  1
\A1;0.520
  7
Note Text (ANSI)
 73
     1
 44
1.0
1001
ACAD
1000
MTEXTBEGIN
1070
    73
1070
     1
1070
    44
1040
1.0
1070
    74
1070
     0
1000
MTEXTEND
  0
POINT
  5
C93
330
B97
100
AcDbEntity
  8
Defpoints
 62
     0
100
AcDbPoint
 10
34.56005475527376
 20
41.42032775445242
 30
0.0
  0
POINT
  5
C94
330
B97
100
AcDbEntity
  8
Defpoints
 62
     0
100
AcDbPoint
 10
34.58005475527375
 20
41.94032775445243
 30
0.0
  0
POINT
  5
C95
330
B97
100
AcDbEntity
  8
Defpoints
 62
     0
100
AcDbPoint
 10
38.2212437218641
 20
41.94032775445243
 30
0.0
  0
ENDBLK
  5
B99
330
B97
100
AcDbEntity
  8
0
100
AcDbBlockEnd
  0
BLOCK
  5
C9A
330
C99
100
AcDbEntity
  8
0
100
AcDbBlockBegin
  2
*D16
 70
     1
 10
0.0
 20
0.0
 30
0.0
  3
*D16
  1

  0
LINE
  5
D78
330
C99
100
AcDbEntity
  8
Dimension (ANSI)
100
AcDbLine
 10
48.66860558597642
 20
41.72441866354332
 30
0.0
 11
48.66860558597642
 21
44.52819461200432
 31
0.0
  0
LINE
  5
D79
330
C99
100
AcDbEntity
  8
Dimension (ANSI)
100
AcDbLine
 10
49.44260558597642
 20
40.50641866354331
 30
0.0
 11
49.44260558597642
 21
44.52819461200432
 31
0.0
  0
LINE
  5
D7A
330
C99
100
AcDbEntity
  8
Dimension (ANSI)
100
AcDbLine
 10
49.88999283425409
 20
43.96001279382249
 30
0.0
 11
50.33738008253175
 21
43.96001279382249
 31
0.0
  0
LINE
  5
D7B
330
C99
100
AcDbEntity
  8
Dimension (ANSI)
100
AcDbLine
 10
48.22121833769876
 20
43.96001279382249
 30
0.0
 11
47.2432956916081
 21
43.96001279382249
 31
0.0
  0
SOLID
  5
D7C
330
C99
100
AcDbEntity
  8
Dimension (ANSI)
100
AcDbTrace
 10
49.88999283425409
 20
44.03457733520211
 30
0.0
 11
49.88999283425409
 21
43.88544825244289
 31
0.0
 12
49.44260558597642
 22
43.96001279382249
 32
0.0
 13
49.44260558597642
 23
43.96001279382249
 33
0.0
  0
SOLID
  5
D7D
330
C99
100
AcDbEntity
  8
Dimension (ANSI)
100
AcDbTrace
 10
48.22121833769876
 20
44.03457733520211
 30
0.0
 11
48.22121833769876
 21
43.88544825244289
 31
0.0
 12
48.66860558597642
 22
43.96001279382249
 32
0.0
 13
48.66860558597642
 23
43.96001279382249
 33
0.0
  0
MTEXT
  5
D7E
330
C99
100
AcDbEntity
  8
Dimension (ANSI)
100
AcDbMText
 10
44.89233947339464
 20
44.23274007738697
 30
0.0
 40
0.5454545671289618
 41
0.0
 71
     1
 72
     1
  1
\A1;0.774
  7
Note Text (ANSI)
 73
     1
 44
1.0
1001
ACAD
1000
MTEXTBEGIN
1070
    73
1070
     1
1070
    44
1040
1.0
1070
    74
1070
     0
1000
MTEXTEND
  0
POINT
  5
D7F
330
C99
100
AcDbEntity
  8
Defpoints
 62
     0
100
AcDbPoint
 10
48.66860558597642
 20
41.44032775445242
 30
0.0
  0
POINT
  5
D80
330
C99
100
AcDbEntity
  8
Defpoints
 62
     0
100
AcDbPoint
 10
49.44260558597642
 20
40.22232775445242
 30
0.0
  0
POINT
  5
D81
330
C99
100
AcDbEntity
  8
Defpoints
 62
     0
100
AcDbPoint
 10
49.44260558597642
 20
43.96001279382249
 30
0.0
  0
ENDBLK
  5
C9B
330
C99
100
AcDbEntity
  8
0
100
AcDbBlockEnd
  0
ENDSEC
  0
SECTION
  2
ENTITIES
  0
LINE
  5
11B
330
6C
100
AcDbEntity
  8
Visible (ANSI)
100
AcDbLine
 10
35.08005475527376
 20
15.45832775445242
 30
0.0
 11
35.08005475527375
 21
40.22232775445242
 31
0.0
  0
LINE
  5
11C
330
6C
100
AcDbEntity
  8
Visible (ANSI)
100
AcDbLine
 10
35.08005475527376
 20
15.45832775445242
 30
0.0
 11
34.95505475527377
 21
15.45832775445242
 31
0.0
  0
LINE
  5
11D
330
6C
100
AcDbEntity
  8
Visible (ANSI)
100
AcDbLine
 10
35.08005475527375
 20
40.22232775445242
 30
0.0
 11
34.95505475527376
 21
40.22232775445242
 31
0.0
  0
LINE
  5
11E
330
6C
100
AcDbEntity
  8
Visible (ANSI)
100
AcDbLine
 10
34.95485475527376
 20
40.22252775445241
 30
0.0
 11
35.08005475527375
 21
40.22252775445241
 31
0.0
  0
LINE
  5
11F
330
6C
100
AcDbEntity
  8
Visible (ANSI)
100
AcDbLine
 10
34.95485475527376
 20
40.22232775445242
 30
0.0
 11
34.95485475527376
 21
40.22252775445241
 31
0.0
  0
LINE
  5
120
330
6C
100
AcDbEntity
  8
Visible (ANSI)
100
AcDbLine
 10
34.95485475527376
 20
15.45812775445241
 30
0.0
 11
34.95485475527376
 21
15.45832775445242
 31
0.0
  0
LINE
  5
121
330
6C
100
AcDbEntity
  8
Visible (ANSI)
100
AcDbLine
 10
35.08005475527376
 20
15.45812775445241
 30
0.0
 11
34.95485475527376
 21
15.45812775445241
 31
0.0
  0
LINE
  5
122
330
6C
100
AcDbEntity
  8
Hidden (ANSI)
 48
1.098226070404052
100
AcDbLine
 10
34.98630475527375
 20
40.22232775445242
 30
0.0
 11
34.98630475527376
 21
15.45832775445242
 31
0.0
  0
LINE
  5
123
330
6C
100
AcDbEntity
  8
Visible (ANSI)
100
AcDbLine
 10
34.95485475527376
 20
15.45832775445242
 30
0.0
 11
34.95505475527377
 21
15.45832775445242
 31
0.0
  0
LINE
  5
124
330
6C
100
AcDbEntity
  8
Visible (ANSI)
100
AcDbLine
 10
34.95505475527376
 20
40.22232775445242
 30
0.0
 11
34.95485475527376
 21
40.22232775445242
 31
0.0
  0
LINE
  5
125
330
6C
100
AcDbEntity
  8
Visible (ANSI)
100
AcDbLine
 10
35.08005475527375
 20
41.44032775445242
 30
0.0
 11
35.08005475527375
 21
40.22252775445241
 31
0.0
  0
LINE
  5
126
330
6C
100
AcDbEntity
  8
Visible (ANSI)
100
AcDbLine
 10
13.38005475527375
 20
41.94032775445243
 30
0.0
 11
34.58005475527375
 21
41.94032775445243
 31
0.0
  0
LINE
  5
127
330
6C
100
AcDbEntity
  8
Visible (ANSI)
100
AcDbLine
 10
12.88005475527375
 20
40.22252775445241
 30
0.0
 11
12.88005475527375
 21
41.44032775445242
 31
0.0
  0
LINE
  5
128
330
6C
100
AcDbEntity
  8
Visible (ANSI)
100
AcDbLine
 10
12.88005475527376
 20
14.24032775445241
 30
0.0
 11
12.88005475527376
 21
15.45812775445242
 31
0.0
  0
LINE
  5
129
330
6C
100
AcDbEntity
  8
Visible (ANSI)
100
AcDbLine
 10
34.58005475527376
 20
13.74032775445242
 30
0.0
 11
13.38005475527376
 21
13.74032775445242
 31
0.0
  0
LINE
  5
12A
330
6C
100
AcDbEntity
  8
Visible (ANSI)
100
AcDbLine
 10
35.08005475527376
 20
15.45812775445241
 30
0.0
 11
35.08005475527376
 21
14.24032775445241
 31
0.0
  0
LINE
  5
12B
330
6C
100
AcDbEntity
  8
Visible (ANSI)
100
AcDbLine
 10
34.58005475527375
 20
41.94032775445243
 30
0.0
 11
35.08005475527375
 21
41.44032775445242
 31
0.0
  0
LINE
  5
12C
330
6C
100
AcDbEntity
  8
Visible (ANSI)
100
AcDbLine
 10
12.88005475527375
 20
41.44032775445242
 30
0.0
 11
13.38005475527375
 21
41.94032775445243
 31
0.0
  0
LINE
  5
12D
330
6C
100
AcDbEntity
  8
Visible (ANSI)
100
AcDbLine
 10
12.88005475527375
 20
40.22252775445241
 30
0.0
 11
13.00525475527374
 21
40.22252775445241
 31
0.0
  0
LINE
  5
12E
330
6C
100
AcDbEntity
  8
Visible (ANSI)
100
AcDbLine
 10
13.00525475527374
 20
40.22252775445241
 30
0.0
 11
13.00525475527374
 21
40.22232775445242
 31
0.0
  0
LINE
  5
12F
330
6C
100
AcDbEntity
  8
Visible (ANSI)
100
AcDbLine
 10
13.00525475527375
 20
15.45832775445242
 30
0.0
 11
13.00525475527375
 21
15.45812775445242
 31
0.0
  0
LINE
  5
130
330
6C
100
AcDbEntity
  8
Visible (ANSI)
100
AcDbLine
 10
13.00525475527375
 20
15.45812775445242
 30
0.0
 11
12.88005475527376
 21
15.45812775445242
 31
0.0
  0
LINE
  5
131
330
6C
100
AcDbEntity
  8
Visible (ANSI)
100
AcDbLine
 10
12.88005475527376
 20
40.22232775445242
 30
0.0
 11
12.88005475527376
 21
15.45832775445242
 31
0.0
  0
LINE
  5
132
330
6C
100
AcDbEntity
  8
Visible (ANSI)
100
AcDbLine
 10
12.88005475527376
 20
40.22232775445242
 30
0.0
 11
13.00505475527374
 21
40.22232775445242
 31
0.0
  0
LINE
  5
133
330
6C
100
AcDbEntity
  8
Visible (ANSI)
100
AcDbLine
 10
12.88005475527377
 20
15.45832775445242
 30
0.0
 11
13.00505475527375
 21
15.45832775445242
 31
0.0
  0
LINE
  5
134
330
6C
100
AcDbEntity
  8
Hidden (ANSI)
 48
1.098226070404052
100
AcDbLine
 10
12.97380475527377
 20
15.45832775445242
 30
0.0
 11
12.97380475527376
 21
40.22232775445242
 31
0.0
  0
LINE
  5
135
330
6C
100
AcDbEntity
  8
Visible (ANSI)
100
AcDbLine
 10
13.00525475527374
 20
40.22232775445242
 30
0.0
 11
13.00505475527374
 21
40.22232775445242
 31
0.0
  0
LINE
  5
136
330
6C
100
AcDbEntity
  8
Visible (ANSI)
100
AcDbLine
 10
13.00505475527375
 20
15.45832775445242
 30
0.0
 11
13.00525475527375
 21
15.45832775445242
 31
0.0
  0
LINE
  5
137
330
6C
100
AcDbEntity
  8
Visible (ANSI)
100
AcDbLine
 10
13.38005475527376
 20
13.74032775445242
 30
0.0
 11
12.88005475527376
 21
14.24032775445241
 31
0.0
  0
LINE
  5
138
330
6C
100
AcDbEntity
  8
Visible (ANSI)
100
AcDbLine
 10
35.08005475527376
 20
14.24032775445241
 30
0.0
 11
34.58005475527376
 21
13.74032775445242
 31
0.0
  0
CIRCLE
  5
139
330
6C
100
AcDbEntity
  8
Visible (ANSI)
100
AcDbCircle
 10
34.56005475527376
 20
41.42032775445242
 30
0.0
 40
0.25
  0
CIRCLE
  5
13A
330
6C
100
AcDbEntity
  8
Visible (ANSI)
100
AcDbCircle
 10
13.40005475527376
 20
41.42032775445242
 30
0.0
 40
0.25
  0
CIRCLE
  5
13B
330
6C
100
AcDbEntity
  8
Visible (ANSI)
100
AcDbCircle
 10
13.40005475527376
 20
14.26032775445242
 30
0.0
 40
0.25
  0
CIRCLE
  5
13C
330
6C
100
AcDbEntity
  8
Visible (ANSI)
100
AcDbCircle
 10
34.56005475527376
 20
14.26032775445242
 30
0.0
 40
0.25
  0
CIRCLE
  5
13D
330
6C
100
AcDbEntity
  8
Visible (ANSI)
100
AcDbCircle
 10
34.56005475527376
 20
40.67032775445242
 30
0.0
 40
0.15625
  0
CIRCLE
  5
13E
330
6C
100
AcDbEntity
  8
Visible (ANSI)
100
AcDbCircle
 10
13.40005475527376
 20
40.67032775445242
 30
0.0
 40
0.15625
  0
CIRCLE
  5
13F
330
6C
100
AcDbEntity
  8
Visible (ANSI)
100
AcDbCircle
 10
13.40005475527376
 20
15.01032775445242
 30
0.0
 40
0.15625
  0
CIRCLE
  5
140
330
6C
100
AcDbEntity
  8
Visible (ANSI)
100
AcDbCircle
 10
34.56005475527376
 20
15.01032775445242
 30
0.0
 40
0.15625
  0
LINE
  5
141
330
6C
100
AcDbEntity
  8
Visible (ANSI)
100
AcDbLine
 10
48.79360558597645
 20
15.45832775445242
 30
0.0
 11
49.44260558597642
 21
15.45832775445242
 31
0.0
  0
LINE
  5
142
330
6C
100
AcDbEntity
  8
Visible (ANSI)
100
AcDbLine
 10
49.44260558597642
 20
40.22232775445242
 30
0.0
 11
49.44260558597642
 21
15.45832775445242
 31
0.0
  0
LINE
  5
143
330
6C
100
AcDbEntity
  8
Visible (ANSI)
100
AcDbLine
 10
49.44260558597642
 20
40.22232775445242
 30
0.0
 11
48.79360558597644
 21
40.22232775445242
 31
0.0
  0
LINE
  5
144
330
6C
100
AcDbEntity
  8
Visible (ANSI)
100
AcDbLine
 10
48.79360558597645
 20
15.45832775445242
 30
0.0
 11
48.6686055859764
 21
15.45832775445242
 31
0.0
  0
LINE
  5
145
330
6C
100
AcDbEntity
  8
Visible (ANSI)
100
AcDbLine
 10
48.79360558597644
 20
40.22232775445242
 30
0.0
 11
48.6686055859764
 21
40.22232775445242
 31
0.0
  0
LINE
  5
146
330
6C
100
AcDbEntity
  8
Visible (ANSI)
100
AcDbLine
 10
48.66860558597639
 20
15.45832775445242
 30
0.0
 11
48.66860558597639
 21
40.22232775445242
 31
0.0
  0
LINE
  5
147
330
6C
100
AcDbEntity
  8
Visible (ANSI)
100
AcDbLine
 10
48.66860558597642
 20
40.22252775445241
 30
0.0
 11
48.76235558597643
 21
40.22252775445241
 31
0.0
  0
LINE
  5
148
330
6C
100
AcDbEntity
  8
Visible (ANSI)
100
AcDbLine
 10
48.76235558597638
 20
40.22252775445241
 30
0.0
 11
48.76235558597638
 21
40.22232775445242
 31
0.0
  0
LINE
  5
149
330
6C
100
AcDbEntity
  8
Visible (ANSI)
100
AcDbLine
 10
48.66860558597639
 20
40.22232775445242
 30
0.0
 11
48.66860558597639
 21
40.22252775445241
 31
0.0
  0
LINE
  5
14A
330
6C
100
AcDbEntity
  8
Visible (ANSI)
100
AcDbLine
 10
48.76235558597638
 20
15.45832775445242
 30
0.0
 11
48.76235558597638
 21
15.45812775445241
 31
0.0
  0
LINE
  5
14B
330
6C
100
AcDbEntity
  8
Visible (ANSI)
100
AcDbLine
 10
48.66860558597639
 20
15.45812775445241
 30
0.0
 11
48.66860558597639
 21
15.45832775445242
 31
0.0
  0
LINE
  5
14C
330
6C
100
AcDbEntity
  8
Visible (ANSI)
100
AcDbLine
 10
48.76235558597643
 20
15.45812775445241
 30
0.0
 11
48.66860558597642
 21
15.45812775445241
 31
0.0
  0
LINE
  5
14D
330
6C
100
AcDbEntity
  8
Hidden (ANSI)
 48
1.098226070404052
100
AcDbLine
 10
48.76235558597638
 20
40.22232775445242
 30
0.0
 11
48.76235558597638
 21
15.45832775445242
 31
0.0
  0
LINE
  5
14E
330
6C
100
AcDbEntity
  8
Visible (ANSI)
100
AcDbLine
 10
48.76235558597643
 20
14.24032775445241
 30
0.0
 11
48.76235558597643
 21
15.45812775445241
 31
0.0
  0
LINE
  5
14F
330
6C
100
AcDbEntity
  8
Visible (ANSI)
100
AcDbLine
 10
48.76235558597643
 20
40.22252775445241
 30
0.0
 11
48.76235558597643
 21
41.44032775445242
 31
0.0
  0
LINE
  5
150
330
6C
100
AcDbEntity
  8
Visible (ANSI)
100
AcDbLine
 10
48.66860558597642
 20
41.44032775445242
 30
0.0
 11
48.66860558597642
 21
40.22252775445241
 31
0.0
  0
LINE
  5
151
330
6C
100
AcDbEntity
  8
Visible (ANSI)
100
AcDbLine
 10
48.66860558597642
 20
15.45812775445241
 30
0.0
 11
48.66860558597642
 21
14.24032775445241
 31
0.0
  0
LINE
  5
152
330
6C
100
AcDbEntity
  8
Visible (ANSI)
100
AcDbLine
 10
48.76235558597628
 20
13.74032775445242
 30
0.0
 11
48.76235558597643
 21
14.24032775445241
 31
0.0
  0
LINE
  5
153
330
6C
100
AcDbEntity
  8
Visible (ANSI)
100
AcDbLine
 10
48.66860558597642
 20
14.24032775445241
 30
0.0
 11
48.66860558597628
 21
13.74032775445242
 31
0.0
  0
LINE
  5
154
330
6C
100
AcDbEntity
  8
Visible (ANSI)
100
AcDbLine
 10
48.66860558597628
 20
13.74032775445242
 30
0.0
 11
48.76235558597628
 21
13.74032775445242
 31
0.0
  0
LINE
  5
155
330
6C
100
AcDbEntity
  8
Visible (ANSI)
100
AcDbLine
 10
48.76235558597643
 20
14.24032775445241
 30
0.0
 11
48.66860558597642
 21
14.24032775445241
 31
0.0
  0
LINE
  5
156
330
6C
100
AcDbEntity
  8
Visible (ANSI)
100
AcDbLine
 10
48.76235558597643
 20
41.44032775445242
 30
0.0
 11
48.76235558597628
 21
41.94032775445243
 31
0.0
  0
LINE
  5
157
330
6C
100
AcDbEntity
  8
Visible (ANSI)
100
AcDbLine
 10
48.66860558597628
 20
41.94032775445243
 30
0.0
 11
48.66860558597642
 21
41.44032775445242
 31
0.0
  0
LINE
  5
158
330
6C
100
AcDbEntity
  8
Visible (ANSI)
100
AcDbLine
 10
48.66860558597642
 20
41.44032775445242
 30
0.0
 11
48.76235558597643
 21
41.44032775445242
 31
0.0
  0
LINE
  5
159
330
6C
100
AcDbEntity
  8
Visible (ANSI)
100
AcDbLine
 10
48.76235558597628
 20
41.94032775445243
 30
0.0
 11
48.66860558597628
 21
41.94032775445243
 31
0.0
  0
LINE
  5
15A
330
6C
100
AcDbEntity
  8
Hidden (ANSI)
 48
0.0391843691468239
100
AcDbLine
 10
48.66860558597627
 20
41.67032775445242
 30
0.0
 11
48.76235558597628
 21
41.67032775445242
 31
0.0
  0
LINE
  5
15B
330
6C
100
AcDbEntity
  8
Hidden (ANSI)
 48
0.0391843691468239
100
AcDbLine
 10
48.66860558597627
 20
41.17032775445241
 30
0.0
 11
48.76235558597628
 21
41.17032775445241
 31
0.0
  0
LINE
  5
15C
330
6C
100
AcDbEntity
  8
Hidden (ANSI)
 48
0.0391843691468239
100
AcDbLine
 10
48.66860558597627
 20
14.51032775445242
 30
0.0
 11
48.76235558597628
 21
14.51032775445242
 31
0.0
  0
LINE
  5
15D
330
6C
100
AcDbEntity
  8
Hidden (ANSI)
 48
0.0391843691468239
100
AcDbLine
 10
48.66860558597627
 20
14.01032775445242
 30
0.0
 11
48.76235558597628
 21
14.01032775445242
 31
0.0
  0
LINE
  5
15E
330
6C
100
AcDbEntity
  8
Hidden (ANSI)
 48
0.0391843691468239
100
AcDbLine
 10
48.66860558597627
 20
40.8265777544524
 30
0.0
 11
48.76235558597628
 21
40.8265777544524
 31
0.0
  0
LINE
  5
15F
330
6C
100
AcDbEntity
  8
Hidden (ANSI)
 48
0.0391843691468239
100
AcDbLine
 10
48.66860558597627
 20
40.51407775445242
 30
0.0
 11
48.76235558597628
 21
40.51407775445242
 31
0.0
  0
LINE
  5
160
330
6C
100
AcDbEntity
  8
Hidden (ANSI)
 48
0.0391843691468239
100
AcDbLine
 10
48.66860558597627
 20
15.16657775445242
 30
0.0
 11
48.76235558597628
 21
15.16657775445242
 31
0.0
  0
LINE
  5
161
330
6C
100
AcDbEntity
  8
Hidden (ANSI)
 48
0.0391843691468239
100
AcDbLine
 10
48.66860558597627
 20
14.85407775445242
 30
0.0
 11
48.76235558597628
 21
14.85407775445242
 31
0.0
  0
LINE
  5
162
330
6C
100
AcDbEntity
  8
Visible Narrow (ANSI)
100
AcDbLine
 10
72.14057763123389
 20
26.82795602462366
 30
0.0
 11
72.14057763123391
 21
38.33121568348764
 31
0.0
  0
ELLIPSE
  5
163
330
6C
100
AcDbEntity
  8
Visible (ANSI)
100
AcDbEllipse
 10
72.09035697916097
 20
26.85687617475095
 30
0.0
 11
0.0710227272727278
 21
0.0000000000000041
 31
0.0
210
0.0
220
0.0
230
1.0
 40
0.5758617009853142
 41
3.926990816987112
 42
5.497787143782089
  0
LINE
  5
164
330
6C
100
AcDbEntity
  8
Visible (ANSI)
100
AcDbLine
 10
72.04005597404478
 20
38.33126195572783
 30
0.0
 11
72.04013663844927
 21
38.33130840726902
 31
0.0
  0
ELLIPSE
  5
165
330
6C
100
AcDbEntity
  8
Visible (ANSI)
100
AcDbEllipse
 10
72.09035697916092
 20
38.36013583361491
 30
0.0
 11
0.0710227272726495
 21
0.0000000000000041
 31
0.0
210
0.0
220
0.0
230
1.0
 40
0.5758617009853142
 41
3.926990816986959
 42
3.983676441749083
  0
ELLIPSE
  5
166
330
6C
100
AcDbEntity
  8
Visible (ANSI)
100
AcDbEllipse
 10
72.09035697916078
 20
38.36013583361508
 30
0.0
 11
0.0710227272730394
 21
-0.0000000000000001
 31
0.0
210
0.0
220
0.0
230
1.0
 40
0.5758617009853144
 41
5.27137884641036
 42
5.497787143781815
  0
LINE
  5
167
330
6C
100
AcDbEntity
  8
Visible Narrow (ANSI)
100
AcDbLine
 10
72.04013632708807
 20
26.82795602462364
 30
0.0
 11
72.04013632708809
 21
38.33121568348763
 31
0.0
  0
LINE
  5
168
330
6C
100
AcDbEntity
  8
Visible (ANSI)
100
AcDbLine
 10
72.09035697916101
 20
38.3023884364427
 30
0.0
 11
72.12802246821567
 21
38.32407854903819
 31
0.0
  0
LINE
  5
169
330
6C
100
AcDbEntity
  8
Visible (ANSI)
100
AcDbLine
 10
72.04005597404478
 20
38.3313548588102
 30
0.0
 11
72.09035697916101
 21
38.3023884364427
 31
0.0
  0
LINE
  5
16A
330
6C
100
AcDbEntity
  8
Visible (ANSI)
100
AcDbLine
 10
72.04005597404478
 20
38.33126195572783
 30
0.0
 11
72.04005597404478
 21
38.3313548588102
 31
0.0
  0
LINE
  5
16B
330
6C
100
AcDbEntity
  8
Visible (ANSI)
100
AcDbLine
 10
72.04005597404474
 20
26.82790939378148
 30
0.0
 11
72.04005597404474
 21
26.82800229686384
 31
0.0
  0
LINE
  5
16C
330
6C
100
AcDbEntity
  8
Visible (ANSI)
100
AcDbLine
 10
72.04005597404474
 20
26.82790939378148
 30
0.0
 11
72.04013663845022
 21
26.82795584532322
 31
0.0
  0
LINE
  5
16D
330
6C
100
AcDbEntity
  8
Visible (ANSI)
100
AcDbLine
 10
72.12632619015991
 20
26.82160990557599
 30
0.0
 11
72.12802246821566
 21
26.82063308400946
 31
0.0
  0
LINE
  5
16E
330
6C
100
AcDbEntity
  8
Visible (ANSI)
100
AcDbLine
 10
72.09035697916099
 20
26.79894297141399
 30
0.0
 11
72.04005597404474
 21
26.82790939378148
 31
0.0
  0
LINE
  5
16F
330
6C
100
AcDbEntity
  8
Visible (ANSI)
100
AcDbLine
 10
72.12802246821566
 20
26.82063308400946
 30
0.0
 11
72.09035697916099
 21
26.79894297141399
 31
0.0
  0
LINE
  5
170
330
6C
100
AcDbEntity
  8
Visible (ANSI)
100
AcDbLine
 10
72.14057763123389
 20
26.82795602462366
 30
0.0
 11
72.40132325679638
 21
26.9781094440846
 31
0.0
  0
LINE
  5
171
330
6C
100
AcDbEntity
  8
Visible (ANSI)
100
AcDbLine
 10
72.4013232567964
 20
38.48136910294858
 30
0.0
 11
72.40132325679638
 21
26.9781094440846
 31
0.0
  0
LINE
  5
172
330
6C
100
AcDbEntity
  8
Visible (ANSI)
100
AcDbLine
 10
72.4013232567964
 20
38.48136910294858
 30
0.0
 11
72.14057763123391
 21
38.33121568348764
 31
0.0
  0
LINE
  5
173
330
6C
100
AcDbEntity
  8
Visible (ANSI)
100
AcDbLine
 10
72.04005597404474
 20
26.82800229686384
 30
0.0
 11
72.04013632708807
 21
26.82795602462364
 31
0.0
  0
LINE
  5
174
330
6C
100
AcDbEntity
  8
Visible (ANSI)
100
AcDbLine
 10
72.36365776774171
 20
38.50305921554406
 30
0.0
 11
72.4013232567964
 21
38.48136910294858
 31
0.0
  0
LINE
  5
175
330
6C
100
AcDbEntity
  8
Visible (ANSI)
100
AcDbLine
 10
72.12802246821567
 20
38.36736587114677
 30
0.0
 11
72.36365776774171
 21
38.50305921554406
 31
0.0
  0
LINE
  5
176
330
6C
100
AcDbEntity
  8
Visible (ANSI)
100
AcDbLine
 10
72.04013632708809
 20
38.33121568348763
 30
0.0
 11
72.04005597404478
 21
38.33126195572783
 31
0.0
  0
ELLIPSE
  5
177
330
6C
100
AcDbEntity
  8
Visible (ANSI)
100
AcDbEllipse
 10
71.91910455559235
 20
39.00078293387248
 30
0.0
 11
-0.0708852573273305
 21
0.1230942380888028
 31
0.0
210
0.0
220
0.0
230
1.0
 40
0.5780931159158115
 41
0.2678448778124807
 42
2.873747775777321
  0
ELLIPSE
  5
178
330
6C
100
AcDbEntity
  8
Visible (ANSI)
100
AcDbEllipse
 10
63.41775257268917
 20
43.89638594742051
 30
0.0
 11
-0.0708852573273309
 21
0.1230942380888036
 31
0.0
210
0.0
220
0.0
230
1.0
 40
0.5780931159158115
 41
0.2678448778124816
 42
2.873747775777322
  0
ELLIPSE
  5
179
330
6C
100
AcDbEntity
  8
Visible (ANSI)
100
AcDbEllipse
 10
63.41775257268913
 20
31.28014736178226
 30
0.0
 11
-0.0708852573273306
 21
0.123094238088803
 31
0.0
210
0.0
220
0.0
230
1.0
 40
0.5780931159158115
 41
0.2678448778124816
 42
2.873747775777322
  0
ELLIPSE
  5
17A
330
6C
100
AcDbEntity
  8
Visible (ANSI)
100
AcDbEllipse
 10
71.91910455559233
 20
26.38454434823423
 30
0.0
 11
-0.0708852573273305
 21
0.1230942380888029
 31
0.0
210
0.0
220
0.0
230
1.0
 40
0.5780931159158115
 41
0.2678448778125047
 42
2.873747775777321
  0
ELLIPSE
  5
17B
330
6C
100
AcDbEntity
  8
Visible (ANSI)
100
AcDbEllipse
 10
71.91910455559235
 20
38.65239637499072
 30
0.0
 11
0.0443032858295862
 21
-0.0769338988054992
 31
0.0
210
0.0
220
0.0
230
0.9999999999999998
 40
0.5780931159158115
 41
3.578838513251698
 42
5.845939447516943
  0
ELLIPSE
  5
17C
330
6C
100
AcDbEntity
  8
Visible (ANSI)
100
AcDbEllipse
 10
63.41775257268917
 20
43.54799938853875
 30
0.0
 11
0.0443032858295865
 21
-0.0769338988054997
 31
0.0
210
0.0
220
0.0
230
0.9999999999999998
 40
0.5780931159158114
 41
3.578838513251699
 42
5.845939447516943
  0
ELLIPSE
  5
17D
330
6C
100
AcDbEntity
  8
Visible (ANSI)
100
AcDbEllipse
 10
63.41775257268913
 20
31.62853392066403
 30
0.0
 11
0.0443032858295862
 21
-0.0769338988054992
 31
0.0
210
0.0
220
0.0
230
0.9999999999999998
 40
0.5780931159158115
 41
3.578838513251698
 42
5.845939447516943
  0
ELLIPSE
  5
17E
330
6C
100
AcDbEntity
  8
Visible (ANSI)
100
AcDbEllipse
 10
71.91910455559233
 20
26.73293090711599
 30
0.0
 11
0.0443032858295861
 21
-0.076933898805499
 31
0.0
210
0.0
220
0.0
230
1.0
 40
0.5780931159158116
 41
3.578838513251616
 42
5.845939447516943
  0
ELLIPSE
  5
17F
330
6C
100
AcDbEntity
  8
Visible (ANSI)
100
AcDbEllipse
 10
71.88143906653768
 20
38.97909282127701
 30
0.0
 11
-0.0708852573273306
 21
0.123094238088803
 31
0.0
210
0.0
220
0.0
230
1.0
 40
0.5780931159158114
 41
0.0
 42
6.283185307179586
  0
ELLIPSE
  5
180
330
6C
100
AcDbEntity
  8
Visible (ANSI)
100
AcDbEllipse
 10
63.38008708363449
 20
43.87469583482505
 30
0.0
 11
-0.0708852573273306
 21
0.123094238088803
 31
0.0
210
0.0
220
0.0
230
1.0
 40
0.5780931159158114
 41
0.0
 42
6.283185307179586
  0
ELLIPSE
  5
181
330
6C
100
AcDbEntity
  8
Visible (ANSI)
100
AcDbEllipse
 10
63.38008708363447
 20
31.25845724918679
 30
0.0
 11
-0.0708852573273306
 21
0.123094238088803
 31
0.0
210
0.0
220
0.0
230
1.0
 40
0.5780931159158114
 41
0.0
 42
6.283185307179586
  0
ELLIPSE
  5
182
330
6C
100
AcDbEntity
  8
Visible (ANSI)
100
AcDbEllipse
 10
71.88143906653765
 20
26.36285423563875
 30
0.0
 11
-0.0708852573273306
 21
0.123094238088803
 31
0.0
210
0.0
220
0.0
230
1.0
 40
0.5780931159158114
 41
0.0
 42
6.283185307179586
  0
ELLIPSE
  5
183
330
6C
100
AcDbEntity
  8
Visible (ANSI)
100
AcDbEllipse
 10
71.88143906653768
 20
38.63070626239525
 30
0.0
 11
-0.0443032858295816
 21
0.0769338988055019
 31
0.0
210
0.0
220
0.0
230
1.0
 40
0.5780931159158116
 41
0.0
 42
6.283185307179586
  0
ELLIPSE
  5
184
330
6C
100
AcDbEntity
  8
Visible (ANSI)
100
AcDbEllipse
 10
63.38008708363449
 20
43.52630927594328
 30
0.0
 11
-0.0443032858295816
 21
0.0769338988055019
 31
0.0
210
0.0
220
0.0
230
1.0
 40
0.5780931159158116
 41
0.0
 42
6.283185307179586
  0
ELLIPSE
  5
185
330
6C
100
AcDbEntity
  8
Visible (ANSI)
100
AcDbEllipse
 10
63.38008708363447
 20
31.60684380806856
 30
0.0
 11
-0.0443032858295816
 21
0.0769338988055019
 31
0.0
210
0.0
220
0.0
230
1.0
 40
0.5780931159158116
 41
0.0
 42
6.283185307179586
  0
ELLIPSE
  5
186
330
6C
100
AcDbEntity
  8
Visible (ANSI)
100
AcDbEllipse
 10
71.88143906653765
 20
26.71124079452051
 30
0.0
 11
-0.0443032858295816
 21
0.0769338988055019
 31
0.0
210
0.0
220
0.0
230
1.0
 40
0.5780931159158116
 41
0.0
 42
6.283185307179586
  0
LINE
  5
187
330
6C
100
AcDbEntity
  8
Visible (ANSI)
100
AcDbLine
 10
72.12802246821566
 20
26.25494621546784
 30
0.0
 11
72.12802246821566
 21
26.82063308400946
 31
0.0
  0
LINE
  5
188
330
6C
100
AcDbEntity
  8
Visible (ANSI)
100
AcDbLine
 10
71.92713985992401
 20
39.23770372401015
 30
0.0
 11
63.4097172683575
 21
44.1425611855989
 31
0.0
  0
LINE
  5
189
330
6C
100
AcDbEntity
  8
Visible (ANSI)
100
AcDbLine
 10
72.12802246821567
 20
38.32407854903819
 30
0.0
 11
72.12802246821567
 21
38.8897654175798
 31
0.0
  0
LINE
  5
18A
330
6C
100
AcDbEntity
  8
Visible (ANSI)
100
AcDbLine
 10
72.09035697916101
 20
38.86807530498432
 30
0.0
 11
72.09035697916101
 21
38.3023884364427
 31
0.0
  0
LINE
  5
18B
330
6C
100
AcDbEntity
  8
Visible (ANSI)
100
AcDbLine
 10
63.37205177930282
 20
44.12087107300343
 30
0.0
 11
71.88947437086934
 21
39.21601361141467
 31
0.0
  0
LINE
  5
18C
330
6C
100
AcDbEntity
  8
Visible (ANSI)
100
AcDbLine
 10
63.17116917101117
 20
43.43860709904981
 30
0.0
 11
63.17116917101117
 21
44.00429396759142
 31
0.0
  0
LINE
  5
18D
330
6C
100
AcDbEntity
  8
Visible (ANSI)
100
AcDbLine
 10
63.17116917101114
 20
31.36947476547947
 30
0.0
 11
63.17116917101114
 21
31.93516163402109
 31
0.0
  0
LINE
  5
18E
330
6C
100
AcDbEntity
  8
Visible (ANSI)
100
AcDbLine
 10
71.88947437086932
 20
26.11667899746036
 30
0.0
 11
63.37205177930281
 21
31.02153645904913
 31
0.0
  0
LINE
  5
18F
330
6C
100
AcDbEntity
  8
Visible (ANSI)
100
AcDbLine
 10
72.09035697916099
 20
26.79894297141399
 30
0.0
 11
72.09035697916099
 21
26.23325610287237
 31
0.0
  0
LINE
  5
190
330
6C
100
AcDbEntity
  8
Visible (ANSI)
100
AcDbLine
 10
71.927139859924
 20
26.13836911005584
 30
0.0
 11
72.12802246821566
 21
26.25494621546784
 31
0.0
  0
LINE
  5
191
330
6C
100
AcDbEntity
  8
Visible (ANSI)
100
AcDbLine
 10
72.09035697916099
 20
26.23325610287237
 30
0.0
 11
71.88947437086932
 21
26.11667899746036
 31
0.0
  0
LINE
  5
192
330
6C
100
AcDbEntity
  8
Visible (ANSI)
100
AcDbLine
 10
71.88947437086932
 20
26.11667899746036
 30
0.0
 11
71.927139859924
 21
26.13836911005584
 31
0.0
  0
LINE
  5
193
330
6C
100
AcDbEntity
  8
Visible (ANSI)
100
AcDbLine
 10
72.12802246821566
 20
26.25494621546784
 30
0.0
 11
72.09035697916099
 21
26.23325610287237
 31
0.0
  0
LINE
  5
194
330
6C
100
AcDbEntity
  8
Visible (ANSI)
100
AcDbLine
 10
72.12802246821567
 20
38.8897654175798
 30
0.0
 11
71.92713985992401
 21
39.23770372401015
 31
0.0
  0
LINE
  5
195
330
6C
100
AcDbEntity
  8
Visible (ANSI)
100
AcDbLine
 10
71.88947437086934
 20
39.21601361141467
 30
0.0
 11
72.09035697916101
 21
38.86807530498432
 31
0.0
  0
LINE
  5
196
330
6C
100
AcDbEntity
  8
Visible (ANSI)
100
AcDbLine
 10
72.09035697916101
 20
38.86807530498432
 30
0.0
 11
72.12802246821567
 21
38.8897654175798
 31
0.0
  0
LINE
  5
197
330
6C
100
AcDbEntity
  8
Visible (ANSI)
100
AcDbLine
 10
71.92713985992401
 20
39.23770372401015
 30
0.0
 11
71.88947437086934
 21
39.21601361141467
 31
0.0
  0
LINE
  5
198
330
6C
100
AcDbEntity
  8
Visible (ANSI)
100
AcDbLine
 10
63.17116917101117
 20
44.00429396759142
 30
0.0
 11
63.37205177930282
 21
44.12087107300343
 31
0.0
  0
LINE
  5
199
330
6C
100
AcDbEntity
  8
Visible (ANSI)
100
AcDbLine
 10
63.37205177930282
 20
44.12087107300343
 30
0.0
 11
63.4097172683575
 21
44.1425611855989
 31
0.0
  0
LINE
  5
19A
330
6C
100
AcDbEntity
  8
Visible (ANSI)
100
AcDbLine
 10
63.17116917101117
 20
43.43860709904981
 30
0.0
 11
63.22147017612739
 21
43.40964067668231
 31
0.0
  0
LINE
  5
19B
330
6C
100
AcDbEntity
  8
Visible (ANSI)
100
AcDbLine
 10
63.22147017612739
 20
43.40964067668231
 30
0.0
 11
63.22147017612739
 21
43.40954777359995
 31
0.0
  0
LINE
  5
19C
330
6C
100
AcDbEntity
  8
Visible Narrow (ANSI)
100
AcDbLine
 10
63.22138982308408
 20
43.40959404584015
 30
0.0
 11
63.22138982308405
 21
31.90633438697617
 31
0.0
  0
LINE
  5
19D
330
6C
100
AcDbEntity
  8
Visible (ANSI)
100
AcDbLine
 10
63.22147017612737
 20
31.90628811473597
 30
0.0
 11
63.22147017612737
 21
31.9061952116536
 31
0.0
  0
LINE
  5
19E
330
6C
100
AcDbEntity
  8
Visible (ANSI)
100
AcDbLine
 10
63.22147017612737
 20
31.9061952116536
 30
0.0
 11
63.17116917101114
 21
31.93516163402109
 31
0.0
  0
ELLIPSE
  5
19F
330
6C
100
AcDbEntity
  8
Visible (ANSI)
100
AcDbEllipse
 10
63.27161047515698
 20
43.43851419596744
 30
0.0
 11
-0.0710227272727145
 21
0.0000000000000001
 31
0.0
210
0.0
220
0.0
230
1.0
 40
0.5758617009853142
 41
0.7287125386357154
 42
0.7853981633975096
  0
ELLIPSE
  5
1A0
330
6C
100
AcDbEntity
  8
Visible (ANSI)
100
AcDbEllipse
 10
63.27161047515696
 20
31.93525453710347
 30
0.0
 11
-0.0710227272727272
 21
0.0000000000000001
 31
0.0
210
0.0
220
0.0
230
1.0
 40
0.5758617009853144
 41
0.0
 42
0.7853981633974927
  0
LINE
  5
1A1
330
6C
100
AcDbEntity
  8
Visible (ANSI)
100
AcDbLine
 10
63.17116917101114
 20
31.93516163402109
 30
0.0
 11
63.20058774788424
 21
31.9521026657398
 31
0.0
  0
LINE
  5
1A2
330
6C
100
AcDbEntity
  8
Visible (ANSI)
100
AcDbLine
 10
63.20058774788424
 20
43.42166606733111
 30
0.0
 11
63.20058774788424
 21
31.93525453710347
 31
0.0
  0
LINE
  5
1A3
330
6C
100
AcDbEntity
  8
Visible (ANSI)
100
AcDbLine
 10
63.22147017612739
 20
43.40954777359995
 30
0.0
 11
63.22138982308408
 21
43.40959404584015
 31
0.0
  0
LINE
  5
1A4
330
6C
100
AcDbEntity
  8
Visible (ANSI)
100
AcDbLine
 10
63.22138982308405
 20
31.90633438697617
 30
0.0
 11
63.22147017612737
 21
31.90628811473597
 31
0.0
  0
LINE
  5
1A5
330
6C
100
AcDbEntity
  8
Visible (ANSI)
100
AcDbLine
 10
63.36151655540493
 20
43.54812796452257
 30
0.0
 11
63.40820262991345
 21
43.57501268680137
 31
0.0
  0
LINE
  5
1A6
330
6C
100
AcDbEntity
  8
Visible (ANSI)
100
AcDbLine
 10
63.42901077234601
 20
43.543615073906
 30
0.0
 11
63.3782282342433
 21
43.51437135513381
 31
0.0
  0
LINE
  5
1A7
330
6C
100
AcDbEntity
  8
Visible (ANSI)
100
AcDbLine
 10
63.37205177930281
 20
31.02153645904913
 30
0.0
 11
63.17116917101114
 21
31.36947476547947
 31
0.0
  0
DIMENSION
  5
1A8
330
6C
100
AcDbEntity
  8
Dimension (ANSI)
100
AcDbDimension
  2
*D4
 10
12.88005475527375
 20
45.84977657335006
 30
0.0
 11
23.98005475527374
 21
45.84977657335006
 31
0.0
 70
   160
  1
<>
 42
22.2
  3
Default (ANSI)
100
AcDbAlignedDimension
 13
35.08005475527375
 23
41.44032775445242
 33
0.0
 14
12.88005475527375
 24
41.44032775445242
 34
0.0
 50
180.0
100
AcDbRotatedDimension
1001
ACAD
1000
DSTYLE
1002
{
1070
   289
1070
     1
1070
    73
1070
     0
1070
    74
1070
     0
1070
   271
1070
     3
1070
   272
1070
     2
1070
    48
1040
0.0
1070
    47
1040
0.0
1002
}
  0
DIMENSION
  5
295
330
6C
100
AcDbEntity
  8
Dimension (ANSI)
100
AcDbDimension
  2
*D5
 10
4.07439978032745
 20
13.74032775445242
 30
0.0
 11
4.074399780327449
 21
27.84032775445242
 31
0.0
 70
   160
  1
<>
 42
28.2
  3
Default (ANSI)
100
AcDbAlignedDimension
 13
13.38005475527375
 23
41.94032775445243
 33
0.0
 14
13.38005475527376
 24
13.74032775445242
 34
0.0
 50
270.0
100
AcDbRotatedDimension
1001
ACAD
1000
DSTYLE
1002
{
1070
   289
1070
     1
1070
   271
1070
     3
1070
   272
1070
     2
1070
    48
1040
0.0
1070
    47
1040
0.0
1002
}
  0
DIMENSION
  5
37F
330
6C
100
AcDbEntity
  8
Dimension (ANSI)
100
AcDbDimension
  2
*D6
 10
13.29621969424411
 20
14.48774428881386
 30
0.0
 11
18.42320837155063
 21
9.425076018289919
 31
0.0
 70
   163
  1
<>{\PTYP.(4PL.)}
 42
0.4999999999999992
  3
Default (ANSI)
100
AcDbDiametricDimension
 15
13.5038898163034
 25
14.03291122009098
 35
0.0
 40
0.0
1001
ACAD_DSTYLE_DIMRADIAL_EXTENSION
1070
   387
1070
     1
1070
   388
1040
0.0
1070
   390
1040
0.0
1001
ACAD
1000
DSTYLE
1002
{
1070
   145
1040
-0.25
1070
   144
1040
0.9999999999999982
1070
   271
1070
     3
1070
   272
1070
     2
1070
    48
1040
0.0
1070
    47
1040
0.0
1002
}
  0
DIMENSION
  5
439
330
6C
100
AcDbEntity
  8
Dimension (ANSI)
100
AcDbDimension
  2
*D7
 10
13.30065932189682
 20
15.13088732613302
 30
0.0
 11
18.39696467087001
 21
12.36437057422701
 31
0.0
 70
   163
  1
<>{\PTYP.(4PL.)}
 42
0.3125
  3
Default (ANSI)
100
AcDbDiametricDimension
 15
13.4994501886507
 25
14.88976818277182
 35
0.0
 40
0.0
1001
ACAD_DSTYLE_DIMRADIAL_EXTENSION
1070
   387
1070
     1
1070
   388
1040
0.0
1070
   390
1040
0.0
1001
ACAD
1000
DSTYLE
1002
{
1070
   145
1040
-0.25
1070
   144
1040
1.0
1070
   271
1070
     3
1070
   272
1070
     2
1070
    48
1040
0.0
1070
    47
1040
0.0
1002
}
  0
DIMENSION
  5
4F2
330
6C
100
AcDbEntity
  8
Dimension (ANSI)
100
AcDbDimension
  2
*D8
 10
48.76235558597642
 20
14.69014480752312
 30
0.0
 11
51.88438872710528
 21
14.69014480752312
 31
0.0
 70
   160
  1
 12 GA.\P304 SS
 42
0.09375
  3
Default (ANSI)
100
AcDbAlignedDimension
 13
48.66860558597642
 23
31.59422746713562
 33
0.0
 14
48.76235558597642
 24
31.59422746713562
 34
0.0
 50
180.0
100
AcDbRotatedDimension
1001
ACAD
1000
DSTYLE
1002
{
1070
   289
1070
     1
1070
    73
1070
     0
1070
    74
1070
     0
1070
   145
1040
-0.25
1070
   271
1070
     3
1070
   272
1070
     2
1070
    48
1040
0.0
1070
    47
1040
0.0
1002
}
  0
DIMENSION
  5
5F0
330
6C
100
AcDbEntity
  8
Dimension (ANSI)
100
AcDbDimension
  2
*D9
 10
9.069346093856438
 20
14.26032775445242
 30
0.0
 11
9.069346093856436
 21
27.84032775445242
 31
0.0
 70
   160
  1
<>
 42
27.16
  3
Default (ANSI)
100
AcDbAlignedDimension
 13
13.40005475527376
 23
41.42032775445242
 33
0.0
 14
13.40005475527376
 24
14.26032775445242
 34
0.0
 50
90.0
100
AcDbRotatedDimension
1001
ACAD
1000
DSTYLE
1002
{
1070
   289
1070
     1
1070
   271
1070
     3
1070
   272
1070
     2
1070
    48
1040
0.0
1070
    47
1040
0.0
1002
}
  0
DIMENSION
  5
6DA
330
6C
100
AcDbEntity
  8
Dimension (ANSI)
100
AcDbDimension
  2
*D10
 10
9.587684334346326
 20
14.26032775445242
 30
0.0
 11
11.26914463957339
 21
16.30610019497028
 31
0.0
 70
   160
  1
<>
 42
0.75
  3
Default (ANSI)
100
AcDbAlignedDimension
 13
13.40005475527376
 23
15.01032775445242
 33
0.0
 14
13.40005475527376
 24
14.26032775445242
 34
0.0
 50
90.0
100
AcDbRotatedDimension
1001
ACAD
1000
DSTYLE
1002
{
1070
   289
1070
     1
1070
   271
1070
     3
1070
   272
1070
     2
1070
    48
1040
0.0
1070
    47
1040
0.0
1002
}
  0
DIMENSION
  5
7D8
330
6C
100
AcDbEntity
  8
Dimension (ANSI)
100
AcDbDimension
  2
*D11
 10
13.40005475527376
 20
44.28768509882611
 30
0.0
 11
23.98005475527376
 21
44.28768509882611
 31
0.0
 70
   160
  1
<>
 42
21.16
  3
Default (ANSI)
100
AcDbAlignedDimension
 13
34.56005475527376
 23
41.42032775445242
 33
0.0
 14
13.40005475527376
 24
41.42032775445242
 34
0.0
 50
180.0
100
AcDbRotatedDimension
1001
ACAD
1000
DSTYLE
1002
{
1070
   289
1070
     1
1070
    73
1070
     0
1070
    74
1070
     0
1070
   271
1070
     3
1070
   272
1070
     2
1070
    48
1040
0.0
1070
    47
1040
0.0
1002
}
  0
DIMENSION
  5
8C2
330
6C
100
AcDbEntity
  8
Dimension (ANSI)
100
AcDbDimension
  2
*D12
 10
35.48736886601343
 20
13.74032775445242
 30
0.0
 11
37.1688291712405
 21
15.53610019497028
 31
0.0
 70
   160
  1
<>
 42
0.4999999999999983
  3
Default (ANSI)
100
AcDbAlignedDimension
 13
35.08005475527376
 23
14.24032775445241
 33
0.0
 14
34.58005475527376
 24
13.74032775445242
 34
0.0
 50
90.0
100
AcDbRotatedDimension
1001
ACAD
1000
DSTYLE
1002
{
1070
   289
1070
     1
1070
   271
1070
     3
1070
   272
1070
     2
1070
    48
1040
0.0
1070
    47
1040
0.0
1002
}
  0
DIMENSION
  5
9C2
330
6C
100
AcDbEntity
  8
Dimension (ANSI)
100
AcDbDimension
  2
*D13
 10
34.58005475527376
 20
11.88648750265527
 30
0.0
 11
31.90768479045297
 21
11.88648750265527
 31
0.0
 70
   160
  1
<>
 42
0.5
  3
Default (ANSI)
100
AcDbAlignedDimension
 13
35.08005475527376
 23
14.24032775445241
 33
0.0
 14
34.58005475527376
 24
13.74032775445242
 34
0.0
 50
180.0
100
AcDbRotatedDimension
1001
ACAD
1000
DSTYLE
1002
{
1070
   289
1070
     1
1070
    73
1070
     0
1070
    74
1070
     0
1070
   271
1070
     3
1070
   272
1070
     2
1070
    48
1040
0.0
1070
    47
1040
0.0
1002
}
  0
DIMENSION
  5
AAC
330
6C
100
AcDbEntity
  8
Dimension (ANSI)
100
AcDbDimension
  2
*D14
 10
35.08005475527375
 20
42.99513090405873
 30
0.0
 11
32.43120720176903
 21
42.99513090405873
 31
0.0
 70
   160
  1
<>
 42
0.519999999999989
  3
Default (ANSI)
100
AcDbAlignedDimension
 13
34.56005475527376
 23
41.42032775445242
 33
0.0
 14
35.08005475527375
 24
41.44032775445242
 34
0.0
 50
180.0
100
AcDbRotatedDimension
1001
ACAD
1000
DSTYLE
1002
{
1070
   289
1070
     1
1070
    73
1070
     0
1070
    74
1070
     0
1070
   271
1070
     3
1070
   272
1070
     2
1070
    48
1040
0.0
1070
    47
1040
0.0
1002
}
  0
DIMENSION
  5
B96
330
6C
100
AcDbEntity
  8
Dimension (ANSI)
100
AcDbDimension
  2
*D15
 10
38.2212437218641
 20
41.94032775445243
 30
0.0
 11
36.53978341663702
 21
40.36854115065515
 31
0.0
 70
   160
  1
<>
 42
0.5200000000000032
  3
Default (ANSI)
100
AcDbAlignedDimension
 13
34.56005475527376
 23
41.42032775445242
 33
0.0
 14
34.58005475527375
 24
41.94032775445243
 34
0.0
 50
270.0
100
AcDbRotatedDimension
1001
ACAD
1000
DSTYLE
1002
{
1070
   289
1070
     1
1070
   271
1070
     3
1070
   272
1070
     2
1070
    48
1040
0.0
1070
    47
1040
0.0
1002
}
  0
MTEXT
  5
C96
102
{ACAD_XDICTIONARY
360
D90
102
}
330
6C
100
AcDbEntity
  8
Symbol (ANSI)
100
AcDbMText
 10
39.40427821878667
 20
11.44319030783462
 30
0.0
 40
0.5454545521958009
 41
36.35389184056292
 71
     1
 72
     1
  3
{\fRomanS|b0|i0|c0|p2;\H2x;PART#: NP3024SSC\P(DATA SUBJECT TO CHANGE WITHOUT \H1.4011x; \H0.71374x;NOTICE) \H1.2931x; \H0.77332x;\P\H0.59996x;THIS DRAWING IS PROPERTY OF HUBBELL INC. WIEGMANN\H1.2219x; \H0.81839x;\PALL INFORMATION IS PROPRIETARY AND 
  1
NOT TO BE DUPLICATED\H1.0143x; \H0.82168x;\P\H1.0771x; }
  7
Note Text (ANSI)
 73
     1
 44
0.9303776025772094
1001
ACAD
1000
MTEXTBEGIN
1070
    73
1070
     1
1070
    44
1040
0.9303776025772094
1070
    74
1070
     0
1000
MTEXTEND
  0
DIMENSION
  5
C98
330
6C
100
AcDbEntity
  8
Dimension (ANSI)
100
AcDbDimension
  2
*D16
 10
49.44260558597642
 20
43.96001279382249
 30
0.0
 11
45.99623562115563
 21
43.96001279382249
 31
0.0
 70
   160
  1
<>
 42
0.7740000000000009
  3
Default (ANSI)
100
AcDbAlignedDimension
 13
48.66860558597642
 23
41.44032775445242
 33
0.0
 14
49.44260558597642
 24
40.22232775445242
 34
0.0
 50
180.0
100
AcDbRotatedDimension
1001
ACAD
1000
DSTYLE
1002
{
1070
   289
1070
     1
1070
    73
1070
     0
1070
    74
1070
     0
1070
   271
1070
     3
1070
   272
1070
     2
1070
    48
1040
0.0
1070
    47
1040
0.0
1002
}
  0
ENDSEC
  0
SECTION
  2
OBJECTS
  0
DICTIONARY
  5
C
330
0
100
AcDbDictionary
281
     1
  3
ACAD_CIP_PREVIOUS_PRODUCT_INFO
350
D82
  3
ACAD_COLOR
350
63
  3
ACAD_GROUP
350
D
  3
ACAD_LAYOUT
350
62
  3
ACAD_MATERIAL
350
10
  3
ACAD_MLEADERSTYLE
350
66
  3
ACAD_MLINESTYLE
350
5F
  3
ACAD_PLOTSETTINGS
350
61
  3
ACAD_PLOTSTYLENAME
350
E
  3
ACAD_SCALELIST
350
42
  3
ACAD_TABLESTYLE
350
64
  3
ACAD_VISUALSTYLE
350
29
  3
ACDB_RECOMPOSE_DATA
350
D92
  3
AcDbVariableDictionary
350
76
  3
DWGPROPS
350
D93
  0
DICTIONARY
  5
DCF
330
433
100
AcDbDictionary
280
     1
281
     1
  3
ACAD_MTEXT_RT
360
DD0
  0
DICTIONARY
  5
DD1
330
4EC
100
AcDbDictionary
280
     1
281
     1
  3
ACAD_MTEXT_RT
360
DD2
  0
DICTIONARY
  5
D90
330
C96
100
AcDbDictionary
280
     1
281
     1
  3
ACAD_MTEXT_2008_RT
360
D91
  0
XRECORD
  5
D82
102
{ACAD_REACTORS
330
C
102
}
330
C
100
AcDbXrecord
280
     1
300
INVNTOR
300
2012
300
85795PDSP_2012_0F
  0
DICTIONARY
  5
63
102
{ACAD_REACTORS
330
C
102
}
330
C
100
AcDbDictionary
281
     1
  0
DICTIONARY
  5
D
102
{ACAD_REACTORS
330
C
102
}
330
C
100
AcDbDictionary
281
     1
  0
DICTIONARY
  5
62
102
{ACAD_REACTORS
330
C
102
}
330
C
100
AcDbDictionary
281
     1
  3
Layout1
350
6B
  3
Layout2
350
73
  3
Model
350
6F
  0
DICTIONARY
  5
10
102
{ACAD_REACTORS
330
C
102
}
330
C
100
AcDbDictionary
281
     1
  3
ByBlock
350
19
  3
ByLayer
350
11
  3
Global
350
21
  0
DICTIONARY
  5
66
102
{ACAD_REACTORS
330
C
102
}
330
C
100
AcDbDictionary
281
     1
  3
Standard
350
67
  0
DICTIONARY
  5
5F
102
{ACAD_REACTORS
330
C
102
}
330
C
100
AcDbDictionary
281
     1
  3
Standard
350
60
  0
DICTIONARY
  5
61
102
{ACAD_REACTORS
330
C
102
}
330
C
100
AcDbDictionary
281
     1
  0
ACDBDICTIONARYWDFLT
  5
E
102
{ACAD_REACTORS
330
C
102
}
330
C
100
AcDbDictionary
281
     1
  3
Normal
350
F
100
AcDbDictionaryWithDefault
340
F
  0
DICTIONARY
  5
42
102
{ACAD_REACTORS
330
C
102
}
330
C
100
AcDbDictionary
281
     1
  3
A0
350
43
  3
A1
350
44
  3
A2
350
45
  3
A3
350
46
  3
A4
350
47
  3
A5
350
48
  3
A6
350
49
  3
A7
350
4A
  3
A8
350
4B
  3
A9
350
4C
  3
B0
350
4D
  3
B1
350
4E
  3
B2
350
4F
  3
B3
350
50
  3
B4
350
51
  3
B5
350
52
  3
B6
350
53
  0
DICTIONARY
  5
64
102
{ACAD_REACTORS
330
C
102
}
330
C
100
AcDbDictionary
281
     1
  3
Standard
350
65
  0
DICTIONARY
  5
29
102
{ACAD_REACTORS
330
C
102
}
330
C
100
AcDbDictionary
281
     1
  3
2dWireframe
350
2F
  3
Basic
350
2E
  3
Brighten
350
35
  3
ColorChange
350
39
  3
Conceptual
350
32
  3
Dim
350
34
  3
EdgeColorOff
350
41
  3
Facepattern
350
38
  3
Flat
350
2A
  3
FlatWithEdges
350
2B
  3
Gouraud
350
2C
  3
GouraudWithEdges
350
2D
  3
Hidden
350
31
  3
JitterOff
350
3F
  3
Linepattern
350
37
  3
OverhangOff
350
40
  3
Realistic
350
33
  3
Shaded
350
3E
  3
Shaded with edges
350
3D
  3
Shades of Gray
350
3A
  3
Sketchy
350
3B
  3
Thicken
350
36
  3
Wireframe
350
30
  3
X-Ray
350
3C
  0
XRECORD
  5
D92
102
{ACAD_REACTORS
330
C
102
}
330
C
100
AcDbXrecord
280
     1
 90
        1
330
65
330
C96
  0
DICTIONARY
  5
76
102
{ACAD_REACTORS
330
C
102
}
330
C
100
AcDbDictionary
281
     1
  3
CANNOSCALE
350
79
  3
CMLEADERSTYLE
350
78
  3
CTABLESTYLE
350
77
  3
DIMASSOC
350
D8A
  3
HIDETEXT
350
D89
  3
INDEXCTL
350
D88
  3
LAYEREVAL
350
D85
  3
LAYERNOTIFY
350
D86
  3
LIGHTINGUNITS
350
D84
  3
MSLTSCALE
350
D83
  3
SORTENTS
350
D87
  3
XCLIPFRAME
350
D8B
  0
XRECORD
  5
D93
102
{ACAD_REACTORS
330
C
102
}
330
C
100
AcDbXrecord
280
     1
  1
DWGPROPS COOKIE
  2

  3

  4
dnichola
  6

  7

  8

  9
-
300
Manager=
301
Company=
302
Category=
303
Part Number=NP3024SSC-S
304
Description=
305
Project=
306
Designer=dnichola
307
Engineer=
308
Authority=
309
Cost Center=
 40
0.0000350810185185
 41
2455944.61866331
 42
2455944.61866331
  1

 90
       19
300
Vendor=
300
User Status=
300
Design Status=WorkInProgress
300
Checked by=
300
Engr Approved by=
300
Mfg Approved by=
300
DWG. NO=
300
NUMBER OF SHEETS=1
300
DRAWING #=
  0
XRECORD
  5
DD0
102
{ACAD_REACTORS
330
DCF
102
}
330
DCF
100
AcDbXrecord
280
     1
 40
31446.0
  1
\A1;\U+22050.500{\PTYP.(4PL.)}
  0
XRECORD
  5
DD2
102
{ACAD_REACTORS
330
DD1
102
}
330
DD1
100
AcDbXrecord
280
     1
 40
31481.0
  1
\A1;\U+22050.313{\PTYP.(4PL.)}
  0
XRECORD
  5
D91
102
{ACAD_REACTORS
330
D90
102
}
330
D90
100
AcDbXrecord
280
     1
 40
3154025.0
  1
\pxsm0.94;{\fRomanS|b0|i0;\H1.0909;PART#: NP3024SSC\P(DATA SUBJECT TO CHANGE WITHOUT NOTICE) \P\fRomanS|b0|i0;\H0.6545;THIS DRAWING IS PROPERTY OF HUBBELL INC. WIEGMANN\PALL INFORMATION IS PROPRIETARY AND NOT TO BE DUPLICATED\fRomanS|b0|i0;\H0.5455;\
  1
P}
  0
LAYOUT
  5
6B
102
{ACAD_XDICTIONARY
360
DC9
102
}
102
{ACAD_REACTORS
330
62
102
}
330
62
100
AcDbPlotSettings
  1

  2

  4

  6

 40
0.0
 41
0.0
 42
0.0
 43
0.0
 44
0.0
 45
0.0
 46
0.0
 47
0.0
 48
0.0
 49
0.0
140
0.0
141
0.0
142
1.0
143
1.0
 70
   688
 72
     0
 73
     0
 74
     5
  7

 75
    16
147
1.0
148
0.0
149
0.0
100
AcDbLayout
  1
Layout1
 70
     1
 71
     1
 10
0.0
 20
0.0
 11
12.0
 21
9.0
 12
0.0
 22
0.0
 32
0.0
 14
0.0
 24
0.0
 34
0.0
 15
0.0
 25
0.0
 35
0.0
146
0.0
 13
0.0
 23
0.0
 33
0.0
 16
1.0
 26
0.0
 36
0.0
 17
0.0
 27
1.0
 37
0.0
 76
     0
330
68
  0
LAYOUT
  5
73
102
{ACAD_XDICTIONARY
360
DCD
102
}
102
{ACAD_REACTORS
330
62
102
}
330
62
100
AcDbPlotSettings
  1

  2

  4

  6

 40
0.0
 41
0.0
 42
0.0
 43
0.0
 44
0.0
 45
0.0
 46
0.0
 47
0.0
 48
0.0
 49
0.0
140
0.0
141
0.0
142
1.0
143
1.0
 70
   688
 72
     0
 73
     0
 74
     5
  7

 75
    16
147
1.0
148
0.0
149
0.0
100
AcDbLayout
  1
Layout2
 70
     1
 71
     2
 10
0.0
 20
0.0
 11
12.0
 21
9.0
 12
0.0
 22
0.0
 32
0.0
 14
0.0
 24
0.0
 34
0.0
 15
0.0
 25
0.0
 35
0.0
146
0.0
 13
0.0
 23
0.0
 33
0.0
 16
1.0
 26
0.0
 36
0.0
 17
0.0
 27
1.0
 37
0.0
 76
     0
330
70
  0
LAYOUT
  5
6F
102
{ACAD_XDICTIONARY
360
DCB
102
}
102
{ACAD_REACTORS
330
62
102
}
330
62
100
AcDbPlotSettings
  1

  2

  4

  6

 40
0.0
 41
0.0
 42
0.0
 43
0.0
 44
0.0
 45
0.0
 46
0.0
 47
0.0
 48
0.0
 49
0.0
140
0.0
141
0.0
142
1.0
143
1.0
 70
  1712
 72
     0
 73
     0
 74
     0
  7

 75
     0
147
1.0
148
0.0
149
0.0
100
AcDbLayout
  1
Model
 70
     1
 71
     0
 10
0.0
 20
0.0
 11
12.0
 21
9.0
 12
0.0
 22
0.0
 32
0.0
 14
0.0
 24
0.0
 34
0.0
 15
0.0
 25
0.0
 35
0.0
146
0.0
 13
0.0
 23
0.0
 33
0.0
 16
1.0
 26
0.0
 36
0.0
 17
0.0
 27
1.0
 37
0.0
 76
     0
330
6C
  0
MATERIAL
  5
19
102
{ACAD_XDICTIONARY
360
1A
102
}
102
{ACAD_REACTORS
330
10
102
}
330
10
100
AcDbMaterial
  1
ByBlock
 72
     0
 43
0.0208333333333333
 43
0.0
 43
0.0
 43
0.0
 43
0.0
 43
0.0208333333333333
 43
0.0
 43
0.0
 43
0.0
 43
0.0
 43
1.0
 43
0.0
 43
0.0
 43
0.0
 43
0.0
 43
1.0
 77
     0
 47
0.0208333333333333
 47
0.0
 47
0.0
 47
0.0
 47
0.0
 47
0.0208333333333333
 47
0.0
 47
0.0
 47
0.0
 47
0.0
 47
1.0
 47
0.0
 47
0.0
 47
0.0
 47
0.0
 47
1.0
171
     0
 49
0.0208333333333333
 49
0.0
 49
0.0
 49
0.0
 49
0.0
 49
0.0208333333333333
 49
0.0
 49
0.0
 49
0.0
 49
0.0
 49
1.0
 49
0.0
 49
0.0
 49
0.0
 49
0.0
 49
1.0
175
     0
142
0.0208333333333333
142
0.0
142
0.0
142
0.0
142
0.0
142
0.0208333333333333
142
0.0
142
0.0
142
0.0
142
0.0
142
1.0
142
0.0
142
0.0
142
0.0
142
0.0
142
1.0
179
     0
144
0.0208333333333333
144
0.0
144
0.0
144
0.0
144
0.0
144
0.0208333333333333
144
0.0
144
0.0
144
0.0
144
0.0
144
1.0
144
0.0
144
0.0
144
0.0
144
0.0
144
1.0
147
0.0208333333333333
147
0.0
147
0.0
147
0.0
147
0.0
147
0.0208333333333333
147
0.0
147
0.0
147
0.0
147
0.0
147
1.0
147
0.0
147
0.0
147
0.0
147
0.0
147
1.0
  0
MATERIAL
  5
11
102
{ACAD_XDICTIONARY
360
12
102
}
102
{ACAD_REACTORS
330
10
102
}
330
10
100
AcDbMaterial
  1
ByLayer
 72
     0
 43
0.0208333333333333
 43
0.0
 43
0.0
 43
0.0
 43
0.0
 43
0.0208333333333333
 43
0.0
 43
0.0
 43
0.0
 43
0.0
 43
1.0
 43
0.0
 43
0.0
 43
0.0
 43
0.0
 43
1.0
 77
     0
 47
0.0208333333333333
 47
0.0
 47
0.0
 47
0.0
 47
0.0
 47
0.0208333333333333
 47
0.0
 47
0.0
 47
0.0
 47
0.0
 47
1.0
 47
0.0
 47
0.0
 47
0.0
 47
0.0
 47
1.0
171
     0
 49
0.0208333333333333
 49
0.0
 49
0.0
 49
0.0
 49
0.0
 49
0.0208333333333333
 49
0.0
 49
0.0
 49
0.0
 49
0.0
 49
1.0
 49
0.0
 49
0.0
 49
0.0
 49
0.0
 49
1.0
175
     0
142
0.0208333333333333
142
0.0
142
0.0
142
0.0
142
0.0
142
0.0208333333333333
142
0.0
142
0.0
142
0.0
142
0.0
142
1.0
142
0.0
142
0.0
142
0.0
142
0.0
142
1.0
179
     0
144
0.0208333333333333
144
0.0
144
0.0
144
0.0
144
0.0
144
0.0208333333333333
144
0.0
144
0.0
144
0.0
144
0.0
144
1.0
144
0.0
144
0.0
144
0.0
144
0.0
144
1.0
147
0.0208333333333333
147
0.0
147
0.0
147
0.0
147
0.0
147
0.0208333333333333
147
0.0
147
0.0
147
0.0
147
0.0
147
1.0
147
0.0
147
0.0
147
0.0
147
0.0
147
1.0
  0
MATERIAL
  5
21
102
{ACAD_XDICTIONARY
360
22
102
}
102
{ACAD_REACTORS
330
10
102
}
330
10
100
AcDbMaterial
  1
Global
 72
     0
 43
0.0208333333333333
 43
0.0
 43
0.0
 43
0.0
 43
0.0
 43
0.0208333333333333
 43
0.0
 43
0.0
 43
0.0
 43
0.0
 43
1.0
 43
0.0
 43
0.0
 43
0.0
 43
0.0
 43
1.0
 77
     0
 47
0.0208333333333333
 47
0.0
 47
0.0
 47
0.0
 47
0.0
 47
0.0208333333333333
 47
0.0
 47
0.0
 47
0.0
 47
0.0
 47
1.0
 47
0.0
 47
0.0
 47
0.0
 47
0.0
 47
1.0
171
     0
 49
0.0208333333333333
 49
0.0
 49
0.0
 49
0.0
 49
0.0
 49
0.0208333333333333
 49
0.0
 49
0.0
 49
0.0
 49
0.0
 49
1.0
 49
0.0
 49
0.0
 49
0.0
 49
0.0
 49
1.0
175
     0
142
0.0208333333333333
142
0.0
142
0.0
142
0.0
142
0.0
142
0.0208333333333333
142
0.0
142
0.0
142
0.0
142
0.0
142
1.0
142
0.0
142
0.0
142
0.0
142
0.0
142
1.0
179
     0
144
0.0208333333333333
144
0.0
144
0.0
144
0.0
144
0.0
144
0.0208333333333333
144
0.0
144
0.0
144
0.0
144
0.0
144
1.0
144
0.0
144
0.0
144
0.0
144
0.0
144
1.0
147
0.0208333333333333
147
0.0
147
0.0
147
0.0
147
0.0
147
0.0208333333333333
147
0.0
147
0.0
147
0.0
147
0.0
147
1.0
147
0.0
147
0.0
147
0.0
147
0.0
147
1.0
  0
MLEADERSTYLE
  5
67
102
{ACAD_XDICTIONARY
360
D8E
102
}
102
{ACAD_REACTORS
330
66
102
}
330
66
100
AcDbMLeaderStyle
170
     2
171
     1
172
     0
 90
        2
 40
0.0
 41
0.0
173
     1
 91
-1056964608
340
5B
 92
       -2
290
     1
 42
0.09
291
     1
 43
0.36
  3
Standard
 44
0.18
300

342
55
174
     1
178
     6
175
     1
176
     0
 93
-1056964608
 45
0.18
292
     0
297
     0
 46
0.18
 94
-1056964608
 47
1.0
 49
1.0
140
1.0
293
     1
141
0.0
294
     1
177
     0
142
1.0
295
     0
296
     0
143
0.125
1001
ACAD_MLEADERVER
1070
     2
  0
MLINESTYLE
  5
60
102
{ACAD_REACTORS
330
5F
102
}
330
5F
100
AcDbMlineStyle
  2
STANDARD
 70
     0
  3

 62
   256
 51
90.0
 52
90.0
 71
     2
 49
0.5
 62
   256
  6
BYLAYER
 49
-0.5
 62
   256
  6
BYLAYER
  0
ACDBPLACEHOLDER
  5
F
102
{ACAD_REACTORS
330
E
102
}
330
E
  0
SCALE
  5
43
102
{ACAD_REACTORS
330
42
102
}
330
42
100
AcDbScale
 70
     0
300
1:1
140
1.0
141
1.0
290
     1
  0
SCALE
  5
44
102
{ACAD_REACTORS
330
42
102
}
330
42
100
AcDbScale
 70
     0
300
1/128" = 1'-0"
140
0.0078125
141
12.0
290
     0
  0
SCALE
  5
45
102
{ACAD_REACTORS
330
42
102
}
330
42
100
AcDbScale
 70
     0
300
1/64" = 1'-0"
140
0.015625
141
12.0
290
     0
  0
SCALE
  5
46
102
{ACAD_REACTORS
330
42
102
}
330
42
100
AcDbScale
 70
     0
300
1/32" = 1'-0"
140
0.03125
141
12.0
290
     0
  0
SCALE
  5
47
102
{ACAD_REACTORS
330
42
102
}
330
42
100
AcDbScale
 70
     0
300
1/16" = 1'-0"
140
0.0625
141
12.0
290
     0
  0
SCALE
  5
48
102
{ACAD_REACTORS
330
42
102
}
330
42
100
AcDbScale
 70
     0
300
3/32" = 1'-0"
140
0.09375
141
12.0
290
     0
  0
SCALE
  5
49
102
{ACAD_REACTORS
330
42
102
}
330
42
100
AcDbScale
 70
     0
300
1/8" = 1'-0"
140
0.125
141
12.0
290
     0
  0
SCALE
  5
4A
102
{ACAD_REACTORS
330
42
102
}
330
42
100
AcDbScale
 70
     0
300
3/16" = 1'-0"
140
0.1875
141
12.0
290
     0
  0
SCALE
  5
4B
102
{ACAD_REACTORS
330
42
102
}
330
42
100
AcDbScale
 70
     0
300
1/4" = 1'-0"
140
0.25
141
12.0
290
     0
  0
SCALE
  5
4C
102
{ACAD_REACTORS
330
42
102
}
330
42
100
AcDbScale
 70
     0
300
3/8" = 1'-0"
140
0.375
141
12.0
290
     0
  0
SCALE
  5
4D
102
{ACAD_REACTORS
330
42
102
}
330
42
100
AcDbScale
 70
     0
300
1/2" = 1'-0"
140
0.5
141
12.0
290
     0
  0
SCALE
  5
4E
102
{ACAD_REACTORS
330
42
102
}
330
42
100
AcDbScale
 70
     0
300
3/4" = 1'-0"
140
0.75
141
12.0
290
     0
  0
SCALE
  5
4F
102
{ACAD_REACTORS
330
42
102
}
330
42
100
AcDbScale
 70
     0
300
1" = 1'-0"
140
1.0
141
12.0
290
     0
  0
SCALE
  5
50
102
{ACAD_REACTORS
330
42
102
}
330
42
100
AcDbScale
 70
     0
300
1-1/2" = 1'-0"
140
1.5
141
12.0
290
     0
  0
SCALE
  5
51
102
{ACAD_REACTORS
330
42
102
}
330
42
100
AcDbScale
 70
     0
300
3" = 1'-0"
140
3.0
141
12.0
290
     0
  0
SCALE
  5
52
102
{ACAD_REACTORS
330
42
102
}
330
42
100
AcDbScale
 70
     0
300
6" = 1'-0"
140
6.0
141
12.0
290
     0
  0
SCALE
  5
53
102
{ACAD_REACTORS
330
42
102
}
330
42
100
AcDbScale
 70
     0
300
1'-0" = 1'-0"
140
12.0
141
12.0
290
     0
  0
TABLESTYLE
  5
65
102
{ACAD_XDICTIONARY
360
D8C
102
}
102
{ACAD_REACTORS
330
64
102
}
330
64
100
AcDbTableStyle
  3
Standard
 70
     0
 71
     0
 40
0.06
 41
0.06
280
     0
281
     0
  7
Standard
140
0.18
170
     2
 62
     0
 63
     7
283
     0
274
    -2
284
     1
 64
     0
275
    -2
285
     1
 65
     0
276
    -2
286
     1
 66
     0
277
    -2
287
     1
 67
     0
278
    -2
288
     1
 68
     0
279
    -2
289
     1
 69
     0
  7
Standard
140
0.25
170
     5
 62
     0
 63
     7
283
     0
274
    -2
284
     1
 64
     0
275
    -2
285
     1
 65
     0
276
    -2
286
     1
 66
     0
277
    -2
287
     1
 67
     0
278
    -2
288
     1
 68
     0
279
    -2
289
     1
 69
     0
  7
Standard
140
0.18
170
     5
 62
     0
 63
     7
283
     0
274
    -2
284
     1
 64
     0
275
    -2
285
     1
 65
     0
276
    -2
286
     1
 66
     0
277
    -2
287
     1
 67
     0
278
    -2
288
     1
 68
     0
279
    -2
289
     1
 69
     0
  0
VISUALSTYLE
  5
2F
102
{ACAD_XDICTIONARY
360
DA1
102
}
102
{ACAD_REACTORS
330
29
102
}
330
29
100
AcDbVisualStyle
  2
2dWireframe
 70
     4
 71
     0
 72
     2
 73
     0
 90
        0
 40
-0.6
 41
-30.0
 62
     5
 63
     7
 74
     1
 91
        4
 64
     7
 65
   257
 75
     1
175
     1
 42
1.0
 92
        0
 66
   257
 43
1.0
 76
     1
 77
     6
 78
     2
 67
     7
 79
     5
170
     0
171
     0
290
     0
174
     0
 93
        1
 44
0.0
173
     0
291
     0
 45
0.0
1001
ACAD
1000
AcDbSavedByObjectVersion
1070
     0
  0
VISUALSTYLE
  5
2E
102
{ACAD_XDICTIONARY
360
D9F
102
}
102
{ACAD_REACTORS
330
29
102
}
330
29
100
AcDbVisualStyle
  2
Basic
 70
     7
 71
     1
 72
     0
 73
     1
 90
        0
 40
-0.6
 41
-30.0
 62
     5
 63
     7
 74
     0
 91
        4
 64
     7
 65
   257
 75
     1
175
     1
 42
1.0
 92
        8
 66
     7
 43
1.0
 76
     1
 77
     6
 78
     2
 67
     7
 79
     5
170
     0
171
     0
290
     0
174
     0
 93
        1
 44
0.0
173
     0
291
     1
 45
0.0
1001
ACAD
1000
AcDbSavedByObjectVersion
1070
     0
  0
VISUALSTYLE
  5
35
102
{ACAD_XDICTIONARY
360
DAD
102
}
102
{ACAD_REACTORS
330
29
102
}
330
29
100
AcDbVisualStyle
  2
Brighten
 70
    12
 71
     2
 72
     2
 73
     0
 90
        0
 40
-0.6
 41
-30.0
 62
     5
 63
     7
 74
     1
 91
        4
 64
     7
 65
   257
 75
     1
175
     1
 42
1.0
 92
        8
 66
     7
 43
1.0
 76
     1
 77
     6
 78
     2
 67
     7
 79
     5
170
     0
171
     0
290
     0
174
     0
 93
        1
 44
50.0
173
     0
291
     1
 45
0.0
1001
ACAD
1000
AcDbSavedByObjectVersion
1070
     0
  0
VISUALSTYLE
  5
39
102
{ACAD_XDICTIONARY
360
DB5
102
}
102
{ACAD_REACTORS
330
29
102
}
330
29
100
AcDbVisualStyle
  2
ColorChange
 70
    16
 71
     2
 72
     2
 73
     3
 90
        0
 40
-0.6
 41
-30.0
 62
     5
 63
     8
 74
     1
 91
        4
 64
     7
 65
   257
 75
     1
175
     1
 42
1.0
 92
        8
 66
     8
 43
1.0
 76
     1
 77
     6
 78
     2
 67
     7
 79
     5
170
     0
171
     0
290
     0
174
     0
 93
        1
 44
0.0
173
     0
291
     1
 45
0.0
1001
ACAD
1000
AcDbSavedByObjectVersion
1070
     0
  0
VISUALSTYLE
  5
32
102
{ACAD_XDICTIONARY
360
DA7
102
}
102
{ACAD_REACTORS
330
29
102
}
330
29
100
AcDbVisualStyle
  2
Conceptual
 70
     9
 71
     3
 72
     2
 73
     0
 90
        0
 40
-0.6
 41
-30.0
 62
     5
 63
     7
 74
     2
 91
        2
 64
     7
 65
   257
 75
     1
175
     1
 42
179.0
 92
        8
 66
     7
 43
1.0
 76
     1
 77
     6
 78
     2
 67
     7
 79
     3
170
     0
171
     0
290
     0
174
     0
 93
        1
 44
0.0
173
     0
291
     0
 45
0.0
1001
ACAD
1000
AcDbSavedByObjectVersion
1070
     0
  0
VISUALSTYLE
  5
34
102
{ACAD_XDICTIONARY
360
DAB
102
}
102
{ACAD_REACTORS
330
29
102
}
330
29
100
AcDbVisualStyle
  2
Dim
 70
    11
 71
     2
 72
     2
 73
     0
 90
        0
 40
-0.6
 41
-30.0
 62
     5
 63
     7
 74
     1
 91
        4
 64
     7
 65
   257
 75
     1
175
     1
 42
1.0
 92
        8
 66
     7
 43
1.0
 76
     1
 77
     6
 78
     2
 67
     7
 79
     5
170
     0
171
     0
290
     0
174
     0
 93
        1
 44
-50.0
173
     0
291
     1
 45
0.0
1001
ACAD
1000
AcDbSavedByObjectVersion
1070
     0
  0
VISUALSTYLE
  5
41
102
{ACAD_XDICTIONARY
360
DC5
102
}
102
{ACAD_REACTORS
330
29
102
}
330
29
100
AcDbVisualStyle
  2
EdgeColorOff
 70
    22
 71
     2
 72
     2
 73
     0
 90
        0
 40
-0.6
 41
-30.0
 62
     5
 63
     7
 74
     1
 91
        4
 64
     7
 65
   257
 75
     1
175
     1
 42
1.0
 92
        8
 66
     7
 43
1.0
 76
     1
 77
     6
 78
     2
 67
     7
 79
     5
170
     0
171
     0
290
     0
174
     0
 93
        1
 44
0.0
173
     0
291
     1
 45
0.0
1001
ACAD
1000
AcDbSavedByObjectVersion
1070
     0
  0
VISUALSTYLE
  5
38
102
{ACAD_XDICTIONARY
360
DB3
102
}
102
{ACAD_REACTORS
330
29
102
}
330
29
100
AcDbVisualStyle
  2
Facepattern
 70
    15
 71
     2
 72
     2
 73
     0
 90
        0
 40
-0.6
 41
-30.0
 62
     5
 63
     7
 74
     1
 91
        4
 64
     7
 65
   257
 75
     1
175
     1
 42
1.0
 92
        8
 66
     7
 43
1.0
 76
     1
 77
     6
 78
     2
 67
     7
 79
     5
170
     0
171
     0
290
     0
174
     0
 93
        1
 44
0.0
173
     0
291
     1
 45
0.0
1001
ACAD
1000
AcDbSavedByObjectVersion
1070
     0
  0
VISUALSTYLE
  5
2A
102
{ACAD_XDICTIONARY
360
D97
102
}
102
{ACAD_REACTORS
330
29
102
}
330
29
100
AcDbVisualStyle
  2
Flat
 70
     0
 71
     2
 72
     1
 73
     1
 90
        2
 40
-0.6
 41
30.0
 62
     5
 63
     7
 74
     0
 91
        0
 64
     7
 65
   257
 75
     1
175
     1
 42
1.0
 92
        8
 66
     7
 43
1.0
 76
     1
 77
     6
 78
     2
 67
     7
 79
     5
170
     0
171
     0
290
     0
174
     0
 93
       13
 44
0.0
173
     0
291
     1
 45
0.0
1001
ACAD
1000
AcDbSavedByObjectVersion
1070
     0
  0
VISUALSTYLE
  5
2B
102
{ACAD_XDICTIONARY
360
D99
102
}
102
{ACAD_REACTORS
330
29
102
}
330
29
100
AcDbVisualStyle
  2
FlatWithEdges
 70
     1
 71
     2
 72
     1
 73
     1
 90
        2
 40
-0.6
 41
30.0
 62
     5
 63
     7
 74
     1
 91
        0
 64
     7
 65
   257
 75
     1
175
     1
 42
1.0
 92
        0
 66
   257
 43
1.0
 76
     1
 77
     6
 78
     2
 67
     7
 79
     5
170
     0
171
     0
290
     0
174
     0
 93
       13
 44
0.0
173
     0
291
     1
 45
0.0
1001
ACAD
1000
AcDbSavedByObjectVersion
1070
     0
  0
VISUALSTYLE
  5
2C
102
{ACAD_XDICTIONARY
360
D9B
102
}
102
{ACAD_REACTORS
330
29
102
}
330
29
100
AcDbVisualStyle
  2
Gouraud
 70
     2
 71
     2
 72
     2
 73
     1
 90
        2
 40
-0.6
 41
30.0
 62
     5
 63
     7
 74
     0
 91
        0
 64
     7
 65
   257
 75
     1
175
     1
 42
1.0
 92
        0
 66
     7
 43
1.0
 76
     1
 77
     6
 78
     2
 67
     7
 79
     5
170
     0
171
     0
290
     0
174
     0
 93
       13
 44
0.0
173
     0
291
     1
 45
0.0
1001
ACAD
1000
AcDbSavedByObjectVersion
1070
     0
  0
VISUALSTYLE
  5
2D
102
{ACAD_XDICTIONARY
360
D9D
102
}
102
{ACAD_REACTORS
330
29
102
}
330
29
100
AcDbVisualStyle
  2
GouraudWithEdges
 70
     3
 71
     2
 72
     2
 73
     1
 90
        2
 40
-0.6
 41
30.0
 62
     5
 63
     7
 74
     1
 91
        0
 64
     7
 65
   257
 75
     1
175
     1
 42
1.0
 92
        0
 66
   257
 43
1.0
 76
     1
 77
     6
 78
     2
 67
     7
 79
     5
170
     0
171
     0
290
     0
174
     0
 93
       13
 44
0.0
173
     0
291
     1
 45
0.0
1001
ACAD
1000
AcDbSavedByObjectVersion
1070
     0
  0
VISUALSTYLE
  5
31
102
{ACAD_XDICTIONARY
360
DA5
102
}
102
{ACAD_REACTORS
330
29
102
}
330
29
100
AcDbVisualStyle
  2
Hidden
 70
     6
 71
     1
 72
     2
 73
     2
 90
        0
 40
-0.6
 41
-30.0
 62
     5
 63
     7
 74
     2
 91
        2
 64
     7
 65
   257
 75
     2
175
     1
 42
40.0
 92
        0
 66
   257
 43
1.0
 76
     1
 77
     6
 78
     2
 67
     7
 79
     3
170
     0
171
     0
290
     0
174
     0
 93
        1
 44
0.0
173
     0
291
     0
 45
0.0
1001
ACAD
1000
AcDbSavedByObjectVersion
1070
     0
  0
VISUALSTYLE
  5
3F
102
{ACAD_XDICTIONARY
360
DC1
102
}
102
{ACAD_REACTORS
330
29
102
}
330
29
100
AcDbVisualStyle
  2
JitterOff
 70
    20
 71
     2
 72
     2
 73
     0
 90
        0
 40
-0.6
 41
-30.0
 62
     5
 63
     7
 74
     1
 91
        4
 64
     7
 65
   257
 75
     1
175
     1
 42
1.0
 92
       10
 66
     7
 43
1.0
 76
     1
 77
     6
 78
     2
 67
     7
 79
     5
170
     0
171
     0
290
     0
174
     0
 93
        1
 44
0.0
173
     0
291
     1
 45
0.0
1001
ACAD
1000
AcDbSavedByObjectVersion
1070
     0
  0
VISUALSTYLE
  5
37
102
{ACAD_XDICTIONARY
360
DB1
102
}
102
{ACAD_REACTORS
330
29
102
}
330
29
100
AcDbVisualStyle
  2
Linepattern
 70
    14
 71
     2
 72
     2
 73
     0
 90
        0
 40
-0.6
 41
-30.0
 62
     5
 63
     7
 74
     1
 91
        4
 64
     7
 65
   257
 75
     7
175
     7
 42
1.0
 92
        8
 66
     7
 43
1.0
 76
     1
 77
     6
 78
     2
 67
     7
 79
     5
170
     0
171
     0
290
     0
174
     0
 93
        1
 44
0.0
173
     0
291
     1
 45
0.0
1001
ACAD
1000
AcDbSavedByObjectVersion
1070
     0
  0
VISUALSTYLE
  5
40
102
{ACAD_XDICTIONARY
360
DC3
102
}
102
{ACAD_REACTORS
330
29
102
}
330
29
100
AcDbVisualStyle
  2
OverhangOff
 70
    21
 71
     2
 72
     2
 73
     0
 90
        0
 40
-0.6
 41
-30.0
 62
     5
 63
     7
 74
     1
 91
        4
 64
     7
 65
   257
 75
     1
175
     1
 42
1.0
 92
        9
 66
     7
 43
1.0
 76
     1
 77
     6
 78
     2
 67
     7
 79
     5
170
     0
171
     0
290
     0
174
     0
 93
        1
 44
0.0
173
     0
291
     1
 45
0.0
1001
ACAD
1000
AcDbSavedByObjectVersion
1070
     0
  0
VISUALSTYLE
  5
33
102
{ACAD_XDICTIONARY
360
DA9
102
}
102
{ACAD_REACTORS
330
29
102
}
330
29
100
AcDbVisualStyle
  2
Realistic
 70
     8
 71
     2
 72
     3
 73
     0
 90
        2
 40
-0.6
 41
30.0
 62
     5
 63
     7
 74
     0
 91
        0
 64
     7
 65
   257
 75
     1
175
     1
 42
1.0
 92
        8
 66
   257
 43
1.0
 76
     1
 77
     6
 78
     2
 67
     7
 79
     3
170
     0
171
     0
290
     0
174
     0
 93
       13
 44
0.0
173
     0
291
     0
 45
0.0
1001
ACAD
1000
AcDbSavedByObjectVersion
1070
     0
  0
VISUALSTYLE
  5
3E
102
{ACAD_XDICTIONARY
360
DBF
102
}
102
{ACAD_REACTORS
330
29
102
}
330
29
100
AcDbVisualStyle
  2
Shaded
 70
    27
 71
     2
 72
     2
 73
     1
 90
        2
 40
-0.6
 41
30.0
 62
     5
 63
     7
 74
     0
 91
        4
 64
     7
 65
   257
 75
     1
175
     1
 42
1.0
 92
        8
 66
   257
 43
1.0
 76
     1
 77
     6
 78
     2
 67
     8
 79
     3
170
     0
171
     0
290
     0
174
     0
 93
        5
 44
0.0
173
     0
291
     0
 45
0.0
1001
ACAD
1000
AcDbSavedByObjectVersion
1070
     0
  0
VISUALSTYLE
  5
3D
102
{ACAD_XDICTIONARY
360
DBD
102
}
102
{ACAD_REACTORS
330
29
102
}
330
29
100
AcDbVisualStyle
  2
Shaded with edges
 70
    26
 71
     2
 72
     2
 73
     1
 90
        2
 40
-0.6
 41
30.0
 62
     5
 63
     7
 74
     1
 91
       10
 64
     7
 65
   257
 75
     2
175
     1
 42
1.0
 92
        8
 66
   257
 43
1.0
 76
     1
 77
     6
 78
     2
 67
     7
 79
     3
170
     0
171
     0
290
     0
174
     0
 93
        5
 44
0.0
173
     0
291
     0
 45
0.0
1001
ACAD
1000
AcDbSavedByObjectVersion
1070
     0
  0
VISUALSTYLE
  5
3A
102
{ACAD_XDICTIONARY
360
DB7
102
}
102
{ACAD_REACTORS
330
29
102
}
330
29
100
AcDbVisualStyle
  2
Shades of Gray
 70
    23
 71
     2
 72
     2
 73
     3
 90
        0
 40
-0.6
 41
-30.0
 62
     5
 63
     7
 74
     2
 91
        2
 64
     7
 65
     7
 75
     1
175
     1
 42
40.0
 92
        8
 66
     7
 43
1.0
 76
     1
 77
     6
 78
     2
 67
     7
 79
     3
170
     0
171
     0
290
     0
174
     0
 93
        1
 44
0.0
173
     0
291
     0
 45
0.0
1001
ACAD
1000
AcDbSavedByObjectVersion
1070
     0
  0
VISUALSTYLE
  5
3B
102
{ACAD_XDICTIONARY
360
DB9
102
}
102
{ACAD_REACTORS
330
29
102
}
330
29
100
AcDbVisualStyle
  2
Sketchy
 70
    24
 71
     1
 72
     2
 73
     2
 90
        0
 40
-0.6
 41
-30.0
 62
     5
 63
     7
 74
     2
 91
        2
 64
     7
 65
     7
 75
     1
175
     1
 42
40.0
 92
       11
 66
     7
 43
1.0
 76
     1
 77
     6
 78
     2
 67
     7
 79
     6
170
     0
171
     0
290
     0
174
     0
 93
        1
 44
0.0
173
     0
291
     0
 45
0.0
1001
ACAD
1000
AcDbSavedByObjectVersion
1070
     0
  0
VISUALSTYLE
  5
36
102
{ACAD_XDICTIONARY
360
DAF
102
}
102
{ACAD_REACTORS
330
29
102
}
330
29
100
AcDbVisualStyle
  2
Thicken
 70
    13
 71
     2
 72
     2
 73
     0
 90
        0
 40
-0.6
 41
-30.0
 62
     5
 63
     7
 74
     1
 91
        4
 64
     7
 65
   257
 75
     1
175
     1
 42
1.0
 92
       12
 66
     7
 43
1.0
 76
     1
 77
     6
 78
     2
 67
     7
 79
     5
170
     0
171
     0
290
     0
174
     0
 93
        1
 44
0.0
173
     0
291
     1
 45
0.0
1001
ACAD
1000
AcDbSavedByObjectVersion
1070
     0
  0
VISUALSTYLE
  5
30
102
{ACAD_XDICTIONARY
360
DA3
102
}
102
{ACAD_REACTORS
330
29
102
}
330
29
100
AcDbVisualStyle
  2
Wireframe
 70
     5
 71
     0
 72
     2
 73
     0
 90
        0
 40
-0.6
 41
-30.0
 62
     5
 63
     7
 74
     1
 91
        4
 64
     7
 65
   257
 75
     1
175
     1
 42
1.0
 92
        0
 66
   257
 43
1.0
 76
     1
 77
     6
 78
     2
 67
     7
 79
     3
170
     0
171
     0
290
     0
174
     0
 93
        1
 44
0.0
173
     0
291
     0
 45
0.0
1001
ACAD
1000
AcDbSavedByObjectVersion
1070
     0
  0
VISUALSTYLE
  5
3C
102
{ACAD_XDICTIONARY
360
DBB
102
}
102
{ACAD_REACTORS
330
29
102
}
330
29
100
AcDbVisualStyle
  2
X-Ray
 70
    25
 71
     2
 72
     2
 73
     1
 90
        1
 40
0.5
 41
-30.0
 62
     5
 63
     7
 74
     1
 91
        0
 64
     7
 65
   257
 75
     1
175
     1
 42
1.0
 92
        8
 66
     7
 43
1.0
 76
     1
 77
     6
 78
     2
 67
     7
 79
     3
170
     0
171
     0
290
     0
174
     0
 93
       13
 44
0.0
173
     0
291
     0
 45
0.0
1001
ACAD
1000
AcDbSavedByObjectVersion
1070
     0
  0
DICTIONARYVAR
  5
79
102
{ACAD_REACTORS
330
76
102
}
330
76
100
DictionaryVariables
280
     0
  1
1:1
  0
DICTIONARYVAR
  5
78
102
{ACAD_REACTORS
330
76
102
}
330
76
100
DictionaryVariables
280
     0
  1
STANDARD
  0
DICTIONARYVAR
  5
77
102
{ACAD_REACTORS
330
76
102
}
330
76
100
DictionaryVariables
280
     0
  1
STANDARD
  0
DICTIONARYVAR
  5
D8A
102
{ACAD_REACTORS
330
76
102
}
330
76
100
DictionaryVariables
280
     0
  1
1
  0
DICTIONARYVAR
  5
D89
102
{ACAD_REACTORS
330
76
102
}
330
76
100
DictionaryVariables
280
     0
  1
1
  0
DICTIONARYVAR
  5
D88
102
{ACAD_REACTORS
330
76
102
}
330
76
100
DictionaryVariables
280
     0
  1
0
  0
DICTIONARYVAR
  5
D85
102
{ACAD_REACTORS
330
76
102
}
330
76
100
DictionaryVariables
280
     0
  1
0
  0
DICTIONARYVAR
  5
D86
102
{ACAD_REACTORS
330
76
102
}
330
76
100
DictionaryVariables
280
     0
  1
0
  0
DICTIONARYVAR
  5
D84
102
{ACAD_REACTORS
330
76
102
}
330
76
100
DictionaryVariables
280
     0
  1
2
  0
DICTIONARYVAR
  5
D83
102
{ACAD_REACTORS
330
76
102
}
330
76
100
DictionaryVariables
280
     0
  1
1
  0
DICTIONARYVAR
  5
D87
102
{ACAD_REACTORS
330
76
102
}
330
76
100
DictionaryVariables
280
     0
  1
127
  0
DICTIONARYVAR
  5
D8B
102
{ACAD_REACTORS
330
76
102
}
330
76
100
DictionaryVariables
280
     0
  1
2
  0
DICTIONARY
  5
DC9
330
6B
100
AcDbDictionary
280
     1
281
     1
  3
ACAD_XREC_ROUNDTRIP
360
DCA
  0
DICTIONARY
  5
DCD
330
73
100
AcDbDictionary
280
     1
281
     1
  3
ACAD_XREC_ROUNDTRIP
360
DCE
  0
DICTIONARY
  5
DCB
330
6F
100
AcDbDictionary
280
     1
281
     1
  3
ACAD_XREC_ROUNDTRIP
360
DCC
  0
DICTIONARY
  5
1A
330
19
100
AcDbDictionary
280
     1
281
     1
  3
ACAD_XREC_ROUNDTRIP
360
D95
  3
BUMPTILE
360
1C
  3
DIFFUSETILE
360
1B
  3
OPACITYTILE
360
1F
  3
REFLECTIONTILE
360
1E
  3
REFRACTIONTILE
360
20
  3
SPECULARTILE
360
1D
  0
DICTIONARY
  5
12
330
11
100
AcDbDictionary
280
     1
281
     1
  3
ACAD_XREC_ROUNDTRIP
360
D94
  3
BUMPTILE
360
14
  3
DIFFUSETILE
360
13
  3
FBXASSET
360
109
  3
OPACITYTILE
360
17
  3
REFLECTIONTILE
360
16
  3
REFRACTIONTILE
360
18
  3
SPECULARTILE
360
15
  0
DICTIONARY
  5
22
330
21
100
AcDbDictionary
280
     1
281
     1
  3
ACAD_XREC_ROUNDTRIP
360
D96
  3
BUMPTILE
360
24
  3
DIFFUSETILE
360
23
  3
FBXASSET
360
BA
  3
OPACITYTILE
360
27
  3
REFLECTIONTILE
360
26
  3
REFRACTIONTILE
360
28
  3
SPECULARTILE
360
25
  0
DICTIONARY
  5
D8E
330
67
100
AcDbDictionary
280
     1
281
     1
  3
ACAD_XREC_ROUNDTRIP
360
D8F
  0
DICTIONARY
  5
D8C
330
65
100
AcDbDictionary
280
     1
281
     1
  3
ACAD_ROUNDTRIP_2008_TABLESTYLE_CELLSTYLEMAP
360
D8D
  3
ACAD_XREC_ROUNDTRIP
360
DC7
  0
DICTIONARY
  5
DA1
330
2F
100
AcDbDictionary
280
     1
281
     1
  3
ACAD_XREC_ROUNDTRIP
360
DA2
  0
DICTIONARY
  5
D9F
330
2E
100
AcDbDictionary
280
     1
281
     1
  3
ACAD_XREC_ROUNDTRIP
360
DA0
  0
DICTIONARY
  5
DAD
330
35
100
AcDbDictionary
280
     1
281
     1
  3
ACAD_XREC_ROUNDTRIP
360
DAE
  0
DICTIONARY
  5
DB5
330
39
100
AcDbDictionary
280
     1
281
     1
  3
ACAD_XREC_ROUNDTRIP
360
DB6
  0
DICTIONARY
  5
DA7
330
32
100
AcDbDictionary
280
     1
281
     1
  3
ACAD_XREC_ROUNDTRIP
360
DA8
  0
DICTIONARY
  5
DAB
330
34
100
AcDbDictionary
280
     1
281
     1
  3
ACAD_XREC_ROUNDTRIP
360
DAC
  0
DICTIONARY
  5
DC5
330
41
100
AcDbDictionary
280
     1
281
     1
  3
ACAD_XREC_ROUNDTRIP
360
DC6
  0
DICTIONARY
  5
DB3
330
38
100
AcDbDictionary
280
     1
281
     1
  3
ACAD_XREC_ROUNDTRIP
360
DB4
  0
DICTIONARY
  5
D97
330
2A
100
AcDbDictionary
280
     1
281
     1
  3
ACAD_XREC_ROUNDTRIP
360
D98
  0
DICTIONARY
  5
D99
330
2B
100
AcDbDictionary
280
     1
281
     1
  3
ACAD_XREC_ROUNDTRIP
360
D9A
  0
DICTIONARY
  5
D9B
330
2C
100
AcDbDictionary
280
     1
281
     1
  3
ACAD_XREC_ROUNDTRIP
360
D9C
  0
DICTIONARY
  5
D9D
330
2D
100
AcDbDictionary
280
     1
281
     1
  3
ACAD_XREC_ROUNDTRIP
360
D9E
  0
DICTIONARY
  5
DA5
330
31
100
AcDbDictionary
280
     1
281
     1
  3
ACAD_XREC_ROUNDTRIP
360
DA6
  0
DICTIONARY
  5
DC1
330
3F
100
AcDbDictionary
280
     1
281
     1
  3
ACAD_XREC_ROUNDTRIP
360
DC2
  0
DICTIONARY
  5
DB1
330
37
100
AcDbDictionary
280
     1
281
     1
  3
ACAD_XREC_ROUNDTRIP
360
DB2
  0
DICTIONARY
  5
DC3
330
40
100
AcDbDictionary
280
     1
281
     1
  3
ACAD_XREC_ROUNDTRIP
360
DC4
  0
DICTIONARY
  5
DA9
330
33
100
AcDbDictionary
280
     1
281
     1
  3
ACAD_XREC_ROUNDTRIP
360
DAA
  0
DICTIONARY
  5
DBF
330
3E
100
AcDbDictionary
280
     1
281
     1
  3
ACAD_XREC_ROUNDTRIP
360
DC0
  0
DICTIONARY
  5
DBD
330
3D
100
AcDbDictionary
280
     1
281
     1
  3
ACAD_XREC_ROUNDTRIP
360
DBE
  0
DICTIONARY
  5
DB7
330
3A
100
AcDbDictionary
280
     1
281
     1
  3
ACAD_XREC_ROUNDTRIP
360
DB8
  0
DICTIONARY
  5
DB9
330
3B
100
AcDbDictionary
280
     1
281
     1
  3
ACAD_XREC_ROUNDTRIP
360
DBA
  0
DICTIONARY
  5
DAF
330
36
100
AcDbDictionary
280
     1
281
     1
  3
ACAD_XREC_ROUNDTRIP
360
DB0
  0
DICTIONARY
  5
DA3
330
30
100
AcDbDictionary
280
     1
281
     1
  3
ACAD_XREC_ROUNDTRIP
360
DA4
  0
DICTIONARY
  5
DBB
330
3C
100
AcDbDictionary
280
     1
281
     1
  3
ACAD_XREC_ROUNDTRIP
360
DBC
  0
XRECORD
  5
DCA
102
{ACAD_REACTORS
330
DC9
102
}
330
DC9
100
AcDbXrecord
280
     1
102
SHADEPLOT
 70
     0
102
SHADEPLOTRESLEVEL
 70
     2
102
SHADEPLOTCUSTOMDPI
 70
   300
  0
XRECORD
  5
DCE
102
{ACAD_REACTORS
330
DCD
102
}
330
DCD
100
AcDbXrecord
280
     1
102
SHADEPLOT
 70
     0
102
SHADEPLOTRESLEVEL
 70
     2
102
SHADEPLOTCUSTOMDPI
 70
   300
  0
XRECORD
  5
DCC
102
{ACAD_REACTORS
330
DCB
102
}
330
DCB
100
AcDbXrecord
280
     1
102
SHADEPLOT
 70
     0
102
SHADEPLOTRESLEVEL
 70
     2
102
SHADEPLOTCUSTOMDPI
 70
   300
  0
XRECORD
  5
D95
102
{ACAD_REACTORS
330
1A
102
}
330
1A
100
AcDbXrecord
280
     1
102
MATERIAL
148
0.0
149
0.0
149
0.0
 93
        0
 94
      127
282
     0
 72
     0
 77
     0
171
     0
175
     0
179
     0
273
     0
  0
XRECORD
  5
1C
102
{ACAD_REACTORS
330
1A
102
}
330
1A
100
AcDbXrecord
280
     1
270
     1
271
     1
  0
XRECORD
  5
1B
102
{ACAD_REACTORS
330
1A
102
}
330
1A
100
AcDbXrecord
280
     1
270
     1
271
     1
  0
XRECORD
  5
1F
102
{ACAD_REACTORS
330
1A
102
}
330
1A
100
AcDbXrecord
280
     1
270
     1
271
     1
  0
XRECORD
  5
1E
102
{ACAD_REACTORS
330
1A
102
}
330
1A
100
AcDbXrecord
280
     1
270
     1
271
     1
  0
XRECORD
  5
20
102
{ACAD_REACTORS
330
1A
102
}
330
1A
100
AcDbXrecord
280
     1
270
     1
271
     1
  0
XRECORD
  5
1D
102
{ACAD_REACTORS
330
1A
102
}
330
1A
100
AcDbXrecord
280
     1
270
     1
271
     1
  0
XRECORD
  5
D94
102
{ACAD_REACTORS
330
12
102
}
330
12
100
AcDbXrecord
280
     1
102
MATERIAL
148
0.0
149
0.0
149
0.0
 93
        0
 94
      127
282
     0
 72
     0
 77
     0
171
     0
175
     0
179
     0
273
     0
  0
XRECORD
  5
14
102
{ACAD_REACTORS
330
12
102
}
330
12
100
AcDbXrecord
280
     1
270
     1
271
     1
  0
XRECORD
  5
13
102
{ACAD_REACTORS
330
12
102
}
330
12
100
AcDbXrecord
280
     1
270
     1
271
     1
  0
XRECORD
  5
109
102
{ACAD_REACTORS
330
12
102
}
330
12
100
AcDbXrecord
280
     1
 70
     1
 90
1959938040
 71
     1
  1
9D7EAFA9-0447-4088-82C3-5B634C4C03B7
311
504B03040A00000800005B7631403DEE336E79000000790000001B0000006175746F6465736B2D64657369676E2D7061636B6167652E786D6C3C3F786D6C2076657273696F6E3D22312E302220656E636F64696E673D227574662D3822203F3E3C666F726D6174733E3C666F726D61743E687474703A2F2F736368656D612E
311
6175746F6465736B2E636F6D2F64657369676E2D7061636B6167652F323030393C2F666F726D61743E3C2F666F726D6174733E504B03041400060808005B763140D486FD9CA0000000F4000000130000005B436F6E74656E745F54797065735D2E786D6C7D8EC10E82300C865F65E91D8A1E8C310C0EEA1BF002731658846E
311
D98AC1B77784ABF1D8FE5FBFBF75BBCE937A534CCEB38643598122B6FEE978D0B0485F9C41B54DDD7D022595594E1A469170414C76A4D9A4D207E29CF43ECE46F218070CC6BECC4078ACAA135ACF422C856C0E68EA1BF5669944DDD7BCDE7B1F8E415D77AECB980613C2E4AC91FC167A2B244592486606FC29C8FD7F045B9A
311
EF7053A7E60B504B03041400060808005B763140CAE007A3E90000007C01000008000000636F72652E786D6C8D90416EC3201045AF82668F0DB6A91D0B13398D7A825E0001715062B00C543D7E71E248EDAEAB19FDF96F66F4F9F17BBEA32FB306EBDD00B420808C535E5B370D90E20577808E82AFDEC75F36404ECE66804D
311
06C1A7D5A765979477D1B89855E7B5D94519828980D43D3703047535B32C648AD9116EC522D54D4EA6A0AF2EC329598D9E47ACCEFBECC59A1544C558DB1D4E23A6A4AD71434E677C68BA1A8F63F5FE51D333ADD8C8CB0D163CDAF9755FAD4646A3334F688509C5B4FDA44DCF48CF18266F3D21BCDCEC7FA0B4E87F42C9BA58
311
57FBBB4F2C80A0F991C740F072CB22974750B96EB9891F504B03041400060808005B76314055019EA25F0000007C00000007000000636E782E786D6C4DCB3B0E80201045D1AD90E915ED2CF8AC45050C11660C8261F98AB1B07AC9C97D42D718D865D3E909258CFD00CCE24AC6E326A164D74DC0B4128928FF326038472BA1
311
3128B1252AC747C6BAB984FC68F0B87FE8960A5C09FE86CFB69FBA01504B03041400060808005B763140255C463D65010000020300000C0000006662782F636F72652E786D6C8D52ED8E8320107C15C27F04AC5E3F8234F69A7B827B01AAD4235568104C1FFFD66AD3EBA5691A1324333BBBB3A3627BE95A3468DF1B670BCC
311
138691B695AB8D6D0A1CC391AC30DA4AE19D0B7FCA30B2AAD3051E612C45E35D3CCF50E56CD036006A5DAD6750F5BD0E18552D5C0ADC573FBA53898A012AFA537256D549353AE109D05027451F3C1840D390F1C4F278B8083AE152C468EA9935354C3347A33D96699E2F57EB5D49385B2E48C6767BB2CE560B5296E9E7D782
311
EF799A97828E622982E96EEE2AAF55D035E8194F09E3842FBF79B6C9D926CF09FBD83026E858FE208AE7FA4D5134362CD2D9EE24EBB1E460E44AFCDB16220AA85703F8A152D03144785D137E0C1A028190833AB4B73D4E000DBA0ACE67C0D42EDEA941B551C35486AE8FA0130B9DAF0D60B3A77DD2177D5EF7800FA86C03D6
311
5480EB218671BA98A6CE519CB52743B820EB7CA7DABBB9C9E2FDBC0F7A2AAF5CEBFC3B6A3AAF4AE730E9F8F7CA5F504B03041400060808005B763140A69C15BF7D0000009D0000000B0000006662782F636E782E786D6C4DCC410EC2201445D1AD903FC78A34C20068BE88FB682C6D88140C16E3F26D4D078E5E72F27255F7
311
992379FBF20A3969608723109FEE790869D25097914A209D5125E7E5EF0624F5B3D7B0311835955C9F3B0D7EEC6B5C568D213D76447116F676E514ADB0B475ADA0172690229388CEF193E4121AA39A5F69DD2D6CBE504B03041400060808005B7631406212C7232B01000014020000310000006662782F4137363743464433
311
2D414337432D344534372D423137412D4131384141454533323833382F636F72652E786D6C8D51CB6EC32010FC158B537AC006BFB0224CE4A6E917F40708901425068B4795CF2FD4AED4DE7261D1ECCCEC68971E1EF3BDF852CE6B6B46804B040A658495DA5C4710C3050EA03830EAAC0D7F68A0307C5623C83060F4EA6C5C
311
364858139409093556AA0DE4DEAB000A714F9F1178F1A9665EF21812C3DFCA858B1BBFAA1297A99D788CFAE05280621D925FC026D293E3FB5B03A72339C2F6D412F88AC904273C4CD3E9D4D44333D06A15321AA3969B5CCB14475FB472CF9A6431A341CFBFF185533C2809588D700D1186987CE076DFA17DD741D4EF11A255
311
A6FF13C5453E298ADA84A6DEE2AE320F18A6D5DA6054DA78BEFF86518FC5BA50E4793BAFC40B60A84435EABBAE21B45AA96901C9B36F374F1FAC4B0BDEDDCE898DBBD5B86F19ADF28D52F93960AAF99EEC1B504B03041400060808005B763140EAC0CA294D01000033030000300000006662782F41373637434644332D4143
311
37432D344534372D423137412D4131384141454533323833382F636E782E786D6CD593CD6E022114855F85B09F1FEC681BC360D2459FA08B6E11AE4A6560C24F53DFBE1745EBC64597DD90C9B987736EBE307CF33D59F205211AEF46CADA9E1270CA6BE3F623CD69D7BC50B2113C789FEE6C943839C1488B4C05DF079FE72A
311
69D8C96C13AAD6B8631503449F83828872B949AC57D26200B826A308D316B4064D6E46FCDA41C05550DC9E483A00797BFD207EFB092A45DE9514C1BBD22178396BD39D891265658C238DEA00936C654E5E433CB65A26D9B2F6DAF560A7DF24522E5C2B7330A4948FB49C54D48D5AE4C83B1C0A1E53407AD5944E335021E7D9
311
1A251342EECEC68B47F06C5C5A0DD56B107C40375B3D0D03869D678227334175A8003281A662D1B345D3B3863DBFB361BDECD7CB65D3AFD67DCFBB62177CEBBDAD973006829F89F22E814B5430DE95F1237CD547B409C8DA87D31F402280DA7AA173CBF8CF7CBAF3FB465C01FF02F103504B03041400060808005B7631409A
311
D2C6F59C0500007B100000340000006662782F41373637434644332D414337432D344534372D423137412D4131384141454533323833382F6F626A656374732E786D6CAD57DB6EDB3810FD1541FB6CCBB734C94251E14B5218DDB4458D16FB10C0A0244AE186BA80A452A75FBF8722254BAE9D78177D91448A1CCE9C3973A1
311
FF7E9771E7990AC98AFCC61D0F47AE43F3A888599EDEB8954A0657AEF33EF04551A8CE32D7C949466F5C3DED067E2A8AAAB453314D48C5D5C1ECDDE26F474634A7AE137122E58D2BA3479A9121A9541153F9348C8922C334D90DC743B3B02F3615A47C3C105A124173054D319F438A63941AF78723D70B7C4FFF0F7CFDB4AB
311
A6A75779B53DFDF3592E15C9A35F0E3B10331DCF56B7938BEBC1C56C361DCCDE4DC683C5DD6235185F4E47CB77CBE5F5FCF61A074B2520C96A2268E2061F808D6091EF995F815FB15C4D277689759027E833D39E72838933F63DB3A6B5CE1A794CFDA8C8731AD558018DDA3E2B3AA625CD63F89C5109CD3A088DFAC3B1C6B1
311
F37BAAC7F6C8EEF479087477740435BA37EFAEA645F80F4C90E7304848AA1968B0B4861AAE8EF6088745C1ED3F269D8C282A18E10E67A120E2C50DB0542F09FC9E18CD64A1A3415BE006F082F9DDA70BC2E86D9E1FD332A938D73476833A0AB68815AA64AD19FB49C55EFB2E32D009BED26CB8B206A99792BAC1B5A1C8D501
311
9B0C904EC2490A97C34CBD733A393074A9E374BD72838F77E16EA363F7F8E1A5284A2A94A60FA8D538AE796B94AC4EE3B33CA737B807AAEC41F90AE43F21D4F7AAC06F82ED66BB993D450992CBA410197CE38C9CC1088F9133AE9FFABBF3E57BEDE6BEF74EE109676BA87E039E7D1BBABEECC019F8CF207C21A6D6B44D4438
311
D2C63DCB01902689C30B4C210F27E1CE0DD6C872C8CAD845783086C950F7199FBE67C52051D42775DE39B03C488B672468C05633126A18F25B05F77EFA259DD507DB65A7E0BDF82D749DAF361F3795484844EF6D4CAF68C272A650E2F6BCE92AD4C3BC67D1137DF951881886FE8AF7A68B77668F92405B63AE814F9B9CAE07
311
FB937B0744D897163ADDF86F9C00237461EDC8BF6732A29C939C165573EEABF50365C340AC835D33B92D30FBC202D2983F073188221D09566A10DB6AD526CDE109EBBEAD3F81916EB078F98BBC74B357B8CFBD51C10BB10D5FB6262D1D85FA7B9FDB16034F4B01DDEB2069E2DF82BE8D5992541249F008AEDFD7CBAEEF745A
311
408A68A49A6899C17E04171196B48D5C546B4150498B7CCB50371177470FE8CA07A49601B5C0531A4BCA932DE3BCCAB609E3A846DB8C9427E0F8FFFA8755566E495654B93A21BBA73AAA435FF71E7BE50FA2A24737D8D4EFC102B937A6F10932E85A7204AB9E6BAF5797B7F3BBF9F560349B5D0E66A3ABABC1D564391D5C2C
311
DE4D67CBD972345D5C367E329A047E536ABA110D2FA1B4F99560D67DDFD6881F9B04DCE09E28F9F0C18467F3FEB61EA217F63DEC41BD6C37CEE367F47D347E5BC07EE55141EBACE434A3B9223A86EEF507FF4AD067F49431F3EB8CA4F40C299F3F6C0E8CC1CC19FBBEE878A73F0EF6DAD9A50EC8A342D46395853961FC6063
311
6A901C96796AF16B7CD2BE4DA169867A641D83CE54169CC5C883B193D222A30AD9F08C2224322A41BD6E4F1FDBBBC719BB9F4D87A848C869A3C9234193CC25C202D4AA22D59F77FE4053A7FBAA1B17E576F88487CD14AE03CEDCB868D2158BA81C8628D0BA15AA85834BDD4E1E8D3FC9538E5EDB6C6AC7ED2E8D4DAF24B74B
311
CEE99FAC5D26855B0390464AF40D6888E09D5A99C0AF75B3FFA3FF6478A38E43143EC34AB5B6EC275A63EA6310A2C6287B5B4013F3648FDE21505F376B3CACD7F41039EB96F52A098CD4812222AD6F0A5A3FABD27CF5C54387E2AC3F3B25AF52F8F27C49034141E64A073858045658992551A0EAF2CF872FA2C04D3673EE18
311
28F0B02CB2ACC8ED606E6FC2CEE611F7DAF8016981EA0B897C988CC69387FA2260EF26DB90483A24B17CC2047C2A580B71CFF160A4B92DA202991FED3A4F3BE1809BEB95634BDA0C422D51BA5955C3829623A70EA2475F2675AC741794AFDE05BC7A295410E8E2837F01504B03041400060800005B76314000000000000000
311
0000000000350000006662782F41373637434644332D414337432D344534372D423137412D4131384141454533323833382F76657274696365732E62696E504B03041400060808005B763140F270F1330600000004000000360000006662782F41373637434644332D414337432D344534372D423137412D41313841414545
311
33323833382F747269616E676C65732E62696E636660600000504B03041400060800005B763140000000000000000000000000370000006662782F41373637434644332D414337432D344534372D423137412D4131384141454533323833382F617474726962757465732E62696E504B03041400060808005B763140D5987D
311
FC8F00000041010000360000006662782F41373637434644332D414337432D344534372D423137412D4131384141454533323833382F6469726563746F72792E786D6C858F410EC2201045AF4266AF15DDB800BA74E7C21B903225242D6328188F2FA5C4183471359997F9FF81E89FF3C41E1816475E02DF1F80A11FC8386F
311
25A438EECEC07A250251FC3803E6F58C12560C4AD840E95E91C151A72936F496F35732D860FE635F62C8F2DA16B505C545B74125BAA2FA9E05D7CC053D063734D5C7665FD55B6B8D15D5E9BFEAFD8490FFA45E504B03041400060808005B76314077296462FC000000A00100003B0000006662782F41373637434644332D41
311
4337432D344534372D423137412D4131384141454533323833382F7265736F75726365732F636F72652E786D6C8D50596EC32010BD8AC53F3678A91D0B13398D7A825E00C1C44589C162A97AFC42EC4AED5F7F66466FD13C3D76FE5A1FC52738AFAD99102D092AC048ABB4592614C30D0FA83873E6AC0DBF64A83062850965
311
1871B6381BB70392D6043021A1C62A3840E13D0454C8473A26E4E507ACA214312485BF979B9077B14049CB44271D673EB814A0D89FE489B8036FA393E059B5B39CC5A8D5A1D12AFDD4370D0EF1BAEBFAE17439614AFA06B7E472C5A77668F03CD7AF6F0DBDD2BA9B5995CD9C05BDFE64940E440095FC84D698504CFB77DA8E
311
1D19BB0E939791105665F91F53DCD43F4D519BD0D447DCDDE611A729C893E0ACCA7DA5F52C33EDDC2DFF06504B010214000A00000800005B7631403DEE336E79000000790000001B00000000000000000000000000000000006175746F6465736B2D64657369676E2D7061636B6167652E786D6C504B010214001400060808
311
005B763140D486FD9CA0000000F40000001300000000000000000000000000B20000005B436F6E74656E745F54797065735D2E786D6C504B010214001400060808005B763140CAE007A3E90000007C010000080000000000000000000000000083010000636F72652E786D6C504B010214001400060808005B76314055019E
311
A25F0000007C000000070000000000000000000000000092020000636E782E786D6C504B010214001400060808005B763140255C463D65010000020300000C00000000000000000000000000160300006662782F636F72652E786D6C504B010214001400060808005B763140A69C15BF7D0000009D0000000B000000000000
311
00000000000000A50400006662782F636E782E786D6C504B010214001400060808005B7631406212C7232B0100001402000031000000000000000000000000004B0500006662782F41373637434644332D414337432D344534372D423137412D4131384141454533323833382F636F72652E786D6C504B0102140014000608
311
08005B763140EAC0CA294D010000330300003000000000000000000000000000C50600006662782F41373637434644332D414337432D344534372D423137412D4131384141454533323833382F636E782E786D6C504B010214001400060808005B7631409AD2C6F59C0500007B100000340000000000000000000000000060
311
0800006662782F41373637434644332D414337432D344534372D423137412D4131384141454533323833382F6F626A656374732E786D6C504B010214001400060800005B76314000000000000000000000000035000000000000000000000000004E0E00006662782F41373637434644332D414337432D344534372D423137
311
412D4131384141454533323833382F76657274696365732E62696E504B010214001400060808005B763140F270F13306000000040000003600000000000000000000000000A10E00006662782F41373637434644332D414337432D344534372D423137412D4131384141454533323833382F747269616E676C65732E62696E
311
504B010214001400060800005B7631400000000000000000000000003700000000000000000000000000FB0E00006662782F41373637434644332D414337432D344534372D423137412D4131384141454533323833382F617474726962757465732E62696E504B010214001400060808005B763140D5987DFC8F0000004101
311
00003600000000000000000000000000500F00006662782F41373637434644332D414337432D344534372D423137412D4131384141454533323833382F6469726563746F72792E786D6C504B010214001400060808005B76314077296462FC000000A00100003B00000000000000000000000000331000006662782F413736
311
37434644332D414337432D344534372D423137412D4131384141454533323833382F7265736F75726365732F636F72652E786D6C504B0506000000000E000E0080040000881100000000
310
504B03040A00000800005B7631403DEE336E79000000790000001B0000006175746F6465736B2D64657369676E2D7061636B6167652E786D6C3C3F786D6C2076657273696F6E3D22312E302220656E636F64696E673D227574662D3822203F3E3C666F726D6174733E3C666F726D61743E687474703A2F2F736368656D612E
310
6175746F6465736B2E636F6D2F64657369676E2D7061636B6167652F323030393C2F666F726D61743E3C2F666F726D6174733E504B03041400060808005B763140D486FD9CA0000000F4000000130000005B436F6E74656E745F54797065735D2E786D6C7D8EC10E82300C865F65E91D8A1E8C310C0EEA1BF002731658846E
310
D98AC1B77784ABF1D8FE5FBFBF75BBCE937A534CCEB38643598122B6FEE978D0B0485F9C41B54DDD7D022595594E1A469170414C76A4D9A4D207E29CF43ECE46F218070CC6BECC4078ACAA135ACF422C856C0E68EA1BF5669944DDD7BCDE7B1F8E415D77AECB980613C2E4AC91FC167A2B244592486606FC29C8FD7F045B9A
310
EF7053A7E60B504B03041400060808005B76314059AF9E12E90000007C01000008000000636F72652E786D6C8D90416EC3201045AF82668F0DC42689858954D53E412F8080B828315806AA1EBF3871A476D7D58CFEFC3733FAE2F23DDFD1975DA30BBE075A1140D6EB609C9F7AC8E98A4F802E52AC21A45F36405ECDB6874D
310
0629A635E4659774F0C9FA54541F8CDD4515A34D80F4BD343D44FD696755A99C8A23DEAA45E99B9A6C455F5D817376063D8F3853F6B9ABB32BC8919377723873CC086F7173661CBF0D278629E5CD711C18199B41D41B2C4572F3EBBE5EAD4AD6806484324C28A6C70FDA742DE9DA0613DE1122EACDFE07CA8BF927949D4F07
310
B6BFFBC422485A1E790CA4A8B72C4A790455EA969BFC01504B03041400060808005B76314055019EA25F0000007C00000007000000636E782E786D6C4DCB3B0E80201045D1AD90E915ED2CF8AC45050C11660C8261F98AB1B07AC9C97D42D718D865D3E909258CFD00CCE24AC6E326A164D74DC0B4128928FF326038472BA1
310
3128B1252AC747C6BAB984FC68F0B87FE8960A5C09FE86CFB69FBA01504B03041400060808005B7631407ADD607D65010000020300000C0000006662782F636F72652E786D6C8D52ED8E8230107C95A6FF4B3F44F44CA9C9E5F409EE052A548E082D292DF1F16FF9309E17630C49696676766707E4FEDA366830BEAF9DCD31
310
4F1846C616AEAC6D95E318CE648BD15E49EF5CF8538691D5ADC9F10863252BEF62B74085B3C1D800A875A55940DDF72660543470C9715FFC9856273A06A8E82F49A78B8BAE4CC213A0A14EC93E783080E621E389D5F9749574C6958CB12E17B62E615A7DAE8DC7EA98B12FB6FAC88860D99AA41F22239F87AD209C67E9E678
310
10EC981E241DC54A86BABDB92BBCD1C1945809C605619CF0CD374F776BB65BA784653BC6241DCB1F44B12BDF14C5DA869558ECCEB21E2B0E4626E2DFB6105140BD1EC00F55928E21C26B4AF831680804420EFAD4DCF6B800349822389F0253BA78A706DD440353199A1E4967163A4F0D60B3A77DC48B3EAF7BC007D4B6026B
310
3AC0F514C3385DCE5397283AE3C910AEC83ADFEAE66E6EB6783FEF839ECA0BD738FF8E9A2EABD2254C3AFEBDEA17504B03041400060808005B7631404A7AA3017D0000009D0000000B0000006662782F636E782E786D6C4DCCD10A83201805E05791FFDE72CB312FD4C8ACF7886521331DA6638F3F1B5DECE270E0E37078FB
310
D91C7A9BB8DBE0055C2A02C8F84798AD5F05E4B46006A8953C8690FE6680FCB419010783E46B0CF975D26C9629BB54D459FF3C91D15EB3E6CE7033E81ED3EEAA70A714C1256A2454DF8691402D79FD7B2A7D1CCB2F504B03041400060808005B7631400B94D6432A01000014020000310000006662782F3834434438333738
310
2D334544432D344132422D414242302D4242304246303444354546302F636F72652E786D6C8D51CB6EC32010FC15C4293D60838D132BC244711E5FD01F706C92A2C460F1A8F2F95D6A476A6F39C0A2D999D9112B76CFF181BE95F3DA9A06B38C62A44C6F076D6E0D8EE14A6A8C7652386BC31F1A46A61B5583138CA5B8391B
310
A705EAAD09CA04408D1DD40276DEAB8051FF8047837DFFA5C62EEB620086BF6753D7DFBB9BCA58066DE049E1838300681E926E2C6B7E38D6E5A626E5E978207C5FB464DFB694C069CF941FABD3998A7C164A11A31E16B91E208EBE6AE5DE35496229821E5FF17BA7BAA0062C0BCA0A4219619B4FC6B715DD569CD0F596C2E4
310
44FF278AD3F0A6286A13CA62893BCB3C964CE473438AC1C6CBE315463D27EB024AF3565EF51F58D28C1625E36555897CA6C20780E79A2F9E3E58071FBCBA5F805D2EC66B2E459E7604E5778150D33EE50F504B03041400060808005B7631408D72814F5501000033030000300000006662782F38344344383337382D334544
310
432D344132422D414242302D4242304246303444354546302F636E782E786D6CBD93CD6E022114855F85B09F3F1DA7C6309874D127E8A25B84ABA53230E1A7A96FDF8BA275E3A249D30D999C7B38E7E60BC3B65F93219FE0837676A45DDD5202563AA5ED61A429EEAB35255BCEBC73F1CE468915138C34CB94B38377692E92
310
82BD4826A26AB43D16D14370C94B0828E79BC438290C0680AD128A30ED402950E466C4AF3D785C05C5DD89C477202FCF6FC4ED3E40C6C09A9CC259933B38CB6769BA3351228D0861A441BEC3246A91A253108EB51251D45D7DED7AB0D34F12C917AE95C96B92CB479A4FCACB463572640D0E390BD123BD628AA7192817F36C
310
B41411213767E3C5C359D2360E7DF16A04EFD1BD5C0CEB35869D679C453D4171480F2282A27CD1768BAAEDAAEEE9B5EB37AB76B3EAAB76D8B42D6BB29DB39D73A65CC218F06E26D2D9083652DEB1268F1FE12B3EA2B447D6CE9F7E01120194D60B9D5BC65FF2E98665DFFF239FE6FCBE1197C7BF807F03504B030414000608
310
08005B7631400314B5895A070000941B0000340000006662782F38344344383337382D334544432D344132422D414242302D4242304246303444354546302F6F626A656374732E786D6CED595B739B3814FE2B0CFB6C6C62E7B643E8244E93F174D376EA6D671F3CC3C820136D84602491C4FBEBF7E802066212BCCDBEF5C1
310
06847474CE77AE3A041F9E33EA3C622E48CE2E5CDF9BB80E66719E10965EB8A5DC8CCE5CE74318F03C978D69AEC350862F5C35EC8641CAF3B2B04309DEA092CACEE8CDD55F8E8831C3AE135324C4852BE27B9C210F95324FB078F0122491976E9E3DDF3313DB64538E8AFB0ED10271CC24700AE30CA8388629BFFD3871C761
310
3056EFC340FDDB59D341B366FDB3C65AEA369784098958FC82A50E99E92096A6FEECFAE3D1F1F9E878369B8E662747FEE8EAE6EA7AE49F4E27F393F9FCFCF2E339B0B7CE736A654A70815902FADBBAA11F8CD59B5A748BC03EAEE39C311C6B20012A2D569720C102B66AC037693FFA4AA2C66B2D61E379A6DE5B161AC3D336
310
95BE59C38068D10541EC7695C4D5B5295FBEFE1B0417438C920B2C815B213968D7C2C3C12BDC70128CCD6818AC77BA20C2C990C49C20EA50B2E688835260AA9A1206668125A39C8303294749A035675EB76D0B3CF36DD7D9C7E5A6A45479861B6AC78AC0FDB0149A33F20FE63BEE9BC8004F206D49983CB35CCA6D81DDF03C
310
18EBC1305097E9917D6980743614A5422362DE76049D2BD75F5CBBE1A79BF5F3528583FD9B173C2F3097CAE8941E355F60C8F6AA50B2DBFA8334A71680300654BB7207CA3740FE33448F1D2BA0374E9E67CF333B5772C4C426E719E8C69938A309FC4D1C5FFFABFBC65D30AE17B7B5D78727B8A982EAECE7F16CCBA0B1B2FC
310
37E00C834730F89C4FEDAB658C28D8F31D610090321287E63004A17DB37E76C305044E08F4B00AD1D0079181DD47B80DC696CC4E2B957B59AF6380A8DD633A4449009BB64860A3474FB7903D3889776A6A8AD807EFF1BB98EBE5F5F2D3B2E41B14E33BEBD3D7784318919035F733D4C2BC25D103DE3EE53C01415FE2BD6CE2
310
9DD9AD04A0AD3057C0A71508EA61B7736B8318D6A5B90A37C11B3B80102A5737E8DF1111634A11C37959ED5B473765A8B5C7DB9AC10D8F0CC4D3A38E0973FC485455014EB39BD16214F27ECC49A14074C35B23591D34BD1EE9BE2F3E8345D6F37B662D18845E86E89F3A68EDC1A165D915D216885AE0F52E9CC739CD79B4DE
310
4626D2B9504B001B6D6FF9D1220AB1DE284951010FD27E578594D4481B2564B32905C4D53D2CFE58CC9BE630F1A6FEB1D3FCEF38E30CA22DF82EE2D6EF3A7B442443298E3628E9DBAEB95B4D5B68923DA439DE50908B3C12B98D908C26094E0F81E620E2E7EF4A3DA5B910846101F96A2FF84D34261E0412A3CD8A65A5D50E
310
D044441996881E828022D303AE4E3BBAC68DA174789BC7DA7A5FD35893E8FF64111C412D99B38840290A39E44DC67DEF1862481B5D8372075FB0B68AB61683965042C4DBE80993F45E1E82BA21DF837B0C4792524679816230EB01645FF88A526A87F7358A1F54FE88E292BE9781084C3711A1B4CC22F81106278F21AE5D07
310
A65751681037B14FE20C8A32244B3E649393E3C98B7D4CCDD00D818D8D368442D88E3254F4A0DE0A88BA1E716AF02DF51EA5AECBAC885096976C90A178D3AE3759F25DB52AB203F955A522948D15614B300C08937556AD623698BA0EACE0463A506D2381B2829A53D81B89C7AFBD4953EEDD805B3F7DDF0D3228FC7AB4D78C
310
A8B30A06CB63AB30104F48C6F76EB8D4D7D115D4DF094E76A9BEAA359B152020A62279C98955D1F7059437B64673C33B24C5EAD664DDEAFA7DE141F72318C31AA85DEA850B0574869944AA32B95337F41B8210DCA261C6172AA71E42E5324974D588E80DE95367AB8C686D9A11AFB8C72CCFE0C75684C5B44CF00A25E221BA
310
93345A12C5BA95D2CB4885F1AB027EB95D76E0819101227D55051E7EEAACB5A373552EED2522EFCB6CCD108120D8122D35BAF10A965A8D545AAEAFEA4C017517189855F1ECD7C9A2D98EF875B248AD61FCD4C9E26AFB07DA36FB228D741E2BBB3EE81850E72745E53D8E01BAED5053ADB38849E6567EEB4C1104C52ACA0FAE
310
C6AAA06108F671FC9FB3765F1634DB75F83F2C6BFB2F2A8E83B24A6BB2EA52EDA95C17CD1C767E7DFAF1F2E6F27C3499CD4E47B3C9D9D9E8EC683E1D1D5F9D4C67F3D97C32BD3AADD1D48E1A067530D3B90B9E4D50AB86D593C500BAB222A72481D37CE2A41862BE8433FD80F639CFB080E4D96C7627B6293F60F5A3E9734A
310
B4A6B8E2E41E4183980A48EB805119CBF6B8F31BB426251CB42F5C681A790FF067ADD27520F35CB8D02A9024C6C25B439B4935F4347148B93AF75B62800F62A94A896651FD5CAF52D8B4C27F3D65481AB072B57A1850B815D0FD6A7528346F96A7F820C12B761C24E1765D4AA8D68C2CBB815A18BDCD4EFD46364AD883DDFA
310
195CF775B17C4FCF692132E893C1AB4660A88E24E2A9EE772BC62C4B97D75FC7D06773165F9C829629E87238A511C760CCA52AA8C08AC02A2CCD024930D5F9EFABAF3C874F3C99A3ABA2D53CCFB29CD9874B388F25F089C859DEC3079F64056503566D75B13A9AF8472BDDCEB61DF6688D04F6543D04035519A144E8181B58
310
E48BD6946D5C8E95123AD317D78E0D9FD0063016F4A2BB6B3E6F39E03DEA438AF215EDE1959CAF76B4C77A2A5803875E74F82F504B03041400060800005B763140000000000000000000000000350000006662782F38344344383337382D334544432D344132422D414242302D4242304246303444354546302F7665727469
310
6365732E62696E504B03041400060808005B763140F270F1330600000004000000360000006662782F38344344383337382D334544432D344132422D414242302D4242304246303444354546302F747269616E676C65732E62696E636660600000504B03041400060800005B76314000000000000000000000000037000000
310
6662782F38344344383337382D334544432D344132422D414242302D4242304246303444354546302F617474726962757465732E62696E504B03041400060808005B763140D5987DFC8F00000041010000360000006662782F38344344383337382D334544432D344132422D414242302D4242304246303444354546302F64
310
69726563746F72792E786D6C858F410EC2201045AF4266AF15DDB800BA74E7C21B903225242D6328188F2FA5C4183471359997F9FF81E89FF3C41E1816475E02DF1F80A11FC8386F25A438EECEC07A250251FC3803E6F58C12560C4AD840E95E91C151A72936F496F35732D860FE635F62C8F2DA16B505C545B74125BAA2FA
310
9E05D7CC053D063734D5C7665FD55B6B8D15D5E9BFEAFD8490FFA45E504B03041400060808005B7631403145C323FC000000A00100003B0000006662782F38344344383337382D334544432D344132422D414242302D4242304246303444354546302F7265736F75726365732F636F72652E786D6C8D504B6E833010BD0A9A
310
BDC1768024C838525538412F6099496225D8C89FAAC7AF09546A77DDCC8CDE47F3F4C4E56B7E169FE88371B607565228D06A37197BEB21C52B39417191C23B177FC9A0B06AC61E5618A4B87997961DD2CE46B431A3D64DB8832A048C50E8673E7A08FA8EB32A558A59111EE5A2F443DDB06465A6B34E8A107D0E506C4FD609
310
D26370C96B0CA2DA58295232D3AE3153FE69AE063DC8B1A5EFF4706E08A76D43EA336FC9DB70E284B1B63E8E03A7633D886A354B11CDFC93517B541127909C324E2823ECF8C1EAAEA15D5313DA76948A6A95FF31A565FAA729191B0F7C8FBBD902489683BC0829AAB5AFBC5E65E6BD762BBF01504B010214000A0000080000
310
5B7631403DEE336E79000000790000001B00000000000000000000000000000000006175746F6465736B2D64657369676E2D7061636B6167652E786D6C504B010214001400060808005B763140D486FD9CA0000000F40000001300000000000000000000000000B20000005B436F6E74656E745F54797065735D2E786D6C50
310
4B010214001400060808005B76314059AF9E12E90000007C010000080000000000000000000000000083010000636F72652E786D6C504B010214001400060808005B76314055019EA25F0000007C000000070000000000000000000000000092020000636E782E786D6C504B010214001400060808005B7631407ADD607D65
310
010000020300000C00000000000000000000000000160300006662782F636F72652E786D6C504B010214001400060808005B7631404A7AA3017D0000009D0000000B00000000000000000000000000A50400006662782F636E782E786D6C504B010214001400060808005B7631400B94D6432A010000140200003100000000
310
0000000000000000004B0500006662782F38344344383337382D334544432D344132422D414242302D4242304246303444354546302F636F72652E786D6C504B010214001400060808005B7631408D72814F55010000330300003000000000000000000000000000C40600006662782F38344344383337382D334544432D34
310
4132422D414242302D4242304246303444354546302F636E782E786D6C504B010214001400060808005B7631400314B5895A070000941B00003400000000000000000000000000670800006662782F38344344383337382D334544432D344132422D414242302D4242304246303444354546302F6F626A656374732E786D6C
310
504B010214001400060800005B7631400000000000000000000000003500000000000000000000000000131000006662782F38344344383337382D334544432D344132422D414242302D4242304246303444354546302F76657274696365732E62696E504B010214001400060808005B763140F270F1330600000004000000
310
3600000000000000000000000000661000006662782F38344344383337382D334544432D344132422D414242302D4242304246303444354546302F747269616E676C65732E62696E504B010214001400060800005B7631400000000000000000000000003700000000000000000000000000C01000006662782F3834434438
310
3337382D334544432D344132422D414242302D4242304246303444354546302F617474726962757465732E62696E504B010214001400060808005B763140D5987DFC8F000000410100003600000000000000000000000000151100006662782F38344344383337382D334544432D344132422D414242302D42423042463034
310
44354546302F6469726563746F72792E786D6C504B010214001400060808005B7631403145C323FC000000A00100003B00000000000000000000000000F81100006662782F38344344383337382D334544432D344132422D414242302D4242304246303444354546302F7265736F75726365732F636F72652E786D6C504B05
310
06000000000E000E00800400004D1300000000
  0
XRECORD
  5
17
102
{ACAD_REACTORS
330
12
102
}
330
12
100
AcDbXrecord
280
     1
270
     1
271
     1
  0
XRECORD
  5
16
102
{ACAD_REACTORS
330
12
102
}
330
12
100
AcDbXrecord
280
     1
270
     1
271
     1
  0
XRECORD
  5
18
102
{ACAD_REACTORS
330
12
102
}
330
12
100
AcDbXrecord
280
     1
270
     1
271
     1
  0
XRECORD
  5
15
102
{ACAD_REACTORS
330
12
102
}
330
12
100
AcDbXrecord
280
     1
270
     1
271
     1
  0
XRECORD
  5
D96
102
{ACAD_REACTORS
330
22
102
}
330
22
100
AcDbXrecord
280
     1
102
MATERIAL
148
0.0
149
0.0
149
0.0
 93
        0
 94
      127
282
     0
 72
     0
 77
     0
171
     0
175
     0
179
     0
273
     0
  0
XRECORD
  5
24
102
{ACAD_REACTORS
330
22
102
}
330
22
100
AcDbXrecord
280
     1
270
     1
271
     1
  0
XRECORD
  5
23
102
{ACAD_REACTORS
330
22
102
}
330
22
100
AcDbXrecord
280
     1
270
     1
271
     1
  0
XRECORD
  5
BA
102
{ACAD_REACTORS
330
22
102
}
330
22
100
AcDbXrecord
280
     1
 70
     1
 90
1959938040
 71
     1
  1
1BF9227E-D97B-405E-8289-ACE9C65F3F96
311
504B03040A00000800005B7631403DEE336E79000000790000001B0000006175746F6465736B2D64657369676E2D7061636B6167652E786D6C3C3F786D6C2076657273696F6E3D22312E302220656E636F64696E673D227574662D3822203F3E3C666F726D6174733E3C666F726D61743E687474703A2F2F736368656D612E
311
6175746F6465736B2E636F6D2F64657369676E2D7061636B6167652F323030393C2F666F726D61743E3C2F666F726D6174733E504B03041400060808005B763140D486FD9CA0000000F4000000130000005B436F6E74656E745F54797065735D2E786D6C7D8EC10E82300C865F65E91D8A1E8C310C0EEA1BF002731658846E
311
D98AC1B77784ABF1D8FE5FBFBF75BBCE937A534CCEB38643598122B6FEE978D0B0485F9C41B54DDD7D022595594E1A469170414C76A4D9A4D207E29CF43ECE46F218070CC6BECC4078ACAA135ACF422C856C0E68EA1BF5669944DDD7BCDE7B1F8E415D77AECB980613C2E4AC91FC167A2B244592486606FC29C8FD7F045B9A
311
EF7053A7E60B504B03041400060808005B7631401E214AFBE90000007C01000008000000636F72652E786D6C8D505B6EC32010BC0AE21F1BB0F3B23051ED3A27E805106C5C94182C03558F5F9C3852FBD79FDDD5ECCCEE68C4F97BBAA32F5882F5AEC5ACA01881D3DE5837B638C52B3962749662F13EFEA261E4D4042D5E61
311
2CC5B8F8346F90F62E828B1975DEC006AA102062A4EF796871D09F30A942A59819E156CC4ADFD408057B4D599C9235E8F9C49A7CCF5E2D2C58B2EA520D87819353974B7DAA7BF256ED2FE4F8DEF38A0EB41BBA5E94AB588A68A7D77FBD808A60B0E49471421961870F56373BDAEC6A42F70DA5A25CE97F446936FF1425EB62
311
C537BB4F59C85EB391C7428A72CD22B74750B9AFB9C91F504B03041400060808005B76314055019EA25F0000007C00000007000000636E782E786D6C4DCB3B0E80201045D1AD90E915ED2CF8AC45050C11660C8261F98AB1B07AC9C97D42D718D865D3E909258CFD00CCE24AC6E326A164D74DC0B4128928FF326038472BA1
311
3128B1252AC747C6BAB984FC68F0B87FE8960A5C09FE86CFB69FBA01504B03041400060808005B763140BBBFF6C066010000020300000C0000006662782F636F72652E786D6C8D525B6E833010BC8AE57FB079E4D1C8386A5272825EC001875A011B191BE5F85D1E114D15451192B16676766707D8FED6D4A897B653466738
311
0A29465217A654BACAB07797608BD19E336B8CFB538691168DCCF00063CE2A6B7C3B4385D14E6A07A836A59C41D175D26154D470C97057FCC84684C23BA8E8AE612B8AABA864188540431D679DB360004D438613F3CBF9C6C88473E6BD2A675695304D5D94B49847C929C937791C7C1CE0483FD263F099AC4FC1F6EB182734
311
A787FC7064641073E65473775758299C2C318F691407340AA2CD7794EE5674B74A03BADE51CAC850FE20F26DF9A6C82BED9278B63BC93AF00A4646E2DFB61091439DE8C10FE18C0C21C26B4CF8316808044276E25CDFF7B802D4CBC2199B02531ABF50BDA8BD84A9148D0F23130B9DC706B0D9D33EF18B3EAF7BC00714BA02
311
6BC2C1F5ECDD309D4D53E7285A6983DEDD9036B611F5626EB2B89CCBA0A7F2C2D4C6BEA326F3AA640E930C7F2FFF05504B03041400060808005B7631404B3F4D507E0000009D0000000B0000006662782F636E782E786D6C4DCCD10A83201886E15B91FFDC355D8E0235CAEC3E625948A6C3E9D8E5AF46073BFAE0E1E3E5CD
311
6773E86DE2CB062F805CAE808C7F84C9FA45404E33AE003592C710D2DF0D901F3723E060907C89213F4F9ACC3C66977675D6AF27767D453BCD6ADCB3B2C5E58D325C2B4DB0A2B41DEE83264A2928242F7EA57D8FB0FC02504B03041400060808005B7631405E3DCD9E2B01000013020000310000006662782F424438324245
311
35392D443534412D343332352D394345312D4332324146364645314343432F636F72652E786D6C8D51DB8EC22014FC958627F78116B0EDAAA118ADFA05FB0308A8440B0D978D9FBFB0ADC9EE9B2F1C326766CEC0A1DBE7F028BE95F3DA9A0EE01281421961A536D70EC470812B506C1975D6863F3450183EA80E6418307A75
311
368E3324AC09CA84841A2BD50C72EF55008578A44B07BCB8A981973C86C4F0F772E4E2CEAFAAC4656A271EA33EB814A09886E413B0FD6145F6C7660D0F4DBD83F5923470DD1F31EC09D99DDAD311F77D4FAB49C8688C5ACE722D531C7DD1CABD6B92C58C063DBCE20BA7785012308230810843FCF985EB4D83364D0D51BB41
311
885699FE4F1447F9A6286A1396648E3BC93C60985653835169E3F9F10AA39EA375A1C8F3165E890FC05089085AAEDA86561333BD3F59B6F56CE98375E97F17F77322E3C4CABE6DCD68955794CAEFFE52CDEB643F504B03041400060808005B763140EBD54E584D01000033030000300000006662782F42443832424535392D
311
443534412D343332352D394345312D4332324146364645314343432F636E782E786D6CD593CD6E022114855F85B09F1FEC681BC360D2459FA08B6E11AE4A6560C24F53DFBE1745EBC64597DD90C9B987736EBE307CF33D59F205211AEF46CADA9E1270CA6BE3F623CD69D7BC50B2113C789FEE6C943839C1488B4C05DF079F
311
E72A69D8C96C13AAD6B8631503449F83828872B949AC57D26200B826A308D316B4064D6E46FCDA41C05550DC9E483A00797BFD207EFB092A45DE9514C1BBD22178396BD39D891265658C238DEA00936C654E5E433CB65A26D9B2F6DAF560A7DF24522E5C2B7330A4948FB49C54D48D5AE4C83B1C0A1E53407AD5944E335021
311
E7D91A251342EECEC68B47F06C5C5A0DD56B107C40375B3D0D03869D678227334175A8003281A662D1B345D3B3863DBFB361BDECD7CBA1E957EBBEE75DB10BBEF5DED64B1803C1CF447997C0252A18EFCAF811BEEA23DA0464EDC3E90F2011406DBDD0B965FC673EDDF97D23AE807F81F801504B03041400060808005B7631
311
4081D5B5F79B0500007A100000340000006662782F42443832424535392D443534412D343332352D394345312D4332324146364645314343432F6F626A656374732E786D6CAD575D6FA33814FD2B887DCE0749DA695694519B34A368D499D14433DA874A910143BD3518D9A693EEAFDF633004D2A4CDAEE62504737D7DEFB9
311
E77ED8FFB8CBB8F34CA56222BF76BDE1D875681E8998E5E9B55BEA6470E53A1F035F0AA13B62AE93938C5EBB66D90DFC548AB2B04B314D48C9F5C1EAEAF62F474534A7AE1371A2D4B5ABA2479A912129B588A97A1AC64493619AEC86DEB016ECAB4D25291E0F941644D25CC352ACE7D0E2D44679FDD7B13B0AFC91F91EF8E6
311
D74A4D4F4B8D2A7FFAE7B35C699247AF0E3B5033F566CBBBC9C57C70319B4D07B3CB8937B85DDD2E07DE87E97871B958CC6FEEE6385869094DD612491337F8046C248BFC51FD29F04B96EBE9C48AD8008D247D6626526E30713C7F54CBB4DE59278F991F893CA7518515D0A8FCB3AA635AD03C46CC1955B0AC83D0B8FFEA19
311
1C3B9FA7E6DD1ED95D3E0F81EE8E8EA2C6F6E6D9B554847FC305750E83A4A286813596D6D19AABE33DC2A110DC7E63CAC988A69211EE70164A225FDC00A24624F07B6A0C93A5C906E3811B200AF5E73E5D9046EFF3FC989549C9B9A1B11B5459B045AE50AD2ACBD83F54EEADEF22039B102BC3862BEB907E29A81BCC6B8A5C
311
1DB0A906D24938491172B869764E27078E2E4C9EAE976EF07915EE3626778F1F5E485150A90D7D40AD2670CDD3A0646DF2CE8A9CD9E01E98B207E53B90FF8254DF9B82B849B69BED66F6142D49AE122133C4C6193B83317EC68E57FD9AFF9D7FFEA8DDDC8FDE293C116C03D56FC0B3EF4337961D3803FF198417726A5DDB44
311
84A36CDCB31C001992385C6009753809776EB046954355C62EC2030F2EC3DC67FCF547560D0A457552E79903CB83B2784681066C152361464D7E6BE03E4EAFCA5975B0153B05EFC56FA1EBCD72F37953CA8444F4DEE6F492262C671A2D6ECF9BAE413DCC7B1E3DD1975F42C670F435DE9B2EDE993D4A016D83B9013E6D6ABA
311
79D99FDC3B20C2BE549872E3BF73029C308DB5A3FF9EA988724E722ACAE6DC37FB07DA460DB14976C3E4B6C1EC1B0B48537F39C84134E948B2C280D876ABB6680E4F78F763FD058C843C1721E17BA1705F7A23C185DC862FDBBA2A1D45FA679FDA168291D102B65739D2A4BFC57C1BB32429156AE011587FAE17DDD099AA80
311
0AD168AD936506F7915B445ACE367AD1AC25412315F996A16D22ED8E1ED0D50F442D012A85A72C5694275BC679996D13C6D18CB619294EC0F1FFED0FCBACD8924C94B93EA1BB673A9A43DFF61E79D52FA2A34737D854CFC12D4A6F4CE37D987BC2A6951CC1AA1FDADBD57C32F9703758CE3FDC0E66E38BBBC1D5E46A3EB859
311
DCCD179717ABE96A7ED9C4A9561EF84DA7E92634A284CEE69792D9F0FD58237D6C0D70837BA2D5C3A73A3B9BE78FF510A3B03FC21EB4CB76E34DFC8CB18FC6EF2BD84B1E55B4CE0A4E339A6B6252E8DEFCE1DF09C68C9E31F5FA3A23293D43CBD74F9B0367B072C6BE6F26DDE9AF83BD76756112F2A812FD5866614E183FD8
311
98D6480E8B3CB5F83531699F759F695ECD9B0D0C065325388B51066327A522A31AC5F08C1E2433AA40BDEE481FDBABC719BB9FEB01519390D3C692478219992BA405A85546BABFEEFC8199CE8C55D72EBAEDF0093FB652B80E3873ED6246D72CA26A18A23F9B49A8520E2E750779CCFD244F3946ED7A53FBDEEE32D8F43A72
311
2B72CEF864FDAA2BB8750065A4C0D8807908D1A98C09FCCA36FB3DFA4F8E37E63844E36F58EAD697FD42EB4C750C52B476CA5E1630C33CD9A37748D4B7DDF286954C0F91B32E596F92A0D63AD044A6D545C1D8674DBA597E1B614071D65F9D8297296279BEA681A4207369121C2C022BACCE82685075F1E7C337297091CD9C
311
1503051E1622CB446E5F6EEC45D8D93CE25A1B3FA02C50731F510F93B13779A8EE01F66AB20D89A24312AB272C20A692B510F7020F46D6974574A0FA432B37324138E0E67AE9D8963683524B946E5535B060E2C8A983EC317749932B5D81E2CDABC0A812850912437CF02F504B03041400060800005B763140000000000000
311
000000000000350000006662782F42443832424535392D443534412D343332352D394345312D4332324146364645314343432F76657274696365732E62696E504B03041400060808005B763140F270F1330600000004000000360000006662782F42443832424535392D443534412D343332352D394345312D433232414636
311
4645314343432F747269616E676C65732E62696E636660600000504B03041400060800005B763140000000000000000000000000370000006662782F42443832424535392D443534412D343332352D394345312D4332324146364645314343432F617474726962757465732E62696E504B03041400060808005B763140D598
311
7DFC8F00000041010000360000006662782F42443832424535392D443534412D343332352D394345312D4332324146364645314343432F6469726563746F72792E786D6C858F410EC2201045AF4266AF15DDB800BA74E7C21B903225242D6328188F2FA5C4183471359997F9FF81E89FF3C41E1816475E02DF1F80A11FC838
311
6F25A438EECEC07A250251FC3803E6F58C12560C4AD840E95E91C151A72936F496F35732D860FE635F62C8F2DA16B505C545B74125BAA2FA9E05D7CC053D063734D5C7665FD55B6B8D15D5E9BFEAFD8490FFA45E504B03041400060808005B76314076CB17CAFD000000A00100003B0000006662782F42443832424535392D
311
443534412D343332352D394345312D4332324146364645314343432F7265736F75726365732F636F72652E786D6C8D50596E833010BD0AF2BFC106B221E3A85072825EC0B227C44AB09197AAC7AF9D50A9FDEBCFCCE82D9AA7C7CE5FCBA3F804E7B5353DA225410518699536738F62B8E2232ACE9C396BC32F192A8C58A047
311
19469CCDCEC67583A435014C48A8B10A3650780F0115F2918E1E79798345942286A4F0F77215F22E66286999E8A4E3CC07970214AF277922EEC0DBE8247856BD58CE62D46AD368957EEAAB0687386D2ECD7498283E0D538DDB533BE2B7667FC1C7F7B16EC8448669185995CD9C05BDFC64940E440085784D688D09C5F4F041
311
DB6E47BA5D8BC9BE23845559FEC71457F54F53D42634F516F765F3296B0AF22438AB725F693DCB4C3B77CBBF01504B010214000A00000800005B7631403DEE336E79000000790000001B00000000000000000000000000000000006175746F6465736B2D64657369676E2D7061636B6167652E786D6C504B01021400140006
311
0808005B763140D486FD9CA0000000F40000001300000000000000000000000000B20000005B436F6E74656E745F54797065735D2E786D6C504B010214001400060808005B7631401E214AFBE90000007C010000080000000000000000000000000083010000636F72652E786D6C504B010214001400060808005B76314055
311
019EA25F0000007C000000070000000000000000000000000092020000636E782E786D6C504B010214001400060808005B763140BBBFF6C066010000020300000C00000000000000000000000000160300006662782F636F72652E786D6C504B010214001400060808005B7631404B3F4D507E0000009D0000000B00000000
311
000000000000000000A60400006662782F636E782E786D6C504B010214001400060808005B7631405E3DCD9E2B0100001302000031000000000000000000000000004D0500006662782F42443832424535392D443534412D343332352D394345312D4332324146364645314343432F636F72652E786D6C504B010214001400
311
060808005B763140EBD54E584D010000330300003000000000000000000000000000C70600006662782F42443832424535392D443534412D343332352D394345312D4332324146364645314343432F636E782E786D6C504B010214001400060808005B76314081D5B5F79B0500007A10000034000000000000000000000000
311
00620800006662782F42443832424535392D443534412D343332352D394345312D4332324146364645314343432F6F626A656374732E786D6C504B010214001400060800005B76314000000000000000000000000035000000000000000000000000004F0E00006662782F42443832424535392D443534412D343332352D39
311
4345312D4332324146364645314343432F76657274696365732E62696E504B010214001400060808005B763140F270F13306000000040000003600000000000000000000000000A20E00006662782F42443832424535392D443534412D343332352D394345312D4332324146364645314343432F747269616E676C65732E62
311
696E504B010214001400060800005B7631400000000000000000000000003700000000000000000000000000FC0E00006662782F42443832424535392D443534412D343332352D394345312D4332324146364645314343432F617474726962757465732E62696E504B010214001400060808005B763140D5987DFC8F000000
311
410100003600000000000000000000000000510F00006662782F42443832424535392D443534412D343332352D394345312D4332324146364645314343432F6469726563746F72792E786D6C504B010214001400060808005B76314076CB17CAFD000000A00100003B00000000000000000000000000341000006662782F42
311
443832424535392D443534412D343332352D394345312D4332324146364645314343432F7265736F75726365732F636F72652E786D6C504B0506000000000E000E00800400008A1100000000
310
504B03040A00000800005B7631403DEE336E79000000790000001B0000006175746F6465736B2D64657369676E2D7061636B6167652E786D6C3C3F786D6C2076657273696F6E3D22312E302220656E636F64696E673D227574662D3822203F3E3C666F726D6174733E3C666F726D61743E687474703A2F2F736368656D612E
310
6175746F6465736B2E636F6D2F64657369676E2D7061636B6167652F323030393C2F666F726D61743E3C2F666F726D6174733E504B03041400060808005B763140D486FD9CA0000000F4000000130000005B436F6E74656E745F54797065735D2E786D6C7D8EC10E82300C865F65E91D8A1E8C310C0EEA1BF002731658846E
310
D98AC1B77784ABF1D8FE5FBFBF75BBCE937A534CCEB38643598122B6FEE978D0B0485F9C41B54DDD7D022595594E1A469170414C76A4D9A4D207E29CF43ECE46F218070CC6BECC4078ACAA135ACF422C856C0E68EA1BF5669944DDD7BCDE7B1F8E415D77AECB980613C2E4AC91FC167A2B244592486606FC29C8FD7F045B9A
310
EF7053A7E60B504B03041400060808005B76314040BDD561EA0000007C01000008000000636F72652E786D6C8D904D6EC3201085AF82668F0DFE69A88589D29A9EA01740983828315806AA1EBF3871A476D7D58CDEBC6F66F4F8F17BBEA12FB306EB5D0FB420808CD37EB46EEA21C53366808E82AFDEC75F36404ECDA6874D
310
06C1A7D5A76597B477D1B89855E747B38B2A041301E95B6E7A08FA626655A814B3235C8B45E9AB9A4C419F5D8653B2237A1CB163DE67CFD6AC2098246C38BD0DB83E7D0CB89172C0AF953CE08A1159CB96B1E1BDE6E5060B1EEDFCBCAF57A3A2194154845698504C0F9FB4E95AD2B50D262F1D21BCDCEC7FA0B48CFF849275
310
B1AEF6771F580041F323F781E0E596452EF7A072DD72133F504B03041400060808005B76314055019EA25F0000007C00000007000000636E782E786D6C4DCB3B0E80201045D1AD90E915ED2CF8AC45050C11660C8261F98AB1B07AC9C97D42D718D865D3E909258CFD00CCE24AC6E326A164D74DC0B4128928FF326038472B
310
A13128B1252AC747C6BAB984FC68F0B87FE8960A5C09FE86CFB69FBA01504B03041400060808005B763140A5449AC367010000020300000C0000006662782F636F72652E786D6C8D525B6E833010BC8AE57F63F3484323E3282DF404BD80030E45011B191BE5F85D1E519A2A8A222463CDECECCE0EF0FDA56BD1A8ECD0189D
310
E1306018295D9AAAD17586BD3B9114A3BDE0D618F7A70C232D3B95E109C682D7D6F87E854AA39DD20E506D2AB582721894C3A86CE192E1A1FC519D0CA47750319C835E966759AB200C80863AC10767C1005A864C2716A7E385D30517DCFBA65AD9A68269CDA951168BB460697EF8C8497CF8CA49521439798F8A2D895256C4
310
C5264DF3CF98D3492CB86BBAABBBD22AE9548545C4C288B09084DBEF30D96DD86E9310F6B6638CD3A9FC4EE4FBEA45916FB48BA3D5EE221BB008C1C84CFCDB162272689023F8A182D3294478CD09DF070D8140C84E1EDBEB1E678046553A6313602AE36FD4285BAF602A43F3C3E9C242E7B9016CF6B04FF4A4CFF31EF001A5
310
AEC19A74703D7A374DE7CBD4358A5E5932BA0BD2C676B2BD995B2CDECEDBA087F2D2B4C6BEA2A6EBAA740D934E7FAFF805504B03041400060808005B7631409B9560867E0000009D0000000B0000006662782F636E782E786D6C4DCCD10A83201886E15B91FFDC65D696811A8BEA3E625948E63F9C8E5DFE6A74B0A30F1E3E
310
5ED97C3647DE26BC2C7A05F9850131FE8193F58B8214672A80345A06C4F87703E2C7CD283818B45C02A6E7499399C7E4E2AECEFAF544C1F850577D47DB92335A3251D0FB95DD685B0BCEAB9E1743DE41A665F62BED7B84F517504B03041400060808005B763140D20359512A01000014020000310000006662782F38303246
310
393745442D423432302D343038332D413530362D4239383232374532334631442F636F72652E786D6C8D51CB6EC32010FC15C4293D60037E26C2448D927C417F806292A2C460F1A8F2F985DA91DA5B2E2C9A9D991DEDB2FD63BA836FE5BCB66680A4C0102823EDA8CD7580315C500FC19E33676DF84383C088490D30C390B3
310
ABB3715E21694D502624D4D851ADA0F05E0508E43D7D06E8E5979A442162480C7F2B66216FE2AA0A52A476E271E6834B01C03224BF90F7989EB7DDE9880E35C5A8C67D85DE1BDCA2C3B6A7B43BD1EA4C8EAC5C849CC5A8C755AEC714475FB472AF9A643167414FCFF8D22911D40839C584224C10E93E48BD6BF0AEA9116E77
310
18B332D3FF89E23CBE288ADA848AAE711799879CB072697036DAF8797F86518FD9BA00F2BC8D57F20D725C605A354DDD35AC5CA86901C9B3AD574F1FAC4B0BDEDC3E13BB5A8DDB9AB332DF2895DF03A69AEFC97F00504B03041400060808005B7631408D72814F5501000033030000300000006662782F3830324639374544
310
2D423432302D343038332D413530362D4239383232374532334631442F636E782E786D6CBD93CD6E022114855F85B09F3F1DA7C6309874D127E8A25B84ABA53230E1A7A96FDF8BA275E3A249D30D999C7B38E7E60BC3B65F93219FE0837676A45DDD5202563AA5ED61A429EEAB35255BCEBC73F1CE468915138C34CB94B383
310
77692E9282BD4826A26AB43D16D14370C94B0828E79BC438290C0680AD128A30ED402950E466C4AF3D785C05C5DD89C477202FCF6FC4ED3E40C6C09A9CC259933B38CB6769BA3351228D0861A441BEC3246A91A253108EB51251D45D7DED7AB0D34F12C917AE95C96B92CB479A4FCACB463572640D0E390BD123BD628AA719
310
2817F36CB41411213767E3C5C359D2360E7DF16A04EFD1BD5C0CEB35869D679C453D4171480F2282A27CD1768BAAEDAAEEE9B5EB37AB76B3EAAB76D8B42D6BB29DB39D73A65CC218F06E26D2D9083652DEB1268F1FE12B3EA2B447D6CE9F7E01120194D60B9D5BC65FF2E98665DFFF239FE6FCBE1197C7BF807F03504B0304
310
1400060808005B763140C54EF3B559070000931B0000340000006662782F38303246393745442D423432302D343038332D413530362D4239383232374532334631442F6F626A656374732E786D6CED595B6FA33814FE2B887D0E0949DA695694519BB6A368D599D16467B40F9190030EF5D618649B5EF6D7EFF1050234B464
310
A7FB360F0960ECE373BE73F521F8F89451E70173417276EEFADEC475308BF384B0F4DC2DE56E74E63A1FC380E7B96C4C731D86327CEEAA61370C529E97851D4AF00E955476466F2EFF72448C19769D982221CE5D11DFE10C79A8947982C5BD972089BC74F7E4F99E99D8269B7254DC7588168863268153186740C5314CF9ED
310
C7893B0E83B17A1F06EADFCE9A0D9A35EF9F35D652B7B9244C48C4E2172C75C8CC06B134F3E757D7D393C5E8643E9F8DE6A7537F7479737935F23FCC26CBD3E5727171BD00F6B6794EAD4C092E304B407FCF6EE80763F5A616DD227088EB38670CC71A48804A8BD52548B080AD1AF04DDA8FBE92A8F15A4BD8789EABF79685
310
C6F0AC4DA56FD630205A744110BB5D2571756DCA976FFF06C1C510A3E4024BE056480EDAB5F070F00A379C0463331A06DBBD2E887032243127883A946C39E2A01498AAA684815960C928E7E040CA511268CD99D76DDB02CF7CDB750E71B92B29559EE186DAB122703F2C85E68CFC83F99EFB2632C013485B1226CF2C97F2B9
310
C06EB808C67A300CD46536B52F0D90CE8EA2546844CCDB8EA04BE5FAAB2B37FCE366FBB456E1E0F0E605CF0BCCA5323AA547CD1718B2BD2A94ECB6FE20CDA905208C01D5AEDC83F20D90FF0CD163CF0AE88D93A7F9D3DCCE951C31B1CB7906BA7126CE68027F13C7D7FFEABE71178CEBC56DEDF5E1096EAAA03AFB793CDB32
310
68AC2CFF0D38C3E0010C3EE733FB6A1D230AF67C4B1800A48CC4A1390C4168DF6D9FDC70058113023DAC4234F4416460F7016E83B125B3D74AE55ED6EB18206AF7980D5112C0A62D12D8E8D1D327C81E9CC47B353545EC83F7E45DCCF5E26AFDC7BAE43B14E35BEBD3577847189190350F33D4C2BC25D13D7E7ECC790282BE
310
C47BDDC43BB35B09405B61AE804F2B10D4C37EE7D60631AC4B73156E823776002154AE6ED0BF2522C6942286F3B2DAB78E6ECA506B8FB735831B4E0DC4B369C784397E20AAAA00A7D9CF68310A793FE6A45020BAE12723591D34BD1EE9BEAF3E8345D6F37B66AD18845E86E89F3A681DC0A165D915D216885AE0ED3E9CC739
310
CD79B47D8E4CA473A1960036DADEF2A3451462BD5192A2021EA4FDAE0A29A991364AC86E570A88AB0758FCB15A36CD61E2CDFC13A7F9DF71C639445BF05DC4ADDF75F6884886521CED50D2B75D73B79AB6D0247B4873BCA320177920F23942329A24383D069AA3882FDE957A4A732108C302F2D541F09B684C3C0824469B15
310
CB4AAB1DA08988322C113D060145A6075C9D76748D1B43E9F0368FB5F5BEA6B126D1FFC92238825A32671181521472C89B8CFBDE09C49036BA06E50EBE606D156D2D062DA184889FA3474CD23B790CEA867C0FEE311C494A19E5058AC1AC07907DE12B4AA91DDEB728BE57F9238A4BFA5E062230DD4584D2328BE047189C3C
310
86B8761D985E45A141DCC43E893328CA902CF9904D4E4F262FF631354337043636DA110A613BCA50D1837A2B20EA7AC4A9C1B7D47B94BA2DB32242595EB24186E2CDBADE64C977D5AAC80EE457958A503656842DC130204CD659B58AD960EA3AB0821BE940F51C099415D49CC2DE483C7EED4D9A72EF06DCFAE9FB6E9041E1
310
D7A3BD66449D5730581E5B8581784432BE73C3B5BE8E2EA1FE4E70B24FF555ADD9AC00013115C94B4EAC8ABEAFA0BCB1359A1BDE2229369F4CD6ADAEDF571E743F8231AC81DAA55EB85240679849A42A935B7543BF2108C12D1A667CA572EA31542E9244578D88DE903E75B6CA88D6A619F18A3BCCF20C7E6C43584CCB046F
310
5022EEA35B49A33551AC5B29BD8C5418BF2AE0974FEB0E3C303240A4AFAAC0C38F9DB57674A9CAA58344E45D996D192210045BA2A546375EC152AB914ACBF5559D29A0EE0203B32A9EFF3A5934DB11BF4E16A9358C9F3B59D07C8BE83EDA34B279ACCCFAA853409D9E1495F73805E8AE434DB54E2226975BF1AD2F451013AB
310
203FB818AB628621D8C7F17F4EDA7D49D06CD7E1FFB8A4EDBF28388E4A2AADC9AA4975A0705D3553987F79B3984E3F5C8FAE161F2E47F3C9C9F5E86C7AB6185D2CAF17CBD3939BD9CDE2B44653FB6918D4B14CA72E783631AD1A564F160368CA8A9C92040EF389936208F9128EF403BAE73CC3027267B3D79DD89EFC80D50F
310
A6CD29D196E28A933B04FD612A20AB0346652CDBE3CE6FD0999470CE3E77A167E4DDC39FB54AD781C473EE42A74092180B6F0B5D26D5CFD3C421E3EAD46F89013E88A52A239A45F573BD4A61D38AFEF5942159C0CAD56A6140DD5640F3ABD5A0D0BC599EE2A304AFD8719084DB6D29A15833B2EC076A61F4367BF51BD92861
310
F776EB2770DDD7C5F23D3DA785C8A02F06AF1A81A13A9288A7BADDAD18B32C5D5C7D1D439BCD597D710A5AA6A0CBE194461C833197AA9E022B02ABB0340B24C15497BF6FBEF21CBEF0648E2E8A36CB3CCB72661F2EE03896C01722677D07DF7B920D540D5875D5C5663AF1A71BDDCDB60DF6688B04F6543904035515A144E8
310
181B58E48BCE94ED5B8E95123AD357578E0D9FD0053016F4A2B96BBE6E39E03DEA3B8AF215EDE1959CAF36B4C77A2A5803875674F82F504B03041400060800005B763140000000000000000000000000350000006662782F38303246393745442D423432302D343038332D413530362D4239383232374532334631442F7665
310
7274696365732E62696E504B03041400060808005B763140F270F1330600000004000000360000006662782F38303246393745442D423432302D343038332D413530362D4239383232374532334631442F747269616E676C65732E62696E636660600000504B03041400060800005B76314000000000000000000000000037
310
0000006662782F38303246393745442D423432302D343038332D413530362D4239383232374532334631442F617474726962757465732E62696E504B03041400060808005B763140D5987DFC8F00000041010000360000006662782F38303246393745442D423432302D343038332D413530362D4239383232374532334631
310
442F6469726563746F72792E786D6C858F410EC2201045AF4266AF15DDB800BA74E7C21B903225242D6328188F2FA5C4183471359997F9FF81E89FF3C41E1816475E02DF1F80A11FC8386F25A438EECEC07A250251FC3803E6F58C12560C4AD840E95E91C151A72936F496F35732D860FE635F62C8F2DA16B505C545B74125
310
BAA2FA9E05D7CC053D063734D5C7665FD55B6B8D15D5E9BFEAFD8490FFA45E504B03041400060808005B7631409FD31FD9FD000000A00100003B0000006662782F38303246393745442D423432302D343038332D413530362D4239383232374532334631442F7265736F75726365732F636F72652E786D6C8D50596E833010
310
BD0A9A7F83CDD250641CA5819EA017B0CC84580936F252F5F8350995DABFFECC8CDEA2797AFCF8B5DCB34F745E5BD303CB296468949DB4997B88E1425AC88E823B6BC32F1964462ED8C30683E0B3B371DD21654D4013126AEC843B28BDC70099BAA7A307AFAEB8C85CC69014FE96AF52DDE48C39CB139D7482FBE05280ECF9
310
649B201C7A1B9D42CF8B272B788C7ADA357A4A3FF545A303D18EB41D4E6F67529DDE07528FE3405ECBF140CA968ED5D8B4ED70AE78B199050F7AF9C9A81CCA80138892B2925046D8E183D55D43BBA626F4A5A394179BFC8F29AED33F4D519B50957BDCA7CD836029C88310BCD8FA4AEB5166DA5BB7E21B504B010214000A00
310
000800005B7631403DEE336E79000000790000001B00000000000000000000000000000000006175746F6465736B2D64657369676E2D7061636B6167652E786D6C504B010214001400060808005B763140D486FD9CA0000000F40000001300000000000000000000000000B20000005B436F6E74656E745F54797065735D2E
310
786D6C504B010214001400060808005B76314040BDD561EA0000007C010000080000000000000000000000000083010000636F72652E786D6C504B010214001400060808005B76314055019EA25F0000007C000000070000000000000000000000000093020000636E782E786D6C504B010214001400060808005B763140A5
310
449AC367010000020300000C00000000000000000000000000170300006662782F636F72652E786D6C504B010214001400060808005B7631409B9560867E0000009D0000000B00000000000000000000000000A80400006662782F636E782E786D6C504B010214001400060808005B763140D20359512A0100001402000031
310
000000000000000000000000004F0500006662782F38303246393745442D423432302D343038332D413530362D4239383232374532334631442F636F72652E786D6C504B010214001400060808005B7631408D72814F55010000330300003000000000000000000000000000C80600006662782F38303246393745442D4234
310
32302D343038332D413530362D4239383232374532334631442F636E782E786D6C504B010214001400060808005B763140C54EF3B559070000931B000034000000000000000000000000006B0800006662782F38303246393745442D423432302D343038332D413530362D4239383232374532334631442F6F626A65637473
310
2E786D6C504B010214001400060800005B7631400000000000000000000000003500000000000000000000000000161000006662782F38303246393745442D423432302D343038332D413530362D4239383232374532334631442F76657274696365732E62696E504B010214001400060808005B763140F270F13306000000
310
040000003600000000000000000000000000691000006662782F38303246393745442D423432302D343038332D413530362D4239383232374532334631442F747269616E676C65732E62696E504B010214001400060800005B7631400000000000000000000000003700000000000000000000000000C31000006662782F38
310
303246393745442D423432302D343038332D413530362D4239383232374532334631442F617474726962757465732E62696E504B010214001400060808005B763140D5987DFC8F000000410100003600000000000000000000000000181100006662782F38303246393745442D423432302D343038332D413530362D423938
310
3232374532334631442F6469726563746F72792E786D6C504B010214001400060808005B7631409FD31FD9FD000000A00100003B00000000000000000000000000FB1100006662782F38303246393745442D423432302D343038332D413530362D4239383232374532334631442F7265736F75726365732F636F72652E786D
310
6C504B0506000000000E000E0080040000511300000000
  0
XRECORD
  5
27
102
{ACAD_REACTORS
330
22
102
}
330
22
100
AcDbXrecord
280
     1
270
     1
271
     1
  0
XRECORD
  5
26
102
{ACAD_REACTORS
330
22
102
}
330
22
100
AcDbXrecord
280
     1
270
     1
271
     1
  0
XRECORD
  5
28
102
{ACAD_REACTORS
330
22
102
}
330
22
100
AcDbXrecord
280
     1
270
     1
271
     1
  0
XRECORD
  5
25
102
{ACAD_REACTORS
330
22
102
}
330
22
100
AcDbXrecord
280
     1
270
     1
271
     1
  0
XRECORD
  5
D8F
102
{ACAD_REACTORS
330
D8E
102
}
330
D8E
100
AcDbXrecord
280
     1
102
ACAD_ROUNDTRIP_2012_MLEADER_STYLE
298
     1
  0
CELLSTYLEMAP
  5
D8D
102
{ACAD_REACTORS
330
D8C
102
}
330
D8C
100
AcDbCellStyleMap
 90
        3
300
CELLSTYLE
  1
TABLEFORMAT_BEGIN
 90
        5
170
     1
 91
        0
 92
    32768
 62
   257
 93
        1
300
CONTENTFORMAT
  1
CONTENTFORMAT_BEGIN
 90
        0
 91
        0
 92
      512
 93
        0
300

 40
0.0
140
1.0
 94
        5
 62
     0
340
55
144
0.25
309
CONTENTFORMAT_END
171
     0
 94
        0
309
TABLEFORMAT_END
  1
CELLSTYLE_BEGIN
 90
        1
 91
        1
300
_TITLE
309
CELLSTYLE_END
300
CELLSTYLE
  1
TABLEFORMAT_BEGIN
 90
        5
170
     1
 91
        0
 92
        0
 62
   257
 93
        1
300
CONTENTFORMAT
  1
CONTENTFORMAT_BEGIN
 90
        0
 91
        0
 92
      512
 93
        0
300

 40
0.0
140
1.0
 94
        5
 62
     0
340
55
144
0.18
309
CONTENTFORMAT_END
171
     0
 94
        0
309
TABLEFORMAT_END
  1
CELLSTYLE_BEGIN
 90
        2
 91
        1
300
_HEADER
309
CELLSTYLE_END
300
CELLSTYLE
  1
TABLEFORMAT_BEGIN
 90
        5
170
     1
 91
        0
 92
        0
 62
   257
 93
        1
300
CONTENTFORMAT
  1
CONTENTFORMAT_BEGIN
 90
        0
 91
        0
 92
      512
 93
        0
300

 40
0.0
140
1.0
 94
        2
 62
     0
340
55
144
0.18
309
CONTENTFORMAT_END
171
     0
 94
        0
309
TABLEFORMAT_END
  1
CELLSTYLE_BEGIN
 90
        3
 91
        2
300
_DATA
309
CELLSTYLE_END
  0
XRECORD
  5
DC7
102
{ACAD_REACTORS
330
D8C
102
}
330
D8C
100
AcDbXrecord
280
     1
102
ACAD_ROUNDTRIP_PRE2007_TABLESTYLE
 90
      512
 91
        0
  1

 92
      512
 93
        0
  2

 94
      512
 95
        0
  3

  0
XRECORD
  5
DA2
102
{ACAD_REACTORS
330
DA1
102
}
330
DA1
100
AcDbXrecord
280
     1
102
RTVSPropertyOp0
 70
     1
102
RTVSPropertyOp1
 70
     1
102
RTVSPropertyOp2
 70
     1
102
RTVSPropertyOp3
 70
     1
102
RTVSPropertyOp4
 70
     1
102
RTVSPropertyOp5
 70
     1
102
RTVSPropertyOp6
 70
     1
102
RTVSPropertyOp7
 70
     1
102
RTVSPropertyOp8
 70
     1
102
RTVSPropertyOp9
 70
     1
102
RTVSPropertyOp10
 70
     1
102
RTVSPropertyOp11
 70
     1
102
RTVSPropertyOp12
 70
     1
102
RTVSPropertyOp13
 70
     1
102
RTVSPropertyOp14
 70
     1
102
RTVSPropertyOp15
 70
     1
102
RTVSPropertyOp16
 70
     1
102
RTVSPropertyOp17
 70
     1
102
RTVSPropertyOp18
 70
     1
102
RTVSPropertyOp19
 70
     1
102
RTVSPropertyOp20
 70
     1
102
RTVSPropertyOp21
 70
     1
102
RTVSPropertyOp22
 70
     1
102
RTVSPropertyOp23
 70
     1
102
RTVSPropertyOp24
 70
     1
102
RTVSPropertyOp25
 70
     1
102
RTVSPropertyOp26
 70
     1
102
RTVSPropertyOp27
 70
     1
102
RTVSPropertyOp28
 70
     1
102
RTVSPropertyOp29
 70
     1
102
RTVSPropertyOp30
 70
     1
102
RTVSPropertyOp31
 70
     1
102
RTVSPropertyOp32
 70
     1
  0
XRECORD
  5
DA0
102
{ACAD_REACTORS
330
D9F
102
}
330
D9F
100
AcDbXrecord
280
     1
102
RTVSPropertyOp0
 70
     1
102
RTVSPropertyOp1
 70
     1
102
RTVSPropertyOp2
 70
     1
102
RTVSPropertyOp3
 70
     1
102
RTVSPropertyOp4
 70
     1
102
RTVSPropertyOp5
 70
     1
102
RTVSPropertyOp6
 70
     1
102
RTVSPropertyOp7
 70
     1
102
RTVSPropertyOp8
 70
     1
102
RTVSPropertyOp9
 70
     1
102
RTVSPropertyOp10
 70
     1
102
RTVSPropertyOp11
 70
     1
102
RTVSPropertyOp12
 70
     1
102
RTVSPropertyOp13
 70
     1
102
RTVSPropertyOp14
 70
     1
102
RTVSPropertyOp15
 70
     1
102
RTVSPropertyOp16
 70
     1
102
RTVSPropertyOp17
 70
     1
102
RTVSPropertyOp18
 70
     1
102
RTVSPropertyOp19
 70
     1
102
RTVSPropertyOp20
 70
     1
102
RTVSPropertyOp21
 70
     1
102
RTVSPropertyOp22
 70
     1
102
RTVSPropertyOp23
 70
     1
102
RTVSPropertyOp24
 70
     1
102
RTVSPropertyOp25
 70
     1
102
RTVSPropertyOp26
 70
     1
102
RTVSPropertyOp27
 70
     1
102
RTVSPropertyOp28
 70
     1
102
RTVSPropertyOp29
 70
     1
102
RTVSPropertyOp30
 70
     1
102
RTVSPropertyOp31
 70
     1
102
RTVSPropertyOp32
 70
     1
  0
XRECORD
  5
DAE
102
{ACAD_REACTORS
330
DAD
102
}
330
DAD
100
AcDbXrecord
280
     1
102
RTVSPropertyOp0
 70
     1
102
RTVSPropertyOp1
 70
     1
102
RTVSPropertyOp2
 70
     1
102
RTVSPropertyOp3
 70
     1
102
RTVSPropertyOp4
 70
     1
102
RTVSPropertyOp5
 70
     1
102
RTVSPropertyOp6
 70
     1
102
RTVSPropertyOp7
 70
     1
102
RTVSPropertyOp8
 70
     1
102
RTVSPropertyOp9
 70
     1
102
RTVSPropertyOp10
 70
     1
102
RTVSPropertyOp11
 70
     1
102
RTVSPropertyOp12
 70
     1
102
RTVSPropertyOp13
 70
     1
102
RTVSPropertyOp14
 70
     1
102
RTVSPropertyOp15
 70
     1
102
RTVSPropertyOp16
 70
     1
102
RTVSPropertyOp17
 70
     1
102
RTVSPropertyOp18
 70
     1
102
RTVSPropertyOp19
 70
     1
102
RTVSPropertyOp20
 70
     1
102
RTVSPropertyOp21
 70
     1
102
RTVSPropertyOp22
 70
     1
102
RTVSPropertyOp23
 70
     1
102
RTVSPropertyOp24
 70
     1
102
RTVSPropertyOp25
 70
     1
102
RTVSPropertyOp26
 70
     1
102
RTVSPropertyOp27
 70
     1
102
RTVSPropertyOp28
 70
     1
102
RTVSPropertyOp29
 70
     1
102
RTVSPropertyOp30
 70
     1
102
RTVSPropertyOp31
 70
     1
102
RTVSPropertyOp32
 70
     1
  0
XRECORD
  5
DB6
102
{ACAD_REACTORS
330
DB5
102
}
330
DB5
100
AcDbXrecord
280
     1
102
RTVSPropertyOp0
 70
     1
102
RTVSPropertyOp1
 70
     1
102
RTVSPropertyOp2
 70
     1
102
RTVSPropertyOp3
 70
     1
102
RTVSPropertyOp4
 70
     1
102
RTVSPropertyOp5
 70
     1
102
RTVSPropertyOp6
 70
     1
102
RTVSPropertyOp7
 70
     1
102
RTVSPropertyOp8
 70
     1
102
RTVSPropertyOp9
 70
     1
102
RTVSPropertyOp10
 70
     1
102
RTVSPropertyOp11
 70
     1
102
RTVSPropertyOp12
 70
     1
102
RTVSPropertyOp13
 70
     1
102
RTVSPropertyOp14
 70
     1
102
RTVSPropertyOp15
 70
     1
102
RTVSPropertyOp16
 70
     1
102
RTVSPropertyOp17
 70
     1
102
RTVSPropertyOp18
 70
     1
102
RTVSPropertyOp19
 70
     1
102
RTVSPropertyOp20
 70
     1
102
RTVSPropertyOp21
 70
     1
102
RTVSPropertyOp22
 70
     1
102
RTVSPropertyOp23
 70
     1
102
RTVSPropertyOp24
 70
     1
102
RTVSPropertyOp25
 70
     1
102
RTVSPropertyOp26
 70
     1
102
RTVSPropertyOp27
 70
     1
102
RTVSPropertyOp28
 70
     1
102
RTVSPropertyOp29
 70
     1
102
RTVSPropertyOp30
 70
     1
102
RTVSPropertyOp31
 70
     1
102
RTVSPropertyOp32
 70
     1
  0
XRECORD
  5
DA8
102
{ACAD_REACTORS
330
DA7
102
}
330
DA7
100
AcDbXrecord
280
     1
102
RTVSPropertyOp0
 70
     1
102
RTVSPropertyOp1
 70
     1
102
RTVSPropertyOp2
 70
     1
102
RTVSPropertyOp3
 70
     1
102
RTVSPropertyOp4
 70
     1
102
RTVSPropertyOp5
 70
     1
102
RTVSPropertyOp6
 70
     1
102
RTVSPropertyOp7
 70
     1
102
RTVSPropertyOp8
 70
     1
102
RTVSPropertyOp9
 70
     1
102
RTVSPropertyOp10
 70
     1
102
RTVSPropertyOp11
 70
     1
102
RTVSPropertyOp12
 70
     1
102
RTVSPropertyOp13
 70
     1
102
RTVSPropertyOp14
 70
     1
102
RTVSPropertyOp15
 70
     1
102
RTVSPropertyOp16
 70
     1
102
RTVSPropertyOp17
 70
     1
102
RTVSPropertyOp18
 70
     1
102
RTVSPropertyOp19
 70
     1
102
RTVSPropertyOp20
 70
     1
102
RTVSPropertyOp21
 70
     1
102
RTVSPropertyOp22
 70
     1
102
RTVSPropertyOp23
 70
     1
102
RTVSPropertyOp24
 70
     1
102
RTVSPropertyOp25
 70
     1
102
RTVSPropertyOp26
 70
     1
102
RTVSPropertyOp27
 70
     1
102
RTVSPropertyOp28
 70
     1
102
RTVSPropertyOp29
 70
     1
102
RTVSPropertyOp30
 70
     1
102
RTVSPropertyOp31
 70
     1
102
RTVSPropertyOp32
 70
     1
  0
XRECORD
  5
DAC
102
{ACAD_REACTORS
330
DAB
102
}
330
DAB
100
AcDbXrecord
280
     1
102
RTVSPropertyOp0
 70
     1
102
RTVSPropertyOp1
 70
     1
102
RTVSPropertyOp2
 70
     1
102
RTVSPropertyOp3
 70
     1
102
RTVSPropertyOp4
 70
     1
102
RTVSPropertyOp5
 70
     1
102
RTVSPropertyOp6
 70
     1
102
RTVSPropertyOp7
 70
     1
102
RTVSPropertyOp8
 70
     1
102
RTVSPropertyOp9
 70
     1
102
RTVSPropertyOp10
 70
     1
102
RTVSPropertyOp11
 70
     1
102
RTVSPropertyOp12
 70
     1
102
RTVSPropertyOp13
 70
     1
102
RTVSPropertyOp14
 70
     1
102
RTVSPropertyOp15
 70
     1
102
RTVSPropertyOp16
 70
     1
102
RTVSPropertyOp17
 70
     1
102
RTVSPropertyOp18
 70
     1
102
RTVSPropertyOp19
 70
     1
102
RTVSPropertyOp20
 70
     1
102
RTVSPropertyOp21
 70
     1
102
RTVSPropertyOp22
 70
     1
102
RTVSPropertyOp23
 70
     1
102
RTVSPropertyOp24
 70
     1
102
RTVSPropertyOp25
 70
     1
102
RTVSPropertyOp26
 70
     1
102
RTVSPropertyOp27
 70
     1
102
RTVSPropertyOp28
 70
     1
102
RTVSPropertyOp29
 70
     1
102
RTVSPropertyOp30
 70
     1
102
RTVSPropertyOp31
 70
     1
102
RTVSPropertyOp32
 70
     1
  0
XRECORD
  5
DC6
102
{ACAD_REACTORS
330
DC5
102
}
330
DC5
100
AcDbXrecord
280
     1
102
RTVSPropertyOp0
 70
     0
102
RTVSPropertyOp1
 70
     0
102
RTVSPropertyOp2
 70
     0
102
RTVSPropertyOp3
 70
     0
102
RTVSPropertyOp4
 70
     0
102
RTVSPropertyOp5
 70
     0
102
RTVSPropertyOp6
 70
     0
102
RTVSPropertyOp7
 70
     0
102
RTVSPropertyOp8
 70
     0
102
RTVSPropertyOp9
 70
     0
102
RTVSPropertyOp10
 70
     0
102
RTVSPropertyOp11
 70
     0
102
RTVSPropertyOp12
 70
     0
102
RTVSPropertyOp13
 70
     0
102
RTVSPropertyOp14
 70
     2
102
RTVSPropertyOp15
 70
     0
102
RTVSPropertyOp16
 70
     0
102
RTVSPropertyOp17
 70
     0
102
RTVSPropertyOp18
 70
     0
102
RTVSPropertyOp19
 70
     0
102
RTVSPropertyOp20
 70
     0
102
RTVSPropertyOp21
 70
     0
102
RTVSPropertyOp22
 70
     0
102
RTVSPropertyOp23
 70
     0
102
RTVSPropertyOp24
 70
     0
102
RTVSPropertyOp25
 70
     0
102
RTVSPropertyOp26
 70
     0
102
RTVSPropertyOp27
 70
     0
102
RTVSPropertyOp28
 70
     1
102
RTVSPropertyOp29
 70
     1
102
RTVSPropertyOp30
 70
     1
102
RTVSPropertyOp31
 70
     1
102
RTVSPropertyOp32
 70
     1
  0
XRECORD
  5
DB4
102
{ACAD_REACTORS
330
DB3
102
}
330
DB3
100
AcDbXrecord
280
     1
102
RTVSPropertyOp0
 70
     1
102
RTVSPropertyOp1
 70
     1
102
RTVSPropertyOp2
 70
     1
102
RTVSPropertyOp3
 70
     1
102
RTVSPropertyOp4
 70
     1
102
RTVSPropertyOp5
 70
     1
102
RTVSPropertyOp6
 70
     1
102
RTVSPropertyOp7
 70
     1
102
RTVSPropertyOp8
 70
     1
102
RTVSPropertyOp9
 70
     1
102
RTVSPropertyOp10
 70
     1
102
RTVSPropertyOp11
 70
     1
102
RTVSPropertyOp12
 70
     1
102
RTVSPropertyOp13
 70
     1
102
RTVSPropertyOp14
 70
     1
102
RTVSPropertyOp15
 70
     1
102
RTVSPropertyOp16
 70
     1
102
RTVSPropertyOp17
 70
     1
102
RTVSPropertyOp18
 70
     1
102
RTVSPropertyOp19
 70
     1
102
RTVSPropertyOp20
 70
     1
102
RTVSPropertyOp21
 70
     1
102
RTVSPropertyOp22
 70
     1
102
RTVSPropertyOp23
 70
     1
102
RTVSPropertyOp24
 70
     1
102
RTVSPropertyOp25
 70
     1
102
RTVSPropertyOp26
 70
     1
102
RTVSPropertyOp27
 70
     1
102
RTVSPropertyOp28
 70
     1
102
RTVSPropertyOp29
 70
     1
102
RTVSPropertyOp30
 70
     1
102
RTVSPropertyOp31
 70
     1
102
RTVSPropertyOp32
 70
     1
  0
XRECORD
  5
D98
102
{ACAD_REACTORS
330
D97
102
}
330
D97
100
AcDbXrecord
280
     1
102
RTVSPropertyOp0
 70
     1
102
RTVSPropertyOp1
 70
     1
102
RTVSPropertyOp2
 70
     1
102
RTVSPropertyOp3
 70
     1
102
RTVSPropertyOp4
 70
     1
102
RTVSPropertyOp5
 70
     1
102
RTVSPropertyOp6
 70
     1
102
RTVSPropertyOp7
 70
     1
102
RTVSPropertyOp8
 70
     1
102
RTVSPropertyOp9
 70
     1
102
RTVSPropertyOp10
 70
     1
102
RTVSPropertyOp11
 70
     1
102
RTVSPropertyOp12
 70
     1
102
RTVSPropertyOp13
 70
     1
102
RTVSPropertyOp14
 70
     1
102
RTVSPropertyOp15
 70
     1
102
RTVSPropertyOp16
 70
     1
102
RTVSPropertyOp17
 70
     1
102
RTVSPropertyOp18
 70
     1
102
RTVSPropertyOp19
 70
     1
102
RTVSPropertyOp20
 70
     1
102
RTVSPropertyOp21
 70
     1
102
RTVSPropertyOp22
 70
     1
102
RTVSPropertyOp23
 70
     1
102
RTVSPropertyOp24
 70
     1
102
RTVSPropertyOp25
 70
     1
102
RTVSPropertyOp26
 70
     1
102
RTVSPropertyOp27
 70
     1
102
RTVSPropertyOp28
 70
     1
102
RTVSPropertyOp29
 70
     1
102
RTVSPropertyOp30
 70
     1
102
RTVSPropertyOp31
 70
     1
102
RTVSPropertyOp32
 70
     1
  0
XRECORD
  5
D9A
102
{ACAD_REACTORS
330
D99
102
}
330
D99
100
AcDbXrecord
280
     1
102
RTVSPropertyOp0
 70
     1
102
RTVSPropertyOp1
 70
     1
102
RTVSPropertyOp2
 70
     1
102
RTVSPropertyOp3
 70
     1
102
RTVSPropertyOp4
 70
     1
102
RTVSPropertyOp5
 70
     1
102
RTVSPropertyOp6
 70
     1
102
RTVSPropertyOp7
 70
     1
102
RTVSPropertyOp8
 70
     1
102
RTVSPropertyOp9
 70
     1
102
RTVSPropertyOp10
 70
     1
102
RTVSPropertyOp11
 70
     1
102
RTVSPropertyOp12
 70
     1
102
RTVSPropertyOp13
 70
     1
102
RTVSPropertyOp14
 70
     1
102
RTVSPropertyOp15
 70
     1
102
RTVSPropertyOp16
 70
     1
102
RTVSPropertyOp17
 70
     1
102
RTVSPropertyOp18
 70
     1
102
RTVSPropertyOp19
 70
     1
102
RTVSPropertyOp20
 70
     1
102
RTVSPropertyOp21
 70
     1
102
RTVSPropertyOp22
 70
     1
102
RTVSPropertyOp23
 70
     1
102
RTVSPropertyOp24
 70
     1
102
RTVSPropertyOp25
 70
     1
102
RTVSPropertyOp26
 70
     1
102
RTVSPropertyOp27
 70
     1
102
RTVSPropertyOp28
 70
     1
102
RTVSPropertyOp29
 70
     1
102
RTVSPropertyOp30
 70
     1
102
RTVSPropertyOp31
 70
     1
102
RTVSPropertyOp32
 70
     1
  0
XRECORD
  5
D9C
102
{ACAD_REACTORS
330
D9B
102
}
330
D9B
100
AcDbXrecord
280
     1
102
RTVSPropertyOp0
 70
     1
102
RTVSPropertyOp1
 70
     1
102
RTVSPropertyOp2
 70
     1
102
RTVSPropertyOp3
 70
     1
102
RTVSPropertyOp4
 70
     1
102
RTVSPropertyOp5
 70
     1
102
RTVSPropertyOp6
 70
     1
102
RTVSPropertyOp7
 70
     1
102
RTVSPropertyOp8
 70
     1
102
RTVSPropertyOp9
 70
     1
102
RTVSPropertyOp10
 70
     1
102
RTVSPropertyOp11
 70
     1
102
RTVSPropertyOp12
 70
     1
102
RTVSPropertyOp13
 70
     1
102
RTVSPropertyOp14
 70
     1
102
RTVSPropertyOp15
 70
     1
102
RTVSPropertyOp16
 70
     1
102
RTVSPropertyOp17
 70
     1
102
RTVSPropertyOp18
 70
     1
102
RTVSPropertyOp19
 70
     1
102
RTVSPropertyOp20
 70
     1
102
RTVSPropertyOp21
 70
     1
102
RTVSPropertyOp22
 70
     1
102
RTVSPropertyOp23
 70
     1
102
RTVSPropertyOp24
 70
     1
102
RTVSPropertyOp25
 70
     1
102
RTVSPropertyOp26
 70
     1
102
RTVSPropertyOp27
 70
     1
102
RTVSPropertyOp28
 70
     1
102
RTVSPropertyOp29
 70
     1
102
RTVSPropertyOp30
 70
     1
102
RTVSPropertyOp31
 70
     1
102
RTVSPropertyOp32
 70
     1
  0
XRECORD
  5
D9E
102
{ACAD_REACTORS
330
D9D
102
}
330
D9D
100
AcDbXrecord
280
     1
102
RTVSPropertyOp0
 70
     1
102
RTVSPropertyOp1
 70
     1
102
RTVSPropertyOp2
 70
     1
102
RTVSPropertyOp3
 70
     1
102
RTVSPropertyOp4
 70
     1
102
RTVSPropertyOp5
 70
     1
102
RTVSPropertyOp6
 70
     1
102
RTVSPropertyOp7
 70
     1
102
RTVSPropertyOp8
 70
     1
102
RTVSPropertyOp9
 70
     1
102
RTVSPropertyOp10
 70
     1
102
RTVSPropertyOp11
 70
     1
102
RTVSPropertyOp12
 70
     1
102
RTVSPropertyOp13
 70
     1
102
RTVSPropertyOp14
 70
     1
102
RTVSPropertyOp15
 70
     1
102
RTVSPropertyOp16
 70
     1
102
RTVSPropertyOp17
 70
     1
102
RTVSPropertyOp18
 70
     1
102
RTVSPropertyOp19
 70
     1
102
RTVSPropertyOp20
 70
     1
102
RTVSPropertyOp21
 70
     1
102
RTVSPropertyOp22
 70
     1
102
RTVSPropertyOp23
 70
     1
102
RTVSPropertyOp24
 70
     1
102
RTVSPropertyOp25
 70
     1
102
RTVSPropertyOp26
 70
     1
102
RTVSPropertyOp27
 70
     1
102
RTVSPropertyOp28
 70
     1
102
RTVSPropertyOp29
 70
     1
102
RTVSPropertyOp30
 70
     1
102
RTVSPropertyOp31
 70
     1
102
RTVSPropertyOp32
 70
     1
  0
XRECORD
  5
DA6
102
{ACAD_REACTORS
330
DA5
102
}
330
DA5
100
AcDbXrecord
280
     1
102
RTVSPropertyOp0
 70
     1
102
RTVSPropertyOp1
 70
     1
102
RTVSPropertyOp2
 70
     1
102
RTVSPropertyOp3
 70
     1
102
RTVSPropertyOp4
 70
     1
102
RTVSPropertyOp5
 70
     1
102
RTVSPropertyOp6
 70
     1
102
RTVSPropertyOp7
 70
     1
102
RTVSPropertyOp8
 70
     1
102
RTVSPropertyOp9
 70
     1
102
RTVSPropertyOp10
 70
     1
102
RTVSPropertyOp11
 70
     1
102
RTVSPropertyOp12
 70
     1
102
RTVSPropertyOp13
 70
     1
102
RTVSPropertyOp14
 70
     1
102
RTVSPropertyOp15
 70
     1
102
RTVSPropertyOp16
 70
     1
102
RTVSPropertyOp17
 70
     1
102
RTVSPropertyOp18
 70
     1
102
RTVSPropertyOp19
 70
     1
102
RTVSPropertyOp20
 70
     1
102
RTVSPropertyOp21
 70
     1
102
RTVSPropertyOp22
 70
     1
102
RTVSPropertyOp23
 70
     1
102
RTVSPropertyOp24
 70
     1
102
RTVSPropertyOp25
 70
     1
102
RTVSPropertyOp26
 70
     1
102
RTVSPropertyOp27
 70
     1
102
RTVSPropertyOp28
 70
     1
102
RTVSPropertyOp29
 70
     1
102
RTVSPropertyOp30
 70
     1
102
RTVSPropertyOp31
 70
     1
102
RTVSPropertyOp32
 70
     1
  0
XRECORD
  5
DC2
102
{ACAD_REACTORS
330
DC1
102
}
330
DC1
100
AcDbXrecord
280
     1
102
RTVSPropertyOp0
 70
     0
102
RTVSPropertyOp1
 70
     0
102
RTVSPropertyOp2
 70
     0
102
RTVSPropertyOp3
 70
     0
102
RTVSPropertyOp4
 70
     0
102
RTVSPropertyOp5
 70
     0
102
RTVSPropertyOp6
 70
     0
102
RTVSPropertyOp7
 70
     0
102
RTVSPropertyOp8
 70
     0
102
RTVSPropertyOp9
 70
     0
102
RTVSPropertyOp10
 70
     0
102
RTVSPropertyOp11
 70
     0
102
RTVSPropertyOp12
 70
     0
102
RTVSPropertyOp13
 70
     0
102
RTVSPropertyOp14
 70
     2
102
RTVSPropertyOp15
 70
     0
102
RTVSPropertyOp16
 70
     0
102
RTVSPropertyOp17
 70
     0
102
RTVSPropertyOp18
 70
     0
102
RTVSPropertyOp19
 70
     0
102
RTVSPropertyOp20
 70
     0
102
RTVSPropertyOp21
 70
     0
102
RTVSPropertyOp22
 70
     0
102
RTVSPropertyOp23
 70
     0
102
RTVSPropertyOp24
 70
     0
102
RTVSPropertyOp25
 70
     0
102
RTVSPropertyOp26
 70
     0
102
RTVSPropertyOp27
 70
     0
102
RTVSPropertyOp28
 70
     1
102
RTVSPropertyOp29
 70
     1
102
RTVSPropertyOp30
 70
     1
102
RTVSPropertyOp31
 70
     1
102
RTVSPropertyOp32
 70
     1
  0
XRECORD
  5
DB2
102
{ACAD_REACTORS
330
DB1
102
}
330
DB1
100
AcDbXrecord
280
     1
102
RTVSPropertyOp0
 70
     1
102
RTVSPropertyOp1
 70
     1
102
RTVSPropertyOp2
 70
     1
102
RTVSPropertyOp3
 70
     1
102
RTVSPropertyOp4
 70
     1
102
RTVSPropertyOp5
 70
     1
102
RTVSPropertyOp6
 70
     1
102
RTVSPropertyOp7
 70
     1
102
RTVSPropertyOp8
 70
     1
102
RTVSPropertyOp9
 70
     1
102
RTVSPropertyOp10
 70
     1
102
RTVSPropertyOp11
 70
     1
102
RTVSPropertyOp12
 70
     1
102
RTVSPropertyOp13
 70
     1
102
RTVSPropertyOp14
 70
     1
102
RTVSPropertyOp15
 70
     1
102
RTVSPropertyOp16
 70
     1
102
RTVSPropertyOp17
 70
     1
102
RTVSPropertyOp18
 70
     1
102
RTVSPropertyOp19
 70
     1
102
RTVSPropertyOp20
 70
     1
102
RTVSPropertyOp21
 70
     1
102
RTVSPropertyOp22
 70
     1
102
RTVSPropertyOp23
 70
     1
102
RTVSPropertyOp24
 70
     1
102
RTVSPropertyOp25
 70
     1
102
RTVSPropertyOp26
 70
     1
102
RTVSPropertyOp27
 70
     1
102
RTVSPropertyOp28
 70
     1
102
RTVSPropertyOp29
 70
     1
102
RTVSPropertyOp30
 70
     1
102
RTVSPropertyOp31
 70
     1
102
RTVSPropertyOp32
 70
     1
  0
XRECORD
  5
DC4
102
{ACAD_REACTORS
330
DC3
102
}
330
DC3
100
AcDbXrecord
280
     1
102
RTVSPropertyOp0
 70
     0
102
RTVSPropertyOp1
 70
     0
102
RTVSPropertyOp2
 70
     0
102
RTVSPropertyOp3
 70
     0
102
RTVSPropertyOp4
 70
     0
102
RTVSPropertyOp5
 70
     0
102
RTVSPropertyOp6
 70
     0
102
RTVSPropertyOp7
 70
     0
102
RTVSPropertyOp8
 70
     0
102
RTVSPropertyOp9
 70
     0
102
RTVSPropertyOp10
 70
     0
102
RTVSPropertyOp11
 70
     0
102
RTVSPropertyOp12
 70
     0
102
RTVSPropertyOp13
 70
     0
102
RTVSPropertyOp14
 70
     2
102
RTVSPropertyOp15
 70
     0
102
RTVSPropertyOp16
 70
     0
102
RTVSPropertyOp17
 70
     0
102
RTVSPropertyOp18
 70
     0
102
RTVSPropertyOp19
 70
     0
102
RTVSPropertyOp20
 70
     0
102
RTVSPropertyOp21
 70
     0
102
RTVSPropertyOp22
 70
     0
102
RTVSPropertyOp23
 70
     0
102
RTVSPropertyOp24
 70
     0
102
RTVSPropertyOp25
 70
     0
102
RTVSPropertyOp26
 70
     0
102
RTVSPropertyOp27
 70
     0
102
RTVSPropertyOp28
 70
     1
102
RTVSPropertyOp29
 70
     1
102
RTVSPropertyOp30
 70
     1
102
RTVSPropertyOp31
 70
     1
102
RTVSPropertyOp32
 70
     1
  0
XRECORD
  5
DAA
102
{ACAD_REACTORS
330
DA9
102
}
330
DA9
100
AcDbXrecord
280
     1
102
RTVSPropertyOp0
 70
     1
102
RTVSPropertyOp1
 70
     1
102
RTVSPropertyOp2
 70
     1
102
RTVSPropertyOp3
 70
     1
102
RTVSPropertyOp4
 70
     1
102
RTVSPropertyOp5
 70
     1
102
RTVSPropertyOp6
 70
     1
102
RTVSPropertyOp7
 70
     1
102
RTVSPropertyOp8
 70
     1
102
RTVSPropertyOp9
 70
     1
102
RTVSPropertyOp10
 70
     1
102
RTVSPropertyOp11
 70
     1
102
RTVSPropertyOp12
 70
     1
102
RTVSPropertyOp13
 70
     1
102
RTVSPropertyOp14
 70
     1
102
RTVSPropertyOp15
 70
     1
102
RTVSPropertyOp16
 70
     1
102
RTVSPropertyOp17
 70
     1
102
RTVSPropertyOp18
 70
     1
102
RTVSPropertyOp19
 70
     1
102
RTVSPropertyOp20
 70
     1
102
RTVSPropertyOp21
 70
     1
102
RTVSPropertyOp22
 70
     1
102
RTVSPropertyOp23
 70
     1
102
RTVSPropertyOp24
 70
     1
102
RTVSPropertyOp25
 70
     1
102
RTVSPropertyOp26
 70
     1
102
RTVSPropertyOp27
 70
     1
102
RTVSPropertyOp28
 70
     1
102
RTVSPropertyOp29
 70
     1
102
RTVSPropertyOp30
 70
     1
102
RTVSPropertyOp31
 70
     1
102
RTVSPropertyOp32
 70
     1
  0
XRECORD
  5
DC0
102
{ACAD_REACTORS
330
DBF
102
}
330
DBF
100
AcDbXrecord
280
     1
102
RTVSPropertyOp0
 70
     1
102
RTVSPropertyOp1
 70
     1
102
RTVSPropertyOp2
 70
     1
102
RTVSPropertyOp3
 70
     1
102
RTVSPropertyOp4
 70
     1
102
RTVSPropertyOp5
 70
     1
102
RTVSPropertyOp6
 70
     1
102
RTVSPropertyOp7
 70
     1
102
RTVSPropertyOp8
 70
     1
102
RTVSPropertyOp9
 70
     1
102
RTVSPropertyOp10
 70
     1
102
RTVSPropertyOp11
 70
     1
102
RTVSPropertyOp12
 70
     1
102
RTVSPropertyOp13
 70
     1
102
RTVSPropertyOp14
 70
     1
102
RTVSPropertyOp15
 70
     1
102
RTVSPropertyOp16
 70
     1
102
RTVSPropertyOp17
 70
     1
102
RTVSPropertyOp18
 70
     1
102
RTVSPropertyOp19
 70
     1
102
RTVSPropertyOp20
 70
     1
102
RTVSPropertyOp21
 70
     1
102
RTVSPropertyOp22
 70
     1
102
RTVSPropertyOp23
 70
     1
102
RTVSPropertyOp24
 70
     1
102
RTVSPropertyOp25
 70
     1
102
RTVSPropertyOp26
 70
     1
102
RTVSPropertyOp27
 70
     1
102
RTVSPropertyOp28
 70
     1
102
RTVSPropertyOp29
 70
     1
102
RTVSPropertyOp30
 70
     1
102
RTVSPropertyOp31
 70
     1
102
RTVSPropertyOp32
 70
     1
  0
XRECORD
  5
DBE
102
{ACAD_REACTORS
330
DBD
102
}
330
DBD
100
AcDbXrecord
280
     1
102
RTVSPropertyOp0
 70
     1
102
RTVSPropertyOp1
 70
     1
102
RTVSPropertyOp2
 70
     1
102
RTVSPropertyOp3
 70
     1
102
RTVSPropertyOp4
 70
     1
102
RTVSPropertyOp5
 70
     1
102
RTVSPropertyOp6
 70
     1
102
RTVSPropertyOp7
 70
     1
102
RTVSPropertyOp8
 70
     1
102
RTVSPropertyOp9
 70
     1
102
RTVSPropertyOp10
 70
     1
102
RTVSPropertyOp11
 70
     1
102
RTVSPropertyOp12
 70
     1
102
RTVSPropertyOp13
 70
     1
102
RTVSPropertyOp14
 70
     1
102
RTVSPropertyOp15
 70
     1
102
RTVSPropertyOp16
 70
     1
102
RTVSPropertyOp17
 70
     1
102
RTVSPropertyOp18
 70
     1
102
RTVSPropertyOp19
 70
     1
102
RTVSPropertyOp20
 70
     1
102
RTVSPropertyOp21
 70
     1
102
RTVSPropertyOp22
 70
     1
102
RTVSPropertyOp23
 70
     1
102
RTVSPropertyOp24
 70
     1
102
RTVSPropertyOp25
 70
     1
102
RTVSPropertyOp26
 70
     1
102
RTVSPropertyOp27
 70
     1
102
RTVSPropertyOp28
 70
     1
102
RTVSPropertyOp29
 70
     1
102
RTVSPropertyOp30
 70
     1
102
RTVSPropertyOp31
 70
     1
102
RTVSPropertyOp32
 70
     1
  0
XRECORD
  5
DB8
102
{ACAD_REACTORS
330
DB7
102
}
330
DB7
100
AcDbXrecord
280
     1
102
RTVSPropertyOp0
 70
     1
102
RTVSPropertyOp1
 70
     1
102
RTVSPropertyOp2
 70
     1
102
RTVSPropertyOp3
 70
     1
102
RTVSPropertyOp4
 70
     1
102
RTVSPropertyOp5
 70
     1
102
RTVSPropertyOp6
 70
     1
102
RTVSPropertyOp7
 70
     1
102
RTVSPropertyOp8
 70
     1
102
RTVSPropertyOp9
 70
     1
102
RTVSPropertyOp10
 70
     1
102
RTVSPropertyOp11
 70
     1
102
RTVSPropertyOp12
 70
     1
102
RTVSPropertyOp13
 70
     1
102
RTVSPropertyOp14
 70
     1
102
RTVSPropertyOp15
 70
     1
102
RTVSPropertyOp16
 70
     1
102
RTVSPropertyOp17
 70
     1
102
RTVSPropertyOp18
 70
     1
102
RTVSPropertyOp19
 70
     1
102
RTVSPropertyOp20
 70
     1
102
RTVSPropertyOp21
 70
     1
102
RTVSPropertyOp22
 70
     1
102
RTVSPropertyOp23
 70
     1
102
RTVSPropertyOp24
 70
     1
102
RTVSPropertyOp25
 70
     1
102
RTVSPropertyOp26
 70
     1
102
RTVSPropertyOp27
 70
     1
102
RTVSPropertyOp28
 70
     1
102
RTVSPropertyOp29
 70
     1
102
RTVSPropertyOp30
 70
     1
102
RTVSPropertyOp31
 70
     1
102
RTVSPropertyOp32
 70
     1
  0
XRECORD
  5
DBA
102
{ACAD_REACTORS
330
DB9
102
}
330
DB9
100
AcDbXrecord
280
     1
102
RTVSPropertyOp0
 70
     1
102
RTVSPropertyOp1
 70
     1
102
RTVSPropertyOp2
 70
     1
102
RTVSPropertyOp3
 70
     1
102
RTVSPropertyOp4
 70
     1
102
RTVSPropertyOp5
 70
     1
102
RTVSPropertyOp6
 70
     1
102
RTVSPropertyOp7
 70
     1
102
RTVSPropertyOp8
 70
     1
102
RTVSPropertyOp9
 70
     1
102
RTVSPropertyOp10
 70
     1
102
RTVSPropertyOp11
 70
     1
102
RTVSPropertyOp12
 70
     1
102
RTVSPropertyOp13
 70
     1
102
RTVSPropertyOp14
 70
     1
102
RTVSPropertyOp15
 70
     1
102
RTVSPropertyOp16
 70
     1
102
RTVSPropertyOp17
 70
     1
102
RTVSPropertyOp18
 70
     1
102
RTVSPropertyOp19
 70
     1
102
RTVSPropertyOp20
 70
     1
102
RTVSPropertyOp21
 70
     1
102
RTVSPropertyOp22
 70
     1
102
RTVSPropertyOp23
 70
     1
102
RTVSPropertyOp24
 70
     1
102
RTVSPropertyOp25
 70
     1
102
RTVSPropertyOp26
 70
     1
102
RTVSPropertyOp27
 70
     1
102
RTVSPropertyOp28
 70
     1
102
RTVSPropertyOp29
 70
     1
102
RTVSPropertyOp30
 70
     1
102
RTVSPropertyOp31
 70
     1
102
RTVSPropertyOp32
 70
     1
  0
XRECORD
  5
DB0
102
{ACAD_REACTORS
330
DAF
102
}
330
DAF
100
AcDbXrecord
280
     1
102
RTVSPropertyOp0
 70
     1
102
RTVSPropertyOp1
 70
     1
102
RTVSPropertyOp2
 70
     1
102
RTVSPropertyOp3
 70
     1
102
RTVSPropertyOp4
 70
     1
102
RTVSPropertyOp5
 70
     1
102
RTVSPropertyOp6
 70
     1
102
RTVSPropertyOp7
 70
     1
102
RTVSPropertyOp8
 70
     1
102
RTVSPropertyOp9
 70
     1
102
RTVSPropertyOp10
 70
     1
102
RTVSPropertyOp11
 70
     1
102
RTVSPropertyOp12
 70
     1
102
RTVSPropertyOp13
 70
     1
102
RTVSPropertyOp14
 70
     1
102
RTVSPropertyOp15
 70
     1
102
RTVSPropertyOp16
 70
     1
102
RTVSPropertyOp17
 70
     1
102
RTVSPropertyOp18
 70
     1
102
RTVSPropertyOp19
 70
     1
102
RTVSPropertyOp20
 70
     1
102
RTVSPropertyOp21
 70
     1
102
RTVSPropertyOp22
 70
     1
102
RTVSPropertyOp23
 70
     1
102
RTVSPropertyOp24
 70
     1
102
RTVSPropertyOp25
 70
     1
102
RTVSPropertyOp26
 70
     1
102
RTVSPropertyOp27
 70
     1
102
RTVSPropertyOp28
 70
     1
102
RTVSPropertyOp29
 70
     1
102
RTVSPropertyOp30
 70
     1
102
RTVSPropertyOp31
 70
     1
102
RTVSPropertyOp32
 70
     1
  0
XRECORD
  5
DA4
102
{ACAD_REACTORS
330
DA3
102
}
330
DA3
100
AcDbXrecord
280
     1
102
RTVSPropertyOp0
 70
     1
102
RTVSPropertyOp1
 70
     1
102
RTVSPropertyOp2
 70
     1
102
RTVSPropertyOp3
 70
     1
102
RTVSPropertyOp4
 70
     1
102
RTVSPropertyOp5
 70
     1
102
RTVSPropertyOp6
 70
     1
102
RTVSPropertyOp7
 70
     1
102
RTVSPropertyOp8
 70
     1
102
RTVSPropertyOp9
 70
     1
102
RTVSPropertyOp10
 70
     1
102
RTVSPropertyOp11
 70
     1
102
RTVSPropertyOp12
 70
     1
102
RTVSPropertyOp13
 70
     1
102
RTVSPropertyOp14
 70
     1
102
RTVSPropertyOp15
 70
     1
102
RTVSPropertyOp16
 70
     1
102
RTVSPropertyOp17
 70
     1
102
RTVSPropertyOp18
 70
     1
102
RTVSPropertyOp19
 70
     1
102
RTVSPropertyOp20
 70
     1
102
RTVSPropertyOp21
 70
     1
102
RTVSPropertyOp22
 70
     1
102
RTVSPropertyOp23
 70
     1
102
RTVSPropertyOp24
 70
     1
102
RTVSPropertyOp25
 70
     1
102
RTVSPropertyOp26
 70
     1
102
RTVSPropertyOp27
 70
     1
102
RTVSPropertyOp28
 70
     1
102
RTVSPropertyOp29
 70
     1
102
RTVSPropertyOp30
 70
     1
102
RTVSPropertyOp31
 70
     1
102
RTVSPropertyOp32
 70
     1
  0
XRECORD
  5
DBC
102
{ACAD_REACTORS
330
DBB
102
}
330
DBB
100
AcDbXrecord
280
     1
102
RTVSPropertyOp0
 70
     1
102
RTVSPropertyOp1
 70
     1
102
RTVSPropertyOp2
 70
     1
102
RTVSPropertyOp3
 70
     1
102
RTVSPropertyOp4
 70
     1
102
RTVSPropertyOp5
 70
     1
102
RTVSPropertyOp6
 70
     1
102
RTVSPropertyOp7
 70
     1
102
RTVSPropertyOp8
 70
     1
102
RTVSPropertyOp9
 70
     1
102
RTVSPropertyOp10
 70
     1
102
RTVSPropertyOp11
 70
     1
102
RTVSPropertyOp12
 70
     1
102
RTVSPropertyOp13
 70
     1
102
RTVSPropertyOp14
 70
     1
102
RTVSPropertyOp15
 70
     1
102
RTVSPropertyOp16
 70
     1
102
RTVSPropertyOp17
 70
     1
102
RTVSPropertyOp18
 70
     1
102
RTVSPropertyOp19
 70
     1
102
RTVSPropertyOp20
 70
     1
102
RTVSPropertyOp21
 70
     1
102
RTVSPropertyOp22
 70
     1
102
RTVSPropertyOp23
 70
     1
102
RTVSPropertyOp24
 70
     1
102
RTVSPropertyOp25
 70
     1
102
RTVSPropertyOp26
 70
     1
102
RTVSPropertyOp27
 70
     1
102
RTVSPropertyOp28
 70
     1
102
RTVSPropertyOp29
 70
     1
102
RTVSPropertyOp30
 70
     1
102
RTVSPropertyOp31
 70
     1
102
RTVSPropertyOp32
 70
     1
  0
ENDSEC
  0
EOF
