  0
SECTION
  2
HEADER
  9
$ACADVER
  1
AC1015
  9
$ACADMAINTVER
 70
    18
  9
$DWGCODEPAGE
  3
ANSI_1252
  9
$INSBASE
 10
0.0
 20
0.0
 30
0.0
  9
$EXTMIN
 10
0.0
 20
0.0
 30
0.0
  9
$EXTMAX
 10
75.55555555555556
 20
48.88888888888889
 30
0.0
  9
$LIMMIN
 10
0.0
 20
0.0
  9
$LIMMAX
 10
75.55555555555556
 20
48.88888888888889
  9
$ORTHOMODE
 70
     0
  9
$REGENMODE
 70
     1
  9
$FILLMODE
 70
     1
  9
$QTEXTMODE
 70
     0
  9
$MIRRTEXT
 70
     0
  9
$LTSCALE
 40
4.444444444444444
  9
$ATTMODE
 70
     1
  9
$TEXTSIZE
 40
0.2
  9
$TRACEWID
 40
0.05
  9
$TEXTSTYLE
  7
Standard
  9
$CLAYER
  8
0
  9
$CELTYPE
  6
ByLayer
  9
$CECOLOR
 62
   256
  9
$CELTSCALE
 40
1.0
  9
$DISPSILH
 70
     0
  9
$DIMSCALE
 40
1.0
  9
$DIMASZ
 40
0.0708661417322835
  9
$DIMEXO
 40
0.0625
  9
$DIMDLI
 40
0.38
  9
$DIMRND
 40
0.0
  9
$DIMDLE
 40
0.0
  9
$DIMEXE
 40
0.18
  9
$DIMTP
 40
0.0
  9
$DIMTM
 40
0.0
  9
$DIMTXT
 40
0.0708661417322835
  9
$DIMCEN
 40
0.09
  9
$DIMTSZ
 40
0.0
  9
$DIMTOL
 70
     0
  9
$DIMLIM
 70
     0
  9
$DIMTIH
 70
     1
  9
$DIMTOH
 70
     1
  9
$DIMSE1
 70
     0
  9
$DIMSE2
 70
     0
  9
$DIMTAD
 70
     0
  9
$DIMZIN
 70
     0
  9
$DIMBLK
  1

  9
$DIMASO
 70
     1
  9
$DIMSHO
 70
     1
  9
$DIMPOST
  1

  9
$DIMAPOST
  1

  9
$DIMALT
 70
     0
  9
$DIMALTD
 70
     2
  9
$DIMALTF
 40
25.4
  9
$DIMLFAC
 40
1.0
  9
$DIMTOFL
 70
     0
  9
$DIMTVP
 40
0.0
  9
$DIMTIX
 70
     0
  9
$DIMSOXD
 70
     0
  9
$DIMSAH
 70
     0
  9
$DIMBLK1
  1

  9
$DIMBLK2
  1

  9
$DIMSTYLE
  2
Standard
  9
$DIMCLRD
 70
     0
  9
$DIMCLRE
 70
     0
  9
$DIMCLRT
 70
     0
  9
$DIMTFAC
 40
1.0
  9
$DIMGAP
 40
0.09
  9
$DIMJUST
 70
     0
  9
$DIMSD1
 70
     0
  9
$DIMSD2
 70
     0
  9
$DIMTOLJ
 70
     1
  9
$DIMTZIN
 70
     0
  9
$DIMALTZ
 70
     0
  9
$DIMALTTZ
 70
     0
  9
$DIMUPT
 70
     0
  9
$DIMDEC
 70
     4
  9
$DIMTDEC
 70
     4
  9
$DIMALTU
 70
     2
  9
$DIMALTTD
 70
     2
  9
$DIMTXSTY
  7
Standard
  9
$DIMAUNIT
 70
     0
  9
$DIMADEC
 70
     0
  9
$DIMALTRND
 40
0.0
  9
$DIMAZIN
 70
     0
  9
$DIMDSEP
 70
    46
  9
$DIMATFIT
 70
     3
  9
$DIMFRAC
 70
     0
  9
$DIMLDRBLK
  1

  9
$DIMLUNIT
 70
     2
  9
$DIMLWD
 70
    -2
  9
$DIMLWE
 70
    -2
  9
$DIMTMOVE
 70
     0
  9
$LUNITS
 70
     2
  9
$LUPREC
 70
     4
  9
$SKETCHINC
 40
0.1
  9
$FILLETRAD
 40
0.0
  9
$AUNITS
 70
     0
  9
$AUPREC
 70
     0
  9
$MENU
  1
.
  9
$ELEVATION
 40
0.0
  9
$PELEVATION
 40
0.0
  9
$THICKNESS
 40
0.0
  9
$LIMCHECK
 70
     0
  9
$CHAMFERA
 40
0.0
  9
$CHAMFERB
 40
0.0
  9
$CHAMFERC
 40
0.0
  9
$CHAMFERD
 40
0.0
  9
$SKPOLY
 70
     0
  9
$TDCREATE
 40
2455946.375371436
  9
$TDUCREATE
 40
2455946.625371435
  9
$TDUPDATE
 40
2455946.375371436
  9
$TDUUPDATE
 40
2455946.625371435
  9
$TDINDWG
 40
0.0000365278
  9
$TDUSRTIMER
 40
0.0000365278
  9
$USRTIMER
 70
     1
  9
$ANGBASE
 50
0.0
  9
$ANGDIR
 70
     0
  9
$PDMODE
 70
     0
  9
$PDSIZE
 40
0.0
  9
$PLINEWID
 40
0.0
  9
$SPLFRAME
 70
     0
  9
$SPLINETYPE
 70
     6
  9
$SPLINESEGS
 70
     8
  9
$HANDSEED
  5
E7B
  9
$SURFTAB1
 70
     6
  9
$SURFTAB2
 70
     6
  9
$SURFTYPE
 70
     6
  9
$SURFU
 70
     6
  9
$SURFV
 70
     6
  9
$UCSBASE
  2

  9
$UCSNAME
  2

  9
$UCSORG
 10
0.0
 20
0.0
 30
0.0
  9
$UCSXDIR
 10
1.0
 20
0.0
 30
0.0
  9
$UCSYDIR
 10
0.0
 20
1.0
 30
0.0
  9
$UCSORTHOREF
  2

  9
$UCSORTHOVIEW
 70
     0
  9
$UCSORGTOP
 10
0.0
 20
0.0
 30
0.0
  9
$UCSORGBOTTOM
 10
0.0
 20
0.0
 30
0.0
  9
$UCSORGLEFT
 10
0.0
 20
0.0
 30
0.0
  9
$UCSORGRIGHT
 10
0.0
 20
0.0
 30
0.0
  9
$UCSORGFRONT
 10
0.0
 20
0.0
 30
0.0
  9
$UCSORGBACK
 10
0.0
 20
0.0
 30
0.0
  9
$PUCSBASE
  2

  9
$PUCSNAME
  2

  9
$PUCSORG
 10
0.0
 20
0.0
 30
0.0
  9
$PUCSXDIR
 10
1.0
 20
0.0
 30
0.0
  9
$PUCSYDIR
 10
0.0
 20
1.0
 30
0.0
  9
$PUCSORTHOREF
  2

  9
$PUCSORTHOVIEW
 70
     0
  9
$PUCSORGTOP
 10
0.0
 20
0.0
 30
0.0
  9
$PUCSORGBOTTOM
 10
0.0
 20
0.0
 30
0.0
  9
$PUCSORGLEFT
 10
0.0
 20
0.0
 30
0.0
  9
$PUCSORGRIGHT
 10
0.0
 20
0.0
 30
0.0
  9
$PUCSORGFRONT
 10
0.0
 20
0.0
 30
0.0
  9
$PUCSORGBACK
 10
0.0
 20
0.0
 30
0.0
  9
$USERI1
 70
     0
  9
$USERI2
 70
     0
  9
$USERI3
 70
     0
  9
$USERI4
 70
     0
  9
$USERI5
 70
     0
  9
$USERR1
 40
0.0
  9
$USERR2
 40
0.0
  9
$USERR3
 40
0.0
  9
$USERR4
 40
0.0
  9
$USERR5
 40
0.0
  9
$WORLDVIEW
 70
     1
  9
$SHADEDGE
 70
     3
  9
$SHADEDIF
 70
    70
  9
$TILEMODE
 70
     1
  9
$MAXACTVP
 70
    64
  9
$PINSBASE
 10
0.0
 20
0.0
 30
0.0
  9
$PLIMCHECK
 70
     0
  9
$PEXTMIN
 10
0.0
 20
0.0
 30
0.0
  9
$PEXTMAX
 10
75.55555555555556
 20
48.88888888888889
 30
0.0
  9
$PLIMMIN
 10
0.0
 20
0.0
  9
$PLIMMAX
 10
75.55555555555556
 20
48.88888888888889
  9
$UNITMODE
 70
     0
  9
$VISRETAIN
 70
     1
  9
$PLINEGEN
 70
     0
  9
$PSLTSCALE
 70
     1
  9
$TREEDEPTH
 70
  3020
  9
$CMLSTYLE
  2
Standard
  9
$CMLJUST
 70
     0
  9
$CMLSCALE
 40
1.0
  9
$PROXYGRAPHICS
 70
     1
  9
$MEASUREMENT
 70
     0
  9
$CELWEIGHT
370
    -1
  9
$ENDCAPS
280
     0
  9
$JOINSTYLE
280
     0
  9
$LWDISPLAY
290
     0
  9
$INSUNITS
 70
     1
  9
$HYPERLINKBASE
  1

  9
$STYLESHEET
  1

  9
$XEDIT
290
     1
  9
$CEPSNTYPE
380
     0
  9
$PSTYLEMODE
290
     1
  9
$FINGERPRINTGUID
  2
{B45E5F29-280C-4162-9D7C-52917D37AB6D}
  9
$VERSIONGUID
  2
{9BEE9C28-22C1-4BC9-8862-BC6F7334D74A}
  9
$EXTNAMES
290
     1
  9
$PSVPSCALE
 40
0.0
  9
$OLESTARTUP
290
     0
  0
ENDSEC
  0
SECTION
  2
CLASSES
  0
CLASS
  1
ACDBDICTIONARYWDFLT
  2
AcDbDictionaryWithDefault
  3
ObjectDBX Classes
 90
        0
280
     0
281
     0
  0
CLASS
  1
MATERIAL
  2
AcDbMaterial
  3
ObjectDBX Classes
 90
     1153
280
     0
281
     0
  0
CLASS
  1
VISUALSTYLE
  2
AcDbVisualStyle
  3
ObjectDBX Classes
 90
     4095
280
     0
281
     0
  0
CLASS
  1
SCALE
  2
AcDbScale
  3
ObjectDBX Classes
 90
     1153
280
     0
281
     0
  0
CLASS
  1
TABLESTYLE
  2
AcDbTableStyle
  3
ObjectDBX Classes
 90
     4095
280
     0
281
     0
  0
CLASS
  1
MLEADERSTYLE
  2
AcDbMLeaderStyle
  3
ACDB_MLEADERSTYLE_CLASS
 90
     4095
280
     0
281
     0
  0
CLASS
  1
DICTIONARYVAR
  2
AcDbDictionaryVar
  3
ObjectDBX Classes
 90
        0
280
     0
281
     0
  0
CLASS
  1
CELLSTYLEMAP
  2
AcDbCellStyleMap
  3
ObjectDBX Classes
 90
     1152
280
     0
281
     0
  0
CLASS
  1
ACDBPLACEHOLDER
  2
AcDbPlaceHolder
  3
ObjectDBX Classes
 90
        0
280
     0
281
     0
  0
CLASS
  1
LAYOUT
  2
AcDbLayout
  3
ObjectDBX Classes
 90
        0
280
     0
281
     0
  0
ENDSEC
  0
SECTION
  2
TABLES
  0
TABLE
  2
VPORT
  5
8
330
0
100
AcDbSymbolTable
 70
     1
  0
VPORT
  5
57
330
8
100
AcDbSymbolTableRecord
100
AcDbViewportTableRecord
  2
*Active
 70
     0
 10
0.0
 20
0.0
 11
1.0
 21
1.0
 12
37.77777777777778
 22
24.44444444444445
 13
0.0
 23
0.0
 14
1.0
 24
1.0
 15
0.0
 25
0.0
 16
0.0
 26
0.0
 36
1.0
 17
0.0
 27
0.0
 37
0.0
 40
48.88888888888889
 41
1.545454545454545
 42
50.0
 43
0.0
 44
0.0
 50
0.0
 51
0.0
 71
     0
 72
   100
 73
     1
 74
     1
 75
     0
 76
     0
 77
     0
 78
     0
281
     0
 65
     1
110
0.0
120
0.0
130
0.0
111
1.0
121
0.0
131
0.0
112
0.0
122
1.0
132
0.0
 79
     0
146
0.0
  0
ENDTAB
  0
TABLE
  2
LTYPE
  5
5
330
0
100
AcDbSymbolTable
 70
    59
  0
LTYPE
  5
5B
330
5
100
AcDbSymbolTableRecord
100
AcDbLinetypeTableRecord
  2
ByBlock
 70
     0
  3

 72
    65
 73
     0
 40
0.0
  0
LTYPE
  5
5C
330
5
100
AcDbSymbolTableRecord
100
AcDbLinetypeTableRecord
  2
ByLayer
 70
     0
  3

 72
    65
 73
     0
 40
0.0
  0
LTYPE
  5
5D
330
5
100
AcDbSymbolTableRecord
100
AcDbLinetypeTableRecord
  2
Continuous
 70
     0
  3
Solid line
 72
    65
 73
     0
 40
0.0
  0
LTYPE
  5
7C
330
5
100
AcDbSymbolTableRecord
100
AcDbLinetypeTableRecord
  2
BY_STANDARD
 70
     0
  3
By Standard ____________    ____    ____   _
 72
    65
 73
     6
 40
1.240299999999999
 49
0.6614
 74
     0
 49
-0.0827
 74
     0
 49
0.1654
 74
     0
 49
-0.0827
 74
     0
 49
0.1654
 74
     0
 49
-0.0827
 74
     0
  0
LTYPE
  5
7D
330
5
100
AcDbSymbolTableRecord
100
AcDbLinetypeTableRecord
  2
CHAIN
 70
     0
  3
Chain ____ _ ____ _ ____ _ ____ _ ____ _ ____
 72
    65
 73
     4
 40
0.7087
 49
0.4724000000000001
 74
     0
 49
-0.0591
 74
     0
 49
0.1181
 74
     0
 49
-0.0591
 74
     0
  0
LTYPE
  5
7E
330
5
100
AcDbSymbolTableRecord
100
AcDbLinetypeTableRecord
  2
DASH_DOT
 70
     0
  3
Dash dot __ . __ . __ . __ . __ . __ . __ . __
 72
    65
 73
     4
 40
0.37
 49
0.24
 74
     0
 49
-0.06
 74
     0
 49
0.01
 74
     0
 49
-0.06
 74
     0
  0
LTYPE
  5
7F
330
5
100
AcDbSymbolTableRecord
100
AcDbLinetypeTableRecord
  2
DOUBLE_DASH_DOT
 70
     0
  3
Double-Dash Dot __ __ . __ __ . __ __ . __ _
 72
    65
 73
     6
 40
0.4398
 49
0.24
 74
     0
 49
-0.06
 74
     0
 49
0.0098
 74
     0
 49
-0.06
 74
     0
 49
0.01
 74
     0
 49
-0.06
 74
     0
  0
LTYPE
  5
80
330
5
100
AcDbSymbolTableRecord
100
AcDbLinetypeTableRecord
  2
DASH_TRIPLE_DOT
 70
     0
  3
Dash Triple-Dot _ . . . _ . . . _ . . . _
 72
    65
 73
     8
 40
0.51
 49
0.24
 74
     0
 49
-0.06
 74
     0
 49
0.01
 74
     0
 49
-0.06
 74
     0
 49
0.01
 74
     0
 49
-0.06
 74
     0
 49
0.01
 74
     0
 49
-0.06
 74
     0
  0
LTYPE
  5
81
330
5
100
AcDbSymbolTableRecord
100
AcDbLinetypeTableRecord
  2
DASHED
 70
     0
  3
Dashed __ __ __ __ __ __ __ __ __ __ __ __ __ _
 72
    65
 73
     2
 40
0.2067
 49
0.1654
 74
     0
 49
-0.0413
 74
     0
  0
LTYPE
  5
82
330
5
100
AcDbSymbolTableRecord
100
AcDbLinetypeTableRecord
  2
DASH_DOUBLE_DOT
 70
     0
  3
Dash Double-Dot __ . . __ . . __ . . __ . .
 72
    65
 73
     6
 40
0.4398
 49
0.24
 74
     0
 49
-0.06
 74
     0
 49
0.0098
 74
     0
 49
-0.06
 74
     0
 49
0.01
 74
     0
 49
-0.06
 74
     0
  0
LTYPE
  5
83
330
5
100
AcDbSymbolTableRecord
100
AcDbLinetypeTableRecord
  2
DASHED_SPACE
 70
     0
  3
Dashed Space __ __ __ __ __ __ __ __ __ __ __ _
 72
    65
 73
     2
 40
0.2067
 49
0.1654
 74
     0
 49
-0.0413
 74
     0
  0
LTYPE
  5
84
330
5
100
AcDbSymbolTableRecord
100
AcDbLinetypeTableRecord
  2
DOTTED
 70
     0
  3
Dotted . . . . . . . . . . . . . . . . . . . . 
 72
    65
 73
     2
 40
0.0482
 49
0.0069
 74
     0
 49
-0.0413
 74
     0
  0
LTYPE
  5
85
330
5
100
AcDbSymbolTableRecord
100
AcDbLinetypeTableRecord
  2
DOUBLE_DASH_CHAIN
 70
     0
  3
Double-Dash Chain ______  __  __  ______  __  _
 72
    65
 73
     6
 40
1.240299999999999
 49
0.6614
 74
     0
 49
-0.0827
 74
     0
 49
0.1654
 74
     0
 49
-0.0827
 74
     0
 49
0.1654
 74
     0
 49
-0.0827
 74
     0
  0
LTYPE
  5
87
330
5
100
AcDbSymbolTableRecord
100
AcDbLinetypeTableRecord
  2
DOUBLE_DASH_DOUBLE_DOT
 70
     0
  3
Double-Dash Double-dot _ _ . . _ _ . . _
 72
    65
 73
     8
 40
0.7400000000000001
 49
0.24
 74
     0
 49
-0.06
 74
     0
 49
0.24
 74
     0
 49
-0.06
 74
     0
 49
0.01
 74
     0
 49
-0.06
 74
     0
 49
0.01
 74
     0
 49
-0.06
 74
     0
  0
LTYPE
  5
88
330
5
100
AcDbSymbolTableRecord
100
AcDbLinetypeTableRecord
  2
DOUBLE_DASH_TRIPLE_DOT
 70
     0
  3
Double Dash Triple Dot __ __ . . . __ __ . .
 72
    65
 73
    10
 40
0.8100000000000001
 49
0.24
 74
     0
 49
-0.06
 74
     0
 49
0.24
 74
     0
 49
-0.06
 74
     0
 49
0.01
 74
     0
 49
-0.06
 74
     0
 49
0.01
 74
     0
 49
-0.06
 74
     0
 49
0.01
 74
     0
 49
-0.06
 74
     0
  0
LTYPE
  5
89
330
5
100
AcDbSymbolTableRecord
100
AcDbLinetypeTableRecord
  2
LONG_DASH_DOTTED
 70
     0
  3
Long Dash Dotted ____ . ____ . ____ . ____ . _
 72
    65
 73
     4
 40
0.3543
 49
0.2362
 74
     0
 49
-0.0295
 74
     0
 49
0.0591
 74
     0
 49
-0.0295
 74
     0
  0
LTYPE
  5
8A
330
5
100
AcDbSymbolTableRecord
100
AcDbLinetypeTableRecord
  2
LONG_DASH_DOUBLE_DOT
 70
     0
  3
Long Dash Double Dot ________  .  .  ________  
 72
    65
 73
     6
 40
0.6799999999999999
 49
0.48
 74
     0
 49
-0.06
 74
     0
 49
0.01
 74
     0
 49
-0.06
 74
     0
 49
0.01
 74
     0
 49
-0.06
 74
     0
  0
LTYPE
  5
8B
330
5
100
AcDbSymbolTableRecord
100
AcDbLinetypeTableRecord
  2
LONG_DASH_TRIPLE_DOT
 70
     0
  3
Long Dash Triple Dot ____ ... ____ ... ____
 72
    65
 73
     8
 40
0.3689
 49
0.2362
 74
     0
 49
-0.0295
 74
     0
 49
0.0049
 74
     0
 49
-0.0295
 74
     0
 49
0.0049
 74
     0
 49
-0.0295
 74
     0
 49
0.0049
 74
     0
 49
-0.0295
 74
     0
  0
LTYPE
  5
8C
330
5
100
AcDbSymbolTableRecord
100
AcDbLinetypeTableRecord
  2
BORDER
 70
     0
  3
Border __ __ . __ __ . __ __ . __ __ . __ __ .
 72
    65
 73
     6
 40
1.75
 49
0.5
 74
     0
 49
-0.25
 74
     0
 49
0.5
 74
     0
 49
-0.25
 74
     0
 49
0.0
 74
     0
 49
-0.25
 74
     0
  0
LTYPE
  5
8D
330
5
100
AcDbSymbolTableRecord
100
AcDbLinetypeTableRecord
  2
BORDER2
 70
     0
  3
Border (.5x) __.__.__.__.__.__.__.__.__.__.__.
 72
    65
 73
     6
 40
0.875
 49
0.25
 74
     0
 49
-0.125
 74
     0
 49
0.25
 74
     0
 49
-0.125
 74
     0
 49
0.0
 74
     0
 49
-0.125
 74
     0
  0
LTYPE
  5
8E
330
5
100
AcDbSymbolTableRecord
100
AcDbLinetypeTableRecord
  2
BORDERX2
 70
     0
  3
Border (2x) ____  ____  .  ____  ____  .  ___
 72
    65
 73
     6
 40
3.5
 49
1.0
 74
     0
 49
-0.5
 74
     0
 49
1.0
 74
     0
 49
-0.5
 74
     0
 49
0.0
 74
     0
 49
-0.5
 74
     0
  0
LTYPE
  5
8F
330
5
100
AcDbSymbolTableRecord
100
AcDbLinetypeTableRecord
  2
CENTER
 70
     0
  3
Center ____ _ ____ _ ____ _ ____ _ ____ _ ____
 72
    65
 73
     4
 40
2.0
 49
1.25
 74
     0
 49
-0.25
 74
     0
 49
0.25
 74
     0
 49
-0.25
 74
     0
  0
LTYPE
  5
90
330
5
100
AcDbSymbolTableRecord
100
AcDbLinetypeTableRecord
  2
CENTER2
 70
     0
  3
Center (.5x) ___ _ ___ _ ___ _ ___ _ ___ _ ___
 72
    65
 73
     4
 40
1.125
 49
0.75
 74
     0
 49
-0.125
 74
     0
 49
0.125
 74
     0
 49
-0.125
 74
     0
  0
LTYPE
  5
91
330
5
100
AcDbSymbolTableRecord
100
AcDbLinetypeTableRecord
  2
CENTERX2
 70
     0
  3
Center (2x) ________  __  ________  __  _____
 72
    65
 73
     4
 40
4.0
 49
2.5
 74
     0
 49
-0.5
 74
     0
 49
0.5
 74
     0
 49
-0.5
 74
     0
  0
LTYPE
  5
92
330
5
100
AcDbSymbolTableRecord
100
AcDbLinetypeTableRecord
  2
DASHDOT2
 70
     0
  3
Dash dot (.5x) _._._._._._._._._._._._._._._.
 72
    65
 73
     4
 40
0.5
 49
0.25
 74
     0
 49
-0.125
 74
     0
 49
0.0
 74
     0
 49
-0.125
 74
     0
  0
LTYPE
  5
93
330
5
100
AcDbSymbolTableRecord
100
AcDbLinetypeTableRecord
  2
DASHDOTX2
 70
     0
  3
Dash dot (2x) ____  .  ____  .  ____  .  ___
 72
    65
 73
     4
 40
2.0
 49
1.0
 74
     0
 49
-0.5
 74
     0
 49
0.0
 74
     0
 49
-0.5
 74
     0
  0
LTYPE
  5
95
330
5
100
AcDbSymbolTableRecord
100
AcDbLinetypeTableRecord
  2
DASHED2
 70
     0
  3
Dashed (.5x) _ _ _ _ _ _ _ _ _ _ _ _ _ _ _ _ _
 72
    65
 73
     2
 40
0.375
 49
0.25
 74
     0
 49
-0.125
 74
     0
  0
LTYPE
  5
96
330
5
100
AcDbSymbolTableRecord
100
AcDbLinetypeTableRecord
  2
DASHEDX2
 70
     0
  3
Dashed (2x) ____  ____  ____  ____  ____  ___
 72
    65
 73
     2
 40
1.5
 49
1.0
 74
     0
 49
-0.5
 74
     0
  0
LTYPE
  5
97
330
5
100
AcDbSymbolTableRecord
100
AcDbLinetypeTableRecord
  2
DIVIDE
 70
     0
  3
Divide ____ . . ____ . . ____ . . ____ . . ____
 72
    65
 73
     6
 40
1.25
 49
0.5
 74
     0
 49
-0.25
 74
     0
 49
0.0
 74
     0
 49
-0.25
 74
     0
 49
0.0
 74
     0
 49
-0.25
 74
     0
  0
LTYPE
  5
98
330
5
100
AcDbSymbolTableRecord
100
AcDbLinetypeTableRecord
  2
DIVIDE2
 70
     0
  3
Divide (.5x) __..__..__..__..__..__..__..__.._
 72
    65
 73
     6
 40
0.625
 49
0.25
 74
     0
 49
-0.125
 74
     0
 49
0.0
 74
     0
 49
-0.125
 74
     0
 49
0.0
 74
     0
 49
-0.125
 74
     0
  0
LTYPE
  5
99
330
5
100
AcDbSymbolTableRecord
100
AcDbLinetypeTableRecord
  2
DIVIDEX2
 70
     0
  3
Divide (2x) ________  .  .  ________  .  .  _
 72
    65
 73
     6
 40
2.5
 49
1.0
 74
     0
 49
-0.5
 74
     0
 49
0.0
 74
     0
 49
-0.5
 74
     0
 49
0.0
 74
     0
 49
-0.5
 74
     0
  0
LTYPE
  5
9A
330
5
100
AcDbSymbolTableRecord
100
AcDbLinetypeTableRecord
  2
DOT
 70
     0
  3
Dot . . . . . . . . . . . . . . . . . . . . . .
 72
    65
 73
     2
 40
0.25
 49
0.0
 74
     0
 49
-0.25
 74
     0
  0
LTYPE
  5
9B
330
5
100
AcDbSymbolTableRecord
100
AcDbLinetypeTableRecord
  2
DOT2
 70
     0
  3
Dot (.5x) .....................................
 72
    65
 73
     2
 40
0.125
 49
0.0
 74
     0
 49
-0.125
 74
     0
  0
LTYPE
  5
9C
330
5
100
AcDbSymbolTableRecord
100
AcDbLinetypeTableRecord
  2
DOTX2
 70
     0
  3
Dot (2x) .  .  .  .  .  .  .  .  .  .  .  .  . 
 72
    65
 73
     2
 40
0.5
 49
0.0
 74
     0
 49
-0.5
 74
     0
  0
LTYPE
  5
9D
330
5
100
AcDbSymbolTableRecord
100
AcDbLinetypeTableRecord
  2
HIDDEN
 70
     0
  3
Hidden __ __ __ __ __ __ __ __ __ __ __ __ __ _
 72
    65
 73
     2
 40
0.375
 49
0.25
 74
     0
 49
-0.125
 74
     0
  0
LTYPE
  5
9E
330
5
100
AcDbSymbolTableRecord
100
AcDbLinetypeTableRecord
  2
HIDDEN2
 70
     0
  3
Hidden (.5x) _ _ _ _ _ _ _ _ _ _ _ _ _ _ _ _ _
 72
    65
 73
     2
 40
0.1875
 49
0.125
 74
     0
 49
-0.0625
 74
     0
  0
LTYPE
  5
9F
330
5
100
AcDbSymbolTableRecord
100
AcDbLinetypeTableRecord
  2
HIDDENX2
 70
     0
  3
Hidden (2x) ____ ____ ____ ____ ____ ____ ____
 72
    65
 73
     2
 40
0.75
 49
0.5
 74
     0
 49
-0.25
 74
     0
  0
LTYPE
  5
A0
330
5
100
AcDbSymbolTableRecord
100
AcDbLinetypeTableRecord
  2
PHANTOM
 70
     0
  3
Phantom ______  __  __  ______  __  __  ______
 72
    65
 73
     6
 40
2.5
 49
1.25
 74
     0
 49
-0.25
 74
     0
 49
0.25
 74
     0
 49
-0.25
 74
     0
 49
0.25
 74
     0
 49
-0.25
 74
     0
  0
LTYPE
  5
A1
330
5
100
AcDbSymbolTableRecord
100
AcDbLinetypeTableRecord
  2
PHANTOM2
 70
     0
  3
Phantom (.5x) ___ _ _ ___ _ _ ___ _ _ ___ _ _
 72
    65
 73
     6
 40
1.25
 49
0.625
 74
     0
 49
-0.125
 74
     0
 49
0.125
 74
     0
 49
-0.125
 74
     0
 49
0.125
 74
     0
 49
-0.125
 74
     0
  0
LTYPE
  5
A2
330
5
100
AcDbSymbolTableRecord
100
AcDbLinetypeTableRecord
  2
PHANTOMX2
 70
     0
  3
Phantom (2x) ____________    ____    ____   _
 72
    65
 73
     6
 40
5.0
 49
2.5
 74
     0
 49
-0.5
 74
     0
 49
0.5
 74
     0
 49
-0.5
 74
     0
 49
0.5
 74
     0
 49
-0.5
 74
     0
  0
LTYPE
  5
A3
330
5
100
AcDbSymbolTableRecord
100
AcDbLinetypeTableRecord
  2
ACAD_ISO02W100
 70
     0
  3
ISO dash __ __ __ __ __ __ __ __ __ __ __ __ __
 72
    65
 73
     2
 40
0.59
 49
0.47
 74
     0
 49
-0.12
 74
     0
  0
LTYPE
  5
A4
330
5
100
AcDbSymbolTableRecord
100
AcDbLinetypeTableRecord
  2
ACAD_ISO03W100
 70
     0
  3
ISO dash space __    __    __    __    __    __
 72
    65
 73
     2
 40
1.179999999999999
 49
0.47
 74
     0
 49
-0.71
 74
     0
  0
LTYPE
  5
A5
330
5
100
AcDbSymbolTableRecord
100
AcDbLinetypeTableRecord
  2
ACAD_ISO04W100
 70
     0
  3
ISO long-dash dot ____ . ____ . ____ . ____ . _
 72
    65
 73
     4
 40
1.179999999999999
 49
0.9399999999999998
 74
     0
 49
-0.12
 74
     0
 49
0.0
 74
     0
 49
-0.12
 74
     0
  0
LTYPE
  5
A6
330
5
100
AcDbSymbolTableRecord
100
AcDbLinetypeTableRecord
  2
ACAD_ISO05W100
 70
     0
  3
ISO long-dash double-dot ____ .. ____ .. ____ .
 72
    65
 73
     6
 40
1.299999999999999
 49
0.9399999999999998
 74
     0
 49
-0.12
 74
     0
 49
0.0
 74
     0
 49
-0.12
 74
     0
 49
0.0
 74
     0
 49
-0.12
 74
     0
  0
LTYPE
  5
A7
330
5
100
AcDbSymbolTableRecord
100
AcDbLinetypeTableRecord
  2
ACAD_ISO06W100
 70
     0
  3
ISO long-dash triple-dot ____ ... ____ ... ____
 72
    65
 73
     8
 40
1.419999999999999
 49
0.9399999999999998
 74
     0
 49
-0.12
 74
     0
 49
0.0
 74
     0
 49
-0.12
 74
     0
 49
0.0
 74
     0
 49
-0.12
 74
     0
 49
0.0
 74
     0
 49
-0.12
 74
     0
  0
LTYPE
  5
A8
330
5
100
AcDbSymbolTableRecord
100
AcDbLinetypeTableRecord
  2
ACAD_ISO07W100
 70
     0
  3
ISO dot . . . . . . . . . . . . . . . . . . . .
 72
    65
 73
     2
 40
0.12
 49
0.0
 74
     0
 49
-0.12
 74
     0
  0
LTYPE
  5
A9
330
5
100
AcDbSymbolTableRecord
100
AcDbLinetypeTableRecord
  2
ACAD_ISO08W100
 70
     0
  3
ISO long-dash short-dash ____ __ ____ __ ____ _
 72
    65
 73
     4
 40
0.95
 49
0.47
 74
     0
 49
-0.12
 74
     0
 49
0.24
 74
     0
 49
-0.12
 74
     0
  0
LTYPE
  5
AA
330
5
100
AcDbSymbolTableRecord
100
AcDbLinetypeTableRecord
  2
ACAD_ISO09W100
 70
     0
  3
ISO long-dash double-short-dash ____ __ __ ____
 72
    65
 73
     6
 40
1.31
 49
0.47
 74
     0
 49
-0.12
 74
     0
 49
0.24
 74
     0
 49
-0.12
 74
     0
 49
0.24
 74
     0
 49
-0.12
 74
     0
  0
LTYPE
  5
AB
330
5
100
AcDbSymbolTableRecord
100
AcDbLinetypeTableRecord
  2
ACAD_ISO10W100
 70
     0
  3
ISO dash dot __ . __ . __ . __ . __ . __ . __ .
 72
    65
 73
     4
 40
0.71
 49
0.47
 74
     0
 49
-0.12
 74
     0
 49
0.0
 74
     0
 49
-0.12
 74
     0
  0
LTYPE
  5
AC
330
5
100
AcDbSymbolTableRecord
100
AcDbLinetypeTableRecord
  2
ACAD_ISO11W100
 70
     0
  3
ISO double-dash dot __ __ . __ __ . __ __ . __ 
 72
    65
 73
     6
 40
1.299999999999999
 49
0.47
 74
     0
 49
-0.12
 74
     0
 49
0.47
 74
     0
 49
-0.12
 74
     0
 49
0.0
 74
     0
 49
-0.12
 74
     0
  0
LTYPE
  5
AD
330
5
100
AcDbSymbolTableRecord
100
AcDbLinetypeTableRecord
  2
ACAD_ISO12W100
 70
     0
  3
ISO dash double-dot __ . . __ . . __ . . __ . .
 72
    65
 73
     6
 40
0.8299999999999998
 49
0.47
 74
     0
 49
-0.12
 74
     0
 49
0.0
 74
     0
 49
-0.12
 74
     0
 49
0.0
 74
     0
 49
-0.12
 74
     0
  0
LTYPE
  5
AE
330
5
100
AcDbSymbolTableRecord
100
AcDbLinetypeTableRecord
  2
ACAD_ISO13W100
 70
     0
  3
ISO double-dash double-dot __ __ . . __ __ . . 
 72
    65
 73
     8
 40
1.419999999999999
 49
0.47
 74
     0
 49
-0.12
 74
     0
 49
0.47
 74
     0
 49
-0.12
 74
     0
 49
0.0
 74
     0
 49
-0.12
 74
     0
 49
0.0
 74
     0
 49
-0.12
 74
     0
  0
LTYPE
  5
AF
330
5
100
AcDbSymbolTableRecord
100
AcDbLinetypeTableRecord
  2
ACAD_ISO14W100
 70
     0
  3
ISO dash triple-dot __ . . . __ . . . __ . . . 
 72
    65
 73
     8
 40
0.95
 49
0.47
 74
     0
 49
-0.12
 74
     0
 49
0.0
 74
     0
 49
-0.12
 74
     0
 49
0.0
 74
     0
 49
-0.12
 74
     0
 49
0.0
 74
     0
 49
-0.12
 74
     0
  0
LTYPE
  5
B0
330
5
100
AcDbSymbolTableRecord
100
AcDbLinetypeTableRecord
  2
ACAD_ISO15W100
 70
     0
  3
ISO double-dash triple-dot __ __ . . . __ __ . 
 72
    65
 73
    10
 40
1.539999999999999
 49
0.47
 74
     0
 49
-0.12
 74
     0
 49
0.47
 74
     0
 49
-0.12
 74
     0
 49
0.0
 74
     0
 49
-0.12
 74
     0
 49
0.0
 74
     0
 49
-0.12
 74
     0
 49
0.0
 74
     0
 49
-0.12
 74
     0
  0
LTYPE
  5
B3
330
5
100
AcDbSymbolTableRecord
100
AcDbLinetypeTableRecord
  2
FENCELINE1
 70
     0
  3
Fenceline circle ----0-----0----0-----0----0---
 72
    65
 73
     4
 40
1.45
 49
0.25
 74
     0
 49
-0.1
 74
     4
 75
   133
340
B2
 46
0.1
 50
0.0
 44
-0.1
 45
0.0
 49
-0.1
 74
     0
 49
1.0
 74
     0
  0
LTYPE
  5
B4
330
5
100
AcDbSymbolTableRecord
100
AcDbLinetypeTableRecord
  2
FENCELINE2
 70
     0
  3
Fenceline square ----[]-----[]----[]-----[]----
 72
    65
 73
     4
 40
1.45
 49
0.25
 74
     0
 49
-0.1
 74
     4
 75
   132
340
B2
 46
0.1
 50
0.0
 44
-0.1
 45
0.0
 49
-0.1
 74
     0
 49
1.0
 74
     0
  0
LTYPE
  5
B5
330
5
100
AcDbSymbolTableRecord
100
AcDbLinetypeTableRecord
  2
TRACKS
 70
     0
  3
Tracks -|-|-|-|-|-|-|-|-|-|-|-|-|-|-|-|-|-|-|-|
 72
    65
 73
     2
 40
0.3
 49
0.15
 74
     4
 75
   130
340
B2
 46
0.25
 50
0.0
 44
0.0
 45
0.0
 49
0.15
 74
     0
  0
LTYPE
  5
B6
330
5
100
AcDbSymbolTableRecord
100
AcDbLinetypeTableRecord
  2
BATTING
 70
     0
  3
Batting SSSSSSSSSSSSSSSSSSSSSSSSSSSSSSSSSSSSSSS
 72
    65
 73
     4
 40
0.4001000000000001
 49
0.0001
 74
     0
 49
-0.1
 74
     4
 75
   134
340
B2
 46
0.1
 50
0.0
 44
-0.1
 45
0.0
 49
-0.2
 74
     4
 75
   134
340
B2
 46
0.1
 50
180.0
 44
0.1
 45
0.0
 49
-0.1
 74
     0
  0
LTYPE
  5
B7
330
5
100
AcDbSymbolTableRecord
100
AcDbLinetypeTableRecord
  2
HOT_WATER_SUPPLY
 70
     0
  3
Hot water supply ---- HW ---- HW ---- HW ----
 72
    65
 73
     3
 40
0.9
 49
0.5
 74
     0
 49
-0.2
 74
     2
 75
     0
340
55
 46
0.1
 50
0.0
 44
-0.1
 45
-0.05
  9
HW
 49
-0.2
 74
     0
  0
LTYPE
  5
B8
330
5
100
AcDbSymbolTableRecord
100
AcDbLinetypeTableRecord
  2
GAS_LINE
 70
     0
  3
Gas line ----GAS----GAS----GAS----GAS----GAS---
 72
    65
 73
     3
 40
0.95
 49
0.5
 74
     0
 49
-0.2
 74
     2
 75
     0
340
55
 46
0.1
 50
0.0
 44
-0.1
 45
-0.05
  9
GAS
 49
-0.25
 74
     0
  0
LTYPE
  5
B9
330
5
100
AcDbSymbolTableRecord
100
AcDbLinetypeTableRecord
  2
ZIGZAG
 70
     0
  3
Zig zag /\/\/\/\/\/\/\/\/\/\/\/\/\/\/\/\/\/\/\/
 72
    65
 73
     4
 40
0.8001000000000001
 49
0.0001
 74
     0
 49
-0.2
 74
     4
 75
   131
340
B2
 46
0.2
 50
0.0
 44
-0.2
 45
0.0
 49
-0.4
 74
     4
 75
   131
340
B2
 46
0.2
 50
180.0
 44
0.2
 45
0.0
 49
-0.2
 74
     0
  0
ENDTAB
  0
TABLE
  2
LAYER
  5
2
330
0
100
AcDbSymbolTable
 70
    27
  0
LAYER
  5
54
330
2
100
AcDbSymbolTableRecord
100
AcDbLayerTableRecord
  2
0
 70
     0
 62
     7
  6
Continuous
370
     0
390
F
  0
LAYER
  5
C0
330
2
100
AcDbSymbolTableRecord
100
AcDbLayerTableRecord
  2
Center Mark (ANSI)
 70
     0
 62
     7
  6
Continuous
370
     5
390
F
  0
LAYER
  5
C1
330
2
100
AcDbSymbolTableRecord
100
AcDbLayerTableRecord
  2
Centerline (ANSI)
 70
     0
 62
     7
  6
Continuous
370
     5
390
F
  0
LAYER
  5
C3
330
2
100
AcDbSymbolTableRecord
100
AcDbLayerTableRecord
  2
Dimension (ANSI)
 70
     0
 62
     7
  6
Continuous
370
     5
390
F
  0
LAYER
  5
C5
330
2
100
AcDbSymbolTableRecord
100
AcDbLayerTableRecord
  2
Hidden (ANSI)
 70
     0
 62
     7
  6
DASHED
370
     5
390
F
  0
LAYER
  5
CC
330
2
100
AcDbSymbolTableRecord
100
AcDbLayerTableRecord
  2
Symbol (ANSI)
 70
     0
 62
     7
  6
Continuous
370
     5
390
F
  0
LAYER
  5
CF
330
2
100
AcDbSymbolTableRecord
100
AcDbLayerTableRecord
  2
Visible (ANSI)
 70
     0
 62
     7
  6
Continuous
370
     5
390
F
  0
LAYER
  5
D0
330
2
100
AcDbSymbolTableRecord
100
AcDbLayerTableRecord
  2
Visible Narrow (ANSI)
 70
     0
 62
     7
  6
Continuous
370
     5
390
F
  0
LAYER
  5
1E3
330
2
100
AcDbSymbolTableRecord
100
AcDbLayerTableRecord
  2
Defpoints
 70
     0
 62
     7
  6
Continuous
290
     0
370
    -3
390
F
  0
ENDTAB
  0
TABLE
  2
STYLE
  5
3
330
0
100
AcDbSymbolTable
 70
    10
  0
STYLE
  5
55
330
3
100
AcDbSymbolTableRecord
100
AcDbTextStyleTableRecord
  2
Standard
 70
     0
 40
0.0
 41
1.0
 50
0.0
 71
     0
 42
0.2
  3
txt
  4

  0
STYLE
  5
5A
330
3
100
AcDbSymbolTableRecord
100
AcDbTextStyleTableRecord
  2
Annotative
 70
     0
 40
0.0
 41
1.0
 50
0.0
 71
     0
 42
0.2
  3
txt
  4

1001
AcadAnnotative
1000
AnnotativeData
1002
{
1070
     1
1070
     1
1002
}
  0
STYLE
  5
B2
330
3
100
AcDbSymbolTableRecord
100
AcDbTextStyleTableRecord
  2

 70
     1
 40
0.0
 41
1.0
 50
0.0
 71
     0
 42
0.2
  3
ltypeshp.shx
  4

  0
STYLE
  5
D4
330
3
100
AcDbSymbolTableRecord
100
AcDbTextStyleTableRecord
  2
ITALICC_120
 70
     0
 40
0.0
 41
1.0
 50
0.0
 71
     0
 42
0.2
  3
italicc.shx
  4

  0
STYLE
  5
D5
330
3
100
AcDbSymbolTableRecord
100
AcDbTextStyleTableRecord
  2
Label Text (ANSI)
 70
     0
 40
0.0
 41
1.0
 50
0.0
 71
     0
 42
0.2
  3
TAHOMA.TTF
  4

1001
ACAD
1000
Tahoma
1071
      256
  0
STYLE
  5
D6
330
3
100
AcDbSymbolTableRecord
100
AcDbTextStyleTableRecord
  2
Note Text (ANSI)
 70
     0
 40
0.0
 41
1.0
 50
0.0
 71
     0
 42
0.2
  3
RomanS.shx
  4

  0
STYLE
  5
D7
330
3
100
AcDbSymbolTableRecord
100
AcDbTextStyleTableRecord
  2
ROMANS
 70
     0
 40
0.0
 41
1.0
 50
0.0
 71
     0
 42
0.2
  3
romans.shx
  4

  0
STYLE
  5
D8
330
3
100
AcDbSymbolTableRecord
100
AcDbTextStyleTableRecord
  2
SANSSERIF_114
 70
     0
 40
0.0
 41
1.0
 50
0.0
 71
     0
 42
0.2
  3
TAHOMA.TTF
  4

1001
ACAD
1000
Tahoma
1071
      256
  0
STYLE
  5
D9
330
3
100
AcDbSymbolTableRecord
100
AcDbTextStyleTableRecord
  2
SANSSERIF_117
 70
     0
 40
0.0
 41
1.0
 50
0.0
 71
     0
 42
0.2
  3
TAHOMA.TTF
  4

1001
ACAD
1000
Tahoma
1071
      256
  0
STYLE
  5
143
330
3
100
AcDbSymbolTableRecord
100
AcDbTextStyleTableRecord
  2
Text Style168
 70
     0
 40
0.0
 41
1.0
 50
0.0
 71
     0
 42
0.2
  3
TAHOMA.TTF
  4

1001
ACAD
1000
Tahoma
1071
      256
  0
ENDTAB
  0
TABLE
  2
VIEW
  5
6
330
0
100
AcDbSymbolTable
 70
     0
  0
ENDTAB
  0
TABLE
  2
UCS
  5
7
330
0
100
AcDbSymbolTable
 70
     0
  0
ENDTAB
  0
TABLE
  2
APPID
  5
9
330
0
100
AcDbSymbolTable
 70
     4
  0
APPID
  5
56
330
9
100
AcDbSymbolTableRecord
100
AcDbRegAppTableRecord
  2
ACAD
 70
     0
  0
APPID
  5
5E
330
9
100
AcDbSymbolTableRecord
100
AcDbRegAppTableRecord
  2
AcadAnnotative
 70
     0
  0
APPID
  5
84D
330
9
100
AcDbSymbolTableRecord
100
AcDbRegAppTableRecord
  2
ACAD_DSTYLE_DIMRADIAL_EXTENSION
 70
     0
  0
APPID
  5
E70
330
9
100
AcDbSymbolTableRecord
100
AcDbRegAppTableRecord
  2
ACAD_MLEADERVER
 70
     0
  0
ENDTAB
  0
TABLE
  2
DIMSTYLE
  5
A
330
0
100
AcDbSymbolTable
 70
    15
100
AcDbDimStyleTable
 71
     2
340
E2
340
58
  0
DIMSTYLE
105
58
330
A
100
AcDbSymbolTableRecord
100
AcDbDimStyleTableRecord
  2
Standard
 70
     0
340
55
  0
DIMSTYLE
105
59
330
A
100
AcDbSymbolTableRecord
100
AcDbDimStyleTableRecord
  2
Annotative
 70
     0
340
55
1001
AcadAnnotative
1000
AnnotativeData
1002
{
1070
     1
1070
     1
1002
}
  0
DIMSTYLE
105
DA
330
A
100
AcDbSymbolTableRecord
100
AcDbDimStyleTableRecord
  2
Architectural (ANSI)
 70
     0
 40
4.444444444444444
 41
0.0984251946210861
 43
0.2362204724409449
 44
0.125
 45
0.00000001
 46
0.3937007874015748
 78
     3
 79
     3
140
0.1000000014901161
146
1.200000029802321
147
0.031496062992126
171
     1
176
   256
177
   256
178
   256
272
     2
274
     1
276
     2
277
     4
284
    12
285
     4
286
    12
340
D6
371
    -1
372
    -1
  0
DIMSTYLE
105
DB
330
A
100
AcDbSymbolTableRecord
100
AcDbDimStyleTableRecord
  2
Architectural (ANSI)$7
 70
     0
 40
4.444444444444444
 41
0.0984251946210861
 43
0.2362204724409449
 44
0.125
 45
0.00000001
 46
0.3937007874015748
 78
     3
 79
     3
140
0.1000000014901161
146
1.200000029802321
147
0.031496062992126
171
     1
176
   256
177
   256
178
   256
272
     2
274
     1
276
     2
277
     4
284
    12
285
     4
286
    12
340
D6
371
    -1
372
    -1
  0
DIMSTYLE
105
DC
330
A
100
AcDbSymbolTableRecord
100
AcDbDimStyleTableRecord
  2
Default - Fraction (ANSI)
 70
     0
 40
4.444444444444444
 41
0.0984251946210861
 43
0.2362204724409449
 44
0.125
 45
0.00000001
 46
0.3937007874015748
 79
     3
140
0.1000000014901161
146
1.200000029802321
147
0.031496062992126
171
     1
176
   256
177
   256
178
   256
272
     2
274
     1
276
     2
277
     5
284
    12
285
     4
286
    12
340
D6
371
    -1
372
    -1
  0
DIMSTYLE
105
DD
330
A
100
AcDbSymbolTableRecord
100
AcDbDimStyleTableRecord
  2
Default - Fraction (ANSI)$7
 70
     0
 40
4.444444444444444
 41
0.0984251946210861
 43
0.2362204724409449
 44
0.125
 45
0.00000001
 46
0.3937007874015748
 79
     3
140
0.1000000014901161
146
1.200000029802321
147
0.031496062992126
171
     1
176
   256
177
   256
178
   256
272
     2
274
     1
276
     2
277
     5
284
    12
285
     4
286
    12
340
D6
371
    -1
372
    -1
  0
DIMSTYLE
105
DE
330
A
100
AcDbSymbolTableRecord
100
AcDbDimStyleTableRecord
  2
Default - mm (ANSI)
 70
     0
 40
4.444444444444444
 41
0.0984251946210861
 42
0.063
 43
0.2362204724409449
 44
0.125
 45
0.00000001
 46
0.3937007874015748
 73
     0
 78
     4
 79
     1
140
0.1000000014901161
143
1.0
144
25.4
146
1.200000029802321
147
0.031496062992126
171
     1
176
   256
177
   256
178
   256
179
     1
271
     2
272
     2
274
     1
284
     4
285
     4
340
D6
371
    -1
372
    -1
  0
DIMSTYLE
105
DF
330
A
100
AcDbSymbolTableRecord
100
AcDbDimStyleTableRecord
  2
Default - mm (ANSI)$7
 70
     0
 40
4.444444444444444
 41
0.0984251946210861
 42
0.063
 43
0.2362204724409449
 44
0.125
 45
0.00000001
 46
0.3937007874015748
 73
     0
 78
     4
 79
     1
140
0.1000000014901161
143
1.0
144
25.4
146
1.200000029802321
147
0.031496062992126
171
     1
176
   256
177
   256
178
   256
179
     1
271
     2
272
     2
274
     1
284
     4
285
     4
340
D6
371
    -1
372
    -1
  0
DIMSTYLE
105
E0
330
A
100
AcDbSymbolTableRecord
100
AcDbDimStyleTableRecord
  2
Default - mm [in] (ANSI)
 70
     0
  4
 in
 40
4.444444444444444
 41
0.0984251946210861
 42
0.063
 43
0.25
 44
0.125
 45
0.00000001
 46
0.3937007874015748
 73
     0
 78
     4
 79
     1
140
0.1000000014901161
143
0.03937
144
25.4
146
1.200000029802321
147
0.031496062992126
170
     1
171
     3
176
   256
177
   256
178
   256
179
     1
271
     2
272
     2
274
     3
284
     4
285
     4
286
     4
340
D6
371
    -1
372
    -1
  0
DIMSTYLE
105
E1
330
A
100
AcDbSymbolTableRecord
100
AcDbDimStyleTableRecord
  2
Default - mm [in] (ANSI)$7
 70
     0
  4
 in
 40
4.444444444444444
 41
0.0984251946210861
 42
0.063
 43
0.25
 44
0.125
 45
0.00000001
 46
0.3937007874015748
 73
     0
 78
     4
 79
     1
140
0.1000000014901161
143
0.03937
144
25.4
146
1.200000029802321
147
0.031496062992126
170
     1
171
     3
176
   256
177
   256
178
   256
179
     1
271
     2
272
     2
274
     3
284
     4
285
     4
286
     4
340
D6
371
    -1
372
    -1
  0
DIMSTYLE
105
E2
102
{ACAD_REACTORS
330
1E1
330
2CE
330
3B8
330
4B6
330
5A0
330
69E
330
7B4
330
85E
330
907
330
A1D
330
B2F
330
C2D
330
D45
102
}
330
A
100
AcDbSymbolTableRecord
100
AcDbDimStyleTableRecord
  2
Default (ANSI)
 70
     0
 40
4.444444444444444
 41
0.0984251946210861
 43
0.2362204724409449
 44
0.125
 45
0.00000001
 46
0.3937007874015748
140
0.1000000014901161
147
0.031496062992126
176
   256
177
   256
178
   256
271
     2
272
     2
340
D7
371
    -1
372
    -1
  0
DIMSTYLE
105
E3
330
A
100
AcDbSymbolTableRecord
100
AcDbDimStyleTableRecord
  2
Default (ANSI)$7
 70
     0
 40
4.444444444444444
 41
0.0984251946210861
 43
0.2362204724409449
 44
0.125
 45
0.00000001
 46
0.3937007874015748
140
0.1000000014901161
147
0.031496062992126
176
   256
177
   256
178
   256
271
     2
272
     2
340
D7
371
    -1
372
    -1
  0
DIMSTYLE
105
E4
330
A
100
AcDbSymbolTableRecord
100
AcDbDimStyleTableRecord
  2
Alternate (ANSI)
 70
     0
 40
4.444444444444444
 41
0.0979999974370003
340
55
342
E5
  0
DIMSTYLE
105
F7
330
A
100
AcDbSymbolTableRecord
100
AcDbDimStyleTableRecord
  2
Datum (ANSI)
 70
     0
 40
4.444444444444444
 41
0.0979999974370003
340
55
342
E5
  0
DIMSTYLE
105
106
330
A
100
AcDbSymbolTableRecord
100
AcDbDimStyleTableRecord
  2
Large (ANSI)
 70
     0
 40
4.444444444444444
 41
0.1959999948740005
340
55
342
E5
  0
ENDTAB
  0
TABLE
  2
BLOCK_RECORD
  5
1
330
0
100
AcDbSymbolTable
 70
    17
  0
BLOCK_RECORD
  5
6C
330
1
100
AcDbSymbolTableRecord
100
AcDbBlockTableRecord
  2
*Model_Space
340
6F
  0
BLOCK_RECORD
  5
68
330
1
100
AcDbSymbolTableRecord
100
AcDbBlockTableRecord
  2
*Paper_Space
340
6B
  0
BLOCK_RECORD
  5
70
330
1
100
AcDbSymbolTableRecord
100
AcDbBlockTableRecord
  2
*Paper_Space0
340
73
  0
BLOCK_RECORD
  5
E5
330
1
100
AcDbSymbolTableRecord
100
AcDbBlockTableRecord
  2
_Closed
340
0
  0
BLOCK_RECORD
  5
EC
330
1
100
AcDbSymbolTableRecord
100
AcDbBlockTableRecord
  2
DatumFilled45
340
0
  0
BLOCK_RECORD
  5
F8
330
1
100
AcDbSymbolTableRecord
100
AcDbBlockTableRecord
  2
Filled-1
340
0
  0
BLOCK_RECORD
  5
1E4
330
1
100
AcDbSymbolTableRecord
100
AcDbBlockTableRecord
  2
*D4
340
0
  0
BLOCK_RECORD
  5
2CF
330
1
100
AcDbSymbolTableRecord
100
AcDbBlockTableRecord
  2
*D5
340
0
  0
BLOCK_RECORD
  5
3B9
330
1
100
AcDbSymbolTableRecord
100
AcDbBlockTableRecord
  2
*D6
340
0
  0
BLOCK_RECORD
  5
4B7
330
1
100
AcDbSymbolTableRecord
100
AcDbBlockTableRecord
  2
*D7
340
0
  0
BLOCK_RECORD
  5
5A1
330
1
100
AcDbSymbolTableRecord
100
AcDbBlockTableRecord
  2
*D8
340
0
  0
BLOCK_RECORD
  5
69F
330
1
100
AcDbSymbolTableRecord
100
AcDbBlockTableRecord
  2
*D9
340
0
  0
BLOCK_RECORD
  5
7B5
330
1
100
AcDbSymbolTableRecord
100
AcDbBlockTableRecord
  2
*D10
340
0
  0
BLOCK_RECORD
  5
85F
330
1
100
AcDbSymbolTableRecord
100
AcDbBlockTableRecord
  2
*D11
340
0
  0
BLOCK_RECORD
  5
908
330
1
100
AcDbSymbolTableRecord
100
AcDbBlockTableRecord
  2
*D12
340
0
  0
BLOCK_RECORD
  5
A1E
330
1
100
AcDbSymbolTableRecord
100
AcDbBlockTableRecord
  2
*D13
340
0
  0
BLOCK_RECORD
  5
B30
330
1
100
AcDbSymbolTableRecord
100
AcDbBlockTableRecord
  2
*D14
340
0
  0
BLOCK_RECORD
  5
C2E
330
1
100
AcDbSymbolTableRecord
100
AcDbBlockTableRecord
  2
*D15
340
0
  0
BLOCK_RECORD
  5
D46
330
1
100
AcDbSymbolTableRecord
100
AcDbBlockTableRecord
  2
*D16
340
0
  0
ENDTAB
  0
ENDSEC
  0
SECTION
  2
BLOCKS
  0
BLOCK
  5
6D
330
6C
100
AcDbEntity
  8
0
100
AcDbBlockBegin
  2
*Model_Space
 70
     0
 10
0.0
 20
0.0
 30
0.0
  3
*Model_Space
  1

  0
ENDBLK
  5
6E
330
6C
100
AcDbEntity
  8
0
100
AcDbBlockEnd
  0
BLOCK
  5
69
330
68
100
AcDbEntity
 67
     1
  8
0
100
AcDbBlockBegin
  2
*Paper_Space
 70
     0
 10
0.0
 20
0.0
 30
0.0
  3
*Paper_Space
  1

  0
ENDBLK
  5
6A
330
68
100
AcDbEntity
 67
     1
  8
0
100
AcDbBlockEnd
  0
BLOCK
  5
71
330
70
100
AcDbEntity
 67
     1
  8
0
100
AcDbBlockBegin
  2
*Paper_Space0
 70
     0
 10
0.0
 20
0.0
 30
0.0
  3
*Paper_Space0
  1

  0
ENDBLK
  5
72
330
70
100
AcDbEntity
 67
     1
  8
0
100
AcDbBlockEnd
  0
BLOCK
  5
EA
330
E5
100
AcDbEntity
  8
0
100
AcDbBlockBegin
  2
_Closed
 70
     0
 10
0.0
 20
0.0
 30
0.0
  3
_Closed
  1

  0
LINE
  5
E6
330
E5
100
AcDbEntity
  8
0
  6
ByBlock
 62
     0
370
    -2
100
AcDbLine
 10
-1.0
 20
0.1666666666666666
 30
0.0
 11
0.0
 21
0.0
 31
0.0
  0
LINE
  5
E7
330
E5
100
AcDbEntity
  8
0
  6
ByBlock
 62
     0
370
    -2
100
AcDbLine
 10
0.0
 20
0.0
 30
0.0
 11
-1.0
 21
-0.1666666666666666
 31
0.0
  0
LINE
  5
E8
330
E5
100
AcDbEntity
  8
0
  6
ByBlock
 62
     0
370
    -2
100
AcDbLine
 10
-1.0
 20
0.1666666666666666
 30
0.0
 11
-1.0
 21
-0.1666666666666666
 31
0.0
  0
LINE
  5
E9
330
E5
100
AcDbEntity
  8
0
  6
ByBlock
 62
     0
370
    -2
100
AcDbLine
 10
0.0
 20
0.0
 30
0.0
 11
-1.0
 21
0.0
 31
0.0
  0
ENDBLK
  5
EB
330
E5
100
AcDbEntity
  8
0
100
AcDbBlockEnd
  0
BLOCK
  5
ED
330
EC
100
AcDbEntity
  8
0
100
AcDbBlockBegin
  2
DatumFilled45
 70
     0
 10
0.0
 20
0.0
 30
0.0
  3
DatumFilled45
  1

  0
POLYLINE
  5
EF
330
EC
100
AcDbEntity
  8
0
 62
     0
100
AcDb2dPolyline
 66
     1
 10
0.0
 20
0.0
 30
0.0
 70
   128
  0
VERTEX
  5
F0
330
EF
100
AcDbEntity
  8
0
 62
     0
100
AcDbVertex
100
AcDb2dVertex
 10
0.0
 20
0.9999999999999998
 30
0.0
  0
VERTEX
  5
F1
330
EF
100
AcDbEntity
  8
0
 62
     0
100
AcDbVertex
100
AcDb2dVertex
 10
0.0
 20
-0.9999999999999998
 30
0.0
  0
VERTEX
  5
F3
330
EF
100
AcDbEntity
  8
0
 62
     0
100
AcDbVertex
100
AcDb2dVertex
 10
-0.9999999999999998
 20
0.0
 30
0.0
  0
VERTEX
  5
F4
330
EF
100
AcDbEntity
  8
0
 62
     0
100
AcDbVertex
100
AcDb2dVertex
 10
0.0
 20
0.9999999999999998
 30
0.0
  0
SEQEND
  5
F2
330
EF
100
AcDbEntity
  8
0
 62
     0
  0
SOLID
  5
F6
330
EC
100
AcDbEntity
  8
0
 62
     0
100
AcDbTrace
 10
0.0
 20
0.9999999999999998
 30
0.0
 11
0.0
 21
-0.9999999999999998
 31
0.0
 12
-0.9999999999999998
 22
0.0
 32
0.0
 13
0.0
 23
0.9999999999999998
 33
0.0
  0
ENDBLK
  5
EE
330
EC
100
AcDbEntity
  8
0
100
AcDbBlockEnd
  0
BLOCK
  5
F9
330
F8
100
AcDbEntity
  8
0
100
AcDbBlockBegin
  2
Filled-1
 70
     0
 10
0.0
 20
0.0
 30
0.0
  3
Filled-1
  1

  0
LINE
  5
FB
330
F8
100
AcDbEntity
  8
0
 62
     0
100
AcDbLine
 10
-0.9999999999999998
 20
0.0
 30
0.0
 11
0.0
 21
0.0
 31
0.0
  0
POLYLINE
  5
FC
330
F8
100
AcDbEntity
  8
0
 62
     0
100
AcDb2dPolyline
 66
     1
 10
0.0
 20
0.0
 30
0.0
 70
   128
  0
VERTEX
  5
FD
330
FC
100
AcDbEntity
  8
0
 62
     0
100
AcDbVertex
100
AcDb2dVertex
 10
-0.9999999999999998
 20
-0.0994897959183674
 30
0.0
  0
VERTEX
  5
FE
330
FC
100
AcDbEntity
  8
0
 62
     0
100
AcDbVertex
100
AcDb2dVertex
 10
0.0
 20
0.0
 30
0.0
  0
VERTEX
  5
100
330
FC
100
AcDbEntity
  8
0
 62
     0
100
AcDbVertex
100
AcDb2dVertex
 10
-0.9999999999999998
 20
0.0994897959183674
 30
0.0
  0
VERTEX
  5
101
330
FC
100
AcDbEntity
  8
0
 62
     0
100
AcDbVertex
100
AcDb2dVertex
 10
-0.9999999999999998
 20
-0.0994897959183674
 30
0.0
  0
SEQEND
  5
FF
330
FC
100
AcDbEntity
  8
0
 62
     0
  0
SOLID
  5
102
330
F8
100
AcDbEntity
  8
0
 62
     0
100
AcDbTrace
 10
-0.9999999999999998
 20
-0.0994897959183674
 30
0.0
 11
0.0
 21
0.0
 31
0.0
 12
-0.9999999999999998
 22
0.0994897959183674
 32
0.0
 13
-0.9999999999999998
 23
-0.0994897959183674
 33
0.0
  0
LINE
  5
103
330
F8
100
AcDbEntity
  8
0
 62
     0
100
AcDbLine
 10
-0.9999999999999998
 20
-0.0994897959183674
 30
0.0
 11
0.0
 21
0.0
 31
0.0
  0
LINE
  5
104
330
F8
100
AcDbEntity
  8
0
 62
     0
100
AcDbLine
 10
0.0
 20
0.0
 30
0.0
 11
-0.9999999999999998
 21
0.0994897959183674
 31
0.0
  0
LINE
  5
105
330
F8
100
AcDbEntity
  8
0
 62
     0
100
AcDbLine
 10
-0.9999999999999998
 20
0.0994897959183674
 30
0.0
 11
-0.9999999999999998
 21
-0.0994897959183674
 31
0.0
  0
ENDBLK
  5
FA
330
F8
100
AcDbEntity
  8
0
100
AcDbBlockEnd
  0
BLOCK
  5
1E5
330
1E4
100
AcDbEntity
  8
0
100
AcDbBlockBegin
  2
*D4
 70
     1
 10
0.0
 20
0.0
 30
0.0
  3
*D4
  1

  0
LINE
  5
2C4
330
1E4
100
AcDbEntity
  8
Dimension (ANSI)
100
AcDbLine
 10
9.331222964503803
 20
38.18171501582263
 30
0.0
 11
9.331222964503803
 21
44.40874913655754
 31
0.0
  0
LINE
  5
2C5
330
1E4
100
AcDbEntity
  8
Dimension (ANSI)
100
AcDbLine
 10
37.5312229645038
 20
38.18171501582265
 30
0.0
 11
37.5312229645038
 21
44.40874913655754
 31
0.0
  0
LINE
  5
2C6
330
1E4
100
AcDbEntity
  8
Dimension (ANSI)
100
AcDbLine
 10
9.768668273930853
 20
43.85319358100199
 30
0.0
 11
22.40235156018221
 21
43.85319358100199
 31
0.0
  0
LINE
  5
2C7
330
1E4
100
AcDbEntity
  8
Dimension (ANSI)
100
AcDbLine
 10
37.09377765507676
 20
43.85319358100199
 30
0.0
 11
24.4600943688254
 21
43.85319358100199
 31
0.0
  0
SOLID
  5
2C8
330
1E4
100
AcDbEntity
  8
Dimension (ANSI)
100
AcDbTrace
 10
9.768668273930853
 20
43.92610113257316
 30
0.0
 11
9.768668273930853
 21
43.78028602943081
 31
0.0
 12
9.331222964503803
 22
43.85319358100199
 32
0.0
 13
9.331222964503803
 23
43.85319358100199
 33
0.0
  0
SOLID
  5
2C9
330
1E4
100
AcDbEntity
  8
Dimension (ANSI)
100
AcDbTrace
 10
37.09377765507676
 20
43.92610113257316
 30
0.0
 11
37.09377765507676
 21
43.78028602943081
 31
0.0
 12
37.5312229645038
 22
43.85319358100199
 32
0.0
 13
37.5312229645038
 23
43.85319358100199
 33
0.0
  0
MTEXT
  5
2CA
330
1E4
100
AcDbEntity
  8
Dimension (ANSI)
100
AcDbMText
 10
22.54233406236944
 20
44.07541580653558
 30
0.0
 40
0.4444444510671828
 41
0.0
 71
     1
 72
     1
  1
\A1;28.20
  7
ROMANS
 73
     1
 44
1.0
1001
ACAD
1000
MTEXTBEGIN
1070
    73
1070
     1
1070
    44
1040
1.0
1070
    74
1070
     0
1000
MTEXTEND
  0
POINT
  5
2CB
330
1E4
100
AcDbEntity
  8
Defpoints
 62
     0
100
AcDbPoint
 10
9.331222964503803
 20
37.90393723804486
 30
0.0
  0
POINT
  5
2CC
330
1E4
100
AcDbEntity
  8
Defpoints
 62
     0
100
AcDbPoint
 10
37.5312229645038
 20
37.90393723804487
 30
0.0
  0
POINT
  5
2CD
330
1E4
100
AcDbEntity
  8
Defpoints
 62
     0
100
AcDbPoint
 10
37.5312229645038
 20
43.85319358100199
 30
0.0
  0
ENDBLK
  5
1E6
330
1E4
100
AcDbEntity
  8
0
100
AcDbBlockEnd
  0
BLOCK
  5
2D0
330
2CF
100
AcDbEntity
  8
0
100
AcDbBlockBegin
  2
*D5
 70
     1
 10
0.0
 20
0.0
 30
0.0
  3
*D5
  1

  0
LINE
  5
3AE
330
2CF
100
AcDbEntity
  8
Dimension (ANSI)
100
AcDbLine
 10
9.831222964503803
 20
38.68171501582263
 30
0.0
 11
9.831222964503803
 21
42.80901160374914
 31
0.0
  0
LINE
  5
3AF
330
2CF
100
AcDbEntity
  8
Dimension (ANSI)
100
AcDbLine
 10
37.03122296450381
 20
38.68171501582264
 30
0.0
 11
37.03122296450381
 21
42.80901160374914
 31
0.0
  0
LINE
  5
3B0
330
2CF
100
AcDbEntity
  8
Dimension (ANSI)
100
AcDbLine
 10
10.26866827393085
 20
42.25345604819358
 30
0.0
 11
21.50288064730815
 21
42.25345604819358
 31
0.0
  0
LINE
  5
3B1
330
2CF
100
AcDbEntity
  8
Dimension (ANSI)
100
AcDbLine
 10
36.59377765507676
 20
42.25345604819358
 30
0.0
 11
25.35956528169946
 21
42.25345604819358
 31
0.0
  0
SOLID
  5
3B2
330
2CF
100
AcDbEntity
  8
Dimension (ANSI)
100
AcDbTrace
 10
10.26866827393085
 20
42.32636359976476
 30
0.0
 11
10.26866827393085
 21
42.1805484966224
 31
0.0
 12
9.831222964503803
 22
42.25345604819358
 32
0.0
 13
9.831222964503803
 23
42.25345604819358
 33
0.0
  0
SOLID
  5
3B3
330
2CF
100
AcDbEntity
  8
Dimension (ANSI)
100
AcDbTrace
 10
36.59377765507676
 20
42.32636359976476
 30
0.0
 11
36.59377765507676
 21
42.1805484966224
 31
0.0
 12
37.03122296450381
 22
42.25345604819358
 32
0.0
 13
37.03122296450381
 23
42.25345604819358
 33
0.0
  0
MTEXT
  5
3B4
330
2CF
100
AcDbEntity
  8
Dimension (ANSI)
100
AcDbMText
 10
23.4312229645038
 20
42.25345604819358
 30
0.0
 40
0.4444444510671828
 41
0.0
 71
     5
 72
     1
  1
\A1;27.20{ TYP.}
  7
ROMANS
 73
     1
 44
1.0
1001
ACAD
1000
MTEXTBEGIN
1070
    73
1070
     1
1070
    44
1040
1.0
1070
    74
1070
     0
1000
MTEXTEND
  0
POINT
  5
3B5
330
2CF
100
AcDbEntity
  8
Defpoints
 62
     0
100
AcDbPoint
 10
9.831222964503803
 20
38.40393723804485
 30
0.0
  0
POINT
  5
3B6
330
2CF
100
AcDbEntity
  8
Defpoints
 62
     0
100
AcDbPoint
 10
37.03122296450381
 20
38.40393723804486
 30
0.0
  0
POINT
  5
3B7
330
2CF
100
AcDbEntity
  8
Defpoints
 62
     0
100
AcDbPoint
 10
37.03122296450381
 20
42.25345604819358
 30
0.0
  0
ENDBLK
  5
2D1
330
2CF
100
AcDbEntity
  8
0
100
AcDbBlockEnd
  0
BLOCK
  5
3BA
330
3B9
100
AcDbEntity
  8
0
100
AcDbBlockBegin
  2
*D6
 70
     1
 10
0.0
 20
0.0
 30
0.0
  3
*D6
  1

  0
LINE
  5
4AC
330
3B9
100
AcDbEntity
  8
Dimension (ANSI)
100
AcDbLine
 10
9.331222964503803
 20
38.18171501582263
 30
0.0
 11
9.331222964503803
 21
42.80901160374914
 31
0.0
  0
LINE
  5
4AD
330
3B9
100
AcDbEntity
  8
Dimension (ANSI)
100
AcDbLine
 10
9.831222964503803
 20
38.68171501582263
 30
0.0
 11
9.831222964503803
 21
42.80901160374914
 31
0.0
  0
LINE
  5
4AE
330
3B9
100
AcDbEntity
  8
Dimension (ANSI)
100
AcDbLine
 10
10.26866827393085
 20
42.25345604819358
 30
0.0
 11
10.7061135833579
 21
42.25345604819358
 31
0.0
  0
LINE
  5
4AF
330
3B9
100
AcDbEntity
  8
Dimension (ANSI)
100
AcDbLine
 10
8.893777655076753
 20
42.25345604819358
 30
0.0
 11
8.456332345649704
 21
42.25345604819358
 31
0.0
  0
SOLID
  5
4B0
330
3B9
100
AcDbEntity
  8
Dimension (ANSI)
100
AcDbTrace
 10
10.26866827393085
 20
42.32636359976476
 30
0.0
 11
10.26866827393085
 21
42.1805484966224
 31
0.0
 12
9.831222964503803
 22
42.25345604819358
 32
0.0
 13
9.831222964503803
 23
42.25345604819358
 33
0.0
  0
SOLID
  5
4B1
330
3B9
100
AcDbEntity
  8
Dimension (ANSI)
100
AcDbTrace
 10
8.893777655076753
 20
42.32636359976476
 30
0.0
 11
8.893777655076753
 21
42.1805484966224
 31
0.0
 12
9.331222964503803
 22
42.25345604819358
 32
0.0
 13
9.331222964503803
 23
42.25345604819358
 33
0.0
  0
MTEXT
  5
4B2
330
3B9
100
AcDbEntity
  8
Dimension (ANSI)
100
AcDbMText
 10
7.639101156122008
 20
42.25345604819358
 30
0.0
 40
0.4444444510671828
 41
0.0
 71
     5
 72
     1
  1
\A1;0.50{\PTYP.}
  7
ROMANS
 73
     1
 44
1.0
1001
ACAD
1000
MTEXTBEGIN
1070
    73
1070
     1
1070
    44
1040
1.0
1070
    74
1070
     0
1000
MTEXTEND
  0
POINT
  5
4B3
330
3B9
100
AcDbEntity
  8
Defpoints
 62
     0
100
AcDbPoint
 10
9.331222964503803
 20
37.90393723804486
 30
0.0
  0
POINT
  5
4B4
330
3B9
100
AcDbEntity
  8
Defpoints
 62
     0
100
AcDbPoint
 10
9.831222964503803
 20
38.40393723804485
 30
0.0
  0
POINT
  5
4B5
330
3B9
100
AcDbEntity
  8
Defpoints
 62
     0
100
AcDbPoint
 10
9.831222964503803
 20
42.25345604819358
 30
0.0
  0
ENDBLK
  5
3BB
330
3B9
100
AcDbEntity
  8
0
100
AcDbBlockEnd
  0
BLOCK
  5
4B8
330
4B7
100
AcDbEntity
  8
0
100
AcDbBlockBegin
  2
*D7
 70
     1
 10
0.0
 20
0.0
 30
0.0
  3
*D7
  1

  0
LINE
  5
596
330
4B7
100
AcDbEntity
  8
Dimension (ANSI)
100
AcDbLine
 10
9.553445186726024
 20
38.40393723804485
 30
0.0
 11
3.639529820883617
 21
38.40393723804485
 31
0.0
  0
LINE
  5
597
330
4B7
100
AcDbEntity
  8
Dimension (ANSI)
100
AcDbLine
 10
9.55344518672603
 20
10.20393723804486
 30
0.0
 11
3.63952982088361
 21
10.20393723804486
 31
0.0
  0
LINE
  5
598
330
4B7
100
AcDbEntity
  8
Dimension (ANSI)
100
AcDbLine
 10
4.195085376439172
 20
37.96649192861781
 30
0.0
 11
4.195085376439169
 21
24.66614196576567
 31
0.0
  0
LINE
  5
599
330
4B7
100
AcDbEntity
  8
Dimension (ANSI)
100
AcDbLine
 10
4.195085376439166
 20
10.64138254747191
 30
0.0
 11
4.195085376439169
 21
23.94173251032404
 31
0.0
  0
SOLID
  5
59A
330
4B7
100
AcDbEntity
  8
Dimension (ANSI)
100
AcDbTrace
 10
4.122177824867996
 20
37.96649192861781
 30
0.0
 11
4.267992928010347
 21
37.96649192861781
 31
0.0
 12
4.195085376439172
 22
38.40393723804485
 32
0.0
 13
4.195085376439172
 23
38.40393723804485
 33
0.0
  0
SOLID
  5
59B
330
4B7
100
AcDbEntity
  8
Dimension (ANSI)
100
AcDbTrace
 10
4.122177824867991
 20
10.64138254747191
 30
0.0
 11
4.267992928010341
 21
10.64138254747191
 31
0.0
 12
4.195085376439166
 22
10.20393723804486
 32
0.0
 13
4.195085376439166
 23
10.20393723804486
 33
0.0
  0
MTEXT
  5
59C
330
4B7
100
AcDbEntity
  8
Dimension (ANSI)
100
AcDbMText
 10
3.3061964743048
 20
24.52615946357845
 30
0.0
 40
0.4444444510671828
 41
0.0
 71
     1
 72
     1
  1
\A1;28.20
  7
ROMANS
 73
     1
 44
1.0
1001
ACAD
1000
MTEXTBEGIN
1070
    73
1070
     1
1070
    44
1040
1.0
1070
    74
1070
     0
1000
MTEXTEND
  0
POINT
  5
59D
330
4B7
100
AcDbEntity
  8
Defpoints
 62
     0
100
AcDbPoint
 10
9.831222964503803
 20
38.40393723804485
 30
0.0
  0
POINT
  5
59E
330
4B7
100
AcDbEntity
  8
Defpoints
 62
     0
100
AcDbPoint
 10
9.831222964503808
 20
10.20393723804486
 30
0.0
  0
POINT
  5
59F
330
4B7
100
AcDbEntity
  8
Defpoints
 62
     0
100
AcDbPoint
 10
4.195085376439166
 20
10.20393723804486
 30
0.0
  0
ENDBLK
  5
4B9
330
4B7
100
AcDbEntity
  8
0
100
AcDbBlockEnd
  0
BLOCK
  5
5A2
330
5A1
100
AcDbEntity
  8
0
100
AcDbBlockBegin
  2
*D8
 70
     1
 10
0.0
 20
0.0
 30
0.0
  3
*D8
  1

  0
LINE
  5
694
330
5A1
100
AcDbEntity
  8
Dimension (ANSI)
100
AcDbLine
 10
9.05344518672603
 20
10.70393723804485
 30
0.0
 11
7.183581172029374
 21
10.70393723804485
 31
0.0
  0
LINE
  5
695
330
5A1
100
AcDbEntity
  8
Dimension (ANSI)
100
AcDbLine
 10
9.053445186726024
 20
37.90393723804486
 30
0.0
 11
7.18358117202938
 21
37.90393723804486
 31
0.0
  0
LINE
  5
696
330
5A1
100
AcDbEntity
  8
Dimension (ANSI)
100
AcDbLine
 10
7.73913672758493
 20
11.1413825474719
 30
0.0
 11
7.739136727584932
 21
23.57136213443472
 31
0.0
  0
LINE
  5
697
330
5A1
100
AcDbEntity
  8
Dimension (ANSI)
100
AcDbLine
 10
7.739136727584935
 20
37.46649192861781
 30
0.0
 11
7.739136727584932
 21
25.03651234165499
 31
0.0
  0
SOLID
  5
698
330
5A1
100
AcDbEntity
  8
Dimension (ANSI)
100
AcDbTrace
 10
7.666229176013755
 20
11.1413825474719
 30
0.0
 11
7.812044279156105
 21
11.1413825474719
 31
0.0
 12
7.73913672758493
 22
10.70393723804485
 32
0.0
 13
7.73913672758493
 23
10.70393723804485
 33
0.0
  0
SOLID
  5
699
330
5A1
100
AcDbEntity
  8
Dimension (ANSI)
100
AcDbTrace
 10
7.66622917601376
 20
37.46649192861781
 30
0.0
 11
7.81204427915611
 21
37.46649192861781
 31
0.0
 12
7.739136727584935
 22
37.90393723804486
 32
0.0
 13
7.739136727584935
 23
37.90393723804486
 33
0.0
  0
MTEXT
  5
69A
330
5A1
100
AcDbEntity
  8
Dimension (ANSI)
100
AcDbMText
 10
7.739136727584929
 20
24.30393723804486
 30
0.0
 40
0.4444444510671828
 41
0.0
 71
     5
 72
     1
  1
\A1;27.20{\PTYP.}
  7
ROMANS
 73
     1
 44
1.0
1001
ACAD
1000
MTEXTBEGIN
1070
    73
1070
     1
1070
    44
1040
1.0
1070
    74
1070
     0
1000
MTEXTEND
  0
POINT
  5
69B
330
5A1
100
AcDbEntity
  8
Defpoints
 62
     0
100
AcDbPoint
 10
9.331222964503808
 20
10.70393723804485
 30
0.0
  0
POINT
  5
69C
330
5A1
100
AcDbEntity
  8
Defpoints
 62
     0
100
AcDbPoint
 10
9.331222964503803
 20
37.90393723804486
 30
0.0
  0
POINT
  5
69D
330
5A1
100
AcDbEntity
  8
Defpoints
 62
     0
100
AcDbPoint
 10
7.739136727584935
 20
37.90393723804486
 30
0.0
  0
ENDBLK
  5
5A3
330
5A1
100
AcDbEntity
  8
0
100
AcDbBlockEnd
  0
BLOCK
  5
6A0
330
69F
100
AcDbEntity
  8
0
100
AcDbBlockBegin
  2
*D9
 70
     1
 10
0.0
 20
0.0
 30
0.0
  3
*D9
  1

  0
LINE
  5
7A9
330
69F
100
AcDbEntity
  8
Dimension (ANSI)
100
AcDbLine
 10
9.553445186726024
 20
38.40393723804485
 30
0.0
 11
5.946187760387213
 21
38.40393723804485
 31
0.0
  0
LINE
  5
7AA
330
69F
100
AcDbEntity
  8
Dimension (ANSI)
100
AcDbLine
 10
9.053445186726024
 20
37.90393723804486
 30
0.0
 11
5.946187760387212
 21
37.90393723804486
 31
0.0
  0
LINE
  5
7AB
330
69F
100
AcDbEntity
  8
Dimension (ANSI)
100
AcDbLine
 10
6.501743315942768
 20
37.46649192861781
 30
0.0
 11
6.501743315942768
 21
37.02904661919076
 31
0.0
  0
LINE
  5
7AC
330
69F
100
AcDbEntity
  8
Dimension (ANSI)
100
AcDbLine
 10
6.501743315942769
 20
38.8413825474719
 30
0.0
 11
6.501743315942769
 21
40.11463149548899
 31
0.0
  0
LINE
  5
7AD
330
69F
100
AcDbEntity
  8
Dimension (ANSI)
100
AcDbLine
 10
6.501743315942769
 20
40.11463149548899
 30
0.0
 11
6.939188625369818
 21
40.11463149548899
 31
0.0
  0
SOLID
  5
7AE
330
69F
100
AcDbEntity
  8
Dimension (ANSI)
100
AcDbTrace
 10
6.428835764371592
 20
37.46649192861781
 30
0.0
 11
6.574650867513943
 21
37.46649192861781
 31
0.0
 12
6.501743315942768
 22
37.90393723804486
 32
0.0
 13
6.501743315942768
 23
37.90393723804486
 33
0.0
  0
SOLID
  5
7AF
330
69F
100
AcDbEntity
  8
Dimension (ANSI)
100
AcDbTrace
 10
6.428835764371593
 20
38.8413825474719
 30
0.0
 11
6.574650867513944
 21
38.8413825474719
 31
0.0
 12
6.501743315942769
 22
38.40393723804485
 32
0.0
 13
6.501743315942769
 23
38.40393723804485
 33
0.0
  0
MTEXT
  5
7B0
330
69F
100
AcDbEntity
  8
Dimension (ANSI)
100
AcDbMText
 10
7.756419814897507
 20
40.11463149548899
 30
0.0
 40
0.4444444510671828
 41
0.0
 71
     5
 72
     1
  1
\A1;0.50{\PTYP.}
  7
ROMANS
 73
     1
 44
1.0
1001
ACAD
1000
MTEXTBEGIN
1070
    73
1070
     1
1070
    44
1040
1.0
1070
    74
1070
     0
1000
MTEXTEND
  0
POINT
  5
7B1
330
69F
100
AcDbEntity
  8
Defpoints
 62
     0
100
AcDbPoint
 10
9.831222964503803
 20
38.40393723804485
 30
0.0
  0
POINT
  5
7B2
330
69F
100
AcDbEntity
  8
Defpoints
 62
     0
100
AcDbPoint
 10
9.331222964503803
 20
37.90393723804486
 30
0.0
  0
POINT
  5
7B3
330
69F
100
AcDbEntity
  8
Defpoints
 62
     0
100
AcDbPoint
 10
6.501743315942768
 20
37.90393723804486
 30
0.0
  0
ENDBLK
  5
6A1
330
69F
100
AcDbEntity
  8
0
100
AcDbBlockEnd
  0
BLOCK
  5
7B6
330
7B5
100
AcDbEntity
  8
0
100
AcDbBlockBegin
  2
*D10
 70
     1
 10
0.0
 20
0.0
 30
0.0
  3
*D10
  1

  0
LINE
  5
856
330
7B5
100
AcDbEntity
  8
Dimension (ANSI)
100
AcDbLine
 10
13.18060057966613
 20
8.110057429803029
 30
0.0
 11
12.46510277274638
 21
8.110057429803028
 31
0.0
  0
LINE
  5
857
330
7B5
100
AcDbEntity
  8
Dimension (ANSI)
100
AcDbLine
 10
12.46510277274638
 20
8.110057429803028
 30
0.0
 11
10.33732020449463
 21
10.23783999805418
 31
0.0
  0
MTEXT
  5
858
102
{ACAD_XDICTIONARY
360
E77
102
}
330
7B5
100
AcDbEntity
  8
Dimension (ANSI)
100
AcDbMText
 10
13.32058308185335
 20
8.448681773473262
 30
0.0
 40
0.4444444510671828
 41
0.0
 71
     1
 72
     1
  1
\A1;\U+22050.50{ TYP. (4 PL.)}
  7
ROMANS
 73
     1
 44
1.0
1001
ACAD
1000
MTEXTBEGIN
1070
    73
1070
     1
1070
    44
1040
1.0
1070
    74
1070
     0
1000
MTEXTEND
  0
SOLID
  5
859
330
7B5
100
AcDbEntity
  8
Dimension (ANSI)
100
AcDbTrace
 10
10.38887362861031
 20
10.28939342216987
 30
0.0
 11
10.28576678037895
 21
10.18628657393849
 31
0.0
 12
10.02799965980047
 22
10.54716054274825
 32
0.0
 13
10.02799965980047
 23
10.54716054274825
 33
0.0
  0
LINE
  5
85A
330
7B5
100
AcDbEntity
  8
Dimension (ANSI)
100
AcDbLine
 10
9.451222964503807
 20
10.72393723804486
 30
0.0
 11
10.2512229645038
 21
10.72393723804486
 31
0.0
  0
LINE
  5
85B
330
7B5
100
AcDbEntity
  8
Dimension (ANSI)
100
AcDbLine
 10
9.851222964503808
 20
10.32393723804486
 30
0.0
 11
9.851222964503808
 21
11.12393723804486
 31
0.0
  0
POINT
  5
85C
330
7B5
100
AcDbEntity
  8
Defpoints
 62
     0
100
AcDbPoint
 10
10.02799965980047
 20
10.54716054274825
 30
0.0
  0
POINT
  5
85D
330
7B5
100
AcDbEntity
  8
Defpoints
 62
     0
100
AcDbPoint
 10
9.674446269207146
 20
10.90071393334147
 30
0.0
  0
ENDBLK
  5
7B7
330
7B5
100
AcDbEntity
  8
0
100
AcDbBlockEnd
  0
BLOCK
  5
860
330
85F
100
AcDbEntity
  8
0
100
AcDbBlockBegin
  2
*D11
 70
     1
 10
0.0
 20
0.0
 30
0.0
  3
*D11
  1

  0
LINE
  5
8FF
330
85F
100
AcDbEntity
  8
Dimension (ANSI)
100
AcDbLine
 10
13.11754106434791
 20
8.923116945121222
 30
0.0
 11
12.40204325742823
 21
8.92311694512122
 31
0.0
  0
LINE
  5
900
330
85F
100
AcDbEntity
  8
Dimension (ANSI)
100
AcDbLine
 10
12.40204325742823
 20
8.92311694512122
 30
0.0
 11
10.27102894375838
 21
11.05413125879041
 31
0.0
  0
MTEXT
  5
901
102
{ACAD_XDICTIONARY
360
E79
102
}
330
85F
100
AcDbEntity
  8
Dimension (ANSI)
100
AcDbMText
 10
13.25752356653514
 20
9.261741288791457
 30
0.0
 40
0.4444444510671828
 41
0.0
 71
     1
 72
     1
  1
\A1;\U+22050.31{ TYP. (4 PL.)}
  7
ROMANS
 73
     1
 44
1.0
1001
ACAD
1000
MTEXTBEGIN
1070
    73
1070
     1
1070
    44
1040
1.0
1070
    74
1070
     0
1000
MTEXTEND
  0
SOLID
  5
902
330
85F
100
AcDbEntity
  8
Dimension (ANSI)
100
AcDbTrace
 10
10.32258236787406
 20
11.1056846829061
 30
0.0
 11
10.2194755196427
 21
11.00257783467472
 31
0.0
 12
9.961708399064223
 22
11.36345180348448
 32
0.0
 13
9.961708399064223
 23
11.36345180348448
 33
0.0
  0
LINE
  5
903
330
85F
100
AcDbEntity
  8
Dimension (ANSI)
100
AcDbLine
 10
9.451222964503807
 20
11.47393723804486
 30
0.0
 11
10.25122296450381
 21
11.47393723804486
 31
0.0
  0
LINE
  5
904
330
85F
100
AcDbEntity
  8
Dimension (ANSI)
100
AcDbLine
 10
9.851222964503808
 20
11.07393723804485
 30
0.0
 11
9.851222964503808
 21
11.87393723804486
 31
0.0
  0
POINT
  5
905
330
85F
100
AcDbEntity
  8
Defpoints
 62
     0
100
AcDbPoint
 10
9.961708399064223
 20
11.36345180348448
 30
0.0
  0
POINT
  5
906
330
85F
100
AcDbEntity
  8
Defpoints
 62
     0
100
AcDbPoint
 10
9.740737529943395
 20
11.58442267260524
 30
0.0
  0
ENDBLK
  5
861
330
85F
100
AcDbEntity
  8
0
100
AcDbBlockEnd
  0
BLOCK
  5
909
330
908
100
AcDbEntity
  8
0
100
AcDbBlockBegin
  2
*D12
 70
     1
 10
0.0
 20
0.0
 30
0.0
  3
*D12
  1

  0
LINE
  5
A12
330
908
100
AcDbEntity
  8
Dimension (ANSI)
100
AcDbLine
 10
37.30900074228159
 20
10.20393723804486
 30
0.0
 11
41.48594937827657
 21
10.20393723804486
 31
0.0
  0
LINE
  5
A13
330
908
100
AcDbEntity
  8
Dimension (ANSI)
100
AcDbLine
 10
37.28900074228159
 20
10.72393723804486
 30
0.0
 11
41.48594937827657
 21
10.72393723804486
 31
0.0
  0
LINE
  5
A14
330
908
100
AcDbEntity
  8
Dimension (ANSI)
100
AcDbLine
 10
40.93039382272102
 20
11.1613825474719
 30
0.0
 11
40.93039382272102
 21
11.59882785689895
 31
0.0
  0
LINE
  5
A15
330
908
100
AcDbEntity
  8
Dimension (ANSI)
100
AcDbLine
 10
40.93039382272102
 20
9.76649192861781
 30
0.0
 11
40.93039382272102
 21
9.135709345238007
 31
0.0
  0
LINE
  5
A16
330
908
100
AcDbEntity
  8
Dimension (ANSI)
100
AcDbLine
 10
40.93039382272102
 20
9.135709345238007
 30
0.0
 11
40.49294851329396
 21
9.135709345238007
 31
0.0
  0
SOLID
  5
A17
330
908
100
AcDbEntity
  8
Dimension (ANSI)
100
AcDbTrace
 10
40.85748627114983
 20
11.1613825474719
 30
0.0
 11
41.00330137429219
 21
11.1613825474719
 31
0.0
 12
40.93039382272102
 22
10.72393723804486
 32
0.0
 13
40.93039382272102
 23
10.72393723804486
 33
0.0
  0
SOLID
  5
A18
330
908
100
AcDbEntity
  8
Dimension (ANSI)
100
AcDbTrace
 10
40.85748627114983
 20
9.76649192861781
 30
0.0
 11
41.00330137429219
 21
9.76649192861781
 31
0.0
 12
40.93039382272102
 22
10.20393723804486
 32
0.0
 13
40.93039382272102
 23
10.20393723804486
 33
0.0
  0
MTEXT
  5
A19
330
908
100
AcDbEntity
  8
Dimension (ANSI)
100
AcDbMText
 10
39.67571732376627
 20
9.135709345238014
 30
0.0
 40
0.4444444510671828
 41
0.0
 71
     5
 72
     1
  1
\A1;0.52{ \PTYP.}
  7
ROMANS
 73
     1
 44
1.0
1001
ACAD
1000
MTEXTBEGIN
1070
    73
1070
     1
1070
    44
1040
1.0
1070
    74
1070
     0
1000
MTEXTEND
  0
POINT
  5
A1A
330
908
100
AcDbEntity
  8
Defpoints
 62
     0
100
AcDbPoint
 10
37.03122296450381
 20
10.20393723804486
 30
0.0
  0
POINT
  5
A1B
330
908
100
AcDbEntity
  8
Defpoints
 62
     0
100
AcDbPoint
 10
37.01122296450381
 20
10.72393723804486
 30
0.0
  0
POINT
  5
A1C
330
908
100
AcDbEntity
  8
Defpoints
 62
     0
100
AcDbPoint
 10
40.93039382272102
 20
10.72393723804486
 30
0.0
  0
ENDBLK
  5
90A
330
908
100
AcDbEntity
  8
0
100
AcDbBlockEnd
  0
BLOCK
  5
A1F
330
A1E
100
AcDbEntity
  8
0
100
AcDbBlockBegin
  2
*D13
 70
     1
 10
0.0
 20
0.0
 30
0.0
  3
*D13
  1

  0
LINE
  5
B24
330
A1E
100
AcDbEntity
  8
Dimension (ANSI)
100
AcDbLine
 10
37.30900074228159
 20
10.20393723804486
 30
0.0
 11
43.27165124401287
 21
10.20393723804486
 31
0.0
  0
LINE
  5
B25
330
A1E
100
AcDbEntity
  8
Dimension (ANSI)
100
AcDbLine
 10
37.28900074228159
 20
11.47393723804486
 30
0.0
 11
43.27165124401287
 21
11.47393723804486
 31
0.0
  0
LINE
  5
B26
330
A1E
100
AcDbEntity
  8
Dimension (ANSI)
100
AcDbLine
 10
42.71609568845732
 20
11.91138254747191
 30
0.0
 11
42.71609568845732
 21
12.34882785689896
 31
0.0
  0
LINE
  5
B27
330
A1E
100
AcDbEntity
  8
Dimension (ANSI)
100
AcDbLine
 10
42.71609568845732
 20
9.76649192861781
 30
0.0
 11
42.71609568845732
 21
9.134632402784989
 31
0.0
  0
LINE
  5
B28
330
A1E
100
AcDbEntity
  8
Dimension (ANSI)
100
AcDbLine
 10
42.71609568845732
 20
9.134632402784989
 30
0.0
 11
42.27865037903026
 21
9.134632402784989
 31
0.0
  0
SOLID
  5
B29
330
A1E
100
AcDbEntity
  8
Dimension (ANSI)
100
AcDbTrace
 10
42.64318813688613
 20
11.91138254747191
 30
0.0
 11
42.78900324002849
 21
11.91138254747191
 31
0.0
 12
42.71609568845732
 22
11.47393723804486
 32
0.0
 13
42.71609568845732
 23
11.47393723804486
 33
0.0
  0
SOLID
  5
B2A
330
A1E
100
AcDbEntity
  8
Dimension (ANSI)
100
AcDbTrace
 10
42.64318813688613
 20
9.76649192861781
 30
0.0
 11
42.78900324002849
 21
9.76649192861781
 31
0.0
 12
42.71609568845732
 22
10.20393723804486
 32
0.0
 13
42.71609568845732
 23
10.20393723804486
 33
0.0
  0
MTEXT
  5
B2B
330
A1E
100
AcDbEntity
  8
Dimension (ANSI)
100
AcDbMText
 10
41.49316522172165
 20
9.134632402784996
 30
0.0
 40
0.4444444510671828
 41
0.0
 71
     5
 72
     1
  1
\A1;1.27{\PTYP.}
  7
ROMANS
 73
     1
 44
1.0
1001
ACAD
1000
MTEXTBEGIN
1070
    73
1070
     1
1070
    44
1040
1.0
1070
    74
1070
     0
1000
MTEXTEND
  0
POINT
  5
B2C
330
A1E
100
AcDbEntity
  8
Defpoints
 62
     0
100
AcDbPoint
 10
37.03122296450381
 20
10.20393723804486
 30
0.0
  0
POINT
  5
B2D
330
A1E
100
AcDbEntity
  8
Defpoints
 62
     0
100
AcDbPoint
 10
37.01122296450381
 20
11.47393723804486
 30
0.0
  0
POINT
  5
B2E
330
A1E
100
AcDbEntity
  8
Defpoints
 62
     0
100
AcDbPoint
 10
42.71609568845732
 20
11.47393723804486
 30
0.0
  0
ENDBLK
  5
A20
330
A1E
100
AcDbEntity
  8
0
100
AcDbBlockEnd
  0
BLOCK
  5
B31
330
B30
100
AcDbEntity
  8
0
100
AcDbBlockBegin
  2
*D14
 70
     1
 10
0.0
 20
0.0
 30
0.0
  3
*D14
  1

  0
LINE
  5
C23
330
B30
100
AcDbEntity
  8
Dimension (ANSI)
100
AcDbLine
 10
37.01122296450381
 20
11.19615946026708
 30
0.0
 11
37.01122296450381
 21
8.595298004555365
 31
0.0
  0
LINE
  5
C24
330
B30
100
AcDbEntity
  8
Dimension (ANSI)
100
AcDbLine
 10
37.5312229645038
 20
10.42615946026708
 30
0.0
 11
37.5312229645038
 21
8.595298004555365
 31
0.0
  0
LINE
  5
C25
330
B30
100
AcDbEntity
  8
Dimension (ANSI)
100
AcDbLine
 10
37.96866827393085
 20
9.15085356011092
 30
0.0
 11
38.4061135833579
 21
9.15085356011092
 31
0.0
  0
LINE
  5
C26
330
B30
100
AcDbEntity
  8
Dimension (ANSI)
100
AcDbLine
 10
36.57377765507676
 20
9.15085356011092
 30
0.0
 11
36.13633234564971
 21
9.15085356011092
 31
0.0
  0
SOLID
  5
C27
330
B30
100
AcDbEntity
  8
Dimension (ANSI)
100
AcDbTrace
 10
37.96866827393085
 20
9.223761111682096
 30
0.0
 11
37.96866827393085
 21
9.077946008539745
 31
0.0
 12
37.5312229645038
 22
9.15085356011092
 32
0.0
 13
37.5312229645038
 23
9.15085356011092
 33
0.0
  0
SOLID
  5
C28
330
B30
100
AcDbEntity
  8
Dimension (ANSI)
100
AcDbTrace
 10
36.57377765507676
 20
9.223761111682096
 30
0.0
 11
36.57377765507676
 21
9.077946008539745
 31
0.0
 12
37.01122296450381
 22
9.15085356011092
 32
0.0
 13
37.01122296450381
 23
9.15085356011092
 33
0.0
  0
MTEXT
  5
C29
330
B30
100
AcDbEntity
  8
Dimension (ANSI)
100
AcDbMText
 10
35.31910115612202
 20
9.15085356011092
 30
0.0
 40
0.4444444510671828
 41
0.0
 71
     5
 72
     1
  1
\A1;0.52{\PTYP.}
  7
ROMANS
 73
     1
 44
1.0
1001
ACAD
1000
MTEXTBEGIN
1070
    73
1070
     1
1070
    44
1040
1.0
1070
    74
1070
     0
1000
MTEXTEND
  0
POINT
  5
C2A
330
B30
100
AcDbEntity
  8
Defpoints
 62
     0
100
AcDbPoint
 10
37.01122296450381
 20
11.47393723804486
 30
0.0
  0
POINT
  5
C2B
330
B30
100
AcDbEntity
  8
Defpoints
 62
     0
100
AcDbPoint
 10
37.5312229645038
 20
10.70393723804485
 30
0.0
  0
POINT
  5
C2C
330
B30
100
AcDbEntity
  8
Defpoints
 62
     0
100
AcDbPoint
 10
37.5312229645038
 20
9.15085356011092
 30
0.0
  0
ENDBLK
  5
B32
330
B30
100
AcDbEntity
  8
0
100
AcDbBlockEnd
  0
BLOCK
  5
C2F
330
C2E
100
AcDbEntity
  8
0
100
AcDbBlockBegin
  2
*D15
 70
     1
 10
0.0
 20
0.0
 30
0.0
  3
*D15
  1

  0
LINE
  5
D2B
330
C2E
100
AcDbEntity
  8
Dimension (ANSI)
100
AcDbLine
 10
47.33681572230716
 20
26.45414729047436
 30
0.0
 11
47.33681572230716
 21
38.33573774956171
 31
0.0
  0
LINE
  5
D2C
330
C2E
100
AcDbEntity
  8
Dimension (ANSI)
100
AcDbLine
 10
47.24306572230717
 20
26.45414729047436
 30
0.0
 11
47.24306572230717
 21
38.33573774956171
 31
0.0
  0
LINE
  5
D2D
330
C2E
100
AcDbEntity
  8
Dimension (ANSI)
100
AcDbLine
 10
47.77426103173421
 20
37.78018219400615
 30
0.0
 11
48.21170634116126
 21
37.78018219400615
 31
0.0
  0
LINE
  5
D2E
330
C2E
100
AcDbEntity
  8
Dimension (ANSI)
100
AcDbLine
 10
46.80562041288012
 20
37.78018219400615
 30
0.0
 11
45.48899166124557
 21
37.78018219400615
 31
0.0
  0
SOLID
  5
D2F
330
C2E
100
AcDbEntity
  8
Dimension (ANSI)
100
AcDbTrace
 10
47.77426103173421
 20
37.85308974557733
 30
0.0
 11
47.77426103173421
 21
37.70727464243498
 31
0.0
 12
47.33681572230716
 22
37.78018219400615
 32
0.0
 13
47.33681572230716
 23
37.78018219400615
 33
0.0
  0
SOLID
  5
D30
330
C2E
100
AcDbEntity
  8
Dimension (ANSI)
100
AcDbTrace
 10
46.80562041288012
 20
37.85308974557733
 30
0.0
 11
46.80562041288012
 21
37.70727464243498
 31
0.0
 12
47.24306572230717
 22
37.78018219400615
 32
0.0
 13
47.24306572230717
 23
37.78018219400615
 33
0.0
  0
MTEXT
  5
D31
330
C2E
100
AcDbEntity
  8
Dimension (ANSI)
100
AcDbMText
 10
44.18498797769191
 20
37.78018219400615
 30
0.0
 40
0.4444444510671828
 41
0.0
 71
     5
 72
     1
  1
\A1;(0.094){\P12 GA.\PGALV.}
  7
ROMANS
 73
     1
 44
1.0
1001
ACAD
1000
MTEXTBEGIN
1070
    73
1070
     1
1070
    44
1040
1.0
1070
    74
1070
     0
1000
MTEXTEND
  0
POINT
  5
D32
330
C2E
100
AcDbEntity
  8
Defpoints
 62
     0
100
AcDbPoint
 10
47.33681572230716
 20
26.17636951269658
 30
0.0
  0
POINT
  5
D33
330
C2E
100
AcDbEntity
  8
Defpoints
 62
     0
100
AcDbPoint
 10
47.24306572230717
 20
26.17636951269658
 30
0.0
  0
POINT
  5
D34
330
C2E
100
AcDbEntity
  8
Defpoints
 62
     0
100
AcDbPoint
 10
47.24306572230717
 20
37.78018219400615
 30
0.0
  0
ENDBLK
  5
C30
330
C2E
100
AcDbEntity
  8
0
100
AcDbBlockEnd
  0
BLOCK
  5
D47
330
D46
100
AcDbEntity
  8
0
100
AcDbBlockBegin
  2
*D16
 70
     1
 10
0.0
 20
0.0
 30
0.0
  3
*D16
  1

  0
LINE
  5
E21
330
D46
100
AcDbEntity
  8
Dimension (ANSI)
100
AcDbLine
 10
47.24306572230717
 20
37.62615946026709
 30
0.0
 11
47.24306572230717
 21
34.47269415658794
 31
0.0
  0
LINE
  5
E22
330
D46
100
AcDbEntity
  8
Dimension (ANSI)
100
AcDbLine
 10
46.80562041288012
 20
35.0282497121435
 30
0.0
 11
46.36817510345307
 21
35.0282497121435
 31
0.0
  0
LINE
  5
E23
330
D46
100
AcDbEntity
  8
Dimension (ANSI)
100
AcDbLine
 10
48.45451103173421
 20
35.0282497121435
 30
0.0
 11
49.0387382108841
 21
35.0282497121435
 31
0.0
  0
SOLID
  5
E24
330
D46
100
AcDbEntity
  8
Dimension (ANSI)
100
AcDbTrace
 10
46.80562041288012
 20
35.10115726371468
 30
0.0
 11
46.80562041288012
 21
34.95534216057232
 31
0.0
 12
47.24306572230717
 22
35.0282497121435
 32
0.0
 13
47.24306572230717
 23
35.0282497121435
 33
0.0
  0
SOLID
  5
E25
330
D46
100
AcDbEntity
  8
Dimension (ANSI)
100
AcDbTrace
 10
48.45451103173421
 20
35.10115726371468
 30
0.0
 11
48.45451103173421
 21
34.95534216057232
 31
0.0
 12
48.01706572230717
 22
35.0282497121435
 32
0.0
 13
48.01706572230717
 23
35.0282497121435
 33
0.0
  0
MTEXT
  5
E26
330
D46
100
AcDbEntity
  8
Dimension (ANSI)
100
AcDbMText
 10
49.17872071307133
 20
35.25047193767709
 30
0.0
 40
0.4444444510671828
 41
0.0
 71
     1
 72
     1
  1
\A1;0.77
  7
ROMANS
 73
     1
 44
1.0
1001
ACAD
1000
MTEXTBEGIN
1070
    73
1070
     1
1070
    44
1040
1.0
1070
    74
1070
     0
1000
MTEXTEND
  0
POINT
  5
E27
330
D46
100
AcDbEntity
  8
Defpoints
 62
     0
100
AcDbPoint
 10
47.24306572230717
 20
37.90393723804487
 30
0.0
  0
POINT
  5
E28
330
D46
100
AcDbEntity
  8
Defpoints
 62
     0
100
AcDbPoint
 10
48.01706572230717
 20
36.68593723804487
 30
0.0
  0
POINT
  5
E29
330
D46
100
AcDbEntity
  8
Defpoints
 62
     0
100
AcDbPoint
 10
48.01706572230717
 20
35.0282497121435
 30
0.0
  0
ENDBLK
  5
D48
330
D46
100
AcDbEntity
  8
0
100
AcDbBlockEnd
  0
ENDSEC
  0
SECTION
  2
ENTITIES
  0
LINE
  5
107
330
6C
100
AcDbEntity
  8
Visible (ANSI)
100
AcDbLine
 10
11.0492229645038
 20
10.20393723804486
 30
0.0
 11
35.81322296450381
 21
10.20393723804486
 31
0.0
  0
LINE
  5
108
330
6C
100
AcDbEntity
  8
Visible (ANSI)
100
AcDbLine
 10
11.0492229645038
 20
10.20393723804486
 30
0.0
 11
11.0492229645038
 21
10.31328723804486
 31
0.0
  0
LINE
  5
109
330
6C
100
AcDbEntity
  8
Visible (ANSI)
100
AcDbLine
 10
35.81322296450381
 20
10.20393723804486
 30
0.0
 11
35.81322296450381
 21
10.31328723804486
 31
0.0
  0
LINE
  5
10A
330
6C
100
AcDbEntity
  8
Visible (ANSI)
100
AcDbLine
 10
35.81342296450381
 20
10.31348723804486
 30
0.0
 11
35.81342296450381
 21
10.20393723804486
 31
0.0
  0
LINE
  5
10B
330
6C
100
AcDbEntity
  8
Visible (ANSI)
100
AcDbLine
 10
35.81322296450381
 20
10.31348723804486
 30
0.0
 11
35.81342296450381
 21
10.31348723804486
 31
0.0
  0
LINE
  5
10C
330
6C
100
AcDbEntity
  8
Visible (ANSI)
100
AcDbLine
 10
11.0490229645038
 20
10.31348723804486
 30
0.0
 11
11.0492229645038
 21
10.31348723804486
 31
0.0
  0
LINE
  5
10D
330
6C
100
AcDbEntity
  8
Visible (ANSI)
100
AcDbLine
 10
11.0490229645038
 20
10.20393723804486
 30
0.0
 11
11.0490229645038
 21
10.31348723804486
 31
0.0
  0
LINE
  5
10E
330
6C
100
AcDbEntity
  8
Hidden (ANSI)
 48
1.078258395195007
100
AcDbLine
 10
35.81322296450381
 20
10.29768723804486
 30
0.0
 11
11.0492229645038
 21
10.29768723804486
 31
0.0
  0
LINE
  5
10F
330
6C
100
AcDbEntity
  8
Visible (ANSI)
100
AcDbLine
 10
11.0492229645038
 20
10.31348723804486
 30
0.0
 11
11.0492229645038
 21
10.31328723804486
 31
0.0
  0
LINE
  5
110
330
6C
100
AcDbEntity
  8
Visible (ANSI)
100
AcDbLine
 10
35.81322296450381
 20
10.31328723804486
 30
0.0
 11
35.81322296450381
 21
10.31348723804486
 31
0.0
  0
LINE
  5
111
330
6C
100
AcDbEntity
  8
Visible (ANSI)
100
AcDbLine
 10
11.0490229645038
 20
10.20393723804486
 30
0.0
 11
9.831222964503806
 21
10.20393723804486
 31
0.0
  0
LINE
  5
112
330
6C
100
AcDbEntity
  8
Visible (ANSI)
100
AcDbLine
 10
37.03122296450381
 20
10.20393723804486
 30
0.0
 11
35.81342296450381
 21
10.20393723804486
 31
0.0
  0
LINE
  5
113
330
6C
100
AcDbEntity
  8
Visible (ANSI)
100
AcDbLine
 10
37.5312229645038
 20
11.92173723804485
 30
0.0
 11
37.5312229645038
 21
10.70393723804486
 31
0.0
  0
LINE
  5
114
330
6C
100
AcDbEntity
  8
Visible (ANSI)
100
AcDbLine
 10
37.5312229645038
 20
37.90393723804487
 30
0.0
 11
37.5312229645038
 21
36.68613723804486
 31
0.0
  0
LINE
  5
115
330
6C
100
AcDbEntity
  8
Visible (ANSI)
100
AcDbLine
 10
35.8134229645038
 20
38.40393723804486
 30
0.0
 11
37.03122296450381
 21
38.40393723804486
 31
0.0
  0
LINE
  5
116
330
6C
100
AcDbEntity
  8
Visible (ANSI)
100
AcDbLine
 10
9.831222964503801
 20
38.40393723804485
 30
0.0
 11
11.0490229645038
 21
38.40393723804485
 31
0.0
  0
LINE
  5
117
330
6C
100
AcDbEntity
  8
Visible (ANSI)
100
AcDbLine
 10
9.331222964503801
 20
36.68613723804486
 30
0.0
 11
9.331222964503801
 21
37.90393723804486
 31
0.0
  0
LINE
  5
118
330
6C
100
AcDbEntity
  8
Visible (ANSI)
100
AcDbLine
 10
9.331222964503808
 20
10.70393723804486
 30
0.0
 11
9.331222964503808
 21
11.92173723804486
 31
0.0
  0
LINE
  5
119
330
6C
100
AcDbEntity
  8
Visible (ANSI)
100
AcDbLine
 10
37.5312229645038
 20
10.70393723804486
 30
0.0
 11
37.03122296450381
 21
10.20393723804486
 31
0.0
  0
LINE
  5
11A
330
6C
100
AcDbEntity
  8
Visible (ANSI)
100
AcDbLine
 10
37.5312229645038
 20
11.92173723804485
 30
0.0
 11
37.42167296450381
 21
11.92173723804485
 31
0.0
  0
LINE
  5
11B
330
6C
100
AcDbEntity
  8
Visible (ANSI)
100
AcDbLine
 10
37.42167296450381
 20
11.92173723804485
 30
0.0
 11
37.42167296450381
 21
11.92193723804485
 31
0.0
  0
LINE
  5
11C
330
6C
100
AcDbEntity
  8
Visible (ANSI)
100
AcDbLine
 10
37.42167296450381
 20
36.68593723804487
 30
0.0
 11
37.42167296450381
 21
36.68613723804486
 31
0.0
  0
LINE
  5
11D
330
6C
100
AcDbEntity
  8
Visible (ANSI)
100
AcDbLine
 10
37.42167296450381
 20
36.68613723804486
 30
0.0
 11
37.5312229645038
 21
36.68613723804486
 31
0.0
  0
LINE
  5
11E
330
6C
100
AcDbEntity
  8
Visible (ANSI)
100
AcDbLine
 10
37.5312229645038
 20
11.92193723804485
 30
0.0
 11
37.53122296450379
 21
36.68593723804487
 31
0.0
  0
LINE
  5
11F
330
6C
100
AcDbEntity
  8
Visible (ANSI)
100
AcDbLine
 10
37.5312229645038
 20
11.92193723804485
 30
0.0
 11
37.42187296450381
 21
11.92193723804485
 31
0.0
  0
LINE
  5
120
330
6C
100
AcDbEntity
  8
Visible (ANSI)
100
AcDbLine
 10
37.53122296450379
 20
36.68593723804487
 30
0.0
 11
37.42187296450381
 21
36.68593723804487
 31
0.0
  0
LINE
  5
121
330
6C
100
AcDbEntity
  8
Hidden (ANSI)
 48
1.078258395195007
100
AcDbLine
 10
37.43747296450379
 20
36.68593723804487
 30
0.0
 11
37.4374729645038
 21
11.92193723804485
 31
0.0
  0
LINE
  5
122
330
6C
100
AcDbEntity
  8
Visible (ANSI)
100
AcDbLine
 10
37.42167296450381
 20
11.92193723804485
 30
0.0
 11
37.42187296450381
 21
11.92193723804485
 31
0.0
  0
LINE
  5
123
330
6C
100
AcDbEntity
  8
Visible (ANSI)
100
AcDbLine
 10
37.42187296450381
 20
36.68593723804487
 30
0.0
 11
37.42167296450381
 21
36.68593723804487
 31
0.0
  0
LINE
  5
124
330
6C
100
AcDbEntity
  8
Visible (ANSI)
100
AcDbLine
 10
37.03122296450381
 20
38.40393723804486
 30
0.0
 11
37.5312229645038
 21
37.90393723804487
 31
0.0
  0
LINE
  5
125
330
6C
100
AcDbEntity
  8
Visible (ANSI)
100
AcDbLine
 10
35.8134229645038
 20
38.40393723804486
 30
0.0
 11
35.8134229645038
 21
38.29438723804487
 31
0.0
  0
LINE
  5
126
330
6C
100
AcDbEntity
  8
Visible (ANSI)
100
AcDbLine
 10
35.8134229645038
 20
38.29438723804487
 30
0.0
 11
35.8132229645038
 21
38.29438723804487
 31
0.0
  0
LINE
  5
127
330
6C
100
AcDbEntity
  8
Visible (ANSI)
100
AcDbLine
 10
11.0492229645038
 20
38.29438723804487
 30
0.0
 11
11.0490229645038
 21
38.29438723804487
 31
0.0
  0
LINE
  5
128
330
6C
100
AcDbEntity
  8
Visible (ANSI)
100
AcDbLine
 10
11.0490229645038
 20
38.29438723804487
 30
0.0
 11
11.0490229645038
 21
38.40393723804485
 31
0.0
  0
LINE
  5
129
330
6C
100
AcDbEntity
  8
Visible (ANSI)
100
AcDbLine
 10
35.8132229645038
 20
38.40393723804485
 30
0.0
 11
11.0492229645038
 21
38.40393723804485
 31
0.0
  0
LINE
  5
12A
330
6C
100
AcDbEntity
  8
Visible (ANSI)
100
AcDbLine
 10
35.8132229645038
 20
38.40393723804486
 30
0.0
 11
35.8132229645038
 21
38.29458723804488
 31
0.0
  0
LINE
  5
12B
330
6C
100
AcDbEntity
  8
Visible (ANSI)
100
AcDbLine
 10
11.0492229645038
 20
38.40393723804485
 30
0.0
 11
11.0492229645038
 21
38.29458723804487
 31
0.0
  0
LINE
  5
12C
330
6C
100
AcDbEntity
  8
Hidden (ANSI)
 48
1.078258395195007
100
AcDbLine
 10
11.0492229645038
 20
38.31018723804485
 30
0.0
 11
35.8132229645038
 21
38.31018723804486
 31
0.0
  0
LINE
  5
12D
330
6C
100
AcDbEntity
  8
Visible (ANSI)
100
AcDbLine
 10
35.8132229645038
 20
38.29438723804487
 30
0.0
 11
35.8132229645038
 21
38.29458723804487
 31
0.0
  0
LINE
  5
12E
330
6C
100
AcDbEntity
  8
Visible (ANSI)
100
AcDbLine
 10
11.0492229645038
 20
38.29458723804487
 30
0.0
 11
11.0492229645038
 21
38.29438723804487
 31
0.0
  0
LINE
  5
12F
330
6C
100
AcDbEntity
  8
Visible (ANSI)
100
AcDbLine
 10
9.331222964503801
 20
37.90393723804486
 30
0.0
 11
9.831222964503801
 21
38.40393723804485
 31
0.0
  0
LINE
  5
130
330
6C
100
AcDbEntity
  8
Visible (ANSI)
100
AcDbLine
 10
9.331222964503801
 20
36.68613723804486
 30
0.0
 11
9.440772964503793
 21
36.68613723804486
 31
0.0
  0
LINE
  5
131
330
6C
100
AcDbEntity
  8
Visible (ANSI)
100
AcDbLine
 10
9.440772964503793
 20
36.68613723804486
 30
0.0
 11
9.440772964503793
 21
36.68593723804486
 31
0.0
  0
LINE
  5
132
330
6C
100
AcDbEntity
  8
Visible (ANSI)
100
AcDbLine
 10
9.4407729645038
 20
11.92193723804486
 30
0.0
 11
9.4407729645038
 21
11.92173723804486
 31
0.0
  0
LINE
  5
133
330
6C
100
AcDbEntity
  8
Visible (ANSI)
100
AcDbLine
 10
9.4407729645038
 20
11.92173723804486
 30
0.0
 11
9.331222964503808
 21
11.92173723804486
 31
0.0
  0
LINE
  5
134
330
6C
100
AcDbEntity
  8
Visible (ANSI)
100
AcDbLine
 10
9.331222964503808
 20
36.68593723804486
 30
0.0
 11
9.331222964503815
 21
11.92193723804486
 31
0.0
  0
LINE
  5
135
330
6C
100
AcDbEntity
  8
Visible (ANSI)
100
AcDbLine
 10
9.331222964503808
 20
36.68593723804486
 30
0.0
 11
9.440572964503793
 21
36.68593723804486
 31
0.0
  0
LINE
  5
136
330
6C
100
AcDbEntity
  8
Visible (ANSI)
100
AcDbLine
 10
9.331222964503815
 20
11.92193723804486
 30
0.0
 11
9.4405729645038
 21
11.92193723804486
 31
0.0
  0
LINE
  5
137
330
6C
100
AcDbEntity
  8
Hidden (ANSI)
 48
1.078258395195007
100
AcDbLine
 10
9.424972964503815
 20
11.92193723804486
 30
0.0
 11
9.424972964503808
 21
36.68593723804486
 31
0.0
  0
LINE
  5
138
330
6C
100
AcDbEntity
  8
Visible (ANSI)
100
AcDbLine
 10
9.440772964503793
 20
36.68593723804486
 30
0.0
 11
9.440572964503793
 21
36.68593723804486
 31
0.0
  0
LINE
  5
139
330
6C
100
AcDbEntity
  8
Visible (ANSI)
100
AcDbLine
 10
9.4405729645038
 20
11.92193723804486
 30
0.0
 11
9.4407729645038
 21
11.92193723804486
 31
0.0
  0
LINE
  5
13A
330
6C
100
AcDbEntity
  8
Visible (ANSI)
100
AcDbLine
 10
9.831222964503806
 20
10.20393723804486
 30
0.0
 11
9.331222964503808
 21
10.70393723804486
 31
0.0
  0
CIRCLE
  5
13B
330
6C
100
AcDbEntity
  8
Visible (ANSI)
100
AcDbCircle
 10
37.01122296450381
 20
37.88393723804486
 30
0.0
 40
0.25
  0
CIRCLE
  5
13C
330
6C
100
AcDbEntity
  8
Visible (ANSI)
100
AcDbCircle
 10
9.851222964503808
 20
37.88393723804486
 30
0.0
 40
0.25
  0
CIRCLE
  5
13D
330
6C
100
AcDbEntity
  8
Visible (ANSI)
100
AcDbCircle
 10
9.851222964503808
 20
10.72393723804486
 30
0.0
 40
0.25
  0
CIRCLE
  5
13E
330
6C
100
AcDbEntity
  8
Visible (ANSI)
100
AcDbCircle
 10
37.01122296450381
 20
10.72393723804486
 30
0.0
 40
0.25
  0
CIRCLE
  5
13F
330
6C
100
AcDbEntity
  8
Visible (ANSI)
100
AcDbCircle
 10
37.01122296450381
 20
37.13393723804486
 30
0.0
 40
0.15625
  0
CIRCLE
  5
140
330
6C
100
AcDbEntity
  8
Visible (ANSI)
100
AcDbCircle
 10
9.851222964503808
 20
37.13393723804485
 30
0.0
 40
0.15625
  0
CIRCLE
  5
141
330
6C
100
AcDbEntity
  8
Visible (ANSI)
100
AcDbCircle
 10
9.851222964503808
 20
11.47393723804486
 30
0.0
 40
0.15625
  0
CIRCLE
  5
142
330
6C
100
AcDbEntity
  8
Visible (ANSI)
100
AcDbCircle
 10
37.01122296450381
 20
11.47393723804486
 30
0.0
 40
0.15625
  0
MTEXT
  5
144
330
6C
100
AcDbEntity
  8
Symbol (ANSI)
100
AcDbMText
 10
20.38603641605272
 20
6.319591710604663
 30
0.0
 40
0.5333333399247831
 41
0.0
 71
     7
 72
     1
  1
FRONT VIEW
  7
Text Style168
 73
     1
 44
1.0
1001
ACAD
1000
MTEXTBEGIN
1070
    73
1070
     1
1070
    44
1040
1.0
1070
    74
1070
     0
1000
MTEXTEND
  0
LINE
  5
146
330
6C
100
AcDbEntity
  8
Symbol (ANSI)
370
    30
100
AcDbLine
 10
20.33270294552655
 20
6.210828877827374
 30
0.0
 11
24.62054740901845
 21
6.210828877827374
 31
0.0
  0
LINE
  5
147
330
6C
100
AcDbEntity
  8
Visible (ANSI)
100
AcDbLine
 10
48.01706572230665
 20
10.20393723804486
 30
0.0
 11
47.35241572230665
 21
10.20393723804486
 31
0.0
  0
LINE
  5
148
330
6C
100
AcDbEntity
  8
Visible (ANSI)
100
AcDbLine
 10
48.01706572230665
 20
10.29768723804486
 30
0.0
 11
48.01706572230665
 21
10.20393723804486
 31
0.0
  0
LINE
  5
149
330
6C
100
AcDbEntity
  8
Visible (ANSI)
100
AcDbLine
 10
47.35241572230665
 20
10.29768723804486
 30
0.0
 11
48.01706572230665
 21
10.29768723804486
 31
0.0
  0
ARC
  5
14A
330
6C
100
AcDbEntity
  8
Visible (ANSI)
100
AcDbCircle
 10
47.35241572230665
 20
10.31328723804486
 30
0.0
 40
0.0156
100
AcDbArc
 50
180.0
 51
270.0
  0
ARC
  5
14B
330
6C
100
AcDbEntity
  8
Visible (ANSI)
100
AcDbCircle
 10
47.35241572230665
 20
10.31328723804485
 30
0.0
 40
0.1093499999999973
100
AcDbArc
 50
261.7981333521988
 51
270.0
  0
ARC
  5
14C
330
6C
100
AcDbEntity
  8
Hidden (ANSI)
 48
0.0668033510446549
100
AcDbCircle
 10
47.35241572230665
 20
10.31328723804486
 30
0.0
 40
0.10935
100
AcDbArc
 50
180.0
 51
261.7981333521991
  0
LINE
  5
14D
330
6C
100
AcDbEntity
  8
Hidden (ANSI)
 48
0.0400771945714951
100
AcDbLine
 10
47.24306572230665
 20
10.31348723804486
 30
0.0
 11
47.33681572230665
 21
10.31348723804486
 31
0.0
  0
LINE
  5
14E
330
6C
100
AcDbEntity
  8
Visible (ANSI)
100
AcDbLine
 10
47.33681572230716
 20
37.90393723804487
 30
0.0
 11
47.33681572230701
 21
38.40393723804486
 31
0.0
  0
LINE
  5
14F
330
6C
100
AcDbEntity
  8
Visible (ANSI)
100
AcDbLine
 10
47.24306572230702
 20
38.40393723804486
 30
0.0
 11
47.24306572230716
 21
37.90393723804487
 31
0.0
  0
LINE
  5
150
330
6C
100
AcDbEntity
  8
Visible (ANSI)
100
AcDbLine
 10
47.33681572230701
 20
38.40393723804486
 30
0.0
 11
47.24306572230702
 21
38.40393723804486
 31
0.0
  0
LINE
  5
151
330
6C
100
AcDbEntity
  8
Visible (ANSI)
100
AcDbLine
 10
47.24306572230716
 20
37.90393723804487
 30
0.0
 11
47.33681572230716
 21
37.90393723804487
 31
0.0
  0
LINE
  5
152
330
6C
100
AcDbEntity
  8
Visible (ANSI)
100
AcDbLine
 10
47.33681572230716
 20
36.68613723804486
 30
0.0
 11
47.33681572230716
 21
37.90393723804487
 31
0.0
  0
LINE
  5
153
330
6C
100
AcDbEntity
  8
Visible (ANSI)
100
AcDbLine
 10
47.33681572230716
 20
10.70393723804486
 30
0.0
 11
47.33681572230716
 21
11.92173723804485
 31
0.0
  0
LINE
  5
154
330
6C
100
AcDbEntity
  8
Visible (ANSI)
100
AcDbLine
 10
47.24306572230716
 20
11.92173723804485
 30
0.0
 11
47.24306572230716
 21
10.70393723804486
 31
0.0
  0
LINE
  5
155
330
6C
100
AcDbEntity
  8
Visible (ANSI)
100
AcDbLine
 10
47.24306572230716
 20
37.90393723804487
 30
0.0
 11
47.24306572230716
 21
36.68613723804486
 31
0.0
  0
LINE
  5
156
330
6C
100
AcDbEntity
  8
Visible (ANSI)
100
AcDbLine
 10
47.33681572230714
 20
36.68613723804486
 30
0.0
 11
47.33681572230714
 21
36.68593723804487
 31
0.0
  0
LINE
  5
157
330
6C
100
AcDbEntity
  8
Visible (ANSI)
100
AcDbLine
 10
47.33681572230714
 20
11.92193723804485
 30
0.0
 11
47.33681572230714
 21
11.92173723804485
 31
0.0
  0
LINE
  5
158
330
6C
100
AcDbEntity
  8
Visible (ANSI)
100
AcDbLine
 10
47.24306572230712
 20
11.92173723804485
 30
0.0
 11
47.24306572230712
 21
11.92193723804485
 31
0.0
  0
LINE
  5
159
330
6C
100
AcDbEntity
  8
Visible (ANSI)
100
AcDbLine
 10
47.24306572230712
 20
11.92193723804485
 30
0.0
 11
47.24306572230712
 21
36.68593723804487
 31
0.0
  0
LINE
  5
15A
330
6C
100
AcDbEntity
  8
Visible (ANSI)
100
AcDbLine
 10
47.24306572230712
 20
36.68593723804487
 30
0.0
 11
47.24306572230712
 21
36.68613723804486
 31
0.0
  0
LINE
  5
15B
330
6C
100
AcDbEntity
  8
Visible (ANSI)
100
AcDbLine
 10
47.35241572230719
 20
11.92193723804485
 30
0.0
 11
47.24306572230713
 21
11.92193723804485
 31
0.0
  0
LINE
  5
15C
330
6C
100
AcDbEntity
  8
Visible (ANSI)
100
AcDbLine
 10
47.35241572230719
 20
36.68593723804487
 30
0.0
 11
47.24306572230712
 21
36.68593723804487
 31
0.0
  0
LINE
  5
15D
330
6C
100
AcDbEntity
  8
Visible (ANSI)
100
AcDbLine
 10
47.24306572230716
 20
36.68613723804486
 30
0.0
 11
47.33681572230716
 21
36.68613723804486
 31
0.0
  0
LINE
  5
15E
330
6C
100
AcDbEntity
  8
Visible (ANSI)
100
AcDbLine
 10
47.33681572230716
 20
11.92173723804485
 30
0.0
 11
47.24306572230716
 21
11.92173723804485
 31
0.0
  0
LINE
  5
15F
330
6C
100
AcDbEntity
  8
Hidden (ANSI)
 48
1.078258395195007
100
AcDbLine
 10
47.33681572230714
 20
36.68593723804487
 30
0.0
 11
47.33681572230714
 21
11.92193723804485
 31
0.0
  0
LINE
  5
160
330
6C
100
AcDbEntity
  8
Visible (ANSI)
100
AcDbLine
 10
47.33681572230701
 20
10.20393723804486
 30
0.0
 11
47.33681572230716
 21
10.70393723804486
 31
0.0
  0
LINE
  5
161
330
6C
100
AcDbEntity
  8
Visible (ANSI)
100
AcDbLine
 10
47.24306572230716
 20
10.70393723804486
 30
0.0
 11
47.24306572230702
 21
10.20393723804486
 31
0.0
  0
LINE
  5
162
330
6C
100
AcDbEntity
  8
Visible (ANSI)
100
AcDbLine
 10
47.24306572230702
 20
10.20393723804486
 30
0.0
 11
47.33681572230701
 21
10.20393723804486
 31
0.0
  0
LINE
  5
163
330
6C
100
AcDbEntity
  8
Visible (ANSI)
100
AcDbLine
 10
47.33681572230716
 20
10.70393723804486
 30
0.0
 11
47.24306572230716
 21
10.70393723804486
 31
0.0
  0
LINE
  5
164
330
6C
100
AcDbEntity
  8
Visible (ANSI)
100
AcDbLine
 10
47.35241572230658
 20
38.40393723804485
 30
0.0
 11
48.01706572230665
 21
38.40393723804486
 31
0.0
  0
LINE
  5
165
330
6C
100
AcDbEntity
  8
Visible (ANSI)
100
AcDbLine
 10
48.01706572230665
 20
38.31018723804487
 30
0.0
 11
47.35241572230658
 21
38.31018723804486
 31
0.0
  0
LINE
  5
166
330
6C
100
AcDbEntity
  8
Visible (ANSI)
100
AcDbLine
 10
48.01706572230665
 20
38.40393723804486
 30
0.0
 11
48.01706572230665
 21
38.31018723804487
 31
0.0
  0
ARC
  5
167
330
6C
100
AcDbEntity
  8
Hidden (ANSI)
 48
0.0668033510446549
100
AcDbCircle
 10
47.35241572230664
 20
38.29458723804487
 30
0.0
 40
0.1093499999999938
100
AcDbArc
 50
98.2018666477982
 51
180.0
  0
LINE
  5
168
330
6C
100
AcDbEntity
  8
Hidden (ANSI)
 48
0.0400771945714951
100
AcDbLine
 10
47.24306572230665
 20
38.29438723804487
 30
0.0
 11
47.33681572230665
 21
38.29438723804487
 31
0.0
  0
ARC
  5
169
330
6C
100
AcDbEntity
  8
Visible (ANSI)
100
AcDbCircle
 10
47.35241572230666
 20
38.2945872380447
 30
0.0
 40
0.1093500000001566
100
AcDbArc
 50
90.00000000004559
 51
98.20186664779576
  0
ARC
  5
16A
330
6C
100
AcDbEntity
  8
Visible (ANSI)
100
AcDbCircle
 10
47.35241572230665
 20
38.29458723804486
 30
0.0
 40
0.0156000000000027
100
AcDbArc
 50
90.00000000029679
 51
180.0
  0
LINE
  5
16B
330
6C
100
AcDbEntity
  8
Visible (ANSI)
100
AcDbLine
 10
47.35241572230719
 20
11.92193723804485
 30
0.0
 11
48.01706572230717
 21
11.92193723804485
 31
0.0
  0
LINE
  5
16C
330
6C
100
AcDbEntity
  8
Visible (ANSI)
100
AcDbLine
 10
48.01706572230717
 20
36.68593723804487
 30
0.0
 11
48.01706572230717
 21
11.92193723804485
 31
0.0
  0
LINE
  5
16D
330
6C
100
AcDbEntity
  8
Visible (ANSI)
100
AcDbLine
 10
48.01706572230717
 20
36.68593723804487
 30
0.0
 11
47.35241572230719
 21
36.68593723804487
 31
0.0
  0
LINE
  5
16E
330
6C
100
AcDbEntity
  8
Hidden (ANSI)
 48
0.0400771945714951
100
AcDbLine
 10
47.24306572230701
 20
38.13393723804487
 30
0.0
 11
47.336815722307
 21
38.13393723804487
 31
0.0
  0
LINE
  5
16F
330
6C
100
AcDbEntity
  8
Hidden (ANSI)
 48
0.0400771945714951
100
AcDbLine
 10
47.24306572230701
 20
37.63393723804486
 30
0.0
 11
47.336815722307
 21
37.63393723804486
 31
0.0
  0
LINE
  5
170
330
6C
100
AcDbEntity
  8
Hidden (ANSI)
 48
0.0400771945714951
100
AcDbLine
 10
47.24306572230701
 20
10.97393723804486
 30
0.0
 11
47.336815722307
 21
10.97393723804486
 31
0.0
  0
LINE
  5
171
330
6C
100
AcDbEntity
  8
Hidden (ANSI)
 48
0.0400771945714951
100
AcDbLine
 10
47.24306572230701
 20
10.47393723804486
 30
0.0
 11
47.336815722307
 21
10.47393723804486
 31
0.0
  0
LINE
  5
172
330
6C
100
AcDbEntity
  8
Hidden (ANSI)
 48
0.0400771945714951
100
AcDbLine
 10
47.24306572230701
 20
37.29018723804486
 30
0.0
 11
47.336815722307
 21
37.29018723804486
 31
0.0
  0
LINE
  5
173
330
6C
100
AcDbEntity
  8
Hidden (ANSI)
 48
0.0400771945714951
100
AcDbLine
 10
47.24306572230701
 20
36.97768723804486
 30
0.0
 11
47.336815722307
 21
36.97768723804486
 31
0.0
  0
LINE
  5
174
330
6C
100
AcDbEntity
  8
Hidden (ANSI)
 48
0.0400771945714951
100
AcDbLine
 10
47.24306572230701
 20
11.63018723804486
 30
0.0
 11
47.336815722307
 21
11.63018723804486
 31
0.0
  0
LINE
  5
175
330
6C
100
AcDbEntity
  8
Hidden (ANSI)
 48
0.0400771945714951
100
AcDbLine
 10
47.24306572230701
 20
11.31768723804486
 30
0.0
 11
47.336815722307
 21
11.31768723804486
 31
0.0
  0
MTEXT
  5
176
330
6C
100
AcDbEntity
  8
Symbol (ANSI)
100
AcDbMText
 10
45.64992580577744
 20
9.047121590690407
 30
0.0
 40
0.5333333399247831
 41
0.0
 71
     7
 72
     1
  1
SIDE VIEW
  7
Text Style168
 73
     1
 44
1.0
1001
ACAD
1000
MTEXTBEGIN
1070
    73
1070
     1
1070
    44
1040
1.0
1070
    74
1070
     0
1000
MTEXTEND
  0
LINE
  5
177
330
6C
100
AcDbEntity
  8
Symbol (ANSI)
370
    30
100
AcDbLine
 10
45.62261906886805
 20
8.936629963291709
 30
0.0
 11
49.22672493733691
 21
8.936629963291709
 31
0.0
  0
ELLIPSE
  5
178
330
6C
100
AcDbEntity
  8
Visible (ANSI)
100
AcDbEllipse
 10
58.83979637472275
 20
24.59468320687442
 30
0.0
 11
-0.0363794482244868
 21
-0.0631739324949928
 31
0.0
210
0.0
220
0.0
230
1.0
 40
0.5780931159156394
 41
5.495853435359195
 42
6.283185307179717
  0
ELLIPSE
  5
179
330
6C
100
AcDbEntity
  8
Visible (ANSI)
100
AcDbEllipse
 10
70.5136579275936
 20
17.87215343597321
 30
0.0
 11
-0.0363794482244857
 21
-0.0631739324949909
 31
0.0
210
0.0
220
0.0
230
1.0
 40
0.5780931159156394
 41
5.495853435359142
 42
5.556343885665485
  0
LINE
  5
17A
330
6C
100
AcDbEntity
  8
Visible Narrow (ANSI)
100
AcDbLine
 10
58.78824829037426
 20
24.56499863933895
 30
0.0
 11
70.46210984324511
 21
17.84246886843774
 31
0.0
  0
LINE
  5
17B
330
6C
100
AcDbEntity
  8
Visible (ANSI)
100
AcDbLine
 10
70.46220412414927
 20
17.84252358195921
 30
0.0
 11
70.46220412414927
 21
17.78281539027488
 31
0.0
  0
LINE
  5
17C
330
6C
100
AcDbEntity
  8
Visible (ANSI)
100
AcDbLine
 10
70.46210984324511
 20
17.84257787472105
 30
0.0
 11
70.46220412414927
 21
17.84252358195921
 31
0.0
  0
LINE
  5
17D
330
6C
100
AcDbEntity
  8
Visible (ANSI)
100
AcDbLine
 10
58.78815400947009
 20
24.56516193838411
 30
0.0
 11
58.78824829037426
 21
24.56510764562227
 31
0.0
  0
LINE
  5
17E
330
6C
100
AcDbEntity
  8
Visible (ANSI)
100
AcDbLine
 10
58.78815400947009
 20
24.50545374669977
 30
0.0
 11
58.78815400947009
 21
24.56516193838411
 31
0.0
  0
LINE
  5
17F
330
6C
100
AcDbEntity
  8
Visible (ANSI)
100
AcDbLine
 10
58.81840854539588
 20
24.52287617522052
 30
0.0
 11
58.78815400947009
 21
24.50545374669977
 31
0.0
  0
LINE
  5
180
330
6C
100
AcDbEntity
  8
Visible (ANSI)
100
AcDbLine
 10
58.80341692649826
 20
24.53150927437942
 30
0.0
 11
70.46220412414927
 21
17.81766024731637
 31
0.0
  0
LINE
  5
181
330
6C
100
AcDbEntity
  8
Visible (ANSI)
100
AcDbLine
 10
58.78824829037426
 20
24.56510764562227
 30
0.0
 11
58.78824829037426
 21
24.56499863933895
 31
0.0
  0
LINE
  5
182
330
6C
100
AcDbEntity
  8
Visible (ANSI)
100
AcDbLine
 10
70.46210984324511
 20
17.84246886843774
 30
0.0
 11
70.46210984324511
 21
17.84257787472105
 31
0.0
  0
ELLIPSE
  5
183
330
6C
100
AcDbEntity
  8
Visible (ANSI)
100
AcDbEllipse
 10
71.07104663297701
 20
32.56957538216102
 30
0.0
 11
-0.0831720352640679
 21
0.1444305726908637
 31
0.0
210
0.0
220
0.0
230
0.9999999999999998
 40
0.578093115915813
 41
0.2678448778126333
 42
2.873747775777246
  0
ELLIPSE
  5
184
330
6C
100
AcDbEntity
  8
Visible (ANSI)
100
AcDbEllipse
 10
58.26769984829068
 20
39.94253243989308
 30
0.0
 11
-0.0831720352640674
 21
0.144430572690863
 31
0.0
210
0.0
220
0.0
230
1.0
 40
0.5780931159158133
 41
0.2678448778126333
 42
2.873747775777246
  0
ELLIPSE
  5
185
330
6C
100
AcDbEntity
  8
Visible (ANSI)
100
AcDbEllipse
 10
58.26769984829067
 20
25.13947916607746
 30
0.0
 11
-0.0831720352640672
 21
0.1444305726908626
 31
0.0
210
0.0
220
0.0
230
0.9999999999999998
 40
0.578093115915813
 41
0.2678448778125153
 42
2.873747775777257
  0
ELLIPSE
  5
186
330
6C
100
AcDbEntity
  8
Visible (ANSI)
100
AcDbEllipse
 10
71.071046632977
 20
17.7665221083454
 30
0.0
 11
-0.0831720352640678
 21
0.1444305726908635
 31
0.0
210
0.0
220
0.0
230
0.9999999999999998
 40
0.578093115915813
 41
0.2678448778126135
 42
2.873747775777246
  0
ELLIPSE
  5
187
330
6C
100
AcDbEntity
  8
Visible (ANSI)
100
AcDbEllipse
 10
71.07104663297701
 20
32.16080181973975
 30
0.0
 11
0.0519825220400476
 21
-0.0902691079317863
 31
0.0
210
0.0
220
0.0
230
1.0
 40
0.578093115915813
 41
3.578838513251691
 42
5.845939447517073
  0
ELLIPSE
  5
188
330
6C
100
AcDbEntity
  8
Visible (ANSI)
100
AcDbEllipse
 10
58.26769984829068
 20
39.53375887747181
 30
0.0
 11
0.0519825220400476
 21
-0.0902691079317863
 31
0.0
210
0.0
220
0.0
230
1.0
 40
0.5780931159158129
 41
3.578838513251691
 42
5.845939447516886
  0
ELLIPSE
  5
189
330
6C
100
AcDbEntity
  8
Visible (ANSI)
100
AcDbEllipse
 10
58.26769984829067
 20
25.54825272849873
 30
0.0
 11
0.0519825220400474
 21
-0.0902691079317861
 31
0.0
210
0.0
220
0.0
230
0.9999999999999998
 40
0.578093115915813
 41
3.578838513251724
 42
5.845939447517061
  0
ELLIPSE
  5
18A
330
6C
100
AcDbEntity
  8
Visible (ANSI)
100
AcDbEllipse
 10
71.071046632977
 20
18.17529567076667
 30
0.0
 11
0.0519825220400477
 21
-0.0902691079317865
 31
0.0
210
0.0
220
0.0
230
1.0
 40
0.578093115915813
 41
3.578838513251691
 42
5.84593944751686
  0
ELLIPSE
  5
18B
330
6C
100
AcDbEntity
  8
Visible (ANSI)
100
AcDbEllipse
 10
71.02685245915286
 20
32.544125650049
 30
0.0
 11
-0.0831720352640673
 21
0.1444305726908626
 31
0.0
210
0.0
220
0.0
230
1.0
 40
0.578093115915813
 41
0.0
 42
6.283185307179586
  0
ELLIPSE
  5
18C
330
6C
100
AcDbEntity
  8
Visible (ANSI)
100
AcDbEllipse
 10
58.22350567446652
 20
39.91708270778105
 30
0.0
 11
-0.0831720352640673
 21
0.1444305726908626
 31
0.0
210
0.0
220
0.0
230
1.0
 40
0.578093115915813
 41
0.0
 42
6.283185307179586
  0
ELLIPSE
  5
18D
330
6C
100
AcDbEntity
  8
Visible (ANSI)
100
AcDbEllipse
 10
58.22350567446651
 20
25.11402943396544
 30
0.0
 11
-0.0831720352640673
 21
0.1444305726908626
 31
0.0
210
0.0
220
0.0
230
1.0
 40
0.578093115915813
 41
0.0
 42
6.283185307179586
  0
ELLIPSE
  5
18E
330
6C
100
AcDbEntity
  8
Visible (ANSI)
100
AcDbEllipse
 10
71.02685245915285
 20
17.74107237623337
 30
0.0
 11
-0.0831720352640673
 21
0.1444305726908626
 31
0.0
210
0.0
220
0.0
230
1.0
 40
0.578093115915813
 41
0.0
 42
6.283185307179586
  0
ELLIPSE
  5
18F
330
6C
100
AcDbEntity
  8
Visible (ANSI)
100
AcDbEllipse
 10
71.02685245915286
 20
32.13535208762773
 30
0.0
 11
-0.051982522040042
 21
0.0902691079317891
 31
0.0
210
0.0
220
0.0
230
1.0
 40
0.578093115915813
 41
0.0
 42
6.283185307179586
  0
ELLIPSE
  5
190
330
6C
100
AcDbEntity
  8
Visible (ANSI)
100
AcDbEllipse
 10
58.22350567446652
 20
39.50830914535979
 30
0.0
 11
-0.051982522040042
 21
0.0902691079317891
 31
0.0
210
0.0
220
0.0
230
1.0
 40
0.578093115915813
 41
0.0
 42
6.283185307179586
  0
ELLIPSE
  5
191
330
6C
100
AcDbEntity
  8
Visible (ANSI)
100
AcDbEllipse
 10
58.22350567446651
 20
25.52280299638671
 30
0.0
 11
-0.051982522040042
 21
0.0902691079317891
 31
0.0
210
0.0
220
0.0
230
1.0
 40
0.578093115915813
 41
0.0
 42
6.283185307179586
  0
ELLIPSE
  5
192
330
6C
100
AcDbEntity
  8
Visible (ANSI)
100
AcDbEllipse
 10
71.02685245915285
 20
18.14984593865465
 30
0.0
 11
-0.051982522040042
 21
0.0902691079317891
 31
0.0
210
0.0
220
0.0
230
1.0
 40
0.578093115915813
 41
0.0
 42
6.283185307179586
  0
LINE
  5
193
330
6C
100
AcDbEntity
  8
Visible (ANSI)
100
AcDbLine
 10
58.83234818329427
 20
39.90078942585158
 30
0.0
 11
58.25827175787485
 21
40.23137805268905
 31
0.0
  0
LINE
  5
194
330
6C
100
AcDbEntity
  8
Visible (ANSI)
100
AcDbLine
 10
71.08047472339283
 20
32.84756244258921
 30
0.0
 11
70.50639829797344
 21
33.17815106942669
 31
0.0
  0
LINE
  5
195
330
6C
100
AcDbEntity
  8
Visible (ANSI)
100
AcDbLine
 10
71.31617698378839
 20
31.77557557062211
 30
0.0
 11
71.31617698378839
 21
32.43931482971094
 31
0.0
  0
LINE
  5
196
330
6C
100
AcDbEntity
  8
Visible (ANSI)
100
AcDbLine
 10
71.31617698378838
 20
17.61446029923284
 30
0.0
 11
71.31617698378838
 21
18.27819955832167
 31
0.0
  0
LINE
  5
197
330
6C
100
AcDbEntity
  8
Visible (ANSI)
100
AcDbLine
 10
58.78815400947009
 20
24.50545374669977
 30
0.0
 11
58.21407758405069
 21
24.83604237353726
 31
0.0
  0
LINE
  5
198
330
6C
100
AcDbEntity
  8
Visible (ANSI)
100
AcDbLine
 10
71.03628054956867
 20
17.4522267634374
 30
0.0
 11
70.46220412414927
 21
17.78281539027488
 31
0.0
  0
LINE
  5
199
330
6C
100
AcDbEntity
  8
Visible (ANSI)
100
AcDbLine
 10
71.27198280996421
 20
18.25274982620964
 30
0.0
 11
71.27198280996421
 21
17.58901056712081
 31
0.0
  0
LINE
  5
19A
330
6C
100
AcDbEntity
  8
Visible (ANSI)
100
AcDbLine
 10
71.27198280996423
 20
32.41386509759891
 30
0.0
 11
71.27198280996423
 21
31.75012583851009
 31
0.0
  0
LINE
  5
19B
330
6C
100
AcDbEntity
  8
Visible (ANSI)
100
AcDbLine
 10
70.46220412414927
 20
33.15270133731467
 30
0.0
 11
71.03628054956868
 21
32.82211271047718
 31
0.0
  0
LINE
  5
19C
330
6C
100
AcDbEntity
  8
Visible (ANSI)
100
AcDbLine
 10
58.2140775840507
 20
40.20592832057704
 30
0.0
 11
58.78815400947011
 21
39.87533969373956
 31
0.0
  0
LINE
  5
19D
330
6C
100
AcDbEntity
  8
Visible (ANSI)
100
AcDbLine
 10
57.97837532365514
 20
39.40540525780479
 30
0.0
 11
57.97837532365516
 21
40.06914451689362
 31
0.0
  0
LINE
  5
19E
330
6C
100
AcDbEntity
  8
Visible (ANSI)
100
AcDbLine
 10
57.97837532365514
 20
25.24428998641552
 30
0.0
 11
57.97837532365514
 21
25.90802924550436
 31
0.0
  0
LINE
  5
19F
330
6C
100
AcDbEntity
  8
Visible (ANSI)
100
AcDbLine
 10
58.83234818329427
 20
39.90078942585158
 30
0.0
 11
58.83234818329427
 21
39.90005542053951
 31
0.0
  0
LINE
  5
1A0
330
6C
100
AcDbEntity
  8
Visible (ANSI)
100
AcDbLine
 10
70.46220412414927
 20
33.15270133731467
 30
0.0
 11
70.46220412414927
 21
33.09299314563034
 31
0.0
  0
LINE
  5
1A1
330
6C
100
AcDbEntity
  8
Visible (ANSI)
100
AcDbLine
 10
70.46220412414927
 20
33.09299314563034
 30
0.0
 11
70.46210984324511
 21
33.09304743839218
 31
0.0
  0
LINE
  5
1A2
330
6C
100
AcDbEntity
  8
Visible Narrow (ANSI)
100
AcDbLine
 10
70.46210984324511
 20
33.09315644467549
 30
0.0
 11
58.78824829037426
 21
39.81568621557669
 31
0.0
  0
LINE
  5
1A3
330
6C
100
AcDbEntity
  8
Visible (ANSI)
100
AcDbLine
 10
58.78824829037426
 20
39.81557720929338
 30
0.0
 11
58.78815400947011
 21
39.81563150205523
 31
0.0
  0
LINE
  5
1A4
330
6C
100
AcDbEntity
  8
Visible (ANSI)
100
AcDbLine
 10
58.78815400947011
 20
39.81563150205523
 30
0.0
 11
58.78815400947011
 21
39.87533969373956
 31
0.0
  0
LINE
  5
1A5
330
6C
100
AcDbEntity
  8
Visible Narrow (ANSI)
100
AcDbLine
 10
70.51365792759357
 20
33.18244019761195
 30
0.0
 11
58.83979637472277
 21
39.90496996851318
 31
0.0
  0
ELLIPSE
  5
1A6
330
6C
100
AcDbEntity
  8
Visible (ANSI)
100
AcDbEllipse
 10
70.51365792759359
 20
33.12284101221094
 30
0.0
 11
0.036379448224471
 21
0.0631739324949565
 31
0.0
210
0.0
220
0.0
230
0.9999999999999998
 40
0.5780931159156392
 41
2.293770331463042
 42
2.354260781769344
  0
ELLIPSE
  5
1A7
330
6C
100
AcDbEntity
  8
Visible (ANSI)
100
AcDbEllipse
 10
70.51365792759362
 20
33.12284101221086
 30
0.0
 11
0.0363794482245445
 21
0.0631739324950929
 31
0.0
210
0.0
220
0.0
230
1.0
 40
0.5780931159156394
 41
0.7834644549751353
 42
0.9175200251379242
  0
LINE
  5
1A8
330
6C
100
AcDbEntity
  8
Visible (ANSI)
100
AcDbLine
 10
70.46210984324511
 20
33.09304743839218
 30
0.0
 11
70.46220412414927
 21
33.09310173115401
 31
0.0
  0
ELLIPSE
  5
1A9
330
6C
100
AcDbEntity
  8
Visible (ANSI)
100
AcDbEllipse
 10
58.83979637472275
 20
39.84537078311215
 30
0.0
 11
0.036379448224492
 21
0.0631739324949925
 31
0.0
210
0.0
220
0.0
230
0.9999999999999998
 40
0.5780931159156442
 41
0.7834644549748253
 42
2.35426078176941
  0
LINE
  5
1AA
330
6C
100
AcDbEntity
  8
Visible (ANSI)
100
AcDbLine
 10
58.78815400947011
 20
39.87533969373956
 30
0.0
 11
58.83234818329427
 21
39.90078942585158
 31
0.0
  0
LINE
  5
1AB
330
6C
100
AcDbEntity
  8
Visible (ANSI)
100
AcDbLine
 10
58.78815400947011
 20
39.81563150205523
 30
0.0
 11
58.78824829037426
 21
39.81568579481706
 31
0.0
  0
LINE
  5
1AC
330
6C
100
AcDbEntity
  8
Visible (ANSI)
100
AcDbLine
 10
70.50639829797344
 20
33.17815106942669
 30
0.0
 11
70.46220412414927
 21
33.15270133731467
 31
0.0
  0
LINE
  5
1AD
330
6C
100
AcDbEntity
  8
Visible (ANSI)
100
AcDbLine
 10
71.31617698378839
 20
32.43931482971094
 30
0.0
 11
71.08047472339283
 21
32.84756244258921
 31
0.0
  0
LINE
  5
1AE
330
6C
100
AcDbEntity
  8
Visible (ANSI)
100
AcDbLine
 10
71.03628054956868
 20
32.82211271047718
 30
0.0
 11
71.27198280996423
 21
32.41386509759891
 31
0.0
  0
LINE
  5
1AF
330
6C
100
AcDbEntity
  8
Visible (ANSI)
100
AcDbLine
 10
71.08047472339283
 20
32.84756244258921
 30
0.0
 11
71.03628054956868
 21
32.82211271047718
 31
0.0
  0
LINE
  5
1B0
330
6C
100
AcDbEntity
  8
Visible (ANSI)
100
AcDbLine
 10
71.27198280996423
 20
32.41386509759891
 30
0.0
 11
71.31617698378839
 21
32.43931482971094
 31
0.0
  0
LINE
  5
1B1
330
6C
100
AcDbEntity
  8
Visible (ANSI)
100
AcDbLine
 10
71.31554135077225
 20
18.27856559503154
 30
0.0
 11
71.31617698378838
 21
18.27819955832167
 31
0.0
  0
LINE
  5
1B2
330
6C
100
AcDbEntity
  8
Visible (ANSI)
100
AcDbLine
 10
71.27198280996421
 20
18.25274982620964
 30
0.0
 11
71.22034044471156
 21
18.28248868650694
 31
0.0
  0
LINE
  5
1B3
330
6C
100
AcDbEntity
  8
Visible (ANSI)
100
AcDbLine
 10
71.22034044471156
 20
18.28248868650694
 30
0.0
 11
71.22034044471156
 21
18.28259769279025
 31
0.0
  0
LINE
  5
1B4
330
6C
100
AcDbEntity
  8
Visible Narrow (ANSI)
100
AcDbLine
 10
71.22043472561571
 20
18.28254340002841
 30
0.0
 11
71.22043472561573
 21
31.77970139976223
 31
0.0
  0
LINE
  5
1B5
330
6C
100
AcDbEntity
  8
Visible (ANSI)
100
AcDbLine
 10
71.22034044471156
 20
31.77975569252406
 30
0.0
 11
71.22034044471156
 21
31.77986469880738
 31
0.0
  0
LINE
  5
1B6
330
6C
100
AcDbEntity
  8
Visible (ANSI)
100
AcDbLine
 10
71.22034044471156
 20
31.77986469880738
 30
0.0
 11
71.27198280996423
 21
31.75012583851009
 31
0.0
  0
LINE
  5
1B7
330
6C
100
AcDbEntity
  8
Visible Narrow (ANSI)
100
AcDbLine
 10
71.32353089431273
 20
18.28254340002843
 30
0.0
 11
71.32353089431274
 21
31.77970139976225
 31
0.0
  0
ELLIPSE
  5
1B8
330
6C
100
AcDbEntity
  8
Visible (ANSI)
100
AcDbEllipse
 10
71.2719828099642
 20
18.31222796756388
 30
0.0
 11
0.0728999999999986
 21
0.0000000000000043
 31
0.0
210
0.0
220
0.0
230
1.0
 40
0.5758617009853092
 41
3.926990816987089
 42
5.497787143782277
  0
LINE
  5
1B9
330
6C
100
AcDbEntity
  8
Visible (ANSI)
100
AcDbLine
 10
71.22034044471156
 20
31.77975569252406
 30
0.0
 11
71.22043509094618
 21
31.77981019566572
 31
0.0
  0
ELLIPSE
  5
1BA
330
6C
100
AcDbEntity
  8
Visible (ANSI)
100
AcDbEllipse
 10
71.27198280996424
 20
31.80938596729771
 30
0.0
 11
0.0729000000000421
 21
0.0000000000000043
 31
0.0
210
0.0
220
0.0
230
1.0
 40
0.5758617009853092
 41
3.926990816987109
 42
3.987598387464387
  0
ELLIPSE
  5
1BB
330
6C
100
AcDbEntity
  8
Visible (ANSI)
100
AcDbEllipse
 10
71.27198280996431
 20
31.80938596729762
 30
0.0
 11
0.0728999999998359
 21
-0.0000000000000001
 31
0.0
210
0.0
220
0.0
230
1.0
 40
0.5758617009853091
 41
5.363700662383058
 42
5.497787143782689
  0
LINE
  5
1BC
330
6C
100
AcDbEntity
  8
Visible (ANSI)
100
AcDbLine
 10
71.27198280996423
 20
31.75012583851009
 30
0.0
 11
71.31617698378839
 21
31.77557557062211
 31
0.0
  0
LINE
  5
1BD
330
6C
100
AcDbEntity
  8
Visible (ANSI)
100
AcDbLine
 10
71.22034044471156
 20
18.28248868650694
 30
0.0
 11
71.22043509094746
 21
18.28254318964934
 31
0.0
  0
LINE
  5
1BE
330
6C
100
AcDbEntity
  8
Visible (ANSI)
100
AcDbLine
 10
71.31617698378838
 20
18.27819955832167
 30
0.0
 11
71.27198280996421
 21
18.25274982620964
 31
0.0
  0
LINE
  5
1BF
330
6C
100
AcDbEntity
  8
Visible (ANSI)
100
AcDbLine
 10
71.08047472339283
 20
17.47767649554942
 30
0.0
 11
71.31617698378838
 21
17.61446029923284
 31
0.0
  0
LINE
  5
1C0
330
6C
100
AcDbEntity
  8
Visible (ANSI)
100
AcDbLine
 10
71.27198280996421
 20
17.58901056712081
 30
0.0
 11
71.03628054956867
 21
17.4522267634374
 31
0.0
  0
LINE
  5
1C1
330
6C
100
AcDbEntity
  8
Visible (ANSI)
100
AcDbLine
 10
71.03628054956867
 20
17.4522267634374
 30
0.0
 11
71.08047472339283
 21
17.47767649554942
 31
0.0
  0
LINE
  5
1C2
330
6C
100
AcDbEntity
  8
Visible (ANSI)
100
AcDbLine
 10
71.31617698378838
 20
17.61446029923284
 30
0.0
 11
71.27198280996421
 21
17.58901056712081
 31
0.0
  0
LINE
  5
1C3
330
6C
100
AcDbEntity
  8
Visible (ANSI)
100
AcDbLine
 10
71.22034044471156
 20
18.28259769279025
 30
0.0
 11
71.22043472561571
 21
18.28254340002841
 31
0.0
  0
LINE
  5
1C4
330
6C
100
AcDbEntity
  8
Visible (ANSI)
100
AcDbLine
 10
71.22043472561573
 20
31.77970139976223
 30
0.0
 11
71.22034044471156
 21
31.77975569252406
 31
0.0
  0
LINE
  5
1C5
330
6C
100
AcDbEntity
  8
Visible (ANSI)
100
AcDbLine
 10
71.32353089431273
 20
18.28254340002843
 30
0.0
 11
71.63684990905642
 21
18.46297182080983
 31
0.0
  0
LINE
  5
1C6
330
6C
100
AcDbEntity
  8
Visible (ANSI)
100
AcDbLine
 10
71.63684990905643
 20
31.96012982054365
 30
0.0
 11
71.63684990905642
 21
18.46297182080983
 31
0.0
  0
LINE
  5
1C7
330
6C
100
AcDbEntity
  8
Visible (ANSI)
100
AcDbLine
 10
71.63684990905643
 20
31.96012982054365
 30
0.0
 11
71.32353089431274
 21
31.77970139976225
 31
0.0
  0
LINE
  5
1C8
330
6C
100
AcDbEntity
  8
Visible (ANSI)
100
AcDbLine
 10
71.59265573523227
 20
31.98557955265566
 30
0.0
 11
71.63684990905643
 21
31.96012982054365
 31
0.0
  0
LINE
  5
1C9
330
6C
100
AcDbEntity
  8
Visible (ANSI)
100
AcDbLine
 10
71.31617698378838
 20
31.82636602856284
 30
0.0
 11
71.59265573523227
 21
31.98557955265566
 31
0.0
  0
LINE
  5
1CA
330
6C
100
AcDbEntity
  8
Visible (ANSI)
100
AcDbLine
 10
70.46210984324511
 20
33.09304743839218
 30
0.0
 11
70.46210984324511
 21
33.09315644467549
 31
0.0
  0
LINE
  5
1CB
330
6C
100
AcDbEntity
  8
Visible (ANSI)
100
AcDbLine
 10
58.78824829037426
 20
39.81568621557669
 30
0.0
 11
58.78824829037426
 21
39.81557720929338
 31
0.0
  0
LINE
  5
1CC
330
6C
100
AcDbEntity
  8
Visible (ANSI)
100
AcDbLine
 10
70.51365792759357
 20
33.18244019761195
 30
0.0
 11
70.82697694233733
 21
33.36286861839338
 31
0.0
  0
LINE
  5
1CD
330
6C
100
AcDbEntity
  8
Visible (ANSI)
100
AcDbLine
 10
59.15311538946646
 20
40.08539838929459
 30
0.0
 11
70.82697694233733
 21
33.36286861839338
 31
0.0
  0
LINE
  5
1CE
330
6C
100
AcDbEntity
  8
Visible (ANSI)
100
AcDbLine
 10
59.15311538946646
 20
40.08539838929459
 30
0.0
 11
58.83979637472277
 21
39.90496996851318
 31
0.0
  0
LINE
  5
1CF
330
6C
100
AcDbEntity
  8
Visible (ANSI)
100
AcDbLine
 10
70.82697694233733
 20
33.31177192309072
 30
0.0
 11
70.55066943954418
 21
33.15265701453721
 31
0.0
  0
LINE
  5
1D0
330
6C
100
AcDbEntity
  8
Visible (ANSI)
100
AcDbLine
 10
70.82697694233733
 20
33.36286861839338
 30
0.0
 11
70.82697694233733
 21
33.31177192309072
 31
0.0
  0
LINE
  5
1D1
330
6C
100
AcDbEntity
  8
Visible (ANSI)
100
AcDbLine
 10
57.97837532365516
 20
40.06914451689362
 30
0.0
 11
58.2140775840507
 21
40.20592832057704
 31
0.0
  0
LINE
  5
1D2
330
6C
100
AcDbEntity
  8
Visible (ANSI)
100
AcDbLine
 10
58.2140775840507
 20
40.20592832057704
 30
0.0
 11
58.25827175787485
 21
40.23137805268905
 31
0.0
  0
LINE
  5
1D3
330
6C
100
AcDbEntity
  8
Visible (ANSI)
100
AcDbLine
 10
57.97837532365514
 20
39.40540525780479
 30
0.0
 11
58.03001768890781
 21
39.37566639750749
 31
0.0
  0
LINE
  5
1D4
330
6C
100
AcDbEntity
  8
Visible (ANSI)
100
AcDbLine
 10
58.03001768890781
 20
39.37566639750749
 30
0.0
 11
58.03001768890781
 21
39.37555739122418
 31
0.0
  0
LINE
  5
1D5
330
6C
100
AcDbEntity
  8
Visible Narrow (ANSI)
100
AcDbLine
 10
58.02992340800366
 20
39.37561168398602
 30
0.0
 11
58.02992340800365
 21
25.87845368425222
 31
0.0
  0
LINE
  5
1D6
330
6C
100
AcDbEntity
  8
Visible (ANSI)
100
AcDbLine
 10
58.0300176889078
 20
25.87839939149038
 30
0.0
 11
58.0300176889078
 21
25.87829038520706
 31
0.0
  0
LINE
  5
1D7
330
6C
100
AcDbEntity
  8
Visible (ANSI)
100
AcDbLine
 10
58.0300176889078
 20
25.87829038520706
 30
0.0
 11
57.97837532365514
 21
25.90802924550436
 31
0.0
  0
ELLIPSE
  5
1D8
330
6C
100
AcDbEntity
  8
Visible (ANSI)
100
AcDbEllipse
 10
58.08147149235215
 20
39.40529625152148
 30
0.0
 11
-0.0728999999999919
 21
0.0000000000000001
 31
0.0
210
0.0
220
0.0
230
1.0
 40
0.575861700985309
 41
0.7247905929202503
 42
0.7853981633975362
  0
ELLIPSE
  5
1D9
330
6C
100
AcDbEntity
  8
Visible (ANSI)
100
AcDbEllipse
 10
58.08147149235215
 20
25.90813825178767
 30
0.0
 11
-0.0729
 21
0.0000000000000001
 31
0.0
210
0.0
220
0.0
230
1.0
 40
0.5758617009853094
 41
0.0
 42
0.7853981633974163
  0
LINE
  5
1DA
330
6C
100
AcDbEntity
  8
Visible (ANSI)
100
AcDbLine
 10
57.97837532365514
 20
25.90802924550436
 30
0.0
 11
58.00857149235215
 21
25.92541806257346
 31
0.0
  0
LINE
  5
1DB
330
6C
100
AcDbEntity
  8
Visible (ANSI)
100
AcDbLine
 10
58.00857149235215
 20
39.3880164407357
 30
0.0
 11
58.00857149235215
 21
25.90813825178767
 31
0.0
  0
LINE
  5
1DC
330
6C
100
AcDbEntity
  8
Visible (ANSI)
100
AcDbLine
 10
58.03001768890781
 20
39.37555739122418
 30
0.0
 11
58.02992340800366
 21
39.37561168398602
 31
0.0
  0
LINE
  5
1DD
330
6C
100
AcDbEntity
  8
Visible (ANSI)
100
AcDbLine
 10
58.02992340800365
 20
25.87845368425222
 30
0.0
 11
58.0300176889078
 21
25.87839939149038
 31
0.0
  0
LINE
  5
1DE
330
6C
100
AcDbEntity
  8
Visible (ANSI)
100
AcDbLine
 10
58.20171625467718
 20
39.5339097399595
 30
0.0
 11
58.2564945821005
 21
39.56545448076663
 31
0.0
  0
LINE
  5
1DF
330
6C
100
AcDbEntity
  8
Visible (ANSI)
100
AcDbLine
 10
58.28090946922137
 20
39.52861461496938
 30
0.0
 11
58.22132462451421
 21
39.49430198494335
 31
0.0
  0
LINE
  5
1E0
330
6C
100
AcDbEntity
  8
Visible (ANSI)
100
AcDbLine
 10
58.21407758405069
 20
24.83604237353726
 30
0.0
 11
57.97837532365514
 21
25.24428998641552
 31
0.0
  0
DIMENSION
  5
1E1
330
6C
100
AcDbEntity
  8
Dimension (ANSI)
100
AcDbDimension
  2
*D4
 10
37.5312229645038
 20
43.85319358100199
 30
0.0
 11
23.4312229645038
 21
43.85319358100199
 31
0.0
 70
   160
  1
<>
 42
28.2
  3
Default (ANSI)
100
AcDbAlignedDimension
 13
9.331222964503803
 23
37.90393723804486
 33
0.0
 14
37.5312229645038
 24
37.90393723804487
 34
0.0
100
AcDbRotatedDimension
1001
ACAD
1000
DSTYLE
1002
{
1070
   289
1070
     1
1070
    73
1070
     0
1070
    74
1070
     0
1070
   271
1070
     2
1070
   272
1070
     2
1070
    48
1040
0.0
1070
    47
1040
0.0
1002
}
  0
DIMENSION
  5
2CE
330
6C
100
AcDbEntity
  8
Dimension (ANSI)
100
AcDbDimension
  2
*D5
 10
37.03122296450381
 20
42.25345604819358
 30
0.0
 11
23.4312229645038
 21
42.25345604819358
 31
0.0
 70
   160
  1
<>{ TYP.}
 71
     5
 42
27.20000000000001
  3
Default (ANSI)
100
AcDbAlignedDimension
 13
9.831222964503803
 23
38.40393723804485
 33
0.0
 14
37.03122296450381
 24
38.40393723804486
 34
0.0
 50
180.0
100
AcDbRotatedDimension
1001
ACAD
1000
DSTYLE
1002
{
1070
   289
1070
     1
1070
    73
1070
     0
1070
    74
1070
     0
1070
   271
1070
     2
1070
   272
1070
     2
1070
    48
1040
0.0
1070
    47
1040
0.0
1002
}
  0
DIMENSION
  5
3B8
330
6C
100
AcDbEntity
  8
Dimension (ANSI)
100
AcDbDimension
  2
*D6
 10
9.831222964503803
 20
42.25345604819358
 30
0.0
 11
7.639101156122008
 21
42.25345604819358
 31
0.0
 70
   160
  1
<>{\PTYP.}
 71
     5
 42
0.5
  3
Default (ANSI)
100
AcDbAlignedDimension
 13
9.331222964503803
 23
37.90393723804486
 33
0.0
 14
9.831222964503803
 24
38.40393723804485
 34
0.0
 50
180.0
100
AcDbRotatedDimension
1001
ACAD
1000
DSTYLE
1002
{
1070
   289
1070
     1
1070
    73
1070
     0
1070
    74
1070
     0
1070
   271
1070
     2
1070
   272
1070
     2
1070
    48
1040
0.0
1070
    47
1040
0.0
1002
}
  0
DIMENSION
  5
4B6
330
6C
100
AcDbEntity
  8
Dimension (ANSI)
100
AcDbDimension
  2
*D7
 10
4.195085376439166
 20
10.20393723804486
 30
0.0
 11
4.195085376439165
 21
24.30393723804485
 31
0.0
 70
   160
  1
<>
 42
28.19999999999999
  3
Default (ANSI)
100
AcDbAlignedDimension
 13
9.831222964503803
 23
38.40393723804485
 33
0.0
 14
9.831222964503808
 24
10.20393723804486
 34
0.0
 50
270.0
100
AcDbRotatedDimension
1001
ACAD
1000
DSTYLE
1002
{
1070
   289
1070
     1
1070
   271
1070
     2
1070
   272
1070
     2
1070
    48
1040
0.0
1070
    47
1040
0.0
1002
}
  0
DIMENSION
  5
5A0
330
6C
100
AcDbEntity
  8
Dimension (ANSI)
100
AcDbDimension
  2
*D8
 10
7.739136727584935
 20
37.90393723804486
 30
0.0
 11
7.739136727584929
 21
24.30393723804486
 31
0.0
 70
   160
  1
<>{\PTYP.}
 71
     5
 42
27.2
  3
Default (ANSI)
100
AcDbAlignedDimension
 13
9.331222964503808
 23
10.70393723804485
 33
0.0
 14
9.331222964503803
 24
37.90393723804486
 34
0.0
 50
90.0
100
AcDbRotatedDimension
1001
ACAD
1000
DSTYLE
1002
{
1070
   289
1070
     1
1070
   271
1070
     2
1070
   272
1070
     2
1070
    48
1040
0.0
1070
    47
1040
0.0
1002
}
  0
DIMENSION
  5
69E
330
6C
100
AcDbEntity
  8
Dimension (ANSI)
100
AcDbDimension
  2
*D9
 10
6.501743315942768
 20
37.90393723804486
 30
0.0
 11
7.756419814897507
 21
40.11463149548899
 31
0.0
 70
   160
  1
<>{\PTYP.}
 71
     5
 42
0.5
  3
Default (ANSI)
100
AcDbAlignedDimension
 13
9.831222964503803
 23
38.40393723804485
 33
0.0
 14
9.331222964503803
 24
37.90393723804486
 34
0.0
 50
90.0
100
AcDbRotatedDimension
1001
ACAD
1000
DSTYLE
1002
{
1070
   289
1070
     1
1070
   271
1070
     2
1070
   272
1070
     2
1070
    48
1040
0.0
1070
    47
1040
0.0
1002
}
  0
DIMENSION
  5
7B4
330
6C
100
AcDbEntity
  8
Dimension (ANSI)
100
AcDbDimension
  2
*D10
 10
9.674446269207146
 20
10.90071393334147
 30
0.0
 11
16.55867836819997
 21
8.110057429803028
 31
0.0
 70
   163
  1
<>{ TYP. (4 PL.)}
 42
0.5
  3
Default (ANSI)
100
AcDbDiametricDimension
 15
10.02799965980047
 25
10.54716054274825
 35
0.0
 40
0.0
1001
ACAD
1000
DSTYLE
1002
{
1070
   144
1040
0.9999999999999982
1070
   271
1070
     2
1070
   272
1070
     2
1070
    48
1040
0.0
1070
    47
1040
0.0
1002
}
1001
ACAD_DSTYLE_DIMRADIAL_EXTENSION
1070
   387
1070
     1
1070
   388
1040
0.0
1070
   390
1040
0.0
  0
DIMENSION
  5
85E
330
6C
100
AcDbEntity
  8
Dimension (ANSI)
100
AcDbDimension
  2
*D11
 10
9.740737529943395
 20
11.58442267260524
 30
0.0
 11
16.49561885288176
 21
8.923116945121222
 31
0.0
 70
   163
  1
<>{ TYP. (4 PL.)}
 42
0.3125
  3
Default (ANSI)
100
AcDbDiametricDimension
 15
9.961708399064223
 25
11.36345180348448
 35
0.0
 40
0.0
1001
ACAD
1000
DSTYLE
1002
{
1070
   144
1040
1.000000000000008
1070
   271
1070
     2
1070
   272
1070
     2
1070
    48
1040
0.0
1070
    47
1040
0.0
1002
}
1001
ACAD_DSTYLE_DIMRADIAL_EXTENSION
1070
   387
1070
     1
1070
   388
1040
0.0
1070
   390
1040
0.0
  0
DIMENSION
  5
907
330
6C
100
AcDbEntity
  8
Dimension (ANSI)
100
AcDbDimension
  2
*D12
 10
40.93039382272102
 20
10.72393723804486
 30
0.0
 11
39.67571732376627
 21
9.135709345238014
 31
0.0
 70
   160
  1
<>{ \PTYP.}
 71
     5
 42
0.5199999999999978
  3
Default (ANSI)
100
AcDbAlignedDimension
 13
37.03122296450381
 23
10.20393723804486
 33
0.0
 14
37.01122296450381
 24
10.72393723804486
 34
0.0
 50
90.0
100
AcDbRotatedDimension
1001
ACAD
1000
DSTYLE
1002
{
1070
   289
1070
     1
1070
   271
1070
     2
1070
   272
1070
     2
1070
    48
1040
0.0
1070
    47
1040
0.0
1002
}
  0
DIMENSION
  5
A1D
330
6C
100
AcDbEntity
  8
Dimension (ANSI)
100
AcDbDimension
  2
*D13
 10
42.71609568845732
 20
11.47393723804486
 30
0.0
 11
41.49316522172165
 21
9.134632402784996
 31
0.0
 70
   160
  1
<>{\PTYP.}
 71
     5
 42
1.269999999999999
  3
Default (ANSI)
100
AcDbAlignedDimension
 13
37.03122296450381
 23
10.20393723804486
 33
0.0
 14
37.01122296450381
 24
11.47393723804486
 34
0.0
 50
90.0
100
AcDbRotatedDimension
1001
ACAD
1000
DSTYLE
1002
{
1070
   289
1070
     1
1070
   271
1070
     2
1070
   272
1070
     2
1070
    48
1040
0.0
1070
    47
1040
0.0
1002
}
  0
DIMENSION
  5
B2F
330
6C
100
AcDbEntity
  8
Dimension (ANSI)
100
AcDbDimension
  2
*D14
 10
37.5312229645038
 20
9.15085356011092
 30
0.0
 11
35.31910115612202
 21
9.15085356011092
 31
0.0
 70
   160
  1
<>{\PTYP.}
 71
     5
 42
0.5199999999999961
  3
Default (ANSI)
100
AcDbAlignedDimension
 13
37.01122296450381
 23
11.47393723804486
 33
0.0
 14
37.5312229645038
 24
10.70393723804485
 34
0.0
 50
180.0
100
AcDbRotatedDimension
1001
ACAD
1000
DSTYLE
1002
{
1070
   289
1070
     1
1070
    73
1070
     0
1070
    74
1070
     0
1070
   271
1070
     2
1070
   272
1070
     2
1070
    48
1040
0.0
1070
    47
1040
0.0
1002
}
  0
DIMENSION
  5
C2D
330
6C
100
AcDbEntity
  8
Dimension (ANSI)
100
AcDbDimension
  2
*D15
 10
47.24306572230717
 20
37.78018219400615
 30
0.0
 11
44.18498797769191
 21
37.78018219400615
 31
0.0
 70
   160
  1
(<>){\P12 GA.\PGALV.}
 71
     5
 42
0.0937499999999929
  3
Default (ANSI)
100
AcDbAlignedDimension
 13
47.33681572230716
 23
26.17636951269658
 33
0.0
 14
47.24306572230717
 24
26.17636951269658
 34
0.0
100
AcDbRotatedDimension
1001
ACAD
1000
DSTYLE
1002
{
1070
   289
1070
     1
1070
    73
1070
     0
1070
    74
1070
     0
1070
   271
1070
     3
1070
   147
1040
0.031496062992126
1070
    72
1070
     0
1070
    71
1070
     0
1070
   272
1070
     3
1070
    48
1040
0.0
1070
    47
1040
0.0
1002
}
  0
MTEXT
  5
D35
102
{ACAD_XDICTIONARY
360
E38
102
}
330
6C
100
AcDbEntity
  8
Symbol (ANSI)
100
AcDbMText
 10
53.24475566308016
 20
8.300800429466855
 30
0.0
 40
0.4444444586285769
 41
20.76535462707359
 71
     4
 72
     1
  3
{\fRomanS|b0|i0|c0|p2;\H2x;PART#: NP3030CG\P(DATA SUBJECT TO CHANGE \H1.5533x; \H0.64379x;WITHOUT NOTICE) \H1.4593x; \H0.68528x;\P\H0.59996x;THIS DRAWING IS PROPERTY OF HUBBELL INC. \H1.4743x; \H0.67827x;WIEGMANN\H1.1569x; \H0.86437x;\PALL INFORMATIO
  1
N IS PROPRIETARY AND NOT TO \H1.1949x; \H0.83688x;BE DUPLICATED\H1.1904x; \H0.84008x;\P\H0.8333x; \H1.2291x; \H0.81361x;\P \H1.1396x; }
  7
Note Text (ANSI)
 73
     1
 44
0.8397688865661621
1001
ACAD
1000
MTEXTBEGIN
1070
    73
1070
     1
1070
    44
1040
0.8397688865661621
1070
    74
1070
     0
1000
MTEXTEND
  0
LINE
  5
D37
330
6C
100
AcDbEntity
  8
Center Mark (ANSI)
  6
CHAIN
 48
0.2012779265642166
100
AcDbLine
 10
9.045667408948252
 20
37.88393723804485
 30
0.0
 11
10.65677852005936
 21
37.88393723804485
 31
0.0
  0
LINE
  5
D38
330
6C
100
AcDbEntity
  8
Center Mark (ANSI)
  6
CHAIN
 48
0.2012779265642166
100
AcDbLine
 10
37.81677852005937
 20
37.88393723804486
 30
0.0
 11
36.20566740894826
 21
37.88393723804486
 31
0.0
  0
LINE
  5
D39
330
6C
100
AcDbEntity
  8
Centerline (ANSI)
  6
CHAIN
 48
0.9524481296539306
100
AcDbLine
 10
9.045667408948252
 20
37.88393723804485
 30
0.0
 11
37.81677852005937
 21
37.88393723804486
 31
0.0
  0
LINE
  5
D3A
330
6C
100
AcDbEntity
  8
Center Mark (ANSI)
  6
CHAIN
 48
0.2012779265642166
100
AcDbLine
 10
37.01122296450381
 20
9.918381682489302
 30
0.0
 11
37.01122296450381
 21
11.52949279360041
 31
0.0
  0
LINE
  5
D3B
330
6C
100
AcDbEntity
  8
Centerline (ANSI)
  6
CHAIN
 48
0.9524481296539306
100
AcDbLine
 10
37.01122296450381
 20
38.68949279360041
 30
0.0
 11
37.01122296450381
 21
9.9183816824893
 31
0.0
  0
LINE
  5
D3C
330
6C
100
AcDbEntity
  8
Center Mark (ANSI)
  6
CHAIN
 48
0.2012779265642166
100
AcDbLine
 10
9.045667408948252
 20
10.72393723804486
 30
0.0
 11
10.65677852005936
 21
10.72393723804486
 31
0.0
  0
LINE
  5
D3D
330
6C
100
AcDbEntity
  8
Centerline (ANSI)
  6
CHAIN
 48
0.9524481296539306
100
AcDbLine
 10
37.81677852005937
 20
10.72393723804486
 30
0.0
 11
9.045667408948256
 21
10.72393723804486
 31
0.0
  0
LINE
  5
D3E
330
6C
100
AcDbEntity
  8
Centerline (ANSI)
  6
CHAIN
 48
0.9524481296539306
100
AcDbLine
 10
9.851222964503808
 20
9.918381682489302
 30
0.0
 11
9.851222964503808
 21
38.68949279360041
 31
0.0
  0
LINE
  5
D3F
330
6C
100
AcDbEntity
  8
Center Mark (ANSI)
  6
CHAIN
 48
0.1778417080640793
100
AcDbLine
 10
9.851222964503808
 20
37.84574279360041
 30
0.0
 11
9.851222964503808
 21
36.42213168248929
 31
0.0
  0
LINE
  5
D40
330
6C
100
AcDbEntity
  8
Center Mark (ANSI)
  6
CHAIN
 48
0.1778417080640793
100
AcDbLine
 10
37.01122296450381
 20
37.84574279360042
 30
0.0
 11
37.01122296450381
 21
36.4221316824893
 31
0.0
  0
LINE
  5
D41
330
6C
100
AcDbEntity
  8
Centerline (ANSI)
  6
CHAIN
 48
0.9524481296539306
100
AcDbLine
 10
9.139417408948252
 20
37.13393723804485
 30
0.0
 11
37.72302852005937
 21
37.13393723804486
 31
0.0
  0
LINE
  5
D42
330
6C
100
AcDbEntity
  8
Center Mark (ANSI)
  6
CHAIN
 48
0.1778417080640793
100
AcDbLine
 10
9.851222964503808
 20
12.18574279360041
 30
0.0
 11
9.851222964503808
 21
10.7621316824893
 31
0.0
  0
LINE
  5
D43
330
6C
100
AcDbEntity
  8
Center Mark (ANSI)
  6
CHAIN
 48
0.1778417080640793
100
AcDbLine
 10
37.01122296450381
 20
12.18574279360041
 30
0.0
 11
37.01122296450381
 21
10.7621316824893
 31
0.0
  0
LINE
  5
D44
330
6C
100
AcDbEntity
  8
Centerline (ANSI)
  6
CHAIN
 48
0.9524481296539306
100
AcDbLine
 10
9.139417408948252
 20
11.47393723804486
 30
0.0
 11
37.72302852005937
 21
11.47393723804486
 31
0.0
  0
DIMENSION
  5
D45
330
6C
100
AcDbEntity
  8
Dimension (ANSI)
100
AcDbDimension
  2
*D16
 10
48.01706572230717
 20
35.0282497121435
 30
0.0
 11
49.8559694004118
 21
35.0282497121435
 31
0.0
 70
   160
  1
<>
 42
0.7739999999999938
  3
Default (ANSI)
100
AcDbAlignedDimension
 13
47.24306572230717
 23
37.90393723804487
 33
0.0
 14
48.01706572230717
 24
36.68593723804487
 34
0.0
 50
180.0
100
AcDbRotatedDimension
1001
ACAD
1000
DSTYLE
1002
{
1070
   289
1070
     1
1070
    73
1070
     0
1070
    74
1070
     0
1070
   271
1070
     2
1070
    76
1070
     1
1070
   272
1070
     2
1070
    48
1040
0.0
1070
    47
1040
0.0
1002
}
  0
ENDSEC
  0
SECTION
  2
OBJECTS
  0
DICTIONARY
  5
C
330
0
100
AcDbDictionary
281
     1
  3
ACAD_CIP_PREVIOUS_PRODUCT_INFO
350
E2A
  3
ACAD_COLOR
350
63
  3
ACAD_GROUP
350
D
  3
ACAD_LAYOUT
350
62
  3
ACAD_MATERIAL
350
10
  3
ACAD_MLEADERSTYLE
350
66
  3
ACAD_MLINESTYLE
350
5F
  3
ACAD_PLOTSETTINGS
350
61
  3
ACAD_PLOTSTYLENAME
350
E
  3
ACAD_SCALELIST
350
42
  3
ACAD_TABLESTYLE
350
64
  3
ACAD_VISUALSTYLE
350
29
  3
ACDB_RECOMPOSE_DATA
350
E3A
  3
AcDbVariableDictionary
350
76
  3
DWGPROPS
350
E3B
  0
DICTIONARY
  5
E77
330
858
100
AcDbDictionary
280
     1
281
     1
  3
ACAD_MTEXT_RT
360
E78
  0
DICTIONARY
  5
E79
330
901
100
AcDbDictionary
280
     1
281
     1
  3
ACAD_MTEXT_RT
360
E7A
  0
DICTIONARY
  5
E38
330
D35
100
AcDbDictionary
280
     1
281
     1
  3
ACAD_MTEXT_2008_RT
360
E39
  0
XRECORD
  5
E2A
102
{ACAD_REACTORS
330
C
102
}
330
C
100
AcDbXrecord
280
     1
300
INVNTOR
300
2012
300
85795PDSP_2012_0F
  0
DICTIONARY
  5
63
102
{ACAD_REACTORS
330
C
102
}
330
C
100
AcDbDictionary
281
     1
  0
DICTIONARY
  5
D
102
{ACAD_REACTORS
330
C
102
}
330
C
100
AcDbDictionary
281
     1
  0
DICTIONARY
  5
62
102
{ACAD_REACTORS
330
C
102
}
330
C
100
AcDbDictionary
281
     1
  3
Layout1
350
6B
  3
Layout2
350
73
  3
Model
350
6F
  0
DICTIONARY
  5
10
102
{ACAD_REACTORS
330
C
102
}
330
C
100
AcDbDictionary
281
     1
  3
ByBlock
350
19
  3
ByLayer
350
11
  3
Global
350
21
  0
DICTIONARY
  5
66
102
{ACAD_REACTORS
330
C
102
}
330
C
100
AcDbDictionary
281
     1
  3
Standard
350
67
  0
DICTIONARY
  5
5F
102
{ACAD_REACTORS
330
C
102
}
330
C
100
AcDbDictionary
281
     1
  3
Standard
350
60
  0
DICTIONARY
  5
61
102
{ACAD_REACTORS
330
C
102
}
330
C
100
AcDbDictionary
281
     1
  0
ACDBDICTIONARYWDFLT
  5
E
102
{ACAD_REACTORS
330
C
102
}
330
C
100
AcDbDictionary
281
     1
  3
Normal
350
F
100
AcDbDictionaryWithDefault
340
F
  0
DICTIONARY
  5
42
102
{ACAD_REACTORS
330
C
102
}
330
C
100
AcDbDictionary
281
     1
  3
A0
350
43
  3
A1
350
44
  3
A2
350
45
  3
A3
350
46
  3
A4
350
47
  3
A5
350
48
  3
A6
350
49
  3
A7
350
4A
  3
A8
350
4B
  3
A9
350
4C
  3
B0
350
4D
  3
B1
350
4E
  3
B2
350
4F
  3
B3
350
50
  3
B4
350
51
  3
B5
350
52
  3
B6
350
53
  0
DICTIONARY
  5
64
102
{ACAD_REACTORS
330
C
102
}
330
C
100
AcDbDictionary
281
     1
  3
Standard
350
65
  0
DICTIONARY
  5
29
102
{ACAD_REACTORS
330
C
102
}
330
C
100
AcDbDictionary
281
     1
  3
2dWireframe
350
2F
  3
Basic
350
2E
  3
Brighten
350
35
  3
ColorChange
350
39
  3
Conceptual
350
32
  3
Dim
350
34
  3
EdgeColorOff
350
41
  3
Facepattern
350
38
  3
Flat
350
2A
  3
FlatWithEdges
350
2B
  3
Gouraud
350
2C
  3
GouraudWithEdges
350
2D
  3
Hidden
350
31
  3
JitterOff
350
3F
  3
Linepattern
350
37
  3
OverhangOff
350
40
  3
Realistic
350
33
  3
Shaded
350
3E
  3
Shaded with edges
350
3D
  3
Shades of Gray
350
3A
  3
Sketchy
350
3B
  3
Thicken
350
36
  3
Wireframe
350
30
  3
X-Ray
350
3C
  0
XRECORD
  5
E3A
102
{ACAD_REACTORS
330
C
102
}
330
C
100
AcDbXrecord
280
     1
 90
        1
330
65
330
D35
  0
DICTIONARY
  5
76
102
{ACAD_REACTORS
330
C
102
}
330
C
100
AcDbDictionary
281
     1
  3
CANNOSCALE
350
79
  3
CMLEADERSTYLE
350
78
  3
CTABLESTYLE
350
77
  3
DIMASSOC
350
E32
  3
HIDETEXT
350
E31
  3
INDEXCTL
350
E30
  3
LAYEREVAL
350
E2D
  3
LAYERNOTIFY
350
E2E
  3
LIGHTINGUNITS
350
E2C
  3
MSLTSCALE
350
E2B
  3
SORTENTS
350
E2F
  3
XCLIPFRAME
350
E33
  0
XRECORD
  5
E3B
102
{ACAD_REACTORS
330
C
102
}
330
C
100
AcDbXrecord
280
     1
  1
DWGPROPS COOKIE
  2

  3

  4
JF
  6

  7

  8

  9
-
300
Manager=
301
Company=
302
Category=
303
Part Number=NP3030CG-S
304
Description=
305
Project=
306
Designer=JF
307
Engineer=
308
Authority=
309
Cost Center=
 40
0.0000363541666667
 41
2455946.375371436
 42
2455946.375371436
  1

 90
       22
300
Vendor=
300
User Status=
300
Design Status=WorkInProgress
300
Checked by=DN
300
Date Checked=01/18/2012
300
Engr Approved by=
300
Date Eng Approved=01/18/2012
300
Mfg Approved by=
300
Date Mfg Approved=01/18/2012
300
DWG. NO=
300
NUMBER OF SHEETS=1
300
DRAWING #=
  0
XRECORD
  5
E78
102
{ACAD_REACTORS
330
E77
102
}
330
E77
100
AcDbXrecord
280
     1
 40
28737.0
  1
\A1;\U+22050.50{ TYP. (4 PL.)}
  0
XRECORD
  5
E7A
102
{ACAD_REACTORS
330
E79
102
}
330
E79
100
AcDbXrecord
280
     1
 40
28724.0
  1
\A1;\U+22050.31{ TYP. (4 PL.)}
  0
XRECORD
  5
E39
102
{ACAD_REACTORS
330
E38
102
}
330
E38
100
AcDbXrecord
280
     1
 40
4897615.0
  1
\pxsm0.94;{\fRomanS|b0|i0;\H0.8889;PART#: NP3030CG\P(DATA SUBJECT TO CHANGE WITHOUT NOTICE) \P\fRomanS|b0|i0;\H0.5333;THIS DRAWING IS PROPERTY OF HUBBELL INC. WIEGMANN\PALL INFORMATION IS PROPRIETARY AND NOT TO BE DUPLICATED\P\fRomanS|b0|i0;\H0.4444;
  1
 \P }
  0
LAYOUT
  5
6B
102
{ACAD_XDICTIONARY
360
E71
102
}
102
{ACAD_REACTORS
330
62
102
}
330
62
100
AcDbPlotSettings
  1

  2

  4

  6

 40
0.0
 41
0.0
 42
0.0
 43
0.0
 44
0.0
 45
0.0
 46
0.0
 47
0.0
 48
0.0
 49
0.0
140
0.0
141
0.0
142
1.0
143
1.0
 70
   688
 72
     0
 73
     0
 74
     5
  7

 75
    16
147
1.0
148
0.0
149
0.0
100
AcDbLayout
  1
Layout1
 70
     1
 71
     1
 10
0.0
 20
0.0
 11
12.0
 21
9.0
 12
0.0
 22
0.0
 32
0.0
 14
0.0
 24
0.0
 34
0.0
 15
0.0
 25
0.0
 35
0.0
146
0.0
 13
0.0
 23
0.0
 33
0.0
 16
1.0
 26
0.0
 36
0.0
 17
0.0
 27
1.0
 37
0.0
 76
     0
330
68
  0
LAYOUT
  5
73
102
{ACAD_XDICTIONARY
360
E75
102
}
102
{ACAD_REACTORS
330
62
102
}
330
62
100
AcDbPlotSettings
  1

  2

  4

  6

 40
0.0
 41
0.0
 42
0.0
 43
0.0
 44
0.0
 45
0.0
 46
0.0
 47
0.0
 48
0.0
 49
0.0
140
0.0
141
0.0
142
1.0
143
1.0
 70
   688
 72
     0
 73
     0
 74
     5
  7

 75
    16
147
1.0
148
0.0
149
0.0
100
AcDbLayout
  1
Layout2
 70
     1
 71
     2
 10
0.0
 20
0.0
 11
12.0
 21
9.0
 12
0.0
 22
0.0
 32
0.0
 14
0.0
 24
0.0
 34
0.0
 15
0.0
 25
0.0
 35
0.0
146
0.0
 13
0.0
 23
0.0
 33
0.0
 16
1.0
 26
0.0
 36
0.0
 17
0.0
 27
1.0
 37
0.0
 76
     0
330
70
  0
LAYOUT
  5
6F
102
{ACAD_XDICTIONARY
360
E73
102
}
102
{ACAD_REACTORS
330
62
102
}
330
62
100
AcDbPlotSettings
  1

  2

  4

  6

 40
0.0
 41
0.0
 42
0.0
 43
0.0
 44
0.0
 45
0.0
 46
0.0
 47
0.0
 48
0.0
 49
0.0
140
0.0
141
0.0
142
1.0
143
1.0
 70
  1712
 72
     0
 73
     0
 74
     0
  7

 75
     0
147
1.0
148
0.0
149
0.0
100
AcDbLayout
  1
Model
 70
     1
 71
     0
 10
0.0
 20
0.0
 11
12.0
 21
9.0
 12
0.0
 22
0.0
 32
0.0
 14
0.0
 24
0.0
 34
0.0
 15
0.0
 25
0.0
 35
0.0
146
0.0
 13
0.0
 23
0.0
 33
0.0
 16
1.0
 26
0.0
 36
0.0
 17
0.0
 27
1.0
 37
0.0
 76
     0
330
6C
  0
MATERIAL
  5
19
102
{ACAD_XDICTIONARY
360
1A
102
}
102
{ACAD_REACTORS
330
10
102
}
330
10
100
AcDbMaterial
  1
ByBlock
 72
     0
 43
0.0208333333333333
 43
0.0
 43
0.0
 43
0.0
 43
0.0
 43
0.0208333333333333
 43
0.0
 43
0.0
 43
0.0
 43
0.0
 43
1.0
 43
0.0
 43
0.0
 43
0.0
 43
0.0
 43
1.0
 77
     0
 47
0.0208333333333333
 47
0.0
 47
0.0
 47
0.0
 47
0.0
 47
0.0208333333333333
 47
0.0
 47
0.0
 47
0.0
 47
0.0
 47
1.0
 47
0.0
 47
0.0
 47
0.0
 47
0.0
 47
1.0
171
     0
 49
0.0208333333333333
 49
0.0
 49
0.0
 49
0.0
 49
0.0
 49
0.0208333333333333
 49
0.0
 49
0.0
 49
0.0
 49
0.0
 49
1.0
 49
0.0
 49
0.0
 49
0.0
 49
0.0
 49
1.0
175
     0
142
0.0208333333333333
142
0.0
142
0.0
142
0.0
142
0.0
142
0.0208333333333333
142
0.0
142
0.0
142
0.0
142
0.0
142
1.0
142
0.0
142
0.0
142
0.0
142
0.0
142
1.0
179
     0
144
0.0208333333333333
144
0.0
144
0.0
144
0.0
144
0.0
144
0.0208333333333333
144
0.0
144
0.0
144
0.0
144
0.0
144
1.0
144
0.0
144
0.0
144
0.0
144
0.0
144
1.0
147
0.0208333333333333
147
0.0
147
0.0
147
0.0
147
0.0
147
0.0208333333333333
147
0.0
147
0.0
147
0.0
147
0.0
147
1.0
147
0.0
147
0.0
147
0.0
147
0.0
147
1.0
  0
MATERIAL
  5
11
102
{ACAD_XDICTIONARY
360
12
102
}
102
{ACAD_REACTORS
330
10
102
}
330
10
100
AcDbMaterial
  1
ByLayer
 72
     0
 43
0.0208333333333333
 43
0.0
 43
0.0
 43
0.0
 43
0.0
 43
0.0208333333333333
 43
0.0
 43
0.0
 43
0.0
 43
0.0
 43
1.0
 43
0.0
 43
0.0
 43
0.0
 43
0.0
 43
1.0
 77
     0
 47
0.0208333333333333
 47
0.0
 47
0.0
 47
0.0
 47
0.0
 47
0.0208333333333333
 47
0.0
 47
0.0
 47
0.0
 47
0.0
 47
1.0
 47
0.0
 47
0.0
 47
0.0
 47
0.0
 47
1.0
171
     0
 49
0.0208333333333333
 49
0.0
 49
0.0
 49
0.0
 49
0.0
 49
0.0208333333333333
 49
0.0
 49
0.0
 49
0.0
 49
0.0
 49
1.0
 49
0.0
 49
0.0
 49
0.0
 49
0.0
 49
1.0
175
     0
142
0.0208333333333333
142
0.0
142
0.0
142
0.0
142
0.0
142
0.0208333333333333
142
0.0
142
0.0
142
0.0
142
0.0
142
1.0
142
0.0
142
0.0
142
0.0
142
0.0
142
1.0
179
     0
144
0.0208333333333333
144
0.0
144
0.0
144
0.0
144
0.0
144
0.0208333333333333
144
0.0
144
0.0
144
0.0
144
0.0
144
1.0
144
0.0
144
0.0
144
0.0
144
0.0
144
1.0
147
0.0208333333333333
147
0.0
147
0.0
147
0.0
147
0.0
147
0.0208333333333333
147
0.0
147
0.0
147
0.0
147
0.0
147
1.0
147
0.0
147
0.0
147
0.0
147
0.0
147
1.0
  0
MATERIAL
  5
21
102
{ACAD_XDICTIONARY
360
22
102
}
102
{ACAD_REACTORS
330
10
102
}
330
10
100
AcDbMaterial
  1
Global
 72
     0
 43
0.0208333333333333
 43
0.0
 43
0.0
 43
0.0
 43
0.0
 43
0.0208333333333333
 43
0.0
 43
0.0
 43
0.0
 43
0.0
 43
1.0
 43
0.0
 43
0.0
 43
0.0
 43
0.0
 43
1.0
 77
     0
 47
0.0208333333333333
 47
0.0
 47
0.0
 47
0.0
 47
0.0
 47
0.0208333333333333
 47
0.0
 47
0.0
 47
0.0
 47
0.0
 47
1.0
 47
0.0
 47
0.0
 47
0.0
 47
0.0
 47
1.0
171
     0
 49
0.0208333333333333
 49
0.0
 49
0.0
 49
0.0
 49
0.0
 49
0.0208333333333333
 49
0.0
 49
0.0
 49
0.0
 49
0.0
 49
1.0
 49
0.0
 49
0.0
 49
0.0
 49
0.0
 49
1.0
175
     0
142
0.0208333333333333
142
0.0
142
0.0
142
0.0
142
0.0
142
0.0208333333333333
142
0.0
142
0.0
142
0.0
142
0.0
142
1.0
142
0.0
142
0.0
142
0.0
142
0.0
142
1.0
179
     0
144
0.0208333333333333
144
0.0
144
0.0
144
0.0
144
0.0
144
0.0208333333333333
144
0.0
144
0.0
144
0.0
144
0.0
144
1.0
144
0.0
144
0.0
144
0.0
144
0.0
144
1.0
147
0.0208333333333333
147
0.0
147
0.0
147
0.0
147
0.0
147
0.0208333333333333
147
0.0
147
0.0
147
0.0
147
0.0
147
1.0
147
0.0
147
0.0
147
0.0
147
0.0
147
1.0
  0
MLEADERSTYLE
  5
67
102
{ACAD_XDICTIONARY
360
E36
102
}
102
{ACAD_REACTORS
330
66
102
}
330
66
100
AcDbMLeaderStyle
170
     2
171
     1
172
     0
 90
        2
 40
0.0
 41
0.0
173
     1
 91
-1056964608
340
5B
 92
       -2
290
     1
 42
0.09
291
     1
 43
0.36
  3
Standard
 44
0.18
300

342
55
174
     1
178
     6
175
     1
176
     0
 93
-1056964608
 45
0.18
292
     0
297
     0
 46
0.18
 94
-1056964608
 47
1.0
 49
1.0
140
1.0
293
     1
141
0.0
294
     1
177
     0
142
1.0
295
     0
296
     0
143
0.125
1001
ACAD_MLEADERVER
1070
     2
  0
MLINESTYLE
  5
60
102
{ACAD_REACTORS
330
5F
102
}
330
5F
100
AcDbMlineStyle
  2
STANDARD
 70
     0
  3

 62
   256
 51
90.0
 52
90.0
 71
     2
 49
0.5
 62
   256
  6
BYLAYER
 49
-0.5
 62
   256
  6
BYLAYER
  0
ACDBPLACEHOLDER
  5
F
102
{ACAD_REACTORS
330
E
102
}
330
E
  0
SCALE
  5
43
102
{ACAD_REACTORS
330
42
102
}
330
42
100
AcDbScale
 70
     0
300
1:1
140
1.0
141
1.0
290
     1
  0
SCALE
  5
44
102
{ACAD_REACTORS
330
42
102
}
330
42
100
AcDbScale
 70
     0
300
1/128" = 1'-0"
140
0.0078125
141
12.0
290
     0
  0
SCALE
  5
45
102
{ACAD_REACTORS
330
42
102
}
330
42
100
AcDbScale
 70
     0
300
1/64" = 1'-0"
140
0.015625
141
12.0
290
     0
  0
SCALE
  5
46
102
{ACAD_REACTORS
330
42
102
}
330
42
100
AcDbScale
 70
     0
300
1/32" = 1'-0"
140
0.03125
141
12.0
290
     0
  0
SCALE
  5
47
102
{ACAD_REACTORS
330
42
102
}
330
42
100
AcDbScale
 70
     0
300
1/16" = 1'-0"
140
0.0625
141
12.0
290
     0
  0
SCALE
  5
48
102
{ACAD_REACTORS
330
42
102
}
330
42
100
AcDbScale
 70
     0
300
3/32" = 1'-0"
140
0.09375
141
12.0
290
     0
  0
SCALE
  5
49
102
{ACAD_REACTORS
330
42
102
}
330
42
100
AcDbScale
 70
     0
300
1/8" = 1'-0"
140
0.125
141
12.0
290
     0
  0
SCALE
  5
4A
102
{ACAD_REACTORS
330
42
102
}
330
42
100
AcDbScale
 70
     0
300
3/16" = 1'-0"
140
0.1875
141
12.0
290
     0
  0
SCALE
  5
4B
102
{ACAD_REACTORS
330
42
102
}
330
42
100
AcDbScale
 70
     0
300
1/4" = 1'-0"
140
0.25
141
12.0
290
     0
  0
SCALE
  5
4C
102
{ACAD_REACTORS
330
42
102
}
330
42
100
AcDbScale
 70
     0
300
3/8" = 1'-0"
140
0.375
141
12.0
290
     0
  0
SCALE
  5
4D
102
{ACAD_REACTORS
330
42
102
}
330
42
100
AcDbScale
 70
     0
300
1/2" = 1'-0"
140
0.5
141
12.0
290
     0
  0
SCALE
  5
4E
102
{ACAD_REACTORS
330
42
102
}
330
42
100
AcDbScale
 70
     0
300
3/4" = 1'-0"
140
0.75
141
12.0
290
     0
  0
SCALE
  5
4F
102
{ACAD_REACTORS
330
42
102
}
330
42
100
AcDbScale
 70
     0
300
1" = 1'-0"
140
1.0
141
12.0
290
     0
  0
SCALE
  5
50
102
{ACAD_REACTORS
330
42
102
}
330
42
100
AcDbScale
 70
     0
300
1-1/2" = 1'-0"
140
1.5
141
12.0
290
     0
  0
SCALE
  5
51
102
{ACAD_REACTORS
330
42
102
}
330
42
100
AcDbScale
 70
     0
300
3" = 1'-0"
140
3.0
141
12.0
290
     0
  0
SCALE
  5
52
102
{ACAD_REACTORS
330
42
102
}
330
42
100
AcDbScale
 70
     0
300
6" = 1'-0"
140
6.0
141
12.0
290
     0
  0
SCALE
  5
53
102
{ACAD_REACTORS
330
42
102
}
330
42
100
AcDbScale
 70
     0
300
1'-0" = 1'-0"
140
12.0
141
12.0
290
     0
  0
TABLESTYLE
  5
65
102
{ACAD_XDICTIONARY
360
E34
102
}
102
{ACAD_REACTORS
330
64
102
}
330
64
100
AcDbTableStyle
  3
Standard
 70
     0
 71
     0
 40
0.06
 41
0.06
280
     0
281
     0
  7
Standard
140
0.18
170
     2
 62
     0
 63
     7
283
     0
274
    -2
284
     1
 64
     0
275
    -2
285
     1
 65
     0
276
    -2
286
     1
 66
     0
277
    -2
287
     1
 67
     0
278
    -2
288
     1
 68
     0
279
    -2
289
     1
 69
     0
  7
Standard
140
0.25
170
     5
 62
     0
 63
     7
283
     0
274
    -2
284
     1
 64
     0
275
    -2
285
     1
 65
     0
276
    -2
286
     1
 66
     0
277
    -2
287
     1
 67
     0
278
    -2
288
     1
 68
     0
279
    -2
289
     1
 69
     0
  7
Standard
140
0.18
170
     5
 62
     0
 63
     7
283
     0
274
    -2
284
     1
 64
     0
275
    -2
285
     1
 65
     0
276
    -2
286
     1
 66
     0
277
    -2
287
     1
 67
     0
278
    -2
288
     1
 68
     0
279
    -2
289
     1
 69
     0
  0
VISUALSTYLE
  5
2F
102
{ACAD_XDICTIONARY
360
E49
102
}
102
{ACAD_REACTORS
330
29
102
}
330
29
100
AcDbVisualStyle
  2
2dWireframe
 70
     4
 71
     0
 72
     2
 73
     0
 90
        0
 40
-0.6
 41
-30.0
 62
     5
 63
     7
 74
     1
 91
        4
 64
     7
 65
   257
 75
     1
175
     1
 42
1.0
 92
        0
 66
   257
 43
1.0
 76
     1
 77
     6
 78
     2
 67
     7
 79
     5
170
     0
171
     0
290
     0
174
     0
 93
        1
 44
0.0
173
     0
291
     0
 45
0.0
1001
ACAD
1000
AcDbSavedByObjectVersion
1070
     0
  0
VISUALSTYLE
  5
2E
102
{ACAD_XDICTIONARY
360
E47
102
}
102
{ACAD_REACTORS
330
29
102
}
330
29
100
AcDbVisualStyle
  2
Basic
 70
     7
 71
     1
 72
     0
 73
     1
 90
        0
 40
-0.6
 41
-30.0
 62
     5
 63
     7
 74
     0
 91
        4
 64
     7
 65
   257
 75
     1
175
     1
 42
1.0
 92
        8
 66
     7
 43
1.0
 76
     1
 77
     6
 78
     2
 67
     7
 79
     5
170
     0
171
     0
290
     0
174
     0
 93
        1
 44
0.0
173
     0
291
     1
 45
0.0
1001
ACAD
1000
AcDbSavedByObjectVersion
1070
     0
  0
VISUALSTYLE
  5
35
102
{ACAD_XDICTIONARY
360
E55
102
}
102
{ACAD_REACTORS
330
29
102
}
330
29
100
AcDbVisualStyle
  2
Brighten
 70
    12
 71
     2
 72
     2
 73
     0
 90
        0
 40
-0.6
 41
-30.0
 62
     5
 63
     7
 74
     1
 91
        4
 64
     7
 65
   257
 75
     1
175
     1
 42
1.0
 92
        8
 66
     7
 43
1.0
 76
     1
 77
     6
 78
     2
 67
     7
 79
     5
170
     0
171
     0
290
     0
174
     0
 93
        1
 44
50.0
173
     0
291
     1
 45
0.0
1001
ACAD
1000
AcDbSavedByObjectVersion
1070
     0
  0
VISUALSTYLE
  5
39
102
{ACAD_XDICTIONARY
360
E5D
102
}
102
{ACAD_REACTORS
330
29
102
}
330
29
100
AcDbVisualStyle
  2
ColorChange
 70
    16
 71
     2
 72
     2
 73
     3
 90
        0
 40
-0.6
 41
-30.0
 62
     5
 63
     8
 74
     1
 91
        4
 64
     7
 65
   257
 75
     1
175
     1
 42
1.0
 92
        8
 66
     8
 43
1.0
 76
     1
 77
     6
 78
     2
 67
     7
 79
     5
170
     0
171
     0
290
     0
174
     0
 93
        1
 44
0.0
173
     0
291
     1
 45
0.0
1001
ACAD
1000
AcDbSavedByObjectVersion
1070
     0
  0
VISUALSTYLE
  5
32
102
{ACAD_XDICTIONARY
360
E4F
102
}
102
{ACAD_REACTORS
330
29
102
}
330
29
100
AcDbVisualStyle
  2
Conceptual
 70
     9
 71
     3
 72
     2
 73
     0
 90
        0
 40
-0.6
 41
-30.0
 62
     5
 63
     7
 74
     2
 91
        2
 64
     7
 65
   257
 75
     1
175
     1
 42
179.0
 92
        8
 66
     7
 43
1.0
 76
     1
 77
     6
 78
     2
 67
     7
 79
     3
170
     0
171
     0
290
     0
174
     0
 93
        1
 44
0.0
173
     0
291
     0
 45
0.0
1001
ACAD
1000
AcDbSavedByObjectVersion
1070
     0
  0
VISUALSTYLE
  5
34
102
{ACAD_XDICTIONARY
360
E53
102
}
102
{ACAD_REACTORS
330
29
102
}
330
29
100
AcDbVisualStyle
  2
Dim
 70
    11
 71
     2
 72
     2
 73
     0
 90
        0
 40
-0.6
 41
-30.0
 62
     5
 63
     7
 74
     1
 91
        4
 64
     7
 65
   257
 75
     1
175
     1
 42
1.0
 92
        8
 66
     7
 43
1.0
 76
     1
 77
     6
 78
     2
 67
     7
 79
     5
170
     0
171
     0
290
     0
174
     0
 93
        1
 44
-50.0
173
     0
291
     1
 45
0.0
1001
ACAD
1000
AcDbSavedByObjectVersion
1070
     0
  0
VISUALSTYLE
  5
41
102
{ACAD_XDICTIONARY
360
E6D
102
}
102
{ACAD_REACTORS
330
29
102
}
330
29
100
AcDbVisualStyle
  2
EdgeColorOff
 70
    22
 71
     2
 72
     2
 73
     0
 90
        0
 40
-0.6
 41
-30.0
 62
     5
 63
     7
 74
     1
 91
        4
 64
     7
 65
   257
 75
     1
175
     1
 42
1.0
 92
        8
 66
     7
 43
1.0
 76
     1
 77
     6
 78
     2
 67
     7
 79
     5
170
     0
171
     0
290
     0
174
     0
 93
        1
 44
0.0
173
     0
291
     1
 45
0.0
1001
ACAD
1000
AcDbSavedByObjectVersion
1070
     0
  0
VISUALSTYLE
  5
38
102
{ACAD_XDICTIONARY
360
E5B
102
}
102
{ACAD_REACTORS
330
29
102
}
330
29
100
AcDbVisualStyle
  2
Facepattern
 70
    15
 71
     2
 72
     2
 73
     0
 90
        0
 40
-0.6
 41
-30.0
 62
     5
 63
     7
 74
     1
 91
        4
 64
     7
 65
   257
 75
     1
175
     1
 42
1.0
 92
        8
 66
     7
 43
1.0
 76
     1
 77
     6
 78
     2
 67
     7
 79
     5
170
     0
171
     0
290
     0
174
     0
 93
        1
 44
0.0
173
     0
291
     1
 45
0.0
1001
ACAD
1000
AcDbSavedByObjectVersion
1070
     0
  0
VISUALSTYLE
  5
2A
102
{ACAD_XDICTIONARY
360
E3F
102
}
102
{ACAD_REACTORS
330
29
102
}
330
29
100
AcDbVisualStyle
  2
Flat
 70
     0
 71
     2
 72
     1
 73
     1
 90
        2
 40
-0.6
 41
30.0
 62
     5
 63
     7
 74
     0
 91
        0
 64
     7
 65
   257
 75
     1
175
     1
 42
1.0
 92
        8
 66
     7
 43
1.0
 76
     1
 77
     6
 78
     2
 67
     7
 79
     5
170
     0
171
     0
290
     0
174
     0
 93
       13
 44
0.0
173
     0
291
     1
 45
0.0
1001
ACAD
1000
AcDbSavedByObjectVersion
1070
     0
  0
VISUALSTYLE
  5
2B
102
{ACAD_XDICTIONARY
360
E41
102
}
102
{ACAD_REACTORS
330
29
102
}
330
29
100
AcDbVisualStyle
  2
FlatWithEdges
 70
     1
 71
     2
 72
     1
 73
     1
 90
        2
 40
-0.6
 41
30.0
 62
     5
 63
     7
 74
     1
 91
        0
 64
     7
 65
   257
 75
     1
175
     1
 42
1.0
 92
        0
 66
   257
 43
1.0
 76
     1
 77
     6
 78
     2
 67
     7
 79
     5
170
     0
171
     0
290
     0
174
     0
 93
       13
 44
0.0
173
     0
291
     1
 45
0.0
1001
ACAD
1000
AcDbSavedByObjectVersion
1070
     0
  0
VISUALSTYLE
  5
2C
102
{ACAD_XDICTIONARY
360
E43
102
}
102
{ACAD_REACTORS
330
29
102
}
330
29
100
AcDbVisualStyle
  2
Gouraud
 70
     2
 71
     2
 72
     2
 73
     1
 90
        2
 40
-0.6
 41
30.0
 62
     5
 63
     7
 74
     0
 91
        0
 64
     7
 65
   257
 75
     1
175
     1
 42
1.0
 92
        0
 66
     7
 43
1.0
 76
     1
 77
     6
 78
     2
 67
     7
 79
     5
170
     0
171
     0
290
     0
174
     0
 93
       13
 44
0.0
173
     0
291
     1
 45
0.0
1001
ACAD
1000
AcDbSavedByObjectVersion
1070
     0
  0
VISUALSTYLE
  5
2D
102
{ACAD_XDICTIONARY
360
E45
102
}
102
{ACAD_REACTORS
330
29
102
}
330
29
100
AcDbVisualStyle
  2
GouraudWithEdges
 70
     3
 71
     2
 72
     2
 73
     1
 90
        2
 40
-0.6
 41
30.0
 62
     5
 63
     7
 74
     1
 91
        0
 64
     7
 65
   257
 75
     1
175
     1
 42
1.0
 92
        0
 66
   257
 43
1.0
 76
     1
 77
     6
 78
     2
 67
     7
 79
     5
170
     0
171
     0
290
     0
174
     0
 93
       13
 44
0.0
173
     0
291
     1
 45
0.0
1001
ACAD
1000
AcDbSavedByObjectVersion
1070
     0
  0
VISUALSTYLE
  5
31
102
{ACAD_XDICTIONARY
360
E4D
102
}
102
{ACAD_REACTORS
330
29
102
}
330
29
100
AcDbVisualStyle
  2
Hidden
 70
     6
 71
     1
 72
     2
 73
     2
 90
        0
 40
-0.6
 41
-30.0
 62
     5
 63
     7
 74
     2
 91
        2
 64
     7
 65
   257
 75
     2
175
     1
 42
40.0
 92
        0
 66
   257
 43
1.0
 76
     1
 77
     6
 78
     2
 67
     7
 79
     3
170
     0
171
     0
290
     0
174
     0
 93
        1
 44
0.0
173
     0
291
     0
 45
0.0
1001
ACAD
1000
AcDbSavedByObjectVersion
1070
     0
  0
VISUALSTYLE
  5
3F
102
{ACAD_XDICTIONARY
360
E69
102
}
102
{ACAD_REACTORS
330
29
102
}
330
29
100
AcDbVisualStyle
  2
JitterOff
 70
    20
 71
     2
 72
     2
 73
     0
 90
        0
 40
-0.6
 41
-30.0
 62
     5
 63
     7
 74
     1
 91
        4
 64
     7
 65
   257
 75
     1
175
     1
 42
1.0
 92
       10
 66
     7
 43
1.0
 76
     1
 77
     6
 78
     2
 67
     7
 79
     5
170
     0
171
     0
290
     0
174
     0
 93
        1
 44
0.0
173
     0
291
     1
 45
0.0
1001
ACAD
1000
AcDbSavedByObjectVersion
1070
     0
  0
VISUALSTYLE
  5
37
102
{ACAD_XDICTIONARY
360
E59
102
}
102
{ACAD_REACTORS
330
29
102
}
330
29
100
AcDbVisualStyle
  2
Linepattern
 70
    14
 71
     2
 72
     2
 73
     0
 90
        0
 40
-0.6
 41
-30.0
 62
     5
 63
     7
 74
     1
 91
        4
 64
     7
 65
   257
 75
     7
175
     7
 42
1.0
 92
        8
 66
     7
 43
1.0
 76
     1
 77
     6
 78
     2
 67
     7
 79
     5
170
     0
171
     0
290
     0
174
     0
 93
        1
 44
0.0
173
     0
291
     1
 45
0.0
1001
ACAD
1000
AcDbSavedByObjectVersion
1070
     0
  0
VISUALSTYLE
  5
40
102
{ACAD_XDICTIONARY
360
E6B
102
}
102
{ACAD_REACTORS
330
29
102
}
330
29
100
AcDbVisualStyle
  2
OverhangOff
 70
    21
 71
     2
 72
     2
 73
     0
 90
        0
 40
-0.6
 41
-30.0
 62
     5
 63
     7
 74
     1
 91
        4
 64
     7
 65
   257
 75
     1
175
     1
 42
1.0
 92
        9
 66
     7
 43
1.0
 76
     1
 77
     6
 78
     2
 67
     7
 79
     5
170
     0
171
     0
290
     0
174
     0
 93
        1
 44
0.0
173
     0
291
     1
 45
0.0
1001
ACAD
1000
AcDbSavedByObjectVersion
1070
     0
  0
VISUALSTYLE
  5
33
102
{ACAD_XDICTIONARY
360
E51
102
}
102
{ACAD_REACTORS
330
29
102
}
330
29
100
AcDbVisualStyle
  2
Realistic
 70
     8
 71
     2
 72
     3
 73
     0
 90
        2
 40
-0.6
 41
30.0
 62
     5
 63
     7
 74
     0
 91
        0
 64
     7
 65
   257
 75
     1
175
     1
 42
1.0
 92
        8
 66
   257
 43
1.0
 76
     1
 77
     6
 78
     2
 67
     7
 79
     3
170
     0
171
     0
290
     0
174
     0
 93
       13
 44
0.0
173
     0
291
     0
 45
0.0
1001
ACAD
1000
AcDbSavedByObjectVersion
1070
     0
  0
VISUALSTYLE
  5
3E
102
{ACAD_XDICTIONARY
360
E67
102
}
102
{ACAD_REACTORS
330
29
102
}
330
29
100
AcDbVisualStyle
  2
Shaded
 70
    27
 71
     2
 72
     2
 73
     1
 90
        2
 40
-0.6
 41
30.0
 62
     5
 63
     7
 74
     0
 91
        4
 64
     7
 65
   257
 75
     1
175
     1
 42
1.0
 92
        8
 66
   257
 43
1.0
 76
     1
 77
     6
 78
     2
 67
     8
 79
     3
170
     0
171
     0
290
     0
174
     0
 93
        5
 44
0.0
173
     0
291
     0
 45
0.0
1001
ACAD
1000
AcDbSavedByObjectVersion
1070
     0
  0
VISUALSTYLE
  5
3D
102
{ACAD_XDICTIONARY
360
E65
102
}
102
{ACAD_REACTORS
330
29
102
}
330
29
100
AcDbVisualStyle
  2
Shaded with edges
 70
    26
 71
     2
 72
     2
 73
     1
 90
        2
 40
-0.6
 41
30.0
 62
     5
 63
     7
 74
     1
 91
       10
 64
     7
 65
   257
 75
     2
175
     1
 42
1.0
 92
        8
 66
   257
 43
1.0
 76
     1
 77
     6
 78
     2
 67
     7
 79
     3
170
     0
171
     0
290
     0
174
     0
 93
        5
 44
0.0
173
     0
291
     0
 45
0.0
1001
ACAD
1000
AcDbSavedByObjectVersion
1070
     0
  0
VISUALSTYLE
  5
3A
102
{ACAD_XDICTIONARY
360
E5F
102
}
102
{ACAD_REACTORS
330
29
102
}
330
29
100
AcDbVisualStyle
  2
Shades of Gray
 70
    23
 71
     2
 72
     2
 73
     3
 90
        0
 40
-0.6
 41
-30.0
 62
     5
 63
     7
 74
     2
 91
        2
 64
     7
 65
     7
 75
     1
175
     1
 42
40.0
 92
        8
 66
     7
 43
1.0
 76
     1
 77
     6
 78
     2
 67
     7
 79
     3
170
     0
171
     0
290
     0
174
     0
 93
        1
 44
0.0
173
     0
291
     0
 45
0.0
1001
ACAD
1000
AcDbSavedByObjectVersion
1070
     0
  0
VISUALSTYLE
  5
3B
102
{ACAD_XDICTIONARY
360
E61
102
}
102
{ACAD_REACTORS
330
29
102
}
330
29
100
AcDbVisualStyle
  2
Sketchy
 70
    24
 71
     1
 72
     2
 73
     2
 90
        0
 40
-0.6
 41
-30.0
 62
     5
 63
     7
 74
     2
 91
        2
 64
     7
 65
     7
 75
     1
175
     1
 42
40.0
 92
       11
 66
     7
 43
1.0
 76
     1
 77
     6
 78
     2
 67
     7
 79
     6
170
     0
171
     0
290
     0
174
     0
 93
        1
 44
0.0
173
     0
291
     0
 45
0.0
1001
ACAD
1000
AcDbSavedByObjectVersion
1070
     0
  0
VISUALSTYLE
  5
36
102
{ACAD_XDICTIONARY
360
E57
102
}
102
{ACAD_REACTORS
330
29
102
}
330
29
100
AcDbVisualStyle
  2
Thicken
 70
    13
 71
     2
 72
     2
 73
     0
 90
        0
 40
-0.6
 41
-30.0
 62
     5
 63
     7
 74
     1
 91
        4
 64
     7
 65
   257
 75
     1
175
     1
 42
1.0
 92
       12
 66
     7
 43
1.0
 76
     1
 77
     6
 78
     2
 67
     7
 79
     5
170
     0
171
     0
290
     0
174
     0
 93
        1
 44
0.0
173
     0
291
     1
 45
0.0
1001
ACAD
1000
AcDbSavedByObjectVersion
1070
     0
  0
VISUALSTYLE
  5
30
102
{ACAD_XDICTIONARY
360
E4B
102
}
102
{ACAD_REACTORS
330
29
102
}
330
29
100
AcDbVisualStyle
  2
Wireframe
 70
     5
 71
     0
 72
     2
 73
     0
 90
        0
 40
-0.6
 41
-30.0
 62
     5
 63
     7
 74
     1
 91
        4
 64
     7
 65
   257
 75
     1
175
     1
 42
1.0
 92
        0
 66
   257
 43
1.0
 76
     1
 77
     6
 78
     2
 67
     7
 79
     3
170
     0
171
     0
290
     0
174
     0
 93
        1
 44
0.0
173
     0
291
     0
 45
0.0
1001
ACAD
1000
AcDbSavedByObjectVersion
1070
     0
  0
VISUALSTYLE
  5
3C
102
{ACAD_XDICTIONARY
360
E63
102
}
102
{ACAD_REACTORS
330
29
102
}
330
29
100
AcDbVisualStyle
  2
X-Ray
 70
    25
 71
     2
 72
     2
 73
     1
 90
        1
 40
0.5
 41
-30.0
 62
     5
 63
     7
 74
     1
 91
        0
 64
     7
 65
   257
 75
     1
175
     1
 42
1.0
 92
        8
 66
     7
 43
1.0
 76
     1
 77
     6
 78
     2
 67
     7
 79
     3
170
     0
171
     0
290
     0
174
     0
 93
       13
 44
0.0
173
     0
291
     0
 45
0.0
1001
ACAD
1000
AcDbSavedByObjectVersion
1070
     0
  0
DICTIONARYVAR
  5
79
102
{ACAD_REACTORS
330
76
102
}
330
76
100
DictionaryVariables
280
     0
  1
1:1
  0
DICTIONARYVAR
  5
78
102
{ACAD_REACTORS
330
76
102
}
330
76
100
DictionaryVariables
280
     0
  1
STANDARD
  0
DICTIONARYVAR
  5
77
102
{ACAD_REACTORS
330
76
102
}
330
76
100
DictionaryVariables
280
     0
  1
STANDARD
  0
DICTIONARYVAR
  5
E32
102
{ACAD_REACTORS
330
76
102
}
330
76
100
DictionaryVariables
280
     0
  1
1
  0
DICTIONARYVAR
  5
E31
102
{ACAD_REACTORS
330
76
102
}
330
76
100
DictionaryVariables
280
     0
  1
1
  0
DICTIONARYVAR
  5
E30
102
{ACAD_REACTORS
330
76
102
}
330
76
100
DictionaryVariables
280
     0
  1
0
  0
DICTIONARYVAR
  5
E2D
102
{ACAD_REACTORS
330
76
102
}
330
76
100
DictionaryVariables
280
     0
  1
0
  0
DICTIONARYVAR
  5
E2E
102
{ACAD_REACTORS
330
76
102
}
330
76
100
DictionaryVariables
280
     0
  1
0
  0
DICTIONARYVAR
  5
E2C
102
{ACAD_REACTORS
330
76
102
}
330
76
100
DictionaryVariables
280
     0
  1
2
  0
DICTIONARYVAR
  5
E2B
102
{ACAD_REACTORS
330
76
102
}
330
76
100
DictionaryVariables
280
     0
  1
1
  0
DICTIONARYVAR
  5
E2F
102
{ACAD_REACTORS
330
76
102
}
330
76
100
DictionaryVariables
280
     0
  1
127
  0
DICTIONARYVAR
  5
E33
102
{ACAD_REACTORS
330
76
102
}
330
76
100
DictionaryVariables
280
     0
  1
2
  0
DICTIONARY
  5
E71
330
6B
100
AcDbDictionary
280
     1
281
     1
  3
ACAD_XREC_ROUNDTRIP
360
E72
  0
DICTIONARY
  5
E75
330
73
100
AcDbDictionary
280
     1
281
     1
  3
ACAD_XREC_ROUNDTRIP
360
E76
  0
DICTIONARY
  5
E73
330
6F
100
AcDbDictionary
280
     1
281
     1
  3
ACAD_XREC_ROUNDTRIP
360
E74
  0
DICTIONARY
  5
1A
330
19
100
AcDbDictionary
280
     1
281
     1
  3
ACAD_XREC_ROUNDTRIP
360
E3D
  3
BUMPTILE
360
1C
  3
DIFFUSETILE
360
1B
  3
OPACITYTILE
360
1F
  3
REFLECTIONTILE
360
1E
  3
REFRACTIONTILE
360
20
  3
SPECULARTILE
360
1D
  0
DICTIONARY
  5
12
330
11
100
AcDbDictionary
280
     1
281
     1
  3
ACAD_XREC_ROUNDTRIP
360
E3C
  3
BUMPTILE
360
14
  3
DIFFUSETILE
360
13
  3
FBXASSET
360
F5
  3
OPACITYTILE
360
17
  3
REFLECTIONTILE
360
16
  3
REFRACTIONTILE
360
18
  3
SPECULARTILE
360
15
  0
DICTIONARY
  5
22
330
21
100
AcDbDictionary
280
     1
281
     1
  3
ACAD_XREC_ROUNDTRIP
360
E3E
  3
BUMPTILE
360
24
  3
DIFFUSETILE
360
23
  3
FBXASSET
360
BA
  3
OPACITYTILE
360
27
  3
REFLECTIONTILE
360
26
  3
REFRACTIONTILE
360
28
  3
SPECULARTILE
360
25
  0
DICTIONARY
  5
E36
330
67
100
AcDbDictionary
280
     1
281
     1
  3
ACAD_XREC_ROUNDTRIP
360
E37
  0
DICTIONARY
  5
E34
330
65
100
AcDbDictionary
280
     1
281
     1
  3
ACAD_ROUNDTRIP_2008_TABLESTYLE_CELLSTYLEMAP
360
E35
  3
ACAD_XREC_ROUNDTRIP
360
E6F
  0
DICTIONARY
  5
E49
330
2F
100
AcDbDictionary
280
     1
281
     1
  3
ACAD_XREC_ROUNDTRIP
360
E4A
  0
DICTIONARY
  5
E47
330
2E
100
AcDbDictionary
280
     1
281
     1
  3
ACAD_XREC_ROUNDTRIP
360
E48
  0
DICTIONARY
  5
E55
330
35
100
AcDbDictionary
280
     1
281
     1
  3
ACAD_XREC_ROUNDTRIP
360
E56
  0
DICTIONARY
  5
E5D
330
39
100
AcDbDictionary
280
     1
281
     1
  3
ACAD_XREC_ROUNDTRIP
360
E5E
  0
DICTIONARY
  5
E4F
330
32
100
AcDbDictionary
280
     1
281
     1
  3
ACAD_XREC_ROUNDTRIP
360
E50
  0
DICTIONARY
  5
E53
330
34
100
AcDbDictionary
280
     1
281
     1
  3
ACAD_XREC_ROUNDTRIP
360
E54
  0
DICTIONARY
  5
E6D
330
41
100
AcDbDictionary
280
     1
281
     1
  3
ACAD_XREC_ROUNDTRIP
360
E6E
  0
DICTIONARY
  5
E5B
330
38
100
AcDbDictionary
280
     1
281
     1
  3
ACAD_XREC_ROUNDTRIP
360
E5C
  0
DICTIONARY
  5
E3F
330
2A
100
AcDbDictionary
280
     1
281
     1
  3
ACAD_XREC_ROUNDTRIP
360
E40
  0
DICTIONARY
  5
E41
330
2B
100
AcDbDictionary
280
     1
281
     1
  3
ACAD_XREC_ROUNDTRIP
360
E42
  0
DICTIONARY
  5
E43
330
2C
100
AcDbDictionary
280
     1
281
     1
  3
ACAD_XREC_ROUNDTRIP
360
E44
  0
DICTIONARY
  5
E45
330
2D
100
AcDbDictionary
280
     1
281
     1
  3
ACAD_XREC_ROUNDTRIP
360
E46
  0
DICTIONARY
  5
E4D
330
31
100
AcDbDictionary
280
     1
281
     1
  3
ACAD_XREC_ROUNDTRIP
360
E4E
  0
DICTIONARY
  5
E69
330
3F
100
AcDbDictionary
280
     1
281
     1
  3
ACAD_XREC_ROUNDTRIP
360
E6A
  0
DICTIONARY
  5
E59
330
37
100
AcDbDictionary
280
     1
281
     1
  3
ACAD_XREC_ROUNDTRIP
360
E5A
  0
DICTIONARY
  5
E6B
330
40
100
AcDbDictionary
280
     1
281
     1
  3
ACAD_XREC_ROUNDTRIP
360
E6C
  0
DICTIONARY
  5
E51
330
33
100
AcDbDictionary
280
     1
281
     1
  3
ACAD_XREC_ROUNDTRIP
360
E52
  0
DICTIONARY
  5
E67
330
3E
100
AcDbDictionary
280
     1
281
     1
  3
ACAD_XREC_ROUNDTRIP
360
E68
  0
DICTIONARY
  5
E65
330
3D
100
AcDbDictionary
280
     1
281
     1
  3
ACAD_XREC_ROUNDTRIP
360
E66
  0
DICTIONARY
  5
E5F
330
3A
100
AcDbDictionary
280
     1
281
     1
  3
ACAD_XREC_ROUNDTRIP
360
E60
  0
DICTIONARY
  5
E61
330
3B
100
AcDbDictionary
280
     1
281
     1
  3
ACAD_XREC_ROUNDTRIP
360
E62
  0
DICTIONARY
  5
E57
330
36
100
AcDbDictionary
280
     1
281
     1
  3
ACAD_XREC_ROUNDTRIP
360
E58
  0
DICTIONARY
  5
E4B
330
30
100
AcDbDictionary
280
     1
281
     1
  3
ACAD_XREC_ROUNDTRIP
360
E4C
  0
DICTIONARY
  5
E63
330
3C
100
AcDbDictionary
280
     1
281
     1
  3
ACAD_XREC_ROUNDTRIP
360
E64
  0
XRECORD
  5
E72
102
{ACAD_REACTORS
330
E71
102
}
330
E71
100
AcDbXrecord
280
     1
102
SHADEPLOT
 70
     0
102
SHADEPLOTRESLEVEL
 70
     2
102
SHADEPLOTCUSTOMDPI
 70
   300
  0
XRECORD
  5
E76
102
{ACAD_REACTORS
330
E75
102
}
330
E75
100
AcDbXrecord
280
     1
102
SHADEPLOT
 70
     0
102
SHADEPLOTRESLEVEL
 70
     2
102
SHADEPLOTCUSTOMDPI
 70
   300
  0
XRECORD
  5
E74
102
{ACAD_REACTORS
330
E73
102
}
330
E73
100
AcDbXrecord
280
     1
102
SHADEPLOT
 70
     0
102
SHADEPLOTRESLEVEL
 70
     2
102
SHADEPLOTCUSTOMDPI
 70
   300
  0
XRECORD
  5
E3D
102
{ACAD_REACTORS
330
1A
102
}
330
1A
100
AcDbXrecord
280
     1
102
MATERIAL
148
0.0
149
0.0
149
0.0
 93
        0
 94
      127
282
     0
 72
     0
 77
     0
171
     0
175
     0
179
     0
273
     0
  0
XRECORD
  5
1C
102
{ACAD_REACTORS
330
1A
102
}
330
1A
100
AcDbXrecord
280
     1
270
     1
271
     1
  0
XRECORD
  5
1B
102
{ACAD_REACTORS
330
1A
102
}
330
1A
100
AcDbXrecord
280
     1
270
     1
271
     1
  0
XRECORD
  5
1F
102
{ACAD_REACTORS
330
1A
102
}
330
1A
100
AcDbXrecord
280
     1
270
     1
271
     1
  0
XRECORD
  5
1E
102
{ACAD_REACTORS
330
1A
102
}
330
1A
100
AcDbXrecord
280
     1
270
     1
271
     1
  0
XRECORD
  5
20
102
{ACAD_REACTORS
330
1A
102
}
330
1A
100
AcDbXrecord
280
     1
270
     1
271
     1
  0
XRECORD
  5
1D
102
{ACAD_REACTORS
330
1A
102
}
330
1A
100
AcDbXrecord
280
     1
270
     1
271
     1
  0
XRECORD
  5
E3C
102
{ACAD_REACTORS
330
12
102
}
330
12
100
AcDbXrecord
280
     1
102
MATERIAL
148
0.0
149
0.0
149
0.0
 93
        0
 94
      127
282
     0
 72
     0
 77
     0
171
     0
175
     0
179
     0
273
     0
  0
XRECORD
  5
14
102
{ACAD_REACTORS
330
12
102
}
330
12
100
AcDbXrecord
280
     1
270
     1
271
     1
  0
XRECORD
  5
13
102
{ACAD_REACTORS
330
12
102
}
330
12
100
AcDbXrecord
280
     1
270
     1
271
     1
  0
XRECORD
  5
F5
102
{ACAD_REACTORS
330
12
102
}
330
12
100
AcDbXrecord
280
     1
 70
     1
 90
1959938040
 71
     1
  1
105BC5FD-0E35-4F38-BFB8-9E0CB7C08C8E
311
504B03040A0000080000114833403DEE336E79000000790000001B0000006175746F6465736B2D64657369676E2D7061636B6167652E786D6C3C3F786D6C2076657273696F6E3D22312E302220656E636F64696E673D227574662D3822203F3E3C666F726D6174733E3C666F726D61743E687474703A2F2F736368656D612E
311
6175746F6465736B2E636F6D2F64657369676E2D7061636B6167652F323030393C2F666F726D61743E3C2F666F726D6174733E504B030414000608080011483340D486FD9CA0000000F4000000130000005B436F6E74656E745F54797065735D2E786D6C7D8EC10E82300C865F65E91D8A1E8C310C0EEA1BF002731658846E
311
D98AC1B77784ABF1D8FE5FBFBF75BBCE937A534CCEB38643598122B6FEE978D0B0485F9C41B54DDD7D022595594E1A469170414C76A4D9A4D207E29CF43ECE46F218070CC6BECC4078ACAA135ACF422C856C0E68EA1BF5669944DDD7BCDE7B1F8E415D77AECB980613C2E4AC91FC167A2B244592486606FC29C8FD7F045B9A
311
EF7053A7E60B504B0304140006080800114833404C8B7ED9E80000007C01000008000000636F72652E786D6C8D90516EC3201044AF82F61F1BB06BC711268AEBDCA01740405C94182C03558F5F9C3852FBD7AF1D0DF3D8D5F0D3F77C475F660DD6BB1E68410019A7BCB66EEA21C52B3E003A09BE7A1F7FC50039399B1E361B
311
049F569F96DD52DE45E362769DD766376508260252F72C7A08EAD3CCB29029E644B8158B5437399982BE548653B21A3D97589DFFB3576B56108761ECCEF4FD82CFC35B876B36D4B823CD8869C59A76AC687B696B5E6EB0E0D1CEAFFD6A35321A0D8211CA30A198761FA43B1272AC6A4C9A2C78B9C5FF4069D1FF849275B162
311
FBB94F2C80A0F990C783E0E5D6451E8FA2F2DC7A133F504B03041400060808001148334055019EA25F0000007C00000007000000636E782E786D6C4DCB3B0E80201045D1AD90E915ED2CF8AC45050C11660C8261F98AB1B07AC9C97D42D718D865D3E909258CFD00CCE24AC6E326A164D74DC0B4128928FF326038472BA131
311
28B1252AC747C6BAB984FC68F0B87FE8960A5C09FE86CFB69FBA01504B030414000608080011483340FFF6FB8965010000020300000C0000006662782F636F72652E786D6C8D52ED8E8230107C95A6FF4B5BE0544CA9D1D337B817A8503922B4A4B4C4C7BFE5C3785E8CB99094666667777640EC6E6D8306EDFADA9A1CF388
311
61A44D61CBDA54390EFE423618EDA470D6FA5F651819D5EA1C8F3096A27236740B5458E3B5F1801A5BEA05547DAF3D464503971CF7C5B76E55A482878AFE1A75AAB8AA4A473C021AEAA4E8BD0303681E329E585ECE3741675C8A10EA7261EB12A6D5975A3B2C378763B6E79F27B23F7C64248D0F29C9D8EA487812AFD6C784
311
AF4FEB54D0512C85AFDBBBBBC269E5758965CC784C18273CFB62D996B16D9212B6828BA063F9932874E53F45A1363E8917BBB3ACC792839189F8B32D44E451AF06F043A5A06388F09A127E0E1A028190BD3A37F73DAE000DBAF0D6A5C094363CA8413541C35486A647D09985CE5303D8EC659FF84D9FF73DE0032A538135E5
311
E17A0E7E9C2EE6A94B149D7664F03764AC6B55F330375B7C9C8F412FE5856DACFB8F9A2EABD2254C3AFEBDF207504B030414000608080011483340D7401E027D0000009D0000000B0000006662782F636E782E786D6C4DCCD10A83201886E15B91FFDC65CE42410D99ED3E6259C44CC3E9D8E5AF46073BFAE0E1E395DD67F5
311
E8EDD26B8941417D21805C78C47109B3829227CC01755AA618F3DF0D501856A7E060D0724EB16C278D6E1A8ACFBBFA253C4FA4AC169CF21EDF0CB398B50DC3E62E0CA694B60DB95A617B029596D5AFB4EF11D65F504B03041400060808001148334059F087132A01000014020000310000006662782F32343139383238452D
311
434134442D343635342D414639412D3232323635303344394445302F636F72652E786D6C8D51CB6EC32010FC158B537AC006422C3BC24451937E417F80D8C44589C1E251E5F3BBD48ED4DE7261D1ECCCEC68571C1ED3BDF8D63E18673B444B820A6D7B37183B7628C52B6E507190C23B17FFD05061D5A43B946124C5E85D9A
311
57A877366A1B01B56ED02BA842D01115FD1D3E1D0AFD979E54A9520446B895B3EA6F6AD4252DA10D3C2942F410A05886E41749C669DBB0E68CDF8FFC8479BDE3F8F8D11E3163ACDE91EDA93D9D89A816A114299961959B01E298ABD1FE55932C96229AE919BFF75A453D809E508609C5B4FD24ED9E90FD966352C3475499FE
311
4F94E6E1455132366ED91A77910524A9A8968614834B97FB338C7ECCCEC722CFDB04DDBF21494AC20869EA7627AA850A0B00CF9AAF9E213A0F0BDEDC2EC0A6C0CAC63597A2CA3782F27B40A8F99EF207504B030414000608080011483340560482124C01000033030000300000006662782F32343139383238452D43413444
311
2D343635342D414639412D3232323635303344394445302F636E782E786D6CD593CD6EC32010845F0571F75F62454D8489D4439FA0875E316C121A0C163F55FDF65D1292E692438FBD2034FB31B31AD96CFF3D19F2053E686707DAD52D2560A553DA1E079AE2A17AA164CF99772E3E60945831C140B34C393B7A97E6222938
311
886422AA46DB73113D0497BC8480727E498C93C2A001D82AA108D3084A812277106F07F0B80A8AE342E209C8DBEB0771E327C81858935D386B720667F92C490F1025D28810061AE40926518B149D8270AE9588A2EEEA5BD6939D7E9D487E708B4C5E931C3ED07C525E36AAB147D6E090B3103DB657A0B8CC40B99867A3A588
311
58727301AF0C6749DBB8E90BABB1788F74B759F73D9A5D669C453D4121A407114151BE6ABB55D57655B77D6FB7BBB6DDADFBAADDE0853519E76C74CE94476803DECD443A1BC146CA3BD6E4F1B3FA0A4794F6D8B5F3CB1F8AC4024AEAB59DBBC77FEEA7B97CDF5897C7BF80FF00504B03041400060808001148334011FB5621
311
9A0500007B100000340000006662782F32343139383238452D434134442D343635342D414639412D3232323635303344394445302F6F626A656374732E786D6CAD575B739B3814FE2B0CFB6CC097B4CE0EA113DB49C6D34DDBA9A79D7DC88C478020DA88CB482275FAEBF713080CAE9D7877FA02484847E77CE73B17F91F76
311
19B79EA990ACC8AFECB1E3D916CDA32266797A65572A19CD6DEB43E08BA250BD65B695938C5ED97ADA0EFC54145569A6629A908AAB83D9DBC5DF968C684E6D2BE244CA2B5B468F34230EA9541153F9E4C44411274D76CED869160EC5A682948F07424B2268AEA029E67348B11AA5C6C3A167BB81EFEAFF81AF9F66D5F4F42A
311
B7B667783ECBA52279F4CB610762A6E3D9EA66727139BA98CDA6A3D9BBC978B4B85DAC46E3F7536FF96EB9BCBCBEB9C4C1520948329A089AD8C11DB0112CF2DDE657E0572C57D38959621CE40AFACCB4A7EC60628D7DB759D359678C3CA67E54E4398D6AAC80466D9F111DD392E6317CCEA884663D84BCE170AC71ECFD9EEA
311
B139B23F7D1E02FD1D3D41ADEEEDBBAF6911FE0313E4390C12926A0636581A431BAE7A7B84C3A2E0E61F93564614158C708BB35010F1620758AA9704FE408C66B2D0D1A02DB00378A1F93DA40BC2E86D9E1FD332A938D734B6833A0AB68815AA64AD19FB49C55EFB3E32D009BED26C981B83D44B49EDE0B2A1C8FC804D0D90
311
56C2490A97C34CBD733A393074A9E374BDB2838FB7E16EA363F7F8E1A5284A2A94A60FA8D53AAE7D6B948C4EE3B33CA737D807AAEC41F90AE43F21D4F7AAC06F82ED66BB9939450992CBA410197C6379D6C8C3C3B3C6F5537FF7BE7CB7DB3CF4DE293CE16C0DD56FC0736843DF973D3803FF19842FC4D498B6890847DAB867
311
3900D224B1788129E4E124DCD9C11A590E5919BB080FC63019EA3EE3D3778D18248AFAA4DE3B07960769F18C040DD86A46428D86FC46C1BD9F7E4967F5C166D929782F7E0B5DAF579B8F9B4A2424A2F726A6573461395328717BDEF4151A603EB0E889BEFC28440C437FC57BD3C73B334749A0AD31D7C0A76D4ED783FDC983
311
0322EC4B0B9D6EFC374E8011BAB0F6E4DF331951CE494E8BAA3DF7D5FA81B2D140AC835D33B92B30FBC202D2347F0E6210453A12ACD42076D5AA4B9ACE09EBBEAD3F819176B078F98BBCF4B357B8CFBD51C10BB10D5FB64D5A3A0AF5F721B70D06AE9602BAD741D2C6BF017D1BB324A92492E0115CBFAF977DDFE9B48014D1
311
4A6DA26506FB115C4418D2B67251AD0541252DF22D43DD44DC1D3DA02F1F901A06D4024F692C294FB68CF32ADB268CA31A6D33529E80E3FFEB1F5659B9255951E5EA84EC81EAA80E43DD07EC953F888A1EED6053BF470BE4DE98C627C8A06BC911AC86AEF52E16CB8BDBD5C8BB995E8C66B7D3B9EE9FE6A3CB1B6FB978BFF4
311
E6CBF94DEBA74693C06F4B4D3FA2E1259436BF12CCB8EFDB1AF16392801DDC13251FEE9AF06CDFDFD60E7A61DFC51ED4CB6EE375FC8CBE8FC66F0BD8AF3C2A689D959C66345744C7D0BDFEE05F09FA8C8132CDFC3A23293D43CAE7BBCD8131983963DF171DEFF4C7C15E33BBD4017954887AACB230278C1F6C4C1B249D324F
311
0D7EAD4FBA775368DAA11E19C7A03395056731F2606CA5B4C8A842363CA308898C4A50AFDFD3C7E6EE71C6EEE7A6435424E4B4D5E491A049E61261016A55911ACE5B7FA0A9D37DD5958D72EB3CE16132856D813357369A74C5222A9D10055AB742B57070A9DFC9A3F12779CAD16B379BBA71B74B633328C9DD9273FA276357
311
93C28D01482325FA063444F04EAD4CE0D7BA99FFD17F32BC55C7220A9F61A53A5BF6139D31F53108D1C628735B4013F3648EDE21505F376BECD46B06889C75CB7A95048DD4912222AD6F0A5A3FA3D2F5EA8B8B0EC55A7FB64A5EA5F0E5F992468282CC950E70B008AC30324BA240D5E59F0F5F44819B6C66DD3250E0615964
311
59919BC1B5B9095B9B47DC6BE307A405AA2F24F261E28D270FF545C0DC4DB62191D421B17CC2047C2A5807F1C0F16064735B44056A7E74EB5CED84036EAE5796296933083544E967550D0B5A8E9C5A881E7D99D4B1D25F50BE7A1770EBA55041A08B0FFE05504B030414000608000011483340000000000000000000000000
311
350000006662782F32343139383238452D434134442D343635342D414639412D3232323635303344394445302F76657274696365732E62696E504B030414000608080011483340F270F1330600000004000000360000006662782F32343139383238452D434134442D343635342D414639412D323232363530334439444530
311
2F747269616E676C65732E62696E636660600000504B030414000608000011483340000000000000000000000000370000006662782F32343139383238452D434134442D343635342D414639412D3232323635303344394445302F617474726962757465732E62696E504B030414000608080011483340D5987DFC8F000000
311
41010000360000006662782F32343139383238452D434134442D343635342D414639412D3232323635303344394445302F6469726563746F72792E786D6C858F410EC2201045AF4266AF15DDB800BA74E7C21B903225242D6328188F2FA5C4183471359997F9FF81E89FF3C41E1816475E02DF1F80A11FC8386F25A438EECE
311
C07A250251FC3803E6F58C12560C4AD840E95E91C151A72936F496F35732D860FE635F62C8F2DA16B505C545B74125BAA2FA9E05D7CC053D063734D5C7665FD55B6B8D15D5E9BFEAFD8490FFA45E504B0304140006080800114833405F205041FB000000A00100003B0000006662782F32343139383238452D434134442D34
311
3635342D414639412D3232323635303344394445302F7265736F75726365732F636F72652E786D6C8D504B6E833010BD0A9ABDC1060A21328E42E90D7A01CB4CA89560237FAA1EBF2650A9DD7533337A1FCDD3E397AFE5917DA2F3DA9A1E584E2143A3ECA4CDDC430C377282EC22B8B336FC924166E4823D6C30083E3B1BD7
311
0352D6043421A1C64E7880D27B0C90A9473A7AF0EA031799CB1892C2DFF355AABB9C316779A2934E701F5C0A90ED4FB609C2A1B7D129F4BCD859C163D4D3A1D153FAA96F1A1D88D3307657F63A92EBF0D291BA1C6AD2D16624AC2A9B76AC58FBD6D6BCD8CC8207BDFC64540E65C009444959492823AC7BA7DD99D2735513DA
311
A483179BFC8F29AED33F4D519B509547DCDDE641B014E449085E6C7DA5F52C33EDAD5BF10D504B010214000A0000080000114833403DEE336E79000000790000001B00000000000000000000000000000000006175746F6465736B2D64657369676E2D7061636B6167652E786D6C504B0102140014000608080011483340D4
311
86FD9CA0000000F40000001300000000000000000000000000B20000005B436F6E74656E745F54797065735D2E786D6C504B01021400140006080800114833404C8B7ED9E80000007C010000080000000000000000000000000083010000636F72652E786D6C504B010214001400060808001148334055019EA25F0000007C
311
000000070000000000000000000000000091020000636E782E786D6C504B0102140014000608080011483340FFF6FB8965010000020300000C00000000000000000000000000150300006662782F636F72652E786D6C504B0102140014000608080011483340D7401E027D0000009D0000000B000000000000000000000000
311
00A40400006662782F636E782E786D6C504B010214001400060808001148334059F087132A0100001402000031000000000000000000000000004A0500006662782F32343139383238452D434134442D343635342D414639412D3232323635303344394445302F636F72652E786D6C504B0102140014000608080011483340
311
560482124C010000330300003000000000000000000000000000C30600006662782F32343139383238452D434134442D343635342D414639412D3232323635303344394445302F636E782E786D6C504B010214001400060808001148334011FB56219A0500007B10000034000000000000000000000000005D080000666278
311
2F32343139383238452D434134442D343635342D414639412D3232323635303344394445302F6F626A656374732E786D6C504B01021400140006080000114833400000000000000000000000003500000000000000000000000000490E00006662782F32343139383238452D434134442D343635342D414639412D32323236
311
35303344394445302F76657274696365732E62696E504B0102140014000608080011483340F270F133060000000400000036000000000000000000000000009C0E00006662782F32343139383238452D434134442D343635342D414639412D3232323635303344394445302F747269616E676C65732E62696E504B01021400
311
140006080000114833400000000000000000000000003700000000000000000000000000F60E00006662782F32343139383238452D434134442D343635342D414639412D3232323635303344394445302F617474726962757465732E62696E504B0102140014000608080011483340D5987DFC8F0000004101000036000000
311
000000000000000000004B0F00006662782F32343139383238452D434134442D343635342D414639412D3232323635303344394445302F6469726563746F72792E786D6C504B01021400140006080800114833405F205041FB000000A00100003B000000000000000000000000002E1000006662782F32343139383238452D
311
434134442D343635342D414639412D3232323635303344394445302F7265736F75726365732F636F72652E786D6C504B0506000000000E000E0080040000821100000000
310
504B03040A0000080000114833403DEE336E79000000790000001B0000006175746F6465736B2D64657369676E2D7061636B6167652E786D6C3C3F786D6C2076657273696F6E3D22312E302220656E636F64696E673D227574662D3822203F3E3C666F726D6174733E3C666F726D61743E687474703A2F2F736368656D612E
310
6175746F6465736B2E636F6D2F64657369676E2D7061636B6167652F323030393C2F666F726D61743E3C2F666F726D6174733E504B030414000608080011483340D486FD9CA0000000F4000000130000005B436F6E74656E745F54797065735D2E786D6C7D8EC10E82300C865F65E91D8A1E8C310C0EEA1BF002731658846E
310
D98AC1B77784ABF1D8FE5FBFBF75BBCE937A534CCEB38643598122B6FEE978D0B0485F9C41B54DDD7D022595594E1A469170414C76A4D9A4D207E29CF43ECE46F218070CC6BECC4078ACAA135ACF422C856C0E68EA1BF5669944DDD7BCDE7B1F8E415D77AECB980613C2E4AC91FC167A2B244592486606FC29C8FD7F045B9A
310
EF7053A7E60B504B03041400060808001148334044C393F5E80000007C01000008000000636F72652E786D6C8D90516EC3201044AF82F61F1B0C4DE20813B98D72825E0001715062B00C54397E70E248ED5FBF7634CC6357230EF7F1867EEC1C5DF01DD08A00B25E07E3FCD0414E67BC037490620E21FD8A01F26AB41D2C36
310
4831CC214FABA5834FD6A7E2FA60EC6AAA186D02A46F457410F5C58EAA52399544BC5693D25735D88ABE5581737606BD963853FE73676767909FFCEBB8DDEC38E63D3B624ED816B7B439E19E7DF4E4D4B3B6E1BDA817588AE4C6F77E3D5B95AC01D910DA6042316DBF49BB2764CF38269B2244BDC4FF407932FF84B2F38935
310
EBB92F2C82A4E590E78314F5D24519CFA2CA5C7A930F504B03041400060808001148334055019EA25F0000007C00000007000000636E782E786D6C4DCB3B0E80201045D1AD90E915ED2CF8AC45050C11660C8261F98AB1B07AC9C97D42D718D865D3E909258CFD00CCE24AC6E326A164D74DC0B4128928FF326038472BA131
310
28B1252AC747C6BAB984FC68F0B87FE8960A5C09FE86CFB69FBA01504B030414000608080011483340697FE7D865010000020300000C0000006662782F636F72652E786D6C8D52ED8E8320107C15C27F043FAEAD0DD278D7F409EE05A852CF54C120983EFEAD1F8DD74BD33426486676766747F9E1D6366850B6AF8DCE7018
310
308C942E4C59EB2AC3DE5DC80EA383E0D618F7A70C232D5B95E111C68257D6F86E810AA39DD20E506D4AB580B2EF95C3A868E092E1BEF851AD0CA47750D15F834E165759A9200C80863AC17B67C1009A878C271697F38DD31917DCFBBA5CD8BA8469F5A556168BCFE4EBB8DDEC1292E4F191242CDE92348C4E248F3F7276CA
310
E3344A724E47B1E0AE6EEFEE0AABA4532516110B23C24212A6DF2CDD33B68F13C23670E1742C7F10F9AE7C53E46BEDE268B13BCB7A2C42303211FFB685881CEAE5007EA8E0740C115E53C28F41432010B293E7E6BEC715A04115CED80498D2F8951A64E3154C65687A389D59E83C3580CD9EF6895EF479DD033EA0D4155893
310
0EAE67EFC6E97C9EBA44D1294B067743DAD85636ABB9D9E27AAE839ECA0BD318FB8E9A2EABD2254C3AFEBDE217504B0304140006080800114833405B81FD697D0000009D0000000B0000006662782F636E782E786D6C4DCCD10A83201805E05791FFDE6519C3811A2BE77BC4B290990EA7D1E3CF4617BB3A9C8FC3E1DDBE3A
310
B499F8B1C10BA82F0490F1CF3059BF08C869C60C5027790C21FDCD00F97135020E06C99718F2FBA4C9CC6376A9A8B3FE75A256E4A1EEB4C757AD146E196D30D3A5AAA16E08A37D4B871B549257BFA792C7B1FC02504B0304140006080800114833406B6BD1502901000014020000310000006662782F46443045444133422D
310
364644442D343833322D384633422D4443313230383342343343392F636F72652E786D6C8D51CB6EC32010FC158B537AC006DBB29C08133571F305FD0102244589C1E251E5F3BBD48ED4DE726197DD99D9D12EDB3FA67BF1AD7D30CE0E88960415DA4AA78CBD0E28C50BEE51B1E7CC3B17FFC05061C5A40794CB88B3AB7769
310
5E4BD2D9A86D84AA754AAF4511828EA89077480614E4979E4429520444B895B3903771D5252DA10D38CE42F460A05886E417F1D3483EC6F7E680BBD338E2B66F6ADC9FE03B1E694DFAE6D036C72DAB1622672919B5D28D023BE662B47F552493398B667ADA975E8BA815E235A1352614D3ED27D9EE08D9352D261D24ACCAF0
310
7FA434AB1749C9D8D8D4ABDD851610A7AC5A1A9C2997CEF7A719FD989D8F459EB7095ABE214E4A02C6DABEEB59B5406101A0D9B5AB6688CEC38237B733A09B55B86B39ABF28D20FC1E1062BE27FF01504B03041400060808001148334030A34D055301000033030000300000006662782F46443045444133422D364644442D
310
343833322D384633422D4443313230383342343343392F636E782E786D6CBD93CD6E022114855F85B09F3F9D18350C265DF409BAE89681AB521998F0D3D4B7EF45D1BA71D1A4E98690730FE7DC7C9961BBAFC9904FF0413B3BD0AE6E29012B9DD2F630D014F7D59A921D67DEB9F860A3C48A09069A65CAD9C1BB341749C15E
310
24135135DA9E8AE821B8E4250494F34B629C140603C05609459846500A14B91BF1B6078FABA0389E493C02797D79276EFC0019036B720A674DEEE02C9FA5E9C144893422848106798449D42245A7209C6A25A2A8BBFAD6F564A79F24921FDC2A93D724970F349F94978D6AE4C81A1C7216A2477AC514CF33502EE6D9682922
310
426E2EC6AB87B3A46D5CF5C5AB11BC47F772B15AAF31EC32E32CEA098A437A101114E58BB65B546D57759BB776B36DDBEDB2AFDA155E5893ED9C8DCE99F20863C0BB99486723D84879C79A3C7E86AFF888D21E593B7FFE054804505AAF74EE197FC9A75B2DFBFE1FF93497EF1B7179FC0BF837504B03041400060808001148
310
3340A0CAFCC259070000941B0000340000006662782F46443045444133422D364644442D343833322D384633422D4443313230383342343343392F6F626A656374732E786D6CED595F739B3810FF2A0CF76C0CB1DD2637844E62271D4F2F6DA7BE76EEC1338C0C32D645084612497C9FFE5642602026C1D7DC5B1F6C4048AB
310
DDDFFED5E27F784AA9F580B92019BBB43DC7B52DCCA22C262CB9B40BB91D9DDBD687C0E759261BD36C8BA1145FDA6AD80EFC8467456E8662BC4505959DD1DBEBBF2C1161866D2BA248884B5B443B9C220715328BB1B877622491936C9F1CCF2927B6C9261CE5BB0ED11C71CC24700AE30CA85825535EFBD1B5C7813F56EF03
310
5FFD9B599341B3A6FDB3C65AEA369784098958F48CA50E99C9209626DE74717336BB18CDA6D3C968FAEECC1B5DDF5E2F46DEFB893B7F379F5F5CDD5C007B9B2CA346A618E798C5A0BFBD1D78FE58BDA94537081CE33ACA18C3910612A0D2627509122C60AB067C6EFBD15312355E6B091BCF53F5DEB0D0189EB4A9F4CD1A06
310
448B2E0862B6AB24AEAE4DF9B2CDDF20B81862945C6009DC0AC941BB061E0E5E6107AE3F2E47037F73D00511568A24E604518B920D471C940253D594C02F171832CA393890B294045A73E5EBB66D8167BEEE3AC7B8DC16942ACFB003ED5821B81F96427346FEC1FCC07D1319E009A42D0893E7864BB9CFB11D5CF8633D18F8
310
EA3239332F4B20AD2D4589D088946F3B82CE95EB2F1776F0E976F3B452E1E0F8E639CF72CCA5323AA547CD1718B2B92A94CCB6DE20CDA905204C09AA597900E51B20FF19A2C78115D01B274FD3A7A9992B3962629BF1147463B9D6C8853FD7F2F4BFBA6FDCF9E37A715B7B7D78829B2AA8CE7F1ECFB60C1A2BC37F03CEC07F
310
0083CFF8C4BC5A4588823DDF1106002923B168064310DAB79B273B5842E084400FAB100D3C1019D87D805B7F6CC81CB452B997F13A06889A3D26439404B0698B04367AF4F411B20727D1414D4D11FBE09DBD89B95E2D569F5605DFA208DF199F5EE02D614442D63CCE500BF39644F778FF98F118047D8EF7AA89776AB61280
310
B6C25C019F5420A887C3CEAD0D225897642ADCF8AFEC0042A85CDDA07F47448429450C6745B56F1DDD94A1D61E6F6A063B382B219E9C754C98E307A2AA0A709AC38C16A390F7234E7205A21D7C2C25AB83A6D323DDF7E567B0C87A7ECFAC2583D0CB10FD5307AD2338B42CBB42DA00510BBC3984F328A3190F37FBB08C7436
310
D412C046DB5B7EB48842AC2F95A4A8800769BFAB424A524A1BC664BB2D04C4D5232CFE58CE9BE6E03A136F6635FF3BCE3885680BBE8BB8F1BBCE1E21495182C32D8AFBB66BEE56D3169A640F698EB714E4220F44EE43244337C6C929D09C44FCE24DA927341382302C205F1D05BF8986EB402029B559B1ACB4DA019A8830C5
310
12D1531050647AC0D56947D7B811940EAFF3585BEF4B1A6B12FD9F2C8223A82533161228452187BCCAB8E7CC2086B4D12D51EEE00BD656D1D662D0024A88681F3E6292ECE429A897E47B708FE04852C830CB5104663D80EC335F514AEDF0BE41D1BDCA1F6154D0B7321081E93624941669083FC2E0E431C4B5EBC0F4220A0D
310
E265EC933885A20CC9820FD9E4DDCC7DB64F593374436063A32DA110B6C314E53DA8B702A2AE47AC1A7C43BD47A99B22CD439466051B6428CEA4EB4D867C57AD8AEC407E55A908656345D8100C7CC2649D55AB980DA6AE032BB8910E54FB50A034A7E529EC95C4E3D5DEA429F76EC08D9FBEED0629147E3DDA6B46D4690583
310
E1B15518884724A39D1DACF475740DF5778CE343AAAF6ACD66050888A9485E706254F47D09E58DA9D1ECE00E49B1FE5866DDEAFA7DE940F7C31FC31AA85DEA854B05748A9944AA32B95337F41B8210DCA2518E2F554E3D85CA551CEBAA11D15BD2A7CE5619D1DA34254EBEC32C4BE1C7D68445B488F11AC5E23EBC93345C11
310
C5BA91D2494985F18B027EF9B8EAC003230344FAAA0A3CFCD8596B46E7AA5C3A4A44EE8A74C3108120D8122D2975E3E42C311AA9B45C5FD59902EA2E3030A3E2E9AF9345B31DF1EB649118C3F8A993C5F5FE0FB46FF6451AE93C52767DD231A0CE4F8ACA5B1C0374DBA1A65A679132991BF98D33851014AB283FB81AAB8246
310
49B08FE3FF9CB5FBB260B95D87FFD3B2B6F7ACE23829ABB426AB2ED591CA75D9CC619E3BBB9ECF6E1723F766321B4D6F27E7AA417B3EBAB871E7D7EFE7EEF9FCFCA646533B6AE0D7C14CE72E782E835A35AC9E0C06D095151925319CE6632BC110F3259CE907B4CF798A0524CF66B33B364DF901AB1FCA3EA7441B8A2B4E76
310
081AC454405A078C8A48B6C7ADDFA03529E1A07D6943D3C8B9873F6395B60599E7D2865681241116CE06DA4CAAA1A78943CAD5B9DF10037C104B544A2C17D5CFF52A854D2BFCD75386A4012357AB8701855B0EDDAF568742F366788A4E12BC62C742126E3785846AAD94E530500BA3B739A8BF948D12766FB67E02D77D592C
310
CFD1735A880CFA64F0A21194544712F144F7BB156386A5ABC5D731F4D9ACE5172BA74502BA1C4E69C4311873A10A2AB022B00A433347124C75FEFBFA2BCFE0134F6AE9AA683DCFD23463E6E10ACE63317C22B2563BF8E013AFA16CC0AAAD2ED667AE77B6D6ED6CD3610F37486047D543305095114A848EB181453E6B4D99C6
310
E55829A1337DB9B04CF89C01516DB5CFBABBE5E72D0BBC477D4851BEA23DBC92F3C58EF6584F056BE0D08B0EFE05504B030414000608000011483340000000000000000000000000350000006662782F46443045444133422D364644442D343833322D384633422D4443313230383342343343392F76657274696365732E62
310
696E504B030414000608080011483340F270F1330600000004000000360000006662782F46443045444133422D364644442D343833322D384633422D4443313230383342343343392F747269616E676C65732E62696E636660600000504B030414000608000011483340000000000000000000000000370000006662782F46
310
443045444133422D364644442D343833322D384633422D4443313230383342343343392F617474726962757465732E62696E504B030414000608080011483340D5987DFC8F00000041010000360000006662782F46443045444133422D364644442D343833322D384633422D4443313230383342343343392F646972656374
310
6F72792E786D6C858F410EC2201045AF4266AF15DDB800BA74E7C21B903225242D6328188F2FA5C4183471359997F9FF81E89FF3C41E1816475E02DF1F80A11FC8386F25A438EECEC07A250251FC3803E6F58C12560C4AD840E95E91C151A72936F496F35732D860FE635F62C8F2DA16B505C545B74125BAA2FA9E05D7CC05
310
3D063734D5C7665FD55B6B8D15D5E9BFEAFD8490FFA45E504B0304140006080800114833409BAD594DFC000000A00100003B0000006662782F46443045444133422D364644442D343833322D384633422D4443313230383342343343392F7265736F75726365732F636F72652E786D6C8D504B6EC32010BD8A357B6C306E12
310
4798C86D9413F402084F5C94182C3E558F5F485CA9DD7533337A1FCDD313A7AFE55E7DA20FC6D901584DA142ABDD64EC3C408A577280EA2485772EFE924165D582031418A498BD4BEB06696723DA9851EB26DC40150246A8F43D1F0304FD818BAA558A59116EF5AAF44DCD58B33AD3592745883E07A89E4FCA04E931B8E435
310
06D13C59295232D3A63153FE69AE063DC8D7EEEDBCDF1D38E9467E261DE57BD2B3F64246FE32D2CBC8FBB61B4553CC5244B3FC64D41E55C409644B594B2823AC7FA7FD91D223EF08DDE5433445FEC794D6E99FA6646CE4ED16F7690B20590EF220A4684A5F793DCACCBB742BBF01504B010214000A0000080000114833403D
310
EE336E79000000790000001B00000000000000000000000000000000006175746F6465736B2D64657369676E2D7061636B6167652E786D6C504B0102140014000608080011483340D486FD9CA0000000F40000001300000000000000000000000000B20000005B436F6E74656E745F54797065735D2E786D6C504B01021400
310
1400060808001148334044C393F5E80000007C010000080000000000000000000000000083010000636F72652E786D6C504B010214001400060808001148334055019EA25F0000007C000000070000000000000000000000000091020000636E782E786D6C504B0102140014000608080011483340697FE7D8650100000203
310
00000C00000000000000000000000000150300006662782F636F72652E786D6C504B01021400140006080800114833405B81FD697D0000009D0000000B00000000000000000000000000A40400006662782F636E782E786D6C504B01021400140006080800114833406B6BD150290100001402000031000000000000000000
310
000000004A0500006662782F46443045444133422D364644442D343833322D384633422D4443313230383342343343392F636F72652E786D6C504B010214001400060808001148334030A34D0553010000330300003000000000000000000000000000C20600006662782F46443045444133422D364644442D343833322D38
310
4633422D4443313230383342343343392F636E782E786D6C504B0102140014000608080011483340A0CAFCC259070000941B00003400000000000000000000000000630800006662782F46443045444133422D364644442D343833322D384633422D4443313230383342343343392F6F626A656374732E786D6C504B010214
310
001400060800001148334000000000000000000000000035000000000000000000000000000E1000006662782F46443045444133422D364644442D343833322D384633422D4443313230383342343343392F76657274696365732E62696E504B0102140014000608080011483340F270F13306000000040000003600000000
310
000000000000000000611000006662782F46443045444133422D364644442D343833322D384633422D4443313230383342343343392F747269616E676C65732E62696E504B01021400140006080000114833400000000000000000000000003700000000000000000000000000BB1000006662782F46443045444133422D36
310
4644442D343833322D384633422D4443313230383342343343392F617474726962757465732E62696E504B0102140014000608080011483340D5987DFC8F000000410100003600000000000000000000000000101100006662782F46443045444133422D364644442D343833322D384633422D444331323038334234334339
310
2F6469726563746F72792E786D6C504B01021400140006080800114833409BAD594DFC000000A00100003B00000000000000000000000000F31100006662782F46443045444133422D364644442D343833322D384633422D4443313230383342343343392F7265736F75726365732F636F72652E786D6C504B050600000000
310
0E000E0080040000481300000000
  0
XRECORD
  5
17
102
{ACAD_REACTORS
330
12
102
}
330
12
100
AcDbXrecord
280
     1
270
     1
271
     1
  0
XRECORD
  5
16
102
{ACAD_REACTORS
330
12
102
}
330
12
100
AcDbXrecord
280
     1
270
     1
271
     1
  0
XRECORD
  5
18
102
{ACAD_REACTORS
330
12
102
}
330
12
100
AcDbXrecord
280
     1
270
     1
271
     1
  0
XRECORD
  5
15
102
{ACAD_REACTORS
330
12
102
}
330
12
100
AcDbXrecord
280
     1
270
     1
271
     1
  0
XRECORD
  5
E3E
102
{ACAD_REACTORS
330
22
102
}
330
22
100
AcDbXrecord
280
     1
102
MATERIAL
148
0.0
149
0.0
149
0.0
 93
        0
 94
      127
282
     0
 72
     0
 77
     0
171
     0
175
     0
179
     0
273
     0
  0
XRECORD
  5
24
102
{ACAD_REACTORS
330
22
102
}
330
22
100
AcDbXrecord
280
     1
270
     1
271
     1
  0
XRECORD
  5
23
102
{ACAD_REACTORS
330
22
102
}
330
22
100
AcDbXrecord
280
     1
270
     1
271
     1
  0
XRECORD
  5
BA
102
{ACAD_REACTORS
330
22
102
}
330
22
100
AcDbXrecord
280
     1
 70
     1
 90
1959938040
 71
     1
  1
D277B3C5-1DEF-4888-90D7-9AD2B4DCAFD8
311
504B03040A0000080000114833403DEE336E79000000790000001B0000006175746F6465736B2D64657369676E2D7061636B6167652E786D6C3C3F786D6C2076657273696F6E3D22312E302220656E636F64696E673D227574662D3822203F3E3C666F726D6174733E3C666F726D61743E687474703A2F2F736368656D612E
311
6175746F6465736B2E636F6D2F64657369676E2D7061636B6167652F323030393C2F666F726D61743E3C2F666F726D6174733E504B030414000608080011483340D486FD9CA0000000F4000000130000005B436F6E74656E745F54797065735D2E786D6C7D8EC10E82300C865F65E91D8A1E8C310C0EEA1BF002731658846E
311
D98AC1B77784ABF1D8FE5FBFBF75BBCE937A534CCEB38643598122B6FEE978D0B0485F9C41B54DDD7D022595594E1A469170414C76A4D9A4D207E29CF43ECE46F218070CC6BECC4078ACAA135ACF422C856C0E68EA1BF5669944DDD7BCDE7B1F8E415D77AECB980613C2E4AC91FC167A2B244592486606FC29C8FD7F045B9A
311
EF7053A7E60B504B0304140006080800114833404FFEE9AAE90000007C01000008000000636F72652E786D6C8D905D6EC3201084AF82F61D1B6CA7B2234C94D6F6097A0104C44189C1E2A7EAF18B13476ADFFAB4A3613E7635ECF4BDDCD197F6C138DB032D08206DA553C6CE3DA478C12DA01367DEB9F82B06C88A45F7B0D9
311
C0D9EC5D5A774B3A1BB58DD9B54EE9DD1421E80848DEB3E821C8AB5E442152CC89702B56216F62D6057DA90CA764147A2E312AFF672E467BE0EDB91B4752137CAE9B01371F6D8BDBC344F1380D0D394CEFC3548DACDC60CEA2595EFBA5D7226A05BC22B4C28462DA7D92EE48C8B16E3079CB82955BFC0F9456F54F28191BEB
311
6A3FF78905E0341FF278E0ACDCBAC8E351549E5B6FFC07504B03041400060808001148334055019EA25F0000007C00000007000000636E782E786D6C4DCB3B0E80201045D1AD90E915ED2CF8AC45050C11660C8261F98AB1B07AC9C97D42D718D865D3E909258CFD00CCE24AC6E326A164D74DC0B4128928FF326038472BA1
311
3128B1252AC747C6BAB984FC68F0B87FE8960A5C09FE86CFB69FBA01504B0304140006080800114833408816BB0665010000020300000C0000006662782F636F72652E786D6C8D52ED8E8320107C15C27F043F7AB10DD2F4AEFA04F70254A967AA60104C1FFFD68FA6D74BD33426486676766747F9FEDAB5685476688CCE70
311
18308C942E4DD5E83AC3DE9D498AD15E706B8CFB538691969DCAF00463C16B6B7CBF42A5D14E6907A836955A41390CCA6154B670C9F050FEA84E06D23BA8182E412FCB8BAC55100640439DE083B360002D43A6138BF3E9CAE9820BEE7D53AD6C53C1B4E6DC288B457AD8E6398B1939C4C991245F694AD24D1192BC38266C53
311
7C1E8B28E774120BEE9AEEE6AEB44A3A556111B130222C24E1F69B6D778CEDE284B00FB8703A953F887C5FBD29F28D7671B4DA5D640316211899897FDB42440E0D72043F54703A8508AF39E1C7A0211008D9C9537BDBE302D0A84A676C024C65FC9D1A65EB154C65687E385D58E83C3780CD9EF6895EF479DD033EA0D43558
311
930EAE27EFA6E97C99BA46D12B4B467745DAD84EB677738BC5FB791FF4545E9AD6D877D4745D95AE61D2E9EF15BF504B030414000608080011483340DE76E54C7D0000009D0000000B0000006662782F636E782E786D6C4DCCD10AC2201886E15B91FFDCA67396813A2CEC3E467343721AA6D1E5B7C50E3AFAE0E1E395FD67
311
09E8EDF2CBA7A8801E082017EF69F4715650CB8405A05ECB9C52F9BB018AC3E2146C0C5ACE39D5E74EA39B861ACAAAC1C7C78EDC1C6F96DB2B668C08DCB5EC82853504F393693B46CFD418018D96CDAFB4EE16D65F504B0304140006080800114833408FB2EC742A01000014020000310000006662782F3541364645354543
311
2D333330382D343233422D384541302D3537413234333139314141382F636F72652E786D6C8D51CB6EC32010FC15C4293D6083B15D3BC2446E957E417F801892A2C460F1A8F2F985DA91DA5B2E2C9A9D991DEDB2C37DBE816FE5BCB66680A4C010283359A9CD6580319C5107C18133676DF84383C088590D30C390B38BB371
311
D9A0C99AA04C48A8B1526DA0F05E0508A65BFA0CD04F5F6A1685882131FCB558C4741517559022B5138F331F5C0A00D621F985BC19DB8F63737C4794E20ED5157D43DD71C4A8791DAB9A929E8C63C7CA55C8598C5A6E722D531C7DD6CA3D6B92C59C053D3FE24F4E89A024E4152615C20491FE13F77B8CF7B446B84D1F5666
311
FA3F515CE493A2A84DA0D516779579C8092BD70667D2C6D3ED1146DD17EB02C8F3765E4D2F90E302578412DAD6AC5CA96901C9B3AD374F1FAC4B0BDE5D4F894D9AD5B8AD392BF38D52F93D60AAF99EFC07504B030414000608080011483340560482124C01000033030000300000006662782F35413646453545432D333330
311
382D343233422D384541302D3537413234333139314141382F636E782E786D6CD593CD6EC32010845F0571F75F62454D8489D4439FA0875E316C121A0C163F55FDF65D1292E692438FBD2034FB31B31AD96CFF3D19F2053E686707DAD52D2560A553DA1E079AE2A17AA164CF99772E3E60945831C140B34C393B7A97E62229
311
38886422AA46DB73113D0497BC8480727E498C93C2A001D82AA108D3084A812277106F07F0B80A8AE342E209C8DBEB0771E327C81858935D386B720667F92C490F1025D28810061AE40926518B149D8270AE9588A2EEEA5BD6939D7E9D487E708B4C5E931C3ED07C525E36AAB147D6E090B3103DB657A0B8CC40B99867A3A5
311
8858727301AF0C6749DBB8E90BABB1788F74B759F73D9A5D669C453D4121A407114151BE6ABB55D57655B77D6FB7BBB6DDADFBAADDE0853519E76C74CE94476803DECD443A1BC146CA3BD6E4F1B3FA0A4794F6D8B5F3CB1F8AC4024AEAB59DBBC77FEEA7B97CDF5897C7BF80FF00504B030414000608080011483340ECB1D1
311
CB9B0500007A100000340000006662782F35413646453545432D333330382D343233422D384541302D3537413234333139314141382F6F626A656374732E786D6CAD575D6FA33814FD2B887DCE07493A4D5794519AB4A368D4996AA219ED43A5C880A1DE1A8C6CD349F7D7EF31180299A4CDAEE62504737D7DEFB9E77ED8FF
311
B8CBB8F342A56222BF76BDE1D875681E8998E5E9B55BEA6430779D8F812F85D01D31D7C94946AF5DB3EC067E2A4559D8A59826A4E4FA60F5EEE62F474534A7AE1371A2D4B5ABA2279A912129B588A97A1EC64493619AEC86DEB016ECAB4D25299E0E941644D25CC352ACE7D0E2D44679FDD7B13B0AFC91F91EF8E6D74A4D4F
311
4B8D2A7FFAE7B35C699247BF1C76A066EACD56B7938BABC1C56C361DCC3E4CBCC1CDDDCD6AE05D4EC7CB0FCBE5D5E2F60A072B2DA1C95A2269E2069F808D64913FAA3F057EC9723D9D58111BA091A42FCC44CA0D268EE78F6A99D63BEBE431F32391E734AAB0021A957F56754C0B9AC78839A30A9675101AF75F3D8363E7F3
311
D4BCDB23BBCBE721D0DDD151D4D8DE3CBB968AF06FB8A0CE619054D430B0C6D23A5A7375BC47381482DB6F4C3919D15432C21DCE4249E4AB1B40D488047E4F8D61B234D9603C700344A1FEDCA70BD2E87D9E1FB3322939373476832A0BB6C815AA556519FB87CABDF55D6460136265D830B70EE9D782BAC1554D91F9019B6A
311
209D84931421879B66E77472E0E8D2E4E97AE5069FEFC2DDC6E4EEF1C30B290A2AB5A10FA8D504AE791A94AC4DDE5991331BDC0353F6A07C03F25F90EA7B531037C976B3DDCC9EA225C955226486D838636730C6CFD8F1AA5FF3BFF3CF1FB59BFBD13B8527826DA0FA0D78F67DE8C6B20367E0BF80F0424EAD6B9B8870948D
311
7B9603204312870B2CA10E27E1CE0DD6A872A8CAD84578E0C16598FB82BFFEC8AA41A1A84EEA3C7360795016CF28D080AD6224CCA8C96F0DDCC7E99772561D6CC54EC17BF15BE8BA586D3E6F4A999088DEDB9C5ED184E54CA3C5ED79D335A88779CFA367FAFA53C8188EFE8AF7A68B77668F5240DB606E804F9B9A6E5EF627
311
F70E88B02F15A6DCF8EF9C00274C63EDE8BF672AA29C939C8AB239F7CDFE81B651436C92DD30B96D30FBC602D2D45F0E72104D3A92AC3020B6DDAA2D9AC313DE7D5F7F012321CF4548F85E28DC97DE487021B7E1EBB6AE4A4791FED1A7B6856064B480ED558E34E96F31DFC62C494A851A7804D61FEB653774A62AA042345A
311
EB6499C17DE4169196B38D5E346B49D04845BE65689B48BBA30774F503514B804AE1298B15E5C996715E66DB847134A36D468A1370FC7FFBC3322BB6241365AE4FE8EE998EE6D0B7BD475EF593E8E8C90D36D5737083D21BD3781FE69EB0692547B0EA857635B9BCBC992E2F06DEEAF66E309BCFE783ABF1EA7270B5584D6E
311
66ABE5E26E356FE2542B0FFCA6D374131A514267F34BC96CF8BEAF913EB606B8C13DD1EAF1539D9DCDF3FB7A8851D81F610FDA65BB7111BF60ECA3F1FB0AF6924715ADB382D38CE69A9814BA377FF8378231A3674CBDBECE484ACFD0F2F5D3E6C019AC9CB1EFC1A43BFD79B0D7AE2E4D421E55A29FCA2CCC09E3071BD31AC9
311
6191A716BF2626EDB3EE33CDAB79B381C160AA046731CA60ECA4546454A3189ED183644615A8D71DE9637BF53863F74B3D206A1272DA58F24430237385B400B5CA48F7D79D3F30D399B1EADA45B71D3EE3C7560AD70167AE5DCCE89A45540D43F467330955CAC1A5EE208FB99FE429C7A85D6F6ADFDB5D069B5E476E45CE19
311
9FAC5F7505B70EA08C14181B300F213A9531815FD966BF47FFC9F1C61C8768FC0D4BDDFAB25F689DA98E418AD64ED9CB026698677BF40E89FAB65BDEB092E92172D625EB4D12D45A079AC8B4BA2818FBAC498BD5C308038AB3FEEA14BC4C11CBF3350D2405994B93E06011586175164483AACB3F1F1FA4C0453673EE1828F0
311
B814592672FBB2B0176167F3846B6DFC88B240CD7D443D4EC6DEE4B1BA07D8ABC936248A0E49AC9EB180984AD642DC0B3C18595F16D181EA0FADDCC804E1809BEB95635BDA0C4A2D51BA55D5C0828923A70EB2C7DC254DAE74058A37AF02A34A1426480CF1C1BF504B03041400060800001148334000000000000000000000
311
0000350000006662782F35413646453545432D333330382D343233422D384541302D3537413234333139314141382F76657274696365732E62696E504B030414000608080011483340F270F1330600000004000000360000006662782F35413646453545432D333330382D343233422D384541302D35374132343331393141
311
41382F747269616E676C65732E62696E636660600000504B030414000608000011483340000000000000000000000000370000006662782F35413646453545432D333330382D343233422D384541302D3537413234333139314141382F617474726962757465732E62696E504B030414000608080011483340D5987DFC8F00
311
000041010000360000006662782F35413646453545432D333330382D343233422D384541302D3537413234333139314141382F6469726563746F72792E786D6C858F410EC2201045AF4266AF15DDB800BA74E7C21B903225242D6328188F2FA5C4183471359997F9FF81E89FF3C41E1816475E02DF1F80A11FC8386F25A438
311
EECEC07A250251FC3803E6F58C12560C4AD840E95E91C151A72936F496F35732D860FE635F62C8F2DA16B505C545B74125BAA2FA9E05D7CC053D063734D5C7665FD55B6B8D15D5E9BFEAFD8490FFA45E504B030414000608080011483340CB13370DFB000000A00100003B0000006662782F35413646453545432D33333038
311
2D343233422D384541302D3537413234333139314141382F7265736F75726365732F636F72652E786D6C8D504B6E833010BD0A9ABDC1065241641CA5054ED00B586642AD041BF953F5F835814AEDAE9B99D1FB689E1EBF7C2D8FEC139DD7D674C0720A191A65276DE60E62B89106B28BE0CEDAF04B0699910B76B0C120F8EC
311
6C5C0F485913D084841A3BE1014AEF3140A61EE9E8C0AB0F5C642E63480A7FCF57A9EE72C69CE5894E3AC17D702940B63FD9260887DE46A7D0F36267058F514F87464FE9A7BE6974209A6B3B0CB41CC9B5AA7B52BF350D694E2323C3D8D7F434BEF66339F062330B1EF4F293513994012710256525A18CB0F69DB6674ACF55
311
4DE84B3A78B1C9FF98E23AFDD314B5095579C4DD6D1E044B419E84E0C5D6575ACF32D3DEBA15DF504B010214000A0000080000114833403DEE336E79000000790000001B00000000000000000000000000000000006175746F6465736B2D64657369676E2D7061636B6167652E786D6C504B01021400140006080800114833
311
40D486FD9CA0000000F40000001300000000000000000000000000B20000005B436F6E74656E745F54797065735D2E786D6C504B01021400140006080800114833404FFEE9AAE90000007C010000080000000000000000000000000083010000636F72652E786D6C504B010214001400060808001148334055019EA25F0000
311
007C000000070000000000000000000000000092020000636E782E786D6C504B01021400140006080800114833408816BB0665010000020300000C00000000000000000000000000160300006662782F636F72652E786D6C504B0102140014000608080011483340DE76E54C7D0000009D0000000B00000000000000000000
311
000000A50400006662782F636E782E786D6C504B01021400140006080800114833408FB2EC742A0100001402000031000000000000000000000000004B0500006662782F35413646453545432D333330382D343233422D384541302D3537413234333139314141382F636F72652E786D6C504B010214001400060808001148
311
3340560482124C010000330300003000000000000000000000000000C40600006662782F35413646453545432D333330382D343233422D384541302D3537413234333139314141382F636E782E786D6C504B0102140014000608080011483340ECB1D1CB9B0500007A10000034000000000000000000000000005E08000066
311
62782F35413646453545432D333330382D343233422D384541302D3537413234333139314141382F6F626A656374732E786D6C504B010214001400060800001148334000000000000000000000000035000000000000000000000000004B0E00006662782F35413646453545432D333330382D343233422D384541302D3537
311
413234333139314141382F76657274696365732E62696E504B0102140014000608080011483340F270F133060000000400000036000000000000000000000000009E0E00006662782F35413646453545432D333330382D343233422D384541302D3537413234333139314141382F747269616E676C65732E62696E504B0102
311
1400140006080000114833400000000000000000000000003700000000000000000000000000F80E00006662782F35413646453545432D333330382D343233422D384541302D3537413234333139314141382F617474726962757465732E62696E504B0102140014000608080011483340D5987DFC8F000000410100003600
311
0000000000000000000000004D0F00006662782F35413646453545432D333330382D343233422D384541302D3537413234333139314141382F6469726563746F72792E786D6C504B0102140014000608080011483340CB13370DFB000000A00100003B00000000000000000000000000301000006662782F35413646453545
311
432D333330382D343233422D384541302D3537413234333139314141382F7265736F75726365732F636F72652E786D6C504B0506000000000E000E0080040000841100000000
310
504B03040A0000080000114833403DEE336E79000000790000001B0000006175746F6465736B2D64657369676E2D7061636B6167652E786D6C3C3F786D6C2076657273696F6E3D22312E302220656E636F64696E673D227574662D3822203F3E3C666F726D6174733E3C666F726D61743E687474703A2F2F736368656D612E
310
6175746F6465736B2E636F6D2F64657369676E2D7061636B6167652F323030393C2F666F726D61743E3C2F666F726D6174733E504B030414000608080011483340D486FD9CA0000000F4000000130000005B436F6E74656E745F54797065735D2E786D6C7D8EC10E82300C865F65E91D8A1E8C310C0EEA1BF002731658846E
310
D98AC1B77784ABF1D8FE5FBFBF75BBCE937A534CCEB38643598122B6FEE978D0B0485F9C41B54DDD7D022595594E1A469170414C76A4D9A4D207E29CF43ECE46F218070CC6BECC4078ACAA135ACF422C856C0E68EA1BF5669944DDD7BCDE7B1F8E415D77AECB980613C2E4AC91FC167A2B244592486606FC29C8FD7F045B9A
310
EF7053A7E60B504B030414000608080011483340B3CEE5E5EB0000007C01000008000000636F72652E786D6C75905D6EC3201084AF82F61D1BFC173BC24476D59EA01740405C94182C03558E1F9C3852F3D0A71D0DF3B1AB61A7DB7C45BF7AF5C6D91E684600692B9D3276EA2186336E019D385B9D0B7F6280AC98750F9B0D
310
9C4DAB8BCB6E496783B621B9D629BD9BC27B1D00C96B123D78F9A36791891852C25FB245C88B9874465F2AC1311A859E4B8C4AFF99B3D12BF091D2EA73680EB81B4985AB766CF150171FB869EBBAFB6A0EEDD011966F3067C1CCAFFD72D5226805BC20B4C08462DA7D93EE48C8B12C31699260F9167F83E2A2FE83AA77281A
310
1BCA623FF78979E0341DF278E02CDFBA48E351549A5B6FFC0E504B03041400060808001148334055019EA25F0000007C00000007000000636E782E786D6C4DCB3B0E80201045D1AD90E915ED2CF8AC45050C11660C8261F98AB1B07AC9C97D42D718D865D3E909258CFD00CCE24AC6E326A164D74DC0B4128928FF32603847
310
2BA13128B1252AC747C6BAB984FC68F0B87FE8960A5C09FE86CFB69FBA01504B0304140006080800114833400F9D98EC68010000020300000C0000006662782F636F72652E786D6C8D525B6E833010BC8AE57F63430881C8384AAAF604BD80030E45011B191BE5F85D1E114D95461592B16676766707F8E1D6366850B6AF8D
310
CE7118308C942E4C59EB2AC7DE5D488AD141706B8CFB51869196ADCAF10863C12B6B7CB74085D14E6907A836A55A40D9F7CA61543470C9715F7CA95606D23BA8E8AF41278BABAC54100640439DE0BDB36000CD43C6138BCBF9C6E98C0BEE7D5D2E6C5DC2B4FA522B8BC5290CE3F763B223D989C5244E4F29396EA33792A4DB
310
6DF691ECD263C6381DC582BBBABDBB2BAC924E9558442C8C080B49987DB26CCFD87EB3212C810BA763F983C877E55FA2F851E46BED36D1627796F558846064227E6D0B1139D4CB01FC50C1E91822BCA6841F838640206427CFCD7D8F2B40832A9CB13130A5F12B35C8C62B98CAD0F4703AB3D0796A009B3DED13BDE8F3BA07
310
7C40A92BB0261D5CCFDE8DD3F93C7589A253960CEE86B4B1AD6C5673B3C5F55C073D9517A631F63F6ABAAC4A9730E9F8F78A6F504B0304140006080800114833404C3582A17C0000009D0000000B0000006662782F636E782E786D6C4DCC410EC2201404D0AB90BFC756F28D2C80862ADCA3B1B4215268B0188F6F315DB89A
310
C9CB6444F7590279BBFCF2294A389F5A202E3ED2E8E32CA16C13E5403A25724ADBDF0C481C1627A1322831E754D68346370D256CBB061F9F076A8E8CA13154B7774651635FDB9572CB6FD65CACE911A151A2F93DED598FD517504B030414000608080011483340AF3F56CF2D01000014020000310000006662782F41383432
310
323445452D413044322D344134422D413044372D3846384346453546454234342F636F72652E786D6C8D51CB6EC32010FC158B537AC0C698A476848992D6F982FE000192A2C460F1A8F2F985DA919A43A55E60353B333BDAA5BBFB782BBE94F3DA9A1ED425028532C24A6D2E3D88E10C5B50EC1875D6865F3450183EAA1E64
310
18307A71364E0B24AC09CA84841A2BD50272EF550085B8A5A2075E7CAA91973C86C4F0D772E2E2CA2FAAACCBD44E3C467D702940310FC92F60FB96604C8601EED13B86644F0EB97A85EDB17D3B0EEBE370208456B390D118B55CE45AA638FAAC95FBAF4916331AF4F8882F9CE24149C030AA314435ACBB0FD46D11DA360D44
310
9B54D02AD39F4471927F89C8B3286A131ABCC49D651EB09A5673835169E3E9F608A3EE9375A1C8F3565E8917C0508970D37564BDA6D54C4D0B489E1BB278FA605D5AF0EA7A4AEC6631DE1046AB7CA3F4FD1C30FDF99EEC1B504B0304140006080800114833409F5056205601000033030000300000006662782F4138343232
310
3445452D413044322D344134422D413044372D3846384346453546454234342F636E782E786D6CAD93CD6EC32010845F0571F75F6C59498489D4439FA0875E316C521A0C16E0AA79FB2E094973C921552F08CD0E33AB4F36DB7D4F867C810FDAD98136654D0958E994B687812E715FAC29D971E69D8B77364AAC9860A049A6
310
9C1DBC5BE62C29D88BC544548DB6C72C7A086EF11202CAE925314E0A8301608B05459846500A14B919F1B6078FABA0389E48FC00F2FAF24EDCF809320656A514CEAAD4C1593A73D39D8912694408030DF20326518A253A05E1582A1145D994D7AE073BFD2691F4E05AB9784D52F940D34979DEA8448EACC22167217AA4974D
310
F13403E5629E8D962222E4EA6CBC78385BB48D7D97BD1AC17B74B7AB7EBDC6B0F38CB3A827C80EE941445094AFEA6655D44DD16CDEEACDB6AEB76D5BD43D5E5895EC9C8DCE99FC0863C0BB99486723D84879C3AA347E842FFB88D21E593B7F7A022402C8AD173AB78CFFE4D3F46DD73DCBA7FB3B9FEAFC7D232E8F7F01FF01
310
504B030414000608080011483340B256D6B559070000931B0000340000006662782F41383432323445452D413044322D344134422D413044372D3846384346453546454234342F6F626A656374732E786D6CED595B6FA33814FE2B887D0E09493A6D5794519B4CAB68D599D16467B40F9190030EF5D618649B5EF6D7EFF105
310
0234B464A7FB360F0960ECE373BE73F521F8F89451E70173417276E1FADEC475308BF384B0F4C22DE56E74E63A1FC380E7B96C4C731D86327CE1AA61370C529E97851D4AF00E95547646AFAFFE72448C19769D9822212E5C11DFE10C79A8947982C5BD972089BC74F7E4F99E99D8269B7254DC7588168863268153186740C5
310
314CF9EDC7893B0E83B17A1F06EADFCE9A0D9A35EF9F35D652B7B9244C48C4E2172C75C8CC06B134F3E7CB4FD393F3D1C97C3E1BCD3F4CFDD1D5F5D572E49FCE268B0F8BC5F9E5A773606F9BE7D4CA94E002B304F4F7EC867E30566F6AD12D0287B88E73C670AC8104A8B4585D82040BD8AA01DFA4FDE82B891AAFB5848DE7
310
B97A6F59680CCFDA54FA660D03A2451704B1DB551257D7A67CF9F66F105C0C314A2EB0046E85E4A05D0B0F07AF70C3493036A361B0DDEB82082743127382A843C996230E4A81A96A4A189805968C720E0EA41C2581D69C79DDB62DF0CCB75DE71097BB9252E5196EA81D2B02F7C35268CEC83F98EFB96F22033C81B42561F2
310
CC72299F0BEC86E7C1580F8681BACCA6F6A501D2D951940A8D8879DB1174A15C7FB574C33FAEB74F6B150E0E6F5EF0BCC05C2AA3537AD47C8121DBAB42C96EEB0FD29C5A00C21850EDCA3D28DF00F9CF103DF6AC80DE38799A3FCDED5CC91113BB9C67A01B67E28C26F037717CFDAFEE1B77C1B85EDCD65E1F9EE0A60AAAB3
310
9FC7B32D83C6CAF2DF80330C1EC0E0733EB3AFD631A260CFB7840140CA481C9AC31084F6DDF6C90D57103821D0C32A44431F4406761FE036185B327BAD54EE65BD8E01A2768FD91025016CDA22818D1E3DDD40F6E024DEABA929621FBC27EF62AE97CBF51FEB92EF508C6FAD4F2FF18E3022216B1E66A885794BA27BFCFC98
310
F304047D89F7BA897766B71280B6C25C019F5620A887FDCEAD0D625897E62ADC046FEC0042A85CDDA07F4B448C29450CE765B56F1DDD94A1D61E6F6B06379C1A8867D38E0973FC405455014EB39FD16214F27ECC49A14074C31B23591D34BD1EE9BEAF3E8345D6F37B66AD18845E86E89F3A681DC0A165D915D216885AE0ED
310
3E9CC739CD79B47D8E4CA473A1960036DADEF2A3451462BD5192A2021EA4FDAE0A29A991364AC86E570A88AB0758FCB15A34CD61E2CDFC13A7F9DF71C639445BF05DC4ADDF75F6884886521CED50D2B75D73B79AB6D0247B4873BCA320177920F23942329A24383D069AA3889FBF2BF594E642108605E4AB83E037D1987810
310
488C362B9695563B4013116558227A0C028A4C0FB83AEDE81A3786D2E16D1E6BEB7D4D634DA2FF93457004B564CE2202A528E4903719F7BD1388216D740DCA1D7CC1DA2ADA5A0C5A4209113F478F98A477F218D40DF91EDC6338929432CA0B1483590F20FBC25794523BBC6F517CAFF2471497F4BD0C4460BA8B08A56516C1
310
8F3038790C71ED3A30BD8A4283B8897D126750942159F2219B7C3899BCD8C7D40CDD10D8D868472884ED2843450FEAAD80A8EB11A706DF52EF51EAB6CC8A086579C906198A37EB7A9325DF55AB223B905F552A42D95811B604C380305967D52A6683A9EBC00A6EA403D57324505650730A7B23F1F8B53769CABD1B70EBA7EF
310
BB4106855F8FF69A11755EC160796C1506E211C9F8CE0DD7FA3ABA82FA3BC1C93ED557B566B30204C454242F39B12AFABE82F2C6D6686E788BA4D8DC98AC5B5DBFAF3CE87E04635803B54BBD70A580CE3093485526B7EA867E4310825B34CCF84AE5D463A85C2689AE1A11BD267DEA6C9511AD4D33E2157798E519FCD886B0
310
989609DEA044DC47B792466BA258B7527A19A9307E55C02F37EB0E3C303240A4AFAAC0C38F9DB57674A1CAA58344E45D996D192210045BA2A546375EC152AB914ACBF5559D29A0EE0203B32A9EFF3A5934DB11BF4E16A9358C9F3B59D07C8BE83EDA34B279ACCCFAA853409D9E1495F73805E8AE434DB54E2226975BF1AD2F
310
451013AB203FB818AB628621D8C7F17F4EDA7D49D06CD7E1FFB8A4EDBF28388E4A2AADC9AA4975A0705D3553D8727A7A7A355B9C8CFCE5A7EBD1FCECEC6C743E599E8ECE2F97D3ABF9727179BD3CABD1D47E1A06752CD3A90B9E4D4CAB86D593C5009AB222A72481C37CE2A41842BE8423FD80EE39CFB080DCD9EC7527B627
310
3F60F58369734AB4A5B8E2E40E417F980AC8EA805119CBF6B8F31B7426259CB32F5CE81979F7F067ADD27520F15CB8D0299024C6C2DB429749F5F33471C8B83AF55B62800F62A9CA886651FD5CAF52D8B4A27F3D654816B072B55A1850B715D0FC6A3528346F96A7F828C12B761C24E1765B4A28D68C2CFB815A18BDCD5EFD
310
46364AD8BDDDFA095CF775B17C4FCF692132E88BC1AB4660A88E24E2A96E772BC62C4B97CBAF6368B339AB2F4E41CB1474399CD2886330E652D553604560159666812498EAE2F7CD579EC3179ECCD145D166916759CEECC3251CC712F842E4ACEFE07B4FB281AA01ABAEBAD84C27FE74A3BBD9B6C11E6D91C09E2A8760A0AA
310
2294081D63038B7CD199B27DCBB1524267FA6AE9D8F0095D0063412F9ABBE6EB9603DEA3BEA3285FD11E5EC9F96A437BACA7823570684587FF02504B030414000608000011483340000000000000000000000000350000006662782F41383432323445452D413044322D344134422D413044372D3846384346453546454234
310
342F76657274696365732E62696E504B030414000608080011483340F270F1330600000004000000360000006662782F41383432323445452D413044322D344134422D413044372D3846384346453546454234342F747269616E676C65732E62696E636660600000504B030414000608000011483340000000000000000000
310
000000370000006662782F41383432323445452D413044322D344134422D413044372D3846384346453546454234342F617474726962757465732E62696E504B030414000608080011483340D5987DFC8F00000041010000360000006662782F41383432323445452D413044322D344134422D413044372D38463843464535
310
46454234342F6469726563746F72792E786D6C858F410EC2201045AF4266AF15DDB800BA74E7C21B903225242D6328188F2FA5C4183471359997F9FF81E89FF3C41E1816475E02DF1F80A11FC8386F25A438EECEC07A250251FC3803E6F58C12560C4AD840E95E91C151A72936F496F35732D860FE635F62C8F2DA16B505C5
310
45B74125BAA2FA9E05D7CC053D063734D5C7665FD55B6B8D15D5E9BFEAFD8490FFA45E504B030414000608080011483340171A423BFB000000A00100003B0000006662782F41383432323445452D413044322D344134422D413044372D3846384346453546454234342F7265736F75726365732F636F72652E786D6C8D5059
310
6E833010BD0A9A7F83CD56888C23A8DA13F4029699102BC1465EAA1EBF26A152FBD79F99D15B344F8F9FBFD67BF689CE6B6B066039850C8DB2B336CB00315C4807D95970676DF82583CCC81507D861107C71366E07A4AC096842428D9DF100A5F7182053F7740CE0D5155799CB1892C2DFF24DAA9B5C306779A2934E701F5C
310
0A903D9FEC1384436FA353E879F164058F51CF8746CFE9A7BE68742026C6EAB7B16D493FD19AD4DDD491B1295F49DB354DFFDEBE74634F79B19B050F7AFDC9A81CCA80338892B292504658FF41FB13A5A7AA22B44D072F76F91F53DCE67F9AA236A12A8FB84F9B07C15290072178B1F795D6A3CCB4F76EC537504B01021400
310
0A0000080000114833403DEE336E79000000790000001B00000000000000000000000000000000006175746F6465736B2D64657369676E2D7061636B6167652E786D6C504B0102140014000608080011483340D486FD9CA0000000F40000001300000000000000000000000000B20000005B436F6E74656E745F5479706573
310
5D2E786D6C504B0102140014000608080011483340B3CEE5E5EB0000007C010000080000000000000000000000000083010000636F72652E786D6C504B010214001400060808001148334055019EA25F0000007C000000070000000000000000000000000094020000636E782E786D6C504B01021400140006080800114833
310
400F9D98EC68010000020300000C00000000000000000000000000180300006662782F636F72652E786D6C504B01021400140006080800114833404C3582A17C0000009D0000000B00000000000000000000000000AA0400006662782F636E782E786D6C504B0102140014000608080011483340AF3F56CF2D010000140200
310
0031000000000000000000000000004F0500006662782F41383432323445452D413044322D344134422D413044372D3846384346453546454234342F636F72652E786D6C504B01021400140006080800114833409F50562056010000330300003000000000000000000000000000CB0600006662782F41383432323445452D
310
413044322D344134422D413044372D3846384346453546454234342F636E782E786D6C504B0102140014000608080011483340B256D6B559070000931B000034000000000000000000000000006F0800006662782F41383432323445452D413044322D344134422D413044372D3846384346453546454234342F6F626A6563
310
74732E786D6C504B010214001400060800001148334000000000000000000000000035000000000000000000000000001A1000006662782F41383432323445452D413044322D344134422D413044372D3846384346453546454234342F76657274696365732E62696E504B0102140014000608080011483340F270F1330600
310
00000400000036000000000000000000000000006D1000006662782F41383432323445452D413044322D344134422D413044372D3846384346453546454234342F747269616E676C65732E62696E504B01021400140006080000114833400000000000000000000000003700000000000000000000000000C7100000666278
310
2F41383432323445452D413044322D344134422D413044372D3846384346453546454234342F617474726962757465732E62696E504B0102140014000608080011483340D5987DFC8F0000004101000036000000000000000000000000001C1100006662782F41383432323445452D413044322D344134422D413044372D38
310
46384346453546454234342F6469726563746F72792E786D6C504B0102140014000608080011483340171A423BFB000000A00100003B00000000000000000000000000FF1100006662782F41383432323445452D413044322D344134422D413044372D3846384346453546454234342F7265736F75726365732F636F72652E
310
786D6C504B0506000000000E000E0080040000531300000000
  0
XRECORD
  5
27
102
{ACAD_REACTORS
330
22
102
}
330
22
100
AcDbXrecord
280
     1
270
     1
271
     1
  0
XRECORD
  5
26
102
{ACAD_REACTORS
330
22
102
}
330
22
100
AcDbXrecord
280
     1
270
     1
271
     1
  0
XRECORD
  5
28
102
{ACAD_REACTORS
330
22
102
}
330
22
100
AcDbXrecord
280
     1
270
     1
271
     1
  0
XRECORD
  5
25
102
{ACAD_REACTORS
330
22
102
}
330
22
100
AcDbXrecord
280
     1
270
     1
271
     1
  0
XRECORD
  5
E37
102
{ACAD_REACTORS
330
E36
102
}
330
E36
100
AcDbXrecord
280
     1
102
ACAD_ROUNDTRIP_2012_MLEADER_STYLE
298
     1
  0
CELLSTYLEMAP
  5
E35
102
{ACAD_REACTORS
330
E34
102
}
330
E34
100
AcDbCellStyleMap
 90
        3
300
CELLSTYLE
  1
TABLEFORMAT_BEGIN
 90
        5
170
     1
 91
        0
 92
    32768
 62
   257
 93
        1
300
CONTENTFORMAT
  1
CONTENTFORMAT_BEGIN
 90
        0
 91
        0
 92
      512
 93
        0
300

 40
0.0
140
1.0
 94
        5
 62
     0
340
55
144
0.25
309
CONTENTFORMAT_END
171
     0
 94
        0
309
TABLEFORMAT_END
  1
CELLSTYLE_BEGIN
 90
        1
 91
        1
300
_TITLE
309
CELLSTYLE_END
300
CELLSTYLE
  1
TABLEFORMAT_BEGIN
 90
        5
170
     1
 91
        0
 92
        0
 62
   257
 93
        1
300
CONTENTFORMAT
  1
CONTENTFORMAT_BEGIN
 90
        0
 91
        0
 92
      512
 93
        0
300

 40
0.0
140
1.0
 94
        5
 62
     0
340
55
144
0.18
309
CONTENTFORMAT_END
171
     0
 94
        0
309
TABLEFORMAT_END
  1
CELLSTYLE_BEGIN
 90
        2
 91
        1
300
_HEADER
309
CELLSTYLE_END
300
CELLSTYLE
  1
TABLEFORMAT_BEGIN
 90
        5
170
     1
 91
        0
 92
        0
 62
   257
 93
        1
300
CONTENTFORMAT
  1
CONTENTFORMAT_BEGIN
 90
        0
 91
        0
 92
      512
 93
        0
300

 40
0.0
140
1.0
 94
        2
 62
     0
340
55
144
0.18
309
CONTENTFORMAT_END
171
     0
 94
        0
309
TABLEFORMAT_END
  1
CELLSTYLE_BEGIN
 90
        3
 91
        2
300
_DATA
309
CELLSTYLE_END
  0
XRECORD
  5
E6F
102
{ACAD_REACTORS
330
E34
102
}
330
E34
100
AcDbXrecord
280
     1
102
ACAD_ROUNDTRIP_PRE2007_TABLESTYLE
 90
      512
 91
        0
  1

 92
      512
 93
        0
  2

 94
      512
 95
        0
  3

  0
XRECORD
  5
E4A
102
{ACAD_REACTORS
330
E49
102
}
330
E49
100
AcDbXrecord
280
     1
102
RTVSPropertyOp0
 70
     1
102
RTVSPropertyOp1
 70
     1
102
RTVSPropertyOp2
 70
     1
102
RTVSPropertyOp3
 70
     1
102
RTVSPropertyOp4
 70
     1
102
RTVSPropertyOp5
 70
     1
102
RTVSPropertyOp6
 70
     1
102
RTVSPropertyOp7
 70
     1
102
RTVSPropertyOp8
 70
     1
102
RTVSPropertyOp9
 70
     1
102
RTVSPropertyOp10
 70
     1
102
RTVSPropertyOp11
 70
     1
102
RTVSPropertyOp12
 70
     1
102
RTVSPropertyOp13
 70
     1
102
RTVSPropertyOp14
 70
     1
102
RTVSPropertyOp15
 70
     1
102
RTVSPropertyOp16
 70
     1
102
RTVSPropertyOp17
 70
     1
102
RTVSPropertyOp18
 70
     1
102
RTVSPropertyOp19
 70
     1
102
RTVSPropertyOp20
 70
     1
102
RTVSPropertyOp21
 70
     1
102
RTVSPropertyOp22
 70
     1
102
RTVSPropertyOp23
 70
     1
102
RTVSPropertyOp24
 70
     1
102
RTVSPropertyOp25
 70
     1
102
RTVSPropertyOp26
 70
     1
102
RTVSPropertyOp27
 70
     1
102
RTVSPropertyOp28
 70
     1
102
RTVSPropertyOp29
 70
     1
102
RTVSPropertyOp30
 70
     1
102
RTVSPropertyOp31
 70
     1
102
RTVSPropertyOp32
 70
     1
  0
XRECORD
  5
E48
102
{ACAD_REACTORS
330
E47
102
}
330
E47
100
AcDbXrecord
280
     1
102
RTVSPropertyOp0
 70
     1
102
RTVSPropertyOp1
 70
     1
102
RTVSPropertyOp2
 70
     1
102
RTVSPropertyOp3
 70
     1
102
RTVSPropertyOp4
 70
     1
102
RTVSPropertyOp5
 70
     1
102
RTVSPropertyOp6
 70
     1
102
RTVSPropertyOp7
 70
     1
102
RTVSPropertyOp8
 70
     1
102
RTVSPropertyOp9
 70
     1
102
RTVSPropertyOp10
 70
     1
102
RTVSPropertyOp11
 70
     1
102
RTVSPropertyOp12
 70
     1
102
RTVSPropertyOp13
 70
     1
102
RTVSPropertyOp14
 70
     1
102
RTVSPropertyOp15
 70
     1
102
RTVSPropertyOp16
 70
     1
102
RTVSPropertyOp17
 70
     1
102
RTVSPropertyOp18
 70
     1
102
RTVSPropertyOp19
 70
     1
102
RTVSPropertyOp20
 70
     1
102
RTVSPropertyOp21
 70
     1
102
RTVSPropertyOp22
 70
     1
102
RTVSPropertyOp23
 70
     1
102
RTVSPropertyOp24
 70
     1
102
RTVSPropertyOp25
 70
     1
102
RTVSPropertyOp26
 70
     1
102
RTVSPropertyOp27
 70
     1
102
RTVSPropertyOp28
 70
     1
102
RTVSPropertyOp29
 70
     1
102
RTVSPropertyOp30
 70
     1
102
RTVSPropertyOp31
 70
     1
102
RTVSPropertyOp32
 70
     1
  0
XRECORD
  5
E56
102
{ACAD_REACTORS
330
E55
102
}
330
E55
100
AcDbXrecord
280
     1
102
RTVSPropertyOp0
 70
     1
102
RTVSPropertyOp1
 70
     1
102
RTVSPropertyOp2
 70
     1
102
RTVSPropertyOp3
 70
     1
102
RTVSPropertyOp4
 70
     1
102
RTVSPropertyOp5
 70
     1
102
RTVSPropertyOp6
 70
     1
102
RTVSPropertyOp7
 70
     1
102
RTVSPropertyOp8
 70
     1
102
RTVSPropertyOp9
 70
     1
102
RTVSPropertyOp10
 70
     1
102
RTVSPropertyOp11
 70
     1
102
RTVSPropertyOp12
 70
     1
102
RTVSPropertyOp13
 70
     1
102
RTVSPropertyOp14
 70
     1
102
RTVSPropertyOp15
 70
     1
102
RTVSPropertyOp16
 70
     1
102
RTVSPropertyOp17
 70
     1
102
RTVSPropertyOp18
 70
     1
102
RTVSPropertyOp19
 70
     1
102
RTVSPropertyOp20
 70
     1
102
RTVSPropertyOp21
 70
     1
102
RTVSPropertyOp22
 70
     1
102
RTVSPropertyOp23
 70
     1
102
RTVSPropertyOp24
 70
     1
102
RTVSPropertyOp25
 70
     1
102
RTVSPropertyOp26
 70
     1
102
RTVSPropertyOp27
 70
     1
102
RTVSPropertyOp28
 70
     1
102
RTVSPropertyOp29
 70
     1
102
RTVSPropertyOp30
 70
     1
102
RTVSPropertyOp31
 70
     1
102
RTVSPropertyOp32
 70
     1
  0
XRECORD
  5
E5E
102
{ACAD_REACTORS
330
E5D
102
}
330
E5D
100
AcDbXrecord
280
     1
102
RTVSPropertyOp0
 70
     1
102
RTVSPropertyOp1
 70
     1
102
RTVSPropertyOp2
 70
     1
102
RTVSPropertyOp3
 70
     1
102
RTVSPropertyOp4
 70
     1
102
RTVSPropertyOp5
 70
     1
102
RTVSPropertyOp6
 70
     1
102
RTVSPropertyOp7
 70
     1
102
RTVSPropertyOp8
 70
     1
102
RTVSPropertyOp9
 70
     1
102
RTVSPropertyOp10
 70
     1
102
RTVSPropertyOp11
 70
     1
102
RTVSPropertyOp12
 70
     1
102
RTVSPropertyOp13
 70
     1
102
RTVSPropertyOp14
 70
     1
102
RTVSPropertyOp15
 70
     1
102
RTVSPropertyOp16
 70
     1
102
RTVSPropertyOp17
 70
     1
102
RTVSPropertyOp18
 70
     1
102
RTVSPropertyOp19
 70
     1
102
RTVSPropertyOp20
 70
     1
102
RTVSPropertyOp21
 70
     1
102
RTVSPropertyOp22
 70
     1
102
RTVSPropertyOp23
 70
     1
102
RTVSPropertyOp24
 70
     1
102
RTVSPropertyOp25
 70
     1
102
RTVSPropertyOp26
 70
     1
102
RTVSPropertyOp27
 70
     1
102
RTVSPropertyOp28
 70
     1
102
RTVSPropertyOp29
 70
     1
102
RTVSPropertyOp30
 70
     1
102
RTVSPropertyOp31
 70
     1
102
RTVSPropertyOp32
 70
     1
  0
XRECORD
  5
E50
102
{ACAD_REACTORS
330
E4F
102
}
330
E4F
100
AcDbXrecord
280
     1
102
RTVSPropertyOp0
 70
     1
102
RTVSPropertyOp1
 70
     1
102
RTVSPropertyOp2
 70
     1
102
RTVSPropertyOp3
 70
     1
102
RTVSPropertyOp4
 70
     1
102
RTVSPropertyOp5
 70
     1
102
RTVSPropertyOp6
 70
     1
102
RTVSPropertyOp7
 70
     1
102
RTVSPropertyOp8
 70
     1
102
RTVSPropertyOp9
 70
     1
102
RTVSPropertyOp10
 70
     1
102
RTVSPropertyOp11
 70
     1
102
RTVSPropertyOp12
 70
     1
102
RTVSPropertyOp13
 70
     1
102
RTVSPropertyOp14
 70
     1
102
RTVSPropertyOp15
 70
     1
102
RTVSPropertyOp16
 70
     1
102
RTVSPropertyOp17
 70
     1
102
RTVSPropertyOp18
 70
     1
102
RTVSPropertyOp19
 70
     1
102
RTVSPropertyOp20
 70
     1
102
RTVSPropertyOp21
 70
     1
102
RTVSPropertyOp22
 70
     1
102
RTVSPropertyOp23
 70
     1
102
RTVSPropertyOp24
 70
     1
102
RTVSPropertyOp25
 70
     1
102
RTVSPropertyOp26
 70
     1
102
RTVSPropertyOp27
 70
     1
102
RTVSPropertyOp28
 70
     1
102
RTVSPropertyOp29
 70
     1
102
RTVSPropertyOp30
 70
     1
102
RTVSPropertyOp31
 70
     1
102
RTVSPropertyOp32
 70
     1
  0
XRECORD
  5
E54
102
{ACAD_REACTORS
330
E53
102
}
330
E53
100
AcDbXrecord
280
     1
102
RTVSPropertyOp0
 70
     1
102
RTVSPropertyOp1
 70
     1
102
RTVSPropertyOp2
 70
     1
102
RTVSPropertyOp3
 70
     1
102
RTVSPropertyOp4
 70
     1
102
RTVSPropertyOp5
 70
     1
102
RTVSPropertyOp6
 70
     1
102
RTVSPropertyOp7
 70
     1
102
RTVSPropertyOp8
 70
     1
102
RTVSPropertyOp9
 70
     1
102
RTVSPropertyOp10
 70
     1
102
RTVSPropertyOp11
 70
     1
102
RTVSPropertyOp12
 70
     1
102
RTVSPropertyOp13
 70
     1
102
RTVSPropertyOp14
 70
     1
102
RTVSPropertyOp15
 70
     1
102
RTVSPropertyOp16
 70
     1
102
RTVSPropertyOp17
 70
     1
102
RTVSPropertyOp18
 70
     1
102
RTVSPropertyOp19
 70
     1
102
RTVSPropertyOp20
 70
     1
102
RTVSPropertyOp21
 70
     1
102
RTVSPropertyOp22
 70
     1
102
RTVSPropertyOp23
 70
     1
102
RTVSPropertyOp24
 70
     1
102
RTVSPropertyOp25
 70
     1
102
RTVSPropertyOp26
 70
     1
102
RTVSPropertyOp27
 70
     1
102
RTVSPropertyOp28
 70
     1
102
RTVSPropertyOp29
 70
     1
102
RTVSPropertyOp30
 70
     1
102
RTVSPropertyOp31
 70
     1
102
RTVSPropertyOp32
 70
     1
  0
XRECORD
  5
E6E
102
{ACAD_REACTORS
330
E6D
102
}
330
E6D
100
AcDbXrecord
280
     1
102
RTVSPropertyOp0
 70
     0
102
RTVSPropertyOp1
 70
     0
102
RTVSPropertyOp2
 70
     0
102
RTVSPropertyOp3
 70
     0
102
RTVSPropertyOp4
 70
     0
102
RTVSPropertyOp5
 70
     0
102
RTVSPropertyOp6
 70
     0
102
RTVSPropertyOp7
 70
     0
102
RTVSPropertyOp8
 70
     0
102
RTVSPropertyOp9
 70
     0
102
RTVSPropertyOp10
 70
     0
102
RTVSPropertyOp11
 70
     0
102
RTVSPropertyOp12
 70
     0
102
RTVSPropertyOp13
 70
     0
102
RTVSPropertyOp14
 70
     2
102
RTVSPropertyOp15
 70
     0
102
RTVSPropertyOp16
 70
     0
102
RTVSPropertyOp17
 70
     0
102
RTVSPropertyOp18
 70
     0
102
RTVSPropertyOp19
 70
     0
102
RTVSPropertyOp20
 70
     0
102
RTVSPropertyOp21
 70
     0
102
RTVSPropertyOp22
 70
     0
102
RTVSPropertyOp23
 70
     0
102
RTVSPropertyOp24
 70
     0
102
RTVSPropertyOp25
 70
     0
102
RTVSPropertyOp26
 70
     0
102
RTVSPropertyOp27
 70
     0
102
RTVSPropertyOp28
 70
     1
102
RTVSPropertyOp29
 70
     1
102
RTVSPropertyOp30
 70
     1
102
RTVSPropertyOp31
 70
     1
102
RTVSPropertyOp32
 70
     1
  0
XRECORD
  5
E5C
102
{ACAD_REACTORS
330
E5B
102
}
330
E5B
100
AcDbXrecord
280
     1
102
RTVSPropertyOp0
 70
     1
102
RTVSPropertyOp1
 70
     1
102
RTVSPropertyOp2
 70
     1
102
RTVSPropertyOp3
 70
     1
102
RTVSPropertyOp4
 70
     1
102
RTVSPropertyOp5
 70
     1
102
RTVSPropertyOp6
 70
     1
102
RTVSPropertyOp7
 70
     1
102
RTVSPropertyOp8
 70
     1
102
RTVSPropertyOp9
 70
     1
102
RTVSPropertyOp10
 70
     1
102
RTVSPropertyOp11
 70
     1
102
RTVSPropertyOp12
 70
     1
102
RTVSPropertyOp13
 70
     1
102
RTVSPropertyOp14
 70
     1
102
RTVSPropertyOp15
 70
     1
102
RTVSPropertyOp16
 70
     1
102
RTVSPropertyOp17
 70
     1
102
RTVSPropertyOp18
 70
     1
102
RTVSPropertyOp19
 70
     1
102
RTVSPropertyOp20
 70
     1
102
RTVSPropertyOp21
 70
     1
102
RTVSPropertyOp22
 70
     1
102
RTVSPropertyOp23
 70
     1
102
RTVSPropertyOp24
 70
     1
102
RTVSPropertyOp25
 70
     1
102
RTVSPropertyOp26
 70
     1
102
RTVSPropertyOp27
 70
     1
102
RTVSPropertyOp28
 70
     1
102
RTVSPropertyOp29
 70
     1
102
RTVSPropertyOp30
 70
     1
102
RTVSPropertyOp31
 70
     1
102
RTVSPropertyOp32
 70
     1
  0
XRECORD
  5
E40
102
{ACAD_REACTORS
330
E3F
102
}
330
E3F
100
AcDbXrecord
280
     1
102
RTVSPropertyOp0
 70
     1
102
RTVSPropertyOp1
 70
     1
102
RTVSPropertyOp2
 70
     1
102
RTVSPropertyOp3
 70
     1
102
RTVSPropertyOp4
 70
     1
102
RTVSPropertyOp5
 70
     1
102
RTVSPropertyOp6
 70
     1
102
RTVSPropertyOp7
 70
     1
102
RTVSPropertyOp8
 70
     1
102
RTVSPropertyOp9
 70
     1
102
RTVSPropertyOp10
 70
     1
102
RTVSPropertyOp11
 70
     1
102
RTVSPropertyOp12
 70
     1
102
RTVSPropertyOp13
 70
     1
102
RTVSPropertyOp14
 70
     1
102
RTVSPropertyOp15
 70
     1
102
RTVSPropertyOp16
 70
     1
102
RTVSPropertyOp17
 70
     1
102
RTVSPropertyOp18
 70
     1
102
RTVSPropertyOp19
 70
     1
102
RTVSPropertyOp20
 70
     1
102
RTVSPropertyOp21
 70
     1
102
RTVSPropertyOp22
 70
     1
102
RTVSPropertyOp23
 70
     1
102
RTVSPropertyOp24
 70
     1
102
RTVSPropertyOp25
 70
     1
102
RTVSPropertyOp26
 70
     1
102
RTVSPropertyOp27
 70
     1
102
RTVSPropertyOp28
 70
     1
102
RTVSPropertyOp29
 70
     1
102
RTVSPropertyOp30
 70
     1
102
RTVSPropertyOp31
 70
     1
102
RTVSPropertyOp32
 70
     1
  0
XRECORD
  5
E42
102
{ACAD_REACTORS
330
E41
102
}
330
E41
100
AcDbXrecord
280
     1
102
RTVSPropertyOp0
 70
     1
102
RTVSPropertyOp1
 70
     1
102
RTVSPropertyOp2
 70
     1
102
RTVSPropertyOp3
 70
     1
102
RTVSPropertyOp4
 70
     1
102
RTVSPropertyOp5
 70
     1
102
RTVSPropertyOp6
 70
     1
102
RTVSPropertyOp7
 70
     1
102
RTVSPropertyOp8
 70
     1
102
RTVSPropertyOp9
 70
     1
102
RTVSPropertyOp10
 70
     1
102
RTVSPropertyOp11
 70
     1
102
RTVSPropertyOp12
 70
     1
102
RTVSPropertyOp13
 70
     1
102
RTVSPropertyOp14
 70
     1
102
RTVSPropertyOp15
 70
     1
102
RTVSPropertyOp16
 70
     1
102
RTVSPropertyOp17
 70
     1
102
RTVSPropertyOp18
 70
     1
102
RTVSPropertyOp19
 70
     1
102
RTVSPropertyOp20
 70
     1
102
RTVSPropertyOp21
 70
     1
102
RTVSPropertyOp22
 70
     1
102
RTVSPropertyOp23
 70
     1
102
RTVSPropertyOp24
 70
     1
102
RTVSPropertyOp25
 70
     1
102
RTVSPropertyOp26
 70
     1
102
RTVSPropertyOp27
 70
     1
102
RTVSPropertyOp28
 70
     1
102
RTVSPropertyOp29
 70
     1
102
RTVSPropertyOp30
 70
     1
102
RTVSPropertyOp31
 70
     1
102
RTVSPropertyOp32
 70
     1
  0
XRECORD
  5
E44
102
{ACAD_REACTORS
330
E43
102
}
330
E43
100
AcDbXrecord
280
     1
102
RTVSPropertyOp0
 70
     1
102
RTVSPropertyOp1
 70
     1
102
RTVSPropertyOp2
 70
     1
102
RTVSPropertyOp3
 70
     1
102
RTVSPropertyOp4
 70
     1
102
RTVSPropertyOp5
 70
     1
102
RTVSPropertyOp6
 70
     1
102
RTVSPropertyOp7
 70
     1
102
RTVSPropertyOp8
 70
     1
102
RTVSPropertyOp9
 70
     1
102
RTVSPropertyOp10
 70
     1
102
RTVSPropertyOp11
 70
     1
102
RTVSPropertyOp12
 70
     1
102
RTVSPropertyOp13
 70
     1
102
RTVSPropertyOp14
 70
     1
102
RTVSPropertyOp15
 70
     1
102
RTVSPropertyOp16
 70
     1
102
RTVSPropertyOp17
 70
     1
102
RTVSPropertyOp18
 70
     1
102
RTVSPropertyOp19
 70
     1
102
RTVSPropertyOp20
 70
     1
102
RTVSPropertyOp21
 70
     1
102
RTVSPropertyOp22
 70
     1
102
RTVSPropertyOp23
 70
     1
102
RTVSPropertyOp24
 70
     1
102
RTVSPropertyOp25
 70
     1
102
RTVSPropertyOp26
 70
     1
102
RTVSPropertyOp27
 70
     1
102
RTVSPropertyOp28
 70
     1
102
RTVSPropertyOp29
 70
     1
102
RTVSPropertyOp30
 70
     1
102
RTVSPropertyOp31
 70
     1
102
RTVSPropertyOp32
 70
     1
  0
XRECORD
  5
E46
102
{ACAD_REACTORS
330
E45
102
}
330
E45
100
AcDbXrecord
280
     1
102
RTVSPropertyOp0
 70
     1
102
RTVSPropertyOp1
 70
     1
102
RTVSPropertyOp2
 70
     1
102
RTVSPropertyOp3
 70
     1
102
RTVSPropertyOp4
 70
     1
102
RTVSPropertyOp5
 70
     1
102
RTVSPropertyOp6
 70
     1
102
RTVSPropertyOp7
 70
     1
102
RTVSPropertyOp8
 70
     1
102
RTVSPropertyOp9
 70
     1
102
RTVSPropertyOp10
 70
     1
102
RTVSPropertyOp11
 70
     1
102
RTVSPropertyOp12
 70
     1
102
RTVSPropertyOp13
 70
     1
102
RTVSPropertyOp14
 70
     1
102
RTVSPropertyOp15
 70
     1
102
RTVSPropertyOp16
 70
     1
102
RTVSPropertyOp17
 70
     1
102
RTVSPropertyOp18
 70
     1
102
RTVSPropertyOp19
 70
     1
102
RTVSPropertyOp20
 70
     1
102
RTVSPropertyOp21
 70
     1
102
RTVSPropertyOp22
 70
     1
102
RTVSPropertyOp23
 70
     1
102
RTVSPropertyOp24
 70
     1
102
RTVSPropertyOp25
 70
     1
102
RTVSPropertyOp26
 70
     1
102
RTVSPropertyOp27
 70
     1
102
RTVSPropertyOp28
 70
     1
102
RTVSPropertyOp29
 70
     1
102
RTVSPropertyOp30
 70
     1
102
RTVSPropertyOp31
 70
     1
102
RTVSPropertyOp32
 70
     1
  0
XRECORD
  5
E4E
102
{ACAD_REACTORS
330
E4D
102
}
330
E4D
100
AcDbXrecord
280
     1
102
RTVSPropertyOp0
 70
     1
102
RTVSPropertyOp1
 70
     1
102
RTVSPropertyOp2
 70
     1
102
RTVSPropertyOp3
 70
     1
102
RTVSPropertyOp4
 70
     1
102
RTVSPropertyOp5
 70
     1
102
RTVSPropertyOp6
 70
     1
102
RTVSPropertyOp7
 70
     1
102
RTVSPropertyOp8
 70
     1
102
RTVSPropertyOp9
 70
     1
102
RTVSPropertyOp10
 70
     1
102
RTVSPropertyOp11
 70
     1
102
RTVSPropertyOp12
 70
     1
102
RTVSPropertyOp13
 70
     1
102
RTVSPropertyOp14
 70
     1
102
RTVSPropertyOp15
 70
     1
102
RTVSPropertyOp16
 70
     1
102
RTVSPropertyOp17
 70
     1
102
RTVSPropertyOp18
 70
     1
102
RTVSPropertyOp19
 70
     1
102
RTVSPropertyOp20
 70
     1
102
RTVSPropertyOp21
 70
     1
102
RTVSPropertyOp22
 70
     1
102
RTVSPropertyOp23
 70
     1
102
RTVSPropertyOp24
 70
     1
102
RTVSPropertyOp25
 70
     1
102
RTVSPropertyOp26
 70
     1
102
RTVSPropertyOp27
 70
     1
102
RTVSPropertyOp28
 70
     1
102
RTVSPropertyOp29
 70
     1
102
RTVSPropertyOp30
 70
     1
102
RTVSPropertyOp31
 70
     1
102
RTVSPropertyOp32
 70
     1
  0
XRECORD
  5
E6A
102
{ACAD_REACTORS
330
E69
102
}
330
E69
100
AcDbXrecord
280
     1
102
RTVSPropertyOp0
 70
     0
102
RTVSPropertyOp1
 70
     0
102
RTVSPropertyOp2
 70
     0
102
RTVSPropertyOp3
 70
     0
102
RTVSPropertyOp4
 70
     0
102
RTVSPropertyOp5
 70
     0
102
RTVSPropertyOp6
 70
     0
102
RTVSPropertyOp7
 70
     0
102
RTVSPropertyOp8
 70
     0
102
RTVSPropertyOp9
 70
     0
102
RTVSPropertyOp10
 70
     0
102
RTVSPropertyOp11
 70
     0
102
RTVSPropertyOp12
 70
     0
102
RTVSPropertyOp13
 70
     0
102
RTVSPropertyOp14
 70
     2
102
RTVSPropertyOp15
 70
     0
102
RTVSPropertyOp16
 70
     0
102
RTVSPropertyOp17
 70
     0
102
RTVSPropertyOp18
 70
     0
102
RTVSPropertyOp19
 70
     0
102
RTVSPropertyOp20
 70
     0
102
RTVSPropertyOp21
 70
     0
102
RTVSPropertyOp22
 70
     0
102
RTVSPropertyOp23
 70
     0
102
RTVSPropertyOp24
 70
     0
102
RTVSPropertyOp25
 70
     0
102
RTVSPropertyOp26
 70
     0
102
RTVSPropertyOp27
 70
     0
102
RTVSPropertyOp28
 70
     1
102
RTVSPropertyOp29
 70
     1
102
RTVSPropertyOp30
 70
     1
102
RTVSPropertyOp31
 70
     1
102
RTVSPropertyOp32
 70
     1
  0
XRECORD
  5
E5A
102
{ACAD_REACTORS
330
E59
102
}
330
E59
100
AcDbXrecord
280
     1
102
RTVSPropertyOp0
 70
     1
102
RTVSPropertyOp1
 70
     1
102
RTVSPropertyOp2
 70
     1
102
RTVSPropertyOp3
 70
     1
102
RTVSPropertyOp4
 70
     1
102
RTVSPropertyOp5
 70
     1
102
RTVSPropertyOp6
 70
     1
102
RTVSPropertyOp7
 70
     1
102
RTVSPropertyOp8
 70
     1
102
RTVSPropertyOp9
 70
     1
102
RTVSPropertyOp10
 70
     1
102
RTVSPropertyOp11
 70
     1
102
RTVSPropertyOp12
 70
     1
102
RTVSPropertyOp13
 70
     1
102
RTVSPropertyOp14
 70
     1
102
RTVSPropertyOp15
 70
     1
102
RTVSPropertyOp16
 70
     1
102
RTVSPropertyOp17
 70
     1
102
RTVSPropertyOp18
 70
     1
102
RTVSPropertyOp19
 70
     1
102
RTVSPropertyOp20
 70
     1
102
RTVSPropertyOp21
 70
     1
102
RTVSPropertyOp22
 70
     1
102
RTVSPropertyOp23
 70
     1
102
RTVSPropertyOp24
 70
     1
102
RTVSPropertyOp25
 70
     1
102
RTVSPropertyOp26
 70
     1
102
RTVSPropertyOp27
 70
     1
102
RTVSPropertyOp28
 70
     1
102
RTVSPropertyOp29
 70
     1
102
RTVSPropertyOp30
 70
     1
102
RTVSPropertyOp31
 70
     1
102
RTVSPropertyOp32
 70
     1
  0
XRECORD
  5
E6C
102
{ACAD_REACTORS
330
E6B
102
}
330
E6B
100
AcDbXrecord
280
     1
102
RTVSPropertyOp0
 70
     0
102
RTVSPropertyOp1
 70
     0
102
RTVSPropertyOp2
 70
     0
102
RTVSPropertyOp3
 70
     0
102
RTVSPropertyOp4
 70
     0
102
RTVSPropertyOp5
 70
     0
102
RTVSPropertyOp6
 70
     0
102
RTVSPropertyOp7
 70
     0
102
RTVSPropertyOp8
 70
     0
102
RTVSPropertyOp9
 70
     0
102
RTVSPropertyOp10
 70
     0
102
RTVSPropertyOp11
 70
     0
102
RTVSPropertyOp12
 70
     0
102
RTVSPropertyOp13
 70
     0
102
RTVSPropertyOp14
 70
     2
102
RTVSPropertyOp15
 70
     0
102
RTVSPropertyOp16
 70
     0
102
RTVSPropertyOp17
 70
     0
102
RTVSPropertyOp18
 70
     0
102
RTVSPropertyOp19
 70
     0
102
RTVSPropertyOp20
 70
     0
102
RTVSPropertyOp21
 70
     0
102
RTVSPropertyOp22
 70
     0
102
RTVSPropertyOp23
 70
     0
102
RTVSPropertyOp24
 70
     0
102
RTVSPropertyOp25
 70
     0
102
RTVSPropertyOp26
 70
     0
102
RTVSPropertyOp27
 70
     0
102
RTVSPropertyOp28
 70
     1
102
RTVSPropertyOp29
 70
     1
102
RTVSPropertyOp30
 70
     1
102
RTVSPropertyOp31
 70
     1
102
RTVSPropertyOp32
 70
     1
  0
XRECORD
  5
E52
102
{ACAD_REACTORS
330
E51
102
}
330
E51
100
AcDbXrecord
280
     1
102
RTVSPropertyOp0
 70
     1
102
RTVSPropertyOp1
 70
     1
102
RTVSPropertyOp2
 70
     1
102
RTVSPropertyOp3
 70
     1
102
RTVSPropertyOp4
 70
     1
102
RTVSPropertyOp5
 70
     1
102
RTVSPropertyOp6
 70
     1
102
RTVSPropertyOp7
 70
     1
102
RTVSPropertyOp8
 70
     1
102
RTVSPropertyOp9
 70
     1
102
RTVSPropertyOp10
 70
     1
102
RTVSPropertyOp11
 70
     1
102
RTVSPropertyOp12
 70
     1
102
RTVSPropertyOp13
 70
     1
102
RTVSPropertyOp14
 70
     1
102
RTVSPropertyOp15
 70
     1
102
RTVSPropertyOp16
 70
     1
102
RTVSPropertyOp17
 70
     1
102
RTVSPropertyOp18
 70
     1
102
RTVSPropertyOp19
 70
     1
102
RTVSPropertyOp20
 70
     1
102
RTVSPropertyOp21
 70
     1
102
RTVSPropertyOp22
 70
     1
102
RTVSPropertyOp23
 70
     1
102
RTVSPropertyOp24
 70
     1
102
RTVSPropertyOp25
 70
     1
102
RTVSPropertyOp26
 70
     1
102
RTVSPropertyOp27
 70
     1
102
RTVSPropertyOp28
 70
     1
102
RTVSPropertyOp29
 70
     1
102
RTVSPropertyOp30
 70
     1
102
RTVSPropertyOp31
 70
     1
102
RTVSPropertyOp32
 70
     1
  0
XRECORD
  5
E68
102
{ACAD_REACTORS
330
E67
102
}
330
E67
100
AcDbXrecord
280
     1
102
RTVSPropertyOp0
 70
     1
102
RTVSPropertyOp1
 70
     1
102
RTVSPropertyOp2
 70
     1
102
RTVSPropertyOp3
 70
     1
102
RTVSPropertyOp4
 70
     1
102
RTVSPropertyOp5
 70
     1
102
RTVSPropertyOp6
 70
     1
102
RTVSPropertyOp7
 70
     1
102
RTVSPropertyOp8
 70
     1
102
RTVSPropertyOp9
 70
     1
102
RTVSPropertyOp10
 70
     1
102
RTVSPropertyOp11
 70
     1
102
RTVSPropertyOp12
 70
     1
102
RTVSPropertyOp13
 70
     1
102
RTVSPropertyOp14
 70
     1
102
RTVSPropertyOp15
 70
     1
102
RTVSPropertyOp16
 70
     1
102
RTVSPropertyOp17
 70
     1
102
RTVSPropertyOp18
 70
     1
102
RTVSPropertyOp19
 70
     1
102
RTVSPropertyOp20
 70
     1
102
RTVSPropertyOp21
 70
     1
102
RTVSPropertyOp22
 70
     1
102
RTVSPropertyOp23
 70
     1
102
RTVSPropertyOp24
 70
     1
102
RTVSPropertyOp25
 70
     1
102
RTVSPropertyOp26
 70
     1
102
RTVSPropertyOp27
 70
     1
102
RTVSPropertyOp28
 70
     1
102
RTVSPropertyOp29
 70
     1
102
RTVSPropertyOp30
 70
     1
102
RTVSPropertyOp31
 70
     1
102
RTVSPropertyOp32
 70
     1
  0
XRECORD
  5
E66
102
{ACAD_REACTORS
330
E65
102
}
330
E65
100
AcDbXrecord
280
     1
102
RTVSPropertyOp0
 70
     1
102
RTVSPropertyOp1
 70
     1
102
RTVSPropertyOp2
 70
     1
102
RTVSPropertyOp3
 70
     1
102
RTVSPropertyOp4
 70
     1
102
RTVSPropertyOp5
 70
     1
102
RTVSPropertyOp6
 70
     1
102
RTVSPropertyOp7
 70
     1
102
RTVSPropertyOp8
 70
     1
102
RTVSPropertyOp9
 70
     1
102
RTVSPropertyOp10
 70
     1
102
RTVSPropertyOp11
 70
     1
102
RTVSPropertyOp12
 70
     1
102
RTVSPropertyOp13
 70
     1
102
RTVSPropertyOp14
 70
     1
102
RTVSPropertyOp15
 70
     1
102
RTVSPropertyOp16
 70
     1
102
RTVSPropertyOp17
 70
     1
102
RTVSPropertyOp18
 70
     1
102
RTVSPropertyOp19
 70
     1
102
RTVSPropertyOp20
 70
     1
102
RTVSPropertyOp21
 70
     1
102
RTVSPropertyOp22
 70
     1
102
RTVSPropertyOp23
 70
     1
102
RTVSPropertyOp24
 70
     1
102
RTVSPropertyOp25
 70
     1
102
RTVSPropertyOp26
 70
     1
102
RTVSPropertyOp27
 70
     1
102
RTVSPropertyOp28
 70
     1
102
RTVSPropertyOp29
 70
     1
102
RTVSPropertyOp30
 70
     1
102
RTVSPropertyOp31
 70
     1
102
RTVSPropertyOp32
 70
     1
  0
XRECORD
  5
E60
102
{ACAD_REACTORS
330
E5F
102
}
330
E5F
100
AcDbXrecord
280
     1
102
RTVSPropertyOp0
 70
     1
102
RTVSPropertyOp1
 70
     1
102
RTVSPropertyOp2
 70
     1
102
RTVSPropertyOp3
 70
     1
102
RTVSPropertyOp4
 70
     1
102
RTVSPropertyOp5
 70
     1
102
RTVSPropertyOp6
 70
     1
102
RTVSPropertyOp7
 70
     1
102
RTVSPropertyOp8
 70
     1
102
RTVSPropertyOp9
 70
     1
102
RTVSPropertyOp10
 70
     1
102
RTVSPropertyOp11
 70
     1
102
RTVSPropertyOp12
 70
     1
102
RTVSPropertyOp13
 70
     1
102
RTVSPropertyOp14
 70
     1
102
RTVSPropertyOp15
 70
     1
102
RTVSPropertyOp16
 70
     1
102
RTVSPropertyOp17
 70
     1
102
RTVSPropertyOp18
 70
     1
102
RTVSPropertyOp19
 70
     1
102
RTVSPropertyOp20
 70
     1
102
RTVSPropertyOp21
 70
     1
102
RTVSPropertyOp22
 70
     1
102
RTVSPropertyOp23
 70
     1
102
RTVSPropertyOp24
 70
     1
102
RTVSPropertyOp25
 70
     1
102
RTVSPropertyOp26
 70
     1
102
RTVSPropertyOp27
 70
     1
102
RTVSPropertyOp28
 70
     1
102
RTVSPropertyOp29
 70
     1
102
RTVSPropertyOp30
 70
     1
102
RTVSPropertyOp31
 70
     1
102
RTVSPropertyOp32
 70
     1
  0
XRECORD
  5
E62
102
{ACAD_REACTORS
330
E61
102
}
330
E61
100
AcDbXrecord
280
     1
102
RTVSPropertyOp0
 70
     1
102
RTVSPropertyOp1
 70
     1
102
RTVSPropertyOp2
 70
     1
102
RTVSPropertyOp3
 70
     1
102
RTVSPropertyOp4
 70
     1
102
RTVSPropertyOp5
 70
     1
102
RTVSPropertyOp6
 70
     1
102
RTVSPropertyOp7
 70
     1
102
RTVSPropertyOp8
 70
     1
102
RTVSPropertyOp9
 70
     1
102
RTVSPropertyOp10
 70
     1
102
RTVSPropertyOp11
 70
     1
102
RTVSPropertyOp12
 70
     1
102
RTVSPropertyOp13
 70
     1
102
RTVSPropertyOp14
 70
     1
102
RTVSPropertyOp15
 70
     1
102
RTVSPropertyOp16
 70
     1
102
RTVSPropertyOp17
 70
     1
102
RTVSPropertyOp18
 70
     1
102
RTVSPropertyOp19
 70
     1
102
RTVSPropertyOp20
 70
     1
102
RTVSPropertyOp21
 70
     1
102
RTVSPropertyOp22
 70
     1
102
RTVSPropertyOp23
 70
     1
102
RTVSPropertyOp24
 70
     1
102
RTVSPropertyOp25
 70
     1
102
RTVSPropertyOp26
 70
     1
102
RTVSPropertyOp27
 70
     1
102
RTVSPropertyOp28
 70
     1
102
RTVSPropertyOp29
 70
     1
102
RTVSPropertyOp30
 70
     1
102
RTVSPropertyOp31
 70
     1
102
RTVSPropertyOp32
 70
     1
  0
XRECORD
  5
E58
102
{ACAD_REACTORS
330
E57
102
}
330
E57
100
AcDbXrecord
280
     1
102
RTVSPropertyOp0
 70
     1
102
RTVSPropertyOp1
 70
     1
102
RTVSPropertyOp2
 70
     1
102
RTVSPropertyOp3
 70
     1
102
RTVSPropertyOp4
 70
     1
102
RTVSPropertyOp5
 70
     1
102
RTVSPropertyOp6
 70
     1
102
RTVSPropertyOp7
 70
     1
102
RTVSPropertyOp8
 70
     1
102
RTVSPropertyOp9
 70
     1
102
RTVSPropertyOp10
 70
     1
102
RTVSPropertyOp11
 70
     1
102
RTVSPropertyOp12
 70
     1
102
RTVSPropertyOp13
 70
     1
102
RTVSPropertyOp14
 70
     1
102
RTVSPropertyOp15
 70
     1
102
RTVSPropertyOp16
 70
     1
102
RTVSPropertyOp17
 70
     1
102
RTVSPropertyOp18
 70
     1
102
RTVSPropertyOp19
 70
     1
102
RTVSPropertyOp20
 70
     1
102
RTVSPropertyOp21
 70
     1
102
RTVSPropertyOp22
 70
     1
102
RTVSPropertyOp23
 70
     1
102
RTVSPropertyOp24
 70
     1
102
RTVSPropertyOp25
 70
     1
102
RTVSPropertyOp26
 70
     1
102
RTVSPropertyOp27
 70
     1
102
RTVSPropertyOp28
 70
     1
102
RTVSPropertyOp29
 70
     1
102
RTVSPropertyOp30
 70
     1
102
RTVSPropertyOp31
 70
     1
102
RTVSPropertyOp32
 70
     1
  0
XRECORD
  5
E4C
102
{ACAD_REACTORS
330
E4B
102
}
330
E4B
100
AcDbXrecord
280
     1
102
RTVSPropertyOp0
 70
     1
102
RTVSPropertyOp1
 70
     1
102
RTVSPropertyOp2
 70
     1
102
RTVSPropertyOp3
 70
     1
102
RTVSPropertyOp4
 70
     1
102
RTVSPropertyOp5
 70
     1
102
RTVSPropertyOp6
 70
     1
102
RTVSPropertyOp7
 70
     1
102
RTVSPropertyOp8
 70
     1
102
RTVSPropertyOp9
 70
     1
102
RTVSPropertyOp10
 70
     1
102
RTVSPropertyOp11
 70
     1
102
RTVSPropertyOp12
 70
     1
102
RTVSPropertyOp13
 70
     1
102
RTVSPropertyOp14
 70
     1
102
RTVSPropertyOp15
 70
     1
102
RTVSPropertyOp16
 70
     1
102
RTVSPropertyOp17
 70
     1
102
RTVSPropertyOp18
 70
     1
102
RTVSPropertyOp19
 70
     1
102
RTVSPropertyOp20
 70
     1
102
RTVSPropertyOp21
 70
     1
102
RTVSPropertyOp22
 70
     1
102
RTVSPropertyOp23
 70
     1
102
RTVSPropertyOp24
 70
     1
102
RTVSPropertyOp25
 70
     1
102
RTVSPropertyOp26
 70
     1
102
RTVSPropertyOp27
 70
     1
102
RTVSPropertyOp28
 70
     1
102
RTVSPropertyOp29
 70
     1
102
RTVSPropertyOp30
 70
     1
102
RTVSPropertyOp31
 70
     1
102
RTVSPropertyOp32
 70
     1
  0
XRECORD
  5
E64
102
{ACAD_REACTORS
330
E63
102
}
330
E63
100
AcDbXrecord
280
     1
102
RTVSPropertyOp0
 70
     1
102
RTVSPropertyOp1
 70
     1
102
RTVSPropertyOp2
 70
     1
102
RTVSPropertyOp3
 70
     1
102
RTVSPropertyOp4
 70
     1
102
RTVSPropertyOp5
 70
     1
102
RTVSPropertyOp6
 70
     1
102
RTVSPropertyOp7
 70
     1
102
RTVSPropertyOp8
 70
     1
102
RTVSPropertyOp9
 70
     1
102
RTVSPropertyOp10
 70
     1
102
RTVSPropertyOp11
 70
     1
102
RTVSPropertyOp12
 70
     1
102
RTVSPropertyOp13
 70
     1
102
RTVSPropertyOp14
 70
     1
102
RTVSPropertyOp15
 70
     1
102
RTVSPropertyOp16
 70
     1
102
RTVSPropertyOp17
 70
     1
102
RTVSPropertyOp18
 70
     1
102
RTVSPropertyOp19
 70
     1
102
RTVSPropertyOp20
 70
     1
102
RTVSPropertyOp21
 70
     1
102
RTVSPropertyOp22
 70
     1
102
RTVSPropertyOp23
 70
     1
102
RTVSPropertyOp24
 70
     1
102
RTVSPropertyOp25
 70
     1
102
RTVSPropertyOp26
 70
     1
102
RTVSPropertyOp27
 70
     1
102
RTVSPropertyOp28
 70
     1
102
RTVSPropertyOp29
 70
     1
102
RTVSPropertyOp30
 70
     1
102
RTVSPropertyOp31
 70
     1
102
RTVSPropertyOp32
 70
     1
  0
ENDSEC
  0
EOF
