  0
SECTION
  2
HEADER
  9
$ACADVER
  1
AC1015
  9
$ACADMAINTVER
 70
    18
  9
$DWGCODEPAGE
  3
ANSI_1252
  9
$INSBASE
 10
0.0
 20
0.0
 30
0.0
  9
$EXTMIN
 10
0.0
 20
0.0
 30
0.0
  9
$EXTMAX
 10
85.0
 20
55.0
 30
0.0
  9
$LIMMIN
 10
0.0
 20
0.0
  9
$LIMMAX
 10
85.0
 20
55.0
  9
$ORTHOMODE
 70
     0
  9
$REGENMODE
 70
     1
  9
$FILLMODE
 70
     1
  9
$QTEXTMODE
 70
     0
  9
$MIRRTEXT
 70
     0
  9
$LTSCALE
 40
5.0
  9
$ATTMODE
 70
     1
  9
$TEXTSIZE
 40
0.2
  9
$TRACEWID
 40
0.05
  9
$TEXTSTYLE
  7
Standard
  9
$CLAYER
  8
0
  9
$CELTYPE
  6
ByLayer
  9
$CECOLOR
 62
   256
  9
$CELTSCALE
 40
1.0
  9
$DISPSILH
 70
     0
  9
$DIMSCALE
 40
1.0
  9
$DIMASZ
 40
0.0708661417322835
  9
$DIMEXO
 40
0.0625
  9
$DIMDLI
 40
0.38
  9
$DIMRND
 40
0.0
  9
$DIMDLE
 40
0.0
  9
$DIMEXE
 40
0.18
  9
$DIMTP
 40
0.0
  9
$DIMTM
 40
0.0
  9
$DIMTXT
 40
0.0708661417322835
  9
$DIMCEN
 40
0.09
  9
$DIMTSZ
 40
0.0
  9
$DIMTOL
 70
     0
  9
$DIMLIM
 70
     0
  9
$DIMTIH
 70
     1
  9
$DIMTOH
 70
     1
  9
$DIMSE1
 70
     0
  9
$DIMSE2
 70
     0
  9
$DIMTAD
 70
     0
  9
$DIMZIN
 70
     0
  9
$DIMBLK
  1

  9
$DIMASO
 70
     1
  9
$DIMSHO
 70
     1
  9
$DIMPOST
  1

  9
$DIMAPOST
  1

  9
$DIMALT
 70
     0
  9
$DIMALTD
 70
     2
  9
$DIMALTF
 40
25.4
  9
$DIMLFAC
 40
1.0
  9
$DIMTOFL
 70
     0
  9
$DIMTVP
 40
0.0
  9
$DIMTIX
 70
     0
  9
$DIMSOXD
 70
     0
  9
$DIMSAH
 70
     0
  9
$DIMBLK1
  1

  9
$DIMBLK2
  1

  9
$DIMSTYLE
  2
STANDARD
  9
$DIMCLRD
 70
     0
  9
$DIMCLRE
 70
     0
  9
$DIMCLRT
 70
     0
  9
$DIMTFAC
 40
1.0
  9
$DIMGAP
 40
0.09
  9
$DIMJUST
 70
     0
  9
$DIMSD1
 70
     0
  9
$DIMSD2
 70
     0
  9
$DIMTOLJ
 70
     1
  9
$DIMTZIN
 70
     0
  9
$DIMALTZ
 70
     0
  9
$DIMALTTZ
 70
     0
  9
$DIMUPT
 70
     0
  9
$DIMDEC
 70
     4
  9
$DIMTDEC
 70
     4
  9
$DIMALTU
 70
     2
  9
$DIMALTTD
 70
     2
  9
$DIMTXSTY
  7
Standard
  9
$DIMAUNIT
 70
     0
  9
$DIMADEC
 70
     0
  9
$DIMALTRND
 40
0.0
  9
$DIMAZIN
 70
     0
  9
$DIMDSEP
 70
    46
  9
$DIMATFIT
 70
     3
  9
$DIMFRAC
 70
     0
  9
$DIMLDRBLK
  1

  9
$DIMLUNIT
 70
     2
  9
$DIMLWD
 70
    -2
  9
$DIMLWE
 70
    -2
  9
$DIMTMOVE
 70
     0
  9
$LUNITS
 70
     2
  9
$LUPREC
 70
     4
  9
$SKETCHINC
 40
0.1
  9
$FILLETRAD
 40
0.0
  9
$AUNITS
 70
     0
  9
$AUPREC
 70
     0
  9
$MENU
  1
.
  9
$ELEVATION
 40
0.0
  9
$PELEVATION
 40
0.0
  9
$THICKNESS
 40
0.0
  9
$LIMCHECK
 70
     0
  9
$CHAMFERA
 40
0.0
  9
$CHAMFERB
 40
0.0
  9
$CHAMFERC
 40
0.0
  9
$CHAMFERD
 40
0.0
  9
$SKPOLY
 70
     0
  9
$TDCREATE
 40
2455944.621186794
  9
$TDUCREATE
 40
2455944.871186794
  9
$TDUPDATE
 40
2455944.621186794
  9
$TDUUPDATE
 40
2455944.871186794
  9
$TDINDWG
 40
0.0000370370
  9
$TDUSRTIMER
 40
0.0000370370
  9
$USRTIMER
 70
     1
  9
$ANGBASE
 50
0.0
  9
$ANGDIR
 70
     0
  9
$PDMODE
 70
     0
  9
$PDSIZE
 40
0.0
  9
$PLINEWID
 40
0.0
  9
$SPLFRAME
 70
     0
  9
$SPLINETYPE
 70
     6
  9
$SPLINESEGS
 70
     8
  9
$HANDSEED
  5
E1A
  9
$SURFTAB1
 70
     6
  9
$SURFTAB2
 70
     6
  9
$SURFTYPE
 70
     6
  9
$SURFU
 70
     6
  9
$SURFV
 70
     6
  9
$UCSBASE
  2

  9
$UCSNAME
  2

  9
$UCSORG
 10
0.0
 20
0.0
 30
0.0
  9
$UCSXDIR
 10
1.0
 20
0.0
 30
0.0
  9
$UCSYDIR
 10
0.0
 20
1.0
 30
0.0
  9
$UCSORTHOREF
  2

  9
$UCSORTHOVIEW
 70
     0
  9
$UCSORGTOP
 10
0.0
 20
0.0
 30
0.0
  9
$UCSORGBOTTOM
 10
0.0
 20
0.0
 30
0.0
  9
$UCSORGLEFT
 10
0.0
 20
0.0
 30
0.0
  9
$UCSORGRIGHT
 10
0.0
 20
0.0
 30
0.0
  9
$UCSORGFRONT
 10
0.0
 20
0.0
 30
0.0
  9
$UCSORGBACK
 10
0.0
 20
0.0
 30
0.0
  9
$PUCSBASE
  2

  9
$PUCSNAME
  2

  9
$PUCSORG
 10
0.0
 20
0.0
 30
0.0
  9
$PUCSXDIR
 10
1.0
 20
0.0
 30
0.0
  9
$PUCSYDIR
 10
0.0
 20
1.0
 30
0.0
  9
$PUCSORTHOREF
  2

  9
$PUCSORTHOVIEW
 70
     0
  9
$PUCSORGTOP
 10
0.0
 20
0.0
 30
0.0
  9
$PUCSORGBOTTOM
 10
0.0
 20
0.0
 30
0.0
  9
$PUCSORGLEFT
 10
0.0
 20
0.0
 30
0.0
  9
$PUCSORGRIGHT
 10
0.0
 20
0.0
 30
0.0
  9
$PUCSORGFRONT
 10
0.0
 20
0.0
 30
0.0
  9
$PUCSORGBACK
 10
0.0
 20
0.0
 30
0.0
  9
$USERI1
 70
     0
  9
$USERI2
 70
     0
  9
$USERI3
 70
     0
  9
$USERI4
 70
     0
  9
$USERI5
 70
     0
  9
$USERR1
 40
0.0
  9
$USERR2
 40
0.0
  9
$USERR3
 40
0.0
  9
$USERR4
 40
0.0
  9
$USERR5
 40
0.0
  9
$WORLDVIEW
 70
     1
  9
$SHADEDGE
 70
     3
  9
$SHADEDIF
 70
    70
  9
$TILEMODE
 70
     1
  9
$MAXACTVP
 70
    64
  9
$PINSBASE
 10
0.0
 20
0.0
 30
0.0
  9
$PLIMCHECK
 70
     0
  9
$PEXTMIN
 10
0.0
 20
0.0
 30
0.0
  9
$PEXTMAX
 10
85.0
 20
55.0
 30
0.0
  9
$PLIMMIN
 10
0.0
 20
0.0
  9
$PLIMMAX
 10
85.0
 20
55.0
  9
$UNITMODE
 70
     0
  9
$VISRETAIN
 70
     1
  9
$PLINEGEN
 70
     0
  9
$PSLTSCALE
 70
     1
  9
$TREEDEPTH
 70
  3020
  9
$CMLSTYLE
  2
Standard
  9
$CMLJUST
 70
     0
  9
$CMLSCALE
 40
1.0
  9
$PROXYGRAPHICS
 70
     1
  9
$MEASUREMENT
 70
     0
  9
$CELWEIGHT
370
    -1
  9
$ENDCAPS
280
     0
  9
$JOINSTYLE
280
     0
  9
$LWDISPLAY
290
     0
  9
$INSUNITS
 70
     1
  9
$HYPERLINKBASE
  1

  9
$STYLESHEET
  1

  9
$XEDIT
290
     1
  9
$CEPSNTYPE
380
     0
  9
$PSTYLEMODE
290
     1
  9
$FINGERPRINTGUID
  2
{F2FBFE05-2CA3-4565-8809-3EC2A557F2E3}
  9
$VERSIONGUID
  2
{D8C4B41C-12FC-483A-A93D-E0441DFCFFDF}
  9
$EXTNAMES
290
     1
  9
$PSVPSCALE
 40
0.0
  9
$OLESTARTUP
290
     0
  0
ENDSEC
  0
SECTION
  2
CLASSES
  0
CLASS
  1
ACDBDICTIONARYWDFLT
  2
AcDbDictionaryWithDefault
  3
ObjectDBX Classes
 90
        0
280
     0
281
     0
  0
CLASS
  1
MATERIAL
  2
AcDbMaterial
  3
ObjectDBX Classes
 90
     1153
280
     0
281
     0
  0
CLASS
  1
VISUALSTYLE
  2
AcDbVisualStyle
  3
ObjectDBX Classes
 90
     4095
280
     0
281
     0
  0
CLASS
  1
SCALE
  2
AcDbScale
  3
ObjectDBX Classes
 90
     1153
280
     0
281
     0
  0
CLASS
  1
TABLESTYLE
  2
AcDbTableStyle
  3
ObjectDBX Classes
 90
     4095
280
     0
281
     0
  0
CLASS
  1
MLEADERSTYLE
  2
AcDbMLeaderStyle
  3
ACDB_MLEADERSTYLE_CLASS
 90
     4095
280
     0
281
     0
  0
CLASS
  1
DICTIONARYVAR
  2
AcDbDictionaryVar
  3
ObjectDBX Classes
 90
        0
280
     0
281
     0
  0
CLASS
  1
CELLSTYLEMAP
  2
AcDbCellStyleMap
  3
ObjectDBX Classes
 90
     1152
280
     0
281
     0
  0
CLASS
  1
ACDBPLACEHOLDER
  2
AcDbPlaceHolder
  3
ObjectDBX Classes
 90
        0
280
     0
281
     0
  0
CLASS
  1
LAYOUT
  2
AcDbLayout
  3
ObjectDBX Classes
 90
        0
280
     0
281
     0
  0
ENDSEC
  0
SECTION
  2
TABLES
  0
TABLE
  2
VPORT
  5
8
330
0
100
AcDbSymbolTable
 70
     1
  0
VPORT
  5
57
330
8
100
AcDbSymbolTableRecord
100
AcDbViewportTableRecord
  2
*Active
 70
     0
 10
0.0
 20
0.0
 11
1.0
 21
1.0
 12
42.5
 22
27.5
 13
0.0
 23
0.0
 14
1.0
 24
1.0
 15
0.0
 25
0.0
 16
0.0
 26
0.0
 36
1.0
 17
0.0
 27
0.0
 37
0.0
 40
55.0
 41
1.545454545454545
 42
50.0
 43
0.0
 44
0.0
 50
0.0
 51
0.0
 71
     0
 72
   100
 73
     1
 74
     1
 75
     0
 76
     0
 77
     0
 78
     0
281
     0
 65
     1
110
0.0
120
0.0
130
0.0
111
1.0
121
0.0
131
0.0
112
0.0
122
1.0
132
0.0
 79
     0
146
0.0
  0
ENDTAB
  0
TABLE
  2
LTYPE
  5
5
330
0
100
AcDbSymbolTable
 70
    59
  0
LTYPE
  5
5B
330
5
100
AcDbSymbolTableRecord
100
AcDbLinetypeTableRecord
  2
ByBlock
 70
     0
  3

 72
    65
 73
     0
 40
0.0
  0
LTYPE
  5
5C
330
5
100
AcDbSymbolTableRecord
100
AcDbLinetypeTableRecord
  2
ByLayer
 70
     0
  3

 72
    65
 73
     0
 40
0.0
  0
LTYPE
  5
5D
330
5
100
AcDbSymbolTableRecord
100
AcDbLinetypeTableRecord
  2
Continuous
 70
     0
  3
Solid line
 72
    65
 73
     0
 40
0.0
  0
LTYPE
  5
7C
330
5
100
AcDbSymbolTableRecord
100
AcDbLinetypeTableRecord
  2
BY_STANDARD
 70
     0
  3
By Standard ____________    ____    ____   _
 72
    65
 73
     6
 40
1.240299999999999
 49
0.6614
 74
     0
 49
-0.0827
 74
     0
 49
0.1654
 74
     0
 49
-0.0827
 74
     0
 49
0.1654
 74
     0
 49
-0.0827
 74
     0
  0
LTYPE
  5
7D
330
5
100
AcDbSymbolTableRecord
100
AcDbLinetypeTableRecord
  2
CHAIN
 70
     0
  3
Chain ____ _ ____ _ ____ _ ____ _ ____ _ ____
 72
    65
 73
     4
 40
0.7087
 49
0.4724000000000001
 74
     0
 49
-0.0591
 74
     0
 49
0.1181
 74
     0
 49
-0.0591
 74
     0
  0
LTYPE
  5
7E
330
5
100
AcDbSymbolTableRecord
100
AcDbLinetypeTableRecord
  2
DASH_DOT
 70
     0
  3
Dash dot __ . __ . __ . __ . __ . __ . __ . __
 72
    65
 73
     4
 40
0.37
 49
0.24
 74
     0
 49
-0.06
 74
     0
 49
0.01
 74
     0
 49
-0.06
 74
     0
  0
LTYPE
  5
7F
330
5
100
AcDbSymbolTableRecord
100
AcDbLinetypeTableRecord
  2
DOUBLE_DASH_DOT
 70
     0
  3
Double-Dash Dot __ __ . __ __ . __ __ . __ _
 72
    65
 73
     6
 40
0.4398
 49
0.24
 74
     0
 49
-0.06
 74
     0
 49
0.0098
 74
     0
 49
-0.06
 74
     0
 49
0.01
 74
     0
 49
-0.06
 74
     0
  0
LTYPE
  5
80
330
5
100
AcDbSymbolTableRecord
100
AcDbLinetypeTableRecord
  2
DASH_TRIPLE_DOT
 70
     0
  3
Dash Triple-Dot _ . . . _ . . . _ . . . _
 72
    65
 73
     8
 40
0.51
 49
0.24
 74
     0
 49
-0.06
 74
     0
 49
0.01
 74
     0
 49
-0.06
 74
     0
 49
0.01
 74
     0
 49
-0.06
 74
     0
 49
0.01
 74
     0
 49
-0.06
 74
     0
  0
LTYPE
  5
81
330
5
100
AcDbSymbolTableRecord
100
AcDbLinetypeTableRecord
  2
DASHED
 70
     0
  3
Dashed __ __ __ __ __ __ __ __ __ __ __ __ __ _
 72
    65
 73
     2
 40
0.2067
 49
0.1654
 74
     0
 49
-0.0413
 74
     0
  0
LTYPE
  5
82
330
5
100
AcDbSymbolTableRecord
100
AcDbLinetypeTableRecord
  2
DASH_DOUBLE_DOT
 70
     0
  3
Dash Double-Dot __ . . __ . . __ . . __ . .
 72
    65
 73
     6
 40
0.4398
 49
0.24
 74
     0
 49
-0.06
 74
     0
 49
0.0098
 74
     0
 49
-0.06
 74
     0
 49
0.01
 74
     0
 49
-0.06
 74
     0
  0
LTYPE
  5
83
330
5
100
AcDbSymbolTableRecord
100
AcDbLinetypeTableRecord
  2
DASHED_SPACE
 70
     0
  3
Dashed Space __ __ __ __ __ __ __ __ __ __ __ _
 72
    65
 73
     2
 40
0.2067
 49
0.1654
 74
     0
 49
-0.0413
 74
     0
  0
LTYPE
  5
84
330
5
100
AcDbSymbolTableRecord
100
AcDbLinetypeTableRecord
  2
DOTTED
 70
     0
  3
Dotted . . . . . . . . . . . . . . . . . . . . 
 72
    65
 73
     2
 40
0.0482
 49
0.0069
 74
     0
 49
-0.0413
 74
     0
  0
LTYPE
  5
85
330
5
100
AcDbSymbolTableRecord
100
AcDbLinetypeTableRecord
  2
DOUBLE_DASH_CHAIN
 70
     0
  3
Double-Dash Chain ______  __  __  ______  __  _
 72
    65
 73
     6
 40
1.240299999999999
 49
0.6614
 74
     0
 49
-0.0827
 74
     0
 49
0.1654
 74
     0
 49
-0.0827
 74
     0
 49
0.1654
 74
     0
 49
-0.0827
 74
     0
  0
LTYPE
  5
87
330
5
100
AcDbSymbolTableRecord
100
AcDbLinetypeTableRecord
  2
DOUBLE_DASH_DOUBLE_DOT
 70
     0
  3
Double-Dash Double-dot _ _ . . _ _ . . _
 72
    65
 73
     8
 40
0.7400000000000001
 49
0.24
 74
     0
 49
-0.06
 74
     0
 49
0.24
 74
     0
 49
-0.06
 74
     0
 49
0.01
 74
     0
 49
-0.06
 74
     0
 49
0.01
 74
     0
 49
-0.06
 74
     0
  0
LTYPE
  5
88
330
5
100
AcDbSymbolTableRecord
100
AcDbLinetypeTableRecord
  2
DOUBLE_DASH_TRIPLE_DOT
 70
     0
  3
Double Dash Triple Dot __ __ . . . __ __ . .
 72
    65
 73
    10
 40
0.8100000000000001
 49
0.24
 74
     0
 49
-0.06
 74
     0
 49
0.24
 74
     0
 49
-0.06
 74
     0
 49
0.01
 74
     0
 49
-0.06
 74
     0
 49
0.01
 74
     0
 49
-0.06
 74
     0
 49
0.01
 74
     0
 49
-0.06
 74
     0
  0
LTYPE
  5
89
330
5
100
AcDbSymbolTableRecord
100
AcDbLinetypeTableRecord
  2
LONG_DASH_DOTTED
 70
     0
  3
Long Dash Dotted ____ . ____ . ____ . ____ . _
 72
    65
 73
     4
 40
0.3543
 49
0.2362
 74
     0
 49
-0.0295
 74
     0
 49
0.0591
 74
     0
 49
-0.0295
 74
     0
  0
LTYPE
  5
8A
330
5
100
AcDbSymbolTableRecord
100
AcDbLinetypeTableRecord
  2
LONG_DASH_DOUBLE_DOT
 70
     0
  3
Long Dash Double Dot ________  .  .  ________  
 72
    65
 73
     6
 40
0.6799999999999999
 49
0.48
 74
     0
 49
-0.06
 74
     0
 49
0.01
 74
     0
 49
-0.06
 74
     0
 49
0.01
 74
     0
 49
-0.06
 74
     0
  0
LTYPE
  5
8B
330
5
100
AcDbSymbolTableRecord
100
AcDbLinetypeTableRecord
  2
LONG_DASH_TRIPLE_DOT
 70
     0
  3
Long Dash Triple Dot ____ ... ____ ... ____
 72
    65
 73
     8
 40
0.3689
 49
0.2362
 74
     0
 49
-0.0295
 74
     0
 49
0.0049
 74
     0
 49
-0.0295
 74
     0
 49
0.0049
 74
     0
 49
-0.0295
 74
     0
 49
0.0049
 74
     0
 49
-0.0295
 74
     0
  0
LTYPE
  5
8C
330
5
100
AcDbSymbolTableRecord
100
AcDbLinetypeTableRecord
  2
BORDER
 70
     0
  3
Border __ __ . __ __ . __ __ . __ __ . __ __ .
 72
    65
 73
     6
 40
1.75
 49
0.5
 74
     0
 49
-0.25
 74
     0
 49
0.5
 74
     0
 49
-0.25
 74
     0
 49
0.0
 74
     0
 49
-0.25
 74
     0
  0
LTYPE
  5
8D
330
5
100
AcDbSymbolTableRecord
100
AcDbLinetypeTableRecord
  2
BORDER2
 70
     0
  3
Border (.5x) __.__.__.__.__.__.__.__.__.__.__.
 72
    65
 73
     6
 40
0.875
 49
0.25
 74
     0
 49
-0.125
 74
     0
 49
0.25
 74
     0
 49
-0.125
 74
     0
 49
0.0
 74
     0
 49
-0.125
 74
     0
  0
LTYPE
  5
8E
330
5
100
AcDbSymbolTableRecord
100
AcDbLinetypeTableRecord
  2
BORDERX2
 70
     0
  3
Border (2x) ____  ____  .  ____  ____  .  ___
 72
    65
 73
     6
 40
3.5
 49
1.0
 74
     0
 49
-0.5
 74
     0
 49
1.0
 74
     0
 49
-0.5
 74
     0
 49
0.0
 74
     0
 49
-0.5
 74
     0
  0
LTYPE
  5
8F
330
5
100
AcDbSymbolTableRecord
100
AcDbLinetypeTableRecord
  2
CENTER
 70
     0
  3
Center ____ _ ____ _ ____ _ ____ _ ____ _ ____
 72
    65
 73
     4
 40
2.0
 49
1.25
 74
     0
 49
-0.25
 74
     0
 49
0.25
 74
     0
 49
-0.25
 74
     0
  0
LTYPE
  5
90
330
5
100
AcDbSymbolTableRecord
100
AcDbLinetypeTableRecord
  2
CENTER2
 70
     0
  3
Center (.5x) ___ _ ___ _ ___ _ ___ _ ___ _ ___
 72
    65
 73
     4
 40
1.125
 49
0.75
 74
     0
 49
-0.125
 74
     0
 49
0.125
 74
     0
 49
-0.125
 74
     0
  0
LTYPE
  5
91
330
5
100
AcDbSymbolTableRecord
100
AcDbLinetypeTableRecord
  2
CENTERX2
 70
     0
  3
Center (2x) ________  __  ________  __  _____
 72
    65
 73
     4
 40
4.0
 49
2.5
 74
     0
 49
-0.5
 74
     0
 49
0.5
 74
     0
 49
-0.5
 74
     0
  0
LTYPE
  5
92
330
5
100
AcDbSymbolTableRecord
100
AcDbLinetypeTableRecord
  2
DASHDOT2
 70
     0
  3
Dash dot (.5x) _._._._._._._._._._._._._._._.
 72
    65
 73
     4
 40
0.5
 49
0.25
 74
     0
 49
-0.125
 74
     0
 49
0.0
 74
     0
 49
-0.125
 74
     0
  0
LTYPE
  5
93
330
5
100
AcDbSymbolTableRecord
100
AcDbLinetypeTableRecord
  2
DASHDOTX2
 70
     0
  3
Dash dot (2x) ____  .  ____  .  ____  .  ___
 72
    65
 73
     4
 40
2.0
 49
1.0
 74
     0
 49
-0.5
 74
     0
 49
0.0
 74
     0
 49
-0.5
 74
     0
  0
LTYPE
  5
95
330
5
100
AcDbSymbolTableRecord
100
AcDbLinetypeTableRecord
  2
DASHED2
 70
     0
  3
Dashed (.5x) _ _ _ _ _ _ _ _ _ _ _ _ _ _ _ _ _
 72
    65
 73
     2
 40
0.375
 49
0.25
 74
     0
 49
-0.125
 74
     0
  0
LTYPE
  5
96
330
5
100
AcDbSymbolTableRecord
100
AcDbLinetypeTableRecord
  2
DASHEDX2
 70
     0
  3
Dashed (2x) ____  ____  ____  ____  ____  ___
 72
    65
 73
     2
 40
1.5
 49
1.0
 74
     0
 49
-0.5
 74
     0
  0
LTYPE
  5
97
330
5
100
AcDbSymbolTableRecord
100
AcDbLinetypeTableRecord
  2
DIVIDE
 70
     0
  3
Divide ____ . . ____ . . ____ . . ____ . . ____
 72
    65
 73
     6
 40
1.25
 49
0.5
 74
     0
 49
-0.25
 74
     0
 49
0.0
 74
     0
 49
-0.25
 74
     0
 49
0.0
 74
     0
 49
-0.25
 74
     0
  0
LTYPE
  5
98
330
5
100
AcDbSymbolTableRecord
100
AcDbLinetypeTableRecord
  2
DIVIDE2
 70
     0
  3
Divide (.5x) __..__..__..__..__..__..__..__.._
 72
    65
 73
     6
 40
0.625
 49
0.25
 74
     0
 49
-0.125
 74
     0
 49
0.0
 74
     0
 49
-0.125
 74
     0
 49
0.0
 74
     0
 49
-0.125
 74
     0
  0
LTYPE
  5
99
330
5
100
AcDbSymbolTableRecord
100
AcDbLinetypeTableRecord
  2
DIVIDEX2
 70
     0
  3
Divide (2x) ________  .  .  ________  .  .  _
 72
    65
 73
     6
 40
2.5
 49
1.0
 74
     0
 49
-0.5
 74
     0
 49
0.0
 74
     0
 49
-0.5
 74
     0
 49
0.0
 74
     0
 49
-0.5
 74
     0
  0
LTYPE
  5
9A
330
5
100
AcDbSymbolTableRecord
100
AcDbLinetypeTableRecord
  2
DOT
 70
     0
  3
Dot . . . . . . . . . . . . . . . . . . . . . .
 72
    65
 73
     2
 40
0.25
 49
0.0
 74
     0
 49
-0.25
 74
     0
  0
LTYPE
  5
9B
330
5
100
AcDbSymbolTableRecord
100
AcDbLinetypeTableRecord
  2
DOT2
 70
     0
  3
Dot (.5x) .....................................
 72
    65
 73
     2
 40
0.125
 49
0.0
 74
     0
 49
-0.125
 74
     0
  0
LTYPE
  5
9C
330
5
100
AcDbSymbolTableRecord
100
AcDbLinetypeTableRecord
  2
DOTX2
 70
     0
  3
Dot (2x) .  .  .  .  .  .  .  .  .  .  .  .  . 
 72
    65
 73
     2
 40
0.5
 49
0.0
 74
     0
 49
-0.5
 74
     0
  0
LTYPE
  5
9D
330
5
100
AcDbSymbolTableRecord
100
AcDbLinetypeTableRecord
  2
HIDDEN
 70
     0
  3
Hidden __ __ __ __ __ __ __ __ __ __ __ __ __ _
 72
    65
 73
     2
 40
0.375
 49
0.25
 74
     0
 49
-0.125
 74
     0
  0
LTYPE
  5
9E
330
5
100
AcDbSymbolTableRecord
100
AcDbLinetypeTableRecord
  2
HIDDEN2
 70
     0
  3
Hidden (.5x) _ _ _ _ _ _ _ _ _ _ _ _ _ _ _ _ _
 72
    65
 73
     2
 40
0.1875
 49
0.125
 74
     0
 49
-0.0625
 74
     0
  0
LTYPE
  5
9F
330
5
100
AcDbSymbolTableRecord
100
AcDbLinetypeTableRecord
  2
HIDDENX2
 70
     0
  3
Hidden (2x) ____ ____ ____ ____ ____ ____ ____
 72
    65
 73
     2
 40
0.75
 49
0.5
 74
     0
 49
-0.25
 74
     0
  0
LTYPE
  5
A0
330
5
100
AcDbSymbolTableRecord
100
AcDbLinetypeTableRecord
  2
PHANTOM
 70
     0
  3
Phantom ______  __  __  ______  __  __  ______
 72
    65
 73
     6
 40
2.5
 49
1.25
 74
     0
 49
-0.25
 74
     0
 49
0.25
 74
     0
 49
-0.25
 74
     0
 49
0.25
 74
     0
 49
-0.25
 74
     0
  0
LTYPE
  5
A1
330
5
100
AcDbSymbolTableRecord
100
AcDbLinetypeTableRecord
  2
PHANTOM2
 70
     0
  3
Phantom (.5x) ___ _ _ ___ _ _ ___ _ _ ___ _ _
 72
    65
 73
     6
 40
1.25
 49
0.625
 74
     0
 49
-0.125
 74
     0
 49
0.125
 74
     0
 49
-0.125
 74
     0
 49
0.125
 74
     0
 49
-0.125
 74
     0
  0
LTYPE
  5
A2
330
5
100
AcDbSymbolTableRecord
100
AcDbLinetypeTableRecord
  2
PHANTOMX2
 70
     0
  3
Phantom (2x) ____________    ____    ____   _
 72
    65
 73
     6
 40
5.0
 49
2.5
 74
     0
 49
-0.5
 74
     0
 49
0.5
 74
     0
 49
-0.5
 74
     0
 49
0.5
 74
     0
 49
-0.5
 74
     0
  0
LTYPE
  5
A3
330
5
100
AcDbSymbolTableRecord
100
AcDbLinetypeTableRecord
  2
ACAD_ISO02W100
 70
     0
  3
ISO dash __ __ __ __ __ __ __ __ __ __ __ __ __
 72
    65
 73
     2
 40
0.59
 49
0.47
 74
     0
 49
-0.12
 74
     0
  0
LTYPE
  5
A4
330
5
100
AcDbSymbolTableRecord
100
AcDbLinetypeTableRecord
  2
ACAD_ISO03W100
 70
     0
  3
ISO dash space __    __    __    __    __    __
 72
    65
 73
     2
 40
1.179999999999999
 49
0.47
 74
     0
 49
-0.71
 74
     0
  0
LTYPE
  5
A5
330
5
100
AcDbSymbolTableRecord
100
AcDbLinetypeTableRecord
  2
ACAD_ISO04W100
 70
     0
  3
ISO long-dash dot ____ . ____ . ____ . ____ . _
 72
    65
 73
     4
 40
1.179999999999999
 49
0.9399999999999998
 74
     0
 49
-0.12
 74
     0
 49
0.0
 74
     0
 49
-0.12
 74
     0
  0
LTYPE
  5
A6
330
5
100
AcDbSymbolTableRecord
100
AcDbLinetypeTableRecord
  2
ACAD_ISO05W100
 70
     0
  3
ISO long-dash double-dot ____ .. ____ .. ____ .
 72
    65
 73
     6
 40
1.299999999999999
 49
0.9399999999999998
 74
     0
 49
-0.12
 74
     0
 49
0.0
 74
     0
 49
-0.12
 74
     0
 49
0.0
 74
     0
 49
-0.12
 74
     0
  0
LTYPE
  5
A7
330
5
100
AcDbSymbolTableRecord
100
AcDbLinetypeTableRecord
  2
ACAD_ISO06W100
 70
     0
  3
ISO long-dash triple-dot ____ ... ____ ... ____
 72
    65
 73
     8
 40
1.419999999999999
 49
0.9399999999999998
 74
     0
 49
-0.12
 74
     0
 49
0.0
 74
     0
 49
-0.12
 74
     0
 49
0.0
 74
     0
 49
-0.12
 74
     0
 49
0.0
 74
     0
 49
-0.12
 74
     0
  0
LTYPE
  5
A8
330
5
100
AcDbSymbolTableRecord
100
AcDbLinetypeTableRecord
  2
ACAD_ISO07W100
 70
     0
  3
ISO dot . . . . . . . . . . . . . . . . . . . .
 72
    65
 73
     2
 40
0.12
 49
0.0
 74
     0
 49
-0.12
 74
     0
  0
LTYPE
  5
A9
330
5
100
AcDbSymbolTableRecord
100
AcDbLinetypeTableRecord
  2
ACAD_ISO08W100
 70
     0
  3
ISO long-dash short-dash ____ __ ____ __ ____ _
 72
    65
 73
     4
 40
0.95
 49
0.47
 74
     0
 49
-0.12
 74
     0
 49
0.24
 74
     0
 49
-0.12
 74
     0
  0
LTYPE
  5
AA
330
5
100
AcDbSymbolTableRecord
100
AcDbLinetypeTableRecord
  2
ACAD_ISO09W100
 70
     0
  3
ISO long-dash double-short-dash ____ __ __ ____
 72
    65
 73
     6
 40
1.31
 49
0.47
 74
     0
 49
-0.12
 74
     0
 49
0.24
 74
     0
 49
-0.12
 74
     0
 49
0.24
 74
     0
 49
-0.12
 74
     0
  0
LTYPE
  5
AB
330
5
100
AcDbSymbolTableRecord
100
AcDbLinetypeTableRecord
  2
ACAD_ISO10W100
 70
     0
  3
ISO dash dot __ . __ . __ . __ . __ . __ . __ .
 72
    65
 73
     4
 40
0.71
 49
0.47
 74
     0
 49
-0.12
 74
     0
 49
0.0
 74
     0
 49
-0.12
 74
     0
  0
LTYPE
  5
AC
330
5
100
AcDbSymbolTableRecord
100
AcDbLinetypeTableRecord
  2
ACAD_ISO11W100
 70
     0
  3
ISO double-dash dot __ __ . __ __ . __ __ . __ 
 72
    65
 73
     6
 40
1.299999999999999
 49
0.47
 74
     0
 49
-0.12
 74
     0
 49
0.47
 74
     0
 49
-0.12
 74
     0
 49
0.0
 74
     0
 49
-0.12
 74
     0
  0
LTYPE
  5
AD
330
5
100
AcDbSymbolTableRecord
100
AcDbLinetypeTableRecord
  2
ACAD_ISO12W100
 70
     0
  3
ISO dash double-dot __ . . __ . . __ . . __ . .
 72
    65
 73
     6
 40
0.8299999999999998
 49
0.47
 74
     0
 49
-0.12
 74
     0
 49
0.0
 74
     0
 49
-0.12
 74
     0
 49
0.0
 74
     0
 49
-0.12
 74
     0
  0
LTYPE
  5
AE
330
5
100
AcDbSymbolTableRecord
100
AcDbLinetypeTableRecord
  2
ACAD_ISO13W100
 70
     0
  3
ISO double-dash double-dot __ __ . . __ __ . . 
 72
    65
 73
     8
 40
1.419999999999999
 49
0.47
 74
     0
 49
-0.12
 74
     0
 49
0.47
 74
     0
 49
-0.12
 74
     0
 49
0.0
 74
     0
 49
-0.12
 74
     0
 49
0.0
 74
     0
 49
-0.12
 74
     0
  0
LTYPE
  5
AF
330
5
100
AcDbSymbolTableRecord
100
AcDbLinetypeTableRecord
  2
ACAD_ISO14W100
 70
     0
  3
ISO dash triple-dot __ . . . __ . . . __ . . . 
 72
    65
 73
     8
 40
0.95
 49
0.47
 74
     0
 49
-0.12
 74
     0
 49
0.0
 74
     0
 49
-0.12
 74
     0
 49
0.0
 74
     0
 49
-0.12
 74
     0
 49
0.0
 74
     0
 49
-0.12
 74
     0
  0
LTYPE
  5
B0
330
5
100
AcDbSymbolTableRecord
100
AcDbLinetypeTableRecord
  2
ACAD_ISO15W100
 70
     0
  3
ISO double-dash triple-dot __ __ . . . __ __ . 
 72
    65
 73
    10
 40
1.539999999999999
 49
0.47
 74
     0
 49
-0.12
 74
     0
 49
0.47
 74
     0
 49
-0.12
 74
     0
 49
0.0
 74
     0
 49
-0.12
 74
     0
 49
0.0
 74
     0
 49
-0.12
 74
     0
 49
0.0
 74
     0
 49
-0.12
 74
     0
  0
LTYPE
  5
B3
330
5
100
AcDbSymbolTableRecord
100
AcDbLinetypeTableRecord
  2
FENCELINE1
 70
     0
  3
Fenceline circle ----0-----0----0-----0----0---
 72
    65
 73
     4
 40
1.45
 49
0.25
 74
     0
 49
-0.1
 74
     4
 75
   133
340
B2
 46
0.1
 50
0.0
 44
-0.1
 45
0.0
 49
-0.1
 74
     0
 49
1.0
 74
     0
  0
LTYPE
  5
B4
330
5
100
AcDbSymbolTableRecord
100
AcDbLinetypeTableRecord
  2
FENCELINE2
 70
     0
  3
Fenceline square ----[]-----[]----[]-----[]----
 72
    65
 73
     4
 40
1.45
 49
0.25
 74
     0
 49
-0.1
 74
     4
 75
   132
340
B2
 46
0.1
 50
0.0
 44
-0.1
 45
0.0
 49
-0.1
 74
     0
 49
1.0
 74
     0
  0
LTYPE
  5
B5
330
5
100
AcDbSymbolTableRecord
100
AcDbLinetypeTableRecord
  2
TRACKS
 70
     0
  3
Tracks -|-|-|-|-|-|-|-|-|-|-|-|-|-|-|-|-|-|-|-|
 72
    65
 73
     2
 40
0.3
 49
0.15
 74
     4
 75
   130
340
B2
 46
0.25
 50
0.0
 44
0.0
 45
0.0
 49
0.15
 74
     0
  0
LTYPE
  5
B6
330
5
100
AcDbSymbolTableRecord
100
AcDbLinetypeTableRecord
  2
BATTING
 70
     0
  3
Batting SSSSSSSSSSSSSSSSSSSSSSSSSSSSSSSSSSSSSSS
 72
    65
 73
     4
 40
0.4001000000000001
 49
0.0001
 74
     0
 49
-0.1
 74
     4
 75
   134
340
B2
 46
0.1
 50
0.0
 44
-0.1
 45
0.0
 49
-0.2
 74
     4
 75
   134
340
B2
 46
0.1
 50
180.0
 44
0.1
 45
0.0
 49
-0.1
 74
     0
  0
LTYPE
  5
B7
330
5
100
AcDbSymbolTableRecord
100
AcDbLinetypeTableRecord
  2
HOT_WATER_SUPPLY
 70
     0
  3
Hot water supply ---- HW ---- HW ---- HW ----
 72
    65
 73
     3
 40
0.9
 49
0.5
 74
     0
 49
-0.2
 74
     2
 75
     0
340
55
 46
0.1
 50
0.0
 44
-0.1
 45
-0.05
  9
HW
 49
-0.2
 74
     0
  0
LTYPE
  5
B8
330
5
100
AcDbSymbolTableRecord
100
AcDbLinetypeTableRecord
  2
GAS_LINE
 70
     0
  3
Gas line ----GAS----GAS----GAS----GAS----GAS---
 72
    65
 73
     3
 40
0.95
 49
0.5
 74
     0
 49
-0.2
 74
     2
 75
     0
340
55
 46
0.1
 50
0.0
 44
-0.1
 45
-0.05
  9
GAS
 49
-0.25
 74
     0
  0
LTYPE
  5
B9
330
5
100
AcDbSymbolTableRecord
100
AcDbLinetypeTableRecord
  2
ZIGZAG
 70
     0
  3
Zig zag /\/\/\/\/\/\/\/\/\/\/\/\/\/\/\/\/\/\/\/
 72
    65
 73
     4
 40
0.8001000000000001
 49
0.0001
 74
     0
 49
-0.2
 74
     4
 75
   131
340
B2
 46
0.2
 50
0.0
 44
-0.2
 45
0.0
 49
-0.4
 74
     4
 75
   131
340
B2
 46
0.2
 50
180.0
 44
0.2
 45
0.0
 49
-0.2
 74
     0
  0
ENDTAB
  0
TABLE
  2
LAYER
  5
2
330
0
100
AcDbSymbolTable
 70
    27
  0
LAYER
  5
54
330
2
100
AcDbSymbolTableRecord
100
AcDbLayerTableRecord
  2
0
 70
     0
 62
     7
  6
Continuous
370
    18
390
F
  0
LAYER
  5
C3
330
2
100
AcDbSymbolTableRecord
100
AcDbLayerTableRecord
  2
Dimension (ANSI)
 70
     0
 62
     7
  6
Continuous
370
    13
390
F
  0
LAYER
  5
C5
330
2
100
AcDbSymbolTableRecord
100
AcDbLayerTableRecord
  2
Hidden (ANSI)
 70
     0
 62
     7
  6
DASHED
370
    15
390
F
  0
LAYER
  5
CC
330
2
100
AcDbSymbolTableRecord
100
AcDbLayerTableRecord
  2
Symbol (ANSI)
 70
     0
 62
     7
  6
Continuous
370
    18
390
F
  0
LAYER
  5
CF
330
2
100
AcDbSymbolTableRecord
100
AcDbLayerTableRecord
  2
Visible (ANSI)
 70
     0
 62
     7
  6
Continuous
370
    13
390
F
  0
LAYER
  5
D0
330
2
100
AcDbSymbolTableRecord
100
AcDbLayerTableRecord
  2
Visible Narrow (ANSI)
 70
     0
 62
     7
  6
Continuous
370
    18
390
F
  0
LAYER
  5
1F1
330
2
100
AcDbSymbolTableRecord
100
AcDbLayerTableRecord
  2
Defpoints
 70
     0
 62
     7
  6
Continuous
290
     0
370
    -3
390
F
  0
ENDTAB
  0
TABLE
  2
STYLE
  5
3
330
0
100
AcDbSymbolTable
 70
    17
  0
STYLE
  5
55
330
3
100
AcDbSymbolTableRecord
100
AcDbTextStyleTableRecord
  2
Standard
 70
     0
 40
0.0
 41
1.0
 50
0.0
 71
     0
 42
0.2
  3
txt
  4

  0
STYLE
  5
5A
330
3
100
AcDbSymbolTableRecord
100
AcDbTextStyleTableRecord
  2
Annotative
 70
     0
 40
0.0
 41
1.0
 50
0.0
 71
     0
 42
0.2
  3
txt
  4

1001
AcadAnnotative
1000
AnnotativeData
1002
{
1070
     1
1070
     1
1002
}
  0
STYLE
  5
B2
330
3
100
AcDbSymbolTableRecord
100
AcDbTextStyleTableRecord
  2

 70
     1
 40
0.0
 41
1.0
 50
0.0
 71
     0
 42
0.2
  3
ltypeshp.shx
  4

  0
STYLE
  5
D4
330
3
100
AcDbSymbolTableRecord
100
AcDbTextStyleTableRecord
  2
ITALICC_120
 70
     0
 40
0.0
 41
1.0
 50
0.0
 71
     0
 42
0.2
  3
italicc.shx
  4

  0
STYLE
  5
D5
330
3
100
AcDbSymbolTableRecord
100
AcDbTextStyleTableRecord
  2
Label Text (ANSI)
 70
     0
 40
0.0
 41
1.0
 50
0.0
 71
     0
 42
0.2
  3
RomanS.shx
  4

  0
STYLE
  5
D6
330
3
100
AcDbSymbolTableRecord
100
AcDbTextStyleTableRecord
  2
Note Text (ANSI)
 70
     0
 40
0.0
 41
1.0
 50
0.0
 71
     0
 42
0.2
  3
RomanS.shx
  4

  0
STYLE
  5
D7
330
3
100
AcDbSymbolTableRecord
100
AcDbTextStyleTableRecord
  2
ROMANS
 70
     0
 40
0.0
 41
1.0
 50
0.0
 71
     0
 42
0.2
  3
romans.shx
  4

  0
STYLE
  5
D8
330
3
100
AcDbSymbolTableRecord
100
AcDbTextStyleTableRecord
  2
SANSSERIF_114
 70
     0
 40
0.0
 41
1.0
 50
0.0
 71
     0
 42
0.2
  3
TAHOMA.TTF
  4

1001
ACAD
1000
Tahoma
1071
      256
  0
STYLE
  5
D9
330
3
100
AcDbSymbolTableRecord
100
AcDbTextStyleTableRecord
  2
SANSSERIF_117
 70
     0
 40
0.0
 41
1.0
 50
0.0
 71
     0
 42
0.2
  3
TAHOMA.TTF
  4

1001
ACAD
1000
Tahoma
1071
      256
  0
STYLE
  5
DA
330
3
100
AcDbSymbolTableRecord
100
AcDbTextStyleTableRecord
  2
STANDARDAM_ANSI
 70
     0
 40
0.0
 41
1.0
 50
0.0
 71
     0
 42
0.2
  3
txt.shx
  4

  0
STYLE
  5
DB
330
3
100
AcDbSymbolTableRecord
100
AcDbTextStyleTableRecord
  2
StandardAM_ANSI$0
 70
     0
 40
0.0
 41
1.0
 50
0.0
 71
     0
 42
0.2
  3
txt.shx
  4

  0
STYLE
  5
DC
330
3
100
AcDbSymbolTableRecord
100
AcDbTextStyleTableRecord
  2
STANDARDAM_ANSI$3
 70
     0
 40
0.0
 41
1.0
 50
0.0
 71
     0
 42
0.2
  3
txt.shx
  4

  0
STYLE
  5
DD
330
3
100
AcDbSymbolTableRecord
100
AcDbTextStyleTableRecord
  2
STANDARDAM_ANSI$4
 70
     0
 40
0.0
 41
1.0
 50
0.0
 71
     0
 42
0.2
  3
txt.shx
  4

  0
STYLE
  5
DE
330
3
100
AcDbSymbolTableRecord
100
AcDbTextStyleTableRecord
  2
STANDARDAM_ANSI$7
 70
     0
 40
0.0
 41
1.0
 50
0.0
 71
     0
 42
0.2
  3
txt.shx
  4

  0
STYLE
  5
DF
330
3
100
AcDbSymbolTableRecord
100
AcDbTextStyleTableRecord
  2
STANDARDAM_ANSI$SF
 70
     0
 40
0.0
 41
1.0
 50
0.0
 71
     0
 42
0.2
  3
txt.shx
  4

  0
STYLE
  5
E0
330
3
100
AcDbSymbolTableRecord
100
AcDbTextStyleTableRecord
  2
STANDARDAM_ANSI$SH
 70
     0
 40
0.0
 41
1.0
 50
0.0
 71
     0
 42
0.2
  3
txt.shx
  4

  0
STYLE
  5
E1
330
3
100
AcDbSymbolTableRecord
100
AcDbTextStyleTableRecord
  2
STANDARDSTANDARD
 70
     0
 40
0.0
 41
1.0
 50
0.0
 71
     0
 42
0.2
  3
txt.shx
  4

  0
ENDTAB
  0
TABLE
  2
VIEW
  5
6
330
0
100
AcDbSymbolTable
 70
     0
  0
ENDTAB
  0
TABLE
  2
UCS
  5
7
330
0
100
AcDbSymbolTable
 70
     0
  0
ENDTAB
  0
TABLE
  2
APPID
  5
9
330
0
100
AcDbSymbolTable
 70
     4
  0
APPID
  5
56
330
9
100
AcDbSymbolTableRecord
100
AcDbRegAppTableRecord
  2
ACAD
 70
     0
  0
APPID
  5
5E
330
9
100
AcDbSymbolTableRecord
100
AcDbRegAppTableRecord
  2
AcadAnnotative
 70
     0
  0
APPID
  5
45F
330
9
100
AcDbSymbolTableRecord
100
AcDbRegAppTableRecord
  2
ACAD_DSTYLE_DIMRADIAL_EXTENSION
 70
     0
  0
APPID
  5
E0F
330
9
100
AcDbSymbolTableRecord
100
AcDbRegAppTableRecord
  2
ACAD_MLEADERVER
 70
     0
  0
ENDTAB
  0
TABLE
  2
DIMSTYLE
  5
A
330
0
100
AcDbSymbolTable
 70
    27
100
AcDbDimStyleTable
 71
     2
340
F6
340
58
  0
DIMSTYLE
105
58
330
A
100
AcDbSymbolTableRecord
100
AcDbDimStyleTableRecord
  2
STANDARD
 70
     0
 41
0.1800000071525573
 42
0.0625
140
0.1800000071525574
144
1.0
147
0.0900000035762787
176
   256
177
   256
178
   256
274
     3
340
55
371
    -1
372
    -1
  0
DIMSTYLE
105
59
330
A
100
AcDbSymbolTableRecord
100
AcDbDimStyleTableRecord
  2
Annotative
 70
     0
340
55
1001
AcadAnnotative
1000
AnnotativeData
1002
{
1070
     1
1070
     1
1002
}
  0
DIMSTYLE
105
E2
330
A
100
AcDbSymbolTableRecord
100
AcDbDimStyleTableRecord
  2
AM_ANSI
 70
     0
  4
 mm
 40
5.0
 41
0.119999997317791
 42
0.05
 43
0.5
 44
0.1
 45
0.00000001
 78
     4
 79
     2
140
0.1200000047683716
146
0.7099999453624112
147
0.0599999986588955
176
   256
177
   256
178
     2
284
     4
340
DA
371
    -1
372
    -1
  0
DIMSTYLE
105
E3
330
A
100
AcDbSymbolTableRecord
100
AcDbDimStyleTableRecord
  2
AM_ANSI$7
 70
     0
  4
 mm
 40
5.0
 41
0.119999997317791
 42
0.05
 43
0.5
 44
0.1
 45
0.00000001
 78
     4
 79
     2
140
0.1200000047683716
146
0.7099999453624112
147
0.0599999986588955
176
   256
177
   256
178
     2
284
     4
340
DA
371
    -1
372
    -1
  0
DIMSTYLE
105
E4
330
A
100
AcDbSymbolTableRecord
100
AcDbDimStyleTableRecord
  2
AM_ANSI$0
 70
     0
  4
 mm
 40
5.0
 41
0.119999997317791
 42
0.05
 43
0.5
 44
0.1
 45
0.00000001
 78
     4
 79
     2
140
0.1200000047683716
146
0.7099999453624112
147
0.0599999986588955
176
   256
177
   256
178
     2
284
     4
340
DB
371
    -1
372
    -1
  0
DIMSTYLE
105
E5
330
A
100
AcDbSymbolTableRecord
100
AcDbDimStyleTableRecord
  2
AM_ANSI$0$7
 70
     0
  4
 mm
 40
5.0
 41
0.119999997317791
 42
0.05
 43
0.5
 44
0.1
 45
0.00000001
 78
     4
 79
     2
140
0.1200000047683716
146
0.7099999453624112
147
0.0599999986588955
176
   256
177
   256
178
     2
284
     4
340
DB
371
    -1
372
    -1
  0
DIMSTYLE
105
E6
330
A
100
AcDbSymbolTableRecord
100
AcDbDimStyleTableRecord
  2
AM_ANSI$3
 70
     0
  4
 mm
 40
5.0
 41
0.119999997317791
 42
0.05
 43
0.5
 44
0.1
 45
0.00000001
 78
     4
 79
     2
140
0.1200000047683716
146
0.7099999453624112
147
0.0599999986588955
176
   256
177
   256
178
     2
284
     4
340
DC
371
    -1
372
    -1
  0
DIMSTYLE
105
E7
330
A
100
AcDbSymbolTableRecord
100
AcDbDimStyleTableRecord
  2
AM_ANSI$3$7
 70
     0
  4
 mm
 40
5.0
 41
0.119999997317791
 42
0.05
 43
0.5
 44
0.1
 45
0.00000001
 78
     4
 79
     2
140
0.1200000047683716
146
0.7099999453624112
147
0.0599999986588955
176
   256
177
   256
178
     2
284
     4
340
DC
371
    -1
372
    -1
  0
DIMSTYLE
105
E8
330
A
100
AcDbSymbolTableRecord
100
AcDbDimStyleTableRecord
  2
AM_ANSI$4
 70
     0
  4
 mm
 40
5.0
 41
0.119999997317791
 42
0.05
 43
0.5
 44
0.1
 45
0.00000001
 78
     4
 79
     2
140
0.1200000047683716
146
0.7099999453624112
147
0.0599999986588955
176
   256
177
   256
178
     2
284
     4
340
DD
371
    -1
372
    -1
  0
DIMSTYLE
105
E9
330
A
100
AcDbSymbolTableRecord
100
AcDbDimStyleTableRecord
  2
AM_ANSI$4$7
 70
     0
  4
 mm
 40
5.0
 41
0.119999997317791
 42
0.05
 43
0.5
 44
0.1
 45
0.00000001
 78
     4
 79
     2
140
0.1200000047683716
146
0.7099999453624112
147
0.0599999986588955
176
   256
177
   256
178
     2
284
     4
340
DD
371
    -1
372
    -1
  0
DIMSTYLE
105
EA
330
A
100
AcDbSymbolTableRecord
100
AcDbDimStyleTableRecord
  2
AM_ANSI$SF
 70
     0
  4
 mm
 40
5.0
 41
0.119999997317791
 42
0.05
 43
0.5
 44
0.1
 45
0.00000001
 75
     1
 76
     1
 78
     4
 79
     2
140
0.1200000047683716
146
0.7099999453624112
147
0.0599999986588955
176
   256
177
   256
178
     2
284
     4
340
DF
371
    -1
372
    -1
  0
DIMSTYLE
105
EB
330
A
100
AcDbSymbolTableRecord
100
AcDbDimStyleTableRecord
  2
AM_ANSI$SF$7
 70
     0
  4
 mm
 40
5.0
 41
0.119999997317791
 42
0.05
 43
0.5
 44
0.1
 45
0.00000001
 75
     1
 76
     1
 78
     4
 79
     2
140
0.1200000047683716
146
0.7099999453624112
147
0.0599999986588955
176
   256
177
   256
178
     2
284
     4
340
DF
371
    -1
372
    -1
  0
DIMSTYLE
105
EC
330
A
100
AcDbSymbolTableRecord
100
AcDbDimStyleTableRecord
  2
AM_ANSI$SH
 70
     0
  4
 mm
 40
5.0
 41
0.119999997317791
 42
0.05
 43
0.5
 44
0.1
 45
0.00000001
 75
     1
 76
     1
 78
     4
 79
     2
140
0.1200000047683716
146
0.7099999453624112
147
0.0599999986588955
176
   256
177
   256
178
     2
284
     4
340
E0
371
    -1
372
    -1
  0
DIMSTYLE
105
ED
330
A
100
AcDbSymbolTableRecord
100
AcDbDimStyleTableRecord
  2
AM_ANSI$SH$7
 70
     0
  4
 mm
 40
5.0
 41
0.119999997317791
 42
0.05
 43
0.5
 44
0.1
 45
0.00000001
 75
     1
 76
     1
 78
     4
 79
     2
140
0.1200000047683716
146
0.7099999453624112
147
0.0599999986588955
176
   256
177
   256
178
     2
284
     4
340
E0
371
    -1
372
    -1
  0
DIMSTYLE
105
EE
330
A
100
AcDbSymbolTableRecord
100
AcDbDimStyleTableRecord
  2
Architectural (ANSI)
 70
     0
 40
5.0
 41
0.0984251946210861
 43
0.2362204724409449
 44
0.125
 45
0.00000001
 46
0.3937007874015748
 78
     3
 79
     3
140
0.1200000047683716
147
0.031496062992126
171
     1
176
   256
177
   256
178
   256
272
     2
274
     1
276
     2
277
     4
284
    12
285
     4
286
    12
340
D6
371
    -1
372
    -1
  0
DIMSTYLE
105
EF
330
A
100
AcDbSymbolTableRecord
100
AcDbDimStyleTableRecord
  2
Architectural (ANSI)$7
 70
     0
 40
5.0
 41
0.0984251946210861
 43
0.2362204724409449
 44
0.125
 45
0.00000001
 46
0.3937007874015748
 78
     3
 79
     3
140
0.1200000047683716
147
0.031496062992126
171
     1
176
   256
177
   256
178
   256
272
     2
274
     1
276
     2
277
     4
284
    12
285
     4
286
    12
340
D6
371
    -1
372
    -1
  0
DIMSTYLE
105
F0
330
A
100
AcDbSymbolTableRecord
100
AcDbDimStyleTableRecord
  2
Default - Fraction (ANSI)
 70
     0
 40
5.0
 41
0.0984251946210861
 43
0.2362204724409449
 44
0.125
 45
0.00000001
 46
0.3937007874015748
 79
     3
140
0.1200000047683716
147
0.031496062992126
171
     1
176
   256
177
   256
178
   256
272
     2
274
     1
276
     2
277
     5
284
    12
285
     4
286
    12
340
D6
371
    -1
372
    -1
  0
DIMSTYLE
105
F1
330
A
100
AcDbSymbolTableRecord
100
AcDbDimStyleTableRecord
  2
Default - Fraction (ANSI)$7
 70
     0
 40
5.0
 41
0.0984251946210861
 43
0.2362204724409449
 44
0.125
 45
0.00000001
 46
0.3937007874015748
 79
     3
140
0.1200000047683716
147
0.031496062992126
171
     1
176
   256
177
   256
178
   256
272
     2
274
     1
276
     2
277
     5
284
    12
285
     4
286
    12
340
D6
371
    -1
372
    -1
  0
DIMSTYLE
105
F2
330
A
100
AcDbSymbolTableRecord
100
AcDbDimStyleTableRecord
  2
Default - mm (ANSI)
 70
     0
 40
5.0
 41
0.0984251946210861
 42
0.063
 43
0.2362204724409449
 44
0.125
 45
0.00000001
 46
0.3937007874015748
 73
     0
 78
     4
 79
     1
140
0.1200000047683716
143
1.0
144
25.4
147
0.031496062992126
171
     1
176
   256
177
   256
178
   256
179
     1
271
     2
272
     2
274
     1
284
     4
285
     4
340
D6
371
    -1
372
    -1
  0
DIMSTYLE
105
F3
330
A
100
AcDbSymbolTableRecord
100
AcDbDimStyleTableRecord
  2
Default - mm (ANSI)$7
 70
     0
 40
5.0
 41
0.0984251946210861
 42
0.063
 43
0.2362204724409449
 44
0.125
 45
0.00000001
 46
0.3937007874015748
 73
     0
 78
     4
 79
     1
140
0.1200000047683716
143
1.0
144
25.4
147
0.031496062992126
171
     1
176
   256
177
   256
178
   256
179
     1
271
     2
272
     2
274
     1
284
     4
285
     4
340
D6
371
    -1
372
    -1
  0
DIMSTYLE
105
F4
330
A
100
AcDbSymbolTableRecord
100
AcDbDimStyleTableRecord
  2
Default - mm [in] (ANSI)
 70
     0
  4
 in
 40
5.0
 41
0.0984251946210861
 42
0.063
 43
0.25
 44
0.125
 45
0.00000001
 46
0.3937007874015748
 73
     0
 78
     4
 79
     1
140
0.1200000047683716
143
0.03937
144
25.4
147
0.031496062992126
170
     1
171
     3
176
   256
177
   256
178
   256
179
     1
271
     2
272
     2
274
     3
284
     4
285
     4
286
     4
340
D6
371
    -1
372
    -1
  0
DIMSTYLE
105
F5
330
A
100
AcDbSymbolTableRecord
100
AcDbDimStyleTableRecord
  2
Default - mm [in] (ANSI)$7
 70
     0
  4
 in
 40
5.0
 41
0.0984251946210861
 42
0.063
 43
0.25
 44
0.125
 45
0.00000001
 46
0.3937007874015748
 73
     0
 78
     4
 79
     1
140
0.1200000047683716
143
0.03937
144
25.4
147
0.031496062992126
170
     1
171
     3
176
   256
177
   256
178
   256
179
     1
271
     2
272
     2
274
     3
284
     4
285
     4
286
     4
340
D6
371
    -1
372
    -1
  0
DIMSTYLE
105
F6
102
{ACAD_REACTORS
330
1EF
330
2DC
330
3C6
330
480
330
539
330
637
330
721
330
81F
330
909
330
A09
330
AF3
330
BDD
330
CDF
102
}
330
A
100
AcDbSymbolTableRecord
100
AcDbDimStyleTableRecord
  2
Default (ANSI)
 70
     0
 40
5.0
 41
0.0984251946210861
 43
0.2362204724409449
 44
0.125
 45
0.00000001
 46
0.3937007874015748
 79
     1
140
0.1200000047683716
147
0.031496062992126
171
     1
176
   256
177
   256
178
   256
271
     3
272
     2
274
     1
284
     4
285
     4
340
D6
371
    -1
372
    -1
  0
DIMSTYLE
105
F7
330
A
100
AcDbSymbolTableRecord
100
AcDbDimStyleTableRecord
  2
Default (ANSI)$7
 70
     0
 40
5.0
 41
0.0984251946210861
 43
0.2362204724409449
 44
0.125
 45
0.00000001
 46
0.3937007874015748
 79
     1
140
0.1200000047683716
147
0.031496062992126
171
     1
176
   256
177
   256
178
   256
271
     3
272
     2
274
     1
284
     4
285
     4
340
D6
371
    -1
372
    -1
  0
DIMSTYLE
105
F8
330
A
100
AcDbSymbolTableRecord
100
AcDbDimStyleTableRecord
  2
Alternate (ANSI)
 70
     0
 40
5.0
 41
0.0979999974370003
340
55
342
F9
  0
DIMSTYLE
105
10B
330
A
100
AcDbSymbolTableRecord
100
AcDbDimStyleTableRecord
  2
Datum (ANSI)
 70
     0
 40
5.0
 41
0.0979999974370003
340
55
342
F9
  0
DIMSTYLE
105
11A
330
A
100
AcDbSymbolTableRecord
100
AcDbDimStyleTableRecord
  2
Large (ANSI)
 70
     0
 40
5.0
 41
0.1959999948740005
340
55
342
F9
  0
ENDTAB
  0
TABLE
  2
BLOCK_RECORD
  5
1
330
0
100
AcDbSymbolTable
 70
    17
  0
BLOCK_RECORD
  5
6C
330
1
100
AcDbSymbolTableRecord
100
AcDbBlockTableRecord
  2
*Model_Space
340
6F
  0
BLOCK_RECORD
  5
68
330
1
100
AcDbSymbolTableRecord
100
AcDbBlockTableRecord
  2
*Paper_Space
340
6B
  0
BLOCK_RECORD
  5
70
330
1
100
AcDbSymbolTableRecord
100
AcDbBlockTableRecord
  2
*Paper_Space0
340
73
  0
BLOCK_RECORD
  5
F9
330
1
100
AcDbSymbolTableRecord
100
AcDbBlockTableRecord
  2
_Closed
340
0
  0
BLOCK_RECORD
  5
100
330
1
100
AcDbSymbolTableRecord
100
AcDbBlockTableRecord
  2
DatumFilled45
340
0
  0
BLOCK_RECORD
  5
10C
330
1
100
AcDbSymbolTableRecord
100
AcDbBlockTableRecord
  2
Filled-1
340
0
  0
BLOCK_RECORD
  5
1F2
330
1
100
AcDbSymbolTableRecord
100
AcDbBlockTableRecord
  2
*D4
340
0
  0
BLOCK_RECORD
  5
2DD
330
1
100
AcDbSymbolTableRecord
100
AcDbBlockTableRecord
  2
*D5
340
0
  0
BLOCK_RECORD
  5
3C7
330
1
100
AcDbSymbolTableRecord
100
AcDbBlockTableRecord
  2
*D6
340
0
  0
BLOCK_RECORD
  5
481
330
1
100
AcDbSymbolTableRecord
100
AcDbBlockTableRecord
  2
*D7
340
0
  0
BLOCK_RECORD
  5
53A
330
1
100
AcDbSymbolTableRecord
100
AcDbBlockTableRecord
  2
*D8
340
0
  0
BLOCK_RECORD
  5
638
330
1
100
AcDbSymbolTableRecord
100
AcDbBlockTableRecord
  2
*D9
340
0
  0
BLOCK_RECORD
  5
722
330
1
100
AcDbSymbolTableRecord
100
AcDbBlockTableRecord
  2
*D10
340
0
  0
BLOCK_RECORD
  5
820
330
1
100
AcDbSymbolTableRecord
100
AcDbBlockTableRecord
  2
*D11
340
0
  0
BLOCK_RECORD
  5
90A
330
1
100
AcDbSymbolTableRecord
100
AcDbBlockTableRecord
  2
*D12
340
0
  0
BLOCK_RECORD
  5
A0A
330
1
100
AcDbSymbolTableRecord
100
AcDbBlockTableRecord
  2
*D13
340
0
  0
BLOCK_RECORD
  5
AF4
330
1
100
AcDbSymbolTableRecord
100
AcDbBlockTableRecord
  2
*D14
340
0
  0
BLOCK_RECORD
  5
BDE
330
1
100
AcDbSymbolTableRecord
100
AcDbBlockTableRecord
  2
*D15
340
0
  0
BLOCK_RECORD
  5
CE0
330
1
100
AcDbSymbolTableRecord
100
AcDbBlockTableRecord
  2
*D16
340
0
  0
ENDTAB
  0
ENDSEC
  0
SECTION
  2
BLOCKS
  0
BLOCK
  5
6D
330
6C
100
AcDbEntity
  8
0
100
AcDbBlockBegin
  2
*Model_Space
 70
     0
 10
0.0
 20
0.0
 30
0.0
  3
*Model_Space
  1

  0
ENDBLK
  5
6E
330
6C
100
AcDbEntity
  8
0
100
AcDbBlockEnd
  0
BLOCK
  5
69
330
68
100
AcDbEntity
 67
     1
  8
0
100
AcDbBlockBegin
  2
*Paper_Space
 70
     0
 10
0.0
 20
0.0
 30
0.0
  3
*Paper_Space
  1

  0
ENDBLK
  5
6A
330
68
100
AcDbEntity
 67
     1
  8
0
100
AcDbBlockEnd
  0
BLOCK
  5
71
330
70
100
AcDbEntity
 67
     1
  8
0
100
AcDbBlockBegin
  2
*Paper_Space0
 70
     0
 10
0.0
 20
0.0
 30
0.0
  3
*Paper_Space0
  1

  0
ENDBLK
  5
72
330
70
100
AcDbEntity
 67
     1
  8
0
100
AcDbBlockEnd
  0
BLOCK
  5
FE
330
F9
100
AcDbEntity
  8
0
100
AcDbBlockBegin
  2
_Closed
 70
     0
 10
0.0
 20
0.0
 30
0.0
  3
_Closed
  1

  0
LINE
  5
FA
330
F9
100
AcDbEntity
  8
0
  6
ByBlock
 62
     0
370
    -2
100
AcDbLine
 10
-1.0
 20
0.1666666666666666
 30
0.0
 11
0.0
 21
0.0
 31
0.0
  0
LINE
  5
FB
330
F9
100
AcDbEntity
  8
0
  6
ByBlock
 62
     0
370
    -2
100
AcDbLine
 10
0.0
 20
0.0
 30
0.0
 11
-1.0
 21
-0.1666666666666666
 31
0.0
  0
LINE
  5
FC
330
F9
100
AcDbEntity
  8
0
  6
ByBlock
 62
     0
370
    -2
100
AcDbLine
 10
-1.0
 20
0.1666666666666666
 30
0.0
 11
-1.0
 21
-0.1666666666666666
 31
0.0
  0
LINE
  5
FD
330
F9
100
AcDbEntity
  8
0
  6
ByBlock
 62
     0
370
    -2
100
AcDbLine
 10
0.0
 20
0.0
 30
0.0
 11
-1.0
 21
0.0
 31
0.0
  0
ENDBLK
  5
FF
330
F9
100
AcDbEntity
  8
0
100
AcDbBlockEnd
  0
BLOCK
  5
101
330
100
100
AcDbEntity
  8
0
100
AcDbBlockBegin
  2
DatumFilled45
 70
     0
 10
0.0
 20
0.0
 30
0.0
  3
DatumFilled45
  1

  0
POLYLINE
  5
103
330
100
100
AcDbEntity
  8
0
 62
     0
100
AcDb2dPolyline
 66
     1
 10
0.0
 20
0.0
 30
0.0
 70
   128
  0
VERTEX
  5
104
330
103
100
AcDbEntity
  8
0
 62
     0
100
AcDbVertex
100
AcDb2dVertex
 10
0.0
 20
0.9999999999999998
 30
0.0
  0
VERTEX
  5
105
330
103
100
AcDbEntity
  8
0
 62
     0
100
AcDbVertex
100
AcDb2dVertex
 10
0.0
 20
-0.9999999999999998
 30
0.0
  0
VERTEX
  5
107
330
103
100
AcDbEntity
  8
0
 62
     0
100
AcDbVertex
100
AcDb2dVertex
 10
-0.9999999999999998
 20
0.0
 30
0.0
  0
VERTEX
  5
108
330
103
100
AcDbEntity
  8
0
 62
     0
100
AcDbVertex
100
AcDb2dVertex
 10
0.0
 20
0.9999999999999998
 30
0.0
  0
SEQEND
  5
106
330
103
100
AcDbEntity
  8
0
 62
     0
  0
SOLID
  5
10A
330
100
100
AcDbEntity
  8
0
 62
     0
100
AcDbTrace
 10
0.0
 20
0.9999999999999998
 30
0.0
 11
0.0
 21
-0.9999999999999998
 31
0.0
 12
-0.9999999999999998
 22
0.0
 32
0.0
 13
0.0
 23
0.9999999999999998
 33
0.0
  0
ENDBLK
  5
102
330
100
100
AcDbEntity
  8
0
100
AcDbBlockEnd
  0
BLOCK
  5
10D
330
10C
100
AcDbEntity
  8
0
100
AcDbBlockBegin
  2
Filled-1
 70
     0
 10
0.0
 20
0.0
 30
0.0
  3
Filled-1
  1

  0
LINE
  5
10F
330
10C
100
AcDbEntity
  8
0
 62
     0
100
AcDbLine
 10
-0.9999999999999998
 20
0.0
 30
0.0
 11
0.0
 21
0.0
 31
0.0
  0
POLYLINE
  5
110
330
10C
100
AcDbEntity
  8
0
 62
     0
100
AcDb2dPolyline
 66
     1
 10
0.0
 20
0.0
 30
0.0
 70
   128
  0
VERTEX
  5
111
330
110
100
AcDbEntity
  8
0
 62
     0
100
AcDbVertex
100
AcDb2dVertex
 10
-0.9999999999999998
 20
-0.0994897959183674
 30
0.0
  0
VERTEX
  5
112
330
110
100
AcDbEntity
  8
0
 62
     0
100
AcDbVertex
100
AcDb2dVertex
 10
0.0
 20
0.0
 30
0.0
  0
VERTEX
  5
114
330
110
100
AcDbEntity
  8
0
 62
     0
100
AcDbVertex
100
AcDb2dVertex
 10
-0.9999999999999998
 20
0.0994897959183674
 30
0.0
  0
VERTEX
  5
115
330
110
100
AcDbEntity
  8
0
 62
     0
100
AcDbVertex
100
AcDb2dVertex
 10
-0.9999999999999998
 20
-0.0994897959183674
 30
0.0
  0
SEQEND
  5
113
330
110
100
AcDbEntity
  8
0
 62
     0
  0
SOLID
  5
116
330
10C
100
AcDbEntity
  8
0
 62
     0
100
AcDbTrace
 10
-0.9999999999999998
 20
-0.0994897959183674
 30
0.0
 11
0.0
 21
0.0
 31
0.0
 12
-0.9999999999999998
 22
0.0994897959183674
 32
0.0
 13
-0.9999999999999998
 23
-0.0994897959183674
 33
0.0
  0
LINE
  5
117
330
10C
100
AcDbEntity
  8
0
 62
     0
100
AcDbLine
 10
-0.9999999999999998
 20
-0.0994897959183674
 30
0.0
 11
0.0
 21
0.0
 31
0.0
  0
LINE
  5
118
330
10C
100
AcDbEntity
  8
0
 62
     0
100
AcDbLine
 10
0.0
 20
0.0
 30
0.0
 11
-0.9999999999999998
 21
0.0994897959183674
 31
0.0
  0
LINE
  5
119
330
10C
100
AcDbEntity
  8
0
 62
     0
100
AcDbLine
 10
-0.9999999999999998
 20
0.0994897959183674
 30
0.0
 11
-0.9999999999999998
 21
-0.0994897959183674
 31
0.0
  0
ENDBLK
  5
10E
330
10C
100
AcDbEntity
  8
0
100
AcDbBlockEnd
  0
BLOCK
  5
1F3
330
1F2
100
AcDbEntity
  8
0
100
AcDbBlockBegin
  2
*D4
 70
     1
 10
0.0
 20
0.0
 30
0.0
  3
*D4
  1

  0
LINE
  5
2D2
330
1F2
100
AcDbEntity
  8
Dimension (ANSI)
100
AcDbLine
 10
40.29599505898718
 20
43.84044344133457
 30
0.0
 11
40.29599505898718
 21
50.76711666968103
 31
0.0
  0
LINE
  5
2D3
330
1F2
100
AcDbEntity
  8
Dimension (ANSI)
100
AcDbLine
 10
12.09599505898717
 20
43.84044344133457
 30
0.0
 11
12.09599505898717
 21
50.76711666968103
 31
0.0
  0
LINE
  5
2D4
330
1F2
100
AcDbEntity
  8
Dimension (ANSI)
100
AcDbLine
 10
39.80386908588175
 20
50.14211666968103
 30
0.0
 11
27.83918971869907
 21
50.14211666968103
 31
0.0
  0
LINE
  5
2D5
330
1F2
100
AcDbEntity
  8
Dimension (ANSI)
100
AcDbLine
 10
12.5881210320926
 20
50.14211666968103
 30
0.0
 11
24.55280039927528
 21
50.14211666968103
 31
0.0
  0
SOLID
  5
2D6
330
1F2
100
AcDbEntity
  8
Dimension (ANSI)
100
AcDbTrace
 10
39.80386908588175
 20
50.22413766519861
 30
0.0
 11
39.80386908588175
 21
50.06009567416345
 31
0.0
 12
40.29599505898718
 22
50.14211666968103
 32
0.0
 13
40.29599505898718
 23
50.14211666968103
 33
0.0
  0
SOLID
  5
2D7
330
1F2
100
AcDbEntity
  8
Dimension (ANSI)
100
AcDbTrace
 10
12.5881210320926
 20
50.22413766519861
 30
0.0
 11
12.5881210320926
 21
50.06009567416345
 31
0.0
 12
12.09599505898717
 22
50.14211666968103
 32
0.0
 13
12.09599505898717
 23
50.14211666968103
 33
0.0
  0
MTEXT
  5
2D8
330
1F2
100
AcDbEntity
  8
Dimension (ANSI)
100
AcDbMText
 10
24.71028071423591
 20
50.44211668160196
 30
0.0
 40
0.6000000238418579
 41
0.0
 71
     1
 72
     1
  1
\A1;28.200
  7
Note Text (ANSI)
 73
     1
 44
1.0
1001
ACAD
1000
MTEXTBEGIN
1070
    73
1070
     1
1070
    44
1040
1.0
1070
    74
1070
     0
1000
MTEXTEND
  0
POINT
  5
2D9
330
1F2
100
AcDbEntity
  8
Defpoints
 62
     0
100
AcDbPoint
 10
40.29599505898718
 20
43.52794344133457
 30
0.0
  0
POINT
  5
2DA
330
1F2
100
AcDbEntity
  8
Defpoints
 62
     0
100
AcDbPoint
 10
12.09599505898717
 20
43.52794344133457
 30
0.0
  0
POINT
  5
2DB
330
1F2
100
AcDbEntity
  8
Defpoints
 62
     0
100
AcDbPoint
 10
12.09599505898717
 20
50.14211666968103
 30
0.0
  0
ENDBLK
  5
1F4
330
1F2
100
AcDbEntity
  8
0
100
AcDbBlockEnd
  0
BLOCK
  5
2DE
330
2DD
100
AcDbEntity
  8
0
100
AcDbBlockBegin
  2
*D5
 70
     1
 10
0.0
 20
0.0
 30
0.0
  3
*D5
  1

  0
LINE
  5
3BC
330
2DD
100
AcDbEntity
  8
Dimension (ANSI)
100
AcDbLine
 10
12.28349505898717
 20
44.02794344133456
 30
0.0
 11
3.080331889252552
 21
44.02794344133456
 31
0.0
  0
LINE
  5
3BD
330
2DD
100
AcDbEntity
  8
Dimension (ANSI)
100
AcDbLine
 10
12.28349505898718
 20
15.82794344133457
 30
0.0
 11
3.080331889252546
 21
15.82794344133457
 31
0.0
  0
LINE
  5
3BE
330
2DD
100
AcDbEntity
  8
Dimension (ANSI)
100
AcDbLine
 10
3.705331889252553
 20
43.53581746822913
 30
0.0
 11
3.70533188925255
 21
31.37638720951775
 31
0.0
  0
LINE
  5
3BF
330
2DD
100
AcDbEntity
  8
Dimension (ANSI)
100
AcDbLine
 10
3.705331889252546
 20
16.32006941444
 30
0.0
 11
3.705331889252549
 21
30.46142655575464
 31
0.0
  0
SOLID
  5
3C0
330
2DD
100
AcDbEntity
  8
Dimension (ANSI)
100
AcDbTrace
 10
3.623310893734981
 20
43.53581746822913
 30
0.0
 11
3.787352884770124
 21
43.53581746822913
 31
0.0
 12
3.705331889252553
 22
44.02794344133456
 32
0.0
 13
3.705331889252553
 23
44.02794344133456
 33
0.0
  0
SOLID
  5
3C1
330
2DD
100
AcDbEntity
  8
Dimension (ANSI)
100
AcDbTrace
 10
3.623310893734974
 20
16.32006941444
 30
0.0
 11
3.787352884770118
 21
16.32006941444
 31
0.0
 12
3.705331889252546
 22
15.82794344133457
 32
0.0
 13
3.705331889252546
 23
15.82794344133457
 33
0.0
  0
MTEXT
  5
3C2
330
2DD
100
AcDbEntity
  8
Dimension (ANSI)
100
AcDbMText
 10
2.219617544501278
 20
31.21890689455713
 30
0.0
 40
0.6000000238418579
 41
0.0
 71
     1
 72
     1
  1
\A1;28.200
  7
Note Text (ANSI)
 73
     1
 44
1.0
1001
ACAD
1000
MTEXTBEGIN
1070
    73
1070
     1
1070
    44
1040
1.0
1070
    74
1070
     0
1000
MTEXTEND
  0
POINT
  5
3C3
330
2DD
100
AcDbEntity
  8
Defpoints
 62
     0
100
AcDbPoint
 10
12.59599505898717
 20
44.02794344133456
 30
0.0
  0
POINT
  5
3C4
330
2DD
100
AcDbEntity
  8
Defpoints
 62
     0
100
AcDbPoint
 10
12.59599505898718
 20
15.82794344133457
 30
0.0
  0
POINT
  5
3C5
330
2DD
100
AcDbEntity
  8
Defpoints
 62
     0
100
AcDbPoint
 10
3.705331889252546
 20
15.82794344133457
 30
0.0
  0
ENDBLK
  5
2DF
330
2DD
100
AcDbEntity
  8
0
100
AcDbBlockEnd
  0
BLOCK
  5
3C8
330
3C7
100
AcDbEntity
  8
0
100
AcDbBlockBegin
  2
*D6
 70
     1
 10
0.0
 20
0.0
 30
0.0
  3
*D6
  1

  0
LINE
  5
478
330
3C7
100
AcDbEntity
  8
Dimension (ANSI)
100
AcDbLine
 10
15.53464168759977
 20
11.51269170517207
 30
0.0
 11
14.82370023103139
 21
11.51269170517207
 31
0.0
  0
LINE
  5
479
330
3C7
100
AcDbEntity
  8
Dimension (ANSI)
100
AcDbLine
 10
14.82370023103139
 20
11.51269170517207
 30
0.0
 11
12.92422984182353
 21
15.67285657388157
 31
0.0
  0
MTEXT
  5
47A
102
{ACAD_XDICTIONARY
360
E16
102
}
330
3C7
100
AcDbEntity
  8
Dimension (ANSI)
100
AcDbMText
 10
15.6921220025604
 20
11.99126315276021
 30
0.0
 40
0.6000000238418579
 41
0.0
 71
     1
 72
     1
  1
\A1;\U+22050.500{\PTYP.(6PL.)}
  7
Note Text (ANSI)
 73
     1
 44
1.0
1001
ACAD
1000
MTEXTBEGIN
1070
    73
1070
     1
1070
    44
1040
1.0
1070
    74
1070
     0
1000
MTEXTEND
  0
SOLID
  5
47B
330
3C7
100
AcDbEntity
  8
Dimension (ANSI)
100
AcDbTrace
 10
12.99884156400545
 20
15.70692319418268
 30
0.0
 11
12.8496181196416
 21
15.63878995358045
 31
0.0
 12
12.71983012001683
 22
16.12052690697312
 32
0.0
 13
12.71983012001683
 23
16.12052690697312
 33
0.0
  0
LINE
  5
47C
330
3C7
100
AcDbEntity
  8
Dimension (ANSI)
100
AcDbLine
 10
12.16599505898718
 20
16.34794344133457
 30
0.0
 11
13.06599505898718
 21
16.34794344133457
 31
0.0
  0
LINE
  5
47D
330
3C7
100
AcDbEntity
  8
Dimension (ANSI)
100
AcDbLine
 10
12.61599505898718
 20
15.89794344133457
 30
0.0
 11
12.61599505898718
 21
16.79794344133457
 31
0.0
  0
POINT
  5
47E
330
3C7
100
AcDbEntity
  8
Defpoints
 62
     0
100
AcDbPoint
 10
12.71983012001683
 20
16.12052690697312
 30
0.0
  0
POINT
  5
47F
330
3C7
100
AcDbEntity
  8
Defpoints
 62
     0
100
AcDbPoint
 10
12.51215999795753
 20
16.57535997569602
 30
0.0
  0
ENDBLK
  5
3C9
330
3C7
100
AcDbEntity
  8
0
100
AcDbBlockEnd
  0
BLOCK
  5
482
330
481
100
AcDbEntity
  8
0
100
AcDbBlockBegin
  2
*D7
 70
     1
 10
0.0
 20
0.0
 30
0.0
  3
*D7
  1

  0
LINE
  5
531
330
481
100
AcDbEntity
  8
Dimension (ANSI)
100
AcDbLine
 10
15.50839798691917
 20
14.45198626110914
 30
0.0
 11
14.79745653035081
 21
14.45198626110914
 31
0.0
  0
LINE
  5
532
330
481
100
AcDbEntity
  8
Dimension (ANSI)
100
AcDbLine
 10
14.79745653035081
 20
14.45198626110914
 30
0.0
 11
13.02844696835044
 21
16.59766869185883
 31
0.0
  0
MTEXT
  5
533
102
{ACAD_XDICTIONARY
360
E18
102
}
330
481
100
AcDbEntity
  8
Dimension (ANSI)
100
AcDbMText
 10
15.66587830187979
 20
14.93055770869729
 30
0.0
 40
0.6000000238418579
 41
0.0
 71
     1
 72
     1
  1
\A1;\U+22050.313{\PTYP.(4PL.)}
  7
Note Text (ANSI)
 73
     1
 44
1.0
1001
ACAD
1000
MTEXTBEGIN
1070
    73
1070
     1
1070
    44
1040
1.0
1070
    74
1070
     0
1000
MTEXTEND
  0
SOLID
  5
534
330
481
100
AcDbEntity
  8
Dimension (ANSI)
100
AcDbTrace
 10
13.09173283131629
 20
16.64984477118989
 30
0.0
 11
12.96516110538458
 21
16.54549261252778
 31
0.0
 12
12.71539049236412
 22
16.97738386965397
 32
0.0
 13
12.71539049236412
 23
16.97738386965397
 33
0.0
  0
LINE
  5
535
330
481
100
AcDbEntity
  8
Dimension (ANSI)
100
AcDbLine
 10
12.16599505898718
 20
17.09794344133457
 30
0.0
 11
13.06599505898718
 21
17.09794344133457
 31
0.0
  0
LINE
  5
536
330
481
100
AcDbEntity
  8
Dimension (ANSI)
100
AcDbLine
 10
12.61599505898718
 20
16.64794344133457
 30
0.0
 11
12.61599505898718
 21
17.54794344133457
 31
0.0
  0
POINT
  5
537
330
481
100
AcDbEntity
  8
Defpoints
 62
     0
100
AcDbPoint
 10
12.71539049236412
 20
16.97738386965397
 30
0.0
  0
POINT
  5
538
330
481
100
AcDbEntity
  8
Defpoints
 62
     0
100
AcDbPoint
 10
12.51659962561024
 20
17.21850301301517
 30
0.0
  0
ENDBLK
  5
483
330
481
100
AcDbEntity
  8
0
100
AcDbBlockEnd
  0
BLOCK
  5
53B
330
53A
100
AcDbEntity
  8
0
100
AcDbBlockBegin
  2
*D8
 70
     1
 10
0.0
 20
0.0
 30
0.0
  3
*D8
  1

  0
LINE
  5
62D
330
53A
100
AcDbEntity
  8
Dimension (ANSI)
100
AcDbLine
 10
53.57416614457462
 20
33.36934315401778
 30
0.0
 11
53.57416614457462
 21
16.05939268922649
 31
0.0
  0
LINE
  5
62E
330
53A
100
AcDbEntity
  8
Dimension (ANSI)
100
AcDbLine
 10
53.66791614457461
 20
33.36934315401778
 30
0.0
 11
53.66791614457461
 21
16.05939268922649
 31
0.0
  0
LINE
  5
62F
330
53A
100
AcDbEntity
  8
Dimension (ANSI)
100
AcDbLine
 10
54.16004211768004
 20
16.68439268922649
 30
0.0
 11
54.65216809078548
 21
16.68439268922649
 31
0.0
  0
LINE
  5
630
330
53A
100
AcDbEntity
  8
Dimension (ANSI)
100
AcDbLine
 10
53.08204017146919
 20
16.68439268922649
 30
0.0
 11
51.90307293396049
 21
16.68439268922649
 31
0.0
  0
SOLID
  5
631
330
53A
100
AcDbEntity
  8
Dimension (ANSI)
100
AcDbTrace
 10
54.16004211768004
 20
16.76641368474406
 30
0.0
 11
54.16004211768004
 21
16.60237169370892
 31
0.0
 12
53.66791614457461
 22
16.68439268922649
 32
0.0
 13
53.66791614457461
 23
16.68439268922649
 33
0.0
  0
SOLID
  5
632
330
53A
100
AcDbEntity
  8
Dimension (ANSI)
100
AcDbTrace
 10
53.08204017146919
 20
16.76641368474406
 30
0.0
 11
53.08204017146919
 21
16.60237169370892
 31
0.0
 12
53.57416614457462
 22
16.68439268922649
 32
0.0
 13
53.57416614457462
 23
16.68439268922649
 33
0.0
  0
MTEXT
  5
633
330
53A
100
AcDbEntity
  8
Dimension (ANSI)
100
AcDbMText
 10
48.11702104624195
 20
17.08439270512106
 30
0.0
 40
0.6000000238418579
 41
0.0
 71
     1
 72
     1
  1
\A1; 12 GA.\P304 SS
  7
Note Text (ANSI)
 73
     1
 44
1.0
1001
ACAD
1000
MTEXTBEGIN
1070
    73
1070
     1
1070
    44
1040
1.0
1070
    74
1070
     0
1000
MTEXTEND
  0
POINT
  5
634
330
53A
100
AcDbEntity
  8
Defpoints
 62
     0
100
AcDbPoint
 10
53.57416614457462
 20
33.68184315401778
 30
0.0
  0
POINT
  5
635
330
53A
100
AcDbEntity
  8
Defpoints
 62
     0
100
AcDbPoint
 10
53.66791614457461
 20
33.68184315401778
 30
0.0
  0
POINT
  5
636
330
53A
100
AcDbEntity
  8
Defpoints
 62
     0
100
AcDbPoint
 10
53.66791614457461
 20
16.68439268922649
 30
0.0
  0
ENDBLK
  5
53C
330
53A
100
AcDbEntity
  8
0
100
AcDbBlockEnd
  0
BLOCK
  5
639
330
638
100
AcDbEntity
  8
0
100
AcDbBlockBegin
  2
*D9
 70
     1
 10
0.0
 20
0.0
 30
0.0
  3
*D9
  1

  0
LINE
  5
717
330
638
100
AcDbEntity
  8
Dimension (ANSI)
100
AcDbLine
 10
12.30349505898718
 20
43.50794344133457
 30
0.0
 11
6.396391523399384
 21
43.50794344133457
 31
0.0
  0
LINE
  5
718
330
638
100
AcDbEntity
  8
Dimension (ANSI)
100
AcDbLine
 10
12.30349505898718
 20
16.34794344133457
 30
0.0
 11
6.396391523399378
 21
16.34794344133457
 31
0.0
  0
LINE
  5
719
330
638
100
AcDbEntity
  8
Dimension (ANSI)
100
AcDbLine
 10
7.021391523399384
 20
43.01581746822914
 30
0.0
 11
7.021391523399381
 21
28.68704401416167
 31
0.0
  0
LINE
  5
71A
330
638
100
AcDbEntity
  8
Dimension (ANSI)
100
AcDbLine
 10
7.021391523399378
 20
16.84006941444
 30
0.0
 11
7.021391523399381
 21
27.77208336039855
 31
0.0
  0
SOLID
  5
71B
330
638
100
AcDbEntity
  8
Dimension (ANSI)
100
AcDbTrace
 10
6.939370527881813
 20
43.01581746822914
 30
0.0
 11
7.103412518916956
 21
43.01581746822914
 31
0.0
 12
7.021391523399384
 22
43.50794344133457
 32
0.0
 13
7.021391523399384
 23
43.50794344133457
 33
0.0
  0
SOLID
  5
71C
330
638
100
AcDbEntity
  8
Dimension (ANSI)
100
AcDbTrace
 10
6.939370527881806
 20
16.84006941444
 30
0.0
 11
7.103412518916949
 21
16.84006941444
 31
0.0
 12
7.021391523399378
 22
16.34794344133457
 32
0.0
 13
7.021391523399378
 23
16.34794344133457
 33
0.0
  0
MTEXT
  5
71D
330
638
100
AcDbEntity
  8
Dimension (ANSI)
100
AcDbMText
 10
5.535677178648109
 20
28.52956369920104
 30
0.0
 40
0.6000000238418579
 41
0.0
 71
     1
 72
     1
  1
\A1;27.160
  7
Note Text (ANSI)
 73
     1
 44
1.0
1001
ACAD
1000
MTEXTBEGIN
1070
    73
1070
     1
1070
    44
1040
1.0
1070
    74
1070
     0
1000
MTEXTEND
  0
POINT
  5
71E
330
638
100
AcDbEntity
  8
Defpoints
 62
     0
100
AcDbPoint
 10
12.61599505898718
 20
43.50794344133457
 30
0.0
  0
POINT
  5
71F
330
638
100
AcDbEntity
  8
Defpoints
 62
     0
100
AcDbPoint
 10
12.61599505898718
 20
16.34794344133457
 30
0.0
  0
POINT
  5
720
330
638
100
AcDbEntity
  8
Defpoints
 62
     0
100
AcDbPoint
 10
7.021391523399378
 20
16.34794344133457
 30
0.0
  0
ENDBLK
  5
63A
330
638
100
AcDbEntity
  8
0
100
AcDbBlockEnd
  0
BLOCK
  5
723
330
722
100
AcDbEntity
  8
0
100
AcDbBlockBegin
  2
*D10
 70
     1
 10
0.0
 20
0.0
 30
0.0
  3
*D10
  1

  0
LINE
  5
814
330
722
100
AcDbEntity
  8
Dimension (ANSI)
100
AcDbLine
 10
12.30349505898718
 20
17.09794344133457
 30
0.0
 11
7.570597902802562
 21
17.09794344133457
 31
0.0
  0
LINE
  5
815
330
722
100
AcDbEntity
  8
Dimension (ANSI)
100
AcDbLine
 10
12.30349505898718
 20
16.34794344133457
 30
0.0
 11
7.570597902802562
 21
16.34794344133457
 31
0.0
  0
LINE
  5
816
330
722
100
AcDbEntity
  8
Dimension (ANSI)
100
AcDbLine
 10
8.195597902802562
 20
15.85581746822914
 30
0.0
 11
8.195597902802562
 21
15.36369149512371
 31
0.0
  0
LINE
  5
817
330
722
100
AcDbEntity
  8
Dimension (ANSI)
100
AcDbLine
 10
8.195597902802562
 20
17.59006941444
 30
0.0
 11
8.195597902802562
 21
18.94603898056105
 31
0.0
  0
LINE
  5
818
330
722
100
AcDbEntity
  8
Dimension (ANSI)
100
AcDbLine
 10
8.195597902802562
 20
18.94603898056105
 30
0.0
 11
8.687723875907993
 21
18.94603898056105
 31
0.0
  0
SOLID
  5
819
330
722
100
AcDbEntity
  8
Dimension (ANSI)
100
AcDbTrace
 10
8.11357690728499
 20
15.85581746822914
 30
0.0
 11
8.277618898320135
 21
15.85581746822914
 31
0.0
 12
8.195597902802562
 22
16.34794344133457
 32
0.0
 13
8.195597902802562
 23
16.34794344133457
 33
0.0
  0
SOLID
  5
81A
330
722
100
AcDbEntity
  8
Dimension (ANSI)
100
AcDbTrace
 10
8.11357690728499
 20
17.59006941444
 30
0.0
 11
8.277618898320135
 21
17.59006941444
 31
0.0
 12
8.195597902802562
 22
17.09794344133457
 32
0.0
 13
8.195597902802562
 23
17.09794344133457
 33
0.0
  0
MTEXT
  5
81B
330
722
100
AcDbEntity
  8
Dimension (ANSI)
100
AcDbMText
 10
8.845204190868621
 20
19.24603899248198
 30
0.0
 40
0.6000000238418579
 41
0.0
 71
     1
 72
     1
  1
\A1;0.750
  7
Note Text (ANSI)
 73
     1
 44
1.0
1001
ACAD
1000
MTEXTBEGIN
1070
    73
1070
     1
1070
    44
1040
1.0
1070
    74
1070
     0
1000
MTEXTEND
  0
POINT
  5
81C
330
722
100
AcDbEntity
  8
Defpoints
 62
     0
100
AcDbPoint
 10
12.61599505898718
 20
17.09794344133457
 30
0.0
  0
POINT
  5
81D
330
722
100
AcDbEntity
  8
Defpoints
 62
     0
100
AcDbPoint
 10
12.61599505898718
 20
16.34794344133457
 30
0.0
  0
POINT
  5
81E
330
722
100
AcDbEntity
  8
Defpoints
 62
     0
100
AcDbPoint
 10
8.195597902802562
 20
16.34794344133457
 30
0.0
  0
ENDBLK
  5
724
330
722
100
AcDbEntity
  8
0
100
AcDbBlockEnd
  0
BLOCK
  5
821
330
820
100
AcDbEntity
  8
0
100
AcDbBlockBegin
  2
*D11
 70
     1
 10
0.0
 20
0.0
 30
0.0
  3
*D11
  1

  0
LINE
  5
8FF
330
820
100
AcDbEntity
  8
Dimension (ANSI)
100
AcDbLine
 10
39.77599505898718
 20
43.82044344133457
 30
0.0
 11
39.77599505898718
 21
48.70550858317045
 31
0.0
  0
LINE
  5
900
330
820
100
AcDbEntity
  8
Dimension (ANSI)
100
AcDbLine
 10
12.61599505898718
 20
43.82044344133457
 30
0.0
 11
12.61599505898718
 21
48.70550858317045
 31
0.0
  0
LINE
  5
901
330
820
100
AcDbEntity
  8
Dimension (ANSI)
100
AcDbLine
 10
39.28386908588175
 20
48.08050858317045
 30
0.0
 11
27.83918971869908
 21
48.08050858317045
 31
0.0
  0
LINE
  5
902
330
820
100
AcDbEntity
  8
Dimension (ANSI)
100
AcDbLine
 10
13.10812103209261
 20
48.08050858317045
 30
0.0
 11
24.55280039927528
 21
48.08050858317045
 31
0.0
  0
SOLID
  5
903
330
820
100
AcDbEntity
  8
Dimension (ANSI)
100
AcDbTrace
 10
39.28386908588175
 20
48.16252957868802
 30
0.0
 11
39.28386908588175
 21
47.99848758765287
 31
0.0
 12
39.77599505898718
 22
48.08050858317045
 32
0.0
 13
39.77599505898718
 23
48.08050858317045
 33
0.0
  0
SOLID
  5
904
330
820
100
AcDbEntity
  8
Dimension (ANSI)
100
AcDbTrace
 10
13.10812103209261
 20
48.16252957868802
 30
0.0
 11
13.10812103209261
 21
47.99848758765287
 31
0.0
 12
12.61599505898718
 22
48.08050858317045
 32
0.0
 13
12.61599505898718
 23
48.08050858317045
 33
0.0
  0
MTEXT
  5
905
330
820
100
AcDbEntity
  8
Dimension (ANSI)
100
AcDbMText
 10
24.71028071423592
 20
48.38050859509138
 30
0.0
 40
0.6000000238418579
 41
0.0
 71
     1
 72
     1
  1
\A1;27.160
  7
Note Text (ANSI)
 73
     1
 44
1.0
1001
ACAD
1000
MTEXTBEGIN
1070
    73
1070
     1
1070
    44
1040
1.0
1070
    74
1070
     0
1000
MTEXTEND
  0
POINT
  5
906
330
820
100
AcDbEntity
  8
Defpoints
 62
     0
100
AcDbPoint
 10
39.77599505898718
 20
43.50794344133457
 30
0.0
  0
POINT
  5
907
330
820
100
AcDbEntity
  8
Defpoints
 62
     0
100
AcDbPoint
 10
12.61599505898718
 20
43.50794344133457
 30
0.0
  0
POINT
  5
908
330
820
100
AcDbEntity
  8
Defpoints
 62
     0
100
AcDbPoint
 10
12.61599505898718
 20
48.08050858317045
 30
0.0
  0
ENDBLK
  5
822
330
820
100
AcDbEntity
  8
0
100
AcDbBlockEnd
  0
BLOCK
  5
90B
330
90A
100
AcDbEntity
  8
0
100
AcDbBlockBegin
  2
*D12
 70
     1
 10
0.0
 20
0.0
 30
0.0
  3
*D12
  1

  0
LINE
  5
9FE
330
90A
100
AcDbEntity
  8
Dimension (ANSI)
100
AcDbLine
 10
40.60849505898718
 20
16.32794344133457
 30
0.0
 11
41.16016313920416
 21
16.32794344133457
 31
0.0
  0
LINE
  5
9FF
330
90A
100
AcDbEntity
  8
Dimension (ANSI)
100
AcDbLine
 10
40.10849505898717
 20
15.82794344133457
 30
0.0
 11
41.16016313920415
 21
15.82794344133457
 31
0.0
  0
LINE
  5
A00
330
90A
100
AcDbEntity
  8
Dimension (ANSI)
100
AcDbLine
 10
40.53516313920415
 20
15.33581746822914
 30
0.0
 11
40.53516313920415
 21
14.8436914951237
 31
0.0
  0
LINE
  5
A01
330
90A
100
AcDbEntity
  8
Dimension (ANSI)
100
AcDbLine
 10
40.53516313920416
 20
16.82006941444
 30
0.0
 11
40.53516313920416
 21
17.75329312590421
 31
0.0
  0
LINE
  5
A02
330
90A
100
AcDbEntity
  8
Dimension (ANSI)
100
AcDbLine
 10
40.53516313920416
 20
17.75329312590421
 30
0.0
 11
41.02728911230959
 21
17.75329312590421
 31
0.0
  0
SOLID
  5
A03
330
90A
100
AcDbEntity
  8
Dimension (ANSI)
100
AcDbTrace
 10
40.45314214368658
 20
15.33581746822914
 30
0.0
 11
40.61718413472172
 21
15.33581746822914
 31
0.0
 12
40.53516313920415
 22
15.82794344133457
 32
0.0
 13
40.53516313920415
 23
15.82794344133457
 33
0.0
  0
SOLID
  5
A04
330
90A
100
AcDbEntity
  8
Dimension (ANSI)
100
AcDbTrace
 10
40.45314214368658
 20
16.82006941444
 30
0.0
 11
40.61718413472173
 21
16.82006941444
 31
0.0
 12
40.53516313920416
 22
16.32794344133457
 32
0.0
 13
40.53516313920416
 23
16.32794344133457
 33
0.0
  0
MTEXT
  5
A05
330
90A
100
AcDbEntity
  8
Dimension (ANSI)
100
AcDbMText
 10
41.18476942727021
 20
18.05329313782515
 30
0.0
 40
0.6000000238418579
 41
0.0
 71
     1
 72
     1
  1
\A1;0.500
  7
Note Text (ANSI)
 73
     1
 44
1.0
1001
ACAD
1000
MTEXTBEGIN
1070
    73
1070
     1
1070
    44
1040
1.0
1070
    74
1070
     0
1000
MTEXTEND
  0
POINT
  5
A06
330
90A
100
AcDbEntity
  8
Defpoints
 62
     0
100
AcDbPoint
 10
40.29599505898718
 20
16.32794344133457
 30
0.0
  0
POINT
  5
A07
330
90A
100
AcDbEntity
  8
Defpoints
 62
     0
100
AcDbPoint
 10
39.79599505898718
 20
15.82794344133457
 30
0.0
  0
POINT
  5
A08
330
90A
100
AcDbEntity
  8
Defpoints
 62
     0
100
AcDbPoint
 10
40.53516313920415
 20
15.82794344133457
 30
0.0
  0
ENDBLK
  5
90C
330
90A
100
AcDbEntity
  8
0
100
AcDbBlockEnd
  0
BLOCK
  5
A0B
330
A0A
100
AcDbEntity
  8
0
100
AcDbBlockBegin
  2
*D13
 70
     1
 10
0.0
 20
0.0
 30
0.0
  3
*D13
  1

  0
LINE
  5
AE9
330
A0A
100
AcDbEntity
  8
Dimension (ANSI)
100
AcDbLine
 10
40.29599505898718
 20
16.01544344133457
 30
0.0
 11
40.29599505898718
 21
13.34910318953742
 31
0.0
  0
LINE
  5
AEA
330
A0A
100
AcDbEntity
  8
Dimension (ANSI)
100
AcDbLine
 10
39.79599505898718
 20
15.51544344133457
 30
0.0
 11
39.79599505898718
 21
13.34910318953742
 31
0.0
  0
LINE
  5
AEB
330
A0A
100
AcDbEntity
  8
Dimension (ANSI)
100
AcDbLine
 10
40.78812103209261
 20
13.97410318953742
 30
0.0
 11
41.28024700519804
 21
13.97410318953742
 31
0.0
  0
LINE
  5
AEC
330
A0A
100
AcDbEntity
  8
Dimension (ANSI)
100
AcDbLine
 10
39.30386908588175
 20
13.97410318953742
 30
0.0
 11
38.21386846032866
 21
13.97410318953742
 31
0.0
  0
SOLID
  5
AED
330
A0A
100
AcDbEntity
  8
Dimension (ANSI)
100
AcDbTrace
 10
40.78812103209261
 20
14.05612418505499
 30
0.0
 11
40.78812103209261
 21
13.89208219401985
 31
0.0
 12
40.29599505898718
 22
13.97410318953742
 32
0.0
 13
40.29599505898718
 23
13.97410318953742
 33
0.0
  0
SOLID
  5
AEE
330
A0A
100
AcDbEntity
  8
Dimension (ANSI)
100
AcDbTrace
 10
39.30386908588175
 20
14.05612418505499
 30
0.0
 11
39.30386908588175
 21
13.89208219401985
 31
0.0
 12
39.79599505898718
 22
13.97410318953742
 32
0.0
 13
39.79599505898718
 23
13.97410318953742
 33
0.0
  0
MTEXT
  5
AEF
330
A0A
100
AcDbEntity
  8
Dimension (ANSI)
100
AcDbMText
 10
35.6563880500006
 20
14.27410320145835
 30
0.0
 40
0.6000000238418579
 41
0.0
 71
     1
 72
     1
  1
\A1;0.500
  7
Note Text (ANSI)
 73
     1
 44
1.0
1001
ACAD
1000
MTEXTBEGIN
1070
    73
1070
     1
1070
    44
1040
1.0
1070
    74
1070
     0
1000
MTEXTEND
  0
POINT
  5
AF0
330
A0A
100
AcDbEntity
  8
Defpoints
 62
     0
100
AcDbPoint
 10
40.29599505898718
 20
16.32794344133457
 30
0.0
  0
POINT
  5
AF1
330
A0A
100
AcDbEntity
  8
Defpoints
 62
     0
100
AcDbPoint
 10
39.79599505898718
 20
15.82794344133457
 30
0.0
  0
POINT
  5
AF2
330
A0A
100
AcDbEntity
  8
Defpoints
 62
     0
100
AcDbPoint
 10
39.79599505898718
 20
13.97410318953742
 30
0.0
  0
ENDBLK
  5
A0C
330
A0A
100
AcDbEntity
  8
0
100
AcDbBlockEnd
  0
BLOCK
  5
AF5
330
AF4
100
AcDbEntity
  8
0
100
AcDbBlockBegin
  2
*D14
 70
     1
 10
0.0
 20
0.0
 30
0.0
  3
*D14
  1

  0
LINE
  5
BD3
330
AF4
100
AcDbEntity
  8
Dimension (ANSI)
100
AcDbLine
 10
39.77599505898718
 20
43.82044344133457
 30
0.0
 11
39.77599505898718
 21
46.92117126773871
 31
0.0
  0
LINE
  5
BD4
330
AF4
100
AcDbEntity
  8
Dimension (ANSI)
100
AcDbLine
 10
40.29599505898718
 20
43.84044344133457
 30
0.0
 11
40.29599505898718
 21
46.92117126773871
 31
0.0
  0
LINE
  5
BD5
330
AF4
100
AcDbEntity
  8
Dimension (ANSI)
100
AcDbLine
 10
40.78812103209261
 20
46.29617126773871
 30
0.0
 11
41.28024700519804
 21
46.29617126773871
 31
0.0
  0
LINE
  5
BD6
330
AF4
100
AcDbEntity
  8
Dimension (ANSI)
100
AcDbLine
 10
39.28386908588175
 20
46.29617126773871
 30
0.0
 11
38.22294212500738
 21
46.29617126773871
 31
0.0
  0
SOLID
  5
BD7
330
AF4
100
AcDbEntity
  8
Dimension (ANSI)
100
AcDbTrace
 10
40.78812103209261
 20
46.37819226325629
 30
0.0
 11
40.78812103209261
 21
46.21415027222115
 31
0.0
 12
40.29599505898718
 22
46.29617126773871
 32
0.0
 13
40.29599505898718
 23
46.29617126773871
 33
0.0
  0
SOLID
  5
BD8
330
AF4
100
AcDbEntity
  8
Dimension (ANSI)
100
AcDbTrace
 10
39.28386908588175
 20
46.37819226325629
 30
0.0
 11
39.28386908588175
 21
46.21415027222115
 31
0.0
 12
39.77599505898718
 22
46.29617126773871
 32
0.0
 13
39.77599505898718
 23
46.29617126773871
 33
0.0
  0
MTEXT
  5
BD9
330
AF4
100
AcDbEntity
  8
Dimension (ANSI)
100
AcDbMText
 10
35.66546171467932
 20
46.59617127965964
 30
0.0
 40
0.6000000238418579
 41
0.0
 71
     1
 72
     1
  1
\A1;0.520
  7
Note Text (ANSI)
 73
     1
 44
1.0
1001
ACAD
1000
MTEXTBEGIN
1070
    73
1070
     1
1070
    44
1040
1.0
1070
    74
1070
     0
1000
MTEXTEND
  0
POINT
  5
BDA
330
AF4
100
AcDbEntity
  8
Defpoints
 62
     0
100
AcDbPoint
 10
39.77599505898718
 20
43.50794344133457
 30
0.0
  0
POINT
  5
BDB
330
AF4
100
AcDbEntity
  8
Defpoints
 62
     0
100
AcDbPoint
 10
40.29599505898718
 20
43.52794344133457
 30
0.0
  0
POINT
  5
BDC
330
AF4
100
AcDbEntity
  8
Defpoints
 62
     0
100
AcDbPoint
 10
40.29599505898718
 20
46.29617126773871
 30
0.0
  0
ENDBLK
  5
AF6
330
AF4
100
AcDbEntity
  8
0
100
AcDbBlockEnd
  0
BLOCK
  5
BDF
330
BDE
100
AcDbEntity
  8
0
100
AcDbBlockBegin
  2
*D15
 70
     1
 10
0.0
 20
0.0
 30
0.0
  3
*D15
  1

  0
LINE
  5
CD2
330
BDE
100
AcDbEntity
  8
Dimension (ANSI)
100
AcDbLine
 10
40.08849505898718
 20
43.50794344133457
 30
0.0
 11
45.89638518729119
 21
43.50794344133457
 31
0.0
  0
LINE
  5
CD3
330
BDE
100
AcDbEntity
  8
Dimension (ANSI)
100
AcDbLine
 10
40.10849505898717
 20
44.02794344133457
 30
0.0
 11
45.89638518729119
 21
44.02794344133457
 31
0.0
  0
LINE
  5
CD4
330
BDE
100
AcDbEntity
  8
Dimension (ANSI)
100
AcDbLine
 10
45.27138518729119
 20
44.52006941444
 30
0.0
 11
45.27138518729119
 21
45.01219538754543
 31
0.0
  0
LINE
  5
CD5
330
BDE
100
AcDbEntity
  8
Dimension (ANSI)
100
AcDbLine
 10
45.27138518729119
 20
43.01581746822914
 30
0.0
 11
45.27138518729119
 21
42.08259375676493
 31
0.0
  0
LINE
  5
CD6
330
BDE
100
AcDbEntity
  8
Dimension (ANSI)
100
AcDbLine
 10
45.27138518729119
 20
42.08259375676493
 30
0.0
 11
44.77925921418576
 21
42.08259375676493
 31
0.0
  0
SOLID
  5
CD7
330
BDE
100
AcDbEntity
  8
Dimension (ANSI)
100
AcDbTrace
 10
45.18936419177361
 20
44.52006941444
 30
0.0
 11
45.35340618280875
 21
44.52006941444
 31
0.0
 12
45.27138518729119
 22
44.02794344133457
 32
0.0
 13
45.27138518729119
 23
44.02794344133457
 33
0.0
  0
SOLID
  5
CD8
330
BDE
100
AcDbEntity
  8
Dimension (ANSI)
100
AcDbTrace
 10
45.18936419177361
 20
43.01581746822914
 30
0.0
 11
45.35340618280875
 21
43.01581746822914
 31
0.0
 12
45.27138518729119
 22
43.50794344133457
 32
0.0
 13
45.27138518729119
 23
43.50794344133457
 33
0.0
  0
MTEXT
  5
CD9
330
BDE
100
AcDbEntity
  8
Dimension (ANSI)
100
AcDbMText
 10
42.22177880385769
 20
42.38259376868586
 30
0.0
 40
0.6000000238418579
 41
0.0
 71
     1
 72
     1
  1
\A1;0.520
  7
Note Text (ANSI)
 73
     1
 44
1.0
1001
ACAD
1000
MTEXTBEGIN
1070
    73
1070
     1
1070
    44
1040
1.0
1070
    74
1070
     0
1000
MTEXTEND
  0
POINT
  5
CDA
330
BDE
100
AcDbEntity
  8
Defpoints
 62
     0
100
AcDbPoint
 10
39.77599505898718
 20
43.50794344133457
 30
0.0
  0
POINT
  5
CDB
330
BDE
100
AcDbEntity
  8
Defpoints
 62
     0
100
AcDbPoint
 10
39.79599505898717
 20
44.02794344133457
 30
0.0
  0
POINT
  5
CDC
330
BDE
100
AcDbEntity
  8
Defpoints
 62
     0
100
AcDbPoint
 10
45.27138518729119
 20
44.02794344133457
 30
0.0
  0
ENDBLK
  5
BE0
330
BDE
100
AcDbEntity
  8
0
100
AcDbBlockEnd
  0
BLOCK
  5
CE1
330
CE0
100
AcDbEntity
  8
0
100
AcDbBlockBegin
  2
*D16
 70
     1
 10
0.0
 20
0.0
 30
0.0
  3
*D16
  1

  0
LINE
  5
DBF
330
CE0
100
AcDbEntity
  8
Dimension (ANSI)
100
AcDbLine
 10
53.57416614457462
 20
43.84044344133457
 30
0.0
 11
53.57416614457462
 21
46.67262848070465
 31
0.0
  0
LINE
  5
DC0
330
CE0
100
AcDbEntity
  8
Dimension (ANSI)
100
AcDbLine
 10
54.34816614457461
 20
42.62244344133457
 30
0.0
 11
54.34816614457461
 21
46.67262848070465
 31
0.0
  0
LINE
  5
DC1
330
CE0
100
AcDbEntity
  8
Dimension (ANSI)
100
AcDbLine
 10
54.84029211768004
 20
46.04762848070465
 30
0.0
 11
55.33241809078547
 21
46.04762848070465
 31
0.0
  0
LINE
  5
DC2
330
CE0
100
AcDbEntity
  8
Dimension (ANSI)
100
AcDbLine
 10
53.08204017146919
 20
46.04762848070465
 30
0.0
 11
52.00632526076947
 21
46.04762848070465
 31
0.0
  0
SOLID
  5
DC3
330
CE0
100
AcDbEntity
  8
Dimension (ANSI)
100
AcDbTrace
 10
54.84029211768004
 20
46.12964947622223
 30
0.0
 11
54.84029211768004
 21
45.96560748518707
 31
0.0
 12
54.34816614457461
 22
46.04762848070465
 32
0.0
 13
54.34816614457461
 23
46.04762848070465
 33
0.0
  0
SOLID
  5
DC4
330
CE0
100
AcDbEntity
  8
Dimension (ANSI)
100
AcDbTrace
 10
53.08204017146919
 20
46.12964947622223
 30
0.0
 11
53.08204017146919
 21
45.96560748518707
 31
0.0
 12
53.57416614457462
 22
46.04762848070465
 32
0.0
 13
53.57416614457462
 23
46.04762848070465
 33
0.0
  0
MTEXT
  5
DC5
330
CE0
100
AcDbEntity
  8
Dimension (ANSI)
100
AcDbMText
 10
49.42027342073465
 20
46.34762849262558
 30
0.0
 40
0.6000000238418579
 41
0.0
 71
     1
 72
     1
  1
\A1;0.774
  7
Note Text (ANSI)
 73
     1
 44
1.0
1001
ACAD
1000
MTEXTBEGIN
1070
    73
1070
     1
1070
    44
1040
1.0
1070
    74
1070
     0
1000
MTEXTEND
  0
POINT
  5
DC6
330
CE0
100
AcDbEntity
  8
Defpoints
 62
     0
100
AcDbPoint
 10
53.57416614457462
 20
43.52794344133457
 30
0.0
  0
POINT
  5
DC7
330
CE0
100
AcDbEntity
  8
Defpoints
 62
     0
100
AcDbPoint
 10
54.34816614457461
 20
42.30994344133457
 30
0.0
  0
POINT
  5
DC8
330
CE0
100
AcDbEntity
  8
Defpoints
 62
     0
100
AcDbPoint
 10
54.34816614457461
 20
46.04762848070465
 30
0.0
  0
ENDBLK
  5
CE2
330
CE0
100
AcDbEntity
  8
0
100
AcDbBlockEnd
  0
ENDSEC
  0
SECTION
  2
ENTITIES
  0
LINE
  5
11B
330
6C
100
AcDbEntity
  8
Visible (ANSI)
100
AcDbLine
 10
13.81399505898718
 20
15.82794344133457
 30
0.0
 11
38.57799505898718
 21
15.82794344133457
 31
0.0
  0
LINE
  5
11C
330
6C
100
AcDbEntity
  8
Visible (ANSI)
100
AcDbLine
 10
13.81399505898718
 20
15.82794344133457
 30
0.0
 11
13.81399505898718
 21
15.95294344133457
 31
0.0
  0
LINE
  5
11D
330
6C
100
AcDbEntity
  8
Visible (ANSI)
100
AcDbLine
 10
38.57799505898718
 20
15.82794344133457
 30
0.0
 11
38.57799505898718
 21
15.95294344133457
 31
0.0
  0
LINE
  5
11E
330
6C
100
AcDbEntity
  8
Visible (ANSI)
100
AcDbLine
 10
38.57819505898718
 20
15.95314344133457
 30
0.0
 11
38.57819505898718
 21
15.82794344133457
 31
0.0
  0
LINE
  5
11F
330
6C
100
AcDbEntity
  8
Visible (ANSI)
100
AcDbLine
 10
38.57799505898718
 20
15.95314344133457
 30
0.0
 11
38.57819505898718
 21
15.95314344133457
 31
0.0
  0
LINE
  5
120
330
6C
100
AcDbEntity
  8
Visible (ANSI)
100
AcDbLine
 10
13.81379505898717
 20
15.95314344133457
 30
0.0
 11
13.81399505898718
 21
15.95314344133457
 31
0.0
  0
LINE
  5
121
330
6C
100
AcDbEntity
  8
Visible (ANSI)
100
AcDbLine
 10
13.81379505898717
 20
15.82794344133457
 30
0.0
 11
13.81379505898717
 21
15.95314344133457
 31
0.0
  0
LINE
  5
122
330
6C
100
AcDbEntity
  8
Hidden (ANSI)
 48
1.089149832725524
100
AcDbLine
 10
38.57799505898718
 20
15.92169344133457
 30
0.0
 11
13.81399505898718
 21
15.92169344133457
 31
0.0
  0
LINE
  5
123
330
6C
100
AcDbEntity
  8
Visible (ANSI)
100
AcDbLine
 10
13.81399505898718
 20
15.95314344133457
 30
0.0
 11
13.81399505898718
 21
15.95294344133457
 31
0.0
  0
LINE
  5
124
330
6C
100
AcDbEntity
  8
Visible (ANSI)
100
AcDbLine
 10
38.57799505898718
 20
15.95294344133457
 30
0.0
 11
38.57799505898718
 21
15.95314344133457
 31
0.0
  0
LINE
  5
125
330
6C
100
AcDbEntity
  8
Visible (ANSI)
100
AcDbLine
 10
13.81379505898717
 20
15.82794344133457
 30
0.0
 11
12.59599505898718
 21
15.82794344133457
 31
0.0
  0
LINE
  5
126
330
6C
100
AcDbEntity
  8
Visible (ANSI)
100
AcDbLine
 10
39.79599505898718
 20
15.82794344133457
 30
0.0
 11
38.57819505898718
 21
15.82794344133457
 31
0.0
  0
LINE
  5
127
330
6C
100
AcDbEntity
  8
Visible (ANSI)
100
AcDbLine
 10
40.29599505898718
 20
17.54574344133456
 30
0.0
 11
40.29599505898718
 21
16.32794344133457
 31
0.0
  0
LINE
  5
128
330
6C
100
AcDbEntity
  8
Visible (ANSI)
100
AcDbLine
 10
40.29599505898718
 20
43.52794344133457
 30
0.0
 11
40.29599505898718
 21
42.31014344133457
 31
0.0
  0
LINE
  5
129
330
6C
100
AcDbEntity
  8
Visible (ANSI)
100
AcDbLine
 10
38.57819505898717
 20
44.02794344133456
 30
0.0
 11
39.79599505898717
 21
44.02794344133456
 31
0.0
  0
LINE
  5
12A
330
6C
100
AcDbEntity
  8
Visible (ANSI)
100
AcDbLine
 10
12.59599505898717
 20
44.02794344133456
 30
0.0
 11
13.81379505898717
 21
44.02794344133456
 31
0.0
  0
LINE
  5
12B
330
6C
100
AcDbEntity
  8
Visible (ANSI)
100
AcDbLine
 10
12.09599505898717
 20
42.31014344133456
 30
0.0
 11
12.09599505898717
 21
43.52794344133457
 31
0.0
  0
LINE
  5
12C
330
6C
100
AcDbEntity
  8
Visible (ANSI)
100
AcDbLine
 10
12.09599505898718
 20
16.32794344133457
 30
0.0
 11
12.09599505898718
 21
17.54574344133456
 31
0.0
  0
LINE
  5
12D
330
6C
100
AcDbEntity
  8
Visible (ANSI)
100
AcDbLine
 10
40.29599505898718
 20
16.32794344133457
 30
0.0
 11
39.79599505898718
 21
15.82794344133457
 31
0.0
  0
LINE
  5
12E
330
6C
100
AcDbEntity
  8
Visible (ANSI)
100
AcDbLine
 10
40.29599505898718
 20
17.54574344133456
 30
0.0
 11
40.17079505898719
 21
17.54574344133456
 31
0.0
  0
LINE
  5
12F
330
6C
100
AcDbEntity
  8
Visible (ANSI)
100
AcDbLine
 10
40.17079505898719
 20
17.54574344133456
 30
0.0
 11
40.17079505898719
 21
17.54594344133456
 31
0.0
  0
LINE
  5
130
330
6C
100
AcDbEntity
  8
Visible (ANSI)
100
AcDbLine
 10
40.17079505898718
 20
42.30994344133457
 30
0.0
 11
40.17079505898718
 21
42.31014344133457
 31
0.0
  0
LINE
  5
131
330
6C
100
AcDbEntity
  8
Visible (ANSI)
100
AcDbLine
 10
40.17079505898718
 20
42.31014344133457
 30
0.0
 11
40.29599505898718
 21
42.31014344133457
 31
0.0
  0
LINE
  5
132
330
6C
100
AcDbEntity
  8
Visible (ANSI)
100
AcDbLine
 10
40.29599505898716
 20
17.54594344133456
 30
0.0
 11
40.29599505898716
 21
42.30994344133457
 31
0.0
  0
LINE
  5
133
330
6C
100
AcDbEntity
  8
Visible (ANSI)
100
AcDbLine
 10
40.29599505898717
 20
17.54594344133456
 30
0.0
 11
40.17099505898718
 21
17.54594344133456
 31
0.0
  0
LINE
  5
134
330
6C
100
AcDbEntity
  8
Visible (ANSI)
100
AcDbLine
 10
40.29599505898716
 20
42.30994344133457
 30
0.0
 11
40.17099505898718
 21
42.30994344133457
 31
0.0
  0
LINE
  5
135
330
6C
100
AcDbEntity
  8
Hidden (ANSI)
 48
1.089149832725524
100
AcDbLine
 10
40.20224505898716
 20
42.30994344133457
 30
0.0
 11
40.20224505898717
 21
17.54594344133456
 31
0.0
  0
LINE
  5
136
330
6C
100
AcDbEntity
  8
Visible (ANSI)
100
AcDbLine
 10
40.17079505898719
 20
17.54594344133456
 30
0.0
 11
40.17099505898718
 21
17.54594344133456
 31
0.0
  0
LINE
  5
137
330
6C
100
AcDbEntity
  8
Visible (ANSI)
100
AcDbLine
 10
40.17099505898718
 20
42.30994344133457
 30
0.0
 11
40.17079505898718
 21
42.30994344133457
 31
0.0
  0
LINE
  5
138
330
6C
100
AcDbEntity
  8
Visible (ANSI)
100
AcDbLine
 10
39.79599505898717
 20
44.02794344133456
 30
0.0
 11
40.29599505898718
 21
43.52794344133457
 31
0.0
  0
LINE
  5
139
330
6C
100
AcDbEntity
  8
Visible (ANSI)
100
AcDbLine
 10
38.57819505898717
 20
44.02794344133456
 30
0.0
 11
38.57819505898717
 21
43.90274344133458
 31
0.0
  0
LINE
  5
13A
330
6C
100
AcDbEntity
  8
Visible (ANSI)
100
AcDbLine
 10
38.57819505898717
 20
43.90274344133458
 30
0.0
 11
38.57799505898717
 21
43.90274344133458
 31
0.0
  0
LINE
  5
13B
330
6C
100
AcDbEntity
  8
Visible (ANSI)
100
AcDbLine
 10
13.81399505898717
 20
43.90274344133457
 30
0.0
 11
13.81379505898717
 21
43.90274344133457
 31
0.0
  0
LINE
  5
13C
330
6C
100
AcDbEntity
  8
Visible (ANSI)
100
AcDbLine
 10
13.81379505898717
 20
43.90274344133457
 30
0.0
 11
13.81379505898717
 21
44.02794344133456
 31
0.0
  0
LINE
  5
13D
330
6C
100
AcDbEntity
  8
Visible (ANSI)
100
AcDbLine
 10
38.57799505898717
 20
44.02794344133456
 30
0.0
 11
13.81399505898717
 21
44.02794344133456
 31
0.0
  0
LINE
  5
13E
330
6C
100
AcDbEntity
  8
Visible (ANSI)
100
AcDbLine
 10
38.57799505898717
 20
44.02794344133456
 30
0.0
 11
38.57799505898717
 21
43.90294344133458
 31
0.0
  0
LINE
  5
13F
330
6C
100
AcDbEntity
  8
Visible (ANSI)
100
AcDbLine
 10
13.81399505898717
 20
44.02794344133456
 30
0.0
 11
13.81399505898717
 21
43.90294344133457
 31
0.0
  0
LINE
  5
140
330
6C
100
AcDbEntity
  8
Hidden (ANSI)
 48
1.089149832725524
100
AcDbLine
 10
13.81399505898717
 20
43.93419344133456
 30
0.0
 11
38.57799505898717
 21
43.93419344133457
 31
0.0
  0
LINE
  5
141
330
6C
100
AcDbEntity
  8
Visible (ANSI)
100
AcDbLine
 10
38.57799505898717
 20
43.90274344133458
 30
0.0
 11
38.57799505898717
 21
43.90294344133457
 31
0.0
  0
LINE
  5
142
330
6C
100
AcDbEntity
  8
Visible (ANSI)
100
AcDbLine
 10
13.81399505898717
 20
43.90294344133457
 30
0.0
 11
13.81399505898717
 21
43.90274344133457
 31
0.0
  0
LINE
  5
143
330
6C
100
AcDbEntity
  8
Visible (ANSI)
100
AcDbLine
 10
12.09599505898717
 20
43.52794344133457
 30
0.0
 11
12.59599505898717
 21
44.02794344133456
 31
0.0
  0
LINE
  5
144
330
6C
100
AcDbEntity
  8
Visible (ANSI)
100
AcDbLine
 10
12.09599505898717
 20
42.31014344133456
 30
0.0
 11
12.22119505898716
 21
42.31014344133456
 31
0.0
  0
LINE
  5
145
330
6C
100
AcDbEntity
  8
Visible (ANSI)
100
AcDbLine
 10
12.22119505898716
 20
42.31014344133456
 30
0.0
 11
12.22119505898716
 21
42.30994344133456
 31
0.0
  0
LINE
  5
146
330
6C
100
AcDbEntity
  8
Visible (ANSI)
100
AcDbLine
 10
12.22119505898717
 20
17.54594344133456
 30
0.0
 11
12.22119505898717
 21
17.54574344133456
 31
0.0
  0
LINE
  5
147
330
6C
100
AcDbEntity
  8
Visible (ANSI)
100
AcDbLine
 10
12.22119505898717
 20
17.54574344133456
 30
0.0
 11
12.09599505898718
 21
17.54574344133456
 31
0.0
  0
LINE
  5
148
330
6C
100
AcDbEntity
  8
Visible (ANSI)
100
AcDbLine
 10
12.09599505898718
 20
42.30994344133456
 30
0.0
 11
12.09599505898719
 21
17.54594344133456
 31
0.0
  0
LINE
  5
149
330
6C
100
AcDbEntity
  8
Visible (ANSI)
100
AcDbLine
 10
12.09599505898718
 20
42.30994344133456
 30
0.0
 11
12.22099505898716
 21
42.30994344133456
 31
0.0
  0
LINE
  5
14A
330
6C
100
AcDbEntity
  8
Visible (ANSI)
100
AcDbLine
 10
12.09599505898719
 20
17.54594344133456
 30
0.0
 11
12.22099505898717
 21
17.54594344133456
 31
0.0
  0
LINE
  5
14B
330
6C
100
AcDbEntity
  8
Hidden (ANSI)
 48
1.089149832725524
100
AcDbLine
 10
12.18974505898718
 20
17.54594344133456
 30
0.0
 11
12.18974505898718
 21
42.30994344133456
 31
0.0
  0
LINE
  5
14C
330
6C
100
AcDbEntity
  8
Visible (ANSI)
100
AcDbLine
 10
12.22119505898716
 20
42.30994344133456
 30
0.0
 11
12.22099505898716
 21
42.30994344133456
 31
0.0
  0
LINE
  5
14D
330
6C
100
AcDbEntity
  8
Visible (ANSI)
100
AcDbLine
 10
12.22099505898717
 20
17.54594344133456
 30
0.0
 11
12.22119505898717
 21
17.54594344133456
 31
0.0
  0
LINE
  5
14E
330
6C
100
AcDbEntity
  8
Visible (ANSI)
100
AcDbLine
 10
12.59599505898718
 20
15.82794344133457
 30
0.0
 11
12.09599505898718
 21
16.32794344133457
 31
0.0
  0
CIRCLE
  5
14F
330
6C
100
AcDbEntity
  8
Visible (ANSI)
100
AcDbCircle
 10
39.77599505898718
 20
43.50794344133457
 30
0.0
 40
0.25
  0
CIRCLE
  5
150
330
6C
100
AcDbEntity
  8
Visible (ANSI)
100
AcDbCircle
 10
12.61599505898718
 20
43.50794344133456
 30
0.0
 40
0.25
  0
CIRCLE
  5
151
330
6C
100
AcDbEntity
  8
Visible (ANSI)
100
AcDbCircle
 10
12.61599505898718
 20
16.34794344133457
 30
0.0
 40
0.25
  0
CIRCLE
  5
152
330
6C
100
AcDbEntity
  8
Visible (ANSI)
100
AcDbCircle
 10
39.77599505898718
 20
16.34794344133457
 30
0.0
 40
0.25
  0
CIRCLE
  5
153
330
6C
100
AcDbEntity
  8
Visible (ANSI)
100
AcDbCircle
 10
39.77599505898718
 20
42.75794344133458
 30
0.0
 40
0.15625
  0
CIRCLE
  5
154
330
6C
100
AcDbEntity
  8
Visible (ANSI)
100
AcDbCircle
 10
12.61599505898718
 20
42.75794344133456
 30
0.0
 40
0.15625
  0
CIRCLE
  5
155
330
6C
100
AcDbEntity
  8
Visible (ANSI)
100
AcDbCircle
 10
12.61599505898718
 20
17.09794344133457
 30
0.0
 40
0.15625
  0
CIRCLE
  5
156
330
6C
100
AcDbEntity
  8
Visible (ANSI)
100
AcDbCircle
 10
39.77599505898718
 20
17.09794344133457
 30
0.0
 40
0.15625
  0
LINE
  5
157
330
6C
100
AcDbEntity
  8
Visible (ANSI)
100
AcDbLine
 10
54.3481661445741
 20
15.82794344133457
 30
0.0
 11
53.69916614457411
 21
15.82794344133457
 31
0.0
  0
LINE
  5
158
330
6C
100
AcDbEntity
  8
Visible (ANSI)
100
AcDbLine
 10
54.3481661445741
 20
15.92169344133457
 30
0.0
 11
54.3481661445741
 21
15.82794344133457
 31
0.0
  0
LINE
  5
159
330
6C
100
AcDbEntity
  8
Visible (ANSI)
100
AcDbLine
 10
53.69916614457411
 20
15.92169344133457
 30
0.0
 11
54.3481661445741
 21
15.92169344133457
 31
0.0
  0
ARC
  5
15A
330
6C
100
AcDbEntity
  8
Visible (ANSI)
100
AcDbCircle
 10
53.69916614457411
 20
15.95294344133457
 30
0.0
 40
0.03125
100
AcDbArc
 50
180.0
 51
270.0
  0
ARC
  5
15B
330
6C
100
AcDbEntity
  8
Visible (ANSI)
100
AcDbCircle
 10
53.69916614457411
 20
15.95294344133457
 30
0.0
 40
0.1250000000000007
100
AcDbArc
 50
255.522487814069
 51
270.0
  0
ARC
  5
15C
330
6C
100
AcDbEntity
  8
Hidden (ANSI)
 48
0.0626652836799622
100
AcDbCircle
 10
53.69916614457411
 20
15.95294344133457
 30
0.0
 40
0.1250000000000001
100
AcDbArc
 50
180.0
 51
255.522487814069
  0
LINE
  5
15D
330
6C
100
AcDbEntity
  8
Hidden (ANSI)
 48
0.0356130599975586
100
AcDbLine
 10
53.57416614457411
 20
15.95314344133457
 30
0.0
 11
53.66791614457412
 21
15.95314344133457
 31
0.0
  0
LINE
  5
15E
330
6C
100
AcDbEntity
  8
Visible (ANSI)
100
AcDbLine
 10
53.66791614457461
 20
43.52794344133457
 30
0.0
 11
53.66791614457447
 21
44.02794344133456
 31
0.0
  0
LINE
  5
15F
330
6C
100
AcDbEntity
  8
Visible (ANSI)
100
AcDbLine
 10
53.57416614457447
 20
44.02794344133456
 30
0.0
 11
53.57416614457462
 21
43.52794344133457
 31
0.0
  0
LINE
  5
160
330
6C
100
AcDbEntity
  8
Visible (ANSI)
100
AcDbLine
 10
53.66791614457447
 20
44.02794344133456
 30
0.0
 11
53.57416614457447
 21
44.02794344133456
 31
0.0
  0
LINE
  5
161
330
6C
100
AcDbEntity
  8
Visible (ANSI)
100
AcDbLine
 10
53.57416614457462
 20
43.52794344133457
 30
0.0
 11
53.66791614457461
 21
43.52794344133457
 31
0.0
  0
LINE
  5
162
330
6C
100
AcDbEntity
  8
Visible (ANSI)
100
AcDbLine
 10
53.66791614457461
 20
42.31014344133457
 30
0.0
 11
53.66791614457461
 21
43.52794344133457
 31
0.0
  0
LINE
  5
163
330
6C
100
AcDbEntity
  8
Visible (ANSI)
100
AcDbLine
 10
53.66791614457461
 20
16.32794344133457
 30
0.0
 11
53.66791614457461
 21
17.54574344133456
 31
0.0
  0
LINE
  5
164
330
6C
100
AcDbEntity
  8
Visible (ANSI)
100
AcDbLine
 10
53.57416614457462
 20
17.54574344133456
 30
0.0
 11
53.57416614457462
 21
16.32794344133457
 31
0.0
  0
LINE
  5
165
330
6C
100
AcDbEntity
  8
Visible (ANSI)
100
AcDbLine
 10
53.57416614457462
 20
43.52794344133457
 30
0.0
 11
53.57416614457462
 21
42.31014344133457
 31
0.0
  0
LINE
  5
166
330
6C
100
AcDbEntity
  8
Visible (ANSI)
100
AcDbLine
 10
53.66791614457458
 20
42.31014344133457
 30
0.0
 11
53.66791614457458
 21
42.30994344133457
 31
0.0
  0
LINE
  5
167
330
6C
100
AcDbEntity
  8
Visible (ANSI)
100
AcDbLine
 10
53.66791614457458
 20
17.54594344133456
 30
0.0
 11
53.66791614457458
 21
17.54574344133456
 31
0.0
  0
LINE
  5
168
330
6C
100
AcDbEntity
  8
Visible (ANSI)
100
AcDbLine
 10
53.57416614457458
 20
17.54574344133456
 30
0.0
 11
53.57416614457458
 21
17.54594344133456
 31
0.0
  0
LINE
  5
169
330
6C
100
AcDbEntity
  8
Visible (ANSI)
100
AcDbLine
 10
53.57416614457458
 20
17.54594344133456
 30
0.0
 11
53.57416614457458
 21
42.30994344133457
 31
0.0
  0
LINE
  5
16A
330
6C
100
AcDbEntity
  8
Visible (ANSI)
100
AcDbLine
 10
53.57416614457458
 20
42.30994344133457
 30
0.0
 11
53.57416614457458
 21
42.31014344133457
 31
0.0
  0
LINE
  5
16B
330
6C
100
AcDbEntity
  8
Visible (ANSI)
100
AcDbLine
 10
53.69916614457465
 20
17.54594344133456
 30
0.0
 11
53.57416614457457
 21
17.54594344133456
 31
0.0
  0
LINE
  5
16C
330
6C
100
AcDbEntity
  8
Visible (ANSI)
100
AcDbLine
 10
53.69916614457464
 20
42.30994344133457
 30
0.0
 11
53.57416614457458
 21
42.30994344133457
 31
0.0
  0
LINE
  5
16D
330
6C
100
AcDbEntity
  8
Visible (ANSI)
100
AcDbLine
 10
53.57416614457462
 20
42.31014344133457
 30
0.0
 11
53.66791614457461
 21
42.31014344133457
 31
0.0
  0
LINE
  5
16E
330
6C
100
AcDbEntity
  8
Visible (ANSI)
100
AcDbLine
 10
53.66791614457461
 20
17.54574344133456
 30
0.0
 11
53.57416614457462
 21
17.54574344133456
 31
0.0
  0
LINE
  5
16F
330
6C
100
AcDbEntity
  8
Hidden (ANSI)
 48
1.089149832725524
100
AcDbLine
 10
53.66791614457458
 20
42.30994344133457
 30
0.0
 11
53.66791614457458
 21
17.54594344133456
 31
0.0
  0
LINE
  5
170
330
6C
100
AcDbEntity
  8
Visible (ANSI)
100
AcDbLine
 10
53.66791614457447
 20
15.82794344133457
 30
0.0
 11
53.66791614457461
 21
16.32794344133457
 31
0.0
  0
LINE
  5
171
330
6C
100
AcDbEntity
  8
Visible (ANSI)
100
AcDbLine
 10
53.57416614457462
 20
16.32794344133457
 30
0.0
 11
53.57416614457447
 21
15.82794344133457
 31
0.0
  0
LINE
  5
172
330
6C
100
AcDbEntity
  8
Visible (ANSI)
100
AcDbLine
 10
53.57416614457447
 20
15.82794344133457
 30
0.0
 11
53.66791614457447
 21
15.82794344133457
 31
0.0
  0
LINE
  5
173
330
6C
100
AcDbEntity
  8
Visible (ANSI)
100
AcDbLine
 10
53.66791614457461
 20
16.32794344133457
 30
0.0
 11
53.57416614457462
 21
16.32794344133457
 31
0.0
  0
LINE
  5
174
330
6C
100
AcDbEntity
  8
Visible (ANSI)
100
AcDbLine
 10
53.69916614457405
 20
44.02794344133456
 30
0.0
 11
54.3481661445741
 21
44.02794344133456
 31
0.0
  0
LINE
  5
175
330
6C
100
AcDbEntity
  8
Visible (ANSI)
100
AcDbLine
 10
54.3481661445741
 20
43.93419344133458
 30
0.0
 11
53.69916614457405
 21
43.93419344133457
 31
0.0
  0
LINE
  5
176
330
6C
100
AcDbEntity
  8
Visible (ANSI)
100
AcDbLine
 10
54.3481661445741
 20
44.02794344133456
 30
0.0
 11
54.3481661445741
 21
43.93419344133458
 31
0.0
  0
ARC
  5
177
330
6C
100
AcDbEntity
  8
Hidden (ANSI)
 48
0.0626652836799622
100
AcDbCircle
 10
53.69916614457411
 20
43.90294344133457
 30
0.0
 40
0.1249999999999956
100
AcDbArc
 50
104.4775121859279
 51
180.0
  0
LINE
  5
178
330
6C
100
AcDbEntity
  8
Hidden (ANSI)
 48
0.0356130599975586
100
AcDbLine
 10
53.57416614457411
 20
43.90274344133458
 30
0.0
 11
53.66791614457412
 21
43.90274344133458
 31
0.0
  0
ARC
  5
179
330
6C
100
AcDbEntity
  8
Visible (ANSI)
100
AcDbCircle
 10
53.69916614457415
 20
43.90294344133407
 30
0.0
 40
0.1250000000004849
100
AcDbArc
 50
90.00000000004487
 51
104.4775121858904
  0
ARC
  5
17A
330
6C
100
AcDbEntity
  8
Visible (ANSI)
100
AcDbCircle
 10
53.69916614457411
 20
43.90294344133455
 30
0.0
 40
0.0312500000000037
100
AcDbArc
 50
90.00000000011539
 51
180.0
  0
LINE
  5
17B
330
6C
100
AcDbEntity
  8
Visible (ANSI)
100
AcDbLine
 10
53.69916614457465
 20
17.54594344133456
 30
0.0
 11
54.34816614457461
 21
17.54594344133456
 31
0.0
  0
LINE
  5
17C
330
6C
100
AcDbEntity
  8
Visible (ANSI)
100
AcDbLine
 10
54.34816614457461
 20
42.30994344133457
 30
0.0
 11
54.34816614457461
 21
17.54594344133456
 31
0.0
  0
LINE
  5
17D
330
6C
100
AcDbEntity
  8
Visible (ANSI)
100
AcDbLine
 10
54.34816614457461
 20
42.30994344133457
 30
0.0
 11
53.69916614457464
 21
42.30994344133457
 31
0.0
  0
LINE
  5
17E
330
6C
100
AcDbEntity
  8
Hidden (ANSI)
 48
0.0356130599975586
100
AcDbLine
 10
53.57416614457446
 20
43.75794344133457
 30
0.0
 11
53.66791614457446
 21
43.75794344133457
 31
0.0
  0
LINE
  5
17F
330
6C
100
AcDbEntity
  8
Hidden (ANSI)
 48
0.0356130599975586
100
AcDbLine
 10
53.57416614457446
 20
43.25794344133456
 30
0.0
 11
53.66791614457446
 21
43.25794344133456
 31
0.0
  0
LINE
  5
180
330
6C
100
AcDbEntity
  8
Hidden (ANSI)
 48
0.0356130599975586
100
AcDbLine
 10
53.57416614457446
 20
16.59794344133457
 30
0.0
 11
53.66791614457446
 21
16.59794344133457
 31
0.0
  0
LINE
  5
181
330
6C
100
AcDbEntity
  8
Hidden (ANSI)
 48
0.0356130599975586
100
AcDbLine
 10
53.57416614457446
 20
16.09794344133456
 30
0.0
 11
53.66791614457446
 21
16.09794344133456
 31
0.0
  0
LINE
  5
182
330
6C
100
AcDbEntity
  8
Hidden (ANSI)
 48
0.0356130599975586
100
AcDbLine
 10
53.57416614457446
 20
42.91419344133458
 30
0.0
 11
53.66791614457446
 21
42.91419344133458
 31
0.0
  0
LINE
  5
183
330
6C
100
AcDbEntity
  8
Hidden (ANSI)
 48
0.0356130599975586
100
AcDbLine
 10
53.57416614457446
 20
42.60169344133458
 30
0.0
 11
53.66791614457446
 21
42.60169344133458
 31
0.0
  0
LINE
  5
184
330
6C
100
AcDbEntity
  8
Hidden (ANSI)
 48
0.0356130599975586
100
AcDbLine
 10
53.57416614457446
 20
17.25419344133457
 30
0.0
 11
53.66791614457446
 21
17.25419344133457
 31
0.0
  0
LINE
  5
185
330
6C
100
AcDbEntity
  8
Hidden (ANSI)
 48
0.0356130599975586
100
AcDbLine
 10
53.57416614457446
 20
16.94169344133457
 30
0.0
 11
53.66791614457446
 21
16.94169344133457
 31
0.0
  0
ELLIPSE
  5
186
330
6C
100
AcDbEntity
  8
Visible (ANSI)
100
AcDbEllipse
 10
68.97695949696663
 20
34.67288736545854
 30
0.0
 11
-0.0389868915300143
 21
-0.0677018309488518
 31
0.0
210
0.0
220
0.0
230
1.0
 40
0.5780931159156357
 41
5.495853435359125
 42
6.283185307179475
  0
ELLIPSE
  5
187
330
6C
100
AcDbEntity
  8
Visible (ANSI)
100
AcDbEllipse
 10
79.92120470278307
 20
28.3705157052386
 30
0.0
 11
-0.0389868915300179
 21
-0.067701830948858
 31
0.0
210
0.0
220
0.0
230
1.0
 40
0.578093115915636
 41
5.495853435358998
 42
5.552429523042651
  0
LINE
  5
188
330
6C
100
AcDbEntity
  8
Visible Narrow (ANSI)
100
AcDbLine
 10
68.92171677968644
 20
34.64107520031851
 30
0.0
 11
79.86596198550287
 21
28.33870354009857
 31
0.0
  0
LINE
  5
189
330
6C
100
AcDbEntity
  8
Visible (ANSI)
100
AcDbLine
 10
79.86605037385053
 20
28.33875483402495
 30
0.0
 11
79.86605037385053
 21
28.27478177150602
 31
0.0
  0
LINE
  5
18A
330
6C
100
AcDbEntity
  8
Visible (ANSI)
100
AcDbLine
 10
79.86596198550287
 20
28.33880573348917
 30
0.0
 11
79.86605037385053
 21
28.33875483402495
 31
0.0
  0
LINE
  5
18B
330
6C
100
AcDbEntity
  8
Visible (ANSI)
100
AcDbLine
 10
68.92162839133878
 20
34.64122829317334
 30
0.0
 11
68.92171677968644
 21
34.64117739370911
 31
0.0
  0
LINE
  5
18C
330
6C
100
AcDbEntity
  8
Visible (ANSI)
100
AcDbLine
 10
68.92162839133878
 20
34.57725523065441
 30
0.0
 11
68.92162839133878
 21
34.64122829317334
 31
0.0
  0
LINE
  5
18D
330
6C
100
AcDbEntity
  8
Visible (ANSI)
100
AcDbLine
 10
68.95405137651302
 20
34.59592638604787
 30
0.0
 11
68.92162839133878
 21
34.57725523065441
 31
0.0
  0
LINE
  5
18E
330
6C
100
AcDbEntity
  8
Visible (ANSI)
100
AcDbLine
 10
68.93797260543661
 20
34.60518553450969
 30
0.0
 11
79.86605037385053
 21
28.31212408229294
 31
0.0
  0
LINE
  5
18F
330
6C
100
AcDbEntity
  8
Visible (ANSI)
100
AcDbLine
 10
68.92171677968644
 20
34.64117739370911
 30
0.0
 11
68.92171677968644
 21
34.64107520031851
 31
0.0
  0
LINE
  5
190
330
6C
100
AcDbEntity
  8
Visible (ANSI)
100
AcDbLine
 10
79.86596198550287
 20
28.33870354009857
 30
0.0
 11
79.86596198550287
 21
28.33880573348917
 31
0.0
  0
ELLIPSE
  5
191
330
6C
100
AcDbEntity
  8
Visible (ANSI)
100
AcDbEllipse
 10
80.43684022587655
 20
42.13736926389922
 30
0.0
 11
-0.0779737830600642
 21
0.1354036618976845
 31
0.0
210
0.0
220
0.0
230
1.0
 40
0.5780931159158113
 41
0.2678448778126006
 42
2.873747775777323
  0
ELLIPSE
  5
192
330
6C
100
AcDbEntity
  8
Visible (ANSI)
100
AcDbEllipse
 10
68.4337026152331
 20
49.04951650552308
 30
0.0
 11
-0.077973783060064
 21
0.135403661897684
 31
0.0
210
0.0
220
0.0
230
1.0
 40
0.5780931159158114
 41
0.2678448778124824
 42
2.873747775777322
  0
ELLIPSE
  5
193
330
6C
100
AcDbEntity
  8
Visible (ANSI)
100
AcDbEllipse
 10
68.43370261523308
 20
35.171654061321
 30
0.0
 11
-0.0779737830600636
 21
0.1354036618976834
 31
0.0
210
0.0
220
0.0
230
1.0
 40
0.5780931159158114
 41
0.2678448778124824
 42
2.873747775777323
  0
ELLIPSE
  5
194
330
6C
100
AcDbEntity
  8
Visible (ANSI)
100
AcDbEllipse
 10
80.43684022587653
 20
28.25950681969713
 30
0.0
 11
-0.077973783060064
 21
0.1354036618976842
 31
0.0
210
0.0
220
0.0
230
1.0
 40
0.5780931159158114
 41
0.2678448778125055
 42
2.873747775777308
  0
ELLIPSE
  5
195
330
6C
100
AcDbEntity
  8
Visible (ANSI)
100
AcDbEllipse
 10
80.43684022587655
 20
41.75414404912928
 30
0.0
 11
0.048733614412545
 21
-0.0846272886860495
 31
0.0
210
0.0
220
0.0
230
1.0
 40
0.5780931159158115
 41
3.578838513251699
 42
5.845939447516913
  0
ELLIPSE
  5
196
330
6C
100
AcDbEntity
  8
Visible (ANSI)
100
AcDbEllipse
 10
68.4337026152331
 20
48.66629129075314
 30
0.0
 11
0.0487336144125451
 21
-0.0846272886860497
 31
0.0
210
0.0
220
0.0
230
1.0
 40
0.5780931159158115
 41
3.578838513251698
 42
5.845939447516943
  0
ELLIPSE
  5
197
330
6C
100
AcDbEntity
  8
Visible (ANSI)
100
AcDbEllipse
 10
68.43370261523308
 20
35.55487927609095
 30
0.0
 11
0.0487336144125448
 21
-0.0846272886860492
 31
0.0
210
0.0
220
0.0
230
0.9999999999999998
 40
0.5780931159158114
 41
3.578838513251699
 42
5.845939447516943
  0
ELLIPSE
  5
198
330
6C
100
AcDbEntity
  8
Visible (ANSI)
100
AcDbEllipse
 10
80.43684022587653
 20
28.64273203446707
 30
0.0
 11
0.0487336144125451
 21
-0.0846272886860496
 31
0.0
210
0.0
220
0.0
230
1.0
 40
0.5780931159158115
 41
3.578838513251659
 42
5.845939447516943
  0
ELLIPSE
  5
199
330
6C
100
AcDbEntity
  8
Visible (ANSI)
100
AcDbEllipse
 10
80.39540818791641
 20
42.11351014004419
 30
0.0
 11
-0.0779737830600636
 21
0.1354036618976834
 31
0.0
210
0.0
220
0.0
230
1.0
 40
0.5780931159158115
 41
0.0
 42
6.283185307179586
  0
ELLIPSE
  5
19A
330
6C
100
AcDbEntity
  8
Visible (ANSI)
100
AcDbEllipse
 10
68.39227057727295
 20
49.02565738166805
 30
0.0
 11
-0.0779737830600636
 21
0.1354036618976834
 31
0.0
210
0.0
220
0.0
230
1.0
 40
0.5780931159158115
 41
0.0
 42
6.283185307179586
  0
ELLIPSE
  5
19B
330
6C
100
AcDbEntity
  8
Visible (ANSI)
100
AcDbEllipse
 10
68.39227057727292
 20
35.14779493746598
 30
0.0
 11
-0.0779737830600636
 21
0.1354036618976834
 31
0.0
210
0.0
220
0.0
230
1.0
 40
0.5780931159158115
 41
0.0
 42
6.283185307179586
  0
ELLIPSE
  5
19C
330
6C
100
AcDbEntity
  8
Visible (ANSI)
100
AcDbEllipse
 10
80.39540818791639
 20
28.23564769584211
 30
0.0
 11
-0.0779737830600636
 21
0.1354036618976834
 31
0.0
210
0.0
220
0.0
230
1.0
 40
0.5780931159158115
 41
0.0
 42
6.283185307179586
  0
ELLIPSE
  5
19D
330
6C
100
AcDbEntity
  8
Visible (ANSI)
100
AcDbEllipse
 10
80.39540818791641
 20
41.73028492527425
 30
0.0
 11
-0.0487336144125397
 21
0.0846272886860521
 31
0.0
210
0.0
220
0.0
230
1.0
 40
0.5780931159158114
 41
0.0
 42
6.283185307179586
  0
ELLIPSE
  5
19E
330
6C
100
AcDbEntity
  8
Visible (ANSI)
100
AcDbEllipse
 10
68.39227057727295
 20
48.64243216689812
 30
0.0
 11
-0.0487336144125397
 21
0.0846272886860521
 31
0.0
210
0.0
220
0.0
230
1.0
 40
0.5780931159158114
 41
0.0
 42
6.283185307179586
  0
ELLIPSE
  5
19F
330
6C
100
AcDbEntity
  8
Visible (ANSI)
100
AcDbEllipse
 10
68.39227057727292
 20
35.53102015223592
 30
0.0
 11
-0.0487336144125397
 21
0.0846272886860521
 31
0.0
210
0.0
220
0.0
230
1.0
 40
0.5780931159158114
 41
0.0
 42
6.283185307179586
  0
ELLIPSE
  5
1A0
330
6C
100
AcDbEntity
  8
Visible (ANSI)
100
AcDbEllipse
 10
80.39540818791639
 20
28.61887291061204
 30
0.0
 11
-0.0487336144125397
 21
0.0846272886860521
 31
0.0
210
0.0
220
0.0
230
1.0
 40
0.5780931159158114
 41
0.0
 42
6.283185307179586
  0
LINE
  5
1A1
330
6C
100
AcDbEntity
  8
Visible (ANSI)
100
AcDbLine
 10
68.96306042929897
 20
49.01038242985917
 30
0.0
 11
68.42486378046827
 21
49.32030926751932
 31
0.0
  0
LINE
  5
1A2
330
6C
100
AcDbEntity
  8
Visible (ANSI)
100
AcDbLine
 10
80.44567906064139
 20
42.39798213305063
 30
0.0
 11
79.90748241181069
 21
42.70790897071078
 31
0.0
  0
LINE
  5
1A3
330
6C
100
AcDbEntity
  8
Visible (ANSI)
100
AcDbLine
 10
80.66664992976221
 20
41.39299444058148
 30
0.0
 11
80.66664992976221
 21
42.01524999597726
 31
0.0
  0
LINE
  5
1A4
330
6C
100
AcDbEntity
  8
Visible (ANSI)
100
AcDbLine
 10
80.66664992976219
 20
28.1169488736541
 30
0.0
 11
80.66664992976219
 21
28.73920442904988
 31
0.0
  0
LINE
  5
1A5
330
6C
100
AcDbEntity
  8
Visible (ANSI)
100
AcDbLine
 10
68.92162839133878
 20
34.57725523065441
 30
0.0
 11
68.38343174250811
 21
34.88718206831456
 31
0.0
  0
LINE
  5
1A6
330
6C
100
AcDbEntity
  8
Visible (ANSI)
100
AcDbLine
 10
80.40424702268122
 20
27.96485493384587
 30
0.0
 11
79.86605037385053
 21
28.27478177150602
 31
0.0
  0
LINE
  5
1A7
330
6C
100
AcDbEntity
  8
Visible (ANSI)
100
AcDbLine
 10
80.62521789180204
 20
28.71534530519486
 30
0.0
 11
80.62521789180204
 21
28.09308974979908
 31
0.0
  0
LINE
  5
1A8
330
6C
100
AcDbEntity
  8
Visible (ANSI)
100
AcDbLine
 10
80.62521789180207
 20
41.99139087212223
 30
0.0
 11
80.62521789180207
 21
41.36913531672646
 31
0.0
  0
LINE
  5
1A9
330
6C
100
AcDbEntity
  8
Visible (ANSI)
100
AcDbLine
 10
79.86605037385055
 20
42.68404984685576
 30
0.0
 11
80.40424702268124
 21
42.37412300919561
 31
0.0
  0
LINE
  5
1AA
330
6C
100
AcDbEntity
  8
Visible (ANSI)
100
AcDbLine
 10
68.38343174250813
 20
49.29645014366429
 30
0.0
 11
68.92162839133881
 21
48.98652330600414
 31
0.0
  0
LINE
  5
1AB
330
6C
100
AcDbEntity
  8
Visible (ANSI)
100
AcDbLine
 10
68.1624608733873
 20
48.54595977231531
 30
0.0
 11
68.1624608733873
 21
49.16821532771108
 31
0.0
  0
LINE
  5
1AC
330
6C
100
AcDbEntity
  8
Visible (ANSI)
100
AcDbLine
 10
68.16246087338727
 20
35.26991420538793
 30
0.0
 11
68.16246087338727
 21
35.89216976078372
 31
0.0
  0
LINE
  5
1AD
330
6C
100
AcDbEntity
  8
Visible (ANSI)
100
AcDbLine
 10
68.96306042929897
 20
49.01038242985917
 30
0.0
 11
68.96306042929897
 21
49.00822598858937
 31
0.0
  0
LINE
  5
1AE
330
6C
100
AcDbEntity
  8
Visible (ANSI)
100
AcDbLine
 10
79.86605037385055
 20
42.68404984685576
 30
0.0
 11
79.86605037385055
 21
42.62007678433683
 31
0.0
  0
LINE
  5
1AF
330
6C
100
AcDbEntity
  8
Visible (ANSI)
100
AcDbLine
 10
79.86605037385055
 20
42.62007678433683
 30
0.0
 11
79.86596198550289
 21
42.62012768380106
 31
0.0
  0
LINE
  5
1B0
330
6C
100
AcDbEntity
  8
Visible Narrow (ANSI)
100
AcDbLine
 10
79.86596198550289
 20
42.62022987719166
 30
0.0
 11
68.92171677968646
 21
48.9226015374116
 31
0.0
  0
LINE
  5
1B1
330
6C
100
AcDbEntity
  8
Visible (ANSI)
100
AcDbLine
 10
68.92171677968646
 20
48.922499344021
 30
0.0
 11
68.92162839133881
 21
48.92255024348521
 31
0.0
  0
LINE
  5
1B2
330
6C
100
AcDbEntity
  8
Visible (ANSI)
100
AcDbLine
 10
68.92162839133881
 20
48.92255024348521
 30
0.0
 11
68.92162839133881
 21
48.98652330600414
 31
0.0
  0
LINE
  5
1B3
330
6C
100
AcDbEntity
  8
Visible Narrow (ANSI)
100
AcDbLine
 10
79.92120470278307
 20
42.71591291146
 30
0.0
 11
68.97695949696665
 21
49.01828457167995
 31
0.0
  0
ELLIPSE
  5
1B4
330
6C
100
AcDbEntity
  8
Visible (ANSI)
100
AcDbEllipse
 10
79.9212047027832
 20
42.65204204233174
 30
0.0
 11
0.0389868915300878
 21
0.06770183094897
 31
0.0
210
0.0
220
0.0
230
1.0
 40
0.5780931159156358
 41
2.297684694085903
 42
2.354260781769497
  0
ELLIPSE
  5
1B5
330
6C
100
AcDbEntity
  8
Visible (ANSI)
100
AcDbEllipse
 10
79.92120470278308
 20
42.65204204233191
 30
0.0
 11
0.0389868915298776
 21
0.0677018309486145
 31
0.0
210
0.0
220
0.0
230
1.0
 40
0.5780931159156358
 41
0.7834644549744177
 42
1.009790328440601
  0
LINE
  5
1B6
330
6C
100
AcDbEntity
  8
Visible (ANSI)
100
AcDbLine
 10
79.86596198550289
 20
42.62012768380106
 30
0.0
 11
79.86605037385055
 21
42.62017858326529
 31
0.0
  0
ELLIPSE
  5
1B7
330
6C
100
AcDbEntity
  8
Visible (ANSI)
100
AcDbEllipse
 10
68.97695949696664
 20
48.95441370255163
 30
0.0
 11
0.0389868915300173
 21
0.0677018309488471
 31
0.0
210
0.0
220
0.0
230
0.9999999999999998
 40
0.5780931159156402
 41
0.7834644549745918
 42
2.354260781769621
  0
LINE
  5
1B8
330
6C
100
AcDbEntity
  8
Visible (ANSI)
100
AcDbLine
 10
68.92162839133881
 20
48.98652330600414
 30
0.0
 11
68.96306042929897
 21
49.01038242985917
 31
0.0
  0
LINE
  5
1B9
330
6C
100
AcDbEntity
  8
Visible (ANSI)
100
AcDbLine
 10
68.92162839133881
 20
48.92255024348521
 30
0.0
 11
68.92171677968646
 21
48.92260114294945
 31
0.0
  0
LINE
  5
1BA
330
6C
100
AcDbEntity
  8
Visible (ANSI)
100
AcDbLine
 10
79.90748241181069
 20
42.70790897071078
 30
0.0
 11
79.86605037385055
 21
42.68404984685576
 31
0.0
  0
LINE
  5
1BB
330
6C
100
AcDbEntity
  8
Visible (ANSI)
100
AcDbLine
 10
80.66664992976221
 20
42.01524999597726
 30
0.0
 11
80.44567906064139
 21
42.39798213305063
 31
0.0
  0
LINE
  5
1BC
330
6C
100
AcDbEntity
  8
Visible (ANSI)
100
AcDbLine
 10
80.40424702268124
 20
42.37412300919561
 30
0.0
 11
80.62521789180207
 21
41.99139087212223
 31
0.0
  0
LINE
  5
1BD
330
6C
100
AcDbEntity
  8
Visible (ANSI)
100
AcDbLine
 10
80.44567906064139
 20
42.39798213305063
 30
0.0
 11
80.40424702268124
 21
42.37412300919561
 31
0.0
  0
LINE
  5
1BE
330
6C
100
AcDbEntity
  8
Visible (ANSI)
100
AcDbLine
 10
80.62521789180207
 20
41.99139087212223
 30
0.0
 11
80.66664992976221
 21
42.01524999597726
 31
0.0
  0
LINE
  5
1BF
330
6C
100
AcDbEntity
  8
Visible (ANSI)
100
AcDbLine
 10
80.66478402390087
 20
28.74027893277306
 30
0.0
 11
80.66664992976219
 21
28.73920442904988
 31
0.0
  0
LINE
  5
1C0
330
6C
100
AcDbEntity
  8
Visible (ANSI)
100
AcDbLine
 10
80.62521789180204
 20
28.71534530519486
 30
0.0
 11
80.5698867861742
 21
28.7472083697991
 31
0.0
  0
LINE
  5
1C1
330
6C
100
AcDbEntity
  8
Visible (ANSI)
100
AcDbLine
 10
80.5698867861742
 20
28.7472083697991
 30
0.0
 11
80.5698867861742
 21
28.7473105631897
 31
0.0
  0
LINE
  5
1C2
330
6C
100
AcDbEntity
  8
Visible Narrow (ANSI)
100
AcDbLine
 10
80.56997517452185
 20
28.74725966372548
 30
0.0
 11
80.56997517452186
 21
41.40084528847587
 31
0.0
  0
LINE
  5
1C3
330
6C
100
AcDbEntity
  8
Visible (ANSI)
100
AcDbLine
 10
80.56988678617422
 20
41.4008961879401
 30
0.0
 11
80.56988678617422
 21
41.4009983813307
 31
0.0
  0
LINE
  5
1C4
330
6C
100
AcDbEntity
  8
Visible (ANSI)
100
AcDbLine
 10
80.56988678617422
 20
41.4009983813307
 30
0.0
 11
80.62521789180207
 21
41.36913531672646
 31
0.0
  0
LINE
  5
1C5
330
6C
100
AcDbEntity
  8
Visible Narrow (ANSI)
100
AcDbLine
 10
80.68046060908224
 20
28.7472596637255
 30
0.0
 11
80.68046060908228
 21
41.40084528847589
 31
0.0
  0
ELLIPSE
  5
1C6
330
6C
100
AcDbEntity
  8
Visible (ANSI)
100
AcDbEllipse
 10
80.62521789180202
 20
28.77907182886552
 30
0.0
 11
0.0781249999999997
 21
0.0000000000000045
 31
0.0
210
0.0
220
0.0
230
1.0
 40
0.5758617009853145
 41
3.926990816987112
 42
5.497787143782145
  0
LINE
  5
1C7
330
6C
100
AcDbEntity
  8
Visible (ANSI)
100
AcDbLine
 10
80.56988678617422
 20
41.4008961879401
 30
0.0
 11
80.56997551701917
 21
41.4009472846354
 31
0.0
  0
ELLIPSE
  5
1C8
330
6C
100
AcDbEntity
  8
Visible (ANSI)
100
AcDbEllipse
 10
80.62521789180205
 20
41.43265745361591
 30
0.0
 11
0.0781250000000141
 21
0.0000000000000045
 31
0.0
210
0.0
220
0.0
230
1.0
 40
0.5758617009853145
 41
3.926990816987222
 42
3.98367644174917
  0
ELLIPSE
  5
1C9
330
6C
100
AcDbEntity
  8
Visible (ANSI)
100
AcDbEllipse
 10
80.62521789180197
 20
41.43265745361595
 30
0.0
 11
0.0781250000001073
 21
-0.0000000000000002
 31
0.0
210
0.0
220
0.0
230
1.0
 40
0.5758617009853144
 41
5.271378846410161
 42
5.497787143782418
  0
LINE
  5
1CA
330
6C
100
AcDbEntity
  8
Visible (ANSI)
100
AcDbLine
 10
80.62521789180207
 20
41.36913531672646
 30
0.0
 11
80.66664992976221
 21
41.39299444058148
 31
0.0
  0
LINE
  5
1CB
330
6C
100
AcDbEntity
  8
Visible (ANSI)
100
AcDbLine
 10
80.5698867861742
 20
28.7472083697991
 30
0.0
 11
80.56997551702021
 21
28.74725946649501
 31
0.0
  0
LINE
  5
1CC
330
6C
100
AcDbEntity
  8
Visible (ANSI)
100
AcDbLine
 10
80.66664992976219
 20
28.73920442904988
 30
0.0
 11
80.62521789180204
 21
28.71534530519486
 31
0.0
  0
LINE
  5
1CD
330
6C
100
AcDbEntity
  8
Visible (ANSI)
100
AcDbLine
 10
80.44567906064136
 20
27.9887140577009
 30
0.0
 11
80.66664992976219
 21
28.1169488736541
 31
0.0
  0
LINE
  5
1CE
330
6C
100
AcDbEntity
  8
Visible (ANSI)
100
AcDbLine
 10
80.62521789180204
 20
28.09308974979908
 30
0.0
 11
80.40424702268122
 21
27.96485493384587
 31
0.0
  0
LINE
  5
1CF
330
6C
100
AcDbEntity
  8
Visible (ANSI)
100
AcDbLine
 10
80.40424702268122
 20
27.96485493384587
 30
0.0
 11
80.44567906064136
 21
27.9887140577009
 31
0.0
  0
LINE
  5
1D0
330
6C
100
AcDbEntity
  8
Visible (ANSI)
100
AcDbLine
 10
80.66664992976219
 20
28.1169488736541
 30
0.0
 11
80.62521789180204
 21
28.09308974979908
 31
0.0
  0
LINE
  5
1D1
330
6C
100
AcDbEntity
  8
Visible (ANSI)
100
AcDbLine
 10
80.5698867861742
 20
28.7473105631897
 30
0.0
 11
80.56997517452185
 21
28.74725966372548
 31
0.0
  0
LINE
  5
1D2
330
6C
100
AcDbEntity
  8
Visible (ANSI)
100
AcDbLine
 10
80.56997517452186
 20
41.40084528847587
 30
0.0
 11
80.56988678617422
 21
41.4008961879401
 31
0.0
  0
LINE
  5
1D3
330
6C
100
AcDbEntity
  8
Visible (ANSI)
100
AcDbLine
 10
80.68046060908224
 20
28.7472596637255
 30
0.0
 11
80.96728079720099
 21
28.91242842513253
 31
0.0
  0
LINE
  5
1D4
330
6C
100
AcDbEntity
  8
Visible (ANSI)
100
AcDbLine
 10
80.96728079720101
 20
41.56601404988292
 30
0.0
 11
80.96728079720099
 21
28.91242842513253
 31
0.0
  0
LINE
  5
1D5
330
6C
100
AcDbEntity
  8
Visible (ANSI)
100
AcDbLine
 10
80.96728079720101
 20
41.56601404988292
 30
0.0
 11
80.68046060908228
 21
41.40084528847589
 31
0.0
  0
LINE
  5
1D6
330
6C
100
AcDbEntity
  8
Visible (ANSI)
100
AcDbLine
 10
80.92584875924087
 20
41.58987317373794
 30
0.0
 11
80.96728079720101
 21
41.56601404988292
 31
0.0
  0
LINE
  5
1D7
330
6C
100
AcDbEntity
  8
Visible (ANSI)
100
AcDbLine
 10
80.66664992976221
 20
41.44061049490093
 30
0.0
 11
80.92584875924087
 21
41.58987317373794
 31
0.0
  0
LINE
  5
1D8
330
6C
100
AcDbEntity
  8
Visible (ANSI)
100
AcDbLine
 10
79.86596198550289
 20
42.62012768380106
 30
0.0
 11
79.86596198550289
 21
42.62022987719166
 31
0.0
  0
LINE
  5
1D9
330
6C
100
AcDbEntity
  8
Visible (ANSI)
100
AcDbLine
 10
68.92171677968646
 20
48.9226015374116
 30
0.0
 11
68.92171677968646
 21
48.922499344021
 31
0.0
  0
LINE
  5
1DA
330
6C
100
AcDbEntity
  8
Visible (ANSI)
100
AcDbLine
 10
79.92120470278307
 20
42.71591291146
 30
0.0
 11
80.20802489090185
 21
42.88108167286706
 31
0.0
  0
LINE
  5
1DB
330
6C
100
AcDbEntity
  8
Visible (ANSI)
100
AcDbLine
 10
69.26377968508541
 20
49.183453333087
 30
0.0
 11
80.20802489090185
 21
42.88108167286706
 31
0.0
  0
LINE
  5
1DC
330
6C
100
AcDbEntity
  8
Visible (ANSI)
100
AcDbLine
 10
69.26377968508541
 20
49.183453333087
 30
0.0
 11
68.97695949696665
 21
49.01828457167995
 31
0.0
  0
LINE
  5
1DD
330
6C
100
AcDbEntity
  8
Visible (ANSI)
100
AcDbLine
 10
80.20802489090185
 20
42.83317852102081
 30
0.0
 11
79.94898660703327
 21
42.68400829425188
 31
0.0
  0
LINE
  5
1DE
330
6C
100
AcDbEntity
  8
Visible (ANSI)
100
AcDbLine
 10
80.20802489090185
 20
42.88108167286706
 30
0.0
 11
80.20802489090185
 21
42.83317852102081
 31
0.0
  0
LINE
  5
1DF
330
6C
100
AcDbEntity
  8
Visible (ANSI)
100
AcDbLine
 10
68.1624608733873
 20
49.16821532771108
 30
0.0
 11
68.38343174250813
 21
49.29645014366429
 31
0.0
  0
LINE
  5
1E0
330
6C
100
AcDbEntity
  8
Visible (ANSI)
100
AcDbLine
 10
68.38343174250813
 20
49.29645014366429
 30
0.0
 11
68.42486378046827
 21
49.32030926751932
 31
0.0
  0
LINE
  5
1E1
330
6C
100
AcDbEntity
  8
Visible (ANSI)
100
AcDbLine
 10
68.1624608733873
 20
48.54595977231531
 30
0.0
 11
68.21779197901514
 21
48.51409670771107
 31
0.0
  0
LINE
  5
1E2
330
6C
100
AcDbEntity
  8
Visible (ANSI)
100
AcDbLine
 10
68.21779197901514
 20
48.51409670771107
 30
0.0
 11
68.21779197901514
 21
48.51399451432046
 31
0.0
  0
LINE
  5
1E3
330
6C
100
AcDbEntity
  8
Visible Narrow (ANSI)
100
AcDbLine
 10
68.2177035906675
 20
48.51404541378467
 30
0.0
 11
68.21770359066746
 21
35.8604597890343
 31
0.0
  0
LINE
  5
1E4
330
6C
100
AcDbEntity
  8
Visible (ANSI)
100
AcDbLine
 10
68.21779197901512
 20
35.86040888957008
 30
0.0
 11
68.21779197901512
 21
35.86030669617946
 31
0.0
  0
LINE
  5
1E5
330
6C
100
AcDbEntity
  8
Visible (ANSI)
100
AcDbLine
 10
68.21779197901512
 20
35.86030669617946
 30
0.0
 11
68.16246087338727
 21
35.89216976078372
 31
0.0
  0
ELLIPSE
  5
1E6
330
6C
100
AcDbEntity
  8
Visible (ANSI)
100
AcDbEllipse
 10
68.27294630794769
 20
48.5458575789247
 30
0.0
 11
-0.078124999999986
 21
0.0000000000000002
 31
0.0
210
0.0
220
0.0
230
1.0
 40
0.5758617009853145
 41
0.7287125386357145
 42
0.7853981633975096
  0
ELLIPSE
  5
1E7
330
6C
100
AcDbEntity
  8
Visible (ANSI)
100
AcDbEllipse
 10
68.27294630794767
 20
35.89227195417433
 30
0.0
 11
-0.0781249999999999
 21
0.0000000000000002
 31
0.0
210
0.0
220
0.0
230
1.0
 40
0.5758617009853144
 41
0.0
 42
0.7853981633974927
  0
LINE
  5
1E8
330
6C
100
AcDbEntity
  8
Visible (ANSI)
100
AcDbLine
 10
68.16246087338727
 20
35.89216976078372
 30
0.0
 11
68.19482130794767
 21
35.91080489567429
 31
0.0
  0
LINE
  5
1E9
330
6C
100
AcDbEntity
  8
Visible (ANSI)
100
AcDbLine
 10
68.19482130794769
 20
48.52732463742473
 30
0.0
 11
68.19482130794767
 21
35.89227195417433
 31
0.0
  0
LINE
  5
1EA
330
6C
100
AcDbEntity
  8
Visible (ANSI)
100
AcDbLine
 10
68.21779197901514
 20
48.51399451432046
 30
0.0
 11
68.2177035906675
 21
48.51404541378467
 31
0.0
  0
LINE
  5
1EB
330
6C
100
AcDbEntity
  8
Visible (ANSI)
100
AcDbLine
 10
68.21770359066746
 20
35.8604597890343
 30
0.0
 11
68.21779197901512
 21
35.86040888957008
 31
0.0
  0
LINE
  5
1EC
330
6C
100
AcDbEntity
  8
Visible (ANSI)
100
AcDbLine
 10
68.37184299622044
 20
48.66643272433535
 30
0.0
 11
68.4231976781798
 21
48.69600591884204
 31
0.0
  0
LINE
  5
1ED
330
6C
100
AcDbEntity
  8
Visible (ANSI)
100
AcDbLine
 10
68.44608663485562
 20
48.66146854465711
 30
0.0
 11
68.39022584294264
 21
48.62930045400771
 31
0.0
  0
LINE
  5
1EE
330
6C
100
AcDbEntity
  8
Visible (ANSI)
100
AcDbLine
 10
68.38343174250811
 20
34.88718206831456
 30
0.0
 11
68.16246087338727
 21
35.26991420538793
 31
0.0
  0
DIMENSION
  5
1EF
330
6C
100
AcDbEntity
  8
Dimension (ANSI)
100
AcDbDimension
  2
*D4
 10
12.09599505898717
 20
50.14211666968103
 30
0.0
 11
26.19599505898718
 21
50.14211666968103
 31
0.0
 70
   160
  1
<>
 42
28.20000000000001
  3
Default (ANSI)
100
AcDbAlignedDimension
 13
40.29599505898718
 23
43.52794344133457
 33
0.0
 14
12.09599505898717
 24
43.52794344133457
 34
0.0
 50
180.0
100
AcDbRotatedDimension
1001
ACAD
1000
DSTYLE
1002
{
1070
   289
1070
     1
1070
    73
1070
     0
1070
    74
1070
     0
1070
   271
1070
     3
1070
   272
1070
     2
1070
    48
1040
0.0
1070
    47
1040
0.0
1002
}
  0
DIMENSION
  5
2DC
330
6C
100
AcDbEntity
  8
Dimension (ANSI)
100
AcDbDimension
  2
*D5
 10
3.705331889252546
 20
15.82794344133457
 30
0.0
 11
3.705331889252545
 21
30.9189068826362
 31
0.0
 70
   160
  1
<>
 42
28.2
  3
Default (ANSI)
100
AcDbAlignedDimension
 13
12.59599505898717
 23
44.02794344133456
 33
0.0
 14
12.59599505898718
 24
15.82794344133457
 34
0.0
 50
270.0
100
AcDbRotatedDimension
1001
ACAD
1000
DSTYLE
1002
{
1070
   289
1070
     1
1070
   271
1070
     3
1070
   272
1070
     2
1070
    48
1040
0.0
1070
    47
1040
0.0
1002
}
  0
DIMENSION
  5
3C6
330
6C
100
AcDbEntity
  8
Dimension (ANSI)
100
AcDbDimension
  2
*D6
 10
12.51215999795753
 20
16.57535997569602
 30
0.0
 11
17.9206935196873
 21
11.51269170517207
 31
0.0
 70
   163
  1
<>{\PTYP.(6PL.)}
 42
0.5
  3
Default (ANSI)
100
AcDbDiametricDimension
 15
12.71983012001683
 25
16.12052690697312
 35
0.0
 40
0.0
1001
ACAD_DSTYLE_DIMRADIAL_EXTENSION
1070
   387
1070
     1
1070
   388
1040
0.0
1070
   390
1040
0.0
1001
ACAD
1000
DSTYLE
1002
{
1070
   145
1040
-0.25
1070
   144
1040
0.9999999999999964
1070
   271
1070
     3
1070
   272
1070
     2
1070
    48
1040
0.0
1070
    47
1040
0.0
1002
}
  0
DIMENSION
  5
480
330
6C
100
AcDbEntity
  8
Dimension (ANSI)
100
AcDbDimension
  2
*D7
 10
12.51659962561024
 20
17.21850301301517
 30
0.0
 11
17.89444981900669
 21
14.45198626110914
 31
0.0
 70
   163
  1
<>{\PTYP.(4PL.)}
 42
0.3125
  3
Default (ANSI)
100
AcDbDiametricDimension
 15
12.71539049236412
 25
16.97738386965397
 35
0.0
 40
0.0
1001
ACAD_DSTYLE_DIMRADIAL_EXTENSION
1070
   387
1070
     1
1070
   388
1040
0.0
1070
   390
1040
0.0
1001
ACAD
1000
DSTYLE
1002
{
1070
   145
1040
-0.25
1070
   144
1040
1.0
1070
   271
1070
     3
1070
   272
1070
     2
1070
    48
1040
0.0
1070
    47
1040
0.0
1002
}
  0
DIMENSION
  5
539
330
6C
100
AcDbEntity
  8
Dimension (ANSI)
100
AcDbDimension
  2
*D8
 10
53.66791614457461
 20
16.68439268922649
 30
0.0
 11
49.93130683262091
 21
16.68439268922649
 31
0.0
 70
   160
  1
 12 GA.\P304 SS
 42
0.09375
  3
Default (ANSI)
100
AcDbAlignedDimension
 13
53.57416614457462
 23
33.68184315401778
 33
0.0
 14
53.66791614457461
 24
33.68184315401778
 34
0.0
 50
180.0
100
AcDbRotatedDimension
1001
ACAD
1000
DSTYLE
1002
{
1070
   289
1070
     1
1070
    73
1070
     0
1070
    74
1070
     0
1070
   145
1040
-0.25
1070
   271
1070
     3
1070
   272
1070
     2
1070
    48
1040
0.0
1070
    47
1040
0.0
1002
}
  0
DIMENSION
  5
637
330
6C
100
AcDbEntity
  8
Dimension (ANSI)
100
AcDbDimension
  2
*D9
 10
7.021391523399378
 20
16.34794344133457
 30
0.0
 11
7.021391523399376
 21
28.22956368728011
 31
0.0
 70
   160
  1
<>
 42
27.16
  3
Default (ANSI)
100
AcDbAlignedDimension
 13
12.61599505898718
 23
43.50794344133457
 33
0.0
 14
12.61599505898718
 24
16.34794344133457
 34
0.0
 50
90.0
100
AcDbRotatedDimension
1001
ACAD
1000
DSTYLE
1002
{
1070
   289
1070
     1
1070
   271
1070
     3
1070
   272
1070
     2
1070
    48
1040
0.0
1070
    47
1040
0.0
1002
}
  0
DIMENSION
  5
721
330
6C
100
AcDbEntity
  8
Dimension (ANSI)
100
AcDbDimension
  2
*D10
 10
8.195597902802562
 20
16.34794344133457
 30
0.0
 11
10.04520423855233
 21
18.94603898056105
 31
0.0
 70
   160
  1
<>
 42
0.75
  3
Default (ANSI)
100
AcDbAlignedDimension
 13
12.61599505898718
 23
17.09794344133457
 33
0.0
 14
12.61599505898718
 24
16.34794344133457
 34
0.0
 50
90.0
100
AcDbRotatedDimension
1001
ACAD
1000
DSTYLE
1002
{
1070
   289
1070
     1
1070
   271
1070
     3
1070
   272
1070
     2
1070
    48
1040
0.0
1070
    47
1040
0.0
1002
}
  0
DIMENSION
  5
81F
330
6C
100
AcDbEntity
  8
Dimension (ANSI)
100
AcDbDimension
  2
*D11
 10
12.61599505898718
 20
48.08050858317045
 30
0.0
 11
26.19599505898718
 21
48.08050858317045
 31
0.0
 70
   160
  1
<>
 42
27.16
  3
Default (ANSI)
100
AcDbAlignedDimension
 13
39.77599505898718
 23
43.50794344133457
 33
0.0
 14
12.61599505898718
 24
43.50794344133457
 34
0.0
 50
180.0
100
AcDbRotatedDimension
1001
ACAD
1000
DSTYLE
1002
{
1070
   289
1070
     1
1070
    73
1070
     0
1070
    74
1070
     0
1070
   271
1070
     3
1070
   272
1070
     2
1070
    48
1040
0.0
1070
    47
1040
0.0
1002
}
  0
DIMENSION
  5
909
330
6C
100
AcDbEntity
  8
Dimension (ANSI)
100
AcDbDimension
  2
*D12
 10
40.53516313920415
 20
15.82794344133457
 30
0.0
 11
42.38476947495392
 21
17.75329312590422
 31
0.0
 70
   160
  1
<>
 42
0.5000000000000054
  3
Default (ANSI)
100
AcDbAlignedDimension
 13
40.29599505898718
 23
16.32794344133457
 33
0.0
 14
39.79599505898718
 24
15.82794344133457
 34
0.0
 50
90.0
100
AcDbRotatedDimension
1001
ACAD
1000
DSTYLE
1002
{
1070
   289
1070
     1
1070
   271
1070
     3
1070
   272
1070
     2
1070
    48
1040
0.0
1070
    47
1040
0.0
1002
}
  0
DIMENSION
  5
A09
330
6C
100
AcDbEntity
  8
Dimension (ANSI)
100
AcDbDimension
  2
*D13
 10
39.79599505898718
 20
13.97410318953742
 30
0.0
 11
36.85638809768432
 21
13.97410318953742
 31
0.0
 70
   160
  1
<>
 42
0.5
  3
Default (ANSI)
100
AcDbAlignedDimension
 13
40.29599505898718
 23
16.32794344133457
 33
0.0
 14
39.79599505898718
 24
15.82794344133457
 34
0.0
 50
180.0
100
AcDbRotatedDimension
1001
ACAD
1000
DSTYLE
1002
{
1070
   289
1070
     1
1070
    73
1070
     0
1070
    74
1070
     0
1070
   271
1070
     3
1070
   272
1070
     2
1070
    48
1040
0.0
1070
    47
1040
0.0
1002
}
  0
DIMENSION
  5
AF3
330
6C
100
AcDbEntity
  8
Dimension (ANSI)
100
AcDbDimension
  2
*D14
 10
40.29599505898718
 20
46.29617126773871
 30
0.0
 11
36.86546176236304
 21
46.29617126773871
 31
0.0
 70
   160
  1
<>
 42
0.5200000000000032
  3
Default (ANSI)
100
AcDbAlignedDimension
 13
39.77599505898718
 23
43.50794344133457
 33
0.0
 14
40.29599505898718
 24
43.52794344133457
 34
0.0
 50
180.0
100
AcDbRotatedDimension
1001
ACAD
1000
DSTYLE
1002
{
1070
   289
1070
     1
1070
    73
1070
     0
1070
    74
1070
     0
1070
   271
1070
     3
1070
   272
1070
     2
1070
    48
1040
0.0
1070
    47
1040
0.0
1002
}
  0
DIMENSION
  5
BDD
330
6C
100
AcDbEntity
  8
Dimension (ANSI)
100
AcDbDimension
  2
*D15
 10
45.27138518729119
 20
44.02794344133457
 30
0.0
 11
43.4217788515414
 21
42.08259375676493
 31
0.0
 70
   160
  1
<>
 42
0.5200000000000032
  3
Default (ANSI)
100
AcDbAlignedDimension
 13
39.77599505898718
 23
43.50794344133457
 33
0.0
 14
39.79599505898717
 24
44.02794344133457
 34
0.0
 50
270.0
100
AcDbRotatedDimension
1001
ACAD
1000
DSTYLE
1002
{
1070
   289
1070
     1
1070
   271
1070
     3
1070
   272
1070
     2
1070
    48
1040
0.0
1070
    47
1040
0.0
1002
}
  0
MTEXT
  5
CDD
102
{ACAD_XDICTIONARY
360
DD7
102
}
330
6C
100
AcDbEntity
  8
Symbol (ANSI)
100
AcDbMText
 10
48.90904149187065
 20
11.93166398956782
 30
0.0
 40
0.600000007415381
 41
33.87892494522861
 71
     1
 72
     1
  3
{\fRomanS|b0|i0|c0|p2;\H2x;PART#: NP3030SSC\P(DATA SUBJECT TO CHANGE \H1.4574x; \H0.68616x;WITHOUT NOTICE) \H1.3503x; \H0.74058x;\P\H0.6x;THIS DRAWING IS PROPERTY OF HUBBELL INC. WIEGMANN\H1.3089x; \H0.76402x;\PALL INFORMATION IS PROPRIETARY AND NOT 
  1
TO BE \H1.0612x; \H0.94229x;DUPLICATED\H1.1097x; \H0.75093x;\P\H1.1203x; }
  7
Note Text (ANSI)
 73
     1
 44
0.8968595266342163
1001
ACAD
1000
MTEXTBEGIN
1070
    73
1070
     1
1070
    44
1040
0.8968595266342163
1070
    74
1070
     0
1000
MTEXTEND
  0
DIMENSION
  5
CDF
330
6C
100
AcDbEntity
  8
Dimension (ANSI)
100
AcDbDimension
  2
*D16
 10
54.34816614457461
 20
46.04762848070465
 30
0.0
 11
50.63455918327175
 21
46.04762848070465
 31
0.0
 70
   160
  1
<>
 42
0.7739999999999938
  3
Default (ANSI)
100
AcDbAlignedDimension
 13
53.57416614457462
 23
43.52794344133457
 33
0.0
 14
54.34816614457461
 24
42.30994344133457
 34
0.0
 50
180.0
100
AcDbRotatedDimension
1001
ACAD
1000
DSTYLE
1002
{
1070
   289
1070
     1
1070
    73
1070
     0
1070
    74
1070
     0
1070
   271
1070
     3
1070
   272
1070
     2
1070
    48
1040
0.0
1070
    47
1040
0.0
1002
}
  0
ENDSEC
  0
SECTION
  2
OBJECTS
  0
DICTIONARY
  5
C
330
0
100
AcDbDictionary
281
     1
  3
ACAD_CIP_PREVIOUS_PRODUCT_INFO
350
DC9
  3
ACAD_COLOR
350
63
  3
ACAD_GROUP
350
D
  3
ACAD_LAYOUT
350
62
  3
ACAD_MATERIAL
350
10
  3
ACAD_MLEADERSTYLE
350
66
  3
ACAD_MLINESTYLE
350
5F
  3
ACAD_PLOTSETTINGS
350
61
  3
ACAD_PLOTSTYLENAME
350
E
  3
ACAD_SCALELIST
350
42
  3
ACAD_TABLESTYLE
350
64
  3
ACAD_VISUALSTYLE
350
29
  3
ACDB_RECOMPOSE_DATA
350
DD9
  3
AcDbVariableDictionary
350
76
  3
DWGPROPS
350
DDA
  0
DICTIONARY
  5
E16
330
47A
100
AcDbDictionary
280
     1
281
     1
  3
ACAD_MTEXT_RT
360
E17
  0
DICTIONARY
  5
E18
330
533
100
AcDbDictionary
280
     1
281
     1
  3
ACAD_MTEXT_RT
360
E19
  0
DICTIONARY
  5
DD7
330
CDD
100
AcDbDictionary
280
     1
281
     1
  3
ACAD_MTEXT_2008_RT
360
DD8
  0
XRECORD
  5
DC9
102
{ACAD_REACTORS
330
C
102
}
330
C
100
AcDbXrecord
280
     1
300
INVNTOR
300
2012
300
85795PDSP_2012_0F
  0
DICTIONARY
  5
63
102
{ACAD_REACTORS
330
C
102
}
330
C
100
AcDbDictionary
281
     1
  0
DICTIONARY
  5
D
102
{ACAD_REACTORS
330
C
102
}
330
C
100
AcDbDictionary
281
     1
  0
DICTIONARY
  5
62
102
{ACAD_REACTORS
330
C
102
}
330
C
100
AcDbDictionary
281
     1
  3
Layout1
350
6B
  3
Layout2
350
73
  3
Model
350
6F
  0
DICTIONARY
  5
10
102
{ACAD_REACTORS
330
C
102
}
330
C
100
AcDbDictionary
281
     1
  3
ByBlock
350
19
  3
ByLayer
350
11
  3
Global
350
21
  0
DICTIONARY
  5
66
102
{ACAD_REACTORS
330
C
102
}
330
C
100
AcDbDictionary
281
     1
  3
Standard
350
67
  0
DICTIONARY
  5
5F
102
{ACAD_REACTORS
330
C
102
}
330
C
100
AcDbDictionary
281
     1
  3
Standard
350
60
  0
DICTIONARY
  5
61
102
{ACAD_REACTORS
330
C
102
}
330
C
100
AcDbDictionary
281
     1
  0
ACDBDICTIONARYWDFLT
  5
E
102
{ACAD_REACTORS
330
C
102
}
330
C
100
AcDbDictionary
281
     1
  3
Normal
350
F
100
AcDbDictionaryWithDefault
340
F
  0
DICTIONARY
  5
42
102
{ACAD_REACTORS
330
C
102
}
330
C
100
AcDbDictionary
281
     1
  3
A0
350
43
  3
A1
350
44
  3
A2
350
45
  3
A3
350
46
  3
A4
350
47
  3
A5
350
48
  3
A6
350
49
  3
A7
350
4A
  3
A8
350
4B
  3
A9
350
4C
  3
B0
350
4D
  3
B1
350
4E
  3
B2
350
4F
  3
B3
350
50
  3
B4
350
51
  3
B5
350
52
  3
B6
350
53
  0
DICTIONARY
  5
64
102
{ACAD_REACTORS
330
C
102
}
330
C
100
AcDbDictionary
281
     1
  3
Standard
350
65
  0
DICTIONARY
  5
29
102
{ACAD_REACTORS
330
C
102
}
330
C
100
AcDbDictionary
281
     1
  3
2dWireframe
350
2F
  3
Basic
350
2E
  3
Brighten
350
35
  3
ColorChange
350
39
  3
Conceptual
350
32
  3
Dim
350
34
  3
EdgeColorOff
350
41
  3
Facepattern
350
38
  3
Flat
350
2A
  3
FlatWithEdges
350
2B
  3
Gouraud
350
2C
  3
GouraudWithEdges
350
2D
  3
Hidden
350
31
  3
JitterOff
350
3F
  3
Linepattern
350
37
  3
OverhangOff
350
40
  3
Realistic
350
33
  3
Shaded
350
3E
  3
Shaded with edges
350
3D
  3
Shades of Gray
350
3A
  3
Sketchy
350
3B
  3
Thicken
350
36
  3
Wireframe
350
30
  3
X-Ray
350
3C
  0
XRECORD
  5
DD9
102
{ACAD_REACTORS
330
C
102
}
330
C
100
AcDbXrecord
280
     1
 90
        1
330
65
330
CDD
  0
DICTIONARY
  5
76
102
{ACAD_REACTORS
330
C
102
}
330
C
100
AcDbDictionary
281
     1
  3
CANNOSCALE
350
79
  3
CMLEADERSTYLE
350
78
  3
CTABLESTYLE
350
77
  3
DIMASSOC
350
DD1
  3
HIDETEXT
350
DD0
  3
INDEXCTL
350
DCF
  3
LAYEREVAL
350
DCC
  3
LAYERNOTIFY
350
DCD
  3
LIGHTINGUNITS
350
DCB
  3
MSLTSCALE
350
DCA
  3
SORTENTS
350
DCE
  3
XCLIPFRAME
350
DD2
  0
XRECORD
  5
DDA
102
{ACAD_REACTORS
330
C
102
}
330
C
100
AcDbXrecord
280
     1
  1
DWGPROPS COOKIE
  2

  3

  4
dnichola
  6

  7

  8

  9
-
300
Manager=
301
Company=
302
Category=
303
Part Number=NP3030SSC-S
304
Description=
305
Project=
306
Designer=dnichola
307
Engineer=
308
Authority=
309
Cost Center=
 40
0.0000368634259259
 41
2455944.621186794
 42
2455944.621186794
  1

 90
       19
300
Vendor=
300
User Status=
300
Design Status=WorkInProgress
300
Checked by=
300
Engr Approved by=
300
Mfg Approved by=
300
DWG. NO=
300
NUMBER OF SHEETS=1
300
DRAWING #=
  0
XRECORD
  5
E17
102
{ACAD_REACTORS
330
E16
102
}
330
E16
100
AcDbXrecord
280
     1
 40
31496.0
  1
\A1;\U+22050.500{\PTYP.(6PL.)}
  0
XRECORD
  5
E19
102
{ACAD_REACTORS
330
E18
102
}
330
E18
100
AcDbXrecord
280
     1
 40
31481.0
  1
\A1;\U+22050.313{\PTYP.(4PL.)}
  0
XRECORD
  5
DD8
102
{ACAD_REACTORS
330
DD7
102
}
330
DD7
100
AcDbXrecord
280
     1
 40
3515251.0
  1
\pxsm0.94;{\fRomanS|b0|i0;\H1.2000;PART#: NP3030SSC\P(DATA SUBJECT TO CHANGE WITHOUT NOTICE) \P\fRomanS|b0|i0;\H0.7200;THIS DRAWING IS PROPERTY OF HUBBELL INC. WIEGMANN\PALL INFORMATION IS PROPRIETARY AND NOT TO BE DUPLICATED\fRomanS|b0|i0;\H0.6000;\
  1
P}
  0
LAYOUT
  5
6B
102
{ACAD_XDICTIONARY
360
E10
102
}
102
{ACAD_REACTORS
330
62
102
}
330
62
100
AcDbPlotSettings
  1

  2

  4

  6

 40
0.0
 41
0.0
 42
0.0
 43
0.0
 44
0.0
 45
0.0
 46
0.0
 47
0.0
 48
0.0
 49
0.0
140
0.0
141
0.0
142
1.0
143
1.0
 70
   688
 72
     0
 73
     0
 74
     5
  7

 75
    16
147
1.0
148
0.0
149
0.0
100
AcDbLayout
  1
Layout1
 70
     1
 71
     1
 10
0.0
 20
0.0
 11
12.0
 21
9.0
 12
0.0
 22
0.0
 32
0.0
 14
0.0
 24
0.0
 34
0.0
 15
0.0
 25
0.0
 35
0.0
146
0.0
 13
0.0
 23
0.0
 33
0.0
 16
1.0
 26
0.0
 36
0.0
 17
0.0
 27
1.0
 37
0.0
 76
     0
330
68
  0
LAYOUT
  5
73
102
{ACAD_XDICTIONARY
360
E14
102
}
102
{ACAD_REACTORS
330
62
102
}
330
62
100
AcDbPlotSettings
  1

  2

  4

  6

 40
0.0
 41
0.0
 42
0.0
 43
0.0
 44
0.0
 45
0.0
 46
0.0
 47
0.0
 48
0.0
 49
0.0
140
0.0
141
0.0
142
1.0
143
1.0
 70
   688
 72
     0
 73
     0
 74
     5
  7

 75
    16
147
1.0
148
0.0
149
0.0
100
AcDbLayout
  1
Layout2
 70
     1
 71
     2
 10
0.0
 20
0.0
 11
12.0
 21
9.0
 12
0.0
 22
0.0
 32
0.0
 14
0.0
 24
0.0
 34
0.0
 15
0.0
 25
0.0
 35
0.0
146
0.0
 13
0.0
 23
0.0
 33
0.0
 16
1.0
 26
0.0
 36
0.0
 17
0.0
 27
1.0
 37
0.0
 76
     0
330
70
  0
LAYOUT
  5
6F
102
{ACAD_XDICTIONARY
360
E12
102
}
102
{ACAD_REACTORS
330
62
102
}
330
62
100
AcDbPlotSettings
  1

  2

  4

  6

 40
0.0
 41
0.0
 42
0.0
 43
0.0
 44
0.0
 45
0.0
 46
0.0
 47
0.0
 48
0.0
 49
0.0
140
0.0
141
0.0
142
1.0
143
1.0
 70
  1712
 72
     0
 73
     0
 74
     0
  7

 75
     0
147
1.0
148
0.0
149
0.0
100
AcDbLayout
  1
Model
 70
     1
 71
     0
 10
0.0
 20
0.0
 11
12.0
 21
9.0
 12
0.0
 22
0.0
 32
0.0
 14
0.0
 24
0.0
 34
0.0
 15
0.0
 25
0.0
 35
0.0
146
0.0
 13
0.0
 23
0.0
 33
0.0
 16
1.0
 26
0.0
 36
0.0
 17
0.0
 27
1.0
 37
0.0
 76
     0
330
6C
  0
MATERIAL
  5
19
102
{ACAD_XDICTIONARY
360
1A
102
}
102
{ACAD_REACTORS
330
10
102
}
330
10
100
AcDbMaterial
  1
ByBlock
 72
     0
 43
0.0208333333333333
 43
0.0
 43
0.0
 43
0.0
 43
0.0
 43
0.0208333333333333
 43
0.0
 43
0.0
 43
0.0
 43
0.0
 43
1.0
 43
0.0
 43
0.0
 43
0.0
 43
0.0
 43
1.0
 77
     0
 47
0.0208333333333333
 47
0.0
 47
0.0
 47
0.0
 47
0.0
 47
0.0208333333333333
 47
0.0
 47
0.0
 47
0.0
 47
0.0
 47
1.0
 47
0.0
 47
0.0
 47
0.0
 47
0.0
 47
1.0
171
     0
 49
0.0208333333333333
 49
0.0
 49
0.0
 49
0.0
 49
0.0
 49
0.0208333333333333
 49
0.0
 49
0.0
 49
0.0
 49
0.0
 49
1.0
 49
0.0
 49
0.0
 49
0.0
 49
0.0
 49
1.0
175
     0
142
0.0208333333333333
142
0.0
142
0.0
142
0.0
142
0.0
142
0.0208333333333333
142
0.0
142
0.0
142
0.0
142
0.0
142
1.0
142
0.0
142
0.0
142
0.0
142
0.0
142
1.0
179
     0
144
0.0208333333333333
144
0.0
144
0.0
144
0.0
144
0.0
144
0.0208333333333333
144
0.0
144
0.0
144
0.0
144
0.0
144
1.0
144
0.0
144
0.0
144
0.0
144
0.0
144
1.0
147
0.0208333333333333
147
0.0
147
0.0
147
0.0
147
0.0
147
0.0208333333333333
147
0.0
147
0.0
147
0.0
147
0.0
147
1.0
147
0.0
147
0.0
147
0.0
147
0.0
147
1.0
  0
MATERIAL
  5
11
102
{ACAD_XDICTIONARY
360
12
102
}
102
{ACAD_REACTORS
330
10
102
}
330
10
100
AcDbMaterial
  1
ByLayer
 72
     0
 43
0.0208333333333333
 43
0.0
 43
0.0
 43
0.0
 43
0.0
 43
0.0208333333333333
 43
0.0
 43
0.0
 43
0.0
 43
0.0
 43
1.0
 43
0.0
 43
0.0
 43
0.0
 43
0.0
 43
1.0
 77
     0
 47
0.0208333333333333
 47
0.0
 47
0.0
 47
0.0
 47
0.0
 47
0.0208333333333333
 47
0.0
 47
0.0
 47
0.0
 47
0.0
 47
1.0
 47
0.0
 47
0.0
 47
0.0
 47
0.0
 47
1.0
171
     0
 49
0.0208333333333333
 49
0.0
 49
0.0
 49
0.0
 49
0.0
 49
0.0208333333333333
 49
0.0
 49
0.0
 49
0.0
 49
0.0
 49
1.0
 49
0.0
 49
0.0
 49
0.0
 49
0.0
 49
1.0
175
     0
142
0.0208333333333333
142
0.0
142
0.0
142
0.0
142
0.0
142
0.0208333333333333
142
0.0
142
0.0
142
0.0
142
0.0
142
1.0
142
0.0
142
0.0
142
0.0
142
0.0
142
1.0
179
     0
144
0.0208333333333333
144
0.0
144
0.0
144
0.0
144
0.0
144
0.0208333333333333
144
0.0
144
0.0
144
0.0
144
0.0
144
1.0
144
0.0
144
0.0
144
0.0
144
0.0
144
1.0
147
0.0208333333333333
147
0.0
147
0.0
147
0.0
147
0.0
147
0.0208333333333333
147
0.0
147
0.0
147
0.0
147
0.0
147
1.0
147
0.0
147
0.0
147
0.0
147
0.0
147
1.0
  0
MATERIAL
  5
21
102
{ACAD_XDICTIONARY
360
22
102
}
102
{ACAD_REACTORS
330
10
102
}
330
10
100
AcDbMaterial
  1
Global
 72
     0
 43
0.0208333333333333
 43
0.0
 43
0.0
 43
0.0
 43
0.0
 43
0.0208333333333333
 43
0.0
 43
0.0
 43
0.0
 43
0.0
 43
1.0
 43
0.0
 43
0.0
 43
0.0
 43
0.0
 43
1.0
 77
     0
 47
0.0208333333333333
 47
0.0
 47
0.0
 47
0.0
 47
0.0
 47
0.0208333333333333
 47
0.0
 47
0.0
 47
0.0
 47
0.0
 47
1.0
 47
0.0
 47
0.0
 47
0.0
 47
0.0
 47
1.0
171
     0
 49
0.0208333333333333
 49
0.0
 49
0.0
 49
0.0
 49
0.0
 49
0.0208333333333333
 49
0.0
 49
0.0
 49
0.0
 49
0.0
 49
1.0
 49
0.0
 49
0.0
 49
0.0
 49
0.0
 49
1.0
175
     0
142
0.0208333333333333
142
0.0
142
0.0
142
0.0
142
0.0
142
0.0208333333333333
142
0.0
142
0.0
142
0.0
142
0.0
142
1.0
142
0.0
142
0.0
142
0.0
142
0.0
142
1.0
179
     0
144
0.0208333333333333
144
0.0
144
0.0
144
0.0
144
0.0
144
0.0208333333333333
144
0.0
144
0.0
144
0.0
144
0.0
144
1.0
144
0.0
144
0.0
144
0.0
144
0.0
144
1.0
147
0.0208333333333333
147
0.0
147
0.0
147
0.0
147
0.0
147
0.0208333333333333
147
0.0
147
0.0
147
0.0
147
0.0
147
1.0
147
0.0
147
0.0
147
0.0
147
0.0
147
1.0
  0
MLEADERSTYLE
  5
67
102
{ACAD_XDICTIONARY
360
DD5
102
}
102
{ACAD_REACTORS
330
66
102
}
330
66
100
AcDbMLeaderStyle
170
     2
171
     1
172
     0
 90
        2
 40
0.0
 41
0.0
173
     1
 91
-1056964608
340
5B
 92
       -2
290
     1
 42
0.09
291
     1
 43
0.36
  3
Standard
 44
0.18
300

342
55
174
     1
178
     6
175
     1
176
     0
 93
-1056964608
 45
0.18
292
     0
297
     0
 46
0.18
 94
-1056964608
 47
1.0
 49
1.0
140
1.0
293
     1
141
0.0
294
     1
177
     0
142
1.0
295
     0
296
     0
143
0.125
1001
ACAD_MLEADERVER
1070
     2
  0
MLINESTYLE
  5
60
102
{ACAD_REACTORS
330
5F
102
}
330
5F
100
AcDbMlineStyle
  2
STANDARD
 70
     0
  3

 62
   256
 51
90.0
 52
90.0
 71
     2
 49
0.5
 62
   256
  6
BYLAYER
 49
-0.5
 62
   256
  6
BYLAYER
  0
ACDBPLACEHOLDER
  5
F
102
{ACAD_REACTORS
330
E
102
}
330
E
  0
SCALE
  5
43
102
{ACAD_REACTORS
330
42
102
}
330
42
100
AcDbScale
 70
     0
300
1:1
140
1.0
141
1.0
290
     1
  0
SCALE
  5
44
102
{ACAD_REACTORS
330
42
102
}
330
42
100
AcDbScale
 70
     0
300
1/128" = 1'-0"
140
0.0078125
141
12.0
290
     0
  0
SCALE
  5
45
102
{ACAD_REACTORS
330
42
102
}
330
42
100
AcDbScale
 70
     0
300
1/64" = 1'-0"
140
0.015625
141
12.0
290
     0
  0
SCALE
  5
46
102
{ACAD_REACTORS
330
42
102
}
330
42
100
AcDbScale
 70
     0
300
1/32" = 1'-0"
140
0.03125
141
12.0
290
     0
  0
SCALE
  5
47
102
{ACAD_REACTORS
330
42
102
}
330
42
100
AcDbScale
 70
     0
300
1/16" = 1'-0"
140
0.0625
141
12.0
290
     0
  0
SCALE
  5
48
102
{ACAD_REACTORS
330
42
102
}
330
42
100
AcDbScale
 70
     0
300
3/32" = 1'-0"
140
0.09375
141
12.0
290
     0
  0
SCALE
  5
49
102
{ACAD_REACTORS
330
42
102
}
330
42
100
AcDbScale
 70
     0
300
1/8" = 1'-0"
140
0.125
141
12.0
290
     0
  0
SCALE
  5
4A
102
{ACAD_REACTORS
330
42
102
}
330
42
100
AcDbScale
 70
     0
300
3/16" = 1'-0"
140
0.1875
141
12.0
290
     0
  0
SCALE
  5
4B
102
{ACAD_REACTORS
330
42
102
}
330
42
100
AcDbScale
 70
     0
300
1/4" = 1'-0"
140
0.25
141
12.0
290
     0
  0
SCALE
  5
4C
102
{ACAD_REACTORS
330
42
102
}
330
42
100
AcDbScale
 70
     0
300
3/8" = 1'-0"
140
0.375
141
12.0
290
     0
  0
SCALE
  5
4D
102
{ACAD_REACTORS
330
42
102
}
330
42
100
AcDbScale
 70
     0
300
1/2" = 1'-0"
140
0.5
141
12.0
290
     0
  0
SCALE
  5
4E
102
{ACAD_REACTORS
330
42
102
}
330
42
100
AcDbScale
 70
     0
300
3/4" = 1'-0"
140
0.75
141
12.0
290
     0
  0
SCALE
  5
4F
102
{ACAD_REACTORS
330
42
102
}
330
42
100
AcDbScale
 70
     0
300
1" = 1'-0"
140
1.0
141
12.0
290
     0
  0
SCALE
  5
50
102
{ACAD_REACTORS
330
42
102
}
330
42
100
AcDbScale
 70
     0
300
1-1/2" = 1'-0"
140
1.5
141
12.0
290
     0
  0
SCALE
  5
51
102
{ACAD_REACTORS
330
42
102
}
330
42
100
AcDbScale
 70
     0
300
3" = 1'-0"
140
3.0
141
12.0
290
     0
  0
SCALE
  5
52
102
{ACAD_REACTORS
330
42
102
}
330
42
100
AcDbScale
 70
     0
300
6" = 1'-0"
140
6.0
141
12.0
290
     0
  0
SCALE
  5
53
102
{ACAD_REACTORS
330
42
102
}
330
42
100
AcDbScale
 70
     0
300
1'-0" = 1'-0"
140
12.0
141
12.0
290
     0
  0
TABLESTYLE
  5
65
102
{ACAD_XDICTIONARY
360
DD3
102
}
102
{ACAD_REACTORS
330
64
102
}
330
64
100
AcDbTableStyle
  3
Standard
 70
     0
 71
     0
 40
0.06
 41
0.06
280
     0
281
     0
  7
Standard
140
0.18
170
     2
 62
     0
 63
     7
283
     0
274
    -2
284
     1
 64
     0
275
    -2
285
     1
 65
     0
276
    -2
286
     1
 66
     0
277
    -2
287
     1
 67
     0
278
    -2
288
     1
 68
     0
279
    -2
289
     1
 69
     0
  7
Standard
140
0.25
170
     5
 62
     0
 63
     7
283
     0
274
    -2
284
     1
 64
     0
275
    -2
285
     1
 65
     0
276
    -2
286
     1
 66
     0
277
    -2
287
     1
 67
     0
278
    -2
288
     1
 68
     0
279
    -2
289
     1
 69
     0
  7
Standard
140
0.18
170
     5
 62
     0
 63
     7
283
     0
274
    -2
284
     1
 64
     0
275
    -2
285
     1
 65
     0
276
    -2
286
     1
 66
     0
277
    -2
287
     1
 67
     0
278
    -2
288
     1
 68
     0
279
    -2
289
     1
 69
     0
  0
VISUALSTYLE
  5
2F
102
{ACAD_XDICTIONARY
360
DE8
102
}
102
{ACAD_REACTORS
330
29
102
}
330
29
100
AcDbVisualStyle
  2
2dWireframe
 70
     4
 71
     0
 72
     2
 73
     0
 90
        0
 40
-0.6
 41
-30.0
 62
     5
 63
     7
 74
     1
 91
        4
 64
     7
 65
   257
 75
     1
175
     1
 42
1.0
 92
        0
 66
   257
 43
1.0
 76
     1
 77
     6
 78
     2
 67
     7
 79
     5
170
     0
171
     0
290
     0
174
     0
 93
        1
 44
0.0
173
     0
291
     0
 45
0.0
1001
ACAD
1000
AcDbSavedByObjectVersion
1070
     0
  0
VISUALSTYLE
  5
2E
102
{ACAD_XDICTIONARY
360
DE6
102
}
102
{ACAD_REACTORS
330
29
102
}
330
29
100
AcDbVisualStyle
  2
Basic
 70
     7
 71
     1
 72
     0
 73
     1
 90
        0
 40
-0.6
 41
-30.0
 62
     5
 63
     7
 74
     0
 91
        4
 64
     7
 65
   257
 75
     1
175
     1
 42
1.0
 92
        8
 66
     7
 43
1.0
 76
     1
 77
     6
 78
     2
 67
     7
 79
     5
170
     0
171
     0
290
     0
174
     0
 93
        1
 44
0.0
173
     0
291
     1
 45
0.0
1001
ACAD
1000
AcDbSavedByObjectVersion
1070
     0
  0
VISUALSTYLE
  5
35
102
{ACAD_XDICTIONARY
360
DF4
102
}
102
{ACAD_REACTORS
330
29
102
}
330
29
100
AcDbVisualStyle
  2
Brighten
 70
    12
 71
     2
 72
     2
 73
     0
 90
        0
 40
-0.6
 41
-30.0
 62
     5
 63
     7
 74
     1
 91
        4
 64
     7
 65
   257
 75
     1
175
     1
 42
1.0
 92
        8
 66
     7
 43
1.0
 76
     1
 77
     6
 78
     2
 67
     7
 79
     5
170
     0
171
     0
290
     0
174
     0
 93
        1
 44
50.0
173
     0
291
     1
 45
0.0
1001
ACAD
1000
AcDbSavedByObjectVersion
1070
     0
  0
VISUALSTYLE
  5
39
102
{ACAD_XDICTIONARY
360
DFC
102
}
102
{ACAD_REACTORS
330
29
102
}
330
29
100
AcDbVisualStyle
  2
ColorChange
 70
    16
 71
     2
 72
     2
 73
     3
 90
        0
 40
-0.6
 41
-30.0
 62
     5
 63
     8
 74
     1
 91
        4
 64
     7
 65
   257
 75
     1
175
     1
 42
1.0
 92
        8
 66
     8
 43
1.0
 76
     1
 77
     6
 78
     2
 67
     7
 79
     5
170
     0
171
     0
290
     0
174
     0
 93
        1
 44
0.0
173
     0
291
     1
 45
0.0
1001
ACAD
1000
AcDbSavedByObjectVersion
1070
     0
  0
VISUALSTYLE
  5
32
102
{ACAD_XDICTIONARY
360
DEE
102
}
102
{ACAD_REACTORS
330
29
102
}
330
29
100
AcDbVisualStyle
  2
Conceptual
 70
     9
 71
     3
 72
     2
 73
     0
 90
        0
 40
-0.6
 41
-30.0
 62
     5
 63
     7
 74
     2
 91
        2
 64
     7
 65
   257
 75
     1
175
     1
 42
179.0
 92
        8
 66
     7
 43
1.0
 76
     1
 77
     6
 78
     2
 67
     7
 79
     3
170
     0
171
     0
290
     0
174
     0
 93
        1
 44
0.0
173
     0
291
     0
 45
0.0
1001
ACAD
1000
AcDbSavedByObjectVersion
1070
     0
  0
VISUALSTYLE
  5
34
102
{ACAD_XDICTIONARY
360
DF2
102
}
102
{ACAD_REACTORS
330
29
102
}
330
29
100
AcDbVisualStyle
  2
Dim
 70
    11
 71
     2
 72
     2
 73
     0
 90
        0
 40
-0.6
 41
-30.0
 62
     5
 63
     7
 74
     1
 91
        4
 64
     7
 65
   257
 75
     1
175
     1
 42
1.0
 92
        8
 66
     7
 43
1.0
 76
     1
 77
     6
 78
     2
 67
     7
 79
     5
170
     0
171
     0
290
     0
174
     0
 93
        1
 44
-50.0
173
     0
291
     1
 45
0.0
1001
ACAD
1000
AcDbSavedByObjectVersion
1070
     0
  0
VISUALSTYLE
  5
41
102
{ACAD_XDICTIONARY
360
E0C
102
}
102
{ACAD_REACTORS
330
29
102
}
330
29
100
AcDbVisualStyle
  2
EdgeColorOff
 70
    22
 71
     2
 72
     2
 73
     0
 90
        0
 40
-0.6
 41
-30.0
 62
     5
 63
     7
 74
     1
 91
        4
 64
     7
 65
   257
 75
     1
175
     1
 42
1.0
 92
        8
 66
     7
 43
1.0
 76
     1
 77
     6
 78
     2
 67
     7
 79
     5
170
     0
171
     0
290
     0
174
     0
 93
        1
 44
0.0
173
     0
291
     1
 45
0.0
1001
ACAD
1000
AcDbSavedByObjectVersion
1070
     0
  0
VISUALSTYLE
  5
38
102
{ACAD_XDICTIONARY
360
DFA
102
}
102
{ACAD_REACTORS
330
29
102
}
330
29
100
AcDbVisualStyle
  2
Facepattern
 70
    15
 71
     2
 72
     2
 73
     0
 90
        0
 40
-0.6
 41
-30.0
 62
     5
 63
     7
 74
     1
 91
        4
 64
     7
 65
   257
 75
     1
175
     1
 42
1.0
 92
        8
 66
     7
 43
1.0
 76
     1
 77
     6
 78
     2
 67
     7
 79
     5
170
     0
171
     0
290
     0
174
     0
 93
        1
 44
0.0
173
     0
291
     1
 45
0.0
1001
ACAD
1000
AcDbSavedByObjectVersion
1070
     0
  0
VISUALSTYLE
  5
2A
102
{ACAD_XDICTIONARY
360
DDE
102
}
102
{ACAD_REACTORS
330
29
102
}
330
29
100
AcDbVisualStyle
  2
Flat
 70
     0
 71
     2
 72
     1
 73
     1
 90
        2
 40
-0.6
 41
30.0
 62
     5
 63
     7
 74
     0
 91
        0
 64
     7
 65
   257
 75
     1
175
     1
 42
1.0
 92
        8
 66
     7
 43
1.0
 76
     1
 77
     6
 78
     2
 67
     7
 79
     5
170
     0
171
     0
290
     0
174
     0
 93
       13
 44
0.0
173
     0
291
     1
 45
0.0
1001
ACAD
1000
AcDbSavedByObjectVersion
1070
     0
  0
VISUALSTYLE
  5
2B
102
{ACAD_XDICTIONARY
360
DE0
102
}
102
{ACAD_REACTORS
330
29
102
}
330
29
100
AcDbVisualStyle
  2
FlatWithEdges
 70
     1
 71
     2
 72
     1
 73
     1
 90
        2
 40
-0.6
 41
30.0
 62
     5
 63
     7
 74
     1
 91
        0
 64
     7
 65
   257
 75
     1
175
     1
 42
1.0
 92
        0
 66
   257
 43
1.0
 76
     1
 77
     6
 78
     2
 67
     7
 79
     5
170
     0
171
     0
290
     0
174
     0
 93
       13
 44
0.0
173
     0
291
     1
 45
0.0
1001
ACAD
1000
AcDbSavedByObjectVersion
1070
     0
  0
VISUALSTYLE
  5
2C
102
{ACAD_XDICTIONARY
360
DE2
102
}
102
{ACAD_REACTORS
330
29
102
}
330
29
100
AcDbVisualStyle
  2
Gouraud
 70
     2
 71
     2
 72
     2
 73
     1
 90
        2
 40
-0.6
 41
30.0
 62
     5
 63
     7
 74
     0
 91
        0
 64
     7
 65
   257
 75
     1
175
     1
 42
1.0
 92
        0
 66
     7
 43
1.0
 76
     1
 77
     6
 78
     2
 67
     7
 79
     5
170
     0
171
     0
290
     0
174
     0
 93
       13
 44
0.0
173
     0
291
     1
 45
0.0
1001
ACAD
1000
AcDbSavedByObjectVersion
1070
     0
  0
VISUALSTYLE
  5
2D
102
{ACAD_XDICTIONARY
360
DE4
102
}
102
{ACAD_REACTORS
330
29
102
}
330
29
100
AcDbVisualStyle
  2
GouraudWithEdges
 70
     3
 71
     2
 72
     2
 73
     1
 90
        2
 40
-0.6
 41
30.0
 62
     5
 63
     7
 74
     1
 91
        0
 64
     7
 65
   257
 75
     1
175
     1
 42
1.0
 92
        0
 66
   257
 43
1.0
 76
     1
 77
     6
 78
     2
 67
     7
 79
     5
170
     0
171
     0
290
     0
174
     0
 93
       13
 44
0.0
173
     0
291
     1
 45
0.0
1001
ACAD
1000
AcDbSavedByObjectVersion
1070
     0
  0
VISUALSTYLE
  5
31
102
{ACAD_XDICTIONARY
360
DEC
102
}
102
{ACAD_REACTORS
330
29
102
}
330
29
100
AcDbVisualStyle
  2
Hidden
 70
     6
 71
     1
 72
     2
 73
     2
 90
        0
 40
-0.6
 41
-30.0
 62
     5
 63
     7
 74
     2
 91
        2
 64
     7
 65
   257
 75
     2
175
     1
 42
40.0
 92
        0
 66
   257
 43
1.0
 76
     1
 77
     6
 78
     2
 67
     7
 79
     3
170
     0
171
     0
290
     0
174
     0
 93
        1
 44
0.0
173
     0
291
     0
 45
0.0
1001
ACAD
1000
AcDbSavedByObjectVersion
1070
     0
  0
VISUALSTYLE
  5
3F
102
{ACAD_XDICTIONARY
360
E08
102
}
102
{ACAD_REACTORS
330
29
102
}
330
29
100
AcDbVisualStyle
  2
JitterOff
 70
    20
 71
     2
 72
     2
 73
     0
 90
        0
 40
-0.6
 41
-30.0
 62
     5
 63
     7
 74
     1
 91
        4
 64
     7
 65
   257
 75
     1
175
     1
 42
1.0
 92
       10
 66
     7
 43
1.0
 76
     1
 77
     6
 78
     2
 67
     7
 79
     5
170
     0
171
     0
290
     0
174
     0
 93
        1
 44
0.0
173
     0
291
     1
 45
0.0
1001
ACAD
1000
AcDbSavedByObjectVersion
1070
     0
  0
VISUALSTYLE
  5
37
102
{ACAD_XDICTIONARY
360
DF8
102
}
102
{ACAD_REACTORS
330
29
102
}
330
29
100
AcDbVisualStyle
  2
Linepattern
 70
    14
 71
     2
 72
     2
 73
     0
 90
        0
 40
-0.6
 41
-30.0
 62
     5
 63
     7
 74
     1
 91
        4
 64
     7
 65
   257
 75
     7
175
     7
 42
1.0
 92
        8
 66
     7
 43
1.0
 76
     1
 77
     6
 78
     2
 67
     7
 79
     5
170
     0
171
     0
290
     0
174
     0
 93
        1
 44
0.0
173
     0
291
     1
 45
0.0
1001
ACAD
1000
AcDbSavedByObjectVersion
1070
     0
  0
VISUALSTYLE
  5
40
102
{ACAD_XDICTIONARY
360
E0A
102
}
102
{ACAD_REACTORS
330
29
102
}
330
29
100
AcDbVisualStyle
  2
OverhangOff
 70
    21
 71
     2
 72
     2
 73
     0
 90
        0
 40
-0.6
 41
-30.0
 62
     5
 63
     7
 74
     1
 91
        4
 64
     7
 65
   257
 75
     1
175
     1
 42
1.0
 92
        9
 66
     7
 43
1.0
 76
     1
 77
     6
 78
     2
 67
     7
 79
     5
170
     0
171
     0
290
     0
174
     0
 93
        1
 44
0.0
173
     0
291
     1
 45
0.0
1001
ACAD
1000
AcDbSavedByObjectVersion
1070
     0
  0
VISUALSTYLE
  5
33
102
{ACAD_XDICTIONARY
360
DF0
102
}
102
{ACAD_REACTORS
330
29
102
}
330
29
100
AcDbVisualStyle
  2
Realistic
 70
     8
 71
     2
 72
     3
 73
     0
 90
        2
 40
-0.6
 41
30.0
 62
     5
 63
     7
 74
     0
 91
        0
 64
     7
 65
   257
 75
     1
175
     1
 42
1.0
 92
        8
 66
   257
 43
1.0
 76
     1
 77
     6
 78
     2
 67
     7
 79
     3
170
     0
171
     0
290
     0
174
     0
 93
       13
 44
0.0
173
     0
291
     0
 45
0.0
1001
ACAD
1000
AcDbSavedByObjectVersion
1070
     0
  0
VISUALSTYLE
  5
3E
102
{ACAD_XDICTIONARY
360
E06
102
}
102
{ACAD_REACTORS
330
29
102
}
330
29
100
AcDbVisualStyle
  2
Shaded
 70
    27
 71
     2
 72
     2
 73
     1
 90
        2
 40
-0.6
 41
30.0
 62
     5
 63
     7
 74
     0
 91
        4
 64
     7
 65
   257
 75
     1
175
     1
 42
1.0
 92
        8
 66
   257
 43
1.0
 76
     1
 77
     6
 78
     2
 67
     8
 79
     3
170
     0
171
     0
290
     0
174
     0
 93
        5
 44
0.0
173
     0
291
     0
 45
0.0
1001
ACAD
1000
AcDbSavedByObjectVersion
1070
     0
  0
VISUALSTYLE
  5
3D
102
{ACAD_XDICTIONARY
360
E04
102
}
102
{ACAD_REACTORS
330
29
102
}
330
29
100
AcDbVisualStyle
  2
Shaded with edges
 70
    26
 71
     2
 72
     2
 73
     1
 90
        2
 40
-0.6
 41
30.0
 62
     5
 63
     7
 74
     1
 91
       10
 64
     7
 65
   257
 75
     2
175
     1
 42
1.0
 92
        8
 66
   257
 43
1.0
 76
     1
 77
     6
 78
     2
 67
     7
 79
     3
170
     0
171
     0
290
     0
174
     0
 93
        5
 44
0.0
173
     0
291
     0
 45
0.0
1001
ACAD
1000
AcDbSavedByObjectVersion
1070
     0
  0
VISUALSTYLE
  5
3A
102
{ACAD_XDICTIONARY
360
DFE
102
}
102
{ACAD_REACTORS
330
29
102
}
330
29
100
AcDbVisualStyle
  2
Shades of Gray
 70
    23
 71
     2
 72
     2
 73
     3
 90
        0
 40
-0.6
 41
-30.0
 62
     5
 63
     7
 74
     2
 91
        2
 64
     7
 65
     7
 75
     1
175
     1
 42
40.0
 92
        8
 66
     7
 43
1.0
 76
     1
 77
     6
 78
     2
 67
     7
 79
     3
170
     0
171
     0
290
     0
174
     0
 93
        1
 44
0.0
173
     0
291
     0
 45
0.0
1001
ACAD
1000
AcDbSavedByObjectVersion
1070
     0
  0
VISUALSTYLE
  5
3B
102
{ACAD_XDICTIONARY
360
E00
102
}
102
{ACAD_REACTORS
330
29
102
}
330
29
100
AcDbVisualStyle
  2
Sketchy
 70
    24
 71
     1
 72
     2
 73
     2
 90
        0
 40
-0.6
 41
-30.0
 62
     5
 63
     7
 74
     2
 91
        2
 64
     7
 65
     7
 75
     1
175
     1
 42
40.0
 92
       11
 66
     7
 43
1.0
 76
     1
 77
     6
 78
     2
 67
     7
 79
     6
170
     0
171
     0
290
     0
174
     0
 93
        1
 44
0.0
173
     0
291
     0
 45
0.0
1001
ACAD
1000
AcDbSavedByObjectVersion
1070
     0
  0
VISUALSTYLE
  5
36
102
{ACAD_XDICTIONARY
360
DF6
102
}
102
{ACAD_REACTORS
330
29
102
}
330
29
100
AcDbVisualStyle
  2
Thicken
 70
    13
 71
     2
 72
     2
 73
     0
 90
        0
 40
-0.6
 41
-30.0
 62
     5
 63
     7
 74
     1
 91
        4
 64
     7
 65
   257
 75
     1
175
     1
 42
1.0
 92
       12
 66
     7
 43
1.0
 76
     1
 77
     6
 78
     2
 67
     7
 79
     5
170
     0
171
     0
290
     0
174
     0
 93
        1
 44
0.0
173
     0
291
     1
 45
0.0
1001
ACAD
1000
AcDbSavedByObjectVersion
1070
     0
  0
VISUALSTYLE
  5
30
102
{ACAD_XDICTIONARY
360
DEA
102
}
102
{ACAD_REACTORS
330
29
102
}
330
29
100
AcDbVisualStyle
  2
Wireframe
 70
     5
 71
     0
 72
     2
 73
     0
 90
        0
 40
-0.6
 41
-30.0
 62
     5
 63
     7
 74
     1
 91
        4
 64
     7
 65
   257
 75
     1
175
     1
 42
1.0
 92
        0
 66
   257
 43
1.0
 76
     1
 77
     6
 78
     2
 67
     7
 79
     3
170
     0
171
     0
290
     0
174
     0
 93
        1
 44
0.0
173
     0
291
     0
 45
0.0
1001
ACAD
1000
AcDbSavedByObjectVersion
1070
     0
  0
VISUALSTYLE
  5
3C
102
{ACAD_XDICTIONARY
360
E02
102
}
102
{ACAD_REACTORS
330
29
102
}
330
29
100
AcDbVisualStyle
  2
X-Ray
 70
    25
 71
     2
 72
     2
 73
     1
 90
        1
 40
0.5
 41
-30.0
 62
     5
 63
     7
 74
     1
 91
        0
 64
     7
 65
   257
 75
     1
175
     1
 42
1.0
 92
        8
 66
     7
 43
1.0
 76
     1
 77
     6
 78
     2
 67
     7
 79
     3
170
     0
171
     0
290
     0
174
     0
 93
       13
 44
0.0
173
     0
291
     0
 45
0.0
1001
ACAD
1000
AcDbSavedByObjectVersion
1070
     0
  0
DICTIONARYVAR
  5
79
102
{ACAD_REACTORS
330
76
102
}
330
76
100
DictionaryVariables
280
     0
  1
1:1
  0
DICTIONARYVAR
  5
78
102
{ACAD_REACTORS
330
76
102
}
330
76
100
DictionaryVariables
280
     0
  1
STANDARD
  0
DICTIONARYVAR
  5
77
102
{ACAD_REACTORS
330
76
102
}
330
76
100
DictionaryVariables
280
     0
  1
STANDARD
  0
DICTIONARYVAR
  5
DD1
102
{ACAD_REACTORS
330
76
102
}
330
76
100
DictionaryVariables
280
     0
  1
1
  0
DICTIONARYVAR
  5
DD0
102
{ACAD_REACTORS
330
76
102
}
330
76
100
DictionaryVariables
280
     0
  1
1
  0
DICTIONARYVAR
  5
DCF
102
{ACAD_REACTORS
330
76
102
}
330
76
100
DictionaryVariables
280
     0
  1
0
  0
DICTIONARYVAR
  5
DCC
102
{ACAD_REACTORS
330
76
102
}
330
76
100
DictionaryVariables
280
     0
  1
0
  0
DICTIONARYVAR
  5
DCD
102
{ACAD_REACTORS
330
76
102
}
330
76
100
DictionaryVariables
280
     0
  1
0
  0
DICTIONARYVAR
  5
DCB
102
{ACAD_REACTORS
330
76
102
}
330
76
100
DictionaryVariables
280
     0
  1
2
  0
DICTIONARYVAR
  5
DCA
102
{ACAD_REACTORS
330
76
102
}
330
76
100
DictionaryVariables
280
     0
  1
1
  0
DICTIONARYVAR
  5
DCE
102
{ACAD_REACTORS
330
76
102
}
330
76
100
DictionaryVariables
280
     0
  1
127
  0
DICTIONARYVAR
  5
DD2
102
{ACAD_REACTORS
330
76
102
}
330
76
100
DictionaryVariables
280
     0
  1
2
  0
DICTIONARY
  5
E10
330
6B
100
AcDbDictionary
280
     1
281
     1
  3
ACAD_XREC_ROUNDTRIP
360
E11
  0
DICTIONARY
  5
E14
330
73
100
AcDbDictionary
280
     1
281
     1
  3
ACAD_XREC_ROUNDTRIP
360
E15
  0
DICTIONARY
  5
E12
330
6F
100
AcDbDictionary
280
     1
281
     1
  3
ACAD_XREC_ROUNDTRIP
360
E13
  0
DICTIONARY
  5
1A
330
19
100
AcDbDictionary
280
     1
281
     1
  3
ACAD_XREC_ROUNDTRIP
360
DDC
  3
BUMPTILE
360
1C
  3
DIFFUSETILE
360
1B
  3
OPACITYTILE
360
1F
  3
REFLECTIONTILE
360
1E
  3
REFRACTIONTILE
360
20
  3
SPECULARTILE
360
1D
  0
DICTIONARY
  5
12
330
11
100
AcDbDictionary
280
     1
281
     1
  3
ACAD_XREC_ROUNDTRIP
360
DDB
  3
BUMPTILE
360
14
  3
DIFFUSETILE
360
13
  3
FBXASSET
360
109
  3
OPACITYTILE
360
17
  3
REFLECTIONTILE
360
16
  3
REFRACTIONTILE
360
18
  3
SPECULARTILE
360
15
  0
DICTIONARY
  5
22
330
21
100
AcDbDictionary
280
     1
281
     1
  3
ACAD_XREC_ROUNDTRIP
360
DDD
  3
BUMPTILE
360
24
  3
DIFFUSETILE
360
23
  3
FBXASSET
360
BA
  3
OPACITYTILE
360
27
  3
REFLECTIONTILE
360
26
  3
REFRACTIONTILE
360
28
  3
SPECULARTILE
360
25
  0
DICTIONARY
  5
DD5
330
67
100
AcDbDictionary
280
     1
281
     1
  3
ACAD_XREC_ROUNDTRIP
360
DD6
  0
DICTIONARY
  5
DD3
330
65
100
AcDbDictionary
280
     1
281
     1
  3
ACAD_ROUNDTRIP_2008_TABLESTYLE_CELLSTYLEMAP
360
DD4
  3
ACAD_XREC_ROUNDTRIP
360
E0E
  0
DICTIONARY
  5
DE8
330
2F
100
AcDbDictionary
280
     1
281
     1
  3
ACAD_XREC_ROUNDTRIP
360
DE9
  0
DICTIONARY
  5
DE6
330
2E
100
AcDbDictionary
280
     1
281
     1
  3
ACAD_XREC_ROUNDTRIP
360
DE7
  0
DICTIONARY
  5
DF4
330
35
100
AcDbDictionary
280
     1
281
     1
  3
ACAD_XREC_ROUNDTRIP
360
DF5
  0
DICTIONARY
  5
DFC
330
39
100
AcDbDictionary
280
     1
281
     1
  3
ACAD_XREC_ROUNDTRIP
360
DFD
  0
DICTIONARY
  5
DEE
330
32
100
AcDbDictionary
280
     1
281
     1
  3
ACAD_XREC_ROUNDTRIP
360
DEF
  0
DICTIONARY
  5
DF2
330
34
100
AcDbDictionary
280
     1
281
     1
  3
ACAD_XREC_ROUNDTRIP
360
DF3
  0
DICTIONARY
  5
E0C
330
41
100
AcDbDictionary
280
     1
281
     1
  3
ACAD_XREC_ROUNDTRIP
360
E0D
  0
DICTIONARY
  5
DFA
330
38
100
AcDbDictionary
280
     1
281
     1
  3
ACAD_XREC_ROUNDTRIP
360
DFB
  0
DICTIONARY
  5
DDE
330
2A
100
AcDbDictionary
280
     1
281
     1
  3
ACAD_XREC_ROUNDTRIP
360
DDF
  0
DICTIONARY
  5
DE0
330
2B
100
AcDbDictionary
280
     1
281
     1
  3
ACAD_XREC_ROUNDTRIP
360
DE1
  0
DICTIONARY
  5
DE2
330
2C
100
AcDbDictionary
280
     1
281
     1
  3
ACAD_XREC_ROUNDTRIP
360
DE3
  0
DICTIONARY
  5
DE4
330
2D
100
AcDbDictionary
280
     1
281
     1
  3
ACAD_XREC_ROUNDTRIP
360
DE5
  0
DICTIONARY
  5
DEC
330
31
100
AcDbDictionary
280
     1
281
     1
  3
ACAD_XREC_ROUNDTRIP
360
DED
  0
DICTIONARY
  5
E08
330
3F
100
AcDbDictionary
280
     1
281
     1
  3
ACAD_XREC_ROUNDTRIP
360
E09
  0
DICTIONARY
  5
DF8
330
37
100
AcDbDictionary
280
     1
281
     1
  3
ACAD_XREC_ROUNDTRIP
360
DF9
  0
DICTIONARY
  5
E0A
330
40
100
AcDbDictionary
280
     1
281
     1
  3
ACAD_XREC_ROUNDTRIP
360
E0B
  0
DICTIONARY
  5
DF0
330
33
100
AcDbDictionary
280
     1
281
     1
  3
ACAD_XREC_ROUNDTRIP
360
DF1
  0
DICTIONARY
  5
E06
330
3E
100
AcDbDictionary
280
     1
281
     1
  3
ACAD_XREC_ROUNDTRIP
360
E07
  0
DICTIONARY
  5
E04
330
3D
100
AcDbDictionary
280
     1
281
     1
  3
ACAD_XREC_ROUNDTRIP
360
E05
  0
DICTIONARY
  5
DFE
330
3A
100
AcDbDictionary
280
     1
281
     1
  3
ACAD_XREC_ROUNDTRIP
360
DFF
  0
DICTIONARY
  5
E00
330
3B
100
AcDbDictionary
280
     1
281
     1
  3
ACAD_XREC_ROUNDTRIP
360
E01
  0
DICTIONARY
  5
DF6
330
36
100
AcDbDictionary
280
     1
281
     1
  3
ACAD_XREC_ROUNDTRIP
360
DF7
  0
DICTIONARY
  5
DEA
330
30
100
AcDbDictionary
280
     1
281
     1
  3
ACAD_XREC_ROUNDTRIP
360
DEB
  0
DICTIONARY
  5
E02
330
3C
100
AcDbDictionary
280
     1
281
     1
  3
ACAD_XREC_ROUNDTRIP
360
E03
  0
XRECORD
  5
E11
102
{ACAD_REACTORS
330
E10
102
}
330
E10
100
AcDbXrecord
280
     1
102
SHADEPLOT
 70
     0
102
SHADEPLOTRESLEVEL
 70
     2
102
SHADEPLOTCUSTOMDPI
 70
   300
  0
XRECORD
  5
E15
102
{ACAD_REACTORS
330
E14
102
}
330
E14
100
AcDbXrecord
280
     1
102
SHADEPLOT
 70
     0
102
SHADEPLOTRESLEVEL
 70
     2
102
SHADEPLOTCUSTOMDPI
 70
   300
  0
XRECORD
  5
E13
102
{ACAD_REACTORS
330
E12
102
}
330
E12
100
AcDbXrecord
280
     1
102
SHADEPLOT
 70
     0
102
SHADEPLOTRESLEVEL
 70
     2
102
SHADEPLOTCUSTOMDPI
 70
   300
  0
XRECORD
  5
DDC
102
{ACAD_REACTORS
330
1A
102
}
330
1A
100
AcDbXrecord
280
     1
102
MATERIAL
148
0.0
149
0.0
149
0.0
 93
        0
 94
      127
282
     0
 72
     0
 77
     0
171
     0
175
     0
179
     0
273
     0
  0
XRECORD
  5
1C
102
{ACAD_REACTORS
330
1A
102
}
330
1A
100
AcDbXrecord
280
     1
270
     1
271
     1
  0
XRECORD
  5
1B
102
{ACAD_REACTORS
330
1A
102
}
330
1A
100
AcDbXrecord
280
     1
270
     1
271
     1
  0
XRECORD
  5
1F
102
{ACAD_REACTORS
330
1A
102
}
330
1A
100
AcDbXrecord
280
     1
270
     1
271
     1
  0
XRECORD
  5
1E
102
{ACAD_REACTORS
330
1A
102
}
330
1A
100
AcDbXrecord
280
     1
270
     1
271
     1
  0
XRECORD
  5
20
102
{ACAD_REACTORS
330
1A
102
}
330
1A
100
AcDbXrecord
280
     1
270
     1
271
     1
  0
XRECORD
  5
1D
102
{ACAD_REACTORS
330
1A
102
}
330
1A
100
AcDbXrecord
280
     1
270
     1
271
     1
  0
XRECORD
  5
DDB
102
{ACAD_REACTORS
330
12
102
}
330
12
100
AcDbXrecord
280
     1
102
MATERIAL
148
0.0
149
0.0
149
0.0
 93
        0
 94
      127
282
     0
 72
     0
 77
     0
171
     0
175
     0
179
     0
273
     0
  0
XRECORD
  5
14
102
{ACAD_REACTORS
330
12
102
}
330
12
100
AcDbXrecord
280
     1
270
     1
271
     1
  0
XRECORD
  5
13
102
{ACAD_REACTORS
330
12
102
}
330
12
100
AcDbXrecord
280
     1
270
     1
271
     1
  0
XRECORD
  5
109
102
{ACAD_REACTORS
330
12
102
}
330
12
100
AcDbXrecord
280
     1
 70
     1
 90
1959938040
 71
     1
  1
0D0CBBAA-6215-4D89-907B-E7D8CB94CBD4
311
504B03040A0000080000D07631403DEE336E79000000790000001B0000006175746F6465736B2D64657369676E2D7061636B6167652E786D6C3C3F786D6C2076657273696F6E3D22312E302220656E636F64696E673D227574662D3822203F3E3C666F726D6174733E3C666F726D61743E687474703A2F2F736368656D612E
311
6175746F6465736B2E636F6D2F64657369676E2D7061636B6167652F323030393C2F666F726D61743E3C2F666F726D6174733E504B0304140006080800D0763140D486FD9CA0000000F4000000130000005B436F6E74656E745F54797065735D2E786D6C7D8EC10E82300C865F65E91D8A1E8C310C0EEA1BF002731658846E
311
D98AC1B77784ABF1D8FE5FBFBF75BBCE937A534CCEB38643598122B6FEE978D0B0485F9C41B54DDD7D022595594E1A469170414C76A4D9A4D207E29CF43ECE46F218070CC6BECC4078ACAA135ACF422C856C0E68EA1BF5669944DDD7BCDE7B1F8E415D77AECB980613C2E4AC91FC167A2B244592486606FC29C8FD7F045B9A
311
EF7053A7E60B504B0304140006080800D07631402D43B6D8EA0000007C01000008000000636F72652E786D6C8D90D16E842010457F85CC3B2EA06EAD4136D1E817F40708B096EC0A46A0E9E71777DDA47DEBD34CEEDC3333B9FCF2BDDCD197D982F5AE035A1040C629AFAD9B3B48F18A1B4017C137EFE32F1B202717D3C12E
311
83E0F3E6D37A48CABB685CCCAAF3DA1CA20CC14440EA9E9B0E82FA348B2C648AD9116EC52AD54DCEA6A0AF2EC329598D9E47ACCEFBECD59A0DC4D4D713ADFB06BF9FA709570D63B81F4A86C7712AD9308C94563D3FEDB0E0D12EAFFB6A33321A0D8211CA30A198BE7DD0AAADABB62C3139B784F0D36EFF03A555FF134AD6C5
311
921DEF3EB10082E6471E03C14F7B16B93C82CA75CF4DFC00504B0304140006080800D076314055019EA25F0000007C00000007000000636E782E786D6C4DCB3B0E80201045D1AD90E915ED2CF8AC45050C11660C8261F98AB1B07AC9C97D42D718D865D3E909258CFD00CCE24AC6E326A164D74DC0B4128928FF326038472B
311
A13128B1252AC747C6BAB984FC68F0B87FE8960A5C09FE86CFB69FBA01504B0304140006080800D07631403602FFB866010000020300000C0000006662782F636F72652E786D6C8D52ED8E8320107C15C27F44D0F67A0DD2C4A63EC1BD0055EA992A1804D3C7BFF5A3E9F5D234171324333BBBB3A3E270EB5A346A3734D664
311
98453146DA94B66A4C9DE1E02F6487D1410A67ADFF558691519DCEF00463296A6743BF42A5355E1B0FA8B1955E41350CDA6354B670C9F0507EEB4E452A78A818AE51AFCAABAA75C422A0A14E8AC13B30809621D389E5E57C1374C1A508A1A956B6A9605A7369B4C3B2C83705DBE43BF2B92D0A92EE3827F931E1E4742A127E
311
3C9E184B734127B114BEE9EEEE4AA795D715963C669CC48CB08F2F96EE37E93E4948BCDDC7B1A053F99328F4D53F45A1313EE1ABDD453660C9C0C84CFCD91622F2685023F8A152D0294478CD093F070D8140C85E9DDBFB1E5780465D7AEB52602A1B1ED4A8DAA0616A8CE647D08585CE7303D8EC651FFEA6CFFB1EF00195A9
311
C19AF2703D073F4D17CBD4358A5E3B32FA1B32D675AA7D985B2C3ECEC7A097F2D2B6D6FD474DD755E91A269DFE5EF903504B0304140006080800D0763140020194BE7D0000009D0000000B0000006662782F636E782E786D6C4DCCD10AC2201886E15B91FFDC96A539411D4A751FA3B921731AA6D1E5B7C50E3AFAE0E1E395
311
DD6709E8EDF2CBA7A8801C8E805C7CA4C1C749412D236E01755AE694CADF0D50EC17A76063D072CAA93E771ADCD8D750560D3ECE3B726E39E15660D65E2CA682306CC45D604298A137C3E8E97C8546CBE6575A770BEB2F504B0304140006080800D0763140901ADF012C01000014020000310000006662782F373742373137
311
42392D353836422D343931352D413946392D3131354134454135343233442F636F72652E786D6C8D51CB6E833010FC15E4537A30D8602044C651A2B65FD01F70C049AC041BF951E5F3BB2E446A6FB978ADD999D9D12EDF3FA67BF6AD9CD7D6F488E60465CA0C76D4E6D2A318CE788BB2BDE0CEDAF08786322327D5A30423C1
311
2FCEC67985066B823201506347B582D27B155036DCE1D3233F5CD52473190330FC2D9FE570931795D31CDAC013DC070701B265487A9168DB634BDB6387EB6D73C4ACA3353E749F1DA6B43EB08F43CDCAEA9D178B50F018F5B8CAF50871F4592BF7AA49120B1EF4F48C3F3825831A9128092D31A198B65F94ED6AB6AB2A4C9A
311
1D21BC48F47FA2388F2F8AA236A12AD7B88BCC234179B134041F6D3CDD9F61D463B62E6469DEC6ABE10D09921308D66DEB9A170B1516009E0D5B3D7DB00E16BCB99D804D81958C1B2678916E04E5F78050D33DC50F504B0304140006080800D0763140C8248CFB4D01000033030000300000006662782F3737423731374239
311
2D353836422D343931352D413946392D3131354134454135343233442F636E782E786D6CD593CD6E022114855F85B09F1F746A1BC360D2459FA08B6E11AE4A6560C24F53DFBE1745EBC64597DD90C9B987736EBE307CF33D59F205211AEF46CADA9E1270CA6BE3F623CD69D7BC50B2113C789FEE6C943839C1488B4C05DF07
311
9FE72A69D8C96C13AAD6B8631503449F83828872B949AC57D26200B826A308D316B4064D6E46FCDA41C05550DC9E483A00797BFD207EFB092A45DE9514C1BBD22178396BD39D891265658C238DEA00936C654E5E433CB65A26D9B2F6DAF560A7DF24522E5C2B7330A4948FB49C54D48D5AE4C83B1C0A1E53407AD5944E3350
311
21E7D91A251342EECEC68B47F06C5C5A0DD56B107C40375B2D8701C3CE33C19399A03A5400994053B1E8D9A2E959C39EDFD9B07E1AD6CB65D3AFD67DCFBB62177CEBBDAD973006829F89F22E814B5430DE95F1237CD547B409C8DA87D31F402280DA7AA173CBF8CF7CBAF3FB465C01FF02F103504B0304140006080800D076
311
3140E57BFF5E9A0500007B100000340000006662782F37374237313742392D353836422D343931352D413946392D3131354134454135343233442F6F626A656374732E786D6CAD575B8F9B3814FE2B887D06729B76B262A872E9545177DAAA51AB7D1829326018EF988B6C3393E9AFDFCF6008A4C934BBEA0B60631F9FF39D
311
EF5CECBFDB67DC7AA242B222BFB1C7EEC8B6681E1531CBD31BBB5289736D5BEF025F1485EA2DB3AD9C64F4C6D6D376E0A7A2A84A3315D384545C1DCDDE2EFFB66444736A5B112752DED8327AA0197149A58A98CA4737268AB869B277C76EB370283615A47C38125A124173054D319F438AD528351E0E47B617F89EFE1FF8FA
311
69564DCFAFF26A7B86E7B35C2A92473F1D7624663A9EADDF4FAEE6CED56C3675666F26636779BB5C3BE3B7D3D1EACD6A355FBC9FE360A90424194D044DECE003B0112CF2BDE657E0572C57D38959621CE409FAC4B4A7EC60628D7DAF59D359678C3CA57E54E4398D6AAC80466D9F111DD392E6317CCEA884663D8446C3E158
311
E3D8FB3DD56373647FFA3204FA3B7A825ADDDB775FD322FC0726C84B182424D50C6CB03486365C1D1D100E8B829B7F4C5A19515430C22DCE4241C48B1D60A95E12F803319AC9424783B6C00EE085E6F7902E08A35FF3FC949649C5B9A6B11DD451B043AC50256BCDD80F2A0EDAF791814EF09566C3B53148BD94D40EE60D45
311
AE8FD8D40069259CA47039CCD43BA7932343573A4E376B3BF8781BEEB73A764F1F5E8AA2A44269FA805AADE3DAB746C9E834BEC8737A837DA4CA0194AF40FE1342FDA00AFC26D87EB69F99539420B94C0A91C137D6C87246788CAC71FDD4DFBD2FDFEB360FBD770E4F385B43F51BF01CDAD0F7650FCEC07F02E10B3135A66D
311
23C29136EE580E8034492C5E600A793809F776B041964356C62EC283314C86BA4FF8F43D230689A23EA9F7CE81E5515ABC204103B69A9150A321BF51F0E0A79FD2597DB059760EDEABDF42D7C57AFB715B898444F4CEC4F49A262C670A25EEC09BBE4203CC07163DD297E742C430F467BCB77DBC33739404DA1A730D7CDAE6
311
743D389C3C3820C2BEB4D0E9C6FFC509304217D69EFC3B2623CA39C96951B5E7BE5A3F50361A8875B06B267705E65058409AE6CF510CA2484782951AC4AE5A7549D33D63DDB7CD2730D20E962F7F91977EF60A0FB9372A782176E1CBAE494B27A1FE3EE4B6C1C0D35240F73A48DAF837A0EF6296249544123C81EBF7CDAAEF
311
3B9D1690225AA94DB4CC603F828B0843DA562EAAB520A8A445BE63A89B88BB9307F4E50352C3805AE0398D25E5C98E715E65BB847154A35D46CA3370FC7FFDC32A2B77242BAA5C9D913D501DD561A8FB80BDF299A8E8C10EB6F5DB5922F7C6343E43065D4B4E603570ED683D5A2D978B8583CEE9CA99ADAFE7CE7CF476E9BC
311
7FBBBE5E2DE7B3D5723D6BFDD46812F86DA9E94734BC84D2E6578219F77DDB207E4C12B0833BA2E4FD87263CDBF7B78D8B5ED8F7B007F5B2DBB8889FD0F7D1F8D7020E2B4F0ADA6425A719CD15D13174A73FF857823E63A04C33BFC9484A2F90F2F9C3F6C818CC5CB0EF8B8E77FA7CB4D7CCAE74409E14A21EAA2CCC09E347
311
1BD30649B7CC53835FEB93EEDD149A76A847C631E84C65C1598C3C185B292D32AA900D2F284222A312D4EBF7F4B1B97B5CB0FBA9E9101509396D3579206892B94458805A55A486F3D61F68EA745F7563A3DCBA8F78984C615BE0CC8D8D265DB1884A374481D6AD502D1C5CEA77F268FC499E72F4DACDA66EDCEDD2D80C4A72
311
B7E492FEC9D8D5A4706300D24889BE010D11BC532B13F8B56EE67FF49F0C6FD5B188C26758A9CE96C344674C7D0C42B431CADC16D0C43C9AA3F708D4D7CD1ABBF59A012217DDB25E254123D55144A4F54D41EB67545AACBF78E850ACCD67ABE4550A5F5E2EC9111464AE74808345608591591205AAAEFEBCFF220ADC6433EB
311
968102F7AB22CB8ADC0C16E6266C6D1F70AF8DEF9116A8BE90C8FBC9683CB9AF2F02E66EB20B89A42E89E52326E053C13A88078E07239BDB222A50F3A35BE769271C7173B3B64C49438E6DD7F7B3AA86052D474E2D448FBE4CEA58E92F285FBD0B78F552A820D0C507FF02504B0304140006080000D0763140000000000000
311
000000000000350000006662782F37374237313742392D353836422D343931352D413946392D3131354134454135343233442F76657274696365732E62696E504B0304140006080800D0763140F270F1330600000004000000360000006662782F37374237313742392D353836422D343931352D413946392D313135413445
311
4135343233442F747269616E676C65732E62696E636660600000504B0304140006080000D0763140000000000000000000000000370000006662782F37374237313742392D353836422D343931352D413946392D3131354134454135343233442F617474726962757465732E62696E504B0304140006080800D0763140D598
311
7DFC8F00000041010000360000006662782F37374237313742392D353836422D343931352D413946392D3131354134454135343233442F6469726563746F72792E786D6C858F410EC2201045AF4266AF15DDB800BA74E7C21B903225242D6328188F2FA5C4183471359997F9FF81E89FF3C41E1816475E02DF1F80A11FC838
311
6F25A438EECEC07A250251FC3803E6F58C12560C4AD840E95E91C151A72936F496F35732D860FE635F62C8F2DA16B505C545B74125BAA2FA9E05D7CC053D063734D5C7665FD55B6B8D15D5E9BFEAFD8490FFA45E504B0304140006080800D0763140DD2222A8FC000000A00100003B0000006662782F37374237313742392D
311
353836422D343931352D413946392D3131354134454135343233442F7265736F75726365732F636F72652E786D6C8D504B6E833010BD0A9ABD011B4852641C090427E8052C3349AD041BF953F5F835814AEDAE9B99D1FB689E1EBF7E2DCFEC139DD7D67440F3123234CACEDADC3B88E1462E905D0577D6865F32C88C5CB083
311
0D06C1EFCEC6F5809435014D48A8B1331EA0F41E0364EA998E0EBCFAC045E63286A4F08F7C95EA21EF98D33CD14927B80F2E05C8F627DB04E1D0DBE8147A5EECACE031EAF9D0E839FDD4378D0EC4D437136DFA33793B4D13A92F8C917EA81819C7A962C330525AF7BCD8CC8207BDFC64540E65C019042B29232525F4FC4EEB
311
B6A9DBAA22E5A92D4B5E6CF23FA6B8CEFF34456D42C58EB8BBCD83A029C88B10BCD8FA4AEB5566DA5BB7E21B504B010214000A0000080000D07631403DEE336E79000000790000001B00000000000000000000000000000000006175746F6465736B2D64657369676E2D7061636B6167652E786D6C504B0102140014000608
311
0800D0763140D486FD9CA0000000F40000001300000000000000000000000000B20000005B436F6E74656E745F54797065735D2E786D6C504B01021400140006080800D07631402D43B6D8EA0000007C010000080000000000000000000000000083010000636F72652E786D6C504B01021400140006080800D07631405501
311
9EA25F0000007C000000070000000000000000000000000093020000636E782E786D6C504B01021400140006080800D07631403602FFB866010000020300000C00000000000000000000000000170300006662782F636F72652E786D6C504B01021400140006080800D0763140020194BE7D0000009D0000000B0000000000
311
0000000000000000A70400006662782F636E782E786D6C504B01021400140006080800D0763140901ADF012C0100001402000031000000000000000000000000004D0500006662782F37374237313742392D353836422D343931352D413946392D3131354134454135343233442F636F72652E786D6C504B01021400140006
311
080800D0763140C8248CFB4D010000330300003000000000000000000000000000C80600006662782F37374237313742392D353836422D343931352D413946392D3131354134454135343233442F636E782E786D6C504B01021400140006080800D0763140E57BFF5E9A0500007B1000003400000000000000000000000000
311
630800006662782F37374237313742392D353836422D343931352D413946392D3131354134454135343233442F6F626A656374732E786D6C504B01021400140006080000D076314000000000000000000000000035000000000000000000000000004F0E00006662782F37374237313742392D353836422D343931352D4139
311
46392D3131354134454135343233442F76657274696365732E62696E504B01021400140006080800D0763140F270F13306000000040000003600000000000000000000000000A20E00006662782F37374237313742392D353836422D343931352D413946392D3131354134454135343233442F747269616E676C65732E6269
311
6E504B01021400140006080000D07631400000000000000000000000003700000000000000000000000000FC0E00006662782F37374237313742392D353836422D343931352D413946392D3131354134454135343233442F617474726962757465732E62696E504B01021400140006080800D0763140D5987DFC8F00000041
311
0100003600000000000000000000000000510F00006662782F37374237313742392D353836422D343931352D413946392D3131354134454135343233442F6469726563746F72792E786D6C504B01021400140006080800D0763140DD2222A8FC000000A00100003B00000000000000000000000000341000006662782F3737
311
4237313742392D353836422D343931352D413946392D3131354134454135343233442F7265736F75726365732F636F72652E786D6C504B0506000000000E000E0080040000891100000000
310
504B03040A0000080000D07631403DEE336E79000000790000001B0000006175746F6465736B2D64657369676E2D7061636B6167652E786D6C3C3F786D6C2076657273696F6E3D22312E302220656E636F64696E673D227574662D3822203F3E3C666F726D6174733E3C666F726D61743E687474703A2F2F736368656D612E
310
6175746F6465736B2E636F6D2F64657369676E2D7061636B6167652F323030393C2F666F726D61743E3C2F666F726D6174733E504B0304140006080800D0763140D486FD9CA0000000F4000000130000005B436F6E74656E745F54797065735D2E786D6C7D8EC10E82300C865F65E91D8A1E8C310C0EEA1BF002731658846E
310
D98AC1B77784ABF1D8FE5FBFBF75BBCE937A534CCEB38643598122B6FEE978D0B0485F9C41B54DDD7D022595594E1A469170414C76A4D9A4D207E29CF43ECE46F218070CC6BECC4078ACAA135ACF422C856C0E68EA1BF5669944DDD7BCDE7B1F8E415D77AECB980613C2E4AC91FC167A2B244592486606FC29C8FD7F045B9A
310
EF7053A7E60B504B0304140006080800D07631405AC38148E90000007C01000008000000636F72652E786D6C8D90416EC3201045AF82D863834D886D61A24A494FD00B2098B828315806AA1EBF3871A476D7D58CFEFC3733FAF2F43DDFD117ACD1053F6256518CC09B609D9F469CD39574189D945C4348BF6C18793DC38837
310
192B39AD212FBB64824FE053517DB0B08B3A464818997B69461CCD27CCBAD2391547BC558B36373D41C55E5D817376163D8F385BF6B9AB8315ABA6E7EC8D52418438F6845F7847FAB3E0445CDEDBEED0B1E6DC35B2DE6025939B5FF7CD0A3A812D3C650DA18CB0E307E3C3810F6D4BA8182895F566FF03E5C5FE13CACEA7B6
310
D9DF7D62112B561E790C94ACB72C4A790455EA969BFA01504B0304140006080800D076314055019EA25F0000007C00000007000000636E782E786D6C4DCB3B0E80201045D1AD90E915ED2CF8AC45050C11660C8261F98AB1B07AC9C97D42D718D865D3E909258CFD00CCE24AC6E326A164D74DC0B4128928FF326038472BA1
310
3128B1252AC747C6BAB984FC68F0B87FE8960A5C09FE86CFB69FBA01504B0304140006080800D07631408964029D65010000020300000C0000006662782F636F72652E786D6C8D52ED8E8320107C15C27F04D45ADB20CD25ED3DC1BD0055EA992A1804D3C7BFF5A3E9F5D234171324333BBBB3A3E270EB5A346A3734D61498
310
470C236D4A5B35A62E70F01792637490C259EB7F95616454A70B3CC1588ADAD9D0AF50698DD7C6036A6CA557500D83F618952D5C0A3C94DFBA53910A1E2A866BD4ABF2AA6A1DF10868A89362F00E0CA065C874627939DF045D70294268AA956D2A98D65C1AEDB08C7729FF602C2359B6DD91F494E66477CC52929D3E937C93
310
F3F898C7824E62297CD3DDDD954E2BAF2BD0331E13C609DF7EF174BF49F7494258B6674CD0A9FC4914FAEA9FA2D0189FC4ABDD453660C9C1C84CFCD91622F2685023F8A152D0294478CD093F070D8140C85E9DDBFB1E5780465D7AEB52602A1B1ED4A8DAA0612A43F323E8C242E7B9016CF6B24FFCA6CFFB1EF00195A9C19A
310
F2703D073F4D17CBD4358A5E3B32FA1B32D675AA7D985B2C3ECEC7A097F2D2B6D6FD474DD755E91A269DFE5EF903504B0304140006080800D07631404292EDDA7D0000009D0000000B0000006662782F636E782E786D6C4DCCD10A83201805E05791FFDE95DACC408D51EC3D6259C84CC3E9D8E3CF4617BB3A878FC391FD67
310
73E86DE2CB06AF805C6A40C63FC26CFDAA20A7050B40BD963184F43703E4A7CD283818B45C63C8FB49B359A6EC525167FDF3C4EE4A473134140FAC6E7143F81D77EDC830E337414B239C31A8B4AC7E4F258F63FD05504B0304140006080800D0763140270AAD1B2801000013020000310000006662782F3935324438433432
310
2D433330372D343136462D393744332D3336413832393744313633332F636F72652E786D6C8D514B6EC32014BC0A62952EB0F9388E1D61A22A514FD00B104C5294182C3E558E5FA81DA9DD65C343F366E60D3C7E784C77F0AD7D30CE0E905418026D951B8DBD0E30C50BEA203808EE9D8B7F68105839E90116180A7EF52ECD
310
2BA49C8DDAC68C5A37EA159421E80881BAE7CB0083FAD293AC648A99116ED52CD54D5E7545AADCCE3CC143F43900588694138A7E4B4FDDB1A1E8C8F00E35A4FD40FDEEC4106BDF3B9A6FA4658CD78B50F094CCB8CACD98E3988BD1FE559322163C9AE9195F792DA31EA1A09850840922BB4FD2ECB7CD9E3184DB3DC6BC2EF4
310
7FA2348F2F8A92B191D135EE220B50105E2F0DC14797CEF76718FD989D8FA0CCDB04ADDEA0C015A618777DCFEB8599DF9F2DDB66B50CD1F9FCBF9BDB3993D9EADB3682D76545B9FCEE2FD7B24EF103504B0304140006080800D0763140AE8343EC5501000033030000300000006662782F39353244384334322D433330372D
310
343136462D393744332D3336413832393744313633332F636E782E786D6CBD93CD6EC32010845F0571F75FECBA518489D4439FA0875E316C121A0C16E0AA79FB2E094973C9A152D50BB2668799D527CCB65F93219FE0837676A04D595302563AA5ED7EA04BDC156B4AB69C79E7E29D8D122B2618689229677BEF96394B0A76
310
62311155A3ED318B1E825BBC848072BA498C93C26000D8624111A6119402456E46FCDA81C755501C4F241E80BCBEBC13377E808C81552985B32A757096CEDC7467A2441A11C240833CC0244AB144A7201C4B25A2289BF2DAF560A79F24922E5C2B17AF492A1F683A29CF1B95C8915538E42C448FF4B2299E66A05CCCB3D152
310
44845C9D8D170F678BB6B1EFB25723788FEE76D5AFD718769E7116F504D9213D88088AF255DDAC8ABA299AE7B7A6DB3C759BB62DEA7E53D7AC4A76CE46E74CBE8431E0DD4CA4B3116CA4BC61551A3FC2977D44698FAC9D3FFD022402C8AD173AB78CBFE4D3F46DD7FD239FEAFCBE1197C7BF807F03504B0304140006080800
310
D07631406E987D415A070000941B0000340000006662782F39353244384334322D433330372D343136462D393744332D3336413832393744313633332F6F626A656374732E786D6CED59DD739B3810FF5718EED9D8C44E9BDC103AB1DD643CBDB49DFADAB987CC3032C8441721184924F1FDF5B7FA00033109BEE6DEFA6003
310
425AEDFEF6534BF0E129A3CE03E682E4ECC2F5BD89EB6016E70961E9855BCAEDE8CC753E8401CF73D998E63A0C65F8C255C36E18A43C2F0B3B94E02D2AA9EC8C5ECDFF72448C19769D9822212E5C11DFE10C79A8947982C5BD972089BC74FBE4F99E99D8269B7254DC7588168863268153186740C5314CF9EDC7893B0E83B1
310
7A1F06EADFCE9A0E9A35EB9F35D652B7B9244C48C4E2672C75C84C07B134F567CB8F27A7E7A3D3D96C3A9ABD3BF147F3ABF972E4BF9F4E16EF168BF3CB8FE7C0DE26CFA99529C1056609E86FE7867E30566F6AD12D0287B88E73C670AC8104A8B4585D82040BD8AA01DFA4FDE82B891AAFB5848DE7997A6F59680C4FDB54FA
310
660D03A2451704B1DB551257D7A67CF9E66F105C0C314A2EB0046E85E4A05D0B0F07AF70C3493036A361B0D9EB82082743127382A843C986230E4A81A96A4A189805968C720E0EA41C2581D69C79DDB62DF0CCD75DE71097DB9252E5196EA81D2B02F7C35268CEC83F98EFB96F22033C81B42561F2CC7229770576C3F360AC
310
07C3405DA627F6A501D2D952940A8D8879DB1174A15C7FB574C34F579BA7B50A0787372F785E602E95D1293D6ABEC090ED55A164B7F507694E2D00610CA876E51E946F80FC67881E7B56406F9C3CCD9E6676AEE488896DCE33D08D33714613F89B38BEFE57F78DBB605C2F6E6BAF0F4F705305D5D9CFE3D996416365F96FC0
310
19060F60F0399FDA57EB1851B0E71BC2002065240ECD610842FB76F3E4862B089C10E86115A2A10F2203BB0F701B8C2D99BD562AF7B25EC70051BBC774889200366D91C0468F9EAE217B7012EFD5D414B10FDED33731D7CBE5FAD3BAE45B14E31BEBD34BBC258C48C89A87196A61DE92E81EEF1E739E80A0CFF15E37F1CEEC
310
5602D056982BE0D30A04F5B0DFB9B5410CEBD25C859BE0951D400895AB1BF46F888831A588E1BCACF6ADA39B32D4DAE36DCDE0862706E2E949C784397E20AAAA00A7D9CF68310A793FE6A45020BAE1B591AC0E9A5E8F74DF579FC122EBF93DB3560C422F43F44F1DB40EE0D0B2EC0A690B442DF0661FCEE39CE63CDAEC2213
310
E95CA825808DB6B7FC681185586F94A4A8800769BFAB424A6AA48D12B2DD9602E2EA01167FAC164D73987853FFD469FE779C7106D1167C1771EB779D3D2292A114475B94F46DD7DCADA62D34C91ED21C6F29C8451E88DC4548469304A7C7407314F1F337A59ED25C08C2B0807C7510FC261A130F0289D166C5B2D26A076822
310
A20C4B448F414091E90157A71D5DE3C6503ABCCE636DBD2F69AC49F47FB2088EA096CC5944A014851CF22AE3BE770A31A48DAE41B9832F585B455B8B414B2821E25DF488497A278F41DD90EFC13D86234929A3BC403198F500B2CF7C4529B5C3FB06C5F72A7F447149DFCA4004A6DB88505A6611FC088393C710D7AE03D38B
310
2834889BD8277106451992251FB2C9BBD3C9B37D4CCDD00D818D8DB68442D88E3254F4A0DE0A88BA1E716AF02DF51EA56ECAAC885096976C90A178D3AE3759F25DB52AB203F955A522948D15614B300C08937556AD623698BA0EACE0463A50ED2281B2829A53D82B89C7AFBD4953EEDD805B3F7DDB0D3228FC7AB4D78CA8B3
310
0A06CB63AB30108F48C6776EB8D6D7D11CEAEF0427FB545FD59ACD0A10105391BCE4C4AAE8FB0ACA1B5BA3B9E10D92E2F6DA64DDEAFA7DE541F72318C31AA85DEA852B0574869944AA32B95137F41B8210DCA261C6572AA71E43E5324974D588E815E95367AB8C686D9A11AFB8C32CCFE0C76E098B6999E05B9488FBE846D2
310
684D14EB564A2F2315C62F0AF8E57ADD8107460688F4551578F8B1B3D68E2E54B9749088BC2BB30D430482604BB4D4E8C62B586A355269B9BEAA3305D45D606056C5B35F278B663BE2D7C922B586F153278BF9EE0FB46BF6451AE93C56767DD431A0CE4F8ACA5B1C0374DBA1A65A671193CCADFCD69922088A55941F5C8D55
310
41C310ECE3F83F67EDBE2C68B6EBF07F5CD6F69F551C476595D664D5A53A50B9AE9A396CB29C2CE6F3CBCB11B4664F47B3E5D9F9E87CF27E3EFAF87E79B6989FCF16F3E5AC46533B6A18D4C14CE72E783641AD1A564F1603E8CA8A9C92044EF389936288F912CEF403DAE73CC3029267B3D99DD8A6FC80D50FA6CF29D186E2
310
8A933B040D622A20AD0346652CDBE3CE6FD09A9470D0BE70A169E4DDC39FB54AD781CC73E142AB4092180B6F036D26D5D0D3C421E5EADC6F89013E88A52A259A45F573BD4A61D30AFFF5942169C0CAD5EA6140E15640F7ABD5A1D0BC599EE2A304AFD8719084DB4D29A15A33B2EC076A61F4367BF51BD92861F776EB2770DD
310
97C5F23D3DA785C8A04F062F1A81A13A9288A7BADFAD18B32C5D2EBF8EA1CFE6ACBE38052D53D0E5704A238EC1984B555081158155589A059260AA8BDF6FBFF21C3EF1648EAE8A6E177996E5CC3E5CC2792C814F44CEFA0E3EF824B7503660D55617B72713FFE456B7B36D873DDA20813D550FC140554628113AC60616F9AC
310
35651B9763A584CEF4D5D2B1E113DA00C6829E7577CDE72D07BC477D4851BEA23DBC92F3C58EF6584F056BE0D08B0EFF05504B0304140006080000D0763140000000000000000000000000350000006662782F39353244384334322D433330372D343136462D393744332D3336413832393744313633332F76657274696365
310
732E62696E504B0304140006080800D0763140F270F1330600000004000000360000006662782F39353244384334322D433330372D343136462D393744332D3336413832393744313633332F747269616E676C65732E62696E636660600000504B0304140006080000D0763140000000000000000000000000370000006662
310
782F39353244384334322D433330372D343136462D393744332D3336413832393744313633332F617474726962757465732E62696E504B0304140006080800D0763140D5987DFC8F00000041010000360000006662782F39353244384334322D433330372D343136462D393744332D3336413832393744313633332F646972
310
6563746F72792E786D6C858F410EC2201045AF4266AF15DDB800BA74E7C21B903225242D6328188F2FA5C4183471359997F9FF81E89FF3C41E1816475E02DF1F80A11FC8386F25A438EECEC07A250251FC3803E6F58C12560C4AD840E95E91C151A72936F496F35732D860FE635F62C8F2DA16B505C545B74125BAA2FA9E05
310
D7CC053D063734D5C7665FD55B6B8D15D5E9BFEAFD8490FFA45E504B0304140006080800D07631403229DC79FB000000A00100003B0000006662782F39353244384334322D433330372D343136462D393744332D3336413832393744313633332F7265736F75726365732F636F72652E786D6C8D50596EC32010BD0AE21F1B
310
BCC5B63051A5A427E805104C1C94182C96AAC72F8E5DA9FDEBCFCCE82D9AA7C7CF5FCB137D820FC6D909B382620456396DEC3CE1146FA4C7E82CB8772EFE926164E50213DE602CF8EC5D5A0F48391BC1C68C5AA7E1006508103152CF7C4C38A83B2CB2902966457814AB540F3943C18A4C679DE021FA1C00ED4FB6898587E0
310
92571078B9B382A764F4A1313AFF3437031E8B6A68D81BA52DE9BAD3409A6BD393E1D235A4BBBED77DDBB3EAD257BCDCCC8247B3FC64541E64049DFD94558432C24E1FAC19DB66AC6B42BB91525E6EF23FA6B4EA7F9A92B1B1AE8EB8BB2D60C17290172178B9F595D7ABCCBCB76EC537504B010214000A0000080000D07631
310
403DEE336E79000000790000001B00000000000000000000000000000000006175746F6465736B2D64657369676E2D7061636B6167652E786D6C504B01021400140006080800D0763140D486FD9CA0000000F40000001300000000000000000000000000B20000005B436F6E74656E745F54797065735D2E786D6C504B0102
310
1400140006080800D07631405AC38148E90000007C010000080000000000000000000000000083010000636F72652E786D6C504B01021400140006080800D076314055019EA25F0000007C000000070000000000000000000000000092020000636E782E786D6C504B01021400140006080800D07631408964029D65010000
310
020300000C00000000000000000000000000160300006662782F636F72652E786D6C504B01021400140006080800D07631404292EDDA7D0000009D0000000B00000000000000000000000000A50400006662782F636E782E786D6C504B01021400140006080800D0763140270AAD1B28010000130200003100000000000000
310
0000000000004B0500006662782F39353244384334322D433330372D343136462D393744332D3336413832393744313633332F636F72652E786D6C504B01021400140006080800D0763140AE8343EC55010000330300003000000000000000000000000000C20600006662782F39353244384334322D433330372D34313646
310
2D393744332D3336413832393744313633332F636E782E786D6C504B01021400140006080800D07631406E987D415A070000941B00003400000000000000000000000000650800006662782F39353244384334322D433330372D343136462D393744332D3336413832393744313633332F6F626A656374732E786D6C504B01
310
021400140006080000D07631400000000000000000000000003500000000000000000000000000111000006662782F39353244384334322D433330372D343136462D393744332D3336413832393744313633332F76657274696365732E62696E504B01021400140006080800D0763140F270F1330600000004000000360000
310
0000000000000000000000641000006662782F39353244384334322D433330372D343136462D393744332D3336413832393744313633332F747269616E676C65732E62696E504B01021400140006080000D07631400000000000000000000000003700000000000000000000000000BE1000006662782F3935324438433432
310
2D433330372D343136462D393744332D3336413832393744313633332F617474726962757465732E62696E504B01021400140006080800D0763140D5987DFC8F000000410100003600000000000000000000000000131100006662782F39353244384334322D433330372D343136462D393744332D33364138323937443136
310
33332F6469726563746F72792E786D6C504B01021400140006080800D07631403229DC79FB000000A00100003B00000000000000000000000000F61100006662782F39353244384334322D433330372D343136462D393744332D3336413832393744313633332F7265736F75726365732F636F72652E786D6C504B05060000
310
00000E000E00800400004A1300000000
  0
XRECORD
  5
17
102
{ACAD_REACTORS
330
12
102
}
330
12
100
AcDbXrecord
280
     1
270
     1
271
     1
  0
XRECORD
  5
16
102
{ACAD_REACTORS
330
12
102
}
330
12
100
AcDbXrecord
280
     1
270
     1
271
     1
  0
XRECORD
  5
18
102
{ACAD_REACTORS
330
12
102
}
330
12
100
AcDbXrecord
280
     1
270
     1
271
     1
  0
XRECORD
  5
15
102
{ACAD_REACTORS
330
12
102
}
330
12
100
AcDbXrecord
280
     1
270
     1
271
     1
  0
XRECORD
  5
DDD
102
{ACAD_REACTORS
330
22
102
}
330
22
100
AcDbXrecord
280
     1
102
MATERIAL
148
0.0
149
0.0
149
0.0
 93
        0
 94
      127
282
     0
 72
     0
 77
     0
171
     0
175
     0
179
     0
273
     0
  0
XRECORD
  5
24
102
{ACAD_REACTORS
330
22
102
}
330
22
100
AcDbXrecord
280
     1
270
     1
271
     1
  0
XRECORD
  5
23
102
{ACAD_REACTORS
330
22
102
}
330
22
100
AcDbXrecord
280
     1
270
     1
271
     1
  0
XRECORD
  5
BA
102
{ACAD_REACTORS
330
22
102
}
330
22
100
AcDbXrecord
280
     1
 70
     1
 90
1959938040
 71
     1
  1
D0AD72DE-40D9-4563-9575-E741CEE422D5
311
504B03040A0000080000D07631403DEE336E79000000790000001B0000006175746F6465736B2D64657369676E2D7061636B6167652E786D6C3C3F786D6C2076657273696F6E3D22312E302220656E636F64696E673D227574662D3822203F3E3C666F726D6174733E3C666F726D61743E687474703A2F2F736368656D612E
311
6175746F6465736B2E636F6D2F64657369676E2D7061636B6167652F323030393C2F666F726D61743E3C2F666F726D6174733E504B0304140006080800D0763140D486FD9CA0000000F4000000130000005B436F6E74656E745F54797065735D2E786D6C7D8EC10E82300C865F65E91D8A1E8C310C0EEA1BF002731658846E
311
D98AC1B77784ABF1D8FE5FBFBF75BBCE937A534CCEB38643598122B6FEE978D0B0485F9C41B54DDD7D022595594E1A469170414C76A4D9A4D207E29CF43ECE46F218070CC6BECC4078ACAA135ACF422C856C0E68EA1BF5669944DDD7BCDE7B1F8E415D77AECB980613C2E4AC91FC167A2B244592486606FC29C8FD7F045B9A
311
EF7053A7E60B504B0304140006080800D0763140677C7A0EEA0000007C01000008000000636F72652E786D6C8D904D6EC3201085AF82668F0D8E1D27162672A3F804BD0002E2A0C460F153F5F8C58923B5BBAE6678BC6F66F4D8E97B7EA02FED8371B6075A1040DA4AA78C9D7A48F18A0F804E9C79E7E22F1B202B66DDC32A
311
0367937769D924E96CD43666D53AA5375184A02320F9C84D0F41DEF42C0A916276847BB1087917932EE8BBCB704A46A1D712A3F23C7335DA036F2FF4D88EA4C2B42123AEC7FA8C876333E003FDB834C340F76D7B66E50A7316CDFCDE2FBD16512BE015A1152614D3F693D65D5377BBFCDC7784B072B5FF81D2A2FE092563E3
311
AEDACE7D610138CD873C3F382BD72C72790695EB9A1BFF01504B0304140006080800D076314055019EA25F0000007C00000007000000636E782E786D6C4DCB3B0E80201045D1AD90E915ED2CF8AC45050C11660C8261F98AB1B07AC9C97D42D718D865D3E909258CFD00CCE24AC6E326A164D74DC0B4128928FF326038472B
311
A13128B1252AC747C6BAB984FC68F0B87FE8960A5C09FE86CFB69FBA01504B0304140006080800D07631401526A88565010000020300000C0000006662782F636F72652E786D6C8D52ED8E8230107C95A6FFA11441D4941ACEE813DC0B54A85C23B4A4B4C4C7BFE5C3785E8C3124507676766607D8FED6366890B65746E798
311
8611465297A652BACEB177976083D19E336B8CFBD3869116ADCCF158C69CD5D6F86E2995463BA91D54B5A9E452147D2F1D466503871CF7E58F6C4528BC838EFE1A76A2BC8A5A86340418FA38EB9D0503681619EF985FCE3746E63A67DEAB6A4155056AEAA2A4C53C3BD26D768AE280A6D129484EC92128B669116CE8D7312D
311
0ABACEB20323239933A7DABBBBD24AE16485791CD138886840B36F9AECD264B782D7F52E8A1819DB9F48BEAB3E2479A5DD2A5EECCEB41E730A4626E0DFB6109143BD18C00FE18C8C21C2634AF8396808044276E2DCDCF7B8426990A5333601A432FE010DA2F1125423345D8CCC284C9E06C0662FE7C46FE6BC9F011F50E81A
311
AC0907C7B377A33A9B5597283A6983C1DD9036B615CDC3DC6CF1717F08BDA497A631F613365956254B9864FC7BF92F504B0304140006080800D0763140EF2489C67D0000009D0000000B0000006662782F636E782E786D6C4DCCD10A83201805E05791FFDED5BF1A16A8316CBE472C0B99E9703AF6F8B3D1C5AE0EE7E370F8
311
F0D91C799BF8B2C10BC0530DC4F87B98AD5F05E4B4D00EC820790C21FDCD80F86933027606C9D718F2F3A0D92C5376A9A8B3FE71206B1BECF4A8E895A986B67839D39ED52365BA748DA8B0BF412579F57B2AB91FCB2F504B0304140006080800D07631408D69F56D2A01000014020000310000006662782F37343331384644
311
432D413743332D343135322D393730442D3746374333463131433139452F636F72652E786D6C8D51DB6EC2300CFD95284FECA16DDC160A280D9A607CC17EA034A18BA04995CBC4E7CF598BB4BDF112C7F639C747363F3CC63BF956CE6B6B5A0A39A34499DE4A6D8696C670CDB6941C0477D6863F304A4C37AA96A632157C70
311
364E4BA9B7262813B06AAC544BB1F35E054AFA3B7E5AEAFB2F357679170322FC2D9FBAFED60D2A871CDB8813DC078706C83C24BD54347505DBF3E998BD37C72AAB615D66BB869DB2E68CF919E008BB0F5ECC44C163D472A16B8976F4552BF7AA48220B1EF4F8B4DF3BD50525A928199419830C9A4FA8F7EB7A5F61BAD933C6
311
8B04FF478A937C9114B50955B9D89D699E0AE0C5DC105CDA78B93FCDA8C7645D2069DECAABFE8D0A96B312805565C58B198A0B40CD4DBD68FA601D2E7875BB201AD6B3F0A616BC4837C2F07B408CE99EE207504B0304140006080800D0763140C931088A4D01000033030000300000006662782F37343331384644432D4137
311
43332D343135322D393730442D3746374333463131433139452F636E782E786D6CD593CD6EC23010845FC5F29D24869456C831520F7D821E7A75EC055C1C3BF24F55DEBE6B30940B871E7BB192D9CF33AB51C2B7DF93255F10A2F16EA0ACE92801A7BC366E3FD09C768B174AB68207EFD31D468993130CB4C854F07DF079AE
311
92869DCC36A16A8D3B563140F439288828979BC47A252D1A805B6414611A416BD0E406E2D30E02AE82E27822E900E4EDF583F8F113548ABC2D2E82B72543F072D6A43B881265658C038DEA00936C644E5E433C365A26D9B0E69AF560A75F27522E5C237330A4840FB49C54D48D1AEC91B738143CA680ED55289D66A042CEB3
311
354A262CB93D831746F06C5C5AF79535587C409AAD577D8F66E799E0C94C5009154026D0542C3BB65C746CC19EDF59BF79EA372B7C5D6FBA8EB705177CF4DED64B6803C1CF447997C0252A186FCBF8517D9523DA04ECDA87D31F8AC4026AEAA59D9BC77FEEA73D7FDF5857C0BF40FC00504B0304140006080800D076314057
311
676DA49C0500007A100000340000006662782F37343331384644432D413743332D343135322D393730442D3746374333463131433139452F6F626A656374732E786D6CAD575D6FA33814FD2B887D260949DA4E5794519BB4A368D4996AA219ED43A5C880A1DE1A8C6CD349F7D7EF31180299A4CDAEE62504737D7DEFB9E77E
311
38F8B8CDB9F342A562A2B872FDD1C47568118B8415D9955BE9D4FBE03A1FC3400AA17B62AE53909C5EB966D90D834C8AAAB44B094D49C5F5DEEADDCD5F8E8A69415D27E644A92B57C54F34272352699150F53C4A8826A32CDD8EFC512338549B49523EED292D89A48586A5582FA0C5698CF287AF13771C0663F33D0CCCAF95
311
9A1D971AD7FE0CCF6785D2A4887F396C4FCDCC9F2F6FA76797DED97C3EF3E6E753DFBBB9BB597AFEC56CB2385F2C2EAF6F2F71B0D2129AAC2592A66EF809D8481607E3E6531854ACD0B3A915B1011A4BFAC24CA4DC70EAF8C1B891E9BCB34E1E323F164541E31A2BA051FB675527B4A445829833AA60590FA1C9F0D53738F6
311
3ECFCCBB3DB2BF7C1A02FD1D3D45ADEDEDB36FA988FE860BEA140649450D031B2CADA30D57273B842321B8FDC69493134D2523DCE12C9244BEBA21448D48180CD418264B930DC6033744149ACF43BA208DDEE7F9212BD38A73436337ACB360835CA15AD596B17FA8DC59DF4706362156860D1FAC43FAB5A46E78D950E4C31E
311
9B1A209D94930C21879B66E76CBAE7E8C2E4E96AE9869FEFA2EDDAE4EEE1C34B294A2AB5A10FA8D506AE7D1A94AC4DFE4991331BDC3D5376A07C03F25F90EA3B531037C9B6F3EDDC9EA22529542A648ED83813C79BE067E2F8F5AFF9DFFB178CBBCDC3E81DC313C13650FD063C873EF463D983330C5E40782167D6B5754C38
311
CAC63D2B00902189C305965087D368EB862B54395465EC223CF4E132CC7DC1DF606CD5A050D427F59E05B0DC2B8B271468C05633126634E4B706EEE2F44B39AB0FB662C7E03DFB2D74BD5EAE3FAF2B999298DEDB9C5ED294154CA3C5ED78D3376880F9C0A367FAFA53C8048EFE8AF7BA8F776E8F5240DB606E80CFDA9A6E5E
311
76270F0E88B12F13A6DC04EF9C00274C63EDE9BF672AA69C93828AAA3DF7CDFE81B6D1406C92DD30B96B30BBC602D2345FF672104D3A96AC342076DDAA2B9AA323DE7D5F7D012321CF4544F84E28DA95DE58702137D1EBA6A94A0791FE31A4B685606CB480ED758EB4E96F31DF242C4D2B851A7800D61FAB453F74A62AA042
311
B45A9B6499C37DE4169196B3AD5E346B49D04845B161689B48BB8307F4F503514B805AE1318B15E5E986715EE59B947134A34D4ECA2370FC7FFBA32A2F37241755A18FE81E988EE630B47D405EF593E8F8C90DD7F5D3BB41E94D68B20BF340D8B49203580D42BB9C5C2F2FA6CB5B6F3E595E7AF3B3F39977797671E6DD5ECC
311
FDC5EDED7C3A5DA248588BEA192A0CDA4ED34F6844099D2DA824B3E1FBBE42FAD81AE086F744ABC74F4D76B6CFEFAB1146E1608C3D6897DDC6EBE405631F4DDE57B0933CA86895979CE6B4D0C4A4D0BDF9C3BF118C1903639AF5554E327A8296AF9FD67BCE60E5847D0F26DDE9CFBDBD76756112F2A012FD54E5514118DFDB
311
9835488ECA22B3F8B531E99E4D9F695FCD9B0D0C065325384B50061327A322A71AC5F0841E2473AA40BDFE489FD8ABC709BB5F9A01519388D3D692278219992BA405785BC57AB8EEFC8199CE8C55572EBAEDE8193FB652B80E3873E56246D72CA66A14A13F9B49A8560E2EF5077970961419C7A8DD6CEADEBB5D069B4147EE
311
444E199FAC5F4D05B70EA08C94181B300F213AB5316150DB66BFC7FFC9F1D61C8768FC8D2ADDF9B25BE89CA98F418A364ED9CB026698677BF41689FAB65BFEA896192072D225EB4D12345A3D4D64565F148C7DD6A4EBE5C318038AB3FAEA94BCCA10CBD335799282CC954970B008ACB03A4BA241D5C59F8F0F52E0229B3B77
311
0C14785C883C17857DB9B6176167FD846B6DF288B240CD7D443D4E27FEF4B1BE07D8ABC926228A8E48A29EB180984AD6413C083C18D95C16D1819A0F9DDCD804618F9BABA5635BDA1C4A2D51FA55D5C08289A3A00EB2C7DC254DAEF405CA37AF02E35A1426480CF1E1BF504B0304140006080000D076314000000000000000
311
0000000000350000006662782F37343331384644432D413743332D343135322D393730442D3746374333463131433139452F76657274696365732E62696E504B0304140006080800D0763140F270F1330600000004000000360000006662782F37343331384644432D413743332D343135322D393730442D37463743334631
311
31433139452F747269616E676C65732E62696E636660600000504B0304140006080000D0763140000000000000000000000000370000006662782F37343331384644432D413743332D343135322D393730442D3746374333463131433139452F617474726962757465732E62696E504B0304140006080800D0763140D5987D
311
FC8F00000041010000360000006662782F37343331384644432D413743332D343135322D393730442D3746374333463131433139452F6469726563746F72792E786D6C858F410EC2201045AF4266AF15DDB800BA74E7C21B903225242D6328188F2FA5C4183471359997F9FF81E89FF3C41E1816475E02DF1F80A11FC8386F
311
25A438EECEC07A250251FC3803E6F58C12560C4AD840E95E91C151A72936F496F35732D860FE635F62C8F2DA16B505C545B74125BAA2FA9E05D7CC053D063734D5C7665FD55B6B8D15D5E9BFEAFD8490FFA45E504B0304140006080800D07631400F96273FFB000000A00100003B0000006662782F37343331384644432D41
311
3743332D343135322D393730442D3746374333463131433139452F7265736F75726365732F636F72652E786D6C8D50596E833010BD8A35FF2C261012641CD1289CA017B0CC845A0936F252F5F8B50395DABFFE783C6FD13C3D76F95A9EE413AD5346F740F312086A6926A5E71E82BF67272017CEAC31FE970C88160BF69060
311
E06CB626AC3B248DF6A87D44B59970078573E881C867FCF4E0E4072E2217C147857BE4AB900F31634EF348471D67CEDB18806C47D20BDCA233C14A74ACD858CE4250D3AE5153BCA9EE0A2DF0F646CFED58D28C36E598D5637DCD8673336427FA766B86811EDBF6CA8A64E6CCABE527A3B4283C4EC0AB925659B2B7EFB4EE9A
311
BA3BC4F5D895252B92FC8F29ACD33F4D41697FA8F6B89BCD01A731C88BE0AC487DC5F12A33CED42DFF06504B010214000A0000080000D07631403DEE336E79000000790000001B00000000000000000000000000000000006175746F6465736B2D64657369676E2D7061636B6167652E786D6C504B01021400140006080800
311
D0763140D486FD9CA0000000F40000001300000000000000000000000000B20000005B436F6E74656E745F54797065735D2E786D6C504B01021400140006080800D0763140677C7A0EEA0000007C010000080000000000000000000000000083010000636F72652E786D6C504B01021400140006080800D076314055019EA2
311
5F0000007C000000070000000000000000000000000093020000636E782E786D6C504B01021400140006080800D07631401526A88565010000020300000C00000000000000000000000000170300006662782F636F72652E786D6C504B01021400140006080800D0763140EF2489C67D0000009D0000000B00000000000000
311
000000000000A60400006662782F636E782E786D6C504B01021400140006080800D07631408D69F56D2A0100001402000031000000000000000000000000004C0500006662782F37343331384644432D413743332D343135322D393730442D3746374333463131433139452F636F72652E786D6C504B010214001400060808
311
00D0763140C931088A4D010000330300003000000000000000000000000000C50600006662782F37343331384644432D413743332D343135322D393730442D3746374333463131433139452F636E782E786D6C504B01021400140006080800D076314057676DA49C0500007A10000034000000000000000000000000006008
311
00006662782F37343331384644432D413743332D343135322D393730442D3746374333463131433139452F6F626A656374732E786D6C504B01021400140006080000D076314000000000000000000000000035000000000000000000000000004E0E00006662782F37343331384644432D413743332D343135322D39373044
311
2D3746374333463131433139452F76657274696365732E62696E504B01021400140006080800D0763140F270F13306000000040000003600000000000000000000000000A10E00006662782F37343331384644432D413743332D343135322D393730442D3746374333463131433139452F747269616E676C65732E62696E50
311
4B01021400140006080000D07631400000000000000000000000003700000000000000000000000000FB0E00006662782F37343331384644432D413743332D343135322D393730442D3746374333463131433139452F617474726962757465732E62696E504B01021400140006080800D0763140D5987DFC8F000000410100
311
003600000000000000000000000000500F00006662782F37343331384644432D413743332D343135322D393730442D3746374333463131433139452F6469726563746F72792E786D6C504B01021400140006080800D07631400F96273FFB000000A00100003B00000000000000000000000000331000006662782F37343331
311
384644432D413743332D343135322D393730442D3746374333463131433139452F7265736F75726365732F636F72652E786D6C504B0506000000000E000E0080040000871100000000
310
504B03040A0000080000D07631403DEE336E79000000790000001B0000006175746F6465736B2D64657369676E2D7061636B6167652E786D6C3C3F786D6C2076657273696F6E3D22312E302220656E636F64696E673D227574662D3822203F3E3C666F726D6174733E3C666F726D61743E687474703A2F2F736368656D612E
310
6175746F6465736B2E636F6D2F64657369676E2D7061636B6167652F323030393C2F666F726D61743E3C2F666F726D6174733E504B0304140006080800D0763140D486FD9CA0000000F4000000130000005B436F6E74656E745F54797065735D2E786D6C7D8EC10E82300C865F65E91D8A1E8C310C0EEA1BF002731658846E
310
D98AC1B77784ABF1D8FE5FBFBF75BBCE937A534CCEB38643598122B6FEE978D0B0485F9C41B54DDD7D022595594E1A469170414C76A4D9A4D207E29CF43ECE46F218070CC6BECC4078ACAA135ACF422C856C0E68EA1BF5669944DDD7BCDE7B1F8E415D77AECB980613C2E4AC91FC167A2B244592486606FC29C8FD7F045B9A
310
EF7053A7E60B504B0304140006080800D076314020A93FFAEA0000007C01000008000000636F72652E786D6C8D904D6EC3201085AF82668F0DFEA91B0B1339B573825E0001715062B00C543D7E71E248EDAEAB191EEF9B193D76FC9EEFE84BAFDE38DB01CD08206DA553C64E1DC470C1EF808E9CADCE855F364056CCBA834D
310
06CEA6D5C56597A4B341DB9054EB94DE45E1BD0E80E43D351D7879D5B3C8440CC9E16FD922E44D4C3AA3AF2EC1311A859E4B8C4AF3CCC5E815F8F8D10C63712278EC0782ABF130E0BE1E7BDCD0737D2EEBAA3C1427966F3067C1CCAFFD72D5226805BC20B4C08462DA7CD2AAADABB64CCFB79610966FF63F505CD43FA1686C
310
288BFDDC27E681D374C8E383B37CCB22954750A96EB9F11F504B0304140006080800D076314055019EA25F0000007C00000007000000636E782E786D6C4DCB3B0E80201045D1AD90E915ED2CF8AC45050C11660C8261F98AB1B07AC9C97D42D718D865D3E909258CFD00CCE24AC6E326A164D74DC0B4128928FF326038472B
310
A13128B1252AC747C6BAB984FC68F0B87FE8960A5C09FE86CFB69FBA01504B0304140006080800D0763140540EAFF666010000020300000C0000006662782F636F72652E786D6C8D52ED8E8230107C95A6FFA1E5EB3C4DA9D1139FE05EA042E588D0927E101FFF960FE37931C69040D9D9D9991D60DB6BD7A2411ADB6895E3
310
28A4184955EAAA51758EBD3B079F186D39335ABB3F6D1829D1C91C8F65CC596DB4EF9752A99593CA4155E94A2E4561AD7418952D1C726CCB1FD9895078071DF612F6A2BC885A86510830F471669D0103681619EF989F4F5746E63A67DE37D5823615A835E7461ACC8BAFD5A188F7342876071AA4C5FA10ECB26217ACA26376
310
4CB23459C77B46463267AEE96EEE4A23859315E6318DE2804641B4FA8ED24D966E1278FDD850CAC8D8FE40F27DF526C937CA25F16277A659CC23303201FFB685881CB262003F84333286088F29E1C7A0211008D989537BDBE302A541964E9B14904AFB3B3488D64B50A568BA189951983C0D80CD9ECE895FCC793D033EA050
310
3558130E8E27EF467536AB2E51F4D20483BB22A54D27DABBB9D9E2FD7E177A4A2F75ABCD3B6CB2AC4A9630C9F8F7F25F504B0304140006080800D07631408C9AE48C7D0000009D0000000B0000006662782F636E782E786D6C4DCCD10A83201886E15B91FFDCA595E6811A6CE57DC4B290990EA76397BF1A1DECE883878F57
310
F69FCDA3B74D2F1783027A21806CB8C7D9855541C90B16807A2D538CF9EF06284C9B55703068B9A6589E27CD76998ACFBB7A171E271A32B4BCA10C33C63BDCD64C60D17082E970BB1A4359378E142A2DAB5F69DF23ACBF504B0304140006080800D07631401BA4B1772901000014020000310000006662782F463044343633
310
31352D353536372D343235382D383336302D3144434246463135374545312F636F72652E786D6C8D51CB6EC32010FC15C4293D6083DF893091DA245FD01F2036495162B07854F9FC2EB523B5B75C58D89D991D76F9FE31DDD1B7725E5BD36396518C9419ECA8CDB5C7315C4887D15E70676DF803C3C8C849F538A5B1E05767
310
E3BCA6066B823201B2C68E6A4D4AEF55C068B8C3A5C77EF85293CC640C80F0B76C96C34D5E55C63228034E701F1C18404B93746271A287AA29594DEABA694955D41DE9CA861276F8783F9D58DD1E8F8CE70B51F018F5B8D2F50876F4452BF7AA48220B1EF4F4B43F3825831AB128282B086584B59FACDAD5D5AE8467B3A394
310
E709FE8F14E7F14552D42694C56A77A1792CE0374B41F0D1C6F3FD69463D66EB024AFD365E0D6F58D08C16C5B6ADCA2DCF17280C00349B6AD5F4C13A18F0E6760674B90A3795E079DA1184DF05424CFB143F504B0304140006080800D0763140AF96C79D5401000033030000300000006662782F46304434363331352D3535
310
36372D343235382D383336302D3144434246463135374545312F636E782E786D6CBD93CD6EC23010845FC5F29DFC409A22E418A9873E410FBD3AF6022E8E1DF9A72A6FDF3518CA8543A5AA172B991DCFAC3E256CFB3519F2093E686707DA560D2560A553DAEE079AE26EB1A664CB99772EDED928B1628281669972B6F72ECD
310
4552B013C944548DB6C7227A082E790901E57C93182785C100B08B84224C2328058ADC8CF8B4038FABA0389E483C00797D79276EFC001903AB730A6775EEE02C9FA5E9CE44893422848106798049542245A7201C2B25A2A8DAEADAF560A79F24922F5C2B93D724970F349F94978D2AE4C86A1C7216A2477AC5144F33502EE6
310
D968292242AECFC68B87B3A46DECBBE2D508DEA37BB5ECD76B0C3BCF388B7A82E2901E440445F9B269978BA65DB4CF6F6DB779EA362B7CED374DC3EA6CE76C74CE944B1803DECD443A1BC146CA5B56E7F1237CC54794F6C8DAF9D32F402280D27AA173CBF84B3E6DBFEABA7FE4539FBF6FC4E5F12FE0DF504B030414000608
310
0800D0763140ACE4C93658070000931B0000340000006662782F46304434363331352D353536372D343235382D383336302D3144434246463135374545312F6F626A656374732E786D6CED595B6FA33814FE2B887D0E09B974A62BCAA84DDA2A5A756634D919ED4325E48043BD3506D9A697FDF57B7C81000D2DD9E9BECD43
310
0218FBF89CEF5C7D083E3D65D479C05C909C9DB9BE37711DCCE23C212C3D734BB91B7D749D4F61C0F35C36A6B90E43193E73D5B01B0629CFCBC20E2578874A2A3BA357177F3922C60CBB4E4C911067AE88EF70863C54CA3CC1E2DE4B90445EBA7BF27CCF4C6C934D392AEE3A440BC43193C0298C33A0E218A6FCF6E3C41D87
310
C158BD0F03F56F67CD06CD9AF7CF1A6BA9DB5C12262462F10B963A646683589AF9F3D5E574713A5ACCE7B3D1FC64EA8F2EAE2E5623FFC36CB23C592E4FCF2F4F81BD6D9E532B53820BCC12D0DFB31BFAC158BDA945B7081CE23ACE19C3B10612A0D2627509122C60AB067C93F6A3AF246ABCD612369EE7EABD65A1313C6B53
310
E99B350C88165D10C46E57495C5D9BF2E5DBBF417031C428B9C012B8159283762D3C1CBCC20D27C1D88C86C176AF0B229C0C49CC09A20E255B8E382805A6AA296160165832CA3938907294045A73E675DBB6C033DF769D435CEE4A4A9567B8A176AC08DC0F4BA13923FF60BEE7BE890CF004D29684C98F964BF95C60373C0D
310
C67A300CD46536B52F0D90CE8EA2546844CCDB8EA04BE5FAEB951BFE71B57DDAA8707078F382E705E652199DD2A3E60B0CD95E154A765B7F90E6D40210C6806A57EE41F906C87F86E8B16705F4C6C9D3FC696EE74A8E98D8E53C03DD3813673481BF89E3EB7F75DFB80BC6F5E2B6F6FAF0043755507DFC793CDB3268AC2CFF
310
0D38C3E0010C3EE733FB6A13230AF67C431800A48CC4A1390C4168DF6D9FDC700D8113023DAC4234F4416460F7016E83B125B3D74AE55ED6EB18206AF7980D5112C0A62D12D8E8D1D335640F4EE2BD9A9A22F6C1BB7817733D5F6DFED8947C87627C637D7A857784110959F330432DCC5B12DDE3E7C79C2720E84BBC374DBC
310
33BB9500B415E60AF8B402413DEC776E6D10C3BA3457E1267863071042E5EA06FD1B22624C2962382FAB7DEBE8A60CB5F6785B33B8E1D4403C9B764C98E307A2AA0A709AFD8C16A390F7634E0A05A21B5E1BC9EAA0E9F548F77DFD192CB29EDF336BCD20F43244FFD441EB000E2DCBAE90B640D4026FF7E13CCE69CEA3ED73
310
64229D0BB504B0D1F6961F2DA210EB8D921415F020ED775548498DB4514276BB52405C3DC0E28FF5B2690E136FE62F9CE67FC719E7106DC17711B77ED7D92322194A71B44349DF76CDDD6ADA4293EC21CDF18E825CE481C8E708C96892E0F418688E227EFAAED4539A0B41181690AF0E82DF4463E2412031DAAC58565AED00
310
4D44946189E8310828323DE0EAB4A36BDC184A87B779ACADF7358D3589FE4F16C111D492398B0894A29043DE64DCF7161043DAE81A943BF882B555B4B518B48412227E8E1E3149EFE431A81BF23DB8C77024296594172806B31E40F685AF28A57678DFA2F85EE58F282EE97B1988C07417114ACB2C821F6170F218E2DA7560
310
7A1585067113FB24CEA02843B2E4433639594C5EEC636A866E086C6CB42314C27694A1A207F55640D4F58853836FA9F728755B664584B2BC64830CC59B75BDC992EFAA55911DC8AF2A15A16CAC085B82614098ACB36A15B3C1D475600537D281EA3912282BA83985BD9178FCDA9B34E5DE0DB8F5D3F7DD2083C2AF477BCD88
310
3AAF60B03CB60A03F188647CE7861B7D1D5D40FD9DE0649FEAAB5AB3590102622A92979C58157D5F4379636B3437BC4152DC5E9BAC5B5DBFAF3DE87E04635803B54BBD70AD80CE309348552637EA867E4310825B34CCF85AE5D463A89C2789AE1A11BD227DEA6C9511AD4D33E2157798E519FCD82D61312D137C8B12711FDD
310
481A6D8862DD4AE965A4C2F85501BF5C6F3AF0C0C80091BEAA020F3F76D6DAD1A52A970E12917765B6658840106C89961ADD78054BAD462A2DD75775A680BA0B0CCCAA78FEEB64D16C47FC3A59A4D6307EEE6441F32DA2FB68D3C8E6B132EBA34E01757A5254DEE314A0BB0E35D53A89985C6EC5B7BE14414CAC82FCE062AC
310
8A1986601FC7FF3969F72541B35D87FFE392B6FFA2E0382AA9B426AB26D581C275DD4C61ABC9F9EAC37475399A4F56A7A3F9E264363A5D7C588C2E3FCCFDE5E5E57C3A5DED4F0DDA4FC3A08E653A75C1B38969D5B07AB218405356E4942470984F9C1443C89770A41FD03DE71916903B9BBDEEC4F6E407AC7E306D4E89B614
310
579CDC21E80F5301591D302A63D91E777E83CEA48473F6990B3D23EF1EFEAC55BA0E249E33173A0592C458785BE832A97E9E260E1957A77E4B0CF0412C5519D12CAA9FEB550A9B56F4AFA70CC90256AE560B03EAB6029A5FAD0685E6CDF2141F2578C58E8324DC6E4B09C59A91653F500BA3B7D9ABDFC84609BBB75B3F81EB
310
BE2E96EFE9392D44067D3178D5080CD591443CD5ED6EC59865E97CF5750C6D3667FDC5296899822E87531A710CC65CAA7A0AAC08ACC2D22C9004535DFE7EFB95E7F0852773745174BBCCB32C67F6E11C8E63097C21723677F0BD27B985AA01ABAEBAB89D4EFCE9ADEE66DB067BB445027BAA1C8281AA8A5022748C0D2CF245
310
67CAF62DC74A099DE9EB9563C327F8B3B1A017CD5DF375CB01EF51DF5194AF680FAFE47CB5A13DD653C11A38B4A2C37F01504B0304140006080000D0763140000000000000000000000000350000006662782F46304434363331352D353536372D343235382D383336302D3144434246463135374545312F76657274696365
310
732E62696E504B0304140006080800D0763140F270F1330600000004000000360000006662782F46304434363331352D353536372D343235382D383336302D3144434246463135374545312F747269616E676C65732E62696E636660600000504B0304140006080000D0763140000000000000000000000000370000006662
310
782F46304434363331352D353536372D343235382D383336302D3144434246463135374545312F617474726962757465732E62696E504B0304140006080800D0763140D5987DFC8F00000041010000360000006662782F46304434363331352D353536372D343235382D383336302D3144434246463135374545312F646972
310
6563746F72792E786D6C858F410EC2201045AF4266AF15DDB800BA74E7C21B903225242D6328188F2FA5C4183471359997F9FF81E89FF3C41E1816475E02DF1F80A11FC8386F25A438EECEC07A250251FC3803E6F58C12560C4AD840E95E91C151A72936F496F35732D860FE635F62C8F2DA16B505C545B74125BAA2FA9E05
310
D7CC053D063734D5C7665FD55B6B8D15D5E9BFEAFD8490FFA45E504B0304140006080800D0763140519F9F9AFD000000A00100003B0000006662782F46304434363331352D353536372D343235382D383336302D3144434246463135374545312F7265736F75726365732F636F72652E786D6C8D50596E833010BD0A9A7F03
310
66691A641CD10227E8052C332156828DBC543D7E4DA052FBD71F8FE72D9AA7C72E5FCB23F944EB94D12DD0348704B53493D2730BC15FC92B2417CEAC31FE970C122D166C618381B3D99AB01E9034DAA3F611D566C20314CEA187443EE2A705276FB88854041F15EE9EAE42DEC58C294D231D759C396F6380643FB2BDC02D3A
310
13AC44C7B29DE52C04351D1A35C59BEAAAD0021FDE4FFD50742319BA3E27D570EE49570F1D39D1B11ECBBA2ACFC51BCB3633675E2D3F19A545E171025EE4B4203925F4F441ABA6AE9A32AE2F4D9EB36C93FF318575FAA72928EDCBE288BBDB1C701A833C09CEB2ADAF389E65C6B975CBBF01504B010214000A0000080000D0
310
7631403DEE336E79000000790000001B00000000000000000000000000000000006175746F6465736B2D64657369676E2D7061636B6167652E786D6C504B01021400140006080800D0763140D486FD9CA0000000F40000001300000000000000000000000000B20000005B436F6E74656E745F54797065735D2E786D6C504B
310
01021400140006080800D076314020A93FFAEA0000007C010000080000000000000000000000000083010000636F72652E786D6C504B01021400140006080800D076314055019EA25F0000007C000000070000000000000000000000000093020000636E782E786D6C504B01021400140006080800D0763140540EAFF66601
310
0000020300000C00000000000000000000000000170300006662782F636F72652E786D6C504B01021400140006080800D07631408C9AE48C7D0000009D0000000B00000000000000000000000000A70400006662782F636E782E786D6C504B01021400140006080800D07631401BA4B1772901000014020000310000000000
310
00000000000000004D0500006662782F46304434363331352D353536372D343235382D383336302D3144434246463135374545312F636F72652E786D6C504B01021400140006080800D0763140AF96C79D54010000330300003000000000000000000000000000C50600006662782F46304434363331352D353536372D3432
310
35382D383336302D3144434246463135374545312F636E782E786D6C504B01021400140006080800D0763140ACE4C93658070000931B00003400000000000000000000000000670800006662782F46304434363331352D353536372D343235382D383336302D3144434246463135374545312F6F626A656374732E786D6C50
310
4B01021400140006080000D07631400000000000000000000000003500000000000000000000000000111000006662782F46304434363331352D353536372D343235382D383336302D3144434246463135374545312F76657274696365732E62696E504B01021400140006080800D0763140F270F133060000000400000036
310
00000000000000000000000000641000006662782F46304434363331352D353536372D343235382D383336302D3144434246463135374545312F747269616E676C65732E62696E504B01021400140006080000D07631400000000000000000000000003700000000000000000000000000BE1000006662782F463044343633
310
31352D353536372D343235382D383336302D3144434246463135374545312F617474726962757465732E62696E504B01021400140006080800D0763140D5987DFC8F000000410100003600000000000000000000000000131100006662782F46304434363331352D353536372D343235382D383336302D3144434246463135
310
374545312F6469726563746F72792E786D6C504B01021400140006080800D0763140519F9F9AFD000000A00100003B00000000000000000000000000F61100006662782F46304434363331352D353536372D343235382D383336302D3144434246463135374545312F7265736F75726365732F636F72652E786D6C504B0506
310
000000000E000E00800400004C1300000000
  0
XRECORD
  5
27
102
{ACAD_REACTORS
330
22
102
}
330
22
100
AcDbXrecord
280
     1
270
     1
271
     1
  0
XRECORD
  5
26
102
{ACAD_REACTORS
330
22
102
}
330
22
100
AcDbXrecord
280
     1
270
     1
271
     1
  0
XRECORD
  5
28
102
{ACAD_REACTORS
330
22
102
}
330
22
100
AcDbXrecord
280
     1
270
     1
271
     1
  0
XRECORD
  5
25
102
{ACAD_REACTORS
330
22
102
}
330
22
100
AcDbXrecord
280
     1
270
     1
271
     1
  0
XRECORD
  5
DD6
102
{ACAD_REACTORS
330
DD5
102
}
330
DD5
100
AcDbXrecord
280
     1
102
ACAD_ROUNDTRIP_2012_MLEADER_STYLE
298
     1
  0
CELLSTYLEMAP
  5
DD4
102
{ACAD_REACTORS
330
DD3
102
}
330
DD3
100
AcDbCellStyleMap
 90
        3
300
CELLSTYLE
  1
TABLEFORMAT_BEGIN
 90
        5
170
     1
 91
        0
 92
    32768
 62
   257
 93
        1
300
CONTENTFORMAT
  1
CONTENTFORMAT_BEGIN
 90
        0
 91
        0
 92
      512
 93
        0
300

 40
0.0
140
1.0
 94
        5
 62
     0
340
55
144
0.25
309
CONTENTFORMAT_END
171
     0
 94
        0
309
TABLEFORMAT_END
  1
CELLSTYLE_BEGIN
 90
        1
 91
        1
300
_TITLE
309
CELLSTYLE_END
300
CELLSTYLE
  1
TABLEFORMAT_BEGIN
 90
        5
170
     1
 91
        0
 92
        0
 62
   257
 93
        1
300
CONTENTFORMAT
  1
CONTENTFORMAT_BEGIN
 90
        0
 91
        0
 92
      512
 93
        0
300

 40
0.0
140
1.0
 94
        5
 62
     0
340
55
144
0.18
309
CONTENTFORMAT_END
171
     0
 94
        0
309
TABLEFORMAT_END
  1
CELLSTYLE_BEGIN
 90
        2
 91
        1
300
_HEADER
309
CELLSTYLE_END
300
CELLSTYLE
  1
TABLEFORMAT_BEGIN
 90
        5
170
     1
 91
        0
 92
        0
 62
   257
 93
        1
300
CONTENTFORMAT
  1
CONTENTFORMAT_BEGIN
 90
        0
 91
        0
 92
      512
 93
        0
300

 40
0.0
140
1.0
 94
        2
 62
     0
340
55
144
0.18
309
CONTENTFORMAT_END
171
     0
 94
        0
309
TABLEFORMAT_END
  1
CELLSTYLE_BEGIN
 90
        3
 91
        2
300
_DATA
309
CELLSTYLE_END
  0
XRECORD
  5
E0E
102
{ACAD_REACTORS
330
DD3
102
}
330
DD3
100
AcDbXrecord
280
     1
102
ACAD_ROUNDTRIP_PRE2007_TABLESTYLE
 90
      512
 91
        0
  1

 92
      512
 93
        0
  2

 94
      512
 95
        0
  3

  0
XRECORD
  5
DE9
102
{ACAD_REACTORS
330
DE8
102
}
330
DE8
100
AcDbXrecord
280
     1
102
RTVSPropertyOp0
 70
     1
102
RTVSPropertyOp1
 70
     1
102
RTVSPropertyOp2
 70
     1
102
RTVSPropertyOp3
 70
     1
102
RTVSPropertyOp4
 70
     1
102
RTVSPropertyOp5
 70
     1
102
RTVSPropertyOp6
 70
     1
102
RTVSPropertyOp7
 70
     1
102
RTVSPropertyOp8
 70
     1
102
RTVSPropertyOp9
 70
     1
102
RTVSPropertyOp10
 70
     1
102
RTVSPropertyOp11
 70
     1
102
RTVSPropertyOp12
 70
     1
102
RTVSPropertyOp13
 70
     1
102
RTVSPropertyOp14
 70
     1
102
RTVSPropertyOp15
 70
     1
102
RTVSPropertyOp16
 70
     1
102
RTVSPropertyOp17
 70
     1
102
RTVSPropertyOp18
 70
     1
102
RTVSPropertyOp19
 70
     1
102
RTVSPropertyOp20
 70
     1
102
RTVSPropertyOp21
 70
     1
102
RTVSPropertyOp22
 70
     1
102
RTVSPropertyOp23
 70
     1
102
RTVSPropertyOp24
 70
     1
102
RTVSPropertyOp25
 70
     1
102
RTVSPropertyOp26
 70
     1
102
RTVSPropertyOp27
 70
     1
102
RTVSPropertyOp28
 70
     1
102
RTVSPropertyOp29
 70
     1
102
RTVSPropertyOp30
 70
     1
102
RTVSPropertyOp31
 70
     1
102
RTVSPropertyOp32
 70
     1
  0
XRECORD
  5
DE7
102
{ACAD_REACTORS
330
DE6
102
}
330
DE6
100
AcDbXrecord
280
     1
102
RTVSPropertyOp0
 70
     1
102
RTVSPropertyOp1
 70
     1
102
RTVSPropertyOp2
 70
     1
102
RTVSPropertyOp3
 70
     1
102
RTVSPropertyOp4
 70
     1
102
RTVSPropertyOp5
 70
     1
102
RTVSPropertyOp6
 70
     1
102
RTVSPropertyOp7
 70
     1
102
RTVSPropertyOp8
 70
     1
102
RTVSPropertyOp9
 70
     1
102
RTVSPropertyOp10
 70
     1
102
RTVSPropertyOp11
 70
     1
102
RTVSPropertyOp12
 70
     1
102
RTVSPropertyOp13
 70
     1
102
RTVSPropertyOp14
 70
     1
102
RTVSPropertyOp15
 70
     1
102
RTVSPropertyOp16
 70
     1
102
RTVSPropertyOp17
 70
     1
102
RTVSPropertyOp18
 70
     1
102
RTVSPropertyOp19
 70
     1
102
RTVSPropertyOp20
 70
     1
102
RTVSPropertyOp21
 70
     1
102
RTVSPropertyOp22
 70
     1
102
RTVSPropertyOp23
 70
     1
102
RTVSPropertyOp24
 70
     1
102
RTVSPropertyOp25
 70
     1
102
RTVSPropertyOp26
 70
     1
102
RTVSPropertyOp27
 70
     1
102
RTVSPropertyOp28
 70
     1
102
RTVSPropertyOp29
 70
     1
102
RTVSPropertyOp30
 70
     1
102
RTVSPropertyOp31
 70
     1
102
RTVSPropertyOp32
 70
     1
  0
XRECORD
  5
DF5
102
{ACAD_REACTORS
330
DF4
102
}
330
DF4
100
AcDbXrecord
280
     1
102
RTVSPropertyOp0
 70
     1
102
RTVSPropertyOp1
 70
     1
102
RTVSPropertyOp2
 70
     1
102
RTVSPropertyOp3
 70
     1
102
RTVSPropertyOp4
 70
     1
102
RTVSPropertyOp5
 70
     1
102
RTVSPropertyOp6
 70
     1
102
RTVSPropertyOp7
 70
     1
102
RTVSPropertyOp8
 70
     1
102
RTVSPropertyOp9
 70
     1
102
RTVSPropertyOp10
 70
     1
102
RTVSPropertyOp11
 70
     1
102
RTVSPropertyOp12
 70
     1
102
RTVSPropertyOp13
 70
     1
102
RTVSPropertyOp14
 70
     1
102
RTVSPropertyOp15
 70
     1
102
RTVSPropertyOp16
 70
     1
102
RTVSPropertyOp17
 70
     1
102
RTVSPropertyOp18
 70
     1
102
RTVSPropertyOp19
 70
     1
102
RTVSPropertyOp20
 70
     1
102
RTVSPropertyOp21
 70
     1
102
RTVSPropertyOp22
 70
     1
102
RTVSPropertyOp23
 70
     1
102
RTVSPropertyOp24
 70
     1
102
RTVSPropertyOp25
 70
     1
102
RTVSPropertyOp26
 70
     1
102
RTVSPropertyOp27
 70
     1
102
RTVSPropertyOp28
 70
     1
102
RTVSPropertyOp29
 70
     1
102
RTVSPropertyOp30
 70
     1
102
RTVSPropertyOp31
 70
     1
102
RTVSPropertyOp32
 70
     1
  0
XRECORD
  5
DFD
102
{ACAD_REACTORS
330
DFC
102
}
330
DFC
100
AcDbXrecord
280
     1
102
RTVSPropertyOp0
 70
     1
102
RTVSPropertyOp1
 70
     1
102
RTVSPropertyOp2
 70
     1
102
RTVSPropertyOp3
 70
     1
102
RTVSPropertyOp4
 70
     1
102
RTVSPropertyOp5
 70
     1
102
RTVSPropertyOp6
 70
     1
102
RTVSPropertyOp7
 70
     1
102
RTVSPropertyOp8
 70
     1
102
RTVSPropertyOp9
 70
     1
102
RTVSPropertyOp10
 70
     1
102
RTVSPropertyOp11
 70
     1
102
RTVSPropertyOp12
 70
     1
102
RTVSPropertyOp13
 70
     1
102
RTVSPropertyOp14
 70
     1
102
RTVSPropertyOp15
 70
     1
102
RTVSPropertyOp16
 70
     1
102
RTVSPropertyOp17
 70
     1
102
RTVSPropertyOp18
 70
     1
102
RTVSPropertyOp19
 70
     1
102
RTVSPropertyOp20
 70
     1
102
RTVSPropertyOp21
 70
     1
102
RTVSPropertyOp22
 70
     1
102
RTVSPropertyOp23
 70
     1
102
RTVSPropertyOp24
 70
     1
102
RTVSPropertyOp25
 70
     1
102
RTVSPropertyOp26
 70
     1
102
RTVSPropertyOp27
 70
     1
102
RTVSPropertyOp28
 70
     1
102
RTVSPropertyOp29
 70
     1
102
RTVSPropertyOp30
 70
     1
102
RTVSPropertyOp31
 70
     1
102
RTVSPropertyOp32
 70
     1
  0
XRECORD
  5
DEF
102
{ACAD_REACTORS
330
DEE
102
}
330
DEE
100
AcDbXrecord
280
     1
102
RTVSPropertyOp0
 70
     1
102
RTVSPropertyOp1
 70
     1
102
RTVSPropertyOp2
 70
     1
102
RTVSPropertyOp3
 70
     1
102
RTVSPropertyOp4
 70
     1
102
RTVSPropertyOp5
 70
     1
102
RTVSPropertyOp6
 70
     1
102
RTVSPropertyOp7
 70
     1
102
RTVSPropertyOp8
 70
     1
102
RTVSPropertyOp9
 70
     1
102
RTVSPropertyOp10
 70
     1
102
RTVSPropertyOp11
 70
     1
102
RTVSPropertyOp12
 70
     1
102
RTVSPropertyOp13
 70
     1
102
RTVSPropertyOp14
 70
     1
102
RTVSPropertyOp15
 70
     1
102
RTVSPropertyOp16
 70
     1
102
RTVSPropertyOp17
 70
     1
102
RTVSPropertyOp18
 70
     1
102
RTVSPropertyOp19
 70
     1
102
RTVSPropertyOp20
 70
     1
102
RTVSPropertyOp21
 70
     1
102
RTVSPropertyOp22
 70
     1
102
RTVSPropertyOp23
 70
     1
102
RTVSPropertyOp24
 70
     1
102
RTVSPropertyOp25
 70
     1
102
RTVSPropertyOp26
 70
     1
102
RTVSPropertyOp27
 70
     1
102
RTVSPropertyOp28
 70
     1
102
RTVSPropertyOp29
 70
     1
102
RTVSPropertyOp30
 70
     1
102
RTVSPropertyOp31
 70
     1
102
RTVSPropertyOp32
 70
     1
  0
XRECORD
  5
DF3
102
{ACAD_REACTORS
330
DF2
102
}
330
DF2
100
AcDbXrecord
280
     1
102
RTVSPropertyOp0
 70
     1
102
RTVSPropertyOp1
 70
     1
102
RTVSPropertyOp2
 70
     1
102
RTVSPropertyOp3
 70
     1
102
RTVSPropertyOp4
 70
     1
102
RTVSPropertyOp5
 70
     1
102
RTVSPropertyOp6
 70
     1
102
RTVSPropertyOp7
 70
     1
102
RTVSPropertyOp8
 70
     1
102
RTVSPropertyOp9
 70
     1
102
RTVSPropertyOp10
 70
     1
102
RTVSPropertyOp11
 70
     1
102
RTVSPropertyOp12
 70
     1
102
RTVSPropertyOp13
 70
     1
102
RTVSPropertyOp14
 70
     1
102
RTVSPropertyOp15
 70
     1
102
RTVSPropertyOp16
 70
     1
102
RTVSPropertyOp17
 70
     1
102
RTVSPropertyOp18
 70
     1
102
RTVSPropertyOp19
 70
     1
102
RTVSPropertyOp20
 70
     1
102
RTVSPropertyOp21
 70
     1
102
RTVSPropertyOp22
 70
     1
102
RTVSPropertyOp23
 70
     1
102
RTVSPropertyOp24
 70
     1
102
RTVSPropertyOp25
 70
     1
102
RTVSPropertyOp26
 70
     1
102
RTVSPropertyOp27
 70
     1
102
RTVSPropertyOp28
 70
     1
102
RTVSPropertyOp29
 70
     1
102
RTVSPropertyOp30
 70
     1
102
RTVSPropertyOp31
 70
     1
102
RTVSPropertyOp32
 70
     1
  0
XRECORD
  5
E0D
102
{ACAD_REACTORS
330
E0C
102
}
330
E0C
100
AcDbXrecord
280
     1
102
RTVSPropertyOp0
 70
     0
102
RTVSPropertyOp1
 70
     0
102
RTVSPropertyOp2
 70
     0
102
RTVSPropertyOp3
 70
     0
102
RTVSPropertyOp4
 70
     0
102
RTVSPropertyOp5
 70
     0
102
RTVSPropertyOp6
 70
     0
102
RTVSPropertyOp7
 70
     0
102
RTVSPropertyOp8
 70
     0
102
RTVSPropertyOp9
 70
     0
102
RTVSPropertyOp10
 70
     0
102
RTVSPropertyOp11
 70
     0
102
RTVSPropertyOp12
 70
     0
102
RTVSPropertyOp13
 70
     0
102
RTVSPropertyOp14
 70
     2
102
RTVSPropertyOp15
 70
     0
102
RTVSPropertyOp16
 70
     0
102
RTVSPropertyOp17
 70
     0
102
RTVSPropertyOp18
 70
     0
102
RTVSPropertyOp19
 70
     0
102
RTVSPropertyOp20
 70
     0
102
RTVSPropertyOp21
 70
     0
102
RTVSPropertyOp22
 70
     0
102
RTVSPropertyOp23
 70
     0
102
RTVSPropertyOp24
 70
     0
102
RTVSPropertyOp25
 70
     0
102
RTVSPropertyOp26
 70
     0
102
RTVSPropertyOp27
 70
     0
102
RTVSPropertyOp28
 70
     1
102
RTVSPropertyOp29
 70
     1
102
RTVSPropertyOp30
 70
     1
102
RTVSPropertyOp31
 70
     1
102
RTVSPropertyOp32
 70
     1
  0
XRECORD
  5
DFB
102
{ACAD_REACTORS
330
DFA
102
}
330
DFA
100
AcDbXrecord
280
     1
102
RTVSPropertyOp0
 70
     1
102
RTVSPropertyOp1
 70
     1
102
RTVSPropertyOp2
 70
     1
102
RTVSPropertyOp3
 70
     1
102
RTVSPropertyOp4
 70
     1
102
RTVSPropertyOp5
 70
     1
102
RTVSPropertyOp6
 70
     1
102
RTVSPropertyOp7
 70
     1
102
RTVSPropertyOp8
 70
     1
102
RTVSPropertyOp9
 70
     1
102
RTVSPropertyOp10
 70
     1
102
RTVSPropertyOp11
 70
     1
102
RTVSPropertyOp12
 70
     1
102
RTVSPropertyOp13
 70
     1
102
RTVSPropertyOp14
 70
     1
102
RTVSPropertyOp15
 70
     1
102
RTVSPropertyOp16
 70
     1
102
RTVSPropertyOp17
 70
     1
102
RTVSPropertyOp18
 70
     1
102
RTVSPropertyOp19
 70
     1
102
RTVSPropertyOp20
 70
     1
102
RTVSPropertyOp21
 70
     1
102
RTVSPropertyOp22
 70
     1
102
RTVSPropertyOp23
 70
     1
102
RTVSPropertyOp24
 70
     1
102
RTVSPropertyOp25
 70
     1
102
RTVSPropertyOp26
 70
     1
102
RTVSPropertyOp27
 70
     1
102
RTVSPropertyOp28
 70
     1
102
RTVSPropertyOp29
 70
     1
102
RTVSPropertyOp30
 70
     1
102
RTVSPropertyOp31
 70
     1
102
RTVSPropertyOp32
 70
     1
  0
XRECORD
  5
DDF
102
{ACAD_REACTORS
330
DDE
102
}
330
DDE
100
AcDbXrecord
280
     1
102
RTVSPropertyOp0
 70
     1
102
RTVSPropertyOp1
 70
     1
102
RTVSPropertyOp2
 70
     1
102
RTVSPropertyOp3
 70
     1
102
RTVSPropertyOp4
 70
     1
102
RTVSPropertyOp5
 70
     1
102
RTVSPropertyOp6
 70
     1
102
RTVSPropertyOp7
 70
     1
102
RTVSPropertyOp8
 70
     1
102
RTVSPropertyOp9
 70
     1
102
RTVSPropertyOp10
 70
     1
102
RTVSPropertyOp11
 70
     1
102
RTVSPropertyOp12
 70
     1
102
RTVSPropertyOp13
 70
     1
102
RTVSPropertyOp14
 70
     1
102
RTVSPropertyOp15
 70
     1
102
RTVSPropertyOp16
 70
     1
102
RTVSPropertyOp17
 70
     1
102
RTVSPropertyOp18
 70
     1
102
RTVSPropertyOp19
 70
     1
102
RTVSPropertyOp20
 70
     1
102
RTVSPropertyOp21
 70
     1
102
RTVSPropertyOp22
 70
     1
102
RTVSPropertyOp23
 70
     1
102
RTVSPropertyOp24
 70
     1
102
RTVSPropertyOp25
 70
     1
102
RTVSPropertyOp26
 70
     1
102
RTVSPropertyOp27
 70
     1
102
RTVSPropertyOp28
 70
     1
102
RTVSPropertyOp29
 70
     1
102
RTVSPropertyOp30
 70
     1
102
RTVSPropertyOp31
 70
     1
102
RTVSPropertyOp32
 70
     1
  0
XRECORD
  5
DE1
102
{ACAD_REACTORS
330
DE0
102
}
330
DE0
100
AcDbXrecord
280
     1
102
RTVSPropertyOp0
 70
     1
102
RTVSPropertyOp1
 70
     1
102
RTVSPropertyOp2
 70
     1
102
RTVSPropertyOp3
 70
     1
102
RTVSPropertyOp4
 70
     1
102
RTVSPropertyOp5
 70
     1
102
RTVSPropertyOp6
 70
     1
102
RTVSPropertyOp7
 70
     1
102
RTVSPropertyOp8
 70
     1
102
RTVSPropertyOp9
 70
     1
102
RTVSPropertyOp10
 70
     1
102
RTVSPropertyOp11
 70
     1
102
RTVSPropertyOp12
 70
     1
102
RTVSPropertyOp13
 70
     1
102
RTVSPropertyOp14
 70
     1
102
RTVSPropertyOp15
 70
     1
102
RTVSPropertyOp16
 70
     1
102
RTVSPropertyOp17
 70
     1
102
RTVSPropertyOp18
 70
     1
102
RTVSPropertyOp19
 70
     1
102
RTVSPropertyOp20
 70
     1
102
RTVSPropertyOp21
 70
     1
102
RTVSPropertyOp22
 70
     1
102
RTVSPropertyOp23
 70
     1
102
RTVSPropertyOp24
 70
     1
102
RTVSPropertyOp25
 70
     1
102
RTVSPropertyOp26
 70
     1
102
RTVSPropertyOp27
 70
     1
102
RTVSPropertyOp28
 70
     1
102
RTVSPropertyOp29
 70
     1
102
RTVSPropertyOp30
 70
     1
102
RTVSPropertyOp31
 70
     1
102
RTVSPropertyOp32
 70
     1
  0
XRECORD
  5
DE3
102
{ACAD_REACTORS
330
DE2
102
}
330
DE2
100
AcDbXrecord
280
     1
102
RTVSPropertyOp0
 70
     1
102
RTVSPropertyOp1
 70
     1
102
RTVSPropertyOp2
 70
     1
102
RTVSPropertyOp3
 70
     1
102
RTVSPropertyOp4
 70
     1
102
RTVSPropertyOp5
 70
     1
102
RTVSPropertyOp6
 70
     1
102
RTVSPropertyOp7
 70
     1
102
RTVSPropertyOp8
 70
     1
102
RTVSPropertyOp9
 70
     1
102
RTVSPropertyOp10
 70
     1
102
RTVSPropertyOp11
 70
     1
102
RTVSPropertyOp12
 70
     1
102
RTVSPropertyOp13
 70
     1
102
RTVSPropertyOp14
 70
     1
102
RTVSPropertyOp15
 70
     1
102
RTVSPropertyOp16
 70
     1
102
RTVSPropertyOp17
 70
     1
102
RTVSPropertyOp18
 70
     1
102
RTVSPropertyOp19
 70
     1
102
RTVSPropertyOp20
 70
     1
102
RTVSPropertyOp21
 70
     1
102
RTVSPropertyOp22
 70
     1
102
RTVSPropertyOp23
 70
     1
102
RTVSPropertyOp24
 70
     1
102
RTVSPropertyOp25
 70
     1
102
RTVSPropertyOp26
 70
     1
102
RTVSPropertyOp27
 70
     1
102
RTVSPropertyOp28
 70
     1
102
RTVSPropertyOp29
 70
     1
102
RTVSPropertyOp30
 70
     1
102
RTVSPropertyOp31
 70
     1
102
RTVSPropertyOp32
 70
     1
  0
XRECORD
  5
DE5
102
{ACAD_REACTORS
330
DE4
102
}
330
DE4
100
AcDbXrecord
280
     1
102
RTVSPropertyOp0
 70
     1
102
RTVSPropertyOp1
 70
     1
102
RTVSPropertyOp2
 70
     1
102
RTVSPropertyOp3
 70
     1
102
RTVSPropertyOp4
 70
     1
102
RTVSPropertyOp5
 70
     1
102
RTVSPropertyOp6
 70
     1
102
RTVSPropertyOp7
 70
     1
102
RTVSPropertyOp8
 70
     1
102
RTVSPropertyOp9
 70
     1
102
RTVSPropertyOp10
 70
     1
102
RTVSPropertyOp11
 70
     1
102
RTVSPropertyOp12
 70
     1
102
RTVSPropertyOp13
 70
     1
102
RTVSPropertyOp14
 70
     1
102
RTVSPropertyOp15
 70
     1
102
RTVSPropertyOp16
 70
     1
102
RTVSPropertyOp17
 70
     1
102
RTVSPropertyOp18
 70
     1
102
RTVSPropertyOp19
 70
     1
102
RTVSPropertyOp20
 70
     1
102
RTVSPropertyOp21
 70
     1
102
RTVSPropertyOp22
 70
     1
102
RTVSPropertyOp23
 70
     1
102
RTVSPropertyOp24
 70
     1
102
RTVSPropertyOp25
 70
     1
102
RTVSPropertyOp26
 70
     1
102
RTVSPropertyOp27
 70
     1
102
RTVSPropertyOp28
 70
     1
102
RTVSPropertyOp29
 70
     1
102
RTVSPropertyOp30
 70
     1
102
RTVSPropertyOp31
 70
     1
102
RTVSPropertyOp32
 70
     1
  0
XRECORD
  5
DED
102
{ACAD_REACTORS
330
DEC
102
}
330
DEC
100
AcDbXrecord
280
     1
102
RTVSPropertyOp0
 70
     1
102
RTVSPropertyOp1
 70
     1
102
RTVSPropertyOp2
 70
     1
102
RTVSPropertyOp3
 70
     1
102
RTVSPropertyOp4
 70
     1
102
RTVSPropertyOp5
 70
     1
102
RTVSPropertyOp6
 70
     1
102
RTVSPropertyOp7
 70
     1
102
RTVSPropertyOp8
 70
     1
102
RTVSPropertyOp9
 70
     1
102
RTVSPropertyOp10
 70
     1
102
RTVSPropertyOp11
 70
     1
102
RTVSPropertyOp12
 70
     1
102
RTVSPropertyOp13
 70
     1
102
RTVSPropertyOp14
 70
     1
102
RTVSPropertyOp15
 70
     1
102
RTVSPropertyOp16
 70
     1
102
RTVSPropertyOp17
 70
     1
102
RTVSPropertyOp18
 70
     1
102
RTVSPropertyOp19
 70
     1
102
RTVSPropertyOp20
 70
     1
102
RTVSPropertyOp21
 70
     1
102
RTVSPropertyOp22
 70
     1
102
RTVSPropertyOp23
 70
     1
102
RTVSPropertyOp24
 70
     1
102
RTVSPropertyOp25
 70
     1
102
RTVSPropertyOp26
 70
     1
102
RTVSPropertyOp27
 70
     1
102
RTVSPropertyOp28
 70
     1
102
RTVSPropertyOp29
 70
     1
102
RTVSPropertyOp30
 70
     1
102
RTVSPropertyOp31
 70
     1
102
RTVSPropertyOp32
 70
     1
  0
XRECORD
  5
E09
102
{ACAD_REACTORS
330
E08
102
}
330
E08
100
AcDbXrecord
280
     1
102
RTVSPropertyOp0
 70
     0
102
RTVSPropertyOp1
 70
     0
102
RTVSPropertyOp2
 70
     0
102
RTVSPropertyOp3
 70
     0
102
RTVSPropertyOp4
 70
     0
102
RTVSPropertyOp5
 70
     0
102
RTVSPropertyOp6
 70
     0
102
RTVSPropertyOp7
 70
     0
102
RTVSPropertyOp8
 70
     0
102
RTVSPropertyOp9
 70
     0
102
RTVSPropertyOp10
 70
     0
102
RTVSPropertyOp11
 70
     0
102
RTVSPropertyOp12
 70
     0
102
RTVSPropertyOp13
 70
     0
102
RTVSPropertyOp14
 70
     2
102
RTVSPropertyOp15
 70
     0
102
RTVSPropertyOp16
 70
     0
102
RTVSPropertyOp17
 70
     0
102
RTVSPropertyOp18
 70
     0
102
RTVSPropertyOp19
 70
     0
102
RTVSPropertyOp20
 70
     0
102
RTVSPropertyOp21
 70
     0
102
RTVSPropertyOp22
 70
     0
102
RTVSPropertyOp23
 70
     0
102
RTVSPropertyOp24
 70
     0
102
RTVSPropertyOp25
 70
     0
102
RTVSPropertyOp26
 70
     0
102
RTVSPropertyOp27
 70
     0
102
RTVSPropertyOp28
 70
     1
102
RTVSPropertyOp29
 70
     1
102
RTVSPropertyOp30
 70
     1
102
RTVSPropertyOp31
 70
     1
102
RTVSPropertyOp32
 70
     1
  0
XRECORD
  5
DF9
102
{ACAD_REACTORS
330
DF8
102
}
330
DF8
100
AcDbXrecord
280
     1
102
RTVSPropertyOp0
 70
     1
102
RTVSPropertyOp1
 70
     1
102
RTVSPropertyOp2
 70
     1
102
RTVSPropertyOp3
 70
     1
102
RTVSPropertyOp4
 70
     1
102
RTVSPropertyOp5
 70
     1
102
RTVSPropertyOp6
 70
     1
102
RTVSPropertyOp7
 70
     1
102
RTVSPropertyOp8
 70
     1
102
RTVSPropertyOp9
 70
     1
102
RTVSPropertyOp10
 70
     1
102
RTVSPropertyOp11
 70
     1
102
RTVSPropertyOp12
 70
     1
102
RTVSPropertyOp13
 70
     1
102
RTVSPropertyOp14
 70
     1
102
RTVSPropertyOp15
 70
     1
102
RTVSPropertyOp16
 70
     1
102
RTVSPropertyOp17
 70
     1
102
RTVSPropertyOp18
 70
     1
102
RTVSPropertyOp19
 70
     1
102
RTVSPropertyOp20
 70
     1
102
RTVSPropertyOp21
 70
     1
102
RTVSPropertyOp22
 70
     1
102
RTVSPropertyOp23
 70
     1
102
RTVSPropertyOp24
 70
     1
102
RTVSPropertyOp25
 70
     1
102
RTVSPropertyOp26
 70
     1
102
RTVSPropertyOp27
 70
     1
102
RTVSPropertyOp28
 70
     1
102
RTVSPropertyOp29
 70
     1
102
RTVSPropertyOp30
 70
     1
102
RTVSPropertyOp31
 70
     1
102
RTVSPropertyOp32
 70
     1
  0
XRECORD
  5
E0B
102
{ACAD_REACTORS
330
E0A
102
}
330
E0A
100
AcDbXrecord
280
     1
102
RTVSPropertyOp0
 70
     0
102
RTVSPropertyOp1
 70
     0
102
RTVSPropertyOp2
 70
     0
102
RTVSPropertyOp3
 70
     0
102
RTVSPropertyOp4
 70
     0
102
RTVSPropertyOp5
 70
     0
102
RTVSPropertyOp6
 70
     0
102
RTVSPropertyOp7
 70
     0
102
RTVSPropertyOp8
 70
     0
102
RTVSPropertyOp9
 70
     0
102
RTVSPropertyOp10
 70
     0
102
RTVSPropertyOp11
 70
     0
102
RTVSPropertyOp12
 70
     0
102
RTVSPropertyOp13
 70
     0
102
RTVSPropertyOp14
 70
     2
102
RTVSPropertyOp15
 70
     0
102
RTVSPropertyOp16
 70
     0
102
RTVSPropertyOp17
 70
     0
102
RTVSPropertyOp18
 70
     0
102
RTVSPropertyOp19
 70
     0
102
RTVSPropertyOp20
 70
     0
102
RTVSPropertyOp21
 70
     0
102
RTVSPropertyOp22
 70
     0
102
RTVSPropertyOp23
 70
     0
102
RTVSPropertyOp24
 70
     0
102
RTVSPropertyOp25
 70
     0
102
RTVSPropertyOp26
 70
     0
102
RTVSPropertyOp27
 70
     0
102
RTVSPropertyOp28
 70
     1
102
RTVSPropertyOp29
 70
     1
102
RTVSPropertyOp30
 70
     1
102
RTVSPropertyOp31
 70
     1
102
RTVSPropertyOp32
 70
     1
  0
XRECORD
  5
DF1
102
{ACAD_REACTORS
330
DF0
102
}
330
DF0
100
AcDbXrecord
280
     1
102
RTVSPropertyOp0
 70
     1
102
RTVSPropertyOp1
 70
     1
102
RTVSPropertyOp2
 70
     1
102
RTVSPropertyOp3
 70
     1
102
RTVSPropertyOp4
 70
     1
102
RTVSPropertyOp5
 70
     1
102
RTVSPropertyOp6
 70
     1
102
RTVSPropertyOp7
 70
     1
102
RTVSPropertyOp8
 70
     1
102
RTVSPropertyOp9
 70
     1
102
RTVSPropertyOp10
 70
     1
102
RTVSPropertyOp11
 70
     1
102
RTVSPropertyOp12
 70
     1
102
RTVSPropertyOp13
 70
     1
102
RTVSPropertyOp14
 70
     1
102
RTVSPropertyOp15
 70
     1
102
RTVSPropertyOp16
 70
     1
102
RTVSPropertyOp17
 70
     1
102
RTVSPropertyOp18
 70
     1
102
RTVSPropertyOp19
 70
     1
102
RTVSPropertyOp20
 70
     1
102
RTVSPropertyOp21
 70
     1
102
RTVSPropertyOp22
 70
     1
102
RTVSPropertyOp23
 70
     1
102
RTVSPropertyOp24
 70
     1
102
RTVSPropertyOp25
 70
     1
102
RTVSPropertyOp26
 70
     1
102
RTVSPropertyOp27
 70
     1
102
RTVSPropertyOp28
 70
     1
102
RTVSPropertyOp29
 70
     1
102
RTVSPropertyOp30
 70
     1
102
RTVSPropertyOp31
 70
     1
102
RTVSPropertyOp32
 70
     1
  0
XRECORD
  5
E07
102
{ACAD_REACTORS
330
E06
102
}
330
E06
100
AcDbXrecord
280
     1
102
RTVSPropertyOp0
 70
     1
102
RTVSPropertyOp1
 70
     1
102
RTVSPropertyOp2
 70
     1
102
RTVSPropertyOp3
 70
     1
102
RTVSPropertyOp4
 70
     1
102
RTVSPropertyOp5
 70
     1
102
RTVSPropertyOp6
 70
     1
102
RTVSPropertyOp7
 70
     1
102
RTVSPropertyOp8
 70
     1
102
RTVSPropertyOp9
 70
     1
102
RTVSPropertyOp10
 70
     1
102
RTVSPropertyOp11
 70
     1
102
RTVSPropertyOp12
 70
     1
102
RTVSPropertyOp13
 70
     1
102
RTVSPropertyOp14
 70
     1
102
RTVSPropertyOp15
 70
     1
102
RTVSPropertyOp16
 70
     1
102
RTVSPropertyOp17
 70
     1
102
RTVSPropertyOp18
 70
     1
102
RTVSPropertyOp19
 70
     1
102
RTVSPropertyOp20
 70
     1
102
RTVSPropertyOp21
 70
     1
102
RTVSPropertyOp22
 70
     1
102
RTVSPropertyOp23
 70
     1
102
RTVSPropertyOp24
 70
     1
102
RTVSPropertyOp25
 70
     1
102
RTVSPropertyOp26
 70
     1
102
RTVSPropertyOp27
 70
     1
102
RTVSPropertyOp28
 70
     1
102
RTVSPropertyOp29
 70
     1
102
RTVSPropertyOp30
 70
     1
102
RTVSPropertyOp31
 70
     1
102
RTVSPropertyOp32
 70
     1
  0
XRECORD
  5
E05
102
{ACAD_REACTORS
330
E04
102
}
330
E04
100
AcDbXrecord
280
     1
102
RTVSPropertyOp0
 70
     1
102
RTVSPropertyOp1
 70
     1
102
RTVSPropertyOp2
 70
     1
102
RTVSPropertyOp3
 70
     1
102
RTVSPropertyOp4
 70
     1
102
RTVSPropertyOp5
 70
     1
102
RTVSPropertyOp6
 70
     1
102
RTVSPropertyOp7
 70
     1
102
RTVSPropertyOp8
 70
     1
102
RTVSPropertyOp9
 70
     1
102
RTVSPropertyOp10
 70
     1
102
RTVSPropertyOp11
 70
     1
102
RTVSPropertyOp12
 70
     1
102
RTVSPropertyOp13
 70
     1
102
RTVSPropertyOp14
 70
     1
102
RTVSPropertyOp15
 70
     1
102
RTVSPropertyOp16
 70
     1
102
RTVSPropertyOp17
 70
     1
102
RTVSPropertyOp18
 70
     1
102
RTVSPropertyOp19
 70
     1
102
RTVSPropertyOp20
 70
     1
102
RTVSPropertyOp21
 70
     1
102
RTVSPropertyOp22
 70
     1
102
RTVSPropertyOp23
 70
     1
102
RTVSPropertyOp24
 70
     1
102
RTVSPropertyOp25
 70
     1
102
RTVSPropertyOp26
 70
     1
102
RTVSPropertyOp27
 70
     1
102
RTVSPropertyOp28
 70
     1
102
RTVSPropertyOp29
 70
     1
102
RTVSPropertyOp30
 70
     1
102
RTVSPropertyOp31
 70
     1
102
RTVSPropertyOp32
 70
     1
  0
XRECORD
  5
DFF
102
{ACAD_REACTORS
330
DFE
102
}
330
DFE
100
AcDbXrecord
280
     1
102
RTVSPropertyOp0
 70
     1
102
RTVSPropertyOp1
 70
     1
102
RTVSPropertyOp2
 70
     1
102
RTVSPropertyOp3
 70
     1
102
RTVSPropertyOp4
 70
     1
102
RTVSPropertyOp5
 70
     1
102
RTVSPropertyOp6
 70
     1
102
RTVSPropertyOp7
 70
     1
102
RTVSPropertyOp8
 70
     1
102
RTVSPropertyOp9
 70
     1
102
RTVSPropertyOp10
 70
     1
102
RTVSPropertyOp11
 70
     1
102
RTVSPropertyOp12
 70
     1
102
RTVSPropertyOp13
 70
     1
102
RTVSPropertyOp14
 70
     1
102
RTVSPropertyOp15
 70
     1
102
RTVSPropertyOp16
 70
     1
102
RTVSPropertyOp17
 70
     1
102
RTVSPropertyOp18
 70
     1
102
RTVSPropertyOp19
 70
     1
102
RTVSPropertyOp20
 70
     1
102
RTVSPropertyOp21
 70
     1
102
RTVSPropertyOp22
 70
     1
102
RTVSPropertyOp23
 70
     1
102
RTVSPropertyOp24
 70
     1
102
RTVSPropertyOp25
 70
     1
102
RTVSPropertyOp26
 70
     1
102
RTVSPropertyOp27
 70
     1
102
RTVSPropertyOp28
 70
     1
102
RTVSPropertyOp29
 70
     1
102
RTVSPropertyOp30
 70
     1
102
RTVSPropertyOp31
 70
     1
102
RTVSPropertyOp32
 70
     1
  0
XRECORD
  5
E01
102
{ACAD_REACTORS
330
E00
102
}
330
E00
100
AcDbXrecord
280
     1
102
RTVSPropertyOp0
 70
     1
102
RTVSPropertyOp1
 70
     1
102
RTVSPropertyOp2
 70
     1
102
RTVSPropertyOp3
 70
     1
102
RTVSPropertyOp4
 70
     1
102
RTVSPropertyOp5
 70
     1
102
RTVSPropertyOp6
 70
     1
102
RTVSPropertyOp7
 70
     1
102
RTVSPropertyOp8
 70
     1
102
RTVSPropertyOp9
 70
     1
102
RTVSPropertyOp10
 70
     1
102
RTVSPropertyOp11
 70
     1
102
RTVSPropertyOp12
 70
     1
102
RTVSPropertyOp13
 70
     1
102
RTVSPropertyOp14
 70
     1
102
RTVSPropertyOp15
 70
     1
102
RTVSPropertyOp16
 70
     1
102
RTVSPropertyOp17
 70
     1
102
RTVSPropertyOp18
 70
     1
102
RTVSPropertyOp19
 70
     1
102
RTVSPropertyOp20
 70
     1
102
RTVSPropertyOp21
 70
     1
102
RTVSPropertyOp22
 70
     1
102
RTVSPropertyOp23
 70
     1
102
RTVSPropertyOp24
 70
     1
102
RTVSPropertyOp25
 70
     1
102
RTVSPropertyOp26
 70
     1
102
RTVSPropertyOp27
 70
     1
102
RTVSPropertyOp28
 70
     1
102
RTVSPropertyOp29
 70
     1
102
RTVSPropertyOp30
 70
     1
102
RTVSPropertyOp31
 70
     1
102
RTVSPropertyOp32
 70
     1
  0
XRECORD
  5
DF7
102
{ACAD_REACTORS
330
DF6
102
}
330
DF6
100
AcDbXrecord
280
     1
102
RTVSPropertyOp0
 70
     1
102
RTVSPropertyOp1
 70
     1
102
RTVSPropertyOp2
 70
     1
102
RTVSPropertyOp3
 70
     1
102
RTVSPropertyOp4
 70
     1
102
RTVSPropertyOp5
 70
     1
102
RTVSPropertyOp6
 70
     1
102
RTVSPropertyOp7
 70
     1
102
RTVSPropertyOp8
 70
     1
102
RTVSPropertyOp9
 70
     1
102
RTVSPropertyOp10
 70
     1
102
RTVSPropertyOp11
 70
     1
102
RTVSPropertyOp12
 70
     1
102
RTVSPropertyOp13
 70
     1
102
RTVSPropertyOp14
 70
     1
102
RTVSPropertyOp15
 70
     1
102
RTVSPropertyOp16
 70
     1
102
RTVSPropertyOp17
 70
     1
102
RTVSPropertyOp18
 70
     1
102
RTVSPropertyOp19
 70
     1
102
RTVSPropertyOp20
 70
     1
102
RTVSPropertyOp21
 70
     1
102
RTVSPropertyOp22
 70
     1
102
RTVSPropertyOp23
 70
     1
102
RTVSPropertyOp24
 70
     1
102
RTVSPropertyOp25
 70
     1
102
RTVSPropertyOp26
 70
     1
102
RTVSPropertyOp27
 70
     1
102
RTVSPropertyOp28
 70
     1
102
RTVSPropertyOp29
 70
     1
102
RTVSPropertyOp30
 70
     1
102
RTVSPropertyOp31
 70
     1
102
RTVSPropertyOp32
 70
     1
  0
XRECORD
  5
DEB
102
{ACAD_REACTORS
330
DEA
102
}
330
DEA
100
AcDbXrecord
280
     1
102
RTVSPropertyOp0
 70
     1
102
RTVSPropertyOp1
 70
     1
102
RTVSPropertyOp2
 70
     1
102
RTVSPropertyOp3
 70
     1
102
RTVSPropertyOp4
 70
     1
102
RTVSPropertyOp5
 70
     1
102
RTVSPropertyOp6
 70
     1
102
RTVSPropertyOp7
 70
     1
102
RTVSPropertyOp8
 70
     1
102
RTVSPropertyOp9
 70
     1
102
RTVSPropertyOp10
 70
     1
102
RTVSPropertyOp11
 70
     1
102
RTVSPropertyOp12
 70
     1
102
RTVSPropertyOp13
 70
     1
102
RTVSPropertyOp14
 70
     1
102
RTVSPropertyOp15
 70
     1
102
RTVSPropertyOp16
 70
     1
102
RTVSPropertyOp17
 70
     1
102
RTVSPropertyOp18
 70
     1
102
RTVSPropertyOp19
 70
     1
102
RTVSPropertyOp20
 70
     1
102
RTVSPropertyOp21
 70
     1
102
RTVSPropertyOp22
 70
     1
102
RTVSPropertyOp23
 70
     1
102
RTVSPropertyOp24
 70
     1
102
RTVSPropertyOp25
 70
     1
102
RTVSPropertyOp26
 70
     1
102
RTVSPropertyOp27
 70
     1
102
RTVSPropertyOp28
 70
     1
102
RTVSPropertyOp29
 70
     1
102
RTVSPropertyOp30
 70
     1
102
RTVSPropertyOp31
 70
     1
102
RTVSPropertyOp32
 70
     1
  0
XRECORD
  5
E03
102
{ACAD_REACTORS
330
E02
102
}
330
E02
100
AcDbXrecord
280
     1
102
RTVSPropertyOp0
 70
     1
102
RTVSPropertyOp1
 70
     1
102
RTVSPropertyOp2
 70
     1
102
RTVSPropertyOp3
 70
     1
102
RTVSPropertyOp4
 70
     1
102
RTVSPropertyOp5
 70
     1
102
RTVSPropertyOp6
 70
     1
102
RTVSPropertyOp7
 70
     1
102
RTVSPropertyOp8
 70
     1
102
RTVSPropertyOp9
 70
     1
102
RTVSPropertyOp10
 70
     1
102
RTVSPropertyOp11
 70
     1
102
RTVSPropertyOp12
 70
     1
102
RTVSPropertyOp13
 70
     1
102
RTVSPropertyOp14
 70
     1
102
RTVSPropertyOp15
 70
     1
102
RTVSPropertyOp16
 70
     1
102
RTVSPropertyOp17
 70
     1
102
RTVSPropertyOp18
 70
     1
102
RTVSPropertyOp19
 70
     1
102
RTVSPropertyOp20
 70
     1
102
RTVSPropertyOp21
 70
     1
102
RTVSPropertyOp22
 70
     1
102
RTVSPropertyOp23
 70
     1
102
RTVSPropertyOp24
 70
     1
102
RTVSPropertyOp25
 70
     1
102
RTVSPropertyOp26
 70
     1
102
RTVSPropertyOp27
 70
     1
102
RTVSPropertyOp28
 70
     1
102
RTVSPropertyOp29
 70
     1
102
RTVSPropertyOp30
 70
     1
102
RTVSPropertyOp31
 70
     1
102
RTVSPropertyOp32
 70
     1
  0
ENDSEC
  0
EOF
