  0
SECTION
  2
HEADER
  9
$ACADVER
  1
AC1015
  9
$ACADMAINTVER
 70
    18
  9
$DWGCODEPAGE
  3
ANSI_1252
  9
$INSBASE
 10
0.0
 20
0.0
 30
0.0
  9
$EXTMIN
 10
0.0
 20
0.0
 30
0.0
  9
$EXTMAX
 10
102.0
 20
66.0
 30
0.0
  9
$LIMMIN
 10
0.0
 20
0.0
  9
$LIMMAX
 10
102.0
 20
66.0
  9
$ORTHOMODE
 70
     0
  9
$REGENMODE
 70
     1
  9
$FILLMODE
 70
     1
  9
$QTEXTMODE
 70
     0
  9
$MIRRTEXT
 70
     0
  9
$LTSCALE
 40
6.0
  9
$ATTMODE
 70
     1
  9
$TEXTSIZE
 40
0.2
  9
$TRACEWID
 40
0.05
  9
$TEXTSTYLE
  7
Standard
  9
$CLAYER
  8
0
  9
$CELTYPE
  6
ByLayer
  9
$CECOLOR
 62
   256
  9
$CELTSCALE
 40
1.0
  9
$DISPSILH
 70
     0
  9
$DIMSCALE
 40
1.0
  9
$DIMASZ
 40
0.0708661417322835
  9
$DIMEXO
 40
0.0625
  9
$DIMDLI
 40
0.38
  9
$DIMRND
 40
0.0
  9
$DIMDLE
 40
0.0
  9
$DIMEXE
 40
0.18
  9
$DIMTP
 40
0.0
  9
$DIMTM
 40
0.0
  9
$DIMTXT
 40
0.0708661417322835
  9
$DIMCEN
 40
0.09
  9
$DIMTSZ
 40
0.0
  9
$DIMTOL
 70
     0
  9
$DIMLIM
 70
     0
  9
$DIMTIH
 70
     1
  9
$DIMTOH
 70
     1
  9
$DIMSE1
 70
     0
  9
$DIMSE2
 70
     0
  9
$DIMTAD
 70
     0
  9
$DIMZIN
 70
     0
  9
$DIMBLK
  1

  9
$DIMASO
 70
     1
  9
$DIMSHO
 70
     1
  9
$DIMPOST
  1

  9
$DIMAPOST
  1

  9
$DIMALT
 70
     0
  9
$DIMALTD
 70
     2
  9
$DIMALTF
 40
25.4
  9
$DIMLFAC
 40
1.0
  9
$DIMTOFL
 70
     0
  9
$DIMTVP
 40
0.0
  9
$DIMTIX
 70
     0
  9
$DIMSOXD
 70
     0
  9
$DIMSAH
 70
     0
  9
$DIMBLK1
  1

  9
$DIMBLK2
  1

  9
$DIMSTYLE
  2
STANDARD
  9
$DIMCLRD
 70
     0
  9
$DIMCLRE
 70
     0
  9
$DIMCLRT
 70
     0
  9
$DIMTFAC
 40
1.0
  9
$DIMGAP
 40
0.09
  9
$DIMJUST
 70
     0
  9
$DIMSD1
 70
     0
  9
$DIMSD2
 70
     0
  9
$DIMTOLJ
 70
     1
  9
$DIMTZIN
 70
     0
  9
$DIMALTZ
 70
     0
  9
$DIMALTTZ
 70
     0
  9
$DIMUPT
 70
     0
  9
$DIMDEC
 70
     4
  9
$DIMTDEC
 70
     4
  9
$DIMALTU
 70
     2
  9
$DIMALTTD
 70
     2
  9
$DIMTXSTY
  7
Standard
  9
$DIMAUNIT
 70
     0
  9
$DIMADEC
 70
     0
  9
$DIMALTRND
 40
0.0
  9
$DIMAZIN
 70
     0
  9
$DIMDSEP
 70
    46
  9
$DIMATFIT
 70
     3
  9
$DIMFRAC
 70
     0
  9
$DIMLDRBLK
  1

  9
$DIMLUNIT
 70
     2
  9
$DIMLWD
 70
    -2
  9
$DIMLWE
 70
    -2
  9
$DIMTMOVE
 70
     0
  9
$LUNITS
 70
     2
  9
$LUPREC
 70
     4
  9
$SKETCHINC
 40
0.1
  9
$FILLETRAD
 40
0.0
  9
$AUNITS
 70
     0
  9
$AUPREC
 70
     0
  9
$MENU
  1
.
  9
$ELEVATION
 40
0.0
  9
$PELEVATION
 40
0.0
  9
$THICKNESS
 40
0.0
  9
$LIMCHECK
 70
     0
  9
$CHAMFERA
 40
0.0
  9
$CHAMFERB
 40
0.0
  9
$CHAMFERC
 40
0.0
  9
$CHAMFERD
 40
0.0
  9
$SKPOLY
 70
     0
  9
$TDCREATE
 40
2455944.625534919
  9
$TDUCREATE
 40
2455944.875534919
  9
$TDUPDATE
 40
2455944.625535104
  9
$TDUUPDATE
 40
2455944.875535104
  9
$TDINDWG
 40
0.0000385185
  9
$TDUSRTIMER
 40
0.0000385185
  9
$USRTIMER
 70
     1
  9
$ANGBASE
 50
0.0
  9
$ANGDIR
 70
     0
  9
$PDMODE
 70
     0
  9
$PDSIZE
 40
0.0
  9
$PLINEWID
 40
0.0
  9
$SPLFRAME
 70
     0
  9
$SPLINETYPE
 70
     6
  9
$SPLINESEGS
 70
     8
  9
$HANDSEED
  5
EC7
  9
$SURFTAB1
 70
     6
  9
$SURFTAB2
 70
     6
  9
$SURFTYPE
 70
     6
  9
$SURFU
 70
     6
  9
$SURFV
 70
     6
  9
$UCSBASE
  2

  9
$UCSNAME
  2

  9
$UCSORG
 10
0.0
 20
0.0
 30
0.0
  9
$UCSXDIR
 10
1.0
 20
0.0
 30
0.0
  9
$UCSYDIR
 10
0.0
 20
1.0
 30
0.0
  9
$UCSORTHOREF
  2

  9
$UCSORTHOVIEW
 70
     0
  9
$UCSORGTOP
 10
0.0
 20
0.0
 30
0.0
  9
$UCSORGBOTTOM
 10
0.0
 20
0.0
 30
0.0
  9
$UCSORGLEFT
 10
0.0
 20
0.0
 30
0.0
  9
$UCSORGRIGHT
 10
0.0
 20
0.0
 30
0.0
  9
$UCSORGFRONT
 10
0.0
 20
0.0
 30
0.0
  9
$UCSORGBACK
 10
0.0
 20
0.0
 30
0.0
  9
$PUCSBASE
  2

  9
$PUCSNAME
  2

  9
$PUCSORG
 10
0.0
 20
0.0
 30
0.0
  9
$PUCSXDIR
 10
1.0
 20
0.0
 30
0.0
  9
$PUCSYDIR
 10
0.0
 20
1.0
 30
0.0
  9
$PUCSORTHOREF
  2

  9
$PUCSORTHOVIEW
 70
     0
  9
$PUCSORGTOP
 10
0.0
 20
0.0
 30
0.0
  9
$PUCSORGBOTTOM
 10
0.0
 20
0.0
 30
0.0
  9
$PUCSORGLEFT
 10
0.0
 20
0.0
 30
0.0
  9
$PUCSORGRIGHT
 10
0.0
 20
0.0
 30
0.0
  9
$PUCSORGFRONT
 10
0.0
 20
0.0
 30
0.0
  9
$PUCSORGBACK
 10
0.0
 20
0.0
 30
0.0
  9
$USERI1
 70
     0
  9
$USERI2
 70
     0
  9
$USERI3
 70
     0
  9
$USERI4
 70
     0
  9
$USERI5
 70
     0
  9
$USERR1
 40
0.0
  9
$USERR2
 40
0.0
  9
$USERR3
 40
0.0
  9
$USERR4
 40
0.0
  9
$USERR5
 40
0.0
  9
$WORLDVIEW
 70
     1
  9
$SHADEDGE
 70
     3
  9
$SHADEDIF
 70
    70
  9
$TILEMODE
 70
     1
  9
$MAXACTVP
 70
    64
  9
$PINSBASE
 10
0.0
 20
0.0
 30
0.0
  9
$PLIMCHECK
 70
     0
  9
$PEXTMIN
 10
0.0
 20
0.0
 30
0.0
  9
$PEXTMAX
 10
102.0
 20
66.0
 30
0.0
  9
$PLIMMIN
 10
0.0
 20
0.0
  9
$PLIMMAX
 10
102.0
 20
66.0
  9
$UNITMODE
 70
     0
  9
$VISRETAIN
 70
     1
  9
$PLINEGEN
 70
     0
  9
$PSLTSCALE
 70
     1
  9
$TREEDEPTH
 70
  3020
  9
$CMLSTYLE
  2
Standard
  9
$CMLJUST
 70
     0
  9
$CMLSCALE
 40
1.0
  9
$PROXYGRAPHICS
 70
     1
  9
$MEASUREMENT
 70
     0
  9
$CELWEIGHT
370
    -1
  9
$ENDCAPS
280
     0
  9
$JOINSTYLE
280
     0
  9
$LWDISPLAY
290
     0
  9
$INSUNITS
 70
     1
  9
$HYPERLINKBASE
  1

  9
$STYLESHEET
  1

  9
$XEDIT
290
     1
  9
$CEPSNTYPE
380
     0
  9
$PSTYLEMODE
290
     1
  9
$FINGERPRINTGUID
  2
{B69267C4-2A47-433B-9846-CEE71480F989}
  9
$VERSIONGUID
  2
{6FD75556-90E8-4BB7-B944-C413818197B0}
  9
$EXTNAMES
290
     1
  9
$PSVPSCALE
 40
0.0
  9
$OLESTARTUP
290
     0
  0
ENDSEC
  0
SECTION
  2
CLASSES
  0
CLASS
  1
ACDBDICTIONARYWDFLT
  2
AcDbDictionaryWithDefault
  3
ObjectDBX Classes
 90
        0
280
     0
281
     0
  0
CLASS
  1
MATERIAL
  2
AcDbMaterial
  3
ObjectDBX Classes
 90
     1153
280
     0
281
     0
  0
CLASS
  1
VISUALSTYLE
  2
AcDbVisualStyle
  3
ObjectDBX Classes
 90
     4095
280
     0
281
     0
  0
CLASS
  1
SCALE
  2
AcDbScale
  3
ObjectDBX Classes
 90
     1153
280
     0
281
     0
  0
CLASS
  1
TABLESTYLE
  2
AcDbTableStyle
  3
ObjectDBX Classes
 90
     4095
280
     0
281
     0
  0
CLASS
  1
MLEADERSTYLE
  2
AcDbMLeaderStyle
  3
ACDB_MLEADERSTYLE_CLASS
 90
     4095
280
     0
281
     0
  0
CLASS
  1
DICTIONARYVAR
  2
AcDbDictionaryVar
  3
ObjectDBX Classes
 90
        0
280
     0
281
     0
  0
CLASS
  1
CELLSTYLEMAP
  2
AcDbCellStyleMap
  3
ObjectDBX Classes
 90
     1152
280
     0
281
     0
  0
CLASS
  1
ACDBPLACEHOLDER
  2
AcDbPlaceHolder
  3
ObjectDBX Classes
 90
        0
280
     0
281
     0
  0
CLASS
  1
LAYOUT
  2
AcDbLayout
  3
ObjectDBX Classes
 90
        0
280
     0
281
     0
  0
ENDSEC
  0
SECTION
  2
TABLES
  0
TABLE
  2
VPORT
  5
8
330
0
100
AcDbSymbolTable
 70
     1
  0
VPORT
  5
57
330
8
100
AcDbSymbolTableRecord
100
AcDbViewportTableRecord
  2
*Active
 70
     0
 10
0.0
 20
0.0
 11
1.0
 21
1.0
 12
51.0
 22
33.0
 13
0.0
 23
0.0
 14
1.0
 24
1.0
 15
0.0
 25
0.0
 16
0.0
 26
0.0
 36
1.0
 17
0.0
 27
0.0
 37
0.0
 40
66.0
 41
1.545454545454545
 42
50.0
 43
0.0
 44
0.0
 50
0.0
 51
0.0
 71
     0
 72
   100
 73
     1
 74
     1
 75
     0
 76
     0
 77
     0
 78
     0
281
     0
 65
     1
110
0.0
120
0.0
130
0.0
111
1.0
121
0.0
131
0.0
112
0.0
122
1.0
132
0.0
 79
     0
146
0.0
  0
ENDTAB
  0
TABLE
  2
LTYPE
  5
5
330
0
100
AcDbSymbolTable
 70
    59
  0
LTYPE
  5
5B
330
5
100
AcDbSymbolTableRecord
100
AcDbLinetypeTableRecord
  2
ByBlock
 70
     0
  3

 72
    65
 73
     0
 40
0.0
  0
LTYPE
  5
5C
330
5
100
AcDbSymbolTableRecord
100
AcDbLinetypeTableRecord
  2
ByLayer
 70
     0
  3

 72
    65
 73
     0
 40
0.0
  0
LTYPE
  5
5D
330
5
100
AcDbSymbolTableRecord
100
AcDbLinetypeTableRecord
  2
Continuous
 70
     0
  3
Solid line
 72
    65
 73
     0
 40
0.0
  0
LTYPE
  5
7C
330
5
100
AcDbSymbolTableRecord
100
AcDbLinetypeTableRecord
  2
BY_STANDARD
 70
     0
  3
By Standard ____________    ____    ____   _
 72
    65
 73
     6
 40
1.240299999999999
 49
0.6614
 74
     0
 49
-0.0827
 74
     0
 49
0.1654
 74
     0
 49
-0.0827
 74
     0
 49
0.1654
 74
     0
 49
-0.0827
 74
     0
  0
LTYPE
  5
7D
330
5
100
AcDbSymbolTableRecord
100
AcDbLinetypeTableRecord
  2
CHAIN
 70
     0
  3
Chain ____ _ ____ _ ____ _ ____ _ ____ _ ____
 72
    65
 73
     4
 40
0.7087
 49
0.4724000000000001
 74
     0
 49
-0.0591
 74
     0
 49
0.1181
 74
     0
 49
-0.0591
 74
     0
  0
LTYPE
  5
7E
330
5
100
AcDbSymbolTableRecord
100
AcDbLinetypeTableRecord
  2
DASH_DOT
 70
     0
  3
Dash dot __ . __ . __ . __ . __ . __ . __ . __
 72
    65
 73
     4
 40
0.37
 49
0.24
 74
     0
 49
-0.06
 74
     0
 49
0.01
 74
     0
 49
-0.06
 74
     0
  0
LTYPE
  5
7F
330
5
100
AcDbSymbolTableRecord
100
AcDbLinetypeTableRecord
  2
DOUBLE_DASH_DOT
 70
     0
  3
Double-Dash Dot __ __ . __ __ . __ __ . __ _
 72
    65
 73
     6
 40
0.4398
 49
0.24
 74
     0
 49
-0.06
 74
     0
 49
0.0098
 74
     0
 49
-0.06
 74
     0
 49
0.01
 74
     0
 49
-0.06
 74
     0
  0
LTYPE
  5
80
330
5
100
AcDbSymbolTableRecord
100
AcDbLinetypeTableRecord
  2
DASH_TRIPLE_DOT
 70
     0
  3
Dash Triple-Dot _ . . . _ . . . _ . . . _
 72
    65
 73
     8
 40
0.51
 49
0.24
 74
     0
 49
-0.06
 74
     0
 49
0.01
 74
     0
 49
-0.06
 74
     0
 49
0.01
 74
     0
 49
-0.06
 74
     0
 49
0.01
 74
     0
 49
-0.06
 74
     0
  0
LTYPE
  5
81
330
5
100
AcDbSymbolTableRecord
100
AcDbLinetypeTableRecord
  2
DASHED
 70
     0
  3
Dashed __ __ __ __ __ __ __ __ __ __ __ __ __ _
 72
    65
 73
     2
 40
0.2067
 49
0.1654
 74
     0
 49
-0.0413
 74
     0
  0
LTYPE
  5
82
330
5
100
AcDbSymbolTableRecord
100
AcDbLinetypeTableRecord
  2
DASH_DOUBLE_DOT
 70
     0
  3
Dash Double-Dot __ . . __ . . __ . . __ . .
 72
    65
 73
     6
 40
0.4398
 49
0.24
 74
     0
 49
-0.06
 74
     0
 49
0.0098
 74
     0
 49
-0.06
 74
     0
 49
0.01
 74
     0
 49
-0.06
 74
     0
  0
LTYPE
  5
83
330
5
100
AcDbSymbolTableRecord
100
AcDbLinetypeTableRecord
  2
DASHED_SPACE
 70
     0
  3
Dashed Space __ __ __ __ __ __ __ __ __ __ __ _
 72
    65
 73
     2
 40
0.2067
 49
0.1654
 74
     0
 49
-0.0413
 74
     0
  0
LTYPE
  5
84
330
5
100
AcDbSymbolTableRecord
100
AcDbLinetypeTableRecord
  2
DOTTED
 70
     0
  3
Dotted . . . . . . . . . . . . . . . . . . . . 
 72
    65
 73
     2
 40
0.0482
 49
0.0069
 74
     0
 49
-0.0413
 74
     0
  0
LTYPE
  5
85
330
5
100
AcDbSymbolTableRecord
100
AcDbLinetypeTableRecord
  2
DOUBLE_DASH_CHAIN
 70
     0
  3
Double-Dash Chain ______  __  __  ______  __  _
 72
    65
 73
     6
 40
1.240299999999999
 49
0.6614
 74
     0
 49
-0.0827
 74
     0
 49
0.1654
 74
     0
 49
-0.0827
 74
     0
 49
0.1654
 74
     0
 49
-0.0827
 74
     0
  0
LTYPE
  5
87
330
5
100
AcDbSymbolTableRecord
100
AcDbLinetypeTableRecord
  2
DOUBLE_DASH_DOUBLE_DOT
 70
     0
  3
Double-Dash Double-dot _ _ . . _ _ . . _
 72
    65
 73
     8
 40
0.7400000000000001
 49
0.24
 74
     0
 49
-0.06
 74
     0
 49
0.24
 74
     0
 49
-0.06
 74
     0
 49
0.01
 74
     0
 49
-0.06
 74
     0
 49
0.01
 74
     0
 49
-0.06
 74
     0
  0
LTYPE
  5
88
330
5
100
AcDbSymbolTableRecord
100
AcDbLinetypeTableRecord
  2
DOUBLE_DASH_TRIPLE_DOT
 70
     0
  3
Double Dash Triple Dot __ __ . . . __ __ . .
 72
    65
 73
    10
 40
0.8100000000000001
 49
0.24
 74
     0
 49
-0.06
 74
     0
 49
0.24
 74
     0
 49
-0.06
 74
     0
 49
0.01
 74
     0
 49
-0.06
 74
     0
 49
0.01
 74
     0
 49
-0.06
 74
     0
 49
0.01
 74
     0
 49
-0.06
 74
     0
  0
LTYPE
  5
89
330
5
100
AcDbSymbolTableRecord
100
AcDbLinetypeTableRecord
  2
LONG_DASH_DOTTED
 70
     0
  3
Long Dash Dotted ____ . ____ . ____ . ____ . _
 72
    65
 73
     4
 40
0.3543
 49
0.2362
 74
     0
 49
-0.0295
 74
     0
 49
0.0591
 74
     0
 49
-0.0295
 74
     0
  0
LTYPE
  5
8A
330
5
100
AcDbSymbolTableRecord
100
AcDbLinetypeTableRecord
  2
LONG_DASH_DOUBLE_DOT
 70
     0
  3
Long Dash Double Dot ________  .  .  ________  
 72
    65
 73
     6
 40
0.6799999999999999
 49
0.48
 74
     0
 49
-0.06
 74
     0
 49
0.01
 74
     0
 49
-0.06
 74
     0
 49
0.01
 74
     0
 49
-0.06
 74
     0
  0
LTYPE
  5
8B
330
5
100
AcDbSymbolTableRecord
100
AcDbLinetypeTableRecord
  2
LONG_DASH_TRIPLE_DOT
 70
     0
  3
Long Dash Triple Dot ____ ... ____ ... ____
 72
    65
 73
     8
 40
0.3689
 49
0.2362
 74
     0
 49
-0.0295
 74
     0
 49
0.0049
 74
     0
 49
-0.0295
 74
     0
 49
0.0049
 74
     0
 49
-0.0295
 74
     0
 49
0.0049
 74
     0
 49
-0.0295
 74
     0
  0
LTYPE
  5
8C
330
5
100
AcDbSymbolTableRecord
100
AcDbLinetypeTableRecord
  2
BORDER
 70
     0
  3
Border __ __ . __ __ . __ __ . __ __ . __ __ .
 72
    65
 73
     6
 40
1.75
 49
0.5
 74
     0
 49
-0.25
 74
     0
 49
0.5
 74
     0
 49
-0.25
 74
     0
 49
0.0
 74
     0
 49
-0.25
 74
     0
  0
LTYPE
  5
8D
330
5
100
AcDbSymbolTableRecord
100
AcDbLinetypeTableRecord
  2
BORDER2
 70
     0
  3
Border (.5x) __.__.__.__.__.__.__.__.__.__.__.
 72
    65
 73
     6
 40
0.875
 49
0.25
 74
     0
 49
-0.125
 74
     0
 49
0.25
 74
     0
 49
-0.125
 74
     0
 49
0.0
 74
     0
 49
-0.125
 74
     0
  0
LTYPE
  5
8E
330
5
100
AcDbSymbolTableRecord
100
AcDbLinetypeTableRecord
  2
BORDERX2
 70
     0
  3
Border (2x) ____  ____  .  ____  ____  .  ___
 72
    65
 73
     6
 40
3.5
 49
1.0
 74
     0
 49
-0.5
 74
     0
 49
1.0
 74
     0
 49
-0.5
 74
     0
 49
0.0
 74
     0
 49
-0.5
 74
     0
  0
LTYPE
  5
8F
330
5
100
AcDbSymbolTableRecord
100
AcDbLinetypeTableRecord
  2
CENTER
 70
     0
  3
Center ____ _ ____ _ ____ _ ____ _ ____ _ ____
 72
    65
 73
     4
 40
2.0
 49
1.25
 74
     0
 49
-0.25
 74
     0
 49
0.25
 74
     0
 49
-0.25
 74
     0
  0
LTYPE
  5
90
330
5
100
AcDbSymbolTableRecord
100
AcDbLinetypeTableRecord
  2
CENTER2
 70
     0
  3
Center (.5x) ___ _ ___ _ ___ _ ___ _ ___ _ ___
 72
    65
 73
     4
 40
1.125
 49
0.75
 74
     0
 49
-0.125
 74
     0
 49
0.125
 74
     0
 49
-0.125
 74
     0
  0
LTYPE
  5
91
330
5
100
AcDbSymbolTableRecord
100
AcDbLinetypeTableRecord
  2
CENTERX2
 70
     0
  3
Center (2x) ________  __  ________  __  _____
 72
    65
 73
     4
 40
4.0
 49
2.5
 74
     0
 49
-0.5
 74
     0
 49
0.5
 74
     0
 49
-0.5
 74
     0
  0
LTYPE
  5
92
330
5
100
AcDbSymbolTableRecord
100
AcDbLinetypeTableRecord
  2
DASHDOT2
 70
     0
  3
Dash dot (.5x) _._._._._._._._._._._._._._._.
 72
    65
 73
     4
 40
0.5
 49
0.25
 74
     0
 49
-0.125
 74
     0
 49
0.0
 74
     0
 49
-0.125
 74
     0
  0
LTYPE
  5
93
330
5
100
AcDbSymbolTableRecord
100
AcDbLinetypeTableRecord
  2
DASHDOTX2
 70
     0
  3
Dash dot (2x) ____  .  ____  .  ____  .  ___
 72
    65
 73
     4
 40
2.0
 49
1.0
 74
     0
 49
-0.5
 74
     0
 49
0.0
 74
     0
 49
-0.5
 74
     0
  0
LTYPE
  5
95
330
5
100
AcDbSymbolTableRecord
100
AcDbLinetypeTableRecord
  2
DASHED2
 70
     0
  3
Dashed (.5x) _ _ _ _ _ _ _ _ _ _ _ _ _ _ _ _ _
 72
    65
 73
     2
 40
0.375
 49
0.25
 74
     0
 49
-0.125
 74
     0
  0
LTYPE
  5
96
330
5
100
AcDbSymbolTableRecord
100
AcDbLinetypeTableRecord
  2
DASHEDX2
 70
     0
  3
Dashed (2x) ____  ____  ____  ____  ____  ___
 72
    65
 73
     2
 40
1.5
 49
1.0
 74
     0
 49
-0.5
 74
     0
  0
LTYPE
  5
97
330
5
100
AcDbSymbolTableRecord
100
AcDbLinetypeTableRecord
  2
DIVIDE
 70
     0
  3
Divide ____ . . ____ . . ____ . . ____ . . ____
 72
    65
 73
     6
 40
1.25
 49
0.5
 74
     0
 49
-0.25
 74
     0
 49
0.0
 74
     0
 49
-0.25
 74
     0
 49
0.0
 74
     0
 49
-0.25
 74
     0
  0
LTYPE
  5
98
330
5
100
AcDbSymbolTableRecord
100
AcDbLinetypeTableRecord
  2
DIVIDE2
 70
     0
  3
Divide (.5x) __..__..__..__..__..__..__..__.._
 72
    65
 73
     6
 40
0.625
 49
0.25
 74
     0
 49
-0.125
 74
     0
 49
0.0
 74
     0
 49
-0.125
 74
     0
 49
0.0
 74
     0
 49
-0.125
 74
     0
  0
LTYPE
  5
99
330
5
100
AcDbSymbolTableRecord
100
AcDbLinetypeTableRecord
  2
DIVIDEX2
 70
     0
  3
Divide (2x) ________  .  .  ________  .  .  _
 72
    65
 73
     6
 40
2.5
 49
1.0
 74
     0
 49
-0.5
 74
     0
 49
0.0
 74
     0
 49
-0.5
 74
     0
 49
0.0
 74
     0
 49
-0.5
 74
     0
  0
LTYPE
  5
9A
330
5
100
AcDbSymbolTableRecord
100
AcDbLinetypeTableRecord
  2
DOT
 70
     0
  3
Dot . . . . . . . . . . . . . . . . . . . . . .
 72
    65
 73
     2
 40
0.25
 49
0.0
 74
     0
 49
-0.25
 74
     0
  0
LTYPE
  5
9B
330
5
100
AcDbSymbolTableRecord
100
AcDbLinetypeTableRecord
  2
DOT2
 70
     0
  3
Dot (.5x) .....................................
 72
    65
 73
     2
 40
0.125
 49
0.0
 74
     0
 49
-0.125
 74
     0
  0
LTYPE
  5
9C
330
5
100
AcDbSymbolTableRecord
100
AcDbLinetypeTableRecord
  2
DOTX2
 70
     0
  3
Dot (2x) .  .  .  .  .  .  .  .  .  .  .  .  . 
 72
    65
 73
     2
 40
0.5
 49
0.0
 74
     0
 49
-0.5
 74
     0
  0
LTYPE
  5
9D
330
5
100
AcDbSymbolTableRecord
100
AcDbLinetypeTableRecord
  2
HIDDEN
 70
     0
  3
Hidden __ __ __ __ __ __ __ __ __ __ __ __ __ _
 72
    65
 73
     2
 40
0.375
 49
0.25
 74
     0
 49
-0.125
 74
     0
  0
LTYPE
  5
9E
330
5
100
AcDbSymbolTableRecord
100
AcDbLinetypeTableRecord
  2
HIDDEN2
 70
     0
  3
Hidden (.5x) _ _ _ _ _ _ _ _ _ _ _ _ _ _ _ _ _
 72
    65
 73
     2
 40
0.1875
 49
0.125
 74
     0
 49
-0.0625
 74
     0
  0
LTYPE
  5
9F
330
5
100
AcDbSymbolTableRecord
100
AcDbLinetypeTableRecord
  2
HIDDENX2
 70
     0
  3
Hidden (2x) ____ ____ ____ ____ ____ ____ ____
 72
    65
 73
     2
 40
0.75
 49
0.5
 74
     0
 49
-0.25
 74
     0
  0
LTYPE
  5
A0
330
5
100
AcDbSymbolTableRecord
100
AcDbLinetypeTableRecord
  2
PHANTOM
 70
     0
  3
Phantom ______  __  __  ______  __  __  ______
 72
    65
 73
     6
 40
2.5
 49
1.25
 74
     0
 49
-0.25
 74
     0
 49
0.25
 74
     0
 49
-0.25
 74
     0
 49
0.25
 74
     0
 49
-0.25
 74
     0
  0
LTYPE
  5
A1
330
5
100
AcDbSymbolTableRecord
100
AcDbLinetypeTableRecord
  2
PHANTOM2
 70
     0
  3
Phantom (.5x) ___ _ _ ___ _ _ ___ _ _ ___ _ _
 72
    65
 73
     6
 40
1.25
 49
0.625
 74
     0
 49
-0.125
 74
     0
 49
0.125
 74
     0
 49
-0.125
 74
     0
 49
0.125
 74
     0
 49
-0.125
 74
     0
  0
LTYPE
  5
A2
330
5
100
AcDbSymbolTableRecord
100
AcDbLinetypeTableRecord
  2
PHANTOMX2
 70
     0
  3
Phantom (2x) ____________    ____    ____   _
 72
    65
 73
     6
 40
5.0
 49
2.5
 74
     0
 49
-0.5
 74
     0
 49
0.5
 74
     0
 49
-0.5
 74
     0
 49
0.5
 74
     0
 49
-0.5
 74
     0
  0
LTYPE
  5
A3
330
5
100
AcDbSymbolTableRecord
100
AcDbLinetypeTableRecord
  2
ACAD_ISO02W100
 70
     0
  3
ISO dash __ __ __ __ __ __ __ __ __ __ __ __ __
 72
    65
 73
     2
 40
0.59
 49
0.47
 74
     0
 49
-0.12
 74
     0
  0
LTYPE
  5
A4
330
5
100
AcDbSymbolTableRecord
100
AcDbLinetypeTableRecord
  2
ACAD_ISO03W100
 70
     0
  3
ISO dash space __    __    __    __    __    __
 72
    65
 73
     2
 40
1.179999999999999
 49
0.47
 74
     0
 49
-0.71
 74
     0
  0
LTYPE
  5
A5
330
5
100
AcDbSymbolTableRecord
100
AcDbLinetypeTableRecord
  2
ACAD_ISO04W100
 70
     0
  3
ISO long-dash dot ____ . ____ . ____ . ____ . _
 72
    65
 73
     4
 40
1.179999999999999
 49
0.9399999999999998
 74
     0
 49
-0.12
 74
     0
 49
0.0
 74
     0
 49
-0.12
 74
     0
  0
LTYPE
  5
A6
330
5
100
AcDbSymbolTableRecord
100
AcDbLinetypeTableRecord
  2
ACAD_ISO05W100
 70
     0
  3
ISO long-dash double-dot ____ .. ____ .. ____ .
 72
    65
 73
     6
 40
1.299999999999999
 49
0.9399999999999998
 74
     0
 49
-0.12
 74
     0
 49
0.0
 74
     0
 49
-0.12
 74
     0
 49
0.0
 74
     0
 49
-0.12
 74
     0
  0
LTYPE
  5
A7
330
5
100
AcDbSymbolTableRecord
100
AcDbLinetypeTableRecord
  2
ACAD_ISO06W100
 70
     0
  3
ISO long-dash triple-dot ____ ... ____ ... ____
 72
    65
 73
     8
 40
1.419999999999999
 49
0.9399999999999998
 74
     0
 49
-0.12
 74
     0
 49
0.0
 74
     0
 49
-0.12
 74
     0
 49
0.0
 74
     0
 49
-0.12
 74
     0
 49
0.0
 74
     0
 49
-0.12
 74
     0
  0
LTYPE
  5
A8
330
5
100
AcDbSymbolTableRecord
100
AcDbLinetypeTableRecord
  2
ACAD_ISO07W100
 70
     0
  3
ISO dot . . . . . . . . . . . . . . . . . . . .
 72
    65
 73
     2
 40
0.12
 49
0.0
 74
     0
 49
-0.12
 74
     0
  0
LTYPE
  5
A9
330
5
100
AcDbSymbolTableRecord
100
AcDbLinetypeTableRecord
  2
ACAD_ISO08W100
 70
     0
  3
ISO long-dash short-dash ____ __ ____ __ ____ _
 72
    65
 73
     4
 40
0.95
 49
0.47
 74
     0
 49
-0.12
 74
     0
 49
0.24
 74
     0
 49
-0.12
 74
     0
  0
LTYPE
  5
AA
330
5
100
AcDbSymbolTableRecord
100
AcDbLinetypeTableRecord
  2
ACAD_ISO09W100
 70
     0
  3
ISO long-dash double-short-dash ____ __ __ ____
 72
    65
 73
     6
 40
1.31
 49
0.47
 74
     0
 49
-0.12
 74
     0
 49
0.24
 74
     0
 49
-0.12
 74
     0
 49
0.24
 74
     0
 49
-0.12
 74
     0
  0
LTYPE
  5
AB
330
5
100
AcDbSymbolTableRecord
100
AcDbLinetypeTableRecord
  2
ACAD_ISO10W100
 70
     0
  3
ISO dash dot __ . __ . __ . __ . __ . __ . __ .
 72
    65
 73
     4
 40
0.71
 49
0.47
 74
     0
 49
-0.12
 74
     0
 49
0.0
 74
     0
 49
-0.12
 74
     0
  0
LTYPE
  5
AC
330
5
100
AcDbSymbolTableRecord
100
AcDbLinetypeTableRecord
  2
ACAD_ISO11W100
 70
     0
  3
ISO double-dash dot __ __ . __ __ . __ __ . __ 
 72
    65
 73
     6
 40
1.299999999999999
 49
0.47
 74
     0
 49
-0.12
 74
     0
 49
0.47
 74
     0
 49
-0.12
 74
     0
 49
0.0
 74
     0
 49
-0.12
 74
     0
  0
LTYPE
  5
AD
330
5
100
AcDbSymbolTableRecord
100
AcDbLinetypeTableRecord
  2
ACAD_ISO12W100
 70
     0
  3
ISO dash double-dot __ . . __ . . __ . . __ . .
 72
    65
 73
     6
 40
0.8299999999999998
 49
0.47
 74
     0
 49
-0.12
 74
     0
 49
0.0
 74
     0
 49
-0.12
 74
     0
 49
0.0
 74
     0
 49
-0.12
 74
     0
  0
LTYPE
  5
AE
330
5
100
AcDbSymbolTableRecord
100
AcDbLinetypeTableRecord
  2
ACAD_ISO13W100
 70
     0
  3
ISO double-dash double-dot __ __ . . __ __ . . 
 72
    65
 73
     8
 40
1.419999999999999
 49
0.47
 74
     0
 49
-0.12
 74
     0
 49
0.47
 74
     0
 49
-0.12
 74
     0
 49
0.0
 74
     0
 49
-0.12
 74
     0
 49
0.0
 74
     0
 49
-0.12
 74
     0
  0
LTYPE
  5
AF
330
5
100
AcDbSymbolTableRecord
100
AcDbLinetypeTableRecord
  2
ACAD_ISO14W100
 70
     0
  3
ISO dash triple-dot __ . . . __ . . . __ . . . 
 72
    65
 73
     8
 40
0.95
 49
0.47
 74
     0
 49
-0.12
 74
     0
 49
0.0
 74
     0
 49
-0.12
 74
     0
 49
0.0
 74
     0
 49
-0.12
 74
     0
 49
0.0
 74
     0
 49
-0.12
 74
     0
  0
LTYPE
  5
B0
330
5
100
AcDbSymbolTableRecord
100
AcDbLinetypeTableRecord
  2
ACAD_ISO15W100
 70
     0
  3
ISO double-dash triple-dot __ __ . . . __ __ . 
 72
    65
 73
    10
 40
1.539999999999999
 49
0.47
 74
     0
 49
-0.12
 74
     0
 49
0.47
 74
     0
 49
-0.12
 74
     0
 49
0.0
 74
     0
 49
-0.12
 74
     0
 49
0.0
 74
     0
 49
-0.12
 74
     0
 49
0.0
 74
     0
 49
-0.12
 74
     0
  0
LTYPE
  5
B3
330
5
100
AcDbSymbolTableRecord
100
AcDbLinetypeTableRecord
  2
FENCELINE1
 70
     0
  3
Fenceline circle ----0-----0----0-----0----0---
 72
    65
 73
     4
 40
1.45
 49
0.25
 74
     0
 49
-0.1
 74
     4
 75
   133
340
B2
 46
0.1
 50
0.0
 44
-0.1
 45
0.0
 49
-0.1
 74
     0
 49
1.0
 74
     0
  0
LTYPE
  5
B4
330
5
100
AcDbSymbolTableRecord
100
AcDbLinetypeTableRecord
  2
FENCELINE2
 70
     0
  3
Fenceline square ----[]-----[]----[]-----[]----
 72
    65
 73
     4
 40
1.45
 49
0.25
 74
     0
 49
-0.1
 74
     4
 75
   132
340
B2
 46
0.1
 50
0.0
 44
-0.1
 45
0.0
 49
-0.1
 74
     0
 49
1.0
 74
     0
  0
LTYPE
  5
B5
330
5
100
AcDbSymbolTableRecord
100
AcDbLinetypeTableRecord
  2
TRACKS
 70
     0
  3
Tracks -|-|-|-|-|-|-|-|-|-|-|-|-|-|-|-|-|-|-|-|
 72
    65
 73
     2
 40
0.3
 49
0.15
 74
     4
 75
   130
340
B2
 46
0.25
 50
0.0
 44
0.0
 45
0.0
 49
0.15
 74
     0
  0
LTYPE
  5
B6
330
5
100
AcDbSymbolTableRecord
100
AcDbLinetypeTableRecord
  2
BATTING
 70
     0
  3
Batting SSSSSSSSSSSSSSSSSSSSSSSSSSSSSSSSSSSSSSS
 72
    65
 73
     4
 40
0.4001000000000001
 49
0.0001
 74
     0
 49
-0.1
 74
     4
 75
   134
340
B2
 46
0.1
 50
0.0
 44
-0.1
 45
0.0
 49
-0.2
 74
     4
 75
   134
340
B2
 46
0.1
 50
180.0
 44
0.1
 45
0.0
 49
-0.1
 74
     0
  0
LTYPE
  5
B7
330
5
100
AcDbSymbolTableRecord
100
AcDbLinetypeTableRecord
  2
HOT_WATER_SUPPLY
 70
     0
  3
Hot water supply ---- HW ---- HW ---- HW ----
 72
    65
 73
     3
 40
0.9
 49
0.5
 74
     0
 49
-0.2
 74
     2
 75
     0
340
55
 46
0.1
 50
0.0
 44
-0.1
 45
-0.05
  9
HW
 49
-0.2
 74
     0
  0
LTYPE
  5
B8
330
5
100
AcDbSymbolTableRecord
100
AcDbLinetypeTableRecord
  2
GAS_LINE
 70
     0
  3
Gas line ----GAS----GAS----GAS----GAS----GAS---
 72
    65
 73
     3
 40
0.95
 49
0.5
 74
     0
 49
-0.2
 74
     2
 75
     0
340
55
 46
0.1
 50
0.0
 44
-0.1
 45
-0.05
  9
GAS
 49
-0.25
 74
     0
  0
LTYPE
  5
B9
330
5
100
AcDbSymbolTableRecord
100
AcDbLinetypeTableRecord
  2
ZIGZAG
 70
     0
  3
Zig zag /\/\/\/\/\/\/\/\/\/\/\/\/\/\/\/\/\/\/\/
 72
    65
 73
     4
 40
0.8001000000000001
 49
0.0001
 74
     0
 49
-0.2
 74
     4
 75
   131
340
B2
 46
0.2
 50
0.0
 44
-0.2
 45
0.0
 49
-0.4
 74
     4
 75
   131
340
B2
 46
0.2
 50
180.0
 44
0.2
 45
0.0
 49
-0.2
 74
     0
  0
ENDTAB
  0
TABLE
  2
LAYER
  5
2
330
0
100
AcDbSymbolTable
 70
    27
  0
LAYER
  5
54
330
2
100
AcDbSymbolTableRecord
100
AcDbLayerTableRecord
  2
0
 70
     0
 62
     7
  6
Continuous
370
    18
390
F
  0
LAYER
  5
C3
330
2
100
AcDbSymbolTableRecord
100
AcDbLayerTableRecord
  2
Dimension (ANSI)
 70
     0
 62
     7
  6
Continuous
370
    13
390
F
  0
LAYER
  5
C5
330
2
100
AcDbSymbolTableRecord
100
AcDbLayerTableRecord
  2
Hidden (ANSI)
 70
     0
 62
     7
  6
DASHED
370
    15
390
F
  0
LAYER
  5
CC
330
2
100
AcDbSymbolTableRecord
100
AcDbLayerTableRecord
  2
Symbol (ANSI)
 70
     0
 62
     7
  6
Continuous
370
    18
390
F
  0
LAYER
  5
CF
330
2
100
AcDbSymbolTableRecord
100
AcDbLayerTableRecord
  2
Visible (ANSI)
 70
     0
 62
     7
  6
Continuous
370
    13
390
F
  0
LAYER
  5
D0
330
2
100
AcDbSymbolTableRecord
100
AcDbLayerTableRecord
  2
Visible Narrow (ANSI)
 70
     0
 62
     7
  6
Continuous
370
    18
390
F
  0
LAYER
  5
1B2
330
2
100
AcDbSymbolTableRecord
100
AcDbLayerTableRecord
  2
Defpoints
 70
     0
 62
     7
  6
Continuous
290
     0
370
    -3
390
F
  0
ENDTAB
  0
TABLE
  2
STYLE
  5
3
330
0
100
AcDbSymbolTable
 70
    17
  0
STYLE
  5
55
330
3
100
AcDbSymbolTableRecord
100
AcDbTextStyleTableRecord
  2
Standard
 70
     0
 40
0.0
 41
1.0
 50
0.0
 71
     0
 42
0.2
  3
txt
  4

  0
STYLE
  5
5A
330
3
100
AcDbSymbolTableRecord
100
AcDbTextStyleTableRecord
  2
Annotative
 70
     0
 40
0.0
 41
1.0
 50
0.0
 71
     0
 42
0.2
  3
txt
  4

1001
AcadAnnotative
1000
AnnotativeData
1002
{
1070
     1
1070
     1
1002
}
  0
STYLE
  5
B2
330
3
100
AcDbSymbolTableRecord
100
AcDbTextStyleTableRecord
  2

 70
     1
 40
0.0
 41
1.0
 50
0.0
 71
     0
 42
0.2
  3
ltypeshp.shx
  4

  0
STYLE
  5
D4
330
3
100
AcDbSymbolTableRecord
100
AcDbTextStyleTableRecord
  2
ITALICC_120
 70
     0
 40
0.0
 41
1.0
 50
0.0
 71
     0
 42
0.2
  3
italicc.shx
  4

  0
STYLE
  5
D5
330
3
100
AcDbSymbolTableRecord
100
AcDbTextStyleTableRecord
  2
Label Text (ANSI)
 70
     0
 40
0.0
 41
1.0
 50
0.0
 71
     0
 42
0.2
  3
RomanS.shx
  4

  0
STYLE
  5
D6
330
3
100
AcDbSymbolTableRecord
100
AcDbTextStyleTableRecord
  2
Note Text (ANSI)
 70
     0
 40
0.0
 41
1.0
 50
0.0
 71
     0
 42
0.2
  3
RomanS.shx
  4

  0
STYLE
  5
D7
330
3
100
AcDbSymbolTableRecord
100
AcDbTextStyleTableRecord
  2
ROMANS
 70
     0
 40
0.0
 41
1.0
 50
0.0
 71
     0
 42
0.2
  3
romans.shx
  4

  0
STYLE
  5
D8
330
3
100
AcDbSymbolTableRecord
100
AcDbTextStyleTableRecord
  2
SANSSERIF_114
 70
     0
 40
0.0
 41
1.0
 50
0.0
 71
     0
 42
0.2
  3
TAHOMA.TTF
  4

1001
ACAD
1000
Tahoma
1071
      256
  0
STYLE
  5
D9
330
3
100
AcDbSymbolTableRecord
100
AcDbTextStyleTableRecord
  2
SANSSERIF_117
 70
     0
 40
0.0
 41
1.0
 50
0.0
 71
     0
 42
0.2
  3
TAHOMA.TTF
  4

1001
ACAD
1000
Tahoma
1071
      256
  0
STYLE
  5
DA
330
3
100
AcDbSymbolTableRecord
100
AcDbTextStyleTableRecord
  2
STANDARDAM_ANSI
 70
     0
 40
0.0
 41
1.0
 50
0.0
 71
     0
 42
0.2
  3
txt.shx
  4

  0
STYLE
  5
DB
330
3
100
AcDbSymbolTableRecord
100
AcDbTextStyleTableRecord
  2
StandardAM_ANSI$0
 70
     0
 40
0.0
 41
1.0
 50
0.0
 71
     0
 42
0.2
  3
txt.shx
  4

  0
STYLE
  5
DC
330
3
100
AcDbSymbolTableRecord
100
AcDbTextStyleTableRecord
  2
STANDARDAM_ANSI$3
 70
     0
 40
0.0
 41
1.0
 50
0.0
 71
     0
 42
0.2
  3
txt.shx
  4

  0
STYLE
  5
DD
330
3
100
AcDbSymbolTableRecord
100
AcDbTextStyleTableRecord
  2
STANDARDAM_ANSI$4
 70
     0
 40
0.0
 41
1.0
 50
0.0
 71
     0
 42
0.2
  3
txt.shx
  4

  0
STYLE
  5
DE
330
3
100
AcDbSymbolTableRecord
100
AcDbTextStyleTableRecord
  2
STANDARDAM_ANSI$7
 70
     0
 40
0.0
 41
1.0
 50
0.0
 71
     0
 42
0.2
  3
txt.shx
  4

  0
STYLE
  5
DF
330
3
100
AcDbSymbolTableRecord
100
AcDbTextStyleTableRecord
  2
STANDARDAM_ANSI$SF
 70
     0
 40
0.0
 41
1.0
 50
0.0
 71
     0
 42
0.2
  3
txt.shx
  4

  0
STYLE
  5
E0
330
3
100
AcDbSymbolTableRecord
100
AcDbTextStyleTableRecord
  2
STANDARDAM_ANSI$SH
 70
     0
 40
0.0
 41
1.0
 50
0.0
 71
     0
 42
0.2
  3
txt.shx
  4

  0
STYLE
  5
E1
330
3
100
AcDbSymbolTableRecord
100
AcDbTextStyleTableRecord
  2
STANDARDSTANDARD
 70
     0
 40
0.0
 41
1.0
 50
0.0
 71
     0
 42
0.2
  3
txt.shx
  4

  0
ENDTAB
  0
TABLE
  2
VIEW
  5
6
330
0
100
AcDbSymbolTable
 70
     0
  0
ENDTAB
  0
TABLE
  2
UCS
  5
7
330
0
100
AcDbSymbolTable
 70
     0
  0
ENDTAB
  0
TABLE
  2
APPID
  5
9
330
0
100
AcDbSymbolTable
 70
     4
  0
APPID
  5
56
330
9
100
AcDbSymbolTableRecord
100
AcDbRegAppTableRecord
  2
ACAD
 70
     0
  0
APPID
  5
5E
330
9
100
AcDbSymbolTableRecord
100
AcDbRegAppTableRecord
  2
AcadAnnotative
 70
     0
  0
APPID
  5
420
330
9
100
AcDbSymbolTableRecord
100
AcDbRegAppTableRecord
  2
ACAD_DSTYLE_DIMRADIAL_EXTENSION
 70
     0
  0
APPID
  5
EBC
330
9
100
AcDbSymbolTableRecord
100
AcDbRegAppTableRecord
  2
ACAD_MLEADERVER
 70
     0
  0
ENDTAB
  0
TABLE
  2
DIMSTYLE
  5
A
330
0
100
AcDbSymbolTable
 70
    27
100
AcDbDimStyleTable
 71
     2
340
F6
340
58
  0
DIMSTYLE
105
58
330
A
100
AcDbSymbolTableRecord
100
AcDbDimStyleTableRecord
  2
STANDARD
 70
     0
 41
0.1800000071525573
 42
0.0625
140
0.1800000071525574
144
1.0
147
0.0900000035762787
176
   256
177
   256
178
   256
274
     3
340
55
371
    -1
372
    -1
  0
DIMSTYLE
105
59
330
A
100
AcDbSymbolTableRecord
100
AcDbDimStyleTableRecord
  2
Annotative
 70
     0
340
55
1001
AcadAnnotative
1000
AnnotativeData
1002
{
1070
     1
1070
     1
1002
}
  0
DIMSTYLE
105
E2
330
A
100
AcDbSymbolTableRecord
100
AcDbDimStyleTableRecord
  2
AM_ANSI
 70
     0
  4
 mm
 40
6.0
 41
0.119999997317791
 42
0.05
 43
0.5
 44
0.1
 45
0.00000001
 78
     4
 79
     2
140
0.1200000047683716
146
0.7099999453624112
147
0.0599999986588955
176
   256
177
   256
178
     2
284
     4
340
DA
371
    -1
372
    -1
  0
DIMSTYLE
105
E3
330
A
100
AcDbSymbolTableRecord
100
AcDbDimStyleTableRecord
  2
AM_ANSI$7
 70
     0
  4
 mm
 40
6.0
 41
0.119999997317791
 42
0.05
 43
0.5
 44
0.1
 45
0.00000001
 78
     4
 79
     2
140
0.1200000047683716
146
0.7099999453624112
147
0.0599999986588955
176
   256
177
   256
178
     2
284
     4
340
DA
371
    -1
372
    -1
  0
DIMSTYLE
105
E4
330
A
100
AcDbSymbolTableRecord
100
AcDbDimStyleTableRecord
  2
AM_ANSI$0
 70
     0
  4
 mm
 40
6.0
 41
0.119999997317791
 42
0.05
 43
0.5
 44
0.1
 45
0.00000001
 78
     4
 79
     2
140
0.1200000047683716
146
0.7099999453624112
147
0.0599999986588955
176
   256
177
   256
178
     2
284
     4
340
DB
371
    -1
372
    -1
  0
DIMSTYLE
105
E5
330
A
100
AcDbSymbolTableRecord
100
AcDbDimStyleTableRecord
  2
AM_ANSI$0$7
 70
     0
  4
 mm
 40
6.0
 41
0.119999997317791
 42
0.05
 43
0.5
 44
0.1
 45
0.00000001
 78
     4
 79
     2
140
0.1200000047683716
146
0.7099999453624112
147
0.0599999986588955
176
   256
177
   256
178
     2
284
     4
340
DB
371
    -1
372
    -1
  0
DIMSTYLE
105
E6
330
A
100
AcDbSymbolTableRecord
100
AcDbDimStyleTableRecord
  2
AM_ANSI$3
 70
     0
  4
 mm
 40
6.0
 41
0.119999997317791
 42
0.05
 43
0.5
 44
0.1
 45
0.00000001
 78
     4
 79
     2
140
0.1200000047683716
146
0.7099999453624112
147
0.0599999986588955
176
   256
177
   256
178
     2
284
     4
340
DC
371
    -1
372
    -1
  0
DIMSTYLE
105
E7
330
A
100
AcDbSymbolTableRecord
100
AcDbDimStyleTableRecord
  2
AM_ANSI$3$7
 70
     0
  4
 mm
 40
6.0
 41
0.119999997317791
 42
0.05
 43
0.5
 44
0.1
 45
0.00000001
 78
     4
 79
     2
140
0.1200000047683716
146
0.7099999453624112
147
0.0599999986588955
176
   256
177
   256
178
     2
284
     4
340
DC
371
    -1
372
    -1
  0
DIMSTYLE
105
E8
330
A
100
AcDbSymbolTableRecord
100
AcDbDimStyleTableRecord
  2
AM_ANSI$4
 70
     0
  4
 mm
 40
6.0
 41
0.119999997317791
 42
0.05
 43
0.5
 44
0.1
 45
0.00000001
 78
     4
 79
     2
140
0.1200000047683716
146
0.7099999453624112
147
0.0599999986588955
176
   256
177
   256
178
     2
284
     4
340
DD
371
    -1
372
    -1
  0
DIMSTYLE
105
E9
330
A
100
AcDbSymbolTableRecord
100
AcDbDimStyleTableRecord
  2
AM_ANSI$4$7
 70
     0
  4
 mm
 40
6.0
 41
0.119999997317791
 42
0.05
 43
0.5
 44
0.1
 45
0.00000001
 78
     4
 79
     2
140
0.1200000047683716
146
0.7099999453624112
147
0.0599999986588955
176
   256
177
   256
178
     2
284
     4
340
DD
371
    -1
372
    -1
  0
DIMSTYLE
105
EA
330
A
100
AcDbSymbolTableRecord
100
AcDbDimStyleTableRecord
  2
AM_ANSI$SF
 70
     0
  4
 mm
 40
6.0
 41
0.119999997317791
 42
0.05
 43
0.5
 44
0.1
 45
0.00000001
 75
     1
 76
     1
 78
     4
 79
     2
140
0.1200000047683716
146
0.7099999453624112
147
0.0599999986588955
176
   256
177
   256
178
     2
284
     4
340
DF
371
    -1
372
    -1
  0
DIMSTYLE
105
EB
330
A
100
AcDbSymbolTableRecord
100
AcDbDimStyleTableRecord
  2
AM_ANSI$SF$7
 70
     0
  4
 mm
 40
6.0
 41
0.119999997317791
 42
0.05
 43
0.5
 44
0.1
 45
0.00000001
 75
     1
 76
     1
 78
     4
 79
     2
140
0.1200000047683716
146
0.7099999453624112
147
0.0599999986588955
176
   256
177
   256
178
     2
284
     4
340
DF
371
    -1
372
    -1
  0
DIMSTYLE
105
EC
330
A
100
AcDbSymbolTableRecord
100
AcDbDimStyleTableRecord
  2
AM_ANSI$SH
 70
     0
  4
 mm
 40
6.0
 41
0.119999997317791
 42
0.05
 43
0.5
 44
0.1
 45
0.00000001
 75
     1
 76
     1
 78
     4
 79
     2
140
0.1200000047683716
146
0.7099999453624112
147
0.0599999986588955
176
   256
177
   256
178
     2
284
     4
340
E0
371
    -1
372
    -1
  0
DIMSTYLE
105
ED
330
A
100
AcDbSymbolTableRecord
100
AcDbDimStyleTableRecord
  2
AM_ANSI$SH$7
 70
     0
  4
 mm
 40
6.0
 41
0.119999997317791
 42
0.05
 43
0.5
 44
0.1
 45
0.00000001
 75
     1
 76
     1
 78
     4
 79
     2
140
0.1200000047683716
146
0.7099999453624112
147
0.0599999986588955
176
   256
177
   256
178
     2
284
     4
340
E0
371
    -1
372
    -1
  0
DIMSTYLE
105
EE
330
A
100
AcDbSymbolTableRecord
100
AcDbDimStyleTableRecord
  2
Architectural (ANSI)
 70
     0
 40
6.0
 41
0.0984251946210861
 43
0.2362204724409449
 44
0.125
 45
0.00000001
 46
0.3937007874015748
 78
     3
 79
     3
140
0.1200000047683716
147
0.031496062992126
171
     1
176
   256
177
   256
178
   256
272
     2
274
     1
276
     2
277
     4
284
    12
285
     4
286
    12
340
D6
371
    -1
372
    -1
  0
DIMSTYLE
105
EF
330
A
100
AcDbSymbolTableRecord
100
AcDbDimStyleTableRecord
  2
Architectural (ANSI)$7
 70
     0
 40
6.0
 41
0.0984251946210861
 43
0.2362204724409449
 44
0.125
 45
0.00000001
 46
0.3937007874015748
 78
     3
 79
     3
140
0.1200000047683716
147
0.031496062992126
171
     1
176
   256
177
   256
178
   256
272
     2
274
     1
276
     2
277
     4
284
    12
285
     4
286
    12
340
D6
371
    -1
372
    -1
  0
DIMSTYLE
105
F0
330
A
100
AcDbSymbolTableRecord
100
AcDbDimStyleTableRecord
  2
Default - Fraction (ANSI)
 70
     0
 40
6.0
 41
0.0984251946210861
 43
0.2362204724409449
 44
0.125
 45
0.00000001
 46
0.3937007874015748
 79
     3
140
0.1200000047683716
147
0.031496062992126
171
     1
176
   256
177
   256
178
   256
272
     2
274
     1
276
     2
277
     5
284
    12
285
     4
286
    12
340
D6
371
    -1
372
    -1
  0
DIMSTYLE
105
F1
330
A
100
AcDbSymbolTableRecord
100
AcDbDimStyleTableRecord
  2
Default - Fraction (ANSI)$7
 70
     0
 40
6.0
 41
0.0984251946210861
 43
0.2362204724409449
 44
0.125
 45
0.00000001
 46
0.3937007874015748
 79
     3
140
0.1200000047683716
147
0.031496062992126
171
     1
176
   256
177
   256
178
   256
272
     2
274
     1
276
     2
277
     5
284
    12
285
     4
286
    12
340
D6
371
    -1
372
    -1
  0
DIMSTYLE
105
F2
330
A
100
AcDbSymbolTableRecord
100
AcDbDimStyleTableRecord
  2
Default - mm (ANSI)
 70
     0
 40
6.0
 41
0.0984251946210861
 42
0.063
 43
0.2362204724409449
 44
0.125
 45
0.00000001
 46
0.3937007874015748
 73
     0
 78
     4
 79
     1
140
0.1200000047683716
143
1.0
144
25.4
147
0.031496062992126
171
     1
176
   256
177
   256
178
   256
179
     1
271
     2
272
     2
274
     1
284
     4
285
     4
340
D6
371
    -1
372
    -1
  0
DIMSTYLE
105
F3
330
A
100
AcDbSymbolTableRecord
100
AcDbDimStyleTableRecord
  2
Default - mm (ANSI)$7
 70
     0
 40
6.0
 41
0.0984251946210861
 42
0.063
 43
0.2362204724409449
 44
0.125
 45
0.00000001
 46
0.3937007874015748
 73
     0
 78
     4
 79
     1
140
0.1200000047683716
143
1.0
144
25.4
147
0.031496062992126
171
     1
176
   256
177
   256
178
   256
179
     1
271
     2
272
     2
274
     1
284
     4
285
     4
340
D6
371
    -1
372
    -1
  0
DIMSTYLE
105
F4
330
A
100
AcDbSymbolTableRecord
100
AcDbDimStyleTableRecord
  2
Default - mm [in] (ANSI)
 70
     0
  4
 in
 40
6.0
 41
0.0984251946210861
 42
0.063
 43
0.25
 44
0.125
 45
0.00000001
 46
0.3937007874015748
 73
     0
 78
     4
 79
     1
140
0.1200000047683716
143
0.03937
144
25.4
147
0.031496062992126
170
     1
171
     3
176
   256
177
   256
178
   256
179
     1
271
     2
272
     2
274
     3
284
     4
285
     4
286
     4
340
D6
371
    -1
372
    -1
  0
DIMSTYLE
105
F5
330
A
100
AcDbSymbolTableRecord
100
AcDbDimStyleTableRecord
  2
Default - mm [in] (ANSI)$7
 70
     0
  4
 in
 40
6.0
 41
0.0984251946210861
 42
0.063
 43
0.25
 44
0.125
 45
0.00000001
 46
0.3937007874015748
 73
     0
 78
     4
 79
     1
140
0.1200000047683716
143
0.03937
144
25.4
147
0.031496062992126
170
     1
171
     3
176
   256
177
   256
178
   256
179
     1
271
     2
272
     2
274
     3
284
     4
285
     4
286
     4
340
D6
371
    -1
372
    -1
  0
DIMSTYLE
105
F6
102
{ACAD_REACTORS
330
1B0
330
29D
330
387
330
441
330
4FA
330
5F8
330
6E2
330
7E2
330
8CC
330
9CC
330
AB6
330
BA0
330
CA2
330
D8C
102
}
330
A
100
AcDbSymbolTableRecord
100
AcDbDimStyleTableRecord
  2
Default (ANSI)
 70
     0
 40
6.0
 41
0.0984251946210861
 43
0.2362204724409449
 44
0.125
 45
0.00000001
 46
0.3937007874015748
 79
     1
140
0.1200000047683716
147
0.031496062992126
171
     1
176
   256
177
   256
178
   256
271
     3
272
     2
274
     1
284
     4
285
     4
340
D6
371
    -1
372
    -1
  0
DIMSTYLE
105
F7
330
A
100
AcDbSymbolTableRecord
100
AcDbDimStyleTableRecord
  2
Default (ANSI)$7
 70
     0
 40
6.0
 41
0.0984251946210861
 43
0.2362204724409449
 44
0.125
 45
0.00000001
 46
0.3937007874015748
 79
     1
140
0.1200000047683716
147
0.031496062992126
171
     1
176
   256
177
   256
178
   256
271
     3
272
     2
274
     1
284
     4
285
     4
340
D6
371
    -1
372
    -1
  0
DIMSTYLE
105
F8
330
A
100
AcDbSymbolTableRecord
100
AcDbDimStyleTableRecord
  2
Alternate (ANSI)
 70
     0
 40
6.0
 41
0.0979999974370003
340
55
342
F9
  0
DIMSTYLE
105
10B
330
A
100
AcDbSymbolTableRecord
100
AcDbDimStyleTableRecord
  2
Datum (ANSI)
 70
     0
 40
6.0
 41
0.0979999974370003
340
55
342
F9
  0
DIMSTYLE
105
11A
330
A
100
AcDbSymbolTableRecord
100
AcDbDimStyleTableRecord
  2
Large (ANSI)
 70
     0
 40
6.0
 41
0.1959999948740005
340
55
342
F9
  0
ENDTAB
  0
TABLE
  2
BLOCK_RECORD
  5
1
330
0
100
AcDbSymbolTable
 70
    18
  0
BLOCK_RECORD
  5
6C
330
1
100
AcDbSymbolTableRecord
100
AcDbBlockTableRecord
  2
*Model_Space
340
6F
  0
BLOCK_RECORD
  5
68
330
1
100
AcDbSymbolTableRecord
100
AcDbBlockTableRecord
  2
*Paper_Space
340
6B
  0
BLOCK_RECORD
  5
70
330
1
100
AcDbSymbolTableRecord
100
AcDbBlockTableRecord
  2
*Paper_Space0
340
73
  0
BLOCK_RECORD
  5
F9
330
1
100
AcDbSymbolTableRecord
100
AcDbBlockTableRecord
  2
_Closed
340
0
  0
BLOCK_RECORD
  5
100
330
1
100
AcDbSymbolTableRecord
100
AcDbBlockTableRecord
  2
DatumFilled45
340
0
  0
BLOCK_RECORD
  5
10C
330
1
100
AcDbSymbolTableRecord
100
AcDbBlockTableRecord
  2
Filled-1
340
0
  0
BLOCK_RECORD
  5
1B3
330
1
100
AcDbSymbolTableRecord
100
AcDbBlockTableRecord
  2
*D4
340
0
  0
BLOCK_RECORD
  5
29E
330
1
100
AcDbSymbolTableRecord
100
AcDbBlockTableRecord
  2
*D5
340
0
  0
BLOCK_RECORD
  5
388
330
1
100
AcDbSymbolTableRecord
100
AcDbBlockTableRecord
  2
*D6
340
0
  0
BLOCK_RECORD
  5
442
330
1
100
AcDbSymbolTableRecord
100
AcDbBlockTableRecord
  2
*D7
340
0
  0
BLOCK_RECORD
  5
4FB
330
1
100
AcDbSymbolTableRecord
100
AcDbBlockTableRecord
  2
*D8
340
0
  0
BLOCK_RECORD
  5
5F9
330
1
100
AcDbSymbolTableRecord
100
AcDbBlockTableRecord
  2
*D9
340
0
  0
BLOCK_RECORD
  5
6E3
330
1
100
AcDbSymbolTableRecord
100
AcDbBlockTableRecord
  2
*D10
340
0
  0
BLOCK_RECORD
  5
7E3
330
1
100
AcDbSymbolTableRecord
100
AcDbBlockTableRecord
  2
*D11
340
0
  0
BLOCK_RECORD
  5
8CD
330
1
100
AcDbSymbolTableRecord
100
AcDbBlockTableRecord
  2
*D12
340
0
  0
BLOCK_RECORD
  5
9CD
330
1
100
AcDbSymbolTableRecord
100
AcDbBlockTableRecord
  2
*D13
340
0
  0
BLOCK_RECORD
  5
AB7
330
1
100
AcDbSymbolTableRecord
100
AcDbBlockTableRecord
  2
*D14
340
0
  0
BLOCK_RECORD
  5
BA1
330
1
100
AcDbSymbolTableRecord
100
AcDbBlockTableRecord
  2
*D15
340
0
  0
BLOCK_RECORD
  5
CA3
330
1
100
AcDbSymbolTableRecord
100
AcDbBlockTableRecord
  2
*D16
340
0
  0
BLOCK_RECORD
  5
D8D
330
1
100
AcDbSymbolTableRecord
100
AcDbBlockTableRecord
  2
*D17
340
0
  0
ENDTAB
  0
ENDSEC
  0
SECTION
  2
BLOCKS
  0
BLOCK
  5
6D
330
6C
100
AcDbEntity
  8
0
100
AcDbBlockBegin
  2
*Model_Space
 70
     0
 10
0.0
 20
0.0
 30
0.0
  3
*Model_Space
  1

  0
ENDBLK
  5
6E
330
6C
100
AcDbEntity
  8
0
100
AcDbBlockEnd
  0
BLOCK
  5
69
330
68
100
AcDbEntity
 67
     1
  8
0
100
AcDbBlockBegin
  2
*Paper_Space
 70
     0
 10
0.0
 20
0.0
 30
0.0
  3
*Paper_Space
  1

  0
ENDBLK
  5
6A
330
68
100
AcDbEntity
 67
     1
  8
0
100
AcDbBlockEnd
  0
BLOCK
  5
71
330
70
100
AcDbEntity
 67
     1
  8
0
100
AcDbBlockBegin
  2
*Paper_Space0
 70
     0
 10
0.0
 20
0.0
 30
0.0
  3
*Paper_Space0
  1

  0
ENDBLK
  5
72
330
70
100
AcDbEntity
 67
     1
  8
0
100
AcDbBlockEnd
  0
BLOCK
  5
FE
330
F9
100
AcDbEntity
  8
0
100
AcDbBlockBegin
  2
_Closed
 70
     0
 10
0.0
 20
0.0
 30
0.0
  3
_Closed
  1

  0
LINE
  5
FA
330
F9
100
AcDbEntity
  8
0
  6
ByBlock
 62
     0
370
    -2
100
AcDbLine
 10
-1.0
 20
0.1666666666666666
 30
0.0
 11
0.0
 21
0.0
 31
0.0
  0
LINE
  5
FB
330
F9
100
AcDbEntity
  8
0
  6
ByBlock
 62
     0
370
    -2
100
AcDbLine
 10
0.0
 20
0.0
 30
0.0
 11
-1.0
 21
-0.1666666666666666
 31
0.0
  0
LINE
  5
FC
330
F9
100
AcDbEntity
  8
0
  6
ByBlock
 62
     0
370
    -2
100
AcDbLine
 10
-1.0
 20
0.1666666666666666
 30
0.0
 11
-1.0
 21
-0.1666666666666666
 31
0.0
  0
LINE
  5
FD
330
F9
100
AcDbEntity
  8
0
  6
ByBlock
 62
     0
370
    -2
100
AcDbLine
 10
0.0
 20
0.0
 30
0.0
 11
-1.0
 21
0.0
 31
0.0
  0
ENDBLK
  5
FF
330
F9
100
AcDbEntity
  8
0
100
AcDbBlockEnd
  0
BLOCK
  5
101
330
100
100
AcDbEntity
  8
0
100
AcDbBlockBegin
  2
DatumFilled45
 70
     0
 10
0.0
 20
0.0
 30
0.0
  3
DatumFilled45
  1

  0
POLYLINE
  5
103
330
100
100
AcDbEntity
  8
0
 62
     0
100
AcDb2dPolyline
 66
     1
 10
0.0
 20
0.0
 30
0.0
 70
   128
  0
VERTEX
  5
104
330
103
100
AcDbEntity
  8
0
 62
     0
100
AcDbVertex
100
AcDb2dVertex
 10
0.0
 20
0.9999999999999998
 30
0.0
  0
VERTEX
  5
105
330
103
100
AcDbEntity
  8
0
 62
     0
100
AcDbVertex
100
AcDb2dVertex
 10
0.0
 20
-0.9999999999999998
 30
0.0
  0
VERTEX
  5
107
330
103
100
AcDbEntity
  8
0
 62
     0
100
AcDbVertex
100
AcDb2dVertex
 10
-0.9999999999999998
 20
0.0
 30
0.0
  0
VERTEX
  5
108
330
103
100
AcDbEntity
  8
0
 62
     0
100
AcDbVertex
100
AcDb2dVertex
 10
0.0
 20
0.9999999999999998
 30
0.0
  0
SEQEND
  5
106
330
103
100
AcDbEntity
  8
0
 62
     0
  0
SOLID
  5
10A
330
100
100
AcDbEntity
  8
0
 62
     0
100
AcDbTrace
 10
0.0
 20
0.9999999999999998
 30
0.0
 11
0.0
 21
-0.9999999999999998
 31
0.0
 12
-0.9999999999999998
 22
0.0
 32
0.0
 13
0.0
 23
0.9999999999999998
 33
0.0
  0
ENDBLK
  5
102
330
100
100
AcDbEntity
  8
0
100
AcDbBlockEnd
  0
BLOCK
  5
10D
330
10C
100
AcDbEntity
  8
0
100
AcDbBlockBegin
  2
Filled-1
 70
     0
 10
0.0
 20
0.0
 30
0.0
  3
Filled-1
  1

  0
LINE
  5
10F
330
10C
100
AcDbEntity
  8
0
 62
     0
100
AcDbLine
 10
-0.9999999999999998
 20
0.0
 30
0.0
 11
0.0
 21
0.0
 31
0.0
  0
POLYLINE
  5
110
330
10C
100
AcDbEntity
  8
0
 62
     0
100
AcDb2dPolyline
 66
     1
 10
0.0
 20
0.0
 30
0.0
 70
   128
  0
VERTEX
  5
111
330
110
100
AcDbEntity
  8
0
 62
     0
100
AcDbVertex
100
AcDb2dVertex
 10
-0.9999999999999998
 20
-0.0994897959183674
 30
0.0
  0
VERTEX
  5
112
330
110
100
AcDbEntity
  8
0
 62
     0
100
AcDbVertex
100
AcDb2dVertex
 10
0.0
 20
0.0
 30
0.0
  0
VERTEX
  5
114
330
110
100
AcDbEntity
  8
0
 62
     0
100
AcDbVertex
100
AcDb2dVertex
 10
-0.9999999999999998
 20
0.0994897959183674
 30
0.0
  0
VERTEX
  5
115
330
110
100
AcDbEntity
  8
0
 62
     0
100
AcDbVertex
100
AcDb2dVertex
 10
-0.9999999999999998
 20
-0.0994897959183674
 30
0.0
  0
SEQEND
  5
113
330
110
100
AcDbEntity
  8
0
 62
     0
  0
SOLID
  5
116
330
10C
100
AcDbEntity
  8
0
 62
     0
100
AcDbTrace
 10
-0.9999999999999998
 20
-0.0994897959183674
 30
0.0
 11
0.0
 21
0.0
 31
0.0
 12
-0.9999999999999998
 22
0.0994897959183674
 32
0.0
 13
-0.9999999999999998
 23
-0.0994897959183674
 33
0.0
  0
LINE
  5
117
330
10C
100
AcDbEntity
  8
0
 62
     0
100
AcDbLine
 10
-0.9999999999999998
 20
-0.0994897959183674
 30
0.0
 11
0.0
 21
0.0
 31
0.0
  0
LINE
  5
118
330
10C
100
AcDbEntity
  8
0
 62
     0
100
AcDbLine
 10
0.0
 20
0.0
 30
0.0
 11
-0.9999999999999998
 21
0.0994897959183674
 31
0.0
  0
LINE
  5
119
330
10C
100
AcDbEntity
  8
0
 62
     0
100
AcDbLine
 10
-0.9999999999999998
 20
0.0994897959183674
 30
0.0
 11
-0.9999999999999998
 21
-0.0994897959183674
 31
0.0
  0
ENDBLK
  5
10E
330
10C
100
AcDbEntity
  8
0
100
AcDbBlockEnd
  0
BLOCK
  5
1B4
330
1B3
100
AcDbEntity
  8
0
100
AcDbBlockBegin
  2
*D4
 70
     1
 10
0.0
 20
0.0
 30
0.0
  3
*D4
  1

  0
LINE
  5
293
330
1B3
100
AcDbEntity
  8
Dimension (ANSI)
100
AcDbLine
 10
41.88275692828418
 20
54.62347590068812
 30
0.0
 11
41.88275692828418
 21
61.61264912903458
 31
0.0
  0
LINE
  5
294
330
1B3
100
AcDbEntity
  8
Dimension (ANSI)
100
AcDbLine
 10
19.68275692828418
 20
54.62347590068812
 30
0.0
 11
19.68275692828418
 21
61.61264912903458
 31
0.0
  0
LINE
  5
295
330
1B3
100
AcDbEntity
  8
Dimension (ANSI)
100
AcDbLine
 10
41.29220576055766
 20
60.86264912903459
 30
0.0
 11
32.75459051993845
 21
60.86264912903459
 31
0.0
  0
LINE
  5
296
330
1B3
100
AcDbEntity
  8
Dimension (ANSI)
100
AcDbLine
 10
20.27330809601069
 20
60.86264912903459
 30
0.0
 11
28.8109233366299
 21
60.86264912903459
 31
0.0
  0
SOLID
  5
297
330
1B3
100
AcDbEntity
  8
Dimension (ANSI)
100
AcDbTrace
 10
41.29220576055766
 20
60.96107432365567
 30
0.0
 11
41.29220576055766
 21
60.7642239344135
 31
0.0
 12
41.88275692828418
 22
60.86264912903459
 32
0.0
 13
41.88275692828418
 23
60.86264912903459
 33
0.0
  0
SOLID
  5
298
330
1B3
100
AcDbEntity
  8
Dimension (ANSI)
100
AcDbTrace
 10
20.27330809601069
 20
60.96107432365567
 30
0.0
 11
20.27330809601069
 21
60.7642239344135
 31
0.0
 12
19.68275692828418
 22
60.86264912903459
 32
0.0
 13
19.68275692828418
 23
60.86264912903459
 33
0.0
  0
MTEXT
  5
299
330
1B3
100
AcDbEntity
  8
Dimension (ANSI)
100
AcDbMText
 10
28.99989971458266
 20
61.2226491433397
 30
0.0
 40
0.7200000286102295
 41
0.0
 71
     1
 72
     1
  1
\A1;22.200
  7
Note Text (ANSI)
 73
     1
 44
1.0
1001
ACAD
1000
MTEXTBEGIN
1070
    73
1070
     1
1070
    44
1040
1.0
1070
    74
1070
     0
1000
MTEXTEND
  0
POINT
  5
29A
330
1B3
100
AcDbEntity
  8
Defpoints
 62
     0
100
AcDbPoint
 10
41.88275692828418
 20
54.24847590068813
 30
0.0
  0
POINT
  5
29B
330
1B3
100
AcDbEntity
  8
Defpoints
 62
     0
100
AcDbPoint
 10
19.68275692828418
 20
54.24847590068813
 30
0.0
  0
POINT
  5
29C
330
1B3
100
AcDbEntity
  8
Defpoints
 62
     0
100
AcDbPoint
 10
19.68275692828418
 20
60.86264912903459
 30
0.0
  0
ENDBLK
  5
1B5
330
1B3
100
AcDbEntity
  8
0
100
AcDbBlockEnd
  0
BLOCK
  5
29F
330
29E
100
AcDbEntity
  8
0
100
AcDbBlockBegin
  2
*D5
 70
     1
 10
0.0
 20
0.0
 30
0.0
  3
*D5
  1

  0
LINE
  5
37D
330
29E
100
AcDbEntity
  8
Dimension (ANSI)
100
AcDbLine
 10
19.80775692828418
 20
54.74847590068812
 30
0.0
 11
7.888352286547412
 21
54.74847590068813
 31
0.0
  0
LINE
  5
37E
330
29E
100
AcDbEntity
  8
Dimension (ANSI)
100
AcDbLine
 10
19.80775692828419
 20
20.54847590068813
 30
0.0
 11
7.888352286547404
 21
20.54847590068814
 31
0.0
  0
LINE
  5
37F
330
29E
100
AcDbEntity
  8
Dimension (ANSI)
100
AcDbLine
 10
8.638352286547412
 20
54.15792473296161
 30
0.0
 11
8.638352286547409
 21
42.96857466979876
 31
0.0
  0
LINE
  5
380
330
29E
100
AcDbEntity
  8
Dimension (ANSI)
100
AcDbLine
 10
8.638352286547405
 20
21.13902706841465
 30
0.0
 11
8.638352286547409
 21
41.87062188528302
 31
0.0
  0
SOLID
  5
381
330
29E
100
AcDbEntity
  8
Dimension (ANSI)
100
AcDbTrace
 10
8.539927091926326
 20
54.15792473296161
 30
0.0
 11
8.736777481168498
 21
54.15792473296161
 31
0.0
 12
8.638352286547412
 22
54.74847590068813
 32
0.0
 13
8.638352286547412
 23
54.74847590068813
 33
0.0
  0
SOLID
  5
382
330
29E
100
AcDbEntity
  8
Dimension (ANSI)
100
AcDbTrace
 10
8.539927091926319
 20
21.13902706841465
 30
0.0
 11
8.736777481168491
 21
21.13902706841465
 31
0.0
 12
8.638352286547405
 22
20.54847590068813
 32
0.0
 13
8.638352286547405
 23
20.54847590068813
 33
0.0
  0
MTEXT
  5
383
330
29E
100
AcDbEntity
  8
Dimension (ANSI)
100
AcDbMText
 10
6.855495072845881
 20
42.77959829184601
 30
0.0
 40
0.7200000286102295
 41
0.0
 71
     1
 72
     1
  1
\A1;34.200
  7
Note Text (ANSI)
 73
     1
 44
1.0
1001
ACAD
1000
MTEXTBEGIN
1070
    73
1070
     1
1070
    44
1040
1.0
1070
    74
1070
     0
1000
MTEXTEND
  0
POINT
  5
384
330
29E
100
AcDbEntity
  8
Defpoints
 62
     0
100
AcDbPoint
 10
20.18275692828418
 20
54.74847590068812
 30
0.0
  0
POINT
  5
385
330
29E
100
AcDbEntity
  8
Defpoints
 62
     0
100
AcDbPoint
 10
20.18275692828419
 20
20.54847590068813
 30
0.0
  0
POINT
  5
386
330
29E
100
AcDbEntity
  8
Defpoints
 62
     0
100
AcDbPoint
 10
8.638352286547405
 20
20.54847590068813
 30
0.0
  0
ENDBLK
  5
2A0
330
29E
100
AcDbEntity
  8
0
100
AcDbBlockEnd
  0
BLOCK
  5
389
330
388
100
AcDbEntity
  8
0
100
AcDbBlockBegin
  2
*D6
 70
     1
 10
0.0
 20
0.0
 30
0.0
  3
*D6
  1

  0
LINE
  5
439
330
388
100
AcDbEntity
  8
Dimension (ANSI)
100
AcDbLine
 10
23.26359184821043
 20
16.23322416452561
 30
0.0
 11
22.41046210032845
 21
16.23322416452561
 31
0.0
  0
LINE
  5
43A
330
388
100
AcDbEntity
  8
Dimension (ANSI)
100
AcDbLine
 10
22.41046210032845
 20
16.23322416452561
 30
0.0
 11
20.5518716554819
 21
20.30385496661682
 31
0.0
  0
MTEXT
  5
43B
102
{ACAD_XDICTIONARY
360
EC3
102
}
330
388
100
AcDbEntity
  8
Dimension (ANSI)
100
AcDbMText
 10
23.45256822616318
 20
16.80750990163139
 30
0.0
 40
0.7200000286102295
 41
0.0
 71
     1
 72
     1
  1
\A1;\U+22050.500{\PTYP.(6PL.)}
  7
Note Text (ANSI)
 73
     1
 44
1.0
1001
ACAD
1000
MTEXTBEGIN
1070
    73
1070
     1
1070
    44
1040
1.0
1070
    74
1070
     0
1000
MTEXTEND
  0
SOLID
  5
43C
330
388
100
AcDbEntity
  8
Dimension (ANSI)
100
AcDbTrace
 10
20.64140572210021
 20
20.34473491097816
 30
0.0
 11
20.46233758886359
 21
20.26297502225548
 31
0.0
 12
20.30659198931385
 22
20.84105936632669
 32
0.0
 13
20.30659198931385
 23
20.84105936632669
 33
0.0
  0
LINE
  5
43D
330
388
100
AcDbEntity
  8
Dimension (ANSI)
100
AcDbLine
 10
19.6627569282842
 20
21.06847590068813
 30
0.0
 11
20.7427569282842
 21
21.06847590068813
 31
0.0
  0
LINE
  5
43E
330
388
100
AcDbEntity
  8
Dimension (ANSI)
100
AcDbLine
 10
20.2027569282842
 20
20.52847590068814
 30
0.0
 11
20.2027569282842
 21
21.60847590068813
 31
0.0
  0
POINT
  5
43F
330
388
100
AcDbEntity
  8
Defpoints
 62
     0
100
AcDbPoint
 10
20.30659198931385
 20
20.84105936632669
 30
0.0
  0
POINT
  5
440
330
388
100
AcDbEntity
  8
Defpoints
 62
     0
100
AcDbPoint
 10
20.09892186725455
 20
21.29589243504958
 30
0.0
  0
ENDBLK
  5
38A
330
388
100
AcDbEntity
  8
0
100
AcDbBlockEnd
  0
BLOCK
  5
443
330
442
100
AcDbEntity
  8
0
100
AcDbBlockBegin
  2
*D7
 70
     1
 10
0.0
 20
0.0
 30
0.0
  3
*D7
  1

  0
LINE
  5
4F2
330
442
100
AcDbEntity
  8
Dimension (ANSI)
100
AcDbLine
 10
23.23734814752986
 20
19.17251872046272
 30
0.0
 11
22.38421839964776
 21
19.17251872046272
 31
0.0
  0
LINE
  5
4F3
330
442
100
AcDbEntity
  8
Dimension (ANSI)
100
AcDbLine
 10
22.38421839964776
 20
19.17251872046272
 30
0.0
 11
20.67782013284471
 21
21.24225811565336
 31
0.0
  0
MTEXT
  5
4F4
102
{ACAD_XDICTIONARY
360
EC5
102
}
330
442
100
AcDbEntity
  8
Dimension (ANSI)
100
AcDbMText
 10
23.42632452548262
 20
19.7468044575685
 30
0.0
 40
0.7200000286102295
 41
0.0
 71
     1
 72
     1
  1
\A1;\U+22050.313{\PTYP.(4PL.)}
  7
Note Text (ANSI)
 73
     1
 44
1.0
1001
ACAD
1000
MTEXTBEGIN
1070
    73
1070
     1
1070
    44
1040
1.0
1070
    74
1070
     0
1000
MTEXTEND
  0
SOLID
  5
4F5
330
442
100
AcDbEntity
  8
Dimension (ANSI)
100
AcDbTrace
 10
20.75376316840373
 20
21.30486941085062
 30
0.0
 11
20.60187709728568
 21
21.17964682045609
 31
0.0
 12
20.30215236166112
 22
21.69791632900753
 32
0.0
 13
20.30215236166112
 23
21.69791632900753
 33
0.0
  0
LINE
  5
4F6
330
442
100
AcDbEntity
  8
Dimension (ANSI)
100
AcDbLine
 10
19.66275692828418
 20
21.81847590068813
 30
0.0
 11
20.74275692828418
 21
21.81847590068812
 31
0.0
  0
LINE
  5
4F7
330
442
100
AcDbEntity
  8
Dimension (ANSI)
100
AcDbLine
 10
20.20275692828418
 20
21.27847590068813
 30
0.0
 11
20.20275692828418
 21
22.35847590068813
 31
0.0
  0
POINT
  5
4F8
330
442
100
AcDbEntity
  8
Defpoints
 62
     0
100
AcDbPoint
 10
20.30215236166112
 20
21.69791632900753
 30
0.0
  0
POINT
  5
4F9
330
442
100
AcDbEntity
  8
Defpoints
 62
     0
100
AcDbPoint
 10
20.10336149490724
 20
21.93903547236873
 30
0.0
  0
ENDBLK
  5
444
330
442
100
AcDbEntity
  8
0
100
AcDbBlockEnd
  0
BLOCK
  5
4FC
330
4FB
100
AcDbEntity
  8
0
100
AcDbBlockBegin
  2
*D8
 70
     1
 10
0.0
 20
0.0
 30
0.0
  3
*D8
  1

  0
LINE
  5
5EE
330
4FB
100
AcDbEntity
  8
Dimension (ANSI)
100
AcDbLine
 10
64.36639937348783
 20
41.85544172646322
 30
0.0
 11
64.36639937348783
 21
20.40711652245393
 31
0.0
  0
LINE
  5
5EF
330
4FB
100
AcDbEntity
  8
Dimension (ANSI)
100
AcDbLine
 10
64.46014937348784
 20
41.85544172646322
 30
0.0
 11
64.46014937348784
 21
20.40711652245393
 31
0.0
  0
LINE
  5
5F0
330
4FB
100
AcDbEntity
  8
Dimension (ANSI)
100
AcDbLine
 10
63.77584820576132
 20
21.15711652245392
 30
0.0
 11
63.18529703803481
 21
21.15711652245392
 31
0.0
  0
LINE
  5
5F1
330
4FB
100
AcDbEntity
  8
Dimension (ANSI)
100
AcDbLine
 10
65.05070054121436
 20
21.15711652245392
 30
0.0
 11
65.64125170894087
 21
21.15711652245392
 31
0.0
  0
SOLID
  5
5F2
330
4FB
100
AcDbEntity
  8
Dimension (ANSI)
100
AcDbTrace
 10
63.77584820576132
 20
21.25554171707501
 30
0.0
 11
63.77584820576132
 21
21.05869132783284
 31
0.0
 12
64.36639937348783
 22
21.15711652245392
 32
0.0
 13
64.36639937348783
 23
21.15711652245392
 33
0.0
  0
SOLID
  5
5F3
330
4FB
100
AcDbEntity
  8
Dimension (ANSI)
100
AcDbTrace
 10
65.05070054121436
 20
21.25554171707501
 30
0.0
 11
65.05070054121436
 21
21.05869132783284
 31
0.0
 12
64.46014937348784
 22
21.15711652245392
 32
0.0
 13
64.46014937348784
 23
21.15711652245392
 33
0.0
  0
MTEXT
  5
5F4
330
4FB
100
AcDbEntity
  8
Dimension (ANSI)
100
AcDbMText
 10
65.83022808689363
 20
21.63711654152741
 30
0.0
 40
0.7200000286102295
 41
0.0
 71
     1
 72
     1
  1
\A1; 12 GA.\P304 SS
  7
Note Text (ANSI)
 73
     1
 44
1.0
1001
ACAD
1000
MTEXTBEGIN
1070
    73
1070
     1
1070
    44
1040
1.0
1070
    74
1070
     0
1000
MTEXTEND
  0
POINT
  5
5F5
330
4FB
100
AcDbEntity
  8
Defpoints
 62
     0
100
AcDbPoint
 10
64.36639937348783
 20
42.23044172646321
 30
0.0
  0
POINT
  5
5F6
330
4FB
100
AcDbEntity
  8
Defpoints
 62
     0
100
AcDbPoint
 10
64.46014937348784
 20
42.23044172646321
 30
0.0
  0
POINT
  5
5F7
330
4FB
100
AcDbEntity
  8
Defpoints
 62
     0
100
AcDbPoint
 10
64.46014937348784
 20
21.15711652245392
 30
0.0
  0
ENDBLK
  5
4FD
330
4FB
100
AcDbEntity
  8
0
100
AcDbBlockEnd
  0
BLOCK
  5
5FA
330
5F9
100
AcDbEntity
  8
0
100
AcDbBlockBegin
  2
*D9
 70
     1
 10
0.0
 20
0.0
 30
0.0
  3
*D9
  1

  0
LINE
  5
6D8
330
5F9
100
AcDbEntity
  8
Dimension (ANSI)
100
AcDbLine
 10
19.82775692828419
 20
54.22847590068812
 30
0.0
 11
10.90000357246483
 21
54.22847590068813
 31
0.0
  0
LINE
  5
6D9
330
5F9
100
AcDbEntity
  8
Dimension (ANSI)
100
AcDbLine
 10
19.82775692828419
 20
21.06847590068813
 30
0.0
 11
10.90000357246482
 21
21.06847590068813
 31
0.0
  0
LINE
  5
6DA
330
5F9
100
AcDbEntity
  8
Dimension (ANSI)
100
AcDbLine
 10
11.65000357246483
 20
53.63792473296161
 30
0.0
 11
11.65000357246483
 21
40.91300302174726
 31
0.0
  0
LINE
  5
6DB
330
5F9
100
AcDbEntity
  8
Dimension (ANSI)
100
AcDbLine
 10
11.65000357246482
 20
21.65902706841465
 30
0.0
 11
11.65000357246483
 21
39.81505023723153
 31
0.0
  0
SOLID
  5
6DC
330
5F9
100
AcDbEntity
  8
Dimension (ANSI)
100
AcDbTrace
 10
11.55157837784374
 20
53.63792473296161
 30
0.0
 11
11.74842876708592
 21
53.63792473296161
 31
0.0
 12
11.65000357246483
 22
54.22847590068813
 32
0.0
 13
11.65000357246483
 23
54.22847590068813
 33
0.0
  0
SOLID
  5
6DD
330
5F9
100
AcDbEntity
  8
Dimension (ANSI)
100
AcDbTrace
 10
11.55157837784374
 20
21.65902706841465
 30
0.0
 11
11.74842876708591
 21
21.65902706841465
 31
0.0
 12
11.65000357246482
 22
21.06847590068813
 32
0.0
 13
11.65000357246482
 23
21.06847590068813
 33
0.0
  0
MTEXT
  5
6DE
330
5F9
100
AcDbEntity
  8
Dimension (ANSI)
100
AcDbMText
 10
9.867146358763301
 20
40.72402664379451
 30
0.0
 40
0.7200000286102295
 41
0.0
 71
     1
 72
     1
  1
\A1;33.160
  7
Note Text (ANSI)
 73
     1
 44
1.0
1001
ACAD
1000
MTEXTBEGIN
1070
    73
1070
     1
1070
    44
1040
1.0
1070
    74
1070
     0
1000
MTEXTEND
  0
POINT
  5
6DF
330
5F9
100
AcDbEntity
  8
Defpoints
 62
     0
100
AcDbPoint
 10
20.20275692828419
 20
54.22847590068812
 30
0.0
  0
POINT
  5
6E0
330
5F9
100
AcDbEntity
  8
Defpoints
 62
     0
100
AcDbPoint
 10
20.20275692828419
 20
21.06847590068813
 30
0.0
  0
POINT
  5
6E1
330
5F9
100
AcDbEntity
  8
Defpoints
 62
     0
100
AcDbPoint
 10
11.65000357246482
 20
21.06847590068813
 30
0.0
  0
ENDBLK
  5
5FB
330
5F9
100
AcDbEntity
  8
0
100
AcDbBlockEnd
  0
BLOCK
  5
6E4
330
6E3
100
AcDbEntity
  8
0
100
AcDbBlockBegin
  2
*D10
 70
     1
 10
0.0
 20
0.0
 30
0.0
  3
*D10
  1

  0
LINE
  5
7D7
330
6E3
100
AcDbEntity
  8
Dimension (ANSI)
100
AcDbLine
 10
19.82775692828419
 20
21.81847590068814
 30
0.0
 11
15.10231920968409
 21
21.81847590068814
 31
0.0
  0
LINE
  5
7D8
330
6E3
100
AcDbEntity
  8
Dimension (ANSI)
100
AcDbLine
 10
19.82775692828419
 20
21.06847590068813
 30
0.0
 11
15.10231920968409
 21
21.06847590068813
 31
0.0
  0
LINE
  5
7D9
330
6E3
100
AcDbEntity
  8
Dimension (ANSI)
100
AcDbLine
 10
15.85231920968409
 20
20.47792473296162
 30
0.0
 11
15.85231920968409
 21
19.8873735652351
 31
0.0
  0
LINE
  5
7DA
330
6E3
100
AcDbEntity
  8
Dimension (ANSI)
100
AcDbLine
 10
15.85231920968409
 20
22.40902706841465
 30
0.0
 11
15.85231920968409
 21
23.52889552217171
 31
0.0
  0
LINE
  5
7DB
330
6E3
100
AcDbEntity
  8
Dimension (ANSI)
100
AcDbLine
 10
15.85231920968409
 20
23.52889552217171
 30
0.0
 11
16.44287037741061
 21
23.52889552217171
 31
0.0
  0
SOLID
  5
7DC
330
6E3
100
AcDbEntity
  8
Dimension (ANSI)
100
AcDbTrace
 10
15.75389401506301
 20
20.47792473296162
 30
0.0
 11
15.95074440430518
 21
20.47792473296162
 31
0.0
 12
15.85231920968409
 22
21.06847590068813
 32
0.0
 13
15.85231920968409
 23
21.06847590068813
 33
0.0
  0
SOLID
  5
7DD
330
6E3
100
AcDbEntity
  8
Dimension (ANSI)
100
AcDbTrace
 10
15.75389401506301
 20
22.40902706841465
 30
0.0
 11
15.95074440430518
 21
22.40902706841465
 31
0.0
 12
15.85231920968409
 22
21.81847590068814
 32
0.0
 13
15.85231920968409
 23
21.81847590068814
 33
0.0
  0
MTEXT
  5
7DE
330
6E3
100
AcDbEntity
  8
Dimension (ANSI)
100
AcDbMText
 10
16.63184675536336
 20
23.88889553647683
 30
0.0
 40
0.7200000286102295
 41
0.0
 71
     1
 72
     1
  1
\A1;0.750
  7
Note Text (ANSI)
 73
     1
 44
1.0
1001
ACAD
1000
MTEXTBEGIN
1070
    73
1070
     1
1070
    44
1040
1.0
1070
    74
1070
     0
1000
MTEXTEND
  0
POINT
  5
7DF
330
6E3
100
AcDbEntity
  8
Defpoints
 62
     0
100
AcDbPoint
 10
20.20275692828419
 20
21.81847590068814
 30
0.0
  0
POINT
  5
7E0
330
6E3
100
AcDbEntity
  8
Defpoints
 62
     0
100
AcDbPoint
 10
20.20275692828419
 20
21.06847590068813
 30
0.0
  0
POINT
  5
7E1
330
6E3
100
AcDbEntity
  8
Defpoints
 62
     0
100
AcDbPoint
 10
15.85231920968409
 20
21.06847590068813
 30
0.0
  0
ENDBLK
  5
6E5
330
6E3
100
AcDbEntity
  8
0
100
AcDbBlockEnd
  0
BLOCK
  5
7E4
330
7E3
100
AcDbEntity
  8
0
100
AcDbBlockBegin
  2
*D11
 70
     1
 10
0.0
 20
0.0
 30
0.0
  3
*D11
  1

  0
LINE
  5
8C2
330
7E3
100
AcDbEntity
  8
Dimension (ANSI)
100
AcDbLine
 10
41.36275692828419
 20
54.60347590068812
 30
0.0
 11
41.36275692828419
 21
59.55104104252399
 31
0.0
  0
LINE
  5
8C3
330
7E3
100
AcDbEntity
  8
Dimension (ANSI)
100
AcDbLine
 10
20.20275692828419
 20
54.60347590068812
 30
0.0
 11
20.20275692828419
 21
59.55104104252399
 31
0.0
  0
LINE
  5
8C4
330
7E3
100
AcDbEntity
  8
Dimension (ANSI)
100
AcDbLine
 10
40.77220576055768
 20
58.80104104252399
 30
0.0
 11
32.75459051993846
 21
58.80104104252399
 31
0.0
  0
LINE
  5
8C5
330
7E3
100
AcDbEntity
  8
Dimension (ANSI)
100
AcDbLine
 10
20.79330809601071
 20
58.80104104252399
 30
0.0
 11
28.81092333662991
 21
58.80104104252399
 31
0.0
  0
SOLID
  5
8C6
330
7E3
100
AcDbEntity
  8
Dimension (ANSI)
100
AcDbTrace
 10
40.77220576055768
 20
58.89946623714508
 30
0.0
 11
40.77220576055768
 21
58.70261584790291
 31
0.0
 12
41.36275692828419
 22
58.80104104252399
 32
0.0
 13
41.36275692828419
 23
58.80104104252399
 33
0.0
  0
SOLID
  5
8C7
330
7E3
100
AcDbEntity
  8
Dimension (ANSI)
100
AcDbTrace
 10
20.79330809601071
 20
58.89946623714508
 30
0.0
 11
20.79330809601071
 21
58.70261584790291
 31
0.0
 12
20.20275692828419
 22
58.80104104252399
 32
0.0
 13
20.20275692828419
 23
58.80104104252399
 33
0.0
  0
MTEXT
  5
8C8
330
7E3
100
AcDbEntity
  8
Dimension (ANSI)
100
AcDbMText
 10
28.99989971458266
 20
59.16104105682912
 30
0.0
 40
0.7200000286102295
 41
0.0
 71
     1
 72
     1
  1
\A1;21.160
  7
Note Text (ANSI)
 73
     1
 44
1.0
1001
ACAD
1000
MTEXTBEGIN
1070
    73
1070
     1
1070
    44
1040
1.0
1070
    74
1070
     0
1000
MTEXTEND
  0
POINT
  5
8C9
330
7E3
100
AcDbEntity
  8
Defpoints
 62
     0
100
AcDbPoint
 10
41.36275692828419
 20
54.22847590068812
 30
0.0
  0
POINT
  5
8CA
330
7E3
100
AcDbEntity
  8
Defpoints
 62
     0
100
AcDbPoint
 10
20.20275692828419
 20
54.22847590068812
 30
0.0
  0
POINT
  5
8CB
330
7E3
100
AcDbEntity
  8
Defpoints
 62
     0
100
AcDbPoint
 10
20.20275692828419
 20
58.80104104252399
 30
0.0
  0
ENDBLK
  5
7E5
330
7E3
100
AcDbEntity
  8
0
100
AcDbBlockEnd
  0
BLOCK
  5
8CE
330
8CD
100
AcDbEntity
  8
0
100
AcDbBlockBegin
  2
*D12
 70
     1
 10
0.0
 20
0.0
 30
0.0
  3
*D12
  1

  0
LINE
  5
9C1
330
8CD
100
AcDbEntity
  8
Dimension (ANSI)
100
AcDbLine
 10
41.50775692828418
 20
21.04847590068813
 30
0.0
 11
41.0020037413512
 21
21.04847590068813
 31
0.0
  0
LINE
  5
9C2
330
8CD
100
AcDbEntity
  8
Dimension (ANSI)
100
AcDbLine
 10
41.75775692828418
 20
20.54847590068813
 30
0.0
 11
42.5020037413512
 21
20.54847590068813
 31
0.0
  0
LINE
  5
9C3
330
8CD
100
AcDbEntity
  8
Dimension (ANSI)
100
AcDbLine
 10
41.7520037413512
 20
19.95792473296162
 30
0.0
 11
41.7520037413512
 21
19.3673735652351
 31
0.0
  0
LINE
  5
9C4
330
8CD
100
AcDbEntity
  8
Dimension (ANSI)
100
AcDbLine
 10
41.7520037413512
 20
21.63902706841465
 30
0.0
 11
41.7520037413512
 21
22.7588955221717
 31
0.0
  0
LINE
  5
9C5
330
8CD
100
AcDbEntity
  8
Dimension (ANSI)
100
AcDbLine
 10
41.7520037413512
 20
22.7588955221717
 30
0.0
 11
42.34255490907772
 21
22.7588955221717
 31
0.0
  0
SOLID
  5
9C6
330
8CD
100
AcDbEntity
  8
Dimension (ANSI)
100
AcDbTrace
 10
41.65357854673011
 20
19.95792473296162
 30
0.0
 11
41.85042893597229
 21
19.95792473296162
 31
0.0
 12
41.7520037413512
 22
20.54847590068813
 32
0.0
 13
41.7520037413512
 23
20.54847590068813
 33
0.0
  0
SOLID
  5
9C7
330
8CD
100
AcDbEntity
  8
Dimension (ANSI)
100
AcDbTrace
 10
41.65357854673011
 20
21.63902706841465
 30
0.0
 11
41.85042893597229
 21
21.63902706841465
 31
0.0
 12
41.7520037413512
 22
21.04847590068813
 32
0.0
 13
41.7520037413512
 23
21.04847590068813
 33
0.0
  0
MTEXT
  5
9C8
330
8CD
100
AcDbEntity
  8
Dimension (ANSI)
100
AcDbMText
 10
42.53153128703046
 20
23.11889553647683
 30
0.0
 40
0.7200000286102295
 41
0.0
 71
     1
 72
     1
  1
\A1;0.500
  7
Note Text (ANSI)
 73
     1
 44
1.0
1001
ACAD
1000
MTEXTBEGIN
1070
    73
1070
     1
1070
    44
1040
1.0
1070
    74
1070
     0
1000
MTEXTEND
  0
POINT
  5
9C9
330
8CD
100
AcDbEntity
  8
Defpoints
 62
     0
100
AcDbPoint
 10
41.88275692828418
 20
21.04847590068813
 30
0.0
  0
POINT
  5
9CA
330
8CD
100
AcDbEntity
  8
Defpoints
 62
     0
100
AcDbPoint
 10
41.38275692828417
 20
20.54847590068813
 30
0.0
  0
POINT
  5
9CB
330
8CD
100
AcDbEntity
  8
Defpoints
 62
     0
100
AcDbPoint
 10
41.7520037413512
 20
20.54847590068813
 30
0.0
  0
ENDBLK
  5
8CF
330
8CD
100
AcDbEntity
  8
0
100
AcDbBlockEnd
  0
BLOCK
  5
9CE
330
9CD
100
AcDbEntity
  8
0
100
AcDbBlockBegin
  2
*D13
 70
     1
 10
0.0
 20
0.0
 30
0.0
  3
*D13
  1

  0
LINE
  5
AAC
330
9CD
100
AcDbEntity
  8
Dimension (ANSI)
100
AcDbLine
 10
41.88275692828418
 20
20.67347590068813
 30
0.0
 11
41.88275692828418
 21
17.94463564889098
 31
0.0
  0
LINE
  5
AAD
330
9CD
100
AcDbEntity
  8
Dimension (ANSI)
100
AcDbLine
 10
41.38275692828417
 20
20.17347590068814
 30
0.0
 11
41.38275692828417
 21
17.94463564889098
 31
0.0
  0
LINE
  5
AAE
330
9CD
100
AcDbEntity
  8
Dimension (ANSI)
100
AcDbLine
 10
42.47330809601069
 20
18.69463564889098
 30
0.0
 11
43.06385926373721
 21
18.69463564889098
 31
0.0
  0
LINE
  5
AAF
330
9CD
100
AcDbEntity
  8
Dimension (ANSI)
100
AcDbLine
 10
40.79220576055766
 20
18.69463564889098
 30
0.0
 11
39.48420500989396
 21
18.69463564889098
 31
0.0
  0
SOLID
  5
AB0
330
9CD
100
AcDbEntity
  8
Dimension (ANSI)
100
AcDbTrace
 10
42.47330809601069
 20
18.79306084351207
 30
0.0
 11
42.47330809601069
 21
18.5962104542699
 31
0.0
 12
41.88275692828418
 22
18.69463564889098
 32
0.0
 13
41.88275692828418
 23
18.69463564889098
 33
0.0
  0
SOLID
  5
AB1
330
9CD
100
AcDbEntity
  8
Dimension (ANSI)
100
AcDbTrace
 10
40.79220576055766
 20
18.79306084351207
 30
0.0
 11
40.79220576055766
 21
18.5962104542699
 31
0.0
 12
41.38275692828417
 22
18.69463564889098
 32
0.0
 13
41.38275692828417
 23
18.69463564889098
 33
0.0
  0
MTEXT
  5
AB2
330
9CD
100
AcDbEntity
  8
Dimension (ANSI)
100
AcDbMText
 10
36.41522851750028
 20
19.0546356631961
 30
0.0
 40
0.7200000286102295
 41
0.0
 71
     1
 72
     1
  1
\A1;0.500
  7
Note Text (ANSI)
 73
     1
 44
1.0
1001
ACAD
1000
MTEXTBEGIN
1070
    73
1070
     1
1070
    44
1040
1.0
1070
    74
1070
     0
1000
MTEXTEND
  0
POINT
  5
AB3
330
9CD
100
AcDbEntity
  8
Defpoints
 62
     0
100
AcDbPoint
 10
41.88275692828418
 20
21.04847590068813
 30
0.0
  0
POINT
  5
AB4
330
9CD
100
AcDbEntity
  8
Defpoints
 62
     0
100
AcDbPoint
 10
41.38275692828417
 20
20.54847590068813
 30
0.0
  0
POINT
  5
AB5
330
9CD
100
AcDbEntity
  8
Defpoints
 62
     0
100
AcDbPoint
 10
41.38275692828417
 20
18.69463564889098
 30
0.0
  0
ENDBLK
  5
9CF
330
9CD
100
AcDbEntity
  8
0
100
AcDbBlockEnd
  0
BLOCK
  5
AB8
330
AB7
100
AcDbEntity
  8
0
100
AcDbBlockBegin
  2
*D14
 70
     1
 10
0.0
 20
0.0
 30
0.0
  3
*D14
  1

  0
LINE
  5
B96
330
AB7
100
AcDbEntity
  8
Dimension (ANSI)
100
AcDbLine
 10
41.36275692828419
 20
54.60347590068812
 30
0.0
 11
41.36275692828419
 21
57.76670372709228
 31
0.0
  0
LINE
  5
B97
330
AB7
100
AcDbEntity
  8
Dimension (ANSI)
100
AcDbLine
 10
41.88275692828418
 20
54.62347590068812
 30
0.0
 11
41.88275692828418
 21
57.76670372709228
 31
0.0
  0
LINE
  5
B98
330
AB7
100
AcDbEntity
  8
Dimension (ANSI)
100
AcDbLine
 10
42.47330809601069
 20
57.01670372709227
 30
0.0
 11
43.06385926373721
 21
57.01670372709227
 31
0.0
  0
LINE
  5
B99
330
AB7
100
AcDbEntity
  8
Dimension (ANSI)
100
AcDbLine
 10
40.77220576055768
 20
57.01670372709227
 30
0.0
 11
40.08120006683326
 21
57.01670372709227
 31
0.0
  0
SOLID
  5
B9A
330
AB7
100
AcDbEntity
  8
Dimension (ANSI)
100
AcDbTrace
 10
42.47330809601069
 20
57.11512892171336
 30
0.0
 11
42.47330809601069
 21
56.91827853247119
 31
0.0
 12
41.88275692828418
 22
57.01670372709227
 32
0.0
 13
41.88275692828418
 23
57.01670372709227
 33
0.0
  0
SOLID
  5
B9B
330
AB7
100
AcDbEntity
  8
Dimension (ANSI)
100
AcDbTrace
 10
40.77220576055768
 20
57.11512892171336
 30
0.0
 11
40.77220576055768
 21
56.91827853247119
 31
0.0
 12
41.36275692828419
 22
57.01670372709227
 32
0.0
 13
41.36275692828419
 23
57.01670372709227
 33
0.0
  0
MTEXT
  5
B9C
330
AB7
100
AcDbEntity
  8
Dimension (ANSI)
100
AcDbMText
 10
37.01222357443959
 20
57.37670374139739
 30
0.0
 40
0.7200000286102295
 41
0.0
 71
     1
 72
     1
  1
\A1;0.520
  7
Note Text (ANSI)
 73
     1
 44
1.0
1001
ACAD
1000
MTEXTBEGIN
1070
    73
1070
     1
1070
    44
1040
1.0
1070
    74
1070
     0
1000
MTEXTEND
  0
POINT
  5
B9D
330
AB7
100
AcDbEntity
  8
Defpoints
 62
     0
100
AcDbPoint
 10
41.36275692828419
 20
54.22847590068812
 30
0.0
  0
POINT
  5
B9E
330
AB7
100
AcDbEntity
  8
Defpoints
 62
     0
100
AcDbPoint
 10
41.88275692828418
 20
54.24847590068813
 30
0.0
  0
POINT
  5
B9F
330
AB7
100
AcDbEntity
  8
Defpoints
 62
     0
100
AcDbPoint
 10
41.88275692828418
 20
57.01670372709227
 30
0.0
  0
ENDBLK
  5
AB9
330
AB7
100
AcDbEntity
  8
0
100
AcDbBlockEnd
  0
BLOCK
  5
BA2
330
BA1
100
AcDbEntity
  8
0
100
AcDbBlockBegin
  2
*D15
 70
     1
 10
0.0
 20
0.0
 30
0.0
  3
*D15
  1

  0
LINE
  5
C95
330
BA1
100
AcDbEntity
  8
Dimension (ANSI)
100
AcDbLine
 10
41.73775692828419
 20
54.22847590068812
 30
0.0
 11
47.97806832373815
 21
54.22847590068812
 31
0.0
  0
LINE
  5
C96
330
BA1
100
AcDbEntity
  8
Dimension (ANSI)
100
AcDbLine
 10
41.75775692828418
 20
54.74847590068812
 30
0.0
 11
47.97806832373815
 21
54.74847590068812
 31
0.0
  0
LINE
  5
C97
330
BA1
100
AcDbEntity
  8
Dimension (ANSI)
100
AcDbLine
 10
47.22806832373815
 20
55.33902706841464
 30
0.0
 11
47.22806832373815
 21
55.92957823614116
 31
0.0
  0
LINE
  5
C98
330
BA1
100
AcDbEntity
  8
Dimension (ANSI)
100
AcDbLine
 10
47.22806832373815
 20
53.63792473296161
 30
0.0
 11
47.22806832373815
 21
52.51805627920456
 31
0.0
  0
LINE
  5
C99
330
BA1
100
AcDbEntity
  8
Dimension (ANSI)
100
AcDbLine
 10
47.22806832373815
 20
52.51805627920456
 30
0.0
 11
46.63751715601164
 21
52.51805627920456
 31
0.0
  0
SOLID
  5
C9A
330
BA1
100
AcDbEntity
  8
Dimension (ANSI)
100
AcDbTrace
 10
47.12964312911707
 20
55.33902706841464
 30
0.0
 11
47.32649351835924
 21
55.33902706841464
 31
0.0
 12
47.22806832373815
 22
54.74847590068812
 32
0.0
 13
47.22806832373815
 23
54.74847590068812
 33
0.0
  0
SOLID
  5
C9B
330
BA1
100
AcDbEntity
  8
Dimension (ANSI)
100
AcDbTrace
 10
47.12964312911707
 20
53.63792473296161
 30
0.0
 11
47.32649351835924
 21
53.63792473296161
 31
0.0
 12
47.22806832373815
 22
54.22847590068812
 32
0.0
 13
47.22806832373815
 23
54.22847590068812
 33
0.0
  0
MTEXT
  5
C9C
330
BA1
100
AcDbEntity
  8
Dimension (ANSI)
100
AcDbMText
 10
43.56854066361795
 20
52.87805629350968
 30
0.0
 40
0.7200000286102295
 41
0.0
 71
     1
 72
     1
  1
\A1;0.520
  7
Note Text (ANSI)
 73
     1
 44
1.0
1001
ACAD
1000
MTEXTBEGIN
1070
    73
1070
     1
1070
    44
1040
1.0
1070
    74
1070
     0
1000
MTEXTEND
  0
POINT
  5
C9D
330
BA1
100
AcDbEntity
  8
Defpoints
 62
     0
100
AcDbPoint
 10
41.36275692828419
 20
54.22847590068812
 30
0.0
  0
POINT
  5
C9E
330
BA1
100
AcDbEntity
  8
Defpoints
 62
     0
100
AcDbPoint
 10
41.38275692828417
 20
54.74847590068812
 30
0.0
  0
POINT
  5
C9F
330
BA1
100
AcDbEntity
  8
Defpoints
 62
     0
100
AcDbPoint
 10
47.22806832373815
 20
54.74847590068812
 30
0.0
  0
ENDBLK
  5
BA3
330
BA1
100
AcDbEntity
  8
0
100
AcDbBlockEnd
  0
BLOCK
  5
CA4
330
CA3
100
AcDbEntity
  8
0
100
AcDbBlockBegin
  2
*D16
 70
     1
 10
0.0
 20
0.0
 30
0.0
  3
*D16
  1

  0
LINE
  5
D82
330
CA3
100
AcDbEntity
  8
Dimension (ANSI)
100
AcDbLine
 10
64.36639937348783
 20
54.62347590068812
 30
0.0
 11
64.36639937348783
 21
57.51816094005821
 31
0.0
  0
LINE
  5
D83
330
CA3
100
AcDbEntity
  8
Dimension (ANSI)
100
AcDbLine
 10
65.14039937348783
 20
53.40547590068812
 30
0.0
 11
65.14039937348783
 21
57.51816094005821
 31
0.0
  0
LINE
  5
D84
330
CA3
100
AcDbEntity
  8
Dimension (ANSI)
100
AcDbLine
 10
65.73095054121435
 20
56.76816094005821
 30
0.0
 11
66.32150170894087
 21
56.76816094005821
 31
0.0
  0
LINE
  5
D85
330
CA3
100
AcDbEntity
  8
Dimension (ANSI)
100
AcDbLine
 10
63.77584820576132
 20
56.76816094005821
 30
0.0
 11
62.48499031292165
 21
56.76816094005821
 31
0.0
  0
SOLID
  5
D86
330
CA3
100
AcDbEntity
  8
Dimension (ANSI)
100
AcDbTrace
 10
65.73095054121435
 20
56.8665861346793
 30
0.0
 11
65.73095054121435
 21
56.66973574543712
 31
0.0
 12
65.14039937348783
 22
56.76816094005821
 32
0.0
 13
65.14039937348783
 23
56.76816094005821
 33
0.0
  0
SOLID
  5
D87
330
CA3
100
AcDbEntity
  8
Dimension (ANSI)
100
AcDbTrace
 10
63.77584820576132
 20
56.8665861346793
 30
0.0
 11
63.77584820576132
 21
56.66973574543712
 31
0.0
 12
64.36639937348783
 22
56.76816094005821
 32
0.0
 13
64.36639937348783
 23
56.76816094005821
 33
0.0
  0
MTEXT
  5
D88
330
CA3
100
AcDbEntity
  8
Dimension (ANSI)
100
AcDbMText
 10
59.38172810487987
 20
57.12816095436332
 30
0.0
 40
0.7200000286102295
 41
0.0
 71
     1
 72
     1
  1
\A1;0.774
  7
Note Text (ANSI)
 73
     1
 44
1.0
1001
ACAD
1000
MTEXTBEGIN
1070
    73
1070
     1
1070
    44
1040
1.0
1070
    74
1070
     0
1000
MTEXTEND
  0
POINT
  5
D89
330
CA3
100
AcDbEntity
  8
Defpoints
 62
     0
100
AcDbPoint
 10
64.36639937348783
 20
54.24847590068813
 30
0.0
  0
POINT
  5
D8A
330
CA3
100
AcDbEntity
  8
Defpoints
 62
     0
100
AcDbPoint
 10
65.14039937348783
 20
53.03047590068812
 30
0.0
  0
POINT
  5
D8B
330
CA3
100
AcDbEntity
  8
Defpoints
 62
     0
100
AcDbPoint
 10
65.14039937348783
 20
56.76816094005821
 30
0.0
  0
ENDBLK
  5
CA5
330
CA3
100
AcDbEntity
  8
0
100
AcDbBlockEnd
  0
BLOCK
  5
D8E
330
D8D
100
AcDbEntity
  8
0
100
AcDbBlockBegin
  2
*D17
 70
     1
 10
0.0
 20
0.0
 30
0.0
  3
*D17
  1

  0
LINE
  5
E6C
330
D8D
100
AcDbEntity
  8
Dimension (ANSI)
100
AcDbLine
 10
19.82775692828419
 20
37.64847590068813
 30
0.0
 11
13.76944604821522
 21
37.64847590068814
 31
0.0
  0
LINE
  5
E6D
330
D8D
100
AcDbEntity
  8
Dimension (ANSI)
100
AcDbLine
 10
19.82775692828419
 20
21.06847590068813
 30
0.0
 11
13.76944604821521
 21
21.06847590068813
 31
0.0
  0
LINE
  5
E6E
330
D8D
100
AcDbEntity
  8
Dimension (ANSI)
100
AcDbLine
 10
14.51944604821522
 20
37.05792473296162
 30
0.0
 11
14.51944604821522
 21
29.907452292946
 31
0.0
  0
LINE
  5
E6F
330
D8D
100
AcDbEntity
  8
Dimension (ANSI)
100
AcDbLine
 10
14.51944604821521
 20
21.65902706841465
 30
0.0
 11
14.51944604821522
 21
28.80949950843026
 31
0.0
  0
SOLID
  5
E70
330
D8D
100
AcDbEntity
  8
Dimension (ANSI)
100
AcDbTrace
 10
14.42102085359413
 20
37.05792473296162
 30
0.0
 11
14.6178712428363
 21
37.05792473296162
 31
0.0
 12
14.51944604821522
 22
37.64847590068814
 32
0.0
 13
14.51944604821522
 23
37.64847590068814
 33
0.0
  0
SOLID
  5
E71
330
D8D
100
AcDbEntity
  8
Dimension (ANSI)
100
AcDbTrace
 10
14.42102085359413
 20
21.65902706841465
 30
0.0
 11
14.6178712428363
 21
21.65902706841465
 31
0.0
 12
14.51944604821521
 22
21.06847590068813
 32
0.0
 13
14.51944604821521
 23
21.06847590068813
 33
0.0
  0
MTEXT
  5
E72
330
D8D
100
AcDbEntity
  8
Dimension (ANSI)
100
AcDbMText
 10
12.78801740798585
 20
29.71847591499325
 30
0.0
 40
0.7200000286102295
 41
0.0
 71
     1
 72
     1
  1
\A1;16.580
  7
Note Text (ANSI)
 73
     1
 44
1.0
1001
ACAD
1000
MTEXTBEGIN
1070
    73
1070
     1
1070
    44
1040
1.0
1070
    74
1070
     0
1000
MTEXTEND
  0
POINT
  5
E73
330
D8D
100
AcDbEntity
  8
Defpoints
 62
     0
100
AcDbPoint
 10
20.20275692828419
 20
37.64847590068813
 30
0.0
  0
POINT
  5
E74
330
D8D
100
AcDbEntity
  8
Defpoints
 62
     0
100
AcDbPoint
 10
20.20275692828419
 20
21.06847590068813
 30
0.0
  0
POINT
  5
E75
330
D8D
100
AcDbEntity
  8
Defpoints
 62
     0
100
AcDbPoint
 10
14.51944604821521
 20
21.06847590068813
 30
0.0
  0
ENDBLK
  5
D8F
330
D8D
100
AcDbEntity
  8
0
100
AcDbBlockEnd
  0
ENDSEC
  0
SECTION
  2
ENTITIES
  0
CIRCLE
  5
11B
330
6C
100
AcDbEntity
  8
Visible (ANSI)
100
AcDbCircle
 10
41.36275692828419
 20
37.64847590068813
 30
0.0
 40
0.2500000000000005
  0
CIRCLE
  5
11C
330
6C
100
AcDbEntity
  8
Visible (ANSI)
100
AcDbCircle
 10
20.20275692828419
 20
37.64847590068813
 30
0.0
 40
0.2500000000000005
  0
LINE
  5
11D
330
6C
100
AcDbEntity
  8
Visible (ANSI)
100
AcDbLine
 10
41.88275692828418
 20
22.26647590068814
 30
0.0
 11
41.88275692828418
 21
53.03047590068812
 31
0.0
  0
LINE
  5
11E
330
6C
100
AcDbEntity
  8
Visible (ANSI)
100
AcDbLine
 10
41.88275692828418
 20
22.26647590068814
 30
0.0
 11
41.75775692828419
 21
22.26647590068814
 31
0.0
  0
LINE
  5
11F
330
6C
100
AcDbEntity
  8
Visible (ANSI)
100
AcDbLine
 10
41.88275692828418
 20
53.03047590068812
 30
0.0
 11
41.75775692828418
 21
53.03047590068812
 31
0.0
  0
LINE
  5
120
330
6C
100
AcDbEntity
  8
Visible (ANSI)
100
AcDbLine
 10
41.75755692828419
 20
53.03067590068812
 30
0.0
 11
41.88275692828418
 21
53.03067590068812
 31
0.0
  0
LINE
  5
121
330
6C
100
AcDbEntity
  8
Visible (ANSI)
100
AcDbLine
 10
41.75755692828419
 20
53.03047590068812
 30
0.0
 11
41.75755692828419
 21
53.03067590068812
 31
0.0
  0
LINE
  5
122
330
6C
100
AcDbEntity
  8
Visible (ANSI)
100
AcDbLine
 10
41.7575569282842
 20
22.26627590068814
 30
0.0
 11
41.7575569282842
 21
22.26647590068814
 31
0.0
  0
LINE
  5
123
330
6C
100
AcDbEntity
  8
Visible (ANSI)
100
AcDbLine
 10
41.88275692828418
 20
22.26627590068814
 30
0.0
 11
41.7575569282842
 21
22.26627590068814
 31
0.0
  0
LINE
  5
124
330
6C
100
AcDbEntity
  8
Hidden (ANSI)
 48
1.078507661819458
100
AcDbLine
 10
41.78900692828418
 20
53.03047590068812
 30
0.0
 11
41.78900692828418
 21
22.26647590068814
 31
0.0
  0
LINE
  5
125
330
6C
100
AcDbEntity
  8
Visible (ANSI)
100
AcDbLine
 10
41.7575569282842
 20
22.26647590068814
 30
0.0
 11
41.75775692828419
 21
22.26647590068814
 31
0.0
  0
LINE
  5
126
330
6C
100
AcDbEntity
  8
Visible (ANSI)
100
AcDbLine
 10
41.75775692828419
 20
53.03047590068812
 30
0.0
 11
41.75755692828419
 21
53.03047590068812
 31
0.0
  0
LINE
  5
127
330
6C
100
AcDbEntity
  8
Visible (ANSI)
100
AcDbLine
 10
41.88275692828418
 20
54.24847590068813
 30
0.0
 11
41.88275692828418
 21
53.03067590068812
 31
0.0
  0
LINE
  5
128
330
6C
100
AcDbEntity
  8
Visible (ANSI)
100
AcDbLine
 10
20.18275692828418
 20
54.74847590068812
 30
0.0
 11
41.38275692828417
 21
54.74847590068812
 31
0.0
  0
LINE
  5
129
330
6C
100
AcDbEntity
  8
Visible (ANSI)
100
AcDbLine
 10
19.68275692828418
 20
53.03067590068812
 30
0.0
 11
19.68275692828418
 21
54.24847590068813
 31
0.0
  0
LINE
  5
12A
330
6C
100
AcDbEntity
  8
Visible (ANSI)
100
AcDbLine
 10
19.68275692828419
 20
21.04847590068813
 30
0.0
 11
19.68275692828419
 21
22.26627590068813
 31
0.0
  0
LINE
  5
12B
330
6C
100
AcDbEntity
  8
Visible (ANSI)
100
AcDbLine
 10
41.38275692828417
 20
20.54847590068813
 30
0.0
 11
20.18275692828419
 21
20.54847590068813
 31
0.0
  0
LINE
  5
12C
330
6C
100
AcDbEntity
  8
Visible (ANSI)
100
AcDbLine
 10
41.88275692828418
 20
22.26627590068814
 30
0.0
 11
41.88275692828418
 21
21.04847590068813
 31
0.0
  0
LINE
  5
12D
330
6C
100
AcDbEntity
  8
Visible (ANSI)
100
AcDbLine
 10
41.38275692828417
 20
54.74847590068812
 30
0.0
 11
41.88275692828418
 21
54.24847590068813
 31
0.0
  0
LINE
  5
12E
330
6C
100
AcDbEntity
  8
Visible (ANSI)
100
AcDbLine
 10
19.68275692828418
 20
54.24847590068813
 30
0.0
 11
20.18275692828418
 21
54.74847590068812
 31
0.0
  0
LINE
  5
12F
330
6C
100
AcDbEntity
  8
Visible (ANSI)
100
AcDbLine
 10
19.68275692828418
 20
53.03067590068812
 30
0.0
 11
19.80795692828417
 21
53.03067590068812
 31
0.0
  0
LINE
  5
130
330
6C
100
AcDbEntity
  8
Visible (ANSI)
100
AcDbLine
 10
19.80795692828417
 20
53.03067590068812
 30
0.0
 11
19.80795692828417
 21
53.03047590068812
 31
0.0
  0
LINE
  5
131
330
6C
100
AcDbEntity
  8
Visible (ANSI)
100
AcDbLine
 10
19.80795692828418
 20
22.26647590068813
 30
0.0
 11
19.80795692828418
 21
22.26627590068813
 31
0.0
  0
LINE
  5
132
330
6C
100
AcDbEntity
  8
Visible (ANSI)
100
AcDbLine
 10
19.80795692828418
 20
22.26627590068813
 30
0.0
 11
19.68275692828419
 21
22.26627590068813
 31
0.0
  0
LINE
  5
133
330
6C
100
AcDbEntity
  8
Visible (ANSI)
100
AcDbLine
 10
19.68275692828419
 20
53.03047590068812
 30
0.0
 11
19.6827569282842
 21
22.26647590068813
 31
0.0
  0
LINE
  5
134
330
6C
100
AcDbEntity
  8
Visible (ANSI)
100
AcDbLine
 10
19.68275692828419
 20
53.03047590068812
 30
0.0
 11
19.80775692828417
 21
53.03047590068812
 31
0.0
  0
LINE
  5
135
330
6C
100
AcDbEntity
  8
Visible (ANSI)
100
AcDbLine
 10
19.6827569282842
 20
22.26647590068813
 30
0.0
 11
19.80775692828418
 21
22.26647590068814
 31
0.0
  0
LINE
  5
136
330
6C
100
AcDbEntity
  8
Hidden (ANSI)
 48
1.078507661819458
100
AcDbLine
 10
19.7765069282842
 20
22.26647590068813
 30
0.0
 11
19.77650692828419
 21
53.03047590068812
 31
0.0
  0
LINE
  5
137
330
6C
100
AcDbEntity
  8
Visible (ANSI)
100
AcDbLine
 10
19.80795692828417
 20
53.03047590068812
 30
0.0
 11
19.80775692828417
 21
53.03047590068812
 31
0.0
  0
LINE
  5
138
330
6C
100
AcDbEntity
  8
Visible (ANSI)
100
AcDbLine
 10
19.80775692828418
 20
22.26647590068813
 30
0.0
 11
19.80795692828418
 21
22.26647590068813
 31
0.0
  0
LINE
  5
139
330
6C
100
AcDbEntity
  8
Visible (ANSI)
100
AcDbLine
 10
20.18275692828419
 20
20.54847590068813
 30
0.0
 11
19.68275692828419
 21
21.04847590068813
 31
0.0
  0
LINE
  5
13A
330
6C
100
AcDbEntity
  8
Visible (ANSI)
100
AcDbLine
 10
41.88275692828418
 20
21.04847590068813
 30
0.0
 11
41.38275692828417
 21
20.54847590068813
 31
0.0
  0
CIRCLE
  5
13B
330
6C
100
AcDbEntity
  8
Visible (ANSI)
100
AcDbCircle
 10
41.36275692828419
 20
54.22847590068812
 30
0.0
 40
0.25
  0
CIRCLE
  5
13C
330
6C
100
AcDbEntity
  8
Visible (ANSI)
100
AcDbCircle
 10
20.20275692828419
 20
54.22847590068812
 30
0.0
 40
0.25
  0
CIRCLE
  5
13D
330
6C
100
AcDbEntity
  8
Visible (ANSI)
100
AcDbCircle
 10
20.20275692828419
 20
21.06847590068813
 30
0.0
 40
0.25
  0
CIRCLE
  5
13E
330
6C
100
AcDbEntity
  8
Visible (ANSI)
100
AcDbCircle
 10
41.36275692828419
 20
21.06847590068813
 30
0.0
 40
0.25
  0
CIRCLE
  5
13F
330
6C
100
AcDbEntity
  8
Visible (ANSI)
100
AcDbCircle
 10
41.36275692828419
 20
53.47847590068813
 30
0.0
 40
0.15625
  0
CIRCLE
  5
140
330
6C
100
AcDbEntity
  8
Visible (ANSI)
100
AcDbCircle
 10
20.20275692828419
 20
53.47847590068813
 30
0.0
 40
0.15625
  0
CIRCLE
  5
141
330
6C
100
AcDbEntity
  8
Visible (ANSI)
100
AcDbCircle
 10
20.20275692828419
 20
21.81847590068814
 30
0.0
 40
0.15625
  0
CIRCLE
  5
142
330
6C
100
AcDbEntity
  8
Visible (ANSI)
100
AcDbCircle
 10
41.36275692828419
 20
21.81847590068814
 30
0.0
 40
0.15625
  0
LINE
  5
143
330
6C
100
AcDbEntity
  8
Visible (ANSI)
100
AcDbLine
 10
64.49139937348785
 20
22.26647590068814
 30
0.0
 11
65.14039937348783
 21
22.26647590068814
 31
0.0
  0
LINE
  5
144
330
6C
100
AcDbEntity
  8
Visible (ANSI)
100
AcDbLine
 10
65.14039937348783
 20
53.03047590068812
 30
0.0
 11
65.14039937348783
 21
22.26647590068814
 31
0.0
  0
LINE
  5
145
330
6C
100
AcDbEntity
  8
Visible (ANSI)
100
AcDbLine
 10
65.14039937348783
 20
53.03047590068812
 30
0.0
 11
64.49139937348785
 21
53.03047590068812
 31
0.0
  0
LINE
  5
146
330
6C
100
AcDbEntity
  8
Visible (ANSI)
100
AcDbLine
 10
64.49139937348785
 20
22.26647590068814
 30
0.0
 11
64.36639937348779
 21
22.26647590068814
 31
0.0
  0
LINE
  5
147
330
6C
100
AcDbEntity
  8
Visible (ANSI)
100
AcDbLine
 10
64.49139937348785
 20
53.03047590068812
 30
0.0
 11
64.36639937348779
 21
53.03047590068812
 31
0.0
  0
LINE
  5
148
330
6C
100
AcDbEntity
  8
Visible (ANSI)
100
AcDbLine
 10
64.36639937348779
 20
22.26647590068814
 30
0.0
 11
64.36639937348779
 21
53.03047590068812
 31
0.0
  0
LINE
  5
149
330
6C
100
AcDbEntity
  8
Visible (ANSI)
100
AcDbLine
 10
64.36639937348783
 20
53.03067590068812
 30
0.0
 11
64.46014937348784
 21
53.03067590068812
 31
0.0
  0
LINE
  5
14A
330
6C
100
AcDbEntity
  8
Visible (ANSI)
100
AcDbLine
 10
64.46014937348779
 20
53.03067590068812
 30
0.0
 11
64.46014937348779
 21
53.03047590068812
 31
0.0
  0
LINE
  5
14B
330
6C
100
AcDbEntity
  8
Visible (ANSI)
100
AcDbLine
 10
64.36639937348779
 20
53.03047590068812
 30
0.0
 11
64.36639937348779
 21
53.03067590068812
 31
0.0
  0
LINE
  5
14C
330
6C
100
AcDbEntity
  8
Visible (ANSI)
100
AcDbLine
 10
64.46014937348779
 20
22.26647590068814
 30
0.0
 11
64.46014937348779
 21
22.26627590068814
 31
0.0
  0
LINE
  5
14D
330
6C
100
AcDbEntity
  8
Visible (ANSI)
100
AcDbLine
 10
64.36639937348779
 20
22.26627590068814
 30
0.0
 11
64.36639937348779
 21
22.26647590068814
 31
0.0
  0
LINE
  5
14E
330
6C
100
AcDbEntity
  8
Visible (ANSI)
100
AcDbLine
 10
64.46014937348784
 20
22.26627590068814
 30
0.0
 11
64.36639937348783
 21
22.26627590068814
 31
0.0
  0
LINE
  5
14F
330
6C
100
AcDbEntity
  8
Hidden (ANSI)
 48
1.078507661819458
100
AcDbLine
 10
64.46014937348779
 20
53.03047590068812
 30
0.0
 11
64.46014937348779
 21
22.26647590068814
 31
0.0
  0
LINE
  5
150
330
6C
100
AcDbEntity
  8
Visible (ANSI)
100
AcDbLine
 10
64.46014937348784
 20
21.04847590068813
 30
0.0
 11
64.46014937348784
 21
22.26627590068814
 31
0.0
  0
LINE
  5
151
330
6C
100
AcDbEntity
  8
Visible (ANSI)
100
AcDbLine
 10
64.46014937348784
 20
53.03067590068812
 30
0.0
 11
64.46014937348784
 21
54.24847590068813
 31
0.0
  0
LINE
  5
152
330
6C
100
AcDbEntity
  8
Visible (ANSI)
100
AcDbLine
 10
64.36639937348783
 20
54.24847590068813
 30
0.0
 11
64.36639937348783
 21
53.03067590068812
 31
0.0
  0
LINE
  5
153
330
6C
100
AcDbEntity
  8
Visible (ANSI)
100
AcDbLine
 10
64.36639937348783
 20
22.26627590068814
 30
0.0
 11
64.36639937348783
 21
21.04847590068813
 31
0.0
  0
LINE
  5
154
330
6C
100
AcDbEntity
  8
Visible (ANSI)
100
AcDbLine
 10
64.4601493734877
 20
20.54847590068813
 30
0.0
 11
64.46014937348784
 21
21.04847590068813
 31
0.0
  0
LINE
  5
155
330
6C
100
AcDbEntity
  8
Visible (ANSI)
100
AcDbLine
 10
64.36639937348783
 20
21.04847590068813
 30
0.0
 11
64.36639937348769
 21
20.54847590068813
 31
0.0
  0
LINE
  5
156
330
6C
100
AcDbEntity
  8
Visible (ANSI)
100
AcDbLine
 10
64.36639937348769
 20
20.54847590068813
 30
0.0
 11
64.4601493734877
 21
20.54847590068813
 31
0.0
  0
LINE
  5
157
330
6C
100
AcDbEntity
  8
Visible (ANSI)
100
AcDbLine
 10
64.46014937348784
 20
21.04847590068813
 30
0.0
 11
64.36639937348783
 21
21.04847590068813
 31
0.0
  0
LINE
  5
158
330
6C
100
AcDbEntity
  8
Visible (ANSI)
100
AcDbLine
 10
64.46014937348784
 20
54.24847590068813
 30
0.0
 11
64.4601493734877
 21
54.74847590068812
 31
0.0
  0
LINE
  5
159
330
6C
100
AcDbEntity
  8
Visible (ANSI)
100
AcDbLine
 10
64.36639937348769
 20
54.74847590068812
 30
0.0
 11
64.36639937348783
 21
54.24847590068813
 31
0.0
  0
LINE
  5
15A
330
6C
100
AcDbEntity
  8
Visible (ANSI)
100
AcDbLine
 10
64.36639937348783
 20
54.24847590068813
 30
0.0
 11
64.46014937348784
 21
54.24847590068813
 31
0.0
  0
LINE
  5
15B
330
6C
100
AcDbEntity
  8
Visible (ANSI)
100
AcDbLine
 10
64.4601493734877
 20
54.74847590068812
 30
0.0
 11
64.36639937348769
 21
54.74847590068812
 31
0.0
  0
LINE
  5
15C
330
6C
100
AcDbEntity
  8
Hidden (ANSI)
 48
0.0296608842909336
100
AcDbLine
 10
64.36639937348768
 20
37.89847590068813
 30
0.0
 11
64.46014937348768
 21
37.89847590068813
 31
0.0
  0
LINE
  5
15D
330
6C
100
AcDbEntity
  8
Hidden (ANSI)
 48
0.0296608842909336
100
AcDbLine
 10
64.36639937348768
 20
37.39847590068813
 30
0.0
 11
64.46014937348768
 21
37.39847590068813
 31
0.0
  0
LINE
  5
15E
330
6C
100
AcDbEntity
  8
Hidden (ANSI)
 48
0.0296608842909336
100
AcDbLine
 10
64.36639937348768
 20
54.47847590068814
 30
0.0
 11
64.46014937348768
 21
54.47847590068814
 31
0.0
  0
LINE
  5
15F
330
6C
100
AcDbEntity
  8
Hidden (ANSI)
 48
0.0296608842909336
100
AcDbLine
 10
64.36639937348768
 20
53.97847590068813
 30
0.0
 11
64.46014937348768
 21
53.97847590068813
 31
0.0
  0
LINE
  5
160
330
6C
100
AcDbEntity
  8
Hidden (ANSI)
 48
0.0296608842909336
100
AcDbLine
 10
64.36639937348768
 20
21.31847590068813
 30
0.0
 11
64.46014937348768
 21
21.31847590068813
 31
0.0
  0
LINE
  5
161
330
6C
100
AcDbEntity
  8
Hidden (ANSI)
 48
0.0296608842909336
100
AcDbLine
 10
64.36639937348768
 20
20.81847590068814
 30
0.0
 11
64.46014937348768
 21
20.81847590068814
 31
0.0
  0
LINE
  5
162
330
6C
100
AcDbEntity
  8
Hidden (ANSI)
 48
0.0296608842909336
100
AcDbLine
 10
64.36639937348768
 20
53.63472590068813
 30
0.0
 11
64.46014937348768
 21
53.63472590068813
 31
0.0
  0
LINE
  5
163
330
6C
100
AcDbEntity
  8
Hidden (ANSI)
 48
0.0296608842909336
100
AcDbLine
 10
64.36639937348768
 20
53.32222590068813
 30
0.0
 11
64.46014937348768
 21
53.32222590068813
 31
0.0
  0
LINE
  5
164
330
6C
100
AcDbEntity
  8
Hidden (ANSI)
 48
0.0296608842909336
100
AcDbLine
 10
64.36639937348768
 20
21.97472590068814
 30
0.0
 11
64.46014937348768
 21
21.97472590068814
 31
0.0
  0
LINE
  5
165
330
6C
100
AcDbEntity
  8
Hidden (ANSI)
 48
0.0296608842909336
100
AcDbLine
 10
64.36639937348768
 20
21.66222590068814
 30
0.0
 11
64.46014937348768
 21
21.66222590068814
 31
0.0
  0
ELLIPSE
  5
166
330
6C
100
AcDbEntity
  8
Visible (ANSI)
100
AcDbEllipse
 10
94.93321801338202
 20
43.15431600619034
 30
0.0
 11
-0.0935685396720763
 21
0.1624843942772197
 31
0.0
210
0.0
220
0.0
230
1.0
 40
0.5780931159158116
 41
0.2678448778124807
 42
2.873747775777321
  0
ELLIPSE
  5
167
330
6C
100
AcDbEntity
  8
Visible (ANSI)
100
AcDbEllipse
 10
94.88349956782986
 20
43.12568505756431
 30
0.0
 11
-0.0935685396720766
 21
0.1624843942772203
 31
0.0
210
0.0
220
0.0
230
0.9999999999999998
 40
0.5780931159158116
 41
0.0
 42
6.283185307179586
  0
ELLIPSE
  5
168
330
6C
100
AcDbEntity
  8
Visible (ANSI)
100
AcDbEllipse
 10
83.71143339594983
 20
49.61651198407374
 30
0.0
 11
-0.0935685396720761
 21
0.1624843942772194
 31
0.0
210
0.0
220
0.0
230
1.0
 40
0.5780931159158115
 41
0.2678448778124816
 42
2.873747775777322
  0
ELLIPSE
  5
169
330
6C
100
AcDbEntity
  8
Visible (ANSI)
100
AcDbEllipse
 10
83.66171495039763
 20
49.58788103544772
 30
0.0
 11
-0.0935685396720766
 21
0.1624843942772203
 31
0.0
210
0.0
220
0.0
230
0.9999999999999998
 40
0.5780931159158116
 41
0.0
 42
6.283185307179586
  0
LINE
  5
16A
330
6C
100
AcDbEntity
  8
Visible Narrow (ANSI)
100
AcDbLine
 10
95.22556247322887
 20
33.57342092160743
 30
0.0
 11
95.2255624732289
 21
52.4366857330993
 31
0.0
  0
ELLIPSE
  5
16B
330
6C
100
AcDbEntity
  8
Visible (ANSI)
100
AcDbEllipse
 10
95.1592712124926
 20
33.61159551977545
 30
0.0
 11
0.0937500000000023
 21
0.0000000000000054
 31
0.0
210
0.0
220
0.0
230
1.0
 40
0.5758617009853142
 41
3.926990816987167
 42
5.497787143782089
  0
LINE
  5
16C
330
6C
100
AcDbEntity
  8
Visible (ANSI)
100
AcDbLine
 10
95.09287388573925
 20
52.43674681245636
 30
0.0
 11
95.09298036275318
 21
52.43680812849072
 31
0.0
  0
ELLIPSE
  5
16D
330
6C
100
AcDbEntity
  8
Visible (ANSI)
100
AcDbEllipse
 10
95.15927121249266
 20
52.47486033126733
 30
0.0
 11
0.0937500000000211
 21
0.0000000000000054
 31
0.0
210
0.0
220
0.0
230
1.0
 40
0.5758617009853142
 41
3.926990816986986
 42
3.983676441749036
  0
ELLIPSE
  5
16E
330
6C
100
AcDbEntity
  8
Visible (ANSI)
100
AcDbEllipse
 10
95.15927121249239
 20
52.47486033126751
 30
0.0
 11
0.0937500000004141
 21
-0.0000000000000002
 31
0.0
210
0.0
220
0.0
230
1.0
 40
0.5758617009853144
 41
5.27137884641036
 42
5.497787143781815
  0
LINE
  5
16F
330
6C
100
AcDbEntity
  8
Visible Narrow (ANSI)
100
AcDbLine
 10
95.09297995175639
 20
33.57342092160741
 30
0.0
 11
95.09297995175641
 21
52.43668573309928
 31
0.0
  0
LINE
  5
170
330
6C
100
AcDbEntity
  8
Visible (ANSI)
100
AcDbLine
 10
95.15927121249266
 20
52.39863376699999
 30
0.0
 11
95.20898965804484
 21
52.42726471562602
 31
0.0
  0
LINE
  5
171
330
6C
100
AcDbEntity
  8
Visible (ANSI)
100
AcDbLine
 10
95.09287388573925
 20
52.43686944452509
 30
0.0
 11
95.15927121249266
 21
52.39863376699999
 31
0.0
  0
LINE
  5
172
330
6C
100
AcDbEntity
  8
Visible (ANSI)
100
AcDbLine
 10
95.09287388573925
 20
52.43674681245636
 30
0.0
 11
95.09287388573925
 21
52.43686944452509
 31
0.0
  0
LINE
  5
173
330
6C
100
AcDbEntity
  8
Visible (ANSI)
100
AcDbLine
 10
95.09287388573921
 20
33.57335936889575
 30
0.0
 11
95.09287388573921
 21
33.57348200096448
 31
0.0
  0
LINE
  5
174
330
6C
100
AcDbEntity
  8
Visible (ANSI)
100
AcDbLine
 10
95.09287388573921
 20
33.57335936889575
 30
0.0
 11
95.09298036275442
 21
33.57342068493085
 31
0.0
  0
LINE
  5
175
330
6C
100
AcDbEntity
  8
Visible (ANSI)
100
AcDbLine
 10
95.2067505710112
 20
33.5650440444645
 30
0.0
 11
95.2089896580448
 21
33.56375463999669
 31
0.0
  0
LINE
  5
176
330
6C
100
AcDbEntity
  8
Visible (ANSI)
100
AcDbLine
 10
95.15927121249262
 20
33.53512369137066
 30
0.0
 11
95.09287388573921
 21
33.57335936889575
 31
0.0
  0
LINE
  5
177
330
6C
100
AcDbEntity
  8
Visible (ANSI)
100
AcDbLine
 10
95.2089896580448
 20
33.56375463999669
 30
0.0
 11
95.15927121249262
 21
33.53512369137066
 31
0.0
  0
LINE
  5
178
330
6C
100
AcDbEntity
  8
Visible (ANSI)
100
AcDbLine
 10
95.22556247322887
 20
33.57342092160743
 30
0.0
 11
95.56974669897135
 21
33.77162343529587
 31
0.0
  0
LINE
  5
179
330
6C
100
AcDbEntity
  8
Visible (ANSI)
100
AcDbLine
 10
95.5697466989714
 20
52.63488824678775
 30
0.0
 11
95.56974669897135
 21
33.77162343529587
 31
0.0
  0
LINE
  5
17A
330
6C
100
AcDbEntity
  8
Visible (ANSI)
100
AcDbLine
 10
95.5697466989714
 20
52.63488824678775
 30
0.0
 11
95.2255624732289
 21
52.4366857330993
 31
0.0
  0
LINE
  5
17B
330
6C
100
AcDbEntity
  8
Visible (ANSI)
100
AcDbLine
 10
95.09287388573921
 20
33.57348200096448
 30
0.0
 11
95.09297995175639
 21
33.57342092160741
 31
0.0
  0
LINE
  5
17C
330
6C
100
AcDbEntity
  8
Visible (ANSI)
100
AcDbLine
 10
95.5200282534192
 20
52.66351919541377
 30
0.0
 11
95.5697466989714
 21
52.63488824678775
 31
0.0
  0
LINE
  5
17D
330
6C
100
AcDbEntity
  8
Visible (ANSI)
100
AcDbLine
 10
95.20898965804484
 20
52.48440398080934
 30
0.0
 11
95.5200282534192
 21
52.66351919541377
 31
0.0
  0
LINE
  5
17E
330
6C
100
AcDbEntity
  8
Visible (ANSI)
100
AcDbLine
 10
95.09297995175641
 20
52.43668573309928
 30
0.0
 11
95.09287388573925
 21
52.43674681245636
 31
0.0
  0
ELLIPSE
  5
17F
330
6C
100
AcDbEntity
  8
Visible (ANSI)
100
AcDbEllipse
 10
94.93321801338202
 20
53.32051450360729
 30
0.0
 11
-0.0935685396720763
 21
0.1624843942772197
 31
0.0
210
0.0
220
0.0
230
1.0
 40
0.5780931159158116
 41
0.2678448778124807
 42
2.873747775777321
  0
ELLIPSE
  5
180
330
6C
100
AcDbEntity
  8
Visible (ANSI)
100
AcDbEllipse
 10
83.71143339594985
 20
59.78271048149071
 30
0.0
 11
-0.0935685396720769
 21
0.1624843942772208
 31
0.0
210
0.0
220
0.0
230
1.0
 40
0.5780931159158115
 41
0.2678448778124807
 42
2.873747775777321
  0
ELLIPSE
  5
181
330
6C
100
AcDbEntity
  8
Visible (ANSI)
100
AcDbEllipse
 10
83.71143339594979
 20
39.45031348665679
 30
0.0
 11
-0.0935685396720763
 21
0.16248439427722
 31
0.0
210
0.0
220
0.0
230
1.0
 40
0.5780931159158116
 41
0.2678448778124816
 42
2.873747775777322
  0
ELLIPSE
  5
182
330
6C
100
AcDbEntity
  8
Visible (ANSI)
100
AcDbEllipse
 10
94.93321801338201
 20
32.98811750877338
 30
0.0
 11
-0.0935685396720763
 21
0.1624843942772198
 31
0.0
210
0.0
220
0.0
230
1.0
 40
0.5780931159158115
 41
0.2678448778125047
 42
2.873747775777321
  0
ELLIPSE
  5
183
330
6C
100
AcDbEntity
  8
Visible (ANSI)
100
AcDbEllipse
 10
94.93321801338202
 20
52.86064424588337
 30
0.0
 11
0.0584803372950538
 21
-0.1015527464232589
 31
0.0
210
0.0
220
0.0
230
1.0
 40
0.5780931159158115
 41
3.578838513251698
 42
5.845939447516943
  0
ELLIPSE
  5
184
330
6C
100
AcDbEntity
  8
Visible (ANSI)
100
AcDbEllipse
 10
83.71143339594985
 20
59.32284022376677
 30
0.0
 11
0.0584803372950542
 21
-0.1015527464232596
 31
0.0
210
0.0
220
0.0
230
0.9999999999999998
 40
0.5780931159158114
 41
3.578838513251698
 42
5.845939447516942
  0
ELLIPSE
  5
185
330
6C
100
AcDbEntity
  8
Visible (ANSI)
100
AcDbEllipse
 10
83.71143339594979
 20
39.91018374438072
 30
0.0
 11
0.0584803372950538
 21
-0.101552746423259
 31
0.0
210
0.0
220
0.0
230
1.0
 40
0.5780931159158115
 41
3.578838513251698
 42
5.845939447516942
  0
ELLIPSE
  5
186
330
6C
100
AcDbEntity
  8
Visible (ANSI)
100
AcDbEllipse
 10
94.93321801338201
 20
33.44798776649731
 30
0.0
 11
0.0584803372950537
 21
-0.1015527464232588
 31
0.0
210
0.0
220
0.0
230
1.0
 40
0.5780931159158114
 41
3.578838513251616
 42
5.845939447516942
  0
ELLIPSE
  5
187
330
6C
100
AcDbEntity
  8
Visible (ANSI)
100
AcDbEllipse
 10
94.88349956782988
 20
53.29188355498128
 30
0.0
 11
-0.0935685396720765
 21
0.16248439427722
 31
0.0
210
0.0
220
0.0
230
1.0
 40
0.5780931159158115
 41
0.0
 42
6.283185307179586
  0
ELLIPSE
  5
188
330
6C
100
AcDbEntity
  8
Visible (ANSI)
100
AcDbEllipse
 10
83.66171495039768
 20
59.75407953286469
 30
0.0
 11
-0.0935685396720765
 21
0.16248439427722
 31
0.0
210
0.0
220
0.0
230
1.0
 40
0.5780931159158115
 41
0.0
 42
6.283185307179586
  0
ELLIPSE
  5
189
330
6C
100
AcDbEntity
  8
Visible (ANSI)
100
AcDbEllipse
 10
83.66171495039763
 20
39.42168253803076
 30
0.0
 11
-0.0935685396720765
 21
0.16248439427722
 31
0.0
210
0.0
220
0.0
230
1.0
 40
0.5780931159158115
 41
0.0
 42
6.283185307179586
  0
ELLIPSE
  5
18A
330
6C
100
AcDbEntity
  8
Visible (ANSI)
100
AcDbEllipse
 10
94.88349956782982
 20
32.95948656014735
 30
0.0
 11
-0.0935685396720765
 21
0.16248439427722
 31
0.0
210
0.0
220
0.0
230
1.0
 40
0.5780931159158115
 41
0.0
 42
6.283185307179586
  0
ELLIPSE
  5
18B
330
6C
100
AcDbEntity
  8
Visible (ANSI)
100
AcDbEllipse
 10
94.88349956782988
 20
52.83201329725734
 30
0.0
 11
-0.0584803372950478
 21
0.1015527464232625
 31
0.0
210
0.0
220
0.0
230
1.0
 40
0.5780931159158115
 41
0.0
 42
6.283185307179586
  0
ELLIPSE
  5
18C
330
6C
100
AcDbEntity
  8
Visible (ANSI)
100
AcDbEllipse
 10
83.66171495039768
 20
59.29420927514074
 30
0.0
 11
-0.0584803372950478
 21
0.1015527464232625
 31
0.0
210
0.0
220
0.0
230
1.0
 40
0.5780931159158115
 41
0.0
 42
6.283185307179586
  0
ELLIPSE
  5
18D
330
6C
100
AcDbEntity
  8
Visible (ANSI)
100
AcDbEllipse
 10
83.66171495039763
 20
39.88155279575469
 30
0.0
 11
-0.0584803372950478
 21
0.1015527464232625
 31
0.0
210
0.0
220
0.0
230
1.0
 40
0.5780931159158115
 41
0.0
 42
6.283185307179586
  0
ELLIPSE
  5
18E
330
6C
100
AcDbEntity
  8
Visible (ANSI)
100
AcDbEllipse
 10
94.88349956782982
 20
33.41935681787127
 30
0.0
 11
-0.0584803372950478
 21
0.1015527464232625
 31
0.0
210
0.0
220
0.0
230
1.0
 40
0.5780931159158115
 41
0.0
 42
6.283185307179586
  0
LINE
  5
18F
330
6C
100
AcDbEntity
  8
Visible (ANSI)
100
AcDbLine
 10
95.2089896580448
 20
32.81704797352175
 30
0.0
 11
95.2089896580448
 21
33.56375463999669
 31
0.0
  0
LINE
  5
190
330
6C
100
AcDbEntity
  8
Visible (ANSI)
100
AcDbLine
 10
94.94382461509983
 20
53.63324994658901
 30
0.0
 11
83.70082679423203
 21
60.10766179588618
 31
0.0
  0
LINE
  5
191
330
6C
100
AcDbEntity
  8
Visible (ANSI)
100
AcDbLine
 10
95.20898965804484
 20
52.42726471562602
 30
0.0
 11
95.20898965804484
 21
53.17397138210095
 31
0.0
  0
LINE
  5
192
330
6C
100
AcDbEntity
  8
Visible (ANSI)
100
AcDbLine
 10
95.15927121249266
 20
53.14534043347492
 30
0.0
 11
95.15927121249266
 21
52.39863376699999
 31
0.0
  0
LINE
  5
193
330
6C
100
AcDbEntity
  8
Visible (ANSI)
100
AcDbLine
 10
83.65110834867987
 20
60.07903084726017
 30
0.0
 11
94.89410616954769
 21
53.60461899796298
 31
0.0
  0
LINE
  5
194
330
6C
100
AcDbEntity
  8
Visible (ANSI)
100
AcDbLine
 10
83.38594330573487
 20
59.17844240164138
 30
0.0
 11
83.38594330573487
 21
59.92514906811631
 31
0.0
  0
LINE
  5
195
330
6C
100
AcDbEntity
  8
Visible (ANSI)
100
AcDbLine
 10
83.38594330573483
 20
39.56822565953711
 30
0.0
 11
83.38594330573483
 21
40.31493232601204
 31
0.0
  0
LINE
  5
196
330
6C
100
AcDbEntity
  8
Visible (ANSI)
100
AcDbLine
 10
94.89410616954762
 20
32.63453524575188
 30
0.0
 11
83.65110834867984
 21
39.10894709504905
 31
0.0
  0
LINE
  5
197
330
6C
100
AcDbEntity
  8
Visible (ANSI)
100
AcDbLine
 10
95.15927121249262
 20
33.53512369137066
 30
0.0
 11
95.15927121249262
 21
32.78841702489572
 31
0.0
  0
LINE
  5
198
330
6C
100
AcDbEntity
  8
Visible (ANSI)
100
AcDbLine
 10
94.94382461509982
 20
32.6631661943779
 30
0.0
 11
95.2089896580448
 21
32.81704797352175
 31
0.0
  0
LINE
  5
199
330
6C
100
AcDbEntity
  8
Visible (ANSI)
100
AcDbLine
 10
95.15927121249262
 20
32.78841702489572
 30
0.0
 11
94.89410616954762
 21
32.63453524575188
 31
0.0
  0
LINE
  5
19A
330
6C
100
AcDbEntity
  8
Visible (ANSI)
100
AcDbLine
 10
94.89410616954762
 20
32.63453524575188
 30
0.0
 11
94.94382461509982
 21
32.6631661943779
 31
0.0
  0
LINE
  5
19B
330
6C
100
AcDbEntity
  8
Visible (ANSI)
100
AcDbLine
 10
95.2089896580448
 20
32.81704797352175
 30
0.0
 11
95.15927121249262
 21
32.78841702489572
 31
0.0
  0
LINE
  5
19C
330
6C
100
AcDbEntity
  8
Visible (ANSI)
100
AcDbLine
 10
95.20898965804484
 20
53.17397138210095
 30
0.0
 11
94.94382461509983
 21
53.63324994658901
 31
0.0
  0
LINE
  5
19D
330
6C
100
AcDbEntity
  8
Visible (ANSI)
100
AcDbLine
 10
94.89410616954769
 20
53.60461899796298
 30
0.0
 11
95.15927121249266
 21
53.14534043347492
 31
0.0
  0
LINE
  5
19E
330
6C
100
AcDbEntity
  8
Visible (ANSI)
100
AcDbLine
 10
95.15927121249266
 20
53.14534043347492
 30
0.0
 11
95.20898965804484
 21
53.17397138210095
 31
0.0
  0
LINE
  5
19F
330
6C
100
AcDbEntity
  8
Visible (ANSI)
100
AcDbLine
 10
94.94382461509983
 20
53.63324994658901
 30
0.0
 11
94.89410616954769
 21
53.60461899796298
 31
0.0
  0
LINE
  5
1A0
330
6C
100
AcDbEntity
  8
Visible (ANSI)
100
AcDbLine
 10
83.38594330573487
 20
59.92514906811631
 30
0.0
 11
83.65110834867987
 21
60.07903084726017
 31
0.0
  0
LINE
  5
1A1
330
6C
100
AcDbEntity
  8
Visible (ANSI)
100
AcDbLine
 10
83.65110834867987
 20
60.07903084726017
 30
0.0
 11
83.70082679423203
 21
60.10766179588618
 31
0.0
  0
LINE
  5
1A2
330
6C
100
AcDbEntity
  8
Visible (ANSI)
100
AcDbLine
 10
83.38594330573487
 20
59.17844240164138
 30
0.0
 11
83.45234063248829
 21
59.14020672411628
 31
0.0
  0
LINE
  5
1A3
330
6C
100
AcDbEntity
  8
Visible (ANSI)
100
AcDbLine
 10
83.45234063248829
 20
59.14020672411628
 30
0.0
 11
83.45234063248829
 21
59.14008409204756
 31
0.0
  0
LINE
  5
1A4
330
6C
100
AcDbEntity
  8
Visible Narrow (ANSI)
100
AcDbLine
 10
83.4522345664711
 20
59.14014517140463
 30
0.0
 11
83.45223456647108
 21
40.27688035991274
 31
0.0
  0
LINE
  5
1A5
330
6C
100
AcDbEntity
  8
Visible (ANSI)
100
AcDbLine
 10
83.45234063248824
 20
40.27681928055567
 30
0.0
 11
83.45234063248824
 21
40.27669664848695
 31
0.0
  0
LINE
  5
1A6
330
6C
100
AcDbEntity
  8
Visible (ANSI)
100
AcDbLine
 10
83.45234063248824
 20
40.27669664848695
 30
0.0
 11
83.38594330573483
 21
40.31493232601204
 31
0.0
  0
ELLIPSE
  5
1A7
330
6C
100
AcDbEntity
  8
Visible (ANSI)
100
AcDbEllipse
 10
83.51852582720736
 20
59.17831976957266
 30
0.0
 11
-0.0937500000000171
 21
0.0000000000000002
 31
0.0
210
0.0
220
0.0
230
1.0
 40
0.5758617009853142
 41
0.728712538635592
 42
0.7853981633973666
  0
ELLIPSE
  5
1A8
330
6C
100
AcDbEntity
  8
Visible (ANSI)
100
AcDbEllipse
 10
83.51852582720731
 20
40.31505495808077
 30
0.0
 11
-0.0937500000000001
 21
-0.0000000000000004
 31
0.0
210
0.0
220
0.0
230
1.0
 40
0.5758617009853103
 41
0.0
 42
0.7853981633973799
  0
LINE
  5
1A9
330
6C
100
AcDbEntity
  8
Visible (ANSI)
100
AcDbLine
 10
83.38594330573483
 20
40.31493232601204
 30
0.0
 11
83.42477582720732
 21
40.33729448788074
 31
0.0
  0
LINE
  5
1AA
330
6C
100
AcDbEntity
  8
Visible (ANSI)
100
AcDbLine
 10
83.42477582720736
 20
59.15608023977269
 30
0.0
 11
83.42477582720732
 21
40.31505495808077
 31
0.0
  0
LINE
  5
1AB
330
6C
100
AcDbEntity
  8
Visible (ANSI)
100
AcDbLine
 10
83.45234063248829
 20
59.14008409204756
 30
0.0
 11
83.4522345664711
 21
59.14014517140463
 31
0.0
  0
LINE
  5
1AC
330
6C
100
AcDbEntity
  8
Visible (ANSI)
100
AcDbLine
 10
83.45223456647108
 20
40.27688035991274
 30
0.0
 11
83.45234063248824
 21
40.27681928055567
 31
0.0
  0
LINE
  5
1AD
330
6C
100
AcDbEntity
  8
Visible (ANSI)
100
AcDbLine
 10
83.63720185313464
 20
59.32300994406542
 30
0.0
 11
83.69882747148588
 21
59.35849777747344
 31
0.0
  0
LINE
  5
1AE
330
6C
100
AcDbEntity
  8
Visible (ANSI)
100
AcDbLine
 10
83.72629421949687
 20
59.31705292845155
 30
0.0
 11
83.65926126920131
 21
59.27845121967227
 31
0.0
  0
LINE
  5
1AF
330
6C
100
AcDbEntity
  8
Visible (ANSI)
100
AcDbLine
 10
83.65110834867984
 20
39.10894709504905
 30
0.0
 11
83.38594330573483
 21
39.56822565953711
 31
0.0
  0
DIMENSION
  5
1B0
330
6C
100
AcDbEntity
  8
Dimension (ANSI)
100
AcDbDimension
  2
*D4
 10
19.68275692828418
 20
60.86264912903459
 30
0.0
 11
30.78275692828418
 21
60.86264912903459
 31
0.0
 70
   160
  1
<>
 42
22.2
  3
Default (ANSI)
100
AcDbAlignedDimension
 13
41.88275692828418
 23
54.24847590068813
 33
0.0
 14
19.68275692828418
 24
54.24847590068813
 34
0.0
 50
180.0
100
AcDbRotatedDimension
1001
ACAD
1000
DSTYLE
1002
{
1070
   289
1070
     1
1070
    73
1070
     0
1070
    74
1070
     0
1070
   271
1070
     3
1070
   272
1070
     2
1070
    48
1040
0.0
1070
    47
1040
0.0
1002
}
  0
DIMENSION
  5
29D
330
6C
100
AcDbEntity
  8
Dimension (ANSI)
100
AcDbDimension
  2
*D5
 10
8.638352286547405
 20
20.54847590068813
 30
0.0
 11
8.638352286547402
 21
42.41959827754089
 31
0.0
 70
   160
  1
<>
 42
34.2
  3
Default (ANSI)
100
AcDbAlignedDimension
 13
20.18275692828418
 23
54.74847590068812
 33
0.0
 14
20.18275692828419
 24
20.54847590068813
 34
0.0
 50
270.0
100
AcDbRotatedDimension
1001
ACAD
1000
DSTYLE
1002
{
1070
   289
1070
     1
1070
   271
1070
     3
1070
   272
1070
     2
1070
    48
1040
0.0
1070
    47
1040
0.0
1002
}
  0
DIMENSION
  5
387
330
6C
100
AcDbEntity
  8
Dimension (ANSI)
100
AcDbDimension
  2
*D6
 10
20.09892186725455
 20
21.29589243504958
 30
0.0
 11
26.12685404671546
 21
16.23322416452561
 31
0.0
 70
   163
  1
<>{\PTYP.(6PL.)}
 42
0.5
  3
Default (ANSI)
100
AcDbDiametricDimension
 15
20.30659198931385
 25
20.84105936632669
 35
0.0
 40
0.0
1001
ACAD_DSTYLE_DIMRADIAL_EXTENSION
1070
   387
1070
     1
1070
   388
1040
0.0
1070
   390
1040
0.0
1001
ACAD
1000
DSTYLE
1002
{
1070
   145
1040
-0.25
1070
   144
1040
0.9999999999999893
1070
   271
1070
     3
1070
   272
1070
     2
1070
    48
1040
0.0
1070
    47
1040
0.0
1002
}
  0
DIMENSION
  5
441
330
6C
100
AcDbEntity
  8
Dimension (ANSI)
100
AcDbDimension
  2
*D7
 10
20.10336149490724
 20
21.93903547236873
 30
0.0
 11
26.1006103460349
 21
19.17251872046272
 31
0.0
 70
   163
  1
<>{\PTYP.(4PL.)}
 42
0.3125
  3
Default (ANSI)
100
AcDbDiametricDimension
 15
20.30215236166112
 25
21.69791632900753
 35
0.0
 40
0.0
1001
ACAD_DSTYLE_DIMRADIAL_EXTENSION
1070
   387
1070
     1
1070
   388
1040
0.0
1070
   390
1040
0.0
1001
ACAD
1000
DSTYLE
1002
{
1070
   145
1040
-0.25
1070
   144
1040
1.0
1070
   271
1070
     3
1070
   272
1070
     2
1070
    48
1040
0.0
1070
    47
1040
0.0
1002
}
  0
DIMENSION
  5
4FA
330
6C
100
AcDbEntity
  8
Dimension (ANSI)
100
AcDbDimension
  2
*D8
 10
64.46014937348784
 20
21.15711652245392
 30
0.0
 11
68.00737103054837
 21
21.15711652245392
 31
0.0
 70
   160
  1
 12 GA.\P304 SS
 42
0.09375
  3
Default (ANSI)
100
AcDbAlignedDimension
 13
64.36639937348783
 23
42.23044172646321
 33
0.0
 14
64.46014937348784
 24
42.23044172646321
 34
0.0
 50
180.0
100
AcDbRotatedDimension
1001
ACAD
1000
DSTYLE
1002
{
1070
   289
1070
     1
1070
    73
1070
     0
1070
    74
1070
     0
1070
   145
1040
-0.25
1070
   271
1070
     3
1070
   272
1070
     2
1070
    48
1040
0.0
1070
    47
1040
0.0
1002
}
  0
DIMENSION
  5
5F8
330
6C
100
AcDbEntity
  8
Dimension (ANSI)
100
AcDbDimension
  2
*D9
 10
11.65000357246482
 20
21.06847590068813
 30
0.0
 11
11.65000357246482
 21
40.3640266294894
 31
0.0
 70
   160
  1
<>
 42
33.16
  3
Default (ANSI)
100
AcDbAlignedDimension
 13
20.20275692828419
 23
54.22847590068812
 33
0.0
 14
20.20275692828419
 24
21.06847590068813
 34
0.0
 50
90.0
100
AcDbRotatedDimension
1001
ACAD
1000
DSTYLE
1002
{
1070
   289
1070
     1
1070
   271
1070
     3
1070
   272
1070
     2
1070
    48
1040
0.0
1070
    47
1040
0.0
1002
}
  0
DIMENSION
  5
6E2
330
6C
100
AcDbEntity
  8
Dimension (ANSI)
100
AcDbDimension
  2
*D10
 10
15.85231920968409
 20
21.06847590068813
 30
0.0
 11
18.07184681258382
 21
23.52889552217171
 31
0.0
 70
   160
  1
<>
 42
0.75
  3
Default (ANSI)
100
AcDbAlignedDimension
 13
20.20275692828419
 23
21.81847590068814
 33
0.0
 14
20.20275692828419
 24
21.06847590068813
 34
0.0
 50
90.0
100
AcDbRotatedDimension
1001
ACAD
1000
DSTYLE
1002
{
1070
   289
1070
     1
1070
   271
1070
     3
1070
   272
1070
     2
1070
    48
1040
0.0
1070
    47
1040
0.0
1002
}
  0
DIMENSION
  5
7E2
330
6C
100
AcDbEntity
  8
Dimension (ANSI)
100
AcDbDimension
  2
*D11
 10
20.20275692828419
 20
58.80104104252399
 30
0.0
 11
30.78275692828419
 21
58.80104104252399
 31
0.0
 70
   160
  1
<>
 42
21.16
  3
Default (ANSI)
100
AcDbAlignedDimension
 13
41.36275692828419
 23
54.22847590068812
 33
0.0
 14
20.20275692828419
 24
54.22847590068812
 34
0.0
 50
180.0
100
AcDbRotatedDimension
1001
ACAD
1000
DSTYLE
1002
{
1070
   289
1070
     1
1070
    73
1070
     0
1070
    74
1070
     0
1070
   271
1070
     3
1070
   272
1070
     2
1070
    48
1040
0.0
1070
    47
1040
0.0
1002
}
  0
DIMENSION
  5
8CC
330
6C
100
AcDbEntity
  8
Dimension (ANSI)
100
AcDbDimension
  2
*D12
 10
41.7520037413512
 20
20.54847590068813
 30
0.0
 11
43.97153134425092
 21
22.75889552217171
 31
0.0
 70
   160
  1
<>
 42
0.4999999999999965
  3
Default (ANSI)
100
AcDbAlignedDimension
 13
41.88275692828418
 23
21.04847590068813
 33
0.0
 14
41.38275692828417
 24
20.54847590068813
 34
0.0
 50
90.0
100
AcDbRotatedDimension
1001
ACAD
1000
DSTYLE
1002
{
1070
   289
1070
     1
1070
   271
1070
     3
1070
   272
1070
     2
1070
    48
1040
0.0
1070
    47
1040
0.0
1002
}
  0
DIMENSION
  5
9CC
330
6C
100
AcDbEntity
  8
Dimension (ANSI)
100
AcDbDimension
  2
*D13
 10
41.38275692828417
 20
18.69463564889098
 30
0.0
 11
37.85522857472074
 21
18.69463564889098
 31
0.0
 70
   160
  1
<>
 42
0.5
  3
Default (ANSI)
100
AcDbAlignedDimension
 13
41.88275692828418
 23
21.04847590068813
 33
0.0
 14
41.38275692828417
 24
20.54847590068813
 34
0.0
 50
180.0
100
AcDbRotatedDimension
1001
ACAD
1000
DSTYLE
1002
{
1070
   289
1070
     1
1070
    73
1070
     0
1070
    74
1070
     0
1070
   271
1070
     3
1070
   272
1070
     2
1070
    48
1040
0.0
1070
    47
1040
0.0
1002
}
  0
DIMENSION
  5
AB6
330
6C
100
AcDbEntity
  8
Dimension (ANSI)
100
AcDbDimension
  2
*D14
 10
41.88275692828418
 20
57.01670372709227
 30
0.0
 11
38.45222363166005
 21
57.01670372709227
 31
0.0
 70
   160
  1
<>
 42
0.519999999999989
  3
Default (ANSI)
100
AcDbAlignedDimension
 13
41.36275692828419
 23
54.22847590068812
 33
0.0
 14
41.88275692828418
 24
54.24847590068813
 34
0.0
 50
180.0
100
AcDbRotatedDimension
1001
ACAD
1000
DSTYLE
1002
{
1070
   289
1070
     1
1070
    73
1070
     0
1070
    74
1070
     0
1070
   271
1070
     3
1070
   272
1070
     2
1070
    48
1040
0.0
1070
    47
1040
0.0
1002
}
  0
DIMENSION
  5
BA0
330
6C
100
AcDbEntity
  8
Dimension (ANSI)
100
AcDbDimension
  2
*D15
 10
47.22806832373815
 20
54.74847590068812
 30
0.0
 11
45.00854072083841
 21
52.51805627920457
 31
0.0
 70
   160
  1
<>
 42
0.5200000000000032
  3
Default (ANSI)
100
AcDbAlignedDimension
 13
41.36275692828419
 23
54.22847590068812
 33
0.0
 14
41.38275692828417
 24
54.74847590068812
 34
0.0
 50
270.0
100
AcDbRotatedDimension
1001
ACAD
1000
DSTYLE
1002
{
1070
   289
1070
     1
1070
   271
1070
     3
1070
   272
1070
     2
1070
    48
1040
0.0
1070
    47
1040
0.0
1002
}
  0
MTEXT
  5
CA0
102
{ACAD_XDICTIONARY
360
E84
102
}
330
6C
100
AcDbEntity
  8
Symbol (ANSI)
100
AcDbMText
 10
56.38900146817539
 20
16.03855091842208
 30
0.0
 40
0.7200000088984572
 41
41.74709966598511
 71
     1
 72
     1
  3
{\fRomanS|b0|i0|c0|p2;\H2x;PART#: NP3624SSC\P(DATA SUBJECT TO CHANGE \H1.4574x; \H0.68616x;WITHOUT NOTICE) \H1.3503x; \H0.74058x;\P\H0.6x;THIS DRAWING IS PROPERTY OF HUBBELL INC. WIEGMANN\H1.3089x; \H0.76402x;\PALL INFORMATION IS PROPRIETARY AND NOT 
  1
TO BE \H1.0612x; \H0.94229x;DUPLICATED\H1.1097x; \H0.75093x;\P\H1.1203x; }
  7
Note Text (ANSI)
 73
     1
 44
0.8968595266342163
1001
ACAD
1000
MTEXTBEGIN
1070
    73
1070
     1
1070
    44
1040
0.8968595266342163
1070
    74
1070
     0
1000
MTEXTEND
  0
DIMENSION
  5
CA2
330
6C
100
AcDbEntity
  8
Dimension (ANSI)
100
AcDbDimension
  2
*D16
 10
65.14039937348783
 20
56.76816094005821
 30
0.0
 11
60.83887101992439
 21
56.76816094005821
 31
0.0
 70
   160
  1
<>
 42
0.7740000000000009
  3
Default (ANSI)
100
AcDbAlignedDimension
 13
64.36639937348783
 23
54.24847590068813
 33
0.0
 14
65.14039937348783
 24
53.03047590068812
 34
0.0
 50
180.0
100
AcDbRotatedDimension
1001
ACAD
1000
DSTYLE
1002
{
1070
   289
1070
     1
1070
    73
1070
     0
1070
    74
1070
     0
1070
   271
1070
     3
1070
   272
1070
     2
1070
    48
1040
0.0
1070
    47
1040
0.0
1002
}
  0
DIMENSION
  5
D8C
330
6C
100
AcDbEntity
  8
Dimension (ANSI)
100
AcDbDimension
  2
*D17
 10
14.51944604821521
 20
21.06847590068813
 30
0.0
 11
14.51944604821521
 21
29.35847590068814
 31
0.0
 70
   160
  1
<>
 42
16.58
  3
Default (ANSI)
100
AcDbAlignedDimension
 13
20.20275692828419
 23
37.64847590068813
 33
0.0
 14
20.20275692828419
 24
21.06847590068813
 34
0.0
 50
90.0
100
AcDbRotatedDimension
1001
ACAD
1000
DSTYLE
1002
{
1070
   289
1070
     1
1070
   271
1070
     3
1070
   272
1070
     2
1070
    48
1040
0.0
1070
    47
1040
0.0
1002
}
  0
ENDSEC
  0
SECTION
  2
OBJECTS
  0
DICTIONARY
  5
C
330
0
100
AcDbDictionary
281
     1
  3
ACAD_CIP_PREVIOUS_PRODUCT_INFO
350
E76
  3
ACAD_COLOR
350
63
  3
ACAD_GROUP
350
D
  3
ACAD_LAYOUT
350
62
  3
ACAD_MATERIAL
350
10
  3
ACAD_MLEADERSTYLE
350
66
  3
ACAD_MLINESTYLE
350
5F
  3
ACAD_PLOTSETTINGS
350
61
  3
ACAD_PLOTSTYLENAME
350
E
  3
ACAD_SCALELIST
350
42
  3
ACAD_TABLESTYLE
350
64
  3
ACAD_VISUALSTYLE
350
29
  3
ACDB_RECOMPOSE_DATA
350
E86
  3
AcDbVariableDictionary
350
76
  3
DWGPROPS
350
E87
  0
DICTIONARY
  5
EC3
330
43B
100
AcDbDictionary
280
     1
281
     1
  3
ACAD_MTEXT_RT
360
EC4
  0
DICTIONARY
  5
EC5
330
4F4
100
AcDbDictionary
280
     1
281
     1
  3
ACAD_MTEXT_RT
360
EC6
  0
DICTIONARY
  5
E84
330
CA0
100
AcDbDictionary
280
     1
281
     1
  3
ACAD_MTEXT_2008_RT
360
E85
  0
XRECORD
  5
E76
102
{ACAD_REACTORS
330
C
102
}
330
C
100
AcDbXrecord
280
     1
300
INVNTOR
300
2012
300
85795PDSP_2012_0F
  0
DICTIONARY
  5
63
102
{ACAD_REACTORS
330
C
102
}
330
C
100
AcDbDictionary
281
     1
  0
DICTIONARY
  5
D
102
{ACAD_REACTORS
330
C
102
}
330
C
100
AcDbDictionary
281
     1
  0
DICTIONARY
  5
62
102
{ACAD_REACTORS
330
C
102
}
330
C
100
AcDbDictionary
281
     1
  3
Layout1
350
6B
  3
Layout2
350
73
  3
Model
350
6F
  0
DICTIONARY
  5
10
102
{ACAD_REACTORS
330
C
102
}
330
C
100
AcDbDictionary
281
     1
  3
ByBlock
350
19
  3
ByLayer
350
11
  3
Global
350
21
  0
DICTIONARY
  5
66
102
{ACAD_REACTORS
330
C
102
}
330
C
100
AcDbDictionary
281
     1
  3
Standard
350
67
  0
DICTIONARY
  5
5F
102
{ACAD_REACTORS
330
C
102
}
330
C
100
AcDbDictionary
281
     1
  3
Standard
350
60
  0
DICTIONARY
  5
61
102
{ACAD_REACTORS
330
C
102
}
330
C
100
AcDbDictionary
281
     1
  0
ACDBDICTIONARYWDFLT
  5
E
102
{ACAD_REACTORS
330
C
102
}
330
C
100
AcDbDictionary
281
     1
  3
Normal
350
F
100
AcDbDictionaryWithDefault
340
F
  0
DICTIONARY
  5
42
102
{ACAD_REACTORS
330
C
102
}
330
C
100
AcDbDictionary
281
     1
  3
A0
350
43
  3
A1
350
44
  3
A2
350
45
  3
A3
350
46
  3
A4
350
47
  3
A5
350
48
  3
A6
350
49
  3
A7
350
4A
  3
A8
350
4B
  3
A9
350
4C
  3
B0
350
4D
  3
B1
350
4E
  3
B2
350
4F
  3
B3
350
50
  3
B4
350
51
  3
B5
350
52
  3
B6
350
53
  0
DICTIONARY
  5
64
102
{ACAD_REACTORS
330
C
102
}
330
C
100
AcDbDictionary
281
     1
  3
Standard
350
65
  0
DICTIONARY
  5
29
102
{ACAD_REACTORS
330
C
102
}
330
C
100
AcDbDictionary
281
     1
  3
2dWireframe
350
2F
  3
Basic
350
2E
  3
Brighten
350
35
  3
ColorChange
350
39
  3
Conceptual
350
32
  3
Dim
350
34
  3
EdgeColorOff
350
41
  3
Facepattern
350
38
  3
Flat
350
2A
  3
FlatWithEdges
350
2B
  3
Gouraud
350
2C
  3
GouraudWithEdges
350
2D
  3
Hidden
350
31
  3
JitterOff
350
3F
  3
Linepattern
350
37
  3
OverhangOff
350
40
  3
Realistic
350
33
  3
Shaded
350
3E
  3
Shaded with edges
350
3D
  3
Shades of Gray
350
3A
  3
Sketchy
350
3B
  3
Thicken
350
36
  3
Wireframe
350
30
  3
X-Ray
350
3C
  0
XRECORD
  5
E86
102
{ACAD_REACTORS
330
C
102
}
330
C
100
AcDbXrecord
280
     1
 90
        1
330
65
330
CA0
  0
DICTIONARY
  5
76
102
{ACAD_REACTORS
330
C
102
}
330
C
100
AcDbDictionary
281
     1
  3
CANNOSCALE
350
79
  3
CMLEADERSTYLE
350
78
  3
CTABLESTYLE
350
77
  3
DIMASSOC
350
E7E
  3
HIDETEXT
350
E7D
  3
INDEXCTL
350
E7C
  3
LAYEREVAL
350
E79
  3
LAYERNOTIFY
350
E7A
  3
LIGHTINGUNITS
350
E78
  3
MSLTSCALE
350
E77
  3
SORTENTS
350
E7B
  3
XCLIPFRAME
350
E7F
  0
XRECORD
  5
E87
102
{ACAD_REACTORS
330
C
102
}
330
C
100
AcDbXrecord
280
     1
  1
DWGPROPS COOKIE
  2

  3

  4
dnichola
  6

  7

  8

  9
-
300
Manager=
301
Company=
302
Category=
303
Part Number=NP3624SSC-S
304
Description=
305
Project=
306
Designer=dnichola
307
Engineer=
308
Authority=
309
Cost Center=
 40
0.0000383333333333
 41
2455944.625534919
 42
2455944.625535104
  1

 90
       19
300
Vendor=
300
User Status=
300
Design Status=WorkInProgress
300
Checked by=
300
Engr Approved by=
300
Mfg Approved by=
300
DWG. NO=
300
NUMBER OF SHEETS=1
300
DRAWING #=
  0
XRECORD
  5
EC4
102
{ACAD_REACTORS
330
EC3
102
}
330
EC3
100
AcDbXrecord
280
     1
 40
31496.0
  1
\A1;\U+22050.500{\PTYP.(6PL.)}
  0
XRECORD
  5
EC6
102
{ACAD_REACTORS
330
EC5
102
}
330
EC5
100
AcDbXrecord
280
     1
 40
31481.0
  1
\A1;\U+22050.313{\PTYP.(4PL.)}
  0
XRECORD
  5
E85
102
{ACAD_REACTORS
330
E84
102
}
330
E84
100
AcDbXrecord
280
     1
 40
3515600.0
  1
\pxsm0.94;{\fRomanS|b0|i0;\H1.4400;PART#: NP3624SSC\P(DATA SUBJECT TO CHANGE WITHOUT NOTICE) \P\fRomanS|b0|i0;\H0.8640;THIS DRAWING IS PROPERTY OF HUBBELL INC. WIEGMANN\PALL INFORMATION IS PROPRIETARY AND NOT TO BE DUPLICATED\fRomanS|b0|i0;\H0.7200;\
  1
P}
  0
LAYOUT
  5
6B
102
{ACAD_XDICTIONARY
360
EBD
102
}
102
{ACAD_REACTORS
330
62
102
}
330
62
100
AcDbPlotSettings
  1

  2

  4

  6

 40
0.0
 41
0.0
 42
0.0
 43
0.0
 44
0.0
 45
0.0
 46
0.0
 47
0.0
 48
0.0
 49
0.0
140
0.0
141
0.0
142
1.0
143
1.0
 70
   688
 72
     0
 73
     0
 74
     5
  7

 75
    16
147
1.0
148
0.0
149
0.0
100
AcDbLayout
  1
Layout1
 70
     1
 71
     1
 10
0.0
 20
0.0
 11
12.0
 21
9.0
 12
0.0
 22
0.0
 32
0.0
 14
0.0
 24
0.0
 34
0.0
 15
0.0
 25
0.0
 35
0.0
146
0.0
 13
0.0
 23
0.0
 33
0.0
 16
1.0
 26
0.0
 36
0.0
 17
0.0
 27
1.0
 37
0.0
 76
     0
330
68
  0
LAYOUT
  5
73
102
{ACAD_XDICTIONARY
360
EC1
102
}
102
{ACAD_REACTORS
330
62
102
}
330
62
100
AcDbPlotSettings
  1

  2

  4

  6

 40
0.0
 41
0.0
 42
0.0
 43
0.0
 44
0.0
 45
0.0
 46
0.0
 47
0.0
 48
0.0
 49
0.0
140
0.0
141
0.0
142
1.0
143
1.0
 70
   688
 72
     0
 73
     0
 74
     5
  7

 75
    16
147
1.0
148
0.0
149
0.0
100
AcDbLayout
  1
Layout2
 70
     1
 71
     2
 10
0.0
 20
0.0
 11
12.0
 21
9.0
 12
0.0
 22
0.0
 32
0.0
 14
0.0
 24
0.0
 34
0.0
 15
0.0
 25
0.0
 35
0.0
146
0.0
 13
0.0
 23
0.0
 33
0.0
 16
1.0
 26
0.0
 36
0.0
 17
0.0
 27
1.0
 37
0.0
 76
     0
330
70
  0
LAYOUT
  5
6F
102
{ACAD_XDICTIONARY
360
EBF
102
}
102
{ACAD_REACTORS
330
62
102
}
330
62
100
AcDbPlotSettings
  1

  2

  4

  6

 40
0.0
 41
0.0
 42
0.0
 43
0.0
 44
0.0
 45
0.0
 46
0.0
 47
0.0
 48
0.0
 49
0.0
140
0.0
141
0.0
142
1.0
143
1.0
 70
  1712
 72
     0
 73
     0
 74
     0
  7

 75
     0
147
1.0
148
0.0
149
0.0
100
AcDbLayout
  1
Model
 70
     1
 71
     0
 10
0.0
 20
0.0
 11
12.0
 21
9.0
 12
0.0
 22
0.0
 32
0.0
 14
0.0
 24
0.0
 34
0.0
 15
0.0
 25
0.0
 35
0.0
146
0.0
 13
0.0
 23
0.0
 33
0.0
 16
1.0
 26
0.0
 36
0.0
 17
0.0
 27
1.0
 37
0.0
 76
     0
330
6C
  0
MATERIAL
  5
19
102
{ACAD_XDICTIONARY
360
1A
102
}
102
{ACAD_REACTORS
330
10
102
}
330
10
100
AcDbMaterial
  1
ByBlock
 72
     0
 43
0.0208333333333333
 43
0.0
 43
0.0
 43
0.0
 43
0.0
 43
0.0208333333333333
 43
0.0
 43
0.0
 43
0.0
 43
0.0
 43
1.0
 43
0.0
 43
0.0
 43
0.0
 43
0.0
 43
1.0
 77
     0
 47
0.0208333333333333
 47
0.0
 47
0.0
 47
0.0
 47
0.0
 47
0.0208333333333333
 47
0.0
 47
0.0
 47
0.0
 47
0.0
 47
1.0
 47
0.0
 47
0.0
 47
0.0
 47
0.0
 47
1.0
171
     0
 49
0.0208333333333333
 49
0.0
 49
0.0
 49
0.0
 49
0.0
 49
0.0208333333333333
 49
0.0
 49
0.0
 49
0.0
 49
0.0
 49
1.0
 49
0.0
 49
0.0
 49
0.0
 49
0.0
 49
1.0
175
     0
142
0.0208333333333333
142
0.0
142
0.0
142
0.0
142
0.0
142
0.0208333333333333
142
0.0
142
0.0
142
0.0
142
0.0
142
1.0
142
0.0
142
0.0
142
0.0
142
0.0
142
1.0
179
     0
144
0.0208333333333333
144
0.0
144
0.0
144
0.0
144
0.0
144
0.0208333333333333
144
0.0
144
0.0
144
0.0
144
0.0
144
1.0
144
0.0
144
0.0
144
0.0
144
0.0
144
1.0
147
0.0208333333333333
147
0.0
147
0.0
147
0.0
147
0.0
147
0.0208333333333333
147
0.0
147
0.0
147
0.0
147
0.0
147
1.0
147
0.0
147
0.0
147
0.0
147
0.0
147
1.0
  0
MATERIAL
  5
11
102
{ACAD_XDICTIONARY
360
12
102
}
102
{ACAD_REACTORS
330
10
102
}
330
10
100
AcDbMaterial
  1
ByLayer
 72
     0
 43
0.0208333333333333
 43
0.0
 43
0.0
 43
0.0
 43
0.0
 43
0.0208333333333333
 43
0.0
 43
0.0
 43
0.0
 43
0.0
 43
1.0
 43
0.0
 43
0.0
 43
0.0
 43
0.0
 43
1.0
 77
     0
 47
0.0208333333333333
 47
0.0
 47
0.0
 47
0.0
 47
0.0
 47
0.0208333333333333
 47
0.0
 47
0.0
 47
0.0
 47
0.0
 47
1.0
 47
0.0
 47
0.0
 47
0.0
 47
0.0
 47
1.0
171
     0
 49
0.0208333333333333
 49
0.0
 49
0.0
 49
0.0
 49
0.0
 49
0.0208333333333333
 49
0.0
 49
0.0
 49
0.0
 49
0.0
 49
1.0
 49
0.0
 49
0.0
 49
0.0
 49
0.0
 49
1.0
175
     0
142
0.0208333333333333
142
0.0
142
0.0
142
0.0
142
0.0
142
0.0208333333333333
142
0.0
142
0.0
142
0.0
142
0.0
142
1.0
142
0.0
142
0.0
142
0.0
142
0.0
142
1.0
179
     0
144
0.0208333333333333
144
0.0
144
0.0
144
0.0
144
0.0
144
0.0208333333333333
144
0.0
144
0.0
144
0.0
144
0.0
144
1.0
144
0.0
144
0.0
144
0.0
144
0.0
144
1.0
147
0.0208333333333333
147
0.0
147
0.0
147
0.0
147
0.0
147
0.0208333333333333
147
0.0
147
0.0
147
0.0
147
0.0
147
1.0
147
0.0
147
0.0
147
0.0
147
0.0
147
1.0
  0
MATERIAL
  5
21
102
{ACAD_XDICTIONARY
360
22
102
}
102
{ACAD_REACTORS
330
10
102
}
330
10
100
AcDbMaterial
  1
Global
 72
     0
 43
0.0208333333333333
 43
0.0
 43
0.0
 43
0.0
 43
0.0
 43
0.0208333333333333
 43
0.0
 43
0.0
 43
0.0
 43
0.0
 43
1.0
 43
0.0
 43
0.0
 43
0.0
 43
0.0
 43
1.0
 77
     0
 47
0.0208333333333333
 47
0.0
 47
0.0
 47
0.0
 47
0.0
 47
0.0208333333333333
 47
0.0
 47
0.0
 47
0.0
 47
0.0
 47
1.0
 47
0.0
 47
0.0
 47
0.0
 47
0.0
 47
1.0
171
     0
 49
0.0208333333333333
 49
0.0
 49
0.0
 49
0.0
 49
0.0
 49
0.0208333333333333
 49
0.0
 49
0.0
 49
0.0
 49
0.0
 49
1.0
 49
0.0
 49
0.0
 49
0.0
 49
0.0
 49
1.0
175
     0
142
0.0208333333333333
142
0.0
142
0.0
142
0.0
142
0.0
142
0.0208333333333333
142
0.0
142
0.0
142
0.0
142
0.0
142
1.0
142
0.0
142
0.0
142
0.0
142
0.0
142
1.0
179
     0
144
0.0208333333333333
144
0.0
144
0.0
144
0.0
144
0.0
144
0.0208333333333333
144
0.0
144
0.0
144
0.0
144
0.0
144
1.0
144
0.0
144
0.0
144
0.0
144
0.0
144
1.0
147
0.0208333333333333
147
0.0
147
0.0
147
0.0
147
0.0
147
0.0208333333333333
147
0.0
147
0.0
147
0.0
147
0.0
147
1.0
147
0.0
147
0.0
147
0.0
147
0.0
147
1.0
  0
MLEADERSTYLE
  5
67
102
{ACAD_XDICTIONARY
360
E82
102
}
102
{ACAD_REACTORS
330
66
102
}
330
66
100
AcDbMLeaderStyle
170
     2
171
     1
172
     0
 90
        2
 40
0.0
 41
0.0
173
     1
 91
-1056964608
340
5B
 92
       -2
290
     1
 42
0.09
291
     1
 43
0.36
  3
Standard
 44
0.18
300

342
55
174
     1
178
     6
175
     1
176
     0
 93
-1056964608
 45
0.18
292
     0
297
     0
 46
0.18
 94
-1056964608
 47
1.0
 49
1.0
140
1.0
293
     1
141
0.0
294
     1
177
     0
142
1.0
295
     0
296
     0
143
0.125
1001
ACAD_MLEADERVER
1070
     2
  0
MLINESTYLE
  5
60
102
{ACAD_REACTORS
330
5F
102
}
330
5F
100
AcDbMlineStyle
  2
STANDARD
 70
     0
  3

 62
   256
 51
90.0
 52
90.0
 71
     2
 49
0.5
 62
   256
  6
BYLAYER
 49
-0.5
 62
   256
  6
BYLAYER
  0
ACDBPLACEHOLDER
  5
F
102
{ACAD_REACTORS
330
E
102
}
330
E
  0
SCALE
  5
43
102
{ACAD_REACTORS
330
42
102
}
330
42
100
AcDbScale
 70
     0
300
1:1
140
1.0
141
1.0
290
     1
  0
SCALE
  5
44
102
{ACAD_REACTORS
330
42
102
}
330
42
100
AcDbScale
 70
     0
300
1/128" = 1'-0"
140
0.0078125
141
12.0
290
     0
  0
SCALE
  5
45
102
{ACAD_REACTORS
330
42
102
}
330
42
100
AcDbScale
 70
     0
300
1/64" = 1'-0"
140
0.015625
141
12.0
290
     0
  0
SCALE
  5
46
102
{ACAD_REACTORS
330
42
102
}
330
42
100
AcDbScale
 70
     0
300
1/32" = 1'-0"
140
0.03125
141
12.0
290
     0
  0
SCALE
  5
47
102
{ACAD_REACTORS
330
42
102
}
330
42
100
AcDbScale
 70
     0
300
1/16" = 1'-0"
140
0.0625
141
12.0
290
     0
  0
SCALE
  5
48
102
{ACAD_REACTORS
330
42
102
}
330
42
100
AcDbScale
 70
     0
300
3/32" = 1'-0"
140
0.09375
141
12.0
290
     0
  0
SCALE
  5
49
102
{ACAD_REACTORS
330
42
102
}
330
42
100
AcDbScale
 70
     0
300
1/8" = 1'-0"
140
0.125
141
12.0
290
     0
  0
SCALE
  5
4A
102
{ACAD_REACTORS
330
42
102
}
330
42
100
AcDbScale
 70
     0
300
3/16" = 1'-0"
140
0.1875
141
12.0
290
     0
  0
SCALE
  5
4B
102
{ACAD_REACTORS
330
42
102
}
330
42
100
AcDbScale
 70
     0
300
1/4" = 1'-0"
140
0.25
141
12.0
290
     0
  0
SCALE
  5
4C
102
{ACAD_REACTORS
330
42
102
}
330
42
100
AcDbScale
 70
     0
300
3/8" = 1'-0"
140
0.375
141
12.0
290
     0
  0
SCALE
  5
4D
102
{ACAD_REACTORS
330
42
102
}
330
42
100
AcDbScale
 70
     0
300
1/2" = 1'-0"
140
0.5
141
12.0
290
     0
  0
SCALE
  5
4E
102
{ACAD_REACTORS
330
42
102
}
330
42
100
AcDbScale
 70
     0
300
3/4" = 1'-0"
140
0.75
141
12.0
290
     0
  0
SCALE
  5
4F
102
{ACAD_REACTORS
330
42
102
}
330
42
100
AcDbScale
 70
     0
300
1" = 1'-0"
140
1.0
141
12.0
290
     0
  0
SCALE
  5
50
102
{ACAD_REACTORS
330
42
102
}
330
42
100
AcDbScale
 70
     0
300
1-1/2" = 1'-0"
140
1.5
141
12.0
290
     0
  0
SCALE
  5
51
102
{ACAD_REACTORS
330
42
102
}
330
42
100
AcDbScale
 70
     0
300
3" = 1'-0"
140
3.0
141
12.0
290
     0
  0
SCALE
  5
52
102
{ACAD_REACTORS
330
42
102
}
330
42
100
AcDbScale
 70
     0
300
6" = 1'-0"
140
6.0
141
12.0
290
     0
  0
SCALE
  5
53
102
{ACAD_REACTORS
330
42
102
}
330
42
100
AcDbScale
 70
     0
300
1'-0" = 1'-0"
140
12.0
141
12.0
290
     0
  0
TABLESTYLE
  5
65
102
{ACAD_XDICTIONARY
360
E80
102
}
102
{ACAD_REACTORS
330
64
102
}
330
64
100
AcDbTableStyle
  3
Standard
 70
     0
 71
     0
 40
0.06
 41
0.06
280
     0
281
     0
  7
Standard
140
0.18
170
     2
 62
     0
 63
     7
283
     0
274
    -2
284
     1
 64
     0
275
    -2
285
     1
 65
     0
276
    -2
286
     1
 66
     0
277
    -2
287
     1
 67
     0
278
    -2
288
     1
 68
     0
279
    -2
289
     1
 69
     0
  7
Standard
140
0.25
170
     5
 62
     0
 63
     7
283
     0
274
    -2
284
     1
 64
     0
275
    -2
285
     1
 65
     0
276
    -2
286
     1
 66
     0
277
    -2
287
     1
 67
     0
278
    -2
288
     1
 68
     0
279
    -2
289
     1
 69
     0
  7
Standard
140
0.18
170
     5
 62
     0
 63
     7
283
     0
274
    -2
284
     1
 64
     0
275
    -2
285
     1
 65
     0
276
    -2
286
     1
 66
     0
277
    -2
287
     1
 67
     0
278
    -2
288
     1
 68
     0
279
    -2
289
     1
 69
     0
  0
VISUALSTYLE
  5
2F
102
{ACAD_XDICTIONARY
360
E95
102
}
102
{ACAD_REACTORS
330
29
102
}
330
29
100
AcDbVisualStyle
  2
2dWireframe
 70
     4
 71
     0
 72
     2
 73
     0
 90
        0
 40
-0.6
 41
-30.0
 62
     5
 63
     7
 74
     1
 91
        4
 64
     7
 65
   257
 75
     1
175
     1
 42
1.0
 92
        0
 66
   257
 43
1.0
 76
     1
 77
     6
 78
     2
 67
     7
 79
     5
170
     0
171
     0
290
     0
174
     0
 93
        1
 44
0.0
173
     0
291
     0
 45
0.0
1001
ACAD
1000
AcDbSavedByObjectVersion
1070
     0
  0
VISUALSTYLE
  5
2E
102
{ACAD_XDICTIONARY
360
E93
102
}
102
{ACAD_REACTORS
330
29
102
}
330
29
100
AcDbVisualStyle
  2
Basic
 70
     7
 71
     1
 72
     0
 73
     1
 90
        0
 40
-0.6
 41
-30.0
 62
     5
 63
     7
 74
     0
 91
        4
 64
     7
 65
   257
 75
     1
175
     1
 42
1.0
 92
        8
 66
     7
 43
1.0
 76
     1
 77
     6
 78
     2
 67
     7
 79
     5
170
     0
171
     0
290
     0
174
     0
 93
        1
 44
0.0
173
     0
291
     1
 45
0.0
1001
ACAD
1000
AcDbSavedByObjectVersion
1070
     0
  0
VISUALSTYLE
  5
35
102
{ACAD_XDICTIONARY
360
EA1
102
}
102
{ACAD_REACTORS
330
29
102
}
330
29
100
AcDbVisualStyle
  2
Brighten
 70
    12
 71
     2
 72
     2
 73
     0
 90
        0
 40
-0.6
 41
-30.0
 62
     5
 63
     7
 74
     1
 91
        4
 64
     7
 65
   257
 75
     1
175
     1
 42
1.0
 92
        8
 66
     7
 43
1.0
 76
     1
 77
     6
 78
     2
 67
     7
 79
     5
170
     0
171
     0
290
     0
174
     0
 93
        1
 44
50.0
173
     0
291
     1
 45
0.0
1001
ACAD
1000
AcDbSavedByObjectVersion
1070
     0
  0
VISUALSTYLE
  5
39
102
{ACAD_XDICTIONARY
360
EA9
102
}
102
{ACAD_REACTORS
330
29
102
}
330
29
100
AcDbVisualStyle
  2
ColorChange
 70
    16
 71
     2
 72
     2
 73
     3
 90
        0
 40
-0.6
 41
-30.0
 62
     5
 63
     8
 74
     1
 91
        4
 64
     7
 65
   257
 75
     1
175
     1
 42
1.0
 92
        8
 66
     8
 43
1.0
 76
     1
 77
     6
 78
     2
 67
     7
 79
     5
170
     0
171
     0
290
     0
174
     0
 93
        1
 44
0.0
173
     0
291
     1
 45
0.0
1001
ACAD
1000
AcDbSavedByObjectVersion
1070
     0
  0
VISUALSTYLE
  5
32
102
{ACAD_XDICTIONARY
360
E9B
102
}
102
{ACAD_REACTORS
330
29
102
}
330
29
100
AcDbVisualStyle
  2
Conceptual
 70
     9
 71
     3
 72
     2
 73
     0
 90
        0
 40
-0.6
 41
-30.0
 62
     5
 63
     7
 74
     2
 91
        2
 64
     7
 65
   257
 75
     1
175
     1
 42
179.0
 92
        8
 66
     7
 43
1.0
 76
     1
 77
     6
 78
     2
 67
     7
 79
     3
170
     0
171
     0
290
     0
174
     0
 93
        1
 44
0.0
173
     0
291
     0
 45
0.0
1001
ACAD
1000
AcDbSavedByObjectVersion
1070
     0
  0
VISUALSTYLE
  5
34
102
{ACAD_XDICTIONARY
360
E9F
102
}
102
{ACAD_REACTORS
330
29
102
}
330
29
100
AcDbVisualStyle
  2
Dim
 70
    11
 71
     2
 72
     2
 73
     0
 90
        0
 40
-0.6
 41
-30.0
 62
     5
 63
     7
 74
     1
 91
        4
 64
     7
 65
   257
 75
     1
175
     1
 42
1.0
 92
        8
 66
     7
 43
1.0
 76
     1
 77
     6
 78
     2
 67
     7
 79
     5
170
     0
171
     0
290
     0
174
     0
 93
        1
 44
-50.0
173
     0
291
     1
 45
0.0
1001
ACAD
1000
AcDbSavedByObjectVersion
1070
     0
  0
VISUALSTYLE
  5
41
102
{ACAD_XDICTIONARY
360
EB9
102
}
102
{ACAD_REACTORS
330
29
102
}
330
29
100
AcDbVisualStyle
  2
EdgeColorOff
 70
    22
 71
     2
 72
     2
 73
     0
 90
        0
 40
-0.6
 41
-30.0
 62
     5
 63
     7
 74
     1
 91
        4
 64
     7
 65
   257
 75
     1
175
     1
 42
1.0
 92
        8
 66
     7
 43
1.0
 76
     1
 77
     6
 78
     2
 67
     7
 79
     5
170
     0
171
     0
290
     0
174
     0
 93
        1
 44
0.0
173
     0
291
     1
 45
0.0
1001
ACAD
1000
AcDbSavedByObjectVersion
1070
     0
  0
VISUALSTYLE
  5
38
102
{ACAD_XDICTIONARY
360
EA7
102
}
102
{ACAD_REACTORS
330
29
102
}
330
29
100
AcDbVisualStyle
  2
Facepattern
 70
    15
 71
     2
 72
     2
 73
     0
 90
        0
 40
-0.6
 41
-30.0
 62
     5
 63
     7
 74
     1
 91
        4
 64
     7
 65
   257
 75
     1
175
     1
 42
1.0
 92
        8
 66
     7
 43
1.0
 76
     1
 77
     6
 78
     2
 67
     7
 79
     5
170
     0
171
     0
290
     0
174
     0
 93
        1
 44
0.0
173
     0
291
     1
 45
0.0
1001
ACAD
1000
AcDbSavedByObjectVersion
1070
     0
  0
VISUALSTYLE
  5
2A
102
{ACAD_XDICTIONARY
360
E8B
102
}
102
{ACAD_REACTORS
330
29
102
}
330
29
100
AcDbVisualStyle
  2
Flat
 70
     0
 71
     2
 72
     1
 73
     1
 90
        2
 40
-0.6
 41
30.0
 62
     5
 63
     7
 74
     0
 91
        0
 64
     7
 65
   257
 75
     1
175
     1
 42
1.0
 92
        8
 66
     7
 43
1.0
 76
     1
 77
     6
 78
     2
 67
     7
 79
     5
170
     0
171
     0
290
     0
174
     0
 93
       13
 44
0.0
173
     0
291
     1
 45
0.0
1001
ACAD
1000
AcDbSavedByObjectVersion
1070
     0
  0
VISUALSTYLE
  5
2B
102
{ACAD_XDICTIONARY
360
E8D
102
}
102
{ACAD_REACTORS
330
29
102
}
330
29
100
AcDbVisualStyle
  2
FlatWithEdges
 70
     1
 71
     2
 72
     1
 73
     1
 90
        2
 40
-0.6
 41
30.0
 62
     5
 63
     7
 74
     1
 91
        0
 64
     7
 65
   257
 75
     1
175
     1
 42
1.0
 92
        0
 66
   257
 43
1.0
 76
     1
 77
     6
 78
     2
 67
     7
 79
     5
170
     0
171
     0
290
     0
174
     0
 93
       13
 44
0.0
173
     0
291
     1
 45
0.0
1001
ACAD
1000
AcDbSavedByObjectVersion
1070
     0
  0
VISUALSTYLE
  5
2C
102
{ACAD_XDICTIONARY
360
E8F
102
}
102
{ACAD_REACTORS
330
29
102
}
330
29
100
AcDbVisualStyle
  2
Gouraud
 70
     2
 71
     2
 72
     2
 73
     1
 90
        2
 40
-0.6
 41
30.0
 62
     5
 63
     7
 74
     0
 91
        0
 64
     7
 65
   257
 75
     1
175
     1
 42
1.0
 92
        0
 66
     7
 43
1.0
 76
     1
 77
     6
 78
     2
 67
     7
 79
     5
170
     0
171
     0
290
     0
174
     0
 93
       13
 44
0.0
173
     0
291
     1
 45
0.0
1001
ACAD
1000
AcDbSavedByObjectVersion
1070
     0
  0
VISUALSTYLE
  5
2D
102
{ACAD_XDICTIONARY
360
E91
102
}
102
{ACAD_REACTORS
330
29
102
}
330
29
100
AcDbVisualStyle
  2
GouraudWithEdges
 70
     3
 71
     2
 72
     2
 73
     1
 90
        2
 40
-0.6
 41
30.0
 62
     5
 63
     7
 74
     1
 91
        0
 64
     7
 65
   257
 75
     1
175
     1
 42
1.0
 92
        0
 66
   257
 43
1.0
 76
     1
 77
     6
 78
     2
 67
     7
 79
     5
170
     0
171
     0
290
     0
174
     0
 93
       13
 44
0.0
173
     0
291
     1
 45
0.0
1001
ACAD
1000
AcDbSavedByObjectVersion
1070
     0
  0
VISUALSTYLE
  5
31
102
{ACAD_XDICTIONARY
360
E99
102
}
102
{ACAD_REACTORS
330
29
102
}
330
29
100
AcDbVisualStyle
  2
Hidden
 70
     6
 71
     1
 72
     2
 73
     2
 90
        0
 40
-0.6
 41
-30.0
 62
     5
 63
     7
 74
     2
 91
        2
 64
     7
 65
   257
 75
     2
175
     1
 42
40.0
 92
        0
 66
   257
 43
1.0
 76
     1
 77
     6
 78
     2
 67
     7
 79
     3
170
     0
171
     0
290
     0
174
     0
 93
        1
 44
0.0
173
     0
291
     0
 45
0.0
1001
ACAD
1000
AcDbSavedByObjectVersion
1070
     0
  0
VISUALSTYLE
  5
3F
102
{ACAD_XDICTIONARY
360
EB5
102
}
102
{ACAD_REACTORS
330
29
102
}
330
29
100
AcDbVisualStyle
  2
JitterOff
 70
    20
 71
     2
 72
     2
 73
     0
 90
        0
 40
-0.6
 41
-30.0
 62
     5
 63
     7
 74
     1
 91
        4
 64
     7
 65
   257
 75
     1
175
     1
 42
1.0
 92
       10
 66
     7
 43
1.0
 76
     1
 77
     6
 78
     2
 67
     7
 79
     5
170
     0
171
     0
290
     0
174
     0
 93
        1
 44
0.0
173
     0
291
     1
 45
0.0
1001
ACAD
1000
AcDbSavedByObjectVersion
1070
     0
  0
VISUALSTYLE
  5
37
102
{ACAD_XDICTIONARY
360
EA5
102
}
102
{ACAD_REACTORS
330
29
102
}
330
29
100
AcDbVisualStyle
  2
Linepattern
 70
    14
 71
     2
 72
     2
 73
     0
 90
        0
 40
-0.6
 41
-30.0
 62
     5
 63
     7
 74
     1
 91
        4
 64
     7
 65
   257
 75
     7
175
     7
 42
1.0
 92
        8
 66
     7
 43
1.0
 76
     1
 77
     6
 78
     2
 67
     7
 79
     5
170
     0
171
     0
290
     0
174
     0
 93
        1
 44
0.0
173
     0
291
     1
 45
0.0
1001
ACAD
1000
AcDbSavedByObjectVersion
1070
     0
  0
VISUALSTYLE
  5
40
102
{ACAD_XDICTIONARY
360
EB7
102
}
102
{ACAD_REACTORS
330
29
102
}
330
29
100
AcDbVisualStyle
  2
OverhangOff
 70
    21
 71
     2
 72
     2
 73
     0
 90
        0
 40
-0.6
 41
-30.0
 62
     5
 63
     7
 74
     1
 91
        4
 64
     7
 65
   257
 75
     1
175
     1
 42
1.0
 92
        9
 66
     7
 43
1.0
 76
     1
 77
     6
 78
     2
 67
     7
 79
     5
170
     0
171
     0
290
     0
174
     0
 93
        1
 44
0.0
173
     0
291
     1
 45
0.0
1001
ACAD
1000
AcDbSavedByObjectVersion
1070
     0
  0
VISUALSTYLE
  5
33
102
{ACAD_XDICTIONARY
360
E9D
102
}
102
{ACAD_REACTORS
330
29
102
}
330
29
100
AcDbVisualStyle
  2
Realistic
 70
     8
 71
     2
 72
     3
 73
     0
 90
        2
 40
-0.6
 41
30.0
 62
     5
 63
     7
 74
     0
 91
        0
 64
     7
 65
   257
 75
     1
175
     1
 42
1.0
 92
        8
 66
   257
 43
1.0
 76
     1
 77
     6
 78
     2
 67
     7
 79
     3
170
     0
171
     0
290
     0
174
     0
 93
       13
 44
0.0
173
     0
291
     0
 45
0.0
1001
ACAD
1000
AcDbSavedByObjectVersion
1070
     0
  0
VISUALSTYLE
  5
3E
102
{ACAD_XDICTIONARY
360
EB3
102
}
102
{ACAD_REACTORS
330
29
102
}
330
29
100
AcDbVisualStyle
  2
Shaded
 70
    27
 71
     2
 72
     2
 73
     1
 90
        2
 40
-0.6
 41
30.0
 62
     5
 63
     7
 74
     0
 91
        4
 64
     7
 65
   257
 75
     1
175
     1
 42
1.0
 92
        8
 66
   257
 43
1.0
 76
     1
 77
     6
 78
     2
 67
     8
 79
     3
170
     0
171
     0
290
     0
174
     0
 93
        5
 44
0.0
173
     0
291
     0
 45
0.0
1001
ACAD
1000
AcDbSavedByObjectVersion
1070
     0
  0
VISUALSTYLE
  5
3D
102
{ACAD_XDICTIONARY
360
EB1
102
}
102
{ACAD_REACTORS
330
29
102
}
330
29
100
AcDbVisualStyle
  2
Shaded with edges
 70
    26
 71
     2
 72
     2
 73
     1
 90
        2
 40
-0.6
 41
30.0
 62
     5
 63
     7
 74
     1
 91
       10
 64
     7
 65
   257
 75
     2
175
     1
 42
1.0
 92
        8
 66
   257
 43
1.0
 76
     1
 77
     6
 78
     2
 67
     7
 79
     3
170
     0
171
     0
290
     0
174
     0
 93
        5
 44
0.0
173
     0
291
     0
 45
0.0
1001
ACAD
1000
AcDbSavedByObjectVersion
1070
     0
  0
VISUALSTYLE
  5
3A
102
{ACAD_XDICTIONARY
360
EAB
102
}
102
{ACAD_REACTORS
330
29
102
}
330
29
100
AcDbVisualStyle
  2
Shades of Gray
 70
    23
 71
     2
 72
     2
 73
     3
 90
        0
 40
-0.6
 41
-30.0
 62
     5
 63
     7
 74
     2
 91
        2
 64
     7
 65
     7
 75
     1
175
     1
 42
40.0
 92
        8
 66
     7
 43
1.0
 76
     1
 77
     6
 78
     2
 67
     7
 79
     3
170
     0
171
     0
290
     0
174
     0
 93
        1
 44
0.0
173
     0
291
     0
 45
0.0
1001
ACAD
1000
AcDbSavedByObjectVersion
1070
     0
  0
VISUALSTYLE
  5
3B
102
{ACAD_XDICTIONARY
360
EAD
102
}
102
{ACAD_REACTORS
330
29
102
}
330
29
100
AcDbVisualStyle
  2
Sketchy
 70
    24
 71
     1
 72
     2
 73
     2
 90
        0
 40
-0.6
 41
-30.0
 62
     5
 63
     7
 74
     2
 91
        2
 64
     7
 65
     7
 75
     1
175
     1
 42
40.0
 92
       11
 66
     7
 43
1.0
 76
     1
 77
     6
 78
     2
 67
     7
 79
     6
170
     0
171
     0
290
     0
174
     0
 93
        1
 44
0.0
173
     0
291
     0
 45
0.0
1001
ACAD
1000
AcDbSavedByObjectVersion
1070
     0
  0
VISUALSTYLE
  5
36
102
{ACAD_XDICTIONARY
360
EA3
102
}
102
{ACAD_REACTORS
330
29
102
}
330
29
100
AcDbVisualStyle
  2
Thicken
 70
    13
 71
     2
 72
     2
 73
     0
 90
        0
 40
-0.6
 41
-30.0
 62
     5
 63
     7
 74
     1
 91
        4
 64
     7
 65
   257
 75
     1
175
     1
 42
1.0
 92
       12
 66
     7
 43
1.0
 76
     1
 77
     6
 78
     2
 67
     7
 79
     5
170
     0
171
     0
290
     0
174
     0
 93
        1
 44
0.0
173
     0
291
     1
 45
0.0
1001
ACAD
1000
AcDbSavedByObjectVersion
1070
     0
  0
VISUALSTYLE
  5
30
102
{ACAD_XDICTIONARY
360
E97
102
}
102
{ACAD_REACTORS
330
29
102
}
330
29
100
AcDbVisualStyle
  2
Wireframe
 70
     5
 71
     0
 72
     2
 73
     0
 90
        0
 40
-0.6
 41
-30.0
 62
     5
 63
     7
 74
     1
 91
        4
 64
     7
 65
   257
 75
     1
175
     1
 42
1.0
 92
        0
 66
   257
 43
1.0
 76
     1
 77
     6
 78
     2
 67
     7
 79
     3
170
     0
171
     0
290
     0
174
     0
 93
        1
 44
0.0
173
     0
291
     0
 45
0.0
1001
ACAD
1000
AcDbSavedByObjectVersion
1070
     0
  0
VISUALSTYLE
  5
3C
102
{ACAD_XDICTIONARY
360
EAF
102
}
102
{ACAD_REACTORS
330
29
102
}
330
29
100
AcDbVisualStyle
  2
X-Ray
 70
    25
 71
     2
 72
     2
 73
     1
 90
        1
 40
0.5
 41
-30.0
 62
     5
 63
     7
 74
     1
 91
        0
 64
     7
 65
   257
 75
     1
175
     1
 42
1.0
 92
        8
 66
     7
 43
1.0
 76
     1
 77
     6
 78
     2
 67
     7
 79
     3
170
     0
171
     0
290
     0
174
     0
 93
       13
 44
0.0
173
     0
291
     0
 45
0.0
1001
ACAD
1000
AcDbSavedByObjectVersion
1070
     0
  0
DICTIONARYVAR
  5
79
102
{ACAD_REACTORS
330
76
102
}
330
76
100
DictionaryVariables
280
     0
  1
1:1
  0
DICTIONARYVAR
  5
78
102
{ACAD_REACTORS
330
76
102
}
330
76
100
DictionaryVariables
280
     0
  1
STANDARD
  0
DICTIONARYVAR
  5
77
102
{ACAD_REACTORS
330
76
102
}
330
76
100
DictionaryVariables
280
     0
  1
STANDARD
  0
DICTIONARYVAR
  5
E7E
102
{ACAD_REACTORS
330
76
102
}
330
76
100
DictionaryVariables
280
     0
  1
1
  0
DICTIONARYVAR
  5
E7D
102
{ACAD_REACTORS
330
76
102
}
330
76
100
DictionaryVariables
280
     0
  1
1
  0
DICTIONARYVAR
  5
E7C
102
{ACAD_REACTORS
330
76
102
}
330
76
100
DictionaryVariables
280
     0
  1
0
  0
DICTIONARYVAR
  5
E79
102
{ACAD_REACTORS
330
76
102
}
330
76
100
DictionaryVariables
280
     0
  1
0
  0
DICTIONARYVAR
  5
E7A
102
{ACAD_REACTORS
330
76
102
}
330
76
100
DictionaryVariables
280
     0
  1
0
  0
DICTIONARYVAR
  5
E78
102
{ACAD_REACTORS
330
76
102
}
330
76
100
DictionaryVariables
280
     0
  1
2
  0
DICTIONARYVAR
  5
E77
102
{ACAD_REACTORS
330
76
102
}
330
76
100
DictionaryVariables
280
     0
  1
1
  0
DICTIONARYVAR
  5
E7B
102
{ACAD_REACTORS
330
76
102
}
330
76
100
DictionaryVariables
280
     0
  1
127
  0
DICTIONARYVAR
  5
E7F
102
{ACAD_REACTORS
330
76
102
}
330
76
100
DictionaryVariables
280
     0
  1
2
  0
DICTIONARY
  5
EBD
330
6B
100
AcDbDictionary
280
     1
281
     1
  3
ACAD_XREC_ROUNDTRIP
360
EBE
  0
DICTIONARY
  5
EC1
330
73
100
AcDbDictionary
280
     1
281
     1
  3
ACAD_XREC_ROUNDTRIP
360
EC2
  0
DICTIONARY
  5
EBF
330
6F
100
AcDbDictionary
280
     1
281
     1
  3
ACAD_XREC_ROUNDTRIP
360
EC0
  0
DICTIONARY
  5
1A
330
19
100
AcDbDictionary
280
     1
281
     1
  3
ACAD_XREC_ROUNDTRIP
360
E89
  3
BUMPTILE
360
1C
  3
DIFFUSETILE
360
1B
  3
OPACITYTILE
360
1F
  3
REFLECTIONTILE
360
1E
  3
REFRACTIONTILE
360
20
  3
SPECULARTILE
360
1D
  0
DICTIONARY
  5
12
330
11
100
AcDbDictionary
280
     1
281
     1
  3
ACAD_XREC_ROUNDTRIP
360
E88
  3
BUMPTILE
360
14
  3
DIFFUSETILE
360
13
  3
FBXASSET
360
109
  3
OPACITYTILE
360
17
  3
REFLECTIONTILE
360
16
  3
REFRACTIONTILE
360
18
  3
SPECULARTILE
360
15
  0
DICTIONARY
  5
22
330
21
100
AcDbDictionary
280
     1
281
     1
  3
ACAD_XREC_ROUNDTRIP
360
E8A
  3
BUMPTILE
360
24
  3
DIFFUSETILE
360
23
  3
FBXASSET
360
BA
  3
OPACITYTILE
360
27
  3
REFLECTIONTILE
360
26
  3
REFRACTIONTILE
360
28
  3
SPECULARTILE
360
25
  0
DICTIONARY
  5
E82
330
67
100
AcDbDictionary
280
     1
281
     1
  3
ACAD_XREC_ROUNDTRIP
360
E83
  0
DICTIONARY
  5
E80
330
65
100
AcDbDictionary
280
     1
281
     1
  3
ACAD_ROUNDTRIP_2008_TABLESTYLE_CELLSTYLEMAP
360
E81
  3
ACAD_XREC_ROUNDTRIP
360
EBB
  0
DICTIONARY
  5
E95
330
2F
100
AcDbDictionary
280
     1
281
     1
  3
ACAD_XREC_ROUNDTRIP
360
E96
  0
DICTIONARY
  5
E93
330
2E
100
AcDbDictionary
280
     1
281
     1
  3
ACAD_XREC_ROUNDTRIP
360
E94
  0
DICTIONARY
  5
EA1
330
35
100
AcDbDictionary
280
     1
281
     1
  3
ACAD_XREC_ROUNDTRIP
360
EA2
  0
DICTIONARY
  5
EA9
330
39
100
AcDbDictionary
280
     1
281
     1
  3
ACAD_XREC_ROUNDTRIP
360
EAA
  0
DICTIONARY
  5
E9B
330
32
100
AcDbDictionary
280
     1
281
     1
  3
ACAD_XREC_ROUNDTRIP
360
E9C
  0
DICTIONARY
  5
E9F
330
34
100
AcDbDictionary
280
     1
281
     1
  3
ACAD_XREC_ROUNDTRIP
360
EA0
  0
DICTIONARY
  5
EB9
330
41
100
AcDbDictionary
280
     1
281
     1
  3
ACAD_XREC_ROUNDTRIP
360
EBA
  0
DICTIONARY
  5
EA7
330
38
100
AcDbDictionary
280
     1
281
     1
  3
ACAD_XREC_ROUNDTRIP
360
EA8
  0
DICTIONARY
  5
E8B
330
2A
100
AcDbDictionary
280
     1
281
     1
  3
ACAD_XREC_ROUNDTRIP
360
E8C
  0
DICTIONARY
  5
E8D
330
2B
100
AcDbDictionary
280
     1
281
     1
  3
ACAD_XREC_ROUNDTRIP
360
E8E
  0
DICTIONARY
  5
E8F
330
2C
100
AcDbDictionary
280
     1
281
     1
  3
ACAD_XREC_ROUNDTRIP
360
E90
  0
DICTIONARY
  5
E91
330
2D
100
AcDbDictionary
280
     1
281
     1
  3
ACAD_XREC_ROUNDTRIP
360
E92
  0
DICTIONARY
  5
E99
330
31
100
AcDbDictionary
280
     1
281
     1
  3
ACAD_XREC_ROUNDTRIP
360
E9A
  0
DICTIONARY
  5
EB5
330
3F
100
AcDbDictionary
280
     1
281
     1
  3
ACAD_XREC_ROUNDTRIP
360
EB6
  0
DICTIONARY
  5
EA5
330
37
100
AcDbDictionary
280
     1
281
     1
  3
ACAD_XREC_ROUNDTRIP
360
EA6
  0
DICTIONARY
  5
EB7
330
40
100
AcDbDictionary
280
     1
281
     1
  3
ACAD_XREC_ROUNDTRIP
360
EB8
  0
DICTIONARY
  5
E9D
330
33
100
AcDbDictionary
280
     1
281
     1
  3
ACAD_XREC_ROUNDTRIP
360
E9E
  0
DICTIONARY
  5
EB3
330
3E
100
AcDbDictionary
280
     1
281
     1
  3
ACAD_XREC_ROUNDTRIP
360
EB4
  0
DICTIONARY
  5
EB1
330
3D
100
AcDbDictionary
280
     1
281
     1
  3
ACAD_XREC_ROUNDTRIP
360
EB2
  0
DICTIONARY
  5
EAB
330
3A
100
AcDbDictionary
280
     1
281
     1
  3
ACAD_XREC_ROUNDTRIP
360
EAC
  0
DICTIONARY
  5
EAD
330
3B
100
AcDbDictionary
280
     1
281
     1
  3
ACAD_XREC_ROUNDTRIP
360
EAE
  0
DICTIONARY
  5
EA3
330
36
100
AcDbDictionary
280
     1
281
     1
  3
ACAD_XREC_ROUNDTRIP
360
EA4
  0
DICTIONARY
  5
E97
330
30
100
AcDbDictionary
280
     1
281
     1
  3
ACAD_XREC_ROUNDTRIP
360
E98
  0
DICTIONARY
  5
EAF
330
3C
100
AcDbDictionary
280
     1
281
     1
  3
ACAD_XREC_ROUNDTRIP
360
EB0
  0
XRECORD
  5
EBE
102
{ACAD_REACTORS
330
EBD
102
}
330
EBD
100
AcDbXrecord
280
     1
102
SHADEPLOT
 70
     0
102
SHADEPLOTRESLEVEL
 70
     2
102
SHADEPLOTCUSTOMDPI
 70
   300
  0
XRECORD
  5
EC2
102
{ACAD_REACTORS
330
EC1
102
}
330
EC1
100
AcDbXrecord
280
     1
102
SHADEPLOT
 70
     0
102
SHADEPLOTRESLEVEL
 70
     2
102
SHADEPLOTCUSTOMDPI
 70
   300
  0
XRECORD
  5
EC0
102
{ACAD_REACTORS
330
EBF
102
}
330
EBF
100
AcDbXrecord
280
     1
102
SHADEPLOT
 70
     0
102
SHADEPLOTRESLEVEL
 70
     2
102
SHADEPLOTCUSTOMDPI
 70
   300
  0
XRECORD
  5
E89
102
{ACAD_REACTORS
330
1A
102
}
330
1A
100
AcDbXrecord
280
     1
102
MATERIAL
148
0.0
149
0.0
149
0.0
 93
        0
 94
      127
282
     0
 72
     0
 77
     0
171
     0
175
     0
179
     0
273
     0
  0
XRECORD
  5
1C
102
{ACAD_REACTORS
330
1A
102
}
330
1A
100
AcDbXrecord
280
     1
270
     1
271
     1
  0
XRECORD
  5
1B
102
{ACAD_REACTORS
330
1A
102
}
330
1A
100
AcDbXrecord
280
     1
270
     1
271
     1
  0
XRECORD
  5
1F
102
{ACAD_REACTORS
330
1A
102
}
330
1A
100
AcDbXrecord
280
     1
270
     1
271
     1
  0
XRECORD
  5
1E
102
{ACAD_REACTORS
330
1A
102
}
330
1A
100
AcDbXrecord
280
     1
270
     1
271
     1
  0
XRECORD
  5
20
102
{ACAD_REACTORS
330
1A
102
}
330
1A
100
AcDbXrecord
280
     1
270
     1
271
     1
  0
XRECORD
  5
1D
102
{ACAD_REACTORS
330
1A
102
}
330
1A
100
AcDbXrecord
280
     1
270
     1
271
     1
  0
XRECORD
  5
E88
102
{ACAD_REACTORS
330
12
102
}
330
12
100
AcDbXrecord
280
     1
102
MATERIAL
148
0.0
149
0.0
149
0.0
 93
        0
 94
      127
282
     0
 72
     0
 77
     0
171
     0
175
     0
179
     0
273
     0
  0
XRECORD
  5
14
102
{ACAD_REACTORS
330
12
102
}
330
12
100
AcDbXrecord
280
     1
270
     1
271
     1
  0
XRECORD
  5
13
102
{ACAD_REACTORS
330
12
102
}
330
12
100
AcDbXrecord
280
     1
270
     1
271
     1
  0
XRECORD
  5
109
102
{ACAD_REACTORS
330
12
102
}
330
12
100
AcDbXrecord
280
     1
 70
     1
 90
1959938040
 71
     1
  1
A7D1CF71-0522-4FB1-8518-31E43730E0C5
311
504B03040A0000080000187831403DEE336E79000000790000001B0000006175746F6465736B2D64657369676E2D7061636B6167652E786D6C3C3F786D6C2076657273696F6E3D22312E302220656E636F64696E673D227574662D3822203F3E3C666F726D6174733E3C666F726D61743E687474703A2F2F736368656D612E
311
6175746F6465736B2E636F6D2F64657369676E2D7061636B6167652F323030393C2F666F726D61743E3C2F666F726D6174733E504B030414000608080018783140D486FD9CA0000000F4000000130000005B436F6E74656E745F54797065735D2E786D6C7D8EC10E82300C865F65E91D8A1E8C310C0EEA1BF002731658846E
311
D98AC1B77784ABF1D8FE5FBFBF75BBCE937A534CCEB38643598122B6FEE978D0B0485F9C41B54DDD7D022595594E1A469170414C76A4D9A4D207E29CF43ECE46F218070CC6BECC4078ACAA135ACF422C856C0E68EA1BF5669944DDD7BCDE7B1F8E415D77AECB980613C2E4AC91FC167A2B244592486606FC29C8FD7F045B9A
311
EF7053A7E60B504B030414000608080018783140B685D5B7E80000007C01000008000000636F72652E786D6C8D90516EC3201044AF82F61F9B751DDB8D309123B727E8051010172506CB40D5E317278ED4FEF56B47C33C7635FCF43DDFC8975983F5AE072C1810E394D7D64D3DA478A11D9093E0ABF7F1570C8893B3E961B3
311
41F069F569D92DE55D342E66D7796D76538660221075CBA287A03ECD2C0B99624E846BB14875959329F0A9329C92D5E4B1C4EAFC9FBD58B38268467CAF866AA02D1E5A5A0FD8D1A119CF940D23BE36E7B6ADF18D971B2C78B4F373BF5A8D8C4683A818569421C5F6030F47C68E75475993052FB7F81F282DFA9F50B22EBE54
311
FBB90F2C80C07CC8FD41F072EB228F7B51796EBD891F504B03041400060808001878314055019EA25F0000007C00000007000000636E782E786D6C4DCB3B0E80201045D1AD90E915ED2CF8AC45050C11660C8261F98AB1B07AC9C97D42D718D865D3E909258CFD00CCE24AC6E326A164D74DC0B4128928FF326038472BA131
311
28B1252AC747C6BAB984FC68F0B87FE8960A5C09FE86CFB69FBA01504B03041400060808001878314090C189B165010000020300000C0000006662782F636F72652E786D6C8D52ED8E8320107C15C27F443CABBD06696C7AF704F70214A967AA60104C1FFFD68FA6D74BD35C4C90CCECECCE8EF2FDB56BD1A8DDD058536016
311
C51869A36CD598BAC0C19FC916A3BDE0CE5AFFAB0C23233B5DE009C682D7CE867E8594355E1B0FA8B1955E41390CDA63A45AB8147850DFBA93910C1E2A864BD44B7591B58E580434D4093E780706D032643AB1389FAE9C2EB8E02134D5CA36154C6BCE8D76586447F69994494972B6C9495AB22D29B3E381C4E591BD67873C
311
4FD907A7935870DF743777CA69E975854512B384C48CB0FC8B6D7671BC4BB724CEE0C2E954FE200A7DF54F51688C7F4B56BB8B6CC082819199F8B32D44E4D12047F04305A75388F09A137E0C1A028190BD3CB5B73D2E008D5A79EB52602A1BEED428DBA0616A8CE687D38585CE7303D8EC699FE4459FD73DE0034A538335E9
311
E17A0A7E9ACE97A96B14BD7664F45764ACEB647B37B758BC9FF7414FE5CAB6D6FD474DD755E91A269DFE5EF103504B030414000608080018783140A37BCFDF7E0000009D0000000B0000006662782F636E782E786D6C4DCCD10E82201886E15B61FF39C91F66BA012E83EEC3253A964223685D7EDA3CE8E8DB9E7D7B45FB59
311
66F2B6F1E58297800706C4FA7B189C9F24E434D21A48AB440C21FDDD80F87EB112360625A618F273A7C18E7D9ED3AAB3F38F1D4D8DAC63174D39D78C9657E4B43957486F27533506F1D8E9120A258A5F69DD2DACBE504B0304140006080800187831409FCFCB0C2A01000014020000310000006662782F4538313042304144
311
2D333344302D344331332D393736312D4635453639453131324244342F636F72652E786D6C8D51CB6EC32010FC15C4293D60831F34893051D3A45FD01F20405294182C1E553EBF503B527BCB8545B333B3A35DB6BB8F37F0AD7D30CE0E905418026DA553C65E0698E219AD21D871E69D8B7F68105831EA0116187276F12E4D
311
0B249D8DDAC68C5AA7F4028A10748440DEF26780417EE9515422C5CC08D76A12F22A2EBA22556E671E6721FA1C00CC43CA0BF9714DF01EBF1D50DB1E30EADE498B36AF94A08FFE483747429AFDA163F52CE42C25A316B951398E391BED9F352962CEA2191FF1A5D7226A05798349833041E4F593F45B8CB7DD1A619A3FAC2E
311
F47FA234A92745C9D8D8364BDC59162027AC9E1B9C29974EB747187D9F9C8FA0CC5B052D5F20C7156E70BFC194B27AA6E605644FDA2D9E213A9F17BCBA9E329BF4B331ED38ABCB8D72F93D60AEE59EFC07504B0304140006080800187831400E01615A4C01000033030000300000006662782F45383130423041442D333344
311
302D344331332D393736312D4635453639453131324244342F636E782E786D6CD593CD6E022114855F85B09F1FECD41AC360D2459FA08B6E11AE4A6560C24F53DFBE1745EBC64597DD1072EEC7393727337CF33D59F205211AEF46CADA9E1270CA6BE3F623CD69D7AC28D9081EBC4F7718254E4E30D22253C1F7C1E7B94A1A
311
7632DB84AA35EE58C500D1E7A020A25C5E12EB95B46800AEC928C2B405AD41931B88B71D045C05C5ED89A40390B7D70FE2B79FA052E45D7111BC2B198297B326DD4194282B631C69540798642B73F21AE2B1D532C996B5D7AC073BFD3A91F2E01A998321257CA4E5A4A26ED4628FBCC3A1E031056CAF42E9340315729EAD51
311
3261C9DD19BC308267E3D272A8ACC1E203D26CF9340C68769E099ECC0495500164024DC5A2678BA6670D7B7967CFEBBE5F0FABA65FE2857705177CEBBDAD8FD006829F89F22E814B5430DE95F1A3FA2A47B409D8B50FA73F148905D4D44B3B378FFFDC4F77FEBEB1AE807F81F801504B030414000608080018783140A9AE3C
311
EF9B0500007B100000340000006662782F45383130423041442D333344302D344331332D393736312D4635453639453131324244342F6F626A656374732E786D6CAD575D739B3814FD2B0CFB0C18DB69931D4227B1938CA79BB6534F3BFB90198F0041B4111F2389D4E9AFDF2310185C3BF1EEF4059090AEEE3DF7DC0F051F
311
B639B79EA990AC2C2E6DDF9DD8162DE23261457669D72A75CE6DEB431888B2548365B655909C5EDA7ADA0E834C947565A6129A929AABBDD9DBEBBF2D19D382DA56CC899497B68C1F694E5C52AB32A1F2C94D88226E966E5DDF6D178EC56682548F7B422B2268A1A029E60B48B15AA5FCF170627B61E0E9FF61A09F66D5ECF8
311
2AAFB1677C3E2BA42245FCCB617B6266FE7C79333DBB70CEE6F399337F37F59DEBDBEBA5E3BF9F4D16EF168B8BAB9B0B1C2C958024A389A0A91DDE011BC1E2C06B7F8541CD0A359B9A25C6419EA0CF4C7BCA0EA7961F78ED9ADE3A63E421F5E3B22868DC6005341AFB8CE88456B448E0734625341B2034190F7D8DE3E0F74C
311
8FCD91C3E9D31018EE1808EA74EFDE434DCBE81F98204F6190905433B0C5D218DA7275B243382A4B6EFE3169E54451C108B7388B04112F7688A57A49188CC468260B1D0DDA023B8417DADF63BA208CDEE6F9212DD39A734D633B6CA2608358A14A369AB19F54ECB41F22039DE02BCD867363907AA9A81D5EB41439DF63530B
311
A4957292C1E53053EF9C4DF70C5DE8385D2DEDF0E36DB45DEBD83D7C7825CA8A0AA5E9036A758EEBDE1A25A3937F92E7F4067B4F951D285F81FC2784FA4E15F84DB0ED7C3B37A728410A999622876FAC89E54CF098587EF3D4DF83AFC0EB378FBD770C4F385B43F51BF01CDB30F4E500CE307806E14B3133A6AD63C29136EE
311
59018034492C5E620A79388DB676B842964356C62EC2431F2643DD677C069E118344D19C347817C0722F2D9E90A0015BC348A8D192DF28B8F3D32FE9AC39D82C3B06EFD96FA1EBD572FD715D8B94C4F4DEC4F492A6AC600A256EC79BA14223CC47163DD1971FA54860E8AF78AF8778E7E62809B435E61AF8ACCBE97AB03B79
311
74408C7D59A9D34DF0C609304217D681FC7B2663CA3929685977E7BE5A3F50365A8875B06B26F705665758409AF6CF5E0CA248C782551AC4BE5AF549D33D62DDB7D52730D20EAF5FFE222FC3EC15ED726F5CF2526CA2974D9B960E42FD7DCC6D8381A7A580EE4D9074F16F40DF242C4D6B89247800D7EFABC5D0773A2D2045
311
7452DB6899C37E04171186B49D5C546B415049CB62C350371177070F18CA07A486018DC0631A4BCAD30DE3BCCE3729E3A8469B9C5447E0F8FFFA47755E6D485ED6853A227BA43AAAC358F7117BE50FA2E2473B5C376FE71AB937A1C91132E85A7200AB916BAFDE2FFDC5ED7BDF999C4DA7CEFCF6DA77CECFFC7367E6DFCC67
311
E8A16E260B6409A351D3448541576A86110D2FA1B405B560C67DDF56881F9304ECF09E28F970D78667F7FEB672D10B071EF6A05EF61BAF9267F47D34795BC06EE54141ABBCE234A785223A86EEF507FF4AD0678C9469E75739C9E809523EDFADF78CC1CC09FBBEE878A73FF6F69AD9850EC88342D4639D4705617C6F63D622
311
E9564566F0EB7CD2BFDB42D30DF5C838069DA92C394B9007132BA3654E15B2E1094548E454827AC39E3E31778F13763FB71DA22211A79D268F044D3297080B90BC8ED578DEFA034D9DEEAB2E6D945BF7090F93296C0B9CB9B4D1A42B1653E94628D0BA156A84834BC34E1E9C2545C6D16BB79BFA71BF4B63332AC9FD9253FA
311
2763579BC28D01482315FA063444F04EA34C1834BA99FFF17F32BC53C7220A9F51AD7A5B7613BD31CD3108D1D628735B4013F3648EDE22505F37CB779B3523444EBA65BD4A8256AAA388C89A9B82D6CFA874B5FCE2A143B1569FAD8AD7197C79BA24475090B9D6010E16811546664514A8BAF8F3E18B287193CDAD5B060A3C
311
2CCA3C2F0B33B83237616BFD887B6DF280B440F585443E4C27FEF4A1B90898BBC9262292BA24914F98804F05EB211E391E8C6C6F8BA840ED8F7E9DA79DB0C7CDD5D232256D0EA18628C3ACAA6141CB51500BD1A32F933A56860BAA57EF025EB3142A0874F1E1BF504B03041400060800001878314000000000000000000000
311
0000350000006662782F45383130423041442D333344302D344331332D393736312D4635453639453131324244342F76657274696365732E62696E504B030414000608080018783140F270F1330600000004000000360000006662782F45383130423041442D333344302D344331332D393736312D46354536394531313242
311
44342F747269616E676C65732E62696E636660600000504B030414000608000018783140000000000000000000000000370000006662782F45383130423041442D333344302D344331332D393736312D4635453639453131324244342F617474726962757465732E62696E504B030414000608080018783140D5987DFC8F00
311
000041010000360000006662782F45383130423041442D333344302D344331332D393736312D4635453639453131324244342F6469726563746F72792E786D6C858F410EC2201045AF4266AF15DDB800BA74E7C21B903225242D6328188F2FA5C4183471359997F9FF81E89FF3C41E1816475E02DF1F80A11FC8386F25A438
311
EECEC07A250251FC3803E6F58C12560C4AD840E95E91C151A72936F496F35732D860FE635F62C8F2DA16B505C545B74125BAA2FA9E05D7CC053D063734D5C7665FD55B6B8D15D5E9BFEAFD8490FFA45E504B0304140006080800187831400B4CB676FB000000A00100003B0000006662782F45383130423041442D33334430
311
2D344331332D393736312D4635453639453131324244342F7265736F75726365732F636F72652E786D6C8D504B6E833010BD8A357B834D0924917144447B825EC032136A25D8C89FAAC7AF09546A77DDCC8CDE47F3F4C4E56B7E904FF4C138DB012F1810B4DA8DC64E1DA478A347201729BC73F1970C88553376B0C220C5E4
311
5D5A76483B1BD1C68C5A37E20EAA103002D18F7C7410F407CEAA50296645B8178BD2773561C18B4C679D1421FA1C806C4FD609D26370C96B0CA2DC58295232E3AE3163FE696E063DC866E06F555F9D68CB0F2DAD7B7EA47D335C29EB077E6AAE6D5BF35751AE6629A2997F326A8F2AE208B262BCA28C53DEBEF3C399B1737D
311
A4ACC9872857F91F535AC67F9A92B1F1A5DAE36EB60092E7204F428A72ED2BAF679979AFDDCA6F504B010214000A0000080000187831403DEE336E79000000790000001B00000000000000000000000000000000006175746F6465736B2D64657369676E2D7061636B6167652E786D6C504B01021400140006080800187831
311
40D486FD9CA0000000F40000001300000000000000000000000000B20000005B436F6E74656E745F54797065735D2E786D6C504B0102140014000608080018783140B685D5B7E80000007C010000080000000000000000000000000083010000636F72652E786D6C504B010214001400060808001878314055019EA25F0000
311
007C000000070000000000000000000000000091020000636E782E786D6C504B010214001400060808001878314090C189B165010000020300000C00000000000000000000000000150300006662782F636F72652E786D6C504B0102140014000608080018783140A37BCFDF7E0000009D0000000B00000000000000000000
311
000000A40400006662782F636E782E786D6C504B01021400140006080800187831409FCFCB0C2A0100001402000031000000000000000000000000004B0500006662782F45383130423041442D333344302D344331332D393736312D4635453639453131324244342F636F72652E786D6C504B010214001400060808001878
311
31400E01615A4C010000330300003000000000000000000000000000C40600006662782F45383130423041442D333344302D344331332D393736312D4635453639453131324244342F636E782E786D6C504B0102140014000608080018783140A9AE3CEF9B0500007B10000034000000000000000000000000005E08000066
311
62782F45383130423041442D333344302D344331332D393736312D4635453639453131324244342F6F626A656374732E786D6C504B010214001400060800001878314000000000000000000000000035000000000000000000000000004B0E00006662782F45383130423041442D333344302D344331332D393736312D4635
311
453639453131324244342F76657274696365732E62696E504B0102140014000608080018783140F270F133060000000400000036000000000000000000000000009E0E00006662782F45383130423041442D333344302D344331332D393736312D4635453639453131324244342F747269616E676C65732E62696E504B0102
311
1400140006080000187831400000000000000000000000003700000000000000000000000000F80E00006662782F45383130423041442D333344302D344331332D393736312D4635453639453131324244342F617474726962757465732E62696E504B0102140014000608080018783140D5987DFC8F000000410100003600
311
0000000000000000000000004D0F00006662782F45383130423041442D333344302D344331332D393736312D4635453639453131324244342F6469726563746F72792E786D6C504B01021400140006080800187831400B4CB676FB000000A00100003B00000000000000000000000000301000006662782F45383130423041
311
442D333344302D344331332D393736312D4635453639453131324244342F7265736F75726365732F636F72652E786D6C504B0506000000000E000E0080040000841100000000
310
504B03040A0000080000187831403DEE336E79000000790000001B0000006175746F6465736B2D64657369676E2D7061636B6167652E786D6C3C3F786D6C2076657273696F6E3D22312E302220656E636F64696E673D227574662D3822203F3E3C666F726D6174733E3C666F726D61743E687474703A2F2F736368656D612E
310
6175746F6465736B2E636F6D2F64657369676E2D7061636B6167652F323030393C2F666F726D61743E3C2F666F726D6174733E504B030414000608080018783140D486FD9CA0000000F4000000130000005B436F6E74656E745F54797065735D2E786D6C7D8EC10E82300C865F65E91D8A1E8C310C0EEA1BF002731658846E
310
D98AC1B77784ABF1D8FE5FBFBF75BBCE937A534CCEB38643598122B6FEE978D0B0485F9C41B54DDD7D022595594E1A469170414C76A4D9A4D207E29CF43ECE46F218070CC6BECC4078ACAA135ACF422C856C0E68EA1BF5669944DDD7BCDE7B1F8E415D77AECB980613C2E4AC91FC167A2B244592486606FC29C8FD7F045B9A
310
EF7053A7E60B504B030414000608080018783140AC7EF3B6E80000007C01000008000000636F72652E786D6C8D90516EC3201044AF82F61F1B5C4CDD0813B5497C825E0001715062B00C543D7E71E248ED5FBF7634CC635723F6DFD30D7DD925BAE07BA0150164BD0EC6F9B1879CCEB803B497620921FD8A01F26AB23DAC36
310
48312E21CF9BA5834FD6A7E2FA60EC66AA186D02A46F45F410F5C54EAA52399544BC56B3D25735DA8A3E55817376063D963853FE73676717908CF3F6443F3ADCB1816136341CBF1FDA033E324E19E3C7E144DF44BDC25224373DF7EBC5AA640DC886D006138AE9EB276D7784EC5887092F42D46BFC0F9467F34F283B9F5E9A
310
EDDC071641D272C8FD418A7AEDA28C7B5165AEBDC91F504B03041400060808001878314055019EA25F0000007C00000007000000636E782E786D6C4DCB3B0E80201045D1AD90E915ED2CF8AC45050C11660C8261F98AB1B07AC9C97D42D718D865D3E909258CFD00CCE24AC6E326A164D74DC0B4128928FF326038472BA131
310
28B1252AC747C6BAB984FC68F0B87FE8960A5C09FE86CFB69FBA01504B030414000608080018783140E4C235F965010000020300000C0000006662782F636F72652E786D6C8D525B6E833010BC8AE57F634C1D4A23E3A8CDE304BD80030E45011B191BE5F85D1E519A2A8A222463CDECECCE0E88CDA56DD0A05D5F5B936316
310
C5186953D8B236558E833F910CA38D14CE5AFFA70C23A35A9DE311C65254CE866E810A6BBC361E50634BBD80AAEFB5C7A868E092E3BEF8D1AD8A54F050D19FA34E156755E9884540439D14BD776000CD43C613CBD3F122E88C4B11425D2E6C5DC2B4FA546B87254FD3D59E7D6524E3074EF82149C9E776B5253B9E32CED3DD
310
61CF3E041DC552F8BABDBA2B9C565E975826314B48CC087BFF66AB751CAF7946E2142E828EE577A2D0952F8A426DFC5BB2D89D653D960C8C4CC4BF6D21228F7A35801F2A051D4384D794F07DD0100884ECD5B1B9EE710668D085B78E0353DA70A306D5040D5363343D82CE2C749E1AC0660FFB244FFA3CEF011F50990AAC29
310
0FD763F0E374314F5DA2E8B42383BF20635DAB9A9BB9D9E2EDBC0D7A282F6C63DD2B6ABAAC4A9730E9F8F7CA5F504B030414000608080018783140041423D77E0000009D0000000B0000006662782F636E782E786D6C4DCCDF0A83201C86E15B91DFB9CBB6FC076AB8D8EE239645643A9C8E5DFE6A74B0A30F1E3E5ED57E56
310
8FDE2EBDE61834D42702C885471CE630692879C402506B548A31FFDD00857E751A7606A3A614CBF3A0C18D7DF179533F87E5C0EB8D722618C79653869B8BB8634BCF04DB4ED6B293A42192416554F52B6DBB87CD17504B030414000608080018783140F9D03E9A2B01000014020000310000006662782F4245353736383637
310
2D413735362D343338462D413532302D4143393139433930343039362F636F72652E786D6C8D51CB6E833010FC15E4537A30D8040C44C6511AB55FD01F20C649AC041BF951E5F3BB2E446A6FB978ADD999D9D12EDF3FA67BF6AD9CD7D6F488E60465CA483B6A73E9510C67DCA26C2FB8B336FCA1A1CC0C93EA518291E01767
310
E3BC42D29AA04C00D4D851ADE0E0BD0A289377F8F4C8CBAB9A867C880118FE96CF83BC0D1795D31CDAC013DC070701B265487A9178FFA81BD6B2061F9A9AE16ADB7EE2435D127C3876B43B76A4221DE3C522143C463DAE723D421C7DD6CABD6A92C482073D3DE34BA786A046244A424B4C28A6CD17AD7784ECAA1613061F5E
310
24FA3F519CC71745519BB02DD7B88BCC234179B134041F6D3CDD9F61D463B62E6469DEC62BF98604C94949DA92B62059A8B000F064D5EAE98375B0E0CDED04EC2DB09231AB042FD28DA0FC1E106ABAA7F801504B03041400060808001878314068A6AE4D5401000033030000300000006662782F42453537363836372D4137
310
35362D343338462D413532302D4143393139433930343039362F636E782E786D6CBD93CD6EC32010845F0571F75FE2BA568489D4439FA0875E316C121A0C16E0AA79FB2E094973C9A152D50B42B3C3CCEA93CDB65F93219FE0837676A04D595302563AA5ED7EA04BDC153D255BCEBC73F1CE468915130C34C994B3BD77CB9C
310
25053BB19888AAD1F698450FC12D5E424039BD24C6496130006CB1A008D3084A81223723DE76E0711514C713890720AF2FEFC48D1F206360554AE1AC4A1D9CA53337DD992891468430D0200F3089522CD12908C7528928CAA6BC763DD8E92789A407D7CAC56B92CA079A4ECAF346257264150E390BD123BD6C8AA7192817F3
310
6CB41411215767E3C5C3D9A26DECDAECD508DEA37BBDEAFA1EC3CE33CEA29E203BA407114151BEAA9B55513745F3FCD63C6DEA7AD3F645DDE18555C9CED9E89CC98F3006BC9B897436828D9437AC4AE347F8B28F28ED91B5F3A75F804400B9F542E796F1977C9A6EDDB6FFC8A73A7FDF88CBE35FC0BF01504B030414000608
310
0800187831403E1FD29059070000941B0000340000006662782F42453537363836372D413735362D343338462D413532302D4143393139433930343039362F6F626A656374732E786D6CED59DD739B3810FF5718EED9D8D84E9BDC103A8993743CBDB49DFADAB907CF3032C8441721184924F1FDF5B7FA00033109BEE6DEFA
310
6003425AEDFEF6534BF0E129A3CE03E682E4ECDCF5BD89EB6016E70961E9B95BCAEDE8D4753E8401CF73D998E63A0C65F8DC55C36E18A43C2F0B3B94E02D2AA9EC8CDE5CFEE5881833EC3A3145429CBB22BEC319F25029F3048B7B2F411279E9F6C9F33D33B14D36E5A8B8EB102D10C74C02A730CE808A6398F2DB8F13771C
310
0663F53E0CD4BF9D351B346BDE3F6BACA56E7349989088C5CF58EA90990D6269E6CFAFAEA72767A393F97C369ABF9BFAA3CB9BCBAB91FF7E3659BC5B2CCE2EAECF80BD4D9E532B53820BCC12D0DFCE0DFD60ACDED4A25B040E711DE78CE15803095069B1BA040916B05503BE49FBD15712355E6B091BCF73F5DEB2D0189EB5
310
A9F4CD1A06448B2E0862B7AB24AEAE4DF9F2CDDF20B81862945C6009DC0AC941BB161E0E5EE18693606C46C360B3D705114E8624E6045187920D471C940253D59430300B2C19E51C1C48394A02AD39F3BA6D5BE099AFBBCE212EB725A5CA33DC503B5604EE87A5D09C917F30DF73DF44067802694BC2E4A9E552EE0AEC8667
310
C1580F8681BACCA6F6A501D2D952940A8D8879DB1174A15C7F79E5869F6E364F2B150E0E6F5EF0BCC05C2AA3537AD47C8121DBAB42C96EEB0FD29C5A00C21850EDCA3D28DF00F9CF103DF6AC80DE38799A3FCDED5CC91113DB9C67A01B67E28C26F037717CFDAFEE1B77C1B85EDCD65E1F9EE0A60AAAD39FC7B32D83C6CAF2
310
DF80330C1EC0E0733EB3AF5631A260CFB7840140CA481C9AC31084F6EDE6C90D97103821D0C32A44431F4406761FE036185B327BAD54EE65BD8E01A2768FD91025016CDA22818D1E3D7D84ECC149BC575353C43E784FDEC45C2FAE569F5625DFA218DF5A9FBEC25BC28884AC7998A116E62D89EEF1EE31E70908FA1CEF5513
310
EFCC6E25006D85B9023EAD40500FFB9D5B1BC4B02ECD55B8095ED9018450B9BA41FF968818538A18CECB6ADF3ABA2943AD3DDED60C6E383510CFA61D13E6F881A8AA029C663FA3C528E4FD98934281E8861F8D6475D0F47AA4FBBEFC0C1659CFEF99B564107A19A27FEAA0750087966557485B206A8137FB701EE734E7D166
310
179948E7422D016CB4BDE5478B28C47AA32445053C48FB5D155252236D9490EDB61410570FB0F863B9689AC3C49BF9274EF3BFE38C7388B6E0BB885BBFEBEC11910CA538DAA2A46FBBE66E356DA149F690E6784B412EF240E42E42329A24383D069AA3889FBD29F594E642108605E4AB83E037D1987810488C362B9695563B
310
4013116558227A0C028A4C0FB83AEDE81A3786D2E1751E6BEB7D49634DA2FF93457004B564CE2202A528E4905719F7BD1388216D740DCA1D7CC1DA2ADA5A0C5A420911EFA2474CD23B790CEA867C0FEE311C494A19E5058AC1AC07907DE62B4AA91DDE3728BE57F9238A4BFA56062230DD4684D2328BE047189C3C86B8761D
310
985E44A141DCC43E893328CA902CF9904DDE9D4C9EED636A866E086C6CB42514C27694A1A207F55640D4F58853836FA9F7287553664584B2BC64830CC59B75BDC992EFAA55911DC8AF2A15A16CAC085B82614098ACB36A15B3C1D475600537D2816A17099415D49CC25E493C7EED4D9A72EF06DCFAE9DB6E9041E1D7A3BD66
310
449D5730581E5B8581784432BE73C395BE8E2EA1FE4E70B24FF555ADD9AC00013115C94B4EAC8ABE2FA1BCB1359A1BDE2229D61F4DD6ADAEDF971E743F8231AC81DAA55EB85440679849A42A935B7543BF2108C12D1A667CA972EA31542E9244578D88DE903E75B6CA88D6A619F18A3BCCF20C7E6C4D584CCB04AF5122EEA3
310
5B49A31551AC5B29BD8C5418BF28E0978FAB0E3C303240A4AFAAC0C38F9DB57674A1CAA58344E45D996D182210045BA2A546375EC152AB914ACBF5559D29A0EE0203B32A9EFF3A5934DB11BF4E16A9358C9F3A595CEEFE40BB665FA491CE6365D7471D03EAFCA4A8BCC53140B71D6AAA751631C9DCCA6F9D2982A05845F9C1
310
D55815340CC13E8EFF73D6EECB8266BB0EFFC7656DFF59C5715456694D565DAA0395EBB299C32EDE5FF98B9BF7FE6872329D8EE63797FEE8F4C43F1DCDFCEBF90C9AB4D793C5FED8A01D350CEA60A673173C9BA0560DAB278B017465454E4902A7F9C44931C47C0967FA01ED739E6101C9B3D9EC4E6C537EC0EA07D3E79468
310
4371C5C91D8206311590D601A33296ED71E737684D4A38689FBBD034F2EEE1CF5AA5EB40E63977A15520498C85B78136936AE869E2907275EEB7C4001FC4529512CDA2FAB95EA5B06985FF7ACA903460E56AF530A0702BA0FBD5EA5068DE2C4FF1518257EC3848C2EDA69450AD1959F603B5307A9BBDFA8D6C94B07BBBF513
310
B8EECB62F99E9ED34264D02783178DC0501D49C453DDEF568C59962EAEBE8EA1CFE62CBF38052D53D0E5704A238EC1984B555081158155589A059260AA8BDFD75F790E9F7832475745EB459E6539B30F17701E4BE01391B3BA830F3EC91ACA06ACDAEA623D9DF8D3B56E67DB0E7BB441027BAA1E8281AA8C5022748C0D2CF2
310
596BCA362EC74A099DE9CB2BC7864FF0676341CFBABBE6F39603DEA33EA4285FD11E5EC9F962477BACA7823570E84587FF02504B030414000608000018783140000000000000000000000000350000006662782F42453537363836372D413735362D343338462D413532302D4143393139433930343039362F766572746963
310
65732E62696E504B030414000608080018783140F270F1330600000004000000360000006662782F42453537363836372D413735362D343338462D413532302D4143393139433930343039362F747269616E676C65732E62696E636660600000504B0304140006080000187831400000000000000000000000003700000066
310
62782F42453537363836372D413735362D343338462D413532302D4143393139433930343039362F617474726962757465732E62696E504B030414000608080018783140D5987DFC8F00000041010000360000006662782F42453537363836372D413735362D343338462D413532302D4143393139433930343039362F6469
310
726563746F72792E786D6C858F410EC2201045AF4266AF15DDB800BA74E7C21B903225242D6328188F2FA5C4183471359997F9FF81E89FF3C41E1816475E02DF1F80A11FC8386F25A438EECEC07A250251FC3803E6F58C12560C4AD840E95E91C151A72936F496F35732D860FE635F62C8F2DA16B505C545B74125BAA2FA9E
310
05D7CC053D063734D5C7665FD55B6B8D15D5E9BFEAFD8490FFA45E504B0304140006080800187831405C1F67C6FC000000A00100003B0000006662782F42453537363836372D413735362D343338462D413532302D4143393139433930343039362F7265736F75726365732F636F72652E786D6C8D504B6E833010BD0A9ABD
310
0153E3A49171D426E104BD806526C44AB0913F558F5F13A8D4EEBA9919BD8FE6E989E3D7F4283ED107E36C07B4ACA140ABDD60ECD8418A57B287E22885772EFE924161D5841D2C3048317A97E60DD2CE46B431A3D60DB8812A048C50E8473E3A08FA86932A558A5911EEE5ACF45D8D58D232D3592745883E0728D627CB04E9
310
31B8E4350651ADAC14299961D39821FF3457831E24E3BCBDD0F71DD9B39E11D6379CBC9DDA1339334E19E3E7FE425F45B598A58866FAC9A83DAA8803C8A6A60DA929A1BB0FDA1EEAFAC0F6A4E6F910D522FF634AF3F04F533236BE345BDCD51640D21CE44948512D7DE5F52C33EFA55BF90D504B010214000A000008000018
310
7831403DEE336E79000000790000001B00000000000000000000000000000000006175746F6465736B2D64657369676E2D7061636B6167652E786D6C504B0102140014000608080018783140D486FD9CA0000000F40000001300000000000000000000000000B20000005B436F6E74656E745F54797065735D2E786D6C504B
310
0102140014000608080018783140AC7EF3B6E80000007C010000080000000000000000000000000083010000636F72652E786D6C504B010214001400060808001878314055019EA25F0000007C000000070000000000000000000000000091020000636E782E786D6C504B0102140014000608080018783140E4C235F96501
310
0000020300000C00000000000000000000000000150300006662782F636F72652E786D6C504B0102140014000608080018783140041423D77E0000009D0000000B00000000000000000000000000A40400006662782F636E782E786D6C504B0102140014000608080018783140F9D03E9A2B01000014020000310000000000
310
00000000000000004B0500006662782F42453537363836372D413735362D343338462D413532302D4143393139433930343039362F636F72652E786D6C504B010214001400060808001878314068A6AE4D54010000330300003000000000000000000000000000C50600006662782F42453537363836372D413735362D3433
310
38462D413532302D4143393139433930343039362F636E782E786D6C504B01021400140006080800187831403E1FD29059070000941B00003400000000000000000000000000670800006662782F42453537363836372D413735362D343338462D413532302D4143393139433930343039362F6F626A656374732E786D6C50
310
4B01021400140006080000187831400000000000000000000000003500000000000000000000000000121000006662782F42453537363836372D413735362D343338462D413532302D4143393139433930343039362F76657274696365732E62696E504B0102140014000608080018783140F270F133060000000400000036
310
00000000000000000000000000651000006662782F42453537363836372D413735362D343338462D413532302D4143393139433930343039362F747269616E676C65732E62696E504B01021400140006080000187831400000000000000000000000003700000000000000000000000000BF1000006662782F424535373638
310
36372D413735362D343338462D413532302D4143393139433930343039362F617474726962757465732E62696E504B0102140014000608080018783140D5987DFC8F000000410100003600000000000000000000000000141100006662782F42453537363836372D413735362D343338462D413532302D4143393139433930
310
343039362F6469726563746F72792E786D6C504B01021400140006080800187831405C1F67C6FC000000A00100003B00000000000000000000000000F71100006662782F42453537363836372D413735362D343338462D413532302D4143393139433930343039362F7265736F75726365732F636F72652E786D6C504B0506
310
000000000E000E00800400004C1300000000
  0
XRECORD
  5
17
102
{ACAD_REACTORS
330
12
102
}
330
12
100
AcDbXrecord
280
     1
270
     1
271
     1
  0
XRECORD
  5
16
102
{ACAD_REACTORS
330
12
102
}
330
12
100
AcDbXrecord
280
     1
270
     1
271
     1
  0
XRECORD
  5
18
102
{ACAD_REACTORS
330
12
102
}
330
12
100
AcDbXrecord
280
     1
270
     1
271
     1
  0
XRECORD
  5
15
102
{ACAD_REACTORS
330
12
102
}
330
12
100
AcDbXrecord
280
     1
270
     1
271
     1
  0
XRECORD
  5
E8A
102
{ACAD_REACTORS
330
22
102
}
330
22
100
AcDbXrecord
280
     1
102
MATERIAL
148
0.0
149
0.0
149
0.0
 93
        0
 94
      127
282
     0
 72
     0
 77
     0
171
     0
175
     0
179
     0
273
     0
  0
XRECORD
  5
24
102
{ACAD_REACTORS
330
22
102
}
330
22
100
AcDbXrecord
280
     1
270
     1
271
     1
  0
XRECORD
  5
23
102
{ACAD_REACTORS
330
22
102
}
330
22
100
AcDbXrecord
280
     1
270
     1
271
     1
  0
XRECORD
  5
BA
102
{ACAD_REACTORS
330
22
102
}
330
22
100
AcDbXrecord
280
     1
 70
     1
 90
1959938040
 71
     1
  1
9294AFA6-C526-478E-8068-74F00F456D43
311
504B03040A0000080000187831403DEE336E79000000790000001B0000006175746F6465736B2D64657369676E2D7061636B6167652E786D6C3C3F786D6C2076657273696F6E3D22312E302220656E636F64696E673D227574662D3822203F3E3C666F726D6174733E3C666F726D61743E687474703A2F2F736368656D612E
311
6175746F6465736B2E636F6D2F64657369676E2D7061636B6167652F323030393C2F666F726D61743E3C2F666F726D6174733E504B030414000608080018783140D486FD9CA0000000F4000000130000005B436F6E74656E745F54797065735D2E786D6C7D8EC10E82300C865F65E91D8A1E8C310C0EEA1BF002731658846E
311
D98AC1B77784ABF1D8FE5FBFBF75BBCE937A534CCEB38643598122B6FEE978D0B0485F9C41B54DDD7D022595594E1A469170414C76A4D9A4D207E29CF43ECE46F218070CC6BECC4078ACAA135ACF422C856C0E68EA1BF5669944DDD7BCDE7B1F8E415D77AECB980613C2E4AC91FC167A2B244592486606FC29C8FD7F045B9A
311
EF7053A7E60B504B0304140006080800187831408DD7640DEA0000007C01000008000000636F72652E786D6C8D905D6EC3201084AF82F61D1BFC13C711268A65F704BD0002E2A0C46019A87AFCE2C491DAB73EED68988F5D0D3B7FCF0FF4A5576F9CED80660490B6D22963A70E62B8E223A03367AB73E1570C9015B3EE60B3
311
81B3697571D92DE96CD03624D73AA5775378AF0320F948A2032F6F7A1699882125FC3D5B84BC8B4967F4AD121CA351E8B5C4A8F49FB91ABD02AF9AB126CD50E3AAEF0B5C8D6D892F1F6383DBFA5296753BF4C3A160F9067316CCFCDE2F572D8256C00B420B4C28A6CD27AD4F849CAA2326872458BEC5FF407151FF84A2B1A1
311
2CF6735F98074ED321CF07CEF2AD8B349E45A5B9F5C67F00504B03041400060808001878314055019EA25F0000007C00000007000000636E782E786D6C4DCB3B0E80201045D1AD90E915ED2CF8AC45050C11660C8261F98AB1B07AC9C97D42D718D865D3E909258CFD00CCE24AC6E326A164D74DC0B4128928FF326038472B
311
A13128B1252AC747C6BAB984FC68F0B87FE8960A5C09FE86CFB69FBA01504B0304140006080800187831408E07C87465010000020300000C0000006662782F636F72652E786D6C8D52ED8E8230107C95A6FF4BF91435A546A3F704F702152AD7082D292DF1F16FF9309E17630C49696676766707D8EED6366890B657461738
311
0A428CA42E4DA5745D60EF2E648DD18E336B8CFB53869116AD2CF00863CE6A6B7CB740A5D14E6A07A836955C40D1F7D26154367029705FFEC85604C23BA8E8AF4127CAABA865100540431D67BDB36000CD43C613F3CBF9C6E88C73E6BDAA165655304D5D94B498A7F9290BF36346D2C32126E9699390FDD729279B6C9F24D9
311
E67838AE62464731674EB57777A595C2C90AF3388C62124624CABFA36C1B86DB744DC2155C181DCB9F44BEAB3E1479A55D122F7667598F79044626E2DFB6109143BD18C00FE58C8E21C26B4AF8396808044276E2DCDCF7B80234C8D2199B025319FFA006D178095343343D8CCE2C749E1AC0662FFBC46FFABCEF011F50E81A
311
AC0907D7B377E374364F5DA2E8A42583BB216D6C2B9A87B9D9E2E37C0C7A292F4D63EC276ABAAC4A9730E9F8F7F25F504B030414000608080018783140D90F28B27E0000009D0000000B0000006662782F636E782E786D6C4DCCD10E82201886E15B61FF392954A41BE028B91097E858F8D3085A979F360F3AFAB667DF5ED9
311
7D9640DE2EBD7C4405EC500371788FA3C75941C9136D80745AA618F3DF0D080E8B53B0316839A7589E3B8D6E1A4AC8AB068F8F1D0517CC326E69D3F3333D1961E9B5369C1AD13376BBB4B6E547A8B4AC7EA575B7B0FE02504B030414000608080018783140221B14752901000014020000310000006662782F363236314531
311
32452D384432352D344136452D423041322D4136443131433739453932332F636F72652E786D6C8D51CB6EC32010FC15C4293D6003B1C94398286DFC07FD0162488A1283C5A3CAE7176A476A6FB9B068766676B4CB0F8FF10EBEB50FC6D90E920A43A0EDE094B1D70EA678415B080E827BE7E21F1A04568EBA830586825FBD
311
4BD3020DCE466D6346AD537A0165083A4230DCF3A78361F8D2A3AC648A99116ED524879BBCEA8A54B99D798287E87300300F292F148C32D213DAA3ED89B6A839B21EBDE32345477622E463B3EB7774CDEB5928784A462D72A3721C7331DABF6A52C48247333EE30F5ECBA8151414138A304164F349DA3DC6FB668B30CB1F5E
311
17FA3F519AD48BA2646C5CD325EE2C0B50105ECF0DC1954BE7FB338C7E4CCE4750E6AD821EDEA0C015A6B869196D783D53F302B2276B16CF109DCF0B5EDDCE994DDAD9983582D7E546B9FC1E30D7724FF103504B0304140006080800187831400E01615A4C01000033030000300000006662782F36323631453132452D3844
311
32352D344136452D423041322D4136443131433739453932332F636E782E786D6CD593CD6E022114855F85B09F1FECD41AC360D2459FA08B6E11AE4A6560C24F53DFBE1745EBC64597DD1072EEC7393727337CF33D59F205211AEF46CADA9E1270CA6BE3F623CD69D7AC28D9081EBC4F7718254E4E30D22253C1F7C1E7B94A
311
1A7632DB84AA35EE58C500D1E7A020A25C5E12EB95B46800AEC928C2B405AD41931B88B71D045C05C5ED89A40390B7D70FE2B79FA052E45D7111BC2B198297B326DD4194282B631C69540798642B73F21AE2B1D532C996B5D7AC073BFD3A91F2E01A998321257CA4E5A4A26ED4628FBCC3A1E031056CAF42E9340315729EAD
311
513261C9DD19BC308267E3D272A8ACC1E203D26CF9340C68769E099ECC0495500164024DC5A2678BA6670D7B7967CFEBBE5F0FABA65FE2857705177CEBBDAD8FD006829F89F22E814B5430DE95F1A3FA2A47B409D8B50FA73F148905D4D44B3B378FFFDC4F77FEBEB1AE807F81F801504B0304140006080800187831401CD8
311
12B39C0500007A100000340000006662782F36323631453132452D384432352D344136452D423041322D4136443131433739453932332F6F626A656374732E786D6CAD575D6FA33814FD2B887DCE0749DA695794519A34A368D4996AA219ED43A5C880A1DE1A8C6CD349F7D7EF31180299A4CDAEE62504737D7DEFB9E77ED8
311
FFB8CBB8F342A56222BF71BDE1D875681E8998E5E98D5BEA6470E53A1F035F0AA13B62AE93938CDEB866D90DFC548AB2B04B314D48C9F5C1EAEAF62F474534A7AE1371A2D48DABA2279A912129B588A97A1EC64493619AEC86DEB016ECAB4D25299E0E941644D25CC352ACE7D0E2D44679FDD7B13B0AFC91F91EF8E6D74A4D
311
4F4B8D2A7FFAE7B35C699247BF1C76A066EACD9677938BEBC1C56C361DCC2E27DEE07675BB1C781FA6E3C5E562713DBFBBC6C14A4B68B296489AB8C127602359E48FEA4F815FB25C4F2756C4066824E90B3391728389E3F9A35AA6F5CE3A79CCFC48E4398D2AAC8046E59F551DD382E63162CEA882651D84C6FD57CFE0D8F9
311
3C35EFF6C8EEF279087477741435B637CFAEA522FC1B2EA873182415350CACB1B48ED65C1DEF110E85E0F61B534E4634958C7087B35012F9EA0610352281DF5363982C4D36180FDC0051A83FF7E982347A9FE7C7AC4C4ACE0D8DDDA0CA822D72856A5559C6FEA1726F7D1719D8845819365C5987F46B41DDE0BAA6C8D5019B
311
6A209D84931421879B66E77472E0E8C2E4E97AE9069F57E16E6372F7F8E185140595DAD007D46A02D73C0D4AD626EFACC8990DEE81297B50BE01F92F48F5BD29889B64BBD96E664FD192E42A1132436C9CB13318E367EC78D5AFF9DFF9E78FDACDFDE89DC213C13650FD063CFB3E7463D98133F05F407821A7D6B54D4438CA
311
C63DCB01902189C3059650879370E7066B54395465EC223CF0E032CC7DC15F7F64D5A0505427759E39B03C288B671468C056311266D4E4B706EEE3F44B39AB0EB662A7E0BDF82D749D2F379F37A54C4844EF6D4E2F69C272A6D1E2F6BCE91AD4C3BCE7D1337DFD29640C477FC57BD3C53BB34729A06D3037C0A74D4D372FFB
311
937B0744D8970A536EFC774E8013A6B176F4DF331551CE494E45D99CFB66FF40DBA82136C96E98DC36987D630169EA2F073988261D49561810DB6ED516CDE109EFBEAFBF809190E722247C2F14EE4B6F24B890DBF0755B57A5A348FFE853DB4230325AC0F62A479AF4B7986F639624A5420D3C02EB8FF5A21B3A531550211A
311
AD75B2CCE03E728B48CBD9462F9AB52468A422DF32B44DA4DDD103BAFA81A82540A5F094C58AF264CB382FB36DC2389AD13623C50938FEBFFD6199155B928932D72774F74C4773E8DBDE23AFFA4974F4E4069BEA39B845E98D69BC0F734FD8B4922358F5427B3DB99ECD57F3CBC1E2627239987DB8BA1B5C8D2FAF061F66AB
311
F17835BBB85CCEA64D9C6AE581DF749A6E42234AE86C7E29990DDFF735D2C7D60037B8275A3D7EAAB3B3797E5F0F310AFB23EC41BB6C37CEE3178C7D347E5FC15EF2A8A27556709AD15C139342F7E60FFF463066F48CA9D7D71949E9195ABE7EDA1C38839533F63D9874A73F0FF6DAD58549C8A34AF45399853961FC60635A
311
23392CF2D4E2D7C4A47DD67DA679356F3630184C95E02C46198C9D948A8C6A14C3337A90CCA802F5BA237D6CAF1E67EC7EA907444D424E1B4B9E086664AE9016A05619E9FEBAF307663A3356DDB8E8B6C367FCD84AE13AE0CC8D8B195DB388AA6188FE6C26A14A39B8D41DE431F7933CE518B5EB4DED7BBBCB60D3EBC8ADC8
311
39E393F5ABAEE0D6019491026303E62144A73226F02BDBECF7E83F39DE98E3108DBF61A95B5FF60BAD33D53148D1DA297B59C00CF36C8FDE2151DF76CB1B56323D44CEBA64BD49825AEB401399561705639F3569BE7C18614071D65F9D8297296279BEA681A4207369121C2C022BACCE82685075F1E7E38314B8C866CE8A81
311
028F0B916522B72F737B1176364FB8D6C68F280BD4DC47D4E364EC4D1EAB7B80BD9A6C43A2E890C4EA190B88A9642DC4BDC08391F565111DA8FED0CA8D4C100EB8B95E3AB6A5CDA0D412A55B550D2C983872EA207BCC5DD2E44A57A078F32A30AA446182C4101FFC0B504B0304140006080000187831400000000000000000
311
00000000350000006662782F36323631453132452D384432352D344136452D423041322D4136443131433739453932332F76657274696365732E62696E504B030414000608080018783140F270F1330600000004000000360000006662782F36323631453132452D384432352D344136452D423041322D4136443131433739
311
453932332F747269616E676C65732E62696E636660600000504B030414000608000018783140000000000000000000000000370000006662782F36323631453132452D384432352D344136452D423041322D4136443131433739453932332F617474726962757465732E62696E504B030414000608080018783140D5987DFC
311
8F00000041010000360000006662782F36323631453132452D384432352D344136452D423041322D4136443131433739453932332F6469726563746F72792E786D6C858F410EC2201045AF4266AF15DDB800BA74E7C21B903225242D6328188F2FA5C4183471359997F9FF81E89FF3C41E1816475E02DF1F80A11FC8386F25
311
A438EECEC07A250251FC3803E6F58C12560C4AD840E95E91C151A72936F496F35732D860FE635F62C8F2DA16B505C545B74125BAA2FA9E05D7CC053D063734D5C7665FD55B6B8D15D5E9BFEAFD8490FFA45E504B0304140006080800187831409E7C4A95FD000000A00100003B0000006662782F36323631453132452D3844
311
32352D344136452D423041322D4136443131433739453932332F7265736F75726365732F636F72652E786D6C8D50596AC33010BD8A997FD99297380EB24242D213F402429EB822B114B4941EBF52EC42FBD79F99E12DCCE3F1E3D7F2283ED1796DCD08ACA450A05176D2661E21861BD9437114DC591B7EC9A03072C111320C
311
82CFCEC6E706296B029A90506327DC40E93D0628D4231D2378F5818B2C650C49E1EFE553AABB9CB16465A2934E701F5C0A50AC4FF204E1D0DBE8147A5EADACE031EA69D3E829FDD4378D0E44DB5F3BDA5F5AD29ECF3569AF43434E6FD79E0CDDA969BAE172BEEC6A5E65B3E0412F3F19954319700251535613CA08EBDF5977
311
A0F4D0EE09DDA5835759FEC7149FD33F4D519BD0D45BDCD5E641B014E445085EE5BED27A959976EE567C03504B010214000A0000080000187831403DEE336E79000000790000001B00000000000000000000000000000000006175746F6465736B2D64657369676E2D7061636B6167652E786D6C504B010214001400060808
311
0018783140D486FD9CA0000000F40000001300000000000000000000000000B20000005B436F6E74656E745F54797065735D2E786D6C504B01021400140006080800187831408DD7640DEA0000007C010000080000000000000000000000000083010000636F72652E786D6C504B010214001400060808001878314055019E
311
A25F0000007C000000070000000000000000000000000093020000636E782E786D6C504B01021400140006080800187831408E07C87465010000020300000C00000000000000000000000000170300006662782F636F72652E786D6C504B0102140014000608080018783140D90F28B27E0000009D0000000B000000000000
311
00000000000000A60400006662782F636E782E786D6C504B0102140014000608080018783140221B1475290100001402000031000000000000000000000000004D0500006662782F36323631453132452D384432352D344136452D423041322D4136443131433739453932332F636F72652E786D6C504B0102140014000608
311
0800187831400E01615A4C010000330300003000000000000000000000000000C50600006662782F36323631453132452D384432352D344136452D423041322D4136443131433739453932332F636E782E786D6C504B01021400140006080800187831401CD812B39C0500007A10000034000000000000000000000000005F
311
0800006662782F36323631453132452D384432352D344136452D423041322D4136443131433739453932332F6F626A656374732E786D6C504B010214001400060800001878314000000000000000000000000035000000000000000000000000004D0E00006662782F36323631453132452D384432352D344136452D423041
311
322D4136443131433739453932332F76657274696365732E62696E504B0102140014000608080018783140F270F13306000000040000003600000000000000000000000000A00E00006662782F36323631453132452D384432352D344136452D423041322D4136443131433739453932332F747269616E676C65732E62696E
311
504B01021400140006080000187831400000000000000000000000003700000000000000000000000000FA0E00006662782F36323631453132452D384432352D344136452D423041322D4136443131433739453932332F617474726962757465732E62696E504B0102140014000608080018783140D5987DFC8F0000004101
311
000036000000000000000000000000004F0F00006662782F36323631453132452D384432352D344136452D423041322D4136443131433739453932332F6469726563746F72792E786D6C504B01021400140006080800187831409E7C4A95FD000000A00100003B00000000000000000000000000321000006662782F363236
311
31453132452D384432352D344136452D423041322D4136443131433739453932332F7265736F75726365732F636F72652E786D6C504B0506000000000E000E0080040000881100000000
310
504B03040A0000080000187831403DEE336E79000000790000001B0000006175746F6465736B2D64657369676E2D7061636B6167652E786D6C3C3F786D6C2076657273696F6E3D22312E302220656E636F64696E673D227574662D3822203F3E3C666F726D6174733E3C666F726D61743E687474703A2F2F736368656D612E
310
6175746F6465736B2E636F6D2F64657369676E2D7061636B6167652F323030393C2F666F726D61743E3C2F666F726D6174733E504B030414000608080018783140D486FD9CA0000000F4000000130000005B436F6E74656E745F54797065735D2E786D6C7D8EC10E82300C865F65E91D8A1E8C310C0EEA1BF002731658846E
310
D98AC1B77784ABF1D8FE5FBFBF75BBCE937A534CCEB38643598122B6FEE978D0B0485F9C41B54DDD7D022595594E1A469170414C76A4D9A4D207E29CF43ECE46F218070CC6BECC4078ACAA135ACF422C856C0E68EA1BF5669944DDD7BCDE7B1F8E415D77AECB980613C2E4AC91FC167A2B244592486606FC29C8FD7F045B9A
310
EF7053A7E60B504B030414000608080018783140FD83EC72EA0000007C01000008000000636F72652E786D6C8D905D6EC3201084AF82F61D1BFC933A1126721DE704BD0002E2A2C460198872FCE2C491DAB73EED68988F5D0D3B3EA61BBAEBC51B675BA01901A4AD74CAD8B185182EB80174E46C712EFC8A01B262D22DAC36
310
70362E2ECE9B259D0DDA86E45AA7F4660AEF7500246F49B4E0E5B79E44266248097FCD6621AF62D4197DAB04C768147A2D312AFD672E462FC09BA22BABF330E0BEAB2B5C95FB1A7F16BB019FEAF3D0D3667F6ABA9EE52BCC5930D37BBF5CB4085A012F082D30A1987E7CD1FA40C8A16A30D925C1F235FE078AB3FA27148D0D
310
65B19DFBC23C709A0E793E7096AF5DA4F12C2ACDB537FE03504B03041400060808001878314055019EA25F0000007C00000007000000636E782E786D6C4DCB3B0E80201045D1AD90E915ED2CF8AC45050C11660C8261F98AB1B07AC9C97D42D718D865D3E909258CFD00CCE24AC6E326A164D74DC0B4128928FF326038472B
310
A13128B1252AC747C6BAB984FC68F0B87FE8960A5C09FE86CFB69FBA01504B030414000608080018783140AE791CCB66010000020300000C0000006662782F636F72652E786D6C8D52ED8E8230107C95A6FF4B01C1E34CA9F1149FE05EA042E51AA125A5253EFE2D1FC6F3628C2129CDCCCEEEEC00DB5EDB060DD2F6CAE81C
310
47418891D4A5A994AE73ECDD9964186D39B3C6B83F651869D1CA1C8F30E6ACB6C6770B541AEDA476806A53C905147D2F1D466503971CF7E58F6C4520BC838AFE1274A2BC885A06510034D471D63B0B06D03C643C313F9FAE8CCE3867DEAB6A615505D3D459498B7916EF56C9B128C87E972624597DA6E42B5E17E4901E8B7D
310
947D1EB2DD9ED151CC9953EDCD5D69A570B2C23C0EA3988411893EBEA37413869B2423E11A2E8C8EE50F22DF556F8ABCD26E152F7667598F79044626E2DFB6109143BD18C00FE58C8E21C26B4AF8316808044276E2D4DCF6B80034C8D2199B0053197FA706D178095343343D8CCE2C749E1AC0664FFBC42FFABCEE011F50E8
310
1AAC0907D79377E374364F5DA2E8A42583BB226D6C2B9ABBB9D9E2FDBC0F7A2A2F4D63EC3B6ABAAC4A9730E9F8F7F25F504B030414000608080018783140A81D7BEE7E0000009D0000000B0000006662782F636E782E786D6C4DCCD10A83201886E15B91FFDC95FF6C2B506336BA8F581692E9703A76F9ABD1C18E3E78F878
310
45FB591D799BF8B2C14B60A71288F18F305A3F4BC869A2359056891842FABB01F1C36A24EC0C4ACC31E4E741A39986ECD2A6CEFAE5C08BBE63830DA31D32A49CEB2BD5AC43DAF3BEE2658DD5EDCCA050A2F895B6DDC3EA0B504B03041400060808001878314073557B952901000013020000310000006662782F3642443239
310
3239312D433231322D343442372D423143322D4634463534303832354133312F636F72652E786D6C8D51CB6EC32010FC15C4293D6003719C873051932A5FD01F2098A42831583CAA7C7E97DA91DA5B2E2CDA9D999DDD15FBC77047DF2644EB5D87594531324EFBDEBA6B8773BA900D467B2982F7E90F0C23A706D3E192C652
310
5C83CFE39CD2DE25E312649DEFCD9C54319A8491BEC3A7C3517F9941552A2740C45B352A7D535753B10ACA809322A60006D0D4A4BC58B6870FBEE55B468E9C71D234873539B02327A7E6B46AE886AFDE974CD413518A9C6D3FD36D0F76ECC59AF0AA48214B91ECF0B4AF8351C9F458720ABD29236CFDC9563B4A77CD86D016
310
3EA22EF07FA43CF62F92B27569C967BB132D6209D34C05297A9FCFF7A719F3187D48A8F45B44A3DFB0A415E5BC5DB256D41312E607C9B6992563F201F6BBB89D015CB65474DB468ABA9C08C2EFFD209673CA1F504B03041400060808001878314068A6AE4D5401000033030000300000006662782F36424432393239312D43
310
3231322D343442372D423143322D4634463534303832354133312F636E782E786D6CBD93CD6EC32010845F0571F75FE2BA568489D4439FA0875E316C121A0C16E0AA79FB2E094973C9A152D50B42B3C3CCEA93CDB65F93219FE0837676A04D595302563AA5ED7EA04BDC153D255BCEBC73F1CE468915130C34C994B3BD77CB
310
9C25053BB19888AAD1F698450FC12D5E424039BD24C6496130006CB1A008D3084A81223723DE76E0711514C713890720AF2FEFC48D1F206360554AE1AC4A1D9CA53337DD992891468430D0200F3089522CD12908C7528928CAA6BC763DD8E92789A407D7CAC56B92CA079A4ECAF346257264150E390BD123BD6C8AA7192817
310
F36CB41411215767E3C5C3D9A26DECDAECD508DEA37BBDEAFA1EC3CE33CEA29E203BA407114151BEAA9B55513745F3FCD63C6DEA7AD3F645DDE18555C9CED9E89CC98F3006BC9B897436828D9437AC4AE347F8B28F28ED91B5F3A75F804400B9F542E796F1977C9A6EDDB6FFC8A73A7FDF88CBE35FC0BF01504B0304140006
310
080800187831408F90845E59070000931B0000340000006662782F36424432393239312D433231322D343442372D423143322D4634463534303832354133312F6F626A656374732E786D6CED595B6FA33814FE2B887D0E0949DA695794519B4EAB68D599D16467B40F9190030EF1D618649B5EF6D7EFF1050234B464A7FB36
310
0F0960ECE373BE73F521F8F89451E70173417276E1FADEC475308BF384B0F4C22DE57674E63A1FC380E7B96C4C731D86327CE1AA61370C529E97851D4AF016955476466FAEFE72448C19769D9822212E5C11EF70863C54CA3CC1E2DE4B90445EBA7DF27CCF4C6C934D392A761DA205E29849E014C61950710C537EFB71E28E
310
C360ACDE8781FAB7B3668366CDFB678DB5D46D2E091312B1F8054B1D32B3412CCDFCF9F5A7E9C9F9E8643E9F8DE6A7537F747573753DF23FCC268BD3C5E2FCF2D339B0B7C9736A654A70815902FA7B76433F18AB37B5E81681435CC7396338D64002545AAC2E4182056CD5806FD27EF495448DD75AC2C6F35CBDB72C348667
310
6D2A7DB38601D1A20B82D8ED2A89AB6B53BE7CF337082E861825175802B74272D0AE85878357B8E124189BD130D8EC7541849321893941D4A164C31107A5C05435250CCC024B46390707528E92406BCEBC6EDB1678E6DBAE7388CB6D49A9F20C37D48E1581FB61293467E41FCCF7DC3791019E40DA92307966B994CF0576C3
310
F360AC07C3405D6653FBD200E96C294A8546C4BCED08BA50AEBFBC76C33F6E364F2B150E0E6F5EF0BCC05C2AA3537AD47C8121DBAB42C96EEB0FD29C5A00C21850EDCA3D28DF00F9CF103DF6AC80DE38799A3FCDED5CC91113DB9C67A01B67E28C26F037717CFDAFEE1B77C1B85EDCD65E1F9EE0A60AAAB39FC7B32D83C6CA
310
F2DF80330C1EC0E0733EB3AF5631A260CF77840140CA481C9AC31084F6EDE6C90D97103821D0C32A44431F4406761FE036185B327BAD54EE65BD8E01A2768FD91025016CDA22818D1E3DDD42F6E024DEABA929621FBC27EF62AE97D7AB3F5625DFA218DF599FBEC65BC28884AC7998A116E62D89EEF1F363CE1310F425DEAB
310
26DE99DD4A00DA0A73057C5A81A01EF63BB73688615D9AAB7013BCB10308A1727583FE1D1131A614319C97D5BE757453865A7BBCAD19DC706A209E4D3B26CCF10351550538CD7E468B51C8FB31278502D10D6F8D6475D0F47AA4FBBEFC0C1659CFEF99B564107A19A27FEAA0750087966557485B206A8137FB701EE734E7D1
310
E6393291CE855A02D8687BCB8F165188F546498A0A7890F6BB2AA4A446DA2821DB6D2920AE1E60F1C772D134878937F34F9CE67FC719E7106DC17711B77ED7D92322194A71B44549DF76CDDD6ADA4293EC21CDF196825CE481C8E708C96892E0F418688E227EFEAED4539A0B41181690AF0E82DF4463E2412031DAAC58565A
310
ED004D44946189E8310828323DE0EAB4A36BDC184A87B779ACADF7358D3589FE4F16C111D492398B0894A29043DE64DCF74E2086B4D1352877F0056BAB686B3168092544FC1C3D6292EEE431A81BF23DB8C77024296594172806B31E40F685AF28A57678DFA0F85EE58F282EE97B1988C0741B114ACB2C821F6170F218E2DA
310
75607A1585067113FB24CEA02843B2E44336393D99BCD8C7D40CDD10D8D8684B2884ED2843450FEAAD80A8EB11A706DF52EF51EAA6CC8A086579C906198A37EB7A9325DF55AB223B905F552A42D95811B604C380305967D52A6683A9EBC00A6EA403D57324505650730A7B23F1F8B53769CABD1B70EBA7EFBB4106855F8FF6
310
9A11755EC160796C1506E211C978E7862B7D1D5D41FD9DE0649FEAAB5AB3590102622A92979C58157D5F4279636B3437BC4352AC6F4DD6ADAEDF971E743F8231AC81DAA55EB85440679849A42A933B7543BF2108C12D1A667CA972EA31542E9344578D88DE903E75B6CA88D6A619F18A1D6679063FB6262CA66582D72811F7
310
D19DA4D18A28D6AD945E462A8C5F15F0CBEDAA030F8C0C10E9AB2AF0F06367AD1D5DA872E92011B92BB30D430482604BB4D4E8C62B586A355269B9BEAA3305D45D606056C5F35F278B663BE2D7C922B586F173270B9A6F10DD479B46368F95591F750AA8D393A2F21EA700DD75A8A9D649C4E4722BBEF5A508626215E40717
310
6355CC3004FB38FECF49BB2F099AED3AFC1F97B4FD1705C75149A5355935A90E14AECB660A3B9F9ECF2F6F2E4F478B93E9E968FEE1ECD3E86C727A36FA30BF994C6EE627A7D7F37D15A1FD340CEA58A653173C9B98560DAB278B013465454E490287F9C44931847C0947FA01DD739E6101B9B3D9EB4E6C4F7EC0EA07D3E694
310
684371C5C90E417F980AC8EA805119CBF6B8F31B7426259CB32F5CE81979F7F067ADD27520F15CB8D0299024C6C2DB409749F5F33471C8B83AF55B62800F62A9CA886651FD5CAF52D8B4A27F3D654816B072B55A1850B715D0FC6A3528346F96A7F828C12B761C24E176534A28D68C2CFB815A18BDCD5EFD46364AD8BDDDFA
310
095CF775B17C4FCF692132E88BC1AB4660A88E24E2A96E772BC62C4B97D75FC7D06673965F9C829629E87238A511C760CCA5AAA7C08AC02A2CCD024930D5C5EFEBAF3C872F3C99A38BA2F522CFB29CD9874B388E25F085C859EDE07B4FB286AA01ABAEBA584F27FE74ADBBD9B6C11E6D90C09E2A8760A0AA2294081D63038B
310
7CD199B27DCBB1524267FAF2DAB1E113BA00C6825E3477CDD72D07BC477D4751BEA23DBC92F3D586F6584F056BE0D08A0EFF05504B030414000608000018783140000000000000000000000000350000006662782F36424432393239312D433231322D343442372D423143322D4634463534303832354133312F7665727469
310
6365732E62696E504B030414000608080018783140F270F1330600000004000000360000006662782F36424432393239312D433231322D343442372D423143322D4634463534303832354133312F747269616E676C65732E62696E636660600000504B03041400060800001878314000000000000000000000000037000000
310
6662782F36424432393239312D433231322D343442372D423143322D4634463534303832354133312F617474726962757465732E62696E504B030414000608080018783140D5987DFC8F00000041010000360000006662782F36424432393239312D433231322D343442372D423143322D4634463534303832354133312F64
310
69726563746F72792E786D6C858F410EC2201045AF4266AF15DDB800BA74E7C21B903225242D6328188F2FA5C4183471359997F9FF81E89FF3C41E1816475E02DF1F80A11FC8386F25A438EECEC07A250251FC3803E6F58C12560C4AD840E95E91C151A72936F496F35732D860FE635F62C8F2DA16B505C545B74125BAA2FA
310
9E05D7CC053D063734D5C7665FD55B6B8D15D5E9BFEAFD8490FFA45E504B030414000608080018783140EE28C2EAFD000000A00100003B0000006662782F36424432393239312D433231322D343442372D423143322D4634463534303832354133312F7265736F75726365732F636F72652E786D6C8D50596E833010BD0A9A
310
7F03664949641C512027E8052C332156828DBC543D7E4D42A5F6AF3F33A3B7689E1E3B7F2D8FE413AD5346B740D31C12D4D24C4ACF2D047F250D2467CEAC31FE970C122D166C618381B3D99AB0EE9034DAA3F611D566C21D14CEA187443EE2D18293375C442A828F0A774F5721EF62C694A6918E3ACE9CB73140F27AB24DE0
310
169D0956A263D98BE52C0435ED1A35C59FEAAAD0026F8AAEAC2EE340FAAEAE48551E6BF25E1C4632D497B1A7CD7168BA9E659B9933AF969F8CD2A2F038012F725A909C12FAF641EB539E9FAA86E48778B06C93FF318575FAA72928EDCB628FFBB239E0340679129C655B5F713DCB8C7BEB967F03504B010214000A00000800
310
00187831403DEE336E79000000790000001B00000000000000000000000000000000006175746F6465736B2D64657369676E2D7061636B6167652E786D6C504B0102140014000608080018783140D486FD9CA0000000F40000001300000000000000000000000000B20000005B436F6E74656E745F54797065735D2E786D6C
310
504B0102140014000608080018783140FD83EC72EA0000007C010000080000000000000000000000000083010000636F72652E786D6C504B010214001400060808001878314055019EA25F0000007C000000070000000000000000000000000093020000636E782E786D6C504B0102140014000608080018783140AE791CCB
310
66010000020300000C00000000000000000000000000170300006662782F636F72652E786D6C504B0102140014000608080018783140A81D7BEE7E0000009D0000000B00000000000000000000000000A70400006662782F636E782E786D6C504B010214001400060808001878314073557B95290100001302000031000000
310
000000000000000000004E0500006662782F36424432393239312D433231322D343442372D423143322D4634463534303832354133312F636F72652E786D6C504B010214001400060808001878314068A6AE4D54010000330300003000000000000000000000000000C60600006662782F36424432393239312D433231322D
310
343442372D423143322D4634463534303832354133312F636E782E786D6C504B01021400140006080800187831408F90845E59070000931B00003400000000000000000000000000680800006662782F36424432393239312D433231322D343442372D423143322D4634463534303832354133312F6F626A656374732E786D
310
6C504B01021400140006080000187831400000000000000000000000003500000000000000000000000000131000006662782F36424432393239312D433231322D343442372D423143322D4634463534303832354133312F76657274696365732E62696E504B0102140014000608080018783140F270F13306000000040000
310
003600000000000000000000000000661000006662782F36424432393239312D433231322D343442372D423143322D4634463534303832354133312F747269616E676C65732E62696E504B01021400140006080000187831400000000000000000000000003700000000000000000000000000C01000006662782F36424432
310
393239312D433231322D343442372D423143322D4634463534303832354133312F617474726962757465732E62696E504B0102140014000608080018783140D5987DFC8F000000410100003600000000000000000000000000151100006662782F36424432393239312D433231322D343442372D423143322D463446353430
310
3832354133312F6469726563746F72792E786D6C504B0102140014000608080018783140EE28C2EAFD000000A00100003B00000000000000000000000000F81100006662782F36424432393239312D433231322D343442372D423143322D4634463534303832354133312F7265736F75726365732F636F72652E786D6C504B
310
0506000000000E000E00800400004E1300000000
  0
XRECORD
  5
27
102
{ACAD_REACTORS
330
22
102
}
330
22
100
AcDbXrecord
280
     1
270
     1
271
     1
  0
XRECORD
  5
26
102
{ACAD_REACTORS
330
22
102
}
330
22
100
AcDbXrecord
280
     1
270
     1
271
     1
  0
XRECORD
  5
28
102
{ACAD_REACTORS
330
22
102
}
330
22
100
AcDbXrecord
280
     1
270
     1
271
     1
  0
XRECORD
  5
25
102
{ACAD_REACTORS
330
22
102
}
330
22
100
AcDbXrecord
280
     1
270
     1
271
     1
  0
XRECORD
  5
E83
102
{ACAD_REACTORS
330
E82
102
}
330
E82
100
AcDbXrecord
280
     1
102
ACAD_ROUNDTRIP_2012_MLEADER_STYLE
298
     1
  0
CELLSTYLEMAP
  5
E81
102
{ACAD_REACTORS
330
E80
102
}
330
E80
100
AcDbCellStyleMap
 90
        3
300
CELLSTYLE
  1
TABLEFORMAT_BEGIN
 90
        5
170
     1
 91
        0
 92
    32768
 62
   257
 93
        1
300
CONTENTFORMAT
  1
CONTENTFORMAT_BEGIN
 90
        0
 91
        0
 92
      512
 93
        0
300

 40
0.0
140
1.0
 94
        5
 62
     0
340
55
144
0.25
309
CONTENTFORMAT_END
171
     0
 94
        0
309
TABLEFORMAT_END
  1
CELLSTYLE_BEGIN
 90
        1
 91
        1
300
_TITLE
309
CELLSTYLE_END
300
CELLSTYLE
  1
TABLEFORMAT_BEGIN
 90
        5
170
     1
 91
        0
 92
        0
 62
   257
 93
        1
300
CONTENTFORMAT
  1
CONTENTFORMAT_BEGIN
 90
        0
 91
        0
 92
      512
 93
        0
300

 40
0.0
140
1.0
 94
        5
 62
     0
340
55
144
0.18
309
CONTENTFORMAT_END
171
     0
 94
        0
309
TABLEFORMAT_END
  1
CELLSTYLE_BEGIN
 90
        2
 91
        1
300
_HEADER
309
CELLSTYLE_END
300
CELLSTYLE
  1
TABLEFORMAT_BEGIN
 90
        5
170
     1
 91
        0
 92
        0
 62
   257
 93
        1
300
CONTENTFORMAT
  1
CONTENTFORMAT_BEGIN
 90
        0
 91
        0
 92
      512
 93
        0
300

 40
0.0
140
1.0
 94
        2
 62
     0
340
55
144
0.18
309
CONTENTFORMAT_END
171
     0
 94
        0
309
TABLEFORMAT_END
  1
CELLSTYLE_BEGIN
 90
        3
 91
        2
300
_DATA
309
CELLSTYLE_END
  0
XRECORD
  5
EBB
102
{ACAD_REACTORS
330
E80
102
}
330
E80
100
AcDbXrecord
280
     1
102
ACAD_ROUNDTRIP_PRE2007_TABLESTYLE
 90
      512
 91
        0
  1

 92
      512
 93
        0
  2

 94
      512
 95
        0
  3

  0
XRECORD
  5
E96
102
{ACAD_REACTORS
330
E95
102
}
330
E95
100
AcDbXrecord
280
     1
102
RTVSPropertyOp0
 70
     1
102
RTVSPropertyOp1
 70
     1
102
RTVSPropertyOp2
 70
     1
102
RTVSPropertyOp3
 70
     1
102
RTVSPropertyOp4
 70
     1
102
RTVSPropertyOp5
 70
     1
102
RTVSPropertyOp6
 70
     1
102
RTVSPropertyOp7
 70
     1
102
RTVSPropertyOp8
 70
     1
102
RTVSPropertyOp9
 70
     1
102
RTVSPropertyOp10
 70
     1
102
RTVSPropertyOp11
 70
     1
102
RTVSPropertyOp12
 70
     1
102
RTVSPropertyOp13
 70
     1
102
RTVSPropertyOp14
 70
     1
102
RTVSPropertyOp15
 70
     1
102
RTVSPropertyOp16
 70
     1
102
RTVSPropertyOp17
 70
     1
102
RTVSPropertyOp18
 70
     1
102
RTVSPropertyOp19
 70
     1
102
RTVSPropertyOp20
 70
     1
102
RTVSPropertyOp21
 70
     1
102
RTVSPropertyOp22
 70
     1
102
RTVSPropertyOp23
 70
     1
102
RTVSPropertyOp24
 70
     1
102
RTVSPropertyOp25
 70
     1
102
RTVSPropertyOp26
 70
     1
102
RTVSPropertyOp27
 70
     1
102
RTVSPropertyOp28
 70
     1
102
RTVSPropertyOp29
 70
     1
102
RTVSPropertyOp30
 70
     1
102
RTVSPropertyOp31
 70
     1
102
RTVSPropertyOp32
 70
     1
  0
XRECORD
  5
E94
102
{ACAD_REACTORS
330
E93
102
}
330
E93
100
AcDbXrecord
280
     1
102
RTVSPropertyOp0
 70
     1
102
RTVSPropertyOp1
 70
     1
102
RTVSPropertyOp2
 70
     1
102
RTVSPropertyOp3
 70
     1
102
RTVSPropertyOp4
 70
     1
102
RTVSPropertyOp5
 70
     1
102
RTVSPropertyOp6
 70
     1
102
RTVSPropertyOp7
 70
     1
102
RTVSPropertyOp8
 70
     1
102
RTVSPropertyOp9
 70
     1
102
RTVSPropertyOp10
 70
     1
102
RTVSPropertyOp11
 70
     1
102
RTVSPropertyOp12
 70
     1
102
RTVSPropertyOp13
 70
     1
102
RTVSPropertyOp14
 70
     1
102
RTVSPropertyOp15
 70
     1
102
RTVSPropertyOp16
 70
     1
102
RTVSPropertyOp17
 70
     1
102
RTVSPropertyOp18
 70
     1
102
RTVSPropertyOp19
 70
     1
102
RTVSPropertyOp20
 70
     1
102
RTVSPropertyOp21
 70
     1
102
RTVSPropertyOp22
 70
     1
102
RTVSPropertyOp23
 70
     1
102
RTVSPropertyOp24
 70
     1
102
RTVSPropertyOp25
 70
     1
102
RTVSPropertyOp26
 70
     1
102
RTVSPropertyOp27
 70
     1
102
RTVSPropertyOp28
 70
     1
102
RTVSPropertyOp29
 70
     1
102
RTVSPropertyOp30
 70
     1
102
RTVSPropertyOp31
 70
     1
102
RTVSPropertyOp32
 70
     1
  0
XRECORD
  5
EA2
102
{ACAD_REACTORS
330
EA1
102
}
330
EA1
100
AcDbXrecord
280
     1
102
RTVSPropertyOp0
 70
     1
102
RTVSPropertyOp1
 70
     1
102
RTVSPropertyOp2
 70
     1
102
RTVSPropertyOp3
 70
     1
102
RTVSPropertyOp4
 70
     1
102
RTVSPropertyOp5
 70
     1
102
RTVSPropertyOp6
 70
     1
102
RTVSPropertyOp7
 70
     1
102
RTVSPropertyOp8
 70
     1
102
RTVSPropertyOp9
 70
     1
102
RTVSPropertyOp10
 70
     1
102
RTVSPropertyOp11
 70
     1
102
RTVSPropertyOp12
 70
     1
102
RTVSPropertyOp13
 70
     1
102
RTVSPropertyOp14
 70
     1
102
RTVSPropertyOp15
 70
     1
102
RTVSPropertyOp16
 70
     1
102
RTVSPropertyOp17
 70
     1
102
RTVSPropertyOp18
 70
     1
102
RTVSPropertyOp19
 70
     1
102
RTVSPropertyOp20
 70
     1
102
RTVSPropertyOp21
 70
     1
102
RTVSPropertyOp22
 70
     1
102
RTVSPropertyOp23
 70
     1
102
RTVSPropertyOp24
 70
     1
102
RTVSPropertyOp25
 70
     1
102
RTVSPropertyOp26
 70
     1
102
RTVSPropertyOp27
 70
     1
102
RTVSPropertyOp28
 70
     1
102
RTVSPropertyOp29
 70
     1
102
RTVSPropertyOp30
 70
     1
102
RTVSPropertyOp31
 70
     1
102
RTVSPropertyOp32
 70
     1
  0
XRECORD
  5
EAA
102
{ACAD_REACTORS
330
EA9
102
}
330
EA9
100
AcDbXrecord
280
     1
102
RTVSPropertyOp0
 70
     1
102
RTVSPropertyOp1
 70
     1
102
RTVSPropertyOp2
 70
     1
102
RTVSPropertyOp3
 70
     1
102
RTVSPropertyOp4
 70
     1
102
RTVSPropertyOp5
 70
     1
102
RTVSPropertyOp6
 70
     1
102
RTVSPropertyOp7
 70
     1
102
RTVSPropertyOp8
 70
     1
102
RTVSPropertyOp9
 70
     1
102
RTVSPropertyOp10
 70
     1
102
RTVSPropertyOp11
 70
     1
102
RTVSPropertyOp12
 70
     1
102
RTVSPropertyOp13
 70
     1
102
RTVSPropertyOp14
 70
     1
102
RTVSPropertyOp15
 70
     1
102
RTVSPropertyOp16
 70
     1
102
RTVSPropertyOp17
 70
     1
102
RTVSPropertyOp18
 70
     1
102
RTVSPropertyOp19
 70
     1
102
RTVSPropertyOp20
 70
     1
102
RTVSPropertyOp21
 70
     1
102
RTVSPropertyOp22
 70
     1
102
RTVSPropertyOp23
 70
     1
102
RTVSPropertyOp24
 70
     1
102
RTVSPropertyOp25
 70
     1
102
RTVSPropertyOp26
 70
     1
102
RTVSPropertyOp27
 70
     1
102
RTVSPropertyOp28
 70
     1
102
RTVSPropertyOp29
 70
     1
102
RTVSPropertyOp30
 70
     1
102
RTVSPropertyOp31
 70
     1
102
RTVSPropertyOp32
 70
     1
  0
XRECORD
  5
E9C
102
{ACAD_REACTORS
330
E9B
102
}
330
E9B
100
AcDbXrecord
280
     1
102
RTVSPropertyOp0
 70
     1
102
RTVSPropertyOp1
 70
     1
102
RTVSPropertyOp2
 70
     1
102
RTVSPropertyOp3
 70
     1
102
RTVSPropertyOp4
 70
     1
102
RTVSPropertyOp5
 70
     1
102
RTVSPropertyOp6
 70
     1
102
RTVSPropertyOp7
 70
     1
102
RTVSPropertyOp8
 70
     1
102
RTVSPropertyOp9
 70
     1
102
RTVSPropertyOp10
 70
     1
102
RTVSPropertyOp11
 70
     1
102
RTVSPropertyOp12
 70
     1
102
RTVSPropertyOp13
 70
     1
102
RTVSPropertyOp14
 70
     1
102
RTVSPropertyOp15
 70
     1
102
RTVSPropertyOp16
 70
     1
102
RTVSPropertyOp17
 70
     1
102
RTVSPropertyOp18
 70
     1
102
RTVSPropertyOp19
 70
     1
102
RTVSPropertyOp20
 70
     1
102
RTVSPropertyOp21
 70
     1
102
RTVSPropertyOp22
 70
     1
102
RTVSPropertyOp23
 70
     1
102
RTVSPropertyOp24
 70
     1
102
RTVSPropertyOp25
 70
     1
102
RTVSPropertyOp26
 70
     1
102
RTVSPropertyOp27
 70
     1
102
RTVSPropertyOp28
 70
     1
102
RTVSPropertyOp29
 70
     1
102
RTVSPropertyOp30
 70
     1
102
RTVSPropertyOp31
 70
     1
102
RTVSPropertyOp32
 70
     1
  0
XRECORD
  5
EA0
102
{ACAD_REACTORS
330
E9F
102
}
330
E9F
100
AcDbXrecord
280
     1
102
RTVSPropertyOp0
 70
     1
102
RTVSPropertyOp1
 70
     1
102
RTVSPropertyOp2
 70
     1
102
RTVSPropertyOp3
 70
     1
102
RTVSPropertyOp4
 70
     1
102
RTVSPropertyOp5
 70
     1
102
RTVSPropertyOp6
 70
     1
102
RTVSPropertyOp7
 70
     1
102
RTVSPropertyOp8
 70
     1
102
RTVSPropertyOp9
 70
     1
102
RTVSPropertyOp10
 70
     1
102
RTVSPropertyOp11
 70
     1
102
RTVSPropertyOp12
 70
     1
102
RTVSPropertyOp13
 70
     1
102
RTVSPropertyOp14
 70
     1
102
RTVSPropertyOp15
 70
     1
102
RTVSPropertyOp16
 70
     1
102
RTVSPropertyOp17
 70
     1
102
RTVSPropertyOp18
 70
     1
102
RTVSPropertyOp19
 70
     1
102
RTVSPropertyOp20
 70
     1
102
RTVSPropertyOp21
 70
     1
102
RTVSPropertyOp22
 70
     1
102
RTVSPropertyOp23
 70
     1
102
RTVSPropertyOp24
 70
     1
102
RTVSPropertyOp25
 70
     1
102
RTVSPropertyOp26
 70
     1
102
RTVSPropertyOp27
 70
     1
102
RTVSPropertyOp28
 70
     1
102
RTVSPropertyOp29
 70
     1
102
RTVSPropertyOp30
 70
     1
102
RTVSPropertyOp31
 70
     1
102
RTVSPropertyOp32
 70
     1
  0
XRECORD
  5
EBA
102
{ACAD_REACTORS
330
EB9
102
}
330
EB9
100
AcDbXrecord
280
     1
102
RTVSPropertyOp0
 70
     0
102
RTVSPropertyOp1
 70
     0
102
RTVSPropertyOp2
 70
     0
102
RTVSPropertyOp3
 70
     0
102
RTVSPropertyOp4
 70
     0
102
RTVSPropertyOp5
 70
     0
102
RTVSPropertyOp6
 70
     0
102
RTVSPropertyOp7
 70
     0
102
RTVSPropertyOp8
 70
     0
102
RTVSPropertyOp9
 70
     0
102
RTVSPropertyOp10
 70
     0
102
RTVSPropertyOp11
 70
     0
102
RTVSPropertyOp12
 70
     0
102
RTVSPropertyOp13
 70
     0
102
RTVSPropertyOp14
 70
     2
102
RTVSPropertyOp15
 70
     0
102
RTVSPropertyOp16
 70
     0
102
RTVSPropertyOp17
 70
     0
102
RTVSPropertyOp18
 70
     0
102
RTVSPropertyOp19
 70
     0
102
RTVSPropertyOp20
 70
     0
102
RTVSPropertyOp21
 70
     0
102
RTVSPropertyOp22
 70
     0
102
RTVSPropertyOp23
 70
     0
102
RTVSPropertyOp24
 70
     0
102
RTVSPropertyOp25
 70
     0
102
RTVSPropertyOp26
 70
     0
102
RTVSPropertyOp27
 70
     0
102
RTVSPropertyOp28
 70
     1
102
RTVSPropertyOp29
 70
     1
102
RTVSPropertyOp30
 70
     1
102
RTVSPropertyOp31
 70
     1
102
RTVSPropertyOp32
 70
     1
  0
XRECORD
  5
EA8
102
{ACAD_REACTORS
330
EA7
102
}
330
EA7
100
AcDbXrecord
280
     1
102
RTVSPropertyOp0
 70
     1
102
RTVSPropertyOp1
 70
     1
102
RTVSPropertyOp2
 70
     1
102
RTVSPropertyOp3
 70
     1
102
RTVSPropertyOp4
 70
     1
102
RTVSPropertyOp5
 70
     1
102
RTVSPropertyOp6
 70
     1
102
RTVSPropertyOp7
 70
     1
102
RTVSPropertyOp8
 70
     1
102
RTVSPropertyOp9
 70
     1
102
RTVSPropertyOp10
 70
     1
102
RTVSPropertyOp11
 70
     1
102
RTVSPropertyOp12
 70
     1
102
RTVSPropertyOp13
 70
     1
102
RTVSPropertyOp14
 70
     1
102
RTVSPropertyOp15
 70
     1
102
RTVSPropertyOp16
 70
     1
102
RTVSPropertyOp17
 70
     1
102
RTVSPropertyOp18
 70
     1
102
RTVSPropertyOp19
 70
     1
102
RTVSPropertyOp20
 70
     1
102
RTVSPropertyOp21
 70
     1
102
RTVSPropertyOp22
 70
     1
102
RTVSPropertyOp23
 70
     1
102
RTVSPropertyOp24
 70
     1
102
RTVSPropertyOp25
 70
     1
102
RTVSPropertyOp26
 70
     1
102
RTVSPropertyOp27
 70
     1
102
RTVSPropertyOp28
 70
     1
102
RTVSPropertyOp29
 70
     1
102
RTVSPropertyOp30
 70
     1
102
RTVSPropertyOp31
 70
     1
102
RTVSPropertyOp32
 70
     1
  0
XRECORD
  5
E8C
102
{ACAD_REACTORS
330
E8B
102
}
330
E8B
100
AcDbXrecord
280
     1
102
RTVSPropertyOp0
 70
     1
102
RTVSPropertyOp1
 70
     1
102
RTVSPropertyOp2
 70
     1
102
RTVSPropertyOp3
 70
     1
102
RTVSPropertyOp4
 70
     1
102
RTVSPropertyOp5
 70
     1
102
RTVSPropertyOp6
 70
     1
102
RTVSPropertyOp7
 70
     1
102
RTVSPropertyOp8
 70
     1
102
RTVSPropertyOp9
 70
     1
102
RTVSPropertyOp10
 70
     1
102
RTVSPropertyOp11
 70
     1
102
RTVSPropertyOp12
 70
     1
102
RTVSPropertyOp13
 70
     1
102
RTVSPropertyOp14
 70
     1
102
RTVSPropertyOp15
 70
     1
102
RTVSPropertyOp16
 70
     1
102
RTVSPropertyOp17
 70
     1
102
RTVSPropertyOp18
 70
     1
102
RTVSPropertyOp19
 70
     1
102
RTVSPropertyOp20
 70
     1
102
RTVSPropertyOp21
 70
     1
102
RTVSPropertyOp22
 70
     1
102
RTVSPropertyOp23
 70
     1
102
RTVSPropertyOp24
 70
     1
102
RTVSPropertyOp25
 70
     1
102
RTVSPropertyOp26
 70
     1
102
RTVSPropertyOp27
 70
     1
102
RTVSPropertyOp28
 70
     1
102
RTVSPropertyOp29
 70
     1
102
RTVSPropertyOp30
 70
     1
102
RTVSPropertyOp31
 70
     1
102
RTVSPropertyOp32
 70
     1
  0
XRECORD
  5
E8E
102
{ACAD_REACTORS
330
E8D
102
}
330
E8D
100
AcDbXrecord
280
     1
102
RTVSPropertyOp0
 70
     1
102
RTVSPropertyOp1
 70
     1
102
RTVSPropertyOp2
 70
     1
102
RTVSPropertyOp3
 70
     1
102
RTVSPropertyOp4
 70
     1
102
RTVSPropertyOp5
 70
     1
102
RTVSPropertyOp6
 70
     1
102
RTVSPropertyOp7
 70
     1
102
RTVSPropertyOp8
 70
     1
102
RTVSPropertyOp9
 70
     1
102
RTVSPropertyOp10
 70
     1
102
RTVSPropertyOp11
 70
     1
102
RTVSPropertyOp12
 70
     1
102
RTVSPropertyOp13
 70
     1
102
RTVSPropertyOp14
 70
     1
102
RTVSPropertyOp15
 70
     1
102
RTVSPropertyOp16
 70
     1
102
RTVSPropertyOp17
 70
     1
102
RTVSPropertyOp18
 70
     1
102
RTVSPropertyOp19
 70
     1
102
RTVSPropertyOp20
 70
     1
102
RTVSPropertyOp21
 70
     1
102
RTVSPropertyOp22
 70
     1
102
RTVSPropertyOp23
 70
     1
102
RTVSPropertyOp24
 70
     1
102
RTVSPropertyOp25
 70
     1
102
RTVSPropertyOp26
 70
     1
102
RTVSPropertyOp27
 70
     1
102
RTVSPropertyOp28
 70
     1
102
RTVSPropertyOp29
 70
     1
102
RTVSPropertyOp30
 70
     1
102
RTVSPropertyOp31
 70
     1
102
RTVSPropertyOp32
 70
     1
  0
XRECORD
  5
E90
102
{ACAD_REACTORS
330
E8F
102
}
330
E8F
100
AcDbXrecord
280
     1
102
RTVSPropertyOp0
 70
     1
102
RTVSPropertyOp1
 70
     1
102
RTVSPropertyOp2
 70
     1
102
RTVSPropertyOp3
 70
     1
102
RTVSPropertyOp4
 70
     1
102
RTVSPropertyOp5
 70
     1
102
RTVSPropertyOp6
 70
     1
102
RTVSPropertyOp7
 70
     1
102
RTVSPropertyOp8
 70
     1
102
RTVSPropertyOp9
 70
     1
102
RTVSPropertyOp10
 70
     1
102
RTVSPropertyOp11
 70
     1
102
RTVSPropertyOp12
 70
     1
102
RTVSPropertyOp13
 70
     1
102
RTVSPropertyOp14
 70
     1
102
RTVSPropertyOp15
 70
     1
102
RTVSPropertyOp16
 70
     1
102
RTVSPropertyOp17
 70
     1
102
RTVSPropertyOp18
 70
     1
102
RTVSPropertyOp19
 70
     1
102
RTVSPropertyOp20
 70
     1
102
RTVSPropertyOp21
 70
     1
102
RTVSPropertyOp22
 70
     1
102
RTVSPropertyOp23
 70
     1
102
RTVSPropertyOp24
 70
     1
102
RTVSPropertyOp25
 70
     1
102
RTVSPropertyOp26
 70
     1
102
RTVSPropertyOp27
 70
     1
102
RTVSPropertyOp28
 70
     1
102
RTVSPropertyOp29
 70
     1
102
RTVSPropertyOp30
 70
     1
102
RTVSPropertyOp31
 70
     1
102
RTVSPropertyOp32
 70
     1
  0
XRECORD
  5
E92
102
{ACAD_REACTORS
330
E91
102
}
330
E91
100
AcDbXrecord
280
     1
102
RTVSPropertyOp0
 70
     1
102
RTVSPropertyOp1
 70
     1
102
RTVSPropertyOp2
 70
     1
102
RTVSPropertyOp3
 70
     1
102
RTVSPropertyOp4
 70
     1
102
RTVSPropertyOp5
 70
     1
102
RTVSPropertyOp6
 70
     1
102
RTVSPropertyOp7
 70
     1
102
RTVSPropertyOp8
 70
     1
102
RTVSPropertyOp9
 70
     1
102
RTVSPropertyOp10
 70
     1
102
RTVSPropertyOp11
 70
     1
102
RTVSPropertyOp12
 70
     1
102
RTVSPropertyOp13
 70
     1
102
RTVSPropertyOp14
 70
     1
102
RTVSPropertyOp15
 70
     1
102
RTVSPropertyOp16
 70
     1
102
RTVSPropertyOp17
 70
     1
102
RTVSPropertyOp18
 70
     1
102
RTVSPropertyOp19
 70
     1
102
RTVSPropertyOp20
 70
     1
102
RTVSPropertyOp21
 70
     1
102
RTVSPropertyOp22
 70
     1
102
RTVSPropertyOp23
 70
     1
102
RTVSPropertyOp24
 70
     1
102
RTVSPropertyOp25
 70
     1
102
RTVSPropertyOp26
 70
     1
102
RTVSPropertyOp27
 70
     1
102
RTVSPropertyOp28
 70
     1
102
RTVSPropertyOp29
 70
     1
102
RTVSPropertyOp30
 70
     1
102
RTVSPropertyOp31
 70
     1
102
RTVSPropertyOp32
 70
     1
  0
XRECORD
  5
E9A
102
{ACAD_REACTORS
330
E99
102
}
330
E99
100
AcDbXrecord
280
     1
102
RTVSPropertyOp0
 70
     1
102
RTVSPropertyOp1
 70
     1
102
RTVSPropertyOp2
 70
     1
102
RTVSPropertyOp3
 70
     1
102
RTVSPropertyOp4
 70
     1
102
RTVSPropertyOp5
 70
     1
102
RTVSPropertyOp6
 70
     1
102
RTVSPropertyOp7
 70
     1
102
RTVSPropertyOp8
 70
     1
102
RTVSPropertyOp9
 70
     1
102
RTVSPropertyOp10
 70
     1
102
RTVSPropertyOp11
 70
     1
102
RTVSPropertyOp12
 70
     1
102
RTVSPropertyOp13
 70
     1
102
RTVSPropertyOp14
 70
     1
102
RTVSPropertyOp15
 70
     1
102
RTVSPropertyOp16
 70
     1
102
RTVSPropertyOp17
 70
     1
102
RTVSPropertyOp18
 70
     1
102
RTVSPropertyOp19
 70
     1
102
RTVSPropertyOp20
 70
     1
102
RTVSPropertyOp21
 70
     1
102
RTVSPropertyOp22
 70
     1
102
RTVSPropertyOp23
 70
     1
102
RTVSPropertyOp24
 70
     1
102
RTVSPropertyOp25
 70
     1
102
RTVSPropertyOp26
 70
     1
102
RTVSPropertyOp27
 70
     1
102
RTVSPropertyOp28
 70
     1
102
RTVSPropertyOp29
 70
     1
102
RTVSPropertyOp30
 70
     1
102
RTVSPropertyOp31
 70
     1
102
RTVSPropertyOp32
 70
     1
  0
XRECORD
  5
EB6
102
{ACAD_REACTORS
330
EB5
102
}
330
EB5
100
AcDbXrecord
280
     1
102
RTVSPropertyOp0
 70
     0
102
RTVSPropertyOp1
 70
     0
102
RTVSPropertyOp2
 70
     0
102
RTVSPropertyOp3
 70
     0
102
RTVSPropertyOp4
 70
     0
102
RTVSPropertyOp5
 70
     0
102
RTVSPropertyOp6
 70
     0
102
RTVSPropertyOp7
 70
     0
102
RTVSPropertyOp8
 70
     0
102
RTVSPropertyOp9
 70
     0
102
RTVSPropertyOp10
 70
     0
102
RTVSPropertyOp11
 70
     0
102
RTVSPropertyOp12
 70
     0
102
RTVSPropertyOp13
 70
     0
102
RTVSPropertyOp14
 70
     2
102
RTVSPropertyOp15
 70
     0
102
RTVSPropertyOp16
 70
     0
102
RTVSPropertyOp17
 70
     0
102
RTVSPropertyOp18
 70
     0
102
RTVSPropertyOp19
 70
     0
102
RTVSPropertyOp20
 70
     0
102
RTVSPropertyOp21
 70
     0
102
RTVSPropertyOp22
 70
     0
102
RTVSPropertyOp23
 70
     0
102
RTVSPropertyOp24
 70
     0
102
RTVSPropertyOp25
 70
     0
102
RTVSPropertyOp26
 70
     0
102
RTVSPropertyOp27
 70
     0
102
RTVSPropertyOp28
 70
     1
102
RTVSPropertyOp29
 70
     1
102
RTVSPropertyOp30
 70
     1
102
RTVSPropertyOp31
 70
     1
102
RTVSPropertyOp32
 70
     1
  0
XRECORD
  5
EA6
102
{ACAD_REACTORS
330
EA5
102
}
330
EA5
100
AcDbXrecord
280
     1
102
RTVSPropertyOp0
 70
     1
102
RTVSPropertyOp1
 70
     1
102
RTVSPropertyOp2
 70
     1
102
RTVSPropertyOp3
 70
     1
102
RTVSPropertyOp4
 70
     1
102
RTVSPropertyOp5
 70
     1
102
RTVSPropertyOp6
 70
     1
102
RTVSPropertyOp7
 70
     1
102
RTVSPropertyOp8
 70
     1
102
RTVSPropertyOp9
 70
     1
102
RTVSPropertyOp10
 70
     1
102
RTVSPropertyOp11
 70
     1
102
RTVSPropertyOp12
 70
     1
102
RTVSPropertyOp13
 70
     1
102
RTVSPropertyOp14
 70
     1
102
RTVSPropertyOp15
 70
     1
102
RTVSPropertyOp16
 70
     1
102
RTVSPropertyOp17
 70
     1
102
RTVSPropertyOp18
 70
     1
102
RTVSPropertyOp19
 70
     1
102
RTVSPropertyOp20
 70
     1
102
RTVSPropertyOp21
 70
     1
102
RTVSPropertyOp22
 70
     1
102
RTVSPropertyOp23
 70
     1
102
RTVSPropertyOp24
 70
     1
102
RTVSPropertyOp25
 70
     1
102
RTVSPropertyOp26
 70
     1
102
RTVSPropertyOp27
 70
     1
102
RTVSPropertyOp28
 70
     1
102
RTVSPropertyOp29
 70
     1
102
RTVSPropertyOp30
 70
     1
102
RTVSPropertyOp31
 70
     1
102
RTVSPropertyOp32
 70
     1
  0
XRECORD
  5
EB8
102
{ACAD_REACTORS
330
EB7
102
}
330
EB7
100
AcDbXrecord
280
     1
102
RTVSPropertyOp0
 70
     0
102
RTVSPropertyOp1
 70
     0
102
RTVSPropertyOp2
 70
     0
102
RTVSPropertyOp3
 70
     0
102
RTVSPropertyOp4
 70
     0
102
RTVSPropertyOp5
 70
     0
102
RTVSPropertyOp6
 70
     0
102
RTVSPropertyOp7
 70
     0
102
RTVSPropertyOp8
 70
     0
102
RTVSPropertyOp9
 70
     0
102
RTVSPropertyOp10
 70
     0
102
RTVSPropertyOp11
 70
     0
102
RTVSPropertyOp12
 70
     0
102
RTVSPropertyOp13
 70
     0
102
RTVSPropertyOp14
 70
     2
102
RTVSPropertyOp15
 70
     0
102
RTVSPropertyOp16
 70
     0
102
RTVSPropertyOp17
 70
     0
102
RTVSPropertyOp18
 70
     0
102
RTVSPropertyOp19
 70
     0
102
RTVSPropertyOp20
 70
     0
102
RTVSPropertyOp21
 70
     0
102
RTVSPropertyOp22
 70
     0
102
RTVSPropertyOp23
 70
     0
102
RTVSPropertyOp24
 70
     0
102
RTVSPropertyOp25
 70
     0
102
RTVSPropertyOp26
 70
     0
102
RTVSPropertyOp27
 70
     0
102
RTVSPropertyOp28
 70
     1
102
RTVSPropertyOp29
 70
     1
102
RTVSPropertyOp30
 70
     1
102
RTVSPropertyOp31
 70
     1
102
RTVSPropertyOp32
 70
     1
  0
XRECORD
  5
E9E
102
{ACAD_REACTORS
330
E9D
102
}
330
E9D
100
AcDbXrecord
280
     1
102
RTVSPropertyOp0
 70
     1
102
RTVSPropertyOp1
 70
     1
102
RTVSPropertyOp2
 70
     1
102
RTVSPropertyOp3
 70
     1
102
RTVSPropertyOp4
 70
     1
102
RTVSPropertyOp5
 70
     1
102
RTVSPropertyOp6
 70
     1
102
RTVSPropertyOp7
 70
     1
102
RTVSPropertyOp8
 70
     1
102
RTVSPropertyOp9
 70
     1
102
RTVSPropertyOp10
 70
     1
102
RTVSPropertyOp11
 70
     1
102
RTVSPropertyOp12
 70
     1
102
RTVSPropertyOp13
 70
     1
102
RTVSPropertyOp14
 70
     1
102
RTVSPropertyOp15
 70
     1
102
RTVSPropertyOp16
 70
     1
102
RTVSPropertyOp17
 70
     1
102
RTVSPropertyOp18
 70
     1
102
RTVSPropertyOp19
 70
     1
102
RTVSPropertyOp20
 70
     1
102
RTVSPropertyOp21
 70
     1
102
RTVSPropertyOp22
 70
     1
102
RTVSPropertyOp23
 70
     1
102
RTVSPropertyOp24
 70
     1
102
RTVSPropertyOp25
 70
     1
102
RTVSPropertyOp26
 70
     1
102
RTVSPropertyOp27
 70
     1
102
RTVSPropertyOp28
 70
     1
102
RTVSPropertyOp29
 70
     1
102
RTVSPropertyOp30
 70
     1
102
RTVSPropertyOp31
 70
     1
102
RTVSPropertyOp32
 70
     1
  0
XRECORD
  5
EB4
102
{ACAD_REACTORS
330
EB3
102
}
330
EB3
100
AcDbXrecord
280
     1
102
RTVSPropertyOp0
 70
     1
102
RTVSPropertyOp1
 70
     1
102
RTVSPropertyOp2
 70
     1
102
RTVSPropertyOp3
 70
     1
102
RTVSPropertyOp4
 70
     1
102
RTVSPropertyOp5
 70
     1
102
RTVSPropertyOp6
 70
     1
102
RTVSPropertyOp7
 70
     1
102
RTVSPropertyOp8
 70
     1
102
RTVSPropertyOp9
 70
     1
102
RTVSPropertyOp10
 70
     1
102
RTVSPropertyOp11
 70
     1
102
RTVSPropertyOp12
 70
     1
102
RTVSPropertyOp13
 70
     1
102
RTVSPropertyOp14
 70
     1
102
RTVSPropertyOp15
 70
     1
102
RTVSPropertyOp16
 70
     1
102
RTVSPropertyOp17
 70
     1
102
RTVSPropertyOp18
 70
     1
102
RTVSPropertyOp19
 70
     1
102
RTVSPropertyOp20
 70
     1
102
RTVSPropertyOp21
 70
     1
102
RTVSPropertyOp22
 70
     1
102
RTVSPropertyOp23
 70
     1
102
RTVSPropertyOp24
 70
     1
102
RTVSPropertyOp25
 70
     1
102
RTVSPropertyOp26
 70
     1
102
RTVSPropertyOp27
 70
     1
102
RTVSPropertyOp28
 70
     1
102
RTVSPropertyOp29
 70
     1
102
RTVSPropertyOp30
 70
     1
102
RTVSPropertyOp31
 70
     1
102
RTVSPropertyOp32
 70
     1
  0
XRECORD
  5
EB2
102
{ACAD_REACTORS
330
EB1
102
}
330
EB1
100
AcDbXrecord
280
     1
102
RTVSPropertyOp0
 70
     1
102
RTVSPropertyOp1
 70
     1
102
RTVSPropertyOp2
 70
     1
102
RTVSPropertyOp3
 70
     1
102
RTVSPropertyOp4
 70
     1
102
RTVSPropertyOp5
 70
     1
102
RTVSPropertyOp6
 70
     1
102
RTVSPropertyOp7
 70
     1
102
RTVSPropertyOp8
 70
     1
102
RTVSPropertyOp9
 70
     1
102
RTVSPropertyOp10
 70
     1
102
RTVSPropertyOp11
 70
     1
102
RTVSPropertyOp12
 70
     1
102
RTVSPropertyOp13
 70
     1
102
RTVSPropertyOp14
 70
     1
102
RTVSPropertyOp15
 70
     1
102
RTVSPropertyOp16
 70
     1
102
RTVSPropertyOp17
 70
     1
102
RTVSPropertyOp18
 70
     1
102
RTVSPropertyOp19
 70
     1
102
RTVSPropertyOp20
 70
     1
102
RTVSPropertyOp21
 70
     1
102
RTVSPropertyOp22
 70
     1
102
RTVSPropertyOp23
 70
     1
102
RTVSPropertyOp24
 70
     1
102
RTVSPropertyOp25
 70
     1
102
RTVSPropertyOp26
 70
     1
102
RTVSPropertyOp27
 70
     1
102
RTVSPropertyOp28
 70
     1
102
RTVSPropertyOp29
 70
     1
102
RTVSPropertyOp30
 70
     1
102
RTVSPropertyOp31
 70
     1
102
RTVSPropertyOp32
 70
     1
  0
XRECORD
  5
EAC
102
{ACAD_REACTORS
330
EAB
102
}
330
EAB
100
AcDbXrecord
280
     1
102
RTVSPropertyOp0
 70
     1
102
RTVSPropertyOp1
 70
     1
102
RTVSPropertyOp2
 70
     1
102
RTVSPropertyOp3
 70
     1
102
RTVSPropertyOp4
 70
     1
102
RTVSPropertyOp5
 70
     1
102
RTVSPropertyOp6
 70
     1
102
RTVSPropertyOp7
 70
     1
102
RTVSPropertyOp8
 70
     1
102
RTVSPropertyOp9
 70
     1
102
RTVSPropertyOp10
 70
     1
102
RTVSPropertyOp11
 70
     1
102
RTVSPropertyOp12
 70
     1
102
RTVSPropertyOp13
 70
     1
102
RTVSPropertyOp14
 70
     1
102
RTVSPropertyOp15
 70
     1
102
RTVSPropertyOp16
 70
     1
102
RTVSPropertyOp17
 70
     1
102
RTVSPropertyOp18
 70
     1
102
RTVSPropertyOp19
 70
     1
102
RTVSPropertyOp20
 70
     1
102
RTVSPropertyOp21
 70
     1
102
RTVSPropertyOp22
 70
     1
102
RTVSPropertyOp23
 70
     1
102
RTVSPropertyOp24
 70
     1
102
RTVSPropertyOp25
 70
     1
102
RTVSPropertyOp26
 70
     1
102
RTVSPropertyOp27
 70
     1
102
RTVSPropertyOp28
 70
     1
102
RTVSPropertyOp29
 70
     1
102
RTVSPropertyOp30
 70
     1
102
RTVSPropertyOp31
 70
     1
102
RTVSPropertyOp32
 70
     1
  0
XRECORD
  5
EAE
102
{ACAD_REACTORS
330
EAD
102
}
330
EAD
100
AcDbXrecord
280
     1
102
RTVSPropertyOp0
 70
     1
102
RTVSPropertyOp1
 70
     1
102
RTVSPropertyOp2
 70
     1
102
RTVSPropertyOp3
 70
     1
102
RTVSPropertyOp4
 70
     1
102
RTVSPropertyOp5
 70
     1
102
RTVSPropertyOp6
 70
     1
102
RTVSPropertyOp7
 70
     1
102
RTVSPropertyOp8
 70
     1
102
RTVSPropertyOp9
 70
     1
102
RTVSPropertyOp10
 70
     1
102
RTVSPropertyOp11
 70
     1
102
RTVSPropertyOp12
 70
     1
102
RTVSPropertyOp13
 70
     1
102
RTVSPropertyOp14
 70
     1
102
RTVSPropertyOp15
 70
     1
102
RTVSPropertyOp16
 70
     1
102
RTVSPropertyOp17
 70
     1
102
RTVSPropertyOp18
 70
     1
102
RTVSPropertyOp19
 70
     1
102
RTVSPropertyOp20
 70
     1
102
RTVSPropertyOp21
 70
     1
102
RTVSPropertyOp22
 70
     1
102
RTVSPropertyOp23
 70
     1
102
RTVSPropertyOp24
 70
     1
102
RTVSPropertyOp25
 70
     1
102
RTVSPropertyOp26
 70
     1
102
RTVSPropertyOp27
 70
     1
102
RTVSPropertyOp28
 70
     1
102
RTVSPropertyOp29
 70
     1
102
RTVSPropertyOp30
 70
     1
102
RTVSPropertyOp31
 70
     1
102
RTVSPropertyOp32
 70
     1
  0
XRECORD
  5
EA4
102
{ACAD_REACTORS
330
EA3
102
}
330
EA3
100
AcDbXrecord
280
     1
102
RTVSPropertyOp0
 70
     1
102
RTVSPropertyOp1
 70
     1
102
RTVSPropertyOp2
 70
     1
102
RTVSPropertyOp3
 70
     1
102
RTVSPropertyOp4
 70
     1
102
RTVSPropertyOp5
 70
     1
102
RTVSPropertyOp6
 70
     1
102
RTVSPropertyOp7
 70
     1
102
RTVSPropertyOp8
 70
     1
102
RTVSPropertyOp9
 70
     1
102
RTVSPropertyOp10
 70
     1
102
RTVSPropertyOp11
 70
     1
102
RTVSPropertyOp12
 70
     1
102
RTVSPropertyOp13
 70
     1
102
RTVSPropertyOp14
 70
     1
102
RTVSPropertyOp15
 70
     1
102
RTVSPropertyOp16
 70
     1
102
RTVSPropertyOp17
 70
     1
102
RTVSPropertyOp18
 70
     1
102
RTVSPropertyOp19
 70
     1
102
RTVSPropertyOp20
 70
     1
102
RTVSPropertyOp21
 70
     1
102
RTVSPropertyOp22
 70
     1
102
RTVSPropertyOp23
 70
     1
102
RTVSPropertyOp24
 70
     1
102
RTVSPropertyOp25
 70
     1
102
RTVSPropertyOp26
 70
     1
102
RTVSPropertyOp27
 70
     1
102
RTVSPropertyOp28
 70
     1
102
RTVSPropertyOp29
 70
     1
102
RTVSPropertyOp30
 70
     1
102
RTVSPropertyOp31
 70
     1
102
RTVSPropertyOp32
 70
     1
  0
XRECORD
  5
E98
102
{ACAD_REACTORS
330
E97
102
}
330
E97
100
AcDbXrecord
280
     1
102
RTVSPropertyOp0
 70
     1
102
RTVSPropertyOp1
 70
     1
102
RTVSPropertyOp2
 70
     1
102
RTVSPropertyOp3
 70
     1
102
RTVSPropertyOp4
 70
     1
102
RTVSPropertyOp5
 70
     1
102
RTVSPropertyOp6
 70
     1
102
RTVSPropertyOp7
 70
     1
102
RTVSPropertyOp8
 70
     1
102
RTVSPropertyOp9
 70
     1
102
RTVSPropertyOp10
 70
     1
102
RTVSPropertyOp11
 70
     1
102
RTVSPropertyOp12
 70
     1
102
RTVSPropertyOp13
 70
     1
102
RTVSPropertyOp14
 70
     1
102
RTVSPropertyOp15
 70
     1
102
RTVSPropertyOp16
 70
     1
102
RTVSPropertyOp17
 70
     1
102
RTVSPropertyOp18
 70
     1
102
RTVSPropertyOp19
 70
     1
102
RTVSPropertyOp20
 70
     1
102
RTVSPropertyOp21
 70
     1
102
RTVSPropertyOp22
 70
     1
102
RTVSPropertyOp23
 70
     1
102
RTVSPropertyOp24
 70
     1
102
RTVSPropertyOp25
 70
     1
102
RTVSPropertyOp26
 70
     1
102
RTVSPropertyOp27
 70
     1
102
RTVSPropertyOp28
 70
     1
102
RTVSPropertyOp29
 70
     1
102
RTVSPropertyOp30
 70
     1
102
RTVSPropertyOp31
 70
     1
102
RTVSPropertyOp32
 70
     1
  0
XRECORD
  5
EB0
102
{ACAD_REACTORS
330
EAF
102
}
330
EAF
100
AcDbXrecord
280
     1
102
RTVSPropertyOp0
 70
     1
102
RTVSPropertyOp1
 70
     1
102
RTVSPropertyOp2
 70
     1
102
RTVSPropertyOp3
 70
     1
102
RTVSPropertyOp4
 70
     1
102
RTVSPropertyOp5
 70
     1
102
RTVSPropertyOp6
 70
     1
102
RTVSPropertyOp7
 70
     1
102
RTVSPropertyOp8
 70
     1
102
RTVSPropertyOp9
 70
     1
102
RTVSPropertyOp10
 70
     1
102
RTVSPropertyOp11
 70
     1
102
RTVSPropertyOp12
 70
     1
102
RTVSPropertyOp13
 70
     1
102
RTVSPropertyOp14
 70
     1
102
RTVSPropertyOp15
 70
     1
102
RTVSPropertyOp16
 70
     1
102
RTVSPropertyOp17
 70
     1
102
RTVSPropertyOp18
 70
     1
102
RTVSPropertyOp19
 70
     1
102
RTVSPropertyOp20
 70
     1
102
RTVSPropertyOp21
 70
     1
102
RTVSPropertyOp22
 70
     1
102
RTVSPropertyOp23
 70
     1
102
RTVSPropertyOp24
 70
     1
102
RTVSPropertyOp25
 70
     1
102
RTVSPropertyOp26
 70
     1
102
RTVSPropertyOp27
 70
     1
102
RTVSPropertyOp28
 70
     1
102
RTVSPropertyOp29
 70
     1
102
RTVSPropertyOp30
 70
     1
102
RTVSPropertyOp31
 70
     1
102
RTVSPropertyOp32
 70
     1
  0
ENDSEC
  0
EOF
