  0
SECTION
  2
HEADER
  9
$ACADVER
  1
AC1015
  9
$ACADMAINTVER
 70
    18
  9
$DWGCODEPAGE
  3
ANSI_1252
  9
$INSBASE
 10
0.0
 20
0.0
 30
0.0
  9
$EXTMIN
 10
0.0
 20
0.0
 30
0.0
  9
$EXTMAX
 10
90.66666666666666
 20
58.66666666666667
 30
0.0
  9
$LIMMIN
 10
0.0
 20
0.0
  9
$LIMMAX
 10
90.66666666666666
 20
58.66666666666667
  9
$ORTHOMODE
 70
     0
  9
$REGENMODE
 70
     1
  9
$FILLMODE
 70
     1
  9
$QTEXTMODE
 70
     0
  9
$MIRRTEXT
 70
     0
  9
$LTSCALE
 40
5.333333333333333
  9
$ATTMODE
 70
     1
  9
$TEXTSIZE
 40
0.2
  9
$TRACEWID
 40
0.05
  9
$TEXTSTYLE
  7
Standard
  9
$CLAYER
  8
0
  9
$CELTYPE
  6
ByLayer
  9
$CECOLOR
 62
   256
  9
$CELTSCALE
 40
1.0
  9
$DISPSILH
 70
     0
  9
$DIMSCALE
 40
1.0
  9
$DIMASZ
 40
0.0708661417322835
  9
$DIMEXO
 40
0.0625
  9
$DIMDLI
 40
0.38
  9
$DIMRND
 40
0.0
  9
$DIMDLE
 40
0.0
  9
$DIMEXE
 40
0.18
  9
$DIMTP
 40
0.0
  9
$DIMTM
 40
0.0
  9
$DIMTXT
 40
0.0708661417322835
  9
$DIMCEN
 40
0.09
  9
$DIMTSZ
 40
0.0
  9
$DIMTOL
 70
     0
  9
$DIMLIM
 70
     0
  9
$DIMTIH
 70
     1
  9
$DIMTOH
 70
     1
  9
$DIMSE1
 70
     0
  9
$DIMSE2
 70
     0
  9
$DIMTAD
 70
     0
  9
$DIMZIN
 70
     0
  9
$DIMBLK
  1

  9
$DIMASO
 70
     1
  9
$DIMSHO
 70
     1
  9
$DIMPOST
  1

  9
$DIMAPOST
  1

  9
$DIMALT
 70
     0
  9
$DIMALTD
 70
     2
  9
$DIMALTF
 40
25.4
  9
$DIMLFAC
 40
1.0
  9
$DIMTOFL
 70
     0
  9
$DIMTVP
 40
0.0
  9
$DIMTIX
 70
     0
  9
$DIMSOXD
 70
     0
  9
$DIMSAH
 70
     0
  9
$DIMBLK1
  1

  9
$DIMBLK2
  1

  9
$DIMSTYLE
  2
STANDARD
  9
$DIMCLRD
 70
     0
  9
$DIMCLRE
 70
     0
  9
$DIMCLRT
 70
     0
  9
$DIMTFAC
 40
1.0
  9
$DIMGAP
 40
0.09
  9
$DIMJUST
 70
     0
  9
$DIMSD1
 70
     0
  9
$DIMSD2
 70
     0
  9
$DIMTOLJ
 70
     1
  9
$DIMTZIN
 70
     0
  9
$DIMALTZ
 70
     0
  9
$DIMALTTZ
 70
     0
  9
$DIMUPT
 70
     0
  9
$DIMDEC
 70
     4
  9
$DIMTDEC
 70
     4
  9
$DIMALTU
 70
     2
  9
$DIMALTTD
 70
     2
  9
$DIMTXSTY
  7
Standard
  9
$DIMAUNIT
 70
     0
  9
$DIMADEC
 70
     0
  9
$DIMALTRND
 40
0.0
  9
$DIMAZIN
 70
     0
  9
$DIMDSEP
 70
    46
  9
$DIMATFIT
 70
     3
  9
$DIMFRAC
 70
     0
  9
$DIMLDRBLK
  1

  9
$DIMLUNIT
 70
     2
  9
$DIMLWD
 70
    -2
  9
$DIMLWE
 70
    -2
  9
$DIMTMOVE
 70
     0
  9
$LUNITS
 70
     2
  9
$LUPREC
 70
     4
  9
$SKETCHINC
 40
0.1
  9
$FILLETRAD
 40
0.0
  9
$AUNITS
 70
     0
  9
$AUPREC
 70
     0
  9
$MENU
  1
.
  9
$ELEVATION
 40
0.0
  9
$PELEVATION
 40
0.0
  9
$THICKNESS
 40
0.0
  9
$LIMCHECK
 70
     0
  9
$CHAMFERA
 40
0.0
  9
$CHAMFERB
 40
0.0
  9
$CHAMFERC
 40
0.0
  9
$CHAMFERD
 40
0.0
  9
$SKPOLY
 70
     0
  9
$TDCREATE
 40
2455944.490935127
  9
$TDUCREATE
 40
2455944.740935127
  9
$TDUPDATE
 40
2455944.490935312
  9
$TDUUPDATE
 40
2455944.740935313
  9
$TDINDWG
 40
0.0000383449
  9
$TDUSRTIMER
 40
0.0000383449
  9
$USRTIMER
 70
     1
  9
$ANGBASE
 50
0.0
  9
$ANGDIR
 70
     0
  9
$PDMODE
 70
     0
  9
$PDSIZE
 40
0.0
  9
$PLINEWID
 40
0.0
  9
$SPLFRAME
 70
     0
  9
$SPLINETYPE
 70
     6
  9
$SPLINESEGS
 70
     8
  9
$HANDSEED
  5
E6F
  9
$SURFTAB1
 70
     6
  9
$SURFTAB2
 70
     6
  9
$SURFTYPE
 70
     6
  9
$SURFU
 70
     6
  9
$SURFV
 70
     6
  9
$UCSBASE
  2

  9
$UCSNAME
  2

  9
$UCSORG
 10
0.0
 20
0.0
 30
0.0
  9
$UCSXDIR
 10
1.0
 20
0.0
 30
0.0
  9
$UCSYDIR
 10
0.0
 20
1.0
 30
0.0
  9
$UCSORTHOREF
  2

  9
$UCSORTHOVIEW
 70
     0
  9
$UCSORGTOP
 10
0.0
 20
0.0
 30
0.0
  9
$UCSORGBOTTOM
 10
0.0
 20
0.0
 30
0.0
  9
$UCSORGLEFT
 10
0.0
 20
0.0
 30
0.0
  9
$UCSORGRIGHT
 10
0.0
 20
0.0
 30
0.0
  9
$UCSORGFRONT
 10
0.0
 20
0.0
 30
0.0
  9
$UCSORGBACK
 10
0.0
 20
0.0
 30
0.0
  9
$PUCSBASE
  2

  9
$PUCSNAME
  2

  9
$PUCSORG
 10
0.0
 20
0.0
 30
0.0
  9
$PUCSXDIR
 10
1.0
 20
0.0
 30
0.0
  9
$PUCSYDIR
 10
0.0
 20
1.0
 30
0.0
  9
$PUCSORTHOREF
  2

  9
$PUCSORTHOVIEW
 70
     0
  9
$PUCSORGTOP
 10
0.0
 20
0.0
 30
0.0
  9
$PUCSORGBOTTOM
 10
0.0
 20
0.0
 30
0.0
  9
$PUCSORGLEFT
 10
0.0
 20
0.0
 30
0.0
  9
$PUCSORGRIGHT
 10
0.0
 20
0.0
 30
0.0
  9
$PUCSORGFRONT
 10
0.0
 20
0.0
 30
0.0
  9
$PUCSORGBACK
 10
0.0
 20
0.0
 30
0.0
  9
$USERI1
 70
     0
  9
$USERI2
 70
     0
  9
$USERI3
 70
     0
  9
$USERI4
 70
     0
  9
$USERI5
 70
     0
  9
$USERR1
 40
0.0
  9
$USERR2
 40
0.0
  9
$USERR3
 40
0.0
  9
$USERR4
 40
0.0
  9
$USERR5
 40
0.0
  9
$WORLDVIEW
 70
     1
  9
$SHADEDGE
 70
     3
  9
$SHADEDIF
 70
    70
  9
$TILEMODE
 70
     1
  9
$MAXACTVP
 70
    64
  9
$PINSBASE
 10
0.0
 20
0.0
 30
0.0
  9
$PLIMCHECK
 70
     0
  9
$PEXTMIN
 10
0.0
 20
0.0
 30
0.0
  9
$PEXTMAX
 10
90.66666666666666
 20
58.66666666666667
 30
0.0
  9
$PLIMMIN
 10
0.0
 20
0.0
  9
$PLIMMAX
 10
90.66666666666666
 20
58.66666666666667
  9
$UNITMODE
 70
     0
  9
$VISRETAIN
 70
     1
  9
$PLINEGEN
 70
     0
  9
$PSLTSCALE
 70
     1
  9
$TREEDEPTH
 70
  3020
  9
$CMLSTYLE
  2
Standard
  9
$CMLJUST
 70
     0
  9
$CMLSCALE
 40
1.0
  9
$PROXYGRAPHICS
 70
     1
  9
$MEASUREMENT
 70
     0
  9
$CELWEIGHT
370
    -1
  9
$ENDCAPS
280
     0
  9
$JOINSTYLE
280
     0
  9
$LWDISPLAY
290
     0
  9
$INSUNITS
 70
     1
  9
$HYPERLINKBASE
  1

  9
$STYLESHEET
  1

  9
$XEDIT
290
     1
  9
$CEPSNTYPE
380
     0
  9
$PSTYLEMODE
290
     1
  9
$FINGERPRINTGUID
  2
{875D280A-9258-4D06-9349-8B88E21C1E9C}
  9
$VERSIONGUID
  2
{28EBA918-55D3-4810-B064-1E19C346C56E}
  9
$EXTNAMES
290
     1
  9
$PSVPSCALE
 40
0.0
  9
$OLESTARTUP
290
     0
  0
ENDSEC
  0
SECTION
  2
CLASSES
  0
CLASS
  1
ACDBDICTIONARYWDFLT
  2
AcDbDictionaryWithDefault
  3
ObjectDBX Classes
 90
        0
280
     0
281
     0
  0
CLASS
  1
MATERIAL
  2
AcDbMaterial
  3
ObjectDBX Classes
 90
     1153
280
     0
281
     0
  0
CLASS
  1
VISUALSTYLE
  2
AcDbVisualStyle
  3
ObjectDBX Classes
 90
     4095
280
     0
281
     0
  0
CLASS
  1
SCALE
  2
AcDbScale
  3
ObjectDBX Classes
 90
     1153
280
     0
281
     0
  0
CLASS
  1
TABLESTYLE
  2
AcDbTableStyle
  3
ObjectDBX Classes
 90
     4095
280
     0
281
     0
  0
CLASS
  1
MLEADERSTYLE
  2
AcDbMLeaderStyle
  3
ACDB_MLEADERSTYLE_CLASS
 90
     4095
280
     0
281
     0
  0
CLASS
  1
DICTIONARYVAR
  2
AcDbDictionaryVar
  3
ObjectDBX Classes
 90
        0
280
     0
281
     0
  0
CLASS
  1
CELLSTYLEMAP
  2
AcDbCellStyleMap
  3
ObjectDBX Classes
 90
     1152
280
     0
281
     0
  0
CLASS
  1
ACDBPLACEHOLDER
  2
AcDbPlaceHolder
  3
ObjectDBX Classes
 90
        0
280
     0
281
     0
  0
CLASS
  1
LAYOUT
  2
AcDbLayout
  3
ObjectDBX Classes
 90
        0
280
     0
281
     0
  0
ENDSEC
  0
SECTION
  2
TABLES
  0
TABLE
  2
VPORT
  5
8
330
0
100
AcDbSymbolTable
 70
     1
  0
VPORT
  5
57
330
8
100
AcDbSymbolTableRecord
100
AcDbViewportTableRecord
  2
*Active
 70
     0
 10
0.0
 20
0.0
 11
1.0
 21
1.0
 12
45.33333333333333
 22
29.33333333333333
 13
0.0
 23
0.0
 14
1.0
 24
1.0
 15
0.0
 25
0.0
 16
0.0
 26
0.0
 36
1.0
 17
0.0
 27
0.0
 37
0.0
 40
58.66666666666667
 41
1.545454545454545
 42
50.0
 43
0.0
 44
0.0
 50
0.0
 51
0.0
 71
     0
 72
   100
 73
     1
 74
     1
 75
     0
 76
     0
 77
     0
 78
     0
281
     0
 65
     1
110
0.0
120
0.0
130
0.0
111
1.0
121
0.0
131
0.0
112
0.0
122
1.0
132
0.0
 79
     0
146
0.0
  0
ENDTAB
  0
TABLE
  2
LTYPE
  5
5
330
0
100
AcDbSymbolTable
 70
    59
  0
LTYPE
  5
5B
330
5
100
AcDbSymbolTableRecord
100
AcDbLinetypeTableRecord
  2
ByBlock
 70
     0
  3

 72
    65
 73
     0
 40
0.0
  0
LTYPE
  5
5C
330
5
100
AcDbSymbolTableRecord
100
AcDbLinetypeTableRecord
  2
ByLayer
 70
     0
  3

 72
    65
 73
     0
 40
0.0
  0
LTYPE
  5
5D
330
5
100
AcDbSymbolTableRecord
100
AcDbLinetypeTableRecord
  2
Continuous
 70
     0
  3
Solid line
 72
    65
 73
     0
 40
0.0
  0
LTYPE
  5
DE
330
5
100
AcDbSymbolTableRecord
100
AcDbLinetypeTableRecord
  2
BY_STANDARD
 70
     0
  3
By Standard ____________    ____    ____   _
 72
    65
 73
     6
 40
1.240299999999999
 49
0.6614
 74
     0
 49
-0.0827
 74
     0
 49
0.1654
 74
     0
 49
-0.0827
 74
     0
 49
0.1654
 74
     0
 49
-0.0827
 74
     0
  0
LTYPE
  5
DF
330
5
100
AcDbSymbolTableRecord
100
AcDbLinetypeTableRecord
  2
CHAIN
 70
     0
  3
Chain ____ _ ____ _ ____ _ ____ _ ____ _ ____
 72
    65
 73
     4
 40
0.7087
 49
0.4724000000000001
 74
     0
 49
-0.0591
 74
     0
 49
0.1181
 74
     0
 49
-0.0591
 74
     0
  0
LTYPE
  5
E0
330
5
100
AcDbSymbolTableRecord
100
AcDbLinetypeTableRecord
  2
DASH_DOT
 70
     0
  3
Dash dot __ . __ . __ . __ . __ . __ . __ . __
 72
    65
 73
     4
 40
0.37
 49
0.24
 74
     0
 49
-0.06
 74
     0
 49
0.01
 74
     0
 49
-0.06
 74
     0
  0
LTYPE
  5
E1
330
5
100
AcDbSymbolTableRecord
100
AcDbLinetypeTableRecord
  2
DOUBLE_DASH_DOT
 70
     0
  3
Double-Dash Dot __ __ . __ __ . __ __ . __ _
 72
    65
 73
     6
 40
0.4398
 49
0.24
 74
     0
 49
-0.06
 74
     0
 49
0.0098
 74
     0
 49
-0.06
 74
     0
 49
0.01
 74
     0
 49
-0.06
 74
     0
  0
LTYPE
  5
E2
330
5
100
AcDbSymbolTableRecord
100
AcDbLinetypeTableRecord
  2
DASH_TRIPLE_DOT
 70
     0
  3
Dash Triple-Dot _ . . . _ . . . _ . . . _
 72
    65
 73
     8
 40
0.51
 49
0.24
 74
     0
 49
-0.06
 74
     0
 49
0.01
 74
     0
 49
-0.06
 74
     0
 49
0.01
 74
     0
 49
-0.06
 74
     0
 49
0.01
 74
     0
 49
-0.06
 74
     0
  0
LTYPE
  5
E3
330
5
100
AcDbSymbolTableRecord
100
AcDbLinetypeTableRecord
  2
DASHED
 70
     0
  3
Dashed __ __ __ __ __ __ __ __ __ __ __ __ __ _
 72
    65
 73
     2
 40
0.2067
 49
0.1654
 74
     0
 49
-0.0413
 74
     0
  0
LTYPE
  5
E4
330
5
100
AcDbSymbolTableRecord
100
AcDbLinetypeTableRecord
  2
DASH_DOUBLE_DOT
 70
     0
  3
Dash Double-Dot __ . . __ . . __ . . __ . .
 72
    65
 73
     6
 40
0.4398
 49
0.24
 74
     0
 49
-0.06
 74
     0
 49
0.0098
 74
     0
 49
-0.06
 74
     0
 49
0.01
 74
     0
 49
-0.06
 74
     0
  0
LTYPE
  5
E5
330
5
100
AcDbSymbolTableRecord
100
AcDbLinetypeTableRecord
  2
DASHED_SPACE
 70
     0
  3
Dashed Space __ __ __ __ __ __ __ __ __ __ __ _
 72
    65
 73
     2
 40
0.2067
 49
0.1654
 74
     0
 49
-0.0413
 74
     0
  0
LTYPE
  5
E6
330
5
100
AcDbSymbolTableRecord
100
AcDbLinetypeTableRecord
  2
DOTTED
 70
     0
  3
Dotted . . . . . . . . . . . . . . . . . . . . 
 72
    65
 73
     2
 40
0.0482
 49
0.0069
 74
     0
 49
-0.0413
 74
     0
  0
LTYPE
  5
E7
330
5
100
AcDbSymbolTableRecord
100
AcDbLinetypeTableRecord
  2
DOUBLE_DASH_CHAIN
 70
     0
  3
Double-Dash Chain ______  __  __  ______  __  _
 72
    65
 73
     6
 40
1.240299999999999
 49
0.6614
 74
     0
 49
-0.0827
 74
     0
 49
0.1654
 74
     0
 49
-0.0827
 74
     0
 49
0.1654
 74
     0
 49
-0.0827
 74
     0
  0
LTYPE
  5
E9
330
5
100
AcDbSymbolTableRecord
100
AcDbLinetypeTableRecord
  2
DOUBLE_DASH_DOUBLE_DOT
 70
     0
  3
Double-Dash Double-dot _ _ . . _ _ . . _
 72
    65
 73
     8
 40
0.7400000000000001
 49
0.24
 74
     0
 49
-0.06
 74
     0
 49
0.24
 74
     0
 49
-0.06
 74
     0
 49
0.01
 74
     0
 49
-0.06
 74
     0
 49
0.01
 74
     0
 49
-0.06
 74
     0
  0
LTYPE
  5
EA
330
5
100
AcDbSymbolTableRecord
100
AcDbLinetypeTableRecord
  2
DOUBLE_DASH_TRIPLE_DOT
 70
     0
  3
Double Dash Triple Dot __ __ . . . __ __ . .
 72
    65
 73
    10
 40
0.8100000000000001
 49
0.24
 74
     0
 49
-0.06
 74
     0
 49
0.24
 74
     0
 49
-0.06
 74
     0
 49
0.01
 74
     0
 49
-0.06
 74
     0
 49
0.01
 74
     0
 49
-0.06
 74
     0
 49
0.01
 74
     0
 49
-0.06
 74
     0
  0
LTYPE
  5
EB
330
5
100
AcDbSymbolTableRecord
100
AcDbLinetypeTableRecord
  2
LONG_DASH_DOTTED
 70
     0
  3
Long Dash Dotted ____ . ____ . ____ . ____ . _
 72
    65
 73
     4
 40
0.3543
 49
0.2362
 74
     0
 49
-0.0295
 74
     0
 49
0.0591
 74
     0
 49
-0.0295
 74
     0
  0
LTYPE
  5
EC
330
5
100
AcDbSymbolTableRecord
100
AcDbLinetypeTableRecord
  2
LONG_DASH_DOUBLE_DOT
 70
     0
  3
Long Dash Double Dot ________  .  .  ________  
 72
    65
 73
     6
 40
0.6799999999999999
 49
0.48
 74
     0
 49
-0.06
 74
     0
 49
0.01
 74
     0
 49
-0.06
 74
     0
 49
0.01
 74
     0
 49
-0.06
 74
     0
  0
LTYPE
  5
ED
330
5
100
AcDbSymbolTableRecord
100
AcDbLinetypeTableRecord
  2
LONG_DASH_TRIPLE_DOT
 70
     0
  3
Long Dash Triple Dot ____ ... ____ ... ____
 72
    65
 73
     8
 40
0.3689
 49
0.2362
 74
     0
 49
-0.0295
 74
     0
 49
0.0049
 74
     0
 49
-0.0295
 74
     0
 49
0.0049
 74
     0
 49
-0.0295
 74
     0
 49
0.0049
 74
     0
 49
-0.0295
 74
     0
  0
LTYPE
  5
EE
330
5
100
AcDbSymbolTableRecord
100
AcDbLinetypeTableRecord
  2
BORDER
 70
     0
  3
Border __ __ . __ __ . __ __ . __ __ . __ __ .
 72
    65
 73
     6
 40
1.75
 49
0.5
 74
     0
 49
-0.25
 74
     0
 49
0.5
 74
     0
 49
-0.25
 74
     0
 49
0.0
 74
     0
 49
-0.25
 74
     0
  0
LTYPE
  5
EF
330
5
100
AcDbSymbolTableRecord
100
AcDbLinetypeTableRecord
  2
BORDER2
 70
     0
  3
Border (.5x) __.__.__.__.__.__.__.__.__.__.__.
 72
    65
 73
     6
 40
0.875
 49
0.25
 74
     0
 49
-0.125
 74
     0
 49
0.25
 74
     0
 49
-0.125
 74
     0
 49
0.0
 74
     0
 49
-0.125
 74
     0
  0
LTYPE
  5
F0
330
5
100
AcDbSymbolTableRecord
100
AcDbLinetypeTableRecord
  2
BORDERX2
 70
     0
  3
Border (2x) ____  ____  .  ____  ____  .  ___
 72
    65
 73
     6
 40
3.5
 49
1.0
 74
     0
 49
-0.5
 74
     0
 49
1.0
 74
     0
 49
-0.5
 74
     0
 49
0.0
 74
     0
 49
-0.5
 74
     0
  0
LTYPE
  5
F1
330
5
100
AcDbSymbolTableRecord
100
AcDbLinetypeTableRecord
  2
CENTER
 70
     0
  3
Center ____ _ ____ _ ____ _ ____ _ ____ _ ____
 72
    65
 73
     4
 40
2.0
 49
1.25
 74
     0
 49
-0.25
 74
     0
 49
0.25
 74
     0
 49
-0.25
 74
     0
  0
LTYPE
  5
F2
330
5
100
AcDbSymbolTableRecord
100
AcDbLinetypeTableRecord
  2
CENTER2
 70
     0
  3
Center (.5x) ___ _ ___ _ ___ _ ___ _ ___ _ ___
 72
    65
 73
     4
 40
1.125
 49
0.75
 74
     0
 49
-0.125
 74
     0
 49
0.125
 74
     0
 49
-0.125
 74
     0
  0
LTYPE
  5
F3
330
5
100
AcDbSymbolTableRecord
100
AcDbLinetypeTableRecord
  2
CENTERX2
 70
     0
  3
Center (2x) ________  __  ________  __  _____
 72
    65
 73
     4
 40
4.0
 49
2.5
 74
     0
 49
-0.5
 74
     0
 49
0.5
 74
     0
 49
-0.5
 74
     0
  0
LTYPE
  5
F4
330
5
100
AcDbSymbolTableRecord
100
AcDbLinetypeTableRecord
  2
DASHDOT2
 70
     0
  3
Dash dot (.5x) _._._._._._._._._._._._._._._.
 72
    65
 73
     4
 40
0.5
 49
0.25
 74
     0
 49
-0.125
 74
     0
 49
0.0
 74
     0
 49
-0.125
 74
     0
  0
LTYPE
  5
F5
330
5
100
AcDbSymbolTableRecord
100
AcDbLinetypeTableRecord
  2
DASHDOTX2
 70
     0
  3
Dash dot (2x) ____  .  ____  .  ____  .  ___
 72
    65
 73
     4
 40
2.0
 49
1.0
 74
     0
 49
-0.5
 74
     0
 49
0.0
 74
     0
 49
-0.5
 74
     0
  0
LTYPE
  5
F7
330
5
100
AcDbSymbolTableRecord
100
AcDbLinetypeTableRecord
  2
DASHED2
 70
     0
  3
Dashed (.5x) _ _ _ _ _ _ _ _ _ _ _ _ _ _ _ _ _
 72
    65
 73
     2
 40
0.375
 49
0.25
 74
     0
 49
-0.125
 74
     0
  0
LTYPE
  5
F8
330
5
100
AcDbSymbolTableRecord
100
AcDbLinetypeTableRecord
  2
DASHEDX2
 70
     0
  3
Dashed (2x) ____  ____  ____  ____  ____  ___
 72
    65
 73
     2
 40
1.5
 49
1.0
 74
     0
 49
-0.5
 74
     0
  0
LTYPE
  5
F9
330
5
100
AcDbSymbolTableRecord
100
AcDbLinetypeTableRecord
  2
DIVIDE
 70
     0
  3
Divide ____ . . ____ . . ____ . . ____ . . ____
 72
    65
 73
     6
 40
1.25
 49
0.5
 74
     0
 49
-0.25
 74
     0
 49
0.0
 74
     0
 49
-0.25
 74
     0
 49
0.0
 74
     0
 49
-0.25
 74
     0
  0
LTYPE
  5
FA
330
5
100
AcDbSymbolTableRecord
100
AcDbLinetypeTableRecord
  2
DIVIDE2
 70
     0
  3
Divide (.5x) __..__..__..__..__..__..__..__.._
 72
    65
 73
     6
 40
0.625
 49
0.25
 74
     0
 49
-0.125
 74
     0
 49
0.0
 74
     0
 49
-0.125
 74
     0
 49
0.0
 74
     0
 49
-0.125
 74
     0
  0
LTYPE
  5
FB
330
5
100
AcDbSymbolTableRecord
100
AcDbLinetypeTableRecord
  2
DIVIDEX2
 70
     0
  3
Divide (2x) ________  .  .  ________  .  .  _
 72
    65
 73
     6
 40
2.5
 49
1.0
 74
     0
 49
-0.5
 74
     0
 49
0.0
 74
     0
 49
-0.5
 74
     0
 49
0.0
 74
     0
 49
-0.5
 74
     0
  0
LTYPE
  5
FC
330
5
100
AcDbSymbolTableRecord
100
AcDbLinetypeTableRecord
  2
DOT
 70
     0
  3
Dot . . . . . . . . . . . . . . . . . . . . . .
 72
    65
 73
     2
 40
0.25
 49
0.0
 74
     0
 49
-0.25
 74
     0
  0
LTYPE
  5
FD
330
5
100
AcDbSymbolTableRecord
100
AcDbLinetypeTableRecord
  2
DOT2
 70
     0
  3
Dot (.5x) .....................................
 72
    65
 73
     2
 40
0.125
 49
0.0
 74
     0
 49
-0.125
 74
     0
  0
LTYPE
  5
FE
330
5
100
AcDbSymbolTableRecord
100
AcDbLinetypeTableRecord
  2
DOTX2
 70
     0
  3
Dot (2x) .  .  .  .  .  .  .  .  .  .  .  .  . 
 72
    65
 73
     2
 40
0.5
 49
0.0
 74
     0
 49
-0.5
 74
     0
  0
LTYPE
  5
FF
330
5
100
AcDbSymbolTableRecord
100
AcDbLinetypeTableRecord
  2
HIDDEN
 70
     0
  3
Hidden __ __ __ __ __ __ __ __ __ __ __ __ __ _
 72
    65
 73
     2
 40
0.375
 49
0.25
 74
     0
 49
-0.125
 74
     0
  0
LTYPE
  5
100
330
5
100
AcDbSymbolTableRecord
100
AcDbLinetypeTableRecord
  2
HIDDEN2
 70
     0
  3
Hidden (.5x) _ _ _ _ _ _ _ _ _ _ _ _ _ _ _ _ _
 72
    65
 73
     2
 40
0.1875
 49
0.125
 74
     0
 49
-0.0625
 74
     0
  0
LTYPE
  5
101
330
5
100
AcDbSymbolTableRecord
100
AcDbLinetypeTableRecord
  2
HIDDENX2
 70
     0
  3
Hidden (2x) ____ ____ ____ ____ ____ ____ ____
 72
    65
 73
     2
 40
0.75
 49
0.5
 74
     0
 49
-0.25
 74
     0
  0
LTYPE
  5
102
330
5
100
AcDbSymbolTableRecord
100
AcDbLinetypeTableRecord
  2
PHANTOM
 70
     0
  3
Phantom ______  __  __  ______  __  __  ______
 72
    65
 73
     6
 40
2.5
 49
1.25
 74
     0
 49
-0.25
 74
     0
 49
0.25
 74
     0
 49
-0.25
 74
     0
 49
0.25
 74
     0
 49
-0.25
 74
     0
  0
LTYPE
  5
103
330
5
100
AcDbSymbolTableRecord
100
AcDbLinetypeTableRecord
  2
PHANTOM2
 70
     0
  3
Phantom (.5x) ___ _ _ ___ _ _ ___ _ _ ___ _ _
 72
    65
 73
     6
 40
1.25
 49
0.625
 74
     0
 49
-0.125
 74
     0
 49
0.125
 74
     0
 49
-0.125
 74
     0
 49
0.125
 74
     0
 49
-0.125
 74
     0
  0
LTYPE
  5
104
330
5
100
AcDbSymbolTableRecord
100
AcDbLinetypeTableRecord
  2
PHANTOMX2
 70
     0
  3
Phantom (2x) ____________    ____    ____   _
 72
    65
 73
     6
 40
5.0
 49
2.5
 74
     0
 49
-0.5
 74
     0
 49
0.5
 74
     0
 49
-0.5
 74
     0
 49
0.5
 74
     0
 49
-0.5
 74
     0
  0
LTYPE
  5
105
330
5
100
AcDbSymbolTableRecord
100
AcDbLinetypeTableRecord
  2
ACAD_ISO02W100
 70
     0
  3
ISO dash __ __ __ __ __ __ __ __ __ __ __ __ __
 72
    65
 73
     2
 40
0.59
 49
0.47
 74
     0
 49
-0.12
 74
     0
  0
LTYPE
  5
106
330
5
100
AcDbSymbolTableRecord
100
AcDbLinetypeTableRecord
  2
ACAD_ISO03W100
 70
     0
  3
ISO dash space __    __    __    __    __    __
 72
    65
 73
     2
 40
1.179999999999999
 49
0.47
 74
     0
 49
-0.71
 74
     0
  0
LTYPE
  5
107
330
5
100
AcDbSymbolTableRecord
100
AcDbLinetypeTableRecord
  2
ACAD_ISO04W100
 70
     0
  3
ISO long-dash dot ____ . ____ . ____ . ____ . _
 72
    65
 73
     4
 40
1.179999999999999
 49
0.9399999999999998
 74
     0
 49
-0.12
 74
     0
 49
0.0
 74
     0
 49
-0.12
 74
     0
  0
LTYPE
  5
108
330
5
100
AcDbSymbolTableRecord
100
AcDbLinetypeTableRecord
  2
ACAD_ISO05W100
 70
     0
  3
ISO long-dash double-dot ____ .. ____ .. ____ .
 72
    65
 73
     6
 40
1.299999999999999
 49
0.9399999999999998
 74
     0
 49
-0.12
 74
     0
 49
0.0
 74
     0
 49
-0.12
 74
     0
 49
0.0
 74
     0
 49
-0.12
 74
     0
  0
LTYPE
  5
109
330
5
100
AcDbSymbolTableRecord
100
AcDbLinetypeTableRecord
  2
ACAD_ISO06W100
 70
     0
  3
ISO long-dash triple-dot ____ ... ____ ... ____
 72
    65
 73
     8
 40
1.419999999999999
 49
0.9399999999999998
 74
     0
 49
-0.12
 74
     0
 49
0.0
 74
     0
 49
-0.12
 74
     0
 49
0.0
 74
     0
 49
-0.12
 74
     0
 49
0.0
 74
     0
 49
-0.12
 74
     0
  0
LTYPE
  5
10A
330
5
100
AcDbSymbolTableRecord
100
AcDbLinetypeTableRecord
  2
ACAD_ISO07W100
 70
     0
  3
ISO dot . . . . . . . . . . . . . . . . . . . .
 72
    65
 73
     2
 40
0.12
 49
0.0
 74
     0
 49
-0.12
 74
     0
  0
LTYPE
  5
10B
330
5
100
AcDbSymbolTableRecord
100
AcDbLinetypeTableRecord
  2
ACAD_ISO08W100
 70
     0
  3
ISO long-dash short-dash ____ __ ____ __ ____ _
 72
    65
 73
     4
 40
0.95
 49
0.47
 74
     0
 49
-0.12
 74
     0
 49
0.24
 74
     0
 49
-0.12
 74
     0
  0
LTYPE
  5
10C
330
5
100
AcDbSymbolTableRecord
100
AcDbLinetypeTableRecord
  2
ACAD_ISO09W100
 70
     0
  3
ISO long-dash double-short-dash ____ __ __ ____
 72
    65
 73
     6
 40
1.31
 49
0.47
 74
     0
 49
-0.12
 74
     0
 49
0.24
 74
     0
 49
-0.12
 74
     0
 49
0.24
 74
     0
 49
-0.12
 74
     0
  0
LTYPE
  5
10D
330
5
100
AcDbSymbolTableRecord
100
AcDbLinetypeTableRecord
  2
ACAD_ISO10W100
 70
     0
  3
ISO dash dot __ . __ . __ . __ . __ . __ . __ .
 72
    65
 73
     4
 40
0.71
 49
0.47
 74
     0
 49
-0.12
 74
     0
 49
0.0
 74
     0
 49
-0.12
 74
     0
  0
LTYPE
  5
10E
330
5
100
AcDbSymbolTableRecord
100
AcDbLinetypeTableRecord
  2
ACAD_ISO11W100
 70
     0
  3
ISO double-dash dot __ __ . __ __ . __ __ . __ 
 72
    65
 73
     6
 40
1.299999999999999
 49
0.47
 74
     0
 49
-0.12
 74
     0
 49
0.47
 74
     0
 49
-0.12
 74
     0
 49
0.0
 74
     0
 49
-0.12
 74
     0
  0
LTYPE
  5
10F
330
5
100
AcDbSymbolTableRecord
100
AcDbLinetypeTableRecord
  2
ACAD_ISO12W100
 70
     0
  3
ISO dash double-dot __ . . __ . . __ . . __ . .
 72
    65
 73
     6
 40
0.8299999999999998
 49
0.47
 74
     0
 49
-0.12
 74
     0
 49
0.0
 74
     0
 49
-0.12
 74
     0
 49
0.0
 74
     0
 49
-0.12
 74
     0
  0
LTYPE
  5
110
330
5
100
AcDbSymbolTableRecord
100
AcDbLinetypeTableRecord
  2
ACAD_ISO13W100
 70
     0
  3
ISO double-dash double-dot __ __ . . __ __ . . 
 72
    65
 73
     8
 40
1.419999999999999
 49
0.47
 74
     0
 49
-0.12
 74
     0
 49
0.47
 74
     0
 49
-0.12
 74
     0
 49
0.0
 74
     0
 49
-0.12
 74
     0
 49
0.0
 74
     0
 49
-0.12
 74
     0
  0
LTYPE
  5
111
330
5
100
AcDbSymbolTableRecord
100
AcDbLinetypeTableRecord
  2
ACAD_ISO14W100
 70
     0
  3
ISO dash triple-dot __ . . . __ . . . __ . . . 
 72
    65
 73
     8
 40
0.95
 49
0.47
 74
     0
 49
-0.12
 74
     0
 49
0.0
 74
     0
 49
-0.12
 74
     0
 49
0.0
 74
     0
 49
-0.12
 74
     0
 49
0.0
 74
     0
 49
-0.12
 74
     0
  0
LTYPE
  5
112
330
5
100
AcDbSymbolTableRecord
100
AcDbLinetypeTableRecord
  2
ACAD_ISO15W100
 70
     0
  3
ISO double-dash triple-dot __ __ . . . __ __ . 
 72
    65
 73
    10
 40
1.539999999999999
 49
0.47
 74
     0
 49
-0.12
 74
     0
 49
0.47
 74
     0
 49
-0.12
 74
     0
 49
0.0
 74
     0
 49
-0.12
 74
     0
 49
0.0
 74
     0
 49
-0.12
 74
     0
 49
0.0
 74
     0
 49
-0.12
 74
     0
  0
LTYPE
  5
115
330
5
100
AcDbSymbolTableRecord
100
AcDbLinetypeTableRecord
  2
FENCELINE1
 70
     0
  3
Fenceline circle ----0-----0----0-----0----0---
 72
    65
 73
     4
 40
1.45
 49
0.25
 74
     0
 49
-0.1
 74
     4
 75
   133
340
114
 46
0.1
 50
0.0
 44
-0.1
 45
0.0
 49
-0.1
 74
     0
 49
1.0
 74
     0
  0
LTYPE
  5
116
330
5
100
AcDbSymbolTableRecord
100
AcDbLinetypeTableRecord
  2
FENCELINE2
 70
     0
  3
Fenceline square ----[]-----[]----[]-----[]----
 72
    65
 73
     4
 40
1.45
 49
0.25
 74
     0
 49
-0.1
 74
     4
 75
   132
340
114
 46
0.1
 50
0.0
 44
-0.1
 45
0.0
 49
-0.1
 74
     0
 49
1.0
 74
     0
  0
LTYPE
  5
117
330
5
100
AcDbSymbolTableRecord
100
AcDbLinetypeTableRecord
  2
TRACKS
 70
     0
  3
Tracks -|-|-|-|-|-|-|-|-|-|-|-|-|-|-|-|-|-|-|-|
 72
    65
 73
     2
 40
0.3
 49
0.15
 74
     4
 75
   130
340
114
 46
0.25
 50
0.0
 44
0.0
 45
0.0
 49
0.15
 74
     0
  0
LTYPE
  5
118
330
5
100
AcDbSymbolTableRecord
100
AcDbLinetypeTableRecord
  2
BATTING
 70
     0
  3
Batting SSSSSSSSSSSSSSSSSSSSSSSSSSSSSSSSSSSSSSS
 72
    65
 73
     4
 40
0.4001000000000001
 49
0.0001
 74
     0
 49
-0.1
 74
     4
 75
   134
340
114
 46
0.1
 50
0.0
 44
-0.1
 45
0.0
 49
-0.2
 74
     4
 75
   134
340
114
 46
0.1
 50
180.0
 44
0.1
 45
0.0
 49
-0.1
 74
     0
  0
LTYPE
  5
119
330
5
100
AcDbSymbolTableRecord
100
AcDbLinetypeTableRecord
  2
HOT_WATER_SUPPLY
 70
     0
  3
Hot water supply ---- HW ---- HW ---- HW ----
 72
    65
 73
     3
 40
0.9
 49
0.5
 74
     0
 49
-0.2
 74
     2
 75
     0
340
55
 46
0.1
 50
0.0
 44
-0.1
 45
-0.05
  9
HW
 49
-0.2
 74
     0
  0
LTYPE
  5
11A
330
5
100
AcDbSymbolTableRecord
100
AcDbLinetypeTableRecord
  2
GAS_LINE
 70
     0
  3
Gas line ----GAS----GAS----GAS----GAS----GAS---
 72
    65
 73
     3
 40
0.95
 49
0.5
 74
     0
 49
-0.2
 74
     2
 75
     0
340
55
 46
0.1
 50
0.0
 44
-0.1
 45
-0.05
  9
GAS
 49
-0.25
 74
     0
  0
LTYPE
  5
11B
330
5
100
AcDbSymbolTableRecord
100
AcDbLinetypeTableRecord
  2
ZIGZAG
 70
     0
  3
Zig zag /\/\/\/\/\/\/\/\/\/\/\/\/\/\/\/\/\/\/\/
 72
    65
 73
     4
 40
0.8001000000000001
 49
0.0001
 74
     0
 49
-0.2
 74
     4
 75
   131
340
114
 46
0.2
 50
0.0
 44
-0.2
 45
0.0
 49
-0.4
 74
     4
 75
   131
340
114
 46
0.2
 50
180.0
 44
0.2
 45
0.0
 49
-0.2
 74
     0
  0
ENDTAB
  0
TABLE
  2
LAYER
  5
2
330
0
100
AcDbSymbolTable
 70
    27
  0
LAYER
  5
54
330
2
100
AcDbSymbolTableRecord
100
AcDbLayerTableRecord
  2
0
 70
     0
 62
     7
  6
Continuous
370
    18
390
F
  0
LAYER
  5
75
330
2
100
AcDbSymbolTableRecord
100
AcDbLayerTableRecord
  2
Symbol (ANSI)
 70
     0
 62
     7
  6
Continuous
370
    18
390
F
  0
LAYER
  5
125
330
2
100
AcDbSymbolTableRecord
100
AcDbLayerTableRecord
  2
Dimension (ANSI)
 70
     0
 62
     7
  6
Continuous
370
    13
390
F
  0
LAYER
  5
127
330
2
100
AcDbSymbolTableRecord
100
AcDbLayerTableRecord
  2
Hidden (ANSI)
 70
     0
 62
     7
  6
DASHED
370
    15
390
F
  0
LAYER
  5
130
330
2
100
AcDbSymbolTableRecord
100
AcDbLayerTableRecord
  2
Visible (ANSI)
 70
     0
 62
     7
  6
Continuous
370
    13
390
F
  0
LAYER
  5
131
330
2
100
AcDbSymbolTableRecord
100
AcDbLayerTableRecord
  2
Visible Narrow (ANSI)
 70
     0
 62
     7
  6
Continuous
370
    18
390
F
  0
LAYER
  5
259
330
2
100
AcDbSymbolTableRecord
100
AcDbLayerTableRecord
  2
Defpoints
 70
     0
 62
     7
  6
Continuous
290
     0
370
    -3
390
F
  0
ENDTAB
  0
TABLE
  2
STYLE
  5
3
330
0
100
AcDbSymbolTable
 70
    18
  0
STYLE
  5
55
330
3
100
AcDbSymbolTableRecord
100
AcDbTextStyleTableRecord
  2
Standard
 70
     0
 40
0.0
 41
1.0
 50
0.0
 71
     0
 42
0.2
  3
txt
  4

  0
STYLE
  5
5A
330
3
100
AcDbSymbolTableRecord
100
AcDbTextStyleTableRecord
  2
Annotative
 70
     0
 40
0.0
 41
1.0
 50
0.0
 71
     0
 42
0.2
  3
txt
  4

1001
AcadAnnotative
1000
AnnotativeData
1002
{
1070
     1
1070
     1
1002
}
  0
STYLE
  5
76
330
3
100
AcDbSymbolTableRecord
100
AcDbTextStyleTableRecord
  2
Note Text (ANSI)
 70
     0
 40
0.0
 41
1.0
 50
0.0
 71
     0
 42
0.2
  3
TAHOMA.TTF
  4

1001
ACAD
1000
Tahoma
1071
      256
  0
STYLE
  5
78
330
3
100
AcDbSymbolTableRecord
100
AcDbTextStyleTableRecord
  2
SANSSERIF
 70
     0
 40
0.125
 41
1.0
 50
0.0
 71
     0
 42
0.125
  3
sas_____.pfb
  4

  0
STYLE
  5
114
330
3
100
AcDbSymbolTableRecord
100
AcDbTextStyleTableRecord
  2

 70
     1
 40
0.0
 41
1.0
 50
0.0
 71
     0
 42
0.2
  3
ltypeshp.shx
  4

  0
STYLE
  5
135
330
3
100
AcDbSymbolTableRecord
100
AcDbTextStyleTableRecord
  2
ITALICC_120
 70
     0
 40
0.0
 41
1.0
 50
0.0
 71
     0
 42
0.2
  3
italicc.shx
  4

  0
STYLE
  5
136
330
3
100
AcDbSymbolTableRecord
100
AcDbTextStyleTableRecord
  2
Label Text (ANSI)
 70
     0
 40
0.0
 41
1.0
 50
0.0
 71
     0
 42
0.2
  3
TAHOMA.TTF
  4

1001
ACAD
1000
Tahoma
1071
      256
  0
STYLE
  5
137
330
3
100
AcDbSymbolTableRecord
100
AcDbTextStyleTableRecord
  2
ROMANS
 70
     0
 40
0.0
 41
1.0
 50
0.0
 71
     0
 42
0.2
  3
romans.shx
  4

  0
STYLE
  5
138
330
3
100
AcDbSymbolTableRecord
100
AcDbTextStyleTableRecord
  2
SANSSERIF_114
 70
     0
 40
0.0
 41
1.0
 50
0.0
 71
     0
 42
0.2
  3
TAHOMA.TTF
  4

1001
ACAD
1000
Tahoma
1071
      256
  0
STYLE
  5
139
330
3
100
AcDbSymbolTableRecord
100
AcDbTextStyleTableRecord
  2
SANSSERIF_117
 70
     0
 40
0.0
 41
1.0
 50
0.0
 71
     0
 42
0.2
  3
TAHOMA.TTF
  4

1001
ACAD
1000
Tahoma
1071
      256
  0
STYLE
  5
13A
330
3
100
AcDbSymbolTableRecord
100
AcDbTextStyleTableRecord
  2
STANDARDAM_ANSI
 70
     0
 40
0.0
 41
1.0
 50
0.0
 71
     0
 42
0.2
  3
txt.shx
  4

  0
STYLE
  5
13B
330
3
100
AcDbSymbolTableRecord
100
AcDbTextStyleTableRecord
  2
StandardAM_ANSI$0
 70
     0
 40
0.0
 41
1.0
 50
0.0
 71
     0
 42
0.2
  3
txt.shx
  4

  0
STYLE
  5
13C
330
3
100
AcDbSymbolTableRecord
100
AcDbTextStyleTableRecord
  2
STANDARDAM_ANSI$3
 70
     0
 40
0.0
 41
1.0
 50
0.0
 71
     0
 42
0.2
  3
txt.shx
  4

  0
STYLE
  5
13D
330
3
100
AcDbSymbolTableRecord
100
AcDbTextStyleTableRecord
  2
STANDARDAM_ANSI$4
 70
     0
 40
0.0
 41
1.0
 50
0.0
 71
     0
 42
0.2
  3
txt.shx
  4

  0
STYLE
  5
13E
330
3
100
AcDbSymbolTableRecord
100
AcDbTextStyleTableRecord
  2
STANDARDAM_ANSI$7
 70
     0
 40
0.0
 41
1.0
 50
0.0
 71
     0
 42
0.2
  3
txt.shx
  4

  0
STYLE
  5
13F
330
3
100
AcDbSymbolTableRecord
100
AcDbTextStyleTableRecord
  2
STANDARDAM_ANSI$SF
 70
     0
 40
0.0
 41
1.0
 50
0.0
 71
     0
 42
0.2
  3
txt.shx
  4

  0
STYLE
  5
140
330
3
100
AcDbSymbolTableRecord
100
AcDbTextStyleTableRecord
  2
STANDARDAM_ANSI$SH
 70
     0
 40
0.0
 41
1.0
 50
0.0
 71
     0
 42
0.2
  3
txt.shx
  4

  0
STYLE
  5
141
330
3
100
AcDbSymbolTableRecord
100
AcDbTextStyleTableRecord
  2
STANDARDSTANDARD
 70
     0
 40
0.0
 41
1.0
 50
0.0
 71
     0
 42
0.2
  3
txt.shx
  4

  0
ENDTAB
  0
TABLE
  2
VIEW
  5
6
330
0
100
AcDbSymbolTable
 70
     0
  0
ENDTAB
  0
TABLE
  2
UCS
  5
7
330
0
100
AcDbSymbolTable
 70
     0
  0
ENDTAB
  0
TABLE
  2
APPID
  5
9
330
0
100
AcDbSymbolTable
 70
     4
  0
APPID
  5
56
330
9
100
AcDbSymbolTableRecord
100
AcDbRegAppTableRecord
  2
ACAD
 70
     0
  0
APPID
  5
5E
330
9
100
AcDbSymbolTableRecord
100
AcDbRegAppTableRecord
  2
AcadAnnotative
 70
     0
  0
APPID
  5
C5B
330
9
100
AcDbSymbolTableRecord
100
AcDbRegAppTableRecord
  2
ACAD_DSTYLE_DIMRADIAL_EXTENSION
 70
     0
  0
APPID
  5
E64
330
9
100
AcDbSymbolTableRecord
100
AcDbRegAppTableRecord
  2
ACAD_MLEADERVER
 70
     0
  0
ENDTAB
  0
TABLE
  2
DIMSTYLE
  5
A
330
0
100
AcDbSymbolTable
 70
    27
100
AcDbDimStyleTable
 71
     2
340
156
340
58
  0
DIMSTYLE
105
58
330
A
100
AcDbSymbolTableRecord
100
AcDbDimStyleTableRecord
  2
STANDARD
 70
     0
 41
0.1800000071525573
 42
0.0625
140
0.1800000071525574
144
1.0
147
0.0900000035762787
176
   256
177
   256
178
   256
274
     3
340
55
371
    -1
372
    -1
  0
DIMSTYLE
105
59
330
A
100
AcDbSymbolTableRecord
100
AcDbDimStyleTableRecord
  2
Annotative
 70
     0
340
55
1001
AcadAnnotative
1000
AnnotativeData
1002
{
1070
     1
1070
     1
1002
}
  0
DIMSTYLE
105
142
330
A
100
AcDbSymbolTableRecord
100
AcDbDimStyleTableRecord
  2
AM_ANSI
 70
     0
  4
 mm
 40
5.333333333333333
 41
0.119999997317791
 42
0.05
 43
0.5
 44
0.1
 45
0.00000001
 78
     4
 79
     2
140
0.1200000047683716
146
0.7099999453624112
147
0.0599999986588955
176
   256
177
   256
178
     2
284
     4
340
13A
371
    -1
372
    -1
  0
DIMSTYLE
105
143
330
A
100
AcDbSymbolTableRecord
100
AcDbDimStyleTableRecord
  2
AM_ANSI$7
 70
     0
  4
 mm
 40
5.333333333333333
 41
0.119999997317791
 42
0.05
 43
0.5
 44
0.1
 45
0.00000001
 78
     4
 79
     2
140
0.1200000047683716
146
0.7099999453624112
147
0.0599999986588955
176
   256
177
   256
178
     2
284
     4
340
13A
371
    -1
372
    -1
  0
DIMSTYLE
105
144
330
A
100
AcDbSymbolTableRecord
100
AcDbDimStyleTableRecord
  2
AM_ANSI$0
 70
     0
  4
 mm
 40
5.333333333333333
 41
0.119999997317791
 42
0.05
 43
0.5
 44
0.1
 45
0.00000001
 78
     4
 79
     2
140
0.1200000047683716
146
0.7099999453624112
147
0.0599999986588955
176
   256
177
   256
178
     2
284
     4
340
13B
371
    -1
372
    -1
  0
DIMSTYLE
105
145
330
A
100
AcDbSymbolTableRecord
100
AcDbDimStyleTableRecord
  2
AM_ANSI$0$7
 70
     0
  4
 mm
 40
5.333333333333333
 41
0.119999997317791
 42
0.05
 43
0.5
 44
0.1
 45
0.00000001
 78
     4
 79
     2
140
0.1200000047683716
146
0.7099999453624112
147
0.0599999986588955
176
   256
177
   256
178
     2
284
     4
340
13B
371
    -1
372
    -1
  0
DIMSTYLE
105
146
330
A
100
AcDbSymbolTableRecord
100
AcDbDimStyleTableRecord
  2
AM_ANSI$3
 70
     0
  4
 mm
 40
5.333333333333333
 41
0.119999997317791
 42
0.05
 43
0.5
 44
0.1
 45
0.00000001
 78
     4
 79
     2
140
0.1200000047683716
146
0.7099999453624112
147
0.0599999986588955
176
   256
177
   256
178
     2
284
     4
340
13C
371
    -1
372
    -1
  0
DIMSTYLE
105
147
330
A
100
AcDbSymbolTableRecord
100
AcDbDimStyleTableRecord
  2
AM_ANSI$3$7
 70
     0
  4
 mm
 40
5.333333333333333
 41
0.119999997317791
 42
0.05
 43
0.5
 44
0.1
 45
0.00000001
 78
     4
 79
     2
140
0.1200000047683716
146
0.7099999453624112
147
0.0599999986588955
176
   256
177
   256
178
     2
284
     4
340
13C
371
    -1
372
    -1
  0
DIMSTYLE
105
148
330
A
100
AcDbSymbolTableRecord
100
AcDbDimStyleTableRecord
  2
AM_ANSI$4
 70
     0
  4
 mm
 40
5.333333333333333
 41
0.119999997317791
 42
0.05
 43
0.5
 44
0.1
 45
0.00000001
 78
     4
 79
     2
140
0.1200000047683716
146
0.7099999453624112
147
0.0599999986588955
176
   256
177
   256
178
     2
284
     4
340
13D
371
    -1
372
    -1
  0
DIMSTYLE
105
149
330
A
100
AcDbSymbolTableRecord
100
AcDbDimStyleTableRecord
  2
AM_ANSI$4$7
 70
     0
  4
 mm
 40
5.333333333333333
 41
0.119999997317791
 42
0.05
 43
0.5
 44
0.1
 45
0.00000001
 78
     4
 79
     2
140
0.1200000047683716
146
0.7099999453624112
147
0.0599999986588955
176
   256
177
   256
178
     2
284
     4
340
13D
371
    -1
372
    -1
  0
DIMSTYLE
105
14A
330
A
100
AcDbSymbolTableRecord
100
AcDbDimStyleTableRecord
  2
AM_ANSI$SF
 70
     0
  4
 mm
 40
5.333333333333333
 41
0.119999997317791
 42
0.05
 43
0.5
 44
0.1
 45
0.00000001
 75
     1
 76
     1
 78
     4
 79
     2
140
0.1200000047683716
146
0.7099999453624112
147
0.0599999986588955
176
   256
177
   256
178
     2
284
     4
340
13F
371
    -1
372
    -1
  0
DIMSTYLE
105
14B
330
A
100
AcDbSymbolTableRecord
100
AcDbDimStyleTableRecord
  2
AM_ANSI$SF$7
 70
     0
  4
 mm
 40
5.333333333333333
 41
0.119999997317791
 42
0.05
 43
0.5
 44
0.1
 45
0.00000001
 75
     1
 76
     1
 78
     4
 79
     2
140
0.1200000047683716
146
0.7099999453624112
147
0.0599999986588955
176
   256
177
   256
178
     2
284
     4
340
13F
371
    -1
372
    -1
  0
DIMSTYLE
105
14C
330
A
100
AcDbSymbolTableRecord
100
AcDbDimStyleTableRecord
  2
AM_ANSI$SH
 70
     0
  4
 mm
 40
5.333333333333333
 41
0.119999997317791
 42
0.05
 43
0.5
 44
0.1
 45
0.00000001
 75
     1
 76
     1
 78
     4
 79
     2
140
0.1200000047683716
146
0.7099999453624112
147
0.0599999986588955
176
   256
177
   256
178
     2
284
     4
340
140
371
    -1
372
    -1
  0
DIMSTYLE
105
14D
330
A
100
AcDbSymbolTableRecord
100
AcDbDimStyleTableRecord
  2
AM_ANSI$SH$7
 70
     0
  4
 mm
 40
5.333333333333333
 41
0.119999997317791
 42
0.05
 43
0.5
 44
0.1
 45
0.00000001
 75
     1
 76
     1
 78
     4
 79
     2
140
0.1200000047683716
146
0.7099999453624112
147
0.0599999986588955
176
   256
177
   256
178
     2
284
     4
340
140
371
    -1
372
    -1
  0
DIMSTYLE
105
14E
330
A
100
AcDbSymbolTableRecord
100
AcDbDimStyleTableRecord
  2
Architectural (ANSI)
 70
     0
 40
5.333333333333333
 41
0.0984251946210861
 43
0.2362204724409449
 44
0.125
 45
0.00000001
 46
0.3937007874015748
 78
     3
 79
     3
140
0.1200000047683716
147
0.031496062992126
171
     1
176
   256
177
   256
178
   256
272
     2
274
     1
276
     2
277
     4
284
    12
285
     4
286
    12
340
76
371
    -1
372
    -1
  0
DIMSTYLE
105
14F
330
A
100
AcDbSymbolTableRecord
100
AcDbDimStyleTableRecord
  2
Architectural (ANSI)$7
 70
     0
 40
5.333333333333333
 41
0.0984251946210861
 43
0.2362204724409449
 44
0.125
 45
0.00000001
 46
0.3937007874015748
 78
     3
 79
     3
140
0.1200000047683716
147
0.031496062992126
171
     1
176
   256
177
   256
178
   256
272
     2
274
     1
276
     2
277
     4
284
    12
285
     4
286
    12
340
76
371
    -1
372
    -1
  0
DIMSTYLE
105
150
330
A
100
AcDbSymbolTableRecord
100
AcDbDimStyleTableRecord
  2
Default - Fraction (ANSI)
 70
     0
 40
5.333333333333333
 41
0.0984251946210861
 43
0.2362204724409449
 44
0.125
 45
0.00000001
 46
0.3937007874015748
 79
     3
140
0.1200000047683716
147
0.031496062992126
171
     1
176
   256
177
   256
178
   256
272
     2
274
     1
276
     2
277
     5
284
    12
285
     4
286
    12
340
76
371
    -1
372
    -1
  0
DIMSTYLE
105
151
330
A
100
AcDbSymbolTableRecord
100
AcDbDimStyleTableRecord
  2
Default - Fraction (ANSI)$7
 70
     0
 40
5.333333333333333
 41
0.0984251946210861
 43
0.2362204724409449
 44
0.125
 45
0.00000001
 46
0.3937007874015748
 79
     3
140
0.1200000047683716
147
0.031496062992126
171
     1
176
   256
177
   256
178
   256
272
     2
274
     1
276
     2
277
     5
284
    12
285
     4
286
    12
340
76
371
    -1
372
    -1
  0
DIMSTYLE
105
152
330
A
100
AcDbSymbolTableRecord
100
AcDbDimStyleTableRecord
  2
Default - mm (ANSI)
 70
     0
 40
5.333333333333333
 41
0.0984251946210861
 42
0.063
 43
0.2362204724409449
 44
0.125
 45
0.00000001
 46
0.3937007874015748
 73
     0
 78
     4
 79
     1
140
0.1200000047683716
143
1.0
144
25.4
147
0.031496062992126
171
     1
176
   256
177
   256
178
   256
179
     1
271
     2
272
     2
274
     1
284
     4
285
     4
340
76
371
    -1
372
    -1
  0
DIMSTYLE
105
153
330
A
100
AcDbSymbolTableRecord
100
AcDbDimStyleTableRecord
  2
Default - mm (ANSI)$7
 70
     0
 40
5.333333333333333
 41
0.0984251946210861
 42
0.063
 43
0.2362204724409449
 44
0.125
 45
0.00000001
 46
0.3937007874015748
 73
     0
 78
     4
 79
     1
140
0.1200000047683716
143
1.0
144
25.4
147
0.031496062992126
171
     1
176
   256
177
   256
178
   256
179
     1
271
     2
272
     2
274
     1
284
     4
285
     4
340
76
371
    -1
372
    -1
  0
DIMSTYLE
105
154
330
A
100
AcDbSymbolTableRecord
100
AcDbDimStyleTableRecord
  2
Default - mm [in] (ANSI)
 70
     0
  4
 in
 40
5.333333333333333
 41
0.0984251946210861
 42
0.063
 43
0.25
 44
0.125
 45
0.00000001
 46
0.3937007874015748
 73
     0
 78
     4
 79
     1
140
0.1200000047683716
143
0.03937
144
25.4
147
0.031496062992126
170
     1
171
     3
176
   256
177
   256
178
   256
179
     1
271
     2
272
     2
274
     3
284
     4
285
     4
286
     4
340
76
371
    -1
372
    -1
  0
DIMSTYLE
105
155
330
A
100
AcDbSymbolTableRecord
100
AcDbDimStyleTableRecord
  2
Default - mm [in] (ANSI)$7
 70
     0
  4
 in
 40
5.333333333333333
 41
0.0984251946210861
 42
0.063
 43
0.25
 44
0.125
 45
0.00000001
 46
0.3937007874015748
 73
     0
 78
     4
 79
     1
140
0.1200000047683716
143
0.03937
144
25.4
147
0.031496062992126
170
     1
171
     3
176
   256
177
   256
178
   256
179
     1
271
     2
272
     2
274
     3
284
     4
285
     4
286
     4
340
76
371
    -1
372
    -1
  0
DIMSTYLE
105
156
102
{ACAD_REACTORS
330
257
330
344
330
42E
330
52E
330
62E
330
718
330
802
330
8EC
330
9D8
330
AD8
330
BC2
330
C7C
330
D35
102
}
330
A
100
AcDbSymbolTableRecord
100
AcDbDimStyleTableRecord
  2
Default (ANSI)
 70
     0
 40
5.333333333333333
 41
0.0984251946210861
 43
0.2362204724409449
 44
0.125
 45
0.00000001
 46
0.3937007874015748
 79
     1
140
0.1200000047683716
147
0.031496062992126
171
     1
176
   256
177
   256
178
   256
271
     2
272
     2
274
     1
284
     4
285
     4
340
76
371
    -1
372
    -1
  0
DIMSTYLE
105
157
330
A
100
AcDbSymbolTableRecord
100
AcDbDimStyleTableRecord
  2
Default (ANSI)$7
 70
     0
 40
5.333333333333333
 41
0.0984251946210861
 43
0.2362204724409449
 44
0.125
 45
0.00000001
 46
0.3937007874015748
 79
     1
140
0.1200000047683716
147
0.031496062992126
171
     1
176
   256
177
   256
178
   256
271
     2
272
     2
274
     1
284
     4
285
     4
340
76
371
    -1
372
    -1
  0
DIMSTYLE
105
158
330
A
100
AcDbSymbolTableRecord
100
AcDbDimStyleTableRecord
  2
Alternate (ANSI)
 70
     0
 40
5.333333333333333
 41
0.0979999974370003
340
55
342
159
  0
DIMSTYLE
105
16B
330
A
100
AcDbSymbolTableRecord
100
AcDbDimStyleTableRecord
  2
Datum (ANSI)
 70
     0
 40
5.333333333333333
 41
0.0979999974370003
340
55
342
159
  0
DIMSTYLE
105
17A
330
A
100
AcDbSymbolTableRecord
100
AcDbDimStyleTableRecord
  2
Large (ANSI)
 70
     0
 40
5.333333333333333
 41
0.1959999948740005
340
55
342
159
  0
ENDTAB
  0
TABLE
  2
BLOCK_RECORD
  5
1
330
0
100
AcDbSymbolTable
 70
    17
  0
BLOCK_RECORD
  5
6C
330
1
100
AcDbSymbolTableRecord
100
AcDbBlockTableRecord
  2
*Model_Space
340
6F
  0
BLOCK_RECORD
  5
68
330
1
100
AcDbSymbolTableRecord
100
AcDbBlockTableRecord
  2
*Paper_Space
340
6B
  0
BLOCK_RECORD
  5
70
330
1
100
AcDbSymbolTableRecord
100
AcDbBlockTableRecord
  2
*Paper_Space0
340
73
  0
BLOCK_RECORD
  5
159
330
1
100
AcDbSymbolTableRecord
100
AcDbBlockTableRecord
  2
_Closed
340
0
  0
BLOCK_RECORD
  5
160
330
1
100
AcDbSymbolTableRecord
100
AcDbBlockTableRecord
  2
DatumFilled45
340
0
  0
BLOCK_RECORD
  5
16C
330
1
100
AcDbSymbolTableRecord
100
AcDbBlockTableRecord
  2
Filled-1
340
0
  0
BLOCK_RECORD
  5
25A
330
1
100
AcDbSymbolTableRecord
100
AcDbBlockTableRecord
  2
*D4
340
0
  0
BLOCK_RECORD
  5
345
330
1
100
AcDbSymbolTableRecord
100
AcDbBlockTableRecord
  2
*D5
340
0
  0
BLOCK_RECORD
  5
42F
330
1
100
AcDbSymbolTableRecord
100
AcDbBlockTableRecord
  2
*D6
340
0
  0
BLOCK_RECORD
  5
52F
330
1
100
AcDbSymbolTableRecord
100
AcDbBlockTableRecord
  2
*D7
340
0
  0
BLOCK_RECORD
  5
62F
330
1
100
AcDbSymbolTableRecord
100
AcDbBlockTableRecord
  2
*D8
340
0
  0
BLOCK_RECORD
  5
719
330
1
100
AcDbSymbolTableRecord
100
AcDbBlockTableRecord
  2
*D9
340
0
  0
BLOCK_RECORD
  5
803
330
1
100
AcDbSymbolTableRecord
100
AcDbBlockTableRecord
  2
*D10
340
0
  0
BLOCK_RECORD
  5
8ED
330
1
100
AcDbSymbolTableRecord
100
AcDbBlockTableRecord
  2
*D11
340
0
  0
BLOCK_RECORD
  5
9D9
330
1
100
AcDbSymbolTableRecord
100
AcDbBlockTableRecord
  2
*D12
340
0
  0
BLOCK_RECORD
  5
AD9
330
1
100
AcDbSymbolTableRecord
100
AcDbBlockTableRecord
  2
*D13
340
0
  0
BLOCK_RECORD
  5
BC3
330
1
100
AcDbSymbolTableRecord
100
AcDbBlockTableRecord
  2
*D14
340
0
  0
BLOCK_RECORD
  5
C7D
330
1
100
AcDbSymbolTableRecord
100
AcDbBlockTableRecord
  2
*D15
340
0
  0
BLOCK_RECORD
  5
D36
330
1
100
AcDbSymbolTableRecord
100
AcDbBlockTableRecord
  2
*D16
340
0
  0
ENDTAB
  0
ENDSEC
  0
SECTION
  2
BLOCKS
  0
BLOCK
  5
6D
330
6C
100
AcDbEntity
  8
0
100
AcDbBlockBegin
  2
*Model_Space
 70
     0
 10
0.0
 20
0.0
 30
0.0
  3
*Model_Space
  1

  0
ENDBLK
  5
6E
330
6C
100
AcDbEntity
  8
0
100
AcDbBlockEnd
  0
BLOCK
  5
69
330
68
100
AcDbEntity
 67
     1
  8
0
100
AcDbBlockBegin
  2
*Paper_Space
 70
     0
 10
0.0
 20
0.0
 30
0.0
  3
*Paper_Space
  1

  0
ENDBLK
  5
6A
330
68
100
AcDbEntity
 67
     1
  8
0
100
AcDbBlockEnd
  0
BLOCK
  5
71
330
70
100
AcDbEntity
 67
     1
  8
0
100
AcDbBlockBegin
  2
*Paper_Space0
 70
     0
 10
0.0
 20
0.0
 30
0.0
  3
*Paper_Space0
  1

  0
ENDBLK
  5
72
330
70
100
AcDbEntity
 67
     1
  8
0
100
AcDbBlockEnd
  0
BLOCK
  5
15E
330
159
100
AcDbEntity
  8
0
100
AcDbBlockBegin
  2
_Closed
 70
     0
 10
0.0
 20
0.0
 30
0.0
  3
_Closed
  1

  0
LINE
  5
15A
330
159
100
AcDbEntity
  8
0
  6
ByBlock
 62
     0
370
    -2
100
AcDbLine
 10
-1.0
 20
0.1666666666666666
 30
0.0
 11
0.0
 21
0.0
 31
0.0
  0
LINE
  5
15B
330
159
100
AcDbEntity
  8
0
  6
ByBlock
 62
     0
370
    -2
100
AcDbLine
 10
0.0
 20
0.0
 30
0.0
 11
-1.0
 21
-0.1666666666666666
 31
0.0
  0
LINE
  5
15C
330
159
100
AcDbEntity
  8
0
  6
ByBlock
 62
     0
370
    -2
100
AcDbLine
 10
-1.0
 20
0.1666666666666666
 30
0.0
 11
-1.0
 21
-0.1666666666666666
 31
0.0
  0
LINE
  5
15D
330
159
100
AcDbEntity
  8
0
  6
ByBlock
 62
     0
370
    -2
100
AcDbLine
 10
0.0
 20
0.0
 30
0.0
 11
-1.0
 21
0.0
 31
0.0
  0
ENDBLK
  5
15F
330
159
100
AcDbEntity
  8
0
100
AcDbBlockEnd
  0
BLOCK
  5
161
330
160
100
AcDbEntity
  8
0
100
AcDbBlockBegin
  2
DatumFilled45
 70
     0
 10
0.0
 20
0.0
 30
0.0
  3
DatumFilled45
  1

  0
POLYLINE
  5
163
330
160
100
AcDbEntity
  8
0
 62
     0
100
AcDb2dPolyline
 66
     1
 10
0.0
 20
0.0
 30
0.0
 70
   128
  0
VERTEX
  5
164
330
163
100
AcDbEntity
  8
0
 62
     0
100
AcDbVertex
100
AcDb2dVertex
 10
0.0
 20
0.9999999999999998
 30
0.0
  0
VERTEX
  5
165
330
163
100
AcDbEntity
  8
0
 62
     0
100
AcDbVertex
100
AcDb2dVertex
 10
0.0
 20
-0.9999999999999998
 30
0.0
  0
VERTEX
  5
167
330
163
100
AcDbEntity
  8
0
 62
     0
100
AcDbVertex
100
AcDb2dVertex
 10
-0.9999999999999998
 20
0.0
 30
0.0
  0
VERTEX
  5
168
330
163
100
AcDbEntity
  8
0
 62
     0
100
AcDbVertex
100
AcDb2dVertex
 10
0.0
 20
0.9999999999999998
 30
0.0
  0
SEQEND
  5
166
330
163
100
AcDbEntity
  8
0
 62
     0
  0
SOLID
  5
16A
330
160
100
AcDbEntity
  8
0
 62
     0
100
AcDbTrace
 10
0.0
 20
0.9999999999999998
 30
0.0
 11
0.0
 21
-0.9999999999999998
 31
0.0
 12
-0.9999999999999998
 22
0.0
 32
0.0
 13
0.0
 23
0.9999999999999998
 33
0.0
  0
ENDBLK
  5
162
330
160
100
AcDbEntity
  8
0
100
AcDbBlockEnd
  0
BLOCK
  5
16D
330
16C
100
AcDbEntity
  8
0
100
AcDbBlockBegin
  2
Filled-1
 70
     0
 10
0.0
 20
0.0
 30
0.0
  3
Filled-1
  1

  0
LINE
  5
16F
330
16C
100
AcDbEntity
  8
0
 62
     0
100
AcDbLine
 10
-0.9999999999999998
 20
0.0
 30
0.0
 11
0.0
 21
0.0
 31
0.0
  0
POLYLINE
  5
170
330
16C
100
AcDbEntity
  8
0
 62
     0
100
AcDb2dPolyline
 66
     1
 10
0.0
 20
0.0
 30
0.0
 70
   128
  0
VERTEX
  5
171
330
170
100
AcDbEntity
  8
0
 62
     0
100
AcDbVertex
100
AcDb2dVertex
 10
-0.9999999999999998
 20
-0.0994897959183674
 30
0.0
  0
VERTEX
  5
172
330
170
100
AcDbEntity
  8
0
 62
     0
100
AcDbVertex
100
AcDb2dVertex
 10
0.0
 20
0.0
 30
0.0
  0
VERTEX
  5
174
330
170
100
AcDbEntity
  8
0
 62
     0
100
AcDbVertex
100
AcDb2dVertex
 10
-0.9999999999999998
 20
0.0994897959183674
 30
0.0
  0
VERTEX
  5
175
330
170
100
AcDbEntity
  8
0
 62
     0
100
AcDbVertex
100
AcDb2dVertex
 10
-0.9999999999999998
 20
-0.0994897959183674
 30
0.0
  0
SEQEND
  5
173
330
170
100
AcDbEntity
  8
0
 62
     0
  0
SOLID
  5
176
330
16C
100
AcDbEntity
  8
0
 62
     0
100
AcDbTrace
 10
-0.9999999999999998
 20
-0.0994897959183674
 30
0.0
 11
0.0
 21
0.0
 31
0.0
 12
-0.9999999999999998
 22
0.0994897959183674
 32
0.0
 13
-0.9999999999999998
 23
-0.0994897959183674
 33
0.0
  0
LINE
  5
177
330
16C
100
AcDbEntity
  8
0
 62
     0
100
AcDbLine
 10
-0.9999999999999998
 20
-0.0994897959183674
 30
0.0
 11
0.0
 21
0.0
 31
0.0
  0
LINE
  5
178
330
16C
100
AcDbEntity
  8
0
 62
     0
100
AcDbLine
 10
0.0
 20
0.0
 30
0.0
 11
-0.9999999999999998
 21
0.0994897959183674
 31
0.0
  0
LINE
  5
179
330
16C
100
AcDbEntity
  8
0
 62
     0
100
AcDbLine
 10
-0.9999999999999998
 20
0.0994897959183674
 30
0.0
 11
-0.9999999999999998
 21
-0.0994897959183674
 31
0.0
  0
ENDBLK
  5
16E
330
16C
100
AcDbEntity
  8
0
100
AcDbBlockEnd
  0
BLOCK
  5
25B
330
25A
100
AcDbEntity
  8
0
100
AcDbBlockBegin
  2
*D4
 70
     1
 10
0.0
 20
0.0
 30
0.0
  3
*D4
  1

  0
LINE
  5
33A
330
25A
100
AcDbEntity
  8
Dimension (ANSI)
100
AcDbLine
 10
13.08009857079968
 20
12.84586187203182
 30
0.0
 11
3.052689349100163
 21
12.84586187203182
 31
0.0
  0
LINE
  5
33B
330
25A
100
AcDbEntity
  8
Dimension (ANSI)
100
AcDbLine
 10
13.08009857079967
 20
47.04586187203181
 30
0.0
 11
3.052689349100171
 21
47.04586187203181
 31
0.0
  0
LINE
  5
33C
330
25A
100
AcDbEntity
  8
Dimension (ANSI)
100
AcDbLine
 10
3.71935601576683
 20
13.37079624334428
 30
0.0
 11
3.719356015766834
 21
29.44455847738431
 31
0.0
  0
LINE
  5
33D
330
25A
100
AcDbEntity
  8
Dimension (ANSI)
100
AcDbLine
 10
3.719356015766837
 20
46.52092750071935
 30
0.0
 11
3.719356015766834
 21
30.4471652666793
 31
0.0
  0
SOLID
  5
33E
330
25A
100
AcDbEntity
  8
Dimension (ANSI)
100
AcDbTrace
 10
3.631866953881421
 20
13.37079624334428
 30
0.0
 11
3.80684507765224
 21
13.37079624334428
 31
0.0
 12
3.71935601576683
 22
12.84586187203182
 32
0.0
 13
3.71935601576683
 23
12.84586187203182
 33
0.0
  0
SOLID
  5
33F
330
25A
100
AcDbEntity
  8
Dimension (ANSI)
100
AcDbTrace
 10
3.631866953881428
 20
46.52092750071935
 30
0.0
 11
3.806845077652247
 21
46.52092750071935
 31
0.0
 12
3.719356015766838
 22
47.04586187203181
 32
0.0
 13
3.719356015766838
 23
47.04586187203181
 33
0.0
  0
MTEXT
  5
340
330
25A
100
AcDbEntity
  8
Dimension (ANSI)
100
AcDbMText
 10
2.663721319689388
 20
30.27918626405463
 30
0.0
 40
0.6400000254313151
 41
0.0
 71
     1
 72
     1
  1
\A1;34.20
  7
Note Text (ANSI)
 73
     1
 44
1.0
1001
ACAD
1000
MTEXTBEGIN
1070
    73
1070
     1
1070
    44
1040
1.0
1070
    74
1070
     0
1000
MTEXTEND
  0
POINT
  5
341
330
25A
100
AcDbEntity
  8
Defpoints
 62
     0
100
AcDbPoint
 10
13.41343190413301
 20
12.84586187203182
 30
0.0
  0
POINT
  5
342
330
25A
100
AcDbEntity
  8
Defpoints
 62
     0
100
AcDbPoint
 10
13.413431904133
 20
47.04586187203181
 30
0.0
  0
POINT
  5
343
330
25A
100
AcDbEntity
  8
Defpoints
 62
     0
100
AcDbPoint
 10
3.719356015766838
 20
47.04586187203181
 30
0.0
  0
ENDBLK
  5
25C
330
25A
100
AcDbEntity
  8
0
100
AcDbBlockEnd
  0
BLOCK
  5
346
330
345
100
AcDbEntity
  8
0
100
AcDbBlockBegin
  2
*D5
 70
     1
 10
0.0
 20
0.0
 30
0.0
  3
*D5
  1

  0
LINE
  5
424
330
345
100
AcDbEntity
  8
Dimension (ANSI)
100
AcDbLine
 10
12.913431904133
 20
46.87919520536514
 30
0.0
 11
12.913431904133
 21
52.25189861743865
 31
0.0
  0
LINE
  5
425
330
345
100
AcDbEntity
  8
Dimension (ANSI)
100
AcDbLine
 10
41.11343190413299
 20
46.87919520536515
 30
0.0
 11
41.11343190413299
 21
52.25189861743865
 31
0.0
  0
LINE
  5
426
330
345
100
AcDbEntity
  8
Dimension (ANSI)
100
AcDbLine
 10
13.43836627544546
 20
51.58523195077198
 30
0.0
 11
25.79239711755486
 21
51.58523195077198
 31
0.0
  0
LINE
  5
427
330
345
100
AcDbEntity
  8
Dimension (ANSI)
100
AcDbLine
 10
40.58849753282053
 20
51.58523195077198
 30
0.0
 11
28.23446669071115
 21
51.58523195077198
 31
0.0
  0
SOLID
  5
428
330
345
100
AcDbEntity
  8
Dimension (ANSI)
100
AcDbTrace
 10
13.43836627544546
 20
51.67272101265739
 30
0.0
 11
13.43836627544546
 21
51.49774288888657
 31
0.0
 12
12.913431904133
 22
51.58523195077198
 32
0.0
 13
12.913431904133
 23
51.58523195077198
 33
0.0
  0
SOLID
  5
429
330
345
100
AcDbEntity
  8
Dimension (ANSI)
100
AcDbTrace
 10
40.58849753282053
 20
51.67272101265739
 30
0.0
 11
40.58849753282053
 21
51.49774288888657
 31
0.0
 12
41.11343190413299
 22
51.58523195077198
 32
0.0
 13
41.11343190413299
 23
51.58523195077198
 33
0.0
  0
MTEXT
  5
42A
330
345
100
AcDbEntity
  8
Dimension (ANSI)
100
AcDbMText
 10
25.96037612017953
 20
51.91984579885679
 30
0.0
 40
0.6400000254313151
 41
0.0
 71
     1
 72
     1
  1
\A1;28.20
  7
Note Text (ANSI)
 73
     1
 44
1.0
1001
ACAD
1000
MTEXTBEGIN
1070
    73
1070
     1
1070
    44
1040
1.0
1070
    74
1070
     0
1000
MTEXTEND
  0
POINT
  5
42B
330
345
100
AcDbEntity
  8
Defpoints
 62
     0
100
AcDbPoint
 10
12.913431904133
 20
46.54586187203181
 30
0.0
  0
POINT
  5
42C
330
345
100
AcDbEntity
  8
Defpoints
 62
     0
100
AcDbPoint
 10
41.11343190413299
 20
46.54586187203181
 30
0.0
  0
POINT
  5
42D
330
345
100
AcDbEntity
  8
Defpoints
 62
     0
100
AcDbPoint
 10
41.11343190413299
 20
51.58523195077198
 30
0.0
  0
ENDBLK
  5
347
330
345
100
AcDbEntity
  8
0
100
AcDbBlockEnd
  0
BLOCK
  5
430
330
42F
100
AcDbEntity
  8
0
100
AcDbBlockBegin
  2
*D6
 70
     1
 10
0.0
 20
0.0
 30
0.0
  3
*D6
  1

  0
LINE
  5
523
330
42F
100
AcDbEntity
  8
Dimension (ANSI)
100
AcDbLine
 10
13.10009857079968
 20
13.36586187203182
 30
0.0
 11
11.25170279305592
 21
13.36586187203182
 31
0.0
  0
LINE
  5
524
330
42F
100
AcDbEntity
  8
Dimension (ANSI)
100
AcDbLine
 10
13.10009857079968
 20
14.11586187203182
 30
0.0
 11
11.25170279305592
 21
14.11586187203182
 31
0.0
  0
LINE
  5
525
330
42F
100
AcDbEntity
  8
Dimension (ANSI)
100
AcDbLine
 10
11.91836945972259
 20
14.64079624334428
 30
0.0
 11
11.91836945972259
 21
15.16573061465674
 31
0.0
  0
LINE
  5
526
330
42F
100
AcDbEntity
  8
Dimension (ANSI)
100
AcDbLine
 10
11.91836945972259
 20
12.84092750071936
 30
0.0
 11
11.91836945972259
 21
11.83715254885948
 31
0.0
  0
LINE
  5
527
330
42F
100
AcDbEntity
  8
Dimension (ANSI)
100
AcDbLine
 10
11.91836945972259
 20
11.83715254885948
 30
0.0
 11
11.39343508841013
 21
11.83715254885948
 31
0.0
  0
SOLID
  5
528
330
42F
100
AcDbEntity
  8
Dimension (ANSI)
100
AcDbTrace
 10
11.83088039783718
 20
14.64079624334428
 30
0.0
 11
12.005858521608
 21
14.64079624334428
 31
0.0
 12
11.91836945972259
 22
14.11586187203182
 32
0.0
 13
11.91836945972259
 23
14.11586187203182
 33
0.0
  0
SOLID
  5
529
330
42F
100
AcDbEntity
  8
Dimension (ANSI)
100
AcDbTrace
 10
11.83088039783718
 20
12.84092750071936
 30
0.0
 11
12.005858521608
 21
12.84092750071936
 31
0.0
 12
11.91836945972259
 22
13.36586187203182
 32
0.0
 13
11.91836945972259
 23
13.36586187203182
 33
0.0
  0
MTEXT
  5
52A
330
42F
100
AcDbEntity
  8
Dimension (ANSI)
100
AcDbMText
 10
9.599022172936502
 20
12.17026203153864
 30
0.0
 40
0.6400000254313151
 41
0.0
 71
     1
 72
     1
  1
\A1;0.75
  7
Note Text (ANSI)
 73
     1
 44
1.0
1001
ACAD
1000
MTEXTBEGIN
1070
    73
1070
     1
1070
    44
1040
1.0
1070
    74
1070
     0
1000
MTEXTEND
  0
POINT
  5
52B
330
42F
100
AcDbEntity
  8
Defpoints
 62
     0
100
AcDbPoint
 10
13.43343190413301
 20
13.36586187203182
 30
0.0
  0
POINT
  5
52C
330
42F
100
AcDbEntity
  8
Defpoints
 62
     0
100
AcDbPoint
 10
13.43343190413301
 20
14.11586187203182
 30
0.0
  0
POINT
  5
52D
330
42F
100
AcDbEntity
  8
Defpoints
 62
     0
100
AcDbPoint
 10
11.91836945972259
 20
14.11586187203182
 30
0.0
  0
ENDBLK
  5
431
330
42F
100
AcDbEntity
  8
0
100
AcDbBlockEnd
  0
BLOCK
  5
530
330
52F
100
AcDbEntity
  8
0
100
AcDbBlockBegin
  2
*D7
 70
     1
 10
0.0
 20
0.0
 30
0.0
  3
*D7
  1

  0
LINE
  5
623
330
52F
100
AcDbEntity
  8
Dimension (ANSI)
100
AcDbLine
 10
40.94676523746634
 20
47.04586187203181
 30
0.0
 11
45.91948865921617
 21
47.04586187203181
 31
0.0
  0
LINE
  5
624
330
52F
100
AcDbEntity
  8
Dimension (ANSI)
100
AcDbLine
 10
40.92676523746634
 20
46.52586187203182
 30
0.0
 11
45.91948865921617
 21
46.52586187203182
 31
0.0
  0
LINE
  5
625
330
52F
100
AcDbEntity
  8
Dimension (ANSI)
100
AcDbLine
 10
45.25282199254951
 20
47.57079624334427
 30
0.0
 11
45.25282199254951
 21
48.09573061465673
 31
0.0
  0
LINE
  5
626
330
52F
100
AcDbEntity
  8
Dimension (ANSI)
100
AcDbLine
 10
45.25282199254951
 20
46.00092750071936
 30
0.0
 11
45.25282199254951
 21
44.99676356988632
 31
0.0
  0
LINE
  5
627
330
52F
100
AcDbEntity
  8
Dimension (ANSI)
100
AcDbLine
 10
45.25282199254951
 20
44.99676356988632
 30
0.0
 11
44.72788762123705
 21
44.99676356988632
 31
0.0
  0
SOLID
  5
628
330
52F
100
AcDbEntity
  8
Dimension (ANSI)
100
AcDbTrace
 10
45.1653329306641
 20
47.57079624334427
 30
0.0
 11
45.34031105443491
 21
47.57079624334427
 31
0.0
 12
45.25282199254951
 22
47.04586187203181
 32
0.0
 13
45.25282199254951
 23
47.04586187203181
 33
0.0
  0
SOLID
  5
629
330
52F
100
AcDbEntity
  8
Dimension (ANSI)
100
AcDbTrace
 10
45.1653329306641
 20
46.00092750071936
 30
0.0
 11
45.34031105443491
 21
46.00092750071936
 31
0.0
 12
45.25282199254951
 22
46.52586187203182
 32
0.0
 13
45.25282199254951
 23
46.52586187203182
 33
0.0
  0
MTEXT
  5
62A
330
52F
100
AcDbEntity
  8
Dimension (ANSI)
100
AcDbMText
 10
42.92616778807884
 20
45.33008796190915
 30
0.0
 40
0.6400000254313151
 41
0.0
 71
     1
 72
     1
  1
\A1;0.52
  7
Note Text (ANSI)
 73
     1
 44
1.0
1001
ACAD
1000
MTEXTBEGIN
1070
    73
1070
     1
1070
    44
1040
1.0
1070
    74
1070
     0
1000
MTEXTEND
  0
POINT
  5
62B
330
52F
100
AcDbEntity
  8
Defpoints
 62
     0
100
AcDbPoint
 10
40.613431904133
 20
47.04586187203181
 30
0.0
  0
POINT
  5
62C
330
52F
100
AcDbEntity
  8
Defpoints
 62
     0
100
AcDbPoint
 10
40.593431904133
 20
46.52586187203182
 30
0.0
  0
POINT
  5
62D
330
52F
100
AcDbEntity
  8
Defpoints
 62
     0
100
AcDbPoint
 10
45.25282199254951
 20
46.52586187203182
 30
0.0
  0
ENDBLK
  5
531
330
52F
100
AcDbEntity
  8
0
100
AcDbBlockEnd
  0
BLOCK
  5
630
330
62F
100
AcDbEntity
  8
0
100
AcDbBlockBegin
  2
*D8
 70
     1
 10
0.0
 20
0.0
 30
0.0
  3
*D8
  1

  0
LINE
  5
70E
330
62F
100
AcDbEntity
  8
Dimension (ANSI)
100
AcDbLine
 10
41.11343190413299
 20
46.87919520536515
 30
0.0
 11
41.11343190413299
 21
50.36213483791108
 31
0.0
  0
LINE
  5
70F
330
62F
100
AcDbEntity
  8
Dimension (ANSI)
100
AcDbLine
 10
40.593431904133
 20
46.85919520536515
 30
0.0
 11
40.593431904133
 21
50.36213483791108
 31
0.0
  0
LINE
  5
710
330
62F
100
AcDbEntity
  8
Dimension (ANSI)
100
AcDbLine
 10
40.06849753282054
 20
49.69546817124442
 30
0.0
 11
39.54356316150809
 21
49.69546817124442
 31
0.0
  0
LINE
  5
711
330
62F
100
AcDbEntity
  8
Dimension (ANSI)
100
AcDbLine
 10
41.63836627544545
 20
49.69546817124442
 30
0.0
 11
42.43797246919096
 21
49.69546817124442
 31
0.0
  0
SOLID
  5
712
330
62F
100
AcDbEntity
  8
Dimension (ANSI)
100
AcDbTrace
 10
40.06849753282054
 20
49.78295723312982
 30
0.0
 11
40.06849753282054
 21
49.60797910935901
 31
0.0
 12
40.593431904133
 22
49.69546817124442
 32
0.0
 13
40.593431904133
 23
49.69546817124442
 33
0.0
  0
SOLID
  5
713
330
62F
100
AcDbEntity
  8
Dimension (ANSI)
100
AcDbTrace
 10
41.63836627544545
 20
49.78295723312982
 30
0.0
 11
41.63836627544545
 21
49.60797910935901
 31
0.0
 12
41.11343190413299
 22
49.69546817124442
 32
0.0
 13
41.11343190413299
 23
49.69546817124442
 33
0.0
  0
MTEXT
  5
714
330
62F
100
AcDbEntity
  8
Dimension (ANSI)
100
AcDbMText
 10
42.60595147181564
 20
50.02879256326724
 30
0.0
 40
0.6400000254313151
 41
0.0
 71
     1
 72
     1
  1
\A1;0.52
  7
Note Text (ANSI)
 73
     1
 44
1.0
1001
ACAD
1000
MTEXTBEGIN
1070
    73
1070
     1
1070
    44
1040
1.0
1070
    74
1070
     0
1000
MTEXTEND
  0
POINT
  5
715
330
62F
100
AcDbEntity
  8
Defpoints
 62
     0
100
AcDbPoint
 10
41.11343190413299
 20
46.54586187203181
 30
0.0
  0
POINT
  5
716
330
62F
100
AcDbEntity
  8
Defpoints
 62
     0
100
AcDbPoint
 10
40.593431904133
 20
46.52586187203182
 30
0.0
  0
POINT
  5
717
330
62F
100
AcDbEntity
  8
Defpoints
 62
     0
100
AcDbPoint
 10
40.593431904133
 20
49.69546817124442
 30
0.0
  0
ENDBLK
  5
631
330
62F
100
AcDbEntity
  8
0
100
AcDbBlockEnd
  0
BLOCK
  5
71A
330
719
100
AcDbEntity
  8
0
100
AcDbBlockBegin
  2
*D9
 70
     1
 10
0.0
 20
0.0
 30
0.0
  3
*D9
  1

  0
LINE
  5
7F8
330
719
100
AcDbEntity
  8
Dimension (ANSI)
100
AcDbLine
 10
13.10009857079968
 20
13.36586187203182
 30
0.0
 11
8.150395113150931
 21
13.36586187203182
 31
0.0
  0
LINE
  5
7F9
330
719
100
AcDbEntity
  8
Dimension (ANSI)
100
AcDbLine
 10
13.10009857079968
 20
29.94586187203181
 30
0.0
 11
8.150395113150935
 21
29.94586187203181
 31
0.0
  0
LINE
  5
7FA
330
719
100
AcDbEntity
  8
Dimension (ANSI)
100
AcDbLine
 10
8.817061779817599
 20
13.89079624334428
 30
0.0
 11
8.817061779817601
 21
21.15326902132233
 31
0.0
  0
LINE
  5
7FB
330
719
100
AcDbEntity
  8
Dimension (ANSI)
100
AcDbLine
 10
8.817061779817603
 20
29.42092750071936
 30
0.0
 11
8.817061779817601
 21
22.15845472274129
 31
0.0
  0
SOLID
  5
7FC
330
719
100
AcDbEntity
  8
Dimension (ANSI)
100
AcDbTrace
 10
8.729572717932189
 20
13.89079624334428
 30
0.0
 11
8.904550841703009
 21
13.89079624334428
 31
0.0
 12
8.817061779817599
 22
13.36586187203182
 32
0.0
 13
8.817061779817599
 23
13.36586187203182
 33
0.0
  0
SOLID
  5
7FD
330
719
100
AcDbEntity
  8
Dimension (ANSI)
100
AcDbTrace
 10
8.729572717932192
 20
29.42092750071936
 30
0.0
 11
8.904550841703013
 21
29.42092750071936
 31
0.0
 12
8.817061779817603
 22
29.94586187203181
 32
0.0
 13
8.817061779817603
 23
29.94586187203181
 33
0.0
  0
MTEXT
  5
7FE
330
719
100
AcDbEntity
  8
Dimension (ANSI)
100
AcDbMText
 10
7.548881742856486
 20
21.99047572011663
 30
0.0
 40
0.6400000254313151
 41
0.0
 71
     1
 72
     1
  1
\A1;16.580
  7
Note Text (ANSI)
 73
     1
 44
1.0
1001
ACAD
1000
MTEXTBEGIN
1070
    73
1070
     1
1070
    44
1040
1.0
1070
    74
1070
     0
1000
MTEXTEND
  0
POINT
  5
7FF
330
719
100
AcDbEntity
  8
Defpoints
 62
     0
100
AcDbPoint
 10
13.43343190413301
 20
13.36586187203182
 30
0.0
  0
POINT
  5
800
330
719
100
AcDbEntity
  8
Defpoints
 62
     0
100
AcDbPoint
 10
13.43343190413301
 20
29.94586187203181
 30
0.0
  0
POINT
  5
801
330
719
100
AcDbEntity
  8
Defpoints
 62
     0
100
AcDbPoint
 10
8.817061779817603
 20
29.94586187203181
 30
0.0
  0
ENDBLK
  5
71B
330
719
100
AcDbEntity
  8
0
100
AcDbBlockEnd
  0
BLOCK
  5
804
330
803
100
AcDbEntity
  8
0
100
AcDbBlockBegin
  2
*D10
 70
     1
 10
0.0
 20
0.0
 30
0.0
  3
*D10
  1

  0
LINE
  5
8E2
330
803
100
AcDbEntity
  8
Dimension (ANSI)
100
AcDbLine
 10
13.10009857079968
 20
13.36586187203182
 30
0.0
 11
5.575762748219877
 21
13.36586187203182
 31
0.0
  0
LINE
  5
8E3
330
803
100
AcDbEntity
  8
Dimension (ANSI)
100
AcDbLine
 10
13.10009857079968
 20
46.52586187203181
 30
0.0
 11
5.575762748219885
 21
46.52586187203181
 31
0.0
  0
LINE
  5
8E4
330
803
100
AcDbEntity
  8
Dimension (ANSI)
100
AcDbLine
 10
6.242429414886544
 20
13.89079624334428
 30
0.0
 11
6.242429414886549
 21
36.95580489264678
 31
0.0
  0
LINE
  5
8E5
330
803
100
AcDbEntity
  8
Dimension (ANSI)
100
AcDbLine
 10
6.242429414886552
 20
46.00092750071935
 30
0.0
 11
6.242429414886549
 21
37.95841168194177
 31
0.0
  0
SOLID
  5
8E6
330
803
100
AcDbEntity
  8
Dimension (ANSI)
100
AcDbTrace
 10
6.154940353001133
 20
13.89079624334428
 30
0.0
 11
6.329918476771954
 21
13.89079624334428
 31
0.0
 12
6.242429414886544
 22
13.36586187203182
 32
0.0
 13
6.242429414886544
 23
13.36586187203182
 33
0.0
  0
SOLID
  5
8E7
330
803
100
AcDbEntity
  8
Dimension (ANSI)
100
AcDbTrace
 10
6.154940353001141
 20
46.00092750071935
 30
0.0
 11
6.329918476771962
 21
46.00092750071935
 31
0.0
 12
6.242429414886552
 22
46.52586187203181
 32
0.0
 13
6.242429414886552
 23
46.52586187203181
 33
0.0
  0
MTEXT
  5
8E8
330
803
100
AcDbEntity
  8
Dimension (ANSI)
100
AcDbMText
 10
4.94652607259278
 20
37.7904326793171
 30
0.0
 40
0.6400000254313151
 41
0.0
 71
     1
 72
     1
  1
\A1;33.160
  7
Note Text (ANSI)
 73
     1
 44
1.0
1001
ACAD
1000
MTEXTBEGIN
1070
    73
1070
     1
1070
    44
1040
1.0
1070
    74
1070
     0
1000
MTEXTEND
  0
POINT
  5
8E9
330
803
100
AcDbEntity
  8
Defpoints
 62
     0
100
AcDbPoint
 10
13.43343190413301
 20
13.36586187203182
 30
0.0
  0
POINT
  5
8EA
330
803
100
AcDbEntity
  8
Defpoints
 62
     0
100
AcDbPoint
 10
13.43343190413301
 20
46.52586187203181
 30
0.0
  0
POINT
  5
8EB
330
803
100
AcDbEntity
  8
Defpoints
 62
     0
100
AcDbPoint
 10
6.242429414886552
 20
46.52586187203181
 30
0.0
  0
ENDBLK
  5
805
330
803
100
AcDbEntity
  8
0
100
AcDbBlockEnd
  0
BLOCK
  5
8EE
330
8ED
100
AcDbEntity
  8
0
100
AcDbBlockBegin
  2
*D11
 70
     1
 10
0.0
 20
0.0
 30
0.0
  3
*D11
  1

  0
LINE
  5
9CC
330
8ED
100
AcDbEntity
  8
Dimension (ANSI)
100
AcDbLine
 10
54.0702451035439
 20
47.37919520536514
 30
0.0
 11
54.0702451035439
 21
50.71893798751737
 31
0.0
  0
LINE
  5
9CD
330
8ED
100
AcDbEntity
  8
Dimension (ANSI)
100
AcDbLine
 10
54.84424510354405
 20
45.66119520536515
 30
0.0
 11
54.84424510354405
 21
50.71893798751737
 31
0.0
  0
LINE
  5
9CE
330
8ED
100
AcDbEntity
  8
Dimension (ANSI)
100
AcDbLine
 10
55.36917947485651
 20
50.05227132085071
 30
0.0
 11
55.89411384616897
 21
50.05227132085071
 31
0.0
  0
LINE
  5
9CF
330
8ED
100
AcDbEntity
  8
Dimension (ANSI)
100
AcDbLine
 10
53.54531073223144
 20
50.05227132085071
 30
0.0
 11
52.74914308798457
 21
50.05227132085071
 31
0.0
  0
SOLID
  5
9D0
330
8ED
100
AcDbEntity
  8
Dimension (ANSI)
100
AcDbTrace
 10
55.36917947485651
 20
50.13976038273612
 30
0.0
 11
55.36917947485651
 21
49.96478225896531
 31
0.0
 12
54.84424510354405
 22
50.05227132085071
 32
0.0
 13
54.84424510354405
 23
50.05227132085071
 33
0.0
  0
SOLID
  5
9D1
330
8ED
100
AcDbEntity
  8
Dimension (ANSI)
100
AcDbTrace
 10
53.54531073223144
 20
50.13976038273612
 30
0.0
 11
53.54531073223144
 21
49.96478225896531
 31
0.0
 12
54.0702451035439
 22
50.05227132085071
 32
0.0
 13
54.0702451035439
 23
50.05227132085071
 33
0.0
  0
MTEXT
  5
9D2
330
8ED
100
AcDbEntity
  8
Dimension (ANSI)
100
AcDbMText
 10
50.94054615582912
 20
50.38538080352988
 30
0.0
 40
0.6400000254313151
 41
0.0
 71
     1
 72
     1
  1
\A1;0.77
  7
Note Text (ANSI)
 73
     1
 44
1.0
1001
ACAD
1000
MTEXTBEGIN
1070
    73
1070
     1
1070
    44
1040
1.0
1070
    74
1070
     0
1000
MTEXTEND
  0
POINT
  5
9D3
330
8ED
100
AcDbEntity
  8
Defpoints
 62
     0
100
AcDbPoint
 10
54.0702451035439
 20
47.04586187203181
 30
0.0
  0
POINT
  5
9D4
330
8ED
100
AcDbEntity
  8
Defpoints
 62
     0
100
AcDbPoint
 10
54.84424510354405
 20
45.32786187203181
 30
0.0
  0
POINT
  5
9D5
330
8ED
100
AcDbEntity
  8
Defpoints
 62
     0
100
AcDbPoint
 10
54.84424510354405
 20
50.05227132085071
 30
0.0
  0
ENDBLK
  5
8EF
330
8ED
100
AcDbEntity
  8
0
100
AcDbBlockEnd
  0
BLOCK
  5
9DA
330
9D9
100
AcDbEntity
  8
0
100
AcDbBlockBegin
  2
*D12
 70
     1
 10
0.0
 20
0.0
 30
0.0
  3
*D12
  1

  0
LINE
  5
ACD
330
9D9
100
AcDbEntity
  8
Dimension (ANSI)
100
AcDbLine
 10
40.94676523746634
 20
12.84586187203182
 30
0.0
 11
44.75206563736151
 21
12.84586187203182
 31
0.0
  0
LINE
  5
ACE
330
9D9
100
AcDbEntity
  8
Dimension (ANSI)
100
AcDbLine
 10
41.44676523746634
 20
13.34586187203182
 30
0.0
 11
44.75206563736151
 21
13.34586187203181
 31
0.0
  0
LINE
  5
ACF
330
9D9
100
AcDbEntity
  8
Dimension (ANSI)
100
AcDbLine
 10
44.08539897069485
 20
12.32092750071936
 30
0.0
 11
44.08539897069485
 21
11.7959931294069
 31
0.0
  0
LINE
  5
AD0
330
9D9
100
AcDbEntity
  8
Dimension (ANSI)
100
AcDbLine
 10
44.08539897069485
 20
13.87079624334427
 30
0.0
 11
44.08539897069485
 21
14.87457119520415
 31
0.0
  0
LINE
  5
AD1
330
9D9
100
AcDbEntity
  8
Dimension (ANSI)
100
AcDbLine
 10
44.08539897069485
 20
14.87457119520415
 30
0.0
 11
44.61033334200731
 21
14.87457119520415
 31
0.0
  0
SOLID
  5
AD2
330
9D9
100
AcDbEntity
  8
Dimension (ANSI)
100
AcDbTrace
 10
43.99790990880944
 20
12.32092750071936
 30
0.0
 11
44.17288803258026
 21
12.32092750071936
 31
0.0
 12
44.08539897069485
 22
12.84586187203182
 32
0.0
 13
44.08539897069485
 23
12.84586187203182
 33
0.0
  0
SOLID
  5
AD3
330
9D9
100
AcDbEntity
  8
Dimension (ANSI)
100
AcDbTrace
 10
43.99790990880944
 20
13.87079624334428
 30
0.0
 11
44.17288803258026
 21
13.87079624334427
 31
0.0
 12
44.08539897069485
 22
13.34586187203181
 32
0.0
 13
44.08539897069485
 23
13.34586187203181
 33
0.0
  0
MTEXT
  5
AD4
330
9D9
100
AcDbEntity
  8
Dimension (ANSI)
100
AcDbMText
 10
44.77831234463198
 20
15.20768067788331
 30
0.0
 40
0.6400000254313151
 41
0.0
 71
     1
 72
     1
  1
\A1;0.50
  7
Note Text (ANSI)
 73
     1
 44
1.0
1001
ACAD
1000
MTEXTBEGIN
1070
    73
1070
     1
1070
    44
1040
1.0
1070
    74
1070
     0
1000
MTEXTEND
  0
POINT
  5
AD5
330
9D9
100
AcDbEntity
  8
Defpoints
 62
     0
100
AcDbPoint
 10
40.613431904133
 20
12.84586187203182
 30
0.0
  0
POINT
  5
AD6
330
9D9
100
AcDbEntity
  8
Defpoints
 62
     0
100
AcDbPoint
 10
41.113431904133
 20
13.34586187203182
 30
0.0
  0
POINT
  5
AD7
330
9D9
100
AcDbEntity
  8
Defpoints
 62
     0
100
AcDbPoint
 10
44.08539897069485
 20
13.34586187203181
 30
0.0
  0
ENDBLK
  5
9DB
330
9D9
100
AcDbEntity
  8
0
100
AcDbBlockEnd
  0
BLOCK
  5
ADA
330
AD9
100
AcDbEntity
  8
0
100
AcDbBlockBegin
  2
*D13
 70
     1
 10
0.0
 20
0.0
 30
0.0
  3
*D13
  1

  0
LINE
  5
BB8
330
AD9
100
AcDbEntity
  8
Dimension (ANSI)
100
AcDbLine
 10
41.113431904133
 20
13.01252853869848
 30
0.0
 11
41.113431904133
 21
8.242187331349409
 31
0.0
  0
LINE
  5
BB9
330
AD9
100
AcDbEntity
  8
Dimension (ANSI)
100
AcDbLine
 10
40.613431904133
 20
12.51252853869848
 30
0.0
 11
40.613431904133
 21
8.242187331349409
 31
0.0
  0
LINE
  5
BBA
330
AD9
100
AcDbEntity
  8
Dimension (ANSI)
100
AcDbLine
 10
41.63836627544546
 20
8.908853998016075
 30
0.0
 11
42.16330064675792
 21
8.908853998016075
 31
0.0
  0
LINE
  5
BBB
330
AD9
100
AcDbEntity
  8
Dimension (ANSI)
100
AcDbLine
 10
40.08849753282054
 20
8.908853998016075
 30
0.0
 11
39.29039570448069
 21
8.908853998016075
 31
0.0
  0
SOLID
  5
BBC
330
AD9
100
AcDbEntity
  8
Dimension (ANSI)
100
AcDbTrace
 10
41.63836627544546
 20
8.996343059901485
 30
0.0
 11
41.63836627544546
 21
8.821364936130665
 31
0.0
 12
41.113431904133
 22
8.908853998016075
 32
0.0
 13
41.113431904133
 23
8.908853998016075
 33
0.0
  0
SOLID
  5
BBD
330
AD9
100
AcDbEntity
  8
Dimension (ANSI)
100
AcDbTrace
 10
40.08849753282054
 20
8.996343059901485
 30
0.0
 11
40.08849753282054
 21
8.821364936130665
 31
0.0
 12
40.613431904133
 22
8.908853998016075
 32
0.0
 13
40.613431904133
 23
8.908853998016075
 33
0.0
  0
MTEXT
  5
BBE
330
AD9
100
AcDbEntity
  8
Dimension (ANSI)
100
AcDbMText
 10
37.48566714051119
 20
9.241963480695234
 30
0.0
 40
0.6400000254313151
 41
0.0
 71
     1
 72
     1
  1
\A1;0.50
  7
Note Text (ANSI)
 73
     1
 44
1.0
1001
ACAD
1000
MTEXTBEGIN
1070
    73
1070
     1
1070
    44
1040
1.0
1070
    74
1070
     0
1000
MTEXTEND
  0
POINT
  5
BBF
330
AD9
100
AcDbEntity
  8
Defpoints
 62
     0
100
AcDbPoint
 10
41.113431904133
 20
13.34586187203182
 30
0.0
  0
POINT
  5
BC0
330
AD9
100
AcDbEntity
  8
Defpoints
 62
     0
100
AcDbPoint
 10
40.613431904133
 20
12.84586187203182
 30
0.0
  0
POINT
  5
BC1
330
AD9
100
AcDbEntity
  8
Defpoints
 62
     0
100
AcDbPoint
 10
40.613431904133
 20
8.908853998016075
 30
0.0
  0
ENDBLK
  5
ADB
330
AD9
100
AcDbEntity
  8
0
100
AcDbBlockEnd
  0
BLOCK
  5
BC4
330
BC3
100
AcDbEntity
  8
0
100
AcDbBlockBegin
  2
*D14
 70
     1
 10
0.0
 20
0.0
 30
0.0
  3
*D14
  1

  0
LINE
  5
C74
330
BC3
100
AcDbEntity
  8
Dimension (ANSI)
100
AcDbLine
 10
9.479304334013107
 20
52.24314838831275
 30
0.0
 11
10.13255499492252
 21
52.24314838831274
 31
0.0
  0
LINE
  5
C75
330
BC3
100
AcDbEntity
  8
Dimension (ANSI)
100
AcDbLine
 10
10.13255499492252
 20
52.24314838831274
 30
0.0
 11
13.04596471847664
 21
47.19697472385404
 31
0.0
  0
MTEXT
  5
C76
102
{ACAD_XDICTIONARY
360
E6B
102
}
330
BC3
100
AcDbEntity
  8
Dimension (ANSI)
100
AcDbMText
 10
9.311325331388436
 20
52.73117168954968
 30
0.0
 40
0.6400000254313151
 41
0.0
 71
     3
 72
     1
  1
\A1;\U+22050.50{\PTYP.(6PL.)}
  7
Note Text (ANSI)
 73
     1
 44
1.0
1001
ACAD
1000
MTEXTBEGIN
1070
    73
1070
     1
1070
    44
1040
1.0
1070
    74
1070
     0
1000
MTEXTEND
  0
SOLID
  5
C77
330
BC3
100
AcDbEntity
  8
Dimension (ANSI)
100
AcDbTrace
 10
13.12173246862266
 20
47.24071925479676
 30
0.0
 11
12.97019696833061
 21
47.15323019291132
 31
0.0
 12
13.30843190413296
 22
46.74236822297788
 32
0.0
 13
13.30843190413296
 23
46.74236822297788
 33
0.0
  0
LINE
  5
C78
330
BC3
100
AcDbEntity
  8
Dimension (ANSI)
100
AcDbLine
 10
12.95343190413301
 20
46.52586187203179
 30
0.0
 11
13.913431904133
 21
46.52586187203179
 31
0.0
  0
LINE
  5
C79
330
BC3
100
AcDbEntity
  8
Dimension (ANSI)
100
AcDbLine
 10
13.43343190413301
 20
46.04586187203181
 30
0.0
 11
13.433431904133
 21
47.00586187203179
 31
0.0
  0
POINT
  5
C7A
330
BC3
100
AcDbEntity
  8
Defpoints
 62
     0
100
AcDbPoint
 10
13.30843190413296
 20
46.74236822297788
 30
0.0
  0
POINT
  5
C7B
330
BC3
100
AcDbEntity
  8
Defpoints
 62
     0
100
AcDbPoint
 10
13.55843190413305
 20
46.3093555210857
 30
0.0
  0
ENDBLK
  5
BC5
330
BC3
100
AcDbEntity
  8
0
100
AcDbBlockEnd
  0
BLOCK
  5
C7E
330
C7D
100
AcDbEntity
  8
0
100
AcDbBlockBegin
  2
*D15
 70
     1
 10
0.0
 20
0.0
 30
0.0
  3
*D15
  1

  0
LINE
  5
D2D
330
C7D
100
AcDbEntity
  8
Dimension (ANSI)
100
AcDbLine
 10
15.78563491443357
 20
9.988001803560097
 30
0.0
 11
15.13248699629014
 21
9.988001803560095
 31
0.0
  0
LINE
  5
D2E
330
C7D
100
AcDbEntity
  8
Dimension (ANSI)
100
AcDbLine
 10
15.13248699629014
 20
9.988001803560095
 30
0.0
 11
13.69270764783871
 21
13.48595057951024
 31
0.0
  0
MTEXT
  5
D2F
102
{ACAD_XDICTIONARY
360
E6D
102
}
330
C7D
100
AcDbEntity
  8
Dimension (ANSI)
100
AcDbMText
 10
15.95361391705824
 20
10.47602510479704
 30
0.0
 40
0.6400000254313151
 41
0.0
 71
     1
 72
     1
  1
\A1;\U+22050.31{\PTYP. (4PL.)}
  7
Note Text (ANSI)
 73
     1
 44
1.0
1001
ACAD
1000
MTEXTBEGIN
1070
    73
1070
     1
1070
    44
1040
1.0
1070
    74
1070
     0
1000
MTEXTEND
  0
SOLID
  5
D30
330
C7D
100
AcDbEntity
  8
Dimension (ANSI)
100
AcDbTrace
 10
13.77361136550264
 20
13.5192510962892
 30
0.0
 11
13.61180393017479
 21
13.45265006273129
 31
0.0
 12
13.49290454716497
 22
13.97137288549377
 32
0.0
 13
13.49290454716497
 23
13.97137288549377
 33
0.0
  0
LINE
  5
D31
330
C7D
100
AcDbEntity
  8
Dimension (ANSI)
100
AcDbLine
 10
12.95343190413301
 20
14.11586187203182
 30
0.0
 11
13.91343190413301
 21
14.11586187203182
 31
0.0
  0
LINE
  5
D32
330
C7D
100
AcDbEntity
  8
Dimension (ANSI)
100
AcDbLine
 10
13.43343190413302
 20
13.63586187203182
 30
0.0
 11
13.43343190413301
 21
14.59586187203182
 31
0.0
  0
POINT
  5
D33
330
C7D
100
AcDbEntity
  8
Defpoints
 62
     0
100
AcDbPoint
 10
13.49290454716497
 20
13.97137288549377
 30
0.0
  0
POINT
  5
D34
330
C7D
100
AcDbEntity
  8
Defpoints
 62
     0
100
AcDbPoint
 10
13.37395926110106
 20
14.26035085856987
 30
0.0
  0
ENDBLK
  5
C7F
330
C7D
100
AcDbEntity
  8
0
100
AcDbBlockEnd
  0
BLOCK
  5
D37
330
D36
100
AcDbEntity
  8
0
100
AcDbBlockBegin
  2
*D16
 70
     1
 10
0.0
 20
0.0
 30
0.0
  3
*D16
  1

  0
LINE
  5
E15
330
D36
100
AcDbEntity
  8
Dimension (ANSI)
100
AcDbLine
 10
40.593431904133
 20
46.85919520536515
 30
0.0
 11
40.593431904133
 21
50.36213483791108
 31
0.0
  0
LINE
  5
E16
330
D36
100
AcDbEntity
  8
Dimension (ANSI)
100
AcDbLine
 10
13.43343190413301
 20
46.85919520536514
 30
0.0
 11
13.43343190413301
 21
50.36213483791108
 31
0.0
  0
LINE
  5
E17
330
D36
100
AcDbEntity
  8
Dimension (ANSI)
100
AcDbLine
 10
40.06849753282054
 20
49.69546817124442
 30
0.0
 11
28.23790524020978
 21
49.69546817124442
 31
0.0
  0
LINE
  5
E18
330
D36
100
AcDbEntity
  8
Dimension (ANSI)
100
AcDbLine
 10
13.95836627544547
 20
49.69546817124442
 30
0.0
 11
25.78895856805624
 21
49.69546817124442
 31
0.0
  0
SOLID
  5
E19
330
D36
100
AcDbEntity
  8
Dimension (ANSI)
100
AcDbTrace
 10
40.06849753282054
 20
49.78295723312982
 30
0.0
 11
40.06849753282054
 21
49.60797910935901
 31
0.0
 12
40.593431904133
 22
49.69546817124442
 32
0.0
 13
40.593431904133
 23
49.69546817124442
 33
0.0
  0
SOLID
  5
E1A
330
D36
100
AcDbEntity
  8
Dimension (ANSI)
100
AcDbTrace
 10
13.95836627544547
 20
49.78295723312982
 30
0.0
 11
13.95836627544547
 21
49.60797910935901
 31
0.0
 12
13.43343190413301
 22
49.69546817124442
 32
0.0
 13
13.43343190413301
 23
49.69546817124442
 33
0.0
  0
MTEXT
  5
E1B
330
D36
100
AcDbEntity
  8
Dimension (ANSI)
100
AcDbMText
 10
25.95693757068091
 20
50.02879256326724
 30
0.0
 40
0.6400000254313151
 41
0.0
 71
     1
 72
     1
  1
\A1;27.16
  7
Note Text (ANSI)
 73
     1
 44
1.0
1001
ACAD
1000
MTEXTBEGIN
1070
    73
1070
     1
1070
    44
1040
1.0
1070
    74
1070
     0
1000
MTEXTEND
  0
POINT
  5
E1C
330
D36
100
AcDbEntity
  8
Defpoints
 62
     0
100
AcDbPoint
 10
40.593431904133
 20
46.52586187203182
 30
0.0
  0
POINT
  5
E1D
330
D36
100
AcDbEntity
  8
Defpoints
 62
     0
100
AcDbPoint
 10
13.43343190413301
 20
46.52586187203181
 30
0.0
  0
POINT
  5
E1E
330
D36
100
AcDbEntity
  8
Defpoints
 62
     0
100
AcDbPoint
 10
13.43343190413301
 20
49.69546817124442
 30
0.0
  0
ENDBLK
  5
D38
330
D36
100
AcDbEntity
  8
0
100
AcDbBlockEnd
  0
ENDSEC
  0
SECTION
  2
ENTITIES
  0
MTEXT
  5
74
330
6C
100
AcDbEntity
  8
Symbol (ANSI)
100
AcDbMText
 10
53.18246410804159
 20
11.60698546434713
 30
0.0
 40
0.7560000241272091
 41
27.90920326653428
 71
     1
 72
     1
  1
{\fRomanS|b0|i0|c0|p2;PART#: NP3630C\P(DATA SUBJECT TO CHANGE WITHOUT NOTICE)\PTHIS DRAWING AND COMPONENTS OF ARE\PPROPERTY OF HUBBELL INC. WIEGMANN\P }
  7
Note Text (ANSI)
 73
     2
 44
1.093904256820678
1001
ACAD
1000
MTEXTBEGIN
1070
    73
1070
     2
1070
    44
1040
1.093904256820678
1070
    74
1070
     0
1000
MTEXTEND
  0
TEXT
  5
77
330
6C
100
AcDbEntity
  8
0
100
AcDbText
 10
79.07219224411672
 20
7.277086289174334
 30
0.0
 40
0.5256194528805399
  1
HUBBELL
  7
SANSSERIF
100
AcDbText
  0
POLYLINE
  5
79
330
6C
100
AcDbEntity
  8
0
100
AcDb2dPolyline
 66
     1
 10
0.0
 20
0.0
 30
0.0
  0
VERTEX
  5
7A
330
79
100
AcDbEntity
  8
0
100
AcDbVertex
100
AcDb2dVertex
 10
79.34451205226418
 20
7.017400853489064
 30
0.0
 42
0.0538548888021971
  0
VERTEX
  5
7B
330
79
100
AcDbEntity
  8
0
100
AcDbVertex
100
AcDb2dVertex
 10
79.5337961023999
 20
6.869148557344601
 30
0.0
 42
0.0762621633615686
 70
     2
 50
328.0963691854962
  0
VERTEX
  5
7C
330
79
100
AcDbEntity
  8
0
100
AcDbVertex
100
AcDb2dVertex
 10
79.99639581904569
 20
6.671054717364768
 30
0.0
 42
0.0631748622128167
 50
328.0963691854962
  0
VERTEX
  5
7D
330
79
100
AcDbEntity
  8
0
100
AcDbVertex
100
AcDb2dVertex
 10
80.59795092248853
 20
6.594743834259418
 30
0.0
 42
0.0631748622128144
  0
VERTEX
  5
7E
330
79
100
AcDbEntity
  8
0
100
AcDbVertex
100
AcDb2dVertex
 10
81.19950602593139
 20
6.671054717364768
 30
0.0
 42
0.0762621633615716
  0
VERTEX
  5
7F
330
79
100
AcDbEntity
  8
0
100
AcDbVertex
100
AcDb2dVertex
 10
81.66210574257712
 20
6.869148557344601
 30
0.0
 42
0.0538548888021992
 70
     2
 50
31.90363081450366
  0
VERTEX
  5
80
330
79
100
AcDbEntity
  8
0
100
AcDbVertex
100
AcDb2dVertex
 10
81.85138979271291
 20
7.017400853489064
 30
0.0
 42
0.1478388992712208
 50
31.90363081450366
  0
SEQEND
  5
81
330
79
100
AcDbEntity
  8
0
  0
POLYLINE
  5
82
330
6C
100
AcDbEntity
  8
0
100
AcDb2dPolyline
 66
     1
 10
0.0
 20
0.0
 30
0.0
  0
VERTEX
  5
83
330
82
100
AcDbEntity
  8
0
100
AcDbVertex
100
AcDb2dVertex
 10
79.69155278537525
 20
7.074675299952602
 30
0.0
 42
0.0708473647366734
  0
VERTEX
  5
84
330
82
100
AcDbEntity
  8
0
100
AcDbVertex
100
AcDb2dVertex
 10
79.86314653027858
 20
6.869148557344601
 30
0.0
 42
0.0943474025114784
 70
     2
 50
317.9633854595613
  0
VERTEX
  5
85
330
82
100
AcDbEntity
  8
0
100
AcDbVertex
100
AcDb2dVertex
 10
80.19544729951574
 20
6.667447096744595
 30
0.0
 42
0.0895889244631754
 50
317.9633854595613
  0
VERTEX
  5
86
330
82
100
AcDbEntity
  8
0
100
AcDbVertex
100
AcDb2dVertex
 10
80.59795092248853
 20
6.594743834259418
 30
0.0
 42
0.0895889244631755
  0
VERTEX
  5
87
330
82
100
AcDbEntity
  8
0
100
AcDbVertex
100
AcDb2dVertex
 10
81.00045454546132
 20
6.667447096744595
 30
0.0
 42
0.0943474025114826
  0
VERTEX
  5
88
330
82
100
AcDbEntity
  8
0
100
AcDbVertex
100
AcDb2dVertex
 10
81.3327553146985
 20
6.869148557344601
 30
0.0
 42
0.0708473647366705
 70
     2
 50
42.03661454043863
  0
VERTEX
  5
89
330
82
100
AcDbEntity
  8
0
100
AcDbVertex
100
AcDb2dVertex
 10
81.50434905960176
 20
7.074675299952602
 30
0.0
 42
0.1080871028423927
 50
42.03661454043863
  0
SEQEND
  5
8A
330
82
100
AcDbEntity
  8
0
  0
POLYLINE
  5
8B
330
6C
100
AcDbEntity
  8
0
100
AcDb2dPolyline
 66
     1
 10
0.0
 20
0.0
 30
0.0
  0
VERTEX
  5
8C
330
8B
100
AcDbEntity
  8
0
100
AcDbVertex
100
AcDb2dVertex
 10
81.84289506648113
 20
8.054023400653463
 30
0.0
 42
0.0512131062417871
  0
VERTEX
  5
8D
330
8B
100
AcDbEntity
  8
0
100
AcDbVertex
100
AcDb2dVertex
 10
81.66210574257712
 20
8.194091765447566
 30
0.0
 42
0.0762621633615678
 70
     2
 50
148.0963691854963
  0
VERTEX
  5
8E
330
8B
100
AcDbEntity
  8
0
100
AcDbVertex
100
AcDb2dVertex
 10
81.19950602593139
 20
8.3921856054274
 30
0.0
 42
0.0631748622128132
 50
148.0963691854963
  0
VERTEX
  5
8F
330
8B
100
AcDbEntity
  8
0
100
AcDbVertex
100
AcDb2dVertex
 10
80.59795092248853
 20
8.46849648853275
 30
0.0
 42
0.0631748622128155
  0
SEQEND
  5
90
330
8B
100
AcDbEntity
  8
0
  0
POLYLINE
  5
91
330
6C
100
AcDbEntity
  8
0
100
AcDb2dPolyline
 66
     1
 10
0.0
 20
0.0
 30
0.0
  0
VERTEX
  5
92
330
91
100
AcDbEntity
  8
0
100
AcDbVertex
100
AcDb2dVertex
 10
81.500129514665
 20
7.995319350617464
 30
0.0
 42
0.0687403046083495
  0
VERTEX
  5
93
330
91
100
AcDbEntity
  8
0
100
AcDbVertex
100
AcDb2dVertex
 10
81.3327553146985
 20
8.194091765447566
 30
0.0
 42
0.0943474025114827
 70
     2
 50
137.9633854595613
  0
VERTEX
  5
94
330
91
100
AcDbEntity
  8
0
100
AcDbVertex
100
AcDb2dVertex
 10
81.00045454546132
 20
8.395793226047558
 30
0.0
 42
0.0895889244631755
 50
137.9633854595613
  0
VERTEX
  5
95
330
91
100
AcDbEntity
  8
0
100
AcDbVertex
100
AcDb2dVertex
 10
80.59795092248853
 20
8.46849648853275
 30
0.0
 42
0.0895889244631779
  0
SEQEND
  5
96
330
91
100
AcDbEntity
  8
0
  0
LINE
  5
97
330
6C
100
AcDbEntity
  8
0
100
AcDbLine
 10
82.59498531793139
 20
8.72984079866174
 30
0.0
 11
78.60091652704574
 21
8.72984079866174
 31
0.0
  0
LINE
  5
98
330
6C
100
AcDbEntity
  8
0
100
AcDbLine
 10
78.60091652704574
 20
6.333399524130399
 30
0.0
 11
82.59498531793139
 21
6.333399524130399
 31
0.0
  0
POLYLINE
  5
99
330
6C
100
AcDbEntity
  8
0
100
AcDb2dPolyline
 66
     1
 10
0.0
 20
0.0
 30
0.0
 70
     1
  0
VERTEX
  5
9A
330
99
100
AcDbEntity
  8
0
100
AcDbVertex
100
AcDb2dVertex
 10
78.60091652704574
 20
7.531620161396077
 30
0.0
 42
0.1828233251715505
  0
VERTEX
  5
9B
330
99
100
AcDbEntity
  8
0
100
AcDbVertex
100
AcDb2dVertex
 10
78.71926890946706
 20
7.218759292293512
 30
0.0
 42
0.1025674015815553
  0
VERTEX
  5
9C
330
99
100
AcDbEntity
  8
0
100
AcDbVertex
100
AcDb2dVertex
 10
79.18583435920815
 20
6.869148557344672
 30
0.0
 42
0.0617587255956112
 70
     2
 50
334.8671392208401
  0
VERTEX
  5
9D
330
99
100
AcDbEntity
  8
0
100
AcDbVertex
100
AcDb2dVertex
 10
79.78812899374405
 20
6.672697690440003
 30
0.0
 42
0.0480192641995976
 50
334.8671392208401
  0
VERTEX
  5
9E
330
99
100
AcDbEntity
  8
0
100
AcDbVertex
100
AcDb2dVertex
 10
80.59795092248853
 20
6.594743834259418
 30
0.0
 42
0.0480192641995965
  0
VERTEX
  5
9F
330
99
100
AcDbEntity
  8
0
100
AcDbVertex
100
AcDb2dVertex
 10
81.40777285123304
 20
6.672697690440003
 30
0.0
 42
0.0617587255956115
  0
VERTEX
  5
A0
330
99
100
AcDbEntity
  8
0
100
AcDbVertex
100
AcDb2dVertex
 10
82.01006748576896
 20
6.869148557344672
 30
0.0
 42
0.1025674015815654
 70
     2
 50
25.13286077915987
  0
VERTEX
  5
A1
330
99
100
AcDbEntity
  8
0
100
AcDbVertex
100
AcDb2dVertex
 10
82.4766329355099
 20
7.218759292293512
 30
0.0
 42
0.18282332517157
 50
25.13286077915987
  0
VERTEX
  5
A2
330
99
100
AcDbEntity
  8
0
100
AcDbVertex
100
AcDb2dVertex
 10
82.59498531793139
 20
7.531620161396077
 30
0.0
 42
0.1828233251715568
  0
VERTEX
  5
A3
330
99
100
AcDbEntity
  8
0
100
AcDbVertex
100
AcDb2dVertex
 10
82.4766329355099
 20
7.84448103049867
 30
0.0
 42
0.102567401581563
  0
VERTEX
  5
A4
330
99
100
AcDbEntity
  8
0
100
AcDbVertex
100
AcDb2dVertex
 10
82.01006748576896
 20
8.194091765447467
 30
0.0
 42
0.0617587255956141
 70
     2
 50
154.86713922084
  0
VERTEX
  5
A5
330
99
100
AcDbEntity
  8
0
100
AcDbVertex
100
AcDb2dVertex
 10
81.40777285123304
 20
8.390542632352165
 30
0.0
 42
0.0480192641995983
 50
154.86713922084
  0
VERTEX
  5
A6
330
99
100
AcDbEntity
  8
0
100
AcDbVertex
100
AcDb2dVertex
 10
80.59795092248853
 20
8.46849648853275
 30
0.0
 42
0.0480192641995976
  0
VERTEX
  5
A7
330
99
100
AcDbEntity
  8
0
100
AcDbVertex
100
AcDb2dVertex
 10
79.78812899374405
 20
8.390542632352165
 30
0.0
 42
0.0617587255956112
  0
VERTEX
  5
A8
330
99
100
AcDbEntity
  8
0
100
AcDbVertex
100
AcDb2dVertex
 10
79.18583435920815
 20
8.194091765447467
 30
0.0
 42
0.1025674015815593
 70
     2
 50
205.1328607791599
  0
VERTEX
  5
A9
330
99
100
AcDbEntity
  8
0
100
AcDbVertex
100
AcDb2dVertex
 10
78.71926890946706
 20
7.84448103049867
 30
0.0
 42
0.1828233251715536
 50
205.1328607791599
  0
SEQEND
  5
AA
330
99
100
AcDbEntity
  8
0
  0
ARC
  5
AB
330
6C
100
AcDbEntity
  8
0
100
AcDbCircle
 10
78.60091652704574
 20
8.330433919573181
 30
0.0
 40
0.399406879088556
100
AcDbArc
 50
90.0
 51
180.0
  0
LINE
  5
AC
330
6C
100
AcDbEntity
  8
0
100
AcDbLine
 10
78.20150964795719
 20
8.330433919573181
 30
0.0
 11
78.20150964795719
 21
6.732806403218958
 31
0.0
  0
ARC
  5
AD
330
6C
100
AcDbEntity
  8
0
100
AcDbCircle
 10
78.60091652704574
 20
6.732806403218958
 30
0.0
 40
0.399406879088556
100
AcDbArc
 50
180.0
 51
270.0
  0
POLYLINE
  5
AE
330
6C
100
AcDbEntity
  8
0
100
AcDb2dPolyline
 66
     1
 10
0.0
 20
0.0
 30
0.0
  0
VERTEX
  5
AF
330
AE
100
AcDbEntity
  8
0
100
AcDbVertex
100
AcDb2dVertex
 10
80.18231734401902
 20
7.120153018032922
 30
0.0
 42
0.0570538596573184
  0
VERTEX
  5
B0
330
AE
100
AcDbEntity
  8
0
100
AcDbVertex
100
AcDb2dVertex
 10
80.27202151901114
 20
6.869148557344544
 30
0.0
 42
0.1038195938885091
 70
     2
 50
296.1967246921072
  0
VERTEX
  5
B1
330
AE
100
AcDbEntity
  8
0
100
AcDbVertex
100
AcDb2dVertex
 10
80.44236651762817
 20
6.651517296403724
 30
0.0
 42
0.1767522344444316
 50
296.1967246921072
  0
VERTEX
  5
B2
330
AE
100
AcDbEntity
  8
0
100
AcDbVertex
100
AcDb2dVertex
 10
80.59795092248853
 20
6.594743834259418
 30
0.0
 42
0.1767522344444399
  0
VERTEX
  5
B3
330
AE
100
AcDbEntity
  8
0
100
AcDbVertex
100
AcDb2dVertex
 10
80.75353532734897
 20
6.651517296403724
 30
0.0
 42
0.1038195938885123
  0
VERTEX
  5
B4
330
AE
100
AcDbEntity
  8
0
100
AcDbVertex
100
AcDb2dVertex
 10
80.92388032596586
 20
6.869148557344544
 30
0.0
 42
0.0570538596573163
 70
     2
 50
63.8032753078928
  0
VERTEX
  5
B5
330
AE
100
AcDbEntity
  8
0
100
AcDbVertex
100
AcDb2dVertex
 10
81.013584500958
 20
7.120153018032922
 30
0.0
 42
0.0503013836282066
 50
63.8032753078928
  0
SEQEND
  5
B6
330
AE
100
AcDbEntity
  8
0
  0
POLYLINE
  5
B7
330
6C
100
AcDbEntity
  8
0
100
AcDb2dPolyline
 66
     1
 10
0.0
 20
0.0
 30
0.0
  0
VERTEX
  5
B8
330
B7
100
AcDbEntity
  8
0
100
AcDbVertex
100
AcDb2dVertex
 10
80.59795092248853
 20
8.46849648853275
 30
0.0
 42
0.1767522344444361
  0
VERTEX
  5
B9
330
B7
100
AcDbEntity
  8
0
100
AcDbVertex
100
AcDb2dVertex
 10
80.44236651762817
 20
8.411723026388401
 30
0.0
 42
0.1038195938884991
  0
VERTEX
  5
BA
330
B7
100
AcDbEntity
  8
0
100
AcDbVertex
100
AcDb2dVertex
 10
80.27202151901114
 20
8.194091765447595
 30
0.0
 42
0.0567223889277798
 70
     2
 50
243.8032753078928
  0
VERTEX
  5
BB
330
B7
100
AcDbEntity
  8
0
100
AcDbVertex
100
AcDb2dVertex
 10
80.18267026592607
 20
7.944595195041003
 30
0.0
 42
0.0503013836282199
 50
243.8032753078928
  0
SEQEND
  5
BC
330
B7
100
AcDbEntity
  8
0
  0
POLYLINE
  5
BD
330
6C
100
AcDbEntity
  8
0
100
AcDb2dPolyline
 66
     1
 10
0.0
 20
0.0
 30
0.0
  0
VERTEX
  5
BE
330
BD
100
AcDbEntity
  8
0
100
AcDbVertex
100
AcDb2dVertex
 10
80.59795092248853
 20
8.46849648853275
 30
0.0
 42
0.0895889244631779
  0
VERTEX
  5
BF
330
BD
100
AcDbEntity
  8
0
100
AcDbVertex
100
AcDb2dVertex
 10
80.19544729951574
 20
8.395793226047558
 30
0.0
 42
0.094347402511486
  0
VERTEX
  5
C0
330
BD
100
AcDbEntity
  8
0
100
AcDbVertex
100
AcDb2dVertex
 10
79.86314653027858
 20
8.194091765447566
 30
0.0
 42
0.0687403046083514
 70
     2
 50
222.0366145404387
  0
VERTEX
  5
C1
330
BD
100
AcDbEntity
  8
0
100
AcDbVertex
100
AcDb2dVertex
 10
79.69577233031206
 20
7.995319350617464
 30
0.0
 42
0.1080871028423927
 50
222.0366145404387
  0
SEQEND
  5
C2
330
BD
100
AcDbEntity
  8
0
  0
POLYLINE
  5
C3
330
6C
100
AcDbEntity
  8
0
100
AcDb2dPolyline
 66
     1
 10
0.0
 20
0.0
 30
0.0
  0
VERTEX
  5
C4
330
C3
100
AcDbEntity
  8
0
100
AcDbVertex
100
AcDb2dVertex
 10
80.59795092248853
 20
8.46849648853275
 30
0.0
 42
0.0631748622128155
  0
VERTEX
  5
C5
330
C3
100
AcDbEntity
  8
0
100
AcDbVertex
100
AcDb2dVertex
 10
79.99639581904569
 20
8.3921856054274
 30
0.0
 42
0.0762621633615699
  0
VERTEX
  5
C6
330
C3
100
AcDbEntity
  8
0
100
AcDbVertex
100
AcDb2dVertex
 10
79.5337961023999
 20
8.194091765447566
 30
0.0
 42
0.0512131062417906
 70
     2
 50
211.9036308145036
  0
VERTEX
  5
C7
330
C3
100
AcDbEntity
  8
0
100
AcDbVertex
100
AcDb2dVertex
 10
79.35300677849594
 20
8.054023400653463
 30
0.0
 42
0.1478388992712295
 50
211.9036308145036
  0
SEQEND
  5
C8
330
C3
100
AcDbEntity
  8
0
  0
POLYLINE
  5
C9
330
6C
100
AcDbEntity
  8
0
100
AcDb2dPolyline
 66
     1
 10
0.0
 20
0.0
 30
0.0
  0
VERTEX
  5
CA
330
C9
100
AcDbEntity
  8
0
100
AcDbVertex
100
AcDb2dVertex
 10
81.01323157905104
 20
7.944595195041003
 30
0.0
 42
0.0567223889277601
  0
VERTEX
  5
CB
330
C9
100
AcDbEntity
  8
0
100
AcDbVertex
100
AcDb2dVertex
 10
80.92388032596586
 20
8.194091765447595
 30
0.0
 42
0.1038195938884991
 70
     2
 50
116.1967246921072
  0
VERTEX
  5
CC
330
C9
100
AcDbEntity
  8
0
100
AcDbVertex
100
AcDb2dVertex
 10
80.75353532734897
 20
8.411723026388401
 30
0.0
 42
0.1767522344444361
 50
116.1967246921072
  0
VERTEX
  5
CD
330
C9
100
AcDbEntity
  8
0
100
AcDbVertex
100
AcDb2dVertex
 10
80.59795092248853
 20
8.46849648853275
 30
0.0
 42
0.1767522344444361
  0
SEQEND
  5
CE
330
C9
100
AcDbEntity
  8
0
  0
ARC
  5
CF
330
6C
100
AcDbEntity
  8
0
100
AcDbCircle
 10
82.59498531793139
 20
8.330433919573181
 30
0.0
 40
0.399406879088556
100
AcDbArc
 50
0.0
 51
90.0
  0
CIRCLE
  5
D0
330
6C
100
AcDbEntity
  8
0
100
AcDbCircle
 10
83.37111457875549
 20
8.52401136194608
 30
0.0
 40
0.2078586657253902
  0
TEXT
  5
D1
330
6C
100
AcDbEntity
  8
0
100
AcDbText
 10
83.23707335465696
 20
8.385065515337686
 30
0.0
 40
0.2439817931983205
  1
R
  7
SANSSERIF
100
AcDbText
  0
LINE
  5
D2
330
6C
100
AcDbEntity
  8
0
100
AcDbLine
 10
82.99439219701984
 20
6.732806403218958
 30
0.0
 11
82.99439219701984
 21
8.330433919573181
 31
0.0
  0
ARC
  5
D3
330
6C
100
AcDbEntity
  8
0
100
AcDbCircle
 10
82.59498531793139
 20
6.732806403218958
 30
0.0
 40
0.399406879088556
100
AcDbArc
 50
270.0
 51
0.0
  0
CIRCLE
  5
17B
330
6C
100
AcDbEntity
  8
Visible (ANSI)
100
AcDbCircle
 10
40.593431904133
 20
29.94586187203181
 30
0.0
 40
0.2500000000000005
  0
CIRCLE
  5
17C
330
6C
100
AcDbEntity
  8
Visible (ANSI)
100
AcDbCircle
 10
13.43343190413301
 20
29.94586187203181
 30
0.0
 40
0.2500000000000005
  0
LINE
  5
17D
330
6C
100
AcDbEntity
  8
Visible (ANSI)
100
AcDbLine
 10
14.63143190413301
 20
12.84586187203182
 30
0.0
 11
39.39543190413301
 21
12.84586187203182
 31
0.0
  0
LINE
  5
17E
330
6C
100
AcDbEntity
  8
Visible (ANSI)
100
AcDbLine
 10
14.63143190413301
 20
12.84586187203182
 30
0.0
 11
14.63143190413301
 21
12.95521187203182
 31
0.0
  0
LINE
  5
17F
330
6C
100
AcDbEntity
  8
Visible (ANSI)
100
AcDbLine
 10
39.39543190413301
 20
12.84586187203182
 30
0.0
 11
39.39543190413301
 21
12.95521187203182
 31
0.0
  0
LINE
  5
180
330
6C
100
AcDbEntity
  8
Visible (ANSI)
100
AcDbLine
 10
39.39563190413301
 20
12.95541187203182
 30
0.0
 11
39.39563190413301
 21
12.84586187203182
 31
0.0
  0
LINE
  5
181
330
6C
100
AcDbEntity
  8
Visible (ANSI)
100
AcDbLine
 10
39.39543190413301
 20
12.95541187203182
 30
0.0
 11
39.39563190413301
 21
12.95541187203182
 31
0.0
  0
LINE
  5
182
330
6C
100
AcDbEntity
  8
Visible (ANSI)
100
AcDbLine
 10
14.63123190413301
 20
12.95541187203182
 30
0.0
 11
14.63143190413301
 21
12.95541187203182
 31
0.0
  0
LINE
  5
183
330
6C
100
AcDbEntity
  8
Visible (ANSI)
100
AcDbLine
 10
14.63123190413301
 20
12.84586187203182
 30
0.0
 11
14.63123190413301
 21
12.95541187203182
 31
0.0
  0
LINE
  5
184
330
6C
100
AcDbEntity
  8
Hidden (ANSI)
 48
1.069700717926025
100
AcDbLine
 10
39.39543190413301
 20
12.93961187203182
 30
0.0
 11
14.63143190413301
 21
12.93961187203182
 31
0.0
  0
LINE
  5
185
330
6C
100
AcDbEntity
  8
Visible (ANSI)
100
AcDbLine
 10
14.63143190413301
 20
12.95541187203182
 30
0.0
 11
14.63143190413301
 21
12.95521187203182
 31
0.0
  0
LINE
  5
186
330
6C
100
AcDbEntity
  8
Visible (ANSI)
100
AcDbLine
 10
39.39543190413301
 20
12.95521187203182
 30
0.0
 11
39.39543190413301
 21
12.95541187203182
 31
0.0
  0
LINE
  5
187
330
6C
100
AcDbEntity
  8
Visible (ANSI)
100
AcDbLine
 10
14.63123190413301
 20
12.84586187203182
 30
0.0
 11
13.41343190413301
 21
12.84586187203182
 31
0.0
  0
LINE
  5
188
330
6C
100
AcDbEntity
  8
Visible (ANSI)
100
AcDbLine
 10
40.613431904133
 20
12.84586187203182
 30
0.0
 11
39.39563190413301
 21
12.84586187203182
 31
0.0
  0
LINE
  5
189
330
6C
100
AcDbEntity
  8
Visible (ANSI)
100
AcDbLine
 10
41.11343190413301
 20
14.56366187203182
 30
0.0
 11
41.11343190413301
 21
13.34586187203181
 31
0.0
  0
LINE
  5
18A
330
6C
100
AcDbEntity
  8
Visible (ANSI)
100
AcDbLine
 10
41.11343190413299
 20
46.54586187203181
 30
0.0
 11
41.11343190413299
 21
45.3280618720318
 31
0.0
  0
LINE
  5
18B
330
6C
100
AcDbEntity
  8
Visible (ANSI)
100
AcDbLine
 10
39.395631904133
 20
47.04586187203181
 30
0.0
 11
40.613431904133
 21
47.04586187203181
 31
0.0
  0
LINE
  5
18C
330
6C
100
AcDbEntity
  8
Visible (ANSI)
100
AcDbLine
 10
13.413431904133
 20
47.0458618720318
 30
0.0
 11
14.631231904133
 21
47.0458618720318
 31
0.0
  0
LINE
  5
18D
330
6C
100
AcDbEntity
  8
Visible (ANSI)
100
AcDbLine
 10
12.913431904133
 20
45.3280618720318
 30
0.0
 11
12.913431904133
 21
46.54586187203181
 31
0.0
  0
LINE
  5
18E
330
6C
100
AcDbEntity
  8
Visible (ANSI)
100
AcDbLine
 10
12.91343190413301
 20
13.34586187203181
 30
0.0
 11
12.91343190413301
 21
14.56366187203182
 31
0.0
  0
LINE
  5
18F
330
6C
100
AcDbEntity
  8
Visible (ANSI)
100
AcDbLine
 10
41.11343190413301
 20
13.34586187203181
 30
0.0
 11
40.613431904133
 21
12.84586187203182
 31
0.0
  0
LINE
  5
190
330
6C
100
AcDbEntity
  8
Visible (ANSI)
100
AcDbLine
 10
41.11343190413301
 20
14.56366187203182
 30
0.0
 11
41.00388190413301
 21
14.56366187203182
 31
0.0
  0
LINE
  5
191
330
6C
100
AcDbEntity
  8
Visible (ANSI)
100
AcDbLine
 10
41.00388190413301
 20
14.56366187203182
 30
0.0
 11
41.00388190413301
 21
14.56386187203182
 31
0.0
  0
LINE
  5
192
330
6C
100
AcDbEntity
  8
Visible (ANSI)
100
AcDbLine
 10
41.003881904133
 20
45.32786187203181
 30
0.0
 11
41.003881904133
 21
45.3280618720318
 31
0.0
  0
LINE
  5
193
330
6C
100
AcDbEntity
  8
Visible (ANSI)
100
AcDbLine
 10
41.003881904133
 20
45.3280618720318
 30
0.0
 11
41.11343190413299
 21
45.3280618720318
 31
0.0
  0
LINE
  5
194
330
6C
100
AcDbEntity
  8
Visible (ANSI)
100
AcDbLine
 10
41.11343190413299
 20
14.56386187203182
 30
0.0
 11
41.11343190413299
 21
45.32786187203181
 31
0.0
  0
LINE
  5
195
330
6C
100
AcDbEntity
  8
Visible (ANSI)
100
AcDbLine
 10
41.11343190413299
 20
14.56386187203182
 30
0.0
 11
41.004081904133
 21
14.56386187203182
 31
0.0
  0
LINE
  5
196
330
6C
100
AcDbEntity
  8
Visible (ANSI)
100
AcDbLine
 10
41.11343190413298
 20
45.32786187203181
 30
0.0
 11
41.004081904133
 21
45.32786187203181
 31
0.0
  0
LINE
  5
197
330
6C
100
AcDbEntity
  8
Hidden (ANSI)
 48
1.073322534561157
100
AcDbLine
 10
41.01968190413299
 20
45.32786187203181
 30
0.0
 11
41.01968190413299
 21
14.56386187203182
 31
0.0
  0
LINE
  5
198
330
6C
100
AcDbEntity
  8
Visible (ANSI)
100
AcDbLine
 10
41.00388190413301
 20
14.56386187203182
 30
0.0
 11
41.004081904133
 21
14.56386187203182
 31
0.0
  0
LINE
  5
199
330
6C
100
AcDbEntity
  8
Visible (ANSI)
100
AcDbLine
 10
41.004081904133
 20
45.32786187203181
 30
0.0
 11
41.003881904133
 21
45.32786187203181
 31
0.0
  0
LINE
  5
19A
330
6C
100
AcDbEntity
  8
Visible (ANSI)
100
AcDbLine
 10
40.613431904133
 20
47.04586187203181
 30
0.0
 11
41.11343190413299
 21
46.54586187203181
 31
0.0
  0
LINE
  5
19B
330
6C
100
AcDbEntity
  8
Visible (ANSI)
100
AcDbLine
 10
39.395631904133
 20
47.04586187203181
 30
0.0
 11
39.395631904133
 21
46.93631187203182
 31
0.0
  0
LINE
  5
19C
330
6C
100
AcDbEntity
  8
Visible (ANSI)
100
AcDbLine
 10
39.395631904133
 20
46.93631187203182
 30
0.0
 11
39.39543190413301
 21
46.93631187203182
 31
0.0
  0
LINE
  5
19D
330
6C
100
AcDbEntity
  8
Visible (ANSI)
100
AcDbLine
 10
14.631431904133
 20
46.93631187203181
 30
0.0
 11
14.631231904133
 21
46.93631187203181
 31
0.0
  0
LINE
  5
19E
330
6C
100
AcDbEntity
  8
Visible (ANSI)
100
AcDbLine
 10
14.631231904133
 20
46.93631187203181
 30
0.0
 11
14.631231904133
 21
47.0458618720318
 31
0.0
  0
LINE
  5
19F
330
6C
100
AcDbEntity
  8
Visible (ANSI)
100
AcDbLine
 10
39.39543190413301
 20
47.0458618720318
 30
0.0
 11
14.631431904133
 21
47.0458618720318
 31
0.0
  0
LINE
  5
1A0
330
6C
100
AcDbEntity
  8
Visible (ANSI)
100
AcDbLine
 10
39.39543190413301
 20
47.04586187203179
 30
0.0
 11
39.39543190413301
 21
46.93651187203182
 31
0.0
  0
LINE
  5
1A1
330
6C
100
AcDbEntity
  8
Visible (ANSI)
100
AcDbLine
 10
14.631431904133
 20
47.0458618720318
 30
0.0
 11
14.631431904133
 21
46.93651187203181
 31
0.0
  0
LINE
  5
1A2
330
6C
100
AcDbEntity
  8
Hidden (ANSI)
 48
1.069700717926025
100
AcDbLine
 10
14.631431904133
 20
46.9521118720318
 30
0.0
 11
39.39543190413301
 21
46.9521118720318
 31
0.0
  0
LINE
  5
1A3
330
6C
100
AcDbEntity
  8
Visible (ANSI)
100
AcDbLine
 10
39.39543190413301
 20
46.93631187203182
 30
0.0
 11
39.39543190413301
 21
46.93651187203182
 31
0.0
  0
LINE
  5
1A4
330
6C
100
AcDbEntity
  8
Visible (ANSI)
100
AcDbLine
 10
14.631431904133
 20
46.93651187203181
 30
0.0
 11
14.631431904133
 21
46.93631187203181
 31
0.0
  0
LINE
  5
1A5
330
6C
100
AcDbEntity
  8
Visible (ANSI)
100
AcDbLine
 10
12.913431904133
 20
46.54586187203181
 30
0.0
 11
13.413431904133
 21
47.0458618720318
 31
0.0
  0
LINE
  5
1A6
330
6C
100
AcDbEntity
  8
Visible (ANSI)
100
AcDbLine
 10
12.913431904133
 20
45.3280618720318
 30
0.0
 11
13.02298190413299
 21
45.3280618720318
 31
0.0
  0
LINE
  5
1A7
330
6C
100
AcDbEntity
  8
Visible (ANSI)
100
AcDbLine
 10
13.02298190413299
 20
45.3280618720318
 30
0.0
 11
13.02298190413299
 21
45.32786187203181
 31
0.0
  0
LINE
  5
1A8
330
6C
100
AcDbEntity
  8
Visible (ANSI)
100
AcDbLine
 10
13.022981904133
 20
14.56386187203182
 30
0.0
 11
13.022981904133
 21
14.56366187203182
 31
0.0
  0
LINE
  5
1A9
330
6C
100
AcDbEntity
  8
Visible (ANSI)
100
AcDbLine
 10
13.022981904133
 20
14.56366187203182
 30
0.0
 11
12.91343190413301
 21
14.56366187203182
 31
0.0
  0
LINE
  5
1AA
330
6C
100
AcDbEntity
  8
Visible (ANSI)
100
AcDbLine
 10
12.91343190413301
 20
45.32786187203181
 30
0.0
 11
12.91343190413302
 21
14.56386187203182
 31
0.0
  0
LINE
  5
1AB
330
6C
100
AcDbEntity
  8
Visible (ANSI)
100
AcDbLine
 10
12.91343190413301
 20
45.32786187203181
 30
0.0
 11
13.02278190413299
 21
45.32786187203181
 31
0.0
  0
LINE
  5
1AC
330
6C
100
AcDbEntity
  8
Visible (ANSI)
100
AcDbLine
 10
12.91343190413302
 20
14.56386187203182
 30
0.0
 11
13.022781904133
 21
14.56386187203182
 31
0.0
  0
LINE
  5
1AD
330
6C
100
AcDbEntity
  8
Hidden (ANSI)
 48
1.073322534561157
100
AcDbLine
 10
13.00718190413302
 20
14.56386187203182
 30
0.0
 11
13.00718190413301
 21
45.32786187203181
 31
0.0
  0
LINE
  5
1AE
330
6C
100
AcDbEntity
  8
Visible (ANSI)
100
AcDbLine
 10
13.02298190413299
 20
45.32786187203181
 30
0.0
 11
13.02278190413299
 21
45.32786187203181
 31
0.0
  0
LINE
  5
1AF
330
6C
100
AcDbEntity
  8
Visible (ANSI)
100
AcDbLine
 10
13.022781904133
 20
14.56386187203182
 30
0.0
 11
13.022981904133
 21
14.56386187203182
 31
0.0
  0
LINE
  5
1B0
330
6C
100
AcDbEntity
  8
Visible (ANSI)
100
AcDbLine
 10
13.41343190413301
 20
12.84586187203182
 30
0.0
 11
12.91343190413301
 21
13.34586187203181
 31
0.0
  0
CIRCLE
  5
1B1
330
6C
100
AcDbEntity
  8
Visible (ANSI)
100
AcDbCircle
 10
40.593431904133
 20
46.52586187203182
 30
0.0
 40
0.25
  0
CIRCLE
  5
1B2
330
6C
100
AcDbEntity
  8
Visible (ANSI)
100
AcDbCircle
 10
13.43343190413301
 20
46.52586187203181
 30
0.0
 40
0.25
  0
CIRCLE
  5
1B3
330
6C
100
AcDbEntity
  8
Visible (ANSI)
100
AcDbCircle
 10
13.43343190413301
 20
13.36586187203182
 30
0.0
 40
0.25
  0
CIRCLE
  5
1B4
330
6C
100
AcDbEntity
  8
Visible (ANSI)
100
AcDbCircle
 10
40.593431904133
 20
13.36586187203182
 30
0.0
 40
0.25
  0
CIRCLE
  5
1B5
330
6C
100
AcDbEntity
  8
Visible (ANSI)
100
AcDbCircle
 10
40.593431904133
 20
45.77586187203181
 30
0.0
 40
0.15625
  0
CIRCLE
  5
1B6
330
6C
100
AcDbEntity
  8
Visible (ANSI)
100
AcDbCircle
 10
13.43343190413301
 20
45.7758618720318
 30
0.0
 40
0.15625
  0
CIRCLE
  5
1B7
330
6C
100
AcDbEntity
  8
Visible (ANSI)
100
AcDbCircle
 10
13.43343190413301
 20
14.11586187203182
 30
0.0
 40
0.15625
  0
CIRCLE
  5
1B8
330
6C
100
AcDbEntity
  8
Visible (ANSI)
100
AcDbCircle
 10
40.593431904133
 20
14.11586187203182
 30
0.0
 40
0.15625
  0
LINE
  5
1B9
330
6C
100
AcDbEntity
  8
Visible (ANSI)
100
AcDbLine
 10
54.84424510354354
 20
12.84586187203182
 30
0.0
 11
54.17959510354354
 21
12.84586187203182
 31
0.0
  0
LINE
  5
1BA
330
6C
100
AcDbEntity
  8
Visible (ANSI)
100
AcDbLine
 10
54.84424510354354
 20
12.93961187203182
 30
0.0
 11
54.84424510354354
 21
12.84586187203182
 31
0.0
  0
LINE
  5
1BB
330
6C
100
AcDbEntity
  8
Visible (ANSI)
100
AcDbLine
 10
54.17959510354354
 20
12.93961187203182
 30
0.0
 11
54.84424510354354
 21
12.93961187203182
 31
0.0
  0
ARC
  5
1BC
330
6C
100
AcDbEntity
  8
Visible (ANSI)
100
AcDbCircle
 10
54.17959510354354
 20
12.95521187203182
 30
0.0
 40
0.0156
100
AcDbArc
 50
180.0
 51
270.0
  0
ARC
  5
1BD
330
6C
100
AcDbEntity
  8
Visible (ANSI)
100
AcDbCircle
 10
54.17959510354354
 20
12.95521187203181
 30
0.0
 40
0.1093499999999973
100
AcDbArc
 50
261.7981333521976
 51
270.0
  0
ARC
  5
1BE
330
6C
100
AcDbEntity
  8
Hidden (ANSI)
 48
0.0556527934968472
100
AcDbCircle
 10
54.17959510354354
 20
12.95521187203182
 30
0.0
 40
0.10935
100
AcDbArc
 50
180.0
 51
261.7981333521977
  0
LINE
  5
1BF
330
6C
100
AcDbEntity
  8
Hidden (ANSI)
 48
0.0333809964358807
100
AcDbLine
 10
54.07024510354355
 20
12.95541187203182
 30
0.0
 11
54.16399510354354
 21
12.95541187203182
 31
0.0
  0
LINE
  5
1C0
330
6C
100
AcDbEntity
  8
Visible (ANSI)
100
AcDbLine
 10
54.16399510354406
 20
46.54586187203181
 30
0.0
 11
54.1639951035439
 21
47.04586187203181
 31
0.0
  0
LINE
  5
1C1
330
6C
100
AcDbEntity
  8
Visible (ANSI)
100
AcDbLine
 10
54.0702451035439
 20
47.04586187203181
 30
0.0
 11
54.07024510354405
 21
46.54586187203181
 31
0.0
  0
LINE
  5
1C2
330
6C
100
AcDbEntity
  8
Visible (ANSI)
100
AcDbLine
 10
54.1639951035439
 20
47.04586187203181
 30
0.0
 11
54.0702451035439
 21
47.04586187203181
 31
0.0
  0
LINE
  5
1C3
330
6C
100
AcDbEntity
  8
Visible (ANSI)
100
AcDbLine
 10
54.07024510354405
 20
46.54586187203181
 30
0.0
 11
54.16399510354406
 21
46.54586187203181
 31
0.0
  0
LINE
  5
1C4
330
6C
100
AcDbEntity
  8
Visible (ANSI)
100
AcDbLine
 10
54.16399510354406
 20
45.3280618720318
 30
0.0
 11
54.16399510354406
 21
46.54586187203181
 31
0.0
  0
LINE
  5
1C5
330
6C
100
AcDbEntity
  8
Visible (ANSI)
100
AcDbLine
 10
54.16399510354406
 20
13.34586187203181
 30
0.0
 11
54.16399510354406
 21
14.56366187203182
 31
0.0
  0
LINE
  5
1C6
330
6C
100
AcDbEntity
  8
Visible (ANSI)
100
AcDbLine
 10
54.07024510354405
 20
14.56366187203182
 30
0.0
 11
54.07024510354405
 21
13.34586187203181
 31
0.0
  0
LINE
  5
1C7
330
6C
100
AcDbEntity
  8
Visible (ANSI)
100
AcDbLine
 10
54.07024510354405
 20
46.54586187203181
 30
0.0
 11
54.07024510354405
 21
45.3280618720318
 31
0.0
  0
LINE
  5
1C8
330
6C
100
AcDbEntity
  8
Visible (ANSI)
100
AcDbLine
 10
54.16399510354402
 20
45.3280618720318
 30
0.0
 11
54.16399510354402
 21
45.32786187203181
 31
0.0
  0
LINE
  5
1C9
330
6C
100
AcDbEntity
  8
Visible (ANSI)
100
AcDbLine
 10
54.16399510354402
 20
14.56386187203182
 30
0.0
 11
54.16399510354402
 21
14.56366187203182
 31
0.0
  0
LINE
  5
1CA
330
6C
100
AcDbEntity
  8
Visible (ANSI)
100
AcDbLine
 10
54.07024510354403
 20
14.56366187203182
 30
0.0
 11
54.07024510354403
 21
14.56386187203182
 31
0.0
  0
LINE
  5
1CB
330
6C
100
AcDbEntity
  8
Visible (ANSI)
100
AcDbLine
 10
54.07024510354403
 20
14.56386187203182
 30
0.0
 11
54.07024510354403
 21
45.32786187203181
 31
0.0
  0
LINE
  5
1CC
330
6C
100
AcDbEntity
  8
Visible (ANSI)
100
AcDbLine
 10
54.07024510354403
 20
45.32786187203181
 30
0.0
 11
54.07024510354403
 21
45.3280618720318
 31
0.0
  0
LINE
  5
1CD
330
6C
100
AcDbEntity
  8
Visible (ANSI)
100
AcDbLine
 10
54.17959510354409
 20
14.56386187203182
 30
0.0
 11
54.07024510354403
 21
14.56386187203182
 31
0.0
  0
LINE
  5
1CE
330
6C
100
AcDbEntity
  8
Visible (ANSI)
100
AcDbLine
 10
54.17959510354408
 20
45.32786187203181
 30
0.0
 11
54.07024510354403
 21
45.32786187203181
 31
0.0
  0
LINE
  5
1CF
330
6C
100
AcDbEntity
  8
Visible (ANSI)
100
AcDbLine
 10
54.07024510354405
 20
45.3280618720318
 30
0.0
 11
54.16399510354406
 21
45.3280618720318
 31
0.0
  0
LINE
  5
1D0
330
6C
100
AcDbEntity
  8
Visible (ANSI)
100
AcDbLine
 10
54.16399510354406
 20
14.56366187203182
 30
0.0
 11
54.07024510354405
 21
14.56366187203182
 31
0.0
  0
LINE
  5
1D1
330
6C
100
AcDbEntity
  8
Hidden (ANSI)
 48
1.073322534561157
100
AcDbLine
 10
54.16399510354402
 20
45.32786187203181
 30
0.0
 11
54.16399510354402
 21
14.56386187203182
 31
0.0
  0
LINE
  5
1D2
330
6C
100
AcDbEntity
  8
Visible (ANSI)
100
AcDbLine
 10
54.1639951035439
 20
12.84586187203182
 30
0.0
 11
54.16399510354406
 21
13.34586187203181
 31
0.0
  0
LINE
  5
1D3
330
6C
100
AcDbEntity
  8
Visible (ANSI)
100
AcDbLine
 10
54.07024510354405
 20
13.34586187203181
 30
0.0
 11
54.0702451035439
 21
12.84586187203182
 31
0.0
  0
LINE
  5
1D4
330
6C
100
AcDbEntity
  8
Visible (ANSI)
100
AcDbLine
 10
54.0702451035439
 20
12.84586187203182
 30
0.0
 11
54.1639951035439
 21
12.84586187203182
 31
0.0
  0
LINE
  5
1D5
330
6C
100
AcDbEntity
  8
Visible (ANSI)
100
AcDbLine
 10
54.16399510354406
 20
13.34586187203181
 30
0.0
 11
54.07024510354405
 21
13.34586187203181
 31
0.0
  0
LINE
  5
1D6
330
6C
100
AcDbEntity
  8
Visible (ANSI)
100
AcDbLine
 10
54.17959510354349
 20
47.0458618720318
 30
0.0
 11
54.84424510354354
 21
47.04586187203181
 31
0.0
  0
LINE
  5
1D7
330
6C
100
AcDbEntity
  8
Visible (ANSI)
100
AcDbLine
 10
54.84424510354354
 20
46.95211187203181
 30
0.0
 11
54.17959510354349
 21
46.9521118720318
 31
0.0
  0
LINE
  5
1D8
330
6C
100
AcDbEntity
  8
Visible (ANSI)
100
AcDbLine
 10
54.84424510354354
 20
47.04586187203181
 30
0.0
 11
54.84424510354354
 21
46.95211187203181
 31
0.0
  0
ARC
  5
1D9
330
6C
100
AcDbEntity
  8
Hidden (ANSI)
 48
0.0556527934968472
100
AcDbCircle
 10
54.17959510354354
 20
46.93651187203181
 30
0.0
 40
0.1093499999999962
100
AcDbArc
 50
98.20186664779894
 51
180.0
  0
LINE
  5
1DA
330
6C
100
AcDbEntity
  8
Hidden (ANSI)
 48
0.0333809964358807
100
AcDbLine
 10
54.07024510354355
 20
46.93631187203182
 30
0.0
 11
54.16399510354354
 21
46.93631187203182
 31
0.0
  0
ARC
  5
1DB
330
6C
100
AcDbEntity
  8
Visible (ANSI)
100
AcDbCircle
 10
54.17959510354358
 20
46.93651187203129
 30
0.0
 40
0.1093500000005147
100
AcDbArc
 50
90.00000000005082
 51
98.20186664778312
  0
ARC
  5
1DC
330
6C
100
AcDbEntity
  8
Visible (ANSI)
100
AcDbCircle
 10
54.17959510354354
 20
46.9365118720318
 30
0.0
 40
0.0156000000000014
100
AcDbArc
 50
90.00000000021916
 51
180.0
  0
LINE
  5
1DD
330
6C
100
AcDbEntity
  8
Visible (ANSI)
100
AcDbLine
 10
54.17959510354409
 20
14.56386187203182
 30
0.0
 11
54.84424510354405
 21
14.56386187203182
 31
0.0
  0
LINE
  5
1DE
330
6C
100
AcDbEntity
  8
Visible (ANSI)
100
AcDbLine
 10
54.84424510354405
 20
45.32786187203181
 30
0.0
 11
54.84424510354405
 21
14.56386187203182
 31
0.0
  0
LINE
  5
1DF
330
6C
100
AcDbEntity
  8
Visible (ANSI)
100
AcDbLine
 10
54.84424510354405
 20
45.32786187203181
 30
0.0
 11
54.17959510354408
 21
45.32786187203181
 31
0.0
  0
LINE
  5
1E0
330
6C
100
AcDbEntity
  8
Hidden (ANSI)
 48
0.0333809964358807
100
AcDbLine
 10
54.0702451035439
 20
30.19586187203181
 30
0.0
 11
54.1639951035439
 21
30.19586187203181
 31
0.0
  0
LINE
  5
1E1
330
6C
100
AcDbEntity
  8
Hidden (ANSI)
 48
0.0333809964358807
100
AcDbLine
 10
54.0702451035439
 20
29.69586187203181
 30
0.0
 11
54.1639951035439
 21
29.69586187203181
 31
0.0
  0
LINE
  5
1E2
330
6C
100
AcDbEntity
  8
Hidden (ANSI)
 48
0.0333809964358807
100
AcDbLine
 10
54.0702451035439
 20
46.77586187203181
 30
0.0
 11
54.1639951035439
 21
46.77586187203181
 31
0.0
  0
LINE
  5
1E3
330
6C
100
AcDbEntity
  8
Hidden (ANSI)
 48
0.0333809964358807
100
AcDbLine
 10
54.0702451035439
 20
46.2758618720318
 30
0.0
 11
54.1639951035439
 21
46.2758618720318
 31
0.0
  0
LINE
  5
1E4
330
6C
100
AcDbEntity
  8
Hidden (ANSI)
 48
0.0333809964358807
100
AcDbLine
 10
54.0702451035439
 20
13.61586187203182
 30
0.0
 11
54.1639951035439
 21
13.61586187203182
 31
0.0
  0
LINE
  5
1E5
330
6C
100
AcDbEntity
  8
Hidden (ANSI)
 48
0.0333809964358807
100
AcDbLine
 10
54.0702451035439
 20
13.11586187203182
 30
0.0
 11
54.1639951035439
 21
13.11586187203182
 31
0.0
  0
LINE
  5
1E6
330
6C
100
AcDbEntity
  8
Hidden (ANSI)
 48
0.0333809964358807
100
AcDbLine
 10
54.0702451035439
 20
45.9321118720318
 30
0.0
 11
54.1639951035439
 21
45.9321118720318
 31
0.0
  0
LINE
  5
1E7
330
6C
100
AcDbEntity
  8
Hidden (ANSI)
 48
0.0333809964358807
100
AcDbLine
 10
54.0702451035439
 20
45.61961187203181
 30
0.0
 11
54.1639951035439
 21
45.61961187203181
 31
0.0
  0
LINE
  5
1E8
330
6C
100
AcDbEntity
  8
Hidden (ANSI)
 48
0.0333809964358807
100
AcDbLine
 10
54.0702451035439
 20
14.27211187203182
 30
0.0
 11
54.1639951035439
 21
14.27211187203182
 31
0.0
  0
LINE
  5
1E9
330
6C
100
AcDbEntity
  8
Hidden (ANSI)
 48
0.0333809964358807
100
AcDbLine
 10
54.0702451035439
 20
13.95961187203182
 30
0.0
 11
54.1639951035439
 21
13.95961187203182
 31
0.0
  0
ELLIPSE
  5
1EA
330
6C
100
AcDbEntity
  8
Visible (ANSI)
100
AcDbEllipse
 10
85.88607276682745
 20
38.61204501113265
 30
0.0
 11
-0.0665376282112538
 21
0.1155444581526912
 31
0.0
210
0.0
220
0.0
230
0.9999999999999998
 40
0.5780931159158119
 41
0.2678448778126317
 42
2.873747775777287
  0
ELLIPSE
  5
1EB
330
6C
100
AcDbEntity
  8
Visible (ANSI)
100
AcDbEllipse
 10
85.85071742776813
 20
38.59168522544303
 30
0.0
 11
-0.0665376282112534
 21
0.1155444581526906
 31
0.0
210
0.0
220
0.0
230
1.0
 40
0.5780931159158117
 41
0.0
 42
6.283185307179586
  0
ELLIPSE
  5
1EC
330
6C
100
AcDbEntity
  8
Visible (ANSI)
100
AcDbEllipse
 10
75.64339533907842
 20
44.51041065731829
 30
0.0
 11
-0.0665376282112534
 21
0.1155444581526907
 31
0.0
210
0.0
220
0.0
230
1.0
 40
0.5780931159158119
 41
0.2678448778126321
 42
2.873747775777287
  0
ELLIPSE
  5
1ED
330
6C
100
AcDbEntity
  8
Visible (ANSI)
100
AcDbEllipse
 10
75.6080400000191
 20
44.49005087162868
 30
0.0
 11
-0.0665376282112534
 21
0.1155444581526906
 31
0.0
210
0.0
220
0.0
230
1.0
 40
0.5780931159158117
 41
0.0
 42
6.283185307179586
  0
ELLIPSE
  5
1EE
330
6C
100
AcDbEntity
  8
Visible (ANSI)
100
AcDbEllipse
 10
76.10107256022408
 20
36.84527718068153
 30
0.0
 11
-0.0291035585795895
 21
-0.0505391459959941
 31
0.0
210
0.0
220
0.0
230
1.0
 40
0.5780931159156424
 41
5.495853435359147
 42
6.283185307179683
  0
ELLIPSE
  5
1EF
330
6C
100
AcDbEntity
  8
Visible (ANSI)
100
AcDbEllipse
 10
85.44016180252071
 20
31.46725336396057
 30
0.0
 11
-0.0291035585795881
 21
-0.0505391459959917
 31
0.0
210
0.0
220
0.0
230
1.0
 40
0.5780931159156425
 41
5.495853435359069
 42
5.556343885665505
  0
LINE
  5
1F0
330
6C
100
AcDbEntity
  8
Visible Narrow (ANSI)
100
AcDbLine
 10
76.05983409274529
 20
36.82152952665317
 30
0.0
 11
85.39892333504193
 21
31.4435057099322
 31
0.0
  0
LINE
  5
1F1
330
6C
100
AcDbEntity
  8
Visible (ANSI)
100
AcDbLine
 10
85.39899875976526
 20
31.44354948074937
 30
0.0
 11
85.39899875976526
 21
31.39578292740191
 31
0.0
  0
LINE
  5
1F2
330
6C
100
AcDbEntity
  8
Visible (ANSI)
100
AcDbLine
 10
85.39892333504193
 20
31.44359291495885
 30
0.0
 11
85.39899875976526
 21
31.44354948074937
 31
0.0
  0
LINE
  5
1F3
330
6C
100
AcDbEntity
  8
Visible (ANSI)
100
AcDbLine
 10
76.05975866802197
 20
36.82166016588928
 30
0.0
 11
76.05983409274529
 21
36.82161673167981
 31
0.0
  0
LINE
  5
1F4
330
6C
100
AcDbEntity
  8
Visible (ANSI)
100
AcDbLine
 10
76.05975866802197
 20
36.77389361254182
 30
0.0
 11
76.05975866802197
 21
36.82166016588928
 31
0.0
  0
LINE
  5
1F5
330
6C
100
AcDbEntity
  8
Visible (ANSI)
100
AcDbLine
 10
76.08396229676259
 20
36.78783155535842
 30
0.0
 11
76.05975866802197
 21
36.77389361254182
 31
0.0
  0
LINE
  5
1F6
330
6C
100
AcDbEntity
  8
Visible (ANSI)
100
AcDbLine
 10
76.07196900164449
 20
36.79473803468554
 30
0.0
 11
85.39899875976526
 21
31.4236588130351
 31
0.0
  0
LINE
  5
1F7
330
6C
100
AcDbEntity
  8
Visible (ANSI)
100
AcDbLine
 10
76.05983409274529
 20
36.82161673167981
 30
0.0
 11
76.05983409274529
 21
36.82152952665317
 31
0.0
  0
LINE
  5
1F8
330
6C
100
AcDbEntity
  8
Visible (ANSI)
100
AcDbLine
 10
85.39892333504193
 20
31.4435057099322
 30
0.0
 11
85.39892333504193
 21
31.44359291495885
 31
0.0
  0
ELLIPSE
  5
1F9
330
6C
100
AcDbEntity
  8
Visible (ANSI)
100
AcDbEllipse
 10
85.88607276682745
 20
45.84134172040697
 30
0.0
 11
-0.0665376282112538
 21
0.1155444581526912
 31
0.0
210
0.0
220
0.0
230
0.9999999999999998
 40
0.5780931159158119
 41
0.2678448778126317
 42
2.873747775777287
  0
ELLIPSE
  5
1FA
330
6C
100
AcDbEntity
  8
Visible (ANSI)
100
AcDbEllipse
 10
75.64339533907844
 20
51.73970736659262
 30
0.0
 11
-0.0665376282112533
 21
0.1155444581526904
 31
0.0
210
0.0
220
0.0
230
1.0
 40
0.5780931159158116
 41
0.2678448778126317
 42
2.873747775777286
  0
ELLIPSE
  5
1FB
330
6C
100
AcDbEntity
  8
Visible (ANSI)
100
AcDbEllipse
 10
75.64339533907842
 20
37.28111394804397
 30
0.0
 11
-0.0665376282112532
 21
0.1155444581526903
 31
0.0
210
0.0
220
0.0
230
1.0
 40
0.5780931159158119
 41
0.2678448778126325
 42
2.873747775777287
  0
ELLIPSE
  5
1FC
330
6C
100
AcDbEntity
  8
Visible (ANSI)
100
AcDbEllipse
 10
85.88607276682745
 20
31.38274830185832
 30
0.0
 11
-0.0665376282112531
 21
0.1155444581526901
 31
0.0
210
0.0
220
0.0
230
1.0
 40
0.5780931159158119
 41
0.2678448778126023
 42
2.87374777577727
  0
ELLIPSE
  5
1FD
330
6C
100
AcDbEntity
  8
Visible (ANSI)
100
AcDbEllipse
 10
85.88607276682745
 20
45.51432287046995
 30
0.0
 11
0.0415860176320377
 21
-0.0722152863454292
 31
0.0
210
0.0
220
0.0
230
0.9999999999999998
 40
0.578093115915812
 41
3.57883851325163
 42
5.845939447517055
  0
ELLIPSE
  5
1FE
330
6C
100
AcDbEntity
  8
Visible (ANSI)
100
AcDbEllipse
 10
75.64339533907844
 20
51.4126885166556
 30
0.0
 11
0.0415860176320375
 21
-0.0722152863454289
 31
0.0
210
0.0
220
0.0
230
1.0
 40
0.5780931159158119
 41
3.57883851325163
 42
5.845939447517054
  0
ELLIPSE
  5
1FF
330
6C
100
AcDbEntity
  8
Visible (ANSI)
100
AcDbEllipse
 10
75.64339533907842
 20
37.60813279798099
 30
0.0
 11
0.0415860176320376
 21
-0.072215286345429
 31
0.0
210
0.0
220
0.0
230
1.0
 40
0.5780931159158119
 41
3.57883851325163
 42
5.845939447517054
  0
ELLIPSE
  5
200
330
6C
100
AcDbEntity
  8
Visible (ANSI)
100
AcDbEllipse
 10
85.88607276682745
 20
31.70976715179534
 30
0.0
 11
0.0415860176320378
 21
-0.0722152863454294
 31
0.0
210
0.0
220
0.0
230
0.9999999999999998
 40
0.5780931159158119
 41
3.578838513251579
 42
5.845939447517054
  0
ELLIPSE
  5
201
330
6C
100
AcDbEntity
  8
Visible (ANSI)
100
AcDbEllipse
 10
85.85071742776815
 20
45.82098193471735
 30
0.0
 11
-0.0665376282112532
 21
0.1155444581526903
 31
0.0
210
0.0
220
0.0
230
1.0
 40
0.5780931159158119
 41
0.0
 42
6.283185307179586
  0
ELLIPSE
  5
202
330
6C
100
AcDbEntity
  8
Visible (ANSI)
100
AcDbEllipse
 10
75.60804000001912
 20
51.71934758090301
 30
0.0
 11
-0.0665376282112532
 21
0.1155444581526903
 31
0.0
210
0.0
220
0.0
230
1.0
 40
0.5780931159158119
 41
0.0
 42
6.283185307179586
  0
ELLIPSE
  5
203
330
6C
100
AcDbEntity
  8
Visible (ANSI)
100
AcDbEllipse
 10
75.6080400000191
 20
37.26075416235435
 30
0.0
 11
-0.0665376282112532
 21
0.1155444581526903
 31
0.0
210
0.0
220
0.0
230
1.0
 40
0.5780931159158119
 41
0.0
 42
6.283185307179586
  0
ELLIPSE
  5
204
330
6C
100
AcDbEntity
  8
Visible (ANSI)
100
AcDbEllipse
 10
85.85071742776813
 20
31.3623885161687
 30
0.0
 11
-0.0665376282112532
 21
0.1155444581526903
 31
0.0
210
0.0
220
0.0
230
1.0
 40
0.5780931159158119
 41
0.0
 42
6.283185307179586
  0
ELLIPSE
  5
205
330
6C
100
AcDbEntity
  8
Visible (ANSI)
100
AcDbEllipse
 10
85.85071742776815
 20
45.49396308478033
 30
0.0
 11
-0.0415860176320333
 21
0.0722152863454315
 31
0.0
210
0.0
220
0.0
230
1.0
 40
0.5780931159158119
 41
0.0
 42
6.283185307179586
  0
ELLIPSE
  5
206
330
6C
100
AcDbEntity
  8
Visible (ANSI)
100
AcDbEllipse
 10
75.60804000001912
 20
51.39232873096598
 30
0.0
 11
-0.0415860176320333
 21
0.0722152863454315
 31
0.0
210
0.0
220
0.0
230
1.0
 40
0.5780931159158119
 41
0.0
 42
6.283185307179586
  0
ELLIPSE
  5
207
330
6C
100
AcDbEntity
  8
Visible (ANSI)
100
AcDbEllipse
 10
75.6080400000191
 20
37.58777301229137
 30
0.0
 11
-0.0415860176320333
 21
0.0722152863454315
 31
0.0
210
0.0
220
0.0
230
1.0
 40
0.5780931159158119
 41
0.0
 42
6.283185307179586
  0
ELLIPSE
  5
208
330
6C
100
AcDbEntity
  8
Visible (ANSI)
100
AcDbEllipse
 10
85.85071742776813
 20
31.68940736610572
 30
0.0
 11
-0.0415860176320333
 21
0.0722152863454315
 31
0.0
210
0.0
220
0.0
230
1.0
 40
0.5780931159158119
 41
0.0
 42
6.283185307179586
  0
LINE
  5
209
330
6C
100
AcDbEntity
  8
Visible (ANSI)
100
AcDbLine
 10
76.09511400708129
 20
51.70631295535942
 30
0.0
 11
75.63585286674578
 21
51.97078385682941
 31
0.0
  0
LINE
  5
20A
330
6C
100
AcDbEntity
  8
Visible (ANSI)
100
AcDbLine
 10
85.89361523916011
 20
46.06373136874952
 30
0.0
 11
85.4343540988246
 21
46.32820227021951
 31
0.0
  0
LINE
  5
20B
330
6C
100
AcDbEntity
  8
Visible (ANSI)
100
AcDbLine
 10
86.08217704747655
 20
45.20614187117584
 30
0.0
 11
86.08217704747655
 21
45.7371332784469
 31
0.0
  0
LINE
  5
20C
330
6C
100
AcDbEntity
  8
Visible (ANSI)
100
AcDbLine
 10
86.08217704747655
 20
31.26109885456828
 30
0.0
 11
86.08217704747655
 21
31.79209026183935
 31
0.0
  0
LINE
  5
20D
330
6C
100
AcDbEntity
  8
Visible (ANSI)
100
AcDbLine
 10
76.05975866802197
 20
36.77389361254182
 30
0.0
 11
75.60049752768643
 21
37.03836451401181
 31
0.0
  0
LINE
  5
20E
330
6C
100
AcDbEntity
  8
Visible (ANSI)
100
AcDbLine
 10
85.85825990010079
 20
31.13131202593192
 30
0.0
 11
85.39899875976526
 21
31.39578292740191
 31
0.0
  0
LINE
  5
20F
330
6C
100
AcDbEntity
  8
Visible (ANSI)
100
AcDbLine
 10
86.04682170841723
 20
31.77173047614973
 30
0.0
 11
86.04682170841723
 21
31.24073906887866
 31
0.0
  0
LINE
  5
210
330
6C
100
AcDbEntity
  8
Visible (ANSI)
100
AcDbLine
 10
86.04682170841723
 20
45.71677349275729
 30
0.0
 11
86.04682170841723
 21
45.18578208548622
 31
0.0
  0
LINE
  5
211
330
6C
100
AcDbEntity
  8
Visible (ANSI)
100
AcDbLine
 10
85.39899875976528
 20
46.30784248452989
 30
0.0
 11
85.85825990010079
 21
46.0433715830599
 31
0.0
  0
LINE
  5
212
330
6C
100
AcDbEntity
  8
Visible (ANSI)
100
AcDbLine
 10
75.60049752768645
 20
51.95042407113979
 30
0.0
 11
76.05975866802197
 21
51.6859531696698
 31
0.0
  0
LINE
  5
213
330
6C
100
AcDbEntity
  8
Visible (ANSI)
100
AcDbLine
 10
75.41193571937
 20
51.31000562092198
 30
0.0
 11
75.41193571937
 21
51.84099702819304
 31
0.0
  0
LINE
  5
214
330
6C
100
AcDbEntity
  8
Visible (ANSI)
100
AcDbLine
 10
75.41193571936999
 20
37.36496260431442
 30
0.0
 11
75.41193571936999
 21
37.89595401158549
 31
0.0
  0
LINE
  5
215
330
6C
100
AcDbEntity
  8
Visible (ANSI)
100
AcDbLine
 10
76.09511400708129
 20
51.70631295535942
 30
0.0
 11
76.09511400708129
 21
51.70572575110976
 31
0.0
  0
LINE
  5
216
330
6C
100
AcDbEntity
  8
Visible (ANSI)
100
AcDbLine
 10
85.39899875976528
 20
46.30784248452989
 30
0.0
 11
85.39899875976528
 21
46.26007593118242
 31
0.0
  0
LINE
  5
217
330
6C
100
AcDbEntity
  8
Visible (ANSI)
100
AcDbLine
 10
85.39899875976528
 20
46.26007593118242
 30
0.0
 11
85.39892333504194
 21
46.2601193653919
 31
0.0
  0
LINE
  5
218
330
6C
100
AcDbEntity
  8
Visible Narrow (ANSI)
100
AcDbLine
 10
85.39892333504194
 20
46.26020657041855
 30
0.0
 11
76.05983409274529
 21
51.63823038713951
 31
0.0
  0
LINE
  5
219
330
6C
100
AcDbEntity
  8
Visible (ANSI)
100
AcDbLine
 10
76.05983409274529
 20
51.63814318211287
 30
0.0
 11
76.05975866802197
 21
51.63818661632234
 31
0.0
  0
LINE
  5
21A
330
6C
100
AcDbEntity
  8
Visible (ANSI)
100
AcDbLine
 10
76.05975866802197
 20
51.63818661632234
 30
0.0
 11
76.05975866802197
 21
51.6859531696698
 31
0.0
  0
LINE
  5
21B
330
6C
100
AcDbEntity
  8
Visible Narrow (ANSI)
100
AcDbLine
 10
85.4401618025207
 20
46.33163357276772
 30
0.0
 11
76.10107256022409
 21
51.7096573894887
 31
0.0
  0
ELLIPSE
  5
21C
330
6C
100
AcDbEntity
  8
Visible (ANSI)
100
AcDbEllipse
 10
85.44016180252082
 20
46.28395422444695
 30
0.0
 11
0.0291035585796428
 21
0.0505391459960796
 31
0.0
210
0.0
220
0.0
230
1.0
 40
0.5780931159156425
 41
2.293770331463138
 42
2.354260781769252
  0
ELLIPSE
  5
21D
330
6C
100
AcDbEntity
  8
Visible (ANSI)
100
AcDbEllipse
 10
85.44016180252075
 20
46.28395422444671
 30
0.0
 11
0.029103558579716
 21
0.0505391459962139
 31
0.0
210
0.0
220
0.0
230
1.0
 40
0.5780931159156423
 41
0.7834644549754968
 42
0.9175200251379163
  0
LINE
  5
21E
330
6C
100
AcDbEntity
  8
Visible (ANSI)
100
AcDbLine
 10
85.39892333504194
 20
46.2601193653919
 30
0.0
 11
85.39899875976528
 21
46.26016279960136
 31
0.0
  0
ELLIPSE
  5
21F
330
6C
100
AcDbEntity
  8
Visible (ANSI)
100
AcDbEllipse
 10
76.10107256022409
 20
51.66197804116787
 30
0.0
 11
0.0291035585795935
 21
0.0505391459959938
 31
0.0
210
0.0
220
0.0
230
1.0
 40
0.5780931159156474
 41
0.7834644549745829
 42
2.354260781769196
  0
LINE
  5
220
330
6C
100
AcDbEntity
  8
Visible (ANSI)
100
AcDbLine
 10
76.05975866802197
 20
51.6859531696698
 30
0.0
 11
76.09511400708129
 21
51.70631295535942
 31
0.0
  0
LINE
  5
221
330
6C
100
AcDbEntity
  8
Visible (ANSI)
100
AcDbLine
 10
76.05975866802197
 20
51.63818661632234
 30
0.0
 11
76.05983409274529
 21
51.63823005053181
 31
0.0
  0
LINE
  5
222
330
6C
100
AcDbEntity
  8
Visible (ANSI)
100
AcDbLine
 10
85.4343540988246
 20
46.32820227021951
 30
0.0
 11
85.39899875976528
 21
46.30784248452989
 31
0.0
  0
LINE
  5
223
330
6C
100
AcDbEntity
  8
Visible (ANSI)
100
AcDbLine
 10
86.08217704747655
 20
45.7371332784469
 30
0.0
 11
85.89361523916011
 21
46.06373136874952
 31
0.0
  0
LINE
  5
224
330
6C
100
AcDbEntity
  8
Visible (ANSI)
100
AcDbLine
 10
85.85825990010079
 20
46.0433715830599
 30
0.0
 11
86.04682170841723
 21
45.71677349275729
 31
0.0
  0
LINE
  5
225
330
6C
100
AcDbEntity
  8
Visible (ANSI)
100
AcDbLine
 10
85.89361523916011
 20
46.06373136874952
 30
0.0
 11
85.85825990010079
 21
46.0433715830599
 31
0.0
  0
LINE
  5
226
330
6C
100
AcDbEntity
  8
Visible (ANSI)
100
AcDbLine
 10
86.04682170841723
 20
45.71677349275729
 30
0.0
 11
86.08217704747655
 21
45.7371332784469
 31
0.0
  0
LINE
  5
227
330
6C
100
AcDbEntity
  8
Visible (ANSI)
100
AcDbLine
 10
86.08166854106363
 20
31.79238309120724
 30
0.0
 11
86.08217704747655
 21
31.79209026183935
 31
0.0
  0
LINE
  5
228
330
6C
100
AcDbEntity
  8
Visible (ANSI)
100
AcDbLine
 10
86.04682170841723
 20
31.77173047614973
 30
0.0
 11
86.00550781621508
 21
31.79552156438756
 31
0.0
  0
LINE
  5
229
330
6C
100
AcDbEntity
  8
Visible (ANSI)
100
AcDbLine
 10
86.00550781621508
 20
31.79552156438756
 30
0.0
 11
86.00550781621508
 21
31.79560876941421
 31
0.0
  0
LINE
  5
22A
330
6C
100
AcDbEntity
  8
Visible Narrow (ANSI)
100
AcDbLine
 10
86.00558324093842
 20
31.79556533520474
 30
0.0
 11
86.00558324093844
 21
45.20944253448793
 31
0.0
  0
LINE
  5
22B
330
6C
100
AcDbEntity
  8
Visible (ANSI)
100
AcDbLine
 10
86.00550781621508
 20
45.2094859686974
 30
0.0
 11
86.00550781621508
 21
45.20957317372405
 31
0.0
  0
LINE
  5
22C
330
6C
100
AcDbEntity
  8
Visible (ANSI)
100
AcDbLine
 10
86.00550781621508
 20
45.20957317372405
 30
0.0
 11
86.04682170841723
 21
45.18578208548622
 31
0.0
  0
LINE
  5
22D
330
6C
100
AcDbEntity
  8
Visible Narrow (ANSI)
100
AcDbLine
 10
86.08806017589602
 20
31.79556533520476
 30
0.0
 11
86.08806017589603
 21
45.20944253448795
 31
0.0
  0
ELLIPSE
  5
22E
330
6C
100
AcDbEntity
  8
Visible (ANSI)
100
AcDbEllipse
 10
86.04682170841721
 20
31.81931298923311
 30
0.0
 11
0.0583199999999989
 21
0.0000000000000034
 31
0.0
210
0.0
220
0.0
230
1.0
 40
0.5758617009853071
 41
3.926990816987262
 42
5.497787143782266
  0
LINE
  5
22F
330
6C
100
AcDbEntity
  8
Visible (ANSI)
100
AcDbLine
 10
86.00550781621508
 20
45.2094859686974
 30
0.0
 11
86.00558353320279
 21
45.20952957121074
 31
0.0
  0
ELLIPSE
  5
230
330
6C
100
AcDbEntity
  8
Visible (ANSI)
100
AcDbEllipse
 10
86.04682170841725
 20
45.23319018851633
 30
0.0
 11
0.0583200000000336
 21
0.0000000000000034
 31
0.0
210
0.0
220
0.0
230
1.0
 40
0.5758617009853073
 41
3.926990816987213
 42
3.987598387464517
  0
ELLIPSE
  5
231
330
6C
100
AcDbEntity
  8
Visible (ANSI)
100
AcDbEllipse
 10
86.0468217084173
 20
45.23319018851625
 30
0.0
 11
0.0583199999998687
 21
0.0
 31
0.0
210
0.0
220
0.0
230
1.0
 40
0.5758617009853073
 41
5.363700662383011
 42
5.497787143782635
  0
LINE
  5
232
330
6C
100
AcDbEntity
  8
Visible (ANSI)
100
AcDbLine
 10
86.04682170841723
 20
45.18578208548622
 30
0.0
 11
86.08217704747655
 21
45.20614187117584
 31
0.0
  0
LINE
  5
233
330
6C
100
AcDbEntity
  8
Visible (ANSI)
100
AcDbLine
 10
86.00550781621508
 20
31.79552156438756
 30
0.0
 11
86.0055835332038
 21
31.79556516690148
 31
0.0
  0
LINE
  5
234
330
6C
100
AcDbEntity
  8
Visible (ANSI)
100
AcDbLine
 10
86.08217704747655
 20
31.79209026183935
 30
0.0
 11
86.04682170841723
 21
31.77173047614973
 31
0.0
  0
LINE
  5
235
330
6C
100
AcDbEntity
  8
Visible (ANSI)
100
AcDbLine
 10
85.89361523916009
 20
31.15167181162154
 30
0.0
 11
86.08217704747655
 21
31.26109885456828
 31
0.0
  0
LINE
  5
236
330
6C
100
AcDbEntity
  8
Visible (ANSI)
100
AcDbLine
 10
86.04682170841723
 20
31.24073906887866
 30
0.0
 11
85.85825990010079
 21
31.13131202593192
 31
0.0
  0
LINE
  5
237
330
6C
100
AcDbEntity
  8
Visible (ANSI)
100
AcDbLine
 10
85.85825990010079
 20
31.13131202593192
 30
0.0
 11
85.89361523916009
 21
31.15167181162154
 31
0.0
  0
LINE
  5
238
330
6C
100
AcDbEntity
  8
Visible (ANSI)
100
AcDbLine
 10
86.08217704747655
 20
31.26109885456828
 30
0.0
 11
86.04682170841723
 21
31.24073906887866
 31
0.0
  0
LINE
  5
239
330
6C
100
AcDbEntity
  8
Visible (ANSI)
100
AcDbLine
 10
86.00550781621508
 20
31.79560876941421
 30
0.0
 11
86.00558324093842
 21
31.79556533520474
 31
0.0
  0
LINE
  5
23A
330
6C
100
AcDbEntity
  8
Visible (ANSI)
100
AcDbLine
 10
86.00558324093844
 20
45.20944253448793
 30
0.0
 11
86.00550781621508
 21
45.2094859686974
 31
0.0
  0
LINE
  5
23B
330
6C
100
AcDbEntity
  8
Visible (ANSI)
100
AcDbLine
 10
86.08806017589602
 20
31.79556533520476
 30
0.0
 11
86.33871538769097
 21
31.93990807182987
 31
0.0
  0
LINE
  5
23C
330
6C
100
AcDbEntity
  8
Visible (ANSI)
100
AcDbLine
 10
86.33871538769099
 20
45.35378527111307
 30
0.0
 11
86.33871538769097
 21
31.93990807182987
 31
0.0
  0
LINE
  5
23D
330
6C
100
AcDbEntity
  8
Visible (ANSI)
100
AcDbLine
 10
86.33871538769099
 20
45.35378527111307
 30
0.0
 11
86.08806017589603
 21
45.20944253448795
 31
0.0
  0
LINE
  5
23E
330
6C
100
AcDbEntity
  8
Visible (ANSI)
100
AcDbLine
 10
86.30336004863165
 20
45.37414505680268
 30
0.0
 11
86.33871538769099
 21
45.35378527111307
 31
0.0
  0
LINE
  5
23F
330
6C
100
AcDbEntity
  8
Visible (ANSI)
100
AcDbLine
 10
86.08217704747655
 20
45.24677423752843
 30
0.0
 11
86.30336004863165
 21
45.37414505680268
 31
0.0
  0
LINE
  5
240
330
6C
100
AcDbEntity
  8
Visible (ANSI)
100
AcDbLine
 10
85.39892333504194
 20
46.2601193653919
 30
0.0
 11
85.39892333504194
 21
46.26020657041855
 31
0.0
  0
LINE
  5
241
330
6C
100
AcDbEntity
  8
Visible (ANSI)
100
AcDbLine
 10
76.05983409274529
 20
51.63823038713951
 30
0.0
 11
76.05983409274529
 21
51.63814318211287
 31
0.0
  0
LINE
  5
242
330
6C
100
AcDbEntity
  8
Visible (ANSI)
100
AcDbLine
 10
85.4401618025207
 20
46.33163357276772
 30
0.0
 11
85.69081701431569
 21
46.47597630939286
 31
0.0
  0
LINE
  5
243
330
6C
100
AcDbEntity
  8
Visible (ANSI)
100
AcDbLine
 10
76.35172777201906
 20
51.85400012611382
 30
0.0
 11
85.69081701431569
 21
46.47597630939286
 31
0.0
  0
LINE
  5
244
330
6C
100
AcDbEntity
  8
Visible (ANSI)
100
AcDbLine
 10
76.35172777201906
 20
51.85400012611382
 30
0.0
 11
76.10107256022409
 21
51.7096573894887
 31
0.0
  0
LINE
  5
245
330
6C
100
AcDbEntity
  8
Visible (ANSI)
100
AcDbLine
 10
85.69081701431569
 20
46.43509895315072
 30
0.0
 11
85.46977101208119
 21
46.30780702630793
 31
0.0
  0
LINE
  5
246
330
6C
100
AcDbEntity
  8
Visible (ANSI)
100
AcDbLine
 10
85.69081701431569
 20
46.47597630939286
 30
0.0
 11
85.69081701431569
 21
46.43509895315072
 31
0.0
  0
LINE
  5
247
330
6C
100
AcDbEntity
  8
Visible (ANSI)
100
AcDbLine
 10
75.41193571937
 20
51.84099702819304
 30
0.0
 11
75.60049752768645
 21
51.95042407113979
 31
0.0
  0
LINE
  5
248
330
6C
100
AcDbEntity
  8
Visible (ANSI)
100
AcDbLine
 10
75.60049752768645
 20
51.95042407113979
 30
0.0
 11
75.63585286674578
 21
51.97078385682941
 31
0.0
  0
LINE
  5
249
330
6C
100
AcDbEntity
  8
Visible (ANSI)
100
AcDbLine
 10
75.41193571937
 20
51.31000562092198
 30
0.0
 11
75.45324961157213
 21
51.28621453268415
 31
0.0
  0
LINE
  5
24A
330
6C
100
AcDbEntity
  8
Visible (ANSI)
100
AcDbLine
 10
75.45324961157213
 20
51.28621453268415
 30
0.0
 11
75.45324961157213
 21
51.2861273276575
 31
0.0
  0
LINE
  5
24B
330
6C
100
AcDbEntity
  8
Visible Narrow (ANSI)
100
AcDbLine
 10
75.4531741868488
 20
51.28617076186697
 30
0.0
 11
75.4531741868488
 21
37.87229356258377
 31
0.0
  0
LINE
  5
24C
330
6C
100
AcDbEntity
  8
Visible (ANSI)
100
AcDbLine
 10
75.45324961157213
 20
37.8722501283743
 30
0.0
 11
75.45324961157213
 21
37.87216292334765
 31
0.0
  0
LINE
  5
24D
330
6C
100
AcDbEntity
  8
Visible (ANSI)
100
AcDbLine
 10
75.45324961157213
 20
37.87216292334765
 30
0.0
 11
75.41193571936999
 21
37.89595401158549
 31
0.0
  0
ELLIPSE
  5
24E
330
6C
100
AcDbEntity
  8
Visible (ANSI)
100
AcDbEllipse
 10
75.49441265432759
 20
51.30991841589533
 30
0.0
 11
-0.0583199999999806
 21
0.0
 31
0.0
210
0.0
220
0.0
230
1.0
 40
0.5758617009853071
 41
0.7247905929200336
 42
0.7853981633973293
  0
ELLIPSE
  5
24F
330
6C
100
AcDbEntity
  8
Visible (ANSI)
100
AcDbEllipse
 10
75.49441265432759
 20
37.89604121661215
 30
0.0
 11
-0.05832
 21
-0.0000000000000003
 31
0.0
210
0.0
220
0.0
230
1.0
 40
0.5758617009853028
 41
0.0
 42
0.7853981633973009
  0
LINE
  5
250
330
6C
100
AcDbEntity
  8
Visible (ANSI)
100
AcDbLine
 10
75.41193571936999
 20
37.89595401158549
 30
0.0
 11
75.4360926543276
 21
37.90986506524077
 31
0.0
  0
LINE
  5
251
330
6C
100
AcDbEntity
  8
Visible (ANSI)
100
AcDbLine
 10
75.43609265432761
 20
51.2960945672667
 30
0.0
 11
75.4360926543276
 21
37.89604121661214
 31
0.0
  0
LINE
  5
252
330
6C
100
AcDbEntity
  8
Visible (ANSI)
100
AcDbLine
 10
75.45324961157213
 20
51.2861273276575
 30
0.0
 11
75.4531741868488
 21
51.28617076186697
 31
0.0
  0
LINE
  5
253
330
6C
100
AcDbEntity
  8
Visible (ANSI)
100
AcDbLine
 10
75.4531741868488
 20
37.87229356258377
 30
0.0
 11
75.45324961157213
 21
37.8722501283743
 31
0.0
  0
LINE
  5
254
330
6C
100
AcDbEntity
  8
Visible (ANSI)
100
AcDbLine
 10
75.59060846418763
 20
51.41280920664574
 30
0.0
 11
75.63443112612628
 21
51.43804499929145
 31
0.0
  0
LINE
  5
255
330
6C
100
AcDbEntity
  8
Visible (ANSI)
100
AcDbLine
 10
75.65396303582298
 20
51.40857310665365
 30
0.0
 11
75.60629516005725
 21
51.38112300263283
 31
0.0
  0
LINE
  5
256
330
6C
100
AcDbEntity
  8
Visible (ANSI)
100
AcDbLine
 10
75.60049752768643
 20
37.03836451401181
 30
0.0
 11
75.41193571936999
 21
37.36496260431442
 31
0.0
  0
DIMENSION
  5
257
330
6C
100
AcDbEntity
  8
Dimension (ANSI)
100
AcDbDimension
  2
*D4
 10
3.719356015766838
 20
47.04586187203181
 30
0.0
 11
3.719356015766829
 21
29.94586187203181
 31
0.0
 70
   160
  1
<>
 42
34.19999999999999
  3
Default (ANSI)
100
AcDbAlignedDimension
 13
13.41343190413301
 23
12.84586187203182
 33
0.0
 14
13.413431904133
 24
47.04586187203181
 34
0.0
 50
90.0
100
AcDbRotatedDimension
1001
ACAD
1000
DSTYLE
1002
{
1070
   289
1070
     1
1070
   271
1070
     2
1070
   272
1070
     2
1070
    48
1040
0.0
1070
    47
1040
0.0
1002
}
  0
DIMENSION
  5
344
330
6C
100
AcDbEntity
  8
Dimension (ANSI)
100
AcDbDimension
  2
*D5
 10
41.11343190413299
 20
51.58523195077198
 30
0.0
 11
27.013431904133
 21
51.58523195077198
 31
0.0
 70
   160
  1
<>
 42
28.19999999999999
  3
Default (ANSI)
100
AcDbAlignedDimension
 13
12.913431904133
 23
46.54586187203181
 33
0.0
 14
41.11343190413299
 24
46.54586187203181
 34
0.0
100
AcDbRotatedDimension
1001
ACAD
1000
DSTYLE
1002
{
1070
   289
1070
     1
1070
    73
1070
     0
1070
    74
1070
     0
1070
   271
1070
     2
1070
   272
1070
     2
1070
    48
1040
0.0
1070
    47
1040
0.0
1002
}
  0
DIMENSION
  5
42E
330
6C
100
AcDbEntity
  8
Dimension (ANSI)
100
AcDbDimension
  2
*D6
 10
11.91836945972259
 20
14.11586187203182
 30
0.0
 11
10.41223912936098
 21
11.83715254885948
 31
0.0
 70
   160
  1
<>
 42
0.75
  3
Default (ANSI)
100
AcDbAlignedDimension
 13
13.43343190413301
 23
13.36586187203182
 33
0.0
 14
13.43343190413301
 24
14.11586187203182
 34
0.0
 50
90.0
100
AcDbRotatedDimension
1001
ACAD
1000
DSTYLE
1002
{
1070
   289
1070
     1
1070
   271
1070
     2
1070
   272
1070
     2
1070
    48
1040
0.0
1070
    47
1040
0.0
1002
}
  0
DIMENSION
  5
52E
330
6C
100
AcDbEntity
  8
Dimension (ANSI)
100
AcDbDimension
  2
*D7
 10
45.25282199254951
 20
46.52586187203182
 30
0.0
 11
43.7430382033456
 21
44.99676356988633
 31
0.0
 70
   160
  1
<>
 42
0.5199999999999961
  3
Default (ANSI)
100
AcDbAlignedDimension
 13
40.613431904133
 23
47.04586187203181
 33
0.0
 14
40.593431904133
 24
46.52586187203182
 34
0.0
 50
270.0
100
AcDbRotatedDimension
1001
ACAD
1000
DSTYLE
1002
{
1070
   289
1070
     1
1070
   271
1070
     2
1070
   272
1070
     2
1070
    48
1040
0.0
1070
    47
1040
0.0
1002
}
  0
DIMENSION
  5
62E
330
6C
100
AcDbEntity
  8
Dimension (ANSI)
100
AcDbDimension
  2
*D8
 10
40.593431904133
 20
49.69546817124442
 30
0.0
 11
43.4228218870824
 21
49.69546817124442
 31
0.0
 70
   160
  1
<>
 42
0.519999999999989
  3
Default (ANSI)
100
AcDbAlignedDimension
 13
41.11343190413299
 23
46.54586187203181
 33
0.0
 14
40.593431904133
 24
46.52586187203182
 34
0.0
 50
180.0
100
AcDbRotatedDimension
1001
ACAD
1000
DSTYLE
1002
{
1070
   289
1070
     1
1070
    73
1070
     0
1070
    74
1070
     0
1070
   271
1070
     2
1070
   272
1070
     2
1070
    48
1040
0.0
1070
    47
1040
0.0
1002
}
  0
DIMENSION
  5
718
330
6C
100
AcDbEntity
  8
Dimension (ANSI)
100
AcDbDimension
  2
*D9
 10
8.817061779817603
 20
29.94586187203181
 30
0.0
 11
8.817061779817597
 21
21.65586187203182
 31
0.0
 70
   160
  1
<>
 42
16.57999999999999
  3
Default (ANSI)
100
AcDbAlignedDimension
 13
13.43343190413301
 23
13.36586187203182
 33
0.0
 14
13.43343190413301
 24
29.94586187203181
 34
0.0
 50
90.0
100
AcDbRotatedDimension
1001
ACAD
1000
DSTYLE
1002
{
1070
   289
1070
     1
1070
   271
1070
     3
1070
   272
1070
     3
1070
    48
1040
0.0
1070
    47
1040
0.0
1002
}
  0
DIMENSION
  5
802
330
6C
100
AcDbEntity
  8
Dimension (ANSI)
100
AcDbDimension
  2
*D10
 10
6.242429414886552
 20
46.52586187203181
 30
0.0
 11
6.242429414886544
 21
37.45710828729428
 31
0.0
 70
   160
  1
<>
 42
33.15999999999999
  3
Default (ANSI)
100
AcDbAlignedDimension
 13
13.43343190413301
 23
13.36586187203182
 33
0.0
 14
13.43343190413301
 24
46.52586187203181
 34
0.0
 50
90.0
100
AcDbRotatedDimension
1001
ACAD
1000
DSTYLE
1002
{
1070
   289
1070
     1
1070
   271
1070
     3
1070
   272
1070
     3
1070
    48
1040
0.0
1070
    47
1040
0.0
1002
}
  0
DIMENSION
  5
8EC
330
6C
100
AcDbEntity
  8
Dimension (ANSI)
100
AcDbDimension
  2
*D11
 10
54.84424510354405
 20
50.05227132085071
 30
0.0
 11
51.76085512059451
 21
50.05227132085071
 31
0.0
 70
   160
  1
<>
 42
0.7740000000001502
  3
Default (ANSI)
100
AcDbAlignedDimension
 13
54.0702451035439
 23
47.04586187203181
 33
0.0
 14
54.84424510354405
 24
45.32786187203181
 34
0.0
 50
180.0
100
AcDbRotatedDimension
1001
ACAD
1000
DSTYLE
1002
{
1070
   289
1070
     1
1070
    73
1070
     0
1070
    74
1070
     0
1070
   271
1070
     2
1070
   272
1070
     2
1070
    48
1040
0.0
1070
    47
1040
0.0
1002
}
  0
MTEXT
  5
9D6
102
{ACAD_REACTORS
330
9D7
102
}
330
6C
100
AcDbEntity
  8
Symbol (ANSI)
100
AcDbMText
 10
57.72073689035958
 20
33.70293190351691
 30
0.0
 40
0.6400000079097396
 41
2.617568919664917
 71
     1
 72
     1
  1
{12 GA.}
  7
Note Text (ANSI)
 73
     1
 44
1.0
1001
ACAD
1000
MTEXTBEGIN
1070
    73
1070
     1
1070
    44
1040
1.0
1070
    74
1070
     0
1000
MTEXTEND
  0
LEADER
  5
9D7
330
6C
100
AcDbEntity
  8
Symbol (ANSI)
100
AcDbLeader
  3
Default (ANSI)$7
 73
     0
 74
     0
 75
     1
 40
0.6657891284433758
 41
2.438791165130867
 76
     3
 10
54.84424510354405
 20
29.94586187203182
 30
0.0
 10
57.02782351642245
 20
33.38293189956204
 30
0.0
 10
57.55275788773491
 20
33.38293189956204
 30
0.0
340
9D6
213
0.0
223
-0.3200000039548698
233
0.0
1001
ACAD
1000
DSTYLE
1002
{
1070
    77
1070
     0
1002
}
  0
DIMENSION
  5
9D8
330
6C
100
AcDbEntity
  8
Dimension (ANSI)
100
AcDbDimension
  2
*D12
 10
44.08539897069485
 20
13.34586187203181
 30
0.0
 11
45.5966871253044
 21
14.87457119520415
 31
0.0
 70
   160
  1
<>
 42
0.5
  3
Default (ANSI)
100
AcDbAlignedDimension
 13
40.613431904133
 23
12.84586187203182
 33
0.0
 14
41.113431904133
 24
13.34586187203182
 34
0.0
 50
90.0
100
AcDbRotatedDimension
1001
ACAD
1000
DSTYLE
1002
{
1070
   289
1070
     1
1070
   271
1070
     2
1070
   272
1070
     2
1070
    48
1040
0.0
1070
    47
1040
0.0
1002
}
  0
DIMENSION
  5
AD8
330
6C
100
AcDbEntity
  8
Dimension (ANSI)
100
AcDbDimension
  2
*D13
 10
40.613431904133
 20
8.908853998016075
 30
0.0
 11
38.3040419211836
 21
8.908853998016075
 31
0.0
 70
   160
  1
<>
 42
0.5000000000000071
  3
Default (ANSI)
100
AcDbAlignedDimension
 13
41.113431904133
 23
13.34586187203182
 33
0.0
 14
40.613431904133
 24
12.84586187203182
 34
0.0
 50
180.0
100
AcDbRotatedDimension
1001
ACAD
1000
DSTYLE
1002
{
1070
   289
1070
     1
1070
    73
1070
     0
1070
    74
1070
     0
1070
   271
1070
     2
1070
   272
1070
     2
1070
    48
1040
0.0
1070
    47
1040
0.0
1002
}
  0
DIMENSION
  5
BC2
330
6C
100
AcDbEntity
  8
Dimension (ANSI)
100
AcDbDimension
  2
*D14
 10
13.55843190413305
 20
46.3093555210857
 30
0.0
 11
7.275918937546936
 21
52.24314838831274
 31
0.0
 70
   163
  1
<>{\PTYP.(6PL.)}
 71
     3
 42
0.5
  3
Default (ANSI)
100
AcDbDiametricDimension
 15
13.30843190413296
 25
46.74236822297788
 35
0.0
 40
0.0
1001
ACAD_DSTYLE_DIMRADIAL_EXTENSION
1070
   387
1070
     1
1070
   388
1040
0.0
1070
   390
1040
0.0
1001
ACAD
1000
DSTYLE
1002
{
1070
   145
1040
-0.25
1070
   144
1040
0.9999999999999715
1070
   271
1070
     2
1070
   272
1070
     2
1070
    48
1040
0.0
1070
    47
1040
0.0
1002
}
  0
DIMENSION
  5
C7C
330
6C
100
AcDbEntity
  8
Dimension (ANSI)
100
AcDbDimension
  2
*D15
 10
13.37395926110106
 20
14.26035085856987
 30
0.0
 11
18.12656229084469
 21
9.988001803560097
 31
0.0
 70
   163
  1
<>{\PTYP. (4PL.)}
 42
0.3125000000000009
  3
Default (ANSI)
100
AcDbDiametricDimension
 15
13.49290454716497
 25
13.97137288549377
 35
0.0
 40
0.0
1001
ACAD_DSTYLE_DIMRADIAL_EXTENSION
1070
   387
1070
     1
1070
   388
1040
0.0
1070
   390
1040
0.0
1001
ACAD
1000
DSTYLE
1002
{
1070
   145
1040
-0.25
1070
   144
1040
0.9999999999999971
1070
   271
1070
     2
1070
   272
1070
     2
1070
    48
1040
0.0
1070
    47
1040
0.0
1002
}
  0
DIMENSION
  5
D35
330
6C
100
AcDbEntity
  8
Dimension (ANSI)
100
AcDbDimension
  2
*D16
 10
13.43343190413301
 20
49.69546817124442
 30
0.0
 11
27.01343190413301
 21
49.69546817124442
 31
0.0
 70
   160
  1
<>
 42
27.15999999999999
  3
Default (ANSI)
100
AcDbAlignedDimension
 13
40.593431904133
 23
46.52586187203182
 33
0.0
 14
13.43343190413301
 24
46.52586187203181
 34
0.0
 50
180.0
100
AcDbRotatedDimension
1001
ACAD
1000
DSTYLE
1002
{
1070
   289
1070
     1
1070
    73
1070
     0
1070
    74
1070
     0
1070
   271
1070
     2
1070
   272
1070
     2
1070
    48
1040
0.0
1070
    47
1040
0.0
1002
}
  0
ENDSEC
  0
SECTION
  2
OBJECTS
  0
DICTIONARY
  5
C
330
0
100
AcDbDictionary
281
     1
  3
ACAD_CIP_PREVIOUS_PRODUCT_INFO
350
E1F
  3
ACAD_COLOR
350
63
  3
ACAD_GROUP
350
D
  3
ACAD_LAYOUT
350
62
  3
ACAD_MATERIAL
350
10
  3
ACAD_MLEADERSTYLE
350
66
  3
ACAD_MLINESTYLE
350
5F
  3
ACAD_PLOTSETTINGS
350
61
  3
ACAD_PLOTSTYLENAME
350
E
  3
ACAD_SCALELIST
350
42
  3
ACAD_TABLESTYLE
350
64
  3
ACAD_VISUALSTYLE
350
29
  3
ACDB_RECOMPOSE_DATA
350
E2E
  3
AcDbVariableDictionary
350
D8
  3
DWGPROPS
350
E2F
  0
DICTIONARY
  5
E6B
330
C76
100
AcDbDictionary
280
     1
281
     1
  3
ACAD_MTEXT_RT
360
E6C
  0
DICTIONARY
  5
E6D
330
D2F
100
AcDbDictionary
280
     1
281
     1
  3
ACAD_MTEXT_RT
360
E6E
  0
XRECORD
  5
E1F
102
{ACAD_REACTORS
330
C
102
}
330
C
100
AcDbXrecord
280
     1
300
INVNTOR
300
2012
300
85795PDSP_2012_0F
  0
DICTIONARY
  5
63
102
{ACAD_REACTORS
330
C
102
}
330
C
100
AcDbDictionary
281
     1
  0
DICTIONARY
  5
D
102
{ACAD_REACTORS
330
C
102
}
330
C
100
AcDbDictionary
281
     1
  0
DICTIONARY
  5
62
102
{ACAD_REACTORS
330
C
102
}
330
C
100
AcDbDictionary
281
     1
  3
Layout1
350
6B
  3
Layout2
350
73
  3
Model
350
6F
  0
DICTIONARY
  5
10
102
{ACAD_REACTORS
330
C
102
}
330
C
100
AcDbDictionary
281
     1
  3
ByBlock
350
19
  3
ByLayer
350
11
  3
Global
350
21
  0
DICTIONARY
  5
66
102
{ACAD_REACTORS
330
C
102
}
330
C
100
AcDbDictionary
281
     1
  3
Standard
350
67
  0
DICTIONARY
  5
5F
102
{ACAD_REACTORS
330
C
102
}
330
C
100
AcDbDictionary
281
     1
  3
Standard
350
60
  0
DICTIONARY
  5
61
102
{ACAD_REACTORS
330
C
102
}
330
C
100
AcDbDictionary
281
     1
  0
ACDBDICTIONARYWDFLT
  5
E
102
{ACAD_REACTORS
330
C
102
}
330
C
100
AcDbDictionary
281
     1
  3
Normal
350
F
100
AcDbDictionaryWithDefault
340
F
  0
DICTIONARY
  5
42
102
{ACAD_REACTORS
330
C
102
}
330
C
100
AcDbDictionary
281
     1
  3
A0
350
43
  3
A1
350
44
  3
A2
350
45
  3
A3
350
46
  3
A4
350
47
  3
A5
350
48
  3
A6
350
49
  3
A7
350
4A
  3
A8
350
4B
  3
A9
350
4C
  3
B0
350
4D
  3
B1
350
4E
  3
B2
350
4F
  3
B3
350
50
  3
B4
350
51
  3
B5
350
52
  3
B6
350
53
  0
DICTIONARY
  5
64
102
{ACAD_REACTORS
330
C
102
}
330
C
100
AcDbDictionary
281
     1
  3
Standard
350
65
  0
DICTIONARY
  5
29
102
{ACAD_REACTORS
330
C
102
}
330
C
100
AcDbDictionary
281
     1
  3
2dWireframe
350
2F
  3
Basic
350
2E
  3
Brighten
350
35
  3
ColorChange
350
39
  3
Conceptual
350
32
  3
Dim
350
34
  3
EdgeColorOff
350
41
  3
Facepattern
350
38
  3
Flat
350
2A
  3
FlatWithEdges
350
2B
  3
Gouraud
350
2C
  3
GouraudWithEdges
350
2D
  3
Hidden
350
31
  3
JitterOff
350
3F
  3
Linepattern
350
37
  3
OverhangOff
350
40
  3
Realistic
350
33
  3
Shaded
350
3E
  3
Shaded with edges
350
3D
  3
Shades of Gray
350
3A
  3
Sketchy
350
3B
  3
Thicken
350
36
  3
Wireframe
350
30
  3
X-Ray
350
3C
  0
XRECORD
  5
E2E
102
{ACAD_REACTORS
330
C
102
}
330
C
100
AcDbXrecord
280
     1
 90
        1
330
65
  0
DICTIONARY
  5
D8
102
{ACAD_REACTORS
330
C
102
}
330
C
100
AcDbDictionary
281
     1
  3
CANNOSCALE
350
DB
  3
CMLEADERSTYLE
350
DA
  3
CTABLESTYLE
350
D9
  3
DIMASSOC
350
E27
  3
HIDETEXT
350
E26
  3
INDEXCTL
350
E25
  3
LAYEREVAL
350
E22
  3
LAYERNOTIFY
350
E23
  3
LIGHTINGUNITS
350
E21
  3
MSLTSCALE
350
E20
  3
SORTENTS
350
E24
  3
XCLIPFRAME
350
E28
  0
XRECORD
  5
E2F
102
{ACAD_REACTORS
330
C
102
}
330
C
100
AcDbXrecord
280
     1
  1
DWGPROPS COOKIE
  2

  3

  4
EC
  6

  7

  8

  9
-
300
Manager=
301
Company=
302
Category=
303
Part Number=NP3630C
304
Description=NPC PANEL MASTER VIEW
305
Project=
306
Designer=EC
307
Engineer=
308
Authority=
309
Cost Center=
 40
0.0000379861111111
 41
2455944.490935127
 42
2455944.490935312
  1

 90
       20
300
Vendor=
300
User Status=
300
Design Status=WorkInProgress
300
Checked by=JG
300
Date Checked=02/19/2009
300
Engr Approved by=
300
Mfg Approved by=
300
DWG. NO=
300
NUMBER OF SHEETS=1
300
DRAWING #=1
  0
XRECORD
  5
E6C
102
{ACAD_REACTORS
330
E6B
102
}
330
E6B
100
AcDbXrecord
280
     1
 40
29672.0
  1
\A1;\U+22050.50{\PTYP.(6PL.)}
  0
XRECORD
  5
E6E
102
{ACAD_REACTORS
330
E6D
102
}
330
E6D
100
AcDbXrecord
280
     1
 40
30807.0
  1
\A1;\U+22050.31{\PTYP. (4PL.)}
  0
LAYOUT
  5
6B
102
{ACAD_XDICTIONARY
360
E65
102
}
102
{ACAD_REACTORS
330
62
102
}
330
62
100
AcDbPlotSettings
  1

  2

  4

  6

 40
0.0
 41
0.0
 42
0.0
 43
0.0
 44
0.0
 45
0.0
 46
0.0
 47
0.0
 48
0.0
 49
0.0
140
0.0
141
0.0
142
1.0
143
1.0
 70
   688
 72
     0
 73
     0
 74
     5
  7

 75
    16
147
1.0
148
0.0
149
0.0
100
AcDbLayout
  1
Layout1
 70
     1
 71
     1
 10
0.0
 20
0.0
 11
12.0
 21
9.0
 12
0.0
 22
0.0
 32
0.0
 14
0.0
 24
0.0
 34
0.0
 15
0.0
 25
0.0
 35
0.0
146
0.0
 13
0.0
 23
0.0
 33
0.0
 16
1.0
 26
0.0
 36
0.0
 17
0.0
 27
1.0
 37
0.0
 76
     0
330
68
  0
LAYOUT
  5
73
102
{ACAD_XDICTIONARY
360
E69
102
}
102
{ACAD_REACTORS
330
62
102
}
330
62
100
AcDbPlotSettings
  1

  2

  4

  6

 40
0.0
 41
0.0
 42
0.0
 43
0.0
 44
0.0
 45
0.0
 46
0.0
 47
0.0
 48
0.0
 49
0.0
140
0.0
141
0.0
142
1.0
143
1.0
 70
   688
 72
     0
 73
     0
 74
     5
  7

 75
    16
147
1.0
148
0.0
149
0.0
100
AcDbLayout
  1
Layout2
 70
     1
 71
     2
 10
0.0
 20
0.0
 11
12.0
 21
9.0
 12
0.0
 22
0.0
 32
0.0
 14
0.0
 24
0.0
 34
0.0
 15
0.0
 25
0.0
 35
0.0
146
0.0
 13
0.0
 23
0.0
 33
0.0
 16
1.0
 26
0.0
 36
0.0
 17
0.0
 27
1.0
 37
0.0
 76
     0
330
70
  0
LAYOUT
  5
6F
102
{ACAD_XDICTIONARY
360
E67
102
}
102
{ACAD_REACTORS
330
62
102
}
330
62
100
AcDbPlotSettings
  1

  2

  4

  6

 40
0.0
 41
0.0
 42
0.0
 43
0.0
 44
0.0
 45
0.0
 46
0.0
 47
0.0
 48
0.0
 49
0.0
140
0.0
141
0.0
142
1.0
143
1.0
 70
  1712
 72
     0
 73
     0
 74
     0
  7

 75
     0
147
1.0
148
0.0
149
0.0
100
AcDbLayout
  1
Model
 70
     1
 71
     0
 10
0.0
 20
0.0
 11
12.0
 21
9.0
 12
0.0
 22
0.0
 32
0.0
 14
0.0
 24
0.0
 34
0.0
 15
0.0
 25
0.0
 35
0.0
146
0.0
 13
0.0
 23
0.0
 33
0.0
 16
1.0
 26
0.0
 36
0.0
 17
0.0
 27
1.0
 37
0.0
 76
     0
330
6C
  0
MATERIAL
  5
19
102
{ACAD_XDICTIONARY
360
1A
102
}
102
{ACAD_REACTORS
330
10
102
}
330
10
100
AcDbMaterial
  1
ByBlock
 72
     0
 43
0.0208333333333333
 43
0.0
 43
0.0
 43
0.0
 43
0.0
 43
0.0208333333333333
 43
0.0
 43
0.0
 43
0.0
 43
0.0
 43
1.0
 43
0.0
 43
0.0
 43
0.0
 43
0.0
 43
1.0
 77
     0
 47
0.0208333333333333
 47
0.0
 47
0.0
 47
0.0
 47
0.0
 47
0.0208333333333333
 47
0.0
 47
0.0
 47
0.0
 47
0.0
 47
1.0
 47
0.0
 47
0.0
 47
0.0
 47
0.0
 47
1.0
171
     0
 49
0.0208333333333333
 49
0.0
 49
0.0
 49
0.0
 49
0.0
 49
0.0208333333333333
 49
0.0
 49
0.0
 49
0.0
 49
0.0
 49
1.0
 49
0.0
 49
0.0
 49
0.0
 49
0.0
 49
1.0
175
     0
142
0.0208333333333333
142
0.0
142
0.0
142
0.0
142
0.0
142
0.0208333333333333
142
0.0
142
0.0
142
0.0
142
0.0
142
1.0
142
0.0
142
0.0
142
0.0
142
0.0
142
1.0
179
     0
144
0.0208333333333333
144
0.0
144
0.0
144
0.0
144
0.0
144
0.0208333333333333
144
0.0
144
0.0
144
0.0
144
0.0
144
1.0
144
0.0
144
0.0
144
0.0
144
0.0
144
1.0
147
0.0208333333333333
147
0.0
147
0.0
147
0.0
147
0.0
147
0.0208333333333333
147
0.0
147
0.0
147
0.0
147
0.0
147
1.0
147
0.0
147
0.0
147
0.0
147
0.0
147
1.0
  0
MATERIAL
  5
11
102
{ACAD_XDICTIONARY
360
12
102
}
102
{ACAD_REACTORS
330
10
102
}
330
10
100
AcDbMaterial
  1
ByLayer
 72
     0
 43
0.0208333333333333
 43
0.0
 43
0.0
 43
0.0
 43
0.0
 43
0.0208333333333333
 43
0.0
 43
0.0
 43
0.0
 43
0.0
 43
1.0
 43
0.0
 43
0.0
 43
0.0
 43
0.0
 43
1.0
 77
     0
 47
0.0208333333333333
 47
0.0
 47
0.0
 47
0.0
 47
0.0
 47
0.0208333333333333
 47
0.0
 47
0.0
 47
0.0
 47
0.0
 47
1.0
 47
0.0
 47
0.0
 47
0.0
 47
0.0
 47
1.0
171
     0
 49
0.0208333333333333
 49
0.0
 49
0.0
 49
0.0
 49
0.0
 49
0.0208333333333333
 49
0.0
 49
0.0
 49
0.0
 49
0.0
 49
1.0
 49
0.0
 49
0.0
 49
0.0
 49
0.0
 49
1.0
175
     0
142
0.0208333333333333
142
0.0
142
0.0
142
0.0
142
0.0
142
0.0208333333333333
142
0.0
142
0.0
142
0.0
142
0.0
142
1.0
142
0.0
142
0.0
142
0.0
142
0.0
142
1.0
179
     0
144
0.0208333333333333
144
0.0
144
0.0
144
0.0
144
0.0
144
0.0208333333333333
144
0.0
144
0.0
144
0.0
144
0.0
144
1.0
144
0.0
144
0.0
144
0.0
144
0.0
144
1.0
147
0.0208333333333333
147
0.0
147
0.0
147
0.0
147
0.0
147
0.0208333333333333
147
0.0
147
0.0
147
0.0
147
0.0
147
1.0
147
0.0
147
0.0
147
0.0
147
0.0
147
1.0
  0
MATERIAL
  5
21
102
{ACAD_XDICTIONARY
360
22
102
}
102
{ACAD_REACTORS
330
10
102
}
330
10
100
AcDbMaterial
  1
Global
 72
     0
 43
0.0208333333333333
 43
0.0
 43
0.0
 43
0.0
 43
0.0
 43
0.0208333333333333
 43
0.0
 43
0.0
 43
0.0
 43
0.0
 43
1.0
 43
0.0
 43
0.0
 43
0.0
 43
0.0
 43
1.0
 77
     0
 47
0.0208333333333333
 47
0.0
 47
0.0
 47
0.0
 47
0.0
 47
0.0208333333333333
 47
0.0
 47
0.0
 47
0.0
 47
0.0
 47
1.0
 47
0.0
 47
0.0
 47
0.0
 47
0.0
 47
1.0
171
     0
 49
0.0208333333333333
 49
0.0
 49
0.0
 49
0.0
 49
0.0
 49
0.0208333333333333
 49
0.0
 49
0.0
 49
0.0
 49
0.0
 49
1.0
 49
0.0
 49
0.0
 49
0.0
 49
0.0
 49
1.0
175
     0
142
0.0208333333333333
142
0.0
142
0.0
142
0.0
142
0.0
142
0.0208333333333333
142
0.0
142
0.0
142
0.0
142
0.0
142
1.0
142
0.0
142
0.0
142
0.0
142
0.0
142
1.0
179
     0
144
0.0208333333333333
144
0.0
144
0.0
144
0.0
144
0.0
144
0.0208333333333333
144
0.0
144
0.0
144
0.0
144
0.0
144
1.0
144
0.0
144
0.0
144
0.0
144
0.0
144
1.0
147
0.0208333333333333
147
0.0
147
0.0
147
0.0
147
0.0
147
0.0208333333333333
147
0.0
147
0.0
147
0.0
147
0.0
147
1.0
147
0.0
147
0.0
147
0.0
147
0.0
147
1.0
  0
MLEADERSTYLE
  5
67
102
{ACAD_XDICTIONARY
360
E2B
102
}
102
{ACAD_REACTORS
330
66
102
}
330
66
100
AcDbMLeaderStyle
170
     2
171
     1
172
     0
 90
        2
 40
0.0
 41
0.0
173
     1
 91
-1056964608
340
5B
 92
       -2
290
     1
 42
0.09
291
     1
 43
0.36
  3
Standard
 44
0.18
300

342
55
174
     1
178
     6
175
     1
176
     0
 93
-1056964608
 45
0.18
292
     0
297
     0
 46
0.18
 94
-1056964608
 47
1.0
 49
1.0
140
1.0
293
     1
141
0.0
294
     1
177
     0
142
1.0
295
     0
296
     0
143
0.125
1001
ACAD_MLEADERVER
1070
     2
  0
MLINESTYLE
  5
60
102
{ACAD_REACTORS
330
5F
102
}
330
5F
100
AcDbMlineStyle
  2
STANDARD
 70
     0
  3

 62
   256
 51
90.0
 52
90.0
 71
     2
 49
0.5
 62
   256
  6
BYLAYER
 49
-0.5
 62
   256
  6
BYLAYER
  0
ACDBPLACEHOLDER
  5
F
102
{ACAD_REACTORS
330
E
102
}
330
E
  0
SCALE
  5
43
102
{ACAD_REACTORS
330
42
102
}
330
42
100
AcDbScale
 70
     0
300
1:1
140
1.0
141
1.0
290
     1
  0
SCALE
  5
44
102
{ACAD_REACTORS
330
42
102
}
330
42
100
AcDbScale
 70
     0
300
1/128" = 1'-0"
140
0.0078125
141
12.0
290
     0
  0
SCALE
  5
45
102
{ACAD_REACTORS
330
42
102
}
330
42
100
AcDbScale
 70
     0
300
1/64" = 1'-0"
140
0.015625
141
12.0
290
     0
  0
SCALE
  5
46
102
{ACAD_REACTORS
330
42
102
}
330
42
100
AcDbScale
 70
     0
300
1/32" = 1'-0"
140
0.03125
141
12.0
290
     0
  0
SCALE
  5
47
102
{ACAD_REACTORS
330
42
102
}
330
42
100
AcDbScale
 70
     0
300
1/16" = 1'-0"
140
0.0625
141
12.0
290
     0
  0
SCALE
  5
48
102
{ACAD_REACTORS
330
42
102
}
330
42
100
AcDbScale
 70
     0
300
3/32" = 1'-0"
140
0.09375
141
12.0
290
     0
  0
SCALE
  5
49
102
{ACAD_REACTORS
330
42
102
}
330
42
100
AcDbScale
 70
     0
300
1/8" = 1'-0"
140
0.125
141
12.0
290
     0
  0
SCALE
  5
4A
102
{ACAD_REACTORS
330
42
102
}
330
42
100
AcDbScale
 70
     0
300
3/16" = 1'-0"
140
0.1875
141
12.0
290
     0
  0
SCALE
  5
4B
102
{ACAD_REACTORS
330
42
102
}
330
42
100
AcDbScale
 70
     0
300
1/4" = 1'-0"
140
0.25
141
12.0
290
     0
  0
SCALE
  5
4C
102
{ACAD_REACTORS
330
42
102
}
330
42
100
AcDbScale
 70
     0
300
3/8" = 1'-0"
140
0.375
141
12.0
290
     0
  0
SCALE
  5
4D
102
{ACAD_REACTORS
330
42
102
}
330
42
100
AcDbScale
 70
     0
300
1/2" = 1'-0"
140
0.5
141
12.0
290
     0
  0
SCALE
  5
4E
102
{ACAD_REACTORS
330
42
102
}
330
42
100
AcDbScale
 70
     0
300
3/4" = 1'-0"
140
0.75
141
12.0
290
     0
  0
SCALE
  5
4F
102
{ACAD_REACTORS
330
42
102
}
330
42
100
AcDbScale
 70
     0
300
1" = 1'-0"
140
1.0
141
12.0
290
     0
  0
SCALE
  5
50
102
{ACAD_REACTORS
330
42
102
}
330
42
100
AcDbScale
 70
     0
300
1-1/2" = 1'-0"
140
1.5
141
12.0
290
     0
  0
SCALE
  5
51
102
{ACAD_REACTORS
330
42
102
}
330
42
100
AcDbScale
 70
     0
300
3" = 1'-0"
140
3.0
141
12.0
290
     0
  0
SCALE
  5
52
102
{ACAD_REACTORS
330
42
102
}
330
42
100
AcDbScale
 70
     0
300
6" = 1'-0"
140
6.0
141
12.0
290
     0
  0
SCALE
  5
53
102
{ACAD_REACTORS
330
42
102
}
330
42
100
AcDbScale
 70
     0
300
1'-0" = 1'-0"
140
12.0
141
12.0
290
     0
  0
TABLESTYLE
  5
65
102
{ACAD_XDICTIONARY
360
E29
102
}
102
{ACAD_REACTORS
330
64
102
}
330
64
100
AcDbTableStyle
  3
Standard
 70
     0
 71
     0
 40
0.06
 41
0.06
280
     0
281
     0
  7
Standard
140
0.18
170
     2
 62
     0
 63
     7
283
     0
274
    -2
284
     1
 64
     0
275
    -2
285
     1
 65
     0
276
    -2
286
     1
 66
     0
277
    -2
287
     1
 67
     0
278
    -2
288
     1
 68
     0
279
    -2
289
     1
 69
     0
  7
Standard
140
0.25
170
     5
 62
     0
 63
     7
283
     0
274
    -2
284
     1
 64
     0
275
    -2
285
     1
 65
     0
276
    -2
286
     1
 66
     0
277
    -2
287
     1
 67
     0
278
    -2
288
     1
 68
     0
279
    -2
289
     1
 69
     0
  7
Standard
140
0.18
170
     5
 62
     0
 63
     7
283
     0
274
    -2
284
     1
 64
     0
275
    -2
285
     1
 65
     0
276
    -2
286
     1
 66
     0
277
    -2
287
     1
 67
     0
278
    -2
288
     1
 68
     0
279
    -2
289
     1
 69
     0
  0
VISUALSTYLE
  5
2F
102
{ACAD_XDICTIONARY
360
E3D
102
}
102
{ACAD_REACTORS
330
29
102
}
330
29
100
AcDbVisualStyle
  2
2dWireframe
 70
     4
 71
     0
 72
     2
 73
     0
 90
        0
 40
-0.6
 41
-30.0
 62
     5
 63
     7
 74
     1
 91
        4
 64
     7
 65
   257
 75
     1
175
     1
 42
1.0
 92
        0
 66
   257
 43
1.0
 76
     1
 77
     6
 78
     2
 67
     7
 79
     5
170
     0
171
     0
290
     0
174
     0
 93
        1
 44
0.0
173
     0
291
     0
 45
0.0
1001
ACAD
1000
AcDbSavedByObjectVersion
1070
     0
  0
VISUALSTYLE
  5
2E
102
{ACAD_XDICTIONARY
360
E3B
102
}
102
{ACAD_REACTORS
330
29
102
}
330
29
100
AcDbVisualStyle
  2
Basic
 70
     7
 71
     1
 72
     0
 73
     1
 90
        0
 40
-0.6
 41
-30.0
 62
     5
 63
     7
 74
     0
 91
        4
 64
     7
 65
   257
 75
     1
175
     1
 42
1.0
 92
        8
 66
     7
 43
1.0
 76
     1
 77
     6
 78
     2
 67
     7
 79
     5
170
     0
171
     0
290
     0
174
     0
 93
        1
 44
0.0
173
     0
291
     1
 45
0.0
1001
ACAD
1000
AcDbSavedByObjectVersion
1070
     0
  0
VISUALSTYLE
  5
35
102
{ACAD_XDICTIONARY
360
E49
102
}
102
{ACAD_REACTORS
330
29
102
}
330
29
100
AcDbVisualStyle
  2
Brighten
 70
    12
 71
     2
 72
     2
 73
     0
 90
        0
 40
-0.6
 41
-30.0
 62
     5
 63
     7
 74
     1
 91
        4
 64
     7
 65
   257
 75
     1
175
     1
 42
1.0
 92
        8
 66
     7
 43
1.0
 76
     1
 77
     6
 78
     2
 67
     7
 79
     5
170
     0
171
     0
290
     0
174
     0
 93
        1
 44
50.0
173
     0
291
     1
 45
0.0
1001
ACAD
1000
AcDbSavedByObjectVersion
1070
     0
  0
VISUALSTYLE
  5
39
102
{ACAD_XDICTIONARY
360
E51
102
}
102
{ACAD_REACTORS
330
29
102
}
330
29
100
AcDbVisualStyle
  2
ColorChange
 70
    16
 71
     2
 72
     2
 73
     3
 90
        0
 40
-0.6
 41
-30.0
 62
     5
 63
     8
 74
     1
 91
        4
 64
     7
 65
   257
 75
     1
175
     1
 42
1.0
 92
        8
 66
     8
 43
1.0
 76
     1
 77
     6
 78
     2
 67
     7
 79
     5
170
     0
171
     0
290
     0
174
     0
 93
        1
 44
0.0
173
     0
291
     1
 45
0.0
1001
ACAD
1000
AcDbSavedByObjectVersion
1070
     0
  0
VISUALSTYLE
  5
32
102
{ACAD_XDICTIONARY
360
E43
102
}
102
{ACAD_REACTORS
330
29
102
}
330
29
100
AcDbVisualStyle
  2
Conceptual
 70
     9
 71
     3
 72
     2
 73
     0
 90
        0
 40
-0.6
 41
-30.0
 62
     5
 63
     7
 74
     2
 91
        2
 64
     7
 65
   257
 75
     1
175
     1
 42
179.0
 92
        8
 66
     7
 43
1.0
 76
     1
 77
     6
 78
     2
 67
     7
 79
     3
170
     0
171
     0
290
     0
174
     0
 93
        1
 44
0.0
173
     0
291
     0
 45
0.0
1001
ACAD
1000
AcDbSavedByObjectVersion
1070
     0
  0
VISUALSTYLE
  5
34
102
{ACAD_XDICTIONARY
360
E47
102
}
102
{ACAD_REACTORS
330
29
102
}
330
29
100
AcDbVisualStyle
  2
Dim
 70
    11
 71
     2
 72
     2
 73
     0
 90
        0
 40
-0.6
 41
-30.0
 62
     5
 63
     7
 74
     1
 91
        4
 64
     7
 65
   257
 75
     1
175
     1
 42
1.0
 92
        8
 66
     7
 43
1.0
 76
     1
 77
     6
 78
     2
 67
     7
 79
     5
170
     0
171
     0
290
     0
174
     0
 93
        1
 44
-50.0
173
     0
291
     1
 45
0.0
1001
ACAD
1000
AcDbSavedByObjectVersion
1070
     0
  0
VISUALSTYLE
  5
41
102
{ACAD_XDICTIONARY
360
E61
102
}
102
{ACAD_REACTORS
330
29
102
}
330
29
100
AcDbVisualStyle
  2
EdgeColorOff
 70
    22
 71
     2
 72
     2
 73
     0
 90
        0
 40
-0.6
 41
-30.0
 62
     5
 63
     7
 74
     1
 91
        4
 64
     7
 65
   257
 75
     1
175
     1
 42
1.0
 92
        8
 66
     7
 43
1.0
 76
     1
 77
     6
 78
     2
 67
     7
 79
     5
170
     0
171
     0
290
     0
174
     0
 93
        1
 44
0.0
173
     0
291
     1
 45
0.0
1001
ACAD
1000
AcDbSavedByObjectVersion
1070
     0
  0
VISUALSTYLE
  5
38
102
{ACAD_XDICTIONARY
360
E4F
102
}
102
{ACAD_REACTORS
330
29
102
}
330
29
100
AcDbVisualStyle
  2
Facepattern
 70
    15
 71
     2
 72
     2
 73
     0
 90
        0
 40
-0.6
 41
-30.0
 62
     5
 63
     7
 74
     1
 91
        4
 64
     7
 65
   257
 75
     1
175
     1
 42
1.0
 92
        8
 66
     7
 43
1.0
 76
     1
 77
     6
 78
     2
 67
     7
 79
     5
170
     0
171
     0
290
     0
174
     0
 93
        1
 44
0.0
173
     0
291
     1
 45
0.0
1001
ACAD
1000
AcDbSavedByObjectVersion
1070
     0
  0
VISUALSTYLE
  5
2A
102
{ACAD_XDICTIONARY
360
E33
102
}
102
{ACAD_REACTORS
330
29
102
}
330
29
100
AcDbVisualStyle
  2
Flat
 70
     0
 71
     2
 72
     1
 73
     1
 90
        2
 40
-0.6
 41
30.0
 62
     5
 63
     7
 74
     0
 91
        0
 64
     7
 65
   257
 75
     1
175
     1
 42
1.0
 92
        8
 66
     7
 43
1.0
 76
     1
 77
     6
 78
     2
 67
     7
 79
     5
170
     0
171
     0
290
     0
174
     0
 93
       13
 44
0.0
173
     0
291
     1
 45
0.0
1001
ACAD
1000
AcDbSavedByObjectVersion
1070
     0
  0
VISUALSTYLE
  5
2B
102
{ACAD_XDICTIONARY
360
E35
102
}
102
{ACAD_REACTORS
330
29
102
}
330
29
100
AcDbVisualStyle
  2
FlatWithEdges
 70
     1
 71
     2
 72
     1
 73
     1
 90
        2
 40
-0.6
 41
30.0
 62
     5
 63
     7
 74
     1
 91
        0
 64
     7
 65
   257
 75
     1
175
     1
 42
1.0
 92
        0
 66
   257
 43
1.0
 76
     1
 77
     6
 78
     2
 67
     7
 79
     5
170
     0
171
     0
290
     0
174
     0
 93
       13
 44
0.0
173
     0
291
     1
 45
0.0
1001
ACAD
1000
AcDbSavedByObjectVersion
1070
     0
  0
VISUALSTYLE
  5
2C
102
{ACAD_XDICTIONARY
360
E37
102
}
102
{ACAD_REACTORS
330
29
102
}
330
29
100
AcDbVisualStyle
  2
Gouraud
 70
     2
 71
     2
 72
     2
 73
     1
 90
        2
 40
-0.6
 41
30.0
 62
     5
 63
     7
 74
     0
 91
        0
 64
     7
 65
   257
 75
     1
175
     1
 42
1.0
 92
        0
 66
     7
 43
1.0
 76
     1
 77
     6
 78
     2
 67
     7
 79
     5
170
     0
171
     0
290
     0
174
     0
 93
       13
 44
0.0
173
     0
291
     1
 45
0.0
1001
ACAD
1000
AcDbSavedByObjectVersion
1070
     0
  0
VISUALSTYLE
  5
2D
102
{ACAD_XDICTIONARY
360
E39
102
}
102
{ACAD_REACTORS
330
29
102
}
330
29
100
AcDbVisualStyle
  2
GouraudWithEdges
 70
     3
 71
     2
 72
     2
 73
     1
 90
        2
 40
-0.6
 41
30.0
 62
     5
 63
     7
 74
     1
 91
        0
 64
     7
 65
   257
 75
     1
175
     1
 42
1.0
 92
        0
 66
   257
 43
1.0
 76
     1
 77
     6
 78
     2
 67
     7
 79
     5
170
     0
171
     0
290
     0
174
     0
 93
       13
 44
0.0
173
     0
291
     1
 45
0.0
1001
ACAD
1000
AcDbSavedByObjectVersion
1070
     0
  0
VISUALSTYLE
  5
31
102
{ACAD_XDICTIONARY
360
E41
102
}
102
{ACAD_REACTORS
330
29
102
}
330
29
100
AcDbVisualStyle
  2
Hidden
 70
     6
 71
     1
 72
     2
 73
     2
 90
        0
 40
-0.6
 41
-30.0
 62
     5
 63
     7
 74
     2
 91
        2
 64
     7
 65
   257
 75
     2
175
     1
 42
40.0
 92
        0
 66
   257
 43
1.0
 76
     1
 77
     6
 78
     2
 67
     7
 79
     3
170
     0
171
     0
290
     0
174
     0
 93
        1
 44
0.0
173
     0
291
     0
 45
0.0
1001
ACAD
1000
AcDbSavedByObjectVersion
1070
     0
  0
VISUALSTYLE
  5
3F
102
{ACAD_XDICTIONARY
360
E5D
102
}
102
{ACAD_REACTORS
330
29
102
}
330
29
100
AcDbVisualStyle
  2
JitterOff
 70
    20
 71
     2
 72
     2
 73
     0
 90
        0
 40
-0.6
 41
-30.0
 62
     5
 63
     7
 74
     1
 91
        4
 64
     7
 65
   257
 75
     1
175
     1
 42
1.0
 92
       10
 66
     7
 43
1.0
 76
     1
 77
     6
 78
     2
 67
     7
 79
     5
170
     0
171
     0
290
     0
174
     0
 93
        1
 44
0.0
173
     0
291
     1
 45
0.0
1001
ACAD
1000
AcDbSavedByObjectVersion
1070
     0
  0
VISUALSTYLE
  5
37
102
{ACAD_XDICTIONARY
360
E4D
102
}
102
{ACAD_REACTORS
330
29
102
}
330
29
100
AcDbVisualStyle
  2
Linepattern
 70
    14
 71
     2
 72
     2
 73
     0
 90
        0
 40
-0.6
 41
-30.0
 62
     5
 63
     7
 74
     1
 91
        4
 64
     7
 65
   257
 75
     7
175
     7
 42
1.0
 92
        8
 66
     7
 43
1.0
 76
     1
 77
     6
 78
     2
 67
     7
 79
     5
170
     0
171
     0
290
     0
174
     0
 93
        1
 44
0.0
173
     0
291
     1
 45
0.0
1001
ACAD
1000
AcDbSavedByObjectVersion
1070
     0
  0
VISUALSTYLE
  5
40
102
{ACAD_XDICTIONARY
360
E5F
102
}
102
{ACAD_REACTORS
330
29
102
}
330
29
100
AcDbVisualStyle
  2
OverhangOff
 70
    21
 71
     2
 72
     2
 73
     0
 90
        0
 40
-0.6
 41
-30.0
 62
     5
 63
     7
 74
     1
 91
        4
 64
     7
 65
   257
 75
     1
175
     1
 42
1.0
 92
        9
 66
     7
 43
1.0
 76
     1
 77
     6
 78
     2
 67
     7
 79
     5
170
     0
171
     0
290
     0
174
     0
 93
        1
 44
0.0
173
     0
291
     1
 45
0.0
1001
ACAD
1000
AcDbSavedByObjectVersion
1070
     0
  0
VISUALSTYLE
  5
33
102
{ACAD_XDICTIONARY
360
E45
102
}
102
{ACAD_REACTORS
330
29
102
}
330
29
100
AcDbVisualStyle
  2
Realistic
 70
     8
 71
     2
 72
     3
 73
     0
 90
        2
 40
-0.6
 41
30.0
 62
     5
 63
     7
 74
     0
 91
        0
 64
     7
 65
   257
 75
     1
175
     1
 42
1.0
 92
        8
 66
   257
 43
1.0
 76
     1
 77
     6
 78
     2
 67
     7
 79
     3
170
     0
171
     0
290
     0
174
     0
 93
       13
 44
0.0
173
     0
291
     0
 45
0.0
1001
ACAD
1000
AcDbSavedByObjectVersion
1070
     0
  0
VISUALSTYLE
  5
3E
102
{ACAD_XDICTIONARY
360
E5B
102
}
102
{ACAD_REACTORS
330
29
102
}
330
29
100
AcDbVisualStyle
  2
Shaded
 70
    27
 71
     2
 72
     2
 73
     1
 90
        2
 40
-0.6
 41
30.0
 62
     5
 63
     7
 74
     0
 91
        4
 64
     7
 65
   257
 75
     1
175
     1
 42
1.0
 92
        8
 66
   257
 43
1.0
 76
     1
 77
     6
 78
     2
 67
     8
 79
     3
170
     0
171
     0
290
     0
174
     0
 93
        5
 44
0.0
173
     0
291
     0
 45
0.0
1001
ACAD
1000
AcDbSavedByObjectVersion
1070
     0
  0
VISUALSTYLE
  5
3D
102
{ACAD_XDICTIONARY
360
E59
102
}
102
{ACAD_REACTORS
330
29
102
}
330
29
100
AcDbVisualStyle
  2
Shaded with edges
 70
    26
 71
     2
 72
     2
 73
     1
 90
        2
 40
-0.6
 41
30.0
 62
     5
 63
     7
 74
     1
 91
       10
 64
     7
 65
   257
 75
     2
175
     1
 42
1.0
 92
        8
 66
   257
 43
1.0
 76
     1
 77
     6
 78
     2
 67
     7
 79
     3
170
     0
171
     0
290
     0
174
     0
 93
        5
 44
0.0
173
     0
291
     0
 45
0.0
1001
ACAD
1000
AcDbSavedByObjectVersion
1070
     0
  0
VISUALSTYLE
  5
3A
102
{ACAD_XDICTIONARY
360
E53
102
}
102
{ACAD_REACTORS
330
29
102
}
330
29
100
AcDbVisualStyle
  2
Shades of Gray
 70
    23
 71
     2
 72
     2
 73
     3
 90
        0
 40
-0.6
 41
-30.0
 62
     5
 63
     7
 74
     2
 91
        2
 64
     7
 65
     7
 75
     1
175
     1
 42
40.0
 92
        8
 66
     7
 43
1.0
 76
     1
 77
     6
 78
     2
 67
     7
 79
     3
170
     0
171
     0
290
     0
174
     0
 93
        1
 44
0.0
173
     0
291
     0
 45
0.0
1001
ACAD
1000
AcDbSavedByObjectVersion
1070
     0
  0
VISUALSTYLE
  5
3B
102
{ACAD_XDICTIONARY
360
E55
102
}
102
{ACAD_REACTORS
330
29
102
}
330
29
100
AcDbVisualStyle
  2
Sketchy
 70
    24
 71
     1
 72
     2
 73
     2
 90
        0
 40
-0.6
 41
-30.0
 62
     5
 63
     7
 74
     2
 91
        2
 64
     7
 65
     7
 75
     1
175
     1
 42
40.0
 92
       11
 66
     7
 43
1.0
 76
     1
 77
     6
 78
     2
 67
     7
 79
     6
170
     0
171
     0
290
     0
174
     0
 93
        1
 44
0.0
173
     0
291
     0
 45
0.0
1001
ACAD
1000
AcDbSavedByObjectVersion
1070
     0
  0
VISUALSTYLE
  5
36
102
{ACAD_XDICTIONARY
360
E4B
102
}
102
{ACAD_REACTORS
330
29
102
}
330
29
100
AcDbVisualStyle
  2
Thicken
 70
    13
 71
     2
 72
     2
 73
     0
 90
        0
 40
-0.6
 41
-30.0
 62
     5
 63
     7
 74
     1
 91
        4
 64
     7
 65
   257
 75
     1
175
     1
 42
1.0
 92
       12
 66
     7
 43
1.0
 76
     1
 77
     6
 78
     2
 67
     7
 79
     5
170
     0
171
     0
290
     0
174
     0
 93
        1
 44
0.0
173
     0
291
     1
 45
0.0
1001
ACAD
1000
AcDbSavedByObjectVersion
1070
     0
  0
VISUALSTYLE
  5
30
102
{ACAD_XDICTIONARY
360
E3F
102
}
102
{ACAD_REACTORS
330
29
102
}
330
29
100
AcDbVisualStyle
  2
Wireframe
 70
     5
 71
     0
 72
     2
 73
     0
 90
        0
 40
-0.6
 41
-30.0
 62
     5
 63
     7
 74
     1
 91
        4
 64
     7
 65
   257
 75
     1
175
     1
 42
1.0
 92
        0
 66
   257
 43
1.0
 76
     1
 77
     6
 78
     2
 67
     7
 79
     3
170
     0
171
     0
290
     0
174
     0
 93
        1
 44
0.0
173
     0
291
     0
 45
0.0
1001
ACAD
1000
AcDbSavedByObjectVersion
1070
     0
  0
VISUALSTYLE
  5
3C
102
{ACAD_XDICTIONARY
360
E57
102
}
102
{ACAD_REACTORS
330
29
102
}
330
29
100
AcDbVisualStyle
  2
X-Ray
 70
    25
 71
     2
 72
     2
 73
     1
 90
        1
 40
0.5
 41
-30.0
 62
     5
 63
     7
 74
     1
 91
        0
 64
     7
 65
   257
 75
     1
175
     1
 42
1.0
 92
        8
 66
     7
 43
1.0
 76
     1
 77
     6
 78
     2
 67
     7
 79
     3
170
     0
171
     0
290
     0
174
     0
 93
       13
 44
0.0
173
     0
291
     0
 45
0.0
1001
ACAD
1000
AcDbSavedByObjectVersion
1070
     0
  0
DICTIONARYVAR
  5
DB
102
{ACAD_REACTORS
330
D8
102
}
330
D8
100
DictionaryVariables
280
     0
  1
1:1
  0
DICTIONARYVAR
  5
DA
102
{ACAD_REACTORS
330
D8
102
}
330
D8
100
DictionaryVariables
280
     0
  1
STANDARD
  0
DICTIONARYVAR
  5
D9
102
{ACAD_REACTORS
330
D8
102
}
330
D8
100
DictionaryVariables
280
     0
  1
STANDARD
  0
DICTIONARYVAR
  5
E27
102
{ACAD_REACTORS
330
D8
102
}
330
D8
100
DictionaryVariables
280
     0
  1
1
  0
DICTIONARYVAR
  5
E26
102
{ACAD_REACTORS
330
D8
102
}
330
D8
100
DictionaryVariables
280
     0
  1
1
  0
DICTIONARYVAR
  5
E25
102
{ACAD_REACTORS
330
D8
102
}
330
D8
100
DictionaryVariables
280
     0
  1
0
  0
DICTIONARYVAR
  5
E22
102
{ACAD_REACTORS
330
D8
102
}
330
D8
100
DictionaryVariables
280
     0
  1
0
  0
DICTIONARYVAR
  5
E23
102
{ACAD_REACTORS
330
D8
102
}
330
D8
100
DictionaryVariables
280
     0
  1
0
  0
DICTIONARYVAR
  5
E21
102
{ACAD_REACTORS
330
D8
102
}
330
D8
100
DictionaryVariables
280
     0
  1
2
  0
DICTIONARYVAR
  5
E20
102
{ACAD_REACTORS
330
D8
102
}
330
D8
100
DictionaryVariables
280
     0
  1
1
  0
DICTIONARYVAR
  5
E24
102
{ACAD_REACTORS
330
D8
102
}
330
D8
100
DictionaryVariables
280
     0
  1
127
  0
DICTIONARYVAR
  5
E28
102
{ACAD_REACTORS
330
D8
102
}
330
D8
100
DictionaryVariables
280
     0
  1
2
  0
DICTIONARY
  5
E65
330
6B
100
AcDbDictionary
280
     1
281
     1
  3
ACAD_XREC_ROUNDTRIP
360
E66
  0
DICTIONARY
  5
E69
330
73
100
AcDbDictionary
280
     1
281
     1
  3
ACAD_XREC_ROUNDTRIP
360
E6A
  0
DICTIONARY
  5
E67
330
6F
100
AcDbDictionary
280
     1
281
     1
  3
ACAD_XREC_ROUNDTRIP
360
E68
  0
DICTIONARY
  5
1A
330
19
100
AcDbDictionary
280
     1
281
     1
  3
ACAD_XREC_ROUNDTRIP
360
E31
  3
BUMPTILE
360
1C
  3
DIFFUSETILE
360
1B
  3
OPACITYTILE
360
1F
  3
REFLECTIONTILE
360
1E
  3
REFRACTIONTILE
360
20
  3
SPECULARTILE
360
1D
  0
DICTIONARY
  5
12
330
11
100
AcDbDictionary
280
     1
281
     1
  3
ACAD_XREC_ROUNDTRIP
360
E30
  3
BUMPTILE
360
14
  3
DIFFUSETILE
360
13
  3
FBXASSET
360
169
  3
OPACITYTILE
360
17
  3
REFLECTIONTILE
360
16
  3
REFRACTIONTILE
360
18
  3
SPECULARTILE
360
15
  0
DICTIONARY
  5
22
330
21
100
AcDbDictionary
280
     1
281
     1
  3
ACAD_XREC_ROUNDTRIP
360
E32
  3
BUMPTILE
360
24
  3
DIFFUSETILE
360
23
  3
FBXASSET
360
11C
  3
OPACITYTILE
360
27
  3
REFLECTIONTILE
360
26
  3
REFRACTIONTILE
360
28
  3
SPECULARTILE
360
25
  0
DICTIONARY
  5
E2B
330
67
100
AcDbDictionary
280
     1
281
     1
  3
ACAD_XREC_ROUNDTRIP
360
E2C
  0
DICTIONARY
  5
E29
330
65
100
AcDbDictionary
280
     1
281
     1
  3
ACAD_ROUNDTRIP_2008_TABLESTYLE_CELLSTYLEMAP
360
E2A
  3
ACAD_XREC_ROUNDTRIP
360
E63
  0
DICTIONARY
  5
E3D
330
2F
100
AcDbDictionary
280
     1
281
     1
  3
ACAD_XREC_ROUNDTRIP
360
E3E
  0
DICTIONARY
  5
E3B
330
2E
100
AcDbDictionary
280
     1
281
     1
  3
ACAD_XREC_ROUNDTRIP
360
E3C
  0
DICTIONARY
  5
E49
330
35
100
AcDbDictionary
280
     1
281
     1
  3
ACAD_XREC_ROUNDTRIP
360
E4A
  0
DICTIONARY
  5
E51
330
39
100
AcDbDictionary
280
     1
281
     1
  3
ACAD_XREC_ROUNDTRIP
360
E52
  0
DICTIONARY
  5
E43
330
32
100
AcDbDictionary
280
     1
281
     1
  3
ACAD_XREC_ROUNDTRIP
360
E44
  0
DICTIONARY
  5
E47
330
34
100
AcDbDictionary
280
     1
281
     1
  3
ACAD_XREC_ROUNDTRIP
360
E48
  0
DICTIONARY
  5
E61
330
41
100
AcDbDictionary
280
     1
281
     1
  3
ACAD_XREC_ROUNDTRIP
360
E62
  0
DICTIONARY
  5
E4F
330
38
100
AcDbDictionary
280
     1
281
     1
  3
ACAD_XREC_ROUNDTRIP
360
E50
  0
DICTIONARY
  5
E33
330
2A
100
AcDbDictionary
280
     1
281
     1
  3
ACAD_XREC_ROUNDTRIP
360
E34
  0
DICTIONARY
  5
E35
330
2B
100
AcDbDictionary
280
     1
281
     1
  3
ACAD_XREC_ROUNDTRIP
360
E36
  0
DICTIONARY
  5
E37
330
2C
100
AcDbDictionary
280
     1
281
     1
  3
ACAD_XREC_ROUNDTRIP
360
E38
  0
DICTIONARY
  5
E39
330
2D
100
AcDbDictionary
280
     1
281
     1
  3
ACAD_XREC_ROUNDTRIP
360
E3A
  0
DICTIONARY
  5
E41
330
31
100
AcDbDictionary
280
     1
281
     1
  3
ACAD_XREC_ROUNDTRIP
360
E42
  0
DICTIONARY
  5
E5D
330
3F
100
AcDbDictionary
280
     1
281
     1
  3
ACAD_XREC_ROUNDTRIP
360
E5E
  0
DICTIONARY
  5
E4D
330
37
100
AcDbDictionary
280
     1
281
     1
  3
ACAD_XREC_ROUNDTRIP
360
E4E
  0
DICTIONARY
  5
E5F
330
40
100
AcDbDictionary
280
     1
281
     1
  3
ACAD_XREC_ROUNDTRIP
360
E60
  0
DICTIONARY
  5
E45
330
33
100
AcDbDictionary
280
     1
281
     1
  3
ACAD_XREC_ROUNDTRIP
360
E46
  0
DICTIONARY
  5
E5B
330
3E
100
AcDbDictionary
280
     1
281
     1
  3
ACAD_XREC_ROUNDTRIP
360
E5C
  0
DICTIONARY
  5
E59
330
3D
100
AcDbDictionary
280
     1
281
     1
  3
ACAD_XREC_ROUNDTRIP
360
E5A
  0
DICTIONARY
  5
E53
330
3A
100
AcDbDictionary
280
     1
281
     1
  3
ACAD_XREC_ROUNDTRIP
360
E54
  0
DICTIONARY
  5
E55
330
3B
100
AcDbDictionary
280
     1
281
     1
  3
ACAD_XREC_ROUNDTRIP
360
E56
  0
DICTIONARY
  5
E4B
330
36
100
AcDbDictionary
280
     1
281
     1
  3
ACAD_XREC_ROUNDTRIP
360
E4C
  0
DICTIONARY
  5
E3F
330
30
100
AcDbDictionary
280
     1
281
     1
  3
ACAD_XREC_ROUNDTRIP
360
E40
  0
DICTIONARY
  5
E57
330
3C
100
AcDbDictionary
280
     1
281
     1
  3
ACAD_XREC_ROUNDTRIP
360
E58
  0
XRECORD
  5
E66
102
{ACAD_REACTORS
330
E65
102
}
330
E65
100
AcDbXrecord
280
     1
102
SHADEPLOT
 70
     0
102
SHADEPLOTRESLEVEL
 70
     2
102
SHADEPLOTCUSTOMDPI
 70
   300
  0
XRECORD
  5
E6A
102
{ACAD_REACTORS
330
E69
102
}
330
E69
100
AcDbXrecord
280
     1
102
SHADEPLOT
 70
     0
102
SHADEPLOTRESLEVEL
 70
     2
102
SHADEPLOTCUSTOMDPI
 70
   300
  0
XRECORD
  5
E68
102
{ACAD_REACTORS
330
E67
102
}
330
E67
100
AcDbXrecord
280
     1
102
SHADEPLOT
 70
     0
102
SHADEPLOTRESLEVEL
 70
     2
102
SHADEPLOTCUSTOMDPI
 70
   300
  0
XRECORD
  5
E31
102
{ACAD_REACTORS
330
1A
102
}
330
1A
100
AcDbXrecord
280
     1
102
MATERIAL
148
0.0
149
0.0
149
0.0
 93
        0
 94
      127
282
     0
 72
     0
 77
     0
171
     0
175
     0
179
     0
273
     0
  0
XRECORD
  5
1C
102
{ACAD_REACTORS
330
1A
102
}
330
1A
100
AcDbXrecord
280
     1
270
     1
271
     1
  0
XRECORD
  5
1B
102
{ACAD_REACTORS
330
1A
102
}
330
1A
100
AcDbXrecord
280
     1
270
     1
271
     1
  0
XRECORD
  5
1F
102
{ACAD_REACTORS
330
1A
102
}
330
1A
100
AcDbXrecord
280
     1
270
     1
271
     1
  0
XRECORD
  5
1E
102
{ACAD_REACTORS
330
1A
102
}
330
1A
100
AcDbXrecord
280
     1
270
     1
271
     1
  0
XRECORD
  5
20
102
{ACAD_REACTORS
330
1A
102
}
330
1A
100
AcDbXrecord
280
     1
270
     1
271
     1
  0
XRECORD
  5
1D
102
{ACAD_REACTORS
330
1A
102
}
330
1A
100
AcDbXrecord
280
     1
270
     1
271
     1
  0
XRECORD
  5
E30
102
{ACAD_REACTORS
330
12
102
}
330
12
100
AcDbXrecord
280
     1
102
MATERIAL
148
0.0
149
0.0
149
0.0
 93
        0
 94
      127
282
     0
 72
     0
 77
     0
171
     0
175
     0
179
     0
273
     0
  0
XRECORD
  5
14
102
{ACAD_REACTORS
330
12
102
}
330
12
100
AcDbXrecord
280
     1
270
     1
271
     1
  0
XRECORD
  5
13
102
{ACAD_REACTORS
330
12
102
}
330
12
100
AcDbXrecord
280
     1
270
     1
271
     1
  0
XRECORD
  5
169
102
{ACAD_REACTORS
330
12
102
}
330
12
100
AcDbXrecord
280
     1
 70
     1
 90
1959938040
 71
     1
  1
02561EF1-E43D-4C65-9434-A2C8517CF8BD
311
504B03040A0000080000DD5D31403DEE336E79000000790000001B0000006175746F6465736B2D64657369676E2D7061636B6167652E786D6C3C3F786D6C2076657273696F6E3D22312E302220656E636F64696E673D227574662D3822203F3E3C666F726D6174733E3C666F726D61743E687474703A2F2F736368656D612E
311
6175746F6465736B2E636F6D2F64657369676E2D7061636B6167652F323030393C2F666F726D61743E3C2F666F726D6174733E504B0304140006080800DD5D3140D486FD9CA0000000F4000000130000005B436F6E74656E745F54797065735D2E786D6C7D8EC10E82300C865F65E91D8A1E8C310C0EEA1BF002731658846E
311
D98AC1B77784ABF1D8FE5FBFBF75BBCE937A534CCEB38643598122B6FEE978D0B0485F9C41B54DDD7D022595594E1A469170414C76A4D9A4D207E29CF43ECE46F218070CC6BECC4078ACAA135ACF422C856C0E68EA1BF5669944DDD7BCDE7B1F8E415D77AECB980613C2E4AC91FC167A2B244592486606FC29C8FD7F045B9A
311
EF7053A7E60B504B0304140006080800DD5D31403BB7119EEA0000007C01000008000000636F72652E786D6C8D904D6EC3201085AF82668F0DC43FA985899A583E412F8080B828315806AA1EBF3871A476D7D58CDEBC6F66F4F8E97BBEA32FB306EB5D0FB420808C535E5B37F590E2151F019D045FBD8FBF6C809C9C4D0F9B
311
0C824FAB4FCB2E29EFA27131ABCE6BB38B32041301A97B6E7A08EAD3CCB290296647B8158B5437399982BEBA0CA764357A1EB13AEFB3576B5610555D53CA8E07CCDE8706576C6CF179682EB81E2B7A1ED8C8DA4BC5CB0D163CDAF9755FAD4646A3413042192614D3F683D2AE6ABAFA0D93A62384979BFD0F9416FD4F285917
311
0F6C7FF7890510343FF218085E6E59E4F2082AD72D37F103504B0304140006080800DD5D314055019EA25F0000007C00000007000000636E782E786D6C4DCB3B0E80201045D1AD90E915ED2CF8AC45050C11660C8261F98AB1B07AC9C97D42D718D865D3E909258CFD00CCE24AC6E326A164D74DC0B4128928FF326038472B
311
A13128B1252AC747C6BAB984FC68F0B87FE8960A5C09FE86CFB69FBA01504B0304140006080800DD5D3140DCF3C62266010000020300000C0000006662782F636F72652E786D6C8D52ED8E8230107C95A6FF4B6905F44CA939353EC1BD4085CA11A125A5253EFE2D1FC6F362CC85A434333BBBB30362776B1B3468D7D7D6E4
311
98453146DA14B6AC4D95E3E02F6483D14E0A67ADFF55869151ADCEF10863292A6743B74085355E1B0FA8B1A55E40D5F7DA63543470C9715F7CEB56452A78A8E8AF51A78AABAA74C422A0A14E8ADE3B3080E621E389E5E57C1374C6A508A12E17B62E615A7DA9B5C3324953C6F86645F8E73123093FADC9FE981D487A4AD8FE
311
C84F7C7D48041DC552F8BABDBB2B9C565E9758F298711233C2D65F8C6D936C9B7E9038DBC6B1A063F9932874E53F45A1367EC517BBB3ACC792819189F8B32D44E451AF06F043A5A06388F09A127E0E1A028190BD3A37F73DAE000DBAF0D625C094363CA8413541C3D4184D8FA0330B9DA706B0D9CB3EFC4D9FF73DE0032A53
311
8135E5E17A0E7E9C2EE6A94B149D7664F03764AC6B55F330375B7C9C8F412FE5856DACFB8F9A2EABD2254C3AFEBDF207504B0304140006080800DD5D3140AA3639797D0000009D0000000B0000006662782F636E782E786D6C4DCCD10A83201886E15B91FFDCA5E5C203352CE93E6259C84CC3E9D8E5AF46073BFAE0E1E315
311
DD67F3E86DD3CBC52081DE08201B1E7176619550F28239A04E891463FEBB010AD366259C0C4AAC2996FDA2D92E53F1F950EFC2F3C291F391995E63A25B8219A91BDC9B8161DAE8C168766F594DA152A2FA958E3DC3EA0B504B0304140006080800DD5D314094B8B3F42C01000014020000310000006662782F463838463444
311
42412D304136302D343032332D424443342D3133414344413435363432312F636F72652E786D6C8D514B6EC32014BC0A62952EB0C126AE1B612227514ED00B10435C94182C3E558E5FA81DA9DD65C343F366E60D3CB67F4C77F0AD9CD7D6749014180265062BB5193B18C315B510EC3973D6863F34088C985407330C391B9D
311
8DF30A0DD6046542428D956A0585F72A4030DCD3A5837EF8529328440C89E16FC52C869B1855418AD44E3CCE7C7029005886E413F273DB9EE9E9D023DC3718515CD5E8703A5244EAFE78EAE9B6A11561E522E42C462D57B996298EBE6AE55E35C962CE829E9EF107A7445012F20A930A6182C8FB27213BDAECB61F08373B8C
311
5999E9FF4471962F8AA236A1AED6B88BCC439E5EB3343893365EEECF30EA315B17409EB7F16A78831C17B8C2754DEA96950B357D40F26CE8EAE98375E98337B74B62932D2BB37143392BF38E52F95D60AA799FFC07504B0304140006080800DD5D3140EAD2FEAC4D01000033030000300000006662782F4638384634444241
311
2D304136302D343032332D424443342D3133414344413435363432312F636E782E786D6CD593CD6EC32010845F0571F70FA9EBB61126520F7D821E7AC5B04968305880ABE6EDBB2424CD25871E7B41D6EC30B3FA84F9E67BB2E40B4234DE0D94D52D25E094D7C6ED06BAA46DF54CC946F0E07DBAB151E2E40403CD32157C17
311
FC321749C3562E36A16A8D3B143140F44B501051CE3789F54A5A0C00572D28C23482D6A0C9D5885F5B08B80A8AE391A43D90B7D70FE2C74F5029F226A708DEE40EC1F3599A6E4C94282B631C68547B98642D97E435C443AD659235AB2F5D7776FA4D22F9C2A5720986E4F281E6938AB2518D1C798343C1630A48AF98D27106
311
2AE43C5BA36442C8CDC978F608BE1897FAAE780D820FE866FD43D761D8692678321314870A2013682A562D5B552DABD8D33B63EBAE5F3FBE546DBF6E5BDE64BBE0A3F7B65CC218087E26CABB042E51C17893C7F7F0151FD126206B1F8E7F0089004AEB99CE35E33FF3694EEF1B7105FC0BC40F504B0304140006080800DD5D
311
3140A45BD41D9C0500007B100000340000006662782F46383846344442412D304136302D343032332D424443342D3133414344413435363432312F6F626A656374732E786D6CAD575D739B3814FD2B0CFB0C18DB49931D4227B1938EA79BB6534F3BFB90198F0041B4111F2389C4E9AFDF2310185C3BF5EEF4059090AEEE3D
311
F7DC0F05EFB739B79EA990AC2CAE6CDF9DD8162DE23261457665D72A752E6CEB7D1888B2548365B655909C5ED97ADA0E834C947565A6129A929AABBDD9BB9BBF2D19D382DA56CC899457B68C1F694E5C52AB32A1F2C94D88226E966E5DDF6D178EC56682548F7B422B2268A1A029E60B48B15AA5FCF170627B61E0E9FF61A0
311
9F66D5ECF82AAFB1677C3E2BA42245FCD3617B6266FE7C793B3DBB74CEE6F399333F9FFACECDDDCDD2F1DFCD268BF3C5E2F2FAF612074B2520C96822686A871F808D6071E0B5BFC2A066859A4DCD12E3204FD067A63D658753CB0FBC764D6F9D31F290FA715914346EB0021A8D7D4674422B5A24F039A3129A0D109A8C87BE
311
C671F07BA6C7E6C8E1F469080C770C0475BA77EFA1A665F40F4C90A7304848AA19D862690C6DB93AD9211C952537FF98B472A2A860845B9C458288573BC452BD240C46623493858E066D811DC20BEDEF315D1046BFE6F9212DD39A734D633B6CA2608358A14A369AB11F54ECB41F22039DE02BCD860B63907AADA81D5EB614
311
B9D863530BA4957292C1E53053EF9C4DF70C5DE8385D2DEDF0E35DB45DEBD83D7C7825CA8A0AA5E9036A758EEBDE1A25A3937F92E7F4067B4F951D285F81FC2784FA4E15F84DB0ED7C3B37A728410A999622876FAC89E54CF098587EF3D4DF83AFC0EB378FBD770C4F385B43F51BF01CDB30F4E500CE307806E14B3133A6AD
311
63C29136EE59018034492C5E620A79388DB676B842964356C62EC2431F2643DD677C069E118344D19C347817C0722F2D9E90A0015BC348A8D192DF28B8F3D34FE9AC39D82C3B06EFD96FA1EBF572FD715D8B94C4F4DEC4F492A6AC600A256EC79BA14223CC47163DD1D797522430F467BCD743BC73739404DA1A730D7CD6E5
311
743DD89D3C3A20C6BEACD4E926F8C509304217D681FC7B2663CA3929685977E7BE593F50365A8875B06B26F705665758409AF6CF5E0CA248C782551AC4BE5AF549D33D62DDB7D52730D20E6F5EFF22AFC3EC15ED726F5CF2526CA2D74D9B960E42FD7DCC6D8381A7A580EE4D9074F16F40DF242C4D6B89247800D7EFABC5D0
311
773A2D20457452DB6899C37E04171186B49D5C546B415049CB62C350371177070F18CA07A486018DC0631A4BCAD30DE3BCCE3729E3A8469B9C5447E0F8FFFA47755E6D485ED6853A227BA43AAAC358F7117BE50B51F1A31DAE9BB77383DC9BD0E40819742D3980D5C8B593E9D9B97F7BE73BB7F3D9D2992FCECF9CCBF96CEE
311
5C4F171767FEBBC5DDC5CDB2F353AB491874A56618D1F0124A5B500B66DCF76D85F83149C00EEF89920F1FDAF0ECDEDF562E7AE1C0C31ED4CB7EE375F28CBE8F26BF16B05B7950D02AAF38CD69A1888EA17BFDC1BF12F4192365DAF9554E327A8294CF1FD67BC660E6847D5F74BCD397BDBD6676A103F2A010F558E7514118
311
DFDB98B548BA559119FC3A9FF4EFB6D074433D328E41672A4BCE12E4C1C4CA689953856C784211123995A0DEB0A74FCCDDE384DDCF6D87A848C469A7C9234193CC25C202D4AA63359EB7FE4053A7FBAA2B1BE5D67DC2C3640ADB0267AE6C34E98AC554BA110AB46E851AE1E0D2B09347E34F8A8CA3D76E37F5E37E97C66654
311
92FB25A7F44FC6AE36851B0390462AF40D6888E09D469930687433FFE3FF6478A78E45143EA35AF5B6EC267A639A6310A2AD51E6B68026E6C91CBD45A0BE6D96EF366B46889C74CB7A9304AD54471191353705AD9F51E97AF9C5438762AD3E5B15AF33F8F274498EA02073AD031C2C022B8CCC8A285075F1E7C31751E2269B
311
5B770C14785894795E1666706D6EC2D6FA11F7DAE4016981EA0B897C984EFCE94373113077934D44247549229F30019F0AD6433C723C18D9DE165181DA1FFD3A4F3B618F9BABA5654ADA1C420D51865955C38296A3A016A2475F2675AC0C17546FDE05BC66295410E8E2C37F01504B0304140006080000DD5D314000000000
311
0000000000000000350000006662782F46383846344442412D304136302D343032332D424443342D3133414344413435363432312F76657274696365732E62696E504B0304140006080800DD5D3140F270F1330600000004000000360000006662782F46383846344442412D304136302D343032332D424443342D31334143
311
44413435363432312F747269616E676C65732E62696E636660600000504B0304140006080000DD5D3140000000000000000000000000370000006662782F46383846344442412D304136302D343032332D424443342D3133414344413435363432312F617474726962757465732E62696E504B0304140006080800DD5D3140
311
D5987DFC8F00000041010000360000006662782F46383846344442412D304136302D343032332D424443342D3133414344413435363432312F6469726563746F72792E786D6C858F410EC2201045AF4266AF15DDB800BA74E7C21B903225242D6328188F2FA5C4183471359997F9FF81E89FF3C41E1816475E02DF1F80A11F
311
C8386F25A438EECEC07A250251FC3803E6F58C12560C4AD840E95E91C151A72936F496F35732D860FE635F62C8F2DA16B505C545B74125BAA2FA9E05D7CC053D063734D5C7665FD55B6B8D15D5E9BFEAFD8490FFA45E504B0304140006080800DD5D3140281C3F06FC000000A00100003B0000006662782F46383846344442
311
412D304136302D343032332D424443342D3133414344413435363432312F7265736F75726365732F636F72652E786D6C8D50596E833010BD0A9A7F03765952641C35419CA017B0CC845A0936F252F5F835814AED5F7F66466FD13C3D7EFE5A1ED9273AAFADE981E6256468949DB4997B88E1464E909D0577D6865F32C88C5C
311
B0870D06C16767E37A40CA9A802624D4D8090F507A8F0132F548470F5E7DE02273194352F87BBE4A759733E6344F74D209EE834B01B2FDC9364138F4363A859E173B2B788C7A3A347A4A3FF54DA30351D535A5ECC4087B1B1A52B1B12597A1B9927AACE86560236BAF152F36B3E0412F3F199543197002C14ACA4849096DDF
311
29EDAAA6AB5F49D97465C98B4DFEC714D7E99FA6A84D786147DCDDE641D014E449085E6C7DA5F52C33EDAD5BF10D504B010214000A0000080000DD5D31403DEE336E79000000790000001B00000000000000000000000000000000006175746F6465736B2D64657369676E2D7061636B6167652E786D6C504B010214001400
311
06080800DD5D3140D486FD9CA0000000F40000001300000000000000000000000000B20000005B436F6E74656E745F54797065735D2E786D6C504B01021400140006080800DD5D31403BB7119EEA0000007C010000080000000000000000000000000083010000636F72652E786D6C504B01021400140006080800DD5D3140
311
55019EA25F0000007C000000070000000000000000000000000093020000636E782E786D6C504B01021400140006080800DD5D3140DCF3C62266010000020300000C00000000000000000000000000170300006662782F636F72652E786D6C504B01021400140006080800DD5D3140AA3639797D0000009D0000000B000000
311
00000000000000000000A70400006662782F636E782E786D6C504B01021400140006080800DD5D314094B8B3F42C0100001402000031000000000000000000000000004D0500006662782F46383846344442412D304136302D343032332D424443342D3133414344413435363432312F636F72652E786D6C504B0102140014
311
0006080800DD5D3140EAD2FEAC4D010000330300003000000000000000000000000000C80600006662782F46383846344442412D304136302D343032332D424443342D3133414344413435363432312F636E782E786D6C504B01021400140006080800DD5D3140A45BD41D9C0500007B100000340000000000000000000000
311
0000630800006662782F46383846344442412D304136302D343032332D424443342D3133414344413435363432312F6F626A656374732E786D6C504B01021400140006080000DD5D31400000000000000000000000003500000000000000000000000000510E00006662782F46383846344442412D304136302D343032332D
311
424443342D3133414344413435363432312F76657274696365732E62696E504B01021400140006080800DD5D3140F270F13306000000040000003600000000000000000000000000A40E00006662782F46383846344442412D304136302D343032332D424443342D3133414344413435363432312F747269616E676C65732E
311
62696E504B01021400140006080000DD5D31400000000000000000000000003700000000000000000000000000FE0E00006662782F46383846344442412D304136302D343032332D424443342D3133414344413435363432312F617474726962757465732E62696E504B01021400140006080800DD5D3140D5987DFC8F0000
311
00410100003600000000000000000000000000530F00006662782F46383846344442412D304136302D343032332D424443342D3133414344413435363432312F6469726563746F72792E786D6C504B01021400140006080800DD5D3140281C3F06FC000000A00100003B00000000000000000000000000361000006662782F
311
46383846344442412D304136302D343032332D424443342D3133414344413435363432312F7265736F75726365732F636F72652E786D6C504B0506000000000E000E00800400008B1100000000
310
504B03040A0000080000DD5D31403DEE336E79000000790000001B0000006175746F6465736B2D64657369676E2D7061636B6167652E786D6C3C3F786D6C2076657273696F6E3D22312E302220656E636F64696E673D227574662D3822203F3E3C666F726D6174733E3C666F726D61743E687474703A2F2F736368656D612E
310
6175746F6465736B2E636F6D2F64657369676E2D7061636B6167652F323030393C2F666F726D61743E3C2F666F726D6174733E504B0304140006080800DD5D3140D486FD9CA0000000F4000000130000005B436F6E74656E745F54797065735D2E786D6C7D8EC10E82300C865F65E91D8A1E8C310C0EEA1BF002731658846E
310
D98AC1B77784ABF1D8FE5FBFBF75BBCE937A534CCEB38643598122B6FEE978D0B0485F9C41B54DDD7D022595594E1A469170414C76A4D9A4D207E29CF43ECE46F218070CC6BECC4078ACAA135ACF422C856C0E68EA1BF5669944DDD7BCDE7B1F8E415D77AECB980613C2E4AC91FC167A2B244592486606FC29C8FD7F045B9A
310
EF7053A7E60B504B0304140006080800DD5D31402096B9F5EA0000007C01000008000000636F72652E786D6C8D90416EC3201045AF82668F03C4761D0B13C56E73825E0001715062B00C543D7E71E248EDAEAB19FDF96F66F4F9F17BBAA32FB304EB5D07B420808C535E5B377690E20537808E822FDEC75F36404E4EA68355
310
06C1C7C5A779939477D1B89855E7B5D94419828980D43D371D047535932C648AD9116EC52CD54D8EA6A0AF2EC329598D9E47ACCEFBECC59A0544B52FC9D057149F3FDE0FB86C18C1A7BE1970339C2AD6D7AC26E4CC772B2C78B4D3EBBE5A8C8C46836084324C28A66F9F94B665DD56074CEA9610BE5BED7FA034EB7F42C9BA
310
B867DBBB4F2C80A0F991C740F0DD9A452E8FA0725D73133F504B0304140006080800DD5D314055019EA25F0000007C00000007000000636E782E786D6C4DCB3B0E80201045D1AD90E915ED2CF8AC45050C11660C8261F98AB1B07AC9C97D42D718D865D3E909258CFD00CCE24AC6E326A164D74DC0B4128928FF326038472B
310
A13128B1252AC747C6BAB984FC68F0B87FE8960A5C09FE86CFB69FBA01504B0304140006080800DD5D3140F6A214FC66010000020300000C0000006662782F636F72652E786D6C8D52D18E823010FC95A6EFA52D02A7A6D4A8777EC1FD4085CA11A125A5257EFE2D82F1BC1863484A33B3B33B3B203697B64183767D6D4D8E
310
79C430D2A6B0656DAA1C077F224B8C3652386BFD9F328C8C6A758E47184B51391BBA192AACF1DA78408D2DF50CAABED71EA3A2814B8EFBE247B72A52C143457F8E3A559C55A5231E010D7552F4DE8101340D194F2C4FC78BA0132E45087539B37509D3EA53AD1D96E92261FB5DCAC9E1EB73459265CCC876B7DC93E57E9BC6
310
BB2CCE183B083A8AA5F0757B735738ADBC2EB18C198F09E3847F7C73BE4EB275BA222C5B3326E858FE200A5DF9A628D4C62FE2D9EE24EBB1E460E44AFCDB1622F2A85703F8A152D03144785D137E0C1A028190BD3A36B73DCE000DBAF0D625C09436DCA9413541C35486AE8FA0130B9DAF0D60B3A77DE2177D5EF7800FA84C
310
05D69487EB31F871BA98A6CE5174DA91C15F90B1AE55CDDDDC64F17EDE073D9517B6B1EE1D359D57A5739874FC7BE52F504B0304140006080800DD5D3140B66E36E07C0000009D0000000B0000006662782F636E782E786D6C4DCCD10AC2201886E15B91FFDCB6A582823A30BD90D1DC909C866974F96DB1838E3E78F878E5
310
F8D9227AFBF20A3929182E3D209FEE790E6955D0EA8239A051CB9273FDBB014AD3E6151C0C5AAE25B7E749B35FA616EBAE31A4C789865A41E85560375886E98D30CC0565D850E738A3C6BA9E40A765F72BED7B84F517504B0304140006080800DD5D31406283852E2A01000014020000310000006662782F42344439333432
310
392D453144352D344333352D383934352D4234454538353442444530332F636F72652E786D6C8D51CB6EC32010FC158B537AC0061BBB76848994C67FD01F20405294182C1E553EBF503B527BCB8545B333B3A35D7A78CCF7E25B39AFAD19012E11289411566A731D410C17D883E2C0A8B336FCA181C2F0598D20C380D1ABB3
310
71D920614D502624D458A936907BAF0228C43D7D46E0C5979A79C963480C7F2B172E6EFCAA4A5CA676E231EA834B018A75487E013B92D3D0907A80133EB5907C342DEC07D2C22399A6BE25C7D3841A5AAD424663D472936B99E2E88B56EE55932C6634E8F9195F38C5839280D508D7106188DF3F31DE936EDF0E10757B8468
310
95E9FF4471912F8AA236A1A9B7B8ABCC038669B5361895369EEFCF30EAB158178A3C6FE79578030C95A8C6EF2D1E7A5AADD4B480E4D991CDD307EBD28277B77362379B714718ADF28D52F93D60AAF99EEC07504B0304140006080800DD5D31408C7531BB5501000033030000300000006662782F42344439333432392D4531
310
44352D344333352D383934352D4234454538353442444530332F636E782E786D6CBD93CD6EC32010845F0571F70F89EBA61126520F7D821E7A25B069686CB0F8A99AB7EF929034971C2A55BD206B7698597DC27CF3358DE4137C30CE0E94D52D256095D3C6BE0F34C55DB5A26423B8772EDED828B172828166990AFEEE5D9A
310
8BA46127D318511D8D3D14D14370C92B0828E79B64744A8E1800B64A28C2B405AD4193AB11BF76E0711514B74712F7405E9EDF88DB7E808A81373945F02677089ECFD27463A2448D32848106B58749D63245A7211C6A2DA3AC597DE9BAB3D34F12C9172E95C91B92CB079A4F2ACA463572E40D0E050FD123BD628AC719A890
310
F33C1A2523426E4EC6B347F0646CECBBE23508DEA37BB9E8572B0C3BCD048F6682E2501E64044DC5A2658BAA65157B7C656CDDF5EB87A7AAEDD76DCB9B6C177CEBDC582E610C783713E56C041BA960BCC9E37BF88A8F68E391B5F3C75F804400A5F54CE79AF1977C58BFECBA7FE4D39CDE37E2F2F817886F504B0304140006
310
080800DD5D3140AE2EB8EF5A070000941B0000340000006662782F42344439333432392D453144352D344333352D383934352D4234454538353442444530332F6F626A656374732E786D6CED595B739B3814FE2B0CFB6C6C7C49931D4227B19B8EA79B6E67BDEDEC4366181964A28D108C24D2787FFD1E5DC0404C82B7D9B7
310
3ED880908ECEF9CE5587E0FD53469D47CC05C9D9A5EB7B13D7C12CCE13C2D24BB794BBD1B9EBBC0F039EE7B231CD7518CAF0A5AB86DD3048795E167628C13B5452D919BDB9FECB113166D875628A84B874457C8F33E4A152E609160F5E8224F2D2DD93E77B66629B6CCA5171DF215A208E99044E619C0115C730E5B71F27EE
310
380CC6EA7D18A87F3B6B3668D6BC7FD6584BDDE6923021118B9FB1D421331BC4D2CC9FAF3E4C1717A3C57C3E1BCDCFA6FEE8FAE67A35F2DFCD26CBB3E5F2E2EAC305B0B7CD736A654A70815902FADBBBA11F8CD59B5A748BC031AEE39C311C6B20012A2D569720C102B66AC037693FFA4AA2C66B2D61E379AEDE5B161AC3B3
310
3695BE59C38068D10541EC7695C4D5B5295FBEFD1B0417438C920B2C815B213968D7C2C3C12BDC70128CCD68186C0FBA20C2C990C49C20EA50B2E588835260AA9A1206668125A39C8303294749A035675EB76D0B3CF375D739C6E5AEA45479861B6AC78AC0FDB0149A33F20FE607EE9BC8004F206D49983CB75CCA7D81DDF0
310
2218EBC1305097D9D4BE34403A3B8A52A111316F3B822E95EBAF576EF8E966FBB451E1E0F8E605CF0BCCA5323AA547CD1718B2BD2A94ECB6FE20CDA905208C01D5AE3C80F20720FF19A2C78115D01B274FF3A7B99D2B39626297F30C74E34C9CD104FE268EAFFFD57DE32E18D78BDBDAEBC313DC544175FEE378B665D05859
310
FE1B7086C123187CCE67F6D5264614ECF996300048198943731882D0BEDB3EB9E11A0227047A588568E883C8C0EE23DC06634BE6A095CABDACD73140D4EE311BA224804D5B24B0D1A3A78F903D38890F6A6A8AD807EFE24DCCF56AB5F9B429F90EC5F8D6FAF40AEF082312B2E671865A98B7247AC0FBEF394F40D0E7786F9A
310
7867762B01682BCC15F06905827A38ECDCDA20867569AEC24DF0CA0E2084CAD50DFAB744C49852C4705E56FBD6D14D196AEDF1B66670C3A9817836ED9830C78F445515E03487192D4621EFC79C140A4437FC6824AB83A6D723DDD7F567B0C87A7ECFAC3583D0CB10FD5307AD2338B42CBB42DA02510BBC3D84F338A7398FB6
310
FBC8443A176A0960A3ED2DDF5A4421D61B25292AE041DAEFAA90921A69A384EC76A580B87A84C56FEB65D31C26DECC5F38CDFF8E33CE21DA82EF226EFDAEB347443294E2688792BEED9ABBD5B48526D9439AE31D05B9C82391FB08C96892E0F414684E227EF1A6D4539A0B41181690AF8E82DF4463E2412031DAAC58565AED
310
004D44946189E8290828323DE0EAB4A36BDC184A87D779ACADF7258D3589FE4F16C111D492398B0894A290435E65DCF7161043DAE81A943BF882B555B4B518B4841222DE47DF3149EFE529A81BF23DB8C77024296594172806B31E40F699AF28A57678DFA2F841E58F282EE95B1988C07417114ACB2C821F6170F218E2DA75
310
607A1185067113FB24CEA02843B2E44336395B4C9EED636A866E086C6CB42314C27694A1A207F55640D4F58853836FA9F728755B664584B2BC64830CC59B75BDC992EFAA55911DC8AF2A15A16CAC085B82614098ACB36A15B3C1D475600537D2816A1F099415D49CC25E493C7EED4D9A72EF06DCFAE9DB6E9041E1D7A3BD66
310
449D5730581E5B8581F88E647CEF861B7D1D5D43FD9DE0E490EAAB5AB3590102622A92979C58157D5D4379636B3437BC4552DC7D3459B7BA7E5D7BD0FD08C6B0066A977AE15A019D612691AA4C6ED50DFD0341086ED130E36B95534FA1729524BA6A44F486F4A9B35546B436CD8857DC639667F0637784C5B44CF01D4AC443
310
742B69B4218A752BA597910AE31705FCFDE3A6030F8C0C10E98B2AF0F0F7CE5A3BBA54E5D25122F2BECCB60C1108822DD152A31BAF60A9D548A5E5FAAACE14507781815915CF7F9E2C9AED889F278BD41AC60F9D2CAEF7BFA17DB32FD248E7B1B2EB938E01757E5254DEE218A0DB0E35D53A8B98646EE5B7CE144150ACA2FC
310
E06AAC0A1A86601FC7FF396BF76541B35D87FFD3B2B6FFACE23829ABB426AB2ED591CA75DDCC6193E9E2CCFF70E38F3ECC67ABD17C79B6185DCC67F3D1D57479BEF0DF2D6FCEAF57359ADA51C3A00E663A77C1B3096AD5B07AB218405756E49424709A4F9C1443CC9770A61FD03EE71916903C9BCDEEC436E507AC7E347D4E
310
89B614579CDC2368105301691D302A63D91E777E81D6A48483F6A50B4D23EF01FEAC55BA0E649E4B175A0592C458785B6833A9869E260E2957E77E4B0CF0412C5529D12CAA9FEB550A9B56F8AFA70C490356AE560F030AB702BA5FAD0E85E6CDF2149F2478C58E8324DC6E4B09D59A91E530500BA3B739A8DFC846097BB05B
310
3F81EBBE2C96EFE9392D44067D3278D1080CD591443CD5FD6EC59865E96AF5650C7D3667FDBB53D032055D0EA734E2188CB954051558115885A5592009A6BAFCF5EE0BCFE1134FE6E8AAE86E996759CEECC3159CC712F844E46CEEE1834F72076503566D7571379DF8D33BDDCEB61DF6688B04F6543D04035519A144E8181B
310
58E4B3D6946D5C8E95123AD3D72BC7864F6803180B7AD6DD359FB71CF01EF52145F98AF6F04ACE173BDA633D15AC81432F3AFC17504B0304140006080000DD5D3140000000000000000000000000350000006662782F42344439333432392D453144352D344333352D383934352D4234454538353442444530332F76657274
310
696365732E62696E504B0304140006080800DD5D3140F270F1330600000004000000360000006662782F42344439333432392D453144352D344333352D383934352D4234454538353442444530332F747269616E676C65732E62696E636660600000504B0304140006080000DD5D3140000000000000000000000000370000
310
006662782F42344439333432392D453144352D344333352D383934352D4234454538353442444530332F617474726962757465732E62696E504B0304140006080800DD5D3140D5987DFC8F00000041010000360000006662782F42344439333432392D453144352D344333352D383934352D4234454538353442444530332F
310
6469726563746F72792E786D6C858F410EC2201045AF4266AF15DDB800BA74E7C21B903225242D6328188F2FA5C4183471359997F9FF81E89FF3C41E1816475E02DF1F80A11FC8386F25A438EECEC07A250251FC3803E6F58C12560C4AD840E95E91C151A72936F496F35732D860FE635F62C8F2DA16B505C545B74125BAA2
310
FA9E05D7CC053D063734D5C7665FD55B6B8D15D5E9BFEAFD8490FFA45E504B0304140006080800DD5D3140333D976DFD000000A00100003B0000006662782F42344439333432392D453144352D344333352D383934352D4234454538353442444530332F7265736F75726365732F636F72652E786D6C8D504B6E833010BD0A
310
9ABDC1264009328E026D4ED00B586642AD041BF953F5F8350995DA5D3733A3F7D13C3D7EFA5AEED9273AAFADE981E5143234CA4EDACC3DC470252D6427C19DB5E1970C322317EC618341F0D9D9B8EE90B226A009093576C21D94DE63804CDDD3D183571FB8C85CC69014FE96AF52DDE48C39CB139D7482FBE05280ECF9649B
310
201C7A1B9D42CF8B272B788C7ADA357A4A3FF555A303511F2A3A0E352597B7D723A9DA9292F3D08EA41DCF7539346543E985179B59F0A0979F8CCAA10C388128292B096584BDBC33D6554D571F096D3A4A79B1C9FF98E23AFDD314B50987728FFBB479102C05791082175B5F693DCA4C7BEB567C03504B010214000A000008
310
0000DD5D31403DEE336E79000000790000001B00000000000000000000000000000000006175746F6465736B2D64657369676E2D7061636B6167652E786D6C504B01021400140006080800DD5D3140D486FD9CA0000000F40000001300000000000000000000000000B20000005B436F6E74656E745F54797065735D2E786D
310
6C504B01021400140006080800DD5D31402096B9F5EA0000007C010000080000000000000000000000000083010000636F72652E786D6C504B01021400140006080800DD5D314055019EA25F0000007C000000070000000000000000000000000093020000636E782E786D6C504B01021400140006080800DD5D3140F6A214
310
FC66010000020300000C00000000000000000000000000170300006662782F636F72652E786D6C504B01021400140006080800DD5D3140B66E36E07C0000009D0000000B00000000000000000000000000A70400006662782F636E782E786D6C504B01021400140006080800DD5D31406283852E2A01000014020000310000
310
00000000000000000000004C0500006662782F42344439333432392D453144352D344333352D383934352D4234454538353442444530332F636F72652E786D6C504B01021400140006080800DD5D31408C7531BB55010000330300003000000000000000000000000000C50600006662782F42344439333432392D45314435
310
2D344333352D383934352D4234454538353442444530332F636E782E786D6C504B01021400140006080800DD5D3140AE2EB8EF5A070000941B00003400000000000000000000000000680800006662782F42344439333432392D453144352D344333352D383934352D4234454538353442444530332F6F626A656374732E78
310
6D6C504B01021400140006080000DD5D31400000000000000000000000003500000000000000000000000000141000006662782F42344439333432392D453144352D344333352D383934352D4234454538353442444530332F76657274696365732E62696E504B01021400140006080800DD5D3140F270F133060000000400
310
00003600000000000000000000000000671000006662782F42344439333432392D453144352D344333352D383934352D4234454538353442444530332F747269616E676C65732E62696E504B01021400140006080000DD5D31400000000000000000000000003700000000000000000000000000C11000006662782F423444
310
39333432392D453144352D344333352D383934352D4234454538353442444530332F617474726962757465732E62696E504B01021400140006080800DD5D3140D5987DFC8F000000410100003600000000000000000000000000161100006662782F42344439333432392D453144352D344333352D383934352D4234454538
310
353442444530332F6469726563746F72792E786D6C504B01021400140006080800DD5D3140333D976DFD000000A00100003B00000000000000000000000000F91100006662782F42344439333432392D453144352D344333352D383934352D4234454538353442444530332F7265736F75726365732F636F72652E786D6C50
310
4B0506000000000E000E00800400004F1300000000
  0
XRECORD
  5
17
102
{ACAD_REACTORS
330
12
102
}
330
12
100
AcDbXrecord
280
     1
270
     1
271
     1
  0
XRECORD
  5
16
102
{ACAD_REACTORS
330
12
102
}
330
12
100
AcDbXrecord
280
     1
270
     1
271
     1
  0
XRECORD
  5
18
102
{ACAD_REACTORS
330
12
102
}
330
12
100
AcDbXrecord
280
     1
270
     1
271
     1
  0
XRECORD
  5
15
102
{ACAD_REACTORS
330
12
102
}
330
12
100
AcDbXrecord
280
     1
270
     1
271
     1
  0
XRECORD
  5
E32
102
{ACAD_REACTORS
330
22
102
}
330
22
100
AcDbXrecord
280
     1
102
MATERIAL
148
0.0
149
0.0
149
0.0
 93
        0
 94
      127
282
     0
 72
     0
 77
     0
171
     0
175
     0
179
     0
273
     0
  0
XRECORD
  5
24
102
{ACAD_REACTORS
330
22
102
}
330
22
100
AcDbXrecord
280
     1
270
     1
271
     1
  0
XRECORD
  5
23
102
{ACAD_REACTORS
330
22
102
}
330
22
100
AcDbXrecord
280
     1
270
     1
271
     1
  0
XRECORD
  5
11C
102
{ACAD_REACTORS
330
22
102
}
330
22
100
AcDbXrecord
280
     1
 70
     1
 90
1959938040
 71
     1
  1
6FA08888-A905-47E6-AFB1-FE78354A2C84
311
504B03040A0000080000DD5D31403DEE336E79000000790000001B0000006175746F6465736B2D64657369676E2D7061636B6167652E786D6C3C3F786D6C2076657273696F6E3D22312E302220656E636F64696E673D227574662D3822203F3E3C666F726D6174733E3C666F726D61743E687474703A2F2F736368656D612E
311
6175746F6465736B2E636F6D2F64657369676E2D7061636B6167652F323030393C2F666F726D61743E3C2F666F726D6174733E504B0304140006080800DD5D3140D486FD9CA0000000F4000000130000005B436F6E74656E745F54797065735D2E786D6C7D8EC10E82300C865F65E91D8A1E8C310C0EEA1BF002731658846E
311
D98AC1B77784ABF1D8FE5FBFBF75BBCE937A534CCEB38643598122B6FEE978D0B0485F9C41B54DDD7D022595594E1A469170414C76A4D9A4D207E29CF43ECE46F218070CC6BECC4078ACAA135ACF422C856C0E68EA1BF5669944DDD7BCDE7B1F8E415D77AECB980613C2E4AC91FC167A2B244592486606FC29C8FD7F045B9A
311
EF7053A7E60B504B0304140006080800DD5D3140C48139B9EB0000007C01000008000000636F72652E786D6C8D90416EC3201045AF82668F0D8EED040B13354E7A825E0001715162B00C543D7E71E248EDAEAB19FDF96F66F4F9F17BBAA32FB304EB5D0FB420808C535E5B37F690E2151F001D055FBC8FBF6C809C9C4C0FAB
311
0C828F8B4FF32629EFA27131ABCE6BB38932041301A97B6E7A08EAD34CB290296647B815B35437399A82BEBA0CA764357A1EB13AEFB3576B1610E7031B2EEFEC84EBFDA5C1F58E31FC4607864F351B9A616067D6D6BC5C61C1A39D5EF7D56264341A4445688509C574FF416957B75D73C0A4ED08E1E56AFF03A559FF134AD6
311
C55DB5BDFBC402089A1F790C042FD72C72790495EB9A9BF801504B0304140006080800DD5D314055019EA25F0000007C00000007000000636E782E786D6C4DCB3B0E80201045D1AD90E915ED2CF8AC45050C11660C8261F98AB1B07AC9C97D42D718D865D3E909258CFD00CCE24AC6E326A164D74DC0B4128928FF32603847
311
2BA13128B1252AC747C6BAB984FC68F0B87FE8960A5C09FE86CFB69FBA01504B0304140006080800DD5D3140A987342B67010000020300000C0000006662782F636F72652E786D6C8D52ED8E8320107C15C27F44ACFDB0419AABED3DC1BD0055EA992A1804D3C7BFF5A3F17A699A8B0992999DDDD9517EB83735EA95ED2AA3
311
53CC821023A5735354BA4CB17757B2C3E820B835C6FD2AC348CB46A57880B1E0A535BE9DA1DC68A7B403549B42CDA0EC3AE530CA6BB8A4B8CBBF552303E91D5474B7A095F94D962A6001D0502778E72C1840D390E1C4E27AB9733AE1827B5F15335B1530ADBA56CA6271DA25D9F9333992787B5E93789524E483650939C649
311
B6CEB2E4946C624E07B1E0AE6A1EEE72ABA453051651C8221232C2B65F8CEDE3CD7EBD23E1661F869C0EE54F22DF16FF14F94ABB5534DB9D641D160C8C8CC49F6D2122873AD9831F2A381D4284D798F073D0100884ECE4A57EEC7103A857B9333606A6307EA17A597B055343343E9C4E2C741E1BC0662FFB446FFABCEF011F
311
50EA12AC4907D78B77C3743E4D9DA3689525BDBB236D6C23EBC5DC64713997412FE5B9A98DFD8F9ACEABD2394C3AFCBDE207504B0304140006080800DD5D314055547A5D7D0000009D0000000B0000006662782F636E782E786D6C4DCCD10A83201886E15B91FFDC65C381821AA5F33E6259C84C87E9D8E5AF46073BFAE0E1
311
E315DD670DE8EDF2E65394D05E0820171F69F2719150CB8C19A04E899C52F9BB018AE3EA241C0C4A2C39D5D749939BC71ACAAEC1C7E78957CA8C35778B89D61653CA29EE0D23F866B8B643AB7B4E28344A34BFD2BE47587D01504B0304140006080800DD5D3140105DF3512C01000014020000310000006662782F32343844
311
464445462D304343462D343439342D414438302D3544394346423143413930342F636F72652E786D6C8D515B6EC32010BC8AC557FA810D0E719D0813A5767D825EC0C5244589C1E251E5F85D6A476AFF222416CDCECC8E587EBC4FB7EC5B39AFAD6910CD09CA949176D4E6D2A018CEB846D95170676DF84343991926D5A004
311
23C12FCEC67985A435419900A8B1A35AC1C17B1550266FF06890975F6A1AF2210660F86B3E0FF23A5C544E7368034F701F1C04C89621E946A26475D777EF3D266DDB63C6F60C9FBA9AE05DB76FFB37DA9EF684F162110A1EA31E57B91E218E3E6BE59E354962C1839E1EF1A553435023E8092D31A198BE7E507A60D5615763
311
521D08E145A2FF13C5797C5214B509DB728DBBC83C1294174B43F0D1C6CFDB238CBACFD6852CCDDB78255F90203929C916CE8E170B153E003C2BB67AFA601D7CF0E6FA096C0AAC645C31C18BB42328BF0B849AF6297E00504B0304140006080800DD5D3140EBC77ADD4D01000033030000300000006662782F323438444644
311
45462D304343462D343439342D414438302D3544394346423143413930342F636E782E786D6CD593CD6EC32010845F0571F70FA9EB461126520F7D821E7AC5B04968305880ABE6EDBB2424CD25871E7B41D6EC30B3FA84F9F67BB2E40B4234DE0D94D52D25E094D7C6ED07BAA45DB5A6642B78F03EDDD9287172828166990A
311
BE0F7E998BA46127179B50B5C61D8B1820FA25288828E79BC47A252D0680AB1614611A416BD0E466C4AF1D045C05C5F144D201C8DBEB07F1E327A814799353046F7287E0F92C4D77264A9495310E34AA034CB2964BF21AE2B1D632C99AD5D7AE073BFD26917CE15AB9044372F940F34945D9A8468EBCC1A1E03105A4574CE9
311
340315729EAD513221E4E66CBC78045F8C4B7D57BC06C10774B3FEA9EB30EC3C133C99098A430590093415AB96ADAA9655ECE59DB14DD76F9ED755DB6FDA9637D92EF8E8BD2D973006829F89F22E814B5430DEE4F1237CC547B409C8DA87D31F402280D27AA173CBF8CF7C9AF3FB465C01FF02F103504B0304140006080800
311
DD5D3140718697719B0500007A100000340000006662782F32343844464445462D304343462D343439342D414438302D3544394346423143413930342F6F626A656374732E786D6CAD575D6FA33814FD2B887DCE0749DA695794519A34A368D499D14433DA874A910143BD3518D9A693EEAFDF633004D2A4CDAEA60F2598EB
311
EB7BCF3DF7C3FEC75DC69D672A1513F98DEB0DC7AE43F348C42C4F6FDC5227832BD7F918F85208DD11739D9C64F4C635CB6EE0A75294855D8A69424AAE0F5657B77F392AA239759D8813A56E5C153DD28C0C49A9454CD5D330269A0CD36437F486B5605F6D2A49F178A0B42092E61A96623D8716A736CAEBBF8EDD51E08FCC
311
F7C037FFADD4F4B4D4A8F2A77F3ECB952679F4EAB00335536FB6BC9B5C5C0F2E66B3E9607639F106B7ABDBE5C0FB301D2F2E178BEBF9DD350E565A4293B544D2C40D3E011BC9227F547F0AFC92E57A3AB122364023499F9989941B4C1CCF1FD532AD77D6C963E64722CF69546105342AFFACEA9816348F117346152CEB2034
311
EEBF7A06C7CEE7A979B7477697CF43A0BBA3A3A8B1BD79762D15E1DF70419DC320A9A861608DA575B4E6EA788F702804B7DF987232A2A964843B9C8592C8173780A81109FC9E1AC36469B2C178E0068842FDB94F17A4D1FB3C3F666552726E68EC0655166C912B54ABCA32F60F957BEBBBC8C026C4CAB0E1CA3AA45F0AEA06
311
D73545AE0ED85403E9249CA40839DC343BA793034717264FD74B37F8BC0A771B93BBC70F2FA428A8D4863EA05613B8E66950B236796745CE6C700F4CD983F21DC87F41AAEF4D41DC24DBCD76337B8A96245789901962E38C9DC118FFC68E57FD37BF3BBFFC51BBB91FBD537822D806AADF8067DF876E2C3B7006FE33082FE4
311
D4BAB6890847D9B8673900322471B8C012EA7012EEDC608D2A87AA8C5D84071E5C86B9CFF8E98FAC1A148AEAA4CE3307960765F18C020DD82A46C28C9AFCD6C07D9C5E95B3EA602B760ADE8BDF42D7F972F37953CA8444F4DEE6F492262C671A2D6ECF9BAE413DCC7B1E3DD1975F42C670F435DE9B2EDE993D4A016D83B901
311
3E6D6ABA79D99FDC3B20C2BE549872E3BF73029C308DB5A3FF9EA988724E722ACAE6DC37FB07DA460DB14976C3E4B6C1EC1B0B48537F39C84134E948B2C280D876ABB6680E4F78F763FD058C843C1721E17BA1705F7A23C185DC862FDBBA2A1D45FA679FDA168291D102B65739D2A4BFC57C1BB32429156AE011587FAE17DD
311
D099AA800AD168AD936506F7915B445ACE367AD1AC25412315F996A16D22ED8E1ED0D50F442D012A85A72C5694275BC679996D13C6D18CB619294EC0F1FFED0FCBACD8924C94B93EA1BB673A9A43DFF61E79D52FA2A34737D854CFC12D4A6F4CE37D987BC2A6951CC1AA17DACBD57C7C85BFC1FC7A7C31987DB8BB1CCC57B7
311
DE6075F7E16A7A319B4F1657B3264EB5F2C06F3A4D37A111257436BF94CC86EFC71AE9636B801BDC13AD1E3ED5D9D93C7FAC871885FD11F6A05DB61BE7F133C63E1ABFAF602F7954D13A2B38CD68AE8949A17BF3837F2718337AC6D4EBEB8CA4F40C2D5F3F6D0E9CC1CA19FBBE9974A7BF0EF6DAD58549C8A34AF463998539
311
61FC60635A23392CF2D4E2D7C4A47DD67DA679356F3630184C95E02C46198C9D948A8C6A14C3337A90CCA802F5BA237D6CAF1E67EC7EAE07444D424E1B4B1E096664AE9016A05619E9FEBAF307663A3356DDB8E8B6C327FCB395C275C0991B1733BA661155C310FDD94C42957270A93BC863EE2779CA316AD79BDAF77697C1
311
A6D7915B9173C627EB575DC1AD03282305C606CC43884E654CE057B6D9EFD17F72BC31C7211A3FC352B7BEEC175A67AA6390A2B553F6B28019E6C91EBD43A2BEED9637AC647A889C75C97A9304B5D6812632AD2E0AC63E6BD27CF96D8401C5597F750A5EA688E5F99A069282CCA54970B008ACB03A0BA241D5C59F0FDFA4C0
311
453673560C147858882C13B97D99DB8BB0B379C4B5367E4059A0E63EA21E26636FF250DD03ECD5641B12458724564F58404C256B21EE051E8CAC2F8BE840F587566E648270C0CDF5D2B12D0D35B691EF5655030B268E9C3AC81E739734B9D21528DEBC0A8C2A51982031C407FF02504B0304140006080000DD5D3140000000
311
000000000000000000350000006662782F32343844464445462D304343462D343439342D414438302D3544394346423143413930342F76657274696365732E62696E504B0304140006080800DD5D3140F270F1330600000004000000360000006662782F32343844464445462D304343462D343439342D414438302D354439
311
4346423143413930342F747269616E676C65732E62696E636660600000504B0304140006080000DD5D3140000000000000000000000000370000006662782F32343844464445462D304343462D343439342D414438302D3544394346423143413930342F617474726962757465732E62696E504B0304140006080800DD5D31
311
40D5987DFC8F00000041010000360000006662782F32343844464445462D304343462D343439342D414438302D3544394346423143413930342F6469726563746F72792E786D6C858F410EC2201045AF4266AF15DDB800BA74E7C21B903225242D6328188F2FA5C4183471359997F9FF81E89FF3C41E1816475E02DF1F80A1
311
1FC8386F25A438EECEC07A250251FC3803E6F58C12560C4AD840E95E91C151A72936F496F35732D860FE635F62C8F2DA16B505C545B74125BAA2FA9E05D7CC053D063734D5C7665FD55B6B8D15D5E9BFEAFD8490FFA45E504B0304140006080800DD5D3140AC6B6488FD000000A00100003B0000006662782F323438444644
311
45462D304343462D343439342D414438302D3544394346423143413930342F7265736F75726365732F636F72652E786D6C8D504B6E833010BD0A9ABD01132038328E52929EA017B0CC24B1126CE44FD5E3D7042AB5BB6E6646EFA3797AFCF8353DB34F745E5BD303CD4BC8D0283B6A73EB21862BE9203B0AEEAC0DBF649019
311
39610F0B0C82DF9C8DF306296B029A90506347DC40E93D06C8D4331D3D7875C749E63286A4F08F7C96EA216F98D33CD14927B80F2E05C8D627CB04E1D0DBE8147A5EACACE031EA71D3E831FDD4578D0EC4B963C3E59D9D48BDBF34A4DE31464E7460E4AD6643330CECCCDA9A178B59F0A0A79F8CCAA10C3882A84A5A919212
311
BAFFA0F450B787A623657B284B5E2CF23FA6388FFF34456DC2AEDAE2AE360F82A6202F42F062E92BAD5799692FDD8A6F504B010214000A0000080000DD5D31403DEE336E79000000790000001B00000000000000000000000000000000006175746F6465736B2D64657369676E2D7061636B6167652E786D6C504B01021400
311
140006080800DD5D3140D486FD9CA0000000F40000001300000000000000000000000000B20000005B436F6E74656E745F54797065735D2E786D6C504B01021400140006080800DD5D3140C48139B9EB0000007C010000080000000000000000000000000083010000636F72652E786D6C504B01021400140006080800DD5D
311
314055019EA25F0000007C000000070000000000000000000000000094020000636E782E786D6C504B01021400140006080800DD5D3140A987342B67010000020300000C00000000000000000000000000180300006662782F636F72652E786D6C504B01021400140006080800DD5D314055547A5D7D0000009D0000000B00
311
000000000000000000000000A90400006662782F636E782E786D6C504B01021400140006080800DD5D3140105DF3512C0100001402000031000000000000000000000000004F0500006662782F32343844464445462D304343462D343439342D414438302D3544394346423143413930342F636F72652E786D6C504B010214
311
00140006080800DD5D3140EBC77ADD4D010000330300003000000000000000000000000000CA0600006662782F32343844464445462D304343462D343439342D414438302D3544394346423143413930342F636E782E786D6C504B01021400140006080800DD5D3140718697719B0500007A10000034000000000000000000
311
00000000650800006662782F32343844464445462D304343462D343439342D414438302D3544394346423143413930342F6F626A656374732E786D6C504B01021400140006080000DD5D31400000000000000000000000003500000000000000000000000000520E00006662782F32343844464445462D304343462D343439
311
342D414438302D3544394346423143413930342F76657274696365732E62696E504B01021400140006080800DD5D3140F270F13306000000040000003600000000000000000000000000A50E00006662782F32343844464445462D304343462D343439342D414438302D3544394346423143413930342F747269616E676C65
311
732E62696E504B01021400140006080000DD5D31400000000000000000000000003700000000000000000000000000FF0E00006662782F32343844464445462D304343462D343439342D414438302D3544394346423143413930342F617474726962757465732E62696E504B01021400140006080800DD5D3140D5987DFC8F
311
000000410100003600000000000000000000000000540F00006662782F32343844464445462D304343462D343439342D414438302D3544394346423143413930342F6469726563746F72792E786D6C504B01021400140006080800DD5D3140AC6B6488FD000000A00100003B00000000000000000000000000371000006662
311
782F32343844464445462D304343462D343439342D414438302D3544394346423143413930342F7265736F75726365732F636F72652E786D6C504B0506000000000E000E00800400008D1100000000
310
504B03040A0000080000DD5D31403DEE336E79000000790000001B0000006175746F6465736B2D64657369676E2D7061636B6167652E786D6C3C3F786D6C2076657273696F6E3D22312E302220656E636F64696E673D227574662D3822203F3E3C666F726D6174733E3C666F726D61743E687474703A2F2F736368656D612E
310
6175746F6465736B2E636F6D2F64657369676E2D7061636B6167652F323030393C2F666F726D61743E3C2F666F726D6174733E504B0304140006080800DD5D3140D486FD9CA0000000F4000000130000005B436F6E74656E745F54797065735D2E786D6C7D8EC10E82300C865F65E91D8A1E8C310C0EEA1BF002731658846E
310
D98AC1B77784ABF1D8FE5FBFBF75BBCE937A534CCEB38643598122B6FEE978D0B0485F9C41B54DDD7D022595594E1A469170414C76A4D9A4D207E29CF43ECE46F218070CC6BECC4078ACAA135ACF422C856C0E68EA1BF5669944DDD7BCDE7B1F8E415D77AECB980613C2E4AC91FC167A2B244592486606FC29C8FD7F045B9A
310
EF7053A7E60B504B0304140006080800DD5D3140FF7827E2EA0000007C01000008000000636F72652E786D6C8D904D6EC3201085AF82668F0DAEFF8589A89C9CA0174098B828315806AA1EBF3871A476D7D58CDEBC6F66F4D8E97BB9A32FBD79E3EC00342380B4556E32761E20862B6E019D38DB9C0BBF6C80AC5CF400BB0C
310
9CCD9B8BEB21296783B621A9D64DFA10A5F73A0052F7D40CE0D5A75E642663480E7FCB56A96E72D6197D75098ED14CE879C44C699FB91ABD01AF9BAA1BCFA2C4E2DC095C8E638B3B5235F87229A8A8C57BDB888EE53BCC5930CBEBBEDAB40C7A025E105A6042316D3E28EDCBBAAF5A4CEA9E1096EFF63F505CA77F42D1D8F0
310
561CEF3E310F9CA6471E03CEF23D8B541E41A5BAE7C67F00504B0304140006080800DD5D314055019EA25F0000007C00000007000000636E782E786D6C4DCB3B0E80201045D1AD90E915ED2CF8AC45050C11660C8261F98AB1B07AC9C97D42D718D865D3E909258CFD00CCE24AC6E326A164D74DC0B4128928FF326038472B
310
A13128B1252AC747C6BAB984FC68F0B87FE8960A5C09FE86CFB69FBA01504B0304140006080800DD5D3140096F850E67010000020300000C0000006662782F636F72652E786D6C8D52D18E823010FC95A6EFA5945301536AB8A85F703F50A1728DD09AD2123FFF16C1705E8CB99094666667777680EF6E5D8B06E57A6D4D81
310
591463A44C656B6D9A02077F2619463BC19DB5FE5719464676AAC0238C056F9C0DD719AAACF1CA78408DADD50CCABE571EA3AA854B81FBEA5B753292C143457F89AEB2BAC846452C021AEA04EFBD0303681A329E589C4F374E275CF010743DB3BA8669FAAC95C36293AEF3FDA15C91F2909764B5DF67248FD729391E13566E
310
CACF2C2D734E47B1E05E770F779553D2AB1A8B246609891961E91763DBD566BBCE48BCD9C631A763F993285CEB7F8A8236FE2399ED4EB21E0B0646EEC49F6D21228F7A39801F2A381D4384D73DE1E7A0211008D9CB53FBD8E302D0A02A6FDD0A98DA86851A641B144C8DD1FDE17462A1F3BD016CF6B24FF2A6CFFB1EF001A5
310
69C09AF4703D053F4EE7D3D4398AAB7264F03764ACEB64BB989B2C2EE732E8A5BCB2AD75FF51D379553A8749C7BF57FC00504B0304140006080800DD5D3140C976320E7E0000009D0000000B0000006662782F636E782E786D6C4DCCD10E82201886E15B61FF395921851BE004BB1097E858C8DF085A979F360F3AFAB667DF
310
5ED97E9640DE2EBD3C4605A7C311888B771C7D9C15943C5101A4D53221E6BF1B90382C4EC1C6A0E59CB03C771ADD349490570D3E3E76B4CCDA4EF09E1AD3305A5BCEA8A985A0E7EEC2F8B517B7C670A8B4AC7EA575B7B0FE02504B0304140006080800DD5D31404E8C32242B01000014020000310000006662782F43334343
310
413835442D424239332D344335332D423438382D3241363335374438453942352F636F72652E786D6C8D51CB6EC32010FC15C4293D6083B11D27C244B1D33FE80F38401294182C1E553EBFB876A4F6960B8B66676647BBECF01C1FE05B39AFAD6921C93004CA082BB5B9B630860B6A203870E6AC0D7F68109861542D9C61C8
310
D9D5D938AD90B0262813126AAC542B3878AF0204E2913E2DF4E2A6C6211B62480C7FCFA641DC87ABCA4896DA89C7990F2E0500CB90F985BCA77D7F6CAA13EABA1D45655F51D4954D838A634DABEDA9F9DC7515CB172167316AB9CAB54C71F4452BF7AEC92CE62CE8F1155F38350425212F30291026886CBF08D997F5BE6A10
310
AEF718B37CA6FF13C549BE298ADA045AAC711799879CB07C6970266D3C3F5E61D473B22E8079DEC62BF10139CE70416981CB9AE50B352D2079D6E5EAE9837569C19BFB39B1E96A5C979CE5F38D52F93D60AAF33DF90F504B0304140006080800DD5D31408D60B5CA5501000033030000300000006662782F43334343413835
310
442D424239332D344335332D423438382D3241363335374438453942352F636E782E786D6CBD93CD6EC32010845F0571F70F89EB5A1126520F7D821E7AC5B049686CB00057CDDB7749489A4B0E95AA5E90353BCCAC3E61BEFD9A46F2093E18677BCACA9A12B0CA6963F73D5DE2AEE828D90AEE9D8B77364AAC9CA0A749A682
310
EFBD5BE62C69D8C9658CA88EC61EB3E821B8C52B0828A79B64744A8E1800B65850846900AD41939B11BF76E07115148713890720AF2FEFC40D1FA062E0554A11BC4A1D82A73337DD992851A30CA1A7411D6092A55CA2D3108EA5965196ACBC763DD8E92789A40BD7CAC51B92CA7B9A4E2AF2462572E4150E050FD123BD6C8A
310
A719A890F33C1A252342AECEC68B47F0C5D8D836D96B10BC47F77AD5761D869D678247334176280F3282A66255B35551B3823DBF31B669DACD5357D4EDA6AE7995EC820FCE8DF912C680773351CE46B0910AC6AB347E842FFB88361E593B7FFA054804905B2F746E197FC987B5EBA6F9473ED5F97D232E8F7F81F806504B03
310
04140006080800DD5D3140121CDD4358070000931B0000340000006662782F43334343413835442D424239332D344335332D423438382D3241363335374438453942352F6F626A656374732E786D6CED595B6FA33814FE2B887D0E094DD2695794519AB6A368D599D16467B40F9590030EF1D618649B5EF6D7EFF1050234B4
310
64A7FB36951AC0D8C7E77CE7EA43F0F129A3CE03E682E4ECC2F5BD89EB6016E70961E9855BCAEDE8CC753E8601CF73D998E63A0C65F8C255C36E18A43C2F0B3B94E02D2AA9EC8CDE5CFEE5881833EC3A3145425CB822DEE10C79A8947982C5BD972089BC74FBE4F99E99D8269B7254EC3A440BC43193C0298C33A0E218A6FC
310
F6E3C41D87C158BD0F03F56B674D07CD9AF5CF1A6BA9DB5C12262462F10B963A64A683589AFAB3ABEB93F9F9683E9B4D47B3D3137F7479737935F23F4C27CBD3E5F27C717D0EEC6DF29C5A99125C609680FE9EDDD00FC6EA4D2DBA45E010D771CE188E3590009516AB4B9060015B35E09BB41F7D2551E3B596B0F13C53EF2D
310
0B8DE1699B4ADFAC6140B4E8822076BB4AE2EADA942FDFFC0D828B2146C90596C0AD901CB46BE1E1E0156E3809C666340C367B5D10E16448624E107528D970C4412930554D0903B3C09251CEC18194A324D09A33AFDBB6059EF9B6EB1CE2725B52AA3CC30DB56345E07E580ACD19F907F33DF74D64802790B6244C9E592EE5
310
7381DDF03C18EBC1305097E9897D698074B614A5422362DE76045D2AD75F5DB9E11F379BA7B50A0787372F785E602E95D1293D6ABEC090ED55A164B7F507694E2D00610CA876E51E946F80FC67881E7B56406F9C3CCD9E6676AEE488896DCE33D08D33714613F89938BEFE55F78DBB605C2F6E6BAF0F4F705305D5D9CFE3D9
310
96416365F96FC019060F60F0399FDA57EB1851B0E75BC2002065240ECD610842FB76F3E4862B089C10E86115A2A10F2203BB0F701B8C2D99BD562AF7B25EC70051BBC774889200366D91C0468F9E3E41F6E024DEABA929621FBCF37731D7C5D5FA8F75C9B728C6B7D6A7AFF0963022216B1E66A885794BA27BFCFC98F30404
310
7D89F7BA897766B71280B6C25C019F5620A887FDCEAD0D625897E62ADC046FEC0042A85CDDA07F4B448C29450CE765B56F1DDD94A1D61E6F6B06373C31104F4F3A26CCF10351550538CD7E468B51C8FB31278502D10D3F19C9EAA0E9F548F77DF5192CB29EDF336BC520F43244FFD441EB000E2DCBAE90B640D4026FF6E13C
310
CE69CEA3CD7364229D0BB504B0D1F6961F2DA210EB8D921415F020ED775548498DB45142B6DB52405C3DC0E28FD5B2690E136FEACF9DE66FC71967106DC17711B77ED7D92322194A71B44549DF76CDDD6ADA4293EC21CDF196825CE481C8E708C96892E0F418688E227EFEAED4539A0B41181690AF0E82DF4463E2412031DA
310
AC58565AED004D44946189E8310828323DE0EAB4A36BDC184A87B779ACADF7358D3589FE4F16C111D492398B0894A29043DE64DCF7E61043DAE81A943BF882B555B4B518B48412227E8E1E314977F218D40DF91EDC6338929432CA0B1483590F20FBC25794523BBC6F507CAFF2471497F4BD0C4460BA8D08A56516C13F6170
310
F218E2DA75607A1585067113FB24CEA02843B2E44336399D4F5EEC636A866E086C6CB42514C27694A1A207F55640D4F58853836FA9F7287553664584B2BC64830CC59B76BDC992EFAA55911DC8AF2A15A16CAC085B82614098ACB36A15B3C1D475600537D281EA3912282BA83985BD9178FCDA9B34E5DE0DB8F5D3F7DD2083
310
C2AF477BCD883AAB60B03CB60A03F18864BC73C3B5BE8E2EA1FE4E70B24FF555ADD9AC00013115C94B4EAC8ABEAFA0BCB1359A1BDE2229EE3E99AC5B5DBFAF3CE87E04635803B54BBD70A580CE3093485526B7EA867E4310825B34CCF84AE5D463A82C9244578D88DE903E75B6CA88D6A619F18A1D667906FFEC8EB0989609
310
BE4389B88F6E258DD644B16EA5F4325261FCAA805F3EAD3BF0C0C80091BEAA020F3F76D6DAD1A52A970E1291BB32DB30442008B6444B8D6EBC82A556239596EBAB3A5340DD050666553CFB75B268B6237E9D2C526B183F77B2A0F906D17DB46964F35899F551A7803A3D292AEF710AD05D879A6A9D444C2EB7E25B5F8A2026
310
56417E703156C50C43B08FE3FF9CB4FB92A0D9AEC3FF7149DB7F51701C95545A935593EA40E1BA6AA6B0D39BC5E40CFE468BF3C97C34FB707D3A5ADC5CFAA39BEB0F67D3F96C71B23C9BD5686A3F0D833A96E9D405CF26A655C3EAC962004D59915392C0613E71520C215FC2917E40F79C675840EE6CF6BA13DB931FB0FAC1
310
B43925DA505C71B243D01FA602B23A6054C6B23DEEFC069D4909E7EC0B177A46DE3DFC58AB741D483C172E740A2489B1F036D06552FD3C4D1C32AE4EFD9618E08358AA32A259543FD7AB1436ADE85F4F199205AC5CAD1606D46D0534BF5A0D0ACD9BE5293E4AF08A1D0749B8DD94128A3523CB7EA016466FB357BF918D1276
310
6FB77E02D77D5D2CDFD3735A880CFA62F0AA1118AA238978AADBDD8A31CBD2E2EAEB18DA6CCEEA8B53D032055D0EA734E2188CB954F51458115885A5592009A6BAFCFDEE2BCFE10B4FE6E8A2E86E996759CEECC3028E63097C2172D63BF8DE93DC41D58055575DDC9D4CFC933BDDCDB60DF6688304F6543904035515A144E8
310
181B58E48BCE94ED5B8E95123AD357578E0D9FD0053016F4A2B96BBE6E39E03DEA3B8AF215EDE1959CAF36B4C77A2A5803875674F82F504B0304140006080000DD5D3140000000000000000000000000350000006662782F43334343413835442D424239332D344335332D423438382D3241363335374438453942352F7665
310
7274696365732E62696E504B0304140006080800DD5D3140F270F1330600000004000000360000006662782F43334343413835442D424239332D344335332D423438382D3241363335374438453942352F747269616E676C65732E62696E636660600000504B0304140006080000DD5D314000000000000000000000000037
310
0000006662782F43334343413835442D424239332D344335332D423438382D3241363335374438453942352F617474726962757465732E62696E504B0304140006080800DD5D3140D5987DFC8F00000041010000360000006662782F43334343413835442D424239332D344335332D423438382D3241363335374438453942
310
352F6469726563746F72792E786D6C858F410EC2201045AF4266AF15DDB800BA74E7C21B903225242D6328188F2FA5C4183471359997F9FF81E89FF3C41E1816475E02DF1F80A11FC8386F25A438EECEC07A250251FC3803E6F58C12560C4AD840E95E91C151A72936F496F35732D860FE635F62C8F2DA16B505C545B74125
310
BAA2FA9E05D7CC053D063734D5C7665FD55B6B8D15D5E9BFEAFD8490FFA45E504B0304140006080800DD5D31402016ED5AFD000000A00100003B0000006662782F43334343413835442D424239332D344335332D423438382D3241363335374438453942352F7265736F75726365732F636F72652E786D6C8D50596E833010
310
BD0A9A7F834DC2161947542427E8052C3349AD041B79A97AFC9A40A5F6AF3F33A3B7689E1E3F7FCDCFEC139DD7D6F4C0720A191A65276DEE3DC470232D6467C19DB5E1970C322367EC618541F0BBB371D921654D4013126AEC843B28BDC700997AA6A307AF3E7096B98C2129FC235FA47AC83BE62C4F74D209EE834B01B2ED
310
C93A4138F4363A859E171B2B788C7ADA357A4A3FF54DA303513755375E8603192EDD408EE3D8928E560DB95E4B36D4C35BDB0C1D2F56B3E041CF3F19954319700251525612CA086BDE193B1DEB53D5125A9F28E5C52AFF638ACBF44F53D4261CCA3DEE66F320580AF222042FD6BED27A9599F6DAADF806504B010214000A00
310
00080000DD5D31403DEE336E79000000790000001B00000000000000000000000000000000006175746F6465736B2D64657369676E2D7061636B6167652E786D6C504B01021400140006080800DD5D3140D486FD9CA0000000F40000001300000000000000000000000000B20000005B436F6E74656E745F54797065735D2E
310
786D6C504B01021400140006080800DD5D3140FF7827E2EA0000007C010000080000000000000000000000000083010000636F72652E786D6C504B01021400140006080800DD5D314055019EA25F0000007C000000070000000000000000000000000093020000636E782E786D6C504B01021400140006080800DD5D314009
310
6F850E67010000020300000C00000000000000000000000000170300006662782F636F72652E786D6C504B01021400140006080800DD5D3140C976320E7E0000009D0000000B00000000000000000000000000A80400006662782F636E782E786D6C504B01021400140006080800DD5D31404E8C32242B0100001402000031
310
000000000000000000000000004F0500006662782F43334343413835442D424239332D344335332D423438382D3241363335374438453942352F636F72652E786D6C504B01021400140006080800DD5D31408D60B5CA55010000330300003000000000000000000000000000C90600006662782F43334343413835442D4242
310
39332D344335332D423438382D3241363335374438453942352F636E782E786D6C504B01021400140006080800DD5D3140121CDD4358070000931B000034000000000000000000000000006C0800006662782F43334343413835442D424239332D344335332D423438382D3241363335374438453942352F6F626A65637473
310
2E786D6C504B01021400140006080000DD5D31400000000000000000000000003500000000000000000000000000161000006662782F43334343413835442D424239332D344335332D423438382D3241363335374438453942352F76657274696365732E62696E504B01021400140006080800DD5D3140F270F13306000000
310
040000003600000000000000000000000000691000006662782F43334343413835442D424239332D344335332D423438382D3241363335374438453942352F747269616E676C65732E62696E504B01021400140006080000DD5D31400000000000000000000000003700000000000000000000000000C31000006662782F43
310
334343413835442D424239332D344335332D423438382D3241363335374438453942352F617474726962757465732E62696E504B01021400140006080800DD5D3140D5987DFC8F000000410100003600000000000000000000000000181100006662782F43334343413835442D424239332D344335332D423438382D324136
310
3335374438453942352F6469726563746F72792E786D6C504B01021400140006080800DD5D31402016ED5AFD000000A00100003B00000000000000000000000000FB1100006662782F43334343413835442D424239332D344335332D423438382D3241363335374438453942352F7265736F75726365732F636F72652E786D
310
6C504B0506000000000E000E0080040000511300000000
  0
XRECORD
  5
27
102
{ACAD_REACTORS
330
22
102
}
330
22
100
AcDbXrecord
280
     1
270
     1
271
     1
  0
XRECORD
  5
26
102
{ACAD_REACTORS
330
22
102
}
330
22
100
AcDbXrecord
280
     1
270
     1
271
     1
  0
XRECORD
  5
28
102
{ACAD_REACTORS
330
22
102
}
330
22
100
AcDbXrecord
280
     1
270
     1
271
     1
  0
XRECORD
  5
25
102
{ACAD_REACTORS
330
22
102
}
330
22
100
AcDbXrecord
280
     1
270
     1
271
     1
  0
XRECORD
  5
E2C
102
{ACAD_REACTORS
330
E2B
102
}
330
E2B
100
AcDbXrecord
280
     1
102
ACAD_ROUNDTRIP_2012_MLEADER_STYLE
298
     1
  0
CELLSTYLEMAP
  5
E2A
102
{ACAD_REACTORS
330
E29
102
}
330
E29
100
AcDbCellStyleMap
 90
        3
300
CELLSTYLE
  1
TABLEFORMAT_BEGIN
 90
        5
170
     1
 91
        0
 92
    32768
 62
   257
 93
        1
300
CONTENTFORMAT
  1
CONTENTFORMAT_BEGIN
 90
        0
 91
        0
 92
      512
 93
        0
300

 40
0.0
140
1.0
 94
        5
 62
     0
340
55
144
0.25
309
CONTENTFORMAT_END
171
     0
 94
        0
309
TABLEFORMAT_END
  1
CELLSTYLE_BEGIN
 90
        1
 91
        1
300
_TITLE
309
CELLSTYLE_END
300
CELLSTYLE
  1
TABLEFORMAT_BEGIN
 90
        5
170
     1
 91
        0
 92
        0
 62
   257
 93
        1
300
CONTENTFORMAT
  1
CONTENTFORMAT_BEGIN
 90
        0
 91
        0
 92
      512
 93
        0
300

 40
0.0
140
1.0
 94
        5
 62
     0
340
55
144
0.18
309
CONTENTFORMAT_END
171
     0
 94
        0
309
TABLEFORMAT_END
  1
CELLSTYLE_BEGIN
 90
        2
 91
        1
300
_HEADER
309
CELLSTYLE_END
300
CELLSTYLE
  1
TABLEFORMAT_BEGIN
 90
        5
170
     1
 91
        0
 92
        0
 62
   257
 93
        1
300
CONTENTFORMAT
  1
CONTENTFORMAT_BEGIN
 90
        0
 91
        0
 92
      512
 93
        0
300

 40
0.0
140
1.0
 94
        2
 62
     0
340
55
144
0.18
309
CONTENTFORMAT_END
171
     0
 94
        0
309
TABLEFORMAT_END
  1
CELLSTYLE_BEGIN
 90
        3
 91
        2
300
_DATA
309
CELLSTYLE_END
  0
XRECORD
  5
E63
102
{ACAD_REACTORS
330
E29
102
}
330
E29
100
AcDbXrecord
280
     1
102
ACAD_ROUNDTRIP_PRE2007_TABLESTYLE
 90
      512
 91
        0
  1

 92
      512
 93
        0
  2

 94
      512
 95
        0
  3

  0
XRECORD
  5
E3E
102
{ACAD_REACTORS
330
E3D
102
}
330
E3D
100
AcDbXrecord
280
     1
102
RTVSPropertyOp0
 70
     1
102
RTVSPropertyOp1
 70
     1
102
RTVSPropertyOp2
 70
     1
102
RTVSPropertyOp3
 70
     1
102
RTVSPropertyOp4
 70
     1
102
RTVSPropertyOp5
 70
     1
102
RTVSPropertyOp6
 70
     1
102
RTVSPropertyOp7
 70
     1
102
RTVSPropertyOp8
 70
     1
102
RTVSPropertyOp9
 70
     1
102
RTVSPropertyOp10
 70
     1
102
RTVSPropertyOp11
 70
     1
102
RTVSPropertyOp12
 70
     1
102
RTVSPropertyOp13
 70
     1
102
RTVSPropertyOp14
 70
     1
102
RTVSPropertyOp15
 70
     1
102
RTVSPropertyOp16
 70
     1
102
RTVSPropertyOp17
 70
     1
102
RTVSPropertyOp18
 70
     1
102
RTVSPropertyOp19
 70
     1
102
RTVSPropertyOp20
 70
     1
102
RTVSPropertyOp21
 70
     1
102
RTVSPropertyOp22
 70
     1
102
RTVSPropertyOp23
 70
     1
102
RTVSPropertyOp24
 70
     1
102
RTVSPropertyOp25
 70
     1
102
RTVSPropertyOp26
 70
     1
102
RTVSPropertyOp27
 70
     1
102
RTVSPropertyOp28
 70
     1
102
RTVSPropertyOp29
 70
     1
102
RTVSPropertyOp30
 70
     1
102
RTVSPropertyOp31
 70
     1
102
RTVSPropertyOp32
 70
     1
  0
XRECORD
  5
E3C
102
{ACAD_REACTORS
330
E3B
102
}
330
E3B
100
AcDbXrecord
280
     1
102
RTVSPropertyOp0
 70
     1
102
RTVSPropertyOp1
 70
     1
102
RTVSPropertyOp2
 70
     1
102
RTVSPropertyOp3
 70
     1
102
RTVSPropertyOp4
 70
     1
102
RTVSPropertyOp5
 70
     1
102
RTVSPropertyOp6
 70
     1
102
RTVSPropertyOp7
 70
     1
102
RTVSPropertyOp8
 70
     1
102
RTVSPropertyOp9
 70
     1
102
RTVSPropertyOp10
 70
     1
102
RTVSPropertyOp11
 70
     1
102
RTVSPropertyOp12
 70
     1
102
RTVSPropertyOp13
 70
     1
102
RTVSPropertyOp14
 70
     1
102
RTVSPropertyOp15
 70
     1
102
RTVSPropertyOp16
 70
     1
102
RTVSPropertyOp17
 70
     1
102
RTVSPropertyOp18
 70
     1
102
RTVSPropertyOp19
 70
     1
102
RTVSPropertyOp20
 70
     1
102
RTVSPropertyOp21
 70
     1
102
RTVSPropertyOp22
 70
     1
102
RTVSPropertyOp23
 70
     1
102
RTVSPropertyOp24
 70
     1
102
RTVSPropertyOp25
 70
     1
102
RTVSPropertyOp26
 70
     1
102
RTVSPropertyOp27
 70
     1
102
RTVSPropertyOp28
 70
     1
102
RTVSPropertyOp29
 70
     1
102
RTVSPropertyOp30
 70
     1
102
RTVSPropertyOp31
 70
     1
102
RTVSPropertyOp32
 70
     1
  0
XRECORD
  5
E4A
102
{ACAD_REACTORS
330
E49
102
}
330
E49
100
AcDbXrecord
280
     1
102
RTVSPropertyOp0
 70
     1
102
RTVSPropertyOp1
 70
     1
102
RTVSPropertyOp2
 70
     1
102
RTVSPropertyOp3
 70
     1
102
RTVSPropertyOp4
 70
     1
102
RTVSPropertyOp5
 70
     1
102
RTVSPropertyOp6
 70
     1
102
RTVSPropertyOp7
 70
     1
102
RTVSPropertyOp8
 70
     1
102
RTVSPropertyOp9
 70
     1
102
RTVSPropertyOp10
 70
     1
102
RTVSPropertyOp11
 70
     1
102
RTVSPropertyOp12
 70
     1
102
RTVSPropertyOp13
 70
     1
102
RTVSPropertyOp14
 70
     1
102
RTVSPropertyOp15
 70
     1
102
RTVSPropertyOp16
 70
     1
102
RTVSPropertyOp17
 70
     1
102
RTVSPropertyOp18
 70
     1
102
RTVSPropertyOp19
 70
     1
102
RTVSPropertyOp20
 70
     1
102
RTVSPropertyOp21
 70
     1
102
RTVSPropertyOp22
 70
     1
102
RTVSPropertyOp23
 70
     1
102
RTVSPropertyOp24
 70
     1
102
RTVSPropertyOp25
 70
     1
102
RTVSPropertyOp26
 70
     1
102
RTVSPropertyOp27
 70
     1
102
RTVSPropertyOp28
 70
     1
102
RTVSPropertyOp29
 70
     1
102
RTVSPropertyOp30
 70
     1
102
RTVSPropertyOp31
 70
     1
102
RTVSPropertyOp32
 70
     1
  0
XRECORD
  5
E52
102
{ACAD_REACTORS
330
E51
102
}
330
E51
100
AcDbXrecord
280
     1
102
RTVSPropertyOp0
 70
     1
102
RTVSPropertyOp1
 70
     1
102
RTVSPropertyOp2
 70
     1
102
RTVSPropertyOp3
 70
     1
102
RTVSPropertyOp4
 70
     1
102
RTVSPropertyOp5
 70
     1
102
RTVSPropertyOp6
 70
     1
102
RTVSPropertyOp7
 70
     1
102
RTVSPropertyOp8
 70
     1
102
RTVSPropertyOp9
 70
     1
102
RTVSPropertyOp10
 70
     1
102
RTVSPropertyOp11
 70
     1
102
RTVSPropertyOp12
 70
     1
102
RTVSPropertyOp13
 70
     1
102
RTVSPropertyOp14
 70
     1
102
RTVSPropertyOp15
 70
     1
102
RTVSPropertyOp16
 70
     1
102
RTVSPropertyOp17
 70
     1
102
RTVSPropertyOp18
 70
     1
102
RTVSPropertyOp19
 70
     1
102
RTVSPropertyOp20
 70
     1
102
RTVSPropertyOp21
 70
     1
102
RTVSPropertyOp22
 70
     1
102
RTVSPropertyOp23
 70
     1
102
RTVSPropertyOp24
 70
     1
102
RTVSPropertyOp25
 70
     1
102
RTVSPropertyOp26
 70
     1
102
RTVSPropertyOp27
 70
     1
102
RTVSPropertyOp28
 70
     1
102
RTVSPropertyOp29
 70
     1
102
RTVSPropertyOp30
 70
     1
102
RTVSPropertyOp31
 70
     1
102
RTVSPropertyOp32
 70
     1
  0
XRECORD
  5
E44
102
{ACAD_REACTORS
330
E43
102
}
330
E43
100
AcDbXrecord
280
     1
102
RTVSPropertyOp0
 70
     1
102
RTVSPropertyOp1
 70
     1
102
RTVSPropertyOp2
 70
     1
102
RTVSPropertyOp3
 70
     1
102
RTVSPropertyOp4
 70
     1
102
RTVSPropertyOp5
 70
     1
102
RTVSPropertyOp6
 70
     1
102
RTVSPropertyOp7
 70
     1
102
RTVSPropertyOp8
 70
     1
102
RTVSPropertyOp9
 70
     1
102
RTVSPropertyOp10
 70
     1
102
RTVSPropertyOp11
 70
     1
102
RTVSPropertyOp12
 70
     1
102
RTVSPropertyOp13
 70
     1
102
RTVSPropertyOp14
 70
     1
102
RTVSPropertyOp15
 70
     1
102
RTVSPropertyOp16
 70
     1
102
RTVSPropertyOp17
 70
     1
102
RTVSPropertyOp18
 70
     1
102
RTVSPropertyOp19
 70
     1
102
RTVSPropertyOp20
 70
     1
102
RTVSPropertyOp21
 70
     1
102
RTVSPropertyOp22
 70
     1
102
RTVSPropertyOp23
 70
     1
102
RTVSPropertyOp24
 70
     1
102
RTVSPropertyOp25
 70
     1
102
RTVSPropertyOp26
 70
     1
102
RTVSPropertyOp27
 70
     1
102
RTVSPropertyOp28
 70
     1
102
RTVSPropertyOp29
 70
     1
102
RTVSPropertyOp30
 70
     1
102
RTVSPropertyOp31
 70
     1
102
RTVSPropertyOp32
 70
     1
  0
XRECORD
  5
E48
102
{ACAD_REACTORS
330
E47
102
}
330
E47
100
AcDbXrecord
280
     1
102
RTVSPropertyOp0
 70
     1
102
RTVSPropertyOp1
 70
     1
102
RTVSPropertyOp2
 70
     1
102
RTVSPropertyOp3
 70
     1
102
RTVSPropertyOp4
 70
     1
102
RTVSPropertyOp5
 70
     1
102
RTVSPropertyOp6
 70
     1
102
RTVSPropertyOp7
 70
     1
102
RTVSPropertyOp8
 70
     1
102
RTVSPropertyOp9
 70
     1
102
RTVSPropertyOp10
 70
     1
102
RTVSPropertyOp11
 70
     1
102
RTVSPropertyOp12
 70
     1
102
RTVSPropertyOp13
 70
     1
102
RTVSPropertyOp14
 70
     1
102
RTVSPropertyOp15
 70
     1
102
RTVSPropertyOp16
 70
     1
102
RTVSPropertyOp17
 70
     1
102
RTVSPropertyOp18
 70
     1
102
RTVSPropertyOp19
 70
     1
102
RTVSPropertyOp20
 70
     1
102
RTVSPropertyOp21
 70
     1
102
RTVSPropertyOp22
 70
     1
102
RTVSPropertyOp23
 70
     1
102
RTVSPropertyOp24
 70
     1
102
RTVSPropertyOp25
 70
     1
102
RTVSPropertyOp26
 70
     1
102
RTVSPropertyOp27
 70
     1
102
RTVSPropertyOp28
 70
     1
102
RTVSPropertyOp29
 70
     1
102
RTVSPropertyOp30
 70
     1
102
RTVSPropertyOp31
 70
     1
102
RTVSPropertyOp32
 70
     1
  0
XRECORD
  5
E62
102
{ACAD_REACTORS
330
E61
102
}
330
E61
100
AcDbXrecord
280
     1
102
RTVSPropertyOp0
 70
     0
102
RTVSPropertyOp1
 70
     0
102
RTVSPropertyOp2
 70
     0
102
RTVSPropertyOp3
 70
     0
102
RTVSPropertyOp4
 70
     0
102
RTVSPropertyOp5
 70
     0
102
RTVSPropertyOp6
 70
     0
102
RTVSPropertyOp7
 70
     0
102
RTVSPropertyOp8
 70
     0
102
RTVSPropertyOp9
 70
     0
102
RTVSPropertyOp10
 70
     0
102
RTVSPropertyOp11
 70
     0
102
RTVSPropertyOp12
 70
     0
102
RTVSPropertyOp13
 70
     0
102
RTVSPropertyOp14
 70
     2
102
RTVSPropertyOp15
 70
     0
102
RTVSPropertyOp16
 70
     0
102
RTVSPropertyOp17
 70
     0
102
RTVSPropertyOp18
 70
     0
102
RTVSPropertyOp19
 70
     0
102
RTVSPropertyOp20
 70
     0
102
RTVSPropertyOp21
 70
     0
102
RTVSPropertyOp22
 70
     0
102
RTVSPropertyOp23
 70
     0
102
RTVSPropertyOp24
 70
     0
102
RTVSPropertyOp25
 70
     0
102
RTVSPropertyOp26
 70
     0
102
RTVSPropertyOp27
 70
     0
102
RTVSPropertyOp28
 70
     1
102
RTVSPropertyOp29
 70
     1
102
RTVSPropertyOp30
 70
     1
102
RTVSPropertyOp31
 70
     1
102
RTVSPropertyOp32
 70
     1
  0
XRECORD
  5
E50
102
{ACAD_REACTORS
330
E4F
102
}
330
E4F
100
AcDbXrecord
280
     1
102
RTVSPropertyOp0
 70
     1
102
RTVSPropertyOp1
 70
     1
102
RTVSPropertyOp2
 70
     1
102
RTVSPropertyOp3
 70
     1
102
RTVSPropertyOp4
 70
     1
102
RTVSPropertyOp5
 70
     1
102
RTVSPropertyOp6
 70
     1
102
RTVSPropertyOp7
 70
     1
102
RTVSPropertyOp8
 70
     1
102
RTVSPropertyOp9
 70
     1
102
RTVSPropertyOp10
 70
     1
102
RTVSPropertyOp11
 70
     1
102
RTVSPropertyOp12
 70
     1
102
RTVSPropertyOp13
 70
     1
102
RTVSPropertyOp14
 70
     1
102
RTVSPropertyOp15
 70
     1
102
RTVSPropertyOp16
 70
     1
102
RTVSPropertyOp17
 70
     1
102
RTVSPropertyOp18
 70
     1
102
RTVSPropertyOp19
 70
     1
102
RTVSPropertyOp20
 70
     1
102
RTVSPropertyOp21
 70
     1
102
RTVSPropertyOp22
 70
     1
102
RTVSPropertyOp23
 70
     1
102
RTVSPropertyOp24
 70
     1
102
RTVSPropertyOp25
 70
     1
102
RTVSPropertyOp26
 70
     1
102
RTVSPropertyOp27
 70
     1
102
RTVSPropertyOp28
 70
     1
102
RTVSPropertyOp29
 70
     1
102
RTVSPropertyOp30
 70
     1
102
RTVSPropertyOp31
 70
     1
102
RTVSPropertyOp32
 70
     1
  0
XRECORD
  5
E34
102
{ACAD_REACTORS
330
E33
102
}
330
E33
100
AcDbXrecord
280
     1
102
RTVSPropertyOp0
 70
     1
102
RTVSPropertyOp1
 70
     1
102
RTVSPropertyOp2
 70
     1
102
RTVSPropertyOp3
 70
     1
102
RTVSPropertyOp4
 70
     1
102
RTVSPropertyOp5
 70
     1
102
RTVSPropertyOp6
 70
     1
102
RTVSPropertyOp7
 70
     1
102
RTVSPropertyOp8
 70
     1
102
RTVSPropertyOp9
 70
     1
102
RTVSPropertyOp10
 70
     1
102
RTVSPropertyOp11
 70
     1
102
RTVSPropertyOp12
 70
     1
102
RTVSPropertyOp13
 70
     1
102
RTVSPropertyOp14
 70
     1
102
RTVSPropertyOp15
 70
     1
102
RTVSPropertyOp16
 70
     1
102
RTVSPropertyOp17
 70
     1
102
RTVSPropertyOp18
 70
     1
102
RTVSPropertyOp19
 70
     1
102
RTVSPropertyOp20
 70
     1
102
RTVSPropertyOp21
 70
     1
102
RTVSPropertyOp22
 70
     1
102
RTVSPropertyOp23
 70
     1
102
RTVSPropertyOp24
 70
     1
102
RTVSPropertyOp25
 70
     1
102
RTVSPropertyOp26
 70
     1
102
RTVSPropertyOp27
 70
     1
102
RTVSPropertyOp28
 70
     1
102
RTVSPropertyOp29
 70
     1
102
RTVSPropertyOp30
 70
     1
102
RTVSPropertyOp31
 70
     1
102
RTVSPropertyOp32
 70
     1
  0
XRECORD
  5
E36
102
{ACAD_REACTORS
330
E35
102
}
330
E35
100
AcDbXrecord
280
     1
102
RTVSPropertyOp0
 70
     1
102
RTVSPropertyOp1
 70
     1
102
RTVSPropertyOp2
 70
     1
102
RTVSPropertyOp3
 70
     1
102
RTVSPropertyOp4
 70
     1
102
RTVSPropertyOp5
 70
     1
102
RTVSPropertyOp6
 70
     1
102
RTVSPropertyOp7
 70
     1
102
RTVSPropertyOp8
 70
     1
102
RTVSPropertyOp9
 70
     1
102
RTVSPropertyOp10
 70
     1
102
RTVSPropertyOp11
 70
     1
102
RTVSPropertyOp12
 70
     1
102
RTVSPropertyOp13
 70
     1
102
RTVSPropertyOp14
 70
     1
102
RTVSPropertyOp15
 70
     1
102
RTVSPropertyOp16
 70
     1
102
RTVSPropertyOp17
 70
     1
102
RTVSPropertyOp18
 70
     1
102
RTVSPropertyOp19
 70
     1
102
RTVSPropertyOp20
 70
     1
102
RTVSPropertyOp21
 70
     1
102
RTVSPropertyOp22
 70
     1
102
RTVSPropertyOp23
 70
     1
102
RTVSPropertyOp24
 70
     1
102
RTVSPropertyOp25
 70
     1
102
RTVSPropertyOp26
 70
     1
102
RTVSPropertyOp27
 70
     1
102
RTVSPropertyOp28
 70
     1
102
RTVSPropertyOp29
 70
     1
102
RTVSPropertyOp30
 70
     1
102
RTVSPropertyOp31
 70
     1
102
RTVSPropertyOp32
 70
     1
  0
XRECORD
  5
E38
102
{ACAD_REACTORS
330
E37
102
}
330
E37
100
AcDbXrecord
280
     1
102
RTVSPropertyOp0
 70
     1
102
RTVSPropertyOp1
 70
     1
102
RTVSPropertyOp2
 70
     1
102
RTVSPropertyOp3
 70
     1
102
RTVSPropertyOp4
 70
     1
102
RTVSPropertyOp5
 70
     1
102
RTVSPropertyOp6
 70
     1
102
RTVSPropertyOp7
 70
     1
102
RTVSPropertyOp8
 70
     1
102
RTVSPropertyOp9
 70
     1
102
RTVSPropertyOp10
 70
     1
102
RTVSPropertyOp11
 70
     1
102
RTVSPropertyOp12
 70
     1
102
RTVSPropertyOp13
 70
     1
102
RTVSPropertyOp14
 70
     1
102
RTVSPropertyOp15
 70
     1
102
RTVSPropertyOp16
 70
     1
102
RTVSPropertyOp17
 70
     1
102
RTVSPropertyOp18
 70
     1
102
RTVSPropertyOp19
 70
     1
102
RTVSPropertyOp20
 70
     1
102
RTVSPropertyOp21
 70
     1
102
RTVSPropertyOp22
 70
     1
102
RTVSPropertyOp23
 70
     1
102
RTVSPropertyOp24
 70
     1
102
RTVSPropertyOp25
 70
     1
102
RTVSPropertyOp26
 70
     1
102
RTVSPropertyOp27
 70
     1
102
RTVSPropertyOp28
 70
     1
102
RTVSPropertyOp29
 70
     1
102
RTVSPropertyOp30
 70
     1
102
RTVSPropertyOp31
 70
     1
102
RTVSPropertyOp32
 70
     1
  0
XRECORD
  5
E3A
102
{ACAD_REACTORS
330
E39
102
}
330
E39
100
AcDbXrecord
280
     1
102
RTVSPropertyOp0
 70
     1
102
RTVSPropertyOp1
 70
     1
102
RTVSPropertyOp2
 70
     1
102
RTVSPropertyOp3
 70
     1
102
RTVSPropertyOp4
 70
     1
102
RTVSPropertyOp5
 70
     1
102
RTVSPropertyOp6
 70
     1
102
RTVSPropertyOp7
 70
     1
102
RTVSPropertyOp8
 70
     1
102
RTVSPropertyOp9
 70
     1
102
RTVSPropertyOp10
 70
     1
102
RTVSPropertyOp11
 70
     1
102
RTVSPropertyOp12
 70
     1
102
RTVSPropertyOp13
 70
     1
102
RTVSPropertyOp14
 70
     1
102
RTVSPropertyOp15
 70
     1
102
RTVSPropertyOp16
 70
     1
102
RTVSPropertyOp17
 70
     1
102
RTVSPropertyOp18
 70
     1
102
RTVSPropertyOp19
 70
     1
102
RTVSPropertyOp20
 70
     1
102
RTVSPropertyOp21
 70
     1
102
RTVSPropertyOp22
 70
     1
102
RTVSPropertyOp23
 70
     1
102
RTVSPropertyOp24
 70
     1
102
RTVSPropertyOp25
 70
     1
102
RTVSPropertyOp26
 70
     1
102
RTVSPropertyOp27
 70
     1
102
RTVSPropertyOp28
 70
     1
102
RTVSPropertyOp29
 70
     1
102
RTVSPropertyOp30
 70
     1
102
RTVSPropertyOp31
 70
     1
102
RTVSPropertyOp32
 70
     1
  0
XRECORD
  5
E42
102
{ACAD_REACTORS
330
E41
102
}
330
E41
100
AcDbXrecord
280
     1
102
RTVSPropertyOp0
 70
     1
102
RTVSPropertyOp1
 70
     1
102
RTVSPropertyOp2
 70
     1
102
RTVSPropertyOp3
 70
     1
102
RTVSPropertyOp4
 70
     1
102
RTVSPropertyOp5
 70
     1
102
RTVSPropertyOp6
 70
     1
102
RTVSPropertyOp7
 70
     1
102
RTVSPropertyOp8
 70
     1
102
RTVSPropertyOp9
 70
     1
102
RTVSPropertyOp10
 70
     1
102
RTVSPropertyOp11
 70
     1
102
RTVSPropertyOp12
 70
     1
102
RTVSPropertyOp13
 70
     1
102
RTVSPropertyOp14
 70
     1
102
RTVSPropertyOp15
 70
     1
102
RTVSPropertyOp16
 70
     1
102
RTVSPropertyOp17
 70
     1
102
RTVSPropertyOp18
 70
     1
102
RTVSPropertyOp19
 70
     1
102
RTVSPropertyOp20
 70
     1
102
RTVSPropertyOp21
 70
     1
102
RTVSPropertyOp22
 70
     1
102
RTVSPropertyOp23
 70
     1
102
RTVSPropertyOp24
 70
     1
102
RTVSPropertyOp25
 70
     1
102
RTVSPropertyOp26
 70
     1
102
RTVSPropertyOp27
 70
     1
102
RTVSPropertyOp28
 70
     1
102
RTVSPropertyOp29
 70
     1
102
RTVSPropertyOp30
 70
     1
102
RTVSPropertyOp31
 70
     1
102
RTVSPropertyOp32
 70
     1
  0
XRECORD
  5
E5E
102
{ACAD_REACTORS
330
E5D
102
}
330
E5D
100
AcDbXrecord
280
     1
102
RTVSPropertyOp0
 70
     0
102
RTVSPropertyOp1
 70
     0
102
RTVSPropertyOp2
 70
     0
102
RTVSPropertyOp3
 70
     0
102
RTVSPropertyOp4
 70
     0
102
RTVSPropertyOp5
 70
     0
102
RTVSPropertyOp6
 70
     0
102
RTVSPropertyOp7
 70
     0
102
RTVSPropertyOp8
 70
     0
102
RTVSPropertyOp9
 70
     0
102
RTVSPropertyOp10
 70
     0
102
RTVSPropertyOp11
 70
     0
102
RTVSPropertyOp12
 70
     0
102
RTVSPropertyOp13
 70
     0
102
RTVSPropertyOp14
 70
     2
102
RTVSPropertyOp15
 70
     0
102
RTVSPropertyOp16
 70
     0
102
RTVSPropertyOp17
 70
     0
102
RTVSPropertyOp18
 70
     0
102
RTVSPropertyOp19
 70
     0
102
RTVSPropertyOp20
 70
     0
102
RTVSPropertyOp21
 70
     0
102
RTVSPropertyOp22
 70
     0
102
RTVSPropertyOp23
 70
     0
102
RTVSPropertyOp24
 70
     0
102
RTVSPropertyOp25
 70
     0
102
RTVSPropertyOp26
 70
     0
102
RTVSPropertyOp27
 70
     0
102
RTVSPropertyOp28
 70
     1
102
RTVSPropertyOp29
 70
     1
102
RTVSPropertyOp30
 70
     1
102
RTVSPropertyOp31
 70
     1
102
RTVSPropertyOp32
 70
     1
  0
XRECORD
  5
E4E
102
{ACAD_REACTORS
330
E4D
102
}
330
E4D
100
AcDbXrecord
280
     1
102
RTVSPropertyOp0
 70
     1
102
RTVSPropertyOp1
 70
     1
102
RTVSPropertyOp2
 70
     1
102
RTVSPropertyOp3
 70
     1
102
RTVSPropertyOp4
 70
     1
102
RTVSPropertyOp5
 70
     1
102
RTVSPropertyOp6
 70
     1
102
RTVSPropertyOp7
 70
     1
102
RTVSPropertyOp8
 70
     1
102
RTVSPropertyOp9
 70
     1
102
RTVSPropertyOp10
 70
     1
102
RTVSPropertyOp11
 70
     1
102
RTVSPropertyOp12
 70
     1
102
RTVSPropertyOp13
 70
     1
102
RTVSPropertyOp14
 70
     1
102
RTVSPropertyOp15
 70
     1
102
RTVSPropertyOp16
 70
     1
102
RTVSPropertyOp17
 70
     1
102
RTVSPropertyOp18
 70
     1
102
RTVSPropertyOp19
 70
     1
102
RTVSPropertyOp20
 70
     1
102
RTVSPropertyOp21
 70
     1
102
RTVSPropertyOp22
 70
     1
102
RTVSPropertyOp23
 70
     1
102
RTVSPropertyOp24
 70
     1
102
RTVSPropertyOp25
 70
     1
102
RTVSPropertyOp26
 70
     1
102
RTVSPropertyOp27
 70
     1
102
RTVSPropertyOp28
 70
     1
102
RTVSPropertyOp29
 70
     1
102
RTVSPropertyOp30
 70
     1
102
RTVSPropertyOp31
 70
     1
102
RTVSPropertyOp32
 70
     1
  0
XRECORD
  5
E60
102
{ACAD_REACTORS
330
E5F
102
}
330
E5F
100
AcDbXrecord
280
     1
102
RTVSPropertyOp0
 70
     0
102
RTVSPropertyOp1
 70
     0
102
RTVSPropertyOp2
 70
     0
102
RTVSPropertyOp3
 70
     0
102
RTVSPropertyOp4
 70
     0
102
RTVSPropertyOp5
 70
     0
102
RTVSPropertyOp6
 70
     0
102
RTVSPropertyOp7
 70
     0
102
RTVSPropertyOp8
 70
     0
102
RTVSPropertyOp9
 70
     0
102
RTVSPropertyOp10
 70
     0
102
RTVSPropertyOp11
 70
     0
102
RTVSPropertyOp12
 70
     0
102
RTVSPropertyOp13
 70
     0
102
RTVSPropertyOp14
 70
     2
102
RTVSPropertyOp15
 70
     0
102
RTVSPropertyOp16
 70
     0
102
RTVSPropertyOp17
 70
     0
102
RTVSPropertyOp18
 70
     0
102
RTVSPropertyOp19
 70
     0
102
RTVSPropertyOp20
 70
     0
102
RTVSPropertyOp21
 70
     0
102
RTVSPropertyOp22
 70
     0
102
RTVSPropertyOp23
 70
     0
102
RTVSPropertyOp24
 70
     0
102
RTVSPropertyOp25
 70
     0
102
RTVSPropertyOp26
 70
     0
102
RTVSPropertyOp27
 70
     0
102
RTVSPropertyOp28
 70
     1
102
RTVSPropertyOp29
 70
     1
102
RTVSPropertyOp30
 70
     1
102
RTVSPropertyOp31
 70
     1
102
RTVSPropertyOp32
 70
     1
  0
XRECORD
  5
E46
102
{ACAD_REACTORS
330
E45
102
}
330
E45
100
AcDbXrecord
280
     1
102
RTVSPropertyOp0
 70
     1
102
RTVSPropertyOp1
 70
     1
102
RTVSPropertyOp2
 70
     1
102
RTVSPropertyOp3
 70
     1
102
RTVSPropertyOp4
 70
     1
102
RTVSPropertyOp5
 70
     1
102
RTVSPropertyOp6
 70
     1
102
RTVSPropertyOp7
 70
     1
102
RTVSPropertyOp8
 70
     1
102
RTVSPropertyOp9
 70
     1
102
RTVSPropertyOp10
 70
     1
102
RTVSPropertyOp11
 70
     1
102
RTVSPropertyOp12
 70
     1
102
RTVSPropertyOp13
 70
     1
102
RTVSPropertyOp14
 70
     1
102
RTVSPropertyOp15
 70
     1
102
RTVSPropertyOp16
 70
     1
102
RTVSPropertyOp17
 70
     1
102
RTVSPropertyOp18
 70
     1
102
RTVSPropertyOp19
 70
     1
102
RTVSPropertyOp20
 70
     1
102
RTVSPropertyOp21
 70
     1
102
RTVSPropertyOp22
 70
     1
102
RTVSPropertyOp23
 70
     1
102
RTVSPropertyOp24
 70
     1
102
RTVSPropertyOp25
 70
     1
102
RTVSPropertyOp26
 70
     1
102
RTVSPropertyOp27
 70
     1
102
RTVSPropertyOp28
 70
     1
102
RTVSPropertyOp29
 70
     1
102
RTVSPropertyOp30
 70
     1
102
RTVSPropertyOp31
 70
     1
102
RTVSPropertyOp32
 70
     1
  0
XRECORD
  5
E5C
102
{ACAD_REACTORS
330
E5B
102
}
330
E5B
100
AcDbXrecord
280
     1
102
RTVSPropertyOp0
 70
     1
102
RTVSPropertyOp1
 70
     1
102
RTVSPropertyOp2
 70
     1
102
RTVSPropertyOp3
 70
     1
102
RTVSPropertyOp4
 70
     1
102
RTVSPropertyOp5
 70
     1
102
RTVSPropertyOp6
 70
     1
102
RTVSPropertyOp7
 70
     1
102
RTVSPropertyOp8
 70
     1
102
RTVSPropertyOp9
 70
     1
102
RTVSPropertyOp10
 70
     1
102
RTVSPropertyOp11
 70
     1
102
RTVSPropertyOp12
 70
     1
102
RTVSPropertyOp13
 70
     1
102
RTVSPropertyOp14
 70
     1
102
RTVSPropertyOp15
 70
     1
102
RTVSPropertyOp16
 70
     1
102
RTVSPropertyOp17
 70
     1
102
RTVSPropertyOp18
 70
     1
102
RTVSPropertyOp19
 70
     1
102
RTVSPropertyOp20
 70
     1
102
RTVSPropertyOp21
 70
     1
102
RTVSPropertyOp22
 70
     1
102
RTVSPropertyOp23
 70
     1
102
RTVSPropertyOp24
 70
     1
102
RTVSPropertyOp25
 70
     1
102
RTVSPropertyOp26
 70
     1
102
RTVSPropertyOp27
 70
     1
102
RTVSPropertyOp28
 70
     1
102
RTVSPropertyOp29
 70
     1
102
RTVSPropertyOp30
 70
     1
102
RTVSPropertyOp31
 70
     1
102
RTVSPropertyOp32
 70
     1
  0
XRECORD
  5
E5A
102
{ACAD_REACTORS
330
E59
102
}
330
E59
100
AcDbXrecord
280
     1
102
RTVSPropertyOp0
 70
     1
102
RTVSPropertyOp1
 70
     1
102
RTVSPropertyOp2
 70
     1
102
RTVSPropertyOp3
 70
     1
102
RTVSPropertyOp4
 70
     1
102
RTVSPropertyOp5
 70
     1
102
RTVSPropertyOp6
 70
     1
102
RTVSPropertyOp7
 70
     1
102
RTVSPropertyOp8
 70
     1
102
RTVSPropertyOp9
 70
     1
102
RTVSPropertyOp10
 70
     1
102
RTVSPropertyOp11
 70
     1
102
RTVSPropertyOp12
 70
     1
102
RTVSPropertyOp13
 70
     1
102
RTVSPropertyOp14
 70
     1
102
RTVSPropertyOp15
 70
     1
102
RTVSPropertyOp16
 70
     1
102
RTVSPropertyOp17
 70
     1
102
RTVSPropertyOp18
 70
     1
102
RTVSPropertyOp19
 70
     1
102
RTVSPropertyOp20
 70
     1
102
RTVSPropertyOp21
 70
     1
102
RTVSPropertyOp22
 70
     1
102
RTVSPropertyOp23
 70
     1
102
RTVSPropertyOp24
 70
     1
102
RTVSPropertyOp25
 70
     1
102
RTVSPropertyOp26
 70
     1
102
RTVSPropertyOp27
 70
     1
102
RTVSPropertyOp28
 70
     1
102
RTVSPropertyOp29
 70
     1
102
RTVSPropertyOp30
 70
     1
102
RTVSPropertyOp31
 70
     1
102
RTVSPropertyOp32
 70
     1
  0
XRECORD
  5
E54
102
{ACAD_REACTORS
330
E53
102
}
330
E53
100
AcDbXrecord
280
     1
102
RTVSPropertyOp0
 70
     1
102
RTVSPropertyOp1
 70
     1
102
RTVSPropertyOp2
 70
     1
102
RTVSPropertyOp3
 70
     1
102
RTVSPropertyOp4
 70
     1
102
RTVSPropertyOp5
 70
     1
102
RTVSPropertyOp6
 70
     1
102
RTVSPropertyOp7
 70
     1
102
RTVSPropertyOp8
 70
     1
102
RTVSPropertyOp9
 70
     1
102
RTVSPropertyOp10
 70
     1
102
RTVSPropertyOp11
 70
     1
102
RTVSPropertyOp12
 70
     1
102
RTVSPropertyOp13
 70
     1
102
RTVSPropertyOp14
 70
     1
102
RTVSPropertyOp15
 70
     1
102
RTVSPropertyOp16
 70
     1
102
RTVSPropertyOp17
 70
     1
102
RTVSPropertyOp18
 70
     1
102
RTVSPropertyOp19
 70
     1
102
RTVSPropertyOp20
 70
     1
102
RTVSPropertyOp21
 70
     1
102
RTVSPropertyOp22
 70
     1
102
RTVSPropertyOp23
 70
     1
102
RTVSPropertyOp24
 70
     1
102
RTVSPropertyOp25
 70
     1
102
RTVSPropertyOp26
 70
     1
102
RTVSPropertyOp27
 70
     1
102
RTVSPropertyOp28
 70
     1
102
RTVSPropertyOp29
 70
     1
102
RTVSPropertyOp30
 70
     1
102
RTVSPropertyOp31
 70
     1
102
RTVSPropertyOp32
 70
     1
  0
XRECORD
  5
E56
102
{ACAD_REACTORS
330
E55
102
}
330
E55
100
AcDbXrecord
280
     1
102
RTVSPropertyOp0
 70
     1
102
RTVSPropertyOp1
 70
     1
102
RTVSPropertyOp2
 70
     1
102
RTVSPropertyOp3
 70
     1
102
RTVSPropertyOp4
 70
     1
102
RTVSPropertyOp5
 70
     1
102
RTVSPropertyOp6
 70
     1
102
RTVSPropertyOp7
 70
     1
102
RTVSPropertyOp8
 70
     1
102
RTVSPropertyOp9
 70
     1
102
RTVSPropertyOp10
 70
     1
102
RTVSPropertyOp11
 70
     1
102
RTVSPropertyOp12
 70
     1
102
RTVSPropertyOp13
 70
     1
102
RTVSPropertyOp14
 70
     1
102
RTVSPropertyOp15
 70
     1
102
RTVSPropertyOp16
 70
     1
102
RTVSPropertyOp17
 70
     1
102
RTVSPropertyOp18
 70
     1
102
RTVSPropertyOp19
 70
     1
102
RTVSPropertyOp20
 70
     1
102
RTVSPropertyOp21
 70
     1
102
RTVSPropertyOp22
 70
     1
102
RTVSPropertyOp23
 70
     1
102
RTVSPropertyOp24
 70
     1
102
RTVSPropertyOp25
 70
     1
102
RTVSPropertyOp26
 70
     1
102
RTVSPropertyOp27
 70
     1
102
RTVSPropertyOp28
 70
     1
102
RTVSPropertyOp29
 70
     1
102
RTVSPropertyOp30
 70
     1
102
RTVSPropertyOp31
 70
     1
102
RTVSPropertyOp32
 70
     1
  0
XRECORD
  5
E4C
102
{ACAD_REACTORS
330
E4B
102
}
330
E4B
100
AcDbXrecord
280
     1
102
RTVSPropertyOp0
 70
     1
102
RTVSPropertyOp1
 70
     1
102
RTVSPropertyOp2
 70
     1
102
RTVSPropertyOp3
 70
     1
102
RTVSPropertyOp4
 70
     1
102
RTVSPropertyOp5
 70
     1
102
RTVSPropertyOp6
 70
     1
102
RTVSPropertyOp7
 70
     1
102
RTVSPropertyOp8
 70
     1
102
RTVSPropertyOp9
 70
     1
102
RTVSPropertyOp10
 70
     1
102
RTVSPropertyOp11
 70
     1
102
RTVSPropertyOp12
 70
     1
102
RTVSPropertyOp13
 70
     1
102
RTVSPropertyOp14
 70
     1
102
RTVSPropertyOp15
 70
     1
102
RTVSPropertyOp16
 70
     1
102
RTVSPropertyOp17
 70
     1
102
RTVSPropertyOp18
 70
     1
102
RTVSPropertyOp19
 70
     1
102
RTVSPropertyOp20
 70
     1
102
RTVSPropertyOp21
 70
     1
102
RTVSPropertyOp22
 70
     1
102
RTVSPropertyOp23
 70
     1
102
RTVSPropertyOp24
 70
     1
102
RTVSPropertyOp25
 70
     1
102
RTVSPropertyOp26
 70
     1
102
RTVSPropertyOp27
 70
     1
102
RTVSPropertyOp28
 70
     1
102
RTVSPropertyOp29
 70
     1
102
RTVSPropertyOp30
 70
     1
102
RTVSPropertyOp31
 70
     1
102
RTVSPropertyOp32
 70
     1
  0
XRECORD
  5
E40
102
{ACAD_REACTORS
330
E3F
102
}
330
E3F
100
AcDbXrecord
280
     1
102
RTVSPropertyOp0
 70
     1
102
RTVSPropertyOp1
 70
     1
102
RTVSPropertyOp2
 70
     1
102
RTVSPropertyOp3
 70
     1
102
RTVSPropertyOp4
 70
     1
102
RTVSPropertyOp5
 70
     1
102
RTVSPropertyOp6
 70
     1
102
RTVSPropertyOp7
 70
     1
102
RTVSPropertyOp8
 70
     1
102
RTVSPropertyOp9
 70
     1
102
RTVSPropertyOp10
 70
     1
102
RTVSPropertyOp11
 70
     1
102
RTVSPropertyOp12
 70
     1
102
RTVSPropertyOp13
 70
     1
102
RTVSPropertyOp14
 70
     1
102
RTVSPropertyOp15
 70
     1
102
RTVSPropertyOp16
 70
     1
102
RTVSPropertyOp17
 70
     1
102
RTVSPropertyOp18
 70
     1
102
RTVSPropertyOp19
 70
     1
102
RTVSPropertyOp20
 70
     1
102
RTVSPropertyOp21
 70
     1
102
RTVSPropertyOp22
 70
     1
102
RTVSPropertyOp23
 70
     1
102
RTVSPropertyOp24
 70
     1
102
RTVSPropertyOp25
 70
     1
102
RTVSPropertyOp26
 70
     1
102
RTVSPropertyOp27
 70
     1
102
RTVSPropertyOp28
 70
     1
102
RTVSPropertyOp29
 70
     1
102
RTVSPropertyOp30
 70
     1
102
RTVSPropertyOp31
 70
     1
102
RTVSPropertyOp32
 70
     1
  0
XRECORD
  5
E58
102
{ACAD_REACTORS
330
E57
102
}
330
E57
100
AcDbXrecord
280
     1
102
RTVSPropertyOp0
 70
     1
102
RTVSPropertyOp1
 70
     1
102
RTVSPropertyOp2
 70
     1
102
RTVSPropertyOp3
 70
     1
102
RTVSPropertyOp4
 70
     1
102
RTVSPropertyOp5
 70
     1
102
RTVSPropertyOp6
 70
     1
102
RTVSPropertyOp7
 70
     1
102
RTVSPropertyOp8
 70
     1
102
RTVSPropertyOp9
 70
     1
102
RTVSPropertyOp10
 70
     1
102
RTVSPropertyOp11
 70
     1
102
RTVSPropertyOp12
 70
     1
102
RTVSPropertyOp13
 70
     1
102
RTVSPropertyOp14
 70
     1
102
RTVSPropertyOp15
 70
     1
102
RTVSPropertyOp16
 70
     1
102
RTVSPropertyOp17
 70
     1
102
RTVSPropertyOp18
 70
     1
102
RTVSPropertyOp19
 70
     1
102
RTVSPropertyOp20
 70
     1
102
RTVSPropertyOp21
 70
     1
102
RTVSPropertyOp22
 70
     1
102
RTVSPropertyOp23
 70
     1
102
RTVSPropertyOp24
 70
     1
102
RTVSPropertyOp25
 70
     1
102
RTVSPropertyOp26
 70
     1
102
RTVSPropertyOp27
 70
     1
102
RTVSPropertyOp28
 70
     1
102
RTVSPropertyOp29
 70
     1
102
RTVSPropertyOp30
 70
     1
102
RTVSPropertyOp31
 70
     1
102
RTVSPropertyOp32
 70
     1
  0
ENDSEC
  0
EOF
