  0
SECTION
  2
HEADER
  9
$ACADVER
  1
AC1015
  9
$ACADMAINTVER
 70
    18
  9
$DWGCODEPAGE
  3
ANSI_1252
  9
$INSBASE
 10
0.0
 20
0.0
 30
0.0
  9
$EXTMIN
 10
0.0
 20
0.0
 30
0.0
  9
$EXTMAX
 10
90.66666666666666
 20
58.66666666666667
 30
0.0
  9
$LIMMIN
 10
0.0
 20
0.0
  9
$LIMMAX
 10
90.66666666666666
 20
58.66666666666667
  9
$ORTHOMODE
 70
     0
  9
$REGENMODE
 70
     1
  9
$FILLMODE
 70
     1
  9
$QTEXTMODE
 70
     0
  9
$MIRRTEXT
 70
     0
  9
$LTSCALE
 40
5.333333333333333
  9
$ATTMODE
 70
     1
  9
$TEXTSIZE
 40
0.2
  9
$TRACEWID
 40
0.05
  9
$TEXTSTYLE
  7
Standard
  9
$CLAYER
  8
0
  9
$CELTYPE
  6
ByLayer
  9
$CECOLOR
 62
   256
  9
$CELTSCALE
 40
1.0
  9
$DISPSILH
 70
     0
  9
$DIMSCALE
 40
1.0
  9
$DIMASZ
 40
0.0708661417322835
  9
$DIMEXO
 40
0.0625
  9
$DIMDLI
 40
0.38
  9
$DIMRND
 40
0.0
  9
$DIMDLE
 40
0.0
  9
$DIMEXE
 40
0.18
  9
$DIMTP
 40
0.0
  9
$DIMTM
 40
0.0
  9
$DIMTXT
 40
0.0708661417322835
  9
$DIMCEN
 40
0.09
  9
$DIMTSZ
 40
0.0
  9
$DIMTOL
 70
     0
  9
$DIMLIM
 70
     0
  9
$DIMTIH
 70
     1
  9
$DIMTOH
 70
     1
  9
$DIMSE1
 70
     0
  9
$DIMSE2
 70
     0
  9
$DIMTAD
 70
     0
  9
$DIMZIN
 70
     0
  9
$DIMBLK
  1

  9
$DIMASO
 70
     1
  9
$DIMSHO
 70
     1
  9
$DIMPOST
  1

  9
$DIMAPOST
  1

  9
$DIMALT
 70
     0
  9
$DIMALTD
 70
     2
  9
$DIMALTF
 40
25.4
  9
$DIMLFAC
 40
1.0
  9
$DIMTOFL
 70
     0
  9
$DIMTVP
 40
0.0
  9
$DIMTIX
 70
     0
  9
$DIMSOXD
 70
     0
  9
$DIMSAH
 70
     0
  9
$DIMBLK1
  1

  9
$DIMBLK2
  1

  9
$DIMSTYLE
  2
Standard
  9
$DIMCLRD
 70
     0
  9
$DIMCLRE
 70
     0
  9
$DIMCLRT
 70
     0
  9
$DIMTFAC
 40
1.0
  9
$DIMGAP
 40
0.09
  9
$DIMJUST
 70
     0
  9
$DIMSD1
 70
     0
  9
$DIMSD2
 70
     0
  9
$DIMTOLJ
 70
     1
  9
$DIMTZIN
 70
     0
  9
$DIMALTZ
 70
     0
  9
$DIMALTTZ
 70
     0
  9
$DIMUPT
 70
     0
  9
$DIMDEC
 70
     4
  9
$DIMTDEC
 70
     4
  9
$DIMALTU
 70
     2
  9
$DIMALTTD
 70
     2
  9
$DIMTXSTY
  7
Standard
  9
$DIMAUNIT
 70
     0
  9
$DIMADEC
 70
     0
  9
$DIMALTRND
 40
0.0
  9
$DIMAZIN
 70
     0
  9
$DIMDSEP
 70
    46
  9
$DIMATFIT
 70
     3
  9
$DIMFRAC
 70
     0
  9
$DIMLDRBLK
  1

  9
$DIMLUNIT
 70
     2
  9
$DIMLWD
 70
    -2
  9
$DIMLWE
 70
    -2
  9
$DIMTMOVE
 70
     0
  9
$LUNITS
 70
     2
  9
$LUPREC
 70
     4
  9
$SKETCHINC
 40
0.1
  9
$FILLETRAD
 40
0.0
  9
$AUNITS
 70
     0
  9
$AUPREC
 70
     0
  9
$MENU
  1
.
  9
$ELEVATION
 40
0.0
  9
$PELEVATION
 40
0.0
  9
$THICKNESS
 40
0.0
  9
$LIMCHECK
 70
     0
  9
$CHAMFERA
 40
0.0
  9
$CHAMFERB
 40
0.0
  9
$CHAMFERC
 40
0.0
  9
$CHAMFERD
 40
0.0
  9
$SKPOLY
 70
     0
  9
$TDCREATE
 40
2455946.444027709
  9
$TDUCREATE
 40
2455946.694027709
  9
$TDUPDATE
 40
2455946.444027709
  9
$TDUUPDATE
 40
2455946.694027709
  9
$TDINDWG
 40
0.0000372569
  9
$TDUSRTIMER
 40
0.0000372569
  9
$USRTIMER
 70
     1
  9
$ANGBASE
 50
0.0
  9
$ANGDIR
 70
     0
  9
$PDMODE
 70
     0
  9
$PDSIZE
 40
0.0
  9
$PLINEWID
 40
0.0
  9
$SPLFRAME
 70
     0
  9
$SPLINETYPE
 70
     6
  9
$SPLINESEGS
 70
     8
  9
$HANDSEED
  5
F78
  9
$SURFTAB1
 70
     6
  9
$SURFTAB2
 70
     6
  9
$SURFTYPE
 70
     6
  9
$SURFU
 70
     6
  9
$SURFV
 70
     6
  9
$UCSBASE
  2

  9
$UCSNAME
  2

  9
$UCSORG
 10
0.0
 20
0.0
 30
0.0
  9
$UCSXDIR
 10
1.0
 20
0.0
 30
0.0
  9
$UCSYDIR
 10
0.0
 20
1.0
 30
0.0
  9
$UCSORTHOREF
  2

  9
$UCSORTHOVIEW
 70
     0
  9
$UCSORGTOP
 10
0.0
 20
0.0
 30
0.0
  9
$UCSORGBOTTOM
 10
0.0
 20
0.0
 30
0.0
  9
$UCSORGLEFT
 10
0.0
 20
0.0
 30
0.0
  9
$UCSORGRIGHT
 10
0.0
 20
0.0
 30
0.0
  9
$UCSORGFRONT
 10
0.0
 20
0.0
 30
0.0
  9
$UCSORGBACK
 10
0.0
 20
0.0
 30
0.0
  9
$PUCSBASE
  2

  9
$PUCSNAME
  2

  9
$PUCSORG
 10
0.0
 20
0.0
 30
0.0
  9
$PUCSXDIR
 10
1.0
 20
0.0
 30
0.0
  9
$PUCSYDIR
 10
0.0
 20
1.0
 30
0.0
  9
$PUCSORTHOREF
  2

  9
$PUCSORTHOVIEW
 70
     0
  9
$PUCSORGTOP
 10
0.0
 20
0.0
 30
0.0
  9
$PUCSORGBOTTOM
 10
0.0
 20
0.0
 30
0.0
  9
$PUCSORGLEFT
 10
0.0
 20
0.0
 30
0.0
  9
$PUCSORGRIGHT
 10
0.0
 20
0.0
 30
0.0
  9
$PUCSORGFRONT
 10
0.0
 20
0.0
 30
0.0
  9
$PUCSORGBACK
 10
0.0
 20
0.0
 30
0.0
  9
$USERI1
 70
     0
  9
$USERI2
 70
     0
  9
$USERI3
 70
     0
  9
$USERI4
 70
     0
  9
$USERI5
 70
     0
  9
$USERR1
 40
0.0
  9
$USERR2
 40
0.0
  9
$USERR3
 40
0.0
  9
$USERR4
 40
0.0
  9
$USERR5
 40
0.0
  9
$WORLDVIEW
 70
     1
  9
$SHADEDGE
 70
     3
  9
$SHADEDIF
 70
    70
  9
$TILEMODE
 70
     1
  9
$MAXACTVP
 70
    64
  9
$PINSBASE
 10
0.0
 20
0.0
 30
0.0
  9
$PLIMCHECK
 70
     0
  9
$PEXTMIN
 10
0.0
 20
0.0
 30
0.0
  9
$PEXTMAX
 10
90.66666666666666
 20
58.66666666666667
 30
0.0
  9
$PLIMMIN
 10
0.0
 20
0.0
  9
$PLIMMAX
 10
90.66666666666666
 20
58.66666666666667
  9
$UNITMODE
 70
     0
  9
$VISRETAIN
 70
     1
  9
$PLINEGEN
 70
     0
  9
$PSLTSCALE
 70
     1
  9
$TREEDEPTH
 70
  3020
  9
$CMLSTYLE
  2
Standard
  9
$CMLJUST
 70
     0
  9
$CMLSCALE
 40
1.0
  9
$PROXYGRAPHICS
 70
     1
  9
$MEASUREMENT
 70
     0
  9
$CELWEIGHT
370
    -1
  9
$ENDCAPS
280
     0
  9
$JOINSTYLE
280
     0
  9
$LWDISPLAY
290
     0
  9
$INSUNITS
 70
     1
  9
$HYPERLINKBASE
  1

  9
$STYLESHEET
  1

  9
$XEDIT
290
     1
  9
$CEPSNTYPE
380
     0
  9
$PSTYLEMODE
290
     1
  9
$FINGERPRINTGUID
  2
{594CA2E2-C2D8-48B5-AECA-D74D247E933A}
  9
$VERSIONGUID
  2
{9B5250CD-57FD-4EC2-BE67-F25F4A232E3D}
  9
$EXTNAMES
290
     1
  9
$PSVPSCALE
 40
0.0
  9
$OLESTARTUP
290
     0
  0
ENDSEC
  0
SECTION
  2
CLASSES
  0
CLASS
  1
ACDBDICTIONARYWDFLT
  2
AcDbDictionaryWithDefault
  3
ObjectDBX Classes
 90
        0
280
     0
281
     0
  0
CLASS
  1
MATERIAL
  2
AcDbMaterial
  3
ObjectDBX Classes
 90
     1153
280
     0
281
     0
  0
CLASS
  1
VISUALSTYLE
  2
AcDbVisualStyle
  3
ObjectDBX Classes
 90
     4095
280
     0
281
     0
  0
CLASS
  1
SCALE
  2
AcDbScale
  3
ObjectDBX Classes
 90
     1153
280
     0
281
     0
  0
CLASS
  1
TABLESTYLE
  2
AcDbTableStyle
  3
ObjectDBX Classes
 90
     4095
280
     0
281
     0
  0
CLASS
  1
MLEADERSTYLE
  2
AcDbMLeaderStyle
  3
ACDB_MLEADERSTYLE_CLASS
 90
     4095
280
     0
281
     0
  0
CLASS
  1
DICTIONARYVAR
  2
AcDbDictionaryVar
  3
ObjectDBX Classes
 90
        0
280
     0
281
     0
  0
CLASS
  1
CELLSTYLEMAP
  2
AcDbCellStyleMap
  3
ObjectDBX Classes
 90
     1152
280
     0
281
     0
  0
CLASS
  1
ACDBPLACEHOLDER
  2
AcDbPlaceHolder
  3
ObjectDBX Classes
 90
        0
280
     0
281
     0
  0
CLASS
  1
LAYOUT
  2
AcDbLayout
  3
ObjectDBX Classes
 90
        0
280
     0
281
     0
  0
ENDSEC
  0
SECTION
  2
TABLES
  0
TABLE
  2
VPORT
  5
8
330
0
100
AcDbSymbolTable
 70
     1
  0
VPORT
  5
57
330
8
100
AcDbSymbolTableRecord
100
AcDbViewportTableRecord
  2
*Active
 70
     0
 10
0.0
 20
0.0
 11
1.0
 21
1.0
 12
45.33333333333333
 22
29.33333333333333
 13
0.0
 23
0.0
 14
1.0
 24
1.0
 15
0.0
 25
0.0
 16
0.0
 26
0.0
 36
1.0
 17
0.0
 27
0.0
 37
0.0
 40
58.66666666666667
 41
1.545454545454545
 42
50.0
 43
0.0
 44
0.0
 50
0.0
 51
0.0
 71
     0
 72
   100
 73
     1
 74
     1
 75
     0
 76
     0
 77
     0
 78
     0
281
     0
 65
     1
110
0.0
120
0.0
130
0.0
111
1.0
121
0.0
131
0.0
112
0.0
122
1.0
132
0.0
 79
     0
146
0.0
  0
ENDTAB
  0
TABLE
  2
LTYPE
  5
5
330
0
100
AcDbSymbolTable
 70
    59
  0
LTYPE
  5
5B
330
5
100
AcDbSymbolTableRecord
100
AcDbLinetypeTableRecord
  2
ByBlock
 70
     0
  3

 72
    65
 73
     0
 40
0.0
  0
LTYPE
  5
5C
330
5
100
AcDbSymbolTableRecord
100
AcDbLinetypeTableRecord
  2
ByLayer
 70
     0
  3

 72
    65
 73
     0
 40
0.0
  0
LTYPE
  5
5D
330
5
100
AcDbSymbolTableRecord
100
AcDbLinetypeTableRecord
  2
Continuous
 70
     0
  3
Solid line
 72
    65
 73
     0
 40
0.0
  0
LTYPE
  5
7C
330
5
100
AcDbSymbolTableRecord
100
AcDbLinetypeTableRecord
  2
BY_STANDARD
 70
     0
  3
By Standard ____________    ____    ____   _
 72
    65
 73
     6
 40
1.240299999999999
 49
0.6614
 74
     0
 49
-0.0827
 74
     0
 49
0.1654
 74
     0
 49
-0.0827
 74
     0
 49
0.1654
 74
     0
 49
-0.0827
 74
     0
  0
LTYPE
  5
7D
330
5
100
AcDbSymbolTableRecord
100
AcDbLinetypeTableRecord
  2
CHAIN
 70
     0
  3
Chain ____ _ ____ _ ____ _ ____ _ ____ _ ____
 72
    65
 73
     4
 40
0.7087
 49
0.4724000000000001
 74
     0
 49
-0.0591
 74
     0
 49
0.1181
 74
     0
 49
-0.0591
 74
     0
  0
LTYPE
  5
7E
330
5
100
AcDbSymbolTableRecord
100
AcDbLinetypeTableRecord
  2
DASH_DOT
 70
     0
  3
Dash dot __ . __ . __ . __ . __ . __ . __ . __
 72
    65
 73
     4
 40
0.37
 49
0.24
 74
     0
 49
-0.06
 74
     0
 49
0.01
 74
     0
 49
-0.06
 74
     0
  0
LTYPE
  5
7F
330
5
100
AcDbSymbolTableRecord
100
AcDbLinetypeTableRecord
  2
DOUBLE_DASH_DOT
 70
     0
  3
Double-Dash Dot __ __ . __ __ . __ __ . __ _
 72
    65
 73
     6
 40
0.4398
 49
0.24
 74
     0
 49
-0.06
 74
     0
 49
0.0098
 74
     0
 49
-0.06
 74
     0
 49
0.01
 74
     0
 49
-0.06
 74
     0
  0
LTYPE
  5
80
330
5
100
AcDbSymbolTableRecord
100
AcDbLinetypeTableRecord
  2
DASH_TRIPLE_DOT
 70
     0
  3
Dash Triple-Dot _ . . . _ . . . _ . . . _
 72
    65
 73
     8
 40
0.51
 49
0.24
 74
     0
 49
-0.06
 74
     0
 49
0.01
 74
     0
 49
-0.06
 74
     0
 49
0.01
 74
     0
 49
-0.06
 74
     0
 49
0.01
 74
     0
 49
-0.06
 74
     0
  0
LTYPE
  5
81
330
5
100
AcDbSymbolTableRecord
100
AcDbLinetypeTableRecord
  2
DASHED
 70
     0
  3
Dashed __ __ __ __ __ __ __ __ __ __ __ __ __ _
 72
    65
 73
     2
 40
0.2067
 49
0.1654
 74
     0
 49
-0.0413
 74
     0
  0
LTYPE
  5
82
330
5
100
AcDbSymbolTableRecord
100
AcDbLinetypeTableRecord
  2
DASH_DOUBLE_DOT
 70
     0
  3
Dash Double-Dot __ . . __ . . __ . . __ . .
 72
    65
 73
     6
 40
0.4398
 49
0.24
 74
     0
 49
-0.06
 74
     0
 49
0.0098
 74
     0
 49
-0.06
 74
     0
 49
0.01
 74
     0
 49
-0.06
 74
     0
  0
LTYPE
  5
83
330
5
100
AcDbSymbolTableRecord
100
AcDbLinetypeTableRecord
  2
DASHED_SPACE
 70
     0
  3
Dashed Space __ __ __ __ __ __ __ __ __ __ __ _
 72
    65
 73
     2
 40
0.2067
 49
0.1654
 74
     0
 49
-0.0413
 74
     0
  0
LTYPE
  5
84
330
5
100
AcDbSymbolTableRecord
100
AcDbLinetypeTableRecord
  2
DOTTED
 70
     0
  3
Dotted . . . . . . . . . . . . . . . . . . . . 
 72
    65
 73
     2
 40
0.0482
 49
0.0069
 74
     0
 49
-0.0413
 74
     0
  0
LTYPE
  5
85
330
5
100
AcDbSymbolTableRecord
100
AcDbLinetypeTableRecord
  2
DOUBLE_DASH_CHAIN
 70
     0
  3
Double-Dash Chain ______  __  __  ______  __  _
 72
    65
 73
     6
 40
1.240299999999999
 49
0.6614
 74
     0
 49
-0.0827
 74
     0
 49
0.1654
 74
     0
 49
-0.0827
 74
     0
 49
0.1654
 74
     0
 49
-0.0827
 74
     0
  0
LTYPE
  5
87
330
5
100
AcDbSymbolTableRecord
100
AcDbLinetypeTableRecord
  2
DOUBLE_DASH_DOUBLE_DOT
 70
     0
  3
Double-Dash Double-dot _ _ . . _ _ . . _
 72
    65
 73
     8
 40
0.7400000000000001
 49
0.24
 74
     0
 49
-0.06
 74
     0
 49
0.24
 74
     0
 49
-0.06
 74
     0
 49
0.01
 74
     0
 49
-0.06
 74
     0
 49
0.01
 74
     0
 49
-0.06
 74
     0
  0
LTYPE
  5
88
330
5
100
AcDbSymbolTableRecord
100
AcDbLinetypeTableRecord
  2
DOUBLE_DASH_TRIPLE_DOT
 70
     0
  3
Double Dash Triple Dot __ __ . . . __ __ . .
 72
    65
 73
    10
 40
0.8100000000000001
 49
0.24
 74
     0
 49
-0.06
 74
     0
 49
0.24
 74
     0
 49
-0.06
 74
     0
 49
0.01
 74
     0
 49
-0.06
 74
     0
 49
0.01
 74
     0
 49
-0.06
 74
     0
 49
0.01
 74
     0
 49
-0.06
 74
     0
  0
LTYPE
  5
89
330
5
100
AcDbSymbolTableRecord
100
AcDbLinetypeTableRecord
  2
LONG_DASH_DOTTED
 70
     0
  3
Long Dash Dotted ____ . ____ . ____ . ____ . _
 72
    65
 73
     4
 40
0.3543
 49
0.2362
 74
     0
 49
-0.0295
 74
     0
 49
0.0591
 74
     0
 49
-0.0295
 74
     0
  0
LTYPE
  5
8A
330
5
100
AcDbSymbolTableRecord
100
AcDbLinetypeTableRecord
  2
LONG_DASH_DOUBLE_DOT
 70
     0
  3
Long Dash Double Dot ________  .  .  ________  
 72
    65
 73
     6
 40
0.6799999999999999
 49
0.48
 74
     0
 49
-0.06
 74
     0
 49
0.01
 74
     0
 49
-0.06
 74
     0
 49
0.01
 74
     0
 49
-0.06
 74
     0
  0
LTYPE
  5
8B
330
5
100
AcDbSymbolTableRecord
100
AcDbLinetypeTableRecord
  2
LONG_DASH_TRIPLE_DOT
 70
     0
  3
Long Dash Triple Dot ____ ... ____ ... ____
 72
    65
 73
     8
 40
0.3689
 49
0.2362
 74
     0
 49
-0.0295
 74
     0
 49
0.0049
 74
     0
 49
-0.0295
 74
     0
 49
0.0049
 74
     0
 49
-0.0295
 74
     0
 49
0.0049
 74
     0
 49
-0.0295
 74
     0
  0
LTYPE
  5
8C
330
5
100
AcDbSymbolTableRecord
100
AcDbLinetypeTableRecord
  2
BORDER
 70
     0
  3
Border __ __ . __ __ . __ __ . __ __ . __ __ .
 72
    65
 73
     6
 40
1.75
 49
0.5
 74
     0
 49
-0.25
 74
     0
 49
0.5
 74
     0
 49
-0.25
 74
     0
 49
0.0
 74
     0
 49
-0.25
 74
     0
  0
LTYPE
  5
8D
330
5
100
AcDbSymbolTableRecord
100
AcDbLinetypeTableRecord
  2
BORDER2
 70
     0
  3
Border (.5x) __.__.__.__.__.__.__.__.__.__.__.
 72
    65
 73
     6
 40
0.875
 49
0.25
 74
     0
 49
-0.125
 74
     0
 49
0.25
 74
     0
 49
-0.125
 74
     0
 49
0.0
 74
     0
 49
-0.125
 74
     0
  0
LTYPE
  5
8E
330
5
100
AcDbSymbolTableRecord
100
AcDbLinetypeTableRecord
  2
BORDERX2
 70
     0
  3
Border (2x) ____  ____  .  ____  ____  .  ___
 72
    65
 73
     6
 40
3.5
 49
1.0
 74
     0
 49
-0.5
 74
     0
 49
1.0
 74
     0
 49
-0.5
 74
     0
 49
0.0
 74
     0
 49
-0.5
 74
     0
  0
LTYPE
  5
8F
330
5
100
AcDbSymbolTableRecord
100
AcDbLinetypeTableRecord
  2
CENTER
 70
     0
  3
Center ____ _ ____ _ ____ _ ____ _ ____ _ ____
 72
    65
 73
     4
 40
2.0
 49
1.25
 74
     0
 49
-0.25
 74
     0
 49
0.25
 74
     0
 49
-0.25
 74
     0
  0
LTYPE
  5
90
330
5
100
AcDbSymbolTableRecord
100
AcDbLinetypeTableRecord
  2
CENTER2
 70
     0
  3
Center (.5x) ___ _ ___ _ ___ _ ___ _ ___ _ ___
 72
    65
 73
     4
 40
1.125
 49
0.75
 74
     0
 49
-0.125
 74
     0
 49
0.125
 74
     0
 49
-0.125
 74
     0
  0
LTYPE
  5
91
330
5
100
AcDbSymbolTableRecord
100
AcDbLinetypeTableRecord
  2
CENTERX2
 70
     0
  3
Center (2x) ________  __  ________  __  _____
 72
    65
 73
     4
 40
4.0
 49
2.5
 74
     0
 49
-0.5
 74
     0
 49
0.5
 74
     0
 49
-0.5
 74
     0
  0
LTYPE
  5
92
330
5
100
AcDbSymbolTableRecord
100
AcDbLinetypeTableRecord
  2
DASHDOT2
 70
     0
  3
Dash dot (.5x) _._._._._._._._._._._._._._._.
 72
    65
 73
     4
 40
0.5
 49
0.25
 74
     0
 49
-0.125
 74
     0
 49
0.0
 74
     0
 49
-0.125
 74
     0
  0
LTYPE
  5
93
330
5
100
AcDbSymbolTableRecord
100
AcDbLinetypeTableRecord
  2
DASHDOTX2
 70
     0
  3
Dash dot (2x) ____  .  ____  .  ____  .  ___
 72
    65
 73
     4
 40
2.0
 49
1.0
 74
     0
 49
-0.5
 74
     0
 49
0.0
 74
     0
 49
-0.5
 74
     0
  0
LTYPE
  5
95
330
5
100
AcDbSymbolTableRecord
100
AcDbLinetypeTableRecord
  2
DASHED2
 70
     0
  3
Dashed (.5x) _ _ _ _ _ _ _ _ _ _ _ _ _ _ _ _ _
 72
    65
 73
     2
 40
0.375
 49
0.25
 74
     0
 49
-0.125
 74
     0
  0
LTYPE
  5
96
330
5
100
AcDbSymbolTableRecord
100
AcDbLinetypeTableRecord
  2
DASHEDX2
 70
     0
  3
Dashed (2x) ____  ____  ____  ____  ____  ___
 72
    65
 73
     2
 40
1.5
 49
1.0
 74
     0
 49
-0.5
 74
     0
  0
LTYPE
  5
97
330
5
100
AcDbSymbolTableRecord
100
AcDbLinetypeTableRecord
  2
DIVIDE
 70
     0
  3
Divide ____ . . ____ . . ____ . . ____ . . ____
 72
    65
 73
     6
 40
1.25
 49
0.5
 74
     0
 49
-0.25
 74
     0
 49
0.0
 74
     0
 49
-0.25
 74
     0
 49
0.0
 74
     0
 49
-0.25
 74
     0
  0
LTYPE
  5
98
330
5
100
AcDbSymbolTableRecord
100
AcDbLinetypeTableRecord
  2
DIVIDE2
 70
     0
  3
Divide (.5x) __..__..__..__..__..__..__..__.._
 72
    65
 73
     6
 40
0.625
 49
0.25
 74
     0
 49
-0.125
 74
     0
 49
0.0
 74
     0
 49
-0.125
 74
     0
 49
0.0
 74
     0
 49
-0.125
 74
     0
  0
LTYPE
  5
99
330
5
100
AcDbSymbolTableRecord
100
AcDbLinetypeTableRecord
  2
DIVIDEX2
 70
     0
  3
Divide (2x) ________  .  .  ________  .  .  _
 72
    65
 73
     6
 40
2.5
 49
1.0
 74
     0
 49
-0.5
 74
     0
 49
0.0
 74
     0
 49
-0.5
 74
     0
 49
0.0
 74
     0
 49
-0.5
 74
     0
  0
LTYPE
  5
9A
330
5
100
AcDbSymbolTableRecord
100
AcDbLinetypeTableRecord
  2
DOT
 70
     0
  3
Dot . . . . . . . . . . . . . . . . . . . . . .
 72
    65
 73
     2
 40
0.25
 49
0.0
 74
     0
 49
-0.25
 74
     0
  0
LTYPE
  5
9B
330
5
100
AcDbSymbolTableRecord
100
AcDbLinetypeTableRecord
  2
DOT2
 70
     0
  3
Dot (.5x) .....................................
 72
    65
 73
     2
 40
0.125
 49
0.0
 74
     0
 49
-0.125
 74
     0
  0
LTYPE
  5
9C
330
5
100
AcDbSymbolTableRecord
100
AcDbLinetypeTableRecord
  2
DOTX2
 70
     0
  3
Dot (2x) .  .  .  .  .  .  .  .  .  .  .  .  . 
 72
    65
 73
     2
 40
0.5
 49
0.0
 74
     0
 49
-0.5
 74
     0
  0
LTYPE
  5
9D
330
5
100
AcDbSymbolTableRecord
100
AcDbLinetypeTableRecord
  2
HIDDEN
 70
     0
  3
Hidden __ __ __ __ __ __ __ __ __ __ __ __ __ _
 72
    65
 73
     2
 40
0.375
 49
0.25
 74
     0
 49
-0.125
 74
     0
  0
LTYPE
  5
9E
330
5
100
AcDbSymbolTableRecord
100
AcDbLinetypeTableRecord
  2
HIDDEN2
 70
     0
  3
Hidden (.5x) _ _ _ _ _ _ _ _ _ _ _ _ _ _ _ _ _
 72
    65
 73
     2
 40
0.1875
 49
0.125
 74
     0
 49
-0.0625
 74
     0
  0
LTYPE
  5
9F
330
5
100
AcDbSymbolTableRecord
100
AcDbLinetypeTableRecord
  2
HIDDENX2
 70
     0
  3
Hidden (2x) ____ ____ ____ ____ ____ ____ ____
 72
    65
 73
     2
 40
0.75
 49
0.5
 74
     0
 49
-0.25
 74
     0
  0
LTYPE
  5
A0
330
5
100
AcDbSymbolTableRecord
100
AcDbLinetypeTableRecord
  2
PHANTOM
 70
     0
  3
Phantom ______  __  __  ______  __  __  ______
 72
    65
 73
     6
 40
2.5
 49
1.25
 74
     0
 49
-0.25
 74
     0
 49
0.25
 74
     0
 49
-0.25
 74
     0
 49
0.25
 74
     0
 49
-0.25
 74
     0
  0
LTYPE
  5
A1
330
5
100
AcDbSymbolTableRecord
100
AcDbLinetypeTableRecord
  2
PHANTOM2
 70
     0
  3
Phantom (.5x) ___ _ _ ___ _ _ ___ _ _ ___ _ _
 72
    65
 73
     6
 40
1.25
 49
0.625
 74
     0
 49
-0.125
 74
     0
 49
0.125
 74
     0
 49
-0.125
 74
     0
 49
0.125
 74
     0
 49
-0.125
 74
     0
  0
LTYPE
  5
A2
330
5
100
AcDbSymbolTableRecord
100
AcDbLinetypeTableRecord
  2
PHANTOMX2
 70
     0
  3
Phantom (2x) ____________    ____    ____   _
 72
    65
 73
     6
 40
5.0
 49
2.5
 74
     0
 49
-0.5
 74
     0
 49
0.5
 74
     0
 49
-0.5
 74
     0
 49
0.5
 74
     0
 49
-0.5
 74
     0
  0
LTYPE
  5
A3
330
5
100
AcDbSymbolTableRecord
100
AcDbLinetypeTableRecord
  2
ACAD_ISO02W100
 70
     0
  3
ISO dash __ __ __ __ __ __ __ __ __ __ __ __ __
 72
    65
 73
     2
 40
0.59
 49
0.47
 74
     0
 49
-0.12
 74
     0
  0
LTYPE
  5
A4
330
5
100
AcDbSymbolTableRecord
100
AcDbLinetypeTableRecord
  2
ACAD_ISO03W100
 70
     0
  3
ISO dash space __    __    __    __    __    __
 72
    65
 73
     2
 40
1.179999999999999
 49
0.47
 74
     0
 49
-0.71
 74
     0
  0
LTYPE
  5
A5
330
5
100
AcDbSymbolTableRecord
100
AcDbLinetypeTableRecord
  2
ACAD_ISO04W100
 70
     0
  3
ISO long-dash dot ____ . ____ . ____ . ____ . _
 72
    65
 73
     4
 40
1.179999999999999
 49
0.9399999999999998
 74
     0
 49
-0.12
 74
     0
 49
0.0
 74
     0
 49
-0.12
 74
     0
  0
LTYPE
  5
A6
330
5
100
AcDbSymbolTableRecord
100
AcDbLinetypeTableRecord
  2
ACAD_ISO05W100
 70
     0
  3
ISO long-dash double-dot ____ .. ____ .. ____ .
 72
    65
 73
     6
 40
1.299999999999999
 49
0.9399999999999998
 74
     0
 49
-0.12
 74
     0
 49
0.0
 74
     0
 49
-0.12
 74
     0
 49
0.0
 74
     0
 49
-0.12
 74
     0
  0
LTYPE
  5
A7
330
5
100
AcDbSymbolTableRecord
100
AcDbLinetypeTableRecord
  2
ACAD_ISO06W100
 70
     0
  3
ISO long-dash triple-dot ____ ... ____ ... ____
 72
    65
 73
     8
 40
1.419999999999999
 49
0.9399999999999998
 74
     0
 49
-0.12
 74
     0
 49
0.0
 74
     0
 49
-0.12
 74
     0
 49
0.0
 74
     0
 49
-0.12
 74
     0
 49
0.0
 74
     0
 49
-0.12
 74
     0
  0
LTYPE
  5
A8
330
5
100
AcDbSymbolTableRecord
100
AcDbLinetypeTableRecord
  2
ACAD_ISO07W100
 70
     0
  3
ISO dot . . . . . . . . . . . . . . . . . . . .
 72
    65
 73
     2
 40
0.12
 49
0.0
 74
     0
 49
-0.12
 74
     0
  0
LTYPE
  5
A9
330
5
100
AcDbSymbolTableRecord
100
AcDbLinetypeTableRecord
  2
ACAD_ISO08W100
 70
     0
  3
ISO long-dash short-dash ____ __ ____ __ ____ _
 72
    65
 73
     4
 40
0.95
 49
0.47
 74
     0
 49
-0.12
 74
     0
 49
0.24
 74
     0
 49
-0.12
 74
     0
  0
LTYPE
  5
AA
330
5
100
AcDbSymbolTableRecord
100
AcDbLinetypeTableRecord
  2
ACAD_ISO09W100
 70
     0
  3
ISO long-dash double-short-dash ____ __ __ ____
 72
    65
 73
     6
 40
1.31
 49
0.47
 74
     0
 49
-0.12
 74
     0
 49
0.24
 74
     0
 49
-0.12
 74
     0
 49
0.24
 74
     0
 49
-0.12
 74
     0
  0
LTYPE
  5
AB
330
5
100
AcDbSymbolTableRecord
100
AcDbLinetypeTableRecord
  2
ACAD_ISO10W100
 70
     0
  3
ISO dash dot __ . __ . __ . __ . __ . __ . __ .
 72
    65
 73
     4
 40
0.71
 49
0.47
 74
     0
 49
-0.12
 74
     0
 49
0.0
 74
     0
 49
-0.12
 74
     0
  0
LTYPE
  5
AC
330
5
100
AcDbSymbolTableRecord
100
AcDbLinetypeTableRecord
  2
ACAD_ISO11W100
 70
     0
  3
ISO double-dash dot __ __ . __ __ . __ __ . __ 
 72
    65
 73
     6
 40
1.299999999999999
 49
0.47
 74
     0
 49
-0.12
 74
     0
 49
0.47
 74
     0
 49
-0.12
 74
     0
 49
0.0
 74
     0
 49
-0.12
 74
     0
  0
LTYPE
  5
AD
330
5
100
AcDbSymbolTableRecord
100
AcDbLinetypeTableRecord
  2
ACAD_ISO12W100
 70
     0
  3
ISO dash double-dot __ . . __ . . __ . . __ . .
 72
    65
 73
     6
 40
0.8299999999999998
 49
0.47
 74
     0
 49
-0.12
 74
     0
 49
0.0
 74
     0
 49
-0.12
 74
     0
 49
0.0
 74
     0
 49
-0.12
 74
     0
  0
LTYPE
  5
AE
330
5
100
AcDbSymbolTableRecord
100
AcDbLinetypeTableRecord
  2
ACAD_ISO13W100
 70
     0
  3
ISO double-dash double-dot __ __ . . __ __ . . 
 72
    65
 73
     8
 40
1.419999999999999
 49
0.47
 74
     0
 49
-0.12
 74
     0
 49
0.47
 74
     0
 49
-0.12
 74
     0
 49
0.0
 74
     0
 49
-0.12
 74
     0
 49
0.0
 74
     0
 49
-0.12
 74
     0
  0
LTYPE
  5
AF
330
5
100
AcDbSymbolTableRecord
100
AcDbLinetypeTableRecord
  2
ACAD_ISO14W100
 70
     0
  3
ISO dash triple-dot __ . . . __ . . . __ . . . 
 72
    65
 73
     8
 40
0.95
 49
0.47
 74
     0
 49
-0.12
 74
     0
 49
0.0
 74
     0
 49
-0.12
 74
     0
 49
0.0
 74
     0
 49
-0.12
 74
     0
 49
0.0
 74
     0
 49
-0.12
 74
     0
  0
LTYPE
  5
B0
330
5
100
AcDbSymbolTableRecord
100
AcDbLinetypeTableRecord
  2
ACAD_ISO15W100
 70
     0
  3
ISO double-dash triple-dot __ __ . . . __ __ . 
 72
    65
 73
    10
 40
1.539999999999999
 49
0.47
 74
     0
 49
-0.12
 74
     0
 49
0.47
 74
     0
 49
-0.12
 74
     0
 49
0.0
 74
     0
 49
-0.12
 74
     0
 49
0.0
 74
     0
 49
-0.12
 74
     0
 49
0.0
 74
     0
 49
-0.12
 74
     0
  0
LTYPE
  5
B3
330
5
100
AcDbSymbolTableRecord
100
AcDbLinetypeTableRecord
  2
FENCELINE1
 70
     0
  3
Fenceline circle ----0-----0----0-----0----0---
 72
    65
 73
     4
 40
1.45
 49
0.25
 74
     0
 49
-0.1
 74
     4
 75
   133
340
B2
 46
0.1
 50
0.0
 44
-0.1
 45
0.0
 49
-0.1
 74
     0
 49
1.0
 74
     0
  0
LTYPE
  5
B4
330
5
100
AcDbSymbolTableRecord
100
AcDbLinetypeTableRecord
  2
FENCELINE2
 70
     0
  3
Fenceline square ----[]-----[]----[]-----[]----
 72
    65
 73
     4
 40
1.45
 49
0.25
 74
     0
 49
-0.1
 74
     4
 75
   132
340
B2
 46
0.1
 50
0.0
 44
-0.1
 45
0.0
 49
-0.1
 74
     0
 49
1.0
 74
     0
  0
LTYPE
  5
B5
330
5
100
AcDbSymbolTableRecord
100
AcDbLinetypeTableRecord
  2
TRACKS
 70
     0
  3
Tracks -|-|-|-|-|-|-|-|-|-|-|-|-|-|-|-|-|-|-|-|
 72
    65
 73
     2
 40
0.3
 49
0.15
 74
     4
 75
   130
340
B2
 46
0.25
 50
0.0
 44
0.0
 45
0.0
 49
0.15
 74
     0
  0
LTYPE
  5
B6
330
5
100
AcDbSymbolTableRecord
100
AcDbLinetypeTableRecord
  2
BATTING
 70
     0
  3
Batting SSSSSSSSSSSSSSSSSSSSSSSSSSSSSSSSSSSSSSS
 72
    65
 73
     4
 40
0.4001000000000001
 49
0.0001
 74
     0
 49
-0.1
 74
     4
 75
   134
340
B2
 46
0.1
 50
0.0
 44
-0.1
 45
0.0
 49
-0.2
 74
     4
 75
   134
340
B2
 46
0.1
 50
180.0
 44
0.1
 45
0.0
 49
-0.1
 74
     0
  0
LTYPE
  5
B7
330
5
100
AcDbSymbolTableRecord
100
AcDbLinetypeTableRecord
  2
HOT_WATER_SUPPLY
 70
     0
  3
Hot water supply ---- HW ---- HW ---- HW ----
 72
    65
 73
     3
 40
0.9
 49
0.5
 74
     0
 49
-0.2
 74
     2
 75
     0
340
55
 46
0.1
 50
0.0
 44
-0.1
 45
-0.05
  9
HW
 49
-0.2
 74
     0
  0
LTYPE
  5
B8
330
5
100
AcDbSymbolTableRecord
100
AcDbLinetypeTableRecord
  2
GAS_LINE
 70
     0
  3
Gas line ----GAS----GAS----GAS----GAS----GAS---
 72
    65
 73
     3
 40
0.95
 49
0.5
 74
     0
 49
-0.2
 74
     2
 75
     0
340
55
 46
0.1
 50
0.0
 44
-0.1
 45
-0.05
  9
GAS
 49
-0.25
 74
     0
  0
LTYPE
  5
B9
330
5
100
AcDbSymbolTableRecord
100
AcDbLinetypeTableRecord
  2
ZIGZAG
 70
     0
  3
Zig zag /\/\/\/\/\/\/\/\/\/\/\/\/\/\/\/\/\/\/\/
 72
    65
 73
     4
 40
0.8001000000000001
 49
0.0001
 74
     0
 49
-0.2
 74
     4
 75
   131
340
B2
 46
0.2
 50
0.0
 44
-0.2
 45
0.0
 49
-0.4
 74
     4
 75
   131
340
B2
 46
0.2
 50
180.0
 44
0.2
 45
0.0
 49
-0.2
 74
     0
  0
ENDTAB
  0
TABLE
  2
LAYER
  5
2
330
0
100
AcDbSymbolTable
 70
    27
  0
LAYER
  5
54
330
2
100
AcDbSymbolTableRecord
100
AcDbLayerTableRecord
  2
0
 70
     0
 62
     7
  6
Continuous
370
     0
390
F
  0
LAYER
  5
C0
330
2
100
AcDbSymbolTableRecord
100
AcDbLayerTableRecord
  2
Center Mark (ANSI)
 70
     0
 62
     7
  6
Continuous
370
     5
390
F
  0
LAYER
  5
C1
330
2
100
AcDbSymbolTableRecord
100
AcDbLayerTableRecord
  2
Centerline (ANSI)
 70
     0
 62
     7
  6
Continuous
370
     5
390
F
  0
LAYER
  5
C3
330
2
100
AcDbSymbolTableRecord
100
AcDbLayerTableRecord
  2
Dimension (ANSI)
 70
     0
 62
     7
  6
Continuous
370
     5
390
F
  0
LAYER
  5
C5
330
2
100
AcDbSymbolTableRecord
100
AcDbLayerTableRecord
  2
Hidden (ANSI)
 70
     0
 62
     7
  6
DASHED
370
     5
390
F
  0
LAYER
  5
CC
330
2
100
AcDbSymbolTableRecord
100
AcDbLayerTableRecord
  2
Symbol (ANSI)
 70
     0
 62
     7
  6
Continuous
370
     5
390
F
  0
LAYER
  5
CF
330
2
100
AcDbSymbolTableRecord
100
AcDbLayerTableRecord
  2
Visible (ANSI)
 70
     0
 62
     7
  6
Continuous
370
     5
390
F
  0
LAYER
  5
D0
330
2
100
AcDbSymbolTableRecord
100
AcDbLayerTableRecord
  2
Visible Narrow (ANSI)
 70
     0
 62
     7
  6
Continuous
370
     5
390
F
  0
LAYER
  5
1EB
330
2
100
AcDbSymbolTableRecord
100
AcDbLayerTableRecord
  2
Defpoints
 70
     0
 62
     7
  6
Continuous
290
     0
370
    -3
390
F
  0
ENDTAB
  0
TABLE
  2
STYLE
  5
3
330
0
100
AcDbSymbolTable
 70
    10
  0
STYLE
  5
55
330
3
100
AcDbSymbolTableRecord
100
AcDbTextStyleTableRecord
  2
Standard
 70
     0
 40
0.0
 41
1.0
 50
0.0
 71
     0
 42
0.2
  3
txt
  4

  0
STYLE
  5
5A
330
3
100
AcDbSymbolTableRecord
100
AcDbTextStyleTableRecord
  2
Annotative
 70
     0
 40
0.0
 41
1.0
 50
0.0
 71
     0
 42
0.2
  3
txt
  4

1001
AcadAnnotative
1000
AnnotativeData
1002
{
1070
     1
1070
     1
1002
}
  0
STYLE
  5
B2
330
3
100
AcDbSymbolTableRecord
100
AcDbTextStyleTableRecord
  2

 70
     1
 40
0.0
 41
1.0
 50
0.0
 71
     0
 42
0.2
  3
ltypeshp.shx
  4

  0
STYLE
  5
D4
330
3
100
AcDbSymbolTableRecord
100
AcDbTextStyleTableRecord
  2
ITALICC_120
 70
     0
 40
0.0
 41
1.0
 50
0.0
 71
     0
 42
0.2
  3
italicc.shx
  4

  0
STYLE
  5
D5
330
3
100
AcDbSymbolTableRecord
100
AcDbTextStyleTableRecord
  2
Label Text (ANSI)
 70
     0
 40
0.0
 41
1.0
 50
0.0
 71
     0
 42
0.2
  3
TAHOMA.TTF
  4

1001
ACAD
1000
Tahoma
1071
      256
  0
STYLE
  5
D6
330
3
100
AcDbSymbolTableRecord
100
AcDbTextStyleTableRecord
  2
Note Text (ANSI)
 70
     0
 40
0.0
 41
1.0
 50
0.0
 71
     0
 42
0.2
  3
RomanS.shx
  4

  0
STYLE
  5
D7
330
3
100
AcDbSymbolTableRecord
100
AcDbTextStyleTableRecord
  2
ROMANS
 70
     0
 40
0.0
 41
1.0
 50
0.0
 71
     0
 42
0.2
  3
romans.shx
  4

  0
STYLE
  5
D8
330
3
100
AcDbSymbolTableRecord
100
AcDbTextStyleTableRecord
  2
SANSSERIF_114
 70
     0
 40
0.0
 41
1.0
 50
0.0
 71
     0
 42
0.2
  3
TAHOMA.TTF
  4

1001
ACAD
1000
Tahoma
1071
      256
  0
STYLE
  5
D9
330
3
100
AcDbSymbolTableRecord
100
AcDbTextStyleTableRecord
  2
SANSSERIF_117
 70
     0
 40
0.0
 41
1.0
 50
0.0
 71
     0
 42
0.2
  3
TAHOMA.TTF
  4

1001
ACAD
1000
Tahoma
1071
      256
  0
STYLE
  5
145
330
3
100
AcDbSymbolTableRecord
100
AcDbTextStyleTableRecord
  2
Text Style168
 70
     0
 40
0.0
 41
1.0
 50
0.0
 71
     0
 42
0.2
  3
TAHOMA.TTF
  4

1001
ACAD
1000
Tahoma
1071
      256
  0
ENDTAB
  0
TABLE
  2
VIEW
  5
6
330
0
100
AcDbSymbolTable
 70
     0
  0
ENDTAB
  0
TABLE
  2
UCS
  5
7
330
0
100
AcDbSymbolTable
 70
     0
  0
ENDTAB
  0
TABLE
  2
APPID
  5
9
330
0
100
AcDbSymbolTable
 70
     4
  0
APPID
  5
56
330
9
100
AcDbSymbolTableRecord
100
AcDbRegAppTableRecord
  2
ACAD
 70
     0
  0
APPID
  5
5E
330
9
100
AcDbSymbolTableRecord
100
AcDbRegAppTableRecord
  2
AcadAnnotative
 70
     0
  0
APPID
  5
855
330
9
100
AcDbSymbolTableRecord
100
AcDbRegAppTableRecord
  2
ACAD_DSTYLE_DIMRADIAL_EXTENSION
 70
     0
  0
APPID
  5
F6D
330
9
100
AcDbSymbolTableRecord
100
AcDbRegAppTableRecord
  2
ACAD_MLEADERVER
 70
     0
  0
ENDTAB
  0
TABLE
  2
DIMSTYLE
  5
A
330
0
100
AcDbSymbolTable
 70
    15
100
AcDbDimStyleTable
 71
     2
340
E2
340
58
  0
DIMSTYLE
105
58
330
A
100
AcDbSymbolTableRecord
100
AcDbDimStyleTableRecord
  2
Standard
 70
     0
340
55
  0
DIMSTYLE
105
59
330
A
100
AcDbSymbolTableRecord
100
AcDbDimStyleTableRecord
  2
Annotative
 70
     0
340
55
1001
AcadAnnotative
1000
AnnotativeData
1002
{
1070
     1
1070
     1
1002
}
  0
DIMSTYLE
105
DA
330
A
100
AcDbSymbolTableRecord
100
AcDbDimStyleTableRecord
  2
Architectural (ANSI)
 70
     0
 40
5.333333333333333
 41
0.0984251946210861
 43
0.2362204724409449
 44
0.125
 45
0.00000001
 46
0.3937007874015748
 78
     3
 79
     3
140
0.1000000014901161
146
1.200000029802321
147
0.031496062992126
171
     1
176
   256
177
   256
178
   256
272
     2
274
     1
276
     2
277
     4
284
    12
285
     4
286
    12
340
D6
371
    -1
372
    -1
  0
DIMSTYLE
105
DB
330
A
100
AcDbSymbolTableRecord
100
AcDbDimStyleTableRecord
  2
Architectural (ANSI)$7
 70
     0
 40
5.333333333333333
 41
0.0984251946210861
 43
0.2362204724409449
 44
0.125
 45
0.00000001
 46
0.3937007874015748
 78
     3
 79
     3
140
0.1000000014901161
146
1.200000029802321
147
0.031496062992126
171
     1
176
   256
177
   256
178
   256
272
     2
274
     1
276
     2
277
     4
284
    12
285
     4
286
    12
340
D6
371
    -1
372
    -1
  0
DIMSTYLE
105
DC
330
A
100
AcDbSymbolTableRecord
100
AcDbDimStyleTableRecord
  2
Default - Fraction (ANSI)
 70
     0
 40
5.333333333333333
 41
0.0984251946210861
 43
0.2362204724409449
 44
0.125
 45
0.00000001
 46
0.3937007874015748
 79
     3
140
0.1000000014901161
146
1.200000029802321
147
0.031496062992126
171
     1
176
   256
177
   256
178
   256
272
     2
274
     1
276
     2
277
     5
284
    12
285
     4
286
    12
340
D6
371
    -1
372
    -1
  0
DIMSTYLE
105
DD
330
A
100
AcDbSymbolTableRecord
100
AcDbDimStyleTableRecord
  2
Default - Fraction (ANSI)$7
 70
     0
 40
5.333333333333333
 41
0.0984251946210861
 43
0.2362204724409449
 44
0.125
 45
0.00000001
 46
0.3937007874015748
 79
     3
140
0.1000000014901161
146
1.200000029802321
147
0.031496062992126
171
     1
176
   256
177
   256
178
   256
272
     2
274
     1
276
     2
277
     5
284
    12
285
     4
286
    12
340
D6
371
    -1
372
    -1
  0
DIMSTYLE
105
DE
330
A
100
AcDbSymbolTableRecord
100
AcDbDimStyleTableRecord
  2
Default - mm (ANSI)
 70
     0
 40
5.333333333333333
 41
0.0984251946210861
 42
0.063
 43
0.2362204724409449
 44
0.125
 45
0.00000001
 46
0.3937007874015748
 73
     0
 78
     4
 79
     1
140
0.1000000014901161
143
1.0
144
25.4
146
1.200000029802321
147
0.031496062992126
171
     1
176
   256
177
   256
178
   256
179
     1
271
     2
272
     2
274
     1
284
     4
285
     4
340
D6
371
    -1
372
    -1
  0
DIMSTYLE
105
DF
330
A
100
AcDbSymbolTableRecord
100
AcDbDimStyleTableRecord
  2
Default - mm (ANSI)$7
 70
     0
 40
5.333333333333333
 41
0.0984251946210861
 42
0.063
 43
0.2362204724409449
 44
0.125
 45
0.00000001
 46
0.3937007874015748
 73
     0
 78
     4
 79
     1
140
0.1000000014901161
143
1.0
144
25.4
146
1.200000029802321
147
0.031496062992126
171
     1
176
   256
177
   256
178
   256
179
     1
271
     2
272
     2
274
     1
284
     4
285
     4
340
D6
371
    -1
372
    -1
  0
DIMSTYLE
105
E0
330
A
100
AcDbSymbolTableRecord
100
AcDbDimStyleTableRecord
  2
Default - mm [in] (ANSI)
 70
     0
  4
 in
 40
5.333333333333333
 41
0.0984251946210861
 42
0.063
 43
0.25
 44
0.125
 45
0.00000001
 46
0.3937007874015748
 73
     0
 78
     4
 79
     1
140
0.1000000014901161
143
0.03937
144
25.4
146
1.200000029802321
147
0.031496062992126
170
     1
171
     3
176
   256
177
   256
178
   256
179
     1
271
     2
272
     2
274
     3
284
     4
285
     4
286
     4
340
D6
371
    -1
372
    -1
  0
DIMSTYLE
105
E1
330
A
100
AcDbSymbolTableRecord
100
AcDbDimStyleTableRecord
  2
Default - mm [in] (ANSI)$7
 70
     0
  4
 in
 40
5.333333333333333
 41
0.0984251946210861
 42
0.063
 43
0.25
 44
0.125
 45
0.00000001
 46
0.3937007874015748
 73
     0
 78
     4
 79
     1
140
0.1000000014901161
143
0.03937
144
25.4
146
1.200000029802321
147
0.031496062992126
170
     1
171
     3
176
   256
177
   256
178
   256
179
     1
271
     2
272
     2
274
     3
284
     4
285
     4
286
     4
340
D6
371
    -1
372
    -1
  0
DIMSTYLE
105
E2
102
{ACAD_REACTORS
330
1E9
330
2D6
330
3C0
330
4BE
330
5A8
330
6A6
330
7BC
330
866
330
90F
330
A25
330
B2E
330
C2C
330
D43
330
E2B
102
}
330
A
100
AcDbSymbolTableRecord
100
AcDbDimStyleTableRecord
  2
Default (ANSI)
 70
     0
 40
5.333333333333333
 41
0.0984251946210861
 43
0.2362204724409449
 44
0.125
 45
0.00000001
 46
0.3937007874015748
140
0.1000000014901161
147
0.031496062992126
176
   256
177
   256
178
   256
271
     2
272
     2
340
D7
371
    -1
372
    -1
  0
DIMSTYLE
105
E3
330
A
100
AcDbSymbolTableRecord
100
AcDbDimStyleTableRecord
  2
Default (ANSI)$7
 70
     0
 40
5.333333333333333
 41
0.0984251946210861
 43
0.2362204724409449
 44
0.125
 45
0.00000001
 46
0.3937007874015748
140
0.1000000014901161
147
0.031496062992126
176
   256
177
   256
178
   256
271
     2
272
     2
340
D7
371
    -1
372
    -1
  0
DIMSTYLE
105
E4
330
A
100
AcDbSymbolTableRecord
100
AcDbDimStyleTableRecord
  2
Alternate (ANSI)
 70
     0
 40
5.333333333333333
 41
0.0979999974370003
340
55
342
E5
  0
DIMSTYLE
105
F7
330
A
100
AcDbSymbolTableRecord
100
AcDbDimStyleTableRecord
  2
Datum (ANSI)
 70
     0
 40
5.333333333333333
 41
0.0979999974370003
340
55
342
E5
  0
DIMSTYLE
105
106
330
A
100
AcDbSymbolTableRecord
100
AcDbDimStyleTableRecord
  2
Large (ANSI)
 70
     0
 40
5.333333333333333
 41
0.1959999948740005
340
55
342
E5
  0
ENDTAB
  0
TABLE
  2
BLOCK_RECORD
  5
1
330
0
100
AcDbSymbolTable
 70
    18
  0
BLOCK_RECORD
  5
6C
330
1
100
AcDbSymbolTableRecord
100
AcDbBlockTableRecord
  2
*Model_Space
340
6F
  0
BLOCK_RECORD
  5
68
330
1
100
AcDbSymbolTableRecord
100
AcDbBlockTableRecord
  2
*Paper_Space
340
6B
  0
BLOCK_RECORD
  5
70
330
1
100
AcDbSymbolTableRecord
100
AcDbBlockTableRecord
  2
*Paper_Space0
340
73
  0
BLOCK_RECORD
  5
E5
330
1
100
AcDbSymbolTableRecord
100
AcDbBlockTableRecord
  2
_Closed
340
0
  0
BLOCK_RECORD
  5
EC
330
1
100
AcDbSymbolTableRecord
100
AcDbBlockTableRecord
  2
DatumFilled45
340
0
  0
BLOCK_RECORD
  5
F8
330
1
100
AcDbSymbolTableRecord
100
AcDbBlockTableRecord
  2
Filled-1
340
0
  0
BLOCK_RECORD
  5
1EC
330
1
100
AcDbSymbolTableRecord
100
AcDbBlockTableRecord
  2
*D4
340
0
  0
BLOCK_RECORD
  5
2D7
330
1
100
AcDbSymbolTableRecord
100
AcDbBlockTableRecord
  2
*D5
340
0
  0
BLOCK_RECORD
  5
3C1
330
1
100
AcDbSymbolTableRecord
100
AcDbBlockTableRecord
  2
*D6
340
0
  0
BLOCK_RECORD
  5
4BF
330
1
100
AcDbSymbolTableRecord
100
AcDbBlockTableRecord
  2
*D7
340
0
  0
BLOCK_RECORD
  5
5A9
330
1
100
AcDbSymbolTableRecord
100
AcDbBlockTableRecord
  2
*D8
340
0
  0
BLOCK_RECORD
  5
6A7
330
1
100
AcDbSymbolTableRecord
100
AcDbBlockTableRecord
  2
*D9
340
0
  0
BLOCK_RECORD
  5
7BD
330
1
100
AcDbSymbolTableRecord
100
AcDbBlockTableRecord
  2
*D10
340
0
  0
BLOCK_RECORD
  5
867
330
1
100
AcDbSymbolTableRecord
100
AcDbBlockTableRecord
  2
*D11
340
0
  0
BLOCK_RECORD
  5
910
330
1
100
AcDbSymbolTableRecord
100
AcDbBlockTableRecord
  2
*D12
340
0
  0
BLOCK_RECORD
  5
A26
330
1
100
AcDbSymbolTableRecord
100
AcDbBlockTableRecord
  2
*D13
340
0
  0
BLOCK_RECORD
  5
B2F
330
1
100
AcDbSymbolTableRecord
100
AcDbBlockTableRecord
  2
*D14
340
0
  0
BLOCK_RECORD
  5
C2D
330
1
100
AcDbSymbolTableRecord
100
AcDbBlockTableRecord
  2
*D15
340
0
  0
BLOCK_RECORD
  5
D44
330
1
100
AcDbSymbolTableRecord
100
AcDbBlockTableRecord
  2
*D16
340
0
  0
BLOCK_RECORD
  5
E2C
330
1
100
AcDbSymbolTableRecord
100
AcDbBlockTableRecord
  2
*D17
340
0
  0
ENDTAB
  0
ENDSEC
  0
SECTION
  2
BLOCKS
  0
BLOCK
  5
6D
330
6C
100
AcDbEntity
  8
0
100
AcDbBlockBegin
  2
*Model_Space
 70
     0
 10
0.0
 20
0.0
 30
0.0
  3
*Model_Space
  1

  0
ENDBLK
  5
6E
330
6C
100
AcDbEntity
  8
0
100
AcDbBlockEnd
  0
BLOCK
  5
69
330
68
100
AcDbEntity
 67
     1
  8
0
100
AcDbBlockBegin
  2
*Paper_Space
 70
     0
 10
0.0
 20
0.0
 30
0.0
  3
*Paper_Space
  1

  0
ENDBLK
  5
6A
330
68
100
AcDbEntity
 67
     1
  8
0
100
AcDbBlockEnd
  0
BLOCK
  5
71
330
70
100
AcDbEntity
 67
     1
  8
0
100
AcDbBlockBegin
  2
*Paper_Space0
 70
     0
 10
0.0
 20
0.0
 30
0.0
  3
*Paper_Space0
  1

  0
ENDBLK
  5
72
330
70
100
AcDbEntity
 67
     1
  8
0
100
AcDbBlockEnd
  0
BLOCK
  5
EA
330
E5
100
AcDbEntity
  8
0
100
AcDbBlockBegin
  2
_Closed
 70
     0
 10
0.0
 20
0.0
 30
0.0
  3
_Closed
  1

  0
LINE
  5
E6
330
E5
100
AcDbEntity
  8
0
  6
ByBlock
 62
     0
370
    -2
100
AcDbLine
 10
-1.0
 20
0.1666666666666666
 30
0.0
 11
0.0
 21
0.0
 31
0.0
  0
LINE
  5
E7
330
E5
100
AcDbEntity
  8
0
  6
ByBlock
 62
     0
370
    -2
100
AcDbLine
 10
0.0
 20
0.0
 30
0.0
 11
-1.0
 21
-0.1666666666666666
 31
0.0
  0
LINE
  5
E8
330
E5
100
AcDbEntity
  8
0
  6
ByBlock
 62
     0
370
    -2
100
AcDbLine
 10
-1.0
 20
0.1666666666666666
 30
0.0
 11
-1.0
 21
-0.1666666666666666
 31
0.0
  0
LINE
  5
E9
330
E5
100
AcDbEntity
  8
0
  6
ByBlock
 62
     0
370
    -2
100
AcDbLine
 10
0.0
 20
0.0
 30
0.0
 11
-1.0
 21
0.0
 31
0.0
  0
ENDBLK
  5
EB
330
E5
100
AcDbEntity
  8
0
100
AcDbBlockEnd
  0
BLOCK
  5
ED
330
EC
100
AcDbEntity
  8
0
100
AcDbBlockBegin
  2
DatumFilled45
 70
     0
 10
0.0
 20
0.0
 30
0.0
  3
DatumFilled45
  1

  0
POLYLINE
  5
EF
330
EC
100
AcDbEntity
  8
0
 62
     0
100
AcDb2dPolyline
 66
     1
 10
0.0
 20
0.0
 30
0.0
 70
   128
  0
VERTEX
  5
F0
330
EF
100
AcDbEntity
  8
0
 62
     0
100
AcDbVertex
100
AcDb2dVertex
 10
0.0
 20
0.9999999999999998
 30
0.0
  0
VERTEX
  5
F1
330
EF
100
AcDbEntity
  8
0
 62
     0
100
AcDbVertex
100
AcDb2dVertex
 10
0.0
 20
-0.9999999999999998
 30
0.0
  0
VERTEX
  5
F3
330
EF
100
AcDbEntity
  8
0
 62
     0
100
AcDbVertex
100
AcDb2dVertex
 10
-0.9999999999999998
 20
0.0
 30
0.0
  0
VERTEX
  5
F4
330
EF
100
AcDbEntity
  8
0
 62
     0
100
AcDbVertex
100
AcDb2dVertex
 10
0.0
 20
0.9999999999999998
 30
0.0
  0
SEQEND
  5
F2
330
EF
100
AcDbEntity
  8
0
 62
     0
  0
SOLID
  5
F6
330
EC
100
AcDbEntity
  8
0
 62
     0
100
AcDbTrace
 10
0.0
 20
0.9999999999999998
 30
0.0
 11
0.0
 21
-0.9999999999999998
 31
0.0
 12
-0.9999999999999998
 22
0.0
 32
0.0
 13
0.0
 23
0.9999999999999998
 33
0.0
  0
ENDBLK
  5
EE
330
EC
100
AcDbEntity
  8
0
100
AcDbBlockEnd
  0
BLOCK
  5
F9
330
F8
100
AcDbEntity
  8
0
100
AcDbBlockBegin
  2
Filled-1
 70
     0
 10
0.0
 20
0.0
 30
0.0
  3
Filled-1
  1

  0
LINE
  5
FB
330
F8
100
AcDbEntity
  8
0
 62
     0
100
AcDbLine
 10
-0.9999999999999998
 20
0.0
 30
0.0
 11
0.0
 21
0.0
 31
0.0
  0
POLYLINE
  5
FC
330
F8
100
AcDbEntity
  8
0
 62
     0
100
AcDb2dPolyline
 66
     1
 10
0.0
 20
0.0
 30
0.0
 70
   128
  0
VERTEX
  5
FD
330
FC
100
AcDbEntity
  8
0
 62
     0
100
AcDbVertex
100
AcDb2dVertex
 10
-0.9999999999999998
 20
-0.0994897959183674
 30
0.0
  0
VERTEX
  5
FE
330
FC
100
AcDbEntity
  8
0
 62
     0
100
AcDbVertex
100
AcDb2dVertex
 10
0.0
 20
0.0
 30
0.0
  0
VERTEX
  5
100
330
FC
100
AcDbEntity
  8
0
 62
     0
100
AcDbVertex
100
AcDb2dVertex
 10
-0.9999999999999998
 20
0.0994897959183674
 30
0.0
  0
VERTEX
  5
101
330
FC
100
AcDbEntity
  8
0
 62
     0
100
AcDbVertex
100
AcDb2dVertex
 10
-0.9999999999999998
 20
-0.0994897959183674
 30
0.0
  0
SEQEND
  5
FF
330
FC
100
AcDbEntity
  8
0
 62
     0
  0
SOLID
  5
102
330
F8
100
AcDbEntity
  8
0
 62
     0
100
AcDbTrace
 10
-0.9999999999999998
 20
-0.0994897959183674
 30
0.0
 11
0.0
 21
0.0
 31
0.0
 12
-0.9999999999999998
 22
0.0994897959183674
 32
0.0
 13
-0.9999999999999998
 23
-0.0994897959183674
 33
0.0
  0
LINE
  5
103
330
F8
100
AcDbEntity
  8
0
 62
     0
100
AcDbLine
 10
-0.9999999999999998
 20
-0.0994897959183674
 30
0.0
 11
0.0
 21
0.0
 31
0.0
  0
LINE
  5
104
330
F8
100
AcDbEntity
  8
0
 62
     0
100
AcDbLine
 10
0.0
 20
0.0
 30
0.0
 11
-0.9999999999999998
 21
0.0994897959183674
 31
0.0
  0
LINE
  5
105
330
F8
100
AcDbEntity
  8
0
 62
     0
100
AcDbLine
 10
-0.9999999999999998
 20
0.0994897959183674
 30
0.0
 11
-0.9999999999999998
 21
-0.0994897959183674
 31
0.0
  0
ENDBLK
  5
FA
330
F8
100
AcDbEntity
  8
0
100
AcDbBlockEnd
  0
BLOCK
  5
1ED
330
1EC
100
AcDbEntity
  8
0
100
AcDbBlockBegin
  2
*D4
 70
     1
 10
0.0
 20
0.0
 30
0.0
  3
*D4
  1

  0
LINE
  5
2CC
330
1EC
100
AcDbEntity
  8
Dimension (ANSI)
100
AcDbLine
 10
14.21138576985567
 20
46.95223548159835
 30
0.0
 11
14.21138576985567
 21
54.42467642648022
 31
0.0
  0
LINE
  5
2CD
330
1EC
100
AcDbEntity
  8
Dimension (ANSI)
100
AcDbLine
 10
42.41138576985567
 20
46.95223548159836
 30
0.0
 11
42.41138576985567
 21
54.42467642648022
 31
0.0
  0
LINE
  5
2CE
330
1EC
100
AcDbEntity
  8
Dimension (ANSI)
100
AcDbLine
 10
14.73632014116813
 20
53.75800975981356
 30
0.0
 11
27.07674008466976
 21
53.75800975981356
 31
0.0
  0
LINE
  5
2CF
330
1EC
100
AcDbEntity
  8
Dimension (ANSI)
100
AcDbLine
 10
41.88645139854321
 20
53.75800975981356
 30
0.0
 11
29.54603145504158
 21
53.75800975981356
 31
0.0
  0
SOLID
  5
2D0
330
1EC
100
AcDbEntity
  8
Dimension (ANSI)
100
AcDbTrace
 10
14.73632014116813
 20
53.84549882169896
 30
0.0
 11
14.73632014116813
 21
53.67052069792816
 31
0.0
 12
14.21138576985567
 22
53.75800975981356
 32
0.0
 13
14.21138576985567
 23
53.75800975981356
 33
0.0
  0
SOLID
  5
2D1
330
1EC
100
AcDbEntity
  8
Dimension (ANSI)
100
AcDbTrace
 10
41.88645139854321
 20
53.84549882169896
 30
0.0
 11
41.88645139854321
 21
53.67052069792816
 31
0.0
 12
42.41138576985567
 22
53.75800975981356
 32
0.0
 13
42.41138576985567
 23
53.75800975981356
 33
0.0
  0
MTEXT
  5
2D2
330
1EC
100
AcDbEntity
  8
Dimension (ANSI)
100
AcDbMText
 10
27.24471908729443
 20
54.02467643045387
 30
0.0
 40
0.5333333412806193
 41
0.0
 71
     1
 72
     1
  1
\A1;28.20
  7
ROMANS
 73
     1
 44
1.0
1001
ACAD
1000
MTEXTBEGIN
1070
    73
1070
     1
1070
    44
1040
1.0
1070
    74
1070
     0
1000
MTEXTEND
  0
POINT
  5
2D3
330
1EC
100
AcDbEntity
  8
Defpoints
 62
     0
100
AcDbPoint
 10
14.21138576985567
 20
46.61890214826502
 30
0.0
  0
POINT
  5
2D4
330
1EC
100
AcDbEntity
  8
Defpoints
 62
     0
100
AcDbPoint
 10
42.41138576985567
 20
46.61890214826502
 30
0.0
  0
POINT
  5
2D5
330
1EC
100
AcDbEntity
  8
Defpoints
 62
     0
100
AcDbPoint
 10
42.41138576985567
 20
53.75800975981356
 30
0.0
  0
ENDBLK
  5
1EE
330
1EC
100
AcDbEntity
  8
0
100
AcDbBlockEnd
  0
BLOCK
  5
2D8
330
2D7
100
AcDbEntity
  8
0
100
AcDbBlockBegin
  2
*D5
 70
     1
 10
0.0
 20
0.0
 30
0.0
  3
*D5
  1

  0
LINE
  5
3B6
330
2D7
100
AcDbEntity
  8
Dimension (ANSI)
100
AcDbLine
 10
14.71138576985566
 20
47.45223548159835
 30
0.0
 11
14.71138576985566
 21
52.40499138711015
 31
0.0
  0
LINE
  5
3B7
330
2D7
100
AcDbEntity
  8
Dimension (ANSI)
100
AcDbLine
 10
41.91138576985567
 20
47.45223548159835
 30
0.0
 11
41.91138576985567
 21
52.40499138711015
 31
0.0
  0
LINE
  5
3B8
330
2D7
100
AcDbEntity
  8
Dimension (ANSI)
100
AcDbLine
 10
15.23632014116812
 20
51.73832472044349
 30
0.0
 11
25.99737498922089
 21
51.73832472044349
 31
0.0
  0
LINE
  5
3B9
330
2D7
100
AcDbEntity
  8
Dimension (ANSI)
100
AcDbLine
 10
41.38645139854321
 20
51.73832472044349
 30
0.0
 11
30.62539655049045
 21
51.73832472044349
 31
0.0
  0
SOLID
  5
3BA
330
2D7
100
AcDbEntity
  8
Dimension (ANSI)
100
AcDbTrace
 10
15.23632014116812
 20
51.82581378232889
 30
0.0
 11
15.23632014116812
 21
51.65083565855808
 31
0.0
 12
14.71138576985566
 22
51.73832472044349
 32
0.0
 13
14.71138576985566
 23
51.73832472044349
 33
0.0
  0
SOLID
  5
3BB
330
2D7
100
AcDbEntity
  8
Dimension (ANSI)
100
AcDbTrace
 10
41.38645139854321
 20
51.82581378232889
 30
0.0
 11
41.38645139854321
 21
51.65083565855808
 31
0.0
 12
41.91138576985567
 22
51.73832472044349
 32
0.0
 13
41.91138576985567
 23
51.73832472044349
 33
0.0
  0
MTEXT
  5
3BC
330
2D7
100
AcDbEntity
  8
Dimension (ANSI)
100
AcDbMText
 10
28.31138576985567
 20
51.73832472044349
 30
0.0
 40
0.5333333412806193
 41
0.0
 71
     5
 72
     1
  1
\A1;27.20{ TYP.}
  7
ROMANS
 73
     1
 44
1.0
1001
ACAD
1000
MTEXTBEGIN
1070
    73
1070
     1
1070
    44
1040
1.0
1070
    74
1070
     0
1000
MTEXTEND
  0
POINT
  5
3BD
330
2D7
100
AcDbEntity
  8
Defpoints
 62
     0
100
AcDbPoint
 10
14.71138576985566
 20
47.11890214826501
 30
0.0
  0
POINT
  5
3BE
330
2D7
100
AcDbEntity
  8
Defpoints
 62
     0
100
AcDbPoint
 10
41.91138576985567
 20
47.11890214826501
 30
0.0
  0
POINT
  5
3BF
330
2D7
100
AcDbEntity
  8
Defpoints
 62
     0
100
AcDbPoint
 10
41.91138576985567
 20
51.73832472044349
 30
0.0
  0
ENDBLK
  5
2D9
330
2D7
100
AcDbEntity
  8
0
100
AcDbBlockEnd
  0
BLOCK
  5
3C2
330
3C1
100
AcDbEntity
  8
0
100
AcDbBlockBegin
  2
*D6
 70
     1
 10
0.0
 20
0.0
 30
0.0
  3
*D6
  1

  0
LINE
  5
4B4
330
3C1
100
AcDbEntity
  8
Dimension (ANSI)
100
AcDbLine
 10
14.21138576985567
 20
46.95223548159835
 30
0.0
 11
14.21138576985567
 21
52.40499138711015
 31
0.0
  0
LINE
  5
4B5
330
3C1
100
AcDbEntity
  8
Dimension (ANSI)
100
AcDbLine
 10
14.71138576985566
 20
47.45223548159835
 30
0.0
 11
14.71138576985566
 21
52.40499138711015
 31
0.0
  0
LINE
  5
4B6
330
3C1
100
AcDbEntity
  8
Dimension (ANSI)
100
AcDbLine
 10
15.23632014116812
 20
51.73832472044349
 30
0.0
 11
15.76125451248058
 21
51.73832472044349
 31
0.0
  0
LINE
  5
4B7
330
3C1
100
AcDbEntity
  8
Dimension (ANSI)
100
AcDbLine
 10
13.68645139854321
 20
51.73832472044349
 30
0.0
 11
13.16151702723075
 21
51.73832472044349
 31
0.0
  0
SOLID
  5
4B8
330
3C1
100
AcDbEntity
  8
Dimension (ANSI)
100
AcDbTrace
 10
15.23632014116812
 20
51.82581378232889
 30
0.0
 11
15.23632014116812
 21
51.65083565855808
 31
0.0
 12
14.71138576985566
 22
51.73832472044349
 32
0.0
 13
14.71138576985566
 23
51.73832472044349
 33
0.0
  0
SOLID
  5
4B9
330
3C1
100
AcDbEntity
  8
Dimension (ANSI)
100
AcDbTrace
 10
13.68645139854321
 20
51.82581378232889
 30
0.0
 11
13.68645139854321
 21
51.65083565855808
 31
0.0
 12
14.21138576985567
 22
51.73832472044349
 32
0.0
 13
14.21138576985567
 23
51.73832472044349
 33
0.0
  0
MTEXT
  5
4BA
330
3C1
100
AcDbEntity
  8
Dimension (ANSI)
100
AcDbMText
 10
12.18083959979751
 20
51.73832472044349
 30
0.0
 40
0.5333333412806193
 41
0.0
 71
     5
 72
     1
  1
\A1;0.50{\PTYP.}
  7
ROMANS
 73
     1
 44
1.0
1001
ACAD
1000
MTEXTBEGIN
1070
    73
1070
     1
1070
    44
1040
1.0
1070
    74
1070
     0
1000
MTEXTEND
  0
POINT
  5
4BB
330
3C1
100
AcDbEntity
  8
Defpoints
 62
     0
100
AcDbPoint
 10
14.21138576985567
 20
46.61890214826502
 30
0.0
  0
POINT
  5
4BC
330
3C1
100
AcDbEntity
  8
Defpoints
 62
     0
100
AcDbPoint
 10
14.71138576985566
 20
47.11890214826501
 30
0.0
  0
POINT
  5
4BD
330
3C1
100
AcDbEntity
  8
Defpoints
 62
     0
100
AcDbPoint
 10
14.71138576985566
 20
51.73832472044349
 30
0.0
  0
ENDBLK
  5
3C3
330
3C1
100
AcDbEntity
  8
0
100
AcDbBlockEnd
  0
BLOCK
  5
4C0
330
4BF
100
AcDbEntity
  8
0
100
AcDbBlockBegin
  2
*D7
 70
     1
 10
0.0
 20
0.0
 30
0.0
  3
*D7
  1

  0
LINE
  5
59E
330
4BF
100
AcDbEntity
  8
Dimension (ANSI)
100
AcDbLine
 10
14.37805243652233
 20
47.11890214826501
 30
0.0
 11
7.351805717362251
 21
47.11890214826501
 31
0.0
  0
LINE
  5
59F
330
4BF
100
AcDbEntity
  8
Dimension (ANSI)
100
AcDbLine
 10
14.37805243652234
 20
12.91890214826502
 30
0.0
 11
7.351805717362243
 21
12.91890214826502
 31
0.0
  0
LINE
  5
5A0
330
4BF
100
AcDbEntity
  8
Dimension (ANSI)
100
AcDbLine
 10
8.018472384028918
 20
46.59396777695255
 30
0.0
 11
8.018472384028914
 21
30.45354782153
 31
0.0
  0
LINE
  5
5A1
330
4BF
100
AcDbEntity
  8
Dimension (ANSI)
100
AcDbLine
 10
8.01847238402891
 20
13.44383651957748
 30
0.0
 11
8.018472384028914
 21
29.58425647500004
 31
0.0
  0
SOLID
  5
5A2
330
4BF
100
AcDbEntity
  8
Dimension (ANSI)
100
AcDbTrace
 10
7.930983322143507
 20
46.59396777695255
 30
0.0
 11
8.105961445914328
 21
46.59396777695255
 31
0.0
 12
8.018472384028918
 22
47.11890214826501
 32
0.0
 13
8.018472384028918
 23
47.11890214826501
 33
0.0
  0
SOLID
  5
5A3
330
4BF
100
AcDbEntity
  8
Dimension (ANSI)
100
AcDbTrace
 10
7.930983322143499
 20
13.44383651957748
 30
0.0
 11
8.105961445914321
 21
13.44383651957748
 31
0.0
 12
8.01847238402891
 22
12.91890214826502
 32
0.0
 13
8.01847238402891
 23
12.91890214826502
 33
0.0
  0
MTEXT
  5
5A4
330
4BF
100
AcDbEntity
  8
Dimension (ANSI)
100
AcDbMText
 10
6.95180570146767
 20
30.28556881890533
 30
0.0
 40
0.5333333412806193
 41
0.0
 71
     1
 72
     1
  1
\A1;34.20
  7
ROMANS
 73
     1
 44
1.0
1001
ACAD
1000
MTEXTBEGIN
1070
    73
1070
     1
1070
    44
1040
1.0
1070
    74
1070
     0
1000
MTEXTEND
  0
POINT
  5
5A5
330
4BF
100
AcDbEntity
  8
Defpoints
 62
     0
100
AcDbPoint
 10
14.71138576985566
 20
47.11890214826501
 30
0.0
  0
POINT
  5
5A6
330
4BF
100
AcDbEntity
  8
Defpoints
 62
     0
100
AcDbPoint
 10
14.71138576985567
 20
12.91890214826502
 30
0.0
  0
POINT
  5
5A7
330
4BF
100
AcDbEntity
  8
Defpoints
 62
     0
100
AcDbPoint
 10
8.01847238402891
 20
12.91890214826502
 30
0.0
  0
ENDBLK
  5
4C1
330
4BF
100
AcDbEntity
  8
0
100
AcDbBlockEnd
  0
BLOCK
  5
5AA
330
5A9
100
AcDbEntity
  8
0
100
AcDbBlockBegin
  2
*D8
 70
     1
 10
0.0
 20
0.0
 30
0.0
  3
*D8
  1

  0
LINE
  5
69C
330
5A9
100
AcDbEntity
  8
Dimension (ANSI)
100
AcDbLine
 10
13.87805243652234
 20
13.41890214826502
 30
0.0
 11
11.57621516618113
 21
13.41890214826502
 31
0.0
  0
LINE
  5
69D
330
5A9
100
AcDbEntity
  8
Dimension (ANSI)
100
AcDbLine
 10
13.87805243652233
 20
46.61890214826502
 30
0.0
 11
11.57621516618114
 21
46.61890214826502
 31
0.0
  0
LINE
  5
69E
330
5A9
100
AcDbEntity
  8
Dimension (ANSI)
100
AcDbLine
 10
12.2428818328478
 20
13.94383651957748
 30
0.0
 11
12.2428818328478
 21
29.13981202393284
 31
0.0
  0
LINE
  5
69F
330
5A9
100
AcDbEntity
  8
Dimension (ANSI)
100
AcDbLine
 10
12.2428818328478
 20
46.09396777695255
 30
0.0
 11
12.2428818328478
 21
30.89799227259718
 31
0.0
  0
SOLID
  5
6A0
330
5A9
100
AcDbEntity
  8
Dimension (ANSI)
100
AcDbTrace
 10
12.15539277096238
 20
13.94383651957748
 30
0.0
 11
12.3303708947332
 21
13.94383651957748
 31
0.0
 12
12.2428818328478
 22
13.41890214826502
 32
0.0
 13
12.2428818328478
 23
13.41890214826502
 33
0.0
  0
SOLID
  5
6A1
330
5A9
100
AcDbEntity
  8
Dimension (ANSI)
100
AcDbTrace
 10
12.15539277096239
 20
46.09396777695255
 30
0.0
 11
12.33037089473321
 21
46.09396777695255
 31
0.0
 12
12.2428818328478
 22
46.61890214826502
 32
0.0
 13
12.2428818328478
 23
46.61890214826502
 33
0.0
  0
MTEXT
  5
6A2
330
5A9
100
AcDbEntity
  8
Dimension (ANSI)
100
AcDbMText
 10
12.24288183284779
 20
30.01890214826501
 30
0.0
 40
0.5333333412806193
 41
0.0
 71
     5
 72
     1
  1
\A1;33.20{\PTYP.}
  7
ROMANS
 73
     1
 44
1.0
1001
ACAD
1000
MTEXTBEGIN
1070
    73
1070
     1
1070
    44
1040
1.0
1070
    74
1070
     0
1000
MTEXTEND
  0
POINT
  5
6A3
330
5A9
100
AcDbEntity
  8
Defpoints
 62
     0
100
AcDbPoint
 10
14.21138576985567
 20
13.41890214826502
 30
0.0
  0
POINT
  5
6A4
330
5A9
100
AcDbEntity
  8
Defpoints
 62
     0
100
AcDbPoint
 10
14.21138576985567
 20
46.61890214826502
 30
0.0
  0
POINT
  5
6A5
330
5A9
100
AcDbEntity
  8
Defpoints
 62
     0
100
AcDbPoint
 10
12.2428818328478
 20
46.61890214826502
 30
0.0
  0
ENDBLK
  5
5AB
330
5A9
100
AcDbEntity
  8
0
100
AcDbBlockEnd
  0
BLOCK
  5
6A8
330
6A7
100
AcDbEntity
  8
0
100
AcDbBlockBegin
  2
*D9
 70
     1
 10
0.0
 20
0.0
 30
0.0
  3
*D9
  1

  0
LINE
  5
7B1
330
6A7
100
AcDbEntity
  8
Dimension (ANSI)
100
AcDbLine
 10
14.37805243652233
 20
47.11890214826501
 30
0.0
 11
10.07060336743544
 21
47.11890214826501
 31
0.0
  0
LINE
  5
7B2
330
6A7
100
AcDbEntity
  8
Dimension (ANSI)
100
AcDbLine
 10
13.87805243652233
 20
46.61890214826502
 30
0.0
 11
10.07060336743544
 21
46.61890214826502
 31
0.0
  0
LINE
  5
7B3
330
6A7
100
AcDbEntity
  8
Dimension (ANSI)
100
AcDbLine
 10
10.73727003410211
 20
46.09396777695255
 30
0.0
 11
10.73727003410211
 21
45.5690334056401
 31
0.0
  0
LINE
  5
7B4
330
6A7
100
AcDbEntity
  8
Dimension (ANSI)
100
AcDbLine
 10
10.73727003410211
 20
47.64383651957747
 30
0.0
 11
10.73727003410211
 21
49.17173525719798
 31
0.0
  0
LINE
  5
7B5
330
6A7
100
AcDbEntity
  8
Dimension (ANSI)
100
AcDbLine
 10
10.73727003410211
 20
49.17173525719798
 30
0.0
 11
11.26220440541457
 21
49.17173525719798
 31
0.0
  0
SOLID
  5
7B6
330
6A7
100
AcDbEntity
  8
Dimension (ANSI)
100
AcDbTrace
 10
10.6497809722167
 20
46.09396777695255
 30
0.0
 11
10.82475909598752
 21
46.09396777695255
 31
0.0
 12
10.73727003410211
 22
46.61890214826502
 32
0.0
 13
10.73727003410211
 23
46.61890214826502
 33
0.0
  0
SOLID
  5
7B7
330
6A7
100
AcDbEntity
  8
Dimension (ANSI)
100
AcDbTrace
 10
10.6497809722167
 20
47.64383651957747
 30
0.0
 11
10.82475909598752
 21
47.64383651957747
 31
0.0
 12
10.73727003410211
 22
47.11890214826501
 32
0.0
 13
10.73727003410211
 23
47.11890214826501
 33
0.0
  0
MTEXT
  5
7B8
330
6A7
100
AcDbEntity
  8
Dimension (ANSI)
100
AcDbMText
 10
12.24288183284779
 20
49.17173525719798
 30
0.0
 40
0.5333333412806193
 41
0.0
 71
     5
 72
     1
  1
\A1;0.50{\PTYP.}
  7
ROMANS
 73
     1
 44
1.0
1001
ACAD
1000
MTEXTBEGIN
1070
    73
1070
     1
1070
    44
1040
1.0
1070
    74
1070
     0
1000
MTEXTEND
  0
POINT
  5
7B9
330
6A7
100
AcDbEntity
  8
Defpoints
 62
     0
100
AcDbPoint
 10
14.71138576985566
 20
47.11890214826501
 30
0.0
  0
POINT
  5
7BA
330
6A7
100
AcDbEntity
  8
Defpoints
 62
     0
100
AcDbPoint
 10
14.21138576985567
 20
46.61890214826502
 30
0.0
  0
POINT
  5
7BB
330
6A7
100
AcDbEntity
  8
Defpoints
 62
     0
100
AcDbPoint
 10
10.73727003410211
 20
46.61890214826502
 30
0.0
  0
ENDBLK
  5
6A9
330
6A7
100
AcDbEntity
  8
0
100
AcDbBlockEnd
  0
BLOCK
  5
7BE
330
7BD
100
AcDbEntity
  8
0
100
AcDbBlockBegin
  2
*D10
 70
     1
 10
0.0
 20
0.0
 30
0.0
  3
*D10
  1

  0
LINE
  5
85E
330
7BD
100
AcDbEntity
  8
Dimension (ANSI)
100
AcDbLine
 10
18.20386294640195
 20
10.82502234002318
 30
0.0
 11
17.34526557809824
 21
10.82502234002318
 31
0.0
  0
LINE
  5
85F
330
7BD
100
AcDbEntity
  8
Dimension (ANSI)
100
AcDbLine
 10
17.34526557809824
 20
10.82502234002318
 30
0.0
 11
15.27934711878533
 21
12.89094079933552
 31
0.0
  0
MTEXT
  5
860
102
{ACAD_XDICTIONARY
360
F74
102
}
330
7BD
100
AcDbEntity
  8
Dimension (ANSI)
100
AcDbMText
 10
18.37184194902661
 20
11.23137155242746
 30
0.0
 40
0.5333333412806193
 41
0.0
 71
     1
 72
     1
  1
\A1;\U+22050.50{ TYP. (6 PL.)}
  7
ROMANS
 73
     1
 44
1.0
1001
ACAD
1000
MTEXTBEGIN
1070
    73
1070
     1
1070
    44
1040
1.0
1070
    74
1070
     0
1000
MTEXTEND
  0
SOLID
  5
861
330
7BD
100
AcDbEntity
  8
Dimension (ANSI)
100
AcDbTrace
 10
15.34121122772415
 20
12.95280490827435
 30
0.0
 11
15.21748300984652
 21
12.82907669039669
 31
0.0
 12
14.90816246515235
 22
13.26212545296841
 32
0.0
 13
14.90816246515235
 23
13.26212545296841
 33
0.0
  0
LINE
  5
862
330
7BD
100
AcDbEntity
  8
Dimension (ANSI)
100
AcDbLine
 10
14.25138576985568
 20
13.43890214826502
 30
0.0
 11
15.21138576985569
 21
13.43890214826502
 31
0.0
  0
LINE
  5
863
330
7BD
100
AcDbEntity
  8
Dimension (ANSI)
100
AcDbLine
 10
14.73138576985568
 20
12.95890214826502
 30
0.0
 11
14.73138576985569
 21
13.91890214826502
 31
0.0
  0
POINT
  5
864
330
7BD
100
AcDbEntity
  8
Defpoints
 62
     0
100
AcDbPoint
 10
14.90816246515235
 20
13.26212545296841
 30
0.0
  0
POINT
  5
865
330
7BD
100
AcDbEntity
  8
Defpoints
 62
     0
100
AcDbPoint
 10
14.55460907455903
 20
13.61567884356163
 30
0.0
  0
ENDBLK
  5
7BF
330
7BD
100
AcDbEntity
  8
0
100
AcDbBlockEnd
  0
BLOCK
  5
868
330
867
100
AcDbEntity
  8
0
100
AcDbBlockBegin
  2
*D11
 70
     1
 10
0.0
 20
0.0
 30
0.0
  3
*D11
  1

  0
LINE
  5
907
330
867
100
AcDbEntity
  8
Dimension (ANSI)
100
AcDbLine
 10
18.14080343108373
 20
11.63808185534139
 30
0.0
 11
17.28220606278011
 21
11.63808185534139
 31
0.0
  0
LINE
  5
908
330
867
100
AcDbEntity
  8
Dimension (ANSI)
100
AcDbLine
 10
17.28220606278011
 20
11.63808185534139
 30
0.0
 11
15.21305585804909
 21
13.70723206007176
 31
0.0
  0
MTEXT
  5
909
102
{ACAD_XDICTIONARY
360
F76
102
}
330
867
100
AcDbEntity
  8
Dimension (ANSI)
100
AcDbMText
 10
18.30878243370841
 20
12.04443106774567
 30
0.0
 40
0.5333333412806193
 41
0.0
 71
     1
 72
     1
  1
\A1;\U+22050.31{ TYP. (4 PL.)}
  7
ROMANS
 73
     1
 44
1.0
1001
ACAD
1000
MTEXTBEGIN
1070
    73
1070
     1
1070
    44
1040
1.0
1070
    74
1070
     0
1000
MTEXTEND
  0
SOLID
  5
90A
330
867
100
AcDbEntity
  8
Dimension (ANSI)
100
AcDbTrace
 10
15.2749199669879
 20
13.76909616901059
 30
0.0
 11
15.15119174911028
 21
13.64536795113293
 31
0.0
 12
14.8418712044161
 22
14.07841671370464
 32
0.0
 13
14.8418712044161
 23
14.07841671370464
 33
0.0
  0
LINE
  5
90B
330
867
100
AcDbEntity
  8
Dimension (ANSI)
100
AcDbLine
 10
14.25138576985568
 20
14.18890214826502
 30
0.0
 11
15.21138576985568
 21
14.18890214826502
 31
0.0
  0
LINE
  5
90C
330
867
100
AcDbEntity
  8
Dimension (ANSI)
100
AcDbLine
 10
14.73138576985568
 20
13.70890214826502
 30
0.0
 11
14.73138576985568
 21
14.66890214826502
 31
0.0
  0
POINT
  5
90D
330
867
100
AcDbEntity
  8
Defpoints
 62
     0
100
AcDbPoint
 10
14.8418712044161
 20
14.07841671370464
 30
0.0
  0
POINT
  5
90E
330
867
100
AcDbEntity
  8
Defpoints
 62
     0
100
AcDbPoint
 10
14.62090033529526
 20
14.2993875828254
 30
0.0
  0
ENDBLK
  5
869
330
867
100
AcDbEntity
  8
0
100
AcDbBlockEnd
  0
BLOCK
  5
911
330
910
100
AcDbEntity
  8
0
100
AcDbBlockBegin
  2
*D12
 70
     1
 10
0.0
 20
0.0
 30
0.0
  3
*D12
  1

  0
LINE
  5
A1A
330
910
100
AcDbEntity
  8
Dimension (ANSI)
100
AcDbLine
 10
42.24471910318901
 20
12.91890214826502
 30
0.0
 11
47.23327053448063
 21
12.91890214826502
 31
0.0
  0
LINE
  5
A1B
330
910
100
AcDbEntity
  8
Dimension (ANSI)
100
AcDbLine
 10
42.224719103189
 20
13.43890214826502
 30
0.0
 11
47.23327053448063
 21
13.43890214826501
 31
0.0
  0
LINE
  5
A1C
330
910
100
AcDbEntity
  8
Dimension (ANSI)
100
AcDbLine
 10
46.56660386781396
 20
13.96383651957747
 30
0.0
 11
46.56660386781396
 21
14.48877089088993
 31
0.0
  0
LINE
  5
A1D
330
910
100
AcDbEntity
  8
Dimension (ANSI)
100
AcDbLine
 10
46.56660386781396
 20
12.39396777695256
 30
0.0
 11
46.56660386781396
 21
11.25035949731123
 31
0.0
  0
LINE
  5
A1E
330
910
100
AcDbEntity
  8
Dimension (ANSI)
100
AcDbLine
 10
46.56660386781396
 20
11.25035949731123
 30
0.0
 11
46.0416694965015
 21
11.25035949731123
 31
0.0
  0
SOLID
  5
A1F
330
910
100
AcDbEntity
  8
Dimension (ANSI)
100
AcDbTrace
 10
46.47911480592855
 20
13.96383651957747
 30
0.0
 11
46.65409292969937
 21
13.96383651957747
 31
0.0
 12
46.56660386781396
 22
13.43890214826501
 32
0.0
 13
46.56660386781396
 23
13.43890214826501
 33
0.0
  0
SOLID
  5
A20
330
910
100
AcDbEntity
  8
Dimension (ANSI)
100
AcDbTrace
 10
46.47911480592855
 20
12.39396777695256
 30
0.0
 11
46.65409292969937
 21
12.39396777695256
 31
0.0
 12
46.56660386781396
 22
12.91890214826502
 32
0.0
 13
46.56660386781396
 23
12.91890214826502
 33
0.0
  0
MTEXT
  5
A21
330
910
100
AcDbEntity
  8
Dimension (ANSI)
100
AcDbMText
 10
45.06099206906827
 20
11.25035949731124
 30
0.0
 40
0.5333333412806193
 41
0.0
 71
     5
 72
     1
  1
\A1;0.52{ \PTYP.}
  7
ROMANS
 73
     1
 44
1.0
1001
ACAD
1000
MTEXTBEGIN
1070
    73
1070
     1
1070
    44
1040
1.0
1070
    74
1070
     0
1000
MTEXTEND
  0
POINT
  5
A22
330
910
100
AcDbEntity
  8
Defpoints
 62
     0
100
AcDbPoint
 10
41.91138576985568
 20
12.91890214826502
 30
0.0
  0
POINT
  5
A23
330
910
100
AcDbEntity
  8
Defpoints
 62
     0
100
AcDbPoint
 10
41.89138576985566
 20
13.43890214826502
 30
0.0
  0
POINT
  5
A24
330
910
100
AcDbEntity
  8
Defpoints
 62
     0
100
AcDbPoint
 10
46.56660386781396
 20
13.43890214826501
 30
0.0
  0
ENDBLK
  5
912
330
910
100
AcDbEntity
  8
0
100
AcDbBlockEnd
  0
BLOCK
  5
A27
330
A26
100
AcDbEntity
  8
0
100
AcDbBlockBegin
  2
*D13
 70
     1
 10
0.0
 20
0.0
 30
0.0
  3
*D13
  1

  0
LINE
  5
B25
330
A26
100
AcDbEntity
  8
Dimension (ANSI)
100
AcDbLine
 10
39.00220196063724
 20
14.71383651957748
 30
0.0
 11
39.00220196063724
 21
15.23877089088993
 31
0.0
  0
LINE
  5
B26
330
A26
100
AcDbEntity
  8
Dimension (ANSI)
100
AcDbLine
 10
39.00220196063724
 20
12.39396777695256
 30
0.0
 11
39.00220196063724
 21
11.22602776132235
 31
0.0
  0
LINE
  5
B27
330
A26
100
AcDbEntity
  8
Dimension (ANSI)
100
AcDbLine
 10
39.00220196063724
 20
11.22602776132235
 30
0.0
 11
38.47726758932478
 21
11.22602776132235
 31
0.0
  0
SOLID
  5
B28
330
A26
100
AcDbEntity
  8
Dimension (ANSI)
100
AcDbTrace
 10
38.91471289875184
 20
14.71383651957748
 30
0.0
 11
39.08969102252265
 21
14.71383651957748
 31
0.0
 12
39.00220196063724
 22
14.18890214826502
 32
0.0
 13
39.00220196063724
 23
14.18890214826502
 33
0.0
  0
SOLID
  5
B29
330
A26
100
AcDbEntity
  8
Dimension (ANSI)
100
AcDbTrace
 10
38.91471289875184
 20
12.39396777695256
 30
0.0
 11
39.08969102252265
 21
12.39396777695256
 31
0.0
 12
39.00220196063724
 22
12.91890214826502
 32
0.0
 13
39.00220196063724
 23
12.91890214826502
 33
0.0
  0
MTEXT
  5
B2A
330
A26
100
AcDbEntity
  8
Dimension (ANSI)
100
AcDbMText
 10
37.53468540055445
 20
11.22602776132235
 30
0.0
 40
0.5333333412806193
 41
0.0
 71
     5
 72
     1
  1
\A1;1.27{\PTYP.}
  7
ROMANS
 73
     1
 44
1.0
1001
ACAD
1000
MTEXTBEGIN
1070
    73
1070
     1
1070
    44
1040
1.0
1070
    74
1070
     0
1000
MTEXTEND
  0
POINT
  5
B2B
330
A26
100
AcDbEntity
  8
Defpoints
 62
     0
100
AcDbPoint
 10
41.91138576985568
 20
12.91890214826502
 30
0.0
  0
POINT
  5
B2C
330
A26
100
AcDbEntity
  8
Defpoints
 62
     0
100
AcDbPoint
 10
41.89138576985566
 20
14.18890214826502
 30
0.0
  0
POINT
  5
B2D
330
A26
100
AcDbEntity
  8
Defpoints
 62
     0
100
AcDbPoint
 10
39.00220196063724
 20
14.18890214826502
 30
0.0
  0
ENDBLK
  5
A28
330
A26
100
AcDbEntity
  8
0
100
AcDbBlockEnd
  0
BLOCK
  5
B30
330
B2F
100
AcDbEntity
  8
0
100
AcDbBlockBegin
  2
*D14
 70
     1
 10
0.0
 20
0.0
 30
0.0
  3
*D14
  1

  0
LINE
  5
C22
330
B2F
100
AcDbEntity
  8
Dimension (ANSI)
100
AcDbLine
 10
41.89138576985566
 20
13.85556881493168
 30
0.0
 11
41.89138576985566
 21
10.5350293586668
 31
0.0
  0
LINE
  5
C23
330
B2F
100
AcDbEntity
  8
Dimension (ANSI)
100
AcDbLine
 10
42.41138576985567
 20
13.08556881493168
 30
0.0
 11
42.41138576985567
 21
10.5350293586668
 31
0.0
  0
LINE
  5
C24
330
B2F
100
AcDbEntity
  8
Dimension (ANSI)
100
AcDbLine
 10
42.93632014116813
 20
11.20169602533347
 30
0.0
 11
43.46125451248059
 21
11.20169602533347
 31
0.0
  0
LINE
  5
C25
330
B2F
100
AcDbEntity
  8
Dimension (ANSI)
100
AcDbLine
 10
41.3664513985432
 20
11.20169602533347
 30
0.0
 11
40.84151702723075
 21
11.20169602533347
 31
0.0
  0
SOLID
  5
C26
330
B2F
100
AcDbEntity
  8
Dimension (ANSI)
100
AcDbTrace
 10
42.93632014116813
 20
11.28918508721888
 30
0.0
 11
42.93632014116813
 21
11.11420696344806
 31
0.0
 12
42.41138576985567
 22
11.20169602533347
 32
0.0
 13
42.41138576985567
 23
11.20169602533347
 33
0.0
  0
SOLID
  5
C27
330
B2F
100
AcDbEntity
  8
Dimension (ANSI)
100
AcDbTrace
 10
41.3664513985432
 20
11.28918508721888
 30
0.0
 11
41.3664513985432
 21
11.11420696344806
 31
0.0
 12
41.89138576985566
 22
11.20169602533347
 32
0.0
 13
41.89138576985566
 23
11.20169602533347
 33
0.0
  0
MTEXT
  5
C28
330
B2F
100
AcDbEntity
  8
Dimension (ANSI)
100
AcDbMText
 10
39.86083959979751
 20
11.20169602533347
 30
0.0
 40
0.5333333412806193
 41
0.0
 71
     5
 72
     1
  1
\A1;0.52{\PTYP.}
  7
ROMANS
 73
     1
 44
1.0
1001
ACAD
1000
MTEXTBEGIN
1070
    73
1070
     1
1070
    44
1040
1.0
1070
    74
1070
     0
1000
MTEXTEND
  0
POINT
  5
C29
330
B2F
100
AcDbEntity
  8
Defpoints
 62
     0
100
AcDbPoint
 10
41.89138576985566
 20
14.18890214826502
 30
0.0
  0
POINT
  5
C2A
330
B2F
100
AcDbEntity
  8
Defpoints
 62
     0
100
AcDbPoint
 10
42.41138576985567
 20
13.41890214826502
 30
0.0
  0
POINT
  5
C2B
330
B2F
100
AcDbEntity
  8
Defpoints
 62
     0
100
AcDbPoint
 10
42.41138576985567
 20
11.20169602533347
 30
0.0
  0
ENDBLK
  5
B31
330
B2F
100
AcDbEntity
  8
0
100
AcDbBlockEnd
  0
BLOCK
  5
C2E
330
C2D
100
AcDbEntity
  8
0
100
AcDbBlockBegin
  2
*D15
 70
     1
 10
0.0
 20
0.0
 30
0.0
  3
*D15
  1

  0
LINE
  5
D2A
330
C2D
100
AcDbEntity
  8
Dimension (ANSI)
100
AcDbLine
 10
56.76956066002419
 20
32.63770428742324
 30
0.0
 11
56.76956066002419
 21
46.75056517981168
 31
0.0
  0
LINE
  5
D2B
330
C2D
100
AcDbEntity
  8
Dimension (ANSI)
100
AcDbLine
 10
56.67581066002419
 20
32.63770428742324
 30
0.0
 11
56.67581066002419
 21
46.75056517981168
 31
0.0
  0
LINE
  5
D2C
330
C2D
100
AcDbEntity
  8
Dimension (ANSI)
100
AcDbLine
 10
57.29449503133665
 20
46.08389851314502
 30
0.0
 11
57.81942940264911
 21
46.08389851314502
 31
0.0
  0
LINE
  5
D2D
330
C2D
100
AcDbEntity
  8
Dimension (ANSI)
100
AcDbLine
 10
56.15087628871173
 20
46.08389851314502
 30
0.0
 11
55.18253733567332
 21
46.08389851314502
 31
0.0
  0
SOLID
  5
D2E
330
C2D
100
AcDbEntity
  8
Dimension (ANSI)
100
AcDbTrace
 10
57.29449503133665
 20
46.17138757503043
 30
0.0
 11
57.29449503133665
 21
45.99640945125961
 31
0.0
 12
56.76956066002419
 22
46.08389851314502
 32
0.0
 13
56.76956066002419
 23
46.08389851314502
 33
0.0
  0
SOLID
  5
D2F
330
C2D
100
AcDbEntity
  8
Dimension (ANSI)
100
AcDbTrace
 10
56.15087628871173
 20
46.17138757503043
 30
0.0
 11
56.15087628871173
 21
45.99640945125961
 31
0.0
 12
56.67581066002419
 22
46.08389851314502
 32
0.0
 13
56.67581066002419
 23
46.08389851314502
 33
0.0
  0
MTEXT
  5
D30
330
C2D
100
AcDbEntity
  8
Dimension (ANSI)
100
AcDbMText
 10
53.61773291540893
 20
46.08389851314502
 30
0.0
 40
0.5333333412806193
 41
0.0
 71
     5
 72
     1
  1
\A1;(0.094){\P12 GA.\PGALV.}
  7
ROMANS
 73
     1
 44
1.0
1001
ACAD
1000
MTEXTBEGIN
1070
    73
1070
     1
1070
    44
1040
1.0
1070
    74
1070
     0
1000
MTEXTEND
  0
POINT
  5
D31
330
C2D
100
AcDbEntity
  8
Defpoints
 62
     0
100
AcDbPoint
 10
56.76956066002419
 20
32.30437095408991
 30
0.0
  0
POINT
  5
D32
330
C2D
100
AcDbEntity
  8
Defpoints
 62
     0
100
AcDbPoint
 10
56.67581066002419
 20
32.30437095408991
 30
0.0
  0
POINT
  5
D33
330
C2D
100
AcDbEntity
  8
Defpoints
 62
     0
100
AcDbPoint
 10
56.67581066002419
 20
46.08389851314502
 30
0.0
  0
ENDBLK
  5
C2F
330
C2D
100
AcDbEntity
  8
0
100
AcDbBlockEnd
  0
BLOCK
  5
D45
330
D44
100
AcDbEntity
  8
0
100
AcDbBlockBegin
  2
*D16
 70
     1
 10
0.0
 20
0.0
 30
0.0
  3
*D16
  1

  0
LINE
  5
E1F
330
D44
100
AcDbEntity
  8
Dimension (ANSI)
100
AcDbLine
 10
56.67581066002419
 20
46.28556881493168
 30
0.0
 11
56.67581066002419
 21
41.58462918238575
 31
0.0
  0
LINE
  5
E20
330
D44
100
AcDbEntity
  8
Dimension (ANSI)
100
AcDbLine
 10
56.15087628871173
 20
42.25129584905242
 30
0.0
 11
55.62594191739928
 21
42.25129584905242
 31
0.0
  0
LINE
  5
E21
330
D44
100
AcDbEntity
  8
Dimension (ANSI)
100
AcDbLine
 10
57.97474503133666
 20
42.25129584905242
 30
0.0
 11
58.49967940264911
 21
42.25129584905242
 31
0.0
  0
SOLID
  5
E22
330
D44
100
AcDbEntity
  8
Dimension (ANSI)
100
AcDbTrace
 10
56.15087628871173
 20
42.33878491093783
 30
0.0
 11
56.15087628871173
 21
42.16380678716702
 31
0.0
 12
56.67581066002419
 22
42.25129584905242
 32
0.0
 13
56.67581066002419
 23
42.25129584905242
 33
0.0
  0
SOLID
  5
E23
330
D44
100
AcDbEntity
  8
Dimension (ANSI)
100
AcDbTrace
 10
57.97474503133666
 20
42.33878491093783
 30
0.0
 11
57.97474503133666
 21
42.16380678716702
 31
0.0
 12
57.4498106600242
 22
42.25129584905242
 32
0.0
 13
57.4498106600242
 23
42.25129584905242
 33
0.0
  0
MTEXT
  5
E24
330
D44
100
AcDbEntity
  8
Dimension (ANSI)
100
AcDbMText
 10
58.66765840527379
 20
42.51796251969273
 30
0.0
 40
0.5333333412806193
 41
0.0
 71
     1
 72
     1
  1
\A1;0.77
  7
ROMANS
 73
     1
 44
1.0
1001
ACAD
1000
MTEXTBEGIN
1070
    73
1070
     1
1070
    44
1040
1.0
1070
    74
1070
     0
1000
MTEXTEND
  0
POINT
  5
E25
330
D44
100
AcDbEntity
  8
Defpoints
 62
     0
100
AcDbPoint
 10
56.67581066002419
 20
46.61890214826502
 30
0.0
  0
POINT
  5
E26
330
D44
100
AcDbEntity
  8
Defpoints
 62
     0
100
AcDbPoint
 10
57.4498106600242
 20
45.40090214826501
 30
0.0
  0
POINT
  5
E27
330
D44
100
AcDbEntity
  8
Defpoints
 62
     0
100
AcDbPoint
 10
57.4498106600242
 20
42.25129584905242
 30
0.0
  0
ENDBLK
  5
D46
330
D44
100
AcDbEntity
  8
0
100
AcDbBlockEnd
  0
BLOCK
  5
E2D
330
E2C
100
AcDbEntity
  8
0
100
AcDbBlockBegin
  2
*D17
 70
     1
 10
0.0
 20
0.0
 30
0.0
  3
*D17
  1

  0
LINE
  5
F1F
330
E2C
100
AcDbEntity
  8
Dimension (ANSI)
100
AcDbLine
 10
42.224719103189
 20
30.01890214826501
 30
0.0
 11
45.72765873573493
 21
30.01890214826501
 31
0.0
  0
LINE
  5
F20
330
E2C
100
AcDbEntity
  8
Dimension (ANSI)
100
AcDbLine
 10
42.224719103189
 20
13.43890214826502
 30
0.0
 11
45.72765873573493
 21
13.43890214826501
 31
0.0
  0
LINE
  5
F21
330
E2C
100
AcDbEntity
  8
Dimension (ANSI)
100
AcDbLine
 10
45.06099206906827
 20
29.49396777695256
 30
0.0
 11
45.06099206906827
 21
22.60799227259717
 31
0.0
  0
LINE
  5
F22
330
E2C
100
AcDbEntity
  8
Dimension (ANSI)
100
AcDbLine
 10
45.06099206906827
 20
13.96383651957747
 30
0.0
 11
45.06099206906827
 21
20.84981202393284
 31
0.0
  0
SOLID
  5
F23
330
E2C
100
AcDbEntity
  8
Dimension (ANSI)
100
AcDbTrace
 10
44.97350300718287
 20
29.49396777695256
 30
0.0
 11
45.14848113095368
 21
29.49396777695256
 31
0.0
 12
45.06099206906827
 22
30.01890214826501
 32
0.0
 13
45.06099206906827
 23
30.01890214826501
 33
0.0
  0
SOLID
  5
F24
330
E2C
100
AcDbEntity
  8
Dimension (ANSI)
100
AcDbTrace
 10
44.97350300718286
 20
13.96383651957747
 30
0.0
 11
45.14848113095367
 21
13.96383651957747
 31
0.0
 12
45.06099206906827
 22
13.43890214826501
 32
0.0
 13
45.06099206906827
 23
13.43890214826501
 33
0.0
  0
MTEXT
  5
F25
330
E2C
100
AcDbEntity
  8
Dimension (ANSI)
100
AcDbMText
 10
45.06099206906827
 20
21.72890214826502
 30
0.0
 40
0.5333333412806193
 41
0.0
 71
     5
 72
     1
  1
\A1;16.58{\PTYP.}
  7
ROMANS
 73
     1
 44
1.0
1001
ACAD
1000
MTEXTBEGIN
1070
    73
1070
     1
1070
    44
1040
1.0
1070
    74
1070
     0
1000
MTEXTEND
  0
POINT
  5
F26
330
E2C
100
AcDbEntity
  8
Defpoints
 62
     0
100
AcDbPoint
 10
41.89138576985566
 20
30.01890214826501
 30
0.0
  0
POINT
  5
F27
330
E2C
100
AcDbEntity
  8
Defpoints
 62
     0
100
AcDbPoint
 10
41.89138576985566
 20
13.43890214826502
 30
0.0
  0
POINT
  5
F28
330
E2C
100
AcDbEntity
  8
Defpoints
 62
     0
100
AcDbPoint
 10
45.06099206906827
 20
13.43890214826501
 30
0.0
  0
ENDBLK
  5
E2E
330
E2C
100
AcDbEntity
  8
0
100
AcDbBlockEnd
  0
ENDSEC
  0
SECTION
  2
ENTITIES
  0
CIRCLE
  5
107
330
6C
100
AcDbEntity
  8
Visible (ANSI)
100
AcDbCircle
 10
41.89138576985566
 20
30.01890214826501
 30
0.0
 40
0.2500000000000005
  0
CIRCLE
  5
108
330
6C
100
AcDbEntity
  8
Visible (ANSI)
100
AcDbCircle
 10
14.73138576985568
 20
30.01890214826501
 30
0.0
 40
0.2500000000000005
  0
LINE
  5
109
330
6C
100
AcDbEntity
  8
Visible (ANSI)
100
AcDbLine
 10
15.92938576985567
 20
12.91890214826502
 30
0.0
 11
40.69338576985567
 21
12.91890214826502
 31
0.0
  0
LINE
  5
10A
330
6C
100
AcDbEntity
  8
Visible (ANSI)
100
AcDbLine
 10
15.92938576985567
 20
12.91890214826502
 30
0.0
 11
15.92938576985567
 21
13.02825214826502
 31
0.0
  0
LINE
  5
10B
330
6C
100
AcDbEntity
  8
Visible (ANSI)
100
AcDbLine
 10
40.69338576985567
 20
12.91890214826502
 30
0.0
 11
40.69338576985567
 21
13.02825214826502
 31
0.0
  0
LINE
  5
10C
330
6C
100
AcDbEntity
  8
Visible (ANSI)
100
AcDbLine
 10
40.69358576985567
 20
13.02845214826502
 30
0.0
 11
40.69358576985567
 21
12.91890214826502
 31
0.0
  0
LINE
  5
10D
330
6C
100
AcDbEntity
  8
Visible (ANSI)
100
AcDbLine
 10
40.69338576985567
 20
13.02845214826502
 30
0.0
 11
40.69358576985567
 21
13.02845214826502
 31
0.0
  0
LINE
  5
10E
330
6C
100
AcDbEntity
  8
Visible (ANSI)
100
AcDbLine
 10
15.92918576985568
 20
13.02845214826502
 30
0.0
 11
15.92938576985567
 21
13.02845214826502
 31
0.0
  0
LINE
  5
10F
330
6C
100
AcDbEntity
  8
Visible (ANSI)
100
AcDbLine
 10
15.92918576985568
 20
12.91890214826502
 30
0.0
 11
15.92918576985568
 21
13.02845214826502
 31
0.0
  0
LINE
  5
110
330
6C
100
AcDbEntity
  8
Hidden (ANSI)
 48
1.069700717926025
100
AcDbLine
 10
40.69338576985567
 20
13.01265214826502
 30
0.0
 11
15.92938576985567
 21
13.01265214826502
 31
0.0
  0
LINE
  5
111
330
6C
100
AcDbEntity
  8
Visible (ANSI)
100
AcDbLine
 10
15.92938576985567
 20
13.02845214826502
 30
0.0
 11
15.92938576985567
 21
13.02825214826502
 31
0.0
  0
LINE
  5
112
330
6C
100
AcDbEntity
  8
Visible (ANSI)
100
AcDbLine
 10
40.69338576985567
 20
13.02825214826502
 30
0.0
 11
40.69338576985567
 21
13.02845214826502
 31
0.0
  0
LINE
  5
113
330
6C
100
AcDbEntity
  8
Visible (ANSI)
100
AcDbLine
 10
15.92918576985568
 20
12.91890214826502
 30
0.0
 11
14.71138576985567
 21
12.91890214826502
 31
0.0
  0
LINE
  5
114
330
6C
100
AcDbEntity
  8
Visible (ANSI)
100
AcDbLine
 10
41.91138576985568
 20
12.91890214826502
 30
0.0
 11
40.69358576985567
 21
12.91890214826502
 31
0.0
  0
LINE
  5
115
330
6C
100
AcDbEntity
  8
Visible (ANSI)
100
AcDbLine
 10
42.41138576985567
 20
14.63670214826502
 30
0.0
 11
42.41138576985567
 21
13.41890214826501
 31
0.0
  0
LINE
  5
116
330
6C
100
AcDbEntity
  8
Visible (ANSI)
100
AcDbLine
 10
42.41138576985567
 20
46.61890214826502
 30
0.0
 11
42.41138576985567
 21
45.401102148265
 31
0.0
  0
LINE
  5
117
330
6C
100
AcDbEntity
  8
Visible (ANSI)
100
AcDbLine
 10
40.69358576985567
 20
47.11890214826501
 30
0.0
 11
41.91138576985566
 21
47.11890214826501
 31
0.0
  0
LINE
  5
118
330
6C
100
AcDbEntity
  8
Visible (ANSI)
100
AcDbLine
 10
14.71138576985566
 20
47.11890214826501
 30
0.0
 11
15.92918576985566
 21
47.11890214826501
 31
0.0
  0
LINE
  5
119
330
6C
100
AcDbEntity
  8
Visible (ANSI)
100
AcDbLine
 10
14.21138576985567
 20
45.401102148265
 30
0.0
 11
14.21138576985567
 21
46.61890214826501
 31
0.0
  0
LINE
  5
11A
330
6C
100
AcDbEntity
  8
Visible (ANSI)
100
AcDbLine
 10
14.21138576985567
 20
13.41890214826501
 30
0.0
 11
14.21138576985567
 21
14.63670214826501
 31
0.0
  0
LINE
  5
11B
330
6C
100
AcDbEntity
  8
Visible (ANSI)
100
AcDbLine
 10
42.41138576985567
 20
13.41890214826501
 30
0.0
 11
41.91138576985568
 21
12.91890214826502
 31
0.0
  0
LINE
  5
11C
330
6C
100
AcDbEntity
  8
Visible (ANSI)
100
AcDbLine
 10
42.41138576985567
 20
14.63670214826502
 30
0.0
 11
42.30183576985568
 21
14.63670214826502
 31
0.0
  0
LINE
  5
11D
330
6C
100
AcDbEntity
  8
Visible (ANSI)
100
AcDbLine
 10
42.30183576985568
 20
14.63670214826502
 30
0.0
 11
42.30183576985568
 21
14.63690214826502
 31
0.0
  0
LINE
  5
11E
330
6C
100
AcDbEntity
  8
Visible (ANSI)
100
AcDbLine
 10
42.30183576985568
 20
45.40090214826501
 30
0.0
 11
42.30183576985568
 21
45.401102148265
 31
0.0
  0
LINE
  5
11F
330
6C
100
AcDbEntity
  8
Visible (ANSI)
100
AcDbLine
 10
42.30183576985568
 20
45.401102148265
 30
0.0
 11
42.41138576985567
 21
45.401102148265
 31
0.0
  0
LINE
  5
120
330
6C
100
AcDbEntity
  8
Visible (ANSI)
100
AcDbLine
 10
42.41138576985565
 20
14.63690214826502
 30
0.0
 11
42.41138576985565
 21
45.40090214826501
 31
0.0
  0
LINE
  5
121
330
6C
100
AcDbEntity
  8
Visible (ANSI)
100
AcDbLine
 10
42.41138576985566
 20
14.63690214826502
 30
0.0
 11
42.30203576985569
 21
14.63690214826502
 31
0.0
  0
LINE
  5
122
330
6C
100
AcDbEntity
  8
Visible (ANSI)
100
AcDbLine
 10
42.41138576985565
 20
45.40090214826501
 30
0.0
 11
42.30203576985567
 21
45.40090214826501
 31
0.0
  0
LINE
  5
123
330
6C
100
AcDbEntity
  8
Hidden (ANSI)
 48
1.073322534561157
100
AcDbLine
 10
42.31763576985565
 20
45.40090214826501
 30
0.0
 11
42.31763576985566
 21
14.63690214826502
 31
0.0
  0
LINE
  5
124
330
6C
100
AcDbEntity
  8
Visible (ANSI)
100
AcDbLine
 10
42.30183576985568
 20
14.63690214826502
 30
0.0
 11
42.30203576985569
 21
14.63690214826502
 31
0.0
  0
LINE
  5
125
330
6C
100
AcDbEntity
  8
Visible (ANSI)
100
AcDbLine
 10
42.30203576985566
 20
45.40090214826501
 30
0.0
 11
42.30183576985568
 21
45.40090214826501
 31
0.0
  0
LINE
  5
126
330
6C
100
AcDbEntity
  8
Visible (ANSI)
100
AcDbLine
 10
41.91138576985566
 20
47.11890214826501
 30
0.0
 11
42.41138576985567
 21
46.61890214826502
 31
0.0
  0
LINE
  5
127
330
6C
100
AcDbEntity
  8
Visible (ANSI)
100
AcDbLine
 10
40.69358576985567
 20
47.11890214826501
 30
0.0
 11
40.69358576985567
 21
47.00935214826502
 31
0.0
  0
LINE
  5
128
330
6C
100
AcDbEntity
  8
Visible (ANSI)
100
AcDbLine
 10
40.69358576985567
 20
47.00935214826502
 30
0.0
 11
40.69338576985567
 21
47.00935214826502
 31
0.0
  0
LINE
  5
129
330
6C
100
AcDbEntity
  8
Visible (ANSI)
100
AcDbLine
 10
15.92938576985566
 20
47.00935214826502
 30
0.0
 11
15.92918576985566
 21
47.00935214826502
 31
0.0
  0
LINE
  5
12A
330
6C
100
AcDbEntity
  8
Visible (ANSI)
100
AcDbLine
 10
15.92918576985566
 20
47.00935214826502
 30
0.0
 11
15.92918576985566
 21
47.11890214826501
 31
0.0
  0
LINE
  5
12B
330
6C
100
AcDbEntity
  8
Visible (ANSI)
100
AcDbLine
 10
40.69338576985567
 20
47.118902148265
 30
0.0
 11
15.92938576985566
 21
47.118902148265
 31
0.0
  0
LINE
  5
12C
330
6C
100
AcDbEntity
  8
Visible (ANSI)
100
AcDbLine
 10
40.69338576985567
 20
47.118902148265
 30
0.0
 11
40.69338576985567
 21
47.00955214826502
 31
0.0
  0
LINE
  5
12D
330
6C
100
AcDbEntity
  8
Visible (ANSI)
100
AcDbLine
 10
15.92938576985566
 20
47.118902148265
 30
0.0
 11
15.92938576985566
 21
47.00955214826501
 31
0.0
  0
LINE
  5
12E
330
6C
100
AcDbEntity
  8
Hidden (ANSI)
 48
1.069700717926025
100
AcDbLine
 10
15.92938576985566
 20
47.02515214826499
 30
0.0
 11
40.69338576985567
 21
47.025152148265
 31
0.0
  0
LINE
  5
12F
330
6C
100
AcDbEntity
  8
Visible (ANSI)
100
AcDbLine
 10
40.69338576985567
 20
47.00935214826502
 30
0.0
 11
40.69338576985567
 21
47.00955214826502
 31
0.0
  0
LINE
  5
130
330
6C
100
AcDbEntity
  8
Visible (ANSI)
100
AcDbLine
 10
15.92938576985566
 20
47.00955214826501
 30
0.0
 11
15.92938576985566
 21
47.00935214826502
 31
0.0
  0
LINE
  5
131
330
6C
100
AcDbEntity
  8
Visible (ANSI)
100
AcDbLine
 10
14.21138576985567
 20
46.61890214826501
 30
0.0
 11
14.71138576985566
 21
47.11890214826501
 31
0.0
  0
LINE
  5
132
330
6C
100
AcDbEntity
  8
Visible (ANSI)
100
AcDbLine
 10
14.21138576985567
 20
45.401102148265
 30
0.0
 11
14.32093576985566
 21
45.401102148265
 31
0.0
  0
LINE
  5
133
330
6C
100
AcDbEntity
  8
Visible (ANSI)
100
AcDbLine
 10
14.32093576985566
 20
45.401102148265
 30
0.0
 11
14.32093576985566
 21
45.400902148265
 31
0.0
  0
LINE
  5
134
330
6C
100
AcDbEntity
  8
Visible (ANSI)
100
AcDbLine
 10
14.32093576985567
 20
14.63690214826502
 30
0.0
 11
14.32093576985567
 21
14.63670214826501
 31
0.0
  0
LINE
  5
135
330
6C
100
AcDbEntity
  8
Visible (ANSI)
100
AcDbLine
 10
14.32093576985567
 20
14.63670214826501
 30
0.0
 11
14.21138576985567
 21
14.63670214826501
 31
0.0
  0
LINE
  5
136
330
6C
100
AcDbEntity
  8
Visible (ANSI)
100
AcDbLine
 10
14.21138576985567
 20
45.400902148265
 30
0.0
 11
14.21138576985569
 21
14.63690214826502
 31
0.0
  0
LINE
  5
137
330
6C
100
AcDbEntity
  8
Visible (ANSI)
100
AcDbLine
 10
14.21138576985567
 20
45.400902148265
 30
0.0
 11
14.32073576985566
 21
45.400902148265
 31
0.0
  0
LINE
  5
138
330
6C
100
AcDbEntity
  8
Visible (ANSI)
100
AcDbLine
 10
14.21138576985569
 20
14.63690214826502
 30
0.0
 11
14.32073576985567
 21
14.63690214826502
 31
0.0
  0
LINE
  5
139
330
6C
100
AcDbEntity
  8
Hidden (ANSI)
 48
1.073322534561157
100
AcDbLine
 10
14.30513576985569
 20
14.63690214826502
 30
0.0
 11
14.30513576985568
 21
45.400902148265
 31
0.0
  0
LINE
  5
13A
330
6C
100
AcDbEntity
  8
Visible (ANSI)
100
AcDbLine
 10
14.32093576985566
 20
45.400902148265
 30
0.0
 11
14.32073576985566
 21
45.400902148265
 31
0.0
  0
LINE
  5
13B
330
6C
100
AcDbEntity
  8
Visible (ANSI)
100
AcDbLine
 10
14.32073576985566
 20
14.63690214826502
 30
0.0
 11
14.32093576985567
 21
14.63690214826502
 31
0.0
  0
LINE
  5
13C
330
6C
100
AcDbEntity
  8
Visible (ANSI)
100
AcDbLine
 10
14.71138576985567
 20
12.91890214826502
 30
0.0
 11
14.21138576985567
 21
13.41890214826501
 31
0.0
  0
CIRCLE
  5
13D
330
6C
100
AcDbEntity
  8
Visible (ANSI)
100
AcDbCircle
 10
41.89138576985566
 20
46.59890214826501
 30
0.0
 40
0.25
  0
CIRCLE
  5
13E
330
6C
100
AcDbEntity
  8
Visible (ANSI)
100
AcDbCircle
 10
14.73138576985568
 20
46.59890214826499
 30
0.0
 40
0.25
  0
CIRCLE
  5
13F
330
6C
100
AcDbEntity
  8
Visible (ANSI)
100
AcDbCircle
 10
14.73138576985568
 20
13.43890214826502
 30
0.0
 40
0.25
  0
CIRCLE
  5
140
330
6C
100
AcDbEntity
  8
Visible (ANSI)
100
AcDbCircle
 10
41.89138576985566
 20
13.43890214826502
 30
0.0
 40
0.25
  0
CIRCLE
  5
141
330
6C
100
AcDbEntity
  8
Visible (ANSI)
100
AcDbCircle
 10
41.89138576985566
 20
45.84890214826501
 30
0.0
 40
0.15625
  0
CIRCLE
  5
142
330
6C
100
AcDbEntity
  8
Visible (ANSI)
100
AcDbCircle
 10
14.73138576985568
 20
45.848902148265
 30
0.0
 40
0.15625
  0
CIRCLE
  5
143
330
6C
100
AcDbEntity
  8
Visible (ANSI)
100
AcDbCircle
 10
14.73138576985568
 20
14.18890214826502
 30
0.0
 40
0.15625
  0
CIRCLE
  5
144
330
6C
100
AcDbEntity
  8
Visible (ANSI)
100
AcDbCircle
 10
41.89138576985566
 20
14.18890214826502
 30
0.0
 40
0.15625
  0
MTEXT
  5
146
330
6C
100
AcDbEntity
  8
Symbol (ANSI)
100
AcDbMText
 10
24.67417091344176
 20
8.119101817667454
 30
0.0
 40
0.6400000079097396
 41
0.0
 71
     7
 72
     1
  1
FRONT VIEW
  7
Text Style168
 73
     1
 44
1.0
1001
ACAD
1000
MTEXTBEGIN
1070
    73
1070
     1
1070
    44
1040
1.0
1070
    74
1070
     0
1000
MTEXTEND
  0
LINE
  5
148
330
6C
100
AcDbEntity
  8
Symbol (ANSI)
370
    30
100
AcDbLine
 10
24.61017074881037
 20
7.988586418334707
 30
0.0
 11
29.75558410500065
 21
7.988586418334707
 31
0.0
  0
LINE
  5
149
330
6C
100
AcDbEntity
  8
Visible (ANSI)
100
AcDbLine
 10
57.44981066002369
 20
12.91890214826502
 30
0.0
 11
56.78516066002369
 21
12.91890214826502
 31
0.0
  0
LINE
  5
14A
330
6C
100
AcDbEntity
  8
Visible (ANSI)
100
AcDbLine
 10
57.44981066002369
 20
13.01265214826502
 30
0.0
 11
57.44981066002369
 21
12.91890214826502
 31
0.0
  0
LINE
  5
14B
330
6C
100
AcDbEntity
  8
Visible (ANSI)
100
AcDbLine
 10
56.78516066002369
 20
13.01265214826502
 30
0.0
 11
57.44981066002369
 21
13.01265214826502
 31
0.0
  0
ARC
  5
14C
330
6C
100
AcDbEntity
  8
Visible (ANSI)
100
AcDbCircle
 10
56.78516066002369
 20
13.02825214826502
 30
0.0
 40
0.0156
100
AcDbArc
 50
180.0
 51
270.0
  0
ARC
  5
14D
330
6C
100
AcDbEntity
  8
Visible (ANSI)
100
AcDbCircle
 10
56.78516066002369
 20
13.02825214826502
 30
0.0
 40
0.1093499999999973
100
AcDbArc
 50
261.7981333521976
 51
270.0
  0
ARC
  5
14E
330
6C
100
AcDbEntity
  8
Hidden (ANSI)
 48
0.0556527934968472
100
AcDbCircle
 10
56.78516066002369
 20
13.02825214826502
 30
0.0
 40
0.10935
100
AcDbArc
 50
180.0
 51
261.7981333521977
  0
LINE
  5
14F
330
6C
100
AcDbEntity
  8
Hidden (ANSI)
 48
0.0333809964358807
100
AcDbLine
 10
56.67581066002369
 20
13.02845214826502
 30
0.0
 11
56.76956066002368
 21
13.02845214826502
 31
0.0
  0
LINE
  5
150
330
6C
100
AcDbEntity
  8
Visible (ANSI)
100
AcDbLine
 10
56.7695606600242
 20
46.61890214826502
 30
0.0
 11
56.76956066002404
 21
47.11890214826501
 31
0.0
  0
LINE
  5
151
330
6C
100
AcDbEntity
  8
Visible (ANSI)
100
AcDbLine
 10
56.67581066002405
 20
47.11890214826501
 30
0.0
 11
56.67581066002419
 21
46.61890214826502
 31
0.0
  0
LINE
  5
152
330
6C
100
AcDbEntity
  8
Visible (ANSI)
100
AcDbLine
 10
56.76956066002404
 20
47.11890214826501
 30
0.0
 11
56.67581066002405
 21
47.11890214826501
 31
0.0
  0
LINE
  5
153
330
6C
100
AcDbEntity
  8
Visible (ANSI)
100
AcDbLine
 10
56.67581066002419
 20
46.61890214826502
 30
0.0
 11
56.7695606600242
 21
46.61890214826502
 31
0.0
  0
LINE
  5
154
330
6C
100
AcDbEntity
  8
Visible (ANSI)
100
AcDbLine
 10
56.7695606600242
 20
45.401102148265
 30
0.0
 11
56.7695606600242
 21
46.61890214826502
 31
0.0
  0
LINE
  5
155
330
6C
100
AcDbEntity
  8
Visible (ANSI)
100
AcDbLine
 10
56.7695606600242
 20
13.41890214826501
 30
0.0
 11
56.7695606600242
 21
14.63670214826502
 31
0.0
  0
LINE
  5
156
330
6C
100
AcDbEntity
  8
Visible (ANSI)
100
AcDbLine
 10
56.67581066002419
 20
14.63670214826502
 30
0.0
 11
56.67581066002419
 21
13.41890214826501
 31
0.0
  0
LINE
  5
157
330
6C
100
AcDbEntity
  8
Visible (ANSI)
100
AcDbLine
 10
56.67581066002419
 20
46.61890214826502
 30
0.0
 11
56.67581066002419
 21
45.401102148265
 31
0.0
  0
LINE
  5
158
330
6C
100
AcDbEntity
  8
Visible (ANSI)
100
AcDbLine
 10
56.76956066002416
 20
45.401102148265
 30
0.0
 11
56.76956066002416
 21
45.40090214826501
 31
0.0
  0
LINE
  5
159
330
6C
100
AcDbEntity
  8
Visible (ANSI)
100
AcDbLine
 10
56.76956066002416
 20
14.63690214826502
 30
0.0
 11
56.76956066002416
 21
14.63670214826502
 31
0.0
  0
LINE
  5
15A
330
6C
100
AcDbEntity
  8
Visible (ANSI)
100
AcDbLine
 10
56.67581066002417
 20
14.63670214826502
 30
0.0
 11
56.67581066002417
 21
14.63690214826502
 31
0.0
  0
LINE
  5
15B
330
6C
100
AcDbEntity
  8
Visible (ANSI)
100
AcDbLine
 10
56.67581066002417
 20
14.63690214826502
 30
0.0
 11
56.67581066002417
 21
45.40090214826501
 31
0.0
  0
LINE
  5
15C
330
6C
100
AcDbEntity
  8
Visible (ANSI)
100
AcDbLine
 10
56.67581066002417
 20
45.40090214826501
 30
0.0
 11
56.67581066002417
 21
45.401102148265
 31
0.0
  0
LINE
  5
15D
330
6C
100
AcDbEntity
  8
Visible (ANSI)
100
AcDbLine
 10
56.78516066002423
 20
14.63690214826502
 30
0.0
 11
56.67581066002417
 21
14.63690214826502
 31
0.0
  0
LINE
  5
15E
330
6C
100
AcDbEntity
  8
Visible (ANSI)
100
AcDbLine
 10
56.78516066002423
 20
45.40090214826501
 30
0.0
 11
56.67581066002417
 21
45.40090214826501
 31
0.0
  0
LINE
  5
15F
330
6C
100
AcDbEntity
  8
Visible (ANSI)
100
AcDbLine
 10
56.67581066002419
 20
45.401102148265
 30
0.0
 11
56.7695606600242
 21
45.401102148265
 31
0.0
  0
LINE
  5
160
330
6C
100
AcDbEntity
  8
Visible (ANSI)
100
AcDbLine
 10
56.7695606600242
 20
14.63670214826502
 30
0.0
 11
56.67581066002419
 21
14.63670214826502
 31
0.0
  0
LINE
  5
161
330
6C
100
AcDbEntity
  8
Hidden (ANSI)
 48
1.073322534561157
100
AcDbLine
 10
56.76956066002416
 20
45.40090214826501
 30
0.0
 11
56.76956066002416
 21
14.63690214826502
 31
0.0
  0
LINE
  5
162
330
6C
100
AcDbEntity
  8
Visible (ANSI)
100
AcDbLine
 10
56.76956066002404
 20
12.91890214826502
 30
0.0
 11
56.7695606600242
 21
13.41890214826501
 31
0.0
  0
LINE
  5
163
330
6C
100
AcDbEntity
  8
Visible (ANSI)
100
AcDbLine
 10
56.67581066002419
 20
13.41890214826501
 30
0.0
 11
56.67581066002405
 21
12.91890214826502
 31
0.0
  0
LINE
  5
164
330
6C
100
AcDbEntity
  8
Visible (ANSI)
100
AcDbLine
 10
56.67581066002405
 20
12.91890214826502
 30
0.0
 11
56.76956066002404
 21
12.91890214826502
 31
0.0
  0
LINE
  5
165
330
6C
100
AcDbEntity
  8
Visible (ANSI)
100
AcDbLine
 10
56.7695606600242
 20
13.41890214826501
 30
0.0
 11
56.67581066002419
 21
13.41890214826501
 31
0.0
  0
LINE
  5
166
330
6C
100
AcDbEntity
  8
Visible (ANSI)
100
AcDbLine
 10
56.78516066002363
 20
47.118902148265
 30
0.0
 11
57.44981066002369
 21
47.11890214826501
 31
0.0
  0
LINE
  5
167
330
6C
100
AcDbEntity
  8
Visible (ANSI)
100
AcDbLine
 10
57.44981066002369
 20
47.025152148265
 30
0.0
 11
56.78516066002363
 21
47.025152148265
 31
0.0
  0
LINE
  5
168
330
6C
100
AcDbEntity
  8
Visible (ANSI)
100
AcDbLine
 10
57.44981066002369
 20
47.11890214826501
 30
0.0
 11
57.44981066002369
 21
47.025152148265
 31
0.0
  0
ARC
  5
169
330
6C
100
AcDbEntity
  8
Hidden (ANSI)
 48
0.0556527934968472
100
AcDbCircle
 10
56.78516066002369
 20
47.00955214826501
 30
0.0
 40
0.1093499999999962
100
AcDbArc
 50
98.20186664779894
 51
180.0
  0
LINE
  5
16A
330
6C
100
AcDbEntity
  8
Hidden (ANSI)
 48
0.0333809964358807
100
AcDbLine
 10
56.67581066002369
 20
47.00935214826502
 30
0.0
 11
56.76956066002368
 21
47.00935214826502
 31
0.0
  0
ARC
  5
16B
330
6C
100
AcDbEntity
  8
Visible (ANSI)
100
AcDbCircle
 10
56.78516066002372
 20
47.00955214826449
 30
0.0
 40
0.1093500000005147
100
AcDbArc
 50
90.00000000005082
 51
98.20186664778312
  0
ARC
  5
16C
330
6C
100
AcDbEntity
  8
Visible (ANSI)
100
AcDbCircle
 10
56.78516066002369
 20
47.00955214826501
 30
0.0
 40
0.0156000000000014
100
AcDbArc
 50
90.00000000021916
 51
180.0
  0
LINE
  5
16D
330
6C
100
AcDbEntity
  8
Visible (ANSI)
100
AcDbLine
 10
56.78516066002423
 20
14.63690214826502
 30
0.0
 11
57.4498106600242
 21
14.63690214826502
 31
0.0
  0
LINE
  5
16E
330
6C
100
AcDbEntity
  8
Visible (ANSI)
100
AcDbLine
 10
57.4498106600242
 20
45.40090214826501
 30
0.0
 11
57.4498106600242
 21
14.63690214826502
 31
0.0
  0
LINE
  5
16F
330
6C
100
AcDbEntity
  8
Visible (ANSI)
100
AcDbLine
 10
57.4498106600242
 20
45.40090214826501
 30
0.0
 11
56.78516066002423
 21
45.40090214826501
 31
0.0
  0
LINE
  5
170
330
6C
100
AcDbEntity
  8
Hidden (ANSI)
 48
0.0333809964358807
100
AcDbLine
 10
56.67581066002404
 20
30.26890214826501
 30
0.0
 11
56.76956066002404
 21
30.26890214826501
 31
0.0
  0
LINE
  5
171
330
6C
100
AcDbEntity
  8
Hidden (ANSI)
 48
0.0333809964358807
100
AcDbLine
 10
56.67581066002404
 20
29.76890214826502
 30
0.0
 11
56.76956066002404
 21
29.76890214826502
 31
0.0
  0
LINE
  5
172
330
6C
100
AcDbEntity
  8
Hidden (ANSI)
 48
0.0333809964358807
100
AcDbLine
 10
56.67581066002404
 20
46.84890214826501
 30
0.0
 11
56.76956066002404
 21
46.84890214826501
 31
0.0
  0
LINE
  5
173
330
6C
100
AcDbEntity
  8
Hidden (ANSI)
 48
0.0333809964358807
100
AcDbLine
 10
56.67581066002404
 20
46.34890214826501
 30
0.0
 11
56.76956066002404
 21
46.34890214826501
 31
0.0
  0
LINE
  5
174
330
6C
100
AcDbEntity
  8
Hidden (ANSI)
 48
0.0333809964358807
100
AcDbLine
 10
56.67581066002404
 20
13.68890214826502
 30
0.0
 11
56.76956066002404
 21
13.68890214826502
 31
0.0
  0
LINE
  5
175
330
6C
100
AcDbEntity
  8
Hidden (ANSI)
 48
0.0333809964358807
100
AcDbLine
 10
56.67581066002404
 20
13.18890214826502
 30
0.0
 11
56.76956066002404
 21
13.18890214826502
 31
0.0
  0
LINE
  5
176
330
6C
100
AcDbEntity
  8
Hidden (ANSI)
 48
0.0333809964358807
100
AcDbLine
 10
56.67581066002404
 20
46.00515214826501
 30
0.0
 11
56.76956066002404
 21
46.00515214826501
 31
0.0
  0
LINE
  5
177
330
6C
100
AcDbEntity
  8
Hidden (ANSI)
 48
0.0333809964358807
100
AcDbLine
 10
56.67581066002404
 20
45.69265214826501
 30
0.0
 11
56.76956066002404
 21
45.69265214826501
 31
0.0
  0
LINE
  5
178
330
6C
100
AcDbEntity
  8
Hidden (ANSI)
 48
0.0333809964358807
100
AcDbLine
 10
56.67581066002404
 20
14.34515214826502
 30
0.0
 11
56.76956066002404
 21
14.34515214826502
 31
0.0
  0
LINE
  5
179
330
6C
100
AcDbEntity
  8
Hidden (ANSI)
 48
0.0333809964358807
100
AcDbLine
 10
56.67581066002404
 20
14.03265214826501
 30
0.0
 11
56.76956066002404
 21
14.03265214826501
 31
0.0
  0
MTEXT
  5
17A
330
6C
100
AcDbEntity
  8
Symbol (ANSI)
100
AcDbMText
 10
54.57839378380271
 20
10.76909623450685
 30
0.0
 40
0.6400000079097396
 41
0.0
 71
     7
 72
     1
  1
SIDE VIEW
  7
Text Style168
 73
     1
 44
1.0
1001
ACAD
1000
MTEXTBEGIN
1070
    73
1070
     1
1070
    44
1040
1.0
1070
    74
1070
     0
1000
MTEXTEND
  0
LINE
  5
17B
330
6C
100
AcDbEntity
  8
Symbol (ANSI)
370
    30
100
AcDbLine
 10
54.54562569951143
 20
10.63650628162841
 30
0.0
 11
58.87055274167407
 21
10.63650628162841
 31
0.0
  0
ELLIPSE
  5
17C
330
6C
100
AcDbEntity
  8
Visible (ANSI)
100
AcDbEllipse
 10
84.68544660345326
 20
32.72697148339961
 30
0.0
 11
-0.0831720352640678
 21
0.1444305726908637
 31
0.0
210
0.0
220
0.0
230
1.0
 40
0.578093115915813
 41
0.2678448778125126
 42
2.873747775777316
  0
ELLIPSE
  5
17D
330
6C
100
AcDbEntity
  8
Visible (ANSI)
100
AcDbEllipse
 10
84.64125242962909
 20
32.70152175128759
 30
0.0
 11
-0.0831720352640674
 21
0.1444305726908629
 31
0.0
210
0.0
220
0.0
230
1.0
 40
0.578093115915813
 41
0.0
 42
6.283185307179586
  0
ELLIPSE
  5
17E
330
6C
100
AcDbEntity
  8
Visible (ANSI)
100
AcDbEllipse
 10
71.88209981876692
 20
40.09992854113167
 30
0.0
 11
-0.0831720352640673
 21
0.1444305726908627
 31
0.0
210
0.0
220
0.0
230
1.0
 40
0.578093115915813
 41
0.2678448778124878
 42
2.873747775777329
  0
ELLIPSE
  5
17F
330
6C
100
AcDbEntity
  8
Visible (ANSI)
100
AcDbEllipse
 10
71.83790564494278
 20
40.07447880901964
 30
0.0
 11
-0.0831720352640674
 21
0.1444305726908629
 31
0.0
210
0.0
220
0.0
230
1.0
 40
0.578093115915813
 41
0.0
 42
6.283185307179586
  0
ELLIPSE
  5
180
330
6C
100
AcDbEntity
  8
Visible (ANSI)
100
AcDbEllipse
 10
72.45419634519899
 20
30.51851169533574
 30
0.0
 11
-0.0363794482244868
 21
-0.0631739324949928
 31
0.0
210
0.0
220
0.0
230
0.9999999999999998
 40
0.5780931159156394
 41
5.495853435359205
 42
6.283185307179724
  0
ELLIPSE
  5
181
330
6C
100
AcDbEntity
  8
Visible (ANSI)
100
AcDbEllipse
 10
84.12805789806984
 20
23.79598192443452
 30
0.0
 11
-0.0363794482244857
 21
-0.0631739324949909
 31
0.0
210
0.0
220
0.0
230
1.0
 40
0.5780931159156392
 41
5.495853435359142
 42
5.556343885665554
  0
LINE
  5
182
330
6C
100
AcDbEntity
  8
Visible Narrow (ANSI)
100
AcDbLine
 10
72.40264826085049
 20
30.48882712780027
 30
0.0
 11
84.07650981372135
 21
23.76629735689906
 31
0.0
  0
LINE
  5
183
330
6C
100
AcDbEntity
  8
Visible (ANSI)
100
AcDbLine
 10
84.0766040946255
 20
23.76635207042053
 30
0.0
 11
84.0766040946255
 21
23.7066438787362
 31
0.0
  0
LINE
  5
184
330
6C
100
AcDbEntity
  8
Visible (ANSI)
100
AcDbLine
 10
84.07650981372135
 20
23.76640636318237
 30
0.0
 11
84.0766040946255
 21
23.76635207042053
 31
0.0
  0
LINE
  5
185
330
6C
100
AcDbEntity
  8
Visible (ANSI)
100
AcDbLine
 10
72.40255397994634
 20
30.48899042684542
 30
0.0
 11
72.40264826085049
 21
30.48893613408358
 31
0.0
  0
LINE
  5
186
330
6C
100
AcDbEntity
  8
Visible (ANSI)
100
AcDbLine
 10
72.40255397994634
 20
30.42928223516109
 30
0.0
 11
72.40255397994634
 21
30.48899042684542
 31
0.0
  0
LINE
  5
187
330
6C
100
AcDbEntity
  8
Visible (ANSI)
100
AcDbLine
 10
72.43280851587214
 20
30.44670466368184
 30
0.0
 11
72.40255397994634
 21
30.42928223516109
 31
0.0
  0
LINE
  5
188
330
6C
100
AcDbEntity
  8
Visible (ANSI)
100
AcDbLine
 10
72.4178168969745
 20
30.45533776284074
 30
0.0
 11
84.0766040946255
 21
23.74148873577769
 31
0.0
  0
LINE
  5
189
330
6C
100
AcDbEntity
  8
Visible (ANSI)
100
AcDbLine
 10
72.40264826085049
 20
30.48893613408358
 30
0.0
 11
72.40264826085049
 21
30.48882712780027
 31
0.0
  0
LINE
  5
18A
330
6C
100
AcDbEntity
  8
Visible (ANSI)
100
AcDbLine
 10
84.07650981372135
 20
23.76629735689906
 30
0.0
 11
84.07650981372135
 21
23.76640636318237
 31
0.0
  0
ELLIPSE
  5
18B
330
6C
100
AcDbEntity
  8
Visible (ANSI)
100
AcDbEllipse
 10
84.68544660345326
 20
41.76359236999251
 30
0.0
 11
-0.0831720352640678
 21
0.1444305726908637
 31
0.0
210
0.0
220
0.0
230
1.0
 40
0.578093115915813
 41
0.2678448778124887
 42
2.87374777577733
  0
ELLIPSE
  5
18C
330
6C
100
AcDbEntity
  8
Visible (ANSI)
100
AcDbEllipse
 10
71.88209981876695
 20
49.13654942772456
 30
0.0
 11
-0.0831720352640675
 21
0.144430572690863
 31
0.0
210
0.0
220
0.0
230
1.0
 40
0.578093115915813
 41
0.2678448778124878
 42
2.87374777577733
  0
ELLIPSE
  5
18D
330
6C
100
AcDbEntity
  8
Visible (ANSI)
100
AcDbEllipse
 10
71.8820998187669
 20
31.06330765453878
 30
0.0
 11
-0.0831720352640672
 21
0.1444305726908626
 31
0.0
210
0.0
220
0.0
230
1.0
 40
0.578093115915813
 41
0.2678448778125118
 42
2.87374777577733
  0
ELLIPSE
  5
18E
330
6C
100
AcDbEntity
  8
Visible (ANSI)
100
AcDbEllipse
 10
84.68544660345324
 20
23.69035059680672
 30
0.0
 11
-0.0831720352640677
 21
0.1444305726908635
 31
0.0
210
0.0
220
0.0
230
1.0
 40
0.578093115915813
 41
0.2678448778125118
 42
2.873747775777316
  0
ELLIPSE
  5
18F
330
6C
100
AcDbEntity
  8
Visible (ANSI)
100
AcDbEllipse
 10
84.68544660345326
 20
41.35481880757123
 30
0.0
 11
0.0519825220400476
 21
-0.0902691079317863
 31
0.0
210
0.0
220
0.0
230
1.0
 40
0.578093115915813
 41
3.578838513251705
 42
5.84593944751692
  0
ELLIPSE
  5
190
330
6C
100
AcDbEntity
  8
Visible (ANSI)
100
AcDbEllipse
 10
71.88209981876695
 20
48.72777586530329
 30
0.0
 11
0.0519825220400476
 21
-0.0902691079317863
 31
0.0
210
0.0
220
0.0
230
1.0
 40
0.578093115915813
 41
3.578838513251705
 42
5.845939447516951
  0
ELLIPSE
  5
191
330
6C
100
AcDbEntity
  8
Visible (ANSI)
100
AcDbEllipse
 10
71.8820998187669
 20
31.47208121696005
 30
0.0
 11
0.0519825220400474
 21
-0.0902691079317861
 31
0.0
210
0.0
220
0.0
230
1.0
 40
0.578093115915813
 41
3.578838513251621
 42
5.845939447516951
  0
ELLIPSE
  5
192
330
6C
100
AcDbEntity
  8
Visible (ANSI)
100
AcDbEllipse
 10
84.68544660345324
 20
24.09912415922799
 30
0.0
 11
0.0519825220400477
 21
-0.0902691079317866
 31
0.0
210
0.0
220
0.0
230
1.0
 40
0.5780931159158129
 41
3.578838513251662
 42
5.84593944751695
  0
ELLIPSE
  5
193
330
6C
100
AcDbEntity
  8
Visible (ANSI)
100
AcDbEllipse
 10
84.64125242962911
 20
41.73814263788048
 30
0.0
 11
-0.0831720352640672
 21
0.1444305726908626
 31
0.0
210
0.0
220
0.0
230
1.0
 40
0.578093115915813
 41
0.0
 42
6.283185307179586
  0
ELLIPSE
  5
194
330
6C
100
AcDbEntity
  8
Visible (ANSI)
100
AcDbEllipse
 10
71.83790564494278
 20
49.11109969561254
 30
0.0
 11
-0.0831720352640672
 21
0.1444305726908626
 31
0.0
210
0.0
220
0.0
230
1.0
 40
0.578093115915813
 41
0.0
 42
6.283185307179586
  0
ELLIPSE
  5
195
330
6C
100
AcDbEntity
  8
Visible (ANSI)
100
AcDbEllipse
 10
71.83790564494277
 20
31.03785792242676
 30
0.0
 11
-0.0831720352640672
 21
0.1444305726908626
 31
0.0
210
0.0
220
0.0
230
1.0
 40
0.578093115915813
 41
0.0
 42
6.283185307179586
  0
ELLIPSE
  5
196
330
6C
100
AcDbEntity
  8
Visible (ANSI)
100
AcDbEllipse
 10
84.64125242962909
 20
23.6649008646947
 30
0.0
 11
-0.0831720352640672
 21
0.1444305726908626
 31
0.0
210
0.0
220
0.0
230
1.0
 40
0.578093115915813
 41
0.0
 42
6.283185307179586
  0
ELLIPSE
  5
197
330
6C
100
AcDbEntity
  8
Visible (ANSI)
100
AcDbEllipse
 10
84.64125242962911
 20
41.32936907545921
 30
0.0
 11
-0.051982522040042
 21
0.0902691079317891
 31
0.0
210
0.0
220
0.0
230
1.0
 40
0.578093115915813
 41
0.0
 42
6.283185307179586
  0
ELLIPSE
  5
198
330
6C
100
AcDbEntity
  8
Visible (ANSI)
100
AcDbEllipse
 10
71.83790564494278
 20
48.70232613319126
 30
0.0
 11
-0.051982522040042
 21
0.0902691079317891
 31
0.0
210
0.0
220
0.0
230
1.0
 40
0.578093115915813
 41
0.0
 42
6.283185307179586
  0
ELLIPSE
  5
199
330
6C
100
AcDbEntity
  8
Visible (ANSI)
100
AcDbEllipse
 10
71.83790564494277
 20
31.44663148484803
 30
0.0
 11
-0.051982522040042
 21
0.0902691079317891
 31
0.0
210
0.0
220
0.0
230
1.0
 40
0.578093115915813
 41
0.0
 42
6.283185307179586
  0
ELLIPSE
  5
19A
330
6C
100
AcDbEntity
  8
Visible (ANSI)
100
AcDbEllipse
 10
84.64125242962909
 20
24.07367442711596
 30
0.0
 11
-0.051982522040042
 21
0.0902691079317891
 31
0.0
210
0.0
220
0.0
230
1.0
 40
0.578093115915813
 41
0.0
 42
6.283185307179586
  0
LINE
  5
19B
330
6C
100
AcDbEntity
  8
Visible (ANSI)
100
AcDbLine
 10
72.44674815377051
 20
49.09480641368307
 30
0.0
 11
71.8726717283511
 21
49.42539504052055
 31
0.0
  0
LINE
  5
19C
330
6C
100
AcDbEntity
  8
Visible (ANSI)
100
AcDbLine
 10
84.69487469386908
 20
42.04157943042068
 30
0.0
 11
84.12079826844967
 21
42.37216805725817
 31
0.0
  0
LINE
  5
19D
330
6C
100
AcDbEntity
  8
Visible (ANSI)
100
AcDbLine
 10
84.93057695426463
 20
40.96959255845359
 30
0.0
 11
84.93057695426463
 21
41.63333181754242
 31
0.0
  0
LINE
  5
19E
330
6C
100
AcDbEntity
  8
Visible (ANSI)
100
AcDbLine
 10
84.93057695426463
 20
23.53828878769416
 30
0.0
 11
84.93057695426463
 21
24.202028046783
 31
0.0
  0
LINE
  5
19F
330
6C
100
AcDbEntity
  8
Visible (ANSI)
100
AcDbLine
 10
72.40255397994634
 20
30.42928223516109
 30
0.0
 11
71.82847755452694
 21
30.75987086199857
 31
0.0
  0
LINE
  5
1A0
330
6C
100
AcDbEntity
  8
Visible (ANSI)
100
AcDbLine
 10
84.65068052004493
 20
23.37605525189871
 30
0.0
 11
84.0766040946255
 21
23.7066438787362
 31
0.0
  0
LINE
  5
1A1
330
6C
100
AcDbEntity
  8
Visible (ANSI)
100
AcDbLine
 10
84.88638278044046
 20
24.17657831467097
 30
0.0
 11
84.88638278044046
 21
23.51283905558214
 31
0.0
  0
LINE
  5
1A2
330
6C
100
AcDbEntity
  8
Visible (ANSI)
100
AcDbLine
 10
84.88638278044048
 20
41.60788208543038
 30
0.0
 11
84.88638278044048
 21
40.94414282634157
 31
0.0
  0
LINE
  5
1A3
330
6C
100
AcDbEntity
  8
Visible (ANSI)
100
AcDbLine
 10
84.07660409462552
 20
42.34671832514615
 30
0.0
 11
84.65068052004495
 21
42.01612969830867
 31
0.0
  0
LINE
  5
1A4
330
6C
100
AcDbEntity
  8
Visible (ANSI)
100
AcDbLine
 10
71.82847755452694
 20
49.39994530840852
 30
0.0
 11
72.40255397994636
 21
49.06935668157103
 31
0.0
  0
LINE
  5
1A5
330
6C
100
AcDbEntity
  8
Visible (ANSI)
100
AcDbLine
 10
71.5927752941314
 20
48.59942224563626
 30
0.0
 11
71.5927752941314
 21
49.26316150472509
 31
0.0
  0
LINE
  5
1A6
330
6C
100
AcDbEntity
  8
Visible (ANSI)
100
AcDbLine
 10
71.59277529413138
 20
31.16811847487684
 30
0.0
 11
71.59277529413138
 21
31.83185773396568
 31
0.0
  0
LINE
  5
1A7
330
6C
100
AcDbEntity
  8
Visible (ANSI)
100
AcDbLine
 10
72.44674815377051
 20
49.09480641368307
 30
0.0
 11
72.44674815377051
 21
49.09407240837099
 31
0.0
  0
LINE
  5
1A8
330
6C
100
AcDbEntity
  8
Visible (ANSI)
100
AcDbLine
 10
84.07660409462552
 20
42.34671832514615
 30
0.0
 11
84.07660409462552
 21
42.28701013346181
 31
0.0
  0
LINE
  5
1A9
330
6C
100
AcDbEntity
  8
Visible (ANSI)
100
AcDbLine
 10
84.07660409462552
 20
42.28701013346181
 30
0.0
 11
84.07650981372137
 21
42.28706442622366
 31
0.0
  0
LINE
  5
1AA
330
6C
100
AcDbEntity
  8
Visible Narrow (ANSI)
100
AcDbLine
 10
84.07650981372137
 20
42.28717343250696
 30
0.0
 11
72.40264826085051
 21
49.00970320340817
 31
0.0
  0
LINE
  5
1AB
330
6C
100
AcDbEntity
  8
Visible (ANSI)
100
AcDbLine
 10
72.40264826085051
 20
49.00959419712487
 30
0.0
 11
72.40255397994636
 21
49.00964848988671
 31
0.0
  0
LINE
  5
1AC
330
6C
100
AcDbEntity
  8
Visible (ANSI)
100
AcDbLine
 10
72.40255397994636
 20
49.00964848988671
 30
0.0
 11
72.40255397994636
 21
49.06935668157103
 31
0.0
  0
LINE
  5
1AD
330
6C
100
AcDbEntity
  8
Visible Narrow (ANSI)
100
AcDbLine
 10
84.12805789806983
 20
42.37645718544344
 30
0.0
 11
72.45419634519901
 21
49.09898695634467
 31
0.0
  0
ELLIPSE
  5
1AE
330
6C
100
AcDbEntity
  8
Visible (ANSI)
100
AcDbEllipse
 10
84.12805789806995
 20
42.31685800004247
 30
0.0
 11
0.0363794482245533
 21
0.0631739324950996
 31
0.0
210
0.0
220
0.0
230
1.0
 40
0.5780931159156393
 41
2.293770331463258
 42
2.354260781769344
  0
ELLIPSE
  5
1AF
330
6C
100
AcDbEntity
  8
Visible (ANSI)
100
AcDbEllipse
 10
84.12805789806986
 20
42.31685800004218
 30
0.0
 11
0.036379448224645
 21
0.0631739324952674
 31
0.0
210
0.0
220
0.0
230
1.0
 40
0.5780931159156394
 41
0.783464454975281
 42
0.9175200251378372
  0
LINE
  5
1B0
330
6C
100
AcDbEntity
  8
Visible (ANSI)
100
AcDbLine
 10
84.07650981372137
 20
42.28706442622366
 30
0.0
 11
84.07660409462552
 21
42.28711871898549
 31
0.0
  0
ELLIPSE
  5
1B1
330
6C
100
AcDbEntity
  8
Visible (ANSI)
100
AcDbEllipse
 10
72.45419634519901
 20
49.03938777094364
 30
0.0
 11
0.0363794482244918
 21
0.0631739324949923
 31
0.0
210
0.0
220
0.0
230
1.0
 40
0.5780931159156444
 41
0.7834644549745838
 42
2.354260781769323
  0
LINE
  5
1B2
330
6C
100
AcDbEntity
  8
Visible (ANSI)
100
AcDbLine
 10
72.40255397994636
 20
49.06935668157103
 30
0.0
 11
72.44674815377051
 21
49.09480641368307
 31
0.0
  0
LINE
  5
1B3
330
6C
100
AcDbEntity
  8
Visible (ANSI)
100
AcDbLine
 10
72.40255397994636
 20
49.00964848988671
 30
0.0
 11
72.40264826085051
 21
49.00970278264854
 31
0.0
  0
LINE
  5
1B4
330
6C
100
AcDbEntity
  8
Visible (ANSI)
100
AcDbLine
 10
84.12079826844967
 20
42.37216805725817
 30
0.0
 11
84.07660409462552
 21
42.34671832514615
 31
0.0
  0
LINE
  5
1B5
330
6C
100
AcDbEntity
  8
Visible (ANSI)
100
AcDbLine
 10
84.93057695426463
 20
41.63333181754242
 30
0.0
 11
84.69487469386908
 21
42.04157943042068
 31
0.0
  0
LINE
  5
1B6
330
6C
100
AcDbEntity
  8
Visible (ANSI)
100
AcDbLine
 10
84.65068052004495
 20
42.01612969830867
 30
0.0
 11
84.88638278044048
 21
41.60788208543038
 31
0.0
  0
LINE
  5
1B7
330
6C
100
AcDbEntity
  8
Visible (ANSI)
100
AcDbLine
 10
84.69487469386908
 20
42.04157943042068
 30
0.0
 11
84.65068052004495
 21
42.01612969830867
 31
0.0
  0
LINE
  5
1B8
330
6C
100
AcDbEntity
  8
Visible (ANSI)
100
AcDbLine
 10
84.88638278044048
 20
41.60788208543038
 30
0.0
 11
84.93057695426463
 21
41.63333181754242
 31
0.0
  0
LINE
  5
1B9
330
6C
100
AcDbEntity
  8
Visible (ANSI)
100
AcDbLine
 10
84.92994132124849
 20
24.20239408349287
 30
0.0
 11
84.93057695426463
 21
24.202028046783
 31
0.0
  0
LINE
  5
1BA
330
6C
100
AcDbEntity
  8
Visible (ANSI)
100
AcDbLine
 10
84.88638278044046
 20
24.17657831467097
 30
0.0
 11
84.8347404151878
 21
24.20631717496827
 31
0.0
  0
LINE
  5
1BB
330
6C
100
AcDbEntity
  8
Visible (ANSI)
100
AcDbLine
 10
84.8347404151878
 20
24.20631717496827
 30
0.0
 11
84.8347404151878
 21
24.20642618125158
 31
0.0
  0
LINE
  5
1BC
330
6C
100
AcDbEntity
  8
Visible Narrow (ANSI)
100
AcDbLine
 10
84.83483469609195
 20
24.20637188848974
 30
0.0
 11
84.83483469609197
 21
40.97371838759371
 31
0.0
  0
LINE
  5
1BD
330
6C
100
AcDbEntity
  8
Visible (ANSI)
100
AcDbLine
 10
84.83474041518782
 20
40.97377268035554
 30
0.0
 11
84.83474041518782
 21
40.97388168663885
 31
0.0
  0
LINE
  5
1BE
330
6C
100
AcDbEntity
  8
Visible (ANSI)
100
AcDbLine
 10
84.83474041518782
 20
40.97388168663885
 30
0.0
 11
84.88638278044048
 21
40.94414282634157
 31
0.0
  0
LINE
  5
1BF
330
6C
100
AcDbEntity
  8
Visible Narrow (ANSI)
100
AcDbLine
 10
84.93793086478897
 20
24.20637188848976
 30
0.0
 11
84.93793086478898
 21
40.97371838759372
 31
0.0
  0
ELLIPSE
  5
1C0
330
6C
100
AcDbEntity
  8
Visible (ANSI)
100
AcDbEllipse
 10
84.88638278044044
 20
24.23605645602521
 30
0.0
 11
0.0728999999999987
 21
0.0000000000000043
 31
0.0
210
0.0
220
0.0
230
1.0
 40
0.575861700985309
 41
3.926990816987117
 42
5.497787143782169
  0
LINE
  5
1C1
330
6C
100
AcDbEntity
  8
Visible (ANSI)
100
AcDbLine
 10
84.83474041518782
 20
40.97377268035554
 30
0.0
 11
84.83483506142244
 21
40.97382718349719
 31
0.0
  0
ELLIPSE
  5
1C2
330
6C
100
AcDbEntity
  8
Visible (ANSI)
100
AcDbEllipse
 10
84.88638278044048
 20
41.0034029551292
 30
0.0
 11
0.0729000000000421
 21
0.0000000000000043
 31
0.0
210
0.0
220
0.0
230
1.0
 40
0.5758617009853091
 41
3.926990816987016
 42
3.987598387464304
  0
ELLIPSE
  5
1C3
330
6C
100
AcDbEntity
  8
Visible (ANSI)
100
AcDbEllipse
 10
84.88638278044057
 20
41.0034029551291
 30
0.0
 11
0.0728999999998359
 21
-0.0000000000000001
 31
0.0
210
0.0
220
0.0
230
1.0
 40
0.5758617009853091
 41
5.363700662383093
 42
5.497787143782668
  0
LINE
  5
1C4
330
6C
100
AcDbEntity
  8
Visible (ANSI)
100
AcDbLine
 10
84.88638278044048
 20
40.94414282634157
 30
0.0
 11
84.93057695426463
 21
40.96959255845359
 31
0.0
  0
LINE
  5
1C5
330
6C
100
AcDbEntity
  8
Visible (ANSI)
100
AcDbLine
 10
84.8347404151878
 20
24.20631717496827
 30
0.0
 11
84.83483506142372
 21
24.20637167811066
 31
0.0
  0
LINE
  5
1C6
330
6C
100
AcDbEntity
  8
Visible (ANSI)
100
AcDbLine
 10
84.93057695426463
 20
24.202028046783
 30
0.0
 11
84.88638278044046
 21
24.17657831467097
 31
0.0
  0
LINE
  5
1C7
330
6C
100
AcDbEntity
  8
Visible (ANSI)
100
AcDbLine
 10
84.69487469386907
 20
23.40150498401074
 30
0.0
 11
84.93057695426463
 21
23.53828878769416
 31
0.0
  0
LINE
  5
1C8
330
6C
100
AcDbEntity
  8
Visible (ANSI)
100
AcDbLine
 10
84.88638278044046
 20
23.51283905558214
 30
0.0
 11
84.65068052004493
 21
23.37605525189871
 31
0.0
  0
LINE
  5
1C9
330
6C
100
AcDbEntity
  8
Visible (ANSI)
100
AcDbLine
 10
84.65068052004493
 20
23.37605525189871
 30
0.0
 11
84.69487469386907
 21
23.40150498401074
 31
0.0
  0
LINE
  5
1CA
330
6C
100
AcDbEntity
  8
Visible (ANSI)
100
AcDbLine
 10
84.93057695426463
 20
23.53828878769416
 30
0.0
 11
84.88638278044046
 21
23.51283905558214
 31
0.0
  0
LINE
  5
1CB
330
6C
100
AcDbEntity
  8
Visible (ANSI)
100
AcDbLine
 10
84.8347404151878
 20
24.20642618125158
 30
0.0
 11
84.83483469609195
 21
24.20637188848974
 31
0.0
  0
LINE
  5
1CC
330
6C
100
AcDbEntity
  8
Visible (ANSI)
100
AcDbLine
 10
84.83483469609197
 20
40.97371838759371
 30
0.0
 11
84.83474041518782
 21
40.97377268035554
 31
0.0
  0
LINE
  5
1CD
330
6C
100
AcDbEntity
  8
Visible (ANSI)
100
AcDbLine
 10
84.93793086478897
 20
24.20637188848976
 30
0.0
 11
85.25124987953267
 21
24.38680030927116
 31
0.0
  0
LINE
  5
1CE
330
6C
100
AcDbEntity
  8
Visible (ANSI)
100
AcDbLine
 10
85.25124987953269
 20
41.15414680837512
 30
0.0
 11
85.25124987953267
 21
24.38680030927116
 31
0.0
  0
LINE
  5
1CF
330
6C
100
AcDbEntity
  8
Visible (ANSI)
100
AcDbLine
 10
85.25124987953269
 20
41.15414680837512
 30
0.0
 11
84.93793086478898
 21
40.97371838759372
 31
0.0
  0
LINE
  5
1D0
330
6C
100
AcDbEntity
  8
Visible (ANSI)
100
AcDbLine
 10
85.20705570570852
 20
41.17959654048714
 30
0.0
 11
85.25124987953269
 21
41.15414680837512
 31
0.0
  0
LINE
  5
1D1
330
6C
100
AcDbEntity
  8
Visible (ANSI)
100
AcDbLine
 10
84.93057695426463
 20
41.02038301639432
 30
0.0
 11
85.20705570570852
 21
41.17959654048714
 31
0.0
  0
LINE
  5
1D2
330
6C
100
AcDbEntity
  8
Visible (ANSI)
100
AcDbLine
 10
84.07650981372137
 20
42.28706442622366
 30
0.0
 11
84.07650981372137
 21
42.28717343250696
 31
0.0
  0
LINE
  5
1D3
330
6C
100
AcDbEntity
  8
Visible (ANSI)
100
AcDbLine
 10
72.40264826085051
 20
49.00970320340817
 30
0.0
 11
72.40264826085051
 21
49.00959419712487
 31
0.0
  0
LINE
  5
1D4
330
6C
100
AcDbEntity
  8
Visible (ANSI)
100
AcDbLine
 10
84.12805789806983
 20
42.37645718544344
 30
0.0
 11
84.44137691281358
 21
42.55688560622487
 31
0.0
  0
LINE
  5
1D5
330
6C
100
AcDbEntity
  8
Visible (ANSI)
100
AcDbLine
 10
72.76751535994272
 20
49.27941537712607
 30
0.0
 11
84.44137691281358
 21
42.55688560622487
 31
0.0
  0
LINE
  5
1D6
330
6C
100
AcDbEntity
  8
Visible (ANSI)
100
AcDbLine
 10
72.76751535994272
 20
49.27941537712607
 30
0.0
 11
72.45419634519901
 21
49.09898695634467
 31
0.0
  0
LINE
  5
1D7
330
6C
100
AcDbEntity
  8
Visible (ANSI)
100
AcDbLine
 10
84.44137691281357
 20
42.50578891092221
 30
0.0
 11
84.16506941002042
 21
42.34667400236869
 31
0.0
  0
LINE
  5
1D8
330
6C
100
AcDbEntity
  8
Visible (ANSI)
100
AcDbLine
 10
84.44137691281358
 20
42.55688560622487
 30
0.0
 11
84.44137691281357
 21
42.50578891092221
 31
0.0
  0
LINE
  5
1D9
330
6C
100
AcDbEntity
  8
Visible (ANSI)
100
AcDbLine
 10
71.5927752941314
 20
49.26316150472509
 30
0.0
 11
71.82847755452694
 21
49.39994530840852
 31
0.0
  0
LINE
  5
1DA
330
6C
100
AcDbEntity
  8
Visible (ANSI)
100
AcDbLine
 10
71.82847755452694
 20
49.39994530840852
 30
0.0
 11
71.8726717283511
 21
49.42539504052055
 31
0.0
  0
LINE
  5
1DB
330
6C
100
AcDbEntity
  8
Visible (ANSI)
100
AcDbLine
 10
71.5927752941314
 20
48.59942224563626
 30
0.0
 11
71.64441765938406
 21
48.56968338533897
 31
0.0
  0
LINE
  5
1DC
330
6C
100
AcDbEntity
  8
Visible (ANSI)
100
AcDbLine
 10
71.64441765938406
 20
48.56968338533897
 30
0.0
 11
71.64441765938406
 21
48.56957437905567
 31
0.0
  0
LINE
  5
1DD
330
6C
100
AcDbEntity
  8
Visible Narrow (ANSI)
100
AcDbLine
 10
71.64432337847991
 20
48.56962867181749
 30
0.0
 11
71.6443233784799
 21
31.80228217271353
 31
0.0
  0
LINE
  5
1DE
330
6C
100
AcDbEntity
  8
Visible (ANSI)
100
AcDbLine
 10
71.64441765938405
 20
31.8022278799517
 30
0.0
 11
71.64441765938405
 21
31.80211887366838
 31
0.0
  0
LINE
  5
1DF
330
6C
100
AcDbEntity
  8
Visible (ANSI)
100
AcDbLine
 10
71.64441765938405
 20
31.80211887366838
 30
0.0
 11
71.59277529413138
 21
31.83185773396568
 31
0.0
  0
ELLIPSE
  5
1E0
330
6C
100
AcDbEntity
  8
Visible (ANSI)
100
AcDbEllipse
 10
71.69587146282839
 20
48.59931323935295
 30
0.0
 11
-0.0728999999999904
 21
0.0000000000000001
 31
0.0
210
0.0
220
0.0
230
1.0
 40
0.5758617009853092
 41
0.7247905929201633
 42
0.7853981633974528
  0
ELLIPSE
  5
1E1
330
6C
100
AcDbEntity
  8
Visible (ANSI)
100
AcDbEllipse
 10
71.69587146282839
 20
31.831966740249
 30
0.0
 11
-0.0729000000000002
 21
-0.0000000000000004
 31
0.0
210
0.0
220
0.0
230
1.0
 40
0.575861700985305
 41
0.0
 42
0.7853981633973675
  0
LINE
  5
1E2
330
6C
100
AcDbEntity
  8
Visible (ANSI)
100
AcDbLine
 10
71.59277529413138
 20
31.83185773396568
 30
0.0
 11
71.62297146282838
 21
31.84924655103478
 31
0.0
  0
LINE
  5
1E3
330
6C
100
AcDbEntity
  8
Visible (ANSI)
100
AcDbLine
 10
71.6229714628284
 20
48.58203342856717
 30
0.0
 11
71.62297146282838
 21
31.831966740249
 31
0.0
  0
LINE
  5
1E4
330
6C
100
AcDbEntity
  8
Visible (ANSI)
100
AcDbLine
 10
71.64441765938406
 20
48.56957437905567
 30
0.0
 11
71.64432337847991
 21
48.56962867181749
 31
0.0
  0
LINE
  5
1E5
330
6C
100
AcDbEntity
  8
Visible (ANSI)
100
AcDbLine
 10
71.6443233784799
 20
31.80228217271353
 30
0.0
 11
71.64441765938405
 21
31.8022278799517
 31
0.0
  0
LINE
  5
1E6
330
6C
100
AcDbEntity
  8
Visible (ANSI)
100
AcDbLine
 10
71.81611622515342
 20
48.72792672779098
 30
0.0
 11
71.87089455257674
 21
48.75947146859811
 31
0.0
  0
LINE
  5
1E7
330
6C
100
AcDbEntity
  8
Visible (ANSI)
100
AcDbLine
 10
71.89530943969761
 20
48.72263160280086
 30
0.0
 11
71.83572459499043
 21
48.68831897277484
 31
0.0
  0
LINE
  5
1E8
330
6C
100
AcDbEntity
  8
Visible (ANSI)
100
AcDbLine
 10
71.82847755452694
 20
30.75987086199857
 30
0.0
 11
71.59277529413138
 21
31.16811847487684
 31
0.0
  0
DIMENSION
  5
1E9
330
6C
100
AcDbEntity
  8
Dimension (ANSI)
100
AcDbDimension
  2
*D4
 10
42.41138576985567
 20
53.75800975981356
 30
0.0
 11
28.31138576985567
 21
53.75800975981356
 31
0.0
 70
   160
  1
<>
 42
28.2
  3
Default (ANSI)
100
AcDbAlignedDimension
 13
14.21138576985567
 23
46.61890214826502
 33
0.0
 14
42.41138576985567
 24
46.61890214826502
 34
0.0
100
AcDbRotatedDimension
1001
ACAD
1000
DSTYLE
1002
{
1070
   289
1070
     1
1070
    73
1070
     0
1070
    74
1070
     0
1070
   271
1070
     2
1070
   272
1070
     2
1070
    48
1040
0.0
1070
    47
1040
0.0
1002
}
  0
DIMENSION
  5
2D6
330
6C
100
AcDbEntity
  8
Dimension (ANSI)
100
AcDbDimension
  2
*D5
 10
41.91138576985567
 20
51.73832472044349
 30
0.0
 11
28.31138576985567
 21
51.73832472044349
 31
0.0
 70
   160
  1
<>{ TYP.}
 71
     5
 42
27.20000000000001
  3
Default (ANSI)
100
AcDbAlignedDimension
 13
14.71138576985566
 23
47.11890214826501
 33
0.0
 14
41.91138576985567
 24
47.11890214826501
 34
0.0
 50
180.0
100
AcDbRotatedDimension
1001
ACAD
1000
DSTYLE
1002
{
1070
   289
1070
     1
1070
    73
1070
     0
1070
    74
1070
     0
1070
   271
1070
     2
1070
   272
1070
     2
1070
    48
1040
0.0
1070
    47
1040
0.0
1002
}
  0
DIMENSION
  5
3C0
330
6C
100
AcDbEntity
  8
Dimension (ANSI)
100
AcDbDimension
  2
*D6
 10
14.71138576985566
 20
51.73832472044349
 30
0.0
 11
12.18083959979751
 21
51.73832472044349
 31
0.0
 70
   160
  1
<>{\PTYP.}
 71
     5
 42
0.4999999999999983
  3
Default (ANSI)
100
AcDbAlignedDimension
 13
14.21138576985567
 23
46.61890214826502
 33
0.0
 14
14.71138576985566
 24
47.11890214826501
 34
0.0
 50
180.0
100
AcDbRotatedDimension
1001
ACAD
1000
DSTYLE
1002
{
1070
   289
1070
     1
1070
    73
1070
     0
1070
    74
1070
     0
1070
   271
1070
     2
1070
   272
1070
     2
1070
    48
1040
0.0
1070
    47
1040
0.0
1002
}
  0
DIMENSION
  5
4BE
330
6C
100
AcDbEntity
  8
Dimension (ANSI)
100
AcDbDimension
  2
*D7
 10
8.01847238402891
 20
12.91890214826502
 30
0.0
 11
8.018472384028909
 21
30.01890214826502
 31
0.0
 70
   160
  1
<>
 42
34.19999999999999
  3
Default (ANSI)
100
AcDbAlignedDimension
 13
14.71138576985566
 23
47.11890214826501
 33
0.0
 14
14.71138576985567
 24
12.91890214826502
 34
0.0
 50
270.0
100
AcDbRotatedDimension
1001
ACAD
1000
DSTYLE
1002
{
1070
   289
1070
     1
1070
   271
1070
     2
1070
   272
1070
     2
1070
    48
1040
0.0
1070
    47
1040
0.0
1002
}
  0
DIMENSION
  5
5A8
330
6C
100
AcDbEntity
  8
Dimension (ANSI)
100
AcDbDimension
  2
*D8
 10
12.2428818328478
 20
46.61890214826502
 30
0.0
 11
12.24288183284779
 21
30.01890214826501
 31
0.0
 70
   160
  1
<>{\PTYP.}
 71
     5
 42
33.19999999999999
  3
Default (ANSI)
100
AcDbAlignedDimension
 13
14.21138576985567
 23
13.41890214826502
 33
0.0
 14
14.21138576985567
 24
46.61890214826502
 34
0.0
 50
90.0
100
AcDbRotatedDimension
1001
ACAD
1000
DSTYLE
1002
{
1070
   289
1070
     1
1070
   271
1070
     2
1070
   272
1070
     2
1070
    48
1040
0.0
1070
    47
1040
0.0
1002
}
  0
DIMENSION
  5
6A6
330
6C
100
AcDbEntity
  8
Dimension (ANSI)
100
AcDbDimension
  2
*D9
 10
10.73727003410211
 20
46.61890214826502
 30
0.0
 11
12.24288183284779
 21
49.17173525719798
 31
0.0
 70
   160
  1
<>{\PTYP.}
 71
     5
 42
0.5
  3
Default (ANSI)
100
AcDbAlignedDimension
 13
14.71138576985566
 23
47.11890214826501
 33
0.0
 14
14.21138576985567
 24
46.61890214826502
 34
0.0
 50
90.0
100
AcDbRotatedDimension
1001
ACAD
1000
DSTYLE
1002
{
1070
   289
1070
     1
1070
   271
1070
     2
1070
   272
1070
     2
1070
    48
1040
0.0
1070
    47
1040
0.0
1002
}
  0
DIMENSION
  5
7BC
330
6C
100
AcDbEntity
  8
Dimension (ANSI)
100
AcDbDimension
  2
*D10
 10
14.55460907455903
 20
13.61567884356163
 30
0.0
 11
22.25755629264256
 21
10.82502234002318
 31
0.0
 70
   163
  1
<>{ TYP. (6 PL.)}
 42
0.5
  3
Default (ANSI)
100
AcDbDiametricDimension
 15
14.90816246515235
 25
13.26212545296841
 35
0.0
 40
0.0
1001
ACAD
1000
DSTYLE
1002
{
1070
   144
1040
1.000000000000003
1070
   271
1070
     2
1070
   272
1070
     2
1070
    48
1040
0.0
1070
    47
1040
0.0
1002
}
1001
ACAD_DSTYLE_DIMRADIAL_EXTENSION
1070
   387
1070
     1
1070
   388
1040
0.0
1070
   390
1040
0.0
  0
DIMENSION
  5
866
330
6C
100
AcDbEntity
  8
Dimension (ANSI)
100
AcDbDimension
  2
*D11
 10
14.62090033529526
 20
14.2993875828254
 30
0.0
 11
22.19449677732435
 21
11.63808185534139
 31
0.0
 70
   163
  1
<>{ TYP. (4 PL.)}
 42
0.3125
  3
Default (ANSI)
100
AcDbDiametricDimension
 15
14.8418712044161
 25
14.07841671370464
 35
0.0
 40
0.0
1001
ACAD
1000
DSTYLE
1002
{
1070
   144
1040
0.9999999999999943
1070
   271
1070
     2
1070
   272
1070
     2
1070
    48
1040
0.0
1070
    47
1040
0.0
1002
}
1001
ACAD_DSTYLE_DIMRADIAL_EXTENSION
1070
   387
1070
     1
1070
   388
1040
0.0
1070
   390
1040
0.0
  0
DIMENSION
  5
90F
330
6C
100
AcDbEntity
  8
Dimension (ANSI)
100
AcDbDimension
  2
*D12
 10
46.56660386781396
 20
13.43890214826501
 30
0.0
 11
45.06099206906827
 21
11.25035949731124
 31
0.0
 70
   160
  1
<>{ \PTYP.}
 71
     5
 42
0.5199999999999996
  3
Default (ANSI)
100
AcDbAlignedDimension
 13
41.91138576985568
 23
12.91890214826502
 33
0.0
 14
41.89138576985566
 24
13.43890214826502
 34
0.0
 50
90.0
100
AcDbRotatedDimension
1001
ACAD
1000
DSTYLE
1002
{
1070
   289
1070
     1
1070
   271
1070
     2
1070
   272
1070
     2
1070
    48
1040
0.0
1070
    47
1040
0.0
1002
}
  0
DIMENSION
  5
A25
330
6C
100
AcDbEntity
  8
Dimension (ANSI)
100
AcDbDimension
  2
*D13
 10
39.00220196063724
 20
14.18890214826502
 30
0.0
 11
37.53468540055445
 21
11.22602776132235
 31
0.0
 70
   160
  1
<>{\PTYP.}
 71
     5
 42
1.269999999999999
  3
Default (ANSI)
100
AcDbAlignedDimension
 13
41.91138576985568
 23
12.91890214826502
 33
0.0
 14
41.89138576985566
 24
14.18890214826502
 34
0.0
 50
90.0
100
AcDbRotatedDimension
1001
ACAD
1000
DSTYLE
1002
{
1070
   289
1070
     1
1070
   271
1070
     2
1070
    76
1070
     1
1070
    75
1070
     1
1070
   272
1070
     2
1070
    48
1040
0.0
1070
    47
1040
0.0
1002
}
  0
DIMENSION
  5
B2E
330
6C
100
AcDbEntity
  8
Dimension (ANSI)
100
AcDbDimension
  2
*D14
 10
42.41138576985567
 20
11.20169602533347
 30
0.0
 11
39.86083959979751
 21
11.20169602533347
 31
0.0
 70
   160
  1
<>{\PTYP.}
 71
     5
 42
0.5200000000000032
  3
Default (ANSI)
100
AcDbAlignedDimension
 13
41.89138576985566
 23
14.18890214826502
 33
0.0
 14
42.41138576985567
 24
13.41890214826502
 34
0.0
 50
180.0
100
AcDbRotatedDimension
1001
ACAD
1000
DSTYLE
1002
{
1070
   289
1070
     1
1070
    73
1070
     0
1070
    74
1070
     0
1070
   271
1070
     2
1070
   272
1070
     2
1070
    48
1040
0.0
1070
    47
1040
0.0
1002
}
  0
DIMENSION
  5
C2C
330
6C
100
AcDbEntity
  8
Dimension (ANSI)
100
AcDbDimension
  2
*D15
 10
56.67581066002419
 20
46.08389851314502
 30
0.0
 11
53.61773291540893
 21
46.08389851314502
 31
0.0
 70
   160
  1
(<>){\P12 GA.\PGALV.}
 71
     5
 42
0.0937499999999929
  3
Default (ANSI)
100
AcDbAlignedDimension
 13
56.76956066002419
 23
32.30437095408991
 33
0.0
 14
56.67581066002419
 24
32.30437095408991
 34
0.0
100
AcDbRotatedDimension
1001
ACAD
1000
DSTYLE
1002
{
1070
   289
1070
     1
1070
    73
1070
     0
1070
    74
1070
     0
1070
   271
1070
     3
1070
   147
1040
0.031496062992126
1070
    72
1070
     0
1070
    71
1070
     0
1070
   272
1070
     3
1070
    48
1040
0.0
1070
    47
1040
0.0
1002
}
  0
MTEXT
  5
D34
330
6C
100
AcDbEntity
  8
Symbol (ANSI)
100
AcDbMText
 10
68.3968431498169
 20
11.45848310463667
 30
0.0
 40
0.5333333503542922
 41
20.16569650695948
 71
     4
 72
     1
  1
{NOTES:\P1. FABRICATED FROM 12 GA. GALV. STEEL.\P2. NATURAL FINISH.}
  7
Note Text (ANSI)
 73
     2
 44
1.093904256820678
1001
ACAD
1000
MTEXTBEGIN
1070
    73
1070
     2
1070
    44
1040
1.093904256820678
1070
    74
1070
     0
1000
MTEXTEND
  0
LINE
  5
D35
330
6C
100
AcDbEntity
  8
Center Mark (ANSI)
  6
CHAIN
 48
0.1908618211746216
100
AcDbLine
 10
13.81471910318901
 20
46.59890214826499
 30
0.0
 11
15.64805243652234
 21
46.59890214826499
 31
0.0
  0
LINE
  5
D36
330
6C
100
AcDbEntity
  8
Center Mark (ANSI)
  6
CHAIN
 48
0.1908618211746216
100
AcDbLine
 10
42.80805243652234
 20
46.59890214826501
 30
0.0
 11
40.974719103189
 21
46.59890214826501
 31
0.0
  0
LINE
  5
D37
330
6C
100
AcDbEntity
  8
Centerline (ANSI)
  6
CHAIN
 48
0.9524481296539306
100
AcDbLine
 10
13.81471910318901
 20
46.59890214826499
 30
0.0
 11
42.80805243652234
 21
46.59890214826501
 31
0.0
  0
LINE
  5
D38
330
6C
100
AcDbEntity
  8
Center Mark (ANSI)
  6
CHAIN
 48
0.1908618211746216
100
AcDbLine
 10
41.89138576985566
 20
12.52223548159835
 30
0.0
 11
41.89138576985566
 21
14.35556881493168
 31
0.0
  0
LINE
  5
D39
330
6C
100
AcDbEntity
  8
Centerline (ANSI)
  6
CHAIN
 48
0.9524481296539306
100
AcDbLine
 10
41.89138576985566
 20
47.51556881493168
 30
0.0
 11
41.89138576985566
 21
12.52223548159835
 31
0.0
  0
LINE
  5
D3A
330
6C
100
AcDbEntity
  8
Center Mark (ANSI)
  6
CHAIN
 48
0.1908618211746216
100
AcDbLine
 10
13.81471910318901
 20
13.43890214826502
 30
0.0
 11
15.64805243652234
 21
13.43890214826502
 31
0.0
  0
LINE
  5
D3B
330
6C
100
AcDbEntity
  8
Centerline (ANSI)
  6
CHAIN
 48
0.9524481296539306
100
AcDbLine
 10
42.80805243652234
 20
13.43890214826502
 30
0.0
 11
13.81471910318901
 21
13.43890214826502
 31
0.0
  0
LINE
  5
D3C
330
6C
100
AcDbEntity
  8
Centerline (ANSI)
  6
CHAIN
 48
0.9524481296539306
100
AcDbLine
 10
14.73138576985568
 20
12.52223548159835
 30
0.0
 11
14.73138576985568
 21
47.51556881493167
 31
0.0
  0
LINE
  5
D3D
330
6C
100
AcDbEntity
  8
Center Mark (ANSI)
  6
CHAIN
 48
0.1713316440582275
100
AcDbLine
 10
14.73138576985568
 20
46.67181881493166
 30
0.0
 11
14.73138576985568
 21
45.02598548159833
 31
0.0
  0
LINE
  5
D3E
330
6C
100
AcDbEntity
  8
Center Mark (ANSI)
  6
CHAIN
 48
0.1713316440582275
100
AcDbLine
 10
41.89138576985566
 20
46.67181881493167
 30
0.0
 11
41.89138576985566
 21
45.02598548159833
 31
0.0
  0
LINE
  5
D3F
330
6C
100
AcDbEntity
  8
Centerline (ANSI)
  6
CHAIN
 48
0.9524481296539306
100
AcDbLine
 10
13.90846910318901
 20
45.848902148265
 30
0.0
 11
42.71430243652234
 21
45.84890214826501
 31
0.0
  0
LINE
  5
D40
330
6C
100
AcDbEntity
  8
Center Mark (ANSI)
  6
CHAIN
 48
0.1713316440582275
100
AcDbLine
 10
14.73138576985568
 20
15.01181881493168
 30
0.0
 11
14.73138576985568
 21
13.36598548159835
 31
0.0
  0
LINE
  5
D41
330
6C
100
AcDbEntity
  8
Center Mark (ANSI)
  6
CHAIN
 48
0.1713316440582275
100
AcDbLine
 10
41.89138576985566
 20
15.01181881493168
 30
0.0
 11
41.89138576985566
 21
13.36598548159835
 31
0.0
  0
LINE
  5
D42
330
6C
100
AcDbEntity
  8
Centerline (ANSI)
  6
CHAIN
 48
0.9524481296539306
100
AcDbLine
 10
13.90846910318901
 20
14.18890214826502
 30
0.0
 11
42.71430243652234
 21
14.18890214826502
 31
0.0
  0
DIMENSION
  5
D43
330
6C
100
AcDbEntity
  8
Dimension (ANSI)
100
AcDbDimension
  2
*D16
 10
57.4498106600242
 20
42.25129584905242
 30
0.0
 11
59.48035683008235
 21
42.25129584905242
 31
0.0
 70
   160
  1
<>
 42
0.7740000000000009
  3
Default (ANSI)
100
AcDbAlignedDimension
 13
56.67581066002419
 23
46.61890214826502
 33
0.0
 14
57.4498106600242
 24
45.40090214826501
 34
0.0
 50
180.0
100
AcDbRotatedDimension
1001
ACAD
1000
DSTYLE
1002
{
1070
   289
1070
     1
1070
    73
1070
     0
1070
    74
1070
     0
1070
   271
1070
     2
1070
    76
1070
     1
1070
   272
1070
     2
1070
    48
1040
0.0
1070
    47
1040
0.0
1002
}
  0
LINE
  5
E28
330
6C
100
AcDbEntity
  8
Center Mark (ANSI)
  6
CHAIN
 48
0.1908618211746216
100
AcDbLine
 10
14.73138576985568
 20
30.93556881493168
 30
0.0
 11
14.73138576985568
 21
29.10223548159835
 31
0.0
  0
LINE
  5
E29
330
6C
100
AcDbEntity
  8
Center Mark (ANSI)
  6
CHAIN
 48
0.1908618211746216
100
AcDbLine
 10
41.89138576985566
 20
30.93556881493168
 30
0.0
 11
41.89138576985566
 21
29.10223548159835
 31
0.0
  0
LINE
  5
E2A
330
6C
100
AcDbEntity
  8
Centerline (ANSI)
  6
CHAIN
 48
0.9524481296539306
100
AcDbLine
 10
13.81471910318901
 20
30.01890214826501
 30
0.0
 11
42.80805243652234
 21
30.01890214826501
 31
0.0
  0
DIMENSION
  5
E2B
330
6C
100
AcDbEntity
  8
Dimension (ANSI)
100
AcDbDimension
  2
*D17
 10
45.06099206906827
 20
13.43890214826501
 30
0.0
 11
45.06099206906827
 21
21.72890214826502
 31
0.0
 70
   160
  1
<>{\PTYP.}
 71
     5
 42
16.58
  3
Default (ANSI)
100
AcDbAlignedDimension
 13
41.89138576985566
 23
30.01890214826501
 33
0.0
 14
41.89138576985566
 24
13.43890214826502
 34
0.0
 50
90.0
100
AcDbRotatedDimension
1001
ACAD
1000
DSTYLE
1002
{
1070
   289
1070
     1
1070
   271
1070
     2
1070
   272
1070
     2
1070
    48
1040
0.0
1070
    47
1040
0.0
1002
}
  0
ENDSEC
  0
SECTION
  2
OBJECTS
  0
DICTIONARY
  5
C
330
0
100
AcDbDictionary
281
     1
  3
ACAD_CIP_PREVIOUS_PRODUCT_INFO
350
F29
  3
ACAD_COLOR
350
63
  3
ACAD_GROUP
350
D
  3
ACAD_LAYOUT
350
62
  3
ACAD_MATERIAL
350
10
  3
ACAD_MLEADERSTYLE
350
66
  3
ACAD_MLINESTYLE
350
5F
  3
ACAD_PLOTSETTINGS
350
61
  3
ACAD_PLOTSTYLENAME
350
E
  3
ACAD_SCALELIST
350
42
  3
ACAD_TABLESTYLE
350
64
  3
ACAD_VISUALSTYLE
350
29
  3
ACDB_RECOMPOSE_DATA
350
F37
  3
AcDbVariableDictionary
350
76
  3
DWGPROPS
350
F38
  0
DICTIONARY
  5
F74
330
860
100
AcDbDictionary
280
     1
281
     1
  3
ACAD_MTEXT_RT
360
F75
  0
DICTIONARY
  5
F76
330
909
100
AcDbDictionary
280
     1
281
     1
  3
ACAD_MTEXT_RT
360
F77
  0
XRECORD
  5
F29
102
{ACAD_REACTORS
330
C
102
}
330
C
100
AcDbXrecord
280
     1
300
INVNTOR
300
2012
300
85795PDSP_2012_0F
  0
DICTIONARY
  5
63
102
{ACAD_REACTORS
330
C
102
}
330
C
100
AcDbDictionary
281
     1
  0
DICTIONARY
  5
D
102
{ACAD_REACTORS
330
C
102
}
330
C
100
AcDbDictionary
281
     1
  0
DICTIONARY
  5
62
102
{ACAD_REACTORS
330
C
102
}
330
C
100
AcDbDictionary
281
     1
  3
Layout1
350
6B
  3
Layout2
350
73
  3
Model
350
6F
  0
DICTIONARY
  5
10
102
{ACAD_REACTORS
330
C
102
}
330
C
100
AcDbDictionary
281
     1
  3
ByBlock
350
19
  3
ByLayer
350
11
  3
Global
350
21
  0
DICTIONARY
  5
66
102
{ACAD_REACTORS
330
C
102
}
330
C
100
AcDbDictionary
281
     1
  3
Standard
350
67
  0
DICTIONARY
  5
5F
102
{ACAD_REACTORS
330
C
102
}
330
C
100
AcDbDictionary
281
     1
  3
Standard
350
60
  0
DICTIONARY
  5
61
102
{ACAD_REACTORS
330
C
102
}
330
C
100
AcDbDictionary
281
     1
  0
ACDBDICTIONARYWDFLT
  5
E
102
{ACAD_REACTORS
330
C
102
}
330
C
100
AcDbDictionary
281
     1
  3
Normal
350
F
100
AcDbDictionaryWithDefault
340
F
  0
DICTIONARY
  5
42
102
{ACAD_REACTORS
330
C
102
}
330
C
100
AcDbDictionary
281
     1
  3
A0
350
43
  3
A1
350
44
  3
A2
350
45
  3
A3
350
46
  3
A4
350
47
  3
A5
350
48
  3
A6
350
49
  3
A7
350
4A
  3
A8
350
4B
  3
A9
350
4C
  3
B0
350
4D
  3
B1
350
4E
  3
B2
350
4F
  3
B3
350
50
  3
B4
350
51
  3
B5
350
52
  3
B6
350
53
  0
DICTIONARY
  5
64
102
{ACAD_REACTORS
330
C
102
}
330
C
100
AcDbDictionary
281
     1
  3
Standard
350
65
  0
DICTIONARY
  5
29
102
{ACAD_REACTORS
330
C
102
}
330
C
100
AcDbDictionary
281
     1
  3
2dWireframe
350
2F
  3
Basic
350
2E
  3
Brighten
350
35
  3
ColorChange
350
39
  3
Conceptual
350
32
  3
Dim
350
34
  3
EdgeColorOff
350
41
  3
Facepattern
350
38
  3
Flat
350
2A
  3
FlatWithEdges
350
2B
  3
Gouraud
350
2C
  3
GouraudWithEdges
350
2D
  3
Hidden
350
31
  3
JitterOff
350
3F
  3
Linepattern
350
37
  3
OverhangOff
350
40
  3
Realistic
350
33
  3
Shaded
350
3E
  3
Shaded with edges
350
3D
  3
Shades of Gray
350
3A
  3
Sketchy
350
3B
  3
Thicken
350
36
  3
Wireframe
350
30
  3
X-Ray
350
3C
  0
XRECORD
  5
F37
102
{ACAD_REACTORS
330
C
102
}
330
C
100
AcDbXrecord
280
     1
 90
        1
330
65
  0
DICTIONARY
  5
76
102
{ACAD_REACTORS
330
C
102
}
330
C
100
AcDbDictionary
281
     1
  3
CANNOSCALE
350
79
  3
CMLEADERSTYLE
350
78
  3
CTABLESTYLE
350
77
  3
DIMASSOC
350
F31
  3
HIDETEXT
350
F30
  3
INDEXCTL
350
F2F
  3
LAYEREVAL
350
F2C
  3
LAYERNOTIFY
350
F2D
  3
LIGHTINGUNITS
350
F2B
  3
MSLTSCALE
350
F2A
  3
SORTENTS
350
F2E
  3
XCLIPFRAME
350
F32
  0
XRECORD
  5
F38
102
{ACAD_REACTORS
330
C
102
}
330
C
100
AcDbXrecord
280
     1
  1
DWGPROPS COOKIE
  2

  3

  4
JF
  6

  7

  8

  9
-
300
Manager=
301
Company=
302
Category=
303
Part Number=NP3630CG-S
304
Description=
305
Project=
306
Designer=JF
307
Engineer=
308
Authority=
309
Cost Center=
 40
0.0000368981481481
 41
2455946.444027709
 42
2455946.444027709
  1

 90
       22
300
Vendor=
300
User Status=
300
Design Status=WorkInProgress
300
Checked by=DN
300
Date Checked=01/18/2012
300
Engr Approved by=
300
Date Eng Approved=01/18/2012
300
Mfg Approved by=
300
Date Mfg Approved=01/18/2012
300
DWG. NO=
300
NUMBER OF SHEETS=1
300
DRAWING #=
  0
XRECORD
  5
F75
102
{ACAD_REACTORS
330
F74
102
}
330
F74
100
AcDbXrecord
280
     1
 40
28785.0
  1
\A1;\U+22050.50{ TYP. (6 PL.)}
  0
XRECORD
  5
F77
102
{ACAD_REACTORS
330
F76
102
}
330
F76
100
AcDbXrecord
280
     1
 40
28724.0
  1
\A1;\U+22050.31{ TYP. (4 PL.)}
  0
LAYOUT
  5
6B
102
{ACAD_XDICTIONARY
360
F6E
102
}
102
{ACAD_REACTORS
330
62
102
}
330
62
100
AcDbPlotSettings
  1

  2

  4

  6

 40
0.0
 41
0.0
 42
0.0
 43
0.0
 44
0.0
 45
0.0
 46
0.0
 47
0.0
 48
0.0
 49
0.0
140
0.0
141
0.0
142
1.0
143
1.0
 70
   688
 72
     0
 73
     0
 74
     5
  7

 75
    16
147
1.0
148
0.0
149
0.0
100
AcDbLayout
  1
Layout1
 70
     1
 71
     1
 10
0.0
 20
0.0
 11
12.0
 21
9.0
 12
0.0
 22
0.0
 32
0.0
 14
0.0
 24
0.0
 34
0.0
 15
0.0
 25
0.0
 35
0.0
146
0.0
 13
0.0
 23
0.0
 33
0.0
 16
1.0
 26
0.0
 36
0.0
 17
0.0
 27
1.0
 37
0.0
 76
     0
330
68
  0
LAYOUT
  5
73
102
{ACAD_XDICTIONARY
360
F72
102
}
102
{ACAD_REACTORS
330
62
102
}
330
62
100
AcDbPlotSettings
  1

  2

  4

  6

 40
0.0
 41
0.0
 42
0.0
 43
0.0
 44
0.0
 45
0.0
 46
0.0
 47
0.0
 48
0.0
 49
0.0
140
0.0
141
0.0
142
1.0
143
1.0
 70
   688
 72
     0
 73
     0
 74
     5
  7

 75
    16
147
1.0
148
0.0
149
0.0
100
AcDbLayout
  1
Layout2
 70
     1
 71
     2
 10
0.0
 20
0.0
 11
12.0
 21
9.0
 12
0.0
 22
0.0
 32
0.0
 14
0.0
 24
0.0
 34
0.0
 15
0.0
 25
0.0
 35
0.0
146
0.0
 13
0.0
 23
0.0
 33
0.0
 16
1.0
 26
0.0
 36
0.0
 17
0.0
 27
1.0
 37
0.0
 76
     0
330
70
  0
LAYOUT
  5
6F
102
{ACAD_XDICTIONARY
360
F70
102
}
102
{ACAD_REACTORS
330
62
102
}
330
62
100
AcDbPlotSettings
  1

  2

  4

  6

 40
0.0
 41
0.0
 42
0.0
 43
0.0
 44
0.0
 45
0.0
 46
0.0
 47
0.0
 48
0.0
 49
0.0
140
0.0
141
0.0
142
1.0
143
1.0
 70
  1712
 72
     0
 73
     0
 74
     0
  7

 75
     0
147
1.0
148
0.0
149
0.0
100
AcDbLayout
  1
Model
 70
     1
 71
     0
 10
0.0
 20
0.0
 11
12.0
 21
9.0
 12
0.0
 22
0.0
 32
0.0
 14
0.0
 24
0.0
 34
0.0
 15
0.0
 25
0.0
 35
0.0
146
0.0
 13
0.0
 23
0.0
 33
0.0
 16
1.0
 26
0.0
 36
0.0
 17
0.0
 27
1.0
 37
0.0
 76
     0
330
6C
  0
MATERIAL
  5
19
102
{ACAD_XDICTIONARY
360
1A
102
}
102
{ACAD_REACTORS
330
10
102
}
330
10
100
AcDbMaterial
  1
ByBlock
 72
     0
 43
0.0208333333333333
 43
0.0
 43
0.0
 43
0.0
 43
0.0
 43
0.0208333333333333
 43
0.0
 43
0.0
 43
0.0
 43
0.0
 43
1.0
 43
0.0
 43
0.0
 43
0.0
 43
0.0
 43
1.0
 77
     0
 47
0.0208333333333333
 47
0.0
 47
0.0
 47
0.0
 47
0.0
 47
0.0208333333333333
 47
0.0
 47
0.0
 47
0.0
 47
0.0
 47
1.0
 47
0.0
 47
0.0
 47
0.0
 47
0.0
 47
1.0
171
     0
 49
0.0208333333333333
 49
0.0
 49
0.0
 49
0.0
 49
0.0
 49
0.0208333333333333
 49
0.0
 49
0.0
 49
0.0
 49
0.0
 49
1.0
 49
0.0
 49
0.0
 49
0.0
 49
0.0
 49
1.0
175
     0
142
0.0208333333333333
142
0.0
142
0.0
142
0.0
142
0.0
142
0.0208333333333333
142
0.0
142
0.0
142
0.0
142
0.0
142
1.0
142
0.0
142
0.0
142
0.0
142
0.0
142
1.0
179
     0
144
0.0208333333333333
144
0.0
144
0.0
144
0.0
144
0.0
144
0.0208333333333333
144
0.0
144
0.0
144
0.0
144
0.0
144
1.0
144
0.0
144
0.0
144
0.0
144
0.0
144
1.0
147
0.0208333333333333
147
0.0
147
0.0
147
0.0
147
0.0
147
0.0208333333333333
147
0.0
147
0.0
147
0.0
147
0.0
147
1.0
147
0.0
147
0.0
147
0.0
147
0.0
147
1.0
  0
MATERIAL
  5
11
102
{ACAD_XDICTIONARY
360
12
102
}
102
{ACAD_REACTORS
330
10
102
}
330
10
100
AcDbMaterial
  1
ByLayer
 72
     0
 43
0.0208333333333333
 43
0.0
 43
0.0
 43
0.0
 43
0.0
 43
0.0208333333333333
 43
0.0
 43
0.0
 43
0.0
 43
0.0
 43
1.0
 43
0.0
 43
0.0
 43
0.0
 43
0.0
 43
1.0
 77
     0
 47
0.0208333333333333
 47
0.0
 47
0.0
 47
0.0
 47
0.0
 47
0.0208333333333333
 47
0.0
 47
0.0
 47
0.0
 47
0.0
 47
1.0
 47
0.0
 47
0.0
 47
0.0
 47
0.0
 47
1.0
171
     0
 49
0.0208333333333333
 49
0.0
 49
0.0
 49
0.0
 49
0.0
 49
0.0208333333333333
 49
0.0
 49
0.0
 49
0.0
 49
0.0
 49
1.0
 49
0.0
 49
0.0
 49
0.0
 49
0.0
 49
1.0
175
     0
142
0.0208333333333333
142
0.0
142
0.0
142
0.0
142
0.0
142
0.0208333333333333
142
0.0
142
0.0
142
0.0
142
0.0
142
1.0
142
0.0
142
0.0
142
0.0
142
0.0
142
1.0
179
     0
144
0.0208333333333333
144
0.0
144
0.0
144
0.0
144
0.0
144
0.0208333333333333
144
0.0
144
0.0
144
0.0
144
0.0
144
1.0
144
0.0
144
0.0
144
0.0
144
0.0
144
1.0
147
0.0208333333333333
147
0.0
147
0.0
147
0.0
147
0.0
147
0.0208333333333333
147
0.0
147
0.0
147
0.0
147
0.0
147
1.0
147
0.0
147
0.0
147
0.0
147
0.0
147
1.0
  0
MATERIAL
  5
21
102
{ACAD_XDICTIONARY
360
22
102
}
102
{ACAD_REACTORS
330
10
102
}
330
10
100
AcDbMaterial
  1
Global
 72
     0
 43
0.0208333333333333
 43
0.0
 43
0.0
 43
0.0
 43
0.0
 43
0.0208333333333333
 43
0.0
 43
0.0
 43
0.0
 43
0.0
 43
1.0
 43
0.0
 43
0.0
 43
0.0
 43
0.0
 43
1.0
 77
     0
 47
0.0208333333333333
 47
0.0
 47
0.0
 47
0.0
 47
0.0
 47
0.0208333333333333
 47
0.0
 47
0.0
 47
0.0
 47
0.0
 47
1.0
 47
0.0
 47
0.0
 47
0.0
 47
0.0
 47
1.0
171
     0
 49
0.0208333333333333
 49
0.0
 49
0.0
 49
0.0
 49
0.0
 49
0.0208333333333333
 49
0.0
 49
0.0
 49
0.0
 49
0.0
 49
1.0
 49
0.0
 49
0.0
 49
0.0
 49
0.0
 49
1.0
175
     0
142
0.0208333333333333
142
0.0
142
0.0
142
0.0
142
0.0
142
0.0208333333333333
142
0.0
142
0.0
142
0.0
142
0.0
142
1.0
142
0.0
142
0.0
142
0.0
142
0.0
142
1.0
179
     0
144
0.0208333333333333
144
0.0
144
0.0
144
0.0
144
0.0
144
0.0208333333333333
144
0.0
144
0.0
144
0.0
144
0.0
144
1.0
144
0.0
144
0.0
144
0.0
144
0.0
144
1.0
147
0.0208333333333333
147
0.0
147
0.0
147
0.0
147
0.0
147
0.0208333333333333
147
0.0
147
0.0
147
0.0
147
0.0
147
1.0
147
0.0
147
0.0
147
0.0
147
0.0
147
1.0
  0
MLEADERSTYLE
  5
67
102
{ACAD_XDICTIONARY
360
F35
102
}
102
{ACAD_REACTORS
330
66
102
}
330
66
100
AcDbMLeaderStyle
170
     2
171
     1
172
     0
 90
        2
 40
0.0
 41
0.0
173
     1
 91
-1056964608
340
5B
 92
       -2
290
     1
 42
0.09
291
     1
 43
0.36
  3
Standard
 44
0.18
300

342
55
174
     1
178
     6
175
     1
176
     0
 93
-1056964608
 45
0.18
292
     0
297
     0
 46
0.18
 94
-1056964608
 47
1.0
 49
1.0
140
1.0
293
     1
141
0.0
294
     1
177
     0
142
1.0
295
     0
296
     0
143
0.125
1001
ACAD_MLEADERVER
1070
     2
  0
MLINESTYLE
  5
60
102
{ACAD_REACTORS
330
5F
102
}
330
5F
100
AcDbMlineStyle
  2
STANDARD
 70
     0
  3

 62
   256
 51
90.0
 52
90.0
 71
     2
 49
0.5
 62
   256
  6
BYLAYER
 49
-0.5
 62
   256
  6
BYLAYER
  0
ACDBPLACEHOLDER
  5
F
102
{ACAD_REACTORS
330
E
102
}
330
E
  0
SCALE
  5
43
102
{ACAD_REACTORS
330
42
102
}
330
42
100
AcDbScale
 70
     0
300
1:1
140
1.0
141
1.0
290
     1
  0
SCALE
  5
44
102
{ACAD_REACTORS
330
42
102
}
330
42
100
AcDbScale
 70
     0
300
1/128" = 1'-0"
140
0.0078125
141
12.0
290
     0
  0
SCALE
  5
45
102
{ACAD_REACTORS
330
42
102
}
330
42
100
AcDbScale
 70
     0
300
1/64" = 1'-0"
140
0.015625
141
12.0
290
     0
  0
SCALE
  5
46
102
{ACAD_REACTORS
330
42
102
}
330
42
100
AcDbScale
 70
     0
300
1/32" = 1'-0"
140
0.03125
141
12.0
290
     0
  0
SCALE
  5
47
102
{ACAD_REACTORS
330
42
102
}
330
42
100
AcDbScale
 70
     0
300
1/16" = 1'-0"
140
0.0625
141
12.0
290
     0
  0
SCALE
  5
48
102
{ACAD_REACTORS
330
42
102
}
330
42
100
AcDbScale
 70
     0
300
3/32" = 1'-0"
140
0.09375
141
12.0
290
     0
  0
SCALE
  5
49
102
{ACAD_REACTORS
330
42
102
}
330
42
100
AcDbScale
 70
     0
300
1/8" = 1'-0"
140
0.125
141
12.0
290
     0
  0
SCALE
  5
4A
102
{ACAD_REACTORS
330
42
102
}
330
42
100
AcDbScale
 70
     0
300
3/16" = 1'-0"
140
0.1875
141
12.0
290
     0
  0
SCALE
  5
4B
102
{ACAD_REACTORS
330
42
102
}
330
42
100
AcDbScale
 70
     0
300
1/4" = 1'-0"
140
0.25
141
12.0
290
     0
  0
SCALE
  5
4C
102
{ACAD_REACTORS
330
42
102
}
330
42
100
AcDbScale
 70
     0
300
3/8" = 1'-0"
140
0.375
141
12.0
290
     0
  0
SCALE
  5
4D
102
{ACAD_REACTORS
330
42
102
}
330
42
100
AcDbScale
 70
     0
300
1/2" = 1'-0"
140
0.5
141
12.0
290
     0
  0
SCALE
  5
4E
102
{ACAD_REACTORS
330
42
102
}
330
42
100
AcDbScale
 70
     0
300
3/4" = 1'-0"
140
0.75
141
12.0
290
     0
  0
SCALE
  5
4F
102
{ACAD_REACTORS
330
42
102
}
330
42
100
AcDbScale
 70
     0
300
1" = 1'-0"
140
1.0
141
12.0
290
     0
  0
SCALE
  5
50
102
{ACAD_REACTORS
330
42
102
}
330
42
100
AcDbScale
 70
     0
300
1-1/2" = 1'-0"
140
1.5
141
12.0
290
     0
  0
SCALE
  5
51
102
{ACAD_REACTORS
330
42
102
}
330
42
100
AcDbScale
 70
     0
300
3" = 1'-0"
140
3.0
141
12.0
290
     0
  0
SCALE
  5
52
102
{ACAD_REACTORS
330
42
102
}
330
42
100
AcDbScale
 70
     0
300
6" = 1'-0"
140
6.0
141
12.0
290
     0
  0
SCALE
  5
53
102
{ACAD_REACTORS
330
42
102
}
330
42
100
AcDbScale
 70
     0
300
1'-0" = 1'-0"
140
12.0
141
12.0
290
     0
  0
TABLESTYLE
  5
65
102
{ACAD_XDICTIONARY
360
F33
102
}
102
{ACAD_REACTORS
330
64
102
}
330
64
100
AcDbTableStyle
  3
Standard
 70
     0
 71
     0
 40
0.06
 41
0.06
280
     0
281
     0
  7
Standard
140
0.18
170
     2
 62
     0
 63
     7
283
     0
274
    -2
284
     1
 64
     0
275
    -2
285
     1
 65
     0
276
    -2
286
     1
 66
     0
277
    -2
287
     1
 67
     0
278
    -2
288
     1
 68
     0
279
    -2
289
     1
 69
     0
  7
Standard
140
0.25
170
     5
 62
     0
 63
     7
283
     0
274
    -2
284
     1
 64
     0
275
    -2
285
     1
 65
     0
276
    -2
286
     1
 66
     0
277
    -2
287
     1
 67
     0
278
    -2
288
     1
 68
     0
279
    -2
289
     1
 69
     0
  7
Standard
140
0.18
170
     5
 62
     0
 63
     7
283
     0
274
    -2
284
     1
 64
     0
275
    -2
285
     1
 65
     0
276
    -2
286
     1
 66
     0
277
    -2
287
     1
 67
     0
278
    -2
288
     1
 68
     0
279
    -2
289
     1
 69
     0
  0
VISUALSTYLE
  5
2F
102
{ACAD_XDICTIONARY
360
F46
102
}
102
{ACAD_REACTORS
330
29
102
}
330
29
100
AcDbVisualStyle
  2
2dWireframe
 70
     4
 71
     0
 72
     2
 73
     0
 90
        0
 40
-0.6
 41
-30.0
 62
     5
 63
     7
 74
     1
 91
        4
 64
     7
 65
   257
 75
     1
175
     1
 42
1.0
 92
        0
 66
   257
 43
1.0
 76
     1
 77
     6
 78
     2
 67
     7
 79
     5
170
     0
171
     0
290
     0
174
     0
 93
        1
 44
0.0
173
     0
291
     0
 45
0.0
1001
ACAD
1000
AcDbSavedByObjectVersion
1070
     0
  0
VISUALSTYLE
  5
2E
102
{ACAD_XDICTIONARY
360
F44
102
}
102
{ACAD_REACTORS
330
29
102
}
330
29
100
AcDbVisualStyle
  2
Basic
 70
     7
 71
     1
 72
     0
 73
     1
 90
        0
 40
-0.6
 41
-30.0
 62
     5
 63
     7
 74
     0
 91
        4
 64
     7
 65
   257
 75
     1
175
     1
 42
1.0
 92
        8
 66
     7
 43
1.0
 76
     1
 77
     6
 78
     2
 67
     7
 79
     5
170
     0
171
     0
290
     0
174
     0
 93
        1
 44
0.0
173
     0
291
     1
 45
0.0
1001
ACAD
1000
AcDbSavedByObjectVersion
1070
     0
  0
VISUALSTYLE
  5
35
102
{ACAD_XDICTIONARY
360
F52
102
}
102
{ACAD_REACTORS
330
29
102
}
330
29
100
AcDbVisualStyle
  2
Brighten
 70
    12
 71
     2
 72
     2
 73
     0
 90
        0
 40
-0.6
 41
-30.0
 62
     5
 63
     7
 74
     1
 91
        4
 64
     7
 65
   257
 75
     1
175
     1
 42
1.0
 92
        8
 66
     7
 43
1.0
 76
     1
 77
     6
 78
     2
 67
     7
 79
     5
170
     0
171
     0
290
     0
174
     0
 93
        1
 44
50.0
173
     0
291
     1
 45
0.0
1001
ACAD
1000
AcDbSavedByObjectVersion
1070
     0
  0
VISUALSTYLE
  5
39
102
{ACAD_XDICTIONARY
360
F5A
102
}
102
{ACAD_REACTORS
330
29
102
}
330
29
100
AcDbVisualStyle
  2
ColorChange
 70
    16
 71
     2
 72
     2
 73
     3
 90
        0
 40
-0.6
 41
-30.0
 62
     5
 63
     8
 74
     1
 91
        4
 64
     7
 65
   257
 75
     1
175
     1
 42
1.0
 92
        8
 66
     8
 43
1.0
 76
     1
 77
     6
 78
     2
 67
     7
 79
     5
170
     0
171
     0
290
     0
174
     0
 93
        1
 44
0.0
173
     0
291
     1
 45
0.0
1001
ACAD
1000
AcDbSavedByObjectVersion
1070
     0
  0
VISUALSTYLE
  5
32
102
{ACAD_XDICTIONARY
360
F4C
102
}
102
{ACAD_REACTORS
330
29
102
}
330
29
100
AcDbVisualStyle
  2
Conceptual
 70
     9
 71
     3
 72
     2
 73
     0
 90
        0
 40
-0.6
 41
-30.0
 62
     5
 63
     7
 74
     2
 91
        2
 64
     7
 65
   257
 75
     1
175
     1
 42
179.0
 92
        8
 66
     7
 43
1.0
 76
     1
 77
     6
 78
     2
 67
     7
 79
     3
170
     0
171
     0
290
     0
174
     0
 93
        1
 44
0.0
173
     0
291
     0
 45
0.0
1001
ACAD
1000
AcDbSavedByObjectVersion
1070
     0
  0
VISUALSTYLE
  5
34
102
{ACAD_XDICTIONARY
360
F50
102
}
102
{ACAD_REACTORS
330
29
102
}
330
29
100
AcDbVisualStyle
  2
Dim
 70
    11
 71
     2
 72
     2
 73
     0
 90
        0
 40
-0.6
 41
-30.0
 62
     5
 63
     7
 74
     1
 91
        4
 64
     7
 65
   257
 75
     1
175
     1
 42
1.0
 92
        8
 66
     7
 43
1.0
 76
     1
 77
     6
 78
     2
 67
     7
 79
     5
170
     0
171
     0
290
     0
174
     0
 93
        1
 44
-50.0
173
     0
291
     1
 45
0.0
1001
ACAD
1000
AcDbSavedByObjectVersion
1070
     0
  0
VISUALSTYLE
  5
41
102
{ACAD_XDICTIONARY
360
F6A
102
}
102
{ACAD_REACTORS
330
29
102
}
330
29
100
AcDbVisualStyle
  2
EdgeColorOff
 70
    22
 71
     2
 72
     2
 73
     0
 90
        0
 40
-0.6
 41
-30.0
 62
     5
 63
     7
 74
     1
 91
        4
 64
     7
 65
   257
 75
     1
175
     1
 42
1.0
 92
        8
 66
     7
 43
1.0
 76
     1
 77
     6
 78
     2
 67
     7
 79
     5
170
     0
171
     0
290
     0
174
     0
 93
        1
 44
0.0
173
     0
291
     1
 45
0.0
1001
ACAD
1000
AcDbSavedByObjectVersion
1070
     0
  0
VISUALSTYLE
  5
38
102
{ACAD_XDICTIONARY
360
F58
102
}
102
{ACAD_REACTORS
330
29
102
}
330
29
100
AcDbVisualStyle
  2
Facepattern
 70
    15
 71
     2
 72
     2
 73
     0
 90
        0
 40
-0.6
 41
-30.0
 62
     5
 63
     7
 74
     1
 91
        4
 64
     7
 65
   257
 75
     1
175
     1
 42
1.0
 92
        8
 66
     7
 43
1.0
 76
     1
 77
     6
 78
     2
 67
     7
 79
     5
170
     0
171
     0
290
     0
174
     0
 93
        1
 44
0.0
173
     0
291
     1
 45
0.0
1001
ACAD
1000
AcDbSavedByObjectVersion
1070
     0
  0
VISUALSTYLE
  5
2A
102
{ACAD_XDICTIONARY
360
F3C
102
}
102
{ACAD_REACTORS
330
29
102
}
330
29
100
AcDbVisualStyle
  2
Flat
 70
     0
 71
     2
 72
     1
 73
     1
 90
        2
 40
-0.6
 41
30.0
 62
     5
 63
     7
 74
     0
 91
        0
 64
     7
 65
   257
 75
     1
175
     1
 42
1.0
 92
        8
 66
     7
 43
1.0
 76
     1
 77
     6
 78
     2
 67
     7
 79
     5
170
     0
171
     0
290
     0
174
     0
 93
       13
 44
0.0
173
     0
291
     1
 45
0.0
1001
ACAD
1000
AcDbSavedByObjectVersion
1070
     0
  0
VISUALSTYLE
  5
2B
102
{ACAD_XDICTIONARY
360
F3E
102
}
102
{ACAD_REACTORS
330
29
102
}
330
29
100
AcDbVisualStyle
  2
FlatWithEdges
 70
     1
 71
     2
 72
     1
 73
     1
 90
        2
 40
-0.6
 41
30.0
 62
     5
 63
     7
 74
     1
 91
        0
 64
     7
 65
   257
 75
     1
175
     1
 42
1.0
 92
        0
 66
   257
 43
1.0
 76
     1
 77
     6
 78
     2
 67
     7
 79
     5
170
     0
171
     0
290
     0
174
     0
 93
       13
 44
0.0
173
     0
291
     1
 45
0.0
1001
ACAD
1000
AcDbSavedByObjectVersion
1070
     0
  0
VISUALSTYLE
  5
2C
102
{ACAD_XDICTIONARY
360
F40
102
}
102
{ACAD_REACTORS
330
29
102
}
330
29
100
AcDbVisualStyle
  2
Gouraud
 70
     2
 71
     2
 72
     2
 73
     1
 90
        2
 40
-0.6
 41
30.0
 62
     5
 63
     7
 74
     0
 91
        0
 64
     7
 65
   257
 75
     1
175
     1
 42
1.0
 92
        0
 66
     7
 43
1.0
 76
     1
 77
     6
 78
     2
 67
     7
 79
     5
170
     0
171
     0
290
     0
174
     0
 93
       13
 44
0.0
173
     0
291
     1
 45
0.0
1001
ACAD
1000
AcDbSavedByObjectVersion
1070
     0
  0
VISUALSTYLE
  5
2D
102
{ACAD_XDICTIONARY
360
F42
102
}
102
{ACAD_REACTORS
330
29
102
}
330
29
100
AcDbVisualStyle
  2
GouraudWithEdges
 70
     3
 71
     2
 72
     2
 73
     1
 90
        2
 40
-0.6
 41
30.0
 62
     5
 63
     7
 74
     1
 91
        0
 64
     7
 65
   257
 75
     1
175
     1
 42
1.0
 92
        0
 66
   257
 43
1.0
 76
     1
 77
     6
 78
     2
 67
     7
 79
     5
170
     0
171
     0
290
     0
174
     0
 93
       13
 44
0.0
173
     0
291
     1
 45
0.0
1001
ACAD
1000
AcDbSavedByObjectVersion
1070
     0
  0
VISUALSTYLE
  5
31
102
{ACAD_XDICTIONARY
360
F4A
102
}
102
{ACAD_REACTORS
330
29
102
}
330
29
100
AcDbVisualStyle
  2
Hidden
 70
     6
 71
     1
 72
     2
 73
     2
 90
        0
 40
-0.6
 41
-30.0
 62
     5
 63
     7
 74
     2
 91
        2
 64
     7
 65
   257
 75
     2
175
     1
 42
40.0
 92
        0
 66
   257
 43
1.0
 76
     1
 77
     6
 78
     2
 67
     7
 79
     3
170
     0
171
     0
290
     0
174
     0
 93
        1
 44
0.0
173
     0
291
     0
 45
0.0
1001
ACAD
1000
AcDbSavedByObjectVersion
1070
     0
  0
VISUALSTYLE
  5
3F
102
{ACAD_XDICTIONARY
360
F66
102
}
102
{ACAD_REACTORS
330
29
102
}
330
29
100
AcDbVisualStyle
  2
JitterOff
 70
    20
 71
     2
 72
     2
 73
     0
 90
        0
 40
-0.6
 41
-30.0
 62
     5
 63
     7
 74
     1
 91
        4
 64
     7
 65
   257
 75
     1
175
     1
 42
1.0
 92
       10
 66
     7
 43
1.0
 76
     1
 77
     6
 78
     2
 67
     7
 79
     5
170
     0
171
     0
290
     0
174
     0
 93
        1
 44
0.0
173
     0
291
     1
 45
0.0
1001
ACAD
1000
AcDbSavedByObjectVersion
1070
     0
  0
VISUALSTYLE
  5
37
102
{ACAD_XDICTIONARY
360
F56
102
}
102
{ACAD_REACTORS
330
29
102
}
330
29
100
AcDbVisualStyle
  2
Linepattern
 70
    14
 71
     2
 72
     2
 73
     0
 90
        0
 40
-0.6
 41
-30.0
 62
     5
 63
     7
 74
     1
 91
        4
 64
     7
 65
   257
 75
     7
175
     7
 42
1.0
 92
        8
 66
     7
 43
1.0
 76
     1
 77
     6
 78
     2
 67
     7
 79
     5
170
     0
171
     0
290
     0
174
     0
 93
        1
 44
0.0
173
     0
291
     1
 45
0.0
1001
ACAD
1000
AcDbSavedByObjectVersion
1070
     0
  0
VISUALSTYLE
  5
40
102
{ACAD_XDICTIONARY
360
F68
102
}
102
{ACAD_REACTORS
330
29
102
}
330
29
100
AcDbVisualStyle
  2
OverhangOff
 70
    21
 71
     2
 72
     2
 73
     0
 90
        0
 40
-0.6
 41
-30.0
 62
     5
 63
     7
 74
     1
 91
        4
 64
     7
 65
   257
 75
     1
175
     1
 42
1.0
 92
        9
 66
     7
 43
1.0
 76
     1
 77
     6
 78
     2
 67
     7
 79
     5
170
     0
171
     0
290
     0
174
     0
 93
        1
 44
0.0
173
     0
291
     1
 45
0.0
1001
ACAD
1000
AcDbSavedByObjectVersion
1070
     0
  0
VISUALSTYLE
  5
33
102
{ACAD_XDICTIONARY
360
F4E
102
}
102
{ACAD_REACTORS
330
29
102
}
330
29
100
AcDbVisualStyle
  2
Realistic
 70
     8
 71
     2
 72
     3
 73
     0
 90
        2
 40
-0.6
 41
30.0
 62
     5
 63
     7
 74
     0
 91
        0
 64
     7
 65
   257
 75
     1
175
     1
 42
1.0
 92
        8
 66
   257
 43
1.0
 76
     1
 77
     6
 78
     2
 67
     7
 79
     3
170
     0
171
     0
290
     0
174
     0
 93
       13
 44
0.0
173
     0
291
     0
 45
0.0
1001
ACAD
1000
AcDbSavedByObjectVersion
1070
     0
  0
VISUALSTYLE
  5
3E
102
{ACAD_XDICTIONARY
360
F64
102
}
102
{ACAD_REACTORS
330
29
102
}
330
29
100
AcDbVisualStyle
  2
Shaded
 70
    27
 71
     2
 72
     2
 73
     1
 90
        2
 40
-0.6
 41
30.0
 62
     5
 63
     7
 74
     0
 91
        4
 64
     7
 65
   257
 75
     1
175
     1
 42
1.0
 92
        8
 66
   257
 43
1.0
 76
     1
 77
     6
 78
     2
 67
     8
 79
     3
170
     0
171
     0
290
     0
174
     0
 93
        5
 44
0.0
173
     0
291
     0
 45
0.0
1001
ACAD
1000
AcDbSavedByObjectVersion
1070
     0
  0
VISUALSTYLE
  5
3D
102
{ACAD_XDICTIONARY
360
F62
102
}
102
{ACAD_REACTORS
330
29
102
}
330
29
100
AcDbVisualStyle
  2
Shaded with edges
 70
    26
 71
     2
 72
     2
 73
     1
 90
        2
 40
-0.6
 41
30.0
 62
     5
 63
     7
 74
     1
 91
       10
 64
     7
 65
   257
 75
     2
175
     1
 42
1.0
 92
        8
 66
   257
 43
1.0
 76
     1
 77
     6
 78
     2
 67
     7
 79
     3
170
     0
171
     0
290
     0
174
     0
 93
        5
 44
0.0
173
     0
291
     0
 45
0.0
1001
ACAD
1000
AcDbSavedByObjectVersion
1070
     0
  0
VISUALSTYLE
  5
3A
102
{ACAD_XDICTIONARY
360
F5C
102
}
102
{ACAD_REACTORS
330
29
102
}
330
29
100
AcDbVisualStyle
  2
Shades of Gray
 70
    23
 71
     2
 72
     2
 73
     3
 90
        0
 40
-0.6
 41
-30.0
 62
     5
 63
     7
 74
     2
 91
        2
 64
     7
 65
     7
 75
     1
175
     1
 42
40.0
 92
        8
 66
     7
 43
1.0
 76
     1
 77
     6
 78
     2
 67
     7
 79
     3
170
     0
171
     0
290
     0
174
     0
 93
        1
 44
0.0
173
     0
291
     0
 45
0.0
1001
ACAD
1000
AcDbSavedByObjectVersion
1070
     0
  0
VISUALSTYLE
  5
3B
102
{ACAD_XDICTIONARY
360
F5E
102
}
102
{ACAD_REACTORS
330
29
102
}
330
29
100
AcDbVisualStyle
  2
Sketchy
 70
    24
 71
     1
 72
     2
 73
     2
 90
        0
 40
-0.6
 41
-30.0
 62
     5
 63
     7
 74
     2
 91
        2
 64
     7
 65
     7
 75
     1
175
     1
 42
40.0
 92
       11
 66
     7
 43
1.0
 76
     1
 77
     6
 78
     2
 67
     7
 79
     6
170
     0
171
     0
290
     0
174
     0
 93
        1
 44
0.0
173
     0
291
     0
 45
0.0
1001
ACAD
1000
AcDbSavedByObjectVersion
1070
     0
  0
VISUALSTYLE
  5
36
102
{ACAD_XDICTIONARY
360
F54
102
}
102
{ACAD_REACTORS
330
29
102
}
330
29
100
AcDbVisualStyle
  2
Thicken
 70
    13
 71
     2
 72
     2
 73
     0
 90
        0
 40
-0.6
 41
-30.0
 62
     5
 63
     7
 74
     1
 91
        4
 64
     7
 65
   257
 75
     1
175
     1
 42
1.0
 92
       12
 66
     7
 43
1.0
 76
     1
 77
     6
 78
     2
 67
     7
 79
     5
170
     0
171
     0
290
     0
174
     0
 93
        1
 44
0.0
173
     0
291
     1
 45
0.0
1001
ACAD
1000
AcDbSavedByObjectVersion
1070
     0
  0
VISUALSTYLE
  5
30
102
{ACAD_XDICTIONARY
360
F48
102
}
102
{ACAD_REACTORS
330
29
102
}
330
29
100
AcDbVisualStyle
  2
Wireframe
 70
     5
 71
     0
 72
     2
 73
     0
 90
        0
 40
-0.6
 41
-30.0
 62
     5
 63
     7
 74
     1
 91
        4
 64
     7
 65
   257
 75
     1
175
     1
 42
1.0
 92
        0
 66
   257
 43
1.0
 76
     1
 77
     6
 78
     2
 67
     7
 79
     3
170
     0
171
     0
290
     0
174
     0
 93
        1
 44
0.0
173
     0
291
     0
 45
0.0
1001
ACAD
1000
AcDbSavedByObjectVersion
1070
     0
  0
VISUALSTYLE
  5
3C
102
{ACAD_XDICTIONARY
360
F60
102
}
102
{ACAD_REACTORS
330
29
102
}
330
29
100
AcDbVisualStyle
  2
X-Ray
 70
    25
 71
     2
 72
     2
 73
     1
 90
        1
 40
0.5
 41
-30.0
 62
     5
 63
     7
 74
     1
 91
        0
 64
     7
 65
   257
 75
     1
175
     1
 42
1.0
 92
        8
 66
     7
 43
1.0
 76
     1
 77
     6
 78
     2
 67
     7
 79
     3
170
     0
171
     0
290
     0
174
     0
 93
       13
 44
0.0
173
     0
291
     0
 45
0.0
1001
ACAD
1000
AcDbSavedByObjectVersion
1070
     0
  0
DICTIONARYVAR
  5
79
102
{ACAD_REACTORS
330
76
102
}
330
76
100
DictionaryVariables
280
     0
  1
1:1
  0
DICTIONARYVAR
  5
78
102
{ACAD_REACTORS
330
76
102
}
330
76
100
DictionaryVariables
280
     0
  1
STANDARD
  0
DICTIONARYVAR
  5
77
102
{ACAD_REACTORS
330
76
102
}
330
76
100
DictionaryVariables
280
     0
  1
STANDARD
  0
DICTIONARYVAR
  5
F31
102
{ACAD_REACTORS
330
76
102
}
330
76
100
DictionaryVariables
280
     0
  1
1
  0
DICTIONARYVAR
  5
F30
102
{ACAD_REACTORS
330
76
102
}
330
76
100
DictionaryVariables
280
     0
  1
1
  0
DICTIONARYVAR
  5
F2F
102
{ACAD_REACTORS
330
76
102
}
330
76
100
DictionaryVariables
280
     0
  1
0
  0
DICTIONARYVAR
  5
F2C
102
{ACAD_REACTORS
330
76
102
}
330
76
100
DictionaryVariables
280
     0
  1
0
  0
DICTIONARYVAR
  5
F2D
102
{ACAD_REACTORS
330
76
102
}
330
76
100
DictionaryVariables
280
     0
  1
0
  0
DICTIONARYVAR
  5
F2B
102
{ACAD_REACTORS
330
76
102
}
330
76
100
DictionaryVariables
280
     0
  1
2
  0
DICTIONARYVAR
  5
F2A
102
{ACAD_REACTORS
330
76
102
}
330
76
100
DictionaryVariables
280
     0
  1
1
  0
DICTIONARYVAR
  5
F2E
102
{ACAD_REACTORS
330
76
102
}
330
76
100
DictionaryVariables
280
     0
  1
127
  0
DICTIONARYVAR
  5
F32
102
{ACAD_REACTORS
330
76
102
}
330
76
100
DictionaryVariables
280
     0
  1
2
  0
DICTIONARY
  5
F6E
330
6B
100
AcDbDictionary
280
     1
281
     1
  3
ACAD_XREC_ROUNDTRIP
360
F6F
  0
DICTIONARY
  5
F72
330
73
100
AcDbDictionary
280
     1
281
     1
  3
ACAD_XREC_ROUNDTRIP
360
F73
  0
DICTIONARY
  5
F70
330
6F
100
AcDbDictionary
280
     1
281
     1
  3
ACAD_XREC_ROUNDTRIP
360
F71
  0
DICTIONARY
  5
1A
330
19
100
AcDbDictionary
280
     1
281
     1
  3
ACAD_XREC_ROUNDTRIP
360
F3A
  3
BUMPTILE
360
1C
  3
DIFFUSETILE
360
1B
  3
OPACITYTILE
360
1F
  3
REFLECTIONTILE
360
1E
  3
REFRACTIONTILE
360
20
  3
SPECULARTILE
360
1D
  0
DICTIONARY
  5
12
330
11
100
AcDbDictionary
280
     1
281
     1
  3
ACAD_XREC_ROUNDTRIP
360
F39
  3
BUMPTILE
360
14
  3
DIFFUSETILE
360
13
  3
FBXASSET
360
F5
  3
OPACITYTILE
360
17
  3
REFLECTIONTILE
360
16
  3
REFRACTIONTILE
360
18
  3
SPECULARTILE
360
15
  0
DICTIONARY
  5
22
330
21
100
AcDbDictionary
280
     1
281
     1
  3
ACAD_XREC_ROUNDTRIP
360
F3B
  3
BUMPTILE
360
24
  3
DIFFUSETILE
360
23
  3
FBXASSET
360
BA
  3
OPACITYTILE
360
27
  3
REFLECTIONTILE
360
26
  3
REFRACTIONTILE
360
28
  3
SPECULARTILE
360
25
  0
DICTIONARY
  5
F35
330
67
100
AcDbDictionary
280
     1
281
     1
  3
ACAD_XREC_ROUNDTRIP
360
F36
  0
DICTIONARY
  5
F33
330
65
100
AcDbDictionary
280
     1
281
     1
  3
ACAD_ROUNDTRIP_2008_TABLESTYLE_CELLSTYLEMAP
360
F34
  3
ACAD_XREC_ROUNDTRIP
360
F6C
  0
DICTIONARY
  5
F46
330
2F
100
AcDbDictionary
280
     1
281
     1
  3
ACAD_XREC_ROUNDTRIP
360
F47
  0
DICTIONARY
  5
F44
330
2E
100
AcDbDictionary
280
     1
281
     1
  3
ACAD_XREC_ROUNDTRIP
360
F45
  0
DICTIONARY
  5
F52
330
35
100
AcDbDictionary
280
     1
281
     1
  3
ACAD_XREC_ROUNDTRIP
360
F53
  0
DICTIONARY
  5
F5A
330
39
100
AcDbDictionary
280
     1
281
     1
  3
ACAD_XREC_ROUNDTRIP
360
F5B
  0
DICTIONARY
  5
F4C
330
32
100
AcDbDictionary
280
     1
281
     1
  3
ACAD_XREC_ROUNDTRIP
360
F4D
  0
DICTIONARY
  5
F50
330
34
100
AcDbDictionary
280
     1
281
     1
  3
ACAD_XREC_ROUNDTRIP
360
F51
  0
DICTIONARY
  5
F6A
330
41
100
AcDbDictionary
280
     1
281
     1
  3
ACAD_XREC_ROUNDTRIP
360
F6B
  0
DICTIONARY
  5
F58
330
38
100
AcDbDictionary
280
     1
281
     1
  3
ACAD_XREC_ROUNDTRIP
360
F59
  0
DICTIONARY
  5
F3C
330
2A
100
AcDbDictionary
280
     1
281
     1
  3
ACAD_XREC_ROUNDTRIP
360
F3D
  0
DICTIONARY
  5
F3E
330
2B
100
AcDbDictionary
280
     1
281
     1
  3
ACAD_XREC_ROUNDTRIP
360
F3F
  0
DICTIONARY
  5
F40
330
2C
100
AcDbDictionary
280
     1
281
     1
  3
ACAD_XREC_ROUNDTRIP
360
F41
  0
DICTIONARY
  5
F42
330
2D
100
AcDbDictionary
280
     1
281
     1
  3
ACAD_XREC_ROUNDTRIP
360
F43
  0
DICTIONARY
  5
F4A
330
31
100
AcDbDictionary
280
     1
281
     1
  3
ACAD_XREC_ROUNDTRIP
360
F4B
  0
DICTIONARY
  5
F66
330
3F
100
AcDbDictionary
280
     1
281
     1
  3
ACAD_XREC_ROUNDTRIP
360
F67
  0
DICTIONARY
  5
F56
330
37
100
AcDbDictionary
280
     1
281
     1
  3
ACAD_XREC_ROUNDTRIP
360
F57
  0
DICTIONARY
  5
F68
330
40
100
AcDbDictionary
280
     1
281
     1
  3
ACAD_XREC_ROUNDTRIP
360
F69
  0
DICTIONARY
  5
F4E
330
33
100
AcDbDictionary
280
     1
281
     1
  3
ACAD_XREC_ROUNDTRIP
360
F4F
  0
DICTIONARY
  5
F64
330
3E
100
AcDbDictionary
280
     1
281
     1
  3
ACAD_XREC_ROUNDTRIP
360
F65
  0
DICTIONARY
  5
F62
330
3D
100
AcDbDictionary
280
     1
281
     1
  3
ACAD_XREC_ROUNDTRIP
360
F63
  0
DICTIONARY
  5
F5C
330
3A
100
AcDbDictionary
280
     1
281
     1
  3
ACAD_XREC_ROUNDTRIP
360
F5D
  0
DICTIONARY
  5
F5E
330
3B
100
AcDbDictionary
280
     1
281
     1
  3
ACAD_XREC_ROUNDTRIP
360
F5F
  0
DICTIONARY
  5
F54
330
36
100
AcDbDictionary
280
     1
281
     1
  3
ACAD_XREC_ROUNDTRIP
360
F55
  0
DICTIONARY
  5
F48
330
30
100
AcDbDictionary
280
     1
281
     1
  3
ACAD_XREC_ROUNDTRIP
360
F49
  0
DICTIONARY
  5
F60
330
3C
100
AcDbDictionary
280
     1
281
     1
  3
ACAD_XREC_ROUNDTRIP
360
F61
  0
XRECORD
  5
F6F
102
{ACAD_REACTORS
330
F6E
102
}
330
F6E
100
AcDbXrecord
280
     1
102
SHADEPLOT
 70
     0
102
SHADEPLOTRESLEVEL
 70
     2
102
SHADEPLOTCUSTOMDPI
 70
   300
  0
XRECORD
  5
F73
102
{ACAD_REACTORS
330
F72
102
}
330
F72
100
AcDbXrecord
280
     1
102
SHADEPLOT
 70
     0
102
SHADEPLOTRESLEVEL
 70
     2
102
SHADEPLOTCUSTOMDPI
 70
   300
  0
XRECORD
  5
F71
102
{ACAD_REACTORS
330
F70
102
}
330
F70
100
AcDbXrecord
280
     1
102
SHADEPLOT
 70
     0
102
SHADEPLOTRESLEVEL
 70
     2
102
SHADEPLOTCUSTOMDPI
 70
   300
  0
XRECORD
  5
F3A
102
{ACAD_REACTORS
330
1A
102
}
330
1A
100
AcDbXrecord
280
     1
102
MATERIAL
148
0.0
149
0.0
149
0.0
 93
        0
 94
      127
282
     0
 72
     0
 77
     0
171
     0
175
     0
179
     0
273
     0
  0
XRECORD
  5
1C
102
{ACAD_REACTORS
330
1A
102
}
330
1A
100
AcDbXrecord
280
     1
270
     1
271
     1
  0
XRECORD
  5
1B
102
{ACAD_REACTORS
330
1A
102
}
330
1A
100
AcDbXrecord
280
     1
270
     1
271
     1
  0
XRECORD
  5
1F
102
{ACAD_REACTORS
330
1A
102
}
330
1A
100
AcDbXrecord
280
     1
270
     1
271
     1
  0
XRECORD
  5
1E
102
{ACAD_REACTORS
330
1A
102
}
330
1A
100
AcDbXrecord
280
     1
270
     1
271
     1
  0
XRECORD
  5
20
102
{ACAD_REACTORS
330
1A
102
}
330
1A
100
AcDbXrecord
280
     1
270
     1
271
     1
  0
XRECORD
  5
1D
102
{ACAD_REACTORS
330
1A
102
}
330
1A
100
AcDbXrecord
280
     1
270
     1
271
     1
  0
XRECORD
  5
F39
102
{ACAD_REACTORS
330
12
102
}
330
12
100
AcDbXrecord
280
     1
102
MATERIAL
148
0.0
149
0.0
149
0.0
 93
        0
 94
      127
282
     0
 72
     0
 77
     0
171
     0
175
     0
179
     0
273
     0
  0
XRECORD
  5
14
102
{ACAD_REACTORS
330
12
102
}
330
12
100
AcDbXrecord
280
     1
270
     1
271
     1
  0
XRECORD
  5
13
102
{ACAD_REACTORS
330
12
102
}
330
12
100
AcDbXrecord
280
     1
270
     1
271
     1
  0
XRECORD
  5
F5
102
{ACAD_REACTORS
330
12
102
}
330
12
100
AcDbXrecord
280
     1
 70
     1
 90
1959938040
 71
     1
  1
2834191B-5FEA-4245-83D2-92CFB5407229
311
504B03040A0000080000ED5433403DEE336E79000000790000001B0000006175746F6465736B2D64657369676E2D7061636B6167652E786D6C3C3F786D6C2076657273696F6E3D22312E302220656E636F64696E673D227574662D3822203F3E3C666F726D6174733E3C666F726D61743E687474703A2F2F736368656D612E
311
6175746F6465736B2E636F6D2F64657369676E2D7061636B6167652F323030393C2F666F726D61743E3C2F666F726D6174733E504B0304140006080800ED543340D486FD9CA0000000F4000000130000005B436F6E74656E745F54797065735D2E786D6C7D8EC10E82300C865F65E91D8A1E8C310C0EEA1BF002731658846E
311
D98AC1B77784ABF1D8FE5FBFBF75BBCE937A534CCEB38643598122B6FEE978D0B0485F9C41B54DDD7D022595594E1A469170414C76A4D9A4D207E29CF43ECE46F218070CC6BECC4078ACAA135ACF422C856C0E68EA1BF5669944DDD7BCDE7B1F8E415D77AECB980613C2E4AC91FC167A2B244592486606FC29C8FD7F045B9A
311
EF7053A7E60B504B0304140006080800ED543340A6F6B31DEB0000007C01000008000000636F72652E786D6C8D904D6E83301085AF62CDDEE09F8402328E5A929CA017B08C43AC041B61BBEAF16B1222B5BBAE66F4E67D33A3270EDFD31D7D992558EF3AA00501649CF683756307295E700DE820C5E27DFC6503E4D4643A58
311
6590625C7C9A37497B178D8B59757E309BA842301190BEE7A683A0AF6652854A313BC2AD9895BEA9D114F4D56538253BA0E7113BE47DF662CD029237FBEABCDFBF63CAC809EF3EFA13AE19E79837E79EED8EFDB16EDE44B9C252443BBDEEEBC5A86806908C508609C5B4F9A4A4E54DCB2A4CAA961051AEF63F509A877F42C9
311
BAC8D9F6EE130B20697EE43190A25CB3C8E51154AE6B6EF207504B0304140006080800ED54334055019EA25F0000007C00000007000000636E782E786D6C4DCB3B0E80201045D1AD90E915ED2CF8AC45050C11660C8261F98AB1B07AC9C97D42D718D865D3E909258CFD00CCE24AC6E326A164D74DC0B4128928FF32603847
311
2BA13128B1252AC747C6BAB984FC68F0B87FE8960A5C09FE86CFB69FBA01504B0304140006080800ED543340113F678967010000020300000C0000006662782F636F72652E786D6C8D52ED8E8320107C15C27F04B1EDD50669EEFAF104F70254A967AA60104C1FFFD68FA6D74BD33426486676766747C5F6DAD4A8D7AEABAC
311
C9701C318CB4C96D519932C3C19FC91AA3AD14CE5AFFA70C23A31A9DE101C65294CE867686726BBC361E50630B3D83AAEBB4C728AFE192E12EFFD18D8A54F050D15DA256E51755EA288E80863A293AEFC0009A860C2796E7D355D009972284AA98D9AA8069D5B9D20ECB245DAE8ECBE52789393B90C5D7EE40D63C4948921E
311
777CB1DFEDD7E987A083580A5F353777B9D3CAEB024BCE624E584CE2F43B669B24DDF01561AB0D63820EE50FA2D0166F8A42657CC267BB93ACC332062323F16F5B88C8A34EF5E0874A418710E13526FC18340402217B75AA6F7B5C00EA75EEAD5B0053D870A77A55070D53191A1F4127163A8F0D60B3A77DF88B3EAF7BC007
311
54A6046BCAC3F514FC305D4C53E7285AED48EFAFC858D7A8FA6E6EB2783FEF839ECA735B5BF78E9ACEABD2394C3AFCBDF217504B0304140006080800ED543340DFA62B407E0000009D0000000B0000006662782F636E782E786D6C4DCCD10A83201886E15B91FFDCA5A566A0C670DB7DC4B288990EA76397BF1A1DECE88387
311
8F57F59FD5A3B74BAF25060DF44400B9708FE312660D254F5802EA8D4A31E6BF1BA030AC4EC3CE60D49C62791E34BA69283E6FEA97F03890D99A4B2B28165DCD313BD32BEE5AC930B990A6BBB59CDA46406554F52B6DBB87CD17504B0304140006080800ED543340BBC537A12A01000014020000310000006662782F344332
311
35384336312D363932352D344131452D393738342D3044303339463735314333362F636F72652E786D6C8D51CB6EC32010FC15C4293D60037E244498A84ADB2FE80F10435294182C1E553EBF503B527BCB8545B333B3A35D7EB84F37F0AD7D30CE0E905418026D47A78CBD0C30C533DA417010DC3B17FFD020B072D2032C30
311
14FCE25D9A576874366A1B336A9DD22B2843D01182F1963F030CE3979E642553CC8C70AD66395EE54557A4CAEDCC133C449F0380654879A1688FB4DB1D7B827A463BD4BE9277C4B6BB16E137DCB08F6D478E4DCFEB4528784A46AD72A3721C7336DA3F6B52C48247333DE28F5ECBA8151414138A3041847D12BC6FD89EF608
311
F77B8C795DE8FF4469564F8A92B1B1A16BDC4516A020BC5E1A822B974EB747187D9F9D8FA0CCDB043DBE40812B4C31656C9B17B050F302B267DFAE9E213A9F17BCB99E329B748B71DF0A5E971BE5F27BC05CCB3DC50F504B0304140006080800ED54334085D4A1444D01000033030000300000006662782F34433235384336
311
312D363932352D344131452D393738342D3044303339463735314333362F636E782E786D6CD593CD6E022114855F85B09F1FD44CAA6130E9A24FD045B70857A53230E1A7A96FDF8BA275E3A2CB6EC8E4DCC339375F18BEFD9E2CF982108D7723656D4F0938E5B5718791E6B46F5E28D90A1EBC4F0F364A9C9C60A445A6821F
311
82CF739534EC65B609556BDCA98A01A2CF414144B9DC24D62B6931005C93518469075A832677237EED21E02A28EECE241D81BCBD7E10BFFB049522EF4A8AE05DE910BC9CB5E9C14489B232C69146758449B63227AF219E5A2D936C597BEB7AB2D36F1229176E95391852CA475A4E2AEA462D72E41D0E058F2920BD6A4AE719
311
A890F36C8D9209217717E3D52378362E0DABEA35083EA09B0DCBD50AC32E33C19399A03A5400994053B1E8D9A2E959C3D6EFACDF2CD79BC5D0F4C3A6EF7957EC82EFBCB7F512C640F03351DE2570890AC6BB327E86AFFA88360159FB70FE034804505BAF74EE19FF994F7779DF882BE05F207E00504B0304140006080800ED
311
5433408B8B51A19B0500007B100000340000006662782F34433235384336312D363932352D344131452D393738342D3044303339463735314333362F6F626A656374732E786D6CAD575D8F9B3814FD2B887D0602C9B493154335493A55B43B6DD5A8D53E8C14396018EF980FD9669AD95FBFC76008A4C934BBEA0B60635FDF
311
7BEEB91F0EDFED736E3D53215959DCD8BE3BB12D5AC465C28AECC6AE55EA5CDBD6BB281465A906CB6CAB2039BDB1F5B41D859928EBCA4C253425355747B3778BBF2C19D382DA56CC899437B68C1F694E5C52AB32A1F2C94D88226E96EE5DDF6D178EC56682548F47422B2268A1A029E60B48B15AA5FCF170627B51E8E9FF51
311
A89F66D5F4FC2AAFB1677C3E2BA42245FCC3614762A6FE6CF53EB89A3B57B3D9D499BD097C6771B75839FEDBE964F966B99CDFBE9FE360A90424194D044DEDE803B0112C0EBDF65714D6AC50D3C02C310EF2047D66DA537614587EE8B56B7AEB8C91A7D48FCBA2A0718315D068EC33A2135AD12281CF1995D06C80D0643CF4
311
358E83DF533D36470EA72F4360B86320A8D3BD7B0F352D777FC30479098384A49A812D96C6D096AB9303C2BBB2E4E61F93564E14158C708BB39D20E2C58EB0542F89C29118CD64A1A3415B6047F042FB7B4C1784D1CF797E4ACBB4E65CD3D88E9A28D82256A8928D66EC1F2A0EDA0F91814EF09566C3B53148BD54D48EE62D
311
45AE8FD8D40269A59C647039CCD43BA7C191A14B1DA7EB951DFD71B7DB6F74EC9E3EBC12654585D2F401B53AC7756F8D92D1C9BFC8737A837DA4CA01942F40FE2342FDA00AFC26D87EB69F99539420854C4B91C337D6C47226784C2CBF79EAEFC157E8F59BC7DE3B87279CADA1FA05788E6D18FA720067143E83F0A5981AD3
311
3631E1481BF7AC00409A24162F31853C9CEEF676B446964356C62EC2231F2643DD677C869E118344D19C347817C0F2282D5E90A0015BC348A8D192DF2878F0D30FE9AC39D82C3B07EFD52FA1EBED6AF3C7A6162989E9BD89E9154D59C1144ADC8137438546988F2C7AA22FDF4B91C0D01FF1DE0CF1CECD5112686BCC35F059
311
97D3F5E070F2E88018FBB252A79BF02727C0085D5807F2EF998C29E7A4A065DD9DFB6AFD40D96821D6C1AE99DC179843610169DA3F473188221D0B566910FB6AD5274DF78C755FD71FC1483B5ABCFC495E86D96B77C8BD71C94BB1DDBD6CDBB47412EA6F636E1B0C3C2D05746F82A48B7F03FA3661695A4B24C113B87E5B2F
311
87BED3690129A293DA46CB0CF623B88830A4EDE4A25A0B824A5A165B86BA89B83B79C0503E20350C68049ED358529E6E19E775BE4D194735DAE6A43A03C7FFD77F57E7D596E4655DA833B247AAA33A8C751FB1577E272A7EB4A34DF37616C8BD094DCE9041D79213588D5C1B5C4F67FEDC5F385777EF6F9D5930BB72AEA7AB
311
C09907CBBBC5D56CF23608E69D9F5A4DA2B02B35C388869750DAC25A30E3BEAF6BC48F490276744F947CF8D08667F7FEBA76D10B871EF6A05EF61B6F9367F47D34F9B980C3CA9382D679C5694E0B45740CDDEB0FFE85A0CF1829D3CEAF7392D10BA47CFAB03932063317ECFBACE39D7E3FDA6B66973A204F0A518F75BE2B08
311
E3471BB31649B72A32835FE793FEDD169A6EA847C631E84C65C959823C9858192D73AA900D2F284222A712D41BF6F489B97B5CB0FBB9ED1015D971DA69F248D0247389B000B5EA588DE7ADDFD0D4E9BEEAC646B9759FF03099C2B6C0991B1B4DBA623195EE0E055AB7428D707069D8C9A3F12745C6D16BB79BFA71BF4B6333
311
2AC9FD924BFA2763579BC28D01482315FA063444F04EA34C1436BA99FFF17F32BC53C7220A9FBB5AF5B61C267A639A6310A2AD51E6B68026E6C91CBD47A0BE6E96EF366B46885C74CB7A9504AD54471191353705AD9F51E976F5D9438762AD3F5915AF33F8F272498EA02073AD031C2C022B8CCC8A285075F9FBC36751E226
311
9B5B770C14785896795E1666706B6EC2D6E611F7DAE4016981EA0B897C08267EF0D05C04CCDD64BB2392BA24914F98804F05EB211E391E8C6C6F8BA840ED8F7E9DA79D70C4CDF5CA32256D06A18628C3ACAA6141CB51500BD1A32F933A56860BAA57EF025EB3142A0874F1D1BF504B0304140006080000ED54334000000000
311
0000000000000000350000006662782F34433235384336312D363932352D344131452D393738342D3044303339463735314333362F76657274696365732E62696E504B0304140006080800ED543340F270F1330600000004000000360000006662782F34433235384336312D363932352D344131452D393738342D30443033
311
39463735314333362F747269616E676C65732E62696E636660600000504B0304140006080000ED543340000000000000000000000000370000006662782F34433235384336312D363932352D344131452D393738342D3044303339463735314333362F617474726962757465732E62696E504B0304140006080800ED543340
311
D5987DFC8F00000041010000360000006662782F34433235384336312D363932352D344131452D393738342D3044303339463735314333362F6469726563746F72792E786D6C858F410EC2201045AF4266AF15DDB800BA74E7C21B903225242D6328188F2FA5C4183471359997F9FF81E89FF3C41E1816475E02DF1F80A11F
311
C8386F25A438EECEC07A250251FC3803E6F58C12560C4AD840E95E91C151A72936F496F35732D860FE635F62C8F2DA16B505C545B74125BAA2FA9E05D7CC053D063734D5C7665FD55B6B8D15D5E9BFEAFD8490FFA45E504B0304140006080800ED5433401B3FD0DCFD000000A00100003B0000006662782F34433235384336
311
312D363932352D344131452D393738342D3044303339463735314333362F7265736F75726365732F636F72652E786D6C8D50596AC33010BD8A997FD95A12370EB202CD72825E40C8134724968296D2E3578E5D68FFFA3333BC85793C79F89A1ED5278668BDEB81D5142A74C60FD68D3DE474253BA80E4A06EFD32F19544E4F
311
D8C30C839263F0F9B942C6BB842E15D4F9015750C788092AF328470FD1DC70D2B5CEA928E2BD7E6A73D723D6AC2E74D12919532801AAE5C93C41058C3E078351360BAB64CE76583576283FEDD5620025BA6D7BD96E3BC2383D93CDFBF14C765C0822BACB916F4EC7D3AE7B93CD6C5632D9E927A309A8130EA038659C504658
311
F7C1E85E747BDE12DAEE2995CD2CFF63CACFE19FA66C5D127C8DBBD822285682BC08259BB9AFB25E65963D77ABBE01504B010214000A0000080000ED5433403DEE336E79000000790000001B00000000000000000000000000000000006175746F6465736B2D64657369676E2D7061636B6167652E786D6C504B0102140014
311
0006080800ED543340D486FD9CA0000000F40000001300000000000000000000000000B20000005B436F6E74656E745F54797065735D2E786D6C504B01021400140006080800ED543340A6F6B31DEB0000007C010000080000000000000000000000000083010000636F72652E786D6C504B01021400140006080800ED5433
311
4055019EA25F0000007C000000070000000000000000000000000094020000636E782E786D6C504B01021400140006080800ED543340113F678967010000020300000C00000000000000000000000000180300006662782F636F72652E786D6C504B01021400140006080800ED543340DFA62B407E0000009D0000000B0000
311
0000000000000000000000A90400006662782F636E782E786D6C504B01021400140006080800ED543340BBC537A12A010000140200003100000000000000000000000000500500006662782F34433235384336312D363932352D344131452D393738342D3044303339463735314333362F636F72652E786D6C504B01021400
311
140006080800ED54334085D4A1444D010000330300003000000000000000000000000000C90600006662782F34433235384336312D363932352D344131452D393738342D3044303339463735314333362F636E782E786D6C504B01021400140006080800ED5433408B8B51A19B0500007B1000003400000000000000000000
311
000000640800006662782F34433235384336312D363932352D344131452D393738342D3044303339463735314333362F6F626A656374732E786D6C504B01021400140006080000ED5433400000000000000000000000003500000000000000000000000000510E00006662782F34433235384336312D363932352D34413145
311
2D393738342D3044303339463735314333362F76657274696365732E62696E504B01021400140006080800ED543340F270F13306000000040000003600000000000000000000000000A40E00006662782F34433235384336312D363932352D344131452D393738342D3044303339463735314333362F747269616E676C6573
311
2E62696E504B01021400140006080000ED5433400000000000000000000000003700000000000000000000000000FE0E00006662782F34433235384336312D363932352D344131452D393738342D3044303339463735314333362F617474726962757465732E62696E504B01021400140006080800ED543340D5987DFC8F00
311
0000410100003600000000000000000000000000530F00006662782F34433235384336312D363932352D344131452D393738342D3044303339463735314333362F6469726563746F72792E786D6C504B01021400140006080800ED5433401B3FD0DCFD000000A00100003B0000000000000000000000000036100000666278
311
2F34433235384336312D363932352D344131452D393738342D3044303339463735314333362F7265736F75726365732F636F72652E786D6C504B0506000000000E000E00800400008C1100000000
310
504B03040A0000080000ED5433403DEE336E79000000790000001B0000006175746F6465736B2D64657369676E2D7061636B6167652E786D6C3C3F786D6C2076657273696F6E3D22312E302220656E636F64696E673D227574662D3822203F3E3C666F726D6174733E3C666F726D61743E687474703A2F2F736368656D612E
310
6175746F6465736B2E636F6D2F64657369676E2D7061636B6167652F323030393C2F666F726D61743E3C2F666F726D6174733E504B0304140006080800ED543340D486FD9CA0000000F4000000130000005B436F6E74656E745F54797065735D2E786D6C7D8EC10E82300C865F65E91D8A1E8C310C0EEA1BF002731658846E
310
D98AC1B77784ABF1D8FE5FBFBF75BBCE937A534CCEB38643598122B6FEE978D0B0485F9C41B54DDD7D022595594E1A469170414C76A4D9A4D207E29CF43ECE46F218070CC6BECC4078ACAA135ACF422C856C0E68EA1BF5669944DDD7BCDE7B1F8E415D77AECB980613C2E4AC91FC167A2B244592486606FC29C8FD7F045B9A
310
EF7053A7E60B504B0304140006080800ED5433404DC3772DEA0000007C01000008000000636F72652E786D6C8D90D16EC3200C457F05F99D14D22C6D2242D568E917EC0710B8196A035180699F3FD2A6D2F6B6275BD7F7D8D615A7EFE94EBE7009D6BB0E78C180A0D3DE58377690E2951E819CA458BC8FBF6C409C9AB08355
310
0629C6C5A77993B477115DCCAAF306375185801188BEE7A683A03F7152854A313BC2AD9895BEA9110BFEEA329C9235E479C49ABCCF5E2D2E20CBAA1FEAE6ED48EBF7AAA755C50FB4E9794D2FFD79A886921D2EE741EC56588A68A7D77DBDA08A6832CF784919A7BCF9E0ACDD376D595356B78C89DD6AFF03A5D9FC134AD6C5
310
7DB9BDFBC402489E1F790CA4D8AD59E4F2082AD73537F903504B0304140006080800ED54334055019EA25F0000007C00000007000000636E782E786D6C4DCB3B0E80201045D1AD90E915ED2CF8AC45050C11660C8261F98AB1B07AC9C97D42D718D865D3E909258CFD00CCE24AC6E326A164D74DC0B4128928FF326038472B
310
A13128B1252AC747C6BAB984FC68F0B87FE8960A5C09FE86CFB69FBA01504B0304140006080800ED5433408421477766010000020300000C0000006662782F636F72652E786D6C8D52ED8EC220107C15C27F0AD45EFD086234A74F702F802DF6882D180A8D8F7FDB0FD3F362CCA50925333BBBB3D38ADDBDA951A77D6B9CDD
310
629E308CB42D5C696CB5C5315CC80AA39D14DEB9F0AB0C23AB1ABDC53D8CA5A8BC8BB7092A9C0DDA0640AD2BF504AAB6D501A3A286CB16B7C5B76E54A262808AF69ADC547155954E780234D449D1060F06D038A43FB1BC9CEF828EB814319A72624D09D3CCC5688F659A1D8EF9FA6345F2CFEC40B28C2FC9FAC073723AEC8F
310
D93165CBD3FE28682F962298E6E1AEF05A055D829EF194304EF8FA8BB3CD62BD4973C2F20D6382F6E54FA2782BFF298AC686453AD91D652D961C8C0CC49F6D21A2805AD5811F2A05ED4384D790F073D01008841CD4B97EEC7105A8D345703E03A67471A63A55470D53191A1E4147163A0F0D60B3977DD2377DDEF7800FA86C
310
05D65480EB39867EBA18A74E51DCB4275DB823EB7CA3EAD9DC68713EE7412FE585AB9DFF8F9A4EABD2294CDAFFBDF207504B0304140006080800ED543340758643477E0000009D0000000B0000006662782F636E782E786D6C4DCCD10E82201886E15B61FF394910951BE0C4E03E5CA273213482D6E5A7CD838EBEEDD9B757
310
349FC5A3B74BAF390609C70301E4C23D0E739824943CE22BA046891463FEBB010AFDE2246C0C4A4C2996E74E831BFBE2F3AA7E0E8F1D49AD75D7DE28669A1A7CA29CE0BA350C736B2D3BF38BB5A6834A89EA575A770BAB2F504B0304140006080800ED543340FCF0139E2C01000014020000310000006662782F3039424243
310
4144322D334232452D343235302D394145332D3546464633363537464645432F636F72652E786D6C8D51CB6EC32010FC158B537AC0E691D03AC244491A7F417F80DA244589C1E251E5F3BBAE1DA9BDE5C2A2D999D98195BBFB702BBE4D88D6BB06D192A0C2B8CEF7D65D1A94D319BFA162A764F03EFDA1A1C2E9C134688291
310
9297E0F3B8409D77C9B804A8F3BD59401DA349A8E86E706950ECBECCA04B9D1330E2B51C7577D51753D212DAC05332A600018A79C8742245EAC3E1B87F67981FD809AFD986E07A7FE278D3B62D179BD7B63D1D65350B95CCD9F68BDCF610C79EAD09CF9A4C6225931D1EF1BB6074323D528C508609C5B4FEA064CBEB2D1398
310
882D21B29AE8FF4479EC9F1465EB12674BDC591691A2B29A1B4AF63E7FDE1E61CC7DF42115D3BC5534DD0BBCAA248C32C10597D54C850F004FB15E3C63F2013E7875FD04365F8CC55AC96ADA1194DF05429DF6A97E00504B0304140006080800ED543340E3736E535401000033030000300000006662782F30394242434144
310
322D334232452D343235302D394145332D3546464633363537464645432F636E782E786D6CBD93CD6E022114855F85B09F5FCD440D8349177D822EBA45B82A9581093F4D7DFB5E14AD1B174D9A6EC8E4DCC339375F18B6FD9A0CF9041FB4B323EDEA9612B0D2296D0F234D715FAD28D972E69D8B0F364AAC9860A459A69C1D
310
BC4B739114EC45321155A3EDA9881E824B5E424039DF24C6496130006C95508469074A812277237EEDC1E32A28EECE241E81BCBEBC13B7FB0019036B720A674DEEE02C9FA5E9C144893422849106798449D42245A7209C6A25A2A8BBFAD6F564A79F24922FDC2A93D724978F349F94978D6AE4C81A1C7216A2477AC514CF33
310
502EE6D9682922426E2EC6AB87B3A46D1C96C5AB11BC47F7A21F562B0CBBCC388B7A82E2901E44044579DF767DD57655B77EEBDACD62BDE987AA1D366DCB9A6CE76CE79C29973006BC9B897436828D9477ACC9E367F88A8F28ED91B5F3E75F804400A5F54AE79EF1977CBA61B15CFE239FE6F2BE1197C7BF807F03504B0304
310
140006080800ED543340973AAAFF5A070000941B0000340000006662782F30394242434144322D334232452D343235302D394145332D3546464633363537464645432F6F626A656374732E786D6CED595B739B3814FE2B0CFB6C6C7C69931D4227719A8CA79BB6536F3BFB9019460699682304238924DE5FBF4717301093E0
310
6DF6AD0F3620A4A373BE73D521F8F09451E70173417276E6FADEC475308BF384B0F4CC2DE57674E23A1FC280E7B96C4C731D86327CE6AA61370C529E97851D4AF01695547646AF2EFE72448C19769D982221CE5C11DFE10C79A8947982C5BD972089BC74FBE4F99E99D8269B7254DC7588168863268153186740C5314CF9ED
310
C7893B0E83B17A1F06EADFCE9A0D9A35EF9F35D652B7B9244C48C4E2672C75C8CC06B134F3E7971FA78BD3D1623E9F8DE6EFA6FEE8E2EAE272E4BF9F4D96EF96CBD3F38FA7C0DE26CFA99529C1056609E86FE7867E30566F6AD12D0287B88E73C670AC8104A8B4585D82040BD8AA01DFA4FDE82B891AAFB5848DE7B97A6F59
310
680CCFDA54FA660D03A2451704B1DB551257D7A67CF9E66F105C0C314A2EB0046E85E4A05D0B0F07AF70C3493036A361B0D9EB82082743127382A843C986230E4A81A96A4A189805968C720E0EA41C2581D69C79DDB62DF0CCD75DE71097DB9252E5196EA81D2B02F7C35268CEC83F98EFB96F22033C81B42561F2C4722977
310
0576C3D360AC07C3405D6653FBD200E96C294A8546C4BCED08BA54AEBFBA74C34F579BA7B50A0787372F785E602E95D1293D6ABEC090ED55A164B7F507694E2D00610CA876E51E946F80FC67881E7B56406F9C3CCD9FE676AEE488896DCE33D08D33714613F89B38BEFE57F78DBB605C2F6E6BAF0F4F705305D5C9CFE3D996
310
416365F96FC019060F60F0399FD957EB1851B0E71BC2002065240ECD610842FB76F3E4862B089C10E86115A2A10F2203BB0F701B8C2D99BD562AF7B25EC70051BBC76C889200366D91C0468F9EAE217B7012EFD5D414B10FDEC59B98EBF9E5FAD3BAE45B14E31BEBD397784B189190350F33D4C2BC25D13DDE3DE63C01419F
310
E3BD6EE29DD9AD04A0AD3057C0A71508EA61BF736B8318D6A5B90A37C12B3B80102A5737E8DF1011634A11C37959ED5B473765A8B5C7DB9AC10DA706E2D9B463C21C3F10555580D3EC67B41885BC1F73522810DDF0DA4856074DAF47BAEFABCF6091F5FC9E592B06A19721FAA70E5A077068597685B405A21678B30FE7714E
310
731E6D769189742ED412C046DB5B7EB48842AC374A5254C083B4DF55212535D24609D96E4B0171F5008B3F56CBA6394CBC99BF709AFF1D679C43B405DF45DCFA5D678F886428C5D116257DDB3577AB690B4DB28734C75B0A72910722771192D124C1E931D01C45FCF44DA9A7341782302C205F1D04BF89C6C4834062B459B1
310
ACB4DA019A8828C312D1631050647AC0D56947D7B831940EAFF3585BEF4B1A6B12FD9F2C8223A82573161128452187BCCAB8EF2D2086B4D1352877F0056BAB686B3168092544BC8B1E3149EFE431A81BF23DB8C77024296594172806B31E40F699AF28A57678DFA0F85EE58F282EE95B1988C0741B114ACB2C821F6170F218
310
E2DA75607A1185067113FB24CEA02843B2E4433679B7983CDBC7D40CDD10D8D8684B2884ED2843450FEAAD80A8EB11A706DF52EF51EAA6CC8A086579C906198A37EB7A9325DF55AB223B905F552A42D95811B604C380305967D52A6683A9EBC00A6EA403D52E12282BA83985BD9278FCDA9B34E5DE0DB8F5D3B7DD2083C2AF
310
477BCD883AAF60B03CB60A03F188647CE7866B7D1D5D40FD9DE0649FEAAB5AB3590102622A92979C58157D5F4179636B3437BC4152DC5E9BAC5B5DBFAF3CE87E04635803B54BBD70A580CE309348552637EA867E4310825B34CCF84AE5D463A89C2789AE1A11BD227DEA6C9511AD4D33E2157798E519FCD82D61312D137C8B
310
12711FDD481AAD8962DD4AE965A4C2F84501BF5CAF3BF0C0C80091BEAA020F3F76D6DAD1A52A970E12917765B6618840106C89961ADD78054BAD462A2DD75775A680BA0B0CCCAA78FEEB64D16C47FC3A59A4D6307EEA6471B1FB03ED9A7D91463A8F955D1F750CA8F393A2F216C700DD76A8A9D659C424732BBF75A6088262
310
15E507576355D03004FB38FECF59BB2F0B9AED3AFC1F97B5FD6715C75159A5355975A90E54AEAB660E9B9ECCE6FEA97F315A5C7D3C1FCDA7F3C5E86476391D9D4E9757178BF9E4FD747A5AA3A91D350CEA60A673173C9BA0560DAB278B017465454E4902A7F9C44931C47C0967FA01ED739E6101C9B3D9EC4E6C537EC0EA07
310
D3E794684371C5C91D8206311590D601A33296ED71E737684D4A38689FB9D034F2EEE1CF5AA5EB40E63973A15520498C85B78136936AE869E2907275EEB7C4001FC4529512CDA2FAB95EA5B06985FF7ACA903460E56AF530A0702BA0FBD5EA5068DE2C4FF1518257EC3848C2EDA69450AD1959F603B5307A9BBDFA8D6C94B0
310
7BBBF513B8EECB62F99E9ED34264D02783178DC0501D49C453DDEF568C5996CE2FBF8EA1CFE6ACBE38052D53D0E5704A238EC1984B555081158155589A059260AACBDF6FBFF21C3EF1648EAE8A6E977996E5CC3E9CC3792C814F44CEFA0E3EF824B7503660D55617B7D3893FBDD5ED6CDB618F3648604FD543305095114A84
310
8EB181453E6B4DD9C6E55829A1337D75E9D8F0096D006341CFBABBE6F39603DEA33EA4285FD11E5EC9F962477BACA7823570E84587FF02504B0304140006080000ED543340000000000000000000000000350000006662782F30394242434144322D334232452D343235302D394145332D3546464633363537464645432F76
310
657274696365732E62696E504B0304140006080800ED543340F270F1330600000004000000360000006662782F30394242434144322D334232452D343235302D394145332D3546464633363537464645432F747269616E676C65732E62696E636660600000504B0304140006080000ED543340000000000000000000000000
310
370000006662782F30394242434144322D334232452D343235302D394145332D3546464633363537464645432F617474726962757465732E62696E504B0304140006080800ED543340D5987DFC8F00000041010000360000006662782F30394242434144322D334232452D343235302D394145332D35464646333635374646
310
45432F6469726563746F72792E786D6C858F410EC2201045AF4266AF15DDB800BA74E7C21B903225242D6328188F2FA5C4183471359997F9FF81E89FF3C41E1816475E02DF1F80A11FC8386F25A438EECEC07A250251FC3803E6F58C12560C4AD840E95E91C151A72936F496F35732D860FE635F62C8F2DA16B505C545B741
310
25BAA2FA9E05D7CC053D063734D5C7665FD55B6B8D15D5E9BFEAFD8490FFA45E504B0304140006080800ED543340BDA2E35DFC000000A00100003B0000006662782F30394242434144322D334232452D343235302D394145332D3546464633363537464645432F7265736F75726365732F636F72652E786D6C8D504B6E8330
310
10BD0AF2DE60130A051947412527E8052C7B42AD041BF953F5F8B50395DA5D3733A3F7D13C3D76FE5A1FC52738AFAD19112D092AC048ABB4594614C30DBFA2E2CC99B336FC92A1C28815469461C4D9E26CDC0E485A13C084841AABE00085F71050211FE91891971FB08A52C49014FE5E6E42DEC502252D139D749CF9E05280
310
627F9227E20EBC8D4E8267D5CE7216A3568746ABF453DF3438C4EB669ADBFEA5C3ED5B33E1A6A11DEE27DAE2EB74999BB926DDF532B32A9B390B7AFDC9281D88002AF909AD31A198F6EF940CA77EA85B4CDA81105665F91F53DCD43F4D519B70AA8FB8BBCD234E539027C15995FB4AEB5966DAB95BFE0D504B010214000A00
310
00080000ED5433403DEE336E79000000790000001B00000000000000000000000000000000006175746F6465736B2D64657369676E2D7061636B6167652E786D6C504B01021400140006080800ED543340D486FD9CA0000000F40000001300000000000000000000000000B20000005B436F6E74656E745F54797065735D2E
310
786D6C504B01021400140006080800ED5433404DC3772DEA0000007C010000080000000000000000000000000083010000636F72652E786D6C504B01021400140006080800ED54334055019EA25F0000007C000000070000000000000000000000000093020000636E782E786D6C504B01021400140006080800ED54334084
310
21477766010000020300000C00000000000000000000000000170300006662782F636F72652E786D6C504B01021400140006080800ED543340758643477E0000009D0000000B00000000000000000000000000A70400006662782F636E782E786D6C504B01021400140006080800ED543340FCF0139E2C0100001402000031
310
000000000000000000000000004E0500006662782F30394242434144322D334232452D343235302D394145332D3546464633363537464645432F636F72652E786D6C504B01021400140006080800ED543340E3736E5354010000330300003000000000000000000000000000C90600006662782F30394242434144322D3342
310
32452D343235302D394145332D3546464633363537464645432F636E782E786D6C504B01021400140006080800ED543340973AAAFF5A070000941B000034000000000000000000000000006B0800006662782F30394242434144322D334232452D343235302D394145332D3546464633363537464645432F6F626A65637473
310
2E786D6C504B01021400140006080000ED5433400000000000000000000000003500000000000000000000000000171000006662782F30394242434144322D334232452D343235302D394145332D3546464633363537464645432F76657274696365732E62696E504B01021400140006080800ED543340F270F13306000000
310
0400000036000000000000000000000000006A1000006662782F30394242434144322D334232452D343235302D394145332D3546464633363537464645432F747269616E676C65732E62696E504B01021400140006080000ED5433400000000000000000000000003700000000000000000000000000C41000006662782F30
310
394242434144322D334232452D343235302D394145332D3546464633363537464645432F617474726962757465732E62696E504B01021400140006080800ED543340D5987DFC8F000000410100003600000000000000000000000000191100006662782F30394242434144322D334232452D343235302D394145332D354646
310
4633363537464645432F6469726563746F72792E786D6C504B01021400140006080800ED543340BDA2E35DFC000000A00100003B00000000000000000000000000FC1100006662782F30394242434144322D334232452D343235302D394145332D3546464633363537464645432F7265736F75726365732F636F72652E786D
310
6C504B0506000000000E000E0080040000511300000000
  0
XRECORD
  5
17
102
{ACAD_REACTORS
330
12
102
}
330
12
100
AcDbXrecord
280
     1
270
     1
271
     1
  0
XRECORD
  5
16
102
{ACAD_REACTORS
330
12
102
}
330
12
100
AcDbXrecord
280
     1
270
     1
271
     1
  0
XRECORD
  5
18
102
{ACAD_REACTORS
330
12
102
}
330
12
100
AcDbXrecord
280
     1
270
     1
271
     1
  0
XRECORD
  5
15
102
{ACAD_REACTORS
330
12
102
}
330
12
100
AcDbXrecord
280
     1
270
     1
271
     1
  0
XRECORD
  5
F3B
102
{ACAD_REACTORS
330
22
102
}
330
22
100
AcDbXrecord
280
     1
102
MATERIAL
148
0.0
149
0.0
149
0.0
 93
        0
 94
      127
282
     0
 72
     0
 77
     0
171
     0
175
     0
179
     0
273
     0
  0
XRECORD
  5
24
102
{ACAD_REACTORS
330
22
102
}
330
22
100
AcDbXrecord
280
     1
270
     1
271
     1
  0
XRECORD
  5
23
102
{ACAD_REACTORS
330
22
102
}
330
22
100
AcDbXrecord
280
     1
270
     1
271
     1
  0
XRECORD
  5
BA
102
{ACAD_REACTORS
330
22
102
}
330
22
100
AcDbXrecord
280
     1
 70
     1
 90
1959938040
 71
     1
  1
C1351AED-5784-4676-89C4-4B43DB822970
311
504B03040A0000080000EC5433403DEE336E79000000790000001B0000006175746F6465736B2D64657369676E2D7061636B6167652E786D6C3C3F786D6C2076657273696F6E3D22312E302220656E636F64696E673D227574662D3822203F3E3C666F726D6174733E3C666F726D61743E687474703A2F2F736368656D612E
311
6175746F6465736B2E636F6D2F64657369676E2D7061636B6167652F323030393C2F666F726D61743E3C2F666F726D6174733E504B0304140006080800EC543340D486FD9CA0000000F4000000130000005B436F6E74656E745F54797065735D2E786D6C7D8EC10E82300C865F65E91D8A1E8C310C0EEA1BF002731658846E
311
D98AC1B77784ABF1D8FE5FBFBF75BBCE937A534CCEB38643598122B6FEE978D0B0485F9C41B54DDD7D022595594E1A469170414C76A4D9A4D207E29CF43ECE46F218070CC6BECC4078ACAA135ACF422C856C0E68EA1BF5669944DDD7BCDE7B1F8E415D77AECB980613C2E4AC91FC167A2B244592486606FC29C8FD7F045B9A
311
EF7053A7E60B504B0304140006080800EC543340C0AC1EBCE90000007C01000008000000636F72652E786D6C8D90D18E832010457F85CC3B0AA8AD1AA4699BF40BF607085097B48211D8F4F38BAD4D76DFF6692677EE99995C7E784C77F4639660BD1B8016049071CA6BEBC60152BCE216D041F0C5FBF8CB06C8C9C90CB0CA
311
20F8B8F8346F92F22E1A17B3EABC369B2843301190BAE76680A0BECD240B996276845B314B7593A329E8A7CB704A56A3F711ABF33E7BB5660171391E59BB27674CEB0BC1F5A9A2B825CD0E77ACA9AB7DDDD2EE74E6E50A0B1EEDF4B9AF1623A3D12018A10C138A69F745495F753D6B30D9F584F072B5FF81D2ACFF0925EB62
311
C5B677DF580041F323AF81E0E59A452EAFA0725D73134F504B0304140006080800EC54334055019EA25F0000007C00000007000000636E782E786D6C4DCB3B0E80201045D1AD90E915ED2CF8AC45050C11660C8261F98AB1B07AC9C97D42D718D865D3E909258CFD00CCE24AC6E326A164D74DC0B4128928FF326038472BA1
311
3128B1252AC747C6BAB984FC68F0B87FE8960A5C09FE86CFB69FBA01504B0304140006080800EC543340B18EF6DB65010000020300000C0000006662782F636F72652E786D6C8D52ED8EC220107C15C27F0AD4AAAD418C9AF804F702D8A2476CC150687CFCDB7E989E17632E4D2899D9D99D9D56EC1E4D8D3AED5BE3EC16F3
311
8461A46DE92A63AF5B1CC385E418EDA4F0CE855F651859D5E82DEE612CC5D5BB789FA0D2D9A06D00D4BA4A4FA06A5B1D302A6BB86C715B7EEB46252A06A8686FC95D953775D5094F80863A29DAE0C1001A87F4279697F343D011972246534DACA9609AB918EDB13CEDF769BE6647C2B31323D961C149CE962B52A4CB6CB1CE
311
725E1C8E82F6622982699EEE4AAF55D0159629E329619CF0E28BB3CDA2D8A44BC2561BC604EDCB5F44F15EFD53148D0D8B74B23BCA5A2C391819883FDB424401B5AA033F540ADA8708AF21E1D7A021100839A873FDDCE30650A7CBE07C064CE5E24C75AA8E1AA632343C828E2C741E1AC0666FFBA41FFA7CEE011F50D92B58
311
5301AEE718FAE9629C3A4571D79E74E181ACF38DAA6773A3C5F99C07BD9597AE76FE3F6A3AAD4AA73069FFF7CA1F504B0304140006080800EC543340EF70BE027E0000009D0000000B0000006662782F636E782E786D6C4DCCD10A83201886E15B91FFDCE52C67076A38B2FB886521330DA76397BF1A1DECE883878F57749F
311
D5A3B74D2F178384EB8500B2E1112717160925CFB805D4299162CC7F3740615CAD8483418925C5B29D34D9792C3EEFEA5D789ED8336298D1356EB4E6B8E9698D5BD2703CB4777EA38651C206A894A87EA57D8FB0FA02504B0304140006080800EC5433404E2266772A01000013020000310000006662782F44353045354541
311
332D344141372D344432332D383034372D4638423736324535323035462F636F72652E786D6C8D51DB8EC22014FC15C293FB400BF4623514E346FD82FD012CA8440B0D978D9FBFB0ADC9EE9B2F1C326766CEC061BBE7F800DFCA796D4D0F4981215066B0529B6B0F63B8A00E821D67CEDAF087068111A3EA618621675767E3
311
B44083354199905063A55A40E1BD0A100C8F74E9A11F6E6A1485882131FCBD98C4701757559022B5138F331F5C0A00E621F984FCD0E06373DC57A8DEEFD7A83ED00A75B85EA353F7B96EE9B1A1B839B172167216A3968B5CCB14475FB472EF9A643167418FAFF8835322280939C584224C10D97C11BCAD365BDA20DC6E3166
311
65A6FF13C549BE298ADA848A2E716799879CB0726E70266D3C3F5E61D473B22E803C6FE5D5F001392E30C5B4AD3A56CECCF4FE64D9D68BA50FD6A5FF5DDDCF894C9AD9B7AD392BF38A52F9DD5FAA799DFC07504B0304140006080800EC54334086EB2DD64D01000033030000300000006662782F44353045354541332D3441
311
41372D344432332D383034372D4638423736324535323035462F636E782E786D6CD593CD6E022114855F85B09F1FD49A6A184CBAE81374D12D03574B6560C24F53DFBE1745EBC64597DD90C9B987736EBE307CF73D59F205211AEF06CADA9E1270CA6BE30E03CD69DF3C53B2133C789FEE6C943839C1408B4C053F049FE72A
311
69D8CB6C13AAD6B8631503449F83828872B949AC57D26200B826A308D3085A832637237EED21E02A288E27923E80BCBEBC133F7E824A91772545F0AE74085ECEDA7467A2445919E340A3FA8049B63227AF211E5B2D936C597BED7AB0D36F122917AE95391852CA075A4E2AEA462D72E41D0E058F2920BD6A4AA719A890F36C
311
8D9209217767E3C52378362EAD57D56B107C40375B2F572B0C3BCF044F6682EA500164024DC5A2678BA6670DDBBCB17EBBDC6C174F4DBFDEF63DEF8A5DF0D17B5B2F610C043F13E55D0297A860BC2BE347F8AA8F681390B50FA73F804400B5F542E796F19FF974E7F78DB802FE05E207504B0304140006080800EC543340CB
311
7DE107980500007A100000340000006662782F44353045354541332D344141372D344432332D383034372D4638423736324535323035462F6F626A656374732E786D6CAD57DB6EDB3810FD1541FBEC8B6CA749168A8AC44E0AA3481BD468B10F010C4AA2146E285120A9D4D9AFDF4389BAB976E25DF4451229723873E6CC85
311
FEC75DC69D172A1513F995EB8DA7AE43F348C42C4FAFDC5227A30BD7F918F85208DD5BE63A39C9E8956BA6DDC04FA5280B3B15D384945CEFCDDEDDFCE5A888E6D475224E94BA7255F444333226A5163155CFE39868324E93DDD81BD70B876253498AA73DA1059134D7D014F339A438B552DE70387527813F31FF03DF3CEDAA
311
F9F15593CA9EE1F92C579AE4D12F87ED89997B8BD5EDECEC7274B658CC478B0F336F747377B31A79E7F3E9F2C37279797D7B89839596906435913471834FC046B2C89FD4BF02BF64B99ECFEC12EBA089A42FCC78CA0D668EE74FEA35AD75D6C843EA4722CF69546105342AFBACE89816348FE173461534EB21341D0E3D8363
311
EFF7DC8CED91FDE9D310E8EFE8096A746FDE7D4D45F8374C50A730482A6A185863690DADB93AED100E85E0F61F534E4634958C7087B35012F9EA06586A9604FE408C61B234D1602C700378A1FE3DA40BC2E87D9E1FD2322939373476832A0AB68815AA55A519FB87CA4EFB3E32D009BE326CB8B006E9D782BAC1654D918B3D
311
36D5403A0927295C0E33CDCEF96CCFD0A589D3F5CA0D3EDF85BB8D89DDC387175214546A431F50AB715CF33628599DBC933C6736B87BAA74A07C03F25F10EA9D2AF09B64BBC56E614FD192E42A1132836F9CA9339AE23175BCEA69BE7B5FFEA4DD3CF4DE313CE16C03D56FC0736843DF973D3803FF058417726E4DDB448423
311
6DDCB31C001992385C600A793809776EB046964356C62EC2030F2643DD177CFA132B0689A23AA9F7CE81E55E5A3C214103B68A9150A326BF55B0F3D32FE9AC3AD82E3B06EFD96FA1EBF56AF37953CA8444F4DEC6F48A262C671A25AEE34D5FA101E6038B9EE9EB4F216318FA2BDE9B3EDE993D4A016D83B9013E6D72BA1974
311
270F0E88B02F1526DDF8EF9C00234C61EDC9BF672AA29C939C8AB239F7CDFA81B251436C82DD30B92D305D610169EA3F7B3188221D49561810DB6AD526CDF111EBBEAFBF809158CF454878B728EC526F24B890DBF0755B67A58348FF1852DB42303152C0F62A469AF0B7986F639624A5420E3C00EB8FF5B2EF3A931590211A
311
A975B02C603E628B48CBD9462E8AB52428A422DF32944D84DDC103FAF281A8254025F098C68AF264CB382FB36DC2388AD13623C51138FEBFFE6199155B928932D747640F54477118EA3E20AFFA4974F4E4069BEA3DBA41EA8D69DCB979B0D8949203580D5CBBF4E667DEF5ED6A74767EB140FB74FE617471B9C4D7CD62BEBA
311
B998CD2ECF3B8DAA1E2AF09B4AD30F68780995CD2F25B3EEFBBE46F8D81CE006F744ABC74F757436EFEFEB315A617F823D2897EDC6EBF8056D1F8DDF17D0AD3C28689D159C6634D7C484D0BDF9E0DF08DA8C8132F5FC3A23293D41CAD74F9B3D633073C2BE0713EEF4E7DE5E3BBB34017950887E2AB330278CEF6D4C6B24C7
311
459E5AFC1A9FB4EFBACE344333B28E4163AA046731D260ECA454645423199E5083644615A8D76FE9637BF53861F74BDD206A1272DA68F244D0237385B0006FCB480FE79D3FD0D399B6EACA45B51D3FE3613385EB8033572E7A74CD22AAC621EAB3E9842AE1E052BF910767499E72B4DAF5A676DCEE32D80C2A72BBE494F6C9
311
DA5567706B00D24881B601FD10BC532913F8956EF67FF49F0C6FD47188C66758EAD6966EA235A63A06215A1B652F0BE8619EEDD13B04EADB6679E36ACD0091932E596F92A0963AD244A6D545C1E86755BA5E3D4CD0A038EBAF4EC1CB14BE3C5DD2485290B934010E16811556664134A8BAFCF3F1410A5C6433E78E81028F4B
311
916522B7836B7B1176364FB8D6C68F480BD4DC47D4E36CEACD1EAB7B80BD9A6C43A2E898C4EA1913F0A9642DC403C78391F5651115A8FED1AE9B1827EC7173BD726C495B40A8254A3FAB1A58D071E4D441F498BBA48995FE82E2CDABC0A45A0A15249AF8E05F504B0304140006080000EC5433400000000000000000000000
311
00350000006662782F44353045354541332D344141372D344432332D383034372D4638423736324535323035462F76657274696365732E62696E504B0304140006080800EC543340F270F1330600000004000000360000006662782F44353045354541332D344141372D344432332D383034372D4638423736324535323035
311
462F747269616E676C65732E62696E636660600000504B0304140006080000EC543340000000000000000000000000370000006662782F44353045354541332D344141372D344432332D383034372D4638423736324535323035462F617474726962757465732E62696E504B0304140006080800EC543340D5987DFC8F0000
311
0041010000360000006662782F44353045354541332D344141372D344432332D383034372D4638423736324535323035462F6469726563746F72792E786D6C858F410EC2201045AF4266AF15DDB800BA74E7C21B903225242D6328188F2FA5C4183471359997F9FF81E89FF3C41E1816475E02DF1F80A11FC8386F25A438EE
311
CEC07A250251FC3803E6F58C12560C4AD840E95E91C151A72936F496F35732D860FE635F62C8F2DA16B505C545B74125BAA2FA9E05D7CC053D063734D5C7665FD55B6B8D15D5E9BFEAFD8490FFA45E504B0304140006080800EC543340D3073024FC000000A00100003B0000006662782F44353045354541332D344141372D
311
344432332D383034372D4638423736324535323035462F7265736F75726365732F636F72652E786D6C8D50596E833010BD0A9A7F83CD9200328E42A59CA017B0CC845A0936F252F5F835814AED5F7F66466FD13C3D7EF95A9ED9273AAFAD1980E5143234CA4EDACC03C470272D6417C19DB5E1970C3223171C608341F0D9D9
311
B81E90B226A009093576C20394DE63804C3DD33180571FB8C85CC69014FE91AF523DE48C39CB139D7482FBE052806C7FB24D100EBD8D4EA1E7C5CE0A1EA39E0E8D9ED24F7DD7E840DCAED7B23DD391B0FA46493D568CB4B43991AE6CEAEA5CB7AC1BDF78B199050F7AF9C9A81CCA80138892B292504658F7CE685F757DD910
311
7AEA29E5C526FF638AEBF44F53D42654E51177B779102C05791182175B5F69BDCA4C7BEB567C03504B010214000A0000080000EC5433403DEE336E79000000790000001B00000000000000000000000000000000006175746F6465736B2D64657369676E2D7061636B6167652E786D6C504B01021400140006080800EC5433
311
40D486FD9CA0000000F40000001300000000000000000000000000B20000005B436F6E74656E745F54797065735D2E786D6C504B01021400140006080800EC543340C0AC1EBCE90000007C010000080000000000000000000000000083010000636F72652E786D6C504B01021400140006080800EC54334055019EA25F0000
311
007C000000070000000000000000000000000092020000636E782E786D6C504B01021400140006080800EC543340B18EF6DB65010000020300000C00000000000000000000000000160300006662782F636F72652E786D6C504B01021400140006080800EC543340EF70BE027E0000009D0000000B00000000000000000000
311
000000A50400006662782F636E782E786D6C504B01021400140006080800EC5433404E2266772A0100001302000031000000000000000000000000004C0500006662782F44353045354541332D344141372D344432332D383034372D4638423736324535323035462F636F72652E786D6C504B01021400140006080800EC54
311
334086EB2DD64D010000330300003000000000000000000000000000C50600006662782F44353045354541332D344141372D344432332D383034372D4638423736324535323035462F636E782E786D6C504B01021400140006080800EC543340CB7DE107980500007A10000034000000000000000000000000006008000066
311
62782F44353045354541332D344141372D344432332D383034372D4638423736324535323035462F6F626A656374732E786D6C504B01021400140006080000EC54334000000000000000000000000035000000000000000000000000004A0E00006662782F44353045354541332D344141372D344432332D383034372D4638
311
423736324535323035462F76657274696365732E62696E504B01021400140006080800EC543340F270F133060000000400000036000000000000000000000000009D0E00006662782F44353045354541332D344141372D344432332D383034372D4638423736324535323035462F747269616E676C65732E62696E504B0102
311
1400140006080000EC5433400000000000000000000000003700000000000000000000000000F70E00006662782F44353045354541332D344141372D344432332D383034372D4638423736324535323035462F617474726962757465732E62696E504B01021400140006080800EC543340D5987DFC8F000000410100003600
311
0000000000000000000000004C0F00006662782F44353045354541332D344141372D344432332D383034372D4638423736324535323035462F6469726563746F72792E786D6C504B01021400140006080800EC543340D3073024FC000000A00100003B000000000000000000000000002F1000006662782F44353045354541
311
332D344141372D344432332D383034372D4638423736324535323035462F7265736F75726365732F636F72652E786D6C504B0506000000000E000E0080040000841100000000
310
504B03040A0000080000EC5433403DEE336E79000000790000001B0000006175746F6465736B2D64657369676E2D7061636B6167652E786D6C3C3F786D6C2076657273696F6E3D22312E302220656E636F64696E673D227574662D3822203F3E3C666F726D6174733E3C666F726D61743E687474703A2F2F736368656D612E
310
6175746F6465736B2E636F6D2F64657369676E2D7061636B6167652F323030393C2F666F726D61743E3C2F666F726D6174733E504B0304140006080800EC543340D486FD9CA0000000F4000000130000005B436F6E74656E745F54797065735D2E786D6C7D8EC10E82300C865F65E91D8A1E8C310C0EEA1BF002731658846E
310
D98AC1B77784ABF1D8FE5FBFBF75BBCE937A534CCEB38643598122B6FEE978D0B0485F9C41B54DDD7D022595594E1A469170414C76A4D9A4D207E29CF43ECE46F218070CC6BECC4078ACAA135ACF422C856C0E68EA1BF5669944DDD7BCDE7B1F8E415D77AECB980613C2E4AC91FC167A2B244592486606FC29C8FD7F045B9A
310
EF7053A7E60B504B0304140006080800EC5433401BE8B140EA0000007C01000008000000636F72652E786D6C8D904D6EC3201085AF82668F0DC6B11B0B13397272825E0001715062B00C543D7E717EA476D7D58CDEBC6F66F4F8E17BBEA32FB306EB5D0FB420808C535E5B37F590E2057F003A08BE7A1F7FD90039399B1E36
310
19049F569F9697A4BC8BC6C5AC3AAFCD4B9421980848DD73D343505733CB42A6981DE1562C52DDE4640AFAEE329C92D5E879C4EABCCF5EAC59419C4FF550B7E3190F6CC7703DB6151E8E2DC1ED78640D65A4194F0D2F3758F068E7F77DB51A198D0651115A614231DD7F52D2B17D57ED30693A4278B9D9FF4069D1FF849275
310
9155AF779F580041F3238F81E0E596452E8FA072DD72133F504B0304140006080800EC54334055019EA25F0000007C00000007000000636E782E786D6C4DCB3B0E80201045D1AD90E915ED2CF8AC45050C11660C8261F98AB1B07AC9C97D42D718D865D3E909258CFD00CCE24AC6E326A164D74DC0B4128928FF326038472B
310
A13128B1252AC747C6BAB984FC68F0B87FE8960A5C09FE86CFB69FBA01504B0304140006080800EC543340F7D9A4DD66010000020300000C0000006662782F636F72652E786D6C8D52ED8EC220107C15C27F0AFDB09E06319AEA13DC0B608B3D620B8642E3E3DFF6C3785E8C314D2899D9D99D9D966F6F6D837AE53A6DCD06
310
C711C34899D256DAD41B1CFC997C61B415DC59EBFF94616464AB367880B1E0B5B3E13A43A5355E190FA8B1959A41D975CA63543670D9E0AEFC51AD8C64F050D15DA2AB2C2FB256511C010D758277DE8101340D194E2CCEA71BA7132E7808BA9A595DC1347DD6CA61713C64BB6C591CC92E5DA4242B9609D9ED978C2C8B7D9A
310
C729CB8B43CEE92016DCEBF6EEAE744A7A556191B038212C26F1EA3B66EB74B54E1684E56BC6381DCA9F44E15A7D280ADAF83499ED4EB20E8B188C8CC4BF6D21228F3AD9831F2A381D4284D798F073D0100884ECE5A9B9EF7101A857A5B72E03A6B2E141F5B2090AA632343E9C4E2C741E1BC0662FFB246FFABCEF011F509A
310
1AAC490FD753F0C3743E4D9DA3B82A477A7F43C6BA56360F7393C5C7F918F4525EDAC6BA4FD4745E95CE61D2E1EF15BF504B0304140006080800EC543340319DD36B7E0000009D0000000B0000006662782F636E782E786D6C4DCCD10A83201886E15B91FFDCD546730A6A58BAFB886521990EA76397BF1A1DECE883878F97
310
B79FD5A3B74D2F178380F3A90664C3238E2ECC024A9E3005D44A9E62CC7F37406158AD809D41F239C5F23C68B4D3507CDED4BBB01CA83555B56206778A11DCDC2F0DA69DEE3163C498AB263DD337A824AF7EA56DF7B0FC02504B0304140006080800EC543340002CC3322C01000014020000310000006662782F4444384130
310
4139452D424139362D344632342D384244432D3939364545354436433944372F636F72652E786D6C8D51CB6EC32010FC15C4293D6003765C1361A2244EBFA03FE0D8C44589C1E251E5F30BB523B5B75C58343B333BDAE5FBC77407DFD23A65740349862190BA3783D2630383BFA21A82BDE0D618FF870681EE26D9C00443C1
310
476BC2BC42BDD15E6A1F516D06B9829D73D243D0DFE3A781AEFF92539775C14786BB6573D7DFBA5166248BEDC813DC791B038065487AA168DBFA800FEC8C8E0756A1F28396A83EB627C458753E6FDBEAC4DA779E2F42C14350C32A57438CA3AE4ADA574D925870AFA667FCDECACECB010A8A09459820C23E09DE156C47B708
310
573B8C799EE8FF44611E5E1405A57D41D7B88BCC414178BE34041F4CB8DC9F61E46336D683346FE364FF0605CE302D695D9092E70B352E207A56E5EAE9BCB171C19BDB25B28BD5B82A05CFD38D62F93D60ACE99EE207504B0304140006080800EC543340E04CE2C15401000033030000300000006662782F44443841304139
310
452D424139362D344632342D384244432D3939364545354436433944372F636E782E786D6CBD93CD6E022114855F85B09F5FED440D8349177D822EBA45B85A2A03137E9AFAF6BD285A372E9A34DD90C9B987736EBE306CFB3519F2093E686747DAD52D2560A553DA1E469AE2BE5A51B2E5CC3B17EF6C945831C148B34C393B
310
7897E62229D88B6422AA46DB63113D0497BC848072BE498C93C26000D82AA108D30E9402456E46FCDA83C75550DC9D487C07F2F2FC46DCEE03640CACC9299C35B983B37C96A63B1325D28810461AE43B4CA216293A05E1582B1145DDD5D7AE073BFD24917CE15A99BC26B97CA4F9A4BC6C542347D6E090B3103DD22BA6789A
310
817231CF464B11117273365E3C9C256DE3B02C5E8DE03DBA17FDB05A61D879C659D4131487F4202228CAFBB6EBABB6ABBAF56BD76E16EB4DFF54B5C3A66D5993ED9CED9C33E512C680773391CE46B091F28E3579FC085FF111A53DB276FEF40B9008A0B45EE8DC32FE924F372C96CB7FE4D39CDF37E2F2F817F06F504B0304
310
140006080800EC54334068C3258E56070000931B0000340000006662782F44443841304139452D424139362D344632342D384244432D3939364545354436433944372F6F626A656374732E786D6CED595B6FA33814FE2B887D0E0949DA695794519B4CAB68D599D16467B40F9190030EF5D618649B5EF6D7EFF1050234B464
310
A7FB360F0960ECE373BE73F521F8F89451E70173417276E1FADEC475308BF384B0F4C22DE56E74E63A1FC380E7B96C4C731D86327CE1AA61370C529E97851D4AF00E95547646AFAFFE72448C19769D9822212E5C11DFE10C79A8947982C5BD972089BC74F7E4F99E99D8269B7254DC7588168863268153186740C5314CF9ED
310
C7893B0E83B17A1F06EADFCE9A0D9A35EF9F35D652B7B9244C48C4E2172C75C8CC06B134F3E7CB4FD393F3D1C97C3E1BCD4FA7FEE8EAFA6A39F23FCC268BD3C5E2FCF2D339B0B7CD736A654A70815902FA7B76433F18AB37B5E81681435CC7396338D64002545AAC2E4182056CD5806FD27EF495448DD75AC2C6F35CBDB72C
310
3486676D2A7DB38601D1A20B82D8ED2A89AB6B53BE7CFB37082E861825175802B74272D0AE85878357B8E124189BD130D8EE7541849321893941D4A164CB1107A5C05435250CCC024B46390707528E92406BCEBC6EDB1678E6DBAE7388CB5D49A9F20C37D48E1581FB61293467E41FCCF7DC3791019E40DA92307966B994CF
310
0576C3F360AC07C3405D6653FBD200E9EC284A8546C4BCED08BA50AEBF5ABAE11FD7DBA7B50A0787372F785E602E95D1293D6ABEC090ED55A164B7F507694E2D00610CA876E51E946F80FC67881E7B56406F9C3CCD9FE676AEE488895DCE33D08D33714613F89B38BEFE57F78DBB605C2F6E6BAF0F4F705305D5D9CFE3D996
310
416365F96FC019060F60F0399FD957EB1851B0E75BC2002065240ECD610842FB6EFBE4862B089C10E86115A2A10F2203BB0F701B8C2D99BD562AF7B25EC70051BBC76C889200366D91C0468F9E6E207B7012EFD5D414B10FDE937731D7CBE5FA8F75C97728C6B7D6A7977847189190350F33D4C2BC25D13D7E7ECC790282BE
310
C47BDDC43BB35B09405B61AE804F2B10D4C37EE7D60631AC4B73156E823776002154AE6ED0BF2522C6942286F3B2DAB78E6ECA506B8FB735831B4E0DC4B369C784397E20AAAA00A7D9CF68310A793FE6A45020BAE18D91AC0E9A5E8F74DF579FC122EBF93DB3560C422F43F44F1DB40EE0D0B2EC0A690B442DF0761FCEE39C
310
E63CDA3E4726D2B9504B001B6D6FF9D1220AB1DE284951010FD27E578594D4481B2564B72B05C4D5032CFE582D9AE630F166FE89D3FCEF38E31CA22DF82EE2D6EF3A7B442443298E7628E9DBAEB95B4D5B68923DA439DE51908B3C10F91C21194D129C1E03CD51C4CFDF957A4A732108C302F2D541F09B684C3C0824469B15
310
CB4AAB1DA08988322C113D060145A6075C9D76748D1B43E9F0368FB5F5BEA6B126D1FFC92238825A32671181521472C89B8CFBDE09C49036BA06E50EBE606D156D2D062DA184889FA3474CD23B790CEA867C0FEE311C494A19E5058AC1AC07907DE12B4AA91DDEB728BE57F9238A4BFA5E062230DD4584D2328BE047189C3C
310
86B8761D985E45A141DCC43E893328CA902CF9904D4E4F262FF631354337043636DA110A613BCA50D1837A2B20EA7AC4A9C1B7D47B94BA2DB32242595EB24186E2CDBADE64C977D5AAC80EE457958A503656842DC130204CD659B58AD960EA3AB0821BE940F51C099415D49CC2DE483C7EED4D9A72EF06DCFAE9FB6E9041E1
310
D7A3BD66449D5730581E5B8581784432BE73C3B5BE8EAEA0FE4E70B24FF555ADD9AC00013115C94B4EAC8ABEAFA0BCB1359A1BDE2229363726EB56D7EF2B0FBA1FC118D640ED522F5C29A033CC245295C9ADBAA1DF1084E0160D33BE5239F5182A9749A2AB4644AF499F3A5B65446BD38C78C51D6679063FB6212CA6658237
310
2811F7D1ADA4D19A28D6AD945E462A8C5F15F0CBCDBA030F8C0C10E9AB2AF0F06367AD1D5DA872E920117957665B860804C19668A9D18D57B0D46AA4D2727D55670AA8BBC0C0AC8AE7BF4E16CD76C4AF93456A0DE3E74E1634DF22BA8F368D6C1E2BB33EEA1450A72745E53D4E01BAEB5053AD9388C9E5567CEB4B11C4C42A
310
C80F2EC6AA986108F671FC9F93765F1234DB75F83F2E69FB2F0A8EA3924A6BB26A521D285C57CD14B6F06727FEE5A7E5E8E4C3D91CFAB31F4E4767E70BB8BB9ACF965767D3E9F9873D47DA4FC3A08E653A75C1B38969D5B07AB218405356E4942470984F9C1443C89770A41FD03DE71916903B9BBDEEC4F6E407AC7E306D4E
310
89B614579CDC21E80F5301591D302A63D91E777E83CEA48473F6850B3D23EF1EFEAC55BA0E249E0B173A0592C458785BE832A97E9E260E1957A77E4B0CF0412C5519D12CAA9FEB550A9B56F4AFA70CC90256AE560B03EAB6029A5FAD0685E6CDF2141F2578C58E8324DC6E4B09C59A91653F500BA3B7D9ABDFC84609BBB75B
310
3F81EBBE2E96EFE9392D44067D3178D5080CD591443CD5ED6EC59865E972F9750C6D3667F5C5296899822E87531A710CC65CAA7A0AAC08ACC2D22C9004535DFCBEF9CA73F8C29339BA28DA2CF22CCB997DB884E358025F889CF51D7CEF4936503560D555179BE9C49F6E7437DB36D8A32D12D853E5100C54558412A1636C60
310
912F3A53B66F39564AE84C5F2D1D1B3EA10B602CE84573D77CDD72C07BD47714E52BDAC32B395F6D688FF554B0060EADE8F05F504B0304140006080000EC543340000000000000000000000000350000006662782F44443841304139452D424139362D344632342D384244432D3939364545354436433944372F7665727469
310
6365732E62696E504B0304140006080800EC543340F270F1330600000004000000360000006662782F44443841304139452D424139362D344632342D384244432D3939364545354436433944372F747269616E676C65732E62696E636660600000504B0304140006080000EC54334000000000000000000000000037000000
310
6662782F44443841304139452D424139362D344632342D384244432D3939364545354436433944372F617474726962757465732E62696E504B0304140006080800EC543340D5987DFC8F00000041010000360000006662782F44443841304139452D424139362D344632342D384244432D3939364545354436433944372F64
310
69726563746F72792E786D6C858F410EC2201045AF4266AF15DDB800BA74E7C21B903225242D6328188F2FA5C4183471359997F9FF81E89FF3C41E1816475E02DF1F80A11FC8386F25A438EECEC07A250251FC3803E6F58C12560C4AD840E95E91C151A72936F496F35732D860FE635F62C8F2DA16B505C545B74125BAA2FA
310
9E05D7CC053D063734D5C7665FD55B6B8D15D5E9BFEAFD8490FFA45E504B0304140006080800EC5433407302EC71FD000000A00100003B0000006662782F44443841304139452D424139362D344632342D384244432D3939364545354436433944372F7265736F75726365732F636F72652E786D6C8D504B6E833010BD0A9A
310
BDC1C60934C8384A447A825EC032136225D8C89FAAC7AF49A8D4EEBA9919BD8FE6E989E3D7FC283ED107E36C0FACA450A0D56E3476EA21C52B7983E22885772EFE924161D58C3DAC3048317997960DD2CE46B431A3D68DB8812A048C50E8473E7A08FA86B32A558A5911EEE5A2F45D4D58B232D3592745883E07285E4FD609
310
D26370C96B0CA27AB152A464C64D63C6FCD35C0D7A90EF97DD69D70E1772E27B4E76435B93D3B9A5A41DCEBC619C36C3A511D56A96229AF927A3F6A8228E206BCA6A421961870F463B7EE8EA3DA14D47A9A856F91F535AC67F9A92B191D75BDC972D806439C89390A25AFBCAEB5966DE6BB7F21B504B010214000A00000800
310
00EC5433403DEE336E79000000790000001B00000000000000000000000000000000006175746F6465736B2D64657369676E2D7061636B6167652E786D6C504B01021400140006080800EC543340D486FD9CA0000000F40000001300000000000000000000000000B20000005B436F6E74656E745F54797065735D2E786D6C
310
504B01021400140006080800EC5433401BE8B140EA0000007C010000080000000000000000000000000083010000636F72652E786D6C504B01021400140006080800EC54334055019EA25F0000007C000000070000000000000000000000000093020000636E782E786D6C504B01021400140006080800EC543340F7D9A4DD
310
66010000020300000C00000000000000000000000000170300006662782F636F72652E786D6C504B01021400140006080800EC543340319DD36B7E0000009D0000000B00000000000000000000000000A70400006662782F636E782E786D6C504B01021400140006080800EC543340002CC3322C0100001402000031000000
310
000000000000000000004E0500006662782F44443841304139452D424139362D344632342D384244432D3939364545354436433944372F636F72652E786D6C504B01021400140006080800EC543340E04CE2C154010000330300003000000000000000000000000000C90600006662782F44443841304139452D424139362D
310
344632342D384244432D3939364545354436433944372F636E782E786D6C504B01021400140006080800EC54334068C3258E56070000931B000034000000000000000000000000006B0800006662782F44443841304139452D424139362D344632342D384244432D3939364545354436433944372F6F626A656374732E786D
310
6C504B01021400140006080000EC5433400000000000000000000000003500000000000000000000000000131000006662782F44443841304139452D424139362D344632342D384244432D3939364545354436433944372F76657274696365732E62696E504B01021400140006080800EC543340F270F13306000000040000
310
003600000000000000000000000000661000006662782F44443841304139452D424139362D344632342D384244432D3939364545354436433944372F747269616E676C65732E62696E504B01021400140006080000EC5433400000000000000000000000003700000000000000000000000000C01000006662782F44443841
310
304139452D424139362D344632342D384244432D3939364545354436433944372F617474726962757465732E62696E504B01021400140006080800EC543340D5987DFC8F000000410100003600000000000000000000000000151100006662782F44443841304139452D424139362D344632342D384244432D393936454535
310
4436433944372F6469726563746F72792E786D6C504B01021400140006080800EC5433407302EC71FD000000A00100003B00000000000000000000000000F81100006662782F44443841304139452D424139362D344632342D384244432D3939364545354436433944372F7265736F75726365732F636F72652E786D6C504B
310
0506000000000E000E00800400004E1300000000
  0
XRECORD
  5
27
102
{ACAD_REACTORS
330
22
102
}
330
22
100
AcDbXrecord
280
     1
270
     1
271
     1
  0
XRECORD
  5
26
102
{ACAD_REACTORS
330
22
102
}
330
22
100
AcDbXrecord
280
     1
270
     1
271
     1
  0
XRECORD
  5
28
102
{ACAD_REACTORS
330
22
102
}
330
22
100
AcDbXrecord
280
     1
270
     1
271
     1
  0
XRECORD
  5
25
102
{ACAD_REACTORS
330
22
102
}
330
22
100
AcDbXrecord
280
     1
270
     1
271
     1
  0
XRECORD
  5
F36
102
{ACAD_REACTORS
330
F35
102
}
330
F35
100
AcDbXrecord
280
     1
102
ACAD_ROUNDTRIP_2012_MLEADER_STYLE
298
     1
  0
CELLSTYLEMAP
  5
F34
102
{ACAD_REACTORS
330
F33
102
}
330
F33
100
AcDbCellStyleMap
 90
        3
300
CELLSTYLE
  1
TABLEFORMAT_BEGIN
 90
        5
170
     1
 91
        0
 92
    32768
 62
   257
 93
        1
300
CONTENTFORMAT
  1
CONTENTFORMAT_BEGIN
 90
        0
 91
        0
 92
      512
 93
        0
300

 40
0.0
140
1.0
 94
        5
 62
     0
340
55
144
0.25
309
CONTENTFORMAT_END
171
     0
 94
        0
309
TABLEFORMAT_END
  1
CELLSTYLE_BEGIN
 90
        1
 91
        1
300
_TITLE
309
CELLSTYLE_END
300
CELLSTYLE
  1
TABLEFORMAT_BEGIN
 90
        5
170
     1
 91
        0
 92
        0
 62
   257
 93
        1
300
CONTENTFORMAT
  1
CONTENTFORMAT_BEGIN
 90
        0
 91
        0
 92
      512
 93
        0
300

 40
0.0
140
1.0
 94
        5
 62
     0
340
55
144
0.18
309
CONTENTFORMAT_END
171
     0
 94
        0
309
TABLEFORMAT_END
  1
CELLSTYLE_BEGIN
 90
        2
 91
        1
300
_HEADER
309
CELLSTYLE_END
300
CELLSTYLE
  1
TABLEFORMAT_BEGIN
 90
        5
170
     1
 91
        0
 92
        0
 62
   257
 93
        1
300
CONTENTFORMAT
  1
CONTENTFORMAT_BEGIN
 90
        0
 91
        0
 92
      512
 93
        0
300

 40
0.0
140
1.0
 94
        2
 62
     0
340
55
144
0.18
309
CONTENTFORMAT_END
171
     0
 94
        0
309
TABLEFORMAT_END
  1
CELLSTYLE_BEGIN
 90
        3
 91
        2
300
_DATA
309
CELLSTYLE_END
  0
XRECORD
  5
F6C
102
{ACAD_REACTORS
330
F33
102
}
330
F33
100
AcDbXrecord
280
     1
102
ACAD_ROUNDTRIP_PRE2007_TABLESTYLE
 90
      512
 91
        0
  1

 92
      512
 93
        0
  2

 94
      512
 95
        0
  3

  0
XRECORD
  5
F47
102
{ACAD_REACTORS
330
F46
102
}
330
F46
100
AcDbXrecord
280
     1
102
RTVSPropertyOp0
 70
     1
102
RTVSPropertyOp1
 70
     1
102
RTVSPropertyOp2
 70
     1
102
RTVSPropertyOp3
 70
     1
102
RTVSPropertyOp4
 70
     1
102
RTVSPropertyOp5
 70
     1
102
RTVSPropertyOp6
 70
     1
102
RTVSPropertyOp7
 70
     1
102
RTVSPropertyOp8
 70
     1
102
RTVSPropertyOp9
 70
     1
102
RTVSPropertyOp10
 70
     1
102
RTVSPropertyOp11
 70
     1
102
RTVSPropertyOp12
 70
     1
102
RTVSPropertyOp13
 70
     1
102
RTVSPropertyOp14
 70
     1
102
RTVSPropertyOp15
 70
     1
102
RTVSPropertyOp16
 70
     1
102
RTVSPropertyOp17
 70
     1
102
RTVSPropertyOp18
 70
     1
102
RTVSPropertyOp19
 70
     1
102
RTVSPropertyOp20
 70
     1
102
RTVSPropertyOp21
 70
     1
102
RTVSPropertyOp22
 70
     1
102
RTVSPropertyOp23
 70
     1
102
RTVSPropertyOp24
 70
     1
102
RTVSPropertyOp25
 70
     1
102
RTVSPropertyOp26
 70
     1
102
RTVSPropertyOp27
 70
     1
102
RTVSPropertyOp28
 70
     1
102
RTVSPropertyOp29
 70
     1
102
RTVSPropertyOp30
 70
     1
102
RTVSPropertyOp31
 70
     1
102
RTVSPropertyOp32
 70
     1
  0
XRECORD
  5
F45
102
{ACAD_REACTORS
330
F44
102
}
330
F44
100
AcDbXrecord
280
     1
102
RTVSPropertyOp0
 70
     1
102
RTVSPropertyOp1
 70
     1
102
RTVSPropertyOp2
 70
     1
102
RTVSPropertyOp3
 70
     1
102
RTVSPropertyOp4
 70
     1
102
RTVSPropertyOp5
 70
     1
102
RTVSPropertyOp6
 70
     1
102
RTVSPropertyOp7
 70
     1
102
RTVSPropertyOp8
 70
     1
102
RTVSPropertyOp9
 70
     1
102
RTVSPropertyOp10
 70
     1
102
RTVSPropertyOp11
 70
     1
102
RTVSPropertyOp12
 70
     1
102
RTVSPropertyOp13
 70
     1
102
RTVSPropertyOp14
 70
     1
102
RTVSPropertyOp15
 70
     1
102
RTVSPropertyOp16
 70
     1
102
RTVSPropertyOp17
 70
     1
102
RTVSPropertyOp18
 70
     1
102
RTVSPropertyOp19
 70
     1
102
RTVSPropertyOp20
 70
     1
102
RTVSPropertyOp21
 70
     1
102
RTVSPropertyOp22
 70
     1
102
RTVSPropertyOp23
 70
     1
102
RTVSPropertyOp24
 70
     1
102
RTVSPropertyOp25
 70
     1
102
RTVSPropertyOp26
 70
     1
102
RTVSPropertyOp27
 70
     1
102
RTVSPropertyOp28
 70
     1
102
RTVSPropertyOp29
 70
     1
102
RTVSPropertyOp30
 70
     1
102
RTVSPropertyOp31
 70
     1
102
RTVSPropertyOp32
 70
     1
  0
XRECORD
  5
F53
102
{ACAD_REACTORS
330
F52
102
}
330
F52
100
AcDbXrecord
280
     1
102
RTVSPropertyOp0
 70
     1
102
RTVSPropertyOp1
 70
     1
102
RTVSPropertyOp2
 70
     1
102
RTVSPropertyOp3
 70
     1
102
RTVSPropertyOp4
 70
     1
102
RTVSPropertyOp5
 70
     1
102
RTVSPropertyOp6
 70
     1
102
RTVSPropertyOp7
 70
     1
102
RTVSPropertyOp8
 70
     1
102
RTVSPropertyOp9
 70
     1
102
RTVSPropertyOp10
 70
     1
102
RTVSPropertyOp11
 70
     1
102
RTVSPropertyOp12
 70
     1
102
RTVSPropertyOp13
 70
     1
102
RTVSPropertyOp14
 70
     1
102
RTVSPropertyOp15
 70
     1
102
RTVSPropertyOp16
 70
     1
102
RTVSPropertyOp17
 70
     1
102
RTVSPropertyOp18
 70
     1
102
RTVSPropertyOp19
 70
     1
102
RTVSPropertyOp20
 70
     1
102
RTVSPropertyOp21
 70
     1
102
RTVSPropertyOp22
 70
     1
102
RTVSPropertyOp23
 70
     1
102
RTVSPropertyOp24
 70
     1
102
RTVSPropertyOp25
 70
     1
102
RTVSPropertyOp26
 70
     1
102
RTVSPropertyOp27
 70
     1
102
RTVSPropertyOp28
 70
     1
102
RTVSPropertyOp29
 70
     1
102
RTVSPropertyOp30
 70
     1
102
RTVSPropertyOp31
 70
     1
102
RTVSPropertyOp32
 70
     1
  0
XRECORD
  5
F5B
102
{ACAD_REACTORS
330
F5A
102
}
330
F5A
100
AcDbXrecord
280
     1
102
RTVSPropertyOp0
 70
     1
102
RTVSPropertyOp1
 70
     1
102
RTVSPropertyOp2
 70
     1
102
RTVSPropertyOp3
 70
     1
102
RTVSPropertyOp4
 70
     1
102
RTVSPropertyOp5
 70
     1
102
RTVSPropertyOp6
 70
     1
102
RTVSPropertyOp7
 70
     1
102
RTVSPropertyOp8
 70
     1
102
RTVSPropertyOp9
 70
     1
102
RTVSPropertyOp10
 70
     1
102
RTVSPropertyOp11
 70
     1
102
RTVSPropertyOp12
 70
     1
102
RTVSPropertyOp13
 70
     1
102
RTVSPropertyOp14
 70
     1
102
RTVSPropertyOp15
 70
     1
102
RTVSPropertyOp16
 70
     1
102
RTVSPropertyOp17
 70
     1
102
RTVSPropertyOp18
 70
     1
102
RTVSPropertyOp19
 70
     1
102
RTVSPropertyOp20
 70
     1
102
RTVSPropertyOp21
 70
     1
102
RTVSPropertyOp22
 70
     1
102
RTVSPropertyOp23
 70
     1
102
RTVSPropertyOp24
 70
     1
102
RTVSPropertyOp25
 70
     1
102
RTVSPropertyOp26
 70
     1
102
RTVSPropertyOp27
 70
     1
102
RTVSPropertyOp28
 70
     1
102
RTVSPropertyOp29
 70
     1
102
RTVSPropertyOp30
 70
     1
102
RTVSPropertyOp31
 70
     1
102
RTVSPropertyOp32
 70
     1
  0
XRECORD
  5
F4D
102
{ACAD_REACTORS
330
F4C
102
}
330
F4C
100
AcDbXrecord
280
     1
102
RTVSPropertyOp0
 70
     1
102
RTVSPropertyOp1
 70
     1
102
RTVSPropertyOp2
 70
     1
102
RTVSPropertyOp3
 70
     1
102
RTVSPropertyOp4
 70
     1
102
RTVSPropertyOp5
 70
     1
102
RTVSPropertyOp6
 70
     1
102
RTVSPropertyOp7
 70
     1
102
RTVSPropertyOp8
 70
     1
102
RTVSPropertyOp9
 70
     1
102
RTVSPropertyOp10
 70
     1
102
RTVSPropertyOp11
 70
     1
102
RTVSPropertyOp12
 70
     1
102
RTVSPropertyOp13
 70
     1
102
RTVSPropertyOp14
 70
     1
102
RTVSPropertyOp15
 70
     1
102
RTVSPropertyOp16
 70
     1
102
RTVSPropertyOp17
 70
     1
102
RTVSPropertyOp18
 70
     1
102
RTVSPropertyOp19
 70
     1
102
RTVSPropertyOp20
 70
     1
102
RTVSPropertyOp21
 70
     1
102
RTVSPropertyOp22
 70
     1
102
RTVSPropertyOp23
 70
     1
102
RTVSPropertyOp24
 70
     1
102
RTVSPropertyOp25
 70
     1
102
RTVSPropertyOp26
 70
     1
102
RTVSPropertyOp27
 70
     1
102
RTVSPropertyOp28
 70
     1
102
RTVSPropertyOp29
 70
     1
102
RTVSPropertyOp30
 70
     1
102
RTVSPropertyOp31
 70
     1
102
RTVSPropertyOp32
 70
     1
  0
XRECORD
  5
F51
102
{ACAD_REACTORS
330
F50
102
}
330
F50
100
AcDbXrecord
280
     1
102
RTVSPropertyOp0
 70
     1
102
RTVSPropertyOp1
 70
     1
102
RTVSPropertyOp2
 70
     1
102
RTVSPropertyOp3
 70
     1
102
RTVSPropertyOp4
 70
     1
102
RTVSPropertyOp5
 70
     1
102
RTVSPropertyOp6
 70
     1
102
RTVSPropertyOp7
 70
     1
102
RTVSPropertyOp8
 70
     1
102
RTVSPropertyOp9
 70
     1
102
RTVSPropertyOp10
 70
     1
102
RTVSPropertyOp11
 70
     1
102
RTVSPropertyOp12
 70
     1
102
RTVSPropertyOp13
 70
     1
102
RTVSPropertyOp14
 70
     1
102
RTVSPropertyOp15
 70
     1
102
RTVSPropertyOp16
 70
     1
102
RTVSPropertyOp17
 70
     1
102
RTVSPropertyOp18
 70
     1
102
RTVSPropertyOp19
 70
     1
102
RTVSPropertyOp20
 70
     1
102
RTVSPropertyOp21
 70
     1
102
RTVSPropertyOp22
 70
     1
102
RTVSPropertyOp23
 70
     1
102
RTVSPropertyOp24
 70
     1
102
RTVSPropertyOp25
 70
     1
102
RTVSPropertyOp26
 70
     1
102
RTVSPropertyOp27
 70
     1
102
RTVSPropertyOp28
 70
     1
102
RTVSPropertyOp29
 70
     1
102
RTVSPropertyOp30
 70
     1
102
RTVSPropertyOp31
 70
     1
102
RTVSPropertyOp32
 70
     1
  0
XRECORD
  5
F6B
102
{ACAD_REACTORS
330
F6A
102
}
330
F6A
100
AcDbXrecord
280
     1
102
RTVSPropertyOp0
 70
     0
102
RTVSPropertyOp1
 70
     0
102
RTVSPropertyOp2
 70
     0
102
RTVSPropertyOp3
 70
     0
102
RTVSPropertyOp4
 70
     0
102
RTVSPropertyOp5
 70
     0
102
RTVSPropertyOp6
 70
     0
102
RTVSPropertyOp7
 70
     0
102
RTVSPropertyOp8
 70
     0
102
RTVSPropertyOp9
 70
     0
102
RTVSPropertyOp10
 70
     0
102
RTVSPropertyOp11
 70
     0
102
RTVSPropertyOp12
 70
     0
102
RTVSPropertyOp13
 70
     0
102
RTVSPropertyOp14
 70
     2
102
RTVSPropertyOp15
 70
     0
102
RTVSPropertyOp16
 70
     0
102
RTVSPropertyOp17
 70
     0
102
RTVSPropertyOp18
 70
     0
102
RTVSPropertyOp19
 70
     0
102
RTVSPropertyOp20
 70
     0
102
RTVSPropertyOp21
 70
     0
102
RTVSPropertyOp22
 70
     0
102
RTVSPropertyOp23
 70
     0
102
RTVSPropertyOp24
 70
     0
102
RTVSPropertyOp25
 70
     0
102
RTVSPropertyOp26
 70
     0
102
RTVSPropertyOp27
 70
     0
102
RTVSPropertyOp28
 70
     1
102
RTVSPropertyOp29
 70
     1
102
RTVSPropertyOp30
 70
     1
102
RTVSPropertyOp31
 70
     1
102
RTVSPropertyOp32
 70
     1
  0
XRECORD
  5
F59
102
{ACAD_REACTORS
330
F58
102
}
330
F58
100
AcDbXrecord
280
     1
102
RTVSPropertyOp0
 70
     1
102
RTVSPropertyOp1
 70
     1
102
RTVSPropertyOp2
 70
     1
102
RTVSPropertyOp3
 70
     1
102
RTVSPropertyOp4
 70
     1
102
RTVSPropertyOp5
 70
     1
102
RTVSPropertyOp6
 70
     1
102
RTVSPropertyOp7
 70
     1
102
RTVSPropertyOp8
 70
     1
102
RTVSPropertyOp9
 70
     1
102
RTVSPropertyOp10
 70
     1
102
RTVSPropertyOp11
 70
     1
102
RTVSPropertyOp12
 70
     1
102
RTVSPropertyOp13
 70
     1
102
RTVSPropertyOp14
 70
     1
102
RTVSPropertyOp15
 70
     1
102
RTVSPropertyOp16
 70
     1
102
RTVSPropertyOp17
 70
     1
102
RTVSPropertyOp18
 70
     1
102
RTVSPropertyOp19
 70
     1
102
RTVSPropertyOp20
 70
     1
102
RTVSPropertyOp21
 70
     1
102
RTVSPropertyOp22
 70
     1
102
RTVSPropertyOp23
 70
     1
102
RTVSPropertyOp24
 70
     1
102
RTVSPropertyOp25
 70
     1
102
RTVSPropertyOp26
 70
     1
102
RTVSPropertyOp27
 70
     1
102
RTVSPropertyOp28
 70
     1
102
RTVSPropertyOp29
 70
     1
102
RTVSPropertyOp30
 70
     1
102
RTVSPropertyOp31
 70
     1
102
RTVSPropertyOp32
 70
     1
  0
XRECORD
  5
F3D
102
{ACAD_REACTORS
330
F3C
102
}
330
F3C
100
AcDbXrecord
280
     1
102
RTVSPropertyOp0
 70
     1
102
RTVSPropertyOp1
 70
     1
102
RTVSPropertyOp2
 70
     1
102
RTVSPropertyOp3
 70
     1
102
RTVSPropertyOp4
 70
     1
102
RTVSPropertyOp5
 70
     1
102
RTVSPropertyOp6
 70
     1
102
RTVSPropertyOp7
 70
     1
102
RTVSPropertyOp8
 70
     1
102
RTVSPropertyOp9
 70
     1
102
RTVSPropertyOp10
 70
     1
102
RTVSPropertyOp11
 70
     1
102
RTVSPropertyOp12
 70
     1
102
RTVSPropertyOp13
 70
     1
102
RTVSPropertyOp14
 70
     1
102
RTVSPropertyOp15
 70
     1
102
RTVSPropertyOp16
 70
     1
102
RTVSPropertyOp17
 70
     1
102
RTVSPropertyOp18
 70
     1
102
RTVSPropertyOp19
 70
     1
102
RTVSPropertyOp20
 70
     1
102
RTVSPropertyOp21
 70
     1
102
RTVSPropertyOp22
 70
     1
102
RTVSPropertyOp23
 70
     1
102
RTVSPropertyOp24
 70
     1
102
RTVSPropertyOp25
 70
     1
102
RTVSPropertyOp26
 70
     1
102
RTVSPropertyOp27
 70
     1
102
RTVSPropertyOp28
 70
     1
102
RTVSPropertyOp29
 70
     1
102
RTVSPropertyOp30
 70
     1
102
RTVSPropertyOp31
 70
     1
102
RTVSPropertyOp32
 70
     1
  0
XRECORD
  5
F3F
102
{ACAD_REACTORS
330
F3E
102
}
330
F3E
100
AcDbXrecord
280
     1
102
RTVSPropertyOp0
 70
     1
102
RTVSPropertyOp1
 70
     1
102
RTVSPropertyOp2
 70
     1
102
RTVSPropertyOp3
 70
     1
102
RTVSPropertyOp4
 70
     1
102
RTVSPropertyOp5
 70
     1
102
RTVSPropertyOp6
 70
     1
102
RTVSPropertyOp7
 70
     1
102
RTVSPropertyOp8
 70
     1
102
RTVSPropertyOp9
 70
     1
102
RTVSPropertyOp10
 70
     1
102
RTVSPropertyOp11
 70
     1
102
RTVSPropertyOp12
 70
     1
102
RTVSPropertyOp13
 70
     1
102
RTVSPropertyOp14
 70
     1
102
RTVSPropertyOp15
 70
     1
102
RTVSPropertyOp16
 70
     1
102
RTVSPropertyOp17
 70
     1
102
RTVSPropertyOp18
 70
     1
102
RTVSPropertyOp19
 70
     1
102
RTVSPropertyOp20
 70
     1
102
RTVSPropertyOp21
 70
     1
102
RTVSPropertyOp22
 70
     1
102
RTVSPropertyOp23
 70
     1
102
RTVSPropertyOp24
 70
     1
102
RTVSPropertyOp25
 70
     1
102
RTVSPropertyOp26
 70
     1
102
RTVSPropertyOp27
 70
     1
102
RTVSPropertyOp28
 70
     1
102
RTVSPropertyOp29
 70
     1
102
RTVSPropertyOp30
 70
     1
102
RTVSPropertyOp31
 70
     1
102
RTVSPropertyOp32
 70
     1
  0
XRECORD
  5
F41
102
{ACAD_REACTORS
330
F40
102
}
330
F40
100
AcDbXrecord
280
     1
102
RTVSPropertyOp0
 70
     1
102
RTVSPropertyOp1
 70
     1
102
RTVSPropertyOp2
 70
     1
102
RTVSPropertyOp3
 70
     1
102
RTVSPropertyOp4
 70
     1
102
RTVSPropertyOp5
 70
     1
102
RTVSPropertyOp6
 70
     1
102
RTVSPropertyOp7
 70
     1
102
RTVSPropertyOp8
 70
     1
102
RTVSPropertyOp9
 70
     1
102
RTVSPropertyOp10
 70
     1
102
RTVSPropertyOp11
 70
     1
102
RTVSPropertyOp12
 70
     1
102
RTVSPropertyOp13
 70
     1
102
RTVSPropertyOp14
 70
     1
102
RTVSPropertyOp15
 70
     1
102
RTVSPropertyOp16
 70
     1
102
RTVSPropertyOp17
 70
     1
102
RTVSPropertyOp18
 70
     1
102
RTVSPropertyOp19
 70
     1
102
RTVSPropertyOp20
 70
     1
102
RTVSPropertyOp21
 70
     1
102
RTVSPropertyOp22
 70
     1
102
RTVSPropertyOp23
 70
     1
102
RTVSPropertyOp24
 70
     1
102
RTVSPropertyOp25
 70
     1
102
RTVSPropertyOp26
 70
     1
102
RTVSPropertyOp27
 70
     1
102
RTVSPropertyOp28
 70
     1
102
RTVSPropertyOp29
 70
     1
102
RTVSPropertyOp30
 70
     1
102
RTVSPropertyOp31
 70
     1
102
RTVSPropertyOp32
 70
     1
  0
XRECORD
  5
F43
102
{ACAD_REACTORS
330
F42
102
}
330
F42
100
AcDbXrecord
280
     1
102
RTVSPropertyOp0
 70
     1
102
RTVSPropertyOp1
 70
     1
102
RTVSPropertyOp2
 70
     1
102
RTVSPropertyOp3
 70
     1
102
RTVSPropertyOp4
 70
     1
102
RTVSPropertyOp5
 70
     1
102
RTVSPropertyOp6
 70
     1
102
RTVSPropertyOp7
 70
     1
102
RTVSPropertyOp8
 70
     1
102
RTVSPropertyOp9
 70
     1
102
RTVSPropertyOp10
 70
     1
102
RTVSPropertyOp11
 70
     1
102
RTVSPropertyOp12
 70
     1
102
RTVSPropertyOp13
 70
     1
102
RTVSPropertyOp14
 70
     1
102
RTVSPropertyOp15
 70
     1
102
RTVSPropertyOp16
 70
     1
102
RTVSPropertyOp17
 70
     1
102
RTVSPropertyOp18
 70
     1
102
RTVSPropertyOp19
 70
     1
102
RTVSPropertyOp20
 70
     1
102
RTVSPropertyOp21
 70
     1
102
RTVSPropertyOp22
 70
     1
102
RTVSPropertyOp23
 70
     1
102
RTVSPropertyOp24
 70
     1
102
RTVSPropertyOp25
 70
     1
102
RTVSPropertyOp26
 70
     1
102
RTVSPropertyOp27
 70
     1
102
RTVSPropertyOp28
 70
     1
102
RTVSPropertyOp29
 70
     1
102
RTVSPropertyOp30
 70
     1
102
RTVSPropertyOp31
 70
     1
102
RTVSPropertyOp32
 70
     1
  0
XRECORD
  5
F4B
102
{ACAD_REACTORS
330
F4A
102
}
330
F4A
100
AcDbXrecord
280
     1
102
RTVSPropertyOp0
 70
     1
102
RTVSPropertyOp1
 70
     1
102
RTVSPropertyOp2
 70
     1
102
RTVSPropertyOp3
 70
     1
102
RTVSPropertyOp4
 70
     1
102
RTVSPropertyOp5
 70
     1
102
RTVSPropertyOp6
 70
     1
102
RTVSPropertyOp7
 70
     1
102
RTVSPropertyOp8
 70
     1
102
RTVSPropertyOp9
 70
     1
102
RTVSPropertyOp10
 70
     1
102
RTVSPropertyOp11
 70
     1
102
RTVSPropertyOp12
 70
     1
102
RTVSPropertyOp13
 70
     1
102
RTVSPropertyOp14
 70
     1
102
RTVSPropertyOp15
 70
     1
102
RTVSPropertyOp16
 70
     1
102
RTVSPropertyOp17
 70
     1
102
RTVSPropertyOp18
 70
     1
102
RTVSPropertyOp19
 70
     1
102
RTVSPropertyOp20
 70
     1
102
RTVSPropertyOp21
 70
     1
102
RTVSPropertyOp22
 70
     1
102
RTVSPropertyOp23
 70
     1
102
RTVSPropertyOp24
 70
     1
102
RTVSPropertyOp25
 70
     1
102
RTVSPropertyOp26
 70
     1
102
RTVSPropertyOp27
 70
     1
102
RTVSPropertyOp28
 70
     1
102
RTVSPropertyOp29
 70
     1
102
RTVSPropertyOp30
 70
     1
102
RTVSPropertyOp31
 70
     1
102
RTVSPropertyOp32
 70
     1
  0
XRECORD
  5
F67
102
{ACAD_REACTORS
330
F66
102
}
330
F66
100
AcDbXrecord
280
     1
102
RTVSPropertyOp0
 70
     0
102
RTVSPropertyOp1
 70
     0
102
RTVSPropertyOp2
 70
     0
102
RTVSPropertyOp3
 70
     0
102
RTVSPropertyOp4
 70
     0
102
RTVSPropertyOp5
 70
     0
102
RTVSPropertyOp6
 70
     0
102
RTVSPropertyOp7
 70
     0
102
RTVSPropertyOp8
 70
     0
102
RTVSPropertyOp9
 70
     0
102
RTVSPropertyOp10
 70
     0
102
RTVSPropertyOp11
 70
     0
102
RTVSPropertyOp12
 70
     0
102
RTVSPropertyOp13
 70
     0
102
RTVSPropertyOp14
 70
     2
102
RTVSPropertyOp15
 70
     0
102
RTVSPropertyOp16
 70
     0
102
RTVSPropertyOp17
 70
     0
102
RTVSPropertyOp18
 70
     0
102
RTVSPropertyOp19
 70
     0
102
RTVSPropertyOp20
 70
     0
102
RTVSPropertyOp21
 70
     0
102
RTVSPropertyOp22
 70
     0
102
RTVSPropertyOp23
 70
     0
102
RTVSPropertyOp24
 70
     0
102
RTVSPropertyOp25
 70
     0
102
RTVSPropertyOp26
 70
     0
102
RTVSPropertyOp27
 70
     0
102
RTVSPropertyOp28
 70
     1
102
RTVSPropertyOp29
 70
     1
102
RTVSPropertyOp30
 70
     1
102
RTVSPropertyOp31
 70
     1
102
RTVSPropertyOp32
 70
     1
  0
XRECORD
  5
F57
102
{ACAD_REACTORS
330
F56
102
}
330
F56
100
AcDbXrecord
280
     1
102
RTVSPropertyOp0
 70
     1
102
RTVSPropertyOp1
 70
     1
102
RTVSPropertyOp2
 70
     1
102
RTVSPropertyOp3
 70
     1
102
RTVSPropertyOp4
 70
     1
102
RTVSPropertyOp5
 70
     1
102
RTVSPropertyOp6
 70
     1
102
RTVSPropertyOp7
 70
     1
102
RTVSPropertyOp8
 70
     1
102
RTVSPropertyOp9
 70
     1
102
RTVSPropertyOp10
 70
     1
102
RTVSPropertyOp11
 70
     1
102
RTVSPropertyOp12
 70
     1
102
RTVSPropertyOp13
 70
     1
102
RTVSPropertyOp14
 70
     1
102
RTVSPropertyOp15
 70
     1
102
RTVSPropertyOp16
 70
     1
102
RTVSPropertyOp17
 70
     1
102
RTVSPropertyOp18
 70
     1
102
RTVSPropertyOp19
 70
     1
102
RTVSPropertyOp20
 70
     1
102
RTVSPropertyOp21
 70
     1
102
RTVSPropertyOp22
 70
     1
102
RTVSPropertyOp23
 70
     1
102
RTVSPropertyOp24
 70
     1
102
RTVSPropertyOp25
 70
     1
102
RTVSPropertyOp26
 70
     1
102
RTVSPropertyOp27
 70
     1
102
RTVSPropertyOp28
 70
     1
102
RTVSPropertyOp29
 70
     1
102
RTVSPropertyOp30
 70
     1
102
RTVSPropertyOp31
 70
     1
102
RTVSPropertyOp32
 70
     1
  0
XRECORD
  5
F69
102
{ACAD_REACTORS
330
F68
102
}
330
F68
100
AcDbXrecord
280
     1
102
RTVSPropertyOp0
 70
     0
102
RTVSPropertyOp1
 70
     0
102
RTVSPropertyOp2
 70
     0
102
RTVSPropertyOp3
 70
     0
102
RTVSPropertyOp4
 70
     0
102
RTVSPropertyOp5
 70
     0
102
RTVSPropertyOp6
 70
     0
102
RTVSPropertyOp7
 70
     0
102
RTVSPropertyOp8
 70
     0
102
RTVSPropertyOp9
 70
     0
102
RTVSPropertyOp10
 70
     0
102
RTVSPropertyOp11
 70
     0
102
RTVSPropertyOp12
 70
     0
102
RTVSPropertyOp13
 70
     0
102
RTVSPropertyOp14
 70
     2
102
RTVSPropertyOp15
 70
     0
102
RTVSPropertyOp16
 70
     0
102
RTVSPropertyOp17
 70
     0
102
RTVSPropertyOp18
 70
     0
102
RTVSPropertyOp19
 70
     0
102
RTVSPropertyOp20
 70
     0
102
RTVSPropertyOp21
 70
     0
102
RTVSPropertyOp22
 70
     0
102
RTVSPropertyOp23
 70
     0
102
RTVSPropertyOp24
 70
     0
102
RTVSPropertyOp25
 70
     0
102
RTVSPropertyOp26
 70
     0
102
RTVSPropertyOp27
 70
     0
102
RTVSPropertyOp28
 70
     1
102
RTVSPropertyOp29
 70
     1
102
RTVSPropertyOp30
 70
     1
102
RTVSPropertyOp31
 70
     1
102
RTVSPropertyOp32
 70
     1
  0
XRECORD
  5
F4F
102
{ACAD_REACTORS
330
F4E
102
}
330
F4E
100
AcDbXrecord
280
     1
102
RTVSPropertyOp0
 70
     1
102
RTVSPropertyOp1
 70
     1
102
RTVSPropertyOp2
 70
     1
102
RTVSPropertyOp3
 70
     1
102
RTVSPropertyOp4
 70
     1
102
RTVSPropertyOp5
 70
     1
102
RTVSPropertyOp6
 70
     1
102
RTVSPropertyOp7
 70
     1
102
RTVSPropertyOp8
 70
     1
102
RTVSPropertyOp9
 70
     1
102
RTVSPropertyOp10
 70
     1
102
RTVSPropertyOp11
 70
     1
102
RTVSPropertyOp12
 70
     1
102
RTVSPropertyOp13
 70
     1
102
RTVSPropertyOp14
 70
     1
102
RTVSPropertyOp15
 70
     1
102
RTVSPropertyOp16
 70
     1
102
RTVSPropertyOp17
 70
     1
102
RTVSPropertyOp18
 70
     1
102
RTVSPropertyOp19
 70
     1
102
RTVSPropertyOp20
 70
     1
102
RTVSPropertyOp21
 70
     1
102
RTVSPropertyOp22
 70
     1
102
RTVSPropertyOp23
 70
     1
102
RTVSPropertyOp24
 70
     1
102
RTVSPropertyOp25
 70
     1
102
RTVSPropertyOp26
 70
     1
102
RTVSPropertyOp27
 70
     1
102
RTVSPropertyOp28
 70
     1
102
RTVSPropertyOp29
 70
     1
102
RTVSPropertyOp30
 70
     1
102
RTVSPropertyOp31
 70
     1
102
RTVSPropertyOp32
 70
     1
  0
XRECORD
  5
F65
102
{ACAD_REACTORS
330
F64
102
}
330
F64
100
AcDbXrecord
280
     1
102
RTVSPropertyOp0
 70
     1
102
RTVSPropertyOp1
 70
     1
102
RTVSPropertyOp2
 70
     1
102
RTVSPropertyOp3
 70
     1
102
RTVSPropertyOp4
 70
     1
102
RTVSPropertyOp5
 70
     1
102
RTVSPropertyOp6
 70
     1
102
RTVSPropertyOp7
 70
     1
102
RTVSPropertyOp8
 70
     1
102
RTVSPropertyOp9
 70
     1
102
RTVSPropertyOp10
 70
     1
102
RTVSPropertyOp11
 70
     1
102
RTVSPropertyOp12
 70
     1
102
RTVSPropertyOp13
 70
     1
102
RTVSPropertyOp14
 70
     1
102
RTVSPropertyOp15
 70
     1
102
RTVSPropertyOp16
 70
     1
102
RTVSPropertyOp17
 70
     1
102
RTVSPropertyOp18
 70
     1
102
RTVSPropertyOp19
 70
     1
102
RTVSPropertyOp20
 70
     1
102
RTVSPropertyOp21
 70
     1
102
RTVSPropertyOp22
 70
     1
102
RTVSPropertyOp23
 70
     1
102
RTVSPropertyOp24
 70
     1
102
RTVSPropertyOp25
 70
     1
102
RTVSPropertyOp26
 70
     1
102
RTVSPropertyOp27
 70
     1
102
RTVSPropertyOp28
 70
     1
102
RTVSPropertyOp29
 70
     1
102
RTVSPropertyOp30
 70
     1
102
RTVSPropertyOp31
 70
     1
102
RTVSPropertyOp32
 70
     1
  0
XRECORD
  5
F63
102
{ACAD_REACTORS
330
F62
102
}
330
F62
100
AcDbXrecord
280
     1
102
RTVSPropertyOp0
 70
     1
102
RTVSPropertyOp1
 70
     1
102
RTVSPropertyOp2
 70
     1
102
RTVSPropertyOp3
 70
     1
102
RTVSPropertyOp4
 70
     1
102
RTVSPropertyOp5
 70
     1
102
RTVSPropertyOp6
 70
     1
102
RTVSPropertyOp7
 70
     1
102
RTVSPropertyOp8
 70
     1
102
RTVSPropertyOp9
 70
     1
102
RTVSPropertyOp10
 70
     1
102
RTVSPropertyOp11
 70
     1
102
RTVSPropertyOp12
 70
     1
102
RTVSPropertyOp13
 70
     1
102
RTVSPropertyOp14
 70
     1
102
RTVSPropertyOp15
 70
     1
102
RTVSPropertyOp16
 70
     1
102
RTVSPropertyOp17
 70
     1
102
RTVSPropertyOp18
 70
     1
102
RTVSPropertyOp19
 70
     1
102
RTVSPropertyOp20
 70
     1
102
RTVSPropertyOp21
 70
     1
102
RTVSPropertyOp22
 70
     1
102
RTVSPropertyOp23
 70
     1
102
RTVSPropertyOp24
 70
     1
102
RTVSPropertyOp25
 70
     1
102
RTVSPropertyOp26
 70
     1
102
RTVSPropertyOp27
 70
     1
102
RTVSPropertyOp28
 70
     1
102
RTVSPropertyOp29
 70
     1
102
RTVSPropertyOp30
 70
     1
102
RTVSPropertyOp31
 70
     1
102
RTVSPropertyOp32
 70
     1
  0
XRECORD
  5
F5D
102
{ACAD_REACTORS
330
F5C
102
}
330
F5C
100
AcDbXrecord
280
     1
102
RTVSPropertyOp0
 70
     1
102
RTVSPropertyOp1
 70
     1
102
RTVSPropertyOp2
 70
     1
102
RTVSPropertyOp3
 70
     1
102
RTVSPropertyOp4
 70
     1
102
RTVSPropertyOp5
 70
     1
102
RTVSPropertyOp6
 70
     1
102
RTVSPropertyOp7
 70
     1
102
RTVSPropertyOp8
 70
     1
102
RTVSPropertyOp9
 70
     1
102
RTVSPropertyOp10
 70
     1
102
RTVSPropertyOp11
 70
     1
102
RTVSPropertyOp12
 70
     1
102
RTVSPropertyOp13
 70
     1
102
RTVSPropertyOp14
 70
     1
102
RTVSPropertyOp15
 70
     1
102
RTVSPropertyOp16
 70
     1
102
RTVSPropertyOp17
 70
     1
102
RTVSPropertyOp18
 70
     1
102
RTVSPropertyOp19
 70
     1
102
RTVSPropertyOp20
 70
     1
102
RTVSPropertyOp21
 70
     1
102
RTVSPropertyOp22
 70
     1
102
RTVSPropertyOp23
 70
     1
102
RTVSPropertyOp24
 70
     1
102
RTVSPropertyOp25
 70
     1
102
RTVSPropertyOp26
 70
     1
102
RTVSPropertyOp27
 70
     1
102
RTVSPropertyOp28
 70
     1
102
RTVSPropertyOp29
 70
     1
102
RTVSPropertyOp30
 70
     1
102
RTVSPropertyOp31
 70
     1
102
RTVSPropertyOp32
 70
     1
  0
XRECORD
  5
F5F
102
{ACAD_REACTORS
330
F5E
102
}
330
F5E
100
AcDbXrecord
280
     1
102
RTVSPropertyOp0
 70
     1
102
RTVSPropertyOp1
 70
     1
102
RTVSPropertyOp2
 70
     1
102
RTVSPropertyOp3
 70
     1
102
RTVSPropertyOp4
 70
     1
102
RTVSPropertyOp5
 70
     1
102
RTVSPropertyOp6
 70
     1
102
RTVSPropertyOp7
 70
     1
102
RTVSPropertyOp8
 70
     1
102
RTVSPropertyOp9
 70
     1
102
RTVSPropertyOp10
 70
     1
102
RTVSPropertyOp11
 70
     1
102
RTVSPropertyOp12
 70
     1
102
RTVSPropertyOp13
 70
     1
102
RTVSPropertyOp14
 70
     1
102
RTVSPropertyOp15
 70
     1
102
RTVSPropertyOp16
 70
     1
102
RTVSPropertyOp17
 70
     1
102
RTVSPropertyOp18
 70
     1
102
RTVSPropertyOp19
 70
     1
102
RTVSPropertyOp20
 70
     1
102
RTVSPropertyOp21
 70
     1
102
RTVSPropertyOp22
 70
     1
102
RTVSPropertyOp23
 70
     1
102
RTVSPropertyOp24
 70
     1
102
RTVSPropertyOp25
 70
     1
102
RTVSPropertyOp26
 70
     1
102
RTVSPropertyOp27
 70
     1
102
RTVSPropertyOp28
 70
     1
102
RTVSPropertyOp29
 70
     1
102
RTVSPropertyOp30
 70
     1
102
RTVSPropertyOp31
 70
     1
102
RTVSPropertyOp32
 70
     1
  0
XRECORD
  5
F55
102
{ACAD_REACTORS
330
F54
102
}
330
F54
100
AcDbXrecord
280
     1
102
RTVSPropertyOp0
 70
     1
102
RTVSPropertyOp1
 70
     1
102
RTVSPropertyOp2
 70
     1
102
RTVSPropertyOp3
 70
     1
102
RTVSPropertyOp4
 70
     1
102
RTVSPropertyOp5
 70
     1
102
RTVSPropertyOp6
 70
     1
102
RTVSPropertyOp7
 70
     1
102
RTVSPropertyOp8
 70
     1
102
RTVSPropertyOp9
 70
     1
102
RTVSPropertyOp10
 70
     1
102
RTVSPropertyOp11
 70
     1
102
RTVSPropertyOp12
 70
     1
102
RTVSPropertyOp13
 70
     1
102
RTVSPropertyOp14
 70
     1
102
RTVSPropertyOp15
 70
     1
102
RTVSPropertyOp16
 70
     1
102
RTVSPropertyOp17
 70
     1
102
RTVSPropertyOp18
 70
     1
102
RTVSPropertyOp19
 70
     1
102
RTVSPropertyOp20
 70
     1
102
RTVSPropertyOp21
 70
     1
102
RTVSPropertyOp22
 70
     1
102
RTVSPropertyOp23
 70
     1
102
RTVSPropertyOp24
 70
     1
102
RTVSPropertyOp25
 70
     1
102
RTVSPropertyOp26
 70
     1
102
RTVSPropertyOp27
 70
     1
102
RTVSPropertyOp28
 70
     1
102
RTVSPropertyOp29
 70
     1
102
RTVSPropertyOp30
 70
     1
102
RTVSPropertyOp31
 70
     1
102
RTVSPropertyOp32
 70
     1
  0
XRECORD
  5
F49
102
{ACAD_REACTORS
330
F48
102
}
330
F48
100
AcDbXrecord
280
     1
102
RTVSPropertyOp0
 70
     1
102
RTVSPropertyOp1
 70
     1
102
RTVSPropertyOp2
 70
     1
102
RTVSPropertyOp3
 70
     1
102
RTVSPropertyOp4
 70
     1
102
RTVSPropertyOp5
 70
     1
102
RTVSPropertyOp6
 70
     1
102
RTVSPropertyOp7
 70
     1
102
RTVSPropertyOp8
 70
     1
102
RTVSPropertyOp9
 70
     1
102
RTVSPropertyOp10
 70
     1
102
RTVSPropertyOp11
 70
     1
102
RTVSPropertyOp12
 70
     1
102
RTVSPropertyOp13
 70
     1
102
RTVSPropertyOp14
 70
     1
102
RTVSPropertyOp15
 70
     1
102
RTVSPropertyOp16
 70
     1
102
RTVSPropertyOp17
 70
     1
102
RTVSPropertyOp18
 70
     1
102
RTVSPropertyOp19
 70
     1
102
RTVSPropertyOp20
 70
     1
102
RTVSPropertyOp21
 70
     1
102
RTVSPropertyOp22
 70
     1
102
RTVSPropertyOp23
 70
     1
102
RTVSPropertyOp24
 70
     1
102
RTVSPropertyOp25
 70
     1
102
RTVSPropertyOp26
 70
     1
102
RTVSPropertyOp27
 70
     1
102
RTVSPropertyOp28
 70
     1
102
RTVSPropertyOp29
 70
     1
102
RTVSPropertyOp30
 70
     1
102
RTVSPropertyOp31
 70
     1
102
RTVSPropertyOp32
 70
     1
  0
XRECORD
  5
F61
102
{ACAD_REACTORS
330
F60
102
}
330
F60
100
AcDbXrecord
280
     1
102
RTVSPropertyOp0
 70
     1
102
RTVSPropertyOp1
 70
     1
102
RTVSPropertyOp2
 70
     1
102
RTVSPropertyOp3
 70
     1
102
RTVSPropertyOp4
 70
     1
102
RTVSPropertyOp5
 70
     1
102
RTVSPropertyOp6
 70
     1
102
RTVSPropertyOp7
 70
     1
102
RTVSPropertyOp8
 70
     1
102
RTVSPropertyOp9
 70
     1
102
RTVSPropertyOp10
 70
     1
102
RTVSPropertyOp11
 70
     1
102
RTVSPropertyOp12
 70
     1
102
RTVSPropertyOp13
 70
     1
102
RTVSPropertyOp14
 70
     1
102
RTVSPropertyOp15
 70
     1
102
RTVSPropertyOp16
 70
     1
102
RTVSPropertyOp17
 70
     1
102
RTVSPropertyOp18
 70
     1
102
RTVSPropertyOp19
 70
     1
102
RTVSPropertyOp20
 70
     1
102
RTVSPropertyOp21
 70
     1
102
RTVSPropertyOp22
 70
     1
102
RTVSPropertyOp23
 70
     1
102
RTVSPropertyOp24
 70
     1
102
RTVSPropertyOp25
 70
     1
102
RTVSPropertyOp26
 70
     1
102
RTVSPropertyOp27
 70
     1
102
RTVSPropertyOp28
 70
     1
102
RTVSPropertyOp29
 70
     1
102
RTVSPropertyOp30
 70
     1
102
RTVSPropertyOp31
 70
     1
102
RTVSPropertyOp32
 70
     1
  0
ENDSEC
  0
EOF
