  0
SECTION
  2
HEADER
  9
$ACADVER
  1
AC1015
  9
$ACADMAINTVER
 70
    18
  9
$DWGCODEPAGE
  3
ANSI_1252
  9
$INSBASE
 10
0.0
 20
0.0
 30
0.0
  9
$EXTMIN
 10
0.0
 20
0.0
 30
0.0
  9
$EXTMAX
 10
102.0
 20
66.0
 30
0.0
  9
$LIMMIN
 10
0.0
 20
0.0
  9
$LIMMAX
 10
102.0
 20
66.0
  9
$ORTHOMODE
 70
     0
  9
$REGENMODE
 70
     1
  9
$FILLMODE
 70
     1
  9
$QTEXTMODE
 70
     0
  9
$MIRRTEXT
 70
     0
  9
$LTSCALE
 40
6.0
  9
$ATTMODE
 70
     1
  9
$TEXTSIZE
 40
0.2
  9
$TRACEWID
 40
0.05
  9
$TEXTSTYLE
  7
Standard
  9
$CLAYER
  8
0
  9
$CELTYPE
  6
ByLayer
  9
$CECOLOR
 62
   256
  9
$CELTSCALE
 40
1.0
  9
$DISPSILH
 70
     0
  9
$DIMSCALE
 40
1.0
  9
$DIMASZ
 40
0.0708661417322835
  9
$DIMEXO
 40
0.0625
  9
$DIMDLI
 40
0.38
  9
$DIMRND
 40
0.0
  9
$DIMDLE
 40
0.0
  9
$DIMEXE
 40
0.18
  9
$DIMTP
 40
0.0
  9
$DIMTM
 40
0.0
  9
$DIMTXT
 40
0.0708661417322835
  9
$DIMCEN
 40
0.09
  9
$DIMTSZ
 40
0.0
  9
$DIMTOL
 70
     0
  9
$DIMLIM
 70
     0
  9
$DIMTIH
 70
     1
  9
$DIMTOH
 70
     1
  9
$DIMSE1
 70
     0
  9
$DIMSE2
 70
     0
  9
$DIMTAD
 70
     0
  9
$DIMZIN
 70
     0
  9
$DIMBLK
  1

  9
$DIMASO
 70
     1
  9
$DIMSHO
 70
     1
  9
$DIMPOST
  1

  9
$DIMAPOST
  1

  9
$DIMALT
 70
     0
  9
$DIMALTD
 70
     2
  9
$DIMALTF
 40
25.4
  9
$DIMLFAC
 40
1.0
  9
$DIMTOFL
 70
     0
  9
$DIMTVP
 40
0.0
  9
$DIMTIX
 70
     0
  9
$DIMSOXD
 70
     0
  9
$DIMSAH
 70
     0
  9
$DIMBLK1
  1

  9
$DIMBLK2
  1

  9
$DIMSTYLE
  2
STANDARD
  9
$DIMCLRD
 70
     0
  9
$DIMCLRE
 70
     0
  9
$DIMCLRT
 70
     0
  9
$DIMTFAC
 40
1.0
  9
$DIMGAP
 40
0.09
  9
$DIMJUST
 70
     0
  9
$DIMSD1
 70
     0
  9
$DIMSD2
 70
     0
  9
$DIMTOLJ
 70
     1
  9
$DIMTZIN
 70
     0
  9
$DIMALTZ
 70
     0
  9
$DIMALTTZ
 70
     0
  9
$DIMUPT
 70
     0
  9
$DIMDEC
 70
     4
  9
$DIMTDEC
 70
     4
  9
$DIMALTU
 70
     2
  9
$DIMALTTD
 70
     2
  9
$DIMTXSTY
  7
Standard
  9
$DIMAUNIT
 70
     0
  9
$DIMADEC
 70
     0
  9
$DIMALTRND
 40
0.0
  9
$DIMAZIN
 70
     0
  9
$DIMDSEP
 70
    46
  9
$DIMATFIT
 70
     3
  9
$DIMFRAC
 70
     0
  9
$DIMLDRBLK
  1

  9
$DIMLUNIT
 70
     2
  9
$DIMLWD
 70
    -2
  9
$DIMLWE
 70
    -2
  9
$DIMTMOVE
 70
     0
  9
$LUNITS
 70
     2
  9
$LUPREC
 70
     4
  9
$SKETCHINC
 40
0.1
  9
$FILLETRAD
 40
0.0
  9
$AUNITS
 70
     0
  9
$AUPREC
 70
     0
  9
$MENU
  1
.
  9
$ELEVATION
 40
0.0
  9
$PELEVATION
 40
0.0
  9
$THICKNESS
 40
0.0
  9
$LIMCHECK
 70
     0
  9
$CHAMFERA
 40
0.0
  9
$CHAMFERB
 40
0.0
  9
$CHAMFERC
 40
0.0
  9
$CHAMFERD
 40
0.0
  9
$SKPOLY
 70
     0
  9
$TDCREATE
 40
2455945.347842431
  9
$TDUCREATE
 40
2455945.597842431
  9
$TDUPDATE
 40
2455945.347842431
  9
$TDUUPDATE
 40
2455945.597842431
  9
$TDINDWG
 40
0.0000640162
  9
$TDUSRTIMER
 40
0.0000640162
  9
$USRTIMER
 70
     1
  9
$ANGBASE
 50
0.0
  9
$ANGDIR
 70
     0
  9
$PDMODE
 70
     0
  9
$PDSIZE
 40
0.0
  9
$PLINEWID
 40
0.0
  9
$SPLFRAME
 70
     0
  9
$SPLINETYPE
 70
     6
  9
$SPLINESEGS
 70
     8
  9
$HANDSEED
  5
F0E
  9
$SURFTAB1
 70
     6
  9
$SURFTAB2
 70
     6
  9
$SURFTYPE
 70
     6
  9
$SURFU
 70
     6
  9
$SURFV
 70
     6
  9
$UCSBASE
  2

  9
$UCSNAME
  2

  9
$UCSORG
 10
0.0
 20
0.0
 30
0.0
  9
$UCSXDIR
 10
1.0
 20
0.0
 30
0.0
  9
$UCSYDIR
 10
0.0
 20
1.0
 30
0.0
  9
$UCSORTHOREF
  2

  9
$UCSORTHOVIEW
 70
     0
  9
$UCSORGTOP
 10
0.0
 20
0.0
 30
0.0
  9
$UCSORGBOTTOM
 10
0.0
 20
0.0
 30
0.0
  9
$UCSORGLEFT
 10
0.0
 20
0.0
 30
0.0
  9
$UCSORGRIGHT
 10
0.0
 20
0.0
 30
0.0
  9
$UCSORGFRONT
 10
0.0
 20
0.0
 30
0.0
  9
$UCSORGBACK
 10
0.0
 20
0.0
 30
0.0
  9
$PUCSBASE
  2

  9
$PUCSNAME
  2

  9
$PUCSORG
 10
0.0
 20
0.0
 30
0.0
  9
$PUCSXDIR
 10
1.0
 20
0.0
 30
0.0
  9
$PUCSYDIR
 10
0.0
 20
1.0
 30
0.0
  9
$PUCSORTHOREF
  2

  9
$PUCSORTHOVIEW
 70
     0
  9
$PUCSORGTOP
 10
0.0
 20
0.0
 30
0.0
  9
$PUCSORGBOTTOM
 10
0.0
 20
0.0
 30
0.0
  9
$PUCSORGLEFT
 10
0.0
 20
0.0
 30
0.0
  9
$PUCSORGRIGHT
 10
0.0
 20
0.0
 30
0.0
  9
$PUCSORGFRONT
 10
0.0
 20
0.0
 30
0.0
  9
$PUCSORGBACK
 10
0.0
 20
0.0
 30
0.0
  9
$USERI1
 70
     0
  9
$USERI2
 70
     0
  9
$USERI3
 70
     0
  9
$USERI4
 70
     0
  9
$USERI5
 70
     0
  9
$USERR1
 40
0.0
  9
$USERR2
 40
0.0
  9
$USERR3
 40
0.0
  9
$USERR4
 40
0.0
  9
$USERR5
 40
0.0
  9
$WORLDVIEW
 70
     1
  9
$SHADEDGE
 70
     3
  9
$SHADEDIF
 70
    70
  9
$TILEMODE
 70
     1
  9
$MAXACTVP
 70
    64
  9
$PINSBASE
 10
0.0
 20
0.0
 30
0.0
  9
$PLIMCHECK
 70
     0
  9
$PEXTMIN
 10
0.0
 20
0.0
 30
0.0
  9
$PEXTMAX
 10
102.0
 20
66.0
 30
0.0
  9
$PLIMMIN
 10
0.0
 20
0.0
  9
$PLIMMAX
 10
102.0
 20
66.0
  9
$UNITMODE
 70
     0
  9
$VISRETAIN
 70
     1
  9
$PLINEGEN
 70
     0
  9
$PSLTSCALE
 70
     1
  9
$TREEDEPTH
 70
  3020
  9
$CMLSTYLE
  2
Standard
  9
$CMLJUST
 70
     0
  9
$CMLSCALE
 40
1.0
  9
$PROXYGRAPHICS
 70
     1
  9
$MEASUREMENT
 70
     0
  9
$CELWEIGHT
370
    -1
  9
$ENDCAPS
280
     0
  9
$JOINSTYLE
280
     0
  9
$LWDISPLAY
290
     0
  9
$INSUNITS
 70
     1
  9
$HYPERLINKBASE
  1

  9
$STYLESHEET
  1

  9
$XEDIT
290
     1
  9
$CEPSNTYPE
380
     0
  9
$PSTYLEMODE
290
     1
  9
$FINGERPRINTGUID
  2
{9DB0231B-9128-4ADD-B396-E6CBC3CD704D}
  9
$VERSIONGUID
  2
{C313EB50-2DF5-419A-95D7-771AD45FFF34}
  9
$EXTNAMES
290
     1
  9
$PSVPSCALE
 40
0.0
  9
$OLESTARTUP
290
     0
  0
ENDSEC
  0
SECTION
  2
CLASSES
  0
CLASS
  1
ACDBDICTIONARYWDFLT
  2
AcDbDictionaryWithDefault
  3
ObjectDBX Classes
 90
        0
280
     0
281
     0
  0
CLASS
  1
MATERIAL
  2
AcDbMaterial
  3
ObjectDBX Classes
 90
     1153
280
     0
281
     0
  0
CLASS
  1
VISUALSTYLE
  2
AcDbVisualStyle
  3
ObjectDBX Classes
 90
     4095
280
     0
281
     0
  0
CLASS
  1
SCALE
  2
AcDbScale
  3
ObjectDBX Classes
 90
     1153
280
     0
281
     0
  0
CLASS
  1
TABLESTYLE
  2
AcDbTableStyle
  3
ObjectDBX Classes
 90
     4095
280
     0
281
     0
  0
CLASS
  1
MLEADERSTYLE
  2
AcDbMLeaderStyle
  3
ACDB_MLEADERSTYLE_CLASS
 90
     4095
280
     0
281
     0
  0
CLASS
  1
DICTIONARYVAR
  2
AcDbDictionaryVar
  3
ObjectDBX Classes
 90
        0
280
     0
281
     0
  0
CLASS
  1
CELLSTYLEMAP
  2
AcDbCellStyleMap
  3
ObjectDBX Classes
 90
     1152
280
     0
281
     0
  0
CLASS
  1
ACDBPLACEHOLDER
  2
AcDbPlaceHolder
  3
ObjectDBX Classes
 90
        0
280
     0
281
     0
  0
CLASS
  1
LAYOUT
  2
AcDbLayout
  3
ObjectDBX Classes
 90
        0
280
     0
281
     0
  0
ENDSEC
  0
SECTION
  2
TABLES
  0
TABLE
  2
VPORT
  5
8
330
0
100
AcDbSymbolTable
 70
     1
  0
VPORT
  5
57
330
8
100
AcDbSymbolTableRecord
100
AcDbViewportTableRecord
  2
*Active
 70
     0
 10
0.0
 20
0.0
 11
1.0
 21
1.0
 12
51.0
 22
33.0
 13
0.0
 23
0.0
 14
1.0
 24
1.0
 15
0.0
 25
0.0
 16
0.0
 26
0.0
 36
1.0
 17
0.0
 27
0.0
 37
0.0
 40
66.0
 41
1.545454545454545
 42
50.0
 43
0.0
 44
0.0
 50
0.0
 51
0.0
 71
     0
 72
   100
 73
     1
 74
     1
 75
     0
 76
     0
 77
     0
 78
     0
281
     0
 65
     1
110
0.0
120
0.0
130
0.0
111
1.0
121
0.0
131
0.0
112
0.0
122
1.0
132
0.0
 79
     0
146
0.0
  0
ENDTAB
  0
TABLE
  2
LTYPE
  5
5
330
0
100
AcDbSymbolTable
 70
    59
  0
LTYPE
  5
5B
330
5
100
AcDbSymbolTableRecord
100
AcDbLinetypeTableRecord
  2
ByBlock
 70
     0
  3

 72
    65
 73
     0
 40
0.0
  0
LTYPE
  5
5C
330
5
100
AcDbSymbolTableRecord
100
AcDbLinetypeTableRecord
  2
ByLayer
 70
     0
  3

 72
    65
 73
     0
 40
0.0
  0
LTYPE
  5
5D
330
5
100
AcDbSymbolTableRecord
100
AcDbLinetypeTableRecord
  2
Continuous
 70
     0
  3
Solid line
 72
    65
 73
     0
 40
0.0
  0
LTYPE
  5
7C
330
5
100
AcDbSymbolTableRecord
100
AcDbLinetypeTableRecord
  2
BY_STANDARD
 70
     0
  3
By Standard ____________    ____    ____   _
 72
    65
 73
     6
 40
1.240299999999999
 49
0.6614
 74
     0
 49
-0.0827
 74
     0
 49
0.1654
 74
     0
 49
-0.0827
 74
     0
 49
0.1654
 74
     0
 49
-0.0827
 74
     0
  0
LTYPE
  5
7D
330
5
100
AcDbSymbolTableRecord
100
AcDbLinetypeTableRecord
  2
CHAIN
 70
     0
  3
Chain ____ _ ____ _ ____ _ ____ _ ____ _ ____
 72
    65
 73
     4
 40
0.7087
 49
0.4724000000000001
 74
     0
 49
-0.0591
 74
     0
 49
0.1181
 74
     0
 49
-0.0591
 74
     0
  0
LTYPE
  5
7E
330
5
100
AcDbSymbolTableRecord
100
AcDbLinetypeTableRecord
  2
DASH_DOT
 70
     0
  3
Dash dot __ . __ . __ . __ . __ . __ . __ . __
 72
    65
 73
     4
 40
0.37
 49
0.24
 74
     0
 49
-0.06
 74
     0
 49
0.01
 74
     0
 49
-0.06
 74
     0
  0
LTYPE
  5
7F
330
5
100
AcDbSymbolTableRecord
100
AcDbLinetypeTableRecord
  2
DOUBLE_DASH_DOT
 70
     0
  3
Double-Dash Dot __ __ . __ __ . __ __ . __ _
 72
    65
 73
     6
 40
0.4398
 49
0.24
 74
     0
 49
-0.06
 74
     0
 49
0.0098
 74
     0
 49
-0.06
 74
     0
 49
0.01
 74
     0
 49
-0.06
 74
     0
  0
LTYPE
  5
80
330
5
100
AcDbSymbolTableRecord
100
AcDbLinetypeTableRecord
  2
DASH_TRIPLE_DOT
 70
     0
  3
Dash Triple-Dot _ . . . _ . . . _ . . . _
 72
    65
 73
     8
 40
0.51
 49
0.24
 74
     0
 49
-0.06
 74
     0
 49
0.01
 74
     0
 49
-0.06
 74
     0
 49
0.01
 74
     0
 49
-0.06
 74
     0
 49
0.01
 74
     0
 49
-0.06
 74
     0
  0
LTYPE
  5
81
330
5
100
AcDbSymbolTableRecord
100
AcDbLinetypeTableRecord
  2
DASHED
 70
     0
  3
Dashed __ __ __ __ __ __ __ __ __ __ __ __ __ _
 72
    65
 73
     2
 40
0.2067
 49
0.1654
 74
     0
 49
-0.0413
 74
     0
  0
LTYPE
  5
82
330
5
100
AcDbSymbolTableRecord
100
AcDbLinetypeTableRecord
  2
DASH_DOUBLE_DOT
 70
     0
  3
Dash Double-Dot __ . . __ . . __ . . __ . .
 72
    65
 73
     6
 40
0.4398
 49
0.24
 74
     0
 49
-0.06
 74
     0
 49
0.0098
 74
     0
 49
-0.06
 74
     0
 49
0.01
 74
     0
 49
-0.06
 74
     0
  0
LTYPE
  5
83
330
5
100
AcDbSymbolTableRecord
100
AcDbLinetypeTableRecord
  2
DASHED_SPACE
 70
     0
  3
Dashed Space __ __ __ __ __ __ __ __ __ __ __ _
 72
    65
 73
     2
 40
0.2067
 49
0.1654
 74
     0
 49
-0.0413
 74
     0
  0
LTYPE
  5
84
330
5
100
AcDbSymbolTableRecord
100
AcDbLinetypeTableRecord
  2
DOTTED
 70
     0
  3
Dotted . . . . . . . . . . . . . . . . . . . . 
 72
    65
 73
     2
 40
0.0482
 49
0.0069
 74
     0
 49
-0.0413
 74
     0
  0
LTYPE
  5
85
330
5
100
AcDbSymbolTableRecord
100
AcDbLinetypeTableRecord
  2
DOUBLE_DASH_CHAIN
 70
     0
  3
Double-Dash Chain ______  __  __  ______  __  _
 72
    65
 73
     6
 40
1.240299999999999
 49
0.6614
 74
     0
 49
-0.0827
 74
     0
 49
0.1654
 74
     0
 49
-0.0827
 74
     0
 49
0.1654
 74
     0
 49
-0.0827
 74
     0
  0
LTYPE
  5
87
330
5
100
AcDbSymbolTableRecord
100
AcDbLinetypeTableRecord
  2
DOUBLE_DASH_DOUBLE_DOT
 70
     0
  3
Double-Dash Double-dot _ _ . . _ _ . . _
 72
    65
 73
     8
 40
0.7400000000000001
 49
0.24
 74
     0
 49
-0.06
 74
     0
 49
0.24
 74
     0
 49
-0.06
 74
     0
 49
0.01
 74
     0
 49
-0.06
 74
     0
 49
0.01
 74
     0
 49
-0.06
 74
     0
  0
LTYPE
  5
88
330
5
100
AcDbSymbolTableRecord
100
AcDbLinetypeTableRecord
  2
DOUBLE_DASH_TRIPLE_DOT
 70
     0
  3
Double Dash Triple Dot __ __ . . . __ __ . .
 72
    65
 73
    10
 40
0.8100000000000001
 49
0.24
 74
     0
 49
-0.06
 74
     0
 49
0.24
 74
     0
 49
-0.06
 74
     0
 49
0.01
 74
     0
 49
-0.06
 74
     0
 49
0.01
 74
     0
 49
-0.06
 74
     0
 49
0.01
 74
     0
 49
-0.06
 74
     0
  0
LTYPE
  5
89
330
5
100
AcDbSymbolTableRecord
100
AcDbLinetypeTableRecord
  2
LONG_DASH_DOTTED
 70
     0
  3
Long Dash Dotted ____ . ____ . ____ . ____ . _
 72
    65
 73
     4
 40
0.3543
 49
0.2362
 74
     0
 49
-0.0295
 74
     0
 49
0.0591
 74
     0
 49
-0.0295
 74
     0
  0
LTYPE
  5
8A
330
5
100
AcDbSymbolTableRecord
100
AcDbLinetypeTableRecord
  2
LONG_DASH_DOUBLE_DOT
 70
     0
  3
Long Dash Double Dot ________  .  .  ________  
 72
    65
 73
     6
 40
0.6799999999999999
 49
0.48
 74
     0
 49
-0.06
 74
     0
 49
0.01
 74
     0
 49
-0.06
 74
     0
 49
0.01
 74
     0
 49
-0.06
 74
     0
  0
LTYPE
  5
8B
330
5
100
AcDbSymbolTableRecord
100
AcDbLinetypeTableRecord
  2
LONG_DASH_TRIPLE_DOT
 70
     0
  3
Long Dash Triple Dot ____ ... ____ ... ____
 72
    65
 73
     8
 40
0.3689
 49
0.2362
 74
     0
 49
-0.0295
 74
     0
 49
0.0049
 74
     0
 49
-0.0295
 74
     0
 49
0.0049
 74
     0
 49
-0.0295
 74
     0
 49
0.0049
 74
     0
 49
-0.0295
 74
     0
  0
LTYPE
  5
8C
330
5
100
AcDbSymbolTableRecord
100
AcDbLinetypeTableRecord
  2
BORDER
 70
     0
  3
Border __ __ . __ __ . __ __ . __ __ . __ __ .
 72
    65
 73
     6
 40
1.75
 49
0.5
 74
     0
 49
-0.25
 74
     0
 49
0.5
 74
     0
 49
-0.25
 74
     0
 49
0.0
 74
     0
 49
-0.25
 74
     0
  0
LTYPE
  5
8D
330
5
100
AcDbSymbolTableRecord
100
AcDbLinetypeTableRecord
  2
BORDER2
 70
     0
  3
Border (.5x) __.__.__.__.__.__.__.__.__.__.__.
 72
    65
 73
     6
 40
0.875
 49
0.25
 74
     0
 49
-0.125
 74
     0
 49
0.25
 74
     0
 49
-0.125
 74
     0
 49
0.0
 74
     0
 49
-0.125
 74
     0
  0
LTYPE
  5
8E
330
5
100
AcDbSymbolTableRecord
100
AcDbLinetypeTableRecord
  2
BORDERX2
 70
     0
  3
Border (2x) ____  ____  .  ____  ____  .  ___
 72
    65
 73
     6
 40
3.5
 49
1.0
 74
     0
 49
-0.5
 74
     0
 49
1.0
 74
     0
 49
-0.5
 74
     0
 49
0.0
 74
     0
 49
-0.5
 74
     0
  0
LTYPE
  5
8F
330
5
100
AcDbSymbolTableRecord
100
AcDbLinetypeTableRecord
  2
CENTER
 70
     0
  3
Center ____ _ ____ _ ____ _ ____ _ ____ _ ____
 72
    65
 73
     4
 40
2.0
 49
1.25
 74
     0
 49
-0.25
 74
     0
 49
0.25
 74
     0
 49
-0.25
 74
     0
  0
LTYPE
  5
90
330
5
100
AcDbSymbolTableRecord
100
AcDbLinetypeTableRecord
  2
CENTER2
 70
     0
  3
Center (.5x) ___ _ ___ _ ___ _ ___ _ ___ _ ___
 72
    65
 73
     4
 40
1.125
 49
0.75
 74
     0
 49
-0.125
 74
     0
 49
0.125
 74
     0
 49
-0.125
 74
     0
  0
LTYPE
  5
91
330
5
100
AcDbSymbolTableRecord
100
AcDbLinetypeTableRecord
  2
CENTERX2
 70
     0
  3
Center (2x) ________  __  ________  __  _____
 72
    65
 73
     4
 40
4.0
 49
2.5
 74
     0
 49
-0.5
 74
     0
 49
0.5
 74
     0
 49
-0.5
 74
     0
  0
LTYPE
  5
92
330
5
100
AcDbSymbolTableRecord
100
AcDbLinetypeTableRecord
  2
DASHDOT2
 70
     0
  3
Dash dot (.5x) _._._._._._._._._._._._._._._.
 72
    65
 73
     4
 40
0.5
 49
0.25
 74
     0
 49
-0.125
 74
     0
 49
0.0
 74
     0
 49
-0.125
 74
     0
  0
LTYPE
  5
93
330
5
100
AcDbSymbolTableRecord
100
AcDbLinetypeTableRecord
  2
DASHDOTX2
 70
     0
  3
Dash dot (2x) ____  .  ____  .  ____  .  ___
 72
    65
 73
     4
 40
2.0
 49
1.0
 74
     0
 49
-0.5
 74
     0
 49
0.0
 74
     0
 49
-0.5
 74
     0
  0
LTYPE
  5
95
330
5
100
AcDbSymbolTableRecord
100
AcDbLinetypeTableRecord
  2
DASHED2
 70
     0
  3
Dashed (.5x) _ _ _ _ _ _ _ _ _ _ _ _ _ _ _ _ _
 72
    65
 73
     2
 40
0.375
 49
0.25
 74
     0
 49
-0.125
 74
     0
  0
LTYPE
  5
96
330
5
100
AcDbSymbolTableRecord
100
AcDbLinetypeTableRecord
  2
DASHEDX2
 70
     0
  3
Dashed (2x) ____  ____  ____  ____  ____  ___
 72
    65
 73
     2
 40
1.5
 49
1.0
 74
     0
 49
-0.5
 74
     0
  0
LTYPE
  5
97
330
5
100
AcDbSymbolTableRecord
100
AcDbLinetypeTableRecord
  2
DIVIDE
 70
     0
  3
Divide ____ . . ____ . . ____ . . ____ . . ____
 72
    65
 73
     6
 40
1.25
 49
0.5
 74
     0
 49
-0.25
 74
     0
 49
0.0
 74
     0
 49
-0.25
 74
     0
 49
0.0
 74
     0
 49
-0.25
 74
     0
  0
LTYPE
  5
98
330
5
100
AcDbSymbolTableRecord
100
AcDbLinetypeTableRecord
  2
DIVIDE2
 70
     0
  3
Divide (.5x) __..__..__..__..__..__..__..__.._
 72
    65
 73
     6
 40
0.625
 49
0.25
 74
     0
 49
-0.125
 74
     0
 49
0.0
 74
     0
 49
-0.125
 74
     0
 49
0.0
 74
     0
 49
-0.125
 74
     0
  0
LTYPE
  5
99
330
5
100
AcDbSymbolTableRecord
100
AcDbLinetypeTableRecord
  2
DIVIDEX2
 70
     0
  3
Divide (2x) ________  .  .  ________  .  .  _
 72
    65
 73
     6
 40
2.5
 49
1.0
 74
     0
 49
-0.5
 74
     0
 49
0.0
 74
     0
 49
-0.5
 74
     0
 49
0.0
 74
     0
 49
-0.5
 74
     0
  0
LTYPE
  5
9A
330
5
100
AcDbSymbolTableRecord
100
AcDbLinetypeTableRecord
  2
DOT
 70
     0
  3
Dot . . . . . . . . . . . . . . . . . . . . . .
 72
    65
 73
     2
 40
0.25
 49
0.0
 74
     0
 49
-0.25
 74
     0
  0
LTYPE
  5
9B
330
5
100
AcDbSymbolTableRecord
100
AcDbLinetypeTableRecord
  2
DOT2
 70
     0
  3
Dot (.5x) .....................................
 72
    65
 73
     2
 40
0.125
 49
0.0
 74
     0
 49
-0.125
 74
     0
  0
LTYPE
  5
9C
330
5
100
AcDbSymbolTableRecord
100
AcDbLinetypeTableRecord
  2
DOTX2
 70
     0
  3
Dot (2x) .  .  .  .  .  .  .  .  .  .  .  .  . 
 72
    65
 73
     2
 40
0.5
 49
0.0
 74
     0
 49
-0.5
 74
     0
  0
LTYPE
  5
9D
330
5
100
AcDbSymbolTableRecord
100
AcDbLinetypeTableRecord
  2
HIDDEN
 70
     0
  3
Hidden __ __ __ __ __ __ __ __ __ __ __ __ __ _
 72
    65
 73
     2
 40
0.375
 49
0.25
 74
     0
 49
-0.125
 74
     0
  0
LTYPE
  5
9E
330
5
100
AcDbSymbolTableRecord
100
AcDbLinetypeTableRecord
  2
HIDDEN2
 70
     0
  3
Hidden (.5x) _ _ _ _ _ _ _ _ _ _ _ _ _ _ _ _ _
 72
    65
 73
     2
 40
0.1875
 49
0.125
 74
     0
 49
-0.0625
 74
     0
  0
LTYPE
  5
9F
330
5
100
AcDbSymbolTableRecord
100
AcDbLinetypeTableRecord
  2
HIDDENX2
 70
     0
  3
Hidden (2x) ____ ____ ____ ____ ____ ____ ____
 72
    65
 73
     2
 40
0.75
 49
0.5
 74
     0
 49
-0.25
 74
     0
  0
LTYPE
  5
A0
330
5
100
AcDbSymbolTableRecord
100
AcDbLinetypeTableRecord
  2
PHANTOM
 70
     0
  3
Phantom ______  __  __  ______  __  __  ______
 72
    65
 73
     6
 40
2.5
 49
1.25
 74
     0
 49
-0.25
 74
     0
 49
0.25
 74
     0
 49
-0.25
 74
     0
 49
0.25
 74
     0
 49
-0.25
 74
     0
  0
LTYPE
  5
A1
330
5
100
AcDbSymbolTableRecord
100
AcDbLinetypeTableRecord
  2
PHANTOM2
 70
     0
  3
Phantom (.5x) ___ _ _ ___ _ _ ___ _ _ ___ _ _
 72
    65
 73
     6
 40
1.25
 49
0.625
 74
     0
 49
-0.125
 74
     0
 49
0.125
 74
     0
 49
-0.125
 74
     0
 49
0.125
 74
     0
 49
-0.125
 74
     0
  0
LTYPE
  5
A2
330
5
100
AcDbSymbolTableRecord
100
AcDbLinetypeTableRecord
  2
PHANTOMX2
 70
     0
  3
Phantom (2x) ____________    ____    ____   _
 72
    65
 73
     6
 40
5.0
 49
2.5
 74
     0
 49
-0.5
 74
     0
 49
0.5
 74
     0
 49
-0.5
 74
     0
 49
0.5
 74
     0
 49
-0.5
 74
     0
  0
LTYPE
  5
A3
330
5
100
AcDbSymbolTableRecord
100
AcDbLinetypeTableRecord
  2
ACAD_ISO02W100
 70
     0
  3
ISO dash __ __ __ __ __ __ __ __ __ __ __ __ __
 72
    65
 73
     2
 40
0.59
 49
0.47
 74
     0
 49
-0.12
 74
     0
  0
LTYPE
  5
A4
330
5
100
AcDbSymbolTableRecord
100
AcDbLinetypeTableRecord
  2
ACAD_ISO03W100
 70
     0
  3
ISO dash space __    __    __    __    __    __
 72
    65
 73
     2
 40
1.179999999999999
 49
0.47
 74
     0
 49
-0.71
 74
     0
  0
LTYPE
  5
A5
330
5
100
AcDbSymbolTableRecord
100
AcDbLinetypeTableRecord
  2
ACAD_ISO04W100
 70
     0
  3
ISO long-dash dot ____ . ____ . ____ . ____ . _
 72
    65
 73
     4
 40
1.179999999999999
 49
0.9399999999999998
 74
     0
 49
-0.12
 74
     0
 49
0.0
 74
     0
 49
-0.12
 74
     0
  0
LTYPE
  5
A6
330
5
100
AcDbSymbolTableRecord
100
AcDbLinetypeTableRecord
  2
ACAD_ISO05W100
 70
     0
  3
ISO long-dash double-dot ____ .. ____ .. ____ .
 72
    65
 73
     6
 40
1.299999999999999
 49
0.9399999999999998
 74
     0
 49
-0.12
 74
     0
 49
0.0
 74
     0
 49
-0.12
 74
     0
 49
0.0
 74
     0
 49
-0.12
 74
     0
  0
LTYPE
  5
A7
330
5
100
AcDbSymbolTableRecord
100
AcDbLinetypeTableRecord
  2
ACAD_ISO06W100
 70
     0
  3
ISO long-dash triple-dot ____ ... ____ ... ____
 72
    65
 73
     8
 40
1.419999999999999
 49
0.9399999999999998
 74
     0
 49
-0.12
 74
     0
 49
0.0
 74
     0
 49
-0.12
 74
     0
 49
0.0
 74
     0
 49
-0.12
 74
     0
 49
0.0
 74
     0
 49
-0.12
 74
     0
  0
LTYPE
  5
A8
330
5
100
AcDbSymbolTableRecord
100
AcDbLinetypeTableRecord
  2
ACAD_ISO07W100
 70
     0
  3
ISO dot . . . . . . . . . . . . . . . . . . . .
 72
    65
 73
     2
 40
0.12
 49
0.0
 74
     0
 49
-0.12
 74
     0
  0
LTYPE
  5
A9
330
5
100
AcDbSymbolTableRecord
100
AcDbLinetypeTableRecord
  2
ACAD_ISO08W100
 70
     0
  3
ISO long-dash short-dash ____ __ ____ __ ____ _
 72
    65
 73
     4
 40
0.95
 49
0.47
 74
     0
 49
-0.12
 74
     0
 49
0.24
 74
     0
 49
-0.12
 74
     0
  0
LTYPE
  5
AA
330
5
100
AcDbSymbolTableRecord
100
AcDbLinetypeTableRecord
  2
ACAD_ISO09W100
 70
     0
  3
ISO long-dash double-short-dash ____ __ __ ____
 72
    65
 73
     6
 40
1.31
 49
0.47
 74
     0
 49
-0.12
 74
     0
 49
0.24
 74
     0
 49
-0.12
 74
     0
 49
0.24
 74
     0
 49
-0.12
 74
     0
  0
LTYPE
  5
AB
330
5
100
AcDbSymbolTableRecord
100
AcDbLinetypeTableRecord
  2
ACAD_ISO10W100
 70
     0
  3
ISO dash dot __ . __ . __ . __ . __ . __ . __ .
 72
    65
 73
     4
 40
0.71
 49
0.47
 74
     0
 49
-0.12
 74
     0
 49
0.0
 74
     0
 49
-0.12
 74
     0
  0
LTYPE
  5
AC
330
5
100
AcDbSymbolTableRecord
100
AcDbLinetypeTableRecord
  2
ACAD_ISO11W100
 70
     0
  3
ISO double-dash dot __ __ . __ __ . __ __ . __ 
 72
    65
 73
     6
 40
1.299999999999999
 49
0.47
 74
     0
 49
-0.12
 74
     0
 49
0.47
 74
     0
 49
-0.12
 74
     0
 49
0.0
 74
     0
 49
-0.12
 74
     0
  0
LTYPE
  5
AD
330
5
100
AcDbSymbolTableRecord
100
AcDbLinetypeTableRecord
  2
ACAD_ISO12W100
 70
     0
  3
ISO dash double-dot __ . . __ . . __ . . __ . .
 72
    65
 73
     6
 40
0.8299999999999998
 49
0.47
 74
     0
 49
-0.12
 74
     0
 49
0.0
 74
     0
 49
-0.12
 74
     0
 49
0.0
 74
     0
 49
-0.12
 74
     0
  0
LTYPE
  5
AE
330
5
100
AcDbSymbolTableRecord
100
AcDbLinetypeTableRecord
  2
ACAD_ISO13W100
 70
     0
  3
ISO double-dash double-dot __ __ . . __ __ . . 
 72
    65
 73
     8
 40
1.419999999999999
 49
0.47
 74
     0
 49
-0.12
 74
     0
 49
0.47
 74
     0
 49
-0.12
 74
     0
 49
0.0
 74
     0
 49
-0.12
 74
     0
 49
0.0
 74
     0
 49
-0.12
 74
     0
  0
LTYPE
  5
AF
330
5
100
AcDbSymbolTableRecord
100
AcDbLinetypeTableRecord
  2
ACAD_ISO14W100
 70
     0
  3
ISO dash triple-dot __ . . . __ . . . __ . . . 
 72
    65
 73
     8
 40
0.95
 49
0.47
 74
     0
 49
-0.12
 74
     0
 49
0.0
 74
     0
 49
-0.12
 74
     0
 49
0.0
 74
     0
 49
-0.12
 74
     0
 49
0.0
 74
     0
 49
-0.12
 74
     0
  0
LTYPE
  5
B0
330
5
100
AcDbSymbolTableRecord
100
AcDbLinetypeTableRecord
  2
ACAD_ISO15W100
 70
     0
  3
ISO double-dash triple-dot __ __ . . . __ __ . 
 72
    65
 73
    10
 40
1.539999999999999
 49
0.47
 74
     0
 49
-0.12
 74
     0
 49
0.47
 74
     0
 49
-0.12
 74
     0
 49
0.0
 74
     0
 49
-0.12
 74
     0
 49
0.0
 74
     0
 49
-0.12
 74
     0
 49
0.0
 74
     0
 49
-0.12
 74
     0
  0
LTYPE
  5
B3
330
5
100
AcDbSymbolTableRecord
100
AcDbLinetypeTableRecord
  2
FENCELINE1
 70
     0
  3
Fenceline circle ----0-----0----0-----0----0---
 72
    65
 73
     4
 40
1.45
 49
0.25
 74
     0
 49
-0.1
 74
     4
 75
   133
340
B2
 46
0.1
 50
0.0
 44
-0.1
 45
0.0
 49
-0.1
 74
     0
 49
1.0
 74
     0
  0
LTYPE
  5
B4
330
5
100
AcDbSymbolTableRecord
100
AcDbLinetypeTableRecord
  2
FENCELINE2
 70
     0
  3
Fenceline square ----[]-----[]----[]-----[]----
 72
    65
 73
     4
 40
1.45
 49
0.25
 74
     0
 49
-0.1
 74
     4
 75
   132
340
B2
 46
0.1
 50
0.0
 44
-0.1
 45
0.0
 49
-0.1
 74
     0
 49
1.0
 74
     0
  0
LTYPE
  5
B5
330
5
100
AcDbSymbolTableRecord
100
AcDbLinetypeTableRecord
  2
TRACKS
 70
     0
  3
Tracks -|-|-|-|-|-|-|-|-|-|-|-|-|-|-|-|-|-|-|-|
 72
    65
 73
     2
 40
0.3
 49
0.15
 74
     4
 75
   130
340
B2
 46
0.25
 50
0.0
 44
0.0
 45
0.0
 49
0.15
 74
     0
  0
LTYPE
  5
B6
330
5
100
AcDbSymbolTableRecord
100
AcDbLinetypeTableRecord
  2
BATTING
 70
     0
  3
Batting SSSSSSSSSSSSSSSSSSSSSSSSSSSSSSSSSSSSSSS
 72
    65
 73
     4
 40
0.4001000000000001
 49
0.0001
 74
     0
 49
-0.1
 74
     4
 75
   134
340
B2
 46
0.1
 50
0.0
 44
-0.1
 45
0.0
 49
-0.2
 74
     4
 75
   134
340
B2
 46
0.1
 50
180.0
 44
0.1
 45
0.0
 49
-0.1
 74
     0
  0
LTYPE
  5
B7
330
5
100
AcDbSymbolTableRecord
100
AcDbLinetypeTableRecord
  2
HOT_WATER_SUPPLY
 70
     0
  3
Hot water supply ---- HW ---- HW ---- HW ----
 72
    65
 73
     3
 40
0.9
 49
0.5
 74
     0
 49
-0.2
 74
     2
 75
     0
340
55
 46
0.1
 50
0.0
 44
-0.1
 45
-0.05
  9
HW
 49
-0.2
 74
     0
  0
LTYPE
  5
B8
330
5
100
AcDbSymbolTableRecord
100
AcDbLinetypeTableRecord
  2
GAS_LINE
 70
     0
  3
Gas line ----GAS----GAS----GAS----GAS----GAS---
 72
    65
 73
     3
 40
0.95
 49
0.5
 74
     0
 49
-0.2
 74
     2
 75
     0
340
55
 46
0.1
 50
0.0
 44
-0.1
 45
-0.05
  9
GAS
 49
-0.25
 74
     0
  0
LTYPE
  5
B9
330
5
100
AcDbSymbolTableRecord
100
AcDbLinetypeTableRecord
  2
ZIGZAG
 70
     0
  3
Zig zag /\/\/\/\/\/\/\/\/\/\/\/\/\/\/\/\/\/\/\/
 72
    65
 73
     4
 40
0.8001000000000001
 49
0.0001
 74
     0
 49
-0.2
 74
     4
 75
   131
340
B2
 46
0.2
 50
0.0
 44
-0.2
 45
0.0
 49
-0.4
 74
     4
 75
   131
340
B2
 46
0.2
 50
180.0
 44
0.2
 45
0.0
 49
-0.2
 74
     0
  0
ENDTAB
  0
TABLE
  2
LAYER
  5
2
330
0
100
AcDbSymbolTable
 70
    27
  0
LAYER
  5
54
330
2
100
AcDbSymbolTableRecord
100
AcDbLayerTableRecord
  2
0
 70
     0
 62
     7
  6
Continuous
370
    18
390
F
  0
LAYER
  5
C3
330
2
100
AcDbSymbolTableRecord
100
AcDbLayerTableRecord
  2
Dimension (ANSI)
 70
     0
 62
     7
  6
Continuous
370
    13
390
F
  0
LAYER
  5
C5
330
2
100
AcDbSymbolTableRecord
100
AcDbLayerTableRecord
  2
Hidden (ANSI)
 70
     0
 62
     7
  6
DASHED
370
    15
390
F
  0
LAYER
  5
CC
330
2
100
AcDbSymbolTableRecord
100
AcDbLayerTableRecord
  2
Symbol (ANSI)
 70
     0
 62
     7
  6
Continuous
370
    18
390
F
  0
LAYER
  5
CF
330
2
100
AcDbSymbolTableRecord
100
AcDbLayerTableRecord
  2
Visible (ANSI)
 70
     0
 62
     7
  6
Continuous
370
    13
390
F
  0
LAYER
  5
D0
330
2
100
AcDbSymbolTableRecord
100
AcDbLayerTableRecord
  2
Visible Narrow (ANSI)
 70
     0
 62
     7
  6
Continuous
370
    18
390
F
  0
LAYER
  5
1F9
330
2
100
AcDbSymbolTableRecord
100
AcDbLayerTableRecord
  2
Defpoints
 70
     0
 62
     7
  6
Continuous
290
     0
370
    -3
390
F
  0
ENDTAB
  0
TABLE
  2
STYLE
  5
3
330
0
100
AcDbSymbolTable
 70
    17
  0
STYLE
  5
55
330
3
100
AcDbSymbolTableRecord
100
AcDbTextStyleTableRecord
  2
Standard
 70
     0
 40
0.0
 41
1.0
 50
0.0
 71
     0
 42
0.2
  3
txt
  4

  0
STYLE
  5
5A
330
3
100
AcDbSymbolTableRecord
100
AcDbTextStyleTableRecord
  2
Annotative
 70
     0
 40
0.0
 41
1.0
 50
0.0
 71
     0
 42
0.2
  3
txt
  4

1001
AcadAnnotative
1000
AnnotativeData
1002
{
1070
     1
1070
     1
1002
}
  0
STYLE
  5
B2
330
3
100
AcDbSymbolTableRecord
100
AcDbTextStyleTableRecord
  2

 70
     1
 40
0.0
 41
1.0
 50
0.0
 71
     0
 42
0.2
  3
ltypeshp.shx
  4

  0
STYLE
  5
D4
330
3
100
AcDbSymbolTableRecord
100
AcDbTextStyleTableRecord
  2
ITALICC_120
 70
     0
 40
0.0
 41
1.0
 50
0.0
 71
     0
 42
0.2
  3
italicc.shx
  4

  0
STYLE
  5
D5
330
3
100
AcDbSymbolTableRecord
100
AcDbTextStyleTableRecord
  2
Label Text (ANSI)
 70
     0
 40
0.0
 41
1.0
 50
0.0
 71
     0
 42
0.2
  3
RomanS.shx
  4

  0
STYLE
  5
D6
330
3
100
AcDbSymbolTableRecord
100
AcDbTextStyleTableRecord
  2
Note Text (ANSI)
 70
     0
 40
0.0
 41
1.0
 50
0.0
 71
     0
 42
0.2
  3
RomanS.shx
  4

  0
STYLE
  5
D7
330
3
100
AcDbSymbolTableRecord
100
AcDbTextStyleTableRecord
  2
ROMANS
 70
     0
 40
0.0
 41
1.0
 50
0.0
 71
     0
 42
0.2
  3
romans.shx
  4

  0
STYLE
  5
D8
330
3
100
AcDbSymbolTableRecord
100
AcDbTextStyleTableRecord
  2
SANSSERIF_114
 70
     0
 40
0.0
 41
1.0
 50
0.0
 71
     0
 42
0.2
  3
TAHOMA.TTF
  4

1001
ACAD
1000
Tahoma
1071
      256
  0
STYLE
  5
D9
330
3
100
AcDbSymbolTableRecord
100
AcDbTextStyleTableRecord
  2
SANSSERIF_117
 70
     0
 40
0.0
 41
1.0
 50
0.0
 71
     0
 42
0.2
  3
TAHOMA.TTF
  4

1001
ACAD
1000
Tahoma
1071
      256
  0
STYLE
  5
DA
330
3
100
AcDbSymbolTableRecord
100
AcDbTextStyleTableRecord
  2
STANDARDAM_ANSI
 70
     0
 40
0.0
 41
1.0
 50
0.0
 71
     0
 42
0.2
  3
txt.shx
  4

  0
STYLE
  5
DB
330
3
100
AcDbSymbolTableRecord
100
AcDbTextStyleTableRecord
  2
StandardAM_ANSI$0
 70
     0
 40
0.0
 41
1.0
 50
0.0
 71
     0
 42
0.2
  3
txt.shx
  4

  0
STYLE
  5
DC
330
3
100
AcDbSymbolTableRecord
100
AcDbTextStyleTableRecord
  2
STANDARDAM_ANSI$3
 70
     0
 40
0.0
 41
1.0
 50
0.0
 71
     0
 42
0.2
  3
txt.shx
  4

  0
STYLE
  5
DD
330
3
100
AcDbSymbolTableRecord
100
AcDbTextStyleTableRecord
  2
STANDARDAM_ANSI$4
 70
     0
 40
0.0
 41
1.0
 50
0.0
 71
     0
 42
0.2
  3
txt.shx
  4

  0
STYLE
  5
DE
330
3
100
AcDbSymbolTableRecord
100
AcDbTextStyleTableRecord
  2
STANDARDAM_ANSI$7
 70
     0
 40
0.0
 41
1.0
 50
0.0
 71
     0
 42
0.2
  3
txt.shx
  4

  0
STYLE
  5
DF
330
3
100
AcDbSymbolTableRecord
100
AcDbTextStyleTableRecord
  2
STANDARDAM_ANSI$SF
 70
     0
 40
0.0
 41
1.0
 50
0.0
 71
     0
 42
0.2
  3
txt.shx
  4

  0
STYLE
  5
E0
330
3
100
AcDbSymbolTableRecord
100
AcDbTextStyleTableRecord
  2
STANDARDAM_ANSI$SH
 70
     0
 40
0.0
 41
1.0
 50
0.0
 71
     0
 42
0.2
  3
txt.shx
  4

  0
STYLE
  5
E1
330
3
100
AcDbSymbolTableRecord
100
AcDbTextStyleTableRecord
  2
STANDARDSTANDARD
 70
     0
 40
0.0
 41
1.0
 50
0.0
 71
     0
 42
0.2
  3
txt.shx
  4

  0
ENDTAB
  0
TABLE
  2
VIEW
  5
6
330
0
100
AcDbSymbolTable
 70
     0
  0
ENDTAB
  0
TABLE
  2
UCS
  5
7
330
0
100
AcDbSymbolTable
 70
     0
  0
ENDTAB
  0
TABLE
  2
APPID
  5
9
330
0
100
AcDbSymbolTable
 70
     4
  0
APPID
  5
56
330
9
100
AcDbSymbolTableRecord
100
AcDbRegAppTableRecord
  2
ACAD
 70
     0
  0
APPID
  5
5E
330
9
100
AcDbSymbolTableRecord
100
AcDbRegAppTableRecord
  2
AcadAnnotative
 70
     0
  0
APPID
  5
467
330
9
100
AcDbSymbolTableRecord
100
AcDbRegAppTableRecord
  2
ACAD_DSTYLE_DIMRADIAL_EXTENSION
 70
     0
  0
APPID
  5
F03
330
9
100
AcDbSymbolTableRecord
100
AcDbRegAppTableRecord
  2
ACAD_MLEADERVER
 70
     0
  0
ENDTAB
  0
TABLE
  2
DIMSTYLE
  5
A
330
0
100
AcDbSymbolTable
 70
    27
100
AcDbDimStyleTable
 71
     2
340
F6
340
58
  0
DIMSTYLE
105
58
330
A
100
AcDbSymbolTableRecord
100
AcDbDimStyleTableRecord
  2
STANDARD
 70
     0
 41
0.1800000071525573
 42
0.0625
140
0.1800000071525574
144
1.0
147
0.0900000035762787
176
   256
177
   256
178
   256
274
     3
340
55
371
    -1
372
    -1
  0
DIMSTYLE
105
59
330
A
100
AcDbSymbolTableRecord
100
AcDbDimStyleTableRecord
  2
Annotative
 70
     0
340
55
1001
AcadAnnotative
1000
AnnotativeData
1002
{
1070
     1
1070
     1
1002
}
  0
DIMSTYLE
105
E2
330
A
100
AcDbSymbolTableRecord
100
AcDbDimStyleTableRecord
  2
AM_ANSI
 70
     0
  4
 mm
 40
6.0
 41
0.119999997317791
 42
0.05
 43
0.5
 44
0.1
 45
0.00000001
 78
     4
 79
     2
140
0.1200000047683716
146
0.7099999453624112
147
0.0599999986588955
176
   256
177
   256
178
     2
284
     4
340
DA
371
    -1
372
    -1
  0
DIMSTYLE
105
E3
330
A
100
AcDbSymbolTableRecord
100
AcDbDimStyleTableRecord
  2
AM_ANSI$7
 70
     0
  4
 mm
 40
6.0
 41
0.119999997317791
 42
0.05
 43
0.5
 44
0.1
 45
0.00000001
 78
     4
 79
     2
140
0.1200000047683716
146
0.7099999453624112
147
0.0599999986588955
176
   256
177
   256
178
     2
284
     4
340
DA
371
    -1
372
    -1
  0
DIMSTYLE
105
E4
330
A
100
AcDbSymbolTableRecord
100
AcDbDimStyleTableRecord
  2
AM_ANSI$0
 70
     0
  4
 mm
 40
6.0
 41
0.119999997317791
 42
0.05
 43
0.5
 44
0.1
 45
0.00000001
 78
     4
 79
     2
140
0.1200000047683716
146
0.7099999453624112
147
0.0599999986588955
176
   256
177
   256
178
     2
284
     4
340
DB
371
    -1
372
    -1
  0
DIMSTYLE
105
E5
330
A
100
AcDbSymbolTableRecord
100
AcDbDimStyleTableRecord
  2
AM_ANSI$0$7
 70
     0
  4
 mm
 40
6.0
 41
0.119999997317791
 42
0.05
 43
0.5
 44
0.1
 45
0.00000001
 78
     4
 79
     2
140
0.1200000047683716
146
0.7099999453624112
147
0.0599999986588955
176
   256
177
   256
178
     2
284
     4
340
DB
371
    -1
372
    -1
  0
DIMSTYLE
105
E6
330
A
100
AcDbSymbolTableRecord
100
AcDbDimStyleTableRecord
  2
AM_ANSI$3
 70
     0
  4
 mm
 40
6.0
 41
0.119999997317791
 42
0.05
 43
0.5
 44
0.1
 45
0.00000001
 78
     4
 79
     2
140
0.1200000047683716
146
0.7099999453624112
147
0.0599999986588955
176
   256
177
   256
178
     2
284
     4
340
DC
371
    -1
372
    -1
  0
DIMSTYLE
105
E7
330
A
100
AcDbSymbolTableRecord
100
AcDbDimStyleTableRecord
  2
AM_ANSI$3$7
 70
     0
  4
 mm
 40
6.0
 41
0.119999997317791
 42
0.05
 43
0.5
 44
0.1
 45
0.00000001
 78
     4
 79
     2
140
0.1200000047683716
146
0.7099999453624112
147
0.0599999986588955
176
   256
177
   256
178
     2
284
     4
340
DC
371
    -1
372
    -1
  0
DIMSTYLE
105
E8
330
A
100
AcDbSymbolTableRecord
100
AcDbDimStyleTableRecord
  2
AM_ANSI$4
 70
     0
  4
 mm
 40
6.0
 41
0.119999997317791
 42
0.05
 43
0.5
 44
0.1
 45
0.00000001
 78
     4
 79
     2
140
0.1200000047683716
146
0.7099999453624112
147
0.0599999986588955
176
   256
177
   256
178
     2
284
     4
340
DD
371
    -1
372
    -1
  0
DIMSTYLE
105
E9
330
A
100
AcDbSymbolTableRecord
100
AcDbDimStyleTableRecord
  2
AM_ANSI$4$7
 70
     0
  4
 mm
 40
6.0
 41
0.119999997317791
 42
0.05
 43
0.5
 44
0.1
 45
0.00000001
 78
     4
 79
     2
140
0.1200000047683716
146
0.7099999453624112
147
0.0599999986588955
176
   256
177
   256
178
     2
284
     4
340
DD
371
    -1
372
    -1
  0
DIMSTYLE
105
EA
330
A
100
AcDbSymbolTableRecord
100
AcDbDimStyleTableRecord
  2
AM_ANSI$SF
 70
     0
  4
 mm
 40
6.0
 41
0.119999997317791
 42
0.05
 43
0.5
 44
0.1
 45
0.00000001
 75
     1
 76
     1
 78
     4
 79
     2
140
0.1200000047683716
146
0.7099999453624112
147
0.0599999986588955
176
   256
177
   256
178
     2
284
     4
340
DF
371
    -1
372
    -1
  0
DIMSTYLE
105
EB
330
A
100
AcDbSymbolTableRecord
100
AcDbDimStyleTableRecord
  2
AM_ANSI$SF$7
 70
     0
  4
 mm
 40
6.0
 41
0.119999997317791
 42
0.05
 43
0.5
 44
0.1
 45
0.00000001
 75
     1
 76
     1
 78
     4
 79
     2
140
0.1200000047683716
146
0.7099999453624112
147
0.0599999986588955
176
   256
177
   256
178
     2
284
     4
340
DF
371
    -1
372
    -1
  0
DIMSTYLE
105
EC
330
A
100
AcDbSymbolTableRecord
100
AcDbDimStyleTableRecord
  2
AM_ANSI$SH
 70
     0
  4
 mm
 40
6.0
 41
0.119999997317791
 42
0.05
 43
0.5
 44
0.1
 45
0.00000001
 75
     1
 76
     1
 78
     4
 79
     2
140
0.1200000047683716
146
0.7099999453624112
147
0.0599999986588955
176
   256
177
   256
178
     2
284
     4
340
E0
371
    -1
372
    -1
  0
DIMSTYLE
105
ED
330
A
100
AcDbSymbolTableRecord
100
AcDbDimStyleTableRecord
  2
AM_ANSI$SH$7
 70
     0
  4
 mm
 40
6.0
 41
0.119999997317791
 42
0.05
 43
0.5
 44
0.1
 45
0.00000001
 75
     1
 76
     1
 78
     4
 79
     2
140
0.1200000047683716
146
0.7099999453624112
147
0.0599999986588955
176
   256
177
   256
178
     2
284
     4
340
E0
371
    -1
372
    -1
  0
DIMSTYLE
105
EE
330
A
100
AcDbSymbolTableRecord
100
AcDbDimStyleTableRecord
  2
Architectural (ANSI)
 70
     0
 40
6.0
 41
0.0984251946210861
 43
0.2362204724409449
 44
0.125
 45
0.00000001
 46
0.3937007874015748
 78
     3
 79
     3
140
0.1200000047683716
147
0.031496062992126
171
     1
176
   256
177
   256
178
   256
272
     2
274
     1
276
     2
277
     4
284
    12
285
     4
286
    12
340
D6
371
    -1
372
    -1
  0
DIMSTYLE
105
EF
330
A
100
AcDbSymbolTableRecord
100
AcDbDimStyleTableRecord
  2
Architectural (ANSI)$7
 70
     0
 40
6.0
 41
0.0984251946210861
 43
0.2362204724409449
 44
0.125
 45
0.00000001
 46
0.3937007874015748
 78
     3
 79
     3
140
0.1200000047683716
147
0.031496062992126
171
     1
176
   256
177
   256
178
   256
272
     2
274
     1
276
     2
277
     4
284
    12
285
     4
286
    12
340
D6
371
    -1
372
    -1
  0
DIMSTYLE
105
F0
330
A
100
AcDbSymbolTableRecord
100
AcDbDimStyleTableRecord
  2
Default - Fraction (ANSI)
 70
     0
 40
6.0
 41
0.0984251946210861
 43
0.2362204724409449
 44
0.125
 45
0.00000001
 46
0.3937007874015748
 79
     3
140
0.1200000047683716
147
0.031496062992126
171
     1
176
   256
177
   256
178
   256
272
     2
274
     1
276
     2
277
     5
284
    12
285
     4
286
    12
340
D6
371
    -1
372
    -1
  0
DIMSTYLE
105
F1
330
A
100
AcDbSymbolTableRecord
100
AcDbDimStyleTableRecord
  2
Default - Fraction (ANSI)$7
 70
     0
 40
6.0
 41
0.0984251946210861
 43
0.2362204724409449
 44
0.125
 45
0.00000001
 46
0.3937007874015748
 79
     3
140
0.1200000047683716
147
0.031496062992126
171
     1
176
   256
177
   256
178
   256
272
     2
274
     1
276
     2
277
     5
284
    12
285
     4
286
    12
340
D6
371
    -1
372
    -1
  0
DIMSTYLE
105
F2
330
A
100
AcDbSymbolTableRecord
100
AcDbDimStyleTableRecord
  2
Default - mm (ANSI)
 70
     0
 40
6.0
 41
0.0984251946210861
 42
0.063
 43
0.2362204724409449
 44
0.125
 45
0.00000001
 46
0.3937007874015748
 73
     0
 78
     4
 79
     1
140
0.1200000047683716
143
1.0
144
25.4
147
0.031496062992126
171
     1
176
   256
177
   256
178
   256
179
     1
271
     2
272
     2
274
     1
284
     4
285
     4
340
D6
371
    -1
372
    -1
  0
DIMSTYLE
105
F3
330
A
100
AcDbSymbolTableRecord
100
AcDbDimStyleTableRecord
  2
Default - mm (ANSI)$7
 70
     0
 40
6.0
 41
0.0984251946210861
 42
0.063
 43
0.2362204724409449
 44
0.125
 45
0.00000001
 46
0.3937007874015748
 73
     0
 78
     4
 79
     1
140
0.1200000047683716
143
1.0
144
25.4
147
0.031496062992126
171
     1
176
   256
177
   256
178
   256
179
     1
271
     2
272
     2
274
     1
284
     4
285
     4
340
D6
371
    -1
372
    -1
  0
DIMSTYLE
105
F4
330
A
100
AcDbSymbolTableRecord
100
AcDbDimStyleTableRecord
  2
Default - mm [in] (ANSI)
 70
     0
  4
 in
 40
6.0
 41
0.0984251946210861
 42
0.063
 43
0.25
 44
0.125
 45
0.00000001
 46
0.3937007874015748
 73
     0
 78
     4
 79
     1
140
0.1200000047683716
143
0.03937
144
25.4
147
0.031496062992126
170
     1
171
     3
176
   256
177
   256
178
   256
179
     1
271
     2
272
     2
274
     3
284
     4
285
     4
286
     4
340
D6
371
    -1
372
    -1
  0
DIMSTYLE
105
F5
330
A
100
AcDbSymbolTableRecord
100
AcDbDimStyleTableRecord
  2
Default - mm [in] (ANSI)$7
 70
     0
  4
 in
 40
6.0
 41
0.0984251946210861
 42
0.063
 43
0.25
 44
0.125
 45
0.00000001
 46
0.3937007874015748
 73
     0
 78
     4
 79
     1
140
0.1200000047683716
143
0.03937
144
25.4
147
0.031496062992126
170
     1
171
     3
176
   256
177
   256
178
   256
179
     1
271
     2
272
     2
274
     3
284
     4
285
     4
286
     4
340
D6
371
    -1
372
    -1
  0
DIMSTYLE
105
F6
102
{ACAD_REACTORS
330
1F7
330
2E4
330
3CE
330
488
330
541
330
63F
330
729
330
829
330
913
330
A13
330
AFD
330
BE7
330
CE9
330
DD3
102
}
330
A
100
AcDbSymbolTableRecord
100
AcDbDimStyleTableRecord
  2
Default (ANSI)
 70
     0
 40
6.0
 41
0.0984251946210861
 43
0.2362204724409449
 44
0.125
 45
0.00000001
 46
0.3937007874015748
 79
     1
140
0.1200000047683716
147
0.031496062992126
171
     1
176
   256
177
   256
178
   256
271
     3
272
     2
274
     1
284
     4
285
     4
340
D6
371
    -1
372
    -1
  0
DIMSTYLE
105
F7
330
A
100
AcDbSymbolTableRecord
100
AcDbDimStyleTableRecord
  2
Default (ANSI)$7
 70
     0
 40
6.0
 41
0.0984251946210861
 43
0.2362204724409449
 44
0.125
 45
0.00000001
 46
0.3937007874015748
 79
     1
140
0.1200000047683716
147
0.031496062992126
171
     1
176
   256
177
   256
178
   256
271
     3
272
     2
274
     1
284
     4
285
     4
340
D6
371
    -1
372
    -1
  0
DIMSTYLE
105
F8
330
A
100
AcDbSymbolTableRecord
100
AcDbDimStyleTableRecord
  2
Alternate (ANSI)
 70
     0
 40
6.0
 41
0.0979999974370003
340
55
342
F9
  0
DIMSTYLE
105
10B
330
A
100
AcDbSymbolTableRecord
100
AcDbDimStyleTableRecord
  2
Datum (ANSI)
 70
     0
 40
6.0
 41
0.0979999974370003
340
55
342
F9
  0
DIMSTYLE
105
11A
330
A
100
AcDbSymbolTableRecord
100
AcDbDimStyleTableRecord
  2
Large (ANSI)
 70
     0
 40
6.0
 41
0.1959999948740005
340
55
342
F9
  0
ENDTAB
  0
TABLE
  2
BLOCK_RECORD
  5
1
330
0
100
AcDbSymbolTable
 70
    18
  0
BLOCK_RECORD
  5
6C
330
1
100
AcDbSymbolTableRecord
100
AcDbBlockTableRecord
  2
*Model_Space
340
6F
  0
BLOCK_RECORD
  5
68
330
1
100
AcDbSymbolTableRecord
100
AcDbBlockTableRecord
  2
*Paper_Space
340
6B
  0
BLOCK_RECORD
  5
70
330
1
100
AcDbSymbolTableRecord
100
AcDbBlockTableRecord
  2
*Paper_Space0
340
73
  0
BLOCK_RECORD
  5
F9
330
1
100
AcDbSymbolTableRecord
100
AcDbBlockTableRecord
  2
_Closed
340
0
  0
BLOCK_RECORD
  5
100
330
1
100
AcDbSymbolTableRecord
100
AcDbBlockTableRecord
  2
DatumFilled45
340
0
  0
BLOCK_RECORD
  5
10C
330
1
100
AcDbSymbolTableRecord
100
AcDbBlockTableRecord
  2
Filled-1
340
0
  0
BLOCK_RECORD
  5
1FA
330
1
100
AcDbSymbolTableRecord
100
AcDbBlockTableRecord
  2
*D4
340
0
  0
BLOCK_RECORD
  5
2E5
330
1
100
AcDbSymbolTableRecord
100
AcDbBlockTableRecord
  2
*D5
340
0
  0
BLOCK_RECORD
  5
3CF
330
1
100
AcDbSymbolTableRecord
100
AcDbBlockTableRecord
  2
*D6
340
0
  0
BLOCK_RECORD
  5
489
330
1
100
AcDbSymbolTableRecord
100
AcDbBlockTableRecord
  2
*D7
340
0
  0
BLOCK_RECORD
  5
542
330
1
100
AcDbSymbolTableRecord
100
AcDbBlockTableRecord
  2
*D8
340
0
  0
BLOCK_RECORD
  5
640
330
1
100
AcDbSymbolTableRecord
100
AcDbBlockTableRecord
  2
*D9
340
0
  0
BLOCK_RECORD
  5
72A
330
1
100
AcDbSymbolTableRecord
100
AcDbBlockTableRecord
  2
*D10
340
0
  0
BLOCK_RECORD
  5
82A
330
1
100
AcDbSymbolTableRecord
100
AcDbBlockTableRecord
  2
*D11
340
0
  0
BLOCK_RECORD
  5
914
330
1
100
AcDbSymbolTableRecord
100
AcDbBlockTableRecord
  2
*D12
340
0
  0
BLOCK_RECORD
  5
A14
330
1
100
AcDbSymbolTableRecord
100
AcDbBlockTableRecord
  2
*D13
340
0
  0
BLOCK_RECORD
  5
AFE
330
1
100
AcDbSymbolTableRecord
100
AcDbBlockTableRecord
  2
*D14
340
0
  0
BLOCK_RECORD
  5
BE8
330
1
100
AcDbSymbolTableRecord
100
AcDbBlockTableRecord
  2
*D15
340
0
  0
BLOCK_RECORD
  5
CEA
330
1
100
AcDbSymbolTableRecord
100
AcDbBlockTableRecord
  2
*D16
340
0
  0
BLOCK_RECORD
  5
DD4
330
1
100
AcDbSymbolTableRecord
100
AcDbBlockTableRecord
  2
*D17
340
0
  0
ENDTAB
  0
ENDSEC
  0
SECTION
  2
BLOCKS
  0
BLOCK
  5
6D
330
6C
100
AcDbEntity
  8
0
100
AcDbBlockBegin
  2
*Model_Space
 70
     0
 10
0.0
 20
0.0
 30
0.0
  3
*Model_Space
  1

  0
ENDBLK
  5
6E
330
6C
100
AcDbEntity
  8
0
100
AcDbBlockEnd
  0
BLOCK
  5
69
330
68
100
AcDbEntity
 67
     1
  8
0
100
AcDbBlockBegin
  2
*Paper_Space
 70
     0
 10
0.0
 20
0.0
 30
0.0
  3
*Paper_Space
  1

  0
ENDBLK
  5
6A
330
68
100
AcDbEntity
 67
     1
  8
0
100
AcDbBlockEnd
  0
BLOCK
  5
71
330
70
100
AcDbEntity
 67
     1
  8
0
100
AcDbBlockBegin
  2
*Paper_Space0
 70
     0
 10
0.0
 20
0.0
 30
0.0
  3
*Paper_Space0
  1

  0
ENDBLK
  5
72
330
70
100
AcDbEntity
 67
     1
  8
0
100
AcDbBlockEnd
  0
BLOCK
  5
FE
330
F9
100
AcDbEntity
  8
0
100
AcDbBlockBegin
  2
_Closed
 70
     0
 10
0.0
 20
0.0
 30
0.0
  3
_Closed
  1

  0
LINE
  5
FA
330
F9
100
AcDbEntity
  8
0
  6
ByBlock
 62
     0
370
    -2
100
AcDbLine
 10
-1.0
 20
0.1666666666666666
 30
0.0
 11
0.0
 21
0.0
 31
0.0
  0
LINE
  5
FB
330
F9
100
AcDbEntity
  8
0
  6
ByBlock
 62
     0
370
    -2
100
AcDbLine
 10
0.0
 20
0.0
 30
0.0
 11
-1.0
 21
-0.1666666666666666
 31
0.0
  0
LINE
  5
FC
330
F9
100
AcDbEntity
  8
0
  6
ByBlock
 62
     0
370
    -2
100
AcDbLine
 10
-1.0
 20
0.1666666666666666
 30
0.0
 11
-1.0
 21
-0.1666666666666666
 31
0.0
  0
LINE
  5
FD
330
F9
100
AcDbEntity
  8
0
  6
ByBlock
 62
     0
370
    -2
100
AcDbLine
 10
0.0
 20
0.0
 30
0.0
 11
-1.0
 21
0.0
 31
0.0
  0
ENDBLK
  5
FF
330
F9
100
AcDbEntity
  8
0
100
AcDbBlockEnd
  0
BLOCK
  5
101
330
100
100
AcDbEntity
  8
0
100
AcDbBlockBegin
  2
DatumFilled45
 70
     0
 10
0.0
 20
0.0
 30
0.0
  3
DatumFilled45
  1

  0
POLYLINE
  5
103
330
100
100
AcDbEntity
  8
0
 62
     0
100
AcDb2dPolyline
 66
     1
 10
0.0
 20
0.0
 30
0.0
 70
   128
  0
VERTEX
  5
104
330
103
100
AcDbEntity
  8
0
 62
     0
100
AcDbVertex
100
AcDb2dVertex
 10
0.0
 20
0.9999999999999998
 30
0.0
  0
VERTEX
  5
105
330
103
100
AcDbEntity
  8
0
 62
     0
100
AcDbVertex
100
AcDb2dVertex
 10
0.0
 20
-0.9999999999999998
 30
0.0
  0
VERTEX
  5
107
330
103
100
AcDbEntity
  8
0
 62
     0
100
AcDbVertex
100
AcDb2dVertex
 10
-0.9999999999999998
 20
0.0
 30
0.0
  0
VERTEX
  5
108
330
103
100
AcDbEntity
  8
0
 62
     0
100
AcDbVertex
100
AcDb2dVertex
 10
0.0
 20
0.9999999999999998
 30
0.0
  0
SEQEND
  5
106
330
103
100
AcDbEntity
  8
0
 62
     0
  0
SOLID
  5
10A
330
100
100
AcDbEntity
  8
0
 62
     0
100
AcDbTrace
 10
0.0
 20
0.9999999999999998
 30
0.0
 11
0.0
 21
-0.9999999999999998
 31
0.0
 12
-0.9999999999999998
 22
0.0
 32
0.0
 13
0.0
 23
0.9999999999999998
 33
0.0
  0
ENDBLK
  5
102
330
100
100
AcDbEntity
  8
0
100
AcDbBlockEnd
  0
BLOCK
  5
10D
330
10C
100
AcDbEntity
  8
0
100
AcDbBlockBegin
  2
Filled-1
 70
     0
 10
0.0
 20
0.0
 30
0.0
  3
Filled-1
  1

  0
LINE
  5
10F
330
10C
100
AcDbEntity
  8
0
 62
     0
100
AcDbLine
 10
-0.9999999999999998
 20
0.0
 30
0.0
 11
0.0
 21
0.0
 31
0.0
  0
POLYLINE
  5
110
330
10C
100
AcDbEntity
  8
0
 62
     0
100
AcDb2dPolyline
 66
     1
 10
0.0
 20
0.0
 30
0.0
 70
   128
  0
VERTEX
  5
111
330
110
100
AcDbEntity
  8
0
 62
     0
100
AcDbVertex
100
AcDb2dVertex
 10
-0.9999999999999998
 20
-0.0994897959183674
 30
0.0
  0
VERTEX
  5
112
330
110
100
AcDbEntity
  8
0
 62
     0
100
AcDbVertex
100
AcDb2dVertex
 10
0.0
 20
0.0
 30
0.0
  0
VERTEX
  5
114
330
110
100
AcDbEntity
  8
0
 62
     0
100
AcDbVertex
100
AcDb2dVertex
 10
-0.9999999999999998
 20
0.0994897959183674
 30
0.0
  0
VERTEX
  5
115
330
110
100
AcDbEntity
  8
0
 62
     0
100
AcDbVertex
100
AcDb2dVertex
 10
-0.9999999999999998
 20
-0.0994897959183674
 30
0.0
  0
SEQEND
  5
113
330
110
100
AcDbEntity
  8
0
 62
     0
  0
SOLID
  5
116
330
10C
100
AcDbEntity
  8
0
 62
     0
100
AcDbTrace
 10
-0.9999999999999998
 20
-0.0994897959183674
 30
0.0
 11
0.0
 21
0.0
 31
0.0
 12
-0.9999999999999998
 22
0.0994897959183674
 32
0.0
 13
-0.9999999999999998
 23
-0.0994897959183674
 33
0.0
  0
LINE
  5
117
330
10C
100
AcDbEntity
  8
0
 62
     0
100
AcDbLine
 10
-0.9999999999999998
 20
-0.0994897959183674
 30
0.0
 11
0.0
 21
0.0
 31
0.0
  0
LINE
  5
118
330
10C
100
AcDbEntity
  8
0
 62
     0
100
AcDbLine
 10
0.0
 20
0.0
 30
0.0
 11
-0.9999999999999998
 21
0.0994897959183674
 31
0.0
  0
LINE
  5
119
330
10C
100
AcDbEntity
  8
0
 62
     0
100
AcDbLine
 10
-0.9999999999999998
 20
0.0994897959183674
 30
0.0
 11
-0.9999999999999998
 21
-0.0994897959183674
 31
0.0
  0
ENDBLK
  5
10E
330
10C
100
AcDbEntity
  8
0
100
AcDbBlockEnd
  0
BLOCK
  5
1FB
330
1FA
100
AcDbEntity
  8
0
100
AcDbBlockBegin
  2
*D4
 70
     1
 10
0.0
 20
0.0
 30
0.0
  3
*D4
  1

  0
LINE
  5
2DA
330
1FA
100
AcDbEntity
  8
Dimension (ANSI)
100
AcDbLine
 10
48.96255958497288
 20
51.76511260760985
 30
0.0
 11
48.96255958497288
 21
58.7542858359563
 31
0.0
  0
LINE
  5
2DB
330
1FA
100
AcDbEntity
  8
Dimension (ANSI)
100
AcDbLine
 10
20.76255958497289
 20
51.76511260760984
 30
0.0
 11
20.76255958497289
 21
58.7542858359563
 31
0.0
  0
LINE
  5
2DC
330
1FA
100
AcDbEntity
  8
Dimension (ANSI)
100
AcDbLine
 10
48.37200841724637
 20
58.0042858359563
 30
0.0
 11
36.83439317662716
 21
58.0042858359563
 31
0.0
  0
LINE
  5
2DD
330
1FA
100
AcDbEntity
  8
Dimension (ANSI)
100
AcDbLine
 10
21.35311075269941
 20
58.0042858359563
 30
0.0
 11
32.89072599331861
 21
58.0042858359563
 31
0.0
  0
SOLID
  5
2DE
330
1FA
100
AcDbEntity
  8
Dimension (ANSI)
100
AcDbTrace
 10
48.37200841724637
 20
58.10271103057739
 30
0.0
 11
48.37200841724637
 21
57.90586064133521
 31
0.0
 12
48.96255958497288
 22
58.0042858359563
 32
0.0
 13
48.96255958497288
 23
58.0042858359563
 33
0.0
  0
SOLID
  5
2DF
330
1FA
100
AcDbEntity
  8
Dimension (ANSI)
100
AcDbTrace
 10
21.35311075269941
 20
58.10271103057739
 30
0.0
 11
21.35311075269941
 21
57.90586064133521
 31
0.0
 12
20.76255958497289
 22
58.0042858359563
 32
0.0
 13
20.76255958497289
 23
58.0042858359563
 33
0.0
  0
MTEXT
  5
2E0
330
1FA
100
AcDbEntity
  8
Dimension (ANSI)
100
AcDbMText
 10
33.07970237127137
 20
58.36428585026141
 30
0.0
 40
0.7200000286102295
 41
0.0
 71
     1
 72
     1
  1
\A1;28.200
  7
Note Text (ANSI)
 73
     1
 44
1.0
1001
ACAD
1000
MTEXTBEGIN
1070
    73
1070
     1
1070
    44
1040
1.0
1070
    74
1070
     0
1000
MTEXTEND
  0
POINT
  5
2E1
330
1FA
100
AcDbEntity
  8
Defpoints
 62
     0
100
AcDbPoint
 10
48.96255958497288
 20
51.39011260760985
 30
0.0
  0
POINT
  5
2E2
330
1FA
100
AcDbEntity
  8
Defpoints
 62
     0
100
AcDbPoint
 10
20.76255958497289
 20
51.39011260760984
 30
0.0
  0
POINT
  5
2E3
330
1FA
100
AcDbEntity
  8
Defpoints
 62
     0
100
AcDbPoint
 10
20.76255958497289
 20
58.0042858359563
 30
0.0
  0
ENDBLK
  5
1FC
330
1FA
100
AcDbEntity
  8
0
100
AcDbBlockEnd
  0
BLOCK
  5
2E6
330
2E5
100
AcDbEntity
  8
0
100
AcDbBlockBegin
  2
*D5
 70
     1
 10
0.0
 20
0.0
 30
0.0
  3
*D5
  1

  0
LINE
  5
3C4
330
2E5
100
AcDbEntity
  8
Dimension (ANSI)
100
AcDbLine
 10
20.88755958497289
 20
51.89011260760984
 30
0.0
 11
10.10373437779748
 21
51.89011260760985
 31
0.0
  0
LINE
  5
3C5
330
2E5
100
AcDbEntity
  8
Dimension (ANSI)
100
AcDbLine
 10
20.88755958497289
 20
17.69011260760984
 30
0.0
 11
10.10373437779747
 21
17.69011260760984
 31
0.0
  0
LINE
  5
3C6
330
2E5
100
AcDbEntity
  8
Dimension (ANSI)
100
AcDbLine
 10
10.85373437779748
 20
51.29956143988333
 30
0.0
 11
10.85373437779748
 21
39.33019977953453
 31
0.0
  0
LINE
  5
3C7
330
2E5
100
AcDbEntity
  8
Dimension (ANSI)
100
AcDbLine
 10
10.85373437779747
 20
18.28066377533636
 30
0.0
 11
10.85373437779748
 21
38.23224699501878
 31
0.0
  0
SOLID
  5
3C8
330
2E5
100
AcDbEntity
  8
Dimension (ANSI)
100
AcDbTrace
 10
10.75530918317639
 20
51.29956143988333
 30
0.0
 11
10.95215957241856
 21
51.29956143988333
 31
0.0
 12
10.85373437779748
 22
51.89011260760985
 32
0.0
 13
10.85373437779748
 23
51.89011260760985
 33
0.0
  0
SOLID
  5
3C9
330
2E5
100
AcDbEntity
  8
Dimension (ANSI)
100
AcDbTrace
 10
10.75530918317638
 20
18.28066377533636
 30
0.0
 11
10.95215957241856
 21
18.28066377533636
 31
0.0
 12
10.85373437779747
 22
17.69011260760984
 32
0.0
 13
10.85373437779747
 23
17.69011260760984
 33
0.0
  0
MTEXT
  5
3CA
330
2E5
100
AcDbEntity
  8
Dimension (ANSI)
100
AcDbMText
 10
9.07087716409595
 20
39.14122340158177
 30
0.0
 40
0.7200000286102295
 41
0.0
 71
     1
 72
     1
  1
\A1;34.200
  7
Note Text (ANSI)
 73
     1
 44
1.0
1001
ACAD
1000
MTEXTBEGIN
1070
    73
1070
     1
1070
    44
1040
1.0
1070
    74
1070
     0
1000
MTEXTEND
  0
POINT
  5
3CB
330
2E5
100
AcDbEntity
  8
Defpoints
 62
     0
100
AcDbPoint
 10
21.26255958497289
 20
51.89011260760984
 30
0.0
  0
POINT
  5
3CC
330
2E5
100
AcDbEntity
  8
Defpoints
 62
     0
100
AcDbPoint
 10
21.26255958497289
 20
17.69011260760984
 30
0.0
  0
POINT
  5
3CD
330
2E5
100
AcDbEntity
  8
Defpoints
 62
     0
100
AcDbPoint
 10
10.85373437779747
 20
17.69011260760984
 30
0.0
  0
ENDBLK
  5
2E7
330
2E5
100
AcDbEntity
  8
0
100
AcDbBlockEnd
  0
BLOCK
  5
3D0
330
3CF
100
AcDbEntity
  8
0
100
AcDbBlockBegin
  2
*D6
 70
     1
 10
0.0
 20
0.0
 30
0.0
  3
*D6
  1

  0
LINE
  5
480
330
3CF
100
AcDbEntity
  8
Dimension (ANSI)
100
AcDbLine
 10
24.34339450489916
 20
13.37486087144734
 30
0.0
 11
23.4902647570172
 21
13.37486087144734
 31
0.0
  0
LINE
  5
481
330
3CF
100
AcDbEntity
  8
Dimension (ANSI)
100
AcDbLine
 10
23.4902647570172
 20
13.37486087144734
 30
0.0
 11
21.63167431217059
 21
17.44549167353854
 31
0.0
  0
MTEXT
  5
482
102
{ACAD_XDICTIONARY
360
F0A
102
}
330
3CF
100
AcDbEntity
  8
Dimension (ANSI)
100
AcDbMText
 10
24.53237088285192
 20
13.94914660855312
 30
0.0
 40
0.7200000286102295
 41
0.0
 71
     1
 72
     1
  1
\A1;\U+22050.500{\PTYP.(6PL.)}
  7
Note Text (ANSI)
 73
     1
 44
1.0
1001
ACAD
1000
MTEXTBEGIN
1070
    73
1070
     1
1070
    44
1040
1.0
1070
    74
1070
     0
1000
MTEXTEND
  0
SOLID
  5
483
330
3CF
100
AcDbEntity
  8
Dimension (ANSI)
100
AcDbTrace
 10
21.72120837878891
 20
17.48637161789988
 30
0.0
 11
21.54214024555228
 21
17.40461172917719
 31
0.0
 12
21.38639464600254
 22
17.9826960732484
 32
0.0
 13
21.38639464600254
 23
17.9826960732484
 33
0.0
  0
LINE
  5
484
330
3CF
100
AcDbEntity
  8
Dimension (ANSI)
100
AcDbLine
 10
20.74255958497289
 20
18.21011260760984
 30
0.0
 11
21.8225595849729
 21
18.21011260760984
 31
0.0
  0
LINE
  5
485
330
3CF
100
AcDbEntity
  8
Dimension (ANSI)
100
AcDbLine
 10
21.2825595849729
 20
17.67011260760985
 30
0.0
 11
21.2825595849729
 21
18.75011260760984
 31
0.0
  0
POINT
  5
486
330
3CF
100
AcDbEntity
  8
Defpoints
 62
     0
100
AcDbPoint
 10
21.38639464600254
 20
17.9826960732484
 30
0.0
  0
POINT
  5
487
330
3CF
100
AcDbEntity
  8
Defpoints
 62
     0
100
AcDbPoint
 10
21.17872452394325
 20
18.43752914197127
 30
0.0
  0
ENDBLK
  5
3D1
330
3CF
100
AcDbEntity
  8
0
100
AcDbBlockEnd
  0
BLOCK
  5
48A
330
489
100
AcDbEntity
  8
0
100
AcDbBlockBegin
  2
*D7
 70
     1
 10
0.0
 20
0.0
 30
0.0
  3
*D7
  1

  0
LINE
  5
539
330
489
100
AcDbEntity
  8
Dimension (ANSI)
100
AcDbLine
 10
24.31715080421858
 20
16.31415542738444
 30
0.0
 11
23.46402105633663
 21
16.31415542738443
 31
0.0
  0
LINE
  5
53A
330
489
100
AcDbEntity
  8
Dimension (ANSI)
100
AcDbLine
 10
23.46402105633663
 20
16.31415542738443
 30
0.0
 11
21.75762278953344
 21
18.38389482257509
 31
0.0
  0
MTEXT
  5
53B
102
{ACAD_XDICTIONARY
360
F0C
102
}
330
489
100
AcDbEntity
  8
Dimension (ANSI)
100
AcDbMText
 10
24.50612718217133
 20
16.88844116449021
 30
0.0
 40
0.7200000286102295
 41
0.0
 71
     1
 72
     1
  1
\A1;\U+22050.313{\PTYP.(4PL.)}
  7
Note Text (ANSI)
 73
     1
 44
1.0
1001
ACAD
1000
MTEXTBEGIN
1070
    73
1070
     1
1070
    44
1040
1.0
1070
    74
1070
     0
1000
MTEXTEND
  0
SOLID
  5
53C
330
489
100
AcDbEntity
  8
Dimension (ANSI)
100
AcDbTrace
 10
21.83356582509247
 20
18.44650611777236
 30
0.0
 11
21.68167975397441
 21
18.32128352737783
 31
0.0
 12
21.38195501834984
 22
18.83955303592924
 32
0.0
 13
21.38195501834984
 23
18.83955303592924
 33
0.0
  0
LINE
  5
53D
330
489
100
AcDbEntity
  8
Dimension (ANSI)
100
AcDbLine
 10
20.74255958497289
 20
18.96011260760984
 30
0.0
 11
21.8225595849729
 21
18.96011260760984
 31
0.0
  0
LINE
  5
53E
330
489
100
AcDbEntity
  8
Dimension (ANSI)
100
AcDbLine
 10
21.28255958497289
 20
18.42011260760985
 30
0.0
 11
21.2825595849729
 21
19.50011260760985
 31
0.0
  0
POINT
  5
53F
330
489
100
AcDbEntity
  8
Defpoints
 62
     0
100
AcDbPoint
 10
21.38195501834984
 20
18.83955303592924
 30
0.0
  0
POINT
  5
540
330
489
100
AcDbEntity
  8
Defpoints
 62
     0
100
AcDbPoint
 10
21.18316415159595
 20
19.08067217929044
 30
0.0
  0
ENDBLK
  5
48B
330
489
100
AcDbEntity
  8
0
100
AcDbBlockEnd
  0
BLOCK
  5
543
330
542
100
AcDbEntity
  8
0
100
AcDbBlockBegin
  2
*D8
 70
     1
 10
0.0
 20
0.0
 30
0.0
  3
*D8
  1

  0
LINE
  5
635
330
542
100
AcDbEntity
  8
Dimension (ANSI)
100
AcDbLine
 10
64.36639937348871
 20
38.99707843338494
 30
0.0
 11
64.36639937348871
 21
17.83467685858179
 31
0.0
  0
LINE
  5
636
330
542
100
AcDbEntity
  8
Dimension (ANSI)
100
AcDbLine
 10
64.46014937348872
 20
38.99707843338494
 30
0.0
 11
64.46014937348872
 21
17.83467685858179
 31
0.0
  0
LINE
  5
637
330
542
100
AcDbEntity
  8
Dimension (ANSI)
100
AcDbLine
 10
65.05070054121524
 20
18.58467685858179
 30
0.0
 11
65.64125170894175
 21
18.58467685858179
 31
0.0
  0
LINE
  5
638
330
542
100
AcDbEntity
  8
Dimension (ANSI)
100
AcDbLine
 10
63.7758482057622
 20
18.58467685858179
 30
0.0
 11
63.0896593831425
 21
18.58467685858179
 31
0.0
  0
SOLID
  5
639
330
542
100
AcDbEntity
  8
Dimension (ANSI)
100
AcDbTrace
 10
65.05070054121524
 20
18.68310205320288
 30
0.0
 11
65.05070054121524
 21
18.48625166396071
 31
0.0
 12
64.46014937348872
 22
18.58467685858179
 32
0.0
 13
64.46014937348872
 23
18.58467685858179
 33
0.0
  0
SOLID
  5
63A
330
542
100
AcDbEntity
  8
Dimension (ANSI)
100
AcDbTrace
 10
63.7758482057622
 20
18.68310205320288
 30
0.0
 11
63.7758482057622
 21
18.48625166396071
 31
0.0
 12
64.36639937348871
 22
18.58467685858179
 32
0.0
 13
64.36639937348871
 23
18.58467685858179
 33
0.0
  0
MTEXT
  5
63B
330
542
100
AcDbEntity
  8
Dimension (ANSI)
100
AcDbMText
 10
58.54639711788026
 20
19.06467687765528
 30
0.0
 40
0.7200000286102295
 41
0.0
 71
     1
 72
     1
  1
\A1; 12 GA.\P304 SS
  7
Note Text (ANSI)
 73
     1
 44
1.0
1001
ACAD
1000
MTEXTBEGIN
1070
    73
1070
     1
1070
    44
1040
1.0
1070
    74
1070
     0
1000
MTEXTEND
  0
POINT
  5
63C
330
542
100
AcDbEntity
  8
Defpoints
 62
     0
100
AcDbPoint
 10
64.36639937348871
 20
39.37207843338494
 30
0.0
  0
POINT
  5
63D
330
542
100
AcDbEntity
  8
Defpoints
 62
     0
100
AcDbPoint
 10
64.46014937348872
 20
39.37207843338494
 30
0.0
  0
POINT
  5
63E
330
542
100
AcDbEntity
  8
Defpoints
 62
     0
100
AcDbPoint
 10
64.46014937348872
 20
18.58467685858179
 30
0.0
  0
ENDBLK
  5
544
330
542
100
AcDbEntity
  8
0
100
AcDbBlockEnd
  0
BLOCK
  5
641
330
640
100
AcDbEntity
  8
0
100
AcDbBlockBegin
  2
*D9
 70
     1
 10
0.0
 20
0.0
 30
0.0
  3
*D9
  1

  0
LINE
  5
71F
330
640
100
AcDbEntity
  8
Dimension (ANSI)
100
AcDbLine
 10
20.9075595849729
 20
51.37011260760984
 30
0.0
 11
12.83004679960649
 21
51.37011260760985
 31
0.0
  0
LINE
  5
720
330
640
100
AcDbEntity
  8
Dimension (ANSI)
100
AcDbLine
 10
20.9075595849729
 20
18.21011260760984
 30
0.0
 11
12.83004679960648
 21
18.21011260760984
 31
0.0
  0
LINE
  5
721
330
640
100
AcDbEntity
  8
Dimension (ANSI)
100
AcDbLine
 10
13.58004679960649
 20
50.77956143988333
 30
0.0
 11
13.58004679960649
 21
37.24537243466161
 31
0.0
  0
LINE
  5
722
330
640
100
AcDbEntity
  8
Dimension (ANSI)
100
AcDbLine
 10
13.58004679960648
 20
18.80066377533636
 30
0.0
 11
13.58004679960649
 21
36.14741965014586
 31
0.0
  0
SOLID
  5
723
330
640
100
AcDbEntity
  8
Dimension (ANSI)
100
AcDbTrace
 10
13.4816216049854
 20
50.77956143988333
 30
0.0
 11
13.67847199422757
 21
50.77956143988333
 31
0.0
 12
13.58004679960649
 22
51.37011260760985
 32
0.0
 13
13.58004679960649
 23
51.37011260760985
 33
0.0
  0
SOLID
  5
724
330
640
100
AcDbEntity
  8
Dimension (ANSI)
100
AcDbTrace
 10
13.4816216049854
 20
18.80066377533636
 30
0.0
 11
13.67847199422757
 21
18.80066377533636
 31
0.0
 12
13.58004679960648
 22
18.21011260760984
 32
0.0
 13
13.58004679960648
 23
18.21011260760984
 33
0.0
  0
MTEXT
  5
725
330
640
100
AcDbEntity
  8
Dimension (ANSI)
100
AcDbMText
 10
11.79718958590496
 20
37.05639605670885
 30
0.0
 40
0.7200000286102295
 41
0.0
 71
     1
 72
     1
  1
\A1;33.160
  7
Note Text (ANSI)
 73
     1
 44
1.0
1001
ACAD
1000
MTEXTBEGIN
1070
    73
1070
     1
1070
    44
1040
1.0
1070
    74
1070
     0
1000
MTEXTEND
  0
POINT
  5
726
330
640
100
AcDbEntity
  8
Defpoints
 62
     0
100
AcDbPoint
 10
21.28255958497289
 20
51.37011260760984
 30
0.0
  0
POINT
  5
727
330
640
100
AcDbEntity
  8
Defpoints
 62
     0
100
AcDbPoint
 10
21.28255958497289
 20
18.21011260760984
 30
0.0
  0
POINT
  5
728
330
640
100
AcDbEntity
  8
Defpoints
 62
     0
100
AcDbPoint
 10
13.58004679960648
 20
18.21011260760984
 30
0.0
  0
ENDBLK
  5
642
330
640
100
AcDbEntity
  8
0
100
AcDbBlockEnd
  0
BLOCK
  5
72B
330
72A
100
AcDbEntity
  8
0
100
AcDbBlockBegin
  2
*D10
 70
     1
 10
0.0
 20
0.0
 30
0.0
  3
*D10
  1

  0
LINE
  5
81E
330
72A
100
AcDbEntity
  8
Dimension (ANSI)
100
AcDbLine
 10
20.9075595849729
 20
18.96011260760985
 30
0.0
 11
15.7260448890896
 21
18.96011260760985
 31
0.0
  0
LINE
  5
81F
330
72A
100
AcDbEntity
  8
Dimension (ANSI)
100
AcDbLine
 10
20.9075595849729
 20
18.21011260760984
 30
0.0
 11
15.7260448890896
 21
18.21011260760984
 31
0.0
  0
LINE
  5
820
330
72A
100
AcDbEntity
  8
Dimension (ANSI)
100
AcDbLine
 10
16.4760448890896
 20
17.61956143988333
 30
0.0
 11
16.4760448890896
 21
17.02901027215681
 31
0.0
  0
LINE
  5
821
330
72A
100
AcDbEntity
  8
Dimension (ANSI)
100
AcDbLine
 10
16.4760448890896
 20
19.55066377533636
 30
0.0
 11
16.4760448890896
 21
20.57907695319377
 31
0.0
  0
LINE
  5
822
330
72A
100
AcDbEntity
  8
Dimension (ANSI)
100
AcDbLine
 10
16.4760448890896
 20
20.57907695319377
 30
0.0
 11
17.06659605681612
 21
20.57907695319377
 31
0.0
  0
SOLID
  5
823
330
72A
100
AcDbEntity
  8
Dimension (ANSI)
100
AcDbTrace
 10
16.37761969446852
 20
17.61956143988333
 30
0.0
 11
16.57447008371069
 21
17.61956143988333
 31
0.0
 12
16.4760448890896
 22
18.21011260760984
 32
0.0
 13
16.4760448890896
 23
18.21011260760984
 33
0.0
  0
SOLID
  5
824
330
72A
100
AcDbEntity
  8
Dimension (ANSI)
100
AcDbTrace
 10
16.37761969446852
 20
19.55066377533636
 30
0.0
 11
16.57447008371069
 21
19.55066377533636
 31
0.0
 12
16.4760448890896
 22
18.96011260760985
 32
0.0
 13
16.4760448890896
 23
18.96011260760985
 33
0.0
  0
MTEXT
  5
825
330
72A
100
AcDbEntity
  8
Dimension (ANSI)
100
AcDbMText
 10
17.25557243476887
 20
20.93907696749889
 30
0.0
 40
0.7200000286102295
 41
0.0
 71
     1
 72
     1
  1
\A1;0.750
  7
Note Text (ANSI)
 73
     1
 44
1.0
1001
ACAD
1000
MTEXTBEGIN
1070
    73
1070
     1
1070
    44
1040
1.0
1070
    74
1070
     0
1000
MTEXTEND
  0
POINT
  5
826
330
72A
100
AcDbEntity
  8
Defpoints
 62
     0
100
AcDbPoint
 10
21.28255958497289
 20
18.96011260760985
 30
0.0
  0
POINT
  5
827
330
72A
100
AcDbEntity
  8
Defpoints
 62
     0
100
AcDbPoint
 10
21.28255958497289
 20
18.21011260760984
 30
0.0
  0
POINT
  5
828
330
72A
100
AcDbEntity
  8
Defpoints
 62
     0
100
AcDbPoint
 10
16.4760448890896
 20
18.21011260760984
 30
0.0
  0
ENDBLK
  5
72C
330
72A
100
AcDbEntity
  8
0
100
AcDbBlockEnd
  0
BLOCK
  5
82B
330
82A
100
AcDbEntity
  8
0
100
AcDbBlockBegin
  2
*D11
 70
     1
 10
0.0
 20
0.0
 30
0.0
  3
*D11
  1

  0
LINE
  5
909
330
82A
100
AcDbEntity
  8
Dimension (ANSI)
100
AcDbLine
 10
48.44255958497289
 20
51.74511260760985
 30
0.0
 11
48.44255958497289
 21
56.69267774944572
 31
0.0
  0
LINE
  5
90A
330
82A
100
AcDbEntity
  8
Dimension (ANSI)
100
AcDbLine
 10
21.28255958497289
 20
51.74511260760984
 30
0.0
 11
21.28255958497289
 21
56.69267774944572
 31
0.0
  0
LINE
  5
90B
330
82A
100
AcDbEntity
  8
Dimension (ANSI)
100
AcDbLine
 10
47.85200841724637
 20
55.94267774944572
 30
0.0
 11
36.83439317662717
 21
55.94267774944572
 31
0.0
  0
LINE
  5
90C
330
82A
100
AcDbEntity
  8
Dimension (ANSI)
100
AcDbLine
 10
21.87311075269941
 20
55.94267774944572
 30
0.0
 11
32.89072599331863
 21
55.94267774944572
 31
0.0
  0
SOLID
  5
90D
330
82A
100
AcDbEntity
  8
Dimension (ANSI)
100
AcDbTrace
 10
47.85200841724637
 20
56.0411029440668
 30
0.0
 11
47.85200841724637
 21
55.84425255482464
 31
0.0
 12
48.44255958497289
 22
55.94267774944572
 32
0.0
 13
48.44255958497289
 23
55.94267774944572
 33
0.0
  0
SOLID
  5
90E
330
82A
100
AcDbEntity
  8
Dimension (ANSI)
100
AcDbTrace
 10
21.87311075269941
 20
56.0411029440668
 30
0.0
 11
21.87311075269941
 21
55.84425255482464
 31
0.0
 12
21.28255958497289
 22
55.94267774944572
 32
0.0
 13
21.28255958497289
 23
55.94267774944572
 33
0.0
  0
MTEXT
  5
90F
330
82A
100
AcDbEntity
  8
Dimension (ANSI)
100
AcDbMText
 10
33.07970237127138
 20
56.30267776375084
 30
0.0
 40
0.7200000286102295
 41
0.0
 71
     1
 72
     1
  1
\A1;27.160
  7
Note Text (ANSI)
 73
     1
 44
1.0
1001
ACAD
1000
MTEXTBEGIN
1070
    73
1070
     1
1070
    44
1040
1.0
1070
    74
1070
     0
1000
MTEXTEND
  0
POINT
  5
910
330
82A
100
AcDbEntity
  8
Defpoints
 62
     0
100
AcDbPoint
 10
48.44255958497289
 20
51.37011260760985
 30
0.0
  0
POINT
  5
911
330
82A
100
AcDbEntity
  8
Defpoints
 62
     0
100
AcDbPoint
 10
21.28255958497289
 20
51.37011260760984
 30
0.0
  0
POINT
  5
912
330
82A
100
AcDbEntity
  8
Defpoints
 62
     0
100
AcDbPoint
 10
21.28255958497289
 20
55.94267774944572
 30
0.0
  0
ENDBLK
  5
82C
330
82A
100
AcDbEntity
  8
0
100
AcDbBlockEnd
  0
BLOCK
  5
915
330
914
100
AcDbEntity
  8
0
100
AcDbBlockBegin
  2
*D12
 70
     1
 10
0.0
 20
0.0
 30
0.0
  3
*D12
  1

  0
LINE
  5
A08
330
914
100
AcDbEntity
  8
Dimension (ANSI)
100
AcDbLine
 10
48.5875595849729
 20
18.19011260760984
 30
0.0
 11
48.08180639803993
 21
18.19011260760984
 31
0.0
  0
LINE
  5
A09
330
914
100
AcDbEntity
  8
Dimension (ANSI)
100
AcDbLine
 10
48.8375595849729
 20
17.69011260760984
 30
0.0
 11
49.58180639803992
 21
17.69011260760984
 31
0.0
  0
LINE
  5
A0A
330
914
100
AcDbEntity
  8
Dimension (ANSI)
100
AcDbLine
 10
48.83180639803992
 20
17.09956143988333
 30
0.0
 11
48.83180639803992
 21
16.50901027215681
 31
0.0
  0
LINE
  5
A0B
330
914
100
AcDbEntity
  8
Dimension (ANSI)
100
AcDbLine
 10
48.83180639803992
 20
18.78066377533636
 30
0.0
 11
48.83180639803992
 21
19.90053222909341
 31
0.0
  0
LINE
  5
A0C
330
914
100
AcDbEntity
  8
Dimension (ANSI)
100
AcDbLine
 10
48.83180639803992
 20
19.90053222909341
 30
0.0
 11
49.42235756576644
 21
19.90053222909341
 31
0.0
  0
SOLID
  5
A0D
330
914
100
AcDbEntity
  8
Dimension (ANSI)
100
AcDbTrace
 10
48.73338120341884
 20
17.09956143988333
 30
0.0
 11
48.93023159266101
 21
17.09956143988333
 31
0.0
 12
48.83180639803992
 22
17.69011260760984
 32
0.0
 13
48.83180639803992
 23
17.69011260760984
 33
0.0
  0
SOLID
  5
A0E
330
914
100
AcDbEntity
  8
Dimension (ANSI)
100
AcDbTrace
 10
48.73338120341884
 20
18.78066377533636
 30
0.0
 11
48.93023159266101
 21
18.78066377533636
 31
0.0
 12
48.83180639803992
 22
18.19011260760984
 32
0.0
 13
48.83180639803992
 23
18.19011260760984
 33
0.0
  0
MTEXT
  5
A0F
330
914
100
AcDbEntity
  8
Dimension (ANSI)
100
AcDbMText
 10
49.61133394371919
 20
20.26053224339854
 30
0.0
 40
0.7200000286102295
 41
0.0
 71
     1
 72
     1
  1
\A1;0.500
  7
Note Text (ANSI)
 73
     1
 44
1.0
1001
ACAD
1000
MTEXTBEGIN
1070
    73
1070
     1
1070
    44
1040
1.0
1070
    74
1070
     0
1000
MTEXTEND
  0
POINT
  5
A10
330
914
100
AcDbEntity
  8
Defpoints
 62
     0
100
AcDbPoint
 10
48.9625595849729
 20
18.19011260760984
 30
0.0
  0
POINT
  5
A11
330
914
100
AcDbEntity
  8
Defpoints
 62
     0
100
AcDbPoint
 10
48.4625595849729
 20
17.69011260760984
 30
0.0
  0
POINT
  5
A12
330
914
100
AcDbEntity
  8
Defpoints
 62
     0
100
AcDbPoint
 10
48.83180639803992
 20
17.69011260760984
 30
0.0
  0
ENDBLK
  5
916
330
914
100
AcDbEntity
  8
0
100
AcDbBlockEnd
  0
BLOCK
  5
A15
330
A14
100
AcDbEntity
  8
0
100
AcDbBlockBegin
  2
*D13
 70
     1
 10
0.0
 20
0.0
 30
0.0
  3
*D13
  1

  0
LINE
  5
AF3
330
A14
100
AcDbEntity
  8
Dimension (ANSI)
100
AcDbLine
 10
48.9625595849729
 20
17.81511260760984
 30
0.0
 11
48.9625595849729
 21
15.08627235581269
 31
0.0
  0
LINE
  5
AF4
330
A14
100
AcDbEntity
  8
Dimension (ANSI)
100
AcDbLine
 10
48.4625595849729
 20
17.31511260760984
 30
0.0
 11
48.4625595849729
 21
15.08627235581269
 31
0.0
  0
LINE
  5
AF5
330
A14
100
AcDbEntity
  8
Dimension (ANSI)
100
AcDbLine
 10
49.55311075269942
 20
15.8362723558127
 30
0.0
 11
50.14366192042594
 21
15.8362723558127
 31
0.0
  0
LINE
  5
AF6
330
A14
100
AcDbEntity
  8
Dimension (ANSI)
100
AcDbLine
 10
47.87200841724638
 20
15.8362723558127
 30
0.0
 11
46.56400766658268
 21
15.8362723558127
 31
0.0
  0
SOLID
  5
AF7
330
A14
100
AcDbEntity
  8
Dimension (ANSI)
100
AcDbTrace
 10
49.55311075269942
 20
15.93469755043378
 30
0.0
 11
49.55311075269942
 21
15.73784716119161
 31
0.0
 12
48.9625595849729
 22
15.8362723558127
 32
0.0
 13
48.9625595849729
 23
15.8362723558127
 33
0.0
  0
SOLID
  5
AF8
330
A14
100
AcDbEntity
  8
Dimension (ANSI)
100
AcDbTrace
 10
47.87200841724638
 20
15.93469755043378
 30
0.0
 11
47.87200841724638
 21
15.73784716119161
 31
0.0
 12
48.4625595849729
 22
15.8362723558127
 32
0.0
 13
48.4625595849729
 23
15.8362723558127
 33
0.0
  0
MTEXT
  5
AF9
330
A14
100
AcDbEntity
  8
Dimension (ANSI)
100
AcDbMText
 10
43.495031174189
 20
16.19627237011781
 30
0.0
 40
0.7200000286102295
 41
0.0
 71
     1
 72
     1
  1
\A1;0.500
  7
Note Text (ANSI)
 73
     1
 44
1.0
1001
ACAD
1000
MTEXTBEGIN
1070
    73
1070
     1
1070
    44
1040
1.0
1070
    74
1070
     0
1000
MTEXTEND
  0
POINT
  5
AFA
330
A14
100
AcDbEntity
  8
Defpoints
 62
     0
100
AcDbPoint
 10
48.9625595849729
 20
18.19011260760984
 30
0.0
  0
POINT
  5
AFB
330
A14
100
AcDbEntity
  8
Defpoints
 62
     0
100
AcDbPoint
 10
48.4625595849729
 20
17.69011260760984
 30
0.0
  0
POINT
  5
AFC
330
A14
100
AcDbEntity
  8
Defpoints
 62
     0
100
AcDbPoint
 10
48.4625595849729
 20
15.8362723558127
 30
0.0
  0
ENDBLK
  5
A16
330
A14
100
AcDbEntity
  8
0
100
AcDbBlockEnd
  0
BLOCK
  5
AFF
330
AFE
100
AcDbEntity
  8
0
100
AcDbBlockBegin
  2
*D14
 70
     1
 10
0.0
 20
0.0
 30
0.0
  3
*D14
  1

  0
LINE
  5
BDD
330
AFE
100
AcDbEntity
  8
Dimension (ANSI)
100
AcDbLine
 10
48.44255958497289
 20
51.74511260760985
 30
0.0
 11
48.44255958497289
 21
54.90834043401399
 31
0.0
  0
LINE
  5
BDE
330
AFE
100
AcDbEntity
  8
Dimension (ANSI)
100
AcDbLine
 10
48.96255958497288
 20
51.76511260760985
 30
0.0
 11
48.96255958497288
 21
54.90834043401399
 31
0.0
  0
LINE
  5
BDF
330
AFE
100
AcDbEntity
  8
Dimension (ANSI)
100
AcDbLine
 10
49.5531107526994
 20
54.158340434014
 30
0.0
 11
50.14366192042592
 21
54.158340434014
 31
0.0
  0
LINE
  5
BE0
330
AFE
100
AcDbEntity
  8
Dimension (ANSI)
100
AcDbLine
 10
47.85200841724637
 20
54.158340434014
 30
0.0
 11
47.16100272352195
 21
54.158340434014
 31
0.0
  0
SOLID
  5
BE1
330
AFE
100
AcDbEntity
  8
Dimension (ANSI)
100
AcDbTrace
 10
49.5531107526994
 20
54.25676562863507
 30
0.0
 11
49.5531107526994
 21
54.05991523939291
 31
0.0
 12
48.96255958497288
 22
54.158340434014
 32
0.0
 13
48.96255958497288
 23
54.158340434014
 33
0.0
  0
SOLID
  5
BE2
330
AFE
100
AcDbEntity
  8
Dimension (ANSI)
100
AcDbTrace
 10
47.85200841724637
 20
54.25676562863507
 30
0.0
 11
47.85200841724637
 21
54.05991523939291
 31
0.0
 12
48.44255958497289
 22
54.158340434014
 32
0.0
 13
48.44255958497289
 23
54.158340434014
 33
0.0
  0
MTEXT
  5
BE3
330
AFE
100
AcDbEntity
  8
Dimension (ANSI)
100
AcDbMText
 10
44.09202623112828
 20
54.51834044831911
 30
0.0
 40
0.7200000286102295
 41
0.0
 71
     1
 72
     1
  1
\A1;0.520
  7
Note Text (ANSI)
 73
     1
 44
1.0
1001
ACAD
1000
MTEXTBEGIN
1070
    73
1070
     1
1070
    44
1040
1.0
1070
    74
1070
     0
1000
MTEXTEND
  0
POINT
  5
BE4
330
AFE
100
AcDbEntity
  8
Defpoints
 62
     0
100
AcDbPoint
 10
48.44255958497289
 20
51.37011260760985
 30
0.0
  0
POINT
  5
BE5
330
AFE
100
AcDbEntity
  8
Defpoints
 62
     0
100
AcDbPoint
 10
48.96255958497288
 20
51.39011260760985
 30
0.0
  0
POINT
  5
BE6
330
AFE
100
AcDbEntity
  8
Defpoints
 62
     0
100
AcDbPoint
 10
48.96255958497288
 20
54.158340434014
 30
0.0
  0
ENDBLK
  5
B00
330
AFE
100
AcDbEntity
  8
0
100
AcDbBlockEnd
  0
BLOCK
  5
BE9
330
BE8
100
AcDbEntity
  8
0
100
AcDbBlockBegin
  2
*D15
 70
     1
 10
0.0
 20
0.0
 30
0.0
  3
*D15
  1

  0
LINE
  5
CDC
330
BE8
100
AcDbEntity
  8
Dimension (ANSI)
100
AcDbLine
 10
48.81755958497289
 20
51.37011260760985
 30
0.0
 11
55.05787098042685
 21
51.37011260760985
 31
0.0
  0
LINE
  5
CDD
330
BE8
100
AcDbEntity
  8
Dimension (ANSI)
100
AcDbLine
 10
48.83755958497289
 20
51.89011260760985
 30
0.0
 11
55.05787098042685
 21
51.89011260760985
 31
0.0
  0
LINE
  5
CDE
330
BE8
100
AcDbEntity
  8
Dimension (ANSI)
100
AcDbLine
 10
54.30787098042685
 20
52.48066377533636
 30
0.0
 11
54.30787098042685
 21
53.07121494306287
 31
0.0
  0
LINE
  5
CDF
330
BE8
100
AcDbEntity
  8
Dimension (ANSI)
100
AcDbLine
 10
54.30787098042685
 20
50.77956143988333
 30
0.0
 11
54.30787098042685
 21
49.65969298612627
 31
0.0
  0
LINE
  5
CE0
330
BE8
100
AcDbEntity
  8
Dimension (ANSI)
100
AcDbLine
 10
54.30787098042685
 20
49.65969298612627
 30
0.0
 11
53.71731981270034
 21
49.65969298612627
 31
0.0
  0
SOLID
  5
CE1
330
BE8
100
AcDbEntity
  8
Dimension (ANSI)
100
AcDbTrace
 10
54.20944578580577
 20
52.48066377533636
 30
0.0
 11
54.40629617504794
 21
52.48066377533636
 31
0.0
 12
54.30787098042685
 22
51.89011260760985
 32
0.0
 13
54.30787098042685
 23
51.89011260760985
 33
0.0
  0
SOLID
  5
CE2
330
BE8
100
AcDbEntity
  8
Dimension (ANSI)
100
AcDbTrace
 10
54.20944578580577
 20
50.77956143988333
 30
0.0
 11
54.40629617504794
 21
50.77956143988333
 31
0.0
 12
54.30787098042685
 22
51.37011260760985
 32
0.0
 13
54.30787098042685
 23
51.37011260760985
 33
0.0
  0
MTEXT
  5
CE3
330
BE8
100
AcDbEntity
  8
Dimension (ANSI)
100
AcDbMText
 10
50.64834332030665
 20
50.01969300043139
 30
0.0
 40
0.7200000286102295
 41
0.0
 71
     1
 72
     1
  1
\A1;0.520
  7
Note Text (ANSI)
 73
     1
 44
1.0
1001
ACAD
1000
MTEXTBEGIN
1070
    73
1070
     1
1070
    44
1040
1.0
1070
    74
1070
     0
1000
MTEXTEND
  0
POINT
  5
CE4
330
BE8
100
AcDbEntity
  8
Defpoints
 62
     0
100
AcDbPoint
 10
48.44255958497289
 20
51.37011260760985
 30
0.0
  0
POINT
  5
CE5
330
BE8
100
AcDbEntity
  8
Defpoints
 62
     0
100
AcDbPoint
 10
48.46255958497289
 20
51.89011260760985
 30
0.0
  0
POINT
  5
CE6
330
BE8
100
AcDbEntity
  8
Defpoints
 62
     0
100
AcDbPoint
 10
54.30787098042685
 20
51.89011260760985
 30
0.0
  0
ENDBLK
  5
BEA
330
BE8
100
AcDbEntity
  8
0
100
AcDbBlockEnd
  0
BLOCK
  5
CEB
330
CEA
100
AcDbEntity
  8
0
100
AcDbBlockBegin
  2
*D16
 70
     1
 10
0.0
 20
0.0
 30
0.0
  3
*D16
  1

  0
LINE
  5
DC9
330
CEA
100
AcDbEntity
  8
Dimension (ANSI)
100
AcDbLine
 10
64.36639937348856
 20
52.26511260760984
 30
0.0
 11
64.36639937348856
 21
54.65979764697992
 31
0.0
  0
LINE
  5
DCA
330
CEA
100
AcDbEntity
  8
Dimension (ANSI)
100
AcDbLine
 10
65.14039937348821
 20
52.26511260760984
 30
0.0
 11
65.14039937348821
 21
54.65979764697992
 31
0.0
  0
LINE
  5
DCB
330
CEA
100
AcDbEntity
  8
Dimension (ANSI)
100
AcDbLine
 10
65.73095054121472
 20
53.90979764697992
 30
0.0
 11
66.32150170894124
 21
53.90979764697992
 31
0.0
  0
LINE
  5
DCC
330
CEA
100
AcDbEntity
  8
Dimension (ANSI)
100
AcDbLine
 10
63.77584820576204
 20
53.90979764697992
 30
0.0
 11
62.48499031292239
 21
53.90979764697992
 31
0.0
  0
SOLID
  5
DCD
330
CEA
100
AcDbEntity
  8
Dimension (ANSI)
100
AcDbTrace
 10
65.73095054121472
 20
54.00822284160101
 30
0.0
 11
65.73095054121472
 21
53.81137245235883
 31
0.0
 12
65.14039937348821
 22
53.90979764697992
 32
0.0
 13
65.14039937348821
 23
53.90979764697992
 33
0.0
  0
SOLID
  5
DCE
330
CEA
100
AcDbEntity
  8
Dimension (ANSI)
100
AcDbTrace
 10
63.77584820576204
 20
54.00822284160101
 30
0.0
 11
63.77584820576204
 21
53.81137245235883
 31
0.0
 12
64.36639937348856
 22
53.90979764697992
 32
0.0
 13
64.36639937348856
 23
53.90979764697992
 33
0.0
  0
MTEXT
  5
DCF
330
CEA
100
AcDbEntity
  8
Dimension (ANSI)
100
AcDbMText
 10
59.38172810488061
 20
54.26979766128503
 30
0.0
 40
0.7200000286102295
 41
0.0
 71
     1
 72
     1
  1
\A1;0.774
  7
Note Text (ANSI)
 73
     1
 44
1.0
1001
ACAD
1000
MTEXTBEGIN
1070
    73
1070
     1
1070
    44
1040
1.0
1070
    74
1070
     0
1000
MTEXTEND
  0
POINT
  5
DD0
330
CEA
100
AcDbEntity
  8
Defpoints
 62
     0
100
AcDbPoint
 10
64.36639937348856
 20
51.89011260760985
 30
0.0
  0
POINT
  5
DD1
330
CEA
100
AcDbEntity
  8
Defpoints
 62
     0
100
AcDbPoint
 10
65.14039937348821
 20
51.89011260760985
 30
0.0
  0
POINT
  5
DD2
330
CEA
100
AcDbEntity
  8
Defpoints
 62
     0
100
AcDbPoint
 10
65.14039937348821
 20
53.90979764697992
 30
0.0
  0
ENDBLK
  5
CEC
330
CEA
100
AcDbEntity
  8
0
100
AcDbBlockEnd
  0
BLOCK
  5
DD5
330
DD4
100
AcDbEntity
  8
0
100
AcDbBlockBegin
  2
*D17
 70
     1
 10
0.0
 20
0.0
 30
0.0
  3
*D17
  1

  0
LINE
  5
EB3
330
DD4
100
AcDbEntity
  8
Dimension (ANSI)
100
AcDbLine
 10
20.9075595849729
 20
18.21011260760984
 30
0.0
 11
15.66945547098544
 21
18.21011260760984
 31
0.0
  0
LINE
  5
EB4
330
DD4
100
AcDbEntity
  8
Dimension (ANSI)
100
AcDbLine
 10
20.9075595849729
 20
34.79011260760984
 30
0.0
 11
15.66945547098544
 21
34.79011260760985
 31
0.0
  0
LINE
  5
EB5
330
DD4
100
AcDbEntity
  8
Dimension (ANSI)
100
AcDbLine
 10
16.41945547098544
 20
18.80066377533636
 30
0.0
 11
16.41945547098545
 21
25.95113621535197
 31
0.0
  0
LINE
  5
EB6
330
DD4
100
AcDbEntity
  8
Dimension (ANSI)
100
AcDbLine
 10
16.41945547098545
 20
34.19956143988333
 30
0.0
 11
16.41945547098545
 21
27.04908899986771
 31
0.0
  0
SOLID
  5
EB7
330
DD4
100
AcDbEntity
  8
Dimension (ANSI)
100
AcDbTrace
 10
16.32103027636436
 20
18.80066377533636
 30
0.0
 11
16.51788066560653
 21
18.80066377533636
 31
0.0
 12
16.41945547098544
 22
18.21011260760984
 32
0.0
 13
16.41945547098544
 23
18.21011260760984
 33
0.0
  0
SOLID
  5
EB8
330
DD4
100
AcDbEntity
  8
Dimension (ANSI)
100
AcDbTrace
 10
16.32103027636436
 20
34.19956143988333
 30
0.0
 11
16.51788066560653
 21
34.19956143988333
 31
0.0
 12
16.41945547098545
 22
34.79011260760984
 32
0.0
 13
16.41945547098545
 23
34.79011260760984
 33
0.0
  0
MTEXT
  5
EB9
330
DD4
100
AcDbEntity
  8
Dimension (ANSI)
100
AcDbMText
 10
14.68802683075608
 20
26.86011262191496
 30
0.0
 40
0.7200000286102295
 41
0.0
 71
     1
 72
     1
  1
\A1;16.580
  7
Note Text (ANSI)
 73
     1
 44
1.0
1001
ACAD
1000
MTEXTBEGIN
1070
    73
1070
     1
1070
    44
1040
1.0
1070
    74
1070
     0
1000
MTEXTEND
  0
POINT
  5
EBA
330
DD4
100
AcDbEntity
  8
Defpoints
 62
     0
100
AcDbPoint
 10
21.28255958497289
 20
18.21011260760984
 30
0.0
  0
POINT
  5
EBB
330
DD4
100
AcDbEntity
  8
Defpoints
 62
     0
100
AcDbPoint
 10
21.28255958497289
 20
34.79011260760984
 30
0.0
  0
POINT
  5
EBC
330
DD4
100
AcDbEntity
  8
Defpoints
 62
     0
100
AcDbPoint
 10
16.41945547098545
 20
34.79011260760984
 30
0.0
  0
ENDBLK
  5
DD6
330
DD4
100
AcDbEntity
  8
0
100
AcDbBlockEnd
  0
ENDSEC
  0
SECTION
  2
ENTITIES
  0
CIRCLE
  5
11B
330
6C
100
AcDbEntity
  8
Visible (ANSI)
100
AcDbCircle
 10
48.44255958497289
 20
34.79011260760984
 30
0.0
 40
0.2500000000000005
  0
CIRCLE
  5
11C
330
6C
100
AcDbEntity
  8
Visible (ANSI)
100
AcDbCircle
 10
21.28255958497289
 20
34.79011260760984
 30
0.0
 40
0.2500000000000005
  0
LINE
  5
11D
330
6C
100
AcDbEntity
  8
Visible (ANSI)
100
AcDbLine
 10
22.48055958497289
 20
17.69011260760984
 30
0.0
 11
47.24455958497288
 21
17.69011260760984
 31
0.0
  0
LINE
  5
11E
330
6C
100
AcDbEntity
  8
Visible (ANSI)
100
AcDbLine
 10
22.48055958497289
 20
17.69011260760984
 30
0.0
 11
22.48055958497289
 21
17.81511260760984
 31
0.0
  0
LINE
  5
11F
330
6C
100
AcDbEntity
  8
Visible (ANSI)
100
AcDbLine
 10
47.24455958497288
 20
17.69011260760984
 30
0.0
 11
47.24455958497288
 21
17.81511260760984
 31
0.0
  0
LINE
  5
120
330
6C
100
AcDbEntity
  8
Visible (ANSI)
100
AcDbLine
 10
47.24475958497288
 20
17.81531260760985
 30
0.0
 11
47.24475958497288
 21
17.69011260760984
 31
0.0
  0
LINE
  5
121
330
6C
100
AcDbEntity
  8
Visible (ANSI)
100
AcDbLine
 10
47.24455958497288
 20
17.81531260760985
 30
0.0
 11
47.24475958497288
 21
17.81531260760985
 31
0.0
  0
LINE
  5
122
330
6C
100
AcDbEntity
  8
Visible (ANSI)
100
AcDbLine
 10
22.48035958497289
 20
17.81531260760985
 30
0.0
 11
22.48055958497289
 21
17.81531260760985
 31
0.0
  0
LINE
  5
123
330
6C
100
AcDbEntity
  8
Visible (ANSI)
100
AcDbLine
 10
22.48035958497289
 20
17.69011260760984
 30
0.0
 11
22.48035958497289
 21
17.81531260760985
 31
0.0
  0
LINE
  5
124
330
6C
100
AcDbEntity
  8
Hidden (ANSI)
 48
1.109319329261779
100
AcDbLine
 10
47.24455958497288
 20
17.78386260760985
 30
0.0
 11
22.48055958497289
 21
17.78386260760985
 31
0.0
  0
LINE
  5
125
330
6C
100
AcDbEntity
  8
Visible (ANSI)
100
AcDbLine
 10
22.48055958497289
 20
17.81531260760985
 30
0.0
 11
22.48055958497289
 21
17.81511260760984
 31
0.0
  0
LINE
  5
126
330
6C
100
AcDbEntity
  8
Visible (ANSI)
100
AcDbLine
 10
47.24455958497288
 20
17.81511260760984
 30
0.0
 11
47.24455958497288
 21
17.81531260760985
 31
0.0
  0
LINE
  5
127
330
6C
100
AcDbEntity
  8
Visible (ANSI)
100
AcDbLine
 10
22.48035958497289
 20
17.69011260760984
 30
0.0
 11
21.26255958497289
 21
17.69011260760984
 31
0.0
  0
LINE
  5
128
330
6C
100
AcDbEntity
  8
Visible (ANSI)
100
AcDbLine
 10
48.46255958497289
 20
17.69011260760984
 30
0.0
 11
47.24475958497288
 21
17.69011260760984
 31
0.0
  0
LINE
  5
129
330
6C
100
AcDbEntity
  8
Visible (ANSI)
100
AcDbLine
 10
48.96255958497288
 20
19.40791260760984
 30
0.0
 11
48.96255958497288
 21
18.19011260760984
 31
0.0
  0
LINE
  5
12A
330
6C
100
AcDbEntity
  8
Visible (ANSI)
100
AcDbLine
 10
48.96255958497288
 20
51.39011260760985
 30
0.0
 11
48.96255958497288
 21
50.17231260760984
 31
0.0
  0
LINE
  5
12B
330
6C
100
AcDbEntity
  8
Visible (ANSI)
100
AcDbLine
 10
47.24475958497288
 20
51.89011260760985
 30
0.0
 11
48.46255958497287
 21
51.89011260760985
 31
0.0
  0
LINE
  5
12C
330
6C
100
AcDbEntity
  8
Visible (ANSI)
100
AcDbLine
 10
21.26255958497288
 20
51.89011260760984
 30
0.0
 11
22.48035958497288
 21
51.89011260760984
 31
0.0
  0
LINE
  5
12D
330
6C
100
AcDbEntity
  8
Visible (ANSI)
100
AcDbLine
 10
20.76255958497289
 20
50.17231260760984
 30
0.0
 11
20.76255958497289
 21
51.39011260760984
 31
0.0
  0
LINE
  5
12E
330
6C
100
AcDbEntity
  8
Visible (ANSI)
100
AcDbLine
 10
20.7625595849729
 20
18.19011260760984
 30
0.0
 11
20.7625595849729
 21
19.40791260760984
 31
0.0
  0
LINE
  5
12F
330
6C
100
AcDbEntity
  8
Visible (ANSI)
100
AcDbLine
 10
48.96255958497288
 20
18.19011260760984
 30
0.0
 11
48.46255958497289
 21
17.69011260760984
 31
0.0
  0
LINE
  5
130
330
6C
100
AcDbEntity
  8
Visible (ANSI)
100
AcDbLine
 10
48.96255958497288
 20
19.40791260760984
 30
0.0
 11
48.8373595849729
 21
19.40791260760984
 31
0.0
  0
LINE
  5
131
330
6C
100
AcDbEntity
  8
Visible (ANSI)
100
AcDbLine
 10
48.8373595849729
 20
19.40791260760984
 30
0.0
 11
48.8373595849729
 21
19.40811260760984
 31
0.0
  0
LINE
  5
132
330
6C
100
AcDbEntity
  8
Visible (ANSI)
100
AcDbLine
 10
48.8373595849729
 20
50.17211260760984
 30
0.0
 11
48.8373595849729
 21
50.17231260760984
 31
0.0
  0
LINE
  5
133
330
6C
100
AcDbEntity
  8
Visible (ANSI)
100
AcDbLine
 10
48.8373595849729
 20
50.17231260760984
 30
0.0
 11
48.96255958497288
 21
50.17231260760984
 31
0.0
  0
LINE
  5
134
330
6C
100
AcDbEntity
  8
Visible (ANSI)
100
AcDbLine
 10
48.96255958497288
 20
19.40811260760984
 30
0.0
 11
48.96255958497287
 21
50.17211260760984
 31
0.0
  0
LINE
  5
135
330
6C
100
AcDbEntity
  8
Visible (ANSI)
100
AcDbLine
 10
48.96255958497287
 20
19.40811260760984
 30
0.0
 11
48.83755958497289
 21
19.40811260760984
 31
0.0
  0
LINE
  5
136
330
6C
100
AcDbEntity
  8
Visible (ANSI)
100
AcDbLine
 10
48.96255958497287
 20
50.17211260760984
 30
0.0
 11
48.83755958497289
 21
50.17211260760984
 31
0.0
  0
LINE
  5
137
330
6C
100
AcDbEntity
  8
Hidden (ANSI)
 48
1.078507661819458
100
AcDbLine
 10
48.86880958497287
 20
50.17211260760984
 30
0.0
 11
48.86880958497288
 21
19.40811260760984
 31
0.0
  0
LINE
  5
138
330
6C
100
AcDbEntity
  8
Visible (ANSI)
100
AcDbLine
 10
48.8373595849729
 20
19.40811260760984
 30
0.0
 11
48.83755958497289
 21
19.40811260760984
 31
0.0
  0
LINE
  5
139
330
6C
100
AcDbEntity
  8
Visible (ANSI)
100
AcDbLine
 10
48.83755958497289
 20
50.17211260760984
 30
0.0
 11
48.8373595849729
 21
50.17211260760984
 31
0.0
  0
LINE
  5
13A
330
6C
100
AcDbEntity
  8
Visible (ANSI)
100
AcDbLine
 10
48.46255958497287
 20
51.89011260760985
 30
0.0
 11
48.96255958497288
 21
51.39011260760985
 31
0.0
  0
LINE
  5
13B
330
6C
100
AcDbEntity
  8
Visible (ANSI)
100
AcDbLine
 10
47.24475958497288
 20
51.89011260760985
 30
0.0
 11
47.24475958497288
 21
51.76491260760985
 31
0.0
  0
LINE
  5
13C
330
6C
100
AcDbEntity
  8
Visible (ANSI)
100
AcDbLine
 10
47.24475958497288
 20
51.76491260760985
 30
0.0
 11
47.24455958497288
 21
51.76491260760985
 31
0.0
  0
LINE
  5
13D
330
6C
100
AcDbEntity
  8
Visible (ANSI)
100
AcDbLine
 10
22.48055958497288
 20
51.76491260760985
 30
0.0
 11
22.48035958497288
 21
51.76491260760985
 31
0.0
  0
LINE
  5
13E
330
6C
100
AcDbEntity
  8
Visible (ANSI)
100
AcDbLine
 10
22.48035958497288
 20
51.76491260760985
 30
0.0
 11
22.48035958497288
 21
51.89011260760984
 31
0.0
  0
LINE
  5
13F
330
6C
100
AcDbEntity
  8
Visible (ANSI)
100
AcDbLine
 10
47.24455958497288
 20
51.89011260760984
 30
0.0
 11
22.48055958497288
 21
51.89011260760983
 31
0.0
  0
LINE
  5
140
330
6C
100
AcDbEntity
  8
Visible (ANSI)
100
AcDbLine
 10
47.24455958497288
 20
51.89011260760984
 30
0.0
 11
47.24455958497288
 21
51.76511260760985
 31
0.0
  0
LINE
  5
141
330
6C
100
AcDbEntity
  8
Visible (ANSI)
100
AcDbLine
 10
22.48055958497288
 20
51.89011260760983
 30
0.0
 11
22.48055958497288
 21
51.76511260760985
 31
0.0
  0
LINE
  5
142
330
6C
100
AcDbEntity
  8
Hidden (ANSI)
 48
1.109319329261779
100
AcDbLine
 10
22.48055958497288
 20
51.79636260760982
 30
0.0
 11
47.24455958497288
 21
51.79636260760983
 31
0.0
  0
LINE
  5
143
330
6C
100
AcDbEntity
  8
Visible (ANSI)
100
AcDbLine
 10
47.24455958497288
 20
51.76491260760985
 30
0.0
 11
47.24455958497288
 21
51.76511260760985
 31
0.0
  0
LINE
  5
144
330
6C
100
AcDbEntity
  8
Visible (ANSI)
100
AcDbLine
 10
22.48055958497288
 20
51.76511260760985
 30
0.0
 11
22.48055958497288
 21
51.76491260760985
 31
0.0
  0
LINE
  5
145
330
6C
100
AcDbEntity
  8
Visible (ANSI)
100
AcDbLine
 10
20.76255958497289
 20
51.39011260760984
 30
0.0
 11
21.26255958497288
 21
51.89011260760984
 31
0.0
  0
LINE
  5
146
330
6C
100
AcDbEntity
  8
Visible (ANSI)
100
AcDbLine
 10
20.76255958497289
 20
50.17231260760984
 30
0.0
 11
20.88775958497288
 21
50.17231260760984
 31
0.0
  0
LINE
  5
147
330
6C
100
AcDbEntity
  8
Visible (ANSI)
100
AcDbLine
 10
20.88775958497288
 20
50.17231260760984
 30
0.0
 11
20.88775958497288
 21
50.17211260760984
 31
0.0
  0
LINE
  5
148
330
6C
100
AcDbEntity
  8
Visible (ANSI)
100
AcDbLine
 10
20.88775958497288
 20
19.40811260760984
 30
0.0
 11
20.88775958497288
 21
19.40791260760984
 31
0.0
  0
LINE
  5
149
330
6C
100
AcDbEntity
  8
Visible (ANSI)
100
AcDbLine
 10
20.88775958497288
 20
19.40791260760984
 30
0.0
 11
20.7625595849729
 21
19.40791260760984
 31
0.0
  0
LINE
  5
14A
330
6C
100
AcDbEntity
  8
Visible (ANSI)
100
AcDbLine
 10
20.7625595849729
 20
50.17211260760984
 30
0.0
 11
20.7625595849729
 21
19.40811260760984
 31
0.0
  0
LINE
  5
14B
330
6C
100
AcDbEntity
  8
Visible (ANSI)
100
AcDbLine
 10
20.7625595849729
 20
50.17211260760984
 30
0.0
 11
20.88755958497287
 21
50.17211260760984
 31
0.0
  0
LINE
  5
14C
330
6C
100
AcDbEntity
  8
Visible (ANSI)
100
AcDbLine
 10
20.7625595849729
 20
19.40811260760984
 30
0.0
 11
20.88755958497288
 21
19.40811260760985
 31
0.0
  0
LINE
  5
14D
330
6C
100
AcDbEntity
  8
Hidden (ANSI)
 48
1.078507661819458
100
AcDbLine
 10
20.8563095849729
 20
19.40811260760984
 30
0.0
 11
20.8563095849729
 21
50.17211260760984
 31
0.0
  0
LINE
  5
14E
330
6C
100
AcDbEntity
  8
Visible (ANSI)
100
AcDbLine
 10
20.88775958497288
 20
50.17211260760984
 30
0.0
 11
20.88755958497287
 21
50.17211260760984
 31
0.0
  0
LINE
  5
14F
330
6C
100
AcDbEntity
  8
Visible (ANSI)
100
AcDbLine
 10
20.88755958497289
 20
19.40811260760984
 30
0.0
 11
20.88775958497288
 21
19.40811260760984
 31
0.0
  0
LINE
  5
150
330
6C
100
AcDbEntity
  8
Visible (ANSI)
100
AcDbLine
 10
21.26255958497289
 20
17.69011260760984
 30
0.0
 11
20.7625595849729
 21
18.19011260760984
 31
0.0
  0
CIRCLE
  5
151
330
6C
100
AcDbEntity
  8
Visible (ANSI)
100
AcDbCircle
 10
48.44255958497289
 20
51.37011260760985
 30
0.0
 40
0.25
  0
CIRCLE
  5
152
330
6C
100
AcDbEntity
  8
Visible (ANSI)
100
AcDbCircle
 10
21.28255958497289
 20
51.37011260760984
 30
0.0
 40
0.25
  0
CIRCLE
  5
153
330
6C
100
AcDbEntity
  8
Visible (ANSI)
100
AcDbCircle
 10
21.28255958497289
 20
18.21011260760984
 30
0.0
 40
0.25
  0
CIRCLE
  5
154
330
6C
100
AcDbEntity
  8
Visible (ANSI)
100
AcDbCircle
 10
48.44255958497289
 20
18.21011260760984
 30
0.0
 40
0.25
  0
CIRCLE
  5
155
330
6C
100
AcDbEntity
  8
Visible (ANSI)
100
AcDbCircle
 10
48.44255958497289
 20
50.62011260760984
 30
0.0
 40
0.15625
  0
CIRCLE
  5
156
330
6C
100
AcDbEntity
  8
Visible (ANSI)
100
AcDbCircle
 10
21.28255958497289
 20
50.62011260760984
 30
0.0
 40
0.15625
  0
CIRCLE
  5
157
330
6C
100
AcDbEntity
  8
Visible (ANSI)
100
AcDbCircle
 10
21.28255958497289
 20
18.96011260760985
 30
0.0
 40
0.15625
  0
CIRCLE
  5
158
330
6C
100
AcDbEntity
  8
Visible (ANSI)
100
AcDbCircle
 10
48.44255958497289
 20
18.96011260760985
 30
0.0
 40
0.15625
  0
LINE
  5
159
330
6C
100
AcDbEntity
  8
Visible (ANSI)
100
AcDbLine
 10
65.14039937348821
 20
17.69011260760984
 30
0.0
 11
64.49139937348821
 21
17.69011260760984
 31
0.0
  0
LINE
  5
15A
330
6C
100
AcDbEntity
  8
Visible (ANSI)
100
AcDbLine
 10
65.14039937348821
 20
17.78386260760985
 30
0.0
 11
65.14039937348821
 21
17.69011260760984
 31
0.0
  0
LINE
  5
15B
330
6C
100
AcDbEntity
  8
Visible (ANSI)
100
AcDbLine
 10
64.49139937348821
 20
17.78386260760985
 30
0.0
 11
65.14039937348821
 21
17.78386260760985
 31
0.0
  0
ARC
  5
15C
330
6C
100
AcDbEntity
  8
Visible (ANSI)
100
AcDbCircle
 10
64.49139937348821
 20
17.81511260760984
 30
0.0
 40
0.03125
100
AcDbArc
 50
180.0
 51
270.0
  0
ARC
  5
15D
330
6C
100
AcDbEntity
  8
Visible (ANSI)
100
AcDbCircle
 10
64.49139937348822
 20
17.81511260760985
 30
0.0
 40
0.1250000000000007
100
AcDbArc
 50
255.5224878140715
 51
270.0000000000039
  0
ARC
  5
15E
330
6C
100
AcDbEntity
  8
Hidden (ANSI)
 48
0.0522044003009796
100
AcDbCircle
 10
64.49139937348822
 20
17.81511260760984
 30
0.0
 40
0.125
100
AcDbArc
 50
180.0
 51
255.5224878140715
  0
LINE
  5
15F
330
6C
100
AcDbEntity
  8
Hidden (ANSI)
 48
0.0296608842909336
100
AcDbLine
 10
64.36639937348821
 20
17.81531260760985
 30
0.0
 11
64.4601493734882
 21
17.81531260760985
 31
0.0
  0
LINE
  5
160
330
6C
100
AcDbEntity
  8
Visible (ANSI)
100
AcDbLine
 10
64.46014937348872
 20
51.39011260760985
 30
0.0
 11
64.46014937348857
 21
51.89011260760985
 31
0.0
  0
LINE
  5
161
330
6C
100
AcDbEntity
  8
Visible (ANSI)
100
AcDbLine
 10
64.36639937348857
 20
51.89011260760985
 30
0.0
 11
64.36639937348871
 21
51.39011260760985
 31
0.0
  0
LINE
  5
162
330
6C
100
AcDbEntity
  8
Visible (ANSI)
100
AcDbLine
 10
64.46014937348857
 20
51.89011260760985
 30
0.0
 11
64.36639937348857
 21
51.89011260760985
 31
0.0
  0
LINE
  5
163
330
6C
100
AcDbEntity
  8
Visible (ANSI)
100
AcDbLine
 10
64.36639937348871
 20
51.39011260760985
 30
0.0
 11
64.46014937348872
 21
51.39011260760985
 31
0.0
  0
LINE
  5
164
330
6C
100
AcDbEntity
  8
Visible (ANSI)
100
AcDbLine
 10
64.46014937348872
 20
50.17231260760984
 30
0.0
 11
64.46014937348872
 21
51.39011260760985
 31
0.0
  0
LINE
  5
165
330
6C
100
AcDbEntity
  8
Visible (ANSI)
100
AcDbLine
 10
64.46014937348872
 20
18.19011260760984
 30
0.0
 11
64.46014937348872
 21
19.40791260760984
 31
0.0
  0
LINE
  5
166
330
6C
100
AcDbEntity
  8
Visible (ANSI)
100
AcDbLine
 10
64.36639937348871
 20
19.40791260760984
 30
0.0
 11
64.36639937348871
 21
18.19011260760984
 31
0.0
  0
LINE
  5
167
330
6C
100
AcDbEntity
  8
Visible (ANSI)
100
AcDbLine
 10
64.36639937348871
 20
51.39011260760985
 30
0.0
 11
64.36639937348871
 21
50.17231260760984
 31
0.0
  0
LINE
  5
168
330
6C
100
AcDbEntity
  8
Visible (ANSI)
100
AcDbLine
 10
64.46014937348867
 20
50.17231260760984
 30
0.0
 11
64.46014937348867
 21
50.17211260760984
 31
0.0
  0
LINE
  5
169
330
6C
100
AcDbEntity
  8
Visible (ANSI)
100
AcDbLine
 10
64.46014937348867
 20
19.40811260760984
 30
0.0
 11
64.46014937348867
 21
19.40791260760984
 31
0.0
  0
LINE
  5
16A
330
6C
100
AcDbEntity
  8
Visible (ANSI)
100
AcDbLine
 10
64.36639937348868
 20
19.40791260760984
 30
0.0
 11
64.36639937348868
 21
19.40811260760984
 31
0.0
  0
LINE
  5
16B
330
6C
100
AcDbEntity
  8
Visible (ANSI)
100
AcDbLine
 10
64.36639937348868
 20
19.40811260760984
 30
0.0
 11
64.36639937348868
 21
50.17211260760984
 31
0.0
  0
LINE
  5
16C
330
6C
100
AcDbEntity
  8
Visible (ANSI)
100
AcDbLine
 10
64.36639937348868
 20
50.17211260760984
 30
0.0
 11
64.36639937348868
 21
50.17231260760984
 31
0.0
  0
LINE
  5
16D
330
6C
100
AcDbEntity
  8
Visible (ANSI)
100
AcDbLine
 10
64.49139937348874
 20
19.40811260760984
 30
0.0
 11
64.36639937348868
 21
19.40811260760984
 31
0.0
  0
LINE
  5
16E
330
6C
100
AcDbEntity
  8
Visible (ANSI)
100
AcDbLine
 10
64.49139937348873
 20
50.17211260760984
 30
0.0
 11
64.36639937348868
 21
50.17211260760984
 31
0.0
  0
LINE
  5
16F
330
6C
100
AcDbEntity
  8
Visible (ANSI)
100
AcDbLine
 10
64.36639937348871
 20
50.17231260760984
 30
0.0
 11
64.46014937348872
 21
50.17231260760984
 31
0.0
  0
LINE
  5
170
330
6C
100
AcDbEntity
  8
Visible (ANSI)
100
AcDbLine
 10
64.46014937348872
 20
19.40791260760984
 30
0.0
 11
64.36639937348871
 21
19.40791260760984
 31
0.0
  0
LINE
  5
171
330
6C
100
AcDbEntity
  8
Hidden (ANSI)
 48
1.078507661819458
100
AcDbLine
 10
64.46014937348867
 20
50.17211260760984
 30
0.0
 11
64.46014937348867
 21
19.40811260760984
 31
0.0
  0
LINE
  5
172
330
6C
100
AcDbEntity
  8
Visible (ANSI)
100
AcDbLine
 10
64.46014937348857
 20
17.69011260760984
 30
0.0
 11
64.46014937348872
 21
18.19011260760984
 31
0.0
  0
LINE
  5
173
330
6C
100
AcDbEntity
  8
Visible (ANSI)
100
AcDbLine
 10
64.36639937348871
 20
18.19011260760984
 30
0.0
 11
64.36639937348857
 21
17.69011260760984
 31
0.0
  0
LINE
  5
174
330
6C
100
AcDbEntity
  8
Visible (ANSI)
100
AcDbLine
 10
64.36639937348857
 20
17.69011260760984
 30
0.0
 11
64.46014937348857
 21
17.69011260760984
 31
0.0
  0
LINE
  5
175
330
6C
100
AcDbEntity
  8
Visible (ANSI)
100
AcDbLine
 10
64.46014937348872
 20
18.19011260760984
 30
0.0
 11
64.36639937348871
 21
18.19011260760984
 31
0.0
  0
LINE
  5
176
330
6C
100
AcDbEntity
  8
Visible (ANSI)
100
AcDbLine
 10
64.49139937348817
 20
51.89011260760984
 30
0.0
 11
65.14039937348821
 21
51.89011260760985
 31
0.0
  0
LINE
  5
177
330
6C
100
AcDbEntity
  8
Visible (ANSI)
100
AcDbLine
 10
65.14039937348821
 20
51.79636260760985
 30
0.0
 11
64.49139937348817
 21
51.79636260760983
 31
0.0
  0
LINE
  5
178
330
6C
100
AcDbEntity
  8
Visible (ANSI)
100
AcDbLine
 10
65.14039937348821
 20
51.89011260760985
 30
0.0
 11
65.14039937348821
 21
51.79636260760985
 31
0.0
  0
ARC
  5
179
330
6C
100
AcDbEntity
  8
Hidden (ANSI)
 48
0.0522044003009796
100
AcDbCircle
 10
64.49139937348822
 20
51.76511260760984
 30
0.0
 40
0.1250000000000113
100
AcDbArc
 50
104.4775121859308
 51
180.0
  0
LINE
  5
17A
330
6C
100
AcDbEntity
  8
Hidden (ANSI)
 48
0.0296608842909336
100
AcDbLine
 10
64.36639937348821
 20
51.76491260760985
 30
0.0
 11
64.4601493734882
 21
51.76491260760985
 31
0.0
  0
ARC
  5
17B
330
6C
100
AcDbEntity
  8
Visible (ANSI)
100
AcDbCircle
 10
64.49139937348828
 20
51.76511260760915
 30
0.0
 40
0.1250000000006807
100
AcDbArc
 50
90.00000000004616
 51
104.4775121858799
  0
ARC
  5
17C
330
6C
100
AcDbEntity
  8
Visible (ANSI)
100
AcDbCircle
 10
64.49139937348821
 20
51.76511260760984
 30
0.0
 40
0.0312499999999964
100
AcDbArc
 50
90.00000000006151
 51
180.0
  0
LINE
  5
17D
330
6C
100
AcDbEntity
  8
Visible (ANSI)
100
AcDbLine
 10
64.49139937348874
 20
19.40811260760984
 30
0.0
 11
65.14039937348872
 21
19.40811260760984
 31
0.0
  0
LINE
  5
17E
330
6C
100
AcDbEntity
  8
Visible (ANSI)
100
AcDbLine
 10
65.14039937348872
 20
50.17211260760984
 30
0.0
 11
65.14039937348872
 21
19.40811260760984
 31
0.0
  0
LINE
  5
17F
330
6C
100
AcDbEntity
  8
Visible (ANSI)
100
AcDbLine
 10
65.14039937348872
 20
50.17211260760984
 30
0.0
 11
64.49139937348873
 21
50.17211260760984
 31
0.0
  0
LINE
  5
180
330
6C
100
AcDbEntity
  8
Hidden (ANSI)
 48
0.0296608842909336
100
AcDbLine
 10
64.36639937348856
 20
35.04011260760985
 30
0.0
 11
64.46014937348856
 21
35.04011260760985
 31
0.0
  0
LINE
  5
181
330
6C
100
AcDbEntity
  8
Hidden (ANSI)
 48
0.0296608842909336
100
AcDbLine
 10
64.36639937348856
 20
34.54011260760984
 30
0.0
 11
64.46014937348856
 21
34.54011260760984
 31
0.0
  0
LINE
  5
182
330
6C
100
AcDbEntity
  8
Hidden (ANSI)
 48
0.0296608842909336
100
AcDbLine
 10
64.36639937348856
 20
51.62011260760984
 30
0.0
 11
64.46014937348856
 21
51.62011260760984
 31
0.0
  0
LINE
  5
183
330
6C
100
AcDbEntity
  8
Hidden (ANSI)
 48
0.0296608842909336
100
AcDbLine
 10
64.36639937348856
 20
51.12011260760984
 30
0.0
 11
64.46014937348856
 21
51.12011260760984
 31
0.0
  0
LINE
  5
184
330
6C
100
AcDbEntity
  8
Hidden (ANSI)
 48
0.0296608842909336
100
AcDbLine
 10
64.36639937348856
 20
18.46011260760985
 30
0.0
 11
64.46014937348856
 21
18.46011260760985
 31
0.0
  0
LINE
  5
185
330
6C
100
AcDbEntity
  8
Hidden (ANSI)
 48
0.0296608842909336
100
AcDbLine
 10
64.36639937348856
 20
17.96011260760985
 30
0.0
 11
64.46014937348856
 21
17.96011260760985
 31
0.0
  0
LINE
  5
186
330
6C
100
AcDbEntity
  8
Hidden (ANSI)
 48
0.0296608842909336
100
AcDbLine
 10
64.36639937348856
 20
50.77636260760984
 30
0.0
 11
64.46014937348856
 21
50.77636260760984
 31
0.0
  0
LINE
  5
187
330
6C
100
AcDbEntity
  8
Hidden (ANSI)
 48
0.0296608842909336
100
AcDbLine
 10
64.36639937348856
 20
50.46386260760985
 30
0.0
 11
64.46014937348856
 21
50.46386260760985
 31
0.0
  0
LINE
  5
188
330
6C
100
AcDbEntity
  8
Hidden (ANSI)
 48
0.0296608842909336
100
AcDbLine
 10
64.36639937348856
 20
19.11636260760985
 30
0.0
 11
64.46014937348856
 21
19.11636260760985
 31
0.0
  0
LINE
  5
189
330
6C
100
AcDbEntity
  8
Hidden (ANSI)
 48
0.0296608842909336
100
AcDbLine
 10
64.36639937348856
 20
18.80386260760985
 30
0.0
 11
64.46014937348856
 21
18.80386260760985
 31
0.0
  0
ELLIPSE
  5
18A
330
6C
100
AcDbEntity
  8
Visible (ANSI)
100
AcDbEllipse
 10
95.60776760025445
 20
42.3083520670423
 30
0.0
 11
-0.0831720352640685
 21
0.1444305726908634
 31
0.0
210
0.0
220
0.0
230
1.0
 40
0.5780931159158113
 41
0.2678448778125144
 42
2.873747775777165
  0
ELLIPSE
  5
18B
330
6C
100
AcDbEntity
  8
Visible (ANSI)
100
AcDbEllipse
 10
95.5635734264303
 20
42.28290233493027
 30
0.0
 11
-0.083172035264068
 21
0.1444305726908626
 31
0.0
210
0.0
220
0.0
230
1.0
 40
0.5780931159158114
 41
0.0
 42
6.283185307179586
  0
ELLIPSE
  5
18C
330
6C
100
AcDbEntity
  8
Visible (ANSI)
100
AcDbEllipse
 10
82.8044208155681
 20
49.68130912477444
 30
0.0
 11
-0.0831720352640675
 21
0.1444305726908617
 31
0.0
210
0.0
220
0.0
230
1.0
 40
0.5780931159158115
 41
0.2678448778125142
 42
2.873747775777165
  0
ELLIPSE
  5
18D
330
6C
100
AcDbEntity
  8
Visible (ANSI)
100
AcDbEllipse
 10
82.76022664174394
 20
49.6558593926624
 30
0.0
 11
-0.083172035264068
 21
0.1444305726908626
 31
0.0
210
0.0
220
0.0
230
1.0
 40
0.5780931159158114
 41
0.0
 42
6.283185307179586
  0
ELLIPSE
  5
18E
330
6C
100
AcDbEntity
  8
Visible (ANSI)
100
AcDbEllipse
 10
83.38389482275053
 20
40.11267042926162
 30
0.0
 11
-0.0415860176320153
 21
-0.0722152863454419
 31
0.0
210
0.0
220
0.0
230
1.0
 40
0.5780931159156359
 41
5.495853435359117
 42
6.283185307179638
  0
ELLIPSE
  5
18F
330
6C
100
AcDbEntity
  8
Visible (ANSI)
100
AcDbEllipse
 10
95.05775637562139
 20
33.39014065836036
 30
0.0
 11
-0.0415860176320191
 21
-0.0722152863454485
 31
0.0
210
0.0
220
0.0
230
0.9999999999999998
 40
0.5780931159156358
 41
5.495853435359116
 42
5.552429523042774
  0
LINE
  5
190
330
6C
100
AcDbEntity
  8
Visible Narrow (ANSI)
100
AcDbLine
 10
83.32496925765166
 20
40.07873745311226
 30
0.0
 11
94.99883081052251
 21
33.35620768221099
 31
0.0
  0
LINE
  5
191
330
6C
100
AcDbEntity
  8
Visible (ANSI)
100
AcDbLine
 10
94.99892509142668
 20
33.35626239573246
 30
0.0
 11
94.99892509142668
 21
33.28802446237894
 31
0.0
  0
LINE
  5
192
330
6C
100
AcDbEntity
  8
Visible (ANSI)
100
AcDbLine
 10
94.99883081052251
 20
33.3563166884943
 30
0.0
 11
94.99892509142668
 21
33.35626239573246
 31
0.0
  0
LINE
  5
193
330
6C
100
AcDbEntity
  8
Visible (ANSI)
100
AcDbLine
 10
83.32487497674751
 20
40.0789007521574
 30
0.0
 11
83.32496925765166
 21
40.07884645939557
 31
0.0
  0
LINE
  5
194
330
6C
100
AcDbEntity
  8
Visible (ANSI)
100
AcDbLine
 10
83.32487497674751
 20
40.01066281880388
 30
0.0
 11
83.32487497674751
 21
40.0789007521574
 31
0.0
  0
LINE
  5
195
330
6C
100
AcDbEntity
  8
Visible (ANSI)
100
AcDbLine
 10
83.35945949426671
 20
40.03057871789024
 30
0.0
 11
83.32487497674751
 21
40.01066281880388
 31
0.0
  0
LINE
  5
196
330
6C
100
AcDbEntity
  8
Visible (ANSI)
100
AcDbLine
 10
83.34230880511851
 20
40.04045514291617
 30
0.0
 11
94.99892509142668
 21
33.32785626055165
 31
0.0
  0
LINE
  5
197
330
6C
100
AcDbEntity
  8
Visible (ANSI)
100
AcDbLine
 10
83.32496925765166
 20
40.07884645939557
 30
0.0
 11
83.32496925765166
 21
40.07873745311226
 31
0.0
  0
LINE
  5
198
330
6C
100
AcDbEntity
  8
Visible (ANSI)
100
AcDbLine
 10
94.99883081052251
 20
33.35620768221099
 30
0.0
 11
94.99883081052251
 21
33.3563166884943
 31
0.0
  0
ELLIPSE
  5
199
330
6C
100
AcDbEntity
  8
Visible (ANSI)
100
AcDbEllipse
 10
95.60776760025445
 20
51.34497295363516
 30
0.0
 11
-0.0831720352640685
 21
0.1444305726908634
 31
0.0
210
0.0
220
0.0
230
1.0
 40
0.5780931159158113
 41
0.2678448778125144
 42
2.873747775777165
  0
ELLIPSE
  5
19A
330
6C
100
AcDbEntity
  8
Visible (ANSI)
100
AcDbEllipse
 10
82.80442081556811
 20
58.71793001136729
 30
0.0
 11
-0.0831720352640682
 21
0.1444305726908629
 31
0.0
210
0.0
220
0.0
230
1.0
 40
0.5780931159158116
 41
0.2678448778125144
 42
2.873747775777165
  0
ELLIPSE
  5
19B
330
6C
100
AcDbEntity
  8
Visible (ANSI)
100
AcDbEllipse
 10
82.80442081556808
 20
40.64468823818158
 30
0.0
 11
-0.0831720352640678
 21
0.1444305726908623
 31
0.0
210
0.0
220
0.0
230
1.0
 40
0.5780931159158116
 41
0.2678448778125141
 42
2.873747775777165
  0
ELLIPSE
  5
19C
330
6C
100
AcDbEntity
  8
Visible (ANSI)
100
AcDbEllipse
 10
95.6077676002544
 20
33.27173118044945
 30
0.0
 11
-0.0831720352640683
 21
0.1444305726908631
 31
0.0
210
0.0
220
0.0
230
1.0
 40
0.5780931159158114
 41
0.2678448778124878
 42
2.873747775777179
  0
ELLIPSE
  5
19D
330
6C
100
AcDbEntity
  8
Visible (ANSI)
100
AcDbEllipse
 10
95.60776760025445
 20
50.93619939121388
 30
0.0
 11
0.051982522040048
 21
-0.0902691079317861
 31
0.0
210
0.0
220
0.0
230
0.9999999999999998
 40
0.5780931159158115
 41
3.578838513251472
 42
5.845939447516978
  0
ELLIPSE
  5
19E
330
6C
100
AcDbEntity
  8
Visible (ANSI)
100
AcDbEllipse
 10
82.80442081556811
 20
58.30915644894602
 30
0.0
 11
0.0519825220400481
 21
-0.0902691079317864
 31
0.0
210
0.0
220
0.0
230
1.0
 40
0.5780931159158115
 41
3.578838513251472
 42
5.845939447516979
  0
ELLIPSE
  5
19F
330
6C
100
AcDbEntity
  8
Visible (ANSI)
100
AcDbEllipse
 10
82.80442081556808
 20
41.05346180060285
 30
0.0
 11
0.0519825220400478
 21
-0.0902691079317858
 31
0.0
210
0.0
220
0.0
230
1.0
 40
0.5780931159158113
 41
3.578838513251474
 42
5.845939447516979
  0
ELLIPSE
  5
1A0
330
6C
100
AcDbEntity
  8
Visible (ANSI)
100
AcDbEllipse
 10
95.6077676002544
 20
33.68050474287072
 30
0.0
 11
0.0519825220400481
 21
-0.0902691079317863
 31
0.0
210
0.0
220
0.0
230
1.0
 40
0.5780931159158114
 41
3.57883851325152
 42
5.845939447516962
  0
ELLIPSE
  5
1A1
330
6C
100
AcDbEntity
  8
Visible (ANSI)
100
AcDbEllipse
 10
95.5635734264303
 20
51.31952322152313
 30
0.0
 11
-0.0831720352640678
 21
0.1444305726908623
 31
0.0
210
0.0
220
0.0
230
1.0
 40
0.5780931159158114
 41
0.0
 42
6.283185307179586
  0
ELLIPSE
  5
1A2
330
6C
100
AcDbEntity
  8
Visible (ANSI)
100
AcDbEllipse
 10
82.76022664174396
 20
58.69248027925526
 30
0.0
 11
-0.0831720352640678
 21
0.1444305726908623
 31
0.0
210
0.0
220
0.0
230
1.0
 40
0.5780931159158114
 41
0.0
 42
6.283185307179586
  0
ELLIPSE
  5
1A3
330
6C
100
AcDbEntity
  8
Visible (ANSI)
100
AcDbEllipse
 10
82.76022664174391
 20
40.61923850606955
 30
0.0
 11
-0.0831720352640678
 21
0.1444305726908623
 31
0.0
210
0.0
220
0.0
230
1.0
 40
0.5780931159158114
 41
0.0
 42
6.283185307179586
  0
ELLIPSE
  5
1A4
330
6C
100
AcDbEntity
  8
Visible (ANSI)
100
AcDbEllipse
 10
95.56357342643027
 20
33.24628144833742
 30
0.0
 11
-0.0831720352640678
 21
0.1444305726908623
 31
0.0
210
0.0
220
0.0
230
1.0
 40
0.5780931159158114
 41
0.0
 42
6.283185307179586
  0
ELLIPSE
  5
1A5
330
6C
100
AcDbEntity
  8
Visible (ANSI)
100
AcDbEllipse
 10
95.5635734264303
 20
50.91074965910187
 30
0.0
 11
-0.0519825220400424
 21
0.0902691079317889
 31
0.0
210
0.0
220
0.0
230
1.0
 40
0.5780931159158115
 41
0.0
 42
6.283185307179586
  0
ELLIPSE
  5
1A6
330
6C
100
AcDbEntity
  8
Visible (ANSI)
100
AcDbEllipse
 10
82.76022664174396
 20
58.283706716834
 30
0.0
 11
-0.0519825220400424
 21
0.0902691079317889
 31
0.0
210
0.0
220
0.0
230
1.0
 40
0.5780931159158115
 41
0.0
 42
6.283185307179586
  0
ELLIPSE
  5
1A7
330
6C
100
AcDbEntity
  8
Visible (ANSI)
100
AcDbEllipse
 10
82.76022664174391
 20
41.02801206849082
 30
0.0
 11
-0.0519825220400424
 21
0.0902691079317889
 31
0.0
210
0.0
220
0.0
230
1.0
 40
0.5780931159158115
 41
0.0
 42
6.283185307179586
  0
ELLIPSE
  5
1A8
330
6C
100
AcDbEntity
  8
Visible (ANSI)
100
AcDbEllipse
 10
95.56357342643027
 20
33.65505501075869
 30
0.0
 11
-0.0519825220400424
 21
0.0902691079317889
 31
0.0
210
0.0
220
0.0
230
1.0
 40
0.5780931159158115
 41
0.0
 42
6.283185307179586
  0
LINE
  5
1A9
330
6C
100
AcDbEntity
  8
Visible (ANSI)
100
AcDbLine
 10
83.36906915057168
 20
58.67618699732578
 30
0.0
 11
82.79499272515227
 21
59.00677562416327
 31
0.0
  0
LINE
  5
1AA
330
6C
100
AcDbEntity
  8
Visible (ANSI)
100
AcDbLine
 10
95.61719569067028
 20
51.62296001406335
 30
0.0
 11
95.04311926525087
 21
51.95354864090083
 31
0.0
  0
LINE
  5
1AB
330
6C
100
AcDbEntity
  8
Visible (ANSI)
100
AcDbLine
 10
95.8528979510658
 20
50.55097314209625
 30
0.0
 11
95.8528979510658
 21
51.21471240118508
 31
0.0
  0
LINE
  5
1AC
330
6C
100
AcDbEntity
  8
Visible (ANSI)
100
AcDbLine
 10
95.85289795106579
 20
33.11966937133689
 30
0.0
 11
95.85289795106579
 21
33.78340863042572
 31
0.0
  0
LINE
  5
1AD
330
6C
100
AcDbEntity
  8
Visible (ANSI)
100
AcDbLine
 10
83.32487497674751
 20
40.01066281880388
 30
0.0
 11
82.75079855132808
 21
40.34125144564137
 31
0.0
  0
LINE
  5
1AE
330
6C
100
AcDbEntity
  8
Visible (ANSI)
100
AcDbLine
 10
95.57300151684609
 20
32.95743583554145
 30
0.0
 11
94.99892509142668
 21
33.28802446237894
 31
0.0
  0
LINE
  5
1AF
330
6C
100
AcDbEntity
  8
Visible (ANSI)
100
AcDbLine
 10
95.80870377724165
 20
33.7579588983137
 30
0.0
 11
95.80870377724163
 21
33.09421963922487
 31
0.0
  0
LINE
  5
1B0
330
6C
100
AcDbEntity
  8
Visible (ANSI)
100
AcDbLine
 10
95.80870377724167
 20
51.18926266907305
 30
0.0
 11
95.80870377724165
 21
50.52552340998421
 31
0.0
  0
LINE
  5
1B1
330
6C
100
AcDbEntity
  8
Visible (ANSI)
100
AcDbLine
 10
94.99892509142672
 20
51.92809890878881
 30
0.0
 11
95.57300151684612
 21
51.59751028195132
 31
0.0
  0
LINE
  5
1B2
330
6C
100
AcDbEntity
  8
Visible (ANSI)
100
AcDbLine
 10
82.75079855132812
 20
58.98132589205125
 30
0.0
 11
83.32487497674753
 21
58.65073726521376
 31
0.0
  0
LINE
  5
1B3
330
6C
100
AcDbEntity
  8
Visible (ANSI)
100
AcDbLine
 10
82.51509629093257
 20
58.18080282927899
 30
0.0
 11
82.51509629093257
 21
58.84454208836782
 31
0.0
  0
LINE
  5
1B4
330
6C
100
AcDbEntity
  8
Visible (ANSI)
100
AcDbLine
 10
82.51509629093254
 20
40.74949905851964
 30
0.0
 11
82.51509629093254
 21
41.41323831760847
 31
0.0
  0
LINE
  5
1B5
330
6C
100
AcDbEntity
  8
Visible (ANSI)
100
AcDbLine
 10
83.36906915057168
 20
58.67618699732578
 30
0.0
 11
83.36906915057168
 21
58.67388679330466
 31
0.0
  0
LINE
  5
1B6
330
6C
100
AcDbEntity
  8
Visible (ANSI)
100
AcDbLine
 10
94.99892509142672
 20
51.92809890878881
 30
0.0
 11
94.99892509142672
 21
51.85986097543529
 31
0.0
  0
LINE
  5
1B7
330
6C
100
AcDbEntity
  8
Visible (ANSI)
100
AcDbLine
 10
94.99892509142672
 20
51.85986097543529
 30
0.0
 11
94.99883081052256
 21
51.85991526819713
 31
0.0
  0
LINE
  5
1B8
330
6C
100
AcDbEntity
  8
Visible Narrow (ANSI)
100
AcDbLine
 10
94.99883081052256
 20
51.86002427448044
 30
0.0
 11
83.3249692576517
 21
58.58255404538171
 31
0.0
  0
LINE
  5
1B9
330
6C
100
AcDbEntity
  8
Visible (ANSI)
100
AcDbLine
 10
83.3249692576517
 20
58.5824450390984
 30
0.0
 11
83.32487497674753
 21
58.58249933186024
 31
0.0
  0
LINE
  5
1BA
330
6C
100
AcDbEntity
  8
Visible (ANSI)
100
AcDbLine
 10
83.32487497674753
 20
58.58249933186024
 30
0.0
 11
83.32487497674753
 21
58.65073726521376
 31
0.0
  0
LINE
  5
1BB
330
6C
100
AcDbEntity
  8
Visible Narrow (ANSI)
100
AcDbLine
 10
95.05775637562141
 20
51.96208617769999
 30
0.0
 11
83.38389482275058
 21
58.68461594860129
 31
0.0
  0
ELLIPSE
  5
1BC
330
6C
100
AcDbEntity
  8
Visible (ANSI)
100
AcDbEllipse
 10
95.05775637562138
 20
51.89395725062977
 30
0.0
 11
0.0415860176319882
 21
0.072215286345385
 31
0.0
210
0.0
220
0.0
230
1.0
 40
0.5780931159156359
 41
2.297684694085898
 42
2.354260781769552
  0
ELLIPSE
  5
1BD
330
6C
100
AcDbEntity
  8
Visible (ANSI)
100
AcDbEllipse
 10
95.05775637562143
 20
51.89395725062971
 30
0.0
 11
0.0415860176320705
 21
0.0722152863455378
 31
0.0
210
0.0
220
0.0
230
1.0
 40
0.5780931159156358
 41
0.7834644549747037
 42
1.009790328439979
  0
LINE
  5
1BE
330
6C
100
AcDbEntity
  8
Visible (ANSI)
100
AcDbLine
 10
94.99883081052256
 20
51.85991526819713
 30
0.0
 11
94.99892509142672
 21
51.85996956095896
 31
0.0
  0
ELLIPSE
  5
1BF
330
6C
100
AcDbEntity
  8
Visible (ANSI)
100
AcDbEllipse
 10
83.38389482275054
 20
58.61648702153106
 30
0.0
 11
0.0415860176320195
 21
0.0722152863454387
 31
0.0
210
0.0
220
0.0
230
0.9999999999999998
 40
0.5780931159156405
 41
0.7834644549745909
 42
2.354260781769379
  0
LINE
  5
1C0
330
6C
100
AcDbEntity
  8
Visible (ANSI)
100
AcDbLine
 10
83.32487497674753
 20
58.65073726521376
 30
0.0
 11
83.36906915057168
 21
58.67618699732578
 31
0.0
  0
LINE
  5
1C1
330
6C
100
AcDbEntity
  8
Visible (ANSI)
100
AcDbLine
 10
83.32487497674753
 20
58.58249933186024
 30
0.0
 11
83.3249692576517
 21
58.58255362462207
 31
0.0
  0
LINE
  5
1C2
330
6C
100
AcDbEntity
  8
Visible (ANSI)
100
AcDbLine
 10
95.04311926525087
 20
51.95354864090083
 30
0.0
 11
94.99892509142672
 21
51.92809890878881
 31
0.0
  0
LINE
  5
1C3
330
6C
100
AcDbEntity
  8
Visible (ANSI)
100
AcDbLine
 10
95.8528979510658
 20
51.21471240118508
 30
0.0
 11
95.61719569067028
 21
51.62296001406335
 31
0.0
  0
LINE
  5
1C4
330
6C
100
AcDbEntity
  8
Visible (ANSI)
100
AcDbLine
 10
95.57300151684612
 20
51.59751028195132
 30
0.0
 11
95.80870377724167
 21
51.18926266907305
 31
0.0
  0
LINE
  5
1C5
330
6C
100
AcDbEntity
  8
Visible (ANSI)
100
AcDbLine
 10
95.61719569067028
 20
51.62296001406335
 30
0.0
 11
95.57300151684612
 21
51.59751028195132
 31
0.0
  0
LINE
  5
1C6
330
6C
100
AcDbEntity
  8
Visible (ANSI)
100
AcDbLine
 10
95.80870377724167
 20
51.18926266907305
 30
0.0
 11
95.8528979510658
 21
51.21471240118508
 31
0.0
  0
LINE
  5
1C7
330
6C
100
AcDbEntity
  8
Visible (ANSI)
100
AcDbLine
 10
95.85090765148038
 20
33.78455476773045
 30
0.0
 11
95.85289795106579
 21
33.78340863042572
 31
0.0
  0
LINE
  5
1C8
330
6C
100
AcDbEntity
  8
Visible (ANSI)
100
AcDbLine
 10
95.80870377724165
 20
33.7579588983137
 30
0.0
 11
95.74968393123858
 21
33.79194616722489
 31
0.0
  0
LINE
  5
1C9
330
6C
100
AcDbEntity
  8
Visible (ANSI)
100
AcDbLine
 10
95.74968393123858
 20
33.79194616722489
 30
0.0
 11
95.74968393123858
 21
33.79205517350821
 31
0.0
  0
LINE
  5
1CA
330
6C
100
AcDbEntity
  8
Visible Narrow (ANSI)
100
AcDbLine
 10
95.74977821214275
 20
33.79200088074636
 30
0.0
 11
95.74977821214279
 21
50.55934737985026
 31
0.0
  0
LINE
  5
1CB
330
6C
100
AcDbEntity
  8
Visible (ANSI)
100
AcDbLine
 10
95.74968393123864
 20
50.5594016726121
 30
0.0
 11
95.74968393123864
 21
50.55951067889541
 31
0.0
  0
LINE
  5
1CC
330
6C
100
AcDbEntity
  8
Visible (ANSI)
100
AcDbLine
 10
95.74968393123864
 20
50.55951067889541
 30
0.0
 11
95.80870377724165
 21
50.52552340998421
 31
0.0
  0
LINE
  5
1CD
330
6C
100
AcDbEntity
  8
Visible Narrow (ANSI)
100
AcDbLine
 10
95.86762934234052
 20
33.79200088074639
 30
0.0
 11
95.86762934234055
 21
50.55934737985029
 31
0.0
  0
ELLIPSE
  5
1CE
330
6C
100
AcDbEntity
  8
Visible (ANSI)
100
AcDbEllipse
 10
95.80870377724162
 20
33.82593385689574
 30
0.0
 11
0.083333333333333
 21
0.0000000000000048
 31
0.0
210
0.0
220
0.0
230
1.0
 40
0.5758617009853142
 41
3.926990816987231
 42
5.497787143782257
  0
LINE
  5
1CF
330
6C
100
AcDbEntity
  8
Visible (ANSI)
100
AcDbLine
 10
95.74968393123864
 20
50.5594016726121
 30
0.0
 11
95.74977857747324
 21
50.55945617575376
 31
0.0
  0
ELLIPSE
  5
1D0
330
6C
100
AcDbEntity
  8
Visible (ANSI)
100
AcDbEllipse
 10
95.80870377724165
 20
50.59328035599964
 30
0.0
 11
0.0833333333333483
 21
0.0000000000000048
 31
0.0
210
0.0
220
0.0
230
1.0
 40
0.5758617009853145
 41
3.926990816987089
 42
3.983676441749107
  0
ELLIPSE
  5
1D1
330
6C
100
AcDbEntity
  8
Visible (ANSI)
100
AcDbEllipse
 10
95.80870377724156
 20
50.59328035599968
 30
0.0
 11
0.0833333333334515
 21
-0.0000000000000002
 31
0.0
210
0.0
220
0.0
230
1.0
 40
0.5758617009853144
 41
5.271378846410181
 42
5.497787143782339
  0
LINE
  5
1D2
330
6C
100
AcDbEntity
  8
Visible (ANSI)
100
AcDbLine
 10
95.80870377724165
 20
50.52552340998421
 30
0.0
 11
95.8528979510658
 21
50.55097314209625
 31
0.0
  0
LINE
  5
1D3
330
6C
100
AcDbEntity
  8
Visible (ANSI)
100
AcDbLine
 10
95.74968393123858
 20
33.79194616722489
 30
0.0
 11
95.74977857747434
 21
33.7920006703672
 31
0.0
  0
LINE
  5
1D4
330
6C
100
AcDbEntity
  8
Visible (ANSI)
100
AcDbLine
 10
95.85289795106579
 20
33.78340863042572
 30
0.0
 11
95.80870377724165
 21
33.7579588983137
 31
0.0
  0
LINE
  5
1D5
330
6C
100
AcDbEntity
  8
Visible (ANSI)
100
AcDbLine
 10
95.61719569067024
 20
32.98288556765347
 30
0.0
 11
95.85289795106579
 21
33.11966937133689
 31
0.0
  0
LINE
  5
1D6
330
6C
100
AcDbEntity
  8
Visible (ANSI)
100
AcDbLine
 10
95.80870377724163
 20
33.09421963922487
 30
0.0
 11
95.57300151684609
 21
32.95743583554145
 31
0.0
  0
LINE
  5
1D7
330
6C
100
AcDbEntity
  8
Visible (ANSI)
100
AcDbLine
 10
95.57300151684609
 20
32.95743583554145
 30
0.0
 11
95.61719569067024
 21
32.98288556765347
 31
0.0
  0
LINE
  5
1D8
330
6C
100
AcDbEntity
  8
Visible (ANSI)
100
AcDbLine
 10
95.85289795106579
 20
33.11966937133689
 30
0.0
 11
95.80870377724163
 21
33.09421963922487
 31
0.0
  0
LINE
  5
1D9
330
6C
100
AcDbEntity
  8
Visible (ANSI)
100
AcDbLine
 10
95.74968393123858
 20
33.79205517350821
 30
0.0
 11
95.74977821214275
 21
33.79200088074636
 31
0.0
  0
LINE
  5
1DA
330
6C
100
AcDbEntity
  8
Visible (ANSI)
100
AcDbLine
 10
95.74977821214279
 20
50.55934737985026
 30
0.0
 11
95.74968393123864
 21
50.5594016726121
 31
0.0
  0
LINE
  5
1DB
330
6C
100
AcDbEntity
  8
Visible (ANSI)
100
AcDbLine
 10
95.86762934234052
 20
33.79200088074639
 30
0.0
 11
96.17357087633385
 21
33.96818089291389
 31
0.0
  0
LINE
  5
1DC
330
6C
100
AcDbEntity
  8
Visible (ANSI)
100
AcDbLine
 10
96.17357087633388
 20
50.7355273920178
 30
0.0
 11
96.17357087633385
 21
33.96818089291389
 31
0.0
  0
LINE
  5
1DD
330
6C
100
AcDbEntity
  8
Visible (ANSI)
100
AcDbLine
 10
96.17357087633388
 20
50.7355273920178
 30
0.0
 11
95.86762934234055
 21
50.55934737985029
 31
0.0
  0
LINE
  5
1DE
330
6C
100
AcDbEntity
  8
Visible (ANSI)
100
AcDbLine
 10
96.12937670250971
 20
50.7609771241298
 30
0.0
 11
96.17357087633388
 21
50.7355273920178
 31
0.0
  0
LINE
  5
1DF
330
6C
100
AcDbEntity
  8
Visible (ANSI)
100
AcDbLine
 10
95.8528979510658
 20
50.60176360003698
 30
0.0
 11
96.12937670250971
 21
50.7609771241298
 31
0.0
  0
LINE
  5
1E0
330
6C
100
AcDbEntity
  8
Visible (ANSI)
100
AcDbLine
 10
94.99883081052256
 20
51.85991526819713
 30
0.0
 11
94.99883081052256
 21
51.86002427448044
 31
0.0
  0
LINE
  5
1E1
330
6C
100
AcDbEntity
  8
Visible (ANSI)
100
AcDbLine
 10
83.3249692576517
 20
58.58255404538171
 30
0.0
 11
83.3249692576517
 21
58.5824450390984
 31
0.0
  0
LINE
  5
1E2
330
6C
100
AcDbEntity
  8
Visible (ANSI)
100
AcDbLine
 10
95.05775637562141
 20
51.96208617769999
 30
0.0
 11
95.36369790961476
 21
52.13826618986752
 31
0.0
  0
LINE
  5
1E3
330
6C
100
AcDbEntity
  8
Visible (ANSI)
100
AcDbLine
 10
83.68983635674389
 20
58.86079596076879
 30
0.0
 11
95.36369790961476
 21
52.13826618986752
 31
0.0
  0
LINE
  5
1E4
330
6C
100
AcDbEntity
  8
Visible (ANSI)
100
AcDbLine
 10
83.68983635674389
 20
58.86079596076879
 30
0.0
 11
83.38389482275058
 21
58.68461594860129
 31
0.0
  0
LINE
  5
1E5
330
6C
100
AcDbEntity
  8
Visible (ANSI)
100
AcDbLine
 10
95.36369790961476
 20
52.08716949456487
 30
0.0
 11
95.08739040682161
 21
51.92805458601135
 31
0.0
  0
LINE
  5
1E6
330
6C
100
AcDbEntity
  8
Visible (ANSI)
100
AcDbLine
 10
95.36369790961476
 20
52.13826618986752
 30
0.0
 11
95.36369790961476
 21
52.08716949456487
 31
0.0
  0
LINE
  5
1E7
330
6C
100
AcDbEntity
  8
Visible (ANSI)
100
AcDbLine
 10
82.51509629093257
 20
58.84454208836782
 30
0.0
 11
82.75079855132812
 21
58.98132589205125
 31
0.0
  0
LINE
  5
1E8
330
6C
100
AcDbEntity
  8
Visible (ANSI)
100
AcDbLine
 10
82.75079855132812
 20
58.98132589205125
 30
0.0
 11
82.79499272515227
 21
59.00677562416327
 31
0.0
  0
LINE
  5
1E9
330
6C
100
AcDbEntity
  8
Visible (ANSI)
100
AcDbLine
 10
82.51509629093257
 20
58.18080282927899
 30
0.0
 11
82.57411613693562
 21
58.1468155603678
 31
0.0
  0
LINE
  5
1EA
330
6C
100
AcDbEntity
  8
Visible (ANSI)
100
AcDbLine
 10
82.57411613693562
 20
58.1468155603678
 30
0.0
 11
82.57411613693562
 21
58.14670655408448
 31
0.0
  0
LINE
  5
1EB
330
6C
100
AcDbEntity
  8
Visible Narrow (ANSI)
100
AcDbLine
 10
82.57402185603146
 20
58.14676084684633
 30
0.0
 11
82.57402185603144
 21
41.37941434774242
 31
0.0
  0
LINE
  5
1EC
330
6C
100
AcDbEntity
  8
Visible (ANSI)
100
AcDbLine
 10
82.57411613693559
 20
41.37936005498058
 30
0.0
 11
82.57411613693559
 21
41.37925104869728
 31
0.0
  0
LINE
  5
1ED
330
6C
100
AcDbEntity
  8
Visible (ANSI)
100
AcDbLine
 10
82.57411613693559
 20
41.37925104869728
 30
0.0
 11
82.51509629093254
 21
41.41323831760847
 31
0.0
  0
ELLIPSE
  5
1EE
330
6C
100
AcDbEntity
  8
Visible (ANSI)
100
AcDbEllipse
 10
82.63294742113036
 20
58.18069382299569
 30
0.0
 11
-0.0833333333333485
 21
0.0000000000000002
 31
0.0
210
0.0
220
0.0
230
1.0
 40
0.5758617009853144
 41
0.7287125386356497
 42
0.7853981633974687
  0
ELLIPSE
  5
1EF
330
6C
100
AcDbEntity
  8
Visible (ANSI)
100
AcDbEllipse
 10
82.6329474211303
 20
41.41334732389179
 30
0.0
 11
-0.0833333333333333
 21
-0.0000000000000001
 31
0.0
210
0.0
220
0.0
230
1.0
 40
0.5758617009853088
 41
0.0
 42
0.7853981633974883
  0
LINE
  5
1F0
330
6C
100
AcDbEntity
  8
Visible (ANSI)
100
AcDbLine
 10
82.51509629093254
 20
41.41323831760847
 30
0.0
 11
82.54961408779697
 21
41.43311579482509
 31
0.0
  0
LINE
  5
1F1
330
6C
100
AcDbEntity
  8
Visible (ANSI)
100
AcDbLine
 10
82.54961408779699
 20
58.16092535206238
 30
0.0
 11
82.54961408779697
 21
41.41334732389179
 31
0.0
  0
LINE
  5
1F2
330
6C
100
AcDbEntity
  8
Visible (ANSI)
100
AcDbLine
 10
82.57411613693562
 20
58.14670655408448
 30
0.0
 11
82.57402185603146
 21
58.14676084684633
 31
0.0
  0
LINE
  5
1F3
330
6C
100
AcDbEntity
  8
Visible (ANSI)
100
AcDbLine
 10
82.57402185603144
 20
41.37941434774242
 30
0.0
 11
82.57411613693559
 21
41.37936005498058
 31
0.0
  0
LINE
  5
1F4
330
6C
100
AcDbEntity
  8
Visible (ANSI)
100
AcDbLine
 10
82.73843722195461
 20
58.3093073114337
 30
0.0
 11
82.79321554937792
 21
58.34085205224083
 31
0.0
  0
LINE
  5
1F5
330
6C
100
AcDbEntity
  8
Visible (ANSI)
100
AcDbLine
 10
82.81763043649879
 20
58.30401218644358
 30
0.0
 11
82.75804559179162
 21
58.26969955641755
 31
0.0
  0
LINE
  5
1F6
330
6C
100
AcDbEntity
  8
Visible (ANSI)
100
AcDbLine
 10
82.75079855132808
 20
40.34125144564137
 30
0.0
 11
82.51509629093254
 21
40.74949905851964
 31
0.0
  0
DIMENSION
  5
1F7
330
6C
100
AcDbEntity
  8
Dimension (ANSI)
100
AcDbDimension
  2
*D4
 10
20.76255958497289
 20
58.0042858359563
 30
0.0
 11
34.86255958497288
 21
58.0042858359563
 31
0.0
 70
   160
  1
<>
 42
28.2
  3
Default (ANSI)
100
AcDbAlignedDimension
 13
48.96255958497288
 23
51.39011260760985
 33
0.0
 14
20.76255958497289
 24
51.39011260760984
 34
0.0
 50
180.0
100
AcDbRotatedDimension
1001
ACAD
1000
DSTYLE
1002
{
1070
   289
1070
     1
1070
    73
1070
     0
1070
    74
1070
     0
1070
   271
1070
     3
1070
   272
1070
     2
1070
    48
1040
0.0
1070
    47
1040
0.0
1002
}
  0
DIMENSION
  5
2E4
330
6C
100
AcDbEntity
  8
Dimension (ANSI)
100
AcDbDimension
  2
*D5
 10
10.85373437779747
 20
17.69011260760984
 30
0.0
 11
10.85373437779747
 21
38.78122338727666
 31
0.0
 70
   160
  1
<>
 42
34.2
  3
Default (ANSI)
100
AcDbAlignedDimension
 13
21.26255958497289
 23
51.89011260760984
 33
0.0
 14
21.26255958497289
 24
17.69011260760984
 34
0.0
 50
270.0
100
AcDbRotatedDimension
1001
ACAD
1000
DSTYLE
1002
{
1070
   289
1070
     1
1070
   271
1070
     3
1070
   272
1070
     2
1070
    48
1040
0.0
1070
    47
1040
0.0
1002
}
  0
DIMENSION
  5
3CE
330
6C
100
AcDbEntity
  8
Dimension (ANSI)
100
AcDbDimension
  2
*D6
 10
21.17872452394325
 20
18.43752914197127
 30
0.0
 11
27.2066567034042
 21
13.37486087144734
 31
0.0
 70
   163
  1
<>{\PTYP.(6PL.)}
 42
0.5
  3
Default (ANSI)
100
AcDbDiametricDimension
 15
21.38639464600254
 25
17.9826960732484
 35
0.0
 40
0.0
1001
ACAD_DSTYLE_DIMRADIAL_EXTENSION
1070
   387
1070
     1
1070
   388
1040
0.0
1070
   390
1040
0.0
1001
ACAD
1000
DSTYLE
1002
{
1070
   145
1040
-0.25
1070
   144
1040
1.000000000000031
1070
   271
1070
     3
1070
   272
1070
     2
1070
    48
1040
0.0
1070
    47
1040
0.0
1002
}
  0
DIMENSION
  5
488
330
6C
100
AcDbEntity
  8
Dimension (ANSI)
100
AcDbDimension
  2
*D7
 10
21.18316415159595
 20
19.08067217929044
 30
0.0
 11
27.18041300272361
 21
16.31415542738444
 31
0.0
 70
   163
  1
<>{\PTYP.(4PL.)}
 42
0.3125
  3
Default (ANSI)
100
AcDbDiametricDimension
 15
21.38195501834984
 25
18.83955303592924
 35
0.0
 40
0.0
1001
ACAD_DSTYLE_DIMRADIAL_EXTENSION
1070
   387
1070
     1
1070
   388
1040
0.0
1070
   390
1040
0.0
1001
ACAD
1000
DSTYLE
1002
{
1070
   145
1040
-0.25
1070
   144
1040
0.9999999999999943
1070
   271
1070
     3
1070
   272
1070
     2
1070
    48
1040
0.0
1070
    47
1040
0.0
1002
}
  0
DIMENSION
  5
541
330
6C
100
AcDbEntity
  8
Dimension (ANSI)
100
AcDbDimension
  2
*D8
 10
64.46014937348872
 20
18.58467685858179
 30
0.0
 11
60.723540061535
 21
18.58467685858179
 31
0.0
 70
   160
  1
 12 GA.\P304 SS
 42
0.09375
  3
Default (ANSI)
100
AcDbAlignedDimension
 13
64.36639937348871
 23
39.37207843338494
 33
0.0
 14
64.46014937348872
 24
39.37207843338494
 34
0.0
 50
180.0
100
AcDbRotatedDimension
1001
ACAD
1000
DSTYLE
1002
{
1070
   289
1070
     1
1070
    73
1070
     0
1070
    74
1070
     0
1070
   145
1040
-0.25
1070
   271
1070
     3
1070
   272
1070
     2
1070
    48
1040
0.0
1070
    47
1040
0.0
1002
}
  0
DIMENSION
  5
63F
330
6C
100
AcDbEntity
  8
Dimension (ANSI)
100
AcDbDimension
  2
*D9
 10
13.58004679960648
 20
18.21011260760984
 30
0.0
 11
13.58004679960648
 21
36.69639604240373
 31
0.0
 70
   160
  1
<>
 42
33.16
  3
Default (ANSI)
100
AcDbAlignedDimension
 13
21.28255958497289
 23
51.37011260760984
 33
0.0
 14
21.28255958497289
 24
18.21011260760984
 34
0.0
 50
90.0
100
AcDbRotatedDimension
1001
ACAD
1000
DSTYLE
1002
{
1070
   289
1070
     1
1070
   271
1070
     3
1070
   272
1070
     2
1070
    48
1040
0.0
1070
    47
1040
0.0
1002
}
  0
DIMENSION
  5
729
330
6C
100
AcDbEntity
  8
Dimension (ANSI)
100
AcDbDimension
  2
*D10
 10
16.4760448890896
 20
18.21011260760984
 30
0.0
 11
18.69557249198933
 21
20.57907695319377
 31
0.0
 70
   160
  1
<>
 42
0.7500000000000036
  3
Default (ANSI)
100
AcDbAlignedDimension
 13
21.28255958497289
 23
18.96011260760985
 33
0.0
 14
21.28255958497289
 24
18.21011260760984
 34
0.0
 50
90.0
100
AcDbRotatedDimension
1001
ACAD
1000
DSTYLE
1002
{
1070
   289
1070
     1
1070
   271
1070
     3
1070
   272
1070
     2
1070
    48
1040
0.0
1070
    47
1040
0.0
1002
}
  0
DIMENSION
  5
829
330
6C
100
AcDbEntity
  8
Dimension (ANSI)
100
AcDbDimension
  2
*D11
 10
21.28255958497289
 20
55.94267774944572
 30
0.0
 11
34.8625595849729
 21
55.94267774944572
 31
0.0
 70
   160
  1
<>
 42
27.16
  3
Default (ANSI)
100
AcDbAlignedDimension
 13
48.44255958497289
 23
51.37011260760985
 33
0.0
 14
21.28255958497289
 24
51.37011260760984
 34
0.0
 50
180.0
100
AcDbRotatedDimension
1001
ACAD
1000
DSTYLE
1002
{
1070
   289
1070
     1
1070
    73
1070
     0
1070
    74
1070
     0
1070
   271
1070
     3
1070
   272
1070
     2
1070
    48
1040
0.0
1070
    47
1040
0.0
1002
}
  0
DIMENSION
  5
913
330
6C
100
AcDbEntity
  8
Dimension (ANSI)
100
AcDbDimension
  2
*D12
 10
48.83180639803992
 20
17.69011260760984
 30
0.0
 11
51.05133400093965
 21
19.90053222909342
 31
0.0
 70
   160
  1
<>
 42
0.5
  3
Default (ANSI)
100
AcDbAlignedDimension
 13
48.9625595849729
 23
18.19011260760984
 33
0.0
 14
48.4625595849729
 24
17.69011260760984
 34
0.0
 50
90.0
100
AcDbRotatedDimension
1001
ACAD
1000
DSTYLE
1002
{
1070
   289
1070
     1
1070
   271
1070
     3
1070
   272
1070
     2
1070
    48
1040
0.0
1070
    47
1040
0.0
1002
}
  0
DIMENSION
  5
A13
330
6C
100
AcDbEntity
  8
Dimension (ANSI)
100
AcDbDimension
  2
*D13
 10
48.4625595849729
 20
15.8362723558127
 30
0.0
 11
44.93503123140945
 21
15.8362723558127
 31
0.0
 70
   160
  1
<>
 42
0.5
  3
Default (ANSI)
100
AcDbAlignedDimension
 13
48.9625595849729
 23
18.19011260760984
 33
0.0
 14
48.4625595849729
 24
17.69011260760984
 34
0.0
 50
180.0
100
AcDbRotatedDimension
1001
ACAD
1000
DSTYLE
1002
{
1070
   289
1070
     1
1070
    73
1070
     0
1070
    74
1070
     0
1070
   271
1070
     3
1070
   272
1070
     2
1070
    48
1040
0.0
1070
    47
1040
0.0
1002
}
  0
DIMENSION
  5
AFD
330
6C
100
AcDbEntity
  8
Dimension (ANSI)
100
AcDbDimension
  2
*D14
 10
48.96255958497288
 20
54.158340434014
 30
0.0
 11
45.53202628834874
 21
54.158340434014
 31
0.0
 70
   160
  1
<>
 42
0.5199999999999961
  3
Default (ANSI)
100
AcDbAlignedDimension
 13
48.44255958497289
 23
51.37011260760985
 33
0.0
 14
48.96255958497288
 24
51.39011260760985
 34
0.0
 50
180.0
100
AcDbRotatedDimension
1001
ACAD
1000
DSTYLE
1002
{
1070
   289
1070
     1
1070
    73
1070
     0
1070
    74
1070
     0
1070
   271
1070
     3
1070
   272
1070
     2
1070
    48
1040
0.0
1070
    47
1040
0.0
1002
}
  0
DIMENSION
  5
BE7
330
6C
100
AcDbEntity
  8
Dimension (ANSI)
100
AcDbDimension
  2
*D15
 10
54.30787098042685
 20
51.89011260760985
 30
0.0
 11
52.08834337752711
 21
49.65969298612628
 31
0.0
 70
   160
  1
<>
 42
0.5199999999999961
  3
Default (ANSI)
100
AcDbAlignedDimension
 13
48.44255958497289
 23
51.37011260760985
 33
0.0
 14
48.46255958497289
 24
51.89011260760985
 34
0.0
 50
270.0
100
AcDbRotatedDimension
1001
ACAD
1000
DSTYLE
1002
{
1070
   289
1070
     1
1070
   271
1070
     3
1070
   272
1070
     2
1070
    48
1040
0.0
1070
    47
1040
0.0
1002
}
  0
MTEXT
  5
CE7
102
{ACAD_XDICTIONARY
360
ECB
102
}
330
6C
100
AcDbEntity
  8
Symbol (ANSI)
100
AcDbMText
 10
59.89913518782658
 20
13.62859910534567
 30
0.0
 40
0.7200000088984572
 41
41.91098796245322
 71
     1
 72
     1
  3
{\fRomanS|b0|i0|c0|p2;\H2x;PART#: NP3630SSC\P(DATA SUBJECT TO CHANGE \H1.4574x; \H0.68616x;WITHOUT NOTICE) \H1.3503x; \H0.74058x;\P\H0.6x;THIS DRAWING IS PROPERTY OF HUBBELL INC. WIEGMANN\H1.3089x; \H0.76402x;\PALL INFORMATION IS PROPRIETARY AND NOT 
  1
TO BE \H1.0612x; \H0.94229x;DUPLICATED\H1.1097x; \H0.75093x;\P\H1.1203x; }
  7
Note Text (ANSI)
 73
     1
 44
0.8968595266342163
1001
ACAD
1000
MTEXTBEGIN
1070
    73
1070
     1
1070
    44
1040
0.8968595266342163
1070
    74
1070
     0
1000
MTEXTEND
  0
DIMENSION
  5
CE9
330
6C
100
AcDbEntity
  8
Dimension (ANSI)
100
AcDbDimension
  2
*D16
 10
65.14039937348821
 20
53.90979764697992
 30
0.0
 11
60.83887101992512
 21
53.90979764697992
 31
0.0
 70
   160
  1
<>
 42
0.7739999999996457
  3
Default (ANSI)
100
AcDbAlignedDimension
 13
64.36639937348856
 23
51.89011260760985
 33
0.0
 14
65.14039937348821
 24
51.89011260760985
 34
0.0
 50
180.0
100
AcDbRotatedDimension
1001
ACAD
1000
DSTYLE
1002
{
1070
   289
1070
     1
1070
    73
1070
     0
1070
    74
1070
     0
1070
   271
1070
     3
1070
   272
1070
     2
1070
    48
1040
0.0
1070
    47
1040
0.0
1002
}
  0
DIMENSION
  5
DD3
330
6C
100
AcDbEntity
  8
Dimension (ANSI)
100
AcDbDimension
  2
*D17
 10
16.41945547098545
 20
34.79011260760984
 30
0.0
 11
16.41945547098544
 21
26.50011260760985
 31
0.0
 70
   160
  1
<>
 42
16.58
  3
Default (ANSI)
100
AcDbAlignedDimension
 13
21.28255958497289
 23
18.21011260760984
 33
0.0
 14
21.28255958497289
 24
34.79011260760984
 34
0.0
 50
90.0
100
AcDbRotatedDimension
1001
ACAD
1000
DSTYLE
1002
{
1070
   289
1070
     1
1070
   271
1070
     3
1070
   272
1070
     2
1070
    48
1040
0.0
1070
    47
1040
0.0
1002
}
  0
ENDSEC
  0
SECTION
  2
OBJECTS
  0
DICTIONARY
  5
C
330
0
100
AcDbDictionary
281
     1
  3
ACAD_CIP_PREVIOUS_PRODUCT_INFO
350
EBD
  3
ACAD_COLOR
350
63
  3
ACAD_GROUP
350
D
  3
ACAD_LAYOUT
350
62
  3
ACAD_MATERIAL
350
10
  3
ACAD_MLEADERSTYLE
350
66
  3
ACAD_MLINESTYLE
350
5F
  3
ACAD_PLOTSETTINGS
350
61
  3
ACAD_PLOTSTYLENAME
350
E
  3
ACAD_SCALELIST
350
42
  3
ACAD_TABLESTYLE
350
64
  3
ACAD_VISUALSTYLE
350
29
  3
ACDB_RECOMPOSE_DATA
350
ECD
  3
AcDbVariableDictionary
350
76
  3
DWGPROPS
350
ECE
  0
DICTIONARY
  5
F0A
330
482
100
AcDbDictionary
280
     1
281
     1
  3
ACAD_MTEXT_RT
360
F0B
  0
DICTIONARY
  5
F0C
330
53B
100
AcDbDictionary
280
     1
281
     1
  3
ACAD_MTEXT_RT
360
F0D
  0
DICTIONARY
  5
ECB
330
CE7
100
AcDbDictionary
280
     1
281
     1
  3
ACAD_MTEXT_2008_RT
360
ECC
  0
XRECORD
  5
EBD
102
{ACAD_REACTORS
330
C
102
}
330
C
100
AcDbXrecord
280
     1
300
INVNTOR
300
2012
300
85795PDSP_2012_0F
  0
DICTIONARY
  5
63
102
{ACAD_REACTORS
330
C
102
}
330
C
100
AcDbDictionary
281
     1
  0
DICTIONARY
  5
D
102
{ACAD_REACTORS
330
C
102
}
330
C
100
AcDbDictionary
281
     1
  0
DICTIONARY
  5
62
102
{ACAD_REACTORS
330
C
102
}
330
C
100
AcDbDictionary
281
     1
  3
Layout1
350
6B
  3
Layout2
350
73
  3
Model
350
6F
  0
DICTIONARY
  5
10
102
{ACAD_REACTORS
330
C
102
}
330
C
100
AcDbDictionary
281
     1
  3
ByBlock
350
19
  3
ByLayer
350
11
  3
Global
350
21
  0
DICTIONARY
  5
66
102
{ACAD_REACTORS
330
C
102
}
330
C
100
AcDbDictionary
281
     1
  3
Standard
350
67
  0
DICTIONARY
  5
5F
102
{ACAD_REACTORS
330
C
102
}
330
C
100
AcDbDictionary
281
     1
  3
Standard
350
60
  0
DICTIONARY
  5
61
102
{ACAD_REACTORS
330
C
102
}
330
C
100
AcDbDictionary
281
     1
  0
ACDBDICTIONARYWDFLT
  5
E
102
{ACAD_REACTORS
330
C
102
}
330
C
100
AcDbDictionary
281
     1
  3
Normal
350
F
100
AcDbDictionaryWithDefault
340
F
  0
DICTIONARY
  5
42
102
{ACAD_REACTORS
330
C
102
}
330
C
100
AcDbDictionary
281
     1
  3
A0
350
43
  3
A1
350
44
  3
A2
350
45
  3
A3
350
46
  3
A4
350
47
  3
A5
350
48
  3
A6
350
49
  3
A7
350
4A
  3
A8
350
4B
  3
A9
350
4C
  3
B0
350
4D
  3
B1
350
4E
  3
B2
350
4F
  3
B3
350
50
  3
B4
350
51
  3
B5
350
52
  3
B6
350
53
  0
DICTIONARY
  5
64
102
{ACAD_REACTORS
330
C
102
}
330
C
100
AcDbDictionary
281
     1
  3
Standard
350
65
  0
DICTIONARY
  5
29
102
{ACAD_REACTORS
330
C
102
}
330
C
100
AcDbDictionary
281
     1
  3
2dWireframe
350
2F
  3
Basic
350
2E
  3
Brighten
350
35
  3
ColorChange
350
39
  3
Conceptual
350
32
  3
Dim
350
34
  3
EdgeColorOff
350
41
  3
Facepattern
350
38
  3
Flat
350
2A
  3
FlatWithEdges
350
2B
  3
Gouraud
350
2C
  3
GouraudWithEdges
350
2D
  3
Hidden
350
31
  3
JitterOff
350
3F
  3
Linepattern
350
37
  3
OverhangOff
350
40
  3
Realistic
350
33
  3
Shaded
350
3E
  3
Shaded with edges
350
3D
  3
Shades of Gray
350
3A
  3
Sketchy
350
3B
  3
Thicken
350
36
  3
Wireframe
350
30
  3
X-Ray
350
3C
  0
XRECORD
  5
ECD
102
{ACAD_REACTORS
330
C
102
}
330
C
100
AcDbXrecord
280
     1
 90
        1
330
65
330
CE7
  0
DICTIONARY
  5
76
102
{ACAD_REACTORS
330
C
102
}
330
C
100
AcDbDictionary
281
     1
  3
CANNOSCALE
350
79
  3
CMLEADERSTYLE
350
78
  3
CTABLESTYLE
350
77
  3
DIMASSOC
350
EC5
  3
HIDETEXT
350
EC4
  3
INDEXCTL
350
EC3
  3
LAYEREVAL
350
EC0
  3
LAYERNOTIFY
350
EC1
  3
LIGHTINGUNITS
350
EBF
  3
MSLTSCALE
350
EBE
  3
SORTENTS
350
EC2
  3
XCLIPFRAME
350
EC6
  0
XRECORD
  5
ECE
102
{ACAD_REACTORS
330
C
102
}
330
C
100
AcDbXrecord
280
     1
  1
DWGPROPS COOKIE
  2

  3

  4
dnichola
  6

  7

  8

  9
-
300
Manager=
301
Company=
302
Category=
303
Part Number=NP3630SSC-S
304
Description=
305
Project=
306
Designer=dnichola
307
Engineer=
308
Authority=
309
Cost Center=
 40
0.0000638425925926
 41
2455945.347842431
 42
2455945.347842431
  1

 90
       19
300
Vendor=
300
User Status=
300
Design Status=WorkInProgress
300
Checked by=
300
Engr Approved by=
300
Mfg Approved by=
300
DWG. NO=
300
NUMBER OF SHEETS=1
300
DRAWING #=
  0
XRECORD
  5
F0B
102
{ACAD_REACTORS
330
F0A
102
}
330
F0A
100
AcDbXrecord
280
     1
 40
31496.0
  1
\A1;\U+22050.500{\PTYP.(6PL.)}
  0
XRECORD
  5
F0D
102
{ACAD_REACTORS
330
F0C
102
}
330
F0C
100
AcDbXrecord
280
     1
 40
31481.0
  1
\A1;\U+22050.313{\PTYP.(4PL.)}
  0
XRECORD
  5
ECC
102
{ACAD_REACTORS
330
ECB
102
}
330
ECB
100
AcDbXrecord
280
     1
 40
3515479.0
  1
\pxsm0.94;{\fRomanS|b0|i0;\H1.4400;PART#: NP3630SSC\P(DATA SUBJECT TO CHANGE WITHOUT NOTICE) \P\fRomanS|b0|i0;\H0.8640;THIS DRAWING IS PROPERTY OF HUBBELL INC. WIEGMANN\PALL INFORMATION IS PROPRIETARY AND NOT TO BE DUPLICATED\fRomanS|b0|i0;\H0.7200;\
  1
P}
  0
LAYOUT
  5
6B
102
{ACAD_XDICTIONARY
360
F04
102
}
102
{ACAD_REACTORS
330
62
102
}
330
62
100
AcDbPlotSettings
  1

  2

  4

  6

 40
0.0
 41
0.0
 42
0.0
 43
0.0
 44
0.0
 45
0.0
 46
0.0
 47
0.0
 48
0.0
 49
0.0
140
0.0
141
0.0
142
1.0
143
1.0
 70
   688
 72
     0
 73
     0
 74
     5
  7

 75
    16
147
1.0
148
0.0
149
0.0
100
AcDbLayout
  1
Layout1
 70
     1
 71
     1
 10
0.0
 20
0.0
 11
12.0
 21
9.0
 12
0.0
 22
0.0
 32
0.0
 14
0.0
 24
0.0
 34
0.0
 15
0.0
 25
0.0
 35
0.0
146
0.0
 13
0.0
 23
0.0
 33
0.0
 16
1.0
 26
0.0
 36
0.0
 17
0.0
 27
1.0
 37
0.0
 76
     0
330
68
  0
LAYOUT
  5
73
102
{ACAD_XDICTIONARY
360
F08
102
}
102
{ACAD_REACTORS
330
62
102
}
330
62
100
AcDbPlotSettings
  1

  2

  4

  6

 40
0.0
 41
0.0
 42
0.0
 43
0.0
 44
0.0
 45
0.0
 46
0.0
 47
0.0
 48
0.0
 49
0.0
140
0.0
141
0.0
142
1.0
143
1.0
 70
   688
 72
     0
 73
     0
 74
     5
  7

 75
    16
147
1.0
148
0.0
149
0.0
100
AcDbLayout
  1
Layout2
 70
     1
 71
     2
 10
0.0
 20
0.0
 11
12.0
 21
9.0
 12
0.0
 22
0.0
 32
0.0
 14
0.0
 24
0.0
 34
0.0
 15
0.0
 25
0.0
 35
0.0
146
0.0
 13
0.0
 23
0.0
 33
0.0
 16
1.0
 26
0.0
 36
0.0
 17
0.0
 27
1.0
 37
0.0
 76
     0
330
70
  0
LAYOUT
  5
6F
102
{ACAD_XDICTIONARY
360
F06
102
}
102
{ACAD_REACTORS
330
62
102
}
330
62
100
AcDbPlotSettings
  1

  2

  4

  6

 40
0.0
 41
0.0
 42
0.0
 43
0.0
 44
0.0
 45
0.0
 46
0.0
 47
0.0
 48
0.0
 49
0.0
140
0.0
141
0.0
142
1.0
143
1.0
 70
  1712
 72
     0
 73
     0
 74
     0
  7

 75
     0
147
1.0
148
0.0
149
0.0
100
AcDbLayout
  1
Model
 70
     1
 71
     0
 10
0.0
 20
0.0
 11
12.0
 21
9.0
 12
0.0
 22
0.0
 32
0.0
 14
0.0
 24
0.0
 34
0.0
 15
0.0
 25
0.0
 35
0.0
146
0.0
 13
0.0
 23
0.0
 33
0.0
 16
1.0
 26
0.0
 36
0.0
 17
0.0
 27
1.0
 37
0.0
 76
     0
330
6C
  0
MATERIAL
  5
19
102
{ACAD_XDICTIONARY
360
1A
102
}
102
{ACAD_REACTORS
330
10
102
}
330
10
100
AcDbMaterial
  1
ByBlock
 72
     0
 43
0.0208333333333333
 43
0.0
 43
0.0
 43
0.0
 43
0.0
 43
0.0208333333333333
 43
0.0
 43
0.0
 43
0.0
 43
0.0
 43
1.0
 43
0.0
 43
0.0
 43
0.0
 43
0.0
 43
1.0
 77
     0
 47
0.0208333333333333
 47
0.0
 47
0.0
 47
0.0
 47
0.0
 47
0.0208333333333333
 47
0.0
 47
0.0
 47
0.0
 47
0.0
 47
1.0
 47
0.0
 47
0.0
 47
0.0
 47
0.0
 47
1.0
171
     0
 49
0.0208333333333333
 49
0.0
 49
0.0
 49
0.0
 49
0.0
 49
0.0208333333333333
 49
0.0
 49
0.0
 49
0.0
 49
0.0
 49
1.0
 49
0.0
 49
0.0
 49
0.0
 49
0.0
 49
1.0
175
     0
142
0.0208333333333333
142
0.0
142
0.0
142
0.0
142
0.0
142
0.0208333333333333
142
0.0
142
0.0
142
0.0
142
0.0
142
1.0
142
0.0
142
0.0
142
0.0
142
0.0
142
1.0
179
     0
144
0.0208333333333333
144
0.0
144
0.0
144
0.0
144
0.0
144
0.0208333333333333
144
0.0
144
0.0
144
0.0
144
0.0
144
1.0
144
0.0
144
0.0
144
0.0
144
0.0
144
1.0
147
0.0208333333333333
147
0.0
147
0.0
147
0.0
147
0.0
147
0.0208333333333333
147
0.0
147
0.0
147
0.0
147
0.0
147
1.0
147
0.0
147
0.0
147
0.0
147
0.0
147
1.0
  0
MATERIAL
  5
11
102
{ACAD_XDICTIONARY
360
12
102
}
102
{ACAD_REACTORS
330
10
102
}
330
10
100
AcDbMaterial
  1
ByLayer
 72
     0
 43
0.0208333333333333
 43
0.0
 43
0.0
 43
0.0
 43
0.0
 43
0.0208333333333333
 43
0.0
 43
0.0
 43
0.0
 43
0.0
 43
1.0
 43
0.0
 43
0.0
 43
0.0
 43
0.0
 43
1.0
 77
     0
 47
0.0208333333333333
 47
0.0
 47
0.0
 47
0.0
 47
0.0
 47
0.0208333333333333
 47
0.0
 47
0.0
 47
0.0
 47
0.0
 47
1.0
 47
0.0
 47
0.0
 47
0.0
 47
0.0
 47
1.0
171
     0
 49
0.0208333333333333
 49
0.0
 49
0.0
 49
0.0
 49
0.0
 49
0.0208333333333333
 49
0.0
 49
0.0
 49
0.0
 49
0.0
 49
1.0
 49
0.0
 49
0.0
 49
0.0
 49
0.0
 49
1.0
175
     0
142
0.0208333333333333
142
0.0
142
0.0
142
0.0
142
0.0
142
0.0208333333333333
142
0.0
142
0.0
142
0.0
142
0.0
142
1.0
142
0.0
142
0.0
142
0.0
142
0.0
142
1.0
179
     0
144
0.0208333333333333
144
0.0
144
0.0
144
0.0
144
0.0
144
0.0208333333333333
144
0.0
144
0.0
144
0.0
144
0.0
144
1.0
144
0.0
144
0.0
144
0.0
144
0.0
144
1.0
147
0.0208333333333333
147
0.0
147
0.0
147
0.0
147
0.0
147
0.0208333333333333
147
0.0
147
0.0
147
0.0
147
0.0
147
1.0
147
0.0
147
0.0
147
0.0
147
0.0
147
1.0
  0
MATERIAL
  5
21
102
{ACAD_XDICTIONARY
360
22
102
}
102
{ACAD_REACTORS
330
10
102
}
330
10
100
AcDbMaterial
  1
Global
 72
     0
 43
0.0208333333333333
 43
0.0
 43
0.0
 43
0.0
 43
0.0
 43
0.0208333333333333
 43
0.0
 43
0.0
 43
0.0
 43
0.0
 43
1.0
 43
0.0
 43
0.0
 43
0.0
 43
0.0
 43
1.0
 77
     0
 47
0.0208333333333333
 47
0.0
 47
0.0
 47
0.0
 47
0.0
 47
0.0208333333333333
 47
0.0
 47
0.0
 47
0.0
 47
0.0
 47
1.0
 47
0.0
 47
0.0
 47
0.0
 47
0.0
 47
1.0
171
     0
 49
0.0208333333333333
 49
0.0
 49
0.0
 49
0.0
 49
0.0
 49
0.0208333333333333
 49
0.0
 49
0.0
 49
0.0
 49
0.0
 49
1.0
 49
0.0
 49
0.0
 49
0.0
 49
0.0
 49
1.0
175
     0
142
0.0208333333333333
142
0.0
142
0.0
142
0.0
142
0.0
142
0.0208333333333333
142
0.0
142
0.0
142
0.0
142
0.0
142
1.0
142
0.0
142
0.0
142
0.0
142
0.0
142
1.0
179
     0
144
0.0208333333333333
144
0.0
144
0.0
144
0.0
144
0.0
144
0.0208333333333333
144
0.0
144
0.0
144
0.0
144
0.0
144
1.0
144
0.0
144
0.0
144
0.0
144
0.0
144
1.0
147
0.0208333333333333
147
0.0
147
0.0
147
0.0
147
0.0
147
0.0208333333333333
147
0.0
147
0.0
147
0.0
147
0.0
147
1.0
147
0.0
147
0.0
147
0.0
147
0.0
147
1.0
  0
MLEADERSTYLE
  5
67
102
{ACAD_XDICTIONARY
360
EC9
102
}
102
{ACAD_REACTORS
330
66
102
}
330
66
100
AcDbMLeaderStyle
170
     2
171
     1
172
     0
 90
        2
 40
0.0
 41
0.0
173
     1
 91
-1056964608
340
5B
 92
       -2
290
     1
 42
0.09
291
     1
 43
0.36
  3
Standard
 44
0.18
300

342
55
174
     1
178
     6
175
     1
176
     0
 93
-1056964608
 45
0.18
292
     0
297
     0
 46
0.18
 94
-1056964608
 47
1.0
 49
1.0
140
1.0
293
     1
141
0.0
294
     1
177
     0
142
1.0
295
     0
296
     0
143
0.125
1001
ACAD_MLEADERVER
1070
     2
  0
MLINESTYLE
  5
60
102
{ACAD_REACTORS
330
5F
102
}
330
5F
100
AcDbMlineStyle
  2
STANDARD
 70
     0
  3

 62
   256
 51
90.0
 52
90.0
 71
     2
 49
0.5
 62
   256
  6
BYLAYER
 49
-0.5
 62
   256
  6
BYLAYER
  0
ACDBPLACEHOLDER
  5
F
102
{ACAD_REACTORS
330
E
102
}
330
E
  0
SCALE
  5
43
102
{ACAD_REACTORS
330
42
102
}
330
42
100
AcDbScale
 70
     0
300
1:1
140
1.0
141
1.0
290
     1
  0
SCALE
  5
44
102
{ACAD_REACTORS
330
42
102
}
330
42
100
AcDbScale
 70
     0
300
1/128" = 1'-0"
140
0.0078125
141
12.0
290
     0
  0
SCALE
  5
45
102
{ACAD_REACTORS
330
42
102
}
330
42
100
AcDbScale
 70
     0
300
1/64" = 1'-0"
140
0.015625
141
12.0
290
     0
  0
SCALE
  5
46
102
{ACAD_REACTORS
330
42
102
}
330
42
100
AcDbScale
 70
     0
300
1/32" = 1'-0"
140
0.03125
141
12.0
290
     0
  0
SCALE
  5
47
102
{ACAD_REACTORS
330
42
102
}
330
42
100
AcDbScale
 70
     0
300
1/16" = 1'-0"
140
0.0625
141
12.0
290
     0
  0
SCALE
  5
48
102
{ACAD_REACTORS
330
42
102
}
330
42
100
AcDbScale
 70
     0
300
3/32" = 1'-0"
140
0.09375
141
12.0
290
     0
  0
SCALE
  5
49
102
{ACAD_REACTORS
330
42
102
}
330
42
100
AcDbScale
 70
     0
300
1/8" = 1'-0"
140
0.125
141
12.0
290
     0
  0
SCALE
  5
4A
102
{ACAD_REACTORS
330
42
102
}
330
42
100
AcDbScale
 70
     0
300
3/16" = 1'-0"
140
0.1875
141
12.0
290
     0
  0
SCALE
  5
4B
102
{ACAD_REACTORS
330
42
102
}
330
42
100
AcDbScale
 70
     0
300
1/4" = 1'-0"
140
0.25
141
12.0
290
     0
  0
SCALE
  5
4C
102
{ACAD_REACTORS
330
42
102
}
330
42
100
AcDbScale
 70
     0
300
3/8" = 1'-0"
140
0.375
141
12.0
290
     0
  0
SCALE
  5
4D
102
{ACAD_REACTORS
330
42
102
}
330
42
100
AcDbScale
 70
     0
300
1/2" = 1'-0"
140
0.5
141
12.0
290
     0
  0
SCALE
  5
4E
102
{ACAD_REACTORS
330
42
102
}
330
42
100
AcDbScale
 70
     0
300
3/4" = 1'-0"
140
0.75
141
12.0
290
     0
  0
SCALE
  5
4F
102
{ACAD_REACTORS
330
42
102
}
330
42
100
AcDbScale
 70
     0
300
1" = 1'-0"
140
1.0
141
12.0
290
     0
  0
SCALE
  5
50
102
{ACAD_REACTORS
330
42
102
}
330
42
100
AcDbScale
 70
     0
300
1-1/2" = 1'-0"
140
1.5
141
12.0
290
     0
  0
SCALE
  5
51
102
{ACAD_REACTORS
330
42
102
}
330
42
100
AcDbScale
 70
     0
300
3" = 1'-0"
140
3.0
141
12.0
290
     0
  0
SCALE
  5
52
102
{ACAD_REACTORS
330
42
102
}
330
42
100
AcDbScale
 70
     0
300
6" = 1'-0"
140
6.0
141
12.0
290
     0
  0
SCALE
  5
53
102
{ACAD_REACTORS
330
42
102
}
330
42
100
AcDbScale
 70
     0
300
1'-0" = 1'-0"
140
12.0
141
12.0
290
     0
  0
TABLESTYLE
  5
65
102
{ACAD_XDICTIONARY
360
EC7
102
}
102
{ACAD_REACTORS
330
64
102
}
330
64
100
AcDbTableStyle
  3
Standard
 70
     0
 71
     0
 40
0.06
 41
0.06
280
     0
281
     0
  7
Standard
140
0.18
170
     2
 62
     0
 63
     7
283
     0
274
    -2
284
     1
 64
     0
275
    -2
285
     1
 65
     0
276
    -2
286
     1
 66
     0
277
    -2
287
     1
 67
     0
278
    -2
288
     1
 68
     0
279
    -2
289
     1
 69
     0
  7
Standard
140
0.25
170
     5
 62
     0
 63
     7
283
     0
274
    -2
284
     1
 64
     0
275
    -2
285
     1
 65
     0
276
    -2
286
     1
 66
     0
277
    -2
287
     1
 67
     0
278
    -2
288
     1
 68
     0
279
    -2
289
     1
 69
     0
  7
Standard
140
0.18
170
     5
 62
     0
 63
     7
283
     0
274
    -2
284
     1
 64
     0
275
    -2
285
     1
 65
     0
276
    -2
286
     1
 66
     0
277
    -2
287
     1
 67
     0
278
    -2
288
     1
 68
     0
279
    -2
289
     1
 69
     0
  0
VISUALSTYLE
  5
2F
102
{ACAD_XDICTIONARY
360
EDC
102
}
102
{ACAD_REACTORS
330
29
102
}
330
29
100
AcDbVisualStyle
  2
2dWireframe
 70
     4
 71
     0
 72
     2
 73
     0
 90
        0
 40
-0.6
 41
-30.0
 62
     5
 63
     7
 74
     1
 91
        4
 64
     7
 65
   257
 75
     1
175
     1
 42
1.0
 92
        0
 66
   257
 43
1.0
 76
     1
 77
     6
 78
     2
 67
     7
 79
     5
170
     0
171
     0
290
     0
174
     0
 93
        1
 44
0.0
173
     0
291
     0
 45
0.0
1001
ACAD
1000
AcDbSavedByObjectVersion
1070
     0
  0
VISUALSTYLE
  5
2E
102
{ACAD_XDICTIONARY
360
EDA
102
}
102
{ACAD_REACTORS
330
29
102
}
330
29
100
AcDbVisualStyle
  2
Basic
 70
     7
 71
     1
 72
     0
 73
     1
 90
        0
 40
-0.6
 41
-30.0
 62
     5
 63
     7
 74
     0
 91
        4
 64
     7
 65
   257
 75
     1
175
     1
 42
1.0
 92
        8
 66
     7
 43
1.0
 76
     1
 77
     6
 78
     2
 67
     7
 79
     5
170
     0
171
     0
290
     0
174
     0
 93
        1
 44
0.0
173
     0
291
     1
 45
0.0
1001
ACAD
1000
AcDbSavedByObjectVersion
1070
     0
  0
VISUALSTYLE
  5
35
102
{ACAD_XDICTIONARY
360
EE8
102
}
102
{ACAD_REACTORS
330
29
102
}
330
29
100
AcDbVisualStyle
  2
Brighten
 70
    12
 71
     2
 72
     2
 73
     0
 90
        0
 40
-0.6
 41
-30.0
 62
     5
 63
     7
 74
     1
 91
        4
 64
     7
 65
   257
 75
     1
175
     1
 42
1.0
 92
        8
 66
     7
 43
1.0
 76
     1
 77
     6
 78
     2
 67
     7
 79
     5
170
     0
171
     0
290
     0
174
     0
 93
        1
 44
50.0
173
     0
291
     1
 45
0.0
1001
ACAD
1000
AcDbSavedByObjectVersion
1070
     0
  0
VISUALSTYLE
  5
39
102
{ACAD_XDICTIONARY
360
EF0
102
}
102
{ACAD_REACTORS
330
29
102
}
330
29
100
AcDbVisualStyle
  2
ColorChange
 70
    16
 71
     2
 72
     2
 73
     3
 90
        0
 40
-0.6
 41
-30.0
 62
     5
 63
     8
 74
     1
 91
        4
 64
     7
 65
   257
 75
     1
175
     1
 42
1.0
 92
        8
 66
     8
 43
1.0
 76
     1
 77
     6
 78
     2
 67
     7
 79
     5
170
     0
171
     0
290
     0
174
     0
 93
        1
 44
0.0
173
     0
291
     1
 45
0.0
1001
ACAD
1000
AcDbSavedByObjectVersion
1070
     0
  0
VISUALSTYLE
  5
32
102
{ACAD_XDICTIONARY
360
EE2
102
}
102
{ACAD_REACTORS
330
29
102
}
330
29
100
AcDbVisualStyle
  2
Conceptual
 70
     9
 71
     3
 72
     2
 73
     0
 90
        0
 40
-0.6
 41
-30.0
 62
     5
 63
     7
 74
     2
 91
        2
 64
     7
 65
   257
 75
     1
175
     1
 42
179.0
 92
        8
 66
     7
 43
1.0
 76
     1
 77
     6
 78
     2
 67
     7
 79
     3
170
     0
171
     0
290
     0
174
     0
 93
        1
 44
0.0
173
     0
291
     0
 45
0.0
1001
ACAD
1000
AcDbSavedByObjectVersion
1070
     0
  0
VISUALSTYLE
  5
34
102
{ACAD_XDICTIONARY
360
EE6
102
}
102
{ACAD_REACTORS
330
29
102
}
330
29
100
AcDbVisualStyle
  2
Dim
 70
    11
 71
     2
 72
     2
 73
     0
 90
        0
 40
-0.6
 41
-30.0
 62
     5
 63
     7
 74
     1
 91
        4
 64
     7
 65
   257
 75
     1
175
     1
 42
1.0
 92
        8
 66
     7
 43
1.0
 76
     1
 77
     6
 78
     2
 67
     7
 79
     5
170
     0
171
     0
290
     0
174
     0
 93
        1
 44
-50.0
173
     0
291
     1
 45
0.0
1001
ACAD
1000
AcDbSavedByObjectVersion
1070
     0
  0
VISUALSTYLE
  5
41
102
{ACAD_XDICTIONARY
360
F00
102
}
102
{ACAD_REACTORS
330
29
102
}
330
29
100
AcDbVisualStyle
  2
EdgeColorOff
 70
    22
 71
     2
 72
     2
 73
     0
 90
        0
 40
-0.6
 41
-30.0
 62
     5
 63
     7
 74
     1
 91
        4
 64
     7
 65
   257
 75
     1
175
     1
 42
1.0
 92
        8
 66
     7
 43
1.0
 76
     1
 77
     6
 78
     2
 67
     7
 79
     5
170
     0
171
     0
290
     0
174
     0
 93
        1
 44
0.0
173
     0
291
     1
 45
0.0
1001
ACAD
1000
AcDbSavedByObjectVersion
1070
     0
  0
VISUALSTYLE
  5
38
102
{ACAD_XDICTIONARY
360
EEE
102
}
102
{ACAD_REACTORS
330
29
102
}
330
29
100
AcDbVisualStyle
  2
Facepattern
 70
    15
 71
     2
 72
     2
 73
     0
 90
        0
 40
-0.6
 41
-30.0
 62
     5
 63
     7
 74
     1
 91
        4
 64
     7
 65
   257
 75
     1
175
     1
 42
1.0
 92
        8
 66
     7
 43
1.0
 76
     1
 77
     6
 78
     2
 67
     7
 79
     5
170
     0
171
     0
290
     0
174
     0
 93
        1
 44
0.0
173
     0
291
     1
 45
0.0
1001
ACAD
1000
AcDbSavedByObjectVersion
1070
     0
  0
VISUALSTYLE
  5
2A
102
{ACAD_XDICTIONARY
360
ED2
102
}
102
{ACAD_REACTORS
330
29
102
}
330
29
100
AcDbVisualStyle
  2
Flat
 70
     0
 71
     2
 72
     1
 73
     1
 90
        2
 40
-0.6
 41
30.0
 62
     5
 63
     7
 74
     0
 91
        0
 64
     7
 65
   257
 75
     1
175
     1
 42
1.0
 92
        8
 66
     7
 43
1.0
 76
     1
 77
     6
 78
     2
 67
     7
 79
     5
170
     0
171
     0
290
     0
174
     0
 93
       13
 44
0.0
173
     0
291
     1
 45
0.0
1001
ACAD
1000
AcDbSavedByObjectVersion
1070
     0
  0
VISUALSTYLE
  5
2B
102
{ACAD_XDICTIONARY
360
ED4
102
}
102
{ACAD_REACTORS
330
29
102
}
330
29
100
AcDbVisualStyle
  2
FlatWithEdges
 70
     1
 71
     2
 72
     1
 73
     1
 90
        2
 40
-0.6
 41
30.0
 62
     5
 63
     7
 74
     1
 91
        0
 64
     7
 65
   257
 75
     1
175
     1
 42
1.0
 92
        0
 66
   257
 43
1.0
 76
     1
 77
     6
 78
     2
 67
     7
 79
     5
170
     0
171
     0
290
     0
174
     0
 93
       13
 44
0.0
173
     0
291
     1
 45
0.0
1001
ACAD
1000
AcDbSavedByObjectVersion
1070
     0
  0
VISUALSTYLE
  5
2C
102
{ACAD_XDICTIONARY
360
ED6
102
}
102
{ACAD_REACTORS
330
29
102
}
330
29
100
AcDbVisualStyle
  2
Gouraud
 70
     2
 71
     2
 72
     2
 73
     1
 90
        2
 40
-0.6
 41
30.0
 62
     5
 63
     7
 74
     0
 91
        0
 64
     7
 65
   257
 75
     1
175
     1
 42
1.0
 92
        0
 66
     7
 43
1.0
 76
     1
 77
     6
 78
     2
 67
     7
 79
     5
170
     0
171
     0
290
     0
174
     0
 93
       13
 44
0.0
173
     0
291
     1
 45
0.0
1001
ACAD
1000
AcDbSavedByObjectVersion
1070
     0
  0
VISUALSTYLE
  5
2D
102
{ACAD_XDICTIONARY
360
ED8
102
}
102
{ACAD_REACTORS
330
29
102
}
330
29
100
AcDbVisualStyle
  2
GouraudWithEdges
 70
     3
 71
     2
 72
     2
 73
     1
 90
        2
 40
-0.6
 41
30.0
 62
     5
 63
     7
 74
     1
 91
        0
 64
     7
 65
   257
 75
     1
175
     1
 42
1.0
 92
        0
 66
   257
 43
1.0
 76
     1
 77
     6
 78
     2
 67
     7
 79
     5
170
     0
171
     0
290
     0
174
     0
 93
       13
 44
0.0
173
     0
291
     1
 45
0.0
1001
ACAD
1000
AcDbSavedByObjectVersion
1070
     0
  0
VISUALSTYLE
  5
31
102
{ACAD_XDICTIONARY
360
EE0
102
}
102
{ACAD_REACTORS
330
29
102
}
330
29
100
AcDbVisualStyle
  2
Hidden
 70
     6
 71
     1
 72
     2
 73
     2
 90
        0
 40
-0.6
 41
-30.0
 62
     5
 63
     7
 74
     2
 91
        2
 64
     7
 65
   257
 75
     2
175
     1
 42
40.0
 92
        0
 66
   257
 43
1.0
 76
     1
 77
     6
 78
     2
 67
     7
 79
     3
170
     0
171
     0
290
     0
174
     0
 93
        1
 44
0.0
173
     0
291
     0
 45
0.0
1001
ACAD
1000
AcDbSavedByObjectVersion
1070
     0
  0
VISUALSTYLE
  5
3F
102
{ACAD_XDICTIONARY
360
EFC
102
}
102
{ACAD_REACTORS
330
29
102
}
330
29
100
AcDbVisualStyle
  2
JitterOff
 70
    20
 71
     2
 72
     2
 73
     0
 90
        0
 40
-0.6
 41
-30.0
 62
     5
 63
     7
 74
     1
 91
        4
 64
     7
 65
   257
 75
     1
175
     1
 42
1.0
 92
       10
 66
     7
 43
1.0
 76
     1
 77
     6
 78
     2
 67
     7
 79
     5
170
     0
171
     0
290
     0
174
     0
 93
        1
 44
0.0
173
     0
291
     1
 45
0.0
1001
ACAD
1000
AcDbSavedByObjectVersion
1070
     0
  0
VISUALSTYLE
  5
37
102
{ACAD_XDICTIONARY
360
EEC
102
}
102
{ACAD_REACTORS
330
29
102
}
330
29
100
AcDbVisualStyle
  2
Linepattern
 70
    14
 71
     2
 72
     2
 73
     0
 90
        0
 40
-0.6
 41
-30.0
 62
     5
 63
     7
 74
     1
 91
        4
 64
     7
 65
   257
 75
     7
175
     7
 42
1.0
 92
        8
 66
     7
 43
1.0
 76
     1
 77
     6
 78
     2
 67
     7
 79
     5
170
     0
171
     0
290
     0
174
     0
 93
        1
 44
0.0
173
     0
291
     1
 45
0.0
1001
ACAD
1000
AcDbSavedByObjectVersion
1070
     0
  0
VISUALSTYLE
  5
40
102
{ACAD_XDICTIONARY
360
EFE
102
}
102
{ACAD_REACTORS
330
29
102
}
330
29
100
AcDbVisualStyle
  2
OverhangOff
 70
    21
 71
     2
 72
     2
 73
     0
 90
        0
 40
-0.6
 41
-30.0
 62
     5
 63
     7
 74
     1
 91
        4
 64
     7
 65
   257
 75
     1
175
     1
 42
1.0
 92
        9
 66
     7
 43
1.0
 76
     1
 77
     6
 78
     2
 67
     7
 79
     5
170
     0
171
     0
290
     0
174
     0
 93
        1
 44
0.0
173
     0
291
     1
 45
0.0
1001
ACAD
1000
AcDbSavedByObjectVersion
1070
     0
  0
VISUALSTYLE
  5
33
102
{ACAD_XDICTIONARY
360
EE4
102
}
102
{ACAD_REACTORS
330
29
102
}
330
29
100
AcDbVisualStyle
  2
Realistic
 70
     8
 71
     2
 72
     3
 73
     0
 90
        2
 40
-0.6
 41
30.0
 62
     5
 63
     7
 74
     0
 91
        0
 64
     7
 65
   257
 75
     1
175
     1
 42
1.0
 92
        8
 66
   257
 43
1.0
 76
     1
 77
     6
 78
     2
 67
     7
 79
     3
170
     0
171
     0
290
     0
174
     0
 93
       13
 44
0.0
173
     0
291
     0
 45
0.0
1001
ACAD
1000
AcDbSavedByObjectVersion
1070
     0
  0
VISUALSTYLE
  5
3E
102
{ACAD_XDICTIONARY
360
EFA
102
}
102
{ACAD_REACTORS
330
29
102
}
330
29
100
AcDbVisualStyle
  2
Shaded
 70
    27
 71
     2
 72
     2
 73
     1
 90
        2
 40
-0.6
 41
30.0
 62
     5
 63
     7
 74
     0
 91
        4
 64
     7
 65
   257
 75
     1
175
     1
 42
1.0
 92
        8
 66
   257
 43
1.0
 76
     1
 77
     6
 78
     2
 67
     8
 79
     3
170
     0
171
     0
290
     0
174
     0
 93
        5
 44
0.0
173
     0
291
     0
 45
0.0
1001
ACAD
1000
AcDbSavedByObjectVersion
1070
     0
  0
VISUALSTYLE
  5
3D
102
{ACAD_XDICTIONARY
360
EF8
102
}
102
{ACAD_REACTORS
330
29
102
}
330
29
100
AcDbVisualStyle
  2
Shaded with edges
 70
    26
 71
     2
 72
     2
 73
     1
 90
        2
 40
-0.6
 41
30.0
 62
     5
 63
     7
 74
     1
 91
       10
 64
     7
 65
   257
 75
     2
175
     1
 42
1.0
 92
        8
 66
   257
 43
1.0
 76
     1
 77
     6
 78
     2
 67
     7
 79
     3
170
     0
171
     0
290
     0
174
     0
 93
        5
 44
0.0
173
     0
291
     0
 45
0.0
1001
ACAD
1000
AcDbSavedByObjectVersion
1070
     0
  0
VISUALSTYLE
  5
3A
102
{ACAD_XDICTIONARY
360
EF2
102
}
102
{ACAD_REACTORS
330
29
102
}
330
29
100
AcDbVisualStyle
  2
Shades of Gray
 70
    23
 71
     2
 72
     2
 73
     3
 90
        0
 40
-0.6
 41
-30.0
 62
     5
 63
     7
 74
     2
 91
        2
 64
     7
 65
     7
 75
     1
175
     1
 42
40.0
 92
        8
 66
     7
 43
1.0
 76
     1
 77
     6
 78
     2
 67
     7
 79
     3
170
     0
171
     0
290
     0
174
     0
 93
        1
 44
0.0
173
     0
291
     0
 45
0.0
1001
ACAD
1000
AcDbSavedByObjectVersion
1070
     0
  0
VISUALSTYLE
  5
3B
102
{ACAD_XDICTIONARY
360
EF4
102
}
102
{ACAD_REACTORS
330
29
102
}
330
29
100
AcDbVisualStyle
  2
Sketchy
 70
    24
 71
     1
 72
     2
 73
     2
 90
        0
 40
-0.6
 41
-30.0
 62
     5
 63
     7
 74
     2
 91
        2
 64
     7
 65
     7
 75
     1
175
     1
 42
40.0
 92
       11
 66
     7
 43
1.0
 76
     1
 77
     6
 78
     2
 67
     7
 79
     6
170
     0
171
     0
290
     0
174
     0
 93
        1
 44
0.0
173
     0
291
     0
 45
0.0
1001
ACAD
1000
AcDbSavedByObjectVersion
1070
     0
  0
VISUALSTYLE
  5
36
102
{ACAD_XDICTIONARY
360
EEA
102
}
102
{ACAD_REACTORS
330
29
102
}
330
29
100
AcDbVisualStyle
  2
Thicken
 70
    13
 71
     2
 72
     2
 73
     0
 90
        0
 40
-0.6
 41
-30.0
 62
     5
 63
     7
 74
     1
 91
        4
 64
     7
 65
   257
 75
     1
175
     1
 42
1.0
 92
       12
 66
     7
 43
1.0
 76
     1
 77
     6
 78
     2
 67
     7
 79
     5
170
     0
171
     0
290
     0
174
     0
 93
        1
 44
0.0
173
     0
291
     1
 45
0.0
1001
ACAD
1000
AcDbSavedByObjectVersion
1070
     0
  0
VISUALSTYLE
  5
30
102
{ACAD_XDICTIONARY
360
EDE
102
}
102
{ACAD_REACTORS
330
29
102
}
330
29
100
AcDbVisualStyle
  2
Wireframe
 70
     5
 71
     0
 72
     2
 73
     0
 90
        0
 40
-0.6
 41
-30.0
 62
     5
 63
     7
 74
     1
 91
        4
 64
     7
 65
   257
 75
     1
175
     1
 42
1.0
 92
        0
 66
   257
 43
1.0
 76
     1
 77
     6
 78
     2
 67
     7
 79
     3
170
     0
171
     0
290
     0
174
     0
 93
        1
 44
0.0
173
     0
291
     0
 45
0.0
1001
ACAD
1000
AcDbSavedByObjectVersion
1070
     0
  0
VISUALSTYLE
  5
3C
102
{ACAD_XDICTIONARY
360
EF6
102
}
102
{ACAD_REACTORS
330
29
102
}
330
29
100
AcDbVisualStyle
  2
X-Ray
 70
    25
 71
     2
 72
     2
 73
     1
 90
        1
 40
0.5
 41
-30.0
 62
     5
 63
     7
 74
     1
 91
        0
 64
     7
 65
   257
 75
     1
175
     1
 42
1.0
 92
        8
 66
     7
 43
1.0
 76
     1
 77
     6
 78
     2
 67
     7
 79
     3
170
     0
171
     0
290
     0
174
     0
 93
       13
 44
0.0
173
     0
291
     0
 45
0.0
1001
ACAD
1000
AcDbSavedByObjectVersion
1070
     0
  0
DICTIONARYVAR
  5
79
102
{ACAD_REACTORS
330
76
102
}
330
76
100
DictionaryVariables
280
     0
  1
1:1
  0
DICTIONARYVAR
  5
78
102
{ACAD_REACTORS
330
76
102
}
330
76
100
DictionaryVariables
280
     0
  1
STANDARD
  0
DICTIONARYVAR
  5
77
102
{ACAD_REACTORS
330
76
102
}
330
76
100
DictionaryVariables
280
     0
  1
STANDARD
  0
DICTIONARYVAR
  5
EC5
102
{ACAD_REACTORS
330
76
102
}
330
76
100
DictionaryVariables
280
     0
  1
1
  0
DICTIONARYVAR
  5
EC4
102
{ACAD_REACTORS
330
76
102
}
330
76
100
DictionaryVariables
280
     0
  1
1
  0
DICTIONARYVAR
  5
EC3
102
{ACAD_REACTORS
330
76
102
}
330
76
100
DictionaryVariables
280
     0
  1
0
  0
DICTIONARYVAR
  5
EC0
102
{ACAD_REACTORS
330
76
102
}
330
76
100
DictionaryVariables
280
     0
  1
0
  0
DICTIONARYVAR
  5
EC1
102
{ACAD_REACTORS
330
76
102
}
330
76
100
DictionaryVariables
280
     0
  1
0
  0
DICTIONARYVAR
  5
EBF
102
{ACAD_REACTORS
330
76
102
}
330
76
100
DictionaryVariables
280
     0
  1
2
  0
DICTIONARYVAR
  5
EBE
102
{ACAD_REACTORS
330
76
102
}
330
76
100
DictionaryVariables
280
     0
  1
1
  0
DICTIONARYVAR
  5
EC2
102
{ACAD_REACTORS
330
76
102
}
330
76
100
DictionaryVariables
280
     0
  1
127
  0
DICTIONARYVAR
  5
EC6
102
{ACAD_REACTORS
330
76
102
}
330
76
100
DictionaryVariables
280
     0
  1
2
  0
DICTIONARY
  5
F04
330
6B
100
AcDbDictionary
280
     1
281
     1
  3
ACAD_XREC_ROUNDTRIP
360
F05
  0
DICTIONARY
  5
F08
330
73
100
AcDbDictionary
280
     1
281
     1
  3
ACAD_XREC_ROUNDTRIP
360
F09
  0
DICTIONARY
  5
F06
330
6F
100
AcDbDictionary
280
     1
281
     1
  3
ACAD_XREC_ROUNDTRIP
360
F07
  0
DICTIONARY
  5
1A
330
19
100
AcDbDictionary
280
     1
281
     1
  3
ACAD_XREC_ROUNDTRIP
360
ED0
  3
BUMPTILE
360
1C
  3
DIFFUSETILE
360
1B
  3
OPACITYTILE
360
1F
  3
REFLECTIONTILE
360
1E
  3
REFRACTIONTILE
360
20
  3
SPECULARTILE
360
1D
  0
DICTIONARY
  5
12
330
11
100
AcDbDictionary
280
     1
281
     1
  3
ACAD_XREC_ROUNDTRIP
360
ECF
  3
BUMPTILE
360
14
  3
DIFFUSETILE
360
13
  3
FBXASSET
360
109
  3
OPACITYTILE
360
17
  3
REFLECTIONTILE
360
16
  3
REFRACTIONTILE
360
18
  3
SPECULARTILE
360
15
  0
DICTIONARY
  5
22
330
21
100
AcDbDictionary
280
     1
281
     1
  3
ACAD_XREC_ROUNDTRIP
360
ED1
  3
BUMPTILE
360
24
  3
DIFFUSETILE
360
23
  3
FBXASSET
360
BA
  3
OPACITYTILE
360
27
  3
REFLECTIONTILE
360
26
  3
REFRACTIONTILE
360
28
  3
SPECULARTILE
360
25
  0
DICTIONARY
  5
EC9
330
67
100
AcDbDictionary
280
     1
281
     1
  3
ACAD_XREC_ROUNDTRIP
360
ECA
  0
DICTIONARY
  5
EC7
330
65
100
AcDbDictionary
280
     1
281
     1
  3
ACAD_ROUNDTRIP_2008_TABLESTYLE_CELLSTYLEMAP
360
EC8
  3
ACAD_XREC_ROUNDTRIP
360
F02
  0
DICTIONARY
  5
EDC
330
2F
100
AcDbDictionary
280
     1
281
     1
  3
ACAD_XREC_ROUNDTRIP
360
EDD
  0
DICTIONARY
  5
EDA
330
2E
100
AcDbDictionary
280
     1
281
     1
  3
ACAD_XREC_ROUNDTRIP
360
EDB
  0
DICTIONARY
  5
EE8
330
35
100
AcDbDictionary
280
     1
281
     1
  3
ACAD_XREC_ROUNDTRIP
360
EE9
  0
DICTIONARY
  5
EF0
330
39
100
AcDbDictionary
280
     1
281
     1
  3
ACAD_XREC_ROUNDTRIP
360
EF1
  0
DICTIONARY
  5
EE2
330
32
100
AcDbDictionary
280
     1
281
     1
  3
ACAD_XREC_ROUNDTRIP
360
EE3
  0
DICTIONARY
  5
EE6
330
34
100
AcDbDictionary
280
     1
281
     1
  3
ACAD_XREC_ROUNDTRIP
360
EE7
  0
DICTIONARY
  5
F00
330
41
100
AcDbDictionary
280
     1
281
     1
  3
ACAD_XREC_ROUNDTRIP
360
F01
  0
DICTIONARY
  5
EEE
330
38
100
AcDbDictionary
280
     1
281
     1
  3
ACAD_XREC_ROUNDTRIP
360
EEF
  0
DICTIONARY
  5
ED2
330
2A
100
AcDbDictionary
280
     1
281
     1
  3
ACAD_XREC_ROUNDTRIP
360
ED3
  0
DICTIONARY
  5
ED4
330
2B
100
AcDbDictionary
280
     1
281
     1
  3
ACAD_XREC_ROUNDTRIP
360
ED5
  0
DICTIONARY
  5
ED6
330
2C
100
AcDbDictionary
280
     1
281
     1
  3
ACAD_XREC_ROUNDTRIP
360
ED7
  0
DICTIONARY
  5
ED8
330
2D
100
AcDbDictionary
280
     1
281
     1
  3
ACAD_XREC_ROUNDTRIP
360
ED9
  0
DICTIONARY
  5
EE0
330
31
100
AcDbDictionary
280
     1
281
     1
  3
ACAD_XREC_ROUNDTRIP
360
EE1
  0
DICTIONARY
  5
EFC
330
3F
100
AcDbDictionary
280
     1
281
     1
  3
ACAD_XREC_ROUNDTRIP
360
EFD
  0
DICTIONARY
  5
EEC
330
37
100
AcDbDictionary
280
     1
281
     1
  3
ACAD_XREC_ROUNDTRIP
360
EED
  0
DICTIONARY
  5
EFE
330
40
100
AcDbDictionary
280
     1
281
     1
  3
ACAD_XREC_ROUNDTRIP
360
EFF
  0
DICTIONARY
  5
EE4
330
33
100
AcDbDictionary
280
     1
281
     1
  3
ACAD_XREC_ROUNDTRIP
360
EE5
  0
DICTIONARY
  5
EFA
330
3E
100
AcDbDictionary
280
     1
281
     1
  3
ACAD_XREC_ROUNDTRIP
360
EFB
  0
DICTIONARY
  5
EF8
330
3D
100
AcDbDictionary
280
     1
281
     1
  3
ACAD_XREC_ROUNDTRIP
360
EF9
  0
DICTIONARY
  5
EF2
330
3A
100
AcDbDictionary
280
     1
281
     1
  3
ACAD_XREC_ROUNDTRIP
360
EF3
  0
DICTIONARY
  5
EF4
330
3B
100
AcDbDictionary
280
     1
281
     1
  3
ACAD_XREC_ROUNDTRIP
360
EF5
  0
DICTIONARY
  5
EEA
330
36
100
AcDbDictionary
280
     1
281
     1
  3
ACAD_XREC_ROUNDTRIP
360
EEB
  0
DICTIONARY
  5
EDE
330
30
100
AcDbDictionary
280
     1
281
     1
  3
ACAD_XREC_ROUNDTRIP
360
EDF
  0
DICTIONARY
  5
EF6
330
3C
100
AcDbDictionary
280
     1
281
     1
  3
ACAD_XREC_ROUNDTRIP
360
EF7
  0
XRECORD
  5
F05
102
{ACAD_REACTORS
330
F04
102
}
330
F04
100
AcDbXrecord
280
     1
102
SHADEPLOT
 70
     0
102
SHADEPLOTRESLEVEL
 70
     2
102
SHADEPLOTCUSTOMDPI
 70
   300
  0
XRECORD
  5
F09
102
{ACAD_REACTORS
330
F08
102
}
330
F08
100
AcDbXrecord
280
     1
102
SHADEPLOT
 70
     0
102
SHADEPLOTRESLEVEL
 70
     2
102
SHADEPLOTCUSTOMDPI
 70
   300
  0
XRECORD
  5
F07
102
{ACAD_REACTORS
330
F06
102
}
330
F06
100
AcDbXrecord
280
     1
102
SHADEPLOT
 70
     0
102
SHADEPLOTRESLEVEL
 70
     2
102
SHADEPLOTCUSTOMDPI
 70
   300
  0
XRECORD
  5
ED0
102
{ACAD_REACTORS
330
1A
102
}
330
1A
100
AcDbXrecord
280
     1
102
MATERIAL
148
0.0
149
0.0
149
0.0
 93
        0
 94
      127
282
     0
 72
     0
 77
     0
171
     0
175
     0
179
     0
273
     0
  0
XRECORD
  5
1C
102
{ACAD_REACTORS
330
1A
102
}
330
1A
100
AcDbXrecord
280
     1
270
     1
271
     1
  0
XRECORD
  5
1B
102
{ACAD_REACTORS
330
1A
102
}
330
1A
100
AcDbXrecord
280
     1
270
     1
271
     1
  0
XRECORD
  5
1F
102
{ACAD_REACTORS
330
1A
102
}
330
1A
100
AcDbXrecord
280
     1
270
     1
271
     1
  0
XRECORD
  5
1E
102
{ACAD_REACTORS
330
1A
102
}
330
1A
100
AcDbXrecord
280
     1
270
     1
271
     1
  0
XRECORD
  5
20
102
{ACAD_REACTORS
330
1A
102
}
330
1A
100
AcDbXrecord
280
     1
270
     1
271
     1
  0
XRECORD
  5
1D
102
{ACAD_REACTORS
330
1A
102
}
330
1A
100
AcDbXrecord
280
     1
270
     1
271
     1
  0
XRECORD
  5
ECF
102
{ACAD_REACTORS
330
12
102
}
330
12
100
AcDbXrecord
280
     1
102
MATERIAL
148
0.0
149
0.0
149
0.0
 93
        0
 94
      127
282
     0
 72
     0
 77
     0
171
     0
175
     0
179
     0
273
     0
  0
XRECORD
  5
14
102
{ACAD_REACTORS
330
12
102
}
330
12
100
AcDbXrecord
280
     1
270
     1
271
     1
  0
XRECORD
  5
13
102
{ACAD_REACTORS
330
12
102
}
330
12
100
AcDbXrecord
280
     1
270
     1
271
     1
  0
XRECORD
  5
109
102
{ACAD_REACTORS
330
12
102
}
330
12
100
AcDbXrecord
280
     1
 70
     1
 90
1959938040
 71
     1
  1
426D47B7-10DB-47AF-87F5-ED4F56934392
311
504B03040A00000800009D4232403DEE336E79000000790000001B0000006175746F6465736B2D64657369676E2D7061636B6167652E786D6C3C3F786D6C2076657273696F6E3D22312E302220656E636F64696E673D227574662D3822203F3E3C666F726D6174733E3C666F726D61743E687474703A2F2F736368656D612E
311
6175746F6465736B2E636F6D2F64657369676E2D7061636B6167652F323030393C2F666F726D61743E3C2F666F726D6174733E504B03041400060808009D423240D486FD9CA0000000F4000000130000005B436F6E74656E745F54797065735D2E786D6C7D8EC10E82300C865F65E91D8A1E8C310C0EEA1BF002731658846E
311
D98AC1B77784ABF1D8FE5FBFBF75BBCE937A534CCEB38643598122B6FEE978D0B0485F9C41B54DDD7D022595594E1A469170414C76A4D9A4D207E29CF43ECE46F218070CC6BECC4078ACAA135ACF422C856C0E68EA1BF5669944DDD7BCDE7B1F8E415D77AECB980613C2E4AC91FC167A2B244592486606FC29C8FD7F045B9A
311
EF7053A7E60B504B03041400060808009D423240B89114D4EA0000007C01000008000000636F72652E786D6C8D90416EC3201045AF82668F0D769A620B13D94E7B825E0001715162B00C543D7E71E248EDAEAB19FDF96F66F4F9E97BBEA12FB306EB5D07B420808C535E5B377590E205334027C157EFE32F1B202767D3C126
311
83E0D3EAD3B24BCABB685CCCAAF3DAECA20CC14440EA969B0E82FA34B32C648AD911AEC522D5554EA6A0CF2EC329598D1E47ACCEFBECC59A15046B46F27A1C6BCC8666C087FA7CC6C348DE70DFD377DAD4CD70A87B5E6EB0E0D1CECFFB6A35321A0DA222B4C28462CA3E086B2BD2BE304C8E2D21BCDCEC7FA0B4E87F42C9BA
311
5857FBBB0F2C80A0F991FB40F072CB22977B50B96EB9891F504B03041400060808009D42324055019EA25F0000007C00000007000000636E782E786D6C4DCB3B0E80201045D1AD90E915ED2CF8AC45050C11660C8261F98AB1B07AC9C97D42D718D865D3E909258CFD00CCE24AC6E326A164D74DC0B4128928FF326038472B
311
A13128B1252AC747C6BAB984FC68F0B87FE8960A5C09FE86CFB69FBA01504B03041400060808009D42324032F1EC8867010000020300000C0000006662782F636F72652E786D6C8D525B6E833010BC8AE57F6303690A91711492F604BD80030E45011B191BE5F85D1E114D15451592B16676766707F8FED6366850B6AF8DCE
311
7018308C942E4C59EB2AC3DE5D4882D15E706B8CFB55869196ADCAF00863C12B6B7CB74085D14E6907A836A55A40D9F7CA61543470C9705F7CAB5606D23BA8E8AF41278BABAC54100640439DE0BDB36000CD43C6138BCBF9C6E98C0BEE7D5D2E6C5DC2B4FA522B8B45921ED9FBF61893244F73B2894F27921FD907391CC2CF
311
308DD37C131F381DC582BBBABDBB2BAC924E9558442C8C080B49987CB16417B1DD5B42D876C718A763F983C877E53F45BED62E8E16BBB3ACC722042313F1675B88C8A15E0EE0870A4EC710E13525FC18340402213B796EEE7B5C011A54E18CDD00531ABF52836CBC82A90C4D0FA7330B9DA706B0D9D33ED18B3EAF7BC00794
311
BA026BD2C1F5ECDD389DCF5397283A65C9E06E481BDBCA6635375B5CCF75D05379611A63FFA3A6CBAA7409938E7FAFF801504B03041400060808009D423240233B41E07E0000009D0000000B0000006662782F636E782E786D6C4DCCD10AC2201886E15B91FFDCA668AD813AFE9ADDC7686E8C9C866974F96DB1838E3E78F8
311
7855FB593C79BBF49A63D0C00F0C880BF738CC61D250F248CF405AA3528CF9EF0624F48BD3B0311835A5589E3B0D6EEC8BCFABFA393C76E4585B2B04A39CD7272AD15E291E2F1D95B26B1051DC64C3A032AAFA95D6DDC2E60B504B03041400060808009D42324066172B2C2B01000014020000310000006662782F31413745
311
453333302D313137362D344145432D413542442D3434443941414133463439302F636F72652E786D6C8D51CB6EC23010FC95C8277A70623B2104E418A5857E417FC038062C881DF951F1F9DD34416A6F5CBCD6ECCCEC6897EF1FC33DFBD63E18675B447382326D95EB8DBDB428C5336E50B617DC3B17FFD05066E5A05B34C1
311
48F08B77695C20E56CD436026A5DAF175086A023CAD41D3E2D0AEAAA0799CB1481116EF928D54D5E744E7368034FF0103D04C8E621D38B04ED36C76359124CE9A6C65577FCC0DDFAFD80ABEAB0EDBAAEFCACB68417B350F0944CBFC84D0F71CCD968FFAAC924163C9AE1195F792DA3EE916084324C28A6CD1769768CECD60D
311
26F58EC0E489FE4F94C6FE45513236966C893BCB0264E5C5DC10BC77E9747F86D18FD1F9984DF35641AB3724484E18A515AB192F662A2C003CEB6AF10CD17958F0EA7602365DCFC675257831DD08CAEF01A14EF7143F504B03041400060808009D42324070AE3D784D01000033030000300000006662782F31413745453333
311
302D313137362D344145432D413542442D3434443941414133463439302F636E782E786D6CD593CD6EC32010845F0571B78DD334B2224CA41EFA043DF48A6193D260B0F8A99AB7EF929034971C7AEC0559B3C3CCEA13E6BBEFD9922F08D17837D2BE659480535E1B7718694EFB66A0642778F03EDDD9287172869116990A7E
311
083E2F55D2B097D92654AD71C72A06883E070511E5729358AFA4C500704D4611E609B4064D6E46FCDA43C055509C4E247D00797D79277EFA049522EF4A8AE05DE910BC9CB5E9CE4489B232C69146F501B36C654E5E433CB65A26D9F6EDB5EBC14EBF49A45CB856E66048291F6939A9A81BB5C8917738143CA680F4AA299D16
311
A0422E8B354A2684DC9D8D178FE0D9B8B45957AF41F001DDFDE669BDC6B0F34CF06466A80E154026D054AC58BF6A58DFF4C31B1BB62BB67D1E1AB6D932C6BB62177CF2DED64B1803C12F447997C0252A7ADE95F1237CD547B409C8DA87D31F402280DA7AA173CBF8CF7CBAF3FB465C01FF02F103504B03041400060808009D
311
4232405F1BEDF59C0500007B100000340000006662782F31413745453333302D313137362D344145432D413542442D3434443941414133463439302F6F626A656374732E786D6CAD575B8F9B3814FE2B887D268424735B315493A4A9A2EEB455A356FB305264C030DE3117D96626D35FBF9FC11048936976D517C0C63E3EE7
311
3BDFB9D87FB7CBB8F54C8564457E6B7BA3B16DD13C2A6296A7B776A512E7DAB6DE05BE280AD55B665B39C9E8ADADA7EDC04F455195662AA609A9B83A985DCDFFB66444736A5B112752DEDA327AA41919914A1531954FA39828324A93DDC81B350B87625341CAC703A125113457D014F339A4588D52DE7038B6DDC077F5FFC0
311
D74FB36A7A7A955BDB333C9FE552913CFAE9B00331536FB67C3FB9B8712E66B3A933BB9C78CE7C355F3ADED574BCB85C2C6EEEDEDFE060A90424194D044DECE003B0112CF2DDE657E0572C57D38959621CE40AFACCB4A7EC606279BEDBACE9AC33461E533F2AF29C46355640A3B6CF888E6949F3183E675442B31E42E3E1D0
311
D338F67E4FF5D81CD99F3E0F81FE8E9EA056F7F6DDD7B408FF8109F21C06094935031B2C8DA10D57C77B84C3A2E0E61F93564614158C708BB35010F16A0758AA9704FE408C66B2D0D1A02DB00378A1F93DA40BC2E8D73C3FA6655271AE696C0775146C112B54C95A33F6838ABDF67D64A0137CA5D9706D0C52AF25B5839B86
311
22D7076C6A80B4124E52B81C66EA9DD3C981A10B1DA7EBA51D7C5C85BB8D8EDDE38797A228A9509A3EA056EBB8F6AD51323A7967794E6FB00F54D983F215C87F42A8EF5581DF04DBCD7633738A122497492132F8C61A5BCE188FB1E5D54FFDDDFBF2DD6EF3D07BA7F084B33554BF01CFA10D7D5FF6E00CFC6710BE105363DA
311
26221C69E39EE5004893C4E205A69087937067076B64396465EC223CF06032D47DC6A7EF1A314814F549BD770E2C0FD2E219091AB0D58C841A0DF98D827B3FFD94CEEA83CDB253F05EFC16BADE2D371F3795484844EF4D4C2F69C272A650E2F6BCE92B34C07C60D1137D7D29440C437FC67BD3C73B334749A0AD31D7C0A76D
311
4ED783FDC9830322EC4B0B9D6EFC5F9C00237461EDC9BF6732A29C939C16557BEE9BF50365A3815807BB66725760F68505A469FE1CC4208A742458A941ECAA5597344727ACFBB6FE0446DAC1FCF52FF2DACF5EE13EF746052FC4367CDD3669E928D4DF87DC3618B85A0AE85E07491BFF06F46DCC92A49248824770FDBE5EF4
311
7DA7D30252442BB5899619EC4770116148DBCA45B5160495B4C8B70C75137177F480BE7C406A18500B3CA5B1A43CD932CEAB6C9B308E6AB4CD4879028EFFAF7F5865E596644595AB13B207AAA33A0C751FB057BE10153DDAC1A67E3B73E4DE98C627C8A06BC911AC06AE9D4D2E97B3ABF995E38D9773677675B772AEAF5617
311
CEFBE56C757179339D4D6F26AD9F1A4D02BF2D35FD88869750DAFC4A30E3BE6F6BC48F490276704F947CF8D08467FBFEB61EA117F65DEC41BDEC36DEC5CFE8FB68FC6B01FB954705ADB392D38CE68AE818BAD71FFC2B419F3150A6995F6724A56748F9FC6173600C66CED8F745C73B7D39D86B66173A208F0A518F5516E684
311
F1838D6983E4A8CC53835FEB93EEDD149A76A847C631E84C65C1598C3C185B292D32AA900DCF284222A312D4EBF7F4B1B97B9CB1FBB9E9101509396D3579246892B94458805A55A486F3D61F68EA745F756BA3DC8E9EF03099C2B6C0995B1B4DBA621195A310055AB742B57070A9DFC9A3F12779CAD16B379BBA71B74B6333
311
28C9DD9273FA27635793C28D01482325FA063444F04EAD4CE0D7BA99FFD17F32BC55C7220A9F61A53A5BF6139D31F53108D1C628735B4013F3648EDE2150DF36CB1BD56B06889C75CB7A93048D54471191D63705AD9F51E96EF9C5458762AD3F5B25AF52F8F27C498EA02073A5031C2C022B8CCC92285075F1E7C31751E026
311
9B592B060A3C2C8A2C2B7233B83337616BF3887B6DFC80B440F585443E4CC6DEE4A1BE0898BBC93624928E482C9F30019F0AD6413C703C18D9DC1651819A1FDD3A573BE1809BEBA5654ADA0C420D51FA5955C3829623A716A2475F2675ACF417946FDE05DC7A295410E8E2837F01504B03041400060800009D423240000000
311
000000000000000000350000006662782F31413745453333302D313137362D344145432D413542442D3434443941414133463439302F76657274696365732E62696E504B03041400060808009D423240F270F1330600000004000000360000006662782F31413745453333302D313137362D344145432D413542442D343444
311
3941414133463439302F747269616E676C65732E62696E636660600000504B03041400060800009D423240000000000000000000000000370000006662782F31413745453333302D313137362D344145432D413542442D3434443941414133463439302F617474726962757465732E62696E504B03041400060808009D4232
311
40D5987DFC8F00000041010000360000006662782F31413745453333302D313137362D344145432D413542442D3434443941414133463439302F6469726563746F72792E786D6C858F410EC2201045AF4266AF15DDB800BA74E7C21B903225242D6328188F2FA5C4183471359997F9FF81E89FF3C41E1816475E02DF1F80A1
311
1FC8386F25A438EECEC07A250251FC3803E6F58C12560C4AD840E95E91C151A72936F496F35732D860FE635F62C8F2DA16B505C545B74125BAA2FA9E05D7CC053D063734D5C7665FD55B6B8D15D5E9BFEAFD8490FFA45E504B03041400060808009D423240AB3A3A4CFD000000A00100003B0000006662782F314137454533
311
33302D313137362D344145432D413542442D3434443941414133463439302F7265736F75726365732F636F72652E786D6C8D504B6E833010BD0A9ABDC1863405641C01694FD00B586642AC041BF953F5F8350995DA5D3733A3F7D13C3D7EFA5AEED9273AAFADE980E5143234CA4EDACC1DC47021356427C19DB5E1970C3223
311
17EC608341F0D9D9B8EE90B226A009093576C21D94DE63804CDDD3D18157575C642E63480A7FCB57A96E72C69CE5894E3AC17D702940F67CB24D100EBD8D4EA1E7C593153C463DED1A3DA59FFAA2D181A89B91BE1EC792D443339043753E9361A46FA4EFD93B6BAA6638543D2F36B3E0412F3F19954319700251525612CA08
311
AB3F68DD96B47DA9093DB694F26293FF31C575FAA7296A13AA728FFBB479102C05791082175B5F693DCA4C7BEB567C03504B010214000A00000800009D4232403DEE336E79000000790000001B00000000000000000000000000000000006175746F6465736B2D64657369676E2D7061636B6167652E786D6C504B01021400
311
1400060808009D423240D486FD9CA0000000F40000001300000000000000000000000000B20000005B436F6E74656E745F54797065735D2E786D6C504B010214001400060808009D423240B89114D4EA0000007C010000080000000000000000000000000083010000636F72652E786D6C504B010214001400060808009D42
311
324055019EA25F0000007C000000070000000000000000000000000093020000636E782E786D6C504B010214001400060808009D42324032F1EC8867010000020300000C00000000000000000000000000170300006662782F636F72652E786D6C504B010214001400060808009D423240233B41E07E0000009D0000000B00
311
000000000000000000000000A80400006662782F636E782E786D6C504B010214001400060808009D42324066172B2C2B0100001402000031000000000000000000000000004F0500006662782F31413745453333302D313137362D344145432D413542442D3434443941414133463439302F636F72652E786D6C504B010214
311
001400060808009D42324070AE3D784D010000330300003000000000000000000000000000C90600006662782F31413745453333302D313137362D344145432D413542442D3434443941414133463439302F636E782E786D6C504B010214001400060808009D4232405F1BEDF59C0500007B10000034000000000000000000
311
00000000640800006662782F31413745453333302D313137362D344145432D413542442D3434443941414133463439302F6F626A656374732E786D6C504B010214001400060800009D4232400000000000000000000000003500000000000000000000000000520E00006662782F31413745453333302D313137362D344145
311
432D413542442D3434443941414133463439302F76657274696365732E62696E504B010214001400060808009D423240F270F13306000000040000003600000000000000000000000000A50E00006662782F31413745453333302D313137362D344145432D413542442D3434443941414133463439302F747269616E676C65
311
732E62696E504B010214001400060800009D4232400000000000000000000000003700000000000000000000000000FF0E00006662782F31413745453333302D313137362D344145432D413542442D3434443941414133463439302F617474726962757465732E62696E504B010214001400060808009D423240D5987DFC8F
311
000000410100003600000000000000000000000000540F00006662782F31413745453333302D313137362D344145432D413542442D3434443941414133463439302F6469726563746F72792E786D6C504B010214001400060808009D423240AB3A3A4CFD000000A00100003B00000000000000000000000000371000006662
311
782F31413745453333302D313137362D344145432D413542442D3434443941414133463439302F7265736F75726365732F636F72652E786D6C504B0506000000000E000E00800400008D1100000000
310
504B03040A00000800009D4232403DEE336E79000000790000001B0000006175746F6465736B2D64657369676E2D7061636B6167652E786D6C3C3F786D6C2076657273696F6E3D22312E302220656E636F64696E673D227574662D3822203F3E3C666F726D6174733E3C666F726D61743E687474703A2F2F736368656D612E
310
6175746F6465736B2E636F6D2F64657369676E2D7061636B6167652F323030393C2F666F726D61743E3C2F666F726D6174733E504B03041400060808009D423240D486FD9CA0000000F4000000130000005B436F6E74656E745F54797065735D2E786D6C7D8EC10E82300C865F65E91D8A1E8C310C0EEA1BF002731658846E
310
D98AC1B77784ABF1D8FE5FBFBF75BBCE937A534CCEB38643598122B6FEE978D0B0485F9C41B54DDD7D022595594E1A469170414C76A4D9A4D207E29CF43ECE46F218070CC6BECC4078ACAA135ACF422C856C0E68EA1BF5669944DDD7BCDE7B1F8E415D77AECB980613C2E4AC91FC167A2B244592486606FC29C8FD7F045B9A
310
EF7053A7E60B504B03041400060808009D42324028061586EB0000007C01000008000000636F72652E786D6C8D90416E83301045AF62CDDE60435208328E028513F40296ED502BC146D8AE7AFC9A8448EDAEAB19FDF96F66F4D9F97BBEA32FBD7AE36C0B342380B4954E193BB510C315D780CE9CADCE855F364056CCBA854D
310
06CEA6D5C56597A4B341DB9054EB94DE45E1BD0E80E43D352D78F9A96791891892C3DFB245C89B9874465F5D8263340A3D8F1895F699ABD12BF08A74C370A94E783C8D077CE8C712D7C37B89AB6AEC8E17DA0F55D7B37C83390B667EDD97AB16412BE005A1052614D3FA83D44D419A638DC95B4308CB37FB1F282EEA9F5034
310
3694C5FEEE13F3C0697AE431E02CDFB248E51154AA5B6EFC07504B03041400060808009D42324055019EA25F0000007C00000007000000636E782E786D6C4DCB3B0E80201045D1AD90E915ED2CF8AC45050C11660C8261F98AB1B07AC9C97D42D718D865D3E909258CFD00CCE24AC6E326A164D74DC0B4128928FF32603847
310
2BA13128B1252AC747C6BAB984FC68F0B87FE8960A5C09FE86CFB69FBA01504B03041400060808009D4232405C01F68767010000020300000C0000006662782F636F72652E786D6C8D52ED8E8230107C95A6FF4B0BEA81A6D4A8074F702F50A17244684969898F7FCB87F1BC5C8C2129CDCCCEEEEC00DFDFDA060DCAF6B5D1
310
290E038691D285296B5DA5D8BB0B4930DA0B6E8D71BFCA30D2B255291E612C78658DEF16A830DA29ED00D5A6540B28FB5E398C8A062E29EE8B6FD5CA407A0715FD35E8647195950AC20068A813BC77160CA079C878627139DF389D71C1BDAFCB85AD4B98565F6A65B188D931CB0EF196E4DB7C4DD6A77C4592EC7345E2383F
310
6E0EE1298B8F274E47B1E0AE6EEFEE0AABA4532516110B23C24212265F2CD9456CB74908FBD831C6E958FE24F25DF9A6C8D7DAADA2C5EE2CEBB108C1C844FCD9162272A89703F8A182D33144784D093F070D8140C84E9E9BFB1E578006553863D7C094C63FA841365EC15486A687D39985CE5303D8ECDF3ED18B3EAF7BC007
310
94BA026BD2C1F5ECDD389DCF5397283A65C9E06E481BDBCAE6616EB6F8381F83FE9517A631F61D355D56A54B9874FC7BC50F504B03041400060808009D42324020FC66AB7D0000009D0000000B0000006662782F636E782E786D6C4DCCD10AC2201886E15B91FFDCA69938411D69EC3E467343721AE6A2CB6F8B1D74F4C1C3
310
C7ABBACF12D1DB9757C849033D11403EDDF318D2AC61AD136E017546959CEBDF0D501A16AF6167306A2E797D1E34FA695863DD3486F438905BE9B83D33CC9924F842C90D5B212576A2A5FDB577AC151C1AA39A5F69DB3D6CBE504B03041400060808009D4232409EBC8A1C2B01000014020000310000006662782F35423943
310
354232332D353339302D343130442D423739392D4337383146414643333837352F636F72652E786D6C8D51CB6EC32010FC15C4293D60831F318E3051932A5FD01F2086A42831583CAA7C7EA176A4F6960B8B66676647BB6CFF98EEE05B39AFAD1920293004CA8C566A731D600C174421D873E6AC0D7F68101831A901661872
310
767536CE2B345A139409093556AA1514DEAB00C1784F9F01FAF14B4DA210312486BF15B3186FE2AA0A52A476E271E6834B01C03224BF90B787FED81EAA1AB5758F5143F0073A747D8F8E1D25A7F7D3B1A65DCBCA45C8598C5AAE722D531C7DD1CABD6A92C59C053D3DE38F4E89A024E4152615C20411FA89E9AEC2BB9622BC
310
DD61CCCA4CFF278AB37C5114B50975B5C65D641E72C2CAA5C199B4F17C7F86518FD9BA00F2BC8D57E31BE4B8C015A1B8E96A562ED4B480E4B96D564F1FAC4B0BDEDCCE895DAFC6DB86B332DF2895DF03A69AEFC97F00504B03041400060808009D4232401609F26F5401000033030000300000006662782F35423943354232
310
332D353339302D343130442D423739392D4337383146414643333837352F636E782E786D6CBD93C16EC32010447F0571B78D9D34B2224CA41EFA053DF48A6193D260B00057CDDF7749489A4B0E95AA5E90353BCCAC9E30DF7D4D967C4288C6BB81B635A3049CF2DAB8C34097B4AF7A4A768207EFD39D8D122727186896A9E0
310
87E097B9481AF672B109556BDCB18801A25F82828872BE49AC57D26200B86A4111A611B4064D6E46FCDA43C055501C4F24BD0379797E237EFC0095226F728AE04DEE103C9FA5E9CE4489B232C68146F50E93ACE592BC8678ACB54CB26EEB6BD7839D7E9248BE70AD5C8221B97CA0F9A4A26C542347DEE050F09802D22BA674
310
9A810A39CFD62899107273365E3C822FC6A5CDBA780D820FE85E759BBEC7B0F34CF06426280E154026D05474ACED2AD6566DFFCAFA6DC7B64F7DC5365BC67893ED828FDEDB72096320F89928EF12B84445CB9B3C7E84AFF888360159FB70FA054804505A2F746E197FC9A7DDACD6EB7FE4D39CDF37E20AF817886F504B0304
310
1400060808009D423240813190F259070000941B0000340000006662782F35423943354232332D353339302D343130442D423739392D4337383146414643333837352F6F626A656374732E786D6CED595B739B3814FE2B0CFB6C6C62E7B643E8247193F174D376EA6D671F3CC3C820136D84602491C4FBEBF7E802066212BC
310
CDBEF5C106847474CE77AE3A041F9E33EA3C622E48CE2E5CDF9BB80E66719E10965EB8A5DC8CCE5CE74318F03C978D69AEC350862F5C35EC8641CAF3B2B04309DEA092CACEE8CDD55F8E8831C3AE135324C4852BE27B9C210F95324FB078F0122491976E9E3DDF3313DB64538E8AFB0ED10271CC24700AE30CA8388629BFFD
310
3871C7613056EFC340FDDB59D341B366FDB3C65AEA369784098958FC82A50E99E92096A6FE6CFEF1E8F87C743C9B4D47B393237F747573351FF9A7D3C9F5C9F5F5F9E5C773606F9DE7D4CA94E002B304F4B775433F18AB37B5E816817D5CC7396338D64002545AAC2E4182056CD5806FD27EF495448DD75AC2C6F34CBDB72C
310
3486A76D2A7DB38601D1A20B82D8ED2A89AB6B53BE7CFD37082E861825175802B74272D0AE85878357B8E124189BD13058EF7441849321893941D4A164CD1107A5C05435250CCC024B46390707528E92406BCEBC6EDB1678E6DBAEB38FCB4D49A9F20C37D48E1581FB61293467E41FCC77DC3791019E40DA92307966B994DB
310
02BBE17930D68361A02ED323FBD200E96C284A8546C4BCED087AAD5C7F3177C34F37EBE7A50A07FB372F785E602E95D1293D6ABEC090ED55A164B7F507694E2D00610CA876E50E946F80FC67881E3B56406F9C3CCF9E6776AEE488894DCE33D08D33714613F89B38BEFE57F78DBB605C2F6E6BAF0F4F705305D5D9CFE3D996
310
416365F96FC019068F60F0399FDA57CB1851B0E73BC2002065240ECD610842FB66FDEC860B089C10E86115A2A10F2203BB8F701B8C2D999D562AF7B25EC70051BBC774889200366D91C0468F9E6E217B7012EFD4D414B10FDEE37731D7CBF9F2D3B2E41B14E33BEBD373BC218C48C89AFB196A61DE92E8016F9F729E80A02F
310
F15E36F1CEEC5602D056982BE0D30A04F5B0DBB9B5410CEBD25C859BE08D1D400895AB1BF4EF888831A588E1BCACF6ADA39B32D4DAE36DCDE0864706E2E951C784397E24AAAA00A7D9CD68310A793FE6A45020BAE1AD91AC0E9A5E8F74DF179FC122EBF93DB3160C422F43F44F1DB4F6E0D0B2EC0A690B442DF07A17CEE39C
310
E63C5A6F2313E95CA825808DB6B7FC681185586F94A4A8800769BFAB424A6AA48D12B2D99402E2EA1E167F2CAE9BE630F1A6FEB1D3FCEF38E30CA22DF82EE2D6EF3A7B442443298E3628E9DBAEB95B4D5B68923DA439DE50908B3C12B98D908C26094E0F81E620E2E7EF4A3DA5B910846101F96A2FF84D34261E0412A3CD8A
310
65A5D50ED044441996881E828022D303AE4E3BBAC68DA174789BC7DA7A5FD35893E8FF64111C412D99B38840290A39E44DC67DEF1862481B5D8372075FB0B68AB61683965042C4DBE80993F45E1E82BA21DF837B0C4792524679816230EB01645FF88A526A87F7358A1F54FE88E292BE9781084C3711A1B4CC22F81106278F
310
21AE5D07A65751681037B14FE20C8A32244B3E649393E3C98B7D4CCDD00D818D8D368442D88E3254F4A0DE0A88BA1E716AF02DF51EA5AECBAC885096976C90A178D3AE3759F25DB52AB203F955A522948D15614B300C08937556AD623698BA0EACE0463A506D2381B2829A53D81B89C7AFBD4953EEDD805B3F7DDF0D3228FC
310
7AB4D78CA8B30A06CB63AB30104F48C6F76EB8D4D7D115D4DF094E76A9BEAA359B152020A62279C98955D1F7059437B64673C33B24C5EAD664DDEAFA7DE141F72318C31AA85DEA850B0574869944AA32B95337F41B8210DCA261C6172AA71E42E5324974D588E80DE95367AB8C686D9A11AFB8C72CCFE0C75684C5B44CF00A
310
25E221BA93345A12C5BA95D2CB4885F1AB027EB95D76E0819101227D55051E7EEAACB5A3D7AA5CDA4B44DE97D99A210241B0255A6A74E3152CB51AA9B45C5FD59902EA2E3030ABE2D9AF9345B31DF1EB64915AC3F8A993C5D5F60FB46DF6451AE93C56767DD031A0CE4F8ACA7B1C0374DBA1A65A671193CCADFCD69922088A
310
55941F5C8D5541C310ECE3F83F67EDBE2C68B6EBF07F58D6F65F541C076595D664D5A5DA53B92E5A39ECE8643E3BBD3A1DF993F9D568767A79333A3BBD391E7D9CCF6E8E4FCEA7B3E9799D8A0DF130A88399CE5DF06C825A35AC9E2C06D095153925099CE61327C510F3259CE907B4CF79860524CF66B33BB14DF901AB1F4D
310
9F53A235C51527F7081AC454405A0731CA58B6C79DDFA03529E1A07DE142D3C87B803F6B95AE0399E7C2855681243116DE1ADA4CAAA1A78943CAD5B9DF1283408658AA52A259543FD7AB1436ADF05F4F199206AC5CAD1E06146E0574BF5A1D0ACD9BE5293E48F08A1D0749B85D9712AA3523CB6EA016466FB353BF918D12F6
310
60B77E06D77D5D2CDFD3735A880CFA64F0AA1118AA238978AAFBDD8A31CBD2E5FCEB18FA6CCEE28B53D032055D0EA734E2188CB954051558115885A5592009A67AFDFBEA2BCFE1134FE6E8AA68759D6759CEECC3259CC712F844E42CEFE1834FB282B201ABB6BA581D4DFCA3956E67DB0E7BB446027BAA1E8281AA8C502274
310
8C0D2CF2456BCA362EC74A099DE98BB963C327B4018C05BDE8EE9ACF5B0E788FFA90A27C457B7825E7AB1DEDB19E0AD6C0A1171DFE0B504B03041400060800009D423240000000000000000000000000350000006662782F35423943354232332D353339302D343130442D423739392D4337383146414643333837352F7665
310
7274696365732E62696E504B03041400060808009D423240F270F1330600000004000000360000006662782F35423943354232332D353339302D343130442D423739392D4337383146414643333837352F747269616E676C65732E62696E636660600000504B03041400060800009D42324000000000000000000000000037
310
0000006662782F35423943354232332D353339302D343130442D423739392D4337383146414643333837352F617474726962757465732E62696E504B03041400060808009D423240D5987DFC8F00000041010000360000006662782F35423943354232332D353339302D343130442D423739392D4337383146414643333837
310
352F6469726563746F72792E786D6C858F410EC2201045AF4266AF15DDB800BA74E7C21B903225242D6328188F2FA5C4183471359997F9FF81E89FF3C41E1816475E02DF1F80A11FC8386F25A438EECEC07A250251FC3803E6F58C12560C4AD840E95E91C151A72936F496F35732D860FE635F62C8F2DA16B505C545B74125
310
BAA2FA9E05D7CC053D063734D5C7665FD55B6B8D15D5E9BFEAFD8490FFA45E504B03041400060808009D4232403BAD3B1EFE000000A00100003B0000006662782F35423943354232332D353339302D343130442D423739392D4337383146414643333837352F7265736F75726365732F636F72652E786D6C8D504B6E833010
310
BD0A9ABDC12649A1C8384A289CA017B0CC24B512ECC89FAAC7AF1DA8D4EEBA9919BD8FE6E9F1E3D7722F3ED1796D4D0FACA450A05176D6E6DA430C17D2427114DC591B7EC9A03072C11E320C825F9D8D8F0D52D6043421A1C6CEB881D27B0C50A87B3A7AF0EA031759CA1892C2DFCA87543779C59295894E3AC17D702940B1
310
3EC91384436FA353E879B5B282C7A8E74DA3E7F4535F343A100D3D8FE3A969C9F43AEDC97E9876A41DDF76A469A6F3E1C486B1390FBCCA66C1835E7E322A8732E00CA2A6AC269411D6BED3B6AB697768097DE928E55596FF31C5C7FC4F53D426ECEA2DEE6AF320580AF22404AF725F693DCB4C3B772BBE01504B010214000A
310
00000800009D4232403DEE336E79000000790000001B00000000000000000000000000000000006175746F6465736B2D64657369676E2D7061636B6167652E786D6C504B010214001400060808009D423240D486FD9CA0000000F40000001300000000000000000000000000B20000005B436F6E74656E745F54797065735D
310
2E786D6C504B010214001400060808009D42324028061586EB0000007C010000080000000000000000000000000083010000636F72652E786D6C504B010214001400060808009D42324055019EA25F0000007C000000070000000000000000000000000094020000636E782E786D6C504B010214001400060808009D423240
310
5C01F68767010000020300000C00000000000000000000000000180300006662782F636F72652E786D6C504B010214001400060808009D42324020FC66AB7D0000009D0000000B00000000000000000000000000A90400006662782F636E782E786D6C504B010214001400060808009D4232409EBC8A1C2B01000014020000
310
31000000000000000000000000004F0500006662782F35423943354232332D353339302D343130442D423739392D4337383146414643333837352F636F72652E786D6C504B010214001400060808009D4232401609F26F54010000330300003000000000000000000000000000C90600006662782F35423943354232332D35
310
3339302D343130442D423739392D4337383146414643333837352F636E782E786D6C504B010214001400060808009D423240813190F259070000941B000034000000000000000000000000006B0800006662782F35423943354232332D353339302D343130442D423739392D4337383146414643333837352F6F626A656374
310
732E786D6C504B010214001400060800009D4232400000000000000000000000003500000000000000000000000000161000006662782F35423943354232332D353339302D343130442D423739392D4337383146414643333837352F76657274696365732E62696E504B010214001400060808009D423240F270F133060000
310
00040000003600000000000000000000000000691000006662782F35423943354232332D353339302D343130442D423739392D4337383146414643333837352F747269616E676C65732E62696E504B010214001400060800009D4232400000000000000000000000003700000000000000000000000000C31000006662782F
310
35423943354232332D353339302D343130442D423739392D4337383146414643333837352F617474726962757465732E62696E504B010214001400060808009D423240D5987DFC8F000000410100003600000000000000000000000000181100006662782F35423943354232332D353339302D343130442D423739392D4337
310
383146414643333837352F6469726563746F72792E786D6C504B010214001400060808009D4232403BAD3B1EFE000000A00100003B00000000000000000000000000FB1100006662782F35423943354232332D353339302D343130442D423739392D4337383146414643333837352F7265736F75726365732F636F72652E78
310
6D6C504B0506000000000E000E0080040000521300000000
  0
XRECORD
  5
17
102
{ACAD_REACTORS
330
12
102
}
330
12
100
AcDbXrecord
280
     1
270
     1
271
     1
  0
XRECORD
  5
16
102
{ACAD_REACTORS
330
12
102
}
330
12
100
AcDbXrecord
280
     1
270
     1
271
     1
  0
XRECORD
  5
18
102
{ACAD_REACTORS
330
12
102
}
330
12
100
AcDbXrecord
280
     1
270
     1
271
     1
  0
XRECORD
  5
15
102
{ACAD_REACTORS
330
12
102
}
330
12
100
AcDbXrecord
280
     1
270
     1
271
     1
  0
XRECORD
  5
ED1
102
{ACAD_REACTORS
330
22
102
}
330
22
100
AcDbXrecord
280
     1
102
MATERIAL
148
0.0
149
0.0
149
0.0
 93
        0
 94
      127
282
     0
 72
     0
 77
     0
171
     0
175
     0
179
     0
273
     0
  0
XRECORD
  5
24
102
{ACAD_REACTORS
330
22
102
}
330
22
100
AcDbXrecord
280
     1
270
     1
271
     1
  0
XRECORD
  5
23
102
{ACAD_REACTORS
330
22
102
}
330
22
100
AcDbXrecord
280
     1
270
     1
271
     1
  0
XRECORD
  5
BA
102
{ACAD_REACTORS
330
22
102
}
330
22
100
AcDbXrecord
280
     1
 70
     1
 90
1959938040
 71
     1
  1
C83D099A-ADCD-409B-B61D-C43DB7DF7612
311
504B03040A00000800009C4232403DEE336E79000000790000001B0000006175746F6465736B2D64657369676E2D7061636B6167652E786D6C3C3F786D6C2076657273696F6E3D22312E302220656E636F64696E673D227574662D3822203F3E3C666F726D6174733E3C666F726D61743E687474703A2F2F736368656D612E
311
6175746F6465736B2E636F6D2F64657369676E2D7061636B6167652F323030393C2F666F726D61743E3C2F666F726D6174733E504B03041400060808009C423240D486FD9CA0000000F4000000130000005B436F6E74656E745F54797065735D2E786D6C7D8EC10E82300C865F65E91D8A1E8C310C0EEA1BF002731658846E
311
D98AC1B77784ABF1D8FE5FBFBF75BBCE937A534CCEB38643598122B6FEE978D0B0485F9C41B54DDD7D022595594E1A469170414C76A4D9A4D207E29CF43ECE46F218070CC6BECC4078ACAA135ACF422C856C0E68EA1BF5669944DDD7BCDE7B1F8E415D77AECB980613C2E4AC91FC167A2B244592486606FC29C8FD7F045B9A
311
EF7053A7E60B504B03041400060808009C42324003A0739BE90000007C01000008000000636F72652E786D6C8D904D6EC3201085AF82668F0D24715D0B13A1FC9CA01740401C94182C03518F5F9C3852BBEB6A466FDE37337A7CFF3DDED1C3CED105DF03AD0820EB7530CE0F3DE474C12DA0BDE07308E9970D9057A3ED6191
311
41F0610E795A251D7CB23E15D507635751C56813207D2F4D0F515FEDA82A955371C45B35297D5383ADE8BB2B70CECEA0D71167CA3E77717606413692340D3DE256EE4E784B0E9F58B6E7233E3329256394B2D381D70B2C7872E3FBBE9EAD4AD6806084324C28A6ED17693B46BADD07264D4708AF17FB1F284FE69F50763E6D
311
D8FAEE0B8B206879E43910BC5EB228E51954A94B6EE207504B03041400060808009C42324055019EA25F0000007C00000007000000636E782E786D6C4DCB3B0E80201045D1AD90E915ED2CF8AC45050C11660C8261F98AB1B07AC9C97D42D718D865D3E909258CFD00CCE24AC6E326A164D74DC0B4128928FF326038472BA1
311
3128B1252AC747C6BAB984FC68F0B87FE8960A5C09FE86CFB69FBA01504B03041400060808009C423240302E457265010000020300000C0000006662782F636F72652E786D6C8D52D96E833010FC15CBEFC6478ED2C87184727C417FC00187A2801D191BE5F3BB1C114D15451592B16676766707E4EEDED4A833BEAD9CDD62
311
9E308C8CCD5D51D9728B63B89014A39D92DEB9F0AB0C23AB1BB3C53D8C952CBD8BB709CA9D0DC60640AD2BCC04EAB63501A3BC86CB16B7F9B76974A263808AF69ADC747ED5A549780234D429D9060F06D038A43FB1BA9CEF928EB8923156C5C456054CAB2E95F158B145C6D66B7E2069B63A9225DB7F922C3D1DC849645926
311
04E7E2B897B4172B19AAE6E12EF7460753602518178471C2D32F966E04DBAC3E085B6F1893B42F7F12C55BF14F51AC6C5888C9EE286BB1E2606420FE6C0B1105D4EA0EFC5025691F22BC86849F83864020E4A0CFF5638F2B409DC983F34B600A1767AAD375343095A1E1917464A1F3D000367BD947BCE9F3BE077C406D4BB0
311
A6035CCF31F4D3E538758AE2663CE9C21D59E71B5DCFE6468BF3390F7A29CF5DEDFC7FD4745A954E61D2FEEF553F504B03041400060808009C423240A3DD16ED7E0000009D0000000B0000006662782F636E782E786D6C4DCCD10A83201886E15B91FFDC95A6AB811A29ED3E625944A6C3E9D8E5AF46073BFAE0E1E315ED67
311
73E86DE36B095E02B99480AC7F8471F1B3849C26DC006A958821A4BF1B203F6C56C2C1A0C41C437E9E34DA69C82EEDEA16BF9EA8F98D759C18DC378C6156E91AEB9A30DCF5574AEF1537A6A4502851FC4AFB1E61F505504B03041400060808009C4232406061B16E2B01000014020000310000006662782F42353934413531
311
432D453834342D343342372D423731342D4145363232463335434330322F636F72652E786D6C8D51CB6EC32010FC15C4293D6003C1C48D305112A55FD01F7030495162B07854F9FC42ED48ED2D1716CDCECC8E76C5EE31DEC1B7F6C138DB41526108B4556E30F6DAC1142FA885602785772EFEA14160FB5177B0C0508AAB77
311
695A20E56CD43666D4BA412F601F828E10A87BFE7430A82F3DF6559F6266845B35F5EAD65F7545AADCCE3C2942F4390098879417CA43F3CEF60D39A253CB1862EBC3061D3684A1FD8953FAB16E8E474C453D0BA548C90C8BDC0C398EB918ED5F35296229A2199FF195D77DD4039414138A3041A4FDC4ED96E26DB341986F31
311
1675A1FF13A5697851948C8D6BBAC49D65014A22EAB921C5E0D2F9FE0CA31F93F3119479ABA0D51B94B8C21473CA3817F54CCD0BC89E9C2D9E213A9F17BCBA9D339B34B3316752D4E546B9FC1E30D7724FF903504B03041400060808009C423240BC6712CD4D01000033030000300000006662782F42353934413531432D45
311
3834342D343342372D423731342D4145363232463335434330322F636E782E786D6CD593CD6EC32010845F0571B78DD3348D224CA41EFA043DF48A6193D060B0F8A99AB7EF929034971C7AEC0559B3C3CCEA13E6DBEFC9922F08D17837D0BE659480535E1BB71F684EBB664DC956F0E07DBAB351E2E404032D32157C1F7C9E
311
ABA46127B34DA85AE38E550C107D0E0A22CAE526B15E498B01E09A8C224C23680D9ADC8CF8B58380ABA0389E483A00797BFD207EFC049522EF4A8AE05DE910BC9CB5E9CE4489B232C68146758049B63227AF211E5B2D936CFBF6DAF560A7DF24522E5C2B7330A4940FB49C54D48D5AE4C83B1C0A1E53407AD5944E335021E7
311
D91A251342EECEC68B47F06C5C5A2DABD720F880EE7EF5B45C62D8792678321354870A2013682A16AC5F34AC6FFAF53B5B6F166CF3FCD2B0D58631DE15BBE0A3F7B65EC218087E26CABB042E51D1F3AE8C1FE1AB3EA24D40D63E9CFE001201D4D60B9D5BC67FE6D39DDF37E20AF817881F504B03041400060808009C423240
311
2BF770AC9B0500007A100000340000006662782F42353934413531432D453834342D343342372D423731342D4145363232463335434330322F6F626A656374732E786D6CAD57DB6EDB3810FD1541FBEC8B6C378D178A0A5F9AC228D216355AEC4300839228851B4A14482A75F6EBF750A264C9B113EFA22F96450D873367CE
311
5CE87FD867DC79A2523191DFB8DE70EC3A348F44CCF2F4C62D7532B8769D0F812F85D01D31D7C949466F5CB3EC067E2A4559D8A59826A4E4FA68F576F997A3229A53D7893851EAC655D103CDC890945AC4543D0E63A2C9304DF6436F580BF6D5A692140F474A0B2269AE6129D67368716AA3BCFEEBD81D05FEC87C0F7CF36B
311
A5A6E7A546953FFDF359AE34C9A317871DA9997AB3F5C7C9BBF9E0DD6C361DCCAE26DE6079BB5C0FBCF7D3F1EA6AB59A2F3ECE71B0D2129AAC2592266EF009D84816F9A3FA53E0972CD7D38915B1011A49FAC44CA4DC60E278FEA89669BDB34E9E323F12794EA30A2BA051F96755C7B4A0798C9833AA605907A171FFD53338
311
763E4FCDBB3DB2BB7C1902DD1D1D458DEDCDB36BA908FF860BEA120649450D036B2CADA33557C707844321B8FDC69493114D2523DCE12C94443EBB01448D48E0F7D418264B930DC603374014EACF7DBA208DDEE6F9292B939273436337A8B260875CA15A5596B17FA83C58DF4506362156860DD7D621FD5C503798D714B93E
311
62530DA493709222E470D3EC9C4E8E1C5D993CDDACDDE0F36DB8DF9ADC3D7D78214541A536F401B59AC0354F8392B5C9BB287266837B64CA0194EF40FE0B52FD600AE226D97EB69FD953B424B94A84CC101B67EC0CC6F8193B5EF56BFE77FEF9A376733F7AE7F044B00D54BF01CFBE0FDD5876E00CFC27105EC8A9756D1B11
311
8EB271C772006448E2708125D4E124DCBBC106550E5519BB080F3CB80C739FF0D71F59352814D5499D670E2C8FCAE205051AB0558C841935F9AD818738BD2867D5C156EC1CBCEF7E0B5D17EBEDE76D291312D13B9BD36B9AB09C69B4B8036FBA06F530EF79F4489F7F0919C3D197786FBB7867F62805B40DE606F8B4A9E9E6
311
E57072EF8008FB5261CA8DFFC60970C234D68EFE3BA622CA39C9A9289B735FED1F681B35C426D90D93DB0673682C204DFDE52807D1A423C90A0362DBADDAA2393CE3DD8FCD173012F25C84841F84C243E98D041772173EEFEAAA7412E99F7D6A5B0846460BD85EE54893FE16F35DCC92A454A8812760FDB959754367AA022A
311
44A3B54E9619DC476E116939DBE845B396048D54E43B86B689B43B7940573F10B504A8149EB358519EEC18E765B64B184733DA65A43803C7FFB73F2CB362473251E6FA8CEE9EE9680E7DDB7BE455BF888E1EDC605B3D074B94DE98C68730F7844D2B3981552FB4ABEBE97A3C9F2F068BF56A3D988DE7CBC1F2CA5B0F56B3E9
311
7AF97E7DFBFECA9B3471AA95077ED369BA098D28A1B3F9A564367C3F36481F5B03DCE08E6875FFA9CECEE6F96333C428EC8FB007EDB2DDB8889F30F6D1F86D0507C9938A3659C16946734D4C0ADD993FFC3BC198D133A65EDF6424A51768F9FA697BE40C562ED8F7CDA43BFD75B4D7AEAE4C429E54A21FCA2CCC09E3471BD3
311
1AC96191A716BF2626EDB3EE33CDAB79B381C160AA046731CA60ECA4546454A3185ED083644615A8D71DE9637BF5B860F7533D206A1272DA58F24030237385B400B5CA48F7D79D3F30D399B1EAC645B71D3EE2C7560AD701676E5CCCE89A45540D43F467330955CAC1A5EE208FB99FE429C7A85D6F6ADFDB5D069B5E476E45
311
2E199FAC5F7505B70EA08C14181B300F213A9531815FD966BF47FFC9F1C61C8768FC0D4BDDFA7258689DA98E418AD64ED9CB026698477BF41E89FABA5BDEB092E92172D125EB5512D45A079AC8B4BA2818FBAC498BF5B711061467F3D52978992296976B1A480A329726C1C122B0C2EA2C880655577FDE7F930217D9CCB965
311
A0C0FD4A6499C8EDCBC25E849DED03AEB5F13DCA0235F711753F197B93FBEA1E60AF26BB90283A24B17AC402622A590B712FF060647D594407AA3FB472231384236E6ED68E6D693328B544E95655030B268E9C3AC81E739734B9D215285EBD0A8C2A51982031C407FF02504B03041400060800009C42324000000000000000
311
0000000000350000006662782F42353934413531432D453834342D343342372D423731342D4145363232463335434330322F76657274696365732E62696E504B03041400060808009C423240F270F1330600000004000000360000006662782F42353934413531432D453834342D343342372D423731342D41453632324633
311
35434330322F747269616E676C65732E62696E636660600000504B03041400060800009C423240000000000000000000000000370000006662782F42353934413531432D453834342D343342372D423731342D4145363232463335434330322F617474726962757465732E62696E504B03041400060808009C423240D5987D
311
FC8F00000041010000360000006662782F42353934413531432D453834342D343342372D423731342D4145363232463335434330322F6469726563746F72792E786D6C858F410EC2201045AF4266AF15DDB800BA74E7C21B903225242D6328188F2FA5C4183471359997F9FF81E89FF3C41E1816475E02DF1F80A11FC8386F
311
25A438EECEC07A250251FC3803E6F58C12560C4AD840E95E91C151A72936F496F35732D860FE635F62C8F2DA16B505C545B74125BAA2FA9E05D7CC053D063734D5C7665FD55B6B8D15D5E9BFEAFD8490FFA45E504B03041400060808009C423240DCCEB923FC000000A00100003B0000006662782F42353934413531432D45
311
3834342D343342372D423731342D4145363232463335434330322F7265736F75726365732F636F72652E786D6C8D504B6E833010BD0A9ABDC1761A4A9171846872825EC032136225D8C89FAAC7AF09546A77DDCC8CDE47F3F4C4E96B7E149FE88371B603565228D06A371A3B7590E29534509CA4F0CEC55F3228AC9AB18315
311
062926EFD2B243DAD9883666D4BA1177508580110AFDC8470741DF7056A54A312BC2BD5C94BEAB094B56663AEBA408D1E700C5F6649D203D0697BCC620AA8D95222533EE1A33E69FE66AD083A4879ED6351B48D31FCFE4850E6FA46F2EEFE4C2FBBEE79C317E1E44B59AA58866FEC9A83DAA8823484E19279411D67CD0A6E5
311
B43DBE125AB7948A6A95FF31A565FCA729191B0F7C8FBBD9024896833C0929AAB5AFBC9E65E6BD762BBF01504B010214000A00000800009C4232403DEE336E79000000790000001B00000000000000000000000000000000006175746F6465736B2D64657369676E2D7061636B6167652E786D6C504B010214001400060808
311
009C423240D486FD9CA0000000F40000001300000000000000000000000000B20000005B436F6E74656E745F54797065735D2E786D6C504B010214001400060808009C42324003A0739BE90000007C010000080000000000000000000000000083010000636F72652E786D6C504B010214001400060808009C42324055019E
311
A25F0000007C000000070000000000000000000000000092020000636E782E786D6C504B010214001400060808009C423240302E457265010000020300000C00000000000000000000000000160300006662782F636F72652E786D6C504B010214001400060808009C423240A3DD16ED7E0000009D0000000B000000000000
311
00000000000000A50400006662782F636E782E786D6C504B010214001400060808009C4232406061B16E2B0100001402000031000000000000000000000000004C0500006662782F42353934413531432D453834342D343342372D423731342D4145363232463335434330322F636F72652E786D6C504B0102140014000608
311
08009C423240BC6712CD4D010000330300003000000000000000000000000000C60600006662782F42353934413531432D453834342D343342372D423731342D4145363232463335434330322F636E782E786D6C504B010214001400060808009C4232402BF770AC9B0500007A100000340000000000000000000000000061
311
0800006662782F42353934413531432D453834342D343342372D423731342D4145363232463335434330322F6F626A656374732E786D6C504B010214001400060800009C42324000000000000000000000000035000000000000000000000000004E0E00006662782F42353934413531432D453834342D343342372D423731
311
342D4145363232463335434330322F76657274696365732E62696E504B010214001400060808009C423240F270F13306000000040000003600000000000000000000000000A10E00006662782F42353934413531432D453834342D343342372D423731342D4145363232463335434330322F747269616E676C65732E62696E
311
504B010214001400060800009C4232400000000000000000000000003700000000000000000000000000FB0E00006662782F42353934413531432D453834342D343342372D423731342D4145363232463335434330322F617474726962757465732E62696E504B010214001400060808009C423240D5987DFC8F0000004101
311
00003600000000000000000000000000500F00006662782F42353934413531432D453834342D343342372D423731342D4145363232463335434330322F6469726563746F72792E786D6C504B010214001400060808009C423240DCCEB923FC000000A00100003B00000000000000000000000000331000006662782F423539
311
34413531432D453834342D343342372D423731342D4145363232463335434330322F7265736F75726365732F636F72652E786D6C504B0506000000000E000E0080040000881100000000
310
504B03040A00000800009C4232403DEE336E79000000790000001B0000006175746F6465736B2D64657369676E2D7061636B6167652E786D6C3C3F786D6C2076657273696F6E3D22312E302220656E636F64696E673D227574662D3822203F3E3C666F726D6174733E3C666F726D61743E687474703A2F2F736368656D612E
310
6175746F6465736B2E636F6D2F64657369676E2D7061636B6167652F323030393C2F666F726D61743E3C2F666F726D6174733E504B03041400060808009C423240D486FD9CA0000000F4000000130000005B436F6E74656E745F54797065735D2E786D6C7D8EC10E82300C865F65E91D8A1E8C310C0EEA1BF002731658846E
310
D98AC1B77784ABF1D8FE5FBFBF75BBCE937A534CCEB38643598122B6FEE978D0B0485F9C41B54DDD7D022595594E1A469170414C76A4D9A4D207E29CF43ECE46F218070CC6BECC4078ACAA135ACF422C856C0E68EA1BF5669944DDD7BCDE7B1F8E415D77AECB980613C2E4AC91FC167A2B244592486606FC29C8FD7F045B9A
310
EF7053A7E60B504B03041400060808009C4232402EC57E6BE90000007C01000008000000636F72652E786D6C8D904D6EC3201085AF82668F0DD84DA88589E49F1BF4020813172506CB40D5E317278ED4EEBA9AD19BF7CD8C9EB87C2F77F465B660BD6B8116049071DA4FD6CD2DA478C51CD0458ACDFBF8CB06C8A9C5B4B0CB
310
20C5BCF9B41E92F62E1A17B3EAFC640E51856022207DCF4D0B417F9A45152AC5EC08B76255FAA66653D05797E194EC849E47EC94F7D9AB351BC8AE1B7A5AD51DAE6A56E19A8D3DE6FDFB80C78E8F351F4E55C7CFA2DC6129A25D5EF7F566543413484628C38462CA3F086F1869DECE989C1A4244B9DBFF40699DFE0925EB62
310
C58E779F580049F3238F8114E59E452E8FA072DD73933F504B03041400060808009C42324055019EA25F0000007C00000007000000636E782E786D6C4DCB3B0E80201045D1AD90E915ED2CF8AC45050C11660C8261F98AB1B07AC9C97D42D718D865D3E909258CFD00CCE24AC6E326A164D74DC0B4128928FF326038472BA1
310
3128B1252AC747C6BAB984FC68F0B87FE8960A5C09FE86CFB69FBA01504B03041400060808009C4232401A4B859466010000020300000C0000006662782F636F72652E786D6C8D52ED8E8320107C15C27F043FAEF51AA4896DDFE05E802AF548150C82E9E3DFFAD1F47A699A8B0992999DDDD951BEBF752D1A951BB435058E
310
2386913295ADB5690A1CFC85E418ED0577D6FA5F651819D9A9024F3016BC7136F42B5459E395F1801A5BAB1594C3A03C46550B97020FD5B7EA642483878AE11AF5B2BACA4645710434D4093E780706D032643AB1B89C6F9C2EB8E021E87A65750DD3F4452B8745591E0F719A9524CD929464C9E940F2C3E7919CCAFC94E5C7
310
4D5AE65B4E27B1E05E7777779553D2AB1A8B84C509613189F32F96EF12B6FBD812B6D931C6E954FE240A7DFD4F51D0C6A7C96A77910D58C4606426FE6C0B117934C811FC50C1E91422BCE6849F83864020642FCFED7D8F2B40A3AABC751930B50D0F6A946D503095A1F9E17461A1F3DC00367BD92779D3E77D0FF880D23460
310
4D7AB89E839FA6F365EA1A45AF1C19FD0D19EB3AD93ECC2D161FE763D04B79655BEBFEA3A6EBAA740D934E7FAFF801504B03041400060808009C423240B9C304577E0000009D0000000B0000006662782F636E782E786D6C4DCCD10A83201886E15B91FFDCA5D39681194BEC3E625948A5C3E9D8E5AF46073BFAE0E1E395ED
310
675BD1DBC6970BBE017A2180AC7F84D1F9B9819C262C00B54AC610D2DF0D901F36DBC0C1A0E41C437E9E34DA69C86BDA75757E39D1F4BAE482725CD5CC60CE498DEF5743B1EEFA4A0B762B09EBA050B2F895F63DC2EA0B504B03041400060808009C423240203F975D2C01000014020000310000006662782F454643353438
310
31342D373933452D343430392D413245312D4342463743383336353033422F636F72652E786D6C8D51CB6EC23010FC95C8277A7062272109C8312A08BEA03F60620316C48EFCA8F8FCAE9B20B5372E5E6B766676B4CB76CFF1917D2BE7B5353DA2394199328395DA5C7B14C3057728DB71E6AC0D7F68283362543D4A30E2EC
310
EA6C9C1668B0262813003556AA0514DEAB80B2E1019F1EF9E1A646918B1880E1EFF92486BBB8AA9CE6D0061E673E380890CD43D28BF8F17458D71DAD71BBA98EB8AEC9067F96478A0FFB537BE8AA664DAA3D2B662167316AB9C8B58438FAA2957BD72489390B7A7CC51F9C124149C44B424B4C28A6DD17E9B625D9AE5B4C9A
310
2D21AC48F47FA238C93745519B50954BDC59E611A7AC981B9C491BCF8F5718F59CAC0B599AB7F26AF8409CE4A4ED68D5942099A9B000F06CEAC5D307EB60C1ABFB19D815B09271537356A41B41F93D20D4744FFE03504B03041400060808009C423240DAC0DDDA5401000033030000300000006662782F4546433534383134
310
2D373933452D343430392D413245312D4342463743383336353033422F636E782E786D6CBD93CD6EC32010845F0571F76F52D78A30917AE813F4D02B864D4283C1025C356FDF2521692E3954AA7A41D6EC30B3FA84D9F66B32E4137CD0CE0EB4296B4AC04AA7B4DD0F7489BBA2A764CB99772EDED928B1628281269972B6F7
310
6E99B3A4602716135135DA1EB3E821B8C54B0828A79BC438290C06802D1614611A412950E466C4AF1D785C05C5F144E201C8EBCB3B71E307C81858955238AB520767E9CC4D77264AA411210C34C8034CA2144B740AC2B154228AB229AF5D0F76FA4922E9C2B572F19AA4F281A693F2BC51891C598543CE42F4482F9BE26906
310
CAC53C1B2D4544C8D5D978F170B6681BBB75F66A04EFD1BD6ABBBEC7B0F38CB3A827C80EE941445094B775D316755334FD5BDD6FDA7AF3F45CD4DDA6AE5995EC9C8DCE997C0963C0BB99486723D84879C3AA347E842FFB88D21E593B7FFA054804905B2F746E197FC9A7E956EBF53FF2A9CEEF1B7179FC0BF837504B030414
310
00060808009C4232402DD21E1857070000931B0000340000006662782F45464335343831342D373933452D343430392D413245312D4342463743383336353033422F6F626A656374732E786D6CED595B6FA33814FE2B887D0E094DDA695694519B4CAB68D599D16467B40F9190030EF5D618649B5EF6D7EFF1050234B464A7
310
FB360F0960ECE373BE73F521F8F89451E70173417276E1FADEC475308BF384B0F4C22DE56E74EE3A1FC380E7B96C4C731D86327CE1AA61370C529E97851D4AF00E95547646AFAFFE72448C19769D9822212E5C11DFE10C79A8947982C5BD972089BC74F7E4F99E99D8269B7254DC7588168863268153186740C5314CF9EDC7
310
893B0E83B17A1F06EADFCE9A0E9A35EB9F35D652B7B9244C48C4E2172C75C84C07B134F567CB4F27A7F3D1E96C361DCDCE4EFCD1D5F5D572E47F984E16678BC5FCF2D31CD8DBE639B53225B8C02C01FD3DBBA11F8CD59B5A748BC021AEE39C311C6B20012A2D569720C102B66AC037693FFA4AA2C66B2D61E379A6DE5B161A
310
C3D33695BE59C38068D10541EC7695C4D5B5295FBEFD1B0417438C920B2C815B213968D7C2C3C12BDC70128CCD68186CF7BA20C2C990C49C20EA50B2E588835260AA9A1206668125A39C8303294749A035675EB76D0B3CF36DD739C4E5AEA45479861B6AC78AC0FDB0149A33F20FE67BEE9BC8004F206D49983CB75CCAE702
310
BBE13C18EBC1305097E9897D6980747614A5422362DE76045D28D75F2DDDF08FEBEDD35A8583C39B173C2F3097CAE8941E355F60C8F6AA50B2DBFA8334A71680300654BB720FCA3740FE33448F3D2BA0374E9E664F333B5772C4C42EE719E8C69938A309FC4D1C5FFFABFBC65D30AE17B7B5D78727B8A982EAFCE7F16CCBA0
310
B1B2FC37E00C830730F89C4FEDAB758C28D8F32D610090321287E63004A17DB77D72C315044E08F4B00AD1D0079181DD07B80DC696CC5E2B957B59AF6380A8DD633A4449009BB64860A3474F37903D3889F76A6A8AD807EFE9BB98EBE572FDC7BAE43B14E35BEBD34BBC238C48C89A87196A61DE92E81E3F3FE63C01415FE2
310
BD6EE29DD9AD04A0AD3057C0A71508EA61BF736B8318D6A5B90A37C11B3B80102A5737E8DF1211634A11C37959ED5B473765A8B5C7DB9AC10D4F0CC4D3938E0973FC405455014EB39FD16214F27ECC49A14074C31B23591D34BD1EE9BEAF3E8345D6F37B66AD18845E86E89F3A681DC0A165D915D216885AE0ED3E9CC739CD
310
79B47D8E4CA473A1960036DADEF2A3451462BD5192A2021EA4FDAE0A29A991364AC86E570A88AB0758FCB15A34CD61E24DFD53A7F9DF71C619445BF05DC4ADDF75F6884886521CED50D2B75D73B79AB6D0247B4873BCA320177920F23942329A24383D069AA388CFDF957A4A732108C302F2D541F09B684C3C0824469B15CB
310
4AAB1DA08988322C113D060145A6075C9D76748D1B43E9F0368FB5F5BEA6B126D1FFC92238825A32671181521472C89B8CFBDE29C49036BA06E50EBE606D156D2D062DA184889FA3474CD23B790CEA867C0FEE311C494A19E5058AC1AC07907DE12B4AA91DDEB728BE57F9238A4BFA5E062230DD4584D2328BE047189C3C86
310
B8761D985E45A141DCC43E893328CA902CF9904DCE4E272FF631354337043636DA110A613BCA50D1837A2B20EA7AC4A9C1B7D47B94BA2DB32242595EB24186E24DBBDE64C977D5AAC80EE457958A503656842DC130204CD659B58AD960EA3AB0821BE940F51C099415D49CC2DE483C7EED4D9A72EF06DCFAE9FB6E9041E1D7
310
A3BD66449D5530581E5B8581784432BE73C3B5BE8EAEA0FE4E70B24FF555ADD9AC00013115C94B4EAC8ABEAFA0BCB1359A1BDE2229363726EB56D7EF2B0FBA1FC118D640ED522F5C29A033CC245295C9ADBAA1DF1084E0160D33BE5239F5182A9749A2AB4644AF499F3A5B65446BD38C78C51D6679063FB6212CA665823728
310
11F7D1ADA4D19A28D6AD945E462A8C5F15F0CBCDBA030F8C0C10E9AB2AF0F06367AD1D5DA872E920117957665B860804C19668A9D18D57B0D46AA4D2727D55670AA8BBC0C0AC8A67BF4E16CD76C4AF93456A0DE3E74E1634DF22BA8F368D6C1E2BB33EEA1450A72745E53D4E01BAEB5053AD9388C9E5567CEB4B11C4C42AC8
310
0F2EC6AA986108F671FC9F93765F1234DB75F83F2E69FB2F0A8EA3924A6BB26A521D285C57CD14B6389F2E27F3F9E5E872B9588E6693F9D5E8EACC5F8E16B3E9F2EAC3F2FAC3D93E131BE26150C7329DBAE0D9C4B46A583D590CA0292B724A1238CC274E8A21E44B38D20FE89EF30C0BC89DCD5E77627BF203563F9836A744
310
5B8A2B4EEE10F487A980AC0E6294B16C8F3BBF416752C239FBC2859E91770F7FD62A5D0712CF850B9D0249622CBC2D7499543F4F13878CAB53BF2506710CB1546544B3A87EAE57296C5AD1BF9E32240B58B95A2D0CA8DB0A687EB51A149A37CB537C94E0153B0E9270BB2D25146B4696FD402D8CDE66AF7E231B25ECDE6EFD
310
04AEFBBA58BEA7E7B41019F4C5E0552330544712F154B7BB156396A5CBE5D731B4D99CD517A7A0650ABA1C4E69C4311873A9EA29B022B00A4BB340124C75F1FBE62BCFE10B4FE6E8A268B3C8B32C67F6E1128E63097C2172D677F0BD27D940D58055575D6C4E26FEC94677B36D833DDA22813D550EC140554528113AC60616
310
F9A23365FB9663A584CEF4D5D2B1E113BA00C6825E3477CDD72D07BC477D4751BEA23DBC92F3D586F6584F056BE0D08A0EFF05504B03041400060800009C423240000000000000000000000000350000006662782F45464335343831342D373933452D343430392D413245312D4342463743383336353033422F7665727469
310
6365732E62696E504B03041400060808009C423240F270F1330600000004000000360000006662782F45464335343831342D373933452D343430392D413245312D4342463743383336353033422F747269616E676C65732E62696E636660600000504B03041400060800009C42324000000000000000000000000037000000
310
6662782F45464335343831342D373933452D343430392D413245312D4342463743383336353033422F617474726962757465732E62696E504B03041400060808009C423240D5987DFC8F00000041010000360000006662782F45464335343831342D373933452D343430392D413245312D4342463743383336353033422F64
310
69726563746F72792E786D6C858F410EC2201045AF4266AF15DDB800BA74E7C21B903225242D6328188F2FA5C4183471359997F9FF81E89FF3C41E1816475E02DF1F80A11FC8386F25A438EECEC07A250251FC3803E6F58C12560C4AD840E95E91C151A72936F496F35732D860FE635F62C8F2DA16B505C545B74125BAA2FA
310
9E05D7CC053D063734D5C7665FD55B6B8D15D5E9BFEAFD8490FFA45E504B03041400060808009C423240462F235AFD000000A00100003B0000006662782F45464335343831342D373933452D343430392D413245312D4342463743383336353033422F7265736F75726365732F636F72652E786D6C8D504B6EC32010BD8A35
310
7B6CC06E422D4C5427B9412F80F0C4458921E253F5F8C5892BB5BB6E6646EFA3797AF2F0B5DCAA4F0CD17A3700AB2954E88C9FAC9B07C8E9420454072583F7E9970C2AA7171C608541C939F87CDF20E35D42970AEAFC841BA863C40495B9956380683E70D1B5CEA928E2B5BE6B73D533D6AC2E74D12919532801AAE7937582
310
0A187D0E06A36C9EAC9239DB69D3D8A9FCB4178B01D4389E8EACEDDE48DBF19674FC7C24E2F87A22E7519C3B71DAB5A3D8CB66352B99ECF293D104D40927509C324E28234CBC53D173DABFEC09DDF594CA6695FF31E5FBF44F53B62EB57C8BFBB44550AC0479104A366B5F653DCA2C7BED567D03504B010214000A00000800
310
009C4232403DEE336E79000000790000001B00000000000000000000000000000000006175746F6465736B2D64657369676E2D7061636B6167652E786D6C504B010214001400060808009C423240D486FD9CA0000000F40000001300000000000000000000000000B20000005B436F6E74656E745F54797065735D2E786D6C
310
504B010214001400060808009C4232402EC57E6BE90000007C010000080000000000000000000000000083010000636F72652E786D6C504B010214001400060808009C42324055019EA25F0000007C000000070000000000000000000000000092020000636E782E786D6C504B010214001400060808009C4232401A4B8594
310
66010000020300000C00000000000000000000000000160300006662782F636F72652E786D6C504B010214001400060808009C423240B9C304577E0000009D0000000B00000000000000000000000000A60400006662782F636E782E786D6C504B010214001400060808009C423240203F975D2C0100001402000031000000
310
000000000000000000004D0500006662782F45464335343831342D373933452D343430392D413245312D4342463743383336353033422F636F72652E786D6C504B010214001400060808009C423240DAC0DDDA54010000330300003000000000000000000000000000C80600006662782F45464335343831342D373933452D
310
343430392D413245312D4342463743383336353033422F636E782E786D6C504B010214001400060808009C4232402DD21E1857070000931B000034000000000000000000000000006A0800006662782F45464335343831342D373933452D343430392D413245312D4342463743383336353033422F6F626A656374732E786D
310
6C504B010214001400060800009C4232400000000000000000000000003500000000000000000000000000131000006662782F45464335343831342D373933452D343430392D413245312D4342463743383336353033422F76657274696365732E62696E504B010214001400060808009C423240F270F13306000000040000
310
003600000000000000000000000000661000006662782F45464335343831342D373933452D343430392D413245312D4342463743383336353033422F747269616E676C65732E62696E504B010214001400060800009C4232400000000000000000000000003700000000000000000000000000C01000006662782F45464335
310
343831342D373933452D343430392D413245312D4342463743383336353033422F617474726962757465732E62696E504B010214001400060808009C423240D5987DFC8F000000410100003600000000000000000000000000151100006662782F45464335343831342D373933452D343430392D413245312D434246374338
310
3336353033422F6469726563746F72792E786D6C504B010214001400060808009C423240462F235AFD000000A00100003B00000000000000000000000000F81100006662782F45464335343831342D373933452D343430392D413245312D4342463743383336353033422F7265736F75726365732F636F72652E786D6C504B
310
0506000000000E000E00800400004E1300000000
  0
XRECORD
  5
27
102
{ACAD_REACTORS
330
22
102
}
330
22
100
AcDbXrecord
280
     1
270
     1
271
     1
  0
XRECORD
  5
26
102
{ACAD_REACTORS
330
22
102
}
330
22
100
AcDbXrecord
280
     1
270
     1
271
     1
  0
XRECORD
  5
28
102
{ACAD_REACTORS
330
22
102
}
330
22
100
AcDbXrecord
280
     1
270
     1
271
     1
  0
XRECORD
  5
25
102
{ACAD_REACTORS
330
22
102
}
330
22
100
AcDbXrecord
280
     1
270
     1
271
     1
  0
XRECORD
  5
ECA
102
{ACAD_REACTORS
330
EC9
102
}
330
EC9
100
AcDbXrecord
280
     1
102
ACAD_ROUNDTRIP_2012_MLEADER_STYLE
298
     1
  0
CELLSTYLEMAP
  5
EC8
102
{ACAD_REACTORS
330
EC7
102
}
330
EC7
100
AcDbCellStyleMap
 90
        3
300
CELLSTYLE
  1
TABLEFORMAT_BEGIN
 90
        5
170
     1
 91
        0
 92
    32768
 62
   257
 93
        1
300
CONTENTFORMAT
  1
CONTENTFORMAT_BEGIN
 90
        0
 91
        0
 92
      512
 93
        0
300

 40
0.0
140
1.0
 94
        5
 62
     0
340
55
144
0.25
309
CONTENTFORMAT_END
171
     0
 94
        0
309
TABLEFORMAT_END
  1
CELLSTYLE_BEGIN
 90
        1
 91
        1
300
_TITLE
309
CELLSTYLE_END
300
CELLSTYLE
  1
TABLEFORMAT_BEGIN
 90
        5
170
     1
 91
        0
 92
        0
 62
   257
 93
        1
300
CONTENTFORMAT
  1
CONTENTFORMAT_BEGIN
 90
        0
 91
        0
 92
      512
 93
        0
300

 40
0.0
140
1.0
 94
        5
 62
     0
340
55
144
0.18
309
CONTENTFORMAT_END
171
     0
 94
        0
309
TABLEFORMAT_END
  1
CELLSTYLE_BEGIN
 90
        2
 91
        1
300
_HEADER
309
CELLSTYLE_END
300
CELLSTYLE
  1
TABLEFORMAT_BEGIN
 90
        5
170
     1
 91
        0
 92
        0
 62
   257
 93
        1
300
CONTENTFORMAT
  1
CONTENTFORMAT_BEGIN
 90
        0
 91
        0
 92
      512
 93
        0
300

 40
0.0
140
1.0
 94
        2
 62
     0
340
55
144
0.18
309
CONTENTFORMAT_END
171
     0
 94
        0
309
TABLEFORMAT_END
  1
CELLSTYLE_BEGIN
 90
        3
 91
        2
300
_DATA
309
CELLSTYLE_END
  0
XRECORD
  5
F02
102
{ACAD_REACTORS
330
EC7
102
}
330
EC7
100
AcDbXrecord
280
     1
102
ACAD_ROUNDTRIP_PRE2007_TABLESTYLE
 90
      512
 91
        0
  1

 92
      512
 93
        0
  2

 94
      512
 95
        0
  3

  0
XRECORD
  5
EDD
102
{ACAD_REACTORS
330
EDC
102
}
330
EDC
100
AcDbXrecord
280
     1
102
RTVSPropertyOp0
 70
     1
102
RTVSPropertyOp1
 70
     1
102
RTVSPropertyOp2
 70
     1
102
RTVSPropertyOp3
 70
     1
102
RTVSPropertyOp4
 70
     1
102
RTVSPropertyOp5
 70
     1
102
RTVSPropertyOp6
 70
     1
102
RTVSPropertyOp7
 70
     1
102
RTVSPropertyOp8
 70
     1
102
RTVSPropertyOp9
 70
     1
102
RTVSPropertyOp10
 70
     1
102
RTVSPropertyOp11
 70
     1
102
RTVSPropertyOp12
 70
     1
102
RTVSPropertyOp13
 70
     1
102
RTVSPropertyOp14
 70
     1
102
RTVSPropertyOp15
 70
     1
102
RTVSPropertyOp16
 70
     1
102
RTVSPropertyOp17
 70
     1
102
RTVSPropertyOp18
 70
     1
102
RTVSPropertyOp19
 70
     1
102
RTVSPropertyOp20
 70
     1
102
RTVSPropertyOp21
 70
     1
102
RTVSPropertyOp22
 70
     1
102
RTVSPropertyOp23
 70
     1
102
RTVSPropertyOp24
 70
     1
102
RTVSPropertyOp25
 70
     1
102
RTVSPropertyOp26
 70
     1
102
RTVSPropertyOp27
 70
     1
102
RTVSPropertyOp28
 70
     1
102
RTVSPropertyOp29
 70
     1
102
RTVSPropertyOp30
 70
     1
102
RTVSPropertyOp31
 70
     1
102
RTVSPropertyOp32
 70
     1
  0
XRECORD
  5
EDB
102
{ACAD_REACTORS
330
EDA
102
}
330
EDA
100
AcDbXrecord
280
     1
102
RTVSPropertyOp0
 70
     1
102
RTVSPropertyOp1
 70
     1
102
RTVSPropertyOp2
 70
     1
102
RTVSPropertyOp3
 70
     1
102
RTVSPropertyOp4
 70
     1
102
RTVSPropertyOp5
 70
     1
102
RTVSPropertyOp6
 70
     1
102
RTVSPropertyOp7
 70
     1
102
RTVSPropertyOp8
 70
     1
102
RTVSPropertyOp9
 70
     1
102
RTVSPropertyOp10
 70
     1
102
RTVSPropertyOp11
 70
     1
102
RTVSPropertyOp12
 70
     1
102
RTVSPropertyOp13
 70
     1
102
RTVSPropertyOp14
 70
     1
102
RTVSPropertyOp15
 70
     1
102
RTVSPropertyOp16
 70
     1
102
RTVSPropertyOp17
 70
     1
102
RTVSPropertyOp18
 70
     1
102
RTVSPropertyOp19
 70
     1
102
RTVSPropertyOp20
 70
     1
102
RTVSPropertyOp21
 70
     1
102
RTVSPropertyOp22
 70
     1
102
RTVSPropertyOp23
 70
     1
102
RTVSPropertyOp24
 70
     1
102
RTVSPropertyOp25
 70
     1
102
RTVSPropertyOp26
 70
     1
102
RTVSPropertyOp27
 70
     1
102
RTVSPropertyOp28
 70
     1
102
RTVSPropertyOp29
 70
     1
102
RTVSPropertyOp30
 70
     1
102
RTVSPropertyOp31
 70
     1
102
RTVSPropertyOp32
 70
     1
  0
XRECORD
  5
EE9
102
{ACAD_REACTORS
330
EE8
102
}
330
EE8
100
AcDbXrecord
280
     1
102
RTVSPropertyOp0
 70
     1
102
RTVSPropertyOp1
 70
     1
102
RTVSPropertyOp2
 70
     1
102
RTVSPropertyOp3
 70
     1
102
RTVSPropertyOp4
 70
     1
102
RTVSPropertyOp5
 70
     1
102
RTVSPropertyOp6
 70
     1
102
RTVSPropertyOp7
 70
     1
102
RTVSPropertyOp8
 70
     1
102
RTVSPropertyOp9
 70
     1
102
RTVSPropertyOp10
 70
     1
102
RTVSPropertyOp11
 70
     1
102
RTVSPropertyOp12
 70
     1
102
RTVSPropertyOp13
 70
     1
102
RTVSPropertyOp14
 70
     1
102
RTVSPropertyOp15
 70
     1
102
RTVSPropertyOp16
 70
     1
102
RTVSPropertyOp17
 70
     1
102
RTVSPropertyOp18
 70
     1
102
RTVSPropertyOp19
 70
     1
102
RTVSPropertyOp20
 70
     1
102
RTVSPropertyOp21
 70
     1
102
RTVSPropertyOp22
 70
     1
102
RTVSPropertyOp23
 70
     1
102
RTVSPropertyOp24
 70
     1
102
RTVSPropertyOp25
 70
     1
102
RTVSPropertyOp26
 70
     1
102
RTVSPropertyOp27
 70
     1
102
RTVSPropertyOp28
 70
     1
102
RTVSPropertyOp29
 70
     1
102
RTVSPropertyOp30
 70
     1
102
RTVSPropertyOp31
 70
     1
102
RTVSPropertyOp32
 70
     1
  0
XRECORD
  5
EF1
102
{ACAD_REACTORS
330
EF0
102
}
330
EF0
100
AcDbXrecord
280
     1
102
RTVSPropertyOp0
 70
     1
102
RTVSPropertyOp1
 70
     1
102
RTVSPropertyOp2
 70
     1
102
RTVSPropertyOp3
 70
     1
102
RTVSPropertyOp4
 70
     1
102
RTVSPropertyOp5
 70
     1
102
RTVSPropertyOp6
 70
     1
102
RTVSPropertyOp7
 70
     1
102
RTVSPropertyOp8
 70
     1
102
RTVSPropertyOp9
 70
     1
102
RTVSPropertyOp10
 70
     1
102
RTVSPropertyOp11
 70
     1
102
RTVSPropertyOp12
 70
     1
102
RTVSPropertyOp13
 70
     1
102
RTVSPropertyOp14
 70
     1
102
RTVSPropertyOp15
 70
     1
102
RTVSPropertyOp16
 70
     1
102
RTVSPropertyOp17
 70
     1
102
RTVSPropertyOp18
 70
     1
102
RTVSPropertyOp19
 70
     1
102
RTVSPropertyOp20
 70
     1
102
RTVSPropertyOp21
 70
     1
102
RTVSPropertyOp22
 70
     1
102
RTVSPropertyOp23
 70
     1
102
RTVSPropertyOp24
 70
     1
102
RTVSPropertyOp25
 70
     1
102
RTVSPropertyOp26
 70
     1
102
RTVSPropertyOp27
 70
     1
102
RTVSPropertyOp28
 70
     1
102
RTVSPropertyOp29
 70
     1
102
RTVSPropertyOp30
 70
     1
102
RTVSPropertyOp31
 70
     1
102
RTVSPropertyOp32
 70
     1
  0
XRECORD
  5
EE3
102
{ACAD_REACTORS
330
EE2
102
}
330
EE2
100
AcDbXrecord
280
     1
102
RTVSPropertyOp0
 70
     1
102
RTVSPropertyOp1
 70
     1
102
RTVSPropertyOp2
 70
     1
102
RTVSPropertyOp3
 70
     1
102
RTVSPropertyOp4
 70
     1
102
RTVSPropertyOp5
 70
     1
102
RTVSPropertyOp6
 70
     1
102
RTVSPropertyOp7
 70
     1
102
RTVSPropertyOp8
 70
     1
102
RTVSPropertyOp9
 70
     1
102
RTVSPropertyOp10
 70
     1
102
RTVSPropertyOp11
 70
     1
102
RTVSPropertyOp12
 70
     1
102
RTVSPropertyOp13
 70
     1
102
RTVSPropertyOp14
 70
     1
102
RTVSPropertyOp15
 70
     1
102
RTVSPropertyOp16
 70
     1
102
RTVSPropertyOp17
 70
     1
102
RTVSPropertyOp18
 70
     1
102
RTVSPropertyOp19
 70
     1
102
RTVSPropertyOp20
 70
     1
102
RTVSPropertyOp21
 70
     1
102
RTVSPropertyOp22
 70
     1
102
RTVSPropertyOp23
 70
     1
102
RTVSPropertyOp24
 70
     1
102
RTVSPropertyOp25
 70
     1
102
RTVSPropertyOp26
 70
     1
102
RTVSPropertyOp27
 70
     1
102
RTVSPropertyOp28
 70
     1
102
RTVSPropertyOp29
 70
     1
102
RTVSPropertyOp30
 70
     1
102
RTVSPropertyOp31
 70
     1
102
RTVSPropertyOp32
 70
     1
  0
XRECORD
  5
EE7
102
{ACAD_REACTORS
330
EE6
102
}
330
EE6
100
AcDbXrecord
280
     1
102
RTVSPropertyOp0
 70
     1
102
RTVSPropertyOp1
 70
     1
102
RTVSPropertyOp2
 70
     1
102
RTVSPropertyOp3
 70
     1
102
RTVSPropertyOp4
 70
     1
102
RTVSPropertyOp5
 70
     1
102
RTVSPropertyOp6
 70
     1
102
RTVSPropertyOp7
 70
     1
102
RTVSPropertyOp8
 70
     1
102
RTVSPropertyOp9
 70
     1
102
RTVSPropertyOp10
 70
     1
102
RTVSPropertyOp11
 70
     1
102
RTVSPropertyOp12
 70
     1
102
RTVSPropertyOp13
 70
     1
102
RTVSPropertyOp14
 70
     1
102
RTVSPropertyOp15
 70
     1
102
RTVSPropertyOp16
 70
     1
102
RTVSPropertyOp17
 70
     1
102
RTVSPropertyOp18
 70
     1
102
RTVSPropertyOp19
 70
     1
102
RTVSPropertyOp20
 70
     1
102
RTVSPropertyOp21
 70
     1
102
RTVSPropertyOp22
 70
     1
102
RTVSPropertyOp23
 70
     1
102
RTVSPropertyOp24
 70
     1
102
RTVSPropertyOp25
 70
     1
102
RTVSPropertyOp26
 70
     1
102
RTVSPropertyOp27
 70
     1
102
RTVSPropertyOp28
 70
     1
102
RTVSPropertyOp29
 70
     1
102
RTVSPropertyOp30
 70
     1
102
RTVSPropertyOp31
 70
     1
102
RTVSPropertyOp32
 70
     1
  0
XRECORD
  5
F01
102
{ACAD_REACTORS
330
F00
102
}
330
F00
100
AcDbXrecord
280
     1
102
RTVSPropertyOp0
 70
     0
102
RTVSPropertyOp1
 70
     0
102
RTVSPropertyOp2
 70
     0
102
RTVSPropertyOp3
 70
     0
102
RTVSPropertyOp4
 70
     0
102
RTVSPropertyOp5
 70
     0
102
RTVSPropertyOp6
 70
     0
102
RTVSPropertyOp7
 70
     0
102
RTVSPropertyOp8
 70
     0
102
RTVSPropertyOp9
 70
     0
102
RTVSPropertyOp10
 70
     0
102
RTVSPropertyOp11
 70
     0
102
RTVSPropertyOp12
 70
     0
102
RTVSPropertyOp13
 70
     0
102
RTVSPropertyOp14
 70
     2
102
RTVSPropertyOp15
 70
     0
102
RTVSPropertyOp16
 70
     0
102
RTVSPropertyOp17
 70
     0
102
RTVSPropertyOp18
 70
     0
102
RTVSPropertyOp19
 70
     0
102
RTVSPropertyOp20
 70
     0
102
RTVSPropertyOp21
 70
     0
102
RTVSPropertyOp22
 70
     0
102
RTVSPropertyOp23
 70
     0
102
RTVSPropertyOp24
 70
     0
102
RTVSPropertyOp25
 70
     0
102
RTVSPropertyOp26
 70
     0
102
RTVSPropertyOp27
 70
     0
102
RTVSPropertyOp28
 70
     1
102
RTVSPropertyOp29
 70
     1
102
RTVSPropertyOp30
 70
     1
102
RTVSPropertyOp31
 70
     1
102
RTVSPropertyOp32
 70
     1
  0
XRECORD
  5
EEF
102
{ACAD_REACTORS
330
EEE
102
}
330
EEE
100
AcDbXrecord
280
     1
102
RTVSPropertyOp0
 70
     1
102
RTVSPropertyOp1
 70
     1
102
RTVSPropertyOp2
 70
     1
102
RTVSPropertyOp3
 70
     1
102
RTVSPropertyOp4
 70
     1
102
RTVSPropertyOp5
 70
     1
102
RTVSPropertyOp6
 70
     1
102
RTVSPropertyOp7
 70
     1
102
RTVSPropertyOp8
 70
     1
102
RTVSPropertyOp9
 70
     1
102
RTVSPropertyOp10
 70
     1
102
RTVSPropertyOp11
 70
     1
102
RTVSPropertyOp12
 70
     1
102
RTVSPropertyOp13
 70
     1
102
RTVSPropertyOp14
 70
     1
102
RTVSPropertyOp15
 70
     1
102
RTVSPropertyOp16
 70
     1
102
RTVSPropertyOp17
 70
     1
102
RTVSPropertyOp18
 70
     1
102
RTVSPropertyOp19
 70
     1
102
RTVSPropertyOp20
 70
     1
102
RTVSPropertyOp21
 70
     1
102
RTVSPropertyOp22
 70
     1
102
RTVSPropertyOp23
 70
     1
102
RTVSPropertyOp24
 70
     1
102
RTVSPropertyOp25
 70
     1
102
RTVSPropertyOp26
 70
     1
102
RTVSPropertyOp27
 70
     1
102
RTVSPropertyOp28
 70
     1
102
RTVSPropertyOp29
 70
     1
102
RTVSPropertyOp30
 70
     1
102
RTVSPropertyOp31
 70
     1
102
RTVSPropertyOp32
 70
     1
  0
XRECORD
  5
ED3
102
{ACAD_REACTORS
330
ED2
102
}
330
ED2
100
AcDbXrecord
280
     1
102
RTVSPropertyOp0
 70
     1
102
RTVSPropertyOp1
 70
     1
102
RTVSPropertyOp2
 70
     1
102
RTVSPropertyOp3
 70
     1
102
RTVSPropertyOp4
 70
     1
102
RTVSPropertyOp5
 70
     1
102
RTVSPropertyOp6
 70
     1
102
RTVSPropertyOp7
 70
     1
102
RTVSPropertyOp8
 70
     1
102
RTVSPropertyOp9
 70
     1
102
RTVSPropertyOp10
 70
     1
102
RTVSPropertyOp11
 70
     1
102
RTVSPropertyOp12
 70
     1
102
RTVSPropertyOp13
 70
     1
102
RTVSPropertyOp14
 70
     1
102
RTVSPropertyOp15
 70
     1
102
RTVSPropertyOp16
 70
     1
102
RTVSPropertyOp17
 70
     1
102
RTVSPropertyOp18
 70
     1
102
RTVSPropertyOp19
 70
     1
102
RTVSPropertyOp20
 70
     1
102
RTVSPropertyOp21
 70
     1
102
RTVSPropertyOp22
 70
     1
102
RTVSPropertyOp23
 70
     1
102
RTVSPropertyOp24
 70
     1
102
RTVSPropertyOp25
 70
     1
102
RTVSPropertyOp26
 70
     1
102
RTVSPropertyOp27
 70
     1
102
RTVSPropertyOp28
 70
     1
102
RTVSPropertyOp29
 70
     1
102
RTVSPropertyOp30
 70
     1
102
RTVSPropertyOp31
 70
     1
102
RTVSPropertyOp32
 70
     1
  0
XRECORD
  5
ED5
102
{ACAD_REACTORS
330
ED4
102
}
330
ED4
100
AcDbXrecord
280
     1
102
RTVSPropertyOp0
 70
     1
102
RTVSPropertyOp1
 70
     1
102
RTVSPropertyOp2
 70
     1
102
RTVSPropertyOp3
 70
     1
102
RTVSPropertyOp4
 70
     1
102
RTVSPropertyOp5
 70
     1
102
RTVSPropertyOp6
 70
     1
102
RTVSPropertyOp7
 70
     1
102
RTVSPropertyOp8
 70
     1
102
RTVSPropertyOp9
 70
     1
102
RTVSPropertyOp10
 70
     1
102
RTVSPropertyOp11
 70
     1
102
RTVSPropertyOp12
 70
     1
102
RTVSPropertyOp13
 70
     1
102
RTVSPropertyOp14
 70
     1
102
RTVSPropertyOp15
 70
     1
102
RTVSPropertyOp16
 70
     1
102
RTVSPropertyOp17
 70
     1
102
RTVSPropertyOp18
 70
     1
102
RTVSPropertyOp19
 70
     1
102
RTVSPropertyOp20
 70
     1
102
RTVSPropertyOp21
 70
     1
102
RTVSPropertyOp22
 70
     1
102
RTVSPropertyOp23
 70
     1
102
RTVSPropertyOp24
 70
     1
102
RTVSPropertyOp25
 70
     1
102
RTVSPropertyOp26
 70
     1
102
RTVSPropertyOp27
 70
     1
102
RTVSPropertyOp28
 70
     1
102
RTVSPropertyOp29
 70
     1
102
RTVSPropertyOp30
 70
     1
102
RTVSPropertyOp31
 70
     1
102
RTVSPropertyOp32
 70
     1
  0
XRECORD
  5
ED7
102
{ACAD_REACTORS
330
ED6
102
}
330
ED6
100
AcDbXrecord
280
     1
102
RTVSPropertyOp0
 70
     1
102
RTVSPropertyOp1
 70
     1
102
RTVSPropertyOp2
 70
     1
102
RTVSPropertyOp3
 70
     1
102
RTVSPropertyOp4
 70
     1
102
RTVSPropertyOp5
 70
     1
102
RTVSPropertyOp6
 70
     1
102
RTVSPropertyOp7
 70
     1
102
RTVSPropertyOp8
 70
     1
102
RTVSPropertyOp9
 70
     1
102
RTVSPropertyOp10
 70
     1
102
RTVSPropertyOp11
 70
     1
102
RTVSPropertyOp12
 70
     1
102
RTVSPropertyOp13
 70
     1
102
RTVSPropertyOp14
 70
     1
102
RTVSPropertyOp15
 70
     1
102
RTVSPropertyOp16
 70
     1
102
RTVSPropertyOp17
 70
     1
102
RTVSPropertyOp18
 70
     1
102
RTVSPropertyOp19
 70
     1
102
RTVSPropertyOp20
 70
     1
102
RTVSPropertyOp21
 70
     1
102
RTVSPropertyOp22
 70
     1
102
RTVSPropertyOp23
 70
     1
102
RTVSPropertyOp24
 70
     1
102
RTVSPropertyOp25
 70
     1
102
RTVSPropertyOp26
 70
     1
102
RTVSPropertyOp27
 70
     1
102
RTVSPropertyOp28
 70
     1
102
RTVSPropertyOp29
 70
     1
102
RTVSPropertyOp30
 70
     1
102
RTVSPropertyOp31
 70
     1
102
RTVSPropertyOp32
 70
     1
  0
XRECORD
  5
ED9
102
{ACAD_REACTORS
330
ED8
102
}
330
ED8
100
AcDbXrecord
280
     1
102
RTVSPropertyOp0
 70
     1
102
RTVSPropertyOp1
 70
     1
102
RTVSPropertyOp2
 70
     1
102
RTVSPropertyOp3
 70
     1
102
RTVSPropertyOp4
 70
     1
102
RTVSPropertyOp5
 70
     1
102
RTVSPropertyOp6
 70
     1
102
RTVSPropertyOp7
 70
     1
102
RTVSPropertyOp8
 70
     1
102
RTVSPropertyOp9
 70
     1
102
RTVSPropertyOp10
 70
     1
102
RTVSPropertyOp11
 70
     1
102
RTVSPropertyOp12
 70
     1
102
RTVSPropertyOp13
 70
     1
102
RTVSPropertyOp14
 70
     1
102
RTVSPropertyOp15
 70
     1
102
RTVSPropertyOp16
 70
     1
102
RTVSPropertyOp17
 70
     1
102
RTVSPropertyOp18
 70
     1
102
RTVSPropertyOp19
 70
     1
102
RTVSPropertyOp20
 70
     1
102
RTVSPropertyOp21
 70
     1
102
RTVSPropertyOp22
 70
     1
102
RTVSPropertyOp23
 70
     1
102
RTVSPropertyOp24
 70
     1
102
RTVSPropertyOp25
 70
     1
102
RTVSPropertyOp26
 70
     1
102
RTVSPropertyOp27
 70
     1
102
RTVSPropertyOp28
 70
     1
102
RTVSPropertyOp29
 70
     1
102
RTVSPropertyOp30
 70
     1
102
RTVSPropertyOp31
 70
     1
102
RTVSPropertyOp32
 70
     1
  0
XRECORD
  5
EE1
102
{ACAD_REACTORS
330
EE0
102
}
330
EE0
100
AcDbXrecord
280
     1
102
RTVSPropertyOp0
 70
     1
102
RTVSPropertyOp1
 70
     1
102
RTVSPropertyOp2
 70
     1
102
RTVSPropertyOp3
 70
     1
102
RTVSPropertyOp4
 70
     1
102
RTVSPropertyOp5
 70
     1
102
RTVSPropertyOp6
 70
     1
102
RTVSPropertyOp7
 70
     1
102
RTVSPropertyOp8
 70
     1
102
RTVSPropertyOp9
 70
     1
102
RTVSPropertyOp10
 70
     1
102
RTVSPropertyOp11
 70
     1
102
RTVSPropertyOp12
 70
     1
102
RTVSPropertyOp13
 70
     1
102
RTVSPropertyOp14
 70
     1
102
RTVSPropertyOp15
 70
     1
102
RTVSPropertyOp16
 70
     1
102
RTVSPropertyOp17
 70
     1
102
RTVSPropertyOp18
 70
     1
102
RTVSPropertyOp19
 70
     1
102
RTVSPropertyOp20
 70
     1
102
RTVSPropertyOp21
 70
     1
102
RTVSPropertyOp22
 70
     1
102
RTVSPropertyOp23
 70
     1
102
RTVSPropertyOp24
 70
     1
102
RTVSPropertyOp25
 70
     1
102
RTVSPropertyOp26
 70
     1
102
RTVSPropertyOp27
 70
     1
102
RTVSPropertyOp28
 70
     1
102
RTVSPropertyOp29
 70
     1
102
RTVSPropertyOp30
 70
     1
102
RTVSPropertyOp31
 70
     1
102
RTVSPropertyOp32
 70
     1
  0
XRECORD
  5
EFD
102
{ACAD_REACTORS
330
EFC
102
}
330
EFC
100
AcDbXrecord
280
     1
102
RTVSPropertyOp0
 70
     0
102
RTVSPropertyOp1
 70
     0
102
RTVSPropertyOp2
 70
     0
102
RTVSPropertyOp3
 70
     0
102
RTVSPropertyOp4
 70
     0
102
RTVSPropertyOp5
 70
     0
102
RTVSPropertyOp6
 70
     0
102
RTVSPropertyOp7
 70
     0
102
RTVSPropertyOp8
 70
     0
102
RTVSPropertyOp9
 70
     0
102
RTVSPropertyOp10
 70
     0
102
RTVSPropertyOp11
 70
     0
102
RTVSPropertyOp12
 70
     0
102
RTVSPropertyOp13
 70
     0
102
RTVSPropertyOp14
 70
     2
102
RTVSPropertyOp15
 70
     0
102
RTVSPropertyOp16
 70
     0
102
RTVSPropertyOp17
 70
     0
102
RTVSPropertyOp18
 70
     0
102
RTVSPropertyOp19
 70
     0
102
RTVSPropertyOp20
 70
     0
102
RTVSPropertyOp21
 70
     0
102
RTVSPropertyOp22
 70
     0
102
RTVSPropertyOp23
 70
     0
102
RTVSPropertyOp24
 70
     0
102
RTVSPropertyOp25
 70
     0
102
RTVSPropertyOp26
 70
     0
102
RTVSPropertyOp27
 70
     0
102
RTVSPropertyOp28
 70
     1
102
RTVSPropertyOp29
 70
     1
102
RTVSPropertyOp30
 70
     1
102
RTVSPropertyOp31
 70
     1
102
RTVSPropertyOp32
 70
     1
  0
XRECORD
  5
EED
102
{ACAD_REACTORS
330
EEC
102
}
330
EEC
100
AcDbXrecord
280
     1
102
RTVSPropertyOp0
 70
     1
102
RTVSPropertyOp1
 70
     1
102
RTVSPropertyOp2
 70
     1
102
RTVSPropertyOp3
 70
     1
102
RTVSPropertyOp4
 70
     1
102
RTVSPropertyOp5
 70
     1
102
RTVSPropertyOp6
 70
     1
102
RTVSPropertyOp7
 70
     1
102
RTVSPropertyOp8
 70
     1
102
RTVSPropertyOp9
 70
     1
102
RTVSPropertyOp10
 70
     1
102
RTVSPropertyOp11
 70
     1
102
RTVSPropertyOp12
 70
     1
102
RTVSPropertyOp13
 70
     1
102
RTVSPropertyOp14
 70
     1
102
RTVSPropertyOp15
 70
     1
102
RTVSPropertyOp16
 70
     1
102
RTVSPropertyOp17
 70
     1
102
RTVSPropertyOp18
 70
     1
102
RTVSPropertyOp19
 70
     1
102
RTVSPropertyOp20
 70
     1
102
RTVSPropertyOp21
 70
     1
102
RTVSPropertyOp22
 70
     1
102
RTVSPropertyOp23
 70
     1
102
RTVSPropertyOp24
 70
     1
102
RTVSPropertyOp25
 70
     1
102
RTVSPropertyOp26
 70
     1
102
RTVSPropertyOp27
 70
     1
102
RTVSPropertyOp28
 70
     1
102
RTVSPropertyOp29
 70
     1
102
RTVSPropertyOp30
 70
     1
102
RTVSPropertyOp31
 70
     1
102
RTVSPropertyOp32
 70
     1
  0
XRECORD
  5
EFF
102
{ACAD_REACTORS
330
EFE
102
}
330
EFE
100
AcDbXrecord
280
     1
102
RTVSPropertyOp0
 70
     0
102
RTVSPropertyOp1
 70
     0
102
RTVSPropertyOp2
 70
     0
102
RTVSPropertyOp3
 70
     0
102
RTVSPropertyOp4
 70
     0
102
RTVSPropertyOp5
 70
     0
102
RTVSPropertyOp6
 70
     0
102
RTVSPropertyOp7
 70
     0
102
RTVSPropertyOp8
 70
     0
102
RTVSPropertyOp9
 70
     0
102
RTVSPropertyOp10
 70
     0
102
RTVSPropertyOp11
 70
     0
102
RTVSPropertyOp12
 70
     0
102
RTVSPropertyOp13
 70
     0
102
RTVSPropertyOp14
 70
     2
102
RTVSPropertyOp15
 70
     0
102
RTVSPropertyOp16
 70
     0
102
RTVSPropertyOp17
 70
     0
102
RTVSPropertyOp18
 70
     0
102
RTVSPropertyOp19
 70
     0
102
RTVSPropertyOp20
 70
     0
102
RTVSPropertyOp21
 70
     0
102
RTVSPropertyOp22
 70
     0
102
RTVSPropertyOp23
 70
     0
102
RTVSPropertyOp24
 70
     0
102
RTVSPropertyOp25
 70
     0
102
RTVSPropertyOp26
 70
     0
102
RTVSPropertyOp27
 70
     0
102
RTVSPropertyOp28
 70
     1
102
RTVSPropertyOp29
 70
     1
102
RTVSPropertyOp30
 70
     1
102
RTVSPropertyOp31
 70
     1
102
RTVSPropertyOp32
 70
     1
  0
XRECORD
  5
EE5
102
{ACAD_REACTORS
330
EE4
102
}
330
EE4
100
AcDbXrecord
280
     1
102
RTVSPropertyOp0
 70
     1
102
RTVSPropertyOp1
 70
     1
102
RTVSPropertyOp2
 70
     1
102
RTVSPropertyOp3
 70
     1
102
RTVSPropertyOp4
 70
     1
102
RTVSPropertyOp5
 70
     1
102
RTVSPropertyOp6
 70
     1
102
RTVSPropertyOp7
 70
     1
102
RTVSPropertyOp8
 70
     1
102
RTVSPropertyOp9
 70
     1
102
RTVSPropertyOp10
 70
     1
102
RTVSPropertyOp11
 70
     1
102
RTVSPropertyOp12
 70
     1
102
RTVSPropertyOp13
 70
     1
102
RTVSPropertyOp14
 70
     1
102
RTVSPropertyOp15
 70
     1
102
RTVSPropertyOp16
 70
     1
102
RTVSPropertyOp17
 70
     1
102
RTVSPropertyOp18
 70
     1
102
RTVSPropertyOp19
 70
     1
102
RTVSPropertyOp20
 70
     1
102
RTVSPropertyOp21
 70
     1
102
RTVSPropertyOp22
 70
     1
102
RTVSPropertyOp23
 70
     1
102
RTVSPropertyOp24
 70
     1
102
RTVSPropertyOp25
 70
     1
102
RTVSPropertyOp26
 70
     1
102
RTVSPropertyOp27
 70
     1
102
RTVSPropertyOp28
 70
     1
102
RTVSPropertyOp29
 70
     1
102
RTVSPropertyOp30
 70
     1
102
RTVSPropertyOp31
 70
     1
102
RTVSPropertyOp32
 70
     1
  0
XRECORD
  5
EFB
102
{ACAD_REACTORS
330
EFA
102
}
330
EFA
100
AcDbXrecord
280
     1
102
RTVSPropertyOp0
 70
     1
102
RTVSPropertyOp1
 70
     1
102
RTVSPropertyOp2
 70
     1
102
RTVSPropertyOp3
 70
     1
102
RTVSPropertyOp4
 70
     1
102
RTVSPropertyOp5
 70
     1
102
RTVSPropertyOp6
 70
     1
102
RTVSPropertyOp7
 70
     1
102
RTVSPropertyOp8
 70
     1
102
RTVSPropertyOp9
 70
     1
102
RTVSPropertyOp10
 70
     1
102
RTVSPropertyOp11
 70
     1
102
RTVSPropertyOp12
 70
     1
102
RTVSPropertyOp13
 70
     1
102
RTVSPropertyOp14
 70
     1
102
RTVSPropertyOp15
 70
     1
102
RTVSPropertyOp16
 70
     1
102
RTVSPropertyOp17
 70
     1
102
RTVSPropertyOp18
 70
     1
102
RTVSPropertyOp19
 70
     1
102
RTVSPropertyOp20
 70
     1
102
RTVSPropertyOp21
 70
     1
102
RTVSPropertyOp22
 70
     1
102
RTVSPropertyOp23
 70
     1
102
RTVSPropertyOp24
 70
     1
102
RTVSPropertyOp25
 70
     1
102
RTVSPropertyOp26
 70
     1
102
RTVSPropertyOp27
 70
     1
102
RTVSPropertyOp28
 70
     1
102
RTVSPropertyOp29
 70
     1
102
RTVSPropertyOp30
 70
     1
102
RTVSPropertyOp31
 70
     1
102
RTVSPropertyOp32
 70
     1
  0
XRECORD
  5
EF9
102
{ACAD_REACTORS
330
EF8
102
}
330
EF8
100
AcDbXrecord
280
     1
102
RTVSPropertyOp0
 70
     1
102
RTVSPropertyOp1
 70
     1
102
RTVSPropertyOp2
 70
     1
102
RTVSPropertyOp3
 70
     1
102
RTVSPropertyOp4
 70
     1
102
RTVSPropertyOp5
 70
     1
102
RTVSPropertyOp6
 70
     1
102
RTVSPropertyOp7
 70
     1
102
RTVSPropertyOp8
 70
     1
102
RTVSPropertyOp9
 70
     1
102
RTVSPropertyOp10
 70
     1
102
RTVSPropertyOp11
 70
     1
102
RTVSPropertyOp12
 70
     1
102
RTVSPropertyOp13
 70
     1
102
RTVSPropertyOp14
 70
     1
102
RTVSPropertyOp15
 70
     1
102
RTVSPropertyOp16
 70
     1
102
RTVSPropertyOp17
 70
     1
102
RTVSPropertyOp18
 70
     1
102
RTVSPropertyOp19
 70
     1
102
RTVSPropertyOp20
 70
     1
102
RTVSPropertyOp21
 70
     1
102
RTVSPropertyOp22
 70
     1
102
RTVSPropertyOp23
 70
     1
102
RTVSPropertyOp24
 70
     1
102
RTVSPropertyOp25
 70
     1
102
RTVSPropertyOp26
 70
     1
102
RTVSPropertyOp27
 70
     1
102
RTVSPropertyOp28
 70
     1
102
RTVSPropertyOp29
 70
     1
102
RTVSPropertyOp30
 70
     1
102
RTVSPropertyOp31
 70
     1
102
RTVSPropertyOp32
 70
     1
  0
XRECORD
  5
EF3
102
{ACAD_REACTORS
330
EF2
102
}
330
EF2
100
AcDbXrecord
280
     1
102
RTVSPropertyOp0
 70
     1
102
RTVSPropertyOp1
 70
     1
102
RTVSPropertyOp2
 70
     1
102
RTVSPropertyOp3
 70
     1
102
RTVSPropertyOp4
 70
     1
102
RTVSPropertyOp5
 70
     1
102
RTVSPropertyOp6
 70
     1
102
RTVSPropertyOp7
 70
     1
102
RTVSPropertyOp8
 70
     1
102
RTVSPropertyOp9
 70
     1
102
RTVSPropertyOp10
 70
     1
102
RTVSPropertyOp11
 70
     1
102
RTVSPropertyOp12
 70
     1
102
RTVSPropertyOp13
 70
     1
102
RTVSPropertyOp14
 70
     1
102
RTVSPropertyOp15
 70
     1
102
RTVSPropertyOp16
 70
     1
102
RTVSPropertyOp17
 70
     1
102
RTVSPropertyOp18
 70
     1
102
RTVSPropertyOp19
 70
     1
102
RTVSPropertyOp20
 70
     1
102
RTVSPropertyOp21
 70
     1
102
RTVSPropertyOp22
 70
     1
102
RTVSPropertyOp23
 70
     1
102
RTVSPropertyOp24
 70
     1
102
RTVSPropertyOp25
 70
     1
102
RTVSPropertyOp26
 70
     1
102
RTVSPropertyOp27
 70
     1
102
RTVSPropertyOp28
 70
     1
102
RTVSPropertyOp29
 70
     1
102
RTVSPropertyOp30
 70
     1
102
RTVSPropertyOp31
 70
     1
102
RTVSPropertyOp32
 70
     1
  0
XRECORD
  5
EF5
102
{ACAD_REACTORS
330
EF4
102
}
330
EF4
100
AcDbXrecord
280
     1
102
RTVSPropertyOp0
 70
     1
102
RTVSPropertyOp1
 70
     1
102
RTVSPropertyOp2
 70
     1
102
RTVSPropertyOp3
 70
     1
102
RTVSPropertyOp4
 70
     1
102
RTVSPropertyOp5
 70
     1
102
RTVSPropertyOp6
 70
     1
102
RTVSPropertyOp7
 70
     1
102
RTVSPropertyOp8
 70
     1
102
RTVSPropertyOp9
 70
     1
102
RTVSPropertyOp10
 70
     1
102
RTVSPropertyOp11
 70
     1
102
RTVSPropertyOp12
 70
     1
102
RTVSPropertyOp13
 70
     1
102
RTVSPropertyOp14
 70
     1
102
RTVSPropertyOp15
 70
     1
102
RTVSPropertyOp16
 70
     1
102
RTVSPropertyOp17
 70
     1
102
RTVSPropertyOp18
 70
     1
102
RTVSPropertyOp19
 70
     1
102
RTVSPropertyOp20
 70
     1
102
RTVSPropertyOp21
 70
     1
102
RTVSPropertyOp22
 70
     1
102
RTVSPropertyOp23
 70
     1
102
RTVSPropertyOp24
 70
     1
102
RTVSPropertyOp25
 70
     1
102
RTVSPropertyOp26
 70
     1
102
RTVSPropertyOp27
 70
     1
102
RTVSPropertyOp28
 70
     1
102
RTVSPropertyOp29
 70
     1
102
RTVSPropertyOp30
 70
     1
102
RTVSPropertyOp31
 70
     1
102
RTVSPropertyOp32
 70
     1
  0
XRECORD
  5
EEB
102
{ACAD_REACTORS
330
EEA
102
}
330
EEA
100
AcDbXrecord
280
     1
102
RTVSPropertyOp0
 70
     1
102
RTVSPropertyOp1
 70
     1
102
RTVSPropertyOp2
 70
     1
102
RTVSPropertyOp3
 70
     1
102
RTVSPropertyOp4
 70
     1
102
RTVSPropertyOp5
 70
     1
102
RTVSPropertyOp6
 70
     1
102
RTVSPropertyOp7
 70
     1
102
RTVSPropertyOp8
 70
     1
102
RTVSPropertyOp9
 70
     1
102
RTVSPropertyOp10
 70
     1
102
RTVSPropertyOp11
 70
     1
102
RTVSPropertyOp12
 70
     1
102
RTVSPropertyOp13
 70
     1
102
RTVSPropertyOp14
 70
     1
102
RTVSPropertyOp15
 70
     1
102
RTVSPropertyOp16
 70
     1
102
RTVSPropertyOp17
 70
     1
102
RTVSPropertyOp18
 70
     1
102
RTVSPropertyOp19
 70
     1
102
RTVSPropertyOp20
 70
     1
102
RTVSPropertyOp21
 70
     1
102
RTVSPropertyOp22
 70
     1
102
RTVSPropertyOp23
 70
     1
102
RTVSPropertyOp24
 70
     1
102
RTVSPropertyOp25
 70
     1
102
RTVSPropertyOp26
 70
     1
102
RTVSPropertyOp27
 70
     1
102
RTVSPropertyOp28
 70
     1
102
RTVSPropertyOp29
 70
     1
102
RTVSPropertyOp30
 70
     1
102
RTVSPropertyOp31
 70
     1
102
RTVSPropertyOp32
 70
     1
  0
XRECORD
  5
EDF
102
{ACAD_REACTORS
330
EDE
102
}
330
EDE
100
AcDbXrecord
280
     1
102
RTVSPropertyOp0
 70
     1
102
RTVSPropertyOp1
 70
     1
102
RTVSPropertyOp2
 70
     1
102
RTVSPropertyOp3
 70
     1
102
RTVSPropertyOp4
 70
     1
102
RTVSPropertyOp5
 70
     1
102
RTVSPropertyOp6
 70
     1
102
RTVSPropertyOp7
 70
     1
102
RTVSPropertyOp8
 70
     1
102
RTVSPropertyOp9
 70
     1
102
RTVSPropertyOp10
 70
     1
102
RTVSPropertyOp11
 70
     1
102
RTVSPropertyOp12
 70
     1
102
RTVSPropertyOp13
 70
     1
102
RTVSPropertyOp14
 70
     1
102
RTVSPropertyOp15
 70
     1
102
RTVSPropertyOp16
 70
     1
102
RTVSPropertyOp17
 70
     1
102
RTVSPropertyOp18
 70
     1
102
RTVSPropertyOp19
 70
     1
102
RTVSPropertyOp20
 70
     1
102
RTVSPropertyOp21
 70
     1
102
RTVSPropertyOp22
 70
     1
102
RTVSPropertyOp23
 70
     1
102
RTVSPropertyOp24
 70
     1
102
RTVSPropertyOp25
 70
     1
102
RTVSPropertyOp26
 70
     1
102
RTVSPropertyOp27
 70
     1
102
RTVSPropertyOp28
 70
     1
102
RTVSPropertyOp29
 70
     1
102
RTVSPropertyOp30
 70
     1
102
RTVSPropertyOp31
 70
     1
102
RTVSPropertyOp32
 70
     1
  0
XRECORD
  5
EF7
102
{ACAD_REACTORS
330
EF6
102
}
330
EF6
100
AcDbXrecord
280
     1
102
RTVSPropertyOp0
 70
     1
102
RTVSPropertyOp1
 70
     1
102
RTVSPropertyOp2
 70
     1
102
RTVSPropertyOp3
 70
     1
102
RTVSPropertyOp4
 70
     1
102
RTVSPropertyOp5
 70
     1
102
RTVSPropertyOp6
 70
     1
102
RTVSPropertyOp7
 70
     1
102
RTVSPropertyOp8
 70
     1
102
RTVSPropertyOp9
 70
     1
102
RTVSPropertyOp10
 70
     1
102
RTVSPropertyOp11
 70
     1
102
RTVSPropertyOp12
 70
     1
102
RTVSPropertyOp13
 70
     1
102
RTVSPropertyOp14
 70
     1
102
RTVSPropertyOp15
 70
     1
102
RTVSPropertyOp16
 70
     1
102
RTVSPropertyOp17
 70
     1
102
RTVSPropertyOp18
 70
     1
102
RTVSPropertyOp19
 70
     1
102
RTVSPropertyOp20
 70
     1
102
RTVSPropertyOp21
 70
     1
102
RTVSPropertyOp22
 70
     1
102
RTVSPropertyOp23
 70
     1
102
RTVSPropertyOp24
 70
     1
102
RTVSPropertyOp25
 70
     1
102
RTVSPropertyOp26
 70
     1
102
RTVSPropertyOp27
 70
     1
102
RTVSPropertyOp28
 70
     1
102
RTVSPropertyOp29
 70
     1
102
RTVSPropertyOp30
 70
     1
102
RTVSPropertyOp31
 70
     1
102
RTVSPropertyOp32
 70
     1
  0
ENDSEC
  0
EOF
