  0
SECTION
  2
HEADER
  9
$ACADVER
  1
AC1015
  9
$ACADMAINTVER
 70
    18
  9
$DWGCODEPAGE
  3
ANSI_1252
  9
$INSBASE
 10
0.0
 20
0.0
 30
0.0
  9
$EXTMIN
 10
0.0
 20
0.0
 30
0.0
  9
$EXTMAX
 10
100.0
 20
64.70588235294117
 30
0.0
  9
$LIMMIN
 10
0.0
 20
0.0
  9
$LIMMAX
 10
100.0
 20
64.70588235294117
  9
$ORTHOMODE
 70
     0
  9
$REGENMODE
 70
     1
  9
$FILLMODE
 70
     1
  9
$QTEXTMODE
 70
     0
  9
$MIRRTEXT
 70
     0
  9
$LTSCALE
 40
5.88235294117647
  9
$ATTMODE
 70
     1
  9
$TEXTSIZE
 40
0.2
  9
$TRACEWID
 40
0.05
  9
$TEXTSTYLE
  7
Standard
  9
$CLAYER
  8
0
  9
$CELTYPE
  6
ByLayer
  9
$CECOLOR
 62
   256
  9
$CELTSCALE
 40
1.0
  9
$DISPSILH
 70
     0
  9
$DIMSCALE
 40
1.0
  9
$DIMASZ
 40
0.0708661417322835
  9
$DIMEXO
 40
0.0625
  9
$DIMDLI
 40
0.38
  9
$DIMRND
 40
0.0
  9
$DIMDLE
 40
0.0
  9
$DIMEXE
 40
0.18
  9
$DIMTP
 40
0.0
  9
$DIMTM
 40
0.0
  9
$DIMTXT
 40
0.0708661417322835
  9
$DIMCEN
 40
0.09
  9
$DIMTSZ
 40
0.0
  9
$DIMTOL
 70
     0
  9
$DIMLIM
 70
     0
  9
$DIMTIH
 70
     1
  9
$DIMTOH
 70
     1
  9
$DIMSE1
 70
     0
  9
$DIMSE2
 70
     0
  9
$DIMTAD
 70
     0
  9
$DIMZIN
 70
     0
  9
$DIMBLK
  1

  9
$DIMASO
 70
     1
  9
$DIMSHO
 70
     1
  9
$DIMPOST
  1

  9
$DIMAPOST
  1

  9
$DIMALT
 70
     0
  9
$DIMALTD
 70
     2
  9
$DIMALTF
 40
25.4
  9
$DIMLFAC
 40
1.0
  9
$DIMTOFL
 70
     0
  9
$DIMTVP
 40
0.0
  9
$DIMTIX
 70
     0
  9
$DIMSOXD
 70
     0
  9
$DIMSAH
 70
     0
  9
$DIMBLK1
  1

  9
$DIMBLK2
  1

  9
$DIMSTYLE
  2
STANDARD
  9
$DIMCLRD
 70
     0
  9
$DIMCLRE
 70
     0
  9
$DIMCLRT
 70
     0
  9
$DIMTFAC
 40
1.0
  9
$DIMGAP
 40
0.09
  9
$DIMJUST
 70
     0
  9
$DIMSD1
 70
     0
  9
$DIMSD2
 70
     0
  9
$DIMTOLJ
 70
     1
  9
$DIMTZIN
 70
     0
  9
$DIMALTZ
 70
     0
  9
$DIMALTTZ
 70
     0
  9
$DIMUPT
 70
     0
  9
$DIMDEC
 70
     4
  9
$DIMTDEC
 70
     4
  9
$DIMALTU
 70
     2
  9
$DIMALTTD
 70
     2
  9
$DIMTXSTY
  7
Standard
  9
$DIMAUNIT
 70
     0
  9
$DIMADEC
 70
     0
  9
$DIMALTRND
 40
0.0
  9
$DIMAZIN
 70
     0
  9
$DIMDSEP
 70
    46
  9
$DIMATFIT
 70
     3
  9
$DIMFRAC
 70
     0
  9
$DIMLDRBLK
  1

  9
$DIMLUNIT
 70
     2
  9
$DIMLWD
 70
    -2
  9
$DIMLWE
 70
    -2
  9
$DIMTMOVE
 70
     0
  9
$LUNITS
 70
     2
  9
$LUPREC
 70
     4
  9
$SKETCHINC
 40
0.1
  9
$FILLETRAD
 40
0.0
  9
$AUNITS
 70
     0
  9
$AUPREC
 70
     0
  9
$MENU
  1
.
  9
$ELEVATION
 40
0.0
  9
$PELEVATION
 40
0.0
  9
$THICKNESS
 40
0.0
  9
$LIMCHECK
 70
     0
  9
$CHAMFERA
 40
0.0
  9
$CHAMFERB
 40
0.0
  9
$CHAMFERC
 40
0.0
  9
$CHAMFERD
 40
0.0
  9
$SKPOLY
 70
     0
  9
$TDCREATE
 40
2455944.528366447
  9
$TDUCREATE
 40
2455944.778366447
  9
$TDUPDATE
 40
2455944.528366632
  9
$TDUUPDATE
 40
2455944.778366632
  9
$TDINDWG
 40
0.0000383449
  9
$TDUSRTIMER
 40
0.0000383449
  9
$USRTIMER
 70
     1
  9
$ANGBASE
 50
0.0
  9
$ANGDIR
 70
     0
  9
$PDMODE
 70
     0
  9
$PDSIZE
 40
0.0
  9
$PLINEWID
 40
0.0
  9
$SPLFRAME
 70
     0
  9
$SPLINETYPE
 70
     6
  9
$SPLINESEGS
 70
     8
  9
$HANDSEED
  5
F5F
  9
$SURFTAB1
 70
     6
  9
$SURFTAB2
 70
     6
  9
$SURFTYPE
 70
     6
  9
$SURFU
 70
     6
  9
$SURFV
 70
     6
  9
$UCSBASE
  2

  9
$UCSNAME
  2

  9
$UCSORG
 10
0.0
 20
0.0
 30
0.0
  9
$UCSXDIR
 10
1.0
 20
0.0
 30
0.0
  9
$UCSYDIR
 10
0.0
 20
1.0
 30
0.0
  9
$UCSORTHOREF
  2

  9
$UCSORTHOVIEW
 70
     0
  9
$UCSORGTOP
 10
0.0
 20
0.0
 30
0.0
  9
$UCSORGBOTTOM
 10
0.0
 20
0.0
 30
0.0
  9
$UCSORGLEFT
 10
0.0
 20
0.0
 30
0.0
  9
$UCSORGRIGHT
 10
0.0
 20
0.0
 30
0.0
  9
$UCSORGFRONT
 10
0.0
 20
0.0
 30
0.0
  9
$UCSORGBACK
 10
0.0
 20
0.0
 30
0.0
  9
$PUCSBASE
  2

  9
$PUCSNAME
  2

  9
$PUCSORG
 10
0.0
 20
0.0
 30
0.0
  9
$PUCSXDIR
 10
1.0
 20
0.0
 30
0.0
  9
$PUCSYDIR
 10
0.0
 20
1.0
 30
0.0
  9
$PUCSORTHOREF
  2

  9
$PUCSORTHOVIEW
 70
     0
  9
$PUCSORGTOP
 10
0.0
 20
0.0
 30
0.0
  9
$PUCSORGBOTTOM
 10
0.0
 20
0.0
 30
0.0
  9
$PUCSORGLEFT
 10
0.0
 20
0.0
 30
0.0
  9
$PUCSORGRIGHT
 10
0.0
 20
0.0
 30
0.0
  9
$PUCSORGFRONT
 10
0.0
 20
0.0
 30
0.0
  9
$PUCSORGBACK
 10
0.0
 20
0.0
 30
0.0
  9
$USERI1
 70
     0
  9
$USERI2
 70
     0
  9
$USERI3
 70
     0
  9
$USERI4
 70
     0
  9
$USERI5
 70
     0
  9
$USERR1
 40
0.0
  9
$USERR2
 40
0.0
  9
$USERR3
 40
0.0
  9
$USERR4
 40
0.0
  9
$USERR5
 40
0.0
  9
$WORLDVIEW
 70
     1
  9
$SHADEDGE
 70
     3
  9
$SHADEDIF
 70
    70
  9
$TILEMODE
 70
     1
  9
$MAXACTVP
 70
    64
  9
$PINSBASE
 10
0.0
 20
0.0
 30
0.0
  9
$PLIMCHECK
 70
     0
  9
$PEXTMIN
 10
0.0
 20
0.0
 30
0.0
  9
$PEXTMAX
 10
100.0
 20
64.70588235294117
 30
0.0
  9
$PLIMMIN
 10
0.0
 20
0.0
  9
$PLIMMAX
 10
100.0
 20
64.70588235294117
  9
$UNITMODE
 70
     0
  9
$VISRETAIN
 70
     1
  9
$PLINEGEN
 70
     0
  9
$PSLTSCALE
 70
     1
  9
$TREEDEPTH
 70
  3020
  9
$CMLSTYLE
  2
Standard
  9
$CMLJUST
 70
     0
  9
$CMLSCALE
 40
1.0
  9
$PROXYGRAPHICS
 70
     1
  9
$MEASUREMENT
 70
     0
  9
$CELWEIGHT
370
    -1
  9
$ENDCAPS
280
     0
  9
$JOINSTYLE
280
     0
  9
$LWDISPLAY
290
     0
  9
$INSUNITS
 70
     1
  9
$HYPERLINKBASE
  1

  9
$STYLESHEET
  1

  9
$XEDIT
290
     1
  9
$CEPSNTYPE
380
     0
  9
$PSTYLEMODE
290
     1
  9
$FINGERPRINTGUID
  2
{1ABB441F-D151-47BD-9DDD-54D5D0B3C63B}
  9
$VERSIONGUID
  2
{A4FD97AF-F030-4B53-BA3D-1CC299485141}
  9
$EXTNAMES
290
     1
  9
$PSVPSCALE
 40
0.0
  9
$OLESTARTUP
290
     0
  0
ENDSEC
  0
SECTION
  2
CLASSES
  0
CLASS
  1
ACDBDICTIONARYWDFLT
  2
AcDbDictionaryWithDefault
  3
ObjectDBX Classes
 90
        0
280
     0
281
     0
  0
CLASS
  1
MATERIAL
  2
AcDbMaterial
  3
ObjectDBX Classes
 90
     1153
280
     0
281
     0
  0
CLASS
  1
VISUALSTYLE
  2
AcDbVisualStyle
  3
ObjectDBX Classes
 90
     4095
280
     0
281
     0
  0
CLASS
  1
SCALE
  2
AcDbScale
  3
ObjectDBX Classes
 90
     1153
280
     0
281
     0
  0
CLASS
  1
TABLESTYLE
  2
AcDbTableStyle
  3
ObjectDBX Classes
 90
     4095
280
     0
281
     0
  0
CLASS
  1
MLEADERSTYLE
  2
AcDbMLeaderStyle
  3
ACDB_MLEADERSTYLE_CLASS
 90
     4095
280
     0
281
     0
  0
CLASS
  1
DICTIONARYVAR
  2
AcDbDictionaryVar
  3
ObjectDBX Classes
 90
        0
280
     0
281
     0
  0
CLASS
  1
CELLSTYLEMAP
  2
AcDbCellStyleMap
  3
ObjectDBX Classes
 90
     1152
280
     0
281
     0
  0
CLASS
  1
ACDBPLACEHOLDER
  2
AcDbPlaceHolder
  3
ObjectDBX Classes
 90
        0
280
     0
281
     0
  0
CLASS
  1
LAYOUT
  2
AcDbLayout
  3
ObjectDBX Classes
 90
        0
280
     0
281
     0
  0
ENDSEC
  0
SECTION
  2
TABLES
  0
TABLE
  2
VPORT
  5
8
330
0
100
AcDbSymbolTable
 70
     1
  0
VPORT
  5
57
330
8
100
AcDbSymbolTableRecord
100
AcDbViewportTableRecord
  2
*Active
 70
     0
 10
0.0
 20
0.0
 11
1.0
 21
1.0
 12
50.0
 22
32.35294117647059
 13
0.0
 23
0.0
 14
1.0
 24
1.0
 15
0.0
 25
0.0
 16
0.0
 26
0.0
 36
1.0
 17
0.0
 27
0.0
 37
0.0
 40
64.70588235294117
 41
1.545454545454545
 42
50.0
 43
0.0
 44
0.0
 50
0.0
 51
0.0
 71
     0
 72
   100
 73
     1
 74
     1
 75
     0
 76
     0
 77
     0
 78
     0
281
     0
 65
     1
110
0.0
120
0.0
130
0.0
111
1.0
121
0.0
131
0.0
112
0.0
122
1.0
132
0.0
 79
     0
146
0.0
  0
ENDTAB
  0
TABLE
  2
LTYPE
  5
5
330
0
100
AcDbSymbolTable
 70
    59
  0
LTYPE
  5
5B
330
5
100
AcDbSymbolTableRecord
100
AcDbLinetypeTableRecord
  2
ByBlock
 70
     0
  3

 72
    65
 73
     0
 40
0.0
  0
LTYPE
  5
5C
330
5
100
AcDbSymbolTableRecord
100
AcDbLinetypeTableRecord
  2
ByLayer
 70
     0
  3

 72
    65
 73
     0
 40
0.0
  0
LTYPE
  5
5D
330
5
100
AcDbSymbolTableRecord
100
AcDbLinetypeTableRecord
  2
Continuous
 70
     0
  3
Solid line
 72
    65
 73
     0
 40
0.0
  0
LTYPE
  5
DE
330
5
100
AcDbSymbolTableRecord
100
AcDbLinetypeTableRecord
  2
BY_STANDARD
 70
     0
  3
By Standard ____________    ____    ____   _
 72
    65
 73
     6
 40
1.240299999999999
 49
0.6614
 74
     0
 49
-0.0827
 74
     0
 49
0.1654
 74
     0
 49
-0.0827
 74
     0
 49
0.1654
 74
     0
 49
-0.0827
 74
     0
  0
LTYPE
  5
DF
330
5
100
AcDbSymbolTableRecord
100
AcDbLinetypeTableRecord
  2
CHAIN
 70
     0
  3
Chain ____ _ ____ _ ____ _ ____ _ ____ _ ____
 72
    65
 73
     4
 40
0.7087
 49
0.4724000000000001
 74
     0
 49
-0.0591
 74
     0
 49
0.1181
 74
     0
 49
-0.0591
 74
     0
  0
LTYPE
  5
E0
330
5
100
AcDbSymbolTableRecord
100
AcDbLinetypeTableRecord
  2
DASH_DOT
 70
     0
  3
Dash dot __ . __ . __ . __ . __ . __ . __ . __
 72
    65
 73
     4
 40
0.37
 49
0.24
 74
     0
 49
-0.06
 74
     0
 49
0.01
 74
     0
 49
-0.06
 74
     0
  0
LTYPE
  5
E1
330
5
100
AcDbSymbolTableRecord
100
AcDbLinetypeTableRecord
  2
DOUBLE_DASH_DOT
 70
     0
  3
Double-Dash Dot __ __ . __ __ . __ __ . __ _
 72
    65
 73
     6
 40
0.4398
 49
0.24
 74
     0
 49
-0.06
 74
     0
 49
0.0098
 74
     0
 49
-0.06
 74
     0
 49
0.01
 74
     0
 49
-0.06
 74
     0
  0
LTYPE
  5
E2
330
5
100
AcDbSymbolTableRecord
100
AcDbLinetypeTableRecord
  2
DASH_TRIPLE_DOT
 70
     0
  3
Dash Triple-Dot _ . . . _ . . . _ . . . _
 72
    65
 73
     8
 40
0.51
 49
0.24
 74
     0
 49
-0.06
 74
     0
 49
0.01
 74
     0
 49
-0.06
 74
     0
 49
0.01
 74
     0
 49
-0.06
 74
     0
 49
0.01
 74
     0
 49
-0.06
 74
     0
  0
LTYPE
  5
E3
330
5
100
AcDbSymbolTableRecord
100
AcDbLinetypeTableRecord
  2
DASHED
 70
     0
  3
Dashed __ __ __ __ __ __ __ __ __ __ __ __ __ _
 72
    65
 73
     2
 40
0.2067
 49
0.1654
 74
     0
 49
-0.0413
 74
     0
  0
LTYPE
  5
E4
330
5
100
AcDbSymbolTableRecord
100
AcDbLinetypeTableRecord
  2
DASH_DOUBLE_DOT
 70
     0
  3
Dash Double-Dot __ . . __ . . __ . . __ . .
 72
    65
 73
     6
 40
0.4398
 49
0.24
 74
     0
 49
-0.06
 74
     0
 49
0.0098
 74
     0
 49
-0.06
 74
     0
 49
0.01
 74
     0
 49
-0.06
 74
     0
  0
LTYPE
  5
E5
330
5
100
AcDbSymbolTableRecord
100
AcDbLinetypeTableRecord
  2
DASHED_SPACE
 70
     0
  3
Dashed Space __ __ __ __ __ __ __ __ __ __ __ _
 72
    65
 73
     2
 40
0.2067
 49
0.1654
 74
     0
 49
-0.0413
 74
     0
  0
LTYPE
  5
E6
330
5
100
AcDbSymbolTableRecord
100
AcDbLinetypeTableRecord
  2
DOTTED
 70
     0
  3
Dotted . . . . . . . . . . . . . . . . . . . . 
 72
    65
 73
     2
 40
0.0482
 49
0.0069
 74
     0
 49
-0.0413
 74
     0
  0
LTYPE
  5
E7
330
5
100
AcDbSymbolTableRecord
100
AcDbLinetypeTableRecord
  2
DOUBLE_DASH_CHAIN
 70
     0
  3
Double-Dash Chain ______  __  __  ______  __  _
 72
    65
 73
     6
 40
1.240299999999999
 49
0.6614
 74
     0
 49
-0.0827
 74
     0
 49
0.1654
 74
     0
 49
-0.0827
 74
     0
 49
0.1654
 74
     0
 49
-0.0827
 74
     0
  0
LTYPE
  5
E9
330
5
100
AcDbSymbolTableRecord
100
AcDbLinetypeTableRecord
  2
DOUBLE_DASH_DOUBLE_DOT
 70
     0
  3
Double-Dash Double-dot _ _ . . _ _ . . _
 72
    65
 73
     8
 40
0.7400000000000001
 49
0.24
 74
     0
 49
-0.06
 74
     0
 49
0.24
 74
     0
 49
-0.06
 74
     0
 49
0.01
 74
     0
 49
-0.06
 74
     0
 49
0.01
 74
     0
 49
-0.06
 74
     0
  0
LTYPE
  5
EA
330
5
100
AcDbSymbolTableRecord
100
AcDbLinetypeTableRecord
  2
DOUBLE_DASH_TRIPLE_DOT
 70
     0
  3
Double Dash Triple Dot __ __ . . . __ __ . .
 72
    65
 73
    10
 40
0.8100000000000001
 49
0.24
 74
     0
 49
-0.06
 74
     0
 49
0.24
 74
     0
 49
-0.06
 74
     0
 49
0.01
 74
     0
 49
-0.06
 74
     0
 49
0.01
 74
     0
 49
-0.06
 74
     0
 49
0.01
 74
     0
 49
-0.06
 74
     0
  0
LTYPE
  5
EB
330
5
100
AcDbSymbolTableRecord
100
AcDbLinetypeTableRecord
  2
LONG_DASH_DOTTED
 70
     0
  3
Long Dash Dotted ____ . ____ . ____ . ____ . _
 72
    65
 73
     4
 40
0.3543
 49
0.2362
 74
     0
 49
-0.0295
 74
     0
 49
0.0591
 74
     0
 49
-0.0295
 74
     0
  0
LTYPE
  5
EC
330
5
100
AcDbSymbolTableRecord
100
AcDbLinetypeTableRecord
  2
LONG_DASH_DOUBLE_DOT
 70
     0
  3
Long Dash Double Dot ________  .  .  ________  
 72
    65
 73
     6
 40
0.6799999999999999
 49
0.48
 74
     0
 49
-0.06
 74
     0
 49
0.01
 74
     0
 49
-0.06
 74
     0
 49
0.01
 74
     0
 49
-0.06
 74
     0
  0
LTYPE
  5
ED
330
5
100
AcDbSymbolTableRecord
100
AcDbLinetypeTableRecord
  2
LONG_DASH_TRIPLE_DOT
 70
     0
  3
Long Dash Triple Dot ____ ... ____ ... ____
 72
    65
 73
     8
 40
0.3689
 49
0.2362
 74
     0
 49
-0.0295
 74
     0
 49
0.0049
 74
     0
 49
-0.0295
 74
     0
 49
0.0049
 74
     0
 49
-0.0295
 74
     0
 49
0.0049
 74
     0
 49
-0.0295
 74
     0
  0
LTYPE
  5
EE
330
5
100
AcDbSymbolTableRecord
100
AcDbLinetypeTableRecord
  2
BORDER
 70
     0
  3
Border __ __ . __ __ . __ __ . __ __ . __ __ .
 72
    65
 73
     6
 40
1.75
 49
0.5
 74
     0
 49
-0.25
 74
     0
 49
0.5
 74
     0
 49
-0.25
 74
     0
 49
0.0
 74
     0
 49
-0.25
 74
     0
  0
LTYPE
  5
EF
330
5
100
AcDbSymbolTableRecord
100
AcDbLinetypeTableRecord
  2
BORDER2
 70
     0
  3
Border (.5x) __.__.__.__.__.__.__.__.__.__.__.
 72
    65
 73
     6
 40
0.875
 49
0.25
 74
     0
 49
-0.125
 74
     0
 49
0.25
 74
     0
 49
-0.125
 74
     0
 49
0.0
 74
     0
 49
-0.125
 74
     0
  0
LTYPE
  5
F0
330
5
100
AcDbSymbolTableRecord
100
AcDbLinetypeTableRecord
  2
BORDERX2
 70
     0
  3
Border (2x) ____  ____  .  ____  ____  .  ___
 72
    65
 73
     6
 40
3.5
 49
1.0
 74
     0
 49
-0.5
 74
     0
 49
1.0
 74
     0
 49
-0.5
 74
     0
 49
0.0
 74
     0
 49
-0.5
 74
     0
  0
LTYPE
  5
F1
330
5
100
AcDbSymbolTableRecord
100
AcDbLinetypeTableRecord
  2
CENTER
 70
     0
  3
Center ____ _ ____ _ ____ _ ____ _ ____ _ ____
 72
    65
 73
     4
 40
2.0
 49
1.25
 74
     0
 49
-0.25
 74
     0
 49
0.25
 74
     0
 49
-0.25
 74
     0
  0
LTYPE
  5
F2
330
5
100
AcDbSymbolTableRecord
100
AcDbLinetypeTableRecord
  2
CENTER2
 70
     0
  3
Center (.5x) ___ _ ___ _ ___ _ ___ _ ___ _ ___
 72
    65
 73
     4
 40
1.125
 49
0.75
 74
     0
 49
-0.125
 74
     0
 49
0.125
 74
     0
 49
-0.125
 74
     0
  0
LTYPE
  5
F3
330
5
100
AcDbSymbolTableRecord
100
AcDbLinetypeTableRecord
  2
CENTERX2
 70
     0
  3
Center (2x) ________  __  ________  __  _____
 72
    65
 73
     4
 40
4.0
 49
2.5
 74
     0
 49
-0.5
 74
     0
 49
0.5
 74
     0
 49
-0.5
 74
     0
  0
LTYPE
  5
F4
330
5
100
AcDbSymbolTableRecord
100
AcDbLinetypeTableRecord
  2
DASHDOT2
 70
     0
  3
Dash dot (.5x) _._._._._._._._._._._._._._._.
 72
    65
 73
     4
 40
0.5
 49
0.25
 74
     0
 49
-0.125
 74
     0
 49
0.0
 74
     0
 49
-0.125
 74
     0
  0
LTYPE
  5
F5
330
5
100
AcDbSymbolTableRecord
100
AcDbLinetypeTableRecord
  2
DASHDOTX2
 70
     0
  3
Dash dot (2x) ____  .  ____  .  ____  .  ___
 72
    65
 73
     4
 40
2.0
 49
1.0
 74
     0
 49
-0.5
 74
     0
 49
0.0
 74
     0
 49
-0.5
 74
     0
  0
LTYPE
  5
F7
330
5
100
AcDbSymbolTableRecord
100
AcDbLinetypeTableRecord
  2
DASHED2
 70
     0
  3
Dashed (.5x) _ _ _ _ _ _ _ _ _ _ _ _ _ _ _ _ _
 72
    65
 73
     2
 40
0.375
 49
0.25
 74
     0
 49
-0.125
 74
     0
  0
LTYPE
  5
F8
330
5
100
AcDbSymbolTableRecord
100
AcDbLinetypeTableRecord
  2
DASHEDX2
 70
     0
  3
Dashed (2x) ____  ____  ____  ____  ____  ___
 72
    65
 73
     2
 40
1.5
 49
1.0
 74
     0
 49
-0.5
 74
     0
  0
LTYPE
  5
F9
330
5
100
AcDbSymbolTableRecord
100
AcDbLinetypeTableRecord
  2
DIVIDE
 70
     0
  3
Divide ____ . . ____ . . ____ . . ____ . . ____
 72
    65
 73
     6
 40
1.25
 49
0.5
 74
     0
 49
-0.25
 74
     0
 49
0.0
 74
     0
 49
-0.25
 74
     0
 49
0.0
 74
     0
 49
-0.25
 74
     0
  0
LTYPE
  5
FA
330
5
100
AcDbSymbolTableRecord
100
AcDbLinetypeTableRecord
  2
DIVIDE2
 70
     0
  3
Divide (.5x) __..__..__..__..__..__..__..__.._
 72
    65
 73
     6
 40
0.625
 49
0.25
 74
     0
 49
-0.125
 74
     0
 49
0.0
 74
     0
 49
-0.125
 74
     0
 49
0.0
 74
     0
 49
-0.125
 74
     0
  0
LTYPE
  5
FB
330
5
100
AcDbSymbolTableRecord
100
AcDbLinetypeTableRecord
  2
DIVIDEX2
 70
     0
  3
Divide (2x) ________  .  .  ________  .  .  _
 72
    65
 73
     6
 40
2.5
 49
1.0
 74
     0
 49
-0.5
 74
     0
 49
0.0
 74
     0
 49
-0.5
 74
     0
 49
0.0
 74
     0
 49
-0.5
 74
     0
  0
LTYPE
  5
FC
330
5
100
AcDbSymbolTableRecord
100
AcDbLinetypeTableRecord
  2
DOT
 70
     0
  3
Dot . . . . . . . . . . . . . . . . . . . . . .
 72
    65
 73
     2
 40
0.25
 49
0.0
 74
     0
 49
-0.25
 74
     0
  0
LTYPE
  5
FD
330
5
100
AcDbSymbolTableRecord
100
AcDbLinetypeTableRecord
  2
DOT2
 70
     0
  3
Dot (.5x) .....................................
 72
    65
 73
     2
 40
0.125
 49
0.0
 74
     0
 49
-0.125
 74
     0
  0
LTYPE
  5
FE
330
5
100
AcDbSymbolTableRecord
100
AcDbLinetypeTableRecord
  2
DOTX2
 70
     0
  3
Dot (2x) .  .  .  .  .  .  .  .  .  .  .  .  . 
 72
    65
 73
     2
 40
0.5
 49
0.0
 74
     0
 49
-0.5
 74
     0
  0
LTYPE
  5
FF
330
5
100
AcDbSymbolTableRecord
100
AcDbLinetypeTableRecord
  2
HIDDEN
 70
     0
  3
Hidden __ __ __ __ __ __ __ __ __ __ __ __ __ _
 72
    65
 73
     2
 40
0.375
 49
0.25
 74
     0
 49
-0.125
 74
     0
  0
LTYPE
  5
100
330
5
100
AcDbSymbolTableRecord
100
AcDbLinetypeTableRecord
  2
HIDDEN2
 70
     0
  3
Hidden (.5x) _ _ _ _ _ _ _ _ _ _ _ _ _ _ _ _ _
 72
    65
 73
     2
 40
0.1875
 49
0.125
 74
     0
 49
-0.0625
 74
     0
  0
LTYPE
  5
101
330
5
100
AcDbSymbolTableRecord
100
AcDbLinetypeTableRecord
  2
HIDDENX2
 70
     0
  3
Hidden (2x) ____ ____ ____ ____ ____ ____ ____
 72
    65
 73
     2
 40
0.75
 49
0.5
 74
     0
 49
-0.25
 74
     0
  0
LTYPE
  5
102
330
5
100
AcDbSymbolTableRecord
100
AcDbLinetypeTableRecord
  2
PHANTOM
 70
     0
  3
Phantom ______  __  __  ______  __  __  ______
 72
    65
 73
     6
 40
2.5
 49
1.25
 74
     0
 49
-0.25
 74
     0
 49
0.25
 74
     0
 49
-0.25
 74
     0
 49
0.25
 74
     0
 49
-0.25
 74
     0
  0
LTYPE
  5
103
330
5
100
AcDbSymbolTableRecord
100
AcDbLinetypeTableRecord
  2
PHANTOM2
 70
     0
  3
Phantom (.5x) ___ _ _ ___ _ _ ___ _ _ ___ _ _
 72
    65
 73
     6
 40
1.25
 49
0.625
 74
     0
 49
-0.125
 74
     0
 49
0.125
 74
     0
 49
-0.125
 74
     0
 49
0.125
 74
     0
 49
-0.125
 74
     0
  0
LTYPE
  5
104
330
5
100
AcDbSymbolTableRecord
100
AcDbLinetypeTableRecord
  2
PHANTOMX2
 70
     0
  3
Phantom (2x) ____________    ____    ____   _
 72
    65
 73
     6
 40
5.0
 49
2.5
 74
     0
 49
-0.5
 74
     0
 49
0.5
 74
     0
 49
-0.5
 74
     0
 49
0.5
 74
     0
 49
-0.5
 74
     0
  0
LTYPE
  5
105
330
5
100
AcDbSymbolTableRecord
100
AcDbLinetypeTableRecord
  2
ACAD_ISO02W100
 70
     0
  3
ISO dash __ __ __ __ __ __ __ __ __ __ __ __ __
 72
    65
 73
     2
 40
0.59
 49
0.47
 74
     0
 49
-0.12
 74
     0
  0
LTYPE
  5
106
330
5
100
AcDbSymbolTableRecord
100
AcDbLinetypeTableRecord
  2
ACAD_ISO03W100
 70
     0
  3
ISO dash space __    __    __    __    __    __
 72
    65
 73
     2
 40
1.179999999999999
 49
0.47
 74
     0
 49
-0.71
 74
     0
  0
LTYPE
  5
107
330
5
100
AcDbSymbolTableRecord
100
AcDbLinetypeTableRecord
  2
ACAD_ISO04W100
 70
     0
  3
ISO long-dash dot ____ . ____ . ____ . ____ . _
 72
    65
 73
     4
 40
1.179999999999999
 49
0.9399999999999998
 74
     0
 49
-0.12
 74
     0
 49
0.0
 74
     0
 49
-0.12
 74
     0
  0
LTYPE
  5
108
330
5
100
AcDbSymbolTableRecord
100
AcDbLinetypeTableRecord
  2
ACAD_ISO05W100
 70
     0
  3
ISO long-dash double-dot ____ .. ____ .. ____ .
 72
    65
 73
     6
 40
1.299999999999999
 49
0.9399999999999998
 74
     0
 49
-0.12
 74
     0
 49
0.0
 74
     0
 49
-0.12
 74
     0
 49
0.0
 74
     0
 49
-0.12
 74
     0
  0
LTYPE
  5
109
330
5
100
AcDbSymbolTableRecord
100
AcDbLinetypeTableRecord
  2
ACAD_ISO06W100
 70
     0
  3
ISO long-dash triple-dot ____ ... ____ ... ____
 72
    65
 73
     8
 40
1.419999999999999
 49
0.9399999999999998
 74
     0
 49
-0.12
 74
     0
 49
0.0
 74
     0
 49
-0.12
 74
     0
 49
0.0
 74
     0
 49
-0.12
 74
     0
 49
0.0
 74
     0
 49
-0.12
 74
     0
  0
LTYPE
  5
10A
330
5
100
AcDbSymbolTableRecord
100
AcDbLinetypeTableRecord
  2
ACAD_ISO07W100
 70
     0
  3
ISO dot . . . . . . . . . . . . . . . . . . . .
 72
    65
 73
     2
 40
0.12
 49
0.0
 74
     0
 49
-0.12
 74
     0
  0
LTYPE
  5
10B
330
5
100
AcDbSymbolTableRecord
100
AcDbLinetypeTableRecord
  2
ACAD_ISO08W100
 70
     0
  3
ISO long-dash short-dash ____ __ ____ __ ____ _
 72
    65
 73
     4
 40
0.95
 49
0.47
 74
     0
 49
-0.12
 74
     0
 49
0.24
 74
     0
 49
-0.12
 74
     0
  0
LTYPE
  5
10C
330
5
100
AcDbSymbolTableRecord
100
AcDbLinetypeTableRecord
  2
ACAD_ISO09W100
 70
     0
  3
ISO long-dash double-short-dash ____ __ __ ____
 72
    65
 73
     6
 40
1.31
 49
0.47
 74
     0
 49
-0.12
 74
     0
 49
0.24
 74
     0
 49
-0.12
 74
     0
 49
0.24
 74
     0
 49
-0.12
 74
     0
  0
LTYPE
  5
10D
330
5
100
AcDbSymbolTableRecord
100
AcDbLinetypeTableRecord
  2
ACAD_ISO10W100
 70
     0
  3
ISO dash dot __ . __ . __ . __ . __ . __ . __ .
 72
    65
 73
     4
 40
0.71
 49
0.47
 74
     0
 49
-0.12
 74
     0
 49
0.0
 74
     0
 49
-0.12
 74
     0
  0
LTYPE
  5
10E
330
5
100
AcDbSymbolTableRecord
100
AcDbLinetypeTableRecord
  2
ACAD_ISO11W100
 70
     0
  3
ISO double-dash dot __ __ . __ __ . __ __ . __ 
 72
    65
 73
     6
 40
1.299999999999999
 49
0.47
 74
     0
 49
-0.12
 74
     0
 49
0.47
 74
     0
 49
-0.12
 74
     0
 49
0.0
 74
     0
 49
-0.12
 74
     0
  0
LTYPE
  5
10F
330
5
100
AcDbSymbolTableRecord
100
AcDbLinetypeTableRecord
  2
ACAD_ISO12W100
 70
     0
  3
ISO dash double-dot __ . . __ . . __ . . __ . .
 72
    65
 73
     6
 40
0.8299999999999998
 49
0.47
 74
     0
 49
-0.12
 74
     0
 49
0.0
 74
     0
 49
-0.12
 74
     0
 49
0.0
 74
     0
 49
-0.12
 74
     0
  0
LTYPE
  5
110
330
5
100
AcDbSymbolTableRecord
100
AcDbLinetypeTableRecord
  2
ACAD_ISO13W100
 70
     0
  3
ISO double-dash double-dot __ __ . . __ __ . . 
 72
    65
 73
     8
 40
1.419999999999999
 49
0.47
 74
     0
 49
-0.12
 74
     0
 49
0.47
 74
     0
 49
-0.12
 74
     0
 49
0.0
 74
     0
 49
-0.12
 74
     0
 49
0.0
 74
     0
 49
-0.12
 74
     0
  0
LTYPE
  5
111
330
5
100
AcDbSymbolTableRecord
100
AcDbLinetypeTableRecord
  2
ACAD_ISO14W100
 70
     0
  3
ISO dash triple-dot __ . . . __ . . . __ . . . 
 72
    65
 73
     8
 40
0.95
 49
0.47
 74
     0
 49
-0.12
 74
     0
 49
0.0
 74
     0
 49
-0.12
 74
     0
 49
0.0
 74
     0
 49
-0.12
 74
     0
 49
0.0
 74
     0
 49
-0.12
 74
     0
  0
LTYPE
  5
112
330
5
100
AcDbSymbolTableRecord
100
AcDbLinetypeTableRecord
  2
ACAD_ISO15W100
 70
     0
  3
ISO double-dash triple-dot __ __ . . . __ __ . 
 72
    65
 73
    10
 40
1.539999999999999
 49
0.47
 74
     0
 49
-0.12
 74
     0
 49
0.47
 74
     0
 49
-0.12
 74
     0
 49
0.0
 74
     0
 49
-0.12
 74
     0
 49
0.0
 74
     0
 49
-0.12
 74
     0
 49
0.0
 74
     0
 49
-0.12
 74
     0
  0
LTYPE
  5
115
330
5
100
AcDbSymbolTableRecord
100
AcDbLinetypeTableRecord
  2
FENCELINE1
 70
     0
  3
Fenceline circle ----0-----0----0-----0----0---
 72
    65
 73
     4
 40
1.45
 49
0.25
 74
     0
 49
-0.1
 74
     4
 75
   133
340
114
 46
0.1
 50
0.0
 44
-0.1
 45
0.0
 49
-0.1
 74
     0
 49
1.0
 74
     0
  0
LTYPE
  5
116
330
5
100
AcDbSymbolTableRecord
100
AcDbLinetypeTableRecord
  2
FENCELINE2
 70
     0
  3
Fenceline square ----[]-----[]----[]-----[]----
 72
    65
 73
     4
 40
1.45
 49
0.25
 74
     0
 49
-0.1
 74
     4
 75
   132
340
114
 46
0.1
 50
0.0
 44
-0.1
 45
0.0
 49
-0.1
 74
     0
 49
1.0
 74
     0
  0
LTYPE
  5
117
330
5
100
AcDbSymbolTableRecord
100
AcDbLinetypeTableRecord
  2
TRACKS
 70
     0
  3
Tracks -|-|-|-|-|-|-|-|-|-|-|-|-|-|-|-|-|-|-|-|
 72
    65
 73
     2
 40
0.3
 49
0.15
 74
     4
 75
   130
340
114
 46
0.25
 50
0.0
 44
0.0
 45
0.0
 49
0.15
 74
     0
  0
LTYPE
  5
118
330
5
100
AcDbSymbolTableRecord
100
AcDbLinetypeTableRecord
  2
BATTING
 70
     0
  3
Batting SSSSSSSSSSSSSSSSSSSSSSSSSSSSSSSSSSSSSSS
 72
    65
 73
     4
 40
0.4001000000000001
 49
0.0001
 74
     0
 49
-0.1
 74
     4
 75
   134
340
114
 46
0.1
 50
0.0
 44
-0.1
 45
0.0
 49
-0.2
 74
     4
 75
   134
340
114
 46
0.1
 50
180.0
 44
0.1
 45
0.0
 49
-0.1
 74
     0
  0
LTYPE
  5
119
330
5
100
AcDbSymbolTableRecord
100
AcDbLinetypeTableRecord
  2
HOT_WATER_SUPPLY
 70
     0
  3
Hot water supply ---- HW ---- HW ---- HW ----
 72
    65
 73
     3
 40
0.9
 49
0.5
 74
     0
 49
-0.2
 74
     2
 75
     0
340
55
 46
0.1
 50
0.0
 44
-0.1
 45
-0.05
  9
HW
 49
-0.2
 74
     0
  0
LTYPE
  5
11A
330
5
100
AcDbSymbolTableRecord
100
AcDbLinetypeTableRecord
  2
GAS_LINE
 70
     0
  3
Gas line ----GAS----GAS----GAS----GAS----GAS---
 72
    65
 73
     3
 40
0.95
 49
0.5
 74
     0
 49
-0.2
 74
     2
 75
     0
340
55
 46
0.1
 50
0.0
 44
-0.1
 45
-0.05
  9
GAS
 49
-0.25
 74
     0
  0
LTYPE
  5
11B
330
5
100
AcDbSymbolTableRecord
100
AcDbLinetypeTableRecord
  2
ZIGZAG
 70
     0
  3
Zig zag /\/\/\/\/\/\/\/\/\/\/\/\/\/\/\/\/\/\/\/
 72
    65
 73
     4
 40
0.8001000000000001
 49
0.0001
 74
     0
 49
-0.2
 74
     4
 75
   131
340
114
 46
0.2
 50
0.0
 44
-0.2
 45
0.0
 49
-0.4
 74
     4
 75
   131
340
114
 46
0.2
 50
180.0
 44
0.2
 45
0.0
 49
-0.2
 74
     0
  0
ENDTAB
  0
TABLE
  2
LAYER
  5
2
330
0
100
AcDbSymbolTable
 70
    27
  0
LAYER
  5
54
330
2
100
AcDbSymbolTableRecord
100
AcDbLayerTableRecord
  2
0
 70
     0
 62
     7
  6
Continuous
370
    18
390
F
  0
LAYER
  5
75
330
2
100
AcDbSymbolTableRecord
100
AcDbLayerTableRecord
  2
Symbol (ANSI)
 70
     0
 62
     7
  6
Continuous
370
    18
390
F
  0
LAYER
  5
125
330
2
100
AcDbSymbolTableRecord
100
AcDbLayerTableRecord
  2
Dimension (ANSI)
 70
     0
 62
     7
  6
Continuous
370
    13
390
F
  0
LAYER
  5
127
330
2
100
AcDbSymbolTableRecord
100
AcDbLayerTableRecord
  2
Hidden (ANSI)
 70
     0
 62
     7
  6
DASHED
370
    15
390
F
  0
LAYER
  5
130
330
2
100
AcDbSymbolTableRecord
100
AcDbLayerTableRecord
  2
Visible (ANSI)
 70
     0
 62
     7
  6
Continuous
370
    13
390
F
  0
LAYER
  5
131
330
2
100
AcDbSymbolTableRecord
100
AcDbLayerTableRecord
  2
Visible Narrow (ANSI)
 70
     0
 62
     7
  6
Continuous
370
    18
390
F
  0
LAYER
  5
25F
330
2
100
AcDbSymbolTableRecord
100
AcDbLayerTableRecord
  2
Defpoints
 70
     0
 62
     7
  6
Continuous
290
     0
370
    -3
390
F
  0
ENDTAB
  0
TABLE
  2
STYLE
  5
3
330
0
100
AcDbSymbolTable
 70
    18
  0
STYLE
  5
55
330
3
100
AcDbSymbolTableRecord
100
AcDbTextStyleTableRecord
  2
Standard
 70
     0
 40
0.0
 41
1.0
 50
0.0
 71
     0
 42
0.2
  3
txt
  4

  0
STYLE
  5
5A
330
3
100
AcDbSymbolTableRecord
100
AcDbTextStyleTableRecord
  2
Annotative
 70
     0
 40
0.0
 41
1.0
 50
0.0
 71
     0
 42
0.2
  3
txt
  4

1001
AcadAnnotative
1000
AnnotativeData
1002
{
1070
     1
1070
     1
1002
}
  0
STYLE
  5
76
330
3
100
AcDbSymbolTableRecord
100
AcDbTextStyleTableRecord
  2
Note Text (ANSI)
 70
     0
 40
0.0
 41
1.0
 50
0.0
 71
     0
 42
0.2
  3
TAHOMA.TTF
  4

1001
ACAD
1000
Tahoma
1071
      256
  0
STYLE
  5
78
330
3
100
AcDbSymbolTableRecord
100
AcDbTextStyleTableRecord
  2
SANSSERIF
 70
     0
 40
0.125
 41
1.0
 50
0.0
 71
     0
 42
0.125
  3
sas_____.pfb
  4

  0
STYLE
  5
114
330
3
100
AcDbSymbolTableRecord
100
AcDbTextStyleTableRecord
  2

 70
     1
 40
0.0
 41
1.0
 50
0.0
 71
     0
 42
0.2
  3
ltypeshp.shx
  4

  0
STYLE
  5
135
330
3
100
AcDbSymbolTableRecord
100
AcDbTextStyleTableRecord
  2
ITALICC_120
 70
     0
 40
0.0
 41
1.0
 50
0.0
 71
     0
 42
0.2
  3
italicc.shx
  4

  0
STYLE
  5
136
330
3
100
AcDbSymbolTableRecord
100
AcDbTextStyleTableRecord
  2
Label Text (ANSI)
 70
     0
 40
0.0
 41
1.0
 50
0.0
 71
     0
 42
0.2
  3
TAHOMA.TTF
  4

1001
ACAD
1000
Tahoma
1071
      256
  0
STYLE
  5
137
330
3
100
AcDbSymbolTableRecord
100
AcDbTextStyleTableRecord
  2
ROMANS
 70
     0
 40
0.0
 41
1.0
 50
0.0
 71
     0
 42
0.2
  3
romans.shx
  4

  0
STYLE
  5
138
330
3
100
AcDbSymbolTableRecord
100
AcDbTextStyleTableRecord
  2
SANSSERIF_114
 70
     0
 40
0.0
 41
1.0
 50
0.0
 71
     0
 42
0.2
  3
TAHOMA.TTF
  4

1001
ACAD
1000
Tahoma
1071
      256
  0
STYLE
  5
139
330
3
100
AcDbSymbolTableRecord
100
AcDbTextStyleTableRecord
  2
SANSSERIF_117
 70
     0
 40
0.0
 41
1.0
 50
0.0
 71
     0
 42
0.2
  3
TAHOMA.TTF
  4

1001
ACAD
1000
Tahoma
1071
      256
  0
STYLE
  5
13A
330
3
100
AcDbSymbolTableRecord
100
AcDbTextStyleTableRecord
  2
STANDARDAM_ANSI
 70
     0
 40
0.0
 41
1.0
 50
0.0
 71
     0
 42
0.2
  3
txt.shx
  4

  0
STYLE
  5
13B
330
3
100
AcDbSymbolTableRecord
100
AcDbTextStyleTableRecord
  2
StandardAM_ANSI$0
 70
     0
 40
0.0
 41
1.0
 50
0.0
 71
     0
 42
0.2
  3
txt.shx
  4

  0
STYLE
  5
13C
330
3
100
AcDbSymbolTableRecord
100
AcDbTextStyleTableRecord
  2
STANDARDAM_ANSI$3
 70
     0
 40
0.0
 41
1.0
 50
0.0
 71
     0
 42
0.2
  3
txt.shx
  4

  0
STYLE
  5
13D
330
3
100
AcDbSymbolTableRecord
100
AcDbTextStyleTableRecord
  2
STANDARDAM_ANSI$4
 70
     0
 40
0.0
 41
1.0
 50
0.0
 71
     0
 42
0.2
  3
txt.shx
  4

  0
STYLE
  5
13E
330
3
100
AcDbSymbolTableRecord
100
AcDbTextStyleTableRecord
  2
STANDARDAM_ANSI$7
 70
     0
 40
0.0
 41
1.0
 50
0.0
 71
     0
 42
0.2
  3
txt.shx
  4

  0
STYLE
  5
13F
330
3
100
AcDbSymbolTableRecord
100
AcDbTextStyleTableRecord
  2
STANDARDAM_ANSI$SF
 70
     0
 40
0.0
 41
1.0
 50
0.0
 71
     0
 42
0.2
  3
txt.shx
  4

  0
STYLE
  5
140
330
3
100
AcDbSymbolTableRecord
100
AcDbTextStyleTableRecord
  2
STANDARDAM_ANSI$SH
 70
     0
 40
0.0
 41
1.0
 50
0.0
 71
     0
 42
0.2
  3
txt.shx
  4

  0
STYLE
  5
141
330
3
100
AcDbSymbolTableRecord
100
AcDbTextStyleTableRecord
  2
STANDARDSTANDARD
 70
     0
 40
0.0
 41
1.0
 50
0.0
 71
     0
 42
0.2
  3
txt.shx
  4

  0
ENDTAB
  0
TABLE
  2
VIEW
  5
6
330
0
100
AcDbSymbolTable
 70
     0
  0
ENDTAB
  0
TABLE
  2
UCS
  5
7
330
0
100
AcDbSymbolTable
 70
     0
  0
ENDTAB
  0
TABLE
  2
APPID
  5
9
330
0
100
AcDbSymbolTable
 70
     4
  0
APPID
  5
56
330
9
100
AcDbSymbolTableRecord
100
AcDbRegAppTableRecord
  2
ACAD
 70
     0
  0
APPID
  5
5E
330
9
100
AcDbSymbolTableRecord
100
AcDbRegAppTableRecord
  2
AcadAnnotative
 70
     0
  0
APPID
  5
C61
330
9
100
AcDbSymbolTableRecord
100
AcDbRegAppTableRecord
  2
ACAD_DSTYLE_DIMRADIAL_EXTENSION
 70
     0
  0
APPID
  5
F54
330
9
100
AcDbSymbolTableRecord
100
AcDbRegAppTableRecord
  2
ACAD_MLEADERVER
 70
     0
  0
ENDTAB
  0
TABLE
  2
DIMSTYLE
  5
A
330
0
100
AcDbSymbolTable
 70
    27
100
AcDbDimStyleTable
 71
     2
340
156
340
58
  0
DIMSTYLE
105
58
330
A
100
AcDbSymbolTableRecord
100
AcDbDimStyleTableRecord
  2
STANDARD
 70
     0
 41
0.1800000071525573
 42
0.0625
140
0.1800000071525574
144
1.0
147
0.0900000035762787
176
   256
177
   256
178
   256
274
     3
340
55
371
    -1
372
    -1
  0
DIMSTYLE
105
59
330
A
100
AcDbSymbolTableRecord
100
AcDbDimStyleTableRecord
  2
Annotative
 70
     0
340
55
1001
AcadAnnotative
1000
AnnotativeData
1002
{
1070
     1
1070
     1
1002
}
  0
DIMSTYLE
105
142
330
A
100
AcDbSymbolTableRecord
100
AcDbDimStyleTableRecord
  2
AM_ANSI
 70
     0
  4
 mm
 40
5.88235294117647
 41
0.119999997317791
 42
0.05
 43
0.5
 44
0.1
 45
0.00000001
 78
     4
 79
     2
140
0.1200000047683716
146
0.7099999453624112
147
0.0599999986588955
176
   256
177
   256
178
     2
284
     4
340
13A
371
    -1
372
    -1
  0
DIMSTYLE
105
143
330
A
100
AcDbSymbolTableRecord
100
AcDbDimStyleTableRecord
  2
AM_ANSI$7
 70
     0
  4
 mm
 40
5.88235294117647
 41
0.119999997317791
 42
0.05
 43
0.5
 44
0.1
 45
0.00000001
 78
     4
 79
     2
140
0.1200000047683716
146
0.7099999453624112
147
0.0599999986588955
176
   256
177
   256
178
     2
284
     4
340
13A
371
    -1
372
    -1
  0
DIMSTYLE
105
144
330
A
100
AcDbSymbolTableRecord
100
AcDbDimStyleTableRecord
  2
AM_ANSI$0
 70
     0
  4
 mm
 40
5.88235294117647
 41
0.119999997317791
 42
0.05
 43
0.5
 44
0.1
 45
0.00000001
 78
     4
 79
     2
140
0.1200000047683716
146
0.7099999453624112
147
0.0599999986588955
176
   256
177
   256
178
     2
284
     4
340
13B
371
    -1
372
    -1
  0
DIMSTYLE
105
145
330
A
100
AcDbSymbolTableRecord
100
AcDbDimStyleTableRecord
  2
AM_ANSI$0$7
 70
     0
  4
 mm
 40
5.88235294117647
 41
0.119999997317791
 42
0.05
 43
0.5
 44
0.1
 45
0.00000001
 78
     4
 79
     2
140
0.1200000047683716
146
0.7099999453624112
147
0.0599999986588955
176
   256
177
   256
178
     2
284
     4
340
13B
371
    -1
372
    -1
  0
DIMSTYLE
105
146
330
A
100
AcDbSymbolTableRecord
100
AcDbDimStyleTableRecord
  2
AM_ANSI$3
 70
     0
  4
 mm
 40
5.88235294117647
 41
0.119999997317791
 42
0.05
 43
0.5
 44
0.1
 45
0.00000001
 78
     4
 79
     2
140
0.1200000047683716
146
0.7099999453624112
147
0.0599999986588955
176
   256
177
   256
178
     2
284
     4
340
13C
371
    -1
372
    -1
  0
DIMSTYLE
105
147
330
A
100
AcDbSymbolTableRecord
100
AcDbDimStyleTableRecord
  2
AM_ANSI$3$7
 70
     0
  4
 mm
 40
5.88235294117647
 41
0.119999997317791
 42
0.05
 43
0.5
 44
0.1
 45
0.00000001
 78
     4
 79
     2
140
0.1200000047683716
146
0.7099999453624112
147
0.0599999986588955
176
   256
177
   256
178
     2
284
     4
340
13C
371
    -1
372
    -1
  0
DIMSTYLE
105
148
330
A
100
AcDbSymbolTableRecord
100
AcDbDimStyleTableRecord
  2
AM_ANSI$4
 70
     0
  4
 mm
 40
5.88235294117647
 41
0.119999997317791
 42
0.05
 43
0.5
 44
0.1
 45
0.00000001
 78
     4
 79
     2
140
0.1200000047683716
146
0.7099999453624112
147
0.0599999986588955
176
   256
177
   256
178
     2
284
     4
340
13D
371
    -1
372
    -1
  0
DIMSTYLE
105
149
330
A
100
AcDbSymbolTableRecord
100
AcDbDimStyleTableRecord
  2
AM_ANSI$4$7
 70
     0
  4
 mm
 40
5.88235294117647
 41
0.119999997317791
 42
0.05
 43
0.5
 44
0.1
 45
0.00000001
 78
     4
 79
     2
140
0.1200000047683716
146
0.7099999453624112
147
0.0599999986588955
176
   256
177
   256
178
     2
284
     4
340
13D
371
    -1
372
    -1
  0
DIMSTYLE
105
14A
330
A
100
AcDbSymbolTableRecord
100
AcDbDimStyleTableRecord
  2
AM_ANSI$SF
 70
     0
  4
 mm
 40
5.88235294117647
 41
0.119999997317791
 42
0.05
 43
0.5
 44
0.1
 45
0.00000001
 75
     1
 76
     1
 78
     4
 79
     2
140
0.1200000047683716
146
0.7099999453624112
147
0.0599999986588955
176
   256
177
   256
178
     2
284
     4
340
13F
371
    -1
372
    -1
  0
DIMSTYLE
105
14B
330
A
100
AcDbSymbolTableRecord
100
AcDbDimStyleTableRecord
  2
AM_ANSI$SF$7
 70
     0
  4
 mm
 40
5.88235294117647
 41
0.119999997317791
 42
0.05
 43
0.5
 44
0.1
 45
0.00000001
 75
     1
 76
     1
 78
     4
 79
     2
140
0.1200000047683716
146
0.7099999453624112
147
0.0599999986588955
176
   256
177
   256
178
     2
284
     4
340
13F
371
    -1
372
    -1
  0
DIMSTYLE
105
14C
330
A
100
AcDbSymbolTableRecord
100
AcDbDimStyleTableRecord
  2
AM_ANSI$SH
 70
     0
  4
 mm
 40
5.88235294117647
 41
0.119999997317791
 42
0.05
 43
0.5
 44
0.1
 45
0.00000001
 75
     1
 76
     1
 78
     4
 79
     2
140
0.1200000047683716
146
0.7099999453624112
147
0.0599999986588955
176
   256
177
   256
178
     2
284
     4
340
140
371
    -1
372
    -1
  0
DIMSTYLE
105
14D
330
A
100
AcDbSymbolTableRecord
100
AcDbDimStyleTableRecord
  2
AM_ANSI$SH$7
 70
     0
  4
 mm
 40
5.88235294117647
 41
0.119999997317791
 42
0.05
 43
0.5
 44
0.1
 45
0.00000001
 75
     1
 76
     1
 78
     4
 79
     2
140
0.1200000047683716
146
0.7099999453624112
147
0.0599999986588955
176
   256
177
   256
178
     2
284
     4
340
140
371
    -1
372
    -1
  0
DIMSTYLE
105
14E
330
A
100
AcDbSymbolTableRecord
100
AcDbDimStyleTableRecord
  2
Architectural (ANSI)
 70
     0
 40
5.88235294117647
 41
0.0984251946210861
 43
0.2362204724409449
 44
0.125
 45
0.00000001
 46
0.3937007874015748
 78
     3
 79
     3
140
0.1200000047683716
147
0.031496062992126
171
     1
176
   256
177
   256
178
   256
272
     2
274
     1
276
     2
277
     4
284
    12
285
     4
286
    12
340
76
371
    -1
372
    -1
  0
DIMSTYLE
105
14F
330
A
100
AcDbSymbolTableRecord
100
AcDbDimStyleTableRecord
  2
Architectural (ANSI)$7
 70
     0
 40
5.88235294117647
 41
0.0984251946210861
 43
0.2362204724409449
 44
0.125
 45
0.00000001
 46
0.3937007874015748
 78
     3
 79
     3
140
0.1200000047683716
147
0.031496062992126
171
     1
176
   256
177
   256
178
   256
272
     2
274
     1
276
     2
277
     4
284
    12
285
     4
286
    12
340
76
371
    -1
372
    -1
  0
DIMSTYLE
105
150
330
A
100
AcDbSymbolTableRecord
100
AcDbDimStyleTableRecord
  2
Default - Fraction (ANSI)
 70
     0
 40
5.88235294117647
 41
0.0984251946210861
 43
0.2362204724409449
 44
0.125
 45
0.00000001
 46
0.3937007874015748
 79
     3
140
0.1200000047683716
147
0.031496062992126
171
     1
176
   256
177
   256
178
   256
272
     2
274
     1
276
     2
277
     5
284
    12
285
     4
286
    12
340
76
371
    -1
372
    -1
  0
DIMSTYLE
105
151
330
A
100
AcDbSymbolTableRecord
100
AcDbDimStyleTableRecord
  2
Default - Fraction (ANSI)$7
 70
     0
 40
5.88235294117647
 41
0.0984251946210861
 43
0.2362204724409449
 44
0.125
 45
0.00000001
 46
0.3937007874015748
 79
     3
140
0.1200000047683716
147
0.031496062992126
171
     1
176
   256
177
   256
178
   256
272
     2
274
     1
276
     2
277
     5
284
    12
285
     4
286
    12
340
76
371
    -1
372
    -1
  0
DIMSTYLE
105
152
330
A
100
AcDbSymbolTableRecord
100
AcDbDimStyleTableRecord
  2
Default - mm (ANSI)
 70
     0
 40
5.88235294117647
 41
0.0984251946210861
 42
0.063
 43
0.2362204724409449
 44
0.125
 45
0.00000001
 46
0.3937007874015748
 73
     0
 78
     4
 79
     1
140
0.1200000047683716
143
1.0
144
25.4
147
0.031496062992126
171
     1
176
   256
177
   256
178
   256
179
     1
271
     2
272
     2
274
     1
284
     4
285
     4
340
76
371
    -1
372
    -1
  0
DIMSTYLE
105
153
330
A
100
AcDbSymbolTableRecord
100
AcDbDimStyleTableRecord
  2
Default - mm (ANSI)$7
 70
     0
 40
5.88235294117647
 41
0.0984251946210861
 42
0.063
 43
0.2362204724409449
 44
0.125
 45
0.00000001
 46
0.3937007874015748
 73
     0
 78
     4
 79
     1
140
0.1200000047683716
143
1.0
144
25.4
147
0.031496062992126
171
     1
176
   256
177
   256
178
   256
179
     1
271
     2
272
     2
274
     1
284
     4
285
     4
340
76
371
    -1
372
    -1
  0
DIMSTYLE
105
154
330
A
100
AcDbSymbolTableRecord
100
AcDbDimStyleTableRecord
  2
Default - mm [in] (ANSI)
 70
     0
  4
 in
 40
5.88235294117647
 41
0.0984251946210861
 42
0.063
 43
0.25
 44
0.125
 45
0.00000001
 46
0.3937007874015748
 73
     0
 78
     4
 79
     1
140
0.1200000047683716
143
0.03937
144
25.4
147
0.031496062992126
170
     1
171
     3
176
   256
177
   256
178
   256
179
     1
271
     2
272
     2
274
     3
284
     4
285
     4
286
     4
340
76
371
    -1
372
    -1
  0
DIMSTYLE
105
155
330
A
100
AcDbSymbolTableRecord
100
AcDbDimStyleTableRecord
  2
Default - mm [in] (ANSI)$7
 70
     0
  4
 in
 40
5.88235294117647
 41
0.0984251946210861
 42
0.063
 43
0.25
 44
0.125
 45
0.00000001
 46
0.3937007874015748
 73
     0
 78
     4
 79
     1
140
0.1200000047683716
143
0.03937
144
25.4
147
0.031496062992126
170
     1
171
     3
176
   256
177
   256
178
   256
179
     1
271
     2
272
     2
274
     3
284
     4
285
     4
286
     4
340
76
371
    -1
372
    -1
  0
DIMSTYLE
105
156
102
{ACAD_REACTORS
330
25D
330
34A
330
434
330
534
330
634
330
71E
330
808
330
8F2
330
9DE
330
ADE
330
BC8
330
C82
330
D3B
330
E25
102
}
330
A
100
AcDbSymbolTableRecord
100
AcDbDimStyleTableRecord
  2
Default (ANSI)
 70
     0
 40
5.88235294117647
 41
0.0984251946210861
 43
0.2362204724409449
 44
0.125
 45
0.00000001
 46
0.3937007874015748
 79
     1
140
0.1200000047683716
147
0.031496062992126
171
     1
176
   256
177
   256
178
   256
271
     2
272
     2
274
     1
284
     4
285
     4
340
76
371
    -1
372
    -1
  0
DIMSTYLE
105
157
330
A
100
AcDbSymbolTableRecord
100
AcDbDimStyleTableRecord
  2
Default (ANSI)$7
 70
     0
 40
5.88235294117647
 41
0.0984251946210861
 43
0.2362204724409449
 44
0.125
 45
0.00000001
 46
0.3937007874015748
 79
     1
140
0.1200000047683716
147
0.031496062992126
171
     1
176
   256
177
   256
178
   256
271
     2
272
     2
274
     1
284
     4
285
     4
340
76
371
    -1
372
    -1
  0
DIMSTYLE
105
158
330
A
100
AcDbSymbolTableRecord
100
AcDbDimStyleTableRecord
  2
Alternate (ANSI)
 70
     0
 40
5.88235294117647
 41
0.0979999974370003
340
55
342
159
  0
DIMSTYLE
105
16B
330
A
100
AcDbSymbolTableRecord
100
AcDbDimStyleTableRecord
  2
Datum (ANSI)
 70
     0
 40
5.88235294117647
 41
0.0979999974370003
340
55
342
159
  0
DIMSTYLE
105
17A
330
A
100
AcDbSymbolTableRecord
100
AcDbDimStyleTableRecord
  2
Large (ANSI)
 70
     0
 40
5.88235294117647
 41
0.1959999948740005
340
55
342
159
  0
ENDTAB
  0
TABLE
  2
BLOCK_RECORD
  5
1
330
0
100
AcDbSymbolTable
 70
    18
  0
BLOCK_RECORD
  5
6C
330
1
100
AcDbSymbolTableRecord
100
AcDbBlockTableRecord
  2
*Model_Space
340
6F
  0
BLOCK_RECORD
  5
68
330
1
100
AcDbSymbolTableRecord
100
AcDbBlockTableRecord
  2
*Paper_Space
340
6B
  0
BLOCK_RECORD
  5
70
330
1
100
AcDbSymbolTableRecord
100
AcDbBlockTableRecord
  2
*Paper_Space0
340
73
  0
BLOCK_RECORD
  5
159
330
1
100
AcDbSymbolTableRecord
100
AcDbBlockTableRecord
  2
_Closed
340
0
  0
BLOCK_RECORD
  5
160
330
1
100
AcDbSymbolTableRecord
100
AcDbBlockTableRecord
  2
DatumFilled45
340
0
  0
BLOCK_RECORD
  5
16C
330
1
100
AcDbSymbolTableRecord
100
AcDbBlockTableRecord
  2
Filled-1
340
0
  0
BLOCK_RECORD
  5
260
330
1
100
AcDbSymbolTableRecord
100
AcDbBlockTableRecord
  2
*D4
340
0
  0
BLOCK_RECORD
  5
34B
330
1
100
AcDbSymbolTableRecord
100
AcDbBlockTableRecord
  2
*D5
340
0
  0
BLOCK_RECORD
  5
435
330
1
100
AcDbSymbolTableRecord
100
AcDbBlockTableRecord
  2
*D6
340
0
  0
BLOCK_RECORD
  5
535
330
1
100
AcDbSymbolTableRecord
100
AcDbBlockTableRecord
  2
*D7
340
0
  0
BLOCK_RECORD
  5
635
330
1
100
AcDbSymbolTableRecord
100
AcDbBlockTableRecord
  2
*D8
340
0
  0
BLOCK_RECORD
  5
71F
330
1
100
AcDbSymbolTableRecord
100
AcDbBlockTableRecord
  2
*D9
340
0
  0
BLOCK_RECORD
  5
809
330
1
100
AcDbSymbolTableRecord
100
AcDbBlockTableRecord
  2
*D10
340
0
  0
BLOCK_RECORD
  5
8F3
330
1
100
AcDbSymbolTableRecord
100
AcDbBlockTableRecord
  2
*D11
340
0
  0
BLOCK_RECORD
  5
9DF
330
1
100
AcDbSymbolTableRecord
100
AcDbBlockTableRecord
  2
*D12
340
0
  0
BLOCK_RECORD
  5
ADF
330
1
100
AcDbSymbolTableRecord
100
AcDbBlockTableRecord
  2
*D13
340
0
  0
BLOCK_RECORD
  5
BC9
330
1
100
AcDbSymbolTableRecord
100
AcDbBlockTableRecord
  2
*D14
340
0
  0
BLOCK_RECORD
  5
C83
330
1
100
AcDbSymbolTableRecord
100
AcDbBlockTableRecord
  2
*D15
340
0
  0
BLOCK_RECORD
  5
D3C
330
1
100
AcDbSymbolTableRecord
100
AcDbBlockTableRecord
  2
*D16
340
0
  0
BLOCK_RECORD
  5
E26
330
1
100
AcDbSymbolTableRecord
100
AcDbBlockTableRecord
  2
*D17
340
0
  0
ENDTAB
  0
ENDSEC
  0
SECTION
  2
BLOCKS
  0
BLOCK
  5
6D
330
6C
100
AcDbEntity
  8
0
100
AcDbBlockBegin
  2
*Model_Space
 70
     0
 10
0.0
 20
0.0
 30
0.0
  3
*Model_Space
  1

  0
ENDBLK
  5
6E
330
6C
100
AcDbEntity
  8
0
100
AcDbBlockEnd
  0
BLOCK
  5
69
330
68
100
AcDbEntity
 67
     1
  8
0
100
AcDbBlockBegin
  2
*Paper_Space
 70
     0
 10
0.0
 20
0.0
 30
0.0
  3
*Paper_Space
  1

  0
ENDBLK
  5
6A
330
68
100
AcDbEntity
 67
     1
  8
0
100
AcDbBlockEnd
  0
BLOCK
  5
71
330
70
100
AcDbEntity
 67
     1
  8
0
100
AcDbBlockBegin
  2
*Paper_Space0
 70
     0
 10
0.0
 20
0.0
 30
0.0
  3
*Paper_Space0
  1

  0
ENDBLK
  5
72
330
70
100
AcDbEntity
 67
     1
  8
0
100
AcDbBlockEnd
  0
BLOCK
  5
15E
330
159
100
AcDbEntity
  8
0
100
AcDbBlockBegin
  2
_Closed
 70
     0
 10
0.0
 20
0.0
 30
0.0
  3
_Closed
  1

  0
LINE
  5
15A
330
159
100
AcDbEntity
  8
0
  6
ByBlock
 62
     0
370
    -2
100
AcDbLine
 10
-1.0
 20
0.1666666666666666
 30
0.0
 11
0.0
 21
0.0
 31
0.0
  0
LINE
  5
15B
330
159
100
AcDbEntity
  8
0
  6
ByBlock
 62
     0
370
    -2
100
AcDbLine
 10
0.0
 20
0.0
 30
0.0
 11
-1.0
 21
-0.1666666666666666
 31
0.0
  0
LINE
  5
15C
330
159
100
AcDbEntity
  8
0
  6
ByBlock
 62
     0
370
    -2
100
AcDbLine
 10
-1.0
 20
0.1666666666666666
 30
0.0
 11
-1.0
 21
-0.1666666666666666
 31
0.0
  0
LINE
  5
15D
330
159
100
AcDbEntity
  8
0
  6
ByBlock
 62
     0
370
    -2
100
AcDbLine
 10
0.0
 20
0.0
 30
0.0
 11
-1.0
 21
0.0
 31
0.0
  0
ENDBLK
  5
15F
330
159
100
AcDbEntity
  8
0
100
AcDbBlockEnd
  0
BLOCK
  5
161
330
160
100
AcDbEntity
  8
0
100
AcDbBlockBegin
  2
DatumFilled45
 70
     0
 10
0.0
 20
0.0
 30
0.0
  3
DatumFilled45
  1

  0
POLYLINE
  5
163
330
160
100
AcDbEntity
  8
0
 62
     0
100
AcDb2dPolyline
 66
     1
 10
0.0
 20
0.0
 30
0.0
 70
   128
  0
VERTEX
  5
164
330
163
100
AcDbEntity
  8
0
 62
     0
100
AcDbVertex
100
AcDb2dVertex
 10
0.0
 20
0.9999999999999998
 30
0.0
  0
VERTEX
  5
165
330
163
100
AcDbEntity
  8
0
 62
     0
100
AcDbVertex
100
AcDb2dVertex
 10
0.0
 20
-0.9999999999999998
 30
0.0
  0
VERTEX
  5
167
330
163
100
AcDbEntity
  8
0
 62
     0
100
AcDbVertex
100
AcDb2dVertex
 10
-0.9999999999999998
 20
0.0
 30
0.0
  0
VERTEX
  5
168
330
163
100
AcDbEntity
  8
0
 62
     0
100
AcDbVertex
100
AcDb2dVertex
 10
0.0
 20
0.9999999999999998
 30
0.0
  0
SEQEND
  5
166
330
163
100
AcDbEntity
  8
0
 62
     0
  0
SOLID
  5
16A
330
160
100
AcDbEntity
  8
0
 62
     0
100
AcDbTrace
 10
0.0
 20
0.9999999999999998
 30
0.0
 11
0.0
 21
-0.9999999999999998
 31
0.0
 12
-0.9999999999999998
 22
0.0
 32
0.0
 13
0.0
 23
0.9999999999999998
 33
0.0
  0
ENDBLK
  5
162
330
160
100
AcDbEntity
  8
0
100
AcDbBlockEnd
  0
BLOCK
  5
16D
330
16C
100
AcDbEntity
  8
0
100
AcDbBlockBegin
  2
Filled-1
 70
     0
 10
0.0
 20
0.0
 30
0.0
  3
Filled-1
  1

  0
LINE
  5
16F
330
16C
100
AcDbEntity
  8
0
 62
     0
100
AcDbLine
 10
-0.9999999999999998
 20
0.0
 30
0.0
 11
0.0
 21
0.0
 31
0.0
  0
POLYLINE
  5
170
330
16C
100
AcDbEntity
  8
0
 62
     0
100
AcDb2dPolyline
 66
     1
 10
0.0
 20
0.0
 30
0.0
 70
   128
  0
VERTEX
  5
171
330
170
100
AcDbEntity
  8
0
 62
     0
100
AcDbVertex
100
AcDb2dVertex
 10
-0.9999999999999998
 20
-0.0994897959183674
 30
0.0
  0
VERTEX
  5
172
330
170
100
AcDbEntity
  8
0
 62
     0
100
AcDbVertex
100
AcDb2dVertex
 10
0.0
 20
0.0
 30
0.0
  0
VERTEX
  5
174
330
170
100
AcDbEntity
  8
0
 62
     0
100
AcDbVertex
100
AcDb2dVertex
 10
-0.9999999999999998
 20
0.0994897959183674
 30
0.0
  0
VERTEX
  5
175
330
170
100
AcDbEntity
  8
0
 62
     0
100
AcDbVertex
100
AcDb2dVertex
 10
-0.9999999999999998
 20
-0.0994897959183674
 30
0.0
  0
SEQEND
  5
173
330
170
100
AcDbEntity
  8
0
 62
     0
  0
SOLID
  5
176
330
16C
100
AcDbEntity
  8
0
 62
     0
100
AcDbTrace
 10
-0.9999999999999998
 20
-0.0994897959183674
 30
0.0
 11
0.0
 21
0.0
 31
0.0
 12
-0.9999999999999998
 22
0.0994897959183674
 32
0.0
 13
-0.9999999999999998
 23
-0.0994897959183674
 33
0.0
  0
LINE
  5
177
330
16C
100
AcDbEntity
  8
0
 62
     0
100
AcDbLine
 10
-0.9999999999999998
 20
-0.0994897959183674
 30
0.0
 11
0.0
 21
0.0
 31
0.0
  0
LINE
  5
178
330
16C
100
AcDbEntity
  8
0
 62
     0
100
AcDbLine
 10
0.0
 20
0.0
 30
0.0
 11
-0.9999999999999998
 21
0.0994897959183674
 31
0.0
  0
LINE
  5
179
330
16C
100
AcDbEntity
  8
0
 62
     0
100
AcDbLine
 10
-0.9999999999999998
 20
0.0994897959183674
 30
0.0
 11
-0.9999999999999998
 21
-0.0994897959183674
 31
0.0
  0
ENDBLK
  5
16E
330
16C
100
AcDbEntity
  8
0
100
AcDbBlockEnd
  0
BLOCK
  5
261
330
260
100
AcDbEntity
  8
0
100
AcDbBlockBegin
  2
*D4
 70
     1
 10
0.0
 20
0.0
 30
0.0
  3
*D4
  1

  0
LINE
  5
340
330
260
100
AcDbEntity
  8
Dimension (ANSI)
100
AcDbLine
 10
15.06021432409765
 20
16.93317940709232
 30
0.0
 11
2.649954944755373
 21
16.93317940709233
 31
0.0
  0
LINE
  5
341
330
260
100
AcDbEntity
  8
Dimension (ANSI)
100
AcDbLine
 10
15.06021432409764
 20
51.13317940709232
 30
0.0
 11
2.649954944755383
 21
51.13317940709232
 31
0.0
  0
LINE
  5
342
330
260
100
AcDbEntity
  8
Dimension (ANSI)
100
AcDbLine
 10
3.385249062402432
 20
17.51215114015754
 30
0.0
 11
3.385249062402436
 21
33.48027125123112
 31
0.0
  0
LINE
  5
343
330
260
100
AcDbEntity
  8
Dimension (ANSI)
100
AcDbLine
 10
3.38524906240244
 20
50.55420767402711
 30
0.0
 11
3.385249062402436
 21
34.58608756295354
 31
0.0
  0
SOLID
  5
344
330
260
100
AcDbEntity
  8
Dimension (ANSI)
100
AcDbTrace
 10
3.288753773558231
 20
17.51215114015754
 30
0.0
 11
3.481744351246634
 21
17.51215114015754
 31
0.0
 12
3.385249062402432
 22
16.93317940709233
 32
0.0
 13
3.385249062402432
 23
16.93317940709233
 33
0.0
  0
SOLID
  5
345
330
260
100
AcDbEntity
  8
Dimension (ANSI)
100
AcDbTrace
 10
3.288753773558238
 20
50.55420767402711
 30
0.0
 11
3.481744351246641
 21
50.55420767402711
 31
0.0
 12
3.38524906240244
 22
51.13317940709232
 32
0.0
 13
3.38524906240244
 23
51.13317940709232
 33
0.0
  0
MTEXT
  5
346
330
260
100
AcDbEntity
  8
Dimension (ANSI)
100
AcDbMText
 10
2.220946088787606
 20
34.40081660417632
 30
0.0
 40
0.705882380990421
 41
0.0
 71
     1
 72
     1
  1
\A1;34.20
  7
Note Text (ANSI)
 73
     1
 44
1.0
1001
ACAD
1000
MTEXTBEGIN
1070
    73
1070
     1
1070
    44
1040
1.0
1070
    74
1070
     0
1000
MTEXTEND
  0
POINT
  5
347
330
260
100
AcDbEntity
  8
Defpoints
 62
     0
100
AcDbPoint
 10
15.42786138292118
 20
16.93317940709232
 30
0.0
  0
POINT
  5
348
330
260
100
AcDbEntity
  8
Defpoints
 62
     0
100
AcDbPoint
 10
15.42786138292117
 20
51.13317940709232
 30
0.0
  0
POINT
  5
349
330
260
100
AcDbEntity
  8
Defpoints
 62
     0
100
AcDbPoint
 10
3.38524906240244
 20
51.13317940709232
 30
0.0
  0
ENDBLK
  5
262
330
260
100
AcDbEntity
  8
0
100
AcDbBlockEnd
  0
BLOCK
  5
34C
330
34B
100
AcDbEntity
  8
0
100
AcDbBlockBegin
  2
*D5
 70
     1
 10
0.0
 20
0.0
 30
0.0
  3
*D5
  1

  0
LINE
  5
42A
330
34B
100
AcDbEntity
  8
Dimension (ANSI)
100
AcDbLine
 10
14.92786138292117
 20
51.00082646591585
 30
0.0
 11
14.92786138292117
 21
58.2976073830071
 31
0.0
  0
LINE
  5
42B
330
34B
100
AcDbEntity
  8
Dimension (ANSI)
100
AcDbLine
 10
49.12786138292117
 20
51.00082646591585
 30
0.0
 11
49.12786138292117
 21
58.2976073830071
 31
0.0
  0
LINE
  5
42C
330
34B
100
AcDbEntity
  8
Dimension (ANSI)
100
AcDbLine
 10
15.50683311598639
 20
57.56231326536004
 30
0.0
 11
30.67828745052914
 21
57.56231326536004
 31
0.0
  0
LINE
  5
42D
330
34B
100
AcDbEntity
  8
Dimension (ANSI)
100
AcDbLine
 10
48.54888964985597
 20
57.56231326536004
 30
0.0
 11
33.37743531531321
 21
57.56231326536004
 31
0.0
  0
SOLID
  5
42E
330
34B
100
AcDbEntity
  8
Dimension (ANSI)
100
AcDbTrace
 10
15.50683311598639
 20
57.65880855420425
 30
0.0
 11
15.50683311598639
 21
57.46581797651584
 31
0.0
 12
14.92786138292117
 22
57.56231326536004
 32
0.0
 13
14.92786138292117
 23
57.56231326536004
 33
0.0
  0
SOLID
  5
42F
330
34B
100
AcDbEntity
  8
Dimension (ANSI)
100
AcDbTrace
 10
48.54888964985597
 20
57.65880855420425
 30
0.0
 11
48.54888964985597
 21
57.46581797651584
 31
0.0
 12
49.12786138292117
 22
57.56231326536004
 32
0.0
 13
49.12786138292117
 23
57.56231326536004
 33
0.0
  0
MTEXT
  5
430
330
34B
100
AcDbEntity
  8
Dimension (ANSI)
100
AcDbMText
 10
30.86355840930635
 20
57.92995046244404
 30
0.0
 40
0.705882380990421
 41
0.0
 71
     1
 72
     1
  1
\A1;34.20
  7
Note Text (ANSI)
 73
     1
 44
1.0
1001
ACAD
1000
MTEXTBEGIN
1070
    73
1070
     1
1070
    44
1040
1.0
1070
    74
1070
     0
1000
MTEXTEND
  0
POINT
  5
431
330
34B
100
AcDbEntity
  8
Defpoints
 62
     0
100
AcDbPoint
 10
14.92786138292117
 20
50.63317940709232
 30
0.0
  0
POINT
  5
432
330
34B
100
AcDbEntity
  8
Defpoints
 62
     0
100
AcDbPoint
 10
49.12786138292117
 20
50.63317940709232
 30
0.0
  0
POINT
  5
433
330
34B
100
AcDbEntity
  8
Defpoints
 62
     0
100
AcDbPoint
 10
49.12786138292117
 20
57.56231326536004
 30
0.0
  0
ENDBLK
  5
34D
330
34B
100
AcDbEntity
  8
0
100
AcDbBlockEnd
  0
BLOCK
  5
436
330
435
100
AcDbEntity
  8
0
100
AcDbBlockBegin
  2
*D6
 70
     1
 10
0.0
 20
0.0
 30
0.0
  3
*D6
  1

  0
LINE
  5
529
330
435
100
AcDbEntity
  8
Dimension (ANSI)
100
AcDbLine
 10
15.08021432409766
 20
17.45317940709232
 30
0.0
 11
13.35254764898916
 21
17.45317940709232
 31
0.0
  0
LINE
  5
52A
330
435
100
AcDbEntity
  8
Dimension (ANSI)
100
AcDbLine
 10
15.08021432409766
 20
18.20317940709232
 30
0.0
 11
13.35254764898916
 21
18.20317940709232
 31
0.0
  0
LINE
  5
52B
330
435
100
AcDbEntity
  8
Dimension (ANSI)
100
AcDbLine
 10
14.08784176663622
 20
18.78215114015754
 30
0.0
 11
14.08784176663622
 21
19.36112287322275
 31
0.0
  0
LINE
  5
52C
330
435
100
AcDbEntity
  8
Dimension (ANSI)
100
AcDbLine
 10
14.08784176663622
 20
16.87420767402711
 30
0.0
 11
14.08784176663622
 21
15.76710294771106
 31
0.0
  0
LINE
  5
52D
330
435
100
AcDbEntity
  8
Dimension (ANSI)
100
AcDbLine
 10
14.08784176663622
 20
15.76710294771106
 30
0.0
 11
13.508870033571
 21
15.76710294771106
 31
0.0
  0
SOLID
  5
52E
330
435
100
AcDbEntity
  8
Dimension (ANSI)
100
AcDbTrace
 10
13.99134647779202
 20
18.78215114015754
 30
0.0
 11
14.18433705548042
 21
18.78215114015754
 31
0.0
 12
14.08784176663622
 22
18.20317940709232
 32
0.0
 13
14.08784176663622
 23
18.20317940709232
 33
0.0
  0
SOLID
  5
52F
330
435
100
AcDbEntity
  8
Dimension (ANSI)
100
AcDbTrace
 10
13.99134647779202
 20
16.87420767402711
 30
0.0
 11
14.18433705548042
 21
16.87420767402711
 31
0.0
 12
14.08784176663622
 22
17.45317940709232
 32
0.0
 13
14.08784176663622
 23
17.45317940709232
 33
0.0
  0
MTEXT
  5
530
330
435
100
AcDbEntity
  8
Dimension (ANSI)
100
AcDbMText
 10
11.5297381415045
 20
16.13450311243073
 30
0.0
 40
0.705882380990421
 41
0.0
 71
     1
 72
     1
  1
\A1;0.75
  7
Note Text (ANSI)
 73
     1
 44
1.0
1001
ACAD
1000
MTEXTBEGIN
1070
    73
1070
     1
1070
    44
1040
1.0
1070
    74
1070
     0
1000
MTEXTEND
  0
POINT
  5
531
330
435
100
AcDbEntity
  8
Defpoints
 62
     0
100
AcDbPoint
 10
15.44786138292118
 20
17.45317940709232
 30
0.0
  0
POINT
  5
532
330
435
100
AcDbEntity
  8
Defpoints
 62
     0
100
AcDbPoint
 10
15.44786138292118
 20
18.20317940709232
 30
0.0
  0
POINT
  5
533
330
435
100
AcDbEntity
  8
Defpoints
 62
     0
100
AcDbPoint
 10
14.08784176663622
 20
18.20317940709232
 30
0.0
  0
ENDBLK
  5
437
330
435
100
AcDbEntity
  8
0
100
AcDbBlockEnd
  0
BLOCK
  5
536
330
535
100
AcDbEntity
  8
0
100
AcDbBlockBegin
  2
*D7
 70
     1
 10
0.0
 20
0.0
 30
0.0
  3
*D7
  1

  0
LINE
  5
629
330
535
100
AcDbEntity
  8
Dimension (ANSI)
100
AcDbLine
 10
48.9955084417447
 20
51.13317940709232
 30
0.0
 11
54.15796450846161
 21
51.13317940709232
 31
0.0
  0
LINE
  5
62A
330
535
100
AcDbEntity
  8
Dimension (ANSI)
100
AcDbLine
 10
48.9755084417447
 20
50.61317940709233
 30
0.0
 11
54.15796450846161
 21
50.61317940709233
 31
0.0
  0
LINE
  5
62B
330
535
100
AcDbEntity
  8
Dimension (ANSI)
100
AcDbLine
 10
53.42267039081455
 20
51.71215114015753
 30
0.0
 11
53.42267039081455
 21
52.29112287322275
 31
0.0
  0
LINE
  5
62C
330
535
100
AcDbEntity
  8
Dimension (ANSI)
100
AcDbLine
 10
53.42267039081455
 20
50.03420767402712
 30
0.0
 11
53.42267039081455
 21
48.92667392678479
 31
0.0
  0
LINE
  5
62D
330
535
100
AcDbEntity
  8
Dimension (ANSI)
100
AcDbLine
 10
53.42267039081455
 20
48.92667392678479
 30
0.0
 11
52.84369865774934
 21
48.92667392678479
 31
0.0
  0
SOLID
  5
62E
330
535
100
AcDbEntity
  8
Dimension (ANSI)
100
AcDbTrace
 10
53.32617510197035
 20
51.71215114015753
 30
0.0
 11
53.51916567965876
 21
51.71215114015753
 31
0.0
 12
53.42267039081455
 22
51.13317940709232
 32
0.0
 13
53.42267039081455
 23
51.13317940709232
 33
0.0
  0
SOLID
  5
62F
330
535
100
AcDbEntity
  8
Dimension (ANSI)
100
AcDbTrace
 10
53.32617510197035
 20
50.03420767402712
 30
0.0
 11
53.51916567965876
 21
50.03420767402712
 31
0.0
 12
53.42267039081455
 22
50.61317940709233
 32
0.0
 13
53.42267039081455
 23
50.61317940709233
 33
0.0
  0
MTEXT
  5
630
330
535
100
AcDbEntity
  8
Dimension (ANSI)
100
AcDbMText
 10
50.85650766529543
 20
49.29431112386879
 30
0.0
 40
0.705882380990421
 41
0.0
 71
     1
 72
     1
  1
\A1;0.52
  7
Note Text (ANSI)
 73
     1
 44
1.0
1001
ACAD
1000
MTEXTBEGIN
1070
    73
1070
     1
1070
    44
1040
1.0
1070
    74
1070
     0
1000
MTEXTEND
  0
POINT
  5
631
330
535
100
AcDbEntity
  8
Defpoints
 62
     0
100
AcDbPoint
 10
48.62786138292118
 20
51.13317940709232
 30
0.0
  0
POINT
  5
632
330
535
100
AcDbEntity
  8
Defpoints
 62
     0
100
AcDbPoint
 10
48.60786138292117
 20
50.61317940709233
 30
0.0
  0
POINT
  5
633
330
535
100
AcDbEntity
  8
Defpoints
 62
     0
100
AcDbPoint
 10
53.42267039081455
 20
50.61317940709233
 30
0.0
  0
ENDBLK
  5
537
330
535
100
AcDbEntity
  8
0
100
AcDbBlockEnd
  0
BLOCK
  5
636
330
635
100
AcDbEntity
  8
0
100
AcDbBlockBegin
  2
*D8
 70
     1
 10
0.0
 20
0.0
 30
0.0
  3
*D8
  1

  0
LINE
  5
714
330
635
100
AcDbEntity
  8
Dimension (ANSI)
100
AcDbLine
 10
49.12786138292117
 20
51.00082646591585
 30
0.0
 11
49.12786138292117
 21
56.38784360347952
 31
0.0
  0
LINE
  5
715
330
635
100
AcDbEntity
  8
Dimension (ANSI)
100
AcDbLine
 10
48.60786138292117
 20
50.98082646591585
 30
0.0
 11
48.60786138292117
 21
56.38784360347952
 31
0.0
  0
LINE
  5
716
330
635
100
AcDbEntity
  8
Dimension (ANSI)
100
AcDbLine
 10
48.02888964985596
 20
55.65254948583246
 30
0.0
 11
47.44991791679074
 21
55.65254948583246
 31
0.0
  0
LINE
  5
717
330
635
100
AcDbEntity
  8
Dimension (ANSI)
100
AcDbLine
 10
49.70683311598638
 20
55.65254948583246
 30
0.0
 11
50.58875171202922
 21
55.65254948583246
 31
0.0
  0
SOLID
  5
718
330
635
100
AcDbEntity
  8
Dimension (ANSI)
100
AcDbTrace
 10
48.02888964985596
 20
55.74904477467667
 30
0.0
 11
48.02888964985596
 21
55.55605419698826
 31
0.0
 12
48.60786138292117
 22
55.65254948583246
 32
0.0
 13
48.60786138292117
 23
55.65254948583246
 33
0.0
  0
SOLID
  5
719
330
635
100
AcDbEntity
  8
Dimension (ANSI)
100
AcDbTrace
 10
49.70683311598638
 20
55.74904477467667
 30
0.0
 11
49.70683311598638
 21
55.55605419698826
 31
0.0
 12
49.12786138292117
 22
55.65254948583246
 32
0.0
 13
49.12786138292117
 23
55.65254948583246
 33
0.0
  0
MTEXT
  5
71A
330
635
100
AcDbEntity
  8
Dimension (ANSI)
100
AcDbMText
 10
50.77402267080643
 20
56.02018668291646
 30
0.0
 40
0.705882380990421
 41
0.0
 71
     1
 72
     1
  1
\A1;0.52
  7
Note Text (ANSI)
 73
     1
 44
1.0
1001
ACAD
1000
MTEXTBEGIN
1070
    73
1070
     1
1070
    44
1040
1.0
1070
    74
1070
     0
1000
MTEXTEND
  0
POINT
  5
71B
330
635
100
AcDbEntity
  8
Defpoints
 62
     0
100
AcDbPoint
 10
49.12786138292117
 20
50.63317940709232
 30
0.0
  0
POINT
  5
71C
330
635
100
AcDbEntity
  8
Defpoints
 62
     0
100
AcDbPoint
 10
48.60786138292117
 20
50.61317940709233
 30
0.0
  0
POINT
  5
71D
330
635
100
AcDbEntity
  8
Defpoints
 62
     0
100
AcDbPoint
 10
48.60786138292117
 20
55.65254948583246
 30
0.0
  0
ENDBLK
  5
637
330
635
100
AcDbEntity
  8
0
100
AcDbBlockEnd
  0
BLOCK
  5
720
330
71F
100
AcDbEntity
  8
0
100
AcDbBlockBegin
  2
*D9
 70
     1
 10
0.0
 20
0.0
 30
0.0
  3
*D9
  1

  0
LINE
  5
7FE
330
71F
100
AcDbEntity
  8
Dimension (ANSI)
100
AcDbLine
 10
15.08021432409766
 20
17.45317940709232
 30
0.0
 11
10.09619714095871
 21
17.45317940709232
 31
0.0
  0
LINE
  5
7FF
330
71F
100
AcDbEntity
  8
Dimension (ANSI)
100
AcDbLine
 10
15.08021432409766
 20
34.03317940709232
 30
0.0
 11
10.09619714095871
 21
34.03317940709232
 31
0.0
  0
LINE
  5
800
330
71F
100
AcDbEntity
  8
Dimension (ANSI)
100
AcDbLine
 10
10.83149125860577
 20
18.03215114015754
 30
0.0
 11
10.83149125860577
 21
25.1888490570451
 31
0.0
  0
LINE
  5
801
330
71F
100
AcDbEntity
  8
Dimension (ANSI)
100
AcDbLine
 10
10.83149125860577
 20
33.45420767402711
 30
0.0
 11
10.83149125860577
 21
26.29750975713954
 31
0.0
  0
SOLID
  5
802
330
71F
100
AcDbEntity
  8
Dimension (ANSI)
100
AcDbTrace
 10
10.73499596976156
 20
18.03215114015754
 30
0.0
 11
10.92798654744997
 21
18.03215114015754
 31
0.0
 12
10.83149125860577
 22
17.45317940709232
 32
0.0
 13
10.83149125860577
 23
17.45317940709232
 33
0.0
  0
SOLID
  5
803
330
71F
100
AcDbEntity
  8
Dimension (ANSI)
100
AcDbTrace
 10
10.73499596976157
 20
33.45420767402711
 30
0.0
 11
10.92798654744997
 21
33.45420767402711
 31
0.0
 12
10.83149125860577
 22
34.03317940709232
 32
0.0
 13
10.83149125860577
 23
34.03317940709232
 33
0.0
  0
MTEXT
  5
804
330
71F
100
AcDbEntity
  8
Dimension (ANSI)
100
AcDbMText
 10
9.432763276663365
 20
26.11223879836233
 30
0.0
 40
0.705882380990421
 41
0.0
 71
     1
 72
     1
  1
\A1;16.580
  7
Note Text (ANSI)
 73
     1
 44
1.0
1001
ACAD
1000
MTEXTBEGIN
1070
    73
1070
     1
1070
    44
1040
1.0
1070
    74
1070
     0
1000
MTEXTEND
  0
POINT
  5
805
330
71F
100
AcDbEntity
  8
Defpoints
 62
     0
100
AcDbPoint
 10
15.44786138292118
 20
17.45317940709232
 30
0.0
  0
POINT
  5
806
330
71F
100
AcDbEntity
  8
Defpoints
 62
     0
100
AcDbPoint
 10
15.44786138292118
 20
34.03317940709232
 30
0.0
  0
POINT
  5
807
330
71F
100
AcDbEntity
  8
Defpoints
 62
     0
100
AcDbPoint
 10
10.83149125860577
 20
34.03317940709232
 30
0.0
  0
ENDBLK
  5
721
330
71F
100
AcDbEntity
  8
0
100
AcDbBlockEnd
  0
BLOCK
  5
80A
330
809
100
AcDbEntity
  8
0
100
AcDbBlockBegin
  2
*D10
 70
     1
 10
0.0
 20
0.0
 30
0.0
  3
*D10
  1

  0
LINE
  5
8E8
330
809
100
AcDbEntity
  8
Dimension (ANSI)
100
AcDbLine
 10
15.08021432409766
 20
17.45317940709232
 30
0.0
 11
6.52774026915597
 21
17.45317940709233
 31
0.0
  0
LINE
  5
8E9
330
809
100
AcDbEntity
  8
Dimension (ANSI)
100
AcDbLine
 10
15.08021432409766
 20
50.61317940709231
 30
0.0
 11
6.527740269155978
 21
50.61317940709231
 31
0.0
  0
LINE
  5
8EA
330
809
100
AcDbEntity
  8
Dimension (ANSI)
100
AcDbLine
 10
7.263034386803028
 20
18.03215114015754
 30
0.0
 11
7.263034386803031
 21
33.48027125123111
 31
0.0
  0
LINE
  5
8EB
330
809
100
AcDbEntity
  8
Dimension (ANSI)
100
AcDbLine
 10
7.263034386803036
 20
50.0342076740271
 30
0.0
 11
7.263034386803032
 21
34.58608756295353
 31
0.0
  0
SOLID
  5
8EC
330
809
100
AcDbEntity
  8
Dimension (ANSI)
100
AcDbTrace
 10
7.166539097958827
 20
18.03215114015754
 30
0.0
 11
7.35952967564723
 21
18.03215114015754
 31
0.0
 12
7.263034386803028
 22
17.45317940709233
 32
0.0
 13
7.263034386803028
 23
17.45317940709233
 33
0.0
  0
SOLID
  5
8ED
330
809
100
AcDbEntity
  8
Dimension (ANSI)
100
AcDbTrace
 10
7.166539097958834
 20
50.0342076740271
 30
0.0
 11
7.359529675647237
 21
50.0342076740271
 31
0.0
 12
7.263034386803036
 22
50.61317940709231
 32
0.0
 13
7.263034386803036
 23
50.61317940709231
 33
0.0
  0
MTEXT
  5
8EE
330
809
100
AcDbEntity
  8
Dimension (ANSI)
100
AcDbMText
 10
5.833729229861374
 20
34.40081660417631
 30
0.0
 40
0.705882380990421
 41
0.0
 71
     1
 72
     1
  1
\A1;33.160
  7
Note Text (ANSI)
 73
     1
 44
1.0
1001
ACAD
1000
MTEXTBEGIN
1070
    73
1070
     1
1070
    44
1040
1.0
1070
    74
1070
     0
1000
MTEXTEND
  0
POINT
  5
8EF
330
809
100
AcDbEntity
  8
Defpoints
 62
     0
100
AcDbPoint
 10
15.44786138292118
 20
17.45317940709232
 30
0.0
  0
POINT
  5
8F0
330
809
100
AcDbEntity
  8
Defpoints
 62
     0
100
AcDbPoint
 10
15.44786138292118
 20
50.61317940709231
 30
0.0
  0
POINT
  5
8F1
330
809
100
AcDbEntity
  8
Defpoints
 62
     0
100
AcDbPoint
 10
7.263034386803036
 20
50.61317940709231
 30
0.0
  0
ENDBLK
  5
80B
330
809
100
AcDbEntity
  8
0
100
AcDbBlockEnd
  0
BLOCK
  5
8F4
330
8F3
100
AcDbEntity
  8
0
100
AcDbBlockBegin
  2
*D11
 70
     1
 10
0.0
 20
0.0
 30
0.0
  3
*D11
  1

  0
LINE
  5
9D2
330
8F3
100
AcDbEntity
  8
Dimension (ANSI)
100
AcDbLine
 10
62.50172914080822
 20
51.50082646591584
 30
0.0
 11
62.50172914080822
 21
54.87488297355827
 31
0.0
  0
LINE
  5
9D3
330
8F3
100
AcDbEntity
  8
Dimension (ANSI)
100
AcDbLine
 10
63.27572914080837
 20
49.78282646591585
 30
0.0
 11
63.27572914080837
 21
54.87488297355827
 31
0.0
  0
LINE
  5
9D4
330
8F3
100
AcDbEntity
  8
Dimension (ANSI)
100
AcDbLine
 10
63.85470087387358
 20
54.13958885591122
 30
0.0
 11
64.4336726069388
 21
54.13958885591122
 31
0.0
  0
LINE
  5
9D5
330
8F3
100
AcDbEntity
  8
Dimension (ANSI)
100
AcDbLine
 10
61.92275740774301
 20
54.13958885591122
 30
0.0
 11
61.04463132952954
 21
54.13958885591122
 31
0.0
  0
SOLID
  5
9D6
330
8F3
100
AcDbEntity
  8
Dimension (ANSI)
100
AcDbTrace
 10
63.85470087387358
 20
54.23608414475542
 30
0.0
 11
63.85470087387358
 21
54.04309356706701
 31
0.0
 12
63.27572914080837
 22
54.13958885591122
 32
0.0
 13
63.27572914080837
 23
54.13958885591122
 33
0.0
  0
SOLID
  5
9D7
330
8F3
100
AcDbEntity
  8
Dimension (ANSI)
100
AcDbTrace
 10
61.92275740774301
 20
54.23608414475542
 30
0.0
 11
61.92275740774301
 21
54.04309356706701
 31
0.0
 12
62.50172914080822
 22
54.13958885591122
 32
0.0
 13
62.50172914080822
 23
54.13958885591122
 33
0.0
  0
MTEXT
  5
9D8
330
8F3
100
AcDbEntity
  8
Dimension (ANSI)
100
AcDbMText
 10
59.04985530141691
 20
54.50698902063088
 30
0.0
 40
0.705882380990421
 41
0.0
 71
     1
 72
     1
  1
\A1;0.77
  7
Note Text (ANSI)
 73
     1
 44
1.0
1001
ACAD
1000
MTEXTBEGIN
1070
    73
1070
     1
1070
    44
1040
1.0
1070
    74
1070
     0
1000
MTEXTEND
  0
POINT
  5
9D9
330
8F3
100
AcDbEntity
  8
Defpoints
 62
     0
100
AcDbPoint
 10
62.50172914080822
 20
51.13317940709232
 30
0.0
  0
POINT
  5
9DA
330
8F3
100
AcDbEntity
  8
Defpoints
 62
     0
100
AcDbPoint
 10
63.27572914080837
 20
49.41517940709232
 30
0.0
  0
POINT
  5
9DB
330
8F3
100
AcDbEntity
  8
Defpoints
 62
     0
100
AcDbPoint
 10
63.27572914080837
 20
54.13958885591122
 30
0.0
  0
ENDBLK
  5
8F5
330
8F3
100
AcDbEntity
  8
0
100
AcDbBlockEnd
  0
BLOCK
  5
9E0
330
9DF
100
AcDbEntity
  8
0
100
AcDbBlockBegin
  2
*D12
 70
     1
 10
0.0
 20
0.0
 30
0.0
  3
*D12
  1

  0
LINE
  5
AD3
330
9DF
100
AcDbEntity
  8
Dimension (ANSI)
100
AcDbLine
 10
48.99550844174471
 20
16.93317940709232
 30
0.0
 11
52.67954878650852
 21
16.93317940709232
 31
0.0
  0
LINE
  5
AD4
330
9DF
100
AcDbEntity
  8
Dimension (ANSI)
100
AcDbLine
 10
49.49550844174471
 20
17.43317940709232
 30
0.0
 11
52.67954878650852
 21
17.43317940709232
 31
0.0
  0
LINE
  5
AD5
330
9DF
100
AcDbEntity
  8
Dimension (ANSI)
100
AcDbLine
 10
51.94425466886146
 20
16.35420767402711
 30
0.0
 11
51.94425466886145
 21
15.7752359409619
 31
0.0
  0
LINE
  5
AD6
330
9DF
100
AcDbEntity
  8
Dimension (ANSI)
100
AcDbLine
 10
51.94425466886146
 20
18.01215114015753
 30
0.0
 11
51.94425466886146
 21
19.11925586647357
 31
0.0
  0
LINE
  5
AD7
330
9DF
100
AcDbEntity
  8
Dimension (ANSI)
100
AcDbLine
 10
51.94425466886146
 20
19.11925586647357
 30
0.0
 11
52.52322640192667
 21
19.11925586647357
 31
0.0
  0
SOLID
  5
AD8
330
9DF
100
AcDbEntity
  8
Dimension (ANSI)
100
AcDbTrace
 10
51.84775938001726
 20
16.35420767402711
 30
0.0
 11
52.04074995770566
 21
16.35420767402711
 31
0.0
 12
51.94425466886146
 22
16.93317940709232
 32
0.0
 13
51.94425466886146
 23
16.93317940709232
 33
0.0
  0
SOLID
  5
AD9
330
9DF
100
AcDbEntity
  8
Dimension (ANSI)
100
AcDbTrace
 10
51.84775938001726
 20
18.01215114015753
 30
0.0
 11
52.04074995770566
 21
18.01215114015753
 31
0.0
 12
51.94425466886146
 22
17.43317940709232
 32
0.0
 13
51.94425466886146
 23
17.43317940709232
 33
0.0
  0
MTEXT
  5
ADA
330
9DF
100
AcDbEntity
  8
Dimension (ANSI)
100
AcDbMText
 10
52.70849736070388
 20
19.48665603119324
 30
0.0
 40
0.705882380990421
 41
0.0
 71
     1
 72
     1
  1
\A1;0.50
  7
Note Text (ANSI)
 73
     1
 44
1.0
1001
ACAD
1000
MTEXTBEGIN
1070
    73
1070
     1
1070
    44
1040
1.0
1070
    74
1070
     0
1000
MTEXTEND
  0
POINT
  5
ADB
330
9DF
100
AcDbEntity
  8
Defpoints
 62
     0
100
AcDbPoint
 10
48.62786138292118
 20
16.93317940709232
 30
0.0
  0
POINT
  5
ADC
330
9DF
100
AcDbEntity
  8
Defpoints
 62
     0
100
AcDbPoint
 10
49.12786138292118
 20
17.43317940709232
 30
0.0
  0
POINT
  5
ADD
330
9DF
100
AcDbEntity
  8
Defpoints
 62
     0
100
AcDbPoint
 10
51.94425466886146
 20
17.43317940709232
 30
0.0
  0
ENDBLK
  5
9E1
330
9DF
100
AcDbEntity
  8
0
100
AcDbBlockEnd
  0
BLOCK
  5
AE0
330
ADF
100
AcDbEntity
  8
0
100
AcDbBlockBegin
  2
*D13
 70
     1
 10
0.0
 20
0.0
 30
0.0
  3
*D13
  1

  0
LINE
  5
BBE
330
ADF
100
AcDbEntity
  8
Dimension (ANSI)
100
AcDbLine
 10
49.12786138292118
 20
17.06553234826879
 30
0.0
 11
49.12786138292118
 21
12.26087741542952
 31
0.0
  0
LINE
  5
BBF
330
ADF
100
AcDbEntity
  8
Dimension (ANSI)
100
AcDbLine
 10
48.62786138292118
 20
16.56553234826879
 30
0.0
 11
48.62786138292118
 21
12.26087741542952
 31
0.0
  0
LINE
  5
BC0
330
ADF
100
AcDbEntity
  8
Dimension (ANSI)
100
AcDbLine
 10
49.70683311598639
 20
12.99617153307658
 30
0.0
 11
50.28580484905161
 21
12.99617153307658
 31
0.0
  0
LINE
  5
BC1
330
ADF
100
AcDbEntity
  8
Dimension (ANSI)
100
AcDbLine
 10
48.04888964985597
 20
12.99617153307658
 30
0.0
 11
47.16863028036348
 21
12.99617153307658
 31
0.0
  0
SOLID
  5
BC2
330
ADF
100
AcDbEntity
  8
Dimension (ANSI)
100
AcDbTrace
 10
49.70683311598639
 20
13.09266682192078
 30
0.0
 11
49.70683311598639
 21
12.89967624423238
 31
0.0
 12
49.12786138292118
 22
12.99617153307658
 32
0.0
 13
49.12786138292118
 23
12.99617153307658
 33
0.0
  0
SOLID
  5
BC3
330
ADF
100
AcDbEntity
  8
Dimension (ANSI)
100
AcDbTrace
 10
48.04888964985597
 20
13.09266682192078
 30
0.0
 11
48.04888964985597
 21
12.89967624423238
 31
0.0
 12
48.62786138292118
 22
12.99617153307658
 32
0.0
 13
48.62786138292118
 23
12.99617153307658
 33
0.0
  0
MTEXT
  5
BC4
330
ADF
100
AcDbEntity
  8
Dimension (ANSI)
100
AcDbMText
 10
45.17812083480889
 20
13.36357169779624
 30
0.0
 40
0.705882380990421
 41
0.0
 71
     1
 72
     1
  1
\A1;0.50
  7
Note Text (ANSI)
 73
     1
 44
1.0
1001
ACAD
1000
MTEXTBEGIN
1070
    73
1070
     1
1070
    44
1040
1.0
1070
    74
1070
     0
1000
MTEXTEND
  0
POINT
  5
BC5
330
ADF
100
AcDbEntity
  8
Defpoints
 62
     0
100
AcDbPoint
 10
49.12786138292118
 20
17.43317940709232
 30
0.0
  0
POINT
  5
BC6
330
ADF
100
AcDbEntity
  8
Defpoints
 62
     0
100
AcDbPoint
 10
48.62786138292118
 20
16.93317940709232
 30
0.0
  0
POINT
  5
BC7
330
ADF
100
AcDbEntity
  8
Defpoints
 62
     0
100
AcDbPoint
 10
48.62786138292118
 20
12.99617153307658
 30
0.0
  0
ENDBLK
  5
AE1
330
ADF
100
AcDbEntity
  8
0
100
AcDbBlockEnd
  0
BLOCK
  5
BCA
330
BC9
100
AcDbEntity
  8
0
100
AcDbBlockBegin
  2
*D14
 70
     1
 10
0.0
 20
0.0
 30
0.0
  3
*D14
  1

  0
LINE
  5
C7A
330
BC9
100
AcDbEntity
  8
Dimension (ANSI)
100
AcDbLine
 10
10.50786081661334
 20
57.92157387576487
 30
0.0
 11
11.22835786908698
 21
57.92157387576487
 31
0.0
  0
LINE
  5
C7B
330
BC9
100
AcDbEntity
  8
Dimension (ANSI)
100
AcDbLine
 10
11.22835786908698
 20
57.92157387576487
 30
0.0
 11
15.03337551638844
 21
51.33108998694591
 31
0.0
  0
MTEXT
  5
C7C
102
{ACAD_XDICTIONARY
360
F5B
102
}
330
BC9
100
AcDbEntity
  8
Dimension (ANSI)
100
AcDbMText
 10
10.32258985783613
 20
58.45983486977621
 30
0.0
 40
0.705882380990421
 41
0.0
 71
     3
 72
     1
  1
\A1;\U+22050.50{\PTYP.(8PL.)}
  7
Note Text (ANSI)
 73
     1
 44
1.0
1001
ACAD
1000
MTEXTBEGIN
1070
    73
1070
     1
1070
    44
1040
1.0
1070
    74
1070
     0
1000
MTEXTEND
  0
SOLID
  5
C7D
330
BC9
100
AcDbEntity
  8
Dimension (ANSI)
100
AcDbTrace
 10
15.11694288787303
 20
51.37933763136803
 30
0.0
 11
14.94980814490385
 21
51.2828423425238
 31
0.0
 12
15.32286138292115
 22
50.82968575803839
 32
0.0
 13
15.32286138292115
 23
50.82968575803839
 33
0.0
  0
LINE
  5
C7E
330
BC9
100
AcDbEntity
  8
Dimension (ANSI)
100
AcDbLine
 10
14.91844961821532
 20
50.61317940709232
 30
0.0
 11
15.97727314762707
 21
50.61317940709232
 31
0.0
  0
LINE
  5
C7F
330
BC9
100
AcDbEntity
  8
Dimension (ANSI)
100
AcDbLine
 10
15.4478613829212
 20
50.08376764238644
 30
0.0
 11
15.4478613829212
 21
51.1425911717982
 31
0.0
  0
POINT
  5
C80
330
BC9
100
AcDbEntity
  8
Defpoints
 62
     0
100
AcDbPoint
 10
15.32286138292115
 20
50.82968575803839
 30
0.0
  0
POINT
  5
C81
330
BC9
100
AcDbEntity
  8
Defpoints
 62
     0
100
AcDbPoint
 10
15.57286138292124
 20
50.39667305614624
 30
0.0
  0
ENDBLK
  5
BCB
330
BC9
100
AcDbEntity
  8
0
100
AcDbBlockEnd
  0
BLOCK
  5
C84
330
C83
100
AcDbEntity
  8
0
100
AcDbBlockBegin
  2
*D15
 70
     1
 10
0.0
 20
0.0
 30
0.0
  3
*D15
  1

  0
LINE
  5
D33
330
C83
100
AcDbEntity
  8
Dimension (ANSI)
100
AcDbLine
 10
17.86730020832478
 20
14.07531933862062
 30
0.0
 11
17.1469164750783
 21
14.07531933862062
 31
0.0
  0
LINE
  5
D34
330
C83
100
AcDbEntity
  8
Dimension (ANSI)
100
AcDbLine
 10
17.1469164750783
 20
14.07531933862062
 30
0.0
 11
15.72770509287272
 21
17.52329817130774
 31
0.0
  0
MTEXT
  5
D35
102
{ACAD_XDICTIONARY
360
F5D
102
}
330
C83
100
AcDbEntity
  8
Dimension (ANSI)
100
AcDbMText
 10
18.05257116710199
 20
14.61358033263195
 30
0.0
 40
0.705882380990421
 41
0.0
 71
     1
 72
     1
  1
\A1;\U+22050.31{\PTYP. (4PL.)}
  7
Note Text (ANSI)
 73
     1
 44
1.0
1001
ACAD
1000
MTEXTBEGIN
1070
    73
1070
     1
1070
    44
1040
1.0
1070
    74
1070
     0
1000
MTEXTEND
  0
SOLID
  5
D36
330
C83
100
AcDbEntity
  8
Dimension (ANSI)
100
AcDbTrace
 10
15.81693713441381
 20
17.560026682461
 30
0.0
 11
15.63847305133163
 21
17.48656966015448
 31
0.0
 12
15.50733402595315
 22
18.05869042055428
 32
0.0
 13
15.50733402595315
 23
18.05869042055428
 33
0.0
  0
LINE
  5
D37
330
C83
100
AcDbEntity
  8
Dimension (ANSI)
100
AcDbLine
 10
14.91844961821531
 20
18.20317940709233
 30
0.0
 11
15.97727314762708
 21
18.20317940709233
 31
0.0
  0
LINE
  5
D38
330
C83
100
AcDbEntity
  8
Dimension (ANSI)
100
AcDbLine
 10
15.44786138292119
 20
17.67376764238644
 30
0.0
 11
15.44786138292119
 21
18.73259117179821
 31
0.0
  0
POINT
  5
D39
330
C83
100
AcDbEntity
  8
Defpoints
 62
     0
100
AcDbPoint
 10
15.50733402595315
 20
18.05869042055428
 30
0.0
  0
POINT
  5
D3A
330
C83
100
AcDbEntity
  8
Defpoints
 62
     0
100
AcDbPoint
 10
15.38838873988924
 20
18.34766839363038
 30
0.0
  0
ENDBLK
  5
C85
330
C83
100
AcDbEntity
  8
0
100
AcDbBlockEnd
  0
BLOCK
  5
D3D
330
D3C
100
AcDbEntity
  8
0
100
AcDbBlockBegin
  2
*D16
 70
     1
 10
0.0
 20
0.0
 30
0.0
  3
*D16
  1

  0
LINE
  5
E1B
330
D3C
100
AcDbEntity
  8
Dimension (ANSI)
100
AcDbLine
 10
48.60786138292117
 20
50.98082646591585
 30
0.0
 11
48.60786138292117
 21
56.38784360347951
 31
0.0
  0
LINE
  5
E1C
330
D3C
100
AcDbEntity
  8
Dimension (ANSI)
100
AcDbLine
 10
15.44786138292118
 20
50.98082646591584
 30
0.0
 11
15.44786138292118
 21
56.38784360347951
 31
0.0
  0
LINE
  5
E1D
330
D3C
100
AcDbEntity
  8
Dimension (ANSI)
100
AcDbLine
 10
48.02888964985596
 20
55.65254948583246
 30
0.0
 11
33.64243749864004
 21
55.65254948583246
 31
0.0
  0
LINE
  5
E1E
330
D3C
100
AcDbEntity
  8
Dimension (ANSI)
100
AcDbLine
 10
16.0268331159864
 20
55.65254948583246
 30
0.0
 11
30.41328526720231
 21
55.65254948583246
 31
0.0
  0
SOLID
  5
E1F
330
D3C
100
AcDbEntity
  8
Dimension (ANSI)
100
AcDbTrace
 10
48.02888964985596
 20
55.74904477467666
 30
0.0
 11
48.02888964985596
 21
55.55605419698825
 31
0.0
 12
48.60786138292117
 22
55.65254948583246
 32
0.0
 13
48.60786138292117
 23
55.65254948583246
 33
0.0
  0
SOLID
  5
E20
330
D3C
100
AcDbEntity
  8
Dimension (ANSI)
100
AcDbTrace
 10
16.0268331159864
 20
55.74904477467666
 30
0.0
 11
16.0268331159864
 21
55.55605419698825
 31
0.0
 12
15.44786138292118
 22
55.65254948583246
 32
0.0
 13
15.44786138292118
 23
55.65254948583246
 33
0.0
  0
MTEXT
  5
E21
330
D3C
100
AcDbEntity
  8
Dimension (ANSI)
100
AcDbMText
 10
30.59855622597952
 20
56.02018668291645
 30
0.0
 40
0.705882380990421
 41
0.0
 71
     1
 72
     1
  1
\A1;33.160
  7
Note Text (ANSI)
 73
     1
 44
1.0
1001
ACAD
1000
MTEXTBEGIN
1070
    73
1070
     1
1070
    44
1040
1.0
1070
    74
1070
     0
1000
MTEXTEND
  0
POINT
  5
E22
330
D3C
100
AcDbEntity
  8
Defpoints
 62
     0
100
AcDbPoint
 10
48.60786138292117
 20
50.61317940709233
 30
0.0
  0
POINT
  5
E23
330
D3C
100
AcDbEntity
  8
Defpoints
 62
     0
100
AcDbPoint
 10
15.44786138292118
 20
50.61317940709231
 30
0.0
  0
POINT
  5
E24
330
D3C
100
AcDbEntity
  8
Defpoints
 62
     0
100
AcDbPoint
 10
15.44786138292118
 20
55.65254948583246
 30
0.0
  0
ENDBLK
  5
D3E
330
D3C
100
AcDbEntity
  8
0
100
AcDbBlockEnd
  0
BLOCK
  5
E27
330
E26
100
AcDbEntity
  8
0
100
AcDbBlockBegin
  2
*D17
 70
     1
 10
0.0
 20
0.0
 30
0.0
  3
*D17
  1

  0
LINE
  5
F05
330
E26
100
AcDbEntity
  8
Dimension (ANSI)
100
AcDbLine
 10
48.60786138292117
 20
50.98082646591585
 30
0.0
 11
48.60786138292117
 21
54.13385712596357
 31
0.0
  0
LINE
  5
F06
330
E26
100
AcDbEntity
  8
Dimension (ANSI)
100
AcDbLine
 10
32.02786138292117
 20
50.98082646591584
 30
0.0
 11
32.02786138292117
 21
54.13385712596357
 31
0.0
  0
LINE
  5
F07
330
E26
100
AcDbEntity
  8
Dimension (ANSI)
100
AcDbLine
 10
48.02888964985596
 20
53.39856300831652
 30
0.0
 11
41.63899143159297
 21
53.39856300831652
 31
0.0
  0
LINE
  5
F08
330
E26
100
AcDbEntity
  8
Dimension (ANSI)
100
AcDbLine
 10
32.60683311598639
 20
53.39856300831652
 30
0.0
 11
38.99673133424937
 21
53.39856300831652
 31
0.0
  0
SOLID
  5
F09
330
E26
100
AcDbEntity
  8
Dimension (ANSI)
100
AcDbTrace
 10
48.02888964985596
 20
53.49505829716072
 30
0.0
 11
48.02888964985596
 21
53.30206771947231
 31
0.0
 12
48.60786138292117
 22
53.39856300831652
 32
0.0
 13
48.60786138292117
 23
53.39856300831652
 33
0.0
  0
SOLID
  5
F0A
330
E26
100
AcDbEntity
  8
Dimension (ANSI)
100
AcDbTrace
 10
32.60683311598639
 20
53.49505829716072
 30
0.0
 11
32.60683311598639
 21
53.30206771947231
 31
0.0
 12
32.02786138292117
 22
53.39856300831652
 32
0.0
 13
32.02786138292117
 23
53.39856300831652
 33
0.0
  0
MTEXT
  5
F0B
330
E26
100
AcDbEntity
  8
Dimension (ANSI)
100
AcDbMText
 10
39.18200229302658
 20
53.76762239958652
 30
0.0
 40
0.705882380990421
 41
0.0
 71
     1
 72
     1
  1
\A1;16.58
  7
Note Text (ANSI)
 73
     1
 44
1.0
1001
ACAD
1000
MTEXTBEGIN
1070
    73
1070
     1
1070
    44
1040
1.0
1070
    74
1070
     0
1000
MTEXTEND
  0
POINT
  5
F0C
330
E26
100
AcDbEntity
  8
Defpoints
 62
     0
100
AcDbPoint
 10
48.60786138292117
 20
50.61317940709233
 30
0.0
  0
POINT
  5
F0D
330
E26
100
AcDbEntity
  8
Defpoints
 62
     0
100
AcDbPoint
 10
32.02786138292117
 20
50.61317940709231
 30
0.0
  0
POINT
  5
F0E
330
E26
100
AcDbEntity
  8
Defpoints
 62
     0
100
AcDbPoint
 10
32.02786138292117
 20
53.39856300831652
 30
0.0
  0
ENDBLK
  5
E28
330
E26
100
AcDbEntity
  8
0
100
AcDbBlockEnd
  0
ENDSEC
  0
SECTION
  2
ENTITIES
  0
MTEXT
  5
74
330
6C
100
AcDbEntity
  8
Symbol (ANSI)
100
AcDbMText
 10
58.81136110734222
 20
14.64601986066009
 30
0.0
 40
0.8338235560226571
 41
30.7822094851481
 71
     1
 72
     1
  1
{\fRomanS|b0|i0|c0|p2;PART#: NP3636C\P(DATA SUBJECT TO CHANGE WITHOUT NOTICE)\PTHIS DRAWING AND COMPONENTS OF ARE\PPROPERTY OF HUBBELL INC. WIEGMANN\P }
  7
Note Text (ANSI)
 73
     2
 44
1.093904256820678
1001
ACAD
1000
MTEXTBEGIN
1070
    73
1070
     2
1070
    44
1040
1.093904256820678
1070
    74
1070
     0
1000
MTEXTEND
  0
TEXT
  5
77
330
6C
100
AcDbEntity
  8
0
100
AcDbText
 10
87.36620831624861
 20
9.87039577039598
 30
0.0
 40
0.5797273377358895
  1
HUBBELL
  7
SANSSERIF
100
AcDbText
  0
POLYLINE
  5
79
330
6C
100
AcDbEntity
  8
0
100
AcDb2dPolyline
 66
     1
 10
0.0
 20
0.0
 30
0.0
  0
VERTEX
  5
7A
330
79
100
AcDbEntity
  8
0
100
AcDbVertex
100
AcDb2dVertex
 10
87.66656104582301
 20
9.583978010448991
 30
0.0
 42
0.0538548888021971
  0
VERTEX
  5
7B
330
79
100
AcDbEntity
  8
0
100
AcDbVertex
100
AcDb2dVertex
 10
87.87533021876683
 20
9.420464448524951
 30
0.0
 42
0.0762621633615686
 70
     2
 50
328.0963691854962
  0
VERTEX
  5
7C
330
79
100
AcDbEntity
  8
0
100
AcDbVertex
100
AcDb2dVertex
 10
88.38555049447908
 20
9.201978595606016
 30
0.0
 42
0.0631748622128167
 50
328.0963691854962
  0
VERTEX
  5
7D
330
79
100
AcDbEntity
  8
0
100
AcDbVertex
100
AcDb2dVertex
 10
89.04903038798222
 20
9.117812180416292
 30
0.0
 42
0.0631748622128144
  0
VERTEX
  5
7E
330
79
100
AcDbEntity
  8
0
100
AcDbVertex
100
AcDb2dVertex
 10
89.71251028148536
 20
9.201978595606016
 30
0.0
 42
0.0762621633615716
  0
VERTEX
  5
7F
330
79
100
AcDbEntity
  8
0
100
AcDbVertex
100
AcDb2dVertex
 10
90.22273055719757
 20
9.420464448524951
 30
0.0
 42
0.0538548888021992
 70
     2
 50
31.90363081450366
  0
VERTEX
  5
80
330
79
100
AcDbEntity
  8
0
100
AcDbVertex
100
AcDb2dVertex
 10
90.43149973014147
 20
9.583978010448991
 30
0.0
 42
0.1478388992712208
 50
31.90363081450366
  0
SEQEND
  5
81
330
79
100
AcDbEntity
  8
0
  0
POLYLINE
  5
82
330
6C
100
AcDbEntity
  8
0
100
AcDb2dPolyline
 66
     1
 10
0.0
 20
0.0
 30
0.0
  0
VERTEX
  5
83
330
82
100
AcDbEntity
  8
0
100
AcDbVertex
100
AcDb2dVertex
 10
88.04932656028375
 20
9.647148355813186
 30
0.0
 42
0.0708473647366734
  0
VERTEX
  5
84
330
82
100
AcDbEntity
  8
0
100
AcDbVertex
100
AcDb2dVertex
 10
88.23858436716243
 20
9.420464448524951
 30
0.0
 42
0.0943474025114784
 70
     2
 50
317.9633854595613
  0
VERTEX
  5
85
330
82
100
AcDbEntity
  8
0
100
AcDbVertex
100
AcDb2dVertex
 10
88.60509256852694
 20
9.197999602274943
 30
0.0
 42
0.0895889244631754
 50
317.9633854595613
  0
VERTEX
  5
86
330
82
100
AcDbEntity
  8
0
100
AcDbVertex
100
AcDb2dVertex
 10
89.04903038798222
 20
9.117812180416292
 30
0.0
 42
0.0895889244631755
  0
VERTEX
  5
87
330
82
100
AcDbEntity
  8
0
100
AcDbVertex
100
AcDb2dVertex
 10
89.49296820743752
 20
9.197999602274943
 30
0.0
 42
0.0943474025114826
  0
VERTEX
  5
88
330
82
100
AcDbEntity
  8
0
100
AcDbVertex
100
AcDb2dVertex
 10
89.85947640880203
 20
9.420464448524951
 30
0.0
 42
0.0708473647366705
 70
     2
 50
42.03661454043863
  0
VERTEX
  5
89
330
82
100
AcDbEntity
  8
0
100
AcDbVertex
100
AcDb2dVertex
 10
90.04873421568065
 20
9.647148355813186
 30
0.0
 42
0.1080871028423927
 50
42.03661454043863
  0
SEQEND
  5
8A
330
82
100
AcDbEntity
  8
0
  0
POLYLINE
  5
8B
330
6C
100
AcDbEntity
  8
0
100
AcDb2dPolyline
 66
     1
 10
0.0
 20
0.0
 30
0.0
  0
VERTEX
  5
8C
330
8B
100
AcDbEntity
  8
0
100
AcDbVertex
100
AcDb2dVertex
 10
90.42213054679761
 20
10.72731170217443
 30
0.0
 42
0.0512131062417871
  0
VERTEX
  5
8D
330
8B
100
AcDbEntity
  8
0
100
AcDbVertex
100
AcDb2dVertex
 10
90.22273055719757
 20
10.88179886922675
 30
0.0
 42
0.0762621633615678
 70
     2
 50
148.0963691854963
  0
VERTEX
  5
8E
330
8B
100
AcDbEntity
  8
0
100
AcDbVertex
100
AcDb2dVertex
 10
89.71251028148536
 20
11.10028472214568
 30
0.0
 42
0.0631748622128132
 50
148.0963691854963
  0
VERTEX
  5
8F
330
8B
100
AcDbEntity
  8
0
100
AcDbVertex
100
AcDb2dVertex
 10
89.04903038798222
 20
11.18445113733541
 30
0.0
 42
0.0631748622128155
  0
SEQEND
  5
90
330
8B
100
AcDbEntity
  8
0
  0
POLYLINE
  5
91
330
6C
100
AcDbEntity
  8
0
100
AcDb2dPolyline
 66
     1
 10
0.0
 20
0.0
 30
0.0
  0
VERTEX
  5
92
330
91
100
AcDbEntity
  8
0
100
AcDbVertex
100
AcDb2dVertex
 10
90.04408030582393
 20
10.66256458816414
 30
0.0
 42
0.0687403046083495
  0
VERTEX
  5
93
330
91
100
AcDbEntity
  8
0
100
AcDbVertex
100
AcDb2dVertex
 10
89.85947640880203
 20
10.88179886922675
 30
0.0
 42
0.0943474025114827
 70
     2
 50
137.9633854595613
  0
VERTEX
  5
94
330
91
100
AcDbEntity
  8
0
100
AcDbVertex
100
AcDb2dVertex
 10
89.49296820743752
 20
11.10426371547674
 30
0.0
 42
0.0895889244631755
 50
137.9633854595613
  0
VERTEX
  5
95
330
91
100
AcDbEntity
  8
0
100
AcDbVertex
100
AcDb2dVertex
 10
89.04903038798222
 20
11.18445113733541
 30
0.0
 42
0.0895889244631779
  0
SEQEND
  5
96
330
91
100
AcDbEntity
  8
0
  0
LINE
  5
97
330
6C
100
AcDbEntity
  8
0
100
AcDbLine
 10
91.25164185354419
 20
11.47269853821297
 30
0.0
 11
86.84641892242032
 21
11.47269853821297
 31
0.0
  0
LINE
  5
98
330
6C
100
AcDbEntity
  8
0
100
AcDbLine
 10
86.84641892242032
 20
8.829564779538698
 30
0.0
 11
91.25164185354419
 21
8.829564779538698
 31
0.0
  0
POLYLINE
  5
99
330
6C
100
AcDbEntity
  8
0
100
AcDb2dPolyline
 66
     1
 10
0.0
 20
0.0
 30
0.0
 70
     1
  0
VERTEX
  5
9A
330
99
100
AcDbEntity
  8
0
100
AcDbVertex
100
AcDb2dVertex
 10
86.84641892242032
 20
10.15113165887584
 30
0.0
 42
0.1828233251715505
  0
VERTEX
  5
9B
330
99
100
AcDbEntity
  8
0
100
AcDbVertex
100
AcDb2dVertex
 10
86.97695463832619
 20
9.80606452383625
 30
0.0
 42
0.1025674015815553
  0
VERTEX
  5
9C
330
99
100
AcDbEntity
  8
0
100
AcDbVertex
100
AcDb2dVertex
 10
87.49154888436416
 20
9.420464448525029
 30
0.0
 42
0.0617587255956112
 70
     2
 50
334.8671392208401
  0
VERTEX
  5
9D
330
99
100
AcDbEntity
  8
0
100
AcDbVertex
100
AcDb2dVertex
 10
88.1558444371611
 20
9.203790698262526
 30
0.0
 42
0.0480192641995976
 50
334.8671392208401
  0
VERTEX
  5
9E
330
99
100
AcDbEntity
  8
0
100
AcDbVertex
100
AcDb2dVertex
 10
89.04903038798222
 20
9.117812180416292
 30
0.0
 42
0.0480192641995965
  0
VERTEX
  5
9F
330
99
100
AcDbEntity
  8
0
100
AcDbVertex
100
AcDb2dVertex
 10
89.94221633880338
 20
9.203790698262526
 30
0.0
 42
0.0617587255956115
  0
VERTEX
  5
A0
330
99
100
AcDbEntity
  8
0
100
AcDbVertex
100
AcDb2dVertex
 10
90.60651189160033
 20
9.420464448525029
 30
0.0
 42
0.1025674015815654
 70
     2
 50
25.13286077915987
  0
VERTEX
  5
A1
330
99
100
AcDbEntity
  8
0
100
AcDbVertex
100
AcDb2dVertex
 10
91.12110613763814
 20
9.80606452383625
 30
0.0
 42
0.18282332517157
 50
25.13286077915987
  0
VERTEX
  5
A2
330
99
100
AcDbEntity
  8
0
100
AcDbVertex
100
AcDb2dVertex
 10
91.25164185354419
 20
10.15113165887584
 30
0.0
 42
0.1828233251715568
  0
VERTEX
  5
A3
330
99
100
AcDbEntity
  8
0
100
AcDbVertex
100
AcDb2dVertex
 10
91.12110613763814
 20
10.49619879391546
 30
0.0
 42
0.102567401581563
  0
VERTEX
  5
A4
330
99
100
AcDbEntity
  8
0
100
AcDbVertex
100
AcDb2dVertex
 10
90.60651189160033
 20
10.88179886922664
 30
0.0
 42
0.0617587255956141
 70
     2
 50
154.86713922084
  0
VERTEX
  5
A5
330
99
100
AcDbEntity
  8
0
100
AcDbVertex
100
AcDb2dVertex
 10
89.94221633880338
 20
11.09847261948917
 30
0.0
 42
0.0480192641995983
 50
154.86713922084
  0
VERTEX
  5
A6
330
99
100
AcDbEntity
  8
0
100
AcDbVertex
100
AcDb2dVertex
 10
89.04903038798222
 20
11.18445113733541
 30
0.0
 42
0.0480192641995976
  0
VERTEX
  5
A7
330
99
100
AcDbEntity
  8
0
100
AcDbVertex
100
AcDb2dVertex
 10
88.1558444371611
 20
11.09847261948917
 30
0.0
 42
0.0617587255956112
  0
VERTEX
  5
A8
330
99
100
AcDbEntity
  8
0
100
AcDbVertex
100
AcDb2dVertex
 10
87.49154888436416
 20
10.88179886922664
 30
0.0
 42
0.1025674015815593
 70
     2
 50
205.1328607791599
  0
VERTEX
  5
A9
330
99
100
AcDbEntity
  8
0
100
AcDbVertex
100
AcDb2dVertex
 10
86.97695463832619
 20
10.49619879391546
 30
0.0
 42
0.1828233251715536
 50
205.1328607791599
  0
SEQEND
  5
AA
330
99
100
AcDbEntity
  8
0
  0
ARC
  5
AB
330
6C
100
AcDbEntity
  8
0
100
AcDbCircle
 10
86.84641892242032
 20
11.03217624510059
 30
0.0
 40
0.440522293112378
100
AcDbArc
 50
90.0
 51
180.0
  0
LINE
  5
AC
330
6C
100
AcDbEntity
  8
0
100
AcDbLine
 10
86.40589662930796
 20
11.03217624510059
 30
0.0
 11
86.40589662930796
 21
9.27008707265108
 31
0.0
  0
ARC
  5
AD
330
6C
100
AcDbEntity
  8
0
100
AcDbCircle
 10
86.84641892242032
 20
9.27008707265108
 30
0.0
 40
0.440522293112378
100
AcDbArc
 50
180.0
 51
270.0
  0
POLYLINE
  5
AE
330
6C
100
AcDbEntity
  8
0
100
AcDb2dPolyline
 66
     1
 10
0.0
 20
0.0
 30
0.0
  0
VERTEX
  5
AF
330
AE
100
AcDbEntity
  8
0
100
AcDbVertex
100
AcDb2dVertex
 10
88.5906109999644
 20
9.697307603695893
 30
0.0
 42
0.0570538596573184
  0
VERTEX
  5
B0
330
AE
100
AcDbEntity
  8
0
100
AcDbVertex
100
AcDb2dVertex
 10
88.68954942826453
 20
9.420464448524887
 30
0.0
 42
0.1038195938885091
 70
     2
 50
296.1967246921072
  0
VERTEX
  5
B1
330
AE
100
AcDbEntity
  8
0
100
AcDbVertex
100
AcDb2dVertex
 10
88.87742994144506
 20
9.180429969546041
 30
0.0
 42
0.1767522344444316
 50
296.1967246921072
  0
VERTEX
  5
B2
330
AE
100
AcDbEntity
  8
0
100
AcDbVertex
100
AcDb2dVertex
 10
89.04903038798222
 20
9.117812180416292
 30
0.0
 42
0.1767522344444399
  0
VERTEX
  5
B3
330
AE
100
AcDbEntity
  8
0
100
AcDbVertex
100
AcDb2dVertex
 10
89.22063083451947
 20
9.180429969546041
 30
0.0
 42
0.1038195938885123
  0
VERTEX
  5
B4
330
AE
100
AcDbEntity
  8
0
100
AcDbVertex
100
AcDb2dVertex
 10
89.40851134769987
 20
9.420464448524887
 30
0.0
 42
0.0570538596573163
 70
     2
 50
63.8032753078928
  0
VERTEX
  5
B5
330
AE
100
AcDbEntity
  8
0
100
AcDbVertex
100
AcDb2dVertex
 10
89.50744977600001
 20
9.697307603695893
 30
0.0
 42
0.0503013836282066
 50
63.8032753078928
  0
SEQEND
  5
B6
330
AE
100
AcDbEntity
  8
0
  0
POLYLINE
  5
B7
330
6C
100
AcDbEntity
  8
0
100
AcDb2dPolyline
 66
     1
 10
0.0
 20
0.0
 30
0.0
  0
VERTEX
  5
B8
330
B7
100
AcDbEntity
  8
0
100
AcDbVertex
100
AcDb2dVertex
 10
89.04903038798222
 20
11.18445113733541
 30
0.0
 42
0.1767522344444361
  0
VERTEX
  5
B9
330
B7
100
AcDbEntity
  8
0
100
AcDbVertex
100
AcDb2dVertex
 10
88.87742994144506
 20
11.12183334820561
 30
0.0
 42
0.1038195938884991
  0
VERTEX
  5
BA
330
B7
100
AcDbEntity
  8
0
100
AcDbVertex
100
AcDb2dVertex
 10
88.68954942826453
 20
10.88179886922678
 30
0.0
 42
0.0567223889277798
 70
     2
 50
243.8032753078928
  0
VERTEX
  5
BB
330
B7
100
AcDbEntity
  8
0
100
AcDbVertex
100
AcDb2dVertex
 10
88.59100025206775
 20
10.60661882833715
 30
0.0
 42
0.0503013836282199
 50
243.8032753078928
  0
SEQEND
  5
BC
330
B7
100
AcDbEntity
  8
0
  0
POLYLINE
  5
BD
330
6C
100
AcDbEntity
  8
0
100
AcDb2dPolyline
 66
     1
 10
0.0
 20
0.0
 30
0.0
  0
VERTEX
  5
BE
330
BD
100
AcDbEntity
  8
0
100
AcDbVertex
100
AcDb2dVertex
 10
89.04903038798222
 20
11.18445113733541
 30
0.0
 42
0.0895889244631779
  0
VERTEX
  5
BF
330
BD
100
AcDbEntity
  8
0
100
AcDbVertex
100
AcDb2dVertex
 10
88.60509256852694
 20
11.10426371547674
 30
0.0
 42
0.094347402511486
  0
VERTEX
  5
C0
330
BD
100
AcDbEntity
  8
0
100
AcDbVertex
100
AcDb2dVertex
 10
88.23858436716243
 20
10.88179886922675
 30
0.0
 42
0.0687403046083514
 70
     2
 50
222.0366145404387
  0
VERTEX
  5
C1
330
BD
100
AcDbEntity
  8
0
100
AcDbVertex
100
AcDb2dVertex
 10
88.05398047014053
 20
10.66256458816414
 30
0.0
 42
0.1080871028423927
 50
222.0366145404387
  0
SEQEND
  5
C2
330
BD
100
AcDbEntity
  8
0
  0
POLYLINE
  5
C3
330
6C
100
AcDbEntity
  8
0
100
AcDb2dPolyline
 66
     1
 10
0.0
 20
0.0
 30
0.0
  0
VERTEX
  5
C4
330
C3
100
AcDbEntity
  8
0
100
AcDbVertex
100
AcDb2dVertex
 10
89.04903038798222
 20
11.18445113733541
 30
0.0
 42
0.0631748622128155
  0
VERTEX
  5
C5
330
C3
100
AcDbEntity
  8
0
100
AcDbVertex
100
AcDb2dVertex
 10
88.38555049447908
 20
11.10028472214568
 30
0.0
 42
0.0762621633615699
  0
VERTEX
  5
C6
330
C3
100
AcDbEntity
  8
0
100
AcDbVertex
100
AcDb2dVertex
 10
87.87533021876683
 20
10.88179886922675
 30
0.0
 42
0.0512131062417906
 70
     2
 50
211.9036308145036
  0
VERTEX
  5
C7
330
C3
100
AcDbEntity
  8
0
100
AcDbVertex
100
AcDb2dVertex
 10
87.67593022916686
 20
10.72731170217443
 30
0.0
 42
0.1478388992712295
 50
211.9036308145036
  0
SEQEND
  5
C8
330
C3
100
AcDbEntity
  8
0
  0
POLYLINE
  5
C9
330
6C
100
AcDbEntity
  8
0
100
AcDb2dPolyline
 66
     1
 10
0.0
 20
0.0
 30
0.0
  0
VERTEX
  5
CA
330
C9
100
AcDbEntity
  8
0
100
AcDbVertex
100
AcDb2dVertex
 10
89.50706052389676
 20
10.60661882833715
 30
0.0
 42
0.0567223889277601
  0
VERTEX
  5
CB
330
C9
100
AcDbEntity
  8
0
100
AcDbVertex
100
AcDb2dVertex
 10
89.40851134769987
 20
10.88179886922678
 30
0.0
 42
0.1038195938884991
 70
     2
 50
116.1967246921072
  0
VERTEX
  5
CC
330
C9
100
AcDbEntity
  8
0
100
AcDbVertex
100
AcDb2dVertex
 10
89.22063083451947
 20
11.12183334820561
 30
0.0
 42
0.1767522344444361
 50
116.1967246921072
  0
VERTEX
  5
CD
330
C9
100
AcDbEntity
  8
0
100
AcDbVertex
100
AcDb2dVertex
 10
89.04903038798222
 20
11.18445113733541
 30
0.0
 42
0.1767522344444361
  0
SEQEND
  5
CE
330
C9
100
AcDbEntity
  8
0
  0
ARC
  5
CF
330
6C
100
AcDbEntity
  8
0
100
AcDbCircle
 10
91.25164185354419
 20
11.03217624510059
 30
0.0
 40
0.440522293112378
100
AcDbArc
 50
0.0
 51
90.0
  0
CIRCLE
  5
D0
330
6C
100
AcDbEntity
  8
0
100
AcDbCircle
 10
92.10766677357078
 20
11.24568077712952
 30
0.0
 40
0.2292558813147685
  0
TEXT
  5
D1
330
6C
100
AcDbEntity
  8
0
100
AcDbText
 10
91.95982718816798
 20
11.09243168160556
 30
0.0
 40
0.2690975660275594
  1
R
  7
SANSSERIF
100
AcDbText
  0
LINE
  5
D2
330
6C
100
AcDbEntity
  8
0
100
AcDbLine
 10
91.69216414665646
 20
9.27008707265108
 30
0.0
 11
91.69216414665646
 21
11.03217624510059
 31
0.0
  0
ARC
  5
D3
330
6C
100
AcDbEntity
  8
0
100
AcDbCircle
 10
91.25164185354419
 20
9.27008707265108
 30
0.0
 40
0.440522293112378
100
AcDbArc
 50
270.0
 51
0.0
  0
CIRCLE
  5
17B
330
6C
100
AcDbEntity
  8
Visible (ANSI)
100
AcDbCircle
 10
48.60786138292117
 20
34.03317940709232
 30
0.0
 40
0.2500000000000005
  0
CIRCLE
  5
17C
330
6C
100
AcDbEntity
  8
Visible (ANSI)
100
AcDbCircle
 10
15.44786138292119
 20
34.03317940709232
 30
0.0
 40
0.2500000000000005
  0
CIRCLE
  5
17D
330
6C
100
AcDbEntity
  8
Visible (ANSI)
100
AcDbCircle
 10
32.02786138292117
 20
17.45317940709232
 30
0.0
 40
0.2499999999999999
  0
CIRCLE
  5
17E
330
6C
100
AcDbEntity
  8
Visible (ANSI)
100
AcDbCircle
 10
32.02786138292117
 20
50.61317940709231
 30
0.0
 40
0.2499999999999999
  0
LINE
  5
17F
330
6C
100
AcDbEntity
  8
Visible (ANSI)
100
AcDbLine
 10
16.64586138292118
 20
16.93317940709232
 30
0.0
 11
47.40986138292117
 21
16.93317940709232
 31
0.0
  0
LINE
  5
180
330
6C
100
AcDbEntity
  8
Visible (ANSI)
100
AcDbLine
 10
16.64586138292118
 20
16.93317940709232
 30
0.0
 11
16.64586138292118
 21
17.04252940709232
 31
0.0
  0
LINE
  5
181
330
6C
100
AcDbEntity
  8
Visible (ANSI)
100
AcDbLine
 10
47.40986138292117
 20
16.93317940709232
 30
0.0
 11
47.40986138292117
 21
17.04252940709232
 31
0.0
  0
LINE
  5
182
330
6C
100
AcDbEntity
  8
Visible (ANSI)
100
AcDbLine
 10
47.41006138292117
 20
17.04272940709232
 30
0.0
 11
47.41006138292117
 21
16.93317940709232
 31
0.0
  0
LINE
  5
183
330
6C
100
AcDbEntity
  8
Visible (ANSI)
100
AcDbLine
 10
47.40986138292117
 20
17.04272940709232
 30
0.0
 11
47.41006138292117
 21
17.04272940709232
 31
0.0
  0
LINE
  5
184
330
6C
100
AcDbEntity
  8
Visible (ANSI)
100
AcDbLine
 10
16.64566138292119
 20
17.04272940709232
 30
0.0
 11
16.64586138292118
 21
17.04272940709232
 31
0.0
  0
LINE
  5
185
330
6C
100
AcDbEntity
  8
Visible (ANSI)
100
AcDbLine
 10
16.64566138292119
 20
16.93317940709232
 30
0.0
 11
16.64566138292119
 21
17.04272940709232
 31
0.0
  0
LINE
  5
186
330
6C
100
AcDbEntity
  8
Hidden (ANSI)
 48
1.100077867507934
100
AcDbLine
 10
47.40986138292117
 20
17.02692940709232
 30
0.0
 11
16.64586138292118
 21
17.02692940709232
 31
0.0
  0
LINE
  5
187
330
6C
100
AcDbEntity
  8
Visible (ANSI)
100
AcDbLine
 10
16.64586138292118
 20
17.04272940709232
 30
0.0
 11
16.64586138292118
 21
17.04252940709232
 31
0.0
  0
LINE
  5
188
330
6C
100
AcDbEntity
  8
Visible (ANSI)
100
AcDbLine
 10
47.40986138292117
 20
17.04252940709232
 30
0.0
 11
47.40986138292117
 21
17.04272940709232
 31
0.0
  0
LINE
  5
189
330
6C
100
AcDbEntity
  8
Visible (ANSI)
100
AcDbLine
 10
16.64566138292119
 20
16.93317940709232
 30
0.0
 11
15.42786138292118
 21
16.93317940709232
 31
0.0
  0
LINE
  5
18A
330
6C
100
AcDbEntity
  8
Visible (ANSI)
100
AcDbLine
 10
48.62786138292118
 20
16.93317940709232
 30
0.0
 11
47.41006138292117
 21
16.93317940709232
 31
0.0
  0
LINE
  5
18B
330
6C
100
AcDbEntity
  8
Visible (ANSI)
100
AcDbLine
 10
49.12786138292117
 20
18.65097940709232
 30
0.0
 11
49.12786138292117
 21
17.43317940709232
 31
0.0
  0
LINE
  5
18C
330
6C
100
AcDbEntity
  8
Visible (ANSI)
100
AcDbLine
 10
49.12786138292117
 20
50.63317940709232
 30
0.0
 11
49.12786138292117
 21
49.41537940709232
 31
0.0
  0
LINE
  5
18D
330
6C
100
AcDbEntity
  8
Visible (ANSI)
100
AcDbLine
 10
47.41006138292116
 20
51.13317940709232
 30
0.0
 11
48.62786138292118
 21
51.13317940709232
 31
0.0
  0
LINE
  5
18E
330
6C
100
AcDbEntity
  8
Visible (ANSI)
100
AcDbLine
 10
15.42786138292117
 20
51.13317940709231
 30
0.0
 11
16.64566138292117
 21
51.13317940709231
 31
0.0
  0
LINE
  5
18F
330
6C
100
AcDbEntity
  8
Visible (ANSI)
100
AcDbLine
 10
14.92786138292117
 20
49.41537940709231
 30
0.0
 11
14.92786138292117
 21
50.63317940709232
 31
0.0
  0
LINE
  5
190
330
6C
100
AcDbEntity
  8
Visible (ANSI)
100
AcDbLine
 10
14.92786138292118
 20
17.43317940709232
 30
0.0
 11
14.92786138292118
 21
18.65097940709232
 31
0.0
  0
LINE
  5
191
330
6C
100
AcDbEntity
  8
Visible (ANSI)
100
AcDbLine
 10
49.12786138292117
 20
17.43317940709232
 30
0.0
 11
48.62786138292118
 21
16.93317940709232
 31
0.0
  0
LINE
  5
192
330
6C
100
AcDbEntity
  8
Visible (ANSI)
100
AcDbLine
 10
49.12786138292117
 20
18.65097940709232
 30
0.0
 11
49.01831138292118
 21
18.65097940709232
 31
0.0
  0
LINE
  5
193
330
6C
100
AcDbEntity
  8
Visible (ANSI)
100
AcDbLine
 10
49.01831138292118
 20
18.65097940709232
 30
0.0
 11
49.01831138292118
 21
18.65117940709232
 31
0.0
  0
LINE
  5
194
330
6C
100
AcDbEntity
  8
Visible (ANSI)
100
AcDbLine
 10
49.01831138292118
 20
49.41517940709232
 30
0.0
 11
49.01831138292118
 21
49.41537940709232
 31
0.0
  0
LINE
  5
195
330
6C
100
AcDbEntity
  8
Visible (ANSI)
100
AcDbLine
 10
49.01831138292118
 20
49.41537940709232
 30
0.0
 11
49.12786138292117
 21
49.41537940709232
 31
0.0
  0
LINE
  5
196
330
6C
100
AcDbEntity
  8
Visible (ANSI)
100
AcDbLine
 10
49.12786138292116
 20
18.65117940709232
 30
0.0
 11
49.12786138292116
 21
49.41517940709232
 31
0.0
  0
LINE
  5
197
330
6C
100
AcDbEntity
  8
Visible (ANSI)
100
AcDbLine
 10
49.12786138292116
 20
18.65117940709232
 30
0.0
 11
49.01851138292118
 21
18.65117940709232
 31
0.0
  0
LINE
  5
198
330
6C
100
AcDbEntity
  8
Visible (ANSI)
100
AcDbLine
 10
49.12786138292116
 20
49.41517940709232
 30
0.0
 11
49.01851138292117
 21
49.41517940709232
 31
0.0
  0
LINE
  5
199
330
6C
100
AcDbEntity
  8
Hidden (ANSI)
 48
1.100077867507934
100
AcDbLine
 10
49.03411138292116
 20
49.41517940709232
 30
0.0
 11
49.03411138292117
 21
18.65117940709232
 31
0.0
  0
LINE
  5
19A
330
6C
100
AcDbEntity
  8
Visible (ANSI)
100
AcDbLine
 10
49.01831138292118
 20
18.65117940709232
 30
0.0
 11
49.01851138292118
 21
18.65117940709232
 31
0.0
  0
LINE
  5
19B
330
6C
100
AcDbEntity
  8
Visible (ANSI)
100
AcDbLine
 10
49.01851138292117
 20
49.41517940709232
 30
0.0
 11
49.01831138292118
 21
49.41517940709232
 31
0.0
  0
LINE
  5
19C
330
6C
100
AcDbEntity
  8
Visible (ANSI)
100
AcDbLine
 10
48.62786138292118
 20
51.13317940709232
 30
0.0
 11
49.12786138292117
 21
50.63317940709232
 31
0.0
  0
LINE
  5
19D
330
6C
100
AcDbEntity
  8
Visible (ANSI)
100
AcDbLine
 10
47.41006138292116
 20
51.13317940709232
 30
0.0
 11
47.41006138292116
 21
51.02362940709233
 31
0.0
  0
LINE
  5
19E
330
6C
100
AcDbEntity
  8
Visible (ANSI)
100
AcDbLine
 10
47.41006138292116
 20
51.02362940709233
 30
0.0
 11
47.40986138292117
 21
51.02362940709233
 31
0.0
  0
LINE
  5
19F
330
6C
100
AcDbEntity
  8
Visible (ANSI)
100
AcDbLine
 10
16.64586138292117
 20
51.02362940709232
 30
0.0
 11
16.64566138292117
 21
51.02362940709232
 31
0.0
  0
LINE
  5
1A0
330
6C
100
AcDbEntity
  8
Visible (ANSI)
100
AcDbLine
 10
16.64566138292117
 20
51.02362940709232
 30
0.0
 11
16.64566138292117
 21
51.13317940709231
 31
0.0
  0
LINE
  5
1A1
330
6C
100
AcDbEntity
  8
Visible (ANSI)
100
AcDbLine
 10
47.40986138292117
 20
51.13317940709231
 30
0.0
 11
16.64586138292117
 21
51.1331794070923
 31
0.0
  0
LINE
  5
1A2
330
6C
100
AcDbEntity
  8
Visible (ANSI)
100
AcDbLine
 10
47.40986138292117
 20
51.1331794070923
 30
0.0
 11
47.40986138292117
 21
51.02382940709233
 31
0.0
  0
LINE
  5
1A3
330
6C
100
AcDbEntity
  8
Visible (ANSI)
100
AcDbLine
 10
16.64586138292117
 20
51.1331794070923
 30
0.0
 11
16.64586138292117
 21
51.02382940709231
 31
0.0
  0
LINE
  5
1A4
330
6C
100
AcDbEntity
  8
Hidden (ANSI)
 48
1.100077867507934
100
AcDbLine
 10
16.64586138292117
 20
51.0394294070923
 30
0.0
 11
47.40986138292117
 21
51.03942940709231
 31
0.0
  0
LINE
  5
1A5
330
6C
100
AcDbEntity
  8
Visible (ANSI)
100
AcDbLine
 10
47.40986138292117
 20
51.02362940709233
 30
0.0
 11
47.40986138292117
 21
51.02382940709233
 31
0.0
  0
LINE
  5
1A6
330
6C
100
AcDbEntity
  8
Visible (ANSI)
100
AcDbLine
 10
16.64586138292117
 20
51.02382940709233
 30
0.0
 11
16.64586138292117
 21
51.02362940709232
 31
0.0
  0
LINE
  5
1A7
330
6C
100
AcDbEntity
  8
Visible (ANSI)
100
AcDbLine
 10
14.92786138292117
 20
50.63317940709232
 30
0.0
 11
15.42786138292117
 21
51.13317940709231
 31
0.0
  0
LINE
  5
1A8
330
6C
100
AcDbEntity
  8
Visible (ANSI)
100
AcDbLine
 10
14.92786138292117
 20
49.41537940709231
 30
0.0
 11
15.03741138292117
 21
49.41537940709231
 31
0.0
  0
LINE
  5
1A9
330
6C
100
AcDbEntity
  8
Visible (ANSI)
100
AcDbLine
 10
15.03741138292117
 20
49.41537940709231
 30
0.0
 11
15.03741138292117
 21
49.41517940709232
 31
0.0
  0
LINE
  5
1AA
330
6C
100
AcDbEntity
  8
Visible (ANSI)
100
AcDbLine
 10
15.03741138292117
 20
18.65117940709232
 30
0.0
 11
15.03741138292117
 21
18.65097940709232
 31
0.0
  0
LINE
  5
1AB
330
6C
100
AcDbEntity
  8
Visible (ANSI)
100
AcDbLine
 10
15.03741138292117
 20
18.65097940709232
 30
0.0
 11
14.92786138292118
 21
18.65097940709232
 31
0.0
  0
LINE
  5
1AC
330
6C
100
AcDbEntity
  8
Visible (ANSI)
100
AcDbLine
 10
14.92786138292118
 20
49.41517940709232
 30
0.0
 11
14.92786138292119
 21
18.65117940709232
 31
0.0
  0
LINE
  5
1AD
330
6C
100
AcDbEntity
  8
Visible (ANSI)
100
AcDbLine
 10
14.92786138292118
 20
49.41517940709232
 30
0.0
 11
15.03721138292116
 21
49.41517940709232
 31
0.0
  0
LINE
  5
1AE
330
6C
100
AcDbEntity
  8
Visible (ANSI)
100
AcDbLine
 10
14.92786138292119
 20
18.65117940709232
 30
0.0
 11
15.03721138292118
 21
18.65117940709233
 31
0.0
  0
LINE
  5
1AF
330
6C
100
AcDbEntity
  8
Hidden (ANSI)
 48
1.100077867507934
100
AcDbLine
 10
15.02161138292119
 20
18.65117940709232
 30
0.0
 11
15.02161138292118
 21
49.41517940709232
 31
0.0
  0
LINE
  5
1B0
330
6C
100
AcDbEntity
  8
Visible (ANSI)
100
AcDbLine
 10
15.03741138292117
 20
49.41517940709232
 30
0.0
 11
15.03721138292116
 21
49.41517940709232
 31
0.0
  0
LINE
  5
1B1
330
6C
100
AcDbEntity
  8
Visible (ANSI)
100
AcDbLine
 10
15.03721138292117
 20
18.65117940709232
 30
0.0
 11
15.03741138292117
 21
18.65117940709232
 31
0.0
  0
LINE
  5
1B2
330
6C
100
AcDbEntity
  8
Visible (ANSI)
100
AcDbLine
 10
15.42786138292118
 20
16.93317940709232
 30
0.0
 11
14.92786138292118
 21
17.43317940709232
 31
0.0
  0
CIRCLE
  5
1B3
330
6C
100
AcDbEntity
  8
Visible (ANSI)
100
AcDbCircle
 10
48.60786138292117
 20
50.61317940709231
 30
0.0
 40
0.25
  0
CIRCLE
  5
1B4
330
6C
100
AcDbEntity
  8
Visible (ANSI)
100
AcDbCircle
 10
15.44786138292119
 20
50.61317940709231
 30
0.0
 40
0.25
  0
CIRCLE
  5
1B5
330
6C
100
AcDbEntity
  8
Visible (ANSI)
100
AcDbCircle
 10
15.44786138292118
 20
17.45317940709232
 30
0.0
 40
0.25
  0
CIRCLE
  5
1B6
330
6C
100
AcDbEntity
  8
Visible (ANSI)
100
AcDbCircle
 10
48.60786138292117
 20
17.45317940709232
 30
0.0
 40
0.25
  0
CIRCLE
  5
1B7
330
6C
100
AcDbEntity
  8
Visible (ANSI)
100
AcDbCircle
 10
48.60786138292117
 20
49.86317940709231
 30
0.0
 40
0.15625
  0
CIRCLE
  5
1B8
330
6C
100
AcDbEntity
  8
Visible (ANSI)
100
AcDbCircle
 10
15.44786138292119
 20
49.86317940709231
 30
0.0
 40
0.15625
  0
CIRCLE
  5
1B9
330
6C
100
AcDbEntity
  8
Visible (ANSI)
100
AcDbCircle
 10
15.44786138292118
 20
18.20317940709232
 30
0.0
 40
0.15625
  0
CIRCLE
  5
1BA
330
6C
100
AcDbEntity
  8
Visible (ANSI)
100
AcDbCircle
 10
48.60786138292117
 20
18.20317940709232
 30
0.0
 40
0.15625
  0
LINE
  5
1BB
330
6C
100
AcDbEntity
  8
Visible (ANSI)
100
AcDbLine
 10
63.27572914080786
 20
16.93317940709232
 30
0.0
 11
62.61107914080786
 21
16.93317940709232
 31
0.0
  0
LINE
  5
1BC
330
6C
100
AcDbEntity
  8
Visible (ANSI)
100
AcDbLine
 10
63.27572914080786
 20
17.02692940709232
 30
0.0
 11
63.27572914080786
 21
16.93317940709232
 31
0.0
  0
LINE
  5
1BD
330
6C
100
AcDbEntity
  8
Visible (ANSI)
100
AcDbLine
 10
62.61107914080786
 20
17.02692940709232
 30
0.0
 11
63.27572914080786
 21
17.02692940709232
 31
0.0
  0
ARC
  5
1BE
330
6C
100
AcDbEntity
  8
Visible (ANSI)
100
AcDbCircle
 10
62.61107914080786
 20
17.04252940709232
 30
0.0
 40
0.0156
100
AcDbArc
 50
180.0
 51
270.0
  0
ARC
  5
1BF
330
6C
100
AcDbEntity
  8
Visible (ANSI)
100
AcDbCircle
 10
62.61107914080786
 20
17.04252940709232
 30
0.0
 40
0.1093499999999973
100
AcDbArc
 50
261.7981333521987
 51
270.0
  0
ARC
  5
1C0
330
6C
100
AcDbEntity
  8
Hidden (ANSI)
 48
0.0504491999745369
100
AcDbCircle
 10
62.61107914080786
 20
17.04252940709232
 30
0.0
 40
0.1093499999999999
100
AcDbArc
 50
180.0
 51
261.798133352199
  0
LINE
  5
1C1
330
6C
100
AcDbEntity
  8
Hidden (ANSI)
 48
0.0302561018615961
100
AcDbLine
 10
62.50172914080786
 20
17.04272940709232
 30
0.0
 11
62.59547914080786
 21
17.04272940709232
 31
0.0
  0
LINE
  5
1C2
330
6C
100
AcDbEntity
  8
Visible (ANSI)
100
AcDbLine
 10
62.59547914080837
 20
50.63317940709232
 30
0.0
 11
62.59547914080823
 21
51.13317940709232
 31
0.0
  0
LINE
  5
1C3
330
6C
100
AcDbEntity
  8
Visible (ANSI)
100
AcDbLine
 10
62.50172914080822
 20
51.13317940709232
 30
0.0
 11
62.50172914080837
 21
50.63317940709232
 31
0.0
  0
LINE
  5
1C4
330
6C
100
AcDbEntity
  8
Visible (ANSI)
100
AcDbLine
 10
62.59547914080823
 20
51.13317940709232
 30
0.0
 11
62.50172914080822
 21
51.13317940709232
 31
0.0
  0
LINE
  5
1C5
330
6C
100
AcDbEntity
  8
Visible (ANSI)
100
AcDbLine
 10
62.50172914080837
 20
50.63317940709232
 30
0.0
 11
62.59547914080837
 21
50.63317940709232
 31
0.0
  0
LINE
  5
1C6
330
6C
100
AcDbEntity
  8
Visible (ANSI)
100
AcDbLine
 10
62.59547914080837
 20
49.41537940709232
 30
0.0
 11
62.59547914080837
 21
50.63317940709232
 31
0.0
  0
LINE
  5
1C7
330
6C
100
AcDbEntity
  8
Visible (ANSI)
100
AcDbLine
 10
62.59547914080837
 20
17.43317940709232
 30
0.0
 11
62.59547914080837
 21
18.65097940709232
 31
0.0
  0
LINE
  5
1C8
330
6C
100
AcDbEntity
  8
Visible (ANSI)
100
AcDbLine
 10
62.50172914080837
 20
18.65097940709232
 30
0.0
 11
62.50172914080837
 21
17.43317940709232
 31
0.0
  0
LINE
  5
1C9
330
6C
100
AcDbEntity
  8
Visible (ANSI)
100
AcDbLine
 10
62.50172914080837
 20
50.63317940709232
 30
0.0
 11
62.50172914080837
 21
49.41537940709232
 31
0.0
  0
LINE
  5
1CA
330
6C
100
AcDbEntity
  8
Visible (ANSI)
100
AcDbLine
 10
62.59547914080833
 20
49.41537940709232
 30
0.0
 11
62.59547914080833
 21
49.41517940709232
 31
0.0
  0
LINE
  5
1CB
330
6C
100
AcDbEntity
  8
Visible (ANSI)
100
AcDbLine
 10
62.59547914080833
 20
18.65117940709232
 30
0.0
 11
62.59547914080833
 21
18.65097940709232
 31
0.0
  0
LINE
  5
1CC
330
6C
100
AcDbEntity
  8
Visible (ANSI)
100
AcDbLine
 10
62.50172914080835
 20
18.65097940709232
 30
0.0
 11
62.50172914080835
 21
18.65117940709232
 31
0.0
  0
LINE
  5
1CD
330
6C
100
AcDbEntity
  8
Visible (ANSI)
100
AcDbLine
 10
62.50172914080835
 20
18.65117940709232
 30
0.0
 11
62.50172914080835
 21
49.41517940709232
 31
0.0
  0
LINE
  5
1CE
330
6C
100
AcDbEntity
  8
Visible (ANSI)
100
AcDbLine
 10
62.50172914080835
 20
49.41517940709232
 30
0.0
 11
62.50172914080835
 21
49.41537940709232
 31
0.0
  0
LINE
  5
1CF
330
6C
100
AcDbEntity
  8
Visible (ANSI)
100
AcDbLine
 10
62.61107914080838
 20
18.65117940709232
 30
0.0
 11
62.50172914080835
 21
18.65117940709232
 31
0.0
  0
LINE
  5
1D0
330
6C
100
AcDbEntity
  8
Visible (ANSI)
100
AcDbLine
 10
62.61107914080838
 20
49.41517940709232
 30
0.0
 11
62.50172914080835
 21
49.41517940709232
 31
0.0
  0
LINE
  5
1D1
330
6C
100
AcDbEntity
  8
Visible (ANSI)
100
AcDbLine
 10
62.50172914080837
 20
49.41537940709232
 30
0.0
 11
62.59547914080837
 21
49.41537940709232
 31
0.0
  0
LINE
  5
1D2
330
6C
100
AcDbEntity
  8
Visible (ANSI)
100
AcDbLine
 10
62.59547914080837
 20
18.65097940709232
 30
0.0
 11
62.50172914080837
 21
18.65097940709232
 31
0.0
  0
LINE
  5
1D3
330
6C
100
AcDbEntity
  8
Hidden (ANSI)
 48
1.100077867507934
100
AcDbLine
 10
62.59547914080833
 20
49.41517940709232
 30
0.0
 11
62.59547914080833
 21
18.65117940709232
 31
0.0
  0
LINE
  5
1D4
330
6C
100
AcDbEntity
  8
Visible (ANSI)
100
AcDbLine
 10
62.59547914080823
 20
16.93317940709232
 30
0.0
 11
62.59547914080837
 21
17.43317940709232
 31
0.0
  0
LINE
  5
1D5
330
6C
100
AcDbEntity
  8
Visible (ANSI)
100
AcDbLine
 10
62.50172914080837
 20
17.43317940709232
 30
0.0
 11
62.50172914080822
 21
16.93317940709232
 31
0.0
  0
LINE
  5
1D6
330
6C
100
AcDbEntity
  8
Visible (ANSI)
100
AcDbLine
 10
62.50172914080822
 20
16.93317940709232
 30
0.0
 11
62.59547914080823
 21
16.93317940709232
 31
0.0
  0
LINE
  5
1D7
330
6C
100
AcDbEntity
  8
Visible (ANSI)
100
AcDbLine
 10
62.59547914080837
 20
17.43317940709232
 30
0.0
 11
62.50172914080837
 21
17.43317940709232
 31
0.0
  0
LINE
  5
1D8
330
6C
100
AcDbEntity
  8
Visible (ANSI)
100
AcDbLine
 10
62.61107914080857
 20
51.13317940709231
 30
0.0
 11
63.27572914080786
 21
51.13317940709232
 31
0.0
  0
LINE
  5
1D9
330
6C
100
AcDbEntity
  8
Visible (ANSI)
100
AcDbLine
 10
63.27572914080786
 20
51.03942940709233
 30
0.0
 11
62.61107914080857
 21
51.03942940709231
 31
0.0
  0
LINE
  5
1DA
330
6C
100
AcDbEntity
  8
Visible (ANSI)
100
AcDbLine
 10
63.27572914080786
 20
51.13317940709232
 30
0.0
 11
63.27572914080786
 21
51.03942940709233
 31
0.0
  0
ARC
  5
1DB
330
6C
100
AcDbEntity
  8
Hidden (ANSI)
 48
0.0504491999745369
100
AcDbCircle
 10
62.61107914080785
 20
51.02382940709231
 30
0.0
 40
0.1093499999999962
100
AcDbArc
 50
98.20186664780127
 51
180.0
  0
LINE
  5
1DC
330
6C
100
AcDbEntity
  8
Hidden (ANSI)
 48
0.0302561018615961
100
AcDbLine
 10
62.50172914080786
 20
51.02362940709233
 30
0.0
 11
62.59547914080786
 21
51.02362940709233
 31
0.0
  0
ARC
  5
1DD
330
6C
100
AcDbEntity
  8
Visible (ANSI)
100
AcDbCircle
 10
62.61107914080787
 20
51.02382940709213
 30
0.0
 40
0.1093500000001847
100
AcDbArc
 50
89.99999999963788
 51
98.20186664779569
  0
ARC
  5
1DE
330
6C
100
AcDbEntity
  8
Visible (ANSI)
100
AcDbCircle
 10
62.61107914080786
 20
51.0238294070923
 30
0.0
 40
0.0156000000000008
100
AcDbArc
 50
89.99999999740118
 51
180.0
  0
LINE
  5
1DF
330
6C
100
AcDbEntity
  8
Visible (ANSI)
100
AcDbLine
 10
62.61107914080838
 20
18.65117940709232
 30
0.0
 11
63.27572914080836
 21
18.65117940709232
 31
0.0
  0
LINE
  5
1E0
330
6C
100
AcDbEntity
  8
Visible (ANSI)
100
AcDbLine
 10
63.27572914080836
 20
49.41517940709232
 30
0.0
 11
63.27572914080836
 21
18.65117940709232
 31
0.0
  0
LINE
  5
1E1
330
6C
100
AcDbEntity
  8
Visible (ANSI)
100
AcDbLine
 10
63.27572914080836
 20
49.41517940709232
 30
0.0
 11
62.61107914080838
 21
49.41517940709232
 31
0.0
  0
LINE
  5
1E2
330
6C
100
AcDbEntity
  8
Hidden (ANSI)
 48
0.0302561018615961
100
AcDbLine
 10
62.50172914080821
 20
34.28317940709232
 30
0.0
 11
62.59547914080822
 21
34.28317940709232
 31
0.0
  0
LINE
  5
1E3
330
6C
100
AcDbEntity
  8
Hidden (ANSI)
 48
0.0302561018615961
100
AcDbLine
 10
62.50172914080821
 20
33.78317940709232
 30
0.0
 11
62.59547914080822
 21
33.78317940709232
 31
0.0
  0
LINE
  5
1E4
330
6C
100
AcDbEntity
  8
Hidden (ANSI)
 48
0.0302561018615961
100
AcDbLine
 10
62.50172914080821
 20
50.86317940709232
 30
0.0
 11
62.59547914080822
 21
50.86317940709232
 31
0.0
  0
LINE
  5
1E5
330
6C
100
AcDbEntity
  8
Hidden (ANSI)
 48
0.0302561018615961
100
AcDbLine
 10
62.50172914080821
 20
50.36317940709231
 30
0.0
 11
62.59547914080822
 21
50.36317940709231
 31
0.0
  0
LINE
  5
1E6
330
6C
100
AcDbEntity
  8
Hidden (ANSI)
 48
0.0302561018615961
100
AcDbLine
 10
62.50172914080821
 20
17.70317940709232
 30
0.0
 11
62.59547914080822
 21
17.70317940709232
 31
0.0
  0
LINE
  5
1E7
330
6C
100
AcDbEntity
  8
Hidden (ANSI)
 48
0.0302561018615961
100
AcDbLine
 10
62.50172914080821
 20
17.20317940709232
 30
0.0
 11
62.59547914080822
 21
17.20317940709232
 31
0.0
  0
LINE
  5
1E8
330
6C
100
AcDbEntity
  8
Hidden (ANSI)
 48
0.0302561018615961
100
AcDbLine
 10
62.50172914080821
 20
50.01942940709231
 30
0.0
 11
62.59547914080822
 21
50.01942940709231
 31
0.0
  0
LINE
  5
1E9
330
6C
100
AcDbEntity
  8
Hidden (ANSI)
 48
0.0302561018615961
100
AcDbLine
 10
62.50172914080821
 20
49.70692940709232
 30
0.0
 11
62.59547914080822
 21
49.70692940709232
 31
0.0
  0
LINE
  5
1EA
330
6C
100
AcDbEntity
  8
Hidden (ANSI)
 48
0.0302561018615961
100
AcDbLine
 10
62.50172914080821
 20
18.35942940709232
 30
0.0
 11
62.59547914080822
 21
18.35942940709232
 31
0.0
  0
LINE
  5
1EB
330
6C
100
AcDbEntity
  8
Hidden (ANSI)
 48
0.0302561018615961
100
AcDbLine
 10
62.50172914080821
 20
18.04692940709232
 30
0.0
 11
62.59547914080822
 21
18.04692940709232
 31
0.0
  0
ELLIPSE
  5
1EC
330
6C
100
AcDbEntity
  8
Visible (ANSI)
100
AcDbEllipse
 10
95.35926755221836
 20
42.2356515977117
 30
0.0
 11
-0.0667155363080753
 21
0.115853400554169
 31
0.0
210
0.0
220
0.0
230
0.9999999999999998
 40
0.578093115915812
 41
0.267844877812511
 42
2.873747775777255
  0
ELLIPSE
  5
1ED
330
6C
100
AcDbEntity
  8
Visible (ANSI)
100
AcDbEllipse
 10
95.32381768016691
 20
42.21523737409242
 30
0.0
 11
-0.0667155363080749
 21
0.1158534005541684
 31
0.0
210
0.0
220
0.0
230
0.9999999999999998
 40
0.578093115915812
 41
0.0
 42
6.283185307179586
  0
ELLIPSE
  5
1EE
330
6C
100
AcDbEntity
  8
Visible (ANSI)
100
AcDbEllipse
 10
82.82041147513318
 20
49.45629858666984
 30
0.0
 11
-0.066715536308075
 21
0.1158534005541684
 31
0.0
210
0.0
220
0.0
230
0.9999999999999998
 40
0.5780931159158119
 41
0.2678448778125109
 42
2.873747775777255
  0
ELLIPSE
  5
1EF
330
6C
100
AcDbEntity
  8
Visible (ANSI)
100
AcDbEllipse
 10
82.7849616030817
 20
49.43588436305056
 30
0.0
 11
-0.0667155363080749
 21
0.1158534005541684
 31
0.0
210
0.0
220
0.0
230
0.9999999999999998
 40
0.578093115915812
 41
0.0
 42
6.283185307179586
  0
ELLIPSE
  5
1F0
330
6C
100
AcDbEntity
  8
Visible (ANSI)
100
AcDbEllipse
 10
89.08983951367575
 20
38.59734871257079
 30
0.0
 11
-0.0667155363080746
 21
0.1158534005541678
 31
0.0
210
0.0
220
0.0
230
0.9999999999999998
 40
0.578093115915812
 41
0.267844877812511
 42
2.873747775777255
  0
ELLIPSE
  5
1F1
330
6C
100
AcDbEntity
  8
Visible (ANSI)
100
AcDbEllipse
 10
89.05438964162431
 20
38.57693448895152
 30
0.0
 11
-0.0667155363080747
 21
0.1158534005541681
 31
0.0
210
0.0
220
0.0
230
1.0
 40
0.578093115915812
 41
0.0
 42
6.283185307179586
  0
ELLIPSE
  5
1F2
330
6C
100
AcDbEntity
  8
Visible (ANSI)
100
AcDbEllipse
 10
89.08983951367577
 20
53.09460147181074
 30
0.0
 11
-0.0667155363080746
 21
0.1158534005541679
 31
0.0
210
0.0
220
0.0
230
0.9999999999999998
 40
0.5780931159158119
 41
0.2678448778125118
 42
2.873747775777256
  0
ELLIPSE
  5
1F3
330
6C
100
AcDbEntity
  8
Visible (ANSI)
100
AcDbEllipse
 10
89.05438964162433
 20
53.07418724819148
 30
0.0
 11
-0.0667155363080747
 21
0.1158534005541681
 31
0.0
210
0.0
220
0.0
230
1.0
 40
0.578093115915812
 41
0.0
 42
6.283185307179586
  0
ELLIPSE
  5
1F4
330
6C
100
AcDbEntity
  8
Visible (ANSI)
100
AcDbEllipse
 10
83.27931243216424
 20
41.77067010073725
 30
0.0
 11
-0.0291813755811392
 21
-0.0506742774024005
 31
0.0
210
0.0
220
0.0
230
0.9999999999999998
 40
0.5780931159156425
 41
5.495853435359233
 42
6.283185307179732
  0
ELLIPSE
  5
1F5
330
6C
100
AcDbEntity
  8
Visible (ANSI)
100
AcDbEllipse
 10
94.91216431260601
 20
35.07175622955788
 30
0.0
 11
-0.0291813755811378
 21
-0.0506742774023981
 31
0.0
210
0.0
220
0.0
230
1.0
 40
0.5780931159156426
 41
5.495853435359233
 42
5.556343885665649
  0
LINE
  5
1F6
330
6C
100
AcDbEntity
  8
Visible Narrow (ANSI)
100
AcDbLine
 10
83.23796370140343
 20
41.74685895030773
 30
0.0
 11
94.87081558184518
 21
35.04794507912836
 31
0.0
  0
LINE
  5
1F7
330
6C
100
AcDbEntity
  8
Visible (ANSI)
100
AcDbLine
 10
94.8708912082389
 20
35.04798896697981
 30
0.0
 11
94.8708912082389
 21
35.00009469557526
 31
0.0
  0
LINE
  5
1F8
330
6C
100
AcDbEntity
  8
Visible (ANSI)
100
AcDbLine
 10
94.87081558184518
 20
35.04803251732353
 30
0.0
 11
94.8708912082389
 21
35.04798896697981
 31
0.0
  0
LINE
  5
1F9
330
6C
100
AcDbEntity
  8
Visible (ANSI)
100
AcDbLine
 10
83.23788807500971
 20
41.74698993884663
 30
0.0
 11
83.23796370140343
 21
41.7469463885029
 31
0.0
  0
LINE
  5
1FA
330
6C
100
AcDbEntity
  8
Visible (ANSI)
100
AcDbLine
 10
83.23788807500971
 20
41.69909566744208
 30
0.0
 11
83.23788807500971
 21
41.74698993884663
 31
0.0
  0
LINE
  5
1FB
330
6C
100
AcDbEntity
  8
Visible (ANSI)
100
AcDbLine
 10
83.2621564193352
 20
41.71307087748546
 30
0.0
 11
83.23788807500971
 21
41.69909566744208
 31
0.0
  0
LINE
  5
1FC
330
6C
100
AcDbEntity
  8
Visible (ANSI)
100
AcDbLine
 10
83.25013105658312
 20
41.71999582333485
 30
0.0
 11
94.8708912082389
 21
35.02804511566202
 31
0.0
  0
LINE
  5
1FD
330
6C
100
AcDbEntity
  8
Visible (ANSI)
100
AcDbLine
 10
83.23796370140343
 20
41.7469463885029
 30
0.0
 11
83.23796370140343
 21
41.74685895030773
 31
0.0
  0
LINE
  5
1FE
330
6C
100
AcDbEntity
  8
Visible (ANSI)
100
AcDbLine
 10
94.87081558184518
 20
35.04794507912836
 30
0.0
 11
94.87081558184518
 21
35.04803251732353
 31
0.0
  0
ELLIPSE
  5
1FF
330
6C
100
AcDbEntity
  8
Visible (ANSI)
100
AcDbEllipse
 10
95.35926755221838
 20
49.48427797733167
 30
0.0
 11
-0.0667155363080753
 21
0.115853400554169
 31
0.0
210
0.0
220
0.0
230
0.9999999999999998
 40
0.578093115915812
 41
0.267844877812511
 42
2.873747775777255
  0
ELLIPSE
  5
200
330
6C
100
AcDbEntity
  8
Visible (ANSI)
100
AcDbEllipse
 10
82.82041147513318
 20
56.7049249662898
 30
0.0
 11
-0.0667155363080748
 21
0.1158534005541682
 31
0.0
210
0.0
220
0.0
230
1.0
 40
0.5780931159158117
 41
0.2678448778125109
 42
2.873747775777255
  0
ELLIPSE
  5
201
330
6C
100
AcDbEntity
  8
Visible (ANSI)
100
AcDbEllipse
 10
82.82041147513316
 20
42.20767220704985
 30
0.0
 11
-0.0667155363080747
 21
0.1158534005541681
 31
0.0
210
0.0
220
0.0
230
1.0
 40
0.5780931159158121
 41
0.267844877812511
 42
2.873747775777255
  0
ELLIPSE
  5
202
330
6C
100
AcDbEntity
  8
Visible (ANSI)
100
AcDbEllipse
 10
95.35926755221836
 20
34.98702521809172
 30
0.0
 11
-0.0667155363080752
 21
0.1158534005541688
 31
0.0
210
0.0
220
0.0
230
1.0
 40
0.5780931159158119
 41
0.267844877812478
 42
2.873747775777237
  0
ELLIPSE
  5
203
330
6C
100
AcDbEntity
  8
Visible (ANSI)
100
AcDbEllipse
 10
95.35926755221838
 20
49.15638474544295
 30
0.0
 11
0.0416972101925512
 21
-0.0724083753463528
 31
0.0
210
0.0
220
0.0
230
0.9999999999999998
 40
0.5780931159158119
 41
3.578838513251703
 42
5.845939447516697
  0
ELLIPSE
  5
204
330
6C
100
AcDbEntity
  8
Visible (ANSI)
100
AcDbEllipse
 10
82.82041147513318
 20
56.37703173440109
 30
0.0
 11
0.041697210192551
 21
-0.0724083753463525
 31
0.0
210
0.0
220
0.0
230
0.9999999999999998
 40
0.578093115915812
 41
3.578838513251701
 42
5.845939447517006
  0
ELLIPSE
  5
205
330
6C
100
AcDbEntity
  8
Visible (ANSI)
100
AcDbEllipse
 10
82.82041147513316
 20
42.53556543893857
 30
0.0
 11
0.041697210192551
 21
-0.0724083753463526
 31
0.0
210
0.0
220
0.0
230
0.9999999999999998
 40
0.578093115915812
 41
3.578838513251701
 42
5.845939447517006
  0
ELLIPSE
  5
206
330
6C
100
AcDbEntity
  8
Visible (ANSI)
100
AcDbEllipse
 10
95.35926755221836
 20
35.31491844998044
 30
0.0
 11
0.0416972101925513
 21
-0.0724083753463531
 31
0.0
210
0.0
220
0.0
230
0.9999999999999998
 40
0.5780931159158117
 41
3.578838513251758
 42
5.845939447517006
  0
ELLIPSE
  5
207
330
6C
100
AcDbEntity
  8
Visible (ANSI)
100
AcDbEllipse
 10
95.32381768016691
 20
49.4638637537124
 30
0.0
 11
-0.0667155363080748
 21
0.1158534005541681
 31
0.0
210
0.0
220
0.0
230
0.9999999999999998
 40
0.5780931159158117
 41
0.0
 42
6.283185307179586
  0
ELLIPSE
  5
208
330
6C
100
AcDbEntity
  8
Visible (ANSI)
100
AcDbEllipse
 10
82.78496160308172
 20
56.68451074267053
 30
0.0
 11
-0.0667155363080748
 21
0.1158534005541681
 31
0.0
210
0.0
220
0.0
230
0.9999999999999998
 40
0.5780931159158117
 41
0.0
 42
6.283185307179586
  0
ELLIPSE
  5
209
330
6C
100
AcDbEntity
  8
Visible (ANSI)
100
AcDbEllipse
 10
82.7849616030817
 20
42.18725798343058
 30
0.0
 11
-0.0667155363080748
 21
0.1158534005541681
 31
0.0
210
0.0
220
0.0
230
0.9999999999999998
 40
0.5780931159158117
 41
0.0
 42
6.283185307179586
  0
ELLIPSE
  5
20A
330
6C
100
AcDbEntity
  8
Visible (ANSI)
100
AcDbEllipse
 10
95.32381768016689
 20
34.96661099447245
 30
0.0
 11
-0.0667155363080748
 21
0.1158534005541681
 31
0.0
210
0.0
220
0.0
230
0.9999999999999998
 40
0.5780931159158117
 41
0.0
 42
6.283185307179586
  0
ELLIPSE
  5
20B
330
6C
100
AcDbEntity
  8
Visible (ANSI)
100
AcDbEllipse
 10
95.32381768016691
 20
49.13597052182367
 30
0.0
 11
-0.0416972101925467
 21
0.0724083753463551
 31
0.0
210
0.0
220
0.0
230
0.9999999999999998
 40
0.578093115915812
 41
0.0
 42
6.283185307179586
  0
ELLIPSE
  5
20C
330
6C
100
AcDbEntity
  8
Visible (ANSI)
100
AcDbEllipse
 10
82.78496160308172
 20
56.35661751078182
 30
0.0
 11
-0.0416972101925467
 21
0.0724083753463551
 31
0.0
210
0.0
220
0.0
230
0.9999999999999998
 40
0.578093115915812
 41
0.0
 42
6.283185307179586
  0
ELLIPSE
  5
20D
330
6C
100
AcDbEntity
  8
Visible (ANSI)
100
AcDbEllipse
 10
82.7849616030817
 20
42.51515121531929
 30
0.0
 11
-0.0416972101925467
 21
0.0724083753463551
 31
0.0
210
0.0
220
0.0
230
0.9999999999999998
 40
0.578093115915812
 41
0.0
 42
6.283185307179586
  0
ELLIPSE
  5
20E
330
6C
100
AcDbEntity
  8
Visible (ANSI)
100
AcDbEllipse
 10
95.32381768016689
 20
35.29450422636117
 30
0.0
 11
-0.0416972101925467
 21
0.0724083753463551
 31
0.0
210
0.0
220
0.0
230
0.9999999999999998
 40
0.578093115915812
 41
0.0
 42
6.283185307179586
  0
LINE
  5
20F
330
6C
100
AcDbEntity
  8
Visible (ANSI)
100
AcDbLine
 10
83.27333794706119
 20
56.671441265187
 30
0.0
 11
82.81284883576219
 21
56.93661930810478
 31
0.0
  0
LINE
  5
210
330
6C
100
AcDbEntity
  8
Visible (ANSI)
100
AcDbLine
 10
95.36683019158935
 20
49.70726225040241
 30
0.0
 11
94.90634108029038
 21
49.97244029332018
 31
0.0
  0
LINE
  5
211
330
6C
100
AcDbEntity
  8
Visible (ANSI)
100
AcDbLine
 10
95.55589617586386
 20
48.84737973278174
 30
0.0
 11
95.55589617586386
 21
49.37979090317385
 31
0.0
  0
LINE
  5
212
330
6C
100
AcDbEntity
  8
Visible (ANSI)
100
AcDbLine
 10
95.55589617586385
 20
34.86505050489983
 30
0.0
 11
95.55589617586385
 21
35.39746167529195
 31
0.0
  0
LINE
  5
213
330
6C
100
AcDbEntity
  8
Visible (ANSI)
100
AcDbLine
 10
83.23788807500971
 20
41.69909566744208
 30
0.0
 11
82.77739896371071
 21
41.96427371035984
 31
0.0
  0
LINE
  5
214
330
6C
100
AcDbEntity
  8
Visible (ANSI)
100
AcDbLine
 10
95.33138031953788
 20
34.73491665265749
 30
0.0
 11
94.8708912082389
 21
35.00009469557526
 31
0.0
  0
LINE
  5
215
330
6C
100
AcDbEntity
  8
Visible (ANSI)
100
AcDbLine
 10
95.52044630381239
 20
35.37704745167268
 30
0.0
 11
95.52044630381239
 21
34.84463628128056
 31
0.0
  0
LINE
  5
216
330
6C
100
AcDbEntity
  8
Visible (ANSI)
100
AcDbLine
 10
95.5204463038124
 20
49.35937667955458
 30
0.0
 11
95.5204463038124
 21
48.82696550916246
 31
0.0
  0
LINE
  5
217
330
6C
100
AcDbEntity
  8
Visible (ANSI)
100
AcDbLine
 10
94.87089120823892
 20
49.9520260697009
 30
0.0
 11
95.33138031953789
 21
49.68684802678314
 31
0.0
  0
LINE
  5
218
330
6C
100
AcDbEntity
  8
Visible (ANSI)
100
AcDbLine
 10
82.77739896371073
 20
56.91620508448551
 30
0.0
 11
83.23788807500973
 21
56.65102704156772
 31
0.0
  0
LINE
  5
219
330
6C
100
AcDbEntity
  8
Visible (ANSI)
100
AcDbLine
 10
82.58833297943622
 20
56.27407428547031
 30
0.0
 11
82.58833297943622
 21
56.80648545586243
 31
0.0
  0
LINE
  5
21A
330
6C
100
AcDbEntity
  8
Visible (ANSI)
100
AcDbLine
 10
82.58833297943622
 20
42.2917450575884
 30
0.0
 11
82.58833297943622
 21
42.82415622798052
 31
0.0
  0
LINE
  5
21B
330
6C
100
AcDbEntity
  8
Visible (ANSI)
100
AcDbLine
 10
83.27333794706119
 20
56.671441265187
 30
0.0
 11
83.27333794706119
 21
56.6708524908725
 31
0.0
  0
LINE
  5
21C
330
6C
100
AcDbEntity
  8
Visible (ANSI)
100
AcDbLine
 10
94.87089120823892
 20
49.9520260697009
 30
0.0
 11
94.87089120823892
 21
49.90413179829637
 31
0.0
  0
LINE
  5
21D
330
6C
100
AcDbEntity
  8
Visible (ANSI)
100
AcDbLine
 10
94.87089120823892
 20
49.90413179829637
 30
0.0
 11
94.87081558184518
 21
49.90417534864009
 31
0.0
  0
LINE
  5
21E
330
6C
100
AcDbEntity
  8
Visible Narrow (ANSI)
100
AcDbLine
 10
94.87081558184518
 20
49.90426278683526
 30
0.0
 11
83.23796370140343
 21
56.60317665801464
 31
0.0
  0
LINE
  5
21F
330
6C
100
AcDbEntity
  8
Visible (ANSI)
100
AcDbLine
 10
83.23796370140343
 20
56.60308921981947
 30
0.0
 11
83.23788807500973
 21
56.60313277016319
 31
0.0
  0
LINE
  5
220
330
6C
100
AcDbEntity
  8
Visible (ANSI)
100
AcDbLine
 10
83.23788807500973
 20
56.60313277016319
 30
0.0
 11
83.23788807500973
 21
56.65102704156772
 31
0.0
  0
LINE
  5
221
330
6C
100
AcDbEntity
  8
Visible Narrow (ANSI)
100
AcDbLine
 10
94.9121643126063
 20
49.9758807704743
 30
0.0
 11
83.27931243216426
 21
56.67479464165353
 31
0.0
  0
ELLIPSE
  5
222
330
6C
100
AcDbEntity
  8
Visible (ANSI)
100
AcDbEllipse
 10
94.91216431260609
 20
49.9280739372648
 30
0.0
 11
0.0291813755811926
 21
0.0506742774024862
 31
0.0
210
0.0
220
0.0
230
1.0
 40
0.5780931159156424
 41
2.293770331463075
 42
2.354260781769308
  0
ELLIPSE
  5
223
330
6C
100
AcDbEntity
  8
Visible (ANSI)
100
AcDbEllipse
 10
94.91216431260601
 20
49.92807393726505
 30
0.0
 11
0.0291813755809645
 21
0.0506742774020971
 31
0.0
210
0.0
220
0.0
230
0.9999999999999996
 40
0.5780931159156426
 41
0.7834644549676453
 42
0.9175200251383026
  0
LINE
  5
224
330
6C
100
AcDbEntity
  8
Visible (ANSI)
100
AcDbLine
 10
94.87081558184518
 20
49.90417534864009
 30
0.0
 11
94.87089120823892
 21
49.90421889898381
 31
0.0
  0
ELLIPSE
  5
225
330
6C
100
AcDbEntity
  8
Visible (ANSI)
100
AcDbEllipse
 10
83.27931243216426
 20
56.62698780844415
 30
0.0
 11
0.0291813755811405
 21
0.0506742774023984
 31
0.0
210
0.0
220
0.0
230
1.0
 40
0.5780931159156275
 41
0.7834644549745704
 42
2.354260781769573
  0
LINE
  5
226
330
6C
100
AcDbEntity
  8
Visible (ANSI)
100
AcDbLine
 10
83.23788807500973
 20
56.65102704156772
 30
0.0
 11
83.27333794706119
 21
56.671441265187
 31
0.0
  0
LINE
  5
227
330
6C
100
AcDbEntity
  8
Visible (ANSI)
100
AcDbLine
 10
83.23788807500973
 20
56.60313277016319
 30
0.0
 11
83.23796370140343
 21
56.60317632050691
 31
0.0
  0
LINE
  5
228
330
6C
100
AcDbEntity
  8
Visible (ANSI)
100
AcDbLine
 10
94.90634108029038
 20
49.97244029332018
 30
0.0
 11
94.87089120823892
 21
49.9520260697009
 31
0.0
  0
LINE
  5
229
330
6C
100
AcDbEntity
  8
Visible (ANSI)
100
AcDbLine
 10
95.55589617586386
 20
49.37979090317385
 30
0.0
 11
95.36683019158935
 21
49.70726225040241
 31
0.0
  0
LINE
  5
22A
330
6C
100
AcDbEntity
  8
Visible (ANSI)
100
AcDbLine
 10
95.33138031953789
 20
49.68684802678314
 30
0.0
 11
95.5204463038124
 21
49.35937667955458
 31
0.0
  0
LINE
  5
22B
330
6C
100
AcDbEntity
  8
Visible (ANSI)
100
AcDbLine
 10
95.36683019158935
 20
49.70726225040241
 30
0.0
 11
95.33138031953789
 21
49.68684802678314
 31
0.0
  0
LINE
  5
22C
330
6C
100
AcDbEntity
  8
Visible (ANSI)
100
AcDbLine
 10
95.5204463038124
 20
49.35937667955458
 30
0.0
 11
95.55589617586386
 21
49.37979090317385
 31
0.0
  0
LINE
  5
22D
330
6C
100
AcDbEntity
  8
Visible (ANSI)
100
AcDbLine
 10
95.55538630980814
 20
35.39775528762606
 30
0.0
 11
95.55589617586385
 21
35.39746167529195
 31
0.0
  0
LINE
  5
22E
330
6C
100
AcDbEntity
  8
Visible (ANSI)
100
AcDbLine
 10
95.52044630381239
 20
35.37704745167268
 30
0.0
 11
95.47902194665786
 21
35.4009021524459
 31
0.0
  0
LINE
  5
22F
330
6C
100
AcDbEntity
  8
Visible (ANSI)
100
AcDbLine
 10
95.47902194665786
 20
35.4009021524459
 30
0.0
 11
95.47902194665786
 21
35.40098959064108
 31
0.0
  0
LINE
  5
230
330
6C
100
AcDbEntity
  8
Visible Narrow (ANSI)
100
AcDbLine
 10
95.47909757305156
 20
35.40094604029735
 30
0.0
 11
95.47909757305157
 21
48.85068922139681
 31
0.0
  0
LINE
  5
231
330
6C
100
AcDbEntity
  8
Visible (ANSI)
100
AcDbLine
 10
95.47902194665786
 20
48.85073277174053
 30
0.0
 11
95.47902194665786
 21
48.85082020993571
 31
0.0
  0
LINE
  5
232
330
6C
100
AcDbEntity
  8
Visible (ANSI)
100
AcDbLine
 10
95.47902194665786
 20
48.85082020993571
 30
0.0
 11
95.5204463038124
 21
48.82696550916246
 31
0.0
  0
LINE
  5
233
330
6C
100
AcDbEntity
  8
Visible Narrow (ANSI)
100
AcDbLine
 10
95.5617950345732
 20
35.40094604029736
 30
0.0
 11
95.56179503457322
 21
48.85068922139682
 31
0.0
  0
ELLIPSE
  5
234
330
6C
100
AcDbEntity
  8
Visible (ANSI)
100
AcDbEllipse
 10
95.52044630381237
 20
35.42475719072687
 30
0.0
 11
0.0584759358288771
 21
0.0000000000000034
 31
0.0
210
0.0
220
0.0
230
1.0
 40
0.5758617009853073
 41
3.926990816987149
 42
5.497787143782144
  0
LINE
  5
235
330
6C
100
AcDbEntity
  8
Visible (ANSI)
100
AcDbLine
 10
95.47902194665786
 20
48.85073277174053
 30
0.0
 11
95.47909786609739
 21
48.85077649083811
 31
0.0
  0
ELLIPSE
  5
236
330
6C
100
AcDbEntity
  8
Visible (ANSI)
100
AcDbEllipse
 10
95.5204463038124
 20
48.87450037182635
 30
0.0
 11
0.0584759358289107
 21
0.0000000000000034
 31
0.0
210
0.0
220
0.0
230
1.0
 40
0.5758617009853073
 41
3.926990816987295
 42
3.987598387464465
  0
ELLIPSE
  5
237
330
6C
100
AcDbEntity
  8
Visible (ANSI)
100
AcDbEllipse
 10
95.52044630381256
 20
48.87450037182621
 30
0.0
 11
0.0584759358286107
 21
-0.0000000000000001
 31
0.0
210
0.0
220
0.0
230
1.0
 40
0.5758617009853073
 41
5.363700662383064
 42
5.497787143782833
  0
LINE
  5
238
330
6C
100
AcDbEntity
  8
Visible (ANSI)
100
AcDbLine
 10
95.5204463038124
 20
48.82696550916246
 30
0.0
 11
95.55589617586386
 21
48.84737973278174
 31
0.0
  0
LINE
  5
239
330
6C
100
AcDbEntity
  8
Visible (ANSI)
100
AcDbLine
 10
95.47902194665786
 20
35.4009021524459
 30
0.0
 11
95.47909786609842
 21
35.40094587154408
 31
0.0
  0
LINE
  5
23A
330
6C
100
AcDbEntity
  8
Visible (ANSI)
100
AcDbLine
 10
95.55589617586385
 20
35.39746167529195
 30
0.0
 11
95.52044630381239
 21
35.37704745167268
 31
0.0
  0
LINE
  5
23B
330
6C
100
AcDbEntity
  8
Visible (ANSI)
100
AcDbLine
 10
95.36683019158935
 20
34.75533087627677
 30
0.0
 11
95.55589617586385
 21
34.86505050489983
 31
0.0
  0
LINE
  5
23C
330
6C
100
AcDbEntity
  8
Visible (ANSI)
100
AcDbLine
 10
95.52044630381239
 20
34.84463628128056
 30
0.0
 11
95.33138031953788
 21
34.73491665265749
 31
0.0
  0
LINE
  5
23D
330
6C
100
AcDbEntity
  8
Visible (ANSI)
100
AcDbLine
 10
95.33138031953788
 20
34.73491665265749
 30
0.0
 11
95.36683019158935
 21
34.75533087627677
 31
0.0
  0
LINE
  5
23E
330
6C
100
AcDbEntity
  8
Visible (ANSI)
100
AcDbLine
 10
95.55589617586385
 20
34.86505050489983
 30
0.0
 11
95.52044630381239
 21
34.84463628128056
 31
0.0
  0
LINE
  5
23F
330
6C
100
AcDbEntity
  8
Visible (ANSI)
100
AcDbLine
 10
95.47902194665786
 20
35.40098959064108
 30
0.0
 11
95.47909757305156
 21
35.40094604029735
 31
0.0
  0
LINE
  5
240
330
6C
100
AcDbEntity
  8
Visible (ANSI)
100
AcDbLine
 10
95.47909757305157
 20
48.85068922139681
 30
0.0
 11
95.47902194665786
 21
48.85073277174053
 31
0.0
  0
LINE
  5
241
330
6C
100
AcDbEntity
  8
Visible (ANSI)
100
AcDbLine
 10
95.5617950345732
 20
35.40094604029736
 30
0.0
 11
95.81312044746923
 21
35.54567472006854
 31
0.0
  0
LINE
  5
242
330
6C
100
AcDbEntity
  8
Visible (ANSI)
100
AcDbLine
 10
95.81312044746926
 20
48.995417901168
 30
0.0
 11
95.81312044746923
 21
35.54567472006854
 31
0.0
  0
LINE
  5
243
330
6C
100
AcDbEntity
  8
Visible (ANSI)
100
AcDbLine
 10
95.81312044746926
 20
48.995417901168
 30
0.0
 11
95.56179503457322
 21
48.85068922139682
 31
0.0
  0
LINE
  5
244
330
6C
100
AcDbEntity
  8
Visible (ANSI)
100
AcDbLine
 10
95.77767057541779
 20
49.01583212478726
 30
0.0
 11
95.81312044746926
 21
48.995417901168
 31
0.0
  0
LINE
  5
245
330
6C
100
AcDbEntity
  8
Visible (ANSI)
100
AcDbLine
 10
95.55589617586386
 20
48.88812074182512
 30
0.0
 11
95.77767057541779
 21
49.01583212478726
 31
0.0
  0
LINE
  5
246
330
6C
100
AcDbEntity
  8
Visible (ANSI)
100
AcDbLine
 10
94.87081558184518
 20
49.90417534864009
 30
0.0
 11
94.87081558184518
 21
49.90426278683526
 31
0.0
  0
LINE
  5
247
330
6C
100
AcDbEntity
  8
Visible (ANSI)
100
AcDbLine
 10
83.23796370140343
 20
56.60317665801464
 30
0.0
 11
83.23796370140343
 21
56.60308921981947
 31
0.0
  0
LINE
  5
248
330
6C
100
AcDbEntity
  8
Visible (ANSI)
100
AcDbLine
 10
94.9121643126063
 20
49.9758807704743
 30
0.0
 11
95.16348972550206
 21
50.12060945024533
 31
0.0
  0
LINE
  5
249
330
6C
100
AcDbEntity
  8
Visible (ANSI)
100
AcDbLine
 10
83.53063784506028
 20
56.8195233214247
 30
0.0
 11
95.16348972550206
 21
50.12060945024533
 31
0.0
  0
LINE
  5
24A
330
6C
100
AcDbEntity
  8
Visible (ANSI)
100
AcDbLine
 10
83.53063784506028
 20
56.8195233214247
 30
0.0
 11
83.27931243216426
 21
56.67479464165353
 31
0.0
  0
LINE
  5
24B
330
6C
100
AcDbEntity
  8
Visible (ANSI)
100
AcDbLine
 10
95.16348972550206
 20
50.07962279625925
 30
0.0
 11
94.94185269117599
 21
49.95199051667086
 31
0.0
  0
LINE
  5
24C
330
6C
100
AcDbEntity
  8
Visible (ANSI)
100
AcDbLine
 10
95.16348972550206
 20
50.12060945024533
 30
0.0
 11
95.16348972550206
 21
50.07962279625925
 31
0.0
  0
LINE
  5
24D
330
6C
100
AcDbEntity
  8
Visible (ANSI)
100
AcDbLine
 10
82.58833297943622
 20
56.80648545586243
 30
0.0
 11
82.77739896371073
 21
56.91620508448551
 31
0.0
  0
LINE
  5
24E
330
6C
100
AcDbEntity
  8
Visible (ANSI)
100
AcDbLine
 10
82.77739896371073
 20
56.91620508448551
 30
0.0
 11
82.81284883576219
 21
56.93661930810478
 31
0.0
  0
LINE
  5
24F
330
6C
100
AcDbEntity
  8
Visible (ANSI)
100
AcDbLine
 10
82.58833297943622
 20
56.27407428547031
 30
0.0
 11
82.62975733659079
 21
56.25021958469709
 31
0.0
  0
LINE
  5
250
330
6C
100
AcDbEntity
  8
Visible (ANSI)
100
AcDbLine
 10
82.62975733659079
 20
56.25021958469709
 30
0.0
 11
82.62975733659079
 21
56.25013214650192
 31
0.0
  0
LINE
  5
251
330
6C
100
AcDbEntity
  8
Visible Narrow (ANSI)
100
AcDbLine
 10
82.62968171019705
 20
56.25017569684565
 30
0.0
 11
82.62968171019705
 21
42.80043251574618
 31
0.0
  0
LINE
  5
252
330
6C
100
AcDbEntity
  8
Visible (ANSI)
100
AcDbLine
 10
82.62975733659077
 20
42.80038896540245
 30
0.0
 11
82.62975733659077
 21
42.80030152720729
 31
0.0
  0
LINE
  5
253
330
6C
100
AcDbEntity
  8
Visible (ANSI)
100
AcDbLine
 10
82.62975733659077
 20
42.80030152720729
 30
0.0
 11
82.58833297943622
 21
42.82415622798052
 31
0.0
  0
ELLIPSE
  5
254
330
6C
100
AcDbEntity
  8
Visible (ANSI)
100
AcDbEllipse
 10
82.67103044095788
 20
56.27398684727515
 30
0.0
 11
-0.0584759358288575
 21
0.0000000000000001
 31
0.0
210
0.0
220
0.0
230
1.0
 40
0.5758617009853071
 41
0.7247905929202166
 42
0.7853981633973835
  0
ELLIPSE
  5
255
330
6C
100
AcDbEntity
  8
Visible (ANSI)
100
AcDbEllipse
 10
82.67103044095788
 20
42.82424366617569
 30
0.0
 11
-0.058475935828877
 21
-0.0000000000000003
 31
0.0
210
0.0
220
0.0
230
1.0
 40
0.5758617009853026
 41
0.0
 42
0.7853981633973533
  0
LINE
  5
256
330
6C
100
AcDbEntity
  8
Visible (ANSI)
100
AcDbLine
 10
82.58833297943622
 20
42.82415622798052
 30
0.0
 11
82.61255450512901
 21
42.83810447696643
 31
0.0
  0
LINE
  5
257
330
6C
100
AcDbEntity
  8
Visible (ANSI)
100
AcDbLine
 10
82.61255450512901
 20
56.2601260364844
 30
0.0
 11
82.61255450512901
 21
42.82424366617569
 31
0.0
  0
LINE
  5
258
330
6C
100
AcDbEntity
  8
Visible (ANSI)
100
AcDbLine
 10
82.62975733659079
 20
56.25013214650192
 30
0.0
 11
82.62968171019705
 21
56.25017569684565
 31
0.0
  0
LINE
  5
259
330
6C
100
AcDbEntity
  8
Visible (ANSI)
100
AcDbLine
 10
82.62968171019705
 20
42.80043251574618
 30
0.0
 11
82.62975733659077
 21
42.80038896540245
 31
0.0
  0
LINE
  5
25A
330
6C
100
AcDbEntity
  8
Visible (ANSI)
100
AcDbLine
 10
82.76748345886566
 20
56.37715274709174
 30
0.0
 11
82.81142329369719
 21
56.40245601511885
 31
0.0
  0
LINE
  5
25B
330
6C
100
AcDbEntity
  8
Visible (ANSI)
100
AcDbLine
 10
82.83100742775138
 20
56.37290532062908
 30
0.0
 11
82.78321209777237
 21
56.34538182060819
 31
0.0
  0
LINE
  5
25C
330
6C
100
AcDbEntity
  8
Visible (ANSI)
100
AcDbLine
 10
82.77739896371071
 20
41.96427371035984
 30
0.0
 11
82.58833297943622
 21
42.2917450575884
 31
0.0
  0
DIMENSION
  5
25D
330
6C
100
AcDbEntity
  8
Dimension (ANSI)
100
AcDbDimension
  2
*D4
 10
3.38524906240244
 20
51.13317940709232
 30
0.0
 11
3.385249062402431
 21
34.03317940709233
 31
0.0
 70
   160
  1
<>
 42
34.19999999999999
  3
Default (ANSI)
100
AcDbAlignedDimension
 13
15.42786138292118
 23
16.93317940709232
 33
0.0
 14
15.42786138292117
 24
51.13317940709232
 34
0.0
 50
90.0
100
AcDbRotatedDimension
1001
ACAD
1000
DSTYLE
1002
{
1070
   289
1070
     1
1070
   271
1070
     2
1070
   272
1070
     2
1070
    48
1040
0.0
1070
    47
1040
0.0
1002
}
  0
DIMENSION
  5
34A
330
6C
100
AcDbEntity
  8
Dimension (ANSI)
100
AcDbDimension
  2
*D5
 10
49.12786138292117
 20
57.56231326536004
 30
0.0
 11
32.02786138292117
 21
57.56231326536004
 31
0.0
 70
   160
  1
<>
 42
34.2
  3
Default (ANSI)
100
AcDbAlignedDimension
 13
14.92786138292117
 23
50.63317940709232
 33
0.0
 14
49.12786138292117
 24
50.63317940709232
 34
0.0
100
AcDbRotatedDimension
1001
ACAD
1000
DSTYLE
1002
{
1070
   289
1070
     1
1070
    73
1070
     0
1070
    74
1070
     0
1070
   271
1070
     2
1070
   272
1070
     2
1070
    48
1040
0.0
1070
    47
1040
0.0
1002
}
  0
DIMENSION
  5
434
330
6C
100
AcDbEntity
  8
Dimension (ANSI)
100
AcDbDimension
  2
*D6
 10
14.08784176663622
 20
18.20317940709232
 30
0.0
 11
12.42666860814915
 21
15.76710294771107
 31
0.0
 70
   160
  1
<>
 42
0.75
  3
Default (ANSI)
100
AcDbAlignedDimension
 13
15.44786138292118
 23
17.45317940709232
 33
0.0
 14
15.44786138292118
 24
18.20317940709232
 34
0.0
 50
90.0
100
AcDbRotatedDimension
1001
ACAD
1000
DSTYLE
1002
{
1070
   289
1070
     1
1070
   271
1070
     2
1070
   272
1070
     2
1070
    48
1040
0.0
1070
    47
1040
0.0
1002
}
  0
DIMENSION
  5
534
330
6C
100
AcDbEntity
  8
Dimension (ANSI)
100
AcDbDimension
  2
*D7
 10
53.42267039081455
 20
50.61317940709233
 30
0.0
 11
51.75746768213377
 21
48.9266739267848
 31
0.0
 70
   160
  1
<>
 42
0.5199999999999961
  3
Default (ANSI)
100
AcDbAlignedDimension
 13
48.62786138292118
 23
51.13317940709232
 33
0.0
 14
48.60786138292117
 24
50.61317940709233
 34
0.0
 50
270.0
100
AcDbRotatedDimension
1001
ACAD
1000
DSTYLE
1002
{
1070
   289
1070
     1
1070
   271
1070
     2
1070
   272
1070
     2
1070
    48
1040
0.0
1070
    47
1040
0.0
1002
}
  0
DIMENSION
  5
634
330
6C
100
AcDbEntity
  8
Dimension (ANSI)
100
AcDbDimension
  2
*D8
 10
48.60786138292117
 20
55.65254948583246
 30
0.0
 11
51.67498268764478
 21
55.65254948583246
 31
0.0
 70
   160
  1
<>
 42
0.5200000000000032
  3
Default (ANSI)
100
AcDbAlignedDimension
 13
49.12786138292117
 23
50.63317940709232
 33
0.0
 14
48.60786138292117
 24
50.61317940709233
 34
0.0
 50
180.0
100
AcDbRotatedDimension
1001
ACAD
1000
DSTYLE
1002
{
1070
   289
1070
     1
1070
    73
1070
     0
1070
    74
1070
     0
1070
   271
1070
     2
1070
   272
1070
     2
1070
    48
1040
0.0
1070
    47
1040
0.0
1002
}
  0
DIMENSION
  5
71E
330
6C
100
AcDbEntity
  8
Dimension (ANSI)
100
AcDbDimension
  2
*D9
 10
10.83149125860577
 20
34.03317940709232
 30
0.0
 11
10.83149125860576
 21
25.74317940709232
 31
0.0
 70
   160
  1
<>
 42
16.57999999999999
  3
Default (ANSI)
100
AcDbAlignedDimension
 13
15.44786138292118
 23
17.45317940709232
 33
0.0
 14
15.44786138292118
 24
34.03317940709232
 34
0.0
 50
90.0
100
AcDbRotatedDimension
1001
ACAD
1000
DSTYLE
1002
{
1070
   289
1070
     1
1070
   271
1070
     3
1070
   272
1070
     3
1070
    48
1040
0.0
1070
    47
1040
0.0
1002
}
  0
DIMENSION
  5
808
330
6C
100
AcDbEntity
  8
Dimension (ANSI)
100
AcDbDimension
  2
*D10
 10
7.263034386803036
 20
50.61317940709231
 30
0.0
 11
7.263034386803026
 21
34.03317940709232
 31
0.0
 70
   160
  1
<>
 42
33.15999999999998
  3
Default (ANSI)
100
AcDbAlignedDimension
 13
15.44786138292118
 23
17.45317940709232
 33
0.0
 14
15.44786138292118
 24
50.61317940709231
 34
0.0
 50
90.0
100
AcDbRotatedDimension
1001
ACAD
1000
DSTYLE
1002
{
1070
   289
1070
     1
1070
   271
1070
     3
1070
   272
1070
     3
1070
    48
1040
0.0
1070
    47
1040
0.0
1002
}
  0
DIMENSION
  5
8F2
330
6C
100
AcDbEntity
  8
Dimension (ANSI)
100
AcDbDimension
  2
*D11
 10
63.27572914080837
 20
54.13958885591122
 30
0.0
 11
59.95460783608462
 21
54.13958885591122
 31
0.0
 70
   160
  1
<>
 42
0.7740000000001502
  3
Default (ANSI)
100
AcDbAlignedDimension
 13
62.50172914080822
 23
51.13317940709232
 33
0.0
 14
63.27572914080837
 24
49.41517940709232
 34
0.0
 50
180.0
100
AcDbRotatedDimension
1001
ACAD
1000
DSTYLE
1002
{
1070
   289
1070
     1
1070
    73
1070
     0
1070
    74
1070
     0
1070
   271
1070
     2
1070
   272
1070
     2
1070
    48
1040
0.0
1070
    47
1040
0.0
1002
}
  0
MTEXT
  5
9DC
102
{ACAD_REACTORS
330
9DD
102
}
330
6C
100
AcDbEntity
  8
Symbol (ANSI)
100
AcDbMText
 10
66.20625829059971
 20
37.82319061545546
 30
0.0
 40
0.7058823616651539
 41
2.887024543748071
 71
     1
 72
     1
  1
{12 GA.}
  7
Note Text (ANSI)
 73
     1
 44
1.0
1001
ACAD
1000
MTEXTBEGIN
1070
    73
1070
     1
1070
    44
1040
1.0
1070
    74
1070
     0
1000
MTEXTEND
  0
LEADER
  5
9DD
330
6C
100
AcDbEntity
  8
Symbol (ANSI)
100
AcDbLeader
  3
Default (ANSI)$7
 73
     0
 74
     0
 75
     1
 40
0.7343262446066646
 41
2.689843196835516
 76
     3
 10
63.27572914080837
 20
34.03317940709233
 30
0.0
 10
65.44201559875728
 20
37.47024943462288
 30
0.0
 10
66.02098733182249
 20
37.47024943462288
 30
0.0
340
9DC
213
0.0
223
-0.3529411808325769
233
0.0
1001
ACAD
1000
DSTYLE
1002
{
1070
    77
1070
     0
1002
}
  0
DIMENSION
  5
9DE
330
6C
100
AcDbEntity
  8
Dimension (ANSI)
100
AcDbDimension
  2
*D12
 10
51.94425466886146
 20
17.43317940709232
 30
0.0
 11
53.61111660409257
 21
19.11925586647358
 31
0.0
 70
   160
  1
<>
 42
0.4999999999999965
  3
Default (ANSI)
100
AcDbAlignedDimension
 13
48.62786138292118
 23
16.93317940709232
 33
0.0
 14
49.12786138292118
 24
17.43317940709232
 34
0.0
 50
90.0
100
AcDbRotatedDimension
1001
ACAD
1000
DSTYLE
1002
{
1070
   289
1070
     1
1070
   271
1070
     2
1070
   272
1070
     2
1070
    48
1040
0.0
1070
    47
1040
0.0
1002
}
  0
DIMENSION
  5
ADE
330
6C
100
AcDbEntity
  8
Dimension (ANSI)
100
AcDbDimension
  2
*D13
 10
48.62786138292118
 20
12.99617153307658
 30
0.0
 11
46.08074007819758
 21
12.99617153307658
 31
0.0
 70
   160
  1
<>
 42
0.5
  3
Default (ANSI)
100
AcDbAlignedDimension
 13
49.12786138292118
 23
17.43317940709232
 33
0.0
 14
48.62786138292118
 24
16.93317940709232
 34
0.0
 50
180.0
100
AcDbRotatedDimension
1001
ACAD
1000
DSTYLE
1002
{
1070
   289
1070
     1
1070
    73
1070
     0
1070
    74
1070
     0
1070
   271
1070
     2
1070
   272
1070
     2
1070
    48
1040
0.0
1070
    47
1040
0.0
1002
}
  0
DIMENSION
  5
BC8
330
6C
100
AcDbEntity
  8
Dimension (ANSI)
100
AcDbDimension
  2
*D14
 10
15.57286138292124
 20
50.39667305614624
 30
0.0
 11
8.077656335216833
 21
57.92157387576487
 31
0.0
 70
   163
  1
<>{\PTYP.(8PL.)}
 71
     3
 42
0.5
  3
Default (ANSI)
100
AcDbDiametricDimension
 15
15.32286138292115
 25
50.82968575803839
 35
0.0
 40
0.0
1001
ACAD_DSTYLE_DIMRADIAL_EXTENSION
1070
   387
1070
     1
1070
   388
1040
0.0
1070
   390
1040
0.0
1001
ACAD
1000
DSTYLE
1002
{
1070
   145
1040
-0.25
1070
   144
1040
1.000000000000014
1070
   271
1070
     2
1070
   272
1070
     2
1070
    48
1040
0.0
1070
    47
1040
0.0
1002
}
  0
DIMENSION
  5
C82
330
6C
100
AcDbEntity
  8
Dimension (ANSI)
100
AcDbDimension
  2
*D15
 10
15.38838873988924
 20
18.34766839363038
 30
0.0
 11
20.44920540289587
 21
14.07531933862062
 31
0.0
 70
   163
  1
<>{\PTYP. (4PL.)}
 42
0.3125
  3
Default (ANSI)
100
AcDbDiametricDimension
 15
15.50733402595315
 25
18.05869042055428
 35
0.0
 40
0.0
1001
ACAD_DSTYLE_DIMRADIAL_EXTENSION
1070
   387
1070
     1
1070
   388
1040
0.0
1070
   390
1040
0.0
1001
ACAD
1000
DSTYLE
1002
{
1070
   145
1040
-0.25
1070
   144
1040
1.000000000000011
1070
   271
1070
     2
1070
   272
1070
     2
1070
    48
1040
0.0
1070
    47
1040
0.0
1002
}
  0
DIMENSION
  5
D3B
330
6C
100
AcDbEntity
  8
Dimension (ANSI)
100
AcDbDimension
  2
*D16
 10
15.44786138292118
 20
55.65254948583246
 30
0.0
 11
32.02786138292117
 21
55.65254948583246
 31
0.0
 70
   160
  1
<>
 42
33.15999999999998
  3
Default (ANSI)
100
AcDbAlignedDimension
 13
48.60786138292117
 23
50.61317940709233
 33
0.0
 14
15.44786138292118
 24
50.61317940709231
 34
0.0
 50
180.0
100
AcDbRotatedDimension
1001
ACAD
1000
DSTYLE
1002
{
1070
   289
1070
     1
1070
    73
1070
     0
1070
    74
1070
     0
1070
   271
1070
     3
1070
   272
1070
     3
1070
    48
1040
0.0
1070
    47
1040
0.0
1002
}
  0
DIMENSION
  5
E25
330
6C
100
AcDbEntity
  8
Dimension (ANSI)
100
AcDbDimension
  2
*D17
 10
32.02786138292117
 20
53.39856300831652
 30
0.0
 11
40.31786138292117
 21
53.39856300831652
 31
0.0
 70
   160
  1
<>
 42
16.58
  3
Default (ANSI)
100
AcDbAlignedDimension
 13
48.60786138292117
 23
50.61317940709233
 33
0.0
 14
32.02786138292117
 24
50.61317940709231
 34
0.0
 50
180.0
100
AcDbRotatedDimension
1001
ACAD
1000
DSTYLE
1002
{
1070
   289
1070
     1
1070
    73
1070
     0
1070
    74
1070
     0
1070
   271
1070
     2
1070
   272
1070
     2
1070
    48
1040
0.0
1070
    47
1040
0.0
1002
}
  0
ENDSEC
  0
SECTION
  2
OBJECTS
  0
DICTIONARY
  5
C
330
0
100
AcDbDictionary
281
     1
  3
ACAD_CIP_PREVIOUS_PRODUCT_INFO
350
F0F
  3
ACAD_COLOR
350
63
  3
ACAD_GROUP
350
D
  3
ACAD_LAYOUT
350
62
  3
ACAD_MATERIAL
350
10
  3
ACAD_MLEADERSTYLE
350
66
  3
ACAD_MLINESTYLE
350
5F
  3
ACAD_PLOTSETTINGS
350
61
  3
ACAD_PLOTSTYLENAME
350
E
  3
ACAD_SCALELIST
350
42
  3
ACAD_TABLESTYLE
350
64
  3
ACAD_VISUALSTYLE
350
29
  3
ACDB_RECOMPOSE_DATA
350
F1E
  3
AcDbVariableDictionary
350
D8
  3
DWGPROPS
350
F1F
  0
DICTIONARY
  5
F5B
330
C7C
100
AcDbDictionary
280
     1
281
     1
  3
ACAD_MTEXT_RT
360
F5C
  0
DICTIONARY
  5
F5D
330
D35
100
AcDbDictionary
280
     1
281
     1
  3
ACAD_MTEXT_RT
360
F5E
  0
XRECORD
  5
F0F
102
{ACAD_REACTORS
330
C
102
}
330
C
100
AcDbXrecord
280
     1
300
INVNTOR
300
2012
300
85795PDSP_2012_0F
  0
DICTIONARY
  5
63
102
{ACAD_REACTORS
330
C
102
}
330
C
100
AcDbDictionary
281
     1
  0
DICTIONARY
  5
D
102
{ACAD_REACTORS
330
C
102
}
330
C
100
AcDbDictionary
281
     1
  0
DICTIONARY
  5
62
102
{ACAD_REACTORS
330
C
102
}
330
C
100
AcDbDictionary
281
     1
  3
Layout1
350
6B
  3
Layout2
350
73
  3
Model
350
6F
  0
DICTIONARY
  5
10
102
{ACAD_REACTORS
330
C
102
}
330
C
100
AcDbDictionary
281
     1
  3
ByBlock
350
19
  3
ByLayer
350
11
  3
Global
350
21
  0
DICTIONARY
  5
66
102
{ACAD_REACTORS
330
C
102
}
330
C
100
AcDbDictionary
281
     1
  3
Standard
350
67
  0
DICTIONARY
  5
5F
102
{ACAD_REACTORS
330
C
102
}
330
C
100
AcDbDictionary
281
     1
  3
Standard
350
60
  0
DICTIONARY
  5
61
102
{ACAD_REACTORS
330
C
102
}
330
C
100
AcDbDictionary
281
     1
  0
ACDBDICTIONARYWDFLT
  5
E
102
{ACAD_REACTORS
330
C
102
}
330
C
100
AcDbDictionary
281
     1
  3
Normal
350
F
100
AcDbDictionaryWithDefault
340
F
  0
DICTIONARY
  5
42
102
{ACAD_REACTORS
330
C
102
}
330
C
100
AcDbDictionary
281
     1
  3
A0
350
43
  3
A1
350
44
  3
A2
350
45
  3
A3
350
46
  3
A4
350
47
  3
A5
350
48
  3
A6
350
49
  3
A7
350
4A
  3
A8
350
4B
  3
A9
350
4C
  3
B0
350
4D
  3
B1
350
4E
  3
B2
350
4F
  3
B3
350
50
  3
B4
350
51
  3
B5
350
52
  3
B6
350
53
  0
DICTIONARY
  5
64
102
{ACAD_REACTORS
330
C
102
}
330
C
100
AcDbDictionary
281
     1
  3
Standard
350
65
  0
DICTIONARY
  5
29
102
{ACAD_REACTORS
330
C
102
}
330
C
100
AcDbDictionary
281
     1
  3
2dWireframe
350
2F
  3
Basic
350
2E
  3
Brighten
350
35
  3
ColorChange
350
39
  3
Conceptual
350
32
  3
Dim
350
34
  3
EdgeColorOff
350
41
  3
Facepattern
350
38
  3
Flat
350
2A
  3
FlatWithEdges
350
2B
  3
Gouraud
350
2C
  3
GouraudWithEdges
350
2D
  3
Hidden
350
31
  3
JitterOff
350
3F
  3
Linepattern
350
37
  3
OverhangOff
350
40
  3
Realistic
350
33
  3
Shaded
350
3E
  3
Shaded with edges
350
3D
  3
Shades of Gray
350
3A
  3
Sketchy
350
3B
  3
Thicken
350
36
  3
Wireframe
350
30
  3
X-Ray
350
3C
  0
XRECORD
  5
F1E
102
{ACAD_REACTORS
330
C
102
}
330
C
100
AcDbXrecord
280
     1
 90
        1
330
65
  0
DICTIONARY
  5
D8
102
{ACAD_REACTORS
330
C
102
}
330
C
100
AcDbDictionary
281
     1
  3
CANNOSCALE
350
DB
  3
CMLEADERSTYLE
350
DA
  3
CTABLESTYLE
350
D9
  3
DIMASSOC
350
F17
  3
HIDETEXT
350
F16
  3
INDEXCTL
350
F15
  3
LAYEREVAL
350
F12
  3
LAYERNOTIFY
350
F13
  3
LIGHTINGUNITS
350
F11
  3
MSLTSCALE
350
F10
  3
SORTENTS
350
F14
  3
XCLIPFRAME
350
F18
  0
XRECORD
  5
F1F
102
{ACAD_REACTORS
330
C
102
}
330
C
100
AcDbXrecord
280
     1
  1
DWGPROPS COOKIE
  2

  3

  4
EC
  6

  7

  8

  9
-
300
Manager=
301
Company=
302
Category=
303
Part Number=NP3636C
304
Description=NPC PANEL MASTER VIEW
305
Project=
306
Designer=EC
307
Engineer=
308
Authority=
309
Cost Center=
 40
0.0000381712962963
 41
2455944.528366447
 42
2455944.528366632
  1

 90
       20
300
Vendor=
300
User Status=
300
Design Status=WorkInProgress
300
Checked by=JG
300
Date Checked=02/19/2009
300
Engr Approved by=
300
Mfg Approved by=
300
DWG. NO=
300
NUMBER OF SHEETS=1
300
DRAWING #=1
  0
XRECORD
  5
F5C
102
{ACAD_REACTORS
330
F5B
102
}
330
F5B
100
AcDbXrecord
280
     1
 40
29720.0
  1
\A1;\U+22050.50{\PTYP.(8PL.)}
  0
XRECORD
  5
F5E
102
{ACAD_REACTORS
330
F5D
102
}
330
F5D
100
AcDbXrecord
280
     1
 40
30807.0
  1
\A1;\U+22050.31{\PTYP. (4PL.)}
  0
LAYOUT
  5
6B
102
{ACAD_XDICTIONARY
360
F55
102
}
102
{ACAD_REACTORS
330
62
102
}
330
62
100
AcDbPlotSettings
  1

  2

  4

  6

 40
0.0
 41
0.0
 42
0.0
 43
0.0
 44
0.0
 45
0.0
 46
0.0
 47
0.0
 48
0.0
 49
0.0
140
0.0
141
0.0
142
1.0
143
1.0
 70
   688
 72
     0
 73
     0
 74
     5
  7

 75
    16
147
1.0
148
0.0
149
0.0
100
AcDbLayout
  1
Layout1
 70
     1
 71
     1
 10
0.0
 20
0.0
 11
12.0
 21
9.0
 12
0.0
 22
0.0
 32
0.0
 14
0.0
 24
0.0
 34
0.0
 15
0.0
 25
0.0
 35
0.0
146
0.0
 13
0.0
 23
0.0
 33
0.0
 16
1.0
 26
0.0
 36
0.0
 17
0.0
 27
1.0
 37
0.0
 76
     0
330
68
  0
LAYOUT
  5
73
102
{ACAD_XDICTIONARY
360
F59
102
}
102
{ACAD_REACTORS
330
62
102
}
330
62
100
AcDbPlotSettings
  1

  2

  4

  6

 40
0.0
 41
0.0
 42
0.0
 43
0.0
 44
0.0
 45
0.0
 46
0.0
 47
0.0
 48
0.0
 49
0.0
140
0.0
141
0.0
142
1.0
143
1.0
 70
   688
 72
     0
 73
     0
 74
     5
  7

 75
    16
147
1.0
148
0.0
149
0.0
100
AcDbLayout
  1
Layout2
 70
     1
 71
     2
 10
0.0
 20
0.0
 11
12.0
 21
9.0
 12
0.0
 22
0.0
 32
0.0
 14
0.0
 24
0.0
 34
0.0
 15
0.0
 25
0.0
 35
0.0
146
0.0
 13
0.0
 23
0.0
 33
0.0
 16
1.0
 26
0.0
 36
0.0
 17
0.0
 27
1.0
 37
0.0
 76
     0
330
70
  0
LAYOUT
  5
6F
102
{ACAD_XDICTIONARY
360
F57
102
}
102
{ACAD_REACTORS
330
62
102
}
330
62
100
AcDbPlotSettings
  1

  2

  4

  6

 40
0.0
 41
0.0
 42
0.0
 43
0.0
 44
0.0
 45
0.0
 46
0.0
 47
0.0
 48
0.0
 49
0.0
140
0.0
141
0.0
142
1.0
143
1.0
 70
  1712
 72
     0
 73
     0
 74
     0
  7

 75
     0
147
1.0
148
0.0
149
0.0
100
AcDbLayout
  1
Model
 70
     1
 71
     0
 10
0.0
 20
0.0
 11
12.0
 21
9.0
 12
0.0
 22
0.0
 32
0.0
 14
0.0
 24
0.0
 34
0.0
 15
0.0
 25
0.0
 35
0.0
146
0.0
 13
0.0
 23
0.0
 33
0.0
 16
1.0
 26
0.0
 36
0.0
 17
0.0
 27
1.0
 37
0.0
 76
     0
330
6C
  0
MATERIAL
  5
19
102
{ACAD_XDICTIONARY
360
1A
102
}
102
{ACAD_REACTORS
330
10
102
}
330
10
100
AcDbMaterial
  1
ByBlock
 72
     0
 43
0.0208333333333333
 43
0.0
 43
0.0
 43
0.0
 43
0.0
 43
0.0208333333333333
 43
0.0
 43
0.0
 43
0.0
 43
0.0
 43
1.0
 43
0.0
 43
0.0
 43
0.0
 43
0.0
 43
1.0
 77
     0
 47
0.0208333333333333
 47
0.0
 47
0.0
 47
0.0
 47
0.0
 47
0.0208333333333333
 47
0.0
 47
0.0
 47
0.0
 47
0.0
 47
1.0
 47
0.0
 47
0.0
 47
0.0
 47
0.0
 47
1.0
171
     0
 49
0.0208333333333333
 49
0.0
 49
0.0
 49
0.0
 49
0.0
 49
0.0208333333333333
 49
0.0
 49
0.0
 49
0.0
 49
0.0
 49
1.0
 49
0.0
 49
0.0
 49
0.0
 49
0.0
 49
1.0
175
     0
142
0.0208333333333333
142
0.0
142
0.0
142
0.0
142
0.0
142
0.0208333333333333
142
0.0
142
0.0
142
0.0
142
0.0
142
1.0
142
0.0
142
0.0
142
0.0
142
0.0
142
1.0
179
     0
144
0.0208333333333333
144
0.0
144
0.0
144
0.0
144
0.0
144
0.0208333333333333
144
0.0
144
0.0
144
0.0
144
0.0
144
1.0
144
0.0
144
0.0
144
0.0
144
0.0
144
1.0
147
0.0208333333333333
147
0.0
147
0.0
147
0.0
147
0.0
147
0.0208333333333333
147
0.0
147
0.0
147
0.0
147
0.0
147
1.0
147
0.0
147
0.0
147
0.0
147
0.0
147
1.0
  0
MATERIAL
  5
11
102
{ACAD_XDICTIONARY
360
12
102
}
102
{ACAD_REACTORS
330
10
102
}
330
10
100
AcDbMaterial
  1
ByLayer
 72
     0
 43
0.0208333333333333
 43
0.0
 43
0.0
 43
0.0
 43
0.0
 43
0.0208333333333333
 43
0.0
 43
0.0
 43
0.0
 43
0.0
 43
1.0
 43
0.0
 43
0.0
 43
0.0
 43
0.0
 43
1.0
 77
     0
 47
0.0208333333333333
 47
0.0
 47
0.0
 47
0.0
 47
0.0
 47
0.0208333333333333
 47
0.0
 47
0.0
 47
0.0
 47
0.0
 47
1.0
 47
0.0
 47
0.0
 47
0.0
 47
0.0
 47
1.0
171
     0
 49
0.0208333333333333
 49
0.0
 49
0.0
 49
0.0
 49
0.0
 49
0.0208333333333333
 49
0.0
 49
0.0
 49
0.0
 49
0.0
 49
1.0
 49
0.0
 49
0.0
 49
0.0
 49
0.0
 49
1.0
175
     0
142
0.0208333333333333
142
0.0
142
0.0
142
0.0
142
0.0
142
0.0208333333333333
142
0.0
142
0.0
142
0.0
142
0.0
142
1.0
142
0.0
142
0.0
142
0.0
142
0.0
142
1.0
179
     0
144
0.0208333333333333
144
0.0
144
0.0
144
0.0
144
0.0
144
0.0208333333333333
144
0.0
144
0.0
144
0.0
144
0.0
144
1.0
144
0.0
144
0.0
144
0.0
144
0.0
144
1.0
147
0.0208333333333333
147
0.0
147
0.0
147
0.0
147
0.0
147
0.0208333333333333
147
0.0
147
0.0
147
0.0
147
0.0
147
1.0
147
0.0
147
0.0
147
0.0
147
0.0
147
1.0
  0
MATERIAL
  5
21
102
{ACAD_XDICTIONARY
360
22
102
}
102
{ACAD_REACTORS
330
10
102
}
330
10
100
AcDbMaterial
  1
Global
 72
     0
 43
0.0208333333333333
 43
0.0
 43
0.0
 43
0.0
 43
0.0
 43
0.0208333333333333
 43
0.0
 43
0.0
 43
0.0
 43
0.0
 43
1.0
 43
0.0
 43
0.0
 43
0.0
 43
0.0
 43
1.0
 77
     0
 47
0.0208333333333333
 47
0.0
 47
0.0
 47
0.0
 47
0.0
 47
0.0208333333333333
 47
0.0
 47
0.0
 47
0.0
 47
0.0
 47
1.0
 47
0.0
 47
0.0
 47
0.0
 47
0.0
 47
1.0
171
     0
 49
0.0208333333333333
 49
0.0
 49
0.0
 49
0.0
 49
0.0
 49
0.0208333333333333
 49
0.0
 49
0.0
 49
0.0
 49
0.0
 49
1.0
 49
0.0
 49
0.0
 49
0.0
 49
0.0
 49
1.0
175
     0
142
0.0208333333333333
142
0.0
142
0.0
142
0.0
142
0.0
142
0.0208333333333333
142
0.0
142
0.0
142
0.0
142
0.0
142
1.0
142
0.0
142
0.0
142
0.0
142
0.0
142
1.0
179
     0
144
0.0208333333333333
144
0.0
144
0.0
144
0.0
144
0.0
144
0.0208333333333333
144
0.0
144
0.0
144
0.0
144
0.0
144
1.0
144
0.0
144
0.0
144
0.0
144
0.0
144
1.0
147
0.0208333333333333
147
0.0
147
0.0
147
0.0
147
0.0
147
0.0208333333333333
147
0.0
147
0.0
147
0.0
147
0.0
147
1.0
147
0.0
147
0.0
147
0.0
147
0.0
147
1.0
  0
MLEADERSTYLE
  5
67
102
{ACAD_XDICTIONARY
360
F1B
102
}
102
{ACAD_REACTORS
330
66
102
}
330
66
100
AcDbMLeaderStyle
170
     2
171
     1
172
     0
 90
        2
 40
0.0
 41
0.0
173
     1
 91
-1056964608
340
5B
 92
       -2
290
     1
 42
0.09
291
     1
 43
0.36
  3
Standard
 44
0.18
300

342
55
174
     1
178
     6
175
     1
176
     0
 93
-1056964608
 45
0.18
292
     0
297
     0
 46
0.18
 94
-1056964608
 47
1.0
 49
1.0
140
1.0
293
     1
141
0.0
294
     1
177
     0
142
1.0
295
     0
296
     0
143
0.125
1001
ACAD_MLEADERVER
1070
     2
  0
MLINESTYLE
  5
60
102
{ACAD_REACTORS
330
5F
102
}
330
5F
100
AcDbMlineStyle
  2
STANDARD
 70
     0
  3

 62
   256
 51
90.0
 52
90.0
 71
     2
 49
0.5
 62
   256
  6
BYLAYER
 49
-0.5
 62
   256
  6
BYLAYER
  0
ACDBPLACEHOLDER
  5
F
102
{ACAD_REACTORS
330
E
102
}
330
E
  0
SCALE
  5
43
102
{ACAD_REACTORS
330
42
102
}
330
42
100
AcDbScale
 70
     0
300
1:1
140
1.0
141
1.0
290
     1
  0
SCALE
  5
44
102
{ACAD_REACTORS
330
42
102
}
330
42
100
AcDbScale
 70
     0
300
1/128" = 1'-0"
140
0.0078125
141
12.0
290
     0
  0
SCALE
  5
45
102
{ACAD_REACTORS
330
42
102
}
330
42
100
AcDbScale
 70
     0
300
1/64" = 1'-0"
140
0.015625
141
12.0
290
     0
  0
SCALE
  5
46
102
{ACAD_REACTORS
330
42
102
}
330
42
100
AcDbScale
 70
     0
300
1/32" = 1'-0"
140
0.03125
141
12.0
290
     0
  0
SCALE
  5
47
102
{ACAD_REACTORS
330
42
102
}
330
42
100
AcDbScale
 70
     0
300
1/16" = 1'-0"
140
0.0625
141
12.0
290
     0
  0
SCALE
  5
48
102
{ACAD_REACTORS
330
42
102
}
330
42
100
AcDbScale
 70
     0
300
3/32" = 1'-0"
140
0.09375
141
12.0
290
     0
  0
SCALE
  5
49
102
{ACAD_REACTORS
330
42
102
}
330
42
100
AcDbScale
 70
     0
300
1/8" = 1'-0"
140
0.125
141
12.0
290
     0
  0
SCALE
  5
4A
102
{ACAD_REACTORS
330
42
102
}
330
42
100
AcDbScale
 70
     0
300
3/16" = 1'-0"
140
0.1875
141
12.0
290
     0
  0
SCALE
  5
4B
102
{ACAD_REACTORS
330
42
102
}
330
42
100
AcDbScale
 70
     0
300
1/4" = 1'-0"
140
0.25
141
12.0
290
     0
  0
SCALE
  5
4C
102
{ACAD_REACTORS
330
42
102
}
330
42
100
AcDbScale
 70
     0
300
3/8" = 1'-0"
140
0.375
141
12.0
290
     0
  0
SCALE
  5
4D
102
{ACAD_REACTORS
330
42
102
}
330
42
100
AcDbScale
 70
     0
300
1/2" = 1'-0"
140
0.5
141
12.0
290
     0
  0
SCALE
  5
4E
102
{ACAD_REACTORS
330
42
102
}
330
42
100
AcDbScale
 70
     0
300
3/4" = 1'-0"
140
0.75
141
12.0
290
     0
  0
SCALE
  5
4F
102
{ACAD_REACTORS
330
42
102
}
330
42
100
AcDbScale
 70
     0
300
1" = 1'-0"
140
1.0
141
12.0
290
     0
  0
SCALE
  5
50
102
{ACAD_REACTORS
330
42
102
}
330
42
100
AcDbScale
 70
     0
300
1-1/2" = 1'-0"
140
1.5
141
12.0
290
     0
  0
SCALE
  5
51
102
{ACAD_REACTORS
330
42
102
}
330
42
100
AcDbScale
 70
     0
300
3" = 1'-0"
140
3.0
141
12.0
290
     0
  0
SCALE
  5
52
102
{ACAD_REACTORS
330
42
102
}
330
42
100
AcDbScale
 70
     0
300
6" = 1'-0"
140
6.0
141
12.0
290
     0
  0
SCALE
  5
53
102
{ACAD_REACTORS
330
42
102
}
330
42
100
AcDbScale
 70
     0
300
1'-0" = 1'-0"
140
12.0
141
12.0
290
     0
  0
TABLESTYLE
  5
65
102
{ACAD_XDICTIONARY
360
F19
102
}
102
{ACAD_REACTORS
330
64
102
}
330
64
100
AcDbTableStyle
  3
Standard
 70
     0
 71
     0
 40
0.06
 41
0.06
280
     0
281
     0
  7
Standard
140
0.18
170
     2
 62
     0
 63
     7
283
     0
274
    -2
284
     1
 64
     0
275
    -2
285
     1
 65
     0
276
    -2
286
     1
 66
     0
277
    -2
287
     1
 67
     0
278
    -2
288
     1
 68
     0
279
    -2
289
     1
 69
     0
  7
Standard
140
0.25
170
     5
 62
     0
 63
     7
283
     0
274
    -2
284
     1
 64
     0
275
    -2
285
     1
 65
     0
276
    -2
286
     1
 66
     0
277
    -2
287
     1
 67
     0
278
    -2
288
     1
 68
     0
279
    -2
289
     1
 69
     0
  7
Standard
140
0.18
170
     5
 62
     0
 63
     7
283
     0
274
    -2
284
     1
 64
     0
275
    -2
285
     1
 65
     0
276
    -2
286
     1
 66
     0
277
    -2
287
     1
 67
     0
278
    -2
288
     1
 68
     0
279
    -2
289
     1
 69
     0
  0
VISUALSTYLE
  5
2F
102
{ACAD_XDICTIONARY
360
F2D
102
}
102
{ACAD_REACTORS
330
29
102
}
330
29
100
AcDbVisualStyle
  2
2dWireframe
 70
     4
 71
     0
 72
     2
 73
     0
 90
        0
 40
-0.6
 41
-30.0
 62
     5
 63
     7
 74
     1
 91
        4
 64
     7
 65
   257
 75
     1
175
     1
 42
1.0
 92
        0
 66
   257
 43
1.0
 76
     1
 77
     6
 78
     2
 67
     7
 79
     5
170
     0
171
     0
290
     0
174
     0
 93
        1
 44
0.0
173
     0
291
     0
 45
0.0
1001
ACAD
1000
AcDbSavedByObjectVersion
1070
     0
  0
VISUALSTYLE
  5
2E
102
{ACAD_XDICTIONARY
360
F2B
102
}
102
{ACAD_REACTORS
330
29
102
}
330
29
100
AcDbVisualStyle
  2
Basic
 70
     7
 71
     1
 72
     0
 73
     1
 90
        0
 40
-0.6
 41
-30.0
 62
     5
 63
     7
 74
     0
 91
        4
 64
     7
 65
   257
 75
     1
175
     1
 42
1.0
 92
        8
 66
     7
 43
1.0
 76
     1
 77
     6
 78
     2
 67
     7
 79
     5
170
     0
171
     0
290
     0
174
     0
 93
        1
 44
0.0
173
     0
291
     1
 45
0.0
1001
ACAD
1000
AcDbSavedByObjectVersion
1070
     0
  0
VISUALSTYLE
  5
35
102
{ACAD_XDICTIONARY
360
F39
102
}
102
{ACAD_REACTORS
330
29
102
}
330
29
100
AcDbVisualStyle
  2
Brighten
 70
    12
 71
     2
 72
     2
 73
     0
 90
        0
 40
-0.6
 41
-30.0
 62
     5
 63
     7
 74
     1
 91
        4
 64
     7
 65
   257
 75
     1
175
     1
 42
1.0
 92
        8
 66
     7
 43
1.0
 76
     1
 77
     6
 78
     2
 67
     7
 79
     5
170
     0
171
     0
290
     0
174
     0
 93
        1
 44
50.0
173
     0
291
     1
 45
0.0
1001
ACAD
1000
AcDbSavedByObjectVersion
1070
     0
  0
VISUALSTYLE
  5
39
102
{ACAD_XDICTIONARY
360
F41
102
}
102
{ACAD_REACTORS
330
29
102
}
330
29
100
AcDbVisualStyle
  2
ColorChange
 70
    16
 71
     2
 72
     2
 73
     3
 90
        0
 40
-0.6
 41
-30.0
 62
     5
 63
     8
 74
     1
 91
        4
 64
     7
 65
   257
 75
     1
175
     1
 42
1.0
 92
        8
 66
     8
 43
1.0
 76
     1
 77
     6
 78
     2
 67
     7
 79
     5
170
     0
171
     0
290
     0
174
     0
 93
        1
 44
0.0
173
     0
291
     1
 45
0.0
1001
ACAD
1000
AcDbSavedByObjectVersion
1070
     0
  0
VISUALSTYLE
  5
32
102
{ACAD_XDICTIONARY
360
F33
102
}
102
{ACAD_REACTORS
330
29
102
}
330
29
100
AcDbVisualStyle
  2
Conceptual
 70
     9
 71
     3
 72
     2
 73
     0
 90
        0
 40
-0.6
 41
-30.0
 62
     5
 63
     7
 74
     2
 91
        2
 64
     7
 65
   257
 75
     1
175
     1
 42
179.0
 92
        8
 66
     7
 43
1.0
 76
     1
 77
     6
 78
     2
 67
     7
 79
     3
170
     0
171
     0
290
     0
174
     0
 93
        1
 44
0.0
173
     0
291
     0
 45
0.0
1001
ACAD
1000
AcDbSavedByObjectVersion
1070
     0
  0
VISUALSTYLE
  5
34
102
{ACAD_XDICTIONARY
360
F37
102
}
102
{ACAD_REACTORS
330
29
102
}
330
29
100
AcDbVisualStyle
  2
Dim
 70
    11
 71
     2
 72
     2
 73
     0
 90
        0
 40
-0.6
 41
-30.0
 62
     5
 63
     7
 74
     1
 91
        4
 64
     7
 65
   257
 75
     1
175
     1
 42
1.0
 92
        8
 66
     7
 43
1.0
 76
     1
 77
     6
 78
     2
 67
     7
 79
     5
170
     0
171
     0
290
     0
174
     0
 93
        1
 44
-50.0
173
     0
291
     1
 45
0.0
1001
ACAD
1000
AcDbSavedByObjectVersion
1070
     0
  0
VISUALSTYLE
  5
41
102
{ACAD_XDICTIONARY
360
F51
102
}
102
{ACAD_REACTORS
330
29
102
}
330
29
100
AcDbVisualStyle
  2
EdgeColorOff
 70
    22
 71
     2
 72
     2
 73
     0
 90
        0
 40
-0.6
 41
-30.0
 62
     5
 63
     7
 74
     1
 91
        4
 64
     7
 65
   257
 75
     1
175
     1
 42
1.0
 92
        8
 66
     7
 43
1.0
 76
     1
 77
     6
 78
     2
 67
     7
 79
     5
170
     0
171
     0
290
     0
174
     0
 93
        1
 44
0.0
173
     0
291
     1
 45
0.0
1001
ACAD
1000
AcDbSavedByObjectVersion
1070
     0
  0
VISUALSTYLE
  5
38
102
{ACAD_XDICTIONARY
360
F3F
102
}
102
{ACAD_REACTORS
330
29
102
}
330
29
100
AcDbVisualStyle
  2
Facepattern
 70
    15
 71
     2
 72
     2
 73
     0
 90
        0
 40
-0.6
 41
-30.0
 62
     5
 63
     7
 74
     1
 91
        4
 64
     7
 65
   257
 75
     1
175
     1
 42
1.0
 92
        8
 66
     7
 43
1.0
 76
     1
 77
     6
 78
     2
 67
     7
 79
     5
170
     0
171
     0
290
     0
174
     0
 93
        1
 44
0.0
173
     0
291
     1
 45
0.0
1001
ACAD
1000
AcDbSavedByObjectVersion
1070
     0
  0
VISUALSTYLE
  5
2A
102
{ACAD_XDICTIONARY
360
F23
102
}
102
{ACAD_REACTORS
330
29
102
}
330
29
100
AcDbVisualStyle
  2
Flat
 70
     0
 71
     2
 72
     1
 73
     1
 90
        2
 40
-0.6
 41
30.0
 62
     5
 63
     7
 74
     0
 91
        0
 64
     7
 65
   257
 75
     1
175
     1
 42
1.0
 92
        8
 66
     7
 43
1.0
 76
     1
 77
     6
 78
     2
 67
     7
 79
     5
170
     0
171
     0
290
     0
174
     0
 93
       13
 44
0.0
173
     0
291
     1
 45
0.0
1001
ACAD
1000
AcDbSavedByObjectVersion
1070
     0
  0
VISUALSTYLE
  5
2B
102
{ACAD_XDICTIONARY
360
F25
102
}
102
{ACAD_REACTORS
330
29
102
}
330
29
100
AcDbVisualStyle
  2
FlatWithEdges
 70
     1
 71
     2
 72
     1
 73
     1
 90
        2
 40
-0.6
 41
30.0
 62
     5
 63
     7
 74
     1
 91
        0
 64
     7
 65
   257
 75
     1
175
     1
 42
1.0
 92
        0
 66
   257
 43
1.0
 76
     1
 77
     6
 78
     2
 67
     7
 79
     5
170
     0
171
     0
290
     0
174
     0
 93
       13
 44
0.0
173
     0
291
     1
 45
0.0
1001
ACAD
1000
AcDbSavedByObjectVersion
1070
     0
  0
VISUALSTYLE
  5
2C
102
{ACAD_XDICTIONARY
360
F27
102
}
102
{ACAD_REACTORS
330
29
102
}
330
29
100
AcDbVisualStyle
  2
Gouraud
 70
     2
 71
     2
 72
     2
 73
     1
 90
        2
 40
-0.6
 41
30.0
 62
     5
 63
     7
 74
     0
 91
        0
 64
     7
 65
   257
 75
     1
175
     1
 42
1.0
 92
        0
 66
     7
 43
1.0
 76
     1
 77
     6
 78
     2
 67
     7
 79
     5
170
     0
171
     0
290
     0
174
     0
 93
       13
 44
0.0
173
     0
291
     1
 45
0.0
1001
ACAD
1000
AcDbSavedByObjectVersion
1070
     0
  0
VISUALSTYLE
  5
2D
102
{ACAD_XDICTIONARY
360
F29
102
}
102
{ACAD_REACTORS
330
29
102
}
330
29
100
AcDbVisualStyle
  2
GouraudWithEdges
 70
     3
 71
     2
 72
     2
 73
     1
 90
        2
 40
-0.6
 41
30.0
 62
     5
 63
     7
 74
     1
 91
        0
 64
     7
 65
   257
 75
     1
175
     1
 42
1.0
 92
        0
 66
   257
 43
1.0
 76
     1
 77
     6
 78
     2
 67
     7
 79
     5
170
     0
171
     0
290
     0
174
     0
 93
       13
 44
0.0
173
     0
291
     1
 45
0.0
1001
ACAD
1000
AcDbSavedByObjectVersion
1070
     0
  0
VISUALSTYLE
  5
31
102
{ACAD_XDICTIONARY
360
F31
102
}
102
{ACAD_REACTORS
330
29
102
}
330
29
100
AcDbVisualStyle
  2
Hidden
 70
     6
 71
     1
 72
     2
 73
     2
 90
        0
 40
-0.6
 41
-30.0
 62
     5
 63
     7
 74
     2
 91
        2
 64
     7
 65
   257
 75
     2
175
     1
 42
40.0
 92
        0
 66
   257
 43
1.0
 76
     1
 77
     6
 78
     2
 67
     7
 79
     3
170
     0
171
     0
290
     0
174
     0
 93
        1
 44
0.0
173
     0
291
     0
 45
0.0
1001
ACAD
1000
AcDbSavedByObjectVersion
1070
     0
  0
VISUALSTYLE
  5
3F
102
{ACAD_XDICTIONARY
360
F4D
102
}
102
{ACAD_REACTORS
330
29
102
}
330
29
100
AcDbVisualStyle
  2
JitterOff
 70
    20
 71
     2
 72
     2
 73
     0
 90
        0
 40
-0.6
 41
-30.0
 62
     5
 63
     7
 74
     1
 91
        4
 64
     7
 65
   257
 75
     1
175
     1
 42
1.0
 92
       10
 66
     7
 43
1.0
 76
     1
 77
     6
 78
     2
 67
     7
 79
     5
170
     0
171
     0
290
     0
174
     0
 93
        1
 44
0.0
173
     0
291
     1
 45
0.0
1001
ACAD
1000
AcDbSavedByObjectVersion
1070
     0
  0
VISUALSTYLE
  5
37
102
{ACAD_XDICTIONARY
360
F3D
102
}
102
{ACAD_REACTORS
330
29
102
}
330
29
100
AcDbVisualStyle
  2
Linepattern
 70
    14
 71
     2
 72
     2
 73
     0
 90
        0
 40
-0.6
 41
-30.0
 62
     5
 63
     7
 74
     1
 91
        4
 64
     7
 65
   257
 75
     7
175
     7
 42
1.0
 92
        8
 66
     7
 43
1.0
 76
     1
 77
     6
 78
     2
 67
     7
 79
     5
170
     0
171
     0
290
     0
174
     0
 93
        1
 44
0.0
173
     0
291
     1
 45
0.0
1001
ACAD
1000
AcDbSavedByObjectVersion
1070
     0
  0
VISUALSTYLE
  5
40
102
{ACAD_XDICTIONARY
360
F4F
102
}
102
{ACAD_REACTORS
330
29
102
}
330
29
100
AcDbVisualStyle
  2
OverhangOff
 70
    21
 71
     2
 72
     2
 73
     0
 90
        0
 40
-0.6
 41
-30.0
 62
     5
 63
     7
 74
     1
 91
        4
 64
     7
 65
   257
 75
     1
175
     1
 42
1.0
 92
        9
 66
     7
 43
1.0
 76
     1
 77
     6
 78
     2
 67
     7
 79
     5
170
     0
171
     0
290
     0
174
     0
 93
        1
 44
0.0
173
     0
291
     1
 45
0.0
1001
ACAD
1000
AcDbSavedByObjectVersion
1070
     0
  0
VISUALSTYLE
  5
33
102
{ACAD_XDICTIONARY
360
F35
102
}
102
{ACAD_REACTORS
330
29
102
}
330
29
100
AcDbVisualStyle
  2
Realistic
 70
     8
 71
     2
 72
     3
 73
     0
 90
        2
 40
-0.6
 41
30.0
 62
     5
 63
     7
 74
     0
 91
        0
 64
     7
 65
   257
 75
     1
175
     1
 42
1.0
 92
        8
 66
   257
 43
1.0
 76
     1
 77
     6
 78
     2
 67
     7
 79
     3
170
     0
171
     0
290
     0
174
     0
 93
       13
 44
0.0
173
     0
291
     0
 45
0.0
1001
ACAD
1000
AcDbSavedByObjectVersion
1070
     0
  0
VISUALSTYLE
  5
3E
102
{ACAD_XDICTIONARY
360
F4B
102
}
102
{ACAD_REACTORS
330
29
102
}
330
29
100
AcDbVisualStyle
  2
Shaded
 70
    27
 71
     2
 72
     2
 73
     1
 90
        2
 40
-0.6
 41
30.0
 62
     5
 63
     7
 74
     0
 91
        4
 64
     7
 65
   257
 75
     1
175
     1
 42
1.0
 92
        8
 66
   257
 43
1.0
 76
     1
 77
     6
 78
     2
 67
     8
 79
     3
170
     0
171
     0
290
     0
174
     0
 93
        5
 44
0.0
173
     0
291
     0
 45
0.0
1001
ACAD
1000
AcDbSavedByObjectVersion
1070
     0
  0
VISUALSTYLE
  5
3D
102
{ACAD_XDICTIONARY
360
F49
102
}
102
{ACAD_REACTORS
330
29
102
}
330
29
100
AcDbVisualStyle
  2
Shaded with edges
 70
    26
 71
     2
 72
     2
 73
     1
 90
        2
 40
-0.6
 41
30.0
 62
     5
 63
     7
 74
     1
 91
       10
 64
     7
 65
   257
 75
     2
175
     1
 42
1.0
 92
        8
 66
   257
 43
1.0
 76
     1
 77
     6
 78
     2
 67
     7
 79
     3
170
     0
171
     0
290
     0
174
     0
 93
        5
 44
0.0
173
     0
291
     0
 45
0.0
1001
ACAD
1000
AcDbSavedByObjectVersion
1070
     0
  0
VISUALSTYLE
  5
3A
102
{ACAD_XDICTIONARY
360
F43
102
}
102
{ACAD_REACTORS
330
29
102
}
330
29
100
AcDbVisualStyle
  2
Shades of Gray
 70
    23
 71
     2
 72
     2
 73
     3
 90
        0
 40
-0.6
 41
-30.0
 62
     5
 63
     7
 74
     2
 91
        2
 64
     7
 65
     7
 75
     1
175
     1
 42
40.0
 92
        8
 66
     7
 43
1.0
 76
     1
 77
     6
 78
     2
 67
     7
 79
     3
170
     0
171
     0
290
     0
174
     0
 93
        1
 44
0.0
173
     0
291
     0
 45
0.0
1001
ACAD
1000
AcDbSavedByObjectVersion
1070
     0
  0
VISUALSTYLE
  5
3B
102
{ACAD_XDICTIONARY
360
F45
102
}
102
{ACAD_REACTORS
330
29
102
}
330
29
100
AcDbVisualStyle
  2
Sketchy
 70
    24
 71
     1
 72
     2
 73
     2
 90
        0
 40
-0.6
 41
-30.0
 62
     5
 63
     7
 74
     2
 91
        2
 64
     7
 65
     7
 75
     1
175
     1
 42
40.0
 92
       11
 66
     7
 43
1.0
 76
     1
 77
     6
 78
     2
 67
     7
 79
     6
170
     0
171
     0
290
     0
174
     0
 93
        1
 44
0.0
173
     0
291
     0
 45
0.0
1001
ACAD
1000
AcDbSavedByObjectVersion
1070
     0
  0
VISUALSTYLE
  5
36
102
{ACAD_XDICTIONARY
360
F3B
102
}
102
{ACAD_REACTORS
330
29
102
}
330
29
100
AcDbVisualStyle
  2
Thicken
 70
    13
 71
     2
 72
     2
 73
     0
 90
        0
 40
-0.6
 41
-30.0
 62
     5
 63
     7
 74
     1
 91
        4
 64
     7
 65
   257
 75
     1
175
     1
 42
1.0
 92
       12
 66
     7
 43
1.0
 76
     1
 77
     6
 78
     2
 67
     7
 79
     5
170
     0
171
     0
290
     0
174
     0
 93
        1
 44
0.0
173
     0
291
     1
 45
0.0
1001
ACAD
1000
AcDbSavedByObjectVersion
1070
     0
  0
VISUALSTYLE
  5
30
102
{ACAD_XDICTIONARY
360
F2F
102
}
102
{ACAD_REACTORS
330
29
102
}
330
29
100
AcDbVisualStyle
  2
Wireframe
 70
     5
 71
     0
 72
     2
 73
     0
 90
        0
 40
-0.6
 41
-30.0
 62
     5
 63
     7
 74
     1
 91
        4
 64
     7
 65
   257
 75
     1
175
     1
 42
1.0
 92
        0
 66
   257
 43
1.0
 76
     1
 77
     6
 78
     2
 67
     7
 79
     3
170
     0
171
     0
290
     0
174
     0
 93
        1
 44
0.0
173
     0
291
     0
 45
0.0
1001
ACAD
1000
AcDbSavedByObjectVersion
1070
     0
  0
VISUALSTYLE
  5
3C
102
{ACAD_XDICTIONARY
360
F47
102
}
102
{ACAD_REACTORS
330
29
102
}
330
29
100
AcDbVisualStyle
  2
X-Ray
 70
    25
 71
     2
 72
     2
 73
     1
 90
        1
 40
0.5
 41
-30.0
 62
     5
 63
     7
 74
     1
 91
        0
 64
     7
 65
   257
 75
     1
175
     1
 42
1.0
 92
        8
 66
     7
 43
1.0
 76
     1
 77
     6
 78
     2
 67
     7
 79
     3
170
     0
171
     0
290
     0
174
     0
 93
       13
 44
0.0
173
     0
291
     0
 45
0.0
1001
ACAD
1000
AcDbSavedByObjectVersion
1070
     0
  0
DICTIONARYVAR
  5
DB
102
{ACAD_REACTORS
330
D8
102
}
330
D8
100
DictionaryVariables
280
     0
  1
1:1
  0
DICTIONARYVAR
  5
DA
102
{ACAD_REACTORS
330
D8
102
}
330
D8
100
DictionaryVariables
280
     0
  1
STANDARD
  0
DICTIONARYVAR
  5
D9
102
{ACAD_REACTORS
330
D8
102
}
330
D8
100
DictionaryVariables
280
     0
  1
STANDARD
  0
DICTIONARYVAR
  5
F17
102
{ACAD_REACTORS
330
D8
102
}
330
D8
100
DictionaryVariables
280
     0
  1
1
  0
DICTIONARYVAR
  5
F16
102
{ACAD_REACTORS
330
D8
102
}
330
D8
100
DictionaryVariables
280
     0
  1
1
  0
DICTIONARYVAR
  5
F15
102
{ACAD_REACTORS
330
D8
102
}
330
D8
100
DictionaryVariables
280
     0
  1
0
  0
DICTIONARYVAR
  5
F12
102
{ACAD_REACTORS
330
D8
102
}
330
D8
100
DictionaryVariables
280
     0
  1
0
  0
DICTIONARYVAR
  5
F13
102
{ACAD_REACTORS
330
D8
102
}
330
D8
100
DictionaryVariables
280
     0
  1
0
  0
DICTIONARYVAR
  5
F11
102
{ACAD_REACTORS
330
D8
102
}
330
D8
100
DictionaryVariables
280
     0
  1
2
  0
DICTIONARYVAR
  5
F10
102
{ACAD_REACTORS
330
D8
102
}
330
D8
100
DictionaryVariables
280
     0
  1
1
  0
DICTIONARYVAR
  5
F14
102
{ACAD_REACTORS
330
D8
102
}
330
D8
100
DictionaryVariables
280
     0
  1
127
  0
DICTIONARYVAR
  5
F18
102
{ACAD_REACTORS
330
D8
102
}
330
D8
100
DictionaryVariables
280
     0
  1
2
  0
DICTIONARY
  5
F55
330
6B
100
AcDbDictionary
280
     1
281
     1
  3
ACAD_XREC_ROUNDTRIP
360
F56
  0
DICTIONARY
  5
F59
330
73
100
AcDbDictionary
280
     1
281
     1
  3
ACAD_XREC_ROUNDTRIP
360
F5A
  0
DICTIONARY
  5
F57
330
6F
100
AcDbDictionary
280
     1
281
     1
  3
ACAD_XREC_ROUNDTRIP
360
F58
  0
DICTIONARY
  5
1A
330
19
100
AcDbDictionary
280
     1
281
     1
  3
ACAD_XREC_ROUNDTRIP
360
F21
  3
BUMPTILE
360
1C
  3
DIFFUSETILE
360
1B
  3
OPACITYTILE
360
1F
  3
REFLECTIONTILE
360
1E
  3
REFRACTIONTILE
360
20
  3
SPECULARTILE
360
1D
  0
DICTIONARY
  5
12
330
11
100
AcDbDictionary
280
     1
281
     1
  3
ACAD_XREC_ROUNDTRIP
360
F20
  3
BUMPTILE
360
14
  3
DIFFUSETILE
360
13
  3
FBXASSET
360
169
  3
OPACITYTILE
360
17
  3
REFLECTIONTILE
360
16
  3
REFRACTIONTILE
360
18
  3
SPECULARTILE
360
15
  0
DICTIONARY
  5
22
330
21
100
AcDbDictionary
280
     1
281
     1
  3
ACAD_XREC_ROUNDTRIP
360
F22
  3
BUMPTILE
360
24
  3
DIFFUSETILE
360
23
  3
FBXASSET
360
11C
  3
OPACITYTILE
360
27
  3
REFLECTIONTILE
360
26
  3
REFRACTIONTILE
360
28
  3
SPECULARTILE
360
25
  0
DICTIONARY
  5
F1B
330
67
100
AcDbDictionary
280
     1
281
     1
  3
ACAD_XREC_ROUNDTRIP
360
F1C
  0
DICTIONARY
  5
F19
330
65
100
AcDbDictionary
280
     1
281
     1
  3
ACAD_ROUNDTRIP_2008_TABLESTYLE_CELLSTYLEMAP
360
F1A
  3
ACAD_XREC_ROUNDTRIP
360
F53
  0
DICTIONARY
  5
F2D
330
2F
100
AcDbDictionary
280
     1
281
     1
  3
ACAD_XREC_ROUNDTRIP
360
F2E
  0
DICTIONARY
  5
F2B
330
2E
100
AcDbDictionary
280
     1
281
     1
  3
ACAD_XREC_ROUNDTRIP
360
F2C
  0
DICTIONARY
  5
F39
330
35
100
AcDbDictionary
280
     1
281
     1
  3
ACAD_XREC_ROUNDTRIP
360
F3A
  0
DICTIONARY
  5
F41
330
39
100
AcDbDictionary
280
     1
281
     1
  3
ACAD_XREC_ROUNDTRIP
360
F42
  0
DICTIONARY
  5
F33
330
32
100
AcDbDictionary
280
     1
281
     1
  3
ACAD_XREC_ROUNDTRIP
360
F34
  0
DICTIONARY
  5
F37
330
34
100
AcDbDictionary
280
     1
281
     1
  3
ACAD_XREC_ROUNDTRIP
360
F38
  0
DICTIONARY
  5
F51
330
41
100
AcDbDictionary
280
     1
281
     1
  3
ACAD_XREC_ROUNDTRIP
360
F52
  0
DICTIONARY
  5
F3F
330
38
100
AcDbDictionary
280
     1
281
     1
  3
ACAD_XREC_ROUNDTRIP
360
F40
  0
DICTIONARY
  5
F23
330
2A
100
AcDbDictionary
280
     1
281
     1
  3
ACAD_XREC_ROUNDTRIP
360
F24
  0
DICTIONARY
  5
F25
330
2B
100
AcDbDictionary
280
     1
281
     1
  3
ACAD_XREC_ROUNDTRIP
360
F26
  0
DICTIONARY
  5
F27
330
2C
100
AcDbDictionary
280
     1
281
     1
  3
ACAD_XREC_ROUNDTRIP
360
F28
  0
DICTIONARY
  5
F29
330
2D
100
AcDbDictionary
280
     1
281
     1
  3
ACAD_XREC_ROUNDTRIP
360
F2A
  0
DICTIONARY
  5
F31
330
31
100
AcDbDictionary
280
     1
281
     1
  3
ACAD_XREC_ROUNDTRIP
360
F32
  0
DICTIONARY
  5
F4D
330
3F
100
AcDbDictionary
280
     1
281
     1
  3
ACAD_XREC_ROUNDTRIP
360
F4E
  0
DICTIONARY
  5
F3D
330
37
100
AcDbDictionary
280
     1
281
     1
  3
ACAD_XREC_ROUNDTRIP
360
F3E
  0
DICTIONARY
  5
F4F
330
40
100
AcDbDictionary
280
     1
281
     1
  3
ACAD_XREC_ROUNDTRIP
360
F50
  0
DICTIONARY
  5
F35
330
33
100
AcDbDictionary
280
     1
281
     1
  3
ACAD_XREC_ROUNDTRIP
360
F36
  0
DICTIONARY
  5
F4B
330
3E
100
AcDbDictionary
280
     1
281
     1
  3
ACAD_XREC_ROUNDTRIP
360
F4C
  0
DICTIONARY
  5
F49
330
3D
100
AcDbDictionary
280
     1
281
     1
  3
ACAD_XREC_ROUNDTRIP
360
F4A
  0
DICTIONARY
  5
F43
330
3A
100
AcDbDictionary
280
     1
281
     1
  3
ACAD_XREC_ROUNDTRIP
360
F44
  0
DICTIONARY
  5
F45
330
3B
100
AcDbDictionary
280
     1
281
     1
  3
ACAD_XREC_ROUNDTRIP
360
F46
  0
DICTIONARY
  5
F3B
330
36
100
AcDbDictionary
280
     1
281
     1
  3
ACAD_XREC_ROUNDTRIP
360
F3C
  0
DICTIONARY
  5
F2F
330
30
100
AcDbDictionary
280
     1
281
     1
  3
ACAD_XREC_ROUNDTRIP
360
F30
  0
DICTIONARY
  5
F47
330
3C
100
AcDbDictionary
280
     1
281
     1
  3
ACAD_XREC_ROUNDTRIP
360
F48
  0
XRECORD
  5
F56
102
{ACAD_REACTORS
330
F55
102
}
330
F55
100
AcDbXrecord
280
     1
102
SHADEPLOT
 70
     0
102
SHADEPLOTRESLEVEL
 70
     2
102
SHADEPLOTCUSTOMDPI
 70
   300
  0
XRECORD
  5
F5A
102
{ACAD_REACTORS
330
F59
102
}
330
F59
100
AcDbXrecord
280
     1
102
SHADEPLOT
 70
     0
102
SHADEPLOTRESLEVEL
 70
     2
102
SHADEPLOTCUSTOMDPI
 70
   300
  0
XRECORD
  5
F58
102
{ACAD_REACTORS
330
F57
102
}
330
F57
100
AcDbXrecord
280
     1
102
SHADEPLOT
 70
     0
102
SHADEPLOTRESLEVEL
 70
     2
102
SHADEPLOTCUSTOMDPI
 70
   300
  0
XRECORD
  5
F21
102
{ACAD_REACTORS
330
1A
102
}
330
1A
100
AcDbXrecord
280
     1
102
MATERIAL
148
0.0
149
0.0
149
0.0
 93
        0
 94
      127
282
     0
 72
     0
 77
     0
171
     0
175
     0
179
     0
273
     0
  0
XRECORD
  5
1C
102
{ACAD_REACTORS
330
1A
102
}
330
1A
100
AcDbXrecord
280
     1
270
     1
271
     1
  0
XRECORD
  5
1B
102
{ACAD_REACTORS
330
1A
102
}
330
1A
100
AcDbXrecord
280
     1
270
     1
271
     1
  0
XRECORD
  5
1F
102
{ACAD_REACTORS
330
1A
102
}
330
1A
100
AcDbXrecord
280
     1
270
     1
271
     1
  0
XRECORD
  5
1E
102
{ACAD_REACTORS
330
1A
102
}
330
1A
100
AcDbXrecord
280
     1
270
     1
271
     1
  0
XRECORD
  5
20
102
{ACAD_REACTORS
330
1A
102
}
330
1A
100
AcDbXrecord
280
     1
270
     1
271
     1
  0
XRECORD
  5
1D
102
{ACAD_REACTORS
330
1A
102
}
330
1A
100
AcDbXrecord
280
     1
270
     1
271
     1
  0
XRECORD
  5
F20
102
{ACAD_REACTORS
330
12
102
}
330
12
100
AcDbXrecord
280
     1
102
MATERIAL
148
0.0
149
0.0
149
0.0
 93
        0
 94
      127
282
     0
 72
     0
 77
     0
171
     0
175
     0
179
     0
273
     0
  0
XRECORD
  5
14
102
{ACAD_REACTORS
330
12
102
}
330
12
100
AcDbXrecord
280
     1
270
     1
271
     1
  0
XRECORD
  5
13
102
{ACAD_REACTORS
330
12
102
}
330
12
100
AcDbXrecord
280
     1
270
     1
271
     1
  0
XRECORD
  5
169
102
{ACAD_REACTORS
330
12
102
}
330
12
100
AcDbXrecord
280
     1
 70
     1
 90
1959938040
 71
     1
  1
04566EC7-02BB-49CB-A1AA-414D18D3CFB8
311
504B03040A00000800001A6531403DEE336E79000000790000001B0000006175746F6465736B2D64657369676E2D7061636B6167652E786D6C3C3F786D6C2076657273696F6E3D22312E302220656E636F64696E673D227574662D3822203F3E3C666F726D6174733E3C666F726D61743E687474703A2F2F736368656D612E
311
6175746F6465736B2E636F6D2F64657369676E2D7061636B6167652F323030393C2F666F726D61743E3C2F666F726D6174733E504B03041400060808001A653140D486FD9CA0000000F4000000130000005B436F6E74656E745F54797065735D2E786D6C7D8EC10E82300C865F65E91D8A1E8C310C0EEA1BF002731658846E
311
D98AC1B77784ABF1D8FE5FBFBF75BBCE937A534CCEB38643598122B6FEE978D0B0485F9C41B54DDD7D022595594E1A469170414C76A4D9A4D207E29CF43ECE46F218070CC6BECC4078ACAA135ACF422C856C0E68EA1BF5669944DDD7BCDE7B1F8E415D77AECB980613C2E4AC91FC167A2B244592486606FC29C8FD7F045B9A
311
EF7053A7E60B504B03041400060808001A653140ECA0B727E90000007C01000008000000636F72652E786D6C8D90416EC3201045AF82668F03B653530B1359497C825E0001715162B00C54397E70E248EDAEAB19FDF96F66F4F9E13EDDD08F5982F5AE035A1040C629AFAD1B3B48F18219A083E08BF7F1970D909393E96095
311
41F071F169DE24E55D342E66D5796D36518660222075CB4D07417D9B491632C5EC08D76296EA2A4753D07797E194AC46AF2356E77DF662CD02E2D89F19294F27FC590D0CD7AC26980DA4C1C7AA6FCE43B3EF7B46F86E85058F767ADF578B91D1681025A1252614D3E68B966D4DDA7D85C9474B32B4DAFF4069D6FF849275B1
311
2AB7775F580041F323CF81E0BB358B5C9E41E5BAE6261E504B03041400060808001A65314055019EA25F0000007C00000007000000636E782E786D6C4DCB3B0E80201045D1AD90E915ED2CF8AC45050C11660C8261F98AB1B07AC9C97D42D718D865D3E909258CFD00CCE24AC6E326A164D74DC0B4128928FF326038472BA1
311
3128B1252AC747C6BAB984FC68F0B87FE8960A5C09FE86CFB69FBA01504B03041400060808001A65314054E1850966010000020300000C0000006662782F636F72652E786D6C8D525B6E833010BC8AE57F8379A4D0C83842799CA01770C0A156C046C646397E974794A68AA20AC958333BBBB3036C77EB5A344A3B28A30B1C
311
051423A92B532BDD14D8BB0BC931DA71668D71BFCA30D2A293059E60CC59638DEF57A832DA49ED00D5A6962B2886413A8CAA162E051EAA6FD98940780715C335E84575158D0CA20068A8E36C70160CA065C874627E39DF58B8E09C79AFEA9555354C5317252DE6FBF298D3F870209FC92927699E52929F6846F649991D4FD9
311
A62C73CAC249CC9953DDDD5D65A570B2C63CA6514C6844A2EC2B8AB729DD6E12423FB6144453F993C8F7F53F455E6997C4ABDD4536601E819199F8B32D44E4D02046F01372164E21C26B4EF8396808044276E2DCDEF7B80234CACA199B02531BFFA046D17A0953299A1F162E2C749E1BC0662FFBC46FFABCEF011F50E806AC
311
0907D7B377D374B64C5DA3E8A525A3BB216D6C27DA87B9C5E2E37C0C7A29AF4C6BEC7FD4E1BA6AB886194E7F2FFF01504B03041400060808001A6531409C1AF49F7E0000009D0000000B0000006662782F636E782E786D6C4DCCD10E82201886E15B61FF3989A4091BE0A8F43E5CA263223482D6E5A7CD838EBEEDD9B757B4
311
9FD5A1B7892F1BBC84F2440019FF08A3F5B3849C26CC00B54AC410D2DF0D901F5623616750628E213F0F1ACD3464973675D62F07DE89AE1BCA3AAC2FBAC195EE7ACCAE758539A384505E9EF9AD874289E257DA760FAB2F504B03041400060808001A65314048D0AD7F2C01000014020000310000006662782F443041353732
311
38452D413641372D344145462D384235342D3938323030323931333943462F636F72652E786D6C8D515B6EC32010BC8AC557FA810DC4769C0813B96D72825EC0C1244189C1E251E5F85D6A476AFF222416CDCECC8E58BE7F8CF7EC5B39AFAD6911CD09CA949176D0E6D2A218CEB841D95E70676DF8434399E947D5A20423C1
311
2FCEC66981A435419900A8B1835AC0DE7B155026EFF06891975735F6791F0330FC2D9F7A79EB2F2AA739B48127B80F0E0264F3907423F149BA6AC39A03EEEA6E83CBEE70C4CD7B55E26DC308615BBADE7E1C79310B058F510F8B5C0F10479FB572AF9A24B1E0418FCFF8D2A93EA801094628C38462BAF9A26C57925DB5C6A4
311
DE11C28B44FF278AD3F0A2286A13D66C893BCB3C1294177343F0C1C6D3FD19463D26EB4296E6ADBC926F48909C30385559F162A6C20780675D2E9E3E58071FBCBA9D804D81958CEB52F022ED08CAEF02A1A67D8A1F504B03041400060808001A6531403FD5942F4D01000033030000300000006662782F4430413537323845
311
2D413641372D344145462D384235342D3938323030323931333943462F636E782E786D6CD593CD6E022114855F85B09F1F746A1BC360D2459FA08B6E11AE4A6560C24F53DFBE1745EBC64597DD90C9B987736EBE307CF33D59F205211AEF46CADA9E1270CA6BE3F623CD69D7BC50B2113C789FEE6C943839C1488B4C05DF07
311
9FE72A69D8C96C13AAD6B8631503449F83828872B949AC57D26200B826A308D316B4064D6E46FCDA41C05550DC9E483A00797BFD207EFB092A45DE9514C1BBD22178396BD39D891265658C238DEA00936C654E5E433CB65A26D9B2F6DAF560A7DF24522E5C2B7330A4948FB49C54D48D5AE4C83B1C0A1E53407AD5944E3350
311
21E7D91A251342EECEC68B47F06C5C5A0DD56B107C40375B2D8701C3CE33C19399A03A5400994053B1E8D9A2E959C39EDFD9623DF4EBA765D3AFD67DCFBB62177CEBBDAD973006829F89F22E814B5430DE95F1237CD547B409C8DA87D31F402280DA7AA173CBF8CF7CBAF3FB465C01FF02F103504B03041400060808001A65
311
3140A6E87C479B0500007B100000340000006662782F44304135373238452D413641372D344145462D384235342D3938323030323931333943462F6F626A656374732E786D6CAD575B739B3814FE2B0CFB0C18DB49931D42C797A4E3E9A6EDD4D3CE3E64C6238320DA88CB482275FAEBF713080CAE9D7877FA02484847E77C
311
E73B1705EF7719B79EA990ACC86F6CDF1DD916CDA32266797A63572A71AE6CEB7D1888A250BD65B695938CDED87ADA0E8354145569A6629A908AAB83D9BBF9DF968C684E6D2BE244CA1B5B468F34232EA9541153F9E4C64411374D76AEEF360B87625341CAC703A125113457D014F339A4588D52FE7038B2BD30F0F4FF30D0
311
4FB36A727A9557DB333C9FE552913CFAE5B00331137FBABC1D5F5C3B17D3E9C4995E8E7D677E375F3AFEBBC96871B9585CCF6EAF71B05402928C26822676F801D80816055EF32B0C2A96ABC9D82C310EF2047D66DA537638B6FCC06BD674D619238FA91F15794EA31A2BA051DB6744C7B4A4790C9F332AA1590FA1D170E86B
311
1C7BBF277A6C8EEC4F9F87407F474F50AB7BFBEE6B5A6CFF8109F21C06094935031B2C8DA10D57477B84B745C1CD3F26AD8C282A18E116675B41C48B1D62A95E120603319AC9424783B6C00EE185E6F7902E08A3B7797E4CCBA4E25CD3D80EEB28D82056A892B566EC27157BEDFBC84027F84AB3E1CA18A45E4A6A87D70D45
311
AE0ED8D40069259CA47039CCD43B27E30343173A4E574B3BFC78B7DDAD75EC1E3FBC14454985D2F401B55AC7B56F8D92D1C93FCB737A837DA0CA1E94AF40FE13427DAF0AFC26D86EBA9B9A539420B94C0A91C137D6C87246788C2CBF7EEAEFDE57E0759B87DE3B85279CADA1FA0D780E6DE8FBB20767183C83F0859818D3D6
311
11E1481BF72C07409A24162F30853C9C6C7776B842964356C62EC2431F2643DD677C069E118344519FD47BE7C0F2202D9E91A0015BCD48A8D190DF28B8F7D32FE9AC3ED82C3B05EFC56FA1EB6CB9FEB8AE4442227A6F627A491396338512B7E74D5FA101E6038B9EE8CB8F42C430F457BCD77DBC33739404DA1A730D7CDAE6
311
743DD89F3C3820C2BEB4D0E92678E30418A10B6B4FFE3D9311E59CE4B4A8DA735FAD1F281B0DC43AD83593BB02B32F2C204DF3E7200651A423C14A0D6257ADBAA4E99EB0EEDBEA13186987F397BFC84B3F7B6DF7B9372A782136DB974D93968E42FD7DC86D8381A7A580EE7590B4F16F40DFC42C492A89247804D7EFAB45DF
311
773A2D2045B4529B6899C27E04171186B4AD5C546B4150498B7CC350371177470FE8CB07A48601B5C0531A4BCA930DE3BCCA3609E3A8469B8C9427E0F8FFFA6FABACDC90ACA8727542F640755487A1EE03F6CA1F44458F76B8AEDFCE1CB937A6F10932E85A7204AB816B47D38BCBCBDBC53B67349ECF9DE9F562EECCFCD9CC
311
99A2ABF0AF9693C5DDFCAAF553A34918B4A5A61FD1F0124A5B500966DCF76D85F83149C00EEF89920F1F9AF06CDFDF562E7AE1C0C31ED4CB6EE32C7E46DF47E3B705EC571E15B4CA4A4E339A2BA263E85E7FF0AF047DC64099667E9591949E21E5F387F58131983963DF171DEFF4C7C15E33BBD0017954887AACB26D4E183F
311
D8983648BA659E1AFC5A9F74EFA6D0B4433D328E41672A0BCE62E4C1D84A699151856C784611121995A05EBFA78FCDDDE38CDDCF4D87A8C896D35693478226994B8405A855456A386FFD81A64EF7553736CAADFB8487C914B605CEDCD868D2158BA874B728D0BA15AA85834BFD4E1E8D3FC9538E5EBBD9D48DBB5D1A9B4149
311
EE969CD33F19BB9A146E0C401A29D137A02182776A65C2A0D6CDFC8FFE93E1AD3A1651F8DC56AAB3653FD119531F83106D8C32B70534314FE6E81D02F575B37CB75E3340E4AC5BD6AB2468A43A8A88B4BE2968FD8C4AB3E5170F1D8AB5FA6C95BC4AE1CBF325398282CC950E70B008AC30324BA240D5C59F0F5F44819B6C66
311
DD3150E061516459919BC1CCDC84ADF523EEB5F103D202D51712F9301EF9E387FA2260EE269B2D91D425B17CC2047C2A5807F1C0F16064735B44056A7E74EB3CED84036EAE9696296953083544E967550D0B5A8E9C5A881E7D99D4B1D25F50BE7A17F0EAA55041A08B0FFF05504B03041400060800001A6531400000000000
311
00000000000000350000006662782F44304135373238452D413641372D344145462D384235342D3938323030323931333943462F76657274696365732E62696E504B03041400060808001A653140F270F1330600000004000000360000006662782F44304135373238452D413641372D344145462D384235342D3938323030
311
323931333943462F747269616E676C65732E62696E636660600000504B03041400060800001A653140000000000000000000000000370000006662782F44304135373238452D413641372D344145462D384235342D3938323030323931333943462F617474726962757465732E62696E504B03041400060808001A653140D5
311
987DFC8F00000041010000360000006662782F44304135373238452D413641372D344145462D384235342D3938323030323931333943462F6469726563746F72792E786D6C858F410EC2201045AF4266AF15DDB800BA74E7C21B903225242D6328188F2FA5C4183471359997F9FF81E89FF3C41E1816475E02DF1F80A11FC8
311
386F25A438EECEC07A250251FC3803E6F58C12560C4AD840E95E91C151A72936F496F35732D860FE635F62C8F2DA16B505C545B74125BAA2FA9E05D7CC053D063734D5C7665FD55B6B8D15D5E9BFEAFD8490FFA45E504B03041400060808001A65314033CE7D9FFC000000A00100003B0000006662782F4430413537323845
311
2D413641372D344145462D384235342D3938323030323931333943462F7265736F75726365732F636F72652E786D6C8D504B6E833010BD0A9ABDC1065228328E104D4ED00B586642AD041BF953F5F835814AEDAE9B99D1FB689E1E3F7F2D8FEC139DD7D6F4C0720A191A65276DE61E62B89116B2B3E0CEDAF04B0699910BF6
311
B0C120F8EC6C5C0F485913D084841A3BE1014AEF3140A61EE9E8C1AB0F5C642E63480A7FCF57A9EE72C69CE5894E3AC17D702940B63FD9260887DE46A7D0F36267058F514F87464FE9A7BE697420C6E1D2D2F26D24AFD5B525755B53D25E6943C66A682ED7E6340C2DE5C566163CE8E527A37228034E204ACA4A421961CD3B
311
2BBB9A76A78AD0978E26D326FF638AEBF44F53D42654E51177B779102C05791282175B5F693DCB4C7BEB567C03504B010214000A00000800001A6531403DEE336E79000000790000001B00000000000000000000000000000000006175746F6465736B2D64657369676E2D7061636B6167652E786D6C504B01021400140006
311
0808001A653140D486FD9CA0000000F40000001300000000000000000000000000B20000005B436F6E74656E745F54797065735D2E786D6C504B010214001400060808001A653140ECA0B727E90000007C010000080000000000000000000000000083010000636F72652E786D6C504B010214001400060808001A65314055
311
019EA25F0000007C000000070000000000000000000000000092020000636E782E786D6C504B010214001400060808001A65314054E1850966010000020300000C00000000000000000000000000160300006662782F636F72652E786D6C504B010214001400060808001A6531409C1AF49F7E0000009D0000000B00000000
311
000000000000000000A60400006662782F636E782E786D6C504B010214001400060808001A65314048D0AD7F2C0100001402000031000000000000000000000000004D0500006662782F44304135373238452D413641372D344145462D384235342D3938323030323931333943462F636F72652E786D6C504B010214001400
311
060808001A6531403FD5942F4D010000330300003000000000000000000000000000C80600006662782F44304135373238452D413641372D344145462D384235342D3938323030323931333943462F636E782E786D6C504B010214001400060808001A653140A6E87C479B0500007B10000034000000000000000000000000
311
00630800006662782F44304135373238452D413641372D344145462D384235342D3938323030323931333943462F6F626A656374732E786D6C504B010214001400060800001A6531400000000000000000000000003500000000000000000000000000500E00006662782F44304135373238452D413641372D344145462D38
311
4235342D3938323030323931333943462F76657274696365732E62696E504B010214001400060808001A653140F270F13306000000040000003600000000000000000000000000A30E00006662782F44304135373238452D413641372D344145462D384235342D3938323030323931333943462F747269616E676C65732E62
311
696E504B010214001400060800001A6531400000000000000000000000003700000000000000000000000000FD0E00006662782F44304135373238452D413641372D344145462D384235342D3938323030323931333943462F617474726962757465732E62696E504B010214001400060808001A653140D5987DFC8F000000
311
410100003600000000000000000000000000520F00006662782F44304135373238452D413641372D344145462D384235342D3938323030323931333943462F6469726563746F72792E786D6C504B010214001400060808001A65314033CE7D9FFC000000A00100003B00000000000000000000000000351000006662782F44
311
304135373238452D413641372D344145462D384235342D3938323030323931333943462F7265736F75726365732F636F72652E786D6C504B0506000000000E000E00800400008A1100000000
310
504B03040A00000800001A6531403DEE336E79000000790000001B0000006175746F6465736B2D64657369676E2D7061636B6167652E786D6C3C3F786D6C2076657273696F6E3D22312E302220656E636F64696E673D227574662D3822203F3E3C666F726D6174733E3C666F726D61743E687474703A2F2F736368656D612E
310
6175746F6465736B2E636F6D2F64657369676E2D7061636B6167652F323030393C2F666F726D61743E3C2F666F726D6174733E504B03041400060808001A653140D486FD9CA0000000F4000000130000005B436F6E74656E745F54797065735D2E786D6C7D8EC10E82300C865F65E91D8A1E8C310C0EEA1BF002731658846E
310
D98AC1B77784ABF1D8FE5FBFBF75BBCE937A534CCEB38643598122B6FEE978D0B0485F9C41B54DDD7D022595594E1A469170414C76A4D9A4D207E29CF43ECE46F218070CC6BECC4078ACAA135ACF422C856C0E68EA1BF5669944DDD7BCDE7B1F8E415D77AECB980613C2E4AC91FC167A2B244592486606FC29C8FD7F045B9A
310
EF7053A7E60B504B03041400060808001A6531404167B83CE90000007C01000008000000636F72652E786D6C8D905D6EC3201084AF8278C7E627B5630B13456A7C825E00C1C64589C13250F5F8C58923B56F7DDAD5301F3B1A79FA9EEFE80BD6E8821F30AB2846E04DB0CE4F03CEE94A8E189D945C4348BF6C18793DC38037
310
192B39AD212FBB64824FE053517DB0B08B3A464818997B59061CCD27CCBAD2391547BC558B36373D41C55E5B817376163D8F385BFE7357072B56AC793F8A9109D28E8C91C3C805E9046DC8E5C2CF1D3BB7BC119DAC3758C9E4E6D77DB3824E60B1E29471421961ED07E3FD81F66F82D0A6A754D69BFD0F9417FB4F283B9F04
310
DFE33EB158B296208F0725EBAD8B321E4595B9F5A67E00504B03041400060808001A65314055019EA25F0000007C00000007000000636E782E786D6C4DCB3B0E80201045D1AD90E915ED2CF8AC45050C11660C8261F98AB1B07AC9C97D42D718D865D3E909258CFD00CCE24AC6E326A164D74DC0B4128928FF326038472BA1
310
3128B1252AC747C6BAB984FC68F0B87FE8960A5C09FE86CFB69FBA01504B03041400060808001A653140791FF9DF65010000020300000C0000006662782F636F72652E786D6C8D525B6E833010BC8AE57FE3072979C8388AD4E404BD80030E45011B191BE5F85D1E519A2A8A2A2463CDECECCE0EC8FDAD6DD0607C5F3B9B63
310
9E308C8C2D5C59DB2AC7315CC806A3BD92DEB9F0AB0C23AB5B93E311C64A56DEC56E810A6783B10150EB4AB380BAEF4DC0A868E092E3BEF836AD4E740C50D15F934E17575D99842740439D927DF06000CD43C613ABCBF926E98C2B19635D2E6C5DC2B4FA521B8F15CF3E37E989A7647DE29CAC4E2225DB9465E47814872D3F
310
AC45966E251DC54A86BABDBB2BBCD1C1945809C605619CF0F51717BB15DB7DA484653BC6241DCB9F44B12BFF298AB50DA958ECCEB21EBC829189F8B32D441450AF07F04395A46388F09A127E0E1A028190833E37F73DAE000DA608CEAF80295D7C50836EA281A90C4D8FA4330B9DA706B0D9CB3EE24D9FF73DE0036A5B8135
310
1DE07A8E619C2EE7A94B149DF1640837649D6F75F330375B7C9C8F412FE5856B9CFF8F9A2EABD2254C3AFEBDEA07504B03041400060808001A6531402ED4359B7D0000009D0000000B0000006662782F636E782E786D6C4DCCD10A83201886E15B91FFDC95D2CC408D5C781FB12C64A6C3E9D8E5AF46073BFAE0E1E315FD67
310
F3E86DD3CBC520815C6A4036DCE3ECC22AA1E4057340BD1229C6FC770314A6CD4A38189458532CCF9366BB4CC5E75DBD0B8F13EB2B659A6B86091B06DC34638B3B660CD6D4707A6B754747029512D5AFB4EF11565F504B03041400060808001A653140B40B34002A01000013020000310000006662782F3035323642384236
310
2D313641412D343444372D393646462D4232463832433742393244312F636F72652E786D6C8D51CB6EC32010FC158B537AC006EC380F61A2B851BEA03F400D495162B07854F9FC2EB523B5B75C00CDCECCCEB2FCF018EFC5B7F6C138DB215A1254683B3865ECB543295EF0161507C1BD73F10F0D15568EBA431946825FBD4B
310
D3020DCE466D23A0D629BD8032041D5131DCE1D1A1307CE95196324560845B39C9E126AFBAA42594812778881E021473937C2241D6ACEDB77D8B697B3CE2A6396DF0AE3D9F71CFCE5BF6BEE977EC4479350B054FC9A8456E14C43117A3FDAB26592C7834E333FEE0B58C5A21C1086598504C371F94ED1BB25FD798B47B4278
310
95E9FF4469522F8A92B1B1664BDC5916908069E682E0CAA5CFFB338C7E4CCEC722F75B053DBCC15425616457D735AF6626CC0F966DB35886E83CFCEFEAF609E47AF16D1BC1ABBC22B87EF707775EA7F801504B03041400060808001A65314059725B385401000033030000300000006662782F30353236423842362D313641
310
412D343444372D393646462D4232463832433742393244312F636E782E786D6CBD93CD6EC32010845F0571F76F5C378A30917AE813F4D02B864D4283C1025C356FDF2521692E3954AA7A41D6EC30B3FA84D9F66B32E4137CD0CE0EB4296B4AC04AA7B4DD0F7489BB624DC99633EF5CBCB35162C504034D32E56CEFDD326749
310
C14E2C26A26AB43D66D143708B9710504E37897152180C005B2C28C2348252A0C8CD885F3BF0B80A8AE389C40390D79777E2C60F9031B02AA57056A50ECED2999BEE4C944823421868900798442996E8148463A9441465535EBB1EECF49344D2856BE5E23549E5034D27E579A31239B20A879C85E8915E36C5D30C948B7936
310
5A8A8890ABB3F1E2E16CD136F65DF66A04EFD1BD6AFBF51AC3CE33CEA29E203BA407114151DED64D5BD44DD13CBF35EDA6AB374FABA2EE3775CDAA64E76C74CEE44B1803DECD443A1BC146CA1B56A5F1237CD94794F6C8DAF9D32F402280DC7AA173CBF84B3E4DBFEABA7FE4539DDF37E2F2F817F06F504B03041400060808
310
001A6531408CE6D38B5A070000941B0000340000006662782F30353236423842362D313641412D343444372D393646462D4232463832433742393244312F6F626A656374732E786D6CED59DD739B3810FF5718EED9D8C44E9ADC103AB1D3743CBDB49DFADAB907CF3032C8441721184924F1FDF5B7FA00033109BEE6DEFA60
310
03425AEDFEF6534BF0FE29A3CE03E682E4ECD2F5BD89EB6016E70961E9A55BCAEDE8DC75DE8701CF73D998E63A0C65F8D255C36E18A43C2F0B3B94E02D2AA9EC8CDECCFF72448C19769D9822212E5D11DFE10C79A8947982C5BD972089BC74FBE4F99E99D8269B7254DC7588168863268153186740C5314CF9EDC7893B0E83
310
B17A1F06EADFCE9A0E9A35EB9F35D652B7B9244C48C4E2672C75C84C07B134F567D71F4E4E2F46A7B3D974343B3BF147F39BF9F5C87F379D2CCE168B8BAB0F17C0DE26CFA99529C1056609E86FE7867E30566F6AD12D0287B88E73C670AC8104A8B4585D82040BD8AA01DFA4FDE82B891AAFB5848DE7997A6F59680C4FDB54
310
FA660D03A2451704B1DB551257D7A67CF9E66F105C0C314A2EB0046E85E4A05D0B0F07AF70C3493036A361B0D9EB82082743127382A843C986230E4A81A96A4A189805968C720E0EA41C2581D69C79DDB62DF0CCD75DE71097DB9252E5196EA81D2B02F7C35268CEC83F98EFB96F22033C81B42561F2DC7229770576C38B60
310
AC07C3405DA627F6A501D2D952940A8D8879DB1174A15C7F79ED869F6E364F2B150E0E6F5EF0BCC05C2AA3537AD47C8121DBAB42C96EEB0FD29C5A00C21850EDCA3D28DF00F9CF103DF6AC80DE38799A3DCDEC5CC91113DB9C67A01B67E28C26F037717CFDAFEE1B77C1B85EDCD65E1F9EE0A60AAAF39FC7B32D83C6CAF2DF
310
80330C1EC0E0733EB5AF5631A260CFB7840140CA481C9AC31084F6EDE6C90D97103821D0C32A44431F4406761FE036185B327BAD54EE65BD8E01A2768FE91025016CDA22818D1E3D7D84ECC149BC575353C43E784FDFC45CAFAE579F5625DFA218DF5A9FBEC65BC28884AC7998A116E62D89EEF1EE31E70908FA1CEF5513EF
310
CC6E25006D85B9023EAD40500FFB9D5B1BC4B02ECD55B8095ED9018450B9BA41FF968818538A18CECB6ADF3ABA2943AD3DDED60C6E7862209E9E744C98E307A2AA0A709AFD8C16A390F7634E0A05A21B7E3492D541D3EB91EEFBF23358643DBF67D69241E86588FEA983D6011C5A965D216D81A805DEECC3799CD39C479B5D
310
64229D0BB504B0D1F6961F2DA210EB8D921415F020ED775548498DB45142B6DB52405C3DC0E28FE5A2690E136FEA9F3ACDFF8E33CE20DA82EF226EFDAEB347443294E2688B92BEED9ABBD5B48526D9439AE32D05B9C80391BB08C96892E0F418688E227EF1A6D4539A0B41181690AF0E82DF4463E2412031DAAC58565AED00
310
4D44946189E8310828323DE0EAB4A36BDC184A87D779ACADF7258D3589FE4F16C111D492398B0894A290435E65DCF74E2186B4D1352877F0056BAB686B3168092544BC8B1E3149EFE431A81BF23DB8C77024296594172806B31E40F699AF28A57678DFA0F85EE58F282EE95B1988C0741B114ACB2C821F6170F218E2DA7560
310
7A1185067113FB24CEA02843B2E44336393B9D3CDBC7D40CDD10D8D8684B2884ED2843450FEAAD80A8EB11A706DF52EF51EAA6CC8A086579C906198A37ED7A9325DF55AB223B905F552A42D95811B604C380305967D52A6683A9EBC00A6EA403D52E12282BA83985BD9278FCDA9B34E5DE0DB8F5D3B7DD2083C2AF477BCD88
310
3AAB60B03CB60A03F188647CE7862B7D1DCDA1FE4E70B24FF555ADD9AC00013115C94B4EAC8ABE2FA1BCB1359A1BDE2229D61F4DD6ADAEDF971E743F8231AC81DAA55EB85440679849A42A935B7543BF2108C12D1A667CA972EA3154AE9244578D88DE903E75B6CA88D6A619F18A3BCCF20C7E6C4D584CCB04AF5122EEA35B
310
49A31551AC5B29BD8C5418BF28E0978FAB0E3C303240A4AFAAC0C38F9DB57674A1CAA58344E45D996D182210045BA2A546375EC152AB914ACBF5559D29A0EE0203B32A9EFD3A5934DB11BF4E16A9358C9F3A59CC777FA05DB32FD248E7B1B2EBA38E01757E5254DEE218A0DB0E35D53A8B98646EE5B7CE144150ACA2FCE06A
310
AC0A1A86601FC7FF396BF76541B35D87FFE3B2B6FFACE2382AABB426AB2ED581CA75D9CC6193D9E9D9D987C5BBD1E4643E1FCD2E16F3D1957F75359A41BFD23FBF9E2E6EE6E7359ADA51C3A00E663A77C1B3096AD5B07AB218405756E49424709A4F9C1443CC9770A61FD03EE71916903C9BCDEEC436E507AC7E307D4E8936
310
14579CDC2168105301691D302A63D91E777E83D6A48483F6A50B4D23EF1EFEAC55BA0E649E4B175A0592C458781B6833A9869E260E2957E77E4B0CF0412C5529D12CAA9FEB550A9B56F8AFA70C490356AE560F030AB702BA5FAD0E85E6CDF2141F2578C58E8324DC6E4A09D59A91653F500BA3B7D9ABDFC84609BBB75B3F81
310
EBBE2C96EFE9392D44067D3278D1080CD591443CD5FD6EC59865E9EAFAEB18FA6CCEF28B53D032055D0EA734E2188CB954051558115885A5592009A6BAF87DFD95E7F08927737455B45EE4599633FB7005E7B1043E1139AB3BF8E093ACA16CC0AAAD2ED62713FF64ADDBD9B6C31E6D90C09EAA8760A02A2394081D63038B7C
310
D69AB28DCBB1524267FAF2DAB1E113DA00C6829E7577CDE72D07BC477D4851BEA23DBC92F3C58EF6584F056BE0D08B0EFF05504B03041400060800001A653140000000000000000000000000350000006662782F30353236423842362D313641412D343444372D393646462D4232463832433742393244312F766572746963
310
65732E62696E504B03041400060808001A653140F270F1330600000004000000360000006662782F30353236423842362D313641412D343444372D393646462D4232463832433742393244312F747269616E676C65732E62696E636660600000504B03041400060800001A6531400000000000000000000000003700000066
310
62782F30353236423842362D313641412D343444372D393646462D4232463832433742393244312F617474726962757465732E62696E504B03041400060808001A653140D5987DFC8F00000041010000360000006662782F30353236423842362D313641412D343444372D393646462D4232463832433742393244312F6469
310
726563746F72792E786D6C858F410EC2201045AF4266AF15DDB800BA74E7C21B903225242D6328188F2FA5C4183471359997F9FF81E89FF3C41E1816475E02DF1F80A11FC8386F25A438EECEC07A250251FC3803E6F58C12560C4AD840E95E91C151A72936F496F35732D860FE635F62C8F2DA16B505C545B74125BAA2FA9E
310
05D7CC053D063734D5C7665FD55B6B8D15D5E9BFEAFD8490FFA45E504B03041400060808001A65314052CC96A4FB000000A00100003B0000006662782F30353236423842362D313641412D343444372D393646462D4232463832433742393244312F7265736F75726365732F636F72652E786D6C8D504B6EC32010BD0A628F
310
0D38B5630B13456A7C825E00C1244189C1E253F5F8C5B12BB5BB6E6646EFA3797AE2F4353FD1278468BD1B31AB2846E0B437D6DD469CD3951C313A4911BC4FBF64183935C38857184B710B3E2F3BA4BD4BE052419D37B0832A464818E96739461CF51D6655A99C8A223EAA45E987BA41C5AA42179D14318512006D4FD68965
310
80E873D01045BDB152E46CCDAEB1A6FCB4570B014BD6BE1F9B8971D24D8C91C3C41BD237B425970B3FF7ECDCF1B6E945BD9AA54876FEC9A803A804064B4E8B9732C2BA0FC687031DDE1A42DB815251AFF23FA6BC987F9AB275A9E17BDCCD164BD612E4454851AF7D95F52AB3ECB55BF90D504B010214000A00000800001A65
310
31403DEE336E79000000790000001B00000000000000000000000000000000006175746F6465736B2D64657369676E2D7061636B6167652E786D6C504B010214001400060808001A653140D486FD9CA0000000F40000001300000000000000000000000000B20000005B436F6E74656E745F54797065735D2E786D6C504B01
310
0214001400060808001A6531404167B83CE90000007C010000080000000000000000000000000083010000636F72652E786D6C504B010214001400060808001A65314055019EA25F0000007C000000070000000000000000000000000092020000636E782E786D6C504B010214001400060808001A653140791FF9DF650100
310
00020300000C00000000000000000000000000160300006662782F636F72652E786D6C504B010214001400060808001A6531402ED4359B7D0000009D0000000B00000000000000000000000000A50400006662782F636E782E786D6C504B010214001400060808001A653140B40B34002A0100001302000031000000000000
310
000000000000004B0500006662782F30353236423842362D313641412D343444372D393646462D4232463832433742393244312F636F72652E786D6C504B010214001400060808001A65314059725B3854010000330300003000000000000000000000000000C40600006662782F30353236423842362D313641412D343444
310
372D393646462D4232463832433742393244312F636E782E786D6C504B010214001400060808001A6531408CE6D38B5A070000941B00003400000000000000000000000000660800006662782F30353236423842362D313641412D343444372D393646462D4232463832433742393244312F6F626A656374732E786D6C504B
310
010214001400060800001A6531400000000000000000000000003500000000000000000000000000121000006662782F30353236423842362D313641412D343444372D393646462D4232463832433742393244312F76657274696365732E62696E504B010214001400060808001A653140F270F13306000000040000003600
310
000000000000000000000000651000006662782F30353236423842362D313641412D343444372D393646462D4232463832433742393244312F747269616E676C65732E62696E504B010214001400060800001A6531400000000000000000000000003700000000000000000000000000BF1000006662782F30353236423842
310
362D313641412D343444372D393646462D4232463832433742393244312F617474726962757465732E62696E504B010214001400060808001A653140D5987DFC8F000000410100003600000000000000000000000000141100006662782F30353236423842362D313641412D343444372D393646462D423246383243374239
310
3244312F6469726563746F72792E786D6C504B010214001400060808001A65314052CC96A4FB000000A00100003B00000000000000000000000000F71100006662782F30353236423842362D313641412D343444372D393646462D4232463832433742393244312F7265736F75726365732F636F72652E786D6C504B050600
310
0000000E000E00800400004B1300000000
  0
XRECORD
  5
17
102
{ACAD_REACTORS
330
12
102
}
330
12
100
AcDbXrecord
280
     1
270
     1
271
     1
  0
XRECORD
  5
16
102
{ACAD_REACTORS
330
12
102
}
330
12
100
AcDbXrecord
280
     1
270
     1
271
     1
  0
XRECORD
  5
18
102
{ACAD_REACTORS
330
12
102
}
330
12
100
AcDbXrecord
280
     1
270
     1
271
     1
  0
XRECORD
  5
15
102
{ACAD_REACTORS
330
12
102
}
330
12
100
AcDbXrecord
280
     1
270
     1
271
     1
  0
XRECORD
  5
F22
102
{ACAD_REACTORS
330
22
102
}
330
22
100
AcDbXrecord
280
     1
102
MATERIAL
148
0.0
149
0.0
149
0.0
 93
        0
 94
      127
282
     0
 72
     0
 77
     0
171
     0
175
     0
179
     0
273
     0
  0
XRECORD
  5
24
102
{ACAD_REACTORS
330
22
102
}
330
22
100
AcDbXrecord
280
     1
270
     1
271
     1
  0
XRECORD
  5
23
102
{ACAD_REACTORS
330
22
102
}
330
22
100
AcDbXrecord
280
     1
270
     1
271
     1
  0
XRECORD
  5
11C
102
{ACAD_REACTORS
330
22
102
}
330
22
100
AcDbXrecord
280
     1
 70
     1
 90
1959938040
 71
     1
  1
A625D2CB-C5F2-48C6-9ED1-799D563D1371
311
504B03040A00000800001A6531403DEE336E79000000790000001B0000006175746F6465736B2D64657369676E2D7061636B6167652E786D6C3C3F786D6C2076657273696F6E3D22312E302220656E636F64696E673D227574662D3822203F3E3C666F726D6174733E3C666F726D61743E687474703A2F2F736368656D612E
311
6175746F6465736B2E636F6D2F64657369676E2D7061636B6167652F323030393C2F666F726D61743E3C2F666F726D6174733E504B03041400060808001A653140D486FD9CA0000000F4000000130000005B436F6E74656E745F54797065735D2E786D6C7D8EC10E82300C865F65E91D8A1E8C310C0EEA1BF002731658846E
311
D98AC1B77784ABF1D8FE5FBFBF75BBCE937A534CCEB38643598122B6FEE978D0B0485F9C41B54DDD7D022595594E1A469170414C76A4D9A4D207E29CF43ECE46F218070CC6BECC4078ACAA135ACF422C856C0E68EA1BF5669944DDD7BCDE7B1F8E415D77AECB980613C2E4AC91FC167A2B244592486606FC29C8FD7F045B9A
311
EF7053A7E60B504B03041400060808001A6531404A808F70E80000007C01000008000000636F72652E786D6C8D904D6EC3201085AF82668F0DD4F19F3051E3E606BD0002E2A0C46019A87AFCE2C491DA5D57333CDE37337AFCF83DDFD1975983F56E005A1040C629AFAD9B0648F1825B4047C157EFE32F1B20276733C02683
311
E0D3EAD3B24BCABB685CCCAAF3DAECA20CC14440EA9E9B0182BA9A591632C5EC08B76291EA262753D05797E194AC46CF2556E779F662CD0AA21A9BE65C13824FAC63B81ADB333E8DF501772369BAFAFDA3AD68C5CB0D163CDAF9B55FAD4646A3413042192614D3E693B2BE22FD213FEB9E105E6EF63F505AF43FA1645D7C63
311
FBB94F2C80A0F990C787E0E596452E8FA072DD72133F504B03041400060808001A65314055019EA25F0000007C00000007000000636E782E786D6C4DCB3B0E80201045D1AD90E915ED2CF8AC45050C11660C8261F98AB1B07AC9C97D42D718D865D3E909258CFD00CCE24AC6E326A164D74DC0B4128928FF326038472BA131
311
28B1252AC747C6BAB984FC68F0B87FE8960A5C09FE86CFB69FBA01504B03041400060808001A653140D80727D265010000020300000C0000006662782F636F72652E786D6C8D52ED8E8230107C95A6FF4B0B87A0A6D49C9C6F702F50A17244684969898F7FCB87E1BC186348A0ECECECCC0EF0C3AD6DD0A06C5F1B9DE13060
311
18295D98B2D65586BDBB902D4607C1AD31EE4F1B465AB62AC363190B5E59E3BBA55418ED947650D5A6544B51F6BD7218150D1C32DC173FAA9581F40E3AFA6BD0C9E22A2B158401C0D02778EF2C1840B3C878C7E272BE713AD705F7BE2E17B42E41ADBED4CA6211E7697A4A1823C768179138DF9EC8314F366497B374977C7E
311
6DE330E674240BEEEAF6EEAEB04A3A556211B130222C2461FA1D46FB98ED37F09AEC19E3746C7F20F9AE7C93E46BED3EA2C5EE4CEBB108C1C804FCDB162272A89703F8A182D33144784C093F060D8140C84E9E9BFB1E57280DAA70C6C68094C6AFD0201BAF4095A1E9E2744661F23400367B3A277A31E7F50CF8805257604D
311
3A389EBD1BD5F9ACBA44D1294B067743DAD85636ABB9D9E27A5F859ED20BD318FB0E9B2EABD2254C3AFEBDE217504B03041400060808001A653140023D8E217E0000009D0000000B0000006662782F636E782E786D6C4DCCD10E82201886E15B61FF398996821BE028F43E5CA263213482D6E5A7CD838EBEEDD9B797779FD5
311
A1B7892F1BBC80F24400197F0F93F58B809C66CC007592C710D2DF0D901F57236067907C89213F0F9ACC3C66973675D63F0E545549E855F7B85283C6175D9F71ABD90D33DA9346D5B419740B85E4C5AFB4ED1E965F504B03041400060808001A653140D908D65F2C01000014020000310000006662782F4132313037424445
311
2D324146442D344435332D394438432D3837453036413537364644392F636F72652E786D6C8D515B6EC32010BC8AC557FA810DC48F24C244699D9CA0172036495162B07854397E97DA91DABF088985D999DDD12EDF3FC67BF6AD9CD7D6B488E60465CAF476D0E6DAA2182E7883B2BDE0CEDAF08786322347D5A20423C1AFCE
311
C669817A6B823201506307B580D27B1550D6DFE1D122DF7FA951E6320660F85B3EC9FE26AF2AA739A48127B80F0E0C647393742371609434EFDD11B3C3A9C36557ADF1B6DB7CE04D7324F5A16AEA53B7E5C52C143C463D2C723D801D7DD1CABD5A2489050F7A7CDAEF9D92410D483042192614D3E693B25D4976157CEB1D21
311
BC48F47FA2380D2F8AA23661CD16BBB3CC2341793127041F6C3CDF9F66D463B22E64A9DFCAABFE0D09921306876E4B5ECC541800D4ACCBA5A60FD6C18057B733B0693517AE4BC18BB42308BF0B8498F6297E00504B03041400060808001A6531403EC0105E4C01000033030000300000006662782F41323130374244452D32
311
4146442D344435332D394438432D3837453036413537364644392F636E782E786D6CD593CD6EC32010845F0571F70FA99B561126520F7D821E7AC5B049693058FC54CDDB7749489A4B0E3DF682ECD98F99D5C8E6DBEFD9922F08D1783752D6F69480535E1BB71F694EBBE69992ADE0C1FB748351E2E40C232D32157C1F7C5E
311
AAA46127B34DA85AE30E550C107D0E0A22CAE526B15E498B06E09A8C22CC13680D9A5C417CDA41C055509C8E247D00797D79277EFA049522EF8A8BE05DC910BC9C35E906A2445919E348A3FA8059B63227AF211E5A2D936C597BC9BAB3D3AF1329172E91391852C2475A4E2AEA462DF6C83B1C0A1E53C0F62A948E0B502197
311
C51A251396DC9DC0332378362EAD87CA1A2C3E20CDD60FC38066A799E0C9CC5009154026D054AC7AB66A7AD6B0A737B6DA0CFDE6115FD79BBEE75DC1059FBCB7F512DA40F00B51DE2570890AC6BB32BE575FE5883601BBF6E1F88722B1809A7A6EE7EAF19FFBE94EDF37D615F02F103F504B03041400060808001A653140CB
311
38FF4C9A0500007A100000340000006662782F41323130374244452D324146442D344435332D394438432D3837453036413537364644392F6F626A656374732E786D6CAD57DB6EDB3810FD1541FBEC8B6C278D178A8AC46E0AA3481BD468B10F010C4AA2146E285120A9D4D9AFDF4389BAB976EA5DF4C5B2A8E170E6CC990B
311
FDF7FB8C3B2F542A26F26BD71B4F5D87E69188599E5EBBA54E4657AEF33EF0A510BA27E63A39C9E8B56B96DDC04FA5280BBB14D384945C1FACDEDDFEE5A888E6D475224E94BA7655F444333226A5163155CFE39868324E93FDD81BD78243B5A924C5D381D282489A6B588AF51C5A9CDA286FF83A7527813F31DF03DFFC5AA9
311
F969A949E5CFF07C962B4DF2E8A7C30ED4CCBDC5FAC3EC6239BA582CE6A3C5E5CC1BDDDEDDAE47DEBBF97475B95A2D6F3E2C71B0D2129AAC2592266EF011D84816F993FA53E0972CD7F39915B1019A48FAC24CA4DC60E678FEA49669BDB34E1E333F12794EA30A2BA051F96755C7B4A0798C9833AA60590FA1E9F0D53338F6
311
3ECFCDBB3DB2BF7C1E02FD1D3D458DEDCDB36FA908FF860BEA1C0649450D036B2CADA33557A71DC2A110DC7E63CAC988A69211EE70164A225FDD00A24624F0076A0C93A5C906E3811B200AF5E7215D9046BFE6F9312B939273436337A8B260875CA15A5596B17FA8ECACEF23039B102BC3862BEB907E2DA81B2C6B8A5C1DB0
311
A906D24938491172B86976CE67078EAE4C9E6ED66EF0E92EDC6F4DEE1E3FBC90A2A0521BFA805A4DE09AA741C9DAE49D1539B3C13D30A503E52B90FF8C54EF4C41DC24DB2FF60B7B8A96245789901962E34C9DD1143F53C7AB7ECDFFDE3F7FD26E1E46EF149E08B681EA37E039F4A11FCB1E9C81FF02C20B39B7AE6D23C251
311
36EE590E800C491C2EB0843A9C847B37D8A0CAA12A6317E181079761EE0BFEFA13AB0685A23AA9F7CC81E541593CA34003B68A9130A326BF35B08BD34FE5AC3AD88A9D82F7E2B7D0F566BDFDB42D6542227A6F737A4D1396338D16D7F1A66FD000F38147CFF4F58790311CFD19EF6D1FEFCC1EA580B6C1DC009F3635DDBC74
311
270F0E88B02F15A6DCF8BF38014E98C6DAD37FCF5444392739156573EE9BFD036DA386D824BB6172DB60BAC602D2D45F0E72104D3A92AC3020B6DDAA2D9AE313DE7DDB7C062321CF454878271476A537125CC85DF8BAABABD251A4BF0FA96D2198182D607B95234DFA5BCC77314B9252A1061E81F5FB66D50F9DA90AA8108D
311
D63A5916701FB945A4E56CA317CD5A12345291EF18DA26D2EEE8017DFD40D412A05278CA624579B2639C97D92E611CCD689791E2041CFFDFFEB0CC8A1DC94499EB13BA07A6A3390C6D1F9057FD203A7A72836DF51CDDA2F4C634EEC23C1036ADE4085683D0DE5CCE2ED6B3D5ED687571371B2DAE5697A3E587B5377AB75CAE
311
2F2EE76B6FFEAE43B39AA102BFE934FD844694D0D9FC52321BBE6F1BA48FAD016E704FB47AFC586767F3FCB6196314F627D88376D96EBC895F30F6D1F8D70A3AC9A38A3659C16946734D4C0ADD9B3FFC2BC1983130A65EDF6424A56768F9F2717BE00C56CED8F760D29DFE38D86B575726218F2AD14F6516E684F1838D698D
311
E4B8C8538B5F1393F659F799E6D5BCD9C060305582B318653076522A32AA510CCFE84132A30AD4EB8FF4B1BD7A9CB1FBA51E103509396D2C79229891B9425A80B765A487EBCE1F98E9CC5875EDA2DB8E9FF1632B85EB8033D72E6674CD22AAC621FAB399842AE5E0527F900767499E728CDAF5A6F6BDDD65B01974E456E49C
311
F1C9FA555770EB00CA4881B101F310A2531913F8956DF67BF49F1C6FCC7188C6DFB0D4AD2FDD42EB4C750C52B476CA5E1630C33CDBA3F748D4B7DDF2C695CC0091B32E596F92A0D63AD244A6D545C1D8674DBA593F4C30A0389B2F4EC1CB14B13C5FD3485290B934090E16811556674134A8BAFAF3F1410A5C6433E78E8102
311
8F2B916522B72F37F622EC6C9F70AD8D1F5116A8B98FA8C7D9D49B3D56F7007B35D98544D13189D533161053C95A8807810723EBCB226A66FDA1959B98201C7073B3766C4B5B40A9254ABFAA1A583071E4D441F698BBA4C995BE40F1E655605289C20489213EF817504B03041400060800001A653140000000000000000000
311
000000350000006662782F41323130374244452D324146442D344435332D394438432D3837453036413537364644392F76657274696365732E62696E504B03041400060808001A653140F270F1330600000004000000360000006662782F41323130374244452D324146442D344435332D394438432D383745303641353736
311
4644392F747269616E676C65732E62696E636660600000504B03041400060800001A653140000000000000000000000000370000006662782F41323130374244452D324146442D344435332D394438432D3837453036413537364644392F617474726962757465732E62696E504B03041400060808001A653140D5987DFC8F
311
00000041010000360000006662782F41323130374244452D324146442D344435332D394438432D3837453036413537364644392F6469726563746F72792E786D6C858F410EC2201045AF4266AF15DDB800BA74E7C21B903225242D6328188F2FA5C4183471359997F9FF81E89FF3C41E1816475E02DF1F80A11FC8386F25A4
311
38EECEC07A250251FC3803E6F58C12560C4AD840E95E91C151A72936F496F35732D860FE635F62C8F2DA16B505C545B74125BAA2FA9E05D7CC053D063734D5C7665FD55B6B8D15D5E9BFEAFD8490FFA45E504B03041400060808001A65314027E31574FD000000A00100003B0000006662782F41323130374244452D324146
311
442D344435332D394438432D3837453036413537364644392F7265736F75726365732F636F72652E786D6C8D50596E833010BD0A9A7F834D5912641C353439412F609909B5126CE4A5EAF16B0295DABFFE783C6FD13C3D7EFA9A1FD9273AAFADE981E5143234CA8EDA4C3DC4702307C84E823B6BC32F196446CED8C30A83E0
311
93B371D921654D4013126AEC883B28BDC700997AA44F0F5E7DE02C73194352F87BBE48759713E62C4F74D209EE834B01B2EDC8FA8270E86D740A3D2F3656F018F5B86BF4986EEA9B4607A21ADAF6525FAFE45C1E4B520D870B390F4D4D8E036D8FCDEBDBA162152F56B3E041CF3F19954319700451525612CA086BDF59D955
311
B4ABD3DA7494F26295FF31C565FCA7296A135ECA3DEE66F320580AF224042FD6BED2789699E6DAADF806504B010214000A00000800001A6531403DEE336E79000000790000001B00000000000000000000000000000000006175746F6465736B2D64657369676E2D7061636B6167652E786D6C504B01021400140006080800
311
1A653140D486FD9CA0000000F40000001300000000000000000000000000B20000005B436F6E74656E745F54797065735D2E786D6C504B010214001400060808001A6531404A808F70E80000007C010000080000000000000000000000000083010000636F72652E786D6C504B010214001400060808001A65314055019EA2
311
5F0000007C000000070000000000000000000000000091020000636E782E786D6C504B010214001400060808001A653140D80727D265010000020300000C00000000000000000000000000150300006662782F636F72652E786D6C504B010214001400060808001A653140023D8E217E0000009D0000000B00000000000000
311
000000000000A40400006662782F636E782E786D6C504B010214001400060808001A653140D908D65F2C0100001402000031000000000000000000000000004B0500006662782F41323130374244452D324146442D344435332D394438432D3837453036413537364644392F636F72652E786D6C504B010214001400060808
311
001A6531403EC0105E4C010000330300003000000000000000000000000000C60600006662782F41323130374244452D324146442D344435332D394438432D3837453036413537364644392F636E782E786D6C504B010214001400060808001A653140CB38FF4C9A0500007A10000034000000000000000000000000006008
311
00006662782F41323130374244452D324146442D344435332D394438432D3837453036413537364644392F6F626A656374732E786D6C504B010214001400060800001A65314000000000000000000000000035000000000000000000000000004C0E00006662782F41323130374244452D324146442D344435332D39443843
311
2D3837453036413537364644392F76657274696365732E62696E504B010214001400060808001A653140F270F133060000000400000036000000000000000000000000009F0E00006662782F41323130374244452D324146442D344435332D394438432D3837453036413537364644392F747269616E676C65732E62696E50
311
4B010214001400060800001A6531400000000000000000000000003700000000000000000000000000F90E00006662782F41323130374244452D324146442D344435332D394438432D3837453036413537364644392F617474726962757465732E62696E504B010214001400060808001A653140D5987DFC8F000000410100
311
0036000000000000000000000000004E0F00006662782F41323130374244452D324146442D344435332D394438432D3837453036413537364644392F6469726563746F72792E786D6C504B010214001400060808001A65314027E31574FD000000A00100003B00000000000000000000000000311000006662782F41323130
311
374244452D324146442D344435332D394438432D3837453036413537364644392F7265736F75726365732F636F72652E786D6C504B0506000000000E000E0080040000871100000000
310
504B03040A00000800001A6531403DEE336E79000000790000001B0000006175746F6465736B2D64657369676E2D7061636B6167652E786D6C3C3F786D6C2076657273696F6E3D22312E302220656E636F64696E673D227574662D3822203F3E3C666F726D6174733E3C666F726D61743E687474703A2F2F736368656D612E
310
6175746F6465736B2E636F6D2F64657369676E2D7061636B6167652F323030393C2F666F726D61743E3C2F666F726D6174733E504B03041400060808001A653140D486FD9CA0000000F4000000130000005B436F6E74656E745F54797065735D2E786D6C7D8EC10E82300C865F65E91D8A1E8C310C0EEA1BF002731658846E
310
D98AC1B77784ABF1D8FE5FBFBF75BBCE937A534CCEB38643598122B6FEE978D0B0485F9C41B54DDD7D022595594E1A469170414C76A4D9A4D207E29CF43ECE46F218070CC6BECC4078ACAA135ACF422C856C0E68EA1BF5669944DDD7BCDE7B1F8E415D77AECB980613C2E4AC91FC167A2B244592486606FC29C8FD7F045B9A
310
EF7053A7E60B504B03041400060808001A653140B54B9E7AE90000007C01000008000000636F72652E786D6C8D90D18EC22010457F85CC3B2DD0AADD8662ECAE7EC1FE0001AC440B4D01E3E72FD59AECBEEDD30C977B662697EF1FE30DDDCD1CAC771DD08200324E796DDDD0418A67DC00DA0B3E7B1F7FD90039399A0E1619
310
041F669FA65552DE45E362569DD766156508260252B7DC7410D4C58CB290296647B816935457399882BEBB0CA764357A2DB13ACFB3676B66101F874FDAB3BAC27D5FEF70CD8E1437879EE26ADB7C1172A49B1339F17281058F767CEF57B391D168108C508609C574F74D595B9376939FDB96105E2EF63F509AF43FA1645DAC
310
D87AEE0B0B20683EE4F92178B96491CB33A85C97DCC40F504B03041400060808001A65314055019EA25F0000007C00000007000000636E782E786D6C4DCB3B0E80201045D1AD90E915ED2CF8AC45050C11660C8261F98AB1B07AC9C97D42D718D865D3E909258CFD00CCE24AC6E326A164D74DC0B4128928FF326038472BA1
310
3128B1252AC747C6BAB984FC68F0B87FE8960A5C09FE86CFB69FBA01504B03041400060808001A6531400B7721CF66010000020300000C0000006662782F636F72652E786D6C8D52ED8E8230107C95A6FF4B5BC48F33A546EEF409EE052A548E082D292DF1F16FF9309E17630C09949D9D9DD901B1BB3635EAB5EB2A6B52CC
310
23869136B92D2A53A638F833D960B493C259EBFFB4616454A3533C94B114A5B3A19D4BB9355E1B0F55630B3D1755D7698F515EC321C55DFEA31B15A9E0A1A3BB44ADCA2FAAD4118F00863E293AEFC0009A44863B96E7D355D0A92E45085531A355016AD5B9D20ECB8FFD27CFE26441B22C5993243E70B2D9679C2C569B2FC6
310
0E7C7964474107B214BE6A6EEE72A795D7059631E331619CF0F5378FB709DB2EE175B5654CD0A1FD8114DAE24D52A88C5FC4B3DD89D661C9C1C808FCDB1622F2A8533DF8A152D02144788C093F060D8140C85E9DEADB1E1728F53AF7D625801436DCA15ED541832A43E325E884C2E471006CF6744EFC62CEEB19F0019529C1
310
9AF2703C053FA88B49758EA2D58EF4FE8A8C758DAAEFE6268BF7FB5DE8293DB7B575EFB0E9BC2A9DC3A4C3DF2B7F01504B03041400060808001A653140895643207D0000009D0000000B0000006662782F636E782E786D6C4DCC4D0E83201845D1AD906F8E3F601B0680017421A6A221456828982EBFDA38E8E825272F97F7
310
9FCDA3DDA6B78B41405B35806C78C4D9855540C90B66807AC9538CF9EF06284C9B15703248BEA6585E17CD76998ACF877A179E176AC628336AC0646808EE6E4A6135EA11B746134AD8BD23D4402D79FD2B1D7B86E517504B03041400060808001A653140CAAF83312901000014020000310000006662782F42383833384341
310
442D324430322D343541412D414542452D3143423233323836343233432F636F72652E786D6C8D514B6EC32014BC0A62952E6C0326AE156122E773835E8002495162B0F854397EA176A476970D0F869979A3F7D8FE31DDC1B7F6C1383B405C2308B4954E197B1D608A97AA8760CF99772EFEA14160C5A4075860C8D9D5BB34
310
AF9074366A1B336A9DD22B2842D0110279CF970106F9A527518B143323DCEA59C89BB8EA1AD7F93BF3380BD1E7006069524EC80F7DDFF6C7F15491132215DD8E63359E0FE70A1F0FA4257D47497B64CD22E42C25A356B951398EB918ED5F352962CEA2999EF1A5D7226A05394198540857F8FD03931D45BB6D7E763B845853
310
E8FF4469562F8A92B1B1256BDC451620C7AC593E38532E7DDE9F61F463763E82D26F13B47C831CD588B49876B463CD42CD03C89E1D5D3D43743E0F7873FBCCEC7635EE28674DD9512EBF0BCCB5EC93FF00504B03041400060808001A6531405867DF495401000033030000300000006662782F42383833384341442D324430
310
322D343541412D414542452D3143423233323836343233432F636E782E786D6CBD93CD6EC32010845F0571F76F5C378A30917AE813F4D02B864D4283C1025C356FDF2521692E3954AA7A41F6EC30B3FA64B3EDD764C827F8A09D1D6853D69480954E69BB1FE81277C59A922D67DEB97867A3C48A09069A64CAD9DEBB65CE92
310
829D584C44D5687BCCA287E0162F21A09C6E12E3A4301800B65850846904A540919B119F76E0711514C713890720AF2FEFC48D1F206360554AE1AC4A1D9CA53337DD992891468430D0200F3089522CD12908C7528928CAA6BC763DD8E92789A40BD7CAC56B92CA079A4ECAF346257264150E390BD123BD6C8AA7192817F36C
310
B41411215767E3C5C3D9A26DECBBECD508DEA37BD5F6EB35869D679C453D4176480F2282A2BCAD9BB6A89BA2797E6BDA4D576F9EF0B5DFD435AB929DB3D139932F610C783713E96C041B296F5895C68FF0651F51DA236BE74FBF00890072EB85CE2DE32FF934FDAAEBFE914F75FEBE1197C7BF807F03504B03041400060808
310
001A653140B52EF55657070000931B0000340000006662782F42383833384341442D324430322D343541412D414542452D3143423233323836343233432F6F626A656374732E786D6CED595B6FA33814FE2B887D0E09B974DA1565D426D32A5A756634D919ED4325E48043BD3506D9A697FDF57B7C81000D2DD9E9BECD4302
310
18FBF89CEF5C7D083E3E65D479C05C909C9DBBBE37711DCCE23C212C3D774BB91B9DBACEC730E0792E1BD35C87A10C9FBB6AD80D8394E765618712BC4325959DD1ABCBBF1C1163865D27A648887357C47738431E2A659E6071EF2548222FDD3D79BE6726B6C9A61C15771DA205E29849E014C61950710C537EFB71E28EC360
310
ACDE8781FAB7B3668366CDFB678DB5D46D2E091312B1F8054B1D32B3412CCDFCF9EAD37471365ACCE7B3D1FC64EA8F2EAF2E5723FFC36CB23C592ECF2E3E9D017BDB3CA756A604179825A0BF6737F483B17A538B6E1138C4759C3386630D2440A5C5EA122458C0560DF826ED475F49D478AD256C3CCFD57BCB426378D6A6D2
310
376B18102DBA2088DDAE92B8BA36E5CBB77F83E0628851728125702B2407ED5A783878851B4E82B1190D83ED5E17443819929813441D4AB61C71500A4C5553C2C02CB06494737020E52809B4E6CCEBB66D8167BEED3A87B8DC95942ACF7043ED5811B81F96427346FEC17CCF7D1319E009A42D0993A7964BF95C60373C0BC6
310
7A300CD46536B52F0D90CE8EA2546844CCDB8EA04BE5FAEB951BFE71B57DDAA8707078F382E705E652199DD2A3E60B0CD95E154A765B7F90E6D40210C6806A57EE41F906C87F86E8B16705F4C6C9D3FC696EE74A8E98D8E53C03DD3813673481BF89E3EB7F75DFB80BC6F5E2B6F6FAF0043755509DFE3C9E6D19345696FF06
310
9C61F000069FF3997DB58911057BBE210C005246E2D01C8620B4EFB64F6EB886C009811E56211AFA2032B0FB00B7C1D892D96BA5722FEB750C10B57BCC86280960D316096CF4E8E91AB20727F15E4D4D11FBE05DBC8BB95EAC367F6C4ABE4331BEB13EBDC23BC28884AC7998A116E62D89EEF1F363CE1310F425DE9B26DE99
310
DD4A00DA0A73057C5A81A01EF63BB73688615D9AAB7013BCB10308A1727583FE0D1131A614319C97D5BE757453865A7BBCAD19DC706A209E4D3B26CCF10351550538CD7E468B51C8FB31278502D10DAF8D6475D0F47AA4FBBEFE0C1659CFEF99B566107A19A27FEAA0750087966557485B206A81B7FB701EE734E7D1F63932
310
91CE855A02D8687BCB8F165188F546498A0A7890F6BB2AA4A446DA2821BB5D2920AE1E60F1C77AD934878937F3174EF3BFE38C7388B6E0BB885BBFEBEC11910CA538DAA1A46FBBE66E356DA149F690E67847412EF240E47384643449707A0C3447113F7B57EA29CD85200C0BC85707C16FA231F12090186D562C2BAD768026
310
22CAB044F4180414991E7075DAD1356E0CA5C3DB3CD6D6FB9AC69A44FF278BE0086AC99C45044A51C8216F32EE7B0B88216D740DCA1D7CC1DA2ADA5A0C5A4209113F478F98A477F218D40DF91EDC6338929432CA0B1483590F20FBC25794523BBC6F517CAFF2471497F4BD0C4460BA8B08A56516C18F3038790C71ED3A30BD
310
8A4283B8897D126750942159F2219B9C2C262FF631354337043636DA110A613BCA50D1837A2B20EA7AC4A9C1B7D47B94BA2DB32242595EB24186E2CDBADE64C977D5AAC80EE457958A503656842DC130204CD659B58AD960EA3AB0821BE940F51C099415D49CC2DE483C7EED4D9A72EF06DCFAE9FB6E9041E1D7A3BD66449D
310
5730581E5B8581784432BE73C38DBE8E2EA1FE4E70B24FF555ADD9AC00013115C94B4EAC8ABEAFA1BCB1359A1BDE20296EAF4DD6ADAEDFD71E743F8231AC81DAA55EB85640679849A42A931B7543BF2108C12D1A667CAD72EA31542E9244578D885E913E75B6CA88D6A619F18A3BCCF20C7EEC96B0989609BE4589B88F6E24
310
8D3644B16EA5F4325261FCAA805FAE371D78606480485F5581871F3B6BEDE852954B0789C8BB32DB32442008B6444B8D6EBC82A556239596EBAB3A5340DD050666553CFF75B268B6237E9D2C526B183F77B2A0F916D17DB46964F35899F551A7803A3D292AEF710AD05D879A6A9D444C2EB7E25B5F8A202656417E703156C5
310
0C43B08FE3FF9CB4FB92A0D9AEC3FF7149DB7F51701C95545A935593EA40E1BA6EA6B08B93E962355D5E8E968BABE9687EBA3C199D7D5AF9A30F6767ABC5C96CE5CF3ED47A32C4C3A08E653A75C1B38969D5B07AB218405356E4942470984F9C1443C89770A41FD03DE71916903B9BBDEEC4F6E407AC7E306D4E89B614579C
310
DC21E80F5301591DC42863D91E777E83CEA48473F6B90B3D23EF1EFEAC55BA0E249E73173A0592C458785BE832A97E9E260E1957A77E4B0CE21862A9CA886651FD5CAF52D8B4A27F3D654816B072B55A1850B715D0FC6A3528346F96A7F828C12B761C24E1765B4A28D68C2CFB815A18BDCD5EFD46364AD8BDDDFA095CF775
310
B17C4FCF692132E88BC1AB4660A88E24E2A96E772BC62C4B17ABAF6368B339EB2F4E41CB1474399CD2886330E652D553604560159666812498EAF2F7DBAF3C872F3C99A38BA2DB659E6539B30F17701C4BE00B91B3B983EF3DC92D540D5875D5C5ED74E24F6F7537DB36D8A32D12D853E5100C54558412A1636C60912F3A53
310
B66F39564AE84C5FAF1C1B3EA10B602CE84573D77CDD72C07BD47714E52BDAC32B395F6D688FF554B0060EADE8F05F504B03041400060800001A653140000000000000000000000000350000006662782F42383833384341442D324430322D343541412D414542452D3143423233323836343233432F76657274696365732E
310
62696E504B03041400060808001A653140F270F1330600000004000000360000006662782F42383833384341442D324430322D343541412D414542452D3143423233323836343233432F747269616E676C65732E62696E636660600000504B03041400060800001A653140000000000000000000000000370000006662782F
310
42383833384341442D324430322D343541412D414542452D3143423233323836343233432F617474726962757465732E62696E504B03041400060808001A653140D5987DFC8F00000041010000360000006662782F42383833384341442D324430322D343541412D414542452D3143423233323836343233432F6469726563
310
746F72792E786D6C858F410EC2201045AF4266AF15DDB800BA74E7C21B903225242D6328188F2FA5C4183471359997F9FF81E89FF3C41E1816475E02DF1F80A11FC8386F25A438EECEC07A250251FC3803E6F58C12560C4AD840E95E91C151A72936F496F35732D860FE635F62C8F2DA16B505C545B74125BAA2FA9E05D7CC
310
053D063734D5C7665FD55B6B8D15D5E9BFEAFD8490FFA45E504B03041400060808001A653140A6E0B0E2FC000000A00100003B0000006662782F42383833384341442D324430322D343541412D414542452D3143423233323836343233432F7265736F75726365732F636F72652E786D6C8D504B6EC32010BD8A357B6C204E
310
E25A98286E9313F402084F5C94182C3E558F5F1CBB52BBEB8661DE47F3F4C4E96B7A149FE88371B603565228D06A37183B7690E28D34509CA4F0CEC55F3228AC9AB08305062946EFD2BC41DAD9883666D4BA0137508580110AFDC89F0E82FEC049952AC5AC08F77256FAAE462C5999E9AC9322449F0314EB91E505E931B8E4
310
350651ADAC14299961D39821DF3437831EE4CBF995F5BCE6A4EFEB23A9F98591E6DC33B23B346F945ED8FE4AAFA25ACC524433FD64D41E55C40124A78C13CA083BBE33DED6B4DDE7F5D0522AAA45FEC794E6E19FA6646CDCF12DEE6A0B20590EF224A4A896BEF2789699E7D2ADFC06504B010214000A00000800001A653140
310
3DEE336E79000000790000001B00000000000000000000000000000000006175746F6465736B2D64657369676E2D7061636B6167652E786D6C504B010214001400060808001A653140D486FD9CA0000000F40000001300000000000000000000000000B20000005B436F6E74656E745F54797065735D2E786D6C504B010214
310
001400060808001A653140B54B9E7AE90000007C010000080000000000000000000000000083010000636F72652E786D6C504B010214001400060808001A65314055019EA25F0000007C000000070000000000000000000000000092020000636E782E786D6C504B010214001400060808001A6531400B7721CF6601000002
310
0300000C00000000000000000000000000160300006662782F636F72652E786D6C504B010214001400060808001A653140895643207D0000009D0000000B00000000000000000000000000A60400006662782F636E782E786D6C504B010214001400060808001A653140CAAF83312901000014020000310000000000000000
310
00000000004C0500006662782F42383833384341442D324430322D343541412D414542452D3143423233323836343233432F636F72652E786D6C504B010214001400060808001A6531405867DF4954010000330300003000000000000000000000000000C40600006662782F42383833384341442D324430322D343541412D
310
414542452D3143423233323836343233432F636E782E786D6C504B010214001400060808001A653140B52EF55657070000931B00003400000000000000000000000000660800006662782F42383833384341442D324430322D343541412D414542452D3143423233323836343233432F6F626A656374732E786D6C504B0102
310
14001400060800001A65314000000000000000000000000035000000000000000000000000000F1000006662782F42383833384341442D324430322D343541412D414542452D3143423233323836343233432F76657274696365732E62696E504B010214001400060808001A653140F270F133060000000400000036000000
310
00000000000000000000621000006662782F42383833384341442D324430322D343541412D414542452D3143423233323836343233432F747269616E676C65732E62696E504B010214001400060800001A6531400000000000000000000000003700000000000000000000000000BC1000006662782F42383833384341442D
310
324430322D343541412D414542452D3143423233323836343233432F617474726962757465732E62696E504B010214001400060808001A653140D5987DFC8F000000410100003600000000000000000000000000111100006662782F42383833384341442D324430322D343541412D414542452D3143423233323836343233
310
432F6469726563746F72792E786D6C504B010214001400060808001A653140A6E0B0E2FC000000A00100003B00000000000000000000000000F41100006662782F42383833384341442D324430322D343541412D414542452D3143423233323836343233432F7265736F75726365732F636F72652E786D6C504B0506000000
310
000E000E0080040000491300000000
  0
XRECORD
  5
27
102
{ACAD_REACTORS
330
22
102
}
330
22
100
AcDbXrecord
280
     1
270
     1
271
     1
  0
XRECORD
  5
26
102
{ACAD_REACTORS
330
22
102
}
330
22
100
AcDbXrecord
280
     1
270
     1
271
     1
  0
XRECORD
  5
28
102
{ACAD_REACTORS
330
22
102
}
330
22
100
AcDbXrecord
280
     1
270
     1
271
     1
  0
XRECORD
  5
25
102
{ACAD_REACTORS
330
22
102
}
330
22
100
AcDbXrecord
280
     1
270
     1
271
     1
  0
XRECORD
  5
F1C
102
{ACAD_REACTORS
330
F1B
102
}
330
F1B
100
AcDbXrecord
280
     1
102
ACAD_ROUNDTRIP_2012_MLEADER_STYLE
298
     1
  0
CELLSTYLEMAP
  5
F1A
102
{ACAD_REACTORS
330
F19
102
}
330
F19
100
AcDbCellStyleMap
 90
        3
300
CELLSTYLE
  1
TABLEFORMAT_BEGIN
 90
        5
170
     1
 91
        0
 92
    32768
 62
   257
 93
        1
300
CONTENTFORMAT
  1
CONTENTFORMAT_BEGIN
 90
        0
 91
        0
 92
      512
 93
        0
300

 40
0.0
140
1.0
 94
        5
 62
     0
340
55
144
0.25
309
CONTENTFORMAT_END
171
     0
 94
        0
309
TABLEFORMAT_END
  1
CELLSTYLE_BEGIN
 90
        1
 91
        1
300
_TITLE
309
CELLSTYLE_END
300
CELLSTYLE
  1
TABLEFORMAT_BEGIN
 90
        5
170
     1
 91
        0
 92
        0
 62
   257
 93
        1
300
CONTENTFORMAT
  1
CONTENTFORMAT_BEGIN
 90
        0
 91
        0
 92
      512
 93
        0
300

 40
0.0
140
1.0
 94
        5
 62
     0
340
55
144
0.18
309
CONTENTFORMAT_END
171
     0
 94
        0
309
TABLEFORMAT_END
  1
CELLSTYLE_BEGIN
 90
        2
 91
        1
300
_HEADER
309
CELLSTYLE_END
300
CELLSTYLE
  1
TABLEFORMAT_BEGIN
 90
        5
170
     1
 91
        0
 92
        0
 62
   257
 93
        1
300
CONTENTFORMAT
  1
CONTENTFORMAT_BEGIN
 90
        0
 91
        0
 92
      512
 93
        0
300

 40
0.0
140
1.0
 94
        2
 62
     0
340
55
144
0.18
309
CONTENTFORMAT_END
171
     0
 94
        0
309
TABLEFORMAT_END
  1
CELLSTYLE_BEGIN
 90
        3
 91
        2
300
_DATA
309
CELLSTYLE_END
  0
XRECORD
  5
F53
102
{ACAD_REACTORS
330
F19
102
}
330
F19
100
AcDbXrecord
280
     1
102
ACAD_ROUNDTRIP_PRE2007_TABLESTYLE
 90
      512
 91
        0
  1

 92
      512
 93
        0
  2

 94
      512
 95
        0
  3

  0
XRECORD
  5
F2E
102
{ACAD_REACTORS
330
F2D
102
}
330
F2D
100
AcDbXrecord
280
     1
102
RTVSPropertyOp0
 70
     1
102
RTVSPropertyOp1
 70
     1
102
RTVSPropertyOp2
 70
     1
102
RTVSPropertyOp3
 70
     1
102
RTVSPropertyOp4
 70
     1
102
RTVSPropertyOp5
 70
     1
102
RTVSPropertyOp6
 70
     1
102
RTVSPropertyOp7
 70
     1
102
RTVSPropertyOp8
 70
     1
102
RTVSPropertyOp9
 70
     1
102
RTVSPropertyOp10
 70
     1
102
RTVSPropertyOp11
 70
     1
102
RTVSPropertyOp12
 70
     1
102
RTVSPropertyOp13
 70
     1
102
RTVSPropertyOp14
 70
     1
102
RTVSPropertyOp15
 70
     1
102
RTVSPropertyOp16
 70
     1
102
RTVSPropertyOp17
 70
     1
102
RTVSPropertyOp18
 70
     1
102
RTVSPropertyOp19
 70
     1
102
RTVSPropertyOp20
 70
     1
102
RTVSPropertyOp21
 70
     1
102
RTVSPropertyOp22
 70
     1
102
RTVSPropertyOp23
 70
     1
102
RTVSPropertyOp24
 70
     1
102
RTVSPropertyOp25
 70
     1
102
RTVSPropertyOp26
 70
     1
102
RTVSPropertyOp27
 70
     1
102
RTVSPropertyOp28
 70
     1
102
RTVSPropertyOp29
 70
     1
102
RTVSPropertyOp30
 70
     1
102
RTVSPropertyOp31
 70
     1
102
RTVSPropertyOp32
 70
     1
  0
XRECORD
  5
F2C
102
{ACAD_REACTORS
330
F2B
102
}
330
F2B
100
AcDbXrecord
280
     1
102
RTVSPropertyOp0
 70
     1
102
RTVSPropertyOp1
 70
     1
102
RTVSPropertyOp2
 70
     1
102
RTVSPropertyOp3
 70
     1
102
RTVSPropertyOp4
 70
     1
102
RTVSPropertyOp5
 70
     1
102
RTVSPropertyOp6
 70
     1
102
RTVSPropertyOp7
 70
     1
102
RTVSPropertyOp8
 70
     1
102
RTVSPropertyOp9
 70
     1
102
RTVSPropertyOp10
 70
     1
102
RTVSPropertyOp11
 70
     1
102
RTVSPropertyOp12
 70
     1
102
RTVSPropertyOp13
 70
     1
102
RTVSPropertyOp14
 70
     1
102
RTVSPropertyOp15
 70
     1
102
RTVSPropertyOp16
 70
     1
102
RTVSPropertyOp17
 70
     1
102
RTVSPropertyOp18
 70
     1
102
RTVSPropertyOp19
 70
     1
102
RTVSPropertyOp20
 70
     1
102
RTVSPropertyOp21
 70
     1
102
RTVSPropertyOp22
 70
     1
102
RTVSPropertyOp23
 70
     1
102
RTVSPropertyOp24
 70
     1
102
RTVSPropertyOp25
 70
     1
102
RTVSPropertyOp26
 70
     1
102
RTVSPropertyOp27
 70
     1
102
RTVSPropertyOp28
 70
     1
102
RTVSPropertyOp29
 70
     1
102
RTVSPropertyOp30
 70
     1
102
RTVSPropertyOp31
 70
     1
102
RTVSPropertyOp32
 70
     1
  0
XRECORD
  5
F3A
102
{ACAD_REACTORS
330
F39
102
}
330
F39
100
AcDbXrecord
280
     1
102
RTVSPropertyOp0
 70
     1
102
RTVSPropertyOp1
 70
     1
102
RTVSPropertyOp2
 70
     1
102
RTVSPropertyOp3
 70
     1
102
RTVSPropertyOp4
 70
     1
102
RTVSPropertyOp5
 70
     1
102
RTVSPropertyOp6
 70
     1
102
RTVSPropertyOp7
 70
     1
102
RTVSPropertyOp8
 70
     1
102
RTVSPropertyOp9
 70
     1
102
RTVSPropertyOp10
 70
     1
102
RTVSPropertyOp11
 70
     1
102
RTVSPropertyOp12
 70
     1
102
RTVSPropertyOp13
 70
     1
102
RTVSPropertyOp14
 70
     1
102
RTVSPropertyOp15
 70
     1
102
RTVSPropertyOp16
 70
     1
102
RTVSPropertyOp17
 70
     1
102
RTVSPropertyOp18
 70
     1
102
RTVSPropertyOp19
 70
     1
102
RTVSPropertyOp20
 70
     1
102
RTVSPropertyOp21
 70
     1
102
RTVSPropertyOp22
 70
     1
102
RTVSPropertyOp23
 70
     1
102
RTVSPropertyOp24
 70
     1
102
RTVSPropertyOp25
 70
     1
102
RTVSPropertyOp26
 70
     1
102
RTVSPropertyOp27
 70
     1
102
RTVSPropertyOp28
 70
     1
102
RTVSPropertyOp29
 70
     1
102
RTVSPropertyOp30
 70
     1
102
RTVSPropertyOp31
 70
     1
102
RTVSPropertyOp32
 70
     1
  0
XRECORD
  5
F42
102
{ACAD_REACTORS
330
F41
102
}
330
F41
100
AcDbXrecord
280
     1
102
RTVSPropertyOp0
 70
     1
102
RTVSPropertyOp1
 70
     1
102
RTVSPropertyOp2
 70
     1
102
RTVSPropertyOp3
 70
     1
102
RTVSPropertyOp4
 70
     1
102
RTVSPropertyOp5
 70
     1
102
RTVSPropertyOp6
 70
     1
102
RTVSPropertyOp7
 70
     1
102
RTVSPropertyOp8
 70
     1
102
RTVSPropertyOp9
 70
     1
102
RTVSPropertyOp10
 70
     1
102
RTVSPropertyOp11
 70
     1
102
RTVSPropertyOp12
 70
     1
102
RTVSPropertyOp13
 70
     1
102
RTVSPropertyOp14
 70
     1
102
RTVSPropertyOp15
 70
     1
102
RTVSPropertyOp16
 70
     1
102
RTVSPropertyOp17
 70
     1
102
RTVSPropertyOp18
 70
     1
102
RTVSPropertyOp19
 70
     1
102
RTVSPropertyOp20
 70
     1
102
RTVSPropertyOp21
 70
     1
102
RTVSPropertyOp22
 70
     1
102
RTVSPropertyOp23
 70
     1
102
RTVSPropertyOp24
 70
     1
102
RTVSPropertyOp25
 70
     1
102
RTVSPropertyOp26
 70
     1
102
RTVSPropertyOp27
 70
     1
102
RTVSPropertyOp28
 70
     1
102
RTVSPropertyOp29
 70
     1
102
RTVSPropertyOp30
 70
     1
102
RTVSPropertyOp31
 70
     1
102
RTVSPropertyOp32
 70
     1
  0
XRECORD
  5
F34
102
{ACAD_REACTORS
330
F33
102
}
330
F33
100
AcDbXrecord
280
     1
102
RTVSPropertyOp0
 70
     1
102
RTVSPropertyOp1
 70
     1
102
RTVSPropertyOp2
 70
     1
102
RTVSPropertyOp3
 70
     1
102
RTVSPropertyOp4
 70
     1
102
RTVSPropertyOp5
 70
     1
102
RTVSPropertyOp6
 70
     1
102
RTVSPropertyOp7
 70
     1
102
RTVSPropertyOp8
 70
     1
102
RTVSPropertyOp9
 70
     1
102
RTVSPropertyOp10
 70
     1
102
RTVSPropertyOp11
 70
     1
102
RTVSPropertyOp12
 70
     1
102
RTVSPropertyOp13
 70
     1
102
RTVSPropertyOp14
 70
     1
102
RTVSPropertyOp15
 70
     1
102
RTVSPropertyOp16
 70
     1
102
RTVSPropertyOp17
 70
     1
102
RTVSPropertyOp18
 70
     1
102
RTVSPropertyOp19
 70
     1
102
RTVSPropertyOp20
 70
     1
102
RTVSPropertyOp21
 70
     1
102
RTVSPropertyOp22
 70
     1
102
RTVSPropertyOp23
 70
     1
102
RTVSPropertyOp24
 70
     1
102
RTVSPropertyOp25
 70
     1
102
RTVSPropertyOp26
 70
     1
102
RTVSPropertyOp27
 70
     1
102
RTVSPropertyOp28
 70
     1
102
RTVSPropertyOp29
 70
     1
102
RTVSPropertyOp30
 70
     1
102
RTVSPropertyOp31
 70
     1
102
RTVSPropertyOp32
 70
     1
  0
XRECORD
  5
F38
102
{ACAD_REACTORS
330
F37
102
}
330
F37
100
AcDbXrecord
280
     1
102
RTVSPropertyOp0
 70
     1
102
RTVSPropertyOp1
 70
     1
102
RTVSPropertyOp2
 70
     1
102
RTVSPropertyOp3
 70
     1
102
RTVSPropertyOp4
 70
     1
102
RTVSPropertyOp5
 70
     1
102
RTVSPropertyOp6
 70
     1
102
RTVSPropertyOp7
 70
     1
102
RTVSPropertyOp8
 70
     1
102
RTVSPropertyOp9
 70
     1
102
RTVSPropertyOp10
 70
     1
102
RTVSPropertyOp11
 70
     1
102
RTVSPropertyOp12
 70
     1
102
RTVSPropertyOp13
 70
     1
102
RTVSPropertyOp14
 70
     1
102
RTVSPropertyOp15
 70
     1
102
RTVSPropertyOp16
 70
     1
102
RTVSPropertyOp17
 70
     1
102
RTVSPropertyOp18
 70
     1
102
RTVSPropertyOp19
 70
     1
102
RTVSPropertyOp20
 70
     1
102
RTVSPropertyOp21
 70
     1
102
RTVSPropertyOp22
 70
     1
102
RTVSPropertyOp23
 70
     1
102
RTVSPropertyOp24
 70
     1
102
RTVSPropertyOp25
 70
     1
102
RTVSPropertyOp26
 70
     1
102
RTVSPropertyOp27
 70
     1
102
RTVSPropertyOp28
 70
     1
102
RTVSPropertyOp29
 70
     1
102
RTVSPropertyOp30
 70
     1
102
RTVSPropertyOp31
 70
     1
102
RTVSPropertyOp32
 70
     1
  0
XRECORD
  5
F52
102
{ACAD_REACTORS
330
F51
102
}
330
F51
100
AcDbXrecord
280
     1
102
RTVSPropertyOp0
 70
     0
102
RTVSPropertyOp1
 70
     0
102
RTVSPropertyOp2
 70
     0
102
RTVSPropertyOp3
 70
     0
102
RTVSPropertyOp4
 70
     0
102
RTVSPropertyOp5
 70
     0
102
RTVSPropertyOp6
 70
     0
102
RTVSPropertyOp7
 70
     0
102
RTVSPropertyOp8
 70
     0
102
RTVSPropertyOp9
 70
     0
102
RTVSPropertyOp10
 70
     0
102
RTVSPropertyOp11
 70
     0
102
RTVSPropertyOp12
 70
     0
102
RTVSPropertyOp13
 70
     0
102
RTVSPropertyOp14
 70
     2
102
RTVSPropertyOp15
 70
     0
102
RTVSPropertyOp16
 70
     0
102
RTVSPropertyOp17
 70
     0
102
RTVSPropertyOp18
 70
     0
102
RTVSPropertyOp19
 70
     0
102
RTVSPropertyOp20
 70
     0
102
RTVSPropertyOp21
 70
     0
102
RTVSPropertyOp22
 70
     0
102
RTVSPropertyOp23
 70
     0
102
RTVSPropertyOp24
 70
     0
102
RTVSPropertyOp25
 70
     0
102
RTVSPropertyOp26
 70
     0
102
RTVSPropertyOp27
 70
     0
102
RTVSPropertyOp28
 70
     1
102
RTVSPropertyOp29
 70
     1
102
RTVSPropertyOp30
 70
     1
102
RTVSPropertyOp31
 70
     1
102
RTVSPropertyOp32
 70
     1
  0
XRECORD
  5
F40
102
{ACAD_REACTORS
330
F3F
102
}
330
F3F
100
AcDbXrecord
280
     1
102
RTVSPropertyOp0
 70
     1
102
RTVSPropertyOp1
 70
     1
102
RTVSPropertyOp2
 70
     1
102
RTVSPropertyOp3
 70
     1
102
RTVSPropertyOp4
 70
     1
102
RTVSPropertyOp5
 70
     1
102
RTVSPropertyOp6
 70
     1
102
RTVSPropertyOp7
 70
     1
102
RTVSPropertyOp8
 70
     1
102
RTVSPropertyOp9
 70
     1
102
RTVSPropertyOp10
 70
     1
102
RTVSPropertyOp11
 70
     1
102
RTVSPropertyOp12
 70
     1
102
RTVSPropertyOp13
 70
     1
102
RTVSPropertyOp14
 70
     1
102
RTVSPropertyOp15
 70
     1
102
RTVSPropertyOp16
 70
     1
102
RTVSPropertyOp17
 70
     1
102
RTVSPropertyOp18
 70
     1
102
RTVSPropertyOp19
 70
     1
102
RTVSPropertyOp20
 70
     1
102
RTVSPropertyOp21
 70
     1
102
RTVSPropertyOp22
 70
     1
102
RTVSPropertyOp23
 70
     1
102
RTVSPropertyOp24
 70
     1
102
RTVSPropertyOp25
 70
     1
102
RTVSPropertyOp26
 70
     1
102
RTVSPropertyOp27
 70
     1
102
RTVSPropertyOp28
 70
     1
102
RTVSPropertyOp29
 70
     1
102
RTVSPropertyOp30
 70
     1
102
RTVSPropertyOp31
 70
     1
102
RTVSPropertyOp32
 70
     1
  0
XRECORD
  5
F24
102
{ACAD_REACTORS
330
F23
102
}
330
F23
100
AcDbXrecord
280
     1
102
RTVSPropertyOp0
 70
     1
102
RTVSPropertyOp1
 70
     1
102
RTVSPropertyOp2
 70
     1
102
RTVSPropertyOp3
 70
     1
102
RTVSPropertyOp4
 70
     1
102
RTVSPropertyOp5
 70
     1
102
RTVSPropertyOp6
 70
     1
102
RTVSPropertyOp7
 70
     1
102
RTVSPropertyOp8
 70
     1
102
RTVSPropertyOp9
 70
     1
102
RTVSPropertyOp10
 70
     1
102
RTVSPropertyOp11
 70
     1
102
RTVSPropertyOp12
 70
     1
102
RTVSPropertyOp13
 70
     1
102
RTVSPropertyOp14
 70
     1
102
RTVSPropertyOp15
 70
     1
102
RTVSPropertyOp16
 70
     1
102
RTVSPropertyOp17
 70
     1
102
RTVSPropertyOp18
 70
     1
102
RTVSPropertyOp19
 70
     1
102
RTVSPropertyOp20
 70
     1
102
RTVSPropertyOp21
 70
     1
102
RTVSPropertyOp22
 70
     1
102
RTVSPropertyOp23
 70
     1
102
RTVSPropertyOp24
 70
     1
102
RTVSPropertyOp25
 70
     1
102
RTVSPropertyOp26
 70
     1
102
RTVSPropertyOp27
 70
     1
102
RTVSPropertyOp28
 70
     1
102
RTVSPropertyOp29
 70
     1
102
RTVSPropertyOp30
 70
     1
102
RTVSPropertyOp31
 70
     1
102
RTVSPropertyOp32
 70
     1
  0
XRECORD
  5
F26
102
{ACAD_REACTORS
330
F25
102
}
330
F25
100
AcDbXrecord
280
     1
102
RTVSPropertyOp0
 70
     1
102
RTVSPropertyOp1
 70
     1
102
RTVSPropertyOp2
 70
     1
102
RTVSPropertyOp3
 70
     1
102
RTVSPropertyOp4
 70
     1
102
RTVSPropertyOp5
 70
     1
102
RTVSPropertyOp6
 70
     1
102
RTVSPropertyOp7
 70
     1
102
RTVSPropertyOp8
 70
     1
102
RTVSPropertyOp9
 70
     1
102
RTVSPropertyOp10
 70
     1
102
RTVSPropertyOp11
 70
     1
102
RTVSPropertyOp12
 70
     1
102
RTVSPropertyOp13
 70
     1
102
RTVSPropertyOp14
 70
     1
102
RTVSPropertyOp15
 70
     1
102
RTVSPropertyOp16
 70
     1
102
RTVSPropertyOp17
 70
     1
102
RTVSPropertyOp18
 70
     1
102
RTVSPropertyOp19
 70
     1
102
RTVSPropertyOp20
 70
     1
102
RTVSPropertyOp21
 70
     1
102
RTVSPropertyOp22
 70
     1
102
RTVSPropertyOp23
 70
     1
102
RTVSPropertyOp24
 70
     1
102
RTVSPropertyOp25
 70
     1
102
RTVSPropertyOp26
 70
     1
102
RTVSPropertyOp27
 70
     1
102
RTVSPropertyOp28
 70
     1
102
RTVSPropertyOp29
 70
     1
102
RTVSPropertyOp30
 70
     1
102
RTVSPropertyOp31
 70
     1
102
RTVSPropertyOp32
 70
     1
  0
XRECORD
  5
F28
102
{ACAD_REACTORS
330
F27
102
}
330
F27
100
AcDbXrecord
280
     1
102
RTVSPropertyOp0
 70
     1
102
RTVSPropertyOp1
 70
     1
102
RTVSPropertyOp2
 70
     1
102
RTVSPropertyOp3
 70
     1
102
RTVSPropertyOp4
 70
     1
102
RTVSPropertyOp5
 70
     1
102
RTVSPropertyOp6
 70
     1
102
RTVSPropertyOp7
 70
     1
102
RTVSPropertyOp8
 70
     1
102
RTVSPropertyOp9
 70
     1
102
RTVSPropertyOp10
 70
     1
102
RTVSPropertyOp11
 70
     1
102
RTVSPropertyOp12
 70
     1
102
RTVSPropertyOp13
 70
     1
102
RTVSPropertyOp14
 70
     1
102
RTVSPropertyOp15
 70
     1
102
RTVSPropertyOp16
 70
     1
102
RTVSPropertyOp17
 70
     1
102
RTVSPropertyOp18
 70
     1
102
RTVSPropertyOp19
 70
     1
102
RTVSPropertyOp20
 70
     1
102
RTVSPropertyOp21
 70
     1
102
RTVSPropertyOp22
 70
     1
102
RTVSPropertyOp23
 70
     1
102
RTVSPropertyOp24
 70
     1
102
RTVSPropertyOp25
 70
     1
102
RTVSPropertyOp26
 70
     1
102
RTVSPropertyOp27
 70
     1
102
RTVSPropertyOp28
 70
     1
102
RTVSPropertyOp29
 70
     1
102
RTVSPropertyOp30
 70
     1
102
RTVSPropertyOp31
 70
     1
102
RTVSPropertyOp32
 70
     1
  0
XRECORD
  5
F2A
102
{ACAD_REACTORS
330
F29
102
}
330
F29
100
AcDbXrecord
280
     1
102
RTVSPropertyOp0
 70
     1
102
RTVSPropertyOp1
 70
     1
102
RTVSPropertyOp2
 70
     1
102
RTVSPropertyOp3
 70
     1
102
RTVSPropertyOp4
 70
     1
102
RTVSPropertyOp5
 70
     1
102
RTVSPropertyOp6
 70
     1
102
RTVSPropertyOp7
 70
     1
102
RTVSPropertyOp8
 70
     1
102
RTVSPropertyOp9
 70
     1
102
RTVSPropertyOp10
 70
     1
102
RTVSPropertyOp11
 70
     1
102
RTVSPropertyOp12
 70
     1
102
RTVSPropertyOp13
 70
     1
102
RTVSPropertyOp14
 70
     1
102
RTVSPropertyOp15
 70
     1
102
RTVSPropertyOp16
 70
     1
102
RTVSPropertyOp17
 70
     1
102
RTVSPropertyOp18
 70
     1
102
RTVSPropertyOp19
 70
     1
102
RTVSPropertyOp20
 70
     1
102
RTVSPropertyOp21
 70
     1
102
RTVSPropertyOp22
 70
     1
102
RTVSPropertyOp23
 70
     1
102
RTVSPropertyOp24
 70
     1
102
RTVSPropertyOp25
 70
     1
102
RTVSPropertyOp26
 70
     1
102
RTVSPropertyOp27
 70
     1
102
RTVSPropertyOp28
 70
     1
102
RTVSPropertyOp29
 70
     1
102
RTVSPropertyOp30
 70
     1
102
RTVSPropertyOp31
 70
     1
102
RTVSPropertyOp32
 70
     1
  0
XRECORD
  5
F32
102
{ACAD_REACTORS
330
F31
102
}
330
F31
100
AcDbXrecord
280
     1
102
RTVSPropertyOp0
 70
     1
102
RTVSPropertyOp1
 70
     1
102
RTVSPropertyOp2
 70
     1
102
RTVSPropertyOp3
 70
     1
102
RTVSPropertyOp4
 70
     1
102
RTVSPropertyOp5
 70
     1
102
RTVSPropertyOp6
 70
     1
102
RTVSPropertyOp7
 70
     1
102
RTVSPropertyOp8
 70
     1
102
RTVSPropertyOp9
 70
     1
102
RTVSPropertyOp10
 70
     1
102
RTVSPropertyOp11
 70
     1
102
RTVSPropertyOp12
 70
     1
102
RTVSPropertyOp13
 70
     1
102
RTVSPropertyOp14
 70
     1
102
RTVSPropertyOp15
 70
     1
102
RTVSPropertyOp16
 70
     1
102
RTVSPropertyOp17
 70
     1
102
RTVSPropertyOp18
 70
     1
102
RTVSPropertyOp19
 70
     1
102
RTVSPropertyOp20
 70
     1
102
RTVSPropertyOp21
 70
     1
102
RTVSPropertyOp22
 70
     1
102
RTVSPropertyOp23
 70
     1
102
RTVSPropertyOp24
 70
     1
102
RTVSPropertyOp25
 70
     1
102
RTVSPropertyOp26
 70
     1
102
RTVSPropertyOp27
 70
     1
102
RTVSPropertyOp28
 70
     1
102
RTVSPropertyOp29
 70
     1
102
RTVSPropertyOp30
 70
     1
102
RTVSPropertyOp31
 70
     1
102
RTVSPropertyOp32
 70
     1
  0
XRECORD
  5
F4E
102
{ACAD_REACTORS
330
F4D
102
}
330
F4D
100
AcDbXrecord
280
     1
102
RTVSPropertyOp0
 70
     0
102
RTVSPropertyOp1
 70
     0
102
RTVSPropertyOp2
 70
     0
102
RTVSPropertyOp3
 70
     0
102
RTVSPropertyOp4
 70
     0
102
RTVSPropertyOp5
 70
     0
102
RTVSPropertyOp6
 70
     0
102
RTVSPropertyOp7
 70
     0
102
RTVSPropertyOp8
 70
     0
102
RTVSPropertyOp9
 70
     0
102
RTVSPropertyOp10
 70
     0
102
RTVSPropertyOp11
 70
     0
102
RTVSPropertyOp12
 70
     0
102
RTVSPropertyOp13
 70
     0
102
RTVSPropertyOp14
 70
     2
102
RTVSPropertyOp15
 70
     0
102
RTVSPropertyOp16
 70
     0
102
RTVSPropertyOp17
 70
     0
102
RTVSPropertyOp18
 70
     0
102
RTVSPropertyOp19
 70
     0
102
RTVSPropertyOp20
 70
     0
102
RTVSPropertyOp21
 70
     0
102
RTVSPropertyOp22
 70
     0
102
RTVSPropertyOp23
 70
     0
102
RTVSPropertyOp24
 70
     0
102
RTVSPropertyOp25
 70
     0
102
RTVSPropertyOp26
 70
     0
102
RTVSPropertyOp27
 70
     0
102
RTVSPropertyOp28
 70
     1
102
RTVSPropertyOp29
 70
     1
102
RTVSPropertyOp30
 70
     1
102
RTVSPropertyOp31
 70
     1
102
RTVSPropertyOp32
 70
     1
  0
XRECORD
  5
F3E
102
{ACAD_REACTORS
330
F3D
102
}
330
F3D
100
AcDbXrecord
280
     1
102
RTVSPropertyOp0
 70
     1
102
RTVSPropertyOp1
 70
     1
102
RTVSPropertyOp2
 70
     1
102
RTVSPropertyOp3
 70
     1
102
RTVSPropertyOp4
 70
     1
102
RTVSPropertyOp5
 70
     1
102
RTVSPropertyOp6
 70
     1
102
RTVSPropertyOp7
 70
     1
102
RTVSPropertyOp8
 70
     1
102
RTVSPropertyOp9
 70
     1
102
RTVSPropertyOp10
 70
     1
102
RTVSPropertyOp11
 70
     1
102
RTVSPropertyOp12
 70
     1
102
RTVSPropertyOp13
 70
     1
102
RTVSPropertyOp14
 70
     1
102
RTVSPropertyOp15
 70
     1
102
RTVSPropertyOp16
 70
     1
102
RTVSPropertyOp17
 70
     1
102
RTVSPropertyOp18
 70
     1
102
RTVSPropertyOp19
 70
     1
102
RTVSPropertyOp20
 70
     1
102
RTVSPropertyOp21
 70
     1
102
RTVSPropertyOp22
 70
     1
102
RTVSPropertyOp23
 70
     1
102
RTVSPropertyOp24
 70
     1
102
RTVSPropertyOp25
 70
     1
102
RTVSPropertyOp26
 70
     1
102
RTVSPropertyOp27
 70
     1
102
RTVSPropertyOp28
 70
     1
102
RTVSPropertyOp29
 70
     1
102
RTVSPropertyOp30
 70
     1
102
RTVSPropertyOp31
 70
     1
102
RTVSPropertyOp32
 70
     1
  0
XRECORD
  5
F50
102
{ACAD_REACTORS
330
F4F
102
}
330
F4F
100
AcDbXrecord
280
     1
102
RTVSPropertyOp0
 70
     0
102
RTVSPropertyOp1
 70
     0
102
RTVSPropertyOp2
 70
     0
102
RTVSPropertyOp3
 70
     0
102
RTVSPropertyOp4
 70
     0
102
RTVSPropertyOp5
 70
     0
102
RTVSPropertyOp6
 70
     0
102
RTVSPropertyOp7
 70
     0
102
RTVSPropertyOp8
 70
     0
102
RTVSPropertyOp9
 70
     0
102
RTVSPropertyOp10
 70
     0
102
RTVSPropertyOp11
 70
     0
102
RTVSPropertyOp12
 70
     0
102
RTVSPropertyOp13
 70
     0
102
RTVSPropertyOp14
 70
     2
102
RTVSPropertyOp15
 70
     0
102
RTVSPropertyOp16
 70
     0
102
RTVSPropertyOp17
 70
     0
102
RTVSPropertyOp18
 70
     0
102
RTVSPropertyOp19
 70
     0
102
RTVSPropertyOp20
 70
     0
102
RTVSPropertyOp21
 70
     0
102
RTVSPropertyOp22
 70
     0
102
RTVSPropertyOp23
 70
     0
102
RTVSPropertyOp24
 70
     0
102
RTVSPropertyOp25
 70
     0
102
RTVSPropertyOp26
 70
     0
102
RTVSPropertyOp27
 70
     0
102
RTVSPropertyOp28
 70
     1
102
RTVSPropertyOp29
 70
     1
102
RTVSPropertyOp30
 70
     1
102
RTVSPropertyOp31
 70
     1
102
RTVSPropertyOp32
 70
     1
  0
XRECORD
  5
F36
102
{ACAD_REACTORS
330
F35
102
}
330
F35
100
AcDbXrecord
280
     1
102
RTVSPropertyOp0
 70
     1
102
RTVSPropertyOp1
 70
     1
102
RTVSPropertyOp2
 70
     1
102
RTVSPropertyOp3
 70
     1
102
RTVSPropertyOp4
 70
     1
102
RTVSPropertyOp5
 70
     1
102
RTVSPropertyOp6
 70
     1
102
RTVSPropertyOp7
 70
     1
102
RTVSPropertyOp8
 70
     1
102
RTVSPropertyOp9
 70
     1
102
RTVSPropertyOp10
 70
     1
102
RTVSPropertyOp11
 70
     1
102
RTVSPropertyOp12
 70
     1
102
RTVSPropertyOp13
 70
     1
102
RTVSPropertyOp14
 70
     1
102
RTVSPropertyOp15
 70
     1
102
RTVSPropertyOp16
 70
     1
102
RTVSPropertyOp17
 70
     1
102
RTVSPropertyOp18
 70
     1
102
RTVSPropertyOp19
 70
     1
102
RTVSPropertyOp20
 70
     1
102
RTVSPropertyOp21
 70
     1
102
RTVSPropertyOp22
 70
     1
102
RTVSPropertyOp23
 70
     1
102
RTVSPropertyOp24
 70
     1
102
RTVSPropertyOp25
 70
     1
102
RTVSPropertyOp26
 70
     1
102
RTVSPropertyOp27
 70
     1
102
RTVSPropertyOp28
 70
     1
102
RTVSPropertyOp29
 70
     1
102
RTVSPropertyOp30
 70
     1
102
RTVSPropertyOp31
 70
     1
102
RTVSPropertyOp32
 70
     1
  0
XRECORD
  5
F4C
102
{ACAD_REACTORS
330
F4B
102
}
330
F4B
100
AcDbXrecord
280
     1
102
RTVSPropertyOp0
 70
     1
102
RTVSPropertyOp1
 70
     1
102
RTVSPropertyOp2
 70
     1
102
RTVSPropertyOp3
 70
     1
102
RTVSPropertyOp4
 70
     1
102
RTVSPropertyOp5
 70
     1
102
RTVSPropertyOp6
 70
     1
102
RTVSPropertyOp7
 70
     1
102
RTVSPropertyOp8
 70
     1
102
RTVSPropertyOp9
 70
     1
102
RTVSPropertyOp10
 70
     1
102
RTVSPropertyOp11
 70
     1
102
RTVSPropertyOp12
 70
     1
102
RTVSPropertyOp13
 70
     1
102
RTVSPropertyOp14
 70
     1
102
RTVSPropertyOp15
 70
     1
102
RTVSPropertyOp16
 70
     1
102
RTVSPropertyOp17
 70
     1
102
RTVSPropertyOp18
 70
     1
102
RTVSPropertyOp19
 70
     1
102
RTVSPropertyOp20
 70
     1
102
RTVSPropertyOp21
 70
     1
102
RTVSPropertyOp22
 70
     1
102
RTVSPropertyOp23
 70
     1
102
RTVSPropertyOp24
 70
     1
102
RTVSPropertyOp25
 70
     1
102
RTVSPropertyOp26
 70
     1
102
RTVSPropertyOp27
 70
     1
102
RTVSPropertyOp28
 70
     1
102
RTVSPropertyOp29
 70
     1
102
RTVSPropertyOp30
 70
     1
102
RTVSPropertyOp31
 70
     1
102
RTVSPropertyOp32
 70
     1
  0
XRECORD
  5
F4A
102
{ACAD_REACTORS
330
F49
102
}
330
F49
100
AcDbXrecord
280
     1
102
RTVSPropertyOp0
 70
     1
102
RTVSPropertyOp1
 70
     1
102
RTVSPropertyOp2
 70
     1
102
RTVSPropertyOp3
 70
     1
102
RTVSPropertyOp4
 70
     1
102
RTVSPropertyOp5
 70
     1
102
RTVSPropertyOp6
 70
     1
102
RTVSPropertyOp7
 70
     1
102
RTVSPropertyOp8
 70
     1
102
RTVSPropertyOp9
 70
     1
102
RTVSPropertyOp10
 70
     1
102
RTVSPropertyOp11
 70
     1
102
RTVSPropertyOp12
 70
     1
102
RTVSPropertyOp13
 70
     1
102
RTVSPropertyOp14
 70
     1
102
RTVSPropertyOp15
 70
     1
102
RTVSPropertyOp16
 70
     1
102
RTVSPropertyOp17
 70
     1
102
RTVSPropertyOp18
 70
     1
102
RTVSPropertyOp19
 70
     1
102
RTVSPropertyOp20
 70
     1
102
RTVSPropertyOp21
 70
     1
102
RTVSPropertyOp22
 70
     1
102
RTVSPropertyOp23
 70
     1
102
RTVSPropertyOp24
 70
     1
102
RTVSPropertyOp25
 70
     1
102
RTVSPropertyOp26
 70
     1
102
RTVSPropertyOp27
 70
     1
102
RTVSPropertyOp28
 70
     1
102
RTVSPropertyOp29
 70
     1
102
RTVSPropertyOp30
 70
     1
102
RTVSPropertyOp31
 70
     1
102
RTVSPropertyOp32
 70
     1
  0
XRECORD
  5
F44
102
{ACAD_REACTORS
330
F43
102
}
330
F43
100
AcDbXrecord
280
     1
102
RTVSPropertyOp0
 70
     1
102
RTVSPropertyOp1
 70
     1
102
RTVSPropertyOp2
 70
     1
102
RTVSPropertyOp3
 70
     1
102
RTVSPropertyOp4
 70
     1
102
RTVSPropertyOp5
 70
     1
102
RTVSPropertyOp6
 70
     1
102
RTVSPropertyOp7
 70
     1
102
RTVSPropertyOp8
 70
     1
102
RTVSPropertyOp9
 70
     1
102
RTVSPropertyOp10
 70
     1
102
RTVSPropertyOp11
 70
     1
102
RTVSPropertyOp12
 70
     1
102
RTVSPropertyOp13
 70
     1
102
RTVSPropertyOp14
 70
     1
102
RTVSPropertyOp15
 70
     1
102
RTVSPropertyOp16
 70
     1
102
RTVSPropertyOp17
 70
     1
102
RTVSPropertyOp18
 70
     1
102
RTVSPropertyOp19
 70
     1
102
RTVSPropertyOp20
 70
     1
102
RTVSPropertyOp21
 70
     1
102
RTVSPropertyOp22
 70
     1
102
RTVSPropertyOp23
 70
     1
102
RTVSPropertyOp24
 70
     1
102
RTVSPropertyOp25
 70
     1
102
RTVSPropertyOp26
 70
     1
102
RTVSPropertyOp27
 70
     1
102
RTVSPropertyOp28
 70
     1
102
RTVSPropertyOp29
 70
     1
102
RTVSPropertyOp30
 70
     1
102
RTVSPropertyOp31
 70
     1
102
RTVSPropertyOp32
 70
     1
  0
XRECORD
  5
F46
102
{ACAD_REACTORS
330
F45
102
}
330
F45
100
AcDbXrecord
280
     1
102
RTVSPropertyOp0
 70
     1
102
RTVSPropertyOp1
 70
     1
102
RTVSPropertyOp2
 70
     1
102
RTVSPropertyOp3
 70
     1
102
RTVSPropertyOp4
 70
     1
102
RTVSPropertyOp5
 70
     1
102
RTVSPropertyOp6
 70
     1
102
RTVSPropertyOp7
 70
     1
102
RTVSPropertyOp8
 70
     1
102
RTVSPropertyOp9
 70
     1
102
RTVSPropertyOp10
 70
     1
102
RTVSPropertyOp11
 70
     1
102
RTVSPropertyOp12
 70
     1
102
RTVSPropertyOp13
 70
     1
102
RTVSPropertyOp14
 70
     1
102
RTVSPropertyOp15
 70
     1
102
RTVSPropertyOp16
 70
     1
102
RTVSPropertyOp17
 70
     1
102
RTVSPropertyOp18
 70
     1
102
RTVSPropertyOp19
 70
     1
102
RTVSPropertyOp20
 70
     1
102
RTVSPropertyOp21
 70
     1
102
RTVSPropertyOp22
 70
     1
102
RTVSPropertyOp23
 70
     1
102
RTVSPropertyOp24
 70
     1
102
RTVSPropertyOp25
 70
     1
102
RTVSPropertyOp26
 70
     1
102
RTVSPropertyOp27
 70
     1
102
RTVSPropertyOp28
 70
     1
102
RTVSPropertyOp29
 70
     1
102
RTVSPropertyOp30
 70
     1
102
RTVSPropertyOp31
 70
     1
102
RTVSPropertyOp32
 70
     1
  0
XRECORD
  5
F3C
102
{ACAD_REACTORS
330
F3B
102
}
330
F3B
100
AcDbXrecord
280
     1
102
RTVSPropertyOp0
 70
     1
102
RTVSPropertyOp1
 70
     1
102
RTVSPropertyOp2
 70
     1
102
RTVSPropertyOp3
 70
     1
102
RTVSPropertyOp4
 70
     1
102
RTVSPropertyOp5
 70
     1
102
RTVSPropertyOp6
 70
     1
102
RTVSPropertyOp7
 70
     1
102
RTVSPropertyOp8
 70
     1
102
RTVSPropertyOp9
 70
     1
102
RTVSPropertyOp10
 70
     1
102
RTVSPropertyOp11
 70
     1
102
RTVSPropertyOp12
 70
     1
102
RTVSPropertyOp13
 70
     1
102
RTVSPropertyOp14
 70
     1
102
RTVSPropertyOp15
 70
     1
102
RTVSPropertyOp16
 70
     1
102
RTVSPropertyOp17
 70
     1
102
RTVSPropertyOp18
 70
     1
102
RTVSPropertyOp19
 70
     1
102
RTVSPropertyOp20
 70
     1
102
RTVSPropertyOp21
 70
     1
102
RTVSPropertyOp22
 70
     1
102
RTVSPropertyOp23
 70
     1
102
RTVSPropertyOp24
 70
     1
102
RTVSPropertyOp25
 70
     1
102
RTVSPropertyOp26
 70
     1
102
RTVSPropertyOp27
 70
     1
102
RTVSPropertyOp28
 70
     1
102
RTVSPropertyOp29
 70
     1
102
RTVSPropertyOp30
 70
     1
102
RTVSPropertyOp31
 70
     1
102
RTVSPropertyOp32
 70
     1
  0
XRECORD
  5
F30
102
{ACAD_REACTORS
330
F2F
102
}
330
F2F
100
AcDbXrecord
280
     1
102
RTVSPropertyOp0
 70
     1
102
RTVSPropertyOp1
 70
     1
102
RTVSPropertyOp2
 70
     1
102
RTVSPropertyOp3
 70
     1
102
RTVSPropertyOp4
 70
     1
102
RTVSPropertyOp5
 70
     1
102
RTVSPropertyOp6
 70
     1
102
RTVSPropertyOp7
 70
     1
102
RTVSPropertyOp8
 70
     1
102
RTVSPropertyOp9
 70
     1
102
RTVSPropertyOp10
 70
     1
102
RTVSPropertyOp11
 70
     1
102
RTVSPropertyOp12
 70
     1
102
RTVSPropertyOp13
 70
     1
102
RTVSPropertyOp14
 70
     1
102
RTVSPropertyOp15
 70
     1
102
RTVSPropertyOp16
 70
     1
102
RTVSPropertyOp17
 70
     1
102
RTVSPropertyOp18
 70
     1
102
RTVSPropertyOp19
 70
     1
102
RTVSPropertyOp20
 70
     1
102
RTVSPropertyOp21
 70
     1
102
RTVSPropertyOp22
 70
     1
102
RTVSPropertyOp23
 70
     1
102
RTVSPropertyOp24
 70
     1
102
RTVSPropertyOp25
 70
     1
102
RTVSPropertyOp26
 70
     1
102
RTVSPropertyOp27
 70
     1
102
RTVSPropertyOp28
 70
     1
102
RTVSPropertyOp29
 70
     1
102
RTVSPropertyOp30
 70
     1
102
RTVSPropertyOp31
 70
     1
102
RTVSPropertyOp32
 70
     1
  0
XRECORD
  5
F48
102
{ACAD_REACTORS
330
F47
102
}
330
F47
100
AcDbXrecord
280
     1
102
RTVSPropertyOp0
 70
     1
102
RTVSPropertyOp1
 70
     1
102
RTVSPropertyOp2
 70
     1
102
RTVSPropertyOp3
 70
     1
102
RTVSPropertyOp4
 70
     1
102
RTVSPropertyOp5
 70
     1
102
RTVSPropertyOp6
 70
     1
102
RTVSPropertyOp7
 70
     1
102
RTVSPropertyOp8
 70
     1
102
RTVSPropertyOp9
 70
     1
102
RTVSPropertyOp10
 70
     1
102
RTVSPropertyOp11
 70
     1
102
RTVSPropertyOp12
 70
     1
102
RTVSPropertyOp13
 70
     1
102
RTVSPropertyOp14
 70
     1
102
RTVSPropertyOp15
 70
     1
102
RTVSPropertyOp16
 70
     1
102
RTVSPropertyOp17
 70
     1
102
RTVSPropertyOp18
 70
     1
102
RTVSPropertyOp19
 70
     1
102
RTVSPropertyOp20
 70
     1
102
RTVSPropertyOp21
 70
     1
102
RTVSPropertyOp22
 70
     1
102
RTVSPropertyOp23
 70
     1
102
RTVSPropertyOp24
 70
     1
102
RTVSPropertyOp25
 70
     1
102
RTVSPropertyOp26
 70
     1
102
RTVSPropertyOp27
 70
     1
102
RTVSPropertyOp28
 70
     1
102
RTVSPropertyOp29
 70
     1
102
RTVSPropertyOp30
 70
     1
102
RTVSPropertyOp31
 70
     1
102
RTVSPropertyOp32
 70
     1
  0
ENDSEC
  0
EOF
