  0
SECTION
  2
HEADER
  9
$ACADVER
  1
AC1015
  9
$ACADMAINTVER
 70
    18
  9
$DWGCODEPAGE
  3
ANSI_1252
  9
$INSBASE
 10
0.0
 20
0.0
 30
0.0
  9
$EXTMIN
 10
0.0
 20
0.0
 30
0.0
  9
$EXTMAX
 10
90.66666666666666
 20
58.66666666666667
 30
0.0
  9
$LIMMIN
 10
0.0
 20
0.0
  9
$LIMMAX
 10
90.66666666666666
 20
58.66666666666667
  9
$ORTHOMODE
 70
     0
  9
$REGENMODE
 70
     1
  9
$FILLMODE
 70
     1
  9
$QTEXTMODE
 70
     0
  9
$MIRRTEXT
 70
     0
  9
$LTSCALE
 40
5.333333333333333
  9
$ATTMODE
 70
     1
  9
$TEXTSIZE
 40
0.2
  9
$TRACEWID
 40
0.05
  9
$TEXTSTYLE
  7
Standard
  9
$CLAYER
  8
0
  9
$CELTYPE
  6
ByLayer
  9
$CECOLOR
 62
   256
  9
$CELTSCALE
 40
1.0
  9
$DISPSILH
 70
     0
  9
$DIMSCALE
 40
1.0
  9
$DIMASZ
 40
0.0708661417322835
  9
$DIMEXO
 40
0.0625
  9
$DIMDLI
 40
0.38
  9
$DIMRND
 40
0.0
  9
$DIMDLE
 40
0.0
  9
$DIMEXE
 40
0.18
  9
$DIMTP
 40
0.0
  9
$DIMTM
 40
0.0
  9
$DIMTXT
 40
0.0708661417322835
  9
$DIMCEN
 40
0.09
  9
$DIMTSZ
 40
0.0
  9
$DIMTOL
 70
     0
  9
$DIMLIM
 70
     0
  9
$DIMTIH
 70
     1
  9
$DIMTOH
 70
     1
  9
$DIMSE1
 70
     0
  9
$DIMSE2
 70
     0
  9
$DIMTAD
 70
     0
  9
$DIMZIN
 70
     0
  9
$DIMBLK
  1

  9
$DIMASO
 70
     1
  9
$DIMSHO
 70
     1
  9
$DIMPOST
  1

  9
$DIMAPOST
  1

  9
$DIMALT
 70
     0
  9
$DIMALTD
 70
     2
  9
$DIMALTF
 40
25.4
  9
$DIMLFAC
 40
1.0
  9
$DIMTOFL
 70
     0
  9
$DIMTVP
 40
0.0
  9
$DIMTIX
 70
     0
  9
$DIMSOXD
 70
     0
  9
$DIMSAH
 70
     0
  9
$DIMBLK1
  1

  9
$DIMBLK2
  1

  9
$DIMSTYLE
  2
Standard
  9
$DIMCLRD
 70
     0
  9
$DIMCLRE
 70
     0
  9
$DIMCLRT
 70
     0
  9
$DIMTFAC
 40
1.0
  9
$DIMGAP
 40
0.09
  9
$DIMJUST
 70
     0
  9
$DIMSD1
 70
     0
  9
$DIMSD2
 70
     0
  9
$DIMTOLJ
 70
     1
  9
$DIMTZIN
 70
     0
  9
$DIMALTZ
 70
     0
  9
$DIMALTTZ
 70
     0
  9
$DIMUPT
 70
     0
  9
$DIMDEC
 70
     4
  9
$DIMTDEC
 70
     4
  9
$DIMALTU
 70
     2
  9
$DIMALTTD
 70
     2
  9
$DIMTXSTY
  7
Standard
  9
$DIMAUNIT
 70
     0
  9
$DIMADEC
 70
     0
  9
$DIMALTRND
 40
0.0
  9
$DIMAZIN
 70
     0
  9
$DIMDSEP
 70
    46
  9
$DIMATFIT
 70
     3
  9
$DIMFRAC
 70
     0
  9
$DIMLDRBLK
  1

  9
$DIMLUNIT
 70
     2
  9
$DIMLWD
 70
    -2
  9
$DIMLWE
 70
    -2
  9
$DIMTMOVE
 70
     0
  9
$LUNITS
 70
     2
  9
$LUPREC
 70
     4
  9
$SKETCHINC
 40
0.1
  9
$FILLETRAD
 40
0.0
  9
$AUNITS
 70
     0
  9
$AUPREC
 70
     0
  9
$MENU
  1
.
  9
$ELEVATION
 40
0.0
  9
$PELEVATION
 40
0.0
  9
$THICKNESS
 40
0.0
  9
$LIMCHECK
 70
     0
  9
$CHAMFERA
 40
0.0
  9
$CHAMFERB
 40
0.0
  9
$CHAMFERC
 40
0.0
  9
$CHAMFERD
 40
0.0
  9
$SKPOLY
 70
     0
  9
$TDCREATE
 40
2455946.460746829
  9
$TDUCREATE
 40
2455946.710746829
  9
$TDUPDATE
 40
2455946.460746829
  9
$TDUUPDATE
 40
2455946.710746829
  9
$TDINDWG
 40
0.0000381481
  9
$TDUSRTIMER
 40
0.0000381481
  9
$USRTIMER
 70
     1
  9
$ANGBASE
 50
0.0
  9
$ANGDIR
 70
     0
  9
$PDMODE
 70
     0
  9
$PDSIZE
 40
0.0
  9
$PLINEWID
 40
0.0
  9
$SPLFRAME
 70
     0
  9
$SPLINETYPE
 70
     6
  9
$SPLINESEGS
 70
     8
  9
$HANDSEED
  5
1075
  9
$SURFTAB1
 70
     6
  9
$SURFTAB2
 70
     6
  9
$SURFTYPE
 70
     6
  9
$SURFU
 70
     6
  9
$SURFV
 70
     6
  9
$UCSBASE
  2

  9
$UCSNAME
  2

  9
$UCSORG
 10
0.0
 20
0.0
 30
0.0
  9
$UCSXDIR
 10
1.0
 20
0.0
 30
0.0
  9
$UCSYDIR
 10
0.0
 20
1.0
 30
0.0
  9
$UCSORTHOREF
  2

  9
$UCSORTHOVIEW
 70
     0
  9
$UCSORGTOP
 10
0.0
 20
0.0
 30
0.0
  9
$UCSORGBOTTOM
 10
0.0
 20
0.0
 30
0.0
  9
$UCSORGLEFT
 10
0.0
 20
0.0
 30
0.0
  9
$UCSORGRIGHT
 10
0.0
 20
0.0
 30
0.0
  9
$UCSORGFRONT
 10
0.0
 20
0.0
 30
0.0
  9
$UCSORGBACK
 10
0.0
 20
0.0
 30
0.0
  9
$PUCSBASE
  2

  9
$PUCSNAME
  2

  9
$PUCSORG
 10
0.0
 20
0.0
 30
0.0
  9
$PUCSXDIR
 10
1.0
 20
0.0
 30
0.0
  9
$PUCSYDIR
 10
0.0
 20
1.0
 30
0.0
  9
$PUCSORTHOREF
  2

  9
$PUCSORTHOVIEW
 70
     0
  9
$PUCSORGTOP
 10
0.0
 20
0.0
 30
0.0
  9
$PUCSORGBOTTOM
 10
0.0
 20
0.0
 30
0.0
  9
$PUCSORGLEFT
 10
0.0
 20
0.0
 30
0.0
  9
$PUCSORGRIGHT
 10
0.0
 20
0.0
 30
0.0
  9
$PUCSORGFRONT
 10
0.0
 20
0.0
 30
0.0
  9
$PUCSORGBACK
 10
0.0
 20
0.0
 30
0.0
  9
$USERI1
 70
     0
  9
$USERI2
 70
     0
  9
$USERI3
 70
     0
  9
$USERI4
 70
     0
  9
$USERI5
 70
     0
  9
$USERR1
 40
0.0
  9
$USERR2
 40
0.0
  9
$USERR3
 40
0.0
  9
$USERR4
 40
0.0
  9
$USERR5
 40
0.0
  9
$WORLDVIEW
 70
     1
  9
$SHADEDGE
 70
     3
  9
$SHADEDIF
 70
    70
  9
$TILEMODE
 70
     1
  9
$MAXACTVP
 70
    64
  9
$PINSBASE
 10
0.0
 20
0.0
 30
0.0
  9
$PLIMCHECK
 70
     0
  9
$PEXTMIN
 10
0.0
 20
0.0
 30
0.0
  9
$PEXTMAX
 10
90.66666666666666
 20
58.66666666666667
 30
0.0
  9
$PLIMMIN
 10
0.0
 20
0.0
  9
$PLIMMAX
 10
90.66666666666666
 20
58.66666666666667
  9
$UNITMODE
 70
     0
  9
$VISRETAIN
 70
     1
  9
$PLINEGEN
 70
     0
  9
$PSLTSCALE
 70
     1
  9
$TREEDEPTH
 70
  3020
  9
$CMLSTYLE
  2
Standard
  9
$CMLJUST
 70
     0
  9
$CMLSCALE
 40
1.0
  9
$PROXYGRAPHICS
 70
     1
  9
$MEASUREMENT
 70
     0
  9
$CELWEIGHT
370
    -1
  9
$ENDCAPS
280
     0
  9
$JOINSTYLE
280
     0
  9
$LWDISPLAY
290
     0
  9
$INSUNITS
 70
     1
  9
$HYPERLINKBASE
  1

  9
$STYLESHEET
  1

  9
$XEDIT
290
     1
  9
$CEPSNTYPE
380
     0
  9
$PSTYLEMODE
290
     1
  9
$FINGERPRINTGUID
  2
{14BF380A-40AC-45D6-A48A-6997C4A0BA4E}
  9
$VERSIONGUID
  2
{CD2AEF3B-90D8-4164-814F-A467223C5E62}
  9
$EXTNAMES
290
     1
  9
$PSVPSCALE
 40
0.0
  9
$OLESTARTUP
290
     0
  0
ENDSEC
  0
SECTION
  2
CLASSES
  0
CLASS
  1
ACDBDICTIONARYWDFLT
  2
AcDbDictionaryWithDefault
  3
ObjectDBX Classes
 90
        0
280
     0
281
     0
  0
CLASS
  1
MATERIAL
  2
AcDbMaterial
  3
ObjectDBX Classes
 90
     1153
280
     0
281
     0
  0
CLASS
  1
VISUALSTYLE
  2
AcDbVisualStyle
  3
ObjectDBX Classes
 90
     4095
280
     0
281
     0
  0
CLASS
  1
SCALE
  2
AcDbScale
  3
ObjectDBX Classes
 90
     1153
280
     0
281
     0
  0
CLASS
  1
TABLESTYLE
  2
AcDbTableStyle
  3
ObjectDBX Classes
 90
     4095
280
     0
281
     0
  0
CLASS
  1
MLEADERSTYLE
  2
AcDbMLeaderStyle
  3
ACDB_MLEADERSTYLE_CLASS
 90
     4095
280
     0
281
     0
  0
CLASS
  1
DICTIONARYVAR
  2
AcDbDictionaryVar
  3
ObjectDBX Classes
 90
        0
280
     0
281
     0
  0
CLASS
  1
CELLSTYLEMAP
  2
AcDbCellStyleMap
  3
ObjectDBX Classes
 90
     1152
280
     0
281
     0
  0
CLASS
  1
ACDBPLACEHOLDER
  2
AcDbPlaceHolder
  3
ObjectDBX Classes
 90
        0
280
     0
281
     0
  0
CLASS
  1
LAYOUT
  2
AcDbLayout
  3
ObjectDBX Classes
 90
        0
280
     0
281
     0
  0
ENDSEC
  0
SECTION
  2
TABLES
  0
TABLE
  2
VPORT
  5
8
330
0
100
AcDbSymbolTable
 70
     1
  0
VPORT
  5
57
330
8
100
AcDbSymbolTableRecord
100
AcDbViewportTableRecord
  2
*Active
 70
     0
 10
0.0
 20
0.0
 11
1.0
 21
1.0
 12
45.33333333333333
 22
29.33333333333333
 13
0.0
 23
0.0
 14
1.0
 24
1.0
 15
0.0
 25
0.0
 16
0.0
 26
0.0
 36
1.0
 17
0.0
 27
0.0
 37
0.0
 40
58.66666666666667
 41
1.545454545454545
 42
50.0
 43
0.0
 44
0.0
 50
0.0
 51
0.0
 71
     0
 72
   100
 73
     1
 74
     1
 75
     0
 76
     0
 77
     0
 78
     0
281
     0
 65
     1
110
0.0
120
0.0
130
0.0
111
1.0
121
0.0
131
0.0
112
0.0
122
1.0
132
0.0
 79
     0
146
0.0
  0
ENDTAB
  0
TABLE
  2
LTYPE
  5
5
330
0
100
AcDbSymbolTable
 70
    59
  0
LTYPE
  5
5B
330
5
100
AcDbSymbolTableRecord
100
AcDbLinetypeTableRecord
  2
ByBlock
 70
     0
  3

 72
    65
 73
     0
 40
0.0
  0
LTYPE
  5
5C
330
5
100
AcDbSymbolTableRecord
100
AcDbLinetypeTableRecord
  2
ByLayer
 70
     0
  3

 72
    65
 73
     0
 40
0.0
  0
LTYPE
  5
5D
330
5
100
AcDbSymbolTableRecord
100
AcDbLinetypeTableRecord
  2
Continuous
 70
     0
  3
Solid line
 72
    65
 73
     0
 40
0.0
  0
LTYPE
  5
7C
330
5
100
AcDbSymbolTableRecord
100
AcDbLinetypeTableRecord
  2
BY_STANDARD
 70
     0
  3
By Standard ____________    ____    ____   _
 72
    65
 73
     6
 40
1.240299999999999
 49
0.6614
 74
     0
 49
-0.0827
 74
     0
 49
0.1654
 74
     0
 49
-0.0827
 74
     0
 49
0.1654
 74
     0
 49
-0.0827
 74
     0
  0
LTYPE
  5
7D
330
5
100
AcDbSymbolTableRecord
100
AcDbLinetypeTableRecord
  2
CHAIN
 70
     0
  3
Chain ____ _ ____ _ ____ _ ____ _ ____ _ ____
 72
    65
 73
     4
 40
0.7087
 49
0.4724000000000001
 74
     0
 49
-0.0591
 74
     0
 49
0.1181
 74
     0
 49
-0.0591
 74
     0
  0
LTYPE
  5
7E
330
5
100
AcDbSymbolTableRecord
100
AcDbLinetypeTableRecord
  2
DASH_DOT
 70
     0
  3
Dash dot __ . __ . __ . __ . __ . __ . __ . __
 72
    65
 73
     4
 40
0.37
 49
0.24
 74
     0
 49
-0.06
 74
     0
 49
0.01
 74
     0
 49
-0.06
 74
     0
  0
LTYPE
  5
7F
330
5
100
AcDbSymbolTableRecord
100
AcDbLinetypeTableRecord
  2
DOUBLE_DASH_DOT
 70
     0
  3
Double-Dash Dot __ __ . __ __ . __ __ . __ _
 72
    65
 73
     6
 40
0.4398
 49
0.24
 74
     0
 49
-0.06
 74
     0
 49
0.0098
 74
     0
 49
-0.06
 74
     0
 49
0.01
 74
     0
 49
-0.06
 74
     0
  0
LTYPE
  5
80
330
5
100
AcDbSymbolTableRecord
100
AcDbLinetypeTableRecord
  2
DASH_TRIPLE_DOT
 70
     0
  3
Dash Triple-Dot _ . . . _ . . . _ . . . _
 72
    65
 73
     8
 40
0.51
 49
0.24
 74
     0
 49
-0.06
 74
     0
 49
0.01
 74
     0
 49
-0.06
 74
     0
 49
0.01
 74
     0
 49
-0.06
 74
     0
 49
0.01
 74
     0
 49
-0.06
 74
     0
  0
LTYPE
  5
81
330
5
100
AcDbSymbolTableRecord
100
AcDbLinetypeTableRecord
  2
DASHED
 70
     0
  3
Dashed __ __ __ __ __ __ __ __ __ __ __ __ __ _
 72
    65
 73
     2
 40
0.2067
 49
0.1654
 74
     0
 49
-0.0413
 74
     0
  0
LTYPE
  5
82
330
5
100
AcDbSymbolTableRecord
100
AcDbLinetypeTableRecord
  2
DASH_DOUBLE_DOT
 70
     0
  3
Dash Double-Dot __ . . __ . . __ . . __ . .
 72
    65
 73
     6
 40
0.4398
 49
0.24
 74
     0
 49
-0.06
 74
     0
 49
0.0098
 74
     0
 49
-0.06
 74
     0
 49
0.01
 74
     0
 49
-0.06
 74
     0
  0
LTYPE
  5
83
330
5
100
AcDbSymbolTableRecord
100
AcDbLinetypeTableRecord
  2
DASHED_SPACE
 70
     0
  3
Dashed Space __ __ __ __ __ __ __ __ __ __ __ _
 72
    65
 73
     2
 40
0.2067
 49
0.1654
 74
     0
 49
-0.0413
 74
     0
  0
LTYPE
  5
84
330
5
100
AcDbSymbolTableRecord
100
AcDbLinetypeTableRecord
  2
DOTTED
 70
     0
  3
Dotted . . . . . . . . . . . . . . . . . . . . 
 72
    65
 73
     2
 40
0.0482
 49
0.0069
 74
     0
 49
-0.0413
 74
     0
  0
LTYPE
  5
85
330
5
100
AcDbSymbolTableRecord
100
AcDbLinetypeTableRecord
  2
DOUBLE_DASH_CHAIN
 70
     0
  3
Double-Dash Chain ______  __  __  ______  __  _
 72
    65
 73
     6
 40
1.240299999999999
 49
0.6614
 74
     0
 49
-0.0827
 74
     0
 49
0.1654
 74
     0
 49
-0.0827
 74
     0
 49
0.1654
 74
     0
 49
-0.0827
 74
     0
  0
LTYPE
  5
87
330
5
100
AcDbSymbolTableRecord
100
AcDbLinetypeTableRecord
  2
DOUBLE_DASH_DOUBLE_DOT
 70
     0
  3
Double-Dash Double-dot _ _ . . _ _ . . _
 72
    65
 73
     8
 40
0.7400000000000001
 49
0.24
 74
     0
 49
-0.06
 74
     0
 49
0.24
 74
     0
 49
-0.06
 74
     0
 49
0.01
 74
     0
 49
-0.06
 74
     0
 49
0.01
 74
     0
 49
-0.06
 74
     0
  0
LTYPE
  5
88
330
5
100
AcDbSymbolTableRecord
100
AcDbLinetypeTableRecord
  2
DOUBLE_DASH_TRIPLE_DOT
 70
     0
  3
Double Dash Triple Dot __ __ . . . __ __ . .
 72
    65
 73
    10
 40
0.8100000000000001
 49
0.24
 74
     0
 49
-0.06
 74
     0
 49
0.24
 74
     0
 49
-0.06
 74
     0
 49
0.01
 74
     0
 49
-0.06
 74
     0
 49
0.01
 74
     0
 49
-0.06
 74
     0
 49
0.01
 74
     0
 49
-0.06
 74
     0
  0
LTYPE
  5
89
330
5
100
AcDbSymbolTableRecord
100
AcDbLinetypeTableRecord
  2
LONG_DASH_DOTTED
 70
     0
  3
Long Dash Dotted ____ . ____ . ____ . ____ . _
 72
    65
 73
     4
 40
0.3543
 49
0.2362
 74
     0
 49
-0.0295
 74
     0
 49
0.0591
 74
     0
 49
-0.0295
 74
     0
  0
LTYPE
  5
8A
330
5
100
AcDbSymbolTableRecord
100
AcDbLinetypeTableRecord
  2
LONG_DASH_DOUBLE_DOT
 70
     0
  3
Long Dash Double Dot ________  .  .  ________  
 72
    65
 73
     6
 40
0.6799999999999999
 49
0.48
 74
     0
 49
-0.06
 74
     0
 49
0.01
 74
     0
 49
-0.06
 74
     0
 49
0.01
 74
     0
 49
-0.06
 74
     0
  0
LTYPE
  5
8B
330
5
100
AcDbSymbolTableRecord
100
AcDbLinetypeTableRecord
  2
LONG_DASH_TRIPLE_DOT
 70
     0
  3
Long Dash Triple Dot ____ ... ____ ... ____
 72
    65
 73
     8
 40
0.3689
 49
0.2362
 74
     0
 49
-0.0295
 74
     0
 49
0.0049
 74
     0
 49
-0.0295
 74
     0
 49
0.0049
 74
     0
 49
-0.0295
 74
     0
 49
0.0049
 74
     0
 49
-0.0295
 74
     0
  0
LTYPE
  5
8C
330
5
100
AcDbSymbolTableRecord
100
AcDbLinetypeTableRecord
  2
BORDER
 70
     0
  3
Border __ __ . __ __ . __ __ . __ __ . __ __ .
 72
    65
 73
     6
 40
1.75
 49
0.5
 74
     0
 49
-0.25
 74
     0
 49
0.5
 74
     0
 49
-0.25
 74
     0
 49
0.0
 74
     0
 49
-0.25
 74
     0
  0
LTYPE
  5
8D
330
5
100
AcDbSymbolTableRecord
100
AcDbLinetypeTableRecord
  2
BORDER2
 70
     0
  3
Border (.5x) __.__.__.__.__.__.__.__.__.__.__.
 72
    65
 73
     6
 40
0.875
 49
0.25
 74
     0
 49
-0.125
 74
     0
 49
0.25
 74
     0
 49
-0.125
 74
     0
 49
0.0
 74
     0
 49
-0.125
 74
     0
  0
LTYPE
  5
8E
330
5
100
AcDbSymbolTableRecord
100
AcDbLinetypeTableRecord
  2
BORDERX2
 70
     0
  3
Border (2x) ____  ____  .  ____  ____  .  ___
 72
    65
 73
     6
 40
3.5
 49
1.0
 74
     0
 49
-0.5
 74
     0
 49
1.0
 74
     0
 49
-0.5
 74
     0
 49
0.0
 74
     0
 49
-0.5
 74
     0
  0
LTYPE
  5
8F
330
5
100
AcDbSymbolTableRecord
100
AcDbLinetypeTableRecord
  2
CENTER
 70
     0
  3
Center ____ _ ____ _ ____ _ ____ _ ____ _ ____
 72
    65
 73
     4
 40
2.0
 49
1.25
 74
     0
 49
-0.25
 74
     0
 49
0.25
 74
     0
 49
-0.25
 74
     0
  0
LTYPE
  5
90
330
5
100
AcDbSymbolTableRecord
100
AcDbLinetypeTableRecord
  2
CENTER2
 70
     0
  3
Center (.5x) ___ _ ___ _ ___ _ ___ _ ___ _ ___
 72
    65
 73
     4
 40
1.125
 49
0.75
 74
     0
 49
-0.125
 74
     0
 49
0.125
 74
     0
 49
-0.125
 74
     0
  0
LTYPE
  5
91
330
5
100
AcDbSymbolTableRecord
100
AcDbLinetypeTableRecord
  2
CENTERX2
 70
     0
  3
Center (2x) ________  __  ________  __  _____
 72
    65
 73
     4
 40
4.0
 49
2.5
 74
     0
 49
-0.5
 74
     0
 49
0.5
 74
     0
 49
-0.5
 74
     0
  0
LTYPE
  5
92
330
5
100
AcDbSymbolTableRecord
100
AcDbLinetypeTableRecord
  2
DASHDOT2
 70
     0
  3
Dash dot (.5x) _._._._._._._._._._._._._._._.
 72
    65
 73
     4
 40
0.5
 49
0.25
 74
     0
 49
-0.125
 74
     0
 49
0.0
 74
     0
 49
-0.125
 74
     0
  0
LTYPE
  5
93
330
5
100
AcDbSymbolTableRecord
100
AcDbLinetypeTableRecord
  2
DASHDOTX2
 70
     0
  3
Dash dot (2x) ____  .  ____  .  ____  .  ___
 72
    65
 73
     4
 40
2.0
 49
1.0
 74
     0
 49
-0.5
 74
     0
 49
0.0
 74
     0
 49
-0.5
 74
     0
  0
LTYPE
  5
95
330
5
100
AcDbSymbolTableRecord
100
AcDbLinetypeTableRecord
  2
DASHED2
 70
     0
  3
Dashed (.5x) _ _ _ _ _ _ _ _ _ _ _ _ _ _ _ _ _
 72
    65
 73
     2
 40
0.375
 49
0.25
 74
     0
 49
-0.125
 74
     0
  0
LTYPE
  5
96
330
5
100
AcDbSymbolTableRecord
100
AcDbLinetypeTableRecord
  2
DASHEDX2
 70
     0
  3
Dashed (2x) ____  ____  ____  ____  ____  ___
 72
    65
 73
     2
 40
1.5
 49
1.0
 74
     0
 49
-0.5
 74
     0
  0
LTYPE
  5
97
330
5
100
AcDbSymbolTableRecord
100
AcDbLinetypeTableRecord
  2
DIVIDE
 70
     0
  3
Divide ____ . . ____ . . ____ . . ____ . . ____
 72
    65
 73
     6
 40
1.25
 49
0.5
 74
     0
 49
-0.25
 74
     0
 49
0.0
 74
     0
 49
-0.25
 74
     0
 49
0.0
 74
     0
 49
-0.25
 74
     0
  0
LTYPE
  5
98
330
5
100
AcDbSymbolTableRecord
100
AcDbLinetypeTableRecord
  2
DIVIDE2
 70
     0
  3
Divide (.5x) __..__..__..__..__..__..__..__.._
 72
    65
 73
     6
 40
0.625
 49
0.25
 74
     0
 49
-0.125
 74
     0
 49
0.0
 74
     0
 49
-0.125
 74
     0
 49
0.0
 74
     0
 49
-0.125
 74
     0
  0
LTYPE
  5
99
330
5
100
AcDbSymbolTableRecord
100
AcDbLinetypeTableRecord
  2
DIVIDEX2
 70
     0
  3
Divide (2x) ________  .  .  ________  .  .  _
 72
    65
 73
     6
 40
2.5
 49
1.0
 74
     0
 49
-0.5
 74
     0
 49
0.0
 74
     0
 49
-0.5
 74
     0
 49
0.0
 74
     0
 49
-0.5
 74
     0
  0
LTYPE
  5
9A
330
5
100
AcDbSymbolTableRecord
100
AcDbLinetypeTableRecord
  2
DOT
 70
     0
  3
Dot . . . . . . . . . . . . . . . . . . . . . .
 72
    65
 73
     2
 40
0.25
 49
0.0
 74
     0
 49
-0.25
 74
     0
  0
LTYPE
  5
9B
330
5
100
AcDbSymbolTableRecord
100
AcDbLinetypeTableRecord
  2
DOT2
 70
     0
  3
Dot (.5x) .....................................
 72
    65
 73
     2
 40
0.125
 49
0.0
 74
     0
 49
-0.125
 74
     0
  0
LTYPE
  5
9C
330
5
100
AcDbSymbolTableRecord
100
AcDbLinetypeTableRecord
  2
DOTX2
 70
     0
  3
Dot (2x) .  .  .  .  .  .  .  .  .  .  .  .  . 
 72
    65
 73
     2
 40
0.5
 49
0.0
 74
     0
 49
-0.5
 74
     0
  0
LTYPE
  5
9D
330
5
100
AcDbSymbolTableRecord
100
AcDbLinetypeTableRecord
  2
HIDDEN
 70
     0
  3
Hidden __ __ __ __ __ __ __ __ __ __ __ __ __ _
 72
    65
 73
     2
 40
0.375
 49
0.25
 74
     0
 49
-0.125
 74
     0
  0
LTYPE
  5
9E
330
5
100
AcDbSymbolTableRecord
100
AcDbLinetypeTableRecord
  2
HIDDEN2
 70
     0
  3
Hidden (.5x) _ _ _ _ _ _ _ _ _ _ _ _ _ _ _ _ _
 72
    65
 73
     2
 40
0.1875
 49
0.125
 74
     0
 49
-0.0625
 74
     0
  0
LTYPE
  5
9F
330
5
100
AcDbSymbolTableRecord
100
AcDbLinetypeTableRecord
  2
HIDDENX2
 70
     0
  3
Hidden (2x) ____ ____ ____ ____ ____ ____ ____
 72
    65
 73
     2
 40
0.75
 49
0.5
 74
     0
 49
-0.25
 74
     0
  0
LTYPE
  5
A0
330
5
100
AcDbSymbolTableRecord
100
AcDbLinetypeTableRecord
  2
PHANTOM
 70
     0
  3
Phantom ______  __  __  ______  __  __  ______
 72
    65
 73
     6
 40
2.5
 49
1.25
 74
     0
 49
-0.25
 74
     0
 49
0.25
 74
     0
 49
-0.25
 74
     0
 49
0.25
 74
     0
 49
-0.25
 74
     0
  0
LTYPE
  5
A1
330
5
100
AcDbSymbolTableRecord
100
AcDbLinetypeTableRecord
  2
PHANTOM2
 70
     0
  3
Phantom (.5x) ___ _ _ ___ _ _ ___ _ _ ___ _ _
 72
    65
 73
     6
 40
1.25
 49
0.625
 74
     0
 49
-0.125
 74
     0
 49
0.125
 74
     0
 49
-0.125
 74
     0
 49
0.125
 74
     0
 49
-0.125
 74
     0
  0
LTYPE
  5
A2
330
5
100
AcDbSymbolTableRecord
100
AcDbLinetypeTableRecord
  2
PHANTOMX2
 70
     0
  3
Phantom (2x) ____________    ____    ____   _
 72
    65
 73
     6
 40
5.0
 49
2.5
 74
     0
 49
-0.5
 74
     0
 49
0.5
 74
     0
 49
-0.5
 74
     0
 49
0.5
 74
     0
 49
-0.5
 74
     0
  0
LTYPE
  5
A3
330
5
100
AcDbSymbolTableRecord
100
AcDbLinetypeTableRecord
  2
ACAD_ISO02W100
 70
     0
  3
ISO dash __ __ __ __ __ __ __ __ __ __ __ __ __
 72
    65
 73
     2
 40
0.59
 49
0.47
 74
     0
 49
-0.12
 74
     0
  0
LTYPE
  5
A4
330
5
100
AcDbSymbolTableRecord
100
AcDbLinetypeTableRecord
  2
ACAD_ISO03W100
 70
     0
  3
ISO dash space __    __    __    __    __    __
 72
    65
 73
     2
 40
1.179999999999999
 49
0.47
 74
     0
 49
-0.71
 74
     0
  0
LTYPE
  5
A5
330
5
100
AcDbSymbolTableRecord
100
AcDbLinetypeTableRecord
  2
ACAD_ISO04W100
 70
     0
  3
ISO long-dash dot ____ . ____ . ____ . ____ . _
 72
    65
 73
     4
 40
1.179999999999999
 49
0.9399999999999998
 74
     0
 49
-0.12
 74
     0
 49
0.0
 74
     0
 49
-0.12
 74
     0
  0
LTYPE
  5
A6
330
5
100
AcDbSymbolTableRecord
100
AcDbLinetypeTableRecord
  2
ACAD_ISO05W100
 70
     0
  3
ISO long-dash double-dot ____ .. ____ .. ____ .
 72
    65
 73
     6
 40
1.299999999999999
 49
0.9399999999999998
 74
     0
 49
-0.12
 74
     0
 49
0.0
 74
     0
 49
-0.12
 74
     0
 49
0.0
 74
     0
 49
-0.12
 74
     0
  0
LTYPE
  5
A7
330
5
100
AcDbSymbolTableRecord
100
AcDbLinetypeTableRecord
  2
ACAD_ISO06W100
 70
     0
  3
ISO long-dash triple-dot ____ ... ____ ... ____
 72
    65
 73
     8
 40
1.419999999999999
 49
0.9399999999999998
 74
     0
 49
-0.12
 74
     0
 49
0.0
 74
     0
 49
-0.12
 74
     0
 49
0.0
 74
     0
 49
-0.12
 74
     0
 49
0.0
 74
     0
 49
-0.12
 74
     0
  0
LTYPE
  5
A8
330
5
100
AcDbSymbolTableRecord
100
AcDbLinetypeTableRecord
  2
ACAD_ISO07W100
 70
     0
  3
ISO dot . . . . . . . . . . . . . . . . . . . .
 72
    65
 73
     2
 40
0.12
 49
0.0
 74
     0
 49
-0.12
 74
     0
  0
LTYPE
  5
A9
330
5
100
AcDbSymbolTableRecord
100
AcDbLinetypeTableRecord
  2
ACAD_ISO08W100
 70
     0
  3
ISO long-dash short-dash ____ __ ____ __ ____ _
 72
    65
 73
     4
 40
0.95
 49
0.47
 74
     0
 49
-0.12
 74
     0
 49
0.24
 74
     0
 49
-0.12
 74
     0
  0
LTYPE
  5
AA
330
5
100
AcDbSymbolTableRecord
100
AcDbLinetypeTableRecord
  2
ACAD_ISO09W100
 70
     0
  3
ISO long-dash double-short-dash ____ __ __ ____
 72
    65
 73
     6
 40
1.31
 49
0.47
 74
     0
 49
-0.12
 74
     0
 49
0.24
 74
     0
 49
-0.12
 74
     0
 49
0.24
 74
     0
 49
-0.12
 74
     0
  0
LTYPE
  5
AB
330
5
100
AcDbSymbolTableRecord
100
AcDbLinetypeTableRecord
  2
ACAD_ISO10W100
 70
     0
  3
ISO dash dot __ . __ . __ . __ . __ . __ . __ .
 72
    65
 73
     4
 40
0.71
 49
0.47
 74
     0
 49
-0.12
 74
     0
 49
0.0
 74
     0
 49
-0.12
 74
     0
  0
LTYPE
  5
AC
330
5
100
AcDbSymbolTableRecord
100
AcDbLinetypeTableRecord
  2
ACAD_ISO11W100
 70
     0
  3
ISO double-dash dot __ __ . __ __ . __ __ . __ 
 72
    65
 73
     6
 40
1.299999999999999
 49
0.47
 74
     0
 49
-0.12
 74
     0
 49
0.47
 74
     0
 49
-0.12
 74
     0
 49
0.0
 74
     0
 49
-0.12
 74
     0
  0
LTYPE
  5
AD
330
5
100
AcDbSymbolTableRecord
100
AcDbLinetypeTableRecord
  2
ACAD_ISO12W100
 70
     0
  3
ISO dash double-dot __ . . __ . . __ . . __ . .
 72
    65
 73
     6
 40
0.8299999999999998
 49
0.47
 74
     0
 49
-0.12
 74
     0
 49
0.0
 74
     0
 49
-0.12
 74
     0
 49
0.0
 74
     0
 49
-0.12
 74
     0
  0
LTYPE
  5
AE
330
5
100
AcDbSymbolTableRecord
100
AcDbLinetypeTableRecord
  2
ACAD_ISO13W100
 70
     0
  3
ISO double-dash double-dot __ __ . . __ __ . . 
 72
    65
 73
     8
 40
1.419999999999999
 49
0.47
 74
     0
 49
-0.12
 74
     0
 49
0.47
 74
     0
 49
-0.12
 74
     0
 49
0.0
 74
     0
 49
-0.12
 74
     0
 49
0.0
 74
     0
 49
-0.12
 74
     0
  0
LTYPE
  5
AF
330
5
100
AcDbSymbolTableRecord
100
AcDbLinetypeTableRecord
  2
ACAD_ISO14W100
 70
     0
  3
ISO dash triple-dot __ . . . __ . . . __ . . . 
 72
    65
 73
     8
 40
0.95
 49
0.47
 74
     0
 49
-0.12
 74
     0
 49
0.0
 74
     0
 49
-0.12
 74
     0
 49
0.0
 74
     0
 49
-0.12
 74
     0
 49
0.0
 74
     0
 49
-0.12
 74
     0
  0
LTYPE
  5
B0
330
5
100
AcDbSymbolTableRecord
100
AcDbLinetypeTableRecord
  2
ACAD_ISO15W100
 70
     0
  3
ISO double-dash triple-dot __ __ . . . __ __ . 
 72
    65
 73
    10
 40
1.539999999999999
 49
0.47
 74
     0
 49
-0.12
 74
     0
 49
0.47
 74
     0
 49
-0.12
 74
     0
 49
0.0
 74
     0
 49
-0.12
 74
     0
 49
0.0
 74
     0
 49
-0.12
 74
     0
 49
0.0
 74
     0
 49
-0.12
 74
     0
  0
LTYPE
  5
B3
330
5
100
AcDbSymbolTableRecord
100
AcDbLinetypeTableRecord
  2
FENCELINE1
 70
     0
  3
Fenceline circle ----0-----0----0-----0----0---
 72
    65
 73
     4
 40
1.45
 49
0.25
 74
     0
 49
-0.1
 74
     4
 75
   133
340
B2
 46
0.1
 50
0.0
 44
-0.1
 45
0.0
 49
-0.1
 74
     0
 49
1.0
 74
     0
  0
LTYPE
  5
B4
330
5
100
AcDbSymbolTableRecord
100
AcDbLinetypeTableRecord
  2
FENCELINE2
 70
     0
  3
Fenceline square ----[]-----[]----[]-----[]----
 72
    65
 73
     4
 40
1.45
 49
0.25
 74
     0
 49
-0.1
 74
     4
 75
   132
340
B2
 46
0.1
 50
0.0
 44
-0.1
 45
0.0
 49
-0.1
 74
     0
 49
1.0
 74
     0
  0
LTYPE
  5
B5
330
5
100
AcDbSymbolTableRecord
100
AcDbLinetypeTableRecord
  2
TRACKS
 70
     0
  3
Tracks -|-|-|-|-|-|-|-|-|-|-|-|-|-|-|-|-|-|-|-|
 72
    65
 73
     2
 40
0.3
 49
0.15
 74
     4
 75
   130
340
B2
 46
0.25
 50
0.0
 44
0.0
 45
0.0
 49
0.15
 74
     0
  0
LTYPE
  5
B6
330
5
100
AcDbSymbolTableRecord
100
AcDbLinetypeTableRecord
  2
BATTING
 70
     0
  3
Batting SSSSSSSSSSSSSSSSSSSSSSSSSSSSSSSSSSSSSSS
 72
    65
 73
     4
 40
0.4001000000000001
 49
0.0001
 74
     0
 49
-0.1
 74
     4
 75
   134
340
B2
 46
0.1
 50
0.0
 44
-0.1
 45
0.0
 49
-0.2
 74
     4
 75
   134
340
B2
 46
0.1
 50
180.0
 44
0.1
 45
0.0
 49
-0.1
 74
     0
  0
LTYPE
  5
B7
330
5
100
AcDbSymbolTableRecord
100
AcDbLinetypeTableRecord
  2
HOT_WATER_SUPPLY
 70
     0
  3
Hot water supply ---- HW ---- HW ---- HW ----
 72
    65
 73
     3
 40
0.9
 49
0.5
 74
     0
 49
-0.2
 74
     2
 75
     0
340
55
 46
0.1
 50
0.0
 44
-0.1
 45
-0.05
  9
HW
 49
-0.2
 74
     0
  0
LTYPE
  5
B8
330
5
100
AcDbSymbolTableRecord
100
AcDbLinetypeTableRecord
  2
GAS_LINE
 70
     0
  3
Gas line ----GAS----GAS----GAS----GAS----GAS---
 72
    65
 73
     3
 40
0.95
 49
0.5
 74
     0
 49
-0.2
 74
     2
 75
     0
340
55
 46
0.1
 50
0.0
 44
-0.1
 45
-0.05
  9
GAS
 49
-0.25
 74
     0
  0
LTYPE
  5
B9
330
5
100
AcDbSymbolTableRecord
100
AcDbLinetypeTableRecord
  2
ZIGZAG
 70
     0
  3
Zig zag /\/\/\/\/\/\/\/\/\/\/\/\/\/\/\/\/\/\/\/
 72
    65
 73
     4
 40
0.8001000000000001
 49
0.0001
 74
     0
 49
-0.2
 74
     4
 75
   131
340
B2
 46
0.2
 50
0.0
 44
-0.2
 45
0.0
 49
-0.4
 74
     4
 75
   131
340
B2
 46
0.2
 50
180.0
 44
0.2
 45
0.0
 49
-0.2
 74
     0
  0
ENDTAB
  0
TABLE
  2
LAYER
  5
2
330
0
100
AcDbSymbolTable
 70
    27
  0
LAYER
  5
54
330
2
100
AcDbSymbolTableRecord
100
AcDbLayerTableRecord
  2
0
 70
     0
 62
     7
  6
Continuous
370
     0
390
F
  0
LAYER
  5
C0
330
2
100
AcDbSymbolTableRecord
100
AcDbLayerTableRecord
  2
Center Mark (ANSI)
 70
     0
 62
     7
  6
Continuous
370
     5
390
F
  0
LAYER
  5
C1
330
2
100
AcDbSymbolTableRecord
100
AcDbLayerTableRecord
  2
Centerline (ANSI)
 70
     0
 62
     7
  6
Continuous
370
     5
390
F
  0
LAYER
  5
C3
330
2
100
AcDbSymbolTableRecord
100
AcDbLayerTableRecord
  2
Dimension (ANSI)
 70
     0
 62
     7
  6
Continuous
370
     5
390
F
  0
LAYER
  5
C5
330
2
100
AcDbSymbolTableRecord
100
AcDbLayerTableRecord
  2
Hidden (ANSI)
 70
     0
 62
     7
  6
DASHED
370
     5
390
F
  0
LAYER
  5
CC
330
2
100
AcDbSymbolTableRecord
100
AcDbLayerTableRecord
  2
Symbol (ANSI)
 70
     0
 62
     7
  6
Continuous
370
     5
390
F
  0
LAYER
  5
CF
330
2
100
AcDbSymbolTableRecord
100
AcDbLayerTableRecord
  2
Visible (ANSI)
 70
     0
 62
     7
  6
Continuous
370
     5
390
F
  0
LAYER
  5
D0
330
2
100
AcDbSymbolTableRecord
100
AcDbLayerTableRecord
  2
Visible Narrow (ANSI)
 70
     0
 62
     7
  6
Continuous
370
     5
390
F
  0
LAYER
  5
1F1
330
2
100
AcDbSymbolTableRecord
100
AcDbLayerTableRecord
  2
Defpoints
 70
     0
 62
     7
  6
Continuous
290
     0
370
    -3
390
F
  0
ENDTAB
  0
TABLE
  2
STYLE
  5
3
330
0
100
AcDbSymbolTable
 70
    10
  0
STYLE
  5
55
330
3
100
AcDbSymbolTableRecord
100
AcDbTextStyleTableRecord
  2
Standard
 70
     0
 40
0.0
 41
1.0
 50
0.0
 71
     0
 42
0.2
  3
txt
  4

  0
STYLE
  5
5A
330
3
100
AcDbSymbolTableRecord
100
AcDbTextStyleTableRecord
  2
Annotative
 70
     0
 40
0.0
 41
1.0
 50
0.0
 71
     0
 42
0.2
  3
txt
  4

1001
AcadAnnotative
1000
AnnotativeData
1002
{
1070
     1
1070
     1
1002
}
  0
STYLE
  5
B2
330
3
100
AcDbSymbolTableRecord
100
AcDbTextStyleTableRecord
  2

 70
     1
 40
0.0
 41
1.0
 50
0.0
 71
     0
 42
0.2
  3
ltypeshp.shx
  4

  0
STYLE
  5
D4
330
3
100
AcDbSymbolTableRecord
100
AcDbTextStyleTableRecord
  2
ITALICC_120
 70
     0
 40
0.0
 41
1.0
 50
0.0
 71
     0
 42
0.2
  3
italicc.shx
  4

  0
STYLE
  5
D5
330
3
100
AcDbSymbolTableRecord
100
AcDbTextStyleTableRecord
  2
Label Text (ANSI)
 70
     0
 40
0.0
 41
1.0
 50
0.0
 71
     0
 42
0.2
  3
TAHOMA.TTF
  4

1001
ACAD
1000
Tahoma
1071
      256
  0
STYLE
  5
D6
330
3
100
AcDbSymbolTableRecord
100
AcDbTextStyleTableRecord
  2
Note Text (ANSI)
 70
     0
 40
0.0
 41
1.0
 50
0.0
 71
     0
 42
0.2
  3
RomanS.shx
  4

  0
STYLE
  5
D7
330
3
100
AcDbSymbolTableRecord
100
AcDbTextStyleTableRecord
  2
ROMANS
 70
     0
 40
0.0
 41
1.0
 50
0.0
 71
     0
 42
0.2
  3
romans.shx
  4

  0
STYLE
  5
D8
330
3
100
AcDbSymbolTableRecord
100
AcDbTextStyleTableRecord
  2
SANSSERIF_114
 70
     0
 40
0.0
 41
1.0
 50
0.0
 71
     0
 42
0.2
  3
TAHOMA.TTF
  4

1001
ACAD
1000
Tahoma
1071
      256
  0
STYLE
  5
D9
330
3
100
AcDbSymbolTableRecord
100
AcDbTextStyleTableRecord
  2
SANSSERIF_117
 70
     0
 40
0.0
 41
1.0
 50
0.0
 71
     0
 42
0.2
  3
TAHOMA.TTF
  4

1001
ACAD
1000
Tahoma
1071
      256
  0
STYLE
  5
147
330
3
100
AcDbSymbolTableRecord
100
AcDbTextStyleTableRecord
  2
Text Style168
 70
     0
 40
0.0
 41
1.0
 50
0.0
 71
     0
 42
0.2
  3
TAHOMA.TTF
  4

1001
ACAD
1000
Tahoma
1071
      256
  0
ENDTAB
  0
TABLE
  2
VIEW
  5
6
330
0
100
AcDbSymbolTable
 70
     0
  0
ENDTAB
  0
TABLE
  2
UCS
  5
7
330
0
100
AcDbSymbolTable
 70
     0
  0
ENDTAB
  0
TABLE
  2
APPID
  5
9
330
0
100
AcDbSymbolTable
 70
     4
  0
APPID
  5
56
330
9
100
AcDbSymbolTableRecord
100
AcDbRegAppTableRecord
  2
ACAD
 70
     0
  0
APPID
  5
5E
330
9
100
AcDbSymbolTableRecord
100
AcDbRegAppTableRecord
  2
AcadAnnotative
 70
     0
  0
APPID
  5
85B
330
9
100
AcDbSymbolTableRecord
100
AcDbRegAppTableRecord
  2
ACAD_DSTYLE_DIMRADIAL_EXTENSION
 70
     0
  0
APPID
  5
106A
330
9
100
AcDbSymbolTableRecord
100
AcDbRegAppTableRecord
  2
ACAD_MLEADERVER
 70
     0
  0
ENDTAB
  0
TABLE
  2
DIMSTYLE
  5
A
330
0
100
AcDbSymbolTable
 70
    15
100
AcDbDimStyleTable
 71
     2
340
E2
340
58
  0
DIMSTYLE
105
58
330
A
100
AcDbSymbolTableRecord
100
AcDbDimStyleTableRecord
  2
Standard
 70
     0
340
55
  0
DIMSTYLE
105
59
330
A
100
AcDbSymbolTableRecord
100
AcDbDimStyleTableRecord
  2
Annotative
 70
     0
340
55
1001
AcadAnnotative
1000
AnnotativeData
1002
{
1070
     1
1070
     1
1002
}
  0
DIMSTYLE
105
DA
330
A
100
AcDbSymbolTableRecord
100
AcDbDimStyleTableRecord
  2
Architectural (ANSI)
 70
     0
 40
5.333333333333333
 41
0.0984251946210861
 43
0.2362204724409449
 44
0.125
 45
0.00000001
 46
0.3937007874015748
 78
     3
 79
     3
140
0.1000000014901161
146
1.200000029802321
147
0.031496062992126
171
     1
176
   256
177
   256
178
   256
272
     2
274
     1
276
     2
277
     4
284
    12
285
     4
286
    12
340
D6
371
    -1
372
    -1
  0
DIMSTYLE
105
DB
330
A
100
AcDbSymbolTableRecord
100
AcDbDimStyleTableRecord
  2
Architectural (ANSI)$7
 70
     0
 40
5.333333333333333
 41
0.0984251946210861
 43
0.2362204724409449
 44
0.125
 45
0.00000001
 46
0.3937007874015748
 78
     3
 79
     3
140
0.1000000014901161
146
1.200000029802321
147
0.031496062992126
171
     1
176
   256
177
   256
178
   256
272
     2
274
     1
276
     2
277
     4
284
    12
285
     4
286
    12
340
D6
371
    -1
372
    -1
  0
DIMSTYLE
105
DC
330
A
100
AcDbSymbolTableRecord
100
AcDbDimStyleTableRecord
  2
Default - Fraction (ANSI)
 70
     0
 40
5.333333333333333
 41
0.0984251946210861
 43
0.2362204724409449
 44
0.125
 45
0.00000001
 46
0.3937007874015748
 79
     3
140
0.1000000014901161
146
1.200000029802321
147
0.031496062992126
171
     1
176
   256
177
   256
178
   256
272
     2
274
     1
276
     2
277
     5
284
    12
285
     4
286
    12
340
D6
371
    -1
372
    -1
  0
DIMSTYLE
105
DD
330
A
100
AcDbSymbolTableRecord
100
AcDbDimStyleTableRecord
  2
Default - Fraction (ANSI)$7
 70
     0
 40
5.333333333333333
 41
0.0984251946210861
 43
0.2362204724409449
 44
0.125
 45
0.00000001
 46
0.3937007874015748
 79
     3
140
0.1000000014901161
146
1.200000029802321
147
0.031496062992126
171
     1
176
   256
177
   256
178
   256
272
     2
274
     1
276
     2
277
     5
284
    12
285
     4
286
    12
340
D6
371
    -1
372
    -1
  0
DIMSTYLE
105
DE
330
A
100
AcDbSymbolTableRecord
100
AcDbDimStyleTableRecord
  2
Default - mm (ANSI)
 70
     0
 40
5.333333333333333
 41
0.0984251946210861
 42
0.063
 43
0.2362204724409449
 44
0.125
 45
0.00000001
 46
0.3937007874015748
 73
     0
 78
     4
 79
     1
140
0.1000000014901161
143
1.0
144
25.4
146
1.200000029802321
147
0.031496062992126
171
     1
176
   256
177
   256
178
   256
179
     1
271
     2
272
     2
274
     1
284
     4
285
     4
340
D6
371
    -1
372
    -1
  0
DIMSTYLE
105
DF
330
A
100
AcDbSymbolTableRecord
100
AcDbDimStyleTableRecord
  2
Default - mm (ANSI)$7
 70
     0
 40
5.333333333333333
 41
0.0984251946210861
 42
0.063
 43
0.2362204724409449
 44
0.125
 45
0.00000001
 46
0.3937007874015748
 73
     0
 78
     4
 79
     1
140
0.1000000014901161
143
1.0
144
25.4
146
1.200000029802321
147
0.031496062992126
171
     1
176
   256
177
   256
178
   256
179
     1
271
     2
272
     2
274
     1
284
     4
285
     4
340
D6
371
    -1
372
    -1
  0
DIMSTYLE
105
E0
330
A
100
AcDbSymbolTableRecord
100
AcDbDimStyleTableRecord
  2
Default - mm [in] (ANSI)
 70
     0
  4
 in
 40
5.333333333333333
 41
0.0984251946210861
 42
0.063
 43
0.25
 44
0.125
 45
0.00000001
 46
0.3937007874015748
 73
     0
 78
     4
 79
     1
140
0.1000000014901161
143
0.03937
144
25.4
146
1.200000029802321
147
0.031496062992126
170
     1
171
     3
176
   256
177
   256
178
   256
179
     1
271
     2
272
     2
274
     3
284
     4
285
     4
286
     4
340
D6
371
    -1
372
    -1
  0
DIMSTYLE
105
E1
330
A
100
AcDbSymbolTableRecord
100
AcDbDimStyleTableRecord
  2
Default - mm [in] (ANSI)$7
 70
     0
  4
 in
 40
5.333333333333333
 41
0.0984251946210861
 42
0.063
 43
0.25
 44
0.125
 45
0.00000001
 46
0.3937007874015748
 73
     0
 78
     4
 79
     1
140
0.1000000014901161
143
0.03937
144
25.4
146
1.200000029802321
147
0.031496062992126
170
     1
171
     3
176
   256
177
   256
178
   256
179
     1
271
     2
272
     2
274
     3
284
     4
285
     4
286
     4
340
D6
371
    -1
372
    -1
  0
DIMSTYLE
105
E2
102
{ACAD_REACTORS
330
1EF
330
2DC
330
3C6
330
4C4
330
5AE
330
6AC
330
7C2
330
86C
330
915
330
A2B
330
B3B
330
C39
330
D51
330
E39
330
F3A
102
}
330
A
100
AcDbSymbolTableRecord
100
AcDbDimStyleTableRecord
  2
Default (ANSI)
 70
     0
 40
5.333333333333333
 41
0.0984251946210861
 43
0.2362204724409449
 44
0.125
 45
0.00000001
 46
0.3937007874015748
140
0.1000000014901161
147
0.031496062992126
176
   256
177
   256
178
   256
271
     2
272
     2
340
D7
371
    -1
372
    -1
  0
DIMSTYLE
105
E3
330
A
100
AcDbSymbolTableRecord
100
AcDbDimStyleTableRecord
  2
Default (ANSI)$7
 70
     0
 40
5.333333333333333
 41
0.0984251946210861
 43
0.2362204724409449
 44
0.125
 45
0.00000001
 46
0.3937007874015748
140
0.1000000014901161
147
0.031496062992126
176
   256
177
   256
178
   256
271
     2
272
     2
340
D7
371
    -1
372
    -1
  0
DIMSTYLE
105
E4
330
A
100
AcDbSymbolTableRecord
100
AcDbDimStyleTableRecord
  2
Alternate (ANSI)
 70
     0
 40
5.333333333333333
 41
0.0979999974370003
340
55
342
E5
  0
DIMSTYLE
105
F7
330
A
100
AcDbSymbolTableRecord
100
AcDbDimStyleTableRecord
  2
Datum (ANSI)
 70
     0
 40
5.333333333333333
 41
0.0979999974370003
340
55
342
E5
  0
DIMSTYLE
105
106
330
A
100
AcDbSymbolTableRecord
100
AcDbDimStyleTableRecord
  2
Large (ANSI)
 70
     0
 40
5.333333333333333
 41
0.1959999948740005
340
55
342
E5
  0
ENDTAB
  0
TABLE
  2
BLOCK_RECORD
  5
1
330
0
100
AcDbSymbolTable
 70
    19
  0
BLOCK_RECORD
  5
6C
330
1
100
AcDbSymbolTableRecord
100
AcDbBlockTableRecord
  2
*Model_Space
340
6F
  0
BLOCK_RECORD
  5
68
330
1
100
AcDbSymbolTableRecord
100
AcDbBlockTableRecord
  2
*Paper_Space
340
6B
  0
BLOCK_RECORD
  5
70
330
1
100
AcDbSymbolTableRecord
100
AcDbBlockTableRecord
  2
*Paper_Space0
340
73
  0
BLOCK_RECORD
  5
E5
330
1
100
AcDbSymbolTableRecord
100
AcDbBlockTableRecord
  2
_Closed
340
0
  0
BLOCK_RECORD
  5
EC
330
1
100
AcDbSymbolTableRecord
100
AcDbBlockTableRecord
  2
DatumFilled45
340
0
  0
BLOCK_RECORD
  5
F8
330
1
100
AcDbSymbolTableRecord
100
AcDbBlockTableRecord
  2
Filled-1
340
0
  0
BLOCK_RECORD
  5
1F2
330
1
100
AcDbSymbolTableRecord
100
AcDbBlockTableRecord
  2
*D4
340
0
  0
BLOCK_RECORD
  5
2DD
330
1
100
AcDbSymbolTableRecord
100
AcDbBlockTableRecord
  2
*D5
340
0
  0
BLOCK_RECORD
  5
3C7
330
1
100
AcDbSymbolTableRecord
100
AcDbBlockTableRecord
  2
*D6
340
0
  0
BLOCK_RECORD
  5
4C5
330
1
100
AcDbSymbolTableRecord
100
AcDbBlockTableRecord
  2
*D7
340
0
  0
BLOCK_RECORD
  5
5AF
330
1
100
AcDbSymbolTableRecord
100
AcDbBlockTableRecord
  2
*D8
340
0
  0
BLOCK_RECORD
  5
6AD
330
1
100
AcDbSymbolTableRecord
100
AcDbBlockTableRecord
  2
*D9
340
0
  0
BLOCK_RECORD
  5
7C3
330
1
100
AcDbSymbolTableRecord
100
AcDbBlockTableRecord
  2
*D10
340
0
  0
BLOCK_RECORD
  5
86D
330
1
100
AcDbSymbolTableRecord
100
AcDbBlockTableRecord
  2
*D11
340
0
  0
BLOCK_RECORD
  5
916
330
1
100
AcDbSymbolTableRecord
100
AcDbBlockTableRecord
  2
*D12
340
0
  0
BLOCK_RECORD
  5
A2C
330
1
100
AcDbSymbolTableRecord
100
AcDbBlockTableRecord
  2
*D13
340
0
  0
BLOCK_RECORD
  5
B3C
330
1
100
AcDbSymbolTableRecord
100
AcDbBlockTableRecord
  2
*D14
340
0
  0
BLOCK_RECORD
  5
C3A
330
1
100
AcDbSymbolTableRecord
100
AcDbBlockTableRecord
  2
*D15
340
0
  0
BLOCK_RECORD
  5
D52
330
1
100
AcDbSymbolTableRecord
100
AcDbBlockTableRecord
  2
*D16
340
0
  0
BLOCK_RECORD
  5
E3A
330
1
100
AcDbSymbolTableRecord
100
AcDbBlockTableRecord
  2
*D17
340
0
  0
BLOCK_RECORD
  5
F3B
330
1
100
AcDbSymbolTableRecord
100
AcDbBlockTableRecord
  2
*D18
340
0
  0
ENDTAB
  0
ENDSEC
  0
SECTION
  2
BLOCKS
  0
BLOCK
  5
6D
330
6C
100
AcDbEntity
  8
0
100
AcDbBlockBegin
  2
*Model_Space
 70
     0
 10
0.0
 20
0.0
 30
0.0
  3
*Model_Space
  1

  0
ENDBLK
  5
6E
330
6C
100
AcDbEntity
  8
0
100
AcDbBlockEnd
  0
BLOCK
  5
69
330
68
100
AcDbEntity
 67
     1
  8
0
100
AcDbBlockBegin
  2
*Paper_Space
 70
     0
 10
0.0
 20
0.0
 30
0.0
  3
*Paper_Space
  1

  0
ENDBLK
  5
6A
330
68
100
AcDbEntity
 67
     1
  8
0
100
AcDbBlockEnd
  0
BLOCK
  5
71
330
70
100
AcDbEntity
 67
     1
  8
0
100
AcDbBlockBegin
  2
*Paper_Space0
 70
     0
 10
0.0
 20
0.0
 30
0.0
  3
*Paper_Space0
  1

  0
ENDBLK
  5
72
330
70
100
AcDbEntity
 67
     1
  8
0
100
AcDbBlockEnd
  0
BLOCK
  5
EA
330
E5
100
AcDbEntity
  8
0
100
AcDbBlockBegin
  2
_Closed
 70
     0
 10
0.0
 20
0.0
 30
0.0
  3
_Closed
  1

  0
LINE
  5
E6
330
E5
100
AcDbEntity
  8
0
  6
ByBlock
 62
     0
370
    -2
100
AcDbLine
 10
-1.0
 20
0.1666666666666666
 30
0.0
 11
0.0
 21
0.0
 31
0.0
  0
LINE
  5
E7
330
E5
100
AcDbEntity
  8
0
  6
ByBlock
 62
     0
370
    -2
100
AcDbLine
 10
0.0
 20
0.0
 30
0.0
 11
-1.0
 21
-0.1666666666666666
 31
0.0
  0
LINE
  5
E8
330
E5
100
AcDbEntity
  8
0
  6
ByBlock
 62
     0
370
    -2
100
AcDbLine
 10
-1.0
 20
0.1666666666666666
 30
0.0
 11
-1.0
 21
-0.1666666666666666
 31
0.0
  0
LINE
  5
E9
330
E5
100
AcDbEntity
  8
0
  6
ByBlock
 62
     0
370
    -2
100
AcDbLine
 10
0.0
 20
0.0
 30
0.0
 11
-1.0
 21
0.0
 31
0.0
  0
ENDBLK
  5
EB
330
E5
100
AcDbEntity
  8
0
100
AcDbBlockEnd
  0
BLOCK
  5
ED
330
EC
100
AcDbEntity
  8
0
100
AcDbBlockBegin
  2
DatumFilled45
 70
     0
 10
0.0
 20
0.0
 30
0.0
  3
DatumFilled45
  1

  0
POLYLINE
  5
EF
330
EC
100
AcDbEntity
  8
0
 62
     0
100
AcDb2dPolyline
 66
     1
 10
0.0
 20
0.0
 30
0.0
 70
   128
  0
VERTEX
  5
F0
330
EF
100
AcDbEntity
  8
0
 62
     0
100
AcDbVertex
100
AcDb2dVertex
 10
0.0
 20
0.9999999999999998
 30
0.0
  0
VERTEX
  5
F1
330
EF
100
AcDbEntity
  8
0
 62
     0
100
AcDbVertex
100
AcDb2dVertex
 10
0.0
 20
-0.9999999999999998
 30
0.0
  0
VERTEX
  5
F3
330
EF
100
AcDbEntity
  8
0
 62
     0
100
AcDbVertex
100
AcDb2dVertex
 10
-0.9999999999999998
 20
0.0
 30
0.0
  0
VERTEX
  5
F4
330
EF
100
AcDbEntity
  8
0
 62
     0
100
AcDbVertex
100
AcDb2dVertex
 10
0.0
 20
0.9999999999999998
 30
0.0
  0
SEQEND
  5
F2
330
EF
100
AcDbEntity
  8
0
 62
     0
  0
SOLID
  5
F6
330
EC
100
AcDbEntity
  8
0
 62
     0
100
AcDbTrace
 10
0.0
 20
0.9999999999999998
 30
0.0
 11
0.0
 21
-0.9999999999999998
 31
0.0
 12
-0.9999999999999998
 22
0.0
 32
0.0
 13
0.0
 23
0.9999999999999998
 33
0.0
  0
ENDBLK
  5
EE
330
EC
100
AcDbEntity
  8
0
100
AcDbBlockEnd
  0
BLOCK
  5
F9
330
F8
100
AcDbEntity
  8
0
100
AcDbBlockBegin
  2
Filled-1
 70
     0
 10
0.0
 20
0.0
 30
0.0
  3
Filled-1
  1

  0
LINE
  5
FB
330
F8
100
AcDbEntity
  8
0
 62
     0
100
AcDbLine
 10
-0.9999999999999998
 20
0.0
 30
0.0
 11
0.0
 21
0.0
 31
0.0
  0
POLYLINE
  5
FC
330
F8
100
AcDbEntity
  8
0
 62
     0
100
AcDb2dPolyline
 66
     1
 10
0.0
 20
0.0
 30
0.0
 70
   128
  0
VERTEX
  5
FD
330
FC
100
AcDbEntity
  8
0
 62
     0
100
AcDbVertex
100
AcDb2dVertex
 10
-0.9999999999999998
 20
-0.0994897959183674
 30
0.0
  0
VERTEX
  5
FE
330
FC
100
AcDbEntity
  8
0
 62
     0
100
AcDbVertex
100
AcDb2dVertex
 10
0.0
 20
0.0
 30
0.0
  0
VERTEX
  5
100
330
FC
100
AcDbEntity
  8
0
 62
     0
100
AcDbVertex
100
AcDb2dVertex
 10
-0.9999999999999998
 20
0.0994897959183674
 30
0.0
  0
VERTEX
  5
101
330
FC
100
AcDbEntity
  8
0
 62
     0
100
AcDbVertex
100
AcDb2dVertex
 10
-0.9999999999999998
 20
-0.0994897959183674
 30
0.0
  0
SEQEND
  5
FF
330
FC
100
AcDbEntity
  8
0
 62
     0
  0
SOLID
  5
102
330
F8
100
AcDbEntity
  8
0
 62
     0
100
AcDbTrace
 10
-0.9999999999999998
 20
-0.0994897959183674
 30
0.0
 11
0.0
 21
0.0
 31
0.0
 12
-0.9999999999999998
 22
0.0994897959183674
 32
0.0
 13
-0.9999999999999998
 23
-0.0994897959183674
 33
0.0
  0
LINE
  5
103
330
F8
100
AcDbEntity
  8
0
 62
     0
100
AcDbLine
 10
-0.9999999999999998
 20
-0.0994897959183674
 30
0.0
 11
0.0
 21
0.0
 31
0.0
  0
LINE
  5
104
330
F8
100
AcDbEntity
  8
0
 62
     0
100
AcDbLine
 10
0.0
 20
0.0
 30
0.0
 11
-0.9999999999999998
 21
0.0994897959183674
 31
0.0
  0
LINE
  5
105
330
F8
100
AcDbEntity
  8
0
 62
     0
100
AcDbLine
 10
-0.9999999999999998
 20
0.0994897959183674
 30
0.0
 11
-0.9999999999999998
 21
-0.0994897959183674
 31
0.0
  0
ENDBLK
  5
FA
330
F8
100
AcDbEntity
  8
0
100
AcDbBlockEnd
  0
BLOCK
  5
1F3
330
1F2
100
AcDbEntity
  8
0
100
AcDbBlockBegin
  2
*D4
 70
     1
 10
0.0
 20
0.0
 30
0.0
  3
*D4
  1

  0
LINE
  5
2D2
330
1F2
100
AcDbEntity
  8
Dimension (ANSI)
100
AcDbLine
 10
11.86426321706059
 20
46.95223548159835
 30
0.0
 11
11.86426321706059
 21
54.42467642648022
 31
0.0
  0
LINE
  5
2D3
330
1F2
100
AcDbEntity
  8
Dimension (ANSI)
100
AcDbLine
 10
46.06426321706059
 20
46.95223548159836
 30
0.0
 11
46.06426321706059
 21
54.42467642648022
 31
0.0
  0
LINE
  5
2D4
330
1F2
100
AcDbEntity
  8
Dimension (ANSI)
100
AcDbLine
 10
12.38919758837305
 20
53.75800975981356
 30
0.0
 11
27.72961753187468
 21
53.75800975981356
 31
0.0
  0
LINE
  5
2D5
330
1F2
100
AcDbEntity
  8
Dimension (ANSI)
100
AcDbLine
 10
45.53932884574812
 20
53.75800975981356
 30
0.0
 11
30.1989089022465
 21
53.75800975981356
 31
0.0
  0
SOLID
  5
2D6
330
1F2
100
AcDbEntity
  8
Dimension (ANSI)
100
AcDbTrace
 10
12.38919758837305
 20
53.84549882169896
 30
0.0
 11
12.38919758837305
 21
53.67052069792816
 31
0.0
 12
11.86426321706059
 22
53.75800975981356
 32
0.0
 13
11.86426321706059
 23
53.75800975981356
 33
0.0
  0
SOLID
  5
2D7
330
1F2
100
AcDbEntity
  8
Dimension (ANSI)
100
AcDbTrace
 10
45.53932884574812
 20
53.84549882169896
 30
0.0
 11
45.53932884574812
 21
53.67052069792816
 31
0.0
 12
46.06426321706059
 22
53.75800975981356
 32
0.0
 13
46.06426321706059
 23
53.75800975981356
 33
0.0
  0
MTEXT
  5
2D8
330
1F2
100
AcDbEntity
  8
Dimension (ANSI)
100
AcDbMText
 10
27.89759653449935
 20
54.02467643045387
 30
0.0
 40
0.5333333412806193
 41
0.0
 71
     1
 72
     1
  1
\A1;34.20
  7
ROMANS
 73
     1
 44
1.0
1001
ACAD
1000
MTEXTBEGIN
1070
    73
1070
     1
1070
    44
1040
1.0
1070
    74
1070
     0
1000
MTEXTEND
  0
POINT
  5
2D9
330
1F2
100
AcDbEntity
  8
Defpoints
 62
     0
100
AcDbPoint
 10
11.86426321706059
 20
46.61890214826502
 30
0.0
  0
POINT
  5
2DA
330
1F2
100
AcDbEntity
  8
Defpoints
 62
     0
100
AcDbPoint
 10
46.06426321706059
 20
46.61890214826502
 30
0.0
  0
POINT
  5
2DB
330
1F2
100
AcDbEntity
  8
Defpoints
 62
     0
100
AcDbPoint
 10
46.06426321706059
 20
53.75800975981356
 30
0.0
  0
ENDBLK
  5
1F4
330
1F2
100
AcDbEntity
  8
0
100
AcDbBlockEnd
  0
BLOCK
  5
2DE
330
2DD
100
AcDbEntity
  8
0
100
AcDbBlockBegin
  2
*D5
 70
     1
 10
0.0
 20
0.0
 30
0.0
  3
*D5
  1

  0
LINE
  5
3BC
330
2DD
100
AcDbEntity
  8
Dimension (ANSI)
100
AcDbLine
 10
12.36426321706058
 20
47.45223548159835
 30
0.0
 11
12.36426321706058
 21
52.40499138711015
 31
0.0
  0
LINE
  5
3BD
330
2DD
100
AcDbEntity
  8
Dimension (ANSI)
100
AcDbLine
 10
45.56426321706058
 20
47.45223548159835
 30
0.0
 11
45.56426321706058
 21
52.40499138711015
 31
0.0
  0
LINE
  5
3BE
330
2DD
100
AcDbEntity
  8
Dimension (ANSI)
100
AcDbLine
 10
12.88919758837304
 20
51.73832472044349
 30
0.0
 11
26.65025243642581
 21
51.73832472044349
 31
0.0
  0
LINE
  5
3BF
330
2DD
100
AcDbEntity
  8
Dimension (ANSI)
100
AcDbLine
 10
45.03932884574812
 20
51.73832472044349
 30
0.0
 11
31.27827399769537
 21
51.73832472044349
 31
0.0
  0
SOLID
  5
3C0
330
2DD
100
AcDbEntity
  8
Dimension (ANSI)
100
AcDbTrace
 10
12.88919758837304
 20
51.82581378232889
 30
0.0
 11
12.88919758837304
 21
51.65083565855808
 31
0.0
 12
12.36426321706058
 22
51.73832472044349
 32
0.0
 13
12.36426321706058
 23
51.73832472044349
 33
0.0
  0
SOLID
  5
3C1
330
2DD
100
AcDbEntity
  8
Dimension (ANSI)
100
AcDbTrace
 10
45.03932884574812
 20
51.82581378232889
 30
0.0
 11
45.03932884574812
 21
51.65083565855808
 31
0.0
 12
45.56426321706058
 22
51.73832472044349
 32
0.0
 13
45.56426321706058
 23
51.73832472044349
 33
0.0
  0
MTEXT
  5
3C2
330
2DD
100
AcDbEntity
  8
Dimension (ANSI)
100
AcDbMText
 10
28.96426321706059
 20
51.73832472044349
 30
0.0
 40
0.5333333412806193
 41
0.0
 71
     5
 72
     1
  1
\A1;33.20{ TYP.}
  7
ROMANS
 73
     1
 44
1.0
1001
ACAD
1000
MTEXTBEGIN
1070
    73
1070
     1
1070
    44
1040
1.0
1070
    74
1070
     0
1000
MTEXTEND
  0
POINT
  5
3C3
330
2DD
100
AcDbEntity
  8
Defpoints
 62
     0
100
AcDbPoint
 10
12.36426321706058
 20
47.11890214826501
 30
0.0
  0
POINT
  5
3C4
330
2DD
100
AcDbEntity
  8
Defpoints
 62
     0
100
AcDbPoint
 10
45.56426321706058
 20
47.11890214826501
 30
0.0
  0
POINT
  5
3C5
330
2DD
100
AcDbEntity
  8
Defpoints
 62
     0
100
AcDbPoint
 10
45.56426321706058
 20
51.73832472044349
 30
0.0
  0
ENDBLK
  5
2DF
330
2DD
100
AcDbEntity
  8
0
100
AcDbBlockEnd
  0
BLOCK
  5
3C8
330
3C7
100
AcDbEntity
  8
0
100
AcDbBlockBegin
  2
*D6
 70
     1
 10
0.0
 20
0.0
 30
0.0
  3
*D6
  1

  0
LINE
  5
4BA
330
3C7
100
AcDbEntity
  8
Dimension (ANSI)
100
AcDbLine
 10
11.86426321706059
 20
46.95223548159835
 30
0.0
 11
11.86426321706059
 21
52.40499138711015
 31
0.0
  0
LINE
  5
4BB
330
3C7
100
AcDbEntity
  8
Dimension (ANSI)
100
AcDbLine
 10
12.36426321706058
 20
47.45223548159835
 30
0.0
 11
12.36426321706058
 21
52.40499138711015
 31
0.0
  0
LINE
  5
4BC
330
3C7
100
AcDbEntity
  8
Dimension (ANSI)
100
AcDbLine
 10
12.88919758837304
 20
51.73832472044349
 30
0.0
 11
13.4141319596855
 21
51.73832472044349
 31
0.0
  0
LINE
  5
4BD
330
3C7
100
AcDbEntity
  8
Dimension (ANSI)
100
AcDbLine
 10
11.33932884574813
 20
51.73832472044349
 30
0.0
 11
10.81439447443567
 21
51.73832472044349
 31
0.0
  0
SOLID
  5
4BE
330
3C7
100
AcDbEntity
  8
Dimension (ANSI)
100
AcDbTrace
 10
12.88919758837304
 20
51.82581378232889
 30
0.0
 11
12.88919758837304
 21
51.65083565855808
 31
0.0
 12
12.36426321706058
 22
51.73832472044349
 32
0.0
 13
12.36426321706058
 23
51.73832472044349
 33
0.0
  0
SOLID
  5
4BF
330
3C7
100
AcDbEntity
  8
Dimension (ANSI)
100
AcDbTrace
 10
11.33932884574813
 20
51.82581378232889
 30
0.0
 11
11.33932884574813
 21
51.65083565855808
 31
0.0
 12
11.86426321706059
 22
51.73832472044349
 32
0.0
 13
11.86426321706059
 23
51.73832472044349
 33
0.0
  0
MTEXT
  5
4C0
330
3C7
100
AcDbEntity
  8
Dimension (ANSI)
100
AcDbMText
 10
9.833717047002433
 20
51.73832472044349
 30
0.0
 40
0.5333333412806193
 41
0.0
 71
     5
 72
     1
  1
\A1;0.50{\PTYP.}
  7
ROMANS
 73
     1
 44
1.0
1001
ACAD
1000
MTEXTBEGIN
1070
    73
1070
     1
1070
    44
1040
1.0
1070
    74
1070
     0
1000
MTEXTEND
  0
POINT
  5
4C1
330
3C7
100
AcDbEntity
  8
Defpoints
 62
     0
100
AcDbPoint
 10
11.86426321706059
 20
46.61890214826502
 30
0.0
  0
POINT
  5
4C2
330
3C7
100
AcDbEntity
  8
Defpoints
 62
     0
100
AcDbPoint
 10
12.36426321706058
 20
47.11890214826501
 30
0.0
  0
POINT
  5
4C3
330
3C7
100
AcDbEntity
  8
Defpoints
 62
     0
100
AcDbPoint
 10
12.36426321706058
 20
51.73832472044349
 30
0.0
  0
ENDBLK
  5
3C9
330
3C7
100
AcDbEntity
  8
0
100
AcDbBlockEnd
  0
BLOCK
  5
4C6
330
4C5
100
AcDbEntity
  8
0
100
AcDbBlockBegin
  2
*D7
 70
     1
 10
0.0
 20
0.0
 30
0.0
  3
*D7
  1

  0
LINE
  5
5A4
330
4C5
100
AcDbEntity
  8
Dimension (ANSI)
100
AcDbLine
 10
12.03092988372725
 20
47.11890214826501
 30
0.0
 11
5.400751948022594
 21
47.11890214826501
 31
0.0
  0
LINE
  5
5A5
330
4C5
100
AcDbEntity
  8
Dimension (ANSI)
100
AcDbLine
 10
12.03092988372726
 20
12.91890214826502
 30
0.0
 11
5.400751948022586
 21
12.91890214826502
 31
0.0
  0
LINE
  5
5A6
330
4C5
100
AcDbEntity
  8
Dimension (ANSI)
100
AcDbLine
 10
6.067418614689261
 20
46.59396777695255
 30
0.0
 11
6.067418614689257
 21
30.00115008451417
 31
0.0
  0
LINE
  5
5A7
330
4C5
100
AcDbEntity
  8
Dimension (ANSI)
100
AcDbLine
 10
6.067418614689253
 20
13.44383651957748
 30
0.0
 11
6.067418614689256
 21
29.1318587379842
 31
0.0
  0
SOLID
  5
5A8
330
4C5
100
AcDbEntity
  8
Dimension (ANSI)
100
AcDbTrace
 10
5.97992955280385
 20
46.59396777695255
 30
0.0
 11
6.154907676574671
 21
46.59396777695255
 31
0.0
 12
6.067418614689261
 22
47.11890214826501
 32
0.0
 13
6.067418614689261
 23
47.11890214826501
 33
0.0
  0
SOLID
  5
5A9
330
4C5
100
AcDbEntity
  8
Dimension (ANSI)
100
AcDbTrace
 10
5.979929552803842
 20
13.44383651957748
 30
0.0
 11
6.154907676574663
 21
13.44383651957748
 31
0.0
 12
6.067418614689253
 22
12.91890214826502
 32
0.0
 13
6.067418614689253
 23
12.91890214826502
 33
0.0
  0
MTEXT
  5
5AA
330
4C5
100
AcDbEntity
  8
Dimension (ANSI)
100
AcDbMText
 10
5.000751932128014
 20
29.8331710818895
 30
0.0
 40
0.5333333412806193
 41
0.0
 71
     1
 72
     1
  1
\A1;34.20
  7
ROMANS
 73
     1
 44
1.0
1001
ACAD
1000
MTEXTBEGIN
1070
    73
1070
     1
1070
    44
1040
1.0
1070
    74
1070
     0
1000
MTEXTEND
  0
POINT
  5
5AB
330
4C5
100
AcDbEntity
  8
Defpoints
 62
     0
100
AcDbPoint
 10
12.36426321706058
 20
47.11890214826501
 30
0.0
  0
POINT
  5
5AC
330
4C5
100
AcDbEntity
  8
Defpoints
 62
     0
100
AcDbPoint
 10
12.36426321706059
 20
12.91890214826502
 30
0.0
  0
POINT
  5
5AD
330
4C5
100
AcDbEntity
  8
Defpoints
 62
     0
100
AcDbPoint
 10
6.067418614689253
 20
12.91890214826502
 30
0.0
  0
ENDBLK
  5
4C7
330
4C5
100
AcDbEntity
  8
0
100
AcDbBlockEnd
  0
BLOCK
  5
5B0
330
5AF
100
AcDbEntity
  8
0
100
AcDbBlockBegin
  2
*D8
 70
     1
 10
0.0
 20
0.0
 30
0.0
  3
*D8
  1

  0
LINE
  5
6A2
330
5AF
100
AcDbEntity
  8
Dimension (ANSI)
100
AcDbLine
 10
11.53092988372726
 20
13.41890214826502
 30
0.0
 11
9.22909261338605
 21
13.41890214826502
 31
0.0
  0
LINE
  5
6A3
330
5AF
100
AcDbEntity
  8
Dimension (ANSI)
100
AcDbLine
 10
11.53092988372725
 20
46.61890214826502
 30
0.0
 11
9.229092613386058
 21
46.61890214826502
 31
0.0
  0
LINE
  5
6A4
330
5AF
100
AcDbEntity
  8
Dimension (ANSI)
100
AcDbLine
 10
9.895759280052716
 20
13.94383651957748
 30
0.0
 11
9.89575928005272
 21
29.13981202393284
 31
0.0
  0
LINE
  5
6A5
330
5AF
100
AcDbEntity
  8
Dimension (ANSI)
100
AcDbLine
 10
9.895759280052724
 20
46.09396777695255
 30
0.0
 11
9.89575928005272
 21
30.89799227259718
 31
0.0
  0
SOLID
  5
6A6
330
5AF
100
AcDbEntity
  8
Dimension (ANSI)
100
AcDbTrace
 10
9.808270218167306
 20
13.94383651957748
 30
0.0
 11
9.983248341938127
 21
13.94383651957748
 31
0.0
 12
9.895759280052716
 22
13.41890214826502
 32
0.0
 13
9.895759280052716
 23
13.41890214826502
 33
0.0
  0
SOLID
  5
6A7
330
5AF
100
AcDbEntity
  8
Dimension (ANSI)
100
AcDbTrace
 10
9.808270218167313
 20
46.09396777695255
 30
0.0
 11
9.983248341938134
 21
46.09396777695255
 31
0.0
 12
9.895759280052724
 22
46.61890214826502
 32
0.0
 13
9.895759280052724
 23
46.61890214826502
 33
0.0
  0
MTEXT
  5
6A8
330
5AF
100
AcDbEntity
  8
Dimension (ANSI)
100
AcDbMText
 10
9.895759280052715
 20
30.01890214826501
 30
0.0
 40
0.5333333412806193
 41
0.0
 71
     5
 72
     1
  1
\A1;33.20{\PTYP.}
  7
ROMANS
 73
     1
 44
1.0
1001
ACAD
1000
MTEXTBEGIN
1070
    73
1070
     1
1070
    44
1040
1.0
1070
    74
1070
     0
1000
MTEXTEND
  0
POINT
  5
6A9
330
5AF
100
AcDbEntity
  8
Defpoints
 62
     0
100
AcDbPoint
 10
11.86426321706059
 20
13.41890214826502
 30
0.0
  0
POINT
  5
6AA
330
5AF
100
AcDbEntity
  8
Defpoints
 62
     0
100
AcDbPoint
 10
11.86426321706059
 20
46.61890214826502
 30
0.0
  0
POINT
  5
6AB
330
5AF
100
AcDbEntity
  8
Defpoints
 62
     0
100
AcDbPoint
 10
9.895759280052724
 20
46.61890214826502
 30
0.0
  0
ENDBLK
  5
5B1
330
5AF
100
AcDbEntity
  8
0
100
AcDbBlockEnd
  0
BLOCK
  5
6AE
330
6AD
100
AcDbEntity
  8
0
100
AcDbBlockBegin
  2
*D9
 70
     1
 10
0.0
 20
0.0
 30
0.0
  3
*D9
  1

  0
LINE
  5
7B7
330
6AD
100
AcDbEntity
  8
Dimension (ANSI)
100
AcDbLine
 10
12.03092988372725
 20
47.11890214826501
 30
0.0
 11
7.723480814640359
 21
47.11890214826501
 31
0.0
  0
LINE
  5
7B8
330
6AD
100
AcDbEntity
  8
Dimension (ANSI)
100
AcDbLine
 10
11.53092988372725
 20
46.61890214826502
 30
0.0
 11
7.723480814640359
 21
46.61890214826502
 31
0.0
  0
LINE
  5
7B9
330
6AD
100
AcDbEntity
  8
Dimension (ANSI)
100
AcDbLine
 10
8.390147481307026
 20
46.09396777695255
 30
0.0
 11
8.390147481307026
 21
45.5690334056401
 31
0.0
  0
LINE
  5
7BA
330
6AD
100
AcDbEntity
  8
Dimension (ANSI)
100
AcDbLine
 10
8.390147481307026
 20
47.64383651957747
 30
0.0
 11
8.390147481307026
 21
49.17173525719798
 31
0.0
  0
LINE
  5
7BB
330
6AD
100
AcDbEntity
  8
Dimension (ANSI)
100
AcDbLine
 10
8.390147481307026
 20
49.17173525719798
 30
0.0
 11
8.915081852619486
 21
49.17173525719798
 31
0.0
  0
SOLID
  5
7BC
330
6AD
100
AcDbEntity
  8
Dimension (ANSI)
100
AcDbTrace
 10
8.302658419421616
 20
46.09396777695255
 30
0.0
 11
8.477636543192437
 21
46.09396777695255
 31
0.0
 12
8.390147481307026
 22
46.61890214826502
 32
0.0
 13
8.390147481307026
 23
46.61890214826502
 33
0.0
  0
SOLID
  5
7BD
330
6AD
100
AcDbEntity
  8
Dimension (ANSI)
100
AcDbTrace
 10
8.302658419421616
 20
47.64383651957747
 30
0.0
 11
8.477636543192437
 21
47.64383651957747
 31
0.0
 12
8.390147481307026
 22
47.11890214826501
 32
0.0
 13
8.390147481307026
 23
47.11890214826501
 33
0.0
  0
MTEXT
  5
7BE
330
6AD
100
AcDbEntity
  8
Dimension (ANSI)
100
AcDbMText
 10
9.895759280052713
 20
49.17173525719798
 30
0.0
 40
0.5333333412806193
 41
0.0
 71
     5
 72
     1
  1
\A1;0.50{\PTYP.}
  7
ROMANS
 73
     1
 44
1.0
1001
ACAD
1000
MTEXTBEGIN
1070
    73
1070
     1
1070
    44
1040
1.0
1070
    74
1070
     0
1000
MTEXTEND
  0
POINT
  5
7BF
330
6AD
100
AcDbEntity
  8
Defpoints
 62
     0
100
AcDbPoint
 10
12.36426321706058
 20
47.11890214826501
 30
0.0
  0
POINT
  5
7C0
330
6AD
100
AcDbEntity
  8
Defpoints
 62
     0
100
AcDbPoint
 10
11.86426321706059
 20
46.61890214826502
 30
0.0
  0
POINT
  5
7C1
330
6AD
100
AcDbEntity
  8
Defpoints
 62
     0
100
AcDbPoint
 10
8.390147481307026
 20
46.61890214826502
 30
0.0
  0
ENDBLK
  5
6AF
330
6AD
100
AcDbEntity
  8
0
100
AcDbBlockEnd
  0
BLOCK
  5
7C4
330
7C3
100
AcDbEntity
  8
0
100
AcDbBlockBegin
  2
*D10
 70
     1
 10
0.0
 20
0.0
 30
0.0
  3
*D10
  1

  0
LINE
  5
864
330
7C3
100
AcDbEntity
  8
Dimension (ANSI)
100
AcDbLine
 10
15.85674039360686
 20
10.82502234002319
 30
0.0
 11
14.99814302530319
 21
10.82502234002318
 31
0.0
  0
LINE
  5
865
330
7C3
100
AcDbEntity
  8
Dimension (ANSI)
100
AcDbLine
 10
14.99814302530319
 20
10.82502234002318
 30
0.0
 11
12.93222456599025
 21
12.89094079933553
 31
0.0
  0
MTEXT
  5
866
102
{ACAD_XDICTIONARY
360
1071
102
}
330
7C3
100
AcDbEntity
  8
Dimension (ANSI)
100
AcDbMText
 10
16.02471939623153
 20
11.23137155242746
 30
0.0
 40
0.5333333412806193
 41
0.0
 71
     1
 72
     1
  1
\A1;\U+22050.50{ TYP. (8 PL.)}
  7
ROMANS
 73
     1
 44
1.0
1001
ACAD
1000
MTEXTBEGIN
1070
    73
1070
     1
1070
    44
1040
1.0
1070
    74
1070
     0
1000
MTEXTEND
  0
SOLID
  5
867
330
7C3
100
AcDbEntity
  8
Dimension (ANSI)
100
AcDbTrace
 10
12.99408867492906
 20
12.95280490827436
 30
0.0
 11
12.87036045705144
 21
12.82907669039669
 31
0.0
 12
12.56103991235726
 22
13.26212545296841
 32
0.0
 13
12.56103991235726
 23
13.26212545296841
 33
0.0
  0
LINE
  5
868
330
7C3
100
AcDbEntity
  8
Dimension (ANSI)
100
AcDbLine
 10
11.9042632170606
 20
13.43890214826502
 30
0.0
 11
12.8642632170606
 21
13.43890214826502
 31
0.0
  0
LINE
  5
869
330
7C3
100
AcDbEntity
  8
Dimension (ANSI)
100
AcDbLine
 10
12.3842632170606
 20
12.95890214826502
 30
0.0
 11
12.3842632170606
 21
13.91890214826502
 31
0.0
  0
POINT
  5
86A
330
7C3
100
AcDbEntity
  8
Defpoints
 62
     0
100
AcDbPoint
 10
12.56103991235726
 20
13.26212545296841
 30
0.0
  0
POINT
  5
86B
330
7C3
100
AcDbEntity
  8
Defpoints
 62
     0
100
AcDbPoint
 10
12.20748652176394
 20
13.61567884356163
 30
0.0
  0
ENDBLK
  5
7C5
330
7C3
100
AcDbEntity
  8
0
100
AcDbBlockEnd
  0
BLOCK
  5
86E
330
86D
100
AcDbEntity
  8
0
100
AcDbBlockBegin
  2
*D11
 70
     1
 10
0.0
 20
0.0
 30
0.0
  3
*D11
  1

  0
LINE
  5
90D
330
86D
100
AcDbEntity
  8
Dimension (ANSI)
100
AcDbLine
 10
15.79368087828865
 20
11.63808185534139
 30
0.0
 11
14.935083509985
 21
11.63808185534139
 31
0.0
  0
LINE
  5
90E
330
86D
100
AcDbEntity
  8
Dimension (ANSI)
100
AcDbLine
 10
14.935083509985
 20
11.63808185534139
 30
0.0
 11
12.865933305254
 21
13.70723206007175
 31
0.0
  0
MTEXT
  5
90F
102
{ACAD_XDICTIONARY
360
1073
102
}
330
86D
100
AcDbEntity
  8
Dimension (ANSI)
100
AcDbMText
 10
15.96165988091333
 20
12.04443106774567
 30
0.0
 40
0.5333333412806193
 41
0.0
 71
     1
 72
     1
  1
\A1;\U+22050.31{ TYP. (4 PL.)}
  7
ROMANS
 73
     1
 44
1.0
1001
ACAD
1000
MTEXTBEGIN
1070
    73
1070
     1
1070
    44
1040
1.0
1070
    74
1070
     0
1000
MTEXTEND
  0
SOLID
  5
910
330
86D
100
AcDbEntity
  8
Dimension (ANSI)
100
AcDbTrace
 10
12.92779741419282
 20
13.76909616901059
 30
0.0
 11
12.80406919631519
 21
13.64536795113292
 31
0.0
 12
12.49474865162101
 22
14.07841671370464
 32
0.0
 13
12.49474865162101
 23
14.07841671370464
 33
0.0
  0
LINE
  5
911
330
86D
100
AcDbEntity
  8
Dimension (ANSI)
100
AcDbLine
 10
11.90426321706059
 20
14.18890214826502
 30
0.0
 11
12.86426321706059
 21
14.18890214826502
 31
0.0
  0
LINE
  5
912
330
86D
100
AcDbEntity
  8
Dimension (ANSI)
100
AcDbLine
 10
12.3842632170606
 20
13.70890214826502
 30
0.0
 11
12.3842632170606
 21
14.66890214826502
 31
0.0
  0
POINT
  5
913
330
86D
100
AcDbEntity
  8
Defpoints
 62
     0
100
AcDbPoint
 10
12.49474865162101
 20
14.07841671370464
 30
0.0
  0
POINT
  5
914
330
86D
100
AcDbEntity
  8
Defpoints
 62
     0
100
AcDbPoint
 10
12.27377778250018
 20
14.2993875828254
 30
0.0
  0
ENDBLK
  5
86F
330
86D
100
AcDbEntity
  8
0
100
AcDbBlockEnd
  0
BLOCK
  5
917
330
916
100
AcDbEntity
  8
0
100
AcDbBlockBegin
  2
*D12
 70
     1
 10
0.0
 20
0.0
 30
0.0
  3
*D12
  1

  0
LINE
  5
A20
330
916
100
AcDbEntity
  8
Dimension (ANSI)
100
AcDbLine
 10
45.89759655039392
 20
12.91890214826502
 30
0.0
 11
50.88614798168554
 21
12.91890214826502
 31
0.0
  0
LINE
  5
A21
330
916
100
AcDbEntity
  8
Dimension (ANSI)
100
AcDbLine
 10
45.87759655039392
 20
13.43890214826502
 30
0.0
 11
50.88614798168554
 21
13.43890214826502
 31
0.0
  0
LINE
  5
A22
330
916
100
AcDbEntity
  8
Dimension (ANSI)
100
AcDbLine
 10
50.21948131501888
 20
13.96383651957748
 30
0.0
 11
50.21948131501888
 21
14.48877089088993
 31
0.0
  0
LINE
  5
A23
330
916
100
AcDbEntity
  8
Dimension (ANSI)
100
AcDbLine
 10
50.21948131501888
 20
12.39396777695256
 30
0.0
 11
50.21948131501888
 21
11.25035949731123
 31
0.0
  0
LINE
  5
A24
330
916
100
AcDbEntity
  8
Dimension (ANSI)
100
AcDbLine
 10
50.21948131501888
 20
11.25035949731123
 30
0.0
 11
49.69454694370642
 21
11.25035949731123
 31
0.0
  0
SOLID
  5
A25
330
916
100
AcDbEntity
  8
Dimension (ANSI)
100
AcDbTrace
 10
50.13199225313347
 20
13.96383651957748
 30
0.0
 11
50.30697037690429
 21
13.96383651957748
 31
0.0
 12
50.21948131501888
 22
13.43890214826502
 32
0.0
 13
50.21948131501888
 23
13.43890214826502
 33
0.0
  0
SOLID
  5
A26
330
916
100
AcDbEntity
  8
Dimension (ANSI)
100
AcDbTrace
 10
50.13199225313347
 20
12.39396777695256
 30
0.0
 11
50.30697037690429
 21
12.39396777695256
 31
0.0
 12
50.21948131501888
 22
12.91890214826502
 32
0.0
 13
50.21948131501888
 23
12.91890214826502
 33
0.0
  0
MTEXT
  5
A27
330
916
100
AcDbEntity
  8
Dimension (ANSI)
100
AcDbMText
 10
48.71386951627318
 20
11.25035949731124
 30
0.0
 40
0.5333333412806193
 41
0.0
 71
     5
 72
     1
  1
\A1;0.52{ \PTYP.}
  7
ROMANS
 73
     1
 44
1.0
1001
ACAD
1000
MTEXTBEGIN
1070
    73
1070
     1
1070
    44
1040
1.0
1070
    74
1070
     0
1000
MTEXTEND
  0
POINT
  5
A28
330
916
100
AcDbEntity
  8
Defpoints
 62
     0
100
AcDbPoint
 10
45.56426321706058
 20
12.91890214826502
 30
0.0
  0
POINT
  5
A29
330
916
100
AcDbEntity
  8
Defpoints
 62
     0
100
AcDbPoint
 10
45.54426321706059
 20
13.43890214826502
 30
0.0
  0
POINT
  5
A2A
330
916
100
AcDbEntity
  8
Defpoints
 62
     0
100
AcDbPoint
 10
50.21948131501888
 20
13.43890214826502
 30
0.0
  0
ENDBLK
  5
918
330
916
100
AcDbEntity
  8
0
100
AcDbBlockEnd
  0
BLOCK
  5
A2D
330
A2C
100
AcDbEntity
  8
0
100
AcDbBlockBegin
  2
*D13
 70
     1
 10
0.0
 20
0.0
 30
0.0
  3
*D13
  1

  0
LINE
  5
B31
330
A2C
100
AcDbEntity
  8
Dimension (ANSI)
100
AcDbLine
 10
45.23092988372725
 20
12.91890214826502
 30
0.0
 11
41.98841274117548
 21
12.91890214826502
 31
0.0
  0
LINE
  5
B32
330
A2C
100
AcDbEntity
  8
Dimension (ANSI)
100
AcDbLine
 10
42.65507940784215
 20
14.71383651957748
 30
0.0
 11
42.65507940784215
 21
15.23877089088994
 31
0.0
  0
LINE
  5
B33
330
A2C
100
AcDbEntity
  8
Dimension (ANSI)
100
AcDbLine
 10
42.65507940784215
 20
12.39396777695256
 30
0.0
 11
42.65507940784215
 21
11.22602776132235
 31
0.0
  0
LINE
  5
B34
330
A2C
100
AcDbEntity
  8
Dimension (ANSI)
100
AcDbLine
 10
42.65507940784215
 20
11.22602776132235
 30
0.0
 11
42.13014503652969
 21
11.22602776132235
 31
0.0
  0
SOLID
  5
B35
330
A2C
100
AcDbEntity
  8
Dimension (ANSI)
100
AcDbTrace
 10
42.56759034595674
 20
14.71383651957748
 30
0.0
 11
42.74256846972756
 21
14.71383651957748
 31
0.0
 12
42.65507940784215
 22
14.18890214826502
 32
0.0
 13
42.65507940784215
 23
14.18890214826502
 33
0.0
  0
SOLID
  5
B36
330
A2C
100
AcDbEntity
  8
Dimension (ANSI)
100
AcDbTrace
 10
42.56759034595674
 20
12.39396777695256
 30
0.0
 11
42.74256846972756
 21
12.39396777695256
 31
0.0
 12
42.65507940784215
 22
12.91890214826502
 32
0.0
 13
42.65507940784215
 23
12.91890214826502
 33
0.0
  0
MTEXT
  5
B37
330
A2C
100
AcDbEntity
  8
Dimension (ANSI)
100
AcDbMText
 10
41.18756284775936
 20
11.22602776132235
 30
0.0
 40
0.5333333412806193
 41
0.0
 71
     5
 72
     1
  1
\A1;1.27{\PTYP.}
  7
ROMANS
 73
     1
 44
1.0
1001
ACAD
1000
MTEXTBEGIN
1070
    73
1070
     1
1070
    44
1040
1.0
1070
    74
1070
     0
1000
MTEXTEND
  0
POINT
  5
B38
330
A2C
100
AcDbEntity
  8
Defpoints
 62
     0
100
AcDbPoint
 10
45.56426321706058
 20
12.91890214826502
 30
0.0
  0
POINT
  5
B39
330
A2C
100
AcDbEntity
  8
Defpoints
 62
     0
100
AcDbPoint
 10
45.54426321706059
 20
14.18890214826502
 30
0.0
  0
POINT
  5
B3A
330
A2C
100
AcDbEntity
  8
Defpoints
 62
     0
100
AcDbPoint
 10
42.65507940784215
 20
14.18890214826502
 30
0.0
  0
ENDBLK
  5
A2E
330
A2C
100
AcDbEntity
  8
0
100
AcDbBlockEnd
  0
BLOCK
  5
B3D
330
B3C
100
AcDbEntity
  8
0
100
AcDbBlockBegin
  2
*D14
 70
     1
 10
0.0
 20
0.0
 30
0.0
  3
*D14
  1

  0
LINE
  5
C2F
330
B3C
100
AcDbEntity
  8
Dimension (ANSI)
100
AcDbLine
 10
45.54426321706059
 20
13.85556881493168
 30
0.0
 11
45.54426321706059
 21
10.5350293586668
 31
0.0
  0
LINE
  5
C30
330
B3C
100
AcDbEntity
  8
Dimension (ANSI)
100
AcDbLine
 10
46.06426321706059
 20
13.08556881493168
 30
0.0
 11
46.06426321706059
 21
10.5350293586668
 31
0.0
  0
LINE
  5
C31
330
B3C
100
AcDbEntity
  8
Dimension (ANSI)
100
AcDbLine
 10
46.58919758837305
 20
11.20169602533347
 30
0.0
 11
47.1141319596855
 21
11.20169602533347
 31
0.0
  0
LINE
  5
C32
330
B3C
100
AcDbEntity
  8
Dimension (ANSI)
100
AcDbLine
 10
45.01932884574812
 20
11.20169602533347
 30
0.0
 11
44.49439447443567
 21
11.20169602533347
 31
0.0
  0
SOLID
  5
C33
330
B3C
100
AcDbEntity
  8
Dimension (ANSI)
100
AcDbTrace
 10
46.58919758837305
 20
11.28918508721888
 30
0.0
 11
46.58919758837305
 21
11.11420696344806
 31
0.0
 12
46.06426321706059
 22
11.20169602533347
 32
0.0
 13
46.06426321706059
 23
11.20169602533347
 33
0.0
  0
SOLID
  5
C34
330
B3C
100
AcDbEntity
  8
Dimension (ANSI)
100
AcDbTrace
 10
45.01932884574812
 20
11.28918508721888
 30
0.0
 11
45.01932884574812
 21
11.11420696344806
 31
0.0
 12
45.54426321706059
 22
11.20169602533347
 32
0.0
 13
45.54426321706059
 23
11.20169602533347
 33
0.0
  0
MTEXT
  5
C35
330
B3C
100
AcDbEntity
  8
Dimension (ANSI)
100
AcDbMText
 10
43.51371704700244
 20
11.20169602533347
 30
0.0
 40
0.5333333412806193
 41
0.0
 71
     5
 72
     1
  1
\A1;0.52{\PTYP.}
  7
ROMANS
 73
     1
 44
1.0
1001
ACAD
1000
MTEXTBEGIN
1070
    73
1070
     1
1070
    44
1040
1.0
1070
    74
1070
     0
1000
MTEXTEND
  0
POINT
  5
C36
330
B3C
100
AcDbEntity
  8
Defpoints
 62
     0
100
AcDbPoint
 10
45.54426321706059
 20
14.18890214826502
 30
0.0
  0
POINT
  5
C37
330
B3C
100
AcDbEntity
  8
Defpoints
 62
     0
100
AcDbPoint
 10
46.06426321706059
 20
13.41890214826502
 30
0.0
  0
POINT
  5
C38
330
B3C
100
AcDbEntity
  8
Defpoints
 62
     0
100
AcDbPoint
 10
46.06426321706059
 20
11.20169602533347
 30
0.0
  0
ENDBLK
  5
B3E
330
B3C
100
AcDbEntity
  8
0
100
AcDbBlockEnd
  0
BLOCK
  5
C3B
330
C3A
100
AcDbEntity
  8
0
100
AcDbBlockBegin
  2
*D15
 70
     1
 10
0.0
 20
0.0
 30
0.0
  3
*D15
  1

  0
LINE
  5
D37
330
C3A
100
AcDbEntity
  8
Dimension (ANSI)
100
AcDbLine
 10
57.14263348699932
 20
32.63770428742324
 30
0.0
 11
57.14263348699932
 21
46.75056517981168
 31
0.0
  0
LINE
  5
D38
330
C3A
100
AcDbEntity
  8
Dimension (ANSI)
100
AcDbLine
 10
57.04888348699932
 20
32.63770428742324
 30
0.0
 11
57.04888348699932
 21
46.75056517981168
 31
0.0
  0
LINE
  5
D39
330
C3A
100
AcDbEntity
  8
Dimension (ANSI)
100
AcDbLine
 10
57.66756785831178
 20
46.08389851314502
 30
0.0
 11
58.19250222962423
 21
46.08389851314502
 31
0.0
  0
LINE
  5
D3A
330
C3A
100
AcDbEntity
  8
Dimension (ANSI)
100
AcDbLine
 10
56.52394911568686
 20
46.08389851314502
 30
0.0
 11
55.55561016264846
 21
46.08389851314502
 31
0.0
  0
SOLID
  5
D3B
330
C3A
100
AcDbEntity
  8
Dimension (ANSI)
100
AcDbTrace
 10
57.66756785831178
 20
46.17138757503043
 30
0.0
 11
57.66756785831178
 21
45.99640945125961
 31
0.0
 12
57.14263348699932
 22
46.08389851314502
 32
0.0
 13
57.14263348699932
 23
46.08389851314502
 33
0.0
  0
SOLID
  5
D3C
330
C3A
100
AcDbEntity
  8
Dimension (ANSI)
100
AcDbTrace
 10
56.52394911568686
 20
46.17138757503043
 30
0.0
 11
56.52394911568686
 21
45.99640945125961
 31
0.0
 12
57.04888348699932
 22
46.08389851314502
 32
0.0
 13
57.04888348699932
 23
46.08389851314502
 33
0.0
  0
MTEXT
  5
D3D
330
C3A
100
AcDbEntity
  8
Dimension (ANSI)
100
AcDbMText
 10
53.99080574238407
 20
46.08389851314502
 30
0.0
 40
0.5333333412806193
 41
0.0
 71
     5
 72
     1
  1
\A1;(0.094){\P12 GA.\PGALV.}
  7
ROMANS
 73
     1
 44
1.0
1001
ACAD
1000
MTEXTBEGIN
1070
    73
1070
     1
1070
    44
1040
1.0
1070
    74
1070
     0
1000
MTEXTEND
  0
POINT
  5
D3E
330
C3A
100
AcDbEntity
  8
Defpoints
 62
     0
100
AcDbPoint
 10
57.14263348699932
 20
32.30437095408991
 30
0.0
  0
POINT
  5
D3F
330
C3A
100
AcDbEntity
  8
Defpoints
 62
     0
100
AcDbPoint
 10
57.04888348699932
 20
32.30437095408991
 30
0.0
  0
POINT
  5
D40
330
C3A
100
AcDbEntity
  8
Defpoints
 62
     0
100
AcDbPoint
 10
57.04888348699932
 20
46.08389851314502
 30
0.0
  0
ENDBLK
  5
C3C
330
C3A
100
AcDbEntity
  8
0
100
AcDbBlockEnd
  0
BLOCK
  5
D53
330
D52
100
AcDbEntity
  8
0
100
AcDbBlockBegin
  2
*D16
 70
     1
 10
0.0
 20
0.0
 30
0.0
  3
*D16
  1

  0
LINE
  5
E2D
330
D52
100
AcDbEntity
  8
Dimension (ANSI)
100
AcDbLine
 10
57.04888348699932
 20
46.28556881493168
 30
0.0
 11
57.04888348699932
 21
41.58462918238575
 31
0.0
  0
LINE
  5
E2E
330
D52
100
AcDbEntity
  8
Dimension (ANSI)
100
AcDbLine
 10
56.52394911568686
 20
42.25129584905242
 30
0.0
 11
55.99901474437441
 21
42.25129584905242
 31
0.0
  0
LINE
  5
E2F
330
D52
100
AcDbEntity
  8
Dimension (ANSI)
100
AcDbLine
 10
58.34781785831178
 20
42.25129584905242
 30
0.0
 11
58.87275222962423
 21
42.25129584905242
 31
0.0
  0
SOLID
  5
E30
330
D52
100
AcDbEntity
  8
Dimension (ANSI)
100
AcDbTrace
 10
56.52394911568686
 20
42.33878491093783
 30
0.0
 11
56.52394911568686
 21
42.16380678716702
 31
0.0
 12
57.04888348699932
 22
42.25129584905242
 32
0.0
 13
57.04888348699932
 23
42.25129584905242
 33
0.0
  0
SOLID
  5
E31
330
D52
100
AcDbEntity
  8
Dimension (ANSI)
100
AcDbTrace
 10
58.34781785831178
 20
42.33878491093783
 30
0.0
 11
58.34781785831178
 21
42.16380678716702
 31
0.0
 12
57.82288348699932
 22
42.25129584905242
 32
0.0
 13
57.82288348699932
 23
42.25129584905242
 33
0.0
  0
MTEXT
  5
E32
330
D52
100
AcDbEntity
  8
Dimension (ANSI)
100
AcDbMText
 10
59.04073123224891
 20
42.51796251969273
 30
0.0
 40
0.5333333412806193
 41
0.0
 71
     1
 72
     1
  1
\A1;0.77
  7
ROMANS
 73
     1
 44
1.0
1001
ACAD
1000
MTEXTBEGIN
1070
    73
1070
     1
1070
    44
1040
1.0
1070
    74
1070
     0
1000
MTEXTEND
  0
POINT
  5
E33
330
D52
100
AcDbEntity
  8
Defpoints
 62
     0
100
AcDbPoint
 10
57.04888348699932
 20
46.61890214826502
 30
0.0
  0
POINT
  5
E34
330
D52
100
AcDbEntity
  8
Defpoints
 62
     0
100
AcDbPoint
 10
57.82288348699932
 20
45.40090214826501
 30
0.0
  0
POINT
  5
E35
330
D52
100
AcDbEntity
  8
Defpoints
 62
     0
100
AcDbPoint
 10
57.82288348699932
 20
42.25129584905242
 30
0.0
  0
ENDBLK
  5
D54
330
D52
100
AcDbEntity
  8
0
100
AcDbBlockEnd
  0
BLOCK
  5
E3B
330
E3A
100
AcDbEntity
  8
0
100
AcDbBlockBegin
  2
*D17
 70
     1
 10
0.0
 20
0.0
 30
0.0
  3
*D17
  1

  0
LINE
  5
F2D
330
E3A
100
AcDbEntity
  8
Dimension (ANSI)
100
AcDbLine
 10
45.87759655039392
 20
30.01890214826501
 30
0.0
 11
49.38053618293985
 21
30.01890214826501
 31
0.0
  0
LINE
  5
F2E
330
E3A
100
AcDbEntity
  8
Dimension (ANSI)
100
AcDbLine
 10
45.87759655039392
 20
13.43890214826502
 30
0.0
 11
49.38053618293984
 21
13.43890214826502
 31
0.0
  0
LINE
  5
F2F
330
E3A
100
AcDbEntity
  8
Dimension (ANSI)
100
AcDbLine
 10
48.71386951627319
 20
29.49396777695256
 30
0.0
 11
48.71386951627319
 21
22.60799227259717
 31
0.0
  0
LINE
  5
F30
330
E3A
100
AcDbEntity
  8
Dimension (ANSI)
100
AcDbLine
 10
48.71386951627318
 20
13.96383651957748
 30
0.0
 11
48.71386951627319
 21
20.84981202393284
 31
0.0
  0
SOLID
  5
F31
330
E3A
100
AcDbEntity
  8
Dimension (ANSI)
100
AcDbTrace
 10
48.62638045438778
 20
29.49396777695256
 30
0.0
 11
48.8013585781586
 21
29.49396777695256
 31
0.0
 12
48.71386951627319
 22
30.01890214826501
 32
0.0
 13
48.71386951627319
 23
30.01890214826501
 33
0.0
  0
SOLID
  5
F32
330
E3A
100
AcDbEntity
  8
Dimension (ANSI)
100
AcDbTrace
 10
48.62638045438778
 20
13.96383651957748
 30
0.0
 11
48.80135857815859
 21
13.96383651957748
 31
0.0
 12
48.71386951627318
 22
13.43890214826502
 32
0.0
 13
48.71386951627318
 23
13.43890214826502
 33
0.0
  0
MTEXT
  5
F33
330
E3A
100
AcDbEntity
  8
Dimension (ANSI)
100
AcDbMText
 10
48.71386951627318
 20
21.72890214826502
 30
0.0
 40
0.5333333412806193
 41
0.0
 71
     5
 72
     1
  1
\A1;16.58{\PTYP.}
  7
ROMANS
 73
     1
 44
1.0
1001
ACAD
1000
MTEXTBEGIN
1070
    73
1070
     1
1070
    44
1040
1.0
1070
    74
1070
     0
1000
MTEXTEND
  0
POINT
  5
F34
330
E3A
100
AcDbEntity
  8
Defpoints
 62
     0
100
AcDbPoint
 10
45.54426321706059
 20
30.01890214826501
 30
0.0
  0
POINT
  5
F35
330
E3A
100
AcDbEntity
  8
Defpoints
 62
     0
100
AcDbPoint
 10
45.54426321706059
 20
13.43890214826502
 30
0.0
  0
POINT
  5
F36
330
E3A
100
AcDbEntity
  8
Defpoints
 62
     0
100
AcDbPoint
 10
48.71386951627318
 20
13.43890214826502
 30
0.0
  0
ENDBLK
  5
E3C
330
E3A
100
AcDbEntity
  8
0
100
AcDbBlockEnd
  0
BLOCK
  5
F3C
330
F3B
100
AcDbEntity
  8
0
100
AcDbBlockBegin
  2
*D18
 70
     1
 10
0.0
 20
0.0
 30
0.0
  3
*D18
  1

  0
LINE
  5
101A
330
F3B
100
AcDbEntity
  8
Dimension (ANSI)
100
AcDbLine
 10
12.38426321706059
 20
46.93223548159833
 30
0.0
 11
12.38426321706059
 21
49.74730595356691
 31
0.0
  0
LINE
  5
101B
330
F3B
100
AcDbEntity
  8
Dimension (ANSI)
100
AcDbLine
 10
28.96426321706059
 20
46.93223548159833
 30
0.0
 11
28.96426321706059
 21
49.74730595356691
 31
0.0
  0
LINE
  5
101C
330
F3B
100
AcDbEntity
  8
Dimension (ANSI)
100
AcDbLine
 10
12.90919758837305
 20
49.08063928690024
 30
0.0
 11
18.39834767508871
 21
49.08063928690024
 31
0.0
  0
LINE
  5
101D
330
F3B
100
AcDbEntity
  8
Dimension (ANSI)
100
AcDbLine
 10
28.43932884574813
 20
49.08063928690024
 30
0.0
 11
22.95017875903247
 21
49.08063928690024
 31
0.0
  0
SOLID
  5
101E
330
F3B
100
AcDbEntity
  8
Dimension (ANSI)
100
AcDbTrace
 10
12.90919758837305
 20
49.16812834878565
 30
0.0
 11
12.90919758837305
 21
48.99315022501483
 31
0.0
 12
12.38426321706059
 22
49.08063928690024
 32
0.0
 13
12.38426321706059
 23
49.08063928690024
 33
0.0
  0
SOLID
  5
101F
330
F3B
100
AcDbEntity
  8
Dimension (ANSI)
100
AcDbTrace
 10
28.43932884574813
 20
49.16812834878565
 30
0.0
 11
28.43932884574813
 21
48.99315022501483
 31
0.0
 12
28.96426321706059
 22
49.08063928690024
 32
0.0
 13
28.96426321706059
 23
49.08063928690024
 33
0.0
  0
MTEXT
  5
1020
330
F3B
100
AcDbEntity
  8
Dimension (ANSI)
100
AcDbMText
 10
18.56632667771338
 20
49.34730595754055
 30
0.0
 40
0.5333333412806193
 41
0.0
 71
     1
 72
     1
  1
\A1;16.58{ TYP.}
  7
ROMANS
 73
     1
 44
1.0
1001
ACAD
1000
MTEXTBEGIN
1070
    73
1070
     1
1070
    44
1040
1.0
1070
    74
1070
     0
1000
MTEXTEND
  0
POINT
  5
1021
330
F3B
100
AcDbEntity
  8
Defpoints
 62
     0
100
AcDbPoint
 10
12.38426321706059
 20
46.59890214826499
 30
0.0
  0
POINT
  5
1022
330
F3B
100
AcDbEntity
  8
Defpoints
 62
     0
100
AcDbPoint
 10
28.96426321706059
 20
46.59890214826499
 30
0.0
  0
POINT
  5
1023
330
F3B
100
AcDbEntity
  8
Defpoints
 62
     0
100
AcDbPoint
 10
28.96426321706059
 20
49.08063928690024
 30
0.0
  0
ENDBLK
  5
F3D
330
F3B
100
AcDbEntity
  8
0
100
AcDbBlockEnd
  0
ENDSEC
  0
SECTION
  2
ENTITIES
  0
CIRCLE
  5
107
330
6C
100
AcDbEntity
  8
Visible (ANSI)
100
AcDbCircle
 10
45.54426321706059
 20
30.01890214826501
 30
0.0
 40
0.2500000000000005
  0
CIRCLE
  5
108
330
6C
100
AcDbEntity
  8
Visible (ANSI)
100
AcDbCircle
 10
12.3842632170606
 20
30.01890214826501
 30
0.0
 40
0.2500000000000005
  0
CIRCLE
  5
109
330
6C
100
AcDbEntity
  8
Visible (ANSI)
100
AcDbCircle
 10
28.96426321706059
 20
13.43890214826502
 30
0.0
 40
0.2499999999999999
  0
CIRCLE
  5
10A
330
6C
100
AcDbEntity
  8
Visible (ANSI)
100
AcDbCircle
 10
28.96426321706059
 20
46.59890214826499
 30
0.0
 40
0.2499999999999999
  0
LINE
  5
10B
330
6C
100
AcDbEntity
  8
Visible (ANSI)
100
AcDbLine
 10
13.5822632170606
 20
12.91890214826502
 30
0.0
 11
44.34626321706058
 21
12.91890214826502
 31
0.0
  0
LINE
  5
10C
330
6C
100
AcDbEntity
  8
Visible (ANSI)
100
AcDbLine
 10
13.5822632170606
 20
12.91890214826502
 30
0.0
 11
13.5822632170606
 21
13.02825214826502
 31
0.0
  0
LINE
  5
10D
330
6C
100
AcDbEntity
  8
Visible (ANSI)
100
AcDbLine
 10
44.34626321706058
 20
12.91890214826502
 30
0.0
 11
44.34626321706058
 21
13.02825214826502
 31
0.0
  0
LINE
  5
10E
330
6C
100
AcDbEntity
  8
Visible (ANSI)
100
AcDbLine
 10
44.34646321706058
 20
13.02845214826502
 30
0.0
 11
44.34646321706058
 21
12.91890214826502
 31
0.0
  0
LINE
  5
10F
330
6C
100
AcDbEntity
  8
Visible (ANSI)
100
AcDbLine
 10
44.34626321706058
 20
13.02845214826502
 30
0.0
 11
44.34646321706058
 21
13.02845214826502
 31
0.0
  0
LINE
  5
110
330
6C
100
AcDbEntity
  8
Visible (ANSI)
100
AcDbLine
 10
13.5820632170606
 20
13.02845214826502
 30
0.0
 11
13.5822632170606
 21
13.02845214826502
 31
0.0
  0
LINE
  5
111
330
6C
100
AcDbEntity
  8
Visible (ANSI)
100
AcDbLine
 10
13.5820632170606
 20
12.91890214826502
 30
0.0
 11
13.5820632170606
 21
13.02845214826502
 31
0.0
  0
LINE
  5
112
330
6C
100
AcDbEntity
  8
Hidden (ANSI)
 48
1.073322534561157
100
AcDbLine
 10
44.34626321706058
 20
13.01265214826502
 30
0.0
 11
13.5822632170606
 21
13.01265214826502
 31
0.0
  0
LINE
  5
113
330
6C
100
AcDbEntity
  8
Visible (ANSI)
100
AcDbLine
 10
13.5822632170606
 20
13.02845214826502
 30
0.0
 11
13.5822632170606
 21
13.02825214826502
 31
0.0
  0
LINE
  5
114
330
6C
100
AcDbEntity
  8
Visible (ANSI)
100
AcDbLine
 10
44.34626321706058
 20
13.02825214826502
 30
0.0
 11
44.34626321706058
 21
13.02845214826502
 31
0.0
  0
LINE
  5
115
330
6C
100
AcDbEntity
  8
Visible (ANSI)
100
AcDbLine
 10
13.5820632170606
 20
12.91890214826502
 30
0.0
 11
12.3642632170606
 21
12.91890214826502
 31
0.0
  0
LINE
  5
116
330
6C
100
AcDbEntity
  8
Visible (ANSI)
100
AcDbLine
 10
45.56426321706058
 20
12.91890214826502
 30
0.0
 11
44.34646321706058
 21
12.91890214826502
 31
0.0
  0
LINE
  5
117
330
6C
100
AcDbEntity
  8
Visible (ANSI)
100
AcDbLine
 10
46.06426321706059
 20
14.63670214826502
 30
0.0
 11
46.06426321706059
 21
13.41890214826501
 31
0.0
  0
LINE
  5
118
330
6C
100
AcDbEntity
  8
Visible (ANSI)
100
AcDbLine
 10
46.06426321706059
 20
46.61890214826502
 30
0.0
 11
46.06426321706059
 21
45.401102148265
 31
0.0
  0
LINE
  5
119
330
6C
100
AcDbEntity
  8
Visible (ANSI)
100
AcDbLine
 10
44.34646321706058
 20
47.11890214826501
 30
0.0
 11
45.56426321706058
 21
47.11890214826501
 31
0.0
  0
LINE
  5
11A
330
6C
100
AcDbEntity
  8
Visible (ANSI)
100
AcDbLine
 10
12.36426321706058
 20
47.11890214826501
 30
0.0
 11
13.58206321706058
 21
47.11890214826501
 31
0.0
  0
LINE
  5
11B
330
6C
100
AcDbEntity
  8
Visible (ANSI)
100
AcDbLine
 10
11.86426321706059
 20
45.401102148265
 30
0.0
 11
11.86426321706059
 21
46.61890214826501
 31
0.0
  0
LINE
  5
11C
330
6C
100
AcDbEntity
  8
Visible (ANSI)
100
AcDbLine
 10
11.86426321706059
 20
13.41890214826501
 30
0.0
 11
11.86426321706059
 21
14.63670214826501
 31
0.0
  0
LINE
  5
11D
330
6C
100
AcDbEntity
  8
Visible (ANSI)
100
AcDbLine
 10
46.06426321706059
 20
13.41890214826501
 30
0.0
 11
45.56426321706058
 21
12.91890214826502
 31
0.0
  0
LINE
  5
11E
330
6C
100
AcDbEntity
  8
Visible (ANSI)
100
AcDbLine
 10
46.06426321706059
 20
14.63670214826502
 30
0.0
 11
45.95471321706058
 21
14.63670214826502
 31
0.0
  0
LINE
  5
11F
330
6C
100
AcDbEntity
  8
Visible (ANSI)
100
AcDbLine
 10
45.95471321706058
 20
14.63670214826502
 30
0.0
 11
45.95471321706058
 21
14.63690214826502
 31
0.0
  0
LINE
  5
120
330
6C
100
AcDbEntity
  8
Visible (ANSI)
100
AcDbLine
 10
45.95471321706058
 20
45.40090214826501
 30
0.0
 11
45.95471321706058
 21
45.401102148265
 31
0.0
  0
LINE
  5
121
330
6C
100
AcDbEntity
  8
Visible (ANSI)
100
AcDbLine
 10
45.95471321706058
 20
45.401102148265
 30
0.0
 11
46.06426321706059
 21
45.401102148265
 31
0.0
  0
LINE
  5
122
330
6C
100
AcDbEntity
  8
Visible (ANSI)
100
AcDbLine
 10
46.06426321706058
 20
14.63690214826502
 30
0.0
 11
46.06426321706058
 21
45.40090214826501
 31
0.0
  0
LINE
  5
123
330
6C
100
AcDbEntity
  8
Visible (ANSI)
100
AcDbLine
 10
46.06426321706058
 20
14.63690214826502
 30
0.0
 11
45.95491321706059
 21
14.63690214826502
 31
0.0
  0
LINE
  5
124
330
6C
100
AcDbEntity
  8
Visible (ANSI)
100
AcDbLine
 10
46.06426321706058
 20
45.40090214826501
 30
0.0
 11
45.95491321706059
 21
45.40090214826501
 31
0.0
  0
LINE
  5
125
330
6C
100
AcDbEntity
  8
Hidden (ANSI)
 48
1.073322534561157
100
AcDbLine
 10
45.97051321706058
 20
45.40090214826501
 30
0.0
 11
45.97051321706058
 21
14.63690214826502
 31
0.0
  0
LINE
  5
126
330
6C
100
AcDbEntity
  8
Visible (ANSI)
100
AcDbLine
 10
45.95471321706058
 20
14.63690214826502
 30
0.0
 11
45.95491321706059
 21
14.63690214826502
 31
0.0
  0
LINE
  5
127
330
6C
100
AcDbEntity
  8
Visible (ANSI)
100
AcDbLine
 10
45.95491321706059
 20
45.40090214826501
 30
0.0
 11
45.95471321706058
 21
45.40090214826501
 31
0.0
  0
LINE
  5
128
330
6C
100
AcDbEntity
  8
Visible (ANSI)
100
AcDbLine
 10
45.56426321706058
 20
47.11890214826501
 30
0.0
 11
46.06426321706059
 21
46.61890214826502
 31
0.0
  0
LINE
  5
129
330
6C
100
AcDbEntity
  8
Visible (ANSI)
100
AcDbLine
 10
44.34646321706058
 20
47.11890214826501
 30
0.0
 11
44.34646321706058
 21
47.00935214826502
 31
0.0
  0
LINE
  5
12A
330
6C
100
AcDbEntity
  8
Visible (ANSI)
100
AcDbLine
 10
44.34646321706058
 20
47.00935214826502
 30
0.0
 11
44.34626321706058
 21
47.00935214826502
 31
0.0
  0
LINE
  5
12B
330
6C
100
AcDbEntity
  8
Visible (ANSI)
100
AcDbLine
 10
13.58226321706058
 20
47.00935214826502
 30
0.0
 11
13.58206321706058
 21
47.00935214826502
 31
0.0
  0
LINE
  5
12C
330
6C
100
AcDbEntity
  8
Visible (ANSI)
100
AcDbLine
 10
13.58206321706058
 20
47.00935214826502
 30
0.0
 11
13.58206321706058
 21
47.11890214826501
 31
0.0
  0
LINE
  5
12D
330
6C
100
AcDbEntity
  8
Visible (ANSI)
100
AcDbLine
 10
44.34626321706058
 20
47.118902148265
 30
0.0
 11
13.58226321706059
 21
47.118902148265
 31
0.0
  0
LINE
  5
12E
330
6C
100
AcDbEntity
  8
Visible (ANSI)
100
AcDbLine
 10
44.34626321706058
 20
47.118902148265
 30
0.0
 11
44.34626321706058
 21
47.00955214826501
 31
0.0
  0
LINE
  5
12F
330
6C
100
AcDbEntity
  8
Visible (ANSI)
100
AcDbLine
 10
13.58226321706059
 20
47.118902148265
 30
0.0
 11
13.58226321706058
 21
47.00955214826501
 31
0.0
  0
LINE
  5
130
330
6C
100
AcDbEntity
  8
Hidden (ANSI)
 48
1.073322534561157
100
AcDbLine
 10
13.58226321706059
 20
47.02515214826499
 30
0.0
 11
44.34626321706058
 21
47.025152148265
 31
0.0
  0
LINE
  5
131
330
6C
100
AcDbEntity
  8
Visible (ANSI)
100
AcDbLine
 10
44.34626321706058
 20
47.00935214826502
 30
0.0
 11
44.34626321706058
 21
47.00955214826502
 31
0.0
  0
LINE
  5
132
330
6C
100
AcDbEntity
  8
Visible (ANSI)
100
AcDbLine
 10
13.58226321706058
 20
47.00955214826501
 30
0.0
 11
13.58226321706058
 21
47.00935214826502
 31
0.0
  0
LINE
  5
133
330
6C
100
AcDbEntity
  8
Visible (ANSI)
100
AcDbLine
 10
11.86426321706059
 20
46.61890214826501
 30
0.0
 11
12.36426321706058
 21
47.11890214826501
 31
0.0
  0
LINE
  5
134
330
6C
100
AcDbEntity
  8
Visible (ANSI)
100
AcDbLine
 10
11.86426321706059
 20
45.401102148265
 30
0.0
 11
11.97381321706058
 21
45.401102148265
 31
0.0
  0
LINE
  5
135
330
6C
100
AcDbEntity
  8
Visible (ANSI)
100
AcDbLine
 10
11.97381321706058
 20
45.401102148265
 30
0.0
 11
11.97381321706058
 21
45.400902148265
 31
0.0
  0
LINE
  5
136
330
6C
100
AcDbEntity
  8
Visible (ANSI)
100
AcDbLine
 10
11.97381321706059
 20
14.63690214826502
 30
0.0
 11
11.97381321706059
 21
14.63670214826501
 31
0.0
  0
LINE
  5
137
330
6C
100
AcDbEntity
  8
Visible (ANSI)
100
AcDbLine
 10
11.97381321706059
 20
14.63670214826501
 30
0.0
 11
11.86426321706059
 21
14.63670214826501
 31
0.0
  0
LINE
  5
138
330
6C
100
AcDbEntity
  8
Visible (ANSI)
100
AcDbLine
 10
11.86426321706059
 20
45.400902148265
 30
0.0
 11
11.8642632170606
 21
14.63690214826502
 31
0.0
  0
LINE
  5
139
330
6C
100
AcDbEntity
  8
Visible (ANSI)
100
AcDbLine
 10
11.86426321706059
 20
45.400902148265
 30
0.0
 11
11.97361321706058
 21
45.400902148265
 31
0.0
  0
LINE
  5
13A
330
6C
100
AcDbEntity
  8
Visible (ANSI)
100
AcDbLine
 10
11.8642632170606
 20
14.63690214826502
 30
0.0
 11
11.97361321706059
 21
14.63690214826502
 31
0.0
  0
LINE
  5
13B
330
6C
100
AcDbEntity
  8
Hidden (ANSI)
 48
1.073322534561157
100
AcDbLine
 10
11.9580132170606
 20
14.63690214826502
 30
0.0
 11
11.95801321706059
 21
45.400902148265
 31
0.0
  0
LINE
  5
13C
330
6C
100
AcDbEntity
  8
Visible (ANSI)
100
AcDbLine
 10
11.97381321706058
 20
45.400902148265
 30
0.0
 11
11.97361321706058
 21
45.400902148265
 31
0.0
  0
LINE
  5
13D
330
6C
100
AcDbEntity
  8
Visible (ANSI)
100
AcDbLine
 10
11.97361321706059
 20
14.63690214826502
 30
0.0
 11
11.97381321706059
 21
14.63690214826502
 31
0.0
  0
LINE
  5
13E
330
6C
100
AcDbEntity
  8
Visible (ANSI)
100
AcDbLine
 10
12.3642632170606
 20
12.91890214826502
 30
0.0
 11
11.86426321706059
 21
13.41890214826501
 31
0.0
  0
CIRCLE
  5
13F
330
6C
100
AcDbEntity
  8
Visible (ANSI)
100
AcDbCircle
 10
45.54426321706059
 20
46.59890214826501
 30
0.0
 40
0.25
  0
CIRCLE
  5
140
330
6C
100
AcDbEntity
  8
Visible (ANSI)
100
AcDbCircle
 10
12.3842632170606
 20
46.59890214826499
 30
0.0
 40
0.25
  0
CIRCLE
  5
141
330
6C
100
AcDbEntity
  8
Visible (ANSI)
100
AcDbCircle
 10
12.3842632170606
 20
13.43890214826502
 30
0.0
 40
0.25
  0
CIRCLE
  5
142
330
6C
100
AcDbEntity
  8
Visible (ANSI)
100
AcDbCircle
 10
45.54426321706059
 20
13.43890214826502
 30
0.0
 40
0.25
  0
CIRCLE
  5
143
330
6C
100
AcDbEntity
  8
Visible (ANSI)
100
AcDbCircle
 10
45.54426321706059
 20
45.84890214826501
 30
0.0
 40
0.15625
  0
CIRCLE
  5
144
330
6C
100
AcDbEntity
  8
Visible (ANSI)
100
AcDbCircle
 10
12.3842632170606
 20
45.848902148265
 30
0.0
 40
0.15625
  0
CIRCLE
  5
145
330
6C
100
AcDbEntity
  8
Visible (ANSI)
100
AcDbCircle
 10
12.3842632170606
 20
14.18890214826502
 30
0.0
 40
0.15625
  0
CIRCLE
  5
146
330
6C
100
AcDbEntity
  8
Visible (ANSI)
100
AcDbCircle
 10
45.54426321706059
 20
14.18890214826502
 30
0.0
 40
0.15625
  0
MTEXT
  5
148
330
6C
100
AcDbEntity
  8
Symbol (ANSI)
100
AcDbMText
 10
25.32704836064668
 20
8.119101817667454
 30
0.0
 40
0.6400000079097396
 41
0.0
 71
     7
 72
     1
  1
FRONT VIEW
  7
Text Style168
 73
     1
 44
1.0
1001
ACAD
1000
MTEXTBEGIN
1070
    73
1070
     1
1070
    44
1040
1.0
1070
    74
1070
     0
1000
MTEXTEND
  0
LINE
  5
14A
330
6C
100
AcDbEntity
  8
Symbol (ANSI)
370
    30
100
AcDbLine
 10
25.26304819601529
 20
7.988586418334707
 30
0.0
 11
30.40846155220557
 21
7.988586418334707
 31
0.0
  0
LINE
  5
14B
330
6C
100
AcDbEntity
  8
Visible (ANSI)
100
AcDbLine
 10
57.82288348699881
 20
12.91890214826502
 30
0.0
 11
57.15823348699881
 21
12.91890214826502
 31
0.0
  0
LINE
  5
14C
330
6C
100
AcDbEntity
  8
Visible (ANSI)
100
AcDbLine
 10
57.82288348699881
 20
13.01265214826502
 30
0.0
 11
57.82288348699881
 21
12.91890214826502
 31
0.0
  0
LINE
  5
14D
330
6C
100
AcDbEntity
  8
Visible (ANSI)
100
AcDbLine
 10
57.15823348699881
 20
13.01265214826502
 30
0.0
 11
57.82288348699881
 21
13.01265214826502
 31
0.0
  0
ARC
  5
14E
330
6C
100
AcDbEntity
  8
Visible (ANSI)
100
AcDbCircle
 10
57.15823348699881
 20
13.02825214826502
 30
0.0
 40
0.0156
100
AcDbArc
 50
180.0
 51
270.0
  0
ARC
  5
14F
330
6C
100
AcDbEntity
  8
Visible (ANSI)
100
AcDbCircle
 10
57.15823348699881
 20
13.02825214826502
 30
0.0
 40
0.1093499999999973
100
AcDbArc
 50
261.7981333521976
 51
270.0
  0
ARC
  5
150
330
6C
100
AcDbEntity
  8
Hidden (ANSI)
 48
0.0556527934968472
100
AcDbCircle
 10
57.15823348699881
 20
13.02825214826502
 30
0.0
 40
0.1093499999999999
100
AcDbArc
 50
180.0
 51
261.7981333521977
  0
LINE
  5
151
330
6C
100
AcDbEntity
  8
Hidden (ANSI)
 48
0.0333809964358807
100
AcDbLine
 10
57.0488834869988
 20
13.02845214826502
 30
0.0
 11
57.14263348699881
 21
13.02845214826502
 31
0.0
  0
LINE
  5
152
330
6C
100
AcDbEntity
  8
Visible (ANSI)
100
AcDbLine
 10
57.14263348699931
 20
46.61890214826502
 30
0.0
 11
57.14263348699916
 21
47.11890214826501
 31
0.0
  0
LINE
  5
153
330
6C
100
AcDbEntity
  8
Visible (ANSI)
100
AcDbLine
 10
57.04888348699917
 20
47.11890214826501
 30
0.0
 11
57.04888348699932
 21
46.61890214826502
 31
0.0
  0
LINE
  5
154
330
6C
100
AcDbEntity
  8
Visible (ANSI)
100
AcDbLine
 10
57.14263348699916
 20
47.11890214826501
 30
0.0
 11
57.04888348699917
 21
47.11890214826501
 31
0.0
  0
LINE
  5
155
330
6C
100
AcDbEntity
  8
Visible (ANSI)
100
AcDbLine
 10
57.04888348699932
 20
46.61890214826502
 30
0.0
 11
57.14263348699931
 21
46.61890214826502
 31
0.0
  0
LINE
  5
156
330
6C
100
AcDbEntity
  8
Visible (ANSI)
100
AcDbLine
 10
57.14263348699931
 20
45.401102148265
 30
0.0
 11
57.14263348699931
 21
46.61890214826502
 31
0.0
  0
LINE
  5
157
330
6C
100
AcDbEntity
  8
Visible (ANSI)
100
AcDbLine
 10
57.14263348699931
 20
13.41890214826501
 30
0.0
 11
57.14263348699931
 21
14.63670214826502
 31
0.0
  0
LINE
  5
158
330
6C
100
AcDbEntity
  8
Visible (ANSI)
100
AcDbLine
 10
57.04888348699932
 20
14.63670214826502
 30
0.0
 11
57.04888348699932
 21
13.41890214826501
 31
0.0
  0
LINE
  5
159
330
6C
100
AcDbEntity
  8
Visible (ANSI)
100
AcDbLine
 10
57.04888348699932
 20
46.61890214826502
 30
0.0
 11
57.04888348699932
 21
45.401102148265
 31
0.0
  0
LINE
  5
15A
330
6C
100
AcDbEntity
  8
Visible (ANSI)
100
AcDbLine
 10
57.14263348699929
 20
45.401102148265
 30
0.0
 11
57.14263348699929
 21
45.40090214826501
 31
0.0
  0
LINE
  5
15B
330
6C
100
AcDbEntity
  8
Visible (ANSI)
100
AcDbLine
 10
57.14263348699929
 20
14.63690214826502
 30
0.0
 11
57.14263348699929
 21
14.63670214826502
 31
0.0
  0
LINE
  5
15C
330
6C
100
AcDbEntity
  8
Visible (ANSI)
100
AcDbLine
 10
57.04888348699928
 20
14.63670214826502
 30
0.0
 11
57.04888348699928
 21
14.63690214826502
 31
0.0
  0
LINE
  5
15D
330
6C
100
AcDbEntity
  8
Visible (ANSI)
100
AcDbLine
 10
57.04888348699928
 20
14.63690214826502
 30
0.0
 11
57.04888348699928
 21
45.40090214826501
 31
0.0
  0
LINE
  5
15E
330
6C
100
AcDbEntity
  8
Visible (ANSI)
100
AcDbLine
 10
57.04888348699928
 20
45.40090214826501
 30
0.0
 11
57.04888348699928
 21
45.401102148265
 31
0.0
  0
LINE
  5
15F
330
6C
100
AcDbEntity
  8
Visible (ANSI)
100
AcDbLine
 10
57.15823348699932
 20
14.63690214826502
 30
0.0
 11
57.04888348699929
 21
14.63690214826502
 31
0.0
  0
LINE
  5
160
330
6C
100
AcDbEntity
  8
Visible (ANSI)
100
AcDbLine
 10
57.15823348699932
 20
45.40090214826501
 30
0.0
 11
57.04888348699929
 21
45.40090214826501
 31
0.0
  0
LINE
  5
161
330
6C
100
AcDbEntity
  8
Visible (ANSI)
100
AcDbLine
 10
57.04888348699932
 20
45.401102148265
 30
0.0
 11
57.14263348699931
 21
45.401102148265
 31
0.0
  0
LINE
  5
162
330
6C
100
AcDbEntity
  8
Visible (ANSI)
100
AcDbLine
 10
57.14263348699931
 20
14.63670214826502
 30
0.0
 11
57.04888348699932
 21
14.63670214826502
 31
0.0
  0
LINE
  5
163
330
6C
100
AcDbEntity
  8
Hidden (ANSI)
 48
1.073322534561157
100
AcDbLine
 10
57.14263348699929
 20
45.40090214826501
 30
0.0
 11
57.14263348699929
 21
14.63690214826502
 31
0.0
  0
LINE
  5
164
330
6C
100
AcDbEntity
  8
Visible (ANSI)
100
AcDbLine
 10
57.14263348699916
 20
12.91890214826502
 30
0.0
 11
57.14263348699931
 21
13.41890214826501
 31
0.0
  0
LINE
  5
165
330
6C
100
AcDbEntity
  8
Visible (ANSI)
100
AcDbLine
 10
57.04888348699932
 20
13.41890214826501
 30
0.0
 11
57.04888348699917
 21
12.91890214826502
 31
0.0
  0
LINE
  5
166
330
6C
100
AcDbEntity
  8
Visible (ANSI)
100
AcDbLine
 10
57.04888348699917
 20
12.91890214826502
 30
0.0
 11
57.14263348699916
 21
12.91890214826502
 31
0.0
  0
LINE
  5
167
330
6C
100
AcDbEntity
  8
Visible (ANSI)
100
AcDbLine
 10
57.14263348699931
 20
13.41890214826501
 30
0.0
 11
57.04888348699932
 21
13.41890214826501
 31
0.0
  0
LINE
  5
168
330
6C
100
AcDbEntity
  8
Visible (ANSI)
100
AcDbLine
 10
57.15823348699804
 20
47.118902148265
 30
0.0
 11
57.82288348699881
 21
47.11890214826501
 31
0.0
  0
LINE
  5
169
330
6C
100
AcDbEntity
  8
Visible (ANSI)
100
AcDbLine
 10
57.82288348699881
 20
47.025152148265
 30
0.0
 11
57.15823348699804
 21
47.025152148265
 31
0.0
  0
LINE
  5
16A
330
6C
100
AcDbEntity
  8
Visible (ANSI)
100
AcDbLine
 10
57.82288348699881
 20
47.11890214826501
 30
0.0
 11
57.82288348699881
 21
47.025152148265
 31
0.0
  0
ARC
  5
16B
330
6C
100
AcDbEntity
  8
Hidden (ANSI)
 48
0.0556527934968472
100
AcDbCircle
 10
57.1582334869988
 20
47.00955214826501
 30
0.0
 40
0.1093499999999962
100
AcDbArc
 50
98.20186664779894
 51
180.0
  0
LINE
  5
16C
330
6C
100
AcDbEntity
  8
Hidden (ANSI)
 48
0.0333809964358807
100
AcDbLine
 10
57.0488834869988
 20
47.00935214826502
 30
0.0
 11
57.14263348699881
 21
47.00935214826502
 31
0.0
  0
ARC
  5
16D
330
6C
100
AcDbEntity
  8
Visible (ANSI)
100
AcDbCircle
 10
57.15823348699892
 20
47.0095521482635
 30
0.0
 40
0.1093500000014994
100
AcDbArc
 50
90.00000000045337
 51
98.20186664774432
  0
ARC
  5
16E
330
6C
100
AcDbEntity
  8
Visible (ANSI)
100
AcDbCircle
 10
57.15823348699881
 20
47.00955214826501
 30
0.0
 40
0.0156000000000042
100
AcDbArc
 50
90.000000002822
 51
180.0
  0
LINE
  5
16F
330
6C
100
AcDbEntity
  8
Visible (ANSI)
100
AcDbLine
 10
57.15823348699931
 20
14.63690214826502
 30
0.0
 11
57.82288348699932
 21
14.63690214826502
 31
0.0
  0
LINE
  5
170
330
6C
100
AcDbEntity
  8
Visible (ANSI)
100
AcDbLine
 10
57.82288348699932
 20
45.40090214826501
 30
0.0
 11
57.82288348699932
 21
14.63690214826502
 31
0.0
  0
LINE
  5
171
330
6C
100
AcDbEntity
  8
Visible (ANSI)
100
AcDbLine
 10
57.82288348699932
 20
45.40090214826501
 30
0.0
 11
57.15823348699931
 21
45.40090214826501
 31
0.0
  0
LINE
  5
172
330
6C
100
AcDbEntity
  8
Hidden (ANSI)
 48
0.0333809964358807
100
AcDbLine
 10
57.04888348699917
 20
30.26890214826501
 30
0.0
 11
57.14263348699916
 21
30.26890214826501
 31
0.0
  0
LINE
  5
173
330
6C
100
AcDbEntity
  8
Hidden (ANSI)
 48
0.0333809964358807
100
AcDbLine
 10
57.04888348699917
 20
29.76890214826502
 30
0.0
 11
57.14263348699916
 21
29.76890214826502
 31
0.0
  0
LINE
  5
174
330
6C
100
AcDbEntity
  8
Hidden (ANSI)
 48
0.0333809964358807
100
AcDbLine
 10
57.04888348699917
 20
46.84890214826501
 30
0.0
 11
57.14263348699916
 21
46.84890214826501
 31
0.0
  0
LINE
  5
175
330
6C
100
AcDbEntity
  8
Hidden (ANSI)
 48
0.0333809964358807
100
AcDbLine
 10
57.04888348699917
 20
46.34890214826501
 30
0.0
 11
57.14263348699916
 21
46.34890214826501
 31
0.0
  0
LINE
  5
176
330
6C
100
AcDbEntity
  8
Hidden (ANSI)
 48
0.0333809964358807
100
AcDbLine
 10
57.04888348699917
 20
13.68890214826502
 30
0.0
 11
57.14263348699916
 21
13.68890214826502
 31
0.0
  0
LINE
  5
177
330
6C
100
AcDbEntity
  8
Hidden (ANSI)
 48
0.0333809964358807
100
AcDbLine
 10
57.04888348699917
 20
13.18890214826502
 30
0.0
 11
57.14263348699916
 21
13.18890214826502
 31
0.0
  0
LINE
  5
178
330
6C
100
AcDbEntity
  8
Hidden (ANSI)
 48
0.0333809964358807
100
AcDbLine
 10
57.04888348699917
 20
46.00515214826501
 30
0.0
 11
57.14263348699916
 21
46.00515214826501
 31
0.0
  0
LINE
  5
179
330
6C
100
AcDbEntity
  8
Hidden (ANSI)
 48
0.0333809964358807
100
AcDbLine
 10
57.04888348699917
 20
45.69265214826501
 30
0.0
 11
57.14263348699916
 21
45.69265214826501
 31
0.0
  0
LINE
  5
17A
330
6C
100
AcDbEntity
  8
Hidden (ANSI)
 48
0.0333809964358807
100
AcDbLine
 10
57.04888348699917
 20
14.34515214826502
 30
0.0
 11
57.14263348699916
 21
14.34515214826502
 31
0.0
  0
LINE
  5
17B
330
6C
100
AcDbEntity
  8
Hidden (ANSI)
 48
0.0333809964358807
100
AcDbLine
 10
57.04888348699917
 20
14.03265214826501
 30
0.0
 11
57.14263348699916
 21
14.03265214826501
 31
0.0
  0
MTEXT
  5
17C
330
6C
100
AcDbEntity
  8
Symbol (ANSI)
100
AcDbMText
 10
54.95146661077694
 20
10.76909623450685
 30
0.0
 40
0.6400000079097396
 41
0.0
 71
     7
 72
     1
  1
SIDE VIEW
  7
Text Style168
 73
     1
 44
1.0
1001
ACAD
1000
MTEXTBEGIN
1070
    73
1070
     1
1070
    44
1040
1.0
1070
    74
1070
     0
1000
MTEXTEND
  0
LINE
  5
17D
330
6C
100
AcDbEntity
  8
Symbol (ANSI)
370
    30
100
AcDbLine
 10
54.91869852648567
 20
10.63650628162841
 30
0.0
 11
59.24362556864831
 21
10.63650628162841
 31
0.0
  0
ELLIPSE
  5
17E
330
6C
100
AcDbEntity
  8
Visible (ANSI)
100
AcDbEllipse
 10
85.79255426266678
 20
32.09579912455494
 30
0.0
 11
-0.0798451538535051
 21
0.1386533497832291
 31
0.0
210
0.0
220
0.0
230
1.0
 40
0.578093115915813
 41
0.2678448778124958
 42
2.873747775777193
  0
ELLIPSE
  5
17F
330
6C
100
AcDbEntity
  8
Visible (ANSI)
100
AcDbEllipse
 10
85.75012785579559
 20
32.07136738172741
 30
0.0
 11
-0.0798451538535047
 21
0.1386533497832284
 31
0.0
210
0.0
220
0.0
230
1.0
 40
0.578093115915813
 41
0.0
 42
6.283185307179586
  0
ELLIPSE
  5
180
330
6C
100
AcDbEntity
  8
Visible (ANSI)
100
AcDbEllipse
 10
70.78605130961115
 20
40.73746944094005
 30
0.0
 11
-0.0798451538535046
 21
0.1386533497832282
 31
0.0
210
0.0
220
0.0
230
1.0
 40
0.5780931159158131
 41
0.2678448778125451
 42
2.873747775777193
  0
ELLIPSE
  5
181
330
6C
100
AcDbEntity
  8
Visible (ANSI)
100
AcDbEllipse
 10
70.74362490273997
 20
40.7130376981125
 30
0.0
 11
-0.0798451538535047
 21
0.1386533497832284
 31
0.0
210
0.0
220
0.0
230
1.0
 40
0.578093115915813
 41
0.0
 42
6.283185307179586
  0
ELLIPSE
  5
182
330
6C
100
AcDbEntity
  8
Visible (ANSI)
100
AcDbEllipse
 10
78.28930278613895
 20
27.74147823161833
 30
0.0
 11
-0.0798451538535045
 21
0.1386533497832279
 31
0.0
210
0.0
220
0.0
230
1.0
 40
0.578093115915813
 41
0.2678448778124949
 42
2.873747775777192
  0
ELLIPSE
  5
183
330
6C
100
AcDbEntity
  8
Visible (ANSI)
100
AcDbEllipse
 10
78.24687637926778
 20
27.71704648879078
 30
0.0
 11
-0.0798451538535045
 21
0.138653349783228
 31
0.0
210
0.0
220
0.0
230
1.0
 40
0.5780931159158128
 41
0.0
 42
6.283185307179586
  0
ELLIPSE
  5
184
330
6C
100
AcDbEntity
  8
Visible (ANSI)
100
AcDbEllipse
 10
78.28930278613897
 20
45.09179033387668
 30
0.0
 11
-0.0798451538535043
 21
0.1386533497832278
 31
0.0
210
0.0
220
0.0
230
1.0
 40
0.578093115915813
 41
0.2678448778125457
 42
2.873747775777193
  0
ELLIPSE
  5
185
330
6C
100
AcDbEntity
  8
Visible (ANSI)
100
AcDbEllipse
 10
78.24687637926778
 20
45.06735859104913
 30
0.0
 11
-0.0798451538535045
 21
0.138653349783228
 31
0.0
210
0.0
220
0.0
230
1.0
 40
0.5780931159158128
 41
0.0
 42
6.283185307179586
  0
ELLIPSE
  5
186
330
6C
100
AcDbEntity
  8
Visible (ANSI)
100
AcDbEllipse
 10
71.33526397498593
 20
31.53930926897595
 30
0.0
 11
-0.0349242702955073
 21
-0.0606469751951929
 31
0.0
210
0.0
220
0.0
230
0.9999999999999998
 40
0.5780931159156392
 41
5.49585343535903
 42
6.28318530717969
  0
ELLIPSE
  5
187
330
6C
100
AcDbEntity
  8
Visible (ANSI)
100
AcDbEllipse
 10
85.25746110549871
 20
23.52204914794846
 30
0.0
 11
-0.0349242702955063
 21
-0.0606469751951913
 31
0.0
210
0.0
220
0.0
230
1.0
 40
0.5780931159156394
 41
5.495853435359117
 42
5.556343885665618
  0
LINE
  5
188
330
6C
100
AcDbEntity
  8
Visible Narrow (ANSI)
100
AcDbLine
 10
71.28577781401138
 20
31.5108120841419
 30
0.0
 11
85.20797494452414
 21
23.49355196311442
 31
0.0
  0
LINE
  5
189
330
6C
100
AcDbEntity
  8
Visible (ANSI)
100
AcDbLine
 10
85.20806545419214
 20
23.49360448809504
 30
0.0
 11
85.20806545419214
 21
23.43628462407808
 31
0.0
  0
LINE
  5
18A
330
6C
100
AcDbEntity
  8
Visible (ANSI)
100
AcDbLine
 10
85.20797494452414
 20
23.4936566091464
 30
0.0
 11
85.20806545419214
 21
23.49360448809504
 31
0.0
  0
LINE
  5
18B
330
6C
100
AcDbEntity
  8
Visible (ANSI)
100
AcDbLine
 10
71.2856873043434
 20
31.51096885122525
 30
0.0
 11
71.28577781401138
 21
31.51091673017389
 31
0.0
  0
LINE
  5
18C
330
6C
100
AcDbEntity
  8
Visible (ANSI)
100
AcDbLine
 10
71.2856873043434
 20
31.45364898720829
 30
0.0
 11
71.2856873043434
 21
31.51096885122525
 31
0.0
  0
LINE
  5
18D
330
6C
100
AcDbEntity
  8
Visible (ANSI)
100
AcDbLine
 10
71.31473165883214
 20
31.47037451858821
 30
0.0
 11
71.2856873043434
 21
31.45364898720829
 31
0.0
  0
LINE
  5
18E
330
6C
100
AcDbEntity
  8
Visible (ANSI)
100
AcDbLine
 10
71.30033970469042
 20
31.47866229378076
 30
0.0
 11
85.20806545419214
 21
23.4697356868379
 31
0.0
  0
LINE
  5
18F
330
6C
100
AcDbEntity
  8
Visible (ANSI)
100
AcDbLine
 10
71.28577781401138
 20
31.51091673017389
 30
0.0
 11
71.28577781401138
 21
31.5108120841419
 31
0.0
  0
LINE
  5
190
330
6C
100
AcDbEntity
  8
Visible (ANSI)
100
AcDbLine
 10
85.20797494452414
 20
23.49355196311442
 30
0.0
 11
85.20797494452414
 21
23.4936566091464
 31
0.0
  0
ELLIPSE
  5
191
330
6C
100
AcDbEntity
  8
Visible (ANSI)
100
AcDbEllipse
 10
85.79255426266678
 20
40.77095517568412
 30
0.0
 11
-0.0798451538535051
 21
0.1386533497832291
 31
0.0
210
0.0
220
0.0
230
1.0
 40
0.578093115915813
 41
0.267844877812545
 42
2.873747775777193
  0
ELLIPSE
  5
192
330
6C
100
AcDbEntity
  8
Visible (ANSI)
100
AcDbEllipse
 10
70.78605130961117
 20
49.41262549206922
 30
0.0
 11
-0.0798451538535048
 21
0.1386533497832285
 31
0.0
210
0.0
220
0.0
230
1.0
 40
0.5780931159158129
 41
0.2678448778125447
 42
2.873747775777192
  0
ELLIPSE
  5
193
330
6C
100
AcDbEntity
  8
Visible (ANSI)
100
AcDbEllipse
 10
70.78605130961114
 20
32.06231338981087
 30
0.0
 11
-0.0798451538535045
 21
0.138653349783228
 31
0.0
210
0.0
220
0.0
230
1.0
 40
0.5780931159158131
 41
0.2678448778124958
 42
2.873747775777193
  0
ELLIPSE
  5
194
330
6C
100
AcDbEntity
  8
Visible (ANSI)
100
AcDbEllipse
 10
85.79255426266676
 20
23.42064307342577
 30
0.0
 11
-0.079845153853505
 21
0.1386533497832289
 31
0.0
210
0.0
220
0.0
230
1.0
 40
0.578093115915813
 41
0.2678448778124958
 42
2.873747775777193
  0
ELLIPSE
  5
195
330
6C
100
AcDbEntity
  8
Visible (ANSI)
100
AcDbEllipse
 10
85.79255426266678
 20
40.3785325557597
 30
0.0
 11
0.0499032211584457
 21
-0.0866583436145149
 31
0.0
210
0.0
220
0.0
230
1.0
 40
0.578093115915813
 41
3.578838513251605
 42
5.84593944751682
  0
ELLIPSE
  5
196
330
6C
100
AcDbEntity
  8
Visible (ANSI)
100
AcDbEllipse
 10
70.78605130961117
 20
49.0202028721448
 30
0.0
 11
0.0499032211584457
 21
-0.0866583436145148
 31
0.0
210
0.0
220
0.0
230
1.0
 40
0.5780931159158129
 41
3.578838513251518
 42
5.845939447516819
  0
ELLIPSE
  5
197
330
6C
100
AcDbEntity
  8
Visible (ANSI)
100
AcDbEllipse
 10
70.78605130961114
 20
32.45473600973529
 30
0.0
 11
0.0499032211584455
 21
-0.0866583436145146
 31
0.0
210
0.0
220
0.0
230
0.9999999999999998
 40
0.578093115915813
 41
3.578838513251561
 42
5.84593944751682
  0
ELLIPSE
  5
198
330
6C
100
AcDbEntity
  8
Visible (ANSI)
100
AcDbEllipse
 10
85.79255426266676
 20
23.81306569335019
 30
0.0
 11
0.0499032211584458
 21
-0.0866583436145151
 31
0.0
210
0.0
220
0.0
230
1.0
 40
0.578093115915813
 41
3.578838513251604
 42
5.84593944751682
  0
ELLIPSE
  5
199
330
6C
100
AcDbEntity
  8
Visible (ANSI)
100
AcDbEllipse
 10
85.75012785579559
 20
40.74652343285658
 30
0.0
 11
-0.0798451538535045
 21
0.138653349783228
 31
0.0
210
0.0
220
0.0
230
1.0
 40
0.578093115915813
 41
0.0
 42
6.283185307179586
  0
ELLIPSE
  5
19A
330
6C
100
AcDbEntity
  8
Visible (ANSI)
100
AcDbEllipse
 10
70.74362490273998
 20
49.38819374924168
 30
0.0
 11
-0.0798451538535045
 21
0.138653349783228
 31
0.0
210
0.0
220
0.0
230
1.0
 40
0.578093115915813
 41
0.0
 42
6.283185307179586
  0
ELLIPSE
  5
19B
330
6C
100
AcDbEntity
  8
Visible (ANSI)
100
AcDbEllipse
 10
70.74362490273994
 20
32.03788164698333
 30
0.0
 11
-0.0798451538535045
 21
0.138653349783228
 31
0.0
210
0.0
220
0.0
230
1.0
 40
0.578093115915813
 41
0.0
 42
6.283185307179586
  0
ELLIPSE
  5
19C
330
6C
100
AcDbEntity
  8
Visible (ANSI)
100
AcDbEllipse
 10
85.75012785579557
 20
23.39621133059823
 30
0.0
 11
-0.0798451538535045
 21
0.138653349783228
 31
0.0
210
0.0
220
0.0
230
1.0
 40
0.578093115915813
 41
0.0
 42
6.283185307179586
  0
ELLIPSE
  5
19D
330
6C
100
AcDbEntity
  8
Visible (ANSI)
100
AcDbEllipse
 10
85.75012785579559
 20
40.35410081293216
 30
0.0
 11
-0.0499032211584403
 21
0.0866583436145175
 31
0.0
210
0.0
220
0.0
230
1.0
 40
0.578093115915813
 41
0.0
 42
6.283185307179586
  0
ELLIPSE
  5
19E
330
6C
100
AcDbEntity
  8
Visible (ANSI)
100
AcDbEllipse
 10
70.74362490273998
 20
48.99577112931726
 30
0.0
 11
-0.0499032211584403
 21
0.0866583436145175
 31
0.0
210
0.0
220
0.0
230
1.0
 40
0.578093115915813
 41
0.0
 42
6.283185307179586
  0
ELLIPSE
  5
19F
330
6C
100
AcDbEntity
  8
Visible (ANSI)
100
AcDbEllipse
 10
70.74362490273997
 20
32.43030426690776
 30
0.0
 11
-0.0499032211584403
 21
0.0866583436145175
 31
0.0
210
0.0
220
0.0
230
1.0
 40
0.578093115915813
 41
0.0
 42
6.283185307179586
  0
ELLIPSE
  5
1A0
330
6C
100
AcDbEntity
  8
Visible (ANSI)
100
AcDbEllipse
 10
85.75012785579557
 20
23.78863395052265
 30
0.0
 11
-0.0499032211584403
 21
0.0866583436145175
 31
0.0
210
0.0
220
0.0
230
1.0
 40
0.578093115915813
 41
0.0
 42
6.283185307179586
  0
LINE
  5
1A1
330
6C
100
AcDbEntity
  8
Visible (ANSI)
100
AcDbLine
 10
71.3281137112146
 20
49.37255219858938
 30
0.0
 11
70.77700034281196
 21
49.68991728035336
 31
0.0
  0
LINE
  5
1A2
330
6C
100
AcDbEntity
  8
Visible (ANSI)
100
AcDbLine
 10
85.80160522946597
 20
41.03782275369519
 30
0.0
 11
85.25049186106334
 21
41.35518783545917
 31
0.0
  0
LINE
  5
1A3
330
6C
100
AcDbEntity
  8
Visible (ANSI)
100
AcDbLine
 10
86.02787939944571
 20
40.00871535660675
 30
0.0
 11
86.02787939944571
 21
40.64590504533204
 31
0.0
  0
LINE
  5
1A4
330
6C
100
AcDbEntity
  8
Visible (ANSI)
100
AcDbLine
 10
86.02787939944569
 20
23.27466373667772
 30
0.0
 11
86.02787939944569
 21
23.911853425403
 31
0.0
  0
LINE
  5
1A5
330
6C
100
AcDbEntity
  8
Visible (ANSI)
100
AcDbLine
 10
71.2856873043434
 20
31.45364898720829
 30
0.0
 11
70.73457393594075
 21
31.77101406897227
 31
0.0
  0
LINE
  5
1A6
330
6C
100
AcDbEntity
  8
Visible (ANSI)
100
AcDbLine
 10
85.75917882259476
 20
23.11891954231409
 30
0.0
 11
85.20806545419214
 21
23.43628462407808
 31
0.0
  0
LINE
  5
1A7
330
6C
100
AcDbEntity
  8
Visible (ANSI)
100
AcDbLine
 10
85.9854529925745
 20
23.88742168257545
 30
0.0
 11
85.9854529925745
 21
23.25023199385018
 31
0.0
  0
LINE
  5
1A8
330
6C
100
AcDbEntity
  8
Visible (ANSI)
100
AcDbLine
 10
85.98545299257452
 20
40.6214733025045
 30
0.0
 11
85.98545299257452
 21
39.98428361377922
 31
0.0
  0
LINE
  5
1A9
330
6C
100
AcDbEntity
  8
Visible (ANSI)
100
AcDbLine
 10
85.20806545419215
 20
41.33075609263162
 30
0.0
 11
85.7591788225948
 21
41.01339101086764
 31
0.0
  0
LINE
  5
1AA
330
6C
100
AcDbEntity
  8
Visible (ANSI)
100
AcDbLine
 10
70.73457393594077
 20
49.66548553752582
 30
0.0
 11
71.28568730434341
 21
49.34812045576184
 31
0.0
  0
LINE
  5
1AB
330
6C
100
AcDbEntity
  8
Visible (ANSI)
100
AcDbLine
 10
70.50829976596105
 20
48.89698339726446
 30
0.0
 11
70.50829976596105
 21
49.53417308598973
 31
0.0
  0
LINE
  5
1AC
330
6C
100
AcDbEntity
  8
Visible (ANSI)
100
AcDbLine
 10
70.50829976596102
 20
32.16293177733542
 30
0.0
 11
70.50829976596102
 21
32.80012146606069
 31
0.0
  0
LINE
  5
1AD
330
6C
100
AcDbEntity
  8
Visible (ANSI)
100
AcDbLine
 10
71.3281137112146
 20
49.37255219858938
 30
0.0
 11
71.3281137112146
 21
49.3718475534898
 31
0.0
  0
LINE
  5
1AE
330
6C
100
AcDbEntity
  8
Visible (ANSI)
100
AcDbLine
 10
85.20806545419215
 20
41.33075609263162
 30
0.0
 11
85.20806545419215
 21
41.27343622861467
 31
0.0
  0
LINE
  5
1AF
330
6C
100
AcDbEntity
  8
Visible (ANSI)
100
AcDbLine
 10
85.20806545419215
 20
41.27343622861467
 30
0.0
 11
85.20797494452416
 21
41.27348834966603
 31
0.0
  0
LINE
  5
1B0
330
6C
100
AcDbEntity
  8
Visible Narrow (ANSI)
100
AcDbLine
 10
85.20797494452416
 20
41.27359299569801
 30
0.0
 11
71.2857778140114
 21
49.29085311672549
 31
0.0
  0
LINE
  5
1B1
330
6C
100
AcDbEntity
  8
Visible (ANSI)
100
AcDbLine
 10
71.2857778140114
 20
49.29074847069352
 30
0.0
 11
71.28568730434341
 21
49.29080059174488
 31
0.0
  0
LINE
  5
1B2
330
6C
100
AcDbEntity
  8
Visible (ANSI)
100
AcDbLine
 10
71.28568730434341
 20
49.29080059174488
 30
0.0
 11
71.28568730434341
 21
49.34812045576184
 31
0.0
  0
LINE
  5
1B3
330
6C
100
AcDbEntity
  8
Visible Narrow (ANSI)
100
AcDbLine
 10
85.25746110549837
 20
41.35930539851683
 30
0.0
 11
71.33526397498596
 21
49.37656551954452
 31
0.0
  0
ELLIPSE
  5
1B4
330
6C
100
AcDbEntity
  8
Visible (ANSI)
100
AcDbEllipse
 10
85.2574611054988
 20
41.3020901805321
 30
0.0
 11
0.0349242702955712
 21
0.0606469751952956
 31
0.0
210
0.0
220
0.0
230
1.0
 40
0.5780931159156396
 41
2.293770331463081
 42
2.354260781769395
  0
ELLIPSE
  5
1B5
330
6C
100
AcDbEntity
  8
Visible (ANSI)
100
AcDbEllipse
 10
85.25746110549873
 20
41.30209018053213
 30
0.0
 11
0.0349242702954537
 21
0.0606469751950999
 31
0.0
210
0.0
220
0.0
230
0.9999999999999998
 40
0.5780931159156396
 41
0.7834644549813455
 42
0.9175200251381649
  0
LINE
  5
1B6
330
6C
100
AcDbEntity
  8
Visible (ANSI)
100
AcDbLine
 10
85.20797494452416
 20
41.27348834966603
 30
0.0
 11
85.20806545419215
 21
41.27354047071739
 31
0.0
  0
ELLIPSE
  5
1B7
330
6C
100
AcDbEntity
  8
Visible (ANSI)
100
AcDbEllipse
 10
71.33526397498595
 20
49.31935030155953
 30
0.0
 11
0.0349242702955126
 21
0.0606469751951906
 31
0.0
210
0.0
220
0.0
230
1.0
 40
0.5780931159156576
 41
0.7834644549745944
 42
2.354260781769536
  0
LINE
  5
1B8
330
6C
100
AcDbEntity
  8
Visible (ANSI)
100
AcDbLine
 10
71.28568730434341
 20
49.34812045576184
 30
0.0
 11
71.3281137112146
 21
49.37255219858938
 31
0.0
  0
LINE
  5
1B9
330
6C
100
AcDbEntity
  8
Visible (ANSI)
100
AcDbLine
 10
71.28568730434341
 20
49.29080059174488
 30
0.0
 11
71.2857778140114
 21
49.29085271279625
 31
0.0
  0
LINE
  5
1BA
330
6C
100
AcDbEntity
  8
Visible (ANSI)
100
AcDbLine
 10
85.25049186106334
 20
41.35518783545917
 30
0.0
 11
85.20806545419215
 21
41.33075609263162
 31
0.0
  0
LINE
  5
1BB
330
6C
100
AcDbEntity
  8
Visible (ANSI)
100
AcDbLine
 10
86.02787939944571
 20
40.64590504533204
 30
0.0
 11
85.80160522946597
 21
41.03782275369519
 31
0.0
  0
LINE
  5
1BC
330
6C
100
AcDbEntity
  8
Visible (ANSI)
100
AcDbLine
 10
85.7591788225948
 20
41.01339101086764
 30
0.0
 11
85.98545299257452
 21
40.6214733025045
 31
0.0
  0
LINE
  5
1BD
330
6C
100
AcDbEntity
  8
Visible (ANSI)
100
AcDbLine
 10
85.80160522946597
 20
41.03782275369519
 30
0.0
 11
85.7591788225948
 21
41.01339101086764
 31
0.0
  0
LINE
  5
1BE
330
6C
100
AcDbEntity
  8
Visible (ANSI)
100
AcDbLine
 10
85.98545299257452
 20
40.6214733025045
 30
0.0
 11
86.02787939944571
 21
40.64590504533204
 31
0.0
  0
LINE
  5
1BF
330
6C
100
AcDbEntity
  8
Visible (ANSI)
100
AcDbLine
 10
86.02726919175021
 20
23.91220482064447
 30
0.0
 11
86.02787939944569
 21
23.911853425403
 31
0.0
  0
LINE
  5
1C0
330
6C
100
AcDbEntity
  8
Visible (ANSI)
100
AcDbLine
 10
85.9854529925745
 20
23.88742168257545
 30
0.0
 11
85.93587632193193
 21
23.91597098846085
 31
0.0
  0
LINE
  5
1C1
330
6C
100
AcDbEntity
  8
Visible (ANSI)
100
AcDbLine
 10
85.93587632193193
 20
23.91597098846085
 30
0.0
 11
85.93587632193193
 21
23.91607563449284
 31
0.0
  0
LINE
  5
1C2
330
6C
100
AcDbEntity
  8
Visible Narrow (ANSI)
100
AcDbLine
 10
85.93596683159992
 20
23.91602351344147
 30
0.0
 11
85.93596683159995
 21
40.01267615258128
 31
0.0
  0
LINE
  5
1C3
330
6C
100
AcDbEntity
  8
Visible (ANSI)
100
AcDbLine
 10
85.93587632193196
 20
40.01272827363264
 30
0.0
 11
85.93587632193196
 21
40.01283291966462
 31
0.0
  0
LINE
  5
1C4
330
6C
100
AcDbEntity
  8
Visible (ANSI)
100
AcDbLine
 10
85.93587632193196
 20
40.01283291966462
 30
0.0
 11
85.98545299257452
 21
39.98428361377922
 31
0.0
  0
LINE
  5
1C5
330
6C
100
AcDbEntity
  8
Visible Narrow (ANSI)
100
AcDbLine
 10
86.03493915354905
 20
23.91602351344148
 30
0.0
 11
86.03493915354906
 21
40.01267615258128
 31
0.0
  0
ELLIPSE
  5
1C6
330
6C
100
AcDbEntity
  8
Visible (ANSI)
100
AcDbEllipse
 10
85.9854529925745
 20
23.94452069827551
 30
0.0
 11
0.0699839999999946
 21
0.0000000000000041
 31
0.0
210
0.0
220
0.0
230
1.0
 40
0.5758617009853092
 41
3.926990816987018
 42
5.497787143782147
  0
LINE
  5
1C7
330
6C
100
AcDbEntity
  8
Visible (ANSI)
100
AcDbLine
 10
85.93587632193196
 20
40.01272827363264
 30
0.0
 11
85.93596718231719
 21
40.01278059664862
 31
0.0
  0
ELLIPSE
  5
1C8
330
6C
100
AcDbEntity
  8
Visible (ANSI)
100
AcDbEllipse
 10
85.98545299257454
 20
40.04117333741535
 30
0.0
 11
0.0699840000000483
 21
0.0000000000000041
 31
0.0
210
0.0
220
0.0
230
1.0
 40
0.5758617009853092
 41
3.926990816987043
 42
3.98759838746438
  0
ELLIPSE
  5
1C9
330
6C
100
AcDbEntity
  8
Visible (ANSI)
100
AcDbEllipse
 10
85.98545299257471
 20
40.04117333741517
 30
0.0
 11
0.0699839999996527
 21
-0.0000000000000001
 31
0.0
210
0.0
220
0.0
230
1.0
 40
0.5758617009853091
 41
5.363700662382936
 42
5.497787143782742
  0
LINE
  5
1CA
330
6C
100
AcDbEntity
  8
Visible (ANSI)
100
AcDbLine
 10
85.98545299257452
 20
39.98428361377922
 30
0.0
 11
86.02787939944571
 21
40.00871535660675
 31
0.0
  0
LINE
  5
1CB
330
6C
100
AcDbEntity
  8
Visible (ANSI)
100
AcDbLine
 10
85.93587632193193
 20
23.91597098846085
 30
0.0
 11
85.93596718231841
 21
23.91602331147756
 31
0.0
  0
LINE
  5
1CC
330
6C
100
AcDbEntity
  8
Visible (ANSI)
100
AcDbLine
 10
86.02787939944569
 20
23.911853425403
 30
0.0
 11
85.9854529925745
 21
23.88742168257545
 31
0.0
  0
LINE
  5
1CD
330
6C
100
AcDbEntity
  8
Visible (ANSI)
100
AcDbLine
 10
85.80160522946595
 20
23.14335128514164
 30
0.0
 11
86.02787939944569
 21
23.27466373667772
 31
0.0
  0
LINE
  5
1CE
330
6C
100
AcDbEntity
  8
Visible (ANSI)
100
AcDbLine
 10
85.9854529925745
 20
23.25023199385018
 30
0.0
 11
85.75917882259476
 21
23.11891954231409
 31
0.0
  0
LINE
  5
1CF
330
6C
100
AcDbEntity
  8
Visible (ANSI)
100
AcDbLine
 10
85.75917882259476
 20
23.11891954231409
 30
0.0
 11
85.80160522946595
 21
23.14335128514164
 31
0.0
  0
LINE
  5
1D0
330
6C
100
AcDbEntity
  8
Visible (ANSI)
100
AcDbLine
 10
86.02787939944569
 20
23.27466373667772
 30
0.0
 11
85.9854529925745
 21
23.25023199385018
 31
0.0
  0
LINE
  5
1D1
330
6C
100
AcDbEntity
  8
Visible (ANSI)
100
AcDbLine
 10
85.93587632193193
 20
23.91607563449284
 30
0.0
 11
85.93596683159992
 21
23.91602351344147
 31
0.0
  0
LINE
  5
1D2
330
6C
100
AcDbEntity
  8
Visible (ANSI)
100
AcDbLine
 10
85.93596683159995
 20
40.01267615258128
 30
0.0
 11
85.93587632193196
 21
40.01272827363264
 31
0.0
  0
LINE
  5
1D3
330
6C
100
AcDbEntity
  8
Visible (ANSI)
100
AcDbLine
 10
86.03493915354905
 20
23.91602351344148
 30
0.0
 11
86.335725407703
 21
24.08923479739164
 31
0.0
  0
LINE
  5
1D4
330
6C
100
AcDbEntity
  8
Visible (ANSI)
100
AcDbLine
 10
86.33572540770302
 20
40.18588743653144
 30
0.0
 11
86.335725407703
 21
24.08923479739164
 31
0.0
  0
LINE
  5
1D5
330
6C
100
AcDbEntity
  8
Visible (ANSI)
100
AcDbLine
 10
86.33572540770302
 20
40.18588743653144
 30
0.0
 11
86.03493915354906
 21
40.01267615258128
 31
0.0
  0
LINE
  5
1D6
330
6C
100
AcDbEntity
  8
Visible (ANSI)
100
AcDbLine
 10
86.29329900083183
 20
40.21031917935897
 30
0.0
 11
86.33572540770302
 21
40.18588743653144
 31
0.0
  0
LINE
  5
1D7
330
6C
100
AcDbEntity
  8
Visible (ANSI)
100
AcDbLine
 10
86.02787939944571
 20
40.05747419622987
 30
0.0
 11
86.29329900083183
 21
40.21031917935897
 31
0.0
  0
LINE
  5
1D8
330
6C
100
AcDbEntity
  8
Visible (ANSI)
100
AcDbLine
 10
85.20797494452416
 20
41.27348834966603
 30
0.0
 11
85.20797494452416
 21
41.27359299569801
 31
0.0
  0
LINE
  5
1D9
330
6C
100
AcDbEntity
  8
Visible (ANSI)
100
AcDbLine
 10
71.2857778140114
 20
49.29085311672549
 30
0.0
 11
71.2857778140114
 21
49.29074847069352
 31
0.0
  0
LINE
  5
1DA
330
6C
100
AcDbEntity
  8
Visible (ANSI)
100
AcDbLine
 10
85.25746110549837
 20
41.35930539851683
 30
0.0
 11
85.55824735965268
 21
41.53251668246719
 31
0.0
  0
LINE
  5
1DB
330
6C
100
AcDbEntity
  8
Visible (ANSI)
100
AcDbLine
 10
71.63605022913991
 20
49.54977680349468
 30
0.0
 11
85.55824735965268
 21
41.53251668246719
 31
0.0
  0
LINE
  5
1DC
330
6C
100
AcDbEntity
  8
Visible (ANSI)
100
AcDbLine
 10
71.63605022913991
 20
49.54977680349468
 30
0.0
 11
71.33526397498596
 21
49.37656551954452
 31
0.0
  0
LINE
  5
1DD
330
6C
100
AcDbEntity
  8
Visible (ANSI)
100
AcDbLine
 10
85.55824735965268
 20
41.48346385497664
 30
0.0
 11
85.29299215697127
 21
41.33071354276526
 31
0.0
  0
LINE
  5
1DE
330
6C
100
AcDbEntity
  8
Visible (ANSI)
100
AcDbLine
 10
85.55824735965268
 20
41.53251668246719
 30
0.0
 11
85.55824735965268
 21
41.48346385497664
 31
0.0
  0
LINE
  5
1DF
330
6C
100
AcDbEntity
  8
Visible (ANSI)
100
AcDbLine
 10
70.50829976596105
 20
49.53417308598973
 30
0.0
 11
70.73457393594077
 21
49.66548553752582
 31
0.0
  0
LINE
  5
1E0
330
6C
100
AcDbEntity
  8
Visible (ANSI)
100
AcDbLine
 10
70.73457393594077
 20
49.66548553752582
 30
0.0
 11
70.77700034281196
 21
49.68991728035336
 31
0.0
  0
LINE
  5
1E1
330
6C
100
AcDbEntity
  8
Visible (ANSI)
100
AcDbLine
 10
70.50829976596105
 20
48.89698339726446
 30
0.0
 11
70.55787643660361
 21
48.86843409137906
 31
0.0
  0
LINE
  5
1E2
330
6C
100
AcDbEntity
  8
Visible (ANSI)
100
AcDbLine
 10
70.55787643660361
 20
48.86843409137906
 30
0.0
 11
70.55787643660361
 21
48.86832944534708
 31
0.0
  0
LINE
  5
1E3
330
6C
100
AcDbEntity
  8
Visible Narrow (ANSI)
100
AcDbLine
 10
70.55778592693561
 20
48.86838156639844
 30
0.0
 11
70.5577859269356
 21
32.77172892725864
 31
0.0
  0
LINE
  5
1E4
330
6C
100
AcDbEntity
  8
Visible (ANSI)
100
AcDbLine
 10
70.55787643660359
 20
32.77167680620728
 30
0.0
 11
70.55787643660359
 21
32.77157216017529
 31
0.0
  0
LINE
  5
1E5
330
6C
100
AcDbEntity
  8
Visible (ANSI)
100
AcDbLine
 10
70.55787643660359
 20
32.77157216017529
 30
0.0
 11
70.50829976596102
 21
32.80012146606069
 31
0.0
  0
ELLIPSE
  5
1E6
330
6C
100
AcDbEntity
  8
Visible (ANSI)
100
AcDbEllipse
 10
70.60727208791016
 20
48.89687875123247
 30
0.0
 11
-0.0699839999999908
 21
0.0000000000000001
 31
0.0
210
0.0
220
0.0
230
1.0
 40
0.5758617009853092
 41
0.724790592920308
 42
0.7853981633974847
  0
ELLIPSE
  5
1E7
330
6C
100
AcDbEntity
  8
Visible (ANSI)
100
AcDbEllipse
 10
70.60727208791016
 20
32.80022611209268
 30
0.0
 11
-0.0699840000000002
 21
-0.0000000000000004
 31
0.0
210
0.0
220
0.0
230
1.0
 40
0.5758617009853048
 41
0.0
 42
0.785398163397395
  0
LINE
  5
1E8
330
6C
100
AcDbEntity
  8
Visible (ANSI)
100
AcDbLine
 10
70.50829976596102
 20
32.80012146606069
 30
0.0
 11
70.53728808791015
 21
32.81681473044703
 31
0.0
  0
LINE
  5
1E9
330
6C
100
AcDbEntity
  8
Visible (ANSI)
100
AcDbLine
 10
70.53728808791017
 20
48.88029013287813
 30
0.0
 11
70.53728808791015
 21
32.80022611209268
 31
0.0
  0
LINE
  5
1EA
330
6C
100
AcDbEntity
  8
Visible (ANSI)
100
AcDbLine
 10
70.55787643660361
 20
48.86832944534708
 30
0.0
 11
70.55778592693561
 21
48.86838156639844
 31
0.0
  0
LINE
  5
1EB
330
6C
100
AcDbEntity
  8
Visible (ANSI)
100
AcDbLine
 10
70.5577859269356
 20
32.77172892725864
 30
0.0
 11
70.55787643660359
 21
32.77167680620728
 31
0.0
  0
LINE
  5
1EC
330
6C
100
AcDbEntity
  8
Visible (ANSI)
100
AcDbLine
 10
70.72270705974219
 20
49.02034770013298
 30
0.0
 11
70.77529425406858
 21
49.05063065130782
 31
0.0
  0
LINE
  5
1ED
330
6C
100
AcDbEntity
  8
Visible (ANSI)
100
AcDbLine
 10
70.79873254570461
 20
49.01526438014247
 30
0.0
 11
70.74153109478572
 21
48.98232425531748
 31
0.0
  0
LINE
  5
1EE
330
6C
100
AcDbEntity
  8
Visible (ANSI)
100
AcDbLine
 10
70.73457393594075
 20
31.77101406897227
 30
0.0
 11
70.50829976596102
 21
32.16293177733542
 31
0.0
  0
DIMENSION
  5
1EF
330
6C
100
AcDbEntity
  8
Dimension (ANSI)
100
AcDbDimension
  2
*D4
 10
46.06426321706059
 20
53.75800975981356
 30
0.0
 11
28.96426321706059
 21
53.75800975981356
 31
0.0
 70
   160
  1
<>
 42
34.2
  3
Default (ANSI)
100
AcDbAlignedDimension
 13
11.86426321706059
 23
46.61890214826502
 33
0.0
 14
46.06426321706059
 24
46.61890214826502
 34
0.0
100
AcDbRotatedDimension
1001
ACAD
1000
DSTYLE
1002
{
1070
   289
1070
     1
1070
    73
1070
     0
1070
    74
1070
     0
1070
   271
1070
     2
1070
   272
1070
     2
1070
    48
1040
0.0
1070
    47
1040
0.0
1002
}
  0
DIMENSION
  5
2DC
330
6C
100
AcDbEntity
  8
Dimension (ANSI)
100
AcDbDimension
  2
*D5
 10
45.56426321706058
 20
51.73832472044349
 30
0.0
 11
28.96426321706059
 21
51.73832472044349
 31
0.0
 70
   160
  1
<>{ TYP.}
 71
     5
 42
33.2
  3
Default (ANSI)
100
AcDbAlignedDimension
 13
12.36426321706058
 23
47.11890214826501
 33
0.0
 14
45.56426321706058
 24
47.11890214826501
 34
0.0
 50
180.0
100
AcDbRotatedDimension
1001
ACAD
1000
DSTYLE
1002
{
1070
   289
1070
     1
1070
    73
1070
     0
1070
    74
1070
     0
1070
   271
1070
     2
1070
   272
1070
     2
1070
    48
1040
0.0
1070
    47
1040
0.0
1002
}
  0
DIMENSION
  5
3C6
330
6C
100
AcDbEntity
  8
Dimension (ANSI)
100
AcDbDimension
  2
*D6
 10
12.36426321706058
 20
51.73832472044349
 30
0.0
 11
9.833717047002433
 21
51.73832472044349
 31
0.0
 70
   160
  1
<>{\PTYP.}
 71
     5
 42
0.4999999999999965
  3
Default (ANSI)
100
AcDbAlignedDimension
 13
11.86426321706059
 23
46.61890214826502
 33
0.0
 14
12.36426321706058
 24
47.11890214826501
 34
0.0
 50
180.0
100
AcDbRotatedDimension
1001
ACAD
1000
DSTYLE
1002
{
1070
   289
1070
     1
1070
    73
1070
     0
1070
    74
1070
     0
1070
   271
1070
     2
1070
   272
1070
     2
1070
    48
1040
0.0
1070
    47
1040
0.0
1002
}
  0
DIMENSION
  5
4C4
330
6C
100
AcDbEntity
  8
Dimension (ANSI)
100
AcDbDimension
  2
*D7
 10
6.067418614689253
 20
12.91890214826502
 30
0.0
 11
6.067418614689252
 21
29.56650441124919
 31
0.0
 70
   160
  1
<>
 42
34.19999999999999
  3
Default (ANSI)
100
AcDbAlignedDimension
 13
12.36426321706058
 23
47.11890214826501
 33
0.0
 14
12.36426321706059
 24
12.91890214826502
 34
0.0
 50
270.0
100
AcDbRotatedDimension
1001
ACAD
1000
DSTYLE
1002
{
1070
   289
1070
     1
1070
   271
1070
     2
1070
   272
1070
     2
1070
    48
1040
0.0
1070
    47
1040
0.0
1002
}
  0
DIMENSION
  5
5AE
330
6C
100
AcDbEntity
  8
Dimension (ANSI)
100
AcDbDimension
  2
*D8
 10
9.895759280052724
 20
46.61890214826502
 30
0.0
 11
9.895759280052715
 21
30.01890214826501
 31
0.0
 70
   160
  1
<>{\PTYP.}
 71
     5
 42
33.2
  3
Default (ANSI)
100
AcDbAlignedDimension
 13
11.86426321706059
 23
13.41890214826502
 33
0.0
 14
11.86426321706059
 24
46.61890214826502
 34
0.0
 50
90.0
100
AcDbRotatedDimension
1001
ACAD
1000
DSTYLE
1002
{
1070
   289
1070
     1
1070
   271
1070
     2
1070
   272
1070
     2
1070
    48
1040
0.0
1070
    47
1040
0.0
1002
}
  0
DIMENSION
  5
6AC
330
6C
100
AcDbEntity
  8
Dimension (ANSI)
100
AcDbDimension
  2
*D9
 10
8.390147481307026
 20
46.61890214826502
 30
0.0
 11
9.895759280052713
 21
49.17173525719798
 31
0.0
 70
   160
  1
<>{\PTYP.}
 71
     5
 42
0.5
  3
Default (ANSI)
100
AcDbAlignedDimension
 13
12.36426321706058
 23
47.11890214826501
 33
0.0
 14
11.86426321706059
 24
46.61890214826502
 34
0.0
 50
90.0
100
AcDbRotatedDimension
1001
ACAD
1000
DSTYLE
1002
{
1070
   289
1070
     1
1070
   271
1070
     2
1070
   272
1070
     2
1070
    48
1040
0.0
1070
    47
1040
0.0
1002
}
  0
DIMENSION
  5
7C2
330
6C
100
AcDbEntity
  8
Dimension (ANSI)
100
AcDbDimension
  2
*D10
 10
12.20748652176394
 20
13.61567884356163
 30
0.0
 11
19.91043373984747
 21
10.82502234002318
 31
0.0
 70
   163
  1
<>{ TYP. (8 PL.)}
 42
0.5
  3
Default (ANSI)
100
AcDbDiametricDimension
 15
12.56103991235726
 25
13.26212545296841
 35
0.0
 40
0.0
1001
ACAD
1000
DSTYLE
1002
{
1070
   144
1040
1.000000000000007
1070
   271
1070
     2
1070
   272
1070
     2
1070
    48
1040
0.0
1070
    47
1040
0.0
1002
}
1001
ACAD_DSTYLE_DIMRADIAL_EXTENSION
1070
   387
1070
     1
1070
   388
1040
0.0
1070
   390
1040
0.0
  0
DIMENSION
  5
86C
330
6C
100
AcDbEntity
  8
Dimension (ANSI)
100
AcDbDimension
  2
*D11
 10
12.27377778250018
 20
14.2993875828254
 30
0.0
 11
19.84737422452927
 21
11.63808185534139
 31
0.0
 70
   163
  1
<>{ TYP. (4 PL.)}
 42
0.3125
  3
Default (ANSI)
100
AcDbDiametricDimension
 15
12.49474865162101
 25
14.07841671370464
 35
0.0
 40
0.0
1001
ACAD
1000
DSTYLE
1002
{
1070
   144
1040
1.0
1070
   271
1070
     2
1070
   272
1070
     2
1070
    48
1040
0.0
1070
    47
1040
0.0
1002
}
1001
ACAD_DSTYLE_DIMRADIAL_EXTENSION
1070
   387
1070
     1
1070
   388
1040
0.0
1070
   390
1040
0.0
  0
DIMENSION
  5
915
330
6C
100
AcDbEntity
  8
Dimension (ANSI)
100
AcDbDimension
  2
*D12
 10
50.21948131501888
 20
13.43890214826502
 30
0.0
 11
48.71386951627318
 21
11.25035949731124
 31
0.0
 70
   160
  1
<>{ \PTYP.}
 71
     5
 42
0.5199999999999996
  3
Default (ANSI)
100
AcDbAlignedDimension
 13
45.56426321706058
 23
12.91890214826502
 33
0.0
 14
45.54426321706059
 24
13.43890214826502
 34
0.0
 50
90.0
100
AcDbRotatedDimension
1001
ACAD
1000
DSTYLE
1002
{
1070
   289
1070
     1
1070
   271
1070
     2
1070
   272
1070
     2
1070
    48
1040
0.0
1070
    47
1040
0.0
1002
}
  0
DIMENSION
  5
A2B
330
6C
100
AcDbEntity
  8
Dimension (ANSI)
100
AcDbDimension
  2
*D13
 10
42.65507940784215
 20
14.18890214826502
 30
0.0
 11
41.18756284775936
 21
11.22602776132235
 31
0.0
 70
   160
  1
<>{\PTYP.}
 71
     5
 42
1.269999999999999
  3
Default (ANSI)
100
AcDbAlignedDimension
 13
45.56426321706058
 23
12.91890214826502
 33
0.0
 14
45.54426321706059
 24
14.18890214826502
 34
0.0
 50
90.0
100
AcDbRotatedDimension
1001
ACAD
1000
DSTYLE
1002
{
1070
   289
1070
     1
1070
   271
1070
     2
1070
    76
1070
     1
1070
   272
1070
     2
1070
    48
1040
0.0
1070
    47
1040
0.0
1002
}
  0
DIMENSION
  5
B3B
330
6C
100
AcDbEntity
  8
Dimension (ANSI)
100
AcDbDimension
  2
*D14
 10
46.06426321706059
 20
11.20169602533347
 30
0.0
 11
43.51371704700244
 21
11.20169602533347
 31
0.0
 70
   160
  1
<>{\PTYP.}
 71
     5
 42
0.5199999999999961
  3
Default (ANSI)
100
AcDbAlignedDimension
 13
45.54426321706059
 23
14.18890214826502
 33
0.0
 14
46.06426321706059
 24
13.41890214826502
 34
0.0
 50
180.0
100
AcDbRotatedDimension
1001
ACAD
1000
DSTYLE
1002
{
1070
   289
1070
     1
1070
    73
1070
     0
1070
    74
1070
     0
1070
   271
1070
     2
1070
   272
1070
     2
1070
    48
1040
0.0
1070
    47
1040
0.0
1002
}
  0
DIMENSION
  5
C39
330
6C
100
AcDbEntity
  8
Dimension (ANSI)
100
AcDbDimension
  2
*D15
 10
57.04888348699932
 20
46.08389851314502
 30
0.0
 11
53.99080574238407
 21
46.08389851314502
 31
0.0
 70
   160
  1
(<>){\P12 GA.\PGALV.}
 71
     5
 42
0.09375
  3
Default (ANSI)
100
AcDbAlignedDimension
 13
57.14263348699932
 23
32.30437095408991
 33
0.0
 14
57.04888348699932
 24
32.30437095408991
 34
0.0
100
AcDbRotatedDimension
1001
ACAD
1000
DSTYLE
1002
{
1070
   289
1070
     1
1070
    73
1070
     0
1070
    74
1070
     0
1070
   271
1070
     3
1070
   147
1040
0.031496062992126
1070
    72
1070
     0
1070
    71
1070
     0
1070
   272
1070
     3
1070
    48
1040
0.0
1070
    47
1040
0.0
1002
}
  0
MTEXT
  5
D41
102
{ACAD_XDICTIONARY
360
1032
102
}
330
6C
100
AcDbEntity
  8
Symbol (ANSI)
100
AcDbMText
 10
63.14756114174772
 20
8.375400998227213
 30
0.0
 40
0.5333333503542922
 41
26.06785596223357
 71
     4
 72
     1
  3
{\fRomanS|b0|i0|c0|p2;\H2.0001x;PART#: NP3636CG\P(DATA SUBJECT TO CHANGE \H1.5533x; \H0.64379x;WITHOUT NOTICE) \H1.4593x; \H0.68527x;\P\H0.59998x;THIS DRAWING IS PROPERTY OF HUBBELL INC. \H1.4743x; \H0.67828x;WIEGMANN\H1.1569x; \H0.86435x;\PALL INFOR
  1
MATION IS PROPRIETARY AND NOT TO BE \H1.1949x; \H0.83687x;DUPLICATED\H1.1904x; \H0.84007x;\P\H0.83328x; \H1.2291x; \H0.81359x;\P \H1.1396x; }
  7
Note Text (ANSI)
 73
     1
 44
0.8397688865661621
1001
ACAD
1000
MTEXTBEGIN
1070
    73
1070
     1
1070
    44
1040
0.8397688865661621
1070
    74
1070
     0
1000
MTEXTEND
  0
LINE
  5
D43
330
6C
100
AcDbEntity
  8
Center Mark (ANSI)
  6
CHAIN
 48
0.1908618211746216
100
AcDbLine
 10
11.46759655039393
 20
46.59890214826499
 30
0.0
 11
13.30092988372726
 21
46.59890214826499
 31
0.0
  0
LINE
  5
D44
330
6C
100
AcDbEntity
  8
Center Mark (ANSI)
  6
CHAIN
 48
0.1908618211746216
100
AcDbLine
 10
46.46092988372725
 20
46.59890214826501
 30
0.0
 11
44.62759655039391
 21
46.59890214826501
 31
0.0
  0
LINE
  5
D45
330
6C
100
AcDbEntity
  8
Centerline (ANSI)
  6
CHAIN
 48
0.9524481296539306
100
AcDbLine
 10
11.46759655039393
 20
46.59890214826499
 30
0.0
 11
46.46092988372725
 21
46.59890214826501
 31
0.0
  0
LINE
  5
D46
330
6C
100
AcDbEntity
  8
Center Mark (ANSI)
  6
CHAIN
 48
0.1908618211746216
100
AcDbLine
 10
45.54426321706059
 20
12.52223548159835
 30
0.0
 11
45.54426321706059
 21
14.35556881493168
 31
0.0
  0
LINE
  5
D47
330
6C
100
AcDbEntity
  8
Centerline (ANSI)
  6
CHAIN
 48
0.9524481296539306
100
AcDbLine
 10
45.54426321706059
 20
47.51556881493168
 30
0.0
 11
45.54426321706059
 21
12.52223548159835
 31
0.0
  0
LINE
  5
D48
330
6C
100
AcDbEntity
  8
Center Mark (ANSI)
  6
CHAIN
 48
0.1908618211746216
100
AcDbLine
 10
11.46759655039393
 20
13.43890214826502
 30
0.0
 11
13.30092988372726
 21
13.43890214826502
 31
0.0
  0
LINE
  5
D49
330
6C
100
AcDbEntity
  8
Centerline (ANSI)
  6
CHAIN
 48
0.9524481296539306
100
AcDbLine
 10
46.46092988372725
 20
13.43890214826502
 30
0.0
 11
11.46759655039393
 21
13.43890214826502
 31
0.0
  0
LINE
  5
D4A
330
6C
100
AcDbEntity
  8
Centerline (ANSI)
  6
CHAIN
 48
0.9524481296539306
100
AcDbLine
 10
12.38426321706059
 20
12.52223548159835
 30
0.0
 11
12.38426321706059
 21
47.51556881493167
 31
0.0
  0
LINE
  5
D4B
330
6C
100
AcDbEntity
  8
Center Mark (ANSI)
  6
CHAIN
 48
0.1713316440582275
100
AcDbLine
 10
12.38426321706059
 20
46.67181881493166
 30
0.0
 11
12.38426321706059
 21
45.02598548159833
 31
0.0
  0
LINE
  5
D4C
330
6C
100
AcDbEntity
  8
Center Mark (ANSI)
  6
CHAIN
 48
0.1713316440582275
100
AcDbLine
 10
45.54426321706059
 20
46.67181881493167
 30
0.0
 11
45.54426321706059
 21
45.02598548159833
 31
0.0
  0
LINE
  5
D4D
330
6C
100
AcDbEntity
  8
Centerline (ANSI)
  6
CHAIN
 48
0.9524481296539306
100
AcDbLine
 10
11.56134655039393
 20
45.848902148265
 30
0.0
 11
46.36717988372725
 21
45.84890214826501
 31
0.0
  0
LINE
  5
D4E
330
6C
100
AcDbEntity
  8
Center Mark (ANSI)
  6
CHAIN
 48
0.1713316440582275
100
AcDbLine
 10
12.38426321706059
 20
15.01181881493168
 30
0.0
 11
12.38426321706059
 21
13.36598548159835
 31
0.0
  0
LINE
  5
D4F
330
6C
100
AcDbEntity
  8
Center Mark (ANSI)
  6
CHAIN
 48
0.1713316440582275
100
AcDbLine
 10
45.54426321706059
 20
15.01181881493168
 30
0.0
 11
45.54426321706059
 21
13.36598548159835
 31
0.0
  0
LINE
  5
D50
330
6C
100
AcDbEntity
  8
Centerline (ANSI)
  6
CHAIN
 48
0.9524481296539306
100
AcDbLine
 10
11.56134655039393
 20
14.18890214826502
 30
0.0
 11
46.36717988372725
 21
14.18890214826502
 31
0.0
  0
DIMENSION
  5
D51
330
6C
100
AcDbEntity
  8
Dimension (ANSI)
100
AcDbDimension
  2
*D16
 10
57.82288348699932
 20
42.25129584905242
 30
0.0
 11
59.85342965705747
 21
42.25129584905242
 31
0.0
 70
   160
  1
<>
 42
0.7739999999999938
  3
Default (ANSI)
100
AcDbAlignedDimension
 13
57.04888348699932
 23
46.61890214826502
 33
0.0
 14
57.82288348699932
 24
45.40090214826501
 34
0.0
 50
180.0
100
AcDbRotatedDimension
1001
ACAD
1000
DSTYLE
1002
{
1070
   289
1070
     1
1070
    73
1070
     0
1070
    74
1070
     0
1070
   271
1070
     2
1070
    76
1070
     1
1070
   272
1070
     2
1070
    48
1040
0.0
1070
    47
1040
0.0
1002
}
  0
LINE
  5
E36
330
6C
100
AcDbEntity
  8
Center Mark (ANSI)
  6
CHAIN
 48
0.1908618211746216
100
AcDbLine
 10
12.38426321706059
 20
30.93556881493168
 30
0.0
 11
12.38426321706059
 21
29.10223548159835
 31
0.0
  0
LINE
  5
E37
330
6C
100
AcDbEntity
  8
Center Mark (ANSI)
  6
CHAIN
 48
0.1908618211746216
100
AcDbLine
 10
45.54426321706059
 20
30.93556881493168
 30
0.0
 11
45.54426321706059
 21
29.10223548159835
 31
0.0
  0
LINE
  5
E38
330
6C
100
AcDbEntity
  8
Centerline (ANSI)
  6
CHAIN
 48
0.9524481296539306
100
AcDbLine
 10
11.46759655039393
 20
30.01890214826501
 30
0.0
 11
46.46092988372725
 21
30.01890214826501
 31
0.0
  0
DIMENSION
  5
E39
330
6C
100
AcDbEntity
  8
Dimension (ANSI)
100
AcDbDimension
  2
*D17
 10
48.71386951627318
 20
13.43890214826502
 30
0.0
 11
48.71386951627318
 21
21.72890214826502
 31
0.0
 70
   160
  1
<>{\PTYP.}
 71
     5
 42
16.57999999999999
  3
Default (ANSI)
100
AcDbAlignedDimension
 13
45.54426321706059
 23
30.01890214826501
 33
0.0
 14
45.54426321706059
 24
13.43890214826502
 34
0.0
 50
90.0
100
AcDbRotatedDimension
1001
ACAD
1000
DSTYLE
1002
{
1070
   289
1070
     1
1070
   271
1070
     2
1070
   272
1070
     2
1070
    48
1040
0.0
1070
    47
1040
0.0
1002
}
  0
LINE
  5
F37
330
6C
100
AcDbEntity
  8
Center Mark (ANSI)
  6
CHAIN
 48
0.1908618211746216
100
AcDbLine
 10
29.88092988372725
 20
46.59890214826499
 30
0.0
 11
28.04759655039391
 21
46.59890214826499
 31
0.0
  0
LINE
  5
F38
330
6C
100
AcDbEntity
  8
Center Mark (ANSI)
  6
CHAIN
 48
0.1908618211746216
100
AcDbLine
 10
29.88092988372725
 20
13.43890214826502
 30
0.0
 11
28.04759655039391
 21
13.43890214826502
 31
0.0
  0
LINE
  5
F39
330
6C
100
AcDbEntity
  8
Centerline (ANSI)
  6
CHAIN
 48
0.9524481296539306
100
AcDbLine
 10
28.96426321706059
 20
47.51556881493167
 30
0.0
 11
28.96426321706059
 21
12.52223548159835
 31
0.0
  0
DIMENSION
  5
F3A
330
6C
100
AcDbEntity
  8
Dimension (ANSI)
100
AcDbDimension
  2
*D18
 10
28.96426321706059
 20
49.08063928690024
 30
0.0
 11
20.67426321706059
 21
49.08063928690024
 31
0.0
 70
   160
  1
<>{ TYP.}
 42
16.57999999999999
  3
Default (ANSI)
100
AcDbAlignedDimension
 13
12.38426321706059
 23
46.59890214826499
 33
0.0
 14
28.96426321706059
 24
46.59890214826499
 34
0.0
 50
180.0
100
AcDbRotatedDimension
1001
ACAD
1000
DSTYLE
1002
{
1070
   289
1070
     1
1070
    73
1070
     0
1070
    74
1070
     0
1070
   271
1070
     2
1070
   272
1070
     2
1070
    48
1040
0.0
1070
    47
1040
0.0
1002
}
  0
ENDSEC
  0
SECTION
  2
OBJECTS
  0
DICTIONARY
  5
C
330
0
100
AcDbDictionary
281
     1
  3
ACAD_CIP_PREVIOUS_PRODUCT_INFO
350
1024
  3
ACAD_COLOR
350
63
  3
ACAD_GROUP
350
D
  3
ACAD_LAYOUT
350
62
  3
ACAD_MATERIAL
350
10
  3
ACAD_MLEADERSTYLE
350
66
  3
ACAD_MLINESTYLE
350
5F
  3
ACAD_PLOTSETTINGS
350
61
  3
ACAD_PLOTSTYLENAME
350
E
  3
ACAD_SCALELIST
350
42
  3
ACAD_TABLESTYLE
350
64
  3
ACAD_VISUALSTYLE
350
29
  3
ACDB_RECOMPOSE_DATA
350
1034
  3
AcDbVariableDictionary
350
76
  3
DWGPROPS
350
1035
  0
DICTIONARY
  5
1071
330
866
100
AcDbDictionary
280
     1
281
     1
  3
ACAD_MTEXT_RT
360
1072
  0
DICTIONARY
  5
1073
330
90F
100
AcDbDictionary
280
     1
281
     1
  3
ACAD_MTEXT_RT
360
1074
  0
DICTIONARY
  5
1032
330
D41
100
AcDbDictionary
280
     1
281
     1
  3
ACAD_MTEXT_2008_RT
360
1033
  0
XRECORD
  5
1024
102
{ACAD_REACTORS
330
C
102
}
330
C
100
AcDbXrecord
280
     1
300
INVNTOR
300
2012
300
85795PDSP_2012_0F
  0
DICTIONARY
  5
63
102
{ACAD_REACTORS
330
C
102
}
330
C
100
AcDbDictionary
281
     1
  0
DICTIONARY
  5
D
102
{ACAD_REACTORS
330
C
102
}
330
C
100
AcDbDictionary
281
     1
  0
DICTIONARY
  5
62
102
{ACAD_REACTORS
330
C
102
}
330
C
100
AcDbDictionary
281
     1
  3
Layout1
350
6B
  3
Layout2
350
73
  3
Model
350
6F
  0
DICTIONARY
  5
10
102
{ACAD_REACTORS
330
C
102
}
330
C
100
AcDbDictionary
281
     1
  3
ByBlock
350
19
  3
ByLayer
350
11
  3
Global
350
21
  0
DICTIONARY
  5
66
102
{ACAD_REACTORS
330
C
102
}
330
C
100
AcDbDictionary
281
     1
  3
Standard
350
67
  0
DICTIONARY
  5
5F
102
{ACAD_REACTORS
330
C
102
}
330
C
100
AcDbDictionary
281
     1
  3
Standard
350
60
  0
DICTIONARY
  5
61
102
{ACAD_REACTORS
330
C
102
}
330
C
100
AcDbDictionary
281
     1
  0
ACDBDICTIONARYWDFLT
  5
E
102
{ACAD_REACTORS
330
C
102
}
330
C
100
AcDbDictionary
281
     1
  3
Normal
350
F
100
AcDbDictionaryWithDefault
340
F
  0
DICTIONARY
  5
42
102
{ACAD_REACTORS
330
C
102
}
330
C
100
AcDbDictionary
281
     1
  3
A0
350
43
  3
A1
350
44
  3
A2
350
45
  3
A3
350
46
  3
A4
350
47
  3
A5
350
48
  3
A6
350
49
  3
A7
350
4A
  3
A8
350
4B
  3
A9
350
4C
  3
B0
350
4D
  3
B1
350
4E
  3
B2
350
4F
  3
B3
350
50
  3
B4
350
51
  3
B5
350
52
  3
B6
350
53
  0
DICTIONARY
  5
64
102
{ACAD_REACTORS
330
C
102
}
330
C
100
AcDbDictionary
281
     1
  3
Standard
350
65
  0
DICTIONARY
  5
29
102
{ACAD_REACTORS
330
C
102
}
330
C
100
AcDbDictionary
281
     1
  3
2dWireframe
350
2F
  3
Basic
350
2E
  3
Brighten
350
35
  3
ColorChange
350
39
  3
Conceptual
350
32
  3
Dim
350
34
  3
EdgeColorOff
350
41
  3
Facepattern
350
38
  3
Flat
350
2A
  3
FlatWithEdges
350
2B
  3
Gouraud
350
2C
  3
GouraudWithEdges
350
2D
  3
Hidden
350
31
  3
JitterOff
350
3F
  3
Linepattern
350
37
  3
OverhangOff
350
40
  3
Realistic
350
33
  3
Shaded
350
3E
  3
Shaded with edges
350
3D
  3
Shades of Gray
350
3A
  3
Sketchy
350
3B
  3
Thicken
350
36
  3
Wireframe
350
30
  3
X-Ray
350
3C
  0
XRECORD
  5
1034
102
{ACAD_REACTORS
330
C
102
}
330
C
100
AcDbXrecord
280
     1
 90
        1
330
65
330
D41
  0
DICTIONARY
  5
76
102
{ACAD_REACTORS
330
C
102
}
330
C
100
AcDbDictionary
281
     1
  3
CANNOSCALE
350
79
  3
CMLEADERSTYLE
350
78
  3
CTABLESTYLE
350
77
  3
DIMASSOC
350
102C
  3
HIDETEXT
350
102B
  3
INDEXCTL
350
102A
  3
LAYEREVAL
350
1027
  3
LAYERNOTIFY
350
1028
  3
LIGHTINGUNITS
350
1026
  3
MSLTSCALE
350
1025
  3
SORTENTS
350
1029
  3
XCLIPFRAME
350
102D
  0
XRECORD
  5
1035
102
{ACAD_REACTORS
330
C
102
}
330
C
100
AcDbXrecord
280
     1
  1
DWGPROPS COOKIE
  2

  3

  4
JF
  6

  7

  8

  9
-
300
Manager=
301
Company=
302
Category=
303
Part Number=NP3636CG-S
304
Description=
305
Project=
306
Designer=JF
307
Engineer=
308
Authority=
309
Cost Center=
 40
0.000037962962963
 41
2455946.460746829
 42
2455946.460746829
  1

 90
       22
300
Vendor=
300
User Status=
300
Design Status=WorkInProgress
300
Checked by=DN
300
Date Checked=01/18/2012
300
Engr Approved by=
300
Date Eng Approved=01/18/2012
300
Mfg Approved by=
300
Date Mfg Approved=01/18/2012
300
DWG. NO=
300
NUMBER OF SHEETS=1
300
DRAWING #=
  0
XRECORD
  5
1072
102
{ACAD_REACTORS
330
1071
102
}
330
1071
100
AcDbXrecord
280
     1
 40
28833.0
  1
\A1;\U+22050.50{ TYP. (8 PL.)}
  0
XRECORD
  5
1074
102
{ACAD_REACTORS
330
1073
102
}
330
1073
100
AcDbXrecord
280
     1
 40
28724.0
  1
\A1;\U+22050.31{ TYP. (4 PL.)}
  0
XRECORD
  5
1033
102
{ACAD_REACTORS
330
1032
102
}
330
1032
100
AcDbXrecord
280
     1
 40
5047961.0
  1
\pxsm0.94;{\fRomanS|b0|i0;\H1.0667;PART#: NP3636CG\P(DATA SUBJECT TO CHANGE WITHOUT NOTICE) \P\fRomanS|b0|i0;\H0.6400;THIS DRAWING IS PROPERTY OF HUBBELL INC. WIEGMANN\PALL INFORMATION IS PROPRIETARY AND NOT TO BE DUPLICATED\P\fRomanS|b0|i0;\H0.5333;
  1
 \P }
  0
LAYOUT
  5
6B
102
{ACAD_XDICTIONARY
360
106B
102
}
102
{ACAD_REACTORS
330
62
102
}
330
62
100
AcDbPlotSettings
  1

  2

  4

  6

 40
0.0
 41
0.0
 42
0.0
 43
0.0
 44
0.0
 45
0.0
 46
0.0
 47
0.0
 48
0.0
 49
0.0
140
0.0
141
0.0
142
1.0
143
1.0
 70
   688
 72
     0
 73
     0
 74
     5
  7

 75
    16
147
1.0
148
0.0
149
0.0
100
AcDbLayout
  1
Layout1
 70
     1
 71
     1
 10
0.0
 20
0.0
 11
12.0
 21
9.0
 12
0.0
 22
0.0
 32
0.0
 14
0.0
 24
0.0
 34
0.0
 15
0.0
 25
0.0
 35
0.0
146
0.0
 13
0.0
 23
0.0
 33
0.0
 16
1.0
 26
0.0
 36
0.0
 17
0.0
 27
1.0
 37
0.0
 76
     0
330
68
  0
LAYOUT
  5
73
102
{ACAD_XDICTIONARY
360
106F
102
}
102
{ACAD_REACTORS
330
62
102
}
330
62
100
AcDbPlotSettings
  1

  2

  4

  6

 40
0.0
 41
0.0
 42
0.0
 43
0.0
 44
0.0
 45
0.0
 46
0.0
 47
0.0
 48
0.0
 49
0.0
140
0.0
141
0.0
142
1.0
143
1.0
 70
   688
 72
     0
 73
     0
 74
     5
  7

 75
    16
147
1.0
148
0.0
149
0.0
100
AcDbLayout
  1
Layout2
 70
     1
 71
     2
 10
0.0
 20
0.0
 11
12.0
 21
9.0
 12
0.0
 22
0.0
 32
0.0
 14
0.0
 24
0.0
 34
0.0
 15
0.0
 25
0.0
 35
0.0
146
0.0
 13
0.0
 23
0.0
 33
0.0
 16
1.0
 26
0.0
 36
0.0
 17
0.0
 27
1.0
 37
0.0
 76
     0
330
70
  0
LAYOUT
  5
6F
102
{ACAD_XDICTIONARY
360
106D
102
}
102
{ACAD_REACTORS
330
62
102
}
330
62
100
AcDbPlotSettings
  1

  2

  4

  6

 40
0.0
 41
0.0
 42
0.0
 43
0.0
 44
0.0
 45
0.0
 46
0.0
 47
0.0
 48
0.0
 49
0.0
140
0.0
141
0.0
142
1.0
143
1.0
 70
  1712
 72
     0
 73
     0
 74
     0
  7

 75
     0
147
1.0
148
0.0
149
0.0
100
AcDbLayout
  1
Model
 70
     1
 71
     0
 10
0.0
 20
0.0
 11
12.0
 21
9.0
 12
0.0
 22
0.0
 32
0.0
 14
0.0
 24
0.0
 34
0.0
 15
0.0
 25
0.0
 35
0.0
146
0.0
 13
0.0
 23
0.0
 33
0.0
 16
1.0
 26
0.0
 36
0.0
 17
0.0
 27
1.0
 37
0.0
 76
     0
330
6C
  0
MATERIAL
  5
19
102
{ACAD_XDICTIONARY
360
1A
102
}
102
{ACAD_REACTORS
330
10
102
}
330
10
100
AcDbMaterial
  1
ByBlock
 72
     0
 43
0.0208333333333333
 43
0.0
 43
0.0
 43
0.0
 43
0.0
 43
0.0208333333333333
 43
0.0
 43
0.0
 43
0.0
 43
0.0
 43
1.0
 43
0.0
 43
0.0
 43
0.0
 43
0.0
 43
1.0
 77
     0
 47
0.0208333333333333
 47
0.0
 47
0.0
 47
0.0
 47
0.0
 47
0.0208333333333333
 47
0.0
 47
0.0
 47
0.0
 47
0.0
 47
1.0
 47
0.0
 47
0.0
 47
0.0
 47
0.0
 47
1.0
171
     0
 49
0.0208333333333333
 49
0.0
 49
0.0
 49
0.0
 49
0.0
 49
0.0208333333333333
 49
0.0
 49
0.0
 49
0.0
 49
0.0
 49
1.0
 49
0.0
 49
0.0
 49
0.0
 49
0.0
 49
1.0
175
     0
142
0.0208333333333333
142
0.0
142
0.0
142
0.0
142
0.0
142
0.0208333333333333
142
0.0
142
0.0
142
0.0
142
0.0
142
1.0
142
0.0
142
0.0
142
0.0
142
0.0
142
1.0
179
     0
144
0.0208333333333333
144
0.0
144
0.0
144
0.0
144
0.0
144
0.0208333333333333
144
0.0
144
0.0
144
0.0
144
0.0
144
1.0
144
0.0
144
0.0
144
0.0
144
0.0
144
1.0
147
0.0208333333333333
147
0.0
147
0.0
147
0.0
147
0.0
147
0.0208333333333333
147
0.0
147
0.0
147
0.0
147
0.0
147
1.0
147
0.0
147
0.0
147
0.0
147
0.0
147
1.0
  0
MATERIAL
  5
11
102
{ACAD_XDICTIONARY
360
12
102
}
102
{ACAD_REACTORS
330
10
102
}
330
10
100
AcDbMaterial
  1
ByLayer
 72
     0
 43
0.0208333333333333
 43
0.0
 43
0.0
 43
0.0
 43
0.0
 43
0.0208333333333333
 43
0.0
 43
0.0
 43
0.0
 43
0.0
 43
1.0
 43
0.0
 43
0.0
 43
0.0
 43
0.0
 43
1.0
 77
     0
 47
0.0208333333333333
 47
0.0
 47
0.0
 47
0.0
 47
0.0
 47
0.0208333333333333
 47
0.0
 47
0.0
 47
0.0
 47
0.0
 47
1.0
 47
0.0
 47
0.0
 47
0.0
 47
0.0
 47
1.0
171
     0
 49
0.0208333333333333
 49
0.0
 49
0.0
 49
0.0
 49
0.0
 49
0.0208333333333333
 49
0.0
 49
0.0
 49
0.0
 49
0.0
 49
1.0
 49
0.0
 49
0.0
 49
0.0
 49
0.0
 49
1.0
175
     0
142
0.0208333333333333
142
0.0
142
0.0
142
0.0
142
0.0
142
0.0208333333333333
142
0.0
142
0.0
142
0.0
142
0.0
142
1.0
142
0.0
142
0.0
142
0.0
142
0.0
142
1.0
179
     0
144
0.0208333333333333
144
0.0
144
0.0
144
0.0
144
0.0
144
0.0208333333333333
144
0.0
144
0.0
144
0.0
144
0.0
144
1.0
144
0.0
144
0.0
144
0.0
144
0.0
144
1.0
147
0.0208333333333333
147
0.0
147
0.0
147
0.0
147
0.0
147
0.0208333333333333
147
0.0
147
0.0
147
0.0
147
0.0
147
1.0
147
0.0
147
0.0
147
0.0
147
0.0
147
1.0
  0
MATERIAL
  5
21
102
{ACAD_XDICTIONARY
360
22
102
}
102
{ACAD_REACTORS
330
10
102
}
330
10
100
AcDbMaterial
  1
Global
 72
     0
 43
0.0208333333333333
 43
0.0
 43
0.0
 43
0.0
 43
0.0
 43
0.0208333333333333
 43
0.0
 43
0.0
 43
0.0
 43
0.0
 43
1.0
 43
0.0
 43
0.0
 43
0.0
 43
0.0
 43
1.0
 77
     0
 47
0.0208333333333333
 47
0.0
 47
0.0
 47
0.0
 47
0.0
 47
0.0208333333333333
 47
0.0
 47
0.0
 47
0.0
 47
0.0
 47
1.0
 47
0.0
 47
0.0
 47
0.0
 47
0.0
 47
1.0
171
     0
 49
0.0208333333333333
 49
0.0
 49
0.0
 49
0.0
 49
0.0
 49
0.0208333333333333
 49
0.0
 49
0.0
 49
0.0
 49
0.0
 49
1.0
 49
0.0
 49
0.0
 49
0.0
 49
0.0
 49
1.0
175
     0
142
0.0208333333333333
142
0.0
142
0.0
142
0.0
142
0.0
142
0.0208333333333333
142
0.0
142
0.0
142
0.0
142
0.0
142
1.0
142
0.0
142
0.0
142
0.0
142
0.0
142
1.0
179
     0
144
0.0208333333333333
144
0.0
144
0.0
144
0.0
144
0.0
144
0.0208333333333333
144
0.0
144
0.0
144
0.0
144
0.0
144
1.0
144
0.0
144
0.0
144
0.0
144
0.0
144
1.0
147
0.0208333333333333
147
0.0
147
0.0
147
0.0
147
0.0
147
0.0208333333333333
147
0.0
147
0.0
147
0.0
147
0.0
147
1.0
147
0.0
147
0.0
147
0.0
147
0.0
147
1.0
  0
MLEADERSTYLE
  5
67
102
{ACAD_XDICTIONARY
360
1030
102
}
102
{ACAD_REACTORS
330
66
102
}
330
66
100
AcDbMLeaderStyle
170
     2
171
     1
172
     0
 90
        2
 40
0.0
 41
0.0
173
     1
 91
-1056964608
340
5B
 92
       -2
290
     1
 42
0.09
291
     1
 43
0.36
  3
Standard
 44
0.18
300

342
55
174
     1
178
     6
175
     1
176
     0
 93
-1056964608
 45
0.18
292
     0
297
     0
 46
0.18
 94
-1056964608
 47
1.0
 49
1.0
140
1.0
293
     1
141
0.0
294
     1
177
     0
142
1.0
295
     0
296
     0
143
0.125
1001
ACAD_MLEADERVER
1070
     2
  0
MLINESTYLE
  5
60
102
{ACAD_REACTORS
330
5F
102
}
330
5F
100
AcDbMlineStyle
  2
STANDARD
 70
     0
  3

 62
   256
 51
90.0
 52
90.0
 71
     2
 49
0.5
 62
   256
  6
BYLAYER
 49
-0.5
 62
   256
  6
BYLAYER
  0
ACDBPLACEHOLDER
  5
F
102
{ACAD_REACTORS
330
E
102
}
330
E
  0
SCALE
  5
43
102
{ACAD_REACTORS
330
42
102
}
330
42
100
AcDbScale
 70
     0
300
1:1
140
1.0
141
1.0
290
     1
  0
SCALE
  5
44
102
{ACAD_REACTORS
330
42
102
}
330
42
100
AcDbScale
 70
     0
300
1/128" = 1'-0"
140
0.0078125
141
12.0
290
     0
  0
SCALE
  5
45
102
{ACAD_REACTORS
330
42
102
}
330
42
100
AcDbScale
 70
     0
300
1/64" = 1'-0"
140
0.015625
141
12.0
290
     0
  0
SCALE
  5
46
102
{ACAD_REACTORS
330
42
102
}
330
42
100
AcDbScale
 70
     0
300
1/32" = 1'-0"
140
0.03125
141
12.0
290
     0
  0
SCALE
  5
47
102
{ACAD_REACTORS
330
42
102
}
330
42
100
AcDbScale
 70
     0
300
1/16" = 1'-0"
140
0.0625
141
12.0
290
     0
  0
SCALE
  5
48
102
{ACAD_REACTORS
330
42
102
}
330
42
100
AcDbScale
 70
     0
300
3/32" = 1'-0"
140
0.09375
141
12.0
290
     0
  0
SCALE
  5
49
102
{ACAD_REACTORS
330
42
102
}
330
42
100
AcDbScale
 70
     0
300
1/8" = 1'-0"
140
0.125
141
12.0
290
     0
  0
SCALE
  5
4A
102
{ACAD_REACTORS
330
42
102
}
330
42
100
AcDbScale
 70
     0
300
3/16" = 1'-0"
140
0.1875
141
12.0
290
     0
  0
SCALE
  5
4B
102
{ACAD_REACTORS
330
42
102
}
330
42
100
AcDbScale
 70
     0
300
1/4" = 1'-0"
140
0.25
141
12.0
290
     0
  0
SCALE
  5
4C
102
{ACAD_REACTORS
330
42
102
}
330
42
100
AcDbScale
 70
     0
300
3/8" = 1'-0"
140
0.375
141
12.0
290
     0
  0
SCALE
  5
4D
102
{ACAD_REACTORS
330
42
102
}
330
42
100
AcDbScale
 70
     0
300
1/2" = 1'-0"
140
0.5
141
12.0
290
     0
  0
SCALE
  5
4E
102
{ACAD_REACTORS
330
42
102
}
330
42
100
AcDbScale
 70
     0
300
3/4" = 1'-0"
140
0.75
141
12.0
290
     0
  0
SCALE
  5
4F
102
{ACAD_REACTORS
330
42
102
}
330
42
100
AcDbScale
 70
     0
300
1" = 1'-0"
140
1.0
141
12.0
290
     0
  0
SCALE
  5
50
102
{ACAD_REACTORS
330
42
102
}
330
42
100
AcDbScale
 70
     0
300
1-1/2" = 1'-0"
140
1.5
141
12.0
290
     0
  0
SCALE
  5
51
102
{ACAD_REACTORS
330
42
102
}
330
42
100
AcDbScale
 70
     0
300
3" = 1'-0"
140
3.0
141
12.0
290
     0
  0
SCALE
  5
52
102
{ACAD_REACTORS
330
42
102
}
330
42
100
AcDbScale
 70
     0
300
6" = 1'-0"
140
6.0
141
12.0
290
     0
  0
SCALE
  5
53
102
{ACAD_REACTORS
330
42
102
}
330
42
100
AcDbScale
 70
     0
300
1'-0" = 1'-0"
140
12.0
141
12.0
290
     0
  0
TABLESTYLE
  5
65
102
{ACAD_XDICTIONARY
360
102E
102
}
102
{ACAD_REACTORS
330
64
102
}
330
64
100
AcDbTableStyle
  3
Standard
 70
     0
 71
     0
 40
0.06
 41
0.06
280
     0
281
     0
  7
Standard
140
0.18
170
     2
 62
     0
 63
     7
283
     0
274
    -2
284
     1
 64
     0
275
    -2
285
     1
 65
     0
276
    -2
286
     1
 66
     0
277
    -2
287
     1
 67
     0
278
    -2
288
     1
 68
     0
279
    -2
289
     1
 69
     0
  7
Standard
140
0.25
170
     5
 62
     0
 63
     7
283
     0
274
    -2
284
     1
 64
     0
275
    -2
285
     1
 65
     0
276
    -2
286
     1
 66
     0
277
    -2
287
     1
 67
     0
278
    -2
288
     1
 68
     0
279
    -2
289
     1
 69
     0
  7
Standard
140
0.18
170
     5
 62
     0
 63
     7
283
     0
274
    -2
284
     1
 64
     0
275
    -2
285
     1
 65
     0
276
    -2
286
     1
 66
     0
277
    -2
287
     1
 67
     0
278
    -2
288
     1
 68
     0
279
    -2
289
     1
 69
     0
  0
VISUALSTYLE
  5
2F
102
{ACAD_XDICTIONARY
360
1043
102
}
102
{ACAD_REACTORS
330
29
102
}
330
29
100
AcDbVisualStyle
  2
2dWireframe
 70
     4
 71
     0
 72
     2
 73
     0
 90
        0
 40
-0.6
 41
-30.0
 62
     5
 63
     7
 74
     1
 91
        4
 64
     7
 65
   257
 75
     1
175
     1
 42
1.0
 92
        0
 66
   257
 43
1.0
 76
     1
 77
     6
 78
     2
 67
     7
 79
     5
170
     0
171
     0
290
     0
174
     0
 93
        1
 44
0.0
173
     0
291
     0
 45
0.0
1001
ACAD
1000
AcDbSavedByObjectVersion
1070
     0
  0
VISUALSTYLE
  5
2E
102
{ACAD_XDICTIONARY
360
1041
102
}
102
{ACAD_REACTORS
330
29
102
}
330
29
100
AcDbVisualStyle
  2
Basic
 70
     7
 71
     1
 72
     0
 73
     1
 90
        0
 40
-0.6
 41
-30.0
 62
     5
 63
     7
 74
     0
 91
        4
 64
     7
 65
   257
 75
     1
175
     1
 42
1.0
 92
        8
 66
     7
 43
1.0
 76
     1
 77
     6
 78
     2
 67
     7
 79
     5
170
     0
171
     0
290
     0
174
     0
 93
        1
 44
0.0
173
     0
291
     1
 45
0.0
1001
ACAD
1000
AcDbSavedByObjectVersion
1070
     0
  0
VISUALSTYLE
  5
35
102
{ACAD_XDICTIONARY
360
104F
102
}
102
{ACAD_REACTORS
330
29
102
}
330
29
100
AcDbVisualStyle
  2
Brighten
 70
    12
 71
     2
 72
     2
 73
     0
 90
        0
 40
-0.6
 41
-30.0
 62
     5
 63
     7
 74
     1
 91
        4
 64
     7
 65
   257
 75
     1
175
     1
 42
1.0
 92
        8
 66
     7
 43
1.0
 76
     1
 77
     6
 78
     2
 67
     7
 79
     5
170
     0
171
     0
290
     0
174
     0
 93
        1
 44
50.0
173
     0
291
     1
 45
0.0
1001
ACAD
1000
AcDbSavedByObjectVersion
1070
     0
  0
VISUALSTYLE
  5
39
102
{ACAD_XDICTIONARY
360
1057
102
}
102
{ACAD_REACTORS
330
29
102
}
330
29
100
AcDbVisualStyle
  2
ColorChange
 70
    16
 71
     2
 72
     2
 73
     3
 90
        0
 40
-0.6
 41
-30.0
 62
     5
 63
     8
 74
     1
 91
        4
 64
     7
 65
   257
 75
     1
175
     1
 42
1.0
 92
        8
 66
     8
 43
1.0
 76
     1
 77
     6
 78
     2
 67
     7
 79
     5
170
     0
171
     0
290
     0
174
     0
 93
        1
 44
0.0
173
     0
291
     1
 45
0.0
1001
ACAD
1000
AcDbSavedByObjectVersion
1070
     0
  0
VISUALSTYLE
  5
32
102
{ACAD_XDICTIONARY
360
1049
102
}
102
{ACAD_REACTORS
330
29
102
}
330
29
100
AcDbVisualStyle
  2
Conceptual
 70
     9
 71
     3
 72
     2
 73
     0
 90
        0
 40
-0.6
 41
-30.0
 62
     5
 63
     7
 74
     2
 91
        2
 64
     7
 65
   257
 75
     1
175
     1
 42
179.0
 92
        8
 66
     7
 43
1.0
 76
     1
 77
     6
 78
     2
 67
     7
 79
     3
170
     0
171
     0
290
     0
174
     0
 93
        1
 44
0.0
173
     0
291
     0
 45
0.0
1001
ACAD
1000
AcDbSavedByObjectVersion
1070
     0
  0
VISUALSTYLE
  5
34
102
{ACAD_XDICTIONARY
360
104D
102
}
102
{ACAD_REACTORS
330
29
102
}
330
29
100
AcDbVisualStyle
  2
Dim
 70
    11
 71
     2
 72
     2
 73
     0
 90
        0
 40
-0.6
 41
-30.0
 62
     5
 63
     7
 74
     1
 91
        4
 64
     7
 65
   257
 75
     1
175
     1
 42
1.0
 92
        8
 66
     7
 43
1.0
 76
     1
 77
     6
 78
     2
 67
     7
 79
     5
170
     0
171
     0
290
     0
174
     0
 93
        1
 44
-50.0
173
     0
291
     1
 45
0.0
1001
ACAD
1000
AcDbSavedByObjectVersion
1070
     0
  0
VISUALSTYLE
  5
41
102
{ACAD_XDICTIONARY
360
1067
102
}
102
{ACAD_REACTORS
330
29
102
}
330
29
100
AcDbVisualStyle
  2
EdgeColorOff
 70
    22
 71
     2
 72
     2
 73
     0
 90
        0
 40
-0.6
 41
-30.0
 62
     5
 63
     7
 74
     1
 91
        4
 64
     7
 65
   257
 75
     1
175
     1
 42
1.0
 92
        8
 66
     7
 43
1.0
 76
     1
 77
     6
 78
     2
 67
     7
 79
     5
170
     0
171
     0
290
     0
174
     0
 93
        1
 44
0.0
173
     0
291
     1
 45
0.0
1001
ACAD
1000
AcDbSavedByObjectVersion
1070
     0
  0
VISUALSTYLE
  5
38
102
{ACAD_XDICTIONARY
360
1055
102
}
102
{ACAD_REACTORS
330
29
102
}
330
29
100
AcDbVisualStyle
  2
Facepattern
 70
    15
 71
     2
 72
     2
 73
     0
 90
        0
 40
-0.6
 41
-30.0
 62
     5
 63
     7
 74
     1
 91
        4
 64
     7
 65
   257
 75
     1
175
     1
 42
1.0
 92
        8
 66
     7
 43
1.0
 76
     1
 77
     6
 78
     2
 67
     7
 79
     5
170
     0
171
     0
290
     0
174
     0
 93
        1
 44
0.0
173
     0
291
     1
 45
0.0
1001
ACAD
1000
AcDbSavedByObjectVersion
1070
     0
  0
VISUALSTYLE
  5
2A
102
{ACAD_XDICTIONARY
360
1039
102
}
102
{ACAD_REACTORS
330
29
102
}
330
29
100
AcDbVisualStyle
  2
Flat
 70
     0
 71
     2
 72
     1
 73
     1
 90
        2
 40
-0.6
 41
30.0
 62
     5
 63
     7
 74
     0
 91
        0
 64
     7
 65
   257
 75
     1
175
     1
 42
1.0
 92
        8
 66
     7
 43
1.0
 76
     1
 77
     6
 78
     2
 67
     7
 79
     5
170
     0
171
     0
290
     0
174
     0
 93
       13
 44
0.0
173
     0
291
     1
 45
0.0
1001
ACAD
1000
AcDbSavedByObjectVersion
1070
     0
  0
VISUALSTYLE
  5
2B
102
{ACAD_XDICTIONARY
360
103B
102
}
102
{ACAD_REACTORS
330
29
102
}
330
29
100
AcDbVisualStyle
  2
FlatWithEdges
 70
     1
 71
     2
 72
     1
 73
     1
 90
        2
 40
-0.6
 41
30.0
 62
     5
 63
     7
 74
     1
 91
        0
 64
     7
 65
   257
 75
     1
175
     1
 42
1.0
 92
        0
 66
   257
 43
1.0
 76
     1
 77
     6
 78
     2
 67
     7
 79
     5
170
     0
171
     0
290
     0
174
     0
 93
       13
 44
0.0
173
     0
291
     1
 45
0.0
1001
ACAD
1000
AcDbSavedByObjectVersion
1070
     0
  0
VISUALSTYLE
  5
2C
102
{ACAD_XDICTIONARY
360
103D
102
}
102
{ACAD_REACTORS
330
29
102
}
330
29
100
AcDbVisualStyle
  2
Gouraud
 70
     2
 71
     2
 72
     2
 73
     1
 90
        2
 40
-0.6
 41
30.0
 62
     5
 63
     7
 74
     0
 91
        0
 64
     7
 65
   257
 75
     1
175
     1
 42
1.0
 92
        0
 66
     7
 43
1.0
 76
     1
 77
     6
 78
     2
 67
     7
 79
     5
170
     0
171
     0
290
     0
174
     0
 93
       13
 44
0.0
173
     0
291
     1
 45
0.0
1001
ACAD
1000
AcDbSavedByObjectVersion
1070
     0
  0
VISUALSTYLE
  5
2D
102
{ACAD_XDICTIONARY
360
103F
102
}
102
{ACAD_REACTORS
330
29
102
}
330
29
100
AcDbVisualStyle
  2
GouraudWithEdges
 70
     3
 71
     2
 72
     2
 73
     1
 90
        2
 40
-0.6
 41
30.0
 62
     5
 63
     7
 74
     1
 91
        0
 64
     7
 65
   257
 75
     1
175
     1
 42
1.0
 92
        0
 66
   257
 43
1.0
 76
     1
 77
     6
 78
     2
 67
     7
 79
     5
170
     0
171
     0
290
     0
174
     0
 93
       13
 44
0.0
173
     0
291
     1
 45
0.0
1001
ACAD
1000
AcDbSavedByObjectVersion
1070
     0
  0
VISUALSTYLE
  5
31
102
{ACAD_XDICTIONARY
360
1047
102
}
102
{ACAD_REACTORS
330
29
102
}
330
29
100
AcDbVisualStyle
  2
Hidden
 70
     6
 71
     1
 72
     2
 73
     2
 90
        0
 40
-0.6
 41
-30.0
 62
     5
 63
     7
 74
     2
 91
        2
 64
     7
 65
   257
 75
     2
175
     1
 42
40.0
 92
        0
 66
   257
 43
1.0
 76
     1
 77
     6
 78
     2
 67
     7
 79
     3
170
     0
171
     0
290
     0
174
     0
 93
        1
 44
0.0
173
     0
291
     0
 45
0.0
1001
ACAD
1000
AcDbSavedByObjectVersion
1070
     0
  0
VISUALSTYLE
  5
3F
102
{ACAD_XDICTIONARY
360
1063
102
}
102
{ACAD_REACTORS
330
29
102
}
330
29
100
AcDbVisualStyle
  2
JitterOff
 70
    20
 71
     2
 72
     2
 73
     0
 90
        0
 40
-0.6
 41
-30.0
 62
     5
 63
     7
 74
     1
 91
        4
 64
     7
 65
   257
 75
     1
175
     1
 42
1.0
 92
       10
 66
     7
 43
1.0
 76
     1
 77
     6
 78
     2
 67
     7
 79
     5
170
     0
171
     0
290
     0
174
     0
 93
        1
 44
0.0
173
     0
291
     1
 45
0.0
1001
ACAD
1000
AcDbSavedByObjectVersion
1070
     0
  0
VISUALSTYLE
  5
37
102
{ACAD_XDICTIONARY
360
1053
102
}
102
{ACAD_REACTORS
330
29
102
}
330
29
100
AcDbVisualStyle
  2
Linepattern
 70
    14
 71
     2
 72
     2
 73
     0
 90
        0
 40
-0.6
 41
-30.0
 62
     5
 63
     7
 74
     1
 91
        4
 64
     7
 65
   257
 75
     7
175
     7
 42
1.0
 92
        8
 66
     7
 43
1.0
 76
     1
 77
     6
 78
     2
 67
     7
 79
     5
170
     0
171
     0
290
     0
174
     0
 93
        1
 44
0.0
173
     0
291
     1
 45
0.0
1001
ACAD
1000
AcDbSavedByObjectVersion
1070
     0
  0
VISUALSTYLE
  5
40
102
{ACAD_XDICTIONARY
360
1065
102
}
102
{ACAD_REACTORS
330
29
102
}
330
29
100
AcDbVisualStyle
  2
OverhangOff
 70
    21
 71
     2
 72
     2
 73
     0
 90
        0
 40
-0.6
 41
-30.0
 62
     5
 63
     7
 74
     1
 91
        4
 64
     7
 65
   257
 75
     1
175
     1
 42
1.0
 92
        9
 66
     7
 43
1.0
 76
     1
 77
     6
 78
     2
 67
     7
 79
     5
170
     0
171
     0
290
     0
174
     0
 93
        1
 44
0.0
173
     0
291
     1
 45
0.0
1001
ACAD
1000
AcDbSavedByObjectVersion
1070
     0
  0
VISUALSTYLE
  5
33
102
{ACAD_XDICTIONARY
360
104B
102
}
102
{ACAD_REACTORS
330
29
102
}
330
29
100
AcDbVisualStyle
  2
Realistic
 70
     8
 71
     2
 72
     3
 73
     0
 90
        2
 40
-0.6
 41
30.0
 62
     5
 63
     7
 74
     0
 91
        0
 64
     7
 65
   257
 75
     1
175
     1
 42
1.0
 92
        8
 66
   257
 43
1.0
 76
     1
 77
     6
 78
     2
 67
     7
 79
     3
170
     0
171
     0
290
     0
174
     0
 93
       13
 44
0.0
173
     0
291
     0
 45
0.0
1001
ACAD
1000
AcDbSavedByObjectVersion
1070
     0
  0
VISUALSTYLE
  5
3E
102
{ACAD_XDICTIONARY
360
1061
102
}
102
{ACAD_REACTORS
330
29
102
}
330
29
100
AcDbVisualStyle
  2
Shaded
 70
    27
 71
     2
 72
     2
 73
     1
 90
        2
 40
-0.6
 41
30.0
 62
     5
 63
     7
 74
     0
 91
        4
 64
     7
 65
   257
 75
     1
175
     1
 42
1.0
 92
        8
 66
   257
 43
1.0
 76
     1
 77
     6
 78
     2
 67
     8
 79
     3
170
     0
171
     0
290
     0
174
     0
 93
        5
 44
0.0
173
     0
291
     0
 45
0.0
1001
ACAD
1000
AcDbSavedByObjectVersion
1070
     0
  0
VISUALSTYLE
  5
3D
102
{ACAD_XDICTIONARY
360
105F
102
}
102
{ACAD_REACTORS
330
29
102
}
330
29
100
AcDbVisualStyle
  2
Shaded with edges
 70
    26
 71
     2
 72
     2
 73
     1
 90
        2
 40
-0.6
 41
30.0
 62
     5
 63
     7
 74
     1
 91
       10
 64
     7
 65
   257
 75
     2
175
     1
 42
1.0
 92
        8
 66
   257
 43
1.0
 76
     1
 77
     6
 78
     2
 67
     7
 79
     3
170
     0
171
     0
290
     0
174
     0
 93
        5
 44
0.0
173
     0
291
     0
 45
0.0
1001
ACAD
1000
AcDbSavedByObjectVersion
1070
     0
  0
VISUALSTYLE
  5
3A
102
{ACAD_XDICTIONARY
360
1059
102
}
102
{ACAD_REACTORS
330
29
102
}
330
29
100
AcDbVisualStyle
  2
Shades of Gray
 70
    23
 71
     2
 72
     2
 73
     3
 90
        0
 40
-0.6
 41
-30.0
 62
     5
 63
     7
 74
     2
 91
        2
 64
     7
 65
     7
 75
     1
175
     1
 42
40.0
 92
        8
 66
     7
 43
1.0
 76
     1
 77
     6
 78
     2
 67
     7
 79
     3
170
     0
171
     0
290
     0
174
     0
 93
        1
 44
0.0
173
     0
291
     0
 45
0.0
1001
ACAD
1000
AcDbSavedByObjectVersion
1070
     0
  0
VISUALSTYLE
  5
3B
102
{ACAD_XDICTIONARY
360
105B
102
}
102
{ACAD_REACTORS
330
29
102
}
330
29
100
AcDbVisualStyle
  2
Sketchy
 70
    24
 71
     1
 72
     2
 73
     2
 90
        0
 40
-0.6
 41
-30.0
 62
     5
 63
     7
 74
     2
 91
        2
 64
     7
 65
     7
 75
     1
175
     1
 42
40.0
 92
       11
 66
     7
 43
1.0
 76
     1
 77
     6
 78
     2
 67
     7
 79
     6
170
     0
171
     0
290
     0
174
     0
 93
        1
 44
0.0
173
     0
291
     0
 45
0.0
1001
ACAD
1000
AcDbSavedByObjectVersion
1070
     0
  0
VISUALSTYLE
  5
36
102
{ACAD_XDICTIONARY
360
1051
102
}
102
{ACAD_REACTORS
330
29
102
}
330
29
100
AcDbVisualStyle
  2
Thicken
 70
    13
 71
     2
 72
     2
 73
     0
 90
        0
 40
-0.6
 41
-30.0
 62
     5
 63
     7
 74
     1
 91
        4
 64
     7
 65
   257
 75
     1
175
     1
 42
1.0
 92
       12
 66
     7
 43
1.0
 76
     1
 77
     6
 78
     2
 67
     7
 79
     5
170
     0
171
     0
290
     0
174
     0
 93
        1
 44
0.0
173
     0
291
     1
 45
0.0
1001
ACAD
1000
AcDbSavedByObjectVersion
1070
     0
  0
VISUALSTYLE
  5
30
102
{ACAD_XDICTIONARY
360
1045
102
}
102
{ACAD_REACTORS
330
29
102
}
330
29
100
AcDbVisualStyle
  2
Wireframe
 70
     5
 71
     0
 72
     2
 73
     0
 90
        0
 40
-0.6
 41
-30.0
 62
     5
 63
     7
 74
     1
 91
        4
 64
     7
 65
   257
 75
     1
175
     1
 42
1.0
 92
        0
 66
   257
 43
1.0
 76
     1
 77
     6
 78
     2
 67
     7
 79
     3
170
     0
171
     0
290
     0
174
     0
 93
        1
 44
0.0
173
     0
291
     0
 45
0.0
1001
ACAD
1000
AcDbSavedByObjectVersion
1070
     0
  0
VISUALSTYLE
  5
3C
102
{ACAD_XDICTIONARY
360
105D
102
}
102
{ACAD_REACTORS
330
29
102
}
330
29
100
AcDbVisualStyle
  2
X-Ray
 70
    25
 71
     2
 72
     2
 73
     1
 90
        1
 40
0.5
 41
-30.0
 62
     5
 63
     7
 74
     1
 91
        0
 64
     7
 65
   257
 75
     1
175
     1
 42
1.0
 92
        8
 66
     7
 43
1.0
 76
     1
 77
     6
 78
     2
 67
     7
 79
     3
170
     0
171
     0
290
     0
174
     0
 93
       13
 44
0.0
173
     0
291
     0
 45
0.0
1001
ACAD
1000
AcDbSavedByObjectVersion
1070
     0
  0
DICTIONARYVAR
  5
79
102
{ACAD_REACTORS
330
76
102
}
330
76
100
DictionaryVariables
280
     0
  1
1:1
  0
DICTIONARYVAR
  5
78
102
{ACAD_REACTORS
330
76
102
}
330
76
100
DictionaryVariables
280
     0
  1
STANDARD
  0
DICTIONARYVAR
  5
77
102
{ACAD_REACTORS
330
76
102
}
330
76
100
DictionaryVariables
280
     0
  1
STANDARD
  0
DICTIONARYVAR
  5
102C
102
{ACAD_REACTORS
330
76
102
}
330
76
100
DictionaryVariables
280
     0
  1
1
  0
DICTIONARYVAR
  5
102B
102
{ACAD_REACTORS
330
76
102
}
330
76
100
DictionaryVariables
280
     0
  1
1
  0
DICTIONARYVAR
  5
102A
102
{ACAD_REACTORS
330
76
102
}
330
76
100
DictionaryVariables
280
     0
  1
0
  0
DICTIONARYVAR
  5
1027
102
{ACAD_REACTORS
330
76
102
}
330
76
100
DictionaryVariables
280
     0
  1
0
  0
DICTIONARYVAR
  5
1028
102
{ACAD_REACTORS
330
76
102
}
330
76
100
DictionaryVariables
280
     0
  1
0
  0
DICTIONARYVAR
  5
1026
102
{ACAD_REACTORS
330
76
102
}
330
76
100
DictionaryVariables
280
     0
  1
2
  0
DICTIONARYVAR
  5
1025
102
{ACAD_REACTORS
330
76
102
}
330
76
100
DictionaryVariables
280
     0
  1
1
  0
DICTIONARYVAR
  5
1029
102
{ACAD_REACTORS
330
76
102
}
330
76
100
DictionaryVariables
280
     0
  1
127
  0
DICTIONARYVAR
  5
102D
102
{ACAD_REACTORS
330
76
102
}
330
76
100
DictionaryVariables
280
     0
  1
2
  0
DICTIONARY
  5
106B
330
6B
100
AcDbDictionary
280
     1
281
     1
  3
ACAD_XREC_ROUNDTRIP
360
106C
  0
DICTIONARY
  5
106F
330
73
100
AcDbDictionary
280
     1
281
     1
  3
ACAD_XREC_ROUNDTRIP
360
1070
  0
DICTIONARY
  5
106D
330
6F
100
AcDbDictionary
280
     1
281
     1
  3
ACAD_XREC_ROUNDTRIP
360
106E
  0
DICTIONARY
  5
1A
330
19
100
AcDbDictionary
280
     1
281
     1
  3
ACAD_XREC_ROUNDTRIP
360
1037
  3
BUMPTILE
360
1C
  3
DIFFUSETILE
360
1B
  3
OPACITYTILE
360
1F
  3
REFLECTIONTILE
360
1E
  3
REFRACTIONTILE
360
20
  3
SPECULARTILE
360
1D
  0
DICTIONARY
  5
12
330
11
100
AcDbDictionary
280
     1
281
     1
  3
ACAD_XREC_ROUNDTRIP
360
1036
  3
BUMPTILE
360
14
  3
DIFFUSETILE
360
13
  3
FBXASSET
360
F5
  3
OPACITYTILE
360
17
  3
REFLECTIONTILE
360
16
  3
REFRACTIONTILE
360
18
  3
SPECULARTILE
360
15
  0
DICTIONARY
  5
22
330
21
100
AcDbDictionary
280
     1
281
     1
  3
ACAD_XREC_ROUNDTRIP
360
1038
  3
BUMPTILE
360
24
  3
DIFFUSETILE
360
23
  3
FBXASSET
360
BA
  3
OPACITYTILE
360
27
  3
REFLECTIONTILE
360
26
  3
REFRACTIONTILE
360
28
  3
SPECULARTILE
360
25
  0
DICTIONARY
  5
1030
330
67
100
AcDbDictionary
280
     1
281
     1
  3
ACAD_XREC_ROUNDTRIP
360
1031
  0
DICTIONARY
  5
102E
330
65
100
AcDbDictionary
280
     1
281
     1
  3
ACAD_ROUNDTRIP_2008_TABLESTYLE_CELLSTYLEMAP
360
102F
  3
ACAD_XREC_ROUNDTRIP
360
1069
  0
DICTIONARY
  5
1043
330
2F
100
AcDbDictionary
280
     1
281
     1
  3
ACAD_XREC_ROUNDTRIP
360
1044
  0
DICTIONARY
  5
1041
330
2E
100
AcDbDictionary
280
     1
281
     1
  3
ACAD_XREC_ROUNDTRIP
360
1042
  0
DICTIONARY
  5
104F
330
35
100
AcDbDictionary
280
     1
281
     1
  3
ACAD_XREC_ROUNDTRIP
360
1050
  0
DICTIONARY
  5
1057
330
39
100
AcDbDictionary
280
     1
281
     1
  3
ACAD_XREC_ROUNDTRIP
360
1058
  0
DICTIONARY
  5
1049
330
32
100
AcDbDictionary
280
     1
281
     1
  3
ACAD_XREC_ROUNDTRIP
360
104A
  0
DICTIONARY
  5
104D
330
34
100
AcDbDictionary
280
     1
281
     1
  3
ACAD_XREC_ROUNDTRIP
360
104E
  0
DICTIONARY
  5
1067
330
41
100
AcDbDictionary
280
     1
281
     1
  3
ACAD_XREC_ROUNDTRIP
360
1068
  0
DICTIONARY
  5
1055
330
38
100
AcDbDictionary
280
     1
281
     1
  3
ACAD_XREC_ROUNDTRIP
360
1056
  0
DICTIONARY
  5
1039
330
2A
100
AcDbDictionary
280
     1
281
     1
  3
ACAD_XREC_ROUNDTRIP
360
103A
  0
DICTIONARY
  5
103B
330
2B
100
AcDbDictionary
280
     1
281
     1
  3
ACAD_XREC_ROUNDTRIP
360
103C
  0
DICTIONARY
  5
103D
330
2C
100
AcDbDictionary
280
     1
281
     1
  3
ACAD_XREC_ROUNDTRIP
360
103E
  0
DICTIONARY
  5
103F
330
2D
100
AcDbDictionary
280
     1
281
     1
  3
ACAD_XREC_ROUNDTRIP
360
1040
  0
DICTIONARY
  5
1047
330
31
100
AcDbDictionary
280
     1
281
     1
  3
ACAD_XREC_ROUNDTRIP
360
1048
  0
DICTIONARY
  5
1063
330
3F
100
AcDbDictionary
280
     1
281
     1
  3
ACAD_XREC_ROUNDTRIP
360
1064
  0
DICTIONARY
  5
1053
330
37
100
AcDbDictionary
280
     1
281
     1
  3
ACAD_XREC_ROUNDTRIP
360
1054
  0
DICTIONARY
  5
1065
330
40
100
AcDbDictionary
280
     1
281
     1
  3
ACAD_XREC_ROUNDTRIP
360
1066
  0
DICTIONARY
  5
104B
330
33
100
AcDbDictionary
280
     1
281
     1
  3
ACAD_XREC_ROUNDTRIP
360
104C
  0
DICTIONARY
  5
1061
330
3E
100
AcDbDictionary
280
     1
281
     1
  3
ACAD_XREC_ROUNDTRIP
360
1062
  0
DICTIONARY
  5
105F
330
3D
100
AcDbDictionary
280
     1
281
     1
  3
ACAD_XREC_ROUNDTRIP
360
1060
  0
DICTIONARY
  5
1059
330
3A
100
AcDbDictionary
280
     1
281
     1
  3
ACAD_XREC_ROUNDTRIP
360
105A
  0
DICTIONARY
  5
105B
330
3B
100
AcDbDictionary
280
     1
281
     1
  3
ACAD_XREC_ROUNDTRIP
360
105C
  0
DICTIONARY
  5
1051
330
36
100
AcDbDictionary
280
     1
281
     1
  3
ACAD_XREC_ROUNDTRIP
360
1052
  0
DICTIONARY
  5
1045
330
30
100
AcDbDictionary
280
     1
281
     1
  3
ACAD_XREC_ROUNDTRIP
360
1046
  0
DICTIONARY
  5
105D
330
3C
100
AcDbDictionary
280
     1
281
     1
  3
ACAD_XREC_ROUNDTRIP
360
105E
  0
XRECORD
  5
106C
102
{ACAD_REACTORS
330
106B
102
}
330
106B
100
AcDbXrecord
280
     1
102
SHADEPLOT
 70
     0
102
SHADEPLOTRESLEVEL
 70
     2
102
SHADEPLOTCUSTOMDPI
 70
   300
  0
XRECORD
  5
1070
102
{ACAD_REACTORS
330
106F
102
}
330
106F
100
AcDbXrecord
280
     1
102
SHADEPLOT
 70
     0
102
SHADEPLOTRESLEVEL
 70
     2
102
SHADEPLOTCUSTOMDPI
 70
   300
  0
XRECORD
  5
106E
102
{ACAD_REACTORS
330
106D
102
}
330
106D
100
AcDbXrecord
280
     1
102
SHADEPLOT
 70
     0
102
SHADEPLOTRESLEVEL
 70
     2
102
SHADEPLOTCUSTOMDPI
 70
   300
  0
XRECORD
  5
1037
102
{ACAD_REACTORS
330
1A
102
}
330
1A
100
AcDbXrecord
280
     1
102
MATERIAL
148
0.0
149
0.0
149
0.0
 93
        0
 94
      127
282
     0
 72
     0
 77
     0
171
     0
175
     0
179
     0
273
     0
  0
XRECORD
  5
1C
102
{ACAD_REACTORS
330
1A
102
}
330
1A
100
AcDbXrecord
280
     1
270
     1
271
     1
  0
XRECORD
  5
1B
102
{ACAD_REACTORS
330
1A
102
}
330
1A
100
AcDbXrecord
280
     1
270
     1
271
     1
  0
XRECORD
  5
1F
102
{ACAD_REACTORS
330
1A
102
}
330
1A
100
AcDbXrecord
280
     1
270
     1
271
     1
  0
XRECORD
  5
1E
102
{ACAD_REACTORS
330
1A
102
}
330
1A
100
AcDbXrecord
280
     1
270
     1
271
     1
  0
XRECORD
  5
20
102
{ACAD_REACTORS
330
1A
102
}
330
1A
100
AcDbXrecord
280
     1
270
     1
271
     1
  0
XRECORD
  5
1D
102
{ACAD_REACTORS
330
1A
102
}
330
1A
100
AcDbXrecord
280
     1
270
     1
271
     1
  0
XRECORD
  5
1036
102
{ACAD_REACTORS
330
12
102
}
330
12
100
AcDbXrecord
280
     1
102
MATERIAL
148
0.0
149
0.0
149
0.0
 93
        0
 94
      127
282
     0
 72
     0
 77
     0
171
     0
175
     0
179
     0
273
     0
  0
XRECORD
  5
14
102
{ACAD_REACTORS
330
12
102
}
330
12
100
AcDbXrecord
280
     1
270
     1
271
     1
  0
XRECORD
  5
13
102
{ACAD_REACTORS
330
12
102
}
330
12
100
AcDbXrecord
280
     1
270
     1
271
     1
  0
XRECORD
  5
F5
102
{ACAD_REACTORS
330
12
102
}
330
12
100
AcDbXrecord
280
     1
 70
     1
 90
1959938040
 71
     1
  1
D1F2648B-CFCD-4896-9AEC-1DD8ABF7E85F
311
504B03040A00000800006F5833403DEE336E79000000790000001B0000006175746F6465736B2D64657369676E2D7061636B6167652E786D6C3C3F786D6C2076657273696F6E3D22312E302220656E636F64696E673D227574662D3822203F3E3C666F726D6174733E3C666F726D61743E687474703A2F2F736368656D612E
311
6175746F6465736B2E636F6D2F64657369676E2D7061636B6167652F323030393C2F666F726D61743E3C2F666F726D6174733E504B03041400060808006F583340D486FD9CA0000000F4000000130000005B436F6E74656E745F54797065735D2E786D6C7D8EC10E82300C865F65E91D8A1E8C310C0EEA1BF002731658846E
311
D98AC1B77784ABF1D8FE5FBFBF75BBCE937A534CCEB38643598122B6FEE978D0B0485F9C41B54DDD7D022595594E1A469170414C76A4D9A4D207E29CF43ECE46F218070CC6BECC4078ACAA135ACF422C856C0E68EA1BF5669944DDD7BCDE7B1F8E415D77AECB980613C2E4AC91FC167A2B244592486606FC29C8FD7F045B9A
311
EF7053A7E60B504B03041400060808006F5833407A1D1D02EB0000007C01000008000000636F72652E786D6C8D90D18E832010457F85CC3B0ABAB5D6208DADEB17EC0F10A02E690523D0F4F3175B9BECBEEDD34CEEDC3333B9ECF8986EE8AE176F9C6D81660490B6D22963C71662B8E01AD091B3C5B9F0CB06C88A49B7B0CA
311
C0D9B8B8386F927436681B926A9DD29B28BCD70190BCA5A6052FBFF52432114372F86B360B7915A3CEE8BB4B708C46A1D711A3D23E73317A01DE0D9FE773590FB8DFD705FED8F53DEE4E5587697922C3BEDA7587A163F90A7316CCF4BE2F172D8256C00B420B4C28A6872F4A1B523625C5A46A0861F96AFF03C559FD138AC6
311
86B2D8DE7D611E384D8F3C079CE56B16A93C834A75CD8DFF00504B03041400060808006F58334055019EA25F0000007C00000007000000636E782E786D6C4DCB3B0E80201045D1AD90E915ED2CF8AC45050C11660C8261F98AB1B07AC9C97D42D718D865D3E909258CFD00CCE24AC6E326A164D74DC0B4128928FF32603847
311
2BA13128B1252AC747C6BAB984FC68F0B87FE8960A5C09FE86CFB69FBA01504B03041400060808006F583340D587B42B66010000020300000C0000006662782F636F72652E786D6C8D52ED8E8320107C15C27F04B4DFA134B63D9FE05E802AF54C151A04D3C7BFF5A3E9F5D2348D0992999DDDD951B1BB3535EAB46B2B6BB6
311
98470C236D725B54A6DCE2E0CF6485D14E0A67ADFF538691518DDEE21EC65294CE86EB04E5D6786D3CA0C6167A0255DB6A8F515EC3658BDBFC47372A52C143457B89AE2ABFA852473C021AEAA468BD0303681CD29F589E4F3741475C8A10AA6262AB02A655E74A3B2CD3ECEB70485619392E573199CD8F4792EE1729E1C99E
311
65CBC53C5D67A9A0BD580A5F357777B9D3CAEB02CB98F198304EF8FA9BF30D4B3609276CB1614CD0BEFC4914AEC587A250199FC493DD51D662C9C1C840FCDB1622F2A8551DF8A152D03E44780D093F070D8140C85E9DEAFB1E17803A9D7BEB66C014363CA84ED541C354868647D09185CE4303D8EC659FF84D9FF73DE0032A
311
538235E5E17A0ABE9F2EC6A9531457ED48E76FC858D7A8FA616EB4F8381F835ECA735B5BF7899A4EABD2294CDAFFBDF217504B03041400060808006F583340044E02F27E0000009D0000000B0000006662782F636E782E786D6C4DCCDF0A83201C86E15B91DFB9FDA399811A2DF33E625948A6C3E9D8E5AF46073BFAE0E1E3
311
65DD67B7E8ADC3CB78C7A1CC0A40DA3DFC6CDCCA21C50553409D60C1FBF87703E4A65D733819045B834FCF8B66BD4CC9C643AD71DB8554CAAA266AC4921615AE09A1B8974D8BC7F64E6FAA51C3504AC805CB7FA563CFB0F802504B03041400060808006F583340C013B0092C01000014020000310000006662782F38444432
311
343646452D443830322D343636382D414437392D4539423835463746434331442F636F72652E786D6C8D51CB6EC32010FC15C4293D6083E3103BC2446D9C7C417FC00192A2C460F1A8F2F985DA91DA5B2E2C9A9D991DEDB2FD63BC836FE5BCB6A683A4C0102823ACD4E6DAC1182EA88160CF99B336FCA1416086517530C390
311
B3ABB3715A20614D502624D458A91670F05E0508C43D7D3AE8C5971A8762882131FCAD9806711BAEAA20456A271E673EB81400CC43F20B79D3F7554D4F47D437B84235A50D7AEFB72D3AB61FCDE6B43D1D0EA467E52CE42C462D17B996298EBE68E55E35C962CE821E9FF18553435012F20A930A618248FB49C80EAF776B82
311
30DD61CCCA4CFF278A937C5114B509EB6A893BCB3CE4849573833369E3F9FE0CA31E937501E4792BAFC41BE4B8C015A664D35256CED4B480E449EBC5D307EBD28257B7736293CD6C4C6BCECA7CA3547E0F986ABE27FF01504B03041400060808006F583340FA194C6D4C01000033030000300000006662782F384444323436
311
46452D443830322D343636382D414437392D4539423835463746434331442F636E782E786D6CD593CD6E022114855F85B09F1FD498D6309874D127E8A25B06AE8A3230E1A7A96FDF8BA275E3A2CB6EC8E4DCC339375F18BEFD9E2CF982108D7703656D4F0938E5B571FB81E6B46B5E28D90A1EBC4F0F364A9C9C60A045A682
311
EF83CF739534EC64B609556BDCA98A01A2CF414144B9DC24D62B6931005C9351846904AD4193BB11BF7610701514C733490720EF6F9FC48F475029F2AEA408DE950EC1CB599B1E4C94282B631C68540798642B73F21AE2A9D532C996B5B7AE273BFD269172E156998321A57CA0E5A4A26ED42247DEE150F09802D2ABA6749E
311
810A39CFD62899107277315E3D8267E3D27A55BD06C10774B3F572B5C2B0CB4CF06426A80E154026D0542C7AB6687AD6B0D70FC636FD72B3644DBFDEF43DEF8A5DF0D17B5B2F610C043F13E55D0297A860BC2BE367F8AA8F681390B50FE73F804400B5F54AE79EF19FF97497F78DB802FE05E207504B03041400060808006F
311
583340D925DBF09B0500007B100000340000006662782F38444432343646452D443830322D343636382D414437392D4539423835463746434331442F6F626A656374732E786D6CAD575D8F9B3814FD2B887D0642929966560CD52469AAA83B6DD5A8D53E8C14396018EF980FD9669AE9AFDF633004D2649A5DF505B0B1AFEF
311
3DF7DC0F076FF719B79EA990ACC86F6DDF1DD916CDA32266797A6B572A7166B6F5360C4451A8DE32DBCA49466F6D3D6D87412A8AAA3453314D48C5D5D1EC6AFEB725239A53DB8A3891F2D696D123CD884B2A55C4543EB93151C44D93BDEBBBCDC2A1D85490F2F148684904CD1534C57C0E2956A3943F1C8E6C2F0C3CFD3F0C
311
F4D3AC9A9C5FE5D5F60CCF67B954248F7E3AEC48CCC49F2EDF8DAF6E9CABE974E24CAFC7BE335FCD978EFF66325A5C2F163777EF6E70B05402928C26822676F81ED80816055EF32B0C2A96ABC9D82C310EF2047D66DA537638B6FCC06BD674D619234FA91F15794EA31A2BA051DB6744C7B4A4790C9F332AA1590FA1D170E8
311
6B1C7BBF277A6C8EEC4F5F86407F474F50AB7BFBEE6B5AECFE8109F21206094935031B2C8DA10D574707847745C1CD3F26AD8C282A18E116673B41C48B1D62A95E120603319AC9424783B6C00EE185E6F7902E08A35FF3FC949649C5B9A6B11DD651B045AC50256BCDD80F2A0EDAF791814EF09566C3CC18A45E4A6A87370D
311
4566476C6A80B4124E52B81C66EA9D93F191A10B1DA7EBA51D7E58EDF61B1DBBA70F2F455152A1347D40ADD671ED5BA36474F22FF29CDE601FA97200E50B90FF88503FA802BF09B69FEEA7E61425482E934264F08D35B29C111E23CBAF9FFABBF71578DDE6A1F7CEE109676BA87E039E431BFABEECC11906CF207C2126C6B4
311
4D4438D2C63DCB01902689C50B4C210F27BBBD1DAE91E59095B18BF0D087C950F7199F8167C42051D427F5DE39B03C4A8B172468C05633126A34E4370A1EFCF4533AAB0F36CBCEC17BF55BE87AB7DC7CD854222111BD3731BDA409CB9942893BF0A6AFD000F381454FF4E57B216218FA33DE9B3EDE99394A026D8DB9063E6D
311
73BA1E1C4E1E1C10615F5AE87413FCE20418A10B6B4FFE3D9311E59CE4B4A8DA735FAD1F281B0DC43AD83593BB0273282C204DF3E7280651A423C14A0D6257ADBAA4E99EB1EEEBFA23186987F397BFC84B3F7BED0EB9372A7821B6BB976D93964E42FD6DC86D8381A7A580EE7590B4F16F40DFC62C492A89247802D76FEB45
311
DF773A2D2045B4529B6899C27E04171186B4AD5C546B4150498B7CCB50371177270FE8CB07A48601B5C0731A4BCA932DE3BCCAB609E3A846DB8C9467E0F8FFFAEFAAACDC92ACA8727546F640755487A1EE03F6CAEF44458F76B8A9DFCE1CB937A6F11932E85A7202AB816B97FE6A7C3D9DCD9DC56AB174A6B39B6B072DD3C2
311
F197CBD9DD7CF5E6DDEC6AD5FAA9D1240CDA52D38F687809A52DA80433EEFBBA46FC98246087F744C987F74D78B6EFAF6B17BD70E0610FEA65B7F12E7E46DF47E35F0B38AC3C29689D959C66345744C7D0BDFEE05F08FA8C8132CDFC3A2329BD40CAA7F79B23633073C1BECF3ADEE9F7A3BD6676A103F2A410F55865BB9C30
311
7EB4316D9074CB3C35F8B53EE9DE4DA169877A641C83CE54169CC5C883B195D222A30AD9F0822224322A41BD7E4F1F9BBBC705BB9F9B0E51911DA7AD268F044D3297080B50AB8AD470DEFA034D9DEEAB6E6D945BF7090F93296C0B9CB9B5D1A42B1651E9EE50A0752B540B0797FA9D3C1A7F92A71CBD76B3A91B77BB343683
311
92DC2DB9A47F32763529DC18803452A26F404304EFD4CA8441AD9BF91FFD27C35B752CA2F0B9AB5467CB61A233A63E0621DA18656E0B68629ECCD17B04EAEB66F96EBD6680C845B7AC5749D048751411697D53D0FA1995EE969F3D7428D6FA9355F22A852F2F97E4080A32573AC0C122B0C2C82C890255177F3E7C16056EB2
311
99B562A0C0C3A2C8B22237833B7313B6368FB8D7C60F480B545F48E4C378E48F1FEA8B80B99B6C77445297C4F20913F0A9601DC403C78391CD6D1115A8F9D1ADF3B4138EB8B95E5AA6A44D21D410A59F55352C6839726A217AF46552C74A7F41F9EA5DC0AB974205812E3EFC17504B03041400060800006F58334000000000
311
0000000000000000350000006662782F38444432343646452D443830322D343636382D414437392D4539423835463746434331442F76657274696365732E62696E504B03041400060808006F583340F270F1330600000004000000360000006662782F38444432343646452D443830322D343636382D414437392D45394238
311
35463746434331442F747269616E676C65732E62696E636660600000504B03041400060800006F583340000000000000000000000000370000006662782F38444432343646452D443830322D343636382D414437392D4539423835463746434331442F617474726962757465732E62696E504B03041400060808006F583340
311
D5987DFC8F00000041010000360000006662782F38444432343646452D443830322D343636382D414437392D4539423835463746434331442F6469726563746F72792E786D6C858F410EC2201045AF4266AF15DDB800BA74E7C21B903225242D6328188F2FA5C4183471359997F9FF81E89FF3C41E1816475E02DF1F80A11F
311
C8386F25A438EECEC07A250251FC3803E6F58C12560C4AD840E95E91C151A72936F496F35732D860FE635F62C8F2DA16B505C545B74125BAA2FA9E05D7CC053D063734D5C7665FD55B6B8D15D5E9BFEAFD8490FFA45E504B03041400060808006F58334012F74033FD000000A00100003B0000006662782F38444432343646
311
452D443830322D343636382D414437392D4539423835463746434331442F7265736F75726365732F636F72652E786D6C8D50596E833010BD0A9A7F830D0D21917144164ED00B5866925A0976E4A5EAF16B072AB57FFD9919BD45F3F4F8E16B7E149FE8BCB6A607565228D0283B6973EB21862BE9A03808EEAC0DBF64501839
311
630F1906C16FCEC6E70A296B029A905063275C41E93D0628D4231D3D78F581B32C650C49E1EFE553AABBBC61C9CA44279DE03EB814A0589EE409C2A1B7D129F4BC5A58C163D4D3AAD153FAA9AF1A1D8861BC9C4E4D7721E76D5793B7CDF94C86633B10D61CE9B86D37C36E1C7895CD82073DFF64540E65C009444D594D2823
311
6CF7CED89E36FB8611DAEE29E55596FF31C5E7F44F53D42634F51A77B179102C0579118257B9AFB45E65A69DBB15DF504B010214000A00000800006F5833403DEE336E79000000790000001B00000000000000000000000000000000006175746F6465736B2D64657369676E2D7061636B6167652E786D6C504B0102140014
311
00060808006F583340D486FD9CA0000000F40000001300000000000000000000000000B20000005B436F6E74656E745F54797065735D2E786D6C504B010214001400060808006F5833407A1D1D02EB0000007C010000080000000000000000000000000083010000636F72652E786D6C504B010214001400060808006F5833
311
4055019EA25F0000007C000000070000000000000000000000000094020000636E782E786D6C504B010214001400060808006F583340D587B42B66010000020300000C00000000000000000000000000180300006662782F636F72652E786D6C504B010214001400060808006F583340044E02F27E0000009D0000000B0000
311
0000000000000000000000A80400006662782F636E782E786D6C504B010214001400060808006F583340C013B0092C0100001402000031000000000000000000000000004F0500006662782F38444432343646452D443830322D343636382D414437392D4539423835463746434331442F636F72652E786D6C504B01021400
311
1400060808006F583340FA194C6D4C010000330300003000000000000000000000000000CA0600006662782F38444432343646452D443830322D343636382D414437392D4539423835463746434331442F636E782E786D6C504B010214001400060808006F583340D925DBF09B0500007B1000003400000000000000000000
311
000000640800006662782F38444432343646452D443830322D343636382D414437392D4539423835463746434331442F6F626A656374732E786D6C504B010214001400060800006F5833400000000000000000000000003500000000000000000000000000510E00006662782F38444432343646452D443830322D34363638
311
2D414437392D4539423835463746434331442F76657274696365732E62696E504B010214001400060808006F583340F270F13306000000040000003600000000000000000000000000A40E00006662782F38444432343646452D443830322D343636382D414437392D4539423835463746434331442F747269616E676C6573
311
2E62696E504B010214001400060800006F5833400000000000000000000000003700000000000000000000000000FE0E00006662782F38444432343646452D443830322D343636382D414437392D4539423835463746434331442F617474726962757465732E62696E504B010214001400060808006F583340D5987DFC8F00
311
0000410100003600000000000000000000000000530F00006662782F38444432343646452D443830322D343636382D414437392D4539423835463746434331442F6469726563746F72792E786D6C504B010214001400060808006F58334012F74033FD000000A00100003B0000000000000000000000000036100000666278
311
2F38444432343646452D443830322D343636382D414437392D4539423835463746434331442F7265736F75726365732F636F72652E786D6C504B0506000000000E000E00800400008C1100000000
310
504B03040A00000800006F5833403DEE336E79000000790000001B0000006175746F6465736B2D64657369676E2D7061636B6167652E786D6C3C3F786D6C2076657273696F6E3D22312E302220656E636F64696E673D227574662D3822203F3E3C666F726D6174733E3C666F726D61743E687474703A2F2F736368656D612E
310
6175746F6465736B2E636F6D2F64657369676E2D7061636B6167652F323030393C2F666F726D61743E3C2F666F726D6174733E504B03041400060808006F583340D486FD9CA0000000F4000000130000005B436F6E74656E745F54797065735D2E786D6C7D8EC10E82300C865F65E91D8A1E8C310C0EEA1BF002731658846E
310
D98AC1B77784ABF1D8FE5FBFBF75BBCE937A534CCEB38643598122B6FEE978D0B0485F9C41B54DDD7D022595594E1A469170414C76A4D9A4D207E29CF43ECE46F218070CC6BECC4078ACAA135ACF422C856C0E68EA1BF5669944DDD7BCDE7B1F8E415D77AECB980613C2E4AC91FC167A2B244592486606FC29C8FD7F045B9A
310
EF7053A7E60B504B03041400060808006F5833405EC026B3ED0000007C01000008000000636F72652E786D6C7590416E83301045AF62CDDE604380808C2342DB13F40296ED502BC146D8AE7AFC9A8448CDA2AB19FDF96F66F4D9E967BEA16FBD7AE36C0F342380B4954E193BF510C3051F019D385B9D0B7F6C80AC98750F9B
310
0C9C4DAB8BCB2E496783B621A9D629BD8BC27B1D00C95B6A7AF0F24BCF2213312487BF668B905731E98C3EBB04C768147A1C312AED3317A357E06353B4C7B13AE0E3B91AF0A11E6B3C34438BCF1569DEC9C738B66F05CB3798B360E6E77DB96A11B4025E105A6042316D3F29ED48D9950493BA2384E59BFD058A8BFA0FA2AF
310
50343694C5FEEE03F3C0697AE43EE02CDFB248E51E54AA5B6EFC17504B03041400060808006F58334055019EA25F0000007C00000007000000636E782E786D6C4DCB3B0E80201045D1AD90E915ED2CF8AC45050C11660C8261F98AB1B07AC9C97D42D718D865D3E909258CFD00CCE24AC6E326A164D74DC0B4128928FF3260
310
38472BA13128B1252AC747C6BAB984FC68F0B87FE8960A5C09FE86CFB69FBA01504B03041400060808006F583340961AEB1C69010000020300000C0000006662782F636F72652E786D6C8D525B6E833010BC8AE57F639BBC23E328A1ED097A01071C8A02363236CAF1BB3C229A2A8D2A2463CDECECCE0E88C3ADAE50A75D5B
310
5A93601E318CB4C96C5E9A22C1C15FC816A38314CE5AFFA30C23A36A9DE01EC65214CE866682326BBC361E5063733D81AA6DB5C728ABE092E036FBD2B58A54F050D15EA346655755E8884740439D14AD7760008D43FA13CBCBF926E8884B1142994F6C99C3B4F2526A8765BA8977DB74B524DBD3EA4896EB744D8E9BE38E9C
310
566CF3CE3ED274F7160BDA8BA5F0657D779739ADBCCEB18C198F09E384EF3E39DFB3C57EC1085BEF1913B42F7F108526FF4BC41F45A1347E114F7647598B25072303F16B5B88C8A35675E0874A41FB10E13524FC18340402217B75AEEE7B5C01EA74E6AD5B0293DB30539DAA8286A90C0D8FA0230B9D8706B0D9D33EF18B3E
310
AF7BC00754A6006BCAC3F51C7C3F5D8C53A7281AED48E76FC85857AB6A36375A9CCF79D05379662BEBFEA3A6D3AA740A93F67FAFFC06504B03041400060808006F58334063798B577E0000009D0000000B0000006662782F636E782E786D6C4DCCD10A83201886E15B91FFDC655B4B053558E97DC4B290990EA76397BF1A1D
310
ECE883878F57749FD5A3B74D2F178384FA4400D9708F930B8B849267CC00754AA418F3DF0D5018572B6167506249B13C0F9AEC3C169F37F52E3C0E24B4A55C9F6F9890D6E0E6AA7BCC0DD75833464D33F4437D61502951FD4ADBEE61F505504B03041400060808006F583340998A68AA2E0100001402000031000000666278
310
2F30373637394532422D303036462D343545432D394639452D4538383746344443443133382F636F72652E786D6C8D514B6EC32014BC0A62952EB0C176891D612235714ED00B5020294A0C169F2AC72FAE1DA95954EA8687E6CDCC1B786C7F1F6FE04BFB609CED21293004DA4AA78CBDF430C5336A21D873E69D8BBF681058
310
31EA1ECE30E4ECE25D9A56483A1BB58D19B54EE9151421E80881BCE54B0F83FCD4A328448A9911AEC524E4555C74418ADCCE3CCE42F439005886CC27E4784BB7DD50BD218CE90935AFC30175A76E4043DB6E4FCDF1702475CBCA45C8594A46AD72A3721C7336DAFFD764167316CDF8882FBD16512BC82B4C2A840922DD3B21
310
3B5CEF6A8C30DD61CCCA99FE244A93FA4B449E45C9D858576BDC45162027AC5C1A9C29973E6E8F30FA3E391FC13C6F13B47CC9AF2A7045705B51CACA859A3F207BD266F50CD1F9FCC19BEB4766D7AB316D382BE71DE5F2B3C05CE77DF26F504B03041400060808006F5833409DAB070B540100003303000030000000666278
310
2F30373637394532422D303036462D343545432D394639452D4538383746344443443133382F636E782E786D6CBD93CD6EC32010845F0571F70F7164A51126520F7D821E7AC5B04969305880ABE6EDBB2424CD25874A552FC89A1D66569F30DF7D4D967C4288C6BB81B2BAA5049CF2DAB8C34097B4AF3694EC040FDEA73B1B
310
254E4E30D02C53C10FC12F739134ECE56213AAD6B863110344BF040511E57C9358AFA4C50070D582224C23680D9ADC8CF8B58780ABA0389E487A07F2F2FC46FCF8012A45DEE414C19BDC21783E4BD39D891265658C038DEA1D2659CB25790DF1586B9964CDEA6BD7839D7E9248BE70AD5C8221B97CA0F9A4A26C542347DEE0
310
50F09802D22BA6749A810A39CFD62899107273365E3C822FC6A57E5DBC06C1077477AB7EB3C1B0F34CF06426280E154026D054AC5AB6AA5A56B1A757C6B66DB7EDDAAAEDB76DCB9B6C177CF4DE964B1803C1CF447997C0252A186FF2F811BEE223DA0464EDC3E91720114069BDD0B965FC251FD677EBF53FF269CEEF1B7105
310
FC0BC437504B03041400060808006F5833408F7480D35A070000941B0000340000006662782F30373637394532422D303036462D343545432D394639452D4538383746344443443133382F6F626A656374732E786D6CED59DD739B3810FF5718EED9D8C44E9ADC103A89DD743CBDB49DFADAB907CF3032C8441721184924F1
310
FDF5B7FA00033109BEE6DEFA6003425AEDFEF6534BF0FE29A3CE03E682E4ECD2F5BD89EB6016E70961E9A55BCAEDE8DC75DE8701CF73D998E63A0C65F8D255C36E18A43C2F0B3B94E02D2AA9EC8CDE5CFFE5881833EC3A3145425CBA22BEC319F25029F3048B7B2F411279E9F6C9F33D33B14D36E5A8B8EB102D10C74C02A7
310
30CE808A6398F2DB8F13771C0663F53E0CD4BF9D351D346BD63F6BACA56E7349989088C5CF58EA90990E6269EACF161F4E4E2F46A7B3D974343B3BF147D737D78B91FF6E3A999FCDE717571F2E80BD4D9E532B53820BCC12D0DFCE0DFD60ACDED4A25B040E711DE78CE15803095069B1BA040916B05503BE49FBD15712355E
310
6B091BCF33F5DEB2D0189EB6A9F4CD1A06448B2E0862B7AB24AEAE4DF9F2CDDF20B81862945C6009DC0AC941BB161E0E5EE18693606C46C360B3D705114E8624E6045187920D471C940253D59430300B2C19E51C1C48394A02AD39F3BA6D5BE099AFBBCE212EB725A5CA33DC503B5604EE87A5D09C917F30DF73DF44067802
310
694BC2E4B9E552EE0AEC8617C1580F8681BA4C4FEC4B03A4B3A528151A11F3B623E85CB9FE72E1869F6E364F2B150E0E6F5EF0BCC05C2AA3537AD47C8121DBAB42C96EEB0FD29C5A00C21850EDCA3D28DF00F9CF103DF6AC80DE38799A3DCDEC5CC91113DB9C67A01B67E28C26F037717CFDAFEE1B77C1B85EDCD65E1F9EE0
310
A60AAAF39FC7B32D83C6CAF2DF80330C1EC0E0733EB5AF5631A260CFB7840140CA481C9AC31084F6EDE6C90D97103821D0C32A44431F4406761FE036185B327BAD54EE65BD8E01A2768FE91025016CDA22818D1E3D7D84ECC149BC575353C43E784FDFC45CAF16AB4FAB926F518C6FAD4F2FF0963022216B1E66A885794BA2
310
7BBC7BCC7902823EC77BD5C43BB35B09405B61AE804F2B10D4C37EE7D60631AC4B73156E825776002154AE6ED0BF2522C6942286F3B2DAB78E6ECA506B8FB735831B9E1888A7271D13E6F881A8AA029C663FA3C528E4FD98934281E8861F8D6475D0F47AA4FBBEFC0C1659CFEF99B564107A19A27FEAA0750087966557485B
310
206A8137FB701EE734E7D166179948E7422D016CB4BDE5478B28C47AA32445053C48FB5D155252236D9490EDB61410570FB0F863396F9AC3C49BFAA74EF3BFE38C3388B6E0BB885BBFEBEC11910CA538DAA2A46FBBE66E356DA149F690E6784B412EF240E42E42329A24383D069AA3885FBC29F594E642108605E4AB83E037
310
D1987810488C362B9695563B4013116558227A0C028A4C0FB83AEDE81A3786D2E1751E6BEB7D49634DA2FF93457004B564CE2202A528E4905719F7BD5388216D740DCA1D7CC1DA2ADA5A0C5A420911EFA2474CD23B790CEA867C0FEE311C494A19E5058AC1AC07907DE62B4AA91DDE3728BE57F9238A4BFA56062230DD4684
310
D2328BE047189C3C86B8761D985E44A141DCC43E893328CA902CF9904DCE4E27CFF631354337043636DA120A613BCA50D1837A2B20EA7AC4A9C1B7D47B94BA29B32242595EB24186E24DBBDE64C977D5AAC80EE457958A503656842DC130204CD659B58AD960EA3AB0821BE940B58B04CA0A6A4E61AF241EBFF6264DB97703
310
6EFDF46D37C8A0F0EBD15E33A2CE2A182C8FADC2403C2219DFB9E14A5F47D7507F2738D9A7FAAAD66C568080988AE425275645DF9750DED81ACD0D6F9114EB8F26EB56D7EF4B0FBA1FC118D640ED522F5C2AA033CC245295C9ADBAA1DF1084E0160D33BE5439F5182A5749A2AB46446F489F3A5B65446BD38C78C51D667906
310
3FB6262CA66582D72811F7D1ADA4D18A28D6AD945E462A8C5F14F0CBC755071E181920D25755E0E1C7CE5A3B3A57E5D24122F2AECC360C1108822DD152A31BAF60A9D548A5E5FAAACE14507781815915CF7E9D2C9AED885F278BD41AC64F9D2CAE777FA05DB32FD248E7B1B2EBA38E01757E5254DEE218A0DB0E35D53A8B98
310
646EE5B7CE144150ACA2FCE06AAC0A1A86601FC7FF396BF76541B35D87FFE3B2B6FFACE2382AABB426AB2ED581CA75D9CC610BFFE6E46C767E3D9ADFCC17A3D9F9C5D9087AB2F391BF589C5F5DDFBCFB707E7A53A3A91D350CEA60A673173C9BA0560DAB278B017465454E4902A7F9C44931C47C0967FA01ED739E6101C9B3
310
D9EC4E6C537EC0EA07D3E794684371C5C91D8206311590D601A33296ED71E737684D4A38685FBAD034F2EEE1CF5AA5EB40E6B974A15520498C85B78136936AE869E2907275EEB7C4001FC4529512CDA2FAB95EA5B06985FF7ACA903460E56AF530A0702BA0FBD5EA5068DE2C4FF1518257EC3848C2EDA69450AD1959F603B5
310
307A9BBDFA8D6C94B07BBBF513B8EECB62F99E9ED34264D02783178DC0501D49C453DDEF568C5996AE165FC7D06773965F9C829629E87238A511C760CCA52AA8C08AC02A2CCD024930D5F9EFEBAF3C874F3C99A3ABA2F53CCFB29CD9872B388F25F089C859DDC1079F640D6503566D75B13E99F8276BDDCEB61DF6688304F6
310
543D04035519A144E8181B58E4B3D6946D5C8E95123AD3970BC7864F6803180B7AD6DD359FB71CF01EF52145F98AF6F04ACE173BDA633D15AC81432F3AFC17504B03041400060800006F583340000000000000000000000000350000006662782F30373637394532422D303036462D343545432D394639452D453838374634
310
4443443133382F76657274696365732E62696E504B03041400060808006F583340F270F1330600000004000000360000006662782F30373637394532422D303036462D343545432D394639452D4538383746344443443133382F747269616E676C65732E62696E636660600000504B03041400060800006F58334000000000
310
0000000000000000370000006662782F30373637394532422D303036462D343545432D394639452D4538383746344443443133382F617474726962757465732E62696E504B03041400060808006F583340D5987DFC8F00000041010000360000006662782F30373637394532422D303036462D343545432D394639452D4538
310
383746344443443133382F6469726563746F72792E786D6C858F410EC2201045AF4266AF15DDB800BA74E7C21B903225242D6328188F2FA5C4183471359997F9FF81E89FF3C41E1816475E02DF1F80A11FC8386F25A438EECEC07A250251FC3803E6F58C12560C4AD840E95E91C151A72936F496F35732D860FE635F62C8F2
310
DA16B505C545B74125BAA2FA9E05D7CC053D063734D5C7665FD55B6B8D15D5E9BFEAFD8490FFA45E504B03041400060808006F583340FDD2E9DEFD000000A00100003B0000006662782F30373637394532422D303036462D343545432D394639452D4538383746344443443133382F7265736F75726365732F636F72652E78
310
6D6C8D504B6E833010BD0A9ABDC1862684C83822B43D412F6099496225D8C89FAAC7AF1DA8D4EEBA9919BD8FE6E9F1D3D7FC283ED1796D4D0FACA450A05176D2E6DA430C177280E224B8B336FC924161E48C3D641804BF3A1B970D52D6043421A1C64EB881D27B0C50A8473A7AF0EA86B32C650C49E1EFE522D55D5EB16465
310
A2934E701F5C0A50AC4FF204E1D0DBE8147A5EADACE031EA69D3E829FDD4178D0EC4D8D6DD61DC35E470DE0DE4653FEEC9D00E1D39EF68FB46DFC7B17BAD7995CD82073DFF64540E65C009444D594D2823ACFB60EC489B634309DD1F29E55596FF31C565FAA7296A139A7A8BBBDA3C0896823C09C1ABDC575ACF32D3CEDD8A
310
6F504B010214000A00000800006F5833403DEE336E79000000790000001B00000000000000000000000000000000006175746F6465736B2D64657369676E2D7061636B6167652E786D6C504B010214001400060808006F583340D486FD9CA0000000F40000001300000000000000000000000000B20000005B436F6E74656E
310
745F54797065735D2E786D6C504B010214001400060808006F5833405EC026B3ED0000007C010000080000000000000000000000000083010000636F72652E786D6C504B010214001400060808006F58334055019EA25F0000007C000000070000000000000000000000000096020000636E782E786D6C504B010214001400
310
060808006F583340961AEB1C69010000020300000C000000000000000000000000001A0300006662782F636F72652E786D6C504B010214001400060808006F58334063798B577E0000009D0000000B00000000000000000000000000AD0400006662782F636E782E786D6C504B010214001400060808006F583340998A68AA
310
2E010000140200003100000000000000000000000000540500006662782F30373637394532422D303036462D343545432D394639452D4538383746344443443133382F636F72652E786D6C504B010214001400060808006F5833409DAB070B54010000330300003000000000000000000000000000D10600006662782F3037
310
3637394532422D303036462D343545432D394639452D4538383746344443443133382F636E782E786D6C504B010214001400060808006F5833408F7480D35A070000941B00003400000000000000000000000000730800006662782F30373637394532422D303036462D343545432D394639452D4538383746344443443133
310
382F6F626A656374732E786D6C504B010214001400060800006F58334000000000000000000000000035000000000000000000000000001F1000006662782F30373637394532422D303036462D343545432D394639452D4538383746344443443133382F76657274696365732E62696E504B010214001400060808006F5833
310
40F270F13306000000040000003600000000000000000000000000721000006662782F30373637394532422D303036462D343545432D394639452D4538383746344443443133382F747269616E676C65732E62696E504B010214001400060800006F5833400000000000000000000000003700000000000000000000000000
310
CC1000006662782F30373637394532422D303036462D343545432D394639452D4538383746344443443133382F617474726962757465732E62696E504B010214001400060808006F583340D5987DFC8F000000410100003600000000000000000000000000211100006662782F30373637394532422D303036462D34354543
310
2D394639452D4538383746344443443133382F6469726563746F72792E786D6C504B010214001400060808006F583340FDD2E9DEFD000000A00100003B00000000000000000000000000041200006662782F30373637394532422D303036462D343545432D394639452D4538383746344443443133382F7265736F75726365
310
732F636F72652E786D6C504B0506000000000E000E00800400005A1300000000
  0
XRECORD
  5
17
102
{ACAD_REACTORS
330
12
102
}
330
12
100
AcDbXrecord
280
     1
270
     1
271
     1
  0
XRECORD
  5
16
102
{ACAD_REACTORS
330
12
102
}
330
12
100
AcDbXrecord
280
     1
270
     1
271
     1
  0
XRECORD
  5
18
102
{ACAD_REACTORS
330
12
102
}
330
12
100
AcDbXrecord
280
     1
270
     1
271
     1
  0
XRECORD
  5
15
102
{ACAD_REACTORS
330
12
102
}
330
12
100
AcDbXrecord
280
     1
270
     1
271
     1
  0
XRECORD
  5
1038
102
{ACAD_REACTORS
330
22
102
}
330
22
100
AcDbXrecord
280
     1
102
MATERIAL
148
0.0
149
0.0
149
0.0
 93
        0
 94
      127
282
     0
 72
     0
 77
     0
171
     0
175
     0
179
     0
273
     0
  0
XRECORD
  5
24
102
{ACAD_REACTORS
330
22
102
}
330
22
100
AcDbXrecord
280
     1
270
     1
271
     1
  0
XRECORD
  5
23
102
{ACAD_REACTORS
330
22
102
}
330
22
100
AcDbXrecord
280
     1
270
     1
271
     1
  0
XRECORD
  5
BA
102
{ACAD_REACTORS
330
22
102
}
330
22
100
AcDbXrecord
280
     1
 70
     1
 90
1959938040
 71
     1
  1
4D67762E-A826-4652-A120-68933C23A767
311
504B03040A00000800006F5833403DEE336E79000000790000001B0000006175746F6465736B2D64657369676E2D7061636B6167652E786D6C3C3F786D6C2076657273696F6E3D22312E302220656E636F64696E673D227574662D3822203F3E3C666F726D6174733E3C666F726D61743E687474703A2F2F736368656D612E
311
6175746F6465736B2E636F6D2F64657369676E2D7061636B6167652F323030393C2F666F726D61743E3C2F666F726D6174733E504B03041400060808006F583340D486FD9CA0000000F4000000130000005B436F6E74656E745F54797065735D2E786D6C7D8EC10E82300C865F65E91D8A1E8C310C0EEA1BF002731658846E
311
D98AC1B77784ABF1D8FE5FBFBF75BBCE937A534CCEB38643598122B6FEE978D0B0485F9C41B54DDD7D022595594E1A469170414C76A4D9A4D207E29CF43ECE46F218070CC6BECC4078ACAA135ACF422C856C0E68EA1BF5669944DDD7BCDE7B1F8E415D77AECB980613C2E4AC91FC167A2B244592486606FC29C8FD7F045B9A
311
EF7053A7E60B504B03041400060808006F58334087674687E90000007C01000008000000636F72652E786D6C8D90DD6EC3200C855F05F99E0427699744846A5DF3067B010434456D200A30EDF147FA236D77BBB2F5F91CDB3AFCF03DDFC8975983F56E002C1810E394D7D64D03A478A62D9083E0ABF7F1970C8893B31960C3
311
20F8B4FAB43C91F22E1A1733755E9B279421980844DD723340501733CB42A69815E15A2C525DE5640A7C75D99C92D5E471C4EABCCF9EAD5941BCE169DC354D474FED88B439EE186D8F1F8C8E4DD765BCC7B67EE7E566163CDAF9755FAD4646A341540C2BCA9062F789D8B3BAAF1965FB9E315E6EF23FA6B4E87F9A9275B1AE
311
9EEF3E6C0104E647EE03C1CB2D8B5CEE41E5BAE5267E00504B03041400060808006F58334055019EA25F0000007C00000007000000636E782E786D6C4DCB3B0E80201045D1AD90E915ED2CF8AC45050C11660C8261F98AB1B07AC9C97D42D718D865D3E909258CFD00CCE24AC6E326A164D74DC0B4128928FF326038472BA1
311
3128B1252AC747C6BAB984FC68F0B87FE8960A5C09FE86CFB69FBA01504B03041400060808006F583340C7C1E94464010000020300000C0000006662782F636F72652E786D6C8D52D18E823010FC95A6EFA5ADA007A6D69CA77F703F50A1728DD092D2123FFF16C1785E8C3124A599D9D99D1D10DB4BDBA041FBDE38BBC13C
311
6118695BBACAD87A836338911CA3AD14DEB9F0A70C23AB5ABDC1238CA5A8BD8BDD0C95CE066D03A0D6557A0655DFEB8051D9C06583FBF247B72A513140457F4E3A559E55AD139E000D7552F4C18301340D194F2C4FC78BA0132E458CA69A5953C1347332DA63F9C1F787659615649F1F38C9764B46F2DD172387AC28005EF1
311
3CFD1474144B114C7B73577AAD82AEB05C30BE208C135E7C73BE66E93A6584ADD68C093A963F886257BD298AC6867431DB9D643D961C8C5C897FDB424401F56A003F540A3A8608AF6BC28F414320107250C7E6B6C719A04197C1F90C98CAC53B35A8266A98CAD0F5117462A1F3B5016CF6B4CFE2459FD73DE0032A5B833515
311
E07A8C619C2EA6A973149DF6640817649D6F5573373759BC9FF7414FE5A56B9C7F474DE755E91C261DFF5EF90B504B03041400060808006F58334024ABDFBD7D0000009D0000000B0000006662782F636E782E786D6C4DCCD10A83201886E15B91FFDCA56CB90435D85FDD472C0B99E9703A76F9ABD1C18E3E78F87855FB59
311
3D79DBF4723168E02706C4867B9C5C5834943CD306486B548A31FFDD808471B51A7606A39614CBF3A0C9CE63F17953EFC2E3408642D62805E57D3FD00B36486FD8D574101DC32B6712C5192AA3AA5F69DB3D6CBE504B03041400060808006F583340ED2A10612B01000014020000310000006662782F30433639354339362D
311
314545462D344338432D424344352D4636443043373130394336332F636F72652E786D6C8D514B6EC32014BC0A62952EB0C14E681C6122952427E8058821294A0C169F2AC72FD48ED4EEB2E1A17933F3061EDB3FC63BF8D63E18677B482A0C81B68353C65E7B98E2056D21D873E69D8B7F68105839EA1E16187276F52E4D0B
311
34381BB58D19B54EE9059421E808C170CF971E86E14B8FB292296646B855931C6EF2AA2B52E576E67116A2CF01C03CA49C906341BB8DE82822C7E309ADC556A00F71D8A0133D60F14E702768CBEA59C8594A462D72A3721C7331DABF6A52C49C45333EE30F5ECBA815E40D260DC20491EE93901D6E772D4698EE306675A1FF
311
13A549BD284AC6C6B659E2CEB2003961F5DCE04CB974BE3FC3E8C7E47C0465DE2AE8E12DBFAAC20D6E3BBC7D67F54CCD1F903DE97AF10CD1F9FCC1ABDB39B3C96636A66BCEEAB2A35C7E17986BD927FF01504B03041400060808006F583340FB0CC81C4C01000033030000300000006662782F30433639354339362D314545
311
462D344338432D424344352D4636443043373130394336332F636E782E786D6CD593CD6E022114855F85B09F1950635AC360D2459FA08B6E11AE96CAC0849FA6BE7D2F8AD68D8B2EBB2193730FE7DC7C61C4F67B72E40B62B2C18F94F78C12F03A18EB0F232D79DF3D51B295228690EF6C947835C148AB4CA538C450E62619
311
D8ABE232AACEFA631323A450A2868472BD495CD0CA6100F8AEA008D30E8C01436E46FCDA43C45550DC9D48FE00F2FAF24EC2EE13744E62A829520CB5438A7AB6A63B1325DAA994469AF4074CAA57250703E9D81B9555CFFB6BD7839D7E9348BD70AD2CD1925A3ED27A52D936EA91A318702845CA11E935533ECD40A59A6767
311
B5CA0879381B2F1E298AF579BD6A5E8BE023BAF97AB95A61D8792645B61334878EA032182A178C2F3AC63BFEFCC6F9862D374BD6B1F586313154BB14BB105CBB843110C34C74F0197CA6928BA18E1FE16B3E626C44D6219EFE001201B4D60B9D5BC67FE6339CDF37E28AF817C81F504B03041400060808006F583340EC1000
311
559B0500007A100000340000006662782F30433639354339362D314545462D344338432D424344352D4636443043373130394336332F6F626A656374732E786D6CAD575D6FA33814FD2B887DCE07499AB62BCA284DA6A368D499D14433DA874A910143BD3518D9A693EEAFDF633004D2A4CDAEE62504737D7DEFB9E77ED8FF
311
B0CBB8F34CA56222BF71BDE1D875681E8998E5E98D5BEA6470E53A1F025F0AA13B62AE93938CDEB866D90DFC548AB2B04B314D48C9F5C1EADDED5F8E8A684E5D27E244A91B57458F342343526A1153F5348C8926C334D90DBD612DD8579B4A523C1E282D88A4B986A558CFA1C5A98DF2FAAF637714F823F33DF0CDAF959A9E
311
961A55FEF4CF67B9D2248F5E1D76A066EACD561F2717D7838BD96C3A98CD27DEE0F6EE7635F02EA7E3E57CB9BC5E7CBCC6C14A4B68B296489AB8C127602359E48FEA4F815FB25C4F2756C4066824E9333391728389E3F9A35AA6F5CE3A79CCFC48E4398D2AAC8046E59F551DD382E63162CEA882651D84C6FD57CFE0D8F93C
311
35EFF6C8EEF279087477741435B637CFAEA522FC1B2EA873182415350CACB1B48ED65C1DEF110E85E0F61B534E4634958C7087B35012F9E20610352281DF5363982C4D36180FDC0051A83FF7E982347A9FE7C7AC4C4ACE0D8DDDA0CA822D72856A5559C6FEA1726F7D1719D8845819365C5987F44B41DDE0BAA6C8D5019B6A
311
209D84931421879B66E77472E0E8D2E4E97AE5069FEFC2DDC6E4EEF1C30B290A2AB5A10FA8D504AE791A94AC4DDE5991331BDC0353F6A07C07F25F90EA7B531037C976B3DDCC9EA225C955226486D838636730C6CFD8F1AA5FF3BFF3CF1FB59BFBD13B8527826DA0FA0D78F67DE8C6B20367E03F83F0424EAD6B9B8870948D
311
7B9603204312870B2CA10E27E1CE0DD6A872A8CAD84578E0C16598FB8CBFFEC8AA41A1A84EEA3C7360795016CF28D080AD6224CCA8C96F0DDCC7E95539AB0EB662A7E0BDF82D745DAC369F37A54C4844EF6D4EAF68C272A6D1E2F6BCE91AD4C3BCE7D1137DF925640C475FE3BDE9E29DD9A314D036981BE0D3A6A69B97FDC9
311
BD0322EC4B852937FE3B27C009D3583BFAEF998A28E724A7A26CCE7DB37FA06DD4109B64374C6E1BCCBEB18034F597831C44938E242B0C886DB76A8BE6F084773FD65FC048C8731112BE170AF7A537125CC86DF8B2ADABD251A47FF6A96D2118192D607B95234DFA5BCCB7314B9252A1061E81F5E77AD90D9DA90AA8108DD6
311
3A5966701FB945A4E56CA317CD5A123452916F19DA26D2EEE8015DFD40D412A05278CA624579B2659C97D936611CCD689B91E2041CFFDFFEB0CC8A2DC94499EB13BA7BA6A339F46DEF9157FD223A7A74834DF51CDCA2F4C634DE87B9276C5AC911AC7AA19DADE69797F3C9C7C1E26A32C7F87431192CBCC97830BFBA9E4E97
311
93E9E2727ED9C4A9561EF84DA7E92634A284CEE69792D9F0FD58237D6C0D70837BA2D5C3A73A3B9BE78FF510A3B03FC21EB4CB76E3227EC6D847E3F715EC258F2A5A6705A719CD353129746FFEF0EF046346CF987A7D9D91949EA1E5EBA7CD8133583963DF3793EEF4D7C15EBBBA34097954897E2CB330278C1F6C4C6B2487
311
459E5AFC9A98B4CFBACF34AFE6CD060683A9129CC52883B1935291518D6278460F921955A05E77A48FEDD5E38CDDCFF580A849C86963C923C18CCC15D202D42A23DD5F77FEC04C67C6AA1B17DD76F8841F5B295C079CB97131A36B1651350CD19FCD2454290797BA833CE67E92A71CA376BDA97D6F77196C7A1DB91539677C
311
B27ED515DC3A803252606CC03C84E854C6047E659BFD1EFD27C71B731CA2F1372C75EBCB7EA175A63A06295A3B652F0B98619EECD13B24EADB6E79C34AA687C85997AC3749506B1D6822D3EAA260ECB3262D56DF4618509CF557A7E0658A589EAF692029C85C9A04078BC00AABB3201A545DFEF9F04D0A5C6433E78E81020F
311
4B916522B72F0B7B1176368FB8D6C60F280BD4DC47D4C364EC4D1EAA7B80BD9A6C43A2E890C4EA090B88A9642DC4BDC08391F565111DA8FED0CA8D4C100EB8B95E39B6A5CDA0D412A55B550D2C983872EA207BCC5DD2E44A57A078F32A30AA446182C4101FFC0B504B03041400060800006F58334000000000000000000000
311
0000350000006662782F30433639354339362D314545462D344338432D424344352D4636443043373130394336332F76657274696365732E62696E504B03041400060808006F583340F270F1330600000004000000360000006662782F30433639354339362D314545462D344338432D424344352D46364430433731303943
311
36332F747269616E676C65732E62696E636660600000504B03041400060800006F583340000000000000000000000000370000006662782F30433639354339362D314545462D344338432D424344352D4636443043373130394336332F617474726962757465732E62696E504B03041400060808006F583340D5987DFC8F00
311
000041010000360000006662782F30433639354339362D314545462D344338432D424344352D4636443043373130394336332F6469726563746F72792E786D6C858F410EC2201045AF4266AF15DDB800BA74E7C21B903225242D6328188F2FA5C4183471359997F9FF81E89FF3C41E1816475E02DF1F80A11FC8386F25A438
311
EECEC07A250251FC3803E6F58C12560C4AD840E95E91C151A72936F496F35732D860FE635F62C8F2DA16B505C545B74125BAA2FA9E05D7CC053D063734D5C7665FD55B6B8D15D5E9BFEAFD8490FFA45E504B03041400060808006F58334094CC681FFC000000A00100003B0000006662782F30433639354339362D31454546
311
2D344338432D424344352D4636443043373130394336332F7265736F75726365732F636F72652E786D6C8D504B6E833010BD0A9ABDC1062705641C354D6ED00B586642AD041BF953F5F835814AEDAE9B99D1FB689E9E387DCD8FE2137D30CE0EC04A0A055AED4663A70152BC91168A9314DEB9F84B068555330EB0C220C5E4
311
5D5A76483B1BD1C68C5A37E20EAA103042A11FF91820E80F9C55A952CC8A702F17A5EF6AC2929599CE3A2942F43940B13D5927488FC125AF31886A63A548C98CBBC68CF9A7B919F4205FD8E57AE0BC2597F6CA083F1F2869CF6F945C79D771DE1D59DBBC8A6A354B11CDFC93517B54114790356535A18CB0EE9DB19E367D43
311
093DF6948A6A95FF31A565FCA729191B9B7A8FBBD9024896833C0929AAB5AFBC9E65E6BD762BBF01504B010214000A00000800006F5833403DEE336E79000000790000001B00000000000000000000000000000000006175746F6465736B2D64657369676E2D7061636B6167652E786D6C504B010214001400060808006F58
311
3340D486FD9CA0000000F40000001300000000000000000000000000B20000005B436F6E74656E745F54797065735D2E786D6C504B010214001400060808006F58334087674687E90000007C010000080000000000000000000000000083010000636F72652E786D6C504B010214001400060808006F58334055019EA25F00
311
00007C000000070000000000000000000000000092020000636E782E786D6C504B010214001400060808006F583340C7C1E94464010000020300000C00000000000000000000000000160300006662782F636F72652E786D6C504B010214001400060808006F58334024ABDFBD7D0000009D0000000B000000000000000000
311
00000000A40400006662782F636E782E786D6C504B010214001400060808006F583340ED2A10612B0100001402000031000000000000000000000000004A0500006662782F30433639354339362D314545462D344338432D424344352D4636443043373130394336332F636F72652E786D6C504B010214001400060808006F
311
583340FB0CC81C4C010000330300003000000000000000000000000000C40600006662782F30433639354339362D314545462D344338432D424344352D4636443043373130394336332F636E782E786D6C504B010214001400060808006F583340EC1000559B0500007A10000034000000000000000000000000005E080000
311
6662782F30433639354339362D314545462D344338432D424344352D4636443043373130394336332F6F626A656374732E786D6C504B010214001400060800006F58334000000000000000000000000035000000000000000000000000004B0E00006662782F30433639354339362D314545462D344338432D424344352D46
311
36443043373130394336332F76657274696365732E62696E504B010214001400060808006F583340F270F133060000000400000036000000000000000000000000009E0E00006662782F30433639354339362D314545462D344338432D424344352D4636443043373130394336332F747269616E676C65732E62696E504B01
311
0214001400060800006F5833400000000000000000000000003700000000000000000000000000F80E00006662782F30433639354339362D314545462D344338432D424344352D4636443043373130394336332F617474726962757465732E62696E504B010214001400060808006F583340D5987DFC8F0000004101000036
311
000000000000000000000000004D0F00006662782F30433639354339362D314545462D344338432D424344352D4636443043373130394336332F6469726563746F72792E786D6C504B010214001400060808006F58334094CC681FFC000000A00100003B00000000000000000000000000301000006662782F304336393543
311
39362D314545462D344338432D424344352D4636443043373130394336332F7265736F75726365732F636F72652E786D6C504B0506000000000E000E0080040000851100000000
310
504B03040A00000800006F5833403DEE336E79000000790000001B0000006175746F6465736B2D64657369676E2D7061636B6167652E786D6C3C3F786D6C2076657273696F6E3D22312E302220656E636F64696E673D227574662D3822203F3E3C666F726D6174733E3C666F726D61743E687474703A2F2F736368656D612E
310
6175746F6465736B2E636F6D2F64657369676E2D7061636B6167652F323030393C2F666F726D61743E3C2F666F726D6174733E504B03041400060808006F583340D486FD9CA0000000F4000000130000005B436F6E74656E745F54797065735D2E786D6C7D8EC10E82300C865F65E91D8A1E8C310C0EEA1BF002731658846E
310
D98AC1B77784ABF1D8FE5FBFBF75BBCE937A534CCEB38643598122B6FEE978D0B0485F9C41B54DDD7D022595594E1A469170414C76A4D9A4D207E29CF43ECE46F218070CC6BECC4078ACAA135ACF422C856C0E68EA1BF5669944DDD7BCDE7B1F8E415D77AECB980613C2E4AC91FC167A2B244592486606FC29C8FD7F045B9A
310
EF7053A7E60B504B03041400060808006F5833407A1CA994EA0000007C01000008000000636F72652E786D6C8D90416EC3201045AF82D863839D9AD8C2446ED29EA0174030715162B00C44397E71E248EDAEAB19FDF96F66F4C5E13E5DD10D9660BDEB312B2846E0B437D68D3D4EF14CF6181DA458BC8FBF6C183935418F57
310
194B312E3ECD9BA4BD8BE062569D37B0892A048818E96B6E7A1CF4374CAA50296647B814B3D2173542C15E5D8653B2063D8F5893F7D9B38505CB8A0F353F9DDE48D5ECDEC9EEB36DC9C02827C70F5EF17A60BC39EE45B9C252443BBDEEEB0554049379CA2A421961ED17631DADBB9A12DA74948A72B5FF81D26CFE0925EB62
310
5D6DEF3EB18025CB8F3C0652946B16B93C82CA75CD4DFE00504B03041400060808006F58334055019EA25F0000007C00000007000000636E782E786D6C4DCB3B0E80201045D1AD90E915ED2CF8AC45050C11660C8261F98AB1B07AC9C97D42D718D865D3E909258CFD00CCE24AC6E326A164D74DC0B4128928FF326038472B
310
A13128B1252AC747C6BAB984FC68F0B87FE8960A5C09FE86CFB69FBA01504B03041400060808006F583340D767F02666010000020300000C0000006662782F636F72652E786D6C8D52ED8E8320107C15C27F04B457DB06697AEDDD13DC0B50A59EA98241307DFC5B3F1AAF97A6B9982099D9D99D1D15FB5B53A35EBBAEB226
310
C33C62186993DBA232658683BF900D467B299CB5FE57194646353AC3038CA5289D0DED0CE5D6786D3CA0C6167A0655D7698F515EC325C35DFEAD1B15A9E0A1A2BB46ADCAAFAAD4118F80863A293AEFC0009A860C279697F34DD009972284AA98D9AA8069D5A5D20ECB383D24E9E9F446E2F5EA9DAC3EB75B72E02C25C78F34
310
4E93034FD7C78DA083580A5F357777B9D3CAEB02F48CC78471C2B75F9CEF58B24B1861EB1D63820EE50FA2D016FF1485CAF8249EED4EB20E4B0E4646E2CFB61091479DEAC10F95820E21C26B4CF83168080442F6EA5CDFF7B802D4EBDC5BB702A6B061A17A55070D53191A1F4127163A8F0D60B3A77DE2177D5EF7800FA84C
310
09D69487EB39F861BA98A6CE51B4DA91DEDF90B1AE51F5626EB2B89CCBA0A7F2DCD6D6FD474DE755E91C261DFE5EF903504B03041400060808006F583340915CD99D7E0000009D0000000B0000006662782F636E782E786D6C4DCCD10A83201886E15B91FFDCA5689B8119DBCCFB886521990EA76397BF1A1DECE883878F57
310
769FD5A3B74D2F17430BF44400D9F088A30B730B254F5800EA944C31E6BF1BA030ACB6859D41C939C5F23C68B4D3507CDED4BBB01CA835A35C1083EF7DC330BFF5572CCEE68239D5356F446D0823502959FD4ADBEE61F505504B03041400060808006F583340812AC81A2A01000014020000310000006662782F4444333134
310
3830462D434539332D344245412D383646372D3431443534393835463033302F636F72652E786D6C8D51CB6EC32010FC15C4293D608321AE1361A2B649BEA03FE000495162B07854F9FC42ED48ED2D1716CDCECC8E76F9EE3EDEC0B7F6C138DB43526108B4954E197BE9618A67D441B013DC3B17FFD020B0C3A87B586028F8
310
C5BB342D9074366A1B336A9DD20B3884A02304F2963F3D0CF24B8F4335A49819E15A4D83BC0E175D912AB7334FF0107D0E00E621E58562BFA78475F8883E0E1B8AD8FBE10D75EDF11531B25FB34DB73E628A793D0B054FC9A8456E548E63CE46FB674D8A58F068C6477CE9F510B582A2C1A4419820B2F924648BE9966284DB
310
2DCE930BFD9F284DEA49513236D266893BCB021484D7734370E5D2E9F608A3EF93F3119479ABA0E50B14B8C20DC3B459335ECFD4BC80ECD9B2C53344E7F38257D75366D3C5B86582D7E546B9FC1E30D7724FF103504B03041400060808006F5833409DAB070B5401000033030000300000006662782F44443331343830462D
310
434539332D344245412D383646372D3431443534393835463033302F636E782E786D6CBD93CD6EC32010845F0571F70F7164A51126520F7D821E7AC5B04969305880ABE6EDBB2424CD25874A552FC89A1D66569F30DF7D4D967C4288C6BB81B2BAA5049CF2DAB8C34097B4AF3694EC040FDEA73B1B254E4E30D02C53C10FC1
310
2F739134ECE56213AAD6B863110344BF040511E57C9358AFA4C50070D582224C23680D9ADC8CF8B58780ABA0389E487A07F2F2FC46FCF8012A45DEE414C19BDC21783E4BD39D891265658C038DEA1D2659CB25790DF1586B9964CDEA6BD7839D7E9248BE70AD5C8221B97CA0F9A4A26C542347DEE050F09802D22BA6749A81
310
0A39CFD62899107273365E3C822FC6A57E5DBC06C1077477AB7EB3C1B0F34CF06426280E154026D054AC5AB6AA5A56B1A757C6B66DB7EDDAAAEDB76DCB9B6C177CF4DE964B1803C1CF447997C0252A186FF2F811BEE223DA0464EDC3E91720114069BDD0B965FC251FD677EBF53FF269CEEF1B7105FC0BC437504B03041400
310
060808006F583340C4FBA80C57070000931B0000340000006662782F44443331343830462D434539332D344245412D383646372D3431443534393835463033302F6F626A656374732E786D6CED595B6FA33814FE2B887D0E09497A5B5146693A1D45ABCE8C263BA37D88841C70A8B7C620DBF4B2BF7E8F2F10A0A1253BDDB7
310
794800631F9FF39DAB0FC187A78C3A0F980B92B34BD7F726AE83599C2784A5976E2977A373D7F910063CCF65639AEB3094E14B570DBB6190F2BC2CEC508277A8A4B2337A73F5972362CCB0EBC4140971E98AF80E67C843A5CC132CEEBD0449E4A5BB27CFF7CCC436D994A3E2AE43B4401C33099CC238032A8E61CA6F3F4EDC
310
71188CD5FB3050FF76D66CD0AC79FFACB196BACD2561422216BF60A943663688A5993FBFFE383DB9189DCCE7B3D1FC74EA8FAE6EAEAE47FED96CB23C5D2E2F161F2F80BD6D9E532B53820BCC12D0DFB31BFAC158BDA945B7081CE23ACE19C3B10612A0D2627509122C60AB067C93F6A3AF246ABCD612369EE7EABD65A1313C
310
6B53E99B350C88165D10C46E57495C5D9BF2E5DBBF417031C428B9C012B8159283762D3C1CBCC20D27C1D88C86C176AF0B229C0C49CC09A20E255B8E382805A6AA296160165832CA3938907294045A73E675DBB6C033DF769D435CEE4A4A9567B8A176AC08DC0F4BA13923FF60BEE7BE890CF004D29684C973CBA57C2EB01B
310
5E04633D1806EA329BDA9706486747512A3422E66D47D0A572FDD5B51BFE71B37D5AAB707078F382E705E652199DD2A3E60B0CD95E154A765B7F90E6D40210C6806A57EE41F906C87F86E8B16705F4C6C9D3FC696EE74A8E98D8E53C03DD3813673481BF89E3EB7F75DFB80BC6F5E2B6F6FAF0043755509DFF3C9E6D193456
310
96FF069C61F000069FF3997DB58E11057BBE250C005246E2D01C8620B4EFB64F6EB882C009811E56211AFA2032B0FB00B7C1D892D96BA5722FEB750C10B57BCC86280960D316096CF4E8E913640F4EE2BD9A9A22F6C17BF22EE6BAB85EFFB12EF90EC5F8D6FAF435DE11462464CDC30CB5306F49748F9F1F739E80A02FF15E
310
37F1CEEC5602D056982BE0D30A04F5B0DFB9B5410CEBD25C859BE08D1D400895AB1BF46F898831A588E1BCACF6ADA39B32D4DAE36DCDE0865303F16CDA31618E1F88AA2AC069F6335A8C42DE8F392914886EF8C94856074DAF47BAEFABCF6091F5FC9E592B06A19721FAA70E5A077068597685B405A21678BB0FE7714E731E
310
6D9F2313E95CA825808DB6B7FC681185586F94A4A8800769BFAB424A6AA48D12B2DB9502E2EA01167FAC964D73987833FFC469FE779C710ED1167C1771EB779D3D2292A114473B94F46DD7DCADA62D34C91ED21CEF28C8451E887C8E908C26094E8F81E628E217EF4A3DA5B910846101F9EA20F84D34261E0412A3CD8A65A5
310
D50ED044441996881E838022D303AE4E3BBAC68DA174789BC7DA7A5FD35893E8FF64111C412D99B38840290A39E44DC67DEF0462481B5D8372075FB0B68AB61683965042C4CFD12326E99D3C067543BE07F7188E24A58CF202C560D603C8BEF015A5D40EEF5B14DFABFC11C5257D2F031198EE2242699945F0230C4E1E435C
310
BB0E4CAFA2D0206E629FC419146548967CC826A7279317FB989AA11B021B1BED0885B01D65A8E841BD1510753DE2D4E05BEA3D4ADD965911A12C2FD92043F1665D6FB2E4BB6A556407F2AB4A45281B2BC29660181026EBAC5AC56C30751D58C18D74A07A8E04CA0A6A4E616F241EBFF6264DB977036EFDF47D37C8A0F0EBD1
310
5E33A2CE2B182C8FADC2403C2219DFB9E15A5F4757507F2738D9A7FAAAD66C568080988AE425275645DF5750DED81ACD0D6F91149B4F26EB56D7EF2B0FBA1FC118D640ED522F5C29A033CC245295C9ADBAA1DF1084E0160D33BE5239F5182A8B24D15523A237A44F9DAD32A2B56946BCE20EB33C831FDB1016D332C11B9488
310
FBE856D2684D14EB564A2F2315C6AF0AF8E5D3BA030F8C0C10E9AB2AF0F06367AD1D5DAA72E920117957665B860804C19668A9D18D57B0D46AA4D2727D55670AA8BBC0C0AC8AE7BF4E16CD76C4AF93456A0DE3E74E1634DF22BA8F368D6C1E2BB33EEA1450A72745E53D4E01BAEB5053AD9388C9E5567CEB4B11C4C42AC80F
310
2EC6AA986108F671FC9F93765F1234DB75F83F2E69FB2F0A8EA3924A6BB26A521D285C57AD14767D7A76763AFD385A9C4F4FA13F7B321D2DFCE964747A7E319B2DA7B3C5D9E9598DA6F6D330A863994E5DF06C625A35AC9E2C06D094153925091CE61327C510F2251CE90774CF798605E4CE66AF3BB13DF901AB1F4C9B53A2
310
2DC515277708FAC3544056078CCA58B6C79DDFA03329E19C7DE942CFC8BB873F6B95AE0389E7D2854E81243116DE16BA4CAA9FA78943C6D5A9DF12037C104B5546348BEAE77A95C2A615FDEB2943B28095ABD5C280BAAD80E657AB41A179B33CC547095EB1E32009B7DB5242B16664D90FD4C2E86DF6EA37B251C2EEEDD64F
310
E0BAAF8BE57B7A4E0B91415F0C5E3502437524114F75BB5B3166595A5C7F1D439BCD597D710A5AA6A0CBE194461C833197AA9E022B02ABB0340B24C15497BF6FBEF21CBEF0648E2E8A36CB3CCB72661F16701C4BE00B91B3BE83EF3DC906AA06ACBAEA62339DF8D38DEE66DB067BB445027BAA1C8281AA8A5022748C0D2CF2
310
4567CAF62DC74A099DE9AB6BC7864FE802180B7AD1DC355FB71CF01EF51D45F98AF6F04ACE571BDA633D15AC81432B3AFC17504B03041400060800006F583340000000000000000000000000350000006662782F44443331343830462D434539332D344245412D383646372D3431443534393835463033302F766572746963
310
65732E62696E504B03041400060808006F583340F270F1330600000004000000360000006662782F44443331343830462D434539332D344245412D383646372D3431443534393835463033302F747269616E676C65732E62696E636660600000504B03041400060800006F5833400000000000000000000000003700000066
310
62782F44443331343830462D434539332D344245412D383646372D3431443534393835463033302F617474726962757465732E62696E504B03041400060808006F583340D5987DFC8F00000041010000360000006662782F44443331343830462D434539332D344245412D383646372D3431443534393835463033302F6469
310
726563746F72792E786D6C858F410EC2201045AF4266AF15DDB800BA74E7C21B903225242D6328188F2FA5C4183471359997F9FF81E89FF3C41E1816475E02DF1F80A11FC8386F25A438EECEC07A250251FC3803E6F58C12560C4AD840E95E91C151A72936F496F35732D860FE635F62C8F2DA16B505C545B74125BAA2FA9E
310
05D7CC053D063734D5C7665FD55B6B8D15D5E9BFEAFD8490FFA45E504B03041400060808006F58334069B7870CFC000000A00100003B0000006662782F44443331343830462D434539332D344245412D383646372D3431443534393835463033302F7265736F75726365732F636F72652E786D6C8D504B6E833010BD0AF2DE
310
6003C201194734694FD00B58F6845A0936F2A7EAF16B0295DA5D3733A3F7D13C3D7EFE5A1EC527F8609C1D112D092AC02AA78D9D4794E20D9F507116DC3B177FC95061E50223DA6024F8EC5D5A0F48391BC1C68C5AA7E10065081051A11EF91851501FB0C852A69815E15EAE52DDE50C252D339D758287E87380627FB24D24
310
3C0497BC82C0AB9D153C25A30F8DD1F9A7B919F048D46C6AD8F5DAE2BA6B5F70FBD6F778A284E1CB2BAB593351D65D4EBCDACC8247B3FC64541E64049DFD84D698504CFB774A07D20C0DC1A41B08E1D526FF634AABFEA729191B9BFA88BBDB02123407791282575B5F793DCBCC7BEB567C03504B010214000A00000800006F
310
5833403DEE336E79000000790000001B00000000000000000000000000000000006175746F6465736B2D64657369676E2D7061636B6167652E786D6C504B010214001400060808006F583340D486FD9CA0000000F40000001300000000000000000000000000B20000005B436F6E74656E745F54797065735D2E786D6C504B
310
010214001400060808006F5833407A1CA994EA0000007C010000080000000000000000000000000083010000636F72652E786D6C504B010214001400060808006F58334055019EA25F0000007C000000070000000000000000000000000093020000636E782E786D6C504B010214001400060808006F583340D767F0266601
310
0000020300000C00000000000000000000000000170300006662782F636F72652E786D6C504B010214001400060808006F583340915CD99D7E0000009D0000000B00000000000000000000000000A70400006662782F636E782E786D6C504B010214001400060808006F583340812AC81A2A01000014020000310000000000
310
00000000000000004E0500006662782F44443331343830462D434539332D344245412D383646372D3431443534393835463033302F636F72652E786D6C504B010214001400060808006F5833409DAB070B54010000330300003000000000000000000000000000C70600006662782F44443331343830462D434539332D3442
310
45412D383646372D3431443534393835463033302F636E782E786D6C504B010214001400060808006F583340C4FBA80C57070000931B00003400000000000000000000000000690800006662782F44443331343830462D434539332D344245412D383646372D3431443534393835463033302F6F626A656374732E786D6C50
310
4B010214001400060800006F5833400000000000000000000000003500000000000000000000000000121000006662782F44443331343830462D434539332D344245412D383646372D3431443534393835463033302F76657274696365732E62696E504B010214001400060808006F583340F270F133060000000400000036
310
00000000000000000000000000651000006662782F44443331343830462D434539332D344245412D383646372D3431443534393835463033302F747269616E676C65732E62696E504B010214001400060800006F5833400000000000000000000000003700000000000000000000000000BF1000006662782F444433313438
310
30462D434539332D344245412D383646372D3431443534393835463033302F617474726962757465732E62696E504B010214001400060808006F583340D5987DFC8F000000410100003600000000000000000000000000141100006662782F44443331343830462D434539332D344245412D383646372D3431443534393835
310
463033302F6469726563746F72792E786D6C504B010214001400060808006F58334069B7870CFC000000A00100003B00000000000000000000000000F71100006662782F44443331343830462D434539332D344245412D383646372D3431443534393835463033302F7265736F75726365732F636F72652E786D6C504B0506
310
000000000E000E00800400004C1300000000
  0
XRECORD
  5
27
102
{ACAD_REACTORS
330
22
102
}
330
22
100
AcDbXrecord
280
     1
270
     1
271
     1
  0
XRECORD
  5
26
102
{ACAD_REACTORS
330
22
102
}
330
22
100
AcDbXrecord
280
     1
270
     1
271
     1
  0
XRECORD
  5
28
102
{ACAD_REACTORS
330
22
102
}
330
22
100
AcDbXrecord
280
     1
270
     1
271
     1
  0
XRECORD
  5
25
102
{ACAD_REACTORS
330
22
102
}
330
22
100
AcDbXrecord
280
     1
270
     1
271
     1
  0
XRECORD
  5
1031
102
{ACAD_REACTORS
330
1030
102
}
330
1030
100
AcDbXrecord
280
     1
102
ACAD_ROUNDTRIP_2012_MLEADER_STYLE
298
     1
  0
CELLSTYLEMAP
  5
102F
102
{ACAD_REACTORS
330
102E
102
}
330
102E
100
AcDbCellStyleMap
 90
        3
300
CELLSTYLE
  1
TABLEFORMAT_BEGIN
 90
        5
170
     1
 91
        0
 92
    32768
 62
   257
 93
        1
300
CONTENTFORMAT
  1
CONTENTFORMAT_BEGIN
 90
        0
 91
        0
 92
      512
 93
        0
300

 40
0.0
140
1.0
 94
        5
 62
     0
340
55
144
0.25
309
CONTENTFORMAT_END
171
     0
 94
        0
309
TABLEFORMAT_END
  1
CELLSTYLE_BEGIN
 90
        1
 91
        1
300
_TITLE
309
CELLSTYLE_END
300
CELLSTYLE
  1
TABLEFORMAT_BEGIN
 90
        5
170
     1
 91
        0
 92
        0
 62
   257
 93
        1
300
CONTENTFORMAT
  1
CONTENTFORMAT_BEGIN
 90
        0
 91
        0
 92
      512
 93
        0
300

 40
0.0
140
1.0
 94
        5
 62
     0
340
55
144
0.18
309
CONTENTFORMAT_END
171
     0
 94
        0
309
TABLEFORMAT_END
  1
CELLSTYLE_BEGIN
 90
        2
 91
        1
300
_HEADER
309
CELLSTYLE_END
300
CELLSTYLE
  1
TABLEFORMAT_BEGIN
 90
        5
170
     1
 91
        0
 92
        0
 62
   257
 93
        1
300
CONTENTFORMAT
  1
CONTENTFORMAT_BEGIN
 90
        0
 91
        0
 92
      512
 93
        0
300

 40
0.0
140
1.0
 94
        2
 62
     0
340
55
144
0.18
309
CONTENTFORMAT_END
171
     0
 94
        0
309
TABLEFORMAT_END
  1
CELLSTYLE_BEGIN
 90
        3
 91
        2
300
_DATA
309
CELLSTYLE_END
  0
XRECORD
  5
1069
102
{ACAD_REACTORS
330
102E
102
}
330
102E
100
AcDbXrecord
280
     1
102
ACAD_ROUNDTRIP_PRE2007_TABLESTYLE
 90
      512
 91
        0
  1

 92
      512
 93
        0
  2

 94
      512
 95
        0
  3

  0
XRECORD
  5
1044
102
{ACAD_REACTORS
330
1043
102
}
330
1043
100
AcDbXrecord
280
     1
102
RTVSPropertyOp0
 70
     1
102
RTVSPropertyOp1
 70
     1
102
RTVSPropertyOp2
 70
     1
102
RTVSPropertyOp3
 70
     1
102
RTVSPropertyOp4
 70
     1
102
RTVSPropertyOp5
 70
     1
102
RTVSPropertyOp6
 70
     1
102
RTVSPropertyOp7
 70
     1
102
RTVSPropertyOp8
 70
     1
102
RTVSPropertyOp9
 70
     1
102
RTVSPropertyOp10
 70
     1
102
RTVSPropertyOp11
 70
     1
102
RTVSPropertyOp12
 70
     1
102
RTVSPropertyOp13
 70
     1
102
RTVSPropertyOp14
 70
     1
102
RTVSPropertyOp15
 70
     1
102
RTVSPropertyOp16
 70
     1
102
RTVSPropertyOp17
 70
     1
102
RTVSPropertyOp18
 70
     1
102
RTVSPropertyOp19
 70
     1
102
RTVSPropertyOp20
 70
     1
102
RTVSPropertyOp21
 70
     1
102
RTVSPropertyOp22
 70
     1
102
RTVSPropertyOp23
 70
     1
102
RTVSPropertyOp24
 70
     1
102
RTVSPropertyOp25
 70
     1
102
RTVSPropertyOp26
 70
     1
102
RTVSPropertyOp27
 70
     1
102
RTVSPropertyOp28
 70
     1
102
RTVSPropertyOp29
 70
     1
102
RTVSPropertyOp30
 70
     1
102
RTVSPropertyOp31
 70
     1
102
RTVSPropertyOp32
 70
     1
  0
XRECORD
  5
1042
102
{ACAD_REACTORS
330
1041
102
}
330
1041
100
AcDbXrecord
280
     1
102
RTVSPropertyOp0
 70
     1
102
RTVSPropertyOp1
 70
     1
102
RTVSPropertyOp2
 70
     1
102
RTVSPropertyOp3
 70
     1
102
RTVSPropertyOp4
 70
     1
102
RTVSPropertyOp5
 70
     1
102
RTVSPropertyOp6
 70
     1
102
RTVSPropertyOp7
 70
     1
102
RTVSPropertyOp8
 70
     1
102
RTVSPropertyOp9
 70
     1
102
RTVSPropertyOp10
 70
     1
102
RTVSPropertyOp11
 70
     1
102
RTVSPropertyOp12
 70
     1
102
RTVSPropertyOp13
 70
     1
102
RTVSPropertyOp14
 70
     1
102
RTVSPropertyOp15
 70
     1
102
RTVSPropertyOp16
 70
     1
102
RTVSPropertyOp17
 70
     1
102
RTVSPropertyOp18
 70
     1
102
RTVSPropertyOp19
 70
     1
102
RTVSPropertyOp20
 70
     1
102
RTVSPropertyOp21
 70
     1
102
RTVSPropertyOp22
 70
     1
102
RTVSPropertyOp23
 70
     1
102
RTVSPropertyOp24
 70
     1
102
RTVSPropertyOp25
 70
     1
102
RTVSPropertyOp26
 70
     1
102
RTVSPropertyOp27
 70
     1
102
RTVSPropertyOp28
 70
     1
102
RTVSPropertyOp29
 70
     1
102
RTVSPropertyOp30
 70
     1
102
RTVSPropertyOp31
 70
     1
102
RTVSPropertyOp32
 70
     1
  0
XRECORD
  5
1050
102
{ACAD_REACTORS
330
104F
102
}
330
104F
100
AcDbXrecord
280
     1
102
RTVSPropertyOp0
 70
     1
102
RTVSPropertyOp1
 70
     1
102
RTVSPropertyOp2
 70
     1
102
RTVSPropertyOp3
 70
     1
102
RTVSPropertyOp4
 70
     1
102
RTVSPropertyOp5
 70
     1
102
RTVSPropertyOp6
 70
     1
102
RTVSPropertyOp7
 70
     1
102
RTVSPropertyOp8
 70
     1
102
RTVSPropertyOp9
 70
     1
102
RTVSPropertyOp10
 70
     1
102
RTVSPropertyOp11
 70
     1
102
RTVSPropertyOp12
 70
     1
102
RTVSPropertyOp13
 70
     1
102
RTVSPropertyOp14
 70
     1
102
RTVSPropertyOp15
 70
     1
102
RTVSPropertyOp16
 70
     1
102
RTVSPropertyOp17
 70
     1
102
RTVSPropertyOp18
 70
     1
102
RTVSPropertyOp19
 70
     1
102
RTVSPropertyOp20
 70
     1
102
RTVSPropertyOp21
 70
     1
102
RTVSPropertyOp22
 70
     1
102
RTVSPropertyOp23
 70
     1
102
RTVSPropertyOp24
 70
     1
102
RTVSPropertyOp25
 70
     1
102
RTVSPropertyOp26
 70
     1
102
RTVSPropertyOp27
 70
     1
102
RTVSPropertyOp28
 70
     1
102
RTVSPropertyOp29
 70
     1
102
RTVSPropertyOp30
 70
     1
102
RTVSPropertyOp31
 70
     1
102
RTVSPropertyOp32
 70
     1
  0
XRECORD
  5
1058
102
{ACAD_REACTORS
330
1057
102
}
330
1057
100
AcDbXrecord
280
     1
102
RTVSPropertyOp0
 70
     1
102
RTVSPropertyOp1
 70
     1
102
RTVSPropertyOp2
 70
     1
102
RTVSPropertyOp3
 70
     1
102
RTVSPropertyOp4
 70
     1
102
RTVSPropertyOp5
 70
     1
102
RTVSPropertyOp6
 70
     1
102
RTVSPropertyOp7
 70
     1
102
RTVSPropertyOp8
 70
     1
102
RTVSPropertyOp9
 70
     1
102
RTVSPropertyOp10
 70
     1
102
RTVSPropertyOp11
 70
     1
102
RTVSPropertyOp12
 70
     1
102
RTVSPropertyOp13
 70
     1
102
RTVSPropertyOp14
 70
     1
102
RTVSPropertyOp15
 70
     1
102
RTVSPropertyOp16
 70
     1
102
RTVSPropertyOp17
 70
     1
102
RTVSPropertyOp18
 70
     1
102
RTVSPropertyOp19
 70
     1
102
RTVSPropertyOp20
 70
     1
102
RTVSPropertyOp21
 70
     1
102
RTVSPropertyOp22
 70
     1
102
RTVSPropertyOp23
 70
     1
102
RTVSPropertyOp24
 70
     1
102
RTVSPropertyOp25
 70
     1
102
RTVSPropertyOp26
 70
     1
102
RTVSPropertyOp27
 70
     1
102
RTVSPropertyOp28
 70
     1
102
RTVSPropertyOp29
 70
     1
102
RTVSPropertyOp30
 70
     1
102
RTVSPropertyOp31
 70
     1
102
RTVSPropertyOp32
 70
     1
  0
XRECORD
  5
104A
102
{ACAD_REACTORS
330
1049
102
}
330
1049
100
AcDbXrecord
280
     1
102
RTVSPropertyOp0
 70
     1
102
RTVSPropertyOp1
 70
     1
102
RTVSPropertyOp2
 70
     1
102
RTVSPropertyOp3
 70
     1
102
RTVSPropertyOp4
 70
     1
102
RTVSPropertyOp5
 70
     1
102
RTVSPropertyOp6
 70
     1
102
RTVSPropertyOp7
 70
     1
102
RTVSPropertyOp8
 70
     1
102
RTVSPropertyOp9
 70
     1
102
RTVSPropertyOp10
 70
     1
102
RTVSPropertyOp11
 70
     1
102
RTVSPropertyOp12
 70
     1
102
RTVSPropertyOp13
 70
     1
102
RTVSPropertyOp14
 70
     1
102
RTVSPropertyOp15
 70
     1
102
RTVSPropertyOp16
 70
     1
102
RTVSPropertyOp17
 70
     1
102
RTVSPropertyOp18
 70
     1
102
RTVSPropertyOp19
 70
     1
102
RTVSPropertyOp20
 70
     1
102
RTVSPropertyOp21
 70
     1
102
RTVSPropertyOp22
 70
     1
102
RTVSPropertyOp23
 70
     1
102
RTVSPropertyOp24
 70
     1
102
RTVSPropertyOp25
 70
     1
102
RTVSPropertyOp26
 70
     1
102
RTVSPropertyOp27
 70
     1
102
RTVSPropertyOp28
 70
     1
102
RTVSPropertyOp29
 70
     1
102
RTVSPropertyOp30
 70
     1
102
RTVSPropertyOp31
 70
     1
102
RTVSPropertyOp32
 70
     1
  0
XRECORD
  5
104E
102
{ACAD_REACTORS
330
104D
102
}
330
104D
100
AcDbXrecord
280
     1
102
RTVSPropertyOp0
 70
     1
102
RTVSPropertyOp1
 70
     1
102
RTVSPropertyOp2
 70
     1
102
RTVSPropertyOp3
 70
     1
102
RTVSPropertyOp4
 70
     1
102
RTVSPropertyOp5
 70
     1
102
RTVSPropertyOp6
 70
     1
102
RTVSPropertyOp7
 70
     1
102
RTVSPropertyOp8
 70
     1
102
RTVSPropertyOp9
 70
     1
102
RTVSPropertyOp10
 70
     1
102
RTVSPropertyOp11
 70
     1
102
RTVSPropertyOp12
 70
     1
102
RTVSPropertyOp13
 70
     1
102
RTVSPropertyOp14
 70
     1
102
RTVSPropertyOp15
 70
     1
102
RTVSPropertyOp16
 70
     1
102
RTVSPropertyOp17
 70
     1
102
RTVSPropertyOp18
 70
     1
102
RTVSPropertyOp19
 70
     1
102
RTVSPropertyOp20
 70
     1
102
RTVSPropertyOp21
 70
     1
102
RTVSPropertyOp22
 70
     1
102
RTVSPropertyOp23
 70
     1
102
RTVSPropertyOp24
 70
     1
102
RTVSPropertyOp25
 70
     1
102
RTVSPropertyOp26
 70
     1
102
RTVSPropertyOp27
 70
     1
102
RTVSPropertyOp28
 70
     1
102
RTVSPropertyOp29
 70
     1
102
RTVSPropertyOp30
 70
     1
102
RTVSPropertyOp31
 70
     1
102
RTVSPropertyOp32
 70
     1
  0
XRECORD
  5
1068
102
{ACAD_REACTORS
330
1067
102
}
330
1067
100
AcDbXrecord
280
     1
102
RTVSPropertyOp0
 70
     0
102
RTVSPropertyOp1
 70
     0
102
RTVSPropertyOp2
 70
     0
102
RTVSPropertyOp3
 70
     0
102
RTVSPropertyOp4
 70
     0
102
RTVSPropertyOp5
 70
     0
102
RTVSPropertyOp6
 70
     0
102
RTVSPropertyOp7
 70
     0
102
RTVSPropertyOp8
 70
     0
102
RTVSPropertyOp9
 70
     0
102
RTVSPropertyOp10
 70
     0
102
RTVSPropertyOp11
 70
     0
102
RTVSPropertyOp12
 70
     0
102
RTVSPropertyOp13
 70
     0
102
RTVSPropertyOp14
 70
     2
102
RTVSPropertyOp15
 70
     0
102
RTVSPropertyOp16
 70
     0
102
RTVSPropertyOp17
 70
     0
102
RTVSPropertyOp18
 70
     0
102
RTVSPropertyOp19
 70
     0
102
RTVSPropertyOp20
 70
     0
102
RTVSPropertyOp21
 70
     0
102
RTVSPropertyOp22
 70
     0
102
RTVSPropertyOp23
 70
     0
102
RTVSPropertyOp24
 70
     0
102
RTVSPropertyOp25
 70
     0
102
RTVSPropertyOp26
 70
     0
102
RTVSPropertyOp27
 70
     0
102
RTVSPropertyOp28
 70
     1
102
RTVSPropertyOp29
 70
     1
102
RTVSPropertyOp30
 70
     1
102
RTVSPropertyOp31
 70
     1
102
RTVSPropertyOp32
 70
     1
  0
XRECORD
  5
1056
102
{ACAD_REACTORS
330
1055
102
}
330
1055
100
AcDbXrecord
280
     1
102
RTVSPropertyOp0
 70
     1
102
RTVSPropertyOp1
 70
     1
102
RTVSPropertyOp2
 70
     1
102
RTVSPropertyOp3
 70
     1
102
RTVSPropertyOp4
 70
     1
102
RTVSPropertyOp5
 70
     1
102
RTVSPropertyOp6
 70
     1
102
RTVSPropertyOp7
 70
     1
102
RTVSPropertyOp8
 70
     1
102
RTVSPropertyOp9
 70
     1
102
RTVSPropertyOp10
 70
     1
102
RTVSPropertyOp11
 70
     1
102
RTVSPropertyOp12
 70
     1
102
RTVSPropertyOp13
 70
     1
102
RTVSPropertyOp14
 70
     1
102
RTVSPropertyOp15
 70
     1
102
RTVSPropertyOp16
 70
     1
102
RTVSPropertyOp17
 70
     1
102
RTVSPropertyOp18
 70
     1
102
RTVSPropertyOp19
 70
     1
102
RTVSPropertyOp20
 70
     1
102
RTVSPropertyOp21
 70
     1
102
RTVSPropertyOp22
 70
     1
102
RTVSPropertyOp23
 70
     1
102
RTVSPropertyOp24
 70
     1
102
RTVSPropertyOp25
 70
     1
102
RTVSPropertyOp26
 70
     1
102
RTVSPropertyOp27
 70
     1
102
RTVSPropertyOp28
 70
     1
102
RTVSPropertyOp29
 70
     1
102
RTVSPropertyOp30
 70
     1
102
RTVSPropertyOp31
 70
     1
102
RTVSPropertyOp32
 70
     1
  0
XRECORD
  5
103A
102
{ACAD_REACTORS
330
1039
102
}
330
1039
100
AcDbXrecord
280
     1
102
RTVSPropertyOp0
 70
     1
102
RTVSPropertyOp1
 70
     1
102
RTVSPropertyOp2
 70
     1
102
RTVSPropertyOp3
 70
     1
102
RTVSPropertyOp4
 70
     1
102
RTVSPropertyOp5
 70
     1
102
RTVSPropertyOp6
 70
     1
102
RTVSPropertyOp7
 70
     1
102
RTVSPropertyOp8
 70
     1
102
RTVSPropertyOp9
 70
     1
102
RTVSPropertyOp10
 70
     1
102
RTVSPropertyOp11
 70
     1
102
RTVSPropertyOp12
 70
     1
102
RTVSPropertyOp13
 70
     1
102
RTVSPropertyOp14
 70
     1
102
RTVSPropertyOp15
 70
     1
102
RTVSPropertyOp16
 70
     1
102
RTVSPropertyOp17
 70
     1
102
RTVSPropertyOp18
 70
     1
102
RTVSPropertyOp19
 70
     1
102
RTVSPropertyOp20
 70
     1
102
RTVSPropertyOp21
 70
     1
102
RTVSPropertyOp22
 70
     1
102
RTVSPropertyOp23
 70
     1
102
RTVSPropertyOp24
 70
     1
102
RTVSPropertyOp25
 70
     1
102
RTVSPropertyOp26
 70
     1
102
RTVSPropertyOp27
 70
     1
102
RTVSPropertyOp28
 70
     1
102
RTVSPropertyOp29
 70
     1
102
RTVSPropertyOp30
 70
     1
102
RTVSPropertyOp31
 70
     1
102
RTVSPropertyOp32
 70
     1
  0
XRECORD
  5
103C
102
{ACAD_REACTORS
330
103B
102
}
330
103B
100
AcDbXrecord
280
     1
102
RTVSPropertyOp0
 70
     1
102
RTVSPropertyOp1
 70
     1
102
RTVSPropertyOp2
 70
     1
102
RTVSPropertyOp3
 70
     1
102
RTVSPropertyOp4
 70
     1
102
RTVSPropertyOp5
 70
     1
102
RTVSPropertyOp6
 70
     1
102
RTVSPropertyOp7
 70
     1
102
RTVSPropertyOp8
 70
     1
102
RTVSPropertyOp9
 70
     1
102
RTVSPropertyOp10
 70
     1
102
RTVSPropertyOp11
 70
     1
102
RTVSPropertyOp12
 70
     1
102
RTVSPropertyOp13
 70
     1
102
RTVSPropertyOp14
 70
     1
102
RTVSPropertyOp15
 70
     1
102
RTVSPropertyOp16
 70
     1
102
RTVSPropertyOp17
 70
     1
102
RTVSPropertyOp18
 70
     1
102
RTVSPropertyOp19
 70
     1
102
RTVSPropertyOp20
 70
     1
102
RTVSPropertyOp21
 70
     1
102
RTVSPropertyOp22
 70
     1
102
RTVSPropertyOp23
 70
     1
102
RTVSPropertyOp24
 70
     1
102
RTVSPropertyOp25
 70
     1
102
RTVSPropertyOp26
 70
     1
102
RTVSPropertyOp27
 70
     1
102
RTVSPropertyOp28
 70
     1
102
RTVSPropertyOp29
 70
     1
102
RTVSPropertyOp30
 70
     1
102
RTVSPropertyOp31
 70
     1
102
RTVSPropertyOp32
 70
     1
  0
XRECORD
  5
103E
102
{ACAD_REACTORS
330
103D
102
}
330
103D
100
AcDbXrecord
280
     1
102
RTVSPropertyOp0
 70
     1
102
RTVSPropertyOp1
 70
     1
102
RTVSPropertyOp2
 70
     1
102
RTVSPropertyOp3
 70
     1
102
RTVSPropertyOp4
 70
     1
102
RTVSPropertyOp5
 70
     1
102
RTVSPropertyOp6
 70
     1
102
RTVSPropertyOp7
 70
     1
102
RTVSPropertyOp8
 70
     1
102
RTVSPropertyOp9
 70
     1
102
RTVSPropertyOp10
 70
     1
102
RTVSPropertyOp11
 70
     1
102
RTVSPropertyOp12
 70
     1
102
RTVSPropertyOp13
 70
     1
102
RTVSPropertyOp14
 70
     1
102
RTVSPropertyOp15
 70
     1
102
RTVSPropertyOp16
 70
     1
102
RTVSPropertyOp17
 70
     1
102
RTVSPropertyOp18
 70
     1
102
RTVSPropertyOp19
 70
     1
102
RTVSPropertyOp20
 70
     1
102
RTVSPropertyOp21
 70
     1
102
RTVSPropertyOp22
 70
     1
102
RTVSPropertyOp23
 70
     1
102
RTVSPropertyOp24
 70
     1
102
RTVSPropertyOp25
 70
     1
102
RTVSPropertyOp26
 70
     1
102
RTVSPropertyOp27
 70
     1
102
RTVSPropertyOp28
 70
     1
102
RTVSPropertyOp29
 70
     1
102
RTVSPropertyOp30
 70
     1
102
RTVSPropertyOp31
 70
     1
102
RTVSPropertyOp32
 70
     1
  0
XRECORD
  5
1040
102
{ACAD_REACTORS
330
103F
102
}
330
103F
100
AcDbXrecord
280
     1
102
RTVSPropertyOp0
 70
     1
102
RTVSPropertyOp1
 70
     1
102
RTVSPropertyOp2
 70
     1
102
RTVSPropertyOp3
 70
     1
102
RTVSPropertyOp4
 70
     1
102
RTVSPropertyOp5
 70
     1
102
RTVSPropertyOp6
 70
     1
102
RTVSPropertyOp7
 70
     1
102
RTVSPropertyOp8
 70
     1
102
RTVSPropertyOp9
 70
     1
102
RTVSPropertyOp10
 70
     1
102
RTVSPropertyOp11
 70
     1
102
RTVSPropertyOp12
 70
     1
102
RTVSPropertyOp13
 70
     1
102
RTVSPropertyOp14
 70
     1
102
RTVSPropertyOp15
 70
     1
102
RTVSPropertyOp16
 70
     1
102
RTVSPropertyOp17
 70
     1
102
RTVSPropertyOp18
 70
     1
102
RTVSPropertyOp19
 70
     1
102
RTVSPropertyOp20
 70
     1
102
RTVSPropertyOp21
 70
     1
102
RTVSPropertyOp22
 70
     1
102
RTVSPropertyOp23
 70
     1
102
RTVSPropertyOp24
 70
     1
102
RTVSPropertyOp25
 70
     1
102
RTVSPropertyOp26
 70
     1
102
RTVSPropertyOp27
 70
     1
102
RTVSPropertyOp28
 70
     1
102
RTVSPropertyOp29
 70
     1
102
RTVSPropertyOp30
 70
     1
102
RTVSPropertyOp31
 70
     1
102
RTVSPropertyOp32
 70
     1
  0
XRECORD
  5
1048
102
{ACAD_REACTORS
330
1047
102
}
330
1047
100
AcDbXrecord
280
     1
102
RTVSPropertyOp0
 70
     1
102
RTVSPropertyOp1
 70
     1
102
RTVSPropertyOp2
 70
     1
102
RTVSPropertyOp3
 70
     1
102
RTVSPropertyOp4
 70
     1
102
RTVSPropertyOp5
 70
     1
102
RTVSPropertyOp6
 70
     1
102
RTVSPropertyOp7
 70
     1
102
RTVSPropertyOp8
 70
     1
102
RTVSPropertyOp9
 70
     1
102
RTVSPropertyOp10
 70
     1
102
RTVSPropertyOp11
 70
     1
102
RTVSPropertyOp12
 70
     1
102
RTVSPropertyOp13
 70
     1
102
RTVSPropertyOp14
 70
     1
102
RTVSPropertyOp15
 70
     1
102
RTVSPropertyOp16
 70
     1
102
RTVSPropertyOp17
 70
     1
102
RTVSPropertyOp18
 70
     1
102
RTVSPropertyOp19
 70
     1
102
RTVSPropertyOp20
 70
     1
102
RTVSPropertyOp21
 70
     1
102
RTVSPropertyOp22
 70
     1
102
RTVSPropertyOp23
 70
     1
102
RTVSPropertyOp24
 70
     1
102
RTVSPropertyOp25
 70
     1
102
RTVSPropertyOp26
 70
     1
102
RTVSPropertyOp27
 70
     1
102
RTVSPropertyOp28
 70
     1
102
RTVSPropertyOp29
 70
     1
102
RTVSPropertyOp30
 70
     1
102
RTVSPropertyOp31
 70
     1
102
RTVSPropertyOp32
 70
     1
  0
XRECORD
  5
1064
102
{ACAD_REACTORS
330
1063
102
}
330
1063
100
AcDbXrecord
280
     1
102
RTVSPropertyOp0
 70
     0
102
RTVSPropertyOp1
 70
     0
102
RTVSPropertyOp2
 70
     0
102
RTVSPropertyOp3
 70
     0
102
RTVSPropertyOp4
 70
     0
102
RTVSPropertyOp5
 70
     0
102
RTVSPropertyOp6
 70
     0
102
RTVSPropertyOp7
 70
     0
102
RTVSPropertyOp8
 70
     0
102
RTVSPropertyOp9
 70
     0
102
RTVSPropertyOp10
 70
     0
102
RTVSPropertyOp11
 70
     0
102
RTVSPropertyOp12
 70
     0
102
RTVSPropertyOp13
 70
     0
102
RTVSPropertyOp14
 70
     2
102
RTVSPropertyOp15
 70
     0
102
RTVSPropertyOp16
 70
     0
102
RTVSPropertyOp17
 70
     0
102
RTVSPropertyOp18
 70
     0
102
RTVSPropertyOp19
 70
     0
102
RTVSPropertyOp20
 70
     0
102
RTVSPropertyOp21
 70
     0
102
RTVSPropertyOp22
 70
     0
102
RTVSPropertyOp23
 70
     0
102
RTVSPropertyOp24
 70
     0
102
RTVSPropertyOp25
 70
     0
102
RTVSPropertyOp26
 70
     0
102
RTVSPropertyOp27
 70
     0
102
RTVSPropertyOp28
 70
     1
102
RTVSPropertyOp29
 70
     1
102
RTVSPropertyOp30
 70
     1
102
RTVSPropertyOp31
 70
     1
102
RTVSPropertyOp32
 70
     1
  0
XRECORD
  5
1054
102
{ACAD_REACTORS
330
1053
102
}
330
1053
100
AcDbXrecord
280
     1
102
RTVSPropertyOp0
 70
     1
102
RTVSPropertyOp1
 70
     1
102
RTVSPropertyOp2
 70
     1
102
RTVSPropertyOp3
 70
     1
102
RTVSPropertyOp4
 70
     1
102
RTVSPropertyOp5
 70
     1
102
RTVSPropertyOp6
 70
     1
102
RTVSPropertyOp7
 70
     1
102
RTVSPropertyOp8
 70
     1
102
RTVSPropertyOp9
 70
     1
102
RTVSPropertyOp10
 70
     1
102
RTVSPropertyOp11
 70
     1
102
RTVSPropertyOp12
 70
     1
102
RTVSPropertyOp13
 70
     1
102
RTVSPropertyOp14
 70
     1
102
RTVSPropertyOp15
 70
     1
102
RTVSPropertyOp16
 70
     1
102
RTVSPropertyOp17
 70
     1
102
RTVSPropertyOp18
 70
     1
102
RTVSPropertyOp19
 70
     1
102
RTVSPropertyOp20
 70
     1
102
RTVSPropertyOp21
 70
     1
102
RTVSPropertyOp22
 70
     1
102
RTVSPropertyOp23
 70
     1
102
RTVSPropertyOp24
 70
     1
102
RTVSPropertyOp25
 70
     1
102
RTVSPropertyOp26
 70
     1
102
RTVSPropertyOp27
 70
     1
102
RTVSPropertyOp28
 70
     1
102
RTVSPropertyOp29
 70
     1
102
RTVSPropertyOp30
 70
     1
102
RTVSPropertyOp31
 70
     1
102
RTVSPropertyOp32
 70
     1
  0
XRECORD
  5
1066
102
{ACAD_REACTORS
330
1065
102
}
330
1065
100
AcDbXrecord
280
     1
102
RTVSPropertyOp0
 70
     0
102
RTVSPropertyOp1
 70
     0
102
RTVSPropertyOp2
 70
     0
102
RTVSPropertyOp3
 70
     0
102
RTVSPropertyOp4
 70
     0
102
RTVSPropertyOp5
 70
     0
102
RTVSPropertyOp6
 70
     0
102
RTVSPropertyOp7
 70
     0
102
RTVSPropertyOp8
 70
     0
102
RTVSPropertyOp9
 70
     0
102
RTVSPropertyOp10
 70
     0
102
RTVSPropertyOp11
 70
     0
102
RTVSPropertyOp12
 70
     0
102
RTVSPropertyOp13
 70
     0
102
RTVSPropertyOp14
 70
     2
102
RTVSPropertyOp15
 70
     0
102
RTVSPropertyOp16
 70
     0
102
RTVSPropertyOp17
 70
     0
102
RTVSPropertyOp18
 70
     0
102
RTVSPropertyOp19
 70
     0
102
RTVSPropertyOp20
 70
     0
102
RTVSPropertyOp21
 70
     0
102
RTVSPropertyOp22
 70
     0
102
RTVSPropertyOp23
 70
     0
102
RTVSPropertyOp24
 70
     0
102
RTVSPropertyOp25
 70
     0
102
RTVSPropertyOp26
 70
     0
102
RTVSPropertyOp27
 70
     0
102
RTVSPropertyOp28
 70
     1
102
RTVSPropertyOp29
 70
     1
102
RTVSPropertyOp30
 70
     1
102
RTVSPropertyOp31
 70
     1
102
RTVSPropertyOp32
 70
     1
  0
XRECORD
  5
104C
102
{ACAD_REACTORS
330
104B
102
}
330
104B
100
AcDbXrecord
280
     1
102
RTVSPropertyOp0
 70
     1
102
RTVSPropertyOp1
 70
     1
102
RTVSPropertyOp2
 70
     1
102
RTVSPropertyOp3
 70
     1
102
RTVSPropertyOp4
 70
     1
102
RTVSPropertyOp5
 70
     1
102
RTVSPropertyOp6
 70
     1
102
RTVSPropertyOp7
 70
     1
102
RTVSPropertyOp8
 70
     1
102
RTVSPropertyOp9
 70
     1
102
RTVSPropertyOp10
 70
     1
102
RTVSPropertyOp11
 70
     1
102
RTVSPropertyOp12
 70
     1
102
RTVSPropertyOp13
 70
     1
102
RTVSPropertyOp14
 70
     1
102
RTVSPropertyOp15
 70
     1
102
RTVSPropertyOp16
 70
     1
102
RTVSPropertyOp17
 70
     1
102
RTVSPropertyOp18
 70
     1
102
RTVSPropertyOp19
 70
     1
102
RTVSPropertyOp20
 70
     1
102
RTVSPropertyOp21
 70
     1
102
RTVSPropertyOp22
 70
     1
102
RTVSPropertyOp23
 70
     1
102
RTVSPropertyOp24
 70
     1
102
RTVSPropertyOp25
 70
     1
102
RTVSPropertyOp26
 70
     1
102
RTVSPropertyOp27
 70
     1
102
RTVSPropertyOp28
 70
     1
102
RTVSPropertyOp29
 70
     1
102
RTVSPropertyOp30
 70
     1
102
RTVSPropertyOp31
 70
     1
102
RTVSPropertyOp32
 70
     1
  0
XRECORD
  5
1062
102
{ACAD_REACTORS
330
1061
102
}
330
1061
100
AcDbXrecord
280
     1
102
RTVSPropertyOp0
 70
     1
102
RTVSPropertyOp1
 70
     1
102
RTVSPropertyOp2
 70
     1
102
RTVSPropertyOp3
 70
     1
102
RTVSPropertyOp4
 70
     1
102
RTVSPropertyOp5
 70
     1
102
RTVSPropertyOp6
 70
     1
102
RTVSPropertyOp7
 70
     1
102
RTVSPropertyOp8
 70
     1
102
RTVSPropertyOp9
 70
     1
102
RTVSPropertyOp10
 70
     1
102
RTVSPropertyOp11
 70
     1
102
RTVSPropertyOp12
 70
     1
102
RTVSPropertyOp13
 70
     1
102
RTVSPropertyOp14
 70
     1
102
RTVSPropertyOp15
 70
     1
102
RTVSPropertyOp16
 70
     1
102
RTVSPropertyOp17
 70
     1
102
RTVSPropertyOp18
 70
     1
102
RTVSPropertyOp19
 70
     1
102
RTVSPropertyOp20
 70
     1
102
RTVSPropertyOp21
 70
     1
102
RTVSPropertyOp22
 70
     1
102
RTVSPropertyOp23
 70
     1
102
RTVSPropertyOp24
 70
     1
102
RTVSPropertyOp25
 70
     1
102
RTVSPropertyOp26
 70
     1
102
RTVSPropertyOp27
 70
     1
102
RTVSPropertyOp28
 70
     1
102
RTVSPropertyOp29
 70
     1
102
RTVSPropertyOp30
 70
     1
102
RTVSPropertyOp31
 70
     1
102
RTVSPropertyOp32
 70
     1
  0
XRECORD
  5
1060
102
{ACAD_REACTORS
330
105F
102
}
330
105F
100
AcDbXrecord
280
     1
102
RTVSPropertyOp0
 70
     1
102
RTVSPropertyOp1
 70
     1
102
RTVSPropertyOp2
 70
     1
102
RTVSPropertyOp3
 70
     1
102
RTVSPropertyOp4
 70
     1
102
RTVSPropertyOp5
 70
     1
102
RTVSPropertyOp6
 70
     1
102
RTVSPropertyOp7
 70
     1
102
RTVSPropertyOp8
 70
     1
102
RTVSPropertyOp9
 70
     1
102
RTVSPropertyOp10
 70
     1
102
RTVSPropertyOp11
 70
     1
102
RTVSPropertyOp12
 70
     1
102
RTVSPropertyOp13
 70
     1
102
RTVSPropertyOp14
 70
     1
102
RTVSPropertyOp15
 70
     1
102
RTVSPropertyOp16
 70
     1
102
RTVSPropertyOp17
 70
     1
102
RTVSPropertyOp18
 70
     1
102
RTVSPropertyOp19
 70
     1
102
RTVSPropertyOp20
 70
     1
102
RTVSPropertyOp21
 70
     1
102
RTVSPropertyOp22
 70
     1
102
RTVSPropertyOp23
 70
     1
102
RTVSPropertyOp24
 70
     1
102
RTVSPropertyOp25
 70
     1
102
RTVSPropertyOp26
 70
     1
102
RTVSPropertyOp27
 70
     1
102
RTVSPropertyOp28
 70
     1
102
RTVSPropertyOp29
 70
     1
102
RTVSPropertyOp30
 70
     1
102
RTVSPropertyOp31
 70
     1
102
RTVSPropertyOp32
 70
     1
  0
XRECORD
  5
105A
102
{ACAD_REACTORS
330
1059
102
}
330
1059
100
AcDbXrecord
280
     1
102
RTVSPropertyOp0
 70
     1
102
RTVSPropertyOp1
 70
     1
102
RTVSPropertyOp2
 70
     1
102
RTVSPropertyOp3
 70
     1
102
RTVSPropertyOp4
 70
     1
102
RTVSPropertyOp5
 70
     1
102
RTVSPropertyOp6
 70
     1
102
RTVSPropertyOp7
 70
     1
102
RTVSPropertyOp8
 70
     1
102
RTVSPropertyOp9
 70
     1
102
RTVSPropertyOp10
 70
     1
102
RTVSPropertyOp11
 70
     1
102
RTVSPropertyOp12
 70
     1
102
RTVSPropertyOp13
 70
     1
102
RTVSPropertyOp14
 70
     1
102
RTVSPropertyOp15
 70
     1
102
RTVSPropertyOp16
 70
     1
102
RTVSPropertyOp17
 70
     1
102
RTVSPropertyOp18
 70
     1
102
RTVSPropertyOp19
 70
     1
102
RTVSPropertyOp20
 70
     1
102
RTVSPropertyOp21
 70
     1
102
RTVSPropertyOp22
 70
     1
102
RTVSPropertyOp23
 70
     1
102
RTVSPropertyOp24
 70
     1
102
RTVSPropertyOp25
 70
     1
102
RTVSPropertyOp26
 70
     1
102
RTVSPropertyOp27
 70
     1
102
RTVSPropertyOp28
 70
     1
102
RTVSPropertyOp29
 70
     1
102
RTVSPropertyOp30
 70
     1
102
RTVSPropertyOp31
 70
     1
102
RTVSPropertyOp32
 70
     1
  0
XRECORD
  5
105C
102
{ACAD_REACTORS
330
105B
102
}
330
105B
100
AcDbXrecord
280
     1
102
RTVSPropertyOp0
 70
     1
102
RTVSPropertyOp1
 70
     1
102
RTVSPropertyOp2
 70
     1
102
RTVSPropertyOp3
 70
     1
102
RTVSPropertyOp4
 70
     1
102
RTVSPropertyOp5
 70
     1
102
RTVSPropertyOp6
 70
     1
102
RTVSPropertyOp7
 70
     1
102
RTVSPropertyOp8
 70
     1
102
RTVSPropertyOp9
 70
     1
102
RTVSPropertyOp10
 70
     1
102
RTVSPropertyOp11
 70
     1
102
RTVSPropertyOp12
 70
     1
102
RTVSPropertyOp13
 70
     1
102
RTVSPropertyOp14
 70
     1
102
RTVSPropertyOp15
 70
     1
102
RTVSPropertyOp16
 70
     1
102
RTVSPropertyOp17
 70
     1
102
RTVSPropertyOp18
 70
     1
102
RTVSPropertyOp19
 70
     1
102
RTVSPropertyOp20
 70
     1
102
RTVSPropertyOp21
 70
     1
102
RTVSPropertyOp22
 70
     1
102
RTVSPropertyOp23
 70
     1
102
RTVSPropertyOp24
 70
     1
102
RTVSPropertyOp25
 70
     1
102
RTVSPropertyOp26
 70
     1
102
RTVSPropertyOp27
 70
     1
102
RTVSPropertyOp28
 70
     1
102
RTVSPropertyOp29
 70
     1
102
RTVSPropertyOp30
 70
     1
102
RTVSPropertyOp31
 70
     1
102
RTVSPropertyOp32
 70
     1
  0
XRECORD
  5
1052
102
{ACAD_REACTORS
330
1051
102
}
330
1051
100
AcDbXrecord
280
     1
102
RTVSPropertyOp0
 70
     1
102
RTVSPropertyOp1
 70
     1
102
RTVSPropertyOp2
 70
     1
102
RTVSPropertyOp3
 70
     1
102
RTVSPropertyOp4
 70
     1
102
RTVSPropertyOp5
 70
     1
102
RTVSPropertyOp6
 70
     1
102
RTVSPropertyOp7
 70
     1
102
RTVSPropertyOp8
 70
     1
102
RTVSPropertyOp9
 70
     1
102
RTVSPropertyOp10
 70
     1
102
RTVSPropertyOp11
 70
     1
102
RTVSPropertyOp12
 70
     1
102
RTVSPropertyOp13
 70
     1
102
RTVSPropertyOp14
 70
     1
102
RTVSPropertyOp15
 70
     1
102
RTVSPropertyOp16
 70
     1
102
RTVSPropertyOp17
 70
     1
102
RTVSPropertyOp18
 70
     1
102
RTVSPropertyOp19
 70
     1
102
RTVSPropertyOp20
 70
     1
102
RTVSPropertyOp21
 70
     1
102
RTVSPropertyOp22
 70
     1
102
RTVSPropertyOp23
 70
     1
102
RTVSPropertyOp24
 70
     1
102
RTVSPropertyOp25
 70
     1
102
RTVSPropertyOp26
 70
     1
102
RTVSPropertyOp27
 70
     1
102
RTVSPropertyOp28
 70
     1
102
RTVSPropertyOp29
 70
     1
102
RTVSPropertyOp30
 70
     1
102
RTVSPropertyOp31
 70
     1
102
RTVSPropertyOp32
 70
     1
  0
XRECORD
  5
1046
102
{ACAD_REACTORS
330
1045
102
}
330
1045
100
AcDbXrecord
280
     1
102
RTVSPropertyOp0
 70
     1
102
RTVSPropertyOp1
 70
     1
102
RTVSPropertyOp2
 70
     1
102
RTVSPropertyOp3
 70
     1
102
RTVSPropertyOp4
 70
     1
102
RTVSPropertyOp5
 70
     1
102
RTVSPropertyOp6
 70
     1
102
RTVSPropertyOp7
 70
     1
102
RTVSPropertyOp8
 70
     1
102
RTVSPropertyOp9
 70
     1
102
RTVSPropertyOp10
 70
     1
102
RTVSPropertyOp11
 70
     1
102
RTVSPropertyOp12
 70
     1
102
RTVSPropertyOp13
 70
     1
102
RTVSPropertyOp14
 70
     1
102
RTVSPropertyOp15
 70
     1
102
RTVSPropertyOp16
 70
     1
102
RTVSPropertyOp17
 70
     1
102
RTVSPropertyOp18
 70
     1
102
RTVSPropertyOp19
 70
     1
102
RTVSPropertyOp20
 70
     1
102
RTVSPropertyOp21
 70
     1
102
RTVSPropertyOp22
 70
     1
102
RTVSPropertyOp23
 70
     1
102
RTVSPropertyOp24
 70
     1
102
RTVSPropertyOp25
 70
     1
102
RTVSPropertyOp26
 70
     1
102
RTVSPropertyOp27
 70
     1
102
RTVSPropertyOp28
 70
     1
102
RTVSPropertyOp29
 70
     1
102
RTVSPropertyOp30
 70
     1
102
RTVSPropertyOp31
 70
     1
102
RTVSPropertyOp32
 70
     1
  0
XRECORD
  5
105E
102
{ACAD_REACTORS
330
105D
102
}
330
105D
100
AcDbXrecord
280
     1
102
RTVSPropertyOp0
 70
     1
102
RTVSPropertyOp1
 70
     1
102
RTVSPropertyOp2
 70
     1
102
RTVSPropertyOp3
 70
     1
102
RTVSPropertyOp4
 70
     1
102
RTVSPropertyOp5
 70
     1
102
RTVSPropertyOp6
 70
     1
102
RTVSPropertyOp7
 70
     1
102
RTVSPropertyOp8
 70
     1
102
RTVSPropertyOp9
 70
     1
102
RTVSPropertyOp10
 70
     1
102
RTVSPropertyOp11
 70
     1
102
RTVSPropertyOp12
 70
     1
102
RTVSPropertyOp13
 70
     1
102
RTVSPropertyOp14
 70
     1
102
RTVSPropertyOp15
 70
     1
102
RTVSPropertyOp16
 70
     1
102
RTVSPropertyOp17
 70
     1
102
RTVSPropertyOp18
 70
     1
102
RTVSPropertyOp19
 70
     1
102
RTVSPropertyOp20
 70
     1
102
RTVSPropertyOp21
 70
     1
102
RTVSPropertyOp22
 70
     1
102
RTVSPropertyOp23
 70
     1
102
RTVSPropertyOp24
 70
     1
102
RTVSPropertyOp25
 70
     1
102
RTVSPropertyOp26
 70
     1
102
RTVSPropertyOp27
 70
     1
102
RTVSPropertyOp28
 70
     1
102
RTVSPropertyOp29
 70
     1
102
RTVSPropertyOp30
 70
     1
102
RTVSPropertyOp31
 70
     1
102
RTVSPropertyOp32
 70
     1
  0
ENDSEC
  0
EOF
