  0
SECTION
  2
HEADER
  9
$ACADVER
  1
AC1015
  9
$ACADMAINTVER
 70
    18
  9
$DWGCODEPAGE
  3
ANSI_1252
  9
$INSBASE
 10
0.0
 20
0.0
 30
0.0
  9
$EXTMIN
 10
0.0
 20
0.0
 30
0.0
  9
$EXTMAX
 10
102.0
 20
66.0
 30
0.0
  9
$LIMMIN
 10
0.0
 20
0.0
  9
$LIMMAX
 10
102.0
 20
66.0
  9
$ORTHOMODE
 70
     0
  9
$REGENMODE
 70
     1
  9
$FILLMODE
 70
     1
  9
$QTEXTMODE
 70
     0
  9
$MIRRTEXT
 70
     0
  9
$LTSCALE
 40
6.0
  9
$ATTMODE
 70
     1
  9
$TEXTSIZE
 40
0.2
  9
$TRACEWID
 40
0.05
  9
$TEXTSTYLE
  7
Standard
  9
$CLAYER
  8
0
  9
$CELTYPE
  6
ByLayer
  9
$CECOLOR
 62
   256
  9
$CELTSCALE
 40
1.0
  9
$DISPSILH
 70
     0
  9
$DIMSCALE
 40
1.0
  9
$DIMASZ
 40
0.0708661417322835
  9
$DIMEXO
 40
0.0625
  9
$DIMDLI
 40
0.38
  9
$DIMRND
 40
0.0
  9
$DIMDLE
 40
0.0
  9
$DIMEXE
 40
0.18
  9
$DIMTP
 40
0.0
  9
$DIMTM
 40
0.0
  9
$DIMTXT
 40
0.0708661417322835
  9
$DIMCEN
 40
0.09
  9
$DIMTSZ
 40
0.0
  9
$DIMTOL
 70
     0
  9
$DIMLIM
 70
     0
  9
$DIMTIH
 70
     1
  9
$DIMTOH
 70
     1
  9
$DIMSE1
 70
     0
  9
$DIMSE2
 70
     0
  9
$DIMTAD
 70
     0
  9
$DIMZIN
 70
     0
  9
$DIMBLK
  1

  9
$DIMASO
 70
     1
  9
$DIMSHO
 70
     1
  9
$DIMPOST
  1

  9
$DIMAPOST
  1

  9
$DIMALT
 70
     0
  9
$DIMALTD
 70
     2
  9
$DIMALTF
 40
25.4
  9
$DIMLFAC
 40
1.0
  9
$DIMTOFL
 70
     0
  9
$DIMTVP
 40
0.0
  9
$DIMTIX
 70
     0
  9
$DIMSOXD
 70
     0
  9
$DIMSAH
 70
     0
  9
$DIMBLK1
  1

  9
$DIMBLK2
  1

  9
$DIMSTYLE
  2
STANDARD
  9
$DIMCLRD
 70
     0
  9
$DIMCLRE
 70
     0
  9
$DIMCLRT
 70
     0
  9
$DIMTFAC
 40
1.0
  9
$DIMGAP
 40
0.09
  9
$DIMJUST
 70
     0
  9
$DIMSD1
 70
     0
  9
$DIMSD2
 70
     0
  9
$DIMTOLJ
 70
     1
  9
$DIMTZIN
 70
     0
  9
$DIMALTZ
 70
     0
  9
$DIMALTTZ
 70
     0
  9
$DIMUPT
 70
     0
  9
$DIMDEC
 70
     4
  9
$DIMTDEC
 70
     4
  9
$DIMALTU
 70
     2
  9
$DIMALTTD
 70
     2
  9
$DIMTXSTY
  7
Standard
  9
$DIMAUNIT
 70
     0
  9
$DIMADEC
 70
     0
  9
$DIMALTRND
 40
0.0
  9
$DIMAZIN
 70
     0
  9
$DIMDSEP
 70
    46
  9
$DIMATFIT
 70
     3
  9
$DIMFRAC
 70
     0
  9
$DIMLDRBLK
  1

  9
$DIMLUNIT
 70
     2
  9
$DIMLWD
 70
    -2
  9
$DIMLWE
 70
    -2
  9
$DIMTMOVE
 70
     0
  9
$LUNITS
 70
     2
  9
$LUPREC
 70
     4
  9
$SKETCHINC
 40
0.1
  9
$FILLETRAD
 40
0.0
  9
$AUNITS
 70
     0
  9
$AUPREC
 70
     0
  9
$MENU
  1
.
  9
$ELEVATION
 40
0.0
  9
$PELEVATION
 40
0.0
  9
$THICKNESS
 40
0.0
  9
$LIMCHECK
 70
     0
  9
$CHAMFERA
 40
0.0
  9
$CHAMFERB
 40
0.0
  9
$CHAMFERC
 40
0.0
  9
$CHAMFERD
 40
0.0
  9
$SKPOLY
 70
     0
  9
$TDCREATE
 40
2455945.349587281
  9
$TDUCREATE
 40
2455945.599587280
  9
$TDUPDATE
 40
2455945.349587281
  9
$TDUUPDATE
 40
2455945.599587280
  9
$TDINDWG
 40
0.0000365278
  9
$TDUSRTIMER
 40
0.0000365278
  9
$USRTIMER
 70
     1
  9
$ANGBASE
 50
0.0
  9
$ANGDIR
 70
     0
  9
$PDMODE
 70
     0
  9
$PDSIZE
 40
0.0
  9
$PLINEWID
 40
0.0
  9
$SPLFRAME
 70
     0
  9
$SPLINETYPE
 70
     6
  9
$SPLINESEGS
 70
     8
  9
$HANDSEED
  5
FFE
  9
$SURFTAB1
 70
     6
  9
$SURFTAB2
 70
     6
  9
$SURFTYPE
 70
     6
  9
$SURFU
 70
     6
  9
$SURFV
 70
     6
  9
$UCSBASE
  2

  9
$UCSNAME
  2

  9
$UCSORG
 10
0.0
 20
0.0
 30
0.0
  9
$UCSXDIR
 10
1.0
 20
0.0
 30
0.0
  9
$UCSYDIR
 10
0.0
 20
1.0
 30
0.0
  9
$UCSORTHOREF
  2

  9
$UCSORTHOVIEW
 70
     0
  9
$UCSORGTOP
 10
0.0
 20
0.0
 30
0.0
  9
$UCSORGBOTTOM
 10
0.0
 20
0.0
 30
0.0
  9
$UCSORGLEFT
 10
0.0
 20
0.0
 30
0.0
  9
$UCSORGRIGHT
 10
0.0
 20
0.0
 30
0.0
  9
$UCSORGFRONT
 10
0.0
 20
0.0
 30
0.0
  9
$UCSORGBACK
 10
0.0
 20
0.0
 30
0.0
  9
$PUCSBASE
  2

  9
$PUCSNAME
  2

  9
$PUCSORG
 10
0.0
 20
0.0
 30
0.0
  9
$PUCSXDIR
 10
1.0
 20
0.0
 30
0.0
  9
$PUCSYDIR
 10
0.0
 20
1.0
 30
0.0
  9
$PUCSORTHOREF
  2

  9
$PUCSORTHOVIEW
 70
     0
  9
$PUCSORGTOP
 10
0.0
 20
0.0
 30
0.0
  9
$PUCSORGBOTTOM
 10
0.0
 20
0.0
 30
0.0
  9
$PUCSORGLEFT
 10
0.0
 20
0.0
 30
0.0
  9
$PUCSORGRIGHT
 10
0.0
 20
0.0
 30
0.0
  9
$PUCSORGFRONT
 10
0.0
 20
0.0
 30
0.0
  9
$PUCSORGBACK
 10
0.0
 20
0.0
 30
0.0
  9
$USERI1
 70
     0
  9
$USERI2
 70
     0
  9
$USERI3
 70
     0
  9
$USERI4
 70
     0
  9
$USERI5
 70
     0
  9
$USERR1
 40
0.0
  9
$USERR2
 40
0.0
  9
$USERR3
 40
0.0
  9
$USERR4
 40
0.0
  9
$USERR5
 40
0.0
  9
$WORLDVIEW
 70
     1
  9
$SHADEDGE
 70
     3
  9
$SHADEDIF
 70
    70
  9
$TILEMODE
 70
     1
  9
$MAXACTVP
 70
    64
  9
$PINSBASE
 10
0.0
 20
0.0
 30
0.0
  9
$PLIMCHECK
 70
     0
  9
$PEXTMIN
 10
0.0
 20
0.0
 30
0.0
  9
$PEXTMAX
 10
102.0
 20
66.0
 30
0.0
  9
$PLIMMIN
 10
0.0
 20
0.0
  9
$PLIMMAX
 10
102.0
 20
66.0
  9
$UNITMODE
 70
     0
  9
$VISRETAIN
 70
     1
  9
$PLINEGEN
 70
     0
  9
$PSLTSCALE
 70
     1
  9
$TREEDEPTH
 70
  3020
  9
$CMLSTYLE
  2
Standard
  9
$CMLJUST
 70
     0
  9
$CMLSCALE
 40
1.0
  9
$PROXYGRAPHICS
 70
     1
  9
$MEASUREMENT
 70
     0
  9
$CELWEIGHT
370
    -1
  9
$ENDCAPS
280
     0
  9
$JOINSTYLE
280
     0
  9
$LWDISPLAY
290
     0
  9
$INSUNITS
 70
     1
  9
$HYPERLINKBASE
  1

  9
$STYLESHEET
  1

  9
$XEDIT
290
     1
  9
$CEPSNTYPE
380
     0
  9
$PSTYLEMODE
290
     1
  9
$FINGERPRINTGUID
  2
{8DF340AB-86CB-4C1F-BDC4-7F0E7D84C0DF}
  9
$VERSIONGUID
  2
{3B3B503B-434C-4595-9217-BCDE63E50DFC}
  9
$EXTNAMES
290
     1
  9
$PSVPSCALE
 40
0.0
  9
$OLESTARTUP
290
     0
  0
ENDSEC
  0
SECTION
  2
CLASSES
  0
CLASS
  1
ACDBDICTIONARYWDFLT
  2
AcDbDictionaryWithDefault
  3
ObjectDBX Classes
 90
        0
280
     0
281
     0
  0
CLASS
  1
MATERIAL
  2
AcDbMaterial
  3
ObjectDBX Classes
 90
     1153
280
     0
281
     0
  0
CLASS
  1
VISUALSTYLE
  2
AcDbVisualStyle
  3
ObjectDBX Classes
 90
     4095
280
     0
281
     0
  0
CLASS
  1
SCALE
  2
AcDbScale
  3
ObjectDBX Classes
 90
     1153
280
     0
281
     0
  0
CLASS
  1
TABLESTYLE
  2
AcDbTableStyle
  3
ObjectDBX Classes
 90
     4095
280
     0
281
     0
  0
CLASS
  1
MLEADERSTYLE
  2
AcDbMLeaderStyle
  3
ACDB_MLEADERSTYLE_CLASS
 90
     4095
280
     0
281
     0
  0
CLASS
  1
DICTIONARYVAR
  2
AcDbDictionaryVar
  3
ObjectDBX Classes
 90
        0
280
     0
281
     0
  0
CLASS
  1
CELLSTYLEMAP
  2
AcDbCellStyleMap
  3
ObjectDBX Classes
 90
     1152
280
     0
281
     0
  0
CLASS
  1
ACDBPLACEHOLDER
  2
AcDbPlaceHolder
  3
ObjectDBX Classes
 90
        0
280
     0
281
     0
  0
CLASS
  1
LAYOUT
  2
AcDbLayout
  3
ObjectDBX Classes
 90
        0
280
     0
281
     0
  0
ENDSEC
  0
SECTION
  2
TABLES
  0
TABLE
  2
VPORT
  5
8
330
0
100
AcDbSymbolTable
 70
     1
  0
VPORT
  5
57
330
8
100
AcDbSymbolTableRecord
100
AcDbViewportTableRecord
  2
*Active
 70
     0
 10
0.0
 20
0.0
 11
1.0
 21
1.0
 12
51.0
 22
33.0
 13
0.0
 23
0.0
 14
1.0
 24
1.0
 15
0.0
 25
0.0
 16
0.0
 26
0.0
 36
1.0
 17
0.0
 27
0.0
 37
0.0
 40
66.0
 41
1.545454545454545
 42
50.0
 43
0.0
 44
0.0
 50
0.0
 51
0.0
 71
     0
 72
   100
 73
     1
 74
     1
 75
     0
 76
     0
 77
     0
 78
     0
281
     0
 65
     1
110
0.0
120
0.0
130
0.0
111
1.0
121
0.0
131
0.0
112
0.0
122
1.0
132
0.0
 79
     0
146
0.0
  0
ENDTAB
  0
TABLE
  2
LTYPE
  5
5
330
0
100
AcDbSymbolTable
 70
    59
  0
LTYPE
  5
5B
330
5
100
AcDbSymbolTableRecord
100
AcDbLinetypeTableRecord
  2
ByBlock
 70
     0
  3

 72
    65
 73
     0
 40
0.0
  0
LTYPE
  5
5C
330
5
100
AcDbSymbolTableRecord
100
AcDbLinetypeTableRecord
  2
ByLayer
 70
     0
  3

 72
    65
 73
     0
 40
0.0
  0
LTYPE
  5
5D
330
5
100
AcDbSymbolTableRecord
100
AcDbLinetypeTableRecord
  2
Continuous
 70
     0
  3
Solid line
 72
    65
 73
     0
 40
0.0
  0
LTYPE
  5
7C
330
5
100
AcDbSymbolTableRecord
100
AcDbLinetypeTableRecord
  2
BY_STANDARD
 70
     0
  3
By Standard ____________    ____    ____   _
 72
    65
 73
     6
 40
1.240299999999999
 49
0.6614
 74
     0
 49
-0.0827
 74
     0
 49
0.1654
 74
     0
 49
-0.0827
 74
     0
 49
0.1654
 74
     0
 49
-0.0827
 74
     0
  0
LTYPE
  5
7D
330
5
100
AcDbSymbolTableRecord
100
AcDbLinetypeTableRecord
  2
CHAIN
 70
     0
  3
Chain ____ _ ____ _ ____ _ ____ _ ____ _ ____
 72
    65
 73
     4
 40
0.7087
 49
0.4724000000000001
 74
     0
 49
-0.0591
 74
     0
 49
0.1181
 74
     0
 49
-0.0591
 74
     0
  0
LTYPE
  5
7E
330
5
100
AcDbSymbolTableRecord
100
AcDbLinetypeTableRecord
  2
DASH_DOT
 70
     0
  3
Dash dot __ . __ . __ . __ . __ . __ . __ . __
 72
    65
 73
     4
 40
0.37
 49
0.24
 74
     0
 49
-0.06
 74
     0
 49
0.01
 74
     0
 49
-0.06
 74
     0
  0
LTYPE
  5
7F
330
5
100
AcDbSymbolTableRecord
100
AcDbLinetypeTableRecord
  2
DOUBLE_DASH_DOT
 70
     0
  3
Double-Dash Dot __ __ . __ __ . __ __ . __ _
 72
    65
 73
     6
 40
0.4398
 49
0.24
 74
     0
 49
-0.06
 74
     0
 49
0.0098
 74
     0
 49
-0.06
 74
     0
 49
0.01
 74
     0
 49
-0.06
 74
     0
  0
LTYPE
  5
80
330
5
100
AcDbSymbolTableRecord
100
AcDbLinetypeTableRecord
  2
DASH_TRIPLE_DOT
 70
     0
  3
Dash Triple-Dot _ . . . _ . . . _ . . . _
 72
    65
 73
     8
 40
0.51
 49
0.24
 74
     0
 49
-0.06
 74
     0
 49
0.01
 74
     0
 49
-0.06
 74
     0
 49
0.01
 74
     0
 49
-0.06
 74
     0
 49
0.01
 74
     0
 49
-0.06
 74
     0
  0
LTYPE
  5
81
330
5
100
AcDbSymbolTableRecord
100
AcDbLinetypeTableRecord
  2
DASHED
 70
     0
  3
Dashed __ __ __ __ __ __ __ __ __ __ __ __ __ _
 72
    65
 73
     2
 40
0.2067
 49
0.1654
 74
     0
 49
-0.0413
 74
     0
  0
LTYPE
  5
82
330
5
100
AcDbSymbolTableRecord
100
AcDbLinetypeTableRecord
  2
DASH_DOUBLE_DOT
 70
     0
  3
Dash Double-Dot __ . . __ . . __ . . __ . .
 72
    65
 73
     6
 40
0.4398
 49
0.24
 74
     0
 49
-0.06
 74
     0
 49
0.0098
 74
     0
 49
-0.06
 74
     0
 49
0.01
 74
     0
 49
-0.06
 74
     0
  0
LTYPE
  5
83
330
5
100
AcDbSymbolTableRecord
100
AcDbLinetypeTableRecord
  2
DASHED_SPACE
 70
     0
  3
Dashed Space __ __ __ __ __ __ __ __ __ __ __ _
 72
    65
 73
     2
 40
0.2067
 49
0.1654
 74
     0
 49
-0.0413
 74
     0
  0
LTYPE
  5
84
330
5
100
AcDbSymbolTableRecord
100
AcDbLinetypeTableRecord
  2
DOTTED
 70
     0
  3
Dotted . . . . . . . . . . . . . . . . . . . . 
 72
    65
 73
     2
 40
0.0482
 49
0.0069
 74
     0
 49
-0.0413
 74
     0
  0
LTYPE
  5
85
330
5
100
AcDbSymbolTableRecord
100
AcDbLinetypeTableRecord
  2
DOUBLE_DASH_CHAIN
 70
     0
  3
Double-Dash Chain ______  __  __  ______  __  _
 72
    65
 73
     6
 40
1.240299999999999
 49
0.6614
 74
     0
 49
-0.0827
 74
     0
 49
0.1654
 74
     0
 49
-0.0827
 74
     0
 49
0.1654
 74
     0
 49
-0.0827
 74
     0
  0
LTYPE
  5
87
330
5
100
AcDbSymbolTableRecord
100
AcDbLinetypeTableRecord
  2
DOUBLE_DASH_DOUBLE_DOT
 70
     0
  3
Double-Dash Double-dot _ _ . . _ _ . . _
 72
    65
 73
     8
 40
0.7400000000000001
 49
0.24
 74
     0
 49
-0.06
 74
     0
 49
0.24
 74
     0
 49
-0.06
 74
     0
 49
0.01
 74
     0
 49
-0.06
 74
     0
 49
0.01
 74
     0
 49
-0.06
 74
     0
  0
LTYPE
  5
88
330
5
100
AcDbSymbolTableRecord
100
AcDbLinetypeTableRecord
  2
DOUBLE_DASH_TRIPLE_DOT
 70
     0
  3
Double Dash Triple Dot __ __ . . . __ __ . .
 72
    65
 73
    10
 40
0.8100000000000001
 49
0.24
 74
     0
 49
-0.06
 74
     0
 49
0.24
 74
     0
 49
-0.06
 74
     0
 49
0.01
 74
     0
 49
-0.06
 74
     0
 49
0.01
 74
     0
 49
-0.06
 74
     0
 49
0.01
 74
     0
 49
-0.06
 74
     0
  0
LTYPE
  5
89
330
5
100
AcDbSymbolTableRecord
100
AcDbLinetypeTableRecord
  2
LONG_DASH_DOTTED
 70
     0
  3
Long Dash Dotted ____ . ____ . ____ . ____ . _
 72
    65
 73
     4
 40
0.3543
 49
0.2362
 74
     0
 49
-0.0295
 74
     0
 49
0.0591
 74
     0
 49
-0.0295
 74
     0
  0
LTYPE
  5
8A
330
5
100
AcDbSymbolTableRecord
100
AcDbLinetypeTableRecord
  2
LONG_DASH_DOUBLE_DOT
 70
     0
  3
Long Dash Double Dot ________  .  .  ________  
 72
    65
 73
     6
 40
0.6799999999999999
 49
0.48
 74
     0
 49
-0.06
 74
     0
 49
0.01
 74
     0
 49
-0.06
 74
     0
 49
0.01
 74
     0
 49
-0.06
 74
     0
  0
LTYPE
  5
8B
330
5
100
AcDbSymbolTableRecord
100
AcDbLinetypeTableRecord
  2
LONG_DASH_TRIPLE_DOT
 70
     0
  3
Long Dash Triple Dot ____ ... ____ ... ____
 72
    65
 73
     8
 40
0.3689
 49
0.2362
 74
     0
 49
-0.0295
 74
     0
 49
0.0049
 74
     0
 49
-0.0295
 74
     0
 49
0.0049
 74
     0
 49
-0.0295
 74
     0
 49
0.0049
 74
     0
 49
-0.0295
 74
     0
  0
LTYPE
  5
8C
330
5
100
AcDbSymbolTableRecord
100
AcDbLinetypeTableRecord
  2
BORDER
 70
     0
  3
Border __ __ . __ __ . __ __ . __ __ . __ __ .
 72
    65
 73
     6
 40
1.75
 49
0.5
 74
     0
 49
-0.25
 74
     0
 49
0.5
 74
     0
 49
-0.25
 74
     0
 49
0.0
 74
     0
 49
-0.25
 74
     0
  0
LTYPE
  5
8D
330
5
100
AcDbSymbolTableRecord
100
AcDbLinetypeTableRecord
  2
BORDER2
 70
     0
  3
Border (.5x) __.__.__.__.__.__.__.__.__.__.__.
 72
    65
 73
     6
 40
0.875
 49
0.25
 74
     0
 49
-0.125
 74
     0
 49
0.25
 74
     0
 49
-0.125
 74
     0
 49
0.0
 74
     0
 49
-0.125
 74
     0
  0
LTYPE
  5
8E
330
5
100
AcDbSymbolTableRecord
100
AcDbLinetypeTableRecord
  2
BORDERX2
 70
     0
  3
Border (2x) ____  ____  .  ____  ____  .  ___
 72
    65
 73
     6
 40
3.5
 49
1.0
 74
     0
 49
-0.5
 74
     0
 49
1.0
 74
     0
 49
-0.5
 74
     0
 49
0.0
 74
     0
 49
-0.5
 74
     0
  0
LTYPE
  5
8F
330
5
100
AcDbSymbolTableRecord
100
AcDbLinetypeTableRecord
  2
CENTER
 70
     0
  3
Center ____ _ ____ _ ____ _ ____ _ ____ _ ____
 72
    65
 73
     4
 40
2.0
 49
1.25
 74
     0
 49
-0.25
 74
     0
 49
0.25
 74
     0
 49
-0.25
 74
     0
  0
LTYPE
  5
90
330
5
100
AcDbSymbolTableRecord
100
AcDbLinetypeTableRecord
  2
CENTER2
 70
     0
  3
Center (.5x) ___ _ ___ _ ___ _ ___ _ ___ _ ___
 72
    65
 73
     4
 40
1.125
 49
0.75
 74
     0
 49
-0.125
 74
     0
 49
0.125
 74
     0
 49
-0.125
 74
     0
  0
LTYPE
  5
91
330
5
100
AcDbSymbolTableRecord
100
AcDbLinetypeTableRecord
  2
CENTERX2
 70
     0
  3
Center (2x) ________  __  ________  __  _____
 72
    65
 73
     4
 40
4.0
 49
2.5
 74
     0
 49
-0.5
 74
     0
 49
0.5
 74
     0
 49
-0.5
 74
     0
  0
LTYPE
  5
92
330
5
100
AcDbSymbolTableRecord
100
AcDbLinetypeTableRecord
  2
DASHDOT2
 70
     0
  3
Dash dot (.5x) _._._._._._._._._._._._._._._.
 72
    65
 73
     4
 40
0.5
 49
0.25
 74
     0
 49
-0.125
 74
     0
 49
0.0
 74
     0
 49
-0.125
 74
     0
  0
LTYPE
  5
93
330
5
100
AcDbSymbolTableRecord
100
AcDbLinetypeTableRecord
  2
DASHDOTX2
 70
     0
  3
Dash dot (2x) ____  .  ____  .  ____  .  ___
 72
    65
 73
     4
 40
2.0
 49
1.0
 74
     0
 49
-0.5
 74
     0
 49
0.0
 74
     0
 49
-0.5
 74
     0
  0
LTYPE
  5
95
330
5
100
AcDbSymbolTableRecord
100
AcDbLinetypeTableRecord
  2
DASHED2
 70
     0
  3
Dashed (.5x) _ _ _ _ _ _ _ _ _ _ _ _ _ _ _ _ _
 72
    65
 73
     2
 40
0.375
 49
0.25
 74
     0
 49
-0.125
 74
     0
  0
LTYPE
  5
96
330
5
100
AcDbSymbolTableRecord
100
AcDbLinetypeTableRecord
  2
DASHEDX2
 70
     0
  3
Dashed (2x) ____  ____  ____  ____  ____  ___
 72
    65
 73
     2
 40
1.5
 49
1.0
 74
     0
 49
-0.5
 74
     0
  0
LTYPE
  5
97
330
5
100
AcDbSymbolTableRecord
100
AcDbLinetypeTableRecord
  2
DIVIDE
 70
     0
  3
Divide ____ . . ____ . . ____ . . ____ . . ____
 72
    65
 73
     6
 40
1.25
 49
0.5
 74
     0
 49
-0.25
 74
     0
 49
0.0
 74
     0
 49
-0.25
 74
     0
 49
0.0
 74
     0
 49
-0.25
 74
     0
  0
LTYPE
  5
98
330
5
100
AcDbSymbolTableRecord
100
AcDbLinetypeTableRecord
  2
DIVIDE2
 70
     0
  3
Divide (.5x) __..__..__..__..__..__..__..__.._
 72
    65
 73
     6
 40
0.625
 49
0.25
 74
     0
 49
-0.125
 74
     0
 49
0.0
 74
     0
 49
-0.125
 74
     0
 49
0.0
 74
     0
 49
-0.125
 74
     0
  0
LTYPE
  5
99
330
5
100
AcDbSymbolTableRecord
100
AcDbLinetypeTableRecord
  2
DIVIDEX2
 70
     0
  3
Divide (2x) ________  .  .  ________  .  .  _
 72
    65
 73
     6
 40
2.5
 49
1.0
 74
     0
 49
-0.5
 74
     0
 49
0.0
 74
     0
 49
-0.5
 74
     0
 49
0.0
 74
     0
 49
-0.5
 74
     0
  0
LTYPE
  5
9A
330
5
100
AcDbSymbolTableRecord
100
AcDbLinetypeTableRecord
  2
DOT
 70
     0
  3
Dot . . . . . . . . . . . . . . . . . . . . . .
 72
    65
 73
     2
 40
0.25
 49
0.0
 74
     0
 49
-0.25
 74
     0
  0
LTYPE
  5
9B
330
5
100
AcDbSymbolTableRecord
100
AcDbLinetypeTableRecord
  2
DOT2
 70
     0
  3
Dot (.5x) .....................................
 72
    65
 73
     2
 40
0.125
 49
0.0
 74
     0
 49
-0.125
 74
     0
  0
LTYPE
  5
9C
330
5
100
AcDbSymbolTableRecord
100
AcDbLinetypeTableRecord
  2
DOTX2
 70
     0
  3
Dot (2x) .  .  .  .  .  .  .  .  .  .  .  .  . 
 72
    65
 73
     2
 40
0.5
 49
0.0
 74
     0
 49
-0.5
 74
     0
  0
LTYPE
  5
9D
330
5
100
AcDbSymbolTableRecord
100
AcDbLinetypeTableRecord
  2
HIDDEN
 70
     0
  3
Hidden __ __ __ __ __ __ __ __ __ __ __ __ __ _
 72
    65
 73
     2
 40
0.375
 49
0.25
 74
     0
 49
-0.125
 74
     0
  0
LTYPE
  5
9E
330
5
100
AcDbSymbolTableRecord
100
AcDbLinetypeTableRecord
  2
HIDDEN2
 70
     0
  3
Hidden (.5x) _ _ _ _ _ _ _ _ _ _ _ _ _ _ _ _ _
 72
    65
 73
     2
 40
0.1875
 49
0.125
 74
     0
 49
-0.0625
 74
     0
  0
LTYPE
  5
9F
330
5
100
AcDbSymbolTableRecord
100
AcDbLinetypeTableRecord
  2
HIDDENX2
 70
     0
  3
Hidden (2x) ____ ____ ____ ____ ____ ____ ____
 72
    65
 73
     2
 40
0.75
 49
0.5
 74
     0
 49
-0.25
 74
     0
  0
LTYPE
  5
A0
330
5
100
AcDbSymbolTableRecord
100
AcDbLinetypeTableRecord
  2
PHANTOM
 70
     0
  3
Phantom ______  __  __  ______  __  __  ______
 72
    65
 73
     6
 40
2.5
 49
1.25
 74
     0
 49
-0.25
 74
     0
 49
0.25
 74
     0
 49
-0.25
 74
     0
 49
0.25
 74
     0
 49
-0.25
 74
     0
  0
LTYPE
  5
A1
330
5
100
AcDbSymbolTableRecord
100
AcDbLinetypeTableRecord
  2
PHANTOM2
 70
     0
  3
Phantom (.5x) ___ _ _ ___ _ _ ___ _ _ ___ _ _
 72
    65
 73
     6
 40
1.25
 49
0.625
 74
     0
 49
-0.125
 74
     0
 49
0.125
 74
     0
 49
-0.125
 74
     0
 49
0.125
 74
     0
 49
-0.125
 74
     0
  0
LTYPE
  5
A2
330
5
100
AcDbSymbolTableRecord
100
AcDbLinetypeTableRecord
  2
PHANTOMX2
 70
     0
  3
Phantom (2x) ____________    ____    ____   _
 72
    65
 73
     6
 40
5.0
 49
2.5
 74
     0
 49
-0.5
 74
     0
 49
0.5
 74
     0
 49
-0.5
 74
     0
 49
0.5
 74
     0
 49
-0.5
 74
     0
  0
LTYPE
  5
A3
330
5
100
AcDbSymbolTableRecord
100
AcDbLinetypeTableRecord
  2
ACAD_ISO02W100
 70
     0
  3
ISO dash __ __ __ __ __ __ __ __ __ __ __ __ __
 72
    65
 73
     2
 40
0.59
 49
0.47
 74
     0
 49
-0.12
 74
     0
  0
LTYPE
  5
A4
330
5
100
AcDbSymbolTableRecord
100
AcDbLinetypeTableRecord
  2
ACAD_ISO03W100
 70
     0
  3
ISO dash space __    __    __    __    __    __
 72
    65
 73
     2
 40
1.179999999999999
 49
0.47
 74
     0
 49
-0.71
 74
     0
  0
LTYPE
  5
A5
330
5
100
AcDbSymbolTableRecord
100
AcDbLinetypeTableRecord
  2
ACAD_ISO04W100
 70
     0
  3
ISO long-dash dot ____ . ____ . ____ . ____ . _
 72
    65
 73
     4
 40
1.179999999999999
 49
0.9399999999999998
 74
     0
 49
-0.12
 74
     0
 49
0.0
 74
     0
 49
-0.12
 74
     0
  0
LTYPE
  5
A6
330
5
100
AcDbSymbolTableRecord
100
AcDbLinetypeTableRecord
  2
ACAD_ISO05W100
 70
     0
  3
ISO long-dash double-dot ____ .. ____ .. ____ .
 72
    65
 73
     6
 40
1.299999999999999
 49
0.9399999999999998
 74
     0
 49
-0.12
 74
     0
 49
0.0
 74
     0
 49
-0.12
 74
     0
 49
0.0
 74
     0
 49
-0.12
 74
     0
  0
LTYPE
  5
A7
330
5
100
AcDbSymbolTableRecord
100
AcDbLinetypeTableRecord
  2
ACAD_ISO06W100
 70
     0
  3
ISO long-dash triple-dot ____ ... ____ ... ____
 72
    65
 73
     8
 40
1.419999999999999
 49
0.9399999999999998
 74
     0
 49
-0.12
 74
     0
 49
0.0
 74
     0
 49
-0.12
 74
     0
 49
0.0
 74
     0
 49
-0.12
 74
     0
 49
0.0
 74
     0
 49
-0.12
 74
     0
  0
LTYPE
  5
A8
330
5
100
AcDbSymbolTableRecord
100
AcDbLinetypeTableRecord
  2
ACAD_ISO07W100
 70
     0
  3
ISO dot . . . . . . . . . . . . . . . . . . . .
 72
    65
 73
     2
 40
0.12
 49
0.0
 74
     0
 49
-0.12
 74
     0
  0
LTYPE
  5
A9
330
5
100
AcDbSymbolTableRecord
100
AcDbLinetypeTableRecord
  2
ACAD_ISO08W100
 70
     0
  3
ISO long-dash short-dash ____ __ ____ __ ____ _
 72
    65
 73
     4
 40
0.95
 49
0.47
 74
     0
 49
-0.12
 74
     0
 49
0.24
 74
     0
 49
-0.12
 74
     0
  0
LTYPE
  5
AA
330
5
100
AcDbSymbolTableRecord
100
AcDbLinetypeTableRecord
  2
ACAD_ISO09W100
 70
     0
  3
ISO long-dash double-short-dash ____ __ __ ____
 72
    65
 73
     6
 40
1.31
 49
0.47
 74
     0
 49
-0.12
 74
     0
 49
0.24
 74
     0
 49
-0.12
 74
     0
 49
0.24
 74
     0
 49
-0.12
 74
     0
  0
LTYPE
  5
AB
330
5
100
AcDbSymbolTableRecord
100
AcDbLinetypeTableRecord
  2
ACAD_ISO10W100
 70
     0
  3
ISO dash dot __ . __ . __ . __ . __ . __ . __ .
 72
    65
 73
     4
 40
0.71
 49
0.47
 74
     0
 49
-0.12
 74
     0
 49
0.0
 74
     0
 49
-0.12
 74
     0
  0
LTYPE
  5
AC
330
5
100
AcDbSymbolTableRecord
100
AcDbLinetypeTableRecord
  2
ACAD_ISO11W100
 70
     0
  3
ISO double-dash dot __ __ . __ __ . __ __ . __ 
 72
    65
 73
     6
 40
1.299999999999999
 49
0.47
 74
     0
 49
-0.12
 74
     0
 49
0.47
 74
     0
 49
-0.12
 74
     0
 49
0.0
 74
     0
 49
-0.12
 74
     0
  0
LTYPE
  5
AD
330
5
100
AcDbSymbolTableRecord
100
AcDbLinetypeTableRecord
  2
ACAD_ISO12W100
 70
     0
  3
ISO dash double-dot __ . . __ . . __ . . __ . .
 72
    65
 73
     6
 40
0.8299999999999998
 49
0.47
 74
     0
 49
-0.12
 74
     0
 49
0.0
 74
     0
 49
-0.12
 74
     0
 49
0.0
 74
     0
 49
-0.12
 74
     0
  0
LTYPE
  5
AE
330
5
100
AcDbSymbolTableRecord
100
AcDbLinetypeTableRecord
  2
ACAD_ISO13W100
 70
     0
  3
ISO double-dash double-dot __ __ . . __ __ . . 
 72
    65
 73
     8
 40
1.419999999999999
 49
0.47
 74
     0
 49
-0.12
 74
     0
 49
0.47
 74
     0
 49
-0.12
 74
     0
 49
0.0
 74
     0
 49
-0.12
 74
     0
 49
0.0
 74
     0
 49
-0.12
 74
     0
  0
LTYPE
  5
AF
330
5
100
AcDbSymbolTableRecord
100
AcDbLinetypeTableRecord
  2
ACAD_ISO14W100
 70
     0
  3
ISO dash triple-dot __ . . . __ . . . __ . . . 
 72
    65
 73
     8
 40
0.95
 49
0.47
 74
     0
 49
-0.12
 74
     0
 49
0.0
 74
     0
 49
-0.12
 74
     0
 49
0.0
 74
     0
 49
-0.12
 74
     0
 49
0.0
 74
     0
 49
-0.12
 74
     0
  0
LTYPE
  5
B0
330
5
100
AcDbSymbolTableRecord
100
AcDbLinetypeTableRecord
  2
ACAD_ISO15W100
 70
     0
  3
ISO double-dash triple-dot __ __ . . . __ __ . 
 72
    65
 73
    10
 40
1.539999999999999
 49
0.47
 74
     0
 49
-0.12
 74
     0
 49
0.47
 74
     0
 49
-0.12
 74
     0
 49
0.0
 74
     0
 49
-0.12
 74
     0
 49
0.0
 74
     0
 49
-0.12
 74
     0
 49
0.0
 74
     0
 49
-0.12
 74
     0
  0
LTYPE
  5
B3
330
5
100
AcDbSymbolTableRecord
100
AcDbLinetypeTableRecord
  2
FENCELINE1
 70
     0
  3
Fenceline circle ----0-----0----0-----0----0---
 72
    65
 73
     4
 40
1.45
 49
0.25
 74
     0
 49
-0.1
 74
     4
 75
   133
340
B2
 46
0.1
 50
0.0
 44
-0.1
 45
0.0
 49
-0.1
 74
     0
 49
1.0
 74
     0
  0
LTYPE
  5
B4
330
5
100
AcDbSymbolTableRecord
100
AcDbLinetypeTableRecord
  2
FENCELINE2
 70
     0
  3
Fenceline square ----[]-----[]----[]-----[]----
 72
    65
 73
     4
 40
1.45
 49
0.25
 74
     0
 49
-0.1
 74
     4
 75
   132
340
B2
 46
0.1
 50
0.0
 44
-0.1
 45
0.0
 49
-0.1
 74
     0
 49
1.0
 74
     0
  0
LTYPE
  5
B5
330
5
100
AcDbSymbolTableRecord
100
AcDbLinetypeTableRecord
  2
TRACKS
 70
     0
  3
Tracks -|-|-|-|-|-|-|-|-|-|-|-|-|-|-|-|-|-|-|-|
 72
    65
 73
     2
 40
0.3
 49
0.15
 74
     4
 75
   130
340
B2
 46
0.25
 50
0.0
 44
0.0
 45
0.0
 49
0.15
 74
     0
  0
LTYPE
  5
B6
330
5
100
AcDbSymbolTableRecord
100
AcDbLinetypeTableRecord
  2
BATTING
 70
     0
  3
Batting SSSSSSSSSSSSSSSSSSSSSSSSSSSSSSSSSSSSSSS
 72
    65
 73
     4
 40
0.4001000000000001
 49
0.0001
 74
     0
 49
-0.1
 74
     4
 75
   134
340
B2
 46
0.1
 50
0.0
 44
-0.1
 45
0.0
 49
-0.2
 74
     4
 75
   134
340
B2
 46
0.1
 50
180.0
 44
0.1
 45
0.0
 49
-0.1
 74
     0
  0
LTYPE
  5
B7
330
5
100
AcDbSymbolTableRecord
100
AcDbLinetypeTableRecord
  2
HOT_WATER_SUPPLY
 70
     0
  3
Hot water supply ---- HW ---- HW ---- HW ----
 72
    65
 73
     3
 40
0.9
 49
0.5
 74
     0
 49
-0.2
 74
     2
 75
     0
340
55
 46
0.1
 50
0.0
 44
-0.1
 45
-0.05
  9
HW
 49
-0.2
 74
     0
  0
LTYPE
  5
B8
330
5
100
AcDbSymbolTableRecord
100
AcDbLinetypeTableRecord
  2
GAS_LINE
 70
     0
  3
Gas line ----GAS----GAS----GAS----GAS----GAS---
 72
    65
 73
     3
 40
0.95
 49
0.5
 74
     0
 49
-0.2
 74
     2
 75
     0
340
55
 46
0.1
 50
0.0
 44
-0.1
 45
-0.05
  9
GAS
 49
-0.25
 74
     0
  0
LTYPE
  5
B9
330
5
100
AcDbSymbolTableRecord
100
AcDbLinetypeTableRecord
  2
ZIGZAG
 70
     0
  3
Zig zag /\/\/\/\/\/\/\/\/\/\/\/\/\/\/\/\/\/\/\/
 72
    65
 73
     4
 40
0.8001000000000001
 49
0.0001
 74
     0
 49
-0.2
 74
     4
 75
   131
340
B2
 46
0.2
 50
0.0
 44
-0.2
 45
0.0
 49
-0.4
 74
     4
 75
   131
340
B2
 46
0.2
 50
180.0
 44
0.2
 45
0.0
 49
-0.2
 74
     0
  0
ENDTAB
  0
TABLE
  2
LAYER
  5
2
330
0
100
AcDbSymbolTable
 70
    27
  0
LAYER
  5
54
330
2
100
AcDbSymbolTableRecord
100
AcDbLayerTableRecord
  2
0
 70
     0
 62
     7
  6
Continuous
370
    18
390
F
  0
LAYER
  5
C3
330
2
100
AcDbSymbolTableRecord
100
AcDbLayerTableRecord
  2
Dimension (ANSI)
 70
     0
 62
     7
  6
Continuous
370
    13
390
F
  0
LAYER
  5
C5
330
2
100
AcDbSymbolTableRecord
100
AcDbLayerTableRecord
  2
Hidden (ANSI)
 70
     0
 62
     7
  6
DASHED
370
    15
390
F
  0
LAYER
  5
CC
330
2
100
AcDbSymbolTableRecord
100
AcDbLayerTableRecord
  2
Symbol (ANSI)
 70
     0
 62
     7
  6
Continuous
370
    18
390
F
  0
LAYER
  5
CF
330
2
100
AcDbSymbolTableRecord
100
AcDbLayerTableRecord
  2
Visible (ANSI)
 70
     0
 62
     7
  6
Continuous
370
    13
390
F
  0
LAYER
  5
D0
330
2
100
AcDbSymbolTableRecord
100
AcDbLayerTableRecord
  2
Visible Narrow (ANSI)
 70
     0
 62
     7
  6
Continuous
370
    18
390
F
  0
LAYER
  5
1FF
330
2
100
AcDbSymbolTableRecord
100
AcDbLayerTableRecord
  2
Defpoints
 70
     0
 62
     7
  6
Continuous
290
     0
370
    -3
390
F
  0
ENDTAB
  0
TABLE
  2
STYLE
  5
3
330
0
100
AcDbSymbolTable
 70
    17
  0
STYLE
  5
55
330
3
100
AcDbSymbolTableRecord
100
AcDbTextStyleTableRecord
  2
Standard
 70
     0
 40
0.0
 41
1.0
 50
0.0
 71
     0
 42
0.2
  3
txt
  4

  0
STYLE
  5
5A
330
3
100
AcDbSymbolTableRecord
100
AcDbTextStyleTableRecord
  2
Annotative
 70
     0
 40
0.0
 41
1.0
 50
0.0
 71
     0
 42
0.2
  3
txt
  4

1001
AcadAnnotative
1000
AnnotativeData
1002
{
1070
     1
1070
     1
1002
}
  0
STYLE
  5
B2
330
3
100
AcDbSymbolTableRecord
100
AcDbTextStyleTableRecord
  2

 70
     1
 40
0.0
 41
1.0
 50
0.0
 71
     0
 42
0.2
  3
ltypeshp.shx
  4

  0
STYLE
  5
D4
330
3
100
AcDbSymbolTableRecord
100
AcDbTextStyleTableRecord
  2
ITALICC_120
 70
     0
 40
0.0
 41
1.0
 50
0.0
 71
     0
 42
0.2
  3
italicc.shx
  4

  0
STYLE
  5
D5
330
3
100
AcDbSymbolTableRecord
100
AcDbTextStyleTableRecord
  2
Label Text (ANSI)
 70
     0
 40
0.0
 41
1.0
 50
0.0
 71
     0
 42
0.2
  3
RomanS.shx
  4

  0
STYLE
  5
D6
330
3
100
AcDbSymbolTableRecord
100
AcDbTextStyleTableRecord
  2
Note Text (ANSI)
 70
     0
 40
0.0
 41
1.0
 50
0.0
 71
     0
 42
0.2
  3
RomanS.shx
  4

  0
STYLE
  5
D7
330
3
100
AcDbSymbolTableRecord
100
AcDbTextStyleTableRecord
  2
ROMANS
 70
     0
 40
0.0
 41
1.0
 50
0.0
 71
     0
 42
0.2
  3
romans.shx
  4

  0
STYLE
  5
D8
330
3
100
AcDbSymbolTableRecord
100
AcDbTextStyleTableRecord
  2
SANSSERIF_114
 70
     0
 40
0.0
 41
1.0
 50
0.0
 71
     0
 42
0.2
  3
TAHOMA.TTF
  4

1001
ACAD
1000
Tahoma
1071
      256
  0
STYLE
  5
D9
330
3
100
AcDbSymbolTableRecord
100
AcDbTextStyleTableRecord
  2
SANSSERIF_117
 70
     0
 40
0.0
 41
1.0
 50
0.0
 71
     0
 42
0.2
  3
TAHOMA.TTF
  4

1001
ACAD
1000
Tahoma
1071
      256
  0
STYLE
  5
DA
330
3
100
AcDbSymbolTableRecord
100
AcDbTextStyleTableRecord
  2
STANDARDAM_ANSI
 70
     0
 40
0.0
 41
1.0
 50
0.0
 71
     0
 42
0.2
  3
txt.shx
  4

  0
STYLE
  5
DB
330
3
100
AcDbSymbolTableRecord
100
AcDbTextStyleTableRecord
  2
StandardAM_ANSI$0
 70
     0
 40
0.0
 41
1.0
 50
0.0
 71
     0
 42
0.2
  3
txt.shx
  4

  0
STYLE
  5
DC
330
3
100
AcDbSymbolTableRecord
100
AcDbTextStyleTableRecord
  2
STANDARDAM_ANSI$3
 70
     0
 40
0.0
 41
1.0
 50
0.0
 71
     0
 42
0.2
  3
txt.shx
  4

  0
STYLE
  5
DD
330
3
100
AcDbSymbolTableRecord
100
AcDbTextStyleTableRecord
  2
STANDARDAM_ANSI$4
 70
     0
 40
0.0
 41
1.0
 50
0.0
 71
     0
 42
0.2
  3
txt.shx
  4

  0
STYLE
  5
DE
330
3
100
AcDbSymbolTableRecord
100
AcDbTextStyleTableRecord
  2
STANDARDAM_ANSI$7
 70
     0
 40
0.0
 41
1.0
 50
0.0
 71
     0
 42
0.2
  3
txt.shx
  4

  0
STYLE
  5
DF
330
3
100
AcDbSymbolTableRecord
100
AcDbTextStyleTableRecord
  2
STANDARDAM_ANSI$SF
 70
     0
 40
0.0
 41
1.0
 50
0.0
 71
     0
 42
0.2
  3
txt.shx
  4

  0
STYLE
  5
E0
330
3
100
AcDbSymbolTableRecord
100
AcDbTextStyleTableRecord
  2
STANDARDAM_ANSI$SH
 70
     0
 40
0.0
 41
1.0
 50
0.0
 71
     0
 42
0.2
  3
txt.shx
  4

  0
STYLE
  5
E1
330
3
100
AcDbSymbolTableRecord
100
AcDbTextStyleTableRecord
  2
STANDARDSTANDARD
 70
     0
 40
0.0
 41
1.0
 50
0.0
 71
     0
 42
0.2
  3
txt.shx
  4

  0
ENDTAB
  0
TABLE
  2
VIEW
  5
6
330
0
100
AcDbSymbolTable
 70
     0
  0
ENDTAB
  0
TABLE
  2
UCS
  5
7
330
0
100
AcDbSymbolTable
 70
     0
  0
ENDTAB
  0
TABLE
  2
APPID
  5
9
330
0
100
AcDbSymbolTable
 70
     4
  0
APPID
  5
56
330
9
100
AcDbSymbolTableRecord
100
AcDbRegAppTableRecord
  2
ACAD
 70
     0
  0
APPID
  5
5E
330
9
100
AcDbSymbolTableRecord
100
AcDbRegAppTableRecord
  2
AcadAnnotative
 70
     0
  0
APPID
  5
46D
330
9
100
AcDbSymbolTableRecord
100
AcDbRegAppTableRecord
  2
ACAD_DSTYLE_DIMRADIAL_EXTENSION
 70
     0
  0
APPID
  5
FF3
330
9
100
AcDbSymbolTableRecord
100
AcDbRegAppTableRecord
  2
ACAD_MLEADERVER
 70
     0
  0
ENDTAB
  0
TABLE
  2
DIMSTYLE
  5
A
330
0
100
AcDbSymbolTable
 70
    27
100
AcDbDimStyleTable
 71
     2
340
F6
340
58
  0
DIMSTYLE
105
58
330
A
100
AcDbSymbolTableRecord
100
AcDbDimStyleTableRecord
  2
STANDARD
 70
     0
 41
0.1800000071525573
 42
0.0625
140
0.1800000071525574
144
1.0
147
0.0900000035762787
176
   256
177
   256
178
   256
274
     3
340
55
371
    -1
372
    -1
  0
DIMSTYLE
105
59
330
A
100
AcDbSymbolTableRecord
100
AcDbDimStyleTableRecord
  2
Annotative
 70
     0
340
55
1001
AcadAnnotative
1000
AnnotativeData
1002
{
1070
     1
1070
     1
1002
}
  0
DIMSTYLE
105
E2
330
A
100
AcDbSymbolTableRecord
100
AcDbDimStyleTableRecord
  2
AM_ANSI
 70
     0
  4
 mm
 40
6.0
 41
0.119999997317791
 42
0.05
 43
0.5
 44
0.1
 45
0.00000001
 78
     4
 79
     2
140
0.1200000047683716
146
0.7099999453624112
147
0.0599999986588955
176
   256
177
   256
178
     2
284
     4
340
DA
371
    -1
372
    -1
  0
DIMSTYLE
105
E3
330
A
100
AcDbSymbolTableRecord
100
AcDbDimStyleTableRecord
  2
AM_ANSI$7
 70
     0
  4
 mm
 40
6.0
 41
0.119999997317791
 42
0.05
 43
0.5
 44
0.1
 45
0.00000001
 78
     4
 79
     2
140
0.1200000047683716
146
0.7099999453624112
147
0.0599999986588955
176
   256
177
   256
178
     2
284
     4
340
DA
371
    -1
372
    -1
  0
DIMSTYLE
105
E4
330
A
100
AcDbSymbolTableRecord
100
AcDbDimStyleTableRecord
  2
AM_ANSI$0
 70
     0
  4
 mm
 40
6.0
 41
0.119999997317791
 42
0.05
 43
0.5
 44
0.1
 45
0.00000001
 78
     4
 79
     2
140
0.1200000047683716
146
0.7099999453624112
147
0.0599999986588955
176
   256
177
   256
178
     2
284
     4
340
DB
371
    -1
372
    -1
  0
DIMSTYLE
105
E5
330
A
100
AcDbSymbolTableRecord
100
AcDbDimStyleTableRecord
  2
AM_ANSI$0$7
 70
     0
  4
 mm
 40
6.0
 41
0.119999997317791
 42
0.05
 43
0.5
 44
0.1
 45
0.00000001
 78
     4
 79
     2
140
0.1200000047683716
146
0.7099999453624112
147
0.0599999986588955
176
   256
177
   256
178
     2
284
     4
340
DB
371
    -1
372
    -1
  0
DIMSTYLE
105
E6
330
A
100
AcDbSymbolTableRecord
100
AcDbDimStyleTableRecord
  2
AM_ANSI$3
 70
     0
  4
 mm
 40
6.0
 41
0.119999997317791
 42
0.05
 43
0.5
 44
0.1
 45
0.00000001
 78
     4
 79
     2
140
0.1200000047683716
146
0.7099999453624112
147
0.0599999986588955
176
   256
177
   256
178
     2
284
     4
340
DC
371
    -1
372
    -1
  0
DIMSTYLE
105
E7
330
A
100
AcDbSymbolTableRecord
100
AcDbDimStyleTableRecord
  2
AM_ANSI$3$7
 70
     0
  4
 mm
 40
6.0
 41
0.119999997317791
 42
0.05
 43
0.5
 44
0.1
 45
0.00000001
 78
     4
 79
     2
140
0.1200000047683716
146
0.7099999453624112
147
0.0599999986588955
176
   256
177
   256
178
     2
284
     4
340
DC
371
    -1
372
    -1
  0
DIMSTYLE
105
E8
330
A
100
AcDbSymbolTableRecord
100
AcDbDimStyleTableRecord
  2
AM_ANSI$4
 70
     0
  4
 mm
 40
6.0
 41
0.119999997317791
 42
0.05
 43
0.5
 44
0.1
 45
0.00000001
 78
     4
 79
     2
140
0.1200000047683716
146
0.7099999453624112
147
0.0599999986588955
176
   256
177
   256
178
     2
284
     4
340
DD
371
    -1
372
    -1
  0
DIMSTYLE
105
E9
330
A
100
AcDbSymbolTableRecord
100
AcDbDimStyleTableRecord
  2
AM_ANSI$4$7
 70
     0
  4
 mm
 40
6.0
 41
0.119999997317791
 42
0.05
 43
0.5
 44
0.1
 45
0.00000001
 78
     4
 79
     2
140
0.1200000047683716
146
0.7099999453624112
147
0.0599999986588955
176
   256
177
   256
178
     2
284
     4
340
DD
371
    -1
372
    -1
  0
DIMSTYLE
105
EA
330
A
100
AcDbSymbolTableRecord
100
AcDbDimStyleTableRecord
  2
AM_ANSI$SF
 70
     0
  4
 mm
 40
6.0
 41
0.119999997317791
 42
0.05
 43
0.5
 44
0.1
 45
0.00000001
 75
     1
 76
     1
 78
     4
 79
     2
140
0.1200000047683716
146
0.7099999453624112
147
0.0599999986588955
176
   256
177
   256
178
     2
284
     4
340
DF
371
    -1
372
    -1
  0
DIMSTYLE
105
EB
330
A
100
AcDbSymbolTableRecord
100
AcDbDimStyleTableRecord
  2
AM_ANSI$SF$7
 70
     0
  4
 mm
 40
6.0
 41
0.119999997317791
 42
0.05
 43
0.5
 44
0.1
 45
0.00000001
 75
     1
 76
     1
 78
     4
 79
     2
140
0.1200000047683716
146
0.7099999453624112
147
0.0599999986588955
176
   256
177
   256
178
     2
284
     4
340
DF
371
    -1
372
    -1
  0
DIMSTYLE
105
EC
330
A
100
AcDbSymbolTableRecord
100
AcDbDimStyleTableRecord
  2
AM_ANSI$SH
 70
     0
  4
 mm
 40
6.0
 41
0.119999997317791
 42
0.05
 43
0.5
 44
0.1
 45
0.00000001
 75
     1
 76
     1
 78
     4
 79
     2
140
0.1200000047683716
146
0.7099999453624112
147
0.0599999986588955
176
   256
177
   256
178
     2
284
     4
340
E0
371
    -1
372
    -1
  0
DIMSTYLE
105
ED
330
A
100
AcDbSymbolTableRecord
100
AcDbDimStyleTableRecord
  2
AM_ANSI$SH$7
 70
     0
  4
 mm
 40
6.0
 41
0.119999997317791
 42
0.05
 43
0.5
 44
0.1
 45
0.00000001
 75
     1
 76
     1
 78
     4
 79
     2
140
0.1200000047683716
146
0.7099999453624112
147
0.0599999986588955
176
   256
177
   256
178
     2
284
     4
340
E0
371
    -1
372
    -1
  0
DIMSTYLE
105
EE
330
A
100
AcDbSymbolTableRecord
100
AcDbDimStyleTableRecord
  2
Architectural (ANSI)
 70
     0
 40
6.0
 41
0.0984251946210861
 43
0.2362204724409449
 44
0.125
 45
0.00000001
 46
0.3937007874015748
 78
     3
 79
     3
140
0.1200000047683716
147
0.031496062992126
171
     1
176
   256
177
   256
178
   256
272
     2
274
     1
276
     2
277
     4
284
    12
285
     4
286
    12
340
D6
371
    -1
372
    -1
  0
DIMSTYLE
105
EF
330
A
100
AcDbSymbolTableRecord
100
AcDbDimStyleTableRecord
  2
Architectural (ANSI)$7
 70
     0
 40
6.0
 41
0.0984251946210861
 43
0.2362204724409449
 44
0.125
 45
0.00000001
 46
0.3937007874015748
 78
     3
 79
     3
140
0.1200000047683716
147
0.031496062992126
171
     1
176
   256
177
   256
178
   256
272
     2
274
     1
276
     2
277
     4
284
    12
285
     4
286
    12
340
D6
371
    -1
372
    -1
  0
DIMSTYLE
105
F0
330
A
100
AcDbSymbolTableRecord
100
AcDbDimStyleTableRecord
  2
Default - Fraction (ANSI)
 70
     0
 40
6.0
 41
0.0984251946210861
 43
0.2362204724409449
 44
0.125
 45
0.00000001
 46
0.3937007874015748
 79
     3
140
0.1200000047683716
147
0.031496062992126
171
     1
176
   256
177
   256
178
   256
272
     2
274
     1
276
     2
277
     5
284
    12
285
     4
286
    12
340
D6
371
    -1
372
    -1
  0
DIMSTYLE
105
F1
330
A
100
AcDbSymbolTableRecord
100
AcDbDimStyleTableRecord
  2
Default - Fraction (ANSI)$7
 70
     0
 40
6.0
 41
0.0984251946210861
 43
0.2362204724409449
 44
0.125
 45
0.00000001
 46
0.3937007874015748
 79
     3
140
0.1200000047683716
147
0.031496062992126
171
     1
176
   256
177
   256
178
   256
272
     2
274
     1
276
     2
277
     5
284
    12
285
     4
286
    12
340
D6
371
    -1
372
    -1
  0
DIMSTYLE
105
F2
330
A
100
AcDbSymbolTableRecord
100
AcDbDimStyleTableRecord
  2
Default - mm (ANSI)
 70
     0
 40
6.0
 41
0.0984251946210861
 42
0.063
 43
0.2362204724409449
 44
0.125
 45
0.00000001
 46
0.3937007874015748
 73
     0
 78
     4
 79
     1
140
0.1200000047683716
143
1.0
144
25.4
147
0.031496062992126
171
     1
176
   256
177
   256
178
   256
179
     1
271
     2
272
     2
274
     1
284
     4
285
     4
340
D6
371
    -1
372
    -1
  0
DIMSTYLE
105
F3
330
A
100
AcDbSymbolTableRecord
100
AcDbDimStyleTableRecord
  2
Default - mm (ANSI)$7
 70
     0
 40
6.0
 41
0.0984251946210861
 42
0.063
 43
0.2362204724409449
 44
0.125
 45
0.00000001
 46
0.3937007874015748
 73
     0
 78
     4
 79
     1
140
0.1200000047683716
143
1.0
144
25.4
147
0.031496062992126
171
     1
176
   256
177
   256
178
   256
179
     1
271
     2
272
     2
274
     1
284
     4
285
     4
340
D6
371
    -1
372
    -1
  0
DIMSTYLE
105
F4
330
A
100
AcDbSymbolTableRecord
100
AcDbDimStyleTableRecord
  2
Default - mm [in] (ANSI)
 70
     0
  4
 in
 40
6.0
 41
0.0984251946210861
 42
0.063
 43
0.25
 44
0.125
 45
0.00000001
 46
0.3937007874015748
 73
     0
 78
     4
 79
     1
140
0.1200000047683716
143
0.03937
144
25.4
147
0.031496062992126
170
     1
171
     3
176
   256
177
   256
178
   256
179
     1
271
     2
272
     2
274
     3
284
     4
285
     4
286
     4
340
D6
371
    -1
372
    -1
  0
DIMSTYLE
105
F5
330
A
100
AcDbSymbolTableRecord
100
AcDbDimStyleTableRecord
  2
Default - mm [in] (ANSI)$7
 70
     0
  4
 in
 40
6.0
 41
0.0984251946210861
 42
0.063
 43
0.25
 44
0.125
 45
0.00000001
 46
0.3937007874015748
 73
     0
 78
     4
 79
     1
140
0.1200000047683716
143
0.03937
144
25.4
147
0.031496062992126
170
     1
171
     3
176
   256
177
   256
178
   256
179
     1
271
     2
272
     2
274
     3
284
     4
285
     4
286
     4
340
D6
371
    -1
372
    -1
  0
DIMSTYLE
105
F6
102
{ACAD_REACTORS
330
1FD
330
2EA
330
3D4
330
48E
330
547
330
645
330
72F
330
82F
330
919
330
A19
330
B03
330
BED
330
CEF
330
DD9
330
EC3
102
}
330
A
100
AcDbSymbolTableRecord
100
AcDbDimStyleTableRecord
  2
Default (ANSI)
 70
     0
 40
6.0
 41
0.0984251946210861
 43
0.2362204724409449
 44
0.125
 45
0.00000001
 46
0.3937007874015748
 79
     1
140
0.1200000047683716
147
0.031496062992126
171
     1
176
   256
177
   256
178
   256
271
     3
272
     2
274
     1
284
     4
285
     4
340
D6
371
    -1
372
    -1
  0
DIMSTYLE
105
F7
330
A
100
AcDbSymbolTableRecord
100
AcDbDimStyleTableRecord
  2
Default (ANSI)$7
 70
     0
 40
6.0
 41
0.0984251946210861
 43
0.2362204724409449
 44
0.125
 45
0.00000001
 46
0.3937007874015748
 79
     1
140
0.1200000047683716
147
0.031496062992126
171
     1
176
   256
177
   256
178
   256
271
     3
272
     2
274
     1
284
     4
285
     4
340
D6
371
    -1
372
    -1
  0
DIMSTYLE
105
F8
330
A
100
AcDbSymbolTableRecord
100
AcDbDimStyleTableRecord
  2
Alternate (ANSI)
 70
     0
 40
6.0
 41
0.0979999974370003
340
55
342
F9
  0
DIMSTYLE
105
10B
330
A
100
AcDbSymbolTableRecord
100
AcDbDimStyleTableRecord
  2
Datum (ANSI)
 70
     0
 40
6.0
 41
0.0979999974370003
340
55
342
F9
  0
DIMSTYLE
105
11A
330
A
100
AcDbSymbolTableRecord
100
AcDbDimStyleTableRecord
  2
Large (ANSI)
 70
     0
 40
6.0
 41
0.1959999948740005
340
55
342
F9
  0
ENDTAB
  0
TABLE
  2
BLOCK_RECORD
  5
1
330
0
100
AcDbSymbolTable
 70
    19
  0
BLOCK_RECORD
  5
6C
330
1
100
AcDbSymbolTableRecord
100
AcDbBlockTableRecord
  2
*Model_Space
340
6F
  0
BLOCK_RECORD
  5
68
330
1
100
AcDbSymbolTableRecord
100
AcDbBlockTableRecord
  2
*Paper_Space
340
6B
  0
BLOCK_RECORD
  5
70
330
1
100
AcDbSymbolTableRecord
100
AcDbBlockTableRecord
  2
*Paper_Space0
340
73
  0
BLOCK_RECORD
  5
F9
330
1
100
AcDbSymbolTableRecord
100
AcDbBlockTableRecord
  2
_Closed
340
0
  0
BLOCK_RECORD
  5
100
330
1
100
AcDbSymbolTableRecord
100
AcDbBlockTableRecord
  2
DatumFilled45
340
0
  0
BLOCK_RECORD
  5
10C
330
1
100
AcDbSymbolTableRecord
100
AcDbBlockTableRecord
  2
Filled-1
340
0
  0
BLOCK_RECORD
  5
200
330
1
100
AcDbSymbolTableRecord
100
AcDbBlockTableRecord
  2
*D4
340
0
  0
BLOCK_RECORD
  5
2EB
330
1
100
AcDbSymbolTableRecord
100
AcDbBlockTableRecord
  2
*D5
340
0
  0
BLOCK_RECORD
  5
3D5
330
1
100
AcDbSymbolTableRecord
100
AcDbBlockTableRecord
  2
*D6
340
0
  0
BLOCK_RECORD
  5
48F
330
1
100
AcDbSymbolTableRecord
100
AcDbBlockTableRecord
  2
*D7
340
0
  0
BLOCK_RECORD
  5
548
330
1
100
AcDbSymbolTableRecord
100
AcDbBlockTableRecord
  2
*D8
340
0
  0
BLOCK_RECORD
  5
646
330
1
100
AcDbSymbolTableRecord
100
AcDbBlockTableRecord
  2
*D9
340
0
  0
BLOCK_RECORD
  5
730
330
1
100
AcDbSymbolTableRecord
100
AcDbBlockTableRecord
  2
*D10
340
0
  0
BLOCK_RECORD
  5
830
330
1
100
AcDbSymbolTableRecord
100
AcDbBlockTableRecord
  2
*D11
340
0
  0
BLOCK_RECORD
  5
91A
330
1
100
AcDbSymbolTableRecord
100
AcDbBlockTableRecord
  2
*D12
340
0
  0
BLOCK_RECORD
  5
A1A
330
1
100
AcDbSymbolTableRecord
100
AcDbBlockTableRecord
  2
*D13
340
0
  0
BLOCK_RECORD
  5
B04
330
1
100
AcDbSymbolTableRecord
100
AcDbBlockTableRecord
  2
*D14
340
0
  0
BLOCK_RECORD
  5
BEE
330
1
100
AcDbSymbolTableRecord
100
AcDbBlockTableRecord
  2
*D15
340
0
  0
BLOCK_RECORD
  5
CF0
330
1
100
AcDbSymbolTableRecord
100
AcDbBlockTableRecord
  2
*D16
340
0
  0
BLOCK_RECORD
  5
DDA
330
1
100
AcDbSymbolTableRecord
100
AcDbBlockTableRecord
  2
*D17
340
0
  0
BLOCK_RECORD
  5
EC4
330
1
100
AcDbSymbolTableRecord
100
AcDbBlockTableRecord
  2
*D18
340
0
  0
ENDTAB
  0
ENDSEC
  0
SECTION
  2
BLOCKS
  0
BLOCK
  5
6D
330
6C
100
AcDbEntity
  8
0
100
AcDbBlockBegin
  2
*Model_Space
 70
     0
 10
0.0
 20
0.0
 30
0.0
  3
*Model_Space
  1

  0
ENDBLK
  5
6E
330
6C
100
AcDbEntity
  8
0
100
AcDbBlockEnd
  0
BLOCK
  5
69
330
68
100
AcDbEntity
 67
     1
  8
0
100
AcDbBlockBegin
  2
*Paper_Space
 70
     0
 10
0.0
 20
0.0
 30
0.0
  3
*Paper_Space
  1

  0
ENDBLK
  5
6A
330
68
100
AcDbEntity
 67
     1
  8
0
100
AcDbBlockEnd
  0
BLOCK
  5
71
330
70
100
AcDbEntity
 67
     1
  8
0
100
AcDbBlockBegin
  2
*Paper_Space0
 70
     0
 10
0.0
 20
0.0
 30
0.0
  3
*Paper_Space0
  1

  0
ENDBLK
  5
72
330
70
100
AcDbEntity
 67
     1
  8
0
100
AcDbBlockEnd
  0
BLOCK
  5
FE
330
F9
100
AcDbEntity
  8
0
100
AcDbBlockBegin
  2
_Closed
 70
     0
 10
0.0
 20
0.0
 30
0.0
  3
_Closed
  1

  0
LINE
  5
FA
330
F9
100
AcDbEntity
  8
0
  6
ByBlock
 62
     0
370
    -2
100
AcDbLine
 10
-1.0
 20
0.1666666666666666
 30
0.0
 11
0.0
 21
0.0
 31
0.0
  0
LINE
  5
FB
330
F9
100
AcDbEntity
  8
0
  6
ByBlock
 62
     0
370
    -2
100
AcDbLine
 10
0.0
 20
0.0
 30
0.0
 11
-1.0
 21
-0.1666666666666666
 31
0.0
  0
LINE
  5
FC
330
F9
100
AcDbEntity
  8
0
  6
ByBlock
 62
     0
370
    -2
100
AcDbLine
 10
-1.0
 20
0.1666666666666666
 30
0.0
 11
-1.0
 21
-0.1666666666666666
 31
0.0
  0
LINE
  5
FD
330
F9
100
AcDbEntity
  8
0
  6
ByBlock
 62
     0
370
    -2
100
AcDbLine
 10
0.0
 20
0.0
 30
0.0
 11
-1.0
 21
0.0
 31
0.0
  0
ENDBLK
  5
FF
330
F9
100
AcDbEntity
  8
0
100
AcDbBlockEnd
  0
BLOCK
  5
101
330
100
100
AcDbEntity
  8
0
100
AcDbBlockBegin
  2
DatumFilled45
 70
     0
 10
0.0
 20
0.0
 30
0.0
  3
DatumFilled45
  1

  0
POLYLINE
  5
103
330
100
100
AcDbEntity
  8
0
 62
     0
100
AcDb2dPolyline
 66
     1
 10
0.0
 20
0.0
 30
0.0
 70
   128
  0
VERTEX
  5
104
330
103
100
AcDbEntity
  8
0
 62
     0
100
AcDbVertex
100
AcDb2dVertex
 10
0.0
 20
0.9999999999999998
 30
0.0
  0
VERTEX
  5
105
330
103
100
AcDbEntity
  8
0
 62
     0
100
AcDbVertex
100
AcDb2dVertex
 10
0.0
 20
-0.9999999999999998
 30
0.0
  0
VERTEX
  5
107
330
103
100
AcDbEntity
  8
0
 62
     0
100
AcDbVertex
100
AcDb2dVertex
 10
-0.9999999999999998
 20
0.0
 30
0.0
  0
VERTEX
  5
108
330
103
100
AcDbEntity
  8
0
 62
     0
100
AcDbVertex
100
AcDb2dVertex
 10
0.0
 20
0.9999999999999998
 30
0.0
  0
SEQEND
  5
106
330
103
100
AcDbEntity
  8
0
 62
     0
  0
SOLID
  5
10A
330
100
100
AcDbEntity
  8
0
 62
     0
100
AcDbTrace
 10
0.0
 20
0.9999999999999998
 30
0.0
 11
0.0
 21
-0.9999999999999998
 31
0.0
 12
-0.9999999999999998
 22
0.0
 32
0.0
 13
0.0
 23
0.9999999999999998
 33
0.0
  0
ENDBLK
  5
102
330
100
100
AcDbEntity
  8
0
100
AcDbBlockEnd
  0
BLOCK
  5
10D
330
10C
100
AcDbEntity
  8
0
100
AcDbBlockBegin
  2
Filled-1
 70
     0
 10
0.0
 20
0.0
 30
0.0
  3
Filled-1
  1

  0
LINE
  5
10F
330
10C
100
AcDbEntity
  8
0
 62
     0
100
AcDbLine
 10
-0.9999999999999998
 20
0.0
 30
0.0
 11
0.0
 21
0.0
 31
0.0
  0
POLYLINE
  5
110
330
10C
100
AcDbEntity
  8
0
 62
     0
100
AcDb2dPolyline
 66
     1
 10
0.0
 20
0.0
 30
0.0
 70
   128
  0
VERTEX
  5
111
330
110
100
AcDbEntity
  8
0
 62
     0
100
AcDbVertex
100
AcDb2dVertex
 10
-0.9999999999999998
 20
-0.0994897959183674
 30
0.0
  0
VERTEX
  5
112
330
110
100
AcDbEntity
  8
0
 62
     0
100
AcDbVertex
100
AcDb2dVertex
 10
0.0
 20
0.0
 30
0.0
  0
VERTEX
  5
114
330
110
100
AcDbEntity
  8
0
 62
     0
100
AcDbVertex
100
AcDb2dVertex
 10
-0.9999999999999998
 20
0.0994897959183674
 30
0.0
  0
VERTEX
  5
115
330
110
100
AcDbEntity
  8
0
 62
     0
100
AcDbVertex
100
AcDb2dVertex
 10
-0.9999999999999998
 20
-0.0994897959183674
 30
0.0
  0
SEQEND
  5
113
330
110
100
AcDbEntity
  8
0
 62
     0
  0
SOLID
  5
116
330
10C
100
AcDbEntity
  8
0
 62
     0
100
AcDbTrace
 10
-0.9999999999999998
 20
-0.0994897959183674
 30
0.0
 11
0.0
 21
0.0
 31
0.0
 12
-0.9999999999999998
 22
0.0994897959183674
 32
0.0
 13
-0.9999999999999998
 23
-0.0994897959183674
 33
0.0
  0
LINE
  5
117
330
10C
100
AcDbEntity
  8
0
 62
     0
100
AcDbLine
 10
-0.9999999999999998
 20
-0.0994897959183674
 30
0.0
 11
0.0
 21
0.0
 31
0.0
  0
LINE
  5
118
330
10C
100
AcDbEntity
  8
0
 62
     0
100
AcDbLine
 10
0.0
 20
0.0
 30
0.0
 11
-0.9999999999999998
 21
0.0994897959183674
 31
0.0
  0
LINE
  5
119
330
10C
100
AcDbEntity
  8
0
 62
     0
100
AcDbLine
 10
-0.9999999999999998
 20
0.0994897959183674
 30
0.0
 11
-0.9999999999999998
 21
-0.0994897959183674
 31
0.0
  0
ENDBLK
  5
10E
330
10C
100
AcDbEntity
  8
0
100
AcDbBlockEnd
  0
BLOCK
  5
201
330
200
100
AcDbEntity
  8
0
100
AcDbBlockBegin
  2
*D4
 70
     1
 10
0.0
 20
0.0
 30
0.0
  3
*D4
  1

  0
LINE
  5
2E0
330
200
100
AcDbEntity
  8
Dimension (ANSI)
100
AcDbLine
 10
50.4171146796918
 20
52.58660732381312
 30
0.0
 11
50.4171146796918
 21
59.57578055215958
 31
0.0
  0
LINE
  5
2E1
330
200
100
AcDbEntity
  8
Dimension (ANSI)
100
AcDbLine
 10
16.2171146796918
 20
52.58660732381312
 30
0.0
 11
16.2171146796918
 21
59.57578055215958
 31
0.0
  0
LINE
  5
2E2
330
200
100
AcDbEntity
  8
Dimension (ANSI)
100
AcDbLine
 10
49.82656351196528
 20
58.82578055215958
 30
0.0
 11
35.28894827134607
 21
58.82578055215958
 31
0.0
  0
LINE
  5
2E3
330
200
100
AcDbEntity
  8
Dimension (ANSI)
100
AcDbLine
 10
16.80766584741831
 20
58.82578055215958
 30
0.0
 11
31.34528108803751
 21
58.82578055215958
 31
0.0
  0
SOLID
  5
2E4
330
200
100
AcDbEntity
  8
Dimension (ANSI)
100
AcDbTrace
 10
49.82656351196528
 20
58.92420574678067
 30
0.0
 11
49.82656351196528
 21
58.7273553575385
 31
0.0
 12
50.4171146796918
 22
58.82578055215958
 32
0.0
 13
50.4171146796918
 23
58.82578055215958
 33
0.0
  0
SOLID
  5
2E5
330
200
100
AcDbEntity
  8
Dimension (ANSI)
100
AcDbTrace
 10
16.80766584741831
 20
58.92420574678067
 30
0.0
 11
16.80766584741831
 21
58.7273553575385
 31
0.0
 12
16.2171146796918
 22
58.82578055215958
 32
0.0
 13
16.2171146796918
 23
58.82578055215958
 33
0.0
  0
MTEXT
  5
2E6
330
200
100
AcDbEntity
  8
Dimension (ANSI)
100
AcDbMText
 10
31.53425746599027
 20
59.1857805664647
 30
0.0
 40
0.7200000286102295
 41
0.0
 71
     1
 72
     1
  1
\A1;34.200
  7
Note Text (ANSI)
 73
     1
 44
1.0
1001
ACAD
1000
MTEXTBEGIN
1070
    73
1070
     1
1070
    44
1040
1.0
1070
    74
1070
     0
1000
MTEXTEND
  0
POINT
  5
2E7
330
200
100
AcDbEntity
  8
Defpoints
 62
     0
100
AcDbPoint
 10
50.4171146796918
 20
52.21160732381313
 30
0.0
  0
POINT
  5
2E8
330
200
100
AcDbEntity
  8
Defpoints
 62
     0
100
AcDbPoint
 10
16.2171146796918
 20
52.21160732381313
 30
0.0
  0
POINT
  5
2E9
330
200
100
AcDbEntity
  8
Defpoints
 62
     0
100
AcDbPoint
 10
16.2171146796918
 20
58.82578055215958
 30
0.0
  0
ENDBLK
  5
202
330
200
100
AcDbEntity
  8
0
100
AcDbBlockEnd
  0
BLOCK
  5
2EC
330
2EB
100
AcDbEntity
  8
0
100
AcDbBlockBegin
  2
*D5
 70
     1
 10
0.0
 20
0.0
 30
0.0
  3
*D5
  1

  0
LINE
  5
3CA
330
2EB
100
AcDbEntity
  8
Dimension (ANSI)
100
AcDbLine
 10
16.34211467969179
 20
52.71160732381312
 30
0.0
 11
5.558289472516389
 21
52.71160732381313
 31
0.0
  0
LINE
  5
3CB
330
2EB
100
AcDbEntity
  8
Dimension (ANSI)
100
AcDbLine
 10
16.3421146796918
 20
18.51160732381313
 30
0.0
 11
5.558289472516382
 21
18.51160732381313
 31
0.0
  0
LINE
  5
3CC
330
2EB
100
AcDbEntity
  8
Dimension (ANSI)
100
AcDbLine
 10
6.308289472516389
 20
52.12105615608662
 30
0.0
 11
6.308289472516387
 21
40.15169449573781
 31
0.0
  0
LINE
  5
3CD
330
2EB
100
AcDbEntity
  8
Dimension (ANSI)
100
AcDbLine
 10
6.308289472516382
 20
19.10215849153965
 30
0.0
 11
6.308289472516387
 21
39.05374171122207
 31
0.0
  0
SOLID
  5
3CE
330
2EB
100
AcDbEntity
  8
Dimension (ANSI)
100
AcDbTrace
 10
6.209864277895303
 20
52.12105615608662
 30
0.0
 11
6.406714667137475
 21
52.12105615608662
 31
0.0
 12
6.308289472516389
 22
52.71160732381313
 32
0.0
 13
6.308289472516389
 23
52.71160732381313
 33
0.0
  0
SOLID
  5
3CF
330
2EB
100
AcDbEntity
  8
Dimension (ANSI)
100
AcDbTrace
 10
6.209864277895296
 20
19.10215849153965
 30
0.0
 11
6.406714667137468
 21
19.10215849153965
 31
0.0
 12
6.308289472516382
 22
18.51160732381313
 32
0.0
 13
6.308289472516382
 23
18.51160732381313
 33
0.0
  0
MTEXT
  5
3D0
330
2EB
100
AcDbEntity
  8
Dimension (ANSI)
100
AcDbMText
 10
4.52543225881486
 20
39.96271811778505
 30
0.0
 40
0.7200000286102295
 41
0.0
 71
     1
 72
     1
  1
\A1;34.200
  7
Note Text (ANSI)
 73
     1
 44
1.0
1001
ACAD
1000
MTEXTBEGIN
1070
    73
1070
     1
1070
    44
1040
1.0
1070
    74
1070
     0
1000
MTEXTEND
  0
POINT
  5
3D1
330
2EB
100
AcDbEntity
  8
Defpoints
 62
     0
100
AcDbPoint
 10
16.7171146796918
 20
52.71160732381312
 30
0.0
  0
POINT
  5
3D2
330
2EB
100
AcDbEntity
  8
Defpoints
 62
     0
100
AcDbPoint
 10
16.7171146796918
 20
18.51160732381313
 30
0.0
  0
POINT
  5
3D3
330
2EB
100
AcDbEntity
  8
Defpoints
 62
     0
100
AcDbPoint
 10
6.308289472516382
 20
18.51160732381313
 30
0.0
  0
ENDBLK
  5
2ED
330
2EB
100
AcDbEntity
  8
0
100
AcDbBlockEnd
  0
BLOCK
  5
3D6
330
3D5
100
AcDbEntity
  8
0
100
AcDbBlockBegin
  2
*D6
 70
     1
 10
0.0
 20
0.0
 30
0.0
  3
*D6
  1

  0
LINE
  5
486
330
3D5
100
AcDbEntity
  8
Dimension (ANSI)
100
AcDbLine
 10
19.7979495996181
 20
14.19635558765064
 30
0.0
 11
18.94481985173605
 21
14.19635558765064
 31
0.0
  0
LINE
  5
487
330
3D5
100
AcDbEntity
  8
Dimension (ANSI)
100
AcDbLine
 10
18.94481985173605
 20
14.19635558765064
 30
0.0
 11
17.0862294068895
 21
18.26698638974182
 31
0.0
  0
MTEXT
  5
488
102
{ACAD_XDICTIONARY
360
FFA
102
}
330
3D5
100
AcDbEntity
  8
Dimension (ANSI)
100
AcDbMText
 10
19.98692597757086
 20
14.77064132475642
 30
0.0
 40
0.7200000286102295
 41
0.0
 71
     1
 72
     1
  1
\A1;\U+22050.500{\PTYP.(8PL.)}
  7
Note Text (ANSI)
 73
     1
 44
1.0
1001
ACAD
1000
MTEXTBEGIN
1070
    73
1070
     1
1070
    44
1040
1.0
1070
    74
1070
     0
1000
MTEXTEND
  0
SOLID
  5
489
330
3D5
100
AcDbEntity
  8
Dimension (ANSI)
100
AcDbTrace
 10
17.17576347350781
 20
18.30786633410316
 30
0.0
 11
16.99669534027119
 21
18.22610644538047
 31
0.0
 12
16.84094974072145
 22
18.80419078945169
 32
0.0
 13
16.84094974072145
 23
18.80419078945169
 33
0.0
  0
LINE
  5
48A
330
3D5
100
AcDbEntity
  8
Dimension (ANSI)
100
AcDbLine
 10
16.19711467969181
 20
19.03160732381312
 30
0.0
 11
17.27711467969181
 21
19.03160732381313
 31
0.0
  0
LINE
  5
48B
330
3D5
100
AcDbEntity
  8
Dimension (ANSI)
100
AcDbLine
 10
16.7371146796918
 20
18.49160732381313
 30
0.0
 11
16.73711467969181
 21
19.57160732381313
 31
0.0
  0
POINT
  5
48C
330
3D5
100
AcDbEntity
  8
Defpoints
 62
     0
100
AcDbPoint
 10
16.84094974072145
 20
18.80419078945169
 30
0.0
  0
POINT
  5
48D
330
3D5
100
AcDbEntity
  8
Defpoints
 62
     0
100
AcDbPoint
 10
16.63327961866216
 20
19.25902385817457
 30
0.0
  0
ENDBLK
  5
3D7
330
3D5
100
AcDbEntity
  8
0
100
AcDbBlockEnd
  0
BLOCK
  5
490
330
48F
100
AcDbEntity
  8
0
100
AcDbBlockBegin
  2
*D7
 70
     1
 10
0.0
 20
0.0
 30
0.0
  3
*D7
  1

  0
LINE
  5
53F
330
48F
100
AcDbEntity
  8
Dimension (ANSI)
100
AcDbLine
 10
19.77170589893751
 20
17.13565014358774
 30
0.0
 11
18.91857615105542
 21
17.13565014358773
 31
0.0
  0
LINE
  5
540
330
48F
100
AcDbEntity
  8
Dimension (ANSI)
100
AcDbLine
 10
18.91857615105542
 20
17.13565014358773
 30
0.0
 11
17.21217788425234
 21
19.20538953877836
 31
0.0
  0
MTEXT
  5
541
102
{ACAD_XDICTIONARY
360
FFC
102
}
330
48F
100
AcDbEntity
  8
Dimension (ANSI)
100
AcDbMText
 10
19.96068227689027
 20
17.70993588069352
 30
0.0
 40
0.7200000286102295
 41
0.0
 71
     1
 72
     1
  1
\A1;\U+22050.313{\PTYP.(4PL.)}
  7
Note Text (ANSI)
 73
     1
 44
1.0
1001
ACAD
1000
MTEXTBEGIN
1070
    73
1070
     1
1070
    44
1040
1.0
1070
    74
1070
     0
1000
MTEXTEND
  0
SOLID
  5
542
330
48F
100
AcDbEntity
  8
Dimension (ANSI)
100
AcDbTrace
 10
17.28812091981137
 20
19.26800083397563
 30
0.0
 11
17.13623484869331
 21
19.1427782435811
 31
0.0
 12
16.83651011306875
 22
19.66104775213253
 32
0.0
 13
16.83651011306875
 23
19.66104775213253
 33
0.0
  0
LINE
  5
543
330
48F
100
AcDbEntity
  8
Dimension (ANSI)
100
AcDbLine
 10
16.19711467969181
 20
19.78160732381313
 30
0.0
 11
17.2771146796918
 21
19.78160732381313
 31
0.0
  0
LINE
  5
544
330
48F
100
AcDbEntity
  8
Dimension (ANSI)
100
AcDbLine
 10
16.7371146796918
 20
19.24160732381313
 30
0.0
 11
16.7371146796918
 21
20.32160732381314
 31
0.0
  0
POINT
  5
545
330
48F
100
AcDbEntity
  8
Defpoints
 62
     0
100
AcDbPoint
 10
16.83651011306875
 20
19.66104775213253
 30
0.0
  0
POINT
  5
546
330
48F
100
AcDbEntity
  8
Defpoints
 62
     0
100
AcDbPoint
 10
16.63771924631486
 20
19.90216689549373
 30
0.0
  0
ENDBLK
  5
491
330
48F
100
AcDbEntity
  8
0
100
AcDbBlockEnd
  0
BLOCK
  5
549
330
548
100
AcDbEntity
  8
0
100
AcDbBlockBegin
  2
*D8
 70
     1
 10
0.0
 20
0.0
 30
0.0
  3
*D8
  1

  0
LINE
  5
63B
330
548
100
AcDbEntity
  8
Dimension (ANSI)
100
AcDbLine
 10
67.65748337708072
 20
39.81857314958822
 30
0.0
 11
67.65748337708072
 21
18.65617157478507
 31
0.0
  0
LINE
  5
63C
330
548
100
AcDbEntity
  8
Dimension (ANSI)
100
AcDbLine
 10
67.75123337708072
 20
39.81857314958821
 30
0.0
 11
67.75123337708072
 21
18.65617157478507
 31
0.0
  0
LINE
  5
63D
330
548
100
AcDbEntity
  8
Dimension (ANSI)
100
AcDbLine
 10
68.34178454480724
 20
19.40617157478507
 30
0.0
 11
68.93233571253375
 21
19.40617157478507
 31
0.0
  0
LINE
  5
63E
330
548
100
AcDbEntity
  8
Dimension (ANSI)
100
AcDbLine
 10
67.0669322093542
 20
19.40617157478507
 30
0.0
 11
66.38074338673451
 21
19.40617157478507
 31
0.0
  0
SOLID
  5
63F
330
548
100
AcDbEntity
  8
Dimension (ANSI)
100
AcDbTrace
 10
68.34178454480724
 20
19.50459676940616
 30
0.0
 11
68.34178454480724
 21
19.30774638016399
 31
0.0
 12
67.75123337708072
 22
19.40617157478507
 32
0.0
 13
67.75123337708072
 23
19.40617157478507
 33
0.0
  0
SOLID
  5
640
330
548
100
AcDbEntity
  8
Dimension (ANSI)
100
AcDbTrace
 10
67.0669322093542
 20
19.50459676940616
 30
0.0
 11
67.0669322093542
 21
19.30774638016399
 31
0.0
 12
67.65748337708072
 22
19.40617157478507
 32
0.0
 13
67.65748337708072
 23
19.40617157478507
 33
0.0
  0
MTEXT
  5
641
330
548
100
AcDbEntity
  8
Dimension (ANSI)
100
AcDbMText
 10
61.83748112147227
 20
19.88617159385856
 30
0.0
 40
0.7200000286102295
 41
0.0
 71
     1
 72
     1
  1
\A1; 12 GA.\P304 SS
  7
Note Text (ANSI)
 73
     1
 44
1.0
1001
ACAD
1000
MTEXTBEGIN
1070
    73
1070
     1
1070
    44
1040
1.0
1070
    74
1070
     0
1000
MTEXTEND
  0
POINT
  5
642
330
548
100
AcDbEntity
  8
Defpoints
 62
     0
100
AcDbPoint
 10
67.65748337708072
 20
40.19357314958821
 30
0.0
  0
POINT
  5
643
330
548
100
AcDbEntity
  8
Defpoints
 62
     0
100
AcDbPoint
 10
67.75123337708072
 20
40.19357314958821
 30
0.0
  0
POINT
  5
644
330
548
100
AcDbEntity
  8
Defpoints
 62
     0
100
AcDbPoint
 10
67.75123337708072
 20
19.40617157478507
 30
0.0
  0
ENDBLK
  5
54A
330
548
100
AcDbEntity
  8
0
100
AcDbBlockEnd
  0
BLOCK
  5
647
330
646
100
AcDbEntity
  8
0
100
AcDbBlockBegin
  2
*D9
 70
     1
 10
0.0
 20
0.0
 30
0.0
  3
*D9
  1

  0
LINE
  5
725
330
646
100
AcDbEntity
  8
Dimension (ANSI)
100
AcDbLine
 10
16.36211467969181
 20
52.19160732381311
 30
0.0
 11
8.284601894325405
 21
52.19160732381312
 31
0.0
  0
LINE
  5
726
330
646
100
AcDbEntity
  8
Dimension (ANSI)
100
AcDbLine
 10
16.36211467969181
 20
19.03160732381313
 30
0.0
 11
8.284601894325396
 21
19.03160732381313
 31
0.0
  0
LINE
  5
727
330
646
100
AcDbEntity
  8
Dimension (ANSI)
100
AcDbLine
 10
9.034601894325403
 20
51.6010561560866
 30
0.0
 11
9.034601894325401
 21
38.06686715086488
 31
0.0
  0
LINE
  5
728
330
646
100
AcDbEntity
  8
Dimension (ANSI)
100
AcDbLine
 10
9.034601894325396
 20
19.62215849153965
 30
0.0
 11
9.034601894325401
 21
36.96891436634914
 31
0.0
  0
SOLID
  5
729
330
646
100
AcDbEntity
  8
Dimension (ANSI)
100
AcDbTrace
 10
8.936176699704317
 20
51.6010561560866
 30
0.0
 11
9.133027088946489
 21
51.6010561560866
 31
0.0
 12
9.034601894325405
 22
52.19160732381312
 32
0.0
 13
9.034601894325405
 23
52.19160732381312
 33
0.0
  0
SOLID
  5
72A
330
646
100
AcDbEntity
  8
Dimension (ANSI)
100
AcDbTrace
 10
8.93617669970431
 20
19.62215849153965
 30
0.0
 11
9.133027088946482
 21
19.62215849153965
 31
0.0
 12
9.034601894325396
 22
19.03160732381313
 32
0.0
 13
9.034601894325396
 23
19.03160732381313
 33
0.0
  0
MTEXT
  5
72B
330
646
100
AcDbEntity
  8
Dimension (ANSI)
100
AcDbMText
 10
7.251744680623874
 20
37.87789077291213
 30
0.0
 40
0.7200000286102295
 41
0.0
 71
     1
 72
     1
  1
\A1;33.160
  7
Note Text (ANSI)
 73
     1
 44
1.0
1001
ACAD
1000
MTEXTBEGIN
1070
    73
1070
     1
1070
    44
1040
1.0
1070
    74
1070
     0
1000
MTEXTEND
  0
POINT
  5
72C
330
646
100
AcDbEntity
  8
Defpoints
 62
     0
100
AcDbPoint
 10
16.7371146796918
 20
52.19160732381311
 30
0.0
  0
POINT
  5
72D
330
646
100
AcDbEntity
  8
Defpoints
 62
     0
100
AcDbPoint
 10
16.7371146796918
 20
19.03160732381313
 30
0.0
  0
POINT
  5
72E
330
646
100
AcDbEntity
  8
Defpoints
 62
     0
100
AcDbPoint
 10
9.034601894325396
 20
19.03160732381313
 30
0.0
  0
ENDBLK
  5
648
330
646
100
AcDbEntity
  8
0
100
AcDbBlockEnd
  0
BLOCK
  5
731
330
730
100
AcDbEntity
  8
0
100
AcDbBlockBegin
  2
*D10
 70
     1
 10
0.0
 20
0.0
 30
0.0
  3
*D10
  1

  0
LINE
  5
824
330
730
100
AcDbEntity
  8
Dimension (ANSI)
100
AcDbLine
 10
16.36211467969181
 20
19.78160732381313
 30
0.0
 11
11.18059998380852
 21
19.78160732381313
 31
0.0
  0
LINE
  5
825
330
730
100
AcDbEntity
  8
Dimension (ANSI)
100
AcDbLine
 10
16.36211467969181
 20
19.03160732381313
 30
0.0
 11
11.18059998380852
 21
19.03160732381313
 31
0.0
  0
LINE
  5
826
330
730
100
AcDbEntity
  8
Dimension (ANSI)
100
AcDbLine
 10
11.93059998380852
 20
18.44105615608661
 30
0.0
 11
11.93059998380852
 21
17.8505049883601
 31
0.0
  0
LINE
  5
827
330
730
100
AcDbEntity
  8
Dimension (ANSI)
100
AcDbLine
 10
11.93059998380852
 20
20.37215849153965
 30
0.0
 11
11.93059998380852
 21
21.40057166939705
 31
0.0
  0
LINE
  5
828
330
730
100
AcDbEntity
  8
Dimension (ANSI)
100
AcDbLine
 10
11.93059998380852
 20
21.40057166939705
 30
0.0
 11
12.52115115153503
 21
21.40057166939705
 31
0.0
  0
SOLID
  5
829
330
730
100
AcDbEntity
  8
Dimension (ANSI)
100
AcDbTrace
 10
11.83217478918743
 20
18.44105615608661
 30
0.0
 11
12.0290251784296
 21
18.44105615608661
 31
0.0
 12
11.93059998380852
 22
19.03160732381313
 32
0.0
 13
11.93059998380852
 23
19.03160732381313
 33
0.0
  0
SOLID
  5
82A
330
730
100
AcDbEntity
  8
Dimension (ANSI)
100
AcDbTrace
 10
11.83217478918743
 20
20.37215849153965
 30
0.0
 11
12.0290251784296
 21
20.37215849153965
 31
0.0
 12
11.93059998380852
 22
19.78160732381313
 32
0.0
 13
11.93059998380852
 23
19.78160732381313
 33
0.0
  0
MTEXT
  5
82B
330
730
100
AcDbEntity
  8
Dimension (ANSI)
100
AcDbMText
 10
12.71012752948779
 20
21.76057168370217
 30
0.0
 40
0.7200000286102295
 41
0.0
 71
     1
 72
     1
  1
\A1;0.750
  7
Note Text (ANSI)
 73
     1
 44
1.0
1001
ACAD
1000
MTEXTBEGIN
1070
    73
1070
     1
1070
    44
1040
1.0
1070
    74
1070
     0
1000
MTEXTEND
  0
POINT
  5
82C
330
730
100
AcDbEntity
  8
Defpoints
 62
     0
100
AcDbPoint
 10
16.7371146796918
 20
19.78160732381313
 30
0.0
  0
POINT
  5
82D
330
730
100
AcDbEntity
  8
Defpoints
 62
     0
100
AcDbPoint
 10
16.7371146796918
 20
19.03160732381313
 30
0.0
  0
POINT
  5
82E
330
730
100
AcDbEntity
  8
Defpoints
 62
     0
100
AcDbPoint
 10
11.93059998380852
 20
19.03160732381313
 30
0.0
  0
ENDBLK
  5
732
330
730
100
AcDbEntity
  8
0
100
AcDbBlockEnd
  0
BLOCK
  5
831
330
830
100
AcDbEntity
  8
0
100
AcDbBlockBegin
  2
*D11
 70
     1
 10
0.0
 20
0.0
 30
0.0
  3
*D11
  1

  0
LINE
  5
90F
330
830
100
AcDbEntity
  8
Dimension (ANSI)
100
AcDbLine
 10
49.89711467969179
 20
52.56660732381313
 30
0.0
 11
49.89711467969179
 21
57.514172465649
 31
0.0
  0
LINE
  5
910
330
830
100
AcDbEntity
  8
Dimension (ANSI)
100
AcDbLine
 10
16.7371146796918
 20
52.56660732381312
 30
0.0
 11
16.7371146796918
 21
57.514172465649
 31
0.0
  0
LINE
  5
911
330
830
100
AcDbEntity
  8
Dimension (ANSI)
100
AcDbLine
 10
49.30656351196528
 20
56.76417246564899
 30
0.0
 11
35.28894827134608
 21
56.76417246564899
 31
0.0
  0
LINE
  5
912
330
830
100
AcDbEntity
  8
Dimension (ANSI)
100
AcDbLine
 10
17.32766584741832
 20
56.76417246564899
 30
0.0
 11
31.34528108803753
 21
56.76417246564899
 31
0.0
  0
SOLID
  5
913
330
830
100
AcDbEntity
  8
Dimension (ANSI)
100
AcDbTrace
 10
49.30656351196528
 20
56.86259766027008
 30
0.0
 11
49.30656351196528
 21
56.66574727102791
 31
0.0
 12
49.89711467969179
 22
56.76417246564899
 32
0.0
 13
49.89711467969179
 23
56.76417246564899
 33
0.0
  0
SOLID
  5
914
330
830
100
AcDbEntity
  8
Dimension (ANSI)
100
AcDbTrace
 10
17.32766584741832
 20
56.86259766027008
 30
0.0
 11
17.32766584741832
 21
56.66574727102791
 31
0.0
 12
16.7371146796918
 22
56.76417246564899
 32
0.0
 13
16.7371146796918
 23
56.76417246564899
 33
0.0
  0
MTEXT
  5
915
330
830
100
AcDbEntity
  8
Dimension (ANSI)
100
AcDbMText
 10
31.53425746599028
 20
57.12417247995411
 30
0.0
 40
0.7200000286102295
 41
0.0
 71
     1
 72
     1
  1
\A1;33.160
  7
Note Text (ANSI)
 73
     1
 44
1.0
1001
ACAD
1000
MTEXTBEGIN
1070
    73
1070
     1
1070
    44
1040
1.0
1070
    74
1070
     0
1000
MTEXTEND
  0
POINT
  5
916
330
830
100
AcDbEntity
  8
Defpoints
 62
     0
100
AcDbPoint
 10
49.89711467969179
 20
52.19160732381312
 30
0.0
  0
POINT
  5
917
330
830
100
AcDbEntity
  8
Defpoints
 62
     0
100
AcDbPoint
 10
16.7371146796918
 20
52.19160732381311
 30
0.0
  0
POINT
  5
918
330
830
100
AcDbEntity
  8
Defpoints
 62
     0
100
AcDbPoint
 10
16.7371146796918
 20
56.76417246564899
 30
0.0
  0
ENDBLK
  5
832
330
830
100
AcDbEntity
  8
0
100
AcDbBlockEnd
  0
BLOCK
  5
91B
330
91A
100
AcDbEntity
  8
0
100
AcDbBlockBegin
  2
*D12
 70
     1
 10
0.0
 20
0.0
 30
0.0
  3
*D12
  1

  0
LINE
  5
A0E
330
91A
100
AcDbEntity
  8
Dimension (ANSI)
100
AcDbLine
 10
50.0421146796918
 20
19.01160732381313
 30
0.0
 11
49.53636149275882
 21
19.01160732381313
 31
0.0
  0
LINE
  5
A0F
330
91A
100
AcDbEntity
  8
Dimension (ANSI)
100
AcDbLine
 10
50.29211467969179
 20
18.51160732381313
 30
0.0
 11
51.03636149275882
 21
18.51160732381313
 31
0.0
  0
LINE
  5
A10
330
91A
100
AcDbEntity
  8
Dimension (ANSI)
100
AcDbLine
 10
50.28636149275882
 20
17.92105615608661
 30
0.0
 11
50.28636149275882
 21
17.3305049883601
 31
0.0
  0
LINE
  5
A11
330
91A
100
AcDbEntity
  8
Dimension (ANSI)
100
AcDbLine
 10
50.28636149275882
 20
19.60215849153964
 30
0.0
 11
50.28636149275882
 21
20.7220269452967
 31
0.0
  0
LINE
  5
A12
330
91A
100
AcDbEntity
  8
Dimension (ANSI)
100
AcDbLine
 10
50.28636149275882
 20
20.7220269452967
 30
0.0
 11
50.87691266048533
 21
20.7220269452967
 31
0.0
  0
SOLID
  5
A13
330
91A
100
AcDbEntity
  8
Dimension (ANSI)
100
AcDbTrace
 10
50.18793629813774
 20
17.92105615608661
 30
0.0
 11
50.3847866873799
 21
17.92105615608661
 31
0.0
 12
50.28636149275882
 22
18.51160732381313
 32
0.0
 13
50.28636149275882
 23
18.51160732381313
 33
0.0
  0
SOLID
  5
A14
330
91A
100
AcDbEntity
  8
Dimension (ANSI)
100
AcDbTrace
 10
50.18793629813774
 20
19.60215849153964
 30
0.0
 11
50.3847866873799
 21
19.60215849153964
 31
0.0
 12
50.28636149275882
 22
19.01160732381313
 32
0.0
 13
50.28636149275882
 23
19.01160732381313
 33
0.0
  0
MTEXT
  5
A15
330
91A
100
AcDbEntity
  8
Dimension (ANSI)
100
AcDbMText
 10
51.06588903843809
 20
21.08202695960182
 30
0.0
 40
0.7200000286102295
 41
0.0
 71
     1
 72
     1
  1
\A1;0.500
  7
Note Text (ANSI)
 73
     1
 44
1.0
1001
ACAD
1000
MTEXTBEGIN
1070
    73
1070
     1
1070
    44
1040
1.0
1070
    74
1070
     0
1000
MTEXTEND
  0
POINT
  5
A16
330
91A
100
AcDbEntity
  8
Defpoints
 62
     0
100
AcDbPoint
 10
50.4171146796918
 20
19.01160732381313
 30
0.0
  0
POINT
  5
A17
330
91A
100
AcDbEntity
  8
Defpoints
 62
     0
100
AcDbPoint
 10
49.9171146796918
 20
18.51160732381313
 30
0.0
  0
POINT
  5
A18
330
91A
100
AcDbEntity
  8
Defpoints
 62
     0
100
AcDbPoint
 10
50.28636149275882
 20
18.51160732381313
 30
0.0
  0
ENDBLK
  5
91C
330
91A
100
AcDbEntity
  8
0
100
AcDbBlockEnd
  0
BLOCK
  5
A1B
330
A1A
100
AcDbEntity
  8
0
100
AcDbBlockBegin
  2
*D13
 70
     1
 10
0.0
 20
0.0
 30
0.0
  3
*D13
  1

  0
LINE
  5
AF9
330
A1A
100
AcDbEntity
  8
Dimension (ANSI)
100
AcDbLine
 10
50.4171146796918
 20
18.63660732381313
 30
0.0
 11
50.4171146796918
 21
15.90776707201598
 31
0.0
  0
LINE
  5
AFA
330
A1A
100
AcDbEntity
  8
Dimension (ANSI)
100
AcDbLine
 10
49.9171146796918
 20
18.13660732381313
 30
0.0
 11
49.9171146796918
 21
15.90776707201598
 31
0.0
  0
LINE
  5
AFB
330
A1A
100
AcDbEntity
  8
Dimension (ANSI)
100
AcDbLine
 10
51.00766584741831
 20
16.65776707201598
 30
0.0
 11
51.59821701514483
 21
16.65776707201598
 31
0.0
  0
LINE
  5
AFC
330
A1A
100
AcDbEntity
  8
Dimension (ANSI)
100
AcDbLine
 10
49.32656351196528
 20
16.65776707201598
 30
0.0
 11
48.01856276130157
 21
16.65776707201598
 31
0.0
  0
SOLID
  5
AFD
330
A1A
100
AcDbEntity
  8
Dimension (ANSI)
100
AcDbTrace
 10
51.00766584741831
 20
16.75619226663707
 30
0.0
 11
51.00766584741831
 21
16.5593418773949
 31
0.0
 12
50.4171146796918
 22
16.65776707201598
 32
0.0
 13
50.4171146796918
 23
16.65776707201598
 33
0.0
  0
SOLID
  5
AFE
330
A1A
100
AcDbEntity
  8
Dimension (ANSI)
100
AcDbTrace
 10
49.32656351196528
 20
16.75619226663707
 30
0.0
 11
49.32656351196528
 21
16.5593418773949
 31
0.0
 12
49.9171146796918
 22
16.65776707201598
 32
0.0
 13
49.9171146796918
 23
16.65776707201598
 33
0.0
  0
MTEXT
  5
AFF
330
A1A
100
AcDbEntity
  8
Dimension (ANSI)
100
AcDbMText
 10
44.9495862689079
 20
17.0177670863211
 30
0.0
 40
0.7200000286102295
 41
0.0
 71
     1
 72
     1
  1
\A1;0.500
  7
Note Text (ANSI)
 73
     1
 44
1.0
1001
ACAD
1000
MTEXTBEGIN
1070
    73
1070
     1
1070
    44
1040
1.0
1070
    74
1070
     0
1000
MTEXTEND
  0
POINT
  5
B00
330
A1A
100
AcDbEntity
  8
Defpoints
 62
     0
100
AcDbPoint
 10
50.4171146796918
 20
19.01160732381313
 30
0.0
  0
POINT
  5
B01
330
A1A
100
AcDbEntity
  8
Defpoints
 62
     0
100
AcDbPoint
 10
49.9171146796918
 20
18.51160732381313
 30
0.0
  0
POINT
  5
B02
330
A1A
100
AcDbEntity
  8
Defpoints
 62
     0
100
AcDbPoint
 10
49.9171146796918
 20
16.65776707201598
 30
0.0
  0
ENDBLK
  5
A1C
330
A1A
100
AcDbEntity
  8
0
100
AcDbBlockEnd
  0
BLOCK
  5
B05
330
B04
100
AcDbEntity
  8
0
100
AcDbBlockBegin
  2
*D14
 70
     1
 10
0.0
 20
0.0
 30
0.0
  3
*D14
  1

  0
LINE
  5
BE3
330
B04
100
AcDbEntity
  8
Dimension (ANSI)
100
AcDbLine
 10
49.89711467969179
 20
52.56660732381313
 30
0.0
 11
49.89711467969179
 21
55.72983515021728
 31
0.0
  0
LINE
  5
BE4
330
B04
100
AcDbEntity
  8
Dimension (ANSI)
100
AcDbLine
 10
50.4171146796918
 20
52.58660732381312
 30
0.0
 11
50.4171146796918
 21
55.72983515021728
 31
0.0
  0
LINE
  5
BE5
330
B04
100
AcDbEntity
  8
Dimension (ANSI)
100
AcDbLine
 10
51.00766584741831
 20
54.97983515021727
 30
0.0
 11
51.59821701514483
 21
54.97983515021727
 31
0.0
  0
LINE
  5
BE6
330
B04
100
AcDbEntity
  8
Dimension (ANSI)
100
AcDbLine
 10
49.30656351196528
 20
54.97983515021727
 30
0.0
 11
48.61555781824087
 21
54.97983515021727
 31
0.0
  0
SOLID
  5
BE7
330
B04
100
AcDbEntity
  8
Dimension (ANSI)
100
AcDbTrace
 10
51.00766584741831
 20
55.07826034483836
 30
0.0
 11
51.00766584741831
 21
54.88140995559619
 31
0.0
 12
50.4171146796918
 22
54.97983515021727
 32
0.0
 13
50.4171146796918
 23
54.97983515021727
 33
0.0
  0
SOLID
  5
BE8
330
B04
100
AcDbEntity
  8
Dimension (ANSI)
100
AcDbTrace
 10
49.30656351196528
 20
55.07826034483836
 30
0.0
 11
49.30656351196528
 21
54.88140995559619
 31
0.0
 12
49.89711467969179
 22
54.97983515021727
 32
0.0
 13
49.89711467969179
 23
54.97983515021727
 33
0.0
  0
MTEXT
  5
BE9
330
B04
100
AcDbEntity
  8
Dimension (ANSI)
100
AcDbMText
 10
45.54658132584719
 20
55.33983516452239
 30
0.0
 40
0.7200000286102295
 41
0.0
 71
     1
 72
     1
  1
\A1;0.520
  7
Note Text (ANSI)
 73
     1
 44
1.0
1001
ACAD
1000
MTEXTBEGIN
1070
    73
1070
     1
1070
    44
1040
1.0
1070
    74
1070
     0
1000
MTEXTEND
  0
POINT
  5
BEA
330
B04
100
AcDbEntity
  8
Defpoints
 62
     0
100
AcDbPoint
 10
49.89711467969179
 20
52.19160732381312
 30
0.0
  0
POINT
  5
BEB
330
B04
100
AcDbEntity
  8
Defpoints
 62
     0
100
AcDbPoint
 10
50.4171146796918
 20
52.21160732381313
 30
0.0
  0
POINT
  5
BEC
330
B04
100
AcDbEntity
  8
Defpoints
 62
     0
100
AcDbPoint
 10
50.4171146796918
 20
54.97983515021727
 30
0.0
  0
ENDBLK
  5
B06
330
B04
100
AcDbEntity
  8
0
100
AcDbBlockEnd
  0
BLOCK
  5
BEF
330
BEE
100
AcDbEntity
  8
0
100
AcDbBlockBegin
  2
*D15
 70
     1
 10
0.0
 20
0.0
 30
0.0
  3
*D15
  1

  0
LINE
  5
CE2
330
BEE
100
AcDbEntity
  8
Dimension (ANSI)
100
AcDbLine
 10
50.2721146796918
 20
52.19160732381312
 30
0.0
 11
56.51242607514577
 21
52.19160732381312
 31
0.0
  0
LINE
  5
CE3
330
BEE
100
AcDbEntity
  8
Dimension (ANSI)
100
AcDbLine
 10
50.29211467969179
 20
52.71160732381312
 30
0.0
 11
56.51242607514577
 21
52.71160732381312
 31
0.0
  0
LINE
  5
CE4
330
BEE
100
AcDbEntity
  8
Dimension (ANSI)
100
AcDbLine
 10
55.76242607514577
 20
53.30215849153964
 30
0.0
 11
55.76242607514577
 21
53.89270965926616
 31
0.0
  0
LINE
  5
CE5
330
BEE
100
AcDbEntity
  8
Dimension (ANSI)
100
AcDbLine
 10
55.76242607514577
 20
51.6010561560866
 30
0.0
 11
55.76242607514577
 21
50.48118770232953
 31
0.0
  0
LINE
  5
CE6
330
BEE
100
AcDbEntity
  8
Dimension (ANSI)
100
AcDbLine
 10
55.76242607514577
 20
50.48118770232953
 30
0.0
 11
55.17187490741925
 21
50.48118770232953
 31
0.0
  0
SOLID
  5
CE7
330
BEE
100
AcDbEntity
  8
Dimension (ANSI)
100
AcDbTrace
 10
55.66400088052468
 20
53.30215849153964
 30
0.0
 11
55.86085126976685
 21
53.30215849153964
 31
0.0
 12
55.76242607514577
 22
52.71160732381312
 32
0.0
 13
55.76242607514577
 23
52.71160732381312
 33
0.0
  0
SOLID
  5
CE8
330
BEE
100
AcDbEntity
  8
Dimension (ANSI)
100
AcDbTrace
 10
55.66400088052468
 20
51.6010561560866
 30
0.0
 11
55.86085126976685
 21
51.6010561560866
 31
0.0
 12
55.76242607514577
 22
52.19160732381312
 32
0.0
 13
55.76242607514577
 23
52.19160732381312
 33
0.0
  0
MTEXT
  5
CE9
330
BEE
100
AcDbEntity
  8
Dimension (ANSI)
100
AcDbMText
 10
52.10289841502556
 20
50.84118771663466
 30
0.0
 40
0.7200000286102295
 41
0.0
 71
     1
 72
     1
  1
\A1;0.520
  7
Note Text (ANSI)
 73
     1
 44
1.0
1001
ACAD
1000
MTEXTBEGIN
1070
    73
1070
     1
1070
    44
1040
1.0
1070
    74
1070
     0
1000
MTEXTEND
  0
POINT
  5
CEA
330
BEE
100
AcDbEntity
  8
Defpoints
 62
     0
100
AcDbPoint
 10
49.89711467969179
 20
52.19160732381312
 30
0.0
  0
POINT
  5
CEB
330
BEE
100
AcDbEntity
  8
Defpoints
 62
     0
100
AcDbPoint
 10
49.9171146796918
 20
52.71160732381312
 30
0.0
  0
POINT
  5
CEC
330
BEE
100
AcDbEntity
  8
Defpoints
 62
     0
100
AcDbPoint
 10
55.76242607514577
 20
52.71160732381312
 30
0.0
  0
ENDBLK
  5
BF0
330
BEE
100
AcDbEntity
  8
0
100
AcDbBlockEnd
  0
BLOCK
  5
CF1
330
CF0
100
AcDbEntity
  8
0
100
AcDbBlockBegin
  2
*D16
 70
     1
 10
0.0
 20
0.0
 30
0.0
  3
*D16
  1

  0
LINE
  5
DCF
330
CF0
100
AcDbEntity
  8
Dimension (ANSI)
100
AcDbLine
 10
67.65748337708057
 20
53.08660732381312
 30
0.0
 11
67.65748337708057
 21
55.4812923631832
 31
0.0
  0
LINE
  5
DD0
330
CF0
100
AcDbEntity
  8
Dimension (ANSI)
100
AcDbLine
 10
68.43148337708021
 20
53.08660732381312
 30
0.0
 11
68.43148337708021
 21
55.4812923631832
 31
0.0
  0
LINE
  5
DD1
330
CF0
100
AcDbEntity
  8
Dimension (ANSI)
100
AcDbLine
 10
69.02203454480673
 20
54.73129236318321
 30
0.0
 11
69.61258571253324
 21
54.73129236318321
 31
0.0
  0
LINE
  5
DD2
330
CF0
100
AcDbEntity
  8
Dimension (ANSI)
100
AcDbLine
 10
67.06693220935405
 20
54.73129236318321
 30
0.0
 11
65.7760743165144
 21
54.73129236318321
 31
0.0
  0
SOLID
  5
DD3
330
CF0
100
AcDbEntity
  8
Dimension (ANSI)
100
AcDbTrace
 10
69.02203454480673
 20
54.82971755780429
 30
0.0
 11
69.02203454480673
 21
54.63286716856212
 31
0.0
 12
68.43148337708021
 22
54.73129236318321
 32
0.0
 13
68.43148337708021
 23
54.73129236318321
 33
0.0
  0
SOLID
  5
DD4
330
CF0
100
AcDbEntity
  8
Dimension (ANSI)
100
AcDbTrace
 10
67.06693220935405
 20
54.82971755780429
 30
0.0
 11
67.06693220935405
 21
54.63286716856212
 31
0.0
 12
67.65748337708057
 22
54.73129236318321
 32
0.0
 13
67.65748337708057
 23
54.73129236318321
 33
0.0
  0
MTEXT
  5
DD5
330
CF0
100
AcDbEntity
  8
Dimension (ANSI)
100
AcDbMText
 10
62.67281210847261
 20
55.09129237748832
 30
0.0
 40
0.7200000286102295
 41
0.0
 71
     1
 72
     1
  1
\A1;0.774
  7
Note Text (ANSI)
 73
     1
 44
1.0
1001
ACAD
1000
MTEXTBEGIN
1070
    73
1070
     1
1070
    44
1040
1.0
1070
    74
1070
     0
1000
MTEXTEND
  0
POINT
  5
DD6
330
CF0
100
AcDbEntity
  8
Defpoints
 62
     0
100
AcDbPoint
 10
67.65748337708057
 20
52.71160732381312
 30
0.0
  0
POINT
  5
DD7
330
CF0
100
AcDbEntity
  8
Defpoints
 62
     0
100
AcDbPoint
 10
68.43148337708021
 20
52.71160732381312
 30
0.0
  0
POINT
  5
DD8
330
CF0
100
AcDbEntity
  8
Defpoints
 62
     0
100
AcDbPoint
 10
68.43148337708021
 20
54.73129236318321
 30
0.0
  0
ENDBLK
  5
CF2
330
CF0
100
AcDbEntity
  8
0
100
AcDbBlockEnd
  0
BLOCK
  5
DDB
330
DDA
100
AcDbEntity
  8
0
100
AcDbBlockBegin
  2
*D17
 70
     1
 10
0.0
 20
0.0
 30
0.0
  3
*D17
  1

  0
LINE
  5
EB9
330
DDA
100
AcDbEntity
  8
Dimension (ANSI)
100
AcDbLine
 10
16.36211467969181
 20
19.03160732381313
 30
0.0
 11
11.12401056570435
 21
19.03160732381313
 31
0.0
  0
LINE
  5
EBA
330
DDA
100
AcDbEntity
  8
Dimension (ANSI)
100
AcDbLine
 10
16.36211467969181
 20
35.61160732381313
 30
0.0
 11
11.12401056570435
 21
35.61160732381314
 31
0.0
  0
LINE
  5
EBB
330
DDA
100
AcDbEntity
  8
Dimension (ANSI)
100
AcDbLine
 10
11.87401056570435
 20
19.62215849153965
 30
0.0
 11
11.87401056570435
 21
26.77263093155526
 31
0.0
  0
LINE
  5
EBC
330
DDA
100
AcDbEntity
  8
Dimension (ANSI)
100
AcDbLine
 10
11.87401056570435
 20
35.02105615608662
 30
0.0
 11
11.87401056570435
 21
27.870583716071
 31
0.0
  0
SOLID
  5
EBD
330
DDA
100
AcDbEntity
  8
Dimension (ANSI)
100
AcDbTrace
 10
11.77558537108327
 20
19.62215849153965
 30
0.0
 11
11.97243576032544
 21
19.62215849153965
 31
0.0
 12
11.87401056570435
 22
19.03160732381313
 32
0.0
 13
11.87401056570435
 23
19.03160732381313
 33
0.0
  0
SOLID
  5
EBE
330
DDA
100
AcDbEntity
  8
Dimension (ANSI)
100
AcDbTrace
 10
11.77558537108327
 20
35.02105615608662
 30
0.0
 11
11.97243576032544
 21
35.02105615608662
 31
0.0
 12
11.87401056570435
 22
35.61160732381314
 32
0.0
 13
11.87401056570435
 23
35.61160732381314
 33
0.0
  0
MTEXT
  5
EBF
330
DDA
100
AcDbEntity
  8
Dimension (ANSI)
100
AcDbMText
 10
10.14258192547499
 20
27.68160733811825
 30
0.0
 40
0.7200000286102295
 41
0.0
 71
     1
 72
     1
  1
\A1;16.580
  7
Note Text (ANSI)
 73
     1
 44
1.0
1001
ACAD
1000
MTEXTBEGIN
1070
    73
1070
     1
1070
    44
1040
1.0
1070
    74
1070
     0
1000
MTEXTEND
  0
POINT
  5
EC0
330
DDA
100
AcDbEntity
  8
Defpoints
 62
     0
100
AcDbPoint
 10
16.7371146796918
 20
19.03160732381313
 30
0.0
  0
POINT
  5
EC1
330
DDA
100
AcDbEntity
  8
Defpoints
 62
     0
100
AcDbPoint
 10
16.7371146796918
 20
35.61160732381313
 30
0.0
  0
POINT
  5
EC2
330
DDA
100
AcDbEntity
  8
Defpoints
 62
     0
100
AcDbPoint
 10
11.87401056570435
 20
35.61160732381314
 30
0.0
  0
ENDBLK
  5
DDC
330
DDA
100
AcDbEntity
  8
0
100
AcDbBlockEnd
  0
BLOCK
  5
EC5
330
EC4
100
AcDbEntity
  8
0
100
AcDbBlockBegin
  2
*D18
 70
     1
 10
0.0
 20
0.0
 30
0.0
  3
*D18
  1

  0
LINE
  5
FA3
330
EC4
100
AcDbEntity
  8
Dimension (ANSI)
100
AcDbLine
 10
16.7371146796918
 20
52.56660732381312
 30
0.0
 11
16.7371146796918
 21
55.42043601310457
 31
0.0
  0
LINE
  5
FA4
330
EC4
100
AcDbEntity
  8
Dimension (ANSI)
100
AcDbLine
 10
33.31711467969179
 20
52.56660732381312
 30
0.0
 11
33.31711467969179
 21
55.42043601310457
 31
0.0
  0
LINE
  5
FA5
330
EC4
100
AcDbEntity
  8
Dimension (ANSI)
100
AcDbLine
 10
17.32766584741832
 20
54.67043601310457
 30
0.0
 11
23.10670966150969
 21
54.67043601310457
 31
0.0
  0
LINE
  5
FA6
330
EC4
100
AcDbEntity
  8
Dimension (ANSI)
100
AcDbLine
 10
32.72656351196527
 20
54.67043601310457
 30
0.0
 11
26.94751969787392
 21
54.67043601310457
 31
0.0
  0
SOLID
  5
FA7
330
EC4
100
AcDbEntity
  8
Dimension (ANSI)
100
AcDbTrace
 10
17.32766584741832
 20
54.76886120772565
 30
0.0
 11
17.32766584741832
 21
54.57201081848348
 31
0.0
 12
16.7371146796918
 22
54.67043601310457
 32
0.0
 13
16.7371146796918
 23
54.67043601310457
 33
0.0
  0
SOLID
  5
FA8
330
EC4
100
AcDbEntity
  8
Dimension (ANSI)
100
AcDbTrace
 10
32.72656351196527
 20
54.76886120772565
 30
0.0
 11
32.72656351196527
 21
54.57201081848348
 31
0.0
 12
33.31711467969179
 22
54.67043601310457
 32
0.0
 13
33.31711467969179
 23
54.67043601310457
 33
0.0
  0
MTEXT
  5
FA9
330
EC4
100
AcDbEntity
  8
Dimension (ANSI)
100
AcDbMText
 10
23.29568603946245
 20
55.03043602740969
 30
0.0
 40
0.7200000286102295
 41
0.0
 71
     1
 72
     1
  1
\A1;16.580
  7
Note Text (ANSI)
 73
     1
 44
1.0
1001
ACAD
1000
MTEXTBEGIN
1070
    73
1070
     1
1070
    44
1040
1.0
1070
    74
1070
     0
1000
MTEXTEND
  0
POINT
  5
FAA
330
EC4
100
AcDbEntity
  8
Defpoints
 62
     0
100
AcDbPoint
 10
16.7371146796918
 20
52.19160732381311
 30
0.0
  0
POINT
  5
FAB
330
EC4
100
AcDbEntity
  8
Defpoints
 62
     0
100
AcDbPoint
 10
33.31711467969179
 20
52.19160732381311
 30
0.0
  0
POINT
  5
FAC
330
EC4
100
AcDbEntity
  8
Defpoints
 62
     0
100
AcDbPoint
 10
33.31711467969179
 20
54.67043601310457
 30
0.0
  0
ENDBLK
  5
EC6
330
EC4
100
AcDbEntity
  8
0
100
AcDbBlockEnd
  0
ENDSEC
  0
SECTION
  2
ENTITIES
  0
CIRCLE
  5
11B
330
6C
100
AcDbEntity
  8
Visible (ANSI)
100
AcDbCircle
 10
49.89711467969179
 20
35.61160732381313
 30
0.0
 40
0.2500000000000005
  0
CIRCLE
  5
11C
330
6C
100
AcDbEntity
  8
Visible (ANSI)
100
AcDbCircle
 10
16.73711467969181
 20
35.61160732381313
 30
0.0
 40
0.2500000000000005
  0
CIRCLE
  5
11D
330
6C
100
AcDbEntity
  8
Visible (ANSI)
100
AcDbCircle
 10
33.31711467969179
 20
19.03160732381313
 30
0.0
 40
0.2499999999999999
  0
CIRCLE
  5
11E
330
6C
100
AcDbEntity
  8
Visible (ANSI)
100
AcDbCircle
 10
33.31711467969179
 20
52.19160732381312
 30
0.0
 40
0.2499999999999999
  0
LINE
  5
11F
330
6C
100
AcDbEntity
  8
Visible (ANSI)
100
AcDbLine
 10
17.93511467969181
 20
18.51160732381313
 30
0.0
 11
48.6991146796918
 21
18.51160732381313
 31
0.0
  0
LINE
  5
120
330
6C
100
AcDbEntity
  8
Visible (ANSI)
100
AcDbLine
 10
17.93511467969181
 20
18.51160732381313
 30
0.0
 11
17.93511467969181
 21
18.63660732381313
 31
0.0
  0
LINE
  5
121
330
6C
100
AcDbEntity
  8
Visible (ANSI)
100
AcDbLine
 10
48.6991146796918
 20
18.51160732381313
 30
0.0
 11
48.6991146796918
 21
18.63660732381313
 31
0.0
  0
LINE
  5
122
330
6C
100
AcDbEntity
  8
Visible (ANSI)
100
AcDbLine
 10
48.6993146796918
 20
18.63680732381313
 30
0.0
 11
48.6993146796918
 21
18.51160732381313
 31
0.0
  0
LINE
  5
123
330
6C
100
AcDbEntity
  8
Visible (ANSI)
100
AcDbLine
 10
48.6991146796918
 20
18.63680732381313
 30
0.0
 11
48.6993146796918
 21
18.63680732381313
 31
0.0
  0
LINE
  5
124
330
6C
100
AcDbEntity
  8
Visible (ANSI)
100
AcDbLine
 10
17.93491467969181
 20
18.63680732381313
 30
0.0
 11
17.93511467969181
 21
18.63680732381313
 31
0.0
  0
LINE
  5
125
330
6C
100
AcDbEntity
  8
Visible (ANSI)
100
AcDbLine
 10
17.93491467969181
 20
18.51160732381313
 30
0.0
 11
17.93491467969181
 21
18.63680732381313
 31
0.0
  0
LINE
  5
126
330
6C
100
AcDbEntity
  8
Hidden (ANSI)
 48
1.078507661819458
100
AcDbLine
 10
48.6991146796918
 20
18.60535732381313
 30
0.0
 11
17.93511467969181
 21
18.60535732381313
 31
0.0
  0
LINE
  5
127
330
6C
100
AcDbEntity
  8
Visible (ANSI)
100
AcDbLine
 10
17.93511467969181
 20
18.63680732381313
 30
0.0
 11
17.93511467969181
 21
18.63660732381313
 31
0.0
  0
LINE
  5
128
330
6C
100
AcDbEntity
  8
Visible (ANSI)
100
AcDbLine
 10
48.6991146796918
 20
18.63660732381313
 30
0.0
 11
48.6991146796918
 21
18.63680732381313
 31
0.0
  0
LINE
  5
129
330
6C
100
AcDbEntity
  8
Visible (ANSI)
100
AcDbLine
 10
17.93491467969181
 20
18.51160732381313
 30
0.0
 11
16.71711467969181
 21
18.51160732381313
 31
0.0
  0
LINE
  5
12A
330
6C
100
AcDbEntity
  8
Visible (ANSI)
100
AcDbLine
 10
49.9171146796918
 20
18.51160732381313
 30
0.0
 11
48.6993146796918
 21
18.51160732381313
 31
0.0
  0
LINE
  5
12B
330
6C
100
AcDbEntity
  8
Visible (ANSI)
100
AcDbLine
 10
50.4171146796918
 20
20.22940732381314
 30
0.0
 11
50.4171146796918
 21
19.01160732381313
 31
0.0
  0
LINE
  5
12C
330
6C
100
AcDbEntity
  8
Visible (ANSI)
100
AcDbLine
 10
50.4171146796918
 20
52.21160732381313
 30
0.0
 11
50.4171146796918
 21
50.99380732381312
 31
0.0
  0
LINE
  5
12D
330
6C
100
AcDbEntity
  8
Visible (ANSI)
100
AcDbLine
 10
48.6993146796918
 20
52.71160732381312
 30
0.0
 11
49.9171146796918
 21
52.71160732381312
 31
0.0
  0
LINE
  5
12E
330
6C
100
AcDbEntity
  8
Visible (ANSI)
100
AcDbLine
 10
16.7171146796918
 20
52.71160732381312
 30
0.0
 11
17.9349146796918
 21
52.71160732381312
 31
0.0
  0
LINE
  5
12F
330
6C
100
AcDbEntity
  8
Visible (ANSI)
100
AcDbLine
 10
16.2171146796918
 20
50.99380732381312
 30
0.0
 11
16.2171146796918
 21
52.21160732381313
 31
0.0
  0
LINE
  5
130
330
6C
100
AcDbEntity
  8
Visible (ANSI)
100
AcDbLine
 10
16.21711467969181
 20
19.01160732381313
 30
0.0
 11
16.21711467969181
 21
20.22940732381313
 31
0.0
  0
LINE
  5
131
330
6C
100
AcDbEntity
  8
Visible (ANSI)
100
AcDbLine
 10
50.4171146796918
 20
19.01160732381313
 30
0.0
 11
49.9171146796918
 21
18.51160732381313
 31
0.0
  0
LINE
  5
132
330
6C
100
AcDbEntity
  8
Visible (ANSI)
100
AcDbLine
 10
50.4171146796918
 20
20.22940732381314
 30
0.0
 11
50.29191467969181
 21
20.22940732381314
 31
0.0
  0
LINE
  5
133
330
6C
100
AcDbEntity
  8
Visible (ANSI)
100
AcDbLine
 10
50.29191467969181
 20
20.22940732381314
 30
0.0
 11
50.29191467969181
 21
20.22960732381314
 31
0.0
  0
LINE
  5
134
330
6C
100
AcDbEntity
  8
Visible (ANSI)
100
AcDbLine
 10
50.2919146796918
 20
50.99360732381312
 30
0.0
 11
50.2919146796918
 21
50.99380732381312
 31
0.0
  0
LINE
  5
135
330
6C
100
AcDbEntity
  8
Visible (ANSI)
100
AcDbLine
 10
50.2919146796918
 20
50.99380732381312
 30
0.0
 11
50.4171146796918
 21
50.99380732381312
 31
0.0
  0
LINE
  5
136
330
6C
100
AcDbEntity
  8
Visible (ANSI)
100
AcDbLine
 10
50.4171146796918
 20
20.22960732381314
 30
0.0
 11
50.41711467969179
 21
50.99360732381312
 31
0.0
  0
LINE
  5
137
330
6C
100
AcDbEntity
  8
Visible (ANSI)
100
AcDbLine
 10
50.4171146796918
 20
20.22960732381314
 30
0.0
 11
50.29211467969179
 21
20.22960732381314
 31
0.0
  0
LINE
  5
138
330
6C
100
AcDbEntity
  8
Visible (ANSI)
100
AcDbLine
 10
50.41711467969179
 20
50.99360732381312
 30
0.0
 11
50.29211467969179
 21
50.99360732381312
 31
0.0
  0
LINE
  5
139
330
6C
100
AcDbEntity
  8
Hidden (ANSI)
 48
1.078507661819458
100
AcDbLine
 10
50.32336467969179
 20
50.99360732381312
 30
0.0
 11
50.3233646796918
 21
20.22960732381314
 31
0.0
  0
LINE
  5
13A
330
6C
100
AcDbEntity
  8
Visible (ANSI)
100
AcDbLine
 10
50.29191467969181
 20
20.22960732381314
 30
0.0
 11
50.29211467969181
 21
20.22960732381314
 31
0.0
  0
LINE
  5
13B
330
6C
100
AcDbEntity
  8
Visible (ANSI)
100
AcDbLine
 10
50.29211467969179
 20
50.99360732381312
 30
0.0
 11
50.2919146796918
 21
50.99360732381312
 31
0.0
  0
LINE
  5
13C
330
6C
100
AcDbEntity
  8
Visible (ANSI)
100
AcDbLine
 10
49.9171146796918
 20
52.71160732381312
 30
0.0
 11
50.4171146796918
 21
52.21160732381313
 31
0.0
  0
LINE
  5
13D
330
6C
100
AcDbEntity
  8
Visible (ANSI)
100
AcDbLine
 10
48.6993146796918
 20
52.71160732381312
 30
0.0
 11
48.6993146796918
 21
52.58640732381313
 31
0.0
  0
LINE
  5
13E
330
6C
100
AcDbEntity
  8
Visible (ANSI)
100
AcDbLine
 10
48.6993146796918
 20
52.58640732381313
 30
0.0
 11
48.69911467969179
 21
52.58640732381313
 31
0.0
  0
LINE
  5
13F
330
6C
100
AcDbEntity
  8
Visible (ANSI)
100
AcDbLine
 10
17.93511467969179
 20
52.58640732381313
 30
0.0
 11
17.9349146796918
 21
52.58640732381313
 31
0.0
  0
LINE
  5
140
330
6C
100
AcDbEntity
  8
Visible (ANSI)
100
AcDbLine
 10
17.9349146796918
 20
52.58640732381313
 30
0.0
 11
17.9349146796918
 21
52.71160732381312
 31
0.0
  0
LINE
  5
141
330
6C
100
AcDbEntity
  8
Visible (ANSI)
100
AcDbLine
 10
48.69911467969179
 20
52.71160732381312
 30
0.0
 11
17.93511467969179
 21
52.71160732381312
 31
0.0
  0
LINE
  5
142
330
6C
100
AcDbEntity
  8
Visible (ANSI)
100
AcDbLine
 10
48.69911467969179
 20
52.71160732381312
 30
0.0
 11
48.69911467969179
 21
52.58660732381312
 31
0.0
  0
LINE
  5
143
330
6C
100
AcDbEntity
  8
Visible (ANSI)
100
AcDbLine
 10
17.93511467969179
 20
52.71160732381312
 30
0.0
 11
17.93511467969179
 21
52.58660732381312
 31
0.0
  0
LINE
  5
144
330
6C
100
AcDbEntity
  8
Hidden (ANSI)
 48
1.078507661819458
100
AcDbLine
 10
17.93511467969179
 20
52.61785732381312
 30
0.0
 11
48.69911467969179
 21
52.61785732381312
 31
0.0
  0
LINE
  5
145
330
6C
100
AcDbEntity
  8
Visible (ANSI)
100
AcDbLine
 10
48.69911467969179
 20
52.58640732381313
 30
0.0
 11
48.69911467969179
 21
52.58660732381312
 31
0.0
  0
LINE
  5
146
330
6C
100
AcDbEntity
  8
Visible (ANSI)
100
AcDbLine
 10
17.93511467969179
 20
52.58660732381312
 30
0.0
 11
17.93511467969179
 21
52.58640732381313
 31
0.0
  0
LINE
  5
147
330
6C
100
AcDbEntity
  8
Visible (ANSI)
100
AcDbLine
 10
16.2171146796918
 20
52.21160732381313
 30
0.0
 11
16.7171146796918
 21
52.71160732381312
 31
0.0
  0
LINE
  5
148
330
6C
100
AcDbEntity
  8
Visible (ANSI)
100
AcDbLine
 10
16.2171146796918
 20
50.99380732381312
 30
0.0
 11
16.34231467969178
 21
50.99380732381312
 31
0.0
  0
LINE
  5
149
330
6C
100
AcDbEntity
  8
Visible (ANSI)
100
AcDbLine
 10
16.34231467969178
 20
50.99380732381312
 30
0.0
 11
16.34231467969178
 21
50.99360732381312
 31
0.0
  0
LINE
  5
14A
330
6C
100
AcDbEntity
  8
Visible (ANSI)
100
AcDbLine
 10
16.34231467969179
 20
20.22960732381313
 30
0.0
 11
16.34231467969179
 21
20.22940732381313
 31
0.0
  0
LINE
  5
14B
330
6C
100
AcDbEntity
  8
Visible (ANSI)
100
AcDbLine
 10
16.34231467969179
 20
20.22940732381313
 30
0.0
 11
16.21711467969181
 21
20.22940732381313
 31
0.0
  0
LINE
  5
14C
330
6C
100
AcDbEntity
  8
Visible (ANSI)
100
AcDbLine
 10
16.21711467969181
 20
50.99360732381312
 30
0.0
 11
16.21711467969182
 21
20.22960732381313
 31
0.0
  0
LINE
  5
14D
330
6C
100
AcDbEntity
  8
Visible (ANSI)
100
AcDbLine
 10
16.21711467969181
 20
50.99360732381312
 30
0.0
 11
16.34211467969179
 21
50.99360732381312
 31
0.0
  0
LINE
  5
14E
330
6C
100
AcDbEntity
  8
Visible (ANSI)
100
AcDbLine
 10
16.21711467969182
 20
20.22960732381313
 30
0.0
 11
16.34211467969179
 21
20.22960732381314
 31
0.0
  0
LINE
  5
14F
330
6C
100
AcDbEntity
  8
Hidden (ANSI)
 48
1.078507661819458
100
AcDbLine
 10
16.31086467969182
 20
20.22960732381313
 30
0.0
 11
16.3108646796918
 21
50.99360732381312
 31
0.0
  0
LINE
  5
150
330
6C
100
AcDbEntity
  8
Visible (ANSI)
100
AcDbLine
 10
16.34231467969178
 20
50.99360732381312
 30
0.0
 11
16.34211467969179
 21
50.99360732381312
 31
0.0
  0
LINE
  5
151
330
6C
100
AcDbEntity
  8
Visible (ANSI)
100
AcDbLine
 10
16.34211467969179
 20
20.22960732381313
 30
0.0
 11
16.34231467969179
 21
20.22960732381313
 31
0.0
  0
LINE
  5
152
330
6C
100
AcDbEntity
  8
Visible (ANSI)
100
AcDbLine
 10
16.71711467969181
 20
18.51160732381313
 30
0.0
 11
16.21711467969181
 21
19.01160732381313
 31
0.0
  0
CIRCLE
  5
153
330
6C
100
AcDbEntity
  8
Visible (ANSI)
100
AcDbCircle
 10
49.89711467969179
 20
52.19160732381312
 30
0.0
 40
0.25
  0
CIRCLE
  5
154
330
6C
100
AcDbEntity
  8
Visible (ANSI)
100
AcDbCircle
 10
16.73711467969181
 20
52.19160732381312
 30
0.0
 40
0.25
  0
CIRCLE
  5
155
330
6C
100
AcDbEntity
  8
Visible (ANSI)
100
AcDbCircle
 10
16.7371146796918
 20
19.03160732381313
 30
0.0
 40
0.25
  0
CIRCLE
  5
156
330
6C
100
AcDbEntity
  8
Visible (ANSI)
100
AcDbCircle
 10
49.89711467969179
 20
19.03160732381313
 30
0.0
 40
0.25
  0
CIRCLE
  5
157
330
6C
100
AcDbEntity
  8
Visible (ANSI)
100
AcDbCircle
 10
49.89711467969179
 20
51.44160732381313
 30
0.0
 40
0.15625
  0
CIRCLE
  5
158
330
6C
100
AcDbEntity
  8
Visible (ANSI)
100
AcDbCircle
 10
16.73711467969181
 20
51.44160732381312
 30
0.0
 40
0.15625
  0
CIRCLE
  5
159
330
6C
100
AcDbEntity
  8
Visible (ANSI)
100
AcDbCircle
 10
16.7371146796918
 20
19.78160732381313
 30
0.0
 40
0.15625
  0
CIRCLE
  5
15A
330
6C
100
AcDbEntity
  8
Visible (ANSI)
100
AcDbCircle
 10
49.89711467969179
 20
19.78160732381313
 30
0.0
 40
0.15625
  0
LINE
  5
15B
330
6C
100
AcDbEntity
  8
Visible (ANSI)
100
AcDbLine
 10
68.43148337708021
 20
18.51160732381313
 30
0.0
 11
67.78248337708021
 21
18.51160732381313
 31
0.0
  0
LINE
  5
15C
330
6C
100
AcDbEntity
  8
Visible (ANSI)
100
AcDbLine
 10
68.43148337708021
 20
18.60535732381313
 30
0.0
 11
68.43148337708021
 21
18.51160732381313
 31
0.0
  0
LINE
  5
15D
330
6C
100
AcDbEntity
  8
Visible (ANSI)
100
AcDbLine
 10
67.78248337708021
 20
18.60535732381313
 30
0.0
 11
68.43148337708021
 21
18.60535732381313
 31
0.0
  0
ARC
  5
15E
330
6C
100
AcDbEntity
  8
Visible (ANSI)
100
AcDbCircle
 10
67.78248337708021
 20
18.63660732381313
 30
0.0
 40
0.03125
100
AcDbArc
 50
180.0
 51
270.0
  0
ARC
  5
15F
330
6C
100
AcDbEntity
  8
Visible (ANSI)
100
AcDbCircle
 10
67.78248337708021
 20
18.63660732381313
 30
0.0
 40
0.1250000000000007
100
AcDbArc
 50
255.5224878140715
 51
270.0000000000039
  0
ARC
  5
160
330
6C
100
AcDbEntity
  8
Hidden (ANSI)
 48
0.0522044003009796
100
AcDbCircle
 10
67.78248337708021
 20
18.63660732381313
 30
0.0
 40
0.125
100
AcDbArc
 50
180.0
 51
255.5224878140715
  0
LINE
  5
161
330
6C
100
AcDbEntity
  8
Hidden (ANSI)
 48
0.0296608842909336
100
AcDbLine
 10
67.65748337708021
 20
18.63680732381313
 30
0.0
 11
67.75123337708021
 21
18.63680732381313
 31
0.0
  0
LINE
  5
162
330
6C
100
AcDbEntity
  8
Visible (ANSI)
100
AcDbLine
 10
67.75123337708072
 20
52.21160732381313
 30
0.0
 11
67.75123337708056
 21
52.71160732381312
 31
0.0
  0
LINE
  5
163
330
6C
100
AcDbEntity
  8
Visible (ANSI)
100
AcDbLine
 10
67.65748337708057
 20
52.71160732381312
 30
0.0
 11
67.65748337708072
 21
52.21160732381313
 31
0.0
  0
LINE
  5
164
330
6C
100
AcDbEntity
  8
Visible (ANSI)
100
AcDbLine
 10
67.75123337708056
 20
52.71160732381312
 30
0.0
 11
67.65748337708057
 21
52.71160732381312
 31
0.0
  0
LINE
  5
165
330
6C
100
AcDbEntity
  8
Visible (ANSI)
100
AcDbLine
 10
67.65748337708072
 20
52.21160732381313
 30
0.0
 11
67.75123337708072
 21
52.21160732381313
 31
0.0
  0
LINE
  5
166
330
6C
100
AcDbEntity
  8
Visible (ANSI)
100
AcDbLine
 10
67.75123337708072
 20
50.99380732381312
 30
0.0
 11
67.75123337708072
 21
52.21160732381313
 31
0.0
  0
LINE
  5
167
330
6C
100
AcDbEntity
  8
Visible (ANSI)
100
AcDbLine
 10
67.75123337708072
 20
19.01160732381313
 30
0.0
 11
67.75123337708072
 21
20.22940732381314
 31
0.0
  0
LINE
  5
168
330
6C
100
AcDbEntity
  8
Visible (ANSI)
100
AcDbLine
 10
67.65748337708072
 20
20.22940732381314
 30
0.0
 11
67.65748337708072
 21
19.01160732381313
 31
0.0
  0
LINE
  5
169
330
6C
100
AcDbEntity
  8
Visible (ANSI)
100
AcDbLine
 10
67.65748337708072
 20
52.21160732381313
 30
0.0
 11
67.65748337708072
 21
50.99380732381312
 31
0.0
  0
LINE
  5
16A
330
6C
100
AcDbEntity
  8
Visible (ANSI)
100
AcDbLine
 10
67.75123337708068
 20
50.99380732381312
 30
0.0
 11
67.75123337708068
 21
50.99360732381312
 31
0.0
  0
LINE
  5
16B
330
6C
100
AcDbEntity
  8
Visible (ANSI)
100
AcDbLine
 10
67.75123337708068
 20
20.22960732381314
 30
0.0
 11
67.75123337708068
 21
20.22940732381314
 31
0.0
  0
LINE
  5
16C
330
6C
100
AcDbEntity
  8
Visible (ANSI)
100
AcDbLine
 10
67.65748337708068
 20
20.22940732381314
 30
0.0
 11
67.65748337708068
 21
20.22960732381314
 31
0.0
  0
LINE
  5
16D
330
6C
100
AcDbEntity
  8
Visible (ANSI)
100
AcDbLine
 10
67.65748337708068
 20
20.22960732381314
 30
0.0
 11
67.65748337708068
 21
50.99360732381312
 31
0.0
  0
LINE
  5
16E
330
6C
100
AcDbEntity
  8
Visible (ANSI)
100
AcDbLine
 10
67.65748337708068
 20
50.99360732381312
 30
0.0
 11
67.65748337708068
 21
50.99380732381312
 31
0.0
  0
LINE
  5
16F
330
6C
100
AcDbEntity
  8
Visible (ANSI)
100
AcDbLine
 10
67.78248337708075
 20
20.22960732381314
 30
0.0
 11
67.65748337708068
 21
20.22960732381314
 31
0.0
  0
LINE
  5
170
330
6C
100
AcDbEntity
  8
Visible (ANSI)
100
AcDbLine
 10
67.78248337708075
 20
50.99360732381312
 30
0.0
 11
67.65748337708068
 21
50.99360732381312
 31
0.0
  0
LINE
  5
171
330
6C
100
AcDbEntity
  8
Visible (ANSI)
100
AcDbLine
 10
67.65748337708072
 20
50.99380732381312
 30
0.0
 11
67.75123337708072
 21
50.99380732381312
 31
0.0
  0
LINE
  5
172
330
6C
100
AcDbEntity
  8
Visible (ANSI)
100
AcDbLine
 10
67.75123337708072
 20
20.22940732381314
 30
0.0
 11
67.65748337708072
 21
20.22940732381314
 31
0.0
  0
LINE
  5
173
330
6C
100
AcDbEntity
  8
Hidden (ANSI)
 48
1.078507661819458
100
AcDbLine
 10
67.75123337708068
 20
50.99360732381312
 30
0.0
 11
67.75123337708068
 21
20.22960732381314
 31
0.0
  0
LINE
  5
174
330
6C
100
AcDbEntity
  8
Visible (ANSI)
100
AcDbLine
 10
67.75123337708056
 20
18.51160732381313
 30
0.0
 11
67.75123337708072
 21
19.01160732381313
 31
0.0
  0
LINE
  5
175
330
6C
100
AcDbEntity
  8
Visible (ANSI)
100
AcDbLine
 10
67.65748337708072
 20
19.01160732381313
 30
0.0
 11
67.65748337708057
 21
18.51160732381313
 31
0.0
  0
LINE
  5
176
330
6C
100
AcDbEntity
  8
Visible (ANSI)
100
AcDbLine
 10
67.65748337708057
 20
18.51160732381313
 30
0.0
 11
67.75123337708056
 21
18.51160732381313
 31
0.0
  0
LINE
  5
177
330
6C
100
AcDbEntity
  8
Visible (ANSI)
100
AcDbLine
 10
67.75123337708072
 20
19.01160732381313
 30
0.0
 11
67.65748337708072
 21
19.01160732381313
 31
0.0
  0
LINE
  5
178
330
6C
100
AcDbEntity
  8
Visible (ANSI)
100
AcDbLine
 10
67.78248337708082
 20
52.71160732381312
 30
0.0
 11
68.43148337708021
 21
52.71160732381312
 31
0.0
  0
LINE
  5
179
330
6C
100
AcDbEntity
  8
Visible (ANSI)
100
AcDbLine
 10
68.43148337708021
 20
52.61785732381312
 30
0.0
 11
67.78248337708082
 21
52.61785732381312
 31
0.0
  0
LINE
  5
17A
330
6C
100
AcDbEntity
  8
Visible (ANSI)
100
AcDbLine
 10
68.43148337708021
 20
52.71160732381312
 30
0.0
 11
68.43148337708021
 21
52.61785732381312
 31
0.0
  0
ARC
  5
17B
330
6C
100
AcDbEntity
  8
Hidden (ANSI)
 48
0.0522044003009796
100
AcDbCircle
 10
67.78248337708021
 20
52.58660732381311
 30
0.0
 40
0.1249999999999954
100
AcDbArc
 50
104.4775121859252
 51
180.0
  0
LINE
  5
17C
330
6C
100
AcDbEntity
  8
Hidden (ANSI)
 48
0.0296608842909336
100
AcDbLine
 10
67.65748337708021
 20
52.58640732381313
 30
0.0
 11
67.75123337708021
 21
52.58640732381313
 31
0.0
  0
ARC
  5
17D
330
6C
100
AcDbEntity
  8
Visible (ANSI)
100
AcDbCircle
 10
67.7824833770802
 20
52.58660732381324
 30
0.0
 40
0.1249999999998807
100
AcDbArc
 50
89.99999999971533
 51
104.4775121859424
  0
ARC
  5
17E
330
6C
100
AcDbEntity
  8
Visible (ANSI)
100
AcDbCircle
 10
67.78248337708021
 20
52.58660732381312
 30
0.0
 40
0.0312499999999979
100
AcDbArc
 50
89.99999999887677
 51
180.0
  0
LINE
  5
17F
330
6C
100
AcDbEntity
  8
Visible (ANSI)
100
AcDbLine
 10
67.78248337708075
 20
20.22960732381314
 30
0.0
 11
68.43148337708071
 21
20.22960732381314
 31
0.0
  0
LINE
  5
180
330
6C
100
AcDbEntity
  8
Visible (ANSI)
100
AcDbLine
 10
68.43148337708071
 20
50.99360732381312
 30
0.0
 11
68.43148337708071
 21
20.22960732381314
 31
0.0
  0
LINE
  5
181
330
6C
100
AcDbEntity
  8
Visible (ANSI)
100
AcDbLine
 10
68.43148337708071
 20
50.99360732381312
 30
0.0
 11
67.78248337708075
 21
50.99360732381312
 31
0.0
  0
LINE
  5
182
330
6C
100
AcDbEntity
  8
Hidden (ANSI)
 48
0.0296608842909336
100
AcDbLine
 10
67.65748337708057
 20
35.86160732381313
 30
0.0
 11
67.75123337708056
 21
35.86160732381313
 31
0.0
  0
LINE
  5
183
330
6C
100
AcDbEntity
  8
Hidden (ANSI)
 48
0.0296608842909336
100
AcDbLine
 10
67.65748337708057
 20
35.36160732381313
 30
0.0
 11
67.75123337708056
 21
35.36160732381313
 31
0.0
  0
LINE
  5
184
330
6C
100
AcDbEntity
  8
Hidden (ANSI)
 48
0.0296608842909336
100
AcDbLine
 10
67.65748337708057
 20
52.44160732381313
 30
0.0
 11
67.75123337708056
 21
52.44160732381313
 31
0.0
  0
LINE
  5
185
330
6C
100
AcDbEntity
  8
Hidden (ANSI)
 48
0.0296608842909336
100
AcDbLine
 10
67.65748337708057
 20
51.94160732381313
 30
0.0
 11
67.75123337708056
 21
51.94160732381313
 31
0.0
  0
LINE
  5
186
330
6C
100
AcDbEntity
  8
Hidden (ANSI)
 48
0.0296608842909336
100
AcDbLine
 10
67.65748337708057
 20
19.28160732381313
 30
0.0
 11
67.75123337708056
 21
19.28160732381313
 31
0.0
  0
LINE
  5
187
330
6C
100
AcDbEntity
  8
Hidden (ANSI)
 48
0.0296608842909336
100
AcDbLine
 10
67.65748337708057
 20
18.78160732381313
 30
0.0
 11
67.75123337708056
 21
18.78160732381313
 31
0.0
  0
LINE
  5
188
330
6C
100
AcDbEntity
  8
Hidden (ANSI)
 48
0.0296608842909336
100
AcDbLine
 10
67.65748337708057
 20
51.59785732381313
 30
0.0
 11
67.75123337708056
 21
51.59785732381313
 31
0.0
  0
LINE
  5
189
330
6C
100
AcDbEntity
  8
Hidden (ANSI)
 48
0.0296608842909336
100
AcDbLine
 10
67.65748337708057
 20
51.28535732381313
 30
0.0
 11
67.75123337708056
 21
51.28535732381313
 31
0.0
  0
LINE
  5
18A
330
6C
100
AcDbEntity
  8
Hidden (ANSI)
 48
0.0296608842909336
100
AcDbLine
 10
67.65748337708057
 20
19.93785732381313
 30
0.0
 11
67.75123337708056
 21
19.93785732381313
 31
0.0
  0
LINE
  5
18B
330
6C
100
AcDbEntity
  8
Hidden (ANSI)
 48
0.0296608842909336
100
AcDbLine
 10
67.65748337708057
 20
19.62535732381313
 30
0.0
 11
67.75123337708056
 21
19.62535732381313
 31
0.0
  0
ELLIPSE
  5
18C
330
6C
100
AcDbEntity
  8
Visible (ANSI)
100
AcDbEllipse
 10
97.02198116262776
 20
41.49396063945759
 30
0.0
 11
-0.0831720352640685
 21
0.1444305726908634
 31
0.0
210
0.0
220
0.0
230
1.0
 40
0.5780931159158116
 41
0.267844877812514
 42
2.873747775777165
  0
ELLIPSE
  5
18D
330
6C
100
AcDbEntity
  8
Visible (ANSI)
100
AcDbEllipse
 10
96.97778698880359
 20
41.46851090734556
 30
0.0
 11
-0.083172035264068
 21
0.1444305726908626
 31
0.0
210
0.0
220
0.0
230
1.0
 40
0.5780931159158115
 41
0.0
 42
6.283185307179586
  0
ELLIPSE
  5
18E
330
6C
100
AcDbEntity
  8
Visible (ANSI)
100
AcDbEllipse
 10
81.39020725319479
 20
50.49570055235882
 30
0.0
 11
-0.0831720352640675
 21
0.1444305726908617
 31
0.0
210
0.0
220
0.0
230
1.0
 40
0.5780931159158114
 41
0.2678448778125145
 42
2.873747775777165
  0
ELLIPSE
  5
18F
330
6C
100
AcDbEntity
  8
Visible (ANSI)
100
AcDbEllipse
 10
81.34601307937064
 20
50.47025082024679
 30
0.0
 11
-0.083172035264068
 21
0.1444305726908626
 31
0.0
210
0.0
220
0.0
230
1.0
 40
0.5780931159158115
 41
0.0
 42
6.283185307179586
  0
ELLIPSE
  5
190
330
6C
100
AcDbEntity
  8
Visible (ANSI)
100
AcDbEllipse
 10
89.20609420791125
 20
36.95820970931535
 30
0.0
 11
-0.0831720352640677
 21
0.144430572690862
 31
0.0
210
0.0
220
0.0
230
1.0
 40
0.5780931159158116
 41
0.2678448778124878
 42
2.87374777577718
  0
ELLIPSE
  5
191
330
6C
100
AcDbEntity
  8
Visible (ANSI)
100
AcDbEllipse
 10
89.1619000340871
 20
36.93275997720333
 30
0.0
 11
-0.0831720352640678
 21
0.1444305726908622
 31
0.0
210
0.0
220
0.0
230
1.0
 40
0.5780931159158115
 41
0.0
 42
6.283185307179586
  0
ELLIPSE
  5
192
330
6C
100
AcDbEntity
  8
Visible (ANSI)
100
AcDbEllipse
 10
89.20609420791128
 20
55.03145148250106
 30
0.0
 11
-0.0831720352640677
 21
0.144430572690862
 31
0.0
210
0.0
220
0.0
230
1.0
 40
0.5780931159158113
 41
0.2678448778125135
 42
2.873747775777164
  0
ELLIPSE
  5
193
330
6C
100
AcDbEntity
  8
Visible (ANSI)
100
AcDbEllipse
 10
89.16190003408713
 20
55.00600175038903
 30
0.0
 11
-0.0831720352640678
 21
0.1444305726908622
 31
0.0
210
0.0
220
0.0
230
1.0
 40
0.5780931159158115
 41
0.0
 42
6.283185307179586
  0
ELLIPSE
  5
194
330
6C
100
AcDbEntity
  8
Visible (ANSI)
100
AcDbEllipse
 10
81.96968126037722
 20
40.927061856846
 30
0.0
 11
-0.0415860176320153
 21
-0.072215286345442
 31
0.0
210
0.0
220
0.0
230
0.9999999999999998
 40
0.578093115915636
 41
5.495853435359117
 42
6.283185307179637
  0
ELLIPSE
  5
195
330
6C
100
AcDbEntity
  8
Visible (ANSI)
100
AcDbEllipse
 10
96.4719699379947
 20
32.57574923077563
 30
0.0
 11
-0.0415860176320125
 21
-0.0722152863454372
 31
0.0
210
0.0
220
0.0
230
1.0
 40
0.578093115915636
 41
5.495853435359135
 42
5.552429523042651
  0
LINE
  5
196
330
6C
100
AcDbEntity
  8
Visible Narrow (ANSI)
100
AcDbLine
 10
81.91075569527836
 20
40.89312888069663
 30
0.0
 11
96.41304437289583
 21
32.54181625462627
 31
0.0
  0
LINE
  5
197
330
6C
100
AcDbEntity
  8
Visible (ANSI)
100
AcDbLine
 10
96.41313865379999
 20
32.54187096814775
 30
0.0
 11
96.41313865379999
 21
32.47363303479422
 31
0.0
  0
LINE
  5
198
330
6C
100
AcDbEntity
  8
Visible (ANSI)
100
AcDbLine
 10
96.41304437289583
 20
32.54192526090958
 30
0.0
 11
96.41313865379999
 21
32.54187096814775
 31
0.0
  0
LINE
  5
199
330
6C
100
AcDbEntity
  8
Visible (ANSI)
100
AcDbLine
 10
81.91066141437421
 20
40.89329217974179
 30
0.0
 11
81.91075569527836
 21
40.89323788697995
 31
0.0
  0
LINE
  5
19A
330
6C
100
AcDbEntity
  8
Visible (ANSI)
100
AcDbLine
 10
81.91066141437421
 20
40.82505424638826
 30
0.0
 11
81.91066141437421
 21
40.89329217974179
 31
0.0
  0
LINE
  5
19B
330
6C
100
AcDbEntity
  8
Visible (ANSI)
100
AcDbLine
 10
81.9452459318934
 20
40.84497014547462
 30
0.0
 11
81.91066141437421
 21
40.82505424638826
 31
0.0
  0
LINE
  5
19C
330
6C
100
AcDbEntity
  8
Visible (ANSI)
100
AcDbLine
 10
81.92809524274521
 20
40.85484657050056
 30
0.0
 11
96.41313865379999
 21
32.51346483296693
 31
0.0
  0
LINE
  5
19D
330
6C
100
AcDbEntity
  8
Visible (ANSI)
100
AcDbLine
 10
81.91075569527836
 20
40.89323788697995
 30
0.0
 11
81.91075569527836
 21
40.89312888069663
 31
0.0
  0
LINE
  5
19E
330
6C
100
AcDbEntity
  8
Visible (ANSI)
100
AcDbLine
 10
96.41304437289583
 20
32.54181625462627
 30
0.0
 11
96.41304437289583
 21
32.54192526090958
 31
0.0
  0
ELLIPSE
  5
19F
330
6C
100
AcDbEntity
  8
Visible (ANSI)
100
AcDbEllipse
 10
97.02198116262778
 20
50.53058152605045
 30
0.0
 11
-0.0831720352640685
 21
0.1444305726908634
 31
0.0
210
0.0
220
0.0
230
1.0
 40
0.5780931159158116
 41
0.267844877812514
 42
2.873747775777165
  0
ELLIPSE
  5
1A0
330
6C
100
AcDbEntity
  8
Visible (ANSI)
100
AcDbEllipse
 10
81.39020725319481
 20
59.53232143895167
 30
0.0
 11
-0.0831720352640682
 21
0.144430572690863
 31
0.0
210
0.0
220
0.0
230
1.0
 40
0.5780931159158116
 41
0.2678448778125142
 42
2.873747775777165
  0
ELLIPSE
  5
1A1
330
6C
100
AcDbEntity
  8
Visible (ANSI)
100
AcDbEllipse
 10
81.39020725319477
 20
41.45907966576596
 30
0.0
 11
-0.0831720352640678
 21
0.1444305726908622
 31
0.0
210
0.0
220
0.0
230
1.0
 40
0.5780931159158113
 41
0.2678448778125142
 42
2.873747775777164
  0
ELLIPSE
  5
1A2
330
6C
100
AcDbEntity
  8
Visible (ANSI)
100
AcDbEllipse
 10
97.02198116262772
 20
32.45733975286473
 30
0.0
 11
-0.0831720352640683
 21
0.1444305726908631
 31
0.0
210
0.0
220
0.0
230
1.0
 40
0.5780931159158114
 41
0.2678448778124878
 42
2.87374777577718
  0
ELLIPSE
  5
1A3
330
6C
100
AcDbEntity
  8
Visible (ANSI)
100
AcDbEllipse
 10
97.02198116262778
 20
50.12180796362919
 30
0.0
 11
0.051982522040048
 21
-0.0902691079317861
 31
0.0
210
0.0
220
0.0
230
0.9999999999999998
 40
0.5780931159158114
 41
3.578838513251472
 42
5.845939447516978
  0
ELLIPSE
  5
1A4
330
6C
100
AcDbEntity
  8
Visible (ANSI)
100
AcDbEllipse
 10
81.39020725319481
 20
59.12354787653041
 30
0.0
 11
0.0519825220400481
 21
-0.0902691079317864
 31
0.0
210
0.0
220
0.0
230
0.9999999999999998
 40
0.5780931159158115
 41
3.578838513251474
 42
5.84593944751698
  0
ELLIPSE
  5
1A5
330
6C
100
AcDbEntity
  8
Visible (ANSI)
100
AcDbEllipse
 10
81.39020725319477
 20
41.86785322818724
 30
0.0
 11
0.0519825220400478
 21
-0.0902691079317858
 31
0.0
210
0.0
220
0.0
230
1.0
 40
0.5780931159158115
 41
3.578838513251474
 42
5.845939447516979
  0
ELLIPSE
  5
1A6
330
6C
100
AcDbEntity
  8
Visible (ANSI)
100
AcDbEllipse
 10
97.02198116262772
 20
32.866113315286
 30
0.0
 11
0.051982522040048
 21
-0.0902691079317863
 31
0.0
210
0.0
220
0.0
230
0.9999999999999998
 40
0.5780931159158115
 41
3.57883851325152
 42
5.845939447516963
  0
ELLIPSE
  5
1A7
330
6C
100
AcDbEntity
  8
Visible (ANSI)
100
AcDbEllipse
 10
96.97778698880362
 20
50.50513179393842
 30
0.0
 11
-0.0831720352640678
 21
0.1444305726908622
 31
0.0
210
0.0
220
0.0
230
1.0
 40
0.5780931159158114
 41
0.0
 42
6.283185307179586
  0
ELLIPSE
  5
1A8
330
6C
100
AcDbEntity
  8
Visible (ANSI)
100
AcDbEllipse
 10
81.34601307937066
 20
59.50687170683965
 30
0.0
 11
-0.0831720352640678
 21
0.1444305726908622
 31
0.0
210
0.0
220
0.0
230
1.0
 40
0.5780931159158114
 41
0.0
 42
6.283185307179586
  0
ELLIPSE
  5
1A9
330
6C
100
AcDbEntity
  8
Visible (ANSI)
100
AcDbEllipse
 10
81.3460130793706
 20
41.43362993365393
 30
0.0
 11
-0.0831720352640678
 21
0.1444305726908622
 31
0.0
210
0.0
220
0.0
230
1.0
 40
0.5780931159158114
 41
0.0
 42
6.283185307179586
  0
ELLIPSE
  5
1AA
330
6C
100
AcDbEntity
  8
Visible (ANSI)
100
AcDbEllipse
 10
96.97778698880357
 20
32.43189002075271
 30
0.0
 11
-0.0831720352640678
 21
0.1444305726908622
 31
0.0
210
0.0
220
0.0
230
1.0
 40
0.5780931159158114
 41
0.0
 42
6.283185307179586
  0
ELLIPSE
  5
1AB
330
6C
100
AcDbEntity
  8
Visible (ANSI)
100
AcDbEllipse
 10
96.97778698880362
 20
50.09635823151715
 30
0.0
 11
-0.0519825220400424
 21
0.0902691079317889
 31
0.0
210
0.0
220
0.0
230
1.0
 40
0.5780931159158116
 41
0.0
 42
6.283185307179586
  0
ELLIPSE
  5
1AC
330
6C
100
AcDbEntity
  8
Visible (ANSI)
100
AcDbEllipse
 10
81.34601307937066
 20
59.09809814441838
 30
0.0
 11
-0.0519825220400424
 21
0.0902691079317889
 31
0.0
210
0.0
220
0.0
230
1.0
 40
0.5780931159158116
 41
0.0
 42
6.283185307179586
  0
ELLIPSE
  5
1AD
330
6C
100
AcDbEntity
  8
Visible (ANSI)
100
AcDbEllipse
 10
81.3460130793706
 20
41.8424034960752
 30
0.0
 11
-0.0519825220400424
 21
0.0902691079317889
 31
0.0
210
0.0
220
0.0
230
1.0
 40
0.5780931159158116
 41
0.0
 42
6.283185307179586
  0
ELLIPSE
  5
1AE
330
6C
100
AcDbEntity
  8
Visible (ANSI)
100
AcDbEllipse
 10
96.97778698880357
 20
32.84066358317398
 30
0.0
 11
-0.0519825220400424
 21
0.0902691079317889
 31
0.0
210
0.0
220
0.0
230
1.0
 40
0.5780931159158116
 41
0.0
 42
6.283185307179586
  0
LINE
  5
1AF
330
6C
100
AcDbEntity
  8
Visible (ANSI)
100
AcDbLine
 10
81.95485558819838
 20
59.49057842491017
 30
0.0
 11
81.38077916277898
 21
59.82116705174766
 31
0.0
  0
LINE
  5
1B0
330
6C
100
AcDbEntity
  8
Visible (ANSI)
100
AcDbLine
 10
97.0314092530436
 20
50.80856858647863
 30
0.0
 11
96.45733282762417
 21
51.13915721331612
 31
0.0
  0
LINE
  5
1B1
330
6C
100
AcDbEntity
  8
Visible (ANSI)
100
AcDbLine
 10
97.26711151343915
 20
49.73658171451153
 30
0.0
 11
97.26711151343915
 21
50.40032097360036
 31
0.0
  0
LINE
  5
1B2
330
6C
100
AcDbEntity
  8
Visible (ANSI)
100
AcDbLine
 10
97.26711151343911
 20
32.30527794375218
 30
0.0
 11
97.26711151343911
 21
32.96901720284101
 31
0.0
  0
LINE
  5
1B3
330
6C
100
AcDbEntity
  8
Visible (ANSI)
100
AcDbLine
 10
81.91066141437421
 20
40.82505424638826
 30
0.0
 11
81.33658498895478
 21
41.15564287322575
 31
0.0
  0
LINE
  5
1B4
330
6C
100
AcDbEntity
  8
Visible (ANSI)
100
AcDbLine
 10
96.98721507921939
 20
32.14304440795673
 30
0.0
 11
96.41313865379999
 21
32.47363303479422
 31
0.0
  0
LINE
  5
1B5
330
6C
100
AcDbEntity
  8
Visible (ANSI)
100
AcDbLine
 10
97.22291733961496
 20
32.94356747072899
 30
0.0
 11
97.22291733961496
 21
32.27982821164015
 31
0.0
  0
LINE
  5
1B6
330
6C
100
AcDbEntity
  8
Visible (ANSI)
100
AcDbLine
 10
97.22291733961498
 20
50.37487124148833
 30
0.0
 11
97.22291733961498
 21
49.7111319823995
 31
0.0
  0
LINE
  5
1B7
330
6C
100
AcDbEntity
  8
Visible (ANSI)
100
AcDbLine
 10
96.41313865380002
 20
51.1137074812041
 30
0.0
 11
96.98721507921945
 21
50.78311885436661
 31
0.0
  0
LINE
  5
1B8
330
6C
100
AcDbEntity
  8
Visible (ANSI)
100
AcDbLine
 10
81.33658498895481
 20
59.79571731963563
 30
0.0
 11
81.91066141437422
 21
59.46512869279814
 31
0.0
  0
LINE
  5
1B9
330
6C
100
AcDbEntity
  8
Visible (ANSI)
100
AcDbLine
 10
81.10088272855927
 20
58.99519425686338
 30
0.0
 11
81.10088272855927
 21
59.6589335159522
 31
0.0
  0
LINE
  5
1BA
330
6C
100
AcDbEntity
  8
Visible (ANSI)
100
AcDbLine
 10
81.10088272855923
 20
41.56389048610402
 30
0.0
 11
81.10088272855923
 21
42.22762974519286
 31
0.0
  0
LINE
  5
1BB
330
6C
100
AcDbEntity
  8
Visible (ANSI)
100
AcDbLine
 10
81.95485558819838
 20
59.49057842491017
 30
0.0
 11
81.95485558819838
 21
59.48827822088905
 31
0.0
  0
LINE
  5
1BC
330
6C
100
AcDbEntity
  8
Visible (ANSI)
100
AcDbLine
 10
96.41313865380002
 20
51.1137074812041
 30
0.0
 11
96.41313865380002
 21
51.04546954785057
 31
0.0
  0
LINE
  5
1BD
330
6C
100
AcDbEntity
  8
Visible (ANSI)
100
AcDbLine
 10
96.41313865380002
 20
51.04546954785057
 30
0.0
 11
96.41304437289587
 21
51.0455238406124
 31
0.0
  0
LINE
  5
1BE
330
6C
100
AcDbEntity
  8
Visible Narrow (ANSI)
100
AcDbLine
 10
96.41304437289587
 20
51.04563284689572
 30
0.0
 11
81.91075569527839
 21
59.39694547296609
 31
0.0
  0
LINE
  5
1BF
330
6C
100
AcDbEntity
  8
Visible (ANSI)
100
AcDbLine
 10
81.91075569527839
 20
59.39683646668278
 30
0.0
 11
81.91066141437422
 21
59.39689075944461
 31
0.0
  0
LINE
  5
1C0
330
6C
100
AcDbEntity
  8
Visible (ANSI)
100
AcDbLine
 10
81.91066141437422
 20
59.39689075944461
 30
0.0
 11
81.91066141437422
 21
59.46512869279814
 31
0.0
  0
LINE
  5
1C1
330
6C
100
AcDbEntity
  8
Visible Narrow (ANSI)
100
AcDbLine
 10
96.47196993799504
 20
51.14769475011546
 30
0.0
 11
81.96968126037727
 21
59.49900737618566
 31
0.0
  0
ELLIPSE
  5
1C2
330
6C
100
AcDbEntity
  8
Visible (ANSI)
100
AcDbEllipse
 10
96.47196993799472
 20
51.07956582304507
 30
0.0
 11
0.0415860176320018
 21
0.0722152863454085
 31
0.0
210
0.0
220
0.0
230
1.0
 40
0.578093115915636
 41
2.297684694086019
 42
2.354260781769657
  0
ELLIPSE
  5
1C3
330
6C
100
AcDbEntity
  8
Visible (ANSI)
100
AcDbEllipse
 10
96.47196993799472
 20
51.07956582304517
 30
0.0
 11
0.0415860176319607
 21
0.0722152863453471
 31
0.0
210
0.0
220
0.0
230
0.9999999999999998
 40
0.5780931159156359
 41
0.7834644549692911
 42
1.009790328440286
  0
LINE
  5
1C4
330
6C
100
AcDbEntity
  8
Visible (ANSI)
100
AcDbLine
 10
96.41304437289587
 20
51.0455238406124
 30
0.0
 11
96.41313865380002
 21
51.04557813337425
 31
0.0
  0
ELLIPSE
  5
1C5
330
6C
100
AcDbEntity
  8
Visible (ANSI)
100
AcDbEllipse
 10
81.96968126037726
 20
59.43087844911545
 30
0.0
 11
0.0415860176320161
 21
0.0722152863454365
 31
0.0
210
0.0
220
0.0
230
1.0
 40
0.5780931159156227
 41
0.7834644549745802
 42
2.354260781769461
  0
LINE
  5
1C6
330
6C
100
AcDbEntity
  8
Visible (ANSI)
100
AcDbLine
 10
81.91066141437422
 20
59.46512869279814
 30
0.0
 11
81.95485558819838
 21
59.49057842491017
 31
0.0
  0
LINE
  5
1C7
330
6C
100
AcDbEntity
  8
Visible (ANSI)
100
AcDbLine
 10
81.91066141437422
 20
59.39689075944461
 30
0.0
 11
81.91075569527839
 21
59.39694505220646
 31
0.0
  0
LINE
  5
1C8
330
6C
100
AcDbEntity
  8
Visible (ANSI)
100
AcDbLine
 10
96.45733282762417
 20
51.13915721331612
 30
0.0
 11
96.41313865380002
 21
51.1137074812041
 31
0.0
  0
LINE
  5
1C9
330
6C
100
AcDbEntity
  8
Visible (ANSI)
100
AcDbLine
 10
97.26711151343915
 20
50.40032097360036
 30
0.0
 11
97.0314092530436
 21
50.80856858647863
 31
0.0
  0
LINE
  5
1CA
330
6C
100
AcDbEntity
  8
Visible (ANSI)
100
AcDbLine
 10
96.98721507921945
 20
50.78311885436661
 30
0.0
 11
97.22291733961498
 21
50.37487124148833
 31
0.0
  0
LINE
  5
1CB
330
6C
100
AcDbEntity
  8
Visible (ANSI)
100
AcDbLine
 10
97.0314092530436
 20
50.80856858647863
 30
0.0
 11
96.98721507921945
 21
50.78311885436661
 31
0.0
  0
LINE
  5
1CC
330
6C
100
AcDbEntity
  8
Visible (ANSI)
100
AcDbLine
 10
97.22291733961498
 20
50.37487124148833
 30
0.0
 11
97.26711151343915
 21
50.40032097360036
 31
0.0
  0
LINE
  5
1CD
330
6C
100
AcDbEntity
  8
Visible (ANSI)
100
AcDbLine
 10
97.26512121385368
 20
32.97016334014573
 30
0.0
 11
97.26711151343911
 21
32.96901720284101
 31
0.0
  0
LINE
  5
1CE
330
6C
100
AcDbEntity
  8
Visible (ANSI)
100
AcDbLine
 10
97.22291733961496
 20
32.94356747072899
 30
0.0
 11
97.16389749361191
 21
32.97755473964018
 31
0.0
  0
LINE
  5
1CF
330
6C
100
AcDbEntity
  8
Visible (ANSI)
100
AcDbLine
 10
97.16389749361191
 20
32.97755473964018
 30
0.0
 11
97.16389749361191
 21
32.97766374592349
 31
0.0
  0
LINE
  5
1D0
330
6C
100
AcDbEntity
  8
Visible Narrow (ANSI)
100
AcDbLine
 10
97.16399177451606
 20
32.97760945316165
 30
0.0
 11
97.16399177451609
 21
49.74495595226555
 31
0.0
  0
LINE
  5
1D1
330
6C
100
AcDbEntity
  8
Visible (ANSI)
100
AcDbLine
 10
97.16389749361194
 20
49.74501024502739
 30
0.0
 11
97.16389749361194
 21
49.7451192513107
 31
0.0
  0
LINE
  5
1D2
330
6C
100
AcDbEntity
  8
Visible (ANSI)
100
AcDbLine
 10
97.16389749361194
 20
49.7451192513107
 30
0.0
 11
97.22291733961498
 21
49.7111319823995
 31
0.0
  0
LINE
  5
1D3
330
6C
100
AcDbEntity
  8
Visible Narrow (ANSI)
100
AcDbLine
 10
97.28184290471384
 20
32.97760945316168
 30
0.0
 11
97.28184290471386
 21
49.74495595226557
 31
0.0
  0
ELLIPSE
  5
1D4
330
6C
100
AcDbEntity
  8
Visible (ANSI)
100
AcDbEllipse
 10
97.22291733961494
 20
33.01154242931102
 30
0.0
 11
0.0833333333333339
 21
0.0000000000000048
 31
0.0
210
0.0
220
0.0
230
1.0
 40
0.5758617009853141
 41
3.926990816987231
 42
5.497787143782257
  0
LINE
  5
1D5
330
6C
100
AcDbEntity
  8
Visible (ANSI)
100
AcDbLine
 10
97.16389749361194
 20
49.74501024502739
 30
0.0
 11
97.16399213984656
 21
49.74506474816904
 31
0.0
  0
ELLIPSE
  5
1D6
330
6C
100
AcDbEntity
  8
Visible (ANSI)
100
AcDbEllipse
 10
97.22291733961508
 20
49.77888892841498
 30
0.0
 11
0.083333333333505
 21
0.0000000000000048
 31
0.0
210
0.0
220
0.0
230
1.0
 40
0.5758617009853139
 41
3.926990816987224
 42
3.983676441748987
  0
ELLIPSE
  5
1D7
330
6C
100
AcDbEntity
  8
Visible (ANSI)
100
AcDbEllipse
 10
97.22291733961505
 20
49.77888892841487
 30
0.0
 11
0.083333333333224
 21
-0.0000000000000002
 31
0.0
210
0.0
220
0.0
230
1.0
 40
0.5758617009853142
 41
5.271378846409756
 42
5.497787143782807
  0
LINE
  5
1D8
330
6C
100
AcDbEntity
  8
Visible (ANSI)
100
AcDbLine
 10
97.22291733961498
 20
49.7111319823995
 30
0.0
 11
97.26711151343915
 21
49.73658171451153
 31
0.0
  0
LINE
  5
1D9
330
6C
100
AcDbEntity
  8
Visible (ANSI)
100
AcDbLine
 10
97.16389749361191
 20
32.97755473964018
 30
0.0
 11
97.16399213984766
 21
32.97760924278249
 31
0.0
  0
LINE
  5
1DA
330
6C
100
AcDbEntity
  8
Visible (ANSI)
100
AcDbLine
 10
97.26711151343911
 20
32.96901720284101
 30
0.0
 11
97.22291733961496
 21
32.94356747072899
 31
0.0
  0
LINE
  5
1DB
330
6C
100
AcDbEntity
  8
Visible (ANSI)
100
AcDbLine
 10
97.03140925304355
 20
32.16849414006875
 30
0.0
 11
97.26711151343911
 21
32.30527794375218
 31
0.0
  0
LINE
  5
1DC
330
6C
100
AcDbEntity
  8
Visible (ANSI)
100
AcDbLine
 10
97.22291733961496
 20
32.27982821164015
 30
0.0
 11
96.98721507921939
 21
32.14304440795673
 31
0.0
  0
LINE
  5
1DD
330
6C
100
AcDbEntity
  8
Visible (ANSI)
100
AcDbLine
 10
96.98721507921939
 20
32.14304440795673
 30
0.0
 11
97.03140925304355
 21
32.16849414006875
 31
0.0
  0
LINE
  5
1DE
330
6C
100
AcDbEntity
  8
Visible (ANSI)
100
AcDbLine
 10
97.26711151343911
 20
32.30527794375218
 30
0.0
 11
97.22291733961496
 21
32.27982821164015
 31
0.0
  0
LINE
  5
1DF
330
6C
100
AcDbEntity
  8
Visible (ANSI)
100
AcDbLine
 10
97.16389749361191
 20
32.97766374592349
 30
0.0
 11
97.16399177451606
 21
32.97760945316165
 31
0.0
  0
LINE
  5
1E0
330
6C
100
AcDbEntity
  8
Visible (ANSI)
100
AcDbLine
 10
97.16399177451609
 20
49.74495595226555
 30
0.0
 11
97.16389749361194
 21
49.74501024502739
 31
0.0
  0
LINE
  5
1E1
330
6C
100
AcDbEntity
  8
Visible (ANSI)
100
AcDbLine
 10
97.28184290471384
 20
32.97760945316168
 30
0.0
 11
97.58778443870715
 21
33.15378946532917
 31
0.0
  0
LINE
  5
1E2
330
6C
100
AcDbEntity
  8
Visible (ANSI)
100
AcDbLine
 10
97.58778443870719
 20
49.92113596443306
 30
0.0
 11
97.58778443870715
 21
33.15378946532917
 31
0.0
  0
LINE
  5
1E3
330
6C
100
AcDbEntity
  8
Visible (ANSI)
100
AcDbLine
 10
97.58778443870719
 20
49.92113596443306
 30
0.0
 11
97.28184290471386
 21
49.74495595226557
 31
0.0
  0
LINE
  5
1E4
330
6C
100
AcDbEntity
  8
Visible (ANSI)
100
AcDbLine
 10
97.54359026488302
 20
49.94658569654508
 30
0.0
 11
97.58778443870719
 21
49.92113596443306
 31
0.0
  0
LINE
  5
1E5
330
6C
100
AcDbEntity
  8
Visible (ANSI)
100
AcDbLine
 10
97.26711151343913
 20
49.78737217245226
 30
0.0
 11
97.54359026488302
 21
49.94658569654508
 31
0.0
  0
LINE
  5
1E6
330
6C
100
AcDbEntity
  8
Visible (ANSI)
100
AcDbLine
 10
96.41304437289587
 20
51.0455238406124
 30
0.0
 11
96.41304437289587
 21
51.04563284689572
 31
0.0
  0
LINE
  5
1E7
330
6C
100
AcDbEntity
  8
Visible (ANSI)
100
AcDbLine
 10
81.91075569527839
 20
59.39694547296609
 30
0.0
 11
81.91075569527839
 21
59.39683646668278
 31
0.0
  0
LINE
  5
1E8
330
6C
100
AcDbEntity
  8
Visible (ANSI)
100
AcDbLine
 10
96.47196993799504
 20
51.14769475011546
 30
0.0
 11
96.77791147198808
 21
51.32387476228281
 31
0.0
  0
LINE
  5
1E9
330
6C
100
AcDbEntity
  8
Visible (ANSI)
100
AcDbLine
 10
82.27562279437059
 20
59.67518738835318
 30
0.0
 11
96.77791147198808
 21
51.32387476228281
 31
0.0
  0
LINE
  5
1EA
330
6C
100
AcDbEntity
  8
Visible (ANSI)
100
AcDbLine
 10
82.27562279437059
 20
59.67518738835318
 30
0.0
 11
81.96968126037727
 21
59.49900737618566
 31
0.0
  0
LINE
  5
1EB
330
6C
100
AcDbEntity
  8
Visible (ANSI)
100
AcDbLine
 10
96.77791147198808
 20
51.27277806698015
 30
0.0
 11
96.50160396919494
 21
51.11366315842663
 31
0.0
  0
LINE
  5
1EC
330
6C
100
AcDbEntity
  8
Visible (ANSI)
100
AcDbLine
 10
96.77791147198808
 20
51.32387476228281
 30
0.0
 11
96.77791147198808
 21
51.27277806698015
 31
0.0
  0
LINE
  5
1ED
330
6C
100
AcDbEntity
  8
Visible (ANSI)
100
AcDbLine
 10
81.10088272855927
 20
59.6589335159522
 30
0.0
 11
81.33658498895481
 21
59.79571731963563
 31
0.0
  0
LINE
  5
1EE
330
6C
100
AcDbEntity
  8
Visible (ANSI)
100
AcDbLine
 10
81.33658498895481
 20
59.79571731963563
 30
0.0
 11
81.38077916277898
 21
59.82116705174766
 31
0.0
  0
LINE
  5
1EF
330
6C
100
AcDbEntity
  8
Visible (ANSI)
100
AcDbLine
 10
81.10088272855927
 20
58.99519425686338
 30
0.0
 11
81.15990257456232
 21
58.96120698795218
 31
0.0
  0
LINE
  5
1F0
330
6C
100
AcDbEntity
  8
Visible (ANSI)
100
AcDbLine
 10
81.15990257456232
 20
58.96120698795218
 30
0.0
 11
81.15990257456232
 21
58.96109798166887
 31
0.0
  0
LINE
  5
1F1
330
6C
100
AcDbEntity
  8
Visible Narrow (ANSI)
100
AcDbLine
 10
81.15980829365815
 20
58.96115227443071
 30
0.0
 11
81.15980829365813
 21
42.19380577532681
 31
0.0
  0
LINE
  5
1F2
330
6C
100
AcDbEntity
  8
Visible (ANSI)
100
AcDbLine
 10
81.15990257456228
 20
42.19375148256497
 30
0.0
 11
81.15990257456228
 21
42.19364247628166
 31
0.0
  0
LINE
  5
1F3
330
6C
100
AcDbEntity
  8
Visible (ANSI)
100
AcDbLine
 10
81.15990257456228
 20
42.19364247628166
 30
0.0
 11
81.10088272855923
 21
42.22762974519286
 31
0.0
  0
ELLIPSE
  5
1F4
330
6C
100
AcDbEntity
  8
Visible (ANSI)
100
AcDbEllipse
 10
81.21873385875703
 20
58.99508525058007
 30
0.0
 11
-0.0833333333333369
 21
0.0000000000000002
 31
0.0
210
0.0
220
0.0
230
1.0
 40
0.575861700985314
 41
0.7287125386356533
 42
0.7853981633974874
  0
ELLIPSE
  5
1F5
330
6C
100
AcDbEntity
  8
Visible (ANSI)
100
AcDbEllipse
 10
81.218733858757
 20
42.22773875147617
 30
0.0
 11
-0.0833333333333334
 21
-0.0000000000000003
 31
0.0
210
0.0
220
0.0
230
1.0
 40
0.5758617009853101
 41
0.0
 42
0.7853981633974847
  0
LINE
  5
1F6
330
6C
100
AcDbEntity
  8
Visible (ANSI)
100
AcDbLine
 10
81.10088272855923
 20
42.22762974519286
 30
0.0
 11
81.13540052542367
 21
42.24750722240947
 31
0.0
  0
LINE
  5
1F7
330
6C
100
AcDbEntity
  8
Visible (ANSI)
100
AcDbLine
 10
81.1354005254237
 20
58.97531677964676
 30
0.0
 11
81.13540052542367
 21
42.22773875147617
 31
0.0
  0
LINE
  5
1F8
330
6C
100
AcDbEntity
  8
Visible (ANSI)
100
AcDbLine
 10
81.15990257456232
 20
58.96109798166887
 30
0.0
 11
81.15980829365815
 21
58.96115227443071
 31
0.0
  0
LINE
  5
1F9
330
6C
100
AcDbEntity
  8
Visible (ANSI)
100
AcDbLine
 10
81.15980829365813
 20
42.19380577532681
 30
0.0
 11
81.15990257456228
 21
42.19375148256497
 31
0.0
  0
LINE
  5
1FA
330
6C
100
AcDbEntity
  8
Visible (ANSI)
100
AcDbLine
 10
81.32422365958131
 20
59.12369873901809
 30
0.0
 11
81.37900198700462
 21
59.15524347982522
 31
0.0
  0
LINE
  5
1FB
330
6C
100
AcDbEntity
  8
Visible (ANSI)
100
AcDbLine
 10
81.40341687412549
 20
59.11840361402797
 30
0.0
 11
81.34383202941831
 21
59.08409098400194
 31
0.0
  0
LINE
  5
1FC
330
6C
100
AcDbEntity
  8
Visible (ANSI)
100
AcDbLine
 10
81.33658498895478
 20
41.15564287322575
 30
0.0
 11
81.10088272855923
 21
41.56389048610402
 31
0.0
  0
DIMENSION
  5
1FD
330
6C
100
AcDbEntity
  8
Dimension (ANSI)
100
AcDbDimension
  2
*D4
 10
16.2171146796918
 20
58.82578055215958
 30
0.0
 11
33.31711467969179
 21
58.82578055215958
 31
0.0
 70
   160
  1
<>
 42
34.2
  3
Default (ANSI)
100
AcDbAlignedDimension
 13
50.4171146796918
 23
52.21160732381313
 33
0.0
 14
16.2171146796918
 24
52.21160732381313
 34
0.0
 50
180.0
100
AcDbRotatedDimension
1001
ACAD
1000
DSTYLE
1002
{
1070
   289
1070
     1
1070
    73
1070
     0
1070
    74
1070
     0
1070
   271
1070
     3
1070
   272
1070
     2
1070
    48
1040
0.0
1070
    47
1040
0.0
1002
}
  0
DIMENSION
  5
2EA
330
6C
100
AcDbEntity
  8
Dimension (ANSI)
100
AcDbDimension
  2
*D5
 10
6.308289472516382
 20
18.51160732381313
 30
0.0
 11
6.30828947251638
 21
39.60271810347994
 31
0.0
 70
   160
  1
<>
 42
34.2
  3
Default (ANSI)
100
AcDbAlignedDimension
 13
16.7171146796918
 23
52.71160732381312
 33
0.0
 14
16.7171146796918
 24
18.51160732381313
 34
0.0
 50
270.0
100
AcDbRotatedDimension
1001
ACAD
1000
DSTYLE
1002
{
1070
   289
1070
     1
1070
   271
1070
     3
1070
   272
1070
     2
1070
    48
1040
0.0
1070
    47
1040
0.0
1002
}
  0
DIMENSION
  5
3D4
330
6C
100
AcDbEntity
  8
Dimension (ANSI)
100
AcDbDimension
  2
*D6
 10
16.63327961866216
 20
19.25902385817457
 30
0.0
 11
22.66121179812314
 21
14.19635558765064
 31
0.0
 70
   163
  1
<>{\PTYP.(8PL.)}
 42
0.5
  3
Default (ANSI)
100
AcDbDiametricDimension
 15
16.84094974072145
 25
18.80419078945169
 35
0.0
 40
0.0
1001
ACAD_DSTYLE_DIMRADIAL_EXTENSION
1070
   387
1070
     1
1070
   388
1040
0.0
1070
   390
1040
0.0
1001
ACAD
1000
DSTYLE
1002
{
1070
   145
1040
-0.25
1070
   144
1040
1.000000000000007
1070
   271
1070
     3
1070
   272
1070
     2
1070
    48
1040
0.0
1070
    47
1040
0.0
1002
}
  0
DIMENSION
  5
48E
330
6C
100
AcDbEntity
  8
Dimension (ANSI)
100
AcDbDimension
  2
*D7
 10
16.63771924631486
 20
19.90216689549373
 30
0.0
 11
22.63496809744255
 21
17.13565014358774
 31
0.0
 70
   163
  1
<>{\PTYP.(4PL.)}
 42
0.3125
  3
Default (ANSI)
100
AcDbDiametricDimension
 15
16.83651011306875
 25
19.66104775213253
 35
0.0
 40
0.0
1001
ACAD_DSTYLE_DIMRADIAL_EXTENSION
1070
   387
1070
     1
1070
   388
1040
0.0
1070
   390
1040
0.0
1001
ACAD
1000
DSTYLE
1002
{
1070
   145
1040
-0.25
1070
   144
1040
0.9999999999999829
1070
   271
1070
     3
1070
   272
1070
     2
1070
    48
1040
0.0
1070
    47
1040
0.0
1002
}
  0
DIMENSION
  5
547
330
6C
100
AcDbEntity
  8
Dimension (ANSI)
100
AcDbDimension
  2
*D8
 10
67.75123337708072
 20
19.40617157478507
 30
0.0
 11
64.01462406512701
 21
19.40617157478507
 31
0.0
 70
   160
  1
 12 GA.\P304 SS
 42
0.09375
  3
Default (ANSI)
100
AcDbAlignedDimension
 13
67.65748337708072
 23
40.19357314958821
 33
0.0
 14
67.75123337708072
 24
40.19357314958821
 34
0.0
 50
180.0
100
AcDbRotatedDimension
1001
ACAD
1000
DSTYLE
1002
{
1070
   289
1070
     1
1070
    73
1070
     0
1070
    74
1070
     0
1070
   145
1040
-0.25
1070
   271
1070
     3
1070
   272
1070
     2
1070
    48
1040
0.0
1070
    47
1040
0.0
1002
}
  0
DIMENSION
  5
645
330
6C
100
AcDbEntity
  8
Dimension (ANSI)
100
AcDbDimension
  2
*D9
 10
9.034601894325396
 20
19.03160732381313
 30
0.0
 11
9.034601894325394
 21
37.51789075860701
 31
0.0
 70
   160
  1
<>
 42
33.15999999999998
  3
Default (ANSI)
100
AcDbAlignedDimension
 13
16.7371146796918
 23
52.19160732381311
 33
0.0
 14
16.7371146796918
 24
19.03160732381313
 34
0.0
 50
90.0
100
AcDbRotatedDimension
1001
ACAD
1000
DSTYLE
1002
{
1070
   289
1070
     1
1070
   271
1070
     3
1070
   272
1070
     2
1070
    48
1040
0.0
1070
    47
1040
0.0
1002
}
  0
DIMENSION
  5
72F
330
6C
100
AcDbEntity
  8
Dimension (ANSI)
100
AcDbDimension
  2
*D10
 10
11.93059998380852
 20
19.03160732381313
 30
0.0
 11
14.15012758670824
 21
21.40057166939706
 31
0.0
 70
   160
  1
<>
 42
0.7499999999999965
  3
Default (ANSI)
100
AcDbAlignedDimension
 13
16.7371146796918
 23
19.78160732381313
 33
0.0
 14
16.7371146796918
 24
19.03160732381313
 34
0.0
 50
90.0
100
AcDbRotatedDimension
1001
ACAD
1000
DSTYLE
1002
{
1070
   289
1070
     1
1070
   271
1070
     3
1070
   272
1070
     2
1070
    48
1040
0.0
1070
    47
1040
0.0
1002
}
  0
DIMENSION
  5
82F
330
6C
100
AcDbEntity
  8
Dimension (ANSI)
100
AcDbDimension
  2
*D11
 10
16.7371146796918
 20
56.76417246564899
 30
0.0
 11
33.31711467969181
 21
56.76417246564899
 31
0.0
 70
   160
  1
<>
 42
33.15999999999999
  3
Default (ANSI)
100
AcDbAlignedDimension
 13
49.89711467969179
 23
52.19160732381312
 33
0.0
 14
16.7371146796918
 24
52.19160732381311
 34
0.0
 50
180.0
100
AcDbRotatedDimension
1001
ACAD
1000
DSTYLE
1002
{
1070
   289
1070
     1
1070
    73
1070
     0
1070
    74
1070
     0
1070
   271
1070
     3
1070
   272
1070
     2
1070
    48
1040
0.0
1070
    47
1040
0.0
1002
}
  0
DIMENSION
  5
919
330
6C
100
AcDbEntity
  8
Dimension (ANSI)
100
AcDbDimension
  2
*D12
 10
50.28636149275882
 20
18.51160732381313
 30
0.0
 11
52.50588909565855
 21
20.72202694529671
 31
0.0
 70
   160
  1
<>
 42
0.5
  3
Default (ANSI)
100
AcDbAlignedDimension
 13
50.4171146796918
 23
19.01160732381313
 33
0.0
 14
49.9171146796918
 24
18.51160732381313
 34
0.0
 50
90.0
100
AcDbRotatedDimension
1001
ACAD
1000
DSTYLE
1002
{
1070
   289
1070
     1
1070
   271
1070
     3
1070
   272
1070
     2
1070
    48
1040
0.0
1070
    47
1040
0.0
1002
}
  0
DIMENSION
  5
A19
330
6C
100
AcDbEntity
  8
Dimension (ANSI)
100
AcDbDimension
  2
*D13
 10
49.9171146796918
 20
16.65776707201598
 30
0.0
 11
46.38958632612836
 21
16.65776707201598
 31
0.0
 70
   160
  1
<>
 42
0.5
  3
Default (ANSI)
100
AcDbAlignedDimension
 13
50.4171146796918
 23
19.01160732381313
 33
0.0
 14
49.9171146796918
 24
18.51160732381313
 34
0.0
 50
180.0
100
AcDbRotatedDimension
1001
ACAD
1000
DSTYLE
1002
{
1070
   289
1070
     1
1070
    73
1070
     0
1070
    74
1070
     0
1070
   271
1070
     3
1070
   272
1070
     2
1070
    48
1040
0.0
1070
    47
1040
0.0
1002
}
  0
DIMENSION
  5
B03
330
6C
100
AcDbEntity
  8
Dimension (ANSI)
100
AcDbDimension
  2
*D14
 10
50.4171146796918
 20
54.97983515021727
 30
0.0
 11
46.98658138306765
 21
54.97983515021727
 31
0.0
 70
   160
  1
<>
 42
0.5200000000000032
  3
Default (ANSI)
100
AcDbAlignedDimension
 13
49.89711467969179
 23
52.19160732381312
 33
0.0
 14
50.4171146796918
 24
52.21160732381313
 34
0.0
 50
180.0
100
AcDbRotatedDimension
1001
ACAD
1000
DSTYLE
1002
{
1070
   289
1070
     1
1070
    73
1070
     0
1070
    74
1070
     0
1070
   271
1070
     3
1070
   272
1070
     2
1070
    48
1040
0.0
1070
    47
1040
0.0
1002
}
  0
DIMENSION
  5
BED
330
6C
100
AcDbEntity
  8
Dimension (ANSI)
100
AcDbDimension
  2
*D15
 10
55.76242607514577
 20
52.71160732381312
 30
0.0
 11
53.54289847224602
 21
50.48118770232955
 31
0.0
 70
   160
  1
<>
 42
0.5200000000000032
  3
Default (ANSI)
100
AcDbAlignedDimension
 13
49.89711467969179
 23
52.19160732381312
 33
0.0
 14
49.9171146796918
 24
52.71160732381312
 34
0.0
 50
270.0
100
AcDbRotatedDimension
1001
ACAD
1000
DSTYLE
1002
{
1070
   289
1070
     1
1070
   271
1070
     3
1070
   272
1070
     2
1070
    48
1040
0.0
1070
    47
1040
0.0
1002
}
  0
MTEXT
  5
CED
102
{ACAD_XDICTIONARY
360
FBB
102
}
330
6C
100
AcDbEntity
  8
Symbol (ANSI)
100
AcDbMText
 10
65.61197469636457
 20
15.27857989593083
 30
0.0
 40
0.7200000088984572
 41
35.15348359355776
 71
     1
 72
     1
  3
{\fRomanS|b0|i0|c0|p2;\H2x;PART#: NP3636SSC\P(DATA SUBJECT TO CHANGE \H1.4976x; \H0.66773x;WITHOUT NOTICE) \H1.3942x; \H0.71725x;\P\H0.6x;THIS DRAWING IS PROPERTY OF HUBBELL INC. \H1.3754x; \H0.72708x;WIEGMANN\H1.0988x; \H0.9101x;\PALL INFORMATION IS
  1
 PROPRIETARY AND NOT TO BE \H1.1441x; \H0.87404x;DUPLICATED\H1.1367x; \H0.73313x;\P\H1.1655x; }
  7
Note Text (ANSI)
 73
     1
 44
0.8729180693626403
1001
ACAD
1000
MTEXTBEGIN
1070
    73
1070
     1
1070
    44
1040
0.8729180693626403
1070
    74
1070
     0
1000
MTEXTEND
  0
DIMENSION
  5
CEF
330
6C
100
AcDbEntity
  8
Dimension (ANSI)
100
AcDbDimension
  2
*D16
 10
68.43148337708021
 20
54.73129236318321
 30
0.0
 11
64.12995502351712
 21
54.73129236318321
 31
0.0
 70
   160
  1
<>
 42
0.7739999999996457
  3
Default (ANSI)
100
AcDbAlignedDimension
 13
67.65748337708057
 23
52.71160732381312
 33
0.0
 14
68.43148337708021
 24
52.71160732381312
 34
0.0
 50
180.0
100
AcDbRotatedDimension
1001
ACAD
1000
DSTYLE
1002
{
1070
   289
1070
     1
1070
    73
1070
     0
1070
    74
1070
     0
1070
   271
1070
     3
1070
   272
1070
     2
1070
    48
1040
0.0
1070
    47
1040
0.0
1002
}
  0
DIMENSION
  5
DD9
330
6C
100
AcDbEntity
  8
Dimension (ANSI)
100
AcDbDimension
  2
*D17
 10
11.87401056570435
 20
35.61160732381314
 30
0.0
 11
11.87401056570435
 21
27.32160732381313
 31
0.0
 70
   160
  1
<>
 42
16.58
  3
Default (ANSI)
100
AcDbAlignedDimension
 13
16.7371146796918
 23
19.03160732381313
 33
0.0
 14
16.7371146796918
 24
35.61160732381313
 34
0.0
 50
90.0
100
AcDbRotatedDimension
1001
ACAD
1000
DSTYLE
1002
{
1070
   289
1070
     1
1070
   271
1070
     3
1070
   272
1070
     2
1070
    48
1040
0.0
1070
    47
1040
0.0
1002
}
  0
DIMENSION
  5
EC3
330
6C
100
AcDbEntity
  8
Dimension (ANSI)
100
AcDbDimension
  2
*D18
 10
33.31711467969179
 20
54.67043601310457
 30
0.0
 11
25.02711467969181
 21
54.67043601310457
 31
0.0
 70
   160
  1
<>
 42
16.57999999999998
  3
Default (ANSI)
100
AcDbAlignedDimension
 13
16.7371146796918
 23
52.19160732381311
 33
0.0
 14
33.31711467969179
 24
52.19160732381311
 34
0.0
 50
180.0
100
AcDbRotatedDimension
1001
ACAD
1000
DSTYLE
1002
{
1070
   289
1070
     1
1070
    73
1070
     0
1070
    74
1070
     0
1070
   271
1070
     3
1070
   272
1070
     2
1070
    48
1040
0.0
1070
    47
1040
0.0
1002
}
  0
ENDSEC
  0
SECTION
  2
OBJECTS
  0
DICTIONARY
  5
C
330
0
100
AcDbDictionary
281
     1
  3
ACAD_CIP_PREVIOUS_PRODUCT_INFO
350
FAD
  3
ACAD_COLOR
350
63
  3
ACAD_GROUP
350
D
  3
ACAD_LAYOUT
350
62
  3
ACAD_MATERIAL
350
10
  3
ACAD_MLEADERSTYLE
350
66
  3
ACAD_MLINESTYLE
350
5F
  3
ACAD_PLOTSETTINGS
350
61
  3
ACAD_PLOTSTYLENAME
350
E
  3
ACAD_SCALELIST
350
42
  3
ACAD_TABLESTYLE
350
64
  3
ACAD_VISUALSTYLE
350
29
  3
ACDB_RECOMPOSE_DATA
350
FBD
  3
AcDbVariableDictionary
350
76
  3
DWGPROPS
350
FBE
  0
DICTIONARY
  5
FFA
330
488
100
AcDbDictionary
280
     1
281
     1
  3
ACAD_MTEXT_RT
360
FFB
  0
DICTIONARY
  5
FFC
330
541
100
AcDbDictionary
280
     1
281
     1
  3
ACAD_MTEXT_RT
360
FFD
  0
DICTIONARY
  5
FBB
330
CED
100
AcDbDictionary
280
     1
281
     1
  3
ACAD_MTEXT_2008_RT
360
FBC
  0
XRECORD
  5
FAD
102
{ACAD_REACTORS
330
C
102
}
330
C
100
AcDbXrecord
280
     1
300
INVNTOR
300
2012
300
85795PDSP_2012_0F
  0
DICTIONARY
  5
63
102
{ACAD_REACTORS
330
C
102
}
330
C
100
AcDbDictionary
281
     1
  0
DICTIONARY
  5
D
102
{ACAD_REACTORS
330
C
102
}
330
C
100
AcDbDictionary
281
     1
  0
DICTIONARY
  5
62
102
{ACAD_REACTORS
330
C
102
}
330
C
100
AcDbDictionary
281
     1
  3
Layout1
350
6B
  3
Layout2
350
73
  3
Model
350
6F
  0
DICTIONARY
  5
10
102
{ACAD_REACTORS
330
C
102
}
330
C
100
AcDbDictionary
281
     1
  3
ByBlock
350
19
  3
ByLayer
350
11
  3
Global
350
21
  0
DICTIONARY
  5
66
102
{ACAD_REACTORS
330
C
102
}
330
C
100
AcDbDictionary
281
     1
  3
Standard
350
67
  0
DICTIONARY
  5
5F
102
{ACAD_REACTORS
330
C
102
}
330
C
100
AcDbDictionary
281
     1
  3
Standard
350
60
  0
DICTIONARY
  5
61
102
{ACAD_REACTORS
330
C
102
}
330
C
100
AcDbDictionary
281
     1
  0
ACDBDICTIONARYWDFLT
  5
E
102
{ACAD_REACTORS
330
C
102
}
330
C
100
AcDbDictionary
281
     1
  3
Normal
350
F
100
AcDbDictionaryWithDefault
340
F
  0
DICTIONARY
  5
42
102
{ACAD_REACTORS
330
C
102
}
330
C
100
AcDbDictionary
281
     1
  3
A0
350
43
  3
A1
350
44
  3
A2
350
45
  3
A3
350
46
  3
A4
350
47
  3
A5
350
48
  3
A6
350
49
  3
A7
350
4A
  3
A8
350
4B
  3
A9
350
4C
  3
B0
350
4D
  3
B1
350
4E
  3
B2
350
4F
  3
B3
350
50
  3
B4
350
51
  3
B5
350
52
  3
B6
350
53
  0
DICTIONARY
  5
64
102
{ACAD_REACTORS
330
C
102
}
330
C
100
AcDbDictionary
281
     1
  3
Standard
350
65
  0
DICTIONARY
  5
29
102
{ACAD_REACTORS
330
C
102
}
330
C
100
AcDbDictionary
281
     1
  3
2dWireframe
350
2F
  3
Basic
350
2E
  3
Brighten
350
35
  3
ColorChange
350
39
  3
Conceptual
350
32
  3
Dim
350
34
  3
EdgeColorOff
350
41
  3
Facepattern
350
38
  3
Flat
350
2A
  3
FlatWithEdges
350
2B
  3
Gouraud
350
2C
  3
GouraudWithEdges
350
2D
  3
Hidden
350
31
  3
JitterOff
350
3F
  3
Linepattern
350
37
  3
OverhangOff
350
40
  3
Realistic
350
33
  3
Shaded
350
3E
  3
Shaded with edges
350
3D
  3
Shades of Gray
350
3A
  3
Sketchy
350
3B
  3
Thicken
350
36
  3
Wireframe
350
30
  3
X-Ray
350
3C
  0
XRECORD
  5
FBD
102
{ACAD_REACTORS
330
C
102
}
330
C
100
AcDbXrecord
280
     1
 90
        1
330
65
330
CED
  0
DICTIONARY
  5
76
102
{ACAD_REACTORS
330
C
102
}
330
C
100
AcDbDictionary
281
     1
  3
CANNOSCALE
350
79
  3
CMLEADERSTYLE
350
78
  3
CTABLESTYLE
350
77
  3
DIMASSOC
350
FB5
  3
HIDETEXT
350
FB4
  3
INDEXCTL
350
FB3
  3
LAYEREVAL
350
FB0
  3
LAYERNOTIFY
350
FB1
  3
LIGHTINGUNITS
350
FAF
  3
MSLTSCALE
350
FAE
  3
SORTENTS
350
FB2
  3
XCLIPFRAME
350
FB6
  0
XRECORD
  5
FBE
102
{ACAD_REACTORS
330
C
102
}
330
C
100
AcDbXrecord
280
     1
  1
DWGPROPS COOKIE
  2

  3

  4
dnichola
  6

  7

  8

  9
-
300
Manager=
301
Company=
302
Category=
303
Part Number=NP3636SSC-S
304
Description=
305
Project=
306
Designer=dnichola
307
Engineer=
308
Authority=
309
Cost Center=
 40
0.0000363425925926
 41
2455945.349587281
 42
2455945.349587281
  1

 90
       19
300
Vendor=
300
User Status=
300
Design Status=WorkInProgress
300
Checked by=
300
Engr Approved by=
300
Mfg Approved by=
300
DWG. NO=
300
NUMBER OF SHEETS=1
300
DRAWING #=
  0
XRECORD
  5
FFB
102
{ACAD_REACTORS
330
FFA
102
}
330
FFA
100
AcDbXrecord
280
     1
 40
31546.0
  1
\A1;\U+22050.500{\PTYP.(8PL.)}
  0
XRECORD
  5
FFD
102
{ACAD_REACTORS
330
FFC
102
}
330
FFC
100
AcDbXrecord
280
     1
 40
31481.0
  1
\A1;\U+22050.313{\PTYP.(4PL.)}
  0
XRECORD
  5
FBC
102
{ACAD_REACTORS
330
FBB
102
}
330
FBB
100
AcDbXrecord
280
     1
 40
3974449.0
  1
\pxsm0.94;{\fRomanS|b0|i0;\H1.4400;PART#: NP3636SSC\P(DATA SUBJECT TO CHANGE WITHOUT NOTICE) \P\fRomanS|b0|i0;\H0.8640;THIS DRAWING IS PROPERTY OF HUBBELL INC. WIEGMANN\PALL INFORMATION IS PROPRIETARY AND NOT TO BE DUPLICATED\fRomanS|b0|i0;\H0.7200;\
  1
P}
  0
LAYOUT
  5
6B
102
{ACAD_XDICTIONARY
360
FF4
102
}
102
{ACAD_REACTORS
330
62
102
}
330
62
100
AcDbPlotSettings
  1

  2

  4

  6

 40
0.0
 41
0.0
 42
0.0
 43
0.0
 44
0.0
 45
0.0
 46
0.0
 47
0.0
 48
0.0
 49
0.0
140
0.0
141
0.0
142
1.0
143
1.0
 70
   688
 72
     0
 73
     0
 74
     5
  7

 75
    16
147
1.0
148
0.0
149
0.0
100
AcDbLayout
  1
Layout1
 70
     1
 71
     1
 10
0.0
 20
0.0
 11
12.0
 21
9.0
 12
0.0
 22
0.0
 32
0.0
 14
0.0
 24
0.0
 34
0.0
 15
0.0
 25
0.0
 35
0.0
146
0.0
 13
0.0
 23
0.0
 33
0.0
 16
1.0
 26
0.0
 36
0.0
 17
0.0
 27
1.0
 37
0.0
 76
     0
330
68
  0
LAYOUT
  5
73
102
{ACAD_XDICTIONARY
360
FF8
102
}
102
{ACAD_REACTORS
330
62
102
}
330
62
100
AcDbPlotSettings
  1

  2

  4

  6

 40
0.0
 41
0.0
 42
0.0
 43
0.0
 44
0.0
 45
0.0
 46
0.0
 47
0.0
 48
0.0
 49
0.0
140
0.0
141
0.0
142
1.0
143
1.0
 70
   688
 72
     0
 73
     0
 74
     5
  7

 75
    16
147
1.0
148
0.0
149
0.0
100
AcDbLayout
  1
Layout2
 70
     1
 71
     2
 10
0.0
 20
0.0
 11
12.0
 21
9.0
 12
0.0
 22
0.0
 32
0.0
 14
0.0
 24
0.0
 34
0.0
 15
0.0
 25
0.0
 35
0.0
146
0.0
 13
0.0
 23
0.0
 33
0.0
 16
1.0
 26
0.0
 36
0.0
 17
0.0
 27
1.0
 37
0.0
 76
     0
330
70
  0
LAYOUT
  5
6F
102
{ACAD_XDICTIONARY
360
FF6
102
}
102
{ACAD_REACTORS
330
62
102
}
330
62
100
AcDbPlotSettings
  1

  2

  4

  6

 40
0.0
 41
0.0
 42
0.0
 43
0.0
 44
0.0
 45
0.0
 46
0.0
 47
0.0
 48
0.0
 49
0.0
140
0.0
141
0.0
142
1.0
143
1.0
 70
  1712
 72
     0
 73
     0
 74
     0
  7

 75
     0
147
1.0
148
0.0
149
0.0
100
AcDbLayout
  1
Model
 70
     1
 71
     0
 10
0.0
 20
0.0
 11
12.0
 21
9.0
 12
0.0
 22
0.0
 32
0.0
 14
0.0
 24
0.0
 34
0.0
 15
0.0
 25
0.0
 35
0.0
146
0.0
 13
0.0
 23
0.0
 33
0.0
 16
1.0
 26
0.0
 36
0.0
 17
0.0
 27
1.0
 37
0.0
 76
     0
330
6C
  0
MATERIAL
  5
19
102
{ACAD_XDICTIONARY
360
1A
102
}
102
{ACAD_REACTORS
330
10
102
}
330
10
100
AcDbMaterial
  1
ByBlock
 72
     0
 43
0.0208333333333333
 43
0.0
 43
0.0
 43
0.0
 43
0.0
 43
0.0208333333333333
 43
0.0
 43
0.0
 43
0.0
 43
0.0
 43
1.0
 43
0.0
 43
0.0
 43
0.0
 43
0.0
 43
1.0
 77
     0
 47
0.0208333333333333
 47
0.0
 47
0.0
 47
0.0
 47
0.0
 47
0.0208333333333333
 47
0.0
 47
0.0
 47
0.0
 47
0.0
 47
1.0
 47
0.0
 47
0.0
 47
0.0
 47
0.0
 47
1.0
171
     0
 49
0.0208333333333333
 49
0.0
 49
0.0
 49
0.0
 49
0.0
 49
0.0208333333333333
 49
0.0
 49
0.0
 49
0.0
 49
0.0
 49
1.0
 49
0.0
 49
0.0
 49
0.0
 49
0.0
 49
1.0
175
     0
142
0.0208333333333333
142
0.0
142
0.0
142
0.0
142
0.0
142
0.0208333333333333
142
0.0
142
0.0
142
0.0
142
0.0
142
1.0
142
0.0
142
0.0
142
0.0
142
0.0
142
1.0
179
     0
144
0.0208333333333333
144
0.0
144
0.0
144
0.0
144
0.0
144
0.0208333333333333
144
0.0
144
0.0
144
0.0
144
0.0
144
1.0
144
0.0
144
0.0
144
0.0
144
0.0
144
1.0
147
0.0208333333333333
147
0.0
147
0.0
147
0.0
147
0.0
147
0.0208333333333333
147
0.0
147
0.0
147
0.0
147
0.0
147
1.0
147
0.0
147
0.0
147
0.0
147
0.0
147
1.0
  0
MATERIAL
  5
11
102
{ACAD_XDICTIONARY
360
12
102
}
102
{ACAD_REACTORS
330
10
102
}
330
10
100
AcDbMaterial
  1
ByLayer
 72
     0
 43
0.0208333333333333
 43
0.0
 43
0.0
 43
0.0
 43
0.0
 43
0.0208333333333333
 43
0.0
 43
0.0
 43
0.0
 43
0.0
 43
1.0
 43
0.0
 43
0.0
 43
0.0
 43
0.0
 43
1.0
 77
     0
 47
0.0208333333333333
 47
0.0
 47
0.0
 47
0.0
 47
0.0
 47
0.0208333333333333
 47
0.0
 47
0.0
 47
0.0
 47
0.0
 47
1.0
 47
0.0
 47
0.0
 47
0.0
 47
0.0
 47
1.0
171
     0
 49
0.0208333333333333
 49
0.0
 49
0.0
 49
0.0
 49
0.0
 49
0.0208333333333333
 49
0.0
 49
0.0
 49
0.0
 49
0.0
 49
1.0
 49
0.0
 49
0.0
 49
0.0
 49
0.0
 49
1.0
175
     0
142
0.0208333333333333
142
0.0
142
0.0
142
0.0
142
0.0
142
0.0208333333333333
142
0.0
142
0.0
142
0.0
142
0.0
142
1.0
142
0.0
142
0.0
142
0.0
142
0.0
142
1.0
179
     0
144
0.0208333333333333
144
0.0
144
0.0
144
0.0
144
0.0
144
0.0208333333333333
144
0.0
144
0.0
144
0.0
144
0.0
144
1.0
144
0.0
144
0.0
144
0.0
144
0.0
144
1.0
147
0.0208333333333333
147
0.0
147
0.0
147
0.0
147
0.0
147
0.0208333333333333
147
0.0
147
0.0
147
0.0
147
0.0
147
1.0
147
0.0
147
0.0
147
0.0
147
0.0
147
1.0
  0
MATERIAL
  5
21
102
{ACAD_XDICTIONARY
360
22
102
}
102
{ACAD_REACTORS
330
10
102
}
330
10
100
AcDbMaterial
  1
Global
 72
     0
 43
0.0208333333333333
 43
0.0
 43
0.0
 43
0.0
 43
0.0
 43
0.0208333333333333
 43
0.0
 43
0.0
 43
0.0
 43
0.0
 43
1.0
 43
0.0
 43
0.0
 43
0.0
 43
0.0
 43
1.0
 77
     0
 47
0.0208333333333333
 47
0.0
 47
0.0
 47
0.0
 47
0.0
 47
0.0208333333333333
 47
0.0
 47
0.0
 47
0.0
 47
0.0
 47
1.0
 47
0.0
 47
0.0
 47
0.0
 47
0.0
 47
1.0
171
     0
 49
0.0208333333333333
 49
0.0
 49
0.0
 49
0.0
 49
0.0
 49
0.0208333333333333
 49
0.0
 49
0.0
 49
0.0
 49
0.0
 49
1.0
 49
0.0
 49
0.0
 49
0.0
 49
0.0
 49
1.0
175
     0
142
0.0208333333333333
142
0.0
142
0.0
142
0.0
142
0.0
142
0.0208333333333333
142
0.0
142
0.0
142
0.0
142
0.0
142
1.0
142
0.0
142
0.0
142
0.0
142
0.0
142
1.0
179
     0
144
0.0208333333333333
144
0.0
144
0.0
144
0.0
144
0.0
144
0.0208333333333333
144
0.0
144
0.0
144
0.0
144
0.0
144
1.0
144
0.0
144
0.0
144
0.0
144
0.0
144
1.0
147
0.0208333333333333
147
0.0
147
0.0
147
0.0
147
0.0
147
0.0208333333333333
147
0.0
147
0.0
147
0.0
147
0.0
147
1.0
147
0.0
147
0.0
147
0.0
147
0.0
147
1.0
  0
MLEADERSTYLE
  5
67
102
{ACAD_XDICTIONARY
360
FB9
102
}
102
{ACAD_REACTORS
330
66
102
}
330
66
100
AcDbMLeaderStyle
170
     2
171
     1
172
     0
 90
        2
 40
0.0
 41
0.0
173
     1
 91
-1056964608
340
5B
 92
       -2
290
     1
 42
0.09
291
     1
 43
0.36
  3
Standard
 44
0.18
300

342
55
174
     1
178
     6
175
     1
176
     0
 93
-1056964608
 45
0.18
292
     0
297
     0
 46
0.18
 94
-1056964608
 47
1.0
 49
1.0
140
1.0
293
     1
141
0.0
294
     1
177
     0
142
1.0
295
     0
296
     0
143
0.125
1001
ACAD_MLEADERVER
1070
     2
  0
MLINESTYLE
  5
60
102
{ACAD_REACTORS
330
5F
102
}
330
5F
100
AcDbMlineStyle
  2
STANDARD
 70
     0
  3

 62
   256
 51
90.0
 52
90.0
 71
     2
 49
0.5
 62
   256
  6
BYLAYER
 49
-0.5
 62
   256
  6
BYLAYER
  0
ACDBPLACEHOLDER
  5
F
102
{ACAD_REACTORS
330
E
102
}
330
E
  0
SCALE
  5
43
102
{ACAD_REACTORS
330
42
102
}
330
42
100
AcDbScale
 70
     0
300
1:1
140
1.0
141
1.0
290
     1
  0
SCALE
  5
44
102
{ACAD_REACTORS
330
42
102
}
330
42
100
AcDbScale
 70
     0
300
1/128" = 1'-0"
140
0.0078125
141
12.0
290
     0
  0
SCALE
  5
45
102
{ACAD_REACTORS
330
42
102
}
330
42
100
AcDbScale
 70
     0
300
1/64" = 1'-0"
140
0.015625
141
12.0
290
     0
  0
SCALE
  5
46
102
{ACAD_REACTORS
330
42
102
}
330
42
100
AcDbScale
 70
     0
300
1/32" = 1'-0"
140
0.03125
141
12.0
290
     0
  0
SCALE
  5
47
102
{ACAD_REACTORS
330
42
102
}
330
42
100
AcDbScale
 70
     0
300
1/16" = 1'-0"
140
0.0625
141
12.0
290
     0
  0
SCALE
  5
48
102
{ACAD_REACTORS
330
42
102
}
330
42
100
AcDbScale
 70
     0
300
3/32" = 1'-0"
140
0.09375
141
12.0
290
     0
  0
SCALE
  5
49
102
{ACAD_REACTORS
330
42
102
}
330
42
100
AcDbScale
 70
     0
300
1/8" = 1'-0"
140
0.125
141
12.0
290
     0
  0
SCALE
  5
4A
102
{ACAD_REACTORS
330
42
102
}
330
42
100
AcDbScale
 70
     0
300
3/16" = 1'-0"
140
0.1875
141
12.0
290
     0
  0
SCALE
  5
4B
102
{ACAD_REACTORS
330
42
102
}
330
42
100
AcDbScale
 70
     0
300
1/4" = 1'-0"
140
0.25
141
12.0
290
     0
  0
SCALE
  5
4C
102
{ACAD_REACTORS
330
42
102
}
330
42
100
AcDbScale
 70
     0
300
3/8" = 1'-0"
140
0.375
141
12.0
290
     0
  0
SCALE
  5
4D
102
{ACAD_REACTORS
330
42
102
}
330
42
100
AcDbScale
 70
     0
300
1/2" = 1'-0"
140
0.5
141
12.0
290
     0
  0
SCALE
  5
4E
102
{ACAD_REACTORS
330
42
102
}
330
42
100
AcDbScale
 70
     0
300
3/4" = 1'-0"
140
0.75
141
12.0
290
     0
  0
SCALE
  5
4F
102
{ACAD_REACTORS
330
42
102
}
330
42
100
AcDbScale
 70
     0
300
1" = 1'-0"
140
1.0
141
12.0
290
     0
  0
SCALE
  5
50
102
{ACAD_REACTORS
330
42
102
}
330
42
100
AcDbScale
 70
     0
300
1-1/2" = 1'-0"
140
1.5
141
12.0
290
     0
  0
SCALE
  5
51
102
{ACAD_REACTORS
330
42
102
}
330
42
100
AcDbScale
 70
     0
300
3" = 1'-0"
140
3.0
141
12.0
290
     0
  0
SCALE
  5
52
102
{ACAD_REACTORS
330
42
102
}
330
42
100
AcDbScale
 70
     0
300
6" = 1'-0"
140
6.0
141
12.0
290
     0
  0
SCALE
  5
53
102
{ACAD_REACTORS
330
42
102
}
330
42
100
AcDbScale
 70
     0
300
1'-0" = 1'-0"
140
12.0
141
12.0
290
     0
  0
TABLESTYLE
  5
65
102
{ACAD_XDICTIONARY
360
FB7
102
}
102
{ACAD_REACTORS
330
64
102
}
330
64
100
AcDbTableStyle
  3
Standard
 70
     0
 71
     0
 40
0.06
 41
0.06
280
     0
281
     0
  7
Standard
140
0.18
170
     2
 62
     0
 63
     7
283
     0
274
    -2
284
     1
 64
     0
275
    -2
285
     1
 65
     0
276
    -2
286
     1
 66
     0
277
    -2
287
     1
 67
     0
278
    -2
288
     1
 68
     0
279
    -2
289
     1
 69
     0
  7
Standard
140
0.25
170
     5
 62
     0
 63
     7
283
     0
274
    -2
284
     1
 64
     0
275
    -2
285
     1
 65
     0
276
    -2
286
     1
 66
     0
277
    -2
287
     1
 67
     0
278
    -2
288
     1
 68
     0
279
    -2
289
     1
 69
     0
  7
Standard
140
0.18
170
     5
 62
     0
 63
     7
283
     0
274
    -2
284
     1
 64
     0
275
    -2
285
     1
 65
     0
276
    -2
286
     1
 66
     0
277
    -2
287
     1
 67
     0
278
    -2
288
     1
 68
     0
279
    -2
289
     1
 69
     0
  0
VISUALSTYLE
  5
2F
102
{ACAD_XDICTIONARY
360
FCC
102
}
102
{ACAD_REACTORS
330
29
102
}
330
29
100
AcDbVisualStyle
  2
2dWireframe
 70
     4
 71
     0
 72
     2
 73
     0
 90
        0
 40
-0.6
 41
-30.0
 62
     5
 63
     7
 74
     1
 91
        4
 64
     7
 65
   257
 75
     1
175
     1
 42
1.0
 92
        0
 66
   257
 43
1.0
 76
     1
 77
     6
 78
     2
 67
     7
 79
     5
170
     0
171
     0
290
     0
174
     0
 93
        1
 44
0.0
173
     0
291
     0
 45
0.0
1001
ACAD
1000
AcDbSavedByObjectVersion
1070
     0
  0
VISUALSTYLE
  5
2E
102
{ACAD_XDICTIONARY
360
FCA
102
}
102
{ACAD_REACTORS
330
29
102
}
330
29
100
AcDbVisualStyle
  2
Basic
 70
     7
 71
     1
 72
     0
 73
     1
 90
        0
 40
-0.6
 41
-30.0
 62
     5
 63
     7
 74
     0
 91
        4
 64
     7
 65
   257
 75
     1
175
     1
 42
1.0
 92
        8
 66
     7
 43
1.0
 76
     1
 77
     6
 78
     2
 67
     7
 79
     5
170
     0
171
     0
290
     0
174
     0
 93
        1
 44
0.0
173
     0
291
     1
 45
0.0
1001
ACAD
1000
AcDbSavedByObjectVersion
1070
     0
  0
VISUALSTYLE
  5
35
102
{ACAD_XDICTIONARY
360
FD8
102
}
102
{ACAD_REACTORS
330
29
102
}
330
29
100
AcDbVisualStyle
  2
Brighten
 70
    12
 71
     2
 72
     2
 73
     0
 90
        0
 40
-0.6
 41
-30.0
 62
     5
 63
     7
 74
     1
 91
        4
 64
     7
 65
   257
 75
     1
175
     1
 42
1.0
 92
        8
 66
     7
 43
1.0
 76
     1
 77
     6
 78
     2
 67
     7
 79
     5
170
     0
171
     0
290
     0
174
     0
 93
        1
 44
50.0
173
     0
291
     1
 45
0.0
1001
ACAD
1000
AcDbSavedByObjectVersion
1070
     0
  0
VISUALSTYLE
  5
39
102
{ACAD_XDICTIONARY
360
FE0
102
}
102
{ACAD_REACTORS
330
29
102
}
330
29
100
AcDbVisualStyle
  2
ColorChange
 70
    16
 71
     2
 72
     2
 73
     3
 90
        0
 40
-0.6
 41
-30.0
 62
     5
 63
     8
 74
     1
 91
        4
 64
     7
 65
   257
 75
     1
175
     1
 42
1.0
 92
        8
 66
     8
 43
1.0
 76
     1
 77
     6
 78
     2
 67
     7
 79
     5
170
     0
171
     0
290
     0
174
     0
 93
        1
 44
0.0
173
     0
291
     1
 45
0.0
1001
ACAD
1000
AcDbSavedByObjectVersion
1070
     0
  0
VISUALSTYLE
  5
32
102
{ACAD_XDICTIONARY
360
FD2
102
}
102
{ACAD_REACTORS
330
29
102
}
330
29
100
AcDbVisualStyle
  2
Conceptual
 70
     9
 71
     3
 72
     2
 73
     0
 90
        0
 40
-0.6
 41
-30.0
 62
     5
 63
     7
 74
     2
 91
        2
 64
     7
 65
   257
 75
     1
175
     1
 42
179.0
 92
        8
 66
     7
 43
1.0
 76
     1
 77
     6
 78
     2
 67
     7
 79
     3
170
     0
171
     0
290
     0
174
     0
 93
        1
 44
0.0
173
     0
291
     0
 45
0.0
1001
ACAD
1000
AcDbSavedByObjectVersion
1070
     0
  0
VISUALSTYLE
  5
34
102
{ACAD_XDICTIONARY
360
FD6
102
}
102
{ACAD_REACTORS
330
29
102
}
330
29
100
AcDbVisualStyle
  2
Dim
 70
    11
 71
     2
 72
     2
 73
     0
 90
        0
 40
-0.6
 41
-30.0
 62
     5
 63
     7
 74
     1
 91
        4
 64
     7
 65
   257
 75
     1
175
     1
 42
1.0
 92
        8
 66
     7
 43
1.0
 76
     1
 77
     6
 78
     2
 67
     7
 79
     5
170
     0
171
     0
290
     0
174
     0
 93
        1
 44
-50.0
173
     0
291
     1
 45
0.0
1001
ACAD
1000
AcDbSavedByObjectVersion
1070
     0
  0
VISUALSTYLE
  5
41
102
{ACAD_XDICTIONARY
360
FF0
102
}
102
{ACAD_REACTORS
330
29
102
}
330
29
100
AcDbVisualStyle
  2
EdgeColorOff
 70
    22
 71
     2
 72
     2
 73
     0
 90
        0
 40
-0.6
 41
-30.0
 62
     5
 63
     7
 74
     1
 91
        4
 64
     7
 65
   257
 75
     1
175
     1
 42
1.0
 92
        8
 66
     7
 43
1.0
 76
     1
 77
     6
 78
     2
 67
     7
 79
     5
170
     0
171
     0
290
     0
174
     0
 93
        1
 44
0.0
173
     0
291
     1
 45
0.0
1001
ACAD
1000
AcDbSavedByObjectVersion
1070
     0
  0
VISUALSTYLE
  5
38
102
{ACAD_XDICTIONARY
360
FDE
102
}
102
{ACAD_REACTORS
330
29
102
}
330
29
100
AcDbVisualStyle
  2
Facepattern
 70
    15
 71
     2
 72
     2
 73
     0
 90
        0
 40
-0.6
 41
-30.0
 62
     5
 63
     7
 74
     1
 91
        4
 64
     7
 65
   257
 75
     1
175
     1
 42
1.0
 92
        8
 66
     7
 43
1.0
 76
     1
 77
     6
 78
     2
 67
     7
 79
     5
170
     0
171
     0
290
     0
174
     0
 93
        1
 44
0.0
173
     0
291
     1
 45
0.0
1001
ACAD
1000
AcDbSavedByObjectVersion
1070
     0
  0
VISUALSTYLE
  5
2A
102
{ACAD_XDICTIONARY
360
FC2
102
}
102
{ACAD_REACTORS
330
29
102
}
330
29
100
AcDbVisualStyle
  2
Flat
 70
     0
 71
     2
 72
     1
 73
     1
 90
        2
 40
-0.6
 41
30.0
 62
     5
 63
     7
 74
     0
 91
        0
 64
     7
 65
   257
 75
     1
175
     1
 42
1.0
 92
        8
 66
     7
 43
1.0
 76
     1
 77
     6
 78
     2
 67
     7
 79
     5
170
     0
171
     0
290
     0
174
     0
 93
       13
 44
0.0
173
     0
291
     1
 45
0.0
1001
ACAD
1000
AcDbSavedByObjectVersion
1070
     0
  0
VISUALSTYLE
  5
2B
102
{ACAD_XDICTIONARY
360
FC4
102
}
102
{ACAD_REACTORS
330
29
102
}
330
29
100
AcDbVisualStyle
  2
FlatWithEdges
 70
     1
 71
     2
 72
     1
 73
     1
 90
        2
 40
-0.6
 41
30.0
 62
     5
 63
     7
 74
     1
 91
        0
 64
     7
 65
   257
 75
     1
175
     1
 42
1.0
 92
        0
 66
   257
 43
1.0
 76
     1
 77
     6
 78
     2
 67
     7
 79
     5
170
     0
171
     0
290
     0
174
     0
 93
       13
 44
0.0
173
     0
291
     1
 45
0.0
1001
ACAD
1000
AcDbSavedByObjectVersion
1070
     0
  0
VISUALSTYLE
  5
2C
102
{ACAD_XDICTIONARY
360
FC6
102
}
102
{ACAD_REACTORS
330
29
102
}
330
29
100
AcDbVisualStyle
  2
Gouraud
 70
     2
 71
     2
 72
     2
 73
     1
 90
        2
 40
-0.6
 41
30.0
 62
     5
 63
     7
 74
     0
 91
        0
 64
     7
 65
   257
 75
     1
175
     1
 42
1.0
 92
        0
 66
     7
 43
1.0
 76
     1
 77
     6
 78
     2
 67
     7
 79
     5
170
     0
171
     0
290
     0
174
     0
 93
       13
 44
0.0
173
     0
291
     1
 45
0.0
1001
ACAD
1000
AcDbSavedByObjectVersion
1070
     0
  0
VISUALSTYLE
  5
2D
102
{ACAD_XDICTIONARY
360
FC8
102
}
102
{ACAD_REACTORS
330
29
102
}
330
29
100
AcDbVisualStyle
  2
GouraudWithEdges
 70
     3
 71
     2
 72
     2
 73
     1
 90
        2
 40
-0.6
 41
30.0
 62
     5
 63
     7
 74
     1
 91
        0
 64
     7
 65
   257
 75
     1
175
     1
 42
1.0
 92
        0
 66
   257
 43
1.0
 76
     1
 77
     6
 78
     2
 67
     7
 79
     5
170
     0
171
     0
290
     0
174
     0
 93
       13
 44
0.0
173
     0
291
     1
 45
0.0
1001
ACAD
1000
AcDbSavedByObjectVersion
1070
     0
  0
VISUALSTYLE
  5
31
102
{ACAD_XDICTIONARY
360
FD0
102
}
102
{ACAD_REACTORS
330
29
102
}
330
29
100
AcDbVisualStyle
  2
Hidden
 70
     6
 71
     1
 72
     2
 73
     2
 90
        0
 40
-0.6
 41
-30.0
 62
     5
 63
     7
 74
     2
 91
        2
 64
     7
 65
   257
 75
     2
175
     1
 42
40.0
 92
        0
 66
   257
 43
1.0
 76
     1
 77
     6
 78
     2
 67
     7
 79
     3
170
     0
171
     0
290
     0
174
     0
 93
        1
 44
0.0
173
     0
291
     0
 45
0.0
1001
ACAD
1000
AcDbSavedByObjectVersion
1070
     0
  0
VISUALSTYLE
  5
3F
102
{ACAD_XDICTIONARY
360
FEC
102
}
102
{ACAD_REACTORS
330
29
102
}
330
29
100
AcDbVisualStyle
  2
JitterOff
 70
    20
 71
     2
 72
     2
 73
     0
 90
        0
 40
-0.6
 41
-30.0
 62
     5
 63
     7
 74
     1
 91
        4
 64
     7
 65
   257
 75
     1
175
     1
 42
1.0
 92
       10
 66
     7
 43
1.0
 76
     1
 77
     6
 78
     2
 67
     7
 79
     5
170
     0
171
     0
290
     0
174
     0
 93
        1
 44
0.0
173
     0
291
     1
 45
0.0
1001
ACAD
1000
AcDbSavedByObjectVersion
1070
     0
  0
VISUALSTYLE
  5
37
102
{ACAD_XDICTIONARY
360
FDC
102
}
102
{ACAD_REACTORS
330
29
102
}
330
29
100
AcDbVisualStyle
  2
Linepattern
 70
    14
 71
     2
 72
     2
 73
     0
 90
        0
 40
-0.6
 41
-30.0
 62
     5
 63
     7
 74
     1
 91
        4
 64
     7
 65
   257
 75
     7
175
     7
 42
1.0
 92
        8
 66
     7
 43
1.0
 76
     1
 77
     6
 78
     2
 67
     7
 79
     5
170
     0
171
     0
290
     0
174
     0
 93
        1
 44
0.0
173
     0
291
     1
 45
0.0
1001
ACAD
1000
AcDbSavedByObjectVersion
1070
     0
  0
VISUALSTYLE
  5
40
102
{ACAD_XDICTIONARY
360
FEE
102
}
102
{ACAD_REACTORS
330
29
102
}
330
29
100
AcDbVisualStyle
  2
OverhangOff
 70
    21
 71
     2
 72
     2
 73
     0
 90
        0
 40
-0.6
 41
-30.0
 62
     5
 63
     7
 74
     1
 91
        4
 64
     7
 65
   257
 75
     1
175
     1
 42
1.0
 92
        9
 66
     7
 43
1.0
 76
     1
 77
     6
 78
     2
 67
     7
 79
     5
170
     0
171
     0
290
     0
174
     0
 93
        1
 44
0.0
173
     0
291
     1
 45
0.0
1001
ACAD
1000
AcDbSavedByObjectVersion
1070
     0
  0
VISUALSTYLE
  5
33
102
{ACAD_XDICTIONARY
360
FD4
102
}
102
{ACAD_REACTORS
330
29
102
}
330
29
100
AcDbVisualStyle
  2
Realistic
 70
     8
 71
     2
 72
     3
 73
     0
 90
        2
 40
-0.6
 41
30.0
 62
     5
 63
     7
 74
     0
 91
        0
 64
     7
 65
   257
 75
     1
175
     1
 42
1.0
 92
        8
 66
   257
 43
1.0
 76
     1
 77
     6
 78
     2
 67
     7
 79
     3
170
     0
171
     0
290
     0
174
     0
 93
       13
 44
0.0
173
     0
291
     0
 45
0.0
1001
ACAD
1000
AcDbSavedByObjectVersion
1070
     0
  0
VISUALSTYLE
  5
3E
102
{ACAD_XDICTIONARY
360
FEA
102
}
102
{ACAD_REACTORS
330
29
102
}
330
29
100
AcDbVisualStyle
  2
Shaded
 70
    27
 71
     2
 72
     2
 73
     1
 90
        2
 40
-0.6
 41
30.0
 62
     5
 63
     7
 74
     0
 91
        4
 64
     7
 65
   257
 75
     1
175
     1
 42
1.0
 92
        8
 66
   257
 43
1.0
 76
     1
 77
     6
 78
     2
 67
     8
 79
     3
170
     0
171
     0
290
     0
174
     0
 93
        5
 44
0.0
173
     0
291
     0
 45
0.0
1001
ACAD
1000
AcDbSavedByObjectVersion
1070
     0
  0
VISUALSTYLE
  5
3D
102
{ACAD_XDICTIONARY
360
FE8
102
}
102
{ACAD_REACTORS
330
29
102
}
330
29
100
AcDbVisualStyle
  2
Shaded with edges
 70
    26
 71
     2
 72
     2
 73
     1
 90
        2
 40
-0.6
 41
30.0
 62
     5
 63
     7
 74
     1
 91
       10
 64
     7
 65
   257
 75
     2
175
     1
 42
1.0
 92
        8
 66
   257
 43
1.0
 76
     1
 77
     6
 78
     2
 67
     7
 79
     3
170
     0
171
     0
290
     0
174
     0
 93
        5
 44
0.0
173
     0
291
     0
 45
0.0
1001
ACAD
1000
AcDbSavedByObjectVersion
1070
     0
  0
VISUALSTYLE
  5
3A
102
{ACAD_XDICTIONARY
360
FE2
102
}
102
{ACAD_REACTORS
330
29
102
}
330
29
100
AcDbVisualStyle
  2
Shades of Gray
 70
    23
 71
     2
 72
     2
 73
     3
 90
        0
 40
-0.6
 41
-30.0
 62
     5
 63
     7
 74
     2
 91
        2
 64
     7
 65
     7
 75
     1
175
     1
 42
40.0
 92
        8
 66
     7
 43
1.0
 76
     1
 77
     6
 78
     2
 67
     7
 79
     3
170
     0
171
     0
290
     0
174
     0
 93
        1
 44
0.0
173
     0
291
     0
 45
0.0
1001
ACAD
1000
AcDbSavedByObjectVersion
1070
     0
  0
VISUALSTYLE
  5
3B
102
{ACAD_XDICTIONARY
360
FE4
102
}
102
{ACAD_REACTORS
330
29
102
}
330
29
100
AcDbVisualStyle
  2
Sketchy
 70
    24
 71
     1
 72
     2
 73
     2
 90
        0
 40
-0.6
 41
-30.0
 62
     5
 63
     7
 74
     2
 91
        2
 64
     7
 65
     7
 75
     1
175
     1
 42
40.0
 92
       11
 66
     7
 43
1.0
 76
     1
 77
     6
 78
     2
 67
     7
 79
     6
170
     0
171
     0
290
     0
174
     0
 93
        1
 44
0.0
173
     0
291
     0
 45
0.0
1001
ACAD
1000
AcDbSavedByObjectVersion
1070
     0
  0
VISUALSTYLE
  5
36
102
{ACAD_XDICTIONARY
360
FDA
102
}
102
{ACAD_REACTORS
330
29
102
}
330
29
100
AcDbVisualStyle
  2
Thicken
 70
    13
 71
     2
 72
     2
 73
     0
 90
        0
 40
-0.6
 41
-30.0
 62
     5
 63
     7
 74
     1
 91
        4
 64
     7
 65
   257
 75
     1
175
     1
 42
1.0
 92
       12
 66
     7
 43
1.0
 76
     1
 77
     6
 78
     2
 67
     7
 79
     5
170
     0
171
     0
290
     0
174
     0
 93
        1
 44
0.0
173
     0
291
     1
 45
0.0
1001
ACAD
1000
AcDbSavedByObjectVersion
1070
     0
  0
VISUALSTYLE
  5
30
102
{ACAD_XDICTIONARY
360
FCE
102
}
102
{ACAD_REACTORS
330
29
102
}
330
29
100
AcDbVisualStyle
  2
Wireframe
 70
     5
 71
     0
 72
     2
 73
     0
 90
        0
 40
-0.6
 41
-30.0
 62
     5
 63
     7
 74
     1
 91
        4
 64
     7
 65
   257
 75
     1
175
     1
 42
1.0
 92
        0
 66
   257
 43
1.0
 76
     1
 77
     6
 78
     2
 67
     7
 79
     3
170
     0
171
     0
290
     0
174
     0
 93
        1
 44
0.0
173
     0
291
     0
 45
0.0
1001
ACAD
1000
AcDbSavedByObjectVersion
1070
     0
  0
VISUALSTYLE
  5
3C
102
{ACAD_XDICTIONARY
360
FE6
102
}
102
{ACAD_REACTORS
330
29
102
}
330
29
100
AcDbVisualStyle
  2
X-Ray
 70
    25
 71
     2
 72
     2
 73
     1
 90
        1
 40
0.5
 41
-30.0
 62
     5
 63
     7
 74
     1
 91
        0
 64
     7
 65
   257
 75
     1
175
     1
 42
1.0
 92
        8
 66
     7
 43
1.0
 76
     1
 77
     6
 78
     2
 67
     7
 79
     3
170
     0
171
     0
290
     0
174
     0
 93
       13
 44
0.0
173
     0
291
     0
 45
0.0
1001
ACAD
1000
AcDbSavedByObjectVersion
1070
     0
  0
DICTIONARYVAR
  5
79
102
{ACAD_REACTORS
330
76
102
}
330
76
100
DictionaryVariables
280
     0
  1
1:1
  0
DICTIONARYVAR
  5
78
102
{ACAD_REACTORS
330
76
102
}
330
76
100
DictionaryVariables
280
     0
  1
STANDARD
  0
DICTIONARYVAR
  5
77
102
{ACAD_REACTORS
330
76
102
}
330
76
100
DictionaryVariables
280
     0
  1
STANDARD
  0
DICTIONARYVAR
  5
FB5
102
{ACAD_REACTORS
330
76
102
}
330
76
100
DictionaryVariables
280
     0
  1
1
  0
DICTIONARYVAR
  5
FB4
102
{ACAD_REACTORS
330
76
102
}
330
76
100
DictionaryVariables
280
     0
  1
1
  0
DICTIONARYVAR
  5
FB3
102
{ACAD_REACTORS
330
76
102
}
330
76
100
DictionaryVariables
280
     0
  1
0
  0
DICTIONARYVAR
  5
FB0
102
{ACAD_REACTORS
330
76
102
}
330
76
100
DictionaryVariables
280
     0
  1
0
  0
DICTIONARYVAR
  5
FB1
102
{ACAD_REACTORS
330
76
102
}
330
76
100
DictionaryVariables
280
     0
  1
0
  0
DICTIONARYVAR
  5
FAF
102
{ACAD_REACTORS
330
76
102
}
330
76
100
DictionaryVariables
280
     0
  1
2
  0
DICTIONARYVAR
  5
FAE
102
{ACAD_REACTORS
330
76
102
}
330
76
100
DictionaryVariables
280
     0
  1
1
  0
DICTIONARYVAR
  5
FB2
102
{ACAD_REACTORS
330
76
102
}
330
76
100
DictionaryVariables
280
     0
  1
127
  0
DICTIONARYVAR
  5
FB6
102
{ACAD_REACTORS
330
76
102
}
330
76
100
DictionaryVariables
280
     0
  1
2
  0
DICTIONARY
  5
FF4
330
6B
100
AcDbDictionary
280
     1
281
     1
  3
ACAD_XREC_ROUNDTRIP
360
FF5
  0
DICTIONARY
  5
FF8
330
73
100
AcDbDictionary
280
     1
281
     1
  3
ACAD_XREC_ROUNDTRIP
360
FF9
  0
DICTIONARY
  5
FF6
330
6F
100
AcDbDictionary
280
     1
281
     1
  3
ACAD_XREC_ROUNDTRIP
360
FF7
  0
DICTIONARY
  5
1A
330
19
100
AcDbDictionary
280
     1
281
     1
  3
ACAD_XREC_ROUNDTRIP
360
FC0
  3
BUMPTILE
360
1C
  3
DIFFUSETILE
360
1B
  3
OPACITYTILE
360
1F
  3
REFLECTIONTILE
360
1E
  3
REFRACTIONTILE
360
20
  3
SPECULARTILE
360
1D
  0
DICTIONARY
  5
12
330
11
100
AcDbDictionary
280
     1
281
     1
  3
ACAD_XREC_ROUNDTRIP
360
FBF
  3
BUMPTILE
360
14
  3
DIFFUSETILE
360
13
  3
FBXASSET
360
109
  3
OPACITYTILE
360
17
  3
REFLECTIONTILE
360
16
  3
REFRACTIONTILE
360
18
  3
SPECULARTILE
360
15
  0
DICTIONARY
  5
22
330
21
100
AcDbDictionary
280
     1
281
     1
  3
ACAD_XREC_ROUNDTRIP
360
FC1
  3
BUMPTILE
360
24
  3
DIFFUSETILE
360
23
  3
FBXASSET
360
BA
  3
OPACITYTILE
360
27
  3
REFLECTIONTILE
360
26
  3
REFRACTIONTILE
360
28
  3
SPECULARTILE
360
25
  0
DICTIONARY
  5
FB9
330
67
100
AcDbDictionary
280
     1
281
     1
  3
ACAD_XREC_ROUNDTRIP
360
FBA
  0
DICTIONARY
  5
FB7
330
65
100
AcDbDictionary
280
     1
281
     1
  3
ACAD_ROUNDTRIP_2008_TABLESTYLE_CELLSTYLEMAP
360
FB8
  3
ACAD_XREC_ROUNDTRIP
360
FF2
  0
DICTIONARY
  5
FCC
330
2F
100
AcDbDictionary
280
     1
281
     1
  3
ACAD_XREC_ROUNDTRIP
360
FCD
  0
DICTIONARY
  5
FCA
330
2E
100
AcDbDictionary
280
     1
281
     1
  3
ACAD_XREC_ROUNDTRIP
360
FCB
  0
DICTIONARY
  5
FD8
330
35
100
AcDbDictionary
280
     1
281
     1
  3
ACAD_XREC_ROUNDTRIP
360
FD9
  0
DICTIONARY
  5
FE0
330
39
100
AcDbDictionary
280
     1
281
     1
  3
ACAD_XREC_ROUNDTRIP
360
FE1
  0
DICTIONARY
  5
FD2
330
32
100
AcDbDictionary
280
     1
281
     1
  3
ACAD_XREC_ROUNDTRIP
360
FD3
  0
DICTIONARY
  5
FD6
330
34
100
AcDbDictionary
280
     1
281
     1
  3
ACAD_XREC_ROUNDTRIP
360
FD7
  0
DICTIONARY
  5
FF0
330
41
100
AcDbDictionary
280
     1
281
     1
  3
ACAD_XREC_ROUNDTRIP
360
FF1
  0
DICTIONARY
  5
FDE
330
38
100
AcDbDictionary
280
     1
281
     1
  3
ACAD_XREC_ROUNDTRIP
360
FDF
  0
DICTIONARY
  5
FC2
330
2A
100
AcDbDictionary
280
     1
281
     1
  3
ACAD_XREC_ROUNDTRIP
360
FC3
  0
DICTIONARY
  5
FC4
330
2B
100
AcDbDictionary
280
     1
281
     1
  3
ACAD_XREC_ROUNDTRIP
360
FC5
  0
DICTIONARY
  5
FC6
330
2C
100
AcDbDictionary
280
     1
281
     1
  3
ACAD_XREC_ROUNDTRIP
360
FC7
  0
DICTIONARY
  5
FC8
330
2D
100
AcDbDictionary
280
     1
281
     1
  3
ACAD_XREC_ROUNDTRIP
360
FC9
  0
DICTIONARY
  5
FD0
330
31
100
AcDbDictionary
280
     1
281
     1
  3
ACAD_XREC_ROUNDTRIP
360
FD1
  0
DICTIONARY
  5
FEC
330
3F
100
AcDbDictionary
280
     1
281
     1
  3
ACAD_XREC_ROUNDTRIP
360
FED
  0
DICTIONARY
  5
FDC
330
37
100
AcDbDictionary
280
     1
281
     1
  3
ACAD_XREC_ROUNDTRIP
360
FDD
  0
DICTIONARY
  5
FEE
330
40
100
AcDbDictionary
280
     1
281
     1
  3
ACAD_XREC_ROUNDTRIP
360
FEF
  0
DICTIONARY
  5
FD4
330
33
100
AcDbDictionary
280
     1
281
     1
  3
ACAD_XREC_ROUNDTRIP
360
FD5
  0
DICTIONARY
  5
FEA
330
3E
100
AcDbDictionary
280
     1
281
     1
  3
ACAD_XREC_ROUNDTRIP
360
FEB
  0
DICTIONARY
  5
FE8
330
3D
100
AcDbDictionary
280
     1
281
     1
  3
ACAD_XREC_ROUNDTRIP
360
FE9
  0
DICTIONARY
  5
FE2
330
3A
100
AcDbDictionary
280
     1
281
     1
  3
ACAD_XREC_ROUNDTRIP
360
FE3
  0
DICTIONARY
  5
FE4
330
3B
100
AcDbDictionary
280
     1
281
     1
  3
ACAD_XREC_ROUNDTRIP
360
FE5
  0
DICTIONARY
  5
FDA
330
36
100
AcDbDictionary
280
     1
281
     1
  3
ACAD_XREC_ROUNDTRIP
360
FDB
  0
DICTIONARY
  5
FCE
330
30
100
AcDbDictionary
280
     1
281
     1
  3
ACAD_XREC_ROUNDTRIP
360
FCF
  0
DICTIONARY
  5
FE6
330
3C
100
AcDbDictionary
280
     1
281
     1
  3
ACAD_XREC_ROUNDTRIP
360
FE7
  0
XRECORD
  5
FF5
102
{ACAD_REACTORS
330
FF4
102
}
330
FF4
100
AcDbXrecord
280
     1
102
SHADEPLOT
 70
     0
102
SHADEPLOTRESLEVEL
 70
     2
102
SHADEPLOTCUSTOMDPI
 70
   300
  0
XRECORD
  5
FF9
102
{ACAD_REACTORS
330
FF8
102
}
330
FF8
100
AcDbXrecord
280
     1
102
SHADEPLOT
 70
     0
102
SHADEPLOTRESLEVEL
 70
     2
102
SHADEPLOTCUSTOMDPI
 70
   300
  0
XRECORD
  5
FF7
102
{ACAD_REACTORS
330
FF6
102
}
330
FF6
100
AcDbXrecord
280
     1
102
SHADEPLOT
 70
     0
102
SHADEPLOTRESLEVEL
 70
     2
102
SHADEPLOTCUSTOMDPI
 70
   300
  0
XRECORD
  5
FC0
102
{ACAD_REACTORS
330
1A
102
}
330
1A
100
AcDbXrecord
280
     1
102
MATERIAL
148
0.0
149
0.0
149
0.0
 93
        0
 94
      127
282
     0
 72
     0
 77
     0
171
     0
175
     0
179
     0
273
     0
  0
XRECORD
  5
1C
102
{ACAD_REACTORS
330
1A
102
}
330
1A
100
AcDbXrecord
280
     1
270
     1
271
     1
  0
XRECORD
  5
1B
102
{ACAD_REACTORS
330
1A
102
}
330
1A
100
AcDbXrecord
280
     1
270
     1
271
     1
  0
XRECORD
  5
1F
102
{ACAD_REACTORS
330
1A
102
}
330
1A
100
AcDbXrecord
280
     1
270
     1
271
     1
  0
XRECORD
  5
1E
102
{ACAD_REACTORS
330
1A
102
}
330
1A
100
AcDbXrecord
280
     1
270
     1
271
     1
  0
XRECORD
  5
20
102
{ACAD_REACTORS
330
1A
102
}
330
1A
100
AcDbXrecord
280
     1
270
     1
271
     1
  0
XRECORD
  5
1D
102
{ACAD_REACTORS
330
1A
102
}
330
1A
100
AcDbXrecord
280
     1
270
     1
271
     1
  0
XRECORD
  5
FBF
102
{ACAD_REACTORS
330
12
102
}
330
12
100
AcDbXrecord
280
     1
102
MATERIAL
148
0.0
149
0.0
149
0.0
 93
        0
 94
      127
282
     0
 72
     0
 77
     0
171
     0
175
     0
179
     0
273
     0
  0
XRECORD
  5
14
102
{ACAD_REACTORS
330
12
102
}
330
12
100
AcDbXrecord
280
     1
270
     1
271
     1
  0
XRECORD
  5
13
102
{ACAD_REACTORS
330
12
102
}
330
12
100
AcDbXrecord
280
     1
270
     1
271
     1
  0
XRECORD
  5
109
102
{ACAD_REACTORS
330
12
102
}
330
12
100
AcDbXrecord
280
     1
 70
     1
 90
1959938040
 71
     1
  1
43056A62-1C8C-4DB2-868C-C2F09E8FB964
311
504B03040A0000080000ED4232403DEE336E79000000790000001B0000006175746F6465736B2D64657369676E2D7061636B6167652E786D6C3C3F786D6C2076657273696F6E3D22312E302220656E636F64696E673D227574662D3822203F3E3C666F726D6174733E3C666F726D61743E687474703A2F2F736368656D612E
311
6175746F6465736B2E636F6D2F64657369676E2D7061636B6167652F323030393C2F666F726D61743E3C2F666F726D6174733E504B0304140006080800ED423240D486FD9CA0000000F4000000130000005B436F6E74656E745F54797065735D2E786D6C7D8EC10E82300C865F65E91D8A1E8C310C0EEA1BF002731658846E
311
D98AC1B77784ABF1D8FE5FBFBF75BBCE937A534CCEB38643598122B6FEE978D0B0485F9C41B54DDD7D022595594E1A469170414C76A4D9A4D207E29CF43ECE46F218070CC6BECC4078ACAA135ACF422C856C0E68EA1BF5669944DDD7BCDE7B1F8E415D77AECB980613C2E4AC91FC167A2B244592486606FC29C8FD7F045B9A
311
EF7053A7E60B504B0304140006080800ED423240543C8EBAEA0000007C01000008000000636F72652E786D6C8D904D6EC3201085AF82D863F3133BD4C2446A1B4ED00B20202E4A0C9681AAC72F4E1CA9DD7535A337EF9B193D71FA9E6FE0CBADC9C73042D260085C30D1FA308DB0E40BE2109CA45863CCBF6C10043DBB116E
311
3294625A635976C9C4905DC8550DD1BA5DD429B90C81B9D56684C97CBA5937BAE4EA48D766D1E6AA27D7906757E152BC058F23DED67DFEE2DD0A65CFBBF3FB5931F4CABB1774E895425C1D393A32D533FAA65877E0A2DD6029B29F9FF7CDEA7476164A8A09459820C23F301F281BE811E17EC058B49BFD0F5416FB4FA8F890
311
19DDDF7D60094A521FB90FA468B72C6AB90755EB969BFC01504B0304140006080800ED42324055019EA25F0000007C00000007000000636E782E786D6C4DCB3B0E80201045D1AD90E915ED2CF8AC45050C11660C8261F98AB1B07AC9C97D42D718D865D3E909258CFD00CCE24AC6E326A164D74DC0B4128928FF326038472B
311
A13128B1252AC747C6BAB984FC68F0B87FE8960A5C09FE86CFB69FBA01504B0304140006080800ED4232404624885466010000020300000C0000006662782F636F72652E786D6C8D525B6E833010BC8AE57F630309A19171A4B6E104BD80030E45011BF98172FC2E8F284D15451592B16676766707F8E1DA776854D6B54617
311
388E18464A57A66E7553E0E0CF24C7E820B835C6FF2AC348CB5E157882B1E08D356158A1CA68AFB407549B5AADA0744E798CAA0E2E0576D5B7EA652483870A778906595D64A3A238021AEA0477DE8201B40C994E2CCEA72BA70B2E78086DBDB26D0DD3DA73AB2C1659BE3D7E1ECB94BCE7DB37B2C9CA92E4E52E27BBB4CCD2
311
E4A34CB79B9CD3492CB86FFB9BBBCA2AE9558D45C2E284B098C4F917CBF749BA4F7684657BC6389DCA1F4461A8FF290AADF669B2DA5D640E8B188CCCC49F6D21228F9C1CC10F159C4E21C26B4EF83168080442F6F2D4DDF6B80034AACA1BBB01A636E14E8DB20B0AA632343F9C2E2C749E1BC0664FFB242FFABCEE011F50EA
311
06AC490FD753F0D374BE4C5DA3189425A3BF226D6C2FBBBBB9C5E2FDBC0F7A2AAF4C67EC7FD4745D95AE61D2E9EF153F504B0304140006080800ED4232408443B43A7E0000009D0000000B0000006662782F636E782E786D6C4DCCD10E82201886E15B61FF394941491BE082F43E5CA263223482D6E5A7CD838EBEEDD9B757
311
349FC5A3B74D2F178384E38100B2E11107172609258F98036A944831E6BF1BA0D02F56C2C6A0C4946279EE34D8B12F3EAFEA5D9877BCF1FBA53EB116134A286635E9B066866373261DD59A1AD25EA152A2FA95D6DDC2EA0B504B0304140006080800ED4232401B0CAC502B01000013020000310000006662782F4138443637
311
3234452D303330332D343730462D423443382D4335304633424233433045392F636F72652E786D6C8D51CB6EC32010FC15C4293D602FD871DC08133569F205FD016A931425068B4795CF2FD48ED4DE7261D1ECCCECC0F2DD7DBCA16FE5BCB6A6C3B4008C94E9EDA0CDA5C3319C498BD14E70676DF843C3C8C8517538C358F0
311
8BB3715AA0DE9AA04C48A8B1835A40E9BD0A18F5B774E9B0EFBFD4280B194362F86B31C9FE2A2FAAA0456A279EE03EB81400CD43F289C55BFBDE6C587D24504145EA0D9CC8BE3EB4E4B08653B5DF570738BEF272160A1EA31E16B91E521C7DD6CA3D6B92C582073D3EE2F74EC9A0062C1850468012DA7E40BB65D5966D0834
311
5B005E66FA3F519C862745519B50B125EE2CF358505ECE0DC1071B3F6F8F30EA3E5917509EB7F2AA7FC1020A60B0A6D0F27266A6F727CBA65E2C7DB02EFDEFEAFA99C8743DFB36B5E0655E512ABFFB4B35AF53FC00504B0304140006080800ED4232408835B4EC4D01000033030000300000006662782F4138443637323445
311
2D303330332D343730462D423443382D4335304633424233433045392F636E782E786D6CD593BD6E032110845F05D1DFAF4F8E6571584A912748919683B54DCCC1899F287EFB2C3676DCB84899069D668799D5278EEDBE6743BEC007EDEC48BBBAA504AC744ADBC34853DC571B4A769C79E7E2838D122B66186996296707EF
311
D25224057B914C44D5687B2AA287E092971050CE37897152180C005B2514619E402950E46EC4AF3D785C05C5E94CE211C8DBEB0771D327C818589353386B720767F92C4D0F264AA411218C34C823CCA216293A05E1542B1145DDD5B7AE273BFD26917CE15699BC26B97CA4F9A4BC6C542347D6E090B3103DD22BA6785E8072
311
B12C464B11117273315E3D9C256DE37A285E8DE03DBABBF56A1830EC32E32CEA198A437A101114E57DDBF555DB55DDE6BDDD6CFBD5B67FA9DAF5B66D5993ED9C4DCE99720963C0BB85486723D84879C79A3C7E86AFF888D21E593B7FFE034804505AAF74EE19FF994F7379DF88CBE35FC07F00504B0304140006080800ED42
311
3240EFF68E1D9A0500007B100000340000006662782F41384436373234452D303330332D343730462D423443382D4335304633424233433045392F6F626A656374732E786D6CAD575D6FDB3614FD2B82F66CC9B29D2C191415B1DD144697B6A8D1620F010C5AA2142ED407482A71F6EB772852B2E4DAA937F4451229F2F2DE
311
73CFFD60F86E9773E7990AC9CAE2C60DBCB1EBD0222E135664376EADD2D195EBBC8B425196AAB7CC750A92D31B574FBB519889B2AEEC544253527375307B37FFCB91312DA8EBC49C4879E3CAF891E6C423B52A132A9FBC8428E265E9CE0B3CB370283613A47A3C105A11410B054D315F408A63940A86C3B1EB47A1AFFF47A1
311
7EDA55D3D3ABFCC69EE1F9AC908A14F10F871D889906B3E5FBC9C5F5E862369B8E6697936034BF9B2F47C1EFD3F1E272B1B8BE7D7F8D83A512906435113475A30FC046B038F4CDAF28AC59A1A613BBC43AC817F499694FB9D1C40942DFACE9ACB3461E533F2E8B82C60D5640A3B1CF8A4E68458B043E675442B31E42E3E130
311
D038F67E4FF5D81ED99F3E0F81FE8E9EA056F7F6DDD7B4DCFE0D13E4390C12926A061A2CADA186ABE33DC2DBB2E4F61F934E4E14158C7087B3AD20E2D58DB0542F89C28118CD64A1A3415BE046F082F93DA40BC2E8E73C3FA6655A73AE69EC464D146C102B54C94633F60F157BEDFBC84027F84AB3E1CA1AA45E2BEA46D786
311
2257076C32403A2927195C0E33F5CEE9E4C0D0858ED3D5D28D3EDE6D776B1DBBC70FAF445951A1347D40ADD671ED5BA364750ACEF29CDEE01EA8B207E52B90FF8450DFAB02BF09B69BED66F614254821D352E4F08D337646633CC64ED03CF577EF2BF4BBCD43EF9DC213CED650FD023C8736F47DD983330A9F41F8524CAD69
311
EB9870A48D7B5600204D12879798421E4EB73B375A21CB212B6317E1510093A1EE333E43DF8A41A2684EEABD0B60799016CF48D080AD6124D430E4B70AEEFDF4433A6B0EB6CB4EC17BF14BE87ABB5C7F5CD7222531BDB731BDA4292B984289DBF3A6AFD000F381454FF4F5A514090CFD11EF751FEFDC1E2581B6C65C039FB5
311
395D0FF6270F0E88B12F2B75BA097F72028CD085B527FF9EC998724E0A5AD6EDB96FD60F940D03B10E76CDE4AEC0EC0B0B4863FE1CC4208A742C58A541ECAA559734BD13D67D5B7D0223DD68FEFA2779ED67AFED3EF7C6252FC566FBBA3169E928D4DF87DCB618F85A0AE8DE04491BFF16F44DC2D2B49648824770FDBE5AF4
311
7DA7D30252442BD544CB0CF623B888B0A46DE5A25A0B824A5A161B86BA89B83B7A405F3E20B50C68049ED258529E6E18E775BE49194735DAE4A43A01C7FFD77F5BE7D586E4655DA813B207AAA33A0C751FB057BE10153FBAD1BA798FE6C8BD094D4E9041D79223580D5C3B9B8E2F2E6F2F27A36071B518CD96F3C9E8EA125F
311
8BC9DDF8FAFDD5DDFCFA72D6FAC96812856DA9E94734BC84D216D68259F77D5B217E6C1270A37BA2E4C307139EEDFBDBCA432F1CFAD8837AD96DBC4D9ED1F7D1E4E702F62B8F0A5AE515A7392D14D13174AF3FF857823E63A08C995FE524A36748F9FC617D600C66CED8F745C73B7D39D86B67173A208F0A518F75BE2D08E3
311
071B3383A4571599C5AFF549F73685A61DEA91750C3A53597296200F264E46CB9C2A64C3338A90C8A904F5FA3D7D62EF1E67EC7E361DA2225B4E5B4D1E099A642E1116A0561DABE1BCF31B9A3ADD57DDB828B7DE131E3653B80E3873E3A249572CA6D2DBA240EB56A8110E2EF53B7934FEA4C8387A6DB3A91B77BB34368392
311
DC2D39A77FB27699146E0D401AA9D037A02182771A65A2B0D1CDFE8FFF93E1AD3A0E51F8DCD6AAB3653FD119D31C83103546D9DB029A98277BF40E81FAB65981D7AC192072D62DEB4D1218A9234544D6DC14B47E56A5DBE5171F1D8AB3FAEC54BCCEE0CBF3258D0405996B1DE06011586165564481AA8B3F1EBE881237D9DC
311
B963A0C0C3A2CCF3B2B0835B7B1376D68FB8D7260F480B545F48E4C3641C4C1E9A8B80BD9B6CB644528F24F20913F0A9601DC403C78391E6B6880A647E74EB7CED84036EAE968E2D69C8B1EDFA7E56D5B0A0E528A883E8D197491D2BFD05D59B7701BF590A1504BAF8E85F504B0304140006080000ED423240000000000000
311
000000000000350000006662782F41384436373234452D303330332D343730462D423443382D4335304633424233433045392F76657274696365732E62696E504B0304140006080800ED423240F270F1330600000004000000360000006662782F41384436373234452D303330332D343730462D423443382D433530463342
311
4233433045392F747269616E676C65732E62696E636660600000504B0304140006080000ED423240000000000000000000000000370000006662782F41384436373234452D303330332D343730462D423443382D4335304633424233433045392F617474726962757465732E62696E504B0304140006080800ED423240D598
311
7DFC8F00000041010000360000006662782F41384436373234452D303330332D343730462D423443382D4335304633424233433045392F6469726563746F72792E786D6C858F410EC2201045AF4266AF15DDB800BA74E7C21B903225242D6328188F2FA5C4183471359997F9FF81E89FF3C41E1816475E02DF1F80A11FC838
311
6F25A438EECEC07A250251FC3803E6F58C12560C4AD840E95E91C151A72936F496F35732D860FE635F62C8F2DA16B505C545B74125BAA2FA9E05D7CC053D063734D5C7665FD55B6B8D15D5E9BFEAFD8490FFA45E504B0304140006080800ED4232404797A022FD000000A00100003B0000006662782F41384436373234452D
311
303330332D343730462D423443382D4335304633424233433045392F7265736F75726365732F636F72652E786D6C8D504B6EC32010BD8A357B6C8C13875A98486DC3097A0184270E4A0C119FAAC72F4E5CA9DD7533337A1FCDD313C7AFE5567D6288D6BB11DA9A4285CEF8C9BA79849CCE8443759422789F7EC9A0727AC111
311
5618A49883CFF70D32DE2574A9A0CE4FB8813A464C50995B394688E6828BAE754E4511AFF55D9BAB9EB16EEB42179D14318512A07A3E5927C880D1E760308AE6C94A91B39D368D9DCA4F7BB61840F67C7F7A3F29465EF9FE85EC7AA50857074E0E9DEA3BF6A6BAFD8E8B66354B91ECF293D104D40927908CB68CD096B4FC83
311
F28175033B10DA0F948A6695FF31E5FBF44F53B62E756C8BFBB445906D09F220A468D6BECA7A9459F6DAADFC06504B010214000A0000080000ED4232403DEE336E79000000790000001B00000000000000000000000000000000006175746F6465736B2D64657369676E2D7061636B6167652E786D6C504B01021400140006
311
080800ED423240D486FD9CA0000000F40000001300000000000000000000000000B20000005B436F6E74656E745F54797065735D2E786D6C504B01021400140006080800ED423240543C8EBAEA0000007C010000080000000000000000000000000083010000636F72652E786D6C504B01021400140006080800ED42324055
311
019EA25F0000007C000000070000000000000000000000000093020000636E782E786D6C504B01021400140006080800ED4232404624885466010000020300000C00000000000000000000000000170300006662782F636F72652E786D6C504B01021400140006080800ED4232408443B43A7E0000009D0000000B00000000
311
000000000000000000A70400006662782F636E782E786D6C504B01021400140006080800ED4232401B0CAC502B0100001302000031000000000000000000000000004E0500006662782F41384436373234452D303330332D343730462D423443382D4335304633424233433045392F636F72652E786D6C504B010214001400
311
06080800ED4232408835B4EC4D010000330300003000000000000000000000000000C80600006662782F41384436373234452D303330332D343730462D423443382D4335304633424233433045392F636E782E786D6C504B01021400140006080800ED423240EFF68E1D9A0500007B10000034000000000000000000000000
311
00630800006662782F41384436373234452D303330332D343730462D423443382D4335304633424233433045392F6F626A656374732E786D6C504B01021400140006080000ED42324000000000000000000000000035000000000000000000000000004F0E00006662782F41384436373234452D303330332D343730462D42
311
3443382D4335304633424233433045392F76657274696365732E62696E504B01021400140006080800ED423240F270F13306000000040000003600000000000000000000000000A20E00006662782F41384436373234452D303330332D343730462D423443382D4335304633424233433045392F747269616E676C65732E62
311
696E504B01021400140006080000ED4232400000000000000000000000003700000000000000000000000000FC0E00006662782F41384436373234452D303330332D343730462D423443382D4335304633424233433045392F617474726962757465732E62696E504B01021400140006080800ED423240D5987DFC8F000000
311
410100003600000000000000000000000000510F00006662782F41384436373234452D303330332D343730462D423443382D4335304633424233433045392F6469726563746F72792E786D6C504B01021400140006080800ED4232404797A022FD000000A00100003B00000000000000000000000000341000006662782F41
311
384436373234452D303330332D343730462D423443382D4335304633424233433045392F7265736F75726365732F636F72652E786D6C504B0506000000000E000E00800400008A1100000000
310
504B03040A0000080000ED4232403DEE336E79000000790000001B0000006175746F6465736B2D64657369676E2D7061636B6167652E786D6C3C3F786D6C2076657273696F6E3D22312E302220656E636F64696E673D227574662D3822203F3E3C666F726D6174733E3C666F726D61743E687474703A2F2F736368656D612E
310
6175746F6465736B2E636F6D2F64657369676E2D7061636B6167652F323030393C2F666F726D61743E3C2F666F726D6174733E504B0304140006080800ED423240D486FD9CA0000000F4000000130000005B436F6E74656E745F54797065735D2E786D6C7D8EC10E82300C865F65E91D8A1E8C310C0EEA1BF002731658846E
310
D98AC1B77784ABF1D8FE5FBFBF75BBCE937A534CCEB38643598122B6FEE978D0B0485F9C41B54DDD7D022595594E1A469170414C76A4D9A4D207E29CF43ECE46F218070CC6BECC4078ACAA135ACF422C856C0E68EA1BF5669944DDD7BCDE7B1F8E415D77AECB980613C2E4AC91FC167A2B244592486606FC29C8FD7F045B9A
310
EF7053A7E60B504B0304140006080800ED4232405E2F1984EB0000007C01000008000000636F72652E786D6C75905D8E83201485B7427847017F639046EDEC603640803AA4158CC0A4CB2FB636993ECCD3BD399C8F7B72D8E9BEDCC0AFDEBC71B68724C310682B9D3276EE610C17D44270E26C732EFCB14160C5A27BB8CB90
310
B37973713D24E96CD03624D53AA50F5178AF0304F296961E7AF9A31791891892C35FB355C8AB987546DE5B8263340ABC8E1895FE3317A337C8C9504D232D2B548CE70695D530A2A124052A87696CEA6AC2E7E68BE53BCC5930CBFBBEDCB4085A414E31A1081344DA6FDC76B4E8688D70DD61CCF2DDFE01C555FD07359F5034
310
3614F488FBC27CCA9A823C1F38CBF72ED2781695E6DE1B7F00504B0304140006080800ED42324055019EA25F0000007C00000007000000636E782E786D6C4DCB3B0E80201045D1AD90E915ED2CF8AC45050C11660C8261F98AB1B07AC9C97D42D718D865D3E909258CFD00CCE24AC6E326A164D74DC0B4128928FF32603847
310
2BA13128B1252AC747C6BAB984FC68F0B87FE8960A5C09FE86CFB69FBA01504B0304140006080800ED4232401F42A13069010000020300000C0000006662782F636F72652E786D6C8D52ED8E8320107C15C27F04BFDAA6411A6DEF0DEE05A852CF54C120983EFEAD1F4DAF975E73314132B3B33B3BCA0FB7AE45A3B2436374
310
86C38061A47469AA46D719F6EE4276181D04B7C6B81F651869D9A90C4F3016BCB6C6F72B541AED9476806A53A91594C3A01C46650B970C0FE597EA6420BD838AE11AF4B2BCCA5A05610034D4093E380B06D032643AB1B89C6F9C2EB8E0DE37D5CA36154C6B2E8DB25884797A2CA224257171DA9224CD0B9227614C92FC586C
310
37E9919DB61F9C4E62C15DD3DDDD955649A72A2C221646848524DC7DB2DD3E8AF7D186B0CD9E314EA7F22791EFABBF44DB67916FB48BA3D5EE221BC02B1899895FDB42440E0D72043F54703A8508AF39E1E7A0211008D9C9737BDFE30AD0A84A676C024C65FC831A65EB154C65687E385D58E83C3780CD5EF689DEF479DF03
310
3EA0D43558930EAE67EFA6E97C99BA46D12B4B467743DAD84EB60F738BC5C7F918F4525E9AD6D8FFA8E9BA2A5DC3A4D3DF2BBE01504B0304140006080800ED4232401B1C34187D0000009D0000000B0000006662782F636E782E786D6C4DCCD10A83201886E15B91FFDCE55FAE1CA8E106DD472C0B99E9703A76F9ABD1C18E
310
3E78F87865FF593D79DBF4723128C0130362C33D4E2E2C0A4A9EA900D26B9962CC7F3720615CAD829D41CB25C5F23C68B2F3587CDED4BBF038905DEACE203BD396B386727E1BA8195A4EB1E19DC0AB40831C2A2DAB5F69DB3DACBF504B0304140006080800ED423240A869368D2D01000014020000310000006662782F3039
310
3237413130352D363430332D343443462D414636342D3133343738314238314131342F636F72652E786D6C8D514B6EC32014BC0A62952EB0015387449828AD9413F4020E262E4A0C169F2AC72FD48ED42C2A75C343F366E60D3C71B84F37F0A57D30CE76905418026D951B8C1D3B98E20571080E5278E7E22F1A04B69F7407
310
0B0CA518BD4BF30A2967A3B631A3D60D7A05FB10748440DDF2A583417DEAA9AFFA1433235CABB957D77ED415A9723BF3A408D1E7006019524E28F18E6E8F04BFA296E10631F67E42C753CB1069D89693374E8E84897A114A91921956B919721C7331DAFFD7A488A588667AC4575EF7510F50524C28C20411FE81F99E367BDA
310
22DCEE311675A13F89D23CFC25DA3E8B92B1B1A16BDC4516A024A25E1A520C2E9D6F8F30FA3E3B1F4199B7095ABDE457559862CE39DD897AA1E60FC89E2D5B3D43743E7FF0E67ACEEC66356E991475D9512E3F0BCCB5EC537E03504B0304140006080800ED423240E1DB337D5601000033030000300000006662782F303932
310
37413130352D363430332D343443462D414636342D3133343738314238314131342F636E782E786D6CAD93CD6EC32010845F0571F76F22D78A30917AE813F4D02B864D4283C1025C356FDF2521692E39A4EA0559B3C3CCEA1366DBEFC9902FF0413B3BD0A6AC29012B9DD2763FD025EE8A9E922D67DEB97867A3C48A09069A
310
64CAD9DEBB65CE92829D584C44D5687BCCA287E0162F21A09C6E12E3A4301800B65850846904A540919B11BF76E0711514C7138907206FAF1FC48D9F206360554AE1AC4A1D9CA53337DD992891468430D0200F3089522CD12908C7528928CAA6BC763DD8E93789A40BD7CAC56B92CA079A4ECAF346257264150E390BD123BD
310
6C8AA7192817F36CB41411215767E3C5C3D9A26DECD6D9AB11BC47F7AAEDFA1EC3CE33CEA29E203BA407114151DED64D5BD44DD1F4EF75BF69579BB62BEA6E53D7AC4A76CE46E74CBE8431E0DD4CA4B3116CA4BC61551A3FC2977D44698FAC9D3F3D011201E4D60B9D5BC67FF269BAD57AFD2C9F97BFF3A9CEEF1B7179FC0B
310
F80F504B0304140006080800ED4232406E999D0B58070000941B0000340000006662782F30393237413130352D363430332D343443462D414636342D3133343738314238314131342F6F626A656374732E786D6CED59DD73A33610FF5718FA6C6C6C274D3A849BC4B9643C6DEE6ECEBD9B3E78869141266A84602491C4FDEB
310
BBFA00033109EEA56FF76003425AEDFEF6534BF0E139A3CE23E682E4ECC2F5BD89EB6016E70961E9855BCAEDE8CC753E8401CF73D998E63A0C65F8C255C36E18A43C2F0B3B94E02D2AA9EC8CDE5CFDE5881833EC3A3145425CB822BEC719F25029F3048B072F411279E9F6D9F33D33B14D36E5A8B8EF102D10C74C02A730CE
310
808A6398F2DB8F13771C0663F53E0CD4BF9D351B346BDE3F6BACA56E7349989088C52F58EA90990D6269E6CFAF3F4E4FCE4727F3F96C343F9DFAA3AB9BABEB91FFEB6CB2385D2CCE2F3F9E037B9B3CA756A604179825A0BF9D1BFAC158BDA945B7081CE23ACE19C3B10612A0D2627509122C60AB067C93F6A3AF246ABCD612
310
369EE7EABD65A1313C6B53E99B350C88165D10C46E57495C5D9BF2E59BBF417031C428B9C012B8159283762D3C1CBCC20D27C1D88C86C166AF0B229C0C49CC09A20E251B8E382805A6AA296160165832CA3938907294045A73E675DBB6C033DF769D435C6E4B4A9567B8A176AC08DC0F4BA13923FF60BEE7BE890CF004D296
310
84C933CBA5DC15D80DCF83B11E0C0375994DED4B03A4B3A528151A11F3B623E842B9FEF2DA0D7FBFD93CAF543838BC79C1F30273A98C4EE951F305866CAF0A25BBAD3F48736A01086340B52BF7A07C05E43F41F4D8B3027AE3E479FE3CB77325474C6C739E816E9C89339AC0DFC4F1F5BFBA6FDC05E37A715B7B7D78829B2A
310
A8CE7E1CCFB60C1A2BCB7F03CE30780483CFF9CCBE5AC588823DDF110600292371680E4310DAB79B67375C42E084400FAB100D7D1019D87D84DB606CC9ECB552B997F53A0688DA3D66439404B0698B04367AF4740BD9839378AFA6A6887DF09EBC8BB95E5EAF7E5F957C8B627C677DFA1A6F092312B2E661865A98B7247AC0
310
BBA79C2720E84BBC574DBC33BB9500B415E60AF8B402413DEC776E6D10C3BA3457E1267863071042E5EA06FD3B22624C2962382FAB7DEBE8A60CB5F6785B33B8E1D4403C9B764C98E347A2AA0A709AFD8C16A390F7634E0A05A21BDE1AC9EAA0E9F548F76DF9092CB29EDF336BC920F43244FFD441EB000E2DCBAE90B640D4
310
026FF6E13CCE69CEA3CD2E3291CE855A02D8687BCBF7165188F546498A0A7890F6BB2AA4A446DA2821DB6D2920AE1E60F1FB72D134878937F34F9CE67FC719E7106DC17711B77ED7D92322194A71B44549DF76CDDD6ADA4293EC21CDF196825CE491C85D84643449707A0C3447113F7F57EA29CD85200C0BC85707C16FA231
310
F12090186D562C2BAD76802622CAB044F4180414991E7075DAD1356E0CA5C3DB3CD6D6FB9AC69A44FF278BE0086AC99C45044A51C8216F32EE7B271043DAE81A943BF882B555B4B518B4841222DE454F98A4F7F218D40DF91EDC6338929432CA0B1483590F20FBC25794523BBC6F50FCA0F2471497F4BD0C4460BA8D08A565
310
16C18F3038790C71ED3A30BD8A4283B8897D126750942159F2219B9C9E4C5EEC636A866E086C6CB42514C27694A1A207F55640D4F58853836FA9F7287553664584B2BC64830CC59B75BDC992EFAA55911DC8AF2A15A16CAC085B82614098ACB36A15B3C1D475600537D2816A17099415D49CC2DE483C7EED4D9A72EF06DCFA
310
E9FB6E9041E1D7A3BD66449D5730581E5B8581784232BE77C395BE8EAEA0FE4E70B24FF555ADD9AC00013115C94B4EAC8ABE2DA1BCB1359A1BDE2129D6B726EB56D76F4B0FBA1FC118D640ED522F5C2AA033CC245295C99DBAA15F1184E0160D33BE5439F5182A9749A2AB46446F489F3A5B65446BD38C78C53D6679063FB6
310
262CA66582D728110FD19DA4D18A28D6AD945E462A8C5F15F0F3EDAA030F8C0C10E98B2AF0F05367AD1D5DA872E92011795F661B860804C19668A9D18D57B0D46AA4D2727D55670AA8BBC0C0AC8AE73F4F16CD76C4CF93456A0DE3874E1657BB3FD0AED91769A4F358D9F551C7803A3F292AEF710CD06D879A6A9D454C32B7
310
F25B678A202856517E703556050D43B08FE3FF9CB5FBB2A0D9AEC3FF7159DB7F51711C95555A935597EA40E5BA6CE5B0D9E4E4F4F2743AF217678BD1FCFA6A3A3A3B85BBC5F46672FEF1ECE6EAFC745EA3A91D350CEA60A673173C9BA0560DAB278B017465454E4902A7F9C44931C47C0967FA01ED739E6101C9B3D9EC4E6C
310
537EC0EA47D3E794684371C5C93D8206311590D601A33296ED71E717684D4A38685FB8D034F21EE0CF5AA5EB40E6B970A15520498C85B78136936AE869E2907275EEB7C4001FC4529512CDA2FAB95EA5B06985FF7ACA903460E56AF530A0702BA0FBD5EA5068DE2C4FF1518257EC3848C2EDA69450AD1959F603B5307A9BBD
310
FA8D6C94B007BBF533B8EEEB62F99E9ED34264D02783578DC0501D49C453DDEF568C59962EAFBF8CA1CFE62C3F3B052D53D0E5704A238EC1984B555081158155589A059260AA8BDFD65F780E9F7832475745EB459E6539B30F97701E4BE01391B3BA870F3EC91ACA06ACDAEA623D9DF8D3B56E67DB0E7BB441027BAA1E8281
310
AA8C5022748C0D2CF2456BCA362EC74A099DE9CB6BC7864F6803180B7AD1DD359FB71CF01EF52145F98AF6F04ACE573BDA633D15AC81432F3AFC17504B0304140006080000ED423240000000000000000000000000350000006662782F30393237413130352D363430332D343443462D414636342D31333437383142383141
310
31342F76657274696365732E62696E504B0304140006080800ED423240F270F1330600000004000000360000006662782F30393237413130352D363430332D343443462D414636342D3133343738314238314131342F747269616E676C65732E62696E636660600000504B0304140006080000ED4232400000000000000000
310
00000000370000006662782F30393237413130352D363430332D343443462D414636342D3133343738314238314131342F617474726962757465732E62696E504B0304140006080800ED423240D5987DFC8F00000041010000360000006662782F30393237413130352D363430332D343443462D414636342D313334373831
310
4238314131342F6469726563746F72792E786D6C858F410EC2201045AF4266AF15DDB800BA74E7C21B903225242D6328188F2FA5C4183471359997F9FF81E89FF3C41E1816475E02DF1F80A11FC8386F25A438EECEC07A250251FC3803E6F58C12560C4AD840E95E91C151A72936F496F35732D860FE635F62C8F2DA16B505
310
C545B74125BAA2FA9E05D7CC053D063734D5C7665FD55B6B8D15D5E9BFEAFD8490FFA45E504B0304140006080800ED42324031F832C9FB000000A00100003B0000006662782F30393237413130352D363430332D343443462D414636342D3133343738314238314131342F7265736F75726365732F636F72652E786D6C8D50
310
596E833010BD0AF2BFC136AB907104A437E8052C3349AD041B79A97AFC9A40A5F6AF3F33A3B7689E1EBF7CADCFEC139CD7D60C88E6046560945DB4B90F28861BEE507611DC591B7EC95066E40A03DA6124F8DDD9B89D90B2268009093576811394DE4340997AA663405E7DC02A73194352F847BE49F59077C8699EE8A413DC
310
07970264C7937D22E1C0DBE814785E1CACE031EAE5D4E825FDD4370D0E093AD6F3C4AA0A97D3B5C5553D4E78AC6889AB719EDAA69EC9B57DE3C56E163CE8F527A37220032C483042192614D3EE9D743D2B7BD660D2F484F06297FF31C56DF9A7296A134A76C63D6C3E654D415E84E0C5DE575AAF32D3DEBB15DF504B010214
310
000A0000080000ED4232403DEE336E79000000790000001B00000000000000000000000000000000006175746F6465736B2D64657369676E2D7061636B6167652E786D6C504B01021400140006080800ED423240D486FD9CA0000000F40000001300000000000000000000000000B20000005B436F6E74656E745F54797065
310
735D2E786D6C504B01021400140006080800ED4232405E2F1984EB0000007C010000080000000000000000000000000083010000636F72652E786D6C504B01021400140006080800ED42324055019EA25F0000007C000000070000000000000000000000000094020000636E782E786D6C504B01021400140006080800ED42
310
32401F42A13069010000020300000C00000000000000000000000000180300006662782F636F72652E786D6C504B01021400140006080800ED4232401B1C34187D0000009D0000000B00000000000000000000000000AB0400006662782F636E782E786D6C504B01021400140006080800ED423240A869368D2D0100001402
310
00003100000000000000000000000000510500006662782F30393237413130352D363430332D343443462D414636342D3133343738314238314131342F636F72652E786D6C504B01021400140006080800ED423240E1DB337D56010000330300003000000000000000000000000000CD0600006662782F3039323741313035
310
2D363430332D343443462D414636342D3133343738314238314131342F636E782E786D6C504B01021400140006080800ED4232406E999D0B58070000941B00003400000000000000000000000000710800006662782F30393237413130352D363430332D343443462D414636342D3133343738314238314131342F6F626A65
310
6374732E786D6C504B01021400140006080000ED42324000000000000000000000000035000000000000000000000000001B1000006662782F30393237413130352D363430332D343443462D414636342D3133343738314238314131342F76657274696365732E62696E504B01021400140006080800ED423240F270F13306
310
0000000400000036000000000000000000000000006E1000006662782F30393237413130352D363430332D343443462D414636342D3133343738314238314131342F747269616E676C65732E62696E504B01021400140006080000ED4232400000000000000000000000003700000000000000000000000000C81000006662
310
782F30393237413130352D363430332D343443462D414636342D3133343738314238314131342F617474726962757465732E62696E504B01021400140006080800ED423240D5987DFC8F0000004101000036000000000000000000000000001D1100006662782F30393237413130352D363430332D343443462D414636342D
310
3133343738314238314131342F6469726563746F72792E786D6C504B01021400140006080800ED42324031F832C9FB000000A00100003B00000000000000000000000000001200006662782F30393237413130352D363430332D343443462D414636342D3133343738314238314131342F7265736F75726365732F636F7265
310
2E786D6C504B0506000000000E000E0080040000541300000000
  0
XRECORD
  5
17
102
{ACAD_REACTORS
330
12
102
}
330
12
100
AcDbXrecord
280
     1
270
     1
271
     1
  0
XRECORD
  5
16
102
{ACAD_REACTORS
330
12
102
}
330
12
100
AcDbXrecord
280
     1
270
     1
271
     1
  0
XRECORD
  5
18
102
{ACAD_REACTORS
330
12
102
}
330
12
100
AcDbXrecord
280
     1
270
     1
271
     1
  0
XRECORD
  5
15
102
{ACAD_REACTORS
330
12
102
}
330
12
100
AcDbXrecord
280
     1
270
     1
271
     1
  0
XRECORD
  5
FC1
102
{ACAD_REACTORS
330
22
102
}
330
22
100
AcDbXrecord
280
     1
102
MATERIAL
148
0.0
149
0.0
149
0.0
 93
        0
 94
      127
282
     0
 72
     0
 77
     0
171
     0
175
     0
179
     0
273
     0
  0
XRECORD
  5
24
102
{ACAD_REACTORS
330
22
102
}
330
22
100
AcDbXrecord
280
     1
270
     1
271
     1
  0
XRECORD
  5
23
102
{ACAD_REACTORS
330
22
102
}
330
22
100
AcDbXrecord
280
     1
270
     1
271
     1
  0
XRECORD
  5
BA
102
{ACAD_REACTORS
330
22
102
}
330
22
100
AcDbXrecord
280
     1
 70
     1
 90
1959938040
 71
     1
  1
369D1C18-4108-4AD0-9230-A72F0350AE25
311
504B03040A0000080000ED4232403DEE336E79000000790000001B0000006175746F6465736B2D64657369676E2D7061636B6167652E786D6C3C3F786D6C2076657273696F6E3D22312E302220656E636F64696E673D227574662D3822203F3E3C666F726D6174733E3C666F726D61743E687474703A2F2F736368656D612E
311
6175746F6465736B2E636F6D2F64657369676E2D7061636B6167652F323030393C2F666F726D61743E3C2F666F726D6174733E504B0304140006080800ED423240D486FD9CA0000000F4000000130000005B436F6E74656E745F54797065735D2E786D6C7D8EC10E82300C865F65E91D8A1E8C310C0EEA1BF002731658846E
311
D98AC1B77784ABF1D8FE5FBFBF75BBCE937A534CCEB38643598122B6FEE978D0B0485F9C41B54DDD7D022595594E1A469170414C76A4D9A4D207E29CF43ECE46F218070CC6BECC4078ACAA135ACF422C856C0E68EA1BF5669944DDD7BCDE7B1F8E415D77AECB980613C2E4AC91FC167A2B244592486606FC29C8FD7F045B9A
311
EF7053A7E60B504B0304140006080800ED423240F5AA03E9E90000007C01000008000000636F72652E786D6C8D90D16E842010457F85CC3B0A58AD31C8A6DAFA05FD0102AC4B760523D0F4F38BBB6ED2BEF5692677EE99995C7EFA5E6EE8CB6CC17AD7032D0820E394D7D6CD3DA478C62DA093E09BF7F1970D90938BE96197
311
41F079F3693D24E55D342E66D5796D0E518660222075CB4D0F415DCC220B996276846BB14A7595B329E8B3CB704A56A3C711ABF33E7BB6660341DEA67A9C3E064CDBF711BF4C23C1C36B5DE36AA0CD4487910DF5C8CB1D163CDAE5795F6D4646A3413042192634E39FA4ED58D5B10693A6238497BBFD0F9456FD4F2859172B
311
76BCFBC002089A1FB90F042FF72C72B90795EB9E9BF801504B0304140006080800ED42324055019EA25F0000007C00000007000000636E782E786D6C4DCB3B0E80201045D1AD90E915ED2CF8AC45050C11660C8261F98AB1B07AC9C97D42D718D865D3E909258CFD00CCE24AC6E326A164D74DC0B4128928FF326038472BA1
311
3128B1252AC747C6BAB984FC68F0B87FE8960A5C09FE86CFB69FBA01504B0304140006080800ED4232401041857F65010000020300000C0000006662782F636F72652E786D6C8D525B6E833010BC8AE57F6343421A45C651A1E504BD80030E45011BF98172FC2E8F284D15451592B16676766707F8F1DA776854D6B5466738
311
8E18464A57A66E7593E1E0CF648FD151706B8CFF55869196BDCAF00463C11B6BC2B04295D15E690FA836B55A41E99CF218551D5C32ECAA6FD5CB48060F15EE120DB2BAC84645710434D409EEBC05036819329D589C4F574E175CF010DA7A65DB1AA6B5E756592CD87B9916E5674EE2FD4741B665C148FE96A66493C7BB32CE
311
8B244F0B4E27B1E0BEED6FEE2AABA4573516098B13C262907FB1FD21D91C921D61BB03639C4EE50FA230D4FF148556FB4DB2DA5D640E8B188CCCC49F6D21228F9C1CC10F159C4E21C26B4EF83168080442F6F2D4DDF6B80034AACA1BBB05A636E14E8DB20B0AA632343F9C2E2C749E1BC0664FFB242FFABCEE011F50EA06AC
311
490FD753F0D374BE4C5DA3189425A3BF226D6C2FBBBBB9C5E2FDBC0F7A2AAF4C67EC7FD4745D95AE61D2E9EF153F504B0304140006080800ED42324098459FBC7E0000009D0000000B0000006662782F636E782E786D6C4DCCD10E82201886E15B61FF39291AA01BE048EB3E5CA263213482D6E5A7CD838EBEEDD9B757749F
311
D5A1B7892F1BBC04722A01197F0F93F58B849C66DC00EA948821A4BF1B203FAE46C2CEA0C412437E1E349979CC2E6DEAAC7F1C4838A59AD11E972DA9F199D51A3703ADF08DF3CB7065BAED2B0A8512C5AFB4ED1E565F504B0304140006080800ED4232402F4445D22C01000014020000310000006662782F31373535413635
311
432D303931332D343633412D384435322D4637374244453641394332352F636F72652E786D6C8D51CB6EC32010FC158B537AC0061C1327C24469D27E417F80DA244589C1E251E5F3BBD48ED4DE7261D1ECCCEC6857ECEFE3ADF8D63E18673B444B820A6D7B37187BE9508A67DCA2622F85772EFEA1A1C2AA517728C3488A8B
311
77695AA0DED9A86D04D4BA412FA00A414754F437F87428F45F7A54A54A1118E15A4EAABFAA8B2E69096DE04911A28700C53C24BF48D24DD31C7873C4644B6BBCE6F501B7A786E1F7CDE6F5F4C60FDB236B44350BA548C90C8BDC0C10C79C8DF6CF9A64B114D18C8FF8BDD72AEA01494628C38462DA7E9076C7EA1DE398F01D
311
21A2CAF47FA2340D4F8A92B1B1664BDC591620ABA8E68614834B9FB747187D9F9C8F459EB70ABA7F419294849196D1061630536101E0C9D78B6788CEC38257D74F6053606563BE96A2CA3782F27B40A8F99EF207504B0304140006080800ED4232408920309D4C01000033030000300000006662782F31373535413635432D
311
303931332D343633412D384435322D4637374244453641394332352F636E782E786D6CD593CD6E022114855F85B09F5FCDC4180613177D822EBA65E0AA540626FC34F5ED7B51B46E5C74D90D999C7B38E7E60BC376DFB3215FE0837676A45DDD5202563AA5ED71A4291EAA0D253BCEBC73F1C9468915338C34CB94B3A37769
311
299282834826A26AB43D17D14370C94B0828E79BC438290C0680AD128A304FA01428F230E2D7013CAE82E27421F104E46DFF41DCF4093206D6E414CE9ADCC1593E4BD3938912694408230DF204B3A8458A4E4138D74A445177F5BDEBC54EBF49245FB85726AF492E1F693E292F1BD5C8913538E42C448FF48A295E16A05C2C
311
8BD1524484DC5C8D370F6749DB38AC8B5723788FEE6E58ADD718769D7116F50CC5213D88088AF2BEEDFAAAEDAA6EF3DE6EB6FD6ADB0F553B6CDB9635D9CED9E49C29973006BC5B887436828D9477ACC9E357F88A8F28ED91B5F3973F804400A5F546E791F19FF934D7F78DB83CFE05FC07504B0304140006080800ED423240
311
4CF366BB980500007A100000340000006662782F31373535413635432D303931332D343633412D384435322D4637374244453641394332352F6F626A656374732E786D6CAD575D739B3814FD2B0CFB6C1B6CA74D76081DC76E3A9E4EDA4E3DEDEC43663C0204D146204612A9B3BF7E8F406070ECC4BBD3174042BABAF7DC73
311
3F147CD8E5DC79A25231515CBBFED8731D5AC422614576ED563A1D5DBACE87309042E8DE32D729484EAF5D33ED8641264555DAA984A6A4E2FA60F6F6E62F47C5B4A0AE1373A2D4B5ABE2079A9331A9B448A87A1C2744937196EEC6FEB85938149B49523E1C082D89A48586A6982F20C56994F28743CF9D84C1C4FC0F03F3B4
311
AB66A7574D6A7B86E7B3426952C42F0E3B1033F3E7AB8FD38BABD1C57C3E1BCDDF4DFDD1CDEDCD6AE4BF9F79CB77CBE5D5E2E3150E565A4292D544D2D40D3F011BC9E260D2FC0A838A157A36B54BAC8326923E31E329379C3A7E3069D674D659238FA91F8BA2A0718D15D0A8EDB3A2135AD22281CF1955D0AC8790371CFA06
311
C7DEEF9919DB23FBD3E721D0DFD113D4EADEBEFB9A8AE86F98A0CE619054D430B0C1D21ADA70D5DB231C09C1ED3FA69C9C682A19E10E679124F2D90DB1D42C09838118C36469A2C158E086F042F37B481784D1DB3C3FA6655A716E68EC8675146C112B54AB5A33F60F957BEDFBC84027F8CAB0E1D21AA49F4BEA86570D452E
311
0FD8D400E9A49C647039CC343B67D3034397264ED72B37FC7C1BED3626768F1F5E4A5152A90D7D40ADD671EDDBA06475F2CFF29CD9E01EA8B207E53B90FF8250DFAB02BF49B69BEFE6F6142D49A1522173F8C6F19C918787E7F8F5D37CF7BE8249B779E8BD5378C2D906AADF80E7D086BE2F7B7086C113082FE4CC9AB68909
311
47DAB8630500322471B8C014F2701AEDDC708D2C87AC8C5D84873E4C86BA4FF80C26560C12457D52EF5D00CB83B4784682066C3523A146437EABE0DE4F2FD2597DB05D760ADE8BDF42D7C56AF37953C994C4F4CEC6F48AA6AC601A256ECF9BBE4203CC07163DD2E75F422630F425DE9B3EDEB93D4A016D83B9013E6B73BA19
311
EC4F1E1C10635F264CBA09DE38014698C2DA937FC7544C39270515557BEEABF50365A381D804BB61725760F68505A469FE1CC4208A742C596940ECAA559734C727ACFBB1FE0246623D1711E1FB45D13EF5C6820BB98D9EB74D563A8AF4CF21B52D041323056CAF63A40D7F8BF93661695A29E4C023B0FE5C2FFBAE33590119
311
A295DA04CB1CE623B688B49C6DE5A2584B82422A8A2D43D944D81D3DA02F1F885A02D4024F69AC284FB78CF32ADFA68CA3186D73529E80E3FFEB1F5579B925B9A80A7D42F640751487A1EE03F2AA5F44C70F6EB8A9DFA31BA4DE84267B370F169B527204AB816B67EFAE56FED2BF1CCD7D0F8FC5CA1B5D4D67DE68F17E7AEB
311
CD2EBC057AABD64F8DF030682B4D3FA0E12554B6A092CCBAEFC71AE16373801BDE11ADEE3F35D1D9BE7FACC768858309F6A05C761B17C913DA3E9ABC2D60BFF2A8A0755E729AD34213134277E6837F27683306CA34F3EB9C64F40C295F3F6D0E8CC1CC19FBBE9970A7BF0EF6DAD9A509C8A342F44395470561FC6063D62039
311
2E8BCCE2D7FAA47B3775A61D9A91750C1A5325384B90061327A322A71AC9F08C1A2473AA40BD7E4B9FD8ABC719BB9F9A06519388D3569307821E992B8405A855C57A38EFFC819ECEB455D72EAAEDF8110F9B295C079CB976D1A36B1653358E509F4D27540B0797FA8D3CFA7E52641CAD76B3A91B77BB0C36838ADC2D39A77D
311
B2763519DC1A803452A26D403F04EFD4CA8441AD9BFD1FFF27C35B751CA2F11955BAB3653FD119531F83106D8CB29705F4308FF6E81D02F575B3FC71BD6680C85997AC5749D0481D6922B3FAA260F4B32A2D56DF2668509CF557A7E455065F9E2F692429C85C9900078BC00A2BB3241A545DFE79FF4D0A5C6473E7968102F7
311
4B91E7A2B08385BD083B9B075C6B937BA4056AEE23EA7EEAF9D3FBFA1E60AF26DB88283A26897AC4047C2A5907F1C0F16064735944056A7E74EB26C60907DC5CAF1C5BD2E6106A89D2CFAA0616741C0575103DE62E6962A5BFA07CF52A30A997420589263EFC17504B0304140006080000ED42324000000000000000000000
311
0000350000006662782F31373535413635432D303931332D343633412D384435322D4637374244453641394332352F76657274696365732E62696E504B0304140006080800ED423240F270F1330600000004000000360000006662782F31373535413635432D303931332D343633412D384435322D46373742444536413943
311
32352F747269616E676C65732E62696E636660600000504B0304140006080000ED423240000000000000000000000000370000006662782F31373535413635432D303931332D343633412D384435322D4637374244453641394332352F617474726962757465732E62696E504B0304140006080800ED423240D5987DFC8F00
311
000041010000360000006662782F31373535413635432D303931332D343633412D384435322D4637374244453641394332352F6469726563746F72792E786D6C858F410EC2201045AF4266AF15DDB800BA74E7C21B903225242D6328188F2FA5C4183471359997F9FF81E89FF3C41E1816475E02DF1F80A11FC8386F25A438
311
EECEC07A250251FC3803E6F58C12560C4AD840E95E91C151A72936F496F35732D860FE635F62C8F2DA16B505C545B74125BAA2FA9E05D7CC053D063734D5C7665FD55B6B8D15D5E9BFEAFD8490FFA45E504B0304140006080800ED4232409D405ED8FC000000A00100003B0000006662782F31373535413635432D30393133
311
2D343633412D384435322D4637374244453641394332352F7265736F75726365732F636F72652E786D6C8D504B6E833010BD0A9ABDC1864251641C055A4ED00B586642AC041BF953F5F835814AEDAE9B99D1FB689E1E3F7F2D8FEC139DD7D674C0720A191A65276DE60E62B89216B2B3E0CEDAF04B0699910B76B0C120F8EC
311
6C5C0F485913D084841A3BE1014AEF3140A61EE9E8C0AB1B2E3297312485BFE7AB54773963CEF244279DE03EB81420DB9F6C1384436FA353E879B1B382C7A8A743A3A7F4535F353A10F432D6C3F87E21AC7D1BC8CB3850D2BFD635A97AD68CAC1FCABE1E78B199050F7AF9C9A81CCA80138892B2925096EC1FB43D95D5A96C
311
086D4E94F26293FF31C575FAA7296A13AAF288BBDB3C0896823C09C18BADAFB49E65A6BD752BBE01504B010214000A0000080000ED4232403DEE336E79000000790000001B00000000000000000000000000000000006175746F6465736B2D64657369676E2D7061636B6167652E786D6C504B01021400140006080800ED42
311
3240D486FD9CA0000000F40000001300000000000000000000000000B20000005B436F6E74656E745F54797065735D2E786D6C504B01021400140006080800ED423240F5AA03E9E90000007C010000080000000000000000000000000083010000636F72652E786D6C504B01021400140006080800ED42324055019EA25F00
311
00007C000000070000000000000000000000000092020000636E782E786D6C504B01021400140006080800ED4232401041857F65010000020300000C00000000000000000000000000160300006662782F636F72652E786D6C504B01021400140006080800ED42324098459FBC7E0000009D0000000B000000000000000000
311
00000000A50400006662782F636E782E786D6C504B01021400140006080800ED4232402F4445D22C0100001402000031000000000000000000000000004C0500006662782F31373535413635432D303931332D343633412D384435322D4637374244453641394332352F636F72652E786D6C504B01021400140006080800ED
311
4232408920309D4C010000330300003000000000000000000000000000C70600006662782F31373535413635432D303931332D343633412D384435322D4637374244453641394332352F636E782E786D6C504B01021400140006080800ED4232404CF366BB980500007A100000340000000000000000000000000061080000
311
6662782F31373535413635432D303931332D343633412D384435322D4637374244453641394332352F6F626A656374732E786D6C504B01021400140006080000ED42324000000000000000000000000035000000000000000000000000004B0E00006662782F31373535413635432D303931332D343633412D384435322D46
311
37374244453641394332352F76657274696365732E62696E504B01021400140006080800ED423240F270F133060000000400000036000000000000000000000000009E0E00006662782F31373535413635432D303931332D343633412D384435322D4637374244453641394332352F747269616E676C65732E62696E504B01
311
021400140006080000ED4232400000000000000000000000003700000000000000000000000000F80E00006662782F31373535413635432D303931332D343633412D384435322D4637374244453641394332352F617474726962757465732E62696E504B01021400140006080800ED423240D5987DFC8F0000004101000036
311
000000000000000000000000004D0F00006662782F31373535413635432D303931332D343633412D384435322D4637374244453641394332352F6469726563746F72792E786D6C504B01021400140006080800ED4232409D405ED8FC000000A00100003B00000000000000000000000000301000006662782F313735354136
311
35432D303931332D343633412D384435322D4637374244453641394332352F7265736F75726365732F636F72652E786D6C504B0506000000000E000E0080040000851100000000
310
504B03040A0000080000ED4232403DEE336E79000000790000001B0000006175746F6465736B2D64657369676E2D7061636B6167652E786D6C3C3F786D6C2076657273696F6E3D22312E302220656E636F64696E673D227574662D3822203F3E3C666F726D6174733E3C666F726D61743E687474703A2F2F736368656D612E
310
6175746F6465736B2E636F6D2F64657369676E2D7061636B6167652F323030393C2F666F726D61743E3C2F666F726D6174733E504B0304140006080800ED423240D486FD9CA0000000F4000000130000005B436F6E74656E745F54797065735D2E786D6C7D8EC10E82300C865F65E91D8A1E8C310C0EEA1BF002731658846E
310
D98AC1B77784ABF1D8FE5FBFBF75BBCE937A534CCEB38643598122B6FEE978D0B0485F9C41B54DDD7D022595594E1A469170414C76A4D9A4D207E29CF43ECE46F218070CC6BECC4078ACAA135ACF422C856C0E68EA1BF5669944DDD7BCDE7B1F8E415D77AECB980613C2E4AC91FC167A2B244592486606FC29C8FD7F045B9A
310
EF7053A7E60B504B0304140006080800ED4232402294622EEA0000007C01000008000000636F72652E786D6C8D90D16E842010457F85CC3B0AA8AB6B908D4DF50BFA0304594B760523D0F4F38BBB6ED2BEF5692677EE99995C7EF95EEEE84B6FDE38DB01CD08206D959B8C9D3B88E18A1B4017C137E7C22F1B202B17DDC12E
310
83E0F3E6E27A48CAD9A06D48AA75933E44E9BD0E80D43D351D78F5A91799C91892C3DFB255AA9B9C75465F5D826334137A1E3153DA67AE466F20DEEBA124B42FF158F5232EEBA1C2E7E63C62F2568C4D4FAB7A208CE73B2C7830CBEBBEDAB40C7A02C1086598504C9B0FD2B4AC68D90993534B08CF77FB1F28AED33FA1686C
310
28D8F1EE13F320687AE431103CDFB348E51154AA7B6EE207504B0304140006080800ED42324055019EA25F0000007C00000007000000636E782E786D6C4DCB3B0E80201045D1AD90E915ED2CF8AC45050C11660C8261F98AB1B07AC9C97D42D718D865D3E909258CFD00CCE24AC6E326A164D74DC0B4128928FF326038472B
310
A13128B1252AC747C6BAB984FC68F0B87FE8960A5C09FE86CFB69FBA01504B0304140006080800ED42324079B12D6966010000020300000C0000006662782F636F72652E786D6C8D52ED8E8230107C95A6FF4B0BA272A6D4783979827B810A956B84969496F8F8B77C18CF8B3186A434333BBBB3037C7F6D1B3428D76B6B72
310
1C470C23654A5B6953E738F833C930DA0BEEACF57FCA3032B255391E612C78ED6CE816A8B4C62BE30135B6520B28FB5E798CCA062E39EECB1FD5CA48060F15FD25EA647991B58AE20868A813BCF70E0CA079C87862713E5D399D71C143D0D5C2EA0AA6E9B3560E8BAFED3165F12125C5FA5090747B5C938FECA320EC735564
310
8778BD3DB284D3512CB8D7EDCD5DE994F4AAC222617142584CE2EC9B65BB64B54B36846D768C713A963F884257BD290ADAF855B2D89D653D16311899887FDB42441EF572003F54703A8608AF29E1C7A0211008D9CB5373DBE302D0A04A6F5D0A4C65C39D1A6413144C65687A389D59E83C3580CD9EF6495EF479DD033EA034
310
3558931EAEA7E0C7E97C9EBA44D12947067F45C6BA56367773B3C5FB791FF4545EDAC6BA77D47459952E61D2F1EF15BF504B0304140006080800ED4232409DDD06957E0000009D0000000B0000006662782F636E782E786D6C4DCCDF0A83201C86E15B91DFB9CB2DFB076A54BAFB886521331DA66397BF1A1DECE883878F97
310
B59FD5A2B70E9BF18EC3F5420069F7F093710B8714675C036A050BDEC7BF1B2037AE9AC3C120D8127C7A9D34E9794C36EE6A8D7B9E5890DBBD5483C492D01A53554ADCE5A4C74323FB5C554D412A0A9960D9AFB4EF11165F504B0304140006080800ED42324018BDBD292A01000013020000310000006662782F3530324636
310
4543442D443034382D344536442D413330422D4339444233453739353037342F636F72652E786D6C8D514B6EC32014BC0A62952EB031761C27C2444D9C9EA01720405294182C3E558E5FA81DA9DD650368DECCBC793CBA7F8C77F0AD9CD7D6F4B02A3004CA082BB5B9F630860BEA20D833EAAC0D7F6810183EAA1E6618327A
310
75364E0B24AC09CA84841A2BD50272EF558040DCD3A3875E7CA991173C86C4F0B762E2E2C6AFAAA88A544E3C467D702900989BE413B235261FEDE938A001371D6A4EED80DE6B7C40C7ED70A84F9BED1A6F1A5ACE424663D472916B99E2E88B56EE55932C6634E8F1195F38C5839290115C11842B54759FB8DB917A475A84DB
310
1DC6B4CCF47FA238C91745519B509325EE2CF39055B49C0B8C4A1BCFF76718F598AC0B20F75B7925DE20C30526A4EE489A7F66A6F99365DB2C963E5897FE77753B2772BDF8B60DA3655E51BA7EF797EEBC4EF603504B0304140006080800ED423240EF87FF8A5301000033030000300000006662782F35303246364543442D
310
443034382D344536442D413330422D4339444233453739353037342F636E782E786D6CBD93CD6EC32010845F0571F76F22CB8A30917AE813F4D02B814D4283C1E2A76ADEBE4B42D25C72A854F582ACD96166F509B3EDD76CC827F8A09D9D6857B79480954E697B98688AFB6AA464CB99772E3ED828B162868966997276F02E
310
2D4552B017C944548DB6A7227A082E790901E57C93182785C100B0554211E61D28058ADC8DF8B5078FABA0B83B937804F2FAF24EDCEE03640CACC9299C35B983B37C96A6071325D28810261AE41166518B149D8270AA9588A2EEEA5BD7939D7E9248BE70AB4C5E935C3ED17C525E36AA91236B70C859881EE915533C2F40B9
310
5816A3A58808B9B918AF1ECE92B6715817AF46F01EDDAB7E18470CBBCC388B7A86E2901E44044579DF767DD5765537BEB5E3A65F6DFAA16A874DDBB226DB39DB3967CA258C01EF16229D8D6023E51D6BF2F819BEE2234A7B64EDFCF91720114069BDD2B967FC259F6E58ADD7FFC8A7B9BC6FC4E5F12FE0DF504B0304140006
310
080800ED4232403D6CA48956070000931B0000340000006662782F35303246364543442D443034382D344536442D413330422D4339444233453739353037342F6F626A656374732E786D6CED595B739B3814FE2B0CFB6C0CB693363B844E62371DCF4EDA4EBDEDEC4366181964A28D108C2472D95FBF4717301093E06DF6AD
310
0F0623A4A373BE73D521FCF09853E71E73410A76EE069EEF3A9825454A5876EE56723779EF3A1FA29017856C4D731D86727CEEAA61370A335E54A51D4AF10E5554F646AF2EFF72448219769D842221CE5D91DCE21C79A892458AC59D972289BC6CF7E8059E99D8259B7154DEF688968863268153186740C5314C05DD47DF9D
310
46E154BD8F4275B5B3E6A3662D86674DB5D45D2E091312B1E4194B3D32F3512CCD83C5EAE3ECE46C72B258CC278BD35930B9BCBA5C4D8277737F79BA5C9E5D7C3C03F6B64541AD4C292E314B417F4F6E148453F5A611DD227088EBA4600C271A48804A8BD52748B080AD5AF0F9DDC74049D47AAD256C3D2FD47BCB426B78DE
310
A532346B1C101DBA2088DDAE96B8BEB7E52BB67F83E0628C51728125702B2407ED5A783878851BF9E1D48C46E176AF0B229C1C49CC09A20E255B8E382805A6AA295168165832CA3938907294045A73E675D7B6C0335F779D435CEE2A4A9567B89176AC18DC0F4BA13923FF60BEE7BE8D0CF004D25684C9F7964BF95462373A
310
0BA77A300AD56D3EB32F0D90CE8EA24C6844CCDB9EA04BE5FAEB951BFD71B57DDCA8707078F3921725E652199DD2A3E60B0CD9DE154A76DB6094E6D40210C6806A57EE41F906C87F86E8B16705F4C6C9E3E27161E74A8E98D8153C07DD38BE33F1E1E23B81BEAAFFAD7FE1B459DCD5DE109EE0A60AAAF73F8F6757068D95E5
310
BF056714DE83C1177C6E5F6D1244C19EAF090380949138B4802108EDBBEDA31BAD217042A08755884601880CECDEC3DF706AC9ECB552BB97F53A0688DA3DE6639404B0698B043606F4F409B20727C95E4D6D1187E03D791373BD586DFED8547C87127C6D7D7A857784110959F330431DCC3B12DDE1A78782A720E873BC376D
310
BC73BB9500B415E60AF8AC06413DEC77EE6C90C0BAAC50E1267C65071042E5EA16FD6B22124C2962B8A8EA7D9BE8A60CB5F1785B33B8D1CC403C9FF54C98E37BA2AA0A709AFD8C0EA390F7134E4A05A21B7D32923541D31B90EEFBFA335864337F60D69A41E86588FEA983D6011C3A965D236D816804DEEEC37952D082C7DB
310
A7D8443A176A0960A3EB2D3F3A4421D61B25292AE041DAEFEA90921969E394EC769580B87A80C51FEB65DB1C7C6F1E9C38ED6BCF1917106DC17711B77ED7DB232639CA70BC43E9D076EDDD1ADA42931C20CDF18E825CE49EC8A718C9D84F71760C3447113F7B53EA192D84200C0BC85707C16FA3E17B10488C366B9695567B
310
401311E758227A0C028ACC00B83AEDE81A3781D2E1751E1BEB7D49636DA2FF93457004B564C16202A528E49057190FBC1388215D740DCA3D7CC1DA6ADA5A0C5A4109913CC50F9864B7F218D40DF901DC13389254322E4A9480598F20FBCC5794527BBC6F5172A7F2479C54F4AD0C4460BA8B09A5551EC38F3038798C71ED26
310
30BD88428BB8897D12E750942159F1319B9C9EF8CFF63135433F04B636DA110A613BCE5139807A2720EA7AC469C0B7D40794BAADF232467951B15186E2CDFBDE64C9F7D5AAC88EE457958A5036D6842DC128244C3659B58ED960EA3AB0821BE940F5140B9497D49CC25E493C41E34D9AF2E006DCFAE9DB6E9043E137A0BD76
310
445DD430581E3B8581784032B975A38DBE4F2EA1FE4E71BA4FF575ADD9AE00013115C92B4EAC8ABEAFA1BCB1359A1B5D23296E3E99AC5BDFBFAF3DE87E84535803B54BB370AD80CE3193485526D7EA0FFD862004776898F1B5CAA9C750B948535D35227A4586D4D929233A9BE6C42B6F312B72F8B11BC2125AA5F806A5E22E
310
BE9634DE10C5BA95D2CB498DF18B027EF9B4E9C103232344FAAA0A3CFCD05B6B4797AA5C3A4844DE56F996210241B0235A6674E3952CB31AA9B5DCDCD59902EA2E3030ABE2C5AF9345BB1DF1EB649159C3F8B993052DB688EEA34D2B9B27CAAC8F3A0534E94951798B5380EE3A34549B246272B915DFFA520C31B10EF2A38B
310
B13A661882431CFFE7A43D9404CD763DFE8F4BDAC1B382E3A8A4D299AC9A54070AD7753B85CD4FCF56C132783F59043E5C2E56FEE46C36F72717EF6657FEFCC4BF80E66D83A6F6D3286C62994E5DF06C625A3DAC9E2C06D094150525291CE65327C310F2251CE94774CF798E05E4CE76AF3BB53DF911ABEF4D9B53A22DC535
310
27B708FAC3544056078CAA4476C79DDFA03329E19C7DEE42CFC8BB838BB54AD781C473EE42A74092040B6F0B5D26D5CFD3C421E3EAD46F89013E88652A239A45CD73B34A61D389FECD943159C0CAD5696140DD5642F3ABD3A0D0BC599E92A304AFD9719084BFDB4A42B16664D90F34C2E86DF6EA37B251C2EEECD68FE0BA2F
310
8B15787A4E0791515F0C5E340243752211CF74BB5B316659BA587D9D429BCD597F714A5A65A0CBF194261C833157AA9E022B02ABB0344B24C15497BFDF7CE5057CE1C91D5D14DD2C8B3C2F987DB880E3580A5F889CCD2D7CEF496FA06AC0AAAB2E6E667E30BBD1DD6CDB608FB748604F9543305057114A849EB181453EEB4C
310
D9BEE55429A1377DBD726CF8842E80B1A067CD5DF375CB01EF51DF5194AF680FAFE57CB1A13DD553C11A38B4A2A37F01504B0304140006080000ED423240000000000000000000000000350000006662782F35303246364543442D443034382D344536442D413330422D4339444233453739353037342F7665727469636573
310
2E62696E504B0304140006080800ED423240F270F1330600000004000000360000006662782F35303246364543442D443034382D344536442D413330422D4339444233453739353037342F747269616E676C65732E62696E636660600000504B0304140006080000ED42324000000000000000000000000037000000666278
310
2F35303246364543442D443034382D344536442D413330422D4339444233453739353037342F617474726962757465732E62696E504B0304140006080800ED423240D5987DFC8F00000041010000360000006662782F35303246364543442D443034382D344536442D413330422D4339444233453739353037342F64697265
310
63746F72792E786D6C858F410EC2201045AF4266AF15DDB800BA74E7C21B903225242D6328188F2FA5C4183471359997F9FF81E89FF3C41E1816475E02DF1F80A11FC8386F25A438EECEC07A250251FC3803E6F58C12560C4AD840E95E91C151A72936F496F35732D860FE635F62C8F2DA16B505C545B74125BAA2FA9E05D7
310
CC053D063734D5C7665FD55B6B8D15D5E9BFEAFD8490FFA45E504B0304140006080800ED423240FDFAA896FD000000A00100003B0000006662782F35303246364543442D443034382D344536442D413330422D4339444233453739353037342F7265736F75726365732F636F72652E786D6C8D504B6E833010BD0A9ABDC186
310
1048641C51154ED00B586692580936F2A7EAF16B0295DA5D3733A3F7D13C3D7EF99A9FD9273AAFADE980E5143234CA4EDADC3A88E14A5AC82E823B6BC32F196446CED8C10A83E03767E3B243CA9A802624D4D80977507A8F0132F54C47075EDD7196B98C2129FC235FA47AC81BE62C4F74D209EE834B01B2EDC93A4138F436
310
3A859E171B2B788C7ADA357A4A3FF555A303F1DE0C07CAFA8A8C753F924333D4E4D49E4642DFAAB1ED59DD0CB4E4C56A163CE8F927A37228034E204ACA4A421961ED076DCF65752E8F841ECF94F26295FF31C565FAA7296A13AA728FBBD93C089682BC08C18BB5AFB45E65A6BD762BBE01504B010214000A0000080000ED42
310
32403DEE336E79000000790000001B00000000000000000000000000000000006175746F6465736B2D64657369676E2D7061636B6167652E786D6C504B01021400140006080800ED423240D486FD9CA0000000F40000001300000000000000000000000000B20000005B436F6E74656E745F54797065735D2E786D6C504B01
310
021400140006080800ED4232402294622EEA0000007C010000080000000000000000000000000083010000636F72652E786D6C504B01021400140006080800ED42324055019EA25F0000007C000000070000000000000000000000000093020000636E782E786D6C504B01021400140006080800ED42324079B12D69660100
310
00020300000C00000000000000000000000000170300006662782F636F72652E786D6C504B01021400140006080800ED4232409DDD06957E0000009D0000000B00000000000000000000000000A70400006662782F636E782E786D6C504B01021400140006080800ED42324018BDBD292A0100001302000031000000000000
310
000000000000004E0500006662782F35303246364543442D443034382D344536442D413330422D4339444233453739353037342F636F72652E786D6C504B01021400140006080800ED423240EF87FF8A53010000330300003000000000000000000000000000C70600006662782F35303246364543442D443034382D344536
310
442D413330422D4339444233453739353037342F636E782E786D6C504B01021400140006080800ED4232403D6CA48956070000931B00003400000000000000000000000000680800006662782F35303246364543442D443034382D344536442D413330422D4339444233453739353037342F6F626A656374732E786D6C504B
310
01021400140006080000ED4232400000000000000000000000003500000000000000000000000000101000006662782F35303246364543442D443034382D344536442D413330422D4339444233453739353037342F76657274696365732E62696E504B01021400140006080800ED423240F270F13306000000040000003600
310
000000000000000000000000631000006662782F35303246364543442D443034382D344536442D413330422D4339444233453739353037342F747269616E676C65732E62696E504B01021400140006080000ED4232400000000000000000000000003700000000000000000000000000BD1000006662782F35303246364543
310
442D443034382D344536442D413330422D4339444233453739353037342F617474726962757465732E62696E504B01021400140006080800ED423240D5987DFC8F000000410100003600000000000000000000000000121100006662782F35303246364543442D443034382D344536442D413330422D433944423345373935
310
3037342F6469726563746F72792E786D6C504B01021400140006080800ED423240FDFAA896FD000000A00100003B00000000000000000000000000F51100006662782F35303246364543442D443034382D344536442D413330422D4339444233453739353037342F7265736F75726365732F636F72652E786D6C504B050600
310
0000000E000E00800400004B1300000000
  0
XRECORD
  5
27
102
{ACAD_REACTORS
330
22
102
}
330
22
100
AcDbXrecord
280
     1
270
     1
271
     1
  0
XRECORD
  5
26
102
{ACAD_REACTORS
330
22
102
}
330
22
100
AcDbXrecord
280
     1
270
     1
271
     1
  0
XRECORD
  5
28
102
{ACAD_REACTORS
330
22
102
}
330
22
100
AcDbXrecord
280
     1
270
     1
271
     1
  0
XRECORD
  5
25
102
{ACAD_REACTORS
330
22
102
}
330
22
100
AcDbXrecord
280
     1
270
     1
271
     1
  0
XRECORD
  5
FBA
102
{ACAD_REACTORS
330
FB9
102
}
330
FB9
100
AcDbXrecord
280
     1
102
ACAD_ROUNDTRIP_2012_MLEADER_STYLE
298
     1
  0
CELLSTYLEMAP
  5
FB8
102
{ACAD_REACTORS
330
FB7
102
}
330
FB7
100
AcDbCellStyleMap
 90
        3
300
CELLSTYLE
  1
TABLEFORMAT_BEGIN
 90
        5
170
     1
 91
        0
 92
    32768
 62
   257
 93
        1
300
CONTENTFORMAT
  1
CONTENTFORMAT_BEGIN
 90
        0
 91
        0
 92
      512
 93
        0
300

 40
0.0
140
1.0
 94
        5
 62
     0
340
55
144
0.25
309
CONTENTFORMAT_END
171
     0
 94
        0
309
TABLEFORMAT_END
  1
CELLSTYLE_BEGIN
 90
        1
 91
        1
300
_TITLE
309
CELLSTYLE_END
300
CELLSTYLE
  1
TABLEFORMAT_BEGIN
 90
        5
170
     1
 91
        0
 92
        0
 62
   257
 93
        1
300
CONTENTFORMAT
  1
CONTENTFORMAT_BEGIN
 90
        0
 91
        0
 92
      512
 93
        0
300

 40
0.0
140
1.0
 94
        5
 62
     0
340
55
144
0.18
309
CONTENTFORMAT_END
171
     0
 94
        0
309
TABLEFORMAT_END
  1
CELLSTYLE_BEGIN
 90
        2
 91
        1
300
_HEADER
309
CELLSTYLE_END
300
CELLSTYLE
  1
TABLEFORMAT_BEGIN
 90
        5
170
     1
 91
        0
 92
        0
 62
   257
 93
        1
300
CONTENTFORMAT
  1
CONTENTFORMAT_BEGIN
 90
        0
 91
        0
 92
      512
 93
        0
300

 40
0.0
140
1.0
 94
        2
 62
     0
340
55
144
0.18
309
CONTENTFORMAT_END
171
     0
 94
        0
309
TABLEFORMAT_END
  1
CELLSTYLE_BEGIN
 90
        3
 91
        2
300
_DATA
309
CELLSTYLE_END
  0
XRECORD
  5
FF2
102
{ACAD_REACTORS
330
FB7
102
}
330
FB7
100
AcDbXrecord
280
     1
102
ACAD_ROUNDTRIP_PRE2007_TABLESTYLE
 90
      512
 91
        0
  1

 92
      512
 93
        0
  2

 94
      512
 95
        0
  3

  0
XRECORD
  5
FCD
102
{ACAD_REACTORS
330
FCC
102
}
330
FCC
100
AcDbXrecord
280
     1
102
RTVSPropertyOp0
 70
     1
102
RTVSPropertyOp1
 70
     1
102
RTVSPropertyOp2
 70
     1
102
RTVSPropertyOp3
 70
     1
102
RTVSPropertyOp4
 70
     1
102
RTVSPropertyOp5
 70
     1
102
RTVSPropertyOp6
 70
     1
102
RTVSPropertyOp7
 70
     1
102
RTVSPropertyOp8
 70
     1
102
RTVSPropertyOp9
 70
     1
102
RTVSPropertyOp10
 70
     1
102
RTVSPropertyOp11
 70
     1
102
RTVSPropertyOp12
 70
     1
102
RTVSPropertyOp13
 70
     1
102
RTVSPropertyOp14
 70
     1
102
RTVSPropertyOp15
 70
     1
102
RTVSPropertyOp16
 70
     1
102
RTVSPropertyOp17
 70
     1
102
RTVSPropertyOp18
 70
     1
102
RTVSPropertyOp19
 70
     1
102
RTVSPropertyOp20
 70
     1
102
RTVSPropertyOp21
 70
     1
102
RTVSPropertyOp22
 70
     1
102
RTVSPropertyOp23
 70
     1
102
RTVSPropertyOp24
 70
     1
102
RTVSPropertyOp25
 70
     1
102
RTVSPropertyOp26
 70
     1
102
RTVSPropertyOp27
 70
     1
102
RTVSPropertyOp28
 70
     1
102
RTVSPropertyOp29
 70
     1
102
RTVSPropertyOp30
 70
     1
102
RTVSPropertyOp31
 70
     1
102
RTVSPropertyOp32
 70
     1
  0
XRECORD
  5
FCB
102
{ACAD_REACTORS
330
FCA
102
}
330
FCA
100
AcDbXrecord
280
     1
102
RTVSPropertyOp0
 70
     1
102
RTVSPropertyOp1
 70
     1
102
RTVSPropertyOp2
 70
     1
102
RTVSPropertyOp3
 70
     1
102
RTVSPropertyOp4
 70
     1
102
RTVSPropertyOp5
 70
     1
102
RTVSPropertyOp6
 70
     1
102
RTVSPropertyOp7
 70
     1
102
RTVSPropertyOp8
 70
     1
102
RTVSPropertyOp9
 70
     1
102
RTVSPropertyOp10
 70
     1
102
RTVSPropertyOp11
 70
     1
102
RTVSPropertyOp12
 70
     1
102
RTVSPropertyOp13
 70
     1
102
RTVSPropertyOp14
 70
     1
102
RTVSPropertyOp15
 70
     1
102
RTVSPropertyOp16
 70
     1
102
RTVSPropertyOp17
 70
     1
102
RTVSPropertyOp18
 70
     1
102
RTVSPropertyOp19
 70
     1
102
RTVSPropertyOp20
 70
     1
102
RTVSPropertyOp21
 70
     1
102
RTVSPropertyOp22
 70
     1
102
RTVSPropertyOp23
 70
     1
102
RTVSPropertyOp24
 70
     1
102
RTVSPropertyOp25
 70
     1
102
RTVSPropertyOp26
 70
     1
102
RTVSPropertyOp27
 70
     1
102
RTVSPropertyOp28
 70
     1
102
RTVSPropertyOp29
 70
     1
102
RTVSPropertyOp30
 70
     1
102
RTVSPropertyOp31
 70
     1
102
RTVSPropertyOp32
 70
     1
  0
XRECORD
  5
FD9
102
{ACAD_REACTORS
330
FD8
102
}
330
FD8
100
AcDbXrecord
280
     1
102
RTVSPropertyOp0
 70
     1
102
RTVSPropertyOp1
 70
     1
102
RTVSPropertyOp2
 70
     1
102
RTVSPropertyOp3
 70
     1
102
RTVSPropertyOp4
 70
     1
102
RTVSPropertyOp5
 70
     1
102
RTVSPropertyOp6
 70
     1
102
RTVSPropertyOp7
 70
     1
102
RTVSPropertyOp8
 70
     1
102
RTVSPropertyOp9
 70
     1
102
RTVSPropertyOp10
 70
     1
102
RTVSPropertyOp11
 70
     1
102
RTVSPropertyOp12
 70
     1
102
RTVSPropertyOp13
 70
     1
102
RTVSPropertyOp14
 70
     1
102
RTVSPropertyOp15
 70
     1
102
RTVSPropertyOp16
 70
     1
102
RTVSPropertyOp17
 70
     1
102
RTVSPropertyOp18
 70
     1
102
RTVSPropertyOp19
 70
     1
102
RTVSPropertyOp20
 70
     1
102
RTVSPropertyOp21
 70
     1
102
RTVSPropertyOp22
 70
     1
102
RTVSPropertyOp23
 70
     1
102
RTVSPropertyOp24
 70
     1
102
RTVSPropertyOp25
 70
     1
102
RTVSPropertyOp26
 70
     1
102
RTVSPropertyOp27
 70
     1
102
RTVSPropertyOp28
 70
     1
102
RTVSPropertyOp29
 70
     1
102
RTVSPropertyOp30
 70
     1
102
RTVSPropertyOp31
 70
     1
102
RTVSPropertyOp32
 70
     1
  0
XRECORD
  5
FE1
102
{ACAD_REACTORS
330
FE0
102
}
330
FE0
100
AcDbXrecord
280
     1
102
RTVSPropertyOp0
 70
     1
102
RTVSPropertyOp1
 70
     1
102
RTVSPropertyOp2
 70
     1
102
RTVSPropertyOp3
 70
     1
102
RTVSPropertyOp4
 70
     1
102
RTVSPropertyOp5
 70
     1
102
RTVSPropertyOp6
 70
     1
102
RTVSPropertyOp7
 70
     1
102
RTVSPropertyOp8
 70
     1
102
RTVSPropertyOp9
 70
     1
102
RTVSPropertyOp10
 70
     1
102
RTVSPropertyOp11
 70
     1
102
RTVSPropertyOp12
 70
     1
102
RTVSPropertyOp13
 70
     1
102
RTVSPropertyOp14
 70
     1
102
RTVSPropertyOp15
 70
     1
102
RTVSPropertyOp16
 70
     1
102
RTVSPropertyOp17
 70
     1
102
RTVSPropertyOp18
 70
     1
102
RTVSPropertyOp19
 70
     1
102
RTVSPropertyOp20
 70
     1
102
RTVSPropertyOp21
 70
     1
102
RTVSPropertyOp22
 70
     1
102
RTVSPropertyOp23
 70
     1
102
RTVSPropertyOp24
 70
     1
102
RTVSPropertyOp25
 70
     1
102
RTVSPropertyOp26
 70
     1
102
RTVSPropertyOp27
 70
     1
102
RTVSPropertyOp28
 70
     1
102
RTVSPropertyOp29
 70
     1
102
RTVSPropertyOp30
 70
     1
102
RTVSPropertyOp31
 70
     1
102
RTVSPropertyOp32
 70
     1
  0
XRECORD
  5
FD3
102
{ACAD_REACTORS
330
FD2
102
}
330
FD2
100
AcDbXrecord
280
     1
102
RTVSPropertyOp0
 70
     1
102
RTVSPropertyOp1
 70
     1
102
RTVSPropertyOp2
 70
     1
102
RTVSPropertyOp3
 70
     1
102
RTVSPropertyOp4
 70
     1
102
RTVSPropertyOp5
 70
     1
102
RTVSPropertyOp6
 70
     1
102
RTVSPropertyOp7
 70
     1
102
RTVSPropertyOp8
 70
     1
102
RTVSPropertyOp9
 70
     1
102
RTVSPropertyOp10
 70
     1
102
RTVSPropertyOp11
 70
     1
102
RTVSPropertyOp12
 70
     1
102
RTVSPropertyOp13
 70
     1
102
RTVSPropertyOp14
 70
     1
102
RTVSPropertyOp15
 70
     1
102
RTVSPropertyOp16
 70
     1
102
RTVSPropertyOp17
 70
     1
102
RTVSPropertyOp18
 70
     1
102
RTVSPropertyOp19
 70
     1
102
RTVSPropertyOp20
 70
     1
102
RTVSPropertyOp21
 70
     1
102
RTVSPropertyOp22
 70
     1
102
RTVSPropertyOp23
 70
     1
102
RTVSPropertyOp24
 70
     1
102
RTVSPropertyOp25
 70
     1
102
RTVSPropertyOp26
 70
     1
102
RTVSPropertyOp27
 70
     1
102
RTVSPropertyOp28
 70
     1
102
RTVSPropertyOp29
 70
     1
102
RTVSPropertyOp30
 70
     1
102
RTVSPropertyOp31
 70
     1
102
RTVSPropertyOp32
 70
     1
  0
XRECORD
  5
FD7
102
{ACAD_REACTORS
330
FD6
102
}
330
FD6
100
AcDbXrecord
280
     1
102
RTVSPropertyOp0
 70
     1
102
RTVSPropertyOp1
 70
     1
102
RTVSPropertyOp2
 70
     1
102
RTVSPropertyOp3
 70
     1
102
RTVSPropertyOp4
 70
     1
102
RTVSPropertyOp5
 70
     1
102
RTVSPropertyOp6
 70
     1
102
RTVSPropertyOp7
 70
     1
102
RTVSPropertyOp8
 70
     1
102
RTVSPropertyOp9
 70
     1
102
RTVSPropertyOp10
 70
     1
102
RTVSPropertyOp11
 70
     1
102
RTVSPropertyOp12
 70
     1
102
RTVSPropertyOp13
 70
     1
102
RTVSPropertyOp14
 70
     1
102
RTVSPropertyOp15
 70
     1
102
RTVSPropertyOp16
 70
     1
102
RTVSPropertyOp17
 70
     1
102
RTVSPropertyOp18
 70
     1
102
RTVSPropertyOp19
 70
     1
102
RTVSPropertyOp20
 70
     1
102
RTVSPropertyOp21
 70
     1
102
RTVSPropertyOp22
 70
     1
102
RTVSPropertyOp23
 70
     1
102
RTVSPropertyOp24
 70
     1
102
RTVSPropertyOp25
 70
     1
102
RTVSPropertyOp26
 70
     1
102
RTVSPropertyOp27
 70
     1
102
RTVSPropertyOp28
 70
     1
102
RTVSPropertyOp29
 70
     1
102
RTVSPropertyOp30
 70
     1
102
RTVSPropertyOp31
 70
     1
102
RTVSPropertyOp32
 70
     1
  0
XRECORD
  5
FF1
102
{ACAD_REACTORS
330
FF0
102
}
330
FF0
100
AcDbXrecord
280
     1
102
RTVSPropertyOp0
 70
     0
102
RTVSPropertyOp1
 70
     0
102
RTVSPropertyOp2
 70
     0
102
RTVSPropertyOp3
 70
     0
102
RTVSPropertyOp4
 70
     0
102
RTVSPropertyOp5
 70
     0
102
RTVSPropertyOp6
 70
     0
102
RTVSPropertyOp7
 70
     0
102
RTVSPropertyOp8
 70
     0
102
RTVSPropertyOp9
 70
     0
102
RTVSPropertyOp10
 70
     0
102
RTVSPropertyOp11
 70
     0
102
RTVSPropertyOp12
 70
     0
102
RTVSPropertyOp13
 70
     0
102
RTVSPropertyOp14
 70
     2
102
RTVSPropertyOp15
 70
     0
102
RTVSPropertyOp16
 70
     0
102
RTVSPropertyOp17
 70
     0
102
RTVSPropertyOp18
 70
     0
102
RTVSPropertyOp19
 70
     0
102
RTVSPropertyOp20
 70
     0
102
RTVSPropertyOp21
 70
     0
102
RTVSPropertyOp22
 70
     0
102
RTVSPropertyOp23
 70
     0
102
RTVSPropertyOp24
 70
     0
102
RTVSPropertyOp25
 70
     0
102
RTVSPropertyOp26
 70
     0
102
RTVSPropertyOp27
 70
     0
102
RTVSPropertyOp28
 70
     1
102
RTVSPropertyOp29
 70
     1
102
RTVSPropertyOp30
 70
     1
102
RTVSPropertyOp31
 70
     1
102
RTVSPropertyOp32
 70
     1
  0
XRECORD
  5
FDF
102
{ACAD_REACTORS
330
FDE
102
}
330
FDE
100
AcDbXrecord
280
     1
102
RTVSPropertyOp0
 70
     1
102
RTVSPropertyOp1
 70
     1
102
RTVSPropertyOp2
 70
     1
102
RTVSPropertyOp3
 70
     1
102
RTVSPropertyOp4
 70
     1
102
RTVSPropertyOp5
 70
     1
102
RTVSPropertyOp6
 70
     1
102
RTVSPropertyOp7
 70
     1
102
RTVSPropertyOp8
 70
     1
102
RTVSPropertyOp9
 70
     1
102
RTVSPropertyOp10
 70
     1
102
RTVSPropertyOp11
 70
     1
102
RTVSPropertyOp12
 70
     1
102
RTVSPropertyOp13
 70
     1
102
RTVSPropertyOp14
 70
     1
102
RTVSPropertyOp15
 70
     1
102
RTVSPropertyOp16
 70
     1
102
RTVSPropertyOp17
 70
     1
102
RTVSPropertyOp18
 70
     1
102
RTVSPropertyOp19
 70
     1
102
RTVSPropertyOp20
 70
     1
102
RTVSPropertyOp21
 70
     1
102
RTVSPropertyOp22
 70
     1
102
RTVSPropertyOp23
 70
     1
102
RTVSPropertyOp24
 70
     1
102
RTVSPropertyOp25
 70
     1
102
RTVSPropertyOp26
 70
     1
102
RTVSPropertyOp27
 70
     1
102
RTVSPropertyOp28
 70
     1
102
RTVSPropertyOp29
 70
     1
102
RTVSPropertyOp30
 70
     1
102
RTVSPropertyOp31
 70
     1
102
RTVSPropertyOp32
 70
     1
  0
XRECORD
  5
FC3
102
{ACAD_REACTORS
330
FC2
102
}
330
FC2
100
AcDbXrecord
280
     1
102
RTVSPropertyOp0
 70
     1
102
RTVSPropertyOp1
 70
     1
102
RTVSPropertyOp2
 70
     1
102
RTVSPropertyOp3
 70
     1
102
RTVSPropertyOp4
 70
     1
102
RTVSPropertyOp5
 70
     1
102
RTVSPropertyOp6
 70
     1
102
RTVSPropertyOp7
 70
     1
102
RTVSPropertyOp8
 70
     1
102
RTVSPropertyOp9
 70
     1
102
RTVSPropertyOp10
 70
     1
102
RTVSPropertyOp11
 70
     1
102
RTVSPropertyOp12
 70
     1
102
RTVSPropertyOp13
 70
     1
102
RTVSPropertyOp14
 70
     1
102
RTVSPropertyOp15
 70
     1
102
RTVSPropertyOp16
 70
     1
102
RTVSPropertyOp17
 70
     1
102
RTVSPropertyOp18
 70
     1
102
RTVSPropertyOp19
 70
     1
102
RTVSPropertyOp20
 70
     1
102
RTVSPropertyOp21
 70
     1
102
RTVSPropertyOp22
 70
     1
102
RTVSPropertyOp23
 70
     1
102
RTVSPropertyOp24
 70
     1
102
RTVSPropertyOp25
 70
     1
102
RTVSPropertyOp26
 70
     1
102
RTVSPropertyOp27
 70
     1
102
RTVSPropertyOp28
 70
     1
102
RTVSPropertyOp29
 70
     1
102
RTVSPropertyOp30
 70
     1
102
RTVSPropertyOp31
 70
     1
102
RTVSPropertyOp32
 70
     1
  0
XRECORD
  5
FC5
102
{ACAD_REACTORS
330
FC4
102
}
330
FC4
100
AcDbXrecord
280
     1
102
RTVSPropertyOp0
 70
     1
102
RTVSPropertyOp1
 70
     1
102
RTVSPropertyOp2
 70
     1
102
RTVSPropertyOp3
 70
     1
102
RTVSPropertyOp4
 70
     1
102
RTVSPropertyOp5
 70
     1
102
RTVSPropertyOp6
 70
     1
102
RTVSPropertyOp7
 70
     1
102
RTVSPropertyOp8
 70
     1
102
RTVSPropertyOp9
 70
     1
102
RTVSPropertyOp10
 70
     1
102
RTVSPropertyOp11
 70
     1
102
RTVSPropertyOp12
 70
     1
102
RTVSPropertyOp13
 70
     1
102
RTVSPropertyOp14
 70
     1
102
RTVSPropertyOp15
 70
     1
102
RTVSPropertyOp16
 70
     1
102
RTVSPropertyOp17
 70
     1
102
RTVSPropertyOp18
 70
     1
102
RTVSPropertyOp19
 70
     1
102
RTVSPropertyOp20
 70
     1
102
RTVSPropertyOp21
 70
     1
102
RTVSPropertyOp22
 70
     1
102
RTVSPropertyOp23
 70
     1
102
RTVSPropertyOp24
 70
     1
102
RTVSPropertyOp25
 70
     1
102
RTVSPropertyOp26
 70
     1
102
RTVSPropertyOp27
 70
     1
102
RTVSPropertyOp28
 70
     1
102
RTVSPropertyOp29
 70
     1
102
RTVSPropertyOp30
 70
     1
102
RTVSPropertyOp31
 70
     1
102
RTVSPropertyOp32
 70
     1
  0
XRECORD
  5
FC7
102
{ACAD_REACTORS
330
FC6
102
}
330
FC6
100
AcDbXrecord
280
     1
102
RTVSPropertyOp0
 70
     1
102
RTVSPropertyOp1
 70
     1
102
RTVSPropertyOp2
 70
     1
102
RTVSPropertyOp3
 70
     1
102
RTVSPropertyOp4
 70
     1
102
RTVSPropertyOp5
 70
     1
102
RTVSPropertyOp6
 70
     1
102
RTVSPropertyOp7
 70
     1
102
RTVSPropertyOp8
 70
     1
102
RTVSPropertyOp9
 70
     1
102
RTVSPropertyOp10
 70
     1
102
RTVSPropertyOp11
 70
     1
102
RTVSPropertyOp12
 70
     1
102
RTVSPropertyOp13
 70
     1
102
RTVSPropertyOp14
 70
     1
102
RTVSPropertyOp15
 70
     1
102
RTVSPropertyOp16
 70
     1
102
RTVSPropertyOp17
 70
     1
102
RTVSPropertyOp18
 70
     1
102
RTVSPropertyOp19
 70
     1
102
RTVSPropertyOp20
 70
     1
102
RTVSPropertyOp21
 70
     1
102
RTVSPropertyOp22
 70
     1
102
RTVSPropertyOp23
 70
     1
102
RTVSPropertyOp24
 70
     1
102
RTVSPropertyOp25
 70
     1
102
RTVSPropertyOp26
 70
     1
102
RTVSPropertyOp27
 70
     1
102
RTVSPropertyOp28
 70
     1
102
RTVSPropertyOp29
 70
     1
102
RTVSPropertyOp30
 70
     1
102
RTVSPropertyOp31
 70
     1
102
RTVSPropertyOp32
 70
     1
  0
XRECORD
  5
FC9
102
{ACAD_REACTORS
330
FC8
102
}
330
FC8
100
AcDbXrecord
280
     1
102
RTVSPropertyOp0
 70
     1
102
RTVSPropertyOp1
 70
     1
102
RTVSPropertyOp2
 70
     1
102
RTVSPropertyOp3
 70
     1
102
RTVSPropertyOp4
 70
     1
102
RTVSPropertyOp5
 70
     1
102
RTVSPropertyOp6
 70
     1
102
RTVSPropertyOp7
 70
     1
102
RTVSPropertyOp8
 70
     1
102
RTVSPropertyOp9
 70
     1
102
RTVSPropertyOp10
 70
     1
102
RTVSPropertyOp11
 70
     1
102
RTVSPropertyOp12
 70
     1
102
RTVSPropertyOp13
 70
     1
102
RTVSPropertyOp14
 70
     1
102
RTVSPropertyOp15
 70
     1
102
RTVSPropertyOp16
 70
     1
102
RTVSPropertyOp17
 70
     1
102
RTVSPropertyOp18
 70
     1
102
RTVSPropertyOp19
 70
     1
102
RTVSPropertyOp20
 70
     1
102
RTVSPropertyOp21
 70
     1
102
RTVSPropertyOp22
 70
     1
102
RTVSPropertyOp23
 70
     1
102
RTVSPropertyOp24
 70
     1
102
RTVSPropertyOp25
 70
     1
102
RTVSPropertyOp26
 70
     1
102
RTVSPropertyOp27
 70
     1
102
RTVSPropertyOp28
 70
     1
102
RTVSPropertyOp29
 70
     1
102
RTVSPropertyOp30
 70
     1
102
RTVSPropertyOp31
 70
     1
102
RTVSPropertyOp32
 70
     1
  0
XRECORD
  5
FD1
102
{ACAD_REACTORS
330
FD0
102
}
330
FD0
100
AcDbXrecord
280
     1
102
RTVSPropertyOp0
 70
     1
102
RTVSPropertyOp1
 70
     1
102
RTVSPropertyOp2
 70
     1
102
RTVSPropertyOp3
 70
     1
102
RTVSPropertyOp4
 70
     1
102
RTVSPropertyOp5
 70
     1
102
RTVSPropertyOp6
 70
     1
102
RTVSPropertyOp7
 70
     1
102
RTVSPropertyOp8
 70
     1
102
RTVSPropertyOp9
 70
     1
102
RTVSPropertyOp10
 70
     1
102
RTVSPropertyOp11
 70
     1
102
RTVSPropertyOp12
 70
     1
102
RTVSPropertyOp13
 70
     1
102
RTVSPropertyOp14
 70
     1
102
RTVSPropertyOp15
 70
     1
102
RTVSPropertyOp16
 70
     1
102
RTVSPropertyOp17
 70
     1
102
RTVSPropertyOp18
 70
     1
102
RTVSPropertyOp19
 70
     1
102
RTVSPropertyOp20
 70
     1
102
RTVSPropertyOp21
 70
     1
102
RTVSPropertyOp22
 70
     1
102
RTVSPropertyOp23
 70
     1
102
RTVSPropertyOp24
 70
     1
102
RTVSPropertyOp25
 70
     1
102
RTVSPropertyOp26
 70
     1
102
RTVSPropertyOp27
 70
     1
102
RTVSPropertyOp28
 70
     1
102
RTVSPropertyOp29
 70
     1
102
RTVSPropertyOp30
 70
     1
102
RTVSPropertyOp31
 70
     1
102
RTVSPropertyOp32
 70
     1
  0
XRECORD
  5
FED
102
{ACAD_REACTORS
330
FEC
102
}
330
FEC
100
AcDbXrecord
280
     1
102
RTVSPropertyOp0
 70
     0
102
RTVSPropertyOp1
 70
     0
102
RTVSPropertyOp2
 70
     0
102
RTVSPropertyOp3
 70
     0
102
RTVSPropertyOp4
 70
     0
102
RTVSPropertyOp5
 70
     0
102
RTVSPropertyOp6
 70
     0
102
RTVSPropertyOp7
 70
     0
102
RTVSPropertyOp8
 70
     0
102
RTVSPropertyOp9
 70
     0
102
RTVSPropertyOp10
 70
     0
102
RTVSPropertyOp11
 70
     0
102
RTVSPropertyOp12
 70
     0
102
RTVSPropertyOp13
 70
     0
102
RTVSPropertyOp14
 70
     2
102
RTVSPropertyOp15
 70
     0
102
RTVSPropertyOp16
 70
     0
102
RTVSPropertyOp17
 70
     0
102
RTVSPropertyOp18
 70
     0
102
RTVSPropertyOp19
 70
     0
102
RTVSPropertyOp20
 70
     0
102
RTVSPropertyOp21
 70
     0
102
RTVSPropertyOp22
 70
     0
102
RTVSPropertyOp23
 70
     0
102
RTVSPropertyOp24
 70
     0
102
RTVSPropertyOp25
 70
     0
102
RTVSPropertyOp26
 70
     0
102
RTVSPropertyOp27
 70
     0
102
RTVSPropertyOp28
 70
     1
102
RTVSPropertyOp29
 70
     1
102
RTVSPropertyOp30
 70
     1
102
RTVSPropertyOp31
 70
     1
102
RTVSPropertyOp32
 70
     1
  0
XRECORD
  5
FDD
102
{ACAD_REACTORS
330
FDC
102
}
330
FDC
100
AcDbXrecord
280
     1
102
RTVSPropertyOp0
 70
     1
102
RTVSPropertyOp1
 70
     1
102
RTVSPropertyOp2
 70
     1
102
RTVSPropertyOp3
 70
     1
102
RTVSPropertyOp4
 70
     1
102
RTVSPropertyOp5
 70
     1
102
RTVSPropertyOp6
 70
     1
102
RTVSPropertyOp7
 70
     1
102
RTVSPropertyOp8
 70
     1
102
RTVSPropertyOp9
 70
     1
102
RTVSPropertyOp10
 70
     1
102
RTVSPropertyOp11
 70
     1
102
RTVSPropertyOp12
 70
     1
102
RTVSPropertyOp13
 70
     1
102
RTVSPropertyOp14
 70
     1
102
RTVSPropertyOp15
 70
     1
102
RTVSPropertyOp16
 70
     1
102
RTVSPropertyOp17
 70
     1
102
RTVSPropertyOp18
 70
     1
102
RTVSPropertyOp19
 70
     1
102
RTVSPropertyOp20
 70
     1
102
RTVSPropertyOp21
 70
     1
102
RTVSPropertyOp22
 70
     1
102
RTVSPropertyOp23
 70
     1
102
RTVSPropertyOp24
 70
     1
102
RTVSPropertyOp25
 70
     1
102
RTVSPropertyOp26
 70
     1
102
RTVSPropertyOp27
 70
     1
102
RTVSPropertyOp28
 70
     1
102
RTVSPropertyOp29
 70
     1
102
RTVSPropertyOp30
 70
     1
102
RTVSPropertyOp31
 70
     1
102
RTVSPropertyOp32
 70
     1
  0
XRECORD
  5
FEF
102
{ACAD_REACTORS
330
FEE
102
}
330
FEE
100
AcDbXrecord
280
     1
102
RTVSPropertyOp0
 70
     0
102
RTVSPropertyOp1
 70
     0
102
RTVSPropertyOp2
 70
     0
102
RTVSPropertyOp3
 70
     0
102
RTVSPropertyOp4
 70
     0
102
RTVSPropertyOp5
 70
     0
102
RTVSPropertyOp6
 70
     0
102
RTVSPropertyOp7
 70
     0
102
RTVSPropertyOp8
 70
     0
102
RTVSPropertyOp9
 70
     0
102
RTVSPropertyOp10
 70
     0
102
RTVSPropertyOp11
 70
     0
102
RTVSPropertyOp12
 70
     0
102
RTVSPropertyOp13
 70
     0
102
RTVSPropertyOp14
 70
     2
102
RTVSPropertyOp15
 70
     0
102
RTVSPropertyOp16
 70
     0
102
RTVSPropertyOp17
 70
     0
102
RTVSPropertyOp18
 70
     0
102
RTVSPropertyOp19
 70
     0
102
RTVSPropertyOp20
 70
     0
102
RTVSPropertyOp21
 70
     0
102
RTVSPropertyOp22
 70
     0
102
RTVSPropertyOp23
 70
     0
102
RTVSPropertyOp24
 70
     0
102
RTVSPropertyOp25
 70
     0
102
RTVSPropertyOp26
 70
     0
102
RTVSPropertyOp27
 70
     0
102
RTVSPropertyOp28
 70
     1
102
RTVSPropertyOp29
 70
     1
102
RTVSPropertyOp30
 70
     1
102
RTVSPropertyOp31
 70
     1
102
RTVSPropertyOp32
 70
     1
  0
XRECORD
  5
FD5
102
{ACAD_REACTORS
330
FD4
102
}
330
FD4
100
AcDbXrecord
280
     1
102
RTVSPropertyOp0
 70
     1
102
RTVSPropertyOp1
 70
     1
102
RTVSPropertyOp2
 70
     1
102
RTVSPropertyOp3
 70
     1
102
RTVSPropertyOp4
 70
     1
102
RTVSPropertyOp5
 70
     1
102
RTVSPropertyOp6
 70
     1
102
RTVSPropertyOp7
 70
     1
102
RTVSPropertyOp8
 70
     1
102
RTVSPropertyOp9
 70
     1
102
RTVSPropertyOp10
 70
     1
102
RTVSPropertyOp11
 70
     1
102
RTVSPropertyOp12
 70
     1
102
RTVSPropertyOp13
 70
     1
102
RTVSPropertyOp14
 70
     1
102
RTVSPropertyOp15
 70
     1
102
RTVSPropertyOp16
 70
     1
102
RTVSPropertyOp17
 70
     1
102
RTVSPropertyOp18
 70
     1
102
RTVSPropertyOp19
 70
     1
102
RTVSPropertyOp20
 70
     1
102
RTVSPropertyOp21
 70
     1
102
RTVSPropertyOp22
 70
     1
102
RTVSPropertyOp23
 70
     1
102
RTVSPropertyOp24
 70
     1
102
RTVSPropertyOp25
 70
     1
102
RTVSPropertyOp26
 70
     1
102
RTVSPropertyOp27
 70
     1
102
RTVSPropertyOp28
 70
     1
102
RTVSPropertyOp29
 70
     1
102
RTVSPropertyOp30
 70
     1
102
RTVSPropertyOp31
 70
     1
102
RTVSPropertyOp32
 70
     1
  0
XRECORD
  5
FEB
102
{ACAD_REACTORS
330
FEA
102
}
330
FEA
100
AcDbXrecord
280
     1
102
RTVSPropertyOp0
 70
     1
102
RTVSPropertyOp1
 70
     1
102
RTVSPropertyOp2
 70
     1
102
RTVSPropertyOp3
 70
     1
102
RTVSPropertyOp4
 70
     1
102
RTVSPropertyOp5
 70
     1
102
RTVSPropertyOp6
 70
     1
102
RTVSPropertyOp7
 70
     1
102
RTVSPropertyOp8
 70
     1
102
RTVSPropertyOp9
 70
     1
102
RTVSPropertyOp10
 70
     1
102
RTVSPropertyOp11
 70
     1
102
RTVSPropertyOp12
 70
     1
102
RTVSPropertyOp13
 70
     1
102
RTVSPropertyOp14
 70
     1
102
RTVSPropertyOp15
 70
     1
102
RTVSPropertyOp16
 70
     1
102
RTVSPropertyOp17
 70
     1
102
RTVSPropertyOp18
 70
     1
102
RTVSPropertyOp19
 70
     1
102
RTVSPropertyOp20
 70
     1
102
RTVSPropertyOp21
 70
     1
102
RTVSPropertyOp22
 70
     1
102
RTVSPropertyOp23
 70
     1
102
RTVSPropertyOp24
 70
     1
102
RTVSPropertyOp25
 70
     1
102
RTVSPropertyOp26
 70
     1
102
RTVSPropertyOp27
 70
     1
102
RTVSPropertyOp28
 70
     1
102
RTVSPropertyOp29
 70
     1
102
RTVSPropertyOp30
 70
     1
102
RTVSPropertyOp31
 70
     1
102
RTVSPropertyOp32
 70
     1
  0
XRECORD
  5
FE9
102
{ACAD_REACTORS
330
FE8
102
}
330
FE8
100
AcDbXrecord
280
     1
102
RTVSPropertyOp0
 70
     1
102
RTVSPropertyOp1
 70
     1
102
RTVSPropertyOp2
 70
     1
102
RTVSPropertyOp3
 70
     1
102
RTVSPropertyOp4
 70
     1
102
RTVSPropertyOp5
 70
     1
102
RTVSPropertyOp6
 70
     1
102
RTVSPropertyOp7
 70
     1
102
RTVSPropertyOp8
 70
     1
102
RTVSPropertyOp9
 70
     1
102
RTVSPropertyOp10
 70
     1
102
RTVSPropertyOp11
 70
     1
102
RTVSPropertyOp12
 70
     1
102
RTVSPropertyOp13
 70
     1
102
RTVSPropertyOp14
 70
     1
102
RTVSPropertyOp15
 70
     1
102
RTVSPropertyOp16
 70
     1
102
RTVSPropertyOp17
 70
     1
102
RTVSPropertyOp18
 70
     1
102
RTVSPropertyOp19
 70
     1
102
RTVSPropertyOp20
 70
     1
102
RTVSPropertyOp21
 70
     1
102
RTVSPropertyOp22
 70
     1
102
RTVSPropertyOp23
 70
     1
102
RTVSPropertyOp24
 70
     1
102
RTVSPropertyOp25
 70
     1
102
RTVSPropertyOp26
 70
     1
102
RTVSPropertyOp27
 70
     1
102
RTVSPropertyOp28
 70
     1
102
RTVSPropertyOp29
 70
     1
102
RTVSPropertyOp30
 70
     1
102
RTVSPropertyOp31
 70
     1
102
RTVSPropertyOp32
 70
     1
  0
XRECORD
  5
FE3
102
{ACAD_REACTORS
330
FE2
102
}
330
FE2
100
AcDbXrecord
280
     1
102
RTVSPropertyOp0
 70
     1
102
RTVSPropertyOp1
 70
     1
102
RTVSPropertyOp2
 70
     1
102
RTVSPropertyOp3
 70
     1
102
RTVSPropertyOp4
 70
     1
102
RTVSPropertyOp5
 70
     1
102
RTVSPropertyOp6
 70
     1
102
RTVSPropertyOp7
 70
     1
102
RTVSPropertyOp8
 70
     1
102
RTVSPropertyOp9
 70
     1
102
RTVSPropertyOp10
 70
     1
102
RTVSPropertyOp11
 70
     1
102
RTVSPropertyOp12
 70
     1
102
RTVSPropertyOp13
 70
     1
102
RTVSPropertyOp14
 70
     1
102
RTVSPropertyOp15
 70
     1
102
RTVSPropertyOp16
 70
     1
102
RTVSPropertyOp17
 70
     1
102
RTVSPropertyOp18
 70
     1
102
RTVSPropertyOp19
 70
     1
102
RTVSPropertyOp20
 70
     1
102
RTVSPropertyOp21
 70
     1
102
RTVSPropertyOp22
 70
     1
102
RTVSPropertyOp23
 70
     1
102
RTVSPropertyOp24
 70
     1
102
RTVSPropertyOp25
 70
     1
102
RTVSPropertyOp26
 70
     1
102
RTVSPropertyOp27
 70
     1
102
RTVSPropertyOp28
 70
     1
102
RTVSPropertyOp29
 70
     1
102
RTVSPropertyOp30
 70
     1
102
RTVSPropertyOp31
 70
     1
102
RTVSPropertyOp32
 70
     1
  0
XRECORD
  5
FE5
102
{ACAD_REACTORS
330
FE4
102
}
330
FE4
100
AcDbXrecord
280
     1
102
RTVSPropertyOp0
 70
     1
102
RTVSPropertyOp1
 70
     1
102
RTVSPropertyOp2
 70
     1
102
RTVSPropertyOp3
 70
     1
102
RTVSPropertyOp4
 70
     1
102
RTVSPropertyOp5
 70
     1
102
RTVSPropertyOp6
 70
     1
102
RTVSPropertyOp7
 70
     1
102
RTVSPropertyOp8
 70
     1
102
RTVSPropertyOp9
 70
     1
102
RTVSPropertyOp10
 70
     1
102
RTVSPropertyOp11
 70
     1
102
RTVSPropertyOp12
 70
     1
102
RTVSPropertyOp13
 70
     1
102
RTVSPropertyOp14
 70
     1
102
RTVSPropertyOp15
 70
     1
102
RTVSPropertyOp16
 70
     1
102
RTVSPropertyOp17
 70
     1
102
RTVSPropertyOp18
 70
     1
102
RTVSPropertyOp19
 70
     1
102
RTVSPropertyOp20
 70
     1
102
RTVSPropertyOp21
 70
     1
102
RTVSPropertyOp22
 70
     1
102
RTVSPropertyOp23
 70
     1
102
RTVSPropertyOp24
 70
     1
102
RTVSPropertyOp25
 70
     1
102
RTVSPropertyOp26
 70
     1
102
RTVSPropertyOp27
 70
     1
102
RTVSPropertyOp28
 70
     1
102
RTVSPropertyOp29
 70
     1
102
RTVSPropertyOp30
 70
     1
102
RTVSPropertyOp31
 70
     1
102
RTVSPropertyOp32
 70
     1
  0
XRECORD
  5
FDB
102
{ACAD_REACTORS
330
FDA
102
}
330
FDA
100
AcDbXrecord
280
     1
102
RTVSPropertyOp0
 70
     1
102
RTVSPropertyOp1
 70
     1
102
RTVSPropertyOp2
 70
     1
102
RTVSPropertyOp3
 70
     1
102
RTVSPropertyOp4
 70
     1
102
RTVSPropertyOp5
 70
     1
102
RTVSPropertyOp6
 70
     1
102
RTVSPropertyOp7
 70
     1
102
RTVSPropertyOp8
 70
     1
102
RTVSPropertyOp9
 70
     1
102
RTVSPropertyOp10
 70
     1
102
RTVSPropertyOp11
 70
     1
102
RTVSPropertyOp12
 70
     1
102
RTVSPropertyOp13
 70
     1
102
RTVSPropertyOp14
 70
     1
102
RTVSPropertyOp15
 70
     1
102
RTVSPropertyOp16
 70
     1
102
RTVSPropertyOp17
 70
     1
102
RTVSPropertyOp18
 70
     1
102
RTVSPropertyOp19
 70
     1
102
RTVSPropertyOp20
 70
     1
102
RTVSPropertyOp21
 70
     1
102
RTVSPropertyOp22
 70
     1
102
RTVSPropertyOp23
 70
     1
102
RTVSPropertyOp24
 70
     1
102
RTVSPropertyOp25
 70
     1
102
RTVSPropertyOp26
 70
     1
102
RTVSPropertyOp27
 70
     1
102
RTVSPropertyOp28
 70
     1
102
RTVSPropertyOp29
 70
     1
102
RTVSPropertyOp30
 70
     1
102
RTVSPropertyOp31
 70
     1
102
RTVSPropertyOp32
 70
     1
  0
XRECORD
  5
FCF
102
{ACAD_REACTORS
330
FCE
102
}
330
FCE
100
AcDbXrecord
280
     1
102
RTVSPropertyOp0
 70
     1
102
RTVSPropertyOp1
 70
     1
102
RTVSPropertyOp2
 70
     1
102
RTVSPropertyOp3
 70
     1
102
RTVSPropertyOp4
 70
     1
102
RTVSPropertyOp5
 70
     1
102
RTVSPropertyOp6
 70
     1
102
RTVSPropertyOp7
 70
     1
102
RTVSPropertyOp8
 70
     1
102
RTVSPropertyOp9
 70
     1
102
RTVSPropertyOp10
 70
     1
102
RTVSPropertyOp11
 70
     1
102
RTVSPropertyOp12
 70
     1
102
RTVSPropertyOp13
 70
     1
102
RTVSPropertyOp14
 70
     1
102
RTVSPropertyOp15
 70
     1
102
RTVSPropertyOp16
 70
     1
102
RTVSPropertyOp17
 70
     1
102
RTVSPropertyOp18
 70
     1
102
RTVSPropertyOp19
 70
     1
102
RTVSPropertyOp20
 70
     1
102
RTVSPropertyOp21
 70
     1
102
RTVSPropertyOp22
 70
     1
102
RTVSPropertyOp23
 70
     1
102
RTVSPropertyOp24
 70
     1
102
RTVSPropertyOp25
 70
     1
102
RTVSPropertyOp26
 70
     1
102
RTVSPropertyOp27
 70
     1
102
RTVSPropertyOp28
 70
     1
102
RTVSPropertyOp29
 70
     1
102
RTVSPropertyOp30
 70
     1
102
RTVSPropertyOp31
 70
     1
102
RTVSPropertyOp32
 70
     1
  0
XRECORD
  5
FE7
102
{ACAD_REACTORS
330
FE6
102
}
330
FE6
100
AcDbXrecord
280
     1
102
RTVSPropertyOp0
 70
     1
102
RTVSPropertyOp1
 70
     1
102
RTVSPropertyOp2
 70
     1
102
RTVSPropertyOp3
 70
     1
102
RTVSPropertyOp4
 70
     1
102
RTVSPropertyOp5
 70
     1
102
RTVSPropertyOp6
 70
     1
102
RTVSPropertyOp7
 70
     1
102
RTVSPropertyOp8
 70
     1
102
RTVSPropertyOp9
 70
     1
102
RTVSPropertyOp10
 70
     1
102
RTVSPropertyOp11
 70
     1
102
RTVSPropertyOp12
 70
     1
102
RTVSPropertyOp13
 70
     1
102
RTVSPropertyOp14
 70
     1
102
RTVSPropertyOp15
 70
     1
102
RTVSPropertyOp16
 70
     1
102
RTVSPropertyOp17
 70
     1
102
RTVSPropertyOp18
 70
     1
102
RTVSPropertyOp19
 70
     1
102
RTVSPropertyOp20
 70
     1
102
RTVSPropertyOp21
 70
     1
102
RTVSPropertyOp22
 70
     1
102
RTVSPropertyOp23
 70
     1
102
RTVSPropertyOp24
 70
     1
102
RTVSPropertyOp25
 70
     1
102
RTVSPropertyOp26
 70
     1
102
RTVSPropertyOp27
 70
     1
102
RTVSPropertyOp28
 70
     1
102
RTVSPropertyOp29
 70
     1
102
RTVSPropertyOp30
 70
     1
102
RTVSPropertyOp31
 70
     1
102
RTVSPropertyOp32
 70
     1
  0
ENDSEC
  0
EOF
