  0
SECTION
  2
HEADER
  9
$ACADVER
  1
AC1015
  9
$ACADMAINTVER
 70
    18
  9
$DWGCODEPAGE
  3
ANSI_1252
  9
$INSBASE
 10
0.0
 20
0.0
 30
0.0
  9
$EXTMIN
 10
0.0
 20
0.0
 30
0.0
  9
$EXTMAX
 10
113.3333333333333
 20
73.33333333333334
 30
0.0
  9
$LIMMIN
 10
0.0
 20
0.0
  9
$LIMMAX
 10
113.3333333333333
 20
73.33333333333334
  9
$ORTHOMODE
 70
     0
  9
$REGENMODE
 70
     1
  9
$FILLMODE
 70
     1
  9
$QTEXTMODE
 70
     0
  9
$MIRRTEXT
 70
     0
  9
$LTSCALE
 40
6.666666666666666
  9
$ATTMODE
 70
     1
  9
$TEXTSIZE
 40
0.2
  9
$TRACEWID
 40
0.05
  9
$TEXTSTYLE
  7
Standard
  9
$CLAYER
  8
0
  9
$CELTYPE
  6
ByLayer
  9
$CECOLOR
 62
   256
  9
$CELTSCALE
 40
1.0
  9
$DISPSILH
 70
     0
  9
$DIMSCALE
 40
1.0
  9
$DIMASZ
 40
0.0708661417322835
  9
$DIMEXO
 40
0.0625
  9
$DIMDLI
 40
0.38
  9
$DIMRND
 40
0.0
  9
$DIMDLE
 40
0.0
  9
$DIMEXE
 40
0.18
  9
$DIMTP
 40
0.0
  9
$DIMTM
 40
0.0
  9
$DIMTXT
 40
0.0708661417322835
  9
$DIMCEN
 40
0.09
  9
$DIMTSZ
 40
0.0
  9
$DIMTOL
 70
     0
  9
$DIMLIM
 70
     0
  9
$DIMTIH
 70
     1
  9
$DIMTOH
 70
     1
  9
$DIMSE1
 70
     0
  9
$DIMSE2
 70
     0
  9
$DIMTAD
 70
     0
  9
$DIMZIN
 70
     0
  9
$DIMBLK
  1

  9
$DIMASO
 70
     1
  9
$DIMSHO
 70
     1
  9
$DIMPOST
  1

  9
$DIMAPOST
  1

  9
$DIMALT
 70
     0
  9
$DIMALTD
 70
     2
  9
$DIMALTF
 40
25.4
  9
$DIMLFAC
 40
1.0
  9
$DIMTOFL
 70
     0
  9
$DIMTVP
 40
0.0
  9
$DIMTIX
 70
     0
  9
$DIMSOXD
 70
     0
  9
$DIMSAH
 70
     0
  9
$DIMBLK1
  1

  9
$DIMBLK2
  1

  9
$DIMSTYLE
  2
STANDARD
  9
$DIMCLRD
 70
     0
  9
$DIMCLRE
 70
     0
  9
$DIMCLRT
 70
     0
  9
$DIMTFAC
 40
1.0
  9
$DIMGAP
 40
0.09
  9
$DIMJUST
 70
     0
  9
$DIMSD1
 70
     0
  9
$DIMSD2
 70
     0
  9
$DIMTOLJ
 70
     1
  9
$DIMTZIN
 70
     0
  9
$DIMALTZ
 70
     0
  9
$DIMALTTZ
 70
     0
  9
$DIMUPT
 70
     0
  9
$DIMDEC
 70
     4
  9
$DIMTDEC
 70
     4
  9
$DIMALTU
 70
     2
  9
$DIMALTTD
 70
     2
  9
$DIMTXSTY
  7
Standard
  9
$DIMAUNIT
 70
     0
  9
$DIMADEC
 70
     0
  9
$DIMALTRND
 40
0.0
  9
$DIMAZIN
 70
     0
  9
$DIMDSEP
 70
    46
  9
$DIMATFIT
 70
     3
  9
$DIMFRAC
 70
     0
  9
$DIMLDRBLK
  1

  9
$DIMLUNIT
 70
     2
  9
$DIMLWD
 70
    -2
  9
$DIMLWE
 70
    -2
  9
$DIMTMOVE
 70
     0
  9
$LUNITS
 70
     2
  9
$LUPREC
 70
     4
  9
$SKETCHINC
 40
0.1
  9
$FILLETRAD
 40
0.0
  9
$AUNITS
 70
     0
  9
$AUPREC
 70
     0
  9
$MENU
  1
.
  9
$ELEVATION
 40
0.0
  9
$PELEVATION
 40
0.0
  9
$THICKNESS
 40
0.0
  9
$LIMCHECK
 70
     0
  9
$CHAMFERA
 40
0.0
  9
$CHAMFERB
 40
0.0
  9
$CHAMFERC
 40
0.0
  9
$CHAMFERD
 40
0.0
  9
$SKPOLY
 70
     0
  9
$TDCREATE
 40
2455944.539102118
  9
$TDUCREATE
 40
2455944.789102118
  9
$TDUPDATE
 40
2455944.539102292
  9
$TDUUPDATE
 40
2455944.789102292
  9
$TDINDWG
 40
0.0000383333
  9
$TDUSRTIMER
 40
0.0000383333
  9
$USRTIMER
 70
     1
  9
$ANGBASE
 50
0.0
  9
$ANGDIR
 70
     0
  9
$PDMODE
 70
     0
  9
$PDSIZE
 40
0.0
  9
$PLINEWID
 40
0.0
  9
$SPLFRAME
 70
     0
  9
$SPLINETYPE
 70
     6
  9
$SPLINESEGS
 70
     8
  9
$HANDSEED
  5
E6F
  9
$SURFTAB1
 70
     6
  9
$SURFTAB2
 70
     6
  9
$SURFTYPE
 70
     6
  9
$SURFU
 70
     6
  9
$SURFV
 70
     6
  9
$UCSBASE
  2

  9
$UCSNAME
  2

  9
$UCSORG
 10
0.0
 20
0.0
 30
0.0
  9
$UCSXDIR
 10
1.0
 20
0.0
 30
0.0
  9
$UCSYDIR
 10
0.0
 20
1.0
 30
0.0
  9
$UCSORTHOREF
  2

  9
$UCSORTHOVIEW
 70
     0
  9
$UCSORGTOP
 10
0.0
 20
0.0
 30
0.0
  9
$UCSORGBOTTOM
 10
0.0
 20
0.0
 30
0.0
  9
$UCSORGLEFT
 10
0.0
 20
0.0
 30
0.0
  9
$UCSORGRIGHT
 10
0.0
 20
0.0
 30
0.0
  9
$UCSORGFRONT
 10
0.0
 20
0.0
 30
0.0
  9
$UCSORGBACK
 10
0.0
 20
0.0
 30
0.0
  9
$PUCSBASE
  2

  9
$PUCSNAME
  2

  9
$PUCSORG
 10
0.0
 20
0.0
 30
0.0
  9
$PUCSXDIR
 10
1.0
 20
0.0
 30
0.0
  9
$PUCSYDIR
 10
0.0
 20
1.0
 30
0.0
  9
$PUCSORTHOREF
  2

  9
$PUCSORTHOVIEW
 70
     0
  9
$PUCSORGTOP
 10
0.0
 20
0.0
 30
0.0
  9
$PUCSORGBOTTOM
 10
0.0
 20
0.0
 30
0.0
  9
$PUCSORGLEFT
 10
0.0
 20
0.0
 30
0.0
  9
$PUCSORGRIGHT
 10
0.0
 20
0.0
 30
0.0
  9
$PUCSORGFRONT
 10
0.0
 20
0.0
 30
0.0
  9
$PUCSORGBACK
 10
0.0
 20
0.0
 30
0.0
  9
$USERI1
 70
     0
  9
$USERI2
 70
     0
  9
$USERI3
 70
     0
  9
$USERI4
 70
     0
  9
$USERI5
 70
     0
  9
$USERR1
 40
0.0
  9
$USERR2
 40
0.0
  9
$USERR3
 40
0.0
  9
$USERR4
 40
0.0
  9
$USERR5
 40
0.0
  9
$WORLDVIEW
 70
     1
  9
$SHADEDGE
 70
     3
  9
$SHADEDIF
 70
    70
  9
$TILEMODE
 70
     1
  9
$MAXACTVP
 70
    64
  9
$PINSBASE
 10
0.0
 20
0.0
 30
0.0
  9
$PLIMCHECK
 70
     0
  9
$PEXTMIN
 10
0.0
 20
0.0
 30
0.0
  9
$PEXTMAX
 10
113.3333333333333
 20
73.33333333333334
 30
0.0
  9
$PLIMMIN
 10
0.0
 20
0.0
  9
$PLIMMAX
 10
113.3333333333333
 20
73.33333333333334
  9
$UNITMODE
 70
     0
  9
$VISRETAIN
 70
     1
  9
$PLINEGEN
 70
     0
  9
$PSLTSCALE
 70
     1
  9
$TREEDEPTH
 70
  3020
  9
$CMLSTYLE
  2
Standard
  9
$CMLJUST
 70
     0
  9
$CMLSCALE
 40
1.0
  9
$PROXYGRAPHICS
 70
     1
  9
$MEASUREMENT
 70
     0
  9
$CELWEIGHT
370
    -1
  9
$ENDCAPS
280
     0
  9
$JOINSTYLE
280
     0
  9
$LWDISPLAY
290
     0
  9
$INSUNITS
 70
     1
  9
$HYPERLINKBASE
  1

  9
$STYLESHEET
  1

  9
$XEDIT
290
     1
  9
$CEPSNTYPE
380
     0
  9
$PSTYLEMODE
290
     1
  9
$FINGERPRINTGUID
  2
{C77C8C2D-07EF-4DA8-913C-8880638D8686}
  9
$VERSIONGUID
  2
{9742BDC0-ABC3-4738-B119-AFDA5CCF4289}
  9
$EXTNAMES
290
     1
  9
$PSVPSCALE
 40
0.0
  9
$OLESTARTUP
290
     0
  0
ENDSEC
  0
SECTION
  2
CLASSES
  0
CLASS
  1
ACDBDICTIONARYWDFLT
  2
AcDbDictionaryWithDefault
  3
ObjectDBX Classes
 90
        0
280
     0
281
     0
  0
CLASS
  1
MATERIAL
  2
AcDbMaterial
  3
ObjectDBX Classes
 90
     1153
280
     0
281
     0
  0
CLASS
  1
VISUALSTYLE
  2
AcDbVisualStyle
  3
ObjectDBX Classes
 90
     4095
280
     0
281
     0
  0
CLASS
  1
SCALE
  2
AcDbScale
  3
ObjectDBX Classes
 90
     1153
280
     0
281
     0
  0
CLASS
  1
TABLESTYLE
  2
AcDbTableStyle
  3
ObjectDBX Classes
 90
     4095
280
     0
281
     0
  0
CLASS
  1
MLEADERSTYLE
  2
AcDbMLeaderStyle
  3
ACDB_MLEADERSTYLE_CLASS
 90
     4095
280
     0
281
     0
  0
CLASS
  1
DICTIONARYVAR
  2
AcDbDictionaryVar
  3
ObjectDBX Classes
 90
        0
280
     0
281
     0
  0
CLASS
  1
CELLSTYLEMAP
  2
AcDbCellStyleMap
  3
ObjectDBX Classes
 90
     1152
280
     0
281
     0
  0
CLASS
  1
ACDBPLACEHOLDER
  2
AcDbPlaceHolder
  3
ObjectDBX Classes
 90
        0
280
     0
281
     0
  0
CLASS
  1
LAYOUT
  2
AcDbLayout
  3
ObjectDBX Classes
 90
        0
280
     0
281
     0
  0
ENDSEC
  0
SECTION
  2
TABLES
  0
TABLE
  2
VPORT
  5
8
330
0
100
AcDbSymbolTable
 70
     1
  0
VPORT
  5
57
330
8
100
AcDbSymbolTableRecord
100
AcDbViewportTableRecord
  2
*Active
 70
     0
 10
0.0
 20
0.0
 11
1.0
 21
1.0
 12
56.66666666666667
 22
36.66666666666667
 13
0.0
 23
0.0
 14
1.0
 24
1.0
 15
0.0
 25
0.0
 16
0.0
 26
0.0
 36
1.0
 17
0.0
 27
0.0
 37
0.0
 40
73.33333333333334
 41
1.545454545454545
 42
50.0
 43
0.0
 44
0.0
 50
0.0
 51
0.0
 71
     0
 72
   100
 73
     1
 74
     1
 75
     0
 76
     0
 77
     0
 78
     0
281
     0
 65
     1
110
0.0
120
0.0
130
0.0
111
1.0
121
0.0
131
0.0
112
0.0
122
1.0
132
0.0
 79
     0
146
0.0
  0
ENDTAB
  0
TABLE
  2
LTYPE
  5
5
330
0
100
AcDbSymbolTable
 70
    59
  0
LTYPE
  5
5B
330
5
100
AcDbSymbolTableRecord
100
AcDbLinetypeTableRecord
  2
ByBlock
 70
     0
  3

 72
    65
 73
     0
 40
0.0
  0
LTYPE
  5
5C
330
5
100
AcDbSymbolTableRecord
100
AcDbLinetypeTableRecord
  2
ByLayer
 70
     0
  3

 72
    65
 73
     0
 40
0.0
  0
LTYPE
  5
5D
330
5
100
AcDbSymbolTableRecord
100
AcDbLinetypeTableRecord
  2
Continuous
 70
     0
  3
Solid line
 72
    65
 73
     0
 40
0.0
  0
LTYPE
  5
DE
330
5
100
AcDbSymbolTableRecord
100
AcDbLinetypeTableRecord
  2
BY_STANDARD
 70
     0
  3
By Standard ____________    ____    ____   _
 72
    65
 73
     6
 40
1.240299999999999
 49
0.6614
 74
     0
 49
-0.0827
 74
     0
 49
0.1654
 74
     0
 49
-0.0827
 74
     0
 49
0.1654
 74
     0
 49
-0.0827
 74
     0
  0
LTYPE
  5
DF
330
5
100
AcDbSymbolTableRecord
100
AcDbLinetypeTableRecord
  2
CHAIN
 70
     0
  3
Chain ____ _ ____ _ ____ _ ____ _ ____ _ ____
 72
    65
 73
     4
 40
0.7087
 49
0.4724000000000001
 74
     0
 49
-0.0591
 74
     0
 49
0.1181
 74
     0
 49
-0.0591
 74
     0
  0
LTYPE
  5
E0
330
5
100
AcDbSymbolTableRecord
100
AcDbLinetypeTableRecord
  2
DASH_DOT
 70
     0
  3
Dash dot __ . __ . __ . __ . __ . __ . __ . __
 72
    65
 73
     4
 40
0.37
 49
0.24
 74
     0
 49
-0.06
 74
     0
 49
0.01
 74
     0
 49
-0.06
 74
     0
  0
LTYPE
  5
E1
330
5
100
AcDbSymbolTableRecord
100
AcDbLinetypeTableRecord
  2
DOUBLE_DASH_DOT
 70
     0
  3
Double-Dash Dot __ __ . __ __ . __ __ . __ _
 72
    65
 73
     6
 40
0.4398
 49
0.24
 74
     0
 49
-0.06
 74
     0
 49
0.0098
 74
     0
 49
-0.06
 74
     0
 49
0.01
 74
     0
 49
-0.06
 74
     0
  0
LTYPE
  5
E2
330
5
100
AcDbSymbolTableRecord
100
AcDbLinetypeTableRecord
  2
DASH_TRIPLE_DOT
 70
     0
  3
Dash Triple-Dot _ . . . _ . . . _ . . . _
 72
    65
 73
     8
 40
0.51
 49
0.24
 74
     0
 49
-0.06
 74
     0
 49
0.01
 74
     0
 49
-0.06
 74
     0
 49
0.01
 74
     0
 49
-0.06
 74
     0
 49
0.01
 74
     0
 49
-0.06
 74
     0
  0
LTYPE
  5
E3
330
5
100
AcDbSymbolTableRecord
100
AcDbLinetypeTableRecord
  2
DASHED
 70
     0
  3
Dashed __ __ __ __ __ __ __ __ __ __ __ __ __ _
 72
    65
 73
     2
 40
0.2067
 49
0.1654
 74
     0
 49
-0.0413
 74
     0
  0
LTYPE
  5
E4
330
5
100
AcDbSymbolTableRecord
100
AcDbLinetypeTableRecord
  2
DASH_DOUBLE_DOT
 70
     0
  3
Dash Double-Dot __ . . __ . . __ . . __ . .
 72
    65
 73
     6
 40
0.4398
 49
0.24
 74
     0
 49
-0.06
 74
     0
 49
0.0098
 74
     0
 49
-0.06
 74
     0
 49
0.01
 74
     0
 49
-0.06
 74
     0
  0
LTYPE
  5
E5
330
5
100
AcDbSymbolTableRecord
100
AcDbLinetypeTableRecord
  2
DASHED_SPACE
 70
     0
  3
Dashed Space __ __ __ __ __ __ __ __ __ __ __ _
 72
    65
 73
     2
 40
0.2067
 49
0.1654
 74
     0
 49
-0.0413
 74
     0
  0
LTYPE
  5
E6
330
5
100
AcDbSymbolTableRecord
100
AcDbLinetypeTableRecord
  2
DOTTED
 70
     0
  3
Dotted . . . . . . . . . . . . . . . . . . . . 
 72
    65
 73
     2
 40
0.0482
 49
0.0069
 74
     0
 49
-0.0413
 74
     0
  0
LTYPE
  5
E7
330
5
100
AcDbSymbolTableRecord
100
AcDbLinetypeTableRecord
  2
DOUBLE_DASH_CHAIN
 70
     0
  3
Double-Dash Chain ______  __  __  ______  __  _
 72
    65
 73
     6
 40
1.240299999999999
 49
0.6614
 74
     0
 49
-0.0827
 74
     0
 49
0.1654
 74
     0
 49
-0.0827
 74
     0
 49
0.1654
 74
     0
 49
-0.0827
 74
     0
  0
LTYPE
  5
E9
330
5
100
AcDbSymbolTableRecord
100
AcDbLinetypeTableRecord
  2
DOUBLE_DASH_DOUBLE_DOT
 70
     0
  3
Double-Dash Double-dot _ _ . . _ _ . . _
 72
    65
 73
     8
 40
0.7400000000000001
 49
0.24
 74
     0
 49
-0.06
 74
     0
 49
0.24
 74
     0
 49
-0.06
 74
     0
 49
0.01
 74
     0
 49
-0.06
 74
     0
 49
0.01
 74
     0
 49
-0.06
 74
     0
  0
LTYPE
  5
EA
330
5
100
AcDbSymbolTableRecord
100
AcDbLinetypeTableRecord
  2
DOUBLE_DASH_TRIPLE_DOT
 70
     0
  3
Double Dash Triple Dot __ __ . . . __ __ . .
 72
    65
 73
    10
 40
0.8100000000000001
 49
0.24
 74
     0
 49
-0.06
 74
     0
 49
0.24
 74
     0
 49
-0.06
 74
     0
 49
0.01
 74
     0
 49
-0.06
 74
     0
 49
0.01
 74
     0
 49
-0.06
 74
     0
 49
0.01
 74
     0
 49
-0.06
 74
     0
  0
LTYPE
  5
EB
330
5
100
AcDbSymbolTableRecord
100
AcDbLinetypeTableRecord
  2
LONG_DASH_DOTTED
 70
     0
  3
Long Dash Dotted ____ . ____ . ____ . ____ . _
 72
    65
 73
     4
 40
0.3543
 49
0.2362
 74
     0
 49
-0.0295
 74
     0
 49
0.0591
 74
     0
 49
-0.0295
 74
     0
  0
LTYPE
  5
EC
330
5
100
AcDbSymbolTableRecord
100
AcDbLinetypeTableRecord
  2
LONG_DASH_DOUBLE_DOT
 70
     0
  3
Long Dash Double Dot ________  .  .  ________  
 72
    65
 73
     6
 40
0.6799999999999999
 49
0.48
 74
     0
 49
-0.06
 74
     0
 49
0.01
 74
     0
 49
-0.06
 74
     0
 49
0.01
 74
     0
 49
-0.06
 74
     0
  0
LTYPE
  5
ED
330
5
100
AcDbSymbolTableRecord
100
AcDbLinetypeTableRecord
  2
LONG_DASH_TRIPLE_DOT
 70
     0
  3
Long Dash Triple Dot ____ ... ____ ... ____
 72
    65
 73
     8
 40
0.3689
 49
0.2362
 74
     0
 49
-0.0295
 74
     0
 49
0.0049
 74
     0
 49
-0.0295
 74
     0
 49
0.0049
 74
     0
 49
-0.0295
 74
     0
 49
0.0049
 74
     0
 49
-0.0295
 74
     0
  0
LTYPE
  5
EE
330
5
100
AcDbSymbolTableRecord
100
AcDbLinetypeTableRecord
  2
BORDER
 70
     0
  3
Border __ __ . __ __ . __ __ . __ __ . __ __ .
 72
    65
 73
     6
 40
1.75
 49
0.5
 74
     0
 49
-0.25
 74
     0
 49
0.5
 74
     0
 49
-0.25
 74
     0
 49
0.0
 74
     0
 49
-0.25
 74
     0
  0
LTYPE
  5
EF
330
5
100
AcDbSymbolTableRecord
100
AcDbLinetypeTableRecord
  2
BORDER2
 70
     0
  3
Border (.5x) __.__.__.__.__.__.__.__.__.__.__.
 72
    65
 73
     6
 40
0.875
 49
0.25
 74
     0
 49
-0.125
 74
     0
 49
0.25
 74
     0
 49
-0.125
 74
     0
 49
0.0
 74
     0
 49
-0.125
 74
     0
  0
LTYPE
  5
F0
330
5
100
AcDbSymbolTableRecord
100
AcDbLinetypeTableRecord
  2
BORDERX2
 70
     0
  3
Border (2x) ____  ____  .  ____  ____  .  ___
 72
    65
 73
     6
 40
3.5
 49
1.0
 74
     0
 49
-0.5
 74
     0
 49
1.0
 74
     0
 49
-0.5
 74
     0
 49
0.0
 74
     0
 49
-0.5
 74
     0
  0
LTYPE
  5
F1
330
5
100
AcDbSymbolTableRecord
100
AcDbLinetypeTableRecord
  2
CENTER
 70
     0
  3
Center ____ _ ____ _ ____ _ ____ _ ____ _ ____
 72
    65
 73
     4
 40
2.0
 49
1.25
 74
     0
 49
-0.25
 74
     0
 49
0.25
 74
     0
 49
-0.25
 74
     0
  0
LTYPE
  5
F2
330
5
100
AcDbSymbolTableRecord
100
AcDbLinetypeTableRecord
  2
CENTER2
 70
     0
  3
Center (.5x) ___ _ ___ _ ___ _ ___ _ ___ _ ___
 72
    65
 73
     4
 40
1.125
 49
0.75
 74
     0
 49
-0.125
 74
     0
 49
0.125
 74
     0
 49
-0.125
 74
     0
  0
LTYPE
  5
F3
330
5
100
AcDbSymbolTableRecord
100
AcDbLinetypeTableRecord
  2
CENTERX2
 70
     0
  3
Center (2x) ________  __  ________  __  _____
 72
    65
 73
     4
 40
4.0
 49
2.5
 74
     0
 49
-0.5
 74
     0
 49
0.5
 74
     0
 49
-0.5
 74
     0
  0
LTYPE
  5
F4
330
5
100
AcDbSymbolTableRecord
100
AcDbLinetypeTableRecord
  2
DASHDOT2
 70
     0
  3
Dash dot (.5x) _._._._._._._._._._._._._._._.
 72
    65
 73
     4
 40
0.5
 49
0.25
 74
     0
 49
-0.125
 74
     0
 49
0.0
 74
     0
 49
-0.125
 74
     0
  0
LTYPE
  5
F5
330
5
100
AcDbSymbolTableRecord
100
AcDbLinetypeTableRecord
  2
DASHDOTX2
 70
     0
  3
Dash dot (2x) ____  .  ____  .  ____  .  ___
 72
    65
 73
     4
 40
2.0
 49
1.0
 74
     0
 49
-0.5
 74
     0
 49
0.0
 74
     0
 49
-0.5
 74
     0
  0
LTYPE
  5
F7
330
5
100
AcDbSymbolTableRecord
100
AcDbLinetypeTableRecord
  2
DASHED2
 70
     0
  3
Dashed (.5x) _ _ _ _ _ _ _ _ _ _ _ _ _ _ _ _ _
 72
    65
 73
     2
 40
0.375
 49
0.25
 74
     0
 49
-0.125
 74
     0
  0
LTYPE
  5
F8
330
5
100
AcDbSymbolTableRecord
100
AcDbLinetypeTableRecord
  2
DASHEDX2
 70
     0
  3
Dashed (2x) ____  ____  ____  ____  ____  ___
 72
    65
 73
     2
 40
1.5
 49
1.0
 74
     0
 49
-0.5
 74
     0
  0
LTYPE
  5
F9
330
5
100
AcDbSymbolTableRecord
100
AcDbLinetypeTableRecord
  2
DIVIDE
 70
     0
  3
Divide ____ . . ____ . . ____ . . ____ . . ____
 72
    65
 73
     6
 40
1.25
 49
0.5
 74
     0
 49
-0.25
 74
     0
 49
0.0
 74
     0
 49
-0.25
 74
     0
 49
0.0
 74
     0
 49
-0.25
 74
     0
  0
LTYPE
  5
FA
330
5
100
AcDbSymbolTableRecord
100
AcDbLinetypeTableRecord
  2
DIVIDE2
 70
     0
  3
Divide (.5x) __..__..__..__..__..__..__..__.._
 72
    65
 73
     6
 40
0.625
 49
0.25
 74
     0
 49
-0.125
 74
     0
 49
0.0
 74
     0
 49
-0.125
 74
     0
 49
0.0
 74
     0
 49
-0.125
 74
     0
  0
LTYPE
  5
FB
330
5
100
AcDbSymbolTableRecord
100
AcDbLinetypeTableRecord
  2
DIVIDEX2
 70
     0
  3
Divide (2x) ________  .  .  ________  .  .  _
 72
    65
 73
     6
 40
2.5
 49
1.0
 74
     0
 49
-0.5
 74
     0
 49
0.0
 74
     0
 49
-0.5
 74
     0
 49
0.0
 74
     0
 49
-0.5
 74
     0
  0
LTYPE
  5
FC
330
5
100
AcDbSymbolTableRecord
100
AcDbLinetypeTableRecord
  2
DOT
 70
     0
  3
Dot . . . . . . . . . . . . . . . . . . . . . .
 72
    65
 73
     2
 40
0.25
 49
0.0
 74
     0
 49
-0.25
 74
     0
  0
LTYPE
  5
FD
330
5
100
AcDbSymbolTableRecord
100
AcDbLinetypeTableRecord
  2
DOT2
 70
     0
  3
Dot (.5x) .....................................
 72
    65
 73
     2
 40
0.125
 49
0.0
 74
     0
 49
-0.125
 74
     0
  0
LTYPE
  5
FE
330
5
100
AcDbSymbolTableRecord
100
AcDbLinetypeTableRecord
  2
DOTX2
 70
     0
  3
Dot (2x) .  .  .  .  .  .  .  .  .  .  .  .  . 
 72
    65
 73
     2
 40
0.5
 49
0.0
 74
     0
 49
-0.5
 74
     0
  0
LTYPE
  5
FF
330
5
100
AcDbSymbolTableRecord
100
AcDbLinetypeTableRecord
  2
HIDDEN
 70
     0
  3
Hidden __ __ __ __ __ __ __ __ __ __ __ __ __ _
 72
    65
 73
     2
 40
0.375
 49
0.25
 74
     0
 49
-0.125
 74
     0
  0
LTYPE
  5
100
330
5
100
AcDbSymbolTableRecord
100
AcDbLinetypeTableRecord
  2
HIDDEN2
 70
     0
  3
Hidden (.5x) _ _ _ _ _ _ _ _ _ _ _ _ _ _ _ _ _
 72
    65
 73
     2
 40
0.1875
 49
0.125
 74
     0
 49
-0.0625
 74
     0
  0
LTYPE
  5
101
330
5
100
AcDbSymbolTableRecord
100
AcDbLinetypeTableRecord
  2
HIDDENX2
 70
     0
  3
Hidden (2x) ____ ____ ____ ____ ____ ____ ____
 72
    65
 73
     2
 40
0.75
 49
0.5
 74
     0
 49
-0.25
 74
     0
  0
LTYPE
  5
102
330
5
100
AcDbSymbolTableRecord
100
AcDbLinetypeTableRecord
  2
PHANTOM
 70
     0
  3
Phantom ______  __  __  ______  __  __  ______
 72
    65
 73
     6
 40
2.5
 49
1.25
 74
     0
 49
-0.25
 74
     0
 49
0.25
 74
     0
 49
-0.25
 74
     0
 49
0.25
 74
     0
 49
-0.25
 74
     0
  0
LTYPE
  5
103
330
5
100
AcDbSymbolTableRecord
100
AcDbLinetypeTableRecord
  2
PHANTOM2
 70
     0
  3
Phantom (.5x) ___ _ _ ___ _ _ ___ _ _ ___ _ _
 72
    65
 73
     6
 40
1.25
 49
0.625
 74
     0
 49
-0.125
 74
     0
 49
0.125
 74
     0
 49
-0.125
 74
     0
 49
0.125
 74
     0
 49
-0.125
 74
     0
  0
LTYPE
  5
104
330
5
100
AcDbSymbolTableRecord
100
AcDbLinetypeTableRecord
  2
PHANTOMX2
 70
     0
  3
Phantom (2x) ____________    ____    ____   _
 72
    65
 73
     6
 40
5.0
 49
2.5
 74
     0
 49
-0.5
 74
     0
 49
0.5
 74
     0
 49
-0.5
 74
     0
 49
0.5
 74
     0
 49
-0.5
 74
     0
  0
LTYPE
  5
105
330
5
100
AcDbSymbolTableRecord
100
AcDbLinetypeTableRecord
  2
ACAD_ISO02W100
 70
     0
  3
ISO dash __ __ __ __ __ __ __ __ __ __ __ __ __
 72
    65
 73
     2
 40
0.59
 49
0.47
 74
     0
 49
-0.12
 74
     0
  0
LTYPE
  5
106
330
5
100
AcDbSymbolTableRecord
100
AcDbLinetypeTableRecord
  2
ACAD_ISO03W100
 70
     0
  3
ISO dash space __    __    __    __    __    __
 72
    65
 73
     2
 40
1.179999999999999
 49
0.47
 74
     0
 49
-0.71
 74
     0
  0
LTYPE
  5
107
330
5
100
AcDbSymbolTableRecord
100
AcDbLinetypeTableRecord
  2
ACAD_ISO04W100
 70
     0
  3
ISO long-dash dot ____ . ____ . ____ . ____ . _
 72
    65
 73
     4
 40
1.179999999999999
 49
0.9399999999999998
 74
     0
 49
-0.12
 74
     0
 49
0.0
 74
     0
 49
-0.12
 74
     0
  0
LTYPE
  5
108
330
5
100
AcDbSymbolTableRecord
100
AcDbLinetypeTableRecord
  2
ACAD_ISO05W100
 70
     0
  3
ISO long-dash double-dot ____ .. ____ .. ____ .
 72
    65
 73
     6
 40
1.299999999999999
 49
0.9399999999999998
 74
     0
 49
-0.12
 74
     0
 49
0.0
 74
     0
 49
-0.12
 74
     0
 49
0.0
 74
     0
 49
-0.12
 74
     0
  0
LTYPE
  5
109
330
5
100
AcDbSymbolTableRecord
100
AcDbLinetypeTableRecord
  2
ACAD_ISO06W100
 70
     0
  3
ISO long-dash triple-dot ____ ... ____ ... ____
 72
    65
 73
     8
 40
1.419999999999999
 49
0.9399999999999998
 74
     0
 49
-0.12
 74
     0
 49
0.0
 74
     0
 49
-0.12
 74
     0
 49
0.0
 74
     0
 49
-0.12
 74
     0
 49
0.0
 74
     0
 49
-0.12
 74
     0
  0
LTYPE
  5
10A
330
5
100
AcDbSymbolTableRecord
100
AcDbLinetypeTableRecord
  2
ACAD_ISO07W100
 70
     0
  3
ISO dot . . . . . . . . . . . . . . . . . . . .
 72
    65
 73
     2
 40
0.12
 49
0.0
 74
     0
 49
-0.12
 74
     0
  0
LTYPE
  5
10B
330
5
100
AcDbSymbolTableRecord
100
AcDbLinetypeTableRecord
  2
ACAD_ISO08W100
 70
     0
  3
ISO long-dash short-dash ____ __ ____ __ ____ _
 72
    65
 73
     4
 40
0.95
 49
0.47
 74
     0
 49
-0.12
 74
     0
 49
0.24
 74
     0
 49
-0.12
 74
     0
  0
LTYPE
  5
10C
330
5
100
AcDbSymbolTableRecord
100
AcDbLinetypeTableRecord
  2
ACAD_ISO09W100
 70
     0
  3
ISO long-dash double-short-dash ____ __ __ ____
 72
    65
 73
     6
 40
1.31
 49
0.47
 74
     0
 49
-0.12
 74
     0
 49
0.24
 74
     0
 49
-0.12
 74
     0
 49
0.24
 74
     0
 49
-0.12
 74
     0
  0
LTYPE
  5
10D
330
5
100
AcDbSymbolTableRecord
100
AcDbLinetypeTableRecord
  2
ACAD_ISO10W100
 70
     0
  3
ISO dash dot __ . __ . __ . __ . __ . __ . __ .
 72
    65
 73
     4
 40
0.71
 49
0.47
 74
     0
 49
-0.12
 74
     0
 49
0.0
 74
     0
 49
-0.12
 74
     0
  0
LTYPE
  5
10E
330
5
100
AcDbSymbolTableRecord
100
AcDbLinetypeTableRecord
  2
ACAD_ISO11W100
 70
     0
  3
ISO double-dash dot __ __ . __ __ . __ __ . __ 
 72
    65
 73
     6
 40
1.299999999999999
 49
0.47
 74
     0
 49
-0.12
 74
     0
 49
0.47
 74
     0
 49
-0.12
 74
     0
 49
0.0
 74
     0
 49
-0.12
 74
     0
  0
LTYPE
  5
10F
330
5
100
AcDbSymbolTableRecord
100
AcDbLinetypeTableRecord
  2
ACAD_ISO12W100
 70
     0
  3
ISO dash double-dot __ . . __ . . __ . . __ . .
 72
    65
 73
     6
 40
0.8299999999999998
 49
0.47
 74
     0
 49
-0.12
 74
     0
 49
0.0
 74
     0
 49
-0.12
 74
     0
 49
0.0
 74
     0
 49
-0.12
 74
     0
  0
LTYPE
  5
110
330
5
100
AcDbSymbolTableRecord
100
AcDbLinetypeTableRecord
  2
ACAD_ISO13W100
 70
     0
  3
ISO double-dash double-dot __ __ . . __ __ . . 
 72
    65
 73
     8
 40
1.419999999999999
 49
0.47
 74
     0
 49
-0.12
 74
     0
 49
0.47
 74
     0
 49
-0.12
 74
     0
 49
0.0
 74
     0
 49
-0.12
 74
     0
 49
0.0
 74
     0
 49
-0.12
 74
     0
  0
LTYPE
  5
111
330
5
100
AcDbSymbolTableRecord
100
AcDbLinetypeTableRecord
  2
ACAD_ISO14W100
 70
     0
  3
ISO dash triple-dot __ . . . __ . . . __ . . . 
 72
    65
 73
     8
 40
0.95
 49
0.47
 74
     0
 49
-0.12
 74
     0
 49
0.0
 74
     0
 49
-0.12
 74
     0
 49
0.0
 74
     0
 49
-0.12
 74
     0
 49
0.0
 74
     0
 49
-0.12
 74
     0
  0
LTYPE
  5
112
330
5
100
AcDbSymbolTableRecord
100
AcDbLinetypeTableRecord
  2
ACAD_ISO15W100
 70
     0
  3
ISO double-dash triple-dot __ __ . . . __ __ . 
 72
    65
 73
    10
 40
1.539999999999999
 49
0.47
 74
     0
 49
-0.12
 74
     0
 49
0.47
 74
     0
 49
-0.12
 74
     0
 49
0.0
 74
     0
 49
-0.12
 74
     0
 49
0.0
 74
     0
 49
-0.12
 74
     0
 49
0.0
 74
     0
 49
-0.12
 74
     0
  0
LTYPE
  5
115
330
5
100
AcDbSymbolTableRecord
100
AcDbLinetypeTableRecord
  2
FENCELINE1
 70
     0
  3
Fenceline circle ----0-----0----0-----0----0---
 72
    65
 73
     4
 40
1.45
 49
0.25
 74
     0
 49
-0.1
 74
     4
 75
   133
340
114
 46
0.1
 50
0.0
 44
-0.1
 45
0.0
 49
-0.1
 74
     0
 49
1.0
 74
     0
  0
LTYPE
  5
116
330
5
100
AcDbSymbolTableRecord
100
AcDbLinetypeTableRecord
  2
FENCELINE2
 70
     0
  3
Fenceline square ----[]-----[]----[]-----[]----
 72
    65
 73
     4
 40
1.45
 49
0.25
 74
     0
 49
-0.1
 74
     4
 75
   132
340
114
 46
0.1
 50
0.0
 44
-0.1
 45
0.0
 49
-0.1
 74
     0
 49
1.0
 74
     0
  0
LTYPE
  5
117
330
5
100
AcDbSymbolTableRecord
100
AcDbLinetypeTableRecord
  2
TRACKS
 70
     0
  3
Tracks -|-|-|-|-|-|-|-|-|-|-|-|-|-|-|-|-|-|-|-|
 72
    65
 73
     2
 40
0.3
 49
0.15
 74
     4
 75
   130
340
114
 46
0.25
 50
0.0
 44
0.0
 45
0.0
 49
0.15
 74
     0
  0
LTYPE
  5
118
330
5
100
AcDbSymbolTableRecord
100
AcDbLinetypeTableRecord
  2
BATTING
 70
     0
  3
Batting SSSSSSSSSSSSSSSSSSSSSSSSSSSSSSSSSSSSSSS
 72
    65
 73
     4
 40
0.4001000000000001
 49
0.0001
 74
     0
 49
-0.1
 74
     4
 75
   134
340
114
 46
0.1
 50
0.0
 44
-0.1
 45
0.0
 49
-0.2
 74
     4
 75
   134
340
114
 46
0.1
 50
180.0
 44
0.1
 45
0.0
 49
-0.1
 74
     0
  0
LTYPE
  5
119
330
5
100
AcDbSymbolTableRecord
100
AcDbLinetypeTableRecord
  2
HOT_WATER_SUPPLY
 70
     0
  3
Hot water supply ---- HW ---- HW ---- HW ----
 72
    65
 73
     3
 40
0.9
 49
0.5
 74
     0
 49
-0.2
 74
     2
 75
     0
340
55
 46
0.1
 50
0.0
 44
-0.1
 45
-0.05
  9
HW
 49
-0.2
 74
     0
  0
LTYPE
  5
11A
330
5
100
AcDbSymbolTableRecord
100
AcDbLinetypeTableRecord
  2
GAS_LINE
 70
     0
  3
Gas line ----GAS----GAS----GAS----GAS----GAS---
 72
    65
 73
     3
 40
0.95
 49
0.5
 74
     0
 49
-0.2
 74
     2
 75
     0
340
55
 46
0.1
 50
0.0
 44
-0.1
 45
-0.05
  9
GAS
 49
-0.25
 74
     0
  0
LTYPE
  5
11B
330
5
100
AcDbSymbolTableRecord
100
AcDbLinetypeTableRecord
  2
ZIGZAG
 70
     0
  3
Zig zag /\/\/\/\/\/\/\/\/\/\/\/\/\/\/\/\/\/\/\/
 72
    65
 73
     4
 40
0.8001000000000001
 49
0.0001
 74
     0
 49
-0.2
 74
     4
 75
   131
340
114
 46
0.2
 50
0.0
 44
-0.2
 45
0.0
 49
-0.4
 74
     4
 75
   131
340
114
 46
0.2
 50
180.0
 44
0.2
 45
0.0
 49
-0.2
 74
     0
  0
ENDTAB
  0
TABLE
  2
LAYER
  5
2
330
0
100
AcDbSymbolTable
 70
    27
  0
LAYER
  5
54
330
2
100
AcDbSymbolTableRecord
100
AcDbLayerTableRecord
  2
0
 70
     0
 62
     7
  6
Continuous
370
    18
390
F
  0
LAYER
  5
75
330
2
100
AcDbSymbolTableRecord
100
AcDbLayerTableRecord
  2
Symbol (ANSI)
 70
     0
 62
     7
  6
Continuous
370
    18
390
F
  0
LAYER
  5
125
330
2
100
AcDbSymbolTableRecord
100
AcDbLayerTableRecord
  2
Dimension (ANSI)
 70
     0
 62
     7
  6
Continuous
370
    13
390
F
  0
LAYER
  5
127
330
2
100
AcDbSymbolTableRecord
100
AcDbLayerTableRecord
  2
Hidden (ANSI)
 70
     0
 62
     7
  6
DASHED
370
    15
390
F
  0
LAYER
  5
130
330
2
100
AcDbSymbolTableRecord
100
AcDbLayerTableRecord
  2
Visible (ANSI)
 70
     0
 62
     7
  6
Continuous
370
    13
390
F
  0
LAYER
  5
131
330
2
100
AcDbSymbolTableRecord
100
AcDbLayerTableRecord
  2
Visible Narrow (ANSI)
 70
     0
 62
     7
  6
Continuous
370
    18
390
F
  0
LAYER
  5
259
330
2
100
AcDbSymbolTableRecord
100
AcDbLayerTableRecord
  2
Defpoints
 70
     0
 62
     7
  6
Continuous
290
     0
370
    -3
390
F
  0
ENDTAB
  0
TABLE
  2
STYLE
  5
3
330
0
100
AcDbSymbolTable
 70
    18
  0
STYLE
  5
55
330
3
100
AcDbSymbolTableRecord
100
AcDbTextStyleTableRecord
  2
Standard
 70
     0
 40
0.0
 41
1.0
 50
0.0
 71
     0
 42
0.2
  3
txt
  4

  0
STYLE
  5
5A
330
3
100
AcDbSymbolTableRecord
100
AcDbTextStyleTableRecord
  2
Annotative
 70
     0
 40
0.0
 41
1.0
 50
0.0
 71
     0
 42
0.2
  3
txt
  4

1001
AcadAnnotative
1000
AnnotativeData
1002
{
1070
     1
1070
     1
1002
}
  0
STYLE
  5
76
330
3
100
AcDbSymbolTableRecord
100
AcDbTextStyleTableRecord
  2
Note Text (ANSI)
 70
     0
 40
0.0
 41
1.0
 50
0.0
 71
     0
 42
0.2
  3
TAHOMA.TTF
  4

1001
ACAD
1000
Tahoma
1071
      256
  0
STYLE
  5
78
330
3
100
AcDbSymbolTableRecord
100
AcDbTextStyleTableRecord
  2
SANSSERIF
 70
     0
 40
0.125
 41
1.0
 50
0.0
 71
     0
 42
0.125
  3
sas_____.pfb
  4

  0
STYLE
  5
114
330
3
100
AcDbSymbolTableRecord
100
AcDbTextStyleTableRecord
  2

 70
     1
 40
0.0
 41
1.0
 50
0.0
 71
     0
 42
0.2
  3
ltypeshp.shx
  4

  0
STYLE
  5
135
330
3
100
AcDbSymbolTableRecord
100
AcDbTextStyleTableRecord
  2
ITALICC_120
 70
     0
 40
0.0
 41
1.0
 50
0.0
 71
     0
 42
0.2
  3
italicc.shx
  4

  0
STYLE
  5
136
330
3
100
AcDbSymbolTableRecord
100
AcDbTextStyleTableRecord
  2
Label Text (ANSI)
 70
     0
 40
0.0
 41
1.0
 50
0.0
 71
     0
 42
0.2
  3
TAHOMA.TTF
  4

1001
ACAD
1000
Tahoma
1071
      256
  0
STYLE
  5
137
330
3
100
AcDbSymbolTableRecord
100
AcDbTextStyleTableRecord
  2
ROMANS
 70
     0
 40
0.0
 41
1.0
 50
0.0
 71
     0
 42
0.2
  3
romans.shx
  4

  0
STYLE
  5
138
330
3
100
AcDbSymbolTableRecord
100
AcDbTextStyleTableRecord
  2
SANSSERIF_114
 70
     0
 40
0.0
 41
1.0
 50
0.0
 71
     0
 42
0.2
  3
TAHOMA.TTF
  4

1001
ACAD
1000
Tahoma
1071
      256
  0
STYLE
  5
139
330
3
100
AcDbSymbolTableRecord
100
AcDbTextStyleTableRecord
  2
SANSSERIF_117
 70
     0
 40
0.0
 41
1.0
 50
0.0
 71
     0
 42
0.2
  3
TAHOMA.TTF
  4

1001
ACAD
1000
Tahoma
1071
      256
  0
STYLE
  5
13A
330
3
100
AcDbSymbolTableRecord
100
AcDbTextStyleTableRecord
  2
STANDARDAM_ANSI
 70
     0
 40
0.0
 41
1.0
 50
0.0
 71
     0
 42
0.2
  3
txt.shx
  4

  0
STYLE
  5
13B
330
3
100
AcDbSymbolTableRecord
100
AcDbTextStyleTableRecord
  2
StandardAM_ANSI$0
 70
     0
 40
0.0
 41
1.0
 50
0.0
 71
     0
 42
0.2
  3
txt.shx
  4

  0
STYLE
  5
13C
330
3
100
AcDbSymbolTableRecord
100
AcDbTextStyleTableRecord
  2
STANDARDAM_ANSI$3
 70
     0
 40
0.0
 41
1.0
 50
0.0
 71
     0
 42
0.2
  3
txt.shx
  4

  0
STYLE
  5
13D
330
3
100
AcDbSymbolTableRecord
100
AcDbTextStyleTableRecord
  2
STANDARDAM_ANSI$4
 70
     0
 40
0.0
 41
1.0
 50
0.0
 71
     0
 42
0.2
  3
txt.shx
  4

  0
STYLE
  5
13E
330
3
100
AcDbSymbolTableRecord
100
AcDbTextStyleTableRecord
  2
STANDARDAM_ANSI$7
 70
     0
 40
0.0
 41
1.0
 50
0.0
 71
     0
 42
0.2
  3
txt.shx
  4

  0
STYLE
  5
13F
330
3
100
AcDbSymbolTableRecord
100
AcDbTextStyleTableRecord
  2
STANDARDAM_ANSI$SF
 70
     0
 40
0.0
 41
1.0
 50
0.0
 71
     0
 42
0.2
  3
txt.shx
  4

  0
STYLE
  5
140
330
3
100
AcDbSymbolTableRecord
100
AcDbTextStyleTableRecord
  2
STANDARDAM_ANSI$SH
 70
     0
 40
0.0
 41
1.0
 50
0.0
 71
     0
 42
0.2
  3
txt.shx
  4

  0
STYLE
  5
141
330
3
100
AcDbSymbolTableRecord
100
AcDbTextStyleTableRecord
  2
STANDARDSTANDARD
 70
     0
 40
0.0
 41
1.0
 50
0.0
 71
     0
 42
0.2
  3
txt.shx
  4

  0
ENDTAB
  0
TABLE
  2
VIEW
  5
6
330
0
100
AcDbSymbolTable
 70
     0
  0
ENDTAB
  0
TABLE
  2
UCS
  5
7
330
0
100
AcDbSymbolTable
 70
     0
  0
ENDTAB
  0
TABLE
  2
APPID
  5
9
330
0
100
AcDbSymbolTable
 70
     4
  0
APPID
  5
56
330
9
100
AcDbSymbolTableRecord
100
AcDbRegAppTableRecord
  2
ACAD
 70
     0
  0
APPID
  5
5E
330
9
100
AcDbSymbolTableRecord
100
AcDbRegAppTableRecord
  2
AcadAnnotative
 70
     0
  0
APPID
  5
C5B
330
9
100
AcDbSymbolTableRecord
100
AcDbRegAppTableRecord
  2
ACAD_DSTYLE_DIMRADIAL_EXTENSION
 70
     0
  0
APPID
  5
E64
330
9
100
AcDbSymbolTableRecord
100
AcDbRegAppTableRecord
  2
ACAD_MLEADERVER
 70
     0
  0
ENDTAB
  0
TABLE
  2
DIMSTYLE
  5
A
330
0
100
AcDbSymbolTable
 70
    27
100
AcDbDimStyleTable
 71
     2
340
156
340
58
  0
DIMSTYLE
105
58
330
A
100
AcDbSymbolTableRecord
100
AcDbDimStyleTableRecord
  2
STANDARD
 70
     0
 41
0.1800000071525573
 42
0.0625
140
0.1800000071525574
144
1.0
147
0.0900000035762787
176
   256
177
   256
178
   256
274
     3
340
55
371
    -1
372
    -1
  0
DIMSTYLE
105
59
330
A
100
AcDbSymbolTableRecord
100
AcDbDimStyleTableRecord
  2
Annotative
 70
     0
340
55
1001
AcadAnnotative
1000
AnnotativeData
1002
{
1070
     1
1070
     1
1002
}
  0
DIMSTYLE
105
142
330
A
100
AcDbSymbolTableRecord
100
AcDbDimStyleTableRecord
  2
AM_ANSI
 70
     0
  4
 mm
 40
6.666666666666666
 41
0.119999997317791
 42
0.05
 43
0.5
 44
0.1
 45
0.00000001
 78
     4
 79
     2
140
0.1200000047683716
146
0.7099999453624112
147
0.0599999986588955
176
   256
177
   256
178
     2
284
     4
340
13A
371
    -1
372
    -1
  0
DIMSTYLE
105
143
330
A
100
AcDbSymbolTableRecord
100
AcDbDimStyleTableRecord
  2
AM_ANSI$7
 70
     0
  4
 mm
 40
6.666666666666666
 41
0.119999997317791
 42
0.05
 43
0.5
 44
0.1
 45
0.00000001
 78
     4
 79
     2
140
0.1200000047683716
146
0.7099999453624112
147
0.0599999986588955
176
   256
177
   256
178
     2
284
     4
340
13A
371
    -1
372
    -1
  0
DIMSTYLE
105
144
330
A
100
AcDbSymbolTableRecord
100
AcDbDimStyleTableRecord
  2
AM_ANSI$0
 70
     0
  4
 mm
 40
6.666666666666666
 41
0.119999997317791
 42
0.05
 43
0.5
 44
0.1
 45
0.00000001
 78
     4
 79
     2
140
0.1200000047683716
146
0.7099999453624112
147
0.0599999986588955
176
   256
177
   256
178
     2
284
     4
340
13B
371
    -1
372
    -1
  0
DIMSTYLE
105
145
330
A
100
AcDbSymbolTableRecord
100
AcDbDimStyleTableRecord
  2
AM_ANSI$0$7
 70
     0
  4
 mm
 40
6.666666666666666
 41
0.119999997317791
 42
0.05
 43
0.5
 44
0.1
 45
0.00000001
 78
     4
 79
     2
140
0.1200000047683716
146
0.7099999453624112
147
0.0599999986588955
176
   256
177
   256
178
     2
284
     4
340
13B
371
    -1
372
    -1
  0
DIMSTYLE
105
146
330
A
100
AcDbSymbolTableRecord
100
AcDbDimStyleTableRecord
  2
AM_ANSI$3
 70
     0
  4
 mm
 40
6.666666666666666
 41
0.119999997317791
 42
0.05
 43
0.5
 44
0.1
 45
0.00000001
 78
     4
 79
     2
140
0.1200000047683716
146
0.7099999453624112
147
0.0599999986588955
176
   256
177
   256
178
     2
284
     4
340
13C
371
    -1
372
    -1
  0
DIMSTYLE
105
147
330
A
100
AcDbSymbolTableRecord
100
AcDbDimStyleTableRecord
  2
AM_ANSI$3$7
 70
     0
  4
 mm
 40
6.666666666666666
 41
0.119999997317791
 42
0.05
 43
0.5
 44
0.1
 45
0.00000001
 78
     4
 79
     2
140
0.1200000047683716
146
0.7099999453624112
147
0.0599999986588955
176
   256
177
   256
178
     2
284
     4
340
13C
371
    -1
372
    -1
  0
DIMSTYLE
105
148
330
A
100
AcDbSymbolTableRecord
100
AcDbDimStyleTableRecord
  2
AM_ANSI$4
 70
     0
  4
 mm
 40
6.666666666666666
 41
0.119999997317791
 42
0.05
 43
0.5
 44
0.1
 45
0.00000001
 78
     4
 79
     2
140
0.1200000047683716
146
0.7099999453624112
147
0.0599999986588955
176
   256
177
   256
178
     2
284
     4
340
13D
371
    -1
372
    -1
  0
DIMSTYLE
105
149
330
A
100
AcDbSymbolTableRecord
100
AcDbDimStyleTableRecord
  2
AM_ANSI$4$7
 70
     0
  4
 mm
 40
6.666666666666666
 41
0.119999997317791
 42
0.05
 43
0.5
 44
0.1
 45
0.00000001
 78
     4
 79
     2
140
0.1200000047683716
146
0.7099999453624112
147
0.0599999986588955
176
   256
177
   256
178
     2
284
     4
340
13D
371
    -1
372
    -1
  0
DIMSTYLE
105
14A
330
A
100
AcDbSymbolTableRecord
100
AcDbDimStyleTableRecord
  2
AM_ANSI$SF
 70
     0
  4
 mm
 40
6.666666666666666
 41
0.119999997317791
 42
0.05
 43
0.5
 44
0.1
 45
0.00000001
 75
     1
 76
     1
 78
     4
 79
     2
140
0.1200000047683716
146
0.7099999453624112
147
0.0599999986588955
176
   256
177
   256
178
     2
284
     4
340
13F
371
    -1
372
    -1
  0
DIMSTYLE
105
14B
330
A
100
AcDbSymbolTableRecord
100
AcDbDimStyleTableRecord
  2
AM_ANSI$SF$7
 70
     0
  4
 mm
 40
6.666666666666666
 41
0.119999997317791
 42
0.05
 43
0.5
 44
0.1
 45
0.00000001
 75
     1
 76
     1
 78
     4
 79
     2
140
0.1200000047683716
146
0.7099999453624112
147
0.0599999986588955
176
   256
177
   256
178
     2
284
     4
340
13F
371
    -1
372
    -1
  0
DIMSTYLE
105
14C
330
A
100
AcDbSymbolTableRecord
100
AcDbDimStyleTableRecord
  2
AM_ANSI$SH
 70
     0
  4
 mm
 40
6.666666666666666
 41
0.119999997317791
 42
0.05
 43
0.5
 44
0.1
 45
0.00000001
 75
     1
 76
     1
 78
     4
 79
     2
140
0.1200000047683716
146
0.7099999453624112
147
0.0599999986588955
176
   256
177
   256
178
     2
284
     4
340
140
371
    -1
372
    -1
  0
DIMSTYLE
105
14D
330
A
100
AcDbSymbolTableRecord
100
AcDbDimStyleTableRecord
  2
AM_ANSI$SH$7
 70
     0
  4
 mm
 40
6.666666666666666
 41
0.119999997317791
 42
0.05
 43
0.5
 44
0.1
 45
0.00000001
 75
     1
 76
     1
 78
     4
 79
     2
140
0.1200000047683716
146
0.7099999453624112
147
0.0599999986588955
176
   256
177
   256
178
     2
284
     4
340
140
371
    -1
372
    -1
  0
DIMSTYLE
105
14E
330
A
100
AcDbSymbolTableRecord
100
AcDbDimStyleTableRecord
  2
Architectural (ANSI)
 70
     0
 40
6.666666666666666
 41
0.0984251946210861
 43
0.2362204724409449
 44
0.125
 45
0.00000001
 46
0.3937007874015748
 78
     3
 79
     3
140
0.1200000047683716
147
0.031496062992126
171
     1
176
   256
177
   256
178
   256
272
     2
274
     1
276
     2
277
     4
284
    12
285
     4
286
    12
340
76
371
    -1
372
    -1
  0
DIMSTYLE
105
14F
330
A
100
AcDbSymbolTableRecord
100
AcDbDimStyleTableRecord
  2
Architectural (ANSI)$7
 70
     0
 40
6.666666666666666
 41
0.0984251946210861
 43
0.2362204724409449
 44
0.125
 45
0.00000001
 46
0.3937007874015748
 78
     3
 79
     3
140
0.1200000047683716
147
0.031496062992126
171
     1
176
   256
177
   256
178
   256
272
     2
274
     1
276
     2
277
     4
284
    12
285
     4
286
    12
340
76
371
    -1
372
    -1
  0
DIMSTYLE
105
150
330
A
100
AcDbSymbolTableRecord
100
AcDbDimStyleTableRecord
  2
Default - Fraction (ANSI)
 70
     0
 40
6.666666666666666
 41
0.0984251946210861
 43
0.2362204724409449
 44
0.125
 45
0.00000001
 46
0.3937007874015748
 79
     3
140
0.1200000047683716
147
0.031496062992126
171
     1
176
   256
177
   256
178
   256
272
     2
274
     1
276
     2
277
     5
284
    12
285
     4
286
    12
340
76
371
    -1
372
    -1
  0
DIMSTYLE
105
151
330
A
100
AcDbSymbolTableRecord
100
AcDbDimStyleTableRecord
  2
Default - Fraction (ANSI)$7
 70
     0
 40
6.666666666666666
 41
0.0984251946210861
 43
0.2362204724409449
 44
0.125
 45
0.00000001
 46
0.3937007874015748
 79
     3
140
0.1200000047683716
147
0.031496062992126
171
     1
176
   256
177
   256
178
   256
272
     2
274
     1
276
     2
277
     5
284
    12
285
     4
286
    12
340
76
371
    -1
372
    -1
  0
DIMSTYLE
105
152
330
A
100
AcDbSymbolTableRecord
100
AcDbDimStyleTableRecord
  2
Default - mm (ANSI)
 70
     0
 40
6.666666666666666
 41
0.0984251946210861
 42
0.063
 43
0.2362204724409449
 44
0.125
 45
0.00000001
 46
0.3937007874015748
 73
     0
 78
     4
 79
     1
140
0.1200000047683716
143
1.0
144
25.4
147
0.031496062992126
171
     1
176
   256
177
   256
178
   256
179
     1
271
     2
272
     2
274
     1
284
     4
285
     4
340
76
371
    -1
372
    -1
  0
DIMSTYLE
105
153
330
A
100
AcDbSymbolTableRecord
100
AcDbDimStyleTableRecord
  2
Default - mm (ANSI)$7
 70
     0
 40
6.666666666666666
 41
0.0984251946210861
 42
0.063
 43
0.2362204724409449
 44
0.125
 45
0.00000001
 46
0.3937007874015748
 73
     0
 78
     4
 79
     1
140
0.1200000047683716
143
1.0
144
25.4
147
0.031496062992126
171
     1
176
   256
177
   256
178
   256
179
     1
271
     2
272
     2
274
     1
284
     4
285
     4
340
76
371
    -1
372
    -1
  0
DIMSTYLE
105
154
330
A
100
AcDbSymbolTableRecord
100
AcDbDimStyleTableRecord
  2
Default - mm [in] (ANSI)
 70
     0
  4
 in
 40
6.666666666666666
 41
0.0984251946210861
 42
0.063
 43
0.25
 44
0.125
 45
0.00000001
 46
0.3937007874015748
 73
     0
 78
     4
 79
     1
140
0.1200000047683716
143
0.03937
144
25.4
147
0.031496062992126
170
     1
171
     3
176
   256
177
   256
178
   256
179
     1
271
     2
272
     2
274
     3
284
     4
285
     4
286
     4
340
76
371
    -1
372
    -1
  0
DIMSTYLE
105
155
330
A
100
AcDbSymbolTableRecord
100
AcDbDimStyleTableRecord
  2
Default - mm [in] (ANSI)$7
 70
     0
  4
 in
 40
6.666666666666666
 41
0.0984251946210861
 42
0.063
 43
0.25
 44
0.125
 45
0.00000001
 46
0.3937007874015748
 73
     0
 78
     4
 79
     1
140
0.1200000047683716
143
0.03937
144
25.4
147
0.031496062992126
170
     1
171
     3
176
   256
177
   256
178
   256
179
     1
271
     2
272
     2
274
     3
284
     4
285
     4
286
     4
340
76
371
    -1
372
    -1
  0
DIMSTYLE
105
156
102
{ACAD_REACTORS
330
257
330
344
330
42E
330
52E
330
62E
330
718
330
802
330
8EC
330
9D8
330
AD8
330
BC2
330
C7C
330
D35
102
}
330
A
100
AcDbSymbolTableRecord
100
AcDbDimStyleTableRecord
  2
Default (ANSI)
 70
     0
 40
6.666666666666666
 41
0.0984251946210861
 43
0.2362204724409449
 44
0.125
 45
0.00000001
 46
0.3937007874015748
 79
     1
140
0.1200000047683716
147
0.031496062992126
171
     1
176
   256
177
   256
178
   256
271
     2
272
     2
274
     1
284
     4
285
     4
340
76
371
    -1
372
    -1
  0
DIMSTYLE
105
157
330
A
100
AcDbSymbolTableRecord
100
AcDbDimStyleTableRecord
  2
Default (ANSI)$7
 70
     0
 40
6.666666666666666
 41
0.0984251946210861
 43
0.2362204724409449
 44
0.125
 45
0.00000001
 46
0.3937007874015748
 79
     1
140
0.1200000047683716
147
0.031496062992126
171
     1
176
   256
177
   256
178
   256
271
     2
272
     2
274
     1
284
     4
285
     4
340
76
371
    -1
372
    -1
  0
DIMSTYLE
105
158
330
A
100
AcDbSymbolTableRecord
100
AcDbDimStyleTableRecord
  2
Alternate (ANSI)
 70
     0
 40
6.666666666666666
 41
0.0979999974370003
340
55
342
159
  0
DIMSTYLE
105
16B
330
A
100
AcDbSymbolTableRecord
100
AcDbDimStyleTableRecord
  2
Datum (ANSI)
 70
     0
 40
6.666666666666666
 41
0.0979999974370003
340
55
342
159
  0
DIMSTYLE
105
17A
330
A
100
AcDbSymbolTableRecord
100
AcDbDimStyleTableRecord
  2
Large (ANSI)
 70
     0
 40
6.666666666666666
 41
0.1959999948740005
340
55
342
159
  0
ENDTAB
  0
TABLE
  2
BLOCK_RECORD
  5
1
330
0
100
AcDbSymbolTable
 70
    17
  0
BLOCK_RECORD
  5
6C
330
1
100
AcDbSymbolTableRecord
100
AcDbBlockTableRecord
  2
*Model_Space
340
6F
  0
BLOCK_RECORD
  5
68
330
1
100
AcDbSymbolTableRecord
100
AcDbBlockTableRecord
  2
*Paper_Space
340
6B
  0
BLOCK_RECORD
  5
70
330
1
100
AcDbSymbolTableRecord
100
AcDbBlockTableRecord
  2
*Paper_Space0
340
73
  0
BLOCK_RECORD
  5
159
330
1
100
AcDbSymbolTableRecord
100
AcDbBlockTableRecord
  2
_Closed
340
0
  0
BLOCK_RECORD
  5
160
330
1
100
AcDbSymbolTableRecord
100
AcDbBlockTableRecord
  2
DatumFilled45
340
0
  0
BLOCK_RECORD
  5
16C
330
1
100
AcDbSymbolTableRecord
100
AcDbBlockTableRecord
  2
Filled-1
340
0
  0
BLOCK_RECORD
  5
25A
330
1
100
AcDbSymbolTableRecord
100
AcDbBlockTableRecord
  2
*D4
340
0
  0
BLOCK_RECORD
  5
345
330
1
100
AcDbSymbolTableRecord
100
AcDbBlockTableRecord
  2
*D5
340
0
  0
BLOCK_RECORD
  5
42F
330
1
100
AcDbSymbolTableRecord
100
AcDbBlockTableRecord
  2
*D6
340
0
  0
BLOCK_RECORD
  5
52F
330
1
100
AcDbSymbolTableRecord
100
AcDbBlockTableRecord
  2
*D7
340
0
  0
BLOCK_RECORD
  5
62F
330
1
100
AcDbSymbolTableRecord
100
AcDbBlockTableRecord
  2
*D8
340
0
  0
BLOCK_RECORD
  5
719
330
1
100
AcDbSymbolTableRecord
100
AcDbBlockTableRecord
  2
*D9
340
0
  0
BLOCK_RECORD
  5
803
330
1
100
AcDbSymbolTableRecord
100
AcDbBlockTableRecord
  2
*D10
340
0
  0
BLOCK_RECORD
  5
8ED
330
1
100
AcDbSymbolTableRecord
100
AcDbBlockTableRecord
  2
*D11
340
0
  0
BLOCK_RECORD
  5
9D9
330
1
100
AcDbSymbolTableRecord
100
AcDbBlockTableRecord
  2
*D12
340
0
  0
BLOCK_RECORD
  5
AD9
330
1
100
AcDbSymbolTableRecord
100
AcDbBlockTableRecord
  2
*D13
340
0
  0
BLOCK_RECORD
  5
BC3
330
1
100
AcDbSymbolTableRecord
100
AcDbBlockTableRecord
  2
*D14
340
0
  0
BLOCK_RECORD
  5
C7D
330
1
100
AcDbSymbolTableRecord
100
AcDbBlockTableRecord
  2
*D15
340
0
  0
BLOCK_RECORD
  5
D36
330
1
100
AcDbSymbolTableRecord
100
AcDbBlockTableRecord
  2
*D16
340
0
  0
ENDTAB
  0
ENDSEC
  0
SECTION
  2
BLOCKS
  0
BLOCK
  5
6D
330
6C
100
AcDbEntity
  8
0
100
AcDbBlockBegin
  2
*Model_Space
 70
     0
 10
0.0
 20
0.0
 30
0.0
  3
*Model_Space
  1

  0
ENDBLK
  5
6E
330
6C
100
AcDbEntity
  8
0
100
AcDbBlockEnd
  0
BLOCK
  5
69
330
68
100
AcDbEntity
 67
     1
  8
0
100
AcDbBlockBegin
  2
*Paper_Space
 70
     0
 10
0.0
 20
0.0
 30
0.0
  3
*Paper_Space
  1

  0
ENDBLK
  5
6A
330
68
100
AcDbEntity
 67
     1
  8
0
100
AcDbBlockEnd
  0
BLOCK
  5
71
330
70
100
AcDbEntity
 67
     1
  8
0
100
AcDbBlockBegin
  2
*Paper_Space0
 70
     0
 10
0.0
 20
0.0
 30
0.0
  3
*Paper_Space0
  1

  0
ENDBLK
  5
72
330
70
100
AcDbEntity
 67
     1
  8
0
100
AcDbBlockEnd
  0
BLOCK
  5
15E
330
159
100
AcDbEntity
  8
0
100
AcDbBlockBegin
  2
_Closed
 70
     0
 10
0.0
 20
0.0
 30
0.0
  3
_Closed
  1

  0
LINE
  5
15A
330
159
100
AcDbEntity
  8
0
  6
ByBlock
 62
     0
370
    -2
100
AcDbLine
 10
-1.0
 20
0.1666666666666666
 30
0.0
 11
0.0
 21
0.0
 31
0.0
  0
LINE
  5
15B
330
159
100
AcDbEntity
  8
0
  6
ByBlock
 62
     0
370
    -2
100
AcDbLine
 10
0.0
 20
0.0
 30
0.0
 11
-1.0
 21
-0.1666666666666666
 31
0.0
  0
LINE
  5
15C
330
159
100
AcDbEntity
  8
0
  6
ByBlock
 62
     0
370
    -2
100
AcDbLine
 10
-1.0
 20
0.1666666666666666
 30
0.0
 11
-1.0
 21
-0.1666666666666666
 31
0.0
  0
LINE
  5
15D
330
159
100
AcDbEntity
  8
0
  6
ByBlock
 62
     0
370
    -2
100
AcDbLine
 10
0.0
 20
0.0
 30
0.0
 11
-1.0
 21
0.0
 31
0.0
  0
ENDBLK
  5
15F
330
159
100
AcDbEntity
  8
0
100
AcDbBlockEnd
  0
BLOCK
  5
161
330
160
100
AcDbEntity
  8
0
100
AcDbBlockBegin
  2
DatumFilled45
 70
     0
 10
0.0
 20
0.0
 30
0.0
  3
DatumFilled45
  1

  0
POLYLINE
  5
163
330
160
100
AcDbEntity
  8
0
 62
     0
100
AcDb2dPolyline
 66
     1
 10
0.0
 20
0.0
 30
0.0
 70
   128
  0
VERTEX
  5
164
330
163
100
AcDbEntity
  8
0
 62
     0
100
AcDbVertex
100
AcDb2dVertex
 10
0.0
 20
0.9999999999999998
 30
0.0
  0
VERTEX
  5
165
330
163
100
AcDbEntity
  8
0
 62
     0
100
AcDbVertex
100
AcDb2dVertex
 10
0.0
 20
-0.9999999999999998
 30
0.0
  0
VERTEX
  5
167
330
163
100
AcDbEntity
  8
0
 62
     0
100
AcDbVertex
100
AcDb2dVertex
 10
-0.9999999999999998
 20
0.0
 30
0.0
  0
VERTEX
  5
168
330
163
100
AcDbEntity
  8
0
 62
     0
100
AcDbVertex
100
AcDb2dVertex
 10
0.0
 20
0.9999999999999998
 30
0.0
  0
SEQEND
  5
166
330
163
100
AcDbEntity
  8
0
 62
     0
  0
SOLID
  5
16A
330
160
100
AcDbEntity
  8
0
 62
     0
100
AcDbTrace
 10
0.0
 20
0.9999999999999998
 30
0.0
 11
0.0
 21
-0.9999999999999998
 31
0.0
 12
-0.9999999999999998
 22
0.0
 32
0.0
 13
0.0
 23
0.9999999999999998
 33
0.0
  0
ENDBLK
  5
162
330
160
100
AcDbEntity
  8
0
100
AcDbBlockEnd
  0
BLOCK
  5
16D
330
16C
100
AcDbEntity
  8
0
100
AcDbBlockBegin
  2
Filled-1
 70
     0
 10
0.0
 20
0.0
 30
0.0
  3
Filled-1
  1

  0
LINE
  5
16F
330
16C
100
AcDbEntity
  8
0
 62
     0
100
AcDbLine
 10
-0.9999999999999998
 20
0.0
 30
0.0
 11
0.0
 21
0.0
 31
0.0
  0
POLYLINE
  5
170
330
16C
100
AcDbEntity
  8
0
 62
     0
100
AcDb2dPolyline
 66
     1
 10
0.0
 20
0.0
 30
0.0
 70
   128
  0
VERTEX
  5
171
330
170
100
AcDbEntity
  8
0
 62
     0
100
AcDbVertex
100
AcDb2dVertex
 10
-0.9999999999999998
 20
-0.0994897959183674
 30
0.0
  0
VERTEX
  5
172
330
170
100
AcDbEntity
  8
0
 62
     0
100
AcDbVertex
100
AcDb2dVertex
 10
0.0
 20
0.0
 30
0.0
  0
VERTEX
  5
174
330
170
100
AcDbEntity
  8
0
 62
     0
100
AcDbVertex
100
AcDb2dVertex
 10
-0.9999999999999998
 20
0.0994897959183674
 30
0.0
  0
VERTEX
  5
175
330
170
100
AcDbEntity
  8
0
 62
     0
100
AcDbVertex
100
AcDb2dVertex
 10
-0.9999999999999998
 20
-0.0994897959183674
 30
0.0
  0
SEQEND
  5
173
330
170
100
AcDbEntity
  8
0
 62
     0
  0
SOLID
  5
176
330
16C
100
AcDbEntity
  8
0
 62
     0
100
AcDbTrace
 10
-0.9999999999999998
 20
-0.0994897959183674
 30
0.0
 11
0.0
 21
0.0
 31
0.0
 12
-0.9999999999999998
 22
0.0994897959183674
 32
0.0
 13
-0.9999999999999998
 23
-0.0994897959183674
 33
0.0
  0
LINE
  5
177
330
16C
100
AcDbEntity
  8
0
 62
     0
100
AcDbLine
 10
-0.9999999999999998
 20
-0.0994897959183674
 30
0.0
 11
0.0
 21
0.0
 31
0.0
  0
LINE
  5
178
330
16C
100
AcDbEntity
  8
0
 62
     0
100
AcDbLine
 10
0.0
 20
0.0
 30
0.0
 11
-0.9999999999999998
 21
0.0994897959183674
 31
0.0
  0
LINE
  5
179
330
16C
100
AcDbEntity
  8
0
 62
     0
100
AcDbLine
 10
-0.9999999999999998
 20
0.0994897959183674
 30
0.0
 11
-0.9999999999999998
 21
-0.0994897959183674
 31
0.0
  0
ENDBLK
  5
16E
330
16C
100
AcDbEntity
  8
0
100
AcDbBlockEnd
  0
BLOCK
  5
25B
330
25A
100
AcDbEntity
  8
0
100
AcDbBlockBegin
  2
*D4
 70
     1
 10
0.0
 20
0.0
 30
0.0
  3
*D4
  1

  0
LINE
  5
33A
330
25A
100
AcDbEntity
  8
Dimension (ANSI)
100
AcDbLine
 10
20.13000343673477
 20
18.85184830043718
 30
0.0
 11
8.689714722824005
 21
18.85184830043718
 31
0.0
  0
LINE
  5
33B
330
25A
100
AcDbEntity
  8
Dimension (ANSI)
100
AcDbLine
 10
20.13000343673475
 20
59.05184830043718
 30
0.0
 11
8.689714722824014
 21
59.05184830043719
 31
0.0
  0
LINE
  5
33C
330
25A
100
AcDbEntity
  8
Dimension (ANSI)
100
AcDbLine
 10
9.523048056157339
 20
19.50801626457775
 30
0.0
 11
9.523048056157344
 21
38.32521905712781
 31
0.0
  0
LINE
  5
33D
330
25A
100
AcDbEntity
  8
Dimension (ANSI)
100
AcDbLine
 10
9.523048056157348
 20
58.39568033629661
 30
0.0
 11
9.523048056157344
 21
39.57847754374654
 31
0.0
  0
SOLID
  5
33E
330
25A
100
AcDbEntity
  8
Dimension (ANSI)
100
AcDbTrace
 10
9.413686728800577
 20
19.50801626457775
 30
0.0
 11
9.632409383514101
 21
19.50801626457775
 31
0.0
 12
9.523048056157339
 22
18.85184830043718
 32
0.0
 13
9.523048056157339
 23
18.85184830043718
 33
0.0
  0
SOLID
  5
33F
330
25A
100
AcDbEntity
  8
Dimension (ANSI)
100
AcDbTrace
 10
9.413686728800586
 20
58.39568033629661
 30
0.0
 11
9.63240938351411
 21
58.39568033629661
 31
0.0
 12
9.523048056157348
 22
59.05184830043719
 32
0.0
 13
9.523048056157348
 23
59.05184830043719
 33
0.0
  0
MTEXT
  5
340
330
25A
100
AcDbEntity
  8
Dimension (ANSI)
100
AcDbMText
 10
8.188192395324477
 20
39.36850379046571
 30
0.0
 40
0.8000000317891439
 41
0.0
 71
     1
 72
     1
  1
\A1;40.20
  7
Note Text (ANSI)
 73
     1
 44
1.0
1001
ACAD
1000
MTEXTBEGIN
1070
    73
1070
     1
1070
    44
1040
1.0
1070
    74
1070
     0
1000
MTEXTEND
  0
POINT
  5
341
330
25A
100
AcDbEntity
  8
Defpoints
 62
     0
100
AcDbPoint
 10
20.54667010340143
 20
18.85184830043718
 30
0.0
  0
POINT
  5
342
330
25A
100
AcDbEntity
  8
Defpoints
 62
     0
100
AcDbPoint
 10
20.54667010340142
 20
59.05184830043718
 30
0.0
  0
POINT
  5
343
330
25A
100
AcDbEntity
  8
Defpoints
 62
     0
100
AcDbPoint
 10
9.523048056157348
 20
59.05184830043719
 30
0.0
  0
ENDBLK
  5
25C
330
25A
100
AcDbEntity
  8
0
100
AcDbBlockEnd
  0
BLOCK
  5
346
330
345
100
AcDbEntity
  8
0
100
AcDbBlockBegin
  2
*D5
 70
     1
 10
0.0
 20
0.0
 30
0.0
  3
*D5
  1

  0
LINE
  5
424
330
345
100
AcDbEntity
  8
Dimension (ANSI)
100
AcDbLine
 10
20.04667010340142
 20
58.96851496710384
 30
0.0
 11
20.04667010340142
 21
65.68439423219571
 31
0.0
  0
LINE
  5
425
330
345
100
AcDbEntity
  8
Dimension (ANSI)
100
AcDbLine
 10
48.24667010340142
 20
58.96851496710384
 30
0.0
 11
48.24667010340142
 21
65.68439423219571
 31
0.0
  0
LINE
  5
426
330
345
100
AcDbEntity
  8
Dimension (ANSI)
100
AcDbLine
 10
20.702838067542
 20
64.85106089886238
 30
0.0
 11
32.62037662017873
 21
64.85106089886238
 31
0.0
  0
LINE
  5
427
330
345
100
AcDbEntity
  8
Dimension (ANSI)
100
AcDbLine
 10
47.59050213926085
 20
64.85106089886238
 30
0.0
 11
35.67296358662409
 21
64.85106089886238
 31
0.0
  0
SOLID
  5
428
330
345
100
AcDbEntity
  8
Dimension (ANSI)
100
AcDbTrace
 10
20.702838067542
 20
64.96042222621915
 30
0.0
 11
20.702838067542
 21
64.74169957150562
 31
0.0
 12
20.04667010340142
 22
64.85106089886238
 32
0.0
 13
20.04667010340142
 23
64.85106089886238
 33
0.0
  0
SOLID
  5
429
330
345
100
AcDbEntity
  8
Dimension (ANSI)
100
AcDbTrace
 10
47.59050213926085
 20
64.96042222621915
 30
0.0
 11
47.59050213926085
 21
64.74169957150562
 31
0.0
 12
48.24667010340142
 22
64.85106089886238
 32
0.0
 13
48.24667010340142
 23
64.85106089886238
 33
0.0
  0
MTEXT
  5
42A
330
345
100
AcDbEntity
  8
Dimension (ANSI)
100
AcDbMText
 10
32.83035037345957
 20
65.26932820896838
 30
0.0
 40
0.8000000317891439
 41
0.0
 71
     1
 72
     1
  1
\A1;28.20
  7
Note Text (ANSI)
 73
     1
 44
1.0
1001
ACAD
1000
MTEXTBEGIN
1070
    73
1070
     1
1070
    44
1040
1.0
1070
    74
1070
     0
1000
MTEXTEND
  0
POINT
  5
42B
330
345
100
AcDbEntity
  8
Defpoints
 62
     0
100
AcDbPoint
 10
20.04667010340142
 20
58.55184830043718
 30
0.0
  0
POINT
  5
42C
330
345
100
AcDbEntity
  8
Defpoints
 62
     0
100
AcDbPoint
 10
48.24667010340142
 20
58.55184830043718
 30
0.0
  0
POINT
  5
42D
330
345
100
AcDbEntity
  8
Defpoints
 62
     0
100
AcDbPoint
 10
48.24667010340142
 20
64.85106089886238
 30
0.0
  0
ENDBLK
  5
347
330
345
100
AcDbEntity
  8
0
100
AcDbBlockEnd
  0
BLOCK
  5
430
330
42F
100
AcDbEntity
  8
0
100
AcDbBlockBegin
  2
*D6
 70
     1
 10
0.0
 20
0.0
 30
0.0
  3
*D6
  1

  0
LINE
  5
523
330
42F
100
AcDbEntity
  8
Dimension (ANSI)
100
AcDbLine
 10
20.15000343673476
 20
19.37184830043718
 30
0.0
 11
18.59480690824808
 21
19.37184830043718
 31
0.0
  0
LINE
  5
524
330
42F
100
AcDbEntity
  8
Dimension (ANSI)
100
AcDbLine
 10
20.15000343673476
 20
20.12184830043718
 30
0.0
 11
18.59480690824808
 21
20.12184830043718
 31
0.0
  0
LINE
  5
525
330
42F
100
AcDbEntity
  8
Dimension (ANSI)
100
AcDbLine
 10
19.42814024158141
 20
20.77801626457775
 30
0.0
 11
19.42814024158141
 21
21.43418422871833
 31
0.0
  0
LINE
  5
526
330
42F
100
AcDbEntity
  8
Dimension (ANSI)
100
AcDbLine
 10
19.42814024158141
 20
18.7156803362966
 30
0.0
 11
19.42814024158141
 21
17.46096164647175
 31
0.0
  0
LINE
  5
527
330
42F
100
AcDbEntity
  8
Dimension (ANSI)
100
AcDbLine
 10
19.42814024158141
 20
17.46096164647175
 30
0.0
 11
18.77197227744083
 21
17.46096164647175
 31
0.0
  0
SOLID
  5
528
330
42F
100
AcDbEntity
  8
Dimension (ANSI)
100
AcDbTrace
 10
19.31877891422465
 20
20.77801626457775
 30
0.0
 11
19.53750156893817
 21
20.77801626457775
 31
0.0
 12
19.42814024158141
 22
20.12184830043718
 32
0.0
 13
19.42814024158141
 23
20.12184830043718
 33
0.0
  0
SOLID
  5
529
330
42F
100
AcDbEntity
  8
Dimension (ANSI)
100
AcDbTrace
 10
19.31877891422465
 20
18.7156803362966
 30
0.0
 11
19.53750156893817
 21
18.7156803362966
 31
0.0
 12
19.42814024158141
 22
19.37184830043718
 32
0.0
 13
19.42814024158141
 23
19.37184830043718
 33
0.0
  0
MTEXT
  5
52A
330
42F
100
AcDbEntity
  8
Dimension (ANSI)
100
AcDbMText
 10
16.5289561330988
 20
17.8773484998207
 30
0.0
 40
0.8000000317891439
 41
0.0
 71
     1
 72
     1
  1
\A1;0.75
  7
Note Text (ANSI)
 73
     1
 44
1.0
1001
ACAD
1000
MTEXTBEGIN
1070
    73
1070
     1
1070
    44
1040
1.0
1070
    74
1070
     0
1000
MTEXTEND
  0
POINT
  5
52B
330
42F
100
AcDbEntity
  8
Defpoints
 62
     0
100
AcDbPoint
 10
20.56667010340143
 20
19.37184830043718
 30
0.0
  0
POINT
  5
52C
330
42F
100
AcDbEntity
  8
Defpoints
 62
     0
100
AcDbPoint
 10
20.56667010340143
 20
20.12184830043718
 30
0.0
  0
POINT
  5
52D
330
42F
100
AcDbEntity
  8
Defpoints
 62
     0
100
AcDbPoint
 10
19.42814024158141
 20
20.12184830043718
 30
0.0
  0
ENDBLK
  5
431
330
42F
100
AcDbEntity
  8
0
100
AcDbBlockEnd
  0
BLOCK
  5
530
330
52F
100
AcDbEntity
  8
0
100
AcDbBlockBegin
  2
*D7
 70
     1
 10
0.0
 20
0.0
 30
0.0
  3
*D7
  1

  0
LINE
  5
623
330
52F
100
AcDbEntity
  8
Dimension (ANSI)
100
AcDbLine
 10
48.16333677006809
 20
59.05184830043717
 30
0.0
 11
54.3842410472554
 21
59.05184830043717
 31
0.0
  0
LINE
  5
624
330
52F
100
AcDbEntity
  8
Dimension (ANSI)
100
AcDbLine
 10
48.1433367700681
 20
58.53184830043718
 30
0.0
 11
54.3842410472554
 21
58.53184830043718
 31
0.0
  0
LINE
  5
625
330
52F
100
AcDbEntity
  8
Dimension (ANSI)
100
AcDbLine
 10
53.55090771392206
 20
59.70801626457774
 30
0.0
 11
53.55090771392206
 21
60.36418422871832
 31
0.0
  0
LINE
  5
626
330
52F
100
AcDbEntity
  8
Dimension (ANSI)
100
AcDbLine
 10
53.55090771392206
 20
57.87568033629661
 30
0.0
 11
53.55090771392206
 21
56.62047542275532
 31
0.0
  0
LINE
  5
627
330
52F
100
AcDbEntity
  8
Dimension (ANSI)
100
AcDbLine
 10
53.55090771392206
 20
56.62047542275532
 30
0.0
 11
52.89473974978149
 21
56.62047542275532
 31
0.0
  0
SOLID
  5
628
330
52F
100
AcDbEntity
  8
Dimension (ANSI)
100
AcDbTrace
 10
53.44154638656529
 20
59.70801626457774
 30
0.0
 11
53.66026904127883
 21
59.70801626457774
 31
0.0
 12
53.55090771392206
 22
59.05184830043717
 32
0.0
 13
53.55090771392206
 23
59.05184830043717
 33
0.0
  0
SOLID
  5
629
330
52F
100
AcDbEntity
  8
Dimension (ANSI)
100
AcDbTrace
 10
53.44154638656529
 20
57.87568033629661
 30
0.0
 11
53.66026904127883
 21
57.87568033629661
 31
0.0
 12
53.55090771392206
 22
58.53184830043718
 32
0.0
 13
53.55090771392206
 23
58.53184830043718
 33
0.0
  0
MTEXT
  5
62A
330
52F
100
AcDbEntity
  8
Dimension (ANSI)
100
AcDbMText
 10
50.64258995833372
 20
57.03713091278387
 30
0.0
 40
0.8000000317891439
 41
0.0
 71
     1
 72
     1
  1
\A1;0.52
  7
Note Text (ANSI)
 73
     1
 44
1.0
1001
ACAD
1000
MTEXTBEGIN
1070
    73
1070
     1
1070
    44
1040
1.0
1070
    74
1070
     0
1000
MTEXTEND
  0
POINT
  5
62B
330
52F
100
AcDbEntity
  8
Defpoints
 62
     0
100
AcDbPoint
 10
47.74667010340142
 20
59.05184830043718
 30
0.0
  0
POINT
  5
62C
330
52F
100
AcDbEntity
  8
Defpoints
 62
     0
100
AcDbPoint
 10
47.72667010340143
 20
58.53184830043719
 30
0.0
  0
POINT
  5
62D
330
52F
100
AcDbEntity
  8
Defpoints
 62
     0
100
AcDbPoint
 10
53.55090771392206
 20
58.53184830043718
 30
0.0
  0
ENDBLK
  5
531
330
52F
100
AcDbEntity
  8
0
100
AcDbBlockEnd
  0
BLOCK
  5
630
330
62F
100
AcDbEntity
  8
0
100
AcDbBlockBegin
  2
*D8
 70
     1
 10
0.0
 20
0.0
 30
0.0
  3
*D8
  1

  0
LINE
  5
70E
330
62F
100
AcDbEntity
  8
Dimension (ANSI)
100
AcDbLine
 10
48.24667010340142
 20
58.96851496710384
 30
0.0
 11
48.24667010340142
 21
63.32218950778626
 31
0.0
  0
LINE
  5
70F
330
62F
100
AcDbEntity
  8
Dimension (ANSI)
100
AcDbLine
 10
47.72667010340143
 20
58.94851496710385
 30
0.0
 11
47.72667010340143
 21
63.32218950778626
 31
0.0
  0
LINE
  5
710
330
62F
100
AcDbEntity
  8
Dimension (ANSI)
100
AcDbLine
 10
47.07050213926086
 20
62.48885617445292
 30
0.0
 11
46.41433417512028
 21
62.48885617445292
 31
0.0
  0
LINE
  5
711
330
62F
100
AcDbEntity
  8
Dimension (ANSI)
100
AcDbLine
 10
48.902838067542
 20
62.48885617445292
 30
0.0
 11
49.90234580972388
 21
62.48885617445292
 31
0.0
  0
SOLID
  5
712
330
62F
100
AcDbEntity
  8
Dimension (ANSI)
100
AcDbTrace
 10
47.07050213926086
 20
62.59821750180969
 30
0.0
 11
47.07050213926086
 21
62.37949484709616
 31
0.0
 12
47.72667010340143
 22
62.48885617445292
 32
0.0
 13
47.72667010340143
 23
62.48885617445292
 33
0.0
  0
SOLID
  5
713
330
62F
100
AcDbEntity
  8
Dimension (ANSI)
100
AcDbTrace
 10
48.902838067542
 20
62.59821750180969
 30
0.0
 11
48.902838067542
 21
62.37949484709616
 31
0.0
 12
48.24667010340142
 22
62.48885617445292
 32
0.0
 13
48.24667010340142
 23
62.48885617445292
 33
0.0
  0
MTEXT
  5
714
330
62F
100
AcDbEntity
  8
Dimension (ANSI)
100
AcDbMText
 10
50.11231956300473
 20
62.90551166448146
 30
0.0
 40
0.8000000317891439
 41
0.0
 71
     1
 72
     1
  1
\A1;0.52
  7
Note Text (ANSI)
 73
     1
 44
1.0
1001
ACAD
1000
MTEXTBEGIN
1070
    73
1070
     1
1070
    44
1040
1.0
1070
    74
1070
     0
1000
MTEXTEND
  0
POINT
  5
715
330
62F
100
AcDbEntity
  8
Defpoints
 62
     0
100
AcDbPoint
 10
48.24667010340142
 20
58.55184830043718
 30
0.0
  0
POINT
  5
716
330
62F
100
AcDbEntity
  8
Defpoints
 62
     0
100
AcDbPoint
 10
47.72667010340143
 20
58.53184830043719
 30
0.0
  0
POINT
  5
717
330
62F
100
AcDbEntity
  8
Defpoints
 62
     0
100
AcDbPoint
 10
47.72667010340143
 20
62.48885617445292
 30
0.0
  0
ENDBLK
  5
631
330
62F
100
AcDbEntity
  8
0
100
AcDbBlockEnd
  0
BLOCK
  5
71A
330
719
100
AcDbEntity
  8
0
100
AcDbBlockBegin
  2
*D9
 70
     1
 10
0.0
 20
0.0
 30
0.0
  3
*D9
  1

  0
LINE
  5
7F8
330
719
100
AcDbEntity
  8
Dimension (ANSI)
100
AcDbLine
 10
20.15000343673476
 20
19.37184830043718
 30
0.0
 11
15.11696664575268
 21
19.37184830043718
 31
0.0
  0
LINE
  5
7F9
330
719
100
AcDbEntity
  8
Dimension (ANSI)
100
AcDbLine
 10
20.15000343673476
 20
38.95184830043718
 30
0.0
 11
15.11696664575268
 21
38.95184830043719
 31
0.0
  0
LINE
  5
7FA
330
719
100
AcDbEntity
  8
Dimension (ANSI)
100
AcDbLine
 10
15.95029997908601
 20
20.02801626457776
 30
0.0
 11
15.95029997908602
 21
30.03360723705033
 31
0.0
  0
LINE
  5
7FB
330
719
100
AcDbEntity
  8
Dimension (ANSI)
100
AcDbLine
 10
15.95029997908602
 20
38.29568033629661
 30
0.0
 11
15.95029997908602
 21
31.29008936382402
 31
0.0
  0
SOLID
  5
7FC
330
719
100
AcDbEntity
  8
Dimension (ANSI)
100
AcDbTrace
 10
15.84093865172925
 20
20.02801626457776
 30
0.0
 11
16.05966130644278
 21
20.02801626457776
 31
0.0
 12
15.95029997908601
 22
19.37184830043718
 32
0.0
 13
15.95029997908601
 23
19.37184830043718
 33
0.0
  0
SOLID
  5
7FD
330
719
100
AcDbEntity
  8
Dimension (ANSI)
100
AcDbTrace
 10
15.84093865172925
 20
38.29568033629661
 30
0.0
 11
16.05966130644278
 21
38.29568033629661
 31
0.0
 12
15.95029997908602
 22
38.95184830043719
 32
0.0
 13
15.95029997908602
 23
38.95184830043719
 33
0.0
  0
MTEXT
  5
7FE
330
719
100
AcDbEntity
  8
Dimension (ANSI)
100
AcDbMText
 10
14.36507493288462
 20
31.08011561054319
 30
0.0
 40
0.8000000317891439
 41
0.0
 71
     1
 72
     1
  1
\A1;19.580
  7
Note Text (ANSI)
 73
     1
 44
1.0
1001
ACAD
1000
MTEXTBEGIN
1070
    73
1070
     1
1070
    44
1040
1.0
1070
    74
1070
     0
1000
MTEXTEND
  0
POINT
  5
7FF
330
719
100
AcDbEntity
  8
Defpoints
 62
     0
100
AcDbPoint
 10
20.56667010340143
 20
19.37184830043718
 30
0.0
  0
POINT
  5
800
330
719
100
AcDbEntity
  8
Defpoints
 62
     0
100
AcDbPoint
 10
20.56667010340143
 20
38.95184830043718
 30
0.0
  0
POINT
  5
801
330
719
100
AcDbEntity
  8
Defpoints
 62
     0
100
AcDbPoint
 10
15.95029997908602
 20
38.95184830043719
 30
0.0
  0
ENDBLK
  5
71B
330
719
100
AcDbEntity
  8
0
100
AcDbBlockEnd
  0
BLOCK
  5
804
330
803
100
AcDbEntity
  8
0
100
AcDbBlockBegin
  2
*D10
 70
     1
 10
0.0
 20
0.0
 30
0.0
  3
*D10
  1

  0
LINE
  5
8E2
330
803
100
AcDbEntity
  8
Dimension (ANSI)
100
AcDbLine
 10
20.15000343673476
 20
19.37184830043718
 30
0.0
 11
12.20709247991246
 21
19.37184830043718
 31
0.0
  0
LINE
  5
8E3
330
803
100
AcDbEntity
  8
Dimension (ANSI)
100
AcDbLine
 10
20.15000343673476
 20
58.53184830043717
 30
0.0
 11
12.20709247991247
 21
58.53184830043717
 31
0.0
  0
LINE
  5
8E4
330
803
100
AcDbEntity
  8
Dimension (ANSI)
100
AcDbLine
 10
13.0404258132458
 20
20.02801626457776
 30
0.0
 11
13.04042581324581
 21
45.83007862065069
 31
0.0
  0
LINE
  5
8E5
330
803
100
AcDbEntity
  8
Dimension (ANSI)
100
AcDbLine
 10
13.04042581324581
 20
57.87568033629661
 30
0.0
 11
13.04042581324581
 21
47.08333710726942
 31
0.0
  0
SOLID
  5
8E6
330
803
100
AcDbEntity
  8
Dimension (ANSI)
100
AcDbTrace
 10
12.93106448588904
 20
20.02801626457776
 30
0.0
 11
13.14978714060256
 21
20.02801626457776
 31
0.0
 12
13.0404258132458
 22
19.37184830043718
 32
0.0
 13
13.0404258132458
 23
19.37184830043718
 33
0.0
  0
SOLID
  5
8E7
330
803
100
AcDbEntity
  8
Dimension (ANSI)
100
AcDbTrace
 10
12.93106448588904
 20
57.87568033629661
 30
0.0
 11
13.14978714060257
 21
57.87568033629661
 31
0.0
 12
13.04042581324581
 22
58.53184830043717
 32
0.0
 13
13.04042581324581
 23
58.53184830043717
 33
0.0
  0
MTEXT
  5
8E8
330
803
100
AcDbEntity
  8
Dimension (ANSI)
100
AcDbMText
 10
11.42054663537859
 20
46.87336335398859
 30
0.0
 40
0.8000000317891439
 41
0.0
 71
     1
 72
     1
  1
\A1;39.160
  7
Note Text (ANSI)
 73
     1
 44
1.0
1001
ACAD
1000
MTEXTBEGIN
1070
    73
1070
     1
1070
    44
1040
1.0
1070
    74
1070
     0
1000
MTEXTEND
  0
POINT
  5
8E9
330
803
100
AcDbEntity
  8
Defpoints
 62
     0
100
AcDbPoint
 10
20.56667010340143
 20
19.37184830043718
 30
0.0
  0
POINT
  5
8EA
330
803
100
AcDbEntity
  8
Defpoints
 62
     0
100
AcDbPoint
 10
20.56667010340143
 20
58.53184830043717
 30
0.0
  0
POINT
  5
8EB
330
803
100
AcDbEntity
  8
Defpoints
 62
     0
100
AcDbPoint
 10
13.04042581324581
 20
58.53184830043717
 30
0.0
  0
ENDBLK
  5
805
330
803
100
AcDbEntity
  8
0
100
AcDbBlockEnd
  0
BLOCK
  5
8EE
330
8ED
100
AcDbEntity
  8
0
100
AcDbBlockBegin
  2
*D11
 70
     1
 10
0.0
 20
0.0
 30
0.0
  3
*D11
  1

  0
LINE
  5
9CC
330
8ED
100
AcDbEntity
  8
Dimension (ANSI)
100
AcDbLine
 10
67.68455637942889
 20
59.46851496710384
 30
0.0
 11
67.68455637942889
 21
62.89159108258942
 31
0.0
  0
LINE
  5
9CD
330
8ED
100
AcDbEntity
  8
Dimension (ANSI)
100
AcDbLine
 10
68.45855637942904
 20
57.75051496710384
 30
0.0
 11
68.45855637942904
 21
62.89159108258942
 31
0.0
  0
LINE
  5
9CE
330
8ED
100
AcDbEntity
  8
Dimension (ANSI)
100
AcDbLine
 10
69.11472434356962
 20
62.05825774925608
 30
0.0
 11
69.77089230771018
 21
62.05825774925608
 31
0.0
  0
LINE
  5
9CF
330
8ED
100
AcDbEntity
  8
Dimension (ANSI)
100
AcDbLine
 10
67.0283884152883
 20
62.05825774925608
 30
0.0
 11
66.03317885997971
 21
62.05825774925608
 31
0.0
  0
SOLID
  5
9D0
330
8ED
100
AcDbEntity
  8
Dimension (ANSI)
100
AcDbTrace
 10
69.11472434356962
 20
62.16761907661285
 30
0.0
 11
69.11472434356962
 21
61.94889642189932
 31
0.0
 12
68.45855637942904
 22
62.05825774925608
 32
0.0
 13
68.45855637942904
 23
62.05825774925608
 33
0.0
  0
SOLID
  5
9D1
330
8ED
100
AcDbEntity
  8
Dimension (ANSI)
100
AcDbTrace
 10
67.0283884152883
 20
62.16761907661285
 30
0.0
 11
67.0283884152883
 21
61.94889642189932
 31
0.0
 12
67.68455637942889
 22
62.05825774925608
 32
0.0
 13
67.68455637942889
 23
62.05825774925608
 33
0.0
  0
MTEXT
  5
9D2
330
8ED
100
AcDbEntity
  8
Dimension (ANSI)
100
AcDbMText
 10
63.7724326947854
 20
62.47464460260504
 30
0.0
 40
0.8000000317891439
 41
0.0
 71
     1
 72
     1
  1
\A1;0.77
  7
Note Text (ANSI)
 73
     1
 44
1.0
1001
ACAD
1000
MTEXTBEGIN
1070
    73
1070
     1
1070
    44
1040
1.0
1070
    74
1070
     0
1000
MTEXTEND
  0
POINT
  5
9D3
330
8ED
100
AcDbEntity
  8
Defpoints
 62
     0
100
AcDbPoint
 10
67.68455637942889
 20
59.05184830043718
 30
0.0
  0
POINT
  5
9D4
330
8ED
100
AcDbEntity
  8
Defpoints
 62
     0
100
AcDbPoint
 10
68.45855637942904
 20
57.33384830043718
 30
0.0
  0
POINT
  5
9D5
330
8ED
100
AcDbEntity
  8
Defpoints
 62
     0
100
AcDbPoint
 10
68.45855637942904
 20
62.05825774925608
 30
0.0
  0
ENDBLK
  5
8EF
330
8ED
100
AcDbEntity
  8
0
100
AcDbBlockEnd
  0
BLOCK
  5
9DA
330
9D9
100
AcDbEntity
  8
0
100
AcDbBlockBegin
  2
*D12
 70
     1
 10
0.0
 20
0.0
 30
0.0
  3
*D12
  1

  0
LINE
  5
ACD
330
9D9
100
AcDbEntity
  8
Dimension (ANSI)
100
AcDbLine
 10
48.16333677006809
 20
18.85184830043718
 30
0.0
 11
51.67414846464423
 21
18.85184830043718
 31
0.0
  0
LINE
  5
ACE
330
9D9
100
AcDbEntity
  8
Dimension (ANSI)
100
AcDbLine
 10
48.6633367700681
 20
19.35184830043718
 30
0.0
 11
51.67414846464423
 21
19.35184830043718
 31
0.0
  0
LINE
  5
ACF
330
9D9
100
AcDbEntity
  8
Dimension (ANSI)
100
AcDbLine
 10
50.84081513131089
 20
18.1956803362966
 30
0.0
 11
50.84081513131089
 21
17.53951237215603
 31
0.0
  0
LINE
  5
AD0
330
9D9
100
AcDbEntity
  8
Dimension (ANSI)
100
AcDbLine
 10
50.84081513131089
 20
20.00801626457775
 30
0.0
 11
50.84081513131089
 21
21.2627349544026
 31
0.0
  0
LINE
  5
AD1
330
9D9
100
AcDbEntity
  8
Dimension (ANSI)
100
AcDbLine
 10
50.84081513131089
 20
21.2627349544026
 30
0.0
 11
51.49698309545147
 21
21.2627349544026
 31
0.0
  0
SOLID
  5
AD2
330
9D9
100
AcDbEntity
  8
Dimension (ANSI)
100
AcDbTrace
 10
50.73145380395413
 20
18.1956803362966
 30
0.0
 11
50.95017645866766
 21
18.1956803362966
 31
0.0
 12
50.84081513131089
 22
18.85184830043718
 32
0.0
 13
50.84081513131089
 23
18.85184830043718
 33
0.0
  0
SOLID
  5
AD3
330
9D9
100
AcDbEntity
  8
Dimension (ANSI)
100
AcDbTrace
 10
50.73145380395413
 20
20.00801626457775
 30
0.0
 11
50.95017645866766
 21
20.00801626457775
 31
0.0
 12
50.84081513131089
 22
19.35184830043718
 32
0.0
 13
50.84081513131089
 23
19.35184830043718
 33
0.0
  0
MTEXT
  5
AD4
330
9D9
100
AcDbEntity
  8
Dimension (ANSI)
100
AcDbMText
 10
51.70695684873231
 20
21.67912180775156
 30
0.0
 40
0.8000000317891439
 41
0.0
 71
     1
 72
     1
  1
\A1;0.50
  7
Note Text (ANSI)
 73
     1
 44
1.0
1001
ACAD
1000
MTEXTBEGIN
1070
    73
1070
     1
1070
    44
1040
1.0
1070
    74
1070
     0
1000
MTEXTEND
  0
POINT
  5
AD5
330
9D9
100
AcDbEntity
  8
Defpoints
 62
     0
100
AcDbPoint
 10
47.74667010340143
 20
18.85184830043718
 30
0.0
  0
POINT
  5
AD6
330
9D9
100
AcDbEntity
  8
Defpoints
 62
     0
100
AcDbPoint
 10
48.24667010340143
 20
19.35184830043718
 30
0.0
  0
POINT
  5
AD7
330
9D9
100
AcDbEntity
  8
Defpoints
 62
     0
100
AcDbPoint
 10
50.84081513131089
 20
19.35184830043718
 30
0.0
  0
ENDBLK
  5
9DB
330
9D9
100
AcDbEntity
  8
0
100
AcDbBlockEnd
  0
BLOCK
  5
ADA
330
AD9
100
AcDbEntity
  8
0
100
AcDbBlockBegin
  2
*D13
 70
     1
 10
0.0
 20
0.0
 30
0.0
  3
*D13
  1

  0
LINE
  5
BB8
330
AD9
100
AcDbEntity
  8
Dimension (ANSI)
100
AcDbLine
 10
48.24667010340143
 20
18.93518163377051
 30
0.0
 11
48.24667010340143
 21
14.0815070930881
 31
0.0
  0
LINE
  5
BB9
330
AD9
100
AcDbEntity
  8
Dimension (ANSI)
100
AcDbLine
 10
47.74667010340143
 20
18.43518163377051
 30
0.0
 11
47.74667010340143
 21
14.0815070930881
 31
0.0
  0
LINE
  5
BBA
330
AD9
100
AcDbEntity
  8
Dimension (ANSI)
100
AcDbLine
 10
48.90283806754201
 20
14.91484042642143
 30
0.0
 11
49.55900603168259
 21
14.91484042642143
 31
0.0
  0
LINE
  5
BBB
330
AD9
100
AcDbEntity
  8
Dimension (ANSI)
100
AcDbLine
 10
47.09050213926086
 20
14.91484042642143
 30
0.0
 11
46.09287485383604
 21
14.91484042642143
 31
0.0
  0
SOLID
  5
BBC
330
AD9
100
AcDbEntity
  8
Dimension (ANSI)
100
AcDbTrace
 10
48.90283806754201
 20
15.02420175377819
 30
0.0
 11
48.90283806754201
 21
14.80547909906467
 31
0.0
 12
48.24667010340143
 22
14.91484042642143
 32
0.0
 13
48.24667010340143
 23
14.91484042642143
 33
0.0
  0
SOLID
  5
BBD
330
AD9
100
AcDbEntity
  8
Dimension (ANSI)
100
AcDbTrace
 10
47.09050213926086
 20
15.02420175377819
 30
0.0
 11
47.09050213926086
 21
14.80547909906467
 31
0.0
 12
47.74667010340143
 22
14.91484042642143
 32
0.0
 13
47.74667010340143
 23
14.91484042642143
 33
0.0
  0
MTEXT
  5
BBE
330
AD9
100
AcDbEntity
  8
Dimension (ANSI)
100
AcDbMText
 10
43.83696414887417
 20
15.33122727977038
 30
0.0
 40
0.8000000317891439
 41
0.0
 71
     1
 72
     1
  1
\A1;0.50
  7
Note Text (ANSI)
 73
     1
 44
1.0
1001
ACAD
1000
MTEXTBEGIN
1070
    73
1070
     1
1070
    44
1040
1.0
1070
    74
1070
     0
1000
MTEXTEND
  0
POINT
  5
BBF
330
AD9
100
AcDbEntity
  8
Defpoints
 62
     0
100
AcDbPoint
 10
48.24667010340143
 20
19.35184830043718
 30
0.0
  0
POINT
  5
BC0
330
AD9
100
AcDbEntity
  8
Defpoints
 62
     0
100
AcDbPoint
 10
47.74667010340143
 20
18.85184830043718
 30
0.0
  0
POINT
  5
BC1
330
AD9
100
AcDbEntity
  8
Defpoints
 62
     0
100
AcDbPoint
 10
47.74667010340143
 20
14.91484042642143
 30
0.0
  0
ENDBLK
  5
ADB
330
AD9
100
AcDbEntity
  8
0
100
AcDbBlockEnd
  0
BLOCK
  5
BC4
330
BC3
100
AcDbEntity
  8
0
100
AcDbBlockBegin
  2
*D14
 70
     1
 10
0.0
 20
0.0
 30
0.0
  3
*D14
  1

  0
LINE
  5
C74
330
BC3
100
AcDbEntity
  8
Dimension (ANSI)
100
AcDbLine
 10
15.53060326343049
 20
65.84024276910975
 30
0.0
 11
16.34716658956726
 21
65.84024276910975
 31
0.0
  0
LINE
  5
C75
330
BC3
100
AcDbEntity
  8
Dimension (ANSI)
100
AcDbLine
 10
16.34716658956726
 20
65.84024276910975
 30
0.0
 11
20.11358612133097
 21
59.31661277747842
 31
0.0
  0
MTEXT
  5
C76
102
{ACAD_XDICTIONARY
360
E6B
102
}
330
BC3
100
AcDbEntity
  8
Dimension (ANSI)
100
AcDbMText
 10
15.32062951014965
 20
66.45027189565592
 30
0.0
 40
0.8000000317891439
 41
0.0
 71
     3
 72
     1
  1
\A1;\U+22050.50{\PTYP.(6PL.)}
  7
Note Text (ANSI)
 73
     1
 44
1.0
1001
ACAD
1000
MTEXTBEGIN
1070
    73
1070
     1
1070
    44
1040
1.0
1070
    74
1070
     0
1000
MTEXTEND
  0
SOLID
  5
C77
330
BC3
100
AcDbEntity
  8
Dimension (ANSI)
100
AcDbTrace
 10
20.2082958090135
 20
59.37129344115684
 30
0.0
 11
20.01887643364843
 21
59.26193211380002
 31
0.0
 12
20.44167010340137
 22
58.74835465138325
 32
0.0
 13
20.44167010340137
 23
58.74835465138325
 33
0.0
  0
LINE
  5
C78
330
BC3
100
AcDbEntity
  8
Dimension (ANSI)
100
AcDbLine
 10
19.96667010340141
 20
58.53184830043716
 30
0.0
 11
21.16667010340142
 21
58.53184830043716
 31
0.0
  0
LINE
  5
C79
330
BC3
100
AcDbEntity
  8
Dimension (ANSI)
100
AcDbLine
 10
20.56667010340142
 20
57.93184830043715
 30
0.0
 11
20.56667010340142
 21
59.13184830043715
 31
0.0
  0
POINT
  5
C7A
330
BC3
100
AcDbEntity
  8
Defpoints
 62
     0
100
AcDbPoint
 10
20.44167010340137
 20
58.74835465138325
 30
0.0
  0
POINT
  5
C7B
330
BC3
100
AcDbEntity
  8
Defpoints
 62
     0
100
AcDbPoint
 10
20.69167010340146
 20
58.31534194949108
 30
0.0
  0
ENDBLK
  5
BC5
330
BC3
100
AcDbEntity
  8
0
100
AcDbBlockEnd
  0
BLOCK
  5
C7E
330
C7D
100
AcDbEntity
  8
0
100
AcDbBlockBegin
  2
*D15
 70
     1
 10
0.0
 20
0.0
 30
0.0
  3
*D15
  1

  0
LINE
  5
D2D
330
C7D
100
AcDbEntity
  8
Dimension (ANSI)
100
AcDbLine
 10
23.08216009323789
 20
15.99398823196547
 30
0.0
 11
22.2657251955584
 21
15.99398823196546
 31
0.0
  0
LINE
  5
D2E
330
C7D
100
AcDbEntity
  8
Dimension (ANSI)
100
AcDbLine
 10
22.2657251955584
 20
15.99398823196546
 30
0.0
 11
20.87589662227554
 21
19.37058143141971
 31
0.0
  0
MTEXT
  5
D2F
102
{ACAD_XDICTIONARY
360
E6D
102
}
330
C7D
100
AcDbEntity
  8
Dimension (ANSI)
100
AcDbMText
 10
23.29213384651873
 20
16.60401735851164
 30
0.0
 40
0.8000000317891439
 41
0.0
 71
     1
 72
     1
  1
\A1;\U+22050.31{\PTYP. (4PL.)}
  7
Note Text (ANSI)
 73
     1
 44
1.0
1001
ACAD
1000
MTEXTBEGIN
1070
    73
1070
     1
1070
    44
1040
1.0
1070
    74
1070
     0
1000
MTEXTEND
  0
SOLID
  5
D30
330
C7D
100
AcDbEntity
  8
Dimension (ANSI)
100
AcDbTrace
 10
20.97702626935545
 20
19.4122070773934
 30
0.0
 11
20.77476697519564
 21
19.32895578544602
 31
0.0
 12
20.62614274643339
 22
19.97735931389913
 32
0.0
 13
20.62614274643339
 23
19.97735931389913
 33
0.0
  0
LINE
  5
D31
330
C7D
100
AcDbEntity
  8
Dimension (ANSI)
100
AcDbLine
 10
19.96667010340143
 20
20.12184830043718
 30
0.0
 11
21.16667010340144
 21
20.12184830043719
 31
0.0
  0
LINE
  5
D32
330
C7D
100
AcDbEntity
  8
Dimension (ANSI)
100
AcDbLine
 10
20.56667010340143
 20
19.52184830043718
 30
0.0
 11
20.56667010340143
 21
20.72184830043718
 31
0.0
  0
POINT
  5
D33
330
C7D
100
AcDbEntity
  8
Defpoints
 62
     0
100
AcDbPoint
 10
20.62614274643339
 20
19.97735931389913
 30
0.0
  0
POINT
  5
D34
330
C7D
100
AcDbEntity
  8
Defpoints
 62
     0
100
AcDbPoint
 10
20.50719746036948
 20
20.26633728697524
 30
0.0
  0
ENDBLK
  5
C7F
330
C7D
100
AcDbEntity
  8
0
100
AcDbBlockEnd
  0
BLOCK
  5
D37
330
D36
100
AcDbEntity
  8
0
100
AcDbBlockBegin
  2
*D16
 70
     1
 10
0.0
 20
0.0
 30
0.0
  3
*D16
  1

  0
LINE
  5
E15
330
D36
100
AcDbEntity
  8
Dimension (ANSI)
100
AcDbLine
 10
47.72667010340143
 20
58.94851496710385
 30
0.0
 11
47.72667010340143
 21
63.30218950778625
 31
0.0
  0
LINE
  5
E16
330
D36
100
AcDbEntity
  8
Dimension (ANSI)
100
AcDbLine
 10
20.56667010340143
 20
58.94851496710383
 30
0.0
 11
20.56667010340143
 21
63.30218950778625
 31
0.0
  0
LINE
  5
E17
330
D36
100
AcDbEntity
  8
Dimension (ANSI)
100
AcDbLine
 10
47.07050213926086
 20
62.46885617445292
 30
0.0
 11
35.97329939439451
 21
62.46885617445292
 31
0.0
  0
LINE
  5
E18
330
D36
100
AcDbEntity
  8
Dimension (ANSI)
100
AcDbLine
 10
21.22283806754201
 20
62.46885617445292
 30
0.0
 11
32.32004081240834
 21
62.46885617445292
 31
0.0
  0
SOLID
  5
E19
330
D36
100
AcDbEntity
  8
Dimension (ANSI)
100
AcDbTrace
 10
47.07050213926086
 20
62.57821750180968
 30
0.0
 11
47.07050213926086
 21
62.35949484709615
 31
0.0
 12
47.72667010340143
 22
62.46885617445292
 32
0.0
 13
47.72667010340143
 23
62.46885617445292
 33
0.0
  0
SOLID
  5
E1A
330
D36
100
AcDbEntity
  8
Dimension (ANSI)
100
AcDbTrace
 10
21.22283806754201
 20
62.57821750180968
 30
0.0
 11
21.22283806754201
 21
62.35949484709615
 31
0.0
 12
20.56667010340143
 22
62.46885617445292
 32
0.0
 13
20.56667010340143
 23
62.46885617445292
 33
0.0
  0
MTEXT
  5
E1B
330
D36
100
AcDbEntity
  8
Dimension (ANSI)
100
AcDbMText
 10
32.53001456568918
 20
62.88551166448145
 30
0.0
 40
0.8000000317891439
 41
0.0
 71
     1
 72
     1
  1
\A1;27.160
  7
Note Text (ANSI)
 73
     1
 44
1.0
1001
ACAD
1000
MTEXTBEGIN
1070
    73
1070
     1
1070
    44
1040
1.0
1070
    74
1070
     0
1000
MTEXTEND
  0
POINT
  5
E1C
330
D36
100
AcDbEntity
  8
Defpoints
 62
     0
100
AcDbPoint
 10
47.72667010340143
 20
58.53184830043719
 30
0.0
  0
POINT
  5
E1D
330
D36
100
AcDbEntity
  8
Defpoints
 62
     0
100
AcDbPoint
 10
20.56667010340143
 20
58.53184830043717
 30
0.0
  0
POINT
  5
E1E
330
D36
100
AcDbEntity
  8
Defpoints
 62
     0
100
AcDbPoint
 10
20.56667010340143
 20
62.46885617445292
 30
0.0
  0
ENDBLK
  5
D38
330
D36
100
AcDbEntity
  8
0
100
AcDbBlockEnd
  0
ENDSEC
  0
SECTION
  2
ENTITIES
  0
MTEXT
  5
74
330
6C
100
AcDbEntity
  8
Symbol (ANSI)
100
AcDbMText
 10
60.174644793021
 20
16.19878132320923
 30
0.0
 40
0.9450000301590115
 41
34.88650408316785
 71
     1
 72
     1
  1
{\fRomanS|b0|i0|c0|p2;PART#: NP4230C\P(DATA SUBJECT TO CHANGE WITHOUT NOTICE)\PTHIS DRAWING AND COMPONENTS OF ARE\PPROPERTY OF HUBBELL INC. WIEGMANN\P }
  7
Note Text (ANSI)
 73
     2
 44
1.093904256820678
1001
ACAD
1000
MTEXTBEGIN
1070
    73
1070
     2
1070
    44
1040
1.093904256820678
1070
    74
1070
     0
1000
MTEXTEND
  0
TEXT
  5
77
330
6C
100
AcDbEntity
  8
0
100
AcDbText
 10
92.53680496311492
 20
10.78640735424323
 30
0.0
 40
0.6570243161006749
  1
HUBBELL
  7
SANSSERIF
100
AcDbText
  0
POLYLINE
  5
79
330
6C
100
AcDbEntity
  8
0
100
AcDb2dPolyline
 66
     1
 10
0.0
 20
0.0
 30
0.0
  0
VERTEX
  5
7A
330
79
100
AcDbEntity
  8
0
100
AcDbVertex
100
AcDb2dVertex
 10
92.87720472329922
 20
10.46180055963664
 30
0.0
 42
0.0538548888021971
  0
VERTEX
  5
7B
330
79
100
AcDbEntity
  8
0
100
AcDbVertex
100
AcDb2dVertex
 10
93.1138097859689
 20
10.27648518945606
 30
0.0
 42
0.0762621633615686
 70
     2
 50
328.0963691854962
  0
VERTEX
  5
7C
330
79
100
AcDbEntity
  8
0
100
AcDbVertex
100
AcDb2dVertex
 10
93.69205943177611
 20
10.02886788948127
 30
0.0
 42
0.0631748622128167
 50
328.0963691854962
  0
VERTEX
  5
7D
330
79
100
AcDbEntity
  8
0
100
AcDbVertex
100
AcDb2dVertex
 10
94.44400331107967
 20
9.933479285599585
 30
0.0
 42
0.0631748622128144
  0
VERTEX
  5
7E
330
79
100
AcDbEntity
  8
0
100
AcDbVertex
100
AcDb2dVertex
 10
95.19594719038323
 20
10.02886788948127
 30
0.0
 42
0.0762621633615716
  0
VERTEX
  5
7F
330
79
100
AcDbEntity
  8
0
100
AcDbVertex
100
AcDb2dVertex
 10
95.77419683619041
 20
10.27648518945606
 30
0.0
 42
0.0538548888021992
 70
     2
 50
31.90363081450366
  0
VERTEX
  5
80
330
79
100
AcDbEntity
  8
0
100
AcDbVertex
100
AcDb2dVertex
 10
96.01080189886015
 20
10.46180055963664
 30
0.0
 42
0.1478388992712208
 50
31.90363081450366
  0
SEQEND
  5
81
330
79
100
AcDbEntity
  8
0
  0
POLYLINE
  5
82
330
6C
100
AcDbEntity
  8
0
100
AcDb2dPolyline
 66
     1
 10
0.0
 20
0.0
 30
0.0
  0
VERTEX
  5
83
330
82
100
AcDbEntity
  8
0
100
AcDbVertex
100
AcDb2dVertex
 10
93.31100563968808
 20
10.53339361771606
 30
0.0
 42
0.0708473647366734
  0
VERTEX
  5
84
330
82
100
AcDbEntity
  8
0
100
AcDbVertex
100
AcDb2dVertex
 10
93.52549782081723
 20
10.27648518945606
 30
0.0
 42
0.0943474025114784
 70
     2
 50
317.9633854595613
  0
VERTEX
  5
85
330
82
100
AcDbEntity
  8
0
100
AcDbVertex
100
AcDb2dVertex
 10
93.94087378236369
 20
10.02435836370605
 30
0.0
 42
0.0895889244631754
 50
317.9633854595613
  0
VERTEX
  5
86
330
82
100
AcDbEntity
  8
0
100
AcDbVertex
100
AcDb2dVertex
 10
94.44400331107967
 20
9.933479285599585
 30
0.0
 42
0.0895889244631755
  0
VERTEX
  5
87
330
82
100
AcDbEntity
  8
0
100
AcDbVertex
100
AcDb2dVertex
 10
94.94713283979567
 20
10.02435836370605
 30
0.0
 42
0.0943474025114826
  0
VERTEX
  5
88
330
82
100
AcDbEntity
  8
0
100
AcDbVertex
100
AcDb2dVertex
 10
95.36250880134215
 20
10.27648518945606
 30
0.0
 42
0.0708473647366705
 70
     2
 50
42.03661454043863
  0
VERTEX
  5
89
330
82
100
AcDbEntity
  8
0
100
AcDbVertex
100
AcDb2dVertex
 10
95.57700098247122
 20
10.53339361771606
 30
0.0
 42
0.1080871028423927
 50
42.03661454043863
  0
SEQEND
  5
8A
330
82
100
AcDbEntity
  8
0
  0
POLYLINE
  5
8B
330
6C
100
AcDbEntity
  8
0
100
AcDb2dPolyline
 66
     1
 10
0.0
 20
0.0
 30
0.0
  0
VERTEX
  5
8C
330
8B
100
AcDbEntity
  8
0
100
AcDbVertex
100
AcDb2dVertex
 10
96.00018349107045
 20
11.75757874359214
 30
0.0
 42
0.0512131062417871
  0
VERTEX
  5
8D
330
8B
100
AcDbEntity
  8
0
100
AcDbVertex
100
AcDb2dVertex
 10
95.77419683619041
 20
11.93266419958477
 30
0.0
 42
0.0762621633615678
 70
     2
 50
148.0963691854963
  0
VERTEX
  5
8E
330
8B
100
AcDbEntity
  8
0
100
AcDbVertex
100
AcDb2dVertex
 10
95.19594719038323
 20
12.18028149955956
 30
0.0
 42
0.0631748622128132
 50
148.0963691854963
  0
VERTEX
  5
8F
330
8B
100
AcDbEntity
  8
0
100
AcDbVertex
100
AcDb2dVertex
 10
94.44400331107967
 20
12.27567010344125
 30
0.0
 42
0.0631748622128155
  0
SEQEND
  5
90
330
8B
100
AcDbEntity
  8
0
  0
POLYLINE
  5
91
330
6C
100
AcDbEntity
  8
0
100
AcDb2dPolyline
 66
     1
 10
0.0
 20
0.0
 30
0.0
  0
VERTEX
  5
92
330
91
100
AcDbEntity
  8
0
100
AcDbVertex
100
AcDb2dVertex
 10
95.57172655130028
 20
11.68419868104714
 30
0.0
 42
0.0687403046083495
  0
VERTEX
  5
93
330
91
100
AcDbEntity
  8
0
100
AcDbVertex
100
AcDb2dVertex
 10
95.36250880134215
 20
11.93266419958477
 30
0.0
 42
0.0943474025114827
 70
     2
 50
137.9633854595613
  0
VERTEX
  5
94
330
91
100
AcDbEntity
  8
0
100
AcDbVertex
100
AcDb2dVertex
 10
94.94713283979567
 20
12.18479102533476
 30
0.0
 42
0.0895889244631755
 50
137.9633854595613
  0
VERTEX
  5
95
330
91
100
AcDbEntity
  8
0
100
AcDbVertex
100
AcDb2dVertex
 10
94.44400331107967
 20
12.27567010344125
 30
0.0
 42
0.0895889244631779
  0
SEQEND
  5
96
330
91
100
AcDbEntity
  8
0
  0
LINE
  5
97
330
6C
100
AcDbEntity
  8
0
100
AcDbLine
 10
96.94029630538324
 20
12.60235049110249
 30
0.0
 11
91.94771031677618
 21
12.60235049110249
 31
0.0
  0
LINE
  5
98
330
6C
100
AcDbEntity
  8
0
100
AcDbLine
 10
91.94771031677618
 20
9.606798897938311
 30
0.0
 11
96.94029630538324
 21
9.606798897938311
 31
0.0
  0
POLYLINE
  5
99
330
6C
100
AcDbEntity
  8
0
100
AcDb2dPolyline
 66
     1
 10
0.0
 20
0.0
 30
0.0
 70
     1
  0
VERTEX
  5
9A
330
99
100
AcDbEntity
  8
0
100
AcDbVertex
100
AcDb2dVertex
 10
91.94771031677618
 20
11.10457469452041
 30
0.0
 42
0.1828233251715505
  0
VERTEX
  5
9B
330
99
100
AcDbEntity
  8
0
100
AcDbVertex
100
AcDb2dVertex
 10
92.09565079480283
 20
10.7134986081422
 30
0.0
 42
0.1025674015815553
  0
VERTEX
  5
9C
330
99
100
AcDbEntity
  8
0
100
AcDbVertex
100
AcDb2dVertex
 10
92.6788576069792
 20
10.27648518945615
 30
0.0
 42
0.0617587255956112
 70
     2
 50
334.8671392208401
  0
VERTEX
  5
9D
330
99
100
AcDbEntity
  8
0
100
AcDbVertex
100
AcDb2dVertex
 10
93.43172590014907
 20
10.03092160582531
 30
0.0
 42
0.0480192641995976
 50
334.8671392208401
  0
VERTEX
  5
9E
330
99
100
AcDbEntity
  8
0
100
AcDbVertex
100
AcDb2dVertex
 10
94.44400331107967
 20
9.933479285599585
 30
0.0
 42
0.0480192641995965
  0
VERTEX
  5
9F
330
99
100
AcDbEntity
  8
0
100
AcDbVertex
100
AcDb2dVertex
 10
95.45628072201031
 20
10.03092160582531
 30
0.0
 42
0.0617587255956115
  0
VERTEX
  5
A0
330
99
100
AcDbEntity
  8
0
100
AcDbVertex
100
AcDb2dVertex
 10
96.2091490151802
 20
10.27648518945615
 30
0.0
 42
0.1025674015815654
 70
     2
 50
25.13286077915987
  0
VERTEX
  5
A1
330
99
100
AcDbEntity
  8
0
100
AcDbVertex
100
AcDb2dVertex
 10
96.79235582735639
 20
10.7134986081422
 30
0.0
 42
0.18282332517157
 50
25.13286077915987
  0
VERTEX
  5
A2
330
99
100
AcDbEntity
  8
0
100
AcDbVertex
100
AcDb2dVertex
 10
96.94029630538324
 20
11.10457469452041
 30
0.0
 42
0.1828233251715568
  0
VERTEX
  5
A3
330
99
100
AcDbEntity
  8
0
100
AcDbVertex
100
AcDb2dVertex
 10
96.79235582735639
 20
11.49565078089865
 30
0.0
 42
0.102567401581563
  0
VERTEX
  5
A4
330
99
100
AcDbEntity
  8
0
100
AcDbVertex
100
AcDb2dVertex
 10
96.2091490151802
 20
11.93266419958464
 30
0.0
 42
0.0617587255956141
 70
     2
 50
154.86713922084
  0
VERTEX
  5
A5
330
99
100
AcDbEntity
  8
0
100
AcDbVertex
100
AcDb2dVertex
 10
95.45628072201031
 20
12.17822778321552
 30
0.0
 42
0.0480192641995983
 50
154.86713922084
  0
VERTEX
  5
A6
330
99
100
AcDbEntity
  8
0
100
AcDbVertex
100
AcDb2dVertex
 10
94.44400331107967
 20
12.27567010344125
 30
0.0
 42
0.0480192641995976
  0
VERTEX
  5
A7
330
99
100
AcDbEntity
  8
0
100
AcDbVertex
100
AcDb2dVertex
 10
93.43172590014907
 20
12.17822778321552
 30
0.0
 42
0.0617587255956112
  0
VERTEX
  5
A8
330
99
100
AcDbEntity
  8
0
100
AcDbVertex
100
AcDb2dVertex
 10
92.6788576069792
 20
11.93266419958464
 30
0.0
 42
0.1025674015815593
 70
     2
 50
205.1328607791599
  0
VERTEX
  5
A9
330
99
100
AcDbEntity
  8
0
100
AcDbVertex
100
AcDb2dVertex
 10
92.09565079480283
 20
11.49565078089865
 30
0.0
 42
0.1828233251715536
 50
205.1328607791599
  0
SEQEND
  5
AA
330
99
100
AcDbEntity
  8
0
  0
ARC
  5
AB
330
6C
100
AcDbEntity
  8
0
100
AcDbCircle
 10
91.94771031677618
 20
12.10309189224179
 30
0.0
 40
0.4992585988606951
100
AcDbArc
 50
90.0
 51
180.0
  0
LINE
  5
AC
330
6C
100
AcDbEntity
  8
0
100
AcDbLine
 10
91.44845171791549
 20
12.10309189224179
 30
0.0
 11
91.44845171791549
 21
10.10605749679901
 31
0.0
  0
ARC
  5
AD
330
6C
100
AcDbEntity
  8
0
100
AcDbCircle
 10
91.94771031677618
 20
10.10605749679901
 30
0.0
 40
0.4992585988606951
100
AcDbArc
 50
180.0
 51
270.0
  0
POLYLINE
  5
AE
330
6C
100
AcDbEntity
  8
0
100
AcDb2dPolyline
 66
     1
 10
0.0
 20
0.0
 30
0.0
  0
VERTEX
  5
AF
330
AE
100
AcDbEntity
  8
0
100
AcDbVertex
100
AcDb2dVertex
 10
93.9244613379928
 20
10.59024076531646
 30
0.0
 42
0.0570538596573184
  0
VERTEX
  5
B0
330
AE
100
AcDbEntity
  8
0
100
AcDbVertex
100
AcDb2dVertex
 10
94.03659155673294
 20
10.27648518945599
 30
0.0
 42
0.1038195938885091
 70
     2
 50
296.1967246921072
  0
VERTEX
  5
B1
330
AE
100
AcDbEntity
  8
0
100
AcDbVertex
100
AcDb2dVertex
 10
94.24952280500423
 20
10.00444611327997
 30
0.0
 42
0.1767522344444316
 50
296.1967246921072
  0
VERTEX
  5
B2
330
AE
100
AcDbEntity
  8
0
100
AcDbVertex
100
AcDb2dVertex
 10
94.44400331107967
 20
9.933479285599585
 30
0.0
 42
0.1767522344444399
  0
VERTEX
  5
B3
330
AE
100
AcDbEntity
  8
0
100
AcDbVertex
100
AcDb2dVertex
 10
94.63848381715521
 20
10.00444611327997
 30
0.0
 42
0.1038195938885123
  0
VERTEX
  5
B4
330
AE
100
AcDbEntity
  8
0
100
AcDbVertex
100
AcDb2dVertex
 10
94.85141506542635
 20
10.27648518945599
 30
0.0
 42
0.0570538596573163
 70
     2
 50
63.8032753078928
  0
VERTEX
  5
B5
330
AE
100
AcDbEntity
  8
0
100
AcDbVertex
100
AcDb2dVertex
 10
94.96354528416651
 20
10.59024076531646
 30
0.0
 42
0.0503013836282066
 50
63.8032753078928
  0
SEQEND
  5
B6
330
AE
100
AcDbEntity
  8
0
  0
POLYLINE
  5
B7
330
6C
100
AcDbEntity
  8
0
100
AcDb2dPolyline
 66
     1
 10
0.0
 20
0.0
 30
0.0
  0
VERTEX
  5
B8
330
B7
100
AcDbEntity
  8
0
100
AcDbVertex
100
AcDb2dVertex
 10
94.44400331107967
 20
12.27567010344125
 30
0.0
 42
0.1767522344444361
  0
VERTEX
  5
B9
330
B7
100
AcDbEntity
  8
0
100
AcDbVertex
100
AcDb2dVertex
 10
94.24952280500423
 20
12.20470327576081
 30
0.0
 42
0.1038195938884991
  0
VERTEX
  5
BA
330
B7
100
AcDbEntity
  8
0
100
AcDbVertex
100
AcDb2dVertex
 10
94.03659155673294
 20
11.9326641995848
 30
0.0
 42
0.0567223889277798
 70
     2
 50
243.8032753078928
  0
VERTEX
  5
BB
330
B7
100
AcDbEntity
  8
0
100
AcDbVertex
100
AcDb2dVertex
 10
93.9249024903766
 20
11.62079348657656
 30
0.0
 42
0.0503013836282199
 50
243.8032753078928
  0
SEQEND
  5
BC
330
B7
100
AcDbEntity
  8
0
  0
POLYLINE
  5
BD
330
6C
100
AcDbEntity
  8
0
100
AcDb2dPolyline
 66
     1
 10
0.0
 20
0.0
 30
0.0
  0
VERTEX
  5
BE
330
BD
100
AcDbEntity
  8
0
100
AcDbVertex
100
AcDb2dVertex
 10
94.44400331107967
 20
12.27567010344125
 30
0.0
 42
0.0895889244631779
  0
VERTEX
  5
BF
330
BD
100
AcDbEntity
  8
0
100
AcDbVertex
100
AcDb2dVertex
 10
93.94087378236369
 20
12.18479102533476
 30
0.0
 42
0.094347402511486
  0
VERTEX
  5
C0
330
BD
100
AcDbEntity
  8
0
100
AcDbVertex
100
AcDb2dVertex
 10
93.52549782081723
 20
11.93266419958477
 30
0.0
 42
0.0687403046083514
 70
     2
 50
222.0366145404387
  0
VERTEX
  5
C1
330
BD
100
AcDbEntity
  8
0
100
AcDbVertex
100
AcDb2dVertex
 10
93.31628007085909
 20
11.68419868104714
 30
0.0
 42
0.1080871028423927
 50
222.0366145404387
  0
SEQEND
  5
C2
330
BD
100
AcDbEntity
  8
0
  0
POLYLINE
  5
C3
330
6C
100
AcDbEntity
  8
0
100
AcDb2dPolyline
 66
     1
 10
0.0
 20
0.0
 30
0.0
  0
VERTEX
  5
C4
330
C3
100
AcDbEntity
  8
0
100
AcDbVertex
100
AcDb2dVertex
 10
94.44400331107967
 20
12.27567010344125
 30
0.0
 42
0.0631748622128155
  0
VERTEX
  5
C5
330
C3
100
AcDbEntity
  8
0
100
AcDbVertex
100
AcDb2dVertex
 10
93.69205943177611
 20
12.18028149955956
 30
0.0
 42
0.0762621633615699
  0
VERTEX
  5
C6
330
C3
100
AcDbEntity
  8
0
100
AcDbVertex
100
AcDb2dVertex
 10
93.1138097859689
 20
11.93266419958477
 30
0.0
 42
0.0512131062417906
 70
     2
 50
211.9036308145036
  0
VERTEX
  5
C7
330
C3
100
AcDbEntity
  8
0
100
AcDbVertex
100
AcDb2dVertex
 10
92.88782313108894
 20
11.75757874359214
 30
0.0
 42
0.1478388992712295
 50
211.9036308145036
  0
SEQEND
  5
C8
330
C3
100
AcDbEntity
  8
0
  0
POLYLINE
  5
C9
330
6C
100
AcDbEntity
  8
0
100
AcDb2dPolyline
 66
     1
 10
0.0
 20
0.0
 30
0.0
  0
VERTEX
  5
CA
330
C9
100
AcDbEntity
  8
0
100
AcDbVertex
100
AcDb2dVertex
 10
94.96310413178283
 20
11.62079348657656
 30
0.0
 42
0.0567223889277601
  0
VERTEX
  5
CB
330
C9
100
AcDbEntity
  8
0
100
AcDbVertex
100
AcDb2dVertex
 10
94.85141506542635
 20
11.9326641995848
 30
0.0
 42
0.1038195938884991
 70
     2
 50
116.1967246921072
  0
VERTEX
  5
CC
330
C9
100
AcDbEntity
  8
0
100
AcDbVertex
100
AcDb2dVertex
 10
94.63848381715521
 20
12.20470327576081
 30
0.0
 42
0.1767522344444361
 50
116.1967246921072
  0
VERTEX
  5
CD
330
C9
100
AcDbEntity
  8
0
100
AcDbVertex
100
AcDb2dVertex
 10
94.44400331107967
 20
12.27567010344125
 30
0.0
 42
0.1767522344444361
  0
SEQEND
  5
CE
330
C9
100
AcDbEntity
  8
0
  0
ARC
  5
CF
330
6C
100
AcDbEntity
  8
0
100
AcDbCircle
 10
96.94029630538324
 20
12.10309189224179
 30
0.0
 40
0.4992585988606951
100
AcDbArc
 50
0.0
 51
90.0
  0
CIRCLE
  5
D0
330
6C
100
AcDbEntity
  8
0
100
AcDbCircle
 10
97.91045788141339
 20
12.34506369520791
 30
0.0
 40
0.2598233321567377
  0
TEXT
  5
D1
330
6C
100
AcDbEntity
  8
0
100
AcDbText
 10
97.7429063512902
 20
12.17138138694742
 30
0.0
 40
0.3049772414979007
  1
R
  7
SANSSERIF
100
AcDbText
  0
LINE
  5
D2
330
6C
100
AcDbEntity
  8
0
100
AcDbLine
 10
97.43955490424383
 20
10.10605749679901
 30
0.0
 11
97.43955490424383
 21
12.10309189224179
 31
0.0
  0
ARC
  5
D3
330
6C
100
AcDbEntity
  8
0
100
AcDbCircle
 10
96.94029630538324
 20
10.10605749679901
 30
0.0
 40
0.4992585988606951
100
AcDbArc
 50
270.0
 51
0.0
  0
CIRCLE
  5
17B
330
6C
100
AcDbEntity
  8
Visible (ANSI)
100
AcDbCircle
 10
47.72667010340143
 20
38.95184830043719
 30
0.0
 40
0.2500000000000006
  0
CIRCLE
  5
17C
330
6C
100
AcDbEntity
  8
Visible (ANSI)
100
AcDbCircle
 10
20.56667010340143
 20
38.95184830043719
 30
0.0
 40
0.2500000000000006
  0
LINE
  5
17D
330
6C
100
AcDbEntity
  8
Visible (ANSI)
100
AcDbLine
 10
21.76467010340143
 20
18.85184830043718
 30
0.0
 11
46.52867010340143
 21
18.85184830043718
 31
0.0
  0
LINE
  5
17E
330
6C
100
AcDbEntity
  8
Visible (ANSI)
100
AcDbLine
 10
21.76467010340143
 20
18.85184830043718
 30
0.0
 11
21.76467010340143
 21
18.96119830043718
 31
0.0
  0
LINE
  5
17F
330
6C
100
AcDbEntity
  8
Visible (ANSI)
100
AcDbLine
 10
46.52867010340143
 20
18.85184830043718
 30
0.0
 11
46.52867010340143
 21
18.96119830043718
 31
0.0
  0
LINE
  5
180
330
6C
100
AcDbEntity
  8
Visible (ANSI)
100
AcDbLine
 10
46.52887010340143
 20
18.96139830043718
 30
0.0
 11
46.52887010340143
 21
18.85184830043718
 31
0.0
  0
LINE
  5
181
330
6C
100
AcDbEntity
  8
Visible (ANSI)
100
AcDbLine
 10
46.52867010340143
 20
18.96139830043718
 30
0.0
 11
46.52887010340143
 21
18.96139830043718
 31
0.0
  0
LINE
  5
182
330
6C
100
AcDbEntity
  8
Visible (ANSI)
100
AcDbLine
 10
21.76447010340142
 20
18.96139830043718
 30
0.0
 11
21.76467010340143
 21
18.96139830043718
 31
0.0
  0
LINE
  5
183
330
6C
100
AcDbEntity
  8
Visible (ANSI)
100
AcDbLine
 10
21.76447010340142
 20
18.85184830043718
 30
0.0
 11
21.76447010340142
 21
18.96139830043718
 31
0.0
  0
LINE
  5
184
330
6C
100
AcDbEntity
  8
Hidden (ANSI)
 48
1.057116031646728
100
AcDbLine
 10
46.52867010340143
 20
18.94559830043718
 30
0.0
 11
21.76467010340143
 21
18.94559830043718
 31
0.0
  0
LINE
  5
185
330
6C
100
AcDbEntity
  8
Visible (ANSI)
100
AcDbLine
 10
21.76467010340143
 20
18.96139830043718
 30
0.0
 11
21.76467010340143
 21
18.96119830043718
 31
0.0
  0
LINE
  5
186
330
6C
100
AcDbEntity
  8
Visible (ANSI)
100
AcDbLine
 10
46.52867010340143
 20
18.96119830043718
 30
0.0
 11
46.52867010340143
 21
18.96139830043718
 31
0.0
  0
LINE
  5
187
330
6C
100
AcDbEntity
  8
Visible (ANSI)
100
AcDbLine
 10
21.76447010340142
 20
18.85184830043718
 30
0.0
 11
20.54667010340143
 21
18.85184830043718
 31
0.0
  0
LINE
  5
188
330
6C
100
AcDbEntity
  8
Visible (ANSI)
100
AcDbLine
 10
47.74667010340143
 20
18.85184830043718
 30
0.0
 11
46.52887010340143
 21
18.85184830043718
 31
0.0
  0
LINE
  5
189
330
6C
100
AcDbEntity
  8
Visible (ANSI)
100
AcDbLine
 10
48.24667010340142
 20
20.56964830043719
 30
0.0
 11
48.24667010340142
 21
19.35184830043718
 31
0.0
  0
LINE
  5
18A
330
6C
100
AcDbEntity
  8
Visible (ANSI)
100
AcDbLine
 10
48.24667010340142
 20
58.55184830043718
 30
0.0
 11
48.24667010340142
 21
57.33404830043718
 31
0.0
  0
LINE
  5
18B
330
6C
100
AcDbEntity
  8
Visible (ANSI)
100
AcDbLine
 10
46.52887010340141
 20
59.05184830043718
 30
0.0
 11
47.74667010340142
 21
59.05184830043718
 31
0.0
  0
LINE
  5
18C
330
6C
100
AcDbEntity
  8
Visible (ANSI)
100
AcDbLine
 10
20.54667010340142
 20
59.05184830043718
 30
0.0
 11
21.76447010340142
 21
59.05184830043718
 31
0.0
  0
LINE
  5
18D
330
6C
100
AcDbEntity
  8
Visible (ANSI)
100
AcDbLine
 10
20.04667010340142
 20
57.33404830043718
 30
0.0
 11
20.04667010340142
 21
58.55184830043718
 31
0.0
  0
LINE
  5
18E
330
6C
100
AcDbEntity
  8
Visible (ANSI)
100
AcDbLine
 10
20.04667010340143
 20
19.35184830043718
 30
0.0
 11
20.04667010340143
 21
20.56964830043718
 31
0.0
  0
LINE
  5
18F
330
6C
100
AcDbEntity
  8
Visible (ANSI)
100
AcDbLine
 10
48.24667010340142
 20
19.35184830043718
 30
0.0
 11
47.74667010340143
 21
18.85184830043718
 31
0.0
  0
LINE
  5
190
330
6C
100
AcDbEntity
  8
Visible (ANSI)
100
AcDbLine
 10
48.24667010340142
 20
20.56964830043719
 30
0.0
 11
48.13712010340144
 21
20.56964830043719
 31
0.0
  0
LINE
  5
191
330
6C
100
AcDbEntity
  8
Visible (ANSI)
100
AcDbLine
 10
48.13712010340144
 20
20.56964830043719
 30
0.0
 11
48.13712010340144
 21
20.56984830043719
 31
0.0
  0
LINE
  5
192
330
6C
100
AcDbEntity
  8
Visible (ANSI)
100
AcDbLine
 10
48.13712010340143
 20
57.33384830043718
 30
0.0
 11
48.13712010340143
 21
57.33404830043718
 31
0.0
  0
LINE
  5
193
330
6C
100
AcDbEntity
  8
Visible (ANSI)
100
AcDbLine
 10
48.13712010340143
 20
57.33404830043718
 30
0.0
 11
48.24667010340142
 21
57.33404830043718
 31
0.0
  0
LINE
  5
194
330
6C
100
AcDbEntity
  8
Visible (ANSI)
100
AcDbLine
 10
48.24667010340142
 20
20.56984830043719
 30
0.0
 11
48.24667010340142
 21
57.33384830043718
 31
0.0
  0
LINE
  5
195
330
6C
100
AcDbEntity
  8
Visible (ANSI)
100
AcDbLine
 10
48.24667010340142
 20
20.56984830043719
 30
0.0
 11
48.13732010340142
 21
20.56984830043719
 31
0.0
  0
LINE
  5
196
330
6C
100
AcDbEntity
  8
Visible (ANSI)
100
AcDbLine
 10
48.24667010340142
 20
57.33384830043718
 30
0.0
 11
48.13732010340142
 21
57.33384830043718
 31
0.0
  0
LINE
  5
197
330
6C
100
AcDbEntity
  8
Hidden (ANSI)
 48
1.067169785499572
100
AcDbLine
 10
48.15292010340141
 20
57.33384830043718
 30
0.0
 11
48.15292010340143
 21
20.56984830043719
 31
0.0
  0
LINE
  5
198
330
6C
100
AcDbEntity
  8
Visible (ANSI)
100
AcDbLine
 10
48.13712010340144
 20
20.56984830043719
 30
0.0
 11
48.13732010340143
 21
20.56984830043719
 31
0.0
  0
LINE
  5
199
330
6C
100
AcDbEntity
  8
Visible (ANSI)
100
AcDbLine
 10
48.13732010340142
 20
57.33384830043718
 30
0.0
 11
48.13712010340143
 21
57.33384830043718
 31
0.0
  0
LINE
  5
19A
330
6C
100
AcDbEntity
  8
Visible (ANSI)
100
AcDbLine
 10
47.74667010340142
 20
59.05184830043718
 30
0.0
 11
48.24667010340142
 21
58.55184830043718
 31
0.0
  0
LINE
  5
19B
330
6C
100
AcDbEntity
  8
Visible (ANSI)
100
AcDbLine
 10
46.52887010340141
 20
59.05184830043718
 30
0.0
 11
46.52887010340141
 21
58.94229830043718
 31
0.0
  0
LINE
  5
19C
330
6C
100
AcDbEntity
  8
Visible (ANSI)
100
AcDbLine
 10
46.52887010340141
 20
58.94229830043718
 30
0.0
 11
46.52867010340142
 21
58.94229830043718
 31
0.0
  0
LINE
  5
19D
330
6C
100
AcDbEntity
  8
Visible (ANSI)
100
AcDbLine
 10
21.76467010340142
 20
58.94229830043718
 30
0.0
 11
21.76447010340142
 21
58.94229830043718
 31
0.0
  0
LINE
  5
19E
330
6C
100
AcDbEntity
  8
Visible (ANSI)
100
AcDbLine
 10
21.76447010340142
 20
58.94229830043718
 30
0.0
 11
21.76447010340142
 21
59.05184830043718
 31
0.0
  0
LINE
  5
19F
330
6C
100
AcDbEntity
  8
Visible (ANSI)
100
AcDbLine
 10
46.52867010340142
 20
59.05184830043718
 30
0.0
 11
21.76467010340142
 21
59.05184830043718
 31
0.0
  0
LINE
  5
1A0
330
6C
100
AcDbEntity
  8
Visible (ANSI)
100
AcDbLine
 10
46.52867010340142
 20
59.05184830043718
 30
0.0
 11
46.52867010340142
 21
58.94249830043718
 31
0.0
  0
LINE
  5
1A1
330
6C
100
AcDbEntity
  8
Visible (ANSI)
100
AcDbLine
 10
21.76467010340142
 20
59.05184830043718
 30
0.0
 11
21.76467010340142
 21
58.94249830043718
 31
0.0
  0
LINE
  5
1A2
330
6C
100
AcDbEntity
  8
Hidden (ANSI)
 48
1.057116031646728
100
AcDbLine
 10
21.76467010340142
 20
58.95809830043718
 30
0.0
 11
46.52867010340142
 21
58.95809830043718
 31
0.0
  0
LINE
  5
1A3
330
6C
100
AcDbEntity
  8
Visible (ANSI)
100
AcDbLine
 10
46.52867010340142
 20
58.94229830043718
 30
0.0
 11
46.52867010340142
 21
58.94249830043718
 31
0.0
  0
LINE
  5
1A4
330
6C
100
AcDbEntity
  8
Visible (ANSI)
100
AcDbLine
 10
21.76467010340142
 20
58.94249830043718
 30
0.0
 11
21.76467010340142
 21
58.94229830043718
 31
0.0
  0
LINE
  5
1A5
330
6C
100
AcDbEntity
  8
Visible (ANSI)
100
AcDbLine
 10
20.04667010340142
 20
58.55184830043718
 30
0.0
 11
20.54667010340142
 21
59.05184830043718
 31
0.0
  0
LINE
  5
1A6
330
6C
100
AcDbEntity
  8
Visible (ANSI)
100
AcDbLine
 10
20.04667010340142
 20
57.33404830043718
 30
0.0
 11
20.15622010340141
 21
57.33404830043718
 31
0.0
  0
LINE
  5
1A7
330
6C
100
AcDbEntity
  8
Visible (ANSI)
100
AcDbLine
 10
20.15622010340141
 20
57.33404830043718
 30
0.0
 11
20.15622010340141
 21
57.33384830043718
 31
0.0
  0
LINE
  5
1A8
330
6C
100
AcDbEntity
  8
Visible (ANSI)
100
AcDbLine
 10
20.15622010340142
 20
20.56984830043718
 30
0.0
 11
20.15622010340142
 21
20.56964830043718
 31
0.0
  0
LINE
  5
1A9
330
6C
100
AcDbEntity
  8
Visible (ANSI)
100
AcDbLine
 10
20.15622010340142
 20
20.56964830043718
 30
0.0
 11
20.04667010340143
 21
20.56964830043718
 31
0.0
  0
LINE
  5
1AA
330
6C
100
AcDbEntity
  8
Visible (ANSI)
100
AcDbLine
 10
20.04667010340143
 20
57.33384830043718
 30
0.0
 11
20.04667010340144
 21
20.56984830043719
 31
0.0
  0
LINE
  5
1AB
330
6C
100
AcDbEntity
  8
Visible (ANSI)
100
AcDbLine
 10
20.04667010340143
 20
57.33384830043718
 30
0.0
 11
20.15602010340141
 21
57.33384830043718
 31
0.0
  0
LINE
  5
1AC
330
6C
100
AcDbEntity
  8
Visible (ANSI)
100
AcDbLine
 10
20.04667010340144
 20
20.56984830043719
 30
0.0
 11
20.15602010340142
 21
20.56984830043719
 31
0.0
  0
LINE
  5
1AD
330
6C
100
AcDbEntity
  8
Hidden (ANSI)
 48
1.067169785499572
100
AcDbLine
 10
20.14042010340144
 20
20.56984830043719
 30
0.0
 11
20.14042010340143
 21
57.33384830043718
 31
0.0
  0
LINE
  5
1AE
330
6C
100
AcDbEntity
  8
Visible (ANSI)
100
AcDbLine
 10
20.15622010340141
 20
57.33384830043718
 30
0.0
 11
20.15602010340141
 21
57.33384830043718
 31
0.0
  0
LINE
  5
1AF
330
6C
100
AcDbEntity
  8
Visible (ANSI)
100
AcDbLine
 10
20.15602010340142
 20
20.56984830043718
 30
0.0
 11
20.15622010340142
 21
20.56984830043718
 31
0.0
  0
LINE
  5
1B0
330
6C
100
AcDbEntity
  8
Visible (ANSI)
100
AcDbLine
 10
20.54667010340143
 20
18.85184830043718
 30
0.0
 11
20.04667010340143
 21
19.35184830043718
 31
0.0
  0
CIRCLE
  5
1B1
330
6C
100
AcDbEntity
  8
Visible (ANSI)
100
AcDbCircle
 10
47.72667010340143
 20
58.53184830043719
 30
0.0
 40
0.25
  0
CIRCLE
  5
1B2
330
6C
100
AcDbEntity
  8
Visible (ANSI)
100
AcDbCircle
 10
20.56667010340143
 20
58.53184830043717
 30
0.0
 40
0.25
  0
CIRCLE
  5
1B3
330
6C
100
AcDbEntity
  8
Visible (ANSI)
100
AcDbCircle
 10
20.56667010340143
 20
19.37184830043718
 30
0.0
 40
0.25
  0
CIRCLE
  5
1B4
330
6C
100
AcDbEntity
  8
Visible (ANSI)
100
AcDbCircle
 10
47.72667010340143
 20
19.37184830043718
 30
0.0
 40
0.25
  0
CIRCLE
  5
1B5
330
6C
100
AcDbEntity
  8
Visible (ANSI)
100
AcDbCircle
 10
47.72667010340143
 20
57.78184830043719
 30
0.0
 40
0.15625
  0
CIRCLE
  5
1B6
330
6C
100
AcDbEntity
  8
Visible (ANSI)
100
AcDbCircle
 10
20.56667010340143
 20
57.78184830043716
 30
0.0
 40
0.15625
  0
CIRCLE
  5
1B7
330
6C
100
AcDbEntity
  8
Visible (ANSI)
100
AcDbCircle
 10
20.56667010340143
 20
20.12184830043718
 30
0.0
 40
0.15625
  0
CIRCLE
  5
1B8
330
6C
100
AcDbEntity
  8
Visible (ANSI)
100
AcDbCircle
 10
47.72667010340143
 20
20.12184830043718
 30
0.0
 40
0.15625
  0
LINE
  5
1B9
330
6C
100
AcDbEntity
  8
Visible (ANSI)
100
AcDbLine
 10
68.45855637942853
 20
18.85184830043717
 30
0.0
 11
67.79390637942852
 21
18.85184830043717
 31
0.0
  0
LINE
  5
1BA
330
6C
100
AcDbEntity
  8
Visible (ANSI)
100
AcDbLine
 10
68.45855637942853
 20
18.94559830043717
 30
0.0
 11
68.45855637942853
 21
18.85184830043717
 31
0.0
  0
LINE
  5
1BB
330
6C
100
AcDbEntity
  8
Visible (ANSI)
100
AcDbLine
 10
67.79390637942852
 20
18.94559830043717
 30
0.0
 11
68.45855637942853
 21
18.94559830043717
 31
0.0
  0
ARC
  5
1BC
330
6C
100
AcDbEntity
  8
Visible (ANSI)
100
AcDbCircle
 10
67.79390637942852
 20
18.96119830043718
 30
0.0
 40
0.0156
100
AcDbArc
 50
180.0
 51
270.0
  0
ARC
  5
1BD
330
6C
100
AcDbEntity
  8
Visible (ANSI)
100
AcDbCircle
 10
67.79390637942852
 20
18.96119830043717
 30
0.0
 40
0.1093499999999973
100
AcDbArc
 50
261.7981333522005
 51
270.0
  0
ARC
  5
1BE
330
6C
100
AcDbEntity
  8
Hidden (ANSI)
 48
0.0445022359490395
100
AcDbCircle
 10
67.79390637942852
 20
18.96119830043718
 30
0.0
 40
0.10935
100
AcDbArc
 50
180.0
 51
261.7981333522006
  0
LINE
  5
1BF
330
6C
100
AcDbEntity
  8
Hidden (ANSI)
 48
0.0266847964376211
100
AcDbLine
 10
67.68455637942853
 20
18.96139830043717
 30
0.0
 11
67.77830637942852
 21
18.96139830043717
 31
0.0
  0
LINE
  5
1C0
330
6C
100
AcDbEntity
  8
Visible (ANSI)
100
AcDbLine
 10
67.77830637942902
 20
58.55184830043718
 30
0.0
 11
67.77830637942888
 21
59.05184830043718
 31
0.0
  0
LINE
  5
1C1
330
6C
100
AcDbEntity
  8
Visible (ANSI)
100
AcDbLine
 10
67.68455637942889
 20
59.05184830043718
 30
0.0
 11
67.68455637942903
 21
58.55184830043718
 31
0.0
  0
LINE
  5
1C2
330
6C
100
AcDbEntity
  8
Visible (ANSI)
100
AcDbLine
 10
67.77830637942888
 20
59.05184830043718
 30
0.0
 11
67.68455637942889
 21
59.05184830043718
 31
0.0
  0
LINE
  5
1C3
330
6C
100
AcDbEntity
  8
Visible (ANSI)
100
AcDbLine
 10
67.68455637942903
 20
58.55184830043718
 30
0.0
 11
67.77830637942902
 21
58.55184830043718
 31
0.0
  0
LINE
  5
1C4
330
6C
100
AcDbEntity
  8
Visible (ANSI)
100
AcDbLine
 10
67.77830637942902
 20
57.33404830043718
 30
0.0
 11
67.77830637942902
 21
58.55184830043718
 31
0.0
  0
LINE
  5
1C5
330
6C
100
AcDbEntity
  8
Visible (ANSI)
100
AcDbLine
 10
67.77830637942902
 20
19.35184830043717
 30
0.0
 11
67.77830637942902
 21
20.56964830043719
 31
0.0
  0
LINE
  5
1C6
330
6C
100
AcDbEntity
  8
Visible (ANSI)
100
AcDbLine
 10
67.68455637942903
 20
20.56964830043719
 30
0.0
 11
67.68455637942903
 21
19.35184830043717
 31
0.0
  0
LINE
  5
1C7
330
6C
100
AcDbEntity
  8
Visible (ANSI)
100
AcDbLine
 10
67.68455637942903
 20
58.55184830043718
 30
0.0
 11
67.68455637942903
 21
57.33404830043718
 31
0.0
  0
LINE
  5
1C8
330
6C
100
AcDbEntity
  8
Visible (ANSI)
100
AcDbLine
 10
67.77830637942901
 20
57.33404830043718
 30
0.0
 11
67.77830637942901
 21
57.33384830043718
 31
0.0
  0
LINE
  5
1C9
330
6C
100
AcDbEntity
  8
Visible (ANSI)
100
AcDbLine
 10
67.77830637942901
 20
20.56984830043719
 30
0.0
 11
67.77830637942901
 21
20.56964830043719
 31
0.0
  0
LINE
  5
1CA
330
6C
100
AcDbEntity
  8
Visible (ANSI)
100
AcDbLine
 10
67.68455637942899
 20
20.56964830043719
 30
0.0
 11
67.68455637942899
 21
20.56984830043719
 31
0.0
  0
LINE
  5
1CB
330
6C
100
AcDbEntity
  8
Visible (ANSI)
100
AcDbLine
 10
67.68455637942899
 20
20.56984830043719
 30
0.0
 11
67.68455637942899
 21
57.33384830043718
 31
0.0
  0
LINE
  5
1CC
330
6C
100
AcDbEntity
  8
Visible (ANSI)
100
AcDbLine
 10
67.68455637942899
 20
57.33384830043718
 30
0.0
 11
67.68455637942899
 21
57.33404830043718
 31
0.0
  0
LINE
  5
1CD
330
6C
100
AcDbEntity
  8
Visible (ANSI)
100
AcDbLine
 10
67.79390637942906
 20
20.56984830043719
 30
0.0
 11
67.68455637942899
 21
20.56984830043719
 31
0.0
  0
LINE
  5
1CE
330
6C
100
AcDbEntity
  8
Visible (ANSI)
100
AcDbLine
 10
67.79390637942904
 20
57.33384830043718
 30
0.0
 11
67.68455637942899
 21
57.33384830043718
 31
0.0
  0
LINE
  5
1CF
330
6C
100
AcDbEntity
  8
Visible (ANSI)
100
AcDbLine
 10
67.68455637942903
 20
57.33404830043718
 30
0.0
 11
67.77830637942902
 21
57.33404830043718
 31
0.0
  0
LINE
  5
1D0
330
6C
100
AcDbEntity
  8
Visible (ANSI)
100
AcDbLine
 10
67.77830637942902
 20
20.56964830043719
 30
0.0
 11
67.68455637942903
 21
20.56964830043719
 31
0.0
  0
LINE
  5
1D1
330
6C
100
AcDbEntity
  8
Hidden (ANSI)
 48
1.067169785499572
100
AcDbLine
 10
67.77830637942901
 20
57.33384830043718
 30
0.0
 11
67.77830637942901
 21
20.56984830043719
 31
0.0
  0
LINE
  5
1D2
330
6C
100
AcDbEntity
  8
Visible (ANSI)
100
AcDbLine
 10
67.77830637942888
 20
18.85184830043717
 30
0.0
 11
67.77830637942902
 21
19.35184830043717
 31
0.0
  0
LINE
  5
1D3
330
6C
100
AcDbEntity
  8
Visible (ANSI)
100
AcDbLine
 10
67.68455637942903
 20
19.35184830043717
 30
0.0
 11
67.68455637942889
 21
18.85184830043717
 31
0.0
  0
LINE
  5
1D4
330
6C
100
AcDbEntity
  8
Visible (ANSI)
100
AcDbLine
 10
67.68455637942889
 20
18.85184830043717
 30
0.0
 11
67.77830637942888
 21
18.85184830043717
 31
0.0
  0
LINE
  5
1D5
330
6C
100
AcDbEntity
  8
Visible (ANSI)
100
AcDbLine
 10
67.77830637942902
 20
19.35184830043717
 30
0.0
 11
67.68455637942903
 21
19.35184830043717
 31
0.0
  0
LINE
  5
1D6
330
6C
100
AcDbEntity
  8
Visible (ANSI)
100
AcDbLine
 10
67.79390637942843
 20
59.05184830043718
 30
0.0
 11
68.45855637942853
 21
59.05184830043718
 31
0.0
  0
LINE
  5
1D7
330
6C
100
AcDbEntity
  8
Visible (ANSI)
100
AcDbLine
 10
68.45855637942853
 20
58.95809830043718
 30
0.0
 11
67.79390637942843
 21
58.95809830043718
 31
0.0
  0
LINE
  5
1D8
330
6C
100
AcDbEntity
  8
Visible (ANSI)
100
AcDbLine
 10
68.45855637942853
 20
59.05184830043718
 30
0.0
 11
68.45855637942853
 21
58.95809830043718
 31
0.0
  0
ARC
  5
1D9
330
6C
100
AcDbEntity
  8
Hidden (ANSI)
 48
0.0445022359490395
100
AcDbCircle
 10
67.79390637942852
 20
58.94249830043717
 30
0.0
 40
0.1093500000000028
100
AcDbArc
 50
98.20186664779933
 51
180.0
  0
LINE
  5
1DA
330
6C
100
AcDbEntity
  8
Hidden (ANSI)
 48
0.0266847964376211
100
AcDbLine
 10
67.68455637942853
 20
58.94229830043718
 30
0.0
 11
67.77830637942852
 21
58.94229830043718
 31
0.0
  0
ARC
  5
1DB
330
6C
100
AcDbEntity
  8
Visible (ANSI)
100
AcDbCircle
 10
67.79390637942852
 20
58.94249830043722
 30
0.0
 40
0.1093499999999553
100
AcDbArc
 50
90.00000000004396
 51
98.2018666478028
  0
ARC
  5
1DC
330
6C
100
AcDbEntity
  8
Visible (ANSI)
100
AcDbCircle
 10
67.79390637942852
 20
58.94249830043717
 30
0.0
 40
0.0155999999999988
100
AcDbArc
 50
90.00000000030821
 51
180.0
  0
LINE
  5
1DD
330
6C
100
AcDbEntity
  8
Visible (ANSI)
100
AcDbLine
 10
67.79390637942906
 20
20.56984830043719
 30
0.0
 11
68.45855637942904
 21
20.56984830043719
 31
0.0
  0
LINE
  5
1DE
330
6C
100
AcDbEntity
  8
Visible (ANSI)
100
AcDbLine
 10
68.45855637942904
 20
57.33384830043718
 30
0.0
 11
68.45855637942904
 21
20.56984830043719
 31
0.0
  0
LINE
  5
1DF
330
6C
100
AcDbEntity
  8
Visible (ANSI)
100
AcDbLine
 10
68.45855637942904
 20
57.33384830043718
 30
0.0
 11
67.79390637942906
 21
57.33384830043717
 31
0.0
  0
LINE
  5
1E0
330
6C
100
AcDbEntity
  8
Hidden (ANSI)
 48
0.0266847964376211
100
AcDbLine
 10
67.68455637942889
 20
39.20184830043718
 30
0.0
 11
67.77830637942888
 21
39.20184830043718
 31
0.0
  0
LINE
  5
1E1
330
6C
100
AcDbEntity
  8
Hidden (ANSI)
 48
0.0266847964376211
100
AcDbLine
 10
67.68455637942889
 20
38.70184830043718
 30
0.0
 11
67.77830637942888
 21
38.70184830043718
 31
0.0
  0
LINE
  5
1E2
330
6C
100
AcDbEntity
  8
Hidden (ANSI)
 48
0.0266847964376211
100
AcDbLine
 10
67.68455637942889
 20
58.78184830043719
 30
0.0
 11
67.77830637942888
 21
58.78184830043719
 31
0.0
  0
LINE
  5
1E3
330
6C
100
AcDbEntity
  8
Hidden (ANSI)
 48
0.0266847964376211
100
AcDbLine
 10
67.68455637942889
 20
58.28184830043718
 30
0.0
 11
67.77830637942888
 21
58.28184830043718
 31
0.0
  0
LINE
  5
1E4
330
6C
100
AcDbEntity
  8
Hidden (ANSI)
 48
0.0266847964376211
100
AcDbLine
 10
67.68455637942889
 20
19.62184830043718
 30
0.0
 11
67.77830637942888
 21
19.62184830043718
 31
0.0
  0
LINE
  5
1E5
330
6C
100
AcDbEntity
  8
Hidden (ANSI)
 48
0.0266847964376211
100
AcDbLine
 10
67.68455637942889
 20
19.12184830043717
 30
0.0
 11
67.77830637942888
 21
19.12184830043717
 31
0.0
  0
LINE
  5
1E6
330
6C
100
AcDbEntity
  8
Hidden (ANSI)
 48
0.0266847964376211
100
AcDbLine
 10
67.68455637942889
 20
57.93809830043717
 30
0.0
 11
67.77830637942888
 21
57.93809830043717
 31
0.0
  0
LINE
  5
1E7
330
6C
100
AcDbEntity
  8
Hidden (ANSI)
 48
0.0266847964376211
100
AcDbLine
 10
67.68455637942889
 20
57.62559830043718
 30
0.0
 11
67.77830637942888
 21
57.62559830043718
 31
0.0
  0
LINE
  5
1E8
330
6C
100
AcDbEntity
  8
Hidden (ANSI)
 48
0.0266847964376211
100
AcDbLine
 10
67.68455637942889
 20
20.27809830043718
 30
0.0
 11
67.77830637942888
 21
20.27809830043718
 31
0.0
  0
LINE
  5
1E9
330
6C
100
AcDbEntity
  8
Hidden (ANSI)
 48
0.0266847964376211
100
AcDbLine
 10
67.68455637942889
 20
19.96559830043718
 30
0.0
 11
67.77830637942888
 21
19.96559830043718
 31
0.0
  0
ELLIPSE
  5
1EA
330
6C
100
AcDbEntity
  8
Visible (ANSI)
100
AcDbEllipse
 10
107.3575909585342
 20
48.26505626391591
 30
0.0
 11
-0.0831720352640673
 21
0.1444305726908641
 31
0.0
210
0.0
220
0.0
230
0.9999999999999998
 40
0.578093115915812
 41
0.2678448778126314
 42
2.873747775777286
  0
ELLIPSE
  5
1EB
330
6C
100
AcDbEntity
  8
Visible (ANSI)
100
AcDbEllipse
 10
107.31339678471
 20
48.23960653180389
 30
0.0
 11
-0.0831720352640668
 21
0.1444305726908632
 31
0.0
210
0.0
220
0.0
230
0.9999999999999998
 40
0.5780931159158119
 41
0.0
 42
6.283185307179586
  0
ELLIPSE
  5
1EC
330
6C
100
AcDbEntity
  8
Visible (ANSI)
100
AcDbEllipse
 10
94.55424417384788
 20
55.63801332164797
 30
0.0
 11
-0.0831720352640669
 21
0.1444305726908635
 31
0.0
210
0.0
220
0.0
230
1.0
 40
0.5780931159158119
 41
0.2678448778126314
 42
2.873747775777286
  0
ELLIPSE
  5
1ED
330
6C
100
AcDbEntity
  8
Visible (ANSI)
100
AcDbEllipse
 10
94.51005000002373
 20
55.61256358953595
 30
0.0
 11
-0.0831720352640668
 21
0.1444305726908632
 31
0.0
210
0.0
220
0.0
230
0.9999999999999998
 40
0.5780931159158119
 41
0.0
 42
6.283185307179586
  0
ELLIPSE
  5
1EE
330
6C
100
AcDbEntity
  8
Visible (ANSI)
100
AcDbEllipse
 10
95.12634070027996
 20
44.42150222616692
 30
0.0
 11
-0.0363794482244868
 21
-0.0631739324949926
 31
0.0
210
0.0
220
0.0
230
1.0
 40
0.5780931159156424
 41
5.495853435359147
 42
6.283185307179683
  0
ELLIPSE
  5
1EF
330
6C
100
AcDbEntity
  8
Visible (ANSI)
100
AcDbEllipse
 10
106.8002022531508
 20
37.69897245526572
 30
0.0
 11
-0.0363794482244892
 21
-0.0631739324949968
 31
0.0
210
0.0
220
0.0
230
1.0
 40
0.5780931159156428
 41
5.495853435359045
 42
5.556343885665661
  0
LINE
  5
1F0
330
6C
100
AcDbEntity
  8
Visible Narrow (ANSI)
100
AcDbLine
 10
95.07479261593147
 20
44.39181765863146
 30
0.0
 11
106.7486541688023
 21
37.66928788773026
 31
0.0
  0
LINE
  5
1F1
330
6C
100
AcDbEntity
  8
Visible (ANSI)
100
AcDbLine
 10
106.7487484497064
 20
37.66934260125173
 30
0.0
 11
106.7487484497064
 21
37.60963440956739
 31
0.0
  0
LINE
  5
1F2
330
6C
100
AcDbEntity
  8
Visible (ANSI)
100
AcDbLine
 10
106.7486541688023
 20
37.66939689401357
 30
0.0
 11
106.7487484497064
 21
37.66934260125173
 31
0.0
  0
LINE
  5
1F3
330
6C
100
AcDbEntity
  8
Visible (ANSI)
100
AcDbLine
 10
95.0746983350273
 20
44.3919809576766
 30
0.0
 11
95.07479261593147
 21
44.39192666491477
 31
0.0
  0
LINE
  5
1F4
330
6C
100
AcDbEntity
  8
Visible (ANSI)
100
AcDbLine
 10
95.0746983350273
 20
44.33227276599228
 30
0.0
 11
95.0746983350273
 21
44.3919809576766
 31
0.0
  0
LINE
  5
1F5
330
6C
100
AcDbEntity
  8
Visible (ANSI)
100
AcDbLine
 10
95.10495287095309
 20
44.34969519451303
 30
0.0
 11
95.0746983350273
 21
44.33227276599228
 31
0.0
  0
LINE
  5
1F6
330
6C
100
AcDbEntity
  8
Visible (ANSI)
100
AcDbLine
 10
95.08996125205547
 20
44.35832829367193
 30
0.0
 11
106.7487484497064
 21
37.64447926660888
 31
0.0
  0
LINE
  5
1F7
330
6C
100
AcDbEntity
  8
Visible (ANSI)
100
AcDbLine
 10
95.07479261593147
 20
44.39192666491477
 30
0.0
 11
95.07479261593147
 21
44.39181765863146
 31
0.0
  0
LINE
  5
1F8
330
6C
100
AcDbEntity
  8
Visible (ANSI)
100
AcDbLine
 10
106.7486541688023
 20
37.66928788773026
 30
0.0
 11
106.7486541688023
 21
37.66939689401357
 31
0.0
  0
ELLIPSE
  5
1F9
330
6C
100
AcDbEntity
  8
Visible (ANSI)
100
AcDbEllipse
 10
107.3575909585342
 20
58.93677140019391
 30
0.0
 11
-0.0831720352640673
 21
0.1444305726908641
 31
0.0
210
0.0
220
0.0
230
0.9999999999999998
 40
0.578093115915812
 41
0.2678448778126314
 42
2.873747775777286
  0
ELLIPSE
  5
1FA
330
6C
100
AcDbEntity
  8
Visible (ANSI)
100
AcDbEllipse
 10
94.55424417384788
 20
66.30972845792597
 30
0.0
 11
-0.0831720352640667
 21
0.1444305726908631
 31
0.0
210
0.0
220
0.0
230
1.0
 40
0.578093115915812
 41
0.2678448778126318
 42
2.873747775777287
  0
ELLIPSE
  5
1FB
330
6C
100
AcDbEntity
  8
Visible (ANSI)
100
AcDbEllipse
 10
94.55424417384788
 20
44.96629818536997
 30
0.0
 11
-0.0831720352640666
 21
0.144430572690863
 31
0.0
210
0.0
220
0.0
230
1.0
 40
0.5780931159158121
 41
0.2678448778126313
 42
2.873747775777286
  0
ELLIPSE
  5
1FC
330
6C
100
AcDbEntity
  8
Visible (ANSI)
100
AcDbEllipse
 10
107.3575909585342
 20
37.59334112763792
 30
0.0
 11
-0.0831720352640664
 21
0.1444305726908626
 31
0.0
210
0.0
220
0.0
230
0.9999999999999998
 40
0.5780931159158121
 41
0.2678448778126016
 42
2.873747775777269
  0
ELLIPSE
  5
1FD
330
6C
100
AcDbEntity
  8
Visible (ANSI)
100
AcDbEllipse
 10
107.3575909585342
 20
58.52799783777264
 30
0.0
 11
0.0519825220400472
 21
-0.0902691079317866
 31
0.0
210
0.0
220
0.0
230
1.0
 40
0.5780931159158119
 41
3.57883851325163
 42
5.845939447517054
  0
ELLIPSE
  5
1FE
330
6C
100
AcDbEntity
  8
Visible (ANSI)
100
AcDbEllipse
 10
94.55424417384788
 20
65.90095489550468
 30
0.0
 11
0.051982522040047
 21
-0.0902691079317862
 31
0.0
210
0.0
220
0.0
230
1.0
 40
0.578093115915812
 41
3.57883851325163
 42
5.845939447517054
  0
ELLIPSE
  5
1FF
330
6C
100
AcDbEntity
  8
Visible (ANSI)
100
AcDbEllipse
 10
94.55424417384788
 20
45.37507174779124
 30
0.0
 11
0.051982522040047
 21
-0.0902691079317863
 31
0.0
210
0.0
220
0.0
230
1.0
 40
0.578093115915812
 41
3.57883851325163
 42
5.845939447517054
  0
ELLIPSE
  5
200
330
6C
100
AcDbEntity
  8
Visible (ANSI)
100
AcDbEllipse
 10
107.3575909585342
 20
38.00211469005918
 30
0.0
 11
0.0519825220400474
 21
-0.0902691079317869
 31
0.0
210
0.0
220
0.0
230
1.0
 40
0.5780931159158119
 41
3.578838513251579
 42
5.845939447517054
  0
ELLIPSE
  5
201
330
6C
100
AcDbEntity
  8
Visible (ANSI)
100
AcDbEllipse
 10
107.31339678471
 20
58.91132166808188
 30
0.0
 11
-0.0831720352640666
 21
0.144430572690863
 31
0.0
210
0.0
220
0.0
230
1.0
 40
0.5780931159158117
 41
0.0
 42
6.283185307179586
  0
ELLIPSE
  5
202
330
6C
100
AcDbEntity
  8
Visible (ANSI)
100
AcDbEllipse
 10
94.51005000002373
 20
66.28427872581394
 30
0.0
 11
-0.0831720352640666
 21
0.144430572690863
 31
0.0
210
0.0
220
0.0
230
1.0
 40
0.5780931159158117
 41
0.0
 42
6.283185307179586
  0
ELLIPSE
  5
203
330
6C
100
AcDbEntity
  8
Visible (ANSI)
100
AcDbEllipse
 10
94.51005000002373
 20
44.94084845325795
 30
0.0
 11
-0.0831720352640666
 21
0.144430572690863
 31
0.0
210
0.0
220
0.0
230
1.0
 40
0.5780931159158117
 41
0.0
 42
6.283185307179586
  0
ELLIPSE
  5
204
330
6C
100
AcDbEntity
  8
Visible (ANSI)
100
AcDbEllipse
 10
107.31339678471
 20
37.56789139552588
 30
0.0
 11
-0.0831720352640666
 21
0.144430572690863
 31
0.0
210
0.0
220
0.0
230
1.0
 40
0.5780931159158117
 41
0.0
 42
6.283185307179586
  0
ELLIPSE
  5
205
330
6C
100
AcDbEntity
  8
Visible (ANSI)
100
AcDbEllipse
 10
107.31339678471
 20
58.50254810566061
 30
0.0
 11
-0.0519825220400416
 21
0.0902691079317894
 31
0.0
210
0.0
220
0.0
230
1.0
 40
0.5780931159158119
 41
0.0
 42
6.283185307179586
  0
ELLIPSE
  5
206
330
6C
100
AcDbEntity
  8
Visible (ANSI)
100
AcDbEllipse
 10
94.51005000002373
 20
65.87550516339267
 30
0.0
 11
-0.0519825220400416
 21
0.0902691079317894
 31
0.0
210
0.0
220
0.0
230
1.0
 40
0.5780931159158119
 41
0.0
 42
6.283185307179586
  0
ELLIPSE
  5
207
330
6C
100
AcDbEntity
  8
Visible (ANSI)
100
AcDbEllipse
 10
94.51005000002373
 20
45.34962201567922
 30
0.0
 11
-0.0519825220400416
 21
0.0902691079317894
 31
0.0
210
0.0
220
0.0
230
1.0
 40
0.5780931159158119
 41
0.0
 42
6.283185307179586
  0
ELLIPSE
  5
208
330
6C
100
AcDbEntity
  8
Visible (ANSI)
100
AcDbEllipse
 10
107.31339678471
 20
37.97666495794716
 30
0.0
 11
-0.0519825220400416
 21
0.0902691079317894
 31
0.0
210
0.0
220
0.0
230
1.0
 40
0.5780931159158119
 41
0.0
 42
6.283185307179586
  0
LINE
  5
209
330
6C
100
AcDbEntity
  8
Visible (ANSI)
100
AcDbLine
 10
95.11889250885145
 20
66.26798544388447
 30
0.0
 11
94.54481608343206
 21
66.59857407072195
 31
0.0
  0
LINE
  5
20A
330
6C
100
AcDbEntity
  8
Visible (ANSI)
100
AcDbLine
 10
107.36701904895
 20
59.21475846062209
 30
0.0
 11
106.7929426235306
 21
59.54534708745958
 31
0.0
  0
LINE
  5
20B
330
6C
100
AcDbEntity
  8
Visible (ANSI)
100
AcDbLine
 10
107.6027213093455
 20
58.14277158865499
 30
0.0
 11
107.6027213093455
 21
58.80651084774383
 31
0.0
  0
LINE
  5
20C
330
6C
100
AcDbEntity
  8
Visible (ANSI)
100
AcDbLine
 10
107.6027213093455
 20
37.44127931852535
 30
0.0
 11
107.6027213093455
 21
38.10501857761419
 31
0.0
  0
LINE
  5
20D
330
6C
100
AcDbEntity
  8
Visible (ANSI)
100
AcDbLine
 10
95.0746983350273
 20
44.33227276599228
 30
0.0
 11
94.50062190960791
 21
44.66286139282977
 31
0.0
  0
LINE
  5
20E
330
6C
100
AcDbEntity
  8
Visible (ANSI)
100
AcDbLine
 10
107.3228248751258
 20
37.2790457827299
 30
0.0
 11
106.7487484497064
 21
37.60963440956739
 31
0.0
  0
LINE
  5
20F
330
6C
100
AcDbEntity
  8
Visible (ANSI)
100
AcDbLine
 10
107.5585271355214
 20
38.07956884550217
 30
0.0
 11
107.5585271355214
 21
37.41582958641333
 31
0.0
  0
LINE
  5
210
330
6C
100
AcDbEntity
  8
Visible (ANSI)
100
AcDbLine
 10
107.5585271355214
 20
58.7810611156318
 30
0.0
 11
107.5585271355214
 21
58.11732185654296
 31
0.0
  0
LINE
  5
211
330
6C
100
AcDbEntity
  8
Visible (ANSI)
100
AcDbLine
 10
106.7487484497064
 20
59.51989735534755
 30
0.0
 11
107.3228248751258
 21
59.18930872851007
 31
0.0
  0
LINE
  5
212
330
6C
100
AcDbEntity
  8
Visible (ANSI)
100
AcDbLine
 10
94.50062190960791
 20
66.57312433860993
 30
0.0
 11
95.0746983350273
 21
66.24253571177245
 31
0.0
  0
LINE
  5
213
330
6C
100
AcDbEntity
  8
Visible (ANSI)
100
AcDbLine
 10
94.26491964921238
 20
65.77260127583767
 30
0.0
 11
94.26491964921238
 21
66.4363405349265
 31
0.0
  0
LINE
  5
214
330
6C
100
AcDbEntity
  8
Visible (ANSI)
100
AcDbLine
 10
94.26491964921236
 20
45.07110900570803
 30
0.0
 11
94.26491964921236
 21
45.73484826479687
 31
0.0
  0
LINE
  5
215
330
6C
100
AcDbEntity
  8
Visible (ANSI)
100
AcDbLine
 10
95.11889250885145
 20
66.26798544388447
 30
0.0
 11
95.11889250885145
 21
66.26725143857239
 31
0.0
  0
LINE
  5
216
330
6C
100
AcDbEntity
  8
Visible (ANSI)
100
AcDbLine
 10
106.7487484497064
 20
59.51989735534755
 30
0.0
 11
106.7487484497064
 21
59.46018916366321
 31
0.0
  0
LINE
  5
217
330
6C
100
AcDbEntity
  8
Visible (ANSI)
100
AcDbLine
 10
106.7487484497064
 20
59.46018916366321
 30
0.0
 11
106.7486541688023
 21
59.46024345642506
 31
0.0
  0
LINE
  5
218
330
6C
100
AcDbEntity
  8
Visible Narrow (ANSI)
100
AcDbLine
 10
106.7486541688023
 20
59.46035246270837
 30
0.0
 11
95.07479261593147
 21
66.18288223360957
 31
0.0
  0
LINE
  5
219
330
6C
100
AcDbEntity
  8
Visible (ANSI)
100
AcDbLine
 10
95.07479261593147
 20
66.18277322732627
 30
0.0
 11
95.0746983350273
 21
66.18282752008811
 31
0.0
  0
LINE
  5
21A
330
6C
100
AcDbEntity
  8
Visible (ANSI)
100
AcDbLine
 10
95.0746983350273
 20
66.18282752008811
 30
0.0
 11
95.0746983350273
 21
66.24253571177245
 31
0.0
  0
LINE
  5
21B
330
6C
100
AcDbEntity
  8
Visible Narrow (ANSI)
100
AcDbLine
 10
106.8002022531507
 20
59.54963621564482
 30
0.0
 11
95.12634070027997
 21
66.27216598654607
 31
0.0
  0
ELLIPSE
  5
21C
330
6C
100
AcDbEntity
  8
Visible (ANSI)
100
AcDbEllipse
 10
106.8002022531509
 20
59.4900370302439
 30
0.0
 11
0.0363794482245653
 21
0.0631739324951201
 31
0.0
210
0.0
220
0.0
230
0.9999999999999998
 40
0.5780931159156426
 41
2.293770331463136
 42
2.354260781769383
  0
ELLIPSE
  5
21D
330
6C
100
AcDbEntity
  8
Visible (ANSI)
100
AcDbEllipse
 10
106.8002022531508
 20
59.49003703024386
 30
0.0
 11
0.036379448224472
 21
0.0631739324949668
 31
0.0
210
0.0
220
0.0
230
1.0
 40
0.5780931159156426
 41
0.7834644549751353
 42
0.917520025138188
  0
LINE
  5
21E
330
6C
100
AcDbEntity
  8
Visible (ANSI)
100
AcDbLine
 10
106.7486541688023
 20
59.46024345642506
 30
0.0
 11
106.7487484497064
 21
59.46029774918689
 31
0.0
  0
ELLIPSE
  5
21F
330
6C
100
AcDbEntity
  8
Visible (ANSI)
100
AcDbEllipse
 10
95.12634070027996
 20
66.21256680114504
 30
0.0
 11
0.0363794482244889
 21
0.0631739324949869
 31
0.0
210
0.0
220
0.0
230
1.0
 40
0.5780931159156477
 41
0.7834644549749453
 42
2.35426078176969
  0
LINE
  5
220
330
6C
100
AcDbEntity
  8
Visible (ANSI)
100
AcDbLine
 10
95.0746983350273
 20
66.24253571177245
 30
0.0
 11
95.11889250885145
 21
66.26798544388447
 31
0.0
  0
LINE
  5
221
330
6C
100
AcDbEntity
  8
Visible (ANSI)
100
AcDbLine
 10
95.0746983350273
 20
66.18282752008811
 30
0.0
 11
95.07479261593147
 21
66.18288181284994
 31
0.0
  0
LINE
  5
222
330
6C
100
AcDbEntity
  8
Visible (ANSI)
100
AcDbLine
 10
106.7929426235306
 20
59.54534708745958
 30
0.0
 11
106.7487484497064
 21
59.51989735534755
 31
0.0
  0
LINE
  5
223
330
6C
100
AcDbEntity
  8
Visible (ANSI)
100
AcDbLine
 10
107.6027213093455
 20
58.80651084774383
 30
0.0
 11
107.36701904895
 21
59.21475846062209
 31
0.0
  0
LINE
  5
224
330
6C
100
AcDbEntity
  8
Visible (ANSI)
100
AcDbLine
 10
107.3228248751258
 20
59.18930872851007
 30
0.0
 11
107.5585271355214
 21
58.7810611156318
 31
0.0
  0
LINE
  5
225
330
6C
100
AcDbEntity
  8
Visible (ANSI)
100
AcDbLine
 10
107.36701904895
 20
59.21475846062209
 30
0.0
 11
107.3228248751258
 21
59.18930872851007
 31
0.0
  0
LINE
  5
226
330
6C
100
AcDbEntity
  8
Visible (ANSI)
100
AcDbLine
 10
107.5585271355214
 20
58.7810611156318
 30
0.0
 11
107.6027213093455
 21
58.80651084774383
 31
0.0
  0
LINE
  5
227
330
6C
100
AcDbEntity
  8
Visible (ANSI)
100
AcDbLine
 10
107.6020856763294
 20
38.10538461432407
 30
0.0
 11
107.6027213093455
 21
38.10501857761419
 31
0.0
  0
LINE
  5
228
330
6C
100
AcDbEntity
  8
Visible (ANSI)
100
AcDbLine
 10
107.5585271355214
 20
38.07956884550217
 30
0.0
 11
107.5068847702687
 21
38.10930770579946
 31
0.0
  0
LINE
  5
229
330
6C
100
AcDbEntity
  8
Visible (ANSI)
100
AcDbLine
 10
107.5068847702687
 20
38.10930770579946
 30
0.0
 11
107.5068847702687
 21
38.10941671208278
 31
0.0
  0
LINE
  5
22A
330
6C
100
AcDbEntity
  8
Visible Narrow (ANSI)
100
AcDbLine
 10
107.5069790511729
 20
38.10936241932094
 30
0.0
 11
107.5069790511729
 21
58.14689741779511
 31
0.0
  0
LINE
  5
22B
330
6C
100
AcDbEntity
  8
Visible (ANSI)
100
AcDbLine
 10
107.5068847702687
 20
58.14695171055695
 30
0.0
 11
107.5068847702687
 21
58.14706071684025
 31
0.0
  0
LINE
  5
22C
330
6C
100
AcDbEntity
  8
Visible (ANSI)
100
AcDbLine
 10
107.5068847702687
 20
58.14706071684025
 30
0.0
 11
107.5585271355214
 21
58.11732185654296
 31
0.0
  0
LINE
  5
22D
330
6C
100
AcDbEntity
  8
Visible Narrow (ANSI)
100
AcDbLine
 10
107.6100752198699
 20
38.10936241932096
 30
0.0
 11
107.6100752198699
 21
58.14689741779512
 31
0.0
  0
ELLIPSE
  5
22E
330
6C
100
AcDbEntity
  8
Visible (ANSI)
100
AcDbEllipse
 10
107.5585271355214
 20
38.13904698685641
 30
0.0
 11
0.0729000000000028
 21
0.0000000000000043
 31
0.0
210
0.0
220
0.0
230
1.0
 40
0.5758617009853071
 41
3.926990816987341
 42
5.497787143782188
  0
LINE
  5
22F
330
6C
100
AcDbEntity
  8
Visible (ANSI)
100
AcDbLine
 10
107.5068847702687
 20
58.14695171055695
 30
0.0
 11
107.5069794165033
 21
58.1470062136986
 31
0.0
  0
ELLIPSE
  5
230
330
6C
100
AcDbEntity
  8
Visible (ANSI)
100
AcDbEllipse
 10
107.5585271355214
 20
58.1765819853306
 30
0.0
 11
0.07290000000008
 21
0.0000000000000043
 31
0.0
210
0.0
220
0.0
230
1.0
 40
0.5758617009853069
 41
3.926990816987192
 42
3.987598387465106
  0
ELLIPSE
  5
231
330
6C
100
AcDbEntity
  8
Visible (ANSI)
100
AcDbEllipse
 10
107.5585271355215
 20
58.17658198533048
 30
0.0
 11
0.07289999999978
 21
-0.0000000000000001
 31
0.0
210
0.0
220
0.0
230
1.0
 40
0.575861700985307
 41
5.363700662383008
 42
5.497787143782744
  0
LINE
  5
232
330
6C
100
AcDbEntity
  8
Visible (ANSI)
100
AcDbLine
 10
107.5585271355214
 20
58.11732185654296
 30
0.0
 11
107.6027213093455
 21
58.14277158865499
 31
0.0
  0
LINE
  5
233
330
6C
100
AcDbEntity
  8
Visible (ANSI)
100
AcDbLine
 10
107.5068847702687
 20
38.10930770579946
 30
0.0
 11
107.5069794165046
 21
38.10936220894187
 31
0.0
  0
LINE
  5
234
330
6C
100
AcDbEntity
  8
Visible (ANSI)
100
AcDbLine
 10
107.6027213093455
 20
38.10501857761419
 30
0.0
 11
107.5585271355214
 21
38.07956884550217
 31
0.0
  0
LINE
  5
235
330
6C
100
AcDbEntity
  8
Visible (ANSI)
100
AcDbLine
 10
107.36701904895
 20
37.30449551484193
 30
0.0
 11
107.6027213093455
 21
37.44127931852535
 31
0.0
  0
LINE
  5
236
330
6C
100
AcDbEntity
  8
Visible (ANSI)
100
AcDbLine
 10
107.5585271355214
 20
37.41582958641333
 30
0.0
 11
107.3228248751258
 21
37.2790457827299
 31
0.0
  0
LINE
  5
237
330
6C
100
AcDbEntity
  8
Visible (ANSI)
100
AcDbLine
 10
107.3228248751258
 20
37.2790457827299
 30
0.0
 11
107.36701904895
 21
37.30449551484193
 31
0.0
  0
LINE
  5
238
330
6C
100
AcDbEntity
  8
Visible (ANSI)
100
AcDbLine
 10
107.6027213093455
 20
37.44127931852535
 30
0.0
 11
107.5585271355214
 21
37.41582958641333
 31
0.0
  0
LINE
  5
239
330
6C
100
AcDbEntity
  8
Visible (ANSI)
100
AcDbLine
 10
107.5068847702687
 20
38.10941671208278
 30
0.0
 11
107.5069790511729
 21
38.10936241932094
 31
0.0
  0
LINE
  5
23A
330
6C
100
AcDbEntity
  8
Visible (ANSI)
100
AcDbLine
 10
107.5069790511729
 20
58.14689741779511
 30
0.0
 11
107.5068847702687
 21
58.14695171055695
 31
0.0
  0
LINE
  5
23B
330
6C
100
AcDbEntity
  8
Visible (ANSI)
100
AcDbLine
 10
107.6100752198699
 20
38.10936241932096
 30
0.0
 11
107.9233942346136
 21
38.28979084010235
 31
0.0
  0
LINE
  5
23C
330
6C
100
AcDbEntity
  8
Visible (ANSI)
100
AcDbLine
 10
107.9233942346136
 20
58.32732583857652
 30
0.0
 11
107.9233942346136
 21
38.28979084010235
 31
0.0
  0
LINE
  5
23D
330
6C
100
AcDbEntity
  8
Visible (ANSI)
100
AcDbLine
 10
107.9233942346136
 20
58.32732583857652
 30
0.0
 11
107.6100752198699
 21
58.14689741779512
 31
0.0
  0
LINE
  5
23E
330
6C
100
AcDbEntity
  8
Visible (ANSI)
100
AcDbLine
 10
107.8792000607894
 20
58.35277557068854
 30
0.0
 11
107.9233942346136
 21
58.32732583857652
 31
0.0
  0
LINE
  5
23F
330
6C
100
AcDbEntity
  8
Visible (ANSI)
100
AcDbLine
 10
107.6027213093455
 20
58.19356204659571
 30
0.0
 11
107.8792000607894
 21
58.35277557068854
 31
0.0
  0
LINE
  5
240
330
6C
100
AcDbEntity
  8
Visible (ANSI)
100
AcDbLine
 10
106.7486541688023
 20
59.46024345642506
 30
0.0
 11
106.7486541688023
 21
59.46035246270837
 31
0.0
  0
LINE
  5
241
330
6C
100
AcDbEntity
  8
Visible (ANSI)
100
AcDbLine
 10
95.07479261593147
 20
66.18288223360957
 30
0.0
 11
95.07479261593147
 21
66.18277322732627
 31
0.0
  0
LINE
  5
242
330
6C
100
AcDbEntity
  8
Visible (ANSI)
100
AcDbLine
 10
106.8002022531507
 20
59.54963621564482
 30
0.0
 11
107.1135212678945
 21
59.73006463642626
 31
0.0
  0
LINE
  5
243
330
6C
100
AcDbEntity
  8
Visible (ANSI)
100
AcDbLine
 10
95.43965971502368
 20
66.45259440732748
 30
0.0
 11
107.1135212678945
 21
59.73006463642626
 31
0.0
  0
LINE
  5
244
330
6C
100
AcDbEntity
  8
Visible (ANSI)
100
AcDbLine
 10
95.43965971502368
 20
66.45259440732748
 30
0.0
 11
95.12634070027997
 21
66.27216598654607
 31
0.0
  0
LINE
  5
245
330
6C
100
AcDbEntity
  8
Visible (ANSI)
100
AcDbLine
 10
107.1135212678945
 20
59.67896794112361
 30
0.0
 11
106.8372137651013
 21
59.51985303257009
 31
0.0
  0
LINE
  5
246
330
6C
100
AcDbEntity
  8
Visible (ANSI)
100
AcDbLine
 10
107.1135212678945
 20
59.73006463642626
 30
0.0
 11
107.1135212678945
 21
59.67896794112361
 31
0.0
  0
LINE
  5
247
330
6C
100
AcDbEntity
  8
Visible (ANSI)
100
AcDbLine
 10
94.26491964921238
 20
66.4363405349265
 30
0.0
 11
94.50062190960791
 21
66.57312433860993
 31
0.0
  0
LINE
  5
248
330
6C
100
AcDbEntity
  8
Visible (ANSI)
100
AcDbLine
 10
94.50062190960791
 20
66.57312433860993
 30
0.0
 11
94.54481608343206
 21
66.59857407072195
 31
0.0
  0
LINE
  5
249
330
6C
100
AcDbEntity
  8
Visible (ANSI)
100
AcDbLine
 10
94.26491964921238
 20
65.77260127583767
 30
0.0
 11
94.31656201446502
 21
65.74286241554037
 31
0.0
  0
LINE
  5
24A
330
6C
100
AcDbEntity
  8
Visible (ANSI)
100
AcDbLine
 10
94.31656201446502
 20
65.74286241554037
 30
0.0
 11
94.31656201446502
 21
65.74275340925708
 31
0.0
  0
LINE
  5
24B
330
6C
100
AcDbEntity
  8
Visible Narrow (ANSI)
100
AcDbLine
 10
94.31646773356085
 20
65.74280770201891
 30
0.0
 11
94.31646773356085
 21
45.70527270354473
 31
0.0
  0
LINE
  5
24C
330
6C
100
AcDbEntity
  8
Visible (ANSI)
100
AcDbLine
 10
94.31656201446502
 20
45.70521841078289
 30
0.0
 11
94.31656201446502
 21
45.70510940449957
 31
0.0
  0
LINE
  5
24D
330
6C
100
AcDbEntity
  8
Visible (ANSI)
100
AcDbLine
 10
94.31656201446502
 20
45.70510940449957
 30
0.0
 11
94.26491964921236
 21
45.73484826479687
 31
0.0
  0
ELLIPSE
  5
24E
330
6C
100
AcDbEntity
  8
Visible (ANSI)
100
AcDbEllipse
 10
94.36801581790938
 20
65.77249226955436
 30
0.0
 11
-0.0729000000000127
 21
0.0000000000000001
 31
0.0
210
0.0
220
0.0
230
1.0
 40
0.575861700985307
 41
0.7247905929201952
 42
0.7853981633974616
  0
ELLIPSE
  5
24F
330
6C
100
AcDbEntity
  8
Visible (ANSI)
100
AcDbEllipse
 10
94.36801581790936
 20
45.73495727108019
 30
0.0
 11
-0.0729
 21
-0.0000000000000031
 31
0.0
210
0.0
220
0.0
230
1.0
 40
0.5758617009853263
 41
0.0
 42
0.7853981633972387
  0
LINE
  5
250
330
6C
100
AcDbEntity
  8
Visible (ANSI)
100
AcDbLine
 10
94.26491964921236
 20
45.73484826479687
 30
0.0
 11
94.29511581790936
 21
45.75223708186597
 31
0.0
  0
LINE
  5
251
330
6C
100
AcDbEntity
  8
Visible (ANSI)
100
AcDbLine
 10
94.29511581790938
 20
65.75521245876858
 30
0.0
 11
94.29511581790936
 21
45.73495727108019
 31
0.0
  0
LINE
  5
252
330
6C
100
AcDbEntity
  8
Visible (ANSI)
100
AcDbLine
 10
94.31656201446502
 20
65.74275340925708
 30
0.0
 11
94.31646773356085
 21
65.74280770201891
 31
0.0
  0
LINE
  5
253
330
6C
100
AcDbEntity
  8
Visible (ANSI)
100
AcDbLine
 10
94.31646773356085
 20
45.70527270354473
 30
0.0
 11
94.31656201446502
 21
45.70521841078289
 31
0.0
  0
LINE
  5
254
330
6C
100
AcDbEntity
  8
Visible (ANSI)
100
AcDbLine
 10
94.48826058023438
 20
65.90110575799236
 30
0.0
 11
94.54303890765769
 21
65.9326504987995
 31
0.0
  0
LINE
  5
255
330
6C
100
AcDbEntity
  8
Visible (ANSI)
100
AcDbLine
 10
94.56745379477858
 20
65.89581063300227
 30
0.0
 11
94.50786895007142
 21
65.86149800297623
 31
0.0
  0
LINE
  5
256
330
6C
100
AcDbEntity
  8
Visible (ANSI)
100
AcDbLine
 10
94.50062190960791
 20
44.66286139282977
 30
0.0
 11
94.26491964921236
 21
45.07110900570803
 31
0.0
  0
DIMENSION
  5
257
330
6C
100
AcDbEntity
  8
Dimension (ANSI)
100
AcDbDimension
  2
*D4
 10
9.523048056157348
 20
59.05184830043719
 30
0.0
 11
9.523048056157337
 21
38.95184830043718
 31
0.0
 70
   160
  1
<>
 42
40.2
  3
Default (ANSI)
100
AcDbAlignedDimension
 13
20.54667010340143
 23
18.85184830043718
 33
0.0
 14
20.54667010340142
 24
59.05184830043718
 34
0.0
 50
90.0
100
AcDbRotatedDimension
1001
ACAD
1000
DSTYLE
1002
{
1070
   289
1070
     1
1070
   271
1070
     2
1070
   272
1070
     2
1070
    48
1040
0.0
1070
    47
1040
0.0
1002
}
  0
DIMENSION
  5
344
330
6C
100
AcDbEntity
  8
Dimension (ANSI)
100
AcDbDimension
  2
*D5
 10
48.24667010340142
 20
64.85106089886238
 30
0.0
 11
34.14667010340141
 21
64.85106089886238
 31
0.0
 70
   160
  1
<>
 42
28.20000000000001
  3
Default (ANSI)
100
AcDbAlignedDimension
 13
20.04667010340142
 23
58.55184830043718
 33
0.0
 14
48.24667010340142
 24
58.55184830043718
 34
0.0
100
AcDbRotatedDimension
1001
ACAD
1000
DSTYLE
1002
{
1070
   289
1070
     1
1070
    73
1070
     0
1070
    74
1070
     0
1070
   271
1070
     2
1070
   272
1070
     2
1070
    48
1040
0.0
1070
    47
1040
0.0
1002
}
  0
DIMENSION
  5
42E
330
6C
100
AcDbEntity
  8
Dimension (ANSI)
100
AcDbDimension
  2
*D6
 10
19.42814024158141
 20
20.12184830043718
 30
0.0
 11
17.5454773286294
 21
17.46096164647175
 31
0.0
 70
   160
  1
<>
 42
0.75
  3
Default (ANSI)
100
AcDbAlignedDimension
 13
20.56667010340143
 23
19.37184830043718
 33
0.0
 14
20.56667010340143
 24
20.12184830043718
 34
0.0
 50
90.0
100
AcDbRotatedDimension
1001
ACAD
1000
DSTYLE
1002
{
1070
   289
1070
     1
1070
   271
1070
     2
1070
   272
1070
     2
1070
    48
1040
0.0
1070
    47
1040
0.0
1002
}
  0
DIMENSION
  5
52E
330
6C
100
AcDbEntity
  8
Dimension (ANSI)
100
AcDbDimension
  2
*D7
 10
53.55090771392206
 20
58.53184830043718
 30
0.0
 11
51.66367797741718
 21
56.62047542275534
 31
0.0
 70
   160
  1
<>
 42
0.519999999999989
  3
Default (ANSI)
100
AcDbAlignedDimension
 13
47.74667010340142
 23
59.05184830043718
 33
0.0
 14
47.72667010340143
 24
58.53184830043719
 34
0.0
 50
270.0
100
AcDbRotatedDimension
1001
ACAD
1000
DSTYLE
1002
{
1070
   289
1070
     1
1070
   271
1070
     2
1070
   272
1070
     2
1070
    48
1040
0.0
1070
    47
1040
0.0
1002
}
  0
DIMENSION
  5
62E
330
6C
100
AcDbEntity
  8
Dimension (ANSI)
100
AcDbDimension
  2
*D8
 10
47.72667010340143
 20
62.48885617445292
 30
0.0
 11
51.13340758208818
 21
62.48885617445292
 31
0.0
 70
   160
  1
<>
 42
0.5199999999999961
  3
Default (ANSI)
100
AcDbAlignedDimension
 13
48.24667010340142
 23
58.55184830043718
 33
0.0
 14
47.72667010340143
 24
58.53184830043719
 34
0.0
 50
180.0
100
AcDbRotatedDimension
1001
ACAD
1000
DSTYLE
1002
{
1070
   289
1070
     1
1070
    73
1070
     0
1070
    74
1070
     0
1070
   271
1070
     2
1070
   272
1070
     2
1070
    48
1040
0.0
1070
    47
1040
0.0
1002
}
  0
DIMENSION
  5
718
330
6C
100
AcDbEntity
  8
Dimension (ANSI)
100
AcDbDimension
  2
*D9
 10
15.95029997908602
 20
38.95184830043719
 30
0.0
 11
15.95029997908601
 21
30.66184830043718
 31
0.0
 70
   160
  1
<>
 42
19.58
  3
Default (ANSI)
100
AcDbAlignedDimension
 13
20.56667010340143
 23
19.37184830043718
 33
0.0
 14
20.56667010340143
 24
38.95184830043718
 34
0.0
 50
90.0
100
AcDbRotatedDimension
1001
ACAD
1000
DSTYLE
1002
{
1070
   289
1070
     1
1070
   271
1070
     3
1070
   272
1070
     3
1070
    48
1040
0.0
1070
    47
1040
0.0
1002
}
  0
DIMENSION
  5
802
330
6C
100
AcDbEntity
  8
Dimension (ANSI)
100
AcDbDimension
  2
*D10
 10
13.04042581324581
 20
58.53184830043717
 30
0.0
 11
13.0404258132458
 21
46.45670786396006
 31
0.0
 70
   160
  1
<>
 42
39.16
  3
Default (ANSI)
100
AcDbAlignedDimension
 13
20.56667010340143
 23
19.37184830043718
 33
0.0
 14
20.56667010340143
 24
58.53184830043717
 34
0.0
 50
90.0
100
AcDbRotatedDimension
1001
ACAD
1000
DSTYLE
1002
{
1070
   289
1070
     1
1070
   271
1070
     3
1070
   272
1070
     3
1070
    48
1040
0.0
1070
    47
1040
0.0
1002
}
  0
DIMENSION
  5
8EC
330
6C
100
AcDbEntity
  8
Dimension (ANSI)
100
AcDbDimension
  2
*D11
 10
68.45855637942904
 20
62.05825774925608
 30
0.0
 11
64.79781890074214
 21
62.05825774925608
 31
0.0
 70
   160
  1
<>
 42
0.7740000000001573
  3
Default (ANSI)
100
AcDbAlignedDimension
 13
67.68455637942889
 23
59.05184830043718
 33
0.0
 14
68.45855637942904
 24
57.33384830043718
 34
0.0
 50
180.0
100
AcDbRotatedDimension
1001
ACAD
1000
DSTYLE
1002
{
1070
   289
1070
     1
1070
    73
1070
     0
1070
    74
1070
     0
1070
   271
1070
     2
1070
   272
1070
     2
1070
    48
1040
0.0
1070
    47
1040
0.0
1002
}
  0
MTEXT
  5
9D6
102
{ACAD_REACTORS
330
9D7
102
}
330
6C
100
AcDbEntity
  8
Symbol (ANSI)
100
AcDbMText
 10
73.02615583427478
 20
45.10644562758002
 30
0.0
 40
0.8000000098871746
 41
3.271961149581148
 71
     1
 72
     1
  1
{12 GA.}
  7
Note Text (ANSI)
 73
     1
 44
1.0
1001
ACAD
1000
MTEXTBEGIN
1070
    73
1070
     1
1070
    44
1040
1.0
1070
    74
1070
     0
1000
MTEXTEND
  0
LEADER
  5
9D7
330
6C
100
AcDbEntity
  8
Symbol (ANSI)
100
AcDbLeader
  3
Default (ANSI)$7
 73
     0
 74
     0
 75
     1
 40
0.8322364105542201
 41
3.048488956413585
 76
     3
 10
68.45855637942904
 20
38.95184830043718
 30
0.0
 10
72.16001411685336
 20
44.70644562263642
 30
0.0
 10
72.81618208099394
 20
44.70644562263642
 30
0.0
340
9D6
213
0.0
223
-0.4000000049435874
233
0.0
1001
ACAD
1000
DSTYLE
1002
{
1070
    77
1070
     0
1002
}
  0
DIMENSION
  5
9D8
330
6C
100
AcDbEntity
  8
Dimension (ANSI)
100
AcDbDimension
  2
*D12
 10
50.84081513131089
 20
19.35184830043718
 30
0.0
 11
52.72992532457283
 21
21.2627349544026
 31
0.0
 70
   160
  1
<>
 42
0.5
  3
Default (ANSI)
100
AcDbAlignedDimension
 13
47.74667010340143
 23
18.85184830043718
 33
0.0
 14
48.24667010340143
 24
19.35184830043718
 34
0.0
 50
90.0
100
AcDbRotatedDimension
1001
ACAD
1000
DSTYLE
1002
{
1070
   289
1070
     1
1070
   271
1070
     2
1070
   272
1070
     2
1070
    48
1040
0.0
1070
    47
1040
0.0
1002
}
  0
DIMENSION
  5
AD8
330
6C
100
AcDbEntity
  8
Dimension (ANSI)
100
AcDbDimension
  2
*D13
 10
47.74667010340143
 20
14.91484042642143
 30
0.0
 11
44.85993262471469
 21
14.91484042642143
 31
0.0
 70
   160
  1
<>
 42
0.5
  3
Default (ANSI)
100
AcDbAlignedDimension
 13
48.24667010340143
 23
19.35184830043718
 33
0.0
 14
47.74667010340143
 24
18.85184830043718
 34
0.0
 50
180.0
100
AcDbRotatedDimension
1001
ACAD
1000
DSTYLE
1002
{
1070
   289
1070
     1
1070
    73
1070
     0
1070
    74
1070
     0
1070
   271
1070
     2
1070
   272
1070
     2
1070
    48
1040
0.0
1070
    47
1040
0.0
1002
}
  0
DIMENSION
  5
BC2
330
6C
100
AcDbEntity
  8
Dimension (ANSI)
100
AcDbDimension
  2
*D14
 10
20.69167010340146
 20
58.31534194949108
 30
0.0
 11
12.77637151784778
 21
65.84024276910975
 31
0.0
 70
   163
  1
<>{\PTYP.(6PL.)}
 71
     3
 42
0.5
  3
Default (ANSI)
100
AcDbDiametricDimension
 15
20.44167010340137
 25
58.74835465138325
 35
0.0
 40
0.0
1001
ACAD_DSTYLE_DIMRADIAL_EXTENSION
1070
   387
1070
     1
1070
   388
1040
0.0
1070
   390
1040
0.0
1001
ACAD
1000
DSTYLE
1002
{
1070
   145
1040
-0.25
1070
   144
1040
1.0
1070
   271
1070
     2
1070
   272
1070
     2
1070
    48
1040
0.0
1070
    47
1040
0.0
1002
}
  0
DIMENSION
  5
C7C
330
6C
100
AcDbEntity
  8
Dimension (ANSI)
100
AcDbDimension
  2
*D15
 10
20.50719746036948
 20
20.26633728697524
 30
0.0
 11
26.00831931375179
 21
15.99398823196546
 31
0.0
 70
   163
  1
<>{\PTYP. (4PL.)}
 42
0.3125
  3
Default (ANSI)
100
AcDbDiametricDimension
 15
20.62614274643339
 25
19.97735931389913
 35
0.0
 40
0.0
1001
ACAD_DSTYLE_DIMRADIAL_EXTENSION
1070
   387
1070
     1
1070
   388
1040
0.0
1070
   390
1040
0.0
1001
ACAD
1000
DSTYLE
1002
{
1070
   145
1040
-0.25
1070
   144
1040
1.000000000000011
1070
   271
1070
     2
1070
   272
1070
     2
1070
    48
1040
0.0
1070
    47
1040
0.0
1002
}
  0
DIMENSION
  5
D35
330
6C
100
AcDbEntity
  8
Dimension (ANSI)
100
AcDbDimension
  2
*D16
 10
20.56667010340143
 20
62.46885617445292
 30
0.0
 11
34.14667010340143
 21
62.46885617445292
 31
0.0
 70
   160
  1
<>
 42
27.16
  3
Default (ANSI)
100
AcDbAlignedDimension
 13
47.72667010340143
 23
58.53184830043719
 33
0.0
 14
20.56667010340143
 24
58.53184830043717
 34
0.0
 50
180.0
100
AcDbRotatedDimension
1001
ACAD
1000
DSTYLE
1002
{
1070
   289
1070
     1
1070
    73
1070
     0
1070
    74
1070
     0
1070
   271
1070
     3
1070
   272
1070
     3
1070
    48
1040
0.0
1070
    47
1040
0.0
1002
}
  0
ENDSEC
  0
SECTION
  2
OBJECTS
  0
DICTIONARY
  5
C
330
0
100
AcDbDictionary
281
     1
  3
ACAD_CIP_PREVIOUS_PRODUCT_INFO
350
E1F
  3
ACAD_COLOR
350
63
  3
ACAD_GROUP
350
D
  3
ACAD_LAYOUT
350
62
  3
ACAD_MATERIAL
350
10
  3
ACAD_MLEADERSTYLE
350
66
  3
ACAD_MLINESTYLE
350
5F
  3
ACAD_PLOTSETTINGS
350
61
  3
ACAD_PLOTSTYLENAME
350
E
  3
ACAD_SCALELIST
350
42
  3
ACAD_TABLESTYLE
350
64
  3
ACAD_VISUALSTYLE
350
29
  3
ACDB_RECOMPOSE_DATA
350
E2E
  3
AcDbVariableDictionary
350
D8
  3
DWGPROPS
350
E2F
  0
DICTIONARY
  5
E6B
330
C76
100
AcDbDictionary
280
     1
281
     1
  3
ACAD_MTEXT_RT
360
E6C
  0
DICTIONARY
  5
E6D
330
D2F
100
AcDbDictionary
280
     1
281
     1
  3
ACAD_MTEXT_RT
360
E6E
  0
XRECORD
  5
E1F
102
{ACAD_REACTORS
330
C
102
}
330
C
100
AcDbXrecord
280
     1
300
INVNTOR
300
2012
300
85795PDSP_2012_0F
  0
DICTIONARY
  5
63
102
{ACAD_REACTORS
330
C
102
}
330
C
100
AcDbDictionary
281
     1
  0
DICTIONARY
  5
D
102
{ACAD_REACTORS
330
C
102
}
330
C
100
AcDbDictionary
281
     1
  0
DICTIONARY
  5
62
102
{ACAD_REACTORS
330
C
102
}
330
C
100
AcDbDictionary
281
     1
  3
Layout1
350
6B
  3
Layout2
350
73
  3
Model
350
6F
  0
DICTIONARY
  5
10
102
{ACAD_REACTORS
330
C
102
}
330
C
100
AcDbDictionary
281
     1
  3
ByBlock
350
19
  3
ByLayer
350
11
  3
Global
350
21
  0
DICTIONARY
  5
66
102
{ACAD_REACTORS
330
C
102
}
330
C
100
AcDbDictionary
281
     1
  3
Standard
350
67
  0
DICTIONARY
  5
5F
102
{ACAD_REACTORS
330
C
102
}
330
C
100
AcDbDictionary
281
     1
  3
Standard
350
60
  0
DICTIONARY
  5
61
102
{ACAD_REACTORS
330
C
102
}
330
C
100
AcDbDictionary
281
     1
  0
ACDBDICTIONARYWDFLT
  5
E
102
{ACAD_REACTORS
330
C
102
}
330
C
100
AcDbDictionary
281
     1
  3
Normal
350
F
100
AcDbDictionaryWithDefault
340
F
  0
DICTIONARY
  5
42
102
{ACAD_REACTORS
330
C
102
}
330
C
100
AcDbDictionary
281
     1
  3
A0
350
43
  3
A1
350
44
  3
A2
350
45
  3
A3
350
46
  3
A4
350
47
  3
A5
350
48
  3
A6
350
49
  3
A7
350
4A
  3
A8
350
4B
  3
A9
350
4C
  3
B0
350
4D
  3
B1
350
4E
  3
B2
350
4F
  3
B3
350
50
  3
B4
350
51
  3
B5
350
52
  3
B6
350
53
  0
DICTIONARY
  5
64
102
{ACAD_REACTORS
330
C
102
}
330
C
100
AcDbDictionary
281
     1
  3
Standard
350
65
  0
DICTIONARY
  5
29
102
{ACAD_REACTORS
330
C
102
}
330
C
100
AcDbDictionary
281
     1
  3
2dWireframe
350
2F
  3
Basic
350
2E
  3
Brighten
350
35
  3
ColorChange
350
39
  3
Conceptual
350
32
  3
Dim
350
34
  3
EdgeColorOff
350
41
  3
Facepattern
350
38
  3
Flat
350
2A
  3
FlatWithEdges
350
2B
  3
Gouraud
350
2C
  3
GouraudWithEdges
350
2D
  3
Hidden
350
31
  3
JitterOff
350
3F
  3
Linepattern
350
37
  3
OverhangOff
350
40
  3
Realistic
350
33
  3
Shaded
350
3E
  3
Shaded with edges
350
3D
  3
Shades of Gray
350
3A
  3
Sketchy
350
3B
  3
Thicken
350
36
  3
Wireframe
350
30
  3
X-Ray
350
3C
  0
XRECORD
  5
E2E
102
{ACAD_REACTORS
330
C
102
}
330
C
100
AcDbXrecord
280
     1
 90
        1
330
65
  0
DICTIONARY
  5
D8
102
{ACAD_REACTORS
330
C
102
}
330
C
100
AcDbDictionary
281
     1
  3
CANNOSCALE
350
DB
  3
CMLEADERSTYLE
350
DA
  3
CTABLESTYLE
350
D9
  3
DIMASSOC
350
E27
  3
HIDETEXT
350
E26
  3
INDEXCTL
350
E25
  3
LAYEREVAL
350
E22
  3
LAYERNOTIFY
350
E23
  3
LIGHTINGUNITS
350
E21
  3
MSLTSCALE
350
E20
  3
SORTENTS
350
E24
  3
XCLIPFRAME
350
E28
  0
XRECORD
  5
E2F
102
{ACAD_REACTORS
330
C
102
}
330
C
100
AcDbXrecord
280
     1
  1
DWGPROPS COOKIE
  2

  3

  4
EC
  6

  7

  8

  9
-
300
Manager=
301
Company=
302
Category=
303
Part Number=NP4230C
304
Description=NPC PANEL MASTER VIEW
305
Project=
306
Designer=EC
307
Engineer=
308
Authority=
309
Cost Center=
 40
0.0000381481481481
 41
2455944.539102118
 42
2455944.539102292
  1

 90
       20
300
Vendor=
300
User Status=
300
Design Status=WorkInProgress
300
Checked by=JG
300
Date Checked=02/19/2009
300
Engr Approved by=
300
Mfg Approved by=
300
DWG. NO=
300
NUMBER OF SHEETS=1
300
DRAWING #=1
  0
XRECORD
  5
E6C
102
{ACAD_REACTORS
330
E6B
102
}
330
E6B
100
AcDbXrecord
280
     1
 40
29672.0
  1
\A1;\U+22050.50{\PTYP.(6PL.)}
  0
XRECORD
  5
E6E
102
{ACAD_REACTORS
330
E6D
102
}
330
E6D
100
AcDbXrecord
280
     1
 40
30807.0
  1
\A1;\U+22050.31{\PTYP. (4PL.)}
  0
LAYOUT
  5
6B
102
{ACAD_XDICTIONARY
360
E65
102
}
102
{ACAD_REACTORS
330
62
102
}
330
62
100
AcDbPlotSettings
  1

  2

  4

  6

 40
0.0
 41
0.0
 42
0.0
 43
0.0
 44
0.0
 45
0.0
 46
0.0
 47
0.0
 48
0.0
 49
0.0
140
0.0
141
0.0
142
1.0
143
1.0
 70
   688
 72
     0
 73
     0
 74
     5
  7

 75
    16
147
1.0
148
0.0
149
0.0
100
AcDbLayout
  1
Layout1
 70
     1
 71
     1
 10
0.0
 20
0.0
 11
12.0
 21
9.0
 12
0.0
 22
0.0
 32
0.0
 14
0.0
 24
0.0
 34
0.0
 15
0.0
 25
0.0
 35
0.0
146
0.0
 13
0.0
 23
0.0
 33
0.0
 16
1.0
 26
0.0
 36
0.0
 17
0.0
 27
1.0
 37
0.0
 76
     0
330
68
  0
LAYOUT
  5
73
102
{ACAD_XDICTIONARY
360
E69
102
}
102
{ACAD_REACTORS
330
62
102
}
330
62
100
AcDbPlotSettings
  1

  2

  4

  6

 40
0.0
 41
0.0
 42
0.0
 43
0.0
 44
0.0
 45
0.0
 46
0.0
 47
0.0
 48
0.0
 49
0.0
140
0.0
141
0.0
142
1.0
143
1.0
 70
   688
 72
     0
 73
     0
 74
     5
  7

 75
    16
147
1.0
148
0.0
149
0.0
100
AcDbLayout
  1
Layout2
 70
     1
 71
     2
 10
0.0
 20
0.0
 11
12.0
 21
9.0
 12
0.0
 22
0.0
 32
0.0
 14
0.0
 24
0.0
 34
0.0
 15
0.0
 25
0.0
 35
0.0
146
0.0
 13
0.0
 23
0.0
 33
0.0
 16
1.0
 26
0.0
 36
0.0
 17
0.0
 27
1.0
 37
0.0
 76
     0
330
70
  0
LAYOUT
  5
6F
102
{ACAD_XDICTIONARY
360
E67
102
}
102
{ACAD_REACTORS
330
62
102
}
330
62
100
AcDbPlotSettings
  1

  2

  4

  6

 40
0.0
 41
0.0
 42
0.0
 43
0.0
 44
0.0
 45
0.0
 46
0.0
 47
0.0
 48
0.0
 49
0.0
140
0.0
141
0.0
142
1.0
143
1.0
 70
  1712
 72
     0
 73
     0
 74
     0
  7

 75
     0
147
1.0
148
0.0
149
0.0
100
AcDbLayout
  1
Model
 70
     1
 71
     0
 10
0.0
 20
0.0
 11
12.0
 21
9.0
 12
0.0
 22
0.0
 32
0.0
 14
0.0
 24
0.0
 34
0.0
 15
0.0
 25
0.0
 35
0.0
146
0.0
 13
0.0
 23
0.0
 33
0.0
 16
1.0
 26
0.0
 36
0.0
 17
0.0
 27
1.0
 37
0.0
 76
     0
330
6C
  0
MATERIAL
  5
19
102
{ACAD_XDICTIONARY
360
1A
102
}
102
{ACAD_REACTORS
330
10
102
}
330
10
100
AcDbMaterial
  1
ByBlock
 72
     0
 43
0.0208333333333333
 43
0.0
 43
0.0
 43
0.0
 43
0.0
 43
0.0208333333333333
 43
0.0
 43
0.0
 43
0.0
 43
0.0
 43
1.0
 43
0.0
 43
0.0
 43
0.0
 43
0.0
 43
1.0
 77
     0
 47
0.0208333333333333
 47
0.0
 47
0.0
 47
0.0
 47
0.0
 47
0.0208333333333333
 47
0.0
 47
0.0
 47
0.0
 47
0.0
 47
1.0
 47
0.0
 47
0.0
 47
0.0
 47
0.0
 47
1.0
171
     0
 49
0.0208333333333333
 49
0.0
 49
0.0
 49
0.0
 49
0.0
 49
0.0208333333333333
 49
0.0
 49
0.0
 49
0.0
 49
0.0
 49
1.0
 49
0.0
 49
0.0
 49
0.0
 49
0.0
 49
1.0
175
     0
142
0.0208333333333333
142
0.0
142
0.0
142
0.0
142
0.0
142
0.0208333333333333
142
0.0
142
0.0
142
0.0
142
0.0
142
1.0
142
0.0
142
0.0
142
0.0
142
0.0
142
1.0
179
     0
144
0.0208333333333333
144
0.0
144
0.0
144
0.0
144
0.0
144
0.0208333333333333
144
0.0
144
0.0
144
0.0
144
0.0
144
1.0
144
0.0
144
0.0
144
0.0
144
0.0
144
1.0
147
0.0208333333333333
147
0.0
147
0.0
147
0.0
147
0.0
147
0.0208333333333333
147
0.0
147
0.0
147
0.0
147
0.0
147
1.0
147
0.0
147
0.0
147
0.0
147
0.0
147
1.0
  0
MATERIAL
  5
11
102
{ACAD_XDICTIONARY
360
12
102
}
102
{ACAD_REACTORS
330
10
102
}
330
10
100
AcDbMaterial
  1
ByLayer
 72
     0
 43
0.0208333333333333
 43
0.0
 43
0.0
 43
0.0
 43
0.0
 43
0.0208333333333333
 43
0.0
 43
0.0
 43
0.0
 43
0.0
 43
1.0
 43
0.0
 43
0.0
 43
0.0
 43
0.0
 43
1.0
 77
     0
 47
0.0208333333333333
 47
0.0
 47
0.0
 47
0.0
 47
0.0
 47
0.0208333333333333
 47
0.0
 47
0.0
 47
0.0
 47
0.0
 47
1.0
 47
0.0
 47
0.0
 47
0.0
 47
0.0
 47
1.0
171
     0
 49
0.0208333333333333
 49
0.0
 49
0.0
 49
0.0
 49
0.0
 49
0.0208333333333333
 49
0.0
 49
0.0
 49
0.0
 49
0.0
 49
1.0
 49
0.0
 49
0.0
 49
0.0
 49
0.0
 49
1.0
175
     0
142
0.0208333333333333
142
0.0
142
0.0
142
0.0
142
0.0
142
0.0208333333333333
142
0.0
142
0.0
142
0.0
142
0.0
142
1.0
142
0.0
142
0.0
142
0.0
142
0.0
142
1.0
179
     0
144
0.0208333333333333
144
0.0
144
0.0
144
0.0
144
0.0
144
0.0208333333333333
144
0.0
144
0.0
144
0.0
144
0.0
144
1.0
144
0.0
144
0.0
144
0.0
144
0.0
144
1.0
147
0.0208333333333333
147
0.0
147
0.0
147
0.0
147
0.0
147
0.0208333333333333
147
0.0
147
0.0
147
0.0
147
0.0
147
1.0
147
0.0
147
0.0
147
0.0
147
0.0
147
1.0
  0
MATERIAL
  5
21
102
{ACAD_XDICTIONARY
360
22
102
}
102
{ACAD_REACTORS
330
10
102
}
330
10
100
AcDbMaterial
  1
Global
 72
     0
 43
0.0208333333333333
 43
0.0
 43
0.0
 43
0.0
 43
0.0
 43
0.0208333333333333
 43
0.0
 43
0.0
 43
0.0
 43
0.0
 43
1.0
 43
0.0
 43
0.0
 43
0.0
 43
0.0
 43
1.0
 77
     0
 47
0.0208333333333333
 47
0.0
 47
0.0
 47
0.0
 47
0.0
 47
0.0208333333333333
 47
0.0
 47
0.0
 47
0.0
 47
0.0
 47
1.0
 47
0.0
 47
0.0
 47
0.0
 47
0.0
 47
1.0
171
     0
 49
0.0208333333333333
 49
0.0
 49
0.0
 49
0.0
 49
0.0
 49
0.0208333333333333
 49
0.0
 49
0.0
 49
0.0
 49
0.0
 49
1.0
 49
0.0
 49
0.0
 49
0.0
 49
0.0
 49
1.0
175
     0
142
0.0208333333333333
142
0.0
142
0.0
142
0.0
142
0.0
142
0.0208333333333333
142
0.0
142
0.0
142
0.0
142
0.0
142
1.0
142
0.0
142
0.0
142
0.0
142
0.0
142
1.0
179
     0
144
0.0208333333333333
144
0.0
144
0.0
144
0.0
144
0.0
144
0.0208333333333333
144
0.0
144
0.0
144
0.0
144
0.0
144
1.0
144
0.0
144
0.0
144
0.0
144
0.0
144
1.0
147
0.0208333333333333
147
0.0
147
0.0
147
0.0
147
0.0
147
0.0208333333333333
147
0.0
147
0.0
147
0.0
147
0.0
147
1.0
147
0.0
147
0.0
147
0.0
147
0.0
147
1.0
  0
MLEADERSTYLE
  5
67
102
{ACAD_XDICTIONARY
360
E2B
102
}
102
{ACAD_REACTORS
330
66
102
}
330
66
100
AcDbMLeaderStyle
170
     2
171
     1
172
     0
 90
        2
 40
0.0
 41
0.0
173
     1
 91
-1056964608
340
5B
 92
       -2
290
     1
 42
0.09
291
     1
 43
0.36
  3
Standard
 44
0.18
300

342
55
174
     1
178
     6
175
     1
176
     0
 93
-1056964608
 45
0.18
292
     0
297
     0
 46
0.18
 94
-1056964608
 47
1.0
 49
1.0
140
1.0
293
     1
141
0.0
294
     1
177
     0
142
1.0
295
     0
296
     0
143
0.125
1001
ACAD_MLEADERVER
1070
     2
  0
MLINESTYLE
  5
60
102
{ACAD_REACTORS
330
5F
102
}
330
5F
100
AcDbMlineStyle
  2
STANDARD
 70
     0
  3

 62
   256
 51
90.0
 52
90.0
 71
     2
 49
0.5
 62
   256
  6
BYLAYER
 49
-0.5
 62
   256
  6
BYLAYER
  0
ACDBPLACEHOLDER
  5
F
102
{ACAD_REACTORS
330
E
102
}
330
E
  0
SCALE
  5
43
102
{ACAD_REACTORS
330
42
102
}
330
42
100
AcDbScale
 70
     0
300
1:1
140
1.0
141
1.0
290
     1
  0
SCALE
  5
44
102
{ACAD_REACTORS
330
42
102
}
330
42
100
AcDbScale
 70
     0
300
1/128" = 1'-0"
140
0.0078125
141
12.0
290
     0
  0
SCALE
  5
45
102
{ACAD_REACTORS
330
42
102
}
330
42
100
AcDbScale
 70
     0
300
1/64" = 1'-0"
140
0.015625
141
12.0
290
     0
  0
SCALE
  5
46
102
{ACAD_REACTORS
330
42
102
}
330
42
100
AcDbScale
 70
     0
300
1/32" = 1'-0"
140
0.03125
141
12.0
290
     0
  0
SCALE
  5
47
102
{ACAD_REACTORS
330
42
102
}
330
42
100
AcDbScale
 70
     0
300
1/16" = 1'-0"
140
0.0625
141
12.0
290
     0
  0
SCALE
  5
48
102
{ACAD_REACTORS
330
42
102
}
330
42
100
AcDbScale
 70
     0
300
3/32" = 1'-0"
140
0.09375
141
12.0
290
     0
  0
SCALE
  5
49
102
{ACAD_REACTORS
330
42
102
}
330
42
100
AcDbScale
 70
     0
300
1/8" = 1'-0"
140
0.125
141
12.0
290
     0
  0
SCALE
  5
4A
102
{ACAD_REACTORS
330
42
102
}
330
42
100
AcDbScale
 70
     0
300
3/16" = 1'-0"
140
0.1875
141
12.0
290
     0
  0
SCALE
  5
4B
102
{ACAD_REACTORS
330
42
102
}
330
42
100
AcDbScale
 70
     0
300
1/4" = 1'-0"
140
0.25
141
12.0
290
     0
  0
SCALE
  5
4C
102
{ACAD_REACTORS
330
42
102
}
330
42
100
AcDbScale
 70
     0
300
3/8" = 1'-0"
140
0.375
141
12.0
290
     0
  0
SCALE
  5
4D
102
{ACAD_REACTORS
330
42
102
}
330
42
100
AcDbScale
 70
     0
300
1/2" = 1'-0"
140
0.5
141
12.0
290
     0
  0
SCALE
  5
4E
102
{ACAD_REACTORS
330
42
102
}
330
42
100
AcDbScale
 70
     0
300
3/4" = 1'-0"
140
0.75
141
12.0
290
     0
  0
SCALE
  5
4F
102
{ACAD_REACTORS
330
42
102
}
330
42
100
AcDbScale
 70
     0
300
1" = 1'-0"
140
1.0
141
12.0
290
     0
  0
SCALE
  5
50
102
{ACAD_REACTORS
330
42
102
}
330
42
100
AcDbScale
 70
     0
300
1-1/2" = 1'-0"
140
1.5
141
12.0
290
     0
  0
SCALE
  5
51
102
{ACAD_REACTORS
330
42
102
}
330
42
100
AcDbScale
 70
     0
300
3" = 1'-0"
140
3.0
141
12.0
290
     0
  0
SCALE
  5
52
102
{ACAD_REACTORS
330
42
102
}
330
42
100
AcDbScale
 70
     0
300
6" = 1'-0"
140
6.0
141
12.0
290
     0
  0
SCALE
  5
53
102
{ACAD_REACTORS
330
42
102
}
330
42
100
AcDbScale
 70
     0
300
1'-0" = 1'-0"
140
12.0
141
12.0
290
     0
  0
TABLESTYLE
  5
65
102
{ACAD_XDICTIONARY
360
E29
102
}
102
{ACAD_REACTORS
330
64
102
}
330
64
100
AcDbTableStyle
  3
Standard
 70
     0
 71
     0
 40
0.06
 41
0.06
280
     0
281
     0
  7
Standard
140
0.18
170
     2
 62
     0
 63
     7
283
     0
274
    -2
284
     1
 64
     0
275
    -2
285
     1
 65
     0
276
    -2
286
     1
 66
     0
277
    -2
287
     1
 67
     0
278
    -2
288
     1
 68
     0
279
    -2
289
     1
 69
     0
  7
Standard
140
0.25
170
     5
 62
     0
 63
     7
283
     0
274
    -2
284
     1
 64
     0
275
    -2
285
     1
 65
     0
276
    -2
286
     1
 66
     0
277
    -2
287
     1
 67
     0
278
    -2
288
     1
 68
     0
279
    -2
289
     1
 69
     0
  7
Standard
140
0.18
170
     5
 62
     0
 63
     7
283
     0
274
    -2
284
     1
 64
     0
275
    -2
285
     1
 65
     0
276
    -2
286
     1
 66
     0
277
    -2
287
     1
 67
     0
278
    -2
288
     1
 68
     0
279
    -2
289
     1
 69
     0
  0
VISUALSTYLE
  5
2F
102
{ACAD_XDICTIONARY
360
E3D
102
}
102
{ACAD_REACTORS
330
29
102
}
330
29
100
AcDbVisualStyle
  2
2dWireframe
 70
     4
 71
     0
 72
     2
 73
     0
 90
        0
 40
-0.6
 41
-30.0
 62
     5
 63
     7
 74
     1
 91
        4
 64
     7
 65
   257
 75
     1
175
     1
 42
1.0
 92
        0
 66
   257
 43
1.0
 76
     1
 77
     6
 78
     2
 67
     7
 79
     5
170
     0
171
     0
290
     0
174
     0
 93
        1
 44
0.0
173
     0
291
     0
 45
0.0
1001
ACAD
1000
AcDbSavedByObjectVersion
1070
     0
  0
VISUALSTYLE
  5
2E
102
{ACAD_XDICTIONARY
360
E3B
102
}
102
{ACAD_REACTORS
330
29
102
}
330
29
100
AcDbVisualStyle
  2
Basic
 70
     7
 71
     1
 72
     0
 73
     1
 90
        0
 40
-0.6
 41
-30.0
 62
     5
 63
     7
 74
     0
 91
        4
 64
     7
 65
   257
 75
     1
175
     1
 42
1.0
 92
        8
 66
     7
 43
1.0
 76
     1
 77
     6
 78
     2
 67
     7
 79
     5
170
     0
171
     0
290
     0
174
     0
 93
        1
 44
0.0
173
     0
291
     1
 45
0.0
1001
ACAD
1000
AcDbSavedByObjectVersion
1070
     0
  0
VISUALSTYLE
  5
35
102
{ACAD_XDICTIONARY
360
E49
102
}
102
{ACAD_REACTORS
330
29
102
}
330
29
100
AcDbVisualStyle
  2
Brighten
 70
    12
 71
     2
 72
     2
 73
     0
 90
        0
 40
-0.6
 41
-30.0
 62
     5
 63
     7
 74
     1
 91
        4
 64
     7
 65
   257
 75
     1
175
     1
 42
1.0
 92
        8
 66
     7
 43
1.0
 76
     1
 77
     6
 78
     2
 67
     7
 79
     5
170
     0
171
     0
290
     0
174
     0
 93
        1
 44
50.0
173
     0
291
     1
 45
0.0
1001
ACAD
1000
AcDbSavedByObjectVersion
1070
     0
  0
VISUALSTYLE
  5
39
102
{ACAD_XDICTIONARY
360
E51
102
}
102
{ACAD_REACTORS
330
29
102
}
330
29
100
AcDbVisualStyle
  2
ColorChange
 70
    16
 71
     2
 72
     2
 73
     3
 90
        0
 40
-0.6
 41
-30.0
 62
     5
 63
     8
 74
     1
 91
        4
 64
     7
 65
   257
 75
     1
175
     1
 42
1.0
 92
        8
 66
     8
 43
1.0
 76
     1
 77
     6
 78
     2
 67
     7
 79
     5
170
     0
171
     0
290
     0
174
     0
 93
        1
 44
0.0
173
     0
291
     1
 45
0.0
1001
ACAD
1000
AcDbSavedByObjectVersion
1070
     0
  0
VISUALSTYLE
  5
32
102
{ACAD_XDICTIONARY
360
E43
102
}
102
{ACAD_REACTORS
330
29
102
}
330
29
100
AcDbVisualStyle
  2
Conceptual
 70
     9
 71
     3
 72
     2
 73
     0
 90
        0
 40
-0.6
 41
-30.0
 62
     5
 63
     7
 74
     2
 91
        2
 64
     7
 65
   257
 75
     1
175
     1
 42
179.0
 92
        8
 66
     7
 43
1.0
 76
     1
 77
     6
 78
     2
 67
     7
 79
     3
170
     0
171
     0
290
     0
174
     0
 93
        1
 44
0.0
173
     0
291
     0
 45
0.0
1001
ACAD
1000
AcDbSavedByObjectVersion
1070
     0
  0
VISUALSTYLE
  5
34
102
{ACAD_XDICTIONARY
360
E47
102
}
102
{ACAD_REACTORS
330
29
102
}
330
29
100
AcDbVisualStyle
  2
Dim
 70
    11
 71
     2
 72
     2
 73
     0
 90
        0
 40
-0.6
 41
-30.0
 62
     5
 63
     7
 74
     1
 91
        4
 64
     7
 65
   257
 75
     1
175
     1
 42
1.0
 92
        8
 66
     7
 43
1.0
 76
     1
 77
     6
 78
     2
 67
     7
 79
     5
170
     0
171
     0
290
     0
174
     0
 93
        1
 44
-50.0
173
     0
291
     1
 45
0.0
1001
ACAD
1000
AcDbSavedByObjectVersion
1070
     0
  0
VISUALSTYLE
  5
41
102
{ACAD_XDICTIONARY
360
E61
102
}
102
{ACAD_REACTORS
330
29
102
}
330
29
100
AcDbVisualStyle
  2
EdgeColorOff
 70
    22
 71
     2
 72
     2
 73
     0
 90
        0
 40
-0.6
 41
-30.0
 62
     5
 63
     7
 74
     1
 91
        4
 64
     7
 65
   257
 75
     1
175
     1
 42
1.0
 92
        8
 66
     7
 43
1.0
 76
     1
 77
     6
 78
     2
 67
     7
 79
     5
170
     0
171
     0
290
     0
174
     0
 93
        1
 44
0.0
173
     0
291
     1
 45
0.0
1001
ACAD
1000
AcDbSavedByObjectVersion
1070
     0
  0
VISUALSTYLE
  5
38
102
{ACAD_XDICTIONARY
360
E4F
102
}
102
{ACAD_REACTORS
330
29
102
}
330
29
100
AcDbVisualStyle
  2
Facepattern
 70
    15
 71
     2
 72
     2
 73
     0
 90
        0
 40
-0.6
 41
-30.0
 62
     5
 63
     7
 74
     1
 91
        4
 64
     7
 65
   257
 75
     1
175
     1
 42
1.0
 92
        8
 66
     7
 43
1.0
 76
     1
 77
     6
 78
     2
 67
     7
 79
     5
170
     0
171
     0
290
     0
174
     0
 93
        1
 44
0.0
173
     0
291
     1
 45
0.0
1001
ACAD
1000
AcDbSavedByObjectVersion
1070
     0
  0
VISUALSTYLE
  5
2A
102
{ACAD_XDICTIONARY
360
E33
102
}
102
{ACAD_REACTORS
330
29
102
}
330
29
100
AcDbVisualStyle
  2
Flat
 70
     0
 71
     2
 72
     1
 73
     1
 90
        2
 40
-0.6
 41
30.0
 62
     5
 63
     7
 74
     0
 91
        0
 64
     7
 65
   257
 75
     1
175
     1
 42
1.0
 92
        8
 66
     7
 43
1.0
 76
     1
 77
     6
 78
     2
 67
     7
 79
     5
170
     0
171
     0
290
     0
174
     0
 93
       13
 44
0.0
173
     0
291
     1
 45
0.0
1001
ACAD
1000
AcDbSavedByObjectVersion
1070
     0
  0
VISUALSTYLE
  5
2B
102
{ACAD_XDICTIONARY
360
E35
102
}
102
{ACAD_REACTORS
330
29
102
}
330
29
100
AcDbVisualStyle
  2
FlatWithEdges
 70
     1
 71
     2
 72
     1
 73
     1
 90
        2
 40
-0.6
 41
30.0
 62
     5
 63
     7
 74
     1
 91
        0
 64
     7
 65
   257
 75
     1
175
     1
 42
1.0
 92
        0
 66
   257
 43
1.0
 76
     1
 77
     6
 78
     2
 67
     7
 79
     5
170
     0
171
     0
290
     0
174
     0
 93
       13
 44
0.0
173
     0
291
     1
 45
0.0
1001
ACAD
1000
AcDbSavedByObjectVersion
1070
     0
  0
VISUALSTYLE
  5
2C
102
{ACAD_XDICTIONARY
360
E37
102
}
102
{ACAD_REACTORS
330
29
102
}
330
29
100
AcDbVisualStyle
  2
Gouraud
 70
     2
 71
     2
 72
     2
 73
     1
 90
        2
 40
-0.6
 41
30.0
 62
     5
 63
     7
 74
     0
 91
        0
 64
     7
 65
   257
 75
     1
175
     1
 42
1.0
 92
        0
 66
     7
 43
1.0
 76
     1
 77
     6
 78
     2
 67
     7
 79
     5
170
     0
171
     0
290
     0
174
     0
 93
       13
 44
0.0
173
     0
291
     1
 45
0.0
1001
ACAD
1000
AcDbSavedByObjectVersion
1070
     0
  0
VISUALSTYLE
  5
2D
102
{ACAD_XDICTIONARY
360
E39
102
}
102
{ACAD_REACTORS
330
29
102
}
330
29
100
AcDbVisualStyle
  2
GouraudWithEdges
 70
     3
 71
     2
 72
     2
 73
     1
 90
        2
 40
-0.6
 41
30.0
 62
     5
 63
     7
 74
     1
 91
        0
 64
     7
 65
   257
 75
     1
175
     1
 42
1.0
 92
        0
 66
   257
 43
1.0
 76
     1
 77
     6
 78
     2
 67
     7
 79
     5
170
     0
171
     0
290
     0
174
     0
 93
       13
 44
0.0
173
     0
291
     1
 45
0.0
1001
ACAD
1000
AcDbSavedByObjectVersion
1070
     0
  0
VISUALSTYLE
  5
31
102
{ACAD_XDICTIONARY
360
E41
102
}
102
{ACAD_REACTORS
330
29
102
}
330
29
100
AcDbVisualStyle
  2
Hidden
 70
     6
 71
     1
 72
     2
 73
     2
 90
        0
 40
-0.6
 41
-30.0
 62
     5
 63
     7
 74
     2
 91
        2
 64
     7
 65
   257
 75
     2
175
     1
 42
40.0
 92
        0
 66
   257
 43
1.0
 76
     1
 77
     6
 78
     2
 67
     7
 79
     3
170
     0
171
     0
290
     0
174
     0
 93
        1
 44
0.0
173
     0
291
     0
 45
0.0
1001
ACAD
1000
AcDbSavedByObjectVersion
1070
     0
  0
VISUALSTYLE
  5
3F
102
{ACAD_XDICTIONARY
360
E5D
102
}
102
{ACAD_REACTORS
330
29
102
}
330
29
100
AcDbVisualStyle
  2
JitterOff
 70
    20
 71
     2
 72
     2
 73
     0
 90
        0
 40
-0.6
 41
-30.0
 62
     5
 63
     7
 74
     1
 91
        4
 64
     7
 65
   257
 75
     1
175
     1
 42
1.0
 92
       10
 66
     7
 43
1.0
 76
     1
 77
     6
 78
     2
 67
     7
 79
     5
170
     0
171
     0
290
     0
174
     0
 93
        1
 44
0.0
173
     0
291
     1
 45
0.0
1001
ACAD
1000
AcDbSavedByObjectVersion
1070
     0
  0
VISUALSTYLE
  5
37
102
{ACAD_XDICTIONARY
360
E4D
102
}
102
{ACAD_REACTORS
330
29
102
}
330
29
100
AcDbVisualStyle
  2
Linepattern
 70
    14
 71
     2
 72
     2
 73
     0
 90
        0
 40
-0.6
 41
-30.0
 62
     5
 63
     7
 74
     1
 91
        4
 64
     7
 65
   257
 75
     7
175
     7
 42
1.0
 92
        8
 66
     7
 43
1.0
 76
     1
 77
     6
 78
     2
 67
     7
 79
     5
170
     0
171
     0
290
     0
174
     0
 93
        1
 44
0.0
173
     0
291
     1
 45
0.0
1001
ACAD
1000
AcDbSavedByObjectVersion
1070
     0
  0
VISUALSTYLE
  5
40
102
{ACAD_XDICTIONARY
360
E5F
102
}
102
{ACAD_REACTORS
330
29
102
}
330
29
100
AcDbVisualStyle
  2
OverhangOff
 70
    21
 71
     2
 72
     2
 73
     0
 90
        0
 40
-0.6
 41
-30.0
 62
     5
 63
     7
 74
     1
 91
        4
 64
     7
 65
   257
 75
     1
175
     1
 42
1.0
 92
        9
 66
     7
 43
1.0
 76
     1
 77
     6
 78
     2
 67
     7
 79
     5
170
     0
171
     0
290
     0
174
     0
 93
        1
 44
0.0
173
     0
291
     1
 45
0.0
1001
ACAD
1000
AcDbSavedByObjectVersion
1070
     0
  0
VISUALSTYLE
  5
33
102
{ACAD_XDICTIONARY
360
E45
102
}
102
{ACAD_REACTORS
330
29
102
}
330
29
100
AcDbVisualStyle
  2
Realistic
 70
     8
 71
     2
 72
     3
 73
     0
 90
        2
 40
-0.6
 41
30.0
 62
     5
 63
     7
 74
     0
 91
        0
 64
     7
 65
   257
 75
     1
175
     1
 42
1.0
 92
        8
 66
   257
 43
1.0
 76
     1
 77
     6
 78
     2
 67
     7
 79
     3
170
     0
171
     0
290
     0
174
     0
 93
       13
 44
0.0
173
     0
291
     0
 45
0.0
1001
ACAD
1000
AcDbSavedByObjectVersion
1070
     0
  0
VISUALSTYLE
  5
3E
102
{ACAD_XDICTIONARY
360
E5B
102
}
102
{ACAD_REACTORS
330
29
102
}
330
29
100
AcDbVisualStyle
  2
Shaded
 70
    27
 71
     2
 72
     2
 73
     1
 90
        2
 40
-0.6
 41
30.0
 62
     5
 63
     7
 74
     0
 91
        4
 64
     7
 65
   257
 75
     1
175
     1
 42
1.0
 92
        8
 66
   257
 43
1.0
 76
     1
 77
     6
 78
     2
 67
     8
 79
     3
170
     0
171
     0
290
     0
174
     0
 93
        5
 44
0.0
173
     0
291
     0
 45
0.0
1001
ACAD
1000
AcDbSavedByObjectVersion
1070
     0
  0
VISUALSTYLE
  5
3D
102
{ACAD_XDICTIONARY
360
E59
102
}
102
{ACAD_REACTORS
330
29
102
}
330
29
100
AcDbVisualStyle
  2
Shaded with edges
 70
    26
 71
     2
 72
     2
 73
     1
 90
        2
 40
-0.6
 41
30.0
 62
     5
 63
     7
 74
     1
 91
       10
 64
     7
 65
   257
 75
     2
175
     1
 42
1.0
 92
        8
 66
   257
 43
1.0
 76
     1
 77
     6
 78
     2
 67
     7
 79
     3
170
     0
171
     0
290
     0
174
     0
 93
        5
 44
0.0
173
     0
291
     0
 45
0.0
1001
ACAD
1000
AcDbSavedByObjectVersion
1070
     0
  0
VISUALSTYLE
  5
3A
102
{ACAD_XDICTIONARY
360
E53
102
}
102
{ACAD_REACTORS
330
29
102
}
330
29
100
AcDbVisualStyle
  2
Shades of Gray
 70
    23
 71
     2
 72
     2
 73
     3
 90
        0
 40
-0.6
 41
-30.0
 62
     5
 63
     7
 74
     2
 91
        2
 64
     7
 65
     7
 75
     1
175
     1
 42
40.0
 92
        8
 66
     7
 43
1.0
 76
     1
 77
     6
 78
     2
 67
     7
 79
     3
170
     0
171
     0
290
     0
174
     0
 93
        1
 44
0.0
173
     0
291
     0
 45
0.0
1001
ACAD
1000
AcDbSavedByObjectVersion
1070
     0
  0
VISUALSTYLE
  5
3B
102
{ACAD_XDICTIONARY
360
E55
102
}
102
{ACAD_REACTORS
330
29
102
}
330
29
100
AcDbVisualStyle
  2
Sketchy
 70
    24
 71
     1
 72
     2
 73
     2
 90
        0
 40
-0.6
 41
-30.0
 62
     5
 63
     7
 74
     2
 91
        2
 64
     7
 65
     7
 75
     1
175
     1
 42
40.0
 92
       11
 66
     7
 43
1.0
 76
     1
 77
     6
 78
     2
 67
     7
 79
     6
170
     0
171
     0
290
     0
174
     0
 93
        1
 44
0.0
173
     0
291
     0
 45
0.0
1001
ACAD
1000
AcDbSavedByObjectVersion
1070
     0
  0
VISUALSTYLE
  5
36
102
{ACAD_XDICTIONARY
360
E4B
102
}
102
{ACAD_REACTORS
330
29
102
}
330
29
100
AcDbVisualStyle
  2
Thicken
 70
    13
 71
     2
 72
     2
 73
     0
 90
        0
 40
-0.6
 41
-30.0
 62
     5
 63
     7
 74
     1
 91
        4
 64
     7
 65
   257
 75
     1
175
     1
 42
1.0
 92
       12
 66
     7
 43
1.0
 76
     1
 77
     6
 78
     2
 67
     7
 79
     5
170
     0
171
     0
290
     0
174
     0
 93
        1
 44
0.0
173
     0
291
     1
 45
0.0
1001
ACAD
1000
AcDbSavedByObjectVersion
1070
     0
  0
VISUALSTYLE
  5
30
102
{ACAD_XDICTIONARY
360
E3F
102
}
102
{ACAD_REACTORS
330
29
102
}
330
29
100
AcDbVisualStyle
  2
Wireframe
 70
     5
 71
     0
 72
     2
 73
     0
 90
        0
 40
-0.6
 41
-30.0
 62
     5
 63
     7
 74
     1
 91
        4
 64
     7
 65
   257
 75
     1
175
     1
 42
1.0
 92
        0
 66
   257
 43
1.0
 76
     1
 77
     6
 78
     2
 67
     7
 79
     3
170
     0
171
     0
290
     0
174
     0
 93
        1
 44
0.0
173
     0
291
     0
 45
0.0
1001
ACAD
1000
AcDbSavedByObjectVersion
1070
     0
  0
VISUALSTYLE
  5
3C
102
{ACAD_XDICTIONARY
360
E57
102
}
102
{ACAD_REACTORS
330
29
102
}
330
29
100
AcDbVisualStyle
  2
X-Ray
 70
    25
 71
     2
 72
     2
 73
     1
 90
        1
 40
0.5
 41
-30.0
 62
     5
 63
     7
 74
     1
 91
        0
 64
     7
 65
   257
 75
     1
175
     1
 42
1.0
 92
        8
 66
     7
 43
1.0
 76
     1
 77
     6
 78
     2
 67
     7
 79
     3
170
     0
171
     0
290
     0
174
     0
 93
       13
 44
0.0
173
     0
291
     0
 45
0.0
1001
ACAD
1000
AcDbSavedByObjectVersion
1070
     0
  0
DICTIONARYVAR
  5
DB
102
{ACAD_REACTORS
330
D8
102
}
330
D8
100
DictionaryVariables
280
     0
  1
1:1
  0
DICTIONARYVAR
  5
DA
102
{ACAD_REACTORS
330
D8
102
}
330
D8
100
DictionaryVariables
280
     0
  1
STANDARD
  0
DICTIONARYVAR
  5
D9
102
{ACAD_REACTORS
330
D8
102
}
330
D8
100
DictionaryVariables
280
     0
  1
STANDARD
  0
DICTIONARYVAR
  5
E27
102
{ACAD_REACTORS
330
D8
102
}
330
D8
100
DictionaryVariables
280
     0
  1
1
  0
DICTIONARYVAR
  5
E26
102
{ACAD_REACTORS
330
D8
102
}
330
D8
100
DictionaryVariables
280
     0
  1
1
  0
DICTIONARYVAR
  5
E25
102
{ACAD_REACTORS
330
D8
102
}
330
D8
100
DictionaryVariables
280
     0
  1
0
  0
DICTIONARYVAR
  5
E22
102
{ACAD_REACTORS
330
D8
102
}
330
D8
100
DictionaryVariables
280
     0
  1
0
  0
DICTIONARYVAR
  5
E23
102
{ACAD_REACTORS
330
D8
102
}
330
D8
100
DictionaryVariables
280
     0
  1
0
  0
DICTIONARYVAR
  5
E21
102
{ACAD_REACTORS
330
D8
102
}
330
D8
100
DictionaryVariables
280
     0
  1
2
  0
DICTIONARYVAR
  5
E20
102
{ACAD_REACTORS
330
D8
102
}
330
D8
100
DictionaryVariables
280
     0
  1
1
  0
DICTIONARYVAR
  5
E24
102
{ACAD_REACTORS
330
D8
102
}
330
D8
100
DictionaryVariables
280
     0
  1
127
  0
DICTIONARYVAR
  5
E28
102
{ACAD_REACTORS
330
D8
102
}
330
D8
100
DictionaryVariables
280
     0
  1
2
  0
DICTIONARY
  5
E65
330
6B
100
AcDbDictionary
280
     1
281
     1
  3
ACAD_XREC_ROUNDTRIP
360
E66
  0
DICTIONARY
  5
E69
330
73
100
AcDbDictionary
280
     1
281
     1
  3
ACAD_XREC_ROUNDTRIP
360
E6A
  0
DICTIONARY
  5
E67
330
6F
100
AcDbDictionary
280
     1
281
     1
  3
ACAD_XREC_ROUNDTRIP
360
E68
  0
DICTIONARY
  5
1A
330
19
100
AcDbDictionary
280
     1
281
     1
  3
ACAD_XREC_ROUNDTRIP
360
E31
  3
BUMPTILE
360
1C
  3
DIFFUSETILE
360
1B
  3
OPACITYTILE
360
1F
  3
REFLECTIONTILE
360
1E
  3
REFRACTIONTILE
360
20
  3
SPECULARTILE
360
1D
  0
DICTIONARY
  5
12
330
11
100
AcDbDictionary
280
     1
281
     1
  3
ACAD_XREC_ROUNDTRIP
360
E30
  3
BUMPTILE
360
14
  3
DIFFUSETILE
360
13
  3
FBXASSET
360
169
  3
OPACITYTILE
360
17
  3
REFLECTIONTILE
360
16
  3
REFRACTIONTILE
360
18
  3
SPECULARTILE
360
15
  0
DICTIONARY
  5
22
330
21
100
AcDbDictionary
280
     1
281
     1
  3
ACAD_XREC_ROUNDTRIP
360
E32
  3
BUMPTILE
360
24
  3
DIFFUSETILE
360
23
  3
FBXASSET
360
11C
  3
OPACITYTILE
360
27
  3
REFLECTIONTILE
360
26
  3
REFRACTIONTILE
360
28
  3
SPECULARTILE
360
25
  0
DICTIONARY
  5
E2B
330
67
100
AcDbDictionary
280
     1
281
     1
  3
ACAD_XREC_ROUNDTRIP
360
E2C
  0
DICTIONARY
  5
E29
330
65
100
AcDbDictionary
280
     1
281
     1
  3
ACAD_ROUNDTRIP_2008_TABLESTYLE_CELLSTYLEMAP
360
E2A
  3
ACAD_XREC_ROUNDTRIP
360
E63
  0
DICTIONARY
  5
E3D
330
2F
100
AcDbDictionary
280
     1
281
     1
  3
ACAD_XREC_ROUNDTRIP
360
E3E
  0
DICTIONARY
  5
E3B
330
2E
100
AcDbDictionary
280
     1
281
     1
  3
ACAD_XREC_ROUNDTRIP
360
E3C
  0
DICTIONARY
  5
E49
330
35
100
AcDbDictionary
280
     1
281
     1
  3
ACAD_XREC_ROUNDTRIP
360
E4A
  0
DICTIONARY
  5
E51
330
39
100
AcDbDictionary
280
     1
281
     1
  3
ACAD_XREC_ROUNDTRIP
360
E52
  0
DICTIONARY
  5
E43
330
32
100
AcDbDictionary
280
     1
281
     1
  3
ACAD_XREC_ROUNDTRIP
360
E44
  0
DICTIONARY
  5
E47
330
34
100
AcDbDictionary
280
     1
281
     1
  3
ACAD_XREC_ROUNDTRIP
360
E48
  0
DICTIONARY
  5
E61
330
41
100
AcDbDictionary
280
     1
281
     1
  3
ACAD_XREC_ROUNDTRIP
360
E62
  0
DICTIONARY
  5
E4F
330
38
100
AcDbDictionary
280
     1
281
     1
  3
ACAD_XREC_ROUNDTRIP
360
E50
  0
DICTIONARY
  5
E33
330
2A
100
AcDbDictionary
280
     1
281
     1
  3
ACAD_XREC_ROUNDTRIP
360
E34
  0
DICTIONARY
  5
E35
330
2B
100
AcDbDictionary
280
     1
281
     1
  3
ACAD_XREC_ROUNDTRIP
360
E36
  0
DICTIONARY
  5
E37
330
2C
100
AcDbDictionary
280
     1
281
     1
  3
ACAD_XREC_ROUNDTRIP
360
E38
  0
DICTIONARY
  5
E39
330
2D
100
AcDbDictionary
280
     1
281
     1
  3
ACAD_XREC_ROUNDTRIP
360
E3A
  0
DICTIONARY
  5
E41
330
31
100
AcDbDictionary
280
     1
281
     1
  3
ACAD_XREC_ROUNDTRIP
360
E42
  0
DICTIONARY
  5
E5D
330
3F
100
AcDbDictionary
280
     1
281
     1
  3
ACAD_XREC_ROUNDTRIP
360
E5E
  0
DICTIONARY
  5
E4D
330
37
100
AcDbDictionary
280
     1
281
     1
  3
ACAD_XREC_ROUNDTRIP
360
E4E
  0
DICTIONARY
  5
E5F
330
40
100
AcDbDictionary
280
     1
281
     1
  3
ACAD_XREC_ROUNDTRIP
360
E60
  0
DICTIONARY
  5
E45
330
33
100
AcDbDictionary
280
     1
281
     1
  3
ACAD_XREC_ROUNDTRIP
360
E46
  0
DICTIONARY
  5
E5B
330
3E
100
AcDbDictionary
280
     1
281
     1
  3
ACAD_XREC_ROUNDTRIP
360
E5C
  0
DICTIONARY
  5
E59
330
3D
100
AcDbDictionary
280
     1
281
     1
  3
ACAD_XREC_ROUNDTRIP
360
E5A
  0
DICTIONARY
  5
E53
330
3A
100
AcDbDictionary
280
     1
281
     1
  3
ACAD_XREC_ROUNDTRIP
360
E54
  0
DICTIONARY
  5
E55
330
3B
100
AcDbDictionary
280
     1
281
     1
  3
ACAD_XREC_ROUNDTRIP
360
E56
  0
DICTIONARY
  5
E4B
330
36
100
AcDbDictionary
280
     1
281
     1
  3
ACAD_XREC_ROUNDTRIP
360
E4C
  0
DICTIONARY
  5
E3F
330
30
100
AcDbDictionary
280
     1
281
     1
  3
ACAD_XREC_ROUNDTRIP
360
E40
  0
DICTIONARY
  5
E57
330
3C
100
AcDbDictionary
280
     1
281
     1
  3
ACAD_XREC_ROUNDTRIP
360
E58
  0
XRECORD
  5
E66
102
{ACAD_REACTORS
330
E65
102
}
330
E65
100
AcDbXrecord
280
     1
102
SHADEPLOT
 70
     0
102
SHADEPLOTRESLEVEL
 70
     2
102
SHADEPLOTCUSTOMDPI
 70
   300
  0
XRECORD
  5
E6A
102
{ACAD_REACTORS
330
E69
102
}
330
E69
100
AcDbXrecord
280
     1
102
SHADEPLOT
 70
     0
102
SHADEPLOTRESLEVEL
 70
     2
102
SHADEPLOTCUSTOMDPI
 70
   300
  0
XRECORD
  5
E68
102
{ACAD_REACTORS
330
E67
102
}
330
E67
100
AcDbXrecord
280
     1
102
SHADEPLOT
 70
     0
102
SHADEPLOTRESLEVEL
 70
     2
102
SHADEPLOTCUSTOMDPI
 70
   300
  0
XRECORD
  5
E31
102
{ACAD_REACTORS
330
1A
102
}
330
1A
100
AcDbXrecord
280
     1
102
MATERIAL
148
0.0
149
0.0
149
0.0
 93
        0
 94
      127
282
     0
 72
     0
 77
     0
171
     0
175
     0
179
     0
273
     0
  0
XRECORD
  5
1C
102
{ACAD_REACTORS
330
1A
102
}
330
1A
100
AcDbXrecord
280
     1
270
     1
271
     1
  0
XRECORD
  5
1B
102
{ACAD_REACTORS
330
1A
102
}
330
1A
100
AcDbXrecord
280
     1
270
     1
271
     1
  0
XRECORD
  5
1F
102
{ACAD_REACTORS
330
1A
102
}
330
1A
100
AcDbXrecord
280
     1
270
     1
271
     1
  0
XRECORD
  5
1E
102
{ACAD_REACTORS
330
1A
102
}
330
1A
100
AcDbXrecord
280
     1
270
     1
271
     1
  0
XRECORD
  5
20
102
{ACAD_REACTORS
330
1A
102
}
330
1A
100
AcDbXrecord
280
     1
270
     1
271
     1
  0
XRECORD
  5
1D
102
{ACAD_REACTORS
330
1A
102
}
330
1A
100
AcDbXrecord
280
     1
270
     1
271
     1
  0
XRECORD
  5
E30
102
{ACAD_REACTORS
330
12
102
}
330
12
100
AcDbXrecord
280
     1
102
MATERIAL
148
0.0
149
0.0
149
0.0
 93
        0
 94
      127
282
     0
 72
     0
 77
     0
171
     0
175
     0
179
     0
273
     0
  0
XRECORD
  5
14
102
{ACAD_REACTORS
330
12
102
}
330
12
100
AcDbXrecord
280
     1
270
     1
271
     1
  0
XRECORD
  5
13
102
{ACAD_REACTORS
330
12
102
}
330
12
100
AcDbXrecord
280
     1
270
     1
271
     1
  0
XRECORD
  5
169
102
{ACAD_REACTORS
330
12
102
}
330
12
100
AcDbXrecord
280
     1
 70
     1
 90
1959938040
 71
     1
  1
5A0B500A-4270-4B00-855C-2D9F66BEA635
311
504B03040A00000800000A6731403DEE336E79000000790000001B0000006175746F6465736B2D64657369676E2D7061636B6167652E786D6C3C3F786D6C2076657273696F6E3D22312E302220656E636F64696E673D227574662D3822203F3E3C666F726D6174733E3C666F726D61743E687474703A2F2F736368656D612E
311
6175746F6465736B2E636F6D2F64657369676E2D7061636B6167652F323030393C2F666F726D61743E3C2F666F726D6174733E504B03041400060808000A673140D486FD9CA0000000F4000000130000005B436F6E74656E745F54797065735D2E786D6C7D8EC10E82300C865F65E91D8A1E8C310C0EEA1BF002731658846E
311
D98AC1B77784ABF1D8FE5FBFBF75BBCE937A534CCEB38643598122B6FEE978D0B0485F9C41B54DDD7D022595594E1A469170414C76A4D9A4D207E29CF43ECE46F218070CC6BECC4078ACAA135ACF422C856C0E68EA1BF5669944DDD7BCDE7B1F8E415D77AECB980613C2E4AC91FC167A2B244592486606FC29C8FD7F045B9A
311
EF7053A7E60B504B03041400060808000A673140331C27EEEA0000007C01000008000000636F72652E786D6C8D90416EC3201045AF82668F0D4E6C130B13D5756ED00B20202E4A0C9681AAC72F4E1CA9DD7535A33FFFCD8C3E3F7FCF77F465D660BDEB8116049071CA6BEBA61E52BC6206E82CF8EA7DFC6503E4E46C7AD864
311
107C5A7D5A764979178D8B59755E9B5D9421980848DD73D343509F6696854C313BC2AD58A4BAC9C914F4D5653825ABD1F388D5799FBD5AB38218DF2E2D1BC611B7ECFD848FA786E1E138104C2F4DCB0ECDA9A6ACE6E5060B1EEDFCBAAF5623A3D1202A422B4C28A6ED07ADBABAE92A8249D311C2CBCDFE074A8BFE2794AC8B
311
876A7FF7890510343FF218085E6E59E4F2082AD72D37F103504B03041400060808000A67314055019EA25F0000007C00000007000000636E782E786D6C4DCB3B0E80201045D1AD90E915ED2CF8AC45050C11660C8261F98AB1B07AC9C97D42D718D865D3E909258CFD00CCE24AC6E326A164D74DC0B4128928FF326038472B
311
A13128B1252AC747C6BAB984FC68F0B87FE8960A5C09FE86CFB69FBA01504B03041400060808000A6731406CA22C8D66010000020300000C0000006662782F636F72652E786D6C8D52ED8E8230107C95A6FF4B5B5440536ACED337B817A8503922B4A4B4C4C7BFE5C3785E8CB99094666667777640EC6F6D8306EDFADA9A1C
311
F38861A44D61CBDA54390EFE42328CF652386BFDAF328C8C6A758E47184B51391BBA052AACF1DA78408D2DF502AABED71EA3A2814B8EFBE25BB72A52C143457F8D3A555C55A5231E010D7552F4DE8101340F194F2C2FE79BA0332E450875B9B07509D3EA4BAD1D96C78F539A1D8E4792669F5BB2DE261939AC0F8CF0539266
311
AB64BBE1D946D0512C85AFDBBBBBC269E5758965CC784C18273CFDE2F16E93EC624658B2634CD0B1FC4914BAF29FA2501BBF8A17BBB3ACC792839189F8B32D44E451AF06F043A5A06388F09A127E0E1A028190BD3A37F73DAE000DBAF0D6AD81296D7850836A8286A90C4D8FA0330B9DA706B0D9CB3EF19B3EEF7BC00754A6
311
026BCAC3F51CFC385DCC5397283AEDC8E06FC858D7AAE6616EB6F8381F835ECA0BDB58F71F355D56A54B9874FC7BE50F504B03041400060808000A673140DBE3859D7E0000009D0000000B0000006662782F636E782E786D6C4DCCD10E82201886E15B61FF39F943561E00AE08EFC3253A264223685D7EDA3CE8E8DB9E7D7B
311
45FB593C79DBF472314860070462C3230E2E4C124A1E6903A45522C598FF6E4042BF58091B8312538AE5B9D360C7BEF8BCAA7761DE5133CDEFFAD4D1B339725A2337B4418DB466EC663A64E67A41A894A87EA575B7B0FA02504B03041400060808000A673140523401D62A01000014020000310000006662782F4331433244
311
4335462D364533322D343032452D383043302D3431314245463031454137302F636F72652E786D6C8D51CB6EC32010FC158B537AC05E88E3A411266A5DE70BFA0304931425068B4795CF2FD48ED4DE7261D1ECCCEC68971DEEE3ADF856CE6B6B5A444A408532D20EDA5C5A14C319EF5071E0CC591BFED05061C4A85A9461C4
311
D9C5D9382D90B4262813126AECA0165078AF022AE42D7D5AE4E5971A452962480C7F2D2721AFE2A24A52A676E271E6834B018A79487E11EF48473FBACD1137FD9AE21A688F77D001AE0979EF8F40FAB72DB06A167216A31E16B91E521C7DD6CA3D6B92C59C053D3EE24BA7445003E21408C54030D97E12BADF347B0A189A3D
311
A4C999FE4F14A7E14951D426ACE912779679C409ABE60667838DA7DB238CBA4FD68522CF5B79255F10871228ACE11576AC9AA96901C9B3A9174F1FAC4B0B5E5D4F894D36B371537356E51BA5F27BC054F33DF90F504B03041400060808000A6731405648C95E4D01000033030000300000006662782F43314332444335462D
311
364533322D343032452D383043302D3431314245463031454137302F636E782E786D6CD593BD6E032110845F05D1DF0F17E712591C9652E40952A4C5B076883938F113C56F9FC5C68E1B1729D3A0D3EC30B3FAC4F1CDF76CC9178468BC9B286B7B4AC029AF8DDB4F34A75DF34CC946F0E07DBAB151E2E40C132D32157C1F7C
311
5EAAA46127B34DA85AE30E550C107D0E0A22CAE526B15E498B01E09A8C22CC5BD01A34B91AF16B07015741717B24E903C8EBCB3BF1DB4F5029F2AEA408DE950EC1CB599B6E4C94282B639C68541F30CB56E6E435C443AB65922D6B2F5D7776FA4D22E5C2A53207434AF944CB4945DDA8458EBCC3A1E03105A4574DE9B80015
311
7259AC513221E4EE643C7B04CFC6A57155BD06C10774B3F161B5C2B0D34CF06466A80E154026D0540C3D1B9A9E35ECE98D0DEBC7713DF44D3FAEFB9E77C52EF8D67B5B2F610C04BF10E55D0297A860BC2BE37BF8AA8F681390B50FC73F804400B5F54CE79AF19FF974A7F78DB802FE05E207504B03041400060808000A6731
311
40124A1DD59C0500007B100000340000006662782F43314332444335462D364533322D343032452D383043302D3431314245463031454137302F6F626A656374732E786D6CAD575B8F9B3814FE2B887D86402ED3991543954BA78ABAD3568D5AEDC348910386F18EB9C836D34C7FFD7E0643204DA6D9555F001BFBF89CEF7C
311
E7E2E0ED3EE3D633159215F9ADEDBB9E6DD13C2A6296A7B776A512E7DAB6DE8681280AD55B665B39C9E8ADADA7ED3048455195662AA609A9B83A9ABD5BFC6DC988E6D4B6224EA4BCB565F44833E2924A1531954F6E4C1471D364EFFA6EB370283615A47C3C125A124173054D319F438AD528E50F879E3D0A8391FE1F06FA69
311
564DCEAF1AD5F60CCF67B954248F7E3AEC48CCC49FAEDE8D6737CE6C3A9D38D3ABB1EF2CEE162BC77F33F19657CBE5CDFCDD0D0E964A4092D144D0C40EDF031BC1A260D4FC0A838AE56A32364B8C8346823E33ED293B1C5B7E306AD674D619234FA91F15794EA31A2BA051DB6744C7B4A4790C9F332AA1590F216F38F4358E
311
BDDF133D3647F6A72F43A0BFA327A8D5BD7DF7352D76FFC00479098384A49A810D96C6D086ABDE01E15D5170F38F492B238A0A46B8C5D94E10F1628758AA9784C1408C66B2D0D1A02DB04378A1F93DA40BC2E8D73C3FA5655271AE696C8775146C112B54C95A33F6838A83F67D64A0137CA5D9706D0C522F25B5C39B8622D7
311
476C6A80B4124E52B81C66EA9D93F191A14B1DA7EB951D7EB8DBED373A764F1F5E8AA2A44269FA805AADE3DAB746C9E8E45FE439BDC13E52E500CA1720FF11A17E50057E136C3FDD4FCD294A905C2685C8E01BCBB31C0F0FCFF2EBA7FEEE7D05A36EF3D07BE7F084B33554BF01CFA10D7D5FF6E00C836710BE101363DA2622
311
1C69E39EE5004893C4E205A6908793DDDE0ED7C872C8CAD84578E8C364A8FB8CCF6064C42051D427F5DE39B03C4A8B172468C05633126A34E4370A1EFCF4533AAB0F36CBCEC13BFB2D749DAF361F3695484844EF4D4CAF68C272A650E20EBCE92B34C07C60D1137DF95E881886FE8CF7A68F77668E92405B63AE814FDB9CAE
311
078793070744D897163ADD04BF380146E8C2DA937FCF64443927392DAAF6DC57EB07CA4603B10E76CDE4AEC01C0A0B48D3FC398A4114E948B05283D855AB2E69BA67ACFBBAFE0846DAE1E2E52FF2D2CF5EBB43EE8D0A5E88EDEE65DBA4A593507F1B72DB6030D25240F73A48DAF837A06F6396249544123C81EBB7F5B2EF3B
311
9D1690225AA94DB44C613F828B0843DA562EAAB520A8A445BE65A89B88BB9307F4E50352C3805AE0398D25E5C996715E65DB847154A36D46CA3370FC7FFD7755566E495654B93A237BA03AAAC350F7017BE577A2A2473BDCD46F6781DC1BD3F80C19742D3981D5C0B5B3B9B79879DEDC998EDF78CE74E179CEF56CB674C6AB
311
9BBBABABC5BBF9D50459C26854375161D0969A7E44C34B286D41259871DFD735E2C724013BBC274A3EBC6FC2B37D7F5DBBE8858311F6A05E761BE7F133FA3E1AFF5AC061E54941EBACE434A3B9223A86EEF507FF42D0670C9469E6D71949E905523EBDDF1C1983990BF67DD6F14EBF1FED35B34B1D902785A8C72ADBE584F1
311
A38D6983A45BE6A9C1AFF549F76E0A4D3BD423E31874A6B2E02C461E8CAD94161955C886171421915109EAF57BFAD8DC3D2ED8FDDC74888AEC386D3579246892B9445880E455A486F3D61F68EA745F756BA3DCBA4F78984C615BE0CCAD8D265DB1884A778702AD5BA15A38B8D4EFE4C15992A71CBD76B3A91B77BB34368392
311
DC2DB9A47F32763529DC18803452A26F404304EFD4CA8441AD9BF91FFD27C35B752CA2F0B9AB5467CB61A233A63E0621DA18656E0B68629ECCD17B04EAEB66F96EBD6680C845B7AC5749D048751411697D53D0FA1995E6ABCF237428D6FA9355F22A852F2F97E4080A32573AC0C122B0C2C82C890255977F3E7C16056EB299
311
75C7408187659165456E06737313B6368FB8D7C60F480B545F48E4C3D8F3C70FF545C0DC4DB63B22A94B62F98409F854B00EE281E3C1C8E6B6880AD4FCE8D68DB4138EB8B95E59A6A44D21D410A59F55352C6839726A217AF46552C74A7F41F9EA5D60542F850A025D7CF82F504B03041400060800000A6731400000000000
311
00000000000000350000006662782F43314332444335462D364533322D343032452D383043302D3431314245463031454137302F76657274696365732E62696E504B03041400060808000A673140F270F1330600000004000000360000006662782F43314332444335462D364533322D343032452D383043302D3431314245
311
463031454137302F747269616E676C65732E62696E636660600000504B03041400060800000A673140000000000000000000000000370000006662782F43314332444335462D364533322D343032452D383043302D3431314245463031454137302F617474726962757465732E62696E504B03041400060808000A673140D5
311
987DFC8F00000041010000360000006662782F43314332444335462D364533322D343032452D383043302D3431314245463031454137302F6469726563746F72792E786D6C858F410EC2201045AF4266AF15DDB800BA74E7C21B903225242D6328188F2FA5C4183471359997F9FF81E89FF3C41E1816475E02DF1F80A11FC8
311
386F25A438EECEC07A250251FC3803E6F58C12560C4AD840E95E91C151A72936F496F35732D860FE635F62C8F2DA16B505C545B74125BAA2FA9E05D7CC053D063734D5C7665FD55B6B8D15D5E9BFEAFD8490FFA45E504B03041400060808000A673140EC72ED56FC000000A00100003B0000006662782F4331433244433546
311
2D364533322D343032452D383043302D3431314245463031454137302F7265736F75726365732F636F72652E786D6C8D50596E833010BD0A9A7F834DC212641C952437E8052C33A156828DBC543D7E4DA052FBD79F99D15B344F8F9FBFE667F689CE6B6B7A6039850C8DB2A336530F31DC490BD95970676DF82583CCC8197B
311
5861107C72362E3BA4AC096842428D1D7107A5F7182053CF74F4E0D507CE32973124857FE48B540F3961CEF244279DE03EB81420DB9EAC1384436FA353E879B1B182C7A8C75DA3C7F453DF353A10D7B75BD30ED70B69DACB891C4F754B86E34009BBD54D7BA84F156B2B5EAC66C1839E7F322A8732E008A2A4AC249411D6BC
311
B3B2ABEAAEA484D61DA5BC58E57F4C7119FF698ADA8443B9C7DD6C1E044B415E84E0C5DA575AAF32D35EBB15DF504B010214000A00000800000A6731403DEE336E79000000790000001B00000000000000000000000000000000006175746F6465736B2D64657369676E2D7061636B6167652E786D6C504B01021400140006
311
0808000A673140D486FD9CA0000000F40000001300000000000000000000000000B20000005B436F6E74656E745F54797065735D2E786D6C504B010214001400060808000A673140331C27EEEA0000007C010000080000000000000000000000000083010000636F72652E786D6C504B010214001400060808000A67314055
311
019EA25F0000007C000000070000000000000000000000000093020000636E782E786D6C504B010214001400060808000A6731406CA22C8D66010000020300000C00000000000000000000000000170300006662782F636F72652E786D6C504B010214001400060808000A673140DBE3859D7E0000009D0000000B00000000
311
000000000000000000A70400006662782F636E782E786D6C504B010214001400060808000A673140523401D62A0100001402000031000000000000000000000000004E0500006662782F43314332444335462D364533322D343032452D383043302D3431314245463031454137302F636F72652E786D6C504B010214001400
311
060808000A6731405648C95E4D010000330300003000000000000000000000000000C70600006662782F43314332444335462D364533322D343032452D383043302D3431314245463031454137302F636E782E786D6C504B010214001400060808000A673140124A1DD59C0500007B10000034000000000000000000000000
311
00620800006662782F43314332444335462D364533322D343032452D383043302D3431314245463031454137302F6F626A656374732E786D6C504B010214001400060800000A6731400000000000000000000000003500000000000000000000000000500E00006662782F43314332444335462D364533322D343032452D38
311
3043302D3431314245463031454137302F76657274696365732E62696E504B010214001400060808000A673140F270F13306000000040000003600000000000000000000000000A30E00006662782F43314332444335462D364533322D343032452D383043302D3431314245463031454137302F747269616E676C65732E62
311
696E504B010214001400060800000A6731400000000000000000000000003700000000000000000000000000FD0E00006662782F43314332444335462D364533322D343032452D383043302D3431314245463031454137302F617474726962757465732E62696E504B010214001400060808000A673140D5987DFC8F000000
311
410100003600000000000000000000000000520F00006662782F43314332444335462D364533322D343032452D383043302D3431314245463031454137302F6469726563746F72792E786D6C504B010214001400060808000A673140EC72ED56FC000000A00100003B00000000000000000000000000351000006662782F43
311
314332444335462D364533322D343032452D383043302D3431314245463031454137302F7265736F75726365732F636F72652E786D6C504B0506000000000E000E00800400008A1100000000
310
504B03040A00000800000A6731403DEE336E79000000790000001B0000006175746F6465736B2D64657369676E2D7061636B6167652E786D6C3C3F786D6C2076657273696F6E3D22312E302220656E636F64696E673D227574662D3822203F3E3C666F726D6174733E3C666F726D61743E687474703A2F2F736368656D612E
310
6175746F6465736B2E636F6D2F64657369676E2D7061636B6167652F323030393C2F666F726D61743E3C2F666F726D6174733E504B03041400060808000A673140D486FD9CA0000000F4000000130000005B436F6E74656E745F54797065735D2E786D6C7D8EC10E82300C865F65E91D8A1E8C310C0EEA1BF002731658846E
310
D98AC1B77784ABF1D8FE5FBFBF75BBCE937A534CCEB38643598122B6FEE978D0B0485F9C41B54DDD7D022595594E1A469170414C76A4D9A4D207E29CF43ECE46F218070CC6BECC4078ACAA135ACF422C856C0E68EA1BF5669944DDD7BCDE7B1F8E415D77AECB980613C2E4AC91FC167A2B244592486606FC29C8FD7F045B9A
310
EF7053A7E60B504B03041400060808000A673140CC4CD3F0E90000007C01000008000000636F72652E786D6C8D904D6EC3201085AF82668F0DA4C53FC24472949EA01740401C94182C03558F5F9C3852BBEB6A466FDE37337AE2F83DDFD1975DA30B7E005A1140D6EB609C9F06C8E9825B404729D610D22F1B20AF663BC026
310
8314D31AF2B24B3AF8647D2AAA0FC6EEA28AD12640FA5E9A01A2BEDA59552AA7E288B76A51FAA6265BD15757E09C9D41CF23CE947DEEE2EC0AF24C4FCD07193BCCF9D8E0B773DBE1918F1C9F086FBA03A763DB36A2DE6029929B5FF7F56A55B2062423946142316D3E29EBDF79CF0826BC2744D49BFD0F9417F34F283B9F0E
310
6C7FF7894590B43CF21848516F5994F208AAD42D37F903504B03041400060808000A67314055019EA25F0000007C00000007000000636E782E786D6C4DCB3B0E80201045D1AD90E915ED2CF8AC45050C11660C8261F98AB1B07AC9C97D42D718D865D3E909258CFD00CCE24AC6E326A164D74DC0B4128928FF326038472BA1
310
3128B1252AC747C6BAB984FC68F0B87FE8960A5C09FE86CFB69FBA01504B03041400060808000A673140A124F7E565010000020300000C0000006662782F636F72652E786D6C8D52ED8E8320107C15C27F046C4FDB066962D37B827B01AAD433553008A68F7FEB47E3F5D234171324333BBBB3A3E2786F1B3468D7D7D66498
310
470C236D0A5BD6A6CA70F057B2C3E82885B3D6FF2AC3C8A856677884B11495B3A15BA0C21AAF8D07D4D8522FA0EA7BED312A1AB864B82FBE75AB22153C54F4B7A853C54D553AE211D0502745EF1D1840F390F1C4F27AB90B3AE3528450970B5B9730ADBED6DA6179E6A7F493E57B9224794AB6E7DD9EE4499E90134BD2FD26
310
E1F96E970A3A8AA5F075FB705738ADBC2EB18C198F09E384A75F3C3E7C24879811961C1813742C7F1285AEFCA728D4C66FE2C5EE2CEBB1E4606422FE6C0B1179D4AB01FC5029E81822BCA6849F8386402064AF2ECD638F1B40832EBC755B604A1B566A504DD03095A1E9117466A1F3D400367BD9277ED3E77D0FF880CA5460
310
4D79B85E821FA78B79EA1245A71D19FC1D19EB5AD5ACE6668BEBB90E7A292F6C63DD7FD47459952E61D2F1EF953F504B03041400060808000A673140612C51427E0000009D0000000B0000006662782F636E782E786D6C4DCCD10E82201886E15B61FF390959411BE00AE13E5CA2632234C2D6E5A7CD838EBEEDD9B757349F
310
39A0B7CB2F9FA2047A20805C7CA4DEC751C25206CC01354AE494CADF0D50EC662761635062CC6979EED4BBA15B425935F838EDC82F2D6146736C6B6DF1C95CCFF84E6F1633468E94F2BA355443A544F52BADBB85D517504B03041400060808000A6731408D222F932A01000013020000310000006662782F38364430374543
310
382D463343462D344539352D423141462D3737303231313833444531432F636F72652E786D6C8D514B6EC32014BC0A62952EB00127FE4498A8CDE704BD8003244589C1E253E5F885DA91DA5D363C346F66DEC063BBC77807DFCA796D4D0F498121504658A9CDB587315C500BC18E33676DF84383C00CA3EA618621675767E3
310
B440C29AA04C48A8B1522DE0E0BD0A10887BBAF4D08B2F350EC5104362F85B310DE2365C55418AD44E3CCE7C7029009887E413F2B63EE0E6B86FD1A9DA9FD0FAD86DD007793FA1A6C19490B63A1CC99E95B390B318B55CE45AA638FAA2957BD5248B390B7A7CC6174E0D4149C8292614618248F349E876536F2946B8DE62CC
310
CA4CFF278A937C5114B509155DE2CE320F3961E5DCE04CDA78BE3FC3A8C7645D0079DECA2BF106392E30C5DDA6E9583933D3FB9365BD5E2C7DB02EFDEFEA764EE46AF1ADD79C957945A9FCEE2FD5BC4EFE03504B03041400060808000A67314030EF06495401000033030000300000006662782F38364430374543382D4633
310
43462D344539352D423141462D3737303231313833444531432F636E782E786D6CBD93CD6E022114855F85B09F5FEDD41806932EFA045D748B70552A03137E9AFAF6BD285A372E9A34DD90C9B987736EBE306CF33519F2093E686747DAD52D2560A553DAEE479AE2AE5A51B2E1CC3B17EF6C945831C148B34C39DB7B97E622
310
29D8896422AA46DB63113D0497BC848072BE498C93C26000D82AA108D3169402456E46FCDA81C75550DC9E483C00797D79276EFB013206D6E414CE9ADCC1593E4BD39D8912694408230DF20093A8458A4E4138D64A445177F5B5EBC14E3F49245FB85626AF492E1F693E292F1BD5C8913538E42C448FF48A299E66A05CCCB3
310
D1524484DC9C8D170F6749DB382C8B5723788FEE453FAC5618769E7116F504C5213D88088AF2BEEDFAAAEDAAEEF9ADEBD74FC3BA6FAB7658B72D6BB29DB3AD73A65CC218F06E26D2D9083652DEB1268F1FE12B3EA2B447D6CE9F7E01120194D60B9D5BC65FF2E986C572F98F7C9AF3FB465C1EFF02FE0D504B030414000608
310
08000A673140D8B54B6D59070000941B0000340000006662782F38364430374543382D463343462D344539352D423141462D3737303231313833444531432F6F626A656374732E786D6CED595B73A33614FE2B0C7D36065FD24D87D0499CCD8EA7CDEECEBADBE94366181964A246084612D9B8BFBE4717301093E06EFAB60F
310
3620A4A373BE73D521FCF529A7CE23E68214ECC20D3CDF75304B8A94B0ECC2ADE46EF2CE757E8D425E14B235CD7518CAF185AB86DD28CC7851957628C53B5451D91BBDB9FACB110966D875128A84B87045728F73E4A14A1629160F5E8A24F2B2DD9317786662976CC65179DF235A228E99044E619C0115C73015741F7D771A
310
8553F53E0AD5BF9D351F356B313C6BAAA5EE724998908825CF58EA91998F62691E2CAEDFCF96E793E562319F2CCE66C1E4EAE6EA7A12FC3CF75767ABD5F9E5FB73606F5B14D4CA94E212B314F4B777A3209CAA378DE81681635C27056338D14002545AAC3E4182056CD582CFEF3E064AA2D66B2D61EB79A1DE5B165AC3F32E
310
95A159E380E8D00541EC76B5C4F5B52D5FB1FD1B0417638C920B2C815B213968D7C2C3C12BDCC80FA766340AB7075D10E1E448624E107528D972C4412930554D8942B3C09251CEC18194A324D09A33AFBBB6059EF9BAEB1CE3725751AA3CC38DB463C5E07E580ACD19F907F303F76D64802790B6224CBEB35CCA7D89DDE83C
310
9CEAC1285497F9CCBE34403A3B8A32A111316F7B82AE94EBAFAFDDE8B79BEDD3468583E39B97BC283197CAE8941E355F60C8F6AA50B2DB06A334A71680300654BBF200CA1740FE23448F032BA0374E9E164F0B3B5772C4C4AEE039E8C6F19D890F7FBE13E87F75DFBA0BA7CDE2AEF686F004375550BDFB7E3CBB3268AC2CFF
310
2D38A3F0110CBEE073FB6A93200AF67C4B1800A48CC4A1050C4168DF6D9FDC680D8113023DAC42340A406460F7116EC3A92573D04AED5ED6EB18206AF7988F5112C0A62D12D818D0D307C81E9C240735B5451C8277F926E67A79BDF96D53F11D4AF0ADF5E96BBC238C48C89AC719EA60DE91E801EFBF153C05419FE3BD69E3
310
9DDBAD04A0AD3057C0673508EAE1B073678304D665850A37E12B3B80102A57B7E8DF1291604A11C34555EFDB443765A88DC7DB9AC18D6606E2F9AC67C21C3F12555580D31C66741885BC9F70522A10DDE88391AC099ADE80745FD71FC1229BF903B3D60C422F43F40F1DB48EE0D0B1EC1A690B4423F0F610CE9382163CDEEE
310
6313E95CA825808DAEB7FCD9210AB1DE284951010FD27E578794CC481BA764B7AB04C4D5232CFEB95EB5CDC1F7E6C1D269FFF79C7101D1167C1771EB77BD3D6292A30CC73B940E6DD7DEADA12D34C901D21CEF28C8451E89DCC748C67E8AB353A03989F8F99B52CF682104615840BE3A0A7E1B0DDF834062B459B3ACB4DA03
310
9A8838C712D15310506406C0D56947D7B809940EAFF3D858EF4B1A6B13FD9F2C8223A8250B161328452187BCCA78E02D218674D13528F7F0056BAB696B3168052544B28FBF6192DDCB535037E407704FE04852C9B8285102663D82EC335F514AEDF1BE45C983CA1F7152D1B7321081E92E269456790C3FC2E0E431C6B59BC0
310
F4220A2DE226F6499C43518664C5C76C72B6F49FED636A867E086C6DB42314C2769CA37200F54E40D4F588D3806FA90F28755BE5658CF2A262A30CC59BF7BDC992EFAB55911DC9AF2A15A16CAC095B825148986CB26A1DB3C1D475600537D2816A1F0B9497D49CC25E493C41E34D9AF2E006DCFAE9DB6E9043E137A0BD7644
310
5DD430581E3B8581F8866472EF461B7D9D5C41FD9DE2F490EAEB5AB35D0102622A92579C58157D5D4379636B3437BA4552DC7D3059B7BE7E5D7BD0FD08A7B0066A9766E15A019D632691AA4C6ED50DFD822004776898F1B5CAA9A750B94C535D35227A4386D4D929233A9BE6C42BEF312B72F8B13BC2125AA5F80EA5E221BE
310
9534DE10C5BA95D2CB498DF18B027EFAB0E9C103232344FAAC0A3CFCADB7D68EAE54B9749488BCAFF22D4304826047B4CCE8C62B596635526BB9B9AA3305D45D606056C58B1F278B763BE2C7C922B386F15D278BABFDEF68DFEE8BB4D279A2ECFAA46340939F1495B73806E8B64343B5C92226995BF9AD33C51014EB283FBA
310
1AAB83862138C4F17FCEDA4359D06CD7E3FFB4AC1D3CAB384ECA2A9DC9AA4B75A4725DB773D8F2D2BF8232E772B298FDEC4F1657BE3F79B75CAE26B3EBF39BB3B3ABF79767F3C3B1413B6A1436C14CE72E783641AD1E564F1603E8CA8A8292144EF3A9936188F912CEF423DAE73CC7029267BBD99DDAA6FC88D58FA6CF29D1
310
96E29A937B040D622A20AD03465522BBE3CE4FD09A9470D0BE70A169E43DC09FB54AD781CC73E142AB4092040B6F0B6D26D5D0D3C421E5EADC6F89013E88652A259A45CD73B34A61D309FFCD943169C0CAD5E96140E15642F7ABD3A1D0BC599E929304AFD9719084DB6D25A15A33B21C061A61F43607F51BD928610F76EB27
310
70DD97C50A3C3DA783C8A84F062F1A81A13A918867BADFAD18B32C5D5E7F9E429FCD597F724A5A65A0CBF194261C833157AAA0022B02ABB0344B24C15457BFDC7DE6057CE2C91D5D15DDAD8A3C2F987DB884F3580A9F889CCD3D7CF049EFA06CC0AAAD2EEE667E30BBD3ED6CDB618FB748604FD543305097114A849EB18145
310
3E6B4DD9C6E55429A1377D7DEDD8F009FE6C2CE85977D77CDE72C07BD48714E52BDAC36B395FEC684FF554B0060EBDE8E85F504B03041400060800000A673140000000000000000000000000350000006662782F38364430374543382D463343462D344539352D423141462D3737303231313833444531432F766572746963
310
65732E62696E504B03041400060808000A673140F270F1330600000004000000360000006662782F38364430374543382D463343462D344539352D423141462D3737303231313833444531432F747269616E676C65732E62696E636660600000504B03041400060800000A6731400000000000000000000000003700000066
310
62782F38364430374543382D463343462D344539352D423141462D3737303231313833444531432F617474726962757465732E62696E504B03041400060808000A673140D5987DFC8F00000041010000360000006662782F38364430374543382D463343462D344539352D423141462D3737303231313833444531432F6469
310
726563746F72792E786D6C858F410EC2201045AF4266AF15DDB800BA74E7C21B903225242D6328188F2FA5C4183471359997F9FF81E89FF3C41E1816475E02DF1F80A11FC8386F25A438EECEC07A250251FC3803E6F58C12560C4AD840E95E91C151A72936F496F35732D860FE635F62C8F2DA16B505C545B74125BAA2FA9E
310
05D7CC053D063734D5C7665FD55B6B8D15D5E9BFEAFD8490FFA45E504B03041400060808000A673140DFE7FD68FC000000A00100003B0000006662782F38364430374543382D463343462D344539352D423141462D3737303231313833444531432F7265736F75726365732F636F72652E786D6C8D504B6E833010BD0A9ABD
310
C126AD21C83812517A825EC03293D44AB0913F558F5F3B50A9DD7533337A1FCDD313A7AFE5517DA20FC6D911584DA142ABDD6CEC6D8414AFA487EA2485772EFE924165D582231418A4B87997D61DD2CE46B431A3D6CDB8832A048C50E9473E4608FA031755AB14B322DCEB55E9BBBA61CDEA4C679D1421FA1CA0DA9E9409D2
310
6370C96B0CA2D958295232F3AE3173FE69AE063DC80B3B776F74EA09E753475E2EFD914C7CE2E44C79773C7036F57D279A6296229AE527A3F6A822CE205BCA5A421961DD3B6B87573EB494503E502A9A22FF634AEBFC4F5332361EDA3DEE660B20590EF224A4684A5F793DCBCCBB742BBF01504B010214000A00000800000A
310
6731403DEE336E79000000790000001B00000000000000000000000000000000006175746F6465736B2D64657369676E2D7061636B6167652E786D6C504B010214001400060808000A673140D486FD9CA0000000F40000001300000000000000000000000000B20000005B436F6E74656E745F54797065735D2E786D6C504B
310
010214001400060808000A673140CC4CD3F0E90000007C010000080000000000000000000000000083010000636F72652E786D6C504B010214001400060808000A67314055019EA25F0000007C000000070000000000000000000000000092020000636E782E786D6C504B010214001400060808000A673140A124F7E56501
310
0000020300000C00000000000000000000000000160300006662782F636F72652E786D6C504B010214001400060808000A673140612C51427E0000009D0000000B00000000000000000000000000A50400006662782F636E782E786D6C504B010214001400060808000A6731408D222F932A01000013020000310000000000
310
00000000000000004C0500006662782F38364430374543382D463343462D344539352D423141462D3737303231313833444531432F636F72652E786D6C504B010214001400060808000A67314030EF064954010000330300003000000000000000000000000000C50600006662782F38364430374543382D463343462D3445
310
39352D423141462D3737303231313833444531432F636E782E786D6C504B010214001400060808000A673140D8B54B6D59070000941B00003400000000000000000000000000670800006662782F38364430374543382D463343462D344539352D423141462D3737303231313833444531432F6F626A656374732E786D6C50
310
4B010214001400060800000A6731400000000000000000000000003500000000000000000000000000121000006662782F38364430374543382D463343462D344539352D423141462D3737303231313833444531432F76657274696365732E62696E504B010214001400060808000A673140F270F133060000000400000036
310
00000000000000000000000000651000006662782F38364430374543382D463343462D344539352D423141462D3737303231313833444531432F747269616E676C65732E62696E504B010214001400060800000A6731400000000000000000000000003700000000000000000000000000BF1000006662782F383644303745
310
43382D463343462D344539352D423141462D3737303231313833444531432F617474726962757465732E62696E504B010214001400060808000A673140D5987DFC8F000000410100003600000000000000000000000000141100006662782F38364430374543382D463343462D344539352D423141462D3737303231313833
310
444531432F6469726563746F72792E786D6C504B010214001400060808000A673140DFE7FD68FC000000A00100003B00000000000000000000000000F71100006662782F38364430374543382D463343462D344539352D423141462D3737303231313833444531432F7265736F75726365732F636F72652E786D6C504B0506
310
000000000E000E00800400004C1300000000
  0
XRECORD
  5
17
102
{ACAD_REACTORS
330
12
102
}
330
12
100
AcDbXrecord
280
     1
270
     1
271
     1
  0
XRECORD
  5
16
102
{ACAD_REACTORS
330
12
102
}
330
12
100
AcDbXrecord
280
     1
270
     1
271
     1
  0
XRECORD
  5
18
102
{ACAD_REACTORS
330
12
102
}
330
12
100
AcDbXrecord
280
     1
270
     1
271
     1
  0
XRECORD
  5
15
102
{ACAD_REACTORS
330
12
102
}
330
12
100
AcDbXrecord
280
     1
270
     1
271
     1
  0
XRECORD
  5
E32
102
{ACAD_REACTORS
330
22
102
}
330
22
100
AcDbXrecord
280
     1
102
MATERIAL
148
0.0
149
0.0
149
0.0
 93
        0
 94
      127
282
     0
 72
     0
 77
     0
171
     0
175
     0
179
     0
273
     0
  0
XRECORD
  5
24
102
{ACAD_REACTORS
330
22
102
}
330
22
100
AcDbXrecord
280
     1
270
     1
271
     1
  0
XRECORD
  5
23
102
{ACAD_REACTORS
330
22
102
}
330
22
100
AcDbXrecord
280
     1
270
     1
271
     1
  0
XRECORD
  5
11C
102
{ACAD_REACTORS
330
22
102
}
330
22
100
AcDbXrecord
280
     1
 70
     1
 90
1959938040
 71
     1
  1
31419B2C-30AF-41A2-BEDC-C3BE528B6FBE
311
504B03040A00000800000A6731403DEE336E79000000790000001B0000006175746F6465736B2D64657369676E2D7061636B6167652E786D6C3C3F786D6C2076657273696F6E3D22312E302220656E636F64696E673D227574662D3822203F3E3C666F726D6174733E3C666F726D61743E687474703A2F2F736368656D612E
311
6175746F6465736B2E636F6D2F64657369676E2D7061636B6167652F323030393C2F666F726D61743E3C2F666F726D6174733E504B03041400060808000A673140D486FD9CA0000000F4000000130000005B436F6E74656E745F54797065735D2E786D6C7D8EC10E82300C865F65E91D8A1E8C310C0EEA1BF002731658846E
311
D98AC1B77784ABF1D8FE5FBFBF75BBCE937A534CCEB38643598122B6FEE978D0B0485F9C41B54DDD7D022595594E1A469170414C76A4D9A4D207E29CF43ECE46F218070CC6BECC4078ACAA135ACF422C856C0E68EA1BF5669944DDD7BCDE7B1F8E415D77AECB980613C2E4AC91FC167A2B244592486606FC29C8FD7F045B9A
311
EF7053A7E60B504B03041400060808000A673140687E14C2E90000007C01000008000000636F72652E786D6C8D904D6EC3201085AF82D8630371FC274CE4C8EA097A010493042506CB40D5E317278ED4EEBA9AD19BF7CD8C9E387DCF0FF4056BB0DE0D9815142370DA1BEBAE034EF1425A8C4E52ACDEC75F368C9C9A61C09B
311
8CA5B8AE3E2DBBA4BD8BE062569D37B08B2A048818E9476E061CF40D6655A814B323DC8B45E9BBBA42C1DE5D8653B206BD8E5893F7D98B85154B7E6CC7A9AD27329E79432A36B6646CC78E741D9DAA8F4375660D17E5064B11EDFCBEAF5750114CE629E38432C29A4FC6FB63DD734A68DD532ACACDFE074A8BF92794AC8B07
311
BEBFFBC202962C3FF21C48516E59E4F20C2AD72D37F903504B03041400060808000A67314055019EA25F0000007C00000007000000636E782E786D6C4DCB3B0E80201045D1AD90E915ED2CF8AC45050C11660C8261F98AB1B07AC9C97D42D718D865D3E909258CFD00CCE24AC6E326A164D74DC0B4128928FF326038472BA1
311
3128B1252AC747C6BAB984FC68F0B87FE8960A5C09FE86CFB69FBA01504B03041400060808000A673140E666F53165010000020300000C0000006662782F636F72652E786D6C8D52D18E823010FC95A6EFA52DA2A2293518735F703F50A17244684969899F7F8B60382FC61892D2CCECECCE0E88C3AD6DD0A05D5F5B93611E
311
318CB4296C599B2AC3C15F488AD1410A67ADFF53869151ADCEF00863292A6743374385355E1B0FA8B1A59E41D5F7DA63543470C9705FFCE856452A78A8E8AF51A78AABAA74C423A0A14E8ADE3B3080A621E389E5E57C1374C2A508A12E67B62E615A7DA9B5C3325EA7F929DD9C487E8CB724E1794AF234DF91DD8E9D92AF55
311
72E4DB58D0512C85AFDB87BBC269E575097AC663C238E1DB6F1EEFD79B7DCC08DBEC1913742C7F1285AEFC50146AE357F16C7792F55872307227FE6D0B1179D4AB01FC5029E81822BCEE093F070D8140C85E9D9BC71E5780065D78EB12604A1B166A504DD03095A1FB23E8C442E77B03D8EC659FF84D9FF73DE0032A538135
311
E5E17A0E7E9C2EA6A973149D7664F03764AC6B55B3989B2C2EE732E8A5BCB08D759FA8E9BC2A9DC3A4E3DF2B7F01504B03041400060808000A6731407AFA183C7E0000009D0000000B0000006662782F636E782E786D6C4DCCD10E82201886E15B61FF390984C401E070D47DB844C7526804ADCB4F9B071D7DDBB36FAFEA3E
311
EB82DE3EBF428A1AE88900F2F19EC610670DB54C5802EA8CCA2995BF1BA038AC5EC3CE60D49C537D1E34FA69A84BD97409F171E0B97584DE6C8BB9A312736119B6BDA0D8F19E11212E545E19344635BFD2B67BD87C01504B03041400060808000A67314018E11C4A2A01000014020000310000006662782F33354430314641
311
352D344431382D343641322D414236312D4434423230363637313845322F636F72652E786D6C8D51CB6EC32010FC15C4293D6003B1B11561A24469BFA03F4030495162B07854F9FC42ED48ED2D1716CDCECC8E76F9FE31DDC1B7F6C1383B40526108B4556E34F63AC0142FA887602FB8772EFEA14160E5A407586028F8D5BB
311
34AF9072366A1B336ADDA8575086A02304EA9E3F030CEA4B4FB292296646B855B3543779D515A9723BF3040FD1E7006019525E28B6ED09938F438B9A13E951C30E141D8E8CA05373A498B18EF4EF94D78B50F094CCB8CACD98E3988BD1FE559322163C9AE9195F792DA31EA1A09850840922DD27A1BB96ED284698ED30E675
311
A1FF13A5797C51948C8D5BBAC65D64010AC2EBA521F8E8D2F9FE0CA31FB3F31194799BA0D51B14B8C21477DBA6CB0B58A87901D99335AB6788CEE7056F6EE7CC26ED62CC1AC1EB72A35C7E0F986BB9A7F801504B03041400060808000A6731405648C95E4D01000033030000300000006662782F33354430314641352D3444
311
31382D343641322D414236312D4434423230363637313845322F636E782E786D6CD593BD6E032110845F05D1DF0F17E712591C9652E40952A4C5B076883938F113C56F9FC5C68E1B1729D3A0D3EC30B3FAC4F1CDF76CC9178468BC9B286B7B4AC029AF8DDB4F34A75DF34CC946F0E07DBAB151E2E40C132D32157C1F7C5EAA
311
A46127B34DA85AE30E550C107D0E0A22CAE526B15E498B01E09A8C22CC5BD01A34B91AF16B07015741717B24E903C8EBCB3BF1DB4F5029F2AEA408DE950EC1CB599B6E4C94282B639C68541F30CB56E6E435C443AB65922D6B2F5D7776FA4D22E5C2A53207434AF944CB4945DDA8458EBCC3A1E03105A4574DE9B800157259
311
AC513221E4EE643C7B04CFC6A57155BD06C10774B3F161B5C2B0D34CF06466A80E154026D0540C3D1B9A9E35ECE98D0DEBC7713DF44D3FAEFB9E77C52EF8D67B5B2F610C04BF10E55D0297A860BC2BE37BF8AA8F681390B50FC73F804400B5F54CE79AF19FF974A7F78DB802FE05E207504B03041400060808000A673140C4
311
1C8D289C0500007A100000340000006662782F33354430314641352D344431382D343641322D414236312D4434423230363637313845322F6F626A656374732E786D6CAD57DB6EDB3810FD1541FBEC8B6C279B2C1415BE248551A42D6AB4D887000625510A3794289054EAF4EBF750A264C9B113EFA22F96450D873367CE5C
311
E87FD865DC79A6523191DFB8DE70EC3A348F44CCF2F4C62D7532B8729D0F812F85D01D31D7C949466F5CB3EC067E2A4559D8A59826A4E4FA60F56EF1B7A3229A53D7893851EAC655D123CDC890945AC4543D0D63A2C9304D76436F580BF6D5A692148F074A0B2269AE6129D67368716AA3BCFEEBD81D05FEC87C0F7CF36BA5
311
A6A7A546953FFDF359AE34C9A357871DA8997AB3D5EDE4E27A70319B4D07B3CB893758DC2D5603EFCFE97879B95C5ECF6FAF71B0D2129AAC2592266EF011D84816F9A3FA53E0972CD7D38915B1011A49FACC4CA4DC60E278FEA89669BDB34E1E333F12794EA30A2BA051F96755C7B4A0798C9833AA605907A171FFD5333876
311
3E4FCDBB3DB2BB7C1E02DD1D1D458DEDCDB36BA908FF810BEA1C0649450D036B2CADA33557C77B844321B8FDC69493114D2523DCE12C9444BEB801448D48E0F7D418264B930DC603374014EACF7DBA208DDEE7F9312B939273436337A8B2608B5CA15A5596B15F54EEADEF22039B102BC3862BEB907E29A81B5CD714B93A60
311
530DA493709222E470D3EC9C4E0E1C5D9A3C5DAFDCE0D35DB8DB98DC3D7E78214541A536F401B59AC0354F8392B5C93B2B7266837B60CA1E946F40FE33527D6F0AE226D96EB69BD953B424B94A84CC101B67EC0CC6F8193B5EF56BFE77FEF9A376733F7AA7F044B00D54BF01CFBE0FDD5876E00CFC67105EC8A9756D13118E
311
B271CF72006448E2708125D4E124DCB9C11A550E5519BB080F3CB80C739FF1D71F59352814D5499D670E2C0FCAE219051AB0558C841935F9AD81FB38BD2A67D5C156EC14BC17BF85AEF3D5E6D3A6940989E8BDCDE9154D58CE345ADC9E375D837A98F73C7AA22F3F858CE1E86BBC375DBC337B9402DA0673037CDAD474F3B2
311
3FB97740847DA930E5C67FE70438611A6B47FF3D5311E59CE45494CDB96FF60FB48D1A6293EC86C96D83D9371690A6FE72908368D291648501B1ED566DD11C9EF0EEFBFA331809792E42C2F742E1BEF446820BB90D5FB675553A8AF48F3EB52D0423A3056CAF72A4497F8BF9366649522AD4C023B0FE582FBBA133550115A2
311
D15A27CB0CEE23B788B49C6DF4A2594B82462AF22D43DB44DA1D3DA0AB1F885A02540A4F59AC284FB68CF332DB268CA3196D33529C80E3FFDB1F9659B1259928737D4277CF743487BEED3DF2AA9F44478F6EB0A99E83054A6F4CE37D987BC2A6951CC1AA175A8C4FDEF562B21C4CC7F3BBC1CC9B4F068BDBD572B09C2E6E2F
311
26578BCBBBC56D13A75A79E0379DA69BD088123A9B5F4A66C3F77D8DF4B135C00DEE89560F1FEBEC6C9EDFD7438CC2FE087BD02EDB8DF3F819631F8DDF57B0973CAA689D159C6634D7C4A4D0BDF9C3BF118C193D63EAF57546527A86962F1F3707CE60E58C7D5F4DBAD39F077BEDEAD224E45125FAB1CCC29C307EB031AD91
311
1C16796AF16B62D23EEB3ED3BC9A371B180CA64A7016A30CC64E4A4546358AE1193D486654817ADD913EB6578F33763FD703A22621A78D258F04333257480B50AB8C747FDDF903339D19AB6E5C74DBE1137E6CA5701D70E6C6C58CAE5944D530447F369350A51C5CEA0EF298FB499E728CDAF5A6F6BDDD65B0E975E456E49C
311
F1C9FA555770EB00CA4881B101F310A2531913F8956DF67BF49F1C6FCC7188C6DFB0D4AD2FFB85D699EA18A468ED94BD2C608679B247EF90A86FBBE50D2B991E22A812EF5FB2DE2441AD75A0894CAB8B82B1CF9A345F7D1D614071D65F9C8297296279BEA681A4207369121C2C022BACCE82685075F9D7C357297091CD9C3B
311
060A3C2C459689DCBECCED45D8D93CE25A1B3FA02C50731F510F93B13779A8EE01F66AB20D89A24312AB272C20A692B510F7020F46D6974574A0FA432B37324138E0E67AE5D8963683524B946E5535B060E2C8A983EC317749932B5D81E2CDABC0A812850912437CF02F504B03041400060800000A67314000000000000000
311
0000000000350000006662782F33354430314641352D344431382D343641322D414236312D4434423230363637313845322F76657274696365732E62696E504B03041400060808000A673140F270F1330600000004000000360000006662782F33354430314641352D344431382D343641322D414236312D44344232303636
311
37313845322F747269616E676C65732E62696E636660600000504B03041400060800000A673140000000000000000000000000370000006662782F33354430314641352D344431382D343641322D414236312D4434423230363637313845322F617474726962757465732E62696E504B03041400060808000A673140D5987D
311
FC8F00000041010000360000006662782F33354430314641352D344431382D343641322D414236312D4434423230363637313845322F6469726563746F72792E786D6C858F410EC2201045AF4266AF15DDB800BA74E7C21B903225242D6328188F2FA5C4183471359997F9FF81E89FF3C41E1816475E02DF1F80A11FC8386F
311
25A438EECEC07A250251FC3803E6F58C12560C4AD840E95E91C151A72936F496F35732D860FE635F62C8F2DA16B505C545B74125BAA2FA9E05D7CC053D063734D5C7665FD55B6B8D15D5E9BFEAFD8490FFA45E504B03041400060808000A673140B710DE7AFC000000A00100003B0000006662782F33354430314641352D34
311
4431382D343641322D414236312D4434423230363637313845322F7265736F75726365732F636F72652E786D6C8D504B6E833010BD0AF2DE603B0408328E48A39EA017B0CC84580936F2A7EAF16B072AB5BB6E6646EFA3797AFCFCB53C8B4F705E5B33205A1254805176D2661E500C37DCA1E22CB8B336FC92A1C2C8050694
311
6124F8EC6C5C77485913C084841A3BC10E4AEF21A0423DD33120AFEEB0C852C69014FE51AE523DE40C252D139D7482FBE05280627B9227120EBC8D4E81E7D5C60A1EA39E768D9ED24F7DD3E09060C76EBC76CD1B1E2FACC5351D3B3C76E3099F4EE45ABF1FEA0B6D19AFB259F0A0979F8CCA810C30253FA10C138A69FB4159
311
7F6C7A4630697A427895E57F4C719DFE698ADA8403DBE36E368F044D415E84E055EE2BAD579969E76EC537504B010214000A00000800000A6731403DEE336E79000000790000001B00000000000000000000000000000000006175746F6465736B2D64657369676E2D7061636B6167652E786D6C504B010214001400060808
311
000A673140D486FD9CA0000000F40000001300000000000000000000000000B20000005B436F6E74656E745F54797065735D2E786D6C504B010214001400060808000A673140687E14C2E90000007C010000080000000000000000000000000083010000636F72652E786D6C504B010214001400060808000A67314055019E
311
A25F0000007C000000070000000000000000000000000092020000636E782E786D6C504B010214001400060808000A673140E666F53165010000020300000C00000000000000000000000000160300006662782F636F72652E786D6C504B010214001400060808000A6731407AFA183C7E0000009D0000000B000000000000
311
00000000000000A50400006662782F636E782E786D6C504B010214001400060808000A67314018E11C4A2A0100001402000031000000000000000000000000004C0500006662782F33354430314641352D344431382D343641322D414236312D4434423230363637313845322F636F72652E786D6C504B0102140014000608
311
08000A6731405648C95E4D010000330300003000000000000000000000000000C50600006662782F33354430314641352D344431382D343641322D414236312D4434423230363637313845322F636E782E786D6C504B010214001400060808000A673140C41C8D289C0500007A100000340000000000000000000000000060
311
0800006662782F33354430314641352D344431382D343641322D414236312D4434423230363637313845322F6F626A656374732E786D6C504B010214001400060800000A67314000000000000000000000000035000000000000000000000000004E0E00006662782F33354430314641352D344431382D343641322D414236
311
312D4434423230363637313845322F76657274696365732E62696E504B010214001400060808000A673140F270F13306000000040000003600000000000000000000000000A10E00006662782F33354430314641352D344431382D343641322D414236312D4434423230363637313845322F747269616E676C65732E62696E
311
504B010214001400060800000A6731400000000000000000000000003700000000000000000000000000FB0E00006662782F33354430314641352D344431382D343641322D414236312D4434423230363637313845322F617474726962757465732E62696E504B010214001400060808000A673140D5987DFC8F0000004101
311
00003600000000000000000000000000500F00006662782F33354430314641352D344431382D343641322D414236312D4434423230363637313845322F6469726563746F72792E786D6C504B010214001400060808000A673140B710DE7AFC000000A00100003B00000000000000000000000000331000006662782F333544
311
30314641352D344431382D343641322D414236312D4434423230363637313845322F7265736F75726365732F636F72652E786D6C504B0506000000000E000E0080040000881100000000
310
504B03040A00000800000A6731403DEE336E79000000790000001B0000006175746F6465736B2D64657369676E2D7061636B6167652E786D6C3C3F786D6C2076657273696F6E3D22312E302220656E636F64696E673D227574662D3822203F3E3C666F726D6174733E3C666F726D61743E687474703A2F2F736368656D612E
310
6175746F6465736B2E636F6D2F64657369676E2D7061636B6167652F323030393C2F666F726D61743E3C2F666F726D6174733E504B03041400060808000A673140D486FD9CA0000000F4000000130000005B436F6E74656E745F54797065735D2E786D6C7D8EC10E82300C865F65E91D8A1E8C310C0EEA1BF002731658846E
310
D98AC1B77784ABF1D8FE5FBFBF75BBCE937A534CCEB38643598122B6FEE978D0B0485F9C41B54DDD7D022595594E1A469170414C76A4D9A4D207E29CF43ECE46F218070CC6BECC4078ACAA135ACF422C856C0E68EA1BF5669944DDD7BCDE7B1F8E415D77AECB980613C2E4AC91FC167A2B244592486606FC29C8FD7F045B9A
310
EF7053A7E60B504B03041400060808000A67314028EA78D3E90000007C01000008000000636F72652E786D6C8D905B6EC3201045B782E61F1BA8E3973051D3C70ABA0104C44589C1E25175F9C58923B57FFD9AD19D7B6646971FBF972BFA32215AEF26A01501649CF2DABA79829CCEB80774143C789F7ED90039B998093619
310
049F83CFEB2E29EF9271A9A8CE6BB38B32469300A96B692688EAD32CB292391547BC54AB5417399B8A3EBA02E76C35BA1FB1BAECB3676B0288E1751808E9193EF4ED336E4E438B074A196E9BA63BBD34A47FEFDE78BDC18227BB3CEEAB6064321A0423C54C28A6DD0765E3A11D19C1A41D09E1F566FF03E555FF13CAD6A527
310
B6BF7BC722085A1EB90D04AFB72C4AB90555EA969BF801504B03041400060808000A67314055019EA25F0000007C00000007000000636E782E786D6C4DCB3B0E80201045D1AD90E915ED2CF8AC45050C11660C8261F98AB1B07AC9C97D42D718D865D3E909258CFD00CCE24AC6E326A164D74DC0B4128928FF326038472BA1
310
3128B1252AC747C6BAB984FC68F0B87FE8960A5C09FE86CFB69FBA01504B03041400060808000A673140F36D142265010000020300000C0000006662782F636F72652E786D6C8D525B6E833010BC8AE57F63430981C8386AFA38412FE0804351C0467EA01CBFCB234A5345518564AC999DDDD901BEBFF41D1A9575ADD1258E
310
238691D295A95BDD9438F813C931DA0B6E8DF1BFCA30D2B257259E602C78634D1856A832DA2BED01D5A6562B289D531EA3AA834B895DF5AD7A19C9E0A1C29DA3415667D9A8288E80863AC19DB760002D43A6138BD3F1C2E9820B1E425BAF6C5BC3B4F6D42A8B45F15E148CE509D9E4D92B490F45468A384E4896A6DBC35BCA
310
F2CFED07A7935870DFF657779555D2AB1A8B8441318B49BCFD8A93DD26DB258CB06CC718A753F99D280CF53F45A1D5FE2559ED2E3287450C4666E2CFB61091474E8EE0870A4EA710E135277C1F340402217B79ECAE7B9C011A55E58D4D81A94DB851A3EC8282A90CCD0FA70B0B9DE706B0D9C33EC9933ECF7BC00794BA016B
310
D2C3F518FC349D2F53D7280665C9E82F481BDBCBEE666EB1783B6F831ECA2BD319FB1F355D57A56B9874FA7BC50F504B03041400060808000A673140FD7503657E0000009D0000000B0000006662782F636E782E786D6C4DCCD10A83201886E15B91FFDC4A6ACE811AFF6ABB8F581632D3613A76F9ABD1C18E3E78F87865FB
310
591C799BB8DAE015B0A20262FC238CD6CF0A729AA800D26A1943487F37207E588C829D41CB3986FC3A6834D3905DDAD459FF3C107B5EB15E9C29EB6AA44D2D181577149477C8AF88FC74BB34506A59FE4ADBEE61FD05504B03041400060808000A673140FAF0D6122B01000014020000310000006662782F41443630314438
310
372D314333412D343338312D384641382D3643413642414136354539342F636F72652E786D6C8D51CB6EC32010FC158B537AC0E6E11037C2446ED27E417FC001E2A2C460F1A8F2F9C5B523B5B75C58343B333BDAE587FB782BBEB50FC6D916E01281425BE994B1430B52BCC0061407C1BD73F10F0D14B61F750B6618083E78
310
97A61592CE466D6346AD537A05FB10740485BCE54F0B82FCD2635FF6296646B896532FAFFDA04B5CE676E6091EA2CF018A65C8FC02D19D18C2A76607F19176B0A60D86CD47D74076ECD85BD7B1EDFB6BCDAB4528784A46AD72A3721C7331DA3F6B328B058F667CC4975EF7512B2008C204220CF1EE1393FD96ED098288ED11
310
E2D54CFF274A937A52948C8D94AC7117590002F36A6908AE5C3ADF1E61F47D723E16F3BC4DD0F2050854224209A23BCAAB859A17903D59BD7A86E87C5EF0E67ACE6CBA1AB35AF06ABE512EBF07CC75BEA7F801504B03041400060808000A67314030EF06495401000033030000300000006662782F41443630314438372D31
310
4333412D343338312D384641382D3643413642414136354539342F636E782E786D6CBD93CD6E022114855F85B09F5FEDD41806932EFA045D748B70552A03137E9AFAF6BD285A372E9A34DD90C9B987736EBE306CF33519F2093E686747DAD52D2560A553DAEE479AE2AE5A51B2E1CC3B17EF6C945831C148B34C39DB7B97E6
310
2229D8896422AA46DB63113D0497BC848072BE498C93C26000D82AA108D3169402456E46FCDA81C75550DC9E483C00797D79276EFB013206D6E414CE9ADCC1593E4BD39D8912694408230DF20093A8458A4E4138D64A445177F5B5EBC14E3F49245FB85626AF492E1F693E292F1BD5C8913538E42C448FF48A299E66A05CCC
310
B3D1524484DC9C8D170F6749DB382C8B5723788FEE453FAC5618769E7116F504C5213D88088AF2BEEDFAAAEDAAEEF9ADEBD74FC3BA6FAB7658B72D6BB29DB3AD73A65CC218F06E26D2D9083652DEB1268F1FE12B3EA2B447D6CE9F7E01120194D60B9D5BC65FF2E986C572F98F7C9AF3FB465C1EFF02FE0D504B0304140006
310
0808000A6731404C92A53D5A070000931B0000340000006662782F41443630314438372D314333412D343338312D384641382D3643413642414136354539342F6F626A656374732E786D6CED595B73A33614FE2B0C7D3636B6B3DD74083BB193EC783A6977EA6EA70F99616490891A711921B2497F7D3F098181980477D3B7
310
3ED880908ECEF9CE5507EFD353C2AD472A0A96A517B6EBCC6C8BA66116B134BEB04BB99F7CB4AD4FBE27B24CB6A6D9564A127A61AB61DBF7629195B9198AE89E945CF6466F567F5A4548536A5B212745716117E13D4D88434A9945B4787022228913EF9F1CD7A92676C9C682E4F73DA239113495E014E329A85815536EF771
310
664F7D6FAADEFB9EFA37B316A3662D87674DB5D45D2E595A4892862F58EA91598C6269E12EAFAEE767E793B3E57231597E98BB93D5CDEA6AE2FEB898AD3FACD7E797D7E7606F9765DCC814D19CA611F4F76CFBAE37556F1AD10D02C7B80EB334A5A106125069B1FA04192DB0550BBE59F7D15512B55E6B095BCF4BF5DEB0D0
310
1A5E74A90CCD1A0744872E0431DBD512D7D7B67CD9EE2F085E8C314A5150096E0B29A05D038F8057D8FECC9B56A3BEB73BE88215564224158C708BB39D20024AC15435C5F7AA05868C720E01529692406BAE7ADDB52D78E6DBAE738CCB7DC9B9F20CDBD78E15C0FDA82C3467EC6F2A0EDCB791014F90B664A9FC68B894CF39
310
B5FD736FAA077D4F5D1673F3B202D2DA7312171A91EA6D4FD0B572FDCD95EDFF7CB37BDAAA70707CF35C64391552199DD2A3E60B866CAE0A25B3AD3B4A736A0184A940352B0FA0FC06E47F41F438B002BD09F6B47C5A9AB95290B4D86722816EAC993599E16F66B9FA5FDDB7EEBC69B3B8ABBD213CE1A60AAA8FDF8F675706
310
8D95E1BF05A7EF3DC2E033B130AFB621E1B0E75B960220652416CF3084D0BEDF3DD9FE068113811EAB08F75D880C761F71EB4D0D9983566AF7325E970251B3C7628C92009BB648B031A0A7CFC81E82850735B5451C82F7EC5DCCF5F26AFBF3B6147B12D25BE3D35774CF522691358F33D4C1BC23D1037DFE96890882BEC47B
310
DBC63B315B15405B61AE808F6B10D4C361E7CE0621D6C5990A37DE1B3B400895AB5BF46F591152CE494AB3B2DEB7896ECA501B8F373583EDCF2B8817F39E090BFAC8545501A739CCE8308ABC1F0A962B106DFF73255913349D01E9BE6E7E814536F307666D5284DE94F0DF75D03A8243C7B26BA40D108DC0BB43380F339E89
310
60F71C5491CE462D0136BADEF2478728627DA52445051EA4FDAE0E2971256D10B1FDBE2C10578FB0F8C766DD368799B370CFACF67FCF199788B6F05D228CDFF5F6085842621AEC4934B45D7BB78676A1490E901674CF21177B64F23920329845343E059A93889FBF2BF5986745C1525A205F1D05BF8DC6CC4120A9B459B3AC
310
B4DA039A15414225E1A720A0C80C80ABD38EAE7143940E6FF3D858EF6B1A6B13FD8F2C4210D492591A3094A2C8216F32EE3A6788215D742B947BF8C2DA6ADA5A0C5EA284089F836F94C5F7F214D42BF203B88738929432C87212C2AC47907DE12B4AA93DDE77247C50F923084BFE5E065250BE0F18E76512E0C7529C3CC6B8
310
7613985E45A145BC8A7D922628CA882CC5984D3E9CCD5EEC53D50CFD10D8DA68CF38C27690907C00F54E40D4F588D5806FA80F28755726794092AC4C47198AB3E87B9321DF57AB223B925F552AA26CAC091B82BEC752D964D53A66C3D47560851BE940F51C1424C979750A7B23F1B88D3769CA831B08E3A7EFBB4182C26F40
310
7BED88BAAC61303C760A83E21B91E1BDED6FF575B242FD1DD1E890EAEB5AB35D01023115C94BC18C8ABE6E50DE981ACDF66F892CEE3E5759B7BE7EDD38E87E7853AC41EDD22CDC28A0139A4AA22A935B75C37F2308C11D1AD5F846E5D453A85C4691AE1A09BF6143EAEC94119D4D13E6E4F734CD12FCD23B9686BC8CE81D89
310
8A87E056F260CB14EB464A276135C6AF0AF8EBE76D0F1E8C8C10E98B2AF0E8B7DE5A33BA56E5D25122F2BE4C76296108821DD1E24A374E9EC64623B5969BAB3A53A0EE828119152FFF3F59B4DB11FF9F2C626318DF77B2E0D98EF043B46965F35099F549A780263D292AEF710AD05D87866A9344AA5C6EC437BE142026D641
310
7E743156C78C8AE010C7FF3A690F25C16ABB1EFFA7256DF745C1715252E94C564DAA2385EBA69DC2D09F75CF57F3F56431BBBC992CDDCBF964757DB59EAC17ABEBB3F9C7D5879BD57583A6F653DF6B62994E5D78AE625A3DAC9E0C0668CA161967110EF3911553847C8923FD88EEB9486881DCD9EE7547A6273F62F563D5E6
310
9464C769CDC93D417F9817C8EAC0A80C6577DCFA019D498973F6858D9E91F3803F6395B685C47361A3532059480B67872E93EAE769E2C8B83AF51B62C087A4B1CA88D5A2E6B959A5B0E944FF66CA982C60E4EAB43050B7E5687E751A149A37C3537892E0353B1691B8DD9512C55A25CB61A011466F73507F251B67E983D9FA
310
09AEFBBA58AEA3E774108145BEFDC5E05523A8A84E2411B16E772BC60C4B97575FA668B3599B5FAD9C973174399ED244501873A9EA295811ACC2D0CC8984A9AE7FBAFB22327CE1492C5D14DDADB324C952F37089E358842F44D6F61EDF7BA23B540D5475D58BBBF9CC9DDFE96EB669B0073B525047954318A8AB082542CFD8
310
60912F3A53A66F39554AE84DDF5C59267C9E81A8B6DA17CDDDEAEB9605EF51DF5194AF680FAFE57CB5A13DD553610D02AD68FF1F504B03041400060800000A673140000000000000000000000000350000006662782F41443630314438372D314333412D343338312D384641382D3643413642414136354539342F76657274
310
696365732E62696E504B03041400060808000A673140F270F1330600000004000000360000006662782F41443630314438372D314333412D343338312D384641382D3643413642414136354539342F747269616E676C65732E62696E636660600000504B03041400060800000A673140000000000000000000000000370000
310
006662782F41443630314438372D314333412D343338312D384641382D3643413642414136354539342F617474726962757465732E62696E504B03041400060808000A673140D5987DFC8F00000041010000360000006662782F41443630314438372D314333412D343338312D384641382D3643413642414136354539342F
310
6469726563746F72792E786D6C858F410EC2201045AF4266AF15DDB800BA74E7C21B903225242D6328188F2FA5C4183471359997F9FF81E89FF3C41E1816475E02DF1F80A11FC8386F25A438EECEC07A250251FC3803E6F58C12560C4AD840E95E91C151A72936F496F35732D860FE635F62C8F2DA16B505C545B74125BAA2
310
FA9E05D7CC053D063734D5C7665FD55B6B8D15D5E9BFEAFD8490FFA45E504B03041400060808000A673140400025E2FD000000A00100003B0000006662782F41443630314438372D314333412D343338312D384641382D3643413642414136354539342F7265736F75726365732F636F72652E786D6C8D905D6E83301084AF
310
82F6DD6053420019474D7F4ED00B586643AC041BF9A7EAF16B072AB56F7DF15A33DF6847CB4F5FCBBDF844E7B53523B092428146D9499B7984182EA483E224B8B336FCC2A03072C111B20C82CFCEC675979435014D48AAB113EEA2F41E0314EA9E3E237875C54596328644F85BB94A75933396AC4C76E204F7C1A502C5B624
310
BF201C7A1B9D42CFABCD153C463DED8C9ED24E7DD1E840F4AF7D4F69C7C8A16B9F4973EE5BD2335693B6698EE7978676EFC7375EE5B0E0412F3F1D954319700251D3045346D8F183D5C3A11D6A4A683B50CAAB8CFF09C575FA67286A139EEABDEE16F320582AF23004AFF2BDD2781C33CD7C5BF10D504B010214000A000008
310
00000A6731403DEE336E79000000790000001B00000000000000000000000000000000006175746F6465736B2D64657369676E2D7061636B6167652E786D6C504B010214001400060808000A673140D486FD9CA0000000F40000001300000000000000000000000000B20000005B436F6E74656E745F54797065735D2E786D
310
6C504B010214001400060808000A67314028EA78D3E90000007C010000080000000000000000000000000083010000636F72652E786D6C504B010214001400060808000A67314055019EA25F0000007C000000070000000000000000000000000092020000636E782E786D6C504B010214001400060808000A673140F36D14
310
2265010000020300000C00000000000000000000000000160300006662782F636F72652E786D6C504B010214001400060808000A673140FD7503657E0000009D0000000B00000000000000000000000000A50400006662782F636E782E786D6C504B010214001400060808000A673140FAF0D6122B01000014020000310000
310
00000000000000000000004C0500006662782F41443630314438372D314333412D343338312D384641382D3643413642414136354539342F636F72652E786D6C504B010214001400060808000A67314030EF064954010000330300003000000000000000000000000000C60600006662782F41443630314438372D31433341
310
2D343338312D384641382D3643413642414136354539342F636E782E786D6C504B010214001400060808000A6731404C92A53D5A070000931B00003400000000000000000000000000680800006662782F41443630314438372D314333412D343338312D384641382D3643413642414136354539342F6F626A656374732E78
310
6D6C504B010214001400060800000A6731400000000000000000000000003500000000000000000000000000141000006662782F41443630314438372D314333412D343338312D384641382D3643413642414136354539342F76657274696365732E62696E504B010214001400060808000A673140F270F133060000000400
310
00003600000000000000000000000000671000006662782F41443630314438372D314333412D343338312D384641382D3643413642414136354539342F747269616E676C65732E62696E504B010214001400060800000A6731400000000000000000000000003700000000000000000000000000C11000006662782F414436
310
30314438372D314333412D343338312D384641382D3643413642414136354539342F617474726962757465732E62696E504B010214001400060808000A673140D5987DFC8F000000410100003600000000000000000000000000161100006662782F41443630314438372D314333412D343338312D384641382D3643413642
310
414136354539342F6469726563746F72792E786D6C504B010214001400060808000A673140400025E2FD000000A00100003B00000000000000000000000000F91100006662782F41443630314438372D314333412D343338312D384641382D3643413642414136354539342F7265736F75726365732F636F72652E786D6C50
310
4B0506000000000E000E00800400004F1300000000
  0
XRECORD
  5
27
102
{ACAD_REACTORS
330
22
102
}
330
22
100
AcDbXrecord
280
     1
270
     1
271
     1
  0
XRECORD
  5
26
102
{ACAD_REACTORS
330
22
102
}
330
22
100
AcDbXrecord
280
     1
270
     1
271
     1
  0
XRECORD
  5
28
102
{ACAD_REACTORS
330
22
102
}
330
22
100
AcDbXrecord
280
     1
270
     1
271
     1
  0
XRECORD
  5
25
102
{ACAD_REACTORS
330
22
102
}
330
22
100
AcDbXrecord
280
     1
270
     1
271
     1
  0
XRECORD
  5
E2C
102
{ACAD_REACTORS
330
E2B
102
}
330
E2B
100
AcDbXrecord
280
     1
102
ACAD_ROUNDTRIP_2012_MLEADER_STYLE
298
     1
  0
CELLSTYLEMAP
  5
E2A
102
{ACAD_REACTORS
330
E29
102
}
330
E29
100
AcDbCellStyleMap
 90
        3
300
CELLSTYLE
  1
TABLEFORMAT_BEGIN
 90
        5
170
     1
 91
        0
 92
    32768
 62
   257
 93
        1
300
CONTENTFORMAT
  1
CONTENTFORMAT_BEGIN
 90
        0
 91
        0
 92
      512
 93
        0
300

 40
0.0
140
1.0
 94
        5
 62
     0
340
55
144
0.25
309
CONTENTFORMAT_END
171
     0
 94
        0
309
TABLEFORMAT_END
  1
CELLSTYLE_BEGIN
 90
        1
 91
        1
300
_TITLE
309
CELLSTYLE_END
300
CELLSTYLE
  1
TABLEFORMAT_BEGIN
 90
        5
170
     1
 91
        0
 92
        0
 62
   257
 93
        1
300
CONTENTFORMAT
  1
CONTENTFORMAT_BEGIN
 90
        0
 91
        0
 92
      512
 93
        0
300

 40
0.0
140
1.0
 94
        5
 62
     0
340
55
144
0.18
309
CONTENTFORMAT_END
171
     0
 94
        0
309
TABLEFORMAT_END
  1
CELLSTYLE_BEGIN
 90
        2
 91
        1
300
_HEADER
309
CELLSTYLE_END
300
CELLSTYLE
  1
TABLEFORMAT_BEGIN
 90
        5
170
     1
 91
        0
 92
        0
 62
   257
 93
        1
300
CONTENTFORMAT
  1
CONTENTFORMAT_BEGIN
 90
        0
 91
        0
 92
      512
 93
        0
300

 40
0.0
140
1.0
 94
        2
 62
     0
340
55
144
0.18
309
CONTENTFORMAT_END
171
     0
 94
        0
309
TABLEFORMAT_END
  1
CELLSTYLE_BEGIN
 90
        3
 91
        2
300
_DATA
309
CELLSTYLE_END
  0
XRECORD
  5
E63
102
{ACAD_REACTORS
330
E29
102
}
330
E29
100
AcDbXrecord
280
     1
102
ACAD_ROUNDTRIP_PRE2007_TABLESTYLE
 90
      512
 91
        0
  1

 92
      512
 93
        0
  2

 94
      512
 95
        0
  3

  0
XRECORD
  5
E3E
102
{ACAD_REACTORS
330
E3D
102
}
330
E3D
100
AcDbXrecord
280
     1
102
RTVSPropertyOp0
 70
     1
102
RTVSPropertyOp1
 70
     1
102
RTVSPropertyOp2
 70
     1
102
RTVSPropertyOp3
 70
     1
102
RTVSPropertyOp4
 70
     1
102
RTVSPropertyOp5
 70
     1
102
RTVSPropertyOp6
 70
     1
102
RTVSPropertyOp7
 70
     1
102
RTVSPropertyOp8
 70
     1
102
RTVSPropertyOp9
 70
     1
102
RTVSPropertyOp10
 70
     1
102
RTVSPropertyOp11
 70
     1
102
RTVSPropertyOp12
 70
     1
102
RTVSPropertyOp13
 70
     1
102
RTVSPropertyOp14
 70
     1
102
RTVSPropertyOp15
 70
     1
102
RTVSPropertyOp16
 70
     1
102
RTVSPropertyOp17
 70
     1
102
RTVSPropertyOp18
 70
     1
102
RTVSPropertyOp19
 70
     1
102
RTVSPropertyOp20
 70
     1
102
RTVSPropertyOp21
 70
     1
102
RTVSPropertyOp22
 70
     1
102
RTVSPropertyOp23
 70
     1
102
RTVSPropertyOp24
 70
     1
102
RTVSPropertyOp25
 70
     1
102
RTVSPropertyOp26
 70
     1
102
RTVSPropertyOp27
 70
     1
102
RTVSPropertyOp28
 70
     1
102
RTVSPropertyOp29
 70
     1
102
RTVSPropertyOp30
 70
     1
102
RTVSPropertyOp31
 70
     1
102
RTVSPropertyOp32
 70
     1
  0
XRECORD
  5
E3C
102
{ACAD_REACTORS
330
E3B
102
}
330
E3B
100
AcDbXrecord
280
     1
102
RTVSPropertyOp0
 70
     1
102
RTVSPropertyOp1
 70
     1
102
RTVSPropertyOp2
 70
     1
102
RTVSPropertyOp3
 70
     1
102
RTVSPropertyOp4
 70
     1
102
RTVSPropertyOp5
 70
     1
102
RTVSPropertyOp6
 70
     1
102
RTVSPropertyOp7
 70
     1
102
RTVSPropertyOp8
 70
     1
102
RTVSPropertyOp9
 70
     1
102
RTVSPropertyOp10
 70
     1
102
RTVSPropertyOp11
 70
     1
102
RTVSPropertyOp12
 70
     1
102
RTVSPropertyOp13
 70
     1
102
RTVSPropertyOp14
 70
     1
102
RTVSPropertyOp15
 70
     1
102
RTVSPropertyOp16
 70
     1
102
RTVSPropertyOp17
 70
     1
102
RTVSPropertyOp18
 70
     1
102
RTVSPropertyOp19
 70
     1
102
RTVSPropertyOp20
 70
     1
102
RTVSPropertyOp21
 70
     1
102
RTVSPropertyOp22
 70
     1
102
RTVSPropertyOp23
 70
     1
102
RTVSPropertyOp24
 70
     1
102
RTVSPropertyOp25
 70
     1
102
RTVSPropertyOp26
 70
     1
102
RTVSPropertyOp27
 70
     1
102
RTVSPropertyOp28
 70
     1
102
RTVSPropertyOp29
 70
     1
102
RTVSPropertyOp30
 70
     1
102
RTVSPropertyOp31
 70
     1
102
RTVSPropertyOp32
 70
     1
  0
XRECORD
  5
E4A
102
{ACAD_REACTORS
330
E49
102
}
330
E49
100
AcDbXrecord
280
     1
102
RTVSPropertyOp0
 70
     1
102
RTVSPropertyOp1
 70
     1
102
RTVSPropertyOp2
 70
     1
102
RTVSPropertyOp3
 70
     1
102
RTVSPropertyOp4
 70
     1
102
RTVSPropertyOp5
 70
     1
102
RTVSPropertyOp6
 70
     1
102
RTVSPropertyOp7
 70
     1
102
RTVSPropertyOp8
 70
     1
102
RTVSPropertyOp9
 70
     1
102
RTVSPropertyOp10
 70
     1
102
RTVSPropertyOp11
 70
     1
102
RTVSPropertyOp12
 70
     1
102
RTVSPropertyOp13
 70
     1
102
RTVSPropertyOp14
 70
     1
102
RTVSPropertyOp15
 70
     1
102
RTVSPropertyOp16
 70
     1
102
RTVSPropertyOp17
 70
     1
102
RTVSPropertyOp18
 70
     1
102
RTVSPropertyOp19
 70
     1
102
RTVSPropertyOp20
 70
     1
102
RTVSPropertyOp21
 70
     1
102
RTVSPropertyOp22
 70
     1
102
RTVSPropertyOp23
 70
     1
102
RTVSPropertyOp24
 70
     1
102
RTVSPropertyOp25
 70
     1
102
RTVSPropertyOp26
 70
     1
102
RTVSPropertyOp27
 70
     1
102
RTVSPropertyOp28
 70
     1
102
RTVSPropertyOp29
 70
     1
102
RTVSPropertyOp30
 70
     1
102
RTVSPropertyOp31
 70
     1
102
RTVSPropertyOp32
 70
     1
  0
XRECORD
  5
E52
102
{ACAD_REACTORS
330
E51
102
}
330
E51
100
AcDbXrecord
280
     1
102
RTVSPropertyOp0
 70
     1
102
RTVSPropertyOp1
 70
     1
102
RTVSPropertyOp2
 70
     1
102
RTVSPropertyOp3
 70
     1
102
RTVSPropertyOp4
 70
     1
102
RTVSPropertyOp5
 70
     1
102
RTVSPropertyOp6
 70
     1
102
RTVSPropertyOp7
 70
     1
102
RTVSPropertyOp8
 70
     1
102
RTVSPropertyOp9
 70
     1
102
RTVSPropertyOp10
 70
     1
102
RTVSPropertyOp11
 70
     1
102
RTVSPropertyOp12
 70
     1
102
RTVSPropertyOp13
 70
     1
102
RTVSPropertyOp14
 70
     1
102
RTVSPropertyOp15
 70
     1
102
RTVSPropertyOp16
 70
     1
102
RTVSPropertyOp17
 70
     1
102
RTVSPropertyOp18
 70
     1
102
RTVSPropertyOp19
 70
     1
102
RTVSPropertyOp20
 70
     1
102
RTVSPropertyOp21
 70
     1
102
RTVSPropertyOp22
 70
     1
102
RTVSPropertyOp23
 70
     1
102
RTVSPropertyOp24
 70
     1
102
RTVSPropertyOp25
 70
     1
102
RTVSPropertyOp26
 70
     1
102
RTVSPropertyOp27
 70
     1
102
RTVSPropertyOp28
 70
     1
102
RTVSPropertyOp29
 70
     1
102
RTVSPropertyOp30
 70
     1
102
RTVSPropertyOp31
 70
     1
102
RTVSPropertyOp32
 70
     1
  0
XRECORD
  5
E44
102
{ACAD_REACTORS
330
E43
102
}
330
E43
100
AcDbXrecord
280
     1
102
RTVSPropertyOp0
 70
     1
102
RTVSPropertyOp1
 70
     1
102
RTVSPropertyOp2
 70
     1
102
RTVSPropertyOp3
 70
     1
102
RTVSPropertyOp4
 70
     1
102
RTVSPropertyOp5
 70
     1
102
RTVSPropertyOp6
 70
     1
102
RTVSPropertyOp7
 70
     1
102
RTVSPropertyOp8
 70
     1
102
RTVSPropertyOp9
 70
     1
102
RTVSPropertyOp10
 70
     1
102
RTVSPropertyOp11
 70
     1
102
RTVSPropertyOp12
 70
     1
102
RTVSPropertyOp13
 70
     1
102
RTVSPropertyOp14
 70
     1
102
RTVSPropertyOp15
 70
     1
102
RTVSPropertyOp16
 70
     1
102
RTVSPropertyOp17
 70
     1
102
RTVSPropertyOp18
 70
     1
102
RTVSPropertyOp19
 70
     1
102
RTVSPropertyOp20
 70
     1
102
RTVSPropertyOp21
 70
     1
102
RTVSPropertyOp22
 70
     1
102
RTVSPropertyOp23
 70
     1
102
RTVSPropertyOp24
 70
     1
102
RTVSPropertyOp25
 70
     1
102
RTVSPropertyOp26
 70
     1
102
RTVSPropertyOp27
 70
     1
102
RTVSPropertyOp28
 70
     1
102
RTVSPropertyOp29
 70
     1
102
RTVSPropertyOp30
 70
     1
102
RTVSPropertyOp31
 70
     1
102
RTVSPropertyOp32
 70
     1
  0
XRECORD
  5
E48
102
{ACAD_REACTORS
330
E47
102
}
330
E47
100
AcDbXrecord
280
     1
102
RTVSPropertyOp0
 70
     1
102
RTVSPropertyOp1
 70
     1
102
RTVSPropertyOp2
 70
     1
102
RTVSPropertyOp3
 70
     1
102
RTVSPropertyOp4
 70
     1
102
RTVSPropertyOp5
 70
     1
102
RTVSPropertyOp6
 70
     1
102
RTVSPropertyOp7
 70
     1
102
RTVSPropertyOp8
 70
     1
102
RTVSPropertyOp9
 70
     1
102
RTVSPropertyOp10
 70
     1
102
RTVSPropertyOp11
 70
     1
102
RTVSPropertyOp12
 70
     1
102
RTVSPropertyOp13
 70
     1
102
RTVSPropertyOp14
 70
     1
102
RTVSPropertyOp15
 70
     1
102
RTVSPropertyOp16
 70
     1
102
RTVSPropertyOp17
 70
     1
102
RTVSPropertyOp18
 70
     1
102
RTVSPropertyOp19
 70
     1
102
RTVSPropertyOp20
 70
     1
102
RTVSPropertyOp21
 70
     1
102
RTVSPropertyOp22
 70
     1
102
RTVSPropertyOp23
 70
     1
102
RTVSPropertyOp24
 70
     1
102
RTVSPropertyOp25
 70
     1
102
RTVSPropertyOp26
 70
     1
102
RTVSPropertyOp27
 70
     1
102
RTVSPropertyOp28
 70
     1
102
RTVSPropertyOp29
 70
     1
102
RTVSPropertyOp30
 70
     1
102
RTVSPropertyOp31
 70
     1
102
RTVSPropertyOp32
 70
     1
  0
XRECORD
  5
E62
102
{ACAD_REACTORS
330
E61
102
}
330
E61
100
AcDbXrecord
280
     1
102
RTVSPropertyOp0
 70
     0
102
RTVSPropertyOp1
 70
     0
102
RTVSPropertyOp2
 70
     0
102
RTVSPropertyOp3
 70
     0
102
RTVSPropertyOp4
 70
     0
102
RTVSPropertyOp5
 70
     0
102
RTVSPropertyOp6
 70
     0
102
RTVSPropertyOp7
 70
     0
102
RTVSPropertyOp8
 70
     0
102
RTVSPropertyOp9
 70
     0
102
RTVSPropertyOp10
 70
     0
102
RTVSPropertyOp11
 70
     0
102
RTVSPropertyOp12
 70
     0
102
RTVSPropertyOp13
 70
     0
102
RTVSPropertyOp14
 70
     2
102
RTVSPropertyOp15
 70
     0
102
RTVSPropertyOp16
 70
     0
102
RTVSPropertyOp17
 70
     0
102
RTVSPropertyOp18
 70
     0
102
RTVSPropertyOp19
 70
     0
102
RTVSPropertyOp20
 70
     0
102
RTVSPropertyOp21
 70
     0
102
RTVSPropertyOp22
 70
     0
102
RTVSPropertyOp23
 70
     0
102
RTVSPropertyOp24
 70
     0
102
RTVSPropertyOp25
 70
     0
102
RTVSPropertyOp26
 70
     0
102
RTVSPropertyOp27
 70
     0
102
RTVSPropertyOp28
 70
     1
102
RTVSPropertyOp29
 70
     1
102
RTVSPropertyOp30
 70
     1
102
RTVSPropertyOp31
 70
     1
102
RTVSPropertyOp32
 70
     1
  0
XRECORD
  5
E50
102
{ACAD_REACTORS
330
E4F
102
}
330
E4F
100
AcDbXrecord
280
     1
102
RTVSPropertyOp0
 70
     1
102
RTVSPropertyOp1
 70
     1
102
RTVSPropertyOp2
 70
     1
102
RTVSPropertyOp3
 70
     1
102
RTVSPropertyOp4
 70
     1
102
RTVSPropertyOp5
 70
     1
102
RTVSPropertyOp6
 70
     1
102
RTVSPropertyOp7
 70
     1
102
RTVSPropertyOp8
 70
     1
102
RTVSPropertyOp9
 70
     1
102
RTVSPropertyOp10
 70
     1
102
RTVSPropertyOp11
 70
     1
102
RTVSPropertyOp12
 70
     1
102
RTVSPropertyOp13
 70
     1
102
RTVSPropertyOp14
 70
     1
102
RTVSPropertyOp15
 70
     1
102
RTVSPropertyOp16
 70
     1
102
RTVSPropertyOp17
 70
     1
102
RTVSPropertyOp18
 70
     1
102
RTVSPropertyOp19
 70
     1
102
RTVSPropertyOp20
 70
     1
102
RTVSPropertyOp21
 70
     1
102
RTVSPropertyOp22
 70
     1
102
RTVSPropertyOp23
 70
     1
102
RTVSPropertyOp24
 70
     1
102
RTVSPropertyOp25
 70
     1
102
RTVSPropertyOp26
 70
     1
102
RTVSPropertyOp27
 70
     1
102
RTVSPropertyOp28
 70
     1
102
RTVSPropertyOp29
 70
     1
102
RTVSPropertyOp30
 70
     1
102
RTVSPropertyOp31
 70
     1
102
RTVSPropertyOp32
 70
     1
  0
XRECORD
  5
E34
102
{ACAD_REACTORS
330
E33
102
}
330
E33
100
AcDbXrecord
280
     1
102
RTVSPropertyOp0
 70
     1
102
RTVSPropertyOp1
 70
     1
102
RTVSPropertyOp2
 70
     1
102
RTVSPropertyOp3
 70
     1
102
RTVSPropertyOp4
 70
     1
102
RTVSPropertyOp5
 70
     1
102
RTVSPropertyOp6
 70
     1
102
RTVSPropertyOp7
 70
     1
102
RTVSPropertyOp8
 70
     1
102
RTVSPropertyOp9
 70
     1
102
RTVSPropertyOp10
 70
     1
102
RTVSPropertyOp11
 70
     1
102
RTVSPropertyOp12
 70
     1
102
RTVSPropertyOp13
 70
     1
102
RTVSPropertyOp14
 70
     1
102
RTVSPropertyOp15
 70
     1
102
RTVSPropertyOp16
 70
     1
102
RTVSPropertyOp17
 70
     1
102
RTVSPropertyOp18
 70
     1
102
RTVSPropertyOp19
 70
     1
102
RTVSPropertyOp20
 70
     1
102
RTVSPropertyOp21
 70
     1
102
RTVSPropertyOp22
 70
     1
102
RTVSPropertyOp23
 70
     1
102
RTVSPropertyOp24
 70
     1
102
RTVSPropertyOp25
 70
     1
102
RTVSPropertyOp26
 70
     1
102
RTVSPropertyOp27
 70
     1
102
RTVSPropertyOp28
 70
     1
102
RTVSPropertyOp29
 70
     1
102
RTVSPropertyOp30
 70
     1
102
RTVSPropertyOp31
 70
     1
102
RTVSPropertyOp32
 70
     1
  0
XRECORD
  5
E36
102
{ACAD_REACTORS
330
E35
102
}
330
E35
100
AcDbXrecord
280
     1
102
RTVSPropertyOp0
 70
     1
102
RTVSPropertyOp1
 70
     1
102
RTVSPropertyOp2
 70
     1
102
RTVSPropertyOp3
 70
     1
102
RTVSPropertyOp4
 70
     1
102
RTVSPropertyOp5
 70
     1
102
RTVSPropertyOp6
 70
     1
102
RTVSPropertyOp7
 70
     1
102
RTVSPropertyOp8
 70
     1
102
RTVSPropertyOp9
 70
     1
102
RTVSPropertyOp10
 70
     1
102
RTVSPropertyOp11
 70
     1
102
RTVSPropertyOp12
 70
     1
102
RTVSPropertyOp13
 70
     1
102
RTVSPropertyOp14
 70
     1
102
RTVSPropertyOp15
 70
     1
102
RTVSPropertyOp16
 70
     1
102
RTVSPropertyOp17
 70
     1
102
RTVSPropertyOp18
 70
     1
102
RTVSPropertyOp19
 70
     1
102
RTVSPropertyOp20
 70
     1
102
RTVSPropertyOp21
 70
     1
102
RTVSPropertyOp22
 70
     1
102
RTVSPropertyOp23
 70
     1
102
RTVSPropertyOp24
 70
     1
102
RTVSPropertyOp25
 70
     1
102
RTVSPropertyOp26
 70
     1
102
RTVSPropertyOp27
 70
     1
102
RTVSPropertyOp28
 70
     1
102
RTVSPropertyOp29
 70
     1
102
RTVSPropertyOp30
 70
     1
102
RTVSPropertyOp31
 70
     1
102
RTVSPropertyOp32
 70
     1
  0
XRECORD
  5
E38
102
{ACAD_REACTORS
330
E37
102
}
330
E37
100
AcDbXrecord
280
     1
102
RTVSPropertyOp0
 70
     1
102
RTVSPropertyOp1
 70
     1
102
RTVSPropertyOp2
 70
     1
102
RTVSPropertyOp3
 70
     1
102
RTVSPropertyOp4
 70
     1
102
RTVSPropertyOp5
 70
     1
102
RTVSPropertyOp6
 70
     1
102
RTVSPropertyOp7
 70
     1
102
RTVSPropertyOp8
 70
     1
102
RTVSPropertyOp9
 70
     1
102
RTVSPropertyOp10
 70
     1
102
RTVSPropertyOp11
 70
     1
102
RTVSPropertyOp12
 70
     1
102
RTVSPropertyOp13
 70
     1
102
RTVSPropertyOp14
 70
     1
102
RTVSPropertyOp15
 70
     1
102
RTVSPropertyOp16
 70
     1
102
RTVSPropertyOp17
 70
     1
102
RTVSPropertyOp18
 70
     1
102
RTVSPropertyOp19
 70
     1
102
RTVSPropertyOp20
 70
     1
102
RTVSPropertyOp21
 70
     1
102
RTVSPropertyOp22
 70
     1
102
RTVSPropertyOp23
 70
     1
102
RTVSPropertyOp24
 70
     1
102
RTVSPropertyOp25
 70
     1
102
RTVSPropertyOp26
 70
     1
102
RTVSPropertyOp27
 70
     1
102
RTVSPropertyOp28
 70
     1
102
RTVSPropertyOp29
 70
     1
102
RTVSPropertyOp30
 70
     1
102
RTVSPropertyOp31
 70
     1
102
RTVSPropertyOp32
 70
     1
  0
XRECORD
  5
E3A
102
{ACAD_REACTORS
330
E39
102
}
330
E39
100
AcDbXrecord
280
     1
102
RTVSPropertyOp0
 70
     1
102
RTVSPropertyOp1
 70
     1
102
RTVSPropertyOp2
 70
     1
102
RTVSPropertyOp3
 70
     1
102
RTVSPropertyOp4
 70
     1
102
RTVSPropertyOp5
 70
     1
102
RTVSPropertyOp6
 70
     1
102
RTVSPropertyOp7
 70
     1
102
RTVSPropertyOp8
 70
     1
102
RTVSPropertyOp9
 70
     1
102
RTVSPropertyOp10
 70
     1
102
RTVSPropertyOp11
 70
     1
102
RTVSPropertyOp12
 70
     1
102
RTVSPropertyOp13
 70
     1
102
RTVSPropertyOp14
 70
     1
102
RTVSPropertyOp15
 70
     1
102
RTVSPropertyOp16
 70
     1
102
RTVSPropertyOp17
 70
     1
102
RTVSPropertyOp18
 70
     1
102
RTVSPropertyOp19
 70
     1
102
RTVSPropertyOp20
 70
     1
102
RTVSPropertyOp21
 70
     1
102
RTVSPropertyOp22
 70
     1
102
RTVSPropertyOp23
 70
     1
102
RTVSPropertyOp24
 70
     1
102
RTVSPropertyOp25
 70
     1
102
RTVSPropertyOp26
 70
     1
102
RTVSPropertyOp27
 70
     1
102
RTVSPropertyOp28
 70
     1
102
RTVSPropertyOp29
 70
     1
102
RTVSPropertyOp30
 70
     1
102
RTVSPropertyOp31
 70
     1
102
RTVSPropertyOp32
 70
     1
  0
XRECORD
  5
E42
102
{ACAD_REACTORS
330
E41
102
}
330
E41
100
AcDbXrecord
280
     1
102
RTVSPropertyOp0
 70
     1
102
RTVSPropertyOp1
 70
     1
102
RTVSPropertyOp2
 70
     1
102
RTVSPropertyOp3
 70
     1
102
RTVSPropertyOp4
 70
     1
102
RTVSPropertyOp5
 70
     1
102
RTVSPropertyOp6
 70
     1
102
RTVSPropertyOp7
 70
     1
102
RTVSPropertyOp8
 70
     1
102
RTVSPropertyOp9
 70
     1
102
RTVSPropertyOp10
 70
     1
102
RTVSPropertyOp11
 70
     1
102
RTVSPropertyOp12
 70
     1
102
RTVSPropertyOp13
 70
     1
102
RTVSPropertyOp14
 70
     1
102
RTVSPropertyOp15
 70
     1
102
RTVSPropertyOp16
 70
     1
102
RTVSPropertyOp17
 70
     1
102
RTVSPropertyOp18
 70
     1
102
RTVSPropertyOp19
 70
     1
102
RTVSPropertyOp20
 70
     1
102
RTVSPropertyOp21
 70
     1
102
RTVSPropertyOp22
 70
     1
102
RTVSPropertyOp23
 70
     1
102
RTVSPropertyOp24
 70
     1
102
RTVSPropertyOp25
 70
     1
102
RTVSPropertyOp26
 70
     1
102
RTVSPropertyOp27
 70
     1
102
RTVSPropertyOp28
 70
     1
102
RTVSPropertyOp29
 70
     1
102
RTVSPropertyOp30
 70
     1
102
RTVSPropertyOp31
 70
     1
102
RTVSPropertyOp32
 70
     1
  0
XRECORD
  5
E5E
102
{ACAD_REACTORS
330
E5D
102
}
330
E5D
100
AcDbXrecord
280
     1
102
RTVSPropertyOp0
 70
     0
102
RTVSPropertyOp1
 70
     0
102
RTVSPropertyOp2
 70
     0
102
RTVSPropertyOp3
 70
     0
102
RTVSPropertyOp4
 70
     0
102
RTVSPropertyOp5
 70
     0
102
RTVSPropertyOp6
 70
     0
102
RTVSPropertyOp7
 70
     0
102
RTVSPropertyOp8
 70
     0
102
RTVSPropertyOp9
 70
     0
102
RTVSPropertyOp10
 70
     0
102
RTVSPropertyOp11
 70
     0
102
RTVSPropertyOp12
 70
     0
102
RTVSPropertyOp13
 70
     0
102
RTVSPropertyOp14
 70
     2
102
RTVSPropertyOp15
 70
     0
102
RTVSPropertyOp16
 70
     0
102
RTVSPropertyOp17
 70
     0
102
RTVSPropertyOp18
 70
     0
102
RTVSPropertyOp19
 70
     0
102
RTVSPropertyOp20
 70
     0
102
RTVSPropertyOp21
 70
     0
102
RTVSPropertyOp22
 70
     0
102
RTVSPropertyOp23
 70
     0
102
RTVSPropertyOp24
 70
     0
102
RTVSPropertyOp25
 70
     0
102
RTVSPropertyOp26
 70
     0
102
RTVSPropertyOp27
 70
     0
102
RTVSPropertyOp28
 70
     1
102
RTVSPropertyOp29
 70
     1
102
RTVSPropertyOp30
 70
     1
102
RTVSPropertyOp31
 70
     1
102
RTVSPropertyOp32
 70
     1
  0
XRECORD
  5
E4E
102
{ACAD_REACTORS
330
E4D
102
}
330
E4D
100
AcDbXrecord
280
     1
102
RTVSPropertyOp0
 70
     1
102
RTVSPropertyOp1
 70
     1
102
RTVSPropertyOp2
 70
     1
102
RTVSPropertyOp3
 70
     1
102
RTVSPropertyOp4
 70
     1
102
RTVSPropertyOp5
 70
     1
102
RTVSPropertyOp6
 70
     1
102
RTVSPropertyOp7
 70
     1
102
RTVSPropertyOp8
 70
     1
102
RTVSPropertyOp9
 70
     1
102
RTVSPropertyOp10
 70
     1
102
RTVSPropertyOp11
 70
     1
102
RTVSPropertyOp12
 70
     1
102
RTVSPropertyOp13
 70
     1
102
RTVSPropertyOp14
 70
     1
102
RTVSPropertyOp15
 70
     1
102
RTVSPropertyOp16
 70
     1
102
RTVSPropertyOp17
 70
     1
102
RTVSPropertyOp18
 70
     1
102
RTVSPropertyOp19
 70
     1
102
RTVSPropertyOp20
 70
     1
102
RTVSPropertyOp21
 70
     1
102
RTVSPropertyOp22
 70
     1
102
RTVSPropertyOp23
 70
     1
102
RTVSPropertyOp24
 70
     1
102
RTVSPropertyOp25
 70
     1
102
RTVSPropertyOp26
 70
     1
102
RTVSPropertyOp27
 70
     1
102
RTVSPropertyOp28
 70
     1
102
RTVSPropertyOp29
 70
     1
102
RTVSPropertyOp30
 70
     1
102
RTVSPropertyOp31
 70
     1
102
RTVSPropertyOp32
 70
     1
  0
XRECORD
  5
E60
102
{ACAD_REACTORS
330
E5F
102
}
330
E5F
100
AcDbXrecord
280
     1
102
RTVSPropertyOp0
 70
     0
102
RTVSPropertyOp1
 70
     0
102
RTVSPropertyOp2
 70
     0
102
RTVSPropertyOp3
 70
     0
102
RTVSPropertyOp4
 70
     0
102
RTVSPropertyOp5
 70
     0
102
RTVSPropertyOp6
 70
     0
102
RTVSPropertyOp7
 70
     0
102
RTVSPropertyOp8
 70
     0
102
RTVSPropertyOp9
 70
     0
102
RTVSPropertyOp10
 70
     0
102
RTVSPropertyOp11
 70
     0
102
RTVSPropertyOp12
 70
     0
102
RTVSPropertyOp13
 70
     0
102
RTVSPropertyOp14
 70
     2
102
RTVSPropertyOp15
 70
     0
102
RTVSPropertyOp16
 70
     0
102
RTVSPropertyOp17
 70
     0
102
RTVSPropertyOp18
 70
     0
102
RTVSPropertyOp19
 70
     0
102
RTVSPropertyOp20
 70
     0
102
RTVSPropertyOp21
 70
     0
102
RTVSPropertyOp22
 70
     0
102
RTVSPropertyOp23
 70
     0
102
RTVSPropertyOp24
 70
     0
102
RTVSPropertyOp25
 70
     0
102
RTVSPropertyOp26
 70
     0
102
RTVSPropertyOp27
 70
     0
102
RTVSPropertyOp28
 70
     1
102
RTVSPropertyOp29
 70
     1
102
RTVSPropertyOp30
 70
     1
102
RTVSPropertyOp31
 70
     1
102
RTVSPropertyOp32
 70
     1
  0
XRECORD
  5
E46
102
{ACAD_REACTORS
330
E45
102
}
330
E45
100
AcDbXrecord
280
     1
102
RTVSPropertyOp0
 70
     1
102
RTVSPropertyOp1
 70
     1
102
RTVSPropertyOp2
 70
     1
102
RTVSPropertyOp3
 70
     1
102
RTVSPropertyOp4
 70
     1
102
RTVSPropertyOp5
 70
     1
102
RTVSPropertyOp6
 70
     1
102
RTVSPropertyOp7
 70
     1
102
RTVSPropertyOp8
 70
     1
102
RTVSPropertyOp9
 70
     1
102
RTVSPropertyOp10
 70
     1
102
RTVSPropertyOp11
 70
     1
102
RTVSPropertyOp12
 70
     1
102
RTVSPropertyOp13
 70
     1
102
RTVSPropertyOp14
 70
     1
102
RTVSPropertyOp15
 70
     1
102
RTVSPropertyOp16
 70
     1
102
RTVSPropertyOp17
 70
     1
102
RTVSPropertyOp18
 70
     1
102
RTVSPropertyOp19
 70
     1
102
RTVSPropertyOp20
 70
     1
102
RTVSPropertyOp21
 70
     1
102
RTVSPropertyOp22
 70
     1
102
RTVSPropertyOp23
 70
     1
102
RTVSPropertyOp24
 70
     1
102
RTVSPropertyOp25
 70
     1
102
RTVSPropertyOp26
 70
     1
102
RTVSPropertyOp27
 70
     1
102
RTVSPropertyOp28
 70
     1
102
RTVSPropertyOp29
 70
     1
102
RTVSPropertyOp30
 70
     1
102
RTVSPropertyOp31
 70
     1
102
RTVSPropertyOp32
 70
     1
  0
XRECORD
  5
E5C
102
{ACAD_REACTORS
330
E5B
102
}
330
E5B
100
AcDbXrecord
280
     1
102
RTVSPropertyOp0
 70
     1
102
RTVSPropertyOp1
 70
     1
102
RTVSPropertyOp2
 70
     1
102
RTVSPropertyOp3
 70
     1
102
RTVSPropertyOp4
 70
     1
102
RTVSPropertyOp5
 70
     1
102
RTVSPropertyOp6
 70
     1
102
RTVSPropertyOp7
 70
     1
102
RTVSPropertyOp8
 70
     1
102
RTVSPropertyOp9
 70
     1
102
RTVSPropertyOp10
 70
     1
102
RTVSPropertyOp11
 70
     1
102
RTVSPropertyOp12
 70
     1
102
RTVSPropertyOp13
 70
     1
102
RTVSPropertyOp14
 70
     1
102
RTVSPropertyOp15
 70
     1
102
RTVSPropertyOp16
 70
     1
102
RTVSPropertyOp17
 70
     1
102
RTVSPropertyOp18
 70
     1
102
RTVSPropertyOp19
 70
     1
102
RTVSPropertyOp20
 70
     1
102
RTVSPropertyOp21
 70
     1
102
RTVSPropertyOp22
 70
     1
102
RTVSPropertyOp23
 70
     1
102
RTVSPropertyOp24
 70
     1
102
RTVSPropertyOp25
 70
     1
102
RTVSPropertyOp26
 70
     1
102
RTVSPropertyOp27
 70
     1
102
RTVSPropertyOp28
 70
     1
102
RTVSPropertyOp29
 70
     1
102
RTVSPropertyOp30
 70
     1
102
RTVSPropertyOp31
 70
     1
102
RTVSPropertyOp32
 70
     1
  0
XRECORD
  5
E5A
102
{ACAD_REACTORS
330
E59
102
}
330
E59
100
AcDbXrecord
280
     1
102
RTVSPropertyOp0
 70
     1
102
RTVSPropertyOp1
 70
     1
102
RTVSPropertyOp2
 70
     1
102
RTVSPropertyOp3
 70
     1
102
RTVSPropertyOp4
 70
     1
102
RTVSPropertyOp5
 70
     1
102
RTVSPropertyOp6
 70
     1
102
RTVSPropertyOp7
 70
     1
102
RTVSPropertyOp8
 70
     1
102
RTVSPropertyOp9
 70
     1
102
RTVSPropertyOp10
 70
     1
102
RTVSPropertyOp11
 70
     1
102
RTVSPropertyOp12
 70
     1
102
RTVSPropertyOp13
 70
     1
102
RTVSPropertyOp14
 70
     1
102
RTVSPropertyOp15
 70
     1
102
RTVSPropertyOp16
 70
     1
102
RTVSPropertyOp17
 70
     1
102
RTVSPropertyOp18
 70
     1
102
RTVSPropertyOp19
 70
     1
102
RTVSPropertyOp20
 70
     1
102
RTVSPropertyOp21
 70
     1
102
RTVSPropertyOp22
 70
     1
102
RTVSPropertyOp23
 70
     1
102
RTVSPropertyOp24
 70
     1
102
RTVSPropertyOp25
 70
     1
102
RTVSPropertyOp26
 70
     1
102
RTVSPropertyOp27
 70
     1
102
RTVSPropertyOp28
 70
     1
102
RTVSPropertyOp29
 70
     1
102
RTVSPropertyOp30
 70
     1
102
RTVSPropertyOp31
 70
     1
102
RTVSPropertyOp32
 70
     1
  0
XRECORD
  5
E54
102
{ACAD_REACTORS
330
E53
102
}
330
E53
100
AcDbXrecord
280
     1
102
RTVSPropertyOp0
 70
     1
102
RTVSPropertyOp1
 70
     1
102
RTVSPropertyOp2
 70
     1
102
RTVSPropertyOp3
 70
     1
102
RTVSPropertyOp4
 70
     1
102
RTVSPropertyOp5
 70
     1
102
RTVSPropertyOp6
 70
     1
102
RTVSPropertyOp7
 70
     1
102
RTVSPropertyOp8
 70
     1
102
RTVSPropertyOp9
 70
     1
102
RTVSPropertyOp10
 70
     1
102
RTVSPropertyOp11
 70
     1
102
RTVSPropertyOp12
 70
     1
102
RTVSPropertyOp13
 70
     1
102
RTVSPropertyOp14
 70
     1
102
RTVSPropertyOp15
 70
     1
102
RTVSPropertyOp16
 70
     1
102
RTVSPropertyOp17
 70
     1
102
RTVSPropertyOp18
 70
     1
102
RTVSPropertyOp19
 70
     1
102
RTVSPropertyOp20
 70
     1
102
RTVSPropertyOp21
 70
     1
102
RTVSPropertyOp22
 70
     1
102
RTVSPropertyOp23
 70
     1
102
RTVSPropertyOp24
 70
     1
102
RTVSPropertyOp25
 70
     1
102
RTVSPropertyOp26
 70
     1
102
RTVSPropertyOp27
 70
     1
102
RTVSPropertyOp28
 70
     1
102
RTVSPropertyOp29
 70
     1
102
RTVSPropertyOp30
 70
     1
102
RTVSPropertyOp31
 70
     1
102
RTVSPropertyOp32
 70
     1
  0
XRECORD
  5
E56
102
{ACAD_REACTORS
330
E55
102
}
330
E55
100
AcDbXrecord
280
     1
102
RTVSPropertyOp0
 70
     1
102
RTVSPropertyOp1
 70
     1
102
RTVSPropertyOp2
 70
     1
102
RTVSPropertyOp3
 70
     1
102
RTVSPropertyOp4
 70
     1
102
RTVSPropertyOp5
 70
     1
102
RTVSPropertyOp6
 70
     1
102
RTVSPropertyOp7
 70
     1
102
RTVSPropertyOp8
 70
     1
102
RTVSPropertyOp9
 70
     1
102
RTVSPropertyOp10
 70
     1
102
RTVSPropertyOp11
 70
     1
102
RTVSPropertyOp12
 70
     1
102
RTVSPropertyOp13
 70
     1
102
RTVSPropertyOp14
 70
     1
102
RTVSPropertyOp15
 70
     1
102
RTVSPropertyOp16
 70
     1
102
RTVSPropertyOp17
 70
     1
102
RTVSPropertyOp18
 70
     1
102
RTVSPropertyOp19
 70
     1
102
RTVSPropertyOp20
 70
     1
102
RTVSPropertyOp21
 70
     1
102
RTVSPropertyOp22
 70
     1
102
RTVSPropertyOp23
 70
     1
102
RTVSPropertyOp24
 70
     1
102
RTVSPropertyOp25
 70
     1
102
RTVSPropertyOp26
 70
     1
102
RTVSPropertyOp27
 70
     1
102
RTVSPropertyOp28
 70
     1
102
RTVSPropertyOp29
 70
     1
102
RTVSPropertyOp30
 70
     1
102
RTVSPropertyOp31
 70
     1
102
RTVSPropertyOp32
 70
     1
  0
XRECORD
  5
E4C
102
{ACAD_REACTORS
330
E4B
102
}
330
E4B
100
AcDbXrecord
280
     1
102
RTVSPropertyOp0
 70
     1
102
RTVSPropertyOp1
 70
     1
102
RTVSPropertyOp2
 70
     1
102
RTVSPropertyOp3
 70
     1
102
RTVSPropertyOp4
 70
     1
102
RTVSPropertyOp5
 70
     1
102
RTVSPropertyOp6
 70
     1
102
RTVSPropertyOp7
 70
     1
102
RTVSPropertyOp8
 70
     1
102
RTVSPropertyOp9
 70
     1
102
RTVSPropertyOp10
 70
     1
102
RTVSPropertyOp11
 70
     1
102
RTVSPropertyOp12
 70
     1
102
RTVSPropertyOp13
 70
     1
102
RTVSPropertyOp14
 70
     1
102
RTVSPropertyOp15
 70
     1
102
RTVSPropertyOp16
 70
     1
102
RTVSPropertyOp17
 70
     1
102
RTVSPropertyOp18
 70
     1
102
RTVSPropertyOp19
 70
     1
102
RTVSPropertyOp20
 70
     1
102
RTVSPropertyOp21
 70
     1
102
RTVSPropertyOp22
 70
     1
102
RTVSPropertyOp23
 70
     1
102
RTVSPropertyOp24
 70
     1
102
RTVSPropertyOp25
 70
     1
102
RTVSPropertyOp26
 70
     1
102
RTVSPropertyOp27
 70
     1
102
RTVSPropertyOp28
 70
     1
102
RTVSPropertyOp29
 70
     1
102
RTVSPropertyOp30
 70
     1
102
RTVSPropertyOp31
 70
     1
102
RTVSPropertyOp32
 70
     1
  0
XRECORD
  5
E40
102
{ACAD_REACTORS
330
E3F
102
}
330
E3F
100
AcDbXrecord
280
     1
102
RTVSPropertyOp0
 70
     1
102
RTVSPropertyOp1
 70
     1
102
RTVSPropertyOp2
 70
     1
102
RTVSPropertyOp3
 70
     1
102
RTVSPropertyOp4
 70
     1
102
RTVSPropertyOp5
 70
     1
102
RTVSPropertyOp6
 70
     1
102
RTVSPropertyOp7
 70
     1
102
RTVSPropertyOp8
 70
     1
102
RTVSPropertyOp9
 70
     1
102
RTVSPropertyOp10
 70
     1
102
RTVSPropertyOp11
 70
     1
102
RTVSPropertyOp12
 70
     1
102
RTVSPropertyOp13
 70
     1
102
RTVSPropertyOp14
 70
     1
102
RTVSPropertyOp15
 70
     1
102
RTVSPropertyOp16
 70
     1
102
RTVSPropertyOp17
 70
     1
102
RTVSPropertyOp18
 70
     1
102
RTVSPropertyOp19
 70
     1
102
RTVSPropertyOp20
 70
     1
102
RTVSPropertyOp21
 70
     1
102
RTVSPropertyOp22
 70
     1
102
RTVSPropertyOp23
 70
     1
102
RTVSPropertyOp24
 70
     1
102
RTVSPropertyOp25
 70
     1
102
RTVSPropertyOp26
 70
     1
102
RTVSPropertyOp27
 70
     1
102
RTVSPropertyOp28
 70
     1
102
RTVSPropertyOp29
 70
     1
102
RTVSPropertyOp30
 70
     1
102
RTVSPropertyOp31
 70
     1
102
RTVSPropertyOp32
 70
     1
  0
XRECORD
  5
E58
102
{ACAD_REACTORS
330
E57
102
}
330
E57
100
AcDbXrecord
280
     1
102
RTVSPropertyOp0
 70
     1
102
RTVSPropertyOp1
 70
     1
102
RTVSPropertyOp2
 70
     1
102
RTVSPropertyOp3
 70
     1
102
RTVSPropertyOp4
 70
     1
102
RTVSPropertyOp5
 70
     1
102
RTVSPropertyOp6
 70
     1
102
RTVSPropertyOp7
 70
     1
102
RTVSPropertyOp8
 70
     1
102
RTVSPropertyOp9
 70
     1
102
RTVSPropertyOp10
 70
     1
102
RTVSPropertyOp11
 70
     1
102
RTVSPropertyOp12
 70
     1
102
RTVSPropertyOp13
 70
     1
102
RTVSPropertyOp14
 70
     1
102
RTVSPropertyOp15
 70
     1
102
RTVSPropertyOp16
 70
     1
102
RTVSPropertyOp17
 70
     1
102
RTVSPropertyOp18
 70
     1
102
RTVSPropertyOp19
 70
     1
102
RTVSPropertyOp20
 70
     1
102
RTVSPropertyOp21
 70
     1
102
RTVSPropertyOp22
 70
     1
102
RTVSPropertyOp23
 70
     1
102
RTVSPropertyOp24
 70
     1
102
RTVSPropertyOp25
 70
     1
102
RTVSPropertyOp26
 70
     1
102
RTVSPropertyOp27
 70
     1
102
RTVSPropertyOp28
 70
     1
102
RTVSPropertyOp29
 70
     1
102
RTVSPropertyOp30
 70
     1
102
RTVSPropertyOp31
 70
     1
102
RTVSPropertyOp32
 70
     1
  0
ENDSEC
  0
EOF
